  0
SECTION
  2
HEADER
  9
$ACADVER
  1
AC1015
  9
$ACADMAINTVER
 70
    20
  9
$DWGCODEPAGE
  3
ANSI_932
  9
$INSBASE
 10
0.0
 20
0.0
 30
0.0
  9
$EXTMIN
 10
50804.90135201868
 20
-33326.13759087565
 30
0.0
  9
$EXTMAX
 10
62930.30135930149
 20
-24768.93759087565
 30
0.0
  9
$LIMMIN
 10
0.0
 20
0.0
  9
$LIMMAX
 10
21000.0
 20
14850.0
  9
$ORTHOMODE
 70
     0
  9
$REGENMODE
 70
     1
  9
$FILLMODE
 70
     1
  9
$QTEXTMODE
 70
     0
  9
$MIRRTEXT
 70
     1
  9
$LTSCALE
 40
20.0
  9
$ATTMODE
 70
     1
  9
$TEXTSIZE
 40
100.0
  9
$TRACEWID
 40
1.0
  9
$TEXTSTYLE
  7
STYLE3
  9
$CLAYER
  8
寸法
  9
$CELTYPE
  6
BYLAYER
  9
$CECOLOR
 62
   256
  9
$CELTSCALE
 40
50.0
  9
$DISPSILH
 70
     0
  9
$DIMSCALE
 40
30.0
  9
$DIMASZ
 40
2.5
  9
$DIMEXO
 40
0.5
  9
$DIMDLI
 40
7.0
  9
$DIMRND
 40
0.0
  9
$DIMDLE
 40
0.0
  9
$DIMEXE
 40
1.5
  9
$DIMTP
 40
0.0
  9
$DIMTM
 40
0.0
  9
$DIMTXT
 40
3.0
  9
$DIMCEN
 40
0.0
  9
$DIMTSZ
 40
0.0
  9
$DIMTOL
 70
     0
  9
$DIMLIM
 70
     0
  9
$DIMTIH
 70
     0
  9
$DIMTOH
 70
     0
  9
$DIMSE1
 70
     0
  9
$DIMSE2
 70
     0
  9
$DIMTAD
 70
     3
  9
$DIMZIN
 70
     8
  9
$DIMBLK
  1

  9
$DIMASO
 70
     1
  9
$DIMSHO
 70
     1
  9
$DIMPOST
  1

  9
$DIMAPOST
  1

  9
$DIMALT
 70
     0
  9
$DIMALTD
 70
     2
  9
$DIMALTF
 40
0.0394
  9
$DIMLFAC
 40
1.0
  9
$DIMTOFL
 70
     1
  9
$DIMTVP
 40
0.0
  9
$DIMTIX
 70
     1
  9
$DIMSOXD
 70
     1
  9
$DIMSAH
 70
     1
  9
$DIMBLK1
  1
DOTSMALL
  9
$DIMBLK2
  1
DOTSMALL
  9
$DIMSTYLE
  2
INABA_S30G
  9
$DIMCLRD
 70
     0
  9
$DIMCLRE
 70
     0
  9
$DIMCLRT
 70
     7
  9
$DIMTFAC
 40
1.0
  9
$DIMGAP
 40
1.0
  9
$DIMJUST
 70
     0
  9
$DIMSD1
 70
     0
  9
$DIMSD2
 70
     0
  9
$DIMTOLJ
 70
     1
  9
$DIMTZIN
 70
     0
  9
$DIMALTZ
 70
     0
  9
$DIMALTTZ
 70
     0
  9
$DIMUPT
 70
     0
  9
$DIMDEC
 70
     1
  9
$DIMTDEC
 70
     4
  9
$DIMALTU
 70
     2
  9
$DIMALTTD
 70
     2
  9
$DIMTXSTY
  7
STYLE1
  9
$DIMAUNIT
 70
     0
  9
$DIMADEC
 70
     0
  9
$DIMALTRND
 40
0.0
  9
$DIMAZIN
 70
     0
  9
$DIMDSEP
 70
    46
  9
$DIMATFIT
 70
     3
  9
$DIMFRAC
 70
     0
  9
$DIMLDRBLK
  1
DOTSMALL
  9
$DIMLUNIT
 70
     2
  9
$DIMLWD
 70
    -2
  9
$DIMLWE
 70
    -2
  9
$DIMTMOVE
 70
     0
  9
$LUNITS
 70
     2
  9
$LUPREC
 70
     1
  9
$SKETCHINC
 40
1.0
  9
$FILLETRAD
 40
0.0
  9
$AUNITS
 70
     0
  9
$AUPREC
 70
     0
  9
$MENU
  1
acad
  9
$ELEVATION
 40
0.0
  9
$PELEVATION
 40
0.0
  9
$THICKNESS
 40
0.0
  9
$LIMCHECK
 70
     0
  9
$CHAMFERA
 40
0.0
  9
$CHAMFERB
 40
0.0
  9
$CHAMFERC
 40
0.0
  9
$CHAMFERD
 40
0.0
  9
$SKPOLY
 70
     0
  9
$TDCREATE
 40
2451802.696345833
  9
$TDUCREATE
 40
2451802.321345833
  9
$TDUPDATE
 40
2455813.723504410
  9
$TDUUPDATE
 40
2455813.348504410
  9
$TDINDWG
 40
1.6335182986
  9
$TDUSRTIMER
 40
1.6335182986
  9
$USRTIMER
 70
     1
  9
$ANGBASE
 50
0.0
  9
$ANGDIR
 70
     0
  9
$PDMODE
 70
     3
  9
$PDSIZE
 40
2.0
  9
$PLINEWID
 40
0.0
  9
$SPLFRAME
 70
     0
  9
$SPLINETYPE
 70
     6
  9
$SPLINESEGS
 70
     8
  9
$HANDSEED
  5
35B5A
  9
$SURFTAB1
 70
     6
  9
$SURFTAB2
 70
     6
  9
$SURFTYPE
 70
     6
  9
$SURFU
 70
     6
  9
$SURFV
 70
     6
  9
$UCSBASE
  2

  9
$UCSNAME
  2

  9
$UCSORG
 10
0.0
 20
0.0
 30
0.0
  9
$UCSXDIR
 10
1.0
 20
0.0
 30
0.0
  9
$UCSYDIR
 10
0.0
 20
1.0
 30
0.0
  9
$UCSORTHOREF
  2

  9
$UCSORTHOVIEW
 70
     0
  9
$UCSORGTOP
 10
0.0
 20
0.0
 30
0.0
  9
$UCSORGBOTTOM
 10
0.0
 20
0.0
 30
0.0
  9
$UCSORGLEFT
 10
0.0
 20
0.0
 30
0.0
  9
$UCSORGRIGHT
 10
0.0
 20
0.0
 30
0.0
  9
$UCSORGFRONT
 10
0.0
 20
0.0
 30
0.0
  9
$UCSORGBACK
 10
0.0
 20
0.0
 30
0.0
  9
$PUCSBASE
  2

  9
$PUCSNAME
  2

  9
$PUCSORG
 10
0.0
 20
0.0
 30
0.0
  9
$PUCSXDIR
 10
1.0
 20
0.0
 30
0.0
  9
$PUCSYDIR
 10
0.0
 20
1.0
 30
0.0
  9
$PUCSORTHOREF
  2

  9
$PUCSORTHOVIEW
 70
     0
  9
$PUCSORGTOP
 10
0.0
 20
0.0
 30
0.0
  9
$PUCSORGBOTTOM
 10
0.0
 20
0.0
 30
0.0
  9
$PUCSORGLEFT
 10
0.0
 20
0.0
 30
0.0
  9
$PUCSORGRIGHT
 10
0.0
 20
0.0
 30
0.0
  9
$PUCSORGFRONT
 10
0.0
 20
0.0
 30
0.0
  9
$PUCSORGBACK
 10
0.0
 20
0.0
 30
0.0
  9
$USERI1
 70
     0
  9
$USERI2
 70
     0
  9
$USERI3
 70
     0
  9
$USERI4
 70
     0
  9
$USERI5
 70
     0
  9
$USERR1
 40
0.0
  9
$USERR2
 40
0.0
  9
$USERR3
 40
0.0
  9
$USERR4
 40
0.0
  9
$USERR5
 40
0.0
  9
$WORLDVIEW
 70
     1
  9
$SHADEDGE
 70
     3
  9
$SHADEDIF
 70
    70
  9
$TILEMODE
 70
     1
  9
$MAXACTVP
 70
    16
  9
$PINSBASE
 10
0.0
 20
0.0
 30
0.0
  9
$PLIMCHECK
 70
     0
  9
$PEXTMIN
 10
1.000000000000000E+20
 20
1.000000000000000E+20
 30
1.000000000000000E+20
  9
$PEXTMAX
 10
-1.000000000000000E+20
 20
-1.000000000000000E+20
 30
-1.000000000000000E+20
  9
$PLIMMIN
 10
0.0
 20
0.0
  9
$PLIMMAX
 10
420.0
 20
297.0
  9
$UNITMODE
 70
     0
  9
$VISRETAIN
 70
     0
  9
$PLINEGEN
 70
     0
  9
$PSLTSCALE
 70
     0
  9
$TREEDEPTH
 70
  3020
  9
$CMLSTYLE
  2
STANDARD
  9
$CMLJUST
 70
     0
  9
$CMLSCALE
 40
1.0
  9
$PROXYGRAPHICS
 70
     1
  9
$MEASUREMENT
 70
     1
  9
$CELWEIGHT
370
    -1
  9
$ENDCAPS
280
     0
  9
$JOINSTYLE
280
     0
  9
$LWDISPLAY
290
     0
  9
$INSUNITS
 70
     0
  9
$HYPERLINKBASE
  1

  9
$STYLESHEET
  1
ACA3.ctb
  9
$XEDIT
290
     1
  9
$CEPSNTYPE
380
     0
  9
$PSTYLEMODE
290
     1
  9
$FINGERPRINTGUID
  2
{DAFEAD6E-FF36-46F8-92D6-F05F9FF2CF3B}
  9
$VERSIONGUID
  2
{42B35914-AABE-4B68-88BB-D3133A816AB3}
  9
$EXTNAMES
290
     1
  9
$PSVPSCALE
 40
0.0
  9
$OLESTARTUP
290
     0
  0
ENDSEC
  0
SECTION
  2
CLASSES
  0
CLASS
  1
ACDBDICTIONARYWDFLT
  2
AcDbDictionaryWithDefault
  3
ObjectDBX Classes
 90
        0
280
     0
281
     0
  0
CLASS
  1
DICTIONARYVAR
  2
AcDbDictionaryVar
  3
ObjectDBX Classes
 90
        0
280
     0
281
     0
  0
CLASS
  1
ACDBPLACEHOLDER
  2
AcDbPlaceHolder
  3
ObjectDBX Classes
 90
        0
280
     0
281
     0
  0
CLASS
  1
LAYOUT
  2
AcDbLayout
  3
ObjectDBX Classes
 90
        0
280
     0
281
     0
  0
ENDSEC
  0
SECTION
  2
TABLES
  0
TABLE
  2
VPORT
  5
746D
330
0
100
AcDbSymbolTable
 70
     2
  0
VPORT
  5
35B52
330
746D
100
AcDbSymbolTableRecord
100
AcDbViewportTableRecord
  2
*Active
 70
     0
 10
0.0
 20
0.0
 11
1.0
 21
1.0
 12
57953.20919983699
 22
-29046.43588396342
 13
0.0
 23
0.0
 14
10.0
 24
10.0
 15
10.0
 25
10.0
 16
0.0
 26
0.0
 36
1.0
 17
0.0
 27
0.0
 37
0.0
 40
8624.680881655786
 41
1.778877887788778
 42
50.0
 43
0.0
 44
0.0
 50
0.0
 51
0.0
 71
     0
 72
     0
 73
     1
 74
     0
 75
     0
 76
     0
 77
     0
 78
     1
281
     0
 65
     1
110
0.0
120
0.0
130
0.0
111
1.0
121
0.0
131
0.0
112
0.0
122
1.0
132
0.0
 79
     0
146
0.0
  0
ENDTAB
  0
TABLE
  2
LTYPE
  5
746A
330
0
100
AcDbSymbolTable
 70
     3
  0
LTYPE
  5
7477
330
746A
100
AcDbSymbolTableRecord
100
AcDbLinetypeTableRecord
  2
BYBLOCK
 70
     0
  3

 72
    65
 73
     0
 40
0.0
  0
LTYPE
  5
7478
330
746A
100
AcDbSymbolTableRecord
100
AcDbLinetypeTableRecord
  2
BYLAYER
 70
     0
  3

 72
    65
 73
     0
 40
0.0
  0
LTYPE
  5
7479
330
746A
100
AcDbSymbolTableRecord
100
AcDbLinetypeTableRecord
  2
CONTINUOUS
 70
     0
  3
Solid line
 72
    65
 73
     0
 40
0.0
  0
LTYPE
  5
7816
330
746A
100
AcDbSymbolTableRecord
100
AcDbLinetypeTableRecord
  2
CENTER
 70
     0
  3
____ _ ____ _ ____ _ ____ _ ____ _ ____ _ ____ 
 72
    65
 73
     4
 40
2.0
 49
1.25
 74
     0
 49
-0.25
 74
     0
 49
0.25
 74
     0
 49
-0.25
 74
     0
  0
LTYPE
  5
781B
330
746A
100
AcDbSymbolTableRecord
100
AcDbLinetypeTableRecord
  2
PHANTOM
 70
     0
  3
______  __  __  ______  __  __  ______  __  __ 
 72
    65
 73
     6
 40
2.5
 49
1.25
 74
     0
 49
-0.25
 74
     0
 49
0.25
 74
     0
 49
-0.25
 74
     0
 49
0.25
 74
     0
 49
-0.25
 74
     0
  0
ENDTAB
  0
TABLE
  2
LAYER
  5
7467
102
{ACAD_XDICTIONARY
360
11827
102
}
330
0
100
AcDbSymbolTable
 70
    13
  0
LAYER
  5
7474
330
7467
100
AcDbSymbolTableRecord
100
AcDbLayerTableRecord
  2
0
 70
     0
 62
     7
  6
CONTINUOUS
370
    -3
390
11752
  0
LAYER
  5
DEB2
330
7467
100
AcDbSymbolTableRecord
100
AcDbLayerTableRecord
  2
センター
 70
     0
 62
     3
  6
CENTER
370
    -3
390
11752
  0
LAYER
  5
DEB3
330
7467
100
AcDbSymbolTableRecord
100
AcDbLayerTableRecord
  2
寸法
 70
     0
 62
     4
  6
CONTINUOUS
370
    -3
390
11752
  0
LAYER
  5
DEB4
330
7467
100
AcDbSymbolTableRecord
100
AcDbLayerTableRecord
  2
部品1
 70
     0
 62
     7
  6
CONTINUOUS
370
    -3
390
11752
  0
LAYER
  5
DEB5
330
7467
100
AcDbSymbolTableRecord
100
AcDbLayerTableRecord
  2
補助
 70
     0
 62
    -1
  6
CONTINUOUS
370
    -3
390
11752
  0
LAYER
  5
DEB6
330
7467
100
AcDbSymbolTableRecord
100
AcDbLayerTableRecord
  2
文字
 70
     0
 62
     7
  6
CONTINUOUS
370
    -3
390
11752
  0
LAYER
  5
F255
330
7467
100
AcDbSymbolTableRecord
100
AcDbLayerTableRecord
  2
DEFPOINTS
 70
     0
 62
     7
  6
CONTINUOUS
290
     0
370
    -3
390
11752
  0
LAYER
  5
10B54
330
7467
100
AcDbSymbolTableRecord
100
AcDbLayerTableRecord
  2
仕様書枠
 70
     0
 62
   230
  6
CONTINUOUS
370
    -3
390
11752
  0
LAYER
  5
11729
330
7467
100
AcDbSymbolTableRecord
100
AcDbLayerTableRecord
  2
Ｇ．Ｌ
 70
     0
 62
    30
  6
CONTINUOUS
370
    -3
390
11752
  0
LAYER
  5
1173F
330
7467
100
AcDbSymbolTableRecord
100
AcDbLayerTableRecord
  2
細線
 70
     0
 62
     5
  6
CONTINUOUS
370
    -3
390
11752
  0
LAYER
  5
1F38A
330
7467
100
AcDbSymbolTableRecord
100
AcDbLayerTableRecord
  2
U7
 70
     0
 62
     2
  6
CONTINUOUS
370
    -3
390
11752
  0
LAYER
  5
20750
330
7467
100
AcDbSymbolTableRecord
100
AcDbLayerTableRecord
  2
KIN-T
 70
     0
 62
     3
  6
CONTINUOUS
370
    -3
390
11752
  0
LAYER
  5
35AE2
330
7467
100
AcDbSymbolTableRecord
100
AcDbLayerTableRecord
  2
想像線
 70
     0
 62
     6
  6
PHANTOM
370
    -3
390
11752
  0
ENDTAB
  0
TABLE
  2
STYLE
  5
7468
330
0
100
AcDbSymbolTable
 70
     4
  0
STYLE
  5
7475
330
7468
100
AcDbSymbolTableRecord
100
AcDbTextStyleTableRecord
  2
STANDARD
 70
     0
 40
0.0
 41
1.0
 50
0.0
 71
     0
 42
4.0
  3
txt
  4
C:\AutoCAD LT\bigfont.shx
  0
STYLE
  5
F706
330
7468
100
AcDbSymbolTableRecord
100
AcDbTextStyleTableRecord
  2
STYLE1
 70
     0
 40
0.0
 41
1.0
 50
0.0
 71
     0
 42
4.0
  3
isocp.shx
  4
bigfont.shx
  0
STYLE
  5
103BF
330
7468
100
AcDbSymbolTableRecord
100
AcDbTextStyleTableRecord
  2
STYLE2
 70
     0
 40
0.0
 41
1.0
 50
0.0
 71
     0
 42
100.0
  3
MS PGothic.ttf
  4

1001
ACAD
1000
MS PGothic
1071
    32818
  0
STYLE
  5
10BAA
330
7468
100
AcDbSymbolTableRecord
100
AcDbTextStyleTableRecord
  2
STYLE3
 70
     0
 40
0.0
 41
1.0
 50
0.0
 71
     0
 42
100.0
  3
DFPGothic-EB.ttf
  4

1001
ACAD
1000
DFPGothic-EB
1071
    32818
  0
ENDTAB
  0
TABLE
  2
VIEW
  5
746B
330
0
100
AcDbSymbolTable
 70
     0
  0
ENDTAB
  0
TABLE
  2
UCS
  5
746C
330
0
100
AcDbSymbolTable
 70
     0
  0
ENDTAB
  0
TABLE
  2
APPID
  5
746E
330
0
100
AcDbSymbolTable
 70
     8
  0
APPID
  5
7476
330
746E
100
AcDbSymbolTableRecord
100
AcDbRegAppTableRecord
  2
ACAD
 70
     0
  0
APPID
  5
DEA9
330
746E
100
AcDbSymbolTableRecord
100
AcDbRegAppTableRecord
  2
CONTENTBLOCKICON
 70
     0
  0
APPID
  5
DEAA
330
746E
100
AcDbSymbolTableRecord
100
AcDbRegAppTableRecord
  2
CONTENTBLOCKDESCRIPTION
 70
     0
  0
APPID
  5
E71D
330
746E
100
AcDbSymbolTableRecord
100
AcDbRegAppTableRecord
  2
CONTENTTABDATA
 70
     0
  0
APPID
  5
E71E
330
746E
100
AcDbSymbolTableRecord
100
AcDbRegAppTableRecord
  2
CONTENTCURRENTTAB
 70
     0
  0
APPID
  5
F3BA
330
746E
100
AcDbSymbolTableRecord
100
AcDbRegAppTableRecord
  2
DRAWINGVARIABLESXDATA
 70
     0
  0
APPID
  5
1F3A5
330
746E
100
AcDbSymbolTableRecord
100
AcDbRegAppTableRecord
  2
AUTOCAD_POSTSCRIPT_FIGURE
 70
     0
  0
APPID
  5
27B11
330
746E
100
AcDbSymbolTableRecord
100
AcDbRegAppTableRecord
  2
AcDbBlockRepETag
 70
     0
  0
ENDTAB
  0
TABLE
  2
DIMSTYLE
  5
746F
330
0
100
AcDbSymbolTable
 70
     2
100
AcDbDimStyleTable
 71
     1
340
13D04
  0
DIMSTYLE
105
13D04
102
{ACAD_REACTORS
330
2BFAB
330
2BFAA
330
2BFA9
330
2BFA8
330
2BFA7
330
2BF9D
330
2BF98
330
2BF97
330
2BF96
330
2BF95
330
2BF94
330
2BF93
330
2BF92
330
2BF91
330
2BF2B
330
2BF2A
330
2BF29
330
2BF25
330
2BEF8
330
34EA9
330
34EA8
330
34EA7
330
34EA6
330
34EA5
330
34EA4
330
34DF4
330
34DF3
330
34DF2
330
35B11
102
}
330
746F
100
AcDbSymbolTableRecord
100
AcDbDimStyleTableRecord
  2
INABA_S30G
 70
     0
 40
30.0
 41
2.5
 42
0.5
 43
7.0
 44
1.5
 73
     0
 74
     0
 77
     3
 78
     8
140
3.0
141
0.0
143
0.0394
147
1.0
172
     1
173
     1
174
     1
175
     1
178
     7
271
     1
340
F706
341
F770
343
F770
344
F770
  0
DIMSTYLE
105
2503A
330
746F
100
AcDbSymbolTableRecord
100
AcDbDimStyleTableRecord
  2
Standard
 70
     0
340
7475
  0
ENDTAB
  0
TABLE
  2
BLOCK_RECORD
  5
7466
330
0
100
AcDbSymbolTable
 70
    30
  0
BLOCK_RECORD
  5
747D
330
7466
100
AcDbSymbolTableRecord
100
AcDbBlockTableRecord
  2
*MODEL_SPACE
340
11757
  0
BLOCK_RECORD
  5
747A
330
7466
100
AcDbSymbolTableRecord
100
AcDbBlockTableRecord
  2
*PAPER_SPACE
340
11758
  0
BLOCK_RECORD
  5
F770
330
7466
100
AcDbSymbolTableRecord
100
AcDbBlockTableRecord
  2
_DOTSMALL
340
0
102
{BLKREFS
331
35982
331
35983
331
3598B
331
3598C
331
35994
331
35995
331
3599D
331
3599E
331
359A6
331
359A7
331
359AF
331
359B0
331
359B8
331
359B9
331
359C1
331
359C2
331
359CA
331
359CB
331
359DA
331
359DB
331
359E3
331
359E4
331
359EC
331
359ED
331
359FC
331
359FD
331
35A06
331
35A07
331
35A10
331
35A11
331
35A20
331
35A21
331
35A29
331
35A2A
331
35A34
331
35A35
331
35A3D
331
35A3E
331
35A46
331
35A47
331
35A50
331
35A51
331
35A5A
331
35A5B
331
35A6C
331
35A6D
331
35A75
331
35A76
331
35B3F
331
35B40
102
}
  0
BLOCK_RECORD
  5
2BFAF
330
7466
100
AcDbSymbolTableRecord
100
AcDbBlockTableRecord
  2
*D1
340
0
  0
BLOCK_RECORD
  5
2BFBB
330
7466
100
AcDbSymbolTableRecord
100
AcDbBlockTableRecord
  2
*D2
340
0
  0
BLOCK_RECORD
  5
2BFC7
330
7466
100
AcDbSymbolTableRecord
100
AcDbBlockTableRecord
  2
*D3
340
0
  0
BLOCK_RECORD
  5
2BFD3
330
7466
100
AcDbSymbolTableRecord
100
AcDbBlockTableRecord
  2
*D4
340
0
  0
BLOCK_RECORD
  5
2BFDF
330
7466
100
AcDbSymbolTableRecord
100
AcDbBlockTableRecord
  2
*D5
340
0
  0
BLOCK_RECORD
  5
2BFEB
330
7466
100
AcDbSymbolTableRecord
100
AcDbBlockTableRecord
  2
*D6
340
0
  0
BLOCK_RECORD
  5
2BFF7
330
7466
100
AcDbSymbolTableRecord
100
AcDbBlockTableRecord
  2
*D7
340
0
  0
BLOCK_RECORD
  5
2C003
330
7466
100
AcDbSymbolTableRecord
100
AcDbBlockTableRecord
  2
*D8
340
0
  0
BLOCK_RECORD
  5
2C00F
330
7466
100
AcDbSymbolTableRecord
100
AcDbBlockTableRecord
  2
*D9
340
0
  0
BLOCK_RECORD
  5
2C01B
330
7466
100
AcDbSymbolTableRecord
100
AcDbBlockTableRecord
  2
*D10
340
0
  0
BLOCK_RECORD
  5
2C025
330
7466
100
AcDbSymbolTableRecord
100
AcDbBlockTableRecord
  2
*D11
340
0
  0
BLOCK_RECORD
  5
2C031
330
7466
100
AcDbSymbolTableRecord
100
AcDbBlockTableRecord
  2
*D12
340
0
  0
BLOCK_RECORD
  5
2C03D
330
7466
100
AcDbSymbolTableRecord
100
AcDbBlockTableRecord
  2
*D13
340
0
  0
BLOCK_RECORD
  5
2C049
330
7466
100
AcDbSymbolTableRecord
100
AcDbBlockTableRecord
  2
*D14
340
0
  0
BLOCK_RECORD
  5
2C115
330
7466
100
AcDbSymbolTableRecord
100
AcDbBlockTableRecord
  2
*D15
340
0
  0
BLOCK_RECORD
  5
2C121
330
7466
100
AcDbSymbolTableRecord
100
AcDbBlockTableRecord
  2
*D16
340
0
  0
BLOCK_RECORD
  5
2C12E
330
7466
100
AcDbSymbolTableRecord
100
AcDbBlockTableRecord
  2
*D17
340
0
  0
BLOCK_RECORD
  5
2C161
330
7466
100
AcDbSymbolTableRecord
100
AcDbBlockTableRecord
  2
*D18
340
0
  0
BLOCK_RECORD
  5
2C16B
330
7466
100
AcDbSymbolTableRecord
100
AcDbBlockTableRecord
  2
*D19
340
0
  0
BLOCK_RECORD
  5
34F13
330
7466
100
AcDbSymbolTableRecord
100
AcDbBlockTableRecord
  2
*D20
340
0
  0
BLOCK_RECORD
  5
34F1F
330
7466
100
AcDbSymbolTableRecord
100
AcDbBlockTableRecord
  2
*D21
340
0
  0
BLOCK_RECORD
  5
34F2D
330
7466
100
AcDbSymbolTableRecord
100
AcDbBlockTableRecord
  2
*D22
340
0
  0
BLOCK_RECORD
  5
34F39
330
7466
100
AcDbSymbolTableRecord
100
AcDbBlockTableRecord
  2
*D23
340
0
  0
BLOCK_RECORD
  5
34F45
330
7466
100
AcDbSymbolTableRecord
100
AcDbBlockTableRecord
  2
*D24
340
0
  0
BLOCK_RECORD
  5
34F52
330
7466
100
AcDbSymbolTableRecord
100
AcDbBlockTableRecord
  2
*D25
340
0
  0
BLOCK_RECORD
  5
34F5F
330
7466
100
AcDbSymbolTableRecord
100
AcDbBlockTableRecord
  2
*D26
340
0
  0
BLOCK_RECORD
  5
34F69
330
7466
100
AcDbSymbolTableRecord
100
AcDbBlockTableRecord
  2
*D27
340
0
  0
BLOCK_RECORD
  5
34F77
330
7466
100
AcDbSymbolTableRecord
100
AcDbBlockTableRecord
  2
*D28
340
0
  0
BLOCK_RECORD
  5
35B12
330
7466
100
AcDbSymbolTableRecord
100
AcDbBlockTableRecord
  2
*D29
340
0
  0
ENDTAB
  0
ENDSEC
  0
SECTION
  2
BLOCKS
  0
BLOCK
  5
7489
330
747D
100
AcDbEntity
  8
0
100
AcDbBlockBegin
  2
*MODEL_SPACE
 70
     0
 10
0.0
 20
0.0
 30
0.0
  3
*MODEL_SPACE
  1

  0
ENDBLK
  5
748A
330
747D
100
AcDbEntity
  8
0
100
AcDbBlockEnd
  0
BLOCK
  5
7487
330
747A
100
AcDbEntity
 67
     1
  8
0
100
AcDbBlockBegin
  2
*PAPER_SPACE
 70
     0
 10
0.0
 20
0.0
 30
0.0
  3
*PAPER_SPACE
  1

  0
ENDBLK
  5
7488
330
747A
100
AcDbEntity
 67
     1
  8
0
100
AcDbBlockEnd
  0
BLOCK
  5
F771
330
F770
100
AcDbEntity
  8
0
 48
50.0
100
AcDbBlockBegin
  2
_DOTSMALL
 70
     0
 10
0.0
 20
0.0
 30
0.0
  3
_DOTSMALL
  1

  0
LWPOLYLINE
  5
F772
330
F770
100
AcDbEntity
  8
0
  6
ByBlock
 62
     0
 48
50.0
100
AcDbPolyline
 90
        2
 70
     1
 43
0.5
 10
-0.0625
 20
0.0
 42
1.0
 10
0.0625
 20
0.0
 42
1.0
  0
ENDBLK
  5
F776
330
F770
100
AcDbEntity
  8
0
 48
50.0
100
AcDbBlockEnd
  0
BLOCK
  5
2BFB9
330
2BFAF
100
AcDbEntity
  8
0
 48
50.0
100
AcDbBlockBegin
  2
*D1
 70
     1
 10
0.0
 20
0.0
 30
0.0
  3
*D1
  1

  0
LINE
  5
3597F
330
2BFAF
100
AcDbEntity
  8
寸法
 62
     0
 48
50.0
370
    -2
100
AcDbLine
 10
57483.14792223364
 20
-27817.6535640759
 30
0.0
 11
57275.83341894946
 21
-27817.6535640759
 31
0.0
  0
LINE
  5
35980
330
2BFAF
100
AcDbEntity
  8
寸法
 62
     0
 48
50.0
370
    -2
100
AcDbLine
 10
57483.14792223364
 20
-28117.6535640759
 30
0.0
 11
57275.83341894946
 21
-28117.65356407589
 31
0.0
  0
LINE
  5
35981
330
2BFAF
100
AcDbEntity
  8
寸法
 62
     0
 48
50.0
370
    -2
100
AcDbLine
 10
57320.83341894946
 20
-27817.6535640759
 30
0.0
 11
57320.83341894946
 21
-28117.65356407589
 31
0.0
  0
INSERT
  5
35982
330
2BFAF
100
AcDbEntity
  8
寸法
 62
     0
 48
50.0
370
    -2
100
AcDbBlockReference
  2
_DOTSMALL
 10
57320.83341894946
 20
-27817.6535640759
 30
0.0
 41
75.0
 42
75.0
 43
75.0
 50
90.0
  0
INSERT
  5
35983
330
2BFAF
100
AcDbEntity
  8
寸法
 62
     0
 48
50.0
370
    -2
100
AcDbBlockReference
  2
_DOTSMALL
 10
57320.83341894946
 20
-28117.65356407589
 30
0.0
 41
75.0
 42
75.0
 43
75.0
 50
270.0
  0
MTEXT
  5
35984
330
2BFAF
100
AcDbEntity
  8
寸法
 62
     7
 48
50.0
100
AcDbMText
 10
57245.83341894946
 20
-27967.65356407589
 30
0.0
 40
90.0
 41
0.0
 71
     5
 72
     1
  1
\A1;300
  7
STYLE1
 11
0.0000000000000001
 21
1.0
 31
0.0
 73
     1
 44
1.0
1001
ACAD
1000
MTEXTBEGIN
1070
    73
1070
     1
1070
    44
1040
1.0
1070
    74
1070
     0
1000
MTEXTEND
  0
POINT
  5
35985
330
2BFAF
100
AcDbEntity
  8
DEFPOINTS
 62
     0
 48
50.0
100
AcDbPoint
 10
57498.14792223364
 20
-27817.6535640759
 30
0.0
  0
POINT
  5
35986
330
2BFAF
100
AcDbEntity
  8
DEFPOINTS
 62
     0
 48
50.0
100
AcDbPoint
 10
57498.14792223364
 20
-28117.6535640759
 30
0.0
  0
POINT
  5
35987
330
2BFAF
100
AcDbEntity
  8
DEFPOINTS
 62
     0
 48
50.0
100
AcDbPoint
 10
57320.83341894946
 20
-28117.65356407589
 30
0.0
  0
ENDBLK
  5
2BFBA
330
2BFAF
100
AcDbEntity
  8
0
 48
50.0
100
AcDbBlockEnd
  0
BLOCK
  5
2BFC5
330
2BFBB
100
AcDbEntity
  8
0
 48
50.0
100
AcDbBlockBegin
  2
*D2
 70
     1
 10
0.0
 20
0.0
 30
0.0
  3
*D2
  1

  0
LINE
  5
35988
330
2BFBB
100
AcDbEntity
  8
寸法
 62
     0
 48
50.0
370
    -2
100
AcDbLine
 10
57483.14792223364
 20
-27817.6535640759
 30
0.0
 11
57098.51891566529
 21
-27817.6535640759
 31
0.0
  0
LINE
  5
35989
330
2BFBB
100
AcDbEntity
  8
寸法
 62
     0
 48
50.0
370
    -2
100
AcDbLine
 10
57483.14792223364
 20
-28917.6535640759
 30
0.0
 11
57098.51891566529
 21
-28917.6535640759
 31
0.0
  0
LINE
  5
3598A
330
2BFBB
100
AcDbEntity
  8
寸法
 62
     0
 48
50.0
370
    -2
100
AcDbLine
 10
57143.51891566529
 20
-27817.6535640759
 30
0.0
 11
57143.51891566529
 21
-28917.6535640759
 31
0.0
  0
INSERT
  5
3598B
330
2BFBB
100
AcDbEntity
  8
寸法
 62
     0
 48
50.0
370
    -2
100
AcDbBlockReference
  2
_DOTSMALL
 10
57143.51891566529
 20
-27817.6535640759
 30
0.0
 41
75.0
 42
75.0
 43
75.0
 50
90.0
  0
INSERT
  5
3598C
330
2BFBB
100
AcDbEntity
  8
寸法
 62
     0
 48
50.0
370
    -2
100
AcDbBlockReference
  2
_DOTSMALL
 10
57143.51891566529
 20
-28917.6535640759
 30
0.0
 41
75.0
 42
75.0
 43
75.0
 50
270.0
  0
MTEXT
  5
3598D
330
2BFBB
100
AcDbEntity
  8
寸法
 62
     7
 48
50.0
100
AcDbMText
 10
57068.5189156653
 20
-28367.65356407589
 30
0.0
 40
90.0
 41
0.0
 71
     5
 72
     1
  1
\A1;1100
  7
STYLE1
 11
0.0000000000000001
 21
1.0
 31
0.0
 73
     1
 44
1.0
1001
ACAD
1000
MTEXTBEGIN
1070
    73
1070
     1
1070
    44
1040
1.0
1070
    74
1070
     0
1000
MTEXTEND
  0
POINT
  5
3598E
330
2BFBB
100
AcDbEntity
  8
DEFPOINTS
 62
     0
 48
50.0
100
AcDbPoint
 10
57498.14792223364
 20
-27817.6535640759
 30
0.0
  0
POINT
  5
3598F
330
2BFBB
100
AcDbEntity
  8
DEFPOINTS
 62
     0
 48
50.0
100
AcDbPoint
 10
57498.14792223364
 20
-28917.6535640759
 30
0.0
  0
POINT
  5
35990
330
2BFBB
100
AcDbEntity
  8
DEFPOINTS
 62
     0
 48
50.0
100
AcDbPoint
 10
57143.51891566529
 20
-28917.6535640759
 30
0.0
  0
ENDBLK
  5
2BFC6
330
2BFBB
100
AcDbEntity
  8
0
 48
50.0
100
AcDbBlockEnd
  0
BLOCK
  5
2BFD1
330
2BFC7
100
AcDbEntity
  8
0
 48
50.0
100
AcDbBlockBegin
  2
*D3
 70
     1
 10
0.0
 20
0.0
 30
0.0
  3
*D3
  1

  0
LINE
  5
35991
330
2BFC7
100
AcDbEntity
  8
寸法
 62
     0
 48
50.0
370
    -2
100
AcDbLine
 10
57483.14792223364
 20
-28117.6535640759
 30
0.0
 11
57275.83341894946
 21
-28117.65356407589
 31
0.0
  0
LINE
  5
35992
330
2BFC7
100
AcDbEntity
  8
寸法
 62
     0
 48
50.0
370
    -2
100
AcDbLine
 10
57483.14792223364
 20
-28917.6535640759
 30
0.0
 11
57275.83341894946
 21
-28917.6535640759
 31
0.0
  0
LINE
  5
35993
330
2BFC7
100
AcDbEntity
  8
寸法
 62
     0
 48
50.0
370
    -2
100
AcDbLine
 10
57320.83341894946
 20
-28117.65356407589
 30
0.0
 11
57320.83341894946
 21
-28917.6535640759
 31
0.0
  0
INSERT
  5
35994
330
2BFC7
100
AcDbEntity
  8
寸法
 62
     0
 48
50.0
370
    -2
100
AcDbBlockReference
  2
_DOTSMALL
 10
57320.83341894946
 20
-28117.65356407589
 30
0.0
 41
75.0
 42
75.0
 43
75.0
 50
90.0
  0
INSERT
  5
35995
330
2BFC7
100
AcDbEntity
  8
寸法
 62
     0
 48
50.0
370
    -2
100
AcDbBlockReference
  2
_DOTSMALL
 10
57320.83341894946
 20
-28917.6535640759
 30
0.0
 41
75.0
 42
75.0
 43
75.0
 50
270.0
  0
MTEXT
  5
35996
330
2BFC7
100
AcDbEntity
  8
寸法
 62
     7
 48
50.0
100
AcDbMText
 10
57245.83341894946
 20
-28517.65356407589
 30
0.0
 40
90.0
 41
0.0
 71
     5
 72
     1
  1
\A1;800
  7
STYLE1
 11
0.0000000000000001
 21
1.0
 31
0.0
 73
     1
 44
1.0
1001
ACAD
1000
MTEXTBEGIN
1070
    73
1070
     1
1070
    44
1040
1.0
1070
    74
1070
     0
1000
MTEXTEND
  0
POINT
  5
35997
330
2BFC7
100
AcDbEntity
  8
DEFPOINTS
 62
     0
 48
50.0
100
AcDbPoint
 10
57498.14792223364
 20
-28117.6535640759
 30
0.0
  0
POINT
  5
35998
330
2BFC7
100
AcDbEntity
  8
DEFPOINTS
 62
     0
 48
50.0
100
AcDbPoint
 10
57498.14792223364
 20
-28917.6535640759
 30
0.0
  0
POINT
  5
35999
330
2BFC7
100
AcDbEntity
  8
DEFPOINTS
 62
     0
 48
50.0
100
AcDbPoint
 10
57320.83341894946
 20
-28917.6535640759
 30
0.0
  0
ENDBLK
  5
2BFD2
330
2BFC7
100
AcDbEntity
  8
0
 48
50.0
100
AcDbBlockEnd
  0
BLOCK
  5
2BFDD
330
2BFD3
100
AcDbEntity
  8
0
 48
50.0
100
AcDbBlockBegin
  2
*D4
 70
     1
 10
0.0
 20
0.0
 30
0.0
  3
*D4
  1

  0
LINE
  5
3599A
330
2BFD3
100
AcDbEntity
  8
寸法
 62
     0
 48
50.0
370
    -2
100
AcDbLine
 10
57498.14792223364
 20
-28932.6535640759
 30
0.0
 11
57498.14792223364
 21
-29438.92599615007
 31
0.0
  0
LINE
  5
3599B
330
2BFD3
100
AcDbEntity
  8
寸法
 62
     0
 48
50.0
370
    -2
100
AcDbLine
 10
58298.14792223364
 20
-28932.6535640759
 30
0.0
 11
58298.14792223364
 21
-29438.92599615007
 31
0.0
  0
LINE
  5
3599C
330
2BFD3
100
AcDbEntity
  8
寸法
 62
     0
 48
50.0
370
    -2
100
AcDbLine
 10
57498.14792223364
 20
-29393.92599615007
 30
0.0
 11
58298.14792223364
 21
-29393.92599615007
 31
0.0
  0
INSERT
  5
3599D
330
2BFD3
100
AcDbEntity
  8
寸法
 62
     0
 48
50.0
370
    -2
100
AcDbBlockReference
  2
_DOTSMALL
 10
57498.14792223364
 20
-29393.92599615007
 30
0.0
 41
75.0
 42
75.0
 43
75.0
 50
180.0
  0
INSERT
  5
3599E
330
2BFD3
100
AcDbEntity
  8
寸法
 62
     0
 48
50.0
370
    -2
100
AcDbBlockReference
  2
_DOTSMALL
 10
58298.14792223364
 20
-29393.92599615007
 30
0.0
 41
75.0
 42
75.0
 43
75.0
  0
MTEXT
  5
3599F
330
2BFD3
100
AcDbEntity
  8
寸法
 62
     7
 48
50.0
100
AcDbMText
 10
57898.14792223364
 20
-29318.92599615007
 30
0.0
 40
90.0
 41
0.0
 71
     5
 72
     1
  1
\A1;800
  7
STYLE1
 73
     1
 44
1.0
1001
ACAD
1000
MTEXTBEGIN
1070
    73
1070
     1
1070
    44
1040
1.0
1070
    74
1070
     0
1000
MTEXTEND
  0
POINT
  5
359A0
330
2BFD3
100
AcDbEntity
  8
DEFPOINTS
 62
     0
 48
50.0
100
AcDbPoint
 10
57498.14792223364
 20
-28917.6535640759
 30
0.0
  0
POINT
  5
359A1
330
2BFD3
100
AcDbEntity
  8
DEFPOINTS
 62
     0
 48
50.0
100
AcDbPoint
 10
58298.14792223364
 20
-28917.6535640759
 30
0.0
  0
POINT
  5
359A2
330
2BFD3
100
AcDbEntity
  8
DEFPOINTS
 62
     0
 48
50.0
100
AcDbPoint
 10
58298.14792223364
 20
-29393.92599615007
 30
0.0
  0
ENDBLK
  5
2BFDE
330
2BFD3
100
AcDbEntity
  8
0
 48
50.0
100
AcDbBlockEnd
  0
BLOCK
  5
2BFE9
330
2BFDF
100
AcDbEntity
  8
0
 48
50.0
100
AcDbBlockBegin
  2
*D5
 70
     1
 10
0.0
 20
0.0
 30
0.0
  3
*D5
  1

  0
LINE
  5
359A3
330
2BFDF
100
AcDbEntity
  8
寸法
 62
     0
 48
50.0
370
    -2
100
AcDbLine
 10
57898.14792223364
 20
-28382.6535640759
 30
0.0
 11
57898.14792223364
 21
-29200.78978011299
 31
0.0
  0
LINE
  5
359A4
330
2BFDF
100
AcDbEntity
  8
寸法
 62
     0
 48
50.0
370
    -2
100
AcDbLine
 10
57498.14792223364
 20
-28932.6535640759
 30
0.0
 11
57498.14792223364
 21
-29200.78978011299
 31
0.0
  0
LINE
  5
359A5
330
2BFDF
100
AcDbEntity
  8
寸法
 62
     0
 48
50.0
370
    -2
100
AcDbLine
 10
57898.14792223364
 20
-29155.78978011299
 30
0.0
 11
57498.14792223364
 21
-29155.78978011299
 31
0.0
  0
INSERT
  5
359A6
330
2BFDF
100
AcDbEntity
  8
寸法
 62
     0
 48
50.0
370
    -2
100
AcDbBlockReference
  2
_DOTSMALL
 10
57898.14792223364
 20
-29155.78978011299
 30
0.0
 41
75.0
 42
75.0
 43
75.0
  0
INSERT
  5
359A7
330
2BFDF
100
AcDbEntity
  8
寸法
 62
     0
 48
50.0
370
    -2
100
AcDbBlockReference
  2
_DOTSMALL
 10
57498.14792223364
 20
-29155.78978011299
 30
0.0
 41
75.0
 42
75.0
 43
75.0
 50
180.0
  0
MTEXT
  5
359A8
330
2BFDF
100
AcDbEntity
  8
寸法
 62
     7
 48
50.0
100
AcDbMText
 10
57698.14792223365
 20
-29080.78978011299
 30
0.0
 40
90.0
 41
0.0
 71
     5
 72
     1
  1
\A1;400
  7
STYLE1
 73
     1
 44
1.0
1001
ACAD
1000
MTEXTBEGIN
1070
    73
1070
     1
1070
    44
1040
1.0
1070
    74
1070
     0
1000
MTEXTEND
  0
POINT
  5
359A9
330
2BFDF
100
AcDbEntity
  8
DEFPOINTS
 62
     0
 48
50.0
100
AcDbPoint
 10
57898.14792223364
 20
-28367.6535640759
 30
0.0
  0
POINT
  5
359AA
330
2BFDF
100
AcDbEntity
  8
DEFPOINTS
 62
     0
 48
50.0
100
AcDbPoint
 10
57498.14792223364
 20
-28917.6535640759
 30
0.0
  0
POINT
  5
359AB
330
2BFDF
100
AcDbEntity
  8
DEFPOINTS
 62
     0
 48
50.0
100
AcDbPoint
 10
57498.14792223364
 20
-29155.78978011299
 30
0.0
  0
ENDBLK
  5
2BFEA
330
2BFDF
100
AcDbEntity
  8
0
 48
50.0
100
AcDbBlockEnd
  0
BLOCK
  5
2BFF5
330
2BFEB
100
AcDbEntity
  8
0
 48
50.0
100
AcDbBlockBegin
  2
*D6
 70
     1
 10
0.0
 20
0.0
 30
0.0
  3
*D6
  1

  0
LINE
  5
359AC
330
2BFEB
100
AcDbEntity
  8
寸法
 62
     0
 48
50.0
370
    -2
100
AcDbLine
 10
51898.14792223365
 20
-27802.65356407591
 30
0.0
 11
51898.14792223365
 21
-27463.2012699448
 31
0.0
  0
LINE
  5
359AD
330
2BFEB
100
AcDbEntity
  8
寸法
 62
     0
 48
50.0
370
    -2
100
AcDbLine
 10
52298.14792223365
 20
-27852.6535640759
 30
0.0
 11
52298.14792223365
 21
-27463.2012699448
 31
0.0
  0
LINE
  5
359AE
330
2BFEB
100
AcDbEntity
  8
寸法
 62
     0
 48
50.0
370
    -2
100
AcDbLine
 10
51898.14792223365
 20
-27508.2012699448
 30
0.0
 11
52298.14792223365
 21
-27508.2012699448
 31
0.0
  0
INSERT
  5
359AF
330
2BFEB
100
AcDbEntity
  8
寸法
 62
     0
 48
50.0
370
    -2
100
AcDbBlockReference
  2
_DOTSMALL
 10
51898.14792223365
 20
-27508.2012699448
 30
0.0
 41
75.0
 42
75.0
 43
75.0
 50
180.0
  0
INSERT
  5
359B0
330
2BFEB
100
AcDbEntity
  8
寸法
 62
     0
 48
50.0
370
    -2
100
AcDbBlockReference
  2
_DOTSMALL
 10
52298.14792223365
 20
-27508.2012699448
 30
0.0
 41
75.0
 42
75.0
 43
75.0
  0
MTEXT
  5
359B1
330
2BFEB
100
AcDbEntity
  8
寸法
 62
     7
 48
50.0
100
AcDbMText
 10
52098.14792223364
 20
-27433.2012699448
 30
0.0
 40
90.0
 41
0.0
 71
     5
 72
     1
  1
\A1;400
  7
STYLE1
 73
     1
 44
1.0
1001
ACAD
1000
MTEXTBEGIN
1070
    73
1070
     1
1070
    44
1040
1.0
1070
    74
1070
     0
1000
MTEXTEND
  0
POINT
  5
359B2
330
2BFEB
100
AcDbEntity
  8
DEFPOINTS
 62
     0
 48
50.0
100
AcDbPoint
 10
51898.14792223365
 20
-27817.65356407591
 30
0.0
  0
POINT
  5
359B3
330
2BFEB
100
AcDbEntity
  8
DEFPOINTS
 62
     0
 48
50.0
100
AcDbPoint
 10
52298.14792223365
 20
-27867.6535640759
 30
0.0
  0
POINT
  5
359B4
330
2BFEB
100
AcDbEntity
  8
DEFPOINTS
 62
     0
 48
50.0
100
AcDbPoint
 10
52298.14792223365
 20
-27508.2012699448
 30
0.0
  0
ENDBLK
  5
2BFF6
330
2BFEB
100
AcDbEntity
  8
0
 48
50.0
100
AcDbBlockEnd
  0
BLOCK
  5
2C001
330
2BFF7
100
AcDbEntity
  8
0
 48
50.0
100
AcDbBlockBegin
  2
*D7
 70
     1
 10
0.0
 20
0.0
 30
0.0
  3
*D7
  1

  0
LINE
  5
359B5
330
2BFF7
100
AcDbEntity
  8
寸法
 62
     0
 48
50.0
370
    -2
100
AcDbLine
 10
52298.14792223365
 20
-27852.6535640759
 30
0.0
 11
52298.14792223365
 21
-27463.2012699448
 31
0.0
  0
LINE
  5
359B6
330
2BFF7
100
AcDbEntity
  8
寸法
 62
     0
 48
50.0
370
    -2
100
AcDbLine
 10
55098.14792223365
 20
-27852.6535640759
 30
0.0
 11
55098.14792223365
 21
-27463.2012699448
 31
0.0
  0
LINE
  5
359B7
330
2BFF7
100
AcDbEntity
  8
寸法
 62
     0
 48
50.0
370
    -2
100
AcDbLine
 10
52298.14792223365
 20
-27508.2012699448
 30
0.0
 11
55098.14792223365
 21
-27508.2012699448
 31
0.0
  0
INSERT
  5
359B8
330
2BFF7
100
AcDbEntity
  8
寸法
 62
     0
 48
50.0
370
    -2
100
AcDbBlockReference
  2
_DOTSMALL
 10
52298.14792223365
 20
-27508.2012699448
 30
0.0
 41
75.0
 42
75.0
 43
75.0
 50
180.0
  0
INSERT
  5
359B9
330
2BFF7
100
AcDbEntity
  8
寸法
 62
     0
 48
50.0
370
    -2
100
AcDbBlockReference
  2
_DOTSMALL
 10
55098.14792223365
 20
-27508.2012699448
 30
0.0
 41
75.0
 42
75.0
 43
75.0
  0
MTEXT
  5
359BA
330
2BFF7
100
AcDbEntity
  8
寸法
 62
     7
 48
50.0
100
AcDbMText
 10
53698.14792223364
 20
-27433.19241167708
 30
0.0
 40
90.0
 41
0.0
 71
     5
 72
     1
  1
\A1;2800
  7
STYLE1
 73
     1
 44
1.0
1001
ACAD
1000
MTEXTBEGIN
1070
    73
1070
     1
1070
    44
1040
1.0
1070
    74
1070
     0
1000
MTEXTEND
  0
POINT
  5
359BB
330
2BFF7
100
AcDbEntity
  8
DEFPOINTS
 62
     0
 48
50.0
100
AcDbPoint
 10
52298.14792223365
 20
-27867.6535640759
 30
0.0
  0
POINT
  5
359BC
330
2BFF7
100
AcDbEntity
  8
DEFPOINTS
 62
     0
 48
50.0
100
AcDbPoint
 10
55098.14792223365
 20
-27867.6535640759
 30
0.0
  0
POINT
  5
359BD
330
2BFF7
100
AcDbEntity
  8
DEFPOINTS
 62
     0
 48
50.0
100
AcDbPoint
 10
55098.14792223365
 20
-27508.2012699448
 30
0.0
  0
ENDBLK
  5
2C002
330
2BFF7
100
AcDbEntity
  8
0
 48
50.0
100
AcDbBlockEnd
  0
BLOCK
  5
2C00D
330
2C003
100
AcDbEntity
  8
0
 48
50.0
100
AcDbBlockBegin
  2
*D8
 70
     1
 10
0.0
 20
0.0
 30
0.0
  3
*D8
  1

  0
LINE
  5
359BE
330
2C003
100
AcDbEntity
  8
寸法
 62
     0
 48
50.0
370
    -2
100
AcDbLine
 10
57898.14792223364
 20
-27852.6535640759
 30
0.0
 11
57898.14792223364
 21
-27463.2012699448
 31
0.0
  0
LINE
  5
359BF
330
2C003
100
AcDbEntity
  8
寸法
 62
     0
 48
50.0
370
    -2
100
AcDbLine
 10
58298.14792223364
 20
-27802.65356407591
 30
0.0
 11
58298.14792223364
 21
-27463.2012699448
 31
0.0
  0
LINE
  5
359C0
330
2C003
100
AcDbEntity
  8
寸法
 62
     0
 48
50.0
370
    -2
100
AcDbLine
 10
57898.14792223364
 20
-27508.2012699448
 30
0.0
 11
58298.14792223364
 21
-27508.2012699448
 31
0.0
  0
INSERT
  5
359C1
330
2C003
100
AcDbEntity
  8
寸法
 62
     0
 48
50.0
370
    -2
100
AcDbBlockReference
  2
_DOTSMALL
 10
57898.14792223364
 20
-27508.2012699448
 30
0.0
 41
75.0
 42
75.0
 43
75.0
 50
180.0
  0
INSERT
  5
359C2
330
2C003
100
AcDbEntity
  8
寸法
 62
     0
 48
50.0
370
    -2
100
AcDbBlockReference
  2
_DOTSMALL
 10
58298.14792223364
 20
-27508.2012699448
 30
0.0
 41
75.0
 42
75.0
 43
75.0
  0
MTEXT
  5
359C3
330
2C003
100
AcDbEntity
  8
寸法
 62
     7
 48
50.0
100
AcDbMText
 10
58098.14792223365
 20
-27433.2012699448
 30
0.0
 40
90.0
 41
0.0
 71
     5
 72
     1
  1
\A1;400
  7
STYLE1
 73
     1
 44
1.0
1001
ACAD
1000
MTEXTBEGIN
1070
    73
1070
     1
1070
    44
1040
1.0
1070
    74
1070
     0
1000
MTEXTEND
  0
POINT
  5
359C4
330
2C003
100
AcDbEntity
  8
DEFPOINTS
 62
     0
 48
50.0
100
AcDbPoint
 10
57898.14792223364
 20
-27867.6535640759
 30
0.0
  0
POINT
  5
359C5
330
2C003
100
AcDbEntity
  8
DEFPOINTS
 62
     0
 48
50.0
100
AcDbPoint
 10
58298.14792223364
 20
-27817.65356407591
 30
0.0
  0
POINT
  5
359C6
330
2C003
100
AcDbEntity
  8
DEFPOINTS
 62
     0
 48
50.0
100
AcDbPoint
 10
58298.14792223364
 20
-27508.2012699448
 30
0.0
  0
ENDBLK
  5
2C00E
330
2C003
100
AcDbEntity
  8
0
 48
50.0
100
AcDbBlockEnd
  0
BLOCK
  5
2C019
330
2C00F
100
AcDbEntity
  8
0
 48
50.0
100
AcDbBlockBegin
  2
*D9
 70
     1
 10
0.0
 20
0.0
 30
0.0
  3
*D9
  1

  0
LINE
  5
359C7
330
2C00F
100
AcDbEntity
  8
寸法
 62
     0
 48
50.0
370
    -2
100
AcDbLine
 10
51898.14792223365
 20
-27802.65356407591
 30
0.0
 11
51898.14792223365
 21
-27269.16423097048
 31
0.0
  0
LINE
  5
359C8
330
2C00F
100
AcDbEntity
  8
寸法
 62
     0
 48
50.0
370
    -2
100
AcDbLine
 10
58298.14792223364
 20
-27802.65356407591
 30
0.0
 11
58298.14792223364
 21
-27269.16423097048
 31
0.0
  0
LINE
  5
359C9
330
2C00F
100
AcDbEntity
  8
寸法
 62
     0
 48
50.0
370
    -2
100
AcDbLine
 10
51898.14792223365
 20
-27314.16423097048
 30
0.0
 11
58298.14792223364
 21
-27314.16423097048
 31
0.0
  0
INSERT
  5
359CA
330
2C00F
100
AcDbEntity
  8
寸法
 62
     0
 48
50.0
370
    -2
100
AcDbBlockReference
  2
_DOTSMALL
 10
51898.14792223365
 20
-27314.16423097048
 30
0.0
 41
75.0
 42
75.0
 43
75.0
 50
180.0
  0
INSERT
  5
359CB
330
2C00F
100
AcDbEntity
  8
寸法
 62
     0
 48
50.0
370
    -2
100
AcDbBlockReference
  2
_DOTSMALL
 10
58298.14792223364
 20
-27314.16423097048
 30
0.0
 41
75.0
 42
75.0
 43
75.0
  0
MTEXT
  5
359CC
330
2C00F
100
AcDbEntity
  8
寸法
 62
     7
 48
50.0
100
AcDbMText
 10
55098.14792223365
 20
-27239.16423097048
 30
0.0
 40
90.0
 41
0.0
 71
     5
 72
     1
  1
\A1;基礎土間寸法 6400
  7
STYLE1
 73
     1
 44
1.0
1001
ACAD
1000
MTEXTBEGIN
1070
    73
1070
     1
1070
    44
1040
1.0
1070
    74
1070
     0
1000
MTEXTEND
  0
POINT
  5
359CD
330
2C00F
100
AcDbEntity
  8
DEFPOINTS
 62
     0
 48
50.0
100
AcDbPoint
 10
51898.14792223365
 20
-27817.65356407591
 30
0.0
  0
POINT
  5
359CE
330
2C00F
100
AcDbEntity
  8
DEFPOINTS
 62
     0
 48
50.0
100
AcDbPoint
 10
58298.14792223364
 20
-27817.65356407591
 30
0.0
  0
POINT
  5
359CF
330
2C00F
100
AcDbEntity
  8
DEFPOINTS
 62
     0
 48
50.0
100
AcDbPoint
 10
58298.14792223364
 20
-27314.16423097048
 30
0.0
  0
ENDBLK
  5
2C01A
330
2C00F
100
AcDbEntity
  8
0
 48
50.0
100
AcDbBlockEnd
  0
BLOCK
  5
2C023
330
2C01B
100
AcDbEntity
  8
0
 48
50.0
100
AcDbBlockBegin
  2
*D10
 70
     1
 10
0.0
 20
0.0
 30
0.0
  3
*D10
  1

  0
LINE
  5
359D0
330
2C01B
100
AcDbEntity
  8
寸法
 62
     0
 48
50.0
370
    -2
100
AcDbLine
 10
51883.14792223364
 20
-27917.6535640759
 30
0.0
 11
51512.27608552241
 21
-27917.6535640759
 31
0.0
  0
LINE
  5
359D1
330
2C01B
100
AcDbEntity
  8
寸法
 62
     0
 48
50.0
370
    -2
100
AcDbLine
 10
52033.14792223364
 20
-28117.6535640759
 30
0.0
 11
51512.27608552241
 21
-28117.6535640759
 31
0.0
  0
LINE
  5
359D2
330
2C01B
100
AcDbEntity
  8
寸法
 62
     0
 48
50.0
370
    -2
100
AcDbLine
 10
51557.27608552242
 20
-27917.6535640759
 30
0.0
 11
51557.27608552242
 21
-28117.6535640759
 31
0.0
  0
MTEXT
  5
359D3
330
2C01B
100
AcDbEntity
  8
寸法
 62
     7
 48
50.0
100
AcDbMText
 10
51482.2672272547
 20
-28017.65356407589
 30
0.0
 40
90.0
 41
0.0
 71
     5
 72
     1
  1
\A1;200
  7
STYLE1
 11
0.0000000000000001
 21
1.0
 31
0.0
 73
     1
 44
1.0
1001
ACAD
1000
MTEXTBEGIN
1070
    73
1070
     1
1070
    44
1040
1.0
1070
    74
1070
     0
1000
MTEXTEND
  0
POINT
  5
359D4
330
2C01B
100
AcDbEntity
  8
DEFPOINTS
 62
     0
 48
50.0
100
AcDbPoint
 10
51898.14792223364
 20
-27917.6535640759
 30
0.0
  0
POINT
  5
359D5
330
2C01B
100
AcDbEntity
  8
DEFPOINTS
 62
     0
 48
50.0
100
AcDbPoint
 10
52048.14792223364
 20
-28117.6535640759
 30
0.0
  0
POINT
  5
359D6
330
2C01B
100
AcDbEntity
  8
DEFPOINTS
 62
     0
 48
50.0
100
AcDbPoint
 10
51557.27608552242
 20
-28117.6535640759
 30
0.0
  0
ENDBLK
  5
2C024
330
2C01B
100
AcDbEntity
  8
0
 48
50.0
100
AcDbBlockEnd
  0
BLOCK
  5
2C02F
330
2C025
100
AcDbEntity
  8
0
 48
50.0
100
AcDbBlockBegin
  2
*D11
 70
     1
 10
0.0
 20
0.0
 30
0.0
  3
*D11
  1

  0
LINE
  5
359D7
330
2C025
100
AcDbEntity
  8
寸法
 62
     0
 48
50.0
370
    -2
100
AcDbLine
 10
52033.14792223364
 20
-28117.6535640759
 30
0.0
 11
51512.27608552241
 21
-28117.6535640759
 31
0.0
  0
LINE
  5
359D8
330
2C025
100
AcDbEntity
  8
寸法
 62
     0
 48
50.0
370
    -2
100
AcDbLine
 10
51883.14792223365
 20
-30117.6535640759
 30
0.0
 11
51512.27608552241
 21
-30117.6535640759
 31
0.0
  0
LINE
  5
359D9
330
2C025
100
AcDbEntity
  8
寸法
 62
     0
 48
50.0
370
    -2
100
AcDbLine
 10
51557.27608552242
 20
-28117.6535640759
 30
0.0
 11
51557.27608552242
 21
-30117.6535640759
 31
0.0
  0
INSERT
  5
359DA
330
2C025
100
AcDbEntity
  8
寸法
 62
     0
 48
50.0
370
    -2
100
AcDbBlockReference
  2
_DOTSMALL
 10
51557.27608552242
 20
-28117.6535640759
 30
0.0
 41
75.0
 42
75.0
 43
75.0
 50
90.0
  0
INSERT
  5
359DB
330
2C025
100
AcDbEntity
  8
寸法
 62
     0
 48
50.0
370
    -2
100
AcDbBlockReference
  2
_DOTSMALL
 10
51557.27608552242
 20
-30117.6535640759
 30
0.0
 41
75.0
 42
75.0
 43
75.0
 50
270.0
  0
MTEXT
  5
359DC
330
2C025
100
AcDbEntity
  8
寸法
 62
     7
 48
50.0
100
AcDbMText
 10
51482.2672272547
 20
-29117.65356407589
 30
0.0
 40
90.0
 41
0.0
 71
     5
 72
     1
  1
\A1;2000
  7
STYLE1
 11
0.0000000000000001
 21
1.0
 31
0.0
 73
     1
 44
1.0
1001
ACAD
1000
MTEXTBEGIN
1070
    73
1070
     1
1070
    44
1040
1.0
1070
    74
1070
     0
1000
MTEXTEND
  0
POINT
  5
359DD
330
2C025
100
AcDbEntity
  8
DEFPOINTS
 62
     0
 48
50.0
100
AcDbPoint
 10
52048.14792223364
 20
-28117.6535640759
 30
0.0
  0
POINT
  5
359DE
330
2C025
100
AcDbEntity
  8
DEFPOINTS
 62
     0
 48
50.0
100
AcDbPoint
 10
51898.14792223365
 20
-30117.6535640759
 30
0.0
  0
POINT
  5
359DF
330
2C025
100
AcDbEntity
  8
DEFPOINTS
 62
     0
 48
50.0
100
AcDbPoint
 10
51557.27608552242
 20
-30117.6535640759
 30
0.0
  0
ENDBLK
  5
2C030
330
2C025
100
AcDbEntity
  8
0
 48
50.0
100
AcDbBlockEnd
  0
BLOCK
  5
2C03B
330
2C031
100
AcDbEntity
  8
0
 48
50.0
100
AcDbBlockBegin
  2
*D12
 70
     1
 10
0.0
 20
0.0
 30
0.0
  3
*D12
  1

  0
LINE
  5
359E0
330
2C031
100
AcDbEntity
  8
寸法
 62
     0
 48
50.0
370
    -2
100
AcDbLine
 10
51883.14792223364
 20
-27917.6535640759
 30
0.0
 11
51289.52672350596
 21
-27917.6535640759
 31
0.0
  0
LINE
  5
359E1
330
2C031
100
AcDbEntity
  8
寸法
 62
     0
 48
50.0
370
    -2
100
AcDbLine
 10
51883.14792223365
 20
-30117.6535640759
 30
0.0
 11
51289.52672350596
 21
-30117.6535640759
 31
0.0
  0
LINE
  5
359E2
330
2C031
100
AcDbEntity
  8
寸法
 62
     0
 48
50.0
370
    -2
100
AcDbLine
 10
51334.52672350595
 20
-27917.6535640759
 30
0.0
 11
51334.52672350595
 21
-30117.6535640759
 31
0.0
  0
INSERT
  5
359E3
330
2C031
100
AcDbEntity
  8
寸法
 62
     0
 48
50.0
370
    -2
100
AcDbBlockReference
  2
_DOTSMALL
 10
51334.52672350595
 20
-27917.6535640759
 30
0.0
 41
75.0
 42
75.0
 43
75.0
 50
90.0
  0
INSERT
  5
359E4
330
2C031
100
AcDbEntity
  8
寸法
 62
     0
 48
50.0
370
    -2
100
AcDbBlockReference
  2
_DOTSMALL
 10
51334.52672350595
 20
-30117.6535640759
 30
0.0
 41
75.0
 42
75.0
 43
75.0
 50
270.0
  0
MTEXT
  5
359E5
330
2C031
100
AcDbEntity
  8
寸法
 62
     7
 48
50.0
100
AcDbMText
 10
51259.51786523824
 20
-29017.65356407589
 30
0.0
 40
90.0
 41
0.0
 71
     5
 72
     1
  1
\A1;基礎土間寸法 2200
  7
STYLE1
 11
0.0000000000000001
 21
1.0
 31
0.0
 73
     1
 44
1.0
1001
ACAD
1000
MTEXTBEGIN
1070
    73
1070
     1
1070
    44
1040
1.0
1070
    74
1070
     0
1000
MTEXTEND
  0
POINT
  5
359E6
330
2C031
100
AcDbEntity
  8
DEFPOINTS
 62
     0
 48
50.0
100
AcDbPoint
 10
51898.14792223364
 20
-27917.6535640759
 30
0.0
  0
POINT
  5
359E7
330
2C031
100
AcDbEntity
  8
DEFPOINTS
 62
     0
 48
50.0
100
AcDbPoint
 10
51898.14792223365
 20
-30117.6535640759
 30
0.0
  0
POINT
  5
359E8
330
2C031
100
AcDbEntity
  8
DEFPOINTS
 62
     0
 48
50.0
100
AcDbPoint
 10
51334.52672350595
 20
-30117.6535640759
 30
0.0
  0
ENDBLK
  5
2C03C
330
2C031
100
AcDbEntity
  8
0
 48
50.0
100
AcDbBlockEnd
  0
BLOCK
  5
2C047
330
2C03D
100
AcDbEntity
  8
0
 48
50.0
100
AcDbBlockBegin
  2
*D13
 70
     1
 10
0.0
 20
0.0
 30
0.0
  3
*D13
  1

  0
LINE
  5
359E9
330
2C03D
100
AcDbEntity
  8
寸法
 62
     0
 48
50.0
370
    -2
100
AcDbLine
 10
52068.14792223369
 20
-29995.65356407591
 30
0.0
 11
52068.14792223369
 21
-30491.14128241243
 31
0.0
  0
LINE
  5
359EA
330
2C03D
100
AcDbEntity
  8
寸法
 62
     0
 48
50.0
370
    -2
100
AcDbLine
 10
58128.14792223361
 20
-29995.6535640759
 30
0.0
 11
58128.14792223361
 21
-30491.14128241243
 31
0.0
  0
LINE
  5
359EB
330
2C03D
100
AcDbEntity
  8
寸法
 62
     0
 48
50.0
370
    -2
100
AcDbLine
 10
52068.14792223369
 20
-30446.14128241243
 30
0.0
 11
58128.14792223361
 21
-30446.14128241243
 31
0.0
  0
INSERT
  5
359EC
330
2C03D
100
AcDbEntity
  8
寸法
 62
     0
 48
50.0
370
    -2
100
AcDbBlockReference
  2
_DOTSMALL
 10
52068.14792223369
 20
-30446.14128241243
 30
0.0
 41
75.0
 42
75.0
 43
75.0
 50
180.0
  0
INSERT
  5
359ED
330
2C03D
100
AcDbEntity
  8
寸法
 62
     0
 48
50.0
370
    -2
100
AcDbBlockReference
  2
_DOTSMALL
 10
58128.14792223361
 20
-30446.14128241243
 30
0.0
 41
75.0
 42
75.0
 43
75.0
  0
MTEXT
  5
359EE
330
2C03D
100
AcDbEntity
  8
寸法
 62
     7
 48
50.0
100
AcDbMText
 10
55098.14792223365
 20
-30371.14128241243
 30
0.0
 40
90.0
 41
0.0
 71
     5
 72
     1
  1
\A1;屋根寸法 6060
  7
STYLE1
 73
     1
 44
1.0
1001
ACAD
1000
MTEXTBEGIN
1070
    73
1070
     1
1070
    44
1040
1.0
1070
    74
1070
     0
1000
MTEXTEND
  0
POINT
  5
359EF
330
2C03D
100
AcDbEntity
  8
DEFPOINTS
 62
     0
 48
50.0
100
AcDbPoint
 10
52068.14792223369
 20
-29980.65356407591
 30
0.0
  0
POINT
  5
359F0
330
2C03D
100
AcDbEntity
  8
DEFPOINTS
 62
     0
 48
50.0
100
AcDbPoint
 10
58128.14792223361
 20
-29980.6535640759
 30
0.0
  0
POINT
  5
359F1
330
2C03D
100
AcDbEntity
  8
DEFPOINTS
 62
     0
 48
50.0
100
AcDbPoint
 10
58128.14792223361
 20
-30446.14128241243
 30
0.0
  0
ENDBLK
  5
2C048
330
2C03D
100
AcDbEntity
  8
0
 48
50.0
100
AcDbBlockEnd
  0
BLOCK
  5
2C051
330
2C049
100
AcDbEntity
  8
0
 48
50.0
100
AcDbBlockBegin
  2
*D14
 70
     1
 10
0.0
 20
0.0
 30
0.0
  3
*D14
  1

  0
LINE
  5
359F2
330
2C049
100
AcDbEntity
  8
寸法
 62
     0
 48
50.0
370
    -2
100
AcDbLine
 10
58128.14792223361
 20
-29995.6535640759
 30
0.0
 11
58128.14792223361
 21
-30491.14128241243
 31
0.0
  0
LINE
  5
359F3
330
2C049
100
AcDbEntity
  8
寸法
 62
     0
 48
50.0
370
    -2
100
AcDbLine
 10
58298.14792223364
 20
-30132.6535640759
 30
0.0
 11
58298.14792223364
 21
-30491.14128241243
 31
0.0
  0
LINE
  5
359F4
330
2C049
100
AcDbEntity
  8
寸法
 62
     0
 48
50.0
370
    -2
100
AcDbLine
 10
58128.14792223361
 20
-30446.14128241243
 30
0.0
 11
58298.14792223364
 21
-30446.14128241243
 31
0.0
  0
MTEXT
  5
359F5
330
2C049
100
AcDbEntity
  8
寸法
 62
     7
 48
50.0
100
AcDbMText
 10
58213.14792223363
 20
-30371.14128241243
 30
0.0
 40
90.0
 41
0.0
 71
     5
 72
     1
  1
\A1;170
  7
STYLE1
 73
     1
 44
1.0
1001
ACAD
1000
MTEXTBEGIN
1070
    73
1070
     1
1070
    44
1040
1.0
1070
    74
1070
     0
1000
MTEXTEND
  0
POINT
  5
359F6
330
2C049
100
AcDbEntity
  8
DEFPOINTS
 62
     0
 48
50.0
100
AcDbPoint
 10
58128.14792223361
 20
-29980.6535640759
 30
0.0
  0
POINT
  5
359F7
330
2C049
100
AcDbEntity
  8
DEFPOINTS
 62
     0
 48
50.0
100
AcDbPoint
 10
58298.14792223364
 20
-30117.6535640759
 30
0.0
  0
POINT
  5
359F8
330
2C049
100
AcDbEntity
  8
DEFPOINTS
 62
     0
 48
50.0
100
AcDbPoint
 10
58298.14792223364
 20
-30446.14128241243
 30
0.0
  0
ENDBLK
  5
2C052
330
2C049
100
AcDbEntity
  8
0
 48
50.0
100
AcDbBlockEnd
  0
BLOCK
  5
2C11F
330
2C115
100
AcDbEntity
  8
0
 48
50.0
100
AcDbBlockBegin
  2
*D15
 70
     1
 10
0.0
 20
0.0
 30
0.0
  3
*D15
  1

  0
LINE
  5
359F9
330
2C115
100
AcDbEntity
  8
寸法
 62
     0
 48
50.0
370
    -2
100
AcDbLine
 10
58143.14792223361
 20
-27960.6535640759
 30
0.0
 11
58725.42214459726
 21
-27960.6535640759
 31
0.0
  0
LINE
  5
359FA
330
2C115
100
AcDbEntity
  8
寸法
 62
     0
 48
50.0
370
    -2
100
AcDbLine
 10
58143.14792223361
 20
-29980.6535640759
 30
0.0
 11
58725.42214459726
 21
-29980.6535640759
 31
0.0
  0
LINE
  5
359FB
330
2C115
100
AcDbEntity
  8
寸法
 62
     0
 48
50.0
370
    -2
100
AcDbLine
 10
58680.42214459726
 20
-27960.6535640759
 30
0.0
 11
58680.42214459726
 21
-29980.6535640759
 31
0.0
  0
INSERT
  5
359FC
330
2C115
100
AcDbEntity
  8
寸法
 62
     0
 48
50.0
370
    -2
100
AcDbBlockReference
  2
_DOTSMALL
 10
58680.42214459726
 20
-27960.6535640759
 30
0.0
 41
75.0
 42
75.0
 43
75.0
 50
90.0
  0
INSERT
  5
359FD
330
2C115
100
AcDbEntity
  8
寸法
 62
     0
 48
50.0
370
    -2
100
AcDbBlockReference
  2
_DOTSMALL
 10
58680.42214459726
 20
-29980.6535640759
 30
0.0
 41
75.0
 42
75.0
 43
75.0
 50
270.0
  0
MTEXT
  5
359FE
330
2C115
100
AcDbEntity
  8
寸法
 62
     7
 48
50.0
100
AcDbMText
 10
58605.41328632955
 20
-28970.65356407589
 30
0.0
 40
90.0
 41
0.0
 71
     5
 72
     1
  1
\A1;屋根寸法 2020
  7
STYLE1
 11
0.0000000000000001
 21
1.0
 31
0.0
 73
     1
 44
1.0
1001
ACAD
1000
MTEXTBEGIN
1070
    73
1070
     1
1070
    44
1040
1.0
1070
    74
1070
     0
1000
MTEXTEND
  0
POINT
  5
359FF
330
2C115
100
AcDbEntity
  8
DEFPOINTS
 62
     0
 48
50.0
100
AcDbPoint
 10
58128.14792223361
 20
-27960.6535640759
 30
0.0
  0
POINT
  5
35A00
330
2C115
100
AcDbEntity
  8
DEFPOINTS
 62
     0
 48
50.0
100
AcDbPoint
 10
58128.14792223361
 20
-29980.6535640759
 30
0.0
  0
POINT
  5
35A01
330
2C115
100
AcDbEntity
  8
DEFPOINTS
 62
     0
 48
50.0
100
AcDbPoint
 10
58680.42214459726
 20
-29980.6535640759
 30
0.0
  0
ENDBLK
  5
2C120
330
2C115
100
AcDbEntity
  8
0
 48
50.0
100
AcDbBlockEnd
  0
BLOCK
  5
2C12C
330
2C121
100
AcDbEntity
  8
0
 48
50.0
100
AcDbBlockBegin
  2
*D16
 70
     1
 10
0.0
 20
0.0
 30
0.0
  3
*D16
  1

  0
LINE
  5
35A02
330
2C121
100
AcDbEntity
  8
寸法
 62
     0
 48
50.0
370
    -2
100
AcDbLine
 10
58143.14792223361
 20
-27960.6535640759
 30
0.0
 11
58725.42214459727
 21
-27960.6535640759
 31
0.0
  0
LINE
  5
35A03
330
2C121
100
AcDbEntity
  8
寸法
 62
     0
 48
50.0
370
    -2
100
AcDbLine
 10
58313.14792223365
 20
-27817.65356407591
 30
0.0
 11
58725.42214459727
 21
-27817.65356407591
 31
0.0
  0
LINE
  5
35A04
330
2C121
100
AcDbEntity
  8
寸法
 62
     0
 48
50.0
370
    -2
100
AcDbLine
 10
58680.42214459727
 20
-27960.6535640759
 30
0.0
 11
58680.42214459727
 21
-27817.65356407591
 31
0.0
  0
LINE
  5
35A05
330
2C121
100
AcDbEntity
  8
寸法
 62
     0
 48
50.0
370
    -2
100
AcDbLine
 10
58680.42214459727
 20
-27817.65356407591
 30
0.0
 11
58680.42214459727
 21
-27525.92564201455
 31
0.0
  0
INSERT
  5
35A06
330
2C121
100
AcDbEntity
  8
寸法
 62
     0
 48
50.0
370
    -2
100
AcDbBlockReference
  2
_DOTSMALL
 10
58680.42214459727
 20
-27960.6535640759
 30
0.0
 41
75.0
 42
75.0
 43
75.0
 50
270.0
  0
INSERT
  5
35A07
330
2C121
100
AcDbEntity
  8
寸法
 62
     0
 48
50.0
370
    -2
100
AcDbBlockReference
  2
_DOTSMALL
 10
58680.42214459727
 20
-27817.65356407591
 30
0.0
 41
75.0
 42
75.0
 43
75.0
 50
90.0
  0
MTEXT
  5
35A08
330
2C121
100
AcDbEntity
  8
寸法
 62
     7
 48
50.0
100
AcDbMText
 10
58605.42214459727
 20
-27634.28960304522
 30
0.0
 40
90.0
 41
0.0
 71
     5
 72
     1
  1
\A1;143
  7
STYLE1
 11
0.0000000000000001
 21
1.0
 31
0.0
 73
     1
 44
1.0
1001
ACAD
1000
MTEXTBEGIN
1070
    73
1070
     1
1070
    44
1040
1.0
1070
    74
1070
     0
1000
MTEXTEND
  0
POINT
  5
35A09
330
2C121
100
AcDbEntity
  8
DEFPOINTS
 62
     0
 48
50.0
100
AcDbPoint
 10
58128.14792223361
 20
-27960.6535640759
 30
0.0
  0
POINT
  5
35A0A
330
2C121
100
AcDbEntity
  8
DEFPOINTS
 62
     0
 48
50.0
100
AcDbPoint
 10
58298.14792223364
 20
-27817.65356407591
 30
0.0
  0
POINT
  5
35A0B
330
2C121
100
AcDbEntity
  8
DEFPOINTS
 62
     0
 48
50.0
100
AcDbPoint
 10
58680.42214459727
 20
-27817.65356407591
 30
0.0
  0
ENDBLK
  5
2C12D
330
2C121
100
AcDbEntity
  8
0
 48
50.0
100
AcDbBlockEnd
  0
BLOCK
  5
2C139
330
2C12E
100
AcDbEntity
  8
0
 48
50.0
100
AcDbBlockBegin
  2
*D17
 70
     1
 10
0.0
 20
0.0
 30
0.0
  3
*D17
  1

  0
LINE
  5
35A0C
330
2C12E
100
AcDbEntity
  8
寸法
 62
     0
 48
50.0
370
    -2
100
AcDbLine
 10
58143.14792223361
 20
-29980.6535640759
 30
0.0
 11
58725.42214459725
 21
-29980.6535640759
 31
0.0
  0
LINE
  5
35A0D
330
2C12E
100
AcDbEntity
  8
寸法
 62
     0
 48
50.0
370
    -2
100
AcDbLine
 10
58313.14792223365
 20
-30117.6535640759
 30
0.0
 11
58725.42214459725
 21
-30117.6535640759
 31
0.0
  0
LINE
  5
35A0E
330
2C12E
100
AcDbEntity
  8
寸法
 62
     0
 48
50.0
370
    -2
100
AcDbLine
 10
58680.42214459726
 20
-29980.6535640759
 30
0.0
 11
58680.42214459726
 21
-30117.6535640759
 31
0.0
  0
LINE
  5
35A0F
330
2C12E
100
AcDbEntity
  8
寸法
 62
     0
 48
50.0
370
    -2
100
AcDbLine
 10
58680.42214459726
 20
-30117.6535640759
 30
0.0
 11
58680.42214459726
 21
-30396.65356407591
 31
0.0
  0
INSERT
  5
35A10
330
2C12E
100
AcDbEntity
  8
寸法
 62
     0
 48
50.0
370
    -2
100
AcDbBlockReference
  2
_DOTSMALL
 10
58680.42214459726
 20
-29980.6535640759
 30
0.0
 41
75.0
 42
75.0
 43
75.0
 50
90.0
  0
INSERT
  5
35A11
330
2C12E
100
AcDbEntity
  8
寸法
 62
     0
 48
50.0
370
    -2
100
AcDbBlockReference
  2
_DOTSMALL
 10
58680.42214459726
 20
-30117.6535640759
 30
0.0
 41
75.0
 42
75.0
 43
75.0
 50
270.0
  0
MTEXT
  5
35A12
330
2C12E
100
AcDbEntity
  8
寸法
 62
     7
 48
50.0
100
AcDbMText
 10
58605.42214459727
 20
-30294.6535640759
 30
0.0
 40
90.0
 41
0.0
 71
     5
 72
     1
  1
\A1;137
  7
STYLE1
 11
0.0000000000000001
 21
1.0
 31
0.0
 73
     1
 44
1.0
1001
ACAD
1000
MTEXTBEGIN
1070
    73
1070
     1
1070
    44
1040
1.0
1070
    74
1070
     0
1000
MTEXTEND
  0
POINT
  5
35A13
330
2C12E
100
AcDbEntity
  8
DEFPOINTS
 62
     0
 48
50.0
100
AcDbPoint
 10
58128.14792223361
 20
-29980.6535640759
 30
0.0
  0
POINT
  5
35A14
330
2C12E
100
AcDbEntity
  8
DEFPOINTS
 62
     0
 48
50.0
100
AcDbPoint
 10
58298.14792223364
 20
-30117.6535640759
 30
0.0
  0
POINT
  5
35A15
330
2C12E
100
AcDbEntity
  8
DEFPOINTS
 62
     0
 48
50.0
100
AcDbPoint
 10
58680.42214459726
 20
-30117.6535640759
 30
0.0
  0
ENDBLK
  5
2C13A
330
2C12E
100
AcDbEntity
  8
0
 48
50.0
100
AcDbBlockEnd
  0
BLOCK
  5
2C169
330
2C161
100
AcDbEntity
  8
0
 48
50.0
100
AcDbBlockBegin
  2
*D18
 70
     1
 10
0.0
 20
0.0
 30
0.0
  3
*D18
  1

  0
LINE
  5
35A16
330
2C161
100
AcDbEntity
  8
寸法
 62
     0
 48
50.0
370
    -2
100
AcDbLine
 10
52068.14792223369
 20
-29995.6535640759
 30
0.0
 11
52068.14792223369
 21
-30491.14128241243
 31
0.0
  0
LINE
  5
35A17
330
2C161
100
AcDbEntity
  8
寸法
 62
     0
 48
50.0
370
    -2
100
AcDbLine
 10
51898.14792223365
 20
-30132.6535640759
 30
0.0
 11
51898.14792223365
 21
-30491.14128241243
 31
0.0
  0
LINE
  5
35A18
330
2C161
100
AcDbEntity
  8
寸法
 62
     0
 48
50.0
370
    -2
100
AcDbLine
 10
52068.14792223369
 20
-30446.14128241243
 30
0.0
 11
51898.14792223365
 21
-30446.14128241243
 31
0.0
  0
MTEXT
  5
35A19
330
2C161
100
AcDbEntity
  8
寸法
 62
     7
 48
50.0
100
AcDbMText
 10
51983.14792223367
 20
-30371.14128241243
 30
0.0
 40
90.0
 41
0.0
 71
     5
 72
     1
  1
\A1;170
  7
STYLE1
 73
     1
 44
1.0
1001
ACAD
1000
MTEXTBEGIN
1070
    73
1070
     1
1070
    44
1040
1.0
1070
    74
1070
     0
1000
MTEXTEND
  0
POINT
  5
35A1A
330
2C161
100
AcDbEntity
  8
DEFPOINTS
 62
     0
 48
50.0
100
AcDbPoint
 10
52068.14792223369
 20
-29980.6535640759
 30
0.0
  0
POINT
  5
35A1B
330
2C161
100
AcDbEntity
  8
DEFPOINTS
 62
     0
 48
50.0
100
AcDbPoint
 10
51898.14792223365
 20
-30117.6535640759
 30
0.0
  0
POINT
  5
35A1C
330
2C161
100
AcDbEntity
  8
DEFPOINTS
 62
     0
 48
50.0
100
AcDbPoint
 10
51898.14792223365
 20
-30446.14128241243
 30
0.0
  0
ENDBLK
  5
2C16A
330
2C161
100
AcDbEntity
  8
0
 48
50.0
100
AcDbBlockEnd
  0
BLOCK
  5
2C175
330
2C16B
100
AcDbEntity
  8
0
 48
50.0
100
AcDbBlockBegin
  2
*D19
 70
     1
 10
0.0
 20
0.0
 30
0.0
  3
*D19
  1

  0
LINE
  5
35A1D
330
2C16B
100
AcDbEntity
  8
寸法
 62
     0
 48
50.0
370
    -2
100
AcDbLine
 10
55098.14792223365
 20
-27852.6535640759
 30
0.0
 11
55098.14792223365
 21
-27463.2012699448
 31
0.0
  0
LINE
  5
35A1E
330
2C16B
100
AcDbEntity
  8
寸法
 62
     0
 48
50.0
370
    -2
100
AcDbLine
 10
57898.14792223364
 20
-27852.6535640759
 30
0.0
 11
57898.14792223364
 21
-27463.2012699448
 31
0.0
  0
LINE
  5
35A1F
330
2C16B
100
AcDbEntity
  8
寸法
 62
     0
 48
50.0
370
    -2
100
AcDbLine
 10
55098.14792223365
 20
-27508.2012699448
 30
0.0
 11
57898.14792223364
 21
-27508.2012699448
 31
0.0
  0
INSERT
  5
35A20
330
2C16B
100
AcDbEntity
  8
寸法
 62
     0
 48
50.0
370
    -2
100
AcDbBlockReference
  2
_DOTSMALL
 10
55098.14792223365
 20
-27508.2012699448
 30
0.0
 41
75.0
 42
75.0
 43
75.0
 50
180.0
  0
INSERT
  5
35A21
330
2C16B
100
AcDbEntity
  8
寸法
 62
     0
 48
50.0
370
    -2
100
AcDbBlockReference
  2
_DOTSMALL
 10
57898.14792223364
 20
-27508.2012699448
 30
0.0
 41
75.0
 42
75.0
 43
75.0
  0
MTEXT
  5
35A22
330
2C16B
100
AcDbEntity
  8
寸法
 62
     7
 48
50.0
100
AcDbMText
 10
56498.14792223365
 20
-27433.19241167708
 30
0.0
 40
90.0
 41
0.0
 71
     5
 72
     1
  1
\A1;2800
  7
STYLE1
 73
     1
 44
1.0
1001
ACAD
1000
MTEXTBEGIN
1070
    73
1070
     1
1070
    44
1040
1.0
1070
    74
1070
     0
1000
MTEXTEND
  0
POINT
  5
35A23
330
2C16B
100
AcDbEntity
  8
DEFPOINTS
 62
     0
 48
50.0
100
AcDbPoint
 10
55098.14792223365
 20
-27867.6535640759
 30
0.0
  0
POINT
  5
35A24
330
2C16B
100
AcDbEntity
  8
DEFPOINTS
 62
     0
 48
50.0
100
AcDbPoint
 10
57898.14792223364
 20
-27867.6535640759
 30
0.0
  0
POINT
  5
35A25
330
2C16B
100
AcDbEntity
  8
DEFPOINTS
 62
     0
 48
50.0
100
AcDbPoint
 10
57898.14792223364
 20
-27508.2012699448
 30
0.0
  0
ENDBLK
  5
2C176
330
2C16B
100
AcDbEntity
  8
0
 48
50.0
100
AcDbBlockEnd
  0
BLOCK
  5
34F1D
330
34F13
100
AcDbEntity
  8
0
 48
50.0
100
AcDbBlockBegin
  2
*D20
 70
     1
 10
0.0
 20
0.0
 30
0.0
  3
*D20
  1

  0
LINE
  5
35A26
330
34F13
100
AcDbEntity
  8
寸法
 62
     0
 48
50.0
370
    -2
100
AcDbLine
 10
61174.31540260972
 20
-28799.1036924208
 30
0.0
 11
61174.31540260972
 21
-29500.80588315359
 31
0.0
  0
LINE
  5
35A27
330
34F13
100
AcDbEntity
  8
寸法
 62
     0
 48
50.0
370
    -2
100
AcDbLine
 10
60074.31540260973
 20
-28799.1036924208
 30
0.0
 11
60074.31540260973
 21
-29500.80588315359
 31
0.0
  0
LINE
  5
35A28
330
34F13
100
AcDbEntity
  8
寸法
 62
     0
 48
50.0
370
    -2
100
AcDbLine
 10
61174.31540260972
 20
-29455.80588315359
 30
0.0
 11
60074.31540260973
 21
-29455.80588315359
 31
0.0
  0
INSERT
  5
35A29
330
34F13
100
AcDbEntity
  8
寸法
 62
     0
 48
50.0
370
    -2
100
AcDbBlockReference
  2
_DOTSMALL
 10
61174.31540260972
 20
-29455.80588315359
 30
0.0
 41
75.0
 42
75.0
 43
75.0
  0
INSERT
  5
35A2A
330
34F13
100
AcDbEntity
  8
寸法
 62
     0
 48
50.0
370
    -2
100
AcDbBlockReference
  2
_DOTSMALL
 10
60074.31540260973
 20
-29455.80588315359
 30
0.0
 41
75.0
 42
75.0
 43
75.0
 50
180.0
  0
MTEXT
  5
35A2B
330
34F13
100
AcDbEntity
  8
寸法
 62
     7
 48
50.0
100
AcDbMText
 10
60624.31540260973
 20
-29380.80588315359
 30
0.0
 40
90.0
 41
0.0
 71
     5
 72
     1
  1
\A1;1100
  7
STYLE1
 73
     1
 44
1.0
1001
ACAD
1000
MTEXTBEGIN
1070
    73
1070
     1
1070
    44
1040
1.0
1070
    74
1070
     0
1000
MTEXTEND
  0
POINT
  5
35A2C
330
34F13
100
AcDbEntity
  8
DEFPOINTS
 62
     0
 48
50.0
100
AcDbPoint
 10
61174.31540260972
 20
-28784.1036924208
 30
0.0
  0
POINT
  5
35A2D
330
34F13
100
AcDbEntity
  8
DEFPOINTS
 62
     0
 48
50.0
100
AcDbPoint
 10
60074.31540260973
 20
-28784.1036924208
 30
0.0
  0
POINT
  5
35A2E
330
34F13
100
AcDbEntity
  8
DEFPOINTS
 62
     0
 48
50.0
100
AcDbPoint
 10
60074.31540260973
 20
-29455.80588315359
 30
0.0
  0
ENDBLK
  5
34F1E
330
34F13
100
AcDbEntity
  8
0
 48
50.0
100
AcDbBlockEnd
  0
BLOCK
  5
34F2B
330
34F1F
100
AcDbEntity
  8
0
 48
50.0
100
AcDbBlockBegin
  2
*D21
 70
     1
 10
0.0
 20
0.0
 30
0.0
  3
*D21
  1

  0
LINE
  5
35A2F
330
34F1F
100
AcDbEntity
  8
寸法
 62
     0
 48
50.0
370
    -2
100
AcDbLine
 10
61269.31540260972
 20
-28784.1036924208
 30
0.0
 11
61511.75676721043
 21
-28784.1036924208
 31
0.0
  0
LINE
  5
35A30
330
34F1F
100
AcDbEntity
  8
寸法
 62
     0
 48
50.0
370
    -2
100
AcDbLine
 10
61269.31540260972
 20
-28834.1036924208
 30
0.0
 11
61511.75676721043
 21
-28834.1036924208
 31
0.0
  0
LINE
  5
35A31
330
34F1F
100
AcDbEntity
  8
寸法
 62
     0
 48
50.0
370
    -2
100
AcDbLine
 10
61466.75676721043
 20
-28784.1036924208
 30
0.0
 11
61466.75676721043
 21
-28709.1036924208
 31
0.0
  0
LINE
  5
35A32
330
34F1F
100
AcDbEntity
  8
寸法
 62
     0
 48
50.0
370
    -2
100
AcDbLine
 10
61466.75676721043
 20
-28834.1036924208
 30
0.0
 11
61466.75676721043
 21
-29143.17455856254
 31
0.0
  0
LINE
  5
35A33
330
34F1F
100
AcDbEntity
  8
寸法
 62
     0
 48
50.0
370
    -2
100
AcDbLine
 10
61466.75676721043
 20
-28784.1036924208
 30
0.0
 11
61466.75676721043
 21
-28834.1036924208
 31
0.0
  0
INSERT
  5
35A34
330
34F1F
100
AcDbEntity
  8
寸法
 62
     0
 48
50.0
370
    -2
100
AcDbBlockReference
  2
_DOTSMALL
 10
61466.75676721043
 20
-28784.1036924208
 30
0.0
 41
75.0
 42
75.0
 43
75.0
 50
270.0
  0
INSERT
  5
35A35
330
34F1F
100
AcDbEntity
  8
寸法
 62
     0
 48
50.0
370
    -2
100
AcDbBlockReference
  2
_DOTSMALL
 10
61466.75676721043
 20
-28834.1036924208
 30
0.0
 41
75.0
 42
75.0
 43
75.0
 50
90.0
  0
MTEXT
  5
35A36
330
34F1F
100
AcDbEntity
  8
寸法
 62
     7
 48
50.0
100
AcDbMText
 10
61391.75676721044
 20
-29063.63912549166
 30
0.0
 40
90.0
 41
0.0
 71
     5
 72
     1
  1
\A1;50
  7
STYLE1
 11
0.0000000000000001
 21
1.0
 31
0.0
 73
     1
 44
1.0
1001
ACAD
1000
MTEXTBEGIN
1070
    73
1070
     1
1070
    44
1040
1.0
1070
    74
1070
     0
1000
MTEXTEND
  0
POINT
  5
35A37
330
34F1F
100
AcDbEntity
  8
DEFPOINTS
 62
     0
 48
50.0
100
AcDbPoint
 10
61254.31540260972
 20
-28784.1036924208
 30
0.0
  0
POINT
  5
35A38
330
34F1F
100
AcDbEntity
  8
DEFPOINTS
 62
     0
 48
50.0
100
AcDbPoint
 10
61254.31540260972
 20
-28834.1036924208
 30
0.0
  0
POINT
  5
35A39
330
34F1F
100
AcDbEntity
  8
DEFPOINTS
 62
     0
 48
50.0
100
AcDbPoint
 10
61466.75676721043
 20
-28834.1036924208
 30
0.0
  0
ENDBLK
  5
34F2C
330
34F1F
100
AcDbEntity
  8
0
 48
50.0
100
AcDbBlockEnd
  0
BLOCK
  5
34F37
330
34F2D
100
AcDbEntity
  8
0
 48
50.0
100
AcDbBlockBegin
  2
*D22
 70
     1
 10
0.0
 20
0.0
 30
0.0
  3
*D22
  1

  0
LINE
  5
35A3A
330
34F2D
100
AcDbEntity
  8
寸法
 62
     0
 48
50.0
370
    -2
100
AcDbLine
 10
60074.31540260973
 20
-28799.1036924208
 30
0.0
 11
60074.31540260973
 21
-29270.72032206485
 31
0.0
  0
LINE
  5
35A3B
330
34F2D
100
AcDbEntity
  8
寸法
 62
     0
 48
50.0
370
    -2
100
AcDbLine
 10
60874.31540260973
 20
-28860.16152425067
 30
0.0
 11
60874.31540260973
 21
-29270.72032206485
 31
0.0
  0
LINE
  5
35A3C
330
34F2D
100
AcDbEntity
  8
寸法
 62
     0
 48
50.0
370
    -2
100
AcDbLine
 10
60074.31540260973
 20
-29225.72032206485
 30
0.0
 11
60874.31540260973
 21
-29225.72032206485
 31
0.0
  0
INSERT
  5
35A3D
330
34F2D
100
AcDbEntity
  8
寸法
 62
     0
 48
50.0
370
    -2
100
AcDbBlockReference
  2
_DOTSMALL
 10
60074.31540260973
 20
-29225.72032206485
 30
0.0
 41
75.0
 42
75.0
 43
75.0
 50
180.0
  0
INSERT
  5
35A3E
330
34F2D
100
AcDbEntity
  8
寸法
 62
     0
 48
50.0
370
    -2
100
AcDbBlockReference
  2
_DOTSMALL
 10
60874.31540260973
 20
-29225.72032206485
 30
0.0
 41
75.0
 42
75.0
 43
75.0
  0
MTEXT
  5
35A3F
330
34F2D
100
AcDbEntity
  8
寸法
 62
     7
 48
50.0
100
AcDbMText
 10
60474.31540260973
 20
-29150.72032206484
 30
0.0
 40
90.0
 41
0.0
 71
     5
 72
     1
  1
\A1;800
  7
STYLE1
 73
     1
 44
1.0
1001
ACAD
1000
MTEXTBEGIN
1070
    73
1070
     1
1070
    44
1040
1.0
1070
    74
1070
     0
1000
MTEXTEND
  0
POINT
  5
35A40
330
34F2D
100
AcDbEntity
  8
DEFPOINTS
 62
     0
 48
50.0
100
AcDbPoint
 10
60074.31540260973
 20
-28784.1036924208
 30
0.0
  0
POINT
  5
35A41
330
34F2D
100
AcDbEntity
  8
DEFPOINTS
 62
     0
 48
50.0
100
AcDbPoint
 10
60874.31540260973
 20
-28845.16152425068
 30
0.0
  0
POINT
  5
35A42
330
34F2D
100
AcDbEntity
  8
DEFPOINTS
 62
     0
 48
50.0
100
AcDbPoint
 10
60874.31540260973
 20
-29225.72032206485
 30
0.0
  0
ENDBLK
  5
34F38
330
34F2D
100
AcDbEntity
  8
0
 48
50.0
100
AcDbBlockEnd
  0
BLOCK
  5
34F43
330
34F39
100
AcDbEntity
  8
0
 48
50.0
100
AcDbBlockBegin
  2
*D23
 70
     1
 10
0.0
 20
0.0
 30
0.0
  3
*D23
  1

  0
LINE
  5
35A43
330
34F39
100
AcDbEntity
  8
寸法
 62
     0
 48
50.0
370
    -2
100
AcDbLine
 10
60874.31540260973
 20
-28860.16152425067
 30
0.0
 11
60874.31540260973
 21
-29270.72032206485
 31
0.0
  0
LINE
  5
35A44
330
34F39
100
AcDbEntity
  8
寸法
 62
     0
 48
50.0
370
    -2
100
AcDbLine
 10
61174.31540260972
 20
-28799.1036924208
 30
0.0
 11
61174.31540260972
 21
-29270.72032206485
 31
0.0
  0
LINE
  5
35A45
330
34F39
100
AcDbEntity
  8
寸法
 62
     0
 48
50.0
370
    -2
100
AcDbLine
 10
60874.31540260973
 20
-29225.72032206485
 30
0.0
 11
61174.31540260972
 21
-29225.72032206485
 31
0.0
  0
INSERT
  5
35A46
330
34F39
100
AcDbEntity
  8
寸法
 62
     0
 48
50.0
370
    -2
100
AcDbBlockReference
  2
_DOTSMALL
 10
60874.31540260973
 20
-29225.72032206485
 30
0.0
 41
75.0
 42
75.0
 43
75.0
 50
180.0
  0
INSERT
  5
35A47
330
34F39
100
AcDbEntity
  8
寸法
 62
     0
 48
50.0
370
    -2
100
AcDbBlockReference
  2
_DOTSMALL
 10
61174.31540260972
 20
-29225.72032206485
 30
0.0
 41
75.0
 42
75.0
 43
75.0
  0
MTEXT
  5
35A48
330
34F39
100
AcDbEntity
  8
寸法
 62
     7
 48
50.0
100
AcDbMText
 10
61024.31540260973
 20
-29150.72032206484
 30
0.0
 40
90.0
 41
0.0
 71
     5
 72
     1
  1
\A1;300
  7
STYLE1
 73
     1
 44
1.0
1001
ACAD
1000
MTEXTBEGIN
1070
    73
1070
     1
1070
    44
1040
1.0
1070
    74
1070
     0
1000
MTEXTEND
  0
POINT
  5
35A49
330
34F39
100
AcDbEntity
  8
DEFPOINTS
 62
     0
 48
50.0
100
AcDbPoint
 10
60874.31540260973
 20
-28845.16152425068
 30
0.0
  0
POINT
  5
35A4A
330
34F39
100
AcDbEntity
  8
DEFPOINTS
 62
     0
 48
50.0
100
AcDbPoint
 10
61174.31540260972
 20
-28784.1036924208
 30
0.0
  0
POINT
  5
35A4B
330
34F39
100
AcDbEntity
  8
DEFPOINTS
 62
     0
 48
50.0
100
AcDbPoint
 10
61174.31540260972
 20
-29225.72032206485
 30
0.0
  0
ENDBLK
  5
34F44
330
34F39
100
AcDbEntity
  8
0
 48
50.0
100
AcDbBlockEnd
  0
BLOCK
  5
34F50
330
34F45
100
AcDbEntity
  8
0
 48
50.0
100
AcDbBlockBegin
  2
*D24
 70
     1
 10
0.0
 20
0.0
 30
0.0
  3
*D24
  1

  0
LINE
  5
35A4C
330
34F45
100
AcDbEntity
  8
寸法
 62
     0
 48
50.0
370
    -2
100
AcDbLine
 10
59557.19959151005
 20
-28234.1036924208
 30
0.0
 11
59376.61846440816
 21
-28234.1036924208
 31
0.0
  0
LINE
  5
35A4D
330
34F45
100
AcDbEntity
  8
寸法
 62
     0
 48
50.0
370
    -2
100
AcDbLine
 10
59557.19959151005
 20
-28334.1036924208
 30
0.0
 11
59376.61846440816
 21
-28334.1036924208
 31
0.0
  0
LINE
  5
35A4E
330
34F45
100
AcDbEntity
  8
寸法
 62
     0
 48
50.0
370
    -2
100
AcDbLine
 10
59421.61846440816
 20
-28234.1036924208
 30
0.0
 11
59421.61846440816
 21
-28334.1036924208
 31
0.0
  0
LINE
  5
35A4F
330
34F45
100
AcDbEntity
  8
寸法
 62
     0
 48
50.0
370
    -2
100
AcDbLine
 10
59421.61846440816
 20
-28334.1036924208
 30
0.0
 11
59421.61846440816
 21
-28613.17455856254
 31
0.0
  0
INSERT
  5
35A50
330
34F45
100
AcDbEntity
  8
寸法
 62
     0
 48
50.0
370
    -2
100
AcDbBlockReference
  2
_DOTSMALL
 10
59421.61846440816
 20
-28234.1036924208
 30
0.0
 41
75.0
 42
75.0
 43
75.0
 50
90.0
  0
INSERT
  5
35A51
330
34F45
100
AcDbEntity
  8
寸法
 62
     0
 48
50.0
370
    -2
100
AcDbBlockReference
  2
_DOTSMALL
 10
59421.61846440816
 20
-28334.1036924208
 30
0.0
 41
75.0
 42
75.0
 43
75.0
 50
270.0
  0
MTEXT
  5
35A52
330
34F45
100
AcDbEntity
  8
寸法
 62
     7
 48
50.0
100
AcDbMText
 10
59346.61846440817
 20
-28511.13912549166
 30
0.0
 40
90.0
 41
0.0
 71
     5
 72
     1
  1
\A1;100
  7
STYLE1
 11
0.0000000000000001
 21
1.0
 31
0.0
 73
     1
 44
1.0
1001
ACAD
1000
MTEXTBEGIN
1070
    73
1070
     1
1070
    44
1040
1.0
1070
    74
1070
     0
1000
MTEXTEND
  0
POINT
  5
35A53
330
34F45
100
AcDbEntity
  8
DEFPOINTS
 62
     0
 48
50.0
100
AcDbPoint
 10
59572.19959151005
 20
-28234.1036924208
 30
0.0
  0
POINT
  5
35A54
330
34F45
100
AcDbEntity
  8
DEFPOINTS
 62
     0
 48
50.0
100
AcDbPoint
 10
59572.19959151005
 20
-28334.1036924208
 30
0.0
  0
POINT
  5
35A55
330
34F45
100
AcDbEntity
  8
DEFPOINTS
 62
     0
 48
50.0
100
AcDbPoint
 10
59421.61846440816
 20
-28334.1036924208
 30
0.0
  0
ENDBLK
  5
34F51
330
34F45
100
AcDbEntity
  8
0
 48
50.0
100
AcDbBlockEnd
  0
BLOCK
  5
34F5D
330
34F52
100
AcDbEntity
  8
0
 48
50.0
100
AcDbBlockBegin
  2
*D25
 70
     1
 10
0.0
 20
0.0
 30
0.0
  3
*D25
  1

  0
LINE
  5
35A56
330
34F52
100
AcDbEntity
  8
寸法
 62
     0
 48
50.0
370
    -2
100
AcDbLine
 10
59557.19959151005
 20
-28234.1036924208
 30
0.0
 11
59376.61846440816
 21
-28234.1036924208
 31
0.0
  0
LINE
  5
35A57
330
34F52
100
AcDbEntity
  8
寸法
 62
     0
 48
50.0
370
    -2
100
AcDbLine
 10
59557.19959151005
 20
-28134.1036924208
 30
0.0
 11
59376.61846440816
 21
-28134.1036924208
 31
0.0
  0
LINE
  5
35A58
330
34F52
100
AcDbEntity
  8
寸法
 62
     0
 48
50.0
370
    -2
100
AcDbLine
 10
59421.61846440816
 20
-28234.1036924208
 30
0.0
 11
59421.61846440816
 21
-28134.1036924208
 31
0.0
  0
LINE
  5
35A59
330
34F52
100
AcDbEntity
  8
寸法
 62
     0
 48
50.0
370
    -2
100
AcDbLine
 10
59421.61846440816
 20
-28134.1036924208
 30
0.0
 11
59421.61846440816
 21
-27855.03282627907
 31
0.0
  0
INSERT
  5
35A5A
330
34F52
100
AcDbEntity
  8
寸法
 62
     0
 48
50.0
370
    -2
100
AcDbBlockReference
  2
_DOTSMALL
 10
59421.61846440816
 20
-28234.1036924208
 30
0.0
 41
75.0
 42
75.0
 43
75.0
 50
270.0
  0
INSERT
  5
35A5B
330
34F52
100
AcDbEntity
  8
寸法
 62
     0
 48
50.0
370
    -2
100
AcDbBlockReference
  2
_DOTSMALL
 10
59421.61846440816
 20
-28134.1036924208
 30
0.0
 41
75.0
 42
75.0
 43
75.0
 50
90.0
  0
MTEXT
  5
35A5C
330
34F52
100
AcDbEntity
  8
寸法
 62
     7
 48
50.0
100
AcDbMText
 10
59346.61846440817
 20
-27957.06825934993
 30
0.0
 40
90.0
 41
0.0
 71
     5
 72
     1
  1
\A1;100
  7
STYLE1
 11
0.0000000000000001
 21
1.0
 31
0.0
 73
     1
 44
1.0
1001
ACAD
1000
MTEXTBEGIN
1070
    73
1070
     1
1070
    44
1040
1.0
1070
    74
1070
     0
1000
MTEXTEND
  0
POINT
  5
35A5D
330
34F52
100
AcDbEntity
  8
DEFPOINTS
 62
     0
 48
50.0
100
AcDbPoint
 10
59572.19959151005
 20
-28234.1036924208
 30
0.0
  0
POINT
  5
35A5E
330
34F52
100
AcDbEntity
  8
DEFPOINTS
 62
     0
 48
50.0
100
AcDbPoint
 10
59572.19959151005
 20
-28134.1036924208
 30
0.0
  0
POINT
  5
35A5F
330
34F52
100
AcDbEntity
  8
DEFPOINTS
 62
     0
 48
50.0
100
AcDbPoint
 10
59421.61846440816
 20
-28134.1036924208
 30
0.0
  0
ENDBLK
  5
34F5E
330
34F52
100
AcDbEntity
  8
0
 48
50.0
100
AcDbBlockEnd
  0
BLOCK
  5
34F67
330
34F5F
100
AcDbEntity
  8
0
 48
50.0
100
AcDbBlockBegin
  2
*D26
 70
     1
 10
0.0
 20
0.0
 30
0.0
  3
*D26
  1

  0
LINE
  5
35A60
330
34F5F
100
AcDbEntity
  8
寸法
 62
     0
 48
50.0
370
    -2
100
AcDbLine
 10
60874.31540260973
 20
-27694.63085956577
 30
0.0
 11
60874.31540260973
 21
-27376.32579312579
 31
0.0
  0
LINE
  5
35A61
330
34F5F
100
AcDbEntity
  8
寸法
 62
     0
 48
50.0
370
    -2
100
AcDbLine
 10
61074.31540260973
 20
-28119.1036924208
 30
0.0
 11
61074.31540260973
 21
-27376.32579312579
 31
0.0
  0
LINE
  5
35A62
330
34F5F
100
AcDbEntity
  8
寸法
 62
     0
 48
50.0
370
    -2
100
AcDbLine
 10
60874.31540260973
 20
-27421.32579312579
 30
0.0
 11
61074.31540260973
 21
-27421.32579312579
 31
0.0
  0
MTEXT
  5
35A63
330
34F5F
100
AcDbEntity
  8
寸法
 62
     7
 48
50.0
100
AcDbMText
 10
60974.31540260974
 20
-27346.31693485808
 30
0.0
 40
90.0
 41
0.0
 71
     5
 72
     1
  1
\A1;200
  7
STYLE1
 73
     1
 44
1.0
1001
ACAD
1000
MTEXTBEGIN
1070
    73
1070
     1
1070
    44
1040
1.0
1070
    74
1070
     0
1000
MTEXTEND
  0
POINT
  5
35A64
330
34F5F
100
AcDbEntity
  8
DEFPOINTS
 62
     0
 48
50.0
100
AcDbPoint
 10
60874.31540260973
 20
-27709.63085956577
 30
0.0
  0
POINT
  5
35A65
330
34F5F
100
AcDbEntity
  8
DEFPOINTS
 62
     0
 48
50.0
100
AcDbPoint
 10
61074.31540260973
 20
-28134.1036924208
 30
0.0
  0
POINT
  5
35A66
330
34F5F
100
AcDbEntity
  8
DEFPOINTS
 62
     0
 48
50.0
100
AcDbPoint
 10
61074.31540260973
 20
-27421.32579312579
 30
0.0
  0
ENDBLK
  5
34F68
330
34F5F
100
AcDbEntity
  8
0
 48
50.0
100
AcDbBlockEnd
  0
BLOCK
  5
34F75
330
34F69
100
AcDbEntity
  8
0
 48
50.0
100
AcDbBlockBegin
  2
*D27
 70
     1
 10
0.0
 20
0.0
 30
0.0
  3
*D27
  1

  0
LINE
  5
35A67
330
34F69
100
AcDbEntity
  8
寸法
 62
     0
 48
50.0
370
    -2
100
AcDbLine
 10
61254.11328017325
 20
-28184.1036924208
 30
0.0
 11
61511.75676721043
 21
-28184.1036924208
 31
0.0
  0
LINE
  5
35A68
330
34F69
100
AcDbEntity
  8
寸法
 62
     0
 48
50.0
370
    -2
100
AcDbLine
 10
61089.31540260973
 20
-28134.1036924208
 30
0.0
 11
61511.75676721043
 21
-28134.1036924208
 31
0.0
  0
LINE
  5
35A69
330
34F69
100
AcDbEntity
  8
寸法
 62
     0
 48
50.0
370
    -2
100
AcDbLine
 10
61466.75676721043
 20
-28184.1036924208
 30
0.0
 11
61466.75676721043
 21
-28259.1036924208
 31
0.0
  0
LINE
  5
35A6A
330
34F69
100
AcDbEntity
  8
寸法
 62
     0
 48
50.0
370
    -2
100
AcDbLine
 10
61466.75676721043
 20
-28134.1036924208
 30
0.0
 11
61466.75676721043
 21
-27825.03282627907
 31
0.0
  0
LINE
  5
35A6B
330
34F69
100
AcDbEntity
  8
寸法
 62
     0
 48
50.0
370
    -2
100
AcDbLine
 10
61466.75676721043
 20
-28184.1036924208
 30
0.0
 11
61466.75676721043
 21
-28134.1036924208
 31
0.0
  0
INSERT
  5
35A6C
330
34F69
100
AcDbEntity
  8
寸法
 62
     0
 48
50.0
370
    -2
100
AcDbBlockReference
  2
_DOTSMALL
 10
61466.75676721043
 20
-28184.1036924208
 30
0.0
 41
75.0
 42
75.0
 43
75.0
 50
90.0
  0
INSERT
  5
35A6D
330
34F69
100
AcDbEntity
  8
寸法
 62
     0
 48
50.0
370
    -2
100
AcDbBlockReference
  2
_DOTSMALL
 10
61466.75676721043
 20
-28134.1036924208
 30
0.0
 41
75.0
 42
75.0
 43
75.0
 50
270.0
  0
MTEXT
  5
35A6E
330
34F69
100
AcDbEntity
  8
寸法
 62
     7
 48
50.0
100
AcDbMText
 10
61391.75676721044
 20
-27904.56825934993
 30
0.0
 40
90.0
 41
0.0
 71
     5
 72
     1
  1
\A1;50
  7
STYLE1
 11
0.0000000000000001
 21
1.0
 31
0.0
 73
     1
 44
1.0
1001
ACAD
1000
MTEXTBEGIN
1070
    73
1070
     1
1070
    44
1040
1.0
1070
    74
1070
     0
1000
MTEXTEND
  0
POINT
  5
35A6F
330
34F69
100
AcDbEntity
  8
DEFPOINTS
 62
     0
 48
50.0
100
AcDbPoint
 10
61239.11328017324
 20
-28184.1036924208
 30
0.0
  0
POINT
  5
35A70
330
34F69
100
AcDbEntity
  8
DEFPOINTS
 62
     0
 48
50.0
100
AcDbPoint
 10
61074.31540260973
 20
-28134.1036924208
 30
0.0
  0
POINT
  5
35A71
330
34F69
100
AcDbEntity
  8
DEFPOINTS
 62
     0
 48
50.0
100
AcDbPoint
 10
61466.75676721043
 20
-28134.1036924208
 30
0.0
  0
ENDBLK
  5
34F76
330
34F69
100
AcDbEntity
  8
0
 48
50.0
100
AcDbBlockEnd
  0
BLOCK
  5
34F81
330
34F77
100
AcDbEntity
  8
0
 48
50.0
100
AcDbBlockBegin
  2
*D28
 70
     1
 10
0.0
 20
0.0
 30
0.0
  3
*D28
  1

  0
LINE
  5
35A72
330
34F77
100
AcDbEntity
  8
寸法
 62
     0
 48
50.0
370
    -2
100
AcDbLine
 10
61254.11328017325
 20
-28184.1036924208
 30
0.0
 11
61511.75676721044
 21
-28184.1036924208
 31
0.0
  0
LINE
  5
35A73
330
34F77
100
AcDbEntity
  8
寸法
 62
     0
 48
50.0
370
    -2
100
AcDbLine
 10
61269.31540260972
 20
-28784.1036924208
 30
0.0
 11
61511.75676721044
 21
-28784.1036924208
 31
0.0
  0
LINE
  5
35A74
330
34F77
100
AcDbEntity
  8
寸法
 62
     0
 48
50.0
370
    -2
100
AcDbLine
 10
61466.75676721044
 20
-28184.1036924208
 30
0.0
 11
61466.75676721044
 21
-28784.1036924208
 31
0.0
  0
INSERT
  5
35A75
330
34F77
100
AcDbEntity
  8
寸法
 62
     0
 48
50.0
370
    -2
100
AcDbBlockReference
  2
_DOTSMALL
 10
61466.75676721044
 20
-28184.1036924208
 30
0.0
 41
75.0
 42
75.0
 43
75.0
 50
90.0
  0
INSERT
  5
35A76
330
34F77
100
AcDbEntity
  8
寸法
 62
     0
 48
50.0
370
    -2
100
AcDbBlockReference
  2
_DOTSMALL
 10
61466.75676721044
 20
-28784.1036924208
 30
0.0
 41
75.0
 42
75.0
 43
75.0
 50
270.0
  0
MTEXT
  5
35A77
330
34F77
100
AcDbEntity
  8
寸法
 62
     7
 48
50.0
100
AcDbMText
 10
61391.75676721045
 20
-28484.10369242079
 30
0.0
 40
90.0
 41
0.0
 71
     5
 72
     1
  1
\A1;600
  7
STYLE1
 11
0.0000000000000001
 21
1.0
 31
0.0
 73
     1
 44
1.0
1001
ACAD
1000
MTEXTBEGIN
1070
    73
1070
     1
1070
    44
1040
1.0
1070
    74
1070
     0
1000
MTEXTEND
  0
POINT
  5
35A78
330
34F77
100
AcDbEntity
  8
DEFPOINTS
 62
     0
 48
50.0
100
AcDbPoint
 10
61239.11328017324
 20
-28184.1036924208
 30
0.0
  0
POINT
  5
35A79
330
34F77
100
AcDbEntity
  8
DEFPOINTS
 62
     0
 48
50.0
100
AcDbPoint
 10
61254.31540260972
 20
-28784.1036924208
 30
0.0
  0
POINT
  5
35A7A
330
34F77
100
AcDbEntity
  8
DEFPOINTS
 62
     0
 48
50.0
100
AcDbPoint
 10
61466.75676721044
 20
-28784.1036924208
 30
0.0
  0
ENDBLK
  5
34F82
330
34F77
100
AcDbEntity
  8
0
 48
50.0
100
AcDbBlockEnd
  0
BLOCK
  5
35B1E
330
35B12
100
AcDbEntity
  8
0
 48
50.0
100
AcDbBlockBegin
  2
*D29
 70
     1
 10
0.0
 20
0.0
 30
0.0
  3
*D29
  1

  0
LINE
  5
35B3B
330
35B12
100
AcDbEntity
  8
寸法
 62
     0
 48
50.0
370
    -2
100
AcDbLine
 10
51883.14792223364
 20
-27917.6535640759
 30
0.0
 11
51512.27608552241
 21
-27917.6535640759
 31
0.0
  0
LINE
  5
35B3C
330
35B12
100
AcDbEntity
  8
寸法
 62
     0
 48
50.0
370
    -2
100
AcDbLine
 10
51883.14792223365
 20
-27817.65356407591
 30
0.0
 11
51512.27608552241
 21
-27817.65356407591
 31
0.0
  0
LINE
  5
35B3D
330
35B12
100
AcDbEntity
  8
寸法
 62
     0
 48
50.0
370
    -2
100
AcDbLine
 10
51557.27608552242
 20
-27917.6535640759
 30
0.0
 11
51557.27608552242
 21
-27817.65356407591
 31
0.0
  0
LINE
  5
35B3E
330
35B12
100
AcDbEntity
  8
寸法
 62
     0
 48
50.0
370
    -2
100
AcDbLine
 10
51557.27608552242
 20
-27817.65356407591
 30
0.0
 11
51557.27608552242
 21
-27538.00058790798
 31
0.0
  0
INSERT
  5
35B3F
330
35B12
100
AcDbEntity
  8
寸法
 62
     0
 48
50.0
370
    -2
100
AcDbBlockReference
  2
_DOTSMALL
 10
51557.27608552242
 20
-27917.6535640759
 30
0.0
 41
75.0
 42
75.0
 43
75.0
 50
270.0
  0
INSERT
  5
35B40
330
35B12
100
AcDbEntity
  8
寸法
 62
     0
 48
50.0
370
    -2
100
AcDbBlockReference
  2
_DOTSMALL
 10
51557.27608552242
 20
-27817.65356407591
 30
0.0
 41
75.0
 42
75.0
 43
75.0
 50
90.0
  0
MTEXT
  5
35B41
330
35B12
100
AcDbEntity
  8
寸法
 62
     7
 48
50.0
100
AcDbMText
 10
51482.27608552242
 20
-27640.03602097884
 30
0.0
 40
90.0
 41
0.0
 71
     5
 72
     1
  1
\A1;100
  7
STYLE1
 11
0.0000000000000001
 21
1.0
 31
0.0
 73
     1
 44
1.0
1001
ACAD
1000
MTEXTBEGIN
1070
    73
1070
     1
1070
    44
1040
1.0
1070
    74
1070
     0
1000
MTEXTEND
  0
POINT
  5
35B42
330
35B12
100
AcDbEntity
  8
DEFPOINTS
 62
     0
 48
50.0
100
AcDbPoint
 10
51898.14792223364
 20
-27917.6535640759
 30
0.0
  0
POINT
  5
35B43
330
35B12
100
AcDbEntity
  8
DEFPOINTS
 62
     0
 48
50.0
100
AcDbPoint
 10
51898.14792223365
 20
-27817.65356407591
 30
0.0
  0
POINT
  5
35B44
330
35B12
100
AcDbEntity
  8
DEFPOINTS
 62
     0
 48
50.0
100
AcDbPoint
 10
51557.27608552242
 20
-27817.65356407591
 30
0.0
  0
ENDBLK
  5
35B1F
330
35B12
100
AcDbEntity
  8
0
 48
50.0
100
AcDbBlockEnd
  0
ENDSEC
  0
SECTION
  2
ENTITIES
  0
DIMENSION
  5
2BEF8
330
747D
100
AcDbEntity
  8
寸法
 48
50.0
100
AcDbDimension
  2
*D19
 10
57898.14792223364
 20
-27508.2012699448
 30
0.0
 11
56498.14792223365
 21
-27433.19241167708
 31
0.0
 70
    32
 71
     5
 42
2800.0
  3
INABA_S30G
100
AcDbAlignedDimension
 13
55098.14792223365
 23
-27867.6535640759
 33
0.0
 14
57898.14792223364
 24
-27867.6535640759
 34
0.0
100
AcDbRotatedDimension
  0
LINE
  5
2BEF9
330
747D
100
AcDbEntity
  8
部品1
 48
50.0
100
AcDbLine
 10
55498.14792223365
 20
-27817.65356407591
 30
0.0
 11
55498.14792223365
 21
-28917.6535640759
 31
0.0
  0
LINE
  5
2BEFA
330
747D
100
AcDbEntity
  8
センター
 48
10.0
100
AcDbLine
 10
55098.14792223365
 20
-27867.6535640759
 30
0.0
 11
55098.14792223365
 21
-28367.6535640759
 31
0.0
  0
LINE
  5
2BEFB
330
747D
100
AcDbEntity
  8
センター
 48
10.0
100
AcDbLine
 10
54848.14792223365
 20
-28117.6535640759
 30
0.0
 11
55348.14792223365
 21
-28117.6535640759
 31
0.0
  0
CIRCLE
  5
2BEFC
330
747D
100
AcDbEntity
  8
部品1
 48
50.0
100
AcDbCircle
 10
55098.14792223365
 20
-28117.6535640759
 30
0.0
 40
44.55
  0
LINE
  5
2BEFD
330
747D
100
AcDbEntity
  8
部品1
 48
50.0
100
AcDbLine
 10
54698.14792223365
 20
-28917.6535640759
 30
0.0
 11
55498.14792223365
 21
-28917.6535640759
 31
0.0
  0
LINE
  5
2BEFE
330
747D
100
AcDbEntity
  8
部品1
 48
50.0
100
AcDbLine
 10
54698.14792223365
 20
-27817.65356407591
 30
0.0
 11
54698.14792223365
 21
-28917.6535640759
 31
0.0
  0
LINE
  5
2BEFF
330
747D
100
AcDbEntity
  8
部品1
 48
50.0
100
AcDbLine
 10
55498.14792223365
 20
-27817.65356407591
 30
0.0
 11
54698.14792223365
 21
-27817.65356407591
 31
0.0
  0
LINE
  5
2BF12
330
747D
100
AcDbEntity
  8
補助
  6
PHANTOM
 62
   230
 48
50.0
100
AcDbLine
 10
50804.90135201868
 20
-33326.13759087565
 30
0.0
 11
50804.90135201868
 21
-24768.93759087565
 31
0.0
  0
LINE
  5
2BF13
330
747D
100
AcDbEntity
  8
補助
  6
PHANTOM
 62
   230
 48
50.0
100
AcDbLine
 10
60530.30135201868
 20
-29726.13759087565
 30
0.0
 11
62930.30135201869
 21
-29726.13759087565
 31
0.0
  0
LINE
  5
2BF14
330
747D
100
AcDbEntity
  8
補助
  6
PHANTOM
 62
   230
 48
50.0
100
AcDbLine
 10
50804.90135201868
 20
-24768.93759087565
 30
0.0
 11
62930.30135201869
 21
-24768.93759087565
 31
0.0
  0
LINE
  5
2BF15
330
747D
100
AcDbEntity
  8
補助
  6
PHANTOM
 62
   230
 48
50.0
100
AcDbLine
 10
62930.30135201869
 20
-24768.93759087565
 30
0.0
 11
62930.30135201869
 21
-32426.13759087565
 31
0.0
  0
LINE
  5
2BF16
330
747D
100
AcDbEntity
  8
補助
  6
PHANTOM
 62
   230
 48
50.0
100
AcDbLine
 10
60530.30135201868
 20
-24768.93759087565
 30
0.0
 11
60530.30135201868
 21
-29726.13759087565
 31
0.0
  0
LINE
  5
2BF17
330
747D
100
AcDbEntity
  8
仕様書枠
  6
Continuous
 48
50.0
100
AcDbLine
 10
60530.3013593015
 20
-32426.13758553219
 30
0.0
 11
60530.3013593015
 21
-33326.1375855322
 31
0.0
  0
LINE
  5
2BF18
330
747D
100
AcDbEntity
  8
仕様書枠
 48
50.0
100
AcDbLine
 10
62930.30135930149
 20
-32426.13758553219
 30
0.0
 11
62930.30135930149
 21
-33326.1375855322
 31
0.0
  0
LINE
  5
2BF19
330
747D
100
AcDbEntity
  8
仕様書枠
 48
50.0
100
AcDbLine
 10
50804.90135930149
 20
-33326.1375855322
 30
0.0
 11
62930.30135930149
 21
-33326.1375855322
 31
0.0
  0
LINE
  5
2BF1A
330
747D
100
AcDbEntity
  8
仕様書枠
 48
50.0
100
AcDbLine
 10
60530.3013593015
 20
-32426.13758553219
 30
0.0
 11
62930.30135930149
 21
-32426.13758553219
 31
0.0
  0
LINE
  5
2BF1B
330
747D
100
AcDbEntity
  8
文字
 62
     7
 48
50.0
100
AcDbLine
 10
60590.30135930149
 20
-33026.1375855322
 30
0.0
 11
62870.3013593015
 21
-33026.1375855322
 31
0.0
  0
TEXT
  5
2BF1C
330
747D
100
AcDbEntity
  8
文字
 62
     7
 48
50.0
100
AcDbText
 10
60572.13565173418
 20
-32654.81962995974
 30
0.0
 40
150.0
  1
基 礎 図
  7
STYLE2
100
AcDbText
  0
TEXT
  5
2BF1D
330
747D
100
AcDbEntity
  8
文字
 62
     7
 48
50.0
100
AcDbText
 10
60600.97888428981
 20
-32968.18203595484
 30
0.0
 40
120.0
  1
機種名
  7
STYLE2
100
AcDbText
  0
TEXT
  5
2BF1E
330
747D
100
AcDbEntity
  8
文字
 62
     7
 48
50.0
100
AcDbText
 10
60606.9553674644
 20
-33154.72994233952
 30
0.0
 40
60.0
  1
○間口寸法は柱芯寸法です。
  7
STYLE2
100
AcDbText
  0
TEXT
  5
2BF1F
330
747D
100
AcDbEntity
  8
文字
 62
     7
 48
50.0
100
AcDbText
 10
60606.9553674644
 20
-33269.06682522483
 30
0.0
 40
60.0
  1
○寒冷地等は、地域の実情に合わせた基礎にしてください。
  7
STYLE2
100
AcDbText
  0
LINE
  5
2BF20
330
747D
100
AcDbEntity
  8
仕様書枠
 48
50.0
100
AcDbLine
 10
60530.3013593015
 20
-32726.1375855322
 30
0.0
 11
61388.3013593015
 21
-32726.1375855322
 31
0.0
  0
LINE
  5
2BF21
330
747D
100
AcDbEntity
  8
仕様書枠
  6
Continuous
 48
50.0
100
AcDbLine
 10
61388.3013593015
 20
-32426.13758553219
 30
0.0
 11
61388.3013593015
 21
-32726.1375855322
 31
0.0
  0
TEXT
  5
2BF22
330
747D
100
AcDbEntity
  8
文字
 62
     7
 48
50.0
100
AcDbText
 10
61651.88487527269
 20
-32963.21505078884
 30
0.0
 40
120.0
  1
BP-28UL-2
  7
STYLE3
100
AcDbText
  0
TEXT
  5
2BF23
330
747D
100
AcDbEntity
  8
文字
 62
     7
 48
50.0
100
AcDbText
 10
61838.61875159837
 20
-32697.4480402275
 30
0.0
 40
75.0
  1
～一般型～
  7
STYLE2
100
AcDbText
  0
TEXT
  5
2BF24
330
747D
100
AcDbEntity
  8
文字
 62
     7
 48
50.0
100
AcDbText
 10
61593.00023721799
 20
-32552.46930581377
 30
0.0
 40
75.0
  1
             <縮尺> S=1/30
  7
STYLE2
100
AcDbText
  0
DIMENSION
  5
2BF25
330
747D
100
AcDbEntity
  8
寸法
 48
50.0
100
AcDbDimension
  2
*D18
 10
51898.14792223365
 20
-30446.14128241243
 30
0.0
 11
51983.14792223367
 21
-30371.14128241243
 31
0.0
 70
    32
 71
     5
 42
170.0000000000436
  3
INABA_S30G
100
AcDbAlignedDimension
 13
52068.14792223369
 23
-29980.6535640759
 33
0.0
 14
51898.14792223365
 24
-30117.6535640759
 34
0.0
 50
180.0
100
AcDbRotatedDimension
  0
DIMENSION
  5
2BF29
330
747D
100
AcDbEntity
  8
寸法
 48
50.0
100
AcDbDimension
  2
*D17
 10
58680.42214459726
 20
-30117.6535640759
 30
0.0
 11
58680.42214459726
 21
-30294.6535640759
 31
0.0
 70
   160
 71
     5
 42
137.0
  3
INABA_S30G
100
AcDbAlignedDimension
 13
58128.14792223361
 23
-29980.6535640759
 33
0.0
 14
58298.14792223364
 24
-30117.6535640759
 34
0.0
 50
90.0
100
AcDbRotatedDimension
  0
DIMENSION
  5
2BF2A
330
747D
100
AcDbEntity
  8
寸法
 48
50.0
100
AcDbDimension
  2
*D16
 10
58680.42214459727
 20
-27817.65356407591
 30
0.0
 11
58680.42214459728
 21
-27634.28960304522
 31
0.0
 70
   160
 71
     5
 42
142.9999999999927
  3
INABA_S30G
100
AcDbAlignedDimension
 13
58128.14792223361
 23
-27960.6535640759
 33
0.0
 14
58298.14792223364
 24
-27817.65356407591
 34
0.0
 50
90.0
100
AcDbRotatedDimension
  0
DIMENSION
  5
2BF2B
330
747D
100
AcDbEntity
  8
寸法
 48
50.0
100
AcDbDimension
  2
*D15
 10
58680.42214459726
 20
-29980.6535640759
 30
0.0
 11
58605.41328632955
 21
-28970.65356407589
 31
0.0
 70
    32
  1
屋根寸法 <>
 71
     5
 42
2020.0
  3
INABA_S30G
100
AcDbAlignedDimension
 13
58128.14792223361
 23
-27960.6535640759
 33
0.0
 14
58128.14792223361
 24
-29980.6535640759
 34
0.0
 50
90.0
100
AcDbRotatedDimension
  0
LINE
  5
2BF46
330
747D
100
AcDbEntity
  8
センター
 48
10.0
100
AcDbLine
 10
52048.14792223364
 20
-28117.6535640759
 30
0.0
 11
58148.14792223365
 21
-28117.6535640759
 31
0.0
  0
LINE
  5
2BF47
330
747D
100
AcDbEntity
  8
想像線
 48
10.0
100
AcDbLine
 10
52068.14792223369
 20
-29980.6535640759
 30
0.0
 11
52068.14792223369
 21
-27960.6535640759
 31
0.0
  0
LINE
  5
2BF48
330
747D
100
AcDbEntity
  8
想像線
 48
10.0
100
AcDbLine
 10
58128.14792223361
 20
-27960.6535640759
 30
0.0
 11
52068.14792223369
 21
-27960.6535640759
 31
0.0
  0
LINE
  5
2BF49
330
747D
100
AcDbEntity
  8
想像線
 48
10.0
100
AcDbLine
 10
58128.14792223361
 20
-29980.6535640759
 30
0.0
 11
58128.14792223361
 21
-27960.6535640759
 31
0.0
  0
LINE
  5
2BF4A
330
747D
100
AcDbEntity
  8
想像線
 48
10.0
100
AcDbLine
 10
52068.14792223369
 20
-29980.65356407591
 30
0.0
 11
58128.14792223361
 21
-29980.6535640759
 31
0.0
  0
LINE
  5
2BF4B
330
747D
100
AcDbEntity
  8
部品1
 48
50.0
100
AcDbLine
 10
52698.14792223365
 20
-27817.65356407591
 30
0.0
 11
51898.14792223365
 21
-27817.65356407591
 31
0.0
  0
LINE
  5
2BF4C
330
747D
100
AcDbEntity
  8
部品1
 48
50.0
100
AcDbLine
 10
52698.14792223365
 20
-27817.65356407591
 30
0.0
 11
52698.14792223365
 21
-28917.6535640759
 31
0.0
  0
LINE
  5
2BF4D
330
747D
100
AcDbEntity
  8
部品1
 48
50.0
100
AcDbLine
 10
51898.14792223365
 20
-28917.6535640759
 30
0.0
 11
52698.14792223365
 21
-28917.6535640759
 31
0.0
  0
LINE
  5
2BF4E
330
747D
100
AcDbEntity
  8
部品1
 48
50.0
100
AcDbLine
 10
51898.14792223364
 20
-27817.65356407591
 30
0.0
 11
51898.14792223365
 21
-30117.6535640759
 31
0.0
  0
CIRCLE
  5
2BF4F
330
747D
100
AcDbEntity
  8
部品1
 48
50.0
100
AcDbCircle
 10
52298.14792223365
 20
-28117.6535640759
 30
0.0
 40
44.55
  0
LINE
  5
2BF50
330
747D
100
AcDbEntity
  8
センター
 48
10.0
100
AcDbLine
 10
52048.14792223364
 20
-28117.6535640759
 30
0.0
 11
52548.14792223364
 21
-28117.6535640759
 31
0.0
  0
LINE
  5
2BF51
330
747D
100
AcDbEntity
  8
センター
 48
10.0
100
AcDbLine
 10
52298.14792223365
 20
-27867.6535640759
 30
0.0
 11
52298.14792223365
 21
-28367.6535640759
 31
0.0
  0
LINE
  5
2BF52
330
747D
100
AcDbEntity
  8
センター
 48
10.0
100
AcDbLine
 10
57898.14792223364
 20
-27867.6535640759
 30
0.0
 11
57898.14792223364
 21
-28367.6535640759
 31
0.0
  0
LINE
  5
2BF53
330
747D
100
AcDbEntity
  8
センター
 48
10.0
100
AcDbLine
 10
57648.14792223365
 20
-28117.6535640759
 30
0.0
 11
58148.14792223365
 21
-28117.6535640759
 31
0.0
  0
CIRCLE
  5
2BF54
330
747D
100
AcDbEntity
  8
部品1
 48
50.0
100
AcDbCircle
 10
57898.14792223364
 20
-28117.6535640759
 30
0.0
 40
44.55
  0
LINE
  5
2BF55
330
747D
100
AcDbEntity
  8
部品1
 48
50.0
100
AcDbLine
 10
57498.14792223364
 20
-27817.65356407591
 30
0.0
 11
57498.14792223364
 21
-28917.6535640759
 31
0.0
  0
LINE
  5
2BF56
330
747D
100
AcDbEntity
  8
部品1
 48
50.0
100
AcDbLine
 10
57498.14792223364
 20
-28917.6535640759
 30
0.0
 11
58298.14792223364
 21
-28917.6535640759
 31
0.0
  0
LINE
  5
2BF57
330
747D
100
AcDbEntity
  8
部品1
 48
50.0
100
AcDbLine
 10
58298.14792223364
 20
-27817.65356407591
 30
0.0
 11
58298.14792223364
 21
-30117.6535640759
 31
0.0
  0
LINE
  5
2BF58
330
747D
100
AcDbEntity
  8
部品1
 48
50.0
100
AcDbLine
 10
58298.14792223364
 20
-27817.65356407591
 30
0.0
 11
57498.14792223364
 21
-27817.65356407591
 31
0.0
  0
LINE
  5
2BF7C
330
747D
100
AcDbEntity
  8
文字
 48
50.0
100
AcDbLine
 10
51898.14792223364
 20
-27917.6535640759
 30
0.0
 11
58298.14792223364
 21
-27917.6535640759
 31
0.0
  0
LINE
  5
2BF7D
330
747D
100
AcDbEntity
  8
部品1
 48
30.0
100
AcDbLine
 10
51898.14792223365
 20
-30117.6535640759
 30
0.0
 11
58298.14792223364
 21
-30117.6535640759
 31
0.0
  0
DIMENSION
  5
2BF91
330
747D
100
AcDbEntity
  8
寸法
 48
50.0
100
AcDbDimension
  2
*D14
 10
58298.14792223364
 20
-30446.14128241243
 30
0.0
 11
58213.14792223363
 21
-30371.14128241243
 31
0.0
 70
    32
 71
     5
 42
170.0000000000436
  3
INABA_S30G
100
AcDbAlignedDimension
 13
58128.14792223361
 23
-29980.6535640759
 33
0.0
 14
58298.14792223364
 24
-30117.6535640759
 34
0.0
100
AcDbRotatedDimension
  0
DIMENSION
  5
2BF92
330
747D
100
AcDbEntity
  8
寸法
 48
50.0
100
AcDbDimension
  2
*D13
 10
58128.14792223361
 20
-30446.14128241243
 30
0.0
 11
55098.14792223365
 21
-30371.14128241243
 31
0.0
 70
    32
  1
屋根寸法 <>
 71
     5
 42
6059.999999999913
  3
INABA_S30G
100
AcDbAlignedDimension
 13
52068.14792223369
 23
-29980.65356407591
 33
0.0
 14
58128.14792223361
 24
-29980.6535640759
 34
0.0
100
AcDbRotatedDimension
  0
DIMENSION
  5
2BF93
330
747D
100
AcDbEntity
  8
寸法
 48
50.0
100
AcDbDimension
  2
*D12
 10
51334.52672350595
 20
-30117.6535640759
 30
0.0
 11
51259.51786523824
 21
-29017.65356407589
 31
0.0
 70
    32
  1
基礎土間寸法 <>
 71
     5
 42
2200.0
  3
INABA_S30G
100
AcDbAlignedDimension
 13
51898.14792223364
 23
-27917.6535640759
 33
0.0
 14
51898.14792223365
 24
-30117.6535640759
 34
0.0
 50
90.0
100
AcDbRotatedDimension
  0
DIMENSION
  5
2BF94
330
747D
100
AcDbEntity
  8
寸法
 48
50.0
100
AcDbDimension
  2
*D11
 10
51557.27608552242
 20
-30117.6535640759
 30
0.0
 11
51482.2672272547
 21
-29117.65356407589
 31
0.0
 70
    32
 71
     5
 42
2000.0
  3
INABA_S30G
100
AcDbAlignedDimension
 13
52048.14792223364
 23
-28117.6535640759
 33
0.0
 14
51898.14792223365
 24
-30117.6535640759
 34
0.0
 50
90.0
100
AcDbRotatedDimension
  0
DIMENSION
  5
2BF95
330
747D
100
AcDbEntity
  8
寸法
 48
50.0
100
AcDbDimension
  2
*D10
 10
51557.27608552242
 20
-28117.6535640759
 30
0.0
 11
51482.2672272547
 21
-28017.65356407589
 31
0.0
 70
    32
 71
     5
 42
200.0
  3
INABA_S30G
100
AcDbAlignedDimension
 13
51898.14792223364
 23
-27917.6535640759
 33
0.0
 14
52048.14792223364
 24
-28117.6535640759
 34
0.0
 50
90.0
100
AcDbRotatedDimension
  0
DIMENSION
  5
2BF96
330
747D
100
AcDbEntity
  8
寸法
 48
50.0
100
AcDbDimension
  2
*D9
 10
58298.14792223364
 20
-27314.16423097048
 30
0.0
 11
55098.14792223365
 21
-27239.16423097048
 31
0.0
 70
    32
  1
基礎土間寸法 <>
 71
     5
 42
6400.0
  3
INABA_S30G
100
AcDbAlignedDimension
 13
51898.14792223365
 23
-27817.65356407591
 33
0.0
 14
58298.14792223364
 24
-27817.65356407591
 34
0.0
100
AcDbRotatedDimension
  0
DIMENSION
  5
2BF97
330
747D
100
AcDbEntity
  8
寸法
 48
50.0
100
AcDbDimension
  2
*D8
 10
58298.14792223364
 20
-27508.2012699448
 30
0.0
 11
58098.14792223365
 21
-27433.2012699448
 31
0.0
 70
    32
 71
     5
 42
400.0
  3
INABA_S30G
100
AcDbAlignedDimension
 13
57898.14792223364
 23
-27867.6535640759
 33
0.0
 14
58298.14792223364
 24
-27817.65356407591
 34
0.0
100
AcDbRotatedDimension
  0
DIMENSION
  5
2BF98
330
747D
100
AcDbEntity
  8
寸法
 48
50.0
100
AcDbDimension
  2
*D7
 10
55098.14792223365
 20
-27508.2012699448
 30
0.0
 11
53698.14792223364
 21
-27433.19241167708
 31
0.0
 70
    32
 71
     5
 42
2800.0
  3
INABA_S30G
100
AcDbAlignedDimension
 13
52298.14792223365
 23
-27867.6535640759
 33
0.0
 14
55098.14792223365
 24
-27867.6535640759
 34
0.0
100
AcDbRotatedDimension
  0
DIMENSION
  5
2BF9D
330
747D
100
AcDbEntity
  8
寸法
 48
50.0
100
AcDbDimension
  2
*D6
 10
52298.14792223365
 20
-27508.2012699448
 30
0.0
 11
52098.14792223364
 21
-27433.2012699448
 31
0.0
 70
    32
 71
     5
 42
400.0
  3
INABA_S30G
100
AcDbAlignedDimension
 13
51898.14792223365
 23
-27817.65356407591
 33
0.0
 14
52298.14792223365
 24
-27867.6535640759
 34
0.0
100
AcDbRotatedDimension
  0
LINE
  5
2BF9E
330
747D
100
AcDbEntity
  8
寸法
 48
50.0
100
AcDbLine
 10
52298.14792223365
 20
-28996.55252655603
 30
0.0
 11
52298.14792223365
 21
-28367.6535640759
 31
0.0
  0
LINE
  5
2BFA3
330
747D
100
AcDbEntity
  8
寸法
 48
50.0
100
AcDbLine
 10
56409.76995890312
 20
-29010.64317249797
 30
0.0
 11
56376.92167607031
 21
-28888.05171202451
 31
0.0
  0
LINE
  5
2BFA4
330
747D
100
AcDbEntity
  8
寸法
 48
50.0
100
AcDbLine
 10
56409.76995890312
 20
-29010.64317249797
 30
0.0
 11
56442.61824173594
 21
-28888.05171202451
 31
0.0
  0
LINE
  5
2BFA5
330
747D
100
AcDbEntity
  8
寸法
 48
50.0
100
AcDbLine
 10
56409.76995890312
 20
-28228.8491318059
 30
0.0
 11
56409.76995890312
 21
-29010.64317249797
 31
0.0
  0
MTEXT
  5
2BFA6
330
747D
100
AcDbEntity
  8
寸法
 62
     7
 48
50.0
100
AcDbMText
 10
56315.33202283732
 20
-28871.36638598111
 30
0.0
 40
90.0
 41
0.0
 71
     4
 72
     1
  1
\A1;水勾配 1/100 
  7
STYLE1
 11
0.0000000000000001
 21
1.0
 31
0.0
 73
     1
 44
1.0
1001
ACAD
1000
MTEXTBEGIN
1070
    73
1070
     1
1070
    44
1040
1.0
1070
    74
1070
     0
1000
MTEXTEND
  0
DIMENSION
  5
2BFA7
330
747D
100
AcDbEntity
  8
寸法
 48
50.0
100
AcDbDimension
  2
*D5
 10
57498.14792223364
 20
-29155.78978011299
 30
0.0
 11
57698.14792223365
 21
-29080.78978011299
 31
0.0
 70
    32
 71
     5
 42
400.0
  3
INABA_S30G
100
AcDbAlignedDimension
 13
57898.14792223364
 23
-28367.6535640759
 33
0.0
 14
57498.14792223364
 24
-28917.6535640759
 34
0.0
100
AcDbRotatedDimension
  0
DIMENSION
  5
2BFA8
330
747D
100
AcDbEntity
  8
寸法
 48
50.0
100
AcDbDimension
  2
*D4
 10
58298.14792223364
 20
-29393.92599615007
 30
0.0
 11
57898.14792223364
 21
-29393.92599615007
 31
0.0
 70
   160
 71
     5
 42
800.0
  3
INABA_S30G
100
AcDbAlignedDimension
 13
57498.14792223364
 23
-28917.6535640759
 33
0.0
 14
58298.14792223364
 24
-28917.6535640759
 34
0.0
100
AcDbRotatedDimension
  0
DIMENSION
  5
2BFA9
330
747D
100
AcDbEntity
  8
寸法
 48
50.0
100
AcDbDimension
  2
*D3
 10
57320.83341894946
 20
-28917.6535640759
 30
0.0
 11
57245.83341894946
 21
-28517.65356407589
 31
0.0
 70
    32
 71
     5
 42
800.0
  3
INABA_S30G
100
AcDbAlignedDimension
 13
57498.14792223364
 23
-28117.6535640759
 33
0.0
 14
57498.14792223364
 24
-28917.6535640759
 34
0.0
 50
90.0
100
AcDbRotatedDimension
  0
DIMENSION
  5
2BFAA
330
747D
100
AcDbEntity
  8
寸法
 48
50.0
100
AcDbDimension
  2
*D2
 10
57143.51891566529
 20
-28917.6535640759
 30
0.0
 11
57068.5189156653
 21
-28367.65356407589
 31
0.0
 70
    32
 71
     5
 42
1100.0
  3
INABA_S30G
100
AcDbAlignedDimension
 13
57498.14792223364
 23
-27817.6535640759
 33
0.0
 14
57498.14792223364
 24
-28917.6535640759
 34
0.0
 50
90.0
100
AcDbRotatedDimension
  0
DIMENSION
  5
2BFAB
330
747D
100
AcDbEntity
  8
寸法
 48
50.0
100
AcDbDimension
  2
*D1
 10
57320.83341894946
 20
-28117.65356407589
 30
0.0
 11
57245.83341894946
 21
-27967.65356407589
 31
0.0
 70
    32
 71
     5
 42
300.0
  3
INABA_S30G
100
AcDbAlignedDimension
 13
57498.14792223364
 23
-27817.6535640759
 33
0.0
 14
57498.14792223364
 24
-28117.6535640759
 34
0.0
 50
90.0
100
AcDbRotatedDimension
  0
MTEXT
  5
2BFAC
330
747D
100
AcDbEntity
  8
寸法
 62
     7
 48
50.0
100
AcDbMText
 10
52124.13980701584
 20
-29863.37351820841
 30
0.0
 40
90.0
 41
0.0
 71
     4
 72
     1
  1
\A1;床コンクリート打コテ押エ
  7
STYLE1
 73
     1
 44
1.0
1001
ACAD
1000
MTEXTBEGIN
1070
    73
1070
     1
1070
    44
1040
1.0
1070
    74
1070
     0
1000
MTEXTEND
  0
LEADER
  5
2BFAD
330
747D
100
AcDbEntity
  8
寸法
 48
50.0
100
AcDbLeader
  3
INABA_S30G
 73
     0
 75
     1
 40
90.0
 41
108.0
 76
     3
 10
57898.14792223364
 20
-28117.6535640759
 30
0.0
 10
57809.66139729832
 20
-28447.88977091974
 30
0.0
 10
57734.66139729832
 20
-28447.88977091974
 30
0.0
  0
MTEXT
  5
2BFAE
102
{ACAD_REACTORS
330
2BFAD
102
}
330
747D
100
AcDbEntity
  8
寸法
 62
     7
 48
50.0
100
AcDbMText
 10
57704.66139729832
 20
-28372.88977091974
 30
0.0
 40
90.0
 41
0.0
 71
     6
 72
     1
  1
\A1;柱
  7
STYLE1
 73
     1
 44
1.0
1001
ACAD
1000
MTEXTBEGIN
1070
    73
1070
     1
1070
    44
1040
1.0
1070
    74
1070
     0
1000
MTEXTEND
  0
LINE
  5
34C6E
330
747D
100
AcDbEntity
  8
U7
100
AcDbLine
 10
60974.31540260974
 20
-28744.1036924208
 30
0.0
 11
60974.31540260974
 21
-28754.1036924208
 31
0.0
  0
LINE
  5
34C6F
330
747D
100
AcDbEntity
  8
U7
100
AcDbLine
 10
60774.31540260973
 20
-28744.1036924208
 30
0.0
 11
60774.31540260973
 21
-28754.1036924208
 31
0.0
  0
LINE
  5
34C70
330
747D
100
AcDbEntity
  8
U7
100
AcDbLine
 10
60974.31540260974
 20
-28754.1036924208
 30
0.0
 11
60774.31540260973
 21
-28754.1036924208
 31
0.0
  0
LINE
  5
34C71
330
747D
100
AcDbEntity
  8
U7
100
AcDbLine
 10
60974.31540260974
 20
-28744.1036924208
 30
0.0
 11
60774.31540260973
 21
-28744.1036924208
 31
0.0
  0
LWPOLYLINE
  5
34C72
330
747D
100
AcDbEntity
  8
寸法
 48
5.0
100
AcDbPolyline
 90
        3
 70
     0
 43
0.0
 10
60174.31540260973
 20
-28702.90369242081
 10
59835.39598903018
 20
-29098.55463685643
 10
58917.88643388522
 20
-29098.55463685643
1001
ACAD
1000
DSTYLE
1002
{
1070
   341
1005
0
1002
}
  0
TEXT
  5
34C73
330
747D
100
AcDbEntity
  8
寸法
 62
     7
100
AcDbText
 10
58923.02287168855
 20
-29078.03363185808
 30
0.0
 40
90.0
  1
4-D10X5-D10以上
  7
STYLE1
100
AcDbText
  0
TEXT
  5
34C74
330
747D
100
AcDbEntity
  8
寸法
 62
     7
100
AcDbText
 10
58923.02287168855
 20
-28963.56071113345
 30
0.0
 40
90.0
  1
ベース筋
  7
STYLE1
100
AcDbText
  0
CIRCLE
  5
34C75
102
{ACAD_REACTORS
330
3507B
102
}
330
747D
100
AcDbEntity
  8
U7
100
AcDbCircle
 10
60669.31540260973
 20
-28294.1036924208
 30
0.0
 40
5.0
  0
CIRCLE
  5
34C76
102
{ACAD_REACTORS
330
3507B
102
}
330
747D
100
AcDbEntity
  8
U7
100
AcDbCircle
 10
61079.31540260973
 20
-28294.1036924208
 30
0.0
 40
5.0
  0
LINE
  5
34C77
102
{ACAD_REACTORS
330
3507B
102
}
330
747D
100
AcDbEntity
  8
U7
100
AcDbLine
 10
60669.31540260973
 20
-28299.1036924208
 30
0.0
 11
61079.31540260973
 21
-28299.1036924208
 31
0.0
  0
LINE
  5
34C78
102
{ACAD_REACTORS
330
3507B
102
}
330
747D
100
AcDbEntity
  8
U7
100
AcDbLine
 10
60669.31540260973
 20
-28289.1036924208
 30
0.0
 11
61079.31540260973
 21
-28289.1036924208
 31
0.0
  0
CIRCLE
  5
34C79
102
{ACAD_REACTORS
330
3507A
102
}
330
747D
100
AcDbEntity
  8
U7
100
AcDbCircle
 10
60669.31540260973
 20
-28394.1036924208
 30
0.0
 40
5.0
  0
CIRCLE
  5
34C7A
102
{ACAD_REACTORS
330
3507A
102
}
330
747D
100
AcDbEntity
  8
U7
100
AcDbCircle
 10
61079.31540260973
 20
-28394.1036924208
 30
0.0
 40
5.0
  0
LINE
  5
34C7B
102
{ACAD_REACTORS
330
3507A
102
}
330
747D
100
AcDbEntity
  8
U7
100
AcDbLine
 10
60669.31540260973
 20
-28399.1036924208
 30
0.0
 11
61079.31540260973
 21
-28399.1036924208
 31
0.0
  0
LINE
  5
34C7C
102
{ACAD_REACTORS
330
3507A
102
}
330
747D
100
AcDbEntity
  8
U7
100
AcDbLine
 10
60669.31540260973
 20
-28389.1036924208
 30
0.0
 11
61079.31540260973
 21
-28389.1036924208
 31
0.0
  0
CIRCLE
  5
34C7D
102
{ACAD_REACTORS
330
35079
102
}
330
747D
100
AcDbEntity
  8
U7
100
AcDbCircle
 10
60669.31540260973
 20
-28494.1036924208
 30
0.0
 40
5.0
  0
CIRCLE
  5
34C7E
102
{ACAD_REACTORS
330
35079
102
}
330
747D
100
AcDbEntity
  8
U7
100
AcDbCircle
 10
61079.31540260973
 20
-28494.1036924208
 30
0.0
 40
5.0
  0
LINE
  5
34C7F
102
{ACAD_REACTORS
330
35079
102
}
330
747D
100
AcDbEntity
  8
U7
100
AcDbLine
 10
60669.31540260973
 20
-28489.1036924208
 30
0.0
 11
61079.31540260973
 21
-28489.1036924208
 31
0.0
  0
LINE
  5
34C80
102
{ACAD_REACTORS
330
35079
102
}
330
747D
100
AcDbEntity
  8
U7
100
AcDbLine
 10
60669.31540260973
 20
-28499.1036924208
 30
0.0
 11
61079.31540260973
 21
-28499.10369242079
 31
0.0
  0
CIRCLE
  5
34C81
102
{ACAD_REACTORS
330
35078
102
}
330
747D
100
AcDbEntity
  8
U7
100
AcDbCircle
 10
60669.31540260973
 20
-28594.1036924208
 30
0.0
 40
5.0
  0
CIRCLE
  5
34C82
102
{ACAD_REACTORS
330
35078
102
}
330
747D
100
AcDbEntity
  8
U7
100
AcDbCircle
 10
61079.31540260973
 20
-28594.1036924208
 30
0.0
 40
5.0
  0
LINE
  5
34C83
102
{ACAD_REACTORS
330
35078
102
}
330
747D
100
AcDbEntity
  8
U7
100
AcDbLine
 10
60669.31540260973
 20
-28599.1036924208
 30
0.0
 11
61079.31540260973
 21
-28599.1036924208
 31
0.0
  0
LINE
  5
34C84
102
{ACAD_REACTORS
330
35078
102
}
330
747D
100
AcDbEntity
  8
U7
100
AcDbLine
 10
60669.31540260973
 20
-28589.1036924208
 30
0.0
 11
61079.31540260973
 21
-28589.1036924208
 31
0.0
  0
LINE
  5
34C85
102
{ACAD_REACTORS
330
35076
102
}
330
747D
100
AcDbEntity
  8
KIN-T
100
AcDbLine
 10
60885.86540260974
 20
-28659.1036924208
 30
0.0
 11
60885.86540260974
 21
-28672.1036924208
 31
0.0
  0
LINE
  5
34C86
102
{ACAD_REACTORS
330
35076
102
}
330
747D
100
AcDbEntity
  8
KIN-T
100
AcDbLine
 10
60885.86540260974
 20
-28672.1036924208
 30
0.0
 11
61031.31540260974
 21
-28672.1036924208
 31
0.0
  0
ARC
  5
34C87
102
{ACAD_REACTORS
330
35076
102
}
330
747D
100
AcDbEntity
  8
KIN-T
100
AcDbCircle
 10
61031.31540260974
 20
-28629.1036924208
 30
0.0
 40
43.0
100
AcDbArc
 50
270.0
 51
0.0
  0
ARC
  5
34C88
102
{ACAD_REACTORS
330
35076
330
35077
102
}
330
747D
100
AcDbEntity
  8
KIN-T
100
AcDbCircle
 10
61031.31540260974
 20
-28629.1036924208
 30
0.0
 40
30.0
100
AcDbArc
 50
270.0
 51
0.0
  0
LINE
  5
34C89
102
{ACAD_REACTORS
330
35076
330
35077
102
}
330
747D
100
AcDbEntity
  8
KIN-T
100
AcDbLine
 10
61061.31540260974
 20
-28289.1036924208
 30
0.0
 11
61061.31540260974
 21
-28629.1036924208
 31
0.0
  0
LINE
  5
34C8A
102
{ACAD_REACTORS
330
35076
102
}
330
747D
100
AcDbEntity
  8
KIN-T
100
AcDbLine
 10
61074.31540260974
 20
-28289.1036924208
 30
0.0
 11
61074.31540260974
 21
-28629.1036924208
 31
0.0
  0
LINE
  5
34C8B
102
{ACAD_REACTORS
330
35076
102
}
330
747D
100
AcDbEntity
  8
KIN-T
100
AcDbLine
 10
61061.31540260974
 20
-28289.1036924208
 30
0.0
 11
61074.31540260974
 21
-28289.1036924208
 31
0.0
  0
LINE
  5
34C8C
102
{ACAD_REACTORS
330
35076
330
35077
102
}
330
747D
100
AcDbEntity
  8
KIN-T
100
AcDbLine
 10
60885.86540260974
 20
-28659.1036924208
 30
0.0
 11
61031.31540260974
 21
-28659.1036924208
 31
0.0
  0
LINE
  5
34C8D
102
{ACAD_REACTORS
330
35075
102
}
330
747D
100
AcDbEntity
  8
KIN-T
100
AcDbLine
 10
60498.86540260973
 20
-28659.1036924208
 30
0.0
 11
60498.86540260973
 21
-28672.1036924208
 31
0.0
  0
LINE
  5
34C8E
102
{ACAD_REACTORS
330
35075
102
}
330
747D
100
AcDbEntity
  8
KIN-T
100
AcDbLine
 10
60498.86540260973
 20
-28672.1036924208
 30
0.0
 11
60644.31540260974
 21
-28672.1036924208
 31
0.0
  0
ARC
  5
34C8F
102
{ACAD_REACTORS
330
35075
102
}
330
747D
100
AcDbEntity
  8
KIN-T
100
AcDbCircle
 10
60644.31540260974
 20
-28629.1036924208
 30
0.0
 40
43.0
100
AcDbArc
 50
270.0
 51
0.0
  0
LINE
  5
34C90
102
{ACAD_REACTORS
330
35075
102
}
330
747D
100
AcDbEntity
  8
KIN-T
100
AcDbLine
 10
60687.31540260974
 20
-28289.1036924208
 30
0.0
 11
60687.31540260974
 21
-28629.1036924208
 31
0.0
  0
LINE
  5
34C91
102
{ACAD_REACTORS
330
35075
102
}
330
747D
100
AcDbEntity
  8
KIN-T
100
AcDbLine
 10
60674.31540260974
 20
-28289.1036924208
 30
0.0
 11
60687.31540260974
 21
-28289.1036924208
 31
0.0
  0
ARC
  5
34C92
102
{ACAD_REACTORS
330
35074
330
35075
102
}
330
747D
100
AcDbEntity
  8
KIN-T
100
AcDbCircle
 10
60644.31540260974
 20
-28629.1036924208
 30
0.0
 40
30.0
100
AcDbArc
 50
270.0
 51
0.0
  0
LINE
  5
34C93
102
{ACAD_REACTORS
330
35074
330
35075
102
}
330
747D
100
AcDbEntity
  8
KIN-T
100
AcDbLine
 10
60674.31540260974
 20
-28289.1036924208
 30
0.0
 11
60674.31540260974
 21
-28629.1036924208
 31
0.0
  0
LINE
  5
34C94
102
{ACAD_REACTORS
330
35074
330
35075
102
}
330
747D
100
AcDbEntity
  8
KIN-T
100
AcDbLine
 10
60498.86540260973
 20
-28659.1036924208
 30
0.0
 11
60644.31540260974
 21
-28659.1036924208
 31
0.0
  0
LINE
  5
34C95
102
{ACAD_REACTORS
330
35073
102
}
330
747D
100
AcDbEntity
  8
部品1
 48
50.0
100
AcDbLine
 10
60158.56540260973
 20
-28709.1036924208
 30
0.0
 11
60158.56540260973
 21
-28719.1036924208
 31
0.0
  0
LINE
  5
34C96
102
{ACAD_REACTORS
330
35073
102
}
330
747D
100
AcDbEntity
  8
部品1
 48
50.0
100
AcDbLine
 10
60158.56540260973
 20
-28709.1036924208
 30
0.0
 11
60990.03495104764
 21
-28709.1036924208
 31
0.0
  0
LINE
  5
34C97
102
{ACAD_REACTORS
330
35073
102
}
330
747D
100
AcDbEntity
  8
部品1
 48
50.0
100
AcDbLine
 10
60990.03495104764
 20
-28709.1036924208
 30
0.0
 11
60990.03495104764
 21
-28719.1036924208
 31
0.0
  0
CIRCLE
  5
34C98
102
{ACAD_REACTORS
330
35073
102
}
330
747D
100
AcDbEntity
  8
部品1
 48
50.0
100
AcDbCircle
 10
60174.31540260973
 20
-28704.1036924208
 30
0.0
 40
5.0
  0
CIRCLE
  5
34C99
102
{ACAD_REACTORS
330
35073
102
}
330
747D
100
AcDbEntity
  8
部品1
 48
50.0
100
AcDbCircle
 10
60374.31540260973
 20
-28704.1036924208
 30
0.0
 40
5.0
  0
CIRCLE
  5
34C9A
102
{ACAD_REACTORS
330
35073
102
}
330
747D
100
AcDbEntity
  8
部品1
 48
50.0
100
AcDbCircle
 10
60574.31540260973
 20
-28704.1036924208
 30
0.0
 40
5.0
  0
CIRCLE
  5
34C9B
102
{ACAD_REACTORS
330
35073
102
}
330
747D
100
AcDbEntity
  8
部品1
 48
50.0
100
AcDbCircle
 10
60774.31540260973
 20
-28704.1036924208
 30
0.0
 40
5.0
  0
CIRCLE
  5
34C9C
102
{ACAD_REACTORS
330
35073
102
}
330
747D
100
AcDbEntity
  8
部品1
 48
50.0
100
AcDbCircle
 10
60974.31540260974
 20
-28704.1036924208
 30
0.0
 40
5.0
  0
LINE
  5
34C9D
102
{ACAD_REACTORS
330
35073
102
}
330
747D
100
AcDbEntity
  8
部品1
 48
50.0
100
AcDbLine
 10
60158.56540260973
 20
-28719.1036924208
 30
0.0
 11
60990.03495104764
 21
-28719.1036924208
 31
0.0
  0
LWPOLYLINE
  5
34CD9
330
747D
100
AcDbEntity
  8
寸法
 48
50.0
100
AcDbPolyline
 90
        3
 70
     0
 43
0.0
 10
60874.31540260973
 20
-28749.1036924208
 10
61469.00269484505
 20
-29405.76473992173
 10
61962.00768426198
 20
-29405.76473992173
1001
ACAD
1000
DSTYLE
1002
{
1070
   341
1005
0
1002
}
  0
TEXT
  5
34CDA
330
747D
100
AcDbEntity
  8
寸法
 62
     7
 48
50.0
100
AcDbText
 10
61526.66463013798
 20
-29386.20548657008
 30
0.0
 40
90.0
  1
カンザシ
  7
STYLE1
100
AcDbText
  0
TEXT
  5
34CDC
330
747D
100
AcDbEntity
  8
寸法
 62
     7
 48
50.0
100
AcDbText
 10
61686.24423474992
 20
-28750.60181356123
 30
0.0
 40
90.0
  1
主筋4-D13
  7
STYLE1
100
AcDbText
  0
LINE
  5
34CDD
330
747D
100
AcDbEntity
  8
寸法
 48
50.0
100
AcDbLine
 10
61648.49886866774
 20
-28775.60867111363
 30
0.0
 11
62268.71332413491
 21
-28775.60867111363
 31
0.0
  0
LINE
  5
34CDE
330
747D
100
AcDbEntity
  8
寸法
 48
50.0
100
AcDbLine
 10
61648.49886866774
 20
-28775.60867111363
 30
0.0
 11
61074.31540260974
 21
-28444.1036924208
 31
0.0
  0
LINE
  5
34CDF
330
747D
100
AcDbEntity
  8
寸法
 48
50.0
100
AcDbLine
 10
60720.04408970002
 20
-28594.1036924208
 30
0.0
 11
59835.39598903018
 21
-29478.75179309063
 31
0.0
  0
LINE
  5
34CE0
330
747D
100
AcDbEntity
  8
寸法
 48
50.0
100
AcDbLine
 10
59835.39598903018
 20
-29478.75179309063
 30
0.0
 11
59145.00201032948
 21
-29478.75179309063
 31
0.0
  0
TEXT
  5
34CE1
330
747D
100
AcDbEntity
  8
寸法
 62
     7
 48
50.0
100
AcDbText
 10
59163.45459769408
 20
-29463.67587526279
 30
0.0
 40
90.0
  1
帯筋D10＠100
  7
STYLE1
100
AcDbText
  0
LINE
  5
34DE3
330
747D
100
AcDbEntity
  8
部品1
 48
50.0
100
AcDbLine
 10
61254.31540260972
 20
-28834.1036924208
 30
0.0
 11
59994.31540260973
 21
-28834.1036924208
 31
0.0
  0
LINE
  5
34DE4
330
747D
100
AcDbEntity
  8
文字
 48
50.0
100
AcDbLine
 10
61063.62058475307
 20
-29847.29156459258
 30
0.0
 11
61063.62058475307
 21
-30070.41656459259
 31
0.0
  0
LINE
  5
34DE5
330
747D
100
AcDbEntity
  8
文字
 48
50.0
100
AcDbLine
 10
60228.44133240471
 20
-29847.29156459258
 30
0.0
 11
60228.44133240471
 21
-30070.41656459259
 31
0.0
  0
TEXT
  5
34DE6
330
747D
100
AcDbEntity
  8
文字
 62
     7
 48
50.0
100
AcDbText
 10
60295.02613981741
 20
-30012.93302361921
 30
0.0
 40
112.5
  1
A-A' 断面
  7
STYLE2
100
AcDbText
  0
LINE
  5
34DE7
330
747D
100
AcDbEntity
  8
文字
 48
50.0
100
AcDbLine
 10
60228.44133240471
 20
-30070.41656459259
 30
0.0
 11
61063.62058475307
 21
-30070.41656459259
 31
0.0
  0
LINE
  5
34DE8
330
747D
100
AcDbEntity
  8
文字
 48
50.0
100
AcDbLine
 10
60228.44133240471
 20
-29847.29156459258
 30
0.0
 11
61063.62058475307
 21
-29847.29156459258
 31
0.0
  0
LINE
  5
34DE9
330
747D
100
AcDbEntity
  8
部品1
 48
50.0
100
AcDbLine
 10
60918.86540260973
 20
-28784.1036924208
 30
0.0
 11
60829.76540260973
 21
-28784.1036924208
 31
0.0
  0
LINE
  5
34DEA
330
747D
100
AcDbEntity
  8
部品1
 48
50.0
100
AcDbLine
 10
61174.31540260972
 20
-28784.1036924208
 30
0.0
 11
61174.31540260972
 21
-28234.1036924208
 31
0.0
  0
LINE
  5
34DEB
330
747D
100
AcDbEntity
  8
センター
 48
10.0
100
AcDbLine
 10
60874.31540260973
 20
-27709.63085956577
 30
0.0
 11
60874.31540260973
 21
-28845.16152425068
 31
0.0
  0
LINE
  5
34DEC
330
747D
100
AcDbEntity
  8
部品1
 48
50.0
100
AcDbLine
 10
60074.31540260973
 20
-28234.1036924208
 30
0.0
 11
60074.31540260973
 21
-28784.1036924208
 31
0.0
  0
MTEXT
  5
34DED
330
747D
100
AcDbEntity
  8
寸法
 62
     7
 48
50.0
100
AcDbMText
 10
61595.23599442429
 20
-28131.83096514808
 30
0.0
 40
100.0
 41
1.0
 71
     4
 72
     1
  1
▽G.L
  7
STYLE2
 73
     1
 44
1.0
1001
ACAD
1000
MTEXTBEGIN
1070
    73
1070
     1
1070
    44
1040
1.0
1070
    74
1070
     0
1000
MTEXTEND
  0
LINE
  5
34DEE
330
747D
100
AcDbEntity
  8
Ｇ．Ｌ
 48
50.0
100
AcDbLine
 10
61074.31540260973
 20
-28184.1036924208
 30
0.0
 11
62128.42935311452
 21
-28184.1036924208
 31
0.0
  0
LINE
  5
34DEF
330
747D
100
AcDbEntity
  8
部品1
 48
50.0
100
AcDbLine
 10
60918.86540260973
 20
-27788.17059647589
 30
0.0
 11
60918.86540260973
 21
-28784.1036924208
 31
0.0
  0
LINE
  5
34DF0
330
747D
100
AcDbEntity
  8
部品1
 48
50.0
100
AcDbLine
 10
60829.76540260974
 20
-27788.17059647589
 30
0.0
 11
60829.76540260974
 21
-28784.1036924208
 31
0.0
  0
LINE
  5
34DF1
330
747D
100
AcDbEntity
  8
部品1
 48
50.0
100
AcDbLine
 10
61254.31540260972
 20
-28784.1036924208
 30
0.0
 11
59994.31540260973
 21
-28784.1036924208
 31
0.0
  0
DIMENSION
  5
34DF2
330
747D
100
AcDbEntity
  8
寸法
 48
50.0
100
AcDbDimension
  2
*D28
 10
61466.75676721044
 20
-28784.1036924208
 30
0.0
 11
61391.75676721045
 21
-28484.10369242079
 31
0.0
 70
    32
 71
     5
 42
600.0
  3
INABA_S30G
100
AcDbAlignedDimension
 13
61239.11328017324
 23
-28184.1036924208
 33
0.0
 14
61254.31540260972
 24
-28784.1036924208
 34
0.0
 50
90.0
100
AcDbRotatedDimension
  0
DIMENSION
  5
34DF3
330
747D
100
AcDbEntity
  8
寸法
 48
50.0
100
AcDbDimension
  2
*D27
 10
61466.75676721043
 20
-28134.1036924208
 30
0.0
 11
61466.75676721044
 21
-27904.56825934993
 31
0.0
 70
   160
 71
     5
 42
50.0
  3
INABA_S30G
100
AcDbAlignedDimension
 13
61239.11328017324
 23
-28184.1036924208
 33
0.0
 14
61074.31540260973
 24
-28134.1036924208
 34
0.0
 50
90.0
100
AcDbRotatedDimension
  0
DIMENSION
  5
34DF4
330
747D
100
AcDbEntity
  8
寸法
 48
50.0
100
AcDbDimension
  2
*D26
 10
61074.31540260973
 20
-27421.32579312579
 30
0.0
 11
60974.31540260974
 21
-27346.31693485808
 31
0.0
 70
    32
 71
     5
 42
200.0
  3
INABA_S30G
100
AcDbAlignedDimension
 13
60874.31540260973
 23
-27709.63085956577
 33
0.0
 14
61074.31540260973
 24
-28134.1036924208
 34
0.0
100
AcDbRotatedDimension
  0
LINE
  5
34DF5
330
747D
100
AcDbEntity
  8
部品1
 48
50.0
100
AcDbLine
 10
61074.31540260973
 20
-28234.10369242079
 30
0.0
 11
61074.31540260973
 21
-28144.1036924208
 31
0.0
  0
LINE
  5
34DF6
330
747D
100
AcDbEntity
  8
部品1
 48
50.0
100
AcDbLine
 10
61064.31540260974
 20
-28134.1036924208
 30
0.0
 11
60946.86540260974
 21
-28134.1036924208
 31
0.0
  0
LINE
  5
34DF7
330
747D
100
AcDbEntity
  8
部品1
 48
50.0
100
AcDbLine
 10
61064.31540260974
 20
-28134.1036924208
 30
0.0
 11
61074.31540260974
 21
-28144.1036924208
 31
0.0
  0
LINE
  5
34DF8
330
747D
100
AcDbEntity
  8
部品1
 48
50.0
100
AcDbLine
 10
61174.31540260972
 20
-28234.1036924208
 30
0.0
 11
60918.86540260973
 21
-28234.10369242079
 31
0.0
  0
LINE
  5
34DF9
330
747D
100
AcDbEntity
  8
部品1
 48
50.0
100
AcDbLine
 10
60074.31540260973
 20
-28334.1036924208
 30
0.0
 11
59572.19959151005
 21
-28334.1036924208
 31
0.0
  0
LINE
  5
34DFA
330
747D
100
AcDbEntity
  8
部品1
 48
50.0
100
AcDbLine
 10
61254.31540260972
 20
-28934.1036924208
 30
0.0
 11
59994.31540260973
 21
-28934.1036924208
 31
0.0
  0
LINE
  5
34DFB
330
747D
100
AcDbEntity
  8
寸法
 48
50.0
100
AcDbLine
 10
60082.63612648553
 20
-28059.49627621864
 30
0.0
 11
60711.88862207336
 21
-28059.49627621864
 31
0.0
  0
LINE
  5
34DFC
330
747D
100
AcDbEntity
  8
寸法
 48
50.0
100
AcDbLine
 10
60082.63612648553
 20
-28059.49627621864
 30
0.0
 11
60151.28734435068
 21
-28041.10123783227
 31
0.0
  0
LINE
  5
34DFD
330
747D
100
AcDbEntity
  8
寸法
 48
50.0
100
AcDbLine
 10
60082.63612648553
 20
-28059.49627621864
 30
0.0
 11
60151.28734435068
 21
-28077.89131460502
 31
0.0
  0
LINE
  5
34E37
330
747D
100
AcDbEntity
  8
部品1
 48
50.0
100
AcDbLine
 10
60815.76540260973
 20
-28120.1036924208
 30
0.0
 11
60801.76540260974
 21
-28134.1036924208
 31
0.0
  0
LINE
  5
34E38
330
747D
100
AcDbEntity
  8
部品1
 48
50.0
100
AcDbLine
 10
60815.76540260973
 20
-28120.1036924208
 30
0.0
 11
60829.76540260974
 21
-28120.1036924208
 31
0.0
  0
LINE
  5
34E39
330
747D
100
AcDbEntity
  8
部品1
 48
50.0
100
AcDbLine
 10
60918.86540260973
 20
-28120.1036924208
 30
0.0
 11
60932.86540260973
 21
-28120.1036924208
 31
0.0
  0
LINE
  5
34E3A
330
747D
100
AcDbEntity
  8
部品1
 48
50.0
100
AcDbLine
 10
60932.86540260974
 20
-28120.1036924208
 30
0.0
 11
60946.86540260974
 21
-28134.1036924208
 31
0.0
  0
LINE
  5
34E3B
330
747D
100
AcDbEntity
  8
部品1
 48
50.0
100
AcDbLine
 10
60801.76540260974
 20
-28134.1036924208
 30
0.0
 11
59572.19959151005
 21
-28134.1036924208
 31
0.0
  0
LINE
  5
34E3C
330
747D
100
AcDbEntity
  8
部品1
 48
50.0
100
AcDbLine
 10
60829.76540260973
 20
-28234.1036924208
 30
0.0
 11
59572.19959151005
 21
-28234.1036924208
 31
0.0
  0
LINE
  5
34E46
330
747D
100
AcDbEntity
  8
部品1
 48
50.0
100
AcDbLine
 10
61254.31540260972
 20
-28784.1036924208
 30
0.0
 11
61254.31540260972
 21
-28934.1036924208
 31
0.0
  0
LINE
  5
34E47
330
747D
100
AcDbEntity
  8
部品1
 48
50.0
100
AcDbLine
 10
59994.31540260973
 20
-28784.1036924208
 30
0.0
 11
59994.31540260973
 21
-28934.1036924208
 31
0.0
  0
DIMENSION
  5
34EA4
330
747D
100
AcDbEntity
  8
寸法
 48
50.0
100
AcDbDimension
  2
*D25
 10
59421.61846440816
 20
-28134.1036924208
 30
0.0
 11
59421.61846440816
 21
-27957.06825934993
 31
0.0
 70
   160
 71
     5
 42
100.0
  3
INABA_S30G
100
AcDbAlignedDimension
 13
59572.19959151005
 23
-28234.1036924208
 33
0.0
 14
59572.19959151005
 24
-28134.1036924208
 34
0.0
 50
90.0
100
AcDbRotatedDimension
  0
DIMENSION
  5
34EA5
330
747D
100
AcDbEntity
  8
寸法
 48
50.0
100
AcDbDimension
  2
*D24
 10
59421.61846440816
 20
-28334.1036924208
 30
0.0
 11
59421.61846440816
 21
-28511.13912549166
 31
0.0
 70
   160
 71
     5
 42
100.0
  3
INABA_S30G
100
AcDbAlignedDimension
 13
59572.19959151005
 23
-28234.1036924208
 33
0.0
 14
59572.19959151005
 24
-28334.1036924208
 34
0.0
 50
90.0
100
AcDbRotatedDimension
  0
DIMENSION
  5
34EA6
330
747D
100
AcDbEntity
  8
寸法
 48
50.0
100
AcDbDimension
  2
*D23
 10
61174.31540260972
 20
-29225.72032206485
 30
0.0
 11
61024.31540260973
 21
-29150.72032206484
 31
0.0
 70
    32
 71
     5
 42
299.9999999999927
  3
INABA_S30G
100
AcDbAlignedDimension
 13
60874.31540260973
 23
-28845.16152425068
 33
0.0
 14
61174.31540260972
 24
-28784.1036924208
 34
0.0
100
AcDbRotatedDimension
  0
DIMENSION
  5
34EA7
330
747D
100
AcDbEntity
  8
寸法
 48
50.0
100
AcDbDimension
  2
*D22
 10
60874.31540260973
 20
-29225.72032206485
 30
0.0
 11
60474.31540260973
 21
-29150.72032206484
 31
0.0
 70
    32
 71
     5
 42
800.0
  3
INABA_S30G
100
AcDbAlignedDimension
 13
60074.31540260973
 23
-28784.1036924208
 33
0.0
 14
60874.31540260973
 24
-28845.16152425068
 34
0.0
100
AcDbRotatedDimension
  0
DIMENSION
  5
34EA8
330
747D
100
AcDbEntity
  8
寸法
 48
50.0
100
AcDbDimension
  2
*D21
 10
61466.75676721043
 20
-28834.1036924208
 30
0.0
 11
61466.75676721044
 21
-29063.63912549166
 31
0.0
 70
   160
 71
     5
 42
50.0
  3
INABA_S30G
100
AcDbAlignedDimension
 13
61254.31540260972
 23
-28784.1036924208
 33
0.0
 14
61254.31540260972
 24
-28834.1036924208
 34
0.0
 50
90.0
100
AcDbRotatedDimension
  0
DIMENSION
  5
34EA9
330
747D
100
AcDbEntity
  8
寸法
 48
50.0
100
AcDbDimension
  2
*D20
 10
60074.31540260973
 20
-29455.80588315359
 30
0.0
 11
60624.31540260973
 21
-29380.80588315359
 31
0.0
 70
    32
 71
     5
 42
1099.999999999992
  3
INABA_S30G
100
AcDbAlignedDimension
 13
61174.31540260972
 23
-28784.1036924208
 33
0.0
 14
60074.31540260973
 24
-28784.1036924208
 34
0.0
100
AcDbRotatedDimension
  0
TEXT
  5
34EAA
330
747D
100
AcDbEntity
  8
寸法
 62
     7
 48
50.0
100
AcDbText
 10
60147.60607451385
 20
-28022.44775269875
 30
0.0
 40
90.0
  1
１／１００
 41
0.8
  7
STYLE1
100
AcDbText
  0
TEXT
  5
34EAB
330
747D
100
AcDbEntity
  8
寸法
 62
     7
 48
50.0
100
AcDbText
 10
60180.86956748518
 20
-27874.10924057665
 30
0.0
 40
90.0
  1
水勾配
 41
0.8
  7
STYLE1
100
AcDbText
  0
HATCH
  5
35AAB
102
{ACAD_REACTORS
330
35ACD
102
}
330
747D
100
AcDbEntity
  8
細線
 48
50.0
100
AcDbHatch
 10
0.0
 20
0.0
 30
0.0
210
0.0
220
0.0
230
1.0
  2
PLAST
 70
     0
 71
     0
 91
        2
 92
        7
 72
     0
 73
     1
 93
        6
 10
60829.76540260975
 20
-28234.1036924208
 10
60829.76540260975
 20
-28120.1036924208
 10
60815.76540260973
 20
-28120.1036924208
 10
60801.76540260976
 20
-28134.1036924208
 10
59572.19959151005
 20
-28134.1036924208
 10
59572.19959151005
 20
-28234.1036924208
 97
        0
 92
        7
 72
     0
 73
     1
 93
        8
 10
60918.86540260974
 20
-28234.1036924208
 10
61064.45650149296
 20
-28234.1036924208
 10
61074.31540260973
 20
-28224.24479130404
 10
61074.31540260974
 20
-28144.10369242079
 10
61064.31540260975
 20
-28134.1036924208
 10
60946.86540260974
 20
-28134.1036924208
 10
60932.86540260975
 20
-28120.1036924208
 10
60918.86540260973
 20
-28120.1036924208
 97
        0
 75
     0
 76
     1
 52
45.0
 41
37.5
 77
     0
 78
     3
 53
45.0
 43
57243.14518848431
 44
0.0000053434559959
 45
-168.3798022700466
 46
168.3798022700466
 79
     0
 53
45.0
 43
57222.09771320055
 44
21.04748062721046
 45
-168.3798022700466
 46
168.3798022700466
 79
     0
 53
45.0
 43
57201.05023791679
 44
42.09495591096856
 45
-168.3798022700466
 46
168.3798022700466
 79
     0
 47
4.852272800211545
 98
        2
 10
60428.28646858025
 20
-28187.49510029327
 10
60962.42175242921
 20
-28182.64283004639
  0
HATCH
  5
35AAC
102
{ACAD_REACTORS
330
35ACD
102
}
330
747D
100
AcDbEntity
  8
細線
 48
50.0
100
AcDbHatch
 10
0.0
 20
0.0
 30
0.0
210
0.0
220
0.0
230
1.0
  2
LINE
 70
     0
 71
     0
 91
        1
 92
        7
 72
     0
 73
     1
 93
        4
 10
60074.31540260973
 20
-28334.1036924208
 10
60074.31540260973
 20
-28234.1036924208
 10
59572.19959151005
 20
-28234.1036924208
 10
59572.19959151005
 20
-28334.1036924208
 97
        0
 75
     0
 76
     1
 52
75.0
 41
37.5
 77
     0
 78
     1
 53
75.0
 43
57243.14518848431
 44
0.0000053434559959
 45
-115.0055436925422
 46
30.81564255751887
 79
     0
 47
1.008020268830581
 98
        1
 10
59873.24014849822
 20
-28284.12153628768
  0
LINE
  5
35AAD
102
{ACAD_REACTORS
330
35ACD
102
}
330
747D
100
AcDbEntity
  8
細線
 48
50.0
100
AcDbLine
 10
59778.67193270721
 20
-28259.1036924208
 30
0.0
 11
59771.97320289644
 21
-28234.1036924208
 31
0.0
  0
LINE
  5
35AAE
102
{ACAD_REACTORS
330
35ACD
102
}
330
747D
100
AcDbEntity
  8
細線
 48
50.0
100
AcDbLine
 10
59655.40936247714
 20
-28259.1036924208
 30
0.0
 11
59648.71063266636
 21
-28234.1036924208
 31
0.0
  0
LINE
  5
35AAF
102
{ACAD_REACTORS
330
35ACD
102
}
330
747D
100
AcDbEntity
  8
細線
 48
50.0
100
AcDbLine
 10
59901.93450293729
 20
-28259.1036924208
 30
0.0
 11
59895.23577312652
 21
-28234.1036924208
 31
0.0
  0
LINE
  5
35AB0
102
{ACAD_REACTORS
330
35ACD
102
}
330
747D
100
AcDbEntity
  8
細線
 48
50.0
100
AcDbLine
 10
60025.19707316737
 20
-28259.1036924208
 30
0.0
 11
60018.4983433566
 21
-28234.1036924208
 31
0.0
  0
LINE
  5
35AB1
102
{ACAD_REACTORS
330
35ACD
102
}
330
747D
100
AcDbEntity
  8
細線
 48
50.0
100
AcDbLine
 10
59648.71063266637
 20
-28334.1036924208
 30
0.0
 11
59642.01190285559
 21
-28309.10369242079
 31
0.0
  0
LINE
  5
35AB2
102
{ACAD_REACTORS
330
35ACD
102
}
330
747D
100
AcDbEntity
  8
細線
 48
50.0
100
AcDbLine
 10
59771.97320289644
 20
-28334.1036924208
 30
0.0
 11
59765.27447308566
 21
-28309.10369242079
 31
0.0
  0
LINE
  5
35AB3
102
{ACAD_REACTORS
330
35ACD
102
}
330
747D
100
AcDbEntity
  8
細線
 48
50.0
100
AcDbLine
 10
59895.23577312652
 20
-28334.1036924208
 30
0.0
 11
59888.53704331574
 21
-28309.10369242079
 31
0.0
  0
LINE
  5
35AB4
102
{ACAD_REACTORS
330
35ACD
102
}
330
747D
100
AcDbEntity
  8
細線
 48
50.0
100
AcDbLine
 10
60018.4983433566
 20
-28334.1036924208
 30
0.0
 11
60011.79961354582
 21
-28309.10369242079
 31
0.0
  0
LINE
  5
35AB5
102
{ACAD_REACTORS
330
35ACD
102
}
330
747D
100
AcDbEntity
  8
細線
 48
50.0
100
AcDbLine
 10
60357.47783862899
 20
-28859.1036924208
 30
0.0
 11
60350.77910881822
 21
-28834.1036924208
 31
0.0
  0
LINE
  5
35AB6
102
{ACAD_REACTORS
330
35ACD
102
}
330
747D
100
AcDbEntity
  8
細線
 48
50.0
100
AcDbLine
 10
60234.21526839892
 20
-28859.1036924208
 30
0.0
 11
60227.51653858814
 21
-28834.1036924208
 31
0.0
  0
LINE
  5
35AB7
102
{ACAD_REACTORS
330
35ACD
102
}
330
747D
100
AcDbEntity
  8
細線
 48
50.0
100
AcDbLine
 10
60110.95269816885
 20
-28859.1036924208
 30
0.0
 11
60104.25396835807
 21
-28834.1036924208
 31
0.0
  0
LINE
  5
35AB8
102
{ACAD_REACTORS
330
35ACD
102
}
330
747D
100
AcDbEntity
  8
細線
 48
50.0
100
AcDbLine
 10
60480.74040885907
 20
-28859.10369242081
 30
0.0
 11
60474.04167904829
 21
-28834.1036924208
 31
0.0
  0
LINE
  5
35AB9
102
{ACAD_REACTORS
330
35ACD
102
}
330
747D
100
AcDbEntity
  8
細線
 48
50.0
100
AcDbLine
 10
60604.00297908914
 20
-28859.1036924208
 30
0.0
 11
60597.30424927837
 21
-28834.1036924208
 31
0.0
  0
LINE
  5
35ABA
102
{ACAD_REACTORS
330
35ACD
102
}
330
747D
100
AcDbEntity
  8
細線
 48
50.0
100
AcDbLine
 10
60727.26554931922
 20
-28859.10369242081
 30
0.0
 11
60720.56681950845
 21
-28834.10369242081
 31
0.0
  0
LINE
  5
35ABB
102
{ACAD_REACTORS
330
35ACD
102
}
330
747D
100
AcDbEntity
  8
細線
 48
50.0
100
AcDbLine
 10
60850.5281195493
 20
-28859.1036924208
 30
0.0
 11
60843.82938973852
 21
-28834.1036924208
 31
0.0
  0
LINE
  5
35ABC
102
{ACAD_REACTORS
330
35ACD
102
}
330
747D
100
AcDbEntity
  8
細線
 48
50.0
100
AcDbLine
 10
60973.79068977937
 20
-28859.1036924208
 30
0.0
 11
60967.09195996859
 21
-28834.1036924208
 31
0.0
  0
LINE
  5
35ABD
102
{ACAD_REACTORS
330
35ACD
102
}
330
747D
100
AcDbEntity
  8
細線
 48
50.0
100
AcDbLine
 10
61097.05326000945
 20
-28859.1036924208
 30
0.0
 11
61090.35453019867
 21
-28834.1036924208
 31
0.0
  0
LINE
  5
35ABE
102
{ACAD_REACTORS
330
35ACD
102
}
330
747D
100
AcDbEntity
  8
細線
 48
50.0
100
AcDbLine
 10
61220.31583023952
 20
-28859.1036924208
 30
0.0
 11
61213.61710042874
 21
-28834.1036924208
 31
0.0
  0
LINE
  5
35ABF
102
{ACAD_REACTORS
330
35ACD
102
}
330
747D
100
AcDbEntity
  8
細線
 48
50.0
100
AcDbLine
 10
61213.61710042874
 20
-28934.10369242081
 30
0.0
 11
61206.91837061797
 21
-28909.10369242081
 31
0.0
  0
LINE
  5
35AC0
102
{ACAD_REACTORS
330
35ACD
102
}
330
747D
100
AcDbEntity
  8
細線
 48
50.0
100
AcDbLine
 10
61090.35453019867
 20
-28934.1036924208
 30
0.0
 11
61083.65580038789
 21
-28909.1036924208
 31
0.0
  0
LINE
  5
35AC1
102
{ACAD_REACTORS
330
35ACD
102
}
330
747D
100
AcDbEntity
  8
細線
 48
50.0
100
AcDbLine
 10
60967.0919599686
 20
-28934.1036924208
 30
0.0
 11
60960.39323015782
 21
-28909.1036924208
 31
0.0
  0
LINE
  5
35AC2
102
{ACAD_REACTORS
330
35ACD
102
}
330
747D
100
AcDbEntity
  8
細線
 48
50.0
100
AcDbLine
 10
60843.82938973852
 20
-28934.1036924208
 30
0.0
 11
60837.13065992775
 21
-28909.1036924208
 31
0.0
  0
LINE
  5
35AC3
102
{ACAD_REACTORS
330
35ACD
102
}
330
747D
100
AcDbEntity
  8
細線
 48
50.0
100
AcDbLine
 10
60720.56681950845
 20
-28934.10369242081
 30
0.0
 11
60713.86808969767
 21
-28909.10369242081
 31
0.0
  0
LINE
  5
35AC4
102
{ACAD_REACTORS
330
35ACD
102
}
330
747D
100
AcDbEntity
  8
細線
 48
50.0
100
AcDbLine
 10
60597.30424927837
 20
-28934.1036924208
 30
0.0
 11
60590.60551946759
 21
-28909.1036924208
 31
0.0
  0
LINE
  5
35AC5
102
{ACAD_REACTORS
330
35ACD
102
}
330
747D
100
AcDbEntity
  8
細線
 48
50.0
100
AcDbLine
 10
60474.04167904829
 20
-28934.1036924208
 30
0.0
 11
60467.34294923751
 21
-28909.1036924208
 31
0.0
  0
LINE
  5
35AC6
102
{ACAD_REACTORS
330
35ACD
102
}
330
747D
100
AcDbEntity
  8
細線
 48
50.0
100
AcDbLine
 10
60350.77910881822
 20
-28934.1036924208
 30
0.0
 11
60344.08037900744
 21
-28909.1036924208
 31
0.0
  0
LINE
  5
35AC7
102
{ACAD_REACTORS
330
35ACD
102
}
330
747D
100
AcDbEntity
  8
細線
 48
50.0
100
AcDbLine
 10
60227.51653858815
 20
-28934.1036924208
 30
0.0
 11
60220.81780877736
 21
-28909.1036924208
 31
0.0
  0
LINE
  5
35AC8
102
{ACAD_REACTORS
330
35ACD
102
}
330
747D
100
AcDbEntity
  8
細線
 48
50.0
100
AcDbLine
 10
60104.25396835807
 20
-28934.1036924208
 30
0.0
 11
60097.55523854729
 21
-28909.1036924208
 31
0.0
  0
HATCH
  5
35AC9
102
{ACAD_REACTORS
330
35ACD
102
}
330
747D
100
AcDbEntity
  8
細線
 48
50.0
100
AcDbHatch
 10
0.0
 20
0.0
 30
0.0
210
0.0
220
0.0
230
1.0
  2
LINE
 70
     0
 71
     0
 91
        4
 92
        7
 72
     0
 73
     1
 93
        5
 10
59994.31540260973
 20
-28913.03379162712
 10
59994.31540260973
 20
-28934.10369242081
 10
60380.04408970001
 20
-28934.10369242079
 10
60480.0440897
 20
-28834.1036924208
 10
60061.9278860702
 20
-28834.1036924208
 97
        0
 92
       23
 72
     0
 73
     1
 93
        3
 10
60061.9278860702
 20
-28834.1036924208
 10
59994.31540260973
 20
-28834.1036924208
 10
59994.31540260973
 20
-28913.03379162711
 97
        0
 92
        7
 72
     0
 73
     1
 93
        4
 10
61041.8556419497
 20
-28934.1036924208
 10
60951.29335041459
 20
-28834.1036924208
 10
60480.04408970002
 20
-28834.1036924208
 10
60380.04408970001
 20
-28934.10369242081
 97
        0
 92
        7
 72
     0
 73
     1
 93
        4
 10
61041.8556419497
 20
-28934.1036924208
 10
61254.31540260973
 20
-28934.1036924208
 10
61254.31540260973
 20
-28834.1036924208
 10
60951.29335041458
 20
-28834.1036924208
 97
        0
 75
     0
 76
     1
 52
75.0
 41
37.5
 77
     0
 78
     1
 53
75.0
 43
57243.14518848431
 44
0.0000053434559959
 45
-115.0055436925422
 46
30.81564255751887
 79
     0
 47
3.330068210733803
 98
        4
 10
60034.50424529718
 20
-28895.20737496166
 10
60017.84187159571
 20
-28855.24655394584
 10
60577.69717681405
 20
-28885.21717473976
 10
61054.24068513632
 20
-28888.5472481898
  0
HATCH
  5
35ACA
102
{ACAD_REACTORS
330
35ACD
102
}
330
747D
100
AcDbEntity
  8
細線
 48
50.0
100
AcDbHatch
 10
0.0
 20
0.0
 30
0.0
210
0.0
220
0.0
230
1.0
  2
PLAST
 70
     0
 71
     0
 91
        5
 92
        7
 72
     0
 73
     1
 93
        4
 10
60480.04408970002
 20
-28834.1036924208
 10
60530.04408970002
 20
-28784.1036924208
 10
60104.75849450753
 20
-28784.10369242081
 10
60061.92788607021
 20
-28834.1036924208
 97
        0
 92
        7
 72
     0
 73
     1
 93
        4
 10
60061.92788607021
 20
-28834.1036924208
 10
60104.75849450752
 20
-28784.10369242081
 10
59994.31540260973
 20
-28784.1036924208
 10
59994.31540260973
 20
-28834.1036924208
 97
        0
 92
        7
 72
     0
 73
     1
 93
        5
 10
60874.31540260973
 20
-28834.1036924208
 10
60874.31540260973
 20
-28784.1036924208
 10
60829.76540260973
 20
-28784.1036924208
 10
60530.04408970002
 20
-28784.1036924208
 10
60480.04408970001
 20
-28834.1036924208
 97
        0
 92
        7
 72
     0
 73
     1
 93
        4
 10
60874.31540260973
 20
-28834.1036924208
 10
60951.29335041458
 20
-28834.1036924208
 10
60906.01220464702
 20
-28784.1036924208
 10
60874.31540260973
 20
-28784.1036924208
 97
        0
 92
        7
 72
     0
 73
     1
 93
        4
 10
60906.01220464703
 20
-28784.10369242081
 10
60951.29335041458
 20
-28834.1036924208
 10
61254.31540260973
 20
-28834.1036924208
 10
61254.31540260973
 20
-28784.1036924208
 97
        0
 75
     0
 76
     1
 52
45.0
 41
37.5
 77
     0
 78
     3
 53
45.0
 43
57243.14518848431
 44
0.0000053434559959
 45
-168.3798022700466
 46
168.3798022700466
 79
     0
 53
45.0
 43
57222.09771320055
 44
21.04748062721046
 45
-168.3798022700466
 46
168.3798022700466
 79
     0
 53
45.0
 43
57201.05023791679
 44
42.09495591096856
 45
-168.3798022700466
 46
168.3798022700466
 79
     0
 47
2.357055197808914
 98
        5
 10
60290.96790098063
 20
-28810.89604948361
 10
60038.58093329553
 20
-28810.89604948361
 10
60585.8124914056
 20
-28813.25310454878
 10
60892.45085398976
 20
-28810.89604948361
 10
60977.3660994695
 20
-28806.18193935327
  0
HATCH
  5
35ACB
102
{ACAD_REACTORS
330
35ACD
102
}
330
747D
100
AcDbEntity
  8
細線
 48
50.0
100
AcDbHatch
 10
0.0
 20
0.0
 30
0.0
210
0.0
220
0.0
230
1.0
  2
PLAST
 70
     0
 71
     0
 91
       13
 92
        7
 72
     1
 73
     1
 93
       48
 10
60669.31540260973
 20
-28489.1036924208
 42
0.0
 10
60674.31540260974
 20
-28489.1036924208
 42
0.0
 10
60674.31540260974
 20
-28399.10369242081
 42
0.0
 10
60669.31540260973
 20
-28399.1036924208
 42
-0.4142135623726688
 10
60664.31540260973
 20
-28394.1036924208
 42
-0.4142135623730951
 10
60669.31540260973
 20
-28389.1036924208
 42
0.0
 10
60674.31540260974
 20
-28389.10369242081
 42
0.0
 10
60674.31540260974
 20
-28299.10369242081
 42
0.0
 10
60669.31540260973
 20
-28299.1036924208
 42
-0.4142135623726688
 10
60664.31540260973
 20
-28294.1036924208
 42
-0.4142135623730951
 10
60669.31540260973
 20
-28289.1036924208
 42
0.0
 10
60829.76540260975
 20
-28289.1036924208
 42
0.0
 10
60829.76540260975
 20
-28234.1036924208
 42
0.0
 10
60074.31540260973
 20
-28234.10369242081
 42
0.0
 10
60074.31540260973
 20
-28784.10369242081
 42
0.0
 10
60104.75849450752
 20
-28784.1036924208
 42
0.0
 10
60160.43828547605
 20
-28719.1036924208
 42
0.0
 10
60158.56540260974
 20
-28719.10369242081
 42
0.0
 10
60158.56540260974
 20
-28709.1036924208
 42
0.0
 10
60169.00440716351
 20
-28709.1036924208
 42
0.0
 10
60170.50961542038
 20
-28707.34652819668
 42
-0.1782786565742627
 10
60169.31540260973
 20
-28704.1036924208
 42
-1.0
 10
60179.31540260973
 20
-28704.1036924208
 42
-0.4142135623730951
 10
60174.31540260973
 20
-28709.1036924208
 42
0.0
 10
60374.31540260973
 20
-28709.1036924208
 42
-0.4142135623735213
 10
60369.31540260973
 20
-28704.1036924208
 42
-1.0
 10
60379.31540260973
 20
-28704.1036924208
 42
-0.4142135623735213
 10
60374.31540260973
 20
-28709.1036924208
 42
0.0
 10
60574.31540260973
 20
-28709.1036924208
 42
-0.4142135623735213
 10
60569.31540260973
 20
-28704.1036924208
 42
-1.0
 10
60579.31540260973
 20
-28704.1036924208
 42
-0.4142135623735213
 10
60574.31540260973
 20
-28709.1036924208
 42
0.0
 10
60605.04408970002
 20
-28709.10369242081
 42
0.0
 10
60642.04408970002
 20
-28672.1036924208
 42
0.0
 10
60498.86540260973
 20
-28672.1036924208
 42
0.0
 10
60498.86540260974
 20
-28659.1036924208
 42
0.0
 10
60644.31540260975
 20
-28659.1036924208
 42
0.1260483184578579
 10
60658.7389118721
 20
-28655.40887024872
 42
0.0
 10
60670.62058043767
 20
-28643.52720168316
 42
0.1260483184578396
 10
60674.31540260974
 20
-28629.1036924208
 42
0.0
 10
60674.31540260974
 20
-28599.1036924208
 42
0.0
 10
60669.31540260973
 20
-28599.1036924208
 42
-0.4142135623730951
 10
60664.31540260973
 20
-28594.1036924208
 42
-0.4142135623730951
 10
60669.31540260973
 20
-28589.1036924208
 42
0.0
 10
60674.31540260974
 20
-28589.10369242081
 42
0.0
 10
60674.31540260974
 20
-28499.1036924208
 42
0.0
 10
60669.31540260974
 20
-28499.1036924208
 42
-0.4142135623733081
 10
60664.31540260973
 20
-28494.1036924208
 42
-0.4142135623730951
 97
        0
 92
       22
 72
     0
 73
     1
 93
        4
 10
60160.43828547605
 20
-28719.1036924208
 10
60104.75849450753
 20
-28784.10369242081
 10
60530.04408970002
 20
-28784.10369242081
 10
60595.04408970003
 20
-28719.1036924208
 97
        0
 92
        7
 72
     0
 73
     1
 93
        8
 10
60595.04408970003
 20
-28719.1036924208
 10
60530.04408970002
 20
-28784.10369242081
 10
60829.76540260975
 20
-28784.10369242081
 10
60829.76540260975
 20
-28754.1036924208
 10
60774.31540260973
 20
-28754.1036924208
 10
60774.31540260974
 20
-28744.1036924208
 10
60829.76540260975
 20
-28744.10369242081
 10
60829.76540260975
 20
-28719.1036924208
 97
        0
 92
        7
 72
     1
 73
     1
 93
       29
 10
61174.31540260973
 20
-28784.10369242081
 42
0.0
 10
61174.31540260973
 20
-28501.83871933976
 42
0.0
 10
61074.31540260974
 20
-28444.10369242081
 42
0.0
 10
61074.31540260974
 20
-28489.1036924208
 42
0.0
 10
61079.31540260973
 20
-28489.1036924208
 42
-0.4142135623730951
 10
61084.31540260973
 20
-28494.1036924208
 42
-0.4142135623726688
 10
61079.31540260973
 20
-28499.10369242079
 42
0.0
 10
61074.31540260974
 20
-28499.10369242079
 42
0.0
 10
61074.31540260974
 20
-28589.10369242081
 42
0.0
 10
61079.31540260973
 20
-28589.1036924208
 42
-0.4142135623733081
 10
61084.31540260973
 20
-28594.1036924208
 42
-0.4142135623726688
 10
61079.31540260973
 20
-28599.1036924208
 42
0.0
 10
61074.31540260974
 20
-28599.1036924208
 42
0.0
 10
61074.31540260974
 20
-28629.1036924208
 42
-0.4142135623730951
 10
61031.31540260974
 20
-28672.1036924208
 42
0.0
 10
60918.86540260973
 20
-28672.1036924208
 42
0.0
 10
60918.86540260973
 20
-28709.1036924208
 42
0.0
 10
60974.31540260974
 20
-28709.1036924208
 42
-0.4142135623735213
 10
60969.31540260973
 20
-28704.1036924208
 42
-1.0
 10
60979.31540260973
 20
-28704.1036924208
 42
-0.4142135623735213
 10
60974.31540260974
 20
-28709.1036924208
 42
0.0
 10
60990.03495104765
 20
-28709.1036924208
 42
0.0
 10
60990.03495104765
 20
-28719.1036924208
 42
0.0
 10
60918.86540260974
 20
-28719.10369242081
 42
0.0
 10
60918.86540260973
 20
-28744.1036924208
 42
0.0
 10
60974.31540260974
 20
-28744.1036924208
 42
0.0
 10
60974.31540260974
 20
-28754.1036924208
 42
0.0
 10
60918.86540260973
 20
-28754.1036924208
 42
0.0
 10
60918.86540260973
 20
-28784.10369242081
 42
0.0
 97
        0
 92
        7
 72
     1
 73
     1
 93
       14
 10
61074.31540260974
 20
-28389.10369242081
 42
0.0
 10
61079.31540260973
 20
-28389.1036924208
 42
-0.4142135623733081
 10
61084.31540260973
 20
-28394.1036924208
 42
-0.4142135623726688
 10
61079.31540260973
 20
-28399.1036924208
 42
0.0
 10
61074.31540260974
 20
-28399.1036924208
 42
0.0
 10
61074.31540260974
 20
-28444.1036924208
 42
0.0
 10
61174.31540260973
 20
-28501.83871933976
 42
0.0
 10
61174.31540260973
 20
-28234.1036924208
 42
0.0
 10
60918.86540260974
 20
-28234.1036924208
 42
0.0
 10
60918.86540260974
 20
-28289.1036924208
 42
0.0
 10
61079.31540260973
 20
-28289.1036924208
 42
-0.4142135623730951
 10
61084.31540260973
 20
-28294.1036924208
 42
-0.4142135623726688
 10
61079.31540260973
 20
-28299.1036924208
 42
0.0
 10
61074.31540260974
 20
-28299.1036924208
 42
0.0
 97
        0
 92
        7
 72
     0
 73
     1
 93
        4
 10
61061.31540260974
 20
-28389.1036924208
 10
61061.31540260975
 20
-28299.1036924208
 10
60918.86540260973
 20
-28299.1036924208
 10
60918.86540260974
 20
-28389.10369242081
 97
        0
 92
        7
 72
     0
 73
     1
 93
        4
 10
60829.76540260975
 20
-28299.1036924208
 10
60687.31540260975
 20
-28299.10369242081
 10
60687.31540260975
 20
-28389.10369242081
 10
60829.76540260975
 20
-28389.10369242081
 97
        0
 92
       22
 72
     0
 73
     1
 93
        4
 10
60687.31540260975
 20
-28399.1036924208
 10
60687.31540260975
 20
-28489.1036924208
 10
60829.76540260975
 20
-28489.1036924208
 10
60829.76540260974
 20
-28399.1036924208
 97
        0
 92
        7
 72
     0
 73
     1
 93
        4
 10
60918.86540260974
 20
-28399.1036924208
 10
60918.86540260973
 20
-28489.1036924208
 10
61061.31540260975
 20
-28489.1036924208
 10
61061.31540260975
 20
-28399.1036924208
 97
        0
 92
       22
 72
     0
 73
     1
 93
        4
 10
60918.86540260973
 20
-28499.10369242079
 10
60918.86540260973
 20
-28589.1036924208
 10
61061.31540260975
 20
-28589.1036924208
 10
61061.31540260974
 20
-28499.10369242079
 97
        0
 92
       22
 72
     0
 73
     1
 93
        4
 10
60829.76540260974
 20
-28589.10369242081
 10
60829.76540260975
 20
-28499.1036924208
 10
60687.31540260974
 20
-28499.1036924208
 10
60687.31540260975
 20
-28589.10369242081
 97
        0
 92
        7
 72
     1
 73
     1
 93
       12
 10
60779.31540260973
 20
-28704.1036924208
 42
-0.4142135623735213
 10
60774.31540260973
 20
-28709.1036924208
 42
0.0
 10
60829.76540260975
 20
-28709.10369242081
 42
0.0
 10
60829.76540260975
 20
-28599.1036924208
 42
0.0
 10
60715.04408970003
 20
-28599.1036924208
 42
0.0
 10
60687.31540260975
 20
-28626.83237951109
 42
0.0
 10
60687.31540260975
 20
-28629.1036924208
 42
-0.4142135623730951
 10
60644.31540260975
 20
-28672.1036924208
 42
0.0
 10
60642.04408970002
 20
-28672.1036924208
 42
0.0
 10
60605.04408970003
 20
-28709.1036924208
 42
0.0
 10
60774.31540260973
 20
-28709.1036924208
 42
-0.4142135623733081
 10
60769.31540260973
 20
-28704.1036924208
 42
-1.0
 97
        0
 92
       23
 72
     1
 73
     1
 93
        5
 10
61031.31540260974
 20
-28659.1036924208
 42
0.4142135623730951
 10
61061.31540260975
 20
-28629.1036924208
 42
0.0
 10
61061.31540260975
 20
-28599.1036924208
 42
0.0
 10
60918.86540260973
 20
-28599.1036924208
 42
0.0
 10
60918.86540260974
 20
-28659.1036924208
 42
0.0
 97
        0
 75
     0
 76
     1
 52
135.0
 41
37.5
 77
     0
 78
     3
 53
135.0
 43
57243.14518848431
 44
0.0000053434559959
 45
-168.3798022700466
 46
-168.3798022700466
 79
     0
 53
135.0
 43
57222.09771320055
 44
-21.04746994029847
 45
-168.3798022700466
 46
-168.3798022700466
 79
     0
 53
135.0
 43
57201.05023791679
 44
-42.09494522405657
 45
-168.3798022700466
 46
-168.3798022700466
 79
     0
 47
1.320005191315548
 98
       13
 10
60486.29452058485
 20
-28480.80675322308
 10
60430.81427580434
 20
-28746.12779856763
 10
60672.54959992929
 20
-28750.08782498495
 10
61083.3675424183
 20
-28739.52777466699
 10
61099.21906138738
 20
-28362.00628275498
 10
61008.0729526349
 20
-28344.84620853637
 10
60816.5340336341
 20
-28347.48622614791
 10
60783.51008949032
 20
-28439.8865808852
 10
60960.51846733892
 20
-28437.24658340187
 10
60969.76516883474
 20
-28532.2869557507
 10
60786.15200931849
 20
-28552.08702745265
 10
60755.76994919723
 20
-28668.24750043742
 10
60960.51846733892
 20
-28633.92735200018
  0
TEXT
  5
35AFF
330
747D
100
AcDbEntity
  8
寸法
 62
     7
100
AcDbText
 10
51934.51244207118
 20
-27766.82007439755
 30
0.0
 40
90.0
  1
A'
  7
STYLE1
100
AcDbText
  0
LINE
  5
35B00
330
747D
100
AcDbEntity
  8
寸法
 48
50.0
100
AcDbLine
 10
52298.14792223365
 20
-27738.75460159578
 30
0.0
 11
52044.01409148473
 21
-27738.75460159578
 31
0.0
  0
LINE
  5
35B01
330
747D
100
AcDbEntity
  8
寸法
 48
50.0
100
AcDbLine
 10
52151.74746206771
 20
-27709.88753195019
 30
0.0
 11
52151.74746206771
 21
-27775.82215087174
 31
0.0
  0
LINE
  5
35B02
330
747D
100
AcDbEntity
  8
寸法
 48
50.0
100
AcDbLine
 10
52044.01409148473
 20
-27738.75460159578
 30
0.0
 11
52151.74746206771
 21
-27709.88753195019
 31
0.0
  0
TEXT
  5
35B03
330
747D
100
AcDbEntity
  8
寸法
 62
     7
100
AcDbText
 10
51933.25381321248
 20
-29038.77972956395
 30
0.0
 40
90.0
  1
A
  7
STYLE1
100
AcDbText
  0
LINE
  5
35B04
330
747D
100
AcDbEntity
  8
寸法
 48
50.0
100
AcDbLine
 10
52151.74746206771
 20
-29025.41959620163
 30
0.0
 11
52151.74746206771
 21
-28959.48497728007
 31
0.0
  0
LINE
  5
35B05
330
747D
100
AcDbEntity
  8
寸法
 48
50.0
100
AcDbLine
 10
52044.01409148473
 20
-28996.55252655603
 30
0.0
 11
52151.74746206771
 21
-29025.41959620163
 31
0.0
  0
LINE
  5
35B06
330
747D
100
AcDbEntity
  8
寸法
 48
50.0
100
AcDbLine
 10
52298.14792223365
 20
-28996.55252655603
 30
0.0
 11
52044.01409148473
 21
-28996.55252655603
 31
0.0
  0
DIMENSION
  5
35B11
330
747D
100
AcDbEntity
  8
寸法
 48
50.0
100
AcDbDimension
  2
*D29
 10
51557.27608552242
 20
-27817.65356407591
 30
0.0
 11
51557.27608552242
 21
-27640.03602097884
 31
0.0
 70
   160
 71
     5
 42
99.99999999998545
  3
INABA_S30G
100
AcDbAlignedDimension
 13
51898.14792223364
 23
-27917.6535640759
 33
0.0
 14
51898.14792223365
 24
-27817.65356407591
 34
0.0
 50
90.0
100
AcDbRotatedDimension
  0
ENDSEC
  0
SECTION
  2
OBJECTS
  0
DICTIONARY
  5
7471
330
0
100
AcDbDictionary
281
     1
  3
ACAD_COLOR
350
11754
  3
ACAD_GROUP
350
7472
  3
ACAD_LAYOUT
350
11755
  3
ACAD_MATERIAL
350
11753
  3
ACAD_MLINESTYLE
350
7473
  3
ACAD_PLOTSETTINGS
350
11756
  3
ACAD_PLOTSTYLENAME
350
11751
  3
ACDBHEADERROUNDTRIPXREC
350
35B53
  3
AcDbVariableDictionary
350
35B4F
  3
CONTENTDICTIONARY
350
E71C
  3
DRAWINGVARIABLESDICT
350
F3B9
  0
DICTIONARY
  5
11827
330
7467
100
AcDbDictionary
280
     1
281
     1
  3
ACAD_LAYERFILTERS
360
135F4
  3
ACAD_LAYERSTATES
360
11828
  0
DICTIONARY
  5
11754
102
{ACAD_REACTORS
330
7471
102
}
330
7471
100
AcDbDictionary
281
     1
  0
DICTIONARY
  5
7472
102
{ACAD_REACTORS
330
7471
102
}
330
7471
100
AcDbDictionary
281
     1
  3
*A1
350
154E2
  3
*A10
350
32962
  3
*A100
350
27417
  3
*A101
350
33735
  3
*A102
350
32DE0
  3
*A103
350
35538
  3
*A104
350
33319
  3
*A105
350
35539
  3
*A106
350
3553A
  3
*A107
350
3553B
  3
*A108
350
3372A
  3
*A109
350
3553C
  3
*A11
350
32DE9
  3
*A110
350
33312
  3
*A111
350
3553D
  3
*A112
350
344A2
  3
*A113
350
33736
  3
*A114
350
35074
  3
*A115
350
3553E
  3
*A116
350
3553F
  3
*A117
350
3449F
  3
*A118
350
3331D
  3
*A119
350
32DE1
  3
*A12
350
33313
  3
*A120
350
33AFF
  3
*A121
350
3331B
  3
*A122
350
35540
  3
*A123
350
32DE4
  3
*A124
350
3506B
  3
*A125
350
35541
  3
*A126
350
35542
  3
*A127
350
33AFB
  3
*A128
350
35543
  3
*A129
350
329A5
  3
*A13
350
33B8F
  3
*A130
350
35544
  3
*A131
350
35545
  3
*A132
350
32678
  3
*A133
350
35546
  3
*A134
350
3594C
  3
*A135
350
3506F
  3
*A136
350
3594D
  3
*A137
350
3594E
  3
*A138
350
3594F
  3
*A139
350
33B8D
  3
*A14
350
3296C
  3
*A140
350
32673
  3
*A141
350
344A0
  3
*A142
350
35547
  3
*A143
350
35950
  3
*A144
350
3267A
  3
*A145
350
35951
  3
*A146
350
290DD
  3
*A147
350
3506D
  3
*A148
350
35952
  3
*A149
350
33AFC
  3
*A15
350
3296D
  3
*A150
350
35953
  3
*A151
350
35954
  3
*A152
350
35955
  3
*A153
350
344A1
  3
*A154
350
32071
  3
*A155
350
3372B
  3
*A156
350
33B5F
  3
*A157
350
344A3
  3
*A158
350
35956
  3
*A159
350
33B8E
  3
*A16
350
275D5
  3
*A160
350
3372C
  3
*A161
350
3372D
  3
*A162
350
32DEF
  3
*A163
350
3267B
  3
*A164
350
2925F
  3
*A165
350
32DF0
  3
*A166
350
33737
  3
*A167
350
33738
  3
*A168
350
35072
  3
*A169
350
33310
  3
*A17
350
344A7
  3
*A170
350
3506E
  3
*A171
350
33739
  3
*A172
350
3373A
  3
*A173
350
24FDC
  3
*A174
350
24FE6
  3
*A175
350
33729
  3
*A176
350
2925B
  3
*A177
350
3373B
  3
*A178
350
3373C
  3
*A179
350
3373D
  3
*A18
350
32679
  3
*A180
350
33B90
  3
*A181
350
32072
  3
*A182
350
33B91
  3
*A183
350
15535
  3
*A184
350
33B92
  3
*A185
350
27401
  3
*A186
350
275D4
  3
*A187
350
33AF6
  3
*A188
350
344A4
  3
*A189
350
35078
  3
*A19
350
3297C
  3
*A190
350
35942
  3
*A191
350
33B93
  3
*A192
350
3372E
  3
*A193
350
33B94
  3
*A194
350
33B95
  3
*A195
350
32DF3
  3
*A196
350
32073
  3
*A197
350
33B96
  3
*A198
350
32677
  3
*A199
350
272B4
  3
*A2
350
33731
  3
*A20
350
3299D
  3
*A200
350
344A5
  3
*A201
350
273ED
  3
*A202
350
273F2
  3
*A203
350
3372F
  3
*A204
350
2925A
  3
*A205
350
35943
  3
*A206
350
32DE5
  3
*A207
350
3267C
  3
*A208
350
273F7
  3
*A209
350
35946
  3
*A21
350
33AF7
  3
*A210
350
2925C
  3
*A211
350
30D61
  3
*A212
350
32DE2
  3
*A213
350
30D65
  3
*A214
350
35548
  3
*A215
350
275D7
  3
*A216
350
3206A
  3
*A217
350
35073
  3
*A218
350
32DF4
  3
*A219
350
32074
  3
*A22
350
33AFA
  3
*A220
350
32075
  3
*A221
350
2926A
  3
*A222
350
32076
  3
*A223
350
32DE7
  3
*A224
350
3506C
  3
*A225
350
33730
  3
*A226
350
3206B
  3
*A227
350
27412
  3
*A228
350
3331C
  3
*A229
350
273FC
  3
*A23
350
35076
  3
*A230
350
33AF8
  3
*A231
350
32077
  3
*A232
350
32DE3
  3
*A233
350
3266F
  3
*A234
350
32670
  3
*A235
350
290EE
  3
*A236
350
2926B
  3
*A237
350
33AFE
  3
*A238
350
29246
  3
*A239
350
32DE6
  3
*A24
350
33732
  3
*A240
350
29247
  3
*A241
350
32DE8
  3
*A242
350
3293D
  3
*A243
350
32947
  3
*A244
350
32671
  3
*A245
350
35075
  3
*A246
350
35947
  3
*A25
350
32672
  3
*A26
350
3299E
  3
*A27
350
3299F
  3
*A28
350
272AF
  3
*A29
350
275D8
  3
*A3
350
33AF9
  3
*A30
350
329A0
  3
*A31
350
329A1
  3
*A32
350
35070
  3
*A33
350
2925E
  3
*A34
350
2740E
  3
*A35
350
3507B
  3
*A36
350
329A2
  3
*A37
350
33314
  3
*A38
350
329A3
  3
*A39
350
35ACD
  3
*A4
350
344A6
  3
*A40
350
32DEA
  3
*A41
350
32676
  3
*A42
350
32DEB
  3
*A43
350
32DEC
  3
*A44
350
32DED
  3
*A45
350
35079
  3
*A46
350
33733
  3
*A47
350
32DF2
  3
*A48
350
3206D
  3
*A49
350
329A4
  3
*A5
350
32951
  3
*A50
350
32DEE
  3
*A51
350
33316
  3
*A52
350
33317
  3
*A53
350
344A8
  3
*A54
350
32674
  3
*A55
350
33318
  3
*A56
350
35071
  3
*A57
350
33734
  3
*A58
350
3408E
  3
*A59
350
34497
  3
*A6
350
32956
  3
*A60
350
34498
  3
*A61
350
3206E
  3
*A62
350
35948
  3
*A63
350
34499
  3
*A64
350
35077
  3
*A65
350
3206F
  3
*A66
350
3449A
  3
*A67
350
3507A
  3
*A68
350
35944
  3
*A69
350
3449B
  3
*A7
350
3206C
  3
*A70
350
3449C
  3
*A71
350
3449D
  3
*A72
350
3449E
  3
*A73
350
33AFD
  3
*A74
350
29263
  3
*A75
350
3331A
  3
*A76
350
344A9
  3
*A77
350
27416
  3
*A78
350
3594A
  3
*A79
350
32DF1
  3
*A8
350
2925D
  3
*A80
350
32675
  3
*A81
350
344AA
  3
*A82
350
344AB
  3
*A83
350
33311
  3
*A84
350
344AC
  3
*A85
350
329A6
  3
*A86
350
35945
  3
*A87
350
35067
  3
*A88
350
35068
  3
*A89
350
35069
  3
*A9
350
3295B
  3
*A90
350
33315
  3
*A91
350
35534
  3
*A92
350
35949
  3
*A93
350
35535
  3
*A94
350
3594B
  3
*A95
350
275D6
  3
*A96
350
35536
  3
*A97
350
35537
  3
*A98
350
3506A
  3
*A99
350
32070
  0
DICTIONARY
  5
11755
102
{ACAD_REACTORS
330
7471
102
}
330
7471
100
AcDbDictionary
281
     1
  3
Model
350
11757
  3
レイアウト1
350
11758
  0
DICTIONARY
  5
11753
102
{ACAD_REACTORS
330
7471
102
}
330
7471
100
AcDbDictionary
281
     1
  0
DICTIONARY
  5
7473
102
{ACAD_REACTORS
330
7471
102
}
330
7471
100
AcDbDictionary
281
     1
  3
STANDARD
350
7480
  0
DICTIONARY
  5
11756
102
{ACAD_REACTORS
330
7471
102
}
330
7471
100
AcDbDictionary
281
     1
  0
ACDBDICTIONARYWDFLT
  5
11751
102
{ACAD_REACTORS
330
7471
102
}
330
7471
100
AcDbDictionary
281
     1
  3
Normal
350
11752
100
AcDbDictionaryWithDefault
340
11752
  0
DICTIONARY
  5
35B53
102
{ACAD_REACTORS
330
7471
102
}
330
7471
100
AcDbDictionary
281
     1
  3
COLORDICT
350
35B55
  3
MATERIALDICT
350
35B54
  0
DICTIONARY
  5
35B4F
102
{ACAD_REACTORS
330
7471
102
}
330
7471
100
AcDbDictionary
281
     1
  3
DIMASSOC
350
35B50
  3
PROJECTNAME
350
35B51
  0
DICTIONARY
  5
E71C
102
{ACAD_REACTORS
330
7471
102
}
330
7471
100
AcDbDictionary
281
     1
  0
DICTIONARY
  5
F3B9
102
{ACAD_REACTORS
330
7471
102
}
330
7471
100
AcDbDictionary
281
     1
1001
DRAWINGVARIABLESXDATA
1000
POLARMODE
1000
1
  0
DICTIONARY
  5
135F4
102
{ACAD_REACTORS
330
11827
102
}
330
11827
100
AcDbDictionary
281
     1
  0
DICTIONARY
  5
11828
102
{ACAD_REACTORS
330
11827
102
}
330
11827
100
AcDbDictionary
281
     1
  0
GROUP
  5
154E2
102
{ACAD_REACTORS
330
7472
102
}
330
7472
100
AcDbGroup
300

 70
     1
 71
     1
  0
GROUP
  5
32962
102
{ACAD_REACTORS
330
7472
102
}
330
7472
100
AcDbGroup
300

 70
     1
 71
     1
  0
GROUP
  5
27417
102
{ACAD_REACTORS
330
7472
102
}
330
7472
100
AcDbGroup
300

 70
     1
 71
     1
  0
GROUP
  5
33735
102
{ACAD_REACTORS
330
7472
102
}
330
7472
100
AcDbGroup
300

 70
     1
 71
     1
  0
GROUP
  5
32DE0
102
{ACAD_REACTORS
330
7472
102
}
330
7472
100
AcDbGroup
300

 70
     1
 71
     1
  0
GROUP
  5
35538
102
{ACAD_REACTORS
330
7472
102
}
330
7472
100
AcDbGroup
300

 70
     1
 71
     1
  0
GROUP
  5
33319
102
{ACAD_REACTORS
330
7472
102
}
330
7472
100
AcDbGroup
300

 70
     1
 71
     1
  0
GROUP
  5
35539
102
{ACAD_REACTORS
330
7472
102
}
330
7472
100
AcDbGroup
300

 70
     1
 71
     1
  0
GROUP
  5
3553A
102
{ACAD_REACTORS
330
7472
102
}
330
7472
100
AcDbGroup
300

 70
     1
 71
     1
  0
GROUP
  5
3553B
102
{ACAD_REACTORS
330
7472
102
}
330
7472
100
AcDbGroup
300

 70
     1
 71
     1
  0
GROUP
  5
3372A
102
{ACAD_REACTORS
330
7472
102
}
330
7472
100
AcDbGroup
300

 70
     1
 71
     1
  0
GROUP
  5
3553C
102
{ACAD_REACTORS
330
7472
102
}
330
7472
100
AcDbGroup
300

 70
     1
 71
     1
  0
GROUP
  5
32DE9
102
{ACAD_REACTORS
330
7472
102
}
330
7472
100
AcDbGroup
300

 70
     1
 71
     1
  0
GROUP
  5
33312
102
{ACAD_REACTORS
330
7472
102
}
330
7472
100
AcDbGroup
300

 70
     1
 71
     1
  0
GROUP
  5
3553D
102
{ACAD_REACTORS
330
7472
102
}
330
7472
100
AcDbGroup
300

 70
     1
 71
     1
  0
GROUP
  5
344A2
102
{ACAD_REACTORS
330
7472
102
}
330
7472
100
AcDbGroup
300

 70
     1
 71
     1
  0
GROUP
  5
33736
102
{ACAD_REACTORS
330
7472
102
}
330
7472
100
AcDbGroup
300

 70
     1
 71
     1
  0
GROUP
  5
35074
102
{ACAD_REACTORS
330
7472
102
}
330
7472
100
AcDbGroup
300

 70
     1
 71
     1
340
34C93
340
34C92
340
34C94
  0
GROUP
  5
3553E
102
{ACAD_REACTORS
330
7472
102
}
330
7472
100
AcDbGroup
300

 70
     1
 71
     1
  0
GROUP
  5
3553F
102
{ACAD_REACTORS
330
7472
102
}
330
7472
100
AcDbGroup
300

 70
     1
 71
     1
  0
GROUP
  5
3449F
102
{ACAD_REACTORS
330
7472
102
}
330
7472
100
AcDbGroup
300

 70
     1
 71
     1
  0
GROUP
  5
3331D
102
{ACAD_REACTORS
330
7472
102
}
330
7472
100
AcDbGroup
300

 70
     1
 71
     1
  0
GROUP
  5
32DE1
102
{ACAD_REACTORS
330
7472
102
}
330
7472
100
AcDbGroup
300

 70
     1
 71
     1
  0
GROUP
  5
33313
102
{ACAD_REACTORS
330
7472
102
}
330
7472
100
AcDbGroup
300

 70
     1
 71
     1
  0
GROUP
  5
33AFF
102
{ACAD_REACTORS
330
7472
102
}
330
7472
100
AcDbGroup
300

 70
     1
 71
     1
  0
GROUP
  5
3331B
102
{ACAD_REACTORS
330
7472
102
}
330
7472
100
AcDbGroup
300

 70
     1
 71
     1
  0
GROUP
  5
35540
102
{ACAD_REACTORS
330
7472
102
}
330
7472
100
AcDbGroup
300

 70
     1
 71
     1
  0
GROUP
  5
32DE4
102
{ACAD_REACTORS
330
7472
102
}
330
7472
100
AcDbGroup
300

 70
     1
 71
     1
  0
GROUP
  5
3506B
102
{ACAD_REACTORS
330
7472
102
}
330
7472
100
AcDbGroup
300

 70
     1
 71
     1
  0
GROUP
  5
35541
102
{ACAD_REACTORS
330
7472
102
}
330
7472
100
AcDbGroup
300

 70
     1
 71
     1
  0
GROUP
  5
35542
102
{ACAD_REACTORS
330
7472
102
}
330
7472
100
AcDbGroup
300

 70
     1
 71
     1
  0
GROUP
  5
33AFB
102
{ACAD_REACTORS
330
7472
102
}
330
7472
100
AcDbGroup
300

 70
     1
 71
     1
  0
GROUP
  5
35543
102
{ACAD_REACTORS
330
7472
102
}
330
7472
100
AcDbGroup
300

 70
     1
 71
     1
  0
GROUP
  5
329A5
102
{ACAD_REACTORS
330
7472
102
}
330
7472
100
AcDbGroup
300

 70
     1
 71
     1
  0
GROUP
  5
33B8F
102
{ACAD_REACTORS
330
7472
102
}
330
7472
100
AcDbGroup
300

 70
     1
 71
     1
  0
GROUP
  5
35544
102
{ACAD_REACTORS
330
7472
102
}
330
7472
100
AcDbGroup
300

 70
     1
 71
     1
  0
GROUP
  5
35545
102
{ACAD_REACTORS
330
7472
102
}
330
7472
100
AcDbGroup
300

 70
     1
 71
     1
  0
GROUP
  5
32678
102
{ACAD_REACTORS
330
7472
102
}
330
7472
100
AcDbGroup
300

 70
     1
 71
     1
  0
GROUP
  5
35546
102
{ACAD_REACTORS
330
7472
102
}
330
7472
100
AcDbGroup
300

 70
     1
 71
     1
  0
GROUP
  5
3594C
102
{ACAD_REACTORS
330
7472
102
}
330
7472
100
AcDbGroup
300

 70
     1
 71
     1
  0
GROUP
  5
3506F
102
{ACAD_REACTORS
330
7472
102
}
330
7472
100
AcDbGroup
300

 70
     1
 71
     1
  0
GROUP
  5
3594D
102
{ACAD_REACTORS
330
7472
102
}
330
7472
100
AcDbGroup
300

 70
     1
 71
     1
  0
GROUP
  5
3594E
102
{ACAD_REACTORS
330
7472
102
}
330
7472
100
AcDbGroup
300

 70
     1
 71
     1
  0
GROUP
  5
3594F
102
{ACAD_REACTORS
330
7472
102
}
330
7472
100
AcDbGroup
300

 70
     1
 71
     1
  0
GROUP
  5
33B8D
102
{ACAD_REACTORS
330
7472
102
}
330
7472
100
AcDbGroup
300

 70
     1
 71
     1
  0
GROUP
  5
3296C
102
{ACAD_REACTORS
330
7472
102
}
330
7472
100
AcDbGroup
300

 70
     1
 71
     1
  0
GROUP
  5
32673
102
{ACAD_REACTORS
330
7472
102
}
330
7472
100
AcDbGroup
300

 70
     1
 71
     1
  0
GROUP
  5
344A0
102
{ACAD_REACTORS
330
7472
102
}
330
7472
100
AcDbGroup
300

 70
     1
 71
     1
  0
GROUP
  5
35547
102
{ACAD_REACTORS
330
7472
102
}
330
7472
100
AcDbGroup
300

 70
     1
 71
     1
  0
GROUP
  5
35950
102
{ACAD_REACTORS
330
7472
102
}
330
7472
100
AcDbGroup
300

 70
     1
 71
     1
  0
GROUP
  5
3267A
102
{ACAD_REACTORS
330
7472
102
}
330
7472
100
AcDbGroup
300

 70
     1
 71
     1
  0
GROUP
  5
35951
102
{ACAD_REACTORS
330
7472
102
}
330
7472
100
AcDbGroup
300

 70
     1
 71
     1
  0
GROUP
  5
290DD
102
{ACAD_REACTORS
330
7472
102
}
330
7472
100
AcDbGroup
300

 70
     1
 71
     1
  0
GROUP
  5
3506D
102
{ACAD_REACTORS
330
7472
102
}
330
7472
100
AcDbGroup
300

 70
     1
 71
     1
  0
GROUP
  5
35952
102
{ACAD_REACTORS
330
7472
102
}
330
7472
100
AcDbGroup
300

 70
     1
 71
     1
  0
GROUP
  5
33AFC
102
{ACAD_REACTORS
330
7472
102
}
330
7472
100
AcDbGroup
300

 70
     1
 71
     1
  0
GROUP
  5
3296D
102
{ACAD_REACTORS
330
7472
102
}
330
7472
100
AcDbGroup
300

 70
     1
 71
     1
  0
GROUP
  5
35953
102
{ACAD_REACTORS
330
7472
102
}
330
7472
100
AcDbGroup
300

 70
     1
 71
     1
  0
GROUP
  5
35954
102
{ACAD_REACTORS
330
7472
102
}
330
7472
100
AcDbGroup
300

 70
     1
 71
     1
  0
GROUP
  5
35955
102
{ACAD_REACTORS
330
7472
102
}
330
7472
100
AcDbGroup
300

 70
     1
 71
     1
  0
GROUP
  5
344A1
102
{ACAD_REACTORS
330
7472
102
}
330
7472
100
AcDbGroup
300

 70
     1
 71
     1
  0
GROUP
  5
32071
102
{ACAD_REACTORS
330
7472
102
}
330
7472
100
AcDbGroup
300

 70
     1
 71
     1
  0
GROUP
  5
3372B
102
{ACAD_REACTORS
330
7472
102
}
330
7472
100
AcDbGroup
300

 70
     1
 71
     1
  0
GROUP
  5
33B5F
102
{ACAD_REACTORS
330
7472
102
}
330
7472
100
AcDbGroup
300

 70
     1
 71
     1
  0
GROUP
  5
344A3
102
{ACAD_REACTORS
330
7472
102
}
330
7472
100
AcDbGroup
300

 70
     1
 71
     1
  0
GROUP
  5
35956
102
{ACAD_REACTORS
330
7472
102
}
330
7472
100
AcDbGroup
300

 70
     1
 71
     1
  0
GROUP
  5
33B8E
102
{ACAD_REACTORS
330
7472
102
}
330
7472
100
AcDbGroup
300

 70
     1
 71
     1
  0
GROUP
  5
275D5
102
{ACAD_REACTORS
330
7472
102
}
330
7472
100
AcDbGroup
300

 70
     1
 71
     1
  0
GROUP
  5
3372C
102
{ACAD_REACTORS
330
7472
102
}
330
7472
100
AcDbGroup
300

 70
     1
 71
     1
  0
GROUP
  5
3372D
102
{ACAD_REACTORS
330
7472
102
}
330
7472
100
AcDbGroup
300

 70
     1
 71
     1
  0
GROUP
  5
32DEF
102
{ACAD_REACTORS
330
7472
102
}
330
7472
100
AcDbGroup
300

 70
     1
 71
     1
  0
GROUP
  5
3267B
102
{ACAD_REACTORS
330
7472
102
}
330
7472
100
AcDbGroup
300

 70
     1
 71
     1
  0
GROUP
  5
2925F
102
{ACAD_REACTORS
330
7472
102
}
330
7472
100
AcDbGroup
300

 70
     1
 71
     1
  0
GROUP
  5
32DF0
102
{ACAD_REACTORS
330
7472
102
}
330
7472
100
AcDbGroup
300

 70
     1
 71
     1
  0
GROUP
  5
33737
102
{ACAD_REACTORS
330
7472
102
}
330
7472
100
AcDbGroup
300

 70
     1
 71
     1
  0
GROUP
  5
33738
102
{ACAD_REACTORS
330
7472
102
}
330
7472
100
AcDbGroup
300

 70
     1
 71
     1
  0
GROUP
  5
35072
102
{ACAD_REACTORS
330
7472
102
}
330
7472
100
AcDbGroup
300

 70
     1
 71
     1
  0
GROUP
  5
33310
102
{ACAD_REACTORS
330
7472
102
}
330
7472
100
AcDbGroup
300

 70
     1
 71
     1
  0
GROUP
  5
344A7
102
{ACAD_REACTORS
330
7472
102
}
330
7472
100
AcDbGroup
300

 70
     1
 71
     1
  0
GROUP
  5
3506E
102
{ACAD_REACTORS
330
7472
102
}
330
7472
100
AcDbGroup
300

 70
     1
 71
     1
  0
GROUP
  5
33739
102
{ACAD_REACTORS
330
7472
102
}
330
7472
100
AcDbGroup
300

 70
     1
 71
     1
  0
GROUP
  5
3373A
102
{ACAD_REACTORS
330
7472
102
}
330
7472
100
AcDbGroup
300

 70
     1
 71
     1
  0
GROUP
  5
24FDC
102
{ACAD_REACTORS
330
7472
102
}
330
7472
100
AcDbGroup
300

 70
     1
 71
     1
  0
GROUP
  5
24FE6
102
{ACAD_REACTORS
330
7472
102
}
330
7472
100
AcDbGroup
300

 70
     1
 71
     1
  0
GROUP
  5
33729
102
{ACAD_REACTORS
330
7472
102
}
330
7472
100
AcDbGroup
300

 70
     1
 71
     1
  0
GROUP
  5
2925B
102
{ACAD_REACTORS
330
7472
102
}
330
7472
100
AcDbGroup
300

 70
     1
 71
     1
  0
GROUP
  5
3373B
102
{ACAD_REACTORS
330
7472
102
}
330
7472
100
AcDbGroup
300

 70
     1
 71
     1
  0
GROUP
  5
3373C
102
{ACAD_REACTORS
330
7472
102
}
330
7472
100
AcDbGroup
300

 70
     1
 71
     1
  0
GROUP
  5
3373D
102
{ACAD_REACTORS
330
7472
102
}
330
7472
100
AcDbGroup
300

 70
     1
 71
     1
  0
GROUP
  5
32679
102
{ACAD_REACTORS
330
7472
102
}
330
7472
100
AcDbGroup
300

 70
     1
 71
     1
  0
GROUP
  5
33B90
102
{ACAD_REACTORS
330
7472
102
}
330
7472
100
AcDbGroup
300

 70
     1
 71
     1
  0
GROUP
  5
32072
102
{ACAD_REACTORS
330
7472
102
}
330
7472
100
AcDbGroup
300

 70
     1
 71
     1
  0
GROUP
  5
33B91
102
{ACAD_REACTORS
330
7472
102
}
330
7472
100
AcDbGroup
300

 70
     1
 71
     1
  0
GROUP
  5
15535
102
{ACAD_REACTORS
330
7472
102
}
330
7472
100
AcDbGroup
300

 70
     1
 71
     1
  0
GROUP
  5
33B92
102
{ACAD_REACTORS
330
7472
102
}
330
7472
100
AcDbGroup
300

 70
     1
 71
     1
  0
GROUP
  5
27401
102
{ACAD_REACTORS
330
7472
102
}
330
7472
100
AcDbGroup
300

 70
     1
 71
     1
  0
GROUP
  5
275D4
102
{ACAD_REACTORS
330
7472
102
}
330
7472
100
AcDbGroup
300

 70
     1
 71
     1
  0
GROUP
  5
33AF6
102
{ACAD_REACTORS
330
7472
102
}
330
7472
100
AcDbGroup
300

 70
     1
 71
     1
  0
GROUP
  5
344A4
102
{ACAD_REACTORS
330
7472
102
}
330
7472
100
AcDbGroup
300

 70
     1
 71
     1
  0
GROUP
  5
35078
102
{ACAD_REACTORS
330
7472
102
}
330
7472
100
AcDbGroup
300

 70
     1
 71
     1
340
34C83
340
34C84
340
34C82
340
34C81
  0
GROUP
  5
3297C
102
{ACAD_REACTORS
330
7472
102
}
330
7472
100
AcDbGroup
300

 70
     1
 71
     1
  0
GROUP
  5
35942
102
{ACAD_REACTORS
330
7472
102
}
330
7472
100
AcDbGroup
300

 70
     1
 71
     1
  0
GROUP
  5
33B93
102
{ACAD_REACTORS
330
7472
102
}
330
7472
100
AcDbGroup
300

 70
     1
 71
     1
  0
GROUP
  5
3372E
102
{ACAD_REACTORS
330
7472
102
}
330
7472
100
AcDbGroup
300

 70
     1
 71
     1
  0
GROUP
  5
33B94
102
{ACAD_REACTORS
330
7472
102
}
330
7472
100
AcDbGroup
300

 70
     1
 71
     1
  0
GROUP
  5
33B95
102
{ACAD_REACTORS
330
7472
102
}
330
7472
100
AcDbGroup
300

 70
     1
 71
     1
  0
GROUP
  5
32DF3
102
{ACAD_REACTORS
330
7472
102
}
330
7472
100
AcDbGroup
300

 70
     1
 71
     1
  0
GROUP
  5
32073
102
{ACAD_REACTORS
330
7472
102
}
330
7472
100
AcDbGroup
300

 70
     1
 71
     1
  0
GROUP
  5
33B96
102
{ACAD_REACTORS
330
7472
102
}
330
7472
100
AcDbGroup
300

 70
     1
 71
     1
  0
GROUP
  5
32677
102
{ACAD_REACTORS
330
7472
102
}
330
7472
100
AcDbGroup
300

 70
     1
 71
     1
  0
GROUP
  5
272B4
102
{ACAD_REACTORS
330
7472
102
}
330
7472
100
AcDbGroup
300

 70
     1
 71
     1
  0
GROUP
  5
33731
102
{ACAD_REACTORS
330
7472
102
}
330
7472
100
AcDbGroup
300

 70
     1
 71
     1
  0
GROUP
  5
3299D
102
{ACAD_REACTORS
330
7472
102
}
330
7472
100
AcDbGroup
300

 70
     1
 71
     1
  0
GROUP
  5
344A5
102
{ACAD_REACTORS
330
7472
102
}
330
7472
100
AcDbGroup
300

 70
     1
 71
     1
  0
GROUP
  5
273ED
102
{ACAD_REACTORS
330
7472
102
}
330
7472
100
AcDbGroup
300

 70
     1
 71
     1
  0
GROUP
  5
273F2
102
{ACAD_REACTORS
330
7472
102
}
330
7472
100
AcDbGroup
300

 70
     1
 71
     1
  0
GROUP
  5
3372F
102
{ACAD_REACTORS
330
7472
102
}
330
7472
100
AcDbGroup
300

 70
     1
 71
     1
  0
GROUP
  5
2925A
102
{ACAD_REACTORS
330
7472
102
}
330
7472
100
AcDbGroup
300

 70
     1
 71
     1
  0
GROUP
  5
35943
102
{ACAD_REACTORS
330
7472
102
}
330
7472
100
AcDbGroup
300

 70
     1
 71
     1
  0
GROUP
  5
32DE5
102
{ACAD_REACTORS
330
7472
102
}
330
7472
100
AcDbGroup
300

 70
     1
 71
     1
  0
GROUP
  5
3267C
102
{ACAD_REACTORS
330
7472
102
}
330
7472
100
AcDbGroup
300

 70
     1
 71
     1
  0
GROUP
  5
273F7
102
{ACAD_REACTORS
330
7472
102
}
330
7472
100
AcDbGroup
300

 70
     1
 71
     1
  0
GROUP
  5
35946
102
{ACAD_REACTORS
330
7472
102
}
330
7472
100
AcDbGroup
300

 70
     1
 71
     1
  0
GROUP
  5
33AF7
102
{ACAD_REACTORS
330
7472
102
}
330
7472
100
AcDbGroup
300

 70
     1
 71
     1
  0
GROUP
  5
2925C
102
{ACAD_REACTORS
330
7472
102
}
330
7472
100
AcDbGroup
300

 70
     1
 71
     1
  0
GROUP
  5
30D61
102
{ACAD_REACTORS
330
7472
102
}
330
7472
100
AcDbGroup
300

 70
     1
 71
     1
  0
GROUP
  5
32DE2
102
{ACAD_REACTORS
330
7472
102
}
330
7472
100
AcDbGroup
300

 70
     1
 71
     1
  0
GROUP
  5
30D65
102
{ACAD_REACTORS
330
7472
102
}
330
7472
100
AcDbGroup
300

 70
     1
 71
     1
  0
GROUP
  5
35548
102
{ACAD_REACTORS
330
7472
102
}
330
7472
100
AcDbGroup
300

 70
     1
 71
     1
  0
GROUP
  5
275D7
102
{ACAD_REACTORS
330
7472
102
}
330
7472
100
AcDbGroup
300

 70
     1
 71
     1
  0
GROUP
  5
3206A
102
{ACAD_REACTORS
330
7472
102
}
330
7472
100
AcDbGroup
300

 70
     1
 71
     1
  0
GROUP
  5
35073
102
{ACAD_REACTORS
330
7472
102
}
330
7472
100
AcDbGroup
300

 70
     1
 71
     1
340
34C9C
340
34C9B
340
34C9A
340
34C99
340
34C98
340
34C97
340
34C96
340
34C9D
340
34C95
  0
GROUP
  5
32DF4
102
{ACAD_REACTORS
330
7472
102
}
330
7472
100
AcDbGroup
300

 70
     1
 71
     1
  0
GROUP
  5
32074
102
{ACAD_REACTORS
330
7472
102
}
330
7472
100
AcDbGroup
300

 70
     1
 71
     1
  0
GROUP
  5
33AFA
102
{ACAD_REACTORS
330
7472
102
}
330
7472
100
AcDbGroup
300

 70
     1
 71
     1
  0
GROUP
  5
32075
102
{ACAD_REACTORS
330
7472
102
}
330
7472
100
AcDbGroup
300

 70
     1
 71
     1
  0
GROUP
  5
2926A
102
{ACAD_REACTORS
330
7472
102
}
330
7472
100
AcDbGroup
300

 70
     1
 71
     1
  0
GROUP
  5
32076
102
{ACAD_REACTORS
330
7472
102
}
330
7472
100
AcDbGroup
300

 70
     1
 71
     1
  0
GROUP
  5
32DE7
102
{ACAD_REACTORS
330
7472
102
}
330
7472
100
AcDbGroup
300

 70
     1
 71
     1
  0
GROUP
  5
3506C
102
{ACAD_REACTORS
330
7472
102
}
330
7472
100
AcDbGroup
300

 70
     1
 71
     1
  0
GROUP
  5
33730
102
{ACAD_REACTORS
330
7472
102
}
330
7472
100
AcDbGroup
300

 70
     1
 71
     1
  0
GROUP
  5
3206B
102
{ACAD_REACTORS
330
7472
102
}
330
7472
100
AcDbGroup
300

 70
     1
 71
     1
  0
GROUP
  5
27412
102
{ACAD_REACTORS
330
7472
102
}
330
7472
100
AcDbGroup
300

 70
     1
 71
     1
  0
GROUP
  5
3331C
102
{ACAD_REACTORS
330
7472
102
}
330
7472
100
AcDbGroup
300

 70
     1
 71
     1
  0
GROUP
  5
273FC
102
{ACAD_REACTORS
330
7472
102
}
330
7472
100
AcDbGroup
300

 70
     1
 71
     1
  0
GROUP
  5
35076
102
{ACAD_REACTORS
330
7472
102
}
330
7472
100
AcDbGroup
300

 70
     1
 71
     1
340
34C8B
340
34C8A
340
34C89
340
34C88
340
34C8C
340
34C87
340
34C86
340
34C85
  0
GROUP
  5
33AF8
102
{ACAD_REACTORS
330
7472
102
}
330
7472
100
AcDbGroup
300

 70
     1
 71
     1
  0
GROUP
  5
32077
102
{ACAD_REACTORS
330
7472
102
}
330
7472
100
AcDbGroup
300

 70
     1
 71
     1
  0
GROUP
  5
32DE3
102
{ACAD_REACTORS
330
7472
102
}
330
7472
100
AcDbGroup
300

 70
     1
 71
     1
  0
GROUP
  5
3266F
102
{ACAD_REACTORS
330
7472
102
}
330
7472
100
AcDbGroup
300

 70
     1
 71
     1
  0
GROUP
  5
32670
102
{ACAD_REACTORS
330
7472
102
}
330
7472
100
AcDbGroup
300

 70
     1
 71
     1
  0
GROUP
  5
290EE
102
{ACAD_REACTORS
330
7472
102
}
330
7472
100
AcDbGroup
300

 70
     1
 71
     1
  0
GROUP
  5
2926B
102
{ACAD_REACTORS
330
7472
102
}
330
7472
100
AcDbGroup
300

 70
     1
 71
     1
  0
GROUP
  5
33AFE
102
{ACAD_REACTORS
330
7472
102
}
330
7472
100
AcDbGroup
300

 70
     1
 71
     1
  0
GROUP
  5
29246
102
{ACAD_REACTORS
330
7472
102
}
330
7472
100
AcDbGroup
300

 70
     1
 71
     1
  0
GROUP
  5
32DE6
102
{ACAD_REACTORS
330
7472
102
}
330
7472
100
AcDbGroup
300

 70
     1
 71
     1
  0
GROUP
  5
33732
102
{ACAD_REACTORS
330
7472
102
}
330
7472
100
AcDbGroup
300

 70
     1
 71
     1
  0
GROUP
  5
29247
102
{ACAD_REACTORS
330
7472
102
}
330
7472
100
AcDbGroup
300

 70
     1
 71
     1
  0
GROUP
  5
32DE8
102
{ACAD_REACTORS
330
7472
102
}
330
7472
100
AcDbGroup
300

 70
     1
 71
     1
  0
GROUP
  5
3293D
102
{ACAD_REACTORS
330
7472
102
}
330
7472
100
AcDbGroup
300

 70
     1
 71
     1
  0
GROUP
  5
32947
102
{ACAD_REACTORS
330
7472
102
}
330
7472
100
AcDbGroup
300

 70
     1
 71
     1
  0
GROUP
  5
32671
102
{ACAD_REACTORS
330
7472
102
}
330
7472
100
AcDbGroup
300

 70
     1
 71
     1
  0
GROUP
  5
35075
102
{ACAD_REACTORS
330
7472
102
}
330
7472
100
AcDbGroup
300

 70
     1
 71
     1
340
34C91
340
34C90
340
34C93
340
34C92
340
34C94
340
34C8F
340
34C8E
340
34C8D
  0
GROUP
  5
35947
102
{ACAD_REACTORS
330
7472
102
}
330
7472
100
AcDbGroup
300

 70
     1
 71
     1
  0
GROUP
  5
32672
102
{ACAD_REACTORS
330
7472
102
}
330
7472
100
AcDbGroup
300

 70
     1
 71
     1
  0
GROUP
  5
3299E
102
{ACAD_REACTORS
330
7472
102
}
330
7472
100
AcDbGroup
300

 70
     1
 71
     1
  0
GROUP
  5
3299F
102
{ACAD_REACTORS
330
7472
102
}
330
7472
100
AcDbGroup
300

 70
     1
 71
     1
  0
GROUP
  5
272AF
102
{ACAD_REACTORS
330
7472
102
}
330
7472
100
AcDbGroup
300

 70
     1
 71
     1
  0
GROUP
  5
275D8
102
{ACAD_REACTORS
330
7472
102
}
330
7472
100
AcDbGroup
300

 70
     1
 71
     1
  0
GROUP
  5
33AF9
102
{ACAD_REACTORS
330
7472
102
}
330
7472
100
AcDbGroup
300

 70
     1
 71
     1
  0
GROUP
  5
329A0
102
{ACAD_REACTORS
330
7472
102
}
330
7472
100
AcDbGroup
300

 70
     1
 71
     1
  0
GROUP
  5
329A1
102
{ACAD_REACTORS
330
7472
102
}
330
7472
100
AcDbGroup
300

 70
     1
 71
     1
  0
GROUP
  5
35070
102
{ACAD_REACTORS
330
7472
102
}
330
7472
100
AcDbGroup
300

 70
     1
 71
     1
  0
GROUP
  5
2925E
102
{ACAD_REACTORS
330
7472
102
}
330
7472
100
AcDbGroup
300

 70
     1
 71
     1
  0
GROUP
  5
2740E
102
{ACAD_REACTORS
330
7472
102
}
330
7472
100
AcDbGroup
300

 70
     1
 71
     1
  0
GROUP
  5
3507B
102
{ACAD_REACTORS
330
7472
102
}
330
7472
100
AcDbGroup
300

 70
     1
 71
     1
340
34C77
340
34C78
340
34C76
340
34C75
  0
GROUP
  5
329A2
102
{ACAD_REACTORS
330
7472
102
}
330
7472
100
AcDbGroup
300

 70
     1
 71
     1
  0
GROUP
  5
33314
102
{ACAD_REACTORS
330
7472
102
}
330
7472
100
AcDbGroup
300

 70
     1
 71
     1
  0
GROUP
  5
329A3
102
{ACAD_REACTORS
330
7472
102
}
330
7472
100
AcDbGroup
300

 70
     1
 71
     1
  0
GROUP
  5
35ACD
102
{ACAD_REACTORS
330
7472
102
}
330
7472
100
AcDbGroup
300

 70
     1
 71
     1
340
35ACB
340
35ACA
340
35AC9
340
35AC8
340
35AC7
340
35AC6
340
35AC5
340
35AC4
340
35AC3
340
35AC2
340
35AC1
340
35AC0
340
35ABF
340
35ABE
340
35ABD
340
35ABC
340
35ABB
340
35ABA
340
35AB9
340
35AB8
340
35AB7
340
35AB6
340
35AB5
340
35AB4
340
35AB3
340
35AB2
340
35AB1
340
35AB0
340
35AAF
340
35AAE
340
35AAD
340
35AAC
340
35AAB
  0
GROUP
  5
344A6
102
{ACAD_REACTORS
330
7472
102
}
330
7472
100
AcDbGroup
300

 70
     1
 71
     1
  0
GROUP
  5
32DEA
102
{ACAD_REACTORS
330
7472
102
}
330
7472
100
AcDbGroup
300

 70
     1
 71
     1
  0
GROUP
  5
32676
102
{ACAD_REACTORS
330
7472
102
}
330
7472
100
AcDbGroup
300

 70
     1
 71
     1
  0
GROUP
  5
32DEB
102
{ACAD_REACTORS
330
7472
102
}
330
7472
100
AcDbGroup
300

 70
     1
 71
     1
  0
GROUP
  5
32DEC
102
{ACAD_REACTORS
330
7472
102
}
330
7472
100
AcDbGroup
300

 70
     1
 71
     1
  0
GROUP
  5
32DED
102
{ACAD_REACTORS
330
7472
102
}
330
7472
100
AcDbGroup
300

 70
     1
 71
     1
  0
GROUP
  5
35079
102
{ACAD_REACTORS
330
7472
102
}
330
7472
100
AcDbGroup
300

 70
     1
 71
     1
340
34C80
340
34C7F
340
34C7E
340
34C7D
  0
GROUP
  5
33733
102
{ACAD_REACTORS
330
7472
102
}
330
7472
100
AcDbGroup
300

 70
     1
 71
     1
  0
GROUP
  5
32DF2
102
{ACAD_REACTORS
330
7472
102
}
330
7472
100
AcDbGroup
300

 70
     1
 71
     1
  0
GROUP
  5
3206D
102
{ACAD_REACTORS
330
7472
102
}
330
7472
100
AcDbGroup
300

 70
     1
 71
     1
  0
GROUP
  5
329A4
102
{ACAD_REACTORS
330
7472
102
}
330
7472
100
AcDbGroup
300

 70
     1
 71
     1
  0
GROUP
  5
32951
102
{ACAD_REACTORS
330
7472
102
}
330
7472
100
AcDbGroup
300

 70
     1
 71
     1
  0
GROUP
  5
32DEE
102
{ACAD_REACTORS
330
7472
102
}
330
7472
100
AcDbGroup
300

 70
     1
 71
     1
  0
GROUP
  5
33316
102
{ACAD_REACTORS
330
7472
102
}
330
7472
100
AcDbGroup
300

 70
     1
 71
     1
  0
GROUP
  5
33317
102
{ACAD_REACTORS
330
7472
102
}
330
7472
100
AcDbGroup
300

 70
     1
 71
     1
  0
GROUP
  5
344A8
102
{ACAD_REACTORS
330
7472
102
}
330
7472
100
AcDbGroup
300

 70
     1
 71
     1
  0
GROUP
  5
32674
102
{ACAD_REACTORS
330
7472
102
}
330
7472
100
AcDbGroup
300

 70
     1
 71
     1
  0
GROUP
  5
33318
102
{ACAD_REACTORS
330
7472
102
}
330
7472
100
AcDbGroup
300

 70
     1
 71
     1
  0
GROUP
  5
35071
102
{ACAD_REACTORS
330
7472
102
}
330
7472
100
AcDbGroup
300

 70
     1
 71
     1
  0
GROUP
  5
33734
102
{ACAD_REACTORS
330
7472
102
}
330
7472
100
AcDbGroup
300

 70
     1
 71
     1
  0
GROUP
  5
3408E
102
{ACAD_REACTORS
330
7472
102
}
330
7472
100
AcDbGroup
300

 70
     1
 71
     1
  0
GROUP
  5
34497
102
{ACAD_REACTORS
330
7472
102
}
330
7472
100
AcDbGroup
300

 70
     1
 71
     1
  0
GROUP
  5
32956
102
{ACAD_REACTORS
330
7472
102
}
330
7472
100
AcDbGroup
300

 70
     1
 71
     1
  0
GROUP
  5
34498
102
{ACAD_REACTORS
330
7472
102
}
330
7472
100
AcDbGroup
300

 70
     1
 71
     1
  0
GROUP
  5
3206E
102
{ACAD_REACTORS
330
7472
102
}
330
7472
100
AcDbGroup
300

 70
     1
 71
     1
  0
GROUP
  5
35948
102
{ACAD_REACTORS
330
7472
102
}
330
7472
100
AcDbGroup
300

 70
     1
 71
     1
  0
GROUP
  5
34499
102
{ACAD_REACTORS
330
7472
102
}
330
7472
100
AcDbGroup
300

 70
     1
 71
     1
  0
GROUP
  5
35077
102
{ACAD_REACTORS
330
7472
102
}
330
7472
100
AcDbGroup
300

 70
     1
 71
     1
340
34C89
340
34C88
340
34C8C
  0
GROUP
  5
3206F
102
{ACAD_REACTORS
330
7472
102
}
330
7472
100
AcDbGroup
300

 70
     1
 71
     1
  0
GROUP
  5
3449A
102
{ACAD_REACTORS
330
7472
102
}
330
7472
100
AcDbGroup
300

 70
     1
 71
     1
  0
GROUP
  5
3507A
102
{ACAD_REACTORS
330
7472
102
}
330
7472
100
AcDbGroup
300

 70
     1
 71
     1
340
34C7B
340
34C7C
340
34C7A
340
34C79
  0
GROUP
  5
35944
102
{ACAD_REACTORS
330
7472
102
}
330
7472
100
AcDbGroup
300

 70
     1
 71
     1
  0
GROUP
  5
3449B
102
{ACAD_REACTORS
330
7472
102
}
330
7472
100
AcDbGroup
300

 70
     1
 71
     1
  0
GROUP
  5
3206C
102
{ACAD_REACTORS
330
7472
102
}
330
7472
100
AcDbGroup
300

 70
     1
 71
     1
  0
GROUP
  5
3449C
102
{ACAD_REACTORS
330
7472
102
}
330
7472
100
AcDbGroup
300

 70
     1
 71
     1
  0
GROUP
  5
3449D
102
{ACAD_REACTORS
330
7472
102
}
330
7472
100
AcDbGroup
300

 70
     1
 71
     1
  0
GROUP
  5
3449E
102
{ACAD_REACTORS
330
7472
102
}
330
7472
100
AcDbGroup
300

 70
     1
 71
     1
  0
GROUP
  5
33AFD
102
{ACAD_REACTORS
330
7472
102
}
330
7472
100
AcDbGroup
300

 70
     1
 71
     1
  0
GROUP
  5
29263
102
{ACAD_REACTORS
330
7472
102
}
330
7472
100
AcDbGroup
300

 70
     1
 71
     1
  0
GROUP
  5
3331A
102
{ACAD_REACTORS
330
7472
102
}
330
7472
100
AcDbGroup
300

 70
     1
 71
     1
  0
GROUP
  5
344A9
102
{ACAD_REACTORS
330
7472
102
}
330
7472
100
AcDbGroup
300

 70
     1
 71
     1
  0
GROUP
  5
27416
102
{ACAD_REACTORS
330
7472
102
}
330
7472
100
AcDbGroup
300

 70
     1
 71
     1
  0
GROUP
  5
3594A
102
{ACAD_REACTORS
330
7472
102
}
330
7472
100
AcDbGroup
300

 70
     1
 71
     1
  0
GROUP
  5
32DF1
102
{ACAD_REACTORS
330
7472
102
}
330
7472
100
AcDbGroup
300

 70
     1
 71
     1
  0
GROUP
  5
2925D
102
{ACAD_REACTORS
330
7472
102
}
330
7472
100
AcDbGroup
300

 70
     1
 71
     1
  0
GROUP
  5
32675
102
{ACAD_REACTORS
330
7472
102
}
330
7472
100
AcDbGroup
300

 70
     1
 71
     1
  0
GROUP
  5
344AA
102
{ACAD_REACTORS
330
7472
102
}
330
7472
100
AcDbGroup
300

 70
     1
 71
     1
  0
GROUP
  5
344AB
102
{ACAD_REACTORS
330
7472
102
}
330
7472
100
AcDbGroup
300

 70
     1
 71
     1
  0
GROUP
  5
33311
102
{ACAD_REACTORS
330
7472
102
}
330
7472
100
AcDbGroup
300

 70
     1
 71
     1
  0
GROUP
  5
344AC
102
{ACAD_REACTORS
330
7472
102
}
330
7472
100
AcDbGroup
300

 70
     1
 71
     1
  0
GROUP
  5
329A6
102
{ACAD_REACTORS
330
7472
102
}
330
7472
100
AcDbGroup
300

 70
     1
 71
     1
  0
GROUP
  5
35945
102
{ACAD_REACTORS
330
7472
102
}
330
7472
100
AcDbGroup
300

 70
     1
 71
     1
  0
GROUP
  5
35067
102
{ACAD_REACTORS
330
7472
102
}
330
7472
100
AcDbGroup
300

 70
     1
 71
     1
  0
GROUP
  5
35068
102
{ACAD_REACTORS
330
7472
102
}
330
7472
100
AcDbGroup
300

 70
     1
 71
     1
  0
GROUP
  5
35069
102
{ACAD_REACTORS
330
7472
102
}
330
7472
100
AcDbGroup
300

 70
     1
 71
     1
  0
GROUP
  5
3295B
102
{ACAD_REACTORS
330
7472
102
}
330
7472
100
AcDbGroup
300

 70
     1
 71
     1
  0
GROUP
  5
33315
102
{ACAD_REACTORS
330
7472
102
}
330
7472
100
AcDbGroup
300

 70
     1
 71
     1
  0
GROUP
  5
35534
102
{ACAD_REACTORS
330
7472
102
}
330
7472
100
AcDbGroup
300

 70
     1
 71
     1
  0
GROUP
  5
35949
102
{ACAD_REACTORS
330
7472
102
}
330
7472
100
AcDbGroup
300

 70
     1
 71
     1
  0
GROUP
  5
35535
102
{ACAD_REACTORS
330
7472
102
}
330
7472
100
AcDbGroup
300

 70
     1
 71
     1
  0
GROUP
  5
3594B
102
{ACAD_REACTORS
330
7472
102
}
330
7472
100
AcDbGroup
300

 70
     1
 71
     1
  0
GROUP
  5
275D6
102
{ACAD_REACTORS
330
7472
102
}
330
7472
100
AcDbGroup
300

 70
     1
 71
     1
  0
GROUP
  5
35536
102
{ACAD_REACTORS
330
7472
102
}
330
7472
100
AcDbGroup
300

 70
     1
 71
     1
  0
GROUP
  5
35537
102
{ACAD_REACTORS
330
7472
102
}
330
7472
100
AcDbGroup
300

 70
     1
 71
     1
  0
GROUP
  5
3506A
102
{ACAD_REACTORS
330
7472
102
}
330
7472
100
AcDbGroup
300

 70
     1
 71
     1
  0
GROUP
  5
32070
102
{ACAD_REACTORS
330
7472
102
}
330
7472
100
AcDbGroup
300

 70
     1
 71
     1
  0
LAYOUT
  5
11757
102
{ACAD_XDICTIONARY
360
35B56
102
}
102
{ACAD_REACTORS
330
11755
102
}
330
11755
100
AcDbPlotSettings
  1

  2
Microsoft Office Document Image Writer
  4
A4
  6

 40
3.174999952316284
 41
3.174999952316284
 42
3.175003051757812
 43
3.17498779296875
 44
209.9733276367187
 45
297.0106506347656
 46
0.0
 47
0.0
 48
0.0
 49
0.0
140
0.0
141
0.0
142
1.0
143
1.0
 70
 11952
 72
     1
 73
     1
 74
     0
  7

 75
     0
147
1.0
148
-3096.011834229277
149
52.59843815948716
100
AcDbLayout
  1
Model
 70
     1
 71
     0
 10
0.0
 20
0.0
 11
12.0
 21
9.0
 12
0.0
 22
0.0
 32
0.0
 14
0.0
 24
0.0
 34
0.0
 15
0.0
 25
0.0
 35
0.0
146
0.0
 13
0.0
 23
0.0
 33
0.0
 16
1.0
 26
0.0
 36
0.0
 17
0.0
 27
1.0
 37
0.0
 76
     0
330
747D
  0
LAYOUT
  5
11758
102
{ACAD_XDICTIONARY
360
35B58
102
}
102
{ACAD_REACTORS
330
11755
102
}
330
11755
100
AcDbPlotSettings
  1

  2
Microsoft Office Document Image Writer
  4

  6

 40
0.0
 41
0.0
 42
0.0
 43
0.0
 44
0.0
 45
0.0
 46
0.0
 47
0.0
 48
0.0
 49
0.0
140
0.0
141
0.0
142
1.0
143
1.0
 70
   688
 72
     0
 73
     0
 74
     5
  7
inaba.ctb
 75
    16
147
1.0
148
0.0
149
0.0
100
AcDbLayout
  1
レイアウト1
 70
     0
 71
     1
 10
0.0
 20
0.0
 11
420.0
 21
297.0
 12
0.0
 22
0.0
 32
0.0
 14
1.000000000000000E+20
 24
1.000000000000000E+20
 34
1.000000000000000E+20
 15
-1.000000000000000E+20
 25
-1.000000000000000E+20
 35
-1.000000000000000E+20
146
0.0
 13
0.0
 23
0.0
 33
0.0
 16
1.0
 26
0.0
 36
0.0
 17
0.0
 27
1.0
 37
0.0
 76
     0
330
747A
  0
MLINESTYLE
  5
7480
102
{ACAD_REACTORS
330
7473
102
}
330
7473
100
AcDbMlineStyle
  2
STANDARD
 70
     0
  3

 62
     0
 51
90.0
 52
90.0
 71
     2
 49
0.5
 62
   256
  6
BYLAYER
 49
-0.5
 62
   256
  6
BYLAYER
  0
ACDBPLACEHOLDER
  5
11752
102
{ACAD_REACTORS
330
11751
102
}
330
11751
  0
XRECORD
  5
35B55
102
{ACAD_REACTORS
330
35B53
102
}
330
35B53
100
AcDbXrecord
280
     1
340
11754
  0
XRECORD
  5
35B54
102
{ACAD_REACTORS
330
35B53
102
}
330
35B53
100
AcDbXrecord
280
     1
340
11753
  0
DICTIONARYVAR
  5
35B50
102
{ACAD_REACTORS
330
35B4F
102
}
330
35B4F
100
DictionaryVariables
280
     0
  1
1
  0
DICTIONARYVAR
  5
35B51
102
{ACAD_REACTORS
330
35B4F
102
}
330
35B4F
100
DictionaryVariables
280
     0
  1

  0
DICTIONARY
  5
35B56
330
11757
100
AcDbDictionary
280
     1
281
     1
  3
ACAD_XREC_ROUNDTRIP
360
35B57
  0
DICTIONARY
  5
35B58
330
11758
100
AcDbDictionary
280
     1
281
     1
  3
ACAD_XREC_ROUNDTRIP
360
35B59
  0
XRECORD
  5
35B57
102
{ACAD_REACTORS
330
35B56
102
}
330
35B56
100
AcDbXrecord
280
     1
102
SHADEPLOT
 70
     0
102
SHADEPLOTRESLEVEL
 70
     2
102
SHADEPLOTCUSTOMDPI
 70
   300
  0
XRECORD
  5
35B59
102
{ACAD_REACTORS
330
35B58
102
}
330
35B58
100
AcDbXrecord
280
     1
102
SHADEPLOT
 70
     0
102
SHADEPLOTRESLEVEL
 70
     2
102
SHADEPLOTCUSTOMDPI
 70
   300
  0
ENDSEC
  0
EOF
