  0
SECTION
  2
HEADER
  9
$ACADVER
  1
AC1015
  9
$ACADMAINTVER
 70
    20
  9
$DWGCODEPAGE
  3
ANSI_932
  9
$INSBASE
 10
0.0
 20
0.0
 30
0.0
  9
$EXTMIN
 10
50804.90135201868
 20
-33326.13759087565
 30
0.0
  9
$EXTMAX
 10
62930.30135930149
 20
-24768.93759087565
 30
0.0
  9
$LIMMIN
 10
0.0
 20
0.0
  9
$LIMMAX
 10
21000.0
 20
14850.0
  9
$ORTHOMODE
 70
     0
  9
$REGENMODE
 70
     1
  9
$FILLMODE
 70
     1
  9
$QTEXTMODE
 70
     0
  9
$MIRRTEXT
 70
     1
  9
$LTSCALE
 40
20.0
  9
$ATTMODE
 70
     1
  9
$TEXTSIZE
 40
100.0
  9
$TRACEWID
 40
1.0
  9
$TEXTSTYLE
  7
STYLE3
  9
$CLAYER
  8
寸法
  9
$CELTYPE
  6
BYLAYER
  9
$CECOLOR
 62
   256
  9
$CELTSCALE
 40
50.0
  9
$DISPSILH
 70
     0
  9
$DIMSCALE
 40
30.0
  9
$DIMASZ
 40
2.5
  9
$DIMEXO
 40
0.5
  9
$DIMDLI
 40
7.0
  9
$DIMRND
 40
0.0
  9
$DIMDLE
 40
0.0
  9
$DIMEXE
 40
1.5
  9
$DIMTP
 40
0.0
  9
$DIMTM
 40
0.0
  9
$DIMTXT
 40
3.0
  9
$DIMCEN
 40
0.0
  9
$DIMTSZ
 40
0.0
  9
$DIMTOL
 70
     0
  9
$DIMLIM
 70
     0
  9
$DIMTIH
 70
     0
  9
$DIMTOH
 70
     0
  9
$DIMSE1
 70
     0
  9
$DIMSE2
 70
     0
  9
$DIMTAD
 70
     3
  9
$DIMZIN
 70
     8
  9
$DIMBLK
  1

  9
$DIMASO
 70
     1
  9
$DIMSHO
 70
     1
  9
$DIMPOST
  1

  9
$DIMAPOST
  1

  9
$DIMALT
 70
     0
  9
$DIMALTD
 70
     2
  9
$DIMALTF
 40
0.0394
  9
$DIMLFAC
 40
1.0
  9
$DIMTOFL
 70
     1
  9
$DIMTVP
 40
0.0
  9
$DIMTIX
 70
     1
  9
$DIMSOXD
 70
     1
  9
$DIMSAH
 70
     1
  9
$DIMBLK1
  1
DOTSMALL
  9
$DIMBLK2
  1
DOTSMALL
  9
$DIMSTYLE
  2
INABA_S30G
  9
$DIMCLRD
 70
     0
  9
$DIMCLRE
 70
     0
  9
$DIMCLRT
 70
     7
  9
$DIMTFAC
 40
1.0
  9
$DIMGAP
 40
1.0
  9
$DIMJUST
 70
     0
  9
$DIMSD1
 70
     0
  9
$DIMSD2
 70
     0
  9
$DIMTOLJ
 70
     1
  9
$DIMTZIN
 70
     0
  9
$DIMALTZ
 70
     0
  9
$DIMALTTZ
 70
     0
  9
$DIMUPT
 70
     0
  9
$DIMDEC
 70
     1
  9
$DIMTDEC
 70
     4
  9
$DIMALTU
 70
     2
  9
$DIMALTTD
 70
     2
  9
$DIMTXSTY
  7
STYLE1
  9
$DIMAUNIT
 70
     0
  9
$DIMADEC
 70
     0
  9
$DIMALTRND
 40
0.0
  9
$DIMAZIN
 70
     0
  9
$DIMDSEP
 70
    46
  9
$DIMATFIT
 70
     3
  9
$DIMFRAC
 70
     0
  9
$DIMLDRBLK
  1
DOTSMALL
  9
$DIMLUNIT
 70
     2
  9
$DIMLWD
 70
    -2
  9
$DIMLWE
 70
    -2
  9
$DIMTMOVE
 70
     0
  9
$LUNITS
 70
     2
  9
$LUPREC
 70
     1
  9
$SKETCHINC
 40
1.0
  9
$FILLETRAD
 40
0.0
  9
$AUNITS
 70
     0
  9
$AUPREC
 70
     0
  9
$MENU
  1
acad
  9
$ELEVATION
 40
0.0
  9
$PELEVATION
 40
0.0
  9
$THICKNESS
 40
0.0
  9
$LIMCHECK
 70
     0
  9
$CHAMFERA
 40
0.0
  9
$CHAMFERB
 40
0.0
  9
$CHAMFERC
 40
0.0
  9
$CHAMFERD
 40
0.0
  9
$SKPOLY
 70
     0
  9
$TDCREATE
 40
2451802.696345833
  9
$TDUCREATE
 40
2451802.321345833
  9
$TDUPDATE
 40
2455813.723247060
  9
$TDUUPDATE
 40
2455813.348247060
  9
$TDINDWG
 40
1.6389105324
  9
$TDUSRTIMER
 40
1.6389105324
  9
$USRTIMER
 70
     1
  9
$ANGBASE
 50
0.0
  9
$ANGDIR
 70
     0
  9
$PDMODE
 70
     3
  9
$PDSIZE
 40
2.0
  9
$PLINEWID
 40
0.0
  9
$SPLFRAME
 70
     0
  9
$SPLINETYPE
 70
     6
  9
$SPLINESEGS
 70
     8
  9
$HANDSEED
  5
35B84
  9
$SURFTAB1
 70
     6
  9
$SURFTAB2
 70
     6
  9
$SURFTYPE
 70
     6
  9
$SURFU
 70
     6
  9
$SURFV
 70
     6
  9
$UCSBASE
  2

  9
$UCSNAME
  2

  9
$UCSORG
 10
0.0
 20
0.0
 30
0.0
  9
$UCSXDIR
 10
1.0
 20
0.0
 30
0.0
  9
$UCSYDIR
 10
0.0
 20
1.0
 30
0.0
  9
$UCSORTHOREF
  2

  9
$UCSORTHOVIEW
 70
     0
  9
$UCSORGTOP
 10
0.0
 20
0.0
 30
0.0
  9
$UCSORGBOTTOM
 10
0.0
 20
0.0
 30
0.0
  9
$UCSORGLEFT
 10
0.0
 20
0.0
 30
0.0
  9
$UCSORGRIGHT
 10
0.0
 20
0.0
 30
0.0
  9
$UCSORGFRONT
 10
0.0
 20
0.0
 30
0.0
  9
$UCSORGBACK
 10
0.0
 20
0.0
 30
0.0
  9
$PUCSBASE
  2

  9
$PUCSNAME
  2

  9
$PUCSORG
 10
0.0
 20
0.0
 30
0.0
  9
$PUCSXDIR
 10
1.0
 20
0.0
 30
0.0
  9
$PUCSYDIR
 10
0.0
 20
1.0
 30
0.0
  9
$PUCSORTHOREF
  2

  9
$PUCSORTHOVIEW
 70
     0
  9
$PUCSORGTOP
 10
0.0
 20
0.0
 30
0.0
  9
$PUCSORGBOTTOM
 10
0.0
 20
0.0
 30
0.0
  9
$PUCSORGLEFT
 10
0.0
 20
0.0
 30
0.0
  9
$PUCSORGRIGHT
 10
0.0
 20
0.0
 30
0.0
  9
$PUCSORGFRONT
 10
0.0
 20
0.0
 30
0.0
  9
$PUCSORGBACK
 10
0.0
 20
0.0
 30
0.0
  9
$USERI1
 70
     0
  9
$USERI2
 70
     0
  9
$USERI3
 70
     0
  9
$USERI4
 70
     0
  9
$USERI5
 70
     0
  9
$USERR1
 40
0.0
  9
$USERR2
 40
0.0
  9
$USERR3
 40
0.0
  9
$USERR4
 40
0.0
  9
$USERR5
 40
0.0
  9
$WORLDVIEW
 70
     1
  9
$SHADEDGE
 70
     3
  9
$SHADEDIF
 70
    70
  9
$TILEMODE
 70
     1
  9
$MAXACTVP
 70
    16
  9
$PINSBASE
 10
0.0
 20
0.0
 30
0.0
  9
$PLIMCHECK
 70
     0
  9
$PEXTMIN
 10
1.000000000000000E+20
 20
1.000000000000000E+20
 30
1.000000000000000E+20
  9
$PEXTMAX
 10
-1.000000000000000E+20
 20
-1.000000000000000E+20
 30
-1.000000000000000E+20
  9
$PLIMMIN
 10
0.0
 20
0.0
  9
$PLIMMAX
 10
420.0
 20
297.0
  9
$UNITMODE
 70
     0
  9
$VISRETAIN
 70
     0
  9
$PLINEGEN
 70
     0
  9
$PSLTSCALE
 70
     0
  9
$TREEDEPTH
 70
  3020
  9
$CMLSTYLE
  2
STANDARD
  9
$CMLJUST
 70
     0
  9
$CMLSCALE
 40
1.0
  9
$PROXYGRAPHICS
 70
     1
  9
$MEASUREMENT
 70
     1
  9
$CELWEIGHT
370
    -1
  9
$ENDCAPS
280
     0
  9
$JOINSTYLE
280
     0
  9
$LWDISPLAY
290
     0
  9
$INSUNITS
 70
     0
  9
$HYPERLINKBASE
  1

  9
$STYLESHEET
  1
ACA3.ctb
  9
$XEDIT
290
     1
  9
$CEPSNTYPE
380
     0
  9
$PSTYLEMODE
290
     1
  9
$FINGERPRINTGUID
  2
{DAFEAD6E-FF36-46F8-92D6-F05F9FF2CF3B}
  9
$VERSIONGUID
  2
{94CBB59B-2AFA-49F4-9B41-1C93CD825DE7}
  9
$EXTNAMES
290
     1
  9
$PSVPSCALE
 40
0.0
  9
$OLESTARTUP
290
     0
  0
ENDSEC
  0
SECTION
  2
CLASSES
  0
CLASS
  1
ACDBDICTIONARYWDFLT
  2
AcDbDictionaryWithDefault
  3
ObjectDBX Classes
 90
        0
280
     0
281
     0
  0
CLASS
  1
DICTIONARYVAR
  2
AcDbDictionaryVar
  3
ObjectDBX Classes
 90
        0
280
     0
281
     0
  0
CLASS
  1
ACDBPLACEHOLDER
  2
AcDbPlaceHolder
  3
ObjectDBX Classes
 90
        0
280
     0
281
     0
  0
CLASS
  1
LAYOUT
  2
AcDbLayout
  3
ObjectDBX Classes
 90
        0
280
     0
281
     0
  0
ENDSEC
  0
SECTION
  2
TABLES
  0
TABLE
  2
VPORT
  5
746D
330
0
100
AcDbSymbolTable
 70
     2
  0
VPORT
  5
35B7C
330
746D
100
AcDbSymbolTableRecord
100
AcDbViewportTableRecord
  2
*Active
 70
     0
 10
0.0
 20
0.0
 11
1.0
 21
1.0
 12
57954.47311981744
 22
-29047.43253277854
 13
0.0
 23
0.0
 14
10.0
 24
10.0
 15
10.0
 25
10.0
 16
0.0
 26
0.0
 36
1.0
 17
0.0
 27
0.0
 37
0.0
 40
8627.306275513456
 41
1.778877887788778
 42
50.0
 43
0.0
 44
0.0
 50
0.0
 51
0.0
 71
     0
 72
     0
 73
     1
 74
     0
 75
     0
 76
     0
 77
     0
 78
     1
281
     0
 65
     1
110
0.0
120
0.0
130
0.0
111
1.0
121
0.0
131
0.0
112
0.0
122
1.0
132
0.0
 79
     0
146
0.0
  0
ENDTAB
  0
TABLE
  2
LTYPE
  5
746A
330
0
100
AcDbSymbolTable
 70
     3
  0
LTYPE
  5
7477
330
746A
100
AcDbSymbolTableRecord
100
AcDbLinetypeTableRecord
  2
BYBLOCK
 70
     0
  3

 72
    65
 73
     0
 40
0.0
  0
LTYPE
  5
7478
330
746A
100
AcDbSymbolTableRecord
100
AcDbLinetypeTableRecord
  2
BYLAYER
 70
     0
  3

 72
    65
 73
     0
 40
0.0
  0
LTYPE
  5
7479
330
746A
100
AcDbSymbolTableRecord
100
AcDbLinetypeTableRecord
  2
CONTINUOUS
 70
     0
  3
Solid line
 72
    65
 73
     0
 40
0.0
  0
LTYPE
  5
7816
330
746A
100
AcDbSymbolTableRecord
100
AcDbLinetypeTableRecord
  2
CENTER
 70
     0
  3
____ _ ____ _ ____ _ ____ _ ____ _ ____ _ ____ 
 72
    65
 73
     4
 40
2.0
 49
1.25
 74
     0
 49
-0.25
 74
     0
 49
0.25
 74
     0
 49
-0.25
 74
     0
  0
LTYPE
  5
781B
330
746A
100
AcDbSymbolTableRecord
100
AcDbLinetypeTableRecord
  2
PHANTOM
 70
     0
  3
______  __  __  ______  __  __  ______  __  __ 
 72
    65
 73
     6
 40
2.5
 49
1.25
 74
     0
 49
-0.25
 74
     0
 49
0.25
 74
     0
 49
-0.25
 74
     0
 49
0.25
 74
     0
 49
-0.25
 74
     0
  0
ENDTAB
  0
TABLE
  2
LAYER
  5
7467
102
{ACAD_XDICTIONARY
360
11827
102
}
330
0
100
AcDbSymbolTable
 70
    14
  0
LAYER
  5
7474
330
7467
100
AcDbSymbolTableRecord
100
AcDbLayerTableRecord
  2
0
 70
     0
 62
     7
  6
CONTINUOUS
370
    -3
390
11752
  0
LAYER
  5
DEB2
330
7467
100
AcDbSymbolTableRecord
100
AcDbLayerTableRecord
  2
センター
 70
     0
 62
     3
  6
CENTER
370
    -3
390
11752
  0
LAYER
  5
DEB3
330
7467
100
AcDbSymbolTableRecord
100
AcDbLayerTableRecord
  2
寸法
 70
     0
 62
     4
  6
CONTINUOUS
370
    -3
390
11752
  0
LAYER
  5
DEB4
330
7467
100
AcDbSymbolTableRecord
100
AcDbLayerTableRecord
  2
部品1
 70
     0
 62
     7
  6
CONTINUOUS
370
    -3
390
11752
  0
LAYER
  5
DEB5
330
7467
100
AcDbSymbolTableRecord
100
AcDbLayerTableRecord
  2
補助
 70
     0
 62
    -1
  6
CONTINUOUS
370
    -3
390
11752
  0
LAYER
  5
DEB6
330
7467
100
AcDbSymbolTableRecord
100
AcDbLayerTableRecord
  2
文字
 70
     0
 62
     7
  6
CONTINUOUS
370
    -3
390
11752
  0
LAYER
  5
F255
330
7467
100
AcDbSymbolTableRecord
100
AcDbLayerTableRecord
  2
DEFPOINTS
 70
     0
 62
     7
  6
CONTINUOUS
290
     0
370
    -3
390
11752
  0
LAYER
  5
10B54
330
7467
100
AcDbSymbolTableRecord
100
AcDbLayerTableRecord
  2
仕様書枠
 70
     0
 62
   230
  6
CONTINUOUS
370
    -3
390
11752
  0
LAYER
  5
11729
330
7467
100
AcDbSymbolTableRecord
100
AcDbLayerTableRecord
  2
Ｇ．Ｌ
 70
     0
 62
    30
  6
CONTINUOUS
370
    -3
390
11752
  0
LAYER
  5
1173F
330
7467
100
AcDbSymbolTableRecord
100
AcDbLayerTableRecord
  2
細線
 70
     0
 62
     5
  6
CONTINUOUS
370
    -3
390
11752
  0
LAYER
  5
1F38A
330
7467
100
AcDbSymbolTableRecord
100
AcDbLayerTableRecord
  2
U7
 70
     0
 62
     2
  6
CONTINUOUS
370
    -3
390
11752
  0
LAYER
  5
20750
330
7467
100
AcDbSymbolTableRecord
100
AcDbLayerTableRecord
  2
KIN-T
 70
     0
 62
     3
  6
CONTINUOUS
370
    -3
390
11752
  0
LAYER
  5
23C1A
330
7467
100
AcDbSymbolTableRecord
100
AcDbLayerTableRecord
  2
CSLAYER17
 70
     0
 62
     7
  6
CONTINUOUS
370
    -3
390
11752
  0
LAYER
  5
35B05
330
7467
100
AcDbSymbolTableRecord
100
AcDbLayerTableRecord
  2
想像線
 70
     0
 62
     6
  6
PHANTOM
370
    -3
390
11752
  0
ENDTAB
  0
TABLE
  2
STYLE
  5
7468
330
0
100
AcDbSymbolTable
 70
     4
  0
STYLE
  5
7475
330
7468
100
AcDbSymbolTableRecord
100
AcDbTextStyleTableRecord
  2
STANDARD
 70
     0
 40
0.0
 41
1.0
 50
0.0
 71
     0
 42
4.0
  3
txt
  4
C:\AutoCAD LT\bigfont.shx
  0
STYLE
  5
F706
330
7468
100
AcDbSymbolTableRecord
100
AcDbTextStyleTableRecord
  2
STYLE1
 70
     0
 40
0.0
 41
1.0
 50
0.0
 71
     0
 42
4.0
  3
isocp.shx
  4
bigfont.shx
  0
STYLE
  5
103BF
330
7468
100
AcDbSymbolTableRecord
100
AcDbTextStyleTableRecord
  2
STYLE2
 70
     0
 40
0.0
 41
1.0
 50
0.0
 71
     0
 42
100.0
  3
MS PGothic.ttf
  4

1001
ACAD
1000
MS PGothic
1071
    32818
  0
STYLE
  5
10BAA
330
7468
100
AcDbSymbolTableRecord
100
AcDbTextStyleTableRecord
  2
STYLE3
 70
     0
 40
0.0
 41
1.0
 50
0.0
 71
     0
 42
100.0
  3
DFPGothic-EB.ttf
  4

1001
ACAD
1000
DFPGothic-EB
1071
    32818
  0
ENDTAB
  0
TABLE
  2
VIEW
  5
746B
330
0
100
AcDbSymbolTable
 70
     0
  0
ENDTAB
  0
TABLE
  2
UCS
  5
746C
330
0
100
AcDbSymbolTable
 70
     0
  0
ENDTAB
  0
TABLE
  2
APPID
  5
746E
330
0
100
AcDbSymbolTable
 70
     8
  0
APPID
  5
7476
330
746E
100
AcDbSymbolTableRecord
100
AcDbRegAppTableRecord
  2
ACAD
 70
     0
  0
APPID
  5
DEA9
330
746E
100
AcDbSymbolTableRecord
100
AcDbRegAppTableRecord
  2
CONTENTBLOCKICON
 70
     0
  0
APPID
  5
DEAA
330
746E
100
AcDbSymbolTableRecord
100
AcDbRegAppTableRecord
  2
CONTENTBLOCKDESCRIPTION
 70
     0
  0
APPID
  5
E71D
330
746E
100
AcDbSymbolTableRecord
100
AcDbRegAppTableRecord
  2
CONTENTTABDATA
 70
     0
  0
APPID
  5
E71E
330
746E
100
AcDbSymbolTableRecord
100
AcDbRegAppTableRecord
  2
CONTENTCURRENTTAB
 70
     0
  0
APPID
  5
F3BA
330
746E
100
AcDbSymbolTableRecord
100
AcDbRegAppTableRecord
  2
DRAWINGVARIABLESXDATA
 70
     0
  0
APPID
  5
1F3A5
330
746E
100
AcDbSymbolTableRecord
100
AcDbRegAppTableRecord
  2
AUTOCAD_POSTSCRIPT_FIGURE
 70
     0
  0
APPID
  5
27B11
330
746E
100
AcDbSymbolTableRecord
100
AcDbRegAppTableRecord
  2
AcDbBlockRepETag
 70
     0
  0
ENDTAB
  0
TABLE
  2
DIMSTYLE
  5
746F
330
0
100
AcDbSymbolTable
 70
     3
100
AcDbDimStyleTable
 71
     2
340
13D04
340
F71F
  0
DIMSTYLE
105
F71F
330
746F
100
AcDbSymbolTableRecord
100
AcDbDimStyleTableRecord
  2
INABA_S50G
 70
     0
 41
125.0
 42
25.0
 43
7.0
 44
75.0
 73
     0
 74
     0
 77
     3
 78
     8
140
150.0
141
0.0
143
0.0394
147
25.0
172
     1
173
     1
174
     1
178
     7
271
     1
340
F706
341
F770
343
F770
344
F770
  0
DIMSTYLE
105
13D04
102
{ACAD_REACTORS
330
2BF6C
330
2BF6B
330
2BF45
330
2BF44
330
2BF43
330
2BF42
330
2BF41
330
2BF40
330
2BF3F
330
2BF3E
330
2BF3D
330
2BF3C
330
2BF3B
330
2BF39
330
2BF38
330
2BF37
330
2BF28
330
2BF27
330
2BF26
330
2CABC
330
2BF36
330
34D23
330
34D22
330
34D21
330
34D20
330
34D1F
330
34D1E
330
34CCA
330
34CC9
330
34DD3
330
34DD2
330
34DD1
330
35B50
102
}
330
746F
100
AcDbSymbolTableRecord
100
AcDbDimStyleTableRecord
  2
INABA_S30G
 70
     0
 40
30.0
 41
2.5
 42
0.5
 43
7.0
 44
1.5
 73
     0
 74
     0
 77
     3
 78
     8
140
3.0
141
0.0
143
0.0394
147
1.0
172
     1
173
     1
174
     1
175
     1
178
     7
271
     1
340
F706
341
F770
343
F770
344
F770
  0
DIMSTYLE
105
2503A
330
746F
100
AcDbSymbolTableRecord
100
AcDbDimStyleTableRecord
  2
Standard
 70
     0
340
7475
  0
ENDTAB
  0
TABLE
  2
BLOCK_RECORD
  5
7466
330
0
100
AcDbSymbolTable
 70
    34
  0
BLOCK_RECORD
  5
747D
330
7466
100
AcDbSymbolTableRecord
100
AcDbBlockTableRecord
  2
*MODEL_SPACE
340
11757
  0
BLOCK_RECORD
  5
747A
330
7466
100
AcDbSymbolTableRecord
100
AcDbBlockTableRecord
  2
*PAPER_SPACE
340
11758
  0
BLOCK_RECORD
  5
F770
330
7466
100
AcDbSymbolTableRecord
100
AcDbBlockTableRecord
  2
_DOTSMALL
340
0
102
{BLKREFS
331
35982
331
35983
331
3598D
331
3598E
331
3599E
331
3599F
331
359A8
331
359A9
331
359B1
331
359B2
331
359BA
331
359BB
331
359C5
331
359C6
331
359CE
331
359CF
331
359D9
331
359DA
331
359E3
331
359E4
331
359EC
331
359ED
331
35A11
331
35A12
331
35A1A
331
35A1B
331
35A23
331
35A24
331
35A33
331
35A34
331
35A3C
331
35A3D
331
35A45
331
35A46
331
35A4E
331
35A4F
331
35A57
331
35A58
331
35A60
331
35A61
331
35A69
331
35A6A
331
35A72
331
35A73
331
35A7B
331
35A7C
331
35A85
331
35A86
331
35A8E
331
35A8F
331
35A98
331
35A99
331
35B69
331
35B6A
102
}
  0
BLOCK_RECORD
  5
2C053
330
7466
100
AcDbSymbolTableRecord
100
AcDbBlockTableRecord
  2
*D1
340
0
  0
BLOCK_RECORD
  5
2C05D
330
7466
100
AcDbSymbolTableRecord
100
AcDbBlockTableRecord
  2
*D2
340
0
  0
BLOCK_RECORD
  5
2C067
330
7466
100
AcDbSymbolTableRecord
100
AcDbBlockTableRecord
  2
*D3
340
0
  0
BLOCK_RECORD
  5
2C071
330
7466
100
AcDbSymbolTableRecord
100
AcDbBlockTableRecord
  2
*D4
340
0
  0
BLOCK_RECORD
  5
2C07B
330
7466
100
AcDbSymbolTableRecord
100
AcDbBlockTableRecord
  2
*D5
340
0
  0
BLOCK_RECORD
  5
2C087
330
7466
100
AcDbSymbolTableRecord
100
AcDbBlockTableRecord
  2
*D6
340
0
  0
BLOCK_RECORD
  5
2C093
330
7466
100
AcDbSymbolTableRecord
100
AcDbBlockTableRecord
  2
*D7
340
0
  0
BLOCK_RECORD
  5
2C09F
330
7466
100
AcDbSymbolTableRecord
100
AcDbBlockTableRecord
  2
*D8
340
0
  0
BLOCK_RECORD
  5
2C0A9
330
7466
100
AcDbSymbolTableRecord
100
AcDbBlockTableRecord
  2
*D9
340
0
  0
BLOCK_RECORD
  5
2C0B5
330
7466
100
AcDbSymbolTableRecord
100
AcDbBlockTableRecord
  2
*D10
340
0
  0
BLOCK_RECORD
  5
2C0C1
330
7466
100
AcDbSymbolTableRecord
100
AcDbBlockTableRecord
  2
*D11
340
0
  0
BLOCK_RECORD
  5
2C0CD
330
7466
100
AcDbSymbolTableRecord
100
AcDbBlockTableRecord
  2
*D12
340
0
  0
BLOCK_RECORD
  5
2C0D9
330
7466
100
AcDbSymbolTableRecord
100
AcDbBlockTableRecord
  2
*D13
340
0
  0
BLOCK_RECORD
  5
2C0E5
330
7466
100
AcDbSymbolTableRecord
100
AcDbBlockTableRecord
  2
*D14
340
0
  0
BLOCK_RECORD
  5
2C0F1
330
7466
100
AcDbSymbolTableRecord
100
AcDbBlockTableRecord
  2
*D15
340
0
  0
BLOCK_RECORD
  5
2C0FD
330
7466
100
AcDbSymbolTableRecord
100
AcDbBlockTableRecord
  2
*D16
340
0
  0
BLOCK_RECORD
  5
2C109
330
7466
100
AcDbSymbolTableRecord
100
AcDbBlockTableRecord
  2
*D17
340
0
  0
BLOCK_RECORD
  5
2C13B
330
7466
100
AcDbSymbolTableRecord
100
AcDbBlockTableRecord
  2
*D18
340
0
  0
BLOCK_RECORD
  5
2C148
330
7466
100
AcDbSymbolTableRecord
100
AcDbBlockTableRecord
  2
*D19
340
0
  0
BLOCK_RECORD
  5
2C154
330
7466
100
AcDbSymbolTableRecord
100
AcDbBlockTableRecord
  2
*D20
340
0
  0
BLOCK_RECORD
  5
2CABD
330
7466
100
AcDbSymbolTableRecord
100
AcDbBlockTableRecord
  2
*D21
340
0
  0
BLOCK_RECORD
  5
34EAC
330
7466
100
AcDbSymbolTableRecord
100
AcDbBlockTableRecord
  2
*D22
340
0
  0
BLOCK_RECORD
  5
34EB9
330
7466
100
AcDbSymbolTableRecord
100
AcDbBlockTableRecord
  2
*D23
340
0
  0
BLOCK_RECORD
  5
34EC6
330
7466
100
AcDbSymbolTableRecord
100
AcDbBlockTableRecord
  2
*D24
340
0
  0
BLOCK_RECORD
  5
34ED2
330
7466
100
AcDbSymbolTableRecord
100
AcDbBlockTableRecord
  2
*D25
340
0
  0
BLOCK_RECORD
  5
34EDE
330
7466
100
AcDbSymbolTableRecord
100
AcDbBlockTableRecord
  2
*D26
340
0
  0
BLOCK_RECORD
  5
34EEC
330
7466
100
AcDbSymbolTableRecord
100
AcDbBlockTableRecord
  2
*D27
340
0
  0
BLOCK_RECORD
  5
34EF8
330
7466
100
AcDbSymbolTableRecord
100
AcDbBlockTableRecord
  2
*D28
340
0
  0
BLOCK_RECORD
  5
34F06
330
7466
100
AcDbSymbolTableRecord
100
AcDbBlockTableRecord
  2
*D29
340
0
  0
BLOCK_RECORD
  5
34F83
330
7466
100
AcDbSymbolTableRecord
100
AcDbBlockTableRecord
  2
*D30
340
0
  0
BLOCK_RECORD
  5
34F8F
330
7466
100
AcDbSymbolTableRecord
100
AcDbBlockTableRecord
  2
*D31
340
0
  0
BLOCK_RECORD
  5
34F9D
330
7466
100
AcDbSymbolTableRecord
100
AcDbBlockTableRecord
  2
*D32
340
0
  0
BLOCK_RECORD
  5
35B51
330
7466
100
AcDbSymbolTableRecord
100
AcDbBlockTableRecord
  2
*D33
340
0
  0
ENDTAB
  0
ENDSEC
  0
SECTION
  2
BLOCKS
  0
BLOCK
  5
7489
330
747D
100
AcDbEntity
  8
0
100
AcDbBlockBegin
  2
*MODEL_SPACE
 70
     0
 10
0.0
 20
0.0
 30
0.0
  3
*MODEL_SPACE
  1

  0
ENDBLK
  5
748A
330
747D
100
AcDbEntity
  8
0
100
AcDbBlockEnd
  0
BLOCK
  5
7487
330
747A
100
AcDbEntity
 67
     1
  8
0
100
AcDbBlockBegin
  2
*PAPER_SPACE
 70
     0
 10
0.0
 20
0.0
 30
0.0
  3
*PAPER_SPACE
  1

  0
ENDBLK
  5
7488
330
747A
100
AcDbEntity
 67
     1
  8
0
100
AcDbBlockEnd
  0
BLOCK
  5
F771
330
F770
100
AcDbEntity
  8
0
 48
50.0
100
AcDbBlockBegin
  2
_DOTSMALL
 70
     0
 10
0.0
 20
0.0
 30
0.0
  3
_DOTSMALL
  1

  0
LWPOLYLINE
  5
F772
330
F770
100
AcDbEntity
  8
0
  6
ByBlock
 62
     0
 48
50.0
100
AcDbPolyline
 90
        2
 70
     1
 43
0.5
 10
-0.0625
 20
0.0
 42
1.0
 10
0.0625
 20
0.0
 42
1.0
  0
ENDBLK
  5
F776
330
F770
100
AcDbEntity
  8
0
 48
50.0
100
AcDbBlockEnd
  0
BLOCK
  5
2C05B
330
2C053
100
AcDbEntity
  8
0
 48
50.0
100
AcDbBlockBegin
  2
*D1
 70
     1
 10
0.0
 20
0.0
 30
0.0
  3
*D1
  1

  0
LINE
  5
359F2
330
2C053
100
AcDbEntity
  8
寸法
 62
     0
 48
50.0
370
    -2
100
AcDbLine
 10
57998.14792223365
 20
-28362.25458377903
 30
0.0
 11
57998.14792223365
 21
-28786.77586709183
 31
0.0
  0
LINE
  5
359F3
330
2C053
100
AcDbEntity
  8
寸法
 62
     0
 48
50.0
370
    -2
100
AcDbLine
 10
57798.14792223365
 20
-28362.25458377903
 30
0.0
 11
57798.14792223365
 21
-28786.77586709183
 31
0.0
  0
LINE
  5
359F4
330
2C053
100
AcDbEntity
  8
寸法
 62
     0
 48
50.0
370
    -2
100
AcDbLine
 10
57998.14792223365
 20
-28741.77586709183
 30
0.0
 11
57798.14792223365
 21
-28741.77586709183
 31
0.0
  0
MTEXT
  5
359F5
330
2C053
100
AcDbEntity
  8
寸法
 62
     7
 48
50.0
100
AcDbMText
 10
57898.14792223364
 20
-28666.76700882412
 30
0.0
 40
90.0
 41
0.0
 71
     5
 72
     1
  1
\A1;200
  7
STYLE1
 73
     1
 44
1.0
1001
ACAD
1000
MTEXTBEGIN
1070
    73
1070
     1
1070
    44
1040
1.0
1070
    74
1070
     0
1000
MTEXTEND
  0
POINT
  5
359F6
330
2C053
100
AcDbEntity
  8
DEFPOINTS
 62
     0
 48
50.0
100
AcDbPoint
 10
57998.14792223365
 20
-28347.25458377903
 30
0.0
  0
POINT
  5
359F7
330
2C053
100
AcDbEntity
  8
DEFPOINTS
 62
     0
 48
50.0
100
AcDbPoint
 10
57798.14792223365
 20
-28347.25458377903
 30
0.0
  0
POINT
  5
359F8
330
2C053
100
AcDbEntity
  8
DEFPOINTS
 62
     0
 48
50.0
100
AcDbPoint
 10
57798.14792223365
 20
-28741.77586709183
 30
0.0
  0
ENDBLK
  5
2C05C
330
2C053
100
AcDbEntity
  8
0
 48
50.0
100
AcDbBlockEnd
  0
BLOCK
  5
2C065
330
2C05D
100
AcDbEntity
  8
0
 48
50.0
100
AcDbBlockBegin
  2
*D2
 70
     1
 10
0.0
 20
0.0
 30
0.0
  3
*D2
  1

  0
LINE
  5
359F9
330
2C05D
100
AcDbEntity
  8
寸法
 62
     0
 48
50.0
370
    -2
100
AcDbLine
 10
58088.14792223365
 20
-28272.25458377903
 30
0.0
 11
58504.73534937122
 21
-28272.25458377903
 31
0.0
  0
LINE
  5
359FA
330
2C05D
100
AcDbEntity
  8
寸法
 62
     0
 48
50.0
370
    -2
100
AcDbLine
 10
58088.14792223365
 20
-28072.25458377903
 30
0.0
 11
58504.73534937122
 21
-28072.25458377903
 31
0.0
  0
LINE
  5
359FB
330
2C05D
100
AcDbEntity
  8
寸法
 62
     0
 48
50.0
370
    -2
100
AcDbLine
 10
58459.73534937122
 20
-28272.25458377903
 30
0.0
 11
58459.73534937122
 21
-28072.25458377903
 31
0.0
  0
MTEXT
  5
359FC
330
2C05D
100
AcDbEntity
  8
寸法
 62
     7
 48
50.0
100
AcDbMText
 10
58384.72649110351
 20
-28172.25458377902
 30
0.0
 40
90.0
 41
0.0
 71
     5
 72
     1
  1
\A1;200
  7
STYLE1
 11
0.0000000000000001
 21
1.0
 31
0.0
 73
     1
 44
1.0
1001
ACAD
1000
MTEXTBEGIN
1070
    73
1070
     1
1070
    44
1040
1.0
1070
    74
1070
     0
1000
MTEXTEND
  0
POINT
  5
359FD
330
2C05D
100
AcDbEntity
  8
DEFPOINTS
 62
     0
 48
50.0
100
AcDbPoint
 10
58073.14792223364
 20
-28272.25458377903
 30
0.0
  0
POINT
  5
359FE
330
2C05D
100
AcDbEntity
  8
DEFPOINTS
 62
     0
 48
50.0
100
AcDbPoint
 10
58073.14792223364
 20
-28072.25458377903
 30
0.0
  0
POINT
  5
359FF
330
2C05D
100
AcDbEntity
  8
DEFPOINTS
 62
     0
 48
50.0
100
AcDbPoint
 10
58459.73534937122
 20
-28072.25458377903
 30
0.0
  0
ENDBLK
  5
2C066
330
2C05D
100
AcDbEntity
  8
0
 48
50.0
100
AcDbBlockEnd
  0
BLOCK
  5
2C06F
330
2C067
100
AcDbEntity
  8
0
 48
50.0
100
AcDbBlockBegin
  2
*D3
 70
     1
 10
0.0
 20
0.0
 30
0.0
  3
*D3
  1

  0
LINE
  5
35A00
330
2C067
100
AcDbEntity
  8
寸法
 62
     0
 48
50.0
370
    -2
100
AcDbLine
 10
58128.14792223361
 20
-30050.25458377903
 30
0.0
 11
58128.14792223361
 21
-30545.74230211556
 31
0.0
  0
LINE
  5
35A01
330
2C067
100
AcDbEntity
  8
寸法
 62
     0
 48
50.0
370
    -2
100
AcDbLine
 10
58298.14792223364
 20
-30187.25458377903
 30
0.0
 11
58298.14792223364
 21
-30545.74230211556
 31
0.0
  0
LINE
  5
35A02
330
2C067
100
AcDbEntity
  8
寸法
 62
     0
 48
50.0
370
    -2
100
AcDbLine
 10
58128.14792223361
 20
-30500.74230211556
 30
0.0
 11
58298.14792223364
 21
-30500.74230211556
 31
0.0
  0
MTEXT
  5
35A03
330
2C067
100
AcDbEntity
  8
寸法
 62
     7
 48
50.0
100
AcDbMText
 10
58213.14792223363
 20
-30425.74230211556
 30
0.0
 40
90.0
 41
0.0
 71
     5
 72
     1
  1
\A1;170
  7
STYLE1
 73
     1
 44
1.0
1001
ACAD
1000
MTEXTBEGIN
1070
    73
1070
     1
1070
    44
1040
1.0
1070
    74
1070
     0
1000
MTEXTEND
  0
POINT
  5
35A04
330
2C067
100
AcDbEntity
  8
DEFPOINTS
 62
     0
 48
50.0
100
AcDbPoint
 10
58128.14792223361
 20
-30035.25458377903
 30
0.0
  0
POINT
  5
35A05
330
2C067
100
AcDbEntity
  8
DEFPOINTS
 62
     0
 48
50.0
100
AcDbPoint
 10
58298.14792223364
 20
-30172.25458377903
 30
0.0
  0
POINT
  5
35A06
330
2C067
100
AcDbEntity
  8
DEFPOINTS
 62
     0
 48
50.0
100
AcDbPoint
 10
58298.14792223364
 20
-30500.74230211556
 30
0.0
  0
ENDBLK
  5
2C070
330
2C067
100
AcDbEntity
  8
0
 48
50.0
100
AcDbBlockEnd
  0
BLOCK
  5
2C079
330
2C071
100
AcDbEntity
  8
0
 48
50.0
100
AcDbBlockBegin
  2
*D4
 70
     1
 10
0.0
 20
0.0
 30
0.0
  3
*D4
  1

  0
LINE
  5
35A07
330
2C071
100
AcDbEntity
  8
寸法
 62
     0
 48
50.0
370
    -2
100
AcDbLine
 10
52068.14792223369
 20
-30050.25458377903
 30
0.0
 11
52068.14792223369
 21
-30545.74230211556
 31
0.0
  0
LINE
  5
35A08
330
2C071
100
AcDbEntity
  8
寸法
 62
     0
 48
50.0
370
    -2
100
AcDbLine
 10
51898.14792223365
 20
-30187.25458377903
 30
0.0
 11
51898.14792223365
 21
-30545.74230211556
 31
0.0
  0
LINE
  5
35A09
330
2C071
100
AcDbEntity
  8
寸法
 62
     0
 48
50.0
370
    -2
100
AcDbLine
 10
52068.14792223369
 20
-30500.74230211556
 30
0.0
 11
51898.14792223365
 21
-30500.74230211556
 31
0.0
  0
MTEXT
  5
35A0A
330
2C071
100
AcDbEntity
  8
寸法
 62
     7
 48
50.0
100
AcDbMText
 10
51983.14792223367
 20
-30425.74230211556
 30
0.0
 40
90.0
 41
0.0
 71
     5
 72
     1
  1
\A1;170
  7
STYLE1
 73
     1
 44
1.0
1001
ACAD
1000
MTEXTBEGIN
1070
    73
1070
     1
1070
    44
1040
1.0
1070
    74
1070
     0
1000
MTEXTEND
  0
POINT
  5
35A0B
330
2C071
100
AcDbEntity
  8
DEFPOINTS
 62
     0
 48
50.0
100
AcDbPoint
 10
52068.14792223369
 20
-30035.25458377903
 30
0.0
  0
POINT
  5
35A0C
330
2C071
100
AcDbEntity
  8
DEFPOINTS
 62
     0
 48
50.0
100
AcDbPoint
 10
51898.14792223365
 20
-30172.25458377903
 30
0.0
  0
POINT
  5
35A0D
330
2C071
100
AcDbEntity
  8
DEFPOINTS
 62
     0
 48
50.0
100
AcDbPoint
 10
51898.14792223365
 20
-30500.74230211556
 30
0.0
  0
ENDBLK
  5
2C07A
330
2C071
100
AcDbEntity
  8
0
 48
50.0
100
AcDbBlockEnd
  0
BLOCK
  5
2C085
330
2C07B
100
AcDbEntity
  8
0
 48
50.0
100
AcDbBlockBegin
  2
*D5
 70
     1
 10
0.0
 20
0.0
 30
0.0
  3
*D5
  1

  0
LINE
  5
35A0E
330
2C07B
100
AcDbEntity
  8
寸法
 62
     0
 48
50.0
370
    -2
100
AcDbLine
 10
52068.14792223369
 20
-30050.25458377903
 30
0.0
 11
52068.14792223369
 21
-30545.74230211556
 31
0.0
  0
LINE
  5
35A0F
330
2C07B
100
AcDbEntity
  8
寸法
 62
     0
 48
50.0
370
    -2
100
AcDbLine
 10
58128.14792223361
 20
-30050.25458377903
 30
0.0
 11
58128.14792223361
 21
-30545.74230211556
 31
0.0
  0
LINE
  5
35A10
330
2C07B
100
AcDbEntity
  8
寸法
 62
     0
 48
50.0
370
    -2
100
AcDbLine
 10
52068.14792223369
 20
-30500.74230211556
 30
0.0
 11
58128.14792223361
 21
-30500.74230211556
 31
0.0
  0
INSERT
  5
35A11
330
2C07B
100
AcDbEntity
  8
寸法
 62
     0
 48
50.0
370
    -2
100
AcDbBlockReference
  2
_DOTSMALL
 10
52068.14792223369
 20
-30500.74230211556
 30
0.0
 41
75.0
 42
75.0
 43
75.0
 50
180.0
  0
INSERT
  5
35A12
330
2C07B
100
AcDbEntity
  8
寸法
 62
     0
 48
50.0
370
    -2
100
AcDbBlockReference
  2
_DOTSMALL
 10
58128.14792223361
 20
-30500.74230211556
 30
0.0
 41
75.0
 42
75.0
 43
75.0
  0
MTEXT
  5
35A13
330
2C07B
100
AcDbEntity
  8
寸法
 62
     7
 48
50.0
100
AcDbMText
 10
55098.14792223365
 20
-30425.74230211556
 30
0.0
 40
90.0
 41
0.0
 71
     5
 72
     1
  1
\A1;屋根寸法 6060
  7
STYLE1
 73
     1
 44
1.0
1001
ACAD
1000
MTEXTBEGIN
1070
    73
1070
     1
1070
    44
1040
1.0
1070
    74
1070
     0
1000
MTEXTEND
  0
POINT
  5
35A14
330
2C07B
100
AcDbEntity
  8
DEFPOINTS
 62
     0
 48
50.0
100
AcDbPoint
 10
52068.14792223369
 20
-30035.25458377903
 30
0.0
  0
POINT
  5
35A15
330
2C07B
100
AcDbEntity
  8
DEFPOINTS
 62
     0
 48
50.0
100
AcDbPoint
 10
58128.14792223361
 20
-30035.25458377903
 30
0.0
  0
POINT
  5
35A16
330
2C07B
100
AcDbEntity
  8
DEFPOINTS
 62
     0
 48
50.0
100
AcDbPoint
 10
58128.14792223361
 20
-30500.74230211556
 30
0.0
  0
ENDBLK
  5
2C086
330
2C07B
100
AcDbEntity
  8
0
 48
50.0
100
AcDbBlockEnd
  0
BLOCK
  5
2C091
330
2C087
100
AcDbEntity
  8
0
 48
50.0
100
AcDbBlockBegin
  2
*D6
 70
     1
 10
0.0
 20
0.0
 30
0.0
  3
*D6
  1

  0
LINE
  5
35A17
330
2C087
100
AcDbEntity
  8
寸法
 62
     0
 48
50.0
370
    -2
100
AcDbLine
 10
51883.14792223365
 20
-27972.25458377903
 30
0.0
 11
51289.52672350596
 21
-27972.25458377903
 31
0.0
  0
LINE
  5
35A18
330
2C087
100
AcDbEntity
  8
寸法
 62
     0
 48
50.0
370
    -2
100
AcDbLine
 10
51883.14792223365
 20
-30172.25458377903
 30
0.0
 11
51289.52672350596
 21
-30172.25458377903
 31
0.0
  0
LINE
  5
35A19
330
2C087
100
AcDbEntity
  8
寸法
 62
     0
 48
50.0
370
    -2
100
AcDbLine
 10
51334.52672350595
 20
-27972.25458377903
 30
0.0
 11
51334.52672350595
 21
-30172.25458377903
 31
0.0
  0
INSERT
  5
35A1A
330
2C087
100
AcDbEntity
  8
寸法
 62
     0
 48
50.0
370
    -2
100
AcDbBlockReference
  2
_DOTSMALL
 10
51334.52672350595
 20
-27972.25458377903
 30
0.0
 41
75.0
 42
75.0
 43
75.0
 50
90.0
  0
INSERT
  5
35A1B
330
2C087
100
AcDbEntity
  8
寸法
 62
     0
 48
50.0
370
    -2
100
AcDbBlockReference
  2
_DOTSMALL
 10
51334.52672350595
 20
-30172.25458377903
 30
0.0
 41
75.0
 42
75.0
 43
75.0
 50
270.0
  0
MTEXT
  5
35A1C
330
2C087
100
AcDbEntity
  8
寸法
 62
     7
 48
50.0
100
AcDbMText
 10
51259.51786523824
 20
-29072.25458377902
 30
0.0
 40
90.0
 41
0.0
 71
     5
 72
     1
  1
\A1;基礎土間寸法 2200
  7
STYLE1
 11
0.0000000000000001
 21
1.0
 31
0.0
 73
     1
 44
1.0
1001
ACAD
1000
MTEXTBEGIN
1070
    73
1070
     1
1070
    44
1040
1.0
1070
    74
1070
     0
1000
MTEXTEND
  0
POINT
  5
35A1D
330
2C087
100
AcDbEntity
  8
DEFPOINTS
 62
     0
 48
50.0
100
AcDbPoint
 10
51898.14792223365
 20
-27972.25458377903
 30
0.0
  0
POINT
  5
35A1E
330
2C087
100
AcDbEntity
  8
DEFPOINTS
 62
     0
 48
50.0
100
AcDbPoint
 10
51898.14792223365
 20
-30172.25458377903
 30
0.0
  0
POINT
  5
35A1F
330
2C087
100
AcDbEntity
  8
DEFPOINTS
 62
     0
 48
50.0
100
AcDbPoint
 10
51334.52672350595
 20
-30172.25458377903
 30
0.0
  0
ENDBLK
  5
2C092
330
2C087
100
AcDbEntity
  8
0
 48
50.0
100
AcDbBlockEnd
  0
BLOCK
  5
2C09D
330
2C093
100
AcDbEntity
  8
0
 48
50.0
100
AcDbBlockBegin
  2
*D7
 70
     1
 10
0.0
 20
0.0
 30
0.0
  3
*D7
  1

  0
LINE
  5
35A20
330
2C093
100
AcDbEntity
  8
寸法
 62
     0
 48
50.0
370
    -2
100
AcDbLine
 10
52033.14792223364
 20
-28172.25458377903
 30
0.0
 11
51512.27608552241
 21
-28172.25458377903
 31
0.0
  0
LINE
  5
35A21
330
2C093
100
AcDbEntity
  8
寸法
 62
     0
 48
50.0
370
    -2
100
AcDbLine
 10
51883.14792223365
 20
-30172.25458377903
 30
0.0
 11
51512.27608552241
 21
-30172.25458377903
 31
0.0
  0
LINE
  5
35A22
330
2C093
100
AcDbEntity
  8
寸法
 62
     0
 48
50.0
370
    -2
100
AcDbLine
 10
51557.27608552242
 20
-28172.25458377903
 30
0.0
 11
51557.27608552242
 21
-30172.25458377903
 31
0.0
  0
INSERT
  5
35A23
330
2C093
100
AcDbEntity
  8
寸法
 62
     0
 48
50.0
370
    -2
100
AcDbBlockReference
  2
_DOTSMALL
 10
51557.27608552242
 20
-28172.25458377903
 30
0.0
 41
75.0
 42
75.0
 43
75.0
 50
90.0
  0
INSERT
  5
35A24
330
2C093
100
AcDbEntity
  8
寸法
 62
     0
 48
50.0
370
    -2
100
AcDbBlockReference
  2
_DOTSMALL
 10
51557.27608552242
 20
-30172.25458377903
 30
0.0
 41
75.0
 42
75.0
 43
75.0
 50
270.0
  0
MTEXT
  5
35A25
330
2C093
100
AcDbEntity
  8
寸法
 62
     7
 48
50.0
100
AcDbMText
 10
51482.2672272547
 20
-29172.25458377902
 30
0.0
 40
90.0
 41
0.0
 71
     5
 72
     1
  1
\A1;2000
  7
STYLE1
 11
0.0000000000000001
 21
1.0
 31
0.0
 73
     1
 44
1.0
1001
ACAD
1000
MTEXTBEGIN
1070
    73
1070
     1
1070
    44
1040
1.0
1070
    74
1070
     0
1000
MTEXTEND
  0
POINT
  5
35A26
330
2C093
100
AcDbEntity
  8
DEFPOINTS
 62
     0
 48
50.0
100
AcDbPoint
 10
52048.14792223364
 20
-28172.25458377903
 30
0.0
  0
POINT
  5
35A27
330
2C093
100
AcDbEntity
  8
DEFPOINTS
 62
     0
 48
50.0
100
AcDbPoint
 10
51898.14792223365
 20
-30172.25458377903
 30
0.0
  0
POINT
  5
35A28
330
2C093
100
AcDbEntity
  8
DEFPOINTS
 62
     0
 48
50.0
100
AcDbPoint
 10
51557.27608552242
 20
-30172.25458377903
 30
0.0
  0
ENDBLK
  5
2C09E
330
2C093
100
AcDbEntity
  8
0
 48
50.0
100
AcDbBlockEnd
  0
BLOCK
  5
2C0A7
330
2C09F
100
AcDbEntity
  8
0
 48
50.0
100
AcDbBlockBegin
  2
*D8
 70
     1
 10
0.0
 20
0.0
 30
0.0
  3
*D8
  1

  0
LINE
  5
35A29
330
2C09F
100
AcDbEntity
  8
寸法
 62
     0
 48
50.0
370
    -2
100
AcDbLine
 10
51883.14792223365
 20
-27972.25458377903
 30
0.0
 11
51512.27608552241
 21
-27972.25458377903
 31
0.0
  0
LINE
  5
35A2A
330
2C09F
100
AcDbEntity
  8
寸法
 62
     0
 48
50.0
370
    -2
100
AcDbLine
 10
52033.14792223364
 20
-28172.25458377903
 30
0.0
 11
51512.27608552241
 21
-28172.25458377903
 31
0.0
  0
LINE
  5
35A2B
330
2C09F
100
AcDbEntity
  8
寸法
 62
     0
 48
50.0
370
    -2
100
AcDbLine
 10
51557.27608552242
 20
-27972.25458377903
 30
0.0
 11
51557.27608552242
 21
-28172.25458377903
 31
0.0
  0
MTEXT
  5
35A2C
330
2C09F
100
AcDbEntity
  8
寸法
 62
     7
 48
50.0
100
AcDbMText
 10
51482.2672272547
 20
-28072.25458377902
 30
0.0
 40
90.0
 41
0.0
 71
     5
 72
     1
  1
\A1;200
  7
STYLE1
 11
0.0000000000000001
 21
1.0
 31
0.0
 73
     1
 44
1.0
1001
ACAD
1000
MTEXTBEGIN
1070
    73
1070
     1
1070
    44
1040
1.0
1070
    74
1070
     0
1000
MTEXTEND
  0
POINT
  5
35A2D
330
2C09F
100
AcDbEntity
  8
DEFPOINTS
 62
     0
 48
50.0
100
AcDbPoint
 10
51898.14792223365
 20
-27972.25458377903
 30
0.0
  0
POINT
  5
35A2E
330
2C09F
100
AcDbEntity
  8
DEFPOINTS
 62
     0
 48
50.0
100
AcDbPoint
 10
52048.14792223364
 20
-28172.25458377903
 30
0.0
  0
POINT
  5
35A2F
330
2C09F
100
AcDbEntity
  8
DEFPOINTS
 62
     0
 48
50.0
100
AcDbPoint
 10
51557.27608552242
 20
-28172.25458377903
 30
0.0
  0
ENDBLK
  5
2C0A8
330
2C09F
100
AcDbEntity
  8
0
 48
50.0
100
AcDbBlockEnd
  0
BLOCK
  5
2C0B3
330
2C0A9
100
AcDbEntity
  8
0
 48
50.0
100
AcDbBlockBegin
  2
*D9
 70
     1
 10
0.0
 20
0.0
 30
0.0
  3
*D9
  1

  0
LINE
  5
35A30
330
2C0A9
100
AcDbEntity
  8
寸法
 62
     0
 48
50.0
370
    -2
100
AcDbLine
 10
57483.14792223364
 20
-27872.25458377903
 30
0.0
 11
57275.83341894947
 21
-27872.25458377903
 31
0.0
  0
LINE
  5
35A31
330
2C0A9
100
AcDbEntity
  8
寸法
 62
     0
 48
50.0
370
    -2
100
AcDbLine
 10
57483.14792223364
 20
-28172.25458377903
 30
0.0
 11
57275.83341894947
 21
-28172.25458377902
 31
0.0
  0
LINE
  5
35A32
330
2C0A9
100
AcDbEntity
  8
寸法
 62
     0
 48
50.0
370
    -2
100
AcDbLine
 10
57320.83341894947
 20
-27872.25458377903
 30
0.0
 11
57320.83341894947
 21
-28172.25458377902
 31
0.0
  0
INSERT
  5
35A33
330
2C0A9
100
AcDbEntity
  8
寸法
 62
     0
 48
50.0
370
    -2
100
AcDbBlockReference
  2
_DOTSMALL
 10
57320.83341894947
 20
-27872.25458377903
 30
0.0
 41
75.0
 42
75.0
 43
75.0
 50
90.0
  0
INSERT
  5
35A34
330
2C0A9
100
AcDbEntity
  8
寸法
 62
     0
 48
50.0
370
    -2
100
AcDbBlockReference
  2
_DOTSMALL
 10
57320.83341894947
 20
-28172.25458377902
 30
0.0
 41
75.0
 42
75.0
 43
75.0
 50
270.0
  0
MTEXT
  5
35A35
330
2C0A9
100
AcDbEntity
  8
寸法
 62
     7
 48
50.0
100
AcDbMText
 10
57245.83341894947
 20
-28022.25458377902
 30
0.0
 40
90.0
 41
0.0
 71
     5
 72
     1
  1
\A1;300
  7
STYLE1
 11
0.0000000000000001
 21
1.0
 31
0.0
 73
     1
 44
1.0
1001
ACAD
1000
MTEXTBEGIN
1070
    73
1070
     1
1070
    44
1040
1.0
1070
    74
1070
     0
1000
MTEXTEND
  0
POINT
  5
35A36
330
2C0A9
100
AcDbEntity
  8
DEFPOINTS
 62
     0
 48
50.0
100
AcDbPoint
 10
57498.14792223364
 20
-27872.25458377903
 30
0.0
  0
POINT
  5
35A37
330
2C0A9
100
AcDbEntity
  8
DEFPOINTS
 62
     0
 48
50.0
100
AcDbPoint
 10
57498.14792223364
 20
-28172.25458377903
 30
0.0
  0
POINT
  5
35A38
330
2C0A9
100
AcDbEntity
  8
DEFPOINTS
 62
     0
 48
50.0
100
AcDbPoint
 10
57320.83341894947
 20
-28172.25458377902
 30
0.0
  0
ENDBLK
  5
2C0B4
330
2C0A9
100
AcDbEntity
  8
0
 48
50.0
100
AcDbBlockEnd
  0
BLOCK
  5
2C0BF
330
2C0B5
100
AcDbEntity
  8
0
 48
50.0
100
AcDbBlockBegin
  2
*D10
 70
     1
 10
0.0
 20
0.0
 30
0.0
  3
*D10
  1

  0
LINE
  5
35A39
330
2C0B5
100
AcDbEntity
  8
寸法
 62
     0
 48
50.0
370
    -2
100
AcDbLine
 10
57483.14792223364
 20
-28172.25458377903
 30
0.0
 11
57275.83341894946
 21
-28172.25458377902
 31
0.0
  0
LINE
  5
35A3A
330
2C0B5
100
AcDbEntity
  8
寸法
 62
     0
 48
50.0
370
    -2
100
AcDbLine
 10
57483.14792223364
 20
-28972.25458377903
 30
0.0
 11
57275.83341894946
 21
-28972.25458377902
 31
0.0
  0
LINE
  5
35A3B
330
2C0B5
100
AcDbEntity
  8
寸法
 62
     0
 48
50.0
370
    -2
100
AcDbLine
 10
57320.83341894946
 20
-28172.25458377902
 30
0.0
 11
57320.83341894946
 21
-28972.25458377902
 31
0.0
  0
INSERT
  5
35A3C
330
2C0B5
100
AcDbEntity
  8
寸法
 62
     0
 48
50.0
370
    -2
100
AcDbBlockReference
  2
_DOTSMALL
 10
57320.83341894946
 20
-28172.25458377902
 30
0.0
 41
75.0
 42
75.0
 43
75.0
 50
90.0
  0
INSERT
  5
35A3D
330
2C0B5
100
AcDbEntity
  8
寸法
 62
     0
 48
50.0
370
    -2
100
AcDbBlockReference
  2
_DOTSMALL
 10
57320.83341894946
 20
-28972.25458377902
 30
0.0
 41
75.0
 42
75.0
 43
75.0
 50
270.0
  0
MTEXT
  5
35A3E
330
2C0B5
100
AcDbEntity
  8
寸法
 62
     7
 48
50.0
100
AcDbMText
 10
57245.83341894946
 20
-28572.25458377902
 30
0.0
 40
90.0
 41
0.0
 71
     5
 72
     1
  1
\A1;800
  7
STYLE1
 11
0.0000000000000001
 21
1.0
 31
0.0
 73
     1
 44
1.0
1001
ACAD
1000
MTEXTBEGIN
1070
    73
1070
     1
1070
    44
1040
1.0
1070
    74
1070
     0
1000
MTEXTEND
  0
POINT
  5
35A3F
330
2C0B5
100
AcDbEntity
  8
DEFPOINTS
 62
     0
 48
50.0
100
AcDbPoint
 10
57498.14792223364
 20
-28172.25458377903
 30
0.0
  0
POINT
  5
35A40
330
2C0B5
100
AcDbEntity
  8
DEFPOINTS
 62
     0
 48
50.0
100
AcDbPoint
 10
57498.14792223364
 20
-28972.25458377903
 30
0.0
  0
POINT
  5
35A41
330
2C0B5
100
AcDbEntity
  8
DEFPOINTS
 62
     0
 48
50.0
100
AcDbPoint
 10
57320.83341894946
 20
-28972.25458377902
 30
0.0
  0
ENDBLK
  5
2C0C0
330
2C0B5
100
AcDbEntity
  8
0
 48
50.0
100
AcDbBlockEnd
  0
BLOCK
  5
2C0CB
330
2C0C1
100
AcDbEntity
  8
0
 48
50.0
100
AcDbBlockBegin
  2
*D11
 70
     1
 10
0.0
 20
0.0
 30
0.0
  3
*D11
  1

  0
LINE
  5
35A42
330
2C0C1
100
AcDbEntity
  8
寸法
 62
     0
 48
50.0
370
    -2
100
AcDbLine
 10
57483.14792223364
 20
-27872.25458377903
 30
0.0
 11
57098.51891566529
 21
-27872.25458377903
 31
0.0
  0
LINE
  5
35A43
330
2C0C1
100
AcDbEntity
  8
寸法
 62
     0
 48
50.0
370
    -2
100
AcDbLine
 10
57483.14792223364
 20
-28972.25458377903
 30
0.0
 11
57098.51891566529
 21
-28972.25458377902
 31
0.0
  0
LINE
  5
35A44
330
2C0C1
100
AcDbEntity
  8
寸法
 62
     0
 48
50.0
370
    -2
100
AcDbLine
 10
57143.51891566529
 20
-27872.25458377903
 30
0.0
 11
57143.51891566529
 21
-28972.25458377902
 31
0.0
  0
INSERT
  5
35A45
330
2C0C1
100
AcDbEntity
  8
寸法
 62
     0
 48
50.0
370
    -2
100
AcDbBlockReference
  2
_DOTSMALL
 10
57143.51891566529
 20
-27872.25458377903
 30
0.0
 41
75.0
 42
75.0
 43
75.0
 50
90.0
  0
INSERT
  5
35A46
330
2C0C1
100
AcDbEntity
  8
寸法
 62
     0
 48
50.0
370
    -2
100
AcDbBlockReference
  2
_DOTSMALL
 10
57143.51891566529
 20
-28972.25458377902
 30
0.0
 41
75.0
 42
75.0
 43
75.0
 50
270.0
  0
MTEXT
  5
35A47
330
2C0C1
100
AcDbEntity
  8
寸法
 62
     7
 48
50.0
100
AcDbMText
 10
57068.5189156653
 20
-28422.25458377902
 30
0.0
 40
90.0
 41
0.0
 71
     5
 72
     1
  1
\A1;1100
  7
STYLE1
 11
0.0000000000000001
 21
1.0
 31
0.0
 73
     1
 44
1.0
1001
ACAD
1000
MTEXTBEGIN
1070
    73
1070
     1
1070
    44
1040
1.0
1070
    74
1070
     0
1000
MTEXTEND
  0
POINT
  5
35A48
330
2C0C1
100
AcDbEntity
  8
DEFPOINTS
 62
     0
 48
50.0
100
AcDbPoint
 10
57498.14792223364
 20
-27872.25458377903
 30
0.0
  0
POINT
  5
35A49
330
2C0C1
100
AcDbEntity
  8
DEFPOINTS
 62
     0
 48
50.0
100
AcDbPoint
 10
57498.14792223364
 20
-28972.25458377903
 30
0.0
  0
POINT
  5
35A4A
330
2C0C1
100
AcDbEntity
  8
DEFPOINTS
 62
     0
 48
50.0
100
AcDbPoint
 10
57143.51891566529
 20
-28972.25458377902
 30
0.0
  0
ENDBLK
  5
2C0CC
330
2C0C1
100
AcDbEntity
  8
0
 48
50.0
100
AcDbBlockEnd
  0
BLOCK
  5
2C0D7
330
2C0CD
100
AcDbEntity
  8
0
 48
50.0
100
AcDbBlockBegin
  2
*D12
 70
     1
 10
0.0
 20
0.0
 30
0.0
  3
*D12
  1

  0
LINE
  5
35A4B
330
2C0CD
100
AcDbEntity
  8
寸法
 62
     0
 48
50.0
370
    -2
100
AcDbLine
 10
57898.14792223364
 20
-28437.25458377903
 30
0.0
 11
57898.14792223364
 21
-29255.39079981612
 31
0.0
  0
LINE
  5
35A4C
330
2C0CD
100
AcDbEntity
  8
寸法
 62
     0
 48
50.0
370
    -2
100
AcDbLine
 10
57498.14792223364
 20
-28987.25458377903
 30
0.0
 11
57498.14792223364
 21
-29255.39079981612
 31
0.0
  0
LINE
  5
35A4D
330
2C0CD
100
AcDbEntity
  8
寸法
 62
     0
 48
50.0
370
    -2
100
AcDbLine
 10
57898.14792223364
 20
-29210.39079981612
 30
0.0
 11
57498.14792223364
 21
-29210.39079981612
 31
0.0
  0
INSERT
  5
35A4E
330
2C0CD
100
AcDbEntity
  8
寸法
 62
     0
 48
50.0
370
    -2
100
AcDbBlockReference
  2
_DOTSMALL
 10
57898.14792223364
 20
-29210.39079981612
 30
0.0
 41
75.0
 42
75.0
 43
75.0
  0
INSERT
  5
35A4F
330
2C0CD
100
AcDbEntity
  8
寸法
 62
     0
 48
50.0
370
    -2
100
AcDbBlockReference
  2
_DOTSMALL
 10
57498.14792223364
 20
-29210.39079981612
 30
0.0
 41
75.0
 42
75.0
 43
75.0
 50
180.0
  0
MTEXT
  5
35A50
330
2C0CD
100
AcDbEntity
  8
寸法
 62
     7
 48
50.0
100
AcDbMText
 10
57698.14792223365
 20
-29135.39079981612
 30
0.0
 40
90.0
 41
0.0
 71
     5
 72
     1
  1
\A1;400
  7
STYLE1
 73
     1
 44
1.0
1001
ACAD
1000
MTEXTBEGIN
1070
    73
1070
     1
1070
    44
1040
1.0
1070
    74
1070
     0
1000
MTEXTEND
  0
POINT
  5
35A51
330
2C0CD
100
AcDbEntity
  8
DEFPOINTS
 62
     0
 48
50.0
100
AcDbPoint
 10
57898.14792223364
 20
-28422.25458377903
 30
0.0
  0
POINT
  5
35A52
330
2C0CD
100
AcDbEntity
  8
DEFPOINTS
 62
     0
 48
50.0
100
AcDbPoint
 10
57498.14792223364
 20
-28972.25458377903
 30
0.0
  0
POINT
  5
35A53
330
2C0CD
100
AcDbEntity
  8
DEFPOINTS
 62
     0
 48
50.0
100
AcDbPoint
 10
57498.14792223364
 20
-29210.39079981612
 30
0.0
  0
ENDBLK
  5
2C0D8
330
2C0CD
100
AcDbEntity
  8
0
 48
50.0
100
AcDbBlockEnd
  0
BLOCK
  5
2C0E3
330
2C0D9
100
AcDbEntity
  8
0
 48
50.0
100
AcDbBlockBegin
  2
*D13
 70
     1
 10
0.0
 20
0.0
 30
0.0
  3
*D13
  1

  0
LINE
  5
35A54
330
2C0D9
100
AcDbEntity
  8
寸法
 62
     0
 48
50.0
370
    -2
100
AcDbLine
 10
57498.14792223364
 20
-28987.25458377903
 30
0.0
 11
57498.14792223364
 21
-29493.5270158532
 31
0.0
  0
LINE
  5
35A55
330
2C0D9
100
AcDbEntity
  8
寸法
 62
     0
 48
50.0
370
    -2
100
AcDbLine
 10
58298.14792223364
 20
-28987.25458377903
 30
0.0
 11
58298.14792223364
 21
-29493.5270158532
 31
0.0
  0
LINE
  5
35A56
330
2C0D9
100
AcDbEntity
  8
寸法
 62
     0
 48
50.0
370
    -2
100
AcDbLine
 10
57498.14792223364
 20
-29448.5270158532
 30
0.0
 11
58298.14792223364
 21
-29448.5270158532
 31
0.0
  0
INSERT
  5
35A57
330
2C0D9
100
AcDbEntity
  8
寸法
 62
     0
 48
50.0
370
    -2
100
AcDbBlockReference
  2
_DOTSMALL
 10
57498.14792223364
 20
-29448.5270158532
 30
0.0
 41
75.0
 42
75.0
 43
75.0
 50
180.0
  0
INSERT
  5
35A58
330
2C0D9
100
AcDbEntity
  8
寸法
 62
     0
 48
50.0
370
    -2
100
AcDbBlockReference
  2
_DOTSMALL
 10
58298.14792223364
 20
-29448.5270158532
 30
0.0
 41
75.0
 42
75.0
 43
75.0
  0
MTEXT
  5
35A59
330
2C0D9
100
AcDbEntity
  8
寸法
 62
     7
 48
50.0
100
AcDbMText
 10
57898.14792223364
 20
-29373.5270158532
 30
0.0
 40
90.0
 41
0.0
 71
     5
 72
     1
  1
\A1;800
  7
STYLE1
 73
     1
 44
1.0
1001
ACAD
1000
MTEXTBEGIN
1070
    73
1070
     1
1070
    44
1040
1.0
1070
    74
1070
     0
1000
MTEXTEND
  0
POINT
  5
35A5A
330
2C0D9
100
AcDbEntity
  8
DEFPOINTS
 62
     0
 48
50.0
100
AcDbPoint
 10
57498.14792223364
 20
-28972.25458377903
 30
0.0
  0
POINT
  5
35A5B
330
2C0D9
100
AcDbEntity
  8
DEFPOINTS
 62
     0
 48
50.0
100
AcDbPoint
 10
58298.14792223364
 20
-28972.25458377903
 30
0.0
  0
POINT
  5
35A5C
330
2C0D9
100
AcDbEntity
  8
DEFPOINTS
 62
     0
 48
50.0
100
AcDbPoint
 10
58298.14792223364
 20
-29448.5270158532
 30
0.0
  0
ENDBLK
  5
2C0E4
330
2C0D9
100
AcDbEntity
  8
0
 48
50.0
100
AcDbBlockEnd
  0
BLOCK
  5
2C0EF
330
2C0E5
100
AcDbEntity
  8
0
 48
50.0
100
AcDbBlockBegin
  2
*D14
 70
     1
 10
0.0
 20
0.0
 30
0.0
  3
*D14
  1

  0
LINE
  5
35A5D
330
2C0E5
100
AcDbEntity
  8
寸法
 62
     0
 48
50.0
370
    -2
100
AcDbLine
 10
51898.14792223365
 20
-27857.25458377905
 30
0.0
 11
51898.14792223365
 21
-27517.80228964793
 31
0.0
  0
LINE
  5
35A5E
330
2C0E5
100
AcDbEntity
  8
寸法
 62
     0
 48
50.0
370
    -2
100
AcDbLine
 10
52298.14792223365
 20
-27907.25458377903
 30
0.0
 11
52298.14792223365
 21
-27517.80228964793
 31
0.0
  0
LINE
  5
35A5F
330
2C0E5
100
AcDbEntity
  8
寸法
 62
     0
 48
50.0
370
    -2
100
AcDbLine
 10
51898.14792223365
 20
-27562.80228964793
 30
0.0
 11
52298.14792223365
 21
-27562.80228964793
 31
0.0
  0
INSERT
  5
35A60
330
2C0E5
100
AcDbEntity
  8
寸法
 62
     0
 48
50.0
370
    -2
100
AcDbBlockReference
  2
_DOTSMALL
 10
51898.14792223365
 20
-27562.80228964793
 30
0.0
 41
75.0
 42
75.0
 43
75.0
 50
180.0
  0
INSERT
  5
35A61
330
2C0E5
100
AcDbEntity
  8
寸法
 62
     0
 48
50.0
370
    -2
100
AcDbBlockReference
  2
_DOTSMALL
 10
52298.14792223365
 20
-27562.80228964793
 30
0.0
 41
75.0
 42
75.0
 43
75.0
  0
MTEXT
  5
35A62
330
2C0E5
100
AcDbEntity
  8
寸法
 62
     7
 48
50.0
100
AcDbMText
 10
52098.14792223364
 20
-27487.80228964793
 30
0.0
 40
90.0
 41
0.0
 71
     5
 72
     1
  1
\A1;400
  7
STYLE1
 73
     1
 44
1.0
1001
ACAD
1000
MTEXTBEGIN
1070
    73
1070
     1
1070
    44
1040
1.0
1070
    74
1070
     0
1000
MTEXTEND
  0
POINT
  5
35A63
330
2C0E5
100
AcDbEntity
  8
DEFPOINTS
 62
     0
 48
50.0
100
AcDbPoint
 10
51898.14792223365
 20
-27872.25458377905
 30
0.0
  0
POINT
  5
35A64
330
2C0E5
100
AcDbEntity
  8
DEFPOINTS
 62
     0
 48
50.0
100
AcDbPoint
 10
52298.14792223365
 20
-27922.25458377903
 30
0.0
  0
POINT
  5
35A65
330
2C0E5
100
AcDbEntity
  8
DEFPOINTS
 62
     0
 48
50.0
100
AcDbPoint
 10
52298.14792223365
 20
-27562.80228964793
 30
0.0
  0
ENDBLK
  5
2C0F0
330
2C0E5
100
AcDbEntity
  8
0
 48
50.0
100
AcDbBlockEnd
  0
BLOCK
  5
2C0FB
330
2C0F1
100
AcDbEntity
  8
0
 48
50.0
100
AcDbBlockBegin
  2
*D15
 70
     1
 10
0.0
 20
0.0
 30
0.0
  3
*D15
  1

  0
LINE
  5
35A66
330
2C0F1
100
AcDbEntity
  8
寸法
 62
     0
 48
50.0
370
    -2
100
AcDbLine
 10
51898.14792223365
 20
-27857.25458377904
 30
0.0
 11
51898.14792223365
 21
-27323.76525067361
 31
0.0
  0
LINE
  5
35A67
330
2C0F1
100
AcDbEntity
  8
寸法
 62
     0
 48
50.0
370
    -2
100
AcDbLine
 10
58298.14792223364
 20
-27857.25458377904
 30
0.0
 11
58298.14792223364
 21
-27323.76525067361
 31
0.0
  0
LINE
  5
35A68
330
2C0F1
100
AcDbEntity
  8
寸法
 62
     0
 48
50.0
370
    -2
100
AcDbLine
 10
51898.14792223365
 20
-27368.76525067361
 30
0.0
 11
58298.14792223364
 21
-27368.76525067361
 31
0.0
  0
INSERT
  5
35A69
330
2C0F1
100
AcDbEntity
  8
寸法
 62
     0
 48
50.0
370
    -2
100
AcDbBlockReference
  2
_DOTSMALL
 10
51898.14792223365
 20
-27368.76525067361
 30
0.0
 41
75.0
 42
75.0
 43
75.0
 50
180.0
  0
INSERT
  5
35A6A
330
2C0F1
100
AcDbEntity
  8
寸法
 62
     0
 48
50.0
370
    -2
100
AcDbBlockReference
  2
_DOTSMALL
 10
58298.14792223364
 20
-27368.76525067361
 30
0.0
 41
75.0
 42
75.0
 43
75.0
  0
MTEXT
  5
35A6B
330
2C0F1
100
AcDbEntity
  8
寸法
 62
     7
 48
50.0
100
AcDbMText
 10
55098.14792223365
 20
-27293.76525067361
 30
0.0
 40
90.0
 41
0.0
 71
     5
 72
     1
  1
\A1;基礎土間寸法 6400
  7
STYLE1
 73
     1
 44
1.0
1001
ACAD
1000
MTEXTBEGIN
1070
    73
1070
     1
1070
    44
1040
1.0
1070
    74
1070
     0
1000
MTEXTEND
  0
POINT
  5
35A6C
330
2C0F1
100
AcDbEntity
  8
DEFPOINTS
 62
     0
 48
50.0
100
AcDbPoint
 10
51898.14792223365
 20
-27872.25458377904
 30
0.0
  0
POINT
  5
35A6D
330
2C0F1
100
AcDbEntity
  8
DEFPOINTS
 62
     0
 48
50.0
100
AcDbPoint
 10
58298.14792223364
 20
-27872.25458377904
 30
0.0
  0
POINT
  5
35A6E
330
2C0F1
100
AcDbEntity
  8
DEFPOINTS
 62
     0
 48
50.0
100
AcDbPoint
 10
58298.14792223364
 20
-27368.76525067361
 30
0.0
  0
ENDBLK
  5
2C0FC
330
2C0F1
100
AcDbEntity
  8
0
 48
50.0
100
AcDbBlockEnd
  0
BLOCK
  5
2C107
330
2C0FD
100
AcDbEntity
  8
0
 48
50.0
100
AcDbBlockBegin
  2
*D16
 70
     1
 10
0.0
 20
0.0
 30
0.0
  3
*D16
  1

  0
LINE
  5
35A6F
330
2C0FD
100
AcDbEntity
  8
寸法
 62
     0
 48
50.0
370
    -2
100
AcDbLine
 10
57898.14792223364
 20
-27907.25458377903
 30
0.0
 11
57898.14792223364
 21
-27517.80228964793
 31
0.0
  0
LINE
  5
35A70
330
2C0FD
100
AcDbEntity
  8
寸法
 62
     0
 48
50.0
370
    -2
100
AcDbLine
 10
58298.14792223364
 20
-27857.25458377904
 30
0.0
 11
58298.14792223364
 21
-27517.80228964793
 31
0.0
  0
LINE
  5
35A71
330
2C0FD
100
AcDbEntity
  8
寸法
 62
     0
 48
50.0
370
    -2
100
AcDbLine
 10
57898.14792223364
 20
-27562.80228964793
 30
0.0
 11
58298.14792223364
 21
-27562.80228964793
 31
0.0
  0
INSERT
  5
35A72
330
2C0FD
100
AcDbEntity
  8
寸法
 62
     0
 48
50.0
370
    -2
100
AcDbBlockReference
  2
_DOTSMALL
 10
57898.14792223364
 20
-27562.80228964793
 30
0.0
 41
75.0
 42
75.0
 43
75.0
 50
180.0
  0
INSERT
  5
35A73
330
2C0FD
100
AcDbEntity
  8
寸法
 62
     0
 48
50.0
370
    -2
100
AcDbBlockReference
  2
_DOTSMALL
 10
58298.14792223364
 20
-27562.80228964793
 30
0.0
 41
75.0
 42
75.0
 43
75.0
  0
MTEXT
  5
35A74
330
2C0FD
100
AcDbEntity
  8
寸法
 62
     7
 48
50.0
100
AcDbMText
 10
58098.14792223365
 20
-27487.80228964793
 30
0.0
 40
90.0
 41
0.0
 71
     5
 72
     1
  1
\A1;400
  7
STYLE1
 73
     1
 44
1.0
1001
ACAD
1000
MTEXTBEGIN
1070
    73
1070
     1
1070
    44
1040
1.0
1070
    74
1070
     0
1000
MTEXTEND
  0
POINT
  5
35A75
330
2C0FD
100
AcDbEntity
  8
DEFPOINTS
 62
     0
 48
50.0
100
AcDbPoint
 10
57898.14792223364
 20
-27922.25458377903
 30
0.0
  0
POINT
  5
35A76
330
2C0FD
100
AcDbEntity
  8
DEFPOINTS
 62
     0
 48
50.0
100
AcDbPoint
 10
58298.14792223364
 20
-27872.25458377904
 30
0.0
  0
POINT
  5
35A77
330
2C0FD
100
AcDbEntity
  8
DEFPOINTS
 62
     0
 48
50.0
100
AcDbPoint
 10
58298.14792223364
 20
-27562.80228964793
 30
0.0
  0
ENDBLK
  5
2C108
330
2C0FD
100
AcDbEntity
  8
0
 48
50.0
100
AcDbBlockEnd
  0
BLOCK
  5
2C113
330
2C109
100
AcDbEntity
  8
0
 48
50.0
100
AcDbBlockBegin
  2
*D17
 70
     1
 10
0.0
 20
0.0
 30
0.0
  3
*D17
  1

  0
LINE
  5
35A78
330
2C109
100
AcDbEntity
  8
寸法
 62
     0
 48
50.0
370
    -2
100
AcDbLine
 10
52298.14792223365
 20
-27907.25458377903
 30
0.0
 11
52298.14792223365
 21
-27517.80228964793
 31
0.0
  0
LINE
  5
35A79
330
2C109
100
AcDbEntity
  8
寸法
 62
     0
 48
50.0
370
    -2
100
AcDbLine
 10
55098.14792223365
 20
-27907.25458377903
 30
0.0
 11
55098.14792223365
 21
-27517.80228964793
 31
0.0
  0
LINE
  5
35A7A
330
2C109
100
AcDbEntity
  8
寸法
 62
     0
 48
50.0
370
    -2
100
AcDbLine
 10
52298.14792223365
 20
-27562.80228964793
 30
0.0
 11
55098.14792223365
 21
-27562.80228964793
 31
0.0
  0
INSERT
  5
35A7B
330
2C109
100
AcDbEntity
  8
寸法
 62
     0
 48
50.0
370
    -2
100
AcDbBlockReference
  2
_DOTSMALL
 10
52298.14792223365
 20
-27562.80228964793
 30
0.0
 41
75.0
 42
75.0
 43
75.0
 50
180.0
  0
INSERT
  5
35A7C
330
2C109
100
AcDbEntity
  8
寸法
 62
     0
 48
50.0
370
    -2
100
AcDbBlockReference
  2
_DOTSMALL
 10
55098.14792223365
 20
-27562.80228964793
 30
0.0
 41
75.0
 42
75.0
 43
75.0
  0
MTEXT
  5
35A7D
330
2C109
100
AcDbEntity
  8
寸法
 62
     7
 48
50.0
100
AcDbMText
 10
53698.14792223364
 20
-27487.79343138021
 30
0.0
 40
90.0
 41
0.0
 71
     5
 72
     1
  1
\A1;2800
  7
STYLE1
 73
     1
 44
1.0
1001
ACAD
1000
MTEXTBEGIN
1070
    73
1070
     1
1070
    44
1040
1.0
1070
    74
1070
     0
1000
MTEXTEND
  0
POINT
  5
35A7E
330
2C109
100
AcDbEntity
  8
DEFPOINTS
 62
     0
 48
50.0
100
AcDbPoint
 10
52298.14792223365
 20
-27922.25458377903
 30
0.0
  0
POINT
  5
35A7F
330
2C109
100
AcDbEntity
  8
DEFPOINTS
 62
     0
 48
50.0
100
AcDbPoint
 10
55098.14792223365
 20
-27922.25458377903
 30
0.0
  0
POINT
  5
35A80
330
2C109
100
AcDbEntity
  8
DEFPOINTS
 62
     0
 48
50.0
100
AcDbPoint
 10
55098.14792223365
 20
-27562.80228964793
 30
0.0
  0
ENDBLK
  5
2C114
330
2C109
100
AcDbEntity
  8
0
 48
50.0
100
AcDbBlockEnd
  0
BLOCK
  5
2C146
330
2C13B
100
AcDbEntity
  8
0
 48
50.0
100
AcDbBlockBegin
  2
*D18
 70
     1
 10
0.0
 20
0.0
 30
0.0
  3
*D18
  1

  0
LINE
  5
35A81
330
2C13B
100
AcDbEntity
  8
寸法
 62
     0
 48
50.0
370
    -2
100
AcDbLine
 10
58143.14792223361
 20
-28015.25458377903
 30
0.0
 11
58725.42214459727
 21
-28015.25458377903
 31
0.0
  0
LINE
  5
35A82
330
2C13B
100
AcDbEntity
  8
寸法
 62
     0
 48
50.0
370
    -2
100
AcDbLine
 10
58313.14792223365
 20
-27872.25458377904
 30
0.0
 11
58725.42214459727
 21
-27872.25458377904
 31
0.0
  0
LINE
  5
35A83
330
2C13B
100
AcDbEntity
  8
寸法
 62
     0
 48
50.0
370
    -2
100
AcDbLine
 10
58680.42214459727
 20
-28015.25458377903
 30
0.0
 11
58680.42214459727
 21
-27872.25458377904
 31
0.0
  0
LINE
  5
35A84
330
2C13B
100
AcDbEntity
  8
寸法
 62
     0
 48
50.0
370
    -2
100
AcDbLine
 10
58680.42214459727
 20
-27872.25458377904
 30
0.0
 11
58680.42214459727
 21
-27580.52666171769
 31
0.0
  0
INSERT
  5
35A85
330
2C13B
100
AcDbEntity
  8
寸法
 62
     0
 48
50.0
370
    -2
100
AcDbBlockReference
  2
_DOTSMALL
 10
58680.42214459727
 20
-28015.25458377903
 30
0.0
 41
75.0
 42
75.0
 43
75.0
 50
270.0
  0
INSERT
  5
35A86
330
2C13B
100
AcDbEntity
  8
寸法
 62
     0
 48
50.0
370
    -2
100
AcDbBlockReference
  2
_DOTSMALL
 10
58680.42214459727
 20
-27872.25458377904
 30
0.0
 41
75.0
 42
75.0
 43
75.0
 50
90.0
  0
MTEXT
  5
35A87
330
2C13B
100
AcDbEntity
  8
寸法
 62
     7
 48
50.0
100
AcDbMText
 10
58605.42214459727
 20
-27688.89062274835
 30
0.0
 40
90.0
 41
0.0
 71
     5
 72
     1
  1
\A1;143
  7
STYLE1
 11
0.0000000000000001
 21
1.0
 31
0.0
 73
     1
 44
1.0
1001
ACAD
1000
MTEXTBEGIN
1070
    73
1070
     1
1070
    44
1040
1.0
1070
    74
1070
     0
1000
MTEXTEND
  0
POINT
  5
35A88
330
2C13B
100
AcDbEntity
  8
DEFPOINTS
 62
     0
 48
50.0
100
AcDbPoint
 10
58128.14792223361
 20
-28015.25458377903
 30
0.0
  0
POINT
  5
35A89
330
2C13B
100
AcDbEntity
  8
DEFPOINTS
 62
     0
 48
50.0
100
AcDbPoint
 10
58298.14792223364
 20
-27872.25458377904
 30
0.0
  0
POINT
  5
35A8A
330
2C13B
100
AcDbEntity
  8
DEFPOINTS
 62
     0
 48
50.0
100
AcDbPoint
 10
58680.42214459727
 20
-27872.25458377904
 30
0.0
  0
ENDBLK
  5
2C147
330
2C13B
100
AcDbEntity
  8
0
 48
50.0
100
AcDbBlockEnd
  0
BLOCK
  5
2C152
330
2C148
100
AcDbEntity
  8
0
 48
50.0
100
AcDbBlockBegin
  2
*D19
 70
     1
 10
0.0
 20
0.0
 30
0.0
  3
*D19
  1

  0
LINE
  5
35A8B
330
2C148
100
AcDbEntity
  8
寸法
 62
     0
 48
50.0
370
    -2
100
AcDbLine
 10
58143.14792223361
 20
-28015.25458377903
 30
0.0
 11
58725.42214459726
 21
-28015.25458377903
 31
0.0
  0
LINE
  5
35A8C
330
2C148
100
AcDbEntity
  8
寸法
 62
     0
 48
50.0
370
    -2
100
AcDbLine
 10
58143.14792223361
 20
-30035.25458377903
 30
0.0
 11
58725.42214459726
 21
-30035.25458377903
 31
0.0
  0
LINE
  5
35A8D
330
2C148
100
AcDbEntity
  8
寸法
 62
     0
 48
50.0
370
    -2
100
AcDbLine
 10
58680.42214459726
 20
-28015.25458377903
 30
0.0
 11
58680.42214459726
 21
-30035.25458377903
 31
0.0
  0
INSERT
  5
35A8E
330
2C148
100
AcDbEntity
  8
寸法
 62
     0
 48
50.0
370
    -2
100
AcDbBlockReference
  2
_DOTSMALL
 10
58680.42214459726
 20
-28015.25458377903
 30
0.0
 41
75.0
 42
75.0
 43
75.0
 50
90.0
  0
INSERT
  5
35A8F
330
2C148
100
AcDbEntity
  8
寸法
 62
     0
 48
50.0
370
    -2
100
AcDbBlockReference
  2
_DOTSMALL
 10
58680.42214459726
 20
-30035.25458377903
 30
0.0
 41
75.0
 42
75.0
 43
75.0
 50
270.0
  0
MTEXT
  5
35A90
330
2C148
100
AcDbEntity
  8
寸法
 62
     7
 48
50.0
100
AcDbMText
 10
58605.41328632955
 20
-29025.25458377903
 30
0.0
 40
90.0
 41
0.0
 71
     5
 72
     1
  1
\A1;屋根寸法 2020
  7
STYLE1
 11
0.0000000000000001
 21
1.0
 31
0.0
 73
     1
 44
1.0
1001
ACAD
1000
MTEXTBEGIN
1070
    73
1070
     1
1070
    44
1040
1.0
1070
    74
1070
     0
1000
MTEXTEND
  0
POINT
  5
35A91
330
2C148
100
AcDbEntity
  8
DEFPOINTS
 62
     0
 48
50.0
100
AcDbPoint
 10
58128.14792223361
 20
-28015.25458377903
 30
0.0
  0
POINT
  5
35A92
330
2C148
100
AcDbEntity
  8
DEFPOINTS
 62
     0
 48
50.0
100
AcDbPoint
 10
58128.14792223361
 20
-30035.25458377903
 30
0.0
  0
POINT
  5
35A93
330
2C148
100
AcDbEntity
  8
DEFPOINTS
 62
     0
 48
50.0
100
AcDbPoint
 10
58680.42214459726
 20
-30035.25458377903
 30
0.0
  0
ENDBLK
  5
2C153
330
2C148
100
AcDbEntity
  8
0
 48
50.0
100
AcDbBlockEnd
  0
BLOCK
  5
2C15F
330
2C154
100
AcDbEntity
  8
0
 48
50.0
100
AcDbBlockBegin
  2
*D20
 70
     1
 10
0.0
 20
0.0
 30
0.0
  3
*D20
  1

  0
LINE
  5
35A94
330
2C154
100
AcDbEntity
  8
寸法
 62
     0
 48
50.0
370
    -2
100
AcDbLine
 10
58143.14792223361
 20
-30035.25458377903
 30
0.0
 11
58725.42214459725
 21
-30035.25458377903
 31
0.0
  0
LINE
  5
35A95
330
2C154
100
AcDbEntity
  8
寸法
 62
     0
 48
50.0
370
    -2
100
AcDbLine
 10
58313.14792223365
 20
-30172.25458377903
 30
0.0
 11
58725.42214459725
 21
-30172.25458377903
 31
0.0
  0
LINE
  5
35A96
330
2C154
100
AcDbEntity
  8
寸法
 62
     0
 48
50.0
370
    -2
100
AcDbLine
 10
58680.42214459726
 20
-30035.25458377903
 30
0.0
 11
58680.42214459726
 21
-30172.25458377903
 31
0.0
  0
LINE
  5
35A97
330
2C154
100
AcDbEntity
  8
寸法
 62
     0
 48
50.0
370
    -2
100
AcDbLine
 10
58680.42214459726
 20
-30172.25458377903
 30
0.0
 11
58680.42214459726
 21
-30451.25458377905
 31
0.0
  0
INSERT
  5
35A98
330
2C154
100
AcDbEntity
  8
寸法
 62
     0
 48
50.0
370
    -2
100
AcDbBlockReference
  2
_DOTSMALL
 10
58680.42214459726
 20
-30035.25458377903
 30
0.0
 41
75.0
 42
75.0
 43
75.0
 50
90.0
  0
INSERT
  5
35A99
330
2C154
100
AcDbEntity
  8
寸法
 62
     0
 48
50.0
370
    -2
100
AcDbBlockReference
  2
_DOTSMALL
 10
58680.42214459726
 20
-30172.25458377903
 30
0.0
 41
75.0
 42
75.0
 43
75.0
 50
270.0
  0
MTEXT
  5
35A9A
330
2C154
100
AcDbEntity
  8
寸法
 62
     7
 48
50.0
100
AcDbMText
 10
58605.42214459727
 20
-30349.25458377903
 30
0.0
 40
90.0
 41
0.0
 71
     5
 72
     1
  1
\A1;137
  7
STYLE1
 11
0.0000000000000001
 21
1.0
 31
0.0
 73
     1
 44
1.0
1001
ACAD
1000
MTEXTBEGIN
1070
    73
1070
     1
1070
    44
1040
1.0
1070
    74
1070
     0
1000
MTEXTEND
  0
POINT
  5
35A9B
330
2C154
100
AcDbEntity
  8
DEFPOINTS
 62
     0
 48
50.0
100
AcDbPoint
 10
58128.14792223361
 20
-30035.25458377903
 30
0.0
  0
POINT
  5
35A9C
330
2C154
100
AcDbEntity
  8
DEFPOINTS
 62
     0
 48
50.0
100
AcDbPoint
 10
58298.14792223364
 20
-30172.25458377903
 30
0.0
  0
POINT
  5
35A9D
330
2C154
100
AcDbEntity
  8
DEFPOINTS
 62
     0
 48
50.0
100
AcDbPoint
 10
58680.42214459726
 20
-30172.25458377903
 30
0.0
  0
ENDBLK
  5
2C160
330
2C154
100
AcDbEntity
  8
0
 48
50.0
100
AcDbBlockEnd
  0
BLOCK
  5
2CAC7
330
2CABD
100
AcDbEntity
  8
0
 48
50.0
100
AcDbBlockBegin
  2
*D21
 70
     1
 10
0.0
 20
0.0
 30
0.0
  3
*D21
  1

  0
LINE
  5
359E9
330
2CABD
100
AcDbEntity
  8
寸法
 62
     0
 48
50.0
370
    -2
100
AcDbLine
 10
55098.14792223365
 20
-27907.25458377903
 30
0.0
 11
55098.14792223365
 21
-27517.80228964793
 31
0.0
  0
LINE
  5
359EA
330
2CABD
100
AcDbEntity
  8
寸法
 62
     0
 48
50.0
370
    -2
100
AcDbLine
 10
57898.14792223364
 20
-27907.25458377903
 30
0.0
 11
57898.14792223364
 21
-27517.80228964793
 31
0.0
  0
LINE
  5
359EB
330
2CABD
100
AcDbEntity
  8
寸法
 62
     0
 48
50.0
370
    -2
100
AcDbLine
 10
55098.14792223365
 20
-27562.80228964793
 30
0.0
 11
57898.14792223364
 21
-27562.80228964793
 31
0.0
  0
INSERT
  5
359EC
330
2CABD
100
AcDbEntity
  8
寸法
 62
     0
 48
50.0
370
    -2
100
AcDbBlockReference
  2
_DOTSMALL
 10
55098.14792223365
 20
-27562.80228964793
 30
0.0
 41
75.0
 42
75.0
 43
75.0
 50
180.0
  0
INSERT
  5
359ED
330
2CABD
100
AcDbEntity
  8
寸法
 62
     0
 48
50.0
370
    -2
100
AcDbBlockReference
  2
_DOTSMALL
 10
57898.14792223364
 20
-27562.80228964793
 30
0.0
 41
75.0
 42
75.0
 43
75.0
  0
MTEXT
  5
359EE
330
2CABD
100
AcDbEntity
  8
寸法
 62
     7
 48
50.0
100
AcDbMText
 10
56498.14792223365
 20
-27487.79343138021
 30
0.0
 40
90.0
 41
0.0
 71
     5
 72
     1
  1
\A1;2800
  7
STYLE1
 73
     1
 44
1.0
1001
ACAD
1000
MTEXTBEGIN
1070
    73
1070
     1
1070
    44
1040
1.0
1070
    74
1070
     0
1000
MTEXTEND
  0
POINT
  5
359EF
330
2CABD
100
AcDbEntity
  8
DEFPOINTS
 62
     0
 48
50.0
100
AcDbPoint
 10
55098.14792223365
 20
-27922.25458377903
 30
0.0
  0
POINT
  5
359F0
330
2CABD
100
AcDbEntity
  8
DEFPOINTS
 62
     0
 48
50.0
100
AcDbPoint
 10
57898.14792223364
 20
-27922.25458377903
 30
0.0
  0
POINT
  5
359F1
330
2CABD
100
AcDbEntity
  8
DEFPOINTS
 62
     0
 48
50.0
100
AcDbPoint
 10
57898.14792223364
 20
-27562.80228964793
 30
0.0
  0
ENDBLK
  5
2CAC8
330
2CABD
100
AcDbEntity
  8
0
 48
50.0
100
AcDbBlockEnd
  0
BLOCK
  5
34EB7
330
34EAC
100
AcDbEntity
  8
0
 48
50.0
100
AcDbBlockBegin
  2
*D22
 70
     1
 10
0.0
 20
0.0
 30
0.0
  3
*D22
  1

  0
LINE
  5
3599A
330
34EAC
100
AcDbEntity
  8
寸法
 62
     0
 48
50.0
370
    -2
100
AcDbLine
 10
59557.19959151005
 20
-29075.46022470092
 30
0.0
 11
59376.61846440815
 21
-29075.46022470092
 31
0.0
  0
LINE
  5
3599B
330
34EAC
100
AcDbEntity
  8
寸法
 62
     0
 48
50.0
370
    -2
100
AcDbLine
 10
59557.19959151005
 20
-28975.46022470093
 30
0.0
 11
59376.61846440815
 21
-28975.46022470093
 31
0.0
  0
LINE
  5
3599C
330
34EAC
100
AcDbEntity
  8
寸法
 62
     0
 48
50.0
370
    -2
100
AcDbLine
 10
59421.61846440815
 20
-29075.46022470092
 30
0.0
 11
59421.61846440815
 21
-28975.46022470093
 31
0.0
  0
LINE
  5
3599D
330
34EAC
100
AcDbEntity
  8
寸法
 62
     0
 48
50.0
370
    -2
100
AcDbLine
 10
59421.61846440815
 20
-28975.46022470093
 30
0.0
 11
59421.61846440815
 21
-28696.38935855919
 31
0.0
  0
INSERT
  5
3599E
330
34EAC
100
AcDbEntity
  8
寸法
 62
     0
 48
50.0
370
    -2
100
AcDbBlockReference
  2
_DOTSMALL
 10
59421.61846440815
 20
-29075.46022470092
 30
0.0
 41
75.0
 42
75.0
 43
75.0
 50
270.0
  0
INSERT
  5
3599F
330
34EAC
100
AcDbEntity
  8
寸法
 62
     0
 48
50.0
370
    -2
100
AcDbBlockReference
  2
_DOTSMALL
 10
59421.61846440815
 20
-28975.46022470093
 30
0.0
 41
75.0
 42
75.0
 43
75.0
 50
90.0
  0
MTEXT
  5
359A0
330
34EAC
100
AcDbEntity
  8
寸法
 62
     7
 48
50.0
100
AcDbMText
 10
59346.61846440816
 20
-28798.42479163005
 30
0.0
 40
90.0
 41
0.0
 71
     5
 72
     1
  1
\A1;100
  7
STYLE1
 11
0.0000000000000001
 21
1.0
 31
0.0
 73
     1
 44
1.0
1001
ACAD
1000
MTEXTBEGIN
1070
    73
1070
     1
1070
    44
1040
1.0
1070
    74
1070
     0
1000
MTEXTEND
  0
POINT
  5
359A1
330
34EAC
100
AcDbEntity
  8
DEFPOINTS
 62
     0
 48
50.0
100
AcDbPoint
 10
59572.19959151005
 20
-29075.46022470092
 30
0.0
  0
POINT
  5
359A2
330
34EAC
100
AcDbEntity
  8
DEFPOINTS
 62
     0
 48
50.0
100
AcDbPoint
 10
59572.19959151005
 20
-28975.46022470093
 30
0.0
  0
POINT
  5
359A3
330
34EAC
100
AcDbEntity
  8
DEFPOINTS
 62
     0
 48
50.0
100
AcDbPoint
 10
59421.61846440815
 20
-28975.46022470093
 30
0.0
  0
ENDBLK
  5
34EB8
330
34EAC
100
AcDbEntity
  8
0
 48
50.0
100
AcDbBlockEnd
  0
BLOCK
  5
34EC4
330
34EB9
100
AcDbEntity
  8
0
 48
50.0
100
AcDbBlockBegin
  2
*D23
 70
     1
 10
0.0
 20
0.0
 30
0.0
  3
*D23
  1

  0
LINE
  5
359A4
330
34EB9
100
AcDbEntity
  8
寸法
 62
     0
 48
50.0
370
    -2
100
AcDbLine
 10
59557.19959151005
 20
-29075.46022470092
 30
0.0
 11
59376.61846440815
 21
-29075.46022470092
 31
0.0
  0
LINE
  5
359A5
330
34EB9
100
AcDbEntity
  8
寸法
 62
     0
 48
50.0
370
    -2
100
AcDbLine
 10
59557.19959151005
 20
-29175.46022470093
 30
0.0
 11
59376.61846440815
 21
-29175.46022470093
 31
0.0
  0
LINE
  5
359A6
330
34EB9
100
AcDbEntity
  8
寸法
 62
     0
 48
50.0
370
    -2
100
AcDbLine
 10
59421.61846440815
 20
-29075.46022470092
 30
0.0
 11
59421.61846440815
 21
-29175.46022470093
 31
0.0
  0
LINE
  5
359A7
330
34EB9
100
AcDbEntity
  8
寸法
 62
     0
 48
50.0
370
    -2
100
AcDbLine
 10
59421.61846440815
 20
-29175.46022470093
 30
0.0
 11
59421.61846440815
 21
-29454.53109084266
 31
0.0
  0
INSERT
  5
359A8
330
34EB9
100
AcDbEntity
  8
寸法
 62
     0
 48
50.0
370
    -2
100
AcDbBlockReference
  2
_DOTSMALL
 10
59421.61846440815
 20
-29075.46022470092
 30
0.0
 41
75.0
 42
75.0
 43
75.0
 50
90.0
  0
INSERT
  5
359A9
330
34EB9
100
AcDbEntity
  8
寸法
 62
     0
 48
50.0
370
    -2
100
AcDbBlockReference
  2
_DOTSMALL
 10
59421.61846440815
 20
-29175.46022470093
 30
0.0
 41
75.0
 42
75.0
 43
75.0
 50
270.0
  0
MTEXT
  5
359AA
330
34EB9
100
AcDbEntity
  8
寸法
 62
     7
 48
50.0
100
AcDbMText
 10
59346.61846440816
 20
-29352.49565777178
 30
0.0
 40
90.0
 41
0.0
 71
     5
 72
     1
  1
\A1;100
  7
STYLE1
 11
0.0000000000000001
 21
1.0
 31
0.0
 73
     1
 44
1.0
1001
ACAD
1000
MTEXTBEGIN
1070
    73
1070
     1
1070
    44
1040
1.0
1070
    74
1070
     0
1000
MTEXTEND
  0
POINT
  5
359AB
330
34EB9
100
AcDbEntity
  8
DEFPOINTS
 62
     0
 48
50.0
100
AcDbPoint
 10
59572.19959151005
 20
-29075.46022470092
 30
0.0
  0
POINT
  5
359AC
330
34EB9
100
AcDbEntity
  8
DEFPOINTS
 62
     0
 48
50.0
100
AcDbPoint
 10
59572.19959151005
 20
-29175.46022470093
 30
0.0
  0
POINT
  5
359AD
330
34EB9
100
AcDbEntity
  8
DEFPOINTS
 62
     0
 48
50.0
100
AcDbPoint
 10
59421.61846440815
 20
-29175.46022470093
 30
0.0
  0
ENDBLK
  5
34EC5
330
34EB9
100
AcDbEntity
  8
0
 48
50.0
100
AcDbBlockEnd
  0
BLOCK
  5
34ED0
330
34EC6
100
AcDbEntity
  8
0
 48
50.0
100
AcDbBlockBegin
  2
*D24
 70
     1
 10
0.0
 20
0.0
 30
0.0
  3
*D24
  1

  0
LINE
  5
359AE
330
34EC6
100
AcDbEntity
  8
寸法
 62
     0
 48
50.0
370
    -2
100
AcDbLine
 10
60874.31540260973
 20
-29211.51805653079
 30
0.0
 11
60874.31540260973
 21
-30112.07685434497
 31
0.0
  0
LINE
  5
359AF
330
34EC6
100
AcDbEntity
  8
寸法
 62
     0
 48
50.0
370
    -2
100
AcDbLine
 10
61174.31540260971
 20
-29640.46022470093
 30
0.0
 11
61174.31540260971
 21
-30112.07685434497
 31
0.0
  0
LINE
  5
359B0
330
34EC6
100
AcDbEntity
  8
寸法
 62
     0
 48
50.0
370
    -2
100
AcDbLine
 10
60874.31540260973
 20
-30067.07685434497
 30
0.0
 11
61174.31540260971
 21
-30067.07685434497
 31
0.0
  0
INSERT
  5
359B1
330
34EC6
100
AcDbEntity
  8
寸法
 62
     0
 48
50.0
370
    -2
100
AcDbBlockReference
  2
_DOTSMALL
 10
60874.31540260973
 20
-30067.07685434497
 30
0.0
 41
75.0
 42
75.0
 43
75.0
 50
180.0
  0
INSERT
  5
359B2
330
34EC6
100
AcDbEntity
  8
寸法
 62
     0
 48
50.0
370
    -2
100
AcDbBlockReference
  2
_DOTSMALL
 10
61174.31540260971
 20
-30067.07685434497
 30
0.0
 41
75.0
 42
75.0
 43
75.0
  0
MTEXT
  5
359B3
330
34EC6
100
AcDbEntity
  8
寸法
 62
     7
 48
50.0
100
AcDbMText
 10
61024.31540260973
 20
-29992.07685434497
 30
0.0
 40
90.0
 41
0.0
 71
     5
 72
     1
  1
\A1;300
  7
STYLE1
 73
     1
 44
1.0
1001
ACAD
1000
MTEXTBEGIN
1070
    73
1070
     1
1070
    44
1040
1.0
1070
    74
1070
     0
1000
MTEXTEND
  0
POINT
  5
359B4
330
34EC6
100
AcDbEntity
  8
DEFPOINTS
 62
     0
 48
50.0
100
AcDbPoint
 10
60874.31540260973
 20
-29196.51805653079
 30
0.0
  0
POINT
  5
359B5
330
34EC6
100
AcDbEntity
  8
DEFPOINTS
 62
     0
 48
50.0
100
AcDbPoint
 10
61174.31540260971
 20
-29625.46022470093
 30
0.0
  0
POINT
  5
359B6
330
34EC6
100
AcDbEntity
  8
DEFPOINTS
 62
     0
 48
50.0
100
AcDbPoint
 10
61174.31540260971
 20
-30067.07685434497
 30
0.0
  0
ENDBLK
  5
34ED1
330
34EC6
100
AcDbEntity
  8
0
 48
50.0
100
AcDbBlockEnd
  0
BLOCK
  5
34EDC
330
34ED2
100
AcDbEntity
  8
0
 48
50.0
100
AcDbBlockBegin
  2
*D25
 70
     1
 10
0.0
 20
0.0
 30
0.0
  3
*D25
  1

  0
LINE
  5
359B7
330
34ED2
100
AcDbEntity
  8
寸法
 62
     0
 48
50.0
370
    -2
100
AcDbLine
 10
60074.31540260973
 20
-29640.46022470093
 30
0.0
 11
60074.31540260973
 21
-30112.07685434497
 31
0.0
  0
LINE
  5
359B8
330
34ED2
100
AcDbEntity
  8
寸法
 62
     0
 48
50.0
370
    -2
100
AcDbLine
 10
60874.31540260973
 20
-29211.51805653079
 30
0.0
 11
60874.31540260973
 21
-30112.07685434497
 31
0.0
  0
LINE
  5
359B9
330
34ED2
100
AcDbEntity
  8
寸法
 62
     0
 48
50.0
370
    -2
100
AcDbLine
 10
60074.31540260973
 20
-30067.07685434497
 30
0.0
 11
60874.31540260973
 21
-30067.07685434497
 31
0.0
  0
INSERT
  5
359BA
330
34ED2
100
AcDbEntity
  8
寸法
 62
     0
 48
50.0
370
    -2
100
AcDbBlockReference
  2
_DOTSMALL
 10
60074.31540260973
 20
-30067.07685434497
 30
0.0
 41
75.0
 42
75.0
 43
75.0
 50
180.0
  0
INSERT
  5
359BB
330
34ED2
100
AcDbEntity
  8
寸法
 62
     0
 48
50.0
370
    -2
100
AcDbBlockReference
  2
_DOTSMALL
 10
60874.31540260973
 20
-30067.07685434497
 30
0.0
 41
75.0
 42
75.0
 43
75.0
  0
MTEXT
  5
359BC
330
34ED2
100
AcDbEntity
  8
寸法
 62
     7
 48
50.0
100
AcDbMText
 10
60474.31540260973
 20
-29992.07685434497
 30
0.0
 40
90.0
 41
0.0
 71
     5
 72
     1
  1
\A1;800
  7
STYLE1
 73
     1
 44
1.0
1001
ACAD
1000
MTEXTBEGIN
1070
    73
1070
     1
1070
    44
1040
1.0
1070
    74
1070
     0
1000
MTEXTEND
  0
POINT
  5
359BD
330
34ED2
100
AcDbEntity
  8
DEFPOINTS
 62
     0
 48
50.0
100
AcDbPoint
 10
60074.31540260973
 20
-29625.46022470093
 30
0.0
  0
POINT
  5
359BE
330
34ED2
100
AcDbEntity
  8
DEFPOINTS
 62
     0
 48
50.0
100
AcDbPoint
 10
60874.31540260973
 20
-29196.51805653079
 30
0.0
  0
POINT
  5
359BF
330
34ED2
100
AcDbEntity
  8
DEFPOINTS
 62
     0
 48
50.0
100
AcDbPoint
 10
60874.31540260973
 20
-30067.07685434497
 30
0.0
  0
ENDBLK
  5
34EDD
330
34ED2
100
AcDbEntity
  8
0
 48
50.0
100
AcDbBlockEnd
  0
BLOCK
  5
34EEA
330
34EDE
100
AcDbEntity
  8
0
 48
50.0
100
AcDbBlockBegin
  2
*D26
 70
     1
 10
0.0
 20
0.0
 30
0.0
  3
*D26
  1

  0
LINE
  5
359C0
330
34EDE
100
AcDbEntity
  8
寸法
 62
     0
 48
50.0
370
    -2
100
AcDbLine
 10
61269.31540260972
 20
-29625.46022470093
 30
0.0
 11
61511.75676721043
 21
-29625.46022470093
 31
0.0
  0
LINE
  5
359C1
330
34EDE
100
AcDbEntity
  8
寸法
 62
     0
 48
50.0
370
    -2
100
AcDbLine
 10
61269.31540260972
 20
-29675.46022470092
 30
0.0
 11
61511.75676721043
 21
-29675.46022470092
 31
0.0
  0
LINE
  5
359C2
330
34EDE
100
AcDbEntity
  8
寸法
 62
     0
 48
50.0
370
    -2
100
AcDbLine
 10
61466.75676721042
 20
-29625.46022470093
 30
0.0
 11
61466.75676721042
 21
-29550.46022470093
 31
0.0
  0
LINE
  5
359C3
330
34EDE
100
AcDbEntity
  8
寸法
 62
     0
 48
50.0
370
    -2
100
AcDbLine
 10
61466.75676721042
 20
-29675.46022470092
 30
0.0
 11
61466.75676721042
 21
-29987.55471288991
 31
0.0
  0
LINE
  5
359C4
330
34EDE
100
AcDbEntity
  8
寸法
 62
     0
 48
50.0
370
    -2
100
AcDbLine
 10
61466.75676721042
 20
-29625.46022470093
 30
0.0
 11
61466.75676721042
 21
-29675.46022470092
 31
0.0
  0
INSERT
  5
359C5
330
34EDE
100
AcDbEntity
  8
寸法
 62
     0
 48
50.0
370
    -2
100
AcDbBlockReference
  2
_DOTSMALL
 10
61466.75676721042
 20
-29625.46022470093
 30
0.0
 41
75.0
 42
75.0
 43
75.0
 50
270.0
  0
INSERT
  5
359C6
330
34EDE
100
AcDbEntity
  8
寸法
 62
     0
 48
50.0
370
    -2
100
AcDbBlockReference
  2
_DOTSMALL
 10
61466.75676721042
 20
-29675.46022470092
 30
0.0
 41
75.0
 42
75.0
 43
75.0
 50
90.0
  0
MTEXT
  5
359C7
330
34EDE
100
AcDbEntity
  8
寸法
 62
     7
 48
50.0
100
AcDbMText
 10
61391.75676721043
 20
-29908.01927981904
 30
0.0
 40
90.0
 41
0.0
 71
     5
 72
     1
  1
\A1;50
  7
STYLE1
 11
0.0000000000000001
 21
1.0
 31
0.0
 73
     1
 44
1.0
1001
ACAD
1000
MTEXTBEGIN
1070
    73
1070
     1
1070
    44
1040
1.0
1070
    74
1070
     0
1000
MTEXTEND
  0
POINT
  5
359C8
330
34EDE
100
AcDbEntity
  8
DEFPOINTS
 62
     0
 48
50.0
100
AcDbPoint
 10
61254.31540260972
 20
-29625.46022470093
 30
0.0
  0
POINT
  5
359C9
330
34EDE
100
AcDbEntity
  8
DEFPOINTS
 62
     0
 48
50.0
100
AcDbPoint
 10
61254.31540260972
 20
-29675.46022470092
 30
0.0
  0
POINT
  5
359CA
330
34EDE
100
AcDbEntity
  8
DEFPOINTS
 62
     0
 48
50.0
100
AcDbPoint
 10
61466.75676721042
 20
-29675.46022470092
 30
0.0
  0
ENDBLK
  5
34EEB
330
34EDE
100
AcDbEntity
  8
0
 48
50.0
100
AcDbBlockEnd
  0
BLOCK
  5
34EF6
330
34EEC
100
AcDbEntity
  8
0
 48
50.0
100
AcDbBlockBegin
  2
*D27
 70
     1
 10
0.0
 20
0.0
 30
0.0
  3
*D27
  1

  0
LINE
  5
359CB
330
34EEC
100
AcDbEntity
  8
寸法
 62
     0
 48
50.0
370
    -2
100
AcDbLine
 10
61174.31540260971
 20
-29640.46022470093
 30
0.0
 11
61174.31540260971
 21
-30342.16241543371
 31
0.0
  0
LINE
  5
359CC
330
34EEC
100
AcDbEntity
  8
寸法
 62
     0
 48
50.0
370
    -2
100
AcDbLine
 10
60074.31540260973
 20
-29640.46022470093
 30
0.0
 11
60074.31540260973
 21
-30342.16241543371
 31
0.0
  0
LINE
  5
359CD
330
34EEC
100
AcDbEntity
  8
寸法
 62
     0
 48
50.0
370
    -2
100
AcDbLine
 10
61174.31540260971
 20
-30297.16241543371
 30
0.0
 11
60074.31540260973
 21
-30297.16241543371
 31
0.0
  0
INSERT
  5
359CE
330
34EEC
100
AcDbEntity
  8
寸法
 62
     0
 48
50.0
370
    -2
100
AcDbBlockReference
  2
_DOTSMALL
 10
61174.31540260971
 20
-30297.16241543371
 30
0.0
 41
75.0
 42
75.0
 43
75.0
  0
INSERT
  5
359CF
330
34EEC
100
AcDbEntity
  8
寸法
 62
     0
 48
50.0
370
    -2
100
AcDbBlockReference
  2
_DOTSMALL
 10
60074.31540260973
 20
-30297.16241543371
 30
0.0
 41
75.0
 42
75.0
 43
75.0
 50
180.0
  0
MTEXT
  5
359D0
330
34EEC
100
AcDbEntity
  8
寸法
 62
     7
 48
50.0
100
AcDbMText
 10
60624.31540260972
 20
-30222.16241543371
 30
0.0
 40
90.0
 41
0.0
 71
     5
 72
     1
  1
\A1;1100
  7
STYLE1
 73
     1
 44
1.0
1001
ACAD
1000
MTEXTBEGIN
1070
    73
1070
     1
1070
    44
1040
1.0
1070
    74
1070
     0
1000
MTEXTEND
  0
POINT
  5
359D1
330
34EEC
100
AcDbEntity
  8
DEFPOINTS
 62
     0
 48
50.0
100
AcDbPoint
 10
61174.31540260971
 20
-29625.46022470093
 30
0.0
  0
POINT
  5
359D2
330
34EEC
100
AcDbEntity
  8
DEFPOINTS
 62
     0
 48
50.0
100
AcDbPoint
 10
60074.31540260973
 20
-29625.46022470093
 30
0.0
  0
POINT
  5
359D3
330
34EEC
100
AcDbEntity
  8
DEFPOINTS
 62
     0
 48
50.0
100
AcDbPoint
 10
60074.31540260973
 20
-30297.16241543371
 30
0.0
  0
ENDBLK
  5
34EF7
330
34EEC
100
AcDbEntity
  8
0
 48
50.0
100
AcDbBlockEnd
  0
BLOCK
  5
34F04
330
34EF8
100
AcDbEntity
  8
0
 48
50.0
100
AcDbBlockBegin
  2
*D28
 70
     1
 10
0.0
 20
0.0
 30
0.0
  3
*D28
  1

  0
LINE
  5
359D4
330
34EF8
100
AcDbEntity
  8
寸法
 62
     0
 48
50.0
370
    -2
100
AcDbLine
 10
59994.01840042491
 20
-29175.46022470093
 30
0.0
 11
59806.69919913842
 21
-29175.46022470093
 31
0.0
  0
LINE
  5
359D5
330
34EF8
100
AcDbEntity
  8
寸法
 62
     0
 48
50.0
370
    -2
100
AcDbLine
 10
60719.31540260973
 20
-29145.46022470092
 30
0.0
 11
59806.69919913842
 21
-29145.46022470092
 31
0.0
  0
LINE
  5
359D6
330
34EF8
100
AcDbEntity
  8
寸法
 62
     0
 48
50.0
370
    -2
100
AcDbLine
 10
59851.69919913842
 20
-29145.46022470092
 30
0.0
 11
59851.69919913842
 21
-29070.46022470093
 31
0.0
  0
LINE
  5
359D7
330
34EF8
100
AcDbEntity
  8
寸法
 62
     0
 48
50.0
370
    -2
100
AcDbLine
 10
59851.69919913842
 20
-29175.46022470093
 30
0.0
 11
59851.69919913842
 21
-29484.53109084266
 31
0.0
  0
LINE
  5
359D8
330
34EF8
100
AcDbEntity
  8
寸法
 62
     0
 48
50.0
370
    -2
100
AcDbLine
 10
59851.69919913842
 20
-29145.46022470092
 30
0.0
 11
59851.69919913842
 21
-29175.46022470093
 31
0.0
  0
INSERT
  5
359D9
330
34EF8
100
AcDbEntity
  8
寸法
 62
     0
 48
50.0
370
    -2
100
AcDbBlockReference
  2
_DOTSMALL
 10
59851.69919913842
 20
-29145.46022470092
 30
0.0
 41
75.0
 42
75.0
 43
75.0
 50
270.0
  0
INSERT
  5
359DA
330
34EF8
100
AcDbEntity
  8
寸法
 62
     0
 48
50.0
370
    -2
100
AcDbBlockReference
  2
_DOTSMALL
 10
59851.69919913842
 20
-29175.46022470093
 30
0.0
 41
75.0
 42
75.0
 43
75.0
 50
90.0
  0
MTEXT
  5
359DB
330
34EF8
100
AcDbEntity
  8
寸法
 62
     7
 48
50.0
100
AcDbMText
 10
59776.69919913843
 20
-29404.99565777178
 30
0.0
 40
90.0
 41
0.0
 71
     5
 72
     1
  1
\A1;30
  7
STYLE1
 11
0.0000000000000001
 21
1.0
 31
0.0
 73
     1
 44
1.0
1001
ACAD
1000
MTEXTBEGIN
1070
    73
1070
     1
1070
    44
1040
1.0
1070
    74
1070
     0
1000
MTEXTEND
  0
POINT
  5
359DC
330
34EF8
100
AcDbEntity
  8
DEFPOINTS
 62
     0
 48
50.0
100
AcDbPoint
 10
60009.01840042491
 20
-29175.46022470093
 30
0.0
  0
POINT
  5
359DD
330
34EF8
100
AcDbEntity
  8
DEFPOINTS
 62
     0
 48
50.0
100
AcDbPoint
 10
60734.31540260973
 20
-29145.46022470092
 30
0.0
  0
POINT
  5
359DE
330
34EF8
100
AcDbEntity
  8
DEFPOINTS
 62
     0
 48
50.0
100
AcDbPoint
 10
59851.69919913842
 20
-29145.46022470092
 30
0.0
  0
ENDBLK
  5
34F05
330
34EF8
100
AcDbEntity
  8
0
 48
50.0
100
AcDbBlockEnd
  0
BLOCK
  5
34F11
330
34F06
100
AcDbEntity
  8
0
 48
50.0
100
AcDbBlockBegin
  2
*D29
 70
     1
 10
0.0
 20
0.0
 30
0.0
  3
*D29
  1

  0
LINE
  5
359DF
330
34F06
100
AcDbEntity
  8
寸法
 62
     0
 48
50.0
370
    -2
100
AcDbLine
 10
59994.01840042491
 20
-29175.46022470093
 30
0.0
 11
59606.52329574518
 21
-29175.46022470093
 31
0.0
  0
LINE
  5
359E0
330
34F06
100
AcDbEntity
  8
寸法
 62
     0
 48
50.0
370
    -2
100
AcDbLine
 10
60753.31540260973
 20
-29115.46022470092
 30
0.0
 11
59606.52329574518
 21
-29115.46022470092
 31
0.0
  0
LINE
  5
359E1
330
34F06
100
AcDbEntity
  8
寸法
 62
     0
 48
50.0
370
    -2
100
AcDbLine
 10
59651.52329574518
 20
-29115.46022470092
 30
0.0
 11
59651.52329574518
 21
-29175.46022470093
 31
0.0
  0
LINE
  5
359E2
330
34F06
100
AcDbEntity
  8
寸法
 62
     0
 48
50.0
370
    -2
100
AcDbLine
 10
59651.52329574518
 20
-29175.46022470093
 30
0.0
 11
59651.52329574518
 21
-29414.91691761432
 31
0.0
  0
INSERT
  5
359E3
330
34F06
100
AcDbEntity
  8
寸法
 62
     0
 48
50.0
370
    -2
100
AcDbBlockReference
  2
_DOTSMALL
 10
59651.52329574518
 20
-29115.46022470092
 30
0.0
 41
75.0
 42
75.0
 43
75.0
 50
90.0
  0
INSERT
  5
359E4
330
34F06
100
AcDbEntity
  8
寸法
 62
     0
 48
50.0
370
    -2
100
AcDbBlockReference
  2
_DOTSMALL
 10
59651.52329574518
 20
-29175.46022470093
 30
0.0
 41
75.0
 42
75.0
 43
75.0
 50
270.0
  0
MTEXT
  5
359E5
330
34F06
100
AcDbEntity
  8
寸法
 62
     7
 48
50.0
100
AcDbMText
 10
59576.52329574519
 20
-29332.68857115761
 30
0.0
 40
90.0
 41
0.0
 71
     5
 72
     1
  1
\A1;60
  7
STYLE1
 11
0.0000000000000001
 21
1.0
 31
0.0
 73
     1
 44
1.0
1001
ACAD
1000
MTEXTBEGIN
1070
    73
1070
     1
1070
    44
1040
1.0
1070
    74
1070
     0
1000
MTEXTEND
  0
POINT
  5
359E6
330
34F06
100
AcDbEntity
  8
DEFPOINTS
 62
     0
 48
50.0
100
AcDbPoint
 10
60009.01840042491
 20
-29175.46022470093
 30
0.0
  0
POINT
  5
359E7
330
34F06
100
AcDbEntity
  8
DEFPOINTS
 62
     0
 48
50.0
100
AcDbPoint
 10
60768.31540260973
 20
-29115.46022470092
 30
0.0
  0
POINT
  5
359E8
330
34F06
100
AcDbEntity
  8
DEFPOINTS
 62
     0
 48
50.0
100
AcDbPoint
 10
59651.52329574518
 20
-29115.46022470092
 30
0.0
  0
ENDBLK
  5
34F12
330
34F06
100
AcDbEntity
  8
0
 48
50.0
100
AcDbBlockEnd
  0
BLOCK
  5
34F8D
330
34F83
100
AcDbEntity
  8
0
 48
50.0
100
AcDbBlockBegin
  2
*D30
 70
     1
 10
0.0
 20
0.0
 30
0.0
  3
*D30
  1

  0
LINE
  5
3597F
330
34F83
100
AcDbEntity
  8
寸法
 62
     0
 48
50.0
370
    -2
100
AcDbLine
 10
61254.11328017325
 20
-29025.46022470092
 30
0.0
 11
61511.75676721043
 21
-29025.46022470092
 31
0.0
  0
LINE
  5
35980
330
34F83
100
AcDbEntity
  8
寸法
 62
     0
 48
50.0
370
    -2
100
AcDbLine
 10
61269.31540260972
 20
-29625.46022470093
 30
0.0
 11
61511.75676721043
 21
-29625.46022470093
 31
0.0
  0
LINE
  5
35981
330
34F83
100
AcDbEntity
  8
寸法
 62
     0
 48
50.0
370
    -2
100
AcDbLine
 10
61466.75676721043
 20
-29025.46022470092
 30
0.0
 11
61466.75676721043
 21
-29625.46022470093
 31
0.0
  0
INSERT
  5
35982
330
34F83
100
AcDbEntity
  8
寸法
 62
     0
 48
50.0
370
    -2
100
AcDbBlockReference
  2
_DOTSMALL
 10
61466.75676721043
 20
-29025.46022470092
 30
0.0
 41
75.0
 42
75.0
 43
75.0
 50
90.0
  0
INSERT
  5
35983
330
34F83
100
AcDbEntity
  8
寸法
 62
     0
 48
50.0
370
    -2
100
AcDbBlockReference
  2
_DOTSMALL
 10
61466.75676721043
 20
-29625.46022470093
 30
0.0
 41
75.0
 42
75.0
 43
75.0
 50
270.0
  0
MTEXT
  5
35984
330
34F83
100
AcDbEntity
  8
寸法
 62
     7
 48
50.0
100
AcDbMText
 10
61391.75676721044
 20
-29325.46022470091
 30
0.0
 40
90.0
 41
0.0
 71
     5
 72
     1
  1
\A1;600
  7
STYLE1
 11
0.0000000000000001
 21
1.0
 31
0.0
 73
     1
 44
1.0
1001
ACAD
1000
MTEXTBEGIN
1070
    73
1070
     1
1070
    44
1040
1.0
1070
    74
1070
     0
1000
MTEXTEND
  0
POINT
  5
35985
330
34F83
100
AcDbEntity
  8
DEFPOINTS
 62
     0
 48
50.0
100
AcDbPoint
 10
61239.11328017324
 20
-29025.46022470092
 30
0.0
  0
POINT
  5
35986
330
34F83
100
AcDbEntity
  8
DEFPOINTS
 62
     0
 48
50.0
100
AcDbPoint
 10
61254.31540260972
 20
-29625.46022470093
 30
0.0
  0
POINT
  5
35987
330
34F83
100
AcDbEntity
  8
DEFPOINTS
 62
     0
 48
50.0
100
AcDbPoint
 10
61466.75676721043
 20
-29625.46022470093
 30
0.0
  0
ENDBLK
  5
34F8E
330
34F83
100
AcDbEntity
  8
0
 48
50.0
100
AcDbBlockEnd
  0
BLOCK
  5
34F9B
330
34F8F
100
AcDbEntity
  8
0
 48
50.0
100
AcDbBlockBegin
  2
*D31
 70
     1
 10
0.0
 20
0.0
 30
0.0
  3
*D31
  1

  0
LINE
  5
35988
330
34F8F
100
AcDbEntity
  8
寸法
 62
     0
 48
50.0
370
    -2
100
AcDbLine
 10
61254.11328017325
 20
-29025.46022470092
 30
0.0
 11
61511.75676721043
 21
-29025.46022470092
 31
0.0
  0
LINE
  5
35989
330
34F8F
100
AcDbEntity
  8
寸法
 62
     0
 48
50.0
370
    -2
100
AcDbLine
 10
61079.31540260973
 20
-28975.46022470093
 30
0.0
 11
61511.75676721043
 21
-28975.46022470093
 31
0.0
  0
LINE
  5
3598A
330
34F8F
100
AcDbEntity
  8
寸法
 62
     0
 48
50.0
370
    -2
100
AcDbLine
 10
61466.75676721042
 20
-29025.46022470092
 30
0.0
 11
61466.75676721042
 21
-29100.46022470092
 31
0.0
  0
LINE
  5
3598B
330
34F8F
100
AcDbEntity
  8
寸法
 62
     0
 48
50.0
370
    -2
100
AcDbLine
 10
61466.75676721042
 20
-28975.46022470093
 30
0.0
 11
61466.75676721042
 21
-28666.38935855919
 31
0.0
  0
LINE
  5
3598C
330
34F8F
100
AcDbEntity
  8
寸法
 62
     0
 48
50.0
370
    -2
100
AcDbLine
 10
61466.75676721042
 20
-29025.46022470092
 30
0.0
 11
61466.75676721042
 21
-28975.46022470093
 31
0.0
  0
INSERT
  5
3598D
330
34F8F
100
AcDbEntity
  8
寸法
 62
     0
 48
50.0
370
    -2
100
AcDbBlockReference
  2
_DOTSMALL
 10
61466.75676721042
 20
-29025.46022470092
 30
0.0
 41
75.0
 42
75.0
 43
75.0
 50
90.0
  0
INSERT
  5
3598E
330
34F8F
100
AcDbEntity
  8
寸法
 62
     0
 48
50.0
370
    -2
100
AcDbBlockReference
  2
_DOTSMALL
 10
61466.75676721042
 20
-28975.46022470093
 30
0.0
 41
75.0
 42
75.0
 43
75.0
 50
270.0
  0
MTEXT
  5
3598F
330
34F8F
100
AcDbEntity
  8
寸法
 62
     7
 48
50.0
100
AcDbMText
 10
61391.75676721043
 20
-28745.92479163005
 30
0.0
 40
90.0
 41
0.0
 71
     5
 72
     1
  1
\A1;50
  7
STYLE1
 11
0.0000000000000001
 21
1.0
 31
0.0
 73
     1
 44
1.0
1001
ACAD
1000
MTEXTBEGIN
1070
    73
1070
     1
1070
    44
1040
1.0
1070
    74
1070
     0
1000
MTEXTEND
  0
POINT
  5
35990
330
34F8F
100
AcDbEntity
  8
DEFPOINTS
 62
     0
 48
50.0
100
AcDbPoint
 10
61239.11328017324
 20
-29025.46022470092
 30
0.0
  0
POINT
  5
35991
330
34F8F
100
AcDbEntity
  8
DEFPOINTS
 62
     0
 48
50.0
100
AcDbPoint
 10
61064.31540260973
 20
-28975.46022470093
 30
0.0
  0
POINT
  5
35992
330
34F8F
100
AcDbEntity
  8
DEFPOINTS
 62
     0
 48
50.0
100
AcDbPoint
 10
61466.75676721042
 20
-28975.46022470093
 30
0.0
  0
ENDBLK
  5
34F9C
330
34F8F
100
AcDbEntity
  8
0
 48
50.0
100
AcDbBlockEnd
  0
BLOCK
  5
34FA5
330
34F9D
100
AcDbEntity
  8
0
 48
50.0
100
AcDbBlockBegin
  2
*D32
 70
     1
 10
0.0
 20
0.0
 30
0.0
  3
*D32
  1

  0
LINE
  5
35993
330
34F9D
100
AcDbEntity
  8
寸法
 62
     0
 48
50.0
370
    -2
100
AcDbLine
 10
60874.31540260973
 20
-28535.98739184588
 30
0.0
 11
60874.31540260973
 21
-28217.68232540591
 31
0.0
  0
LINE
  5
35994
330
34F9D
100
AcDbEntity
  8
寸法
 62
     0
 48
50.0
370
    -2
100
AcDbLine
 10
61074.31540260973
 20
-28970.46022470092
 30
0.0
 11
61074.31540260973
 21
-28217.68232540591
 31
0.0
  0
LINE
  5
35995
330
34F9D
100
AcDbEntity
  8
寸法
 62
     0
 48
50.0
370
    -2
100
AcDbLine
 10
60874.31540260973
 20
-28262.68232540591
 30
0.0
 11
61074.31540260973
 21
-28262.68232540591
 31
0.0
  0
MTEXT
  5
35996
330
34F9D
100
AcDbEntity
  8
寸法
 62
     7
 48
50.0
100
AcDbMText
 10
60974.31540260974
 20
-28187.67346713819
 30
0.0
 40
90.0
 41
0.0
 71
     5
 72
     1
  1
\A1;200
  7
STYLE1
 73
     1
 44
1.0
1001
ACAD
1000
MTEXTBEGIN
1070
    73
1070
     1
1070
    44
1040
1.0
1070
    74
1070
     0
1000
MTEXTEND
  0
POINT
  5
35997
330
34F9D
100
AcDbEntity
  8
DEFPOINTS
 62
     0
 48
50.0
100
AcDbPoint
 10
60874.31540260973
 20
-28550.98739184589
 30
0.0
  0
POINT
  5
35998
330
34F9D
100
AcDbEntity
  8
DEFPOINTS
 62
     0
 48
50.0
100
AcDbPoint
 10
61074.31540260973
 20
-28985.46022470092
 30
0.0
  0
POINT
  5
35999
330
34F9D
100
AcDbEntity
  8
DEFPOINTS
 62
     0
 48
50.0
100
AcDbPoint
 10
61074.31540260973
 20
-28262.68232540591
 30
0.0
  0
ENDBLK
  5
34FA6
330
34F9D
100
AcDbEntity
  8
0
 48
50.0
100
AcDbBlockEnd
  0
BLOCK
  5
35B59
330
35B51
100
AcDbEntity
  8
0
 48
50.0
100
AcDbBlockBegin
  2
*D33
 70
     1
 10
0.0
 20
0.0
 30
0.0
  3
*D33
  1

  0
LINE
  5
35B65
330
35B51
100
AcDbEntity
  8
寸法
 62
     0
 48
50.0
370
    -2
100
AcDbLine
 10
51883.14792223365
 20
-27972.25458377903
 30
0.0
 11
51512.27608552241
 21
-27972.25458377903
 31
0.0
  0
LINE
  5
35B66
330
35B51
100
AcDbEntity
  8
寸法
 62
     0
 48
50.0
370
    -2
100
AcDbLine
 10
51883.14792223365
 20
-27872.25458377905
 30
0.0
 11
51512.27608552241
 21
-27872.25458377905
 31
0.0
  0
LINE
  5
35B67
330
35B51
100
AcDbEntity
  8
寸法
 62
     0
 48
50.0
370
    -2
100
AcDbLine
 10
51557.27608552242
 20
-27972.25458377903
 30
0.0
 11
51557.27608552242
 21
-27872.25458377905
 31
0.0
  0
LINE
  5
35B68
330
35B51
100
AcDbEntity
  8
寸法
 62
     0
 48
50.0
370
    -2
100
AcDbLine
 10
51557.27608552242
 20
-27872.25458377905
 30
0.0
 11
51557.27608552242
 21
-27593.18371763732
 31
0.0
  0
INSERT
  5
35B69
330
35B51
100
AcDbEntity
  8
寸法
 62
     0
 48
50.0
370
    -2
100
AcDbBlockReference
  2
_DOTSMALL
 10
51557.27608552242
 20
-27972.25458377903
 30
0.0
 41
75.0
 42
75.0
 43
75.0
 50
270.0
  0
INSERT
  5
35B6A
330
35B51
100
AcDbEntity
  8
寸法
 62
     0
 48
50.0
370
    -2
100
AcDbBlockReference
  2
_DOTSMALL
 10
51557.27608552242
 20
-27872.25458377905
 30
0.0
 41
75.0
 42
75.0
 43
75.0
 50
90.0
  0
MTEXT
  5
35B6B
330
35B51
100
AcDbEntity
  8
寸法
 62
     7
 48
50.0
100
AcDbMText
 10
51482.27608552242
 20
-27695.21915070818
 30
0.0
 40
90.0
 41
0.0
 71
     5
 72
     1
  1
\A1;100
  7
STYLE1
 11
0.0000000000000001
 21
1.0
 31
0.0
 73
     1
 44
1.0
1001
ACAD
1000
MTEXTBEGIN
1070
    73
1070
     1
1070
    44
1040
1.0
1070
    74
1070
     0
1000
MTEXTEND
  0
POINT
  5
35B6C
330
35B51
100
AcDbEntity
  8
DEFPOINTS
 62
     0
 48
50.0
100
AcDbPoint
 10
51898.14792223365
 20
-27972.25458377903
 30
0.0
  0
POINT
  5
35B6D
330
35B51
100
AcDbEntity
  8
DEFPOINTS
 62
     0
 48
50.0
100
AcDbPoint
 10
51898.14792223365
 20
-27872.25458377905
 30
0.0
  0
POINT
  5
35B6E
330
35B51
100
AcDbEntity
  8
DEFPOINTS
 62
     0
 48
50.0
100
AcDbPoint
 10
51557.27608552242
 20
-27872.25458377905
 30
0.0
  0
ENDBLK
  5
35B5A
330
35B51
100
AcDbEntity
  8
0
 48
50.0
100
AcDbBlockEnd
  0
ENDSEC
  0
SECTION
  2
ENTITIES
  0
LINE
  5
2BF00
330
747D
100
AcDbEntity
  8
部品1
 48
50.0
100
AcDbLine
 10
54698.14792223365
 20
-27872.25458377904
 30
0.0
 11
54698.14792223365
 21
-28972.25458377903
 31
0.0
  0
CIRCLE
  5
2BF01
330
747D
100
AcDbEntity
  8
部品1
 48
50.0
100
AcDbCircle
 10
55198.14792223365
 20
-28072.25458377903
 30
0.0
 40
15.0
  0
LINE
  5
2BF02
330
747D
100
AcDbEntity
  8
センター
 48
3.0
100
AcDbLine
 10
55198.14792223365
 20
-27997.25458377903
 30
0.0
 11
55198.14792223365
 21
-28147.25458377903
 31
0.0
  0
LINE
  5
2BF03
330
747D
100
AcDbEntity
  8
センター
 48
3.0
100
AcDbLine
 10
55123.14792223365
 20
-28072.25458377903
 30
0.0
 11
55273.14792223365
 21
-28072.25458377903
 31
0.0
  0
LINE
  5
2BF04
330
747D
100
AcDbEntity
  8
センター
 48
3.0
100
AcDbLine
 10
55198.14792223365
 20
-28197.25458377903
 30
0.0
 11
55198.14792223365
 21
-28347.25458377903
 31
0.0
  0
CIRCLE
  5
2BF05
330
747D
100
AcDbEntity
  8
部品1
 48
50.0
100
AcDbCircle
 10
55198.14792223365
 20
-28272.25458377903
 30
0.0
 40
15.0
  0
LINE
  5
2BF06
330
747D
100
AcDbEntity
  8
センター
 48
3.0
100
AcDbLine
 10
55123.14792223365
 20
-28272.25458377903
 30
0.0
 11
55273.14792223365
 21
-28272.25458377903
 31
0.0
  0
LINE
  5
2BF07
330
747D
100
AcDbEntity
  8
センター
 48
10.0
100
AcDbLine
 10
55098.14792223365
 20
-28422.25458377903
 30
0.0
 11
55098.14792223365
 21
-27922.25458377903
 31
0.0
  0
CIRCLE
  5
2BF08
330
747D
100
AcDbEntity
  8
部品1
 48
50.0
100
AcDbCircle
 10
54998.14792223364
 20
-28072.25458377903
 30
0.0
 40
15.0
  0
LINE
  5
2BF09
330
747D
100
AcDbEntity
  8
センター
 48
3.0
100
AcDbLine
 10
54998.14792223364
 20
-27997.25458377903
 30
0.0
 11
54998.14792223364
 21
-28147.25458377903
 31
0.0
  0
LINE
  5
2BF0A
330
747D
100
AcDbEntity
  8
センター
 48
3.0
100
AcDbLine
 10
54998.14792223364
 20
-28197.25458377903
 30
0.0
 11
54998.14792223364
 21
-28347.25458377903
 31
0.0
  0
CIRCLE
  5
2BF0B
330
747D
100
AcDbEntity
  8
部品1
 48
50.0
100
AcDbCircle
 10
54998.14792223364
 20
-28272.25458377903
 30
0.0
 40
15.0
  0
LINE
  5
2BF0C
330
747D
100
AcDbEntity
  8
センター
 48
10.0
100
AcDbLine
 10
54848.14792223365
 20
-28172.25458377903
 30
0.0
 11
55348.14792223365
 21
-28172.25458377903
 31
0.0
  0
LINE
  5
2BF0D
330
747D
100
AcDbEntity
  8
センター
 48
3.0
100
AcDbLine
 10
54923.14792223365
 20
-28072.25458377903
 30
0.0
 11
55073.14792223365
 21
-28072.25458377903
 31
0.0
  0
LINE
  5
2BF0E
330
747D
100
AcDbEntity
  8
センター
 48
3.0
100
AcDbLine
 10
54923.14792223365
 20
-28272.25458377903
 30
0.0
 11
55073.14792223365
 21
-28272.25458377903
 31
0.0
  0
LINE
  5
2BF0F
330
747D
100
AcDbEntity
  8
部品1
 48
50.0
100
AcDbLine
 10
55498.14792223365
 20
-27872.25458377904
 30
0.0
 11
54698.14792223365
 21
-27872.25458377904
 31
0.0
  0
LINE
  5
2BF10
330
747D
100
AcDbEntity
  8
部品1
 48
50.0
100
AcDbLine
 10
55498.14792223365
 20
-27872.25458377904
 30
0.0
 11
55498.14792223365
 21
-28972.25458377903
 31
0.0
  0
LINE
  5
2BF11
330
747D
100
AcDbEntity
  8
部品1
 48
50.0
100
AcDbLine
 10
54698.14792223365
 20
-28972.25458377903
 30
0.0
 11
55498.14792223365
 21
-28972.25458377903
 31
0.0
  0
LINE
  5
2BF12
330
747D
100
AcDbEntity
  8
補助
  6
PHANTOM
 62
   230
 48
50.0
100
AcDbLine
 10
50804.90135201868
 20
-33326.13759087565
 30
0.0
 11
50804.90135201868
 21
-24768.93759087565
 31
0.0
  0
LINE
  5
2BF13
330
747D
100
AcDbEntity
  8
補助
  6
PHANTOM
 62
   230
 48
50.0
100
AcDbLine
 10
60530.30135201868
 20
-29726.13759087565
 30
0.0
 11
62930.30135201869
 21
-29726.13759087565
 31
0.0
  0
LINE
  5
2BF14
330
747D
100
AcDbEntity
  8
補助
  6
PHANTOM
 62
   230
 48
50.0
100
AcDbLine
 10
50804.90135201868
 20
-24768.93759087565
 30
0.0
 11
62930.30135201869
 21
-24768.93759087565
 31
0.0
  0
LINE
  5
2BF15
330
747D
100
AcDbEntity
  8
補助
  6
PHANTOM
 62
   230
 48
50.0
100
AcDbLine
 10
62930.30135201869
 20
-24768.93759087565
 30
0.0
 11
62930.30135201869
 21
-32426.13759087565
 31
0.0
  0
LINE
  5
2BF16
330
747D
100
AcDbEntity
  8
補助
  6
PHANTOM
 62
   230
 48
50.0
100
AcDbLine
 10
60530.30135201868
 20
-24768.93759087565
 30
0.0
 11
60530.30135201868
 21
-29726.13759087565
 31
0.0
  0
LINE
  5
2BF17
330
747D
100
AcDbEntity
  8
仕様書枠
  6
Continuous
 48
50.0
100
AcDbLine
 10
60530.3013593015
 20
-32426.13758553219
 30
0.0
 11
60530.3013593015
 21
-33326.1375855322
 31
0.0
  0
LINE
  5
2BF18
330
747D
100
AcDbEntity
  8
仕様書枠
 48
50.0
100
AcDbLine
 10
62930.30135930149
 20
-32426.13758553219
 30
0.0
 11
62930.30135930149
 21
-33326.1375855322
 31
0.0
  0
LINE
  5
2BF19
330
747D
100
AcDbEntity
  8
仕様書枠
 48
50.0
100
AcDbLine
 10
50804.90135930149
 20
-33326.1375855322
 30
0.0
 11
62930.30135930149
 21
-33326.1375855322
 31
0.0
  0
LINE
  5
2BF1A
330
747D
100
AcDbEntity
  8
仕様書枠
 48
50.0
100
AcDbLine
 10
60530.3013593015
 20
-32426.13758553219
 30
0.0
 11
62930.30135930149
 21
-32426.13758553219
 31
0.0
  0
LINE
  5
2BF1B
330
747D
100
AcDbEntity
  8
文字
 62
     7
 48
50.0
100
AcDbLine
 10
60590.30135930149
 20
-33026.1375855322
 30
0.0
 11
62870.3013593015
 21
-33026.1375855322
 31
0.0
  0
TEXT
  5
2BF1C
330
747D
100
AcDbEntity
  8
文字
 62
     7
 48
50.0
100
AcDbText
 10
60572.13565173418
 20
-32654.81962995974
 30
0.0
 40
150.0
  1
基 礎 図
  7
STYLE2
100
AcDbText
  0
TEXT
  5
2BF1D
330
747D
100
AcDbEntity
  8
文字
 62
     7
 48
50.0
100
AcDbText
 10
60600.97888428981
 20
-32968.18203595484
 30
0.0
 40
120.0
  1
機種名
  7
STYLE2
100
AcDbText
  0
TEXT
  5
2BF1E
330
747D
100
AcDbEntity
  8
文字
 62
     7
 48
50.0
100
AcDbText
 10
60606.9553674644
 20
-33154.72994233952
 30
0.0
 40
60.0
  1
○間口寸法は柱芯寸法です。
  7
STYLE2
100
AcDbText
  0
TEXT
  5
2BF1F
330
747D
100
AcDbEntity
  8
文字
 62
     7
 48
50.0
100
AcDbText
 10
60606.9553674644
 20
-33269.06682522483
 30
0.0
 40
60.0
  1
○寒冷地等は、地域の実情に合わせた基礎にしてください。
  7
STYLE2
100
AcDbText
  0
LINE
  5
2BF20
330
747D
100
AcDbEntity
  8
仕様書枠
 48
50.0
100
AcDbLine
 10
60530.3013593015
 20
-32726.1375855322
 30
0.0
 11
61388.3013593015
 21
-32726.1375855322
 31
0.0
  0
LINE
  5
2BF21
330
747D
100
AcDbEntity
  8
仕様書枠
  6
Continuous
 48
50.0
100
AcDbLine
 10
61388.3013593015
 20
-32426.13758553219
 30
0.0
 11
61388.3013593015
 21
-32726.1375855322
 31
0.0
  0
TEXT
  5
2BF22
330
747D
100
AcDbEntity
  8
文字
 62
     7
 48
50.0
100
AcDbText
 10
61651.88487527269
 20
-32963.21505078884
 30
0.0
 40
120.0
  1
BP-28PL-2
  7
STYLE3
100
AcDbText
  0
TEXT
  5
2BF23
330
747D
100
AcDbEntity
  8
文字
 62
     7
 48
50.0
100
AcDbText
 10
61838.61875159837
 20
-32697.4480402275
 30
0.0
 40
75.0
  1
～一般型～
  7
STYLE2
100
AcDbText
  0
TEXT
  5
2BF24
330
747D
100
AcDbEntity
  8
文字
 62
     7
 48
50.0
100
AcDbText
 10
61593.00023721799
 20
-32552.46930581377
 30
0.0
 40
75.0
  1
             <縮尺> S=1/30
  7
STYLE2
100
AcDbText
  0
DIMENSION
  5
2BF26
330
747D
100
AcDbEntity
  8
寸法
 48
50.0
100
AcDbDimension
  2
*D20
 10
58680.42214459726
 20
-30172.25458377903
 30
0.0
 11
58680.42214459726
 21
-30349.25458377903
 31
0.0
 70
   160
 71
     5
 42
137.0
  3
INABA_S30G
100
AcDbAlignedDimension
 13
58128.14792223361
 23
-30035.25458377903
 33
0.0
 14
58298.14792223364
 24
-30172.25458377903
 34
0.0
 50
90.0
100
AcDbRotatedDimension
  0
DIMENSION
  5
2BF27
330
747D
100
AcDbEntity
  8
寸法
 48
50.0
100
AcDbDimension
  2
*D19
 10
58680.42214459726
 20
-30035.25458377903
 30
0.0
 11
58605.41328632955
 21
-29025.25458377903
 31
0.0
 70
    32
  1
屋根寸法 <>
 71
     5
 42
2020.0
  3
INABA_S30G
100
AcDbAlignedDimension
 13
58128.14792223361
 23
-28015.25458377903
 33
0.0
 14
58128.14792223361
 24
-30035.25458377903
 34
0.0
 50
90.0
100
AcDbRotatedDimension
  0
DIMENSION
  5
2BF28
330
747D
100
AcDbEntity
  8
寸法
 48
50.0
100
AcDbDimension
  2
*D18
 10
58680.42214459727
 20
-27872.25458377904
 30
0.0
 11
58680.42214459728
 21
-27688.89062274835
 31
0.0
 70
   160
 71
     5
 42
142.9999999999927
  3
INABA_S30G
100
AcDbAlignedDimension
 13
58128.14792223361
 23
-28015.25458377903
 33
0.0
 14
58298.14792223364
 24
-27872.25458377904
 34
0.0
 50
90.0
100
AcDbRotatedDimension
  0
LINE
  5
2BF2C
330
747D
100
AcDbEntity
  8
部品1
 48
50.0
100
AcDbLine
 10
58298.14792223364
 20
-27872.25458377904
 30
0.0
 11
57498.14792223364
 21
-27872.25458377904
 31
0.0
  0
LINE
  5
2BF2D
330
747D
100
AcDbEntity
  8
部品1
 48
50.0
100
AcDbLine
 10
57498.14792223364
 20
-28972.25458377903
 30
0.0
 11
58298.14792223364
 21
-28972.25458377903
 31
0.0
  0
LINE
  5
2BF2E
330
747D
100
AcDbEntity
  8
部品1
 48
50.0
100
AcDbLine
 10
57498.14792223364
 20
-27872.25458377904
 30
0.0
 11
57498.14792223364
 21
-28972.25458377903
 31
0.0
  0
LINE
  5
2BF2F
330
747D
100
AcDbEntity
  8
部品1
 48
50.0
100
AcDbLine
 10
51898.14792223365
 20
-28972.25458377903
 30
0.0
 11
52698.14792223365
 21
-28972.25458377903
 31
0.0
  0
LINE
  5
2BF30
330
747D
100
AcDbEntity
  8
部品1
 48
50.0
100
AcDbLine
 10
52698.14792223365
 20
-27872.25458377904
 30
0.0
 11
52698.14792223365
 21
-28972.25458377903
 31
0.0
  0
LINE
  5
2BF31
330
747D
100
AcDbEntity
  8
部品1
 48
50.0
100
AcDbLine
 10
52698.14792223365
 20
-27872.25458377904
 30
0.0
 11
51898.14792223365
 21
-27872.25458377904
 31
0.0
  0
LINE
  5
2BF32
330
747D
100
AcDbEntity
  8
想像線
 48
10.0
100
AcDbLine
 10
52068.14792223369
 20
-30035.25458377903
 30
0.0
 11
58128.14792223361
 21
-30035.25458377903
 31
0.0
  0
LINE
  5
2BF33
330
747D
100
AcDbEntity
  8
想像線
 48
10.0
100
AcDbLine
 10
58128.14792223361
 20
-30035.25458377903
 30
0.0
 11
58128.14792223361
 21
-28015.25458377903
 31
0.0
  0
LINE
  5
2BF34
330
747D
100
AcDbEntity
  8
想像線
 48
10.0
100
AcDbLine
 10
58128.14792223361
 20
-28015.25458377903
 30
0.0
 11
52068.14792223369
 21
-28015.25458377903
 31
0.0
  0
LINE
  5
2BF35
330
747D
100
AcDbEntity
  8
想像線
 48
10.0
100
AcDbLine
 10
52068.14792223369
 20
-30035.25458377903
 30
0.0
 11
52068.14792223369
 21
-28015.25458377903
 31
0.0
  0
DIMENSION
  5
2BF36
330
747D
100
AcDbEntity
  8
寸法
 48
50.0
100
AcDbDimension
  2
*D17
 10
55098.14792223365
 20
-27562.80228964793
 30
0.0
 11
53698.14792223364
 21
-27487.79343138021
 31
0.0
 70
    32
 71
     5
 42
2800.0
  3
INABA_S30G
100
AcDbAlignedDimension
 13
52298.14792223365
 23
-27922.25458377903
 33
0.0
 14
55098.14792223365
 24
-27922.25458377903
 34
0.0
100
AcDbRotatedDimension
  0
DIMENSION
  5
2BF37
330
747D
100
AcDbEntity
  8
寸法
 48
50.0
100
AcDbDimension
  2
*D16
 10
58298.14792223364
 20
-27562.80228964793
 30
0.0
 11
58098.14792223365
 21
-27487.80228964793
 31
0.0
 70
    32
 71
     5
 42
400.0
  3
INABA_S30G
100
AcDbAlignedDimension
 13
57898.14792223364
 23
-27922.25458377903
 33
0.0
 14
58298.14792223364
 24
-27872.25458377904
 34
0.0
100
AcDbRotatedDimension
  0
DIMENSION
  5
2BF38
330
747D
100
AcDbEntity
  8
寸法
 48
50.0
100
AcDbDimension
  2
*D15
 10
58298.14792223364
 20
-27368.76525067361
 30
0.0
 11
55098.14792223365
 21
-27293.76525067361
 31
0.0
 70
    32
  1
基礎土間寸法 <>
 71
     5
 42
6400.0
  3
INABA_S30G
100
AcDbAlignedDimension
 13
51898.14792223365
 23
-27872.25458377904
 33
0.0
 14
58298.14792223364
 24
-27872.25458377904
 34
0.0
100
AcDbRotatedDimension
  0
DIMENSION
  5
2BF39
330
747D
100
AcDbEntity
  8
寸法
 48
50.0
100
AcDbDimension
  2
*D14
 10
52298.14792223365
 20
-27562.80228964793
 30
0.0
 11
52098.14792223364
 21
-27487.80228964793
 31
0.0
 70
    32
 71
     5
 42
400.0
  3
INABA_S30G
100
AcDbAlignedDimension
 13
51898.14792223365
 23
-27872.25458377905
 33
0.0
 14
52298.14792223365
 24
-27922.25458377903
 34
0.0
100
AcDbRotatedDimension
  0
LINE
  5
2BF3A
330
747D
100
AcDbEntity
  8
センター
 48
10.0
100
AcDbLine
 10
52048.14792223364
 20
-28172.25458377903
 30
0.0
 11
58148.14792223365
 21
-28172.25458377903
 31
0.0
  0
DIMENSION
  5
2BF3B
330
747D
100
AcDbEntity
  8
寸法
 48
50.0
100
AcDbDimension
  2
*D13
 10
58298.14792223364
 20
-29448.5270158532
 30
0.0
 11
57898.14792223364
 21
-29448.5270158532
 31
0.0
 70
   160
 71
     5
 42
800.0
  3
INABA_S30G
100
AcDbAlignedDimension
 13
57498.14792223364
 23
-28972.25458377903
 33
0.0
 14
58298.14792223364
 24
-28972.25458377903
 34
0.0
100
AcDbRotatedDimension
  0
DIMENSION
  5
2BF3C
330
747D
100
AcDbEntity
  8
寸法
 48
50.0
100
AcDbDimension
  2
*D12
 10
57498.14792223364
 20
-29210.39079981612
 30
0.0
 11
57698.14792223365
 21
-29135.39079981612
 31
0.0
 70
    32
 71
     5
 42
400.0
  3
INABA_S30G
100
AcDbAlignedDimension
 13
57898.14792223364
 23
-28422.25458377903
 33
0.0
 14
57498.14792223364
 24
-28972.25458377903
 34
0.0
100
AcDbRotatedDimension
  0
DIMENSION
  5
2BF3D
330
747D
100
AcDbEntity
  8
寸法
 48
50.0
100
AcDbDimension
  2
*D11
 10
57143.51891566529
 20
-28972.25458377902
 30
0.0
 11
57068.5189156653
 21
-28422.25458377902
 31
0.0
 70
    32
 71
     5
 42
1100.0
  3
INABA_S30G
100
AcDbAlignedDimension
 13
57498.14792223364
 23
-27872.25458377903
 33
0.0
 14
57498.14792223364
 24
-28972.25458377903
 34
0.0
 50
90.0
100
AcDbRotatedDimension
  0
DIMENSION
  5
2BF3E
330
747D
100
AcDbEntity
  8
寸法
 48
50.0
100
AcDbDimension
  2
*D10
 10
57320.83341894946
 20
-28972.25458377902
 30
0.0
 11
57245.83341894946
 21
-28572.25458377902
 31
0.0
 70
    32
 71
     5
 42
800.0
  3
INABA_S30G
100
AcDbAlignedDimension
 13
57498.14792223364
 23
-28172.25458377903
 33
0.0
 14
57498.14792223364
 24
-28972.25458377903
 34
0.0
 50
90.0
100
AcDbRotatedDimension
  0
DIMENSION
  5
2BF3F
330
747D
100
AcDbEntity
  8
寸法
 48
50.0
100
AcDbDimension
  2
*D9
 10
57320.83341894947
 20
-28172.25458377902
 30
0.0
 11
57245.83341894947
 21
-28022.25458377902
 31
0.0
 70
    32
 71
     5
 42
300.0
  3
INABA_S30G
100
AcDbAlignedDimension
 13
57498.14792223364
 23
-27872.25458377903
 33
0.0
 14
57498.14792223364
 24
-28172.25458377903
 34
0.0
 50
90.0
100
AcDbRotatedDimension
  0
DIMENSION
  5
2BF40
330
747D
100
AcDbEntity
  8
寸法
 48
50.0
100
AcDbDimension
  2
*D8
 10
51557.27608552242
 20
-28172.25458377903
 30
0.0
 11
51482.2672272547
 21
-28072.25458377902
 31
0.0
 70
    32
 71
     5
 42
200.0
  3
INABA_S30G
100
AcDbAlignedDimension
 13
51898.14792223365
 23
-27972.25458377903
 33
0.0
 14
52048.14792223364
 24
-28172.25458377903
 34
0.0
 50
90.0
100
AcDbRotatedDimension
  0
DIMENSION
  5
2BF41
330
747D
100
AcDbEntity
  8
寸法
 48
50.0
100
AcDbDimension
  2
*D7
 10
51557.27608552242
 20
-30172.25458377903
 30
0.0
 11
51482.2672272547
 21
-29172.25458377902
 31
0.0
 70
    32
 71
     5
 42
2000.0
  3
INABA_S30G
100
AcDbAlignedDimension
 13
52048.14792223364
 23
-28172.25458377903
 33
0.0
 14
51898.14792223365
 24
-30172.25458377903
 34
0.0
 50
90.0
100
AcDbRotatedDimension
  0
DIMENSION
  5
2BF42
330
747D
100
AcDbEntity
  8
寸法
 48
50.0
100
AcDbDimension
  2
*D6
 10
51334.52672350595
 20
-30172.25458377903
 30
0.0
 11
51259.51786523824
 21
-29072.25458377902
 31
0.0
 70
    32
  1
基礎土間寸法 <>
 71
     5
 42
2200.0
  3
INABA_S30G
100
AcDbAlignedDimension
 13
51898.14792223365
 23
-27972.25458377903
 33
0.0
 14
51898.14792223365
 24
-30172.25458377903
 34
0.0
 50
90.0
100
AcDbRotatedDimension
  0
DIMENSION
  5
2BF43
330
747D
100
AcDbEntity
  8
寸法
 48
50.0
100
AcDbDimension
  2
*D5
 10
58128.14792223361
 20
-30500.74230211556
 30
0.0
 11
55098.14792223365
 21
-30425.74230211556
 31
0.0
 70
    32
  1
屋根寸法 <>
 71
     5
 42
6059.999999999913
  3
INABA_S30G
100
AcDbAlignedDimension
 13
52068.14792223369
 23
-30035.25458377903
 33
0.0
 14
58128.14792223361
 24
-30035.25458377903
 34
0.0
100
AcDbRotatedDimension
  0
DIMENSION
  5
2BF44
330
747D
100
AcDbEntity
  8
寸法
 48
50.0
100
AcDbDimension
  2
*D4
 10
51898.14792223365
 20
-30500.74230211556
 30
0.0
 11
51983.14792223367
 21
-30425.74230211556
 31
0.0
 70
    32
 71
     5
 42
170.0000000000436
  3
INABA_S30G
100
AcDbAlignedDimension
 13
52068.14792223369
 23
-30035.25458377903
 33
0.0
 14
51898.14792223365
 24
-30172.25458377903
 34
0.0
100
AcDbRotatedDimension
  0
DIMENSION
  5
2BF45
330
747D
100
AcDbEntity
  8
寸法
 48
50.0
100
AcDbDimension
  2
*D3
 10
58298.14792223364
 20
-30500.74230211556
 30
0.0
 11
58213.14792223363
 21
-30425.74230211556
 31
0.0
 70
    32
 71
     5
 42
170.0000000000436
  3
INABA_S30G
100
AcDbAlignedDimension
 13
58128.14792223361
 23
-30035.25458377903
 33
0.0
 14
58298.14792223364
 24
-30172.25458377903
 34
0.0
100
AcDbRotatedDimension
  0
CIRCLE
  5
2BF5D
330
747D
100
AcDbEntity
  8
部品1
 48
50.0
100
AcDbCircle
 10
57998.14792223365
 20
-28072.25458377903
 30
0.0
 40
15.0
  0
LINE
  5
2BF5E
330
747D
100
AcDbEntity
  8
センター
 48
3.0
100
AcDbLine
 10
57998.14792223365
 20
-27997.25458377903
 30
0.0
 11
57998.14792223365
 21
-28147.25458377903
 31
0.0
  0
LINE
  5
2BF5F
330
747D
100
AcDbEntity
  8
センター
 48
3.0
100
AcDbLine
 10
57923.14792223365
 20
-28072.25458377903
 30
0.0
 11
58073.14792223364
 21
-28072.25458377903
 31
0.0
  0
LINE
  5
2BF60
330
747D
100
AcDbEntity
  8
センター
 48
3.0
100
AcDbLine
 10
57998.14792223365
 20
-28197.25458377903
 30
0.0
 11
57998.14792223365
 21
-28347.25458377903
 31
0.0
  0
CIRCLE
  5
2BF61
330
747D
100
AcDbEntity
  8
部品1
 48
50.0
100
AcDbCircle
 10
57998.14792223365
 20
-28272.25458377903
 30
0.0
 40
15.0
  0
LINE
  5
2BF62
330
747D
100
AcDbEntity
  8
センター
 48
3.0
100
AcDbLine
 10
57923.14792223365
 20
-28272.25458377903
 30
0.0
 11
58073.14792223364
 21
-28272.25458377903
 31
0.0
  0
LINE
  5
2BF63
330
747D
100
AcDbEntity
  8
センター
 48
10.0
100
AcDbLine
 10
57898.14792223364
 20
-28422.25458377903
 30
0.0
 11
57898.14792223364
 21
-27922.25458377903
 31
0.0
  0
CIRCLE
  5
2BF64
330
747D
100
AcDbEntity
  8
部品1
 48
50.0
100
AcDbCircle
 10
57798.14792223365
 20
-28072.25458377903
 30
0.0
 40
15.0
  0
LINE
  5
2BF65
330
747D
100
AcDbEntity
  8
センター
 48
3.0
100
AcDbLine
 10
57798.14792223365
 20
-27997.25458377903
 30
0.0
 11
57798.14792223365
 21
-28147.25458377903
 31
0.0
  0
LINE
  5
2BF66
330
747D
100
AcDbEntity
  8
センター
 48
3.0
100
AcDbLine
 10
57798.14792223365
 20
-28197.25458377903
 30
0.0
 11
57798.14792223365
 21
-28347.25458377903
 31
0.0
  0
CIRCLE
  5
2BF67
330
747D
100
AcDbEntity
  8
部品1
 48
50.0
100
AcDbCircle
 10
57798.14792223365
 20
-28272.25458377903
 30
0.0
 40
15.0
  0
LINE
  5
2BF68
330
747D
100
AcDbEntity
  8
センター
 48
10.0
100
AcDbLine
 10
57648.14792223365
 20
-28172.25458377903
 30
0.0
 11
58148.14792223365
 21
-28172.25458377903
 31
0.0
  0
LINE
  5
2BF69
330
747D
100
AcDbEntity
  8
センター
 48
3.0
100
AcDbLine
 10
57723.14792223364
 20
-28072.25458377903
 30
0.0
 11
57873.14792223365
 21
-28072.25458377903
 31
0.0
  0
LINE
  5
2BF6A
330
747D
100
AcDbEntity
  8
センター
 48
3.0
100
AcDbLine
 10
57723.14792223364
 20
-28272.25458377903
 30
0.0
 11
57873.14792223365
 21
-28272.25458377903
 31
0.0
  0
DIMENSION
  5
2BF6B
330
747D
100
AcDbEntity
  8
寸法
 48
50.0
100
AcDbDimension
  2
*D2
 10
58459.73534937122
 20
-28072.25458377903
 30
0.0
 11
58384.72649110351
 21
-28172.25458377902
 31
0.0
 70
    32
 71
     5
 42
200.0
  3
INABA_S30G
100
AcDbAlignedDimension
 13
58073.14792223364
 23
-28272.25458377903
 33
0.0
 14
58073.14792223364
 24
-28072.25458377903
 34
0.0
 50
90.0
100
AcDbRotatedDimension
  0
DIMENSION
  5
2BF6C
330
747D
100
AcDbEntity
  8
寸法
 48
50.0
100
AcDbDimension
  2
*D1
 10
57798.14792223365
 20
-28741.77586709183
 30
0.0
 11
57898.14792223364
 21
-28666.76700882412
 31
0.0
 70
    32
 71
     5
 42
200.0
  3
INABA_S30G
100
AcDbAlignedDimension
 13
57998.14792223365
 23
-28347.25458377903
 33
0.0
 14
57798.14792223365
 24
-28347.25458377903
 34
0.0
100
AcDbRotatedDimension
  0
LINE
  5
2BF6D
330
747D
100
AcDbEntity
  8
センター
 48
3.0
100
AcDbLine
 10
52123.14792223365
 20
-28272.25458377903
 30
0.0
 11
52273.14792223364
 21
-28272.25458377903
 31
0.0
  0
LINE
  5
2BF6E
330
747D
100
AcDbEntity
  8
センター
 48
3.0
100
AcDbLine
 10
52123.14792223365
 20
-28072.25458377903
 30
0.0
 11
52273.14792223364
 21
-28072.25458377903
 31
0.0
  0
LINE
  5
2BF6F
330
747D
100
AcDbEntity
  8
センター
 48
10.0
100
AcDbLine
 10
52048.14792223364
 20
-28172.25458377903
 30
0.0
 11
52548.14792223364
 21
-28172.25458377903
 31
0.0
  0
CIRCLE
  5
2BF70
330
747D
100
AcDbEntity
  8
部品1
 48
50.0
100
AcDbCircle
 10
52198.14792223365
 20
-28272.25458377903
 30
0.0
 40
15.0
  0
LINE
  5
2BF71
330
747D
100
AcDbEntity
  8
センター
 48
3.0
100
AcDbLine
 10
52198.14792223365
 20
-28197.25458377903
 30
0.0
 11
52198.14792223365
 21
-28347.25458377903
 31
0.0
  0
LINE
  5
2BF72
330
747D
100
AcDbEntity
  8
センター
 48
3.0
100
AcDbLine
 10
52198.14792223365
 20
-27997.25458377903
 30
0.0
 11
52198.14792223365
 21
-28147.25458377903
 31
0.0
  0
CIRCLE
  5
2BF73
330
747D
100
AcDbEntity
  8
部品1
 48
50.0
100
AcDbCircle
 10
52198.14792223365
 20
-28072.25458377903
 30
0.0
 40
15.0
  0
LINE
  5
2BF74
330
747D
100
AcDbEntity
  8
センター
 48
10.0
100
AcDbLine
 10
52298.14792223365
 20
-28422.25458377903
 30
0.0
 11
52298.14792223365
 21
-27922.25458377903
 31
0.0
  0
LINE
  5
2BF75
330
747D
100
AcDbEntity
  8
センター
 48
3.0
100
AcDbLine
 10
52323.14792223364
 20
-28272.25458377903
 30
0.0
 11
52473.14792223365
 21
-28272.25458377903
 31
0.0
  0
CIRCLE
  5
2BF76
330
747D
100
AcDbEntity
  8
部品1
 48
50.0
100
AcDbCircle
 10
52398.14792223365
 20
-28272.25458377903
 30
0.0
 40
15.0
  0
LINE
  5
2BF77
330
747D
100
AcDbEntity
  8
センター
 48
3.0
100
AcDbLine
 10
52398.14792223365
 20
-28197.25458377903
 30
0.0
 11
52398.14792223365
 21
-28347.25458377903
 31
0.0
  0
LINE
  5
2BF78
330
747D
100
AcDbEntity
  8
センター
 48
3.0
100
AcDbLine
 10
52323.14792223364
 20
-28072.25458377903
 30
0.0
 11
52473.14792223365
 21
-28072.25458377903
 31
0.0
  0
LINE
  5
2BF79
330
747D
100
AcDbEntity
  8
センター
 48
3.0
100
AcDbLine
 10
52398.14792223365
 20
-27997.25458377903
 30
0.0
 11
52398.14792223365
 21
-28147.25458377903
 31
0.0
  0
CIRCLE
  5
2BF7A
330
747D
100
AcDbEntity
  8
部品1
 48
50.0
100
AcDbCircle
 10
52398.14792223365
 20
-28072.25458377903
 30
0.0
 40
15.0
  0
LINE
  5
2BF7B
330
747D
100
AcDbEntity
  8
文字
 48
50.0
100
AcDbLine
 10
51898.14792223365
 20
-27972.25458377903
 30
0.0
 11
58298.14792223364
 21
-27972.25458377903
 31
0.0
  0
LINE
  5
2BF7E
330
747D
100
AcDbEntity
  8
部品1
 48
30.0
100
AcDbLine
 10
51898.14792223365
 20
-30172.25458377903
 30
0.0
 11
58298.14792223364
 21
-30172.25458377903
 31
0.0
  0
LINE
  5
2BF7F
330
747D
100
AcDbEntity
  8
部品1
 48
50.0
100
AcDbLine
 10
51898.14792223364
 20
-27872.25458377903
 30
0.0
 11
51898.14792223365
 21
-30172.25458377903
 31
0.0
  0
LINE
  5
2BF80
330
747D
100
AcDbEntity
  8
部品1
 48
50.0
100
AcDbLine
 10
58298.14792223364
 20
-27872.25458377903
 30
0.0
 11
58298.14792223364
 21
-30172.25458377903
 31
0.0
  0
MTEXT
  5
2BF81
330
747D
100
AcDbEntity
  8
寸法
 62
     7
 48
50.0
100
AcDbMText
 10
52124.13980701584
 20
-29917.97453791154
 30
0.0
 40
90.0
 41
0.0
 71
     4
 72
     1
  1
\A1;床コンクリート打コテ押エ
  7
STYLE1
 73
     1
 44
1.0
1001
ACAD
1000
MTEXTBEGIN
1070
    73
1070
     1
1070
    44
1040
1.0
1070
    74
1070
     0
1000
MTEXTEND
  0
LINE
  5
2BF8A
330
747D
100
AcDbEntity
  8
寸法
 48
50.0
100
AcDbLine
 10
52298.14792223365
 20
-29051.15354625916
 30
0.0
 11
52298.14792223365
 21
-28422.25458377903
 31
0.0
  0
MTEXT
  5
2BF8B
330
747D
100
AcDbEntity
  8
寸法
 62
     7
 48
50.0
100
AcDbMText
 10
56315.33202283732
 20
-28925.96740568424
 30
0.0
 40
90.0
 41
0.0
 71
     4
 72
     1
  1
\A1;水勾配 1/100 
  7
STYLE1
 11
0.0000000000000001
 21
1.0
 31
0.0
 73
     1
 44
1.0
1001
ACAD
1000
MTEXTBEGIN
1070
    73
1070
     1
1070
    44
1040
1.0
1070
    74
1070
     0
1000
MTEXTEND
  0
LINE
  5
2BF8C
330
747D
100
AcDbEntity
  8
寸法
 48
50.0
100
AcDbLine
 10
56409.76995890312
 20
-28279.53683958612
 30
0.0
 11
56409.76995890312
 21
-29071.18226003715
 31
0.0
  0
LINE
  5
2BF8D
330
747D
100
AcDbEntity
  8
寸法
 48
50.0
100
AcDbLine
 10
56409.76995890312
 20
-29071.18226003715
 30
0.0
 11
56442.61824173594
 21
-28948.59079956369
 31
0.0
  0
LINE
  5
2BF8E
330
747D
100
AcDbEntity
  8
寸法
 48
50.0
100
AcDbLine
 10
56409.76995890312
 20
-29071.18226003715
 30
0.0
 11
56376.92167607031
 21
-28948.59079956369
 31
0.0
  0
DIMENSION
  5
2CABC
330
747D
100
AcDbEntity
  8
寸法
 48
50.0
100
AcDbDimension
  2
*D21
 10
57898.14792223364
 20
-27562.80228964793
 30
0.0
 11
56498.14792223365
 21
-27487.79343138021
 31
0.0
 70
    32
 71
     5
 42
2800.0
  3
INABA_S30G
100
AcDbAlignedDimension
 13
55098.14792223365
 23
-27922.25458377903
 33
0.0
 14
57898.14792223364
 24
-27922.25458377903
 34
0.0
100
AcDbRotatedDimension
  0
LINE
  5
34C9E
102
{ACAD_REACTORS
330
3506A
330
35071
330
35072
102
}
330
747D
100
AcDbEntity
  8
KIN-T
100
AcDbLine
 10
60498.86540260974
 20
-29500.46022470092
 30
0.0
 11
60644.31540260975
 21
-29500.46022470092
 31
0.0
  0
LINE
  5
34C9F
102
{ACAD_REACTORS
330
3506A
330
35071
330
35072
102
}
330
747D
100
AcDbEntity
  8
KIN-T
100
AcDbLine
 10
60674.31540260974
 20
-29130.46022470092
 30
0.0
 11
60674.31540260974
 21
-29470.46022470093
 31
0.0
  0
ARC
  5
34CA0
102
{ACAD_REACTORS
330
3506A
330
35071
330
35072
102
}
330
747D
100
AcDbEntity
  8
KIN-T
100
AcDbCircle
 10
60644.31540260975
 20
-29470.46022470093
 30
0.0
 40
30.0
100
AcDbArc
 50
270.0
 51
0.0
  0
LINE
  5
34CA1
102
{ACAD_REACTORS
330
3506A
330
35071
102
}
330
747D
100
AcDbEntity
  8
KIN-T
100
AcDbLine
 10
60674.31540260974
 20
-29130.46022470092
 30
0.0
 11
60687.31540260975
 21
-29130.46022470092
 31
0.0
  0
LINE
  5
34CA2
102
{ACAD_REACTORS
330
3506A
330
35071
102
}
330
747D
100
AcDbEntity
  8
KIN-T
100
AcDbLine
 10
60687.31540260975
 20
-29130.46022470092
 30
0.0
 11
60687.31540260975
 21
-29470.46022470093
 31
0.0
  0
ARC
  5
34CA3
102
{ACAD_REACTORS
330
3506A
330
35071
102
}
330
747D
100
AcDbEntity
  8
KIN-T
100
AcDbCircle
 10
60644.31540260975
 20
-29470.46022470093
 30
0.0
 40
43.0
100
AcDbArc
 50
270.0
 51
0.0
  0
LINE
  5
34CA4
102
{ACAD_REACTORS
330
3506A
330
35071
102
}
330
747D
100
AcDbEntity
  8
KIN-T
100
AcDbLine
 10
60498.86540260974
 20
-29513.46022470092
 30
0.0
 11
60644.31540260975
 21
-29513.46022470092
 31
0.0
  0
LINE
  5
34CA5
102
{ACAD_REACTORS
330
3506A
330
35071
102
}
330
747D
100
AcDbEntity
  8
KIN-T
100
AcDbLine
 10
60498.86540260974
 20
-29500.46022470092
 30
0.0
 11
60498.86540260974
 21
-29513.46022470092
 31
0.0
  0
LINE
  5
34CA6
102
{ACAD_REACTORS
330
3506A
330
3506B
330
35070
102
}
330
747D
100
AcDbEntity
  8
KIN-T
100
AcDbLine
 10
60885.86540260974
 20
-29500.46022470092
 30
0.0
 11
61031.31540260974
 21
-29500.46022470092
 31
0.0
  0
LINE
  5
34CA7
102
{ACAD_REACTORS
330
3506A
330
3506B
330
35070
102
}
330
747D
100
AcDbEntity
  8
KIN-T
100
AcDbLine
 10
61061.31540260975
 20
-29130.46022470092
 30
0.0
 11
61061.31540260975
 21
-29470.46022470093
 31
0.0
  0
ARC
  5
34CA8
102
{ACAD_REACTORS
330
3506A
330
3506B
330
35070
102
}
330
747D
100
AcDbEntity
  8
KIN-T
100
AcDbCircle
 10
61031.31540260974
 20
-29470.46022470093
 30
0.0
 40
30.0
100
AcDbArc
 50
270.0
 51
0.0
  0
LINE
  5
34CA9
102
{ACAD_REACTORS
330
3506A
330
3506B
102
}
330
747D
100
AcDbEntity
  8
KIN-T
100
AcDbLine
 10
61061.31540260975
 20
-29130.46022470092
 30
0.0
 11
61074.31540260974
 21
-29130.46022470092
 31
0.0
  0
LINE
  5
34CAA
102
{ACAD_REACTORS
330
3506A
330
3506B
102
}
330
747D
100
AcDbEntity
  8
KIN-T
100
AcDbLine
 10
61074.31540260974
 20
-29130.46022470092
 30
0.0
 11
61074.31540260974
 21
-29470.46022470093
 31
0.0
  0
ARC
  5
34CAB
102
{ACAD_REACTORS
330
3506A
330
3506B
102
}
330
747D
100
AcDbEntity
  8
KIN-T
100
AcDbCircle
 10
61031.31540260974
 20
-29470.46022470093
 30
0.0
 40
43.0
100
AcDbArc
 50
270.0
 51
0.0
  0
LINE
  5
34CAC
102
{ACAD_REACTORS
330
3506A
330
3506B
102
}
330
747D
100
AcDbEntity
  8
KIN-T
100
AcDbLine
 10
60885.86540260974
 20
-29500.46022470092
 30
0.0
 11
60885.86540260974
 21
-29513.46022470092
 31
0.0
  0
LINE
  5
34CAD
102
{ACAD_REACTORS
330
3506A
330
3506F
102
}
330
747D
100
AcDbEntity
  8
U7
100
AcDbLine
 10
60669.31540260974
 20
-29440.46022470093
 30
0.0
 11
61079.31540260974
 21
-29440.46022470092
 31
0.0
  0
LINE
  5
34CAE
102
{ACAD_REACTORS
330
3506A
330
3506F
102
}
330
747D
100
AcDbEntity
  8
U7
100
AcDbLine
 10
60669.31540260974
 20
-29430.46022470093
 30
0.0
 11
61079.31540260974
 21
-29430.46022470093
 31
0.0
  0
CIRCLE
  5
34CAF
102
{ACAD_REACTORS
330
3506A
330
3506F
102
}
330
747D
100
AcDbEntity
  8
U7
100
AcDbCircle
 10
61079.31540260974
 20
-29435.46022470092
 30
0.0
 40
5.0
  0
CIRCLE
  5
34CB0
102
{ACAD_REACTORS
330
3506A
330
3506F
102
}
330
747D
100
AcDbEntity
  8
U7
100
AcDbCircle
 10
60669.31540260974
 20
-29435.46022470092
 30
0.0
 40
5.0
  0
LINE
  5
34CB1
102
{ACAD_REACTORS
330
3506A
330
3506E
102
}
330
747D
100
AcDbEntity
  8
U7
100
AcDbLine
 10
60669.31540260974
 20
-29330.46022470092
 30
0.0
 11
61079.31540260974
 21
-29330.46022470092
 31
0.0
  0
LINE
  5
34CB2
102
{ACAD_REACTORS
330
3506A
330
3506E
102
}
330
747D
100
AcDbEntity
  8
U7
100
AcDbLine
 10
60669.31540260974
 20
-29340.46022470092
 30
0.0
 11
61079.31540260974
 21
-29340.46022470092
 31
0.0
  0
CIRCLE
  5
34CB3
102
{ACAD_REACTORS
330
3506A
330
3506E
102
}
330
747D
100
AcDbEntity
  8
U7
100
AcDbCircle
 10
61079.31540260974
 20
-29335.46022470093
 30
0.0
 40
5.0
  0
CIRCLE
  5
34CB4
102
{ACAD_REACTORS
330
3506A
330
3506E
102
}
330
747D
100
AcDbEntity
  8
U7
100
AcDbCircle
 10
60669.31540260974
 20
-29335.46022470093
 30
0.0
 40
5.0
  0
LINE
  5
34CB5
102
{ACAD_REACTORS
330
3506A
330
3506D
102
}
330
747D
100
AcDbEntity
  8
U7
100
AcDbLine
 10
60669.31540260974
 20
-29240.46022470093
 30
0.0
 11
61079.31540260974
 21
-29240.46022470092
 31
0.0
  0
LINE
  5
34CB6
102
{ACAD_REACTORS
330
3506A
330
3506D
102
}
330
747D
100
AcDbEntity
  8
U7
100
AcDbLine
 10
60669.31540260974
 20
-29230.46022470093
 30
0.0
 11
61079.31540260974
 21
-29230.46022470093
 31
0.0
  0
CIRCLE
  5
34CB7
102
{ACAD_REACTORS
330
3506A
330
3506D
102
}
330
747D
100
AcDbEntity
  8
U7
100
AcDbCircle
 10
61079.31540260974
 20
-29235.46022470092
 30
0.0
 40
5.0
  0
CIRCLE
  5
34CB8
102
{ACAD_REACTORS
330
3506A
330
3506D
102
}
330
747D
100
AcDbEntity
  8
U7
100
AcDbCircle
 10
60669.31540260974
 20
-29235.46022470092
 30
0.0
 40
5.0
  0
LINE
  5
34CB9
102
{ACAD_REACTORS
330
3506A
330
3506C
102
}
330
747D
100
AcDbEntity
  8
U7
100
AcDbLine
 10
60669.31540260974
 20
-29130.46022470092
 30
0.0
 11
61079.31540260974
 21
-29130.46022470092
 31
0.0
  0
LINE
  5
34CBA
102
{ACAD_REACTORS
330
3506A
330
3506C
102
}
330
747D
100
AcDbEntity
  8
U7
100
AcDbLine
 10
60669.31540260974
 20
-29140.46022470092
 30
0.0
 11
61079.31540260974
 21
-29140.46022470092
 31
0.0
  0
CIRCLE
  5
34CBB
102
{ACAD_REACTORS
330
3506A
330
3506C
102
}
330
747D
100
AcDbEntity
  8
U7
100
AcDbCircle
 10
61079.31540260974
 20
-29135.46022470093
 30
0.0
 40
5.0
  0
CIRCLE
  5
34CBC
102
{ACAD_REACTORS
330
3506A
330
3506C
102
}
330
747D
100
AcDbEntity
  8
U7
100
AcDbCircle
 10
60669.31540260974
 20
-29135.46022470093
 30
0.0
 40
5.0
  0
LINE
  5
34CBD
102
{ACAD_REACTORS
330
3506A
330
3506B
102
}
330
747D
100
AcDbEntity
  8
KIN-T
100
AcDbLine
 10
60885.86540260974
 20
-29513.46022470092
 30
0.0
 11
61031.31540260974
 21
-29513.46022470092
 31
0.0
  0
LINE
  5
34CBE
102
{ACAD_REACTORS
330
35069
102
}
330
747D
100
AcDbEntity
  8
部品1
 48
50.0
100
AcDbLine
 10
60158.56540260973
 20
-29550.46022470093
 30
0.0
 11
60158.56540260973
 21
-29560.46022470093
 31
0.0
  0
LINE
  5
34CBF
102
{ACAD_REACTORS
330
35069
102
}
330
747D
100
AcDbEntity
  8
部品1
 48
50.0
100
AcDbLine
 10
60158.56540260973
 20
-29560.46022470093
 30
0.0
 11
60990.03495104764
 21
-29560.46022470093
 31
0.0
  0
LINE
  5
34CC0
102
{ACAD_REACTORS
330
35069
102
}
330
747D
100
AcDbEntity
  8
部品1
 48
50.0
100
AcDbLine
 10
60990.03495104764
 20
-29550.46022470093
 30
0.0
 11
60990.03495104764
 21
-29560.46022470093
 31
0.0
  0
CIRCLE
  5
34CC1
102
{ACAD_REACTORS
330
35069
102
}
330
747D
100
AcDbEntity
  8
部品1
 48
50.0
100
AcDbCircle
 10
60174.31540260973
 20
-29545.46022470093
 30
0.0
 40
5.0
  0
CIRCLE
  5
34CC2
102
{ACAD_REACTORS
330
35069
102
}
330
747D
100
AcDbEntity
  8
部品1
 48
50.0
100
AcDbCircle
 10
60374.31540260973
 20
-29545.46022470093
 30
0.0
 40
5.0
  0
CIRCLE
  5
34CC3
102
{ACAD_REACTORS
330
35069
102
}
330
747D
100
AcDbEntity
  8
部品1
 48
50.0
100
AcDbCircle
 10
60574.31540260973
 20
-29545.46022470093
 30
0.0
 40
5.0
  0
CIRCLE
  5
34CC4
102
{ACAD_REACTORS
330
35069
102
}
330
747D
100
AcDbEntity
  8
部品1
 48
50.0
100
AcDbCircle
 10
60774.31540260973
 20
-29545.46022470093
 30
0.0
 40
5.0
  0
CIRCLE
  5
34CC5
102
{ACAD_REACTORS
330
35069
102
}
330
747D
100
AcDbEntity
  8
部品1
 48
50.0
100
AcDbCircle
 10
60974.31540260974
 20
-29545.46022470093
 30
0.0
 40
5.0
  0
LINE
  5
34CC6
102
{ACAD_REACTORS
330
35069
102
}
330
747D
100
AcDbEntity
  8
部品1
 48
50.0
100
AcDbLine
 10
60158.56540260973
 20
-29550.46022470093
 30
0.0
 11
60990.03495104764
 21
-29550.46022470093
 31
0.0
  0
TEXT
  5
34CC7
330
747D
100
AcDbEntity
  8
寸法
 62
     7
100
AcDbText
 10
58923.02287168855
 20
-29804.91724341358
 30
0.0
 40
90.0
  1
ベース筋
  7
STYLE1
100
AcDbText
  0
TEXT
  5
34CC8
330
747D
100
AcDbEntity
  8
寸法
 62
     7
100
AcDbText
 10
58923.02287168855
 20
-29919.3901641382
 30
0.0
 40
90.0
  1
4-D10X5-D10以上
  7
STYLE1
100
AcDbText
  0
DIMENSION
  5
34CC9
330
747D
100
AcDbEntity
  8
寸法
 48
50.0
100
AcDbDimension
  2
*D29
 10
59651.52329574518
 20
-29115.46022470092
 30
0.0
 11
59651.52329574519
 21
-29332.68857115761
 31
0.0
 70
   160
 71
     5
 42
60.0
  3
INABA_S30G
100
AcDbAlignedDimension
 13
60009.01840042491
 23
-29175.46022470093
 33
0.0
 14
60768.31540260973
 24
-29115.46022470092
 34
0.0
 50
90.0
100
AcDbRotatedDimension
  0
DIMENSION
  5
34CCA
330
747D
100
AcDbEntity
  8
寸法
 48
50.0
100
AcDbDimension
  2
*D28
 10
59851.69919913842
 20
-29145.46022470092
 30
0.0
 11
59851.69919913843
 21
-29404.99565777178
 31
0.0
 70
   160
 71
     5
 42
30.0
  3
INABA_S30G
100
AcDbAlignedDimension
 13
60009.01840042491
 23
-29175.46022470093
 33
0.0
 14
60734.31540260973
 24
-29145.46022470092
 34
0.0
 50
90.0
100
AcDbRotatedDimension
  0
LINE
  5
34CD4
330
747D
100
AcDbEntity
  8
部品1
 48
50.0
100
AcDbLine
 10
60074.31540260973
 20
-29075.46022470092
 30
0.0
 11
59572.19959151005
 21
-29075.46022470092
 31
0.0
  0
LINE
  5
34CD5
330
747D
100
AcDbEntity
  8
部品1
 48
50.0
100
AcDbLine
 10
60980.31540260973
 20
-29175.46022470092
 30
0.0
 11
61174.31540260971
 21
-29175.46022470092
 31
0.0
  0
LINE
  5
34CD6
330
747D
100
AcDbEntity
  8
部品1
 48
50.0
100
AcDbLine
 10
60074.31540260973
 20
-29175.46022470093
 30
0.0
 11
60768.31540260973
 21
-29175.46022470092
 31
0.0
  0
LINE
  5
34CD7
330
747D
100
AcDbEntity
  8
部品1
 48
50.0
100
AcDbLine
 10
60780.31540260973
 20
-29175.46022470092
 30
0.0
 11
60968.31540260973
 21
-29175.46022470092
 31
0.0
  0
ARC
  5
34CD8
330
747D
100
AcDbEntity
  8
部品1
 48
50.0
100
AcDbCircle
 10
60874.31540260973
 20
-29193.68022597159
 30
0.0
 40
48.22000127066345
100
AcDbArc
 50
22.20066484131572
 51
157.7993351586842
  0
LINE
  5
34CDB
330
747D
100
AcDbEntity
  8
寸法
 48
50.0
100
AcDbLine
 10
61065.52860604534
 20
-29491.67342813652
 30
0.0
 11
61648.49886866774
 21
-30074.64369075893
 31
0.0
  0
TEXT
  5
34CE2
330
747D
100
AcDbEntity
  8
寸法
 62
     7
 48
50.0
100
AcDbText
 10
59160.63759276611
 20
-30305.82539788149
 30
0.0
 40
90.0
  1
帯筋D10＠100
  7
STYLE1
100
AcDbText
  0
LINE
  5
34CE3
330
747D
100
AcDbEntity
  8
寸法
 48
50.0
100
AcDbLine
 10
59835.39598903018
 20
-30320.10832537076
 30
0.0
 11
59136.55017508598
 21
-30320.10832537076
 31
0.0
  0
LINE
  5
34CE4
330
747D
100
AcDbEntity
  8
寸法
 48
50.0
100
AcDbLine
 10
60720.04408970002
 20
-29435.46022470092
 30
0.0
 11
59835.39598903018
 21
-30320.10832537076
 31
0.0
  0
LINE
  5
34CE5
330
747D
100
AcDbEntity
  8
寸法
 48
50.0
100
AcDbLine
 10
61648.49886866774
 20
-29660.23612869758
 30
0.0
 11
60980.31540260973
 21
-29274.46022470093
 31
0.0
  0
LINE
  5
34CE6
330
747D
100
AcDbEntity
  8
寸法
 48
50.0
100
AcDbLine
 10
61648.49886866774
 20
-30074.64369075894
 30
0.0
 11
62235.6791044996
 21
-30074.64369075894
 31
0.0
  0
TEXT
  5
34CE7
330
747D
100
AcDbEntity
  8
寸法
 62
     7
 48
50.0
100
AcDbText
 10
61686.24423474992
 20
-30053.36130546816
 30
0.0
 40
90.0
  1
主筋4-D13
  7
STYLE1
100
AcDbText
  0
TEXT
  5
34CE8
330
747D
100
AcDbEntity
  8
寸法
 62
     7
 48
50.0
100
AcDbText
 10
61686.24423474992
 20
-29767.51450368188
 30
0.0
 40
90.0
  1
M12X350（市販品）
  7
STYLE1
100
AcDbText
  0
LWPOLYLINE
  5
34CE9
330
747D
100
AcDbEntity
  8
寸法
 48
5.0
100
AcDbPolyline
 90
        3
 70
     0
 43
0.0
 10
60174.31540260973
 20
-29544.26022470093
 10
59835.39598903018
 20
-29939.91116913655
 10
58917.88643388522
 20
-29939.91116913655
1001
ACAD
1000
DSTYLE
1002
{
1070
   341
1005
0
1002
}
  0
TEXT
  5
34CEA
330
747D
100
AcDbEntity
  8
寸法
 62
     7
 48
50.0
100
AcDbText
 10
61686.24423474992
 20
-29647.96822516544
 30
0.0
 40
90.0
  1
アンカーボルト
  7
STYLE1
100
AcDbText
  0
LINE
  5
34CEB
330
747D
100
AcDbEntity
  8
寸法
 48
50.0
100
AcDbLine
 10
61648.49886866774
 20
-29660.23612869758
 30
0.0
 11
62641.4261951884
 21
-29660.23612869758
 31
0.0
  0
LINE
  5
34CEC
102
{ACAD_REACTORS
330
35068
102
}
330
747D
100
AcDbEntity
  8
部品1
100
AcDbLine
 10
61005.31540260973
 20
-29424.46022470093
 30
0.0
 11
61024.31540260973
 21
-29424.46022470093
 31
0.0
  0
LINE
  5
34CED
102
{ACAD_REACTORS
330
35068
102
}
330
747D
100
AcDbEntity
  8
部品1
100
AcDbLine
 10
61005.31540260973
 20
-29436.46022470093
 30
0.0
 11
61024.31540260973
 21
-29436.46022470093
 31
0.0
  0
LINE
  5
34CEE
102
{ACAD_REACTORS
330
35068
102
}
330
747D
100
AcDbEntity
  8
部品1
100
AcDbLine
 10
61024.31540260973
 20
-29424.46022470093
 30
0.0
 11
61024.31540260973
 21
-29436.46022470093
 31
0.0
  0
ARC
  5
34CEF
102
{ACAD_REACTORS
330
35068
102
}
330
747D
100
AcDbEntity
  8
部品1
100
AcDbCircle
 10
61005.31540260973
 20
-29399.46022470092
 30
0.0
 40
25.0
100
AcDbArc
 50
180.0
 51
270.0
  0
ARC
  5
34CF0
102
{ACAD_REACTORS
330
35068
102
}
330
747D
100
AcDbEntity
  8
部品1
100
AcDbCircle
 10
61005.31540260973
 20
-29399.46022470092
 30
0.0
 40
37.0
100
AcDbArc
 50
180.0
 51
270.0
  0
LINE
  5
34CF1
102
{ACAD_REACTORS
330
35068
102
}
330
747D
100
AcDbEntity
  8
部品1
100
AcDbLine
 10
60968.31540260973
 20
-29145.46022470092
 30
0.0
 11
60968.31540260973
 21
-29399.46022470092
 31
0.0
  0
LINE
  5
34CF2
102
{ACAD_REACTORS
330
35068
102
}
330
747D
100
AcDbEntity
  8
部品1
100
AcDbLine
 10
60980.31540260973
 20
-29115.46022470092
 30
0.0
 11
60968.31540260973
 21
-29115.46022470092
 31
0.0
  0
LINE
  5
34CF3
102
{ACAD_REACTORS
330
35068
102
}
330
747D
100
AcDbEntity
  8
部品1
100
AcDbLine
 10
60980.31540260973
 20
-29115.46022470092
 30
0.0
 11
60980.31540260973
 21
-29123.46022470093
 31
0.0
  0
LINE
  5
34CF4
102
{ACAD_REACTORS
330
35068
102
}
330
747D
100
AcDbEntity
  8
部品1
100
AcDbLine
 10
60968.31540260973
 20
-29115.46022470092
 30
0.0
 11
60968.31540260973
 21
-29123.46022470093
 31
0.0
  0
LINE
  5
34CF5
102
{ACAD_REACTORS
330
35068
102
}
330
747D
100
AcDbEntity
  8
部品1
100
AcDbLine
 10
60985.28505772433
 20
-29123.46022470093
 30
0.0
 11
60963.34574749513
 21
-29123.46022470093
 31
0.0
  0
LINE
  5
34CF6
102
{ACAD_REACTORS
330
35068
102
}
330
747D
100
AcDbEntity
  8
部品1
100
AcDbLine
 10
60963.34574749513
 20
-29133.46022470093
 30
0.0
 11
60963.34574749513
 21
-29123.46022470093
 31
0.0
  0
LINE
  5
34CF7
102
{ACAD_REACTORS
330
35068
102
}
330
747D
100
AcDbEntity
  8
部品1
100
AcDbLine
 10
60968.83057505243
 20
-29133.46022470093
 30
0.0
 11
60968.83057505243
 21
-29123.46022470093
 31
0.0
  0
LINE
  5
34CF8
102
{ACAD_REACTORS
330
35068
102
}
330
747D
100
AcDbEntity
  8
部品1
100
AcDbLine
 10
60979.80023016703
 20
-29133.46022470093
 30
0.0
 11
60979.80023016703
 21
-29123.46022470093
 31
0.0
  0
LINE
  5
34CF9
102
{ACAD_REACTORS
330
35068
102
}
330
747D
100
AcDbEntity
  8
部品1
100
AcDbLine
 10
60985.28505772433
 20
-29133.46022470093
 30
0.0
 11
60985.28505772433
 21
-29123.46022470093
 31
0.0
  0
LINE
  5
34CFA
102
{ACAD_REACTORS
330
35068
102
}
330
747D
100
AcDbEntity
  8
部品1
100
AcDbLine
 10
60985.28505772433
 20
-29133.46022470093
 30
0.0
 11
60963.34574749513
 21
-29133.46022470093
 31
0.0
  0
LINE
  5
34CFB
102
{ACAD_REACTORS
330
35068
102
}
330
747D
100
AcDbEntity
  8
部品1
100
AcDbLine
 10
60980.31540260973
 20
-29145.46022470092
 30
0.0
 11
60980.31540260973
 21
-29399.46022470092
 31
0.0
  0
LINE
  5
34CFC
102
{ACAD_REACTORS
330
35067
102
}
330
747D
100
AcDbEntity
  8
部品1
100
AcDbLine
 10
60780.31540260973
 20
-29145.46022470092
 30
0.0
 11
60780.31540260973
 21
-29399.46022470092
 31
0.0
  0
LINE
  5
34CFD
102
{ACAD_REACTORS
330
35067
102
}
330
747D
100
AcDbEntity
  8
部品1
100
AcDbLine
 10
60768.31540260973
 20
-29145.46022470092
 30
0.0
 11
60768.31540260973
 21
-29399.46022470092
 31
0.0
  0
LINE
  5
34CFE
102
{ACAD_REACTORS
330
35067
102
}
330
747D
100
AcDbEntity
  8
部品1
100
AcDbLine
 10
60763.34574749512
 20
-29133.46022470093
 30
0.0
 11
60785.28505772434
 21
-29133.46022470093
 31
0.0
  0
LINE
  5
34CFF
102
{ACAD_REACTORS
330
35067
102
}
330
747D
100
AcDbEntity
  8
部品1
100
AcDbLine
 10
60763.34574749512
 20
-29133.46022470093
 30
0.0
 11
60763.34574749512
 21
-29123.46022470093
 31
0.0
  0
LINE
  5
34D00
102
{ACAD_REACTORS
330
35067
102
}
330
747D
100
AcDbEntity
  8
部品1
100
AcDbLine
 10
60768.83057505243
 20
-29133.46022470093
 30
0.0
 11
60768.83057505243
 21
-29123.46022470093
 31
0.0
  0
LINE
  5
34D01
102
{ACAD_REACTORS
330
35067
102
}
330
747D
100
AcDbEntity
  8
部品1
100
AcDbLine
 10
60779.80023016703
 20
-29133.46022470093
 30
0.0
 11
60779.80023016703
 21
-29123.46022470093
 31
0.0
  0
LINE
  5
34D02
102
{ACAD_REACTORS
330
35067
102
}
330
747D
100
AcDbEntity
  8
部品1
100
AcDbLine
 10
60785.28505772434
 20
-29133.46022470093
 30
0.0
 11
60785.28505772434
 21
-29123.46022470093
 31
0.0
  0
LINE
  5
34D03
102
{ACAD_REACTORS
330
35067
102
}
330
747D
100
AcDbEntity
  8
部品1
100
AcDbLine
 10
60763.34574749512
 20
-29123.46022470093
 30
0.0
 11
60785.28505772434
 21
-29123.46022470093
 31
0.0
  0
ARC
  5
34D04
102
{ACAD_REACTORS
330
35067
102
}
330
747D
100
AcDbEntity
  8
部品1
100
AcDbCircle
 10
60743.31540260973
 20
-29399.46022470092
 30
0.0
 40
37.0
100
AcDbArc
 50
270.0
 51
0.0
  0
ARC
  5
34D05
102
{ACAD_REACTORS
330
35067
102
}
330
747D
100
AcDbEntity
  8
部品1
100
AcDbCircle
 10
60743.31540260973
 20
-29399.46022470092
 30
0.0
 40
25.0
100
AcDbArc
 50
270.0
 51
0.0
  0
LINE
  5
34D06
102
{ACAD_REACTORS
330
35067
102
}
330
747D
100
AcDbEntity
  8
部品1
100
AcDbLine
 10
60724.31540260973
 20
-29424.46022470093
 30
0.0
 11
60724.31540260973
 21
-29436.46022470093
 31
0.0
  0
LINE
  5
34D07
102
{ACAD_REACTORS
330
35067
102
}
330
747D
100
AcDbEntity
  8
部品1
100
AcDbLine
 10
60743.31540260973
 20
-29436.46022470093
 30
0.0
 11
60724.31540260973
 21
-29436.46022470093
 31
0.0
  0
LINE
  5
34D08
102
{ACAD_REACTORS
330
35067
102
}
330
747D
100
AcDbEntity
  8
部品1
100
AcDbLine
 10
60743.31540260973
 20
-29424.46022470093
 30
0.0
 11
60724.31540260973
 21
-29424.46022470093
 31
0.0
  0
LINE
  5
34D09
102
{ACAD_REACTORS
330
35067
102
}
330
747D
100
AcDbEntity
  8
部品1
100
AcDbLine
 10
60780.31540260973
 20
-29115.46022470092
 30
0.0
 11
60780.31540260973
 21
-29123.46022470093
 31
0.0
  0
LINE
  5
34D0A
102
{ACAD_REACTORS
330
35067
102
}
330
747D
100
AcDbEntity
  8
部品1
100
AcDbLine
 10
60768.31540260973
 20
-29115.46022470092
 30
0.0
 11
60768.31540260973
 21
-29123.46022470093
 31
0.0
  0
LINE
  5
34D0B
102
{ACAD_REACTORS
330
35067
102
}
330
747D
100
AcDbEntity
  8
部品1
100
AcDbLine
 10
60768.31540260973
 20
-29115.46022470092
 30
0.0
 11
60780.31540260973
 21
-29115.46022470092
 31
0.0
  0
LINE
  5
34D0C
330
747D
100
AcDbEntity
  8
CSLAYER17
  6
Continuous
 62
     7
100
AcDbLine
 10
60997.86540260973
 20
-29083.46022470093
 30
0.0
 11
61007.86540260974
 21
-29093.46022470093
 31
0.0
  0
LINE
  5
34D0D
330
747D
100
AcDbEntity
  8
CSLAYER17
  6
Continuous
 62
     7
100
AcDbLine
 10
60750.76540260972
 20
-29083.46022470093
 30
0.0
 11
60740.76540260973
 21
-29093.46022470093
 31
0.0
  0
LINE
  5
34D0E
330
747D
100
AcDbEntity
  8
CSLAYER17
  6
Continuous
 62
     7
100
AcDbLine
 10
60829.26540260973
 20
-29123.46022470093
 30
0.0
 11
60819.26540260973
 21
-29133.46022470093
 31
0.0
  0
LINE
  5
34D0F
330
747D
100
AcDbEntity
  8
部品1
100
AcDbLine
 10
60829.26540260973
 20
-29083.46022470093
 30
0.0
 11
60829.26540260973
 21
-29123.46022470093
 31
0.0
  0
LINE
  5
34D10
330
747D
100
AcDbEntity
  8
部品1
100
AcDbLine
 10
60919.36540260974
 20
-29083.46022470093
 30
0.0
 11
60919.36540260974
 21
-29123.46022470093
 31
0.0
  0
LINE
  5
34D11
330
747D
100
AcDbEntity
  8
CSLAYER17
  6
Continuous
 62
     7
100
AcDbLine
 10
60919.36540260974
 20
-29123.46022470093
 30
0.0
 11
60929.36540260973
 21
-29133.46022470093
 31
0.0
  0
LINE
  5
34D12
330
747D
100
AcDbEntity
  8
CSLAYER17
  6
Continuous
 62
     7
100
AcDbLine
 10
60919.36540260974
 20
-29083.46022470093
 30
0.0
 11
60997.86540260973
 21
-29083.46022470093
 31
0.0
  0
LINE
  5
34D13
330
747D
100
AcDbEntity
  8
CSLAYER17
  6
Continuous
 62
     7
100
AcDbLine
 10
60740.76540260973
 20
-29093.46022470093
 30
0.0
 11
60740.76540260973
 21
-29133.46022470093
 31
0.0
  0
LINE
  5
34D14
330
747D
100
AcDbEntity
  8
CSLAYER17
  6
Continuous
 62
     7
100
AcDbLine
 10
61007.86540260974
 20
-29093.46022470093
 30
0.0
 11
61007.86540260974
 21
-29133.46022470093
 31
0.0
  0
LINE
  5
34D15
330
747D
100
AcDbEntity
  8
CSLAYER17
  6
Continuous
 62
     7
100
AcDbLine
 10
60750.76540260972
 20
-29083.46022470093
 30
0.0
 11
60829.26540260973
 21
-29083.46022470093
 31
0.0
  0
LINE
  5
34D16
330
747D
100
AcDbEntity
  8
CSLAYER17
  6
Continuous
 62
     7
100
AcDbLine
 10
60872.06540260973
 20
-29083.46022470093
 30
0.0
 11
60876.56540260973
 21
-29083.46022470093
 31
0.0
  0
LINE
  5
34D17
330
747D
100
AcDbEntity
  8
CSLAYER17
  6
Continuous
 62
     7
100
AcDbLine
 10
60876.56540260973
 20
-29083.46022470093
 30
0.0
 11
60876.56540260973
 21
-29133.46022470093
 31
0.0
  0
LINE
  5
34D18
330
747D
100
AcDbEntity
  8
CSLAYER17
  6
Continuous
 62
     7
100
AcDbLine
 10
60872.06540260973
 20
-29083.46022470093
 30
0.0
 11
60872.06540260973
 21
-29133.46022470093
 31
0.0
  0
LINE
  5
34D19
330
747D
100
AcDbEntity
  8
CSLAYER17
  6
Continuous
 62
     7
100
AcDbLine
 10
61014.31540260973
 20
-29133.46022470093
 30
0.0
 11
61014.31540260973
 21
-29145.46022470092
 31
0.0
  0
LINE
  5
34D1A
330
747D
100
AcDbEntity
  8
CSLAYER17
  6
Continuous
 62
     7
100
AcDbLine
 10
60734.31540260973
 20
-29145.46022470092
 30
0.0
 11
60734.31540260973
 21
-29133.46022470093
 31
0.0
  0
LINE
  5
34D1B
330
747D
100
AcDbEntity
  8
CSLAYER17
  6
Continuous
 62
     7
100
AcDbLine
 10
60734.31540260973
 20
-29133.46022470093
 30
0.0
 11
61014.31540260973
 21
-29133.46022470093
 31
0.0
  0
LINE
  5
34D1C
330
747D
100
AcDbEntity
  8
CSLAYER17
  6
Continuous
 62
     7
100
AcDbLine
 10
60734.31540260973
 20
-29145.46022470092
 30
0.0
 11
61014.31540260973
 21
-29145.46022470092
 31
0.0
  0
LINE
  5
34D1D
330
747D
100
AcDbEntity
  8
部品1
 48
50.0
100
AcDbLine
 10
60918.97863450525
 20
-29133.46022470093
 30
0.0
 11
60829.76540260973
 21
-29133.46022470093
 31
0.0
  0
DIMENSION
  5
34D1E
330
747D
100
AcDbEntity
  8
寸法
 48
50.0
100
AcDbDimension
  2
*D27
 10
60074.31540260973
 20
-30297.16241543371
 30
0.0
 11
60624.31540260972
 21
-30222.16241543371
 31
0.0
 70
    32
 71
     5
 42
1099.999999999992
  3
INABA_S30G
100
AcDbAlignedDimension
 13
61174.31540260971
 23
-29625.46022470093
 33
0.0
 14
60074.31540260973
 24
-29625.46022470093
 34
0.0
100
AcDbRotatedDimension
  0
DIMENSION
  5
34D1F
330
747D
100
AcDbEntity
  8
寸法
 48
50.0
100
AcDbDimension
  2
*D26
 10
61466.75676721042
 20
-29675.46022470092
 30
0.0
 11
61466.75676721043
 21
-29908.01927981904
 31
0.0
 70
   160
 71
     5
 42
50.0
  3
INABA_S30G
100
AcDbAlignedDimension
 13
61254.31540260972
 23
-29625.46022470093
 33
0.0
 14
61254.31540260972
 24
-29675.46022470092
 34
0.0
 50
90.0
100
AcDbRotatedDimension
  0
DIMENSION
  5
34D20
330
747D
100
AcDbEntity
  8
寸法
 48
50.0
100
AcDbDimension
  2
*D25
 10
60874.31540260973
 20
-30067.07685434497
 30
0.0
 11
60474.31540260973
 21
-29992.07685434497
 31
0.0
 70
    32
 71
     5
 42
800.0000000000072
  3
INABA_S30G
100
AcDbAlignedDimension
 13
60074.31540260973
 23
-29625.46022470093
 33
0.0
 14
60874.31540260973
 24
-29196.51805653079
 34
0.0
100
AcDbRotatedDimension
  0
DIMENSION
  5
34D21
330
747D
100
AcDbEntity
  8
寸法
 48
50.0
100
AcDbDimension
  2
*D24
 10
61174.31540260971
 20
-30067.07685434497
 30
0.0
 11
61024.31540260973
 21
-29992.07685434497
 31
0.0
 70
    32
 71
     5
 42
299.9999999999854
  3
INABA_S30G
100
AcDbAlignedDimension
 13
60874.31540260973
 23
-29196.51805653079
 33
0.0
 14
61174.31540260971
 24
-29625.46022470093
 34
0.0
100
AcDbRotatedDimension
  0
DIMENSION
  5
34D22
330
747D
100
AcDbEntity
  8
寸法
 48
50.0
100
AcDbDimension
  2
*D23
 10
59421.61846440815
 20
-29175.46022470093
 30
0.0
 11
59421.61846440816
 21
-29352.49565777178
 31
0.0
 70
   160
 71
     5
 42
100.0
  3
INABA_S30G
100
AcDbAlignedDimension
 13
59572.19959151005
 23
-29075.46022470092
 33
0.0
 14
59572.19959151005
 24
-29175.46022470093
 34
0.0
 50
90.0
100
AcDbRotatedDimension
  0
DIMENSION
  5
34D23
330
747D
100
AcDbEntity
  8
寸法
 48
50.0
100
AcDbDimension
  2
*D22
 10
59421.61846440815
 20
-28975.46022470093
 30
0.0
 11
59421.61846440816
 21
-28798.42479163005
 31
0.0
 70
   160
 71
     5
 42
100.0
  3
INABA_S30G
100
AcDbAlignedDimension
 13
59572.19959151005
 23
-29075.46022470092
 33
0.0
 14
59572.19959151005
 24
-28975.46022470093
 34
0.0
 50
90.0
100
AcDbRotatedDimension
  0
LINE
  5
34D7D
330
747D
100
AcDbEntity
  8
部品1
 48
50.0
100
AcDbLine
 10
59994.31540260973
 20
-29625.46022470093
 30
0.0
 11
59994.31540260973
 21
-29775.46022470093
 31
0.0
  0
LINE
  5
34D7E
330
747D
100
AcDbEntity
  8
部品1
 48
50.0
100
AcDbLine
 10
61254.31540260971
 20
-29625.46022470093
 30
0.0
 11
61254.31540260971
 21
-29775.46022470093
 31
0.0
  0
LINE
  5
34D88
330
747D
100
AcDbEntity
  8
部品1
 48
50.0
100
AcDbLine
 10
60801.76540260974
 20
-28975.46022470093
 30
0.0
 11
59572.19959151005
 21
-28975.46022470093
 31
0.0
  0
LINE
  5
34D89
330
747D
100
AcDbEntity
  8
部品1
 48
50.0
100
AcDbLine
 10
60932.86540260973
 20
-28961.46022470093
 30
0.0
 11
60946.86540260974
 21
-28975.46022470093
 31
0.0
  0
LINE
  5
34D8A
330
747D
100
AcDbEntity
  8
部品1
 48
50.0
100
AcDbLine
 10
60918.86540260973
 20
-28961.46022470093
 30
0.0
 11
60932.86540260973
 21
-28961.46022470093
 31
0.0
  0
LINE
  5
34D8B
330
747D
100
AcDbEntity
  8
部品1
 48
50.0
100
AcDbLine
 10
60815.76540260972
 20
-28961.46022470093
 30
0.0
 11
60829.76540260973
 21
-28961.46022470093
 31
0.0
  0
LINE
  5
34D8C
330
747D
100
AcDbEntity
  8
部品1
 48
50.0
100
AcDbLine
 10
60815.76540260972
 20
-28961.46022470093
 30
0.0
 11
60801.76540260973
 21
-28975.46022470093
 31
0.0
  0
TEXT
  5
34DC6
330
747D
100
AcDbEntity
  8
寸法
 62
     7
 48
50.0
100
AcDbText
 10
60180.86956748518
 20
-28715.46577285678
 30
0.0
 40
90.0
  1
水勾配
 41
0.8
  7
STYLE1
100
AcDbText
  0
TEXT
  5
34DC7
330
747D
100
AcDbEntity
  8
寸法
 62
     7
 48
50.0
100
AcDbText
 10
60147.60607451385
 20
-28863.80428497889
 30
0.0
 40
90.0
  1
１／１００
 41
0.8
  7
STYLE1
100
AcDbText
  0
LINE
  5
34DC8
330
747D
100
AcDbEntity
  8
寸法
 48
50.0
100
AcDbLine
 10
60082.63612648553
 20
-28900.85280849877
 30
0.0
 11
60151.28734435067
 21
-28919.24784688514
 31
0.0
  0
LINE
  5
34DC9
330
747D
100
AcDbEntity
  8
寸法
 48
50.0
100
AcDbLine
 10
60082.63612648553
 20
-28900.85280849877
 30
0.0
 11
60151.28734435067
 21
-28882.45777011239
 31
0.0
  0
LINE
  5
34DCA
330
747D
100
AcDbEntity
  8
寸法
 48
50.0
100
AcDbLine
 10
60082.63612648553
 20
-28900.85280849877
 30
0.0
 11
60711.88862207336
 21
-28900.85280849877
 31
0.0
  0
LINE
  5
34DCB
330
747D
100
AcDbEntity
  8
部品1
 48
50.0
100
AcDbLine
 10
61254.31540260971
 20
-29775.46022470093
 30
0.0
 11
59994.31540260973
 21
-29775.46022470093
 31
0.0
  0
LINE
  5
34DCC
330
747D
100
AcDbEntity
  8
部品1
 48
50.0
100
AcDbLine
 10
60074.31540260973
 20
-29175.46022470093
 30
0.0
 11
59572.19959151005
 21
-29175.46022470093
 31
0.0
  0
LINE
  5
34DCD
330
747D
100
AcDbEntity
  8
部品1
 48
50.0
100
AcDbLine
 10
61174.31540260971
 20
-29075.46022470092
 30
0.0
 11
61074.31540260973
 21
-29075.46022470092
 31
0.0
  0
LINE
  5
34DCE
330
747D
100
AcDbEntity
  8
部品1
 48
50.0
100
AcDbLine
 10
61064.31540260973
 20
-28975.46022470093
 30
0.0
 11
61074.31540260973
 21
-28985.46022470092
 31
0.0
  0
LINE
  5
34DCF
330
747D
100
AcDbEntity
  8
部品1
 48
50.0
100
AcDbLine
 10
61064.31540260973
 20
-28975.46022470093
 30
0.0
 11
60946.86540260974
 21
-28975.46022470093
 31
0.0
  0
LINE
  5
34DD0
330
747D
100
AcDbEntity
  8
部品1
 48
50.0
100
AcDbLine
 10
61074.31540260973
 20
-29075.46022470092
 30
0.0
 11
61074.31540260973
 21
-28985.46022470092
 31
0.0
  0
DIMENSION
  5
34DD1
330
747D
100
AcDbEntity
  8
寸法
 48
50.0
100
AcDbDimension
  2
*D32
 10
61074.31540260973
 20
-28262.68232540591
 30
0.0
 11
60974.31540260974
 21
-28187.67346713819
 31
0.0
 70
    32
 71
     5
 42
200.0
  3
INABA_S30G
100
AcDbAlignedDimension
 13
60874.31540260973
 23
-28550.98739184589
 33
0.0
 14
61074.31540260973
 24
-28985.46022470092
 34
0.0
100
AcDbRotatedDimension
  0
DIMENSION
  5
34DD2
330
747D
100
AcDbEntity
  8
寸法
 48
50.0
100
AcDbDimension
  2
*D31
 10
61466.75676721042
 20
-28975.46022470093
 30
0.0
 11
61466.75676721043
 21
-28745.92479163005
 31
0.0
 70
   160
 71
     5
 42
50.0
  3
INABA_S30G
100
AcDbAlignedDimension
 13
61239.11328017324
 23
-29025.46022470092
 33
0.0
 14
61064.31540260973
 24
-28975.46022470093
 34
0.0
 50
90.0
100
AcDbRotatedDimension
  0
DIMENSION
  5
34DD3
330
747D
100
AcDbEntity
  8
寸法
 48
50.0
100
AcDbDimension
  2
*D30
 10
61466.75676721043
 20
-29625.46022470093
 30
0.0
 11
61391.75676721044
 21
-29325.46022470091
 31
0.0
 70
    32
 71
     5
 42
600.0
  3
INABA_S30G
100
AcDbAlignedDimension
 13
61239.11328017324
 23
-29025.46022470092
 33
0.0
 14
61254.31540260972
 24
-29625.46022470093
 34
0.0
 50
90.0
100
AcDbRotatedDimension
  0
LINE
  5
34DD4
330
747D
100
AcDbEntity
  8
部品1
 48
50.0
100
AcDbLine
 10
61254.31540260971
 20
-29625.46022470093
 30
0.0
 11
59994.31540260973
 21
-29625.46022470093
 31
0.0
  0
LINE
  5
34DD5
330
747D
100
AcDbEntity
  8
部品1
 48
50.0
100
AcDbLine
 10
60829.76540260973
 20
-28629.52712875601
 30
0.0
 11
60829.76540260974
 21
-29133.46022470092
 31
0.0
  0
LINE
  5
34DD6
330
747D
100
AcDbEntity
  8
部品1
 48
50.0
100
AcDbLine
 10
60918.86540260973
 20
-28629.52712875601
 30
0.0
 11
60918.86540260973
 21
-29133.46022470092
 31
0.0
  0
LINE
  5
34DD7
330
747D
100
AcDbEntity
  8
Ｇ．Ｌ
 48
50.0
100
AcDbLine
 10
61074.31540260973
 20
-29025.46022470092
 30
0.0
 11
62128.42935311452
 21
-29025.46022470092
 31
0.0
  0
MTEXT
  5
34DD8
330
747D
100
AcDbEntity
  8
寸法
 62
     7
 48
50.0
100
AcDbMText
 10
61595.23599442428
 20
-28973.1874974282
 30
0.0
 40
100.0
 41
1.0
 71
     4
 72
     1
  1
▽G.L
  7
STYLE2
 73
     1
 44
1.0
1001
ACAD
1000
MTEXTBEGIN
1070
    73
1070
     1
1070
    44
1040
1.0
1070
    74
1070
     0
1000
MTEXTEND
  0
LINE
  5
34DD9
330
747D
100
AcDbEntity
  8
部品1
 48
50.0
100
AcDbLine
 10
60074.31540260973
 20
-29075.46022470092
 30
0.0
 11
60074.31540260973
 21
-29625.46022470093
 31
0.0
  0
LINE
  5
34DDA
330
747D
100
AcDbEntity
  8
センター
 48
10.0
100
AcDbLine
 10
60874.31540260973
 20
-28550.98739184589
 30
0.0
 11
60874.31540260973
 21
-29196.51805653079
 31
0.0
  0
LINE
  5
34DDB
330
747D
100
AcDbEntity
  8
部品1
 48
50.0
100
AcDbLine
 10
61174.31540260971
 20
-29625.46022470093
 30
0.0
 11
61174.31540260971
 21
-29075.46022470092
 31
0.0
  0
LINE
  5
34DDD
330
747D
100
AcDbEntity
  8
文字
 48
50.0
100
AcDbLine
 10
60228.44133240471
 20
-30688.64809687271
 30
0.0
 11
61063.62058475307
 21
-30688.64809687271
 31
0.0
  0
LINE
  5
34DDE
330
747D
100
AcDbEntity
  8
文字
 48
50.0
100
AcDbLine
 10
60228.44133240471
 20
-30911.77309687271
 30
0.0
 11
61063.62058475307
 21
-30911.77309687271
 31
0.0
  0
TEXT
  5
34DDF
330
747D
100
AcDbEntity
  8
文字
 62
     7
 48
50.0
100
AcDbText
 10
60295.02613981741
 20
-30854.28955589934
 30
0.0
 40
112.5
  1
A-A' 断面
  7
STYLE2
100
AcDbText
  0
LINE
  5
34DE0
330
747D
100
AcDbEntity
  8
文字
 48
50.0
100
AcDbLine
 10
60228.44133240471
 20
-30688.64809687271
 30
0.0
 11
60228.44133240471
 21
-30911.77309687271
 31
0.0
  0
LINE
  5
34DE1
330
747D
100
AcDbEntity
  8
文字
 48
50.0
100
AcDbLine
 10
61063.62058475307
 20
-30688.64809687271
 30
0.0
 11
61063.62058475307
 21
-30911.77309687271
 31
0.0
  0
LINE
  5
34DE2
330
747D
100
AcDbEntity
  8
部品1
 48
50.0
100
AcDbLine
 10
61254.31540260971
 20
-29675.46022470092
 30
0.0
 11
59994.31540260973
 21
-29675.46022470092
 31
0.0
  0
HATCH
  5
35ACF
102
{ACAD_REACTORS
330
35AF0
102
}
330
747D
100
AcDbEntity
  8
細線
 48
50.0
100
AcDbHatch
 10
0.0
 20
0.0
 30
0.0
210
0.0
220
0.0
230
1.0
  2
LINE
 70
     0
 71
     0
 91
        4
 92
        7
 72
     0
 73
     1
 93
        5
 10
59994.31540260973
 20
-29754.39032390724
 10
59994.31540260973
 20
-29775.46022470093
 10
60380.04408970001
 20
-29775.46022470092
 10
60480.0440897
 20
-29675.46022470093
 10
60061.9278860702
 20
-29675.46022470093
 97
        0
 92
       23
 72
     0
 73
     1
 93
        3
 10
60061.9278860702
 20
-29675.46022470092
 10
59994.31540260973
 20
-29675.46022470092
 10
59994.31540260973
 20
-29754.39032390723
 97
        0
 92
        7
 72
     0
 73
     1
 93
        4
 10
61041.8556419497
 20
-29775.46022470093
 10
60951.29335041458
 20
-29675.46022470093
 10
60480.04408970001
 20
-29675.46022470092
 10
60380.04408970001
 20
-29775.46022470093
 97
        0
 92
        7
 72
     0
 73
     1
 93
        4
 10
61041.8556419497
 20
-29775.46022470093
 10
61254.31540260972
 20
-29775.46022470093
 10
61254.31540260972
 20
-29675.46022470093
 10
60951.29335041458
 20
-29675.46022470092
 97
        0
 75
     0
 76
     1
 52
75.0
 41
37.5
 77
     0
 78
     1
 53
75.0
 43
57243.1451884843
 44
-841.3565269366664
 45
-115.0055436925422
 46
30.81564255751887
 79
     0
 47
3.330068210733803
 98
        4
 10
60034.50424529718
 20
-29736.56390724178
 10
60017.84187159571
 20
-29696.60308622596
 10
60577.69717681405
 20
-29726.57370701988
 10
61054.24068513631
 20
-29729.90378046992
  0
LINE
  5
35AD0
102
{ACAD_REACTORS
330
35AF0
102
}
330
747D
100
AcDbEntity
  8
細線
 48
50.0
100
AcDbLine
 10
60104.25396835807
 20
-29775.46022470093
 30
0.0
 11
60097.55523854729
 21
-29750.46022470093
 31
0.0
  0
LINE
  5
35AD1
102
{ACAD_REACTORS
330
35AF0
102
}
330
747D
100
AcDbEntity
  8
細線
 48
50.0
100
AcDbLine
 10
60227.51653858814
 20
-29775.46022470093
 30
0.0
 11
60220.81780877736
 21
-29750.46022470093
 31
0.0
  0
LINE
  5
35AD2
102
{ACAD_REACTORS
330
35AF0
102
}
330
747D
100
AcDbEntity
  8
細線
 48
50.0
100
AcDbLine
 10
60350.77910881822
 20
-29775.46022470093
 30
0.0
 11
60344.08037900743
 21
-29750.46022470093
 31
0.0
  0
LINE
  5
35AD3
102
{ACAD_REACTORS
330
35AF0
102
}
330
747D
100
AcDbEntity
  8
細線
 48
50.0
100
AcDbLine
 10
60474.04167904829
 20
-29775.46022470093
 30
0.0
 11
60467.34294923751
 21
-29750.46022470093
 31
0.0
  0
LINE
  5
35AD4
102
{ACAD_REACTORS
330
35AF0
102
}
330
747D
100
AcDbEntity
  8
細線
 48
50.0
100
AcDbLine
 10
60597.30424927837
 20
-29775.46022470093
 30
0.0
 11
60590.60551946759
 21
-29750.46022470093
 31
0.0
  0
LINE
  5
35AD5
102
{ACAD_REACTORS
330
35AF0
102
}
330
747D
100
AcDbEntity
  8
細線
 48
50.0
100
AcDbLine
 10
60720.56681950845
 20
-29775.46022470093
 30
0.0
 11
60713.86808969767
 21
-29750.46022470093
 31
0.0
  0
LINE
  5
35AD6
102
{ACAD_REACTORS
330
35AF0
102
}
330
747D
100
AcDbEntity
  8
細線
 48
50.0
100
AcDbLine
 10
60843.82938973852
 20
-29775.46022470093
 30
0.0
 11
60837.13065992774
 21
-29750.46022470093
 31
0.0
  0
LINE
  5
35AD7
102
{ACAD_REACTORS
330
35AF0
102
}
330
747D
100
AcDbEntity
  8
細線
 48
50.0
100
AcDbLine
 10
60967.09195996859
 20
-29775.46022470093
 30
0.0
 11
60960.39323015781
 21
-29750.46022470093
 31
0.0
  0
LINE
  5
35AD8
102
{ACAD_REACTORS
330
35AF0
102
}
330
747D
100
AcDbEntity
  8
細線
 48
50.0
100
AcDbLine
 10
61090.35453019867
 20
-29775.46022470093
 30
0.0
 11
61083.65580038789
 21
-29750.46022470093
 31
0.0
  0
LINE
  5
35AD9
102
{ACAD_REACTORS
330
35AF0
102
}
330
747D
100
AcDbEntity
  8
細線
 48
50.0
100
AcDbLine
 10
61213.61710042875
 20
-29775.46022470093
 30
0.0
 11
61206.91837061797
 21
-29750.46022470093
 31
0.0
  0
LINE
  5
35ADA
102
{ACAD_REACTORS
330
35AF0
102
}
330
747D
100
AcDbEntity
  8
細線
 48
50.0
100
AcDbLine
 10
61220.31583023952
 20
-29700.46022470092
 30
0.0
 11
61213.61710042874
 21
-29675.46022470092
 31
0.0
  0
LINE
  5
35ADB
102
{ACAD_REACTORS
330
35AF0
102
}
330
747D
100
AcDbEntity
  8
細線
 48
50.0
100
AcDbLine
 10
61097.05326000945
 20
-29700.46022470092
 30
0.0
 11
61090.35453019867
 21
-29675.46022470092
 31
0.0
  0
LINE
  5
35ADC
102
{ACAD_REACTORS
330
35AF0
102
}
330
747D
100
AcDbEntity
  8
細線
 48
50.0
100
AcDbLine
 10
60973.79068977937
 20
-29700.46022470092
 30
0.0
 11
60967.09195996859
 21
-29675.46022470092
 31
0.0
  0
LINE
  5
35ADD
102
{ACAD_REACTORS
330
35AF0
102
}
330
747D
100
AcDbEntity
  8
細線
 48
50.0
100
AcDbLine
 10
60850.52811954929
 20
-29700.46022470092
 30
0.0
 11
60843.82938973852
 21
-29675.46022470092
 31
0.0
  0
LINE
  5
35ADE
102
{ACAD_REACTORS
330
35AF0
102
}
330
747D
100
AcDbEntity
  8
細線
 48
50.0
100
AcDbLine
 10
60727.26554931922
 20
-29700.46022470093
 30
0.0
 11
60720.56681950844
 21
-29675.46022470093
 31
0.0
  0
LINE
  5
35ADF
102
{ACAD_REACTORS
330
35AF0
102
}
330
747D
100
AcDbEntity
  8
細線
 48
50.0
100
AcDbLine
 10
60604.00297908914
 20
-29700.46022470092
 30
0.0
 11
60597.30424927836
 21
-29675.46022470092
 31
0.0
  0
LINE
  5
35AE0
102
{ACAD_REACTORS
330
35AF0
102
}
330
747D
100
AcDbEntity
  8
細線
 48
50.0
100
AcDbLine
 10
60480.74040885906
 20
-29700.46022470093
 30
0.0
 11
60474.04167904829
 21
-29675.46022470093
 31
0.0
  0
LINE
  5
35AE1
102
{ACAD_REACTORS
330
35AF0
102
}
330
747D
100
AcDbEntity
  8
細線
 48
50.0
100
AcDbLine
 10
60110.95269816884
 20
-29700.46022470092
 30
0.0
 11
60104.25396835806
 21
-29675.46022470092
 31
0.0
  0
LINE
  5
35AE2
102
{ACAD_REACTORS
330
35AF0
102
}
330
747D
100
AcDbEntity
  8
細線
 48
50.0
100
AcDbLine
 10
60234.21526839892
 20
-29700.46022470092
 30
0.0
 11
60227.51653858814
 21
-29675.46022470092
 31
0.0
  0
LINE
  5
35AE3
102
{ACAD_REACTORS
330
35AF0
102
}
330
747D
100
AcDbEntity
  8
細線
 48
50.0
100
AcDbLine
 10
60357.47783862899
 20
-29700.46022470092
 30
0.0
 11
60350.77910881821
 21
-29675.46022470092
 31
0.0
  0
HATCH
  5
35AE4
102
{ACAD_REACTORS
330
35AF0
102
}
330
747D
100
AcDbEntity
  8
細線
 48
50.0
100
AcDbHatch
 10
0.0
 20
0.0
 30
0.0
210
0.0
220
0.0
230
1.0
  2
PLAST
 70
     0
 71
     0
 91
        5
 92
        7
 72
     0
 73
     1
 93
        4
 10
60480.04408970001
 20
-29675.46022470092
 10
60530.04408970001
 20
-29625.46022470093
 10
60104.75849450752
 20
-29625.46022470093
 10
60061.9278860702
 20
-29675.46022470093
 97
        0
 92
        7
 72
     0
 73
     1
 93
        4
 10
60061.9278860702
 20
-29675.46022470092
 10
60104.75849450752
 20
-29625.46022470093
 10
59994.31540260973
 20
-29625.46022470093
 10
59994.31540260973
 20
-29675.46022470093
 97
        0
 92
        7
 72
     0
 73
     1
 93
        5
 10
60874.31540260972
 20
-29675.46022470092
 10
60874.31540260972
 20
-29625.46022470092
 10
60829.76540260974
 20
-29625.46022470092
 10
60530.04408970002
 20
-29625.46022470092
 10
60480.04408970001
 20
-29675.46022470093
 97
        0
 92
        7
 72
     0
 73
     1
 93
        4
 10
60874.31540260972
 20
-29675.46022470092
 10
60951.29335041458
 20
-29675.46022470092
 10
60906.01220464702
 20
-29625.46022470093
 10
60874.31540260972
 20
-29625.46022470093
 97
        0
 92
        7
 72
     0
 73
     1
 93
        4
 10
60906.01220464702
 20
-29625.46022470093
 10
60951.29335041458
 20
-29675.46022470093
 10
61254.31540260972
 20
-29675.46022470092
 10
61254.31540260972
 20
-29625.46022470093
 97
        0
 75
     0
 76
     1
 52
45.0
 41
37.5
 77
     0
 78
     3
 53
45.0
 43
57243.1451884843
 44
-841.3565269366664
 45
-168.3798022700466
 46
168.3798022700466
 79
     0
 53
45.0
 43
57222.09771320055
 44
-820.3090516529119
 45
-168.3798022700466
 46
168.3798022700466
 79
     0
 53
45.0
 43
57201.05023791679
 44
-799.2615763691538
 45
-168.3798022700466
 46
168.3798022700466
 79
     0
 47
2.357055197808914
 98
        5
 10
60290.96790098063
 20
-29652.25258176373
 10
60038.58093329553
 20
-29652.25258176373
 10
60585.8124914056
 20
-29654.6096368289
 10
60892.45085398977
 20
-29652.25258176373
 10
60977.3660994695
 20
-29647.53847163339
  0
HATCH
  5
35AE5
102
{ACAD_REACTORS
330
35AF0
102
}
330
747D
100
AcDbEntity
  8
細線
 48
50.0
100
AcDbHatch
 10
0.0
 20
0.0
 30
0.0
210
0.0
220
0.0
230
1.0
  2
PLAST
 70
     0
 71
     0
 91
       15
 92
        7
 72
     1
 73
     1
 93
       43
 10
60379.31540260973
 20
-29545.46022470093
 42
-0.4142135623735213
 10
60374.31540260973
 20
-29550.46022470093
 42
0.0
 10
60574.31540260973
 20
-29550.46022470093
 42
-0.4142135623735213
 10
60569.31540260973
 20
-29545.46022470093
 42
-1.0
 10
60579.31540260973
 20
-29545.46022470093
 42
-0.4142135623735213
 10
60574.31540260973
 20
-29550.46022470093
 42
0.0
 10
60605.04408970001
 20
-29550.46022470094
 42
0.0
 10
60642.04408970002
 20
-29513.46022470092
 42
0.0
 10
60498.86540260974
 20
-29513.46022470093
 42
0.0
 10
60498.86540260974
 20
-29500.46022470093
 42
0.0
 10
60644.31540260975
 20
-29500.46022470092
 42
0.1260483184576957
 10
60658.73891187209
 20
-29496.76540252886
 42
0.0
 10
60670.62058043767
 20
-29484.88373396327
 42
0.1260483184577314
 10
60674.31540260974
 20
-29470.46022470093
 42
0.0
 10
60674.31540260974
 20
-29440.46022470093
 42
0.0
 10
60669.31540260974
 20
-29440.46022470093
 42
-0.4142135623730951
 10
60664.31540260974
 20
-29435.46022470092
 42
-0.4142135623730951
 10
60669.31540260974
 20
-29430.46022470093
 42
0.0
 10
60674.31540260974
 20
-29430.46022470093
 42
0.0
 10
60674.31540260974
 20
-29340.46022470092
 42
0.0
 10
60669.31540260974
 20
-29340.46022470092
 42
-0.4142135623733081
 10
60664.31540260974
 20
-29335.46022470093
 42
-0.4142135623730951
 10
60669.31540260974
 20
-29330.46022470092
 42
0.0
 10
60674.31540260974
 20
-29330.46022470093
 42
0.0
 10
60674.31540260974
 20
-29240.46022470093
 42
0.0
 10
60669.31540260974
 20
-29240.46022470093
 42
-0.4142135623730951
 10
60664.31540260974
 20
-29235.46022470092
 42
-0.4142135623730951
 10
60669.31540260974
 20
-29230.46022470093
 42
0.0
 10
60674.31540260974
 20
-29230.46022470093
 42
0.0
 10
60674.31540260974
 20
-29175.46022470092
 42
0.0
 10
60074.31540260973
 20
-29175.46022470093
 42
0.0
 10
60074.31540260973
 20
-29625.46022470093
 42
0.0
 10
60104.75849450752
 20
-29625.46022470093
 42
0.0
 10
60160.43828547603
 20
-29560.46022470093
 42
0.0
 10
60158.56540260973
 20
-29560.46022470093
 42
0.0
 10
60158.56540260973
 20
-29550.46022470093
 42
0.0
 10
60169.0044071635
 20
-29550.46022470093
 42
0.0
 10
60170.50961542037
 20
-29548.70306047681
 42
-0.1782786565740319
 10
60169.31540260973
 20
-29545.46022470093
 42
-1.0
 10
60179.31540260973
 20
-29545.46022470093
 42
-0.4142135623730951
 10
60174.31540260973
 20
-29550.46022470093
 42
0.0
 10
60374.31540260973
 20
-29550.46022470093
 42
-0.4142135623735213
 10
60369.31540260973
 20
-29545.46022470093
 42
-1.0
 97
        0
 92
       23
 72
     0
 73
     1
 93
        4
 10
60160.43828547604
 20
-29560.46022470093
 10
60104.75849450752
 20
-29625.46022470093
 10
60530.04408970001
 20
-29625.46022470093
 10
60595.04408970001
 20
-29560.46022470093
 97
        0
 92
        7
 72
     1
 73
     1
 93
       27
 10
60595.04408970001
 20
-29560.46022470093
 42
0.0
 10
60530.04408970001
 20
-29625.46022470092
 42
0.0
 10
61174.31540260971
 20
-29625.46022470092
 42
0.0
 10
61174.31540260971
 20
-29600.46022470091
 42
0.0
 10
61067.5180960903
 20
-29493.66291818149
 42
-0.2555649155476994
 10
61031.31540260975
 20
-29513.46022470092
 42
0.0
 10
60885.86540260974
 20
-29513.46022470092
 42
0.0
 10
60885.86540260974
 20
-29500.46022470093
 42
0.0
 10
61031.31540260975
 20
-29500.46022470092
 42
0.4142135623730951
 10
61061.31540260975
 20
-29470.46022470093
 42
0.0
 10
61061.31540260975
 20
-29440.46022470092
 42
0.0
 10
60715.04408970001
 20
-29440.46022470093
 42
0.0
 10
60687.31540260975
 20
-29468.1889117912
 42
0.0
 10
60687.31540260975
 20
-29470.46022470093
 42
-0.4142135623730951
 10
60644.31540260975
 20
-29513.46022470092
 42
0.0
 10
60642.04408970002
 20
-29513.46022470092
 42
0.0
 10
60605.04408970002
 20
-29550.46022470093
 42
0.0
 10
60774.31540260972
 20
-29550.46022470093
 42
-0.4142135623733081
 10
60769.31540260972
 20
-29545.46022470093
 42
-1.0
 10
60779.31540260973
 20
-29545.46022470093
 42
-0.4142135623735213
 10
60774.31540260972
 20
-29550.46022470093
 42
0.0
 10
60974.31540260973
 20
-29550.46022470093
 42
-0.4142135623735213
 10
60969.31540260972
 20
-29545.46022470093
 42
-1.0
 10
60979.31540260972
 20
-29545.46022470093
 42
-0.4142135623735213
 10
60974.31540260973
 20
-29550.46022470093
 42
0.0
 10
60990.03495104764
 20
-29550.46022470093
 42
0.0
 10
60990.03495104764
 20
-29560.46022470093
 42
0.0
 97
        0
 92
        7
 72
     1
 73
     1
 93
       13
 10
61174.31540260972
 20
-29386.46617692371
 42
0.0
 10
61084.21113659734
 20
-29334.44445468634
 42
-0.051189146983264
 10
61084.31540260974
 20
-29335.46022470093
 42
-0.4142135623726688
 10
61079.31540260974
 20
-29340.46022470092
 42
0.0
 10
61074.31540260975
 20
-29340.46022470092
 42
0.0
 10
61074.31540260975
 20
-29430.46022470092
 42
0.0
 10
61079.31540260974
 20
-29430.46022470093
 42
-0.414213562372882
 10
61084.31540260974
 20
-29435.46022470092
 42
-0.4142135623726688
 10
61079.31540260974
 20
-29440.46022470092
 42
0.0
 10
61074.31540260975
 20
-29440.46022470092
 42
0.0
 10
61074.31540260975
 20
-29470.46022470093
 42
-0.1434619830766963
 10
61067.5180960903
 20
-29493.66291818149
 42
0.0
 10
61174.31540260972
 20
-29600.46022470089
 42
0.0
 97
        0
 92
        7
 72
     1
 73
     1
 93
       12
 10
61074.31540260975
 20
-29328.73115000476
 42
0.0
 10
61077.31024783357
 20
-29330.46022470092
 42
0.0
 10
61079.31540260974
 20
-29330.46022470092
 42
-0.3554869408474657
 10
61084.21113659734
 20
-29334.44445468633
 42
0.0
 10
61174.31540260972
 20
-29386.46617692371
 42
0.0
 10
61174.31540260972
 20
-29175.46022470092
 42
0.0
 10
61074.31540260975
 20
-29175.46022470092
 42
0.0
 10
61074.31540260975
 20
-29230.46022470092
 42
0.0
 10
61079.31540260974
 20
-29230.46022470093
 42
-0.414213562372882
 10
61084.31540260974
 20
-29235.46022470092
 42
-0.4142135623726688
 10
61079.31540260974
 20
-29240.46022470092
 42
0.0
 10
61074.31540260975
 20
-29240.46022470092
 42
0.0
 97
        0
 92
        7
 72
     0
 73
     1
 93
        4
 10
60768.31540260973
 20
-29175.46022470092
 10
60687.31540260975
 20
-29175.46022470093
 10
60687.31540260975
 20
-29230.46022470093
 10
60768.31540260973
 20
-29230.46022470093
 97
        0
 92
        7
 72
     0
 73
     1
 93
        4
 10
60768.31540260973
 20
-29240.46022470093
 10
60687.31540260975
 20
-29240.46022470093
 10
60687.31540260975
 20
-29330.46022470092
 10
60768.31540260973
 20
-29330.46022470092
 97
        0
 92
        7
 72
     1
 73
     1
 93
        7
 10
60687.31540260975
 20
-29430.46022470093
 42
0.0
 10
60724.31540260972
 20
-29430.46022470092
 42
0.0
 10
60724.31540260972
 20
-29424.46022470093
 42
0.0
 10
60743.31540260972
 20
-29424.46022470093
 42
0.4142135623730951
 10
60768.31540260973
 20
-29399.46022470092
 42
0.0
 10
60768.31540260973
 20
-29340.46022470092
 42
0.0
 10
60687.31540260975
 20
-29340.46022470092
 42
0.0
 97
        0
 92
        7
 72
     1
 73
     1
 93
        6
 10
60780.31540260973
 20
-29340.46022470092
 42
0.0
 10
60780.31540260973
 20
-29399.46022470092
 42
-0.2535612698375804
 10
60763.51441248645
 20
-29430.46022470093
 42
0.0
 10
60985.11639273301
 20
-29430.46022470093
 42
-0.2535612698375804
 10
60968.31540260972
 20
-29399.46022470092
 42
0.0
 10
60968.31540260972
 20
-29340.46022470092
 42
0.0
 97
        0
 92
        7
 72
     0
 73
     1
 93
        4
 10
60968.31540260972
 20
-29330.46022470092
 10
60968.31540260972
 20
-29240.46022470092
 10
60780.31540260973
 20
-29240.46022470093
 10
60780.31540260973
 20
-29330.46022470092
 97
        0
 92
        7
 72
     0
 73
     1
 93
        4
 10
60968.31540260972
 20
-29230.46022470092
 10
60968.31540260972
 20
-29175.46022470092
 10
60780.31540260973
 20
-29175.46022470092
 10
60780.31540260973
 20
-29230.46022470092
 97
        0
 92
        7
 72
     0
 73
     1
 93
        4
 10
60980.31540260972
 20
-29175.46022470091
 10
60980.31540260972
 20
-29230.46022470092
 10
61061.31540260975
 20
-29230.46022470093
 10
61061.31540260975
 20
-29175.46022470092
 97
        0
 92
        7
 72
     0
 73
     1
 93
        4
 10
61061.31540260975
 20
-29240.46022470092
 10
60980.31540260972
 20
-29240.46022470092
 10
60980.31540260972
 20
-29274.46022470093
 10
61061.31540260975
 20
-29321.2255965053
 97
        0
 92
        7
 72
     0
 73
     1
 93
        4
 10
61061.31540260975
 20
-29330.46022470093
 10
61061.31540260975
 20
-29321.22559650529
 10
60980.31540260972
 20
-29274.46022470093
 10
60980.31540260974
 20
-29330.46022470092
 97
        0
 92
        7
 72
     1
 73
     1
 93
        7
 10
60980.31540260972
 20
-29399.46022470092
 42
0.4142135623730951
 10
61005.31540260972
 20
-29424.46022470093
 42
0.0
 10
61024.31540260973
 20
-29424.46022470093
 42
0.0
 10
61024.31540260973
 20
-29430.46022470092
 42
0.0
 10
61061.31540260975
 20
-29430.46022470093
 42
0.0
 10
61061.31540260975
 20
-29340.46022470092
 42
0.0
 10
60980.31540260972
 20
-29340.46022470092
 42
0.0
 97
        0
 75
     0
 76
     1
 52
135.0
 41
37.5
 77
     0
 78
     3
 53
135.0
 43
57047.62395197151
 44
0.0000053434559959
 45
-168.3798022700466
 46
-168.3798022700466
 79
     0
 53
135.0
 43
57026.57647668775
 44
-21.04746994029847
 45
-168.3798022700466
 46
-168.3798022700466
 79
     0
 53
135.0
 43
57005.529001404
 44
-42.09494522405657
 45
-168.3798022700466
 46
-168.3798022700466
 79
     0
 47
2.111092722313636
 98
       15
 10
60372.35213568793
 20
-29360.74713350224
 10
60359.67644165462
 20
-29588.74515417751
 10
60799.10068050996
 20
-29584.52296972772
 10
61141.34459844321
 20
-29481.07943057898
 10
61120.21840591428
 20
-29293.19218230557
 10
60744.17267303226
 20
-29204.52626860227
 10
60731.4969431922
 20
-29278.41451660246
 10
60716.70865139004
 20
-29371.30261475556
 10
60820.22687303891
 20
-29369.19150240183
 10
60828.67733572777
 20
-29295.30327453047
 10
60818.11423946331
 20
-29204.52626860227
 10
61018.812817841
 20
-29202.41517637737
 10
61042.05160813879
 20
-29272.08123992778
 10
61006.1371238077
 20
-29320.63638122922
 10
61012.47498872772
 20
-29381.85807588004
  0
LINE
  5
35AE6
102
{ACAD_REACTORS
330
35AF0
102
}
330
747D
100
AcDbEntity
  8
細線
 48
50.0
100
AcDbLine
 10
60018.4983433566
 20
-29175.46022470092
 30
0.0
 11
60011.79961354581
 21
-29150.46022470092
 31
0.0
  0
LINE
  5
35AE7
102
{ACAD_REACTORS
330
35AF0
102
}
330
747D
100
AcDbEntity
  8
細線
 48
50.0
100
AcDbLine
 10
59895.23577312652
 20
-29175.46022470092
 30
0.0
 11
59888.53704331574
 21
-29150.46022470092
 31
0.0
  0
LINE
  5
35AE8
102
{ACAD_REACTORS
330
35AF0
102
}
330
747D
100
AcDbEntity
  8
細線
 48
50.0
100
AcDbLine
 10
59771.97320289644
 20
-29175.46022470092
 30
0.0
 11
59765.27447308566
 21
-29150.46022470092
 31
0.0
  0
LINE
  5
35AE9
102
{ACAD_REACTORS
330
35AF0
102
}
330
747D
100
AcDbEntity
  8
細線
 48
50.0
100
AcDbLine
 10
59648.71063266637
 20
-29175.46022470092
 30
0.0
 11
59642.01190285558
 21
-29150.46022470092
 31
0.0
  0
LINE
  5
35AEA
102
{ACAD_REACTORS
330
35AF0
102
}
330
747D
100
AcDbEntity
  8
細線
 48
50.0
100
AcDbLine
 10
60025.19707316737
 20
-29100.46022470092
 30
0.0
 11
60018.49834335659
 21
-29075.46022470092
 31
0.0
  0
LINE
  5
35AEB
102
{ACAD_REACTORS
330
35AF0
102
}
330
747D
100
AcDbEntity
  8
細線
 48
50.0
100
AcDbLine
 10
59901.93450293729
 20
-29100.46022470092
 30
0.0
 11
59895.23577312652
 21
-29075.46022470092
 31
0.0
  0
LINE
  5
35AEC
102
{ACAD_REACTORS
330
35AF0
102
}
330
747D
100
AcDbEntity
  8
細線
 48
50.0
100
AcDbLine
 10
59655.40936247714
 20
-29100.46022470092
 30
0.0
 11
59648.71063266636
 21
-29075.46022470092
 31
0.0
  0
LINE
  5
35AED
102
{ACAD_REACTORS
330
35AF0
102
}
330
747D
100
AcDbEntity
  8
細線
 48
50.0
100
AcDbLine
 10
59778.67193270721
 20
-29100.46022470092
 30
0.0
 11
59771.97320289644
 21
-29075.46022470092
 31
0.0
  0
HATCH
  5
35AEE
102
{ACAD_REACTORS
330
35AF0
102
}
330
747D
100
AcDbEntity
  8
細線
 48
50.0
100
AcDbHatch
 10
0.0
 20
0.0
 30
0.0
210
0.0
220
0.0
230
1.0
  2
LINE
 70
     0
 71
     0
 91
        1
 92
        7
 72
     0
 73
     1
 93
        4
 10
60074.31540260973
 20
-29175.46022470092
 10
60074.31540260973
 20
-29075.46022470092
 10
59572.19959151005
 20
-29075.46022470092
 10
59572.19959151005
 20
-29175.46022470093
 97
        0
 75
     0
 76
     1
 52
75.0
 41
37.5
 77
     0
 78
     1
 53
75.0
 43
57243.1451884843
 44
-841.3565269366664
 45
-115.0055436925422
 46
30.81564255751887
 79
     0
 47
1.008020268830581
 98
        1
 10
59873.24014849821
 20
-29125.4780685678
  0
HATCH
  5
35AEF
102
{ACAD_REACTORS
330
35AF0
102
}
330
747D
100
AcDbEntity
  8
細線
 48
50.0
100
AcDbHatch
 10
0.0
 20
0.0
 30
0.0
210
0.0
220
0.0
230
1.0
  2
PLAST
 70
     0
 71
     0
 91
        6
 92
        7
 72
     1
 73
     1
 93
       16
 10
59572.19959151005
 20
-28975.46022470093
 42
0.0
 10
59572.19959151005
 20
-29075.46022470092
 42
0.0
 10
60074.31540260973
 20
-29075.46022470093
 42
0.0
 10
60074.31540260973
 20
-29175.46022470093
 42
0.0
 10
60674.31540260974
 20
-29175.46022470092
 42
0.0
 10
60674.31540260974
 20
-29140.46022470092
 42
0.0
 10
60669.31540260974
 20
-29140.46022470092
 42
-0.4142135623730951
 10
60664.31540260974
 20
-29135.46022470093
 42
-0.4142135623730951
 10
60669.31540260974
 20
-29130.46022470092
 42
0.0
 10
60740.76540260974
 20
-29130.46022470092
 42
0.0
 10
60740.76540260974
 20
-29093.46022470092
 42
0.0
 10
60750.76540260973
 20
-29083.46022470093
 42
0.0
 10
60829.76540260974
 20
-29083.46022470093
 42
0.0
 10
60829.76540260974
 20
-28961.46022470093
 42
0.0
 10
60815.76540260973
 20
-28961.46022470093
 42
0.0
 10
60801.76540260974
 20
-28975.46022470092
 42
0.0
 97
        0
 92
        7
 72
     1
 73
     1
 93
       17
 10
60918.86540260974
 20
-29083.46022470093
 42
0.0
 10
60997.86540260972
 20
-29083.46022470093
 42
0.0
 10
61007.86540260974
 20
-29093.46022470093
 42
0.0
 10
61007.86540260974
 20
-29130.46022470092
 42
0.0
 10
61079.31540260974
 20
-29130.46022470092
 42
-0.4142135623730951
 10
61084.31540260974
 20
-29135.46022470093
 42
-0.4142135623726688
 10
61079.31540260974
 20
-29140.46022470092
 42
0.0
 10
61074.31540260975
 20
-29140.46022470092
 42
0.0
 10
61074.31540260975
 20
-29175.46022470092
 42
0.0
 10
61174.31540260972
 20
-29175.46022470092
 42
0.0
 10
61174.31540260972
 20
-29075.46022470092
 42
0.0
 10
61074.31540260972
 20
-29075.46022470092
 42
0.0
 10
61074.31540260972
 20
-28985.46022470092
 42
0.0
 10
61064.31540260974
 20
-28975.46022470093
 42
0.0
 10
60946.86540260974
 20
-28975.46022470093
 42
0.0
 10
60932.86540260972
 20
-28961.46022470092
 42
0.0
 10
60918.86540260974
 20
-28961.46022470093
 42
0.0
 97
        0
 92
       22
 72
     0
 73
     1
 93
        6
 10
60734.31540260973
 20
-29145.46022470093
 10
60734.31540260973
 20
-29140.46022470092
 10
60687.31540260975
 20
-29140.46022470092
 10
60687.31540260975
 20
-29175.46022470092
 10
60768.31540260973
 20
-29175.46022470091
 10
60768.31540260973
 20
-29145.46022470092
 97
        0
 92
        7
 72
     1
 73
     1
 93
        4
 10
60780.31540260973
 20
-29145.46022470092
 42
0.0
 10
60780.31540260973
 20
-29175.46022470092
 42
0.0
 10
60829.67013324959
 20
-29175.46022470092
 42
-0.3047735316820737
 10
60874.31540260972
 20
-29145.46022470092
 42
0.0
 97
        0
 92
        7
 72
     1
 73
     1
 93
        4
 10
60874.31540260974
 20
-29145.46022470093
 42
-0.3047735316820574
 10
60918.96067196987
 20
-29175.46022470092
 42
0.0
 10
60968.31540260972
 20
-29175.46022470092
 42
0.0
 10
60968.31540260972
 20
-29145.46022470092
 42
0.0
 97
        0
 92
        7
 72
     0
 73
     1
 93
        6
 10
60980.31540260972
 20
-29145.46022470093
 10
60980.31540260972
 20
-29175.46022470091
 10
61061.31540260975
 20
-29175.46022470092
 10
61061.31540260975
 20
-29140.46022470092
 10
61014.31540260972
 20
-29140.46022470092
 10
61014.31540260972
 20
-29145.46022470092
 97
        0
 75
     0
 76
     1
 52
45.0
 41
37.5
 77
     0
 78
     3
 53
45.0
 43
57047.62395197151
 44
0.0000053434559959
 45
-168.3798022700466
 46
168.3798022700466
 79
     0
 53
45.0
 43
57026.57647668775
 44
21.04748062721046
 45
-168.3798022700466
 46
168.3798022700466
 79
     0
 53
45.0
 43
57005.529001404
 44
42.09495591096856
 45
-168.3798022700466
 46
168.3798022700466
 79
     0
 47
1.886419326983969
 98
        6
 10
60661.88340926142
 20
-29043.15050936373
 10
60948.39284447041
 20
-29031.69838909633
 10
60733.59543310478
 20
-29158.93034804426
 10
60792.11664712661
 20
-29157.04391376159
 10
60933.70022828245
 20
-29157.04391376159
 10
61009.2114906625
 20
-29158.93034804426
  0
TEXT
  5
35B22
330
747D
100
AcDbEntity
  8
寸法
 62
     7
100
AcDbText
 10
51934.51244207118
 20
-27821.42109410068
 30
0.0
 40
90.0
  1
A'
  7
STYLE1
100
AcDbText
  0
LINE
  5
35B23
330
747D
100
AcDbEntity
  8
寸法
 48
50.0
100
AcDbLine
 10
52298.14792223365
 20
-27793.35562129891
 30
0.0
 11
52044.01409148473
 21
-27793.35562129891
 31
0.0
  0
LINE
  5
35B24
330
747D
100
AcDbEntity
  8
寸法
 48
50.0
100
AcDbLine
 10
52151.74746206771
 20
-27764.48855165332
 30
0.0
 11
52151.74746206771
 21
-27830.42317057486
 31
0.0
  0
LINE
  5
35B25
330
747D
100
AcDbEntity
  8
寸法
 48
50.0
100
AcDbLine
 10
52044.01409148473
 20
-27793.35562129891
 30
0.0
 11
52151.74746206771
 21
-27764.48855165332
 31
0.0
  0
TEXT
  5
35B26
330
747D
100
AcDbEntity
  8
寸法
 62
     7
100
AcDbText
 10
51933.25381321248
 20
-29093.38074926708
 30
0.0
 40
90.0
  1
A
  7
STYLE1
100
AcDbText
  0
LINE
  5
35B27
330
747D
100
AcDbEntity
  8
寸法
 48
50.0
100
AcDbLine
 10
52151.74746206771
 20
-29080.02061590476
 30
0.0
 11
52151.74746206771
 21
-29014.0859969832
 31
0.0
  0
LINE
  5
35B28
330
747D
100
AcDbEntity
  8
寸法
 48
50.0
100
AcDbLine
 10
52044.01409148473
 20
-29051.15354625916
 30
0.0
 11
52151.74746206771
 21
-29080.02061590476
 31
0.0
  0
LINE
  5
35B29
330
747D
100
AcDbEntity
  8
寸法
 48
50.0
100
AcDbLine
 10
52298.14792223365
 20
-29051.15354625916
 30
0.0
 11
52044.01409148473
 21
-29051.15354625916
 31
0.0
  0
LEADER
  5
35B3A
330
747D
100
AcDbEntity
  8
寸法
 48
50.0
100
AcDbLeader
  3
INABA_S50G
 76
     3
 10
57798.14792223365
 20
-28272.25458377903
 30
0.0
 10
57186.63368325322
 20
-29331.42831524492
 30
0.0
 10
56333.74527428609
 20
-29331.42831524492
 30
0.0
1001
ACAD
1000
DSTYLE
1002
{
1070
    41
1040
80.0
1070
   147
1040
25.0
1070
    77
1070
     0
1002
}
  0
TEXT
  5
35B3B
330
747D
100
AcDbEntity
  8
寸法
 62
     7
100
AcDbText
 10
56356.29182286243
 20
-29296.92831524493
 30
0.0
 40
90.0
  1
ｱﾝｶｰﾎﾞﾙﾄ(市販品)
  7
STYLE1
100
AcDbText
  0
DIMENSION
  5
35B50
330
747D
100
AcDbEntity
  8
寸法
 48
50.0
100
AcDbDimension
  2
*D33
 10
51557.27608552242
 20
-27872.25458377905
 30
0.0
 11
51557.27608552242
 21
-27695.21915070818
 31
0.0
 70
   160
 71
     5
 42
99.99999999997818
  3
INABA_S30G
100
AcDbAlignedDimension
 13
51898.14792223365
 23
-27972.25458377903
 33
0.0
 14
51898.14792223365
 24
-27872.25458377905
 34
0.0
 50
90.0
100
AcDbRotatedDimension
  0
ENDSEC
  0
SECTION
  2
OBJECTS
  0
DICTIONARY
  5
7471
330
0
100
AcDbDictionary
281
     1
  3
ACAD_COLOR
350
11754
  3
ACAD_GROUP
350
7472
  3
ACAD_LAYOUT
350
11755
  3
ACAD_MATERIAL
350
11753
  3
ACAD_MLINESTYLE
350
7473
  3
ACAD_PLOTSETTINGS
350
11756
  3
ACAD_PLOTSTYLENAME
350
11751
  3
ACDBHEADERROUNDTRIPXREC
350
35B7D
  3
AcDbVariableDictionary
350
35B79
  3
CONTENTDICTIONARY
350
E71C
  3
DRAWINGVARIABLESDICT
350
F3B9
  0
DICTIONARY
  5
11827
330
7467
100
AcDbDictionary
280
     1
281
     1
  3
ACAD_LAYERFILTERS
360
135F4
  3
ACAD_LAYERSTATES
360
11828
  0
DICTIONARY
  5
11754
102
{ACAD_REACTORS
330
7471
102
}
330
7471
100
AcDbDictionary
281
     1
  0
DICTIONARY
  5
7472
102
{ACAD_REACTORS
330
7471
102
}
330
7471
100
AcDbDictionary
281
     1
  3
*A1
350
154E2
  3
*A10
350
32DF3
  3
*A100
350
32DF2
  3
*A101
350
3553E
  3
*A102
350
3206D
  3
*A103
350
329A4
  3
*A104
350
32951
  3
*A105
350
32DEE
  3
*A106
350
33316
  3
*A107
350
33317
  3
*A108
350
344A8
  3
*A109
350
32674
  3
*A11
350
32073
  3
*A110
350
33318
  3
*A111
350
35071
  3
*A112
350
32962
  3
*A113
350
3553F
  3
*A114
350
33734
  3
*A115
350
3408E
  3
*A116
350
34497
  3
*A117
350
32956
  3
*A118
350
34498
  3
*A119
350
3206E
  3
*A12
350
33B96
  3
*A120
350
35948
  3
*A121
350
34499
  3
*A122
350
35077
  3
*A123
350
3206F
  3
*A124
350
3449F
  3
*A125
350
3449A
  3
*A126
350
3507A
  3
*A127
350
35944
  3
*A128
350
3449B
  3
*A129
350
3206C
  3
*A13
350
3372A
  3
*A130
350
3449C
  3
*A131
350
3449D
  3
*A132
350
3449E
  3
*A133
350
33AFD
  3
*A134
350
29263
  3
*A135
350
3331D
  3
*A136
350
3331A
  3
*A137
350
344A9
  3
*A138
350
27416
  3
*A139
350
3594A
  3
*A14
350
32677
  3
*A140
350
32DF1
  3
*A141
350
2925D
  3
*A142
350
32675
  3
*A143
350
344AA
  3
*A144
350
344AB
  3
*A145
350
33311
  3
*A146
350
32DE1
  3
*A147
350
344AC
  3
*A148
350
329A6
  3
*A149
350
35945
  3
*A15
350
272B4
  3
*A150
350
35067
  3
*A151
350
35068
  3
*A152
350
35069
  3
*A153
350
3295B
  3
*A154
350
33315
  3
*A155
350
35534
  3
*A156
350
35949
  3
*A157
350
33313
  3
*A158
350
35535
  3
*A159
350
3594B
  3
*A16
350
33731
  3
*A160
350
275D6
  3
*A161
350
35536
  3
*A162
350
35537
  3
*A163
350
3506A
  3
*A164
350
32070
  3
*A165
350
33AFF
  3
*A166
350
3331B
  3
*A167
350
35540
  3
*A168
350
32DE4
  3
*A169
350
3506B
  3
*A17
350
3299D
  3
*A170
350
27417
  3
*A171
350
35541
  3
*A172
350
35542
  3
*A173
350
33AFB
  3
*A174
350
35543
  3
*A175
350
329A5
  3
*A176
350
33B8F
  3
*A177
350
35544
  3
*A178
350
35545
  3
*A179
350
32678
  3
*A18
350
344A5
  3
*A180
350
35546
  3
*A181
350
33735
  3
*A182
350
3594C
  3
*A183
350
3506F
  3
*A184
350
3594D
  3
*A185
350
3594E
  3
*A186
350
3594F
  3
*A187
350
33B8D
  3
*A188
350
3296C
  3
*A189
350
32673
  3
*A19
350
273ED
  3
*A190
350
344A0
  3
*A191
350
35547
  3
*A192
350
32DE0
  3
*A193
350
35950
  3
*A194
350
3267A
  3
*A195
350
35951
  3
*A196
350
290DD
  3
*A197
350
3506D
  3
*A198
350
35952
  3
*A199
350
33AFC
  3
*A2
350
3553B
  3
*A20
350
273F2
  3
*A200
350
3296D
  3
*A201
350
35953
  3
*A202
350
35954
  3
*A203
350
35538
  3
*A204
350
35955
  3
*A205
350
344A1
  3
*A206
350
32071
  3
*A207
350
3372B
  3
*A208
350
33B5F
  3
*A209
350
344A3
  3
*A21
350
3372F
  3
*A210
350
35956
  3
*A211
350
33B8E
  3
*A212
350
275D5
  3
*A213
350
3372C
  3
*A214
350
33319
  3
*A215
350
3372D
  3
*A216
350
32DEF
  3
*A217
350
3267B
  3
*A218
350
2925F
  3
*A219
350
32DF0
  3
*A22
350
2925A
  3
*A220
350
33737
  3
*A221
350
33738
  3
*A222
350
35072
  3
*A223
350
33310
  3
*A224
350
344A7
  3
*A225
350
35539
  3
*A226
350
3506E
  3
*A227
350
33739
  3
*A228
350
3373A
  3
*A229
350
24FDC
  3
*A23
350
35943
  3
*A230
350
24FE6
  3
*A231
350
33729
  3
*A232
350
2925B
  3
*A233
350
3373B
  3
*A234
350
3373C
  3
*A235
350
3373D
  3
*A236
350
3553A
  3
*A237
350
32679
  3
*A238
350
33B90
  3
*A239
350
32072
  3
*A24
350
3553C
  3
*A240
350
33B91
  3
*A241
350
15535
  3
*A242
350
33B92
  3
*A243
350
27401
  3
*A244
350
275D4
  3
*A245
350
33AF6
  3
*A246
350
344A4
  3
*A25
350
32DE5
  3
*A26
350
3267C
  3
*A27
350
273F7
  3
*A28
350
35946
  3
*A29
350
33AF7
  3
*A3
350
35078
  3
*A30
350
2925C
  3
*A31
350
30D61
  3
*A32
350
32DE2
  3
*A33
350
30D65
  3
*A34
350
35548
  3
*A35
350
32DE9
  3
*A36
350
275D7
  3
*A37
350
3206A
  3
*A38
350
35073
  3
*A39
350
32DF4
  3
*A4
350
3297C
  3
*A40
350
32074
  3
*A41
350
33AFA
  3
*A42
350
32075
  3
*A43
350
2926A
  3
*A44
350
32076
  3
*A45
350
32DE7
  3
*A46
350
33312
  3
*A47
350
3506C
  3
*A48
350
33730
  3
*A49
350
3206B
  3
*A5
350
35942
  3
*A50
350
27412
  3
*A51
350
3331C
  3
*A52
350
273FC
  3
*A53
350
35076
  3
*A54
350
33AF8
  3
*A55
350
32077
  3
*A56
350
32DE3
  3
*A57
350
3553D
  3
*A58
350
3266F
  3
*A59
350
32670
  3
*A6
350
33B93
  3
*A60
350
290EE
  3
*A61
350
2926B
  3
*A62
350
33AFE
  3
*A63
350
29246
  3
*A64
350
32DE6
  3
*A65
350
33732
  3
*A66
350
29247
  3
*A67
350
32DE8
  3
*A68
350
344A2
  3
*A69
350
3293D
  3
*A7
350
3372E
  3
*A70
350
32947
  3
*A71
350
32671
  3
*A72
350
35075
  3
*A73
350
35947
  3
*A74
350
32672
  3
*A75
350
3299E
  3
*A76
350
3299F
  3
*A77
350
272AF
  3
*A78
350
275D8
  3
*A79
350
33736
  3
*A8
350
33B94
  3
*A80
350
33AF9
  3
*A81
350
329A0
  3
*A82
350
329A1
  3
*A83
350
35070
  3
*A84
350
2925E
  3
*A85
350
2740E
  3
*A86
350
3507B
  3
*A87
350
329A2
  3
*A88
350
33314
  3
*A89
350
329A3
  3
*A9
350
33B95
  3
*A90
350
35074
  3
*A91
350
35AF0
  3
*A92
350
344A6
  3
*A93
350
32DEA
  3
*A94
350
32676
  3
*A95
350
32DEB
  3
*A96
350
32DEC
  3
*A97
350
32DED
  3
*A98
350
35079
  3
*A99
350
33733
  0
DICTIONARY
  5
11755
102
{ACAD_REACTORS
330
7471
102
}
330
7471
100
AcDbDictionary
281
     1
  3
Model
350
11757
  3
レイアウト1
350
11758
  0
DICTIONARY
  5
11753
102
{ACAD_REACTORS
330
7471
102
}
330
7471
100
AcDbDictionary
281
     1
  0
DICTIONARY
  5
7473
102
{ACAD_REACTORS
330
7471
102
}
330
7471
100
AcDbDictionary
281
     1
  3
STANDARD
350
7480
  0
DICTIONARY
  5
11756
102
{ACAD_REACTORS
330
7471
102
}
330
7471
100
AcDbDictionary
281
     1
  0
ACDBDICTIONARYWDFLT
  5
11751
102
{ACAD_REACTORS
330
7471
102
}
330
7471
100
AcDbDictionary
281
     1
  3
Normal
350
11752
100
AcDbDictionaryWithDefault
340
11752
  0
DICTIONARY
  5
35B7D
102
{ACAD_REACTORS
330
7471
102
}
330
7471
100
AcDbDictionary
281
     1
  3
COLORDICT
350
35B7F
  3
MATERIALDICT
350
35B7E
  0
DICTIONARY
  5
35B79
102
{ACAD_REACTORS
330
7471
102
}
330
7471
100
AcDbDictionary
281
     1
  3
DIMASSOC
350
35B7A
  3
PROJECTNAME
350
35B7B
  0
DICTIONARY
  5
E71C
102
{ACAD_REACTORS
330
7471
102
}
330
7471
100
AcDbDictionary
281
     1
  0
DICTIONARY
  5
F3B9
102
{ACAD_REACTORS
330
7471
102
}
330
7471
100
AcDbDictionary
281
     1
1001
DRAWINGVARIABLESXDATA
1000
POLARMODE
1000
1
  0
DICTIONARY
  5
135F4
102
{ACAD_REACTORS
330
11827
102
}
330
11827
100
AcDbDictionary
281
     1
  0
DICTIONARY
  5
11828
102
{ACAD_REACTORS
330
11827
102
}
330
11827
100
AcDbDictionary
281
     1
  0
GROUP
  5
154E2
102
{ACAD_REACTORS
330
7472
102
}
330
7472
100
AcDbGroup
300

 70
     1
 71
     1
  0
GROUP
  5
32DF3
102
{ACAD_REACTORS
330
7472
102
}
330
7472
100
AcDbGroup
300

 70
     1
 71
     1
  0
GROUP
  5
32DF2
102
{ACAD_REACTORS
330
7472
102
}
330
7472
100
AcDbGroup
300

 70
     1
 71
     1
  0
GROUP
  5
3553E
102
{ACAD_REACTORS
330
7472
102
}
330
7472
100
AcDbGroup
300

 70
     1
 71
     1
  0
GROUP
  5
3206D
102
{ACAD_REACTORS
330
7472
102
}
330
7472
100
AcDbGroup
300

 70
     1
 71
     1
  0
GROUP
  5
329A4
102
{ACAD_REACTORS
330
7472
102
}
330
7472
100
AcDbGroup
300

 70
     1
 71
     1
  0
GROUP
  5
32951
102
{ACAD_REACTORS
330
7472
102
}
330
7472
100
AcDbGroup
300

 70
     1
 71
     1
  0
GROUP
  5
32DEE
102
{ACAD_REACTORS
330
7472
102
}
330
7472
100
AcDbGroup
300

 70
     1
 71
     1
  0
GROUP
  5
33316
102
{ACAD_REACTORS
330
7472
102
}
330
7472
100
AcDbGroup
300

 70
     1
 71
     1
  0
GROUP
  5
33317
102
{ACAD_REACTORS
330
7472
102
}
330
7472
100
AcDbGroup
300

 70
     1
 71
     1
  0
GROUP
  5
344A8
102
{ACAD_REACTORS
330
7472
102
}
330
7472
100
AcDbGroup
300

 70
     1
 71
     1
  0
GROUP
  5
32674
102
{ACAD_REACTORS
330
7472
102
}
330
7472
100
AcDbGroup
300

 70
     1
 71
     1
  0
GROUP
  5
32073
102
{ACAD_REACTORS
330
7472
102
}
330
7472
100
AcDbGroup
300

 70
     1
 71
     1
  0
GROUP
  5
33318
102
{ACAD_REACTORS
330
7472
102
}
330
7472
100
AcDbGroup
300

 70
     1
 71
     1
  0
GROUP
  5
35071
102
{ACAD_REACTORS
330
7472
102
}
330
7472
100
AcDbGroup
300

 70
     1
 71
     1
340
34CA1
340
34CA2
340
34C9F
340
34CA0
340
34C9E
340
34CA3
340
34CA4
340
34CA5
  0
GROUP
  5
32962
102
{ACAD_REACTORS
330
7472
102
}
330
7472
100
AcDbGroup
300

 70
     1
 71
     1
  0
GROUP
  5
3553F
102
{ACAD_REACTORS
330
7472
102
}
330
7472
100
AcDbGroup
300

 70
     1
 71
     1
  0
GROUP
  5
33734
102
{ACAD_REACTORS
330
7472
102
}
330
7472
100
AcDbGroup
300

 70
     1
 71
     1
  0
GROUP
  5
3408E
102
{ACAD_REACTORS
330
7472
102
}
330
7472
100
AcDbGroup
300

 70
     1
 71
     1
  0
GROUP
  5
34497
102
{ACAD_REACTORS
330
7472
102
}
330
7472
100
AcDbGroup
300

 70
     1
 71
     1
  0
GROUP
  5
32956
102
{ACAD_REACTORS
330
7472
102
}
330
7472
100
AcDbGroup
300

 70
     1
 71
     1
  0
GROUP
  5
34498
102
{ACAD_REACTORS
330
7472
102
}
330
7472
100
AcDbGroup
300

 70
     1
 71
     1
  0
GROUP
  5
3206E
102
{ACAD_REACTORS
330
7472
102
}
330
7472
100
AcDbGroup
300

 70
     1
 71
     1
  0
GROUP
  5
33B96
102
{ACAD_REACTORS
330
7472
102
}
330
7472
100
AcDbGroup
300

 70
     1
 71
     1
  0
GROUP
  5
35948
102
{ACAD_REACTORS
330
7472
102
}
330
7472
100
AcDbGroup
300

 70
     1
 71
     1
  0
GROUP
  5
34499
102
{ACAD_REACTORS
330
7472
102
}
330
7472
100
AcDbGroup
300

 70
     1
 71
     1
  0
GROUP
  5
35077
102
{ACAD_REACTORS
330
7472
102
}
330
7472
100
AcDbGroup
300

 70
     1
 71
     1
  0
GROUP
  5
3206F
102
{ACAD_REACTORS
330
7472
102
}
330
7472
100
AcDbGroup
300

 70
     1
 71
     1
  0
GROUP
  5
3449F
102
{ACAD_REACTORS
330
7472
102
}
330
7472
100
AcDbGroup
300

 70
     1
 71
     1
  0
GROUP
  5
3449A
102
{ACAD_REACTORS
330
7472
102
}
330
7472
100
AcDbGroup
300

 70
     1
 71
     1
  0
GROUP
  5
3507A
102
{ACAD_REACTORS
330
7472
102
}
330
7472
100
AcDbGroup
300

 70
     1
 71
     1
  0
GROUP
  5
35944
102
{ACAD_REACTORS
330
7472
102
}
330
7472
100
AcDbGroup
300

 70
     1
 71
     1
  0
GROUP
  5
3449B
102
{ACAD_REACTORS
330
7472
102
}
330
7472
100
AcDbGroup
300

 70
     1
 71
     1
  0
GROUP
  5
3206C
102
{ACAD_REACTORS
330
7472
102
}
330
7472
100
AcDbGroup
300

 70
     1
 71
     1
  0
GROUP
  5
3372A
102
{ACAD_REACTORS
330
7472
102
}
330
7472
100
AcDbGroup
300

 70
     1
 71
     1
  0
GROUP
  5
3449C
102
{ACAD_REACTORS
330
7472
102
}
330
7472
100
AcDbGroup
300

 70
     1
 71
     1
  0
GROUP
  5
3449D
102
{ACAD_REACTORS
330
7472
102
}
330
7472
100
AcDbGroup
300

 70
     1
 71
     1
  0
GROUP
  5
3449E
102
{ACAD_REACTORS
330
7472
102
}
330
7472
100
AcDbGroup
300

 70
     1
 71
     1
  0
GROUP
  5
33AFD
102
{ACAD_REACTORS
330
7472
102
}
330
7472
100
AcDbGroup
300

 70
     1
 71
     1
  0
GROUP
  5
29263
102
{ACAD_REACTORS
330
7472
102
}
330
7472
100
AcDbGroup
300

 70
     1
 71
     1
  0
GROUP
  5
3331D
102
{ACAD_REACTORS
330
7472
102
}
330
7472
100
AcDbGroup
300

 70
     1
 71
     1
  0
GROUP
  5
3331A
102
{ACAD_REACTORS
330
7472
102
}
330
7472
100
AcDbGroup
300

 70
     1
 71
     1
  0
GROUP
  5
344A9
102
{ACAD_REACTORS
330
7472
102
}
330
7472
100
AcDbGroup
300

 70
     1
 71
     1
  0
GROUP
  5
27416
102
{ACAD_REACTORS
330
7472
102
}
330
7472
100
AcDbGroup
300

 70
     1
 71
     1
  0
GROUP
  5
3594A
102
{ACAD_REACTORS
330
7472
102
}
330
7472
100
AcDbGroup
300

 70
     1
 71
     1
  0
GROUP
  5
32677
102
{ACAD_REACTORS
330
7472
102
}
330
7472
100
AcDbGroup
300

 70
     1
 71
     1
  0
GROUP
  5
32DF1
102
{ACAD_REACTORS
330
7472
102
}
330
7472
100
AcDbGroup
300

 70
     1
 71
     1
  0
GROUP
  5
2925D
102
{ACAD_REACTORS
330
7472
102
}
330
7472
100
AcDbGroup
300

 70
     1
 71
     1
  0
GROUP
  5
32675
102
{ACAD_REACTORS
330
7472
102
}
330
7472
100
AcDbGroup
300

 70
     1
 71
     1
  0
GROUP
  5
344AA
102
{ACAD_REACTORS
330
7472
102
}
330
7472
100
AcDbGroup
300

 70
     1
 71
     1
  0
GROUP
  5
344AB
102
{ACAD_REACTORS
330
7472
102
}
330
7472
100
AcDbGroup
300

 70
     1
 71
     1
  0
GROUP
  5
33311
102
{ACAD_REACTORS
330
7472
102
}
330
7472
100
AcDbGroup
300

 70
     1
 71
     1
  0
GROUP
  5
32DE1
102
{ACAD_REACTORS
330
7472
102
}
330
7472
100
AcDbGroup
300

 70
     1
 71
     1
  0
GROUP
  5
344AC
102
{ACAD_REACTORS
330
7472
102
}
330
7472
100
AcDbGroup
300

 70
     1
 71
     1
  0
GROUP
  5
329A6
102
{ACAD_REACTORS
330
7472
102
}
330
7472
100
AcDbGroup
300

 70
     1
 71
     1
  0
GROUP
  5
35945
102
{ACAD_REACTORS
330
7472
102
}
330
7472
100
AcDbGroup
300

 70
     1
 71
     1
  0
GROUP
  5
272B4
102
{ACAD_REACTORS
330
7472
102
}
330
7472
100
AcDbGroup
300

 70
     1
 71
     1
  0
GROUP
  5
35067
102
{ACAD_REACTORS
330
7472
102
}
330
7472
100
AcDbGroup
300

 70
     1
 71
     1
340
34CFE
340
34CFF
340
34D00
340
34D01
340
34D02
340
34D03
340
34D09
340
34D0A
340
34D0B
340
34CFC
340
34CFD
340
34D04
340
34D05
340
34D06
340
34D07
340
34D08
  0
GROUP
  5
35068
102
{ACAD_REACTORS
330
7472
102
}
330
7472
100
AcDbGroup
300

 70
     1
 71
     1
340
34CFA
340
34CF9
340
34CF8
340
34CF7
340
34CF6
340
34CF5
340
34CF4
340
34CF3
340
34CF2
340
34CF1
340
34CFB
340
34CF0
340
34CEF
340
34CEE
340
34CED
340
34CEC
  0
GROUP
  5
35069
102
{ACAD_REACTORS
330
7472
102
}
330
7472
100
AcDbGroup
300

 70
     1
 71
     1
340
34CC5
340
34CC4
340
34CC3
340
34CC2
340
34CC1
340
34CC0
340
34CC6
340
34CBF
340
34CBE
  0
GROUP
  5
3295B
102
{ACAD_REACTORS
330
7472
102
}
330
7472
100
AcDbGroup
300

 70
     1
 71
     1
  0
GROUP
  5
33315
102
{ACAD_REACTORS
330
7472
102
}
330
7472
100
AcDbGroup
300

 70
     1
 71
     1
  0
GROUP
  5
35534
102
{ACAD_REACTORS
330
7472
102
}
330
7472
100
AcDbGroup
300

 70
     1
 71
     1
  0
GROUP
  5
35949
102
{ACAD_REACTORS
330
7472
102
}
330
7472
100
AcDbGroup
300

 70
     1
 71
     1
  0
GROUP
  5
33313
102
{ACAD_REACTORS
330
7472
102
}
330
7472
100
AcDbGroup
300

 70
     1
 71
     1
  0
GROUP
  5
35535
102
{ACAD_REACTORS
330
7472
102
}
330
7472
100
AcDbGroup
300

 70
     1
 71
     1
  0
GROUP
  5
3594B
102
{ACAD_REACTORS
330
7472
102
}
330
7472
100
AcDbGroup
300

 70
     1
 71
     1
  0
GROUP
  5
33731
102
{ACAD_REACTORS
330
7472
102
}
330
7472
100
AcDbGroup
300

 70
     1
 71
     1
  0
GROUP
  5
275D6
102
{ACAD_REACTORS
330
7472
102
}
330
7472
100
AcDbGroup
300

 70
     1
 71
     1
  0
GROUP
  5
35536
102
{ACAD_REACTORS
330
7472
102
}
330
7472
100
AcDbGroup
300

 70
     1
 71
     1
  0
GROUP
  5
35537
102
{ACAD_REACTORS
330
7472
102
}
330
7472
100
AcDbGroup
300

 70
     1
 71
     1
  0
GROUP
  5
3506A
102
{ACAD_REACTORS
330
7472
102
}
330
7472
100
AcDbGroup
300

 70
     1
 71
     1
340
34CBC
340
34CBB
340
34CBA
340
34CB9
340
34CB8
340
34CB7
340
34CB6
340
34CB5
340
34CB4
340
34CB3
340
34CB2
340
34CB1
340
34CB0
340
34CAF
340
34CAE
340
34CAD
340
34CAC
340
34CBD
340
34CAB
340
34CAA
340
34CA9
340
34CA8
340
34CA7
340
34CA6
340
34CA5
340
34CA4
340
34CA3
340
34CA2
340
34CA1
340
34CA0
340
34C9F
340
34C9E
  0
GROUP
  5
32070
102
{ACAD_REACTORS
330
7472
102
}
330
7472
100
AcDbGroup
300

 70
     1
 71
     1
  0
GROUP
  5
33AFF
102
{ACAD_REACTORS
330
7472
102
}
330
7472
100
AcDbGroup
300

 70
     1
 71
     1
  0
GROUP
  5
3331B
102
{ACAD_REACTORS
330
7472
102
}
330
7472
100
AcDbGroup
300

 70
     1
 71
     1
  0
GROUP
  5
35540
102
{ACAD_REACTORS
330
7472
102
}
330
7472
100
AcDbGroup
300

 70
     1
 71
     1
  0
GROUP
  5
32DE4
102
{ACAD_REACTORS
330
7472
102
}
330
7472
100
AcDbGroup
300

 70
     1
 71
     1
  0
GROUP
  5
3506B
102
{ACAD_REACTORS
330
7472
102
}
330
7472
100
AcDbGroup
300

 70
     1
 71
     1
340
34CA9
340
34CAA
340
34CA7
340
34CA8
340
34CA6
340
34CAB
340
34CBD
340
34CAC
  0
GROUP
  5
3299D
102
{ACAD_REACTORS
330
7472
102
}
330
7472
100
AcDbGroup
300

 70
     1
 71
     1
  0
GROUP
  5
27417
102
{ACAD_REACTORS
330
7472
102
}
330
7472
100
AcDbGroup
300

 70
     1
 71
     1
  0
GROUP
  5
35541
102
{ACAD_REACTORS
330
7472
102
}
330
7472
100
AcDbGroup
300

 70
     1
 71
     1
  0
GROUP
  5
35542
102
{ACAD_REACTORS
330
7472
102
}
330
7472
100
AcDbGroup
300

 70
     1
 71
     1
  0
GROUP
  5
33AFB
102
{ACAD_REACTORS
330
7472
102
}
330
7472
100
AcDbGroup
300

 70
     1
 71
     1
  0
GROUP
  5
35543
102
{ACAD_REACTORS
330
7472
102
}
330
7472
100
AcDbGroup
300

 70
     1
 71
     1
  0
GROUP
  5
329A5
102
{ACAD_REACTORS
330
7472
102
}
330
7472
100
AcDbGroup
300

 70
     1
 71
     1
  0
GROUP
  5
33B8F
102
{ACAD_REACTORS
330
7472
102
}
330
7472
100
AcDbGroup
300

 70
     1
 71
     1
  0
GROUP
  5
35544
102
{ACAD_REACTORS
330
7472
102
}
330
7472
100
AcDbGroup
300

 70
     1
 71
     1
  0
GROUP
  5
35545
102
{ACAD_REACTORS
330
7472
102
}
330
7472
100
AcDbGroup
300

 70
     1
 71
     1
  0
GROUP
  5
32678
102
{ACAD_REACTORS
330
7472
102
}
330
7472
100
AcDbGroup
300

 70
     1
 71
     1
  0
GROUP
  5
344A5
102
{ACAD_REACTORS
330
7472
102
}
330
7472
100
AcDbGroup
300

 70
     1
 71
     1
  0
GROUP
  5
35546
102
{ACAD_REACTORS
330
7472
102
}
330
7472
100
AcDbGroup
300

 70
     1
 71
     1
  0
GROUP
  5
33735
102
{ACAD_REACTORS
330
7472
102
}
330
7472
100
AcDbGroup
300

 70
     1
 71
     1
  0
GROUP
  5
3594C
102
{ACAD_REACTORS
330
7472
102
}
330
7472
100
AcDbGroup
300

 70
     1
 71
     1
  0
GROUP
  5
3506F
102
{ACAD_REACTORS
330
7472
102
}
330
7472
100
AcDbGroup
300

 70
     1
 71
     1
340
34CAD
340
34CAE
340
34CAF
340
34CB0
  0
GROUP
  5
3594D
102
{ACAD_REACTORS
330
7472
102
}
330
7472
100
AcDbGroup
300

 70
     1
 71
     1
  0
GROUP
  5
3594E
102
{ACAD_REACTORS
330
7472
102
}
330
7472
100
AcDbGroup
300

 70
     1
 71
     1
  0
GROUP
  5
3594F
102
{ACAD_REACTORS
330
7472
102
}
330
7472
100
AcDbGroup
300

 70
     1
 71
     1
  0
GROUP
  5
33B8D
102
{ACAD_REACTORS
330
7472
102
}
330
7472
100
AcDbGroup
300

 70
     1
 71
     1
  0
GROUP
  5
3296C
102
{ACAD_REACTORS
330
7472
102
}
330
7472
100
AcDbGroup
300

 70
     1
 71
     1
  0
GROUP
  5
32673
102
{ACAD_REACTORS
330
7472
102
}
330
7472
100
AcDbGroup
300

 70
     1
 71
     1
  0
GROUP
  5
273ED
102
{ACAD_REACTORS
330
7472
102
}
330
7472
100
AcDbGroup
300

 70
     1
 71
     1
  0
GROUP
  5
344A0
102
{ACAD_REACTORS
330
7472
102
}
330
7472
100
AcDbGroup
300

 70
     1
 71
     1
  0
GROUP
  5
35547
102
{ACAD_REACTORS
330
7472
102
}
330
7472
100
AcDbGroup
300

 70
     1
 71
     1
  0
GROUP
  5
32DE0
102
{ACAD_REACTORS
330
7472
102
}
330
7472
100
AcDbGroup
300

 70
     1
 71
     1
  0
GROUP
  5
35950
102
{ACAD_REACTORS
330
7472
102
}
330
7472
100
AcDbGroup
300

 70
     1
 71
     1
  0
GROUP
  5
3267A
102
{ACAD_REACTORS
330
7472
102
}
330
7472
100
AcDbGroup
300

 70
     1
 71
     1
  0
GROUP
  5
35951
102
{ACAD_REACTORS
330
7472
102
}
330
7472
100
AcDbGroup
300

 70
     1
 71
     1
  0
GROUP
  5
290DD
102
{ACAD_REACTORS
330
7472
102
}
330
7472
100
AcDbGroup
300

 70
     1
 71
     1
  0
GROUP
  5
3506D
102
{ACAD_REACTORS
330
7472
102
}
330
7472
100
AcDbGroup
300

 70
     1
 71
     1
340
34CB5
340
34CB6
340
34CB7
340
34CB8
  0
GROUP
  5
35952
102
{ACAD_REACTORS
330
7472
102
}
330
7472
100
AcDbGroup
300

 70
     1
 71
     1
  0
GROUP
  5
33AFC
102
{ACAD_REACTORS
330
7472
102
}
330
7472
100
AcDbGroup
300

 70
     1
 71
     1
  0
GROUP
  5
3553B
102
{ACAD_REACTORS
330
7472
102
}
330
7472
100
AcDbGroup
300

 70
     1
 71
     1
  0
GROUP
  5
273F2
102
{ACAD_REACTORS
330
7472
102
}
330
7472
100
AcDbGroup
300

 70
     1
 71
     1
  0
GROUP
  5
3296D
102
{ACAD_REACTORS
330
7472
102
}
330
7472
100
AcDbGroup
300

 70
     1
 71
     1
  0
GROUP
  5
35953
102
{ACAD_REACTORS
330
7472
102
}
330
7472
100
AcDbGroup
300

 70
     1
 71
     1
  0
GROUP
  5
35954
102
{ACAD_REACTORS
330
7472
102
}
330
7472
100
AcDbGroup
300

 70
     1
 71
     1
  0
GROUP
  5
35538
102
{ACAD_REACTORS
330
7472
102
}
330
7472
100
AcDbGroup
300

 70
     1
 71
     1
  0
GROUP
  5
35955
102
{ACAD_REACTORS
330
7472
102
}
330
7472
100
AcDbGroup
300

 70
     1
 71
     1
  0
GROUP
  5
344A1
102
{ACAD_REACTORS
330
7472
102
}
330
7472
100
AcDbGroup
300

 70
     1
 71
     1
  0
GROUP
  5
32071
102
{ACAD_REACTORS
330
7472
102
}
330
7472
100
AcDbGroup
300

 70
     1
 71
     1
  0
GROUP
  5
3372B
102
{ACAD_REACTORS
330
7472
102
}
330
7472
100
AcDbGroup
300

 70
     1
 71
     1
  0
GROUP
  5
33B5F
102
{ACAD_REACTORS
330
7472
102
}
330
7472
100
AcDbGroup
300

 70
     1
 71
     1
  0
GROUP
  5
344A3
102
{ACAD_REACTORS
330
7472
102
}
330
7472
100
AcDbGroup
300

 70
     1
 71
     1
  0
GROUP
  5
3372F
102
{ACAD_REACTORS
330
7472
102
}
330
7472
100
AcDbGroup
300

 70
     1
 71
     1
  0
GROUP
  5
35956
102
{ACAD_REACTORS
330
7472
102
}
330
7472
100
AcDbGroup
300

 70
     1
 71
     1
  0
GROUP
  5
33B8E
102
{ACAD_REACTORS
330
7472
102
}
330
7472
100
AcDbGroup
300

 70
     1
 71
     1
  0
GROUP
  5
275D5
102
{ACAD_REACTORS
330
7472
102
}
330
7472
100
AcDbGroup
300

 70
     1
 71
     1
  0
GROUP
  5
3372C
102
{ACAD_REACTORS
330
7472
102
}
330
7472
100
AcDbGroup
300

 70
     1
 71
     1
  0
GROUP
  5
33319
102
{ACAD_REACTORS
330
7472
102
}
330
7472
100
AcDbGroup
300

 70
     1
 71
     1
  0
GROUP
  5
3372D
102
{ACAD_REACTORS
330
7472
102
}
330
7472
100
AcDbGroup
300

 70
     1
 71
     1
  0
GROUP
  5
32DEF
102
{ACAD_REACTORS
330
7472
102
}
330
7472
100
AcDbGroup
300

 70
     1
 71
     1
  0
GROUP
  5
3267B
102
{ACAD_REACTORS
330
7472
102
}
330
7472
100
AcDbGroup
300

 70
     1
 71
     1
  0
GROUP
  5
2925F
102
{ACAD_REACTORS
330
7472
102
}
330
7472
100
AcDbGroup
300

 70
     1
 71
     1
  0
GROUP
  5
32DF0
102
{ACAD_REACTORS
330
7472
102
}
330
7472
100
AcDbGroup
300

 70
     1
 71
     1
  0
GROUP
  5
2925A
102
{ACAD_REACTORS
330
7472
102
}
330
7472
100
AcDbGroup
300

 70
     1
 71
     1
  0
GROUP
  5
33737
102
{ACAD_REACTORS
330
7472
102
}
330
7472
100
AcDbGroup
300

 70
     1
 71
     1
  0
GROUP
  5
33738
102
{ACAD_REACTORS
330
7472
102
}
330
7472
100
AcDbGroup
300

 70
     1
 71
     1
  0
GROUP
  5
35072
102
{ACAD_REACTORS
330
7472
102
}
330
7472
100
AcDbGroup
300

 70
     1
 71
     1
340
34C9F
340
34CA0
340
34C9E
  0
GROUP
  5
33310
102
{ACAD_REACTORS
330
7472
102
}
330
7472
100
AcDbGroup
300

 70
     1
 71
     1
  0
GROUP
  5
344A7
102
{ACAD_REACTORS
330
7472
102
}
330
7472
100
AcDbGroup
300

 70
     1
 71
     1
  0
GROUP
  5
35539
102
{ACAD_REACTORS
330
7472
102
}
330
7472
100
AcDbGroup
300

 70
     1
 71
     1
  0
GROUP
  5
3506E
102
{ACAD_REACTORS
330
7472
102
}
330
7472
100
AcDbGroup
300

 70
     1
 71
     1
340
34CB2
340
34CB1
340
34CB3
340
34CB4
  0
GROUP
  5
33739
102
{ACAD_REACTORS
330
7472
102
}
330
7472
100
AcDbGroup
300

 70
     1
 71
     1
  0
GROUP
  5
3373A
102
{ACAD_REACTORS
330
7472
102
}
330
7472
100
AcDbGroup
300

 70
     1
 71
     1
  0
GROUP
  5
24FDC
102
{ACAD_REACTORS
330
7472
102
}
330
7472
100
AcDbGroup
300

 70
     1
 71
     1
  0
GROUP
  5
35943
102
{ACAD_REACTORS
330
7472
102
}
330
7472
100
AcDbGroup
300

 70
     1
 71
     1
  0
GROUP
  5
24FE6
102
{ACAD_REACTORS
330
7472
102
}
330
7472
100
AcDbGroup
300

 70
     1
 71
     1
  0
GROUP
  5
33729
102
{ACAD_REACTORS
330
7472
102
}
330
7472
100
AcDbGroup
300

 70
     1
 71
     1
  0
GROUP
  5
2925B
102
{ACAD_REACTORS
330
7472
102
}
330
7472
100
AcDbGroup
300

 70
     1
 71
     1
  0
GROUP
  5
3373B
102
{ACAD_REACTORS
330
7472
102
}
330
7472
100
AcDbGroup
300

 70
     1
 71
     1
  0
GROUP
  5
3373C
102
{ACAD_REACTORS
330
7472
102
}
330
7472
100
AcDbGroup
300

 70
     1
 71
     1
  0
GROUP
  5
3373D
102
{ACAD_REACTORS
330
7472
102
}
330
7472
100
AcDbGroup
300

 70
     1
 71
     1
  0
GROUP
  5
3553A
102
{ACAD_REACTORS
330
7472
102
}
330
7472
100
AcDbGroup
300

 70
     1
 71
     1
  0
GROUP
  5
32679
102
{ACAD_REACTORS
330
7472
102
}
330
7472
100
AcDbGroup
300

 70
     1
 71
     1
  0
GROUP
  5
33B90
102
{ACAD_REACTORS
330
7472
102
}
330
7472
100
AcDbGroup
300

 70
     1
 71
     1
  0
GROUP
  5
32072
102
{ACAD_REACTORS
330
7472
102
}
330
7472
100
AcDbGroup
300

 70
     1
 71
     1
  0
GROUP
  5
3553C
102
{ACAD_REACTORS
330
7472
102
}
330
7472
100
AcDbGroup
300

 70
     1
 71
     1
  0
GROUP
  5
33B91
102
{ACAD_REACTORS
330
7472
102
}
330
7472
100
AcDbGroup
300

 70
     1
 71
     1
  0
GROUP
  5
15535
102
{ACAD_REACTORS
330
7472
102
}
330
7472
100
AcDbGroup
300

 70
     1
 71
     1
  0
GROUP
  5
33B92
102
{ACAD_REACTORS
330
7472
102
}
330
7472
100
AcDbGroup
300

 70
     1
 71
     1
  0
GROUP
  5
27401
102
{ACAD_REACTORS
330
7472
102
}
330
7472
100
AcDbGroup
300

 70
     1
 71
     1
  0
GROUP
  5
275D4
102
{ACAD_REACTORS
330
7472
102
}
330
7472
100
AcDbGroup
300

 70
     1
 71
     1
  0
GROUP
  5
33AF6
102
{ACAD_REACTORS
330
7472
102
}
330
7472
100
AcDbGroup
300

 70
     1
 71
     1
  0
GROUP
  5
344A4
102
{ACAD_REACTORS
330
7472
102
}
330
7472
100
AcDbGroup
300

 70
     1
 71
     1
  0
GROUP
  5
32DE5
102
{ACAD_REACTORS
330
7472
102
}
330
7472
100
AcDbGroup
300

 70
     1
 71
     1
  0
GROUP
  5
3267C
102
{ACAD_REACTORS
330
7472
102
}
330
7472
100
AcDbGroup
300

 70
     1
 71
     1
  0
GROUP
  5
273F7
102
{ACAD_REACTORS
330
7472
102
}
330
7472
100
AcDbGroup
300

 70
     1
 71
     1
  0
GROUP
  5
35946
102
{ACAD_REACTORS
330
7472
102
}
330
7472
100
AcDbGroup
300

 70
     1
 71
     1
  0
GROUP
  5
33AF7
102
{ACAD_REACTORS
330
7472
102
}
330
7472
100
AcDbGroup
300

 70
     1
 71
     1
  0
GROUP
  5
35078
102
{ACAD_REACTORS
330
7472
102
}
330
7472
100
AcDbGroup
300

 70
     1
 71
     1
  0
GROUP
  5
2925C
102
{ACAD_REACTORS
330
7472
102
}
330
7472
100
AcDbGroup
300

 70
     1
 71
     1
  0
GROUP
  5
30D61
102
{ACAD_REACTORS
330
7472
102
}
330
7472
100
AcDbGroup
300

 70
     1
 71
     1
  0
GROUP
  5
32DE2
102
{ACAD_REACTORS
330
7472
102
}
330
7472
100
AcDbGroup
300

 70
     1
 71
     1
  0
GROUP
  5
30D65
102
{ACAD_REACTORS
330
7472
102
}
330
7472
100
AcDbGroup
300

 70
     1
 71
     1
  0
GROUP
  5
35548
102
{ACAD_REACTORS
330
7472
102
}
330
7472
100
AcDbGroup
300

 70
     1
 71
     1
  0
GROUP
  5
32DE9
102
{ACAD_REACTORS
330
7472
102
}
330
7472
100
AcDbGroup
300

 70
     1
 71
     1
  0
GROUP
  5
275D7
102
{ACAD_REACTORS
330
7472
102
}
330
7472
100
AcDbGroup
300

 70
     1
 71
     1
  0
GROUP
  5
3206A
102
{ACAD_REACTORS
330
7472
102
}
330
7472
100
AcDbGroup
300

 70
     1
 71
     1
  0
GROUP
  5
35073
102
{ACAD_REACTORS
330
7472
102
}
330
7472
100
AcDbGroup
300

 70
     1
 71
     1
  0
GROUP
  5
32DF4
102
{ACAD_REACTORS
330
7472
102
}
330
7472
100
AcDbGroup
300

 70
     1
 71
     1
  0
GROUP
  5
3297C
102
{ACAD_REACTORS
330
7472
102
}
330
7472
100
AcDbGroup
300

 70
     1
 71
     1
  0
GROUP
  5
32074
102
{ACAD_REACTORS
330
7472
102
}
330
7472
100
AcDbGroup
300

 70
     1
 71
     1
  0
GROUP
  5
33AFA
102
{ACAD_REACTORS
330
7472
102
}
330
7472
100
AcDbGroup
300

 70
     1
 71
     1
  0
GROUP
  5
32075
102
{ACAD_REACTORS
330
7472
102
}
330
7472
100
AcDbGroup
300

 70
     1
 71
     1
  0
GROUP
  5
2926A
102
{ACAD_REACTORS
330
7472
102
}
330
7472
100
AcDbGroup
300

 70
     1
 71
     1
  0
GROUP
  5
32076
102
{ACAD_REACTORS
330
7472
102
}
330
7472
100
AcDbGroup
300

 70
     1
 71
     1
  0
GROUP
  5
32DE7
102
{ACAD_REACTORS
330
7472
102
}
330
7472
100
AcDbGroup
300

 70
     1
 71
     1
  0
GROUP
  5
33312
102
{ACAD_REACTORS
330
7472
102
}
330
7472
100
AcDbGroup
300

 70
     1
 71
     1
  0
GROUP
  5
3506C
102
{ACAD_REACTORS
330
7472
102
}
330
7472
100
AcDbGroup
300

 70
     1
 71
     1
340
34CBA
340
34CB9
340
34CBB
340
34CBC
  0
GROUP
  5
33730
102
{ACAD_REACTORS
330
7472
102
}
330
7472
100
AcDbGroup
300

 70
     1
 71
     1
  0
GROUP
  5
3206B
102
{ACAD_REACTORS
330
7472
102
}
330
7472
100
AcDbGroup
300

 70
     1
 71
     1
  0
GROUP
  5
35942
102
{ACAD_REACTORS
330
7472
102
}
330
7472
100
AcDbGroup
300

 70
     1
 71
     1
  0
GROUP
  5
27412
102
{ACAD_REACTORS
330
7472
102
}
330
7472
100
AcDbGroup
300

 70
     1
 71
     1
  0
GROUP
  5
3331C
102
{ACAD_REACTORS
330
7472
102
}
330
7472
100
AcDbGroup
300

 70
     1
 71
     1
  0
GROUP
  5
273FC
102
{ACAD_REACTORS
330
7472
102
}
330
7472
100
AcDbGroup
300

 70
     1
 71
     1
  0
GROUP
  5
35076
102
{ACAD_REACTORS
330
7472
102
}
330
7472
100
AcDbGroup
300

 70
     1
 71
     1
  0
GROUP
  5
33AF8
102
{ACAD_REACTORS
330
7472
102
}
330
7472
100
AcDbGroup
300

 70
     1
 71
     1
  0
GROUP
  5
32077
102
{ACAD_REACTORS
330
7472
102
}
330
7472
100
AcDbGroup
300

 70
     1
 71
     1
  0
GROUP
  5
32DE3
102
{ACAD_REACTORS
330
7472
102
}
330
7472
100
AcDbGroup
300

 70
     1
 71
     1
  0
GROUP
  5
3553D
102
{ACAD_REACTORS
330
7472
102
}
330
7472
100
AcDbGroup
300

 70
     1
 71
     1
  0
GROUP
  5
3266F
102
{ACAD_REACTORS
330
7472
102
}
330
7472
100
AcDbGroup
300

 70
     1
 71
     1
  0
GROUP
  5
32670
102
{ACAD_REACTORS
330
7472
102
}
330
7472
100
AcDbGroup
300

 70
     1
 71
     1
  0
GROUP
  5
33B93
102
{ACAD_REACTORS
330
7472
102
}
330
7472
100
AcDbGroup
300

 70
     1
 71
     1
  0
GROUP
  5
290EE
102
{ACAD_REACTORS
330
7472
102
}
330
7472
100
AcDbGroup
300

 70
     1
 71
     1
  0
GROUP
  5
2926B
102
{ACAD_REACTORS
330
7472
102
}
330
7472
100
AcDbGroup
300

 70
     1
 71
     1
  0
GROUP
  5
33AFE
102
{ACAD_REACTORS
330
7472
102
}
330
7472
100
AcDbGroup
300

 70
     1
 71
     1
  0
GROUP
  5
29246
102
{ACAD_REACTORS
330
7472
102
}
330
7472
100
AcDbGroup
300

 70
     1
 71
     1
  0
GROUP
  5
32DE6
102
{ACAD_REACTORS
330
7472
102
}
330
7472
100
AcDbGroup
300

 70
     1
 71
     1
  0
GROUP
  5
33732
102
{ACAD_REACTORS
330
7472
102
}
330
7472
100
AcDbGroup
300

 70
     1
 71
     1
  0
GROUP
  5
29247
102
{ACAD_REACTORS
330
7472
102
}
330
7472
100
AcDbGroup
300

 70
     1
 71
     1
  0
GROUP
  5
32DE8
102
{ACAD_REACTORS
330
7472
102
}
330
7472
100
AcDbGroup
300

 70
     1
 71
     1
  0
GROUP
  5
344A2
102
{ACAD_REACTORS
330
7472
102
}
330
7472
100
AcDbGroup
300

 70
     1
 71
     1
  0
GROUP
  5
3293D
102
{ACAD_REACTORS
330
7472
102
}
330
7472
100
AcDbGroup
300

 70
     1
 71
     1
  0
GROUP
  5
3372E
102
{ACAD_REACTORS
330
7472
102
}
330
7472
100
AcDbGroup
300

 70
     1
 71
     1
  0
GROUP
  5
32947
102
{ACAD_REACTORS
330
7472
102
}
330
7472
100
AcDbGroup
300

 70
     1
 71
     1
  0
GROUP
  5
32671
102
{ACAD_REACTORS
330
7472
102
}
330
7472
100
AcDbGroup
300

 70
     1
 71
     1
  0
GROUP
  5
35075
102
{ACAD_REACTORS
330
7472
102
}
330
7472
100
AcDbGroup
300

 70
     1
 71
     1
  0
GROUP
  5
35947
102
{ACAD_REACTORS
330
7472
102
}
330
7472
100
AcDbGroup
300

 70
     1
 71
     1
  0
GROUP
  5
32672
102
{ACAD_REACTORS
330
7472
102
}
330
7472
100
AcDbGroup
300

 70
     1
 71
     1
  0
GROUP
  5
3299E
102
{ACAD_REACTORS
330
7472
102
}
330
7472
100
AcDbGroup
300

 70
     1
 71
     1
  0
GROUP
  5
3299F
102
{ACAD_REACTORS
330
7472
102
}
330
7472
100
AcDbGroup
300

 70
     1
 71
     1
  0
GROUP
  5
272AF
102
{ACAD_REACTORS
330
7472
102
}
330
7472
100
AcDbGroup
300

 70
     1
 71
     1
  0
GROUP
  5
275D8
102
{ACAD_REACTORS
330
7472
102
}
330
7472
100
AcDbGroup
300

 70
     1
 71
     1
  0
GROUP
  5
33736
102
{ACAD_REACTORS
330
7472
102
}
330
7472
100
AcDbGroup
300

 70
     1
 71
     1
  0
GROUP
  5
33B94
102
{ACAD_REACTORS
330
7472
102
}
330
7472
100
AcDbGroup
300

 70
     1
 71
     1
  0
GROUP
  5
33AF9
102
{ACAD_REACTORS
330
7472
102
}
330
7472
100
AcDbGroup
300

 70
     1
 71
     1
  0
GROUP
  5
329A0
102
{ACAD_REACTORS
330
7472
102
}
330
7472
100
AcDbGroup
300

 70
     1
 71
     1
  0
GROUP
  5
329A1
102
{ACAD_REACTORS
330
7472
102
}
330
7472
100
AcDbGroup
300

 70
     1
 71
     1
  0
GROUP
  5
35070
102
{ACAD_REACTORS
330
7472
102
}
330
7472
100
AcDbGroup
300

 70
     1
 71
     1
340
34CA7
340
34CA8
340
34CA6
  0
GROUP
  5
2925E
102
{ACAD_REACTORS
330
7472
102
}
330
7472
100
AcDbGroup
300

 70
     1
 71
     1
  0
GROUP
  5
2740E
102
{ACAD_REACTORS
330
7472
102
}
330
7472
100
AcDbGroup
300

 70
     1
 71
     1
  0
GROUP
  5
3507B
102
{ACAD_REACTORS
330
7472
102
}
330
7472
100
AcDbGroup
300

 70
     1
 71
     1
  0
GROUP
  5
329A2
102
{ACAD_REACTORS
330
7472
102
}
330
7472
100
AcDbGroup
300

 70
     1
 71
     1
  0
GROUP
  5
33314
102
{ACAD_REACTORS
330
7472
102
}
330
7472
100
AcDbGroup
300

 70
     1
 71
     1
  0
GROUP
  5
329A3
102
{ACAD_REACTORS
330
7472
102
}
330
7472
100
AcDbGroup
300

 70
     1
 71
     1
  0
GROUP
  5
33B95
102
{ACAD_REACTORS
330
7472
102
}
330
7472
100
AcDbGroup
300

 70
     1
 71
     1
  0
GROUP
  5
35074
102
{ACAD_REACTORS
330
7472
102
}
330
7472
100
AcDbGroup
300

 70
     1
 71
     1
  0
GROUP
  5
35AF0
102
{ACAD_REACTORS
330
7472
102
}
330
7472
100
AcDbGroup
300

 70
     1
 71
     1
340
35AEF
340
35AEE
340
35AED
340
35AEC
340
35AEB
340
35AEA
340
35AE9
340
35AE8
340
35AE7
340
35AE6
340
35AE5
340
35AE4
340
35AE3
340
35AE2
340
35AE1
340
35AE0
340
35ADF
340
35ADE
340
35ADD
340
35ADC
340
35ADB
340
35ADA
340
35AD9
340
35AD8
340
35AD7
340
35AD6
340
35AD5
340
35AD4
340
35AD3
340
35AD2
340
35AD1
340
35AD0
340
35ACF
  0
GROUP
  5
344A6
102
{ACAD_REACTORS
330
7472
102
}
330
7472
100
AcDbGroup
300

 70
     1
 71
     1
  0
GROUP
  5
32DEA
102
{ACAD_REACTORS
330
7472
102
}
330
7472
100
AcDbGroup
300

 70
     1
 71
     1
  0
GROUP
  5
32676
102
{ACAD_REACTORS
330
7472
102
}
330
7472
100
AcDbGroup
300

 70
     1
 71
     1
  0
GROUP
  5
32DEB
102
{ACAD_REACTORS
330
7472
102
}
330
7472
100
AcDbGroup
300

 70
     1
 71
     1
  0
GROUP
  5
32DEC
102
{ACAD_REACTORS
330
7472
102
}
330
7472
100
AcDbGroup
300

 70
     1
 71
     1
  0
GROUP
  5
32DED
102
{ACAD_REACTORS
330
7472
102
}
330
7472
100
AcDbGroup
300

 70
     1
 71
     1
  0
GROUP
  5
35079
102
{ACAD_REACTORS
330
7472
102
}
330
7472
100
AcDbGroup
300

 70
     1
 71
     1
  0
GROUP
  5
33733
102
{ACAD_REACTORS
330
7472
102
}
330
7472
100
AcDbGroup
300

 70
     1
 71
     1
  0
LAYOUT
  5
11757
102
{ACAD_XDICTIONARY
360
35B80
102
}
102
{ACAD_REACTORS
330
11755
102
}
330
11755
100
AcDbPlotSettings
  1

  2
Microsoft Office Document Image Writer
  4
A4
  6

 40
3.174999952316284
 41
3.174999952316284
 42
3.175003051757812
 43
3.17498779296875
 44
209.9733276367187
 45
297.0106506347656
 46
0.0
 47
0.0
 48
0.0
 49
0.0
140
0.0
141
0.0
142
1.0
143
1.0
 70
 11952
 72
     1
 73
     1
 74
     0
  7

 75
     0
147
1.0
148
-3096.011834229277
149
52.59843815948716
100
AcDbLayout
  1
Model
 70
     1
 71
     0
 10
0.0
 20
0.0
 11
12.0
 21
9.0
 12
0.0
 22
0.0
 32
0.0
 14
0.0
 24
0.0
 34
0.0
 15
0.0
 25
0.0
 35
0.0
146
0.0
 13
0.0
 23
0.0
 33
0.0
 16
1.0
 26
0.0
 36
0.0
 17
0.0
 27
1.0
 37
0.0
 76
     0
330
747D
  0
LAYOUT
  5
11758
102
{ACAD_XDICTIONARY
360
35B82
102
}
102
{ACAD_REACTORS
330
11755
102
}
330
11755
100
AcDbPlotSettings
  1

  2
Microsoft Office Document Image Writer
  4

  6

 40
0.0
 41
0.0
 42
0.0
 43
0.0
 44
0.0
 45
0.0
 46
0.0
 47
0.0
 48
0.0
 49
0.0
140
0.0
141
0.0
142
1.0
143
1.0
 70
   688
 72
     0
 73
     0
 74
     5
  7
inaba.ctb
 75
    16
147
1.0
148
0.0
149
0.0
100
AcDbLayout
  1
レイアウト1
 70
     0
 71
     1
 10
0.0
 20
0.0
 11
420.0
 21
297.0
 12
0.0
 22
0.0
 32
0.0
 14
1.000000000000000E+20
 24
1.000000000000000E+20
 34
1.000000000000000E+20
 15
-1.000000000000000E+20
 25
-1.000000000000000E+20
 35
-1.000000000000000E+20
146
0.0
 13
0.0
 23
0.0
 33
0.0
 16
1.0
 26
0.0
 36
0.0
 17
0.0
 27
1.0
 37
0.0
 76
     0
330
747A
  0
MLINESTYLE
  5
7480
102
{ACAD_REACTORS
330
7473
102
}
330
7473
100
AcDbMlineStyle
  2
STANDARD
 70
     0
  3

 62
     0
 51
90.0
 52
90.0
 71
     2
 49
0.5
 62
   256
  6
BYLAYER
 49
-0.5
 62
   256
  6
BYLAYER
  0
ACDBPLACEHOLDER
  5
11752
102
{ACAD_REACTORS
330
11751
102
}
330
11751
  0
XRECORD
  5
35B7F
102
{ACAD_REACTORS
330
35B7D
102
}
330
35B7D
100
AcDbXrecord
280
     1
340
11754
  0
XRECORD
  5
35B7E
102
{ACAD_REACTORS
330
35B7D
102
}
330
35B7D
100
AcDbXrecord
280
     1
340
11753
  0
DICTIONARYVAR
  5
35B7A
102
{ACAD_REACTORS
330
35B79
102
}
330
35B79
100
DictionaryVariables
280
     0
  1
1
  0
DICTIONARYVAR
  5
35B7B
102
{ACAD_REACTORS
330
35B79
102
}
330
35B79
100
DictionaryVariables
280
     0
  1

  0
DICTIONARY
  5
35B80
330
11757
100
AcDbDictionary
280
     1
281
     1
  3
ACAD_XREC_ROUNDTRIP
360
35B81
  0
DICTIONARY
  5
35B82
330
11758
100
AcDbDictionary
280
     1
281
     1
  3
ACAD_XREC_ROUNDTRIP
360
35B83
  0
XRECORD
  5
35B81
102
{ACAD_REACTORS
330
35B80
102
}
330
35B80
100
AcDbXrecord
280
     1
102
SHADEPLOT
 70
     0
102
SHADEPLOTRESLEVEL
 70
     2
102
SHADEPLOTCUSTOMDPI
 70
   300
  0
XRECORD
  5
35B83
102
{ACAD_REACTORS
330
35B82
102
}
330
35B82
100
AcDbXrecord
280
     1
102
SHADEPLOT
 70
     0
102
SHADEPLOTRESLEVEL
 70
     2
102
SHADEPLOTCUSTOMDPI
 70
   300
  0
ENDSEC
  0
EOF
