  0
SECTION
  2
HEADER
  9
$ACADVER
  1
AC1015
  9
$ACADMAINTVER
 70
    20
  9
$DWGCODEPAGE
  3
ANSI_932
  9
$INSBASE
 10
0.0
 20
0.0
 30
0.0
  9
$EXTMIN
 10
104.3976124660112
 20
-0.2944307197831222
 30
-0.000000000001326
  9
$EXTMAX
 10
12231.24392539175
 20
8557.46571180167
 30
0.0000000000013177
  9
$LIMMIN
 10
0.0
 20
0.0
  9
$LIMMAX
 10
12600.0
 20
8910.0
  9
$ORTHOMODE
 70
     0
  9
$REGENMODE
 70
     1
  9
$FILLMODE
 70
     1
  9
$QTEXTMODE
 70
     0
  9
$MIRRTEXT
 70
     1
  9
$LTSCALE
 40
7.0
  9
$ATTMODE
 70
     1
  9
$TEXTSIZE
 40
100.0
  9
$TRACEWID
 40
1.0
  9
$TEXTSTYLE
  7
STYLE3
  9
$CLAYER
  8
部品1
  9
$CELTYPE
  6
BYLAYER
  9
$CECOLOR
 62
   256
  9
$CELTSCALE
 40
50.0
  9
$DISPSILH
 70
     0
  9
$DIMSCALE
 40
30.0
  9
$DIMASZ
 40
2.5
  9
$DIMEXO
 40
0.5
  9
$DIMDLI
 40
7.0
  9
$DIMRND
 40
0.0
  9
$DIMDLE
 40
0.0
  9
$DIMEXE
 40
1.5
  9
$DIMTP
 40
0.0
  9
$DIMTM
 40
0.0
  9
$DIMTXT
 40
3.0
  9
$DIMCEN
 40
0.0
  9
$DIMTSZ
 40
0.0
  9
$DIMTOL
 70
     0
  9
$DIMLIM
 70
     0
  9
$DIMTIH
 70
     1
  9
$DIMTOH
 70
     1
  9
$DIMSE1
 70
     0
  9
$DIMSE2
 70
     0
  9
$DIMTAD
 70
     3
  9
$DIMZIN
 70
     8
  9
$DIMBLK
  1

  9
$DIMASO
 70
     1
  9
$DIMSHO
 70
     1
  9
$DIMPOST
  1

  9
$DIMAPOST
  1

  9
$DIMALT
 70
     0
  9
$DIMALTD
 70
     2
  9
$DIMALTF
 40
0.0394
  9
$DIMLFAC
 40
1.0
  9
$DIMTOFL
 70
     1
  9
$DIMTVP
 40
0.0
  9
$DIMTIX
 70
     1
  9
$DIMSOXD
 70
     1
  9
$DIMSAH
 70
     1
  9
$DIMBLK1
  1
DOTSMALL
  9
$DIMBLK2
  1
DOTSMALL
  9
$DIMSTYLE
  2
INABA_S30G
  9
$DIMCLRD
 70
     0
  9
$DIMCLRE
 70
     0
  9
$DIMCLRT
 70
     7
  9
$DIMTFAC
 40
1.0
  9
$DIMGAP
 40
1.0
  9
$DIMJUST
 70
     0
  9
$DIMSD1
 70
     0
  9
$DIMSD2
 70
     0
  9
$DIMTOLJ
 70
     1
  9
$DIMTZIN
 70
     0
  9
$DIMALTZ
 70
     0
  9
$DIMALTTZ
 70
     0
  9
$DIMUPT
 70
     0
  9
$DIMDEC
 70
     1
  9
$DIMTDEC
 70
     1
  9
$DIMALTU
 70
     2
  9
$DIMALTTD
 70
     2
  9
$DIMTXSTY
  7
STYLE1
  9
$DIMAUNIT
 70
     0
  9
$DIMADEC
 70
     0
  9
$DIMALTRND
 40
0.0
  9
$DIMAZIN
 70
     0
  9
$DIMDSEP
 70
    46
  9
$DIMATFIT
 70
     3
  9
$DIMFRAC
 70
     0
  9
$DIMLDRBLK
  1

  9
$DIMLUNIT
 70
     2
  9
$DIMLWD
 70
    -2
  9
$DIMLWE
 70
    -2
  9
$DIMTMOVE
 70
     0
  9
$LUNITS
 70
     2
  9
$LUPREC
 70
     1
  9
$SKETCHINC
 40
1.0
  9
$FILLETRAD
 40
5.0
  9
$AUNITS
 70
     0
  9
$AUPREC
 70
     0
  9
$MENU
  1
acad
  9
$ELEVATION
 40
0.0
  9
$PELEVATION
 40
0.0
  9
$THICKNESS
 40
0.0
  9
$LIMCHECK
 70
     0
  9
$CHAMFERA
 40
0.0
  9
$CHAMFERB
 40
0.0
  9
$CHAMFERC
 40
0.0
  9
$CHAMFERD
 40
0.0
  9
$SKPOLY
 70
     0
  9
$TDCREATE
 40
2451074.411873148
  9
$TDUCREATE
 40
2451074.036873148
  9
$TDUPDATE
 40
2456560.836007442
  9
$TDUUPDATE
 40
2456560.461007442
  9
$TDINDWG
 40
0.3601955671
  9
$TDUSRTIMER
 40
0.3601955671
  9
$USRTIMER
 70
     1
  9
$ANGBASE
 50
0.0
  9
$ANGDIR
 70
     0
  9
$PDMODE
 70
     3
  9
$PDSIZE
 40
2.0
  9
$PLINEWID
 40
0.0
  9
$SPLFRAME
 70
     0
  9
$SPLINETYPE
 70
     6
  9
$SPLINESEGS
 70
     8
  9
$HANDSEED
  5
15AF5
  9
$SURFTAB1
 70
     6
  9
$SURFTAB2
 70
     6
  9
$SURFTYPE
 70
     6
  9
$SURFU
 70
     6
  9
$SURFV
 70
     6
  9
$UCSBASE
  2

  9
$UCSNAME
  2

  9
$UCSORG
 10
0.0
 20
0.0
 30
0.0
  9
$UCSXDIR
 10
1.0
 20
0.0
 30
0.0
  9
$UCSYDIR
 10
0.0
 20
1.0
 30
0.0
  9
$UCSORTHOREF
  2

  9
$UCSORTHOVIEW
 70
     0
  9
$UCSORGTOP
 10
0.0
 20
0.0
 30
0.0
  9
$UCSORGBOTTOM
 10
0.0
 20
0.0
 30
0.0
  9
$UCSORGLEFT
 10
0.0
 20
0.0
 30
0.0
  9
$UCSORGRIGHT
 10
0.0
 20
0.0
 30
0.0
  9
$UCSORGFRONT
 10
0.0
 20
0.0
 30
0.0
  9
$UCSORGBACK
 10
0.0
 20
0.0
 30
0.0
  9
$PUCSBASE
  2

  9
$PUCSNAME
  2

  9
$PUCSORG
 10
0.0
 20
0.0
 30
0.0
  9
$PUCSXDIR
 10
1.0
 20
0.0
 30
0.0
  9
$PUCSYDIR
 10
0.0
 20
1.0
 30
0.0
  9
$PUCSORTHOREF
  2

  9
$PUCSORTHOVIEW
 70
     0
  9
$PUCSORGTOP
 10
0.0
 20
0.0
 30
0.0
  9
$PUCSORGBOTTOM
 10
0.0
 20
0.0
 30
0.0
  9
$PUCSORGLEFT
 10
0.0
 20
0.0
 30
0.0
  9
$PUCSORGRIGHT
 10
0.0
 20
0.0
 30
0.0
  9
$PUCSORGFRONT
 10
0.0
 20
0.0
 30
0.0
  9
$PUCSORGBACK
 10
0.0
 20
0.0
 30
0.0
  9
$USERI1
 70
     0
  9
$USERI2
 70
     0
  9
$USERI3
 70
     0
  9
$USERI4
 70
     0
  9
$USERI5
 70
     0
  9
$USERR1
 40
0.0
  9
$USERR2
 40
0.0
  9
$USERR3
 40
0.0
  9
$USERR4
 40
0.0
  9
$USERR5
 40
0.0
  9
$WORLDVIEW
 70
     1
  9
$SHADEDGE
 70
     3
  9
$SHADEDIF
 70
    70
  9
$TILEMODE
 70
     1
  9
$MAXACTVP
 70
    16
  9
$PINSBASE
 10
0.0
 20
0.0
 30
0.0
  9
$PLIMCHECK
 70
     0
  9
$PEXTMIN
 10
1.000000000000000E+20
 20
1.000000000000000E+20
 30
1.000000000000000E+20
  9
$PEXTMAX
 10
-1.000000000000000E+20
 20
-1.000000000000000E+20
 30
-1.000000000000000E+20
  9
$PLIMMIN
 10
0.0
 20
0.0
  9
$PLIMMAX
 10
420.0
 20
297.0
  9
$UNITMODE
 70
     0
  9
$VISRETAIN
 70
     0
  9
$PLINEGEN
 70
     0
  9
$PSLTSCALE
 70
     0
  9
$TREEDEPTH
 70
  3020
  9
$CMLSTYLE
  2
STANDARD
  9
$CMLJUST
 70
     0
  9
$CMLSCALE
 40
1.0
  9
$PROXYGRAPHICS
 70
     1
  9
$MEASUREMENT
 70
     1
  9
$CELWEIGHT
370
    -1
  9
$ENDCAPS
280
     0
  9
$JOINSTYLE
280
     0
  9
$LWDISPLAY
290
     0
  9
$INSUNITS
 70
     0
  9
$HYPERLINKBASE
  1

  9
$STYLESHEET
  1
inaba.ctb
  9
$XEDIT
290
     1
  9
$CEPSNTYPE
380
     0
  9
$PSTYLEMODE
290
     1
  9
$FINGERPRINTGUID
  2
{696AEDA2-CF37-4C16-A548-8F3E259D4281}
  9
$VERSIONGUID
  2
{E9D60EFF-9421-41CD-89AC-E8BC866FA27B}
  9
$EXTNAMES
290
     1
  9
$PSVPSCALE
 40
0.0
  9
$OLESTARTUP
290
     0
  0
ENDSEC
  0
SECTION
  2
CLASSES
  0
CLASS
  1
ACDBDICTIONARYWDFLT
  2
AcDbDictionaryWithDefault
  3
ObjectDBX Classes
 90
        0
280
     0
281
     0
  0
CLASS
  1
DICTIONARYVAR
  2
AcDbDictionaryVar
  3
ObjectDBX Classes
 90
        0
280
     0
281
     0
  0
CLASS
  1
MATERIAL
  2
AcDbMaterial
  3
ObjectDBX Classes
 90
     1153
280
     0
281
     0
  0
CLASS
  1
VISUALSTYLE
  2
AcDbVisualStyle
  3
ObjectDBX Classes
 90
     4095
280
     0
281
     0
  0
CLASS
  1
TABLESTYLE
  2
AcDbTableStyle
  3
ObjectDBX Classes
 90
     4095
280
     0
281
     0
  0
CLASS
  1
SCALE
  2
AcDbScale
  3
ObjectDBX Classes
 90
     1153
280
     0
281
     0
  0
CLASS
  1
MLEADERSTYLE
  2
AcDbMLeaderStyle
  3
ACDB_MLEADERSTYLE_CLASS
 90
     4095
280
     0
281
     0
  0
CLASS
  1
ACDBSECTIONVIEWSTYLE
  2
AcDbSectionViewStyle
  3
ObjectDBX Classes
 90
     1025
280
     0
281
     0
  0
CLASS
  1
ACDBDETAILVIEWSTYLE
  2
AcDbDetailViewStyle
  3
ObjectDBX Classes
 90
     1025
280
     0
281
     0
  0
CLASS
  1
EXACXREFPANELOBJECT
  2
ExAcXREFPanelObject
  3
EXAC_ESW
 90
    33793
280
     0
281
     0
  0
CLASS
  1
NPOCOLLECTION
  2
AcDbImpNonPersistentObjectsCollection
  3
ObjectDBX Classes
 90
    33921
280
     0
281
     0
  0
CLASS
  1
SORTENTSTABLE
  2
AcDbSortentsTable
  3
ObjectDBX Classes
 90
        0
280
     0
281
     0
  0
CLASS
  1
CELLSTYLEMAP
  2
AcDbCellStyleMap
  3
ObjectDBX Classes
 90
     1152
280
     0
281
     0
  0
CLASS
  1
ACDBPLACEHOLDER
  2
AcDbPlaceHolder
  3
ObjectDBX Classes
 90
        0
280
     0
281
     0
  0
CLASS
  1
LAYOUT
  2
AcDbLayout
  3
ObjectDBX Classes
 90
        0
280
     0
281
     0
  0
ENDSEC
  0
SECTION
  2
TABLES
  0
TABLE
  2
VPORT
  5
746D
102
{ACAD_XDICTIONARY
360
15A02
102
}
330
0
100
AcDbSymbolTable
 70
     1
  0
VPORT
  5
13D53
330
746D
100
AcDbSymbolTableRecord
100
AcDbViewportTableRecord
  2
*Active
 70
     0
 10
0.0
 20
0.0
 11
1.0
 21
1.0
 12
6167.820768928882
 22
4278.585640540943
 13
0.0
 23
0.0
 14
10.0
 24
10.0
 15
10.0
 25
10.0
 16
0.0
 26
0.0
 36
1.0
 17
0.0
 27
0.0
 37
0.0
 40
8769.005392911132
 41
1.390896921017402
 42
50.0
 43
0.0
 44
0.0
 50
0.0
 51
0.0
 71
     0
 72
     0
 73
     1
 74
     0
 75
     0
 76
     0
 77
     0
 78
     0
281
     0
 65
     1
110
0.0
120
0.0
130
0.0
111
1.0
121
0.0
131
0.0
112
0.0
122
1.0
132
0.0
 79
     0
146
0.0
1001
ACAD_NAV_VCDISPLAY
1070
     3
  0
ENDTAB
  0
TABLE
  2
LTYPE
  5
746A
330
0
100
AcDbSymbolTable
 70
     3
  0
LTYPE
  5
7477
330
746A
100
AcDbSymbolTableRecord
100
AcDbLinetypeTableRecord
  2
BYBLOCK
 70
     0
  3

 72
    65
 73
     0
 40
0.0
  0
LTYPE
  5
7478
330
746A
100
AcDbSymbolTableRecord
100
AcDbLinetypeTableRecord
  2
BYLAYER
 70
     0
  3

 72
    65
 73
     0
 40
0.0
  0
LTYPE
  5
7479
330
746A
100
AcDbSymbolTableRecord
100
AcDbLinetypeTableRecord
  2
CONTINUOUS
 70
     0
  3
Solid line
 72
    65
 73
     0
 40
0.0
  0
LTYPE
  5
781B
330
746A
100
AcDbSymbolTableRecord
100
AcDbLinetypeTableRecord
  2
PHANTOM
 70
     0
  3
______  __  __  ______  __  __  ______  __  __ 
 72
    65
 73
     6
 40
2.5
 49
1.25
 74
     0
 49
-0.25
 74
     0
 49
0.25
 74
     0
 49
-0.25
 74
     0
 49
0.25
 74
     0
 49
-0.25
 74
     0
  0
LTYPE
  5
13571
330
746A
100
AcDbSymbolTableRecord
100
AcDbLinetypeTableRecord
  2
CENTER
 70
     0
  3
Center ____ _ ____ _ ____ _ ____ _ ____ _ ____
 72
    65
 73
     4
 40
50.8
 49
31.75
 74
     0
 49
-6.349999999999999
 74
     0
 49
6.349999999999999
 74
     0
 49
-6.349999999999999
 74
     0
  0
ENDTAB
  0
TABLE
  2
LAYER
  5
7467
102
{ACAD_XDICTIONARY
360
13451
102
}
330
0
100
AcDbSymbolTable
 70
    13
  0
LAYER
  5
7474
102
{ACAD_XDICTIONARY
360
158DB
102
}
330
7467
100
AcDbSymbolTableRecord
100
AcDbLayerTableRecord
  2
0
 70
     0
 62
     7
  6
CONTINUOUS
370
    -3
390
1341B
  0
LAYER
  5
DEB3
102
{ACAD_XDICTIONARY
360
158DD
102
}
330
7467
100
AcDbSymbolTableRecord
100
AcDbLayerTableRecord
  2
寸法
 70
     0
 62
     4
  6
CONTINUOUS
370
    -3
390
1341B
  0
LAYER
  5
DEB4
102
{ACAD_XDICTIONARY
360
158DF
102
}
330
7467
100
AcDbSymbolTableRecord
100
AcDbLayerTableRecord
  2
部品1
 70
     0
 62
     7
  6
CONTINUOUS
370
    -3
390
1341B
  0
LAYER
  5
DEB5
102
{ACAD_XDICTIONARY
360
158E1
102
}
330
7467
100
AcDbSymbolTableRecord
100
AcDbLayerTableRecord
  2
補助
 70
     0
 62
    -1
  6
CONTINUOUS
370
    -3
390
1341B
  0
LAYER
  5
DEB6
102
{ACAD_XDICTIONARY
360
158E3
102
}
330
7467
100
AcDbSymbolTableRecord
100
AcDbLayerTableRecord
  2
文字
 70
     0
 62
     7
  6
CONTINUOUS
370
    -3
390
1341B
  0
LAYER
  5
F255
330
7467
100
AcDbSymbolTableRecord
100
AcDbLayerTableRecord
  2
DEFPOINTS
 70
     0
 62
     7
  6
CONTINUOUS
290
     0
370
    -3
390
1341B
  0
LAYER
  5
10B54
102
{ACAD_XDICTIONARY
360
158E5
102
}
330
7467
100
AcDbSymbolTableRecord
100
AcDbLayerTableRecord
  2
仕様書枠
 70
     0
 62
   230
  6
CONTINUOUS
370
    -3
390
1341B
  0
LAYER
  5
11729
102
{ACAD_XDICTIONARY
360
158E7
102
}
330
7467
100
AcDbSymbolTableRecord
100
AcDbLayerTableRecord
  2
Ｇ．Ｌ
 70
     0
 62
    30
  6
CONTINUOUS
370
    -3
390
1341B
  0
LAYER
  5
1173F
102
{ACAD_XDICTIONARY
360
158E9
102
}
330
7467
100
AcDbSymbolTableRecord
100
AcDbLayerTableRecord
  2
細線
 70
     0
 62
     5
  6
CONTINUOUS
370
    -3
390
1341B
  0
LAYER
  5
1356E
102
{ACAD_XDICTIONARY
360
158ED
102
}
330
7467
100
AcDbSymbolTableRecord
100
AcDbLayerTableRecord
  2
センター
 70
     0
 62
     3
  6
CENTER
370
    -3
390
1341B
  0
LAYER
  5
135FB
102
{ACAD_XDICTIONARY
360
158EF
102
}
330
7467
100
AcDbSymbolTableRecord
100
AcDbLayerTableRecord
  2
想像線
 70
     0
 62
     6
  6
PHANTOM
370
    -3
390
1341B
  0
LAYER
  5
13810
102
{ACAD_XDICTIONARY
360
158F1
102
}
330
7467
100
AcDbSymbolTableRecord
100
AcDbLayerTableRecord
  2
U7
 70
     0
 62
     2
  6
CONTINUOUS
370
    -3
390
1341B
  0
LAYER
  5
13811
102
{ACAD_XDICTIONARY
360
158F3
102
}
330
7467
100
AcDbSymbolTableRecord
100
AcDbLayerTableRecord
  2
KIN-T
 70
     0
 62
     3
  6
CONTINUOUS
370
    -3
390
1341B
  0
ENDTAB
  0
TABLE
  2
STYLE
  5
7468
330
0
100
AcDbSymbolTable
 70
     6
  0
STYLE
  5
7475
330
7468
100
AcDbSymbolTableRecord
100
AcDbTextStyleTableRecord
  2
STANDARD
 70
     0
 40
0.0
 41
1.0
 50
0.0
 71
     0
 42
4.0
  3
txt
  4
C:\AutoCAD LT\bigfont.shx
  0
STYLE
  5
763C
330
7468
100
AcDbSymbolTableRecord
100
AcDbTextStyleTableRecord
  2
MSMINCHO
 70
     0
 40
0.0
 41
1.0
 50
0.0
 71
     0
 42
1.199999999999999
  3
C:\AutoCAD LT\msminch2.TTF
  4

  0
STYLE
  5
F706
330
7468
100
AcDbSymbolTableRecord
100
AcDbTextStyleTableRecord
  2
STYLE1
 70
     0
 40
0.0
 41
1.0
 50
0.0
 71
     0
 42
4.0
  3
isocp.shx
  4
bigfont.shx
  0
STYLE
  5
103BF
330
7468
100
AcDbSymbolTableRecord
100
AcDbTextStyleTableRecord
  2
STYLE2
 70
     0
 40
0.0
 41
1.0
 50
0.0
 71
     0
 42
100.0
  3

  4

1001
ACAD
1000
MS PGothic
1071
    32818
  0
STYLE
  5
10BAA
330
7468
100
AcDbSymbolTableRecord
100
AcDbTextStyleTableRecord
  2
STYLE3
 70
     0
 40
0.0
 41
1.0
 50
0.0
 71
     0
 42
100.0
  3

  4

1001
ACAD
1000
MS PGothic
1071
    32818
  0
ENDTAB
  0
TABLE
  2
VIEW
  5
746B
330
0
100
AcDbSymbolTable
 70
     0
  0
ENDTAB
  0
TABLE
  2
UCS
  5
746C
330
0
100
AcDbSymbolTable
 70
     0
  0
ENDTAB
  0
TABLE
  2
APPID
  5
746E
330
0
100
AcDbSymbolTable
 70
    12
  0
APPID
  5
7476
330
746E
100
AcDbSymbolTableRecord
100
AcDbRegAppTableRecord
  2
ACAD
 70
     0
  0
APPID
  5
DEA9
330
746E
100
AcDbSymbolTableRecord
100
AcDbRegAppTableRecord
  2
CONTENTBLOCKICON
 70
     0
  0
APPID
  5
DEAA
330
746E
100
AcDbSymbolTableRecord
100
AcDbRegAppTableRecord
  2
CONTENTBLOCKDESCRIPTION
 70
     0
  0
APPID
  5
E71D
330
746E
100
AcDbSymbolTableRecord
100
AcDbRegAppTableRecord
  2
CONTENTTABDATA
 70
     0
  0
APPID
  5
E71E
330
746E
100
AcDbSymbolTableRecord
100
AcDbRegAppTableRecord
  2
CONTENTCURRENTTAB
 70
     0
  0
APPID
  5
F3BA
330
746E
100
AcDbSymbolTableRecord
100
AcDbRegAppTableRecord
  2
DRAWINGVARIABLESXDATA
 70
     0
  0
APPID
  5
14266
330
746E
100
AcDbSymbolTableRecord
100
AcDbRegAppTableRecord
  2
ACAD_NAV_VCDISPLAY
 70
     0
  0
APPID
  5
14267
330
746E
100
AcDbSymbolTableRecord
100
AcDbRegAppTableRecord
  2
GradientColor1ACI
 70
     0
  0
APPID
  5
14268
330
746E
100
AcDbSymbolTableRecord
100
AcDbRegAppTableRecord
  2
GradientColor2ACI
 70
     0
  0
APPID
  5
15238
330
746E
100
AcDbSymbolTableRecord
100
AcDbRegAppTableRecord
  2
AcadAnnoMonitorAlertIconDisabled
 70
     0
  0
APPID
  5
15239
330
746E
100
AcDbSymbolTableRecord
100
AcDbRegAppTableRecord
  2
ACAD_EXEMPT_FROM_CAD_STANDARDS
 70
     0
  0
APPID
  5
15A3C
330
746E
100
AcDbSymbolTableRecord
100
AcDbRegAppTableRecord
  2
ACAD_MLEADERVER
 70
     0
  0
ENDTAB
  0
TABLE
  2
DIMSTYLE
  5
746F
330
0
100
AcDbSymbolTable
 70
     2
100
AcDbDimStyleTable
 71
     1
340
F71F
  0
DIMSTYLE
105
F71F
102
{ACAD_REACTORS
330
14690
330
14691
330
14692
330
14693
330
14694
330
14695
330
14696
330
14697
330
14698
330
148BB
330
148BC
330
148BD
330
148C1
330
148C2
330
148C3
330
148C7
330
148C8
330
148C9
330
148CA
330
148CB
330
148CC
330
148CD
330
148CE
330
148CF
330
148D0
330
148D1
330
148D2
330
148D3
330
148D4
330
1528C
330
153B2
330
15299
102
}
330
746F
100
AcDbSymbolTableRecord
100
AcDbDimStyleTableRecord
  2
INABA_S30G
 70
     0
 40
30.0
 41
2.5
 42
0.5
 43
7.0
 44
1.5
 73
     0
 74
     0
 77
     3
 78
     8
140
3.0
141
0.0
143
0.0394
147
1.0
172
     1
173
     1
174
     1
175
     1
178
     7
271
     1
340
F706
341
F770
343
F770
344
F770
  0
ENDTAB
  0
TABLE
  2
BLOCK_RECORD
  5
7466
330
0
100
AcDbSymbolTable
 70
    35
  0
BLOCK_RECORD
  5
747D
102
{ACAD_XDICTIONARY
360
153DF
102
}
330
7466
100
AcDbSymbolTableRecord
100
AcDbBlockTableRecord
  2
*MODEL_SPACE
340
13420
  0
BLOCK_RECORD
  5
747A
330
7466
100
AcDbSymbolTableRecord
100
AcDbBlockTableRecord
  2
*PAPER_SPACE
340
13421
  0
BLOCK_RECORD
  5
F770
330
7466
100
AcDbSymbolTableRecord
100
AcDbBlockTableRecord
  2
_DOTSMALL
340
0
102
{BLKREFS
331
157BF
331
157C0
331
157C9
331
157CA
331
157D2
331
157D3
331
157DB
331
157DC
331
157E4
331
157E5
331
157ED
331
157EE
331
157F6
331
157F7
331
15801
331
15802
331
1580C
331
1580D
331
1582D
331
1582E
331
15836
331
15837
331
15840
331
15841
331
15849
331
1584A
331
15852
331
15853
331
1585B
331
1585C
331
15864
331
15865
331
1586D
331
1586E
331
15876
331
15877
331
1587F
331
15880
331
15888
331
15889
331
15891
331
15892
331
1589A
331
1589B
331
158A3
331
158A4
331
158AC
331
158AD
331
158B5
331
158B6
331
158BE
331
158BF
331
158C7
331
158C8
331
158CF
331
158D6
331
15950
331
15951
102
}
  0
BLOCK_RECORD
  5
135E3
330
7466
100
AcDbSymbolTableRecord
100
AcDbBlockTableRecord
  2
_None
340
0
  0
BLOCK_RECORD
  5
14929
330
7466
100
AcDbSymbolTableRecord
100
AcDbBlockTableRecord
  2
*D2
340
0
  0
BLOCK_RECORD
  5
14936
330
7466
100
AcDbSymbolTableRecord
100
AcDbBlockTableRecord
  2
*D3
340
0
  0
BLOCK_RECORD
  5
14943
330
7466
100
AcDbSymbolTableRecord
100
AcDbBlockTableRecord
  2
*D4
340
0
  0
BLOCK_RECORD
  5
1494F
330
7466
100
AcDbSymbolTableRecord
100
AcDbBlockTableRecord
  2
*D5
340
0
  0
BLOCK_RECORD
  5
1495B
330
7466
100
AcDbSymbolTableRecord
100
AcDbBlockTableRecord
  2
*D6
340
0
  0
BLOCK_RECORD
  5
14967
330
7466
100
AcDbSymbolTableRecord
100
AcDbBlockTableRecord
  2
*D7
340
0
  0
BLOCK_RECORD
  5
14973
330
7466
100
AcDbSymbolTableRecord
100
AcDbBlockTableRecord
  2
*D8
340
0
  0
BLOCK_RECORD
  5
1497F
330
7466
100
AcDbSymbolTableRecord
100
AcDbBlockTableRecord
  2
*D9
340
0
  0
BLOCK_RECORD
  5
1498D
330
7466
100
AcDbSymbolTableRecord
100
AcDbBlockTableRecord
  2
*D10
340
0
  0
BLOCK_RECORD
  5
14C04
330
7466
100
AcDbSymbolTableRecord
100
AcDbBlockTableRecord
  2
*D11
340
0
  0
BLOCK_RECORD
  5
14C0E
330
7466
100
AcDbSymbolTableRecord
100
AcDbBlockTableRecord
  2
*D12
340
0
  0
BLOCK_RECORD
  5
14C18
330
7466
100
AcDbSymbolTableRecord
100
AcDbBlockTableRecord
  2
*D13
340
0
  0
BLOCK_RECORD
  5
14C44
330
7466
100
AcDbSymbolTableRecord
100
AcDbBlockTableRecord
  2
*D14
340
0
  0
BLOCK_RECORD
  5
14C51
330
7466
100
AcDbSymbolTableRecord
100
AcDbBlockTableRecord
  2
*D15
340
0
  0
BLOCK_RECORD
  5
14C5D
330
7466
100
AcDbSymbolTableRecord
100
AcDbBlockTableRecord
  2
*D16
340
0
  0
BLOCK_RECORD
  5
14C90
330
7466
100
AcDbSymbolTableRecord
100
AcDbBlockTableRecord
  2
*D17
340
0
  0
BLOCK_RECORD
  5
14C9C
330
7466
100
AcDbSymbolTableRecord
100
AcDbBlockTableRecord
  2
*D18
340
0
  0
BLOCK_RECORD
  5
14CA8
330
7466
100
AcDbSymbolTableRecord
100
AcDbBlockTableRecord
  2
*D19
340
0
  0
BLOCK_RECORD
  5
14CB4
330
7466
100
AcDbSymbolTableRecord
100
AcDbBlockTableRecord
  2
*D20
340
0
  0
BLOCK_RECORD
  5
14CC0
330
7466
100
AcDbSymbolTableRecord
100
AcDbBlockTableRecord
  2
*D21
340
0
  0
BLOCK_RECORD
  5
14CCC
330
7466
100
AcDbSymbolTableRecord
100
AcDbBlockTableRecord
  2
*D22
340
0
  0
BLOCK_RECORD
  5
14CD8
330
7466
100
AcDbSymbolTableRecord
100
AcDbBlockTableRecord
  2
*D23
340
0
  0
BLOCK_RECORD
  5
14CE4
330
7466
100
AcDbSymbolTableRecord
100
AcDbBlockTableRecord
  2
*D24
340
0
  0
BLOCK_RECORD
  5
14CF0
330
7466
100
AcDbSymbolTableRecord
100
AcDbBlockTableRecord
  2
*D25
340
0
  0
BLOCK_RECORD
  5
14CFC
330
7466
100
AcDbSymbolTableRecord
100
AcDbBlockTableRecord
  2
*D26
340
0
  0
BLOCK_RECORD
  5
14D08
330
7466
100
AcDbSymbolTableRecord
100
AcDbBlockTableRecord
  2
*D27
340
0
  0
BLOCK_RECORD
  5
14D14
330
7466
100
AcDbSymbolTableRecord
100
AcDbBlockTableRecord
  2
*D28
340
0
  0
BLOCK_RECORD
  5
14D20
330
7466
100
AcDbSymbolTableRecord
100
AcDbBlockTableRecord
  2
*D29
340
0
  0
BLOCK_RECORD
  5
14D2C
330
7466
100
AcDbSymbolTableRecord
100
AcDbBlockTableRecord
  2
*D30
340
0
  0
BLOCK_RECORD
  5
1528D
330
7466
100
AcDbSymbolTableRecord
100
AcDbBlockTableRecord
  2
*D31
340
0
  0
BLOCK_RECORD
  5
1529A
330
7466
100
AcDbSymbolTableRecord
100
AcDbBlockTableRecord
  2
*D32
340
0
  0
BLOCK_RECORD
  5
153B3
330
7466
100
AcDbSymbolTableRecord
100
AcDbBlockTableRecord
  2
*D33
340
0
  0
ENDTAB
  0
ENDSEC
  0
SECTION
  2
BLOCKS
  0
BLOCK
  5
7489
330
747D
100
AcDbEntity
  8
0
100
AcDbBlockBegin
  2
*MODEL_SPACE
 70
     0
 10
0.0
 20
0.0
 30
0.0
  3
*MODEL_SPACE
  1

  0
ENDBLK
  5
748A
330
747D
100
AcDbEntity
  8
0
100
AcDbBlockEnd
  0
BLOCK
  5
7487
330
747A
100
AcDbEntity
 67
     1
  8
0
100
AcDbBlockBegin
  2
*PAPER_SPACE
 70
     0
 10
0.0
 20
0.0
 30
0.0
  3
*PAPER_SPACE
  1

  0
ENDBLK
  5
7488
330
747A
100
AcDbEntity
 67
     1
  8
0
100
AcDbBlockEnd
  0
BLOCK
  5
F771
330
F770
100
AcDbEntity
  8
0
 48
50.0
100
AcDbBlockBegin
  2
_DOTSMALL
 70
     0
 10
0.0
 20
0.0
 30
0.0
  3
_DOTSMALL
  1

  0
LWPOLYLINE
  5
F772
330
F770
100
AcDbEntity
  8
0
  6
ByBlock
 62
     0
 48
50.0
100
AcDbPolyline
 90
        2
 70
     1
 43
0.5
 10
-0.0625
 20
0.0
 42
1.0
 10
0.0625
 20
0.0
 42
1.0
  0
ENDBLK
  5
F776
330
F770
100
AcDbEntity
  8
0
 48
50.0
100
AcDbBlockEnd
  0
BLOCK
  5
135E4
330
135E3
100
AcDbEntity
  8
0
 48
50.0
100
AcDbBlockBegin
  2
_None
 70
     0
 10
0.0
 20
0.0
 30
0.0
  3
_None
  1

  0
ENDBLK
  5
135E5
330
135E3
100
AcDbEntity
  8
0
 48
50.0
100
AcDbBlockEnd
  0
BLOCK
  5
1492A
330
14929
100
AcDbEntity
  8
0
 48
50.0
100
AcDbBlockBegin
  2
*D2
 70
     1
 10
0.0
 20
0.0
 30
0.0
  3
*D2
  1

  0
LINE
  5
157BB
330
14929
100
AcDbEntity
  8
寸法
 62
     0
 48
50.0
370
    -2
100
AcDbLine
 10
8429.013719272013
 20
4138.001474330031
 30
0.0
 11
8248.432592170111
 21
4138.001474330031
 31
0.0
  0
LINE
  5
157BC
330
14929
100
AcDbEntity
  8
寸法
 62
     0
 48
50.0
370
    -2
100
AcDbLine
 10
8429.013719272013
 20
4238.00147433003
 30
0.0
 11
8248.432592170111
 21
4238.00147433003
 31
0.0
  0
LINE
  5
157BD
330
14929
100
AcDbEntity
  8
寸法
 62
     0
 48
50.0
370
    -2
100
AcDbLine
 10
8293.432592170111
 20
4138.001474330031
 30
0.0
 11
8293.432592170111
 21
4238.00147433003
 31
0.0
  0
LINE
  5
157BE
330
14929
100
AcDbEntity
  8
寸法
 62
     0
 48
50.0
370
    -2
100
AcDbLine
 10
8293.432592170111
 20
4238.00147433003
 30
0.0
 11
8293.432592170111
 21
4517.072340471805
 31
0.0
  0
INSERT
  5
157BF
330
14929
100
AcDbEntity
  8
寸法
 62
     0
 48
50.0
370
    -2
100
AcDbBlockReference
  2
_DOTSMALL
 10
8293.432592170111
 20
4138.001474330031
 30
0.0
 41
75.0
 42
75.0
 43
75.0
 50
270.0
  0
INSERT
  5
157C0
330
14929
100
AcDbEntity
  8
寸法
 62
     0
 48
50.0
370
    -2
100
AcDbBlockReference
  2
_DOTSMALL
 10
8293.432592170111
 20
4238.00147433003
 30
0.0
 41
75.0
 42
75.0
 43
75.0
 50
90.0
  0
MTEXT
  5
157C1
330
14929
100
AcDbEntity
  8
寸法
 62
     7
 48
50.0
100
AcDbMText
 10
8218.432592170108
 20
4415.036907400939
 30
0.0
 40
90.0
 41
0.0
 71
     5
 72
     1
  1
\A1;100
  7
STYLE1
 11
0.0000000000000001
 21
1.0
 31
0.0
 73
     1
 44
1.0
1001
ACAD
1000
MTEXTBEGIN
1070
    73
1070
     1
1070
    44
1040
1.0
1070
    74
1070
     0
1000
MTEXTEND
  0
POINT
  5
157C2
330
14929
100
AcDbEntity
  8
DEFPOINTS
 62
     0
 48
50.0
100
AcDbPoint
 10
8444.013719272014
 20
4138.001474330031
 30
0.0
  0
POINT
  5
157C3
330
14929
100
AcDbEntity
  8
DEFPOINTS
 62
     0
 48
50.0
100
AcDbPoint
 10
8444.013719272014
 20
4238.00147433003
 30
0.0
  0
POINT
  5
157C4
330
14929
100
AcDbEntity
  8
DEFPOINTS
 62
     0
 48
50.0
100
AcDbPoint
 10
8293.432592170111
 20
4238.00147433003
 30
0.0
  0
ENDBLK
  5
1492B
330
14929
100
AcDbEntity
  8
0
 48
50.0
100
AcDbBlockEnd
  0
BLOCK
  5
14937
330
14936
100
AcDbEntity
  8
0
 48
50.0
100
AcDbBlockBegin
  2
*D3
 70
     1
 10
0.0
 20
0.0
 30
0.0
  3
*D3
  1

  0
LINE
  5
157C5
330
14936
100
AcDbEntity
  8
寸法
 62
     0
 48
50.0
370
    -2
100
AcDbLine
 10
8429.013719272013
 20
4138.001474330031
 30
0.0
 11
8248.432592170111
 21
4138.001474330031
 31
0.0
  0
LINE
  5
157C6
330
14936
100
AcDbEntity
  8
寸法
 62
     0
 48
50.0
370
    -2
100
AcDbLine
 10
8429.013719272013
 20
4038.00147433003
 30
0.0
 11
8248.432592170109
 21
4038.00147433003
 31
0.0
  0
LINE
  5
157C7
330
14936
100
AcDbEntity
  8
寸法
 62
     0
 48
50.0
370
    -2
100
AcDbLine
 10
8293.432592170111
 20
4138.001474330031
 30
0.0
 11
8293.432592170109
 21
4038.00147433003
 31
0.0
  0
LINE
  5
157C8
330
14936
100
AcDbEntity
  8
寸法
 62
     0
 48
50.0
370
    -2
100
AcDbLine
 10
8293.432592170109
 20
4038.00147433003
 30
0.0
 11
8293.432592170109
 21
3758.930608188298
 31
0.0
  0
INSERT
  5
157C9
330
14936
100
AcDbEntity
  8
寸法
 62
     0
 48
50.0
370
    -2
100
AcDbBlockReference
  2
_DOTSMALL
 10
8293.432592170111
 20
4138.001474330031
 30
0.0
 41
75.0
 42
75.0
 43
75.0
 50
90.0
  0
INSERT
  5
157CA
330
14936
100
AcDbEntity
  8
寸法
 62
     0
 48
50.0
370
    -2
100
AcDbBlockReference
  2
_DOTSMALL
 10
8293.432592170109
 20
4038.00147433003
 30
0.0
 41
75.0
 42
75.0
 43
75.0
 50
270.0
  0
MTEXT
  5
157CB
330
14936
100
AcDbEntity
  8
寸法
 62
     7
 48
50.0
100
AcDbMText
 10
8218.432592170108
 20
3860.966041259166
 30
0.0
 40
90.0
 41
0.0
 71
     5
 72
     1
  1
\A1;100
  7
STYLE1
 11
0.0000000000000001
 21
1.0
 31
0.0
 73
     1
 44
1.0
1001
ACAD
1000
MTEXTBEGIN
1070
    73
1070
     1
1070
    44
1040
1.0
1070
    74
1070
     0
1000
MTEXTEND
  0
POINT
  5
157CC
330
14936
100
AcDbEntity
  8
DEFPOINTS
 62
     0
 48
50.0
100
AcDbPoint
 10
8444.013719272014
 20
4138.001474330031
 30
0.0
  0
POINT
  5
157CD
330
14936
100
AcDbEntity
  8
DEFPOINTS
 62
     0
 48
50.0
100
AcDbPoint
 10
8444.013719272014
 20
4038.00147433003
 30
0.0
  0
POINT
  5
157CE
330
14936
100
AcDbEntity
  8
DEFPOINTS
 62
     0
 48
50.0
100
AcDbPoint
 10
8293.432592170109
 20
4038.00147433003
 30
0.0
  0
ENDBLK
  5
14938
330
14936
100
AcDbEntity
  8
0
 48
50.0
100
AcDbBlockEnd
  0
BLOCK
  5
14944
330
14943
100
AcDbEntity
  8
0
 48
50.0
100
AcDbBlockBegin
  2
*D4
 70
     1
 10
0.0
 20
0.0
 30
0.0
  3
*D4
  1

  0
LINE
  5
157CF
330
14943
100
AcDbEntity
  8
寸法
 62
     0
 48
50.0
370
    -2
100
AcDbLine
 10
8944.013719272073
 20
3573.001474330031
 30
0.0
 11
8944.013719272073
 21
3101.384844685996
 31
0.0
  0
LINE
  5
157D0
330
14943
100
AcDbEntity
  8
寸法
 62
     0
 48
50.0
370
    -2
100
AcDbLine
 10
9469.013719272073
 20
3511.943642500152
 30
0.0
 11
9469.013719272073
 21
3101.384844685996
 31
0.0
  0
LINE
  5
157D1
330
14943
100
AcDbEntity
  8
寸法
 62
     0
 48
50.0
370
    -2
100
AcDbLine
 10
8944.013719272073
 20
3146.384844685996
 30
0.0
 11
9469.013719272073
 21
3146.384844685996
 31
0.0
  0
INSERT
  5
157D2
330
14943
100
AcDbEntity
  8
寸法
 62
     0
 48
50.0
370
    -2
100
AcDbBlockReference
  2
_DOTSMALL
 10
8944.013719272073
 20
3146.384844685996
 30
0.0
 41
75.0
 42
75.0
 43
75.0
 50
180.0
  0
INSERT
  5
157D3
330
14943
100
AcDbEntity
  8
寸法
 62
     0
 48
50.0
370
    -2
100
AcDbBlockReference
  2
_DOTSMALL
 10
9469.013719272073
 20
3146.384844685996
 30
0.0
 41
75.0
 42
75.0
 43
75.0
  0
MTEXT
  5
157D4
330
14943
100
AcDbEntity
  8
寸法
 62
     7
 48
50.0
100
AcDbMText
 10
9206.513719272072
 20
3221.393702953712
 30
0.0
 40
90.0
 41
0.0
 71
     5
 72
     1
  1
\A1;525
  7
STYLE1
 73
     1
 44
1.0
1001
ACAD
1000
MTEXTBEGIN
1070
    73
1070
     1
1070
    44
1040
1.0
1070
    74
1070
     0
1000
MTEXTEND
  0
POINT
  5
157D5
330
14943
100
AcDbEntity
  8
DEFPOINTS
 62
     0
 48
50.0
100
AcDbPoint
 10
8944.013719272073
 20
3588.001474330031
 30
0.0
  0
POINT
  5
157D6
330
14943
100
AcDbEntity
  8
DEFPOINTS
 62
     0
 48
50.0
100
AcDbPoint
 10
9469.013719272073
 20
3526.943642500152
 30
0.0
  0
POINT
  5
157D7
330
14943
100
AcDbEntity
  8
DEFPOINTS
 62
     0
 48
50.0
100
AcDbPoint
 10
9469.013719272073
 20
3146.384844685996
 30
0.0
  0
ENDBLK
  5
14945
330
14943
100
AcDbEntity
  8
0
 48
50.0
100
AcDbBlockEnd
  0
BLOCK
  5
14950
330
1494F
100
AcDbEntity
  8
0
 48
50.0
100
AcDbBlockBegin
  2
*D5
 70
     1
 10
0.0
 20
0.0
 30
0.0
  3
*D5
  1

  0
LINE
  5
157D8
330
1494F
100
AcDbEntity
  8
寸法
 62
     0
 48
50.0
370
    -2
100
AcDbLine
 10
10344.01371927207
 20
3573.001474330031
 30
0.0
 11
10344.01371927207
 21
2871.299283597244
 31
0.0
  0
LINE
  5
157D9
330
1494F
100
AcDbEntity
  8
寸法
 62
     0
 48
50.0
370
    -2
100
AcDbLine
 10
8944.013719272073
 20
3573.001474330031
 30
0.0
 11
8944.013719272073
 21
2871.299283597244
 31
0.0
  0
LINE
  5
157DA
330
1494F
100
AcDbEntity
  8
寸法
 62
     0
 48
50.0
370
    -2
100
AcDbLine
 10
10344.01371927207
 20
2916.299283597244
 30
0.0
 11
8944.013719272073
 21
2916.299283597244
 31
0.0
  0
INSERT
  5
157DB
330
1494F
100
AcDbEntity
  8
寸法
 62
     0
 48
50.0
370
    -2
100
AcDbBlockReference
  2
_DOTSMALL
 10
10344.01371927207
 20
2916.299283597244
 30
0.0
 41
75.0
 42
75.0
 43
75.0
  0
INSERT
  5
157DC
330
1494F
100
AcDbEntity
  8
寸法
 62
     0
 48
50.0
370
    -2
100
AcDbBlockReference
  2
_DOTSMALL
 10
8944.013719272073
 20
2916.299283597244
 30
0.0
 41
75.0
 42
75.0
 43
75.0
 50
180.0
  0
MTEXT
  5
157DD
330
1494F
100
AcDbEntity
  8
寸法
 62
     7
 48
50.0
100
AcDbMText
 10
9644.013719272074
 20
2991.299283597244
 30
0.0
 40
90.0
 41
0.0
 71
     5
 72
     1
  1
\A1;1400
  7
STYLE1
 73
     1
 44
1.0
1001
ACAD
1000
MTEXTBEGIN
1070
    73
1070
     1
1070
    44
1040
1.0
1070
    74
1070
     0
1000
MTEXTEND
  0
POINT
  5
157DE
330
1494F
100
AcDbEntity
  8
DEFPOINTS
 62
     0
 48
50.0
100
AcDbPoint
 10
10344.01371927207
 20
3588.001474330031
 30
0.0
  0
POINT
  5
157DF
330
1494F
100
AcDbEntity
  8
DEFPOINTS
 62
     0
 48
50.0
100
AcDbPoint
 10
8944.013719272073
 20
3588.001474330031
 30
0.0
  0
POINT
  5
157E0
330
1494F
100
AcDbEntity
  8
DEFPOINTS
 62
     0
 48
50.0
100
AcDbPoint
 10
8944.013719272073
 20
2916.299283597244
 30
0.0
  0
ENDBLK
  5
14951
330
1494F
100
AcDbEntity
  8
0
 48
50.0
100
AcDbBlockEnd
  0
BLOCK
  5
1495C
330
1495B
100
AcDbEntity
  8
0
 48
50.0
100
AcDbBlockBegin
  2
*D6
 70
     1
 10
0.0
 20
0.0
 30
0.0
  3
*D6
  1

  0
LINE
  5
157E1
330
1495B
100
AcDbEntity
  8
寸法
 62
     0
 48
50.0
370
    -2
100
AcDbLine
 10
9469.013719272073
 20
3511.943642500152
 30
0.0
 11
9469.013719272073
 21
3101.384844685996
 31
0.0
  0
LINE
  5
157E2
330
1495B
100
AcDbEntity
  8
寸法
 62
     0
 48
50.0
370
    -2
100
AcDbLine
 10
9819.013719272073
 20
3511.943642500152
 30
0.0
 11
9819.013719272073
 21
3101.384844685996
 31
0.0
  0
LINE
  5
157E3
330
1495B
100
AcDbEntity
  8
寸法
 62
     0
 48
50.0
370
    -2
100
AcDbLine
 10
9469.013719272073
 20
3146.384844685996
 30
0.0
 11
9819.013719272073
 21
3146.384844685996
 31
0.0
  0
INSERT
  5
157E4
330
1495B
100
AcDbEntity
  8
寸法
 62
     0
 48
50.0
370
    -2
100
AcDbBlockReference
  2
_DOTSMALL
 10
9469.013719272073
 20
3146.384844685996
 30
0.0
 41
75.0
 42
75.0
 43
75.0
 50
180.0
  0
INSERT
  5
157E5
330
1495B
100
AcDbEntity
  8
寸法
 62
     0
 48
50.0
370
    -2
100
AcDbBlockReference
  2
_DOTSMALL
 10
9819.013719272073
 20
3146.384844685996
 30
0.0
 41
75.0
 42
75.0
 43
75.0
  0
MTEXT
  5
157E6
330
1495B
100
AcDbEntity
  8
寸法
 62
     7
 48
50.0
100
AcDbMText
 10
9644.013719272074
 20
3221.384844685996
 30
0.0
 40
90.0
 41
0.0
 71
     5
 72
     1
  1
\A1;350
  7
STYLE1
 73
     1
 44
1.0
1001
ACAD
1000
MTEXTBEGIN
1070
    73
1070
     1
1070
    44
1040
1.0
1070
    74
1070
     0
1000
MTEXTEND
  0
POINT
  5
157E7
330
1495B
100
AcDbEntity
  8
DEFPOINTS
 62
     0
 48
50.0
100
AcDbPoint
 10
9469.013719272073
 20
3526.943642500152
 30
0.0
  0
POINT
  5
157E8
330
1495B
100
AcDbEntity
  8
DEFPOINTS
 62
     0
 48
50.0
100
AcDbPoint
 10
9819.013719272073
 20
3526.943642500152
 30
0.0
  0
POINT
  5
157E9
330
1495B
100
AcDbEntity
  8
DEFPOINTS
 62
     0
 48
50.0
100
AcDbPoint
 10
9819.013719272073
 20
3146.384844685996
 30
0.0
  0
ENDBLK
  5
1495D
330
1495B
100
AcDbEntity
  8
0
 48
50.0
100
AcDbBlockEnd
  0
BLOCK
  5
14968
330
14967
100
AcDbEntity
  8
0
 48
50.0
100
AcDbBlockBegin
  2
*D7
 70
     1
 10
0.0
 20
0.0
 30
0.0
  3
*D7
  1

  0
LINE
  5
157EA
330
14967
100
AcDbEntity
  8
寸法
 62
     0
 48
50.0
370
    -2
100
AcDbLine
 10
10344.01371927207
 20
3573.001474330031
 30
0.0
 11
10344.01371927207
 21
3101.384844685996
 31
0.0
  0
LINE
  5
157EB
330
14967
100
AcDbEntity
  8
寸法
 62
     0
 48
50.0
370
    -2
100
AcDbLine
 10
9819.013719272073
 20
3511.943642500152
 30
0.0
 11
9819.013719272073
 21
3101.384844685996
 31
0.0
  0
LINE
  5
157EC
330
14967
100
AcDbEntity
  8
寸法
 62
     0
 48
50.0
370
    -2
100
AcDbLine
 10
10344.01371927207
 20
3146.384844685996
 30
0.0
 11
9819.013719272073
 21
3146.384844685996
 31
0.0
  0
INSERT
  5
157ED
330
14967
100
AcDbEntity
  8
寸法
 62
     0
 48
50.0
370
    -2
100
AcDbBlockReference
  2
_DOTSMALL
 10
10344.01371927207
 20
3146.384844685996
 30
0.0
 41
75.0
 42
75.0
 43
75.0
  0
INSERT
  5
157EE
330
14967
100
AcDbEntity
  8
寸法
 62
     0
 48
50.0
370
    -2
100
AcDbBlockReference
  2
_DOTSMALL
 10
9819.013719272073
 20
3146.384844685996
 30
0.0
 41
75.0
 42
75.0
 43
75.0
 50
180.0
  0
MTEXT
  5
157EF
330
14967
100
AcDbEntity
  8
寸法
 62
     7
 48
50.0
100
AcDbMText
 10
10081.51371927207
 20
3221.393702953712
 30
0.0
 40
90.0
 41
0.0
 71
     5
 72
     1
  1
\A1;525
  7
STYLE1
 73
     1
 44
1.0
1001
ACAD
1000
MTEXTBEGIN
1070
    73
1070
     1
1070
    44
1040
1.0
1070
    74
1070
     0
1000
MTEXTEND
  0
POINT
  5
157F0
330
14967
100
AcDbEntity
  8
DEFPOINTS
 62
     0
 48
50.0
100
AcDbPoint
 10
10344.01371927207
 20
3588.001474330031
 30
0.0
  0
POINT
  5
157F1
330
14967
100
AcDbEntity
  8
DEFPOINTS
 62
     0
 48
50.0
100
AcDbPoint
 10
9819.013719272073
 20
3526.943642500152
 30
0.0
  0
POINT
  5
157F2
330
14967
100
AcDbEntity
  8
DEFPOINTS
 62
     0
 48
50.0
100
AcDbPoint
 10
9819.013719272073
 20
3146.384844685996
 30
0.0
  0
ENDBLK
  5
14969
330
14967
100
AcDbEntity
  8
0
 48
50.0
100
AcDbBlockEnd
  0
BLOCK
  5
14974
330
14973
100
AcDbEntity
  8
0
 48
50.0
100
AcDbBlockBegin
  2
*D8
 70
     1
 10
0.0
 20
0.0
 30
0.0
  3
*D8
  1

  0
LINE
  5
157F3
330
14973
100
AcDbEntity
  8
寸法
 62
     0
 48
50.0
370
    -2
100
AcDbLine
 10
10923.81159683558
 20
4188.001474330031
 30
0.0
 11
11181.4550838728
 21
4188.001474330031
 31
0.0
  0
LINE
  5
157F4
330
14973
100
AcDbEntity
  8
寸法
 62
     0
 48
50.0
370
    -2
100
AcDbLine
 10
10439.01371927207
 20
3588.001474330031
 30
0.0
 11
11181.4550838728
 21
3588.001474330031
 31
0.0
  0
LINE
  5
157F5
330
14973
100
AcDbEntity
  8
寸法
 62
     0
 48
50.0
370
    -2
100
AcDbLine
 10
11136.4550838728
 20
4188.001474330031
 30
0.0
 11
11136.4550838728
 21
3588.001474330031
 31
0.0
  0
INSERT
  5
157F6
330
14973
100
AcDbEntity
  8
寸法
 62
     0
 48
50.0
370
    -2
100
AcDbBlockReference
  2
_DOTSMALL
 10
11136.4550838728
 20
4188.001474330031
 30
0.0
 41
75.0
 42
75.0
 43
75.0
 50
90.0
  0
INSERT
  5
157F7
330
14973
100
AcDbEntity
  8
寸法
 62
     0
 48
50.0
370
    -2
100
AcDbBlockReference
  2
_DOTSMALL
 10
11136.4550838728
 20
3588.001474330031
 30
0.0
 41
75.0
 42
75.0
 43
75.0
 50
270.0
  0
MTEXT
  5
157F8
330
14973
100
AcDbEntity
  8
寸法
 62
     7
 48
50.0
100
AcDbMText
 10
11061.4550838728
 20
3888.001474330033
 30
0.0
 40
90.0
 41
0.0
 71
     5
 72
     1
  1
\A1;600
  7
STYLE1
 11
0.0000000000000001
 21
1.0
 31
0.0
 73
     1
 44
1.0
1001
ACAD
1000
MTEXTBEGIN
1070
    73
1070
     1
1070
    44
1040
1.0
1070
    74
1070
     0
1000
MTEXTEND
  0
POINT
  5
157F9
330
14973
100
AcDbEntity
  8
DEFPOINTS
 62
     0
 48
50.0
100
AcDbPoint
 10
10908.81159683558
 20
4188.001474330031
 30
0.0
  0
POINT
  5
157FA
330
14973
100
AcDbEntity
  8
DEFPOINTS
 62
     0
 48
50.0
100
AcDbPoint
 10
10424.01371927207
 20
3588.001474330031
 30
0.0
  0
POINT
  5
157FB
330
14973
100
AcDbEntity
  8
DEFPOINTS
 62
     0
 48
50.0
100
AcDbPoint
 10
11136.4550838728
 20
3588.001474330031
 30
0.0
  0
ENDBLK
  5
14975
330
14973
100
AcDbEntity
  8
0
 48
50.0
100
AcDbBlockEnd
  0
BLOCK
  5
14980
330
1497F
100
AcDbEntity
  8
0
 48
50.0
100
AcDbBlockBegin
  2
*D9
 70
     1
 10
0.0
 20
0.0
 30
0.0
  3
*D9
  1

  0
LINE
  5
157FC
330
1497F
100
AcDbEntity
  8
寸法
 62
     0
 48
50.0
370
    -2
100
AcDbLine
 10
10859.01371927207
 20
4188.001474330031
 30
0.0
 11
11181.4550838728
 21
4188.001474330031
 31
0.0
  0
LINE
  5
157FD
330
1497F
100
AcDbEntity
  8
寸法
 62
     0
 48
50.0
370
    -2
100
AcDbLine
 10
10859.01371927213
 20
4238.00147433003
 30
0.0
 11
11181.4550838728
 21
4238.00147433003
 31
0.0
  0
LINE
  5
157FE
330
1497F
100
AcDbEntity
  8
寸法
 62
     0
 48
50.0
370
    -2
100
AcDbLine
 10
11136.4550838728
 20
4188.001474330031
 30
0.0
 11
11136.4550838728
 21
4113.00147433003
 31
0.0
  0
LINE
  5
157FF
330
1497F
100
AcDbEntity
  8
寸法
 62
     0
 48
50.0
370
    -2
100
AcDbLine
 10
11136.4550838728
 20
4238.00147433003
 30
0.0
 11
11136.4550838728
 21
4547.072340471803
 31
0.0
  0
LINE
  5
15800
330
1497F
100
AcDbEntity
  8
寸法
 62
     0
 48
50.0
370
    -2
100
AcDbLine
 10
11136.4550838728
 20
4188.001474330031
 30
0.0
 11
11136.4550838728
 21
4238.00147433003
 31
0.0
  0
INSERT
  5
15801
330
1497F
100
AcDbEntity
  8
寸法
 62
     0
 48
50.0
370
    -2
100
AcDbBlockReference
  2
_DOTSMALL
 10
11136.4550838728
 20
4188.001474330031
 30
0.0
 41
75.0
 42
75.0
 43
75.0
 50
90.0
  0
INSERT
  5
15802
330
1497F
100
AcDbEntity
  8
寸法
 62
     0
 48
50.0
370
    -2
100
AcDbBlockReference
  2
_DOTSMALL
 10
11136.4550838728
 20
4238.00147433003
 30
0.0
 41
75.0
 42
75.0
 43
75.0
 50
270.0
  0
MTEXT
  5
15803
330
1497F
100
AcDbEntity
  8
寸法
 62
     7
 48
50.0
100
AcDbMText
 10
11061.4550838728
 20
4467.53690740094
 30
0.0
 40
90.0
 41
0.0
 71
     5
 72
     1
  1
\A1;50
  7
STYLE1
 11
0.0000000000000001
 21
1.0
 31
0.0
 73
     1
 44
1.0
1001
ACAD
1000
MTEXTBEGIN
1070
    73
1070
     1
1070
    44
1040
1.0
1070
    74
1070
     0
1000
MTEXTEND
  0
POINT
  5
15804
330
1497F
100
AcDbEntity
  8
DEFPOINTS
 62
     0
 48
50.0
100
AcDbPoint
 10
10844.01371927207
 20
4188.001474330031
 30
0.0
  0
POINT
  5
15805
330
1497F
100
AcDbEntity
  8
DEFPOINTS
 62
     0
 48
50.0
100
AcDbPoint
 10
10844.01371927213
 20
4238.00147433003
 30
0.0
  0
POINT
  5
15806
330
1497F
100
AcDbEntity
  8
DEFPOINTS
 62
     0
 48
50.0
100
AcDbPoint
 10
11136.4550838728
 20
4238.00147433003
 30
0.0
  0
ENDBLK
  5
14981
330
1497F
100
AcDbEntity
  8
0
 48
50.0
100
AcDbBlockEnd
  0
BLOCK
  5
1498E
330
1498D
100
AcDbEntity
  8
0
 48
50.0
100
AcDbBlockBegin
  2
*D10
 70
     1
 10
0.0
 20
0.0
 30
0.0
  3
*D10
  1

  0
LINE
  5
15807
330
1498D
100
AcDbEntity
  8
寸法
 62
     0
 48
50.0
370
    -2
100
AcDbLine
 10
10439.01371927207
 20
3588.001474330031
 30
0.0
 11
11181.4550838728
 21
3588.001474330031
 31
0.0
  0
LINE
  5
15808
330
1498D
100
AcDbEntity
  8
寸法
 62
     0
 48
50.0
370
    -2
100
AcDbLine
 10
10439.01371927207
 20
3538.001474330031
 30
0.0
 11
11181.4550838728
 21
3538.001474330031
 31
0.0
  0
LINE
  5
15809
330
1498D
100
AcDbEntity
  8
寸法
 62
     0
 48
50.0
370
    -2
100
AcDbLine
 10
11136.4550838728
 20
3588.001474330031
 30
0.0
 11
11136.4550838728
 21
3663.001474330031
 31
0.0
  0
LINE
  5
1580A
330
1498D
100
AcDbEntity
  8
寸法
 62
     0
 48
50.0
370
    -2
100
AcDbLine
 10
11136.4550838728
 20
3538.001474330031
 30
0.0
 11
11136.4550838728
 21
3228.930608188298
 31
0.0
  0
LINE
  5
1580B
330
1498D
100
AcDbEntity
  8
寸法
 62
     0
 48
50.0
370
    -2
100
AcDbLine
 10
11136.4550838728
 20
3588.001474330031
 30
0.0
 11
11136.4550838728
 21
3538.001474330031
 31
0.0
  0
INSERT
  5
1580C
330
1498D
100
AcDbEntity
  8
寸法
 62
     0
 48
50.0
370
    -2
100
AcDbBlockReference
  2
_DOTSMALL
 10
11136.4550838728
 20
3588.001474330031
 30
0.0
 41
75.0
 42
75.0
 43
75.0
 50
270.0
  0
INSERT
  5
1580D
330
1498D
100
AcDbEntity
  8
寸法
 62
     0
 48
50.0
370
    -2
100
AcDbBlockReference
  2
_DOTSMALL
 10
11136.4550838728
 20
3538.001474330031
 30
0.0
 41
75.0
 42
75.0
 43
75.0
 50
90.0
  0
MTEXT
  5
1580E
330
1498D
100
AcDbEntity
  8
寸法
 62
     7
 48
50.0
100
AcDbMText
 10
11061.4550838728
 20
3308.466041259166
 30
0.0
 40
90.0
 41
0.0
 71
     5
 72
     1
  1
\A1;50
  7
STYLE1
 11
0.0000000000000001
 21
1.0
 31
0.0
 73
     1
 44
1.0
1001
ACAD
1000
MTEXTBEGIN
1070
    73
1070
     1
1070
    44
1040
1.0
1070
    74
1070
     0
1000
MTEXTEND
  0
POINT
  5
1580F
330
1498D
100
AcDbEntity
  8
DEFPOINTS
 62
     0
 48
50.0
100
AcDbPoint
 10
10424.01371927207
 20
3588.001474330031
 30
0.0
  0
POINT
  5
15810
330
1498D
100
AcDbEntity
  8
DEFPOINTS
 62
     0
 48
50.0
100
AcDbPoint
 10
10424.01371927207
 20
3538.001474330031
 30
0.0
  0
POINT
  5
15811
330
1498D
100
AcDbEntity
  8
DEFPOINTS
 62
     0
 48
50.0
100
AcDbPoint
 10
11136.4550838728
 20
3538.001474330031
 30
0.0
  0
ENDBLK
  5
1498F
330
1498D
100
AcDbEntity
  8
0
 48
50.0
100
AcDbBlockEnd
  0
BLOCK
  5
14C05
330
14C04
100
AcDbEntity
  8
0
 48
50.0
100
AcDbBlockBegin
  2
*D11
 70
     1
 10
0.0
 20
0.0
 30
0.0
  3
*D11
  1

  0
LINE
  5
15812
330
14C04
100
AcDbEntity
  8
寸法
 62
     0
 48
50.0
370
    -2
100
AcDbLine
 10
1422.313333192316
 20
1933.314691298437
 30
0.0
 11
1422.313333192316
 21
1438.32697296192
 31
0.0
  0
LINE
  5
15813
330
14C04
100
AcDbEntity
  8
寸法
 62
     0
 48
50.0
370
    -2
100
AcDbLine
 10
1252.313333192258
 20
1796.814691298437
 30
0.0
 11
1252.313333192258
 21
1438.32697296192
 31
0.0
  0
LINE
  5
15814
330
14C04
100
AcDbEntity
  8
寸法
 62
     0
 48
50.0
370
    -2
100
AcDbLine
 10
1422.313333192316
 20
1483.32697296192
 30
0.0
 11
1252.313333192258
 21
1483.32697296192
 31
0.0
  0
MTEXT
  5
15815
330
14C04
100
AcDbEntity
  8
寸法
 62
     7
 48
50.0
100
AcDbMText
 10
1337.313333192287
 20
1558.32697296192
 30
0.0
 40
90.0
 41
0.0
 71
     5
 72
     1
  1
\A1;170
  7
STYLE1
 73
     1
 44
1.0
1001
ACAD
1000
MTEXTBEGIN
1070
    73
1070
     1
1070
    44
1040
1.0
1070
    74
1070
     0
1000
MTEXTEND
  0
POINT
  5
15816
330
14C04
100
AcDbEntity
  8
DEFPOINTS
 62
     0
 48
50.0
100
AcDbPoint
 10
1422.313333192316
 20
1948.314691298438
 30
0.0
  0
POINT
  5
15817
330
14C04
100
AcDbEntity
  8
DEFPOINTS
 62
     0
 48
50.0
100
AcDbPoint
 10
1252.313333192258
 20
1811.814691298437
 30
0.0
  0
POINT
  5
15818
330
14C04
100
AcDbEntity
  8
DEFPOINTS
 62
     0
 48
50.0
100
AcDbPoint
 10
1252.313333192258
 20
1483.32697296192
 30
0.0
  0
ENDBLK
  5
14C06
330
14C04
100
AcDbEntity
  8
0
 48
50.0
100
AcDbBlockEnd
  0
BLOCK
  5
14C0F
330
14C0E
100
AcDbEntity
  8
0
 48
50.0
100
AcDbBlockBegin
  2
*D12
 70
     1
 10
0.0
 20
0.0
 30
0.0
  3
*D12
  1

  0
LINE
  5
15819
330
14C0E
100
AcDbEntity
  8
寸法
 62
     0
 48
50.0
370
    -2
100
AcDbLine
 10
6682.313333192199
 20
1933.314691298437
 30
0.0
 11
6682.313333192199
 21
1438.32697296192
 31
0.0
  0
LINE
  5
1581A
330
14C0E
100
AcDbEntity
  8
寸法
 62
     0
 48
50.0
370
    -2
100
AcDbLine
 10
6852.313333192258
 20
1796.814691298437
 30
0.0
 11
6852.313333192258
 21
1438.32697296192
 31
0.0
  0
LINE
  5
1581B
330
14C0E
100
AcDbEntity
  8
寸法
 62
     0
 48
50.0
370
    -2
100
AcDbLine
 10
6682.313333192199
 20
1483.32697296192
 30
0.0
 11
6852.313333192258
 21
1483.32697296192
 31
0.0
  0
MTEXT
  5
1581C
330
14C0E
100
AcDbEntity
  8
寸法
 62
     7
 48
50.0
100
AcDbMText
 10
6767.313333192229
 20
1558.32697296192
 30
0.0
 40
90.0
 41
0.0
 71
     5
 72
     1
  1
\A1;170
  7
STYLE1
 73
     1
 44
1.0
1001
ACAD
1000
MTEXTBEGIN
1070
    73
1070
     1
1070
    44
1040
1.0
1070
    74
1070
     0
1000
MTEXTEND
  0
POINT
  5
1581D
330
14C0E
100
AcDbEntity
  8
DEFPOINTS
 62
     0
 48
50.0
100
AcDbPoint
 10
6682.313333192199
 20
1948.314691298438
 30
0.0
  0
POINT
  5
1581E
330
14C0E
100
AcDbEntity
  8
DEFPOINTS
 62
     0
 48
50.0
100
AcDbPoint
 10
6852.313333192258
 20
1811.814691298437
 30
0.0
  0
POINT
  5
1581F
330
14C0E
100
AcDbEntity
  8
DEFPOINTS
 62
     0
 48
50.0
100
AcDbPoint
 10
6852.313333192258
 20
1483.32697296192
 30
0.0
  0
ENDBLK
  5
14C10
330
14C0E
100
AcDbEntity
  8
0
 48
50.0
100
AcDbBlockEnd
  0
BLOCK
  5
14C19
330
14C18
100
AcDbEntity
  8
0
 48
50.0
100
AcDbBlockBegin
  2
*D13
 70
     1
 10
0.0
 20
0.0
 30
0.0
  3
*D13
  1

  0
LINE
  5
1594D
330
14C18
100
AcDbEntity
  8
寸法
 62
     0
 48
50.0
370
    -2
100
AcDbLine
 10
1422.313333192316
 20
1933.314691298437
 30
0.0
 11
1422.313333192316
 21
1438.32697296192
 31
0.0
  0
LINE
  5
1594E
330
14C18
100
AcDbEntity
  8
寸法
 62
     0
 48
50.0
370
    -2
100
AcDbLine
 10
6682.313333192199
 20
1933.314691298437
 30
0.0
 11
6682.313333192199
 21
1438.32697296192
 31
0.0
  0
LINE
  5
1594F
330
14C18
100
AcDbEntity
  8
寸法
 62
     0
 48
50.0
370
    -2
100
AcDbLine
 10
1422.313333192316
 20
1483.32697296192
 30
0.0
 11
6682.313333192199
 21
1483.32697296192
 31
0.0
  0
INSERT
  5
15950
330
14C18
100
AcDbEntity
  8
寸法
 62
     0
 48
50.0
370
    -2
100
AcDbBlockReference
  2
_DOTSMALL
 10
1422.313333192316
 20
1483.32697296192
 30
0.0
 41
75.0
 42
75.0
 43
75.0
 50
180.0
  0
INSERT
  5
15951
330
14C18
100
AcDbEntity
  8
寸法
 62
     0
 48
50.0
370
    -2
100
AcDbBlockReference
  2
_DOTSMALL
 10
6682.313333192199
 20
1483.32697296192
 30
0.0
 41
75.0
 42
75.0
 43
75.0
  0
MTEXT
  5
15952
330
14C18
100
AcDbEntity
  8
寸法
 62
     7
 48
50.0
100
AcDbMText
 10
4052.313333192258
 20
1558.335831229637
 30
0.0
 40
90.0
 41
0.0
 71
     5
 72
     1
  1
\A1;屋根寸法 N \U+00D72400 ＋ 460
  7
STYLE1
 73
     1
 44
1.0
1001
ACAD
1000
MTEXTBEGIN
1070
    73
1070
     1
1070
    44
1040
1.0
1070
    74
1070
     0
1000
MTEXTEND
  0
POINT
  5
15953
330
14C18
100
AcDbEntity
  8
DEFPOINTS
 62
     0
 48
50.0
100
AcDbPoint
 10
1422.313333192316
 20
1948.314691298438
 30
0.0
  0
POINT
  5
15954
330
14C18
100
AcDbEntity
  8
DEFPOINTS
 62
     0
 48
50.0
100
AcDbPoint
 10
6682.313333192199
 20
1948.314691298438
 30
0.0
  0
POINT
  5
15955
330
14C18
100
AcDbEntity
  8
DEFPOINTS
 62
     0
 48
50.0
100
AcDbPoint
 10
6682.313333192199
 20
1483.32697296192
 30
0.0
  0
ENDBLK
  5
14C1A
330
14C18
100
AcDbEntity
  8
0
 48
50.0
100
AcDbBlockEnd
  0
BLOCK
  5
14C45
330
14C44
100
AcDbEntity
  8
0
 48
50.0
100
AcDbBlockBegin
  2
*D14
 70
     1
 10
0.0
 20
0.0
 30
0.0
  3
*D14
  1

  0
LINE
  5
15829
330
14C44
100
AcDbEntity
  8
寸法
 62
     0
 48
50.0
370
    -2
100
AcDbLine
 10
6697.3133331922
 20
1948.314691298438
 30
0.0
 11
7279.58755555586
 21
1948.314691298438
 31
0.0
  0
LINE
  5
1582A
330
14C44
100
AcDbEntity
  8
寸法
 62
     0
 48
50.0
370
    -2
100
AcDbLine
 10
6867.313333192258
 20
1811.814691298437
 30
0.0
 11
7279.58755555586
 21
1811.814691298437
 31
0.0
  0
LINE
  5
1582B
330
14C44
100
AcDbEntity
  8
寸法
 62
     0
 48
50.0
370
    -2
100
AcDbLine
 10
7234.587555555859
 20
1948.314691298438
 30
0.0
 11
7234.587555555859
 21
1811.814691298437
 31
0.0
  0
LINE
  5
1582C
330
14C44
100
AcDbEntity
  8
寸法
 62
     0
 48
50.0
370
    -2
100
AcDbLine
 10
7234.587555555859
 20
1811.814691298437
 30
0.0
 11
7234.587555555859
 21
1439.08676923708
 31
0.0
  0
INSERT
  5
1582D
330
14C44
100
AcDbEntity
  8
寸法
 62
     0
 48
50.0
370
    -2
100
AcDbBlockReference
  2
_DOTSMALL
 10
7234.587555555859
 20
1948.314691298438
 30
0.0
 41
75.0
 42
75.0
 43
75.0
 50
90.0
  0
INSERT
  5
1582E
330
14C44
100
AcDbEntity
  8
寸法
 62
     0
 48
50.0
370
    -2
100
AcDbBlockReference
  2
_DOTSMALL
 10
7234.587555555859
 20
1811.814691298437
 30
0.0
 41
75.0
 42
75.0
 43
75.0
 50
270.0
  0
MTEXT
  5
1582F
330
14C44
100
AcDbEntity
  8
寸法
 62
     7
 48
50.0
100
AcDbMText
 10
7159.587555555859
 20
1587.95073026776
 30
0.0
 40
90.0
 41
0.0
 71
     5
 72
     1
  1
\A1;136.5
  7
STYLE1
 11
0.0000000000000001
 21
1.0
 31
0.0
 73
     1
 44
1.0
1001
ACAD
1000
MTEXTBEGIN
1070
    73
1070
     1
1070
    44
1040
1.0
1070
    74
1070
     0
1000
MTEXTEND
  0
POINT
  5
15830
330
14C44
100
AcDbEntity
  8
DEFPOINTS
 62
     0
 48
50.0
100
AcDbPoint
 10
6682.313333192199
 20
1948.314691298438
 30
0.0
  0
POINT
  5
15831
330
14C44
100
AcDbEntity
  8
DEFPOINTS
 62
     0
 48
50.0
100
AcDbPoint
 10
6852.313333192258
 20
1811.814691298437
 30
0.0
  0
POINT
  5
15832
330
14C44
100
AcDbEntity
  8
DEFPOINTS
 62
     0
 48
50.0
100
AcDbPoint
 10
7234.587555555859
 20
1811.814691298437
 30
0.0
  0
ENDBLK
  5
14C46
330
14C44
100
AcDbEntity
  8
0
 48
50.0
100
AcDbBlockEnd
  0
BLOCK
  5
14C52
330
14C51
100
AcDbEntity
  8
0
 48
50.0
100
AcDbBlockBegin
  2
*D15
 70
     1
 10
0.0
 20
0.0
 30
0.0
  3
*D15
  1

  0
LINE
  5
15833
330
14C51
100
AcDbEntity
  8
寸法
 62
     0
 48
50.0
370
    -2
100
AcDbLine
 10
6697.3133331922
 20
6025.314691298437
 30
0.0
 11
7279.587555555861
 21
6025.314691298437
 31
0.0
  0
LINE
  5
15834
330
14C51
100
AcDbEntity
  8
寸法
 62
     0
 48
50.0
370
    -2
100
AcDbLine
 10
6697.3133331922
 20
1948.314691298438
 30
0.0
 11
7279.58755555586
 21
1948.314691298438
 31
0.0
  0
LINE
  5
15835
330
14C51
100
AcDbEntity
  8
寸法
 62
     0
 48
50.0
370
    -2
100
AcDbLine
 10
7234.587555555861
 20
6025.314691298437
 30
0.0
 11
7234.587555555859
 21
1948.314691298438
 31
0.0
  0
INSERT
  5
15836
330
14C51
100
AcDbEntity
  8
寸法
 62
     0
 48
50.0
370
    -2
100
AcDbBlockReference
  2
_DOTSMALL
 10
7234.587555555861
 20
6025.314691298437
 30
0.0
 41
75.0
 42
75.0
 43
75.0
 50
90.0
  0
INSERT
  5
15837
330
14C51
100
AcDbEntity
  8
寸法
 62
     0
 48
50.0
370
    -2
100
AcDbBlockReference
  2
_DOTSMALL
 10
7234.587555555859
 20
1948.314691298438
 30
0.0
 41
75.0
 42
75.0
 43
75.0
 50
270.0
  0
MTEXT
  5
15838
330
14C51
100
AcDbEntity
  8
寸法
 62
     7
 48
50.0
100
AcDbMText
 10
7159.587555555859
 20
3986.81469129844
 30
0.0
 40
90.0
 41
0.0
 71
     5
 72
     1
  1
\A1;屋根寸法 4077
  7
STYLE1
 11
0.0000000000000001
 21
1.0
 31
0.0
 73
     1
 44
1.0
1001
ACAD
1000
MTEXTBEGIN
1070
    73
1070
     1
1070
    44
1040
1.0
1070
    74
1070
     0
1000
MTEXTEND
  0
POINT
  5
15839
330
14C51
100
AcDbEntity
  8
DEFPOINTS
 62
     0
 48
50.0
100
AcDbPoint
 10
6682.313333192199
 20
6025.314691298437
 30
0.0
  0
POINT
  5
1583A
330
14C51
100
AcDbEntity
  8
DEFPOINTS
 62
     0
 48
50.0
100
AcDbPoint
 10
6682.313333192199
 20
1948.314691298438
 30
0.0
  0
POINT
  5
1583B
330
14C51
100
AcDbEntity
  8
DEFPOINTS
 62
     0
 48
50.0
100
AcDbPoint
 10
7234.587555555859
 20
1948.314691298438
 30
0.0
  0
ENDBLK
  5
14C53
330
14C51
100
AcDbEntity
  8
0
 48
50.0
100
AcDbBlockEnd
  0
BLOCK
  5
14C5E
330
14C5D
100
AcDbEntity
  8
0
 48
50.0
100
AcDbBlockBegin
  2
*D16
 70
     1
 10
0.0
 20
0.0
 30
0.0
  3
*D16
  1

  0
LINE
  5
1583C
330
14C5D
100
AcDbEntity
  8
寸法
 62
     0
 48
50.0
370
    -2
100
AcDbLine
 10
6697.3133331922
 20
6025.314691298437
 30
0.0
 11
7279.587555555861
 21
6025.314691298437
 31
0.0
  0
LINE
  5
1583D
330
14C5D
100
AcDbEntity
  8
寸法
 62
     0
 48
50.0
370
    -2
100
AcDbLine
 10
6867.313333192258
 20
6161.814691298438
 30
0.0
 11
7279.587555555861
 21
6161.814691298438
 31
0.0
  0
LINE
  5
1583E
330
14C5D
100
AcDbEntity
  8
寸法
 62
     0
 48
50.0
370
    -2
100
AcDbLine
 10
7234.587555555861
 20
6025.314691298437
 30
0.0
 11
7234.587555555862
 21
6161.814691298438
 31
0.0
  0
LINE
  5
1583F
330
14C5D
100
AcDbEntity
  8
寸法
 62
     0
 48
50.0
370
    -2
100
AcDbLine
 10
7234.587555555862
 20
6161.814691298438
 30
0.0
 11
7234.587555555862
 21
6534.542613359843
 31
0.0
  0
INSERT
  5
15840
330
14C5D
100
AcDbEntity
  8
寸法
 62
     0
 48
50.0
370
    -2
100
AcDbBlockReference
  2
_DOTSMALL
 10
7234.587555555861
 20
6025.314691298437
 30
0.0
 41
75.0
 42
75.0
 43
75.0
 50
270.0
  0
INSERT
  5
15841
330
14C5D
100
AcDbEntity
  8
寸法
 62
     0
 48
50.0
370
    -2
100
AcDbBlockReference
  2
_DOTSMALL
 10
7234.587555555862
 20
6161.814691298438
 30
0.0
 41
75.0
 42
75.0
 43
75.0
 50
90.0
  0
MTEXT
  5
15842
330
14C5D
100
AcDbEntity
  8
寸法
 62
     7
 48
50.0
100
AcDbMText
 10
7159.587555555859
 20
6385.678652329167
 30
0.0
 40
90.0
 41
0.0
 71
     5
 72
     1
  1
\A1;136.5
  7
STYLE1
 11
0.0000000000000001
 21
1.0
 31
0.0
 73
     1
 44
1.0
1001
ACAD
1000
MTEXTBEGIN
1070
    73
1070
     1
1070
    44
1040
1.0
1070
    74
1070
     0
1000
MTEXTEND
  0
POINT
  5
15843
330
14C5D
100
AcDbEntity
  8
DEFPOINTS
 62
     0
 48
50.0
100
AcDbPoint
 10
6682.313333192199
 20
6025.314691298437
 30
0.0
  0
POINT
  5
15844
330
14C5D
100
AcDbEntity
  8
DEFPOINTS
 62
     0
 48
50.0
100
AcDbPoint
 10
6852.313333192258
 20
6161.814691298438
 30
0.0
  0
POINT
  5
15845
330
14C5D
100
AcDbEntity
  8
DEFPOINTS
 62
     0
 48
50.0
100
AcDbPoint
 10
7234.587555555862
 20
6161.814691298438
 30
0.0
  0
ENDBLK
  5
14C5F
330
14C5D
100
AcDbEntity
  8
0
 48
50.0
100
AcDbBlockEnd
  0
BLOCK
  5
14C91
330
14C90
100
AcDbEntity
  8
0
 48
50.0
100
AcDbBlockBegin
  2
*D17
 70
     1
 10
0.0
 20
0.0
 30
0.0
  3
*D17
  1

  0
LINE
  5
15846
330
14C90
100
AcDbEntity
  8
寸法
 62
     0
 48
50.0
370
    -2
100
AcDbLine
 10
1237.313333192258
 20
6161.814691298438
 30
0.0
 11
643.6921344645679
 21
6161.814691298438
 31
0.0
  0
LINE
  5
15847
330
14C90
100
AcDbEntity
  8
寸法
 62
     0
 48
50.0
370
    -2
100
AcDbLine
 10
1237.313333192258
 20
1811.814691298437
 30
0.0
 11
643.6921344645671
 21
1811.814691298437
 31
0.0
  0
LINE
  5
15848
330
14C90
100
AcDbEntity
  8
寸法
 62
     0
 48
50.0
370
    -2
100
AcDbLine
 10
688.692134464568
 20
6161.814691298438
 30
0.0
 11
688.6921344645671
 21
1811.814691298437
 31
0.0
  0
INSERT
  5
15849
330
14C90
100
AcDbEntity
  8
寸法
 62
     0
 48
50.0
370
    -2
100
AcDbBlockReference
  2
_DOTSMALL
 10
688.692134464568
 20
6161.814691298438
 30
0.0
 41
75.0
 42
75.0
 43
75.0
 50
90.0
  0
INSERT
  5
1584A
330
14C90
100
AcDbEntity
  8
寸法
 62
     0
 48
50.0
370
    -2
100
AcDbBlockReference
  2
_DOTSMALL
 10
688.6921344645671
 20
1811.814691298437
 30
0.0
 41
75.0
 42
75.0
 43
75.0
 50
270.0
  0
MTEXT
  5
1584B
330
14C90
100
AcDbEntity
  8
寸法
 62
     7
 48
50.0
100
AcDbMText
 10
613.6921344645668
 20
3986.814691298438
 30
0.0
 40
90.0
 41
0.0
 71
     5
 72
     1
  1
\A1;基礎土間寸法 4350
  7
STYLE1
 11
0.0000000000000001
 21
1.0
 31
0.0
 73
     1
 44
1.0
1001
ACAD
1000
MTEXTBEGIN
1070
    73
1070
     1
1070
    44
1040
1.0
1070
    74
1070
     0
1000
MTEXTEND
  0
POINT
  5
1584C
330
14C90
100
AcDbEntity
  8
DEFPOINTS
 62
     0
 48
50.0
100
AcDbPoint
 10
1252.313333192258
 20
6161.814691298438
 30
0.0
  0
POINT
  5
1584D
330
14C90
100
AcDbEntity
  8
DEFPOINTS
 62
     0
 48
50.0
100
AcDbPoint
 10
1252.313333192258
 20
1811.814691298437
 30
0.0
  0
POINT
  5
1584E
330
14C90
100
AcDbEntity
  8
DEFPOINTS
 62
     0
 48
50.0
100
AcDbPoint
 10
688.6921344645671
 20
1811.814691298437
 30
0.0
  0
ENDBLK
  5
14C92
330
14C90
100
AcDbEntity
  8
0
 48
50.0
100
AcDbBlockEnd
  0
BLOCK
  5
14C9D
330
14C9C
100
AcDbEntity
  8
0
 48
50.0
100
AcDbBlockBegin
  2
*D18
 70
     1
 10
0.0
 20
0.0
 30
0.0
  3
*D18
  1

  0
LINE
  5
1584F
330
14C9C
100
AcDbEntity
  8
寸法
 62
     0
 48
50.0
370
    -2
100
AcDbLine
 10
1387.313333192258
 20
3811.814691298438
 30
0.0
 11
866.4414964810132
 21
3811.814691298438
 31
0.0
  0
LINE
  5
15850
330
14C9C
100
AcDbEntity
  8
寸法
 62
     0
 48
50.0
370
    -2
100
AcDbLine
 10
1237.313333192258
 20
1811.814691298437
 30
0.0
 11
866.4414964810131
 21
1811.814691298437
 31
0.0
  0
LINE
  5
15851
330
14C9C
100
AcDbEntity
  8
寸法
 62
     0
 48
50.0
370
    -2
100
AcDbLine
 10
911.4414964810134
 20
3811.814691298438
 30
0.0
 11
911.441496481013
 21
1811.814691298437
 31
0.0
  0
INSERT
  5
15852
330
14C9C
100
AcDbEntity
  8
寸法
 62
     0
 48
50.0
370
    -2
100
AcDbBlockReference
  2
_DOTSMALL
 10
911.4414964810134
 20
3811.814691298438
 30
0.0
 41
75.0
 42
75.0
 43
75.0
 50
90.0
  0
INSERT
  5
15853
330
14C9C
100
AcDbEntity
  8
寸法
 62
     0
 48
50.0
370
    -2
100
AcDbBlockReference
  2
_DOTSMALL
 10
911.441496481013
 20
1811.814691298437
 30
0.0
 41
75.0
 42
75.0
 43
75.0
 50
270.0
  0
MTEXT
  5
15854
330
14C9C
100
AcDbEntity
  8
寸法
 62
     7
 48
50.0
100
AcDbMText
 10
836.4326382132963
 20
2811.814691298438
 30
0.0
 40
90.0
 41
0.0
 71
     5
 72
     1
  1
\A1;2000
  7
STYLE1
 11
0.0000000000000001
 21
1.0
 31
0.0
 73
     1
 44
1.0
1001
ACAD
1000
MTEXTBEGIN
1070
    73
1070
     1
1070
    44
1040
1.0
1070
    74
1070
     0
1000
MTEXTEND
  0
POINT
  5
15855
330
14C9C
100
AcDbEntity
  8
DEFPOINTS
 62
     0
 48
50.0
100
AcDbPoint
 10
1402.313333192258
 20
3811.814691298438
 30
0.0
  0
POINT
  5
15856
330
14C9C
100
AcDbEntity
  8
DEFPOINTS
 62
     0
 48
50.0
100
AcDbPoint
 10
1252.313333192258
 20
1811.814691298437
 30
0.0
  0
POINT
  5
15857
330
14C9C
100
AcDbEntity
  8
DEFPOINTS
 62
     0
 48
50.0
100
AcDbPoint
 10
911.441496481013
 20
1811.814691298437
 30
0.0
  0
ENDBLK
  5
14C9E
330
14C9C
100
AcDbEntity
  8
0
 48
50.0
100
AcDbBlockEnd
  0
BLOCK
  5
14CA9
330
14CA8
100
AcDbEntity
  8
0
 48
50.0
100
AcDbBlockBegin
  2
*D19
 70
     1
 10
0.0
 20
0.0
 30
0.0
  3
*D19
  1

  0
LINE
  5
15858
330
14CA8
100
AcDbEntity
  8
寸法
 62
     0
 48
50.0
370
    -2
100
AcDbLine
 10
1387.313333192258
 20
4161.814691298437
 30
0.0
 11
866.4414964810131
 21
4161.814691298437
 31
0.0
  0
LINE
  5
15859
330
14CA8
100
AcDbEntity
  8
寸法
 62
     0
 48
50.0
370
    -2
100
AcDbLine
 10
1387.313333192258
 20
3811.814691298438
 30
0.0
 11
866.4414964810131
 21
3811.814691298438
 31
0.0
  0
LINE
  5
1585A
330
14CA8
100
AcDbEntity
  8
寸法
 62
     0
 48
50.0
370
    -2
100
AcDbLine
 10
911.4414964810132
 20
4161.814691298437
 30
0.0
 11
911.441496481013
 21
3811.814691298438
 31
0.0
  0
INSERT
  5
1585B
330
14CA8
100
AcDbEntity
  8
寸法
 62
     0
 48
50.0
370
    -2
100
AcDbBlockReference
  2
_DOTSMALL
 10
911.4414964810132
 20
4161.814691298437
 30
0.0
 41
75.0
 42
75.0
 43
75.0
 50
90.0
  0
INSERT
  5
1585C
330
14CA8
100
AcDbEntity
  8
寸法
 62
     0
 48
50.0
370
    -2
100
AcDbBlockReference
  2
_DOTSMALL
 10
911.441496481013
 20
3811.814691298438
 30
0.0
 41
75.0
 42
75.0
 43
75.0
 50
270.0
  0
MTEXT
  5
1585D
330
14CA8
100
AcDbEntity
  8
寸法
 62
     7
 48
50.0
100
AcDbMText
 10
836.4414964810125
 20
3986.814691298438
 30
0.0
 40
90.0
 41
0.0
 71
     5
 72
     1
  1
\A1;350
  7
STYLE1
 11
0.0000000000000001
 21
1.0
 31
0.0
 73
     1
 44
1.0
1001
ACAD
1000
MTEXTBEGIN
1070
    73
1070
     1
1070
    44
1040
1.0
1070
    74
1070
     0
1000
MTEXTEND
  0
POINT
  5
1585E
330
14CA8
100
AcDbEntity
  8
DEFPOINTS
 62
     0
 48
50.0
100
AcDbPoint
 10
1402.313333192258
 20
4161.814691298437
 30
0.0
  0
POINT
  5
1585F
330
14CA8
100
AcDbEntity
  8
DEFPOINTS
 62
     0
 48
50.0
100
AcDbPoint
 10
1402.313333192258
 20
3811.814691298438
 30
0.0
  0
POINT
  5
15860
330
14CA8
100
AcDbEntity
  8
DEFPOINTS
 62
     0
 48
50.0
100
AcDbPoint
 10
911.441496481013
 20
3811.814691298438
 30
0.0
  0
ENDBLK
  5
14CAA
330
14CA8
100
AcDbEntity
  8
0
 48
50.0
100
AcDbBlockEnd
  0
BLOCK
  5
14CB5
330
14CB4
100
AcDbEntity
  8
0
 48
50.0
100
AcDbBlockBegin
  2
*D20
 70
     1
 10
0.0
 20
0.0
 30
0.0
  3
*D20
  1

  0
LINE
  5
15861
330
14CB4
100
AcDbEntity
  8
寸法
 62
     0
 48
50.0
370
    -2
100
AcDbLine
 10
1387.313333192258
 20
4161.814691298437
 30
0.0
 11
866.4414964810125
 21
4161.814691298437
 31
0.0
  0
LINE
  5
15862
330
14CB4
100
AcDbEntity
  8
寸法
 62
     0
 48
50.0
370
    -2
100
AcDbLine
 10
1237.313333192258
 20
6161.814691298438
 30
0.0
 11
866.4414964810131
 21
6161.814691298438
 31
0.0
  0
LINE
  5
15863
330
14CB4
100
AcDbEntity
  8
寸法
 62
     0
 48
50.0
370
    -2
100
AcDbLine
 10
911.4414964810125
 20
4161.814691298437
 30
0.0
 11
911.441496481013
 21
6161.814691298438
 31
0.0
  0
INSERT
  5
15864
330
14CB4
100
AcDbEntity
  8
寸法
 62
     0
 48
50.0
370
    -2
100
AcDbBlockReference
  2
_DOTSMALL
 10
911.4414964810125
 20
4161.814691298437
 30
0.0
 41
75.0
 42
75.0
 43
75.0
 50
270.0
  0
INSERT
  5
15865
330
14CB4
100
AcDbEntity
  8
寸法
 62
     0
 48
50.0
370
    -2
100
AcDbBlockReference
  2
_DOTSMALL
 10
911.441496481013
 20
6161.814691298438
 30
0.0
 41
75.0
 42
75.0
 43
75.0
 50
90.0
  0
MTEXT
  5
15866
330
14CB4
100
AcDbEntity
  8
寸法
 62
     7
 48
50.0
100
AcDbMText
 10
836.4326382132954
 20
5161.814691298438
 30
0.0
 40
90.0
 41
0.0
 71
     5
 72
     1
  1
\A1;2000
  7
STYLE1
 11
0.0000000000000001
 21
1.0
 31
0.0
 73
     1
 44
1.0
1001
ACAD
1000
MTEXTBEGIN
1070
    73
1070
     1
1070
    44
1040
1.0
1070
    74
1070
     0
1000
MTEXTEND
  0
POINT
  5
15867
330
14CB4
100
AcDbEntity
  8
DEFPOINTS
 62
     0
 48
50.0
100
AcDbPoint
 10
1402.313333192258
 20
4161.814691298437
 30
0.0
  0
POINT
  5
15868
330
14CB4
100
AcDbEntity
  8
DEFPOINTS
 62
     0
 48
50.0
100
AcDbPoint
 10
1252.313333192258
 20
6161.814691298438
 30
0.0
  0
POINT
  5
15869
330
14CB4
100
AcDbEntity
  8
DEFPOINTS
 62
     0
 48
50.0
100
AcDbPoint
 10
911.441496481013
 20
6161.814691298438
 30
0.0
  0
ENDBLK
  5
14CB6
330
14CB4
100
AcDbEntity
  8
0
 48
50.0
100
AcDbBlockEnd
  0
BLOCK
  5
14CC1
330
14CC0
100
AcDbEntity
  8
0
 48
50.0
100
AcDbBlockBegin
  2
*D21
 70
     1
 10
0.0
 20
0.0
 30
0.0
  3
*D21
  1

  0
LINE
  5
1586A
330
14CC0
100
AcDbEntity
  8
寸法
 62
     0
 48
50.0
370
    -2
100
AcDbLine
 10
1252.313333192258
 20
6176.814691298438
 30
0.0
 11
1252.313333192258
 21
6876.815123798834
 31
0.0
  0
LINE
  5
1586B
330
14CC0
100
AcDbEntity
  8
寸法
 62
     0
 48
50.0
370
    -2
100
AcDbLine
 10
6852.313333192258
 20
6176.814691298438
 30
0.0
 11
6852.313333192258
 21
6876.815123798834
 31
0.0
  0
LINE
  5
1586C
330
14CC0
100
AcDbEntity
  8
寸法
 62
     0
 48
50.0
370
    -2
100
AcDbLine
 10
1252.313333192258
 20
6831.815123798834
 30
0.0
 11
6852.313333192258
 21
6831.815123798834
 31
0.0
  0
INSERT
  5
1586D
330
14CC0
100
AcDbEntity
  8
寸法
 62
     0
 48
50.0
370
    -2
100
AcDbBlockReference
  2
_DOTSMALL
 10
1252.313333192258
 20
6831.815123798834
 30
0.0
 41
75.0
 42
75.0
 43
75.0
 50
180.0
  0
INSERT
  5
1586E
330
14CC0
100
AcDbEntity
  8
寸法
 62
     0
 48
50.0
370
    -2
100
AcDbBlockReference
  2
_DOTSMALL
 10
6852.313333192258
 20
6831.815123798834
 30
0.0
 41
75.0
 42
75.0
 43
75.0
  0
MTEXT
  5
1586F
330
14CC0
100
AcDbEntity
  8
寸法
 62
     7
 48
50.0
100
AcDbMText
 10
4052.313333192258
 20
6906.823982066551
 30
0.0
 40
90.0
 41
0.0
 71
     5
 72
     1
  1
\A1;基礎土間寸法 N \U+00D72400 ＋ 800
  7
STYLE1
 73
     1
 44
1.0
1001
ACAD
1000
MTEXTBEGIN
1070
    73
1070
     1
1070
    44
1040
1.0
1070
    74
1070
     0
1000
MTEXTEND
  0
POINT
  5
15870
330
14CC0
100
AcDbEntity
  8
DEFPOINTS
 62
     0
 48
50.0
100
AcDbPoint
 10
1252.313333192258
 20
6161.814691298438
 30
0.0
  0
POINT
  5
15871
330
14CC0
100
AcDbEntity
  8
DEFPOINTS
 62
     0
 48
50.0
100
AcDbPoint
 10
6852.313333192258
 20
6161.814691298438
 30
0.0
  0
POINT
  5
15872
330
14CC0
100
AcDbEntity
  8
DEFPOINTS
 62
     0
 48
50.0
100
AcDbPoint
 10
6852.313333192258
 20
6831.815123798834
 30
0.0
  0
ENDBLK
  5
14CC2
330
14CC0
100
AcDbEntity
  8
0
 48
50.0
100
AcDbBlockEnd
  0
BLOCK
  5
14CCD
330
14CCC
100
AcDbEntity
  8
0
 48
50.0
100
AcDbBlockBegin
  2
*D22
 70
     1
 10
0.0
 20
0.0
 30
0.0
  3
*D22
  1

  0
LINE
  5
15873
330
14CCC
100
AcDbEntity
  8
寸法
 62
     0
 48
50.0
370
    -2
100
AcDbLine
 10
6452.313333192257
 20
4426.814691298438
 30
0.0
 11
6452.313333192257
 21
6682.778084824517
 31
0.0
  0
LINE
  5
15874
330
14CCC
100
AcDbEntity
  8
寸法
 62
     0
 48
50.0
370
    -2
100
AcDbLine
 10
6852.313333192258
 20
6176.814691298438
 30
0.0
 11
6852.313333192258
 21
6682.778084824517
 31
0.0
  0
LINE
  5
15875
330
14CCC
100
AcDbEntity
  8
寸法
 62
     0
 48
50.0
370
    -2
100
AcDbLine
 10
6452.313333192257
 20
6637.778084824517
 30
0.0
 11
6852.313333192258
 21
6637.778084824517
 31
0.0
  0
INSERT
  5
15876
330
14CCC
100
AcDbEntity
  8
寸法
 62
     0
 48
50.0
370
    -2
100
AcDbBlockReference
  2
_DOTSMALL
 10
6452.313333192257
 20
6637.778084824517
 30
0.0
 41
75.0
 42
75.0
 43
75.0
 50
180.0
  0
INSERT
  5
15877
330
14CCC
100
AcDbEntity
  8
寸法
 62
     0
 48
50.0
370
    -2
100
AcDbBlockReference
  2
_DOTSMALL
 10
6852.313333192258
 20
6637.778084824517
 30
0.0
 41
75.0
 42
75.0
 43
75.0
  0
MTEXT
  5
15878
330
14CCC
100
AcDbEntity
  8
寸法
 62
     7
 48
50.0
100
AcDbMText
 10
6652.313333192258
 20
6712.778084824517
 30
0.0
 40
90.0
 41
0.0
 71
     5
 72
     1
  1
\A1;400
  7
STYLE1
 73
     1
 44
1.0
1001
ACAD
1000
MTEXTBEGIN
1070
    73
1070
     1
1070
    44
1040
1.0
1070
    74
1070
     0
1000
MTEXTEND
  0
POINT
  5
15879
330
14CCC
100
AcDbEntity
  8
DEFPOINTS
 62
     0
 48
50.0
100
AcDbPoint
 10
6452.313333192257
 20
4411.814691298437
 30
0.0
  0
POINT
  5
1587A
330
14CCC
100
AcDbEntity
  8
DEFPOINTS
 62
     0
 48
50.0
100
AcDbPoint
 10
6852.313333192258
 20
6161.814691298438
 30
0.0
  0
POINT
  5
1587B
330
14CCC
100
AcDbEntity
  8
DEFPOINTS
 62
     0
 48
50.0
100
AcDbPoint
 10
6852.313333192258
 20
6637.778084824517
 30
0.0
  0
ENDBLK
  5
14CCE
330
14CCC
100
AcDbEntity
  8
0
 48
50.0
100
AcDbBlockEnd
  0
BLOCK
  5
14CD9
330
14CD8
100
AcDbEntity
  8
0
 48
50.0
100
AcDbBlockBegin
  2
*D23
 70
     1
 10
0.0
 20
0.0
 30
0.0
  3
*D23
  1

  0
LINE
  5
1587C
330
14CD8
100
AcDbEntity
  8
寸法
 62
     0
 48
50.0
370
    -2
100
AcDbLine
 10
1652.313333192258
 20
4426.814691298438
 30
0.0
 11
1652.313333192258
 21
6682.778084824517
 31
0.0
  0
LINE
  5
1587D
330
14CD8
100
AcDbEntity
  8
寸法
 62
     0
 48
50.0
370
    -2
100
AcDbLine
 10
6452.313333192257
 20
4426.814691298438
 30
0.0
 11
6452.313333192257
 21
6682.778084824517
 31
0.0
  0
LINE
  5
1587E
330
14CD8
100
AcDbEntity
  8
寸法
 62
     0
 48
50.0
370
    -2
100
AcDbLine
 10
1652.313333192258
 20
6637.778084824517
 30
0.0
 11
6452.313333192257
 21
6637.778084824517
 31
0.0
  0
INSERT
  5
1587F
330
14CD8
100
AcDbEntity
  8
寸法
 62
     0
 48
50.0
370
    -2
100
AcDbBlockReference
  2
_DOTSMALL
 10
1652.313333192258
 20
6637.778084824517
 30
0.0
 41
75.0
 42
75.0
 43
75.0
 50
180.0
  0
INSERT
  5
15880
330
14CD8
100
AcDbEntity
  8
寸法
 62
     0
 48
50.0
370
    -2
100
AcDbBlockReference
  2
_DOTSMALL
 10
6452.313333192257
 20
6637.778084824517
 30
0.0
 41
75.0
 42
75.0
 43
75.0
  0
MTEXT
  5
15881
330
14CD8
100
AcDbEntity
  8
寸法
 62
     7
 48
50.0
100
AcDbMText
 10
4052.313333192258
 20
6712.786943092233
 30
0.0
 40
90.0
 41
0.0
 71
     5
 72
     1
  1
\A1;N \U+00D72400
  7
STYLE1
 73
     1
 44
1.0
1001
ACAD
1000
MTEXTBEGIN
1070
    73
1070
     1
1070
    44
1040
1.0
1070
    74
1070
     0
1000
MTEXTEND
  0
POINT
  5
15882
330
14CD8
100
AcDbEntity
  8
DEFPOINTS
 62
     0
 48
50.0
100
AcDbPoint
 10
1652.313333192258
 20
4411.814691298437
 30
0.0
  0
POINT
  5
15883
330
14CD8
100
AcDbEntity
  8
DEFPOINTS
 62
     0
 48
50.0
100
AcDbPoint
 10
6452.313333192257
 20
4411.814691298437
 30
0.0
  0
POINT
  5
15884
330
14CD8
100
AcDbEntity
  8
DEFPOINTS
 62
     0
 48
50.0
100
AcDbPoint
 10
6452.313333192257
 20
6637.778084824517
 30
0.0
  0
ENDBLK
  5
14CDA
330
14CD8
100
AcDbEntity
  8
0
 48
50.0
100
AcDbBlockEnd
  0
BLOCK
  5
14CE5
330
14CE4
100
AcDbEntity
  8
0
 48
50.0
100
AcDbBlockBegin
  2
*D24
 70
     1
 10
0.0
 20
0.0
 30
0.0
  3
*D24
  1

  0
LINE
  5
15885
330
14CE4
100
AcDbEntity
  8
寸法
 62
     0
 48
50.0
370
    -2
100
AcDbLine
 10
1252.313333192258
 20
6176.814691298438
 30
0.0
 11
1252.313333192258
 21
6682.778084824517
 31
0.0
  0
LINE
  5
15886
330
14CE4
100
AcDbEntity
  8
寸法
 62
     0
 48
50.0
370
    -2
100
AcDbLine
 10
1652.313333192258
 20
4426.814691298438
 30
0.0
 11
1652.313333192258
 21
6682.778084824517
 31
0.0
  0
LINE
  5
15887
330
14CE4
100
AcDbEntity
  8
寸法
 62
     0
 48
50.0
370
    -2
100
AcDbLine
 10
1252.313333192258
 20
6637.778084824517
 30
0.0
 11
1652.313333192258
 21
6637.778084824517
 31
0.0
  0
INSERT
  5
15888
330
14CE4
100
AcDbEntity
  8
寸法
 62
     0
 48
50.0
370
    -2
100
AcDbBlockReference
  2
_DOTSMALL
 10
1252.313333192258
 20
6637.778084824517
 30
0.0
 41
75.0
 42
75.0
 43
75.0
 50
180.0
  0
INSERT
  5
15889
330
14CE4
100
AcDbEntity
  8
寸法
 62
     0
 48
50.0
370
    -2
100
AcDbBlockReference
  2
_DOTSMALL
 10
1652.313333192258
 20
6637.778084824517
 30
0.0
 41
75.0
 42
75.0
 43
75.0
  0
MTEXT
  5
1588A
330
14CE4
100
AcDbEntity
  8
寸法
 62
     7
 48
50.0
100
AcDbMText
 10
1452.313333192258
 20
6712.778084824517
 30
0.0
 40
90.0
 41
0.0
 71
     5
 72
     1
  1
\A1;400
  7
STYLE1
 73
     1
 44
1.0
1001
ACAD
1000
MTEXTBEGIN
1070
    73
1070
     1
1070
    44
1040
1.0
1070
    74
1070
     0
1000
MTEXTEND
  0
POINT
  5
1588B
330
14CE4
100
AcDbEntity
  8
DEFPOINTS
 62
     0
 48
50.0
100
AcDbPoint
 10
1252.313333192258
 20
6161.814691298438
 30
0.0
  0
POINT
  5
1588C
330
14CE4
100
AcDbEntity
  8
DEFPOINTS
 62
     0
 48
50.0
100
AcDbPoint
 10
1652.313333192258
 20
4411.814691298437
 30
0.0
  0
POINT
  5
1588D
330
14CE4
100
AcDbEntity
  8
DEFPOINTS
 62
     0
 48
50.0
100
AcDbPoint
 10
1652.313333192258
 20
6637.778084824517
 30
0.0
  0
ENDBLK
  5
14CE6
330
14CE4
100
AcDbEntity
  8
0
 48
50.0
100
AcDbBlockEnd
  0
BLOCK
  5
14CF1
330
14CF0
100
AcDbEntity
  8
0
 48
50.0
100
AcDbBlockBegin
  2
*D25
 70
     1
 10
0.0
 20
0.0
 30
0.0
  3
*D25
  1

  0
LINE
  5
1588E
330
14CF0
100
AcDbEntity
  8
寸法
 62
     0
 48
50.0
370
    -2
100
AcDbLine
 10
6452.313333192257
 20
3546.814691298437
 30
0.0
 11
6452.313333192257
 21
3003.678475261346
 31
0.0
  0
LINE
  5
1588F
330
14CF0
100
AcDbEntity
  8
寸法
 62
     0
 48
50.0
370
    -2
100
AcDbLine
 10
6052.313333192258
 20
3271.814691298438
 30
0.0
 11
6052.313333192258
 21
3003.678475261346
 31
0.0
  0
LINE
  5
15890
330
14CF0
100
AcDbEntity
  8
寸法
 62
     0
 48
50.0
370
    -2
100
AcDbLine
 10
6452.313333192257
 20
3048.678475261346
 30
0.0
 11
6052.313333192258
 21
3048.678475261346
 31
0.0
  0
INSERT
  5
15891
330
14CF0
100
AcDbEntity
  8
寸法
 62
     0
 48
50.0
370
    -2
100
AcDbBlockReference
  2
_DOTSMALL
 10
6452.313333192257
 20
3048.678475261346
 30
0.0
 41
75.0
 42
75.0
 43
75.0
  0
INSERT
  5
15892
330
14CF0
100
AcDbEntity
  8
寸法
 62
     0
 48
50.0
370
    -2
100
AcDbBlockReference
  2
_DOTSMALL
 10
6052.313333192258
 20
3048.678475261346
 30
0.0
 41
75.0
 42
75.0
 43
75.0
 50
180.0
  0
MTEXT
  5
15893
330
14CF0
100
AcDbEntity
  8
寸法
 62
     7
 48
50.0
100
AcDbMText
 10
6252.313333192258
 20
3123.678475261346
 30
0.0
 40
90.0
 41
0.0
 71
     5
 72
     1
  1
\A1;400
  7
STYLE1
 73
     1
 44
1.0
1001
ACAD
1000
MTEXTBEGIN
1070
    73
1070
     1
1070
    44
1040
1.0
1070
    74
1070
     0
1000
MTEXTEND
  0
POINT
  5
15894
330
14CF0
100
AcDbEntity
  8
DEFPOINTS
 62
     0
 48
50.0
100
AcDbPoint
 10
6452.313333192257
 20
3561.814691298438
 30
0.0
  0
POINT
  5
15895
330
14CF0
100
AcDbEntity
  8
DEFPOINTS
 62
     0
 48
50.0
100
AcDbPoint
 10
6052.313333192258
 20
3286.814691298438
 30
0.0
  0
POINT
  5
15896
330
14CF0
100
AcDbEntity
  8
DEFPOINTS
 62
     0
 48
50.0
100
AcDbPoint
 10
6052.313333192258
 20
3048.678475261346
 30
0.0
  0
ENDBLK
  5
14CF2
330
14CF0
100
AcDbEntity
  8
0
 48
50.0
100
AcDbBlockEnd
  0
BLOCK
  5
14CFD
330
14CFC
100
AcDbEntity
  8
0
 48
50.0
100
AcDbBlockBegin
  2
*D26
 70
     1
 10
0.0
 20
0.0
 30
0.0
  3
*D26
  1

  0
LINE
  5
15897
330
14CFC
100
AcDbEntity
  8
寸法
 62
     0
 48
50.0
370
    -2
100
AcDbLine
 10
6052.313333192258
 20
3271.814691298438
 30
0.0
 11
6052.313333192258
 21
2765.542259224283
 31
0.0
  0
LINE
  5
15898
330
14CFC
100
AcDbEntity
  8
寸法
 62
     0
 48
50.0
370
    -2
100
AcDbLine
 10
6852.313333192258
 20
3271.814691298438
 30
0.0
 11
6852.313333192258
 21
2765.542259224283
 31
0.0
  0
LINE
  5
15899
330
14CFC
100
AcDbEntity
  8
寸法
 62
     0
 48
50.0
370
    -2
100
AcDbLine
 10
6052.313333192258
 20
2810.542259224283
 30
0.0
 11
6852.313333192258
 21
2810.542259224283
 31
0.0
  0
INSERT
  5
1589A
330
14CFC
100
AcDbEntity
  8
寸法
 62
     0
 48
50.0
370
    -2
100
AcDbBlockReference
  2
_DOTSMALL
 10
6052.313333192258
 20
2810.542259224283
 30
0.0
 41
75.0
 42
75.0
 43
75.0
 50
180.0
  0
INSERT
  5
1589B
330
14CFC
100
AcDbEntity
  8
寸法
 62
     0
 48
50.0
370
    -2
100
AcDbBlockReference
  2
_DOTSMALL
 10
6852.313333192258
 20
2810.542259224283
 30
0.0
 41
75.0
 42
75.0
 43
75.0
  0
MTEXT
  5
1589C
330
14CFC
100
AcDbEntity
  8
寸法
 62
     7
 48
50.0
100
AcDbMText
 10
6452.313333192257
 20
2885.542259224283
 30
0.0
 40
90.0
 41
0.0
 71
     5
 72
     1
  1
\A1;800
  7
STYLE1
 73
     1
 44
1.0
1001
ACAD
1000
MTEXTBEGIN
1070
    73
1070
     1
1070
    44
1040
1.0
1070
    74
1070
     0
1000
MTEXTEND
  0
POINT
  5
1589D
330
14CFC
100
AcDbEntity
  8
DEFPOINTS
 62
     0
 48
50.0
100
AcDbPoint
 10
6052.313333192258
 20
3286.814691298438
 30
0.0
  0
POINT
  5
1589E
330
14CFC
100
AcDbEntity
  8
DEFPOINTS
 62
     0
 48
50.0
100
AcDbPoint
 10
6852.313333192258
 20
3286.814691298438
 30
0.0
  0
POINT
  5
1589F
330
14CFC
100
AcDbEntity
  8
DEFPOINTS
 62
     0
 48
50.0
100
AcDbPoint
 10
6852.313333192258
 20
2810.542259224283
 30
0.0
  0
ENDBLK
  5
14CFE
330
14CFC
100
AcDbEntity
  8
0
 48
50.0
100
AcDbBlockEnd
  0
BLOCK
  5
14D09
330
14D08
100
AcDbEntity
  8
0
 48
50.0
100
AcDbBlockBegin
  2
*D27
 70
     1
 10
0.0
 20
0.0
 30
0.0
  3
*D27
  1

  0
LINE
  5
158A0
330
14D08
100
AcDbEntity
  8
寸法
 62
     0
 48
50.0
370
    -2
100
AcDbLine
 10
6187.313333192258
 20
3811.814691298438
 30
0.0
 11
5829.998829908087
 21
3811.814691298438
 31
0.0
  0
LINE
  5
158A1
330
14D08
100
AcDbEntity
  8
寸法
 62
     0
 48
50.0
370
    -2
100
AcDbLine
 10
6037.313333192258
 20
3286.814691298423
 30
0.0
 11
5829.998829908087
 21
3286.814691298423
 31
0.0
  0
LINE
  5
158A2
330
14D08
100
AcDbEntity
  8
寸法
 62
     0
 48
50.0
370
    -2
100
AcDbLine
 10
5874.998829908086
 20
3811.814691298438
 30
0.0
 11
5874.998829908086
 21
3286.814691298423
 31
0.0
  0
INSERT
  5
158A3
330
14D08
100
AcDbEntity
  8
寸法
 62
     0
 48
50.0
370
    -2
100
AcDbBlockReference
  2
_DOTSMALL
 10
5874.998829908086
 20
3811.814691298438
 30
0.0
 41
75.0
 42
75.0
 43
75.0
 50
90.0
  0
INSERT
  5
158A4
330
14D08
100
AcDbEntity
  8
寸法
 62
     0
 48
50.0
370
    -2
100
AcDbBlockReference
  2
_DOTSMALL
 10
5874.998829908086
 20
3286.814691298423
 30
0.0
 41
75.0
 42
75.0
 43
75.0
 50
270.0
  0
MTEXT
  5
158A5
330
14D08
100
AcDbEntity
  8
寸法
 62
     7
 48
50.0
100
AcDbMText
 10
5799.98997164037
 20
3549.314691298432
 30
0.0
 40
90.0
 41
0.0
 71
     5
 72
     1
  1
\A1;525
  7
STYLE1
 11
0.0000000000000001
 21
1.0
 31
0.0
 73
     1
 44
1.0
1001
ACAD
1000
MTEXTBEGIN
1070
    73
1070
     1
1070
    44
1040
1.0
1070
    74
1070
     0
1000
MTEXTEND
  0
POINT
  5
158A6
330
14D08
100
AcDbEntity
  8
DEFPOINTS
 62
     0
 48
50.0
100
AcDbPoint
 10
6202.313333192257
 20
3811.814691298438
 30
0.0
  0
POINT
  5
158A7
330
14D08
100
AcDbEntity
  8
DEFPOINTS
 62
     0
 48
50.0
100
AcDbPoint
 10
6052.313333192258
 20
3286.814691298423
 30
0.0
  0
POINT
  5
158A8
330
14D08
100
AcDbEntity
  8
DEFPOINTS
 62
     0
 48
50.0
100
AcDbPoint
 10
5874.998829908086
 20
3286.814691298423
 30
0.0
  0
ENDBLK
  5
14D0A
330
14D08
100
AcDbEntity
  8
0
 48
50.0
100
AcDbBlockEnd
  0
BLOCK
  5
14D15
330
14D14
100
AcDbEntity
  8
0
 48
50.0
100
AcDbBlockBegin
  2
*D28
 70
     1
 10
0.0
 20
0.0
 30
0.0
  3
*D28
  1

  0
LINE
  5
158A9
330
14D14
100
AcDbEntity
  8
寸法
 62
     0
 48
50.0
370
    -2
100
AcDbLine
 10
6037.313333192258
 20
4686.814691298438
 30
0.0
 11
5652.684326623916
 21
4686.814691298438
 31
0.0
  0
LINE
  5
158AA
330
14D14
100
AcDbEntity
  8
寸法
 62
     0
 48
50.0
370
    -2
100
AcDbLine
 10
6037.313333192258
 20
3286.814691298423
 30
0.0
 11
5652.684326623916
 21
3286.814691298423
 31
0.0
  0
LINE
  5
158AB
330
14D14
100
AcDbEntity
  8
寸法
 62
     0
 48
50.0
370
    -2
100
AcDbLine
 10
5697.684326623916
 20
4686.814691298438
 30
0.0
 11
5697.684326623916
 21
3286.814691298423
 31
0.0
  0
INSERT
  5
158AC
330
14D14
100
AcDbEntity
  8
寸法
 62
     0
 48
50.0
370
    -2
100
AcDbBlockReference
  2
_DOTSMALL
 10
5697.684326623916
 20
4686.814691298438
 30
0.0
 41
75.0
 42
75.0
 43
75.0
 50
90.0
  0
INSERT
  5
158AD
330
14D14
100
AcDbEntity
  8
寸法
 62
     0
 48
50.0
370
    -2
100
AcDbBlockReference
  2
_DOTSMALL
 10
5697.684326623916
 20
3286.814691298423
 30
0.0
 41
75.0
 42
75.0
 43
75.0
 50
270.0
  0
MTEXT
  5
158AE
330
14D14
100
AcDbEntity
  8
寸法
 62
     7
 48
50.0
100
AcDbMText
 10
5622.684326623915
 20
3986.814691298431
 30
0.0
 40
90.0
 41
0.0
 71
     5
 72
     1
  1
\A1;1400
  7
STYLE1
 11
0.0000000000000001
 21
1.0
 31
0.0
 73
     1
 44
1.0
1001
ACAD
1000
MTEXTBEGIN
1070
    73
1070
     1
1070
    44
1040
1.0
1070
    74
1070
     0
1000
MTEXTEND
  0
POINT
  5
158AF
330
14D14
100
AcDbEntity
  8
DEFPOINTS
 62
     0
 48
50.0
100
AcDbPoint
 10
6052.313333192258
 20
4686.814691298438
 30
0.0
  0
POINT
  5
158B0
330
14D14
100
AcDbEntity
  8
DEFPOINTS
 62
     0
 48
50.0
100
AcDbPoint
 10
6052.313333192258
 20
3286.814691298423
 30
0.0
  0
POINT
  5
158B1
330
14D14
100
AcDbEntity
  8
DEFPOINTS
 62
     0
 48
50.0
100
AcDbPoint
 10
5697.684326623916
 20
3286.814691298423
 30
0.0
  0
ENDBLK
  5
14D16
330
14D14
100
AcDbEntity
  8
0
 48
50.0
100
AcDbBlockEnd
  0
BLOCK
  5
14D21
330
14D20
100
AcDbEntity
  8
0
 48
50.0
100
AcDbBlockBegin
  2
*D29
 70
     1
 10
0.0
 20
0.0
 30
0.0
  3
*D29
  1

  0
LINE
  5
158B2
330
14D20
100
AcDbEntity
  8
寸法
 62
     0
 48
50.0
370
    -2
100
AcDbLine
 10
6187.313333192258
 20
4161.814691298437
 30
0.0
 11
5829.998829908087
 21
4161.814691298438
 31
0.0
  0
LINE
  5
158B3
330
14D20
100
AcDbEntity
  8
寸法
 62
     0
 48
50.0
370
    -2
100
AcDbLine
 10
6187.313333192258
 20
3811.814691298438
 30
0.0
 11
5829.998829908087
 21
3811.814691298438
 31
0.0
  0
LINE
  5
158B4
330
14D20
100
AcDbEntity
  8
寸法
 62
     0
 48
50.0
370
    -2
100
AcDbLine
 10
5874.998829908086
 20
4161.814691298438
 30
0.0
 11
5874.998829908086
 21
3811.814691298438
 31
0.0
  0
INSERT
  5
158B5
330
14D20
100
AcDbEntity
  8
寸法
 62
     0
 48
50.0
370
    -2
100
AcDbBlockReference
  2
_DOTSMALL
 10
5874.998829908086
 20
4161.814691298438
 30
0.0
 41
75.0
 42
75.0
 43
75.0
 50
90.0
  0
INSERT
  5
158B6
330
14D20
100
AcDbEntity
  8
寸法
 62
     0
 48
50.0
370
    -2
100
AcDbBlockReference
  2
_DOTSMALL
 10
5874.998829908086
 20
3811.814691298438
 30
0.0
 41
75.0
 42
75.0
 43
75.0
 50
270.0
  0
MTEXT
  5
158B7
330
14D20
100
AcDbEntity
  8
寸法
 62
     7
 48
50.0
100
AcDbMText
 10
5799.998829908086
 20
3986.81469129844
 30
0.0
 40
90.0
 41
0.0
 71
     5
 72
     1
  1
\A1;350
  7
STYLE1
 11
0.0000000000000001
 21
1.0
 31
0.0
 73
     1
 44
1.0
1001
ACAD
1000
MTEXTBEGIN
1070
    73
1070
     1
1070
    44
1040
1.0
1070
    74
1070
     0
1000
MTEXTEND
  0
POINT
  5
158B8
330
14D20
100
AcDbEntity
  8
DEFPOINTS
 62
     0
 48
50.0
100
AcDbPoint
 10
6202.313333192257
 20
4161.814691298437
 30
0.0
  0
POINT
  5
158B9
330
14D20
100
AcDbEntity
  8
DEFPOINTS
 62
     0
 48
50.0
100
AcDbPoint
 10
6202.313333192257
 20
3811.814691298438
 30
0.0
  0
POINT
  5
158BA
330
14D20
100
AcDbEntity
  8
DEFPOINTS
 62
     0
 48
50.0
100
AcDbPoint
 10
5874.998829908086
 20
3811.814691298438
 30
0.0
  0
ENDBLK
  5
14D22
330
14D20
100
AcDbEntity
  8
0
 48
50.0
100
AcDbBlockEnd
  0
BLOCK
  5
14D2D
330
14D2C
100
AcDbEntity
  8
0
 48
50.0
100
AcDbBlockBegin
  2
*D30
 70
     1
 10
0.0
 20
0.0
 30
0.0
  3
*D30
  1

  0
LINE
  5
158BB
330
14D2C
100
AcDbEntity
  8
寸法
 62
     0
 48
50.0
370
    -2
100
AcDbLine
 10
6187.313333192258
 20
4161.814691298437
 30
0.0
 11
5829.998829908087
 21
4161.814691298438
 31
0.0
  0
LINE
  5
158BC
330
14D2C
100
AcDbEntity
  8
寸法
 62
     0
 48
50.0
370
    -2
100
AcDbLine
 10
6037.313333192258
 20
4686.814691298452
 30
0.0
 11
5829.998829908087
 21
4686.814691298452
 31
0.0
  0
LINE
  5
158BD
330
14D2C
100
AcDbEntity
  8
寸法
 62
     0
 48
50.0
370
    -2
100
AcDbLine
 10
5874.998829908086
 20
4161.814691298438
 30
0.0
 11
5874.998829908086
 21
4686.814691298452
 31
0.0
  0
INSERT
  5
158BE
330
14D2C
100
AcDbEntity
  8
寸法
 62
     0
 48
50.0
370
    -2
100
AcDbBlockReference
  2
_DOTSMALL
 10
5874.998829908086
 20
4161.814691298438
 30
0.0
 41
75.0
 42
75.0
 43
75.0
 50
270.0
  0
INSERT
  5
158BF
330
14D2C
100
AcDbEntity
  8
寸法
 62
     0
 48
50.0
370
    -2
100
AcDbBlockReference
  2
_DOTSMALL
 10
5874.998829908086
 20
4686.814691298452
 30
0.0
 41
75.0
 42
75.0
 43
75.0
 50
90.0
  0
MTEXT
  5
158C0
330
14D2C
100
AcDbEntity
  8
寸法
 62
     7
 48
50.0
100
AcDbMText
 10
5799.98997164037
 20
4424.314691298446
 30
0.0
 40
90.0
 41
0.0
 71
     5
 72
     1
  1
\A1;525
  7
STYLE1
 11
0.0000000000000001
 21
1.0
 31
0.0
 73
     1
 44
1.0
1001
ACAD
1000
MTEXTBEGIN
1070
    73
1070
     1
1070
    44
1040
1.0
1070
    74
1070
     0
1000
MTEXTEND
  0
POINT
  5
158C1
330
14D2C
100
AcDbEntity
  8
DEFPOINTS
 62
     0
 48
50.0
100
AcDbPoint
 10
6202.313333192257
 20
4161.814691298437
 30
0.0
  0
POINT
  5
158C2
330
14D2C
100
AcDbEntity
  8
DEFPOINTS
 62
     0
 48
50.0
100
AcDbPoint
 10
6052.313333192258
 20
4686.814691298452
 30
0.0
  0
POINT
  5
158C3
330
14D2C
100
AcDbEntity
  8
DEFPOINTS
 62
     0
 48
50.0
100
AcDbPoint
 10
5874.998829908086
 20
4686.814691298452
 30
0.0
  0
ENDBLK
  5
14D2E
330
14D2C
100
AcDbEntity
  8
0
 48
50.0
100
AcDbBlockEnd
  0
BLOCK
  5
1528E
330
1528D
100
AcDbEntity
  8
0
 48
50.0
100
AcDbBlockBegin
  2
*D31
 70
     1
 10
0.0
 20
0.0
 30
0.0
  3
*D31
  1

  0
LINE
  5
158C4
330
1528D
100
AcDbEntity
  8
寸法
 62
     0
 48
50.0
370
    -2
100
AcDbLine
 10
1652.313333192258
 20
4426.814691298438
 30
0.0
 11
1652.313333192258
 21
6460.9814920675
 31
0.0
  0
LINE
  5
158C5
330
1528D
100
AcDbEntity
  8
寸法
 62
     0
 48
50.0
370
    -2
100
AcDbLine
 10
4052.313333192258
 20
4426.814691298438
 30
0.0
 11
4052.313333192258
 21
6460.9814920675
 31
0.0
  0
LINE
  5
158C6
330
1528D
100
AcDbEntity
  8
寸法
 62
     0
 48
50.0
370
    -2
100
AcDbLine
 10
1652.313333192258
 20
6415.9814920675
 30
0.0
 11
4052.313333192258
 21
6415.9814920675
 31
0.0
  0
INSERT
  5
158C7
330
1528D
100
AcDbEntity
  8
寸法
 62
     0
 48
50.0
370
    -2
100
AcDbBlockReference
  2
_DOTSMALL
 10
1652.313333192258
 20
6415.9814920675
 30
0.0
 41
75.0
 42
75.0
 43
75.0
 50
180.0
  0
INSERT
  5
158C8
330
1528D
100
AcDbEntity
  8
寸法
 62
     0
 48
50.0
370
    -2
100
AcDbBlockReference
  2
_DOTSMALL
 10
4052.313333192258
 20
6415.9814920675
 30
0.0
 41
75.0
 42
75.0
 43
75.0
  0
MTEXT
  5
158C9
330
1528D
100
AcDbEntity
  8
寸法
 62
     7
 48
50.0
100
AcDbMText
 10
2852.313333192258
 20
6490.990350335216
 30
0.0
 40
90.0
 41
0.0
 71
     5
 72
     1
  1
\A1;2400
  7
STYLE1
 73
     1
 44
1.0
1001
ACAD
1000
MTEXTBEGIN
1070
    73
1070
     1
1070
    44
1040
1.0
1070
    74
1070
     0
1000
MTEXTEND
  0
POINT
  5
158CA
330
1528D
100
AcDbEntity
  8
DEFPOINTS
 62
     0
 48
50.0
100
AcDbPoint
 10
1652.313333192258
 20
4411.814691298437
 30
-0.0000000000013153
  0
POINT
  5
158CB
330
1528D
100
AcDbEntity
  8
DEFPOINTS
 62
     0
 48
50.0
100
AcDbPoint
 10
4052.313333192258
 20
4411.814691298437
 30
-0.0000000000013153
  0
POINT
  5
158CC
330
1528D
100
AcDbEntity
  8
DEFPOINTS
 62
     0
 48
50.0
100
AcDbPoint
 10
4052.313333192258
 20
6415.9814920675
 30
0.0
  0
ENDBLK
  5
1528F
330
1528D
100
AcDbEntity
  8
0
 48
50.0
100
AcDbBlockEnd
  0
BLOCK
  5
1529B
330
1529A
100
AcDbEntity
  8
0
 48
50.0
100
AcDbBlockBegin
  2
*D32
 70
     1
 10
0.0
 20
0.0
 30
0.0
  3
*D32
  1

  0
LINE
  5
158CD
330
1529A
100
AcDbEntity
  8
寸法
 62
     0
 48
50.0
370
    -2
100
AcDbLine
 10
4052.313333192258
 20
4426.814691298438
 30
0.0
 11
4052.313333192258
 21
6460.983861619377
 31
0.0
  0
LINE
  5
158CE
330
1529A
100
AcDbEntity
  8
寸法
 62
     0
 48
50.0
370
    -2
100
AcDbLine
 10
4052.313333192258
 20
6415.983861619378
 30
0.0
 11
5172.313333192258
 21
6415.983861619378
 31
0.0
  0
INSERT
  5
158CF
330
1529A
100
AcDbEntity
  8
寸法
 62
     0
 48
50.0
370
    -2
100
AcDbBlockReference
  2
_DOTSMALL
 10
4052.313333192258
 20
6415.983861619378
 30
0.0
 41
75.0
 42
75.0
 43
75.0
 50
180.0
  0
MTEXT
  5
158D0
330
1529A
100
AcDbEntity
  8
寸法
 62
     7
 48
50.0
100
AcDbMText
 10
4612.313333192258
 20
6490.992719887093
 30
0.0
 40
90.0
 41
0.0
 71
     5
 72
     1
  1
\A1;2400 
  7
STYLE1
 73
     1
 44
1.0
1001
ACAD
1000
MTEXTBEGIN
1070
    73
1070
     1
1070
    44
1040
1.0
1070
    74
1070
     0
1000
MTEXTEND
  0
POINT
  5
158D1
330
1529A
100
AcDbEntity
  8
DEFPOINTS
 62
     0
 48
50.0
100
AcDbPoint
 10
4052.313333192258
 20
4411.814691298437
 30
-0.0000000000013153
  0
POINT
  5
158D2
330
1529A
100
AcDbEntity
  8
DEFPOINTS
 62
     0
 48
50.0
100
AcDbPoint
 10
5172.313333192258
 20
4436.625746804663
 30
-0.0000000000013153
  0
POINT
  5
158D3
330
1529A
100
AcDbEntity
  8
DEFPOINTS
 62
     0
 48
50.0
100
AcDbPoint
 10
5172.313333192258
 20
6415.983861619378
 30
0.0
  0
ENDBLK
  5
1529C
330
1529A
100
AcDbEntity
  8
0
 48
50.0
100
AcDbBlockEnd
  0
BLOCK
  5
153B4
330
153B3
100
AcDbEntity
  8
0
 48
50.0
100
AcDbBlockBegin
  2
*D33
 70
     1
 10
0.0
 20
0.0
 30
0.0
  3
*D33
  1

  0
LINE
  5
158D4
330
153B3
100
AcDbEntity
  8
寸法
 62
     0
 48
50.0
370
    -2
100
AcDbLine
 10
6452.313333192257
 20
4426.814691298438
 30
0.0
 11
6452.313333192257
 21
6460.983861619377
 31
0.0
  0
LINE
  5
158D5
330
153B3
100
AcDbEntity
  8
寸法
 62
     0
 48
50.0
370
    -2
100
AcDbLine
 10
6452.313333192257
 20
6415.983861619378
 30
0.0
 11
5332.313333192258
 21
6415.983861619378
 31
0.0
  0
INSERT
  5
158D6
330
153B3
100
AcDbEntity
  8
寸法
 62
     0
 48
50.0
370
    -2
100
AcDbBlockReference
  2
_DOTSMALL
 10
6452.313333192257
 20
6415.983861619378
 30
0.0
 41
75.0
 42
75.0
 43
75.0
  0
MTEXT
  5
158D7
330
153B3
100
AcDbEntity
  8
寸法
 62
     7
 48
50.0
100
AcDbMText
 10
5892.313333192259
 20
6490.992719887093
 30
0.0
 40
90.0
 41
0.0
 71
     5
 72
     1
  1
\A1;2400 
  7
STYLE1
 73
     1
 44
1.0
1001
ACAD
1000
MTEXTBEGIN
1070
    73
1070
     1
1070
    44
1040
1.0
1070
    74
1070
     0
1000
MTEXTEND
  0
POINT
  5
158D8
330
153B3
100
AcDbEntity
  8
DEFPOINTS
 62
     0
 48
50.0
100
AcDbPoint
 10
6452.313333192257
 20
4411.814691298437
 30
-0.0000000000013153
  0
POINT
  5
158D9
330
153B3
100
AcDbEntity
  8
DEFPOINTS
 62
     0
 48
50.0
100
AcDbPoint
 10
5332.313333192258
 20
4436.625746804663
 30
-0.0000000000013153
  0
POINT
  5
158DA
330
153B3
100
AcDbEntity
  8
DEFPOINTS
 62
     0
 48
50.0
100
AcDbPoint
 10
5332.313333192258
 20
6415.983861619378
 30
0.0
  0
ENDBLK
  5
153B5
330
153B3
100
AcDbEntity
  8
0
 48
50.0
100
AcDbBlockEnd
  0
ENDSEC
  0
SECTION
  2
ENTITIES
  0
MTEXT
  5
763F
330
747D
100
AcDbEntity
  8
0
100
AcDbMText
 10
302.846345836809
 20
280.1983726409901
 30
0.0
 40
3.5
 41
5.323721266742722
 71
     1
 72
     5
  1

  7
MSMINCHO
 73
     1
 44
1.0
1001
ACAD
1000
MTEXTBEGIN
1070
    73
1070
     1
1070
    44
1040
1.0
1070
    74
1070
     0
1000
MTEXTEND
  0
LINE
  5
10B56
330
747D
100
AcDbEntity
  8
補助
  6
PHANTOM
 62
   230
 48
50.0
100
AcDbLine
 10
105.0
 20
0.0
 30
0.0
 11
104.9999999999996
 21
8557.199999999999
 31
0.0
  0
LINE
  5
10B57
330
747D
100
AcDbEntity
  8
補助
  6
PHANTOM
 62
   230
 48
50.0
100
AcDbLine
 10
104.9999999999996
 20
8557.199999999999
 30
0.0
 11
12230.4
 21
8557.199999999999
 31
0.0
  0
LINE
  5
10B5E
330
747D
100
AcDbEntity
  8
補助
  6
PHANTOM
 62
   230
 48
50.0
100
AcDbLine
 10
12230.4
 20
8557.199999999999
 30
0.0
 11
12230.4
 21
900.0
 31
0.0
  0
LINE
  5
10B6D
330
747D
100
AcDbEntity
  8
補助
  6
PHANTOM
 62
   230
 48
50.0
100
AcDbLine
 10
9830.400000000002
 20
8557.199999999999
 30
0.0
 11
9830.400000000002
 21
3600.0
 31
0.0
  0
LINE
  5
10B6F
330
747D
100
AcDbEntity
  8
補助
  6
PHANTOM
 62
   230
 48
50.0
100
AcDbLine
 10
9830.400000000002
 20
3110.960973647383
 30
0.0
 11
12230.4
 21
3110.960973647383
 31
0.0
  0
LINE
  5
13125
330
747D
100
AcDbEntity
  8
補助
  6
PHANTOM
 62
   230
 48
50.0
100
AcDbLine
 10
11930.4
 20
8182.200000000003
 30
0.0
 11
11930.4
 21
6457.2
 31
0.0
  0
LINE
  5
13126
330
747D
100
AcDbEntity
  8
補助
  6
PHANTOM
 62
   230
 48
50.0
100
AcDbLine
 10
9380.400000000003
 20
8182.199999999999
 30
0.0
 11
9380.400000000003
 21
6457.2
 31
0.0
  0
LINE
  5
13127
330
747D
100
AcDbEntity
  8
補助
  6
PHANTOM
 62
   230
 48
50.0
100
AcDbLine
 10
9380.400000000003
 20
6457.2
 30
0.0
 11
11930.4
 21
6457.2
 31
0.0
  0
LINE
  5
13128
330
747D
100
AcDbEntity
  8
補助
  6
PHANTOM
 62
   230
 48
50.0
100
AcDbLine
 10
9380.400000000003
 20
8182.199999999999
 30
0.0
 11
11930.4
 21
8182.200000000003
 31
0.0
  0
LINE
  5
1399B
330
747D
100
AcDbEntity
  8
仕様書枠
  6
Continuous
 48
50.0
100
AcDbLine
 10
9830.4
 20
900.0000000000037
 30
0.0
 11
9830.4
 21
0.0
 31
0.0
  0
LINE
  5
1399C
330
747D
100
AcDbEntity
  8
仕様書枠
 48
50.0
100
AcDbLine
 10
12230.4
 20
900.0000000000037
 30
0.0
 11
12230.4
 21
0.0
 31
0.0
  0
LINE
  5
1399D
330
747D
100
AcDbEntity
  8
仕様書枠
 48
50.0
100
AcDbLine
 10
105.0
 20
0.0
 30
0.0
 11
12230.4
 21
0.0
 31
0.0
  0
LINE
  5
1399E
330
747D
100
AcDbEntity
  8
仕様書枠
 48
50.0
100
AcDbLine
 10
9830.4
 20
900.0000000000037
 30
0.0
 11
12230.4
 21
900.0000000000037
 31
0.0
  0
LINE
  5
1399F
330
747D
100
AcDbEntity
  8
文字
 62
     7
 48
50.0
100
AcDbLine
 10
9890.399999999999
 20
300.0
 30
0.0
 11
12170.4
 21
300.0
 31
0.0
  0
TEXT
  5
139A0
330
747D
100
AcDbEntity
  8
文字
 62
     7
 48
50.0
100
AcDbText
 10
9872.234292432679
 20
671.31795557246
 30
0.0
 40
150.0
  1
基 礎 図
  7
STYLE2
100
AcDbText
  0
TEXT
  5
139A1
330
747D
100
AcDbEntity
  8
文字
 62
     7
 48
50.0
100
AcDbText
 10
9901.077524988314
 20
357.9555495773529
 30
0.0
 40
120.0
  1
機種名
  7
STYLE2
100
AcDbText
  0
TEXT
  5
139A2
330
747D
100
AcDbEntity
  8
文字
 62
     7
 48
50.0
100
AcDbText
 10
9907.0540081629
 20
171.4076431926805
 30
0.0
 40
60.0
  1
○間口寸法は柱芯寸法です。
  7
STYLE2
100
AcDbText
  0
TEXT
  5
139A3
330
747D
100
AcDbEntity
  8
文字
 62
     7
 48
50.0
100
AcDbText
 10
9907.0540081629
 20
57.07076030736789
 30
0.0
 40
60.0
  1
○寒冷地等は、地域の実情に合わせた基礎にしてください。
  7
STYLE2
100
AcDbText
  0
LINE
  5
139A4
330
747D
100
AcDbEntity
  8
仕様書枠
 48
50.0
100
AcDbLine
 10
9830.4
 20
600.0000000000036
 30
0.0
 11
10688.4
 21
600.0000000000036
 31
0.0
  0
LINE
  5
139A5
330
747D
100
AcDbEntity
  8
仕様書枠
  6
Continuous
 48
50.0
100
AcDbLine
 10
10688.4
 20
900.0000000000037
 30
0.0
 11
10688.4
 21
600.0000000000036
 31
0.0
  0
TEXT
  5
139A6
330
747D
100
AcDbEntity
  8
文字
 62
     7
 48
50.0
100
AcDbText
 10
10951.9835159712
 20
362.922534743353
 30
0.0
 40
120.0
  1
BP-24VUL
  7
STYLE3
100
AcDbText
  0
TEXT
  5
139A7
330
747D
100
AcDbEntity
  8
文字
 62
     7
 48
50.0
100
AcDbText
 10
11138.71739229687
 20
628.6895453046927
 30
0.0
 40
75.0
  1
～一般型～
  7
STYLE2
100
AcDbText
  0
TEXT
  5
139A8
330
747D
100
AcDbEntity
  8
文字
 62
     7
 48
50.0
100
AcDbText
 10
10893.09887791649
 20
773.6682797184258
 30
0.0
 40
75.0
  1
             <縮尺> S=1/30
  7
STYLE2
100
AcDbText
  0
LINE
  5
145CB
330
747D
100
AcDbEntity
  8
細線
 48
50.0
100
AcDbLine
 10
9336.626820128731
 20
3438.001474330031
 30
0.0
 11
9329.928090317961
 21
3463.001474330031
 31
0.0
  0
LINE
  5
145CC
330
747D
100
AcDbEntity
  8
細線
 48
50.0
100
AcDbLine
 10
9213.364249898615
 20
3438.001474330031
 30
0.0
 11
9206.665520087845
 21
3463.001474330031
 31
0.0
  0
LINE
  5
145CD
330
747D
100
AcDbEntity
  8
細線
 48
50.0
100
AcDbLine
 10
9090.101679668558
 20
3438.001474330031
 30
0.0
 11
9083.402949857788
 21
3463.001474330031
 31
0.0
  0
LINE
  5
145CE
330
747D
100
AcDbEntity
  8
細線
 48
50.0
100
AcDbLine
 10
8966.839109438501
 20
3438.001474330031
 30
0.0
 11
8960.140379627729
 21
3463.001474330031
 31
0.0
  0
LINE
  5
145CF
330
747D
100
AcDbEntity
  8
細線
 48
50.0
100
AcDbLine
 10
9343.325549939502
 20
3513.001474330031
 30
0.0
 11
9336.626820128731
 21
3538.001474330031
 31
0.0
  0
LINE
  5
145D0
330
747D
100
AcDbEntity
  8
細線
 48
50.0
100
AcDbLine
 10
9220.062979709387
 20
3513.001474330031
 30
0.0
 11
9213.364249898615
 21
3538.001474330031
 31
0.0
  0
LINE
  5
145D1
330
747D
100
AcDbEntity
  8
細線
 48
50.0
100
AcDbLine
 10
8973.537839249273
 20
3513.001474330031
 30
0.0
 11
8966.839109438501
 21
3538.001474330031
 31
0.0
  0
LINE
  5
145D2
330
747D
100
AcDbEntity
  8
細線
 48
50.0
100
AcDbLine
 10
9096.800409479328
 20
3513.001474330031
 30
0.0
 11
9090.101679668558
 21
3538.001474330031
 31
0.0
  0
LINE
  5
145D3
330
747D
100
AcDbEntity
  8
U7
100
AcDbLine
 10
9264.013719272073
 20
3973.001474330031
 30
0.0
 11
10024.01371927207
 21
3973.001474330031
 31
0.0
  0
HATCH
  5
145D4
330
747D
100
AcDbEntity
  8
細線
 48
50.0
100
AcDbHatch
 10
0.0
 20
0.0
 30
0.0000000000013153
210
0.0
220
0.0
230
1.0
  2
PLAST
 70
     0
 71
     0
 91
       20
 92
        7
 72
     1
 73
     1
 93
       48
 10
9259.013719272072
 20
3978.001474330031
 42
-0.4142135623730951
 10
9264.013719272073
 20
3983.001474330031
 42
0.0
 10
9269.013719272072
 20
3983.001474330031
 42
0.0
 10
9269.013719272072
 20
4073.00147433003
 42
0.0
 10
9264.013719272073
 20
4073.00147433003
 42
-0.4142135623730951
 10
9259.013719272072
 20
4078.00147433003
 42
-0.4142135623730951
 10
9264.013719272073
 20
4083.001474330031
 42
0.0
 10
9424.463719272084
 20
4083.001474330031
 42
0.0
 10
9424.463719272084
 20
4138.001474330031
 42
0.0
 10
8944.013719272073
 20
4138.001474330031
 42
0.0
 10
8944.013719272073
 20
3588.001474330031
 42
0.0
 10
9424.463719272084
 20
3588.001474330031
 42
0.0
 10
9424.463719272084
 20
3618.001474330031
 42
0.0
 10
9369.013719272073
 20
3618.001474330031
 42
0.0
 10
9369.013719272073
 20
3628.001474330031
 42
0.0
 10
9424.463719272084
 20
3628.001474330031
 42
0.0
 10
9424.463719272084
 20
3653.001474330017
 42
0.0
 10
9128.294170834154
 20
3653.001474330017
 42
0.0
 10
9128.294170834154
 20
3663.001474330046
 42
0.0
 10
9144.013719272072
 20
3663.001474330031
 42
-0.4142135623730909
 10
9139.013719272073
 20
3668.001474330031
 42
-1.0
 10
9149.013719272073
 20
3668.001474330031
 42
-0.4142135623730992
 10
9144.013719272072
 20
3663.001474330031
 42
0.0
 10
9344.013719272073
 20
3663.001474330031
 42
-0.4142135623730951
 10
9339.013719272072
 20
3668.001474330031
 42
-1.0
 10
9349.013719272072
 20
3668.001474330031
 42
-0.4142135623730984
 10
9344.013719272073
 20
3663.001474330031
 42
0.0
 10
9424.463719272084
 20
3663.001474330031
 42
0.0
 10
9424.463719272084
 20
3773.001474330031
 42
0.0
 10
9282.013719272072
 20
3773.001474330031
 42
0.0
 10
9282.013719272072
 20
3743.001474330031
 42
-0.4142135623730951
 10
9239.013719272072
 20
3700.001474330031
 42
0.0
 10
9093.56371927206
 20
3700.001474330031
 42
0.0
 10
9093.56371927206
 20
3713.001474330031
 42
0.0
 10
9239.013719272072
 20
3713.001474330031
 42
0.4142135623730951
 10
9269.013719272072
 20
3743.001474330031
 42
0.0
 10
9269.013719272072
 20
3773.001474330031
 42
0.0
 10
9264.013719272073
 20
3773.001474330031
 42
-0.4142135623730951
 10
9259.013719272072
 20
3778.001474330031
 42
-0.4142135623730951
 10
9264.013719272073
 20
3783.001474330031
 42
0.0
 10
9269.013719272072
 20
3783.001474330031
 42
0.0
 10
9269.013719272072
 20
3873.001474330031
 42
0.0
 10
9264.013719272073
 20
3873.001474330031
 42
-0.4142135623730951
 10
9259.013719272072
 20
3878.00147433003
 42
-0.4142135623730951
 10
9264.013719272073
 20
3883.001474330031
 42
0.0
 10
9269.013719272072
 20
3883.001474330031
 42
0.0
 10
9269.013719272072
 20
3973.001474330031
 42
0.0
 10
9264.013719272073
 20
3973.001474330031
 42
-0.4142135623730951
 97
        0
 92
       23
 72
     0
 73
     1
 93
        4
 10
9424.463719272084
 20
3873.001474330031
 10
9282.013719272072
 20
3873.001474330031
 10
9282.013719272072
 20
3783.001474330031
 10
9424.463719272084
 20
3783.001474330031
 97
        0
 92
       23
 72
     0
 73
     1
 93
        4
 10
9424.463719272084
 20
3973.001474330031
 10
9282.013719272072
 20
3973.001474330031
 10
9282.013719272072
 20
3883.001474330031
 10
9424.463719272084
 20
3883.001474330031
 97
        0
 92
       23
 72
     0
 73
     1
 93
        4
 10
9424.463719272084
 20
4073.00147433003
 10
9282.013719272072
 20
4073.00147433003
 10
9282.013719272072
 20
3983.001474330031
 10
9424.463719272084
 20
3983.001474330031
 97
        0
 92
        7
 72
     0
 73
     1
 93
        4
 10
9644.013719272074
 20
4138.001474330031
 10
9513.563719272061
 20
4138.001474330031
 10
9513.563719272061
 20
4083.001474330031
 10
9644.013719272074
 20
4083.001474330031
 97
        0
 92
        7
 72
     0
 73
     1
 93
        4
 10
9644.013719272074
 20
4073.00147433003
 10
9513.563719272061
 20
4073.00147433003
 10
9513.563719272061
 20
3983.001474330031
 10
9644.013719272074
 20
3983.001474330031
 97
        0
 92
        7
 72
     0
 73
     1
 93
        4
 10
9644.013719272074
 20
3973.001474330031
 10
9513.563719272061
 20
3973.001474330031
 10
9513.563719272061
 20
3883.001474330031
 10
9644.013719272074
 20
3883.001474330031
 97
        0
 92
        7
 72
     0
 73
     1
 93
        4
 10
9644.013719272074
 20
3873.001474330031
 10
9513.563719272061
 20
3873.001474330031
 10
9513.563719272061
 20
3783.001474330031
 10
9644.013719272074
 20
3783.001474330031
 97
        0
 92
        7
 72
     1
 73
     1
 93
        8
 10
9644.013719272074
 20
3773.001474330031
 42
0.0
 10
9513.563719272061
 20
3773.001474330031
 42
0.0
 10
9513.563719272061
 20
3663.001474330046
 42
0.0
 10
9544.013719272072
 20
3663.001474330031
 42
-0.4142135623730918
 10
9539.013719272073
 20
3668.001474330031
 42
-1.0
 10
9549.013719272073
 20
3668.001474330031
 42
-0.4142135623730984
 10
9544.013719272072
 20
3663.001474330031
 42
0.0
 10
9644.013719272074
 20
3663.001474330031
 42
0.0
 97
        0
 92
        7
 72
     0
 73
     1
 93
        8
 10
9644.013719272074
 20
3653.001474330031
 10
9513.563719272061
 20
3653.001474330017
 10
9513.563719272061
 20
3628.001474330031
 10
9569.013719272073
 20
3628.001474330031
 10
9569.013719272073
 20
3618.001474330031
 10
9513.563719272061
 20
3618.001474330031
 10
9513.563719272061
 20
3588.001474330031
 10
9644.013719272074
 20
3588.001474330031
 97
        0
 92
        7
 72
     0
 73
     1
 93
        8
 10
9719.013719272073
 20
3628.001474330031
 10
9774.463719272084
 20
3628.001474330031
 10
9774.463719272084
 20
3653.001474330031
 10
9644.013719272074
 20
3653.001474330031
 10
9644.013719272074
 20
3588.001474330031
 10
9774.463719272084
 20
3588.001474330031
 10
9774.463719272084
 20
3618.001474330031
 10
9719.013719272073
 20
3618.001474330031
 97
        0
 92
        7
 72
     1
 73
     1
 93
        8
 10
9774.463719272084
 20
3773.001474330031
 42
0.0
 10
9644.013719272074
 20
3773.001474330031
 42
0.0
 10
9644.013719272074
 20
3663.001474330031
 42
0.0
 10
9744.013719272073
 20
3663.001474330031
 42
-0.4142135623730885
 10
9739.013719272072
 20
3668.001474330031
 42
-1.0
 10
9749.013719272072
 20
3668.001474330031
 42
-0.4142135623731017
 10
9744.013719272073
 20
3663.001474330031
 42
0.0
 10
9774.463719272084
 20
3663.001474330031
 42
0.0
 97
        0
 92
        7
 72
     0
 73
     1
 93
        4
 10
9774.463719272084
 20
3873.001474330031
 10
9644.013719272074
 20
3873.001474330031
 10
9644.013719272074
 20
3783.001474330031
 10
9774.463719272084
 20
3783.001474330031
 97
        0
 92
        7
 72
     0
 73
     1
 93
        4
 10
9774.463719272084
 20
3973.001474330031
 10
9644.013719272074
 20
3973.001474330031
 10
9644.013719272074
 20
3883.001474330031
 10
9774.463719272084
 20
3883.001474330031
 97
        0
 92
        7
 72
     0
 73
     1
 93
        4
 10
9774.463719272084
 20
4073.00147433003
 10
9644.013719272074
 20
4073.00147433003
 10
9644.013719272074
 20
3983.001474330031
 10
9774.463719272084
 20
3983.001474330031
 97
        0
 92
        7
 72
     0
 73
     1
 93
        4
 10
9774.463719272084
 20
4138.001474330031
 10
9644.013719272074
 20
4138.001474330031
 10
9644.013719272074
 20
4083.001474330031
 10
9774.463719272084
 20
4083.001474330031
 97
        0
 92
        7
 72
     1
 73
     1
 93
       48
 10
10344.01371927207
 20
4138.001474330031
 42
0.0
 10
9863.563719272061
 20
4138.001474330031
 42
0.0
 10
9863.563719272061
 20
4083.001474330031
 42
0.0
 10
10024.01371927207
 20
4083.001474330031
 42
-0.4142135623730951
 10
10029.01371927207
 20
4078.00147433003
 42
-0.4142135623730951
 10
10024.01371927207
 20
4073.00147433003
 42
0.0
 10
10019.01371927207
 20
4073.00147433003
 42
0.0
 10
10019.01371927207
 20
3983.001474330031
 42
0.0
 10
10024.01371927207
 20
3983.001474330031
 42
-0.4142135623730951
 10
10029.01371927207
 20
3978.001474330031
 42
-0.4142135623730951
 10
10024.01371927207
 20
3973.001474330031
 42
0.0
 10
10019.01371927207
 20
3973.001474330031
 42
0.0
 10
10019.01371927207
 20
3883.001474330031
 42
0.0
 10
10024.01371927207
 20
3883.001474330031
 42
-0.4142135623730951
 10
10029.01371927207
 20
3878.00147433003
 42
-0.4142135623730951
 10
10024.01371927207
 20
3873.001474330031
 42
0.0
 10
10019.01371927207
 20
3873.001474330031
 42
0.0
 10
10019.01371927207
 20
3783.001474330031
 42
0.0
 10
10024.01371927207
 20
3783.001474330031
 42
-0.4142135623730951
 10
10029.01371927207
 20
3778.001474330031
 42
-0.4142135623730951
 10
10024.01371927207
 20
3773.001474330031
 42
0.0
 10
10019.01371927207
 20
3773.001474330031
 42
0.0
 10
10019.01371927219
 20
3743.001474330031
 42
0.4142135623730951
 10
10049.01371927219
 20
3713.001474330031
 42
0.0
 10
10194.4637192722
 20
3713.001474330031
 42
0.0
 10
10194.4637192722
 20
3700.001474330031
 42
0.0
 10
10049.01371927219
 20
3700.001474330031
 42
-0.4142135623730951
 10
10006.01371927219
 20
3743.001474330031
 42
0.0
 10
10006.01371927219
 20
3773.001474330031
 42
0.0
 10
9863.563719272061
 20
3773.001474330031
 42
0.0
 10
9863.563719272061
 20
3663.001474330031
 42
0.0
 10
9944.013719272073
 20
3663.001474330031
 42
-0.4142135623730885
 10
9939.013719272073
 20
3668.001474330031
 42
-1.0
 10
9949.013719272073
 20
3668.001474330031
 42
-0.4142135623731017
 10
9944.013719272073
 20
3663.001474330031
 42
0.0
 10
10144.01371927207
 20
3663.001474330031
 42
-0.4142135623730951
 10
10139.01371927207
 20
3668.001474330031
 42
-1.0
 10
10149.01371927207
 20
3668.001474330031
 42
-0.4142135623731017
 10
10144.01371927207
 20
3663.001474330031
 42
0.0
 10
10159.73326770999
 20
3663.001474330031
 42
0.0
 10
10159.73326770999
 20
3653.001474330031
 42
0.0
 10
9863.563719272061
 20
3653.001474330031
 42
0.0
 10
9863.563719272061
 20
3628.001474330031
 42
0.0
 10
9919.013719272072
 20
3628.001474330031
 42
0.0
 10
9919.013719272072
 20
3618.001474330031
 42
0.0
 10
9863.563719272061
 20
3618.001474330031
 42
0.0
 10
9863.563719272061
 20
3588.001474330031
 42
0.0
 10
10344.01371927207
 20
3588.001474330031
 42
0.0
 97
        0
 92
       23
 72
     0
 73
     1
 93
        4
 10
10006.01371927207
 20
4073.00147433003
 10
9863.563719272061
 20
4073.00147433003
 10
9863.563719272061
 20
3983.001474330031
 10
10006.01371927207
 20
3983.001474330031
 97
        0
 92
       23
 72
     0
 73
     1
 93
        4
 10
10006.01371927207
 20
3973.001474330031
 10
9863.563719272061
 20
3973.001474330031
 10
9863.563719272061
 20
3883.001474330031
 10
10006.01371927207
 20
3883.001474330031
 97
        0
 92
       23
 72
     0
 73
     1
 93
        4
 10
10006.01371927207
 20
3873.001474330031
 10
9863.563719272061
 20
3873.001474330031
 10
9863.563719272061
 20
3783.001474330031
 10
10006.01371927207
 20
3783.001474330031
 97
        0
 75
     0
 76
     1
 52
135.0
 41
37.5
 77
     0
 78
     3
 53
135.0
 43
-262608.577850789
 44
111948.8315565
 45
-168.3798022700466
 46
-168.3798022700466
 79
     0
 53
135.0
 43
-262629.6253260727
 44
111927.7840812163
 45
-168.3798022700466
 46
-168.3798022700466
 79
     0
 53
135.0
 43
-262650.6728013565
 44
111906.7366059325
 45
-168.3798022700466
 46
-168.3798022700466
 79
     0
 47
2.128691110052188
 98
       20
 10
9133.037076738926
 20
3973.387434151551
 10
9371.558923360863
 20
3832.893943926439
 10
9375.818281927292
 20
3922.298835050697
 10
9369.429104508862
 20
4009.57532293309
 10
9586.654437435994
 20
4105.366472464203
 10
9595.173154568911
 20
4024.476033252376
 10
9595.173154568911
 20
3928.684883721293
 10
9595.173154568911
 20
3830.765121212087
 10
9599.432233997882
 20
3717.944438647395
 10
9614.339849411772
 20
3628.539547523109
 10
9665.451873071813
 20
3624.282111830634
 10
9697.396643614077
 20
3707.301164020584
 10
9720.822976160825
 20
3828.636508233966
 10
9716.563617594395
 20
3928.684883721293
 10
9703.785541894992
 20
4022.347420274254
 10
9722.952515875368
 20
4107.495085442297
 10
9933.788671384014
 20
4113.881134112893
 10
9938.0480299505
 20
4005.317887240646
 10
9961.474362497305
 20
3920.170222072604
 10
9959.344543645304
 20
3826.507895255844
1001
GradientColor1ACI
1070
     5
1001
GradientColor2ACI
1070
     2
1001
ACAD
1010
0.0
1020
0.0
1030
0.0
  0
LINE
  5
145D5
330
747D
100
AcDbEntity
  8
U7
100
AcDbLine
 10
9369.013719272073
 20
3628.001474330031
 30
0.0
 11
9369.013719272073
 21
3618.001474330031
 31
0.0
  0
LINE
  5
145D6
330
747D
100
AcDbEntity
  8
U7
100
AcDbLine
 10
9569.013719272073
 20
3628.001474330031
 30
0.0
 11
9569.013719272073
 21
3618.001474330031
 31
0.0
  0
LINE
  5
145D7
330
747D
100
AcDbEntity
  8
U7
100
AcDbLine
 10
9569.013719272073
 20
3618.001474330031
 30
0.0
 11
9369.013719272073
 21
3618.001474330031
 31
0.0
  0
LINE
  5
145D8
330
747D
100
AcDbEntity
  8
U7
100
AcDbLine
 10
9569.013719272073
 20
3628.001474330031
 30
0.0
 11
9369.013719272073
 21
3628.001474330031
 31
0.0
  0
CIRCLE
  5
145D9
330
747D
100
AcDbEntity
  8
U7
100
AcDbCircle
 10
9264.013719272073
 20
4078.00147433003
 30
0.0
 40
5.0
  0
CIRCLE
  5
145DA
330
747D
100
AcDbEntity
  8
U7
100
AcDbCircle
 10
10024.01371927207
 20
4078.00147433003
 30
0.0
 40
5.0
  0
LINE
  5
145DB
330
747D
100
AcDbEntity
  8
U7
100
AcDbLine
 10
9264.013719272073
 20
4073.00147433003
 30
0.0
 11
10024.01371927207
 21
4073.00147433003
 31
0.0
  0
LINE
  5
145DC
330
747D
100
AcDbEntity
  8
U7
100
AcDbLine
 10
9264.013719272073
 20
4083.001474330031
 30
0.0
 11
10024.01371927207
 21
4083.001474330031
 31
0.0
  0
CIRCLE
  5
145DD
330
747D
100
AcDbEntity
  8
U7
100
AcDbCircle
 10
9264.013719272073
 20
3978.001474330031
 30
0.0
 40
5.0
  0
CIRCLE
  5
145DE
330
747D
100
AcDbEntity
  8
U7
100
AcDbCircle
 10
10024.01371927207
 20
3978.001474330031
 30
0.0
 40
5.0
  0
CIRCLE
  5
145DF
330
747D
100
AcDbEntity
  8
U7
100
AcDbCircle
 10
9264.013719272073
 20
3878.00147433003
 30
0.0
 40
5.0
  0
LINE
  5
145E0
330
747D
100
AcDbEntity
  8
U7
100
AcDbLine
 10
9264.013719272073
 20
3983.001474330031
 30
0.0
 11
10024.01371927207
 21
3983.001474330031
 31
0.0
  0
CIRCLE
  5
145E1
330
747D
100
AcDbEntity
  8
U7
100
AcDbCircle
 10
10024.01371927207
 20
3878.00147433003
 30
0.0
 40
5.0
  0
LINE
  5
145E2
330
747D
100
AcDbEntity
  8
U7
100
AcDbLine
 10
9264.013719272073
 20
3873.001474330031
 30
0.0
 11
10024.01371927207
 21
3873.001474330031
 31
0.0
  0
LINE
  5
145E3
330
747D
100
AcDbEntity
  8
U7
100
AcDbLine
 10
9264.013719272073
 20
3883.001474330031
 30
0.0
 11
10024.01371927207
 21
3883.001474330031
 31
0.0
  0
CIRCLE
  5
145E4
330
747D
100
AcDbEntity
  8
U7
100
AcDbCircle
 10
10024.01371927207
 20
3778.001474330031
 30
0.0
 40
5.0
  0
CIRCLE
  5
145E5
330
747D
100
AcDbEntity
  8
U7
100
AcDbCircle
 10
9264.013719272073
 20
3778.001474330031
 30
0.0
 40
5.0
  0
LINE
  5
145E6
330
747D
100
AcDbEntity
  8
U7
100
AcDbLine
 10
9264.013719272073
 20
3783.001474330031
 30
0.0
 11
10024.01371927207
 21
3783.001474330031
 31
0.0
  0
LINE
  5
145E7
330
747D
100
AcDbEntity
  8
U7
100
AcDbLine
 10
9264.013719272073
 20
3773.001474330031
 30
0.0
 11
10024.01371927207
 21
3773.001474330031
 31
0.0
  0
LINE
  5
145E8
330
747D
100
AcDbEntity
  8
KIN-T
100
AcDbLine
 10
10194.4637192722
 20
3700.001474330031
 30
0.0
 11
10049.01371927219
 21
3700.001474330031
 31
0.0
  0
LINE
  5
145E9
330
747D
100
AcDbEntity
  8
KIN-T
100
AcDbLine
 10
10194.4637192722
 20
3713.001474330031
 30
0.0
 11
10194.4637192722
 21
3700.001474330031
 31
0.0
  0
LINE
  5
145EA
330
747D
100
AcDbEntity
  8
KIN-T
100
AcDbLine
 10
10006.01371927207
 20
4083.001474330031
 30
0.0
 11
10019.01371927207
 21
4083.001474330031
 31
0.0
  0
ARC
  5
145EB
330
747D
100
AcDbEntity
  8
KIN-T
100
AcDbCircle
 10
10049.01371927219
 20
3743.001474330031
 30
0.0
 40
43.0
100
AcDbArc
 50
180.0
 51
270.0
  0
ARC
  5
145EC
330
747D
100
AcDbEntity
  8
KIN-T
100
AcDbCircle
 10
10049.01371927219
 20
3743.001474330031
 30
0.0
 40
30.0
100
AcDbArc
 50
180.0
 51
270.0
  0
LINE
  5
145ED
330
747D
100
AcDbEntity
  8
KIN-T
100
AcDbLine
 10
10006.01371927207
 20
4083.001474330031
 30
0.0
 11
10006.01371927207
 21
3743.001474330031
 31
0.0
  0
LINE
  5
145EE
330
747D
100
AcDbEntity
  8
KIN-T
100
AcDbLine
 10
10019.01371927207
 20
4083.001474330031
 30
0.0
 11
10019.01371927207
 21
3743.001474330031
 31
0.0
  0
ARC
  5
145EF
330
747D
100
AcDbEntity
  8
KIN-T
100
AcDbCircle
 10
9239.013719272072
 20
3743.001474330031
 30
0.0
 40
43.0
100
AcDbArc
 50
270.0
 51
0.0
  0
LINE
  5
145F0
330
747D
100
AcDbEntity
  8
KIN-T
100
AcDbLine
 10
10194.4637192722
 20
3713.001474330031
 30
0.0
 11
10049.01371927219
 21
3713.001474330031
 31
0.0
  0
LINE
  5
145F1
330
747D
100
AcDbEntity
  8
KIN-T
100
AcDbLine
 10
9093.56371927206
 20
3713.001474330031
 30
0.0
 11
9093.56371927206
 21
3700.001474330031
 31
0.0
  0
LINE
  5
145F2
330
747D
100
AcDbEntity
  8
KIN-T
100
AcDbLine
 10
9093.56371927206
 20
3700.001474330031
 30
0.0
 11
9239.013719272072
 21
3700.001474330031
 31
0.0
  0
LINE
  5
145F3
330
747D
100
AcDbEntity
  8
KIN-T
100
AcDbLine
 10
9269.013719272072
 20
4083.001474330031
 30
0.0
 11
9282.013719272072
 21
4083.001474330031
 31
0.0
  0
ARC
  5
145F4
330
747D
100
AcDbEntity
  8
KIN-T
100
AcDbCircle
 10
9239.013719272072
 20
3743.001474330031
 30
0.0
 40
30.0
100
AcDbArc
 50
270.0
 51
0.0
  0
LINE
  5
145F5
330
747D
100
AcDbEntity
  8
KIN-T
100
AcDbLine
 10
9282.013719272072
 20
4083.001474330031
 30
0.0
 11
9282.013719272072
 21
3743.001474330031
 31
0.0
  0
LINE
  5
145F6
330
747D
100
AcDbEntity
  8
部品1
 48
50.0
100
AcDbLine
 10
9128.294170834154
 20
3663.001474330046
 30
0.0
 11
10159.73326770999
 21
3663.001474330031
 31
0.0
  0
LINE
  5
145F7
330
747D
100
AcDbEntity
  8
KIN-T
100
AcDbLine
 10
9269.013719272072
 20
4083.001474330031
 30
0.0
 11
9269.013719272072
 21
3743.001474330031
 31
0.0
  0
LINE
  5
145F8
330
747D
100
AcDbEntity
  8
KIN-T
100
AcDbLine
 10
9093.56371927206
 20
3713.001474330031
 30
0.0
 11
9239.013719272072
 21
3713.001474330031
 31
0.0
  0
CIRCLE
  5
145F9
330
747D
100
AcDbEntity
  8
部品1
 48
50.0
100
AcDbCircle
 10
10144.01371927207
 20
3668.001474330031
 30
0.0
 40
5.0
  0
LINE
  5
145FA
330
747D
100
AcDbEntity
  8
部品1
 48
50.0
100
AcDbLine
 10
10159.73326770999
 20
3663.001474330031
 30
0.0
 11
10159.73326770999
 21
3653.001474330031
 31
0.0
  0
CIRCLE
  5
145FB
330
747D
100
AcDbEntity
  8
部品1
 48
50.0
100
AcDbCircle
 10
9344.013719272073
 20
3668.001474330031
 30
0.0
 40
5.0
  0
CIRCLE
  5
145FC
330
747D
100
AcDbEntity
  8
部品1
 48
50.0
100
AcDbCircle
 10
9544.013719272072
 20
3668.001474330031
 30
0.0
 40
5.0
  0
CIRCLE
  5
145FD
330
747D
100
AcDbEntity
  8
部品1
 48
50.0
100
AcDbCircle
 10
9744.013719272073
 20
3668.001474330031
 30
0.0
 40
5.0
  0
CIRCLE
  5
145FE
330
747D
100
AcDbEntity
  8
部品1
 48
50.0
100
AcDbCircle
 10
9944.013719272073
 20
3668.001474330031
 30
0.0
 40
5.0
  0
LINE
  5
145FF
330
747D
100
AcDbEntity
  8
部品1
 48
50.0
100
AcDbLine
 10
9128.294170834154
 20
3653.001474330017
 30
0.0
 11
10159.73326770999
 21
3653.001474330031
 31
0.0
  0
HATCH
  5
14600
330
747D
100
AcDbEntity
  8
細線
 48
50.0
100
AcDbHatch
 10
0.0
 20
0.0
 30
0.0000000000013153
210
0.0
220
0.0
230
1.0
  2
PLAST
 70
     0
 71
     0
 91
        4
 92
        7
 72
     0
 73
     1
 93
        4
 10
9469.013719272073
 20
3588.001474330031
 10
8864.013719272072
 20
3588.001474330031
 10
8864.013719272072
 20
3538.001474330031
 10
9469.013719272073
 20
3538.001474330031
 97
        0
 92
        7
 72
     0
 73
     1
 93
        4
 10
9644.013719272074
 20
3588.001474330031
 10
9469.013719272073
 20
3588.001474330031
 10
9469.013719272073
 20
3538.001474330031
 10
9644.013719272074
 20
3538.001474330031
 97
        0
 92
        7
 72
     0
 73
     1
 93
        4
 10
9819.013719272073
 20
3588.001474330031
 10
9644.013719272074
 20
3588.001474330031
 10
9644.013719272074
 20
3538.001474330031
 10
9819.013719272073
 20
3538.001474330031
 97
        0
 92
        7
 72
     0
 73
     1
 93
        4
 10
10424.01371927207
 20
3588.001474330031
 10
9819.013719272073
 20
3588.001474330031
 10
9819.013719272073
 20
3538.001474330031
 10
10424.01371927207
 20
3538.001474330031
 97
        0
 75
     0
 76
     1
 52
45.0
 41
37.5
 77
     0
 78
     3
 53
45.0
 43
-262608.577850789
 44
111948.8315565
 45
-168.3798022700466
 46
168.3798022700466
 79
     0
 53
45.0
 43
-262629.6253260727
 44
111969.8790317838
 45
-168.3798022700466
 46
168.3798022700466
 79
     0
 53
45.0
 43
-262650.6728013565
 44
111990.9265070675
 45
-168.3798022700466
 46
168.3798022700466
 79
     0
 47
3.405378208606371
 98
        4
 10
9371.632336513924
 20
3553.313664357502
 10
9524.944122534623
 20
3563.529706287841
 10
9732.766709979653
 20
3553.313664357502
 10
9923.554375396081
 20
3556.718941755538
1001
GradientColor1ACI
1070
     5
1001
GradientColor2ACI
1070
     2
1001
ACAD
1010
0.0
1020
0.0
1030
0.0
  0
LINE
  5
14601
330
747D
100
AcDbEntity
  8
細線
 48
50.0
100
AcDbLine
 10
8953.441649816959
 20
3438.001474330031
 30
0.0000000000013153
 11
8980.236569060043
 21
3538.001474330002
 31
0.0000000000013153
1001
GradientColor1ACI
1070
     5
1001
GradientColor2ACI
1070
     2
1001
ACAD
1010
0.0
1020
0.0
1030
0.0
  0
LINE
  5
14602
330
747D
100
AcDbEntity
  8
細線
 48
50.0
100
AcDbLine
 10
9076.704220047075
 20
3438.001474330031
 30
0.0000000000013153
 11
9103.499139290157
 21
3538.001474330031
 31
0.0000000000013153
1001
GradientColor1ACI
1070
     5
1001
GradientColor2ACI
1070
     2
1001
ACAD
1010
0.0
1020
0.0
1030
0.0
  0
LINE
  5
14603
330
747D
100
AcDbEntity
  8
細線
 48
50.0
100
AcDbLine
 10
9199.966790277073
 20
3438.001474330031
 30
0.0000000000013153
 11
9226.761709520216
 21
3538.001474330031
 31
0.0000000000013153
1001
GradientColor1ACI
1070
     5
1001
GradientColor2ACI
1070
     2
1001
ACAD
1010
0.0
1020
0.0
1030
0.0
  0
LINE
  5
14604
330
747D
100
AcDbEntity
  8
細線
 48
50.0
100
AcDbLine
 10
9323.229360507189
 20
3438.001474330031
 30
0.0000000000013153
 11
9350.024279750272
 21
3538.001474330031
 31
0.0000000000013153
1001
GradientColor1ACI
1070
     5
1001
GradientColor2ACI
1070
     2
1001
ACAD
1010
0.0
1020
0.0
1030
0.0
  0
LINE
  5
14605
330
747D
100
AcDbEntity
  8
細線
 48
50.0
100
AcDbLine
 10
9446.491930737305
 20
3438.001474330031
 30
0.0000000000013153
 11
9473.286849980388
 21
3538.001474330031
 31
0.0000000000013153
1001
GradientColor1ACI
1070
     5
1001
GradientColor2ACI
1070
     2
1001
ACAD
1010
0.0
1020
0.0
1030
0.0
  0
LINE
  5
14606
330
747D
100
AcDbEntity
  8
細線
 48
50.0
100
AcDbLine
 10
9569.754500967304
 20
3438.001474330031
 30
0.0000000000013153
 11
9596.549420210445
 21
3538.001474330031
 31
0.0000000000013153
1001
GradientColor1ACI
1070
     5
1001
GradientColor2ACI
1070
     2
1001
ACAD
1010
0.0
1020
0.0
1030
0.0
  0
LINE
  5
14607
330
747D
100
AcDbEntity
  8
細線
 48
50.0
100
AcDbLine
 10
9693.017071197422
 20
3438.001474330031
 30
0.0000000000013153
 11
9719.811990440504
 21
3538.001474330031
 31
0.0000000000013153
1001
GradientColor1ACI
1070
     5
1001
GradientColor2ACI
1070
     2
1001
ACAD
1010
0.0
1020
0.0
1030
0.0
  0
LINE
  5
14608
330
747D
100
AcDbEntity
  8
細線
 48
50.0
100
AcDbLine
 10
9816.279641427536
 20
3438.001474330031
 30
0.0000000000013153
 11
9843.074560670618
 21
3538.001474330031
 31
0.0000000000013153
1001
GradientColor1ACI
1070
     5
1001
GradientColor2ACI
1070
     2
1001
ACAD
1010
0.0
1020
0.0
1030
0.0
  0
LINE
  5
14609
330
747D
100
AcDbEntity
  8
細線
 48
50.0
100
AcDbLine
 10
9939.542211657537
 20
3438.001474330046
 30
0.0000000000013153
 11
9966.337130900676
 21
3538.001474330031
 31
0.0000000000013153
1001
GradientColor1ACI
1070
     5
1001
GradientColor2ACI
1070
     2
1001
ACAD
1010
0.0
1020
0.0
1030
0.0
  0
LINE
  5
1460A
330
747D
100
AcDbEntity
  8
細線
 48
50.0
100
AcDbLine
 10
10062.80478188765
 20
3438.001474330031
 30
0.0000000000013153
 11
10089.59970113073
 21
3538.001474330046
 31
0.0000000000013153
1001
GradientColor1ACI
1070
     5
1001
GradientColor2ACI
1070
     2
1001
ACAD
1010
0.0
1020
0.0
1030
0.0
  0
LINE
  5
1460B
330
747D
100
AcDbEntity
  8
細線
 48
50.0
100
AcDbLine
 10
10186.06735211771
 20
3438.001474330046
 30
0.0000000000013153
 11
10212.86227136085
 21
3538.001474330031
 31
0.0000000000013153
1001
GradientColor1ACI
1070
     5
1001
GradientColor2ACI
1070
     2
1001
ACAD
1010
0.0
1020
0.0
1030
0.0
  0
LINE
  5
1460C
330
747D
100
AcDbEntity
  8
細線
 48
50.0
100
AcDbLine
 10
10309.32992234776
 20
3438.001474330031
 30
0.0000000000013153
 11
10336.12484159091
 21
3538.001474330031
 31
0.0000000000013153
1001
GradientColor1ACI
1070
     5
1001
GradientColor2ACI
1070
     2
1001
ACAD
1010
0.0
1020
0.0
1030
0.0
  0
LINE
  5
1460D
330
747D
100
AcDbEntity
  8
部品1
 48
50.0
100
AcDbLine
 10
10424.01371927207
 20
3538.001474330031
 30
0.0
 11
8864.013719272072
 21
3538.001474330031
 31
0.0
  0
LINE
  5
1460E
330
747D
100
AcDbEntity
  8
文字
 48
50.0
100
AcDbLine
 10
10061.60334544626
 20
2524.81360215825
 30
0.0
 11
10061.60334544626
 21
2301.68860215825
 31
0.0
  0
LINE
  5
1460F
330
747D
100
AcDbEntity
  8
文字
 48
50.0
100
AcDbLine
 10
9226.424093097886
 20
2524.81360215825
 30
0.0
 11
9226.424093097886
 21
2301.68860215825
 31
0.0
  0
TEXT
  5
14610
330
747D
100
AcDbEntity
  8
文字
 62
     7
 48
50.0
100
AcDbText
 10
9293.008900510583
 20
2359.172143131615
 30
0.0
 40
112.5
  1
A-A' 断面
  7
STYLE2
100
AcDbText
  0
LINE
  5
14611
330
747D
100
AcDbEntity
  8
文字
 48
50.0
100
AcDbLine
 10
9226.424093097886
 20
2301.68860215825
 30
0.0
 11
10061.60334544626
 21
2301.68860215825
 31
0.0
  0
LINE
  5
14612
330
747D
100
AcDbEntity
  8
文字
 48
50.0
100
AcDbLine
 10
9226.424093097886
 20
2524.81360215825
 30
0.0
 11
10061.60334544626
 21
2524.81360215825
 31
0.0
  0
LINE
  5
14613
330
747D
100
AcDbEntity
  8
部品1
 48
50.0
100
AcDbLine
 10
9513.563719272061
 20
3588.001474330031
 30
0.0
 11
9424.463719272084
 21
3588.001474330031
 31
0.0
  0
LINE
  5
14614
330
747D
100
AcDbEntity
  8
細線
 48
50.0
100
AcDbLine
 10
8497.898314125283
 20
4038.00147433006
 30
0.0000000000013153
 11
8524.693233368365
 21
4138.001474330045
 31
0.0000000000013153
1001
GradientColor1ACI
1070
     5
1001
GradientColor2ACI
1070
     2
1001
ACAD
1010
0.0
1020
0.0
1030
0.0
  0
LINE
  5
14615
330
747D
100
AcDbEntity
  8
細線
 48
50.0
100
AcDbLine
 10
8621.16088435534
 20
4038.001474330075
 30
0.0000000000013153
 11
8647.955803598422
 21
4138.001474330031
 31
0.0000000000013153
1001
GradientColor1ACI
1070
     5
1001
GradientColor2ACI
1070
     2
1001
ACAD
1010
0.0
1020
0.0
1030
0.0
  0
LINE
  5
14616
330
747D
100
AcDbEntity
  8
細線
 48
50.0
100
AcDbLine
 10
8744.423454585398
 20
4038.00147433006
 30
0.0000000000013153
 11
8771.218373828538
 21
4138.001474330031
 31
0.0000000000013153
1001
GradientColor1ACI
1070
     5
1001
GradientColor2ACI
1070
     2
1001
ACAD
1010
0.0
1020
0.0
1030
0.0
  0
LINE
  5
14617
330
747D
100
AcDbEntity
  8
細線
 48
50.0
100
AcDbLine
 10
8867.686024815514
 20
4038.001474330045
 30
0.0000000000013153
 11
8894.480944058596
 21
4138.001474330031
 31
0.0000000000013153
1001
GradientColor1ACI
1070
     5
1001
GradientColor2ACI
1070
     2
1001
ACAD
1010
0.0
1020
0.0
1030
0.0
  0
LINE
  5
14618
330
747D
100
AcDbEntity
  8
細線
 48
50.0
100
AcDbLine
 10
10346.83686757638
 20
4038.001474330001
 30
0.0000000000013153
 11
10373.63178681952
 21
4138.001474330031
 31
0.0000000000013153
1001
GradientColor1ACI
1070
     5
1001
GradientColor2ACI
1070
     2
1001
ACAD
1010
0.0
1020
0.0
1030
0.0
  0
LINE
  5
14619
330
747D
100
AcDbEntity
  8
細線
 48
50.0
100
AcDbLine
 10
10470.09943780643
 20
4038.001474330045
 30
0.0000000000013153
 11
10496.89435704957
 21
4138.001474330031
 31
0.0000000000013153
1001
GradientColor1ACI
1070
     5
1001
GradientColor2ACI
1070
     2
1001
ACAD
1010
0.0
1020
0.0
1030
0.0
  0
LINE
  5
1461A
330
747D
100
AcDbEntity
  8
細線
 48
50.0
100
AcDbLine
 10
10593.36200803655
 20
4038.00147433006
 30
0.0000000000013153
 11
10620.15692727963
 21
4138.001474330031
 31
0.0000000000013153
1001
GradientColor1ACI
1070
     5
1001
GradientColor2ACI
1070
     2
1001
ACAD
1010
0.0
1020
0.0
1030
0.0
  0
LINE
  5
1461B
330
747D
100
AcDbEntity
  8
細線
 48
50.0
100
AcDbLine
 10
10716.62457826661
 20
4038.001474330045
 30
0.0000000000013153
 11
10743.41949750975
 21
4138.001474330031
 31
0.0000000000013153
1001
GradientColor1ACI
1070
     5
1001
GradientColor2ACI
1070
     2
1001
ACAD
1010
0.0
1020
0.0
1030
0.0
  0
LINE
  5
1461C
330
747D
100
AcDbEntity
  8
細線
 48
50.0
100
AcDbLine
 10
10839.88714849666
 20
4038.00147433006
 30
0.0000000000013153
 11
10844.01371927207
 21
4053.402046124964
 31
0.0000000000013153
1001
GradientColor1ACI
1070
     5
1001
GradientColor2ACI
1070
     2
1001
ACAD
1010
0.0
1020
0.0
1030
0.0
  0
LINE
  5
1461D
330
747D
100
AcDbEntity
  8
部品1
 48
50.0
100
AcDbLine
 10
10344.01371927207
 20
3588.001474330031
 30
0.0
 11
10344.01371927207
 21
4138.001474330031
 31
0.0
  0
LINE
  5
1461E
330
747D
100
AcDbEntity
  8
センター
 48
10.0
100
AcDbLine
 10
9469.013719272073
 20
4662.474307185071
 30
0.0
 11
9469.013719272073
 21
3526.943642500152
 31
0.0
  0
LINE
  5
1461F
330
747D
100
AcDbEntity
  8
部品1
 48
50.0
100
AcDbLine
 10
8944.013719272073
 20
4138.001474330031
 30
0.0
 11
8944.013719272073
 21
3588.001474330031
 31
0.0
  0
HATCH
  5
14620
330
747D
100
AcDbEntity
  8
細線
 48
50.0
100
AcDbHatch
 10
0.0
 20
0.0
 30
0.0000000000013153
210
0.0
220
0.0
230
1.0
  2
PLAST
 70
     0
 71
     0
 91
        3
 92
        7
 72
     0
 73
     1
 93
        6
 10
9424.463719272084
 20
4252.001474330031
 10
9410.463719272085
 20
4252.001474330031
 10
9396.463719272084
 20
4238.00147433003
 10
8444.013719272014
 20
4238.00147433003
 10
8444.013719272073
 20
4138.001474330031
 10
9424.463719272084
 20
4138.001474330031
 97
        0
 92
        7
 72
     0
 73
     1
 93
        8
 10
9774.463719272084
 20
4252.001474330031
 10
9760.463719272085
 20
4252.001474330031
 10
9746.463719272085
 20
4238.001474330016
 10
9541.56371927206
 20
4238.00147433003
 10
9527.563719272119
 20
4252.001474330031
 10
9513.563719272061
 20
4252.001474330031
 10
9513.563719272061
 20
4138.001474330031
 10
9774.463719272084
 20
4138.001474330031
 97
        0
 92
        7
 72
     0
 73
     1
 93
        6
 10
10844.01371927213
 20
4238.00147433003
 10
9891.563719272062
 20
4238.00147433003
 10
9877.563719272119
 20
4252.001474330031
 10
9863.563719272061
 20
4252.001474330031
 10
9863.563719272061
 20
4138.001474330031
 10
10844.01371927213
 20
4138.001474330031
 97
        0
 75
     0
 76
     1
 52
45.0
 41
37.5
 77
     0
 78
     3
 53
45.0
 43
-262608.577850789
 44
111948.8315565
 45
-168.3798022700466
 46
168.3798022700466
 79
     0
 53
45.0
 43
-262629.6253260727
 44
111969.8790317838
 45
-168.3798022700466
 46
168.3798022700466
 79
     0
 53
45.0
 43
-262650.6728013565
 44
111990.9265070675
 45
-168.3798022700466
 46
168.3798022700466
 79
     0
 47
3.420167112779795
 98
        3
 10
8928.847742528102
 20
4199.779445241005
 10
9640.56593072464
 20
4175.838264549416
 10
10034.06406006639
 20
4186.098770560088
1001
GradientColor1ACI
1070
     5
1001
GradientColor2ACI
1070
     2
1001
ACAD
1010
0.0
1020
0.0
1030
0.0
  0
LINE
  5
14621
330
747D
100
AcDbEntity
  8
部品1
 48
50.0
100
AcDbLine
 10
9513.563719272061
 20
4583.934570274945
 30
0.0
 11
9513.563719272061
 21
3588.001474330031
 31
0.0
  0
LINE
  5
14622
330
747D
100
AcDbEntity
  8
部品1
 48
50.0
100
AcDbLine
 10
9424.463719272084
 20
4583.934570274945
 30
0.0
 11
9424.463719272084
 21
3588.001474330031
 31
0.0
  0
LINE
  5
14623
330
747D
100
AcDbEntity
  8
部品1
 48
50.0
100
AcDbLine
 10
10424.01371927207
 20
3588.001474330031
 30
0.0
 11
8864.013719272072
 21
3588.001474330031
 31
0.0
  0
LINE
  5
14624
330
747D
100
AcDbEntity
  8
部品1
 48
50.0
100
AcDbLine
 10
9746.463719272085
 20
4238.001474330016
 30
0.0
 11
9541.56371927206
 21
4238.00147433003
 31
0.0
  0
LINE
  5
14625
330
747D
100
AcDbEntity
  8
部品1
 48
50.0
100
AcDbLine
 10
9774.463719272084
 20
4138.001474330031
 30
0.0
 11
9513.563719272061
 21
4138.001474330031
 31
0.0
  0
LINE
  5
14626
330
747D
100
AcDbEntity
  8
部品1
 48
50.0
100
AcDbLine
 10
8944.013719272073
 20
4038.00147433003
 30
0.0
 11
8444.013719272073
 21
4038.00147433006
 31
0.0
  0
LINE
  5
14627
330
747D
100
AcDbEntity
  8
部品1
 48
50.0
100
AcDbLine
 10
10424.01371927207
 20
3438.001474330031
 30
0.0
 11
8864.013719272072
 21
3438.001474330031
 31
0.0
  0
LINE
  5
14628
330
747D
100
AcDbEntity
  8
部品1
 48
50.0
100
AcDbLine
 10
9410.463719272085
 20
4252.001474330031
 30
0.0
 11
9396.463719272084
 21
4238.00147433003
 31
0.0
  0
LINE
  5
14629
330
747D
100
AcDbEntity
  8
部品1
 48
50.0
100
AcDbLine
 10
9410.463719272085
 20
4252.001474330031
 30
0.0
 11
9424.463719272084
 21
4252.001474330031
 31
0.0
  0
LINE
  5
1462A
330
747D
100
AcDbEntity
  8
部品1
 48
50.0
100
AcDbLine
 10
9513.563719272061
 20
4252.001474330031
 30
0.0
 11
9527.563719272061
 21
4252.001474330031
 31
0.0
  0
LINE
  5
1462B
330
747D
100
AcDbEntity
  8
部品1
 48
50.0
100
AcDbLine
 10
9527.563719272119
 20
4252.001474330031
 30
0.0
 11
9541.56371927206
 21
4238.00147433003
 31
0.0
  0
LINE
  5
1462C
330
747D
100
AcDbEntity
  8
部品1
 48
50.0
100
AcDbLine
 10
9396.463719272084
 20
4238.00147433003
 30
0.0
 11
8444.013719272014
 21
4238.00147433003
 31
0.0
  0
LINE
  5
1462D
330
747D
100
AcDbEntity
  8
部品1
 48
50.0
100
AcDbLine
 10
9424.463719272084
 20
4138.001474330031
 30
0.0
 11
8444.013719272073
 21
4138.001474330031
 31
0.0
  0
LINE
  5
1462E
330
747D
100
AcDbEntity
  8
部品1
 48
50.0
100
AcDbLine
 10
10424.01371927207
 20
3588.001474330031
 30
0.0
 11
10424.01371927207
 21
3438.001474330031
 31
0.0
  0
LINE
  5
1462F
330
747D
100
AcDbEntity
  8
部品1
 48
50.0
100
AcDbLine
 10
8864.013719272072
 20
3588.001474330031
 30
0.0
 11
8864.013719272072
 21
3438.001474330031
 31
0.0
  0
MTEXT
  5
14653
330
747D
100
AcDbEntity
  8
寸法
 62
     7
 48
50.0
100
AcDbMText
 10
11364.93431108663
 20
4240.274201602751
 30
0.0
 40
100.0
 41
1.0
 71
     4
 72
     1
  1
▽G.L
  7
STYLE2
 73
     1
 44
1.0
1001
ACAD
1000
MTEXTBEGIN
1070
    73
1070
     1
1070
    44
1040
1.0
1070
    74
1070
     0
1000
MTEXTEND
  0
LINE
  5
14654
330
747D
100
AcDbEntity
  8
U7
100
AcDbLine
 10
9719.013719272073
 20
3628.001474330031
 30
0.0
 11
9719.013719272073
 21
3618.001474330031
 31
0.0
  0
LINE
  5
14655
330
747D
100
AcDbEntity
  8
センター
 48
10.0
100
AcDbLine
 10
9819.013719272073
 20
4662.474307185071
 30
0.0
 11
9819.013719272073
 21
3526.943642500152
 31
0.0
  0
LINE
  5
14656
330
747D
100
AcDbEntity
  8
部品1
 48
50.0
100
AcDbLine
 10
9774.463719272084
 20
4583.934570274945
 30
0.0
 11
9774.463719272084
 21
3588.001474330031
 31
0.0
  0
LINE
  5
14657
330
747D
100
AcDbEntity
  8
部品1
 48
50.0
100
AcDbLine
 10
9863.563719272061
 20
4252.001474330031
 30
0.0
 11
9877.56371927206
 21
4252.001474330031
 31
0.0
  0
LINE
  5
14658
330
747D
100
AcDbEntity
  8
部品1
 48
50.0
100
AcDbLine
 10
9891.563719272062
 20
4238.00147433003
 30
0.0
 11
10844.01371927213
 21
4238.00147433003
 31
0.0
  0
LINE
  5
14659
330
747D
100
AcDbEntity
  8
部品1
 48
50.0
100
AcDbLine
 10
9863.563719272061
 20
4138.001474330031
 30
0.0
 11
10844.01371927207
 21
4138.001474330031
 31
0.0
  0
CIRCLE
  5
1465A
330
747D
100
AcDbEntity
  8
部品1
 48
50.0
100
AcDbCircle
 10
9144.013719272072
 20
3668.001474330031
 30
0.0
 40
5.0
  0
LINE
  5
1465B
330
747D
100
AcDbEntity
  8
Ｇ．Ｌ
 48
50.0
100
AcDbLine
 10
10844.01371927207
 20
4188.001474330031
 30
0.0
 11
11898.12766977687
 21
4188.001474330031
 31
0.0
  0
LINE
  5
1465C
330
747D
100
AcDbEntity
  8
部品1
 48
50.0
100
AcDbLine
 10
9863.563719272061
 20
4583.934570274945
 30
0.0
 11
9863.563719272061
 21
3588.001474330031
 31
0.0
  0
LINE
  5
1465D
330
747D
100
AcDbEntity
  8
U7
100
AcDbLine
 10
9919.013719272072
 20
3628.001474330031
 30
0.0
 11
9719.013719272073
 21
3628.001474330031
 31
0.0
  0
LINE
  5
1465E
330
747D
100
AcDbEntity
  8
U7
100
AcDbLine
 10
9919.013719272072
 20
3628.001474330031
 30
0.0
 11
9919.013719272072
 21
3618.001474330031
 31
0.0
  0
LINE
  5
1465F
330
747D
100
AcDbEntity
  8
部品1
 48
50.0
100
AcDbLine
 10
9760.463719272085
 20
4252.001474330031
 30
0.0
 11
9746.463719272085
 21
4238.00147433003
 31
0.0
  0
LINE
  5
14660
330
747D
100
AcDbEntity
  8
部品1
 48
50.0
100
AcDbLine
 10
9877.563719272119
 20
4252.001474330031
 30
0.0
 11
9891.563719272062
 21
4238.00147433003
 31
0.0
  0
LINE
  5
14661
330
747D
100
AcDbEntity
  8
U7
100
AcDbLine
 10
9919.013719272072
 20
3618.001474330031
 30
0.0
 11
9719.013719272073
 21
3618.001474330031
 31
0.0
  0
LINE
  5
14662
330
747D
100
AcDbEntity
  8
部品1
 48
50.0
100
AcDbLine
 10
9760.463719272085
 20
4252.001474330031
 30
0.0
 11
9774.463719272084
 21
4252.001474330031
 31
0.0
  0
LINE
  5
14663
330
747D
100
AcDbEntity
  8
部品1
 48
50.0
100
AcDbLine
 10
10344.01371927207
 20
4038.00147433003
 30
0.0
 11
10844.01371927207
 21
4038.00147433006
 31
0.0
  0
LINE
  5
14664
330
747D
100
AcDbEntity
  8
部品1
 48
50.0
100
AcDbLine
 10
9128.294170834154
 20
3663.001474330031
 30
0.0
 11
9128.294170834154
 21
3653.001474330031
 31
0.0
  0
LINE
  5
14665
330
747D
100
AcDbEntity
  8
細線
 48
50.0
100
AcDbLine
 10
9459.889390358847
 20
3438.001474330031
 30
0.0
 11
9453.190660548077
 21
3463.001474330031
 31
0.0
  0
LINE
  5
14666
330
747D
100
AcDbEntity
  8
細線
 48
50.0
100
AcDbLine
 10
9466.588120169618
 20
3513.001474330031
 30
0.0
 11
9459.889390358847
 21
3538.001474330031
 31
0.0
  0
LINE
  5
14667
330
747D
100
AcDbEntity
  8
細線
 48
50.0
100
AcDbLine
 10
9583.151960588905
 20
3438.001474330031
 30
0.0
 11
9576.453230778133
 21
3463.001474330031
 31
0.0
  0
LINE
  5
14668
330
747D
100
AcDbEntity
  8
細線
 48
50.0
100
AcDbLine
 10
9589.850690399675
 20
3513.001474330031
 30
0.0
 11
9583.151960588905
 21
3538.001474330031
 31
0.0
  0
LINE
  5
14669
330
747D
100
AcDbEntity
  8
細線
 48
50.0
100
AcDbLine
 10
9706.414530818962
 20
3438.001474330031
 30
0.0
 11
9699.715801008192
 21
3463.001474330031
 31
0.0
  0
LINE
  5
1466A
330
747D
100
AcDbEntity
  8
細線
 48
50.0
100
AcDbLine
 10
9713.113260629732
 20
3513.001474330031
 30
0.0
 11
9706.414530818962
 21
3538.001474330031
 31
0.0
  0
LINE
  5
1466B
330
747D
100
AcDbEntity
  8
細線
 48
50.0
100
AcDbLine
 10
9829.677101049078
 20
3438.001474330031
 30
0.0
 11
9822.978371238306
 21
3463.001474330031
 31
0.0
  0
LINE
  5
1466C
330
747D
100
AcDbEntity
  8
細線
 48
50.0
100
AcDbLine
 10
9836.375830859848
 20
3513.001474330031
 30
0.0
 11
9829.677101049078
 21
3538.001474330031
 31
0.0
  0
LINE
  5
1466D
330
747D
100
AcDbEntity
  8
細線
 48
50.0
100
AcDbLine
 10
9952.939671279136
 20
3438.001474330031
 30
0.0
 11
9946.240941468365
 21
3463.001474330031
 31
0.0
  0
LINE
  5
1466E
330
747D
100
AcDbEntity
  8
細線
 48
50.0
100
AcDbLine
 10
9959.638401089906
 20
3513.001474330031
 30
0.0
 11
9952.939671279136
 21
3538.001474330031
 31
0.0
  0
LINE
  5
1466F
330
747D
100
AcDbEntity
  8
細線
 48
50.0
100
AcDbLine
 10
10076.20224150919
 20
3438.001474330031
 30
-0.0000000000013153
 11
10069.50351169842
 21
3463.001474330031
 31
-0.0000000000013153
  0
LINE
  5
14670
330
747D
100
AcDbEntity
  8
細線
 48
50.0
100
AcDbLine
 10
10082.90097131996
 20
3513.001474330031
 30
-0.0000000000013153
 11
10076.20224150919
 21
3538.001474330031
 31
-0.0000000000013153
  0
LINE
  5
14671
330
747D
100
AcDbEntity
  8
細線
 48
50.0
100
AcDbLine
 10
10199.46481173931
 20
3438.001474330031
 30
0.0
 11
10192.76608192853
 21
3463.001474330031
 31
0.0
  0
LINE
  5
14672
330
747D
100
AcDbEntity
  8
細線
 48
50.0
100
AcDbLine
 10
10206.16354155008
 20
3513.001474330031
 30
0.0
 11
10199.46481173931
 21
3538.001474330031
 31
0.0
  0
LINE
  5
14673
330
747D
100
AcDbEntity
  8
細線
 48
50.0
100
AcDbLine
 10
10322.72738196936
 20
3438.001474330031
 30
0.0
 11
10316.02865215859
 21
3463.001474330031
 31
0.0
  0
LINE
  5
14674
330
747D
100
AcDbEntity
  8
細線
 48
50.0
100
AcDbLine
 10
10329.42611178013
 20
3513.001474330031
 30
0.0
 11
10322.72738196936
 21
3538.001474330031
 31
0.0
  0
LINE
  5
14675
330
747D
100
AcDbEntity
  8
細線
 48
50.0
100
AcDbLine
 10
8511.295773746825
 20
4038.00147433006
 30
-0.0000000000013153
 11
8504.597043936053
 21
4063.00147433006
 31
-0.0000000000013153
  0
LINE
  5
14676
330
747D
100
AcDbEntity
  8
細線
 48
50.0
100
AcDbLine
 10
8517.994503557595
 20
4113.00147433006
 30
-0.0000000000013153
 11
8511.295773746825
 21
4138.001474330059
 31
-0.0000000000013153
  0
LINE
  5
14677
330
747D
100
AcDbEntity
  8
細線
 48
50.0
100
AcDbLine
 10
8634.558343976882
 20
4038.001474330045
 30
-0.0000000000013153
 11
8627.85961416611
 21
4063.001474330046
 31
-0.0000000000013153
  0
LINE
  5
14678
330
747D
100
AcDbEntity
  8
細線
 48
50.0
100
AcDbLine
 10
8641.257073787652
 20
4113.001474330046
 30
-0.0000000000013153
 11
8634.558343976882
 21
4138.001474330045
 31
-0.0000000000013153
  0
LINE
  5
14679
330
747D
100
AcDbEntity
  8
細線
 48
50.0
100
AcDbLine
 10
8757.820914206998
 20
4038.001474330045
 30
-0.0000000000013153
 11
8751.122184396228
 21
4063.001474330046
 31
-0.0000000000013153
  0
LINE
  5
1467A
330
747D
100
AcDbEntity
  8
細線
 48
50.0
100
AcDbLine
 10
8764.519644017768
 20
4113.001474330046
 30
-0.0000000000013153
 11
8757.820914206998
 21
4138.001474330045
 31
-0.0000000000013153
  0
LINE
  5
1467B
330
747D
100
AcDbEntity
  8
細線
 48
50.0
100
AcDbLine
 10
8881.083484437054
 20
4038.001474330045
 30
-0.0000000000013153
 11
8874.384754626284
 21
4063.001474330046
 31
-0.0000000000013153
  0
LINE
  5
1467C
330
747D
100
AcDbEntity
  8
細線
 48
50.0
100
AcDbLine
 10
8887.782214247826
 20
4113.001474330046
 30
-0.0000000000013153
 11
8881.083484437054
 21
4138.001474330045
 31
-0.0000000000013153
  0
LINE
  5
1467D
330
747D
100
AcDbEntity
  8
細線
 48
50.0
100
AcDbLine
 10
10360.23432719797
 20
4038.001474330045
 30
-0.0000000000013153
 11
10353.5355973872
 21
4063.001474330046
 31
-0.0000000000013153
  0
LINE
  5
1467E
330
747D
100
AcDbEntity
  8
細線
 48
50.0
100
AcDbLine
 10
10366.93305700875
 20
4113.001474330046
 30
-0.0000000000013153
 11
10360.23432719797
 21
4138.001474330045
 31
-0.0000000000013153
  0
LINE
  5
1467F
330
747D
100
AcDbEntity
  8
細線
 48
50.0
100
AcDbLine
 10
10483.49689742803
 20
4038.001474330045
 30
-0.0000000000013153
 11
10476.79816761726
 21
4063.001474330046
 31
-0.0000000000013153
  0
LINE
  5
14680
330
747D
100
AcDbEntity
  8
細線
 48
50.0
100
AcDbLine
 10
10490.1956272388
 20
4113.001474330046
 30
-0.0000000000013153
 11
10483.49689742803
 21
4138.001474330045
 31
-0.0000000000013153
  0
LINE
  5
14681
330
747D
100
AcDbEntity
  8
細線
 48
50.0
100
AcDbLine
 10
10606.75946765809
 20
4038.001474330045
 30
-0.0000000000013153
 11
10600.06073784732
 21
4063.001474330046
 31
-0.0000000000013153
  0
LINE
  5
14682
330
747D
100
AcDbEntity
  8
細線
 48
50.0
100
AcDbLine
 10
10613.45819746886
 20
4113.001474330046
 30
-0.0000000000013153
 11
10606.75946765809
 21
4138.001474330045
 31
-0.0000000000013153
  0
LINE
  5
14683
330
747D
100
AcDbEntity
  8
細線
 48
50.0
100
AcDbLine
 10
10730.0220378882
 20
4038.001474330045
 30
-0.0000000000013153
 11
10723.32330807743
 21
4063.001474330046
 31
-0.0000000000013153
  0
LINE
  5
14684
330
747D
100
AcDbEntity
  8
細線
 48
50.0
100
AcDbLine
 10
10736.72076769898
 20
4113.001474330046
 30
-0.0000000000013153
 11
10730.0220378882
 21
4138.001474330045
 31
-0.0000000000013153
  0
MTEXT
  5
14685
330
747D
100
AcDbEntity
  8
寸法
 62
     7
 48
50.0
100
AcDbMText
 10
10841.47057099591
 20
4290.274201602751
 30
0.0
 40
100.0
 41
1.0
 71
     5
 72
     1
  1
▽Ｆ.L
  7
STYLE2
 73
     1
 44
1.0
1001
ACAD
1000
MTEXTBEGIN
1070
    73
1070
     1
1070
    44
1040
1.0
1070
    74
1070
     0
1000
MTEXTEND
  0
LINE
  5
14686
330
747D
100
AcDbEntity
  8
寸法
 48
50.0
100
AcDbLine
 10
8677.334443147906
 20
4312.608890532199
 30
0.0
 11
8745.985661013023
 21
4331.003928918569
 31
0.0
  0
LINE
  5
14687
330
747D
100
AcDbEntity
  8
寸法
 48
50.0
100
AcDbLine
 10
8677.334443147906
 20
4312.608890532199
 30
0.0
 11
9306.58693873571
 21
4312.608890532199
 31
0.0
  0
LINE
  5
14688
330
747D
100
AcDbEntity
  8
寸法
 48
50.0
100
AcDbLine
 10
8677.334443147906
 20
4312.608890532199
 30
0.0
 11
8745.985661013023
 21
4294.213852145815
 31
0.0
  0
TEXT
  5
14689
330
747D
100
AcDbEntity
  8
寸法
 62
     7
 48
50.0
100
AcDbText
 10
8775.567884147546
 20
4497.995926174179
 30
0.0
 40
90.0
  1
水勾配
 41
0.8
  7
STYLE1
100
AcDbText
  0
TEXT
  5
1468A
330
747D
100
AcDbEntity
  8
寸法
 62
     7
 48
50.0
100
AcDbText
 10
8742.304391176178
 20
4349.657414052086
 30
0.0
 40
90.0
  1
１／１００
 41
0.8
  7
STYLE1
100
AcDbText
  0
LINE
  5
1468B
330
747D
100
AcDbEntity
  8
寸法
 48
50.0
100
AcDbLine
 10
10610.69299539624
 20
4312.608890532199
 30
0.0
 11
10542.04177753112
 21
4331.003928918569
 31
0.0
  0
LINE
  5
1468C
330
747D
100
AcDbEntity
  8
寸法
 48
50.0
100
AcDbLine
 10
10610.69299539624
 20
4312.608890532199
 30
0.0
 11
9981.440499808435
 21
4312.608890532199
 31
0.0
  0
LINE
  5
1468D
330
747D
100
AcDbEntity
  8
寸法
 48
50.0
100
AcDbLine
 10
10610.69299539624
 20
4312.608890532199
 30
0.0
 11
10542.04177753112
 21
4294.213852145815
 31
0.0
  0
TEXT
  5
1468E
330
747D
100
AcDbEntity
  8
寸法
 62
     7
 48
50.0
100
AcDbText
 10
10079.67394080807
 20
4497.995926174179
 30
0.0
 40
90.0
  1
水勾配
 41
0.8
  7
STYLE1
100
AcDbText
  0
TEXT
  5
1468F
330
747D
100
AcDbEntity
  8
寸法
 62
     7
 48
50.0
100
AcDbText
 10
10046.41044783671
 20
4349.657414052086
 30
0.0
 40
90.0
  1
１／１００
 41
0.8
  7
STYLE1
100
AcDbText
  0
DIMENSION
  5
14690
330
747D
100
AcDbEntity
  8
寸法
 48
50.0
100
AcDbDimension
  2
*D2
 10
8293.432592170111
 20
4238.00147433003
 30
0.0
 11
8293.432592170109
 21
4415.036907400939
 31
0.0
 70
   160
 71
     5
 42
100.0
  3
INABA_S30G
100
AcDbAlignedDimension
 13
8444.013719272014
 23
4138.001474330031
 33
0.0
 14
8444.013719272014
 24
4238.00147433003
 34
0.0
 50
90.0
100
AcDbRotatedDimension
  0
DIMENSION
  5
14691
330
747D
100
AcDbEntity
  8
寸法
 48
50.0
100
AcDbDimension
  2
*D3
 10
8293.432592170109
 20
4038.00147433003
 30
0.0
 11
8293.432592170109
 21
3860.966041259166
 31
0.0
 70
   160
 71
     5
 42
100.0
  3
INABA_S30G
100
AcDbAlignedDimension
 13
8444.013719272014
 23
4138.001474330031
 33
0.0
 14
8444.013719272014
 24
4038.00147433003
 34
0.0
 50
90.0
100
AcDbRotatedDimension
  0
DIMENSION
  5
14692
330
747D
100
AcDbEntity
  8
寸法
 48
50.0
100
AcDbDimension
  2
*D4
 10
9469.013719272073
 20
3146.384844685996
 30
0.0
 11
9206.513719272072
 21
3221.393702953712
 31
0.0
 70
    32
 71
     5
 42
525.0
  3
INABA_S30G
100
AcDbAlignedDimension
 13
8944.013719272073
 23
3588.001474330031
 33
0.0
 14
9469.013719272073
 24
3526.943642500152
 34
0.0
100
AcDbRotatedDimension
  0
DIMENSION
  5
14693
330
747D
100
AcDbEntity
  8
寸法
 48
50.0
100
AcDbDimension
  2
*D5
 10
8944.013719272073
 20
2916.299283597244
 30
0.0
 11
9644.013719272074
 21
2991.299283597244
 31
0.0
 70
    32
 71
     5
 42
1400.0
  3
INABA_S30G
100
AcDbAlignedDimension
 13
10344.01371927207
 23
3588.001474330031
 33
0.0
 14
8944.013719272073
 24
3588.001474330031
 34
0.0
100
AcDbRotatedDimension
  0
DIMENSION
  5
14694
330
747D
100
AcDbEntity
  8
寸法
 48
50.0
100
AcDbDimension
  2
*D6
 10
9819.013719272073
 20
3146.384844685996
 30
0.0
 11
9644.013719272074
 21
3221.384844685996
 31
0.0
 70
    32
 71
     5
 42
350.0
  3
INABA_S30G
100
AcDbAlignedDimension
 13
9469.013719272073
 23
3526.943642500152
 33
0.0
 14
9819.013719272073
 24
3526.943642500152
 34
0.0
100
AcDbRotatedDimension
  0
DIMENSION
  5
14695
330
747D
100
AcDbEntity
  8
寸法
 48
50.0
100
AcDbDimension
  2
*D7
 10
9819.013719272073
 20
3146.384844685996
 30
0.0
 11
10081.51371927207
 21
3221.393702953712
 31
0.0
 70
    32
 71
     5
 42
525.0
  3
INABA_S30G
100
AcDbAlignedDimension
 13
10344.01371927207
 23
3588.001474330031
 33
0.0
 14
9819.013719272073
 24
3526.943642500152
 34
0.0
 50
180.0
100
AcDbRotatedDimension
  0
DIMENSION
  5
14696
330
747D
100
AcDbEntity
  8
寸法
 48
50.0
100
AcDbDimension
  2
*D8
 10
11136.4550838728
 20
3588.001474330031
 30
0.0
 11
11061.4550838728
 21
3888.001474330033
 31
0.0
 70
    32
 71
     5
 42
600.0000000000004
  3
INABA_S30G
100
AcDbAlignedDimension
 13
10908.81159683558
 23
4188.001474330031
 33
0.0
 14
10424.01371927207
 24
3588.001474330031
 34
0.0
 50
90.0
100
AcDbRotatedDimension
  0
DIMENSION
  5
14697
330
747D
100
AcDbEntity
  8
寸法
 48
50.0
100
AcDbDimension
  2
*D9
 10
11136.4550838728
 20
4238.00147433003
 30
0.0
 11
11136.4550838728
 21
4467.53690740094
 31
0.0
 70
   160
 71
     5
 42
50.0
  3
INABA_S30G
100
AcDbAlignedDimension
 13
10844.01371927207
 23
4188.001474330031
 33
0.0
 14
10844.01371927213
 24
4238.00147433003
 34
0.0
 50
90.0
100
AcDbRotatedDimension
  0
DIMENSION
  5
14698
330
747D
100
AcDbEntity
  8
寸法
 48
50.0
100
AcDbDimension
  2
*D10
 10
11136.4550838728
 20
3538.001474330031
 30
0.0
 11
11136.4550838728
 21
3308.466041259166
 31
0.0
 70
   160
 71
     5
 42
50.0
  3
INABA_S30G
100
AcDbAlignedDimension
 13
10424.01371927207
 23
3588.001474330031
 33
0.0
 14
10424.01371927207
 24
3538.001474330031
 34
0.0
 50
90.0
100
AcDbRotatedDimension
  0
TEXT
  5
14699
330
747D
100
AcDbEntity
  8
寸法
 62
     7
 48
50.0
100
AcDbText
 10
10430.7996923163
 20
3737.055886765015
 30
0.0
 40
90.0
  1
主筋4-D13
  7
STYLE1
100
AcDbText
  0
LINE
  5
1469A
330
747D
100
AcDbEntity
  8
寸法
 48
50.0
100
AcDbLine
 10
10393.05432623412
 20
3712.049029212624
 30
0.0
 11
11013.2687817013
 21
3712.049029212624
 31
0.0
  0
LINE
  5
1469B
330
747D
100
AcDbEntity
  8
寸法
 48
50.0
100
AcDbLine
 10
10393.05432623412
 20
3712.049029212624
 30
0.0
 11
10019.01371927207
 21
3928.001474330031
 31
0.0
  0
LWPOLYLINE
  5
1469C
330
747D
100
AcDbEntity
  8
寸法
 48
5.0
100
AcDbPolyline
 90
        3
 70
     0
 43
0.0
 10
9144.013719272072
 20
3668.001474330031
 10
8748.362774836394
 20
3272.350529894396
 10
7830.853219691459
 20
3272.350529894396
1001
ACAD
1000
DSTYLE
1002
{
1070
   341
1005
0
1002
}
  0
TEXT
  5
1469D
330
747D
100
AcDbEntity
  8
寸法
 62
     7
100
AcDbText
 10
7835.989657494792
 20
3292.871534892755
 30
-0.0000000000026306
 40
90.0
  1
4-D10X6-D10以上
  7
STYLE1
100
AcDbText
  0
TEXT
  5
1469E
330
747D
100
AcDbEntity
  8
寸法
 62
     7
100
AcDbText
 10
7835.989657494792
 20
3407.344455617382
 30
-0.0000000000026306
 40
90.0
  1
ベース筋
  7
STYLE1
100
AcDbText
  0
LINE
  5
1469F
330
747D
100
AcDbEntity
  8
寸法
 48
50.0
100
AcDbLine
 10
9314.742406362347
 20
3778.001474330031
 30
0.0
 11
8600.498897959218
 21
3063.7579659269
 31
0.0
  0
LINE
  5
146A0
330
747D
100
AcDbEntity
  8
寸法
 48
50.0
100
AcDbLine
 10
8600.498897959218
 20
3063.7579659269
 30
0.0
 11
7910.104919258535
 21
3063.7579659269
 31
0.0
  0
TEXT
  5
146A1
330
747D
100
AcDbEntity
  8
寸法
 62
     7
 48
50.0
100
AcDbText
 10
7928.557506623125
 20
3078.833883754753
 30
0.0
 40
90.0
  1
帯筋D10＠100
  7
STYLE1
100
AcDbText
  0
LWPOLYLINE
  5
146A2
330
747D
100
AcDbEntity
  8
寸法
 48
50.0
100
AcDbPolyline
 90
        3
 70
     0
 43
0.0
 10
9819.013719272073
 20
3623.001474330031
 10
10475.67476677298
 20
2966.340426829109
 10
10972.07151038371
 20
2966.340426829109
1001
ACAD
1000
DSTYLE
1002
{
1070
   341
1005
0
1002
}
  0
TEXT
  5
146A3
330
747D
100
AcDbEntity
  8
寸法
 62
     7
 48
50.0
100
AcDbText
 10
10533.33670206592
 20
2985.899680180741
 30
0.0
 40
90.0
  1
カンザシ
  7
STYLE1
100
AcDbText
  0
LINE
  5
1484B
330
747D
100
AcDbEntity
  8
センター
 48
10.0
100
AcDbLine
 10
1402.313333192258
 20
3811.814691298438
 30
0.0
 11
5018.525713361501
 21
3811.814691298438
 31
0.0
  0
LINE
  5
1484C
330
747D
100
AcDbEntity
  8
想像線
 48
10.0
100
AcDbLine
 10
1422.313333192316
 20
1948.314691298438
 30
0.0
 11
1422.313333192316
 21
6025.314691298437
 31
0.0
  0
LINE
  5
1484D
330
747D
100
AcDbEntity
  8
想像線
 48
10.0
100
AcDbLine
 10
6682.313333192199
 20
1948.314691298438
 30
0.0
 11
6682.313333192199
 21
6025.314691298437
 31
0.0
  0
LINE
  5
1484E
330
747D
100
AcDbEntity
  8
想像線
 48
10.0
100
AcDbLine
 10
1422.313333192316
 20
1948.314691298438
 30
0.0
 11
4689.940384811278
 21
1948.314691298438
 31
0.0
  0
LINE
  5
1484F
330
747D
100
AcDbEntity
  8
部品1
 48
50.0
100
AcDbLine
 10
1252.313333192258
 20
3286.814691298438
 30
0.0
 11
2052.313333192258
 21
3286.814691298438
 31
0.0
  0
LINE
  5
14850
330
747D
100
AcDbEntity
  8
部品1
 48
50.0
100
AcDbLine
 10
1252.313333192258
 20
6161.814691298438
 30
0.0
 11
1252.313333192258
 21
1811.814691298437
 31
0.0
  0
CIRCLE
  5
14851
330
747D
100
AcDbEntity
  8
部品1
 48
50.0
100
AcDbCircle
 10
1652.313333192258
 20
3811.814691298438
 30
0.0
 40
44.55
  0
LINE
  5
14852
330
747D
100
AcDbEntity
  8
センター
 48
10.0
100
AcDbLine
 10
1402.313333192258
 20
3811.814691298438
 30
0.0
 11
1902.313333192258
 21
3811.814691298438
 31
0.0
  0
LINE
  5
14853
330
747D
100
AcDbEntity
  8
センター
 48
10.0
100
AcDbLine
 10
1652.313333192258
 20
4061.814691298438
 30
0.0
 11
1652.313333192258
 21
3561.814691298438
 31
0.0
  0
LINE
  5
14854
330
747D
100
AcDbEntity
  8
センター
 48
10.0
100
AcDbLine
 10
6452.313333192257
 20
4061.814691298438
 30
0.0
 11
6452.313333192257
 21
3561.814691298438
 31
0.0
  0
LINE
  5
14855
330
747D
100
AcDbEntity
  8
センター
 48
10.0
100
AcDbLine
 10
6202.313333192257
 20
3811.814691298438
 30
0.0
 11
6702.313333192257
 21
3811.814691298438
 31
0.0
  0
CIRCLE
  5
14856
330
747D
100
AcDbEntity
  8
部品1
 48
50.0
100
AcDbCircle
 10
6452.313333192257
 20
3811.814691298438
 30
0.0
 40
44.55
  0
LINE
  5
14857
330
747D
100
AcDbEntity
  8
部品1
 48
50.0
100
AcDbLine
 10
6852.313333192258
 20
6161.814691298438
 30
0.0
 11
6852.313333192258
 21
1811.814691298437
 31
0.0
  0
LINE
  5
14858
330
747D
100
AcDbEntity
  8
部品1
 48
30.0
100
AcDbLine
 10
1252.313333192258
 20
1811.814691298437
 30
0.0
 11
4665.87175194457
 21
1811.814691298437
 31
0.0
  0
LINE
  5
14859
330
747D
100
AcDbEntity
  8
寸法
 48
50.0
100
AcDbLine
 10
2763.93536986172
 20
2919.388563266082
 30
0.0
 11
2731.087087028951
 21
3041.980023739539
 31
0.0
  0
LINE
  5
1485A
330
747D
100
AcDbEntity
  8
寸法
 48
50.0
100
AcDbLine
 10
2763.93536986172
 20
2919.388563266082
 30
0.0
 11
2796.783652694547
 21
3041.980023739539
 31
0.0
  0
LINE
  5
1485B
330
747D
100
AcDbEntity
  8
寸法
 48
50.0
100
AcDbLine
 10
2763.93536986172
 20
3705.103791699265
 30
0.0
 11
2763.93536986172
 21
2919.388563266082
 31
0.0
  0
MTEXT
  5
1485C
330
747D
100
AcDbEntity
  8
寸法
 62
     7
 48
50.0
100
AcDbMText
 10
2669.497433795943
 20
3058.101869393228
 30
0.0
 40
90.0
 41
0.0
 71
     4
 72
     1
  1
\A1;水勾配 1/100 
  7
STYLE1
 11
0.0000000000000001
 21
1.0
 31
0.0
 73
     1
 44
1.0
1001
ACAD
1000
MTEXTBEGIN
1070
    73
1070
     1
1070
    44
1040
1.0
1070
    74
1070
     0
1000
MTEXTEND
  0
MTEXT
  5
1485D
330
747D
100
AcDbEntity
  8
寸法
 62
     7
 48
50.0
100
AcDbMText
 10
1478.30521797447
 20
2065.594737165928
 30
0.0
 40
90.0
 41
0.0
 71
     4
 72
     1
  1
\A1;床コンクリート打コテ押エ
  7
STYLE1
 73
     1
 44
1.0
1001
ACAD
1000
MTEXTBEGIN
1070
    73
1070
     1
1070
    44
1040
1.0
1070
    74
1070
     0
1000
MTEXTEND
  0
LEADER
  5
1485E
330
747D
100
AcDbEntity
  8
寸法
 48
50.0
100
AcDbLeader
  3
INABA_S30G
 73
     0
 75
     1
 76
     3
 10
6452.313333192257
 20
3811.814691298438
 30
0.0
 10
6363.826808256912
 20
3481.5784844546
 30
0.0
 10
6288.826808256912
 20
3481.5784844546
 30
0.0
  0
MTEXT
  5
1485F
102
{ACAD_REACTORS
330
1485E
102
}
330
747D
100
AcDbEntity
  8
寸法
 62
     7
 48
50.0
100
AcDbMText
 10
6258.826808256912
 20
3556.5784844546
 30
0.0
 40
90.0
 41
0.0
 71
     6
 72
     1
  1
\A1;柱
  7
STYLE1
 73
     1
 44
1.0
1001
ACAD
1000
MTEXTBEGIN
1070
    73
1070
     1
1070
    44
1040
1.0
1070
    74
1070
     0
1000
MTEXTEND
  0
LINE
  5
14860
330
747D
100
AcDbEntity
  8
センター
 48
10.0
100
AcDbLine
 10
1402.313333192258
 20
4161.814691298437
 30
0.0
 11
5080.240156609463
 21
4161.814691298437
 31
0.0
  0
LINE
  5
14861
330
747D
100
AcDbEntity
  8
想像線
 48
10.0
100
AcDbLine
 10
1422.313333192316
 20
6025.314691298437
 30
0.0
 11
5408.825485159686
 21
6025.314691298437
 31
0.0
  0
LINE
  5
14862
330
747D
100
AcDbEntity
  8
部品1
 48
50.0
100
AcDbLine
 10
1252.313333192258
 20
4686.814691298438
 30
0.0
 11
2052.313333192258
 21
4686.814691298438
 31
0.0
  0
CIRCLE
  5
14863
330
747D
100
AcDbEntity
  8
部品1
 48
50.0
100
AcDbCircle
 10
1652.313333192258
 20
4161.814691298437
 30
0.0
 40
44.55
  0
LINE
  5
14864
330
747D
100
AcDbEntity
  8
センター
 48
10.0
100
AcDbLine
 10
1402.313333192258
 20
4161.814691298437
 30
0.0
 11
1902.313333192258
 21
4161.814691298437
 31
0.0
  0
LINE
  5
14865
330
747D
100
AcDbEntity
  8
センター
 48
10.0
100
AcDbLine
 10
1652.313333192258
 20
3911.814691298438
 30
0.0
 11
1652.313333192258
 21
4411.814691298437
 31
0.0
  0
LINE
  5
14866
330
747D
100
AcDbEntity
  8
センター
 48
10.0
100
AcDbLine
 10
6452.313333192257
 20
3911.814691298438
 30
0.0
 11
6452.313333192257
 21
4411.814691298437
 31
0.0
  0
LINE
  5
14867
330
747D
100
AcDbEntity
  8
センター
 48
10.0
100
AcDbLine
 10
6202.313333192257
 20
4161.814691298437
 30
0.0
 11
6702.313333192257
 21
4161.814691298437
 31
0.0
  0
CIRCLE
  5
14868
330
747D
100
AcDbEntity
  8
部品1
 48
50.0
100
AcDbCircle
 10
6452.313333192257
 20
4161.814691298437
 30
0.0
 40
44.55
  0
LINE
  5
14869
330
747D
100
AcDbEntity
  8
部品1
 48
50.0
100
AcDbLine
 10
6052.313333192258
 20
3286.814691298423
 30
0.0
 11
6052.313333192258
 21
4686.814691298438
 31
0.0
  0
LINE
  5
1486A
330
747D
100
AcDbEntity
  8
部品1
 48
30.0
100
AcDbLine
 10
1252.313333192258
 20
6161.814691298438
 30
0.0
 11
5432.894118026386
 21
6161.814691298438
 31
0.0
  0
LINE
  5
1486B
330
747D
100
AcDbEntity
  8
部品1
 48
50.0
100
AcDbLine
 10
2052.313333192258
 20
4686.814691298438
 30
0.0
 11
2052.313333192258
 21
3286.814691298438
 31
0.0
  0
LINE
  5
1486C
330
747D
100
AcDbEntity
  8
部品1
 48
50.0
100
AcDbLine
 10
6052.313333192258
 20
3286.814691298438
 30
0.0
 11
6852.313333192258
 21
3286.814691298438
 31
0.0
  0
LINE
  5
1486D
330
747D
100
AcDbEntity
  8
部品1
 48
50.0
100
AcDbLine
 10
6052.313333192258
 20
4686.814691298438
 30
0.0
 11
6852.313333192258
 21
4686.814691298438
 31
0.0
  0
DIMENSION
  5
148BB
330
747D
100
AcDbEntity
  8
寸法
 48
50.0
100
AcDbDimension
  2
*D11
 10
1252.313333192258
 20
1483.32697296192
 30
0.0
 11
1337.313333192287
 21
1558.32697296192
 31
0.0
 70
    32
 71
     5
 42
170.0000000000582
  3
INABA_S30G
100
AcDbAlignedDimension
 13
1422.313333192316
 23
1948.314691298438
 33
0.0
 14
1252.313333192258
 24
1811.814691298437
 34
0.0
 50
180.0
100
AcDbRotatedDimension
  0
DIMENSION
  5
148BC
330
747D
100
AcDbEntity
  8
寸法
 48
50.0
100
AcDbDimension
  2
*D12
 10
6852.313333192258
 20
1483.32697296192
 30
0.0
 11
6767.313333192229
 21
1558.32697296192
 31
0.0
 70
    32
 71
     5
 42
170.0000000000582
  3
INABA_S30G
100
AcDbAlignedDimension
 13
6682.313333192199
 23
1948.314691298438
 33
0.0
 14
6852.313333192258
 24
1811.814691298437
 34
0.0
100
AcDbRotatedDimension
  0
DIMENSION
  5
148BD
330
747D
100
AcDbEntity
  8
寸法
 48
50.0
100
AcDbDimension
  2
*D13
 10
6682.313333192199
 20
1483.32697296192
 30
0.0
 11
4052.313333192258
 21
1558.335831229637
 31
0.0
 70
    32
  1
屋根寸法 N \U+00D72400 ＋ 460
 71
     5
 42
5259.999999999884
  3
INABA_S30G
100
AcDbAlignedDimension
 13
1422.313333192316
 23
1948.314691298438
 33
0.0
 14
6682.313333192199
 24
1948.314691298438
 34
0.0
100
AcDbRotatedDimension
  0
DIMENSION
  5
148C1
330
747D
100
AcDbEntity
  8
寸法
 48
50.0
100
AcDbDimension
  2
*D14
 10
7234.587555555859
 20
1811.814691298437
 30
0.0
 11
7234.587555555859
 21
1587.95073026776
 31
0.0
 70
   160
 71
     5
 42
136.5
  3
INABA_S30G
100
AcDbAlignedDimension
 13
6682.313333192199
 23
1948.314691298438
 33
0.0
 14
6852.313333192258
 24
1811.814691298437
 34
0.0
 50
90.0
100
AcDbRotatedDimension
  0
DIMENSION
  5
148C2
330
747D
100
AcDbEntity
  8
寸法
 48
50.0
100
AcDbDimension
  2
*D15
 10
7234.587555555859
 20
1948.314691298438
 30
0.0
 11
7159.587555555859
 21
3986.81469129844
 31
0.0
 70
    32
  1
屋根寸法 <>
 71
     5
 42
4077.0
  3
INABA_S30G
100
AcDbAlignedDimension
 13
6682.313333192199
 23
6025.314691298437
 33
0.0
 14
6682.313333192199
 24
1948.314691298438
 34
0.0
 50
90.0
100
AcDbRotatedDimension
  0
DIMENSION
  5
148C3
330
747D
100
AcDbEntity
  8
寸法
 48
50.0
100
AcDbDimension
  2
*D16
 10
7234.587555555862
 20
6161.814691298438
 30
0.0
 11
7234.587555555859
 21
6385.678652329167
 31
0.0
 70
   160
 71
     5
 42
136.5
  3
INABA_S30G
100
AcDbAlignedDimension
 13
6682.313333192199
 23
6025.314691298437
 33
0.0
 14
6852.313333192258
 24
6161.814691298438
 34
0.0
 50
270.0
100
AcDbRotatedDimension
  0
DIMENSION
  5
148C7
330
747D
100
AcDbEntity
  8
寸法
 48
50.0
100
AcDbDimension
  2
*D17
 10
688.6921344645671
 20
1811.814691298437
 30
0.0
 11
613.6921344645668
 21
3986.814691298438
 31
0.0
 70
    32
  1
基礎土間寸法 <>
 71
     5
 42
4350.0
  3
INABA_S30G
100
AcDbAlignedDimension
 13
1252.313333192258
 23
6161.814691298438
 33
0.0
 14
1252.313333192258
 24
1811.814691298437
 34
0.0
 50
90.0
100
AcDbRotatedDimension
  0
DIMENSION
  5
148C8
330
747D
100
AcDbEntity
  8
寸法
 48
50.0
100
AcDbDimension
  2
*D18
 10
911.441496481013
 20
1811.814691298437
 30
0.0
 11
836.4326382132963
 21
2811.814691298438
 31
0.0
 70
    32
 71
     5
 42
2000.0
  3
INABA_S30G
100
AcDbAlignedDimension
 13
1402.313333192258
 23
3811.814691298438
 33
0.0
 14
1252.313333192258
 24
1811.814691298437
 34
0.0
 50
90.0
100
AcDbRotatedDimension
  0
DIMENSION
  5
148C9
330
747D
100
AcDbEntity
  8
寸法
 48
50.0
100
AcDbDimension
  2
*D19
 10
911.441496481013
 20
3811.814691298438
 30
0.0
 11
836.4414964810125
 21
3986.814691298438
 31
0.0
 70
    32
 71
     5
 42
349.9999999999996
  3
INABA_S30G
100
AcDbAlignedDimension
 13
1402.313333192258
 23
4161.814691298437
 33
0.0
 14
1402.313333192258
 24
3811.814691298438
 34
0.0
 50
90.0
100
AcDbRotatedDimension
  0
DIMENSION
  5
148CA
330
747D
100
AcDbEntity
  8
寸法
 48
50.0
100
AcDbDimension
  2
*D20
 10
911.441496481013
 20
6161.814691298438
 30
0.0
 11
836.4326382132954
 21
5161.814691298438
 31
0.0
 70
    32
 71
     5
 42
2000.0
  3
INABA_S30G
100
AcDbAlignedDimension
 13
1402.313333192258
 23
4161.814691298437
 33
0.0
 14
1252.313333192258
 24
6161.814691298438
 34
0.0
 50
270.0
100
AcDbRotatedDimension
  0
DIMENSION
  5
148CB
330
747D
100
AcDbEntity
  8
寸法
 48
50.0
100
AcDbDimension
  2
*D21
 10
6852.313333192258
 20
6831.815123798834
 30
0.0
 11
4052.313333192258
 21
6906.823982066551
 31
0.0
 70
    32
  1
基礎土間寸法 N \U+00D72400 ＋ 800
 71
     5
 42
5600.0
  3
INABA_S30G
100
AcDbAlignedDimension
 13
1252.313333192258
 23
6161.814691298438
 33
0.0
 14
6852.313333192258
 24
6161.814691298438
 34
0.0
100
AcDbRotatedDimension
  0
DIMENSION
  5
148CC
330
747D
100
AcDbEntity
  8
寸法
 48
50.0
100
AcDbDimension
  2
*D22
 10
6852.313333192258
 20
6637.778084824517
 30
0.0
 11
6652.313333192258
 21
6712.778084824517
 31
0.0
 70
    32
 71
     5
 42
400.0
  3
INABA_S30G
100
AcDbAlignedDimension
 13
6452.313333192257
 23
4411.814691298437
 33
0.0
 14
6852.313333192258
 24
6161.814691298438
 34
0.0
100
AcDbRotatedDimension
  0
DIMENSION
  5
148CD
330
747D
100
AcDbEntity
  8
寸法
 48
50.0
100
AcDbDimension
  2
*D23
 10
6452.313333192257
 20
6637.778084824517
 30
0.0
 11
4052.313333192258
 21
6712.786943092233
 31
0.0
 70
    32
  1
N \U+00D72400
 71
     5
 42
4800.0
  3
INABA_S30G
100
AcDbAlignedDimension
 13
1652.313333192258
 23
4411.814691298437
 33
0.0
 14
6452.313333192257
 24
4411.814691298437
 34
0.0
100
AcDbRotatedDimension
  0
DIMENSION
  5
148CE
330
747D
100
AcDbEntity
  8
寸法
 48
50.0
100
AcDbDimension
  2
*D24
 10
1652.313333192258
 20
6637.778084824517
 30
0.0
 11
1452.313333192258
 21
6712.778084824517
 31
0.0
 70
    32
 71
     5
 42
400.0
  3
INABA_S30G
100
AcDbAlignedDimension
 13
1252.313333192258
 23
6161.814691298438
 33
0.0
 14
1652.313333192258
 24
4411.814691298437
 34
0.0
100
AcDbRotatedDimension
  0
DIMENSION
  5
148CF
330
747D
100
AcDbEntity
  8
寸法
 48
50.0
100
AcDbDimension
  2
*D25
 10
6052.313333192258
 20
3048.678475261346
 30
0.0
 11
6252.313333192258
 21
3123.678475261346
 31
0.0
 70
    32
 71
     5
 42
400.0
  3
INABA_S30G
100
AcDbAlignedDimension
 13
6452.313333192257
 23
3561.814691298438
 33
0.0
 14
6052.313333192258
 24
3286.814691298438
 34
0.0
100
AcDbRotatedDimension
  0
DIMENSION
  5
148D0
330
747D
100
AcDbEntity
  8
寸法
 48
50.0
100
AcDbDimension
  2
*D26
 10
6852.313333192258
 20
2810.542259224283
 30
0.0
 11
6452.313333192257
 21
2810.542259224283
 31
0.0
 70
   160
 71
     5
 42
800.0
  3
INABA_S30G
100
AcDbAlignedDimension
 13
6052.313333192258
 23
3286.814691298438
 33
0.0
 14
6852.313333192258
 24
3286.814691298438
 34
0.0
100
AcDbRotatedDimension
  0
DIMENSION
  5
148D1
330
747D
100
AcDbEntity
  8
寸法
 48
50.0
100
AcDbDimension
  2
*D27
 10
5874.998829908086
 20
3286.814691298423
 30
0.0
 11
5799.98997164037
 21
3549.314691298432
 31
0.0
 70
    32
 71
     5
 42
525.0000000000145
  3
INABA_S30G
100
AcDbAlignedDimension
 13
6202.313333192257
 23
3811.814691298438
 33
0.0
 14
6052.313333192258
 24
3286.814691298423
 34
0.0
 50
90.0
100
AcDbRotatedDimension
  0
DIMENSION
  5
148D2
330
747D
100
AcDbEntity
  8
寸法
 48
50.0
100
AcDbDimension
  2
*D28
 10
5697.684326623916
 20
3286.814691298423
 30
0.0
 11
5622.684326623915
 21
3986.814691298431
 31
0.0
 70
    32
 71
     5
 42
1400.000000000014
  3
INABA_S30G
100
AcDbAlignedDimension
 13
6052.313333192258
 23
4686.814691298438
 33
0.0
 14
6052.313333192258
 24
3286.814691298423
 34
0.0
 50
90.0
100
AcDbRotatedDimension
  0
DIMENSION
  5
148D3
330
747D
100
AcDbEntity
  8
寸法
 48
50.0
100
AcDbDimension
  2
*D29
 10
5874.998829908086
 20
3811.814691298438
 30
0.0
 11
5799.998829908086
 21
3986.81469129844
 31
0.0
 70
    32
 71
     5
 42
350.0000000000004
  3
INABA_S30G
100
AcDbAlignedDimension
 13
6202.313333192257
 23
4161.814691298437
 33
0.0
 14
6202.313333192257
 24
3811.814691298438
 34
0.0
 50
90.0
100
AcDbRotatedDimension
  0
DIMENSION
  5
148D4
330
747D
100
AcDbEntity
  8
寸法
 48
50.0
100
AcDbDimension
  2
*D30
 10
5874.998829908086
 20
4686.814691298452
 30
0.0
 11
5799.98997164037
 21
4424.314691298446
 31
0.0
 70
    32
 71
     5
 42
525.0000000000136
  3
INABA_S30G
100
AcDbAlignedDimension
 13
6202.313333192257
 23
4161.814691298437
 33
0.0
 14
6052.313333192258
 24
4686.814691298452
 34
0.0
 50
270.0
100
AcDbRotatedDimension
  0
LINE
  5
148D5
330
747D
100
AcDbEntity
  8
寸法
 48
50.0
100
AcDbLine
 10
2763.93536986172
 20
5054.240819330793
 30
0.0
 11
2731.087087028951
 21
4931.649358857336
 31
0.0
  0
LINE
  5
148D6
330
747D
100
AcDbEntity
  8
寸法
 48
50.0
100
AcDbLine
 10
2763.93536986172
 20
5054.240819330793
 30
0.0
 11
2796.783652694547
 21
4931.649358857336
 31
0.0
  0
LINE
  5
148D7
330
747D
100
AcDbEntity
  8
寸法
 48
50.0
100
AcDbLine
 10
2763.93536986172
 20
4268.52559089761
 30
0.0
 11
2763.93536986172
 21
5054.240819330793
 31
0.0
  0
MTEXT
  5
148D8
330
747D
100
AcDbEntity
  8
寸法
 62
     7
 48
50.0
100
AcDbMText
 10
2669.497433795943
 20
4307.238897024741
 30
0.0
 40
90.0
 41
0.0
 71
     4
 72
     1
  1
\A1;水勾配 1/100 
  7
STYLE1
 11
0.0000000000000001
 21
1.0
 31
0.0
 73
     1
 44
1.0
1001
ACAD
1000
MTEXTBEGIN
1070
    73
1070
     1
1070
    44
1040
1.0
1070
    74
1070
     0
1000
MTEXTEND
  0
LINE
  5
148D9
330
747D
100
AcDbEntity
  8
寸法
 48
50.0
100
AcDbLine
 10
1398.179502443352
 20
4765.71365377857
 30
0.0
 11
1505.912873026333
 21
4794.580723424151
 31
0.0
  0
LINE
  5
148DA
330
747D
100
AcDbEntity
  8
寸法
 48
50.0
100
AcDbLine
 10
1505.912873026333
 20
4794.580723424151
 30
0.0
 11
1505.912873026333
 21
4728.646104502607
 31
0.0
  0
LINE
  5
148DB
330
747D
100
AcDbEntity
  8
寸法
 48
50.0
100
AcDbLine
 10
1652.313333192258
 20
4765.71365377857
 30
0.0
 11
1398.179502443352
 21
4765.71365377857
 31
0.0
  0
TEXT
  5
148DC
330
747D
100
AcDbEntity
  8
寸法
 62
     7
100
AcDbText
 10
1288.677853029803
 20
4737.6481809768
 30
0.0
 40
90.0
  1
A'
  7
STYLE1
100
AcDbText
  0
LINE
  5
148DD
330
747D
100
AcDbEntity
  8
寸法
 48
50.0
100
AcDbLine
 10
1652.313333192258
 20
3207.915728818306
 30
0.0
 11
1398.179502443352
 21
3207.915728818306
 31
0.0
  0
LINE
  5
148DE
330
747D
100
AcDbEntity
  8
寸法
 48
50.0
100
AcDbLine
 10
1398.179502443352
 20
3207.915728818306
 30
0.0
 11
1505.912873026333
 21
3179.048659172724
 31
0.0
  0
LINE
  5
148DF
330
747D
100
AcDbEntity
  8
寸法
 48
50.0
100
AcDbLine
 10
1505.912873026333
 20
3179.048659172724
 30
0.0
 11
1505.912873026333
 21
3244.983278094267
 31
0.0
  0
TEXT
  5
148E0
330
747D
100
AcDbEntity
  8
寸法
 62
     7
100
AcDbText
 10
1287.419224171084
 20
3165.688525810401
 30
0.0
 40
90.0
  1
A
  7
STYLE1
100
AcDbText
  0
LINE
  5
148E1
330
747D
100
AcDbEntity
  8
寸法
 48
50.0
100
AcDbLine
 10
1652.313333192258
 20
3207.915728818306
 30
0.0
 11
1652.313333192258
 21
3561.814691298438
 31
0.0
  0
LINE
  5
148FF
330
747D
100
AcDbEntity
  8
部品1
 48
50.0
100
AcDbLine
 10
3652.313333192258
 20
3286.814691298438
 30
0.0
 11
4452.313333192257
 21
3286.814691298438
 31
0.0
  0
CIRCLE
  5
14900
330
747D
100
AcDbEntity
  8
部品1
 48
50.0
100
AcDbCircle
 10
4052.313333192258
 20
3811.814691298438
 30
0.0
 40
44.55
  0
LINE
  5
14901
330
747D
100
AcDbEntity
  8
センター
 48
10.0
100
AcDbLine
 10
3802.313333192258
 20
3811.814691298438
 30
0.0
 11
4302.313333192258
 21
3811.814691298438
 31
0.0
  0
LINE
  5
14902
330
747D
100
AcDbEntity
  8
センター
 48
10.0
100
AcDbLine
 10
4052.313333192258
 20
4061.814691298438
 30
0.0
 11
4052.313333192258
 21
3561.814691298438
 31
0.0
  0
LINE
  5
14903
330
747D
100
AcDbEntity
  8
部品1
 48
50.0
100
AcDbLine
 10
3652.313333192258
 20
4686.814691298438
 30
0.0
 11
4452.313333192257
 21
4686.814691298438
 31
0.0
  0
CIRCLE
  5
14904
330
747D
100
AcDbEntity
  8
部品1
 48
50.0
100
AcDbCircle
 10
4052.313333192258
 20
4161.814691298437
 30
0.0
 40
44.55
  0
LINE
  5
14905
330
747D
100
AcDbEntity
  8
センター
 48
10.0
100
AcDbLine
 10
3802.313333192258
 20
4161.814691298437
 30
0.0
 11
4302.313333192258
 21
4161.814691298437
 31
0.0
  0
LINE
  5
14906
330
747D
100
AcDbEntity
  8
センター
 48
10.0
100
AcDbLine
 10
4052.313333192258
 20
3911.814691298438
 30
0.0
 11
4052.313333192258
 21
4411.814691298437
 31
0.0
  0
LINE
  5
14907
330
747D
100
AcDbEntity
  8
部品1
 48
50.0
100
AcDbLine
 10
4452.313333192257
 20
4686.814691298438
 30
0.0
 11
4452.313333192257
 21
3286.814691298438
 31
0.0
  0
LINE
  5
14908
330
747D
100
AcDbEntity
  8
部品1
 48
50.0
100
AcDbLine
 10
3652.313333192258
 20
4686.814691298438
 30
0.0
 11
3652.313333192258
 21
3286.814691298438
 31
0.0
  0
DIMENSION
  5
1528C
330
747D
100
AcDbEntity
  8
寸法
 48
50.0
100
AcDbDimension
  2
*D31
 10
4052.313333192258
 20
6415.9814920675
 30
0.0000000000013153
 11
2852.313333192258
 21
6490.990350335216
 31
0.0000000000013153
 70
    32
 71
     5
 42
2400.0
  3
INABA_S30G
100
AcDbAlignedDimension
 13
1652.313333192258
 23
4411.814691298437
 33
0.0
 14
4052.313333192258
 24
4411.814691298437
 34
0.0
100
AcDbRotatedDimension
  0
DIMENSION
  5
15299
330
747D
100
AcDbEntity
  8
寸法
 48
50.0
100
AcDbDimension
  2
*D32
 10
5172.313333192258
 20
6415.983861619378
 30
0.0000000000013153
 11
4612.313333192258
 21
6490.992719887093
 31
0.0000000000013153
 70
    32
  1
2400 
 71
     5
 42
1120.0
  3
INABA_S30G
100
AcDbAlignedDimension
 13
4052.313333192258
 23
4411.814691298437
 33
0.0
 14
5172.313333192258
 24
4436.625746804663
 34
0.0
100
AcDbRotatedDimension
1001
ACAD
1000
DSTYLE
1002
{
1070
    76
1070
     1
1070
   344
1005
135E3
1002
}
  0
DIMENSION
  5
153B2
330
747D
100
AcDbEntity
  8
寸法
 48
50.0
100
AcDbDimension
  2
*D33
 10
5332.313333192258
 20
6415.983861619378
 30
0.0000000000013153
 11
5892.313333192259
 21
6490.992719887093
 31
0.0000000000013153
 70
    32
  1
2400 
 71
     5
 42
1120.0
  3
INABA_S30G
100
AcDbAlignedDimension
 13
6452.313333192257
 23
4411.814691298437
 33
0.0
 14
5332.313333192258
 24
4436.625746804663
 34
0.0
100
AcDbRotatedDimension
1001
ACAD
1000
DSTYLE
1002
{
1070
    76
1070
     1
1070
   344
1005
135E3
1002
}
  0
LINE
  5
153E7
330
747D
100
AcDbEntity
  8
想像線
 48
10.0
100
AcDbLine
 10
4720.403183167851
 20
1948.314691298437
 30
0.0
 11
6682.313333192199
 21
1948.314691298438
 31
0.0
  0
LINE
  5
153E8
330
747D
100
AcDbEntity
  8
部品1
 48
30.0
100
AcDbLine
 10
4696.334550301147
 20
1811.814691298437
 30
0.0
 11
6852.313333192258
 21
1811.814691298437
 31
0.0
  0
LINE
  5
153EA
330
747D
100
AcDbEntity
  8
センター
 48
10.0
100
AcDbLine
 10
5048.988511718079
 20
3811.814691298438
 30
0.0
 11
6702.313333192257
 21
3811.814691298438
 31
0.0
  0
LINE
  5
153FD
330
747D
100
AcDbEntity
  8
寸法
 48
50.0
100
AcDbLine
 10
5454.381700785994
 20
6283.676828750515
 30
0.0000000000013153
 11
5076.025619449763
 21
4137.912863326522
 31
0.0000000000013153
  0
LINE
  5
153FE
330
747D
100
AcDbEntity
  8
寸法
 48
50.0
100
AcDbLine
 10
5484.844499142567
 20
6283.676828750515
 30
0.0000000000013153
 11
5101.572504046017
 21
4110.033330990803
 31
0.0000000000013153
  0
LINE
  5
153FF
330
747D
100
AcDbEntity
  8
寸法
 48
50.0
100
AcDbLine
 10
5032.214198610819
 20
3889.445948830996
 30
0.0000000000013153
 11
4649.575258679517
 21
1719.392685320806
 31
0.0000000000013153
  0
LINE
  5
15400
330
747D
100
AcDbEntity
  8
寸法
 48
50.0
100
AcDbLine
 10
5057.761083207072
 20
3861.566416495277
 30
0.0000000000013153
 11
4680.038057036091
 21
1719.392685320807
 31
0.0000000000013153
  0
LINE
  5
15401
330
747D
100
AcDbEntity
  8
寸法
 48
50.0
100
AcDbLine
 10
5076.025619449763
 20
4137.912863326522
 30
0.0000000000013153
 11
4788.948344760007
 21
4112.796856235251
 31
0.0000000000013153
  0
LINE
  5
15402
330
747D
100
AcDbEntity
  8
寸法
 48
50.0
100
AcDbLine
 10
5032.214198610819
 20
3889.445948830996
 30
0.0000000000013153
 11
5230.688208789121
 21
3906.810174726129
 31
0.0000000000013153
  0
LINE
  5
15403
330
747D
100
AcDbEntity
  8
寸法
 48
50.0
100
AcDbLine
 10
4788.948344760007
 20
4112.796856235251
 30
0.0000000000013153
 11
5230.688208789121
 21
3906.810174726129
 31
0.0000000000013153
  0
LINE
  5
15404
330
747D
100
AcDbEntity
  8
寸法
 48
50.0
100
AcDbLine
 10
5101.572504046017
 20
4110.033330990803
 30
0.0000000000013153
 11
4903.098493867713
 21
4092.669105095669
 31
0.0000000000013153
  0
LINE
  5
15405
330
747D
100
AcDbEntity
  8
寸法
 48
50.0
100
AcDbLine
 10
4903.098493867713
 20
4092.669105095669
 30
0.0000000000013153
 11
5344.838357896827
 21
3886.682423586547
 31
0.0000000000013153
  0
LINE
  5
15406
330
747D
100
AcDbEntity
  8
寸法
 48
50.0
100
AcDbLine
 10
5057.761083207072
 20
3861.566416495277
 30
0.0000000000013153
 11
5344.838357896827
 21
3886.682423586547
 31
0.0000000000013153
  0
LINE
  5
15417
330
747D
100
AcDbEntity
  8
センター
 48
10.0
100
AcDbLine
 10
5110.702954966036
 20
4161.814691298437
 30
0.0
 11
6702.313333192257
 21
4161.814691298437
 31
0.0
  0
LINE
  5
15418
330
747D
100
AcDbEntity
  8
想像線
 48
10.0
100
AcDbLine
 10
5439.288283516257
 20
6025.314691298437
 30
0.0
 11
6682.313333192199
 21
6025.314691298437
 31
0.0
  0
LINE
  5
15419
330
747D
100
AcDbEntity
  8
部品1
 48
30.0
100
AcDbLine
 10
5463.356916382959
 20
6161.814691298438
 30
0.0
 11
6852.313333192258
 21
6161.814691298438
 31
0.0
  0
ENDSEC
  0
SECTION
  2
OBJECTS
  0
DICTIONARY
  5
7471
330
0
100
AcDbDictionary
281
     1
  3
ACAD_CIP_PREVIOUS_PRODUCT_INFO
350
13DA8
  3
ACAD_COLOR
350
1341D
  3
ACAD_DETAILVIEWSTYLE
350
13D9E
  3
ACAD_GROUP
350
7472
  3
ACAD_LAYOUT
350
1341E
  3
ACAD_MATERIAL
350
1341C
  3
ACAD_MLEADERSTYLE
350
13D9A
  3
ACAD_MLINESTYLE
350
7473
  3
ACAD_PLOTSETTINGS
350
1341F
  3
ACAD_PLOTSTYLENAME
350
1341A
  3
ACAD_SCALELIST
350
13D88
  3
ACAD_SECTIONVIEWSTYLE
350
13D9C
  3
ACAD_TABLESTYLE
350
13D86
  3
ACAD_VISUALSTYLE
350
13D6D
  3
AcadDim
350
13618
  3
ACDB_RECOMPOSE_DATA
350
15AB4
  3
AcDbVariableDictionary
350
13533
  3
CONTENTDICTIONARY
350
E71C
  3
DRAWINGVARIABLESDICT
350
F3B9
  3
DWGPROPS
350
15AB5
  0
DICTIONARY
  5
15A02
330
746D
100
AcDbDictionary
280
     1
281
     1
  0
DICTIONARY
  5
13451
330
7467
100
AcDbDictionary
280
     1
281
     1
  3
ACAD_LAYERFILTERS
360
1356A
  3
ACAD_LAYERSTATES
360
13452
  0
DICTIONARY
  5
158DB
330
7474
100
AcDbDictionary
280
     1
281
     1
  3
ADSK_XREC_LAYER_RECONCILED
360
158DC
  0
DICTIONARY
  5
158DD
330
DEB3
100
AcDbDictionary
280
     1
281
     1
  3
ADSK_XREC_LAYER_RECONCILED
360
158DE
  0
DICTIONARY
  5
158DF
330
DEB4
100
AcDbDictionary
280
     1
281
     1
  3
ADSK_XREC_LAYER_RECONCILED
360
158E0
  0
DICTIONARY
  5
158E1
330
DEB5
100
AcDbDictionary
280
     1
281
     1
  3
ADSK_XREC_LAYER_RECONCILED
360
158E2
  0
DICTIONARY
  5
158E3
330
DEB6
100
AcDbDictionary
280
     1
281
     1
  3
ADSK_XREC_LAYER_RECONCILED
360
158E4
  0
DICTIONARY
  5
158E5
330
10B54
100
AcDbDictionary
280
     1
281
     1
  3
ADSK_XREC_LAYER_RECONCILED
360
158E6
  0
DICTIONARY
  5
158E7
330
11729
100
AcDbDictionary
280
     1
281
     1
  3
ADSK_XREC_LAYER_RECONCILED
360
158E8
  0
DICTIONARY
  5
158E9
330
1173F
100
AcDbDictionary
280
     1
281
     1
  3
ADSK_XREC_LAYER_RECONCILED
360
158EA
  0
DICTIONARY
  5
158ED
330
1356E
100
AcDbDictionary
280
     1
281
     1
  3
ADSK_XREC_LAYER_RECONCILED
360
158EE
  0
DICTIONARY
  5
158EF
330
135FB
100
AcDbDictionary
280
     1
281
     1
  3
ADSK_XREC_LAYER_RECONCILED
360
158F0
  0
DICTIONARY
  5
158F1
330
13810
100
AcDbDictionary
280
     1
281
     1
  3
ADSK_XREC_LAYER_RECONCILED
360
158F2
  0
DICTIONARY
  5
158F3
330
13811
100
AcDbDictionary
280
     1
281
     1
  3
ADSK_XREC_LAYER_RECONCILED
360
158F4
  0
DICTIONARY
  5
153DF
330
747D
100
AcDbDictionary
280
     1
281
     1
  3
ACAD_SORTENTS
360
153E0
  0
XRECORD
  5
13DA8
102
{ACAD_REACTORS
330
7471
102
}
330
7471
100
AcDbXrecord
280
     1
300
ACDLT
300
2014
300
ACDLT_F_S
  0
DICTIONARY
  5
1341D
102
{ACAD_REACTORS
330
7471
102
}
330
7471
100
AcDbDictionary
281
     1
  0
DICTIONARY
  5
13D9E
102
{ACAD_REACTORS
330
7471
102
}
330
7471
100
AcDbDictionary
281
     1
  3
Metric50
350
13D9F
  0
DICTIONARY
  5
7472
102
{ACAD_REACTORS
330
7471
102
}
330
7471
100
AcDbDictionary
281
     1
  0
DICTIONARY
  5
1341E
102
{ACAD_REACTORS
330
7471
102
}
330
7471
100
AcDbDictionary
281
     1
  3
Model
350
13420
  3
レイアウト1
350
13421
  0
DICTIONARY
  5
1341C
102
{ACAD_REACTORS
330
7471
102
}
330
7471
100
AcDbDictionary
281
     1
  3
ByBlock
350
13D5D
  3
ByLayer
350
13D55
  3
Global
350
13D65
  0
DICTIONARY
  5
13D9A
102
{ACAD_REACTORS
330
7471
102
}
330
7471
100
AcDbDictionary
281
     1
  3
Standard
350
13D9B
  0
DICTIONARY
  5
7473
102
{ACAD_REACTORS
330
7471
102
}
330
7471
100
AcDbDictionary
281
     1
  3
STANDARD
350
7480
  0
DICTIONARY
  5
1341F
102
{ACAD_REACTORS
330
7471
102
}
330
7471
100
AcDbDictionary
281
     1
  0
ACDBDICTIONARYWDFLT
  5
1341A
102
{ACAD_REACTORS
330
7471
102
}
330
7471
100
AcDbDictionary
281
     1
  3
Normal
350
1341B
100
AcDbDictionaryWithDefault
340
1341B
  0
DICTIONARY
  5
13D88
102
{ACAD_REACTORS
330
7471
102
}
330
7471
100
AcDbDictionary
281
     1
  3
A0
350
13D89
  3
A1
350
13D8A
  3
A2
350
13D8B
  3
A3
350
13D8C
  3
A4
350
13D8D
  3
A5
350
13D8E
  3
A6
350
13D8F
  3
A7
350
13D90
  3
A8
350
13D91
  3
A9
350
13D92
  3
B0
350
13D93
  3
B1
350
13D94
  3
B2
350
13D95
  3
B3
350
13D96
  3
B4
350
13D97
  3
B5
350
13D98
  3
B6
350
13D99
  0
DICTIONARY
  5
13D9C
102
{ACAD_REACTORS
330
7471
102
}
330
7471
100
AcDbDictionary
281
     1
  3
Metric50
350
13D9D
  0
DICTIONARY
  5
13D86
102
{ACAD_REACTORS
330
7471
102
}
330
7471
100
AcDbDictionary
281
     1
  3
Standard
350
13D87
  0
DICTIONARY
  5
13D6D
102
{ACAD_REACTORS
330
7471
102
}
330
7471
100
AcDbDictionary
281
     1
  3
2dWireframe
350
13D73
  3
Basic
350
13D72
  3
Brighten
350
13D79
  3
ColorChange
350
13D7D
  3
Conceptual
350
13D76
  3
Dim
350
13D78
  3
EdgeColorOff
350
13D85
  3
Facepattern
350
13D7C
  3
Flat
350
13D6E
  3
FlatWithEdges
350
13D6F
  3
Gouraud
350
13D70
  3
GouraudWithEdges
350
13D71
  3
Hidden
350
13D75
  3
JitterOff
350
13D83
  3
Linepattern
350
13D7B
  3
OverhangOff
350
13D84
  3
Realistic
350
13D77
  3
Shaded
350
13D82
  3
Shaded with edges
350
13D81
  3
Shades of Gray
350
13D7E
  3
Sketchy
350
13D7F
  3
Thicken
350
13D7A
  3
Wireframe
350
13D74
  3
X-Ray
350
13D80
  0
XRECORD
  5
13618
102
{ACAD_REACTORS
330
7471
102
}
330
7471
100
AcDbXrecord
280
     1
 90
   990106
  3

 60
     0
 61
     0
 62
     1
 63
     3
 64
     0
 65
     0
 66
     0
 67
     3
 68
     1
 69
     0
 70
     0
 71
     0
 72
     0
 40
0.0
170
     0
  0
XRECORD
  5
15AB4
102
{ACAD_REACTORS
330
7471
102
}
330
7471
100
AcDbXrecord
280
     1
 90
        1
330
13D87
  0
DICTIONARY
  5
13533
102
{ACAD_REACTORS
330
7471
102
}
330
7471
100
AcDbDictionary
281
     1
  3
CANNOSCALE
350
15A47
  3
CMLEADERSTYLE
350
15A44
  3
CTABLESTYLE
350
15A43
  3
CVIEWDETAILSTYLE
350
15A45
  3
CVIEWSECTIONSTYLE
350
15A46
  3
DIMASSOC
350
13534
  3
INDEXCTL
350
15A49
  3
PROJECTNAME
350
13535
  3
SORTENTS
350
15A48
  3
XCLIPFRAME
350
15AB2
  0
DICTIONARY
  5
E71C
102
{ACAD_REACTORS
330
7471
102
}
330
7471
100
AcDbDictionary
281
     1
  0
DICTIONARY
  5
F3B9
102
{ACAD_REACTORS
330
7471
102
}
330
7471
100
AcDbDictionary
281
     1
1001
DRAWINGVARIABLESXDATA
1000
POLARMODE
1000
1
  0
XRECORD
  5
15AB5
102
{ACAD_REACTORS
330
7471
102
}
330
7471
100
AcDbXrecord
280
     1
  1
DWGPROPS COOKIE
  2

  3

  4

  6

  7

  8
ODAHARA
  9

300
=
301
=
302
=
303
=
304
=
305
=
306
=
307
=
308
=
309
=
 40
0.3601926851851852
 41
2451074.411873148
 42
2456560.836007442
  1

 90
        0
  0
DICTIONARY
  5
1356A
102
{ACAD_REACTORS
330
13451
102
}
330
13451
100
AcDbDictionary
281
     1
  0
DICTIONARY
  5
13452
102
{ACAD_REACTORS
330
13451
102
}
330
13451
100
AcDbDictionary
281
     1
  0
XRECORD
  5
158DC
102
{ACAD_REACTORS
330
158DB
102
}
330
158DB
100
AcDbXrecord
280
     1
290
     1
  0
XRECORD
  5
158DE
102
{ACAD_REACTORS
330
158DD
102
}
330
158DD
100
AcDbXrecord
280
     1
290
     1
  0
XRECORD
  5
158E0
102
{ACAD_REACTORS
330
158DF
102
}
330
158DF
100
AcDbXrecord
280
     1
290
     1
  0
XRECORD
  5
158E2
102
{ACAD_REACTORS
330
158E1
102
}
330
158E1
100
AcDbXrecord
280
     1
290
     1
  0
XRECORD
  5
158E4
102
{ACAD_REACTORS
330
158E3
102
}
330
158E3
100
AcDbXrecord
280
     1
290
     1
  0
XRECORD
  5
158E6
102
{ACAD_REACTORS
330
158E5
102
}
330
158E5
100
AcDbXrecord
280
     1
290
     1
  0
XRECORD
  5
158E8
102
{ACAD_REACTORS
330
158E7
102
}
330
158E7
100
AcDbXrecord
280
     1
290
     1
  0
XRECORD
  5
158EA
102
{ACAD_REACTORS
330
158E9
102
}
330
158E9
100
AcDbXrecord
280
     1
290
     1
  0
XRECORD
  5
158EE
102
{ACAD_REACTORS
330
158ED
102
}
330
158ED
100
AcDbXrecord
280
     1
290
     1
  0
XRECORD
  5
158F0
102
{ACAD_REACTORS
330
158EF
102
}
330
158EF
100
AcDbXrecord
280
     1
290
     1
  0
XRECORD
  5
158F2
102
{ACAD_REACTORS
330
158F1
102
}
330
158F1
100
AcDbXrecord
280
     1
290
     1
  0
XRECORD
  5
158F4
102
{ACAD_REACTORS
330
158F3
102
}
330
158F3
100
AcDbXrecord
280
     1
290
     1
  0
SORTENTSTABLE
  5
153E0
102
{ACAD_REACTORS
330
153DF
102
}
330
153DF
100
AcDbSortentsTable
330
747D
331
145F5
  5
145F5
331
1462C
  5
1462C
331
1468B
  5
1468B
331
14862
  5
1486C
331
14901
  5
153DA
331
145FD
  5
145FD
331
14654
  5
14654
331
14693
  5
14693
331
1486A
  5
148C8
331
15403
  5
15417
331
139A0
  5
139A0
331
14605
  5
14605
331
1465C
  5
1465C
331
1469B
  5
1469B
331
1528C
  5
153FE
331
139A8
  5
139A8
331
14664
  5
14664
331
145CE
  5
145CE
331
148C2
  5
148D2
331
148CA
  5
148D7
331
1466C
  5
1466C
331
145D6
  5
145D6
331
1460D
  5
1460D
331
146A3
  5
146A3
331
148D2
  5
148DF
331
145DE
  5
145DE
331
14615
  5
14615
331
14674
  5
14674
331
1484B
  5
1484B
331
1461D
  5
1461D
331
145E6
  5
145E6
331
1467C
  5
1467C
331
14853
  5
14856
331
148DA
  5
14904
331
14684
  5
14684
331
145EE
  5
145EE
331
14625
  5
14625
331
1485B
  5
14860
331
10B6D
  5
10B6D
331
145F6
  5
145F6
331
1462D
  5
1462D
331
1468C
  5
1468C
331
14863
  5
1486D
331
763F
  5
763F
331
14902
  5
153DB
331
145FE
  5
145FE
331
14655
  5
14655
331
14694
  5
14694
331
1486B
  5
148CB
331
15404
  5
15418
331
139A1
  5
139A1
331
14606
  5
14606
331
1465D
  5
1465D
331
1469C
  5
1469C
331
148BB
  5
148CE
331
145CF
  5
145CF
331
14665
  5
14665
331
148C3
  5
148D3
331
13125
  5
13125
331
1460E
  5
1460E
331
145D7
  5
145D7
331
1466D
  5
1466D
331
148CB
  5
148D8
331
14675
  5
14675
331
145DF
  5
145DF
331
14616
  5
14616
331
1484C
  5
1484D
331
148D3
  5
148E0
331
10B56
  5
10B56
331
148DB
  5
14905
331
1467D
  5
1467D
331
1461E
  5
1461E
331
145E7
  5
145E7
331
14854
  5
14857
331
10B5E
  5
10B5E
331
1485C
  5
14861
331
14626
  5
14626
331
145EF
  5
145EF
331
14685
  5
14685
331
153FD
  5
15401
331
145F7
  5
145F7
331
1462E
  5
1462E
331
1468D
  5
1468D
331
14864
  5
148BB
331
15405
  5
15419
331
14903
  5
153DE
331
139A2
  5
139A2
331
145FF
  5
145FF
331
14656
  5
14656
331
14695
  5
14695
331
1486C
  5
148CC
331
14607
  5
14607
331
1465E
  5
1465E
331
1469D
  5
1469D
331
148BC
  5
148CF
331
14666
  5
14666
331
13126
  5
13126
331
145D0
  5
145D0
331
145D8
  5
145D8
331
1460F
  5
1460F
331
1466E
  5
1466E
331
148CC
  5
148D9
331
14617
  5
14617
331
10B57
  5
10B57
331
145E0
  5
145E0
331
14676
  5
14676
331
1484D
  5
1484E
331
148D4
  5
148E1
331
145E8
  5
145E8
331
1461F
  5
1461F
331
1467E
  5
1467E
331
14855
  5
14858
331
148DC
  5
14906
331
14686
  5
14686
331
14627
  5
14627
331
1485D
  5
14862
331
153FE
  5
15402
331
10B6F
  5
10B6F
331
145F0
  5
145F0
331
1399B
  5
1399B
331
145F8
  5
145F8
331
1462F
  5
1462F
331
1468E
  5
1468E
331
14865
  5
148BC
331
14904
  5
153E1
331
139A3
  5
139A3
331
14600
  5
14600
331
14657
  5
14657
331
14696
  5
14696
331
1486D
  5
148CD
331
15406
  5
1542F
331
1465F
  5
1465F
331
1469E
  5
1469E
331
148BD
  5
148D0
331
14667
  5
14667
331
13127
  5
13127
331
145D1
  5
145D1
331
14608
  5
14608
331
1466F
  5
1466F
331
145D9
  5
145D9
331
14610
  5
14610
331
148CD
  5
148DA
331
14677
  5
14677
331
14618
  5
14618
331
145E1
  5
145E1
331
1484E
  5
1484F
331
148D5
  5
148FF
331
148DD
  5
14907
331
145E9
  5
145E9
331
14620
  5
14620
331
1467F
  5
1467F
331
14856
  5
14859
331
153E7
  5
14851
331
14687
  5
14687
331
1485E
  5
14863
331
153FF
  5
15403
331
145F1
  5
145F1
331
14628
  5
14628
331
145F9
  5
145F9
331
1468F
  5
1468F
331
14866
  5
148BD
331
1399C
  5
1399C
331
14905
  5
153E2
331
14601
  5
14601
331
14658
  5
14658
331
14697
  5
14697
331
139A4
  5
139A4
331
14660
  5
14660
331
1469F
  5
1469F
331
15417
  5
14867
331
14668
  5
14668
331
145D2
  5
145D2
331
14609
  5
14609
331
13128
  5
13128
331
145DA
  5
145DA
331
14611
  5
14611
331
14670
  5
14670
331
148CE
  5
148DB
331
14619
  5
14619
331
145E2
  5
145E2
331
14678
  5
14678
331
1484F
  5
14852
331
148D6
  5
14900
331
14680
  5
14680
331
145EA
  5
145EA
331
14621
  5
14621
331
14857
  5
1485A
331
148DE
  5
14908
331
153E8
  5
1485D
331
1485F
  5
14864
331
145F2
  5
145F2
331
14629
  5
14629
331
14688
  5
14688
331
145FA
  5
145FA
331
14690
  5
14690
331
14867
  5
148C1
331
15400
  5
15404
331
1399D
  5
1399D
331
14906
  5
153E3
331
14602
  5
14602
331
14659
  5
14659
331
14698
  5
14698
331
139A5
  5
139A5
331
145CB
  5
145CB
331
14661
  5
14661
331
15299
  5
153FF
331
15418
  5
1486B
331
148C7
  5
148D4
331
145D3
  5
145D3
331
1460A
  5
1460A
331
14669
  5
14669
331
146A0
  5
146A0
331
14671
  5
14671
331
145DB
  5
145DB
331
14612
  5
14612
331
148CF
  5
148DC
331
14679
  5
14679
331
1461A
  5
1461A
331
145E3
  5
145E3
331
14850
  5
14853
331
148D7
  5
14901
331
148DF
  5
1528C
331
14681
  5
14681
331
145EB
  5
145EB
331
14622
  5
14622
331
14858
  5
1485B
331
145F3
  5
145F3
331
1462A
  5
1462A
331
14689
  5
14689
331
14860
  5
14865
331
148FF
  5
153D8
331
145FB
  5
145FB
331
14691
  5
14691
331
14868
  5
148C2
331
15401
  5
15405
331
1399E
  5
1399E
331
14603
  5
14603
331
1465A
  5
1465A
331
14699
  5
14699
331
14907
  5
153E4
331
139A6
  5
139A6
331
14662
  5
14662
331
145CC
  5
145CC
331
15419
  5
148CA
331
153B2
  5
15400
331
148C8
  5
148D5
331
1466A
  5
1466A
331
145D4
  5
145D4
331
1460B
  5
1460B
331
146A1
  5
146A1
331
145DC
  5
145DC
331
14613
  5
14613
331
14672
  5
14672
331
148D0
  5
148DD
331
1461B
  5
1461B
331
145E4
  5
145E4
331
1467A
  5
1467A
331
14851
  5
14854
331
148D8
  5
14902
331
148E0
  5
15299
331
14682
  5
14682
331
145EC
  5
145EC
331
14623
  5
14623
331
14859
  5
1485E
331
153EA
  5
1484C
331
145F4
  5
145F4
331
1462B
  5
1462B
331
1468A
  5
1468A
331
14861
  5
14869
331
14900
  5
153D9
331
145FC
  5
145FC
331
14653
  5
14653
331
14692
  5
14692
331
14869
  5
148C7
331
15402
  5
15406
331
1399F
  5
1399F
331
14604
  5
14604
331
1465B
  5
1465B
331
1469A
  5
1469A
331
14908
  5
153FD
331
139A7
  5
139A7
331
145CD
  5
145CD
331
14663
  5
14663
331
148C1
  5
148D1
331
145D5
  5
145D5
331
1460C
  5
1460C
331
1466B
  5
1466B
331
146A2
  5
146A2
331
148C9
  5
148D6
331
14673
  5
14673
331
145DD
  5
145DD
331
14614
  5
14614
331
148D1
  5
148DE
331
1467B
  5
1467B
331
1461C
  5
1461C
331
145E5
  5
145E5
331
14852
  5
14855
331
148D9
  5
14903
331
148E1
  5
153B2
331
14683
  5
14683
331
145ED
  5
145ED
331
14624
  5
14624
331
1485A
  5
1485F
  0
ACDBDETAILVIEWSTYLE
  5
13D9F
102
{ACAD_XDICTIONARY
360
15AF2
102
}
102
{ACAD_REACTORS
330
13D9E
102
}
330
13D9E
100
AcDbModelDocViewStyle
 70
     0
  3
Metric50
290
     0
100
AcDbDetailViewStyle
 70
     0
 71
     0
 90
        3
 71
     1
340
7475
 40
5.0
340
0
 40
5.0
300

 40
0.0
280
     1
 71
     2
340
7479
 90
       25
 71
     3
340
7475
 40
5.0
 90
        0
 40
15.0
 90
        1
300
%<\AcVar ViewDetailId>% (%<\AcVar ViewScale \f "%sn">%)
 71
     4
340
7479
 90
       25
340
7479
 90
       25
280
     0
  0
LAYOUT
  5
13420
102
{ACAD_XDICTIONARY
360
15AB6
102
}
102
{ACAD_REACTORS
330
1341E
102
}
330
1341E
100
AcDbPlotSettings
  1

  2
CutePDF Writer
  4
A3
  6

 40
3.174999952316284
 41
3.174999952316284
 42
3.17498779296875
 43
3.17498779296875
 44
297.0530090332031
 45
420.1583251953125
 46
0.0
 47
0.0
 48
0.0
 49
0.0
140
0.0
141
0.0
142
1.0
143
30.0
 70
 11952
 72
     1
 73
     1
 74
     2
  7
inaba.ctb
 75
    23
147
0.0333333333333333
148
0.0
149
0.0
100
AcDbLayout
  1
Model
 70
     1
 71
     0
 10
0.0
 20
0.0
 11
12.0
 21
9.0
 12
0.0
 22
0.0
 32
0.0
 14
0.0
 24
0.0
 34
0.0
 15
0.0
 25
0.0
 35
0.0
146
0.0
 13
0.0
 23
0.0
 33
0.0
 16
1.0
 26
0.0
 36
0.0
 17
0.0
 27
1.0
 37
0.0
 76
     0
330
747D
331
13D53
  0
LAYOUT
  5
13421
102
{ACAD_XDICTIONARY
360
15AB8
102
}
102
{ACAD_REACTORS
330
1341E
102
}
330
1341E
100
AcDbPlotSettings
  1

  2
Microsoft Office Document Image Writer
  4

  6

 40
0.0
 41
0.0
 42
0.0
 43
0.0
 44
0.0
 45
0.0
 46
0.0
 47
0.0
 48
0.0
 49
0.0
140
0.0
141
0.0
142
1.0
143
1.0
 70
   688
 72
     0
 73
     0
 74
     5
  7
inaba.ctb
 75
    16
147
1.0
148
0.0
149
0.0
100
AcDbLayout
  1
レイアウト1
 70
     0
 71
     1
 10
0.0
 20
0.0
 11
420.0
 21
297.0
 12
0.0
 22
0.0
 32
0.0
 14
1.000000000000000E+20
 24
1.000000000000000E+20
 34
1.000000000000000E+20
 15
-1.000000000000000E+20
 25
-1.000000000000000E+20
 35
-1.000000000000000E+20
146
0.0
 13
0.0
 23
0.0
 33
0.0
 16
1.0
 26
0.0
 36
0.0
 17
0.0
 27
1.0
 37
0.0
 76
     0
330
747A
  0
MATERIAL
  5
13D5D
102
{ACAD_XDICTIONARY
360
13D5E
102
}
102
{ACAD_REACTORS
330
1341C
102
}
330
1341C
100
AcDbMaterial
  1
ByBlock
 72
     0
 43
0.0208333333333333
 43
0.0
 43
0.0
 43
0.0
 43
0.0
 43
0.0208333333333333
 43
0.0
 43
0.0
 43
0.0
 43
0.0
 43
1.0
 43
0.0
 43
0.0
 43
0.0
 43
0.0
 43
1.0
 77
     0
 47
0.0208333333333333
 47
0.0
 47
0.0
 47
0.0
 47
0.0
 47
0.0208333333333333
 47
0.0
 47
0.0
 47
0.0
 47
0.0
 47
1.0
 47
0.0
 47
0.0
 47
0.0
 47
0.0
 47
1.0
171
     0
 49
0.0208333333333333
 49
0.0
 49
0.0
 49
0.0
 49
0.0
 49
0.0208333333333333
 49
0.0
 49
0.0
 49
0.0
 49
0.0
 49
1.0
 49
0.0
 49
0.0
 49
0.0
 49
0.0
 49
1.0
175
     0
142
0.0208333333333333
142
0.0
142
0.0
142
0.0
142
0.0
142
0.0208333333333333
142
0.0
142
0.0
142
0.0
142
0.0
142
1.0
142
0.0
142
0.0
142
0.0
142
0.0
142
1.0
179
     0
144
0.0208333333333333
144
0.0
144
0.0
144
0.0
144
0.0
144
0.0208333333333333
144
0.0
144
0.0
144
0.0
144
0.0
144
1.0
144
0.0
144
0.0
144
0.0
144
0.0
144
1.0
147
0.0208333333333333
147
0.0
147
0.0
147
0.0
147
0.0
147
0.0208333333333333
147
0.0
147
0.0
147
0.0
147
0.0
147
1.0
147
0.0
147
0.0
147
0.0
147
0.0
147
1.0
  0
MATERIAL
  5
13D55
102
{ACAD_XDICTIONARY
360
13D56
102
}
102
{ACAD_REACTORS
330
1341C
102
}
330
1341C
100
AcDbMaterial
  1
ByLayer
 72
     0
 43
0.0208333333333333
 43
0.0
 43
0.0
 43
0.0
 43
0.0
 43
0.0208333333333333
 43
0.0
 43
0.0
 43
0.0
 43
0.0
 43
1.0
 43
0.0
 43
0.0
 43
0.0
 43
0.0
 43
1.0
 77
     0
 47
0.0208333333333333
 47
0.0
 47
0.0
 47
0.0
 47
0.0
 47
0.0208333333333333
 47
0.0
 47
0.0
 47
0.0
 47
0.0
 47
1.0
 47
0.0
 47
0.0
 47
0.0
 47
0.0
 47
1.0
171
     0
 49
0.0208333333333333
 49
0.0
 49
0.0
 49
0.0
 49
0.0
 49
0.0208333333333333
 49
0.0
 49
0.0
 49
0.0
 49
0.0
 49
1.0
 49
0.0
 49
0.0
 49
0.0
 49
0.0
 49
1.0
175
     0
142
0.0208333333333333
142
0.0
142
0.0
142
0.0
142
0.0
142
0.0208333333333333
142
0.0
142
0.0
142
0.0
142
0.0
142
1.0
142
0.0
142
0.0
142
0.0
142
0.0
142
1.0
179
     0
144
0.0208333333333333
144
0.0
144
0.0
144
0.0
144
0.0
144
0.0208333333333333
144
0.0
144
0.0
144
0.0
144
0.0
144
1.0
144
0.0
144
0.0
144
0.0
144
0.0
144
1.0
147
0.0208333333333333
147
0.0
147
0.0
147
0.0
147
0.0
147
0.0208333333333333
147
0.0
147
0.0
147
0.0
147
0.0
147
1.0
147
0.0
147
0.0
147
0.0
147
0.0
147
1.0
  0
MATERIAL
  5
13D65
102
{ACAD_XDICTIONARY
360
13D66
102
}
102
{ACAD_REACTORS
330
1341C
102
}
330
1341C
100
AcDbMaterial
  1
Global
 72
     0
 43
0.0208333333333333
 43
0.0
 43
0.0
 43
0.0
 43
0.0
 43
0.0208333333333333
 43
0.0
 43
0.0
 43
0.0
 43
0.0
 43
1.0
 43
0.0
 43
0.0
 43
0.0
 43
0.0
 43
1.0
 77
     0
 47
0.0208333333333333
 47
0.0
 47
0.0
 47
0.0
 47
0.0
 47
0.0208333333333333
 47
0.0
 47
0.0
 47
0.0
 47
0.0
 47
1.0
 47
0.0
 47
0.0
 47
0.0
 47
0.0
 47
1.0
171
     0
 49
0.0208333333333333
 49
0.0
 49
0.0
 49
0.0
 49
0.0
 49
0.0208333333333333
 49
0.0
 49
0.0
 49
0.0
 49
0.0
 49
1.0
 49
0.0
 49
0.0
 49
0.0
 49
0.0
 49
1.0
175
     0
142
0.0208333333333333
142
0.0
142
0.0
142
0.0
142
0.0
142
0.0208333333333333
142
0.0
142
0.0
142
0.0
142
0.0
142
1.0
142
0.0
142
0.0
142
0.0
142
0.0
142
1.0
179
     0
144
0.0208333333333333
144
0.0
144
0.0
144
0.0
144
0.0
144
0.0208333333333333
144
0.0
144
0.0
144
0.0
144
0.0
144
1.0
144
0.0
144
0.0
144
0.0
144
0.0
144
1.0
147
0.0208333333333333
147
0.0
147
0.0
147
0.0
147
0.0
147
0.0208333333333333
147
0.0
147
0.0
147
0.0
147
0.0
147
1.0
147
0.0
147
0.0
147
0.0
147
0.0
147
1.0
  0
MLEADERSTYLE
  5
13D9B
102
{ACAD_XDICTIONARY
360
15AEE
102
}
102
{ACAD_REACTORS
330
13D9A
102
}
330
13D9A
100
AcDbMLeaderStyle
170
     2
171
     1
172
     0
 90
        2
 40
0.0
 41
0.0
173
     1
 91
-1056964608
340
7477
 92
       -2
290
     1
 42
2.0
291
     1
 43
0.36
  3
Standard
 44
4.0
300

342
7475
174
     1
178
     6
175
     1
176
     0
 93
-1056964608
 45
4.0
292
     0
297
     0
 46
4.0
 94
-1056964608
 47
1.0
 49
1.0
140
1.0
293
     1
141
0.0
294
     1
177
     0
142
1.0
295
     0
296
     0
143
0.125
1001
ACAD_MLEADERVER
1070
     2
  0
MLINESTYLE
  5
7480
102
{ACAD_REACTORS
330
7473
102
}
330
7473
100
AcDbMlineStyle
  2
STANDARD
 70
     0
  3

 62
     0
 51
90.0
 52
90.0
 71
     2
 49
0.5
 62
   256
  6
BYLAYER
 49
-0.5
 62
   256
  6
BYLAYER
  0
ACDBPLACEHOLDER
  5
1341B
102
{ACAD_REACTORS
330
1341A
102
}
330
1341A
  0
SCALE
  5
13D89
102
{ACAD_REACTORS
330
13D88
102
}
330
13D88
100
AcDbScale
 70
     0
300
1:1
140
1.0
141
1.0
290
     1
  0
SCALE
  5
13D8A
102
{ACAD_REACTORS
330
13D88
102
}
330
13D88
100
AcDbScale
 70
     0
300
1:2
140
1.0
141
2.0
290
     0
  0
SCALE
  5
13D8B
102
{ACAD_REACTORS
330
13D88
102
}
330
13D88
100
AcDbScale
 70
     0
300
1:4
140
1.0
141
4.0
290
     0
  0
SCALE
  5
13D8C
102
{ACAD_REACTORS
330
13D88
102
}
330
13D88
100
AcDbScale
 70
     0
300
1:5
140
1.0
141
5.0
290
     0
  0
SCALE
  5
13D8D
102
{ACAD_REACTORS
330
13D88
102
}
330
13D88
100
AcDbScale
 70
     0
300
1:8
140
1.0
141
8.0
290
     0
  0
SCALE
  5
13D8E
102
{ACAD_REACTORS
330
13D88
102
}
330
13D88
100
AcDbScale
 70
     0
300
1:10
140
1.0
141
10.0
290
     0
  0
SCALE
  5
13D8F
102
{ACAD_REACTORS
330
13D88
102
}
330
13D88
100
AcDbScale
 70
     0
300
1:16
140
1.0
141
16.0
290
     0
  0
SCALE
  5
13D90
102
{ACAD_REACTORS
330
13D88
102
}
330
13D88
100
AcDbScale
 70
     0
300
1:20
140
1.0
141
20.0
290
     0
  0
SCALE
  5
13D91
102
{ACAD_REACTORS
330
13D88
102
}
330
13D88
100
AcDbScale
 70
     0
300
1:30
140
1.0
141
30.0
290
     0
  0
SCALE
  5
13D92
102
{ACAD_REACTORS
330
13D88
102
}
330
13D88
100
AcDbScale
 70
     0
300
1:40
140
1.0
141
40.0
290
     0
  0
SCALE
  5
13D93
102
{ACAD_REACTORS
330
13D88
102
}
330
13D88
100
AcDbScale
 70
     0
300
1:50
140
1.0
141
50.0
290
     0
  0
SCALE
  5
13D94
102
{ACAD_REACTORS
330
13D88
102
}
330
13D88
100
AcDbScale
 70
     0
300
1:100
140
1.0
141
100.0
290
     0
  0
SCALE
  5
13D95
102
{ACAD_REACTORS
330
13D88
102
}
330
13D88
100
AcDbScale
 70
     0
300
2:1
140
2.0
141
1.0
290
     0
  0
SCALE
  5
13D96
102
{ACAD_REACTORS
330
13D88
102
}
330
13D88
100
AcDbScale
 70
     0
300
4:1
140
4.0
141
1.0
290
     0
  0
SCALE
  5
13D97
102
{ACAD_REACTORS
330
13D88
102
}
330
13D88
100
AcDbScale
 70
     0
300
8:1
140
8.0
141
1.0
290
     0
  0
SCALE
  5
13D98
102
{ACAD_REACTORS
330
13D88
102
}
330
13D88
100
AcDbScale
 70
     0
300
10:1
140
10.0
141
1.0
290
     0
  0
SCALE
  5
13D99
102
{ACAD_REACTORS
330
13D88
102
}
330
13D88
100
AcDbScale
 70
     0
300
100:1
140
100.0
141
1.0
290
     0
  0
ACDBSECTIONVIEWSTYLE
  5
13D9D
102
{ACAD_XDICTIONARY
360
15AF0
102
}
102
{ACAD_REACTORS
330
13D9C
102
}
330
13D9C
100
AcDbModelDocViewStyle
 70
     0
  3
Metric50
290
     0
100
AcDbSectionViewStyle
 70
     0
 71
     0
 90
      102
 71
     1
340
7475
 40
5.0
340
0
340
0
 40
5.0
300
I, O, Q, S, X, Z
 40
10.0
 90
        0
 40
2.5
 90
        0
 71
     2
340
7479
 90
       25
340
7479
 90
       50
 40
5.0
 40
2.5
 40
5.0
 71
     3
340
7475
 40
5.0
 90
        0
 40
15.0
 90
        1
300
%<\AcVar ViewSectionStartId>%-%<\AcVar ViewSectionEndId>% (%<\AcVar ViewScale \f "%sn">%)
 71
     4
300
ANSI31
 40
1.0
 90
        0
290
     0
290
     0
 90
        6
 40
0.0
 40
1.570796326794896
 40
0.2617993877991494
 40
1.308996938995747
 40
-0.2617993877991494
 40
1.832595714594046
  0
TABLESTYLE
  5
13D87
102
{ACAD_XDICTIONARY
360
159FE
102
}
102
{ACAD_REACTORS
330
13D86
102
}
330
13D86
100
AcDbTableStyle
  3
Standard
 70
     0
 71
     0
 40
1.5
 41
1.5
280
     0
281
     0
  7
STANDARD
140
4.5
170
     2
 62
     0
 63
     7
283
     0
274
    -2
284
     1
 64
     0
275
    -2
285
     1
 65
     0
276
    -2
286
     1
 66
     0
277
    -2
287
     1
 67
     0
278
    -2
288
     1
 68
     0
279
    -2
289
     1
 69
     0
  7
STANDARD
140
6.0
170
     5
 62
     0
 63
     7
283
     0
274
    -2
284
     1
 64
     0
275
    -2
285
     1
 65
     0
276
    -2
286
     1
 66
     0
277
    -2
287
     1
 67
     0
278
    -2
288
     1
 68
     0
279
    -2
289
     1
 69
     0
  7
STANDARD
140
4.5
170
     5
 62
     0
 63
     7
283
     0
274
    -2
284
     1
 64
     0
275
    -2
285
     1
 65
     0
276
    -2
286
     1
 66
     0
277
    -2
287
     1
 67
     0
278
    -2
288
     1
 68
     0
279
    -2
289
     1
 69
     0
  0
VISUALSTYLE
  5
13D73
102
{ACAD_XDICTIONARY
360
15AC7
102
}
102
{ACAD_REACTORS
330
13D6D
102
}
330
13D6D
100
AcDbVisualStyle
  2
2dWireframe
 70
     4
 71
     0
 72
     2
 73
     0
 90
        0
 40
-0.6
 41
-30.0
 62
     5
 63
     7
 74
     1
 91
        4
 64
     7
 65
   257
 75
     1
175
     1
 42
1.0
 92
        0
 66
   257
 43
1.0
 76
     1
 77
     6
 78
     2
 67
     7
 79
     5
170
     0
171
     0
290
     0
174
     0
 93
        1
 44
0.0
173
     0
291
     0
 45
0.0
1001
ACAD
1000
AcDbSavedByObjectVersion
1070
     0
  0
VISUALSTYLE
  5
13D72
102
{ACAD_XDICTIONARY
360
15AC5
102
}
102
{ACAD_REACTORS
330
13D6D
102
}
330
13D6D
100
AcDbVisualStyle
  2
Basic
 70
     7
 71
     1
 72
     0
 73
     1
 90
        0
 40
-0.6
 41
-30.0
 62
     5
 63
     7
 74
     0
 91
        4
 64
     7
 65
   257
 75
     1
175
     1
 42
1.0
 92
        8
 66
     7
 43
1.0
 76
     1
 77
     6
 78
     2
 67
     7
 79
     5
170
     0
171
     0
290
     0
174
     0
 93
        1
 44
0.0
173
     0
291
     1
 45
0.0
1001
ACAD
1000
AcDbSavedByObjectVersion
1070
     0
  0
VISUALSTYLE
  5
13D79
102
{ACAD_XDICTIONARY
360
15AD3
102
}
102
{ACAD_REACTORS
330
13D6D
102
}
330
13D6D
100
AcDbVisualStyle
  2
Brighten
 70
    12
 71
     2
 72
     2
 73
     0
 90
        0
 40
-0.6
 41
-30.0
 62
     5
 63
     7
 74
     1
 91
        4
 64
     7
 65
   257
 75
     1
175
     1
 42
1.0
 92
        8
 66
     7
 43
1.0
 76
     1
 77
     6
 78
     2
 67
     7
 79
     5
170
     0
171
     0
290
     0
174
     0
 93
        1
 44
50.0
173
     0
291
     1
 45
0.0
1001
ACAD
1000
AcDbSavedByObjectVersion
1070
     0
  0
VISUALSTYLE
  5
13D7D
102
{ACAD_XDICTIONARY
360
15ADB
102
}
102
{ACAD_REACTORS
330
13D6D
102
}
330
13D6D
100
AcDbVisualStyle
  2
ColorChange
 70
    16
 71
     2
 72
     2
 73
     3
 90
        0
 40
-0.6
 41
-30.0
 62
     5
 63
     8
 74
     1
 91
        4
 64
     7
 65
   257
 75
     1
175
     1
 42
1.0
 92
        8
 66
     8
 43
1.0
 76
     1
 77
     6
 78
     2
 67
     7
 79
     5
170
     0
171
     0
290
     0
174
     0
 93
        1
 44
0.0
173
     0
291
     1
 45
0.0
1001
ACAD
1000
AcDbSavedByObjectVersion
1070
     0
  0
VISUALSTYLE
  5
13D76
102
{ACAD_XDICTIONARY
360
15ACD
102
}
102
{ACAD_REACTORS
330
13D6D
102
}
330
13D6D
100
AcDbVisualStyle
  2
Conceptual
 70
     9
 71
     3
 72
     2
 73
     0
 90
        0
 40
-0.6
 41
-30.0
 62
     5
 63
     7
 74
     2
 91
        2
 64
     7
 65
   257
 75
     1
175
     1
 42
179.0
 92
        8
 66
     7
 43
1.0
 76
     1
 77
     6
 78
     2
 67
     7
 79
     3
170
     0
171
     0
290
     0
174
     0
 93
        1
 44
0.0
173
     0
291
     0
 45
0.0
1001
ACAD
1000
AcDbSavedByObjectVersion
1070
     0
  0
VISUALSTYLE
  5
13D78
102
{ACAD_XDICTIONARY
360
15AD1
102
}
102
{ACAD_REACTORS
330
13D6D
102
}
330
13D6D
100
AcDbVisualStyle
  2
Dim
 70
    11
 71
     2
 72
     2
 73
     0
 90
        0
 40
-0.6
 41
-30.0
 62
     5
 63
     7
 74
     1
 91
        4
 64
     7
 65
   257
 75
     1
175
     1
 42
1.0
 92
        8
 66
     7
 43
1.0
 76
     1
 77
     6
 78
     2
 67
     7
 79
     5
170
     0
171
     0
290
     0
174
     0
 93
        1
 44
-50.0
173
     0
291
     1
 45
0.0
1001
ACAD
1000
AcDbSavedByObjectVersion
1070
     0
  0
VISUALSTYLE
  5
13D85
102
{ACAD_XDICTIONARY
360
15AEB
102
}
102
{ACAD_REACTORS
330
13D6D
102
}
330
13D6D
100
AcDbVisualStyle
  2
EdgeColorOff
 70
    22
 71
     2
 72
     2
 73
     0
 90
        0
 40
-0.6
 41
-30.0
 62
     5
 63
     7
 74
     1
 91
        4
 64
     7
 65
   257
 75
     1
175
     1
 42
1.0
 92
        8
 66
     7
 43
1.0
 76
     1
 77
     6
 78
     2
 67
     7
 79
     5
170
     0
171
     0
290
     0
174
     0
 93
        1
 44
0.0
173
     0
291
     1
 45
0.0
1001
ACAD
1000
AcDbSavedByObjectVersion
1070
     0
  0
VISUALSTYLE
  5
13D7C
102
{ACAD_XDICTIONARY
360
15AD9
102
}
102
{ACAD_REACTORS
330
13D6D
102
}
330
13D6D
100
AcDbVisualStyle
  2
Facepattern
 70
    15
 71
     2
 72
     2
 73
     0
 90
        0
 40
-0.6
 41
-30.0
 62
     5
 63
     7
 74
     1
 91
        4
 64
     7
 65
   257
 75
     1
175
     1
 42
1.0
 92
        8
 66
     7
 43
1.0
 76
     1
 77
     6
 78
     2
 67
     7
 79
     5
170
     0
171
     0
290
     0
174
     0
 93
        1
 44
0.0
173
     0
291
     1
 45
0.0
1001
ACAD
1000
AcDbSavedByObjectVersion
1070
     0
  0
VISUALSTYLE
  5
13D6E
102
{ACAD_XDICTIONARY
360
15ABD
102
}
102
{ACAD_REACTORS
330
13D6D
102
}
330
13D6D
100
AcDbVisualStyle
  2
Flat
 70
     0
 71
     2
 72
     1
 73
     1
 90
        2
 40
-0.6
 41
30.0
 62
     5
 63
     7
 74
     0
 91
        0
 64
     7
 65
   257
 75
     1
175
     1
 42
1.0
 92
        8
 66
     7
 43
1.0
 76
     1
 77
     6
 78
     2
 67
     7
 79
     5
170
     0
171
     0
290
     0
174
     0
 93
       13
 44
0.0
173
     0
291
     1
 45
0.0
1001
ACAD
1000
AcDbSavedByObjectVersion
1070
     0
  0
VISUALSTYLE
  5
13D6F
102
{ACAD_XDICTIONARY
360
15ABF
102
}
102
{ACAD_REACTORS
330
13D6D
102
}
330
13D6D
100
AcDbVisualStyle
  2
FlatWithEdges
 70
     1
 71
     2
 72
     1
 73
     1
 90
        2
 40
-0.6
 41
30.0
 62
     5
 63
     7
 74
     1
 91
        0
 64
     7
 65
   257
 75
     1
175
     1
 42
1.0
 92
        0
 66
   257
 43
1.0
 76
     1
 77
     6
 78
     2
 67
     7
 79
     5
170
     0
171
     0
290
     0
174
     0
 93
       13
 44
0.0
173
     0
291
     1
 45
0.0
1001
ACAD
1000
AcDbSavedByObjectVersion
1070
     0
  0
VISUALSTYLE
  5
13D70
102
{ACAD_XDICTIONARY
360
15AC1
102
}
102
{ACAD_REACTORS
330
13D6D
102
}
330
13D6D
100
AcDbVisualStyle
  2
Gouraud
 70
     2
 71
     2
 72
     2
 73
     1
 90
        2
 40
-0.6
 41
30.0
 62
     5
 63
     7
 74
     0
 91
        0
 64
     7
 65
   257
 75
     1
175
     1
 42
1.0
 92
        0
 66
     7
 43
1.0
 76
     1
 77
     6
 78
     2
 67
     7
 79
     5
170
     0
171
     0
290
     0
174
     0
 93
       13
 44
0.0
173
     0
291
     1
 45
0.0
1001
ACAD
1000
AcDbSavedByObjectVersion
1070
     0
  0
VISUALSTYLE
  5
13D71
102
{ACAD_XDICTIONARY
360
15AC3
102
}
102
{ACAD_REACTORS
330
13D6D
102
}
330
13D6D
100
AcDbVisualStyle
  2
GouraudWithEdges
 70
     3
 71
     2
 72
     2
 73
     1
 90
        2
 40
-0.6
 41
30.0
 62
     5
 63
     7
 74
     1
 91
        0
 64
     7
 65
   257
 75
     1
175
     1
 42
1.0
 92
        0
 66
   257
 43
1.0
 76
     1
 77
     6
 78
     2
 67
     7
 79
     5
170
     0
171
     0
290
     0
174
     0
 93
       13
 44
0.0
173
     0
291
     1
 45
0.0
1001
ACAD
1000
AcDbSavedByObjectVersion
1070
     0
  0
VISUALSTYLE
  5
13D75
102
{ACAD_XDICTIONARY
360
15ACB
102
}
102
{ACAD_REACTORS
330
13D6D
102
}
330
13D6D
100
AcDbVisualStyle
  2
Hidden
 70
     6
 71
     1
 72
     2
 73
     2
 90
        0
 40
-0.6
 41
-30.0
 62
     5
 63
     7
 74
     2
 91
        2
 64
     7
 65
   257
 75
     2
175
     1
 42
40.0
 92
        0
 66
   257
 43
1.0
 76
     1
 77
     6
 78
     2
 67
     7
 79
     3
170
     0
171
     0
290
     0
174
     0
 93
        1
 44
0.0
173
     0
291
     0
 45
0.0
1001
ACAD
1000
AcDbSavedByObjectVersion
1070
     0
  0
VISUALSTYLE
  5
13D83
102
{ACAD_XDICTIONARY
360
15AE7
102
}
102
{ACAD_REACTORS
330
13D6D
102
}
330
13D6D
100
AcDbVisualStyle
  2
JitterOff
 70
    20
 71
     2
 72
     2
 73
     0
 90
        0
 40
-0.6
 41
-30.0
 62
     5
 63
     7
 74
     1
 91
        4
 64
     7
 65
   257
 75
     1
175
     1
 42
1.0
 92
       10
 66
     7
 43
1.0
 76
     1
 77
     6
 78
     2
 67
     7
 79
     5
170
     0
171
     0
290
     0
174
     0
 93
        1
 44
0.0
173
     0
291
     1
 45
0.0
1001
ACAD
1000
AcDbSavedByObjectVersion
1070
     0
  0
VISUALSTYLE
  5
13D7B
102
{ACAD_XDICTIONARY
360
15AD7
102
}
102
{ACAD_REACTORS
330
13D6D
102
}
330
13D6D
100
AcDbVisualStyle
  2
Linepattern
 70
    14
 71
     2
 72
     2
 73
     0
 90
        0
 40
-0.6
 41
-30.0
 62
     5
 63
     7
 74
     1
 91
        4
 64
     7
 65
   257
 75
     7
175
     7
 42
1.0
 92
        8
 66
     7
 43
1.0
 76
     1
 77
     6
 78
     2
 67
     7
 79
     5
170
     0
171
     0
290
     0
174
     0
 93
        1
 44
0.0
173
     0
291
     1
 45
0.0
1001
ACAD
1000
AcDbSavedByObjectVersion
1070
     0
  0
VISUALSTYLE
  5
13D84
102
{ACAD_XDICTIONARY
360
15AE9
102
}
102
{ACAD_REACTORS
330
13D6D
102
}
330
13D6D
100
AcDbVisualStyle
  2
OverhangOff
 70
    21
 71
     2
 72
     2
 73
     0
 90
        0
 40
-0.6
 41
-30.0
 62
     5
 63
     7
 74
     1
 91
        4
 64
     7
 65
   257
 75
     1
175
     1
 42
1.0
 92
        9
 66
     7
 43
1.0
 76
     1
 77
     6
 78
     2
 67
     7
 79
     5
170
     0
171
     0
290
     0
174
     0
 93
        1
 44
0.0
173
     0
291
     1
 45
0.0
1001
ACAD
1000
AcDbSavedByObjectVersion
1070
     0
  0
VISUALSTYLE
  5
13D77
102
{ACAD_XDICTIONARY
360
15ACF
102
}
102
{ACAD_REACTORS
330
13D6D
102
}
330
13D6D
100
AcDbVisualStyle
  2
Realistic
 70
     8
 71
     2
 72
     2
 73
     0
 90
        2
 40
-0.6
 41
30.0
 62
     5
 63
     7
 74
     0
 91
        0
 64
     7
 65
   257
 75
     1
175
     1
 42
1.0
 92
        8
 66
   257
 43
1.0
 76
     1
 77
     6
 78
     2
 67
     7
 79
     3
170
     0
171
     0
290
     0
174
     0
 93
       13
 44
0.0
173
     0
291
     0
 45
0.0
1001
ACAD
1000
AcDbSavedByObjectVersion
1070
     0
  0
VISUALSTYLE
  5
13D82
102
{ACAD_XDICTIONARY
360
15AE5
102
}
102
{ACAD_REACTORS
330
13D6D
102
}
330
13D6D
100
AcDbVisualStyle
  2
Shaded
 70
    27
 71
     2
 72
     2
 73
     1
 90
        2
 40
-0.6
 41
30.0
 62
     5
 63
     7
 74
     0
 91
        4
 64
     7
 65
   257
 75
     1
175
     1
 42
1.0
 92
        8
 66
   257
 43
1.0
 76
     1
 77
     6
 78
     2
 67
     8
 79
     3
170
     0
171
     0
290
     0
174
     0
 93
        5
 44
0.0
173
     0
291
     0
 45
0.0
1001
ACAD
1000
AcDbSavedByObjectVersion
1070
     0
  0
VISUALSTYLE
  5
13D81
102
{ACAD_XDICTIONARY
360
15AE3
102
}
102
{ACAD_REACTORS
330
13D6D
102
}
330
13D6D
100
AcDbVisualStyle
  2
Shaded with edges
 70
    26
 71
     2
 72
     2
 73
     1
 90
        2
 40
-0.6
 41
30.0
 62
     5
 63
     7
 74
     1
 91
       10
 64
     7
 65
   257
 75
     2
175
     1
 42
1.0
 92
        8
 66
   257
 43
1.0
 76
     1
 77
     6
 78
     2
 67
     7
 79
     3
170
     0
171
     0
290
     0
174
     0
 93
        5
 44
0.0
173
     0
291
     0
 45
0.0
1001
ACAD
1000
AcDbSavedByObjectVersion
1070
     0
  0
VISUALSTYLE
  5
13D7E
102
{ACAD_XDICTIONARY
360
15ADD
102
}
102
{ACAD_REACTORS
330
13D6D
102
}
330
13D6D
100
AcDbVisualStyle
  2
Shades of Gray
 70
    23
 71
     2
 72
     2
 73
     3
 90
        0
 40
-0.6
 41
-30.0
 62
     5
 63
     7
 74
     2
 91
        2
 64
     7
 65
     7
 75
     1
175
     1
 42
40.0
 92
        8
 66
     7
 43
1.0
 76
     1
 77
     6
 78
     2
 67
     7
 79
     3
170
     0
171
     0
290
     0
174
     0
 93
        1
 44
0.0
173
     0
291
     0
 45
0.0
1001
ACAD
1000
AcDbSavedByObjectVersion
1070
     0
  0
VISUALSTYLE
  5
13D7F
102
{ACAD_XDICTIONARY
360
15ADF
102
}
102
{ACAD_REACTORS
330
13D6D
102
}
330
13D6D
100
AcDbVisualStyle
  2
Sketchy
 70
    24
 71
     1
 72
     2
 73
     2
 90
        0
 40
-0.6
 41
-30.0
 62
     5
 63
     7
 74
     2
 91
        2
 64
     7
 65
     7
 75
     1
175
     1
 42
40.0
 92
       11
 66
     7
 43
1.0
 76
     1
 77
     6
 78
     2
 67
     7
 79
     6
170
     0
171
     0
290
     0
174
     0
 93
        1
 44
0.0
173
     0
291
     0
 45
0.0
1001
ACAD
1000
AcDbSavedByObjectVersion
1070
     0
  0
VISUALSTYLE
  5
13D7A
102
{ACAD_XDICTIONARY
360
15AD5
102
}
102
{ACAD_REACTORS
330
13D6D
102
}
330
13D6D
100
AcDbVisualStyle
  2
Thicken
 70
    13
 71
     2
 72
     2
 73
     0
 90
        0
 40
-0.6
 41
-30.0
 62
     5
 63
     7
 74
     1
 91
        4
 64
     7
 65
   257
 75
     1
175
     1
 42
1.0
 92
       12
 66
     7
 43
1.0
 76
     1
 77
     6
 78
     2
 67
     7
 79
     5
170
     0
171
     0
290
     0
174
     0
 93
        1
 44
0.0
173
     0
291
     1
 45
0.0
1001
ACAD
1000
AcDbSavedByObjectVersion
1070
     0
  0
VISUALSTYLE
  5
13D74
102
{ACAD_XDICTIONARY
360
15AC9
102
}
102
{ACAD_REACTORS
330
13D6D
102
}
330
13D6D
100
AcDbVisualStyle
  2
Wireframe
 70
     5
 71
     0
 72
     2
 73
     0
 90
        0
 40
-0.6
 41
-30.0
 62
     5
 63
     7
 74
     1
 91
        4
 64
     7
 65
   257
 75
     1
175
     1
 42
1.0
 92
        0
 66
   257
 43
1.0
 76
     1
 77
     6
 78
     2
 67
     7
 79
     3
170
     0
171
     0
290
     0
174
     0
 93
        1
 44
0.0
173
     0
291
     0
 45
0.0
1001
ACAD
1000
AcDbSavedByObjectVersion
1070
     0
  0
VISUALSTYLE
  5
13D80
102
{ACAD_XDICTIONARY
360
15AE1
102
}
102
{ACAD_REACTORS
330
13D6D
102
}
330
13D6D
100
AcDbVisualStyle
  2
X-Ray
 70
    25
 71
     2
 72
     2
 73
     1
 90
        1
 40
0.5
 41
-30.0
 62
     5
 63
     7
 74
     1
 91
        0
 64
     7
 65
   257
 75
     1
175
     1
 42
1.0
 92
        8
 66
     7
 43
1.0
 76
     1
 77
     6
 78
     2
 67
     7
 79
     3
170
     0
171
     0
290
     0
174
     0
 93
       13
 44
0.0
173
     0
291
     0
 45
0.0
1001
ACAD
1000
AcDbSavedByObjectVersion
1070
     0
  0
DICTIONARYVAR
  5
15A47
102
{ACAD_REACTORS
330
13533
102
}
330
13533
100
DictionaryVariables
280
     0
  1
1:1
  0
DICTIONARYVAR
  5
15A44
102
{ACAD_REACTORS
330
13533
102
}
330
13533
100
DictionaryVariables
280
     0
  1
STANDARD
  0
DICTIONARYVAR
  5
15A43
102
{ACAD_REACTORS
330
13533
102
}
330
13533
100
DictionaryVariables
280
     0
  1
STANDARD
  0
DICTIONARYVAR
  5
15A45
102
{ACAD_REACTORS
330
13533
102
}
330
13533
100
DictionaryVariables
280
     0
  1
Metric50
  0
DICTIONARYVAR
  5
15A46
102
{ACAD_REACTORS
330
13533
102
}
330
13533
100
DictionaryVariables
280
     0
  1
Metric50
  0
DICTIONARYVAR
  5
13534
102
{ACAD_REACTORS
330
13533
102
}
330
13533
100
DictionaryVariables
280
     0
  1
1
  0
DICTIONARYVAR
  5
15A49
102
{ACAD_REACTORS
330
13533
102
}
330
13533
100
DictionaryVariables
280
     0
  1
0
  0
DICTIONARYVAR
  5
13535
102
{ACAD_REACTORS
330
13533
102
}
330
13533
100
DictionaryVariables
280
     0
  1

  0
DICTIONARYVAR
  5
15A48
102
{ACAD_REACTORS
330
13533
102
}
330
13533
100
DictionaryVariables
280
     0
  1
127
  0
DICTIONARYVAR
  5
15AB2
102
{ACAD_REACTORS
330
13533
102
}
330
13533
100
DictionaryVariables
280
     0
  1
2
  0
DICTIONARY
  5
15AF2
330
13D9F
100
AcDbDictionary
280
     1
281
     1
  3
ACAD_XREC_ROUNDTRIP
360
15AF3
  0
DICTIONARY
  5
15AB6
330
13420
100
AcDbDictionary
280
     1
281
     1
  3
ACAD_XREC_ROUNDTRIP
360
15AB7
  0
DICTIONARY
  5
15AB8
330
13421
100
AcDbDictionary
280
     1
281
     1
  3
ACAD_XREC_ROUNDTRIP
360
15AB9
  0
DICTIONARY
  5
13D5E
330
13D5D
100
AcDbDictionary
280
     1
281
     1
  3
ACAD_XREC_ROUNDTRIP
360
15ABB
  3
BUMPTILE
360
13D60
  3
DIFFUSETILE
360
13D5F
  3
OPACITYTILE
360
13D63
  3
REFLECTIONTILE
360
13D62
  3
REFRACTIONTILE
360
13D64
  3
SPECULARTILE
360
13D61
  0
DICTIONARY
  5
13D56
330
13D55
100
AcDbDictionary
280
     1
281
     1
  3
ACAD_XREC_ROUNDTRIP
360
15ABA
  3
BUMPTILE
360
13D58
  3
DIFFUSETILE
360
13D57
  3
OPACITYTILE
360
13D5B
  3
REFLECTIONTILE
360
13D5A
  3
REFRACTIONTILE
360
13D5C
  3
SPECULARTILE
360
13D59
  0
DICTIONARY
  5
13D66
330
13D65
100
AcDbDictionary
280
     1
281
     1
  3
ACAD_XREC_ROUNDTRIP
360
15ABC
  3
BUMPTILE
360
13D68
  3
DIFFUSETILE
360
13D67
  3
OPACITYTILE
360
13D6B
  3
REFLECTIONTILE
360
13D6A
  3
REFRACTIONTILE
360
13D6C
  3
SPECULARTILE
360
13D69
  0
DICTIONARY
  5
15AEE
330
13D9B
100
AcDbDictionary
280
     1
281
     1
  3
ACAD_XREC_ROUNDTRIP
360
15AEF
  0
DICTIONARY
  5
15AF0
330
13D9D
100
AcDbDictionary
280
     1
281
     1
  3
ACAD_XREC_ROUNDTRIP
360
15AF1
  0
DICTIONARY
  5
159FE
330
13D87
100
AcDbDictionary
280
     1
281
     1
  3
ACAD_ROUNDTRIP_2008_TABLESTYLE_CELLSTYLEMAP
360
15AB3
  3
ACAD_XREC_ROUNDTRIP
360
15AED
  0
DICTIONARY
  5
15AC7
330
13D73
100
AcDbDictionary
280
     1
281
     1
  3
ACAD_XREC_ROUNDTRIP
360
15AC8
  0
DICTIONARY
  5
15AC5
330
13D72
100
AcDbDictionary
280
     1
281
     1
  3
ACAD_XREC_ROUNDTRIP
360
15AC6
  0
DICTIONARY
  5
15AD3
330
13D79
100
AcDbDictionary
280
     1
281
     1
  3
ACAD_XREC_ROUNDTRIP
360
15AD4
  0
DICTIONARY
  5
15ADB
330
13D7D
100
AcDbDictionary
280
     1
281
     1
  3
ACAD_XREC_ROUNDTRIP
360
15ADC
  0
DICTIONARY
  5
15ACD
330
13D76
100
AcDbDictionary
280
     1
281
     1
  3
ACAD_XREC_ROUNDTRIP
360
15ACE
  0
DICTIONARY
  5
15AD1
330
13D78
100
AcDbDictionary
280
     1
281
     1
  3
ACAD_XREC_ROUNDTRIP
360
15AD2
  0
DICTIONARY
  5
15AEB
330
13D85
100
AcDbDictionary
280
     1
281
     1
  3
ACAD_XREC_ROUNDTRIP
360
15AEC
  0
DICTIONARY
  5
15AD9
330
13D7C
100
AcDbDictionary
280
     1
281
     1
  3
ACAD_XREC_ROUNDTRIP
360
15ADA
  0
DICTIONARY
  5
15ABD
330
13D6E
100
AcDbDictionary
280
     1
281
     1
  3
ACAD_XREC_ROUNDTRIP
360
15ABE
  0
DICTIONARY
  5
15ABF
330
13D6F
100
AcDbDictionary
280
     1
281
     1
  3
ACAD_XREC_ROUNDTRIP
360
15AC0
  0
DICTIONARY
  5
15AC1
330
13D70
100
AcDbDictionary
280
     1
281
     1
  3
ACAD_XREC_ROUNDTRIP
360
15AC2
  0
DICTIONARY
  5
15AC3
330
13D71
100
AcDbDictionary
280
     1
281
     1
  3
ACAD_XREC_ROUNDTRIP
360
15AC4
  0
DICTIONARY
  5
15ACB
330
13D75
100
AcDbDictionary
280
     1
281
     1
  3
ACAD_XREC_ROUNDTRIP
360
15ACC
  0
DICTIONARY
  5
15AE7
330
13D83
100
AcDbDictionary
280
     1
281
     1
  3
ACAD_XREC_ROUNDTRIP
360
15AE8
  0
DICTIONARY
  5
15AD7
330
13D7B
100
AcDbDictionary
280
     1
281
     1
  3
ACAD_XREC_ROUNDTRIP
360
15AD8
  0
DICTIONARY
  5
15AE9
330
13D84
100
AcDbDictionary
280
     1
281
     1
  3
ACAD_XREC_ROUNDTRIP
360
15AEA
  0
DICTIONARY
  5
15ACF
330
13D77
100
AcDbDictionary
280
     1
281
     1
  3
ACAD_XREC_ROUNDTRIP
360
15AD0
  0
DICTIONARY
  5
15AE5
330
13D82
100
AcDbDictionary
280
     1
281
     1
  3
ACAD_XREC_ROUNDTRIP
360
15AE6
  0
DICTIONARY
  5
15AE3
330
13D81
100
AcDbDictionary
280
     1
281
     1
  3
ACAD_XREC_ROUNDTRIP
360
15AE4
  0
DICTIONARY
  5
15ADD
330
13D7E
100
AcDbDictionary
280
     1
281
     1
  3
ACAD_XREC_ROUNDTRIP
360
15ADE
  0
DICTIONARY
  5
15ADF
330
13D7F
100
AcDbDictionary
280
     1
281
     1
  3
ACAD_XREC_ROUNDTRIP
360
15AE0
  0
DICTIONARY
  5
15AD5
330
13D7A
100
AcDbDictionary
280
     1
281
     1
  3
ACAD_XREC_ROUNDTRIP
360
15AD6
  0
DICTIONARY
  5
15AC9
330
13D74
100
AcDbDictionary
280
     1
281
     1
  3
ACAD_XREC_ROUNDTRIP
360
15ACA
  0
DICTIONARY
  5
15AE1
330
13D80
100
AcDbDictionary
280
     1
281
     1
  3
ACAD_XREC_ROUNDTRIP
360
15AE2
  0
XRECORD
  5
15AF3
102
{ACAD_REACTORS
330
15AF2
102
}
330
15AF2
100
AcDbXrecord
280
     1
102
DISPLAYNAME
  1
Metric50
102
FLAGS
 90
        0
  0
XRECORD
  5
15AB7
102
{ACAD_REACTORS
330
15AB6
102
}
330
15AB6
100
AcDbXrecord
280
     1
102
SHADEPLOT
 70
     0
102
SHADEPLOTRESLEVEL
 70
     2
102
SHADEPLOTCUSTOMDPI
 70
   300
  0
XRECORD
  5
15AB9
102
{ACAD_REACTORS
330
15AB8
102
}
330
15AB8
100
AcDbXrecord
280
     1
102
SHADEPLOT
 70
     0
102
SHADEPLOTRESLEVEL
 70
     2
102
SHADEPLOTCUSTOMDPI
 70
   300
  0
XRECORD
  5
15ABB
102
{ACAD_REACTORS
330
13D5E
102
}
330
13D5E
100
AcDbXrecord
280
     1
102
MATERIAL
148
0.0
149
0.0
149
0.0
 93
        0
 94
      127
282
     0
 72
     0
 77
     0
171
     0
175
     0
179
     0
273
     0
  0
XRECORD
  5
13D60
102
{ACAD_REACTORS
330
13D5E
102
}
330
13D5E
100
AcDbXrecord
280
     1
270
     1
271
     1
  0
XRECORD
  5
13D5F
102
{ACAD_REACTORS
330
13D5E
102
}
330
13D5E
100
AcDbXrecord
280
     1
270
     1
271
     1
  0
XRECORD
  5
13D63
102
{ACAD_REACTORS
330
13D5E
102
}
330
13D5E
100
AcDbXrecord
280
     1
270
     1
271
     1
  0
XRECORD
  5
13D62
102
{ACAD_REACTORS
330
13D5E
102
}
330
13D5E
100
AcDbXrecord
280
     1
270
     1
271
     1
  0
XRECORD
  5
13D64
102
{ACAD_REACTORS
330
13D5E
102
}
330
13D5E
100
AcDbXrecord
280
     1
270
     1
271
     1
  0
XRECORD
  5
13D61
102
{ACAD_REACTORS
330
13D5E
102
}
330
13D5E
100
AcDbXrecord
280
     1
270
     1
271
     1
  0
XRECORD
  5
15ABA
102
{ACAD_REACTORS
330
13D56
102
}
330
13D56
100
AcDbXrecord
280
     1
102
MATERIAL
148
0.0
149
0.0
149
0.0
 93
        0
 94
      127
282
     0
 72
     0
 77
     0
171
     0
175
     0
179
     0
273
     0
  0
XRECORD
  5
13D58
102
{ACAD_REACTORS
330
13D56
102
}
330
13D56
100
AcDbXrecord
280
     1
270
     1
271
     1
  0
XRECORD
  5
13D57
102
{ACAD_REACTORS
330
13D56
102
}
330
13D56
100
AcDbXrecord
280
     1
270
     1
271
     1
  0
XRECORD
  5
13D5B
102
{ACAD_REACTORS
330
13D56
102
}
330
13D56
100
AcDbXrecord
280
     1
270
     1
271
     1
  0
XRECORD
  5
13D5A
102
{ACAD_REACTORS
330
13D56
102
}
330
13D56
100
AcDbXrecord
280
     1
270
     1
271
     1
  0
XRECORD
  5
13D5C
102
{ACAD_REACTORS
330
13D56
102
}
330
13D56
100
AcDbXrecord
280
     1
270
     1
271
     1
  0
XRECORD
  5
13D59
102
{ACAD_REACTORS
330
13D56
102
}
330
13D56
100
AcDbXrecord
280
     1
270
     1
271
     1
  0
XRECORD
  5
15ABC
102
{ACAD_REACTORS
330
13D66
102
}
330
13D66
100
AcDbXrecord
280
     1
102
MATERIAL
148
0.0
149
0.0
149
0.0
 93
        0
 94
      127
282
     0
 72
     0
 77
     0
171
     0
175
     0
179
     0
273
     0
  0
XRECORD
  5
13D68
102
{ACAD_REACTORS
330
13D66
102
}
330
13D66
100
AcDbXrecord
280
     1
270
     1
271
     1
  0
XRECORD
  5
13D67
102
{ACAD_REACTORS
330
13D66
102
}
330
13D66
100
AcDbXrecord
280
     1
270
     1
271
     1
  0
XRECORD
  5
13D6B
102
{ACAD_REACTORS
330
13D66
102
}
330
13D66
100
AcDbXrecord
280
     1
270
     1
271
     1
  0
XRECORD
  5
13D6A
102
{ACAD_REACTORS
330
13D66
102
}
330
13D66
100
AcDbXrecord
280
     1
270
     1
271
     1
  0
XRECORD
  5
13D6C
102
{ACAD_REACTORS
330
13D66
102
}
330
13D66
100
AcDbXrecord
280
     1
270
     1
271
     1
  0
XRECORD
  5
13D69
102
{ACAD_REACTORS
330
13D66
102
}
330
13D66
100
AcDbXrecord
280
     1
270
     1
271
     1
  0
XRECORD
  5
15AEF
102
{ACAD_REACTORS
330
15AEE
102
}
330
15AEE
100
AcDbXrecord
280
     1
102
ACAD_ROUNDTRIP_2012_MLEADER_STYLE
298
     1
  0
XRECORD
  5
15AF1
102
{ACAD_REACTORS
330
15AF0
102
}
330
15AF0
100
AcDbXrecord
280
     1
102
DISPLAYNAME
  1
Metric50
102
FLAGS
 90
        0
  0
CELLSTYLEMAP
  5
15AB3
102
{ACAD_REACTORS
330
159FE
102
}
330
159FE
100
AcDbCellStyleMap
 90
        3
300
CELLSTYLE
  1
TABLEFORMAT_BEGIN
 90
        5
170
     1
 91
        0
 92
    32768
 62
   257
 93
        1
300
CONTENTFORMAT
  1
CONTENTFORMAT_BEGIN
 90
        0
 91
        0
 92
      512
 93
        0
300

 40
0.0
140
1.0
 94
        5
 62
     0
340
7475
144
6.0
309
CONTENTFORMAT_END
171
     1
301
MARGIN
  1
CELLMARGIN_BEGIN
 40
1.5
 40
1.5
 40
1.5
 40
1.5
 40
4.5
 40
4.5
309
CELLMARGIN_END
 94
        6
 95
        1
302
GRIDFORMAT
  1
GRIDFORMAT_BEGIN
 90
        0
 91
        1
 62
     0
 92
       -2
340
0
 93
        0
 40
1.125
309
GRIDFORMAT_END
 95
        2
302
GRIDFORMAT
  1
GRIDFORMAT_BEGIN
 90
        0
 91
        1
 62
     0
 92
       -2
340
0
 93
        0
 40
1.125
309
GRIDFORMAT_END
 95
        4
302
GRIDFORMAT
  1
GRIDFORMAT_BEGIN
 90
        0
 91
        1
 62
     0
 92
       -2
340
0
 93
        0
 40
1.125
309
GRIDFORMAT_END
 95
        8
302
GRIDFORMAT
  1
GRIDFORMAT_BEGIN
 90
        0
 91
        1
 62
     0
 92
       -2
340
0
 93
        0
 40
1.125
309
GRIDFORMAT_END
 95
       16
302
GRIDFORMAT
  1
GRIDFORMAT_BEGIN
 90
        0
 91
        1
 62
     0
 92
       -2
340
0
 93
        0
 40
1.125
309
GRIDFORMAT_END
 95
       32
302
GRIDFORMAT
  1
GRIDFORMAT_BEGIN
 90
        0
 91
        1
 62
     0
 92
       -2
340
0
 93
        0
 40
1.125
309
GRIDFORMAT_END
309
TABLEFORMAT_END
  1
CELLSTYLE_BEGIN
 90
        1
 91
        1
300
_TITLE
309
CELLSTYLE_END
300
CELLSTYLE
  1
TABLEFORMAT_BEGIN
 90
        5
170
     1
 91
        0
 92
        0
 62
   257
 93
        1
300
CONTENTFORMAT
  1
CONTENTFORMAT_BEGIN
 90
        0
 91
        0
 92
      512
 93
        0
300

 40
0.0
140
1.0
 94
        5
 62
     0
340
7475
144
4.5
309
CONTENTFORMAT_END
171
     1
301
MARGIN
  1
CELLMARGIN_BEGIN
 40
1.5
 40
1.5
 40
1.5
 40
1.5
 40
4.5
 40
4.5
309
CELLMARGIN_END
 94
        6
 95
        1
302
GRIDFORMAT
  1
GRIDFORMAT_BEGIN
 90
        0
 91
        1
 62
     0
 92
       -2
340
0
 93
        0
 40
1.125
309
GRIDFORMAT_END
 95
        2
302
GRIDFORMAT
  1
GRIDFORMAT_BEGIN
 90
        0
 91
        1
 62
     0
 92
       -2
340
0
 93
        0
 40
1.125
309
GRIDFORMAT_END
 95
        4
302
GRIDFORMAT
  1
GRIDFORMAT_BEGIN
 90
        0
 91
        1
 62
     0
 92
       -2
340
0
 93
        0
 40
1.125
309
GRIDFORMAT_END
 95
        8
302
GRIDFORMAT
  1
GRIDFORMAT_BEGIN
 90
        0
 91
        1
 62
     0
 92
       -2
340
0
 93
        0
 40
1.125
309
GRIDFORMAT_END
 95
       16
302
GRIDFORMAT
  1
GRIDFORMAT_BEGIN
 90
        0
 91
        1
 62
     0
 92
       -2
340
0
 93
        0
 40
1.125
309
GRIDFORMAT_END
 95
       32
302
GRIDFORMAT
  1
GRIDFORMAT_BEGIN
 90
        0
 91
        1
 62
     0
 92
       -2
340
0
 93
        0
 40
1.125
309
GRIDFORMAT_END
309
TABLEFORMAT_END
  1
CELLSTYLE_BEGIN
 90
        2
 91
        1
300
_HEADER
309
CELLSTYLE_END
300
CELLSTYLE
  1
TABLEFORMAT_BEGIN
 90
        5
170
     1
 91
        0
 92
        0
 62
   257
 93
        1
300
CONTENTFORMAT
  1
CONTENTFORMAT_BEGIN
 90
        0
 91
        0
 92
      512
 93
        0
300

 40
0.0
140
1.0
 94
        2
 62
     0
340
7475
144
4.5
309
CONTENTFORMAT_END
171
     1
301
MARGIN
  1
CELLMARGIN_BEGIN
 40
1.5
 40
1.5
 40
1.5
 40
1.5
 40
4.5
 40
4.5
309
CELLMARGIN_END
 94
        6
 95
        1
302
GRIDFORMAT
  1
GRIDFORMAT_BEGIN
 90
        0
 91
        1
 62
     0
 92
       -2
340
0
 93
        0
 40
1.125
309
GRIDFORMAT_END
 95
        2
302
GRIDFORMAT
  1
GRIDFORMAT_BEGIN
 90
        0
 91
        1
 62
     0
 92
       -2
340
0
 93
        0
 40
1.125
309
GRIDFORMAT_END
 95
        4
302
GRIDFORMAT
  1
GRIDFORMAT_BEGIN
 90
        0
 91
        1
 62
     0
 92
       -2
340
0
 93
        0
 40
1.125
309
GRIDFORMAT_END
 95
        8
302
GRIDFORMAT
  1
GRIDFORMAT_BEGIN
 90
        0
 91
        1
 62
     0
 92
       -2
340
0
 93
        0
 40
1.125
309
GRIDFORMAT_END
 95
       16
302
GRIDFORMAT
  1
GRIDFORMAT_BEGIN
 90
        0
 91
        1
 62
     0
 92
       -2
340
0
 93
        0
 40
1.125
309
GRIDFORMAT_END
 95
       32
302
GRIDFORMAT
  1
GRIDFORMAT_BEGIN
 90
        0
 91
        1
 62
     0
 92
       -2
340
0
 93
        0
 40
1.125
309
GRIDFORMAT_END
309
TABLEFORMAT_END
  1
CELLSTYLE_BEGIN
 90
        3
 91
        2
300
_DATA
309
CELLSTYLE_END
  0
XRECORD
  5
15AED
102
{ACAD_REACTORS
330
159FE
102
}
330
159FE
100
AcDbXrecord
280
     1
102
ACAD_ROUNDTRIP_PRE2007_TABLESTYLE
 90
      512
 91
        0
  1

 92
      512
 93
        0
  2

 94
      512
 95
        0
  3

  0
XRECORD
  5
15AC8
102
{ACAD_REACTORS
330
15AC7
102
}
330
15AC7
100
AcDbXrecord
280
     1
102
RTVSPost2010Prop28
280
     1
102
RTVSPost2010PropOp28
 70
     1
102
RTVSPost2010Prop29
280
     1
102
RTVSPost2010PropOp29
 70
     1
102
RTVSPost2010Prop30
280
     0
102
RTVSPost2010PropOp30
 70
     1
102
RTVSPost2010Prop31
280
     0
102
RTVSPost2010PropOp31
 70
     1
102
RTVSPost2010Prop32
280
     0
102
RTVSPost2010PropOp32
 70
     1
102
RTVSPost2010Prop33
280
     0
102
RTVSPost2010PropOp33
 70
     1
102
RTVSPost2010Prop34
280
     0
102
RTVSPost2010PropOp34
 70
     1
102
RTVSPost2010Prop35
280
     0
102
RTVSPost2010PropOp35
 70
     1
102
RTVSPost2010Prop36
280
     0
102
RTVSPost2010PropOp36
 70
     1
102
RTVSPost2010Prop37
 90
       50
102
RTVSPost2010PropOp37
 70
     1
102
RTVSPost2010Prop38
140
0.0
102
RTVSPost2010PropOp38
 70
     1
102
RTVSPost2010Prop39
140
1.0
102
RTVSPost2010PropOp39
 70
     1
102
RTVSPost2010Prop40
 90
        0
102
RTVSPost2010PropOp40
 70
     1
102
RTVSPost2010Prop41ColorIndex
 90
       18
102
RTVSPost2010Prop41ColorRGB
 90
        0
102
RTVSPost2010PropOp41
 70
     1
102
RTVSPost2010Prop42
 90
       50
102
RTVSPost2010PropOp42
 70
     1
102
RTVSPost2010Prop43
 90
        3
102
RTVSPost2010PropOp43
 70
     1
102
RTVSPost2010Prop44ColorIndex
 90
        5
102
RTVSPost2010Prop44ColorRGB
 90
      255
102
RTVSPost2010PropOp44
 70
     1
102
RTVSPost2010Prop45
280
     0
102
RTVSPost2010PropOp45
 70
     1
102
RTVSPost2010Prop46
 90
       50
102
RTVSPost2010PropOp46
 70
     1
102
RTVSPost2010Prop47
 90
       50
102
RTVSPost2010PropOp47
 70
     1
102
RTVSPost2010Prop48
 90
       50
102
RTVSPost2010PropOp48
 70
     1
102
RTVSPost2010Prop49
280
     0
102
RTVSPost2010PropOp49
 70
     1
102
RTVSPost2010Prop50
 90
       50
102
RTVSPost2010PropOp50
 70
     1
102
RTVSPost2010Prop51ColorIndex
 90
      256
102
RTVSPost2010Prop51ColorRGB
 90
-16777216
102
RTVSPost2010PropOp51
 70
     0
102
RTVSPost2010Prop52
140
1.0
102
RTVSPost2010PropOp52
 70
     0
102
RTVSPost2010Prop53
 90
        2
102
RTVSPost2010PropOp53
 70
     1
102
RTVSPost2010Prop54
  1
strokes_ogs.tif
102
RTVSPost2010PropOp54
 70
     1
102
RTVSPost2010Prop55
280
     0
102
RTVSPost2010PropOp55
 70
     1
102
RTVSPost2010Prop56
140
1.0
102
RTVSPost2010PropOp56
 70
     1
102
RTVSPost2010Prop57
140
1.0
102
RTVSPost2010PropOp57
 70
     1
102
RTVSPropertyOp0
 70
     1
102
RTVSPropertyOp1
 70
     1
102
RTVSPropertyOp2
 70
     1
102
RTVSPropertyOp3
 70
     1
102
RTVSPropertyOp4
 70
     1
102
RTVSPropertyOp5
 70
     1
102
RTVSPropertyOp6
 70
     1
102
RTVSPropertyOp7
 70
     1
102
RTVSPropertyOp8
 70
     1
102
RTVSPropertyOp9
 70
     1
102
RTVSPropertyOp10
 70
     1
102
RTVSPropertyOp11
 70
     1
102
RTVSPropertyOp12
 70
     1
102
RTVSPropertyOp13
 70
     1
102
RTVSPropertyOp14
 70
     1
102
RTVSPropertyOp15
 70
     1
102
RTVSPropertyOp16
 70
     1
102
RTVSPropertyOp17
 70
     1
102
RTVSPropertyOp18
 70
     1
102
RTVSPropertyOp19
 70
     1
102
RTVSPropertyOp20
 70
     1
102
RTVSPropertyOp21
 70
     1
102
RTVSPropertyOp22
 70
     1
102
RTVSPropertyOp23
 70
     1
102
RTVSPropertyOp24
 70
     1
102
RTVSPropertyOp25
 70
     1
102
RTVSPropertyOp26
 70
     1
102
RTVSPropertyOp27
 70
     1
102
RTVSPropertyOp28
 70
     1
102
RTVSPropertyOp29
 70
     1
102
RTVSPropertyOp30
 70
     1
102
RTVSPropertyOp31
 70
     1
102
RTVSPropertyOp32
 70
     1
102
RTVSPropertyOp33
 70
     1
102
RTVSPropertyOp34
 70
     1
102
RTVSPropertyOp35
 70
     1
102
RTVSPropertyOp36
 70
     1
102
RTVSPropertyOp37
 70
     1
102
RTVSPropertyOp38
 70
     1
102
RTVSPropertyOp39
 70
     1
102
RTVSPropertyOp40
 70
     1
102
RTVSPropertyOp41
 70
     1
102
RTVSPropertyOp42
 70
     1
102
RTVSPropertyOp43
 70
     1
102
RTVSPropertyOp44
 70
     1
102
RTVSPropertyOp45
 70
     1
102
RTVSPropertyOp46
 70
     1
102
RTVSPropertyOp47
 70
     1
102
RTVSPropertyOp48
 70
     1
102
RTVSPropertyOp49
 70
     1
102
RTVSPropertyOp50
 70
     1
102
RTVSPropertyOp51
 70
     0
102
RTVSPropertyOp52
 70
     0
102
RTVSPropertyOp53
 70
     1
102
RTVSPropertyOp54
 70
     1
102
RTVSPropertyOp55
 70
     1
102
RTVSPropertyOp56
 70
     1
102
RTVSPropertyOp57
 70
     1
102
RTVSPropertyOp58
 70
     1
102
RTVSPropertyOp59
 70
     1
102
RTVSPropertyOp60
 70
     1
102
RTVSPropertyOp61
 70
     1
102
RTVSPropertyOp62
 70
     1
  0
XRECORD
  5
15AC6
102
{ACAD_REACTORS
330
15AC5
102
}
330
15AC5
100
AcDbXrecord
280
     1
102
RTVSPost2010Prop28
280
     0
102
RTVSPost2010PropOp28
 70
     1
102
RTVSPost2010Prop29
280
     1
102
RTVSPost2010PropOp29
 70
     1
102
RTVSPost2010Prop30
280
     1
102
RTVSPost2010PropOp30
 70
     1
102
RTVSPost2010Prop31
280
     0
102
RTVSPost2010PropOp31
 70
     1
102
RTVSPost2010Prop32
280
     0
102
RTVSPost2010PropOp32
 70
     1
102
RTVSPost2010Prop33
280
     0
102
RTVSPost2010PropOp33
 70
     1
102
RTVSPost2010Prop34
280
     0
102
RTVSPost2010PropOp34
 70
     1
102
RTVSPost2010Prop35
280
     0
102
RTVSPost2010PropOp35
 70
     1
102
RTVSPost2010Prop36
280
     0
102
RTVSPost2010PropOp36
 70
     1
102
RTVSPost2010Prop37
 90
       50
102
RTVSPost2010PropOp37
 70
     1
102
RTVSPost2010Prop38
140
0.0
102
RTVSPost2010PropOp38
 70
     1
102
RTVSPost2010Prop39
140
1.0
102
RTVSPost2010PropOp39
 70
     1
102
RTVSPost2010Prop40
 90
        0
102
RTVSPost2010PropOp40
 70
     1
102
RTVSPost2010Prop41ColorIndex
 90
       18
102
RTVSPost2010Prop41ColorRGB
 90
        0
102
RTVSPost2010PropOp41
 70
     1
102
RTVSPost2010Prop42
 90
       50
102
RTVSPost2010PropOp42
 70
     1
102
RTVSPost2010Prop43
 90
        3
102
RTVSPost2010PropOp43
 70
     1
102
RTVSPost2010Prop44ColorIndex
 90
        5
102
RTVSPost2010Prop44ColorRGB
 90
      255
102
RTVSPost2010PropOp44
 70
     1
102
RTVSPost2010Prop45
280
     0
102
RTVSPost2010PropOp45
 70
     1
102
RTVSPost2010Prop46
 90
       50
102
RTVSPost2010PropOp46
 70
     1
102
RTVSPost2010Prop47
 90
       50
102
RTVSPost2010PropOp47
 70
     1
102
RTVSPost2010Prop48
 90
       50
102
RTVSPost2010PropOp48
 70
     1
102
RTVSPost2010Prop49
280
     0
102
RTVSPost2010PropOp49
 70
     1
102
RTVSPost2010Prop50
 90
       50
102
RTVSPost2010PropOp50
 70
     1
102
RTVSPost2010Prop51ColorIndex
 90
      256
102
RTVSPost2010Prop51ColorRGB
 90
-16777216
102
RTVSPost2010PropOp51
 70
     0
102
RTVSPost2010Prop52
140
1.0
102
RTVSPost2010PropOp52
 70
     0
102
RTVSPost2010Prop53
 90
        2
102
RTVSPost2010PropOp53
 70
     1
102
RTVSPost2010Prop54
  1
strokes_ogs.tif
102
RTVSPost2010PropOp54
 70
     1
102
RTVSPost2010Prop55
280
     0
102
RTVSPost2010PropOp55
 70
     1
102
RTVSPost2010Prop56
140
1.0
102
RTVSPost2010PropOp56
 70
     1
102
RTVSPost2010Prop57
140
1.0
102
RTVSPost2010PropOp57
 70
     1
102
RTVSPropertyOp0
 70
     1
102
RTVSPropertyOp1
 70
     1
102
RTVSPropertyOp2
 70
     1
102
RTVSPropertyOp3
 70
     1
102
RTVSPropertyOp4
 70
     1
102
RTVSPropertyOp5
 70
     1
102
RTVSPropertyOp6
 70
     1
102
RTVSPropertyOp7
 70
     1
102
RTVSPropertyOp8
 70
     1
102
RTVSPropertyOp9
 70
     1
102
RTVSPropertyOp10
 70
     1
102
RTVSPropertyOp11
 70
     1
102
RTVSPropertyOp12
 70
     1
102
RTVSPropertyOp13
 70
     1
102
RTVSPropertyOp14
 70
     1
102
RTVSPropertyOp15
 70
     1
102
RTVSPropertyOp16
 70
     1
102
RTVSPropertyOp17
 70
     1
102
RTVSPropertyOp18
 70
     1
102
RTVSPropertyOp19
 70
     1
102
RTVSPropertyOp20
 70
     1
102
RTVSPropertyOp21
 70
     1
102
RTVSPropertyOp22
 70
     1
102
RTVSPropertyOp23
 70
     1
102
RTVSPropertyOp24
 70
     1
102
RTVSPropertyOp25
 70
     1
102
RTVSPropertyOp26
 70
     1
102
RTVSPropertyOp27
 70
     1
102
RTVSPropertyOp28
 70
     1
102
RTVSPropertyOp29
 70
     1
102
RTVSPropertyOp30
 70
     1
102
RTVSPropertyOp31
 70
     1
102
RTVSPropertyOp32
 70
     1
102
RTVSPropertyOp33
 70
     1
102
RTVSPropertyOp34
 70
     1
102
RTVSPropertyOp35
 70
     1
102
RTVSPropertyOp36
 70
     1
102
RTVSPropertyOp37
 70
     1
102
RTVSPropertyOp38
 70
     1
102
RTVSPropertyOp39
 70
     1
102
RTVSPropertyOp40
 70
     1
102
RTVSPropertyOp41
 70
     1
102
RTVSPropertyOp42
 70
     1
102
RTVSPropertyOp43
 70
     1
102
RTVSPropertyOp44
 70
     1
102
RTVSPropertyOp45
 70
     1
102
RTVSPropertyOp46
 70
     1
102
RTVSPropertyOp47
 70
     1
102
RTVSPropertyOp48
 70
     1
102
RTVSPropertyOp49
 70
     1
102
RTVSPropertyOp50
 70
     1
102
RTVSPropertyOp51
 70
     0
102
RTVSPropertyOp52
 70
     0
102
RTVSPropertyOp53
 70
     1
102
RTVSPropertyOp54
 70
     1
102
RTVSPropertyOp55
 70
     1
102
RTVSPropertyOp56
 70
     1
102
RTVSPropertyOp57
 70
     1
102
RTVSPropertyOp58
 70
     1
102
RTVSPropertyOp59
 70
     1
102
RTVSPropertyOp60
 70
     1
102
RTVSPropertyOp61
 70
     1
102
RTVSPropertyOp62
 70
     1
  0
XRECORD
  5
15AD4
102
{ACAD_REACTORS
330
15AD3
102
}
330
15AD3
100
AcDbXrecord
280
     1
102
RTVSPost2010Prop28
280
     0
102
RTVSPost2010PropOp28
 70
     1
102
RTVSPost2010Prop29
280
     1
102
RTVSPost2010PropOp29
 70
     1
102
RTVSPost2010Prop30
280
     1
102
RTVSPost2010PropOp30
 70
     1
102
RTVSPost2010Prop31
280
     0
102
RTVSPost2010PropOp31
 70
     1
102
RTVSPost2010Prop32
280
     0
102
RTVSPost2010PropOp32
 70
     1
102
RTVSPost2010Prop33
280
     0
102
RTVSPost2010PropOp33
 70
     1
102
RTVSPost2010Prop34
280
     0
102
RTVSPost2010PropOp34
 70
     1
102
RTVSPost2010Prop35
280
     0
102
RTVSPost2010PropOp35
 70
     1
102
RTVSPost2010Prop36
280
     0
102
RTVSPost2010PropOp36
 70
     1
102
RTVSPost2010Prop37
 90
       50
102
RTVSPost2010PropOp37
 70
     1
102
RTVSPost2010Prop38
140
0.0
102
RTVSPost2010PropOp38
 70
     1
102
RTVSPost2010Prop39
140
1.0
102
RTVSPost2010PropOp39
 70
     1
102
RTVSPost2010Prop40
 90
        0
102
RTVSPost2010PropOp40
 70
     1
102
RTVSPost2010Prop41ColorIndex
 90
       18
102
RTVSPost2010Prop41ColorRGB
 90
        0
102
RTVSPost2010PropOp41
 70
     1
102
RTVSPost2010Prop42
 90
       50
102
RTVSPost2010PropOp42
 70
     1
102
RTVSPost2010Prop43
 90
        3
102
RTVSPost2010PropOp43
 70
     1
102
RTVSPost2010Prop44ColorIndex
 90
        5
102
RTVSPost2010Prop44ColorRGB
 90
      255
102
RTVSPost2010PropOp44
 70
     1
102
RTVSPost2010Prop45
280
     0
102
RTVSPost2010PropOp45
 70
     1
102
RTVSPost2010Prop46
 90
       50
102
RTVSPost2010PropOp46
 70
     1
102
RTVSPost2010Prop47
 90
       50
102
RTVSPost2010PropOp47
 70
     1
102
RTVSPost2010Prop48
 90
       50
102
RTVSPost2010PropOp48
 70
     1
102
RTVSPost2010Prop49
280
     0
102
RTVSPost2010PropOp49
 70
     1
102
RTVSPost2010Prop50
 90
       50
102
RTVSPost2010PropOp50
 70
     1
102
RTVSPost2010Prop51ColorIndex
 90
      256
102
RTVSPost2010Prop51ColorRGB
 90
-16777216
102
RTVSPost2010PropOp51
 70
     0
102
RTVSPost2010Prop52
140
1.0
102
RTVSPost2010PropOp52
 70
     0
102
RTVSPost2010Prop53
 90
        2
102
RTVSPost2010PropOp53
 70
     1
102
RTVSPost2010Prop54
  1
strokes_ogs.tif
102
RTVSPost2010PropOp54
 70
     1
102
RTVSPost2010Prop55
280
     0
102
RTVSPost2010PropOp55
 70
     1
102
RTVSPost2010Prop56
140
1.0
102
RTVSPost2010PropOp56
 70
     1
102
RTVSPost2010Prop57
140
1.0
102
RTVSPost2010PropOp57
 70
     1
102
RTVSPropertyOp0
 70
     1
102
RTVSPropertyOp1
 70
     1
102
RTVSPropertyOp2
 70
     1
102
RTVSPropertyOp3
 70
     1
102
RTVSPropertyOp4
 70
     1
102
RTVSPropertyOp5
 70
     1
102
RTVSPropertyOp6
 70
     1
102
RTVSPropertyOp7
 70
     1
102
RTVSPropertyOp8
 70
     1
102
RTVSPropertyOp9
 70
     1
102
RTVSPropertyOp10
 70
     1
102
RTVSPropertyOp11
 70
     1
102
RTVSPropertyOp12
 70
     1
102
RTVSPropertyOp13
 70
     1
102
RTVSPropertyOp14
 70
     1
102
RTVSPropertyOp15
 70
     1
102
RTVSPropertyOp16
 70
     1
102
RTVSPropertyOp17
 70
     1
102
RTVSPropertyOp18
 70
     1
102
RTVSPropertyOp19
 70
     1
102
RTVSPropertyOp20
 70
     1
102
RTVSPropertyOp21
 70
     1
102
RTVSPropertyOp22
 70
     1
102
RTVSPropertyOp23
 70
     1
102
RTVSPropertyOp24
 70
     1
102
RTVSPropertyOp25
 70
     1
102
RTVSPropertyOp26
 70
     1
102
RTVSPropertyOp27
 70
     1
102
RTVSPropertyOp28
 70
     1
102
RTVSPropertyOp29
 70
     1
102
RTVSPropertyOp30
 70
     1
102
RTVSPropertyOp31
 70
     1
102
RTVSPropertyOp32
 70
     1
102
RTVSPropertyOp33
 70
     1
102
RTVSPropertyOp34
 70
     1
102
RTVSPropertyOp35
 70
     1
102
RTVSPropertyOp36
 70
     1
102
RTVSPropertyOp37
 70
     1
102
RTVSPropertyOp38
 70
     1
102
RTVSPropertyOp39
 70
     1
102
RTVSPropertyOp40
 70
     1
102
RTVSPropertyOp41
 70
     1
102
RTVSPropertyOp42
 70
     1
102
RTVSPropertyOp43
 70
     1
102
RTVSPropertyOp44
 70
     1
102
RTVSPropertyOp45
 70
     1
102
RTVSPropertyOp46
 70
     1
102
RTVSPropertyOp47
 70
     1
102
RTVSPropertyOp48
 70
     1
102
RTVSPropertyOp49
 70
     1
102
RTVSPropertyOp50
 70
     1
102
RTVSPropertyOp51
 70
     0
102
RTVSPropertyOp52
 70
     0
102
RTVSPropertyOp53
 70
     1
102
RTVSPropertyOp54
 70
     1
102
RTVSPropertyOp55
 70
     1
102
RTVSPropertyOp56
 70
     1
102
RTVSPropertyOp57
 70
     1
102
RTVSPropertyOp58
 70
     1
102
RTVSPropertyOp59
 70
     1
102
RTVSPropertyOp60
 70
     1
102
RTVSPropertyOp61
 70
     1
102
RTVSPropertyOp62
 70
     1
  0
XRECORD
  5
15ADC
102
{ACAD_REACTORS
330
15ADB
102
}
330
15ADB
100
AcDbXrecord
280
     1
102
RTVSPost2010Prop28
280
     0
102
RTVSPost2010PropOp28
 70
     1
102
RTVSPost2010Prop29
280
     1
102
RTVSPost2010PropOp29
 70
     1
102
RTVSPost2010Prop30
280
     1
102
RTVSPost2010PropOp30
 70
     1
102
RTVSPost2010Prop31
280
     0
102
RTVSPost2010PropOp31
 70
     1
102
RTVSPost2010Prop32
280
     0
102
RTVSPost2010PropOp32
 70
     1
102
RTVSPost2010Prop33
280
     0
102
RTVSPost2010PropOp33
 70
     1
102
RTVSPost2010Prop34
280
     0
102
RTVSPost2010PropOp34
 70
     1
102
RTVSPost2010Prop35
280
     0
102
RTVSPost2010PropOp35
 70
     1
102
RTVSPost2010Prop36
280
     0
102
RTVSPost2010PropOp36
 70
     1
102
RTVSPost2010Prop37
 90
       50
102
RTVSPost2010PropOp37
 70
     1
102
RTVSPost2010Prop38
140
0.0
102
RTVSPost2010PropOp38
 70
     1
102
RTVSPost2010Prop39
140
1.0
102
RTVSPost2010PropOp39
 70
     1
102
RTVSPost2010Prop40
 90
        0
102
RTVSPost2010PropOp40
 70
     1
102
RTVSPost2010Prop41ColorIndex
 90
       18
102
RTVSPost2010Prop41ColorRGB
 90
        0
102
RTVSPost2010PropOp41
 70
     1
102
RTVSPost2010Prop42
 90
       50
102
RTVSPost2010PropOp42
 70
     1
102
RTVSPost2010Prop43
 90
        3
102
RTVSPost2010PropOp43
 70
     1
102
RTVSPost2010Prop44ColorIndex
 90
        5
102
RTVSPost2010Prop44ColorRGB
 90
      255
102
RTVSPost2010PropOp44
 70
     1
102
RTVSPost2010Prop45
280
     0
102
RTVSPost2010PropOp45
 70
     1
102
RTVSPost2010Prop46
 90
       50
102
RTVSPost2010PropOp46
 70
     1
102
RTVSPost2010Prop47
 90
       50
102
RTVSPost2010PropOp47
 70
     1
102
RTVSPost2010Prop48
 90
       50
102
RTVSPost2010PropOp48
 70
     1
102
RTVSPost2010Prop49
280
     0
102
RTVSPost2010PropOp49
 70
     1
102
RTVSPost2010Prop50
 90
       50
102
RTVSPost2010PropOp50
 70
     1
102
RTVSPost2010Prop51ColorIndex
 90
      256
102
RTVSPost2010Prop51ColorRGB
 90
-16777216
102
RTVSPost2010PropOp51
 70
     0
102
RTVSPost2010Prop52
140
1.0
102
RTVSPost2010PropOp52
 70
     0
102
RTVSPost2010Prop53
 90
        2
102
RTVSPost2010PropOp53
 70
     1
102
RTVSPost2010Prop54
  1
strokes_ogs.tif
102
RTVSPost2010PropOp54
 70
     1
102
RTVSPost2010Prop55
280
     0
102
RTVSPost2010PropOp55
 70
     1
102
RTVSPost2010Prop56
140
1.0
102
RTVSPost2010PropOp56
 70
     1
102
RTVSPost2010Prop57
140
1.0
102
RTVSPost2010PropOp57
 70
     1
102
RTVSPropertyOp0
 70
     1
102
RTVSPropertyOp1
 70
     1
102
RTVSPropertyOp2
 70
     1
102
RTVSPropertyOp3
 70
     1
102
RTVSPropertyOp4
 70
     1
102
RTVSPropertyOp5
 70
     1
102
RTVSPropertyOp6
 70
     1
102
RTVSPropertyOp7
 70
     1
102
RTVSPropertyOp8
 70
     1
102
RTVSPropertyOp9
 70
     1
102
RTVSPropertyOp10
 70
     1
102
RTVSPropertyOp11
 70
     1
102
RTVSPropertyOp12
 70
     1
102
RTVSPropertyOp13
 70
     1
102
RTVSPropertyOp14
 70
     1
102
RTVSPropertyOp15
 70
     1
102
RTVSPropertyOp16
 70
     1
102
RTVSPropertyOp17
 70
     1
102
RTVSPropertyOp18
 70
     1
102
RTVSPropertyOp19
 70
     1
102
RTVSPropertyOp20
 70
     1
102
RTVSPropertyOp21
 70
     1
102
RTVSPropertyOp22
 70
     1
102
RTVSPropertyOp23
 70
     1
102
RTVSPropertyOp24
 70
     1
102
RTVSPropertyOp25
 70
     1
102
RTVSPropertyOp26
 70
     1
102
RTVSPropertyOp27
 70
     1
102
RTVSPropertyOp28
 70
     1
102
RTVSPropertyOp29
 70
     1
102
RTVSPropertyOp30
 70
     1
102
RTVSPropertyOp31
 70
     1
102
RTVSPropertyOp32
 70
     1
102
RTVSPropertyOp33
 70
     1
102
RTVSPropertyOp34
 70
     1
102
RTVSPropertyOp35
 70
     1
102
RTVSPropertyOp36
 70
     1
102
RTVSPropertyOp37
 70
     1
102
RTVSPropertyOp38
 70
     1
102
RTVSPropertyOp39
 70
     1
102
RTVSPropertyOp40
 70
     1
102
RTVSPropertyOp41
 70
     1
102
RTVSPropertyOp42
 70
     1
102
RTVSPropertyOp43
 70
     1
102
RTVSPropertyOp44
 70
     1
102
RTVSPropertyOp45
 70
     1
102
RTVSPropertyOp46
 70
     1
102
RTVSPropertyOp47
 70
     1
102
RTVSPropertyOp48
 70
     1
102
RTVSPropertyOp49
 70
     1
102
RTVSPropertyOp50
 70
     1
102
RTVSPropertyOp51
 70
     0
102
RTVSPropertyOp52
 70
     0
102
RTVSPropertyOp53
 70
     1
102
RTVSPropertyOp54
 70
     1
102
RTVSPropertyOp55
 70
     1
102
RTVSPropertyOp56
 70
     1
102
RTVSPropertyOp57
 70
     1
102
RTVSPropertyOp58
 70
     1
102
RTVSPropertyOp59
 70
     1
102
RTVSPropertyOp60
 70
     1
102
RTVSPropertyOp61
 70
     1
102
RTVSPropertyOp62
 70
     1
  0
XRECORD
  5
15ACE
102
{ACAD_REACTORS
330
15ACD
102
}
330
15ACD
100
AcDbXrecord
280
     1
102
RTVSPost2010Prop28
280
     0
102
RTVSPost2010PropOp28
 70
     1
102
RTVSPost2010Prop29
280
     1
102
RTVSPost2010PropOp29
 70
     1
102
RTVSPost2010Prop30
280
     1
102
RTVSPost2010PropOp30
 70
     1
102
RTVSPost2010Prop31
280
     0
102
RTVSPost2010PropOp31
 70
     1
102
RTVSPost2010Prop32
280
     0
102
RTVSPost2010PropOp32
 70
     1
102
RTVSPost2010Prop33
280
     0
102
RTVSPost2010PropOp33
 70
     1
102
RTVSPost2010Prop34
280
     0
102
RTVSPost2010PropOp34
 70
     1
102
RTVSPost2010Prop35
280
     0
102
RTVSPost2010PropOp35
 70
     1
102
RTVSPost2010Prop36
280
     0
102
RTVSPost2010PropOp36
 70
     1
102
RTVSPost2010Prop37
 90
       50
102
RTVSPost2010PropOp37
 70
     1
102
RTVSPost2010Prop38
140
0.0
102
RTVSPost2010PropOp38
 70
     1
102
RTVSPost2010Prop39
140
1.0
102
RTVSPost2010PropOp39
 70
     1
102
RTVSPost2010Prop40
 90
        0
102
RTVSPost2010PropOp40
 70
     1
102
RTVSPost2010Prop41ColorIndex
 90
       18
102
RTVSPost2010Prop41ColorRGB
 90
        0
102
RTVSPost2010PropOp41
 70
     1
102
RTVSPost2010Prop42
 90
       50
102
RTVSPost2010PropOp42
 70
     1
102
RTVSPost2010Prop43
 90
        3
102
RTVSPost2010PropOp43
 70
     1
102
RTVSPost2010Prop44ColorIndex
 90
        5
102
RTVSPost2010Prop44ColorRGB
 90
      255
102
RTVSPost2010PropOp44
 70
     1
102
RTVSPost2010Prop45
280
     0
102
RTVSPost2010PropOp45
 70
     1
102
RTVSPost2010Prop46
 90
       50
102
RTVSPost2010PropOp46
 70
     1
102
RTVSPost2010Prop47
 90
       50
102
RTVSPost2010PropOp47
 70
     1
102
RTVSPost2010Prop48
 90
       50
102
RTVSPost2010PropOp48
 70
     1
102
RTVSPost2010Prop49
280
     0
102
RTVSPost2010PropOp49
 70
     1
102
RTVSPost2010Prop50
 90
       50
102
RTVSPost2010PropOp50
 70
     1
102
RTVSPost2010Prop51ColorIndex
 90
      256
102
RTVSPost2010Prop51ColorRGB
 90
-16777216
102
RTVSPost2010PropOp51
 70
     0
102
RTVSPost2010Prop52
140
1.0
102
RTVSPost2010PropOp52
 70
     0
102
RTVSPost2010Prop53
 90
        2
102
RTVSPost2010PropOp53
 70
     1
102
RTVSPost2010Prop54
  1
strokes_ogs.tif
102
RTVSPost2010PropOp54
 70
     1
102
RTVSPost2010Prop55
280
     0
102
RTVSPost2010PropOp55
 70
     1
102
RTVSPost2010Prop56
140
1.0
102
RTVSPost2010PropOp56
 70
     1
102
RTVSPost2010Prop57
140
1.0
102
RTVSPost2010PropOp57
 70
     1
102
RTVSPropertyOp0
 70
     1
102
RTVSPropertyOp1
 70
     1
102
RTVSPropertyOp2
 70
     1
102
RTVSPropertyOp3
 70
     1
102
RTVSPropertyOp4
 70
     1
102
RTVSPropertyOp5
 70
     1
102
RTVSPropertyOp6
 70
     1
102
RTVSPropertyOp7
 70
     1
102
RTVSPropertyOp8
 70
     1
102
RTVSPropertyOp9
 70
     1
102
RTVSPropertyOp10
 70
     1
102
RTVSPropertyOp11
 70
     1
102
RTVSPropertyOp12
 70
     1
102
RTVSPropertyOp13
 70
     1
102
RTVSPropertyOp14
 70
     1
102
RTVSPropertyOp15
 70
     1
102
RTVSPropertyOp16
 70
     1
102
RTVSPropertyOp17
 70
     1
102
RTVSPropertyOp18
 70
     1
102
RTVSPropertyOp19
 70
     1
102
RTVSPropertyOp20
 70
     1
102
RTVSPropertyOp21
 70
     1
102
RTVSPropertyOp22
 70
     1
102
RTVSPropertyOp23
 70
     1
102
RTVSPropertyOp24
 70
     1
102
RTVSPropertyOp25
 70
     1
102
RTVSPropertyOp26
 70
     1
102
RTVSPropertyOp27
 70
     1
102
RTVSPropertyOp28
 70
     1
102
RTVSPropertyOp29
 70
     1
102
RTVSPropertyOp30
 70
     1
102
RTVSPropertyOp31
 70
     1
102
RTVSPropertyOp32
 70
     1
102
RTVSPropertyOp33
 70
     1
102
RTVSPropertyOp34
 70
     1
102
RTVSPropertyOp35
 70
     1
102
RTVSPropertyOp36
 70
     1
102
RTVSPropertyOp37
 70
     1
102
RTVSPropertyOp38
 70
     1
102
RTVSPropertyOp39
 70
     1
102
RTVSPropertyOp40
 70
     1
102
RTVSPropertyOp41
 70
     1
102
RTVSPropertyOp42
 70
     1
102
RTVSPropertyOp43
 70
     1
102
RTVSPropertyOp44
 70
     1
102
RTVSPropertyOp45
 70
     1
102
RTVSPropertyOp46
 70
     1
102
RTVSPropertyOp47
 70
     1
102
RTVSPropertyOp48
 70
     1
102
RTVSPropertyOp49
 70
     1
102
RTVSPropertyOp50
 70
     1
102
RTVSPropertyOp51
 70
     0
102
RTVSPropertyOp52
 70
     0
102
RTVSPropertyOp53
 70
     1
102
RTVSPropertyOp54
 70
     1
102
RTVSPropertyOp55
 70
     1
102
RTVSPropertyOp56
 70
     1
102
RTVSPropertyOp57
 70
     1
102
RTVSPropertyOp58
 70
     1
102
RTVSPropertyOp59
 70
     1
102
RTVSPropertyOp60
 70
     1
102
RTVSPropertyOp61
 70
     1
102
RTVSPropertyOp62
 70
     1
  0
XRECORD
  5
15AD2
102
{ACAD_REACTORS
330
15AD1
102
}
330
15AD1
100
AcDbXrecord
280
     1
102
RTVSPost2010Prop28
280
     0
102
RTVSPost2010PropOp28
 70
     1
102
RTVSPost2010Prop29
280
     1
102
RTVSPost2010PropOp29
 70
     1
102
RTVSPost2010Prop30
280
     1
102
RTVSPost2010PropOp30
 70
     1
102
RTVSPost2010Prop31
280
     0
102
RTVSPost2010PropOp31
 70
     1
102
RTVSPost2010Prop32
280
     0
102
RTVSPost2010PropOp32
 70
     1
102
RTVSPost2010Prop33
280
     0
102
RTVSPost2010PropOp33
 70
     1
102
RTVSPost2010Prop34
280
     0
102
RTVSPost2010PropOp34
 70
     1
102
RTVSPost2010Prop35
280
     0
102
RTVSPost2010PropOp35
 70
     1
102
RTVSPost2010Prop36
280
     0
102
RTVSPost2010PropOp36
 70
     1
102
RTVSPost2010Prop37
 90
       50
102
RTVSPost2010PropOp37
 70
     1
102
RTVSPost2010Prop38
140
0.0
102
RTVSPost2010PropOp38
 70
     1
102
RTVSPost2010Prop39
140
1.0
102
RTVSPost2010PropOp39
 70
     1
102
RTVSPost2010Prop40
 90
        0
102
RTVSPost2010PropOp40
 70
     1
102
RTVSPost2010Prop41ColorIndex
 90
       18
102
RTVSPost2010Prop41ColorRGB
 90
        0
102
RTVSPost2010PropOp41
 70
     1
102
RTVSPost2010Prop42
 90
       50
102
RTVSPost2010PropOp42
 70
     1
102
RTVSPost2010Prop43
 90
        3
102
RTVSPost2010PropOp43
 70
     1
102
RTVSPost2010Prop44ColorIndex
 90
        5
102
RTVSPost2010Prop44ColorRGB
 90
      255
102
RTVSPost2010PropOp44
 70
     1
102
RTVSPost2010Prop45
280
     0
102
RTVSPost2010PropOp45
 70
     1
102
RTVSPost2010Prop46
 90
       50
102
RTVSPost2010PropOp46
 70
     1
102
RTVSPost2010Prop47
 90
       50
102
RTVSPost2010PropOp47
 70
     1
102
RTVSPost2010Prop48
 90
       50
102
RTVSPost2010PropOp48
 70
     1
102
RTVSPost2010Prop49
280
     0
102
RTVSPost2010PropOp49
 70
     1
102
RTVSPost2010Prop50
 90
       50
102
RTVSPost2010PropOp50
 70
     1
102
RTVSPost2010Prop51ColorIndex
 90
      256
102
RTVSPost2010Prop51ColorRGB
 90
-16777216
102
RTVSPost2010PropOp51
 70
     0
102
RTVSPost2010Prop52
140
1.0
102
RTVSPost2010PropOp52
 70
     0
102
RTVSPost2010Prop53
 90
        2
102
RTVSPost2010PropOp53
 70
     1
102
RTVSPost2010Prop54
  1
strokes_ogs.tif
102
RTVSPost2010PropOp54
 70
     1
102
RTVSPost2010Prop55
280
     0
102
RTVSPost2010PropOp55
 70
     1
102
RTVSPost2010Prop56
140
1.0
102
RTVSPost2010PropOp56
 70
     1
102
RTVSPost2010Prop57
140
1.0
102
RTVSPost2010PropOp57
 70
     1
102
RTVSPropertyOp0
 70
     1
102
RTVSPropertyOp1
 70
     1
102
RTVSPropertyOp2
 70
     1
102
RTVSPropertyOp3
 70
     1
102
RTVSPropertyOp4
 70
     1
102
RTVSPropertyOp5
 70
     1
102
RTVSPropertyOp6
 70
     1
102
RTVSPropertyOp7
 70
     1
102
RTVSPropertyOp8
 70
     1
102
RTVSPropertyOp9
 70
     1
102
RTVSPropertyOp10
 70
     1
102
RTVSPropertyOp11
 70
     1
102
RTVSPropertyOp12
 70
     1
102
RTVSPropertyOp13
 70
     1
102
RTVSPropertyOp14
 70
     1
102
RTVSPropertyOp15
 70
     1
102
RTVSPropertyOp16
 70
     1
102
RTVSPropertyOp17
 70
     1
102
RTVSPropertyOp18
 70
     1
102
RTVSPropertyOp19
 70
     1
102
RTVSPropertyOp20
 70
     1
102
RTVSPropertyOp21
 70
     1
102
RTVSPropertyOp22
 70
     1
102
RTVSPropertyOp23
 70
     1
102
RTVSPropertyOp24
 70
     1
102
RTVSPropertyOp25
 70
     1
102
RTVSPropertyOp26
 70
     1
102
RTVSPropertyOp27
 70
     1
102
RTVSPropertyOp28
 70
     1
102
RTVSPropertyOp29
 70
     1
102
RTVSPropertyOp30
 70
     1
102
RTVSPropertyOp31
 70
     1
102
RTVSPropertyOp32
 70
     1
102
RTVSPropertyOp33
 70
     1
102
RTVSPropertyOp34
 70
     1
102
RTVSPropertyOp35
 70
     1
102
RTVSPropertyOp36
 70
     1
102
RTVSPropertyOp37
 70
     1
102
RTVSPropertyOp38
 70
     1
102
RTVSPropertyOp39
 70
     1
102
RTVSPropertyOp40
 70
     1
102
RTVSPropertyOp41
 70
     1
102
RTVSPropertyOp42
 70
     1
102
RTVSPropertyOp43
 70
     1
102
RTVSPropertyOp44
 70
     1
102
RTVSPropertyOp45
 70
     1
102
RTVSPropertyOp46
 70
     1
102
RTVSPropertyOp47
 70
     1
102
RTVSPropertyOp48
 70
     1
102
RTVSPropertyOp49
 70
     1
102
RTVSPropertyOp50
 70
     1
102
RTVSPropertyOp51
 70
     0
102
RTVSPropertyOp52
 70
     0
102
RTVSPropertyOp53
 70
     1
102
RTVSPropertyOp54
 70
     1
102
RTVSPropertyOp55
 70
     1
102
RTVSPropertyOp56
 70
     1
102
RTVSPropertyOp57
 70
     1
102
RTVSPropertyOp58
 70
     1
102
RTVSPropertyOp59
 70
     1
102
RTVSPropertyOp60
 70
     1
102
RTVSPropertyOp61
 70
     1
102
RTVSPropertyOp62
 70
     1
  0
XRECORD
  5
15AEC
102
{ACAD_REACTORS
330
15AEB
102
}
330
15AEB
100
AcDbXrecord
280
     1
102
RTVSPost2010Prop28
280
     0
102
RTVSPost2010PropOp28
 70
     0
102
RTVSPost2010Prop29
280
     1
102
RTVSPost2010PropOp29
 70
     0
102
RTVSPost2010Prop30
280
     1
102
RTVSPost2010PropOp30
 70
     0
102
RTVSPost2010Prop31
280
     0
102
RTVSPost2010PropOp31
 70
     0
102
RTVSPost2010Prop32
280
     0
102
RTVSPost2010PropOp32
 70
     0
102
RTVSPost2010Prop33
280
     0
102
RTVSPost2010PropOp33
 70
     0
102
RTVSPost2010Prop34
280
     0
102
RTVSPost2010PropOp34
 70
     0
102
RTVSPost2010Prop35
280
     0
102
RTVSPost2010PropOp35
 70
     0
102
RTVSPost2010Prop36
280
     0
102
RTVSPost2010PropOp36
 70
     0
102
RTVSPost2010Prop37
 90
       50
102
RTVSPost2010PropOp37
 70
     0
102
RTVSPost2010Prop38
140
0.0
102
RTVSPost2010PropOp38
 70
     0
102
RTVSPost2010Prop39
140
1.0
102
RTVSPost2010PropOp39
 70
     0
102
RTVSPost2010Prop40
 90
        0
102
RTVSPost2010PropOp40
 70
     0
102
RTVSPost2010Prop41ColorIndex
 90
       18
102
RTVSPost2010Prop41ColorRGB
 90
        0
102
RTVSPost2010PropOp41
 70
     0
102
RTVSPost2010Prop42
 90
       50
102
RTVSPost2010PropOp42
 70
     0
102
RTVSPost2010Prop43
 90
        3
102
RTVSPost2010PropOp43
 70
     0
102
RTVSPost2010Prop44ColorIndex
 90
        5
102
RTVSPost2010Prop44ColorRGB
 90
      255
102
RTVSPost2010PropOp44
 70
     0
102
RTVSPost2010Prop45
280
     0
102
RTVSPost2010PropOp45
 70
     0
102
RTVSPost2010Prop46
 90
       50
102
RTVSPost2010PropOp46
 70
     0
102
RTVSPost2010Prop47
 90
       50
102
RTVSPost2010PropOp47
 70
     0
102
RTVSPost2010Prop48
 90
       50
102
RTVSPost2010PropOp48
 70
     0
102
RTVSPost2010Prop49
280
     0
102
RTVSPost2010PropOp49
 70
     0
102
RTVSPost2010Prop50
 90
       50
102
RTVSPost2010PropOp50
 70
     0
102
RTVSPost2010Prop51ColorIndex
 90
      256
102
RTVSPost2010Prop51ColorRGB
 90
-16777216
102
RTVSPost2010PropOp51
 70
     0
102
RTVSPost2010Prop52
140
1.0
102
RTVSPost2010PropOp52
 70
     0
102
RTVSPost2010Prop53
 90
        2
102
RTVSPost2010PropOp53
 70
     0
102
RTVSPost2010Prop54
  1
strokes_ogs.tif
102
RTVSPost2010PropOp54
 70
     0
102
RTVSPost2010Prop55
280
     0
102
RTVSPost2010PropOp55
 70
     0
102
RTVSPost2010Prop56
140
1.0
102
RTVSPost2010PropOp56
 70
     0
102
RTVSPost2010Prop57
140
1.0
102
RTVSPost2010PropOp57
 70
     0
102
RTVSPropertyOp0
 70
     0
102
RTVSPropertyOp1
 70
     0
102
RTVSPropertyOp2
 70
     0
102
RTVSPropertyOp3
 70
     0
102
RTVSPropertyOp4
 70
     0
102
RTVSPropertyOp5
 70
     0
102
RTVSPropertyOp6
 70
     0
102
RTVSPropertyOp7
 70
     0
102
RTVSPropertyOp8
 70
     0
102
RTVSPropertyOp9
 70
     0
102
RTVSPropertyOp10
 70
     0
102
RTVSPropertyOp11
 70
     0
102
RTVSPropertyOp12
 70
     0
102
RTVSPropertyOp13
 70
     0
102
RTVSPropertyOp14
 70
     2
102
RTVSPropertyOp15
 70
     0
102
RTVSPropertyOp16
 70
     0
102
RTVSPropertyOp17
 70
     0
102
RTVSPropertyOp18
 70
     0
102
RTVSPropertyOp19
 70
     0
102
RTVSPropertyOp20
 70
     0
102
RTVSPropertyOp21
 70
     0
102
RTVSPropertyOp22
 70
     0
102
RTVSPropertyOp23
 70
     0
102
RTVSPropertyOp24
 70
     0
102
RTVSPropertyOp25
 70
     0
102
RTVSPropertyOp26
 70
     0
102
RTVSPropertyOp27
 70
     0
102
RTVSPropertyOp28
 70
     0
102
RTVSPropertyOp29
 70
     0
102
RTVSPropertyOp30
 70
     0
102
RTVSPropertyOp31
 70
     0
102
RTVSPropertyOp32
 70
     0
102
RTVSPropertyOp33
 70
     0
102
RTVSPropertyOp34
 70
     0
102
RTVSPropertyOp35
 70
     0
102
RTVSPropertyOp36
 70
     0
102
RTVSPropertyOp37
 70
     0
102
RTVSPropertyOp38
 70
     0
102
RTVSPropertyOp39
 70
     0
102
RTVSPropertyOp40
 70
     0
102
RTVSPropertyOp41
 70
     0
102
RTVSPropertyOp42
 70
     0
102
RTVSPropertyOp43
 70
     0
102
RTVSPropertyOp44
 70
     0
102
RTVSPropertyOp45
 70
     0
102
RTVSPropertyOp46
 70
     0
102
RTVSPropertyOp47
 70
     0
102
RTVSPropertyOp48
 70
     0
102
RTVSPropertyOp49
 70
     0
102
RTVSPropertyOp50
 70
     0
102
RTVSPropertyOp51
 70
     0
102
RTVSPropertyOp52
 70
     0
102
RTVSPropertyOp53
 70
     0
102
RTVSPropertyOp54
 70
     0
102
RTVSPropertyOp55
 70
     0
102
RTVSPropertyOp56
 70
     0
102
RTVSPropertyOp57
 70
     0
102
RTVSPropertyOp58
 70
     0
102
RTVSPropertyOp59
 70
     0
102
RTVSPropertyOp60
 70
     0
102
RTVSPropertyOp61
 70
     0
102
RTVSPropertyOp62
 70
     0
  0
XRECORD
  5
15ADA
102
{ACAD_REACTORS
330
15AD9
102
}
330
15AD9
100
AcDbXrecord
280
     1
102
RTVSPost2010Prop28
280
     0
102
RTVSPost2010PropOp28
 70
     1
102
RTVSPost2010Prop29
280
     1
102
RTVSPost2010PropOp29
 70
     1
102
RTVSPost2010Prop30
280
     1
102
RTVSPost2010PropOp30
 70
     1
102
RTVSPost2010Prop31
280
     0
102
RTVSPost2010PropOp31
 70
     1
102
RTVSPost2010Prop32
280
     0
102
RTVSPost2010PropOp32
 70
     1
102
RTVSPost2010Prop33
280
     0
102
RTVSPost2010PropOp33
 70
     1
102
RTVSPost2010Prop34
280
     0
102
RTVSPost2010PropOp34
 70
     1
102
RTVSPost2010Prop35
280
     0
102
RTVSPost2010PropOp35
 70
     1
102
RTVSPost2010Prop36
280
     0
102
RTVSPost2010PropOp36
 70
     1
102
RTVSPost2010Prop37
 90
       50
102
RTVSPost2010PropOp37
 70
     1
102
RTVSPost2010Prop38
140
0.0
102
RTVSPost2010PropOp38
 70
     1
102
RTVSPost2010Prop39
140
1.0
102
RTVSPost2010PropOp39
 70
     1
102
RTVSPost2010Prop40
 90
        0
102
RTVSPost2010PropOp40
 70
     1
102
RTVSPost2010Prop41ColorIndex
 90
       18
102
RTVSPost2010Prop41ColorRGB
 90
        0
102
RTVSPost2010PropOp41
 70
     1
102
RTVSPost2010Prop42
 90
       50
102
RTVSPost2010PropOp42
 70
     1
102
RTVSPost2010Prop43
 90
        3
102
RTVSPost2010PropOp43
 70
     1
102
RTVSPost2010Prop44ColorIndex
 90
        5
102
RTVSPost2010Prop44ColorRGB
 90
      255
102
RTVSPost2010PropOp44
 70
     1
102
RTVSPost2010Prop45
280
     0
102
RTVSPost2010PropOp45
 70
     1
102
RTVSPost2010Prop46
 90
       50
102
RTVSPost2010PropOp46
 70
     1
102
RTVSPost2010Prop47
 90
       50
102
RTVSPost2010PropOp47
 70
     1
102
RTVSPost2010Prop48
 90
       50
102
RTVSPost2010PropOp48
 70
     1
102
RTVSPost2010Prop49
280
     0
102
RTVSPost2010PropOp49
 70
     1
102
RTVSPost2010Prop50
 90
       50
102
RTVSPost2010PropOp50
 70
     1
102
RTVSPost2010Prop51ColorIndex
 90
      256
102
RTVSPost2010Prop51ColorRGB
 90
-16777216
102
RTVSPost2010PropOp51
 70
     0
102
RTVSPost2010Prop52
140
1.0
102
RTVSPost2010PropOp52
 70
     0
102
RTVSPost2010Prop53
 90
        2
102
RTVSPost2010PropOp53
 70
     1
102
RTVSPost2010Prop54
  1
strokes_ogs.tif
102
RTVSPost2010PropOp54
 70
     1
102
RTVSPost2010Prop55
280
     0
102
RTVSPost2010PropOp55
 70
     1
102
RTVSPost2010Prop56
140
1.0
102
RTVSPost2010PropOp56
 70
     1
102
RTVSPost2010Prop57
140
1.0
102
RTVSPost2010PropOp57
 70
     1
102
RTVSPropertyOp0
 70
     1
102
RTVSPropertyOp1
 70
     1
102
RTVSPropertyOp2
 70
     1
102
RTVSPropertyOp3
 70
     1
102
RTVSPropertyOp4
 70
     1
102
RTVSPropertyOp5
 70
     1
102
RTVSPropertyOp6
 70
     1
102
RTVSPropertyOp7
 70
     1
102
RTVSPropertyOp8
 70
     1
102
RTVSPropertyOp9
 70
     1
102
RTVSPropertyOp10
 70
     1
102
RTVSPropertyOp11
 70
     1
102
RTVSPropertyOp12
 70
     1
102
RTVSPropertyOp13
 70
     1
102
RTVSPropertyOp14
 70
     1
102
RTVSPropertyOp15
 70
     1
102
RTVSPropertyOp16
 70
     1
102
RTVSPropertyOp17
 70
     1
102
RTVSPropertyOp18
 70
     1
102
RTVSPropertyOp19
 70
     1
102
RTVSPropertyOp20
 70
     1
102
RTVSPropertyOp21
 70
     1
102
RTVSPropertyOp22
 70
     1
102
RTVSPropertyOp23
 70
     1
102
RTVSPropertyOp24
 70
     1
102
RTVSPropertyOp25
 70
     1
102
RTVSPropertyOp26
 70
     1
102
RTVSPropertyOp27
 70
     1
102
RTVSPropertyOp28
 70
     1
102
RTVSPropertyOp29
 70
     1
102
RTVSPropertyOp30
 70
     1
102
RTVSPropertyOp31
 70
     1
102
RTVSPropertyOp32
 70
     1
102
RTVSPropertyOp33
 70
     1
102
RTVSPropertyOp34
 70
     1
102
RTVSPropertyOp35
 70
     1
102
RTVSPropertyOp36
 70
     1
102
RTVSPropertyOp37
 70
     1
102
RTVSPropertyOp38
 70
     1
102
RTVSPropertyOp39
 70
     1
102
RTVSPropertyOp40
 70
     1
102
RTVSPropertyOp41
 70
     1
102
RTVSPropertyOp42
 70
     1
102
RTVSPropertyOp43
 70
     1
102
RTVSPropertyOp44
 70
     1
102
RTVSPropertyOp45
 70
     1
102
RTVSPropertyOp46
 70
     1
102
RTVSPropertyOp47
 70
     1
102
RTVSPropertyOp48
 70
     1
102
RTVSPropertyOp49
 70
     1
102
RTVSPropertyOp50
 70
     1
102
RTVSPropertyOp51
 70
     0
102
RTVSPropertyOp52
 70
     0
102
RTVSPropertyOp53
 70
     1
102
RTVSPropertyOp54
 70
     1
102
RTVSPropertyOp55
 70
     1
102
RTVSPropertyOp56
 70
     1
102
RTVSPropertyOp57
 70
     1
102
RTVSPropertyOp58
 70
     1
102
RTVSPropertyOp59
 70
     1
102
RTVSPropertyOp60
 70
     1
102
RTVSPropertyOp61
 70
     1
102
RTVSPropertyOp62
 70
     1
  0
XRECORD
  5
15ABE
102
{ACAD_REACTORS
330
15ABD
102
}
330
15ABD
100
AcDbXrecord
280
     1
102
RTVSPost2010Prop28
280
     0
102
RTVSPost2010PropOp28
 70
     1
102
RTVSPost2010Prop29
280
     1
102
RTVSPost2010PropOp29
 70
     1
102
RTVSPost2010Prop30
280
     1
102
RTVSPost2010PropOp30
 70
     1
102
RTVSPost2010Prop31
280
     0
102
RTVSPost2010PropOp31
 70
     1
102
RTVSPost2010Prop32
280
     0
102
RTVSPost2010PropOp32
 70
     1
102
RTVSPost2010Prop33
280
     0
102
RTVSPost2010PropOp33
 70
     1
102
RTVSPost2010Prop34
280
     0
102
RTVSPost2010PropOp34
 70
     1
102
RTVSPost2010Prop35
280
     0
102
RTVSPost2010PropOp35
 70
     1
102
RTVSPost2010Prop36
280
     0
102
RTVSPost2010PropOp36
 70
     1
102
RTVSPost2010Prop37
 90
       50
102
RTVSPost2010PropOp37
 70
     1
102
RTVSPost2010Prop38
140
0.0
102
RTVSPost2010PropOp38
 70
     1
102
RTVSPost2010Prop39
140
1.0
102
RTVSPost2010PropOp39
 70
     1
102
RTVSPost2010Prop40
 90
        0
102
RTVSPost2010PropOp40
 70
     1
102
RTVSPost2010Prop41ColorIndex
 90
       18
102
RTVSPost2010Prop41ColorRGB
 90
        0
102
RTVSPost2010PropOp41
 70
     1
102
RTVSPost2010Prop42
 90
       50
102
RTVSPost2010PropOp42
 70
     1
102
RTVSPost2010Prop43
 90
        3
102
RTVSPost2010PropOp43
 70
     1
102
RTVSPost2010Prop44ColorIndex
 90
        5
102
RTVSPost2010Prop44ColorRGB
 90
      255
102
RTVSPost2010PropOp44
 70
     1
102
RTVSPost2010Prop45
280
     0
102
RTVSPost2010PropOp45
 70
     1
102
RTVSPost2010Prop46
 90
       50
102
RTVSPost2010PropOp46
 70
     1
102
RTVSPost2010Prop47
 90
       50
102
RTVSPost2010PropOp47
 70
     1
102
RTVSPost2010Prop48
 90
       50
102
RTVSPost2010PropOp48
 70
     1
102
RTVSPost2010Prop49
280
     0
102
RTVSPost2010PropOp49
 70
     1
102
RTVSPost2010Prop50
 90
       50
102
RTVSPost2010PropOp50
 70
     1
102
RTVSPost2010Prop51ColorIndex
 90
      256
102
RTVSPost2010Prop51ColorRGB
 90
-16777216
102
RTVSPost2010PropOp51
 70
     0
102
RTVSPost2010Prop52
140
1.0
102
RTVSPost2010PropOp52
 70
     0
102
RTVSPost2010Prop53
 90
        2
102
RTVSPost2010PropOp53
 70
     1
102
RTVSPost2010Prop54
  1
strokes_ogs.tif
102
RTVSPost2010PropOp54
 70
     1
102
RTVSPost2010Prop55
280
     0
102
RTVSPost2010PropOp55
 70
     1
102
RTVSPost2010Prop56
140
1.0
102
RTVSPost2010PropOp56
 70
     1
102
RTVSPost2010Prop57
140
1.0
102
RTVSPost2010PropOp57
 70
     1
102
RTVSPropertyOp0
 70
     1
102
RTVSPropertyOp1
 70
     1
102
RTVSPropertyOp2
 70
     1
102
RTVSPropertyOp3
 70
     1
102
RTVSPropertyOp4
 70
     1
102
RTVSPropertyOp5
 70
     1
102
RTVSPropertyOp6
 70
     1
102
RTVSPropertyOp7
 70
     1
102
RTVSPropertyOp8
 70
     1
102
RTVSPropertyOp9
 70
     1
102
RTVSPropertyOp10
 70
     1
102
RTVSPropertyOp11
 70
     1
102
RTVSPropertyOp12
 70
     1
102
RTVSPropertyOp13
 70
     1
102
RTVSPropertyOp14
 70
     1
102
RTVSPropertyOp15
 70
     1
102
RTVSPropertyOp16
 70
     1
102
RTVSPropertyOp17
 70
     1
102
RTVSPropertyOp18
 70
     1
102
RTVSPropertyOp19
 70
     1
102
RTVSPropertyOp20
 70
     1
102
RTVSPropertyOp21
 70
     1
102
RTVSPropertyOp22
 70
     1
102
RTVSPropertyOp23
 70
     1
102
RTVSPropertyOp24
 70
     1
102
RTVSPropertyOp25
 70
     1
102
RTVSPropertyOp26
 70
     1
102
RTVSPropertyOp27
 70
     1
102
RTVSPropertyOp28
 70
     1
102
RTVSPropertyOp29
 70
     1
102
RTVSPropertyOp30
 70
     1
102
RTVSPropertyOp31
 70
     1
102
RTVSPropertyOp32
 70
     1
102
RTVSPropertyOp33
 70
     1
102
RTVSPropertyOp34
 70
     1
102
RTVSPropertyOp35
 70
     1
102
RTVSPropertyOp36
 70
     1
102
RTVSPropertyOp37
 70
     1
102
RTVSPropertyOp38
 70
     1
102
RTVSPropertyOp39
 70
     1
102
RTVSPropertyOp40
 70
     1
102
RTVSPropertyOp41
 70
     1
102
RTVSPropertyOp42
 70
     1
102
RTVSPropertyOp43
 70
     1
102
RTVSPropertyOp44
 70
     1
102
RTVSPropertyOp45
 70
     1
102
RTVSPropertyOp46
 70
     1
102
RTVSPropertyOp47
 70
     1
102
RTVSPropertyOp48
 70
     1
102
RTVSPropertyOp49
 70
     1
102
RTVSPropertyOp50
 70
     1
102
RTVSPropertyOp51
 70
     0
102
RTVSPropertyOp52
 70
     0
102
RTVSPropertyOp53
 70
     1
102
RTVSPropertyOp54
 70
     1
102
RTVSPropertyOp55
 70
     1
102
RTVSPropertyOp56
 70
     1
102
RTVSPropertyOp57
 70
     1
102
RTVSPropertyOp58
 70
     1
102
RTVSPropertyOp59
 70
     1
102
RTVSPropertyOp60
 70
     1
102
RTVSPropertyOp61
 70
     1
102
RTVSPropertyOp62
 70
     1
  0
XRECORD
  5
15AC0
102
{ACAD_REACTORS
330
15ABF
102
}
330
15ABF
100
AcDbXrecord
280
     1
102
RTVSPost2010Prop28
280
     0
102
RTVSPost2010PropOp28
 70
     1
102
RTVSPost2010Prop29
280
     1
102
RTVSPost2010PropOp29
 70
     1
102
RTVSPost2010Prop30
280
     1
102
RTVSPost2010PropOp30
 70
     1
102
RTVSPost2010Prop31
280
     0
102
RTVSPost2010PropOp31
 70
     1
102
RTVSPost2010Prop32
280
     0
102
RTVSPost2010PropOp32
 70
     1
102
RTVSPost2010Prop33
280
     0
102
RTVSPost2010PropOp33
 70
     1
102
RTVSPost2010Prop34
280
     0
102
RTVSPost2010PropOp34
 70
     1
102
RTVSPost2010Prop35
280
     0
102
RTVSPost2010PropOp35
 70
     1
102
RTVSPost2010Prop36
280
     0
102
RTVSPost2010PropOp36
 70
     1
102
RTVSPost2010Prop37
 90
       50
102
RTVSPost2010PropOp37
 70
     1
102
RTVSPost2010Prop38
140
0.0
102
RTVSPost2010PropOp38
 70
     1
102
RTVSPost2010Prop39
140
1.0
102
RTVSPost2010PropOp39
 70
     1
102
RTVSPost2010Prop40
 90
        0
102
RTVSPost2010PropOp40
 70
     1
102
RTVSPost2010Prop41ColorIndex
 90
       18
102
RTVSPost2010Prop41ColorRGB
 90
        0
102
RTVSPost2010PropOp41
 70
     1
102
RTVSPost2010Prop42
 90
       50
102
RTVSPost2010PropOp42
 70
     1
102
RTVSPost2010Prop43
 90
        3
102
RTVSPost2010PropOp43
 70
     1
102
RTVSPost2010Prop44ColorIndex
 90
        5
102
RTVSPost2010Prop44ColorRGB
 90
      255
102
RTVSPost2010PropOp44
 70
     1
102
RTVSPost2010Prop45
280
     0
102
RTVSPost2010PropOp45
 70
     1
102
RTVSPost2010Prop46
 90
       50
102
RTVSPost2010PropOp46
 70
     1
102
RTVSPost2010Prop47
 90
       50
102
RTVSPost2010PropOp47
 70
     1
102
RTVSPost2010Prop48
 90
       50
102
RTVSPost2010PropOp48
 70
     1
102
RTVSPost2010Prop49
280
     0
102
RTVSPost2010PropOp49
 70
     1
102
RTVSPost2010Prop50
 90
       50
102
RTVSPost2010PropOp50
 70
     1
102
RTVSPost2010Prop51ColorIndex
 90
      256
102
RTVSPost2010Prop51ColorRGB
 90
-16777216
102
RTVSPost2010PropOp51
 70
     0
102
RTVSPost2010Prop52
140
1.0
102
RTVSPost2010PropOp52
 70
     0
102
RTVSPost2010Prop53
 90
        2
102
RTVSPost2010PropOp53
 70
     1
102
RTVSPost2010Prop54
  1
strokes_ogs.tif
102
RTVSPost2010PropOp54
 70
     1
102
RTVSPost2010Prop55
280
     0
102
RTVSPost2010PropOp55
 70
     1
102
RTVSPost2010Prop56
140
1.0
102
RTVSPost2010PropOp56
 70
     1
102
RTVSPost2010Prop57
140
1.0
102
RTVSPost2010PropOp57
 70
     1
102
RTVSPropertyOp0
 70
     1
102
RTVSPropertyOp1
 70
     1
102
RTVSPropertyOp2
 70
     1
102
RTVSPropertyOp3
 70
     1
102
RTVSPropertyOp4
 70
     1
102
RTVSPropertyOp5
 70
     1
102
RTVSPropertyOp6
 70
     1
102
RTVSPropertyOp7
 70
     1
102
RTVSPropertyOp8
 70
     1
102
RTVSPropertyOp9
 70
     1
102
RTVSPropertyOp10
 70
     1
102
RTVSPropertyOp11
 70
     1
102
RTVSPropertyOp12
 70
     1
102
RTVSPropertyOp13
 70
     1
102
RTVSPropertyOp14
 70
     1
102
RTVSPropertyOp15
 70
     1
102
RTVSPropertyOp16
 70
     1
102
RTVSPropertyOp17
 70
     1
102
RTVSPropertyOp18
 70
     1
102
RTVSPropertyOp19
 70
     1
102
RTVSPropertyOp20
 70
     1
102
RTVSPropertyOp21
 70
     1
102
RTVSPropertyOp22
 70
     1
102
RTVSPropertyOp23
 70
     1
102
RTVSPropertyOp24
 70
     1
102
RTVSPropertyOp25
 70
     1
102
RTVSPropertyOp26
 70
     1
102
RTVSPropertyOp27
 70
     1
102
RTVSPropertyOp28
 70
     1
102
RTVSPropertyOp29
 70
     1
102
RTVSPropertyOp30
 70
     1
102
RTVSPropertyOp31
 70
     1
102
RTVSPropertyOp32
 70
     1
102
RTVSPropertyOp33
 70
     1
102
RTVSPropertyOp34
 70
     1
102
RTVSPropertyOp35
 70
     1
102
RTVSPropertyOp36
 70
     1
102
RTVSPropertyOp37
 70
     1
102
RTVSPropertyOp38
 70
     1
102
RTVSPropertyOp39
 70
     1
102
RTVSPropertyOp40
 70
     1
102
RTVSPropertyOp41
 70
     1
102
RTVSPropertyOp42
 70
     1
102
RTVSPropertyOp43
 70
     1
102
RTVSPropertyOp44
 70
     1
102
RTVSPropertyOp45
 70
     1
102
RTVSPropertyOp46
 70
     1
102
RTVSPropertyOp47
 70
     1
102
RTVSPropertyOp48
 70
     1
102
RTVSPropertyOp49
 70
     1
102
RTVSPropertyOp50
 70
     1
102
RTVSPropertyOp51
 70
     0
102
RTVSPropertyOp52
 70
     0
102
RTVSPropertyOp53
 70
     1
102
RTVSPropertyOp54
 70
     1
102
RTVSPropertyOp55
 70
     1
102
RTVSPropertyOp56
 70
     1
102
RTVSPropertyOp57
 70
     1
102
RTVSPropertyOp58
 70
     1
102
RTVSPropertyOp59
 70
     1
102
RTVSPropertyOp60
 70
     1
102
RTVSPropertyOp61
 70
     1
102
RTVSPropertyOp62
 70
     1
  0
XRECORD
  5
15AC2
102
{ACAD_REACTORS
330
15AC1
102
}
330
15AC1
100
AcDbXrecord
280
     1
102
RTVSPost2010Prop28
280
     0
102
RTVSPost2010PropOp28
 70
     1
102
RTVSPost2010Prop29
280
     1
102
RTVSPost2010PropOp29
 70
     1
102
RTVSPost2010Prop30
280
     1
102
RTVSPost2010PropOp30
 70
     1
102
RTVSPost2010Prop31
280
     0
102
RTVSPost2010PropOp31
 70
     1
102
RTVSPost2010Prop32
280
     0
102
RTVSPost2010PropOp32
 70
     1
102
RTVSPost2010Prop33
280
     0
102
RTVSPost2010PropOp33
 70
     1
102
RTVSPost2010Prop34
280
     0
102
RTVSPost2010PropOp34
 70
     1
102
RTVSPost2010Prop35
280
     0
102
RTVSPost2010PropOp35
 70
     1
102
RTVSPost2010Prop36
280
     0
102
RTVSPost2010PropOp36
 70
     1
102
RTVSPost2010Prop37
 90
       50
102
RTVSPost2010PropOp37
 70
     1
102
RTVSPost2010Prop38
140
0.0
102
RTVSPost2010PropOp38
 70
     1
102
RTVSPost2010Prop39
140
1.0
102
RTVSPost2010PropOp39
 70
     1
102
RTVSPost2010Prop40
 90
        0
102
RTVSPost2010PropOp40
 70
     1
102
RTVSPost2010Prop41ColorIndex
 90
       18
102
RTVSPost2010Prop41ColorRGB
 90
        0
102
RTVSPost2010PropOp41
 70
     1
102
RTVSPost2010Prop42
 90
       50
102
RTVSPost2010PropOp42
 70
     1
102
RTVSPost2010Prop43
 90
        3
102
RTVSPost2010PropOp43
 70
     1
102
RTVSPost2010Prop44ColorIndex
 90
        5
102
RTVSPost2010Prop44ColorRGB
 90
      255
102
RTVSPost2010PropOp44
 70
     1
102
RTVSPost2010Prop45
280
     0
102
RTVSPost2010PropOp45
 70
     1
102
RTVSPost2010Prop46
 90
       50
102
RTVSPost2010PropOp46
 70
     1
102
RTVSPost2010Prop47
 90
       50
102
RTVSPost2010PropOp47
 70
     1
102
RTVSPost2010Prop48
 90
       50
102
RTVSPost2010PropOp48
 70
     1
102
RTVSPost2010Prop49
280
     0
102
RTVSPost2010PropOp49
 70
     1
102
RTVSPost2010Prop50
 90
       50
102
RTVSPost2010PropOp50
 70
     1
102
RTVSPost2010Prop51ColorIndex
 90
      256
102
RTVSPost2010Prop51ColorRGB
 90
-16777216
102
RTVSPost2010PropOp51
 70
     0
102
RTVSPost2010Prop52
140
1.0
102
RTVSPost2010PropOp52
 70
     0
102
RTVSPost2010Prop53
 90
        2
102
RTVSPost2010PropOp53
 70
     1
102
RTVSPost2010Prop54
  1
strokes_ogs.tif
102
RTVSPost2010PropOp54
 70
     1
102
RTVSPost2010Prop55
280
     0
102
RTVSPost2010PropOp55
 70
     1
102
RTVSPost2010Prop56
140
1.0
102
RTVSPost2010PropOp56
 70
     1
102
RTVSPost2010Prop57
140
1.0
102
RTVSPost2010PropOp57
 70
     1
102
RTVSPropertyOp0
 70
     1
102
RTVSPropertyOp1
 70
     1
102
RTVSPropertyOp2
 70
     1
102
RTVSPropertyOp3
 70
     1
102
RTVSPropertyOp4
 70
     1
102
RTVSPropertyOp5
 70
     1
102
RTVSPropertyOp6
 70
     1
102
RTVSPropertyOp7
 70
     1
102
RTVSPropertyOp8
 70
     1
102
RTVSPropertyOp9
 70
     1
102
RTVSPropertyOp10
 70
     1
102
RTVSPropertyOp11
 70
     1
102
RTVSPropertyOp12
 70
     1
102
RTVSPropertyOp13
 70
     1
102
RTVSPropertyOp14
 70
     1
102
RTVSPropertyOp15
 70
     1
102
RTVSPropertyOp16
 70
     1
102
RTVSPropertyOp17
 70
     1
102
RTVSPropertyOp18
 70
     1
102
RTVSPropertyOp19
 70
     1
102
RTVSPropertyOp20
 70
     1
102
RTVSPropertyOp21
 70
     1
102
RTVSPropertyOp22
 70
     1
102
RTVSPropertyOp23
 70
     1
102
RTVSPropertyOp24
 70
     1
102
RTVSPropertyOp25
 70
     1
102
RTVSPropertyOp26
 70
     1
102
RTVSPropertyOp27
 70
     1
102
RTVSPropertyOp28
 70
     1
102
RTVSPropertyOp29
 70
     1
102
RTVSPropertyOp30
 70
     1
102
RTVSPropertyOp31
 70
     1
102
RTVSPropertyOp32
 70
     1
102
RTVSPropertyOp33
 70
     1
102
RTVSPropertyOp34
 70
     1
102
RTVSPropertyOp35
 70
     1
102
RTVSPropertyOp36
 70
     1
102
RTVSPropertyOp37
 70
     1
102
RTVSPropertyOp38
 70
     1
102
RTVSPropertyOp39
 70
     1
102
RTVSPropertyOp40
 70
     1
102
RTVSPropertyOp41
 70
     1
102
RTVSPropertyOp42
 70
     1
102
RTVSPropertyOp43
 70
     1
102
RTVSPropertyOp44
 70
     1
102
RTVSPropertyOp45
 70
     1
102
RTVSPropertyOp46
 70
     1
102
RTVSPropertyOp47
 70
     1
102
RTVSPropertyOp48
 70
     1
102
RTVSPropertyOp49
 70
     1
102
RTVSPropertyOp50
 70
     1
102
RTVSPropertyOp51
 70
     0
102
RTVSPropertyOp52
 70
     0
102
RTVSPropertyOp53
 70
     1
102
RTVSPropertyOp54
 70
     1
102
RTVSPropertyOp55
 70
     1
102
RTVSPropertyOp56
 70
     1
102
RTVSPropertyOp57
 70
     1
102
RTVSPropertyOp58
 70
     1
102
RTVSPropertyOp59
 70
     1
102
RTVSPropertyOp60
 70
     1
102
RTVSPropertyOp61
 70
     1
102
RTVSPropertyOp62
 70
     1
  0
XRECORD
  5
15AC4
102
{ACAD_REACTORS
330
15AC3
102
}
330
15AC3
100
AcDbXrecord
280
     1
102
RTVSPost2010Prop28
280
     0
102
RTVSPost2010PropOp28
 70
     1
102
RTVSPost2010Prop29
280
     1
102
RTVSPost2010PropOp29
 70
     1
102
RTVSPost2010Prop30
280
     1
102
RTVSPost2010PropOp30
 70
     1
102
RTVSPost2010Prop31
280
     0
102
RTVSPost2010PropOp31
 70
     1
102
RTVSPost2010Prop32
280
     0
102
RTVSPost2010PropOp32
 70
     1
102
RTVSPost2010Prop33
280
     0
102
RTVSPost2010PropOp33
 70
     1
102
RTVSPost2010Prop34
280
     0
102
RTVSPost2010PropOp34
 70
     1
102
RTVSPost2010Prop35
280
     0
102
RTVSPost2010PropOp35
 70
     1
102
RTVSPost2010Prop36
280
     0
102
RTVSPost2010PropOp36
 70
     1
102
RTVSPost2010Prop37
 90
       50
102
RTVSPost2010PropOp37
 70
     1
102
RTVSPost2010Prop38
140
0.0
102
RTVSPost2010PropOp38
 70
     1
102
RTVSPost2010Prop39
140
1.0
102
RTVSPost2010PropOp39
 70
     1
102
RTVSPost2010Prop40
 90
        0
102
RTVSPost2010PropOp40
 70
     1
102
RTVSPost2010Prop41ColorIndex
 90
       18
102
RTVSPost2010Prop41ColorRGB
 90
        0
102
RTVSPost2010PropOp41
 70
     1
102
RTVSPost2010Prop42
 90
       50
102
RTVSPost2010PropOp42
 70
     1
102
RTVSPost2010Prop43
 90
        3
102
RTVSPost2010PropOp43
 70
     1
102
RTVSPost2010Prop44ColorIndex
 90
        5
102
RTVSPost2010Prop44ColorRGB
 90
      255
102
RTVSPost2010PropOp44
 70
     1
102
RTVSPost2010Prop45
280
     0
102
RTVSPost2010PropOp45
 70
     1
102
RTVSPost2010Prop46
 90
       50
102
RTVSPost2010PropOp46
 70
     1
102
RTVSPost2010Prop47
 90
       50
102
RTVSPost2010PropOp47
 70
     1
102
RTVSPost2010Prop48
 90
       50
102
RTVSPost2010PropOp48
 70
     1
102
RTVSPost2010Prop49
280
     0
102
RTVSPost2010PropOp49
 70
     1
102
RTVSPost2010Prop50
 90
       50
102
RTVSPost2010PropOp50
 70
     1
102
RTVSPost2010Prop51ColorIndex
 90
      256
102
RTVSPost2010Prop51ColorRGB
 90
-16777216
102
RTVSPost2010PropOp51
 70
     0
102
RTVSPost2010Prop52
140
1.0
102
RTVSPost2010PropOp52
 70
     0
102
RTVSPost2010Prop53
 90
        2
102
RTVSPost2010PropOp53
 70
     1
102
RTVSPost2010Prop54
  1
strokes_ogs.tif
102
RTVSPost2010PropOp54
 70
     1
102
RTVSPost2010Prop55
280
     0
102
RTVSPost2010PropOp55
 70
     1
102
RTVSPost2010Prop56
140
1.0
102
RTVSPost2010PropOp56
 70
     1
102
RTVSPost2010Prop57
140
1.0
102
RTVSPost2010PropOp57
 70
     1
102
RTVSPropertyOp0
 70
     1
102
RTVSPropertyOp1
 70
     1
102
RTVSPropertyOp2
 70
     1
102
RTVSPropertyOp3
 70
     1
102
RTVSPropertyOp4
 70
     1
102
RTVSPropertyOp5
 70
     1
102
RTVSPropertyOp6
 70
     1
102
RTVSPropertyOp7
 70
     1
102
RTVSPropertyOp8
 70
     1
102
RTVSPropertyOp9
 70
     1
102
RTVSPropertyOp10
 70
     1
102
RTVSPropertyOp11
 70
     1
102
RTVSPropertyOp12
 70
     1
102
RTVSPropertyOp13
 70
     1
102
RTVSPropertyOp14
 70
     1
102
RTVSPropertyOp15
 70
     1
102
RTVSPropertyOp16
 70
     1
102
RTVSPropertyOp17
 70
     1
102
RTVSPropertyOp18
 70
     1
102
RTVSPropertyOp19
 70
     1
102
RTVSPropertyOp20
 70
     1
102
RTVSPropertyOp21
 70
     1
102
RTVSPropertyOp22
 70
     1
102
RTVSPropertyOp23
 70
     1
102
RTVSPropertyOp24
 70
     1
102
RTVSPropertyOp25
 70
     1
102
RTVSPropertyOp26
 70
     1
102
RTVSPropertyOp27
 70
     1
102
RTVSPropertyOp28
 70
     1
102
RTVSPropertyOp29
 70
     1
102
RTVSPropertyOp30
 70
     1
102
RTVSPropertyOp31
 70
     1
102
RTVSPropertyOp32
 70
     1
102
RTVSPropertyOp33
 70
     1
102
RTVSPropertyOp34
 70
     1
102
RTVSPropertyOp35
 70
     1
102
RTVSPropertyOp36
 70
     1
102
RTVSPropertyOp37
 70
     1
102
RTVSPropertyOp38
 70
     1
102
RTVSPropertyOp39
 70
     1
102
RTVSPropertyOp40
 70
     1
102
RTVSPropertyOp41
 70
     1
102
RTVSPropertyOp42
 70
     1
102
RTVSPropertyOp43
 70
     1
102
RTVSPropertyOp44
 70
     1
102
RTVSPropertyOp45
 70
     1
102
RTVSPropertyOp46
 70
     1
102
RTVSPropertyOp47
 70
     1
102
RTVSPropertyOp48
 70
     1
102
RTVSPropertyOp49
 70
     1
102
RTVSPropertyOp50
 70
     1
102
RTVSPropertyOp51
 70
     0
102
RTVSPropertyOp52
 70
     0
102
RTVSPropertyOp53
 70
     1
102
RTVSPropertyOp54
 70
     1
102
RTVSPropertyOp55
 70
     1
102
RTVSPropertyOp56
 70
     1
102
RTVSPropertyOp57
 70
     1
102
RTVSPropertyOp58
 70
     1
102
RTVSPropertyOp59
 70
     1
102
RTVSPropertyOp60
 70
     1
102
RTVSPropertyOp61
 70
     1
102
RTVSPropertyOp62
 70
     1
  0
XRECORD
  5
15ACC
102
{ACAD_REACTORS
330
15ACB
102
}
330
15ACB
100
AcDbXrecord
280
     1
102
RTVSPost2010Prop28
280
     0
102
RTVSPost2010PropOp28
 70
     1
102
RTVSPost2010Prop29
280
     1
102
RTVSPost2010PropOp29
 70
     1
102
RTVSPost2010Prop30
280
     1
102
RTVSPost2010PropOp30
 70
     1
102
RTVSPost2010Prop31
280
     0
102
RTVSPost2010PropOp31
 70
     1
102
RTVSPost2010Prop32
280
     0
102
RTVSPost2010PropOp32
 70
     1
102
RTVSPost2010Prop33
280
     0
102
RTVSPost2010PropOp33
 70
     1
102
RTVSPost2010Prop34
280
     0
102
RTVSPost2010PropOp34
 70
     1
102
RTVSPost2010Prop35
280
     0
102
RTVSPost2010PropOp35
 70
     1
102
RTVSPost2010Prop36
280
     0
102
RTVSPost2010PropOp36
 70
     1
102
RTVSPost2010Prop37
 90
       50
102
RTVSPost2010PropOp37
 70
     1
102
RTVSPost2010Prop38
140
0.0
102
RTVSPost2010PropOp38
 70
     1
102
RTVSPost2010Prop39
140
1.0
102
RTVSPost2010PropOp39
 70
     1
102
RTVSPost2010Prop40
 90
        0
102
RTVSPost2010PropOp40
 70
     1
102
RTVSPost2010Prop41ColorIndex
 90
       18
102
RTVSPost2010Prop41ColorRGB
 90
        0
102
RTVSPost2010PropOp41
 70
     1
102
RTVSPost2010Prop42
 90
       50
102
RTVSPost2010PropOp42
 70
     1
102
RTVSPost2010Prop43
 90
        3
102
RTVSPost2010PropOp43
 70
     1
102
RTVSPost2010Prop44ColorIndex
 90
        5
102
RTVSPost2010Prop44ColorRGB
 90
      255
102
RTVSPost2010PropOp44
 70
     1
102
RTVSPost2010Prop45
280
     0
102
RTVSPost2010PropOp45
 70
     1
102
RTVSPost2010Prop46
 90
       50
102
RTVSPost2010PropOp46
 70
     1
102
RTVSPost2010Prop47
 90
       50
102
RTVSPost2010PropOp47
 70
     1
102
RTVSPost2010Prop48
 90
       50
102
RTVSPost2010PropOp48
 70
     1
102
RTVSPost2010Prop49
280
     0
102
RTVSPost2010PropOp49
 70
     1
102
RTVSPost2010Prop50
 90
       50
102
RTVSPost2010PropOp50
 70
     1
102
RTVSPost2010Prop51ColorIndex
 90
      256
102
RTVSPost2010Prop51ColorRGB
 90
-16777216
102
RTVSPost2010PropOp51
 70
     0
102
RTVSPost2010Prop52
140
1.0
102
RTVSPost2010PropOp52
 70
     0
102
RTVSPost2010Prop53
 90
        2
102
RTVSPost2010PropOp53
 70
     1
102
RTVSPost2010Prop54
  1
strokes_ogs.tif
102
RTVSPost2010PropOp54
 70
     1
102
RTVSPost2010Prop55
280
     0
102
RTVSPost2010PropOp55
 70
     1
102
RTVSPost2010Prop56
140
1.0
102
RTVSPost2010PropOp56
 70
     1
102
RTVSPost2010Prop57
140
1.0
102
RTVSPost2010PropOp57
 70
     1
102
RTVSPropertyOp0
 70
     1
102
RTVSPropertyOp1
 70
     1
102
RTVSPropertyOp2
 70
     1
102
RTVSPropertyOp3
 70
     1
102
RTVSPropertyOp4
 70
     1
102
RTVSPropertyOp5
 70
     1
102
RTVSPropertyOp6
 70
     1
102
RTVSPropertyOp7
 70
     1
102
RTVSPropertyOp8
 70
     1
102
RTVSPropertyOp9
 70
     1
102
RTVSPropertyOp10
 70
     1
102
RTVSPropertyOp11
 70
     1
102
RTVSPropertyOp12
 70
     1
102
RTVSPropertyOp13
 70
     1
102
RTVSPropertyOp14
 70
     1
102
RTVSPropertyOp15
 70
     1
102
RTVSPropertyOp16
 70
     1
102
RTVSPropertyOp17
 70
     1
102
RTVSPropertyOp18
 70
     1
102
RTVSPropertyOp19
 70
     1
102
RTVSPropertyOp20
 70
     1
102
RTVSPropertyOp21
 70
     1
102
RTVSPropertyOp22
 70
     1
102
RTVSPropertyOp23
 70
     1
102
RTVSPropertyOp24
 70
     1
102
RTVSPropertyOp25
 70
     1
102
RTVSPropertyOp26
 70
     1
102
RTVSPropertyOp27
 70
     1
102
RTVSPropertyOp28
 70
     1
102
RTVSPropertyOp29
 70
     1
102
RTVSPropertyOp30
 70
     1
102
RTVSPropertyOp31
 70
     1
102
RTVSPropertyOp32
 70
     1
102
RTVSPropertyOp33
 70
     1
102
RTVSPropertyOp34
 70
     1
102
RTVSPropertyOp35
 70
     1
102
RTVSPropertyOp36
 70
     1
102
RTVSPropertyOp37
 70
     1
102
RTVSPropertyOp38
 70
     1
102
RTVSPropertyOp39
 70
     1
102
RTVSPropertyOp40
 70
     1
102
RTVSPropertyOp41
 70
     1
102
RTVSPropertyOp42
 70
     1
102
RTVSPropertyOp43
 70
     1
102
RTVSPropertyOp44
 70
     1
102
RTVSPropertyOp45
 70
     1
102
RTVSPropertyOp46
 70
     1
102
RTVSPropertyOp47
 70
     1
102
RTVSPropertyOp48
 70
     1
102
RTVSPropertyOp49
 70
     1
102
RTVSPropertyOp50
 70
     1
102
RTVSPropertyOp51
 70
     0
102
RTVSPropertyOp52
 70
     0
102
RTVSPropertyOp53
 70
     1
102
RTVSPropertyOp54
 70
     1
102
RTVSPropertyOp55
 70
     1
102
RTVSPropertyOp56
 70
     1
102
RTVSPropertyOp57
 70
     1
102
RTVSPropertyOp58
 70
     1
102
RTVSPropertyOp59
 70
     1
102
RTVSPropertyOp60
 70
     1
102
RTVSPropertyOp61
 70
     1
102
RTVSPropertyOp62
 70
     1
  0
XRECORD
  5
15AE8
102
{ACAD_REACTORS
330
15AE7
102
}
330
15AE7
100
AcDbXrecord
280
     1
102
RTVSPost2010Prop28
280
     0
102
RTVSPost2010PropOp28
 70
     0
102
RTVSPost2010Prop29
280
     1
102
RTVSPost2010PropOp29
 70
     0
102
RTVSPost2010Prop30
280
     1
102
RTVSPost2010PropOp30
 70
     0
102
RTVSPost2010Prop31
280
     0
102
RTVSPost2010PropOp31
 70
     0
102
RTVSPost2010Prop32
280
     0
102
RTVSPost2010PropOp32
 70
     0
102
RTVSPost2010Prop33
280
     0
102
RTVSPost2010PropOp33
 70
     0
102
RTVSPost2010Prop34
280
     0
102
RTVSPost2010PropOp34
 70
     0
102
RTVSPost2010Prop35
280
     0
102
RTVSPost2010PropOp35
 70
     0
102
RTVSPost2010Prop36
280
     0
102
RTVSPost2010PropOp36
 70
     0
102
RTVSPost2010Prop37
 90
       50
102
RTVSPost2010PropOp37
 70
     0
102
RTVSPost2010Prop38
140
0.0
102
RTVSPost2010PropOp38
 70
     0
102
RTVSPost2010Prop39
140
1.0
102
RTVSPost2010PropOp39
 70
     0
102
RTVSPost2010Prop40
 90
        0
102
RTVSPost2010PropOp40
 70
     0
102
RTVSPost2010Prop41ColorIndex
 90
       18
102
RTVSPost2010Prop41ColorRGB
 90
        0
102
RTVSPost2010PropOp41
 70
     0
102
RTVSPost2010Prop42
 90
       50
102
RTVSPost2010PropOp42
 70
     0
102
RTVSPost2010Prop43
 90
        3
102
RTVSPost2010PropOp43
 70
     0
102
RTVSPost2010Prop44ColorIndex
 90
        5
102
RTVSPost2010Prop44ColorRGB
 90
      255
102
RTVSPost2010PropOp44
 70
     0
102
RTVSPost2010Prop45
280
     0
102
RTVSPost2010PropOp45
 70
     0
102
RTVSPost2010Prop46
 90
       50
102
RTVSPost2010PropOp46
 70
     0
102
RTVSPost2010Prop47
 90
       50
102
RTVSPost2010PropOp47
 70
     0
102
RTVSPost2010Prop48
 90
       50
102
RTVSPost2010PropOp48
 70
     0
102
RTVSPost2010Prop49
280
     0
102
RTVSPost2010PropOp49
 70
     0
102
RTVSPost2010Prop50
 90
       50
102
RTVSPost2010PropOp50
 70
     0
102
RTVSPost2010Prop51ColorIndex
 90
      256
102
RTVSPost2010Prop51ColorRGB
 90
-16777216
102
RTVSPost2010PropOp51
 70
     0
102
RTVSPost2010Prop52
140
1.0
102
RTVSPost2010PropOp52
 70
     0
102
RTVSPost2010Prop53
 90
        2
102
RTVSPost2010PropOp53
 70
     0
102
RTVSPost2010Prop54
  1
strokes_ogs.tif
102
RTVSPost2010PropOp54
 70
     0
102
RTVSPost2010Prop55
280
     0
102
RTVSPost2010PropOp55
 70
     0
102
RTVSPost2010Prop56
140
1.0
102
RTVSPost2010PropOp56
 70
     0
102
RTVSPost2010Prop57
140
1.0
102
RTVSPost2010PropOp57
 70
     0
102
RTVSPropertyOp0
 70
     0
102
RTVSPropertyOp1
 70
     0
102
RTVSPropertyOp2
 70
     0
102
RTVSPropertyOp3
 70
     0
102
RTVSPropertyOp4
 70
     0
102
RTVSPropertyOp5
 70
     0
102
RTVSPropertyOp6
 70
     0
102
RTVSPropertyOp7
 70
     0
102
RTVSPropertyOp8
 70
     0
102
RTVSPropertyOp9
 70
     0
102
RTVSPropertyOp10
 70
     0
102
RTVSPropertyOp11
 70
     0
102
RTVSPropertyOp12
 70
     0
102
RTVSPropertyOp13
 70
     0
102
RTVSPropertyOp14
 70
     2
102
RTVSPropertyOp15
 70
     0
102
RTVSPropertyOp16
 70
     0
102
RTVSPropertyOp17
 70
     0
102
RTVSPropertyOp18
 70
     0
102
RTVSPropertyOp19
 70
     0
102
RTVSPropertyOp20
 70
     0
102
RTVSPropertyOp21
 70
     0
102
RTVSPropertyOp22
 70
     0
102
RTVSPropertyOp23
 70
     0
102
RTVSPropertyOp24
 70
     0
102
RTVSPropertyOp25
 70
     0
102
RTVSPropertyOp26
 70
     0
102
RTVSPropertyOp27
 70
     0
102
RTVSPropertyOp28
 70
     0
102
RTVSPropertyOp29
 70
     0
102
RTVSPropertyOp30
 70
     0
102
RTVSPropertyOp31
 70
     0
102
RTVSPropertyOp32
 70
     0
102
RTVSPropertyOp33
 70
     0
102
RTVSPropertyOp34
 70
     0
102
RTVSPropertyOp35
 70
     0
102
RTVSPropertyOp36
 70
     0
102
RTVSPropertyOp37
 70
     0
102
RTVSPropertyOp38
 70
     0
102
RTVSPropertyOp39
 70
     0
102
RTVSPropertyOp40
 70
     0
102
RTVSPropertyOp41
 70
     0
102
RTVSPropertyOp42
 70
     0
102
RTVSPropertyOp43
 70
     0
102
RTVSPropertyOp44
 70
     0
102
RTVSPropertyOp45
 70
     0
102
RTVSPropertyOp46
 70
     0
102
RTVSPropertyOp47
 70
     0
102
RTVSPropertyOp48
 70
     0
102
RTVSPropertyOp49
 70
     0
102
RTVSPropertyOp50
 70
     0
102
RTVSPropertyOp51
 70
     0
102
RTVSPropertyOp52
 70
     0
102
RTVSPropertyOp53
 70
     0
102
RTVSPropertyOp54
 70
     0
102
RTVSPropertyOp55
 70
     0
102
RTVSPropertyOp56
 70
     0
102
RTVSPropertyOp57
 70
     0
102
RTVSPropertyOp58
 70
     0
102
RTVSPropertyOp59
 70
     0
102
RTVSPropertyOp60
 70
     0
102
RTVSPropertyOp61
 70
     0
102
RTVSPropertyOp62
 70
     0
  0
XRECORD
  5
15AD8
102
{ACAD_REACTORS
330
15AD7
102
}
330
15AD7
100
AcDbXrecord
280
     1
102
RTVSPost2010Prop28
280
     0
102
RTVSPost2010PropOp28
 70
     1
102
RTVSPost2010Prop29
280
     1
102
RTVSPost2010PropOp29
 70
     1
102
RTVSPost2010Prop30
280
     1
102
RTVSPost2010PropOp30
 70
     1
102
RTVSPost2010Prop31
280
     0
102
RTVSPost2010PropOp31
 70
     1
102
RTVSPost2010Prop32
280
     0
102
RTVSPost2010PropOp32
 70
     1
102
RTVSPost2010Prop33
280
     0
102
RTVSPost2010PropOp33
 70
     1
102
RTVSPost2010Prop34
280
     0
102
RTVSPost2010PropOp34
 70
     1
102
RTVSPost2010Prop35
280
     0
102
RTVSPost2010PropOp35
 70
     1
102
RTVSPost2010Prop36
280
     0
102
RTVSPost2010PropOp36
 70
     1
102
RTVSPost2010Prop37
 90
       50
102
RTVSPost2010PropOp37
 70
     1
102
RTVSPost2010Prop38
140
0.0
102
RTVSPost2010PropOp38
 70
     1
102
RTVSPost2010Prop39
140
1.0
102
RTVSPost2010PropOp39
 70
     1
102
RTVSPost2010Prop40
 90
        0
102
RTVSPost2010PropOp40
 70
     1
102
RTVSPost2010Prop41ColorIndex
 90
       18
102
RTVSPost2010Prop41ColorRGB
 90
        0
102
RTVSPost2010PropOp41
 70
     1
102
RTVSPost2010Prop42
 90
       50
102
RTVSPost2010PropOp42
 70
     1
102
RTVSPost2010Prop43
 90
        3
102
RTVSPost2010PropOp43
 70
     1
102
RTVSPost2010Prop44ColorIndex
 90
        5
102
RTVSPost2010Prop44ColorRGB
 90
      255
102
RTVSPost2010PropOp44
 70
     1
102
RTVSPost2010Prop45
280
     0
102
RTVSPost2010PropOp45
 70
     1
102
RTVSPost2010Prop46
 90
       50
102
RTVSPost2010PropOp46
 70
     1
102
RTVSPost2010Prop47
 90
       50
102
RTVSPost2010PropOp47
 70
     1
102
RTVSPost2010Prop48
 90
       50
102
RTVSPost2010PropOp48
 70
     1
102
RTVSPost2010Prop49
280
     0
102
RTVSPost2010PropOp49
 70
     1
102
RTVSPost2010Prop50
 90
       50
102
RTVSPost2010PropOp50
 70
     1
102
RTVSPost2010Prop51ColorIndex
 90
      256
102
RTVSPost2010Prop51ColorRGB
 90
-16777216
102
RTVSPost2010PropOp51
 70
     0
102
RTVSPost2010Prop52
140
1.0
102
RTVSPost2010PropOp52
 70
     0
102
RTVSPost2010Prop53
 90
        2
102
RTVSPost2010PropOp53
 70
     1
102
RTVSPost2010Prop54
  1
strokes_ogs.tif
102
RTVSPost2010PropOp54
 70
     1
102
RTVSPost2010Prop55
280
     0
102
RTVSPost2010PropOp55
 70
     1
102
RTVSPost2010Prop56
140
1.0
102
RTVSPost2010PropOp56
 70
     1
102
RTVSPost2010Prop57
140
1.0
102
RTVSPost2010PropOp57
 70
     1
102
RTVSPropertyOp0
 70
     1
102
RTVSPropertyOp1
 70
     1
102
RTVSPropertyOp2
 70
     1
102
RTVSPropertyOp3
 70
     1
102
RTVSPropertyOp4
 70
     1
102
RTVSPropertyOp5
 70
     1
102
RTVSPropertyOp6
 70
     1
102
RTVSPropertyOp7
 70
     1
102
RTVSPropertyOp8
 70
     1
102
RTVSPropertyOp9
 70
     1
102
RTVSPropertyOp10
 70
     1
102
RTVSPropertyOp11
 70
     1
102
RTVSPropertyOp12
 70
     1
102
RTVSPropertyOp13
 70
     1
102
RTVSPropertyOp14
 70
     1
102
RTVSPropertyOp15
 70
     1
102
RTVSPropertyOp16
 70
     1
102
RTVSPropertyOp17
 70
     1
102
RTVSPropertyOp18
 70
     1
102
RTVSPropertyOp19
 70
     1
102
RTVSPropertyOp20
 70
     1
102
RTVSPropertyOp21
 70
     1
102
RTVSPropertyOp22
 70
     1
102
RTVSPropertyOp23
 70
     1
102
RTVSPropertyOp24
 70
     1
102
RTVSPropertyOp25
 70
     1
102
RTVSPropertyOp26
 70
     1
102
RTVSPropertyOp27
 70
     1
102
RTVSPropertyOp28
 70
     1
102
RTVSPropertyOp29
 70
     1
102
RTVSPropertyOp30
 70
     1
102
RTVSPropertyOp31
 70
     1
102
RTVSPropertyOp32
 70
     1
102
RTVSPropertyOp33
 70
     1
102
RTVSPropertyOp34
 70
     1
102
RTVSPropertyOp35
 70
     1
102
RTVSPropertyOp36
 70
     1
102
RTVSPropertyOp37
 70
     1
102
RTVSPropertyOp38
 70
     1
102
RTVSPropertyOp39
 70
     1
102
RTVSPropertyOp40
 70
     1
102
RTVSPropertyOp41
 70
     1
102
RTVSPropertyOp42
 70
     1
102
RTVSPropertyOp43
 70
     1
102
RTVSPropertyOp44
 70
     1
102
RTVSPropertyOp45
 70
     1
102
RTVSPropertyOp46
 70
     1
102
RTVSPropertyOp47
 70
     1
102
RTVSPropertyOp48
 70
     1
102
RTVSPropertyOp49
 70
     1
102
RTVSPropertyOp50
 70
     1
102
RTVSPropertyOp51
 70
     0
102
RTVSPropertyOp52
 70
     0
102
RTVSPropertyOp53
 70
     1
102
RTVSPropertyOp54
 70
     1
102
RTVSPropertyOp55
 70
     1
102
RTVSPropertyOp56
 70
     1
102
RTVSPropertyOp57
 70
     1
102
RTVSPropertyOp58
 70
     1
102
RTVSPropertyOp59
 70
     1
102
RTVSPropertyOp60
 70
     1
102
RTVSPropertyOp61
 70
     1
102
RTVSPropertyOp62
 70
     1
  0
XRECORD
  5
15AEA
102
{ACAD_REACTORS
330
15AE9
102
}
330
15AE9
100
AcDbXrecord
280
     1
102
RTVSPost2010Prop28
280
     0
102
RTVSPost2010PropOp28
 70
     0
102
RTVSPost2010Prop29
280
     1
102
RTVSPost2010PropOp29
 70
     0
102
RTVSPost2010Prop30
280
     1
102
RTVSPost2010PropOp30
 70
     0
102
RTVSPost2010Prop31
280
     0
102
RTVSPost2010PropOp31
 70
     0
102
RTVSPost2010Prop32
280
     0
102
RTVSPost2010PropOp32
 70
     0
102
RTVSPost2010Prop33
280
     0
102
RTVSPost2010PropOp33
 70
     0
102
RTVSPost2010Prop34
280
     0
102
RTVSPost2010PropOp34
 70
     0
102
RTVSPost2010Prop35
280
     0
102
RTVSPost2010PropOp35
 70
     0
102
RTVSPost2010Prop36
280
     0
102
RTVSPost2010PropOp36
 70
     0
102
RTVSPost2010Prop37
 90
       50
102
RTVSPost2010PropOp37
 70
     0
102
RTVSPost2010Prop38
140
0.0
102
RTVSPost2010PropOp38
 70
     0
102
RTVSPost2010Prop39
140
1.0
102
RTVSPost2010PropOp39
 70
     0
102
RTVSPost2010Prop40
 90
        0
102
RTVSPost2010PropOp40
 70
     0
102
RTVSPost2010Prop41ColorIndex
 90
       18
102
RTVSPost2010Prop41ColorRGB
 90
        0
102
RTVSPost2010PropOp41
 70
     0
102
RTVSPost2010Prop42
 90
       50
102
RTVSPost2010PropOp42
 70
     0
102
RTVSPost2010Prop43
 90
        3
102
RTVSPost2010PropOp43
 70
     0
102
RTVSPost2010Prop44ColorIndex
 90
        5
102
RTVSPost2010Prop44ColorRGB
 90
      255
102
RTVSPost2010PropOp44
 70
     0
102
RTVSPost2010Prop45
280
     0
102
RTVSPost2010PropOp45
 70
     0
102
RTVSPost2010Prop46
 90
       50
102
RTVSPost2010PropOp46
 70
     0
102
RTVSPost2010Prop47
 90
       50
102
RTVSPost2010PropOp47
 70
     0
102
RTVSPost2010Prop48
 90
       50
102
RTVSPost2010PropOp48
 70
     0
102
RTVSPost2010Prop49
280
     0
102
RTVSPost2010PropOp49
 70
     0
102
RTVSPost2010Prop50
 90
       50
102
RTVSPost2010PropOp50
 70
     0
102
RTVSPost2010Prop51ColorIndex
 90
      256
102
RTVSPost2010Prop51ColorRGB
 90
-16777216
102
RTVSPost2010PropOp51
 70
     0
102
RTVSPost2010Prop52
140
1.0
102
RTVSPost2010PropOp52
 70
     0
102
RTVSPost2010Prop53
 90
        2
102
RTVSPost2010PropOp53
 70
     0
102
RTVSPost2010Prop54
  1
strokes_ogs.tif
102
RTVSPost2010PropOp54
 70
     0
102
RTVSPost2010Prop55
280
     0
102
RTVSPost2010PropOp55
 70
     0
102
RTVSPost2010Prop56
140
1.0
102
RTVSPost2010PropOp56
 70
     0
102
RTVSPost2010Prop57
140
1.0
102
RTVSPost2010PropOp57
 70
     0
102
RTVSPropertyOp0
 70
     0
102
RTVSPropertyOp1
 70
     0
102
RTVSPropertyOp2
 70
     0
102
RTVSPropertyOp3
 70
     0
102
RTVSPropertyOp4
 70
     0
102
RTVSPropertyOp5
 70
     0
102
RTVSPropertyOp6
 70
     0
102
RTVSPropertyOp7
 70
     0
102
RTVSPropertyOp8
 70
     0
102
RTVSPropertyOp9
 70
     0
102
RTVSPropertyOp10
 70
     0
102
RTVSPropertyOp11
 70
     0
102
RTVSPropertyOp12
 70
     0
102
RTVSPropertyOp13
 70
     0
102
RTVSPropertyOp14
 70
     2
102
RTVSPropertyOp15
 70
     0
102
RTVSPropertyOp16
 70
     0
102
RTVSPropertyOp17
 70
     0
102
RTVSPropertyOp18
 70
     0
102
RTVSPropertyOp19
 70
     0
102
RTVSPropertyOp20
 70
     0
102
RTVSPropertyOp21
 70
     0
102
RTVSPropertyOp22
 70
     0
102
RTVSPropertyOp23
 70
     0
102
RTVSPropertyOp24
 70
     0
102
RTVSPropertyOp25
 70
     0
102
RTVSPropertyOp26
 70
     0
102
RTVSPropertyOp27
 70
     0
102
RTVSPropertyOp28
 70
     0
102
RTVSPropertyOp29
 70
     0
102
RTVSPropertyOp30
 70
     0
102
RTVSPropertyOp31
 70
     0
102
RTVSPropertyOp32
 70
     0
102
RTVSPropertyOp33
 70
     0
102
RTVSPropertyOp34
 70
     0
102
RTVSPropertyOp35
 70
     0
102
RTVSPropertyOp36
 70
     0
102
RTVSPropertyOp37
 70
     0
102
RTVSPropertyOp38
 70
     0
102
RTVSPropertyOp39
 70
     0
102
RTVSPropertyOp40
 70
     0
102
RTVSPropertyOp41
 70
     0
102
RTVSPropertyOp42
 70
     0
102
RTVSPropertyOp43
 70
     0
102
RTVSPropertyOp44
 70
     0
102
RTVSPropertyOp45
 70
     0
102
RTVSPropertyOp46
 70
     0
102
RTVSPropertyOp47
 70
     0
102
RTVSPropertyOp48
 70
     0
102
RTVSPropertyOp49
 70
     0
102
RTVSPropertyOp50
 70
     0
102
RTVSPropertyOp51
 70
     0
102
RTVSPropertyOp52
 70
     0
102
RTVSPropertyOp53
 70
     0
102
RTVSPropertyOp54
 70
     0
102
RTVSPropertyOp55
 70
     0
102
RTVSPropertyOp56
 70
     0
102
RTVSPropertyOp57
 70
     0
102
RTVSPropertyOp58
 70
     0
102
RTVSPropertyOp59
 70
     0
102
RTVSPropertyOp60
 70
     0
102
RTVSPropertyOp61
 70
     0
102
RTVSPropertyOp62
 70
     0
  0
XRECORD
  5
15AD0
102
{ACAD_REACTORS
330
15ACF
102
}
330
15ACF
100
AcDbXrecord
280
     1
102
RTVSPost2010Prop28
280
     0
102
RTVSPost2010PropOp28
 70
     1
102
RTVSPost2010Prop29
280
     1
102
RTVSPost2010PropOp29
 70
     1
102
RTVSPost2010Prop30
280
     1
102
RTVSPost2010PropOp30
 70
     1
102
RTVSPost2010Prop31
280
     0
102
RTVSPost2010PropOp31
 70
     1
102
RTVSPost2010Prop32
280
     0
102
RTVSPost2010PropOp32
 70
     1
102
RTVSPost2010Prop33
280
     0
102
RTVSPost2010PropOp33
 70
     1
102
RTVSPost2010Prop34
280
     0
102
RTVSPost2010PropOp34
 70
     1
102
RTVSPost2010Prop35
280
     0
102
RTVSPost2010PropOp35
 70
     1
102
RTVSPost2010Prop36
280
     0
102
RTVSPost2010PropOp36
 70
     1
102
RTVSPost2010Prop37
 90
       50
102
RTVSPost2010PropOp37
 70
     1
102
RTVSPost2010Prop38
140
0.0
102
RTVSPost2010PropOp38
 70
     1
102
RTVSPost2010Prop39
140
1.0
102
RTVSPost2010PropOp39
 70
     1
102
RTVSPost2010Prop40
 90
        0
102
RTVSPost2010PropOp40
 70
     1
102
RTVSPost2010Prop41ColorIndex
 90
       18
102
RTVSPost2010Prop41ColorRGB
 90
        0
102
RTVSPost2010PropOp41
 70
     1
102
RTVSPost2010Prop42
 90
       50
102
RTVSPost2010PropOp42
 70
     1
102
RTVSPost2010Prop43
 90
        3
102
RTVSPost2010PropOp43
 70
     1
102
RTVSPost2010Prop44ColorIndex
 90
        5
102
RTVSPost2010Prop44ColorRGB
 90
      255
102
RTVSPost2010PropOp44
 70
     1
102
RTVSPost2010Prop45
280
     0
102
RTVSPost2010PropOp45
 70
     1
102
RTVSPost2010Prop46
 90
       50
102
RTVSPost2010PropOp46
 70
     1
102
RTVSPost2010Prop47
 90
       50
102
RTVSPost2010PropOp47
 70
     1
102
RTVSPost2010Prop48
 90
       50
102
RTVSPost2010PropOp48
 70
     1
102
RTVSPost2010Prop49
280
     0
102
RTVSPost2010PropOp49
 70
     1
102
RTVSPost2010Prop50
 90
       50
102
RTVSPost2010PropOp50
 70
     1
102
RTVSPost2010Prop51ColorIndex
 90
      256
102
RTVSPost2010Prop51ColorRGB
 90
-16777216
102
RTVSPost2010PropOp51
 70
     0
102
RTVSPost2010Prop52
140
1.0
102
RTVSPost2010PropOp52
 70
     0
102
RTVSPost2010Prop53
 90
        2
102
RTVSPost2010PropOp53
 70
     1
102
RTVSPost2010Prop54
  1
strokes_ogs.tif
102
RTVSPost2010PropOp54
 70
     1
102
RTVSPost2010Prop55
280
     0
102
RTVSPost2010PropOp55
 70
     1
102
RTVSPost2010Prop56
140
1.0
102
RTVSPost2010PropOp56
 70
     1
102
RTVSPost2010Prop57
140
1.0
102
RTVSPost2010PropOp57
 70
     1
102
RTVSPropertyOp0
 70
     1
102
RTVSPropertyOp1
 70
     1
102
RTVSPropertyOp2
 70
     1
102
RTVSPropertyOp3
 70
     1
102
RTVSPropertyOp4
 70
     1
102
RTVSPropertyOp5
 70
     1
102
RTVSPropertyOp6
 70
     1
102
RTVSPropertyOp7
 70
     1
102
RTVSPropertyOp8
 70
     1
102
RTVSPropertyOp9
 70
     1
102
RTVSPropertyOp10
 70
     1
102
RTVSPropertyOp11
 70
     1
102
RTVSPropertyOp12
 70
     1
102
RTVSPropertyOp13
 70
     1
102
RTVSPropertyOp14
 70
     1
102
RTVSPropertyOp15
 70
     1
102
RTVSPropertyOp16
 70
     1
102
RTVSPropertyOp17
 70
     1
102
RTVSPropertyOp18
 70
     1
102
RTVSPropertyOp19
 70
     1
102
RTVSPropertyOp20
 70
     1
102
RTVSPropertyOp21
 70
     1
102
RTVSPropertyOp22
 70
     1
102
RTVSPropertyOp23
 70
     1
102
RTVSPropertyOp24
 70
     1
102
RTVSPropertyOp25
 70
     1
102
RTVSPropertyOp26
 70
     1
102
RTVSPropertyOp27
 70
     1
102
RTVSPropertyOp28
 70
     1
102
RTVSPropertyOp29
 70
     1
102
RTVSPropertyOp30
 70
     1
102
RTVSPropertyOp31
 70
     1
102
RTVSPropertyOp32
 70
     1
102
RTVSPropertyOp33
 70
     1
102
RTVSPropertyOp34
 70
     1
102
RTVSPropertyOp35
 70
     1
102
RTVSPropertyOp36
 70
     1
102
RTVSPropertyOp37
 70
     1
102
RTVSPropertyOp38
 70
     1
102
RTVSPropertyOp39
 70
     1
102
RTVSPropertyOp40
 70
     1
102
RTVSPropertyOp41
 70
     1
102
RTVSPropertyOp42
 70
     1
102
RTVSPropertyOp43
 70
     1
102
RTVSPropertyOp44
 70
     1
102
RTVSPropertyOp45
 70
     1
102
RTVSPropertyOp46
 70
     1
102
RTVSPropertyOp47
 70
     1
102
RTVSPropertyOp48
 70
     1
102
RTVSPropertyOp49
 70
     1
102
RTVSPropertyOp50
 70
     1
102
RTVSPropertyOp51
 70
     0
102
RTVSPropertyOp52
 70
     0
102
RTVSPropertyOp53
 70
     1
102
RTVSPropertyOp54
 70
     1
102
RTVSPropertyOp55
 70
     1
102
RTVSPropertyOp56
 70
     1
102
RTVSPropertyOp57
 70
     1
102
RTVSPropertyOp58
 70
     1
102
RTVSPropertyOp59
 70
     1
102
RTVSPropertyOp60
 70
     1
102
RTVSPropertyOp61
 70
     1
102
RTVSPropertyOp62
 70
     1
  0
XRECORD
  5
15AE6
102
{ACAD_REACTORS
330
15AE5
102
}
330
15AE5
100
AcDbXrecord
280
     1
102
RTVSPost2010Prop28
280
     0
102
RTVSPost2010PropOp28
 70
     1
102
RTVSPost2010Prop29
280
     1
102
RTVSPost2010PropOp29
 70
     1
102
RTVSPost2010Prop30
280
     1
102
RTVSPost2010PropOp30
 70
     1
102
RTVSPost2010Prop31
280
     0
102
RTVSPost2010PropOp31
 70
     1
102
RTVSPost2010Prop32
280
     0
102
RTVSPost2010PropOp32
 70
     1
102
RTVSPost2010Prop33
280
     0
102
RTVSPost2010PropOp33
 70
     1
102
RTVSPost2010Prop34
280
     0
102
RTVSPost2010PropOp34
 70
     1
102
RTVSPost2010Prop35
280
     0
102
RTVSPost2010PropOp35
 70
     1
102
RTVSPost2010Prop36
280
     0
102
RTVSPost2010PropOp36
 70
     1
102
RTVSPost2010Prop37
 90
       50
102
RTVSPost2010PropOp37
 70
     1
102
RTVSPost2010Prop38
140
0.0
102
RTVSPost2010PropOp38
 70
     1
102
RTVSPost2010Prop39
140
1.0
102
RTVSPost2010PropOp39
 70
     1
102
RTVSPost2010Prop40
 90
        0
102
RTVSPost2010PropOp40
 70
     1
102
RTVSPost2010Prop41ColorIndex
 90
       18
102
RTVSPost2010Prop41ColorRGB
 90
        0
102
RTVSPost2010PropOp41
 70
     1
102
RTVSPost2010Prop42
 90
       50
102
RTVSPost2010PropOp42
 70
     1
102
RTVSPost2010Prop43
 90
        3
102
RTVSPost2010PropOp43
 70
     1
102
RTVSPost2010Prop44ColorIndex
 90
        5
102
RTVSPost2010Prop44ColorRGB
 90
      255
102
RTVSPost2010PropOp44
 70
     1
102
RTVSPost2010Prop45
280
     0
102
RTVSPost2010PropOp45
 70
     1
102
RTVSPost2010Prop46
 90
       50
102
RTVSPost2010PropOp46
 70
     1
102
RTVSPost2010Prop47
 90
       50
102
RTVSPost2010PropOp47
 70
     1
102
RTVSPost2010Prop48
 90
       50
102
RTVSPost2010PropOp48
 70
     1
102
RTVSPost2010Prop49
280
     0
102
RTVSPost2010PropOp49
 70
     1
102
RTVSPost2010Prop50
 90
       50
102
RTVSPost2010PropOp50
 70
     1
102
RTVSPost2010Prop51ColorIndex
 90
      256
102
RTVSPost2010Prop51ColorRGB
 90
-16777216
102
RTVSPost2010PropOp51
 70
     0
102
RTVSPost2010Prop52
140
1.0
102
RTVSPost2010PropOp52
 70
     0
102
RTVSPost2010Prop53
 90
        2
102
RTVSPost2010PropOp53
 70
     1
102
RTVSPost2010Prop54
  1
strokes_ogs.tif
102
RTVSPost2010PropOp54
 70
     1
102
RTVSPost2010Prop55
280
     0
102
RTVSPost2010PropOp55
 70
     1
102
RTVSPost2010Prop56
140
1.0
102
RTVSPost2010PropOp56
 70
     1
102
RTVSPost2010Prop57
140
1.0
102
RTVSPost2010PropOp57
 70
     1
102
RTVSPropertyOp0
 70
     1
102
RTVSPropertyOp1
 70
     1
102
RTVSPropertyOp2
 70
     1
102
RTVSPropertyOp3
 70
     1
102
RTVSPropertyOp4
 70
     1
102
RTVSPropertyOp5
 70
     1
102
RTVSPropertyOp6
 70
     1
102
RTVSPropertyOp7
 70
     1
102
RTVSPropertyOp8
 70
     1
102
RTVSPropertyOp9
 70
     1
102
RTVSPropertyOp10
 70
     1
102
RTVSPropertyOp11
 70
     1
102
RTVSPropertyOp12
 70
     1
102
RTVSPropertyOp13
 70
     1
102
RTVSPropertyOp14
 70
     1
102
RTVSPropertyOp15
 70
     1
102
RTVSPropertyOp16
 70
     1
102
RTVSPropertyOp17
 70
     1
102
RTVSPropertyOp18
 70
     1
102
RTVSPropertyOp19
 70
     1
102
RTVSPropertyOp20
 70
     1
102
RTVSPropertyOp21
 70
     1
102
RTVSPropertyOp22
 70
     1
102
RTVSPropertyOp23
 70
     1
102
RTVSPropertyOp24
 70
     1
102
RTVSPropertyOp25
 70
     1
102
RTVSPropertyOp26
 70
     1
102
RTVSPropertyOp27
 70
     1
102
RTVSPropertyOp28
 70
     1
102
RTVSPropertyOp29
 70
     1
102
RTVSPropertyOp30
 70
     1
102
RTVSPropertyOp31
 70
     1
102
RTVSPropertyOp32
 70
     1
102
RTVSPropertyOp33
 70
     1
102
RTVSPropertyOp34
 70
     1
102
RTVSPropertyOp35
 70
     1
102
RTVSPropertyOp36
 70
     1
102
RTVSPropertyOp37
 70
     1
102
RTVSPropertyOp38
 70
     1
102
RTVSPropertyOp39
 70
     1
102
RTVSPropertyOp40
 70
     1
102
RTVSPropertyOp41
 70
     1
102
RTVSPropertyOp42
 70
     1
102
RTVSPropertyOp43
 70
     1
102
RTVSPropertyOp44
 70
     1
102
RTVSPropertyOp45
 70
     1
102
RTVSPropertyOp46
 70
     1
102
RTVSPropertyOp47
 70
     1
102
RTVSPropertyOp48
 70
     1
102
RTVSPropertyOp49
 70
     1
102
RTVSPropertyOp50
 70
     1
102
RTVSPropertyOp51
 70
     0
102
RTVSPropertyOp52
 70
     0
102
RTVSPropertyOp53
 70
     1
102
RTVSPropertyOp54
 70
     1
102
RTVSPropertyOp55
 70
     1
102
RTVSPropertyOp56
 70
     1
102
RTVSPropertyOp57
 70
     1
102
RTVSPropertyOp58
 70
     1
102
RTVSPropertyOp59
 70
     1
102
RTVSPropertyOp60
 70
     1
102
RTVSPropertyOp61
 70
     1
102
RTVSPropertyOp62
 70
     1
  0
XRECORD
  5
15AE4
102
{ACAD_REACTORS
330
15AE3
102
}
330
15AE3
100
AcDbXrecord
280
     1
102
RTVSPost2010Prop28
280
     0
102
RTVSPost2010PropOp28
 70
     1
102
RTVSPost2010Prop29
280
     1
102
RTVSPost2010PropOp29
 70
     1
102
RTVSPost2010Prop30
280
     1
102
RTVSPost2010PropOp30
 70
     1
102
RTVSPost2010Prop31
280
     0
102
RTVSPost2010PropOp31
 70
     1
102
RTVSPost2010Prop32
280
     0
102
RTVSPost2010PropOp32
 70
     1
102
RTVSPost2010Prop33
280
     0
102
RTVSPost2010PropOp33
 70
     1
102
RTVSPost2010Prop34
280
     0
102
RTVSPost2010PropOp34
 70
     1
102
RTVSPost2010Prop35
280
     0
102
RTVSPost2010PropOp35
 70
     1
102
RTVSPost2010Prop36
280
     0
102
RTVSPost2010PropOp36
 70
     1
102
RTVSPost2010Prop37
 90
       50
102
RTVSPost2010PropOp37
 70
     1
102
RTVSPost2010Prop38
140
0.0
102
RTVSPost2010PropOp38
 70
     1
102
RTVSPost2010Prop39
140
1.0
102
RTVSPost2010PropOp39
 70
     1
102
RTVSPost2010Prop40
 90
        0
102
RTVSPost2010PropOp40
 70
     1
102
RTVSPost2010Prop41ColorIndex
 90
       18
102
RTVSPost2010Prop41ColorRGB
 90
        0
102
RTVSPost2010PropOp41
 70
     1
102
RTVSPost2010Prop42
 90
       50
102
RTVSPost2010PropOp42
 70
     1
102
RTVSPost2010Prop43
 90
        3
102
RTVSPost2010PropOp43
 70
     1
102
RTVSPost2010Prop44ColorIndex
 90
        5
102
RTVSPost2010Prop44ColorRGB
 90
      255
102
RTVSPost2010PropOp44
 70
     1
102
RTVSPost2010Prop45
280
     0
102
RTVSPost2010PropOp45
 70
     1
102
RTVSPost2010Prop46
 90
       50
102
RTVSPost2010PropOp46
 70
     1
102
RTVSPost2010Prop47
 90
       50
102
RTVSPost2010PropOp47
 70
     1
102
RTVSPost2010Prop48
 90
       50
102
RTVSPost2010PropOp48
 70
     1
102
RTVSPost2010Prop49
280
     0
102
RTVSPost2010PropOp49
 70
     1
102
RTVSPost2010Prop50
 90
       50
102
RTVSPost2010PropOp50
 70
     1
102
RTVSPost2010Prop51ColorIndex
 90
      256
102
RTVSPost2010Prop51ColorRGB
 90
-16777216
102
RTVSPost2010PropOp51
 70
     0
102
RTVSPost2010Prop52
140
1.0
102
RTVSPost2010PropOp52
 70
     0
102
RTVSPost2010Prop53
 90
        2
102
RTVSPost2010PropOp53
 70
     1
102
RTVSPost2010Prop54
  1
strokes_ogs.tif
102
RTVSPost2010PropOp54
 70
     1
102
RTVSPost2010Prop55
280
     0
102
RTVSPost2010PropOp55
 70
     1
102
RTVSPost2010Prop56
140
1.0
102
RTVSPost2010PropOp56
 70
     1
102
RTVSPost2010Prop57
140
1.0
102
RTVSPost2010PropOp57
 70
     1
102
RTVSPropertyOp0
 70
     1
102
RTVSPropertyOp1
 70
     1
102
RTVSPropertyOp2
 70
     1
102
RTVSPropertyOp3
 70
     1
102
RTVSPropertyOp4
 70
     1
102
RTVSPropertyOp5
 70
     1
102
RTVSPropertyOp6
 70
     1
102
RTVSPropertyOp7
 70
     1
102
RTVSPropertyOp8
 70
     1
102
RTVSPropertyOp9
 70
     1
102
RTVSPropertyOp10
 70
     1
102
RTVSPropertyOp11
 70
     1
102
RTVSPropertyOp12
 70
     1
102
RTVSPropertyOp13
 70
     1
102
RTVSPropertyOp14
 70
     1
102
RTVSPropertyOp15
 70
     1
102
RTVSPropertyOp16
 70
     1
102
RTVSPropertyOp17
 70
     1
102
RTVSPropertyOp18
 70
     1
102
RTVSPropertyOp19
 70
     1
102
RTVSPropertyOp20
 70
     1
102
RTVSPropertyOp21
 70
     1
102
RTVSPropertyOp22
 70
     1
102
RTVSPropertyOp23
 70
     1
102
RTVSPropertyOp24
 70
     1
102
RTVSPropertyOp25
 70
     1
102
RTVSPropertyOp26
 70
     1
102
RTVSPropertyOp27
 70
     1
102
RTVSPropertyOp28
 70
     1
102
RTVSPropertyOp29
 70
     1
102
RTVSPropertyOp30
 70
     1
102
RTVSPropertyOp31
 70
     1
102
RTVSPropertyOp32
 70
     1
102
RTVSPropertyOp33
 70
     1
102
RTVSPropertyOp34
 70
     1
102
RTVSPropertyOp35
 70
     1
102
RTVSPropertyOp36
 70
     1
102
RTVSPropertyOp37
 70
     1
102
RTVSPropertyOp38
 70
     1
102
RTVSPropertyOp39
 70
     1
102
RTVSPropertyOp40
 70
     1
102
RTVSPropertyOp41
 70
     1
102
RTVSPropertyOp42
 70
     1
102
RTVSPropertyOp43
 70
     1
102
RTVSPropertyOp44
 70
     1
102
RTVSPropertyOp45
 70
     1
102
RTVSPropertyOp46
 70
     1
102
RTVSPropertyOp47
 70
     1
102
RTVSPropertyOp48
 70
     1
102
RTVSPropertyOp49
 70
     1
102
RTVSPropertyOp50
 70
     1
102
RTVSPropertyOp51
 70
     0
102
RTVSPropertyOp52
 70
     0
102
RTVSPropertyOp53
 70
     1
102
RTVSPropertyOp54
 70
     1
102
RTVSPropertyOp55
 70
     1
102
RTVSPropertyOp56
 70
     1
102
RTVSPropertyOp57
 70
     1
102
RTVSPropertyOp58
 70
     1
102
RTVSPropertyOp59
 70
     1
102
RTVSPropertyOp60
 70
     1
102
RTVSPropertyOp61
 70
     1
102
RTVSPropertyOp62
 70
     1
  0
XRECORD
  5
15ADE
102
{ACAD_REACTORS
330
15ADD
102
}
330
15ADD
100
AcDbXrecord
280
     1
102
RTVSPost2010Prop28
280
     0
102
RTVSPost2010PropOp28
 70
     1
102
RTVSPost2010Prop29
280
     1
102
RTVSPost2010PropOp29
 70
     1
102
RTVSPost2010Prop30
280
     1
102
RTVSPost2010PropOp30
 70
     1
102
RTVSPost2010Prop31
280
     0
102
RTVSPost2010PropOp31
 70
     1
102
RTVSPost2010Prop32
280
     0
102
RTVSPost2010PropOp32
 70
     1
102
RTVSPost2010Prop33
280
     0
102
RTVSPost2010PropOp33
 70
     1
102
RTVSPost2010Prop34
280
     0
102
RTVSPost2010PropOp34
 70
     1
102
RTVSPost2010Prop35
280
     0
102
RTVSPost2010PropOp35
 70
     1
102
RTVSPost2010Prop36
280
     0
102
RTVSPost2010PropOp36
 70
     1
102
RTVSPost2010Prop37
 90
       50
102
RTVSPost2010PropOp37
 70
     1
102
RTVSPost2010Prop38
140
0.0
102
RTVSPost2010PropOp38
 70
     1
102
RTVSPost2010Prop39
140
1.0
102
RTVSPost2010PropOp39
 70
     1
102
RTVSPost2010Prop40
 90
        0
102
RTVSPost2010PropOp40
 70
     1
102
RTVSPost2010Prop41ColorIndex
 90
       18
102
RTVSPost2010Prop41ColorRGB
 90
        0
102
RTVSPost2010PropOp41
 70
     1
102
RTVSPost2010Prop42
 90
       50
102
RTVSPost2010PropOp42
 70
     1
102
RTVSPost2010Prop43
 90
        3
102
RTVSPost2010PropOp43
 70
     1
102
RTVSPost2010Prop44ColorIndex
 90
        5
102
RTVSPost2010Prop44ColorRGB
 90
      255
102
RTVSPost2010PropOp44
 70
     1
102
RTVSPost2010Prop45
280
     0
102
RTVSPost2010PropOp45
 70
     1
102
RTVSPost2010Prop46
 90
       50
102
RTVSPost2010PropOp46
 70
     1
102
RTVSPost2010Prop47
 90
       50
102
RTVSPost2010PropOp47
 70
     1
102
RTVSPost2010Prop48
 90
       50
102
RTVSPost2010PropOp48
 70
     1
102
RTVSPost2010Prop49
280
     0
102
RTVSPost2010PropOp49
 70
     1
102
RTVSPost2010Prop50
 90
       50
102
RTVSPost2010PropOp50
 70
     1
102
RTVSPost2010Prop51ColorIndex
 90
      256
102
RTVSPost2010Prop51ColorRGB
 90
-16777216
102
RTVSPost2010PropOp51
 70
     0
102
RTVSPost2010Prop52
140
1.0
102
RTVSPost2010PropOp52
 70
     0
102
RTVSPost2010Prop53
 90
        2
102
RTVSPost2010PropOp53
 70
     1
102
RTVSPost2010Prop54
  1
strokes_ogs.tif
102
RTVSPost2010PropOp54
 70
     1
102
RTVSPost2010Prop55
280
     0
102
RTVSPost2010PropOp55
 70
     1
102
RTVSPost2010Prop56
140
1.0
102
RTVSPost2010PropOp56
 70
     1
102
RTVSPost2010Prop57
140
1.0
102
RTVSPost2010PropOp57
 70
     1
102
RTVSPropertyOp0
 70
     1
102
RTVSPropertyOp1
 70
     1
102
RTVSPropertyOp2
 70
     1
102
RTVSPropertyOp3
 70
     1
102
RTVSPropertyOp4
 70
     1
102
RTVSPropertyOp5
 70
     1
102
RTVSPropertyOp6
 70
     1
102
RTVSPropertyOp7
 70
     1
102
RTVSPropertyOp8
 70
     1
102
RTVSPropertyOp9
 70
     1
102
RTVSPropertyOp10
 70
     1
102
RTVSPropertyOp11
 70
     1
102
RTVSPropertyOp12
 70
     1
102
RTVSPropertyOp13
 70
     1
102
RTVSPropertyOp14
 70
     1
102
RTVSPropertyOp15
 70
     1
102
RTVSPropertyOp16
 70
     1
102
RTVSPropertyOp17
 70
     1
102
RTVSPropertyOp18
 70
     1
102
RTVSPropertyOp19
 70
     1
102
RTVSPropertyOp20
 70
     1
102
RTVSPropertyOp21
 70
     1
102
RTVSPropertyOp22
 70
     1
102
RTVSPropertyOp23
 70
     1
102
RTVSPropertyOp24
 70
     1
102
RTVSPropertyOp25
 70
     1
102
RTVSPropertyOp26
 70
     1
102
RTVSPropertyOp27
 70
     1
102
RTVSPropertyOp28
 70
     1
102
RTVSPropertyOp29
 70
     1
102
RTVSPropertyOp30
 70
     1
102
RTVSPropertyOp31
 70
     1
102
RTVSPropertyOp32
 70
     1
102
RTVSPropertyOp33
 70
     1
102
RTVSPropertyOp34
 70
     1
102
RTVSPropertyOp35
 70
     1
102
RTVSPropertyOp36
 70
     1
102
RTVSPropertyOp37
 70
     1
102
RTVSPropertyOp38
 70
     1
102
RTVSPropertyOp39
 70
     1
102
RTVSPropertyOp40
 70
     1
102
RTVSPropertyOp41
 70
     1
102
RTVSPropertyOp42
 70
     1
102
RTVSPropertyOp43
 70
     1
102
RTVSPropertyOp44
 70
     1
102
RTVSPropertyOp45
 70
     1
102
RTVSPropertyOp46
 70
     1
102
RTVSPropertyOp47
 70
     1
102
RTVSPropertyOp48
 70
     1
102
RTVSPropertyOp49
 70
     1
102
RTVSPropertyOp50
 70
     1
102
RTVSPropertyOp51
 70
     0
102
RTVSPropertyOp52
 70
     0
102
RTVSPropertyOp53
 70
     1
102
RTVSPropertyOp54
 70
     1
102
RTVSPropertyOp55
 70
     1
102
RTVSPropertyOp56
 70
     1
102
RTVSPropertyOp57
 70
     1
102
RTVSPropertyOp58
 70
     1
102
RTVSPropertyOp59
 70
     1
102
RTVSPropertyOp60
 70
     1
102
RTVSPropertyOp61
 70
     1
102
RTVSPropertyOp62
 70
     1
  0
XRECORD
  5
15AE0
102
{ACAD_REACTORS
330
15ADF
102
}
330
15ADF
100
AcDbXrecord
280
     1
102
RTVSPost2010Prop28
280
     0
102
RTVSPost2010PropOp28
 70
     1
102
RTVSPost2010Prop29
280
     1
102
RTVSPost2010PropOp29
 70
     1
102
RTVSPost2010Prop30
280
     1
102
RTVSPost2010PropOp30
 70
     1
102
RTVSPost2010Prop31
280
     0
102
RTVSPost2010PropOp31
 70
     1
102
RTVSPost2010Prop32
280
     0
102
RTVSPost2010PropOp32
 70
     1
102
RTVSPost2010Prop33
280
     0
102
RTVSPost2010PropOp33
 70
     1
102
RTVSPost2010Prop34
280
     0
102
RTVSPost2010PropOp34
 70
     1
102
RTVSPost2010Prop35
280
     0
102
RTVSPost2010PropOp35
 70
     1
102
RTVSPost2010Prop36
280
     0
102
RTVSPost2010PropOp36
 70
     1
102
RTVSPost2010Prop37
 90
       50
102
RTVSPost2010PropOp37
 70
     1
102
RTVSPost2010Prop38
140
0.0
102
RTVSPost2010PropOp38
 70
     1
102
RTVSPost2010Prop39
140
1.0
102
RTVSPost2010PropOp39
 70
     1
102
RTVSPost2010Prop40
 90
        0
102
RTVSPost2010PropOp40
 70
     1
102
RTVSPost2010Prop41ColorIndex
 90
       18
102
RTVSPost2010Prop41ColorRGB
 90
        0
102
RTVSPost2010PropOp41
 70
     1
102
RTVSPost2010Prop42
 90
       50
102
RTVSPost2010PropOp42
 70
     1
102
RTVSPost2010Prop43
 90
        3
102
RTVSPost2010PropOp43
 70
     1
102
RTVSPost2010Prop44ColorIndex
 90
        5
102
RTVSPost2010Prop44ColorRGB
 90
      255
102
RTVSPost2010PropOp44
 70
     1
102
RTVSPost2010Prop45
280
     0
102
RTVSPost2010PropOp45
 70
     1
102
RTVSPost2010Prop46
 90
       50
102
RTVSPost2010PropOp46
 70
     1
102
RTVSPost2010Prop47
 90
       50
102
RTVSPost2010PropOp47
 70
     1
102
RTVSPost2010Prop48
 90
       50
102
RTVSPost2010PropOp48
 70
     1
102
RTVSPost2010Prop49
280
     0
102
RTVSPost2010PropOp49
 70
     1
102
RTVSPost2010Prop50
 90
       50
102
RTVSPost2010PropOp50
 70
     1
102
RTVSPost2010Prop51ColorIndex
 90
      256
102
RTVSPost2010Prop51ColorRGB
 90
-16777216
102
RTVSPost2010PropOp51
 70
     0
102
RTVSPost2010Prop52
140
1.0
102
RTVSPost2010PropOp52
 70
     0
102
RTVSPost2010Prop53
 90
        2
102
RTVSPost2010PropOp53
 70
     1
102
RTVSPost2010Prop54
  1
strokes_ogs.tif
102
RTVSPost2010PropOp54
 70
     1
102
RTVSPost2010Prop55
280
     0
102
RTVSPost2010PropOp55
 70
     1
102
RTVSPost2010Prop56
140
1.0
102
RTVSPost2010PropOp56
 70
     1
102
RTVSPost2010Prop57
140
1.0
102
RTVSPost2010PropOp57
 70
     1
102
RTVSPropertyOp0
 70
     1
102
RTVSPropertyOp1
 70
     1
102
RTVSPropertyOp2
 70
     1
102
RTVSPropertyOp3
 70
     1
102
RTVSPropertyOp4
 70
     1
102
RTVSPropertyOp5
 70
     1
102
RTVSPropertyOp6
 70
     1
102
RTVSPropertyOp7
 70
     1
102
RTVSPropertyOp8
 70
     1
102
RTVSPropertyOp9
 70
     1
102
RTVSPropertyOp10
 70
     1
102
RTVSPropertyOp11
 70
     1
102
RTVSPropertyOp12
 70
     1
102
RTVSPropertyOp13
 70
     1
102
RTVSPropertyOp14
 70
     1
102
RTVSPropertyOp15
 70
     1
102
RTVSPropertyOp16
 70
     1
102
RTVSPropertyOp17
 70
     1
102
RTVSPropertyOp18
 70
     1
102
RTVSPropertyOp19
 70
     1
102
RTVSPropertyOp20
 70
     1
102
RTVSPropertyOp21
 70
     1
102
RTVSPropertyOp22
 70
     1
102
RTVSPropertyOp23
 70
     1
102
RTVSPropertyOp24
 70
     1
102
RTVSPropertyOp25
 70
     1
102
RTVSPropertyOp26
 70
     1
102
RTVSPropertyOp27
 70
     1
102
RTVSPropertyOp28
 70
     1
102
RTVSPropertyOp29
 70
     1
102
RTVSPropertyOp30
 70
     1
102
RTVSPropertyOp31
 70
     1
102
RTVSPropertyOp32
 70
     1
102
RTVSPropertyOp33
 70
     1
102
RTVSPropertyOp34
 70
     1
102
RTVSPropertyOp35
 70
     1
102
RTVSPropertyOp36
 70
     1
102
RTVSPropertyOp37
 70
     1
102
RTVSPropertyOp38
 70
     1
102
RTVSPropertyOp39
 70
     1
102
RTVSPropertyOp40
 70
     1
102
RTVSPropertyOp41
 70
     1
102
RTVSPropertyOp42
 70
     1
102
RTVSPropertyOp43
 70
     1
102
RTVSPropertyOp44
 70
     1
102
RTVSPropertyOp45
 70
     1
102
RTVSPropertyOp46
 70
     1
102
RTVSPropertyOp47
 70
     1
102
RTVSPropertyOp48
 70
     1
102
RTVSPropertyOp49
 70
     1
102
RTVSPropertyOp50
 70
     1
102
RTVSPropertyOp51
 70
     0
102
RTVSPropertyOp52
 70
     0
102
RTVSPropertyOp53
 70
     1
102
RTVSPropertyOp54
 70
     1
102
RTVSPropertyOp55
 70
     1
102
RTVSPropertyOp56
 70
     1
102
RTVSPropertyOp57
 70
     1
102
RTVSPropertyOp58
 70
     1
102
RTVSPropertyOp59
 70
     1
102
RTVSPropertyOp60
 70
     1
102
RTVSPropertyOp61
 70
     1
102
RTVSPropertyOp62
 70
     1
  0
XRECORD
  5
15AD6
102
{ACAD_REACTORS
330
15AD5
102
}
330
15AD5
100
AcDbXrecord
280
     1
102
RTVSPost2010Prop28
280
     0
102
RTVSPost2010PropOp28
 70
     1
102
RTVSPost2010Prop29
280
     1
102
RTVSPost2010PropOp29
 70
     1
102
RTVSPost2010Prop30
280
     1
102
RTVSPost2010PropOp30
 70
     1
102
RTVSPost2010Prop31
280
     0
102
RTVSPost2010PropOp31
 70
     1
102
RTVSPost2010Prop32
280
     0
102
RTVSPost2010PropOp32
 70
     1
102
RTVSPost2010Prop33
280
     0
102
RTVSPost2010PropOp33
 70
     1
102
RTVSPost2010Prop34
280
     0
102
RTVSPost2010PropOp34
 70
     1
102
RTVSPost2010Prop35
280
     0
102
RTVSPost2010PropOp35
 70
     1
102
RTVSPost2010Prop36
280
     0
102
RTVSPost2010PropOp36
 70
     1
102
RTVSPost2010Prop37
 90
       50
102
RTVSPost2010PropOp37
 70
     1
102
RTVSPost2010Prop38
140
0.0
102
RTVSPost2010PropOp38
 70
     1
102
RTVSPost2010Prop39
140
1.0
102
RTVSPost2010PropOp39
 70
     1
102
RTVSPost2010Prop40
 90
        0
102
RTVSPost2010PropOp40
 70
     1
102
RTVSPost2010Prop41ColorIndex
 90
       18
102
RTVSPost2010Prop41ColorRGB
 90
        0
102
RTVSPost2010PropOp41
 70
     1
102
RTVSPost2010Prop42
 90
       50
102
RTVSPost2010PropOp42
 70
     1
102
RTVSPost2010Prop43
 90
        3
102
RTVSPost2010PropOp43
 70
     1
102
RTVSPost2010Prop44ColorIndex
 90
        5
102
RTVSPost2010Prop44ColorRGB
 90
      255
102
RTVSPost2010PropOp44
 70
     1
102
RTVSPost2010Prop45
280
     0
102
RTVSPost2010PropOp45
 70
     1
102
RTVSPost2010Prop46
 90
       50
102
RTVSPost2010PropOp46
 70
     1
102
RTVSPost2010Prop47
 90
       50
102
RTVSPost2010PropOp47
 70
     1
102
RTVSPost2010Prop48
 90
       50
102
RTVSPost2010PropOp48
 70
     1
102
RTVSPost2010Prop49
280
     0
102
RTVSPost2010PropOp49
 70
     1
102
RTVSPost2010Prop50
 90
       50
102
RTVSPost2010PropOp50
 70
     1
102
RTVSPost2010Prop51ColorIndex
 90
      256
102
RTVSPost2010Prop51ColorRGB
 90
-16777216
102
RTVSPost2010PropOp51
 70
     0
102
RTVSPost2010Prop52
140
1.0
102
RTVSPost2010PropOp52
 70
     0
102
RTVSPost2010Prop53
 90
        2
102
RTVSPost2010PropOp53
 70
     1
102
RTVSPost2010Prop54
  1
strokes_ogs.tif
102
RTVSPost2010PropOp54
 70
     1
102
RTVSPost2010Prop55
280
     0
102
RTVSPost2010PropOp55
 70
     1
102
RTVSPost2010Prop56
140
1.0
102
RTVSPost2010PropOp56
 70
     1
102
RTVSPost2010Prop57
140
1.0
102
RTVSPost2010PropOp57
 70
     1
102
RTVSPropertyOp0
 70
     1
102
RTVSPropertyOp1
 70
     1
102
RTVSPropertyOp2
 70
     1
102
RTVSPropertyOp3
 70
     1
102
RTVSPropertyOp4
 70
     1
102
RTVSPropertyOp5
 70
     1
102
RTVSPropertyOp6
 70
     1
102
RTVSPropertyOp7
 70
     1
102
RTVSPropertyOp8
 70
     1
102
RTVSPropertyOp9
 70
     1
102
RTVSPropertyOp10
 70
     1
102
RTVSPropertyOp11
 70
     1
102
RTVSPropertyOp12
 70
     1
102
RTVSPropertyOp13
 70
     1
102
RTVSPropertyOp14
 70
     1
102
RTVSPropertyOp15
 70
     1
102
RTVSPropertyOp16
 70
     1
102
RTVSPropertyOp17
 70
     1
102
RTVSPropertyOp18
 70
     1
102
RTVSPropertyOp19
 70
     1
102
RTVSPropertyOp20
 70
     1
102
RTVSPropertyOp21
 70
     1
102
RTVSPropertyOp22
 70
     1
102
RTVSPropertyOp23
 70
     1
102
RTVSPropertyOp24
 70
     1
102
RTVSPropertyOp25
 70
     1
102
RTVSPropertyOp26
 70
     1
102
RTVSPropertyOp27
 70
     1
102
RTVSPropertyOp28
 70
     1
102
RTVSPropertyOp29
 70
     1
102
RTVSPropertyOp30
 70
     1
102
RTVSPropertyOp31
 70
     1
102
RTVSPropertyOp32
 70
     1
102
RTVSPropertyOp33
 70
     1
102
RTVSPropertyOp34
 70
     1
102
RTVSPropertyOp35
 70
     1
102
RTVSPropertyOp36
 70
     1
102
RTVSPropertyOp37
 70
     1
102
RTVSPropertyOp38
 70
     1
102
RTVSPropertyOp39
 70
     1
102
RTVSPropertyOp40
 70
     1
102
RTVSPropertyOp41
 70
     1
102
RTVSPropertyOp42
 70
     1
102
RTVSPropertyOp43
 70
     1
102
RTVSPropertyOp44
 70
     1
102
RTVSPropertyOp45
 70
     1
102
RTVSPropertyOp46
 70
     1
102
RTVSPropertyOp47
 70
     1
102
RTVSPropertyOp48
 70
     1
102
RTVSPropertyOp49
 70
     1
102
RTVSPropertyOp50
 70
     1
102
RTVSPropertyOp51
 70
     0
102
RTVSPropertyOp52
 70
     0
102
RTVSPropertyOp53
 70
     1
102
RTVSPropertyOp54
 70
     1
102
RTVSPropertyOp55
 70
     1
102
RTVSPropertyOp56
 70
     1
102
RTVSPropertyOp57
 70
     1
102
RTVSPropertyOp58
 70
     1
102
RTVSPropertyOp59
 70
     1
102
RTVSPropertyOp60
 70
     1
102
RTVSPropertyOp61
 70
     1
102
RTVSPropertyOp62
 70
     1
  0
XRECORD
  5
15ACA
102
{ACAD_REACTORS
330
15AC9
102
}
330
15AC9
100
AcDbXrecord
280
     1
102
RTVSPost2010Prop28
280
     0
102
RTVSPost2010PropOp28
 70
     1
102
RTVSPost2010Prop29
280
     1
102
RTVSPost2010PropOp29
 70
     1
102
RTVSPost2010Prop30
280
     1
102
RTVSPost2010PropOp30
 70
     1
102
RTVSPost2010Prop31
280
     0
102
RTVSPost2010PropOp31
 70
     1
102
RTVSPost2010Prop32
280
     0
102
RTVSPost2010PropOp32
 70
     1
102
RTVSPost2010Prop33
280
     0
102
RTVSPost2010PropOp33
 70
     1
102
RTVSPost2010Prop34
280
     0
102
RTVSPost2010PropOp34
 70
     1
102
RTVSPost2010Prop35
280
     0
102
RTVSPost2010PropOp35
 70
     1
102
RTVSPost2010Prop36
280
     0
102
RTVSPost2010PropOp36
 70
     1
102
RTVSPost2010Prop37
 90
       50
102
RTVSPost2010PropOp37
 70
     1
102
RTVSPost2010Prop38
140
0.0
102
RTVSPost2010PropOp38
 70
     1
102
RTVSPost2010Prop39
140
1.0
102
RTVSPost2010PropOp39
 70
     1
102
RTVSPost2010Prop40
 90
        0
102
RTVSPost2010PropOp40
 70
     1
102
RTVSPost2010Prop41ColorIndex
 90
       18
102
RTVSPost2010Prop41ColorRGB
 90
        0
102
RTVSPost2010PropOp41
 70
     1
102
RTVSPost2010Prop42
 90
       50
102
RTVSPost2010PropOp42
 70
     1
102
RTVSPost2010Prop43
 90
        3
102
RTVSPost2010PropOp43
 70
     1
102
RTVSPost2010Prop44ColorIndex
 90
        5
102
RTVSPost2010Prop44ColorRGB
 90
      255
102
RTVSPost2010PropOp44
 70
     1
102
RTVSPost2010Prop45
280
     0
102
RTVSPost2010PropOp45
 70
     1
102
RTVSPost2010Prop46
 90
       50
102
RTVSPost2010PropOp46
 70
     1
102
RTVSPost2010Prop47
 90
       50
102
RTVSPost2010PropOp47
 70
     1
102
RTVSPost2010Prop48
 90
       50
102
RTVSPost2010PropOp48
 70
     1
102
RTVSPost2010Prop49
280
     0
102
RTVSPost2010PropOp49
 70
     1
102
RTVSPost2010Prop50
 90
       50
102
RTVSPost2010PropOp50
 70
     1
102
RTVSPost2010Prop51ColorIndex
 90
      256
102
RTVSPost2010Prop51ColorRGB
 90
-16777216
102
RTVSPost2010PropOp51
 70
     0
102
RTVSPost2010Prop52
140
1.0
102
RTVSPost2010PropOp52
 70
     0
102
RTVSPost2010Prop53
 90
        2
102
RTVSPost2010PropOp53
 70
     1
102
RTVSPost2010Prop54
  1
strokes_ogs.tif
102
RTVSPost2010PropOp54
 70
     1
102
RTVSPost2010Prop55
280
     0
102
RTVSPost2010PropOp55
 70
     1
102
RTVSPost2010Prop56
140
1.0
102
RTVSPost2010PropOp56
 70
     1
102
RTVSPost2010Prop57
140
1.0
102
RTVSPost2010PropOp57
 70
     1
102
RTVSPropertyOp0
 70
     1
102
RTVSPropertyOp1
 70
     1
102
RTVSPropertyOp2
 70
     1
102
RTVSPropertyOp3
 70
     1
102
RTVSPropertyOp4
 70
     1
102
RTVSPropertyOp5
 70
     1
102
RTVSPropertyOp6
 70
     1
102
RTVSPropertyOp7
 70
     1
102
RTVSPropertyOp8
 70
     1
102
RTVSPropertyOp9
 70
     1
102
RTVSPropertyOp10
 70
     1
102
RTVSPropertyOp11
 70
     1
102
RTVSPropertyOp12
 70
     1
102
RTVSPropertyOp13
 70
     1
102
RTVSPropertyOp14
 70
     1
102
RTVSPropertyOp15
 70
     1
102
RTVSPropertyOp16
 70
     1
102
RTVSPropertyOp17
 70
     1
102
RTVSPropertyOp18
 70
     1
102
RTVSPropertyOp19
 70
     1
102
RTVSPropertyOp20
 70
     1
102
RTVSPropertyOp21
 70
     1
102
RTVSPropertyOp22
 70
     1
102
RTVSPropertyOp23
 70
     1
102
RTVSPropertyOp24
 70
     1
102
RTVSPropertyOp25
 70
     1
102
RTVSPropertyOp26
 70
     1
102
RTVSPropertyOp27
 70
     1
102
RTVSPropertyOp28
 70
     1
102
RTVSPropertyOp29
 70
     1
102
RTVSPropertyOp30
 70
     1
102
RTVSPropertyOp31
 70
     1
102
RTVSPropertyOp32
 70
     1
102
RTVSPropertyOp33
 70
     1
102
RTVSPropertyOp34
 70
     1
102
RTVSPropertyOp35
 70
     1
102
RTVSPropertyOp36
 70
     1
102
RTVSPropertyOp37
 70
     1
102
RTVSPropertyOp38
 70
     1
102
RTVSPropertyOp39
 70
     1
102
RTVSPropertyOp40
 70
     1
102
RTVSPropertyOp41
 70
     1
102
RTVSPropertyOp42
 70
     1
102
RTVSPropertyOp43
 70
     1
102
RTVSPropertyOp44
 70
     1
102
RTVSPropertyOp45
 70
     1
102
RTVSPropertyOp46
 70
     1
102
RTVSPropertyOp47
 70
     1
102
RTVSPropertyOp48
 70
     1
102
RTVSPropertyOp49
 70
     1
102
RTVSPropertyOp50
 70
     1
102
RTVSPropertyOp51
 70
     0
102
RTVSPropertyOp52
 70
     0
102
RTVSPropertyOp53
 70
     1
102
RTVSPropertyOp54
 70
     1
102
RTVSPropertyOp55
 70
     1
102
RTVSPropertyOp56
 70
     1
102
RTVSPropertyOp57
 70
     1
102
RTVSPropertyOp58
 70
     1
102
RTVSPropertyOp59
 70
     1
102
RTVSPropertyOp60
 70
     1
102
RTVSPropertyOp61
 70
     1
102
RTVSPropertyOp62
 70
     1
  0
XRECORD
  5
15AE2
102
{ACAD_REACTORS
330
15AE1
102
}
330
15AE1
100
AcDbXrecord
280
     1
102
RTVSPost2010Prop28
280
     0
102
RTVSPost2010PropOp28
 70
     1
102
RTVSPost2010Prop29
280
     1
102
RTVSPost2010PropOp29
 70
     1
102
RTVSPost2010Prop30
280
     1
102
RTVSPost2010PropOp30
 70
     1
102
RTVSPost2010Prop31
280
     0
102
RTVSPost2010PropOp31
 70
     1
102
RTVSPost2010Prop32
280
     0
102
RTVSPost2010PropOp32
 70
     1
102
RTVSPost2010Prop33
280
     0
102
RTVSPost2010PropOp33
 70
     1
102
RTVSPost2010Prop34
280
     0
102
RTVSPost2010PropOp34
 70
     1
102
RTVSPost2010Prop35
280
     0
102
RTVSPost2010PropOp35
 70
     1
102
RTVSPost2010Prop36
280
     0
102
RTVSPost2010PropOp36
 70
     1
102
RTVSPost2010Prop37
 90
       50
102
RTVSPost2010PropOp37
 70
     1
102
RTVSPost2010Prop38
140
0.0
102
RTVSPost2010PropOp38
 70
     1
102
RTVSPost2010Prop39
140
1.0
102
RTVSPost2010PropOp39
 70
     1
102
RTVSPost2010Prop40
 90
        0
102
RTVSPost2010PropOp40
 70
     1
102
RTVSPost2010Prop41ColorIndex
 90
       18
102
RTVSPost2010Prop41ColorRGB
 90
        0
102
RTVSPost2010PropOp41
 70
     1
102
RTVSPost2010Prop42
 90
       50
102
RTVSPost2010PropOp42
 70
     1
102
RTVSPost2010Prop43
 90
        3
102
RTVSPost2010PropOp43
 70
     1
102
RTVSPost2010Prop44ColorIndex
 90
        5
102
RTVSPost2010Prop44ColorRGB
 90
      255
102
RTVSPost2010PropOp44
 70
     1
102
RTVSPost2010Prop45
280
     0
102
RTVSPost2010PropOp45
 70
     1
102
RTVSPost2010Prop46
 90
       50
102
RTVSPost2010PropOp46
 70
     1
102
RTVSPost2010Prop47
 90
       50
102
RTVSPost2010PropOp47
 70
     1
102
RTVSPost2010Prop48
 90
       50
102
RTVSPost2010PropOp48
 70
     1
102
RTVSPost2010Prop49
280
     0
102
RTVSPost2010PropOp49
 70
     1
102
RTVSPost2010Prop50
 90
       50
102
RTVSPost2010PropOp50
 70
     1
102
RTVSPost2010Prop51ColorIndex
 90
      256
102
RTVSPost2010Prop51ColorRGB
 90
-16777216
102
RTVSPost2010PropOp51
 70
     0
102
RTVSPost2010Prop52
140
1.0
102
RTVSPost2010PropOp52
 70
     0
102
RTVSPost2010Prop53
 90
        2
102
RTVSPost2010PropOp53
 70
     1
102
RTVSPost2010Prop54
  1
strokes_ogs.tif
102
RTVSPost2010PropOp54
 70
     1
102
RTVSPost2010Prop55
280
     0
102
RTVSPost2010PropOp55
 70
     1
102
RTVSPost2010Prop56
140
1.0
102
RTVSPost2010PropOp56
 70
     1
102
RTVSPost2010Prop57
140
1.0
102
RTVSPost2010PropOp57
 70
     1
102
RTVSPropertyOp0
 70
     1
102
RTVSPropertyOp1
 70
     1
102
RTVSPropertyOp2
 70
     1
102
RTVSPropertyOp3
 70
     1
102
RTVSPropertyOp4
 70
     1
102
RTVSPropertyOp5
 70
     1
102
RTVSPropertyOp6
 70
     1
102
RTVSPropertyOp7
 70
     1
102
RTVSPropertyOp8
 70
     1
102
RTVSPropertyOp9
 70
     1
102
RTVSPropertyOp10
 70
     1
102
RTVSPropertyOp11
 70
     1
102
RTVSPropertyOp12
 70
     1
102
RTVSPropertyOp13
 70
     1
102
RTVSPropertyOp14
 70
     1
102
RTVSPropertyOp15
 70
     1
102
RTVSPropertyOp16
 70
     1
102
RTVSPropertyOp17
 70
     1
102
RTVSPropertyOp18
 70
     1
102
RTVSPropertyOp19
 70
     1
102
RTVSPropertyOp20
 70
     1
102
RTVSPropertyOp21
 70
     1
102
RTVSPropertyOp22
 70
     1
102
RTVSPropertyOp23
 70
     1
102
RTVSPropertyOp24
 70
     1
102
RTVSPropertyOp25
 70
     1
102
RTVSPropertyOp26
 70
     1
102
RTVSPropertyOp27
 70
     1
102
RTVSPropertyOp28
 70
     1
102
RTVSPropertyOp29
 70
     1
102
RTVSPropertyOp30
 70
     1
102
RTVSPropertyOp31
 70
     1
102
RTVSPropertyOp32
 70
     1
102
RTVSPropertyOp33
 70
     1
102
RTVSPropertyOp34
 70
     1
102
RTVSPropertyOp35
 70
     1
102
RTVSPropertyOp36
 70
     1
102
RTVSPropertyOp37
 70
     1
102
RTVSPropertyOp38
 70
     1
102
RTVSPropertyOp39
 70
     1
102
RTVSPropertyOp40
 70
     1
102
RTVSPropertyOp41
 70
     1
102
RTVSPropertyOp42
 70
     1
102
RTVSPropertyOp43
 70
     1
102
RTVSPropertyOp44
 70
     1
102
RTVSPropertyOp45
 70
     1
102
RTVSPropertyOp46
 70
     1
102
RTVSPropertyOp47
 70
     1
102
RTVSPropertyOp48
 70
     1
102
RTVSPropertyOp49
 70
     1
102
RTVSPropertyOp50
 70
     1
102
RTVSPropertyOp51
 70
     0
102
RTVSPropertyOp52
 70
     0
102
RTVSPropertyOp53
 70
     1
102
RTVSPropertyOp54
 70
     1
102
RTVSPropertyOp55
 70
     1
102
RTVSPropertyOp56
 70
     1
102
RTVSPropertyOp57
 70
     1
102
RTVSPropertyOp58
 70
     1
102
RTVSPropertyOp59
 70
     1
102
RTVSPropertyOp60
 70
     1
102
RTVSPropertyOp61
 70
     1
102
RTVSPropertyOp62
 70
     1
  0
ENDSEC
  0
EOF
