  0
SECTION
  2
HEADER
  9
$ACADVER
  1
AC1015
  9
$ACADMAINTVER
 70
    20
  9
$DWGCODEPAGE
  3
ANSI_932
  9
$INSBASE
 10
0.0
 20
0.0
 30
0.0
  9
$EXTMIN
 10
104.9999999999996
 20
0.0
 30
-0.0000000000013153
  9
$EXTMAX
 10
12230.4
 20
8557.199999999999
 30
0.0000000000013153
  9
$LIMMIN
 10
0.0
 20
0.0
  9
$LIMMAX
 10
12600.0
 20
8910.0
  9
$ORTHOMODE
 70
     0
  9
$REGENMODE
 70
     1
  9
$FILLMODE
 70
     1
  9
$QTEXTMODE
 70
     0
  9
$MIRRTEXT
 70
     1
  9
$LTSCALE
 40
7.0
  9
$ATTMODE
 70
     1
  9
$TEXTSIZE
 40
100.0
  9
$TRACEWID
 40
1.0
  9
$TEXTSTYLE
  7
STYLE3
  9
$CLAYER
  8
補助
  9
$CELTYPE
  6
BYLAYER
  9
$CECOLOR
 62
   256
  9
$CELTSCALE
 40
50.0
  9
$DISPSILH
 70
     0
  9
$DIMSCALE
 40
30.0
  9
$DIMASZ
 40
2.5
  9
$DIMEXO
 40
0.5
  9
$DIMDLI
 40
7.0
  9
$DIMRND
 40
0.0
  9
$DIMDLE
 40
0.0
  9
$DIMEXE
 40
1.5
  9
$DIMTP
 40
0.0
  9
$DIMTM
 40
0.0
  9
$DIMTXT
 40
3.0
  9
$DIMCEN
 40
0.0
  9
$DIMTSZ
 40
0.0
  9
$DIMTOL
 70
     0
  9
$DIMLIM
 70
     0
  9
$DIMTIH
 70
     1
  9
$DIMTOH
 70
     1
  9
$DIMSE1
 70
     0
  9
$DIMSE2
 70
     0
  9
$DIMTAD
 70
     3
  9
$DIMZIN
 70
     8
  9
$DIMBLK
  1

  9
$DIMASO
 70
     1
  9
$DIMSHO
 70
     1
  9
$DIMPOST
  1

  9
$DIMAPOST
  1

  9
$DIMALT
 70
     0
  9
$DIMALTD
 70
     2
  9
$DIMALTF
 40
0.0394
  9
$DIMLFAC
 40
1.0
  9
$DIMTOFL
 70
     1
  9
$DIMTVP
 40
0.0
  9
$DIMTIX
 70
     1
  9
$DIMSOXD
 70
     1
  9
$DIMSAH
 70
     1
  9
$DIMBLK1
  1
DOTSMALL
  9
$DIMBLK2
  1
DOTSMALL
  9
$DIMSTYLE
  2
INABA_S30G
  9
$DIMCLRD
 70
     0
  9
$DIMCLRE
 70
     0
  9
$DIMCLRT
 70
     7
  9
$DIMTFAC
 40
1.0
  9
$DIMGAP
 40
1.0
  9
$DIMJUST
 70
     0
  9
$DIMSD1
 70
     0
  9
$DIMSD2
 70
     0
  9
$DIMTOLJ
 70
     1
  9
$DIMTZIN
 70
     0
  9
$DIMALTZ
 70
     0
  9
$DIMALTTZ
 70
     0
  9
$DIMUPT
 70
     0
  9
$DIMDEC
 70
     1
  9
$DIMTDEC
 70
     1
  9
$DIMALTU
 70
     2
  9
$DIMALTTD
 70
     2
  9
$DIMTXSTY
  7
STYLE1
  9
$DIMAUNIT
 70
     0
  9
$DIMADEC
 70
     0
  9
$DIMALTRND
 40
0.0
  9
$DIMAZIN
 70
     0
  9
$DIMDSEP
 70
    46
  9
$DIMATFIT
 70
     3
  9
$DIMFRAC
 70
     0
  9
$DIMLDRBLK
  1

  9
$DIMLUNIT
 70
     2
  9
$DIMLWD
 70
    -2
  9
$DIMLWE
 70
    -2
  9
$DIMTMOVE
 70
     0
  9
$LUNITS
 70
     2
  9
$LUPREC
 70
     1
  9
$SKETCHINC
 40
1.0
  9
$FILLETRAD
 40
5.0
  9
$AUNITS
 70
     0
  9
$AUPREC
 70
     0
  9
$MENU
  1
acad
  9
$ELEVATION
 40
0.0
  9
$PELEVATION
 40
0.0
  9
$THICKNESS
 40
0.0
  9
$LIMCHECK
 70
     0
  9
$CHAMFERA
 40
0.0
  9
$CHAMFERB
 40
0.0
  9
$CHAMFERC
 40
0.0
  9
$CHAMFERD
 40
0.0
  9
$SKPOLY
 70
     0
  9
$TDCREATE
 40
2451074.411873148
  9
$TDUCREATE
 40
2451074.036873148
  9
$TDUPDATE
 40
2456560.839513715
  9
$TDUUPDATE
 40
2456560.464513716
  9
$TDINDWG
 40
0.3926913773
  9
$TDUSRTIMER
 40
0.3926913773
  9
$USRTIMER
 70
     1
  9
$ANGBASE
 50
0.0
  9
$ANGDIR
 70
     0
  9
$PDMODE
 70
     3
  9
$PDSIZE
 40
2.0
  9
$PLINEWID
 40
0.0
  9
$SPLFRAME
 70
     0
  9
$SPLINETYPE
 70
     6
  9
$SPLINESEGS
 70
     8
  9
$HANDSEED
  5
16608
  9
$SURFTAB1
 70
     6
  9
$SURFTAB2
 70
     6
  9
$SURFTYPE
 70
     6
  9
$SURFU
 70
     6
  9
$SURFV
 70
     6
  9
$UCSBASE
  2

  9
$UCSNAME
  2

  9
$UCSORG
 10
0.0
 20
0.0
 30
0.0
  9
$UCSXDIR
 10
1.0
 20
0.0
 30
0.0
  9
$UCSYDIR
 10
0.0
 20
1.0
 30
0.0
  9
$UCSORTHOREF
  2

  9
$UCSORTHOVIEW
 70
     0
  9
$UCSORGTOP
 10
0.0
 20
0.0
 30
0.0
  9
$UCSORGBOTTOM
 10
0.0
 20
0.0
 30
0.0
  9
$UCSORGLEFT
 10
0.0
 20
0.0
 30
0.0
  9
$UCSORGRIGHT
 10
0.0
 20
0.0
 30
0.0
  9
$UCSORGFRONT
 10
0.0
 20
0.0
 30
0.0
  9
$UCSORGBACK
 10
0.0
 20
0.0
 30
0.0
  9
$PUCSBASE
  2

  9
$PUCSNAME
  2

  9
$PUCSORG
 10
0.0
 20
0.0
 30
0.0
  9
$PUCSXDIR
 10
1.0
 20
0.0
 30
0.0
  9
$PUCSYDIR
 10
0.0
 20
1.0
 30
0.0
  9
$PUCSORTHOREF
  2

  9
$PUCSORTHOVIEW
 70
     0
  9
$PUCSORGTOP
 10
0.0
 20
0.0
 30
0.0
  9
$PUCSORGBOTTOM
 10
0.0
 20
0.0
 30
0.0
  9
$PUCSORGLEFT
 10
0.0
 20
0.0
 30
0.0
  9
$PUCSORGRIGHT
 10
0.0
 20
0.0
 30
0.0
  9
$PUCSORGFRONT
 10
0.0
 20
0.0
 30
0.0
  9
$PUCSORGBACK
 10
0.0
 20
0.0
 30
0.0
  9
$USERI1
 70
     0
  9
$USERI2
 70
     0
  9
$USERI3
 70
     0
  9
$USERI4
 70
     0
  9
$USERI5
 70
     0
  9
$USERR1
 40
0.0
  9
$USERR2
 40
0.0
  9
$USERR3
 40
0.0
  9
$USERR4
 40
0.0
  9
$USERR5
 40
0.0
  9
$WORLDVIEW
 70
     1
  9
$SHADEDGE
 70
     3
  9
$SHADEDIF
 70
    70
  9
$TILEMODE
 70
     1
  9
$MAXACTVP
 70
    16
  9
$PINSBASE
 10
0.0
 20
0.0
 30
0.0
  9
$PLIMCHECK
 70
     0
  9
$PEXTMIN
 10
1.000000000000000E+20
 20
1.000000000000000E+20
 30
1.000000000000000E+20
  9
$PEXTMAX
 10
-1.000000000000000E+20
 20
-1.000000000000000E+20
 30
-1.000000000000000E+20
  9
$PLIMMIN
 10
0.0
 20
0.0
  9
$PLIMMAX
 10
420.0
 20
297.0
  9
$UNITMODE
 70
     0
  9
$VISRETAIN
 70
     0
  9
$PLINEGEN
 70
     0
  9
$PSLTSCALE
 70
     0
  9
$TREEDEPTH
 70
  3020
  9
$CMLSTYLE
  2
STANDARD
  9
$CMLJUST
 70
     0
  9
$CMLSCALE
 40
1.0
  9
$PROXYGRAPHICS
 70
     1
  9
$MEASUREMENT
 70
     1
  9
$CELWEIGHT
370
    -1
  9
$ENDCAPS
280
     0
  9
$JOINSTYLE
280
     0
  9
$LWDISPLAY
290
     0
  9
$INSUNITS
 70
     0
  9
$HYPERLINKBASE
  1

  9
$STYLESHEET
  1
inaba.ctb
  9
$XEDIT
290
     1
  9
$CEPSNTYPE
380
     0
  9
$PSTYLEMODE
290
     1
  9
$FINGERPRINTGUID
  2
{696AEDA2-CF37-4C16-A548-8F3E259D4281}
  9
$VERSIONGUID
  2
{F4CA19F6-0EF3-4917-87B4-3C3A8DFBB118}
  9
$EXTNAMES
290
     1
  9
$PSVPSCALE
 40
0.0
  9
$OLESTARTUP
290
     0
  0
ENDSEC
  0
SECTION
  2
CLASSES
  0
CLASS
  1
ACDBDICTIONARYWDFLT
  2
AcDbDictionaryWithDefault
  3
ObjectDBX Classes
 90
        0
280
     0
281
     0
  0
CLASS
  1
DICTIONARYVAR
  2
AcDbDictionaryVar
  3
ObjectDBX Classes
 90
        0
280
     0
281
     0
  0
CLASS
  1
MATERIAL
  2
AcDbMaterial
  3
ObjectDBX Classes
 90
     1153
280
     0
281
     0
  0
CLASS
  1
VISUALSTYLE
  2
AcDbVisualStyle
  3
ObjectDBX Classes
 90
     4095
280
     0
281
     0
  0
CLASS
  1
TABLESTYLE
  2
AcDbTableStyle
  3
ObjectDBX Classes
 90
     4095
280
     0
281
     0
  0
CLASS
  1
SCALE
  2
AcDbScale
  3
ObjectDBX Classes
 90
     1153
280
     0
281
     0
  0
CLASS
  1
MLEADERSTYLE
  2
AcDbMLeaderStyle
  3
ACDB_MLEADERSTYLE_CLASS
 90
     4095
280
     0
281
     0
  0
CLASS
  1
ACDBSECTIONVIEWSTYLE
  2
AcDbSectionViewStyle
  3
ObjectDBX Classes
 90
     1025
280
     0
281
     0
  0
CLASS
  1
ACDBDETAILVIEWSTYLE
  2
AcDbDetailViewStyle
  3
ObjectDBX Classes
 90
     1025
280
     0
281
     0
  0
CLASS
  1
EXACXREFPANELOBJECT
  2
ExAcXREFPanelObject
  3
EXAC_ESW
 90
    33793
280
     0
281
     0
  0
CLASS
  1
NPOCOLLECTION
  2
AcDbImpNonPersistentObjectsCollection
  3
ObjectDBX Classes
 90
    33921
280
     0
281
     0
  0
CLASS
  1
SORTENTSTABLE
  2
AcDbSortentsTable
  3
ObjectDBX Classes
 90
    32768
280
     0
281
     0
  0
CLASS
  1
CELLSTYLEMAP
  2
AcDbCellStyleMap
  3
ObjectDBX Classes
 90
     1152
280
     0
281
     0
  0
CLASS
  1
ACDBPLACEHOLDER
  2
AcDbPlaceHolder
  3
ObjectDBX Classes
 90
        0
280
     0
281
     0
  0
CLASS
  1
LAYOUT
  2
AcDbLayout
  3
ObjectDBX Classes
 90
        0
280
     0
281
     0
  0
ENDSEC
  0
SECTION
  2
TABLES
  0
TABLE
  2
VPORT
  5
746D
102
{ACAD_XDICTIONARY
360
162C0
102
}
330
0
100
AcDbSymbolTable
 70
     1
  0
VPORT
  5
13CE1
330
746D
100
AcDbSymbolTableRecord
100
AcDbViewportTableRecord
  2
*Active
 70
     0
 10
0.0
 20
0.0
 11
1.0
 21
1.0
 12
6167.820768928882
 22
4278.440617712738
 13
0.0
 23
0.0
 14
10.0
 24
10.0
 15
10.0
 25
10.0
 16
0.0
 26
0.0
 36
1.0
 17
0.0
 27
0.0
 37
0.0
 40
8773.885044942428
 41
1.390896921017402
 42
50.0
 43
0.0
 44
0.0
 50
0.0
 51
0.0
 71
     0
 72
     0
 73
     1
 74
     0
 75
     1
 76
     0
 77
     0
 78
     0
281
     0
 65
     1
110
0.0
120
0.0
130
0.0
111
1.0
121
0.0
131
0.0
112
0.0
122
1.0
132
0.0
 79
     0
146
0.0
1001
ACAD_NAV_VCDISPLAY
1070
     3
  0
ENDTAB
  0
TABLE
  2
LTYPE
  5
746A
330
0
100
AcDbSymbolTable
 70
     3
  0
LTYPE
  5
7477
330
746A
100
AcDbSymbolTableRecord
100
AcDbLinetypeTableRecord
  2
BYBLOCK
 70
     0
  3

 72
    65
 73
     0
 40
0.0
  0
LTYPE
  5
7478
330
746A
100
AcDbSymbolTableRecord
100
AcDbLinetypeTableRecord
  2
BYLAYER
 70
     0
  3

 72
    65
 73
     0
 40
0.0
  0
LTYPE
  5
7479
330
746A
100
AcDbSymbolTableRecord
100
AcDbLinetypeTableRecord
  2
CONTINUOUS
 70
     0
  3
Solid line
 72
    65
 73
     0
 40
0.0
  0
LTYPE
  5
781B
330
746A
100
AcDbSymbolTableRecord
100
AcDbLinetypeTableRecord
  2
PHANTOM
 70
     0
  3
______  __  __  ______  __  __  ______  __  __ 
 72
    65
 73
     6
 40
2.5
 49
1.25
 74
     0
 49
-0.25
 74
     0
 49
0.25
 74
     0
 49
-0.25
 74
     0
 49
0.25
 74
     0
 49
-0.25
 74
     0
  0
LTYPE
  5
13571
330
746A
100
AcDbSymbolTableRecord
100
AcDbLinetypeTableRecord
  2
CENTER
 70
     0
  3
Center ____ _ ____ _ ____ _ ____ _ ____ _ ____
 72
    65
 73
     4
 40
50.8
 49
31.75
 74
     0
 49
-6.349999999999999
 74
     0
 49
6.349999999999999
 74
     0
 49
-6.349999999999999
 74
     0
  0
ENDTAB
  0
TABLE
  2
LAYER
  5
7467
102
{ACAD_XDICTIONARY
360
13451
102
}
330
0
100
AcDbSymbolTable
 70
    13
  0
LAYER
  5
7474
102
{ACAD_XDICTIONARY
360
16245
102
}
330
7467
100
AcDbSymbolTableRecord
100
AcDbLayerTableRecord
  2
0
 70
     0
 62
     7
  6
CONTINUOUS
370
    -3
390
1341B
  0
LAYER
  5
DEB3
102
{ACAD_XDICTIONARY
360
16247
102
}
330
7467
100
AcDbSymbolTableRecord
100
AcDbLayerTableRecord
  2
寸法
 70
     0
 62
     4
  6
CONTINUOUS
370
    -3
390
1341B
  0
LAYER
  5
DEB4
102
{ACAD_XDICTIONARY
360
16249
102
}
330
7467
100
AcDbSymbolTableRecord
100
AcDbLayerTableRecord
  2
部品1
 70
     0
 62
     7
  6
CONTINUOUS
370
    -3
390
1341B
  0
LAYER
  5
DEB5
102
{ACAD_XDICTIONARY
360
1624B
102
}
330
7467
100
AcDbSymbolTableRecord
100
AcDbLayerTableRecord
  2
補助
 70
     0
 62
    -1
  6
CONTINUOUS
370
    -3
390
1341B
  0
LAYER
  5
DEB6
102
{ACAD_XDICTIONARY
360
1624D
102
}
330
7467
100
AcDbSymbolTableRecord
100
AcDbLayerTableRecord
  2
文字
 70
     0
 62
     7
  6
CONTINUOUS
370
    -3
390
1341B
  0
LAYER
  5
F255
330
7467
100
AcDbSymbolTableRecord
100
AcDbLayerTableRecord
  2
DEFPOINTS
 70
     0
 62
     7
  6
CONTINUOUS
290
     0
370
    -3
390
1341B
  0
LAYER
  5
10B54
102
{ACAD_XDICTIONARY
360
1624F
102
}
330
7467
100
AcDbSymbolTableRecord
100
AcDbLayerTableRecord
  2
仕様書枠
 70
     0
 62
   230
  6
CONTINUOUS
370
    -3
390
1341B
  0
LAYER
  5
11729
102
{ACAD_XDICTIONARY
360
16251
102
}
330
7467
100
AcDbSymbolTableRecord
100
AcDbLayerTableRecord
  2
Ｇ．Ｌ
 70
     0
 62
    30
  6
CONTINUOUS
370
    -3
390
1341B
  0
LAYER
  5
1173F
102
{ACAD_XDICTIONARY
360
16253
102
}
330
7467
100
AcDbSymbolTableRecord
100
AcDbLayerTableRecord
  2
細線
 70
     0
 62
     5
  6
CONTINUOUS
370
    -3
390
1341B
  0
LAYER
  5
1356E
102
{ACAD_XDICTIONARY
360
16257
102
}
330
7467
100
AcDbSymbolTableRecord
100
AcDbLayerTableRecord
  2
センター
 70
     0
 62
     3
  6
CENTER
370
    -3
390
1341B
  0
LAYER
  5
135FB
102
{ACAD_XDICTIONARY
360
16259
102
}
330
7467
100
AcDbSymbolTableRecord
100
AcDbLayerTableRecord
  2
想像線
 70
     0
 62
     6
  6
PHANTOM
370
    -3
390
1341B
  0
LAYER
  5
137FC
102
{ACAD_XDICTIONARY
360
1625B
102
}
330
7467
100
AcDbSymbolTableRecord
100
AcDbLayerTableRecord
  2
U7
 70
     0
 62
     2
  6
CONTINUOUS
370
    -3
390
1341B
  0
LAYER
  5
137FD
102
{ACAD_XDICTIONARY
360
1625D
102
}
330
7467
100
AcDbSymbolTableRecord
100
AcDbLayerTableRecord
  2
KIN-T
 70
     0
 62
     3
  6
CONTINUOUS
370
    -3
390
1341B
  0
ENDTAB
  0
TABLE
  2
STYLE
  5
7468
330
0
100
AcDbSymbolTable
 70
     5
  0
STYLE
  5
7475
330
7468
100
AcDbSymbolTableRecord
100
AcDbTextStyleTableRecord
  2
STANDARD
 70
     0
 40
0.0
 41
1.0
 50
0.0
 71
     0
 42
4.0
  3
txt
  4
C:\AutoCAD LT\bigfont.shx
  0
STYLE
  5
763C
330
7468
100
AcDbSymbolTableRecord
100
AcDbTextStyleTableRecord
  2
MSMINCHO
 70
     0
 40
0.0
 41
1.0
 50
0.0
 71
     0
 42
1.199999999999999
  3
C:\AutoCAD LT\msminch2.TTF
  4

  0
STYLE
  5
F706
330
7468
100
AcDbSymbolTableRecord
100
AcDbTextStyleTableRecord
  2
STYLE1
 70
     0
 40
0.0
 41
1.0
 50
0.0
 71
     0
 42
4.0
  3
isocp.shx
  4
bigfont.shx
  0
STYLE
  5
103BF
330
7468
100
AcDbSymbolTableRecord
100
AcDbTextStyleTableRecord
  2
STYLE2
 70
     0
 40
0.0
 41
1.0
 50
0.0
 71
     0
 42
100.0
  3

  4

1001
ACAD
1000
MS PGothic
1071
    32818
  0
STYLE
  5
10BAA
330
7468
100
AcDbSymbolTableRecord
100
AcDbTextStyleTableRecord
  2
STYLE3
 70
     0
 40
0.0
 41
1.0
 50
0.0
 71
     0
 42
100.0
  3

  4

1001
ACAD
1000
MS PGothic
1071
    32818
  0
ENDTAB
  0
TABLE
  2
VIEW
  5
746B
330
0
100
AcDbSymbolTable
 70
     0
  0
ENDTAB
  0
TABLE
  2
UCS
  5
746C
330
0
100
AcDbSymbolTable
 70
     0
  0
ENDTAB
  0
TABLE
  2
APPID
  5
746E
330
0
100
AcDbSymbolTable
 70
    12
  0
APPID
  5
7476
330
746E
100
AcDbSymbolTableRecord
100
AcDbRegAppTableRecord
  2
ACAD
 70
     0
  0
APPID
  5
DEA9
330
746E
100
AcDbSymbolTableRecord
100
AcDbRegAppTableRecord
  2
CONTENTBLOCKICON
 70
     0
  0
APPID
  5
DEAA
330
746E
100
AcDbSymbolTableRecord
100
AcDbRegAppTableRecord
  2
CONTENTBLOCKDESCRIPTION
 70
     0
  0
APPID
  5
E71D
330
746E
100
AcDbSymbolTableRecord
100
AcDbRegAppTableRecord
  2
CONTENTTABDATA
 70
     0
  0
APPID
  5
E71E
330
746E
100
AcDbSymbolTableRecord
100
AcDbRegAppTableRecord
  2
CONTENTCURRENTTAB
 70
     0
  0
APPID
  5
F3BA
330
746E
100
AcDbSymbolTableRecord
100
AcDbRegAppTableRecord
  2
DRAWINGVARIABLESXDATA
 70
     0
  0
APPID
  5
144C6
330
746E
100
AcDbSymbolTableRecord
100
AcDbRegAppTableRecord
  2
ACAD_NAV_VCDISPLAY
 70
     0
  0
APPID
  5
144C7
330
746E
100
AcDbSymbolTableRecord
100
AcDbRegAppTableRecord
  2
GradientColor1ACI
 70
     0
  0
APPID
  5
144C8
330
746E
100
AcDbSymbolTableRecord
100
AcDbRegAppTableRecord
  2
GradientColor2ACI
 70
     0
  0
APPID
  5
15F33
330
746E
100
AcDbSymbolTableRecord
100
AcDbRegAppTableRecord
  2
AcadAnnoMonitorAlertIconDisabled
 70
     0
  0
APPID
  5
15F34
330
746E
100
AcDbSymbolTableRecord
100
AcDbRegAppTableRecord
  2
ACAD_EXEMPT_FROM_CAD_STANDARDS
 70
     0
  0
APPID
  5
162FA
330
746E
100
AcDbSymbolTableRecord
100
AcDbRegAppTableRecord
  2
ACAD_MLEADERVER
 70
     0
  0
ENDTAB
  0
TABLE
  2
DIMSTYLE
  5
746F
330
0
100
AcDbSymbolTable
 70
     1
100
AcDbDimStyleTable
 71
     1
340
F71F
  0
DIMSTYLE
105
F71F
102
{ACAD_REACTORS
330
15D72
330
15D73
330
15D74
330
15D75
330
15D76
330
15D77
330
15D78
330
15D79
330
15D7A
330
15D7B
330
15D7C
330
15D7D
330
15D7E
330
15D7F
330
15D80
330
15D81
330
15D82
330
15D83
330
15D84
330
15D85
330
16065
330
16066
330
16067
330
1605F
330
16060
330
16061
330
16062
330
16063
330
16064
102
}
330
746F
100
AcDbSymbolTableRecord
100
AcDbDimStyleTableRecord
  2
INABA_S30G
 70
     0
 40
30.0
 41
2.5
 42
0.5
 43
7.0
 44
1.5
 73
     0
 74
     0
 77
     3
 78
     8
140
3.0
141
0.0
143
0.0394
147
1.0
172
     1
173
     1
174
     1
175
     1
178
     7
271
     1
340
F706
341
F770
343
F770
344
F770
  0
ENDTAB
  0
TABLE
  2
BLOCK_RECORD
  5
7466
330
0
100
AcDbSymbolTable
 70
    30
  0
BLOCK_RECORD
  5
747D
330
7466
100
AcDbSymbolTableRecord
100
AcDbBlockTableRecord
  2
*MODEL_SPACE
340
13420
  0
BLOCK_RECORD
  5
747A
330
7466
100
AcDbSymbolTableRecord
100
AcDbBlockTableRecord
  2
*PAPER_SPACE
340
13421
  0
BLOCK_RECORD
  5
F770
330
7466
100
AcDbSymbolTableRecord
100
AcDbBlockTableRecord
  2
_DOTSMALL
340
0
102
{BLKREFS
331
1647A
331
1647B
331
16484
331
16485
331
1648D
331
1648E
331
16497
331
16498
331
164A0
331
164A1
331
164A9
331
164AA
331
164B2
331
164B3
331
164BB
331
164BC
331
164C4
331
164C5
331
164CD
331
164CE
331
164D6
331
164D7
331
164DF
331
164E0
331
164E8
331
164E9
331
164F1
331
164F2
331
164FA
331
164FB
331
16503
331
16504
331
1650C
331
1650D
331
16515
331
16516
331
1651F
331
16520
331
16529
331
1652A
331
16532
331
16533
331
1653B
331
1653C
331
16544
331
16545
331
1654D
331
1654E
331
16556
331
16557
331
16561
331
16562
331
1656C
331
1656D
102
}
  0
BLOCK_RECORD
  5
15D93
330
7466
100
AcDbSymbolTableRecord
100
AcDbBlockTableRecord
  2
*D1
340
0
  0
BLOCK_RECORD
  5
15D9D
330
7466
100
AcDbSymbolTableRecord
100
AcDbBlockTableRecord
  2
*D2
340
0
  0
BLOCK_RECORD
  5
15DA7
330
7466
100
AcDbSymbolTableRecord
100
AcDbBlockTableRecord
  2
*D3
340
0
  0
BLOCK_RECORD
  5
15DB3
330
7466
100
AcDbSymbolTableRecord
100
AcDbBlockTableRecord
  2
*D4
340
0
  0
BLOCK_RECORD
  5
15DC0
330
7466
100
AcDbSymbolTableRecord
100
AcDbBlockTableRecord
  2
*D5
340
0
  0
BLOCK_RECORD
  5
15DCC
330
7466
100
AcDbSymbolTableRecord
100
AcDbBlockTableRecord
  2
*D6
340
0
  0
BLOCK_RECORD
  5
15DD9
330
7466
100
AcDbSymbolTableRecord
100
AcDbBlockTableRecord
  2
*D7
340
0
  0
BLOCK_RECORD
  5
15DE5
330
7466
100
AcDbSymbolTableRecord
100
AcDbBlockTableRecord
  2
*D8
340
0
  0
BLOCK_RECORD
  5
15DF1
330
7466
100
AcDbSymbolTableRecord
100
AcDbBlockTableRecord
  2
*D9
340
0
  0
BLOCK_RECORD
  5
15DFD
330
7466
100
AcDbSymbolTableRecord
100
AcDbBlockTableRecord
  2
*D10
340
0
  0
BLOCK_RECORD
  5
15E09
330
7466
100
AcDbSymbolTableRecord
100
AcDbBlockTableRecord
  2
*D11
340
0
  0
BLOCK_RECORD
  5
15E15
330
7466
100
AcDbSymbolTableRecord
100
AcDbBlockTableRecord
  2
*D12
340
0
  0
BLOCK_RECORD
  5
15E21
330
7466
100
AcDbSymbolTableRecord
100
AcDbBlockTableRecord
  2
*D13
340
0
  0
BLOCK_RECORD
  5
15E2D
330
7466
100
AcDbSymbolTableRecord
100
AcDbBlockTableRecord
  2
*D14
340
0
  0
BLOCK_RECORD
  5
15E39
330
7466
100
AcDbSymbolTableRecord
100
AcDbBlockTableRecord
  2
*D15
340
0
  0
BLOCK_RECORD
  5
15E45
330
7466
100
AcDbSymbolTableRecord
100
AcDbBlockTableRecord
  2
*D16
340
0
  0
BLOCK_RECORD
  5
15E51
330
7466
100
AcDbSymbolTableRecord
100
AcDbBlockTableRecord
  2
*D17
340
0
  0
BLOCK_RECORD
  5
15E5D
330
7466
100
AcDbSymbolTableRecord
100
AcDbBlockTableRecord
  2
*D18
340
0
  0
BLOCK_RECORD
  5
15E69
330
7466
100
AcDbSymbolTableRecord
100
AcDbBlockTableRecord
  2
*D19
340
0
  0
BLOCK_RECORD
  5
15E75
330
7466
100
AcDbSymbolTableRecord
100
AcDbBlockTableRecord
  2
*D20
340
0
  0
BLOCK_RECORD
  5
16073
330
7466
100
AcDbSymbolTableRecord
100
AcDbBlockTableRecord
  2
*D21
340
0
  0
BLOCK_RECORD
  5
1607F
330
7466
100
AcDbSymbolTableRecord
100
AcDbBlockTableRecord
  2
*D22
340
0
  0
BLOCK_RECORD
  5
1608D
330
7466
100
AcDbSymbolTableRecord
100
AcDbBlockTableRecord
  2
*D23
340
0
  0
BLOCK_RECORD
  5
1609B
330
7466
100
AcDbSymbolTableRecord
100
AcDbBlockTableRecord
  2
*D24
340
0
  0
BLOCK_RECORD
  5
160A8
330
7466
100
AcDbSymbolTableRecord
100
AcDbBlockTableRecord
  2
*D25
340
0
  0
BLOCK_RECORD
  5
160B5
330
7466
100
AcDbSymbolTableRecord
100
AcDbBlockTableRecord
  2
*D26
340
0
  0
BLOCK_RECORD
  5
160C1
330
7466
100
AcDbSymbolTableRecord
100
AcDbBlockTableRecord
  2
*D27
340
0
  0
BLOCK_RECORD
  5
160CD
330
7466
100
AcDbSymbolTableRecord
100
AcDbBlockTableRecord
  2
*D28
340
0
  0
BLOCK_RECORD
  5
160D9
330
7466
100
AcDbSymbolTableRecord
100
AcDbBlockTableRecord
  2
*D29
340
0
  0
ENDTAB
  0
ENDSEC
  0
SECTION
  2
BLOCKS
  0
BLOCK
  5
7489
330
747D
100
AcDbEntity
  8
0
100
AcDbBlockBegin
  2
*MODEL_SPACE
 70
     0
 10
0.0
 20
0.0
 30
0.0
  3
*MODEL_SPACE
  1

  0
ENDBLK
  5
748A
330
747D
100
AcDbEntity
  8
0
100
AcDbBlockEnd
  0
BLOCK
  5
7487
330
747A
100
AcDbEntity
 67
     1
  8
0
100
AcDbBlockBegin
  2
*PAPER_SPACE
 70
     0
 10
0.0
 20
0.0
 30
0.0
  3
*PAPER_SPACE
  1

  0
ENDBLK
  5
7488
330
747A
100
AcDbEntity
 67
     1
  8
0
100
AcDbBlockEnd
  0
BLOCK
  5
F771
330
F770
100
AcDbEntity
  8
0
 48
50.0
100
AcDbBlockBegin
  2
_DOTSMALL
 70
     0
 10
0.0
 20
0.0
 30
0.0
  3
_DOTSMALL
  1

  0
LWPOLYLINE
  5
F772
330
F770
100
AcDbEntity
  8
0
  6
ByBlock
 62
     0
 48
50.0
100
AcDbPolyline
 90
        2
 70
     1
 43
0.5
 10
-0.0625
 20
0.0
 42
1.0
 10
0.0625
 20
0.0
 42
1.0
  0
ENDBLK
  5
F776
330
F770
100
AcDbEntity
  8
0
 48
50.0
100
AcDbBlockEnd
  0
BLOCK
  5
15D94
330
15D93
100
AcDbEntity
  8
0
 48
50.0
100
AcDbBlockBegin
  2
*D1
 70
     1
 10
0.0
 20
0.0
 30
0.0
  3
*D1
  1

  0
LINE
  5
16469
330
15D93
100
AcDbEntity
  8
寸法
 62
     0
 48
50.0
370
    -2
100
AcDbLine
 10
2452.323361551949
 20
1791.5
 30
0.0
 11
2452.323361551949
 21
1296.512281663483
 31
0.0
  0
LINE
  5
1646A
330
15D93
100
AcDbEntity
  8
寸法
 62
     0
 48
50.0
370
    -2
100
AcDbLine
 10
2282.32336155189
 20
1655.0
 30
0.0
 11
2282.32336155189
 21
1296.512281663483
 31
0.0
  0
LINE
  5
1646B
330
15D93
100
AcDbEntity
  8
寸法
 62
     0
 48
50.0
370
    -2
100
AcDbLine
 10
2452.323361551949
 20
1341.512281663483
 30
0.0
 11
2282.32336155189
 21
1341.512281663483
 31
0.0
  0
MTEXT
  5
1646C
330
15D93
100
AcDbEntity
  8
寸法
 62
     7
 48
50.0
100
AcDbMText
 10
2367.323361551919
 20
1416.512281663483
 30
0.0
 40
90.0
 41
0.0
 71
     5
 72
     1
  1
\A1;170
  7
STYLE1
 73
     1
 44
1.0
1001
ACAD
1000
MTEXTBEGIN
1070
    73
1070
     1
1070
    44
1040
1.0
1070
    74
1070
     0
1000
MTEXTEND
  0
POINT
  5
1646D
330
15D93
100
AcDbEntity
  8
DEFPOINTS
 62
     0
 48
50.0
100
AcDbPoint
 10
2452.323361551949
 20
1806.5
 30
0.0
  0
POINT
  5
1646E
330
15D93
100
AcDbEntity
  8
DEFPOINTS
 62
     0
 48
50.0
100
AcDbPoint
 10
2282.32336155189
 20
1670.0
 30
0.0
  0
POINT
  5
1646F
330
15D93
100
AcDbEntity
  8
DEFPOINTS
 62
     0
 48
50.0
100
AcDbPoint
 10
2282.32336155189
 20
1341.512281663483
 30
0.0
  0
ENDBLK
  5
15D95
330
15D93
100
AcDbEntity
  8
0
 48
50.0
100
AcDbBlockEnd
  0
BLOCK
  5
15D9E
330
15D9D
100
AcDbEntity
  8
0
 48
50.0
100
AcDbBlockBegin
  2
*D2
 70
     1
 10
0.0
 20
0.0
 30
0.0
  3
*D2
  1

  0
LINE
  5
16470
330
15D9D
100
AcDbEntity
  8
寸法
 62
     0
 48
50.0
370
    -2
100
AcDbLine
 10
5312.323361551833
 20
1791.5
 30
0.0
 11
5312.323361551833
 21
1296.512281663483
 31
0.0
  0
LINE
  5
16471
330
15D9D
100
AcDbEntity
  8
寸法
 62
     0
 48
50.0
370
    -2
100
AcDbLine
 10
5482.32336155189
 20
1655.0
 30
0.0
 11
5482.32336155189
 21
1296.512281663483
 31
0.0
  0
LINE
  5
16472
330
15D9D
100
AcDbEntity
  8
寸法
 62
     0
 48
50.0
370
    -2
100
AcDbLine
 10
5312.323361551833
 20
1341.512281663483
 30
0.0
 11
5482.32336155189
 21
1341.512281663483
 31
0.0
  0
MTEXT
  5
16473
330
15D9D
100
AcDbEntity
  8
寸法
 62
     7
 48
50.0
100
AcDbMText
 10
5397.323361551861
 20
1416.512281663483
 30
0.0
 40
90.0
 41
0.0
 71
     5
 72
     1
  1
\A1;170
  7
STYLE1
 73
     1
 44
1.0
1001
ACAD
1000
MTEXTBEGIN
1070
    73
1070
     1
1070
    44
1040
1.0
1070
    74
1070
     0
1000
MTEXTEND
  0
POINT
  5
16474
330
15D9D
100
AcDbEntity
  8
DEFPOINTS
 62
     0
 48
50.0
100
AcDbPoint
 10
5312.323361551833
 20
1806.5
 30
0.0
  0
POINT
  5
16475
330
15D9D
100
AcDbEntity
  8
DEFPOINTS
 62
     0
 48
50.0
100
AcDbPoint
 10
5482.32336155189
 20
1670.0
 30
0.0
  0
POINT
  5
16476
330
15D9D
100
AcDbEntity
  8
DEFPOINTS
 62
     0
 48
50.0
100
AcDbPoint
 10
5482.32336155189
 20
1341.512281663483
 30
0.0
  0
ENDBLK
  5
15D9F
330
15D9D
100
AcDbEntity
  8
0
 48
50.0
100
AcDbBlockEnd
  0
BLOCK
  5
15DA8
330
15DA7
100
AcDbEntity
  8
0
 48
50.0
100
AcDbBlockBegin
  2
*D3
 70
     1
 10
0.0
 20
0.0
 30
0.0
  3
*D3
  1

  0
LINE
  5
16477
330
15DA7
100
AcDbEntity
  8
寸法
 62
     0
 48
50.0
370
    -2
100
AcDbLine
 10
2452.323361551949
 20
1791.5
 30
0.0
 11
2452.323361551949
 21
1296.512281663483
 31
0.0
  0
LINE
  5
16478
330
15DA7
100
AcDbEntity
  8
寸法
 62
     0
 48
50.0
370
    -2
100
AcDbLine
 10
5312.323361551833
 20
1791.5
 30
0.0
 11
5312.323361551833
 21
1296.512281663483
 31
0.0
  0
LINE
  5
16479
330
15DA7
100
AcDbEntity
  8
寸法
 62
     0
 48
50.0
370
    -2
100
AcDbLine
 10
2452.323361551949
 20
1341.512281663483
 30
0.0
 11
5312.323361551833
 21
1341.512281663483
 31
0.0
  0
INSERT
  5
1647A
330
15DA7
100
AcDbEntity
  8
寸法
 62
     0
 48
50.0
370
    -2
100
AcDbBlockReference
  2
_DOTSMALL
 10
2452.323361551949
 20
1341.512281663483
 30
0.0
 41
75.0
 42
75.0
 43
75.0
 50
180.0
  0
INSERT
  5
1647B
330
15DA7
100
AcDbEntity
  8
寸法
 62
     0
 48
50.0
370
    -2
100
AcDbBlockReference
  2
_DOTSMALL
 10
5312.323361551833
 20
1341.512281663483
 30
0.0
 41
75.0
 42
75.0
 43
75.0
  0
MTEXT
  5
1647C
330
15DA7
100
AcDbEntity
  8
寸法
 62
     7
 48
50.0
100
AcDbMText
 10
3882.32336155189
 20
1416.521139931199
 30
0.0
 40
90.0
 41
0.0
 71
     5
 72
     1
  1
\A1;屋根寸法 2860
  7
STYLE1
 73
     1
 44
1.0
1001
ACAD
1000
MTEXTBEGIN
1070
    73
1070
     1
1070
    44
1040
1.0
1070
    74
1070
     0
1000
MTEXTEND
  0
POINT
  5
1647D
330
15DA7
100
AcDbEntity
  8
DEFPOINTS
 62
     0
 48
50.0
100
AcDbPoint
 10
2452.323361551949
 20
1806.5
 30
0.0
  0
POINT
  5
1647E
330
15DA7
100
AcDbEntity
  8
DEFPOINTS
 62
     0
 48
50.0
100
AcDbPoint
 10
5312.323361551833
 20
1806.5
 30
0.0
  0
POINT
  5
1647F
330
15DA7
100
AcDbEntity
  8
DEFPOINTS
 62
     0
 48
50.0
100
AcDbPoint
 10
5312.323361551833
 20
1341.512281663483
 30
0.0
  0
ENDBLK
  5
15DA9
330
15DA7
100
AcDbEntity
  8
0
 48
50.0
100
AcDbBlockEnd
  0
BLOCK
  5
15DB4
330
15DB3
100
AcDbEntity
  8
0
 48
50.0
100
AcDbBlockBegin
  2
*D4
 70
     1
 10
0.0
 20
0.0
 30
0.0
  3
*D4
  1

  0
LINE
  5
16480
330
15DB3
100
AcDbEntity
  8
寸法
 62
     0
 48
50.0
370
    -2
100
AcDbLine
 10
5327.323361551832
 20
1806.5
 30
0.0
 11
5909.597583915491
 21
1806.499999999999
 31
0.0
  0
LINE
  5
16481
330
15DB3
100
AcDbEntity
  8
寸法
 62
     0
 48
50.0
370
    -2
100
AcDbLine
 10
5497.32336155189
 20
1670.0
 30
0.0
 11
5909.597583915491
 21
1670.0
 31
0.0
  0
LINE
  5
16482
330
15DB3
100
AcDbEntity
  8
寸法
 62
     0
 48
50.0
370
    -2
100
AcDbLine
 10
5864.597583915491
 20
1806.499999999999
 30
0.0
 11
5864.597583915491
 21
1670.0
 31
0.0
  0
LINE
  5
16483
330
15DB3
100
AcDbEntity
  8
寸法
 62
     0
 48
50.0
370
    -2
100
AcDbLine
 10
5864.597583915491
 20
1670.0
 30
0.0
 11
5864.597583915491
 21
1297.272077938642
 31
0.0
  0
INSERT
  5
16484
330
15DB3
100
AcDbEntity
  8
寸法
 62
     0
 48
50.0
370
    -2
100
AcDbBlockReference
  2
_DOTSMALL
 10
5864.597583915491
 20
1806.499999999999
 30
0.0
 41
75.0
 42
75.0
 43
75.0
 50
90.0
  0
INSERT
  5
16485
330
15DB3
100
AcDbEntity
  8
寸法
 62
     0
 48
50.0
370
    -2
100
AcDbBlockReference
  2
_DOTSMALL
 10
5864.597583915491
 20
1670.0
 30
0.0
 41
75.0
 42
75.0
 43
75.0
 50
270.0
  0
MTEXT
  5
16486
330
15DB3
100
AcDbEntity
  8
寸法
 62
     7
 48
50.0
100
AcDbMText
 10
5789.597583915491
 20
1446.136038969322
 30
0.0
 40
90.0
 41
0.0
 71
     5
 72
     1
  1
\A1;136.5
  7
STYLE1
 11
0.0000000000000001
 21
1.0
 31
0.0
 73
     1
 44
1.0
1001
ACAD
1000
MTEXTBEGIN
1070
    73
1070
     1
1070
    44
1040
1.0
1070
    74
1070
     0
1000
MTEXTEND
  0
POINT
  5
16487
330
15DB3
100
AcDbEntity
  8
DEFPOINTS
 62
     0
 48
50.0
100
AcDbPoint
 10
5312.323361551833
 20
1806.5
 30
0.0
  0
POINT
  5
16488
330
15DB3
100
AcDbEntity
  8
DEFPOINTS
 62
     0
 48
50.0
100
AcDbPoint
 10
5482.32336155189
 20
1670.0
 30
0.0
  0
POINT
  5
16489
330
15DB3
100
AcDbEntity
  8
DEFPOINTS
 62
     0
 48
50.0
100
AcDbPoint
 10
5864.597583915491
 20
1670.0
 30
0.0
  0
ENDBLK
  5
15DB5
330
15DB3
100
AcDbEntity
  8
0
 48
50.0
100
AcDbBlockEnd
  0
BLOCK
  5
15DC1
330
15DC0
100
AcDbEntity
  8
0
 48
50.0
100
AcDbBlockBegin
  2
*D5
 70
     1
 10
0.0
 20
0.0
 30
0.0
  3
*D5
  1

  0
LINE
  5
1648A
330
15DC0
100
AcDbEntity
  8
寸法
 62
     0
 48
50.0
370
    -2
100
AcDbLine
 10
5327.323361551832
 20
5883.5
 30
0.0
 11
5909.597583915492
 21
5883.5
 31
0.0
  0
LINE
  5
1648B
330
15DC0
100
AcDbEntity
  8
寸法
 62
     0
 48
50.0
370
    -2
100
AcDbLine
 10
5327.323361551832
 20
1806.5
 30
0.0
 11
5909.597583915491
 21
1806.499999999999
 31
0.0
  0
LINE
  5
1648C
330
15DC0
100
AcDbEntity
  8
寸法
 62
     0
 48
50.0
370
    -2
100
AcDbLine
 10
5864.597583915493
 20
5883.5
 30
0.0
 11
5864.597583915491
 21
1806.499999999999
 31
0.0
  0
INSERT
  5
1648D
330
15DC0
100
AcDbEntity
  8
寸法
 62
     0
 48
50.0
370
    -2
100
AcDbBlockReference
  2
_DOTSMALL
 10
5864.597583915493
 20
5883.5
 30
0.0
 41
75.0
 42
75.0
 43
75.0
 50
90.0
  0
INSERT
  5
1648E
330
15DC0
100
AcDbEntity
  8
寸法
 62
     0
 48
50.0
370
    -2
100
AcDbBlockReference
  2
_DOTSMALL
 10
5864.597583915491
 20
1806.499999999999
 30
0.0
 41
75.0
 42
75.0
 43
75.0
 50
270.0
  0
MTEXT
  5
1648F
330
15DC0
100
AcDbEntity
  8
寸法
 62
     7
 48
50.0
100
AcDbMText
 10
5789.597583915491
 20
3845.0
 30
0.0
 40
90.0
 41
0.0
 71
     5
 72
     1
  1
\A1;屋根寸法 4077
  7
STYLE1
 11
0.0000000000000001
 21
1.0
 31
0.0
 73
     1
 44
1.0
1001
ACAD
1000
MTEXTBEGIN
1070
    73
1070
     1
1070
    44
1040
1.0
1070
    74
1070
     0
1000
MTEXTEND
  0
POINT
  5
16490
330
15DC0
100
AcDbEntity
  8
DEFPOINTS
 62
     0
 48
50.0
100
AcDbPoint
 10
5312.323361551833
 20
5883.5
 30
0.0
  0
POINT
  5
16491
330
15DC0
100
AcDbEntity
  8
DEFPOINTS
 62
     0
 48
50.0
100
AcDbPoint
 10
5312.323361551833
 20
1806.5
 30
0.0
  0
POINT
  5
16492
330
15DC0
100
AcDbEntity
  8
DEFPOINTS
 62
     0
 48
50.0
100
AcDbPoint
 10
5864.597583915491
 20
1806.499999999999
 30
0.0
  0
ENDBLK
  5
15DC2
330
15DC0
100
AcDbEntity
  8
0
 48
50.0
100
AcDbBlockEnd
  0
BLOCK
  5
15DCD
330
15DCC
100
AcDbEntity
  8
0
 48
50.0
100
AcDbBlockBegin
  2
*D6
 70
     1
 10
0.0
 20
0.0
 30
0.0
  3
*D6
  1

  0
LINE
  5
16493
330
15DCC
100
AcDbEntity
  8
寸法
 62
     0
 48
50.0
370
    -2
100
AcDbLine
 10
5327.323361551832
 20
5883.5
 30
0.0
 11
5909.597583915492
 21
5883.5
 31
0.0
  0
LINE
  5
16494
330
15DCC
100
AcDbEntity
  8
寸法
 62
     0
 48
50.0
370
    -2
100
AcDbLine
 10
5497.32336155189
 20
6020.0
 30
0.0
 11
5909.597583915492
 21
6020.0
 31
0.0
  0
LINE
  5
16495
330
15DCC
100
AcDbEntity
  8
寸法
 62
     0
 48
50.0
370
    -2
100
AcDbLine
 10
5864.597583915493
 20
5883.5
 30
0.0
 11
5864.597583915493
 21
6020.0
 31
0.0
  0
LINE
  5
16496
330
15DCC
100
AcDbEntity
  8
寸法
 62
     0
 48
50.0
370
    -2
100
AcDbLine
 10
5864.597583915493
 20
6020.0
 30
0.0
 11
5864.597583915493
 21
6392.727922061407
 31
0.0
  0
INSERT
  5
16497
330
15DCC
100
AcDbEntity
  8
寸法
 62
     0
 48
50.0
370
    -2
100
AcDbBlockReference
  2
_DOTSMALL
 10
5864.597583915493
 20
5883.5
 30
0.0
 41
75.0
 42
75.0
 43
75.0
 50
270.0
  0
INSERT
  5
16498
330
15DCC
100
AcDbEntity
  8
寸法
 62
     0
 48
50.0
370
    -2
100
AcDbBlockReference
  2
_DOTSMALL
 10
5864.597583915493
 20
6020.0
 30
0.0
 41
75.0
 42
75.0
 43
75.0
 50
90.0
  0
MTEXT
  5
16499
330
15DCC
100
AcDbEntity
  8
寸法
 62
     7
 48
50.0
100
AcDbMText
 10
5789.597583915491
 20
6243.863961030729
 30
0.0
 40
90.0
 41
0.0
 71
     5
 72
     1
  1
\A1;136.5
  7
STYLE1
 11
0.0000000000000001
 21
1.0
 31
0.0
 73
     1
 44
1.0
1001
ACAD
1000
MTEXTBEGIN
1070
    73
1070
     1
1070
    44
1040
1.0
1070
    74
1070
     0
1000
MTEXTEND
  0
POINT
  5
1649A
330
15DCC
100
AcDbEntity
  8
DEFPOINTS
 62
     0
 48
50.0
100
AcDbPoint
 10
5312.323361551833
 20
5883.5
 30
0.0
  0
POINT
  5
1649B
330
15DCC
100
AcDbEntity
  8
DEFPOINTS
 62
     0
 48
50.0
100
AcDbPoint
 10
5482.32336155189
 20
6020.0
 30
0.0
  0
POINT
  5
1649C
330
15DCC
100
AcDbEntity
  8
DEFPOINTS
 62
     0
 48
50.0
100
AcDbPoint
 10
5864.597583915493
 20
6020.0
 30
0.0
  0
ENDBLK
  5
15DCE
330
15DCC
100
AcDbEntity
  8
0
 48
50.0
100
AcDbBlockEnd
  0
BLOCK
  5
15DDA
330
15DD9
100
AcDbEntity
  8
0
 48
50.0
100
AcDbBlockBegin
  2
*D7
 70
     1
 10
0.0
 20
0.0
 30
0.0
  3
*D7
  1

  0
LINE
  5
1649D
330
15DD9
100
AcDbEntity
  8
寸法
 62
     0
 48
50.0
370
    -2
100
AcDbLine
 10
2267.32336155189
 20
6020.0
 30
0.0
 11
1673.7021628242
 21
6020.000000000001
 31
0.0
  0
LINE
  5
1649E
330
15DD9
100
AcDbEntity
  8
寸法
 62
     0
 48
50.0
370
    -2
100
AcDbLine
 10
2267.32336155189
 20
1670.0
 30
0.0
 11
1673.702162824199
 21
1670.0
 31
0.0
  0
LINE
  5
1649F
330
15DD9
100
AcDbEntity
  8
寸法
 62
     0
 48
50.0
370
    -2
100
AcDbLine
 10
1718.7021628242
 20
6020.000000000001
 30
0.0
 11
1718.702162824199
 21
1670.0
 31
0.0
  0
INSERT
  5
164A0
330
15DD9
100
AcDbEntity
  8
寸法
 62
     0
 48
50.0
370
    -2
100
AcDbBlockReference
  2
_DOTSMALL
 10
1718.7021628242
 20
6020.000000000001
 30
0.0
 41
75.0
 42
75.0
 43
75.0
 50
90.0
  0
INSERT
  5
164A1
330
15DD9
100
AcDbEntity
  8
寸法
 62
     0
 48
50.0
370
    -2
100
AcDbBlockReference
  2
_DOTSMALL
 10
1718.702162824199
 20
1670.0
 30
0.0
 41
75.0
 42
75.0
 43
75.0
 50
270.0
  0
MTEXT
  5
164A2
330
15DD9
100
AcDbEntity
  8
寸法
 62
     7
 48
50.0
100
AcDbMText
 10
1643.702162824199
 20
3845.000000000001
 30
0.0
 40
90.0
 41
0.0
 71
     5
 72
     1
  1
\A1;基礎土間寸法 4350
  7
STYLE1
 11
0.0000000000000001
 21
1.0
 31
0.0
 73
     1
 44
1.0
1001
ACAD
1000
MTEXTBEGIN
1070
    73
1070
     1
1070
    44
1040
1.0
1070
    74
1070
     0
1000
MTEXTEND
  0
POINT
  5
164A3
330
15DD9
100
AcDbEntity
  8
DEFPOINTS
 62
     0
 48
50.0
100
AcDbPoint
 10
2282.32336155189
 20
6020.0
 30
0.0
  0
POINT
  5
164A4
330
15DD9
100
AcDbEntity
  8
DEFPOINTS
 62
     0
 48
50.0
100
AcDbPoint
 10
2282.32336155189
 20
1670.0
 30
0.0
  0
POINT
  5
164A5
330
15DD9
100
AcDbEntity
  8
DEFPOINTS
 62
     0
 48
50.0
100
AcDbPoint
 10
1718.702162824199
 20
1670.0
 30
0.0
  0
ENDBLK
  5
15DDB
330
15DD9
100
AcDbEntity
  8
0
 48
50.0
100
AcDbBlockEnd
  0
BLOCK
  5
15DE6
330
15DE5
100
AcDbEntity
  8
0
 48
50.0
100
AcDbBlockBegin
  2
*D8
 70
     1
 10
0.0
 20
0.0
 30
0.0
  3
*D8
  1

  0
LINE
  5
164A6
330
15DE5
100
AcDbEntity
  8
寸法
 62
     0
 48
50.0
370
    -2
100
AcDbLine
 10
2417.32336155189
 20
3670.0
 30
0.0
 11
1896.451524840646
 21
3670.0
 31
0.0
  0
LINE
  5
164A7
330
15DE5
100
AcDbEntity
  8
寸法
 62
     0
 48
50.0
370
    -2
100
AcDbLine
 10
2267.32336155189
 20
1670.0
 30
0.0
 11
1896.451524840645
 21
1670.0
 31
0.0
  0
LINE
  5
164A8
330
15DE5
100
AcDbEntity
  8
寸法
 62
     0
 48
50.0
370
    -2
100
AcDbLine
 10
1941.451524840645
 20
3670.0
 30
0.0
 11
1941.451524840645
 21
1670.0
 31
0.0
  0
INSERT
  5
164A9
330
15DE5
100
AcDbEntity
  8
寸法
 62
     0
 48
50.0
370
    -2
100
AcDbBlockReference
  2
_DOTSMALL
 10
1941.451524840645
 20
3670.0
 30
0.0
 41
75.0
 42
75.0
 43
75.0
 50
90.0
  0
INSERT
  5
164AA
330
15DE5
100
AcDbEntity
  8
寸法
 62
     0
 48
50.0
370
    -2
100
AcDbBlockReference
  2
_DOTSMALL
 10
1941.451524840645
 20
1670.0
 30
0.0
 41
75.0
 42
75.0
 43
75.0
 50
270.0
  0
MTEXT
  5
164AB
330
15DE5
100
AcDbEntity
  8
寸法
 62
     7
 48
50.0
100
AcDbMText
 10
1866.442666572928
 20
2670.000000000001
 30
0.0
 40
90.0
 41
0.0
 71
     5
 72
     1
  1
\A1;2000
  7
STYLE1
 11
0.0000000000000001
 21
1.0
 31
0.0
 73
     1
 44
1.0
1001
ACAD
1000
MTEXTBEGIN
1070
    73
1070
     1
1070
    44
1040
1.0
1070
    74
1070
     0
1000
MTEXTEND
  0
POINT
  5
164AC
330
15DE5
100
AcDbEntity
  8
DEFPOINTS
 62
     0
 48
50.0
100
AcDbPoint
 10
2432.32336155189
 20
3670.0
 30
0.0
  0
POINT
  5
164AD
330
15DE5
100
AcDbEntity
  8
DEFPOINTS
 62
     0
 48
50.0
100
AcDbPoint
 10
2282.32336155189
 20
1670.0
 30
0.0
  0
POINT
  5
164AE
330
15DE5
100
AcDbEntity
  8
DEFPOINTS
 62
     0
 48
50.0
100
AcDbPoint
 10
1941.451524840645
 20
1670.0
 30
0.0
  0
ENDBLK
  5
15DE7
330
15DE5
100
AcDbEntity
  8
0
 48
50.0
100
AcDbBlockEnd
  0
BLOCK
  5
15DF2
330
15DF1
100
AcDbEntity
  8
0
 48
50.0
100
AcDbBlockBegin
  2
*D9
 70
     1
 10
0.0
 20
0.0
 30
0.0
  3
*D9
  1

  0
LINE
  5
164AF
330
15DF1
100
AcDbEntity
  8
寸法
 62
     0
 48
50.0
370
    -2
100
AcDbLine
 10
2417.32336155189
 20
4020.0
 30
0.0
 11
1896.451524840645
 21
4020.0
 31
0.0
  0
LINE
  5
164B0
330
15DF1
100
AcDbEntity
  8
寸法
 62
     0
 48
50.0
370
    -2
100
AcDbLine
 10
2417.32336155189
 20
3670.0
 30
0.0
 11
1896.451524840645
 21
3670.0
 31
0.0
  0
LINE
  5
164B1
330
15DF1
100
AcDbEntity
  8
寸法
 62
     0
 48
50.0
370
    -2
100
AcDbLine
 10
1941.451524840645
 20
4020.0
 30
0.0
 11
1941.451524840645
 21
3670.0
 31
0.0
  0
INSERT
  5
164B2
330
15DF1
100
AcDbEntity
  8
寸法
 62
     0
 48
50.0
370
    -2
100
AcDbBlockReference
  2
_DOTSMALL
 10
1941.451524840645
 20
4020.0
 30
0.0
 41
75.0
 42
75.0
 43
75.0
 50
90.0
  0
INSERT
  5
164B3
330
15DF1
100
AcDbEntity
  8
寸法
 62
     0
 48
50.0
370
    -2
100
AcDbBlockReference
  2
_DOTSMALL
 10
1941.451524840645
 20
3670.0
 30
0.0
 41
75.0
 42
75.0
 43
75.0
 50
270.0
  0
MTEXT
  5
164B4
330
15DF1
100
AcDbEntity
  8
寸法
 62
     7
 48
50.0
100
AcDbMText
 10
1866.451524840644
 20
3845.0
 30
0.0
 40
90.0
 41
0.0
 71
     5
 72
     1
  1
\A1;350
  7
STYLE1
 11
0.0000000000000001
 21
1.0
 31
0.0
 73
     1
 44
1.0
1001
ACAD
1000
MTEXTBEGIN
1070
    73
1070
     1
1070
    44
1040
1.0
1070
    74
1070
     0
1000
MTEXTEND
  0
POINT
  5
164B5
330
15DF1
100
AcDbEntity
  8
DEFPOINTS
 62
     0
 48
50.0
100
AcDbPoint
 10
2432.32336155189
 20
4020.0
 30
0.0
  0
POINT
  5
164B6
330
15DF1
100
AcDbEntity
  8
DEFPOINTS
 62
     0
 48
50.0
100
AcDbPoint
 10
2432.32336155189
 20
3670.0
 30
0.0
  0
POINT
  5
164B7
330
15DF1
100
AcDbEntity
  8
DEFPOINTS
 62
     0
 48
50.0
100
AcDbPoint
 10
1941.451524840645
 20
3670.0
 30
0.0
  0
ENDBLK
  5
15DF3
330
15DF1
100
AcDbEntity
  8
0
 48
50.0
100
AcDbBlockEnd
  0
BLOCK
  5
15DFE
330
15DFD
100
AcDbEntity
  8
0
 48
50.0
100
AcDbBlockBegin
  2
*D10
 70
     1
 10
0.0
 20
0.0
 30
0.0
  3
*D10
  1

  0
LINE
  5
164B8
330
15DFD
100
AcDbEntity
  8
寸法
 62
     0
 48
50.0
370
    -2
100
AcDbLine
 10
2417.32336155189
 20
4020.0
 30
0.0
 11
1896.451524840644
 21
4020.0
 31
0.0
  0
LINE
  5
164B9
330
15DFD
100
AcDbEntity
  8
寸法
 62
     0
 48
50.0
370
    -2
100
AcDbLine
 10
2267.32336155189
 20
6020.0
 30
0.0
 11
1896.451524840645
 21
6020.000000000001
 31
0.0
  0
LINE
  5
164BA
330
15DFD
100
AcDbEntity
  8
寸法
 62
     0
 48
50.0
370
    -2
100
AcDbLine
 10
1941.451524840644
 20
4020.0
 30
0.0
 11
1941.451524840645
 21
6020.000000000001
 31
0.0
  0
INSERT
  5
164BB
330
15DFD
100
AcDbEntity
  8
寸法
 62
     0
 48
50.0
370
    -2
100
AcDbBlockReference
  2
_DOTSMALL
 10
1941.451524840644
 20
4020.0
 30
0.0
 41
75.0
 42
75.0
 43
75.0
 50
270.0
  0
INSERT
  5
164BC
330
15DFD
100
AcDbEntity
  8
寸法
 62
     0
 48
50.0
370
    -2
100
AcDbBlockReference
  2
_DOTSMALL
 10
1941.451524840645
 20
6020.000000000001
 30
0.0
 41
75.0
 42
75.0
 43
75.0
 50
90.0
  0
MTEXT
  5
164BD
330
15DFD
100
AcDbEntity
  8
寸法
 62
     7
 48
50.0
100
AcDbMText
 10
1866.442666572927
 20
5020.000000000001
 30
0.0
 40
90.0
 41
0.0
 71
     5
 72
     1
  1
\A1;2000
  7
STYLE1
 11
0.0000000000000001
 21
1.0
 31
0.0
 73
     1
 44
1.0
1001
ACAD
1000
MTEXTBEGIN
1070
    73
1070
     1
1070
    44
1040
1.0
1070
    74
1070
     0
1000
MTEXTEND
  0
POINT
  5
164BE
330
15DFD
100
AcDbEntity
  8
DEFPOINTS
 62
     0
 48
50.0
100
AcDbPoint
 10
2432.32336155189
 20
4020.0
 30
0.0
  0
POINT
  5
164BF
330
15DFD
100
AcDbEntity
  8
DEFPOINTS
 62
     0
 48
50.0
100
AcDbPoint
 10
2282.32336155189
 20
6020.0
 30
0.0
  0
POINT
  5
164C0
330
15DFD
100
AcDbEntity
  8
DEFPOINTS
 62
     0
 48
50.0
100
AcDbPoint
 10
1941.451524840645
 20
6020.000000000001
 30
0.0
  0
ENDBLK
  5
15DFF
330
15DFD
100
AcDbEntity
  8
0
 48
50.0
100
AcDbBlockEnd
  0
BLOCK
  5
15E0A
330
15E09
100
AcDbEntity
  8
0
 48
50.0
100
AcDbBlockBegin
  2
*D11
 70
     1
 10
0.0
 20
0.0
 30
0.0
  3
*D11
  1

  0
LINE
  5
164C1
330
15E09
100
AcDbEntity
  8
寸法
 62
     0
 48
50.0
370
    -2
100
AcDbLine
 10
2282.32336155189
 20
6035.0
 30
0.0
 11
2282.32336155189
 21
6568.48933310542
 31
0.0
  0
LINE
  5
164C2
330
15E09
100
AcDbEntity
  8
寸法
 62
     0
 48
50.0
370
    -2
100
AcDbLine
 10
5482.32336155189
 20
6035.0
 30
0.0
 11
5482.32336155189
 21
6568.48933310542
 31
0.0
  0
LINE
  5
164C3
330
15E09
100
AcDbEntity
  8
寸法
 62
     0
 48
50.0
370
    -2
100
AcDbLine
 10
2282.32336155189
 20
6523.48933310542
 30
0.0
 11
5482.32336155189
 21
6523.48933310542
 31
0.0
  0
INSERT
  5
164C4
330
15E09
100
AcDbEntity
  8
寸法
 62
     0
 48
50.0
370
    -2
100
AcDbBlockReference
  2
_DOTSMALL
 10
2282.32336155189
 20
6523.48933310542
 30
0.0
 41
75.0
 42
75.0
 43
75.0
 50
180.0
  0
INSERT
  5
164C5
330
15E09
100
AcDbEntity
  8
寸法
 62
     0
 48
50.0
370
    -2
100
AcDbBlockReference
  2
_DOTSMALL
 10
5482.32336155189
 20
6523.48933310542
 30
0.0
 41
75.0
 42
75.0
 43
75.0
  0
MTEXT
  5
164C6
330
15E09
100
AcDbEntity
  8
寸法
 62
     7
 48
50.0
100
AcDbMText
 10
3882.32336155189
 20
6598.498191373136
 30
0.0
 40
90.0
 41
0.0
 71
     5
 72
     1
  1
\A1;基礎土間寸法 3200
  7
STYLE1
 73
     1
 44
1.0
1001
ACAD
1000
MTEXTBEGIN
1070
    73
1070
     1
1070
    44
1040
1.0
1070
    74
1070
     0
1000
MTEXTEND
  0
POINT
  5
164C7
330
15E09
100
AcDbEntity
  8
DEFPOINTS
 62
     0
 48
50.0
100
AcDbPoint
 10
2282.32336155189
 20
6020.0
 30
0.0
  0
POINT
  5
164C8
330
15E09
100
AcDbEntity
  8
DEFPOINTS
 62
     0
 48
50.0
100
AcDbPoint
 10
5482.32336155189
 20
6020.0
 30
0.0
  0
POINT
  5
164C9
330
15E09
100
AcDbEntity
  8
DEFPOINTS
 62
     0
 48
50.0
100
AcDbPoint
 10
5482.32336155189
 20
6523.48933310542
 30
0.0
  0
ENDBLK
  5
15E0B
330
15E09
100
AcDbEntity
  8
0
 48
50.0
100
AcDbBlockEnd
  0
BLOCK
  5
15E16
330
15E15
100
AcDbEntity
  8
0
 48
50.0
100
AcDbBlockBegin
  2
*D12
 70
     1
 10
0.0
 20
0.0
 30
0.0
  3
*D12
  1

  0
LINE
  5
164CA
330
15E15
100
AcDbEntity
  8
寸法
 62
     0
 48
50.0
370
    -2
100
AcDbLine
 10
5082.32336155189
 20
4285.0
 30
0.0
 11
5082.32336155189
 21
6374.452294131101
 31
0.0
  0
LINE
  5
164CB
330
15E15
100
AcDbEntity
  8
寸法
 62
     0
 48
50.0
370
    -2
100
AcDbLine
 10
5482.32336155189
 20
6035.0
 30
0.0
 11
5482.32336155189
 21
6374.452294131101
 31
0.0
  0
LINE
  5
164CC
330
15E15
100
AcDbEntity
  8
寸法
 62
     0
 48
50.0
370
    -2
100
AcDbLine
 10
5082.32336155189
 20
6329.452294131101
 30
0.0
 11
5482.32336155189
 21
6329.452294131101
 31
0.0
  0
INSERT
  5
164CD
330
15E15
100
AcDbEntity
  8
寸法
 62
     0
 48
50.0
370
    -2
100
AcDbBlockReference
  2
_DOTSMALL
 10
5082.32336155189
 20
6329.452294131101
 30
0.0
 41
75.0
 42
75.0
 43
75.0
 50
180.0
  0
INSERT
  5
164CE
330
15E15
100
AcDbEntity
  8
寸法
 62
     0
 48
50.0
370
    -2
100
AcDbBlockReference
  2
_DOTSMALL
 10
5482.32336155189
 20
6329.452294131101
 30
0.0
 41
75.0
 42
75.0
 43
75.0
  0
MTEXT
  5
164CF
330
15E15
100
AcDbEntity
  8
寸法
 62
     7
 48
50.0
100
AcDbMText
 10
5282.32336155189
 20
6404.4522941311
 30
0.0
 40
90.0
 41
0.0
 71
     5
 72
     1
  1
\A1;400
  7
STYLE1
 73
     1
 44
1.0
1001
ACAD
1000
MTEXTBEGIN
1070
    73
1070
     1
1070
    44
1040
1.0
1070
    74
1070
     0
1000
MTEXTEND
  0
POINT
  5
164D0
330
15E15
100
AcDbEntity
  8
DEFPOINTS
 62
     0
 48
50.0
100
AcDbPoint
 10
5082.32336155189
 20
4270.0
 30
0.0
  0
POINT
  5
164D1
330
15E15
100
AcDbEntity
  8
DEFPOINTS
 62
     0
 48
50.0
100
AcDbPoint
 10
5482.32336155189
 20
6020.0
 30
0.0
  0
POINT
  5
164D2
330
15E15
100
AcDbEntity
  8
DEFPOINTS
 62
     0
 48
50.0
100
AcDbPoint
 10
5482.32336155189
 20
6329.452294131101
 30
0.0
  0
ENDBLK
  5
15E17
330
15E15
100
AcDbEntity
  8
0
 48
50.0
100
AcDbBlockEnd
  0
BLOCK
  5
15E22
330
15E21
100
AcDbEntity
  8
0
 48
50.0
100
AcDbBlockBegin
  2
*D13
 70
     1
 10
0.0
 20
0.0
 30
0.0
  3
*D13
  1

  0
LINE
  5
164D3
330
15E21
100
AcDbEntity
  8
寸法
 62
     0
 48
50.0
370
    -2
100
AcDbLine
 10
2682.32336155189
 20
4285.0
 30
0.0
 11
2682.32336155189
 21
6374.452294131101
 31
0.0
  0
LINE
  5
164D4
330
15E21
100
AcDbEntity
  8
寸法
 62
     0
 48
50.0
370
    -2
100
AcDbLine
 10
5082.32336155189
 20
4285.0
 30
0.0
 11
5082.32336155189
 21
6374.452294131101
 31
0.0
  0
LINE
  5
164D5
330
15E21
100
AcDbEntity
  8
寸法
 62
     0
 48
50.0
370
    -2
100
AcDbLine
 10
2682.32336155189
 20
6329.452294131101
 30
0.0
 11
5082.32336155189
 21
6329.452294131101
 31
0.0
  0
INSERT
  5
164D6
330
15E21
100
AcDbEntity
  8
寸法
 62
     0
 48
50.0
370
    -2
100
AcDbBlockReference
  2
_DOTSMALL
 10
2682.32336155189
 20
6329.452294131101
 30
0.0
 41
75.0
 42
75.0
 43
75.0
 50
180.0
  0
INSERT
  5
164D7
330
15E21
100
AcDbEntity
  8
寸法
 62
     0
 48
50.0
370
    -2
100
AcDbBlockReference
  2
_DOTSMALL
 10
5082.32336155189
 20
6329.452294131101
 30
0.0
 41
75.0
 42
75.0
 43
75.0
  0
MTEXT
  5
164D8
330
15E21
100
AcDbEntity
  8
寸法
 62
     7
 48
50.0
100
AcDbMText
 10
3882.32336155189
 20
6404.461152398816
 30
0.0
 40
90.0
 41
0.0
 71
     5
 72
     1
  1
\A1;2400
  7
STYLE1
 73
     1
 44
1.0
1001
ACAD
1000
MTEXTBEGIN
1070
    73
1070
     1
1070
    44
1040
1.0
1070
    74
1070
     0
1000
MTEXTEND
  0
POINT
  5
164D9
330
15E21
100
AcDbEntity
  8
DEFPOINTS
 62
     0
 48
50.0
100
AcDbPoint
 10
2682.32336155189
 20
4270.0
 30
0.0
  0
POINT
  5
164DA
330
15E21
100
AcDbEntity
  8
DEFPOINTS
 62
     0
 48
50.0
100
AcDbPoint
 10
5082.32336155189
 20
4270.0
 30
0.0
  0
POINT
  5
164DB
330
15E21
100
AcDbEntity
  8
DEFPOINTS
 62
     0
 48
50.0
100
AcDbPoint
 10
5082.32336155189
 20
6329.452294131101
 30
0.0
  0
ENDBLK
  5
15E23
330
15E21
100
AcDbEntity
  8
0
 48
50.0
100
AcDbBlockEnd
  0
BLOCK
  5
15E2E
330
15E2D
100
AcDbEntity
  8
0
 48
50.0
100
AcDbBlockBegin
  2
*D14
 70
     1
 10
0.0
 20
0.0
 30
0.0
  3
*D14
  1

  0
LINE
  5
164DC
330
15E2D
100
AcDbEntity
  8
寸法
 62
     0
 48
50.0
370
    -2
100
AcDbLine
 10
2282.32336155189
 20
6035.0
 30
0.0
 11
2282.32336155189
 21
6374.452294131101
 31
0.0
  0
LINE
  5
164DD
330
15E2D
100
AcDbEntity
  8
寸法
 62
     0
 48
50.0
370
    -2
100
AcDbLine
 10
2682.32336155189
 20
4285.0
 30
0.0
 11
2682.32336155189
 21
6374.452294131101
 31
0.0
  0
LINE
  5
164DE
330
15E2D
100
AcDbEntity
  8
寸法
 62
     0
 48
50.0
370
    -2
100
AcDbLine
 10
2282.32336155189
 20
6329.452294131101
 30
0.0
 11
2682.32336155189
 21
6329.452294131101
 31
0.0
  0
INSERT
  5
164DF
330
15E2D
100
AcDbEntity
  8
寸法
 62
     0
 48
50.0
370
    -2
100
AcDbBlockReference
  2
_DOTSMALL
 10
2282.32336155189
 20
6329.452294131101
 30
0.0
 41
75.0
 42
75.0
 43
75.0
 50
180.0
  0
INSERT
  5
164E0
330
15E2D
100
AcDbEntity
  8
寸法
 62
     0
 48
50.0
370
    -2
100
AcDbBlockReference
  2
_DOTSMALL
 10
2682.32336155189
 20
6329.452294131101
 30
0.0
 41
75.0
 42
75.0
 43
75.0
  0
MTEXT
  5
164E1
330
15E2D
100
AcDbEntity
  8
寸法
 62
     7
 48
50.0
100
AcDbMText
 10
2482.32336155189
 20
6404.4522941311
 30
0.0
 40
90.0
 41
0.0
 71
     5
 72
     1
  1
\A1;400
  7
STYLE1
 73
     1
 44
1.0
1001
ACAD
1000
MTEXTBEGIN
1070
    73
1070
     1
1070
    44
1040
1.0
1070
    74
1070
     0
1000
MTEXTEND
  0
POINT
  5
164E2
330
15E2D
100
AcDbEntity
  8
DEFPOINTS
 62
     0
 48
50.0
100
AcDbPoint
 10
2282.32336155189
 20
6020.0
 30
0.0
  0
POINT
  5
164E3
330
15E2D
100
AcDbEntity
  8
DEFPOINTS
 62
     0
 48
50.0
100
AcDbPoint
 10
2682.32336155189
 20
4270.0
 30
0.0
  0
POINT
  5
164E4
330
15E2D
100
AcDbEntity
  8
DEFPOINTS
 62
     0
 48
50.0
100
AcDbPoint
 10
2682.32336155189
 20
6329.452294131101
 30
0.0
  0
ENDBLK
  5
15E2F
330
15E2D
100
AcDbEntity
  8
0
 48
50.0
100
AcDbBlockEnd
  0
BLOCK
  5
15E3A
330
15E39
100
AcDbEntity
  8
0
 48
50.0
100
AcDbBlockBegin
  2
*D15
 70
     1
 10
0.0
 20
0.0
 30
0.0
  3
*D15
  1

  0
LINE
  5
164E5
330
15E39
100
AcDbEntity
  8
寸法
 62
     0
 48
50.0
370
    -2
100
AcDbLine
 10
5082.32336155189
 20
3405.0
 30
0.0
 11
5082.32336155189
 21
2861.863783962908
 31
0.0
  0
LINE
  5
164E6
330
15E39
100
AcDbEntity
  8
寸法
 62
     0
 48
50.0
370
    -2
100
AcDbLine
 10
4682.323361551889
 20
3130.0
 30
0.0
 11
4682.323361551889
 21
2861.863783962908
 31
0.0
  0
LINE
  5
164E7
330
15E39
100
AcDbEntity
  8
寸法
 62
     0
 48
50.0
370
    -2
100
AcDbLine
 10
5082.32336155189
 20
2906.863783962908
 30
0.0
 11
4682.323361551889
 21
2906.863783962908
 31
0.0
  0
INSERT
  5
164E8
330
15E39
100
AcDbEntity
  8
寸法
 62
     0
 48
50.0
370
    -2
100
AcDbBlockReference
  2
_DOTSMALL
 10
5082.32336155189
 20
2906.863783962908
 30
0.0
 41
75.0
 42
75.0
 43
75.0
  0
INSERT
  5
164E9
330
15E39
100
AcDbEntity
  8
寸法
 62
     0
 48
50.0
370
    -2
100
AcDbBlockReference
  2
_DOTSMALL
 10
4682.323361551889
 20
2906.863783962908
 30
0.0
 41
75.0
 42
75.0
 43
75.0
 50
180.0
  0
MTEXT
  5
164EA
330
15E39
100
AcDbEntity
  8
寸法
 62
     7
 48
50.0
100
AcDbMText
 10
4882.32336155189
 20
2981.863783962909
 30
0.0
 40
90.0
 41
0.0
 71
     5
 72
     1
  1
\A1;400
  7
STYLE1
 73
     1
 44
1.0
1001
ACAD
1000
MTEXTBEGIN
1070
    73
1070
     1
1070
    44
1040
1.0
1070
    74
1070
     0
1000
MTEXTEND
  0
POINT
  5
164EB
330
15E39
100
AcDbEntity
  8
DEFPOINTS
 62
     0
 48
50.0
100
AcDbPoint
 10
5082.32336155189
 20
3420.0
 30
0.0
  0
POINT
  5
164EC
330
15E39
100
AcDbEntity
  8
DEFPOINTS
 62
     0
 48
50.0
100
AcDbPoint
 10
4682.323361551889
 20
3145.0
 30
0.0
  0
POINT
  5
164ED
330
15E39
100
AcDbEntity
  8
DEFPOINTS
 62
     0
 48
50.0
100
AcDbPoint
 10
4682.323361551889
 20
2906.863783962908
 30
0.0
  0
ENDBLK
  5
15E3B
330
15E39
100
AcDbEntity
  8
0
 48
50.0
100
AcDbBlockEnd
  0
BLOCK
  5
15E46
330
15E45
100
AcDbEntity
  8
0
 48
50.0
100
AcDbBlockBegin
  2
*D16
 70
     1
 10
0.0
 20
0.0
 30
0.0
  3
*D16
  1

  0
LINE
  5
164EE
330
15E45
100
AcDbEntity
  8
寸法
 62
     0
 48
50.0
370
    -2
100
AcDbLine
 10
4682.323361551889
 20
3130.0
 30
0.0
 11
4682.323361551889
 21
2623.727567925846
 31
0.0
  0
LINE
  5
164EF
330
15E45
100
AcDbEntity
  8
寸法
 62
     0
 48
50.0
370
    -2
100
AcDbLine
 10
5482.32336155189
 20
3130.0
 30
0.0
 11
5482.32336155189
 21
2623.727567925846
 31
0.0
  0
LINE
  5
164F0
330
15E45
100
AcDbEntity
  8
寸法
 62
     0
 48
50.0
370
    -2
100
AcDbLine
 10
4682.323361551889
 20
2668.727567925845
 30
0.0
 11
5482.32336155189
 21
2668.727567925845
 31
0.0
  0
INSERT
  5
164F1
330
15E45
100
AcDbEntity
  8
寸法
 62
     0
 48
50.0
370
    -2
100
AcDbBlockReference
  2
_DOTSMALL
 10
4682.323361551889
 20
2668.727567925845
 30
0.0
 41
75.0
 42
75.0
 43
75.0
 50
180.0
  0
INSERT
  5
164F2
330
15E45
100
AcDbEntity
  8
寸法
 62
     0
 48
50.0
370
    -2
100
AcDbBlockReference
  2
_DOTSMALL
 10
5482.32336155189
 20
2668.727567925845
 30
0.0
 41
75.0
 42
75.0
 43
75.0
  0
MTEXT
  5
164F3
330
15E45
100
AcDbEntity
  8
寸法
 62
     7
 48
50.0
100
AcDbMText
 10
5082.32336155189
 20
2743.727567925846
 30
0.0
 40
90.0
 41
0.0
 71
     5
 72
     1
  1
\A1;800
  7
STYLE1
 73
     1
 44
1.0
1001
ACAD
1000
MTEXTBEGIN
1070
    73
1070
     1
1070
    44
1040
1.0
1070
    74
1070
     0
1000
MTEXTEND
  0
POINT
  5
164F4
330
15E45
100
AcDbEntity
  8
DEFPOINTS
 62
     0
 48
50.0
100
AcDbPoint
 10
4682.323361551889
 20
3145.0
 30
0.0
  0
POINT
  5
164F5
330
15E45
100
AcDbEntity
  8
DEFPOINTS
 62
     0
 48
50.0
100
AcDbPoint
 10
5482.32336155189
 20
3145.0
 30
0.0
  0
POINT
  5
164F6
330
15E45
100
AcDbEntity
  8
DEFPOINTS
 62
     0
 48
50.0
100
AcDbPoint
 10
5482.32336155189
 20
2668.727567925845
 30
0.0
  0
ENDBLK
  5
15E47
330
15E45
100
AcDbEntity
  8
0
 48
50.0
100
AcDbBlockEnd
  0
BLOCK
  5
15E52
330
15E51
100
AcDbEntity
  8
0
 48
50.0
100
AcDbBlockBegin
  2
*D17
 70
     1
 10
0.0
 20
0.0
 30
0.0
  3
*D17
  1

  0
LINE
  5
164F7
330
15E51
100
AcDbEntity
  8
寸法
 62
     0
 48
50.0
370
    -2
100
AcDbLine
 10
4817.32336155189
 20
3670.0
 30
0.0
 11
4460.008858267719
 21
3670.0
 31
0.0
  0
LINE
  5
164F8
330
15E51
100
AcDbEntity
  8
寸法
 62
     0
 48
50.0
370
    -2
100
AcDbLine
 10
4667.32336155189
 20
3144.999999999985
 30
0.0
 11
4460.008858267719
 21
3144.999999999985
 31
0.0
  0
LINE
  5
164F9
330
15E51
100
AcDbEntity
  8
寸法
 62
     0
 48
50.0
370
    -2
100
AcDbLine
 10
4505.008858267719
 20
3670.0
 30
0.0
 11
4505.008858267719
 21
3144.999999999985
 31
0.0
  0
INSERT
  5
164FA
330
15E51
100
AcDbEntity
  8
寸法
 62
     0
 48
50.0
370
    -2
100
AcDbBlockReference
  2
_DOTSMALL
 10
4505.008858267719
 20
3670.0
 30
0.0
 41
75.0
 42
75.0
 43
75.0
 50
90.0
  0
INSERT
  5
164FB
330
15E51
100
AcDbEntity
  8
寸法
 62
     0
 48
50.0
370
    -2
100
AcDbBlockReference
  2
_DOTSMALL
 10
4505.008858267719
 20
3144.999999999985
 30
0.0
 41
75.0
 42
75.0
 43
75.0
 50
270.0
  0
MTEXT
  5
164FC
330
15E51
100
AcDbEntity
  8
寸法
 62
     7
 48
50.0
100
AcDbMText
 10
4430.000000000002
 20
3407.499999999993
 30
0.0
 40
90.0
 41
0.0
 71
     5
 72
     1
  1
\A1;525
  7
STYLE1
 11
0.0000000000000001
 21
1.0
 31
0.0
 73
     1
 44
1.0
1001
ACAD
1000
MTEXTBEGIN
1070
    73
1070
     1
1070
    44
1040
1.0
1070
    74
1070
     0
1000
MTEXTEND
  0
POINT
  5
164FD
330
15E51
100
AcDbEntity
  8
DEFPOINTS
 62
     0
 48
50.0
100
AcDbPoint
 10
4832.32336155189
 20
3670.0
 30
0.0
  0
POINT
  5
164FE
330
15E51
100
AcDbEntity
  8
DEFPOINTS
 62
     0
 48
50.0
100
AcDbPoint
 10
4682.323361551889
 20
3144.999999999985
 30
0.0
  0
POINT
  5
164FF
330
15E51
100
AcDbEntity
  8
DEFPOINTS
 62
     0
 48
50.0
100
AcDbPoint
 10
4505.008858267719
 20
3144.999999999985
 30
0.0
  0
ENDBLK
  5
15E53
330
15E51
100
AcDbEntity
  8
0
 48
50.0
100
AcDbBlockEnd
  0
BLOCK
  5
15E5E
330
15E5D
100
AcDbEntity
  8
0
 48
50.0
100
AcDbBlockBegin
  2
*D18
 70
     1
 10
0.0
 20
0.0
 30
0.0
  3
*D18
  1

  0
LINE
  5
16500
330
15E5D
100
AcDbEntity
  8
寸法
 62
     0
 48
50.0
370
    -2
100
AcDbLine
 10
4667.32336155189
 20
4545.0
 30
0.0
 11
4282.694354983547
 21
4545.0
 31
0.0
  0
LINE
  5
16501
330
15E5D
100
AcDbEntity
  8
寸法
 62
     0
 48
50.0
370
    -2
100
AcDbLine
 10
4667.32336155189
 20
3144.999999999985
 30
0.0
 11
4282.694354983547
 21
3144.999999999985
 31
0.0
  0
LINE
  5
16502
330
15E5D
100
AcDbEntity
  8
寸法
 62
     0
 48
50.0
370
    -2
100
AcDbLine
 10
4327.694354983548
 20
4545.0
 30
0.0
 11
4327.694354983548
 21
3144.999999999985
 31
0.0
  0
INSERT
  5
16503
330
15E5D
100
AcDbEntity
  8
寸法
 62
     0
 48
50.0
370
    -2
100
AcDbBlockReference
  2
_DOTSMALL
 10
4327.694354983548
 20
4545.0
 30
0.0
 41
75.0
 42
75.0
 43
75.0
 50
90.0
  0
INSERT
  5
16504
330
15E5D
100
AcDbEntity
  8
寸法
 62
     0
 48
50.0
370
    -2
100
AcDbBlockReference
  2
_DOTSMALL
 10
4327.694354983548
 20
3144.999999999985
 30
0.0
 41
75.0
 42
75.0
 43
75.0
 50
270.0
  0
MTEXT
  5
16505
330
15E5D
100
AcDbEntity
  8
寸法
 62
     7
 48
50.0
100
AcDbMText
 10
4252.694354983547
 20
3844.999999999993
 30
0.0
 40
90.0
 41
0.0
 71
     5
 72
     1
  1
\A1;1400
  7
STYLE1
 11
0.0000000000000001
 21
1.0
 31
0.0
 73
     1
 44
1.0
1001
ACAD
1000
MTEXTBEGIN
1070
    73
1070
     1
1070
    44
1040
1.0
1070
    74
1070
     0
1000
MTEXTEND
  0
POINT
  5
16506
330
15E5D
100
AcDbEntity
  8
DEFPOINTS
 62
     0
 48
50.0
100
AcDbPoint
 10
4682.323361551889
 20
4545.0
 30
0.0
  0
POINT
  5
16507
330
15E5D
100
AcDbEntity
  8
DEFPOINTS
 62
     0
 48
50.0
100
AcDbPoint
 10
4682.323361551889
 20
3144.999999999985
 30
0.0
  0
POINT
  5
16508
330
15E5D
100
AcDbEntity
  8
DEFPOINTS
 62
     0
 48
50.0
100
AcDbPoint
 10
4327.694354983548
 20
3144.999999999985
 30
0.0
  0
ENDBLK
  5
15E5F
330
15E5D
100
AcDbEntity
  8
0
 48
50.0
100
AcDbBlockEnd
  0
BLOCK
  5
15E6A
330
15E69
100
AcDbEntity
  8
0
 48
50.0
100
AcDbBlockBegin
  2
*D19
 70
     1
 10
0.0
 20
0.0
 30
0.0
  3
*D19
  1

  0
LINE
  5
16509
330
15E69
100
AcDbEntity
  8
寸法
 62
     0
 48
50.0
370
    -2
100
AcDbLine
 10
4817.32336155189
 20
4020.0
 30
0.0
 11
4460.008858267719
 21
4020.0
 31
0.0
  0
LINE
  5
1650A
330
15E69
100
AcDbEntity
  8
寸法
 62
     0
 48
50.0
370
    -2
100
AcDbLine
 10
4817.32336155189
 20
3670.0
 30
0.0
 11
4460.008858267719
 21
3670.0
 31
0.0
  0
LINE
  5
1650B
330
15E69
100
AcDbEntity
  8
寸法
 62
     0
 48
50.0
370
    -2
100
AcDbLine
 10
4505.008858267719
 20
4020.0
 30
0.0
 11
4505.008858267719
 21
3670.0
 31
0.0
  0
INSERT
  5
1650C
330
15E69
100
AcDbEntity
  8
寸法
 62
     0
 48
50.0
370
    -2
100
AcDbBlockReference
  2
_DOTSMALL
 10
4505.008858267719
 20
4020.0
 30
0.0
 41
75.0
 42
75.0
 43
75.0
 50
90.0
  0
INSERT
  5
1650D
330
15E69
100
AcDbEntity
  8
寸法
 62
     0
 48
50.0
370
    -2
100
AcDbBlockReference
  2
_DOTSMALL
 10
4505.008858267719
 20
3670.0
 30
0.0
 41
75.0
 42
75.0
 43
75.0
 50
270.0
  0
MTEXT
  5
1650E
330
15E69
100
AcDbEntity
  8
寸法
 62
     7
 48
50.0
100
AcDbMText
 10
4430.008858267718
 20
3845.0
 30
0.0
 40
90.0
 41
0.0
 71
     5
 72
     1
  1
\A1;350
  7
STYLE1
 11
0.0000000000000001
 21
1.0
 31
0.0
 73
     1
 44
1.0
1001
ACAD
1000
MTEXTBEGIN
1070
    73
1070
     1
1070
    44
1040
1.0
1070
    74
1070
     0
1000
MTEXTEND
  0
POINT
  5
1650F
330
15E69
100
AcDbEntity
  8
DEFPOINTS
 62
     0
 48
50.0
100
AcDbPoint
 10
4832.32336155189
 20
4020.0
 30
0.0
  0
POINT
  5
16510
330
15E69
100
AcDbEntity
  8
DEFPOINTS
 62
     0
 48
50.0
100
AcDbPoint
 10
4832.32336155189
 20
3670.0
 30
0.0
  0
POINT
  5
16511
330
15E69
100
AcDbEntity
  8
DEFPOINTS
 62
     0
 48
50.0
100
AcDbPoint
 10
4505.008858267719
 20
3670.0
 30
0.0
  0
ENDBLK
  5
15E6B
330
15E69
100
AcDbEntity
  8
0
 48
50.0
100
AcDbBlockEnd
  0
BLOCK
  5
15E76
330
15E75
100
AcDbEntity
  8
0
 48
50.0
100
AcDbBlockBegin
  2
*D20
 70
     1
 10
0.0
 20
0.0
 30
0.0
  3
*D20
  1

  0
LINE
  5
16512
330
15E75
100
AcDbEntity
  8
寸法
 62
     0
 48
50.0
370
    -2
100
AcDbLine
 10
4817.32336155189
 20
4020.0
 30
0.0
 11
4460.008858267719
 21
4020.0
 31
0.0
  0
LINE
  5
16513
330
15E75
100
AcDbEntity
  8
寸法
 62
     0
 48
50.0
370
    -2
100
AcDbLine
 10
4667.32336155189
 20
4545.000000000015
 30
0.0
 11
4460.008858267719
 21
4545.000000000015
 31
0.0
  0
LINE
  5
16514
330
15E75
100
AcDbEntity
  8
寸法
 62
     0
 48
50.0
370
    -2
100
AcDbLine
 10
4505.008858267719
 20
4020.0
 30
0.0
 11
4505.008858267719
 21
4545.000000000015
 31
0.0
  0
INSERT
  5
16515
330
15E75
100
AcDbEntity
  8
寸法
 62
     0
 48
50.0
370
    -2
100
AcDbBlockReference
  2
_DOTSMALL
 10
4505.008858267719
 20
4020.0
 30
0.0
 41
75.0
 42
75.0
 43
75.0
 50
270.0
  0
INSERT
  5
16516
330
15E75
100
AcDbEntity
  8
寸法
 62
     0
 48
50.0
370
    -2
100
AcDbBlockReference
  2
_DOTSMALL
 10
4505.008858267719
 20
4545.000000000015
 30
0.0
 41
75.0
 42
75.0
 43
75.0
 50
90.0
  0
MTEXT
  5
16517
330
15E75
100
AcDbEntity
  8
寸法
 62
     7
 48
50.0
100
AcDbMText
 10
4430.000000000002
 20
4282.500000000008
 30
0.0
 40
90.0
 41
0.0
 71
     5
 72
     1
  1
\A1;525
  7
STYLE1
 11
0.0000000000000001
 21
1.0
 31
0.0
 73
     1
 44
1.0
1001
ACAD
1000
MTEXTBEGIN
1070
    73
1070
     1
1070
    44
1040
1.0
1070
    74
1070
     0
1000
MTEXTEND
  0
POINT
  5
16518
330
15E75
100
AcDbEntity
  8
DEFPOINTS
 62
     0
 48
50.0
100
AcDbPoint
 10
4832.32336155189
 20
4020.0
 30
0.0
  0
POINT
  5
16519
330
15E75
100
AcDbEntity
  8
DEFPOINTS
 62
     0
 48
50.0
100
AcDbPoint
 10
4682.323361551889
 20
4545.000000000015
 30
0.0
  0
POINT
  5
1651A
330
15E75
100
AcDbEntity
  8
DEFPOINTS
 62
     0
 48
50.0
100
AcDbPoint
 10
4505.008858267719
 20
4545.000000000015
 30
0.0
  0
ENDBLK
  5
15E77
330
15E75
100
AcDbEntity
  8
0
 48
50.0
100
AcDbBlockEnd
  0
BLOCK
  5
16074
330
16073
100
AcDbEntity
  8
0
 48
50.0
100
AcDbBlockBegin
  2
*D21
 70
     1
 10
0.0
 20
0.0
 30
0.0
  3
*D21
  1

  0
LINE
  5
16553
330
16073
100
AcDbEntity
  8
寸法
 62
     0
 48
50.0
370
    -2
100
AcDbLine
 10
10367.74424471788
 20
4092.500000000012
 30
0.0
 11
10625.3877317551
 21
4092.500000000012
 31
0.0
  0
LINE
  5
16554
330
16073
100
AcDbEntity
  8
寸法
 62
     0
 48
50.0
370
    -2
100
AcDbLine
 10
9882.946367154371
 20
3492.500000000013
 30
0.0
 11
10625.3877317551
 21
3492.500000000013
 31
0.0
  0
LINE
  5
16555
330
16073
100
AcDbEntity
  8
寸法
 62
     0
 48
50.0
370
    -2
100
AcDbLine
 10
10580.3877317551
 20
4092.500000000012
 30
0.0
 11
10580.3877317551
 21
3492.500000000013
 31
0.0
  0
INSERT
  5
16556
330
16073
100
AcDbEntity
  8
寸法
 62
     0
 48
50.0
370
    -2
100
AcDbBlockReference
  2
_DOTSMALL
 10
10580.3877317551
 20
4092.500000000012
 30
0.0
 41
75.0
 42
75.0
 43
75.0
 50
90.0
  0
INSERT
  5
16557
330
16073
100
AcDbEntity
  8
寸法
 62
     0
 48
50.0
370
    -2
100
AcDbBlockReference
  2
_DOTSMALL
 10
10580.3877317551
 20
3492.500000000013
 30
0.0
 41
75.0
 42
75.0
 43
75.0
 50
270.0
  0
MTEXT
  5
16558
330
16073
100
AcDbEntity
  8
寸法
 62
     7
 48
50.0
100
AcDbMText
 10
10505.3877317551
 20
3792.500000000015
 30
0.0
 40
90.0
 41
0.0
 71
     5
 72
     1
  1
\A1;600
  7
STYLE1
 11
0.0000000000000001
 21
1.0
 31
0.0
 73
     1
 44
1.0
1001
ACAD
1000
MTEXTBEGIN
1070
    73
1070
     1
1070
    44
1040
1.0
1070
    74
1070
     0
1000
MTEXTEND
  0
POINT
  5
16559
330
16073
100
AcDbEntity
  8
DEFPOINTS
 62
     0
 48
50.0
100
AcDbPoint
 10
10352.74424471788
 20
4092.500000000012
 30
0.0
  0
POINT
  5
1655A
330
16073
100
AcDbEntity
  8
DEFPOINTS
 62
     0
 48
50.0
100
AcDbPoint
 10
9867.946367154372
 20
3492.500000000013
 30
0.0
  0
POINT
  5
1655B
330
16073
100
AcDbEntity
  8
DEFPOINTS
 62
     0
 48
50.0
100
AcDbPoint
 10
10580.3877317551
 20
3492.500000000013
 30
0.0
  0
ENDBLK
  5
16075
330
16073
100
AcDbEntity
  8
0
 48
50.0
100
AcDbBlockEnd
  0
BLOCK
  5
16080
330
1607F
100
AcDbEntity
  8
0
 48
50.0
100
AcDbBlockBegin
  2
*D22
 70
     1
 10
0.0
 20
0.0
 30
0.0
  3
*D22
  1

  0
LINE
  5
1655C
330
1607F
100
AcDbEntity
  8
寸法
 62
     0
 48
50.0
370
    -2
100
AcDbLine
 10
10302.94636715437
 20
4092.500000000012
 30
0.0
 11
10625.3877317551
 21
4092.500000000012
 31
0.0
  0
LINE
  5
1655D
330
1607F
100
AcDbEntity
  8
寸法
 62
     0
 48
50.0
370
    -2
100
AcDbLine
 10
10302.94636715443
 20
4142.500000000012
 30
0.0
 11
10625.3877317551
 21
4142.500000000012
 31
0.0
  0
LINE
  5
1655E
330
1607F
100
AcDbEntity
  8
寸法
 62
     0
 48
50.0
370
    -2
100
AcDbLine
 10
10580.3877317551
 20
4092.500000000012
 30
0.0
 11
10580.3877317551
 21
4017.500000000012
 31
0.0
  0
LINE
  5
1655F
330
1607F
100
AcDbEntity
  8
寸法
 62
     0
 48
50.0
370
    -2
100
AcDbLine
 10
10580.3877317551
 20
4142.500000000012
 30
0.0
 11
10580.3877317551
 21
4451.570866141786
 31
0.0
  0
LINE
  5
16560
330
1607F
100
AcDbEntity
  8
寸法
 62
     0
 48
50.0
370
    -2
100
AcDbLine
 10
10580.3877317551
 20
4092.500000000012
 30
0.0
 11
10580.3877317551
 21
4142.500000000012
 31
0.0
  0
INSERT
  5
16561
330
1607F
100
AcDbEntity
  8
寸法
 62
     0
 48
50.0
370
    -2
100
AcDbBlockReference
  2
_DOTSMALL
 10
10580.3877317551
 20
4092.500000000012
 30
0.0
 41
75.0
 42
75.0
 43
75.0
 50
90.0
  0
INSERT
  5
16562
330
1607F
100
AcDbEntity
  8
寸法
 62
     0
 48
50.0
370
    -2
100
AcDbBlockReference
  2
_DOTSMALL
 10
10580.3877317551
 20
4142.500000000012
 30
0.0
 41
75.0
 42
75.0
 43
75.0
 50
270.0
  0
MTEXT
  5
16563
330
1607F
100
AcDbEntity
  8
寸法
 62
     7
 48
50.0
100
AcDbMText
 10
10505.3877317551
 20
4372.035433070921
 30
0.0
 40
90.0
 41
0.0
 71
     5
 72
     1
  1
\A1;50
  7
STYLE1
 11
0.0000000000000001
 21
1.0
 31
0.0
 73
     1
 44
1.0
1001
ACAD
1000
MTEXTBEGIN
1070
    73
1070
     1
1070
    44
1040
1.0
1070
    74
1070
     0
1000
MTEXTEND
  0
POINT
  5
16564
330
1607F
100
AcDbEntity
  8
DEFPOINTS
 62
     0
 48
50.0
100
AcDbPoint
 10
10287.94636715437
 20
4092.500000000012
 30
0.0
  0
POINT
  5
16565
330
1607F
100
AcDbEntity
  8
DEFPOINTS
 62
     0
 48
50.0
100
AcDbPoint
 10
10287.94636715443
 20
4142.500000000012
 30
0.0
  0
POINT
  5
16566
330
1607F
100
AcDbEntity
  8
DEFPOINTS
 62
     0
 48
50.0
100
AcDbPoint
 10
10580.3877317551
 20
4142.500000000012
 30
0.0
  0
ENDBLK
  5
16081
330
1607F
100
AcDbEntity
  8
0
 48
50.0
100
AcDbBlockEnd
  0
BLOCK
  5
1608E
330
1608D
100
AcDbEntity
  8
0
 48
50.0
100
AcDbBlockBegin
  2
*D23
 70
     1
 10
0.0
 20
0.0
 30
0.0
  3
*D23
  1

  0
LINE
  5
16567
330
1608D
100
AcDbEntity
  8
寸法
 62
     0
 48
50.0
370
    -2
100
AcDbLine
 10
9882.946367154371
 20
3492.500000000013
 30
0.0
 11
10625.3877317551
 21
3492.500000000013
 31
0.0
  0
LINE
  5
16568
330
1608D
100
AcDbEntity
  8
寸法
 62
     0
 48
50.0
370
    -2
100
AcDbLine
 10
9882.946367154371
 20
3442.500000000013
 30
0.0
 11
10625.3877317551
 21
3442.500000000013
 31
0.0
  0
LINE
  5
16569
330
1608D
100
AcDbEntity
  8
寸法
 62
     0
 48
50.0
370
    -2
100
AcDbLine
 10
10580.3877317551
 20
3492.500000000013
 30
0.0
 11
10580.3877317551
 21
3567.500000000013
 31
0.0
  0
LINE
  5
1656A
330
1608D
100
AcDbEntity
  8
寸法
 62
     0
 48
50.0
370
    -2
100
AcDbLine
 10
10580.3877317551
 20
3442.500000000013
 30
0.0
 11
10580.3877317551
 21
3133.42913385828
 31
0.0
  0
LINE
  5
1656B
330
1608D
100
AcDbEntity
  8
寸法
 62
     0
 48
50.0
370
    -2
100
AcDbLine
 10
10580.3877317551
 20
3492.500000000013
 30
0.0
 11
10580.3877317551
 21
3442.500000000013
 31
0.0
  0
INSERT
  5
1656C
330
1608D
100
AcDbEntity
  8
寸法
 62
     0
 48
50.0
370
    -2
100
AcDbBlockReference
  2
_DOTSMALL
 10
10580.3877317551
 20
3492.500000000013
 30
0.0
 41
75.0
 42
75.0
 43
75.0
 50
270.0
  0
INSERT
  5
1656D
330
1608D
100
AcDbEntity
  8
寸法
 62
     0
 48
50.0
370
    -2
100
AcDbBlockReference
  2
_DOTSMALL
 10
10580.3877317551
 20
3442.500000000013
 30
0.0
 41
75.0
 42
75.0
 43
75.0
 50
90.0
  0
MTEXT
  5
1656E
330
1608D
100
AcDbEntity
  8
寸法
 62
     7
 48
50.0
100
AcDbMText
 10
10505.3877317551
 20
3212.964566929148
 30
0.0
 40
90.0
 41
0.0
 71
     5
 72
     1
  1
\A1;50
  7
STYLE1
 11
0.0000000000000001
 21
1.0
 31
0.0
 73
     1
 44
1.0
1001
ACAD
1000
MTEXTBEGIN
1070
    73
1070
     1
1070
    44
1040
1.0
1070
    74
1070
     0
1000
MTEXTEND
  0
POINT
  5
1656F
330
1608D
100
AcDbEntity
  8
DEFPOINTS
 62
     0
 48
50.0
100
AcDbPoint
 10
9867.946367154372
 20
3492.500000000013
 30
0.0
  0
POINT
  5
16570
330
1608D
100
AcDbEntity
  8
DEFPOINTS
 62
     0
 48
50.0
100
AcDbPoint
 10
9867.946367154372
 20
3442.500000000013
 30
0.0
  0
POINT
  5
16571
330
1608D
100
AcDbEntity
  8
DEFPOINTS
 62
     0
 48
50.0
100
AcDbPoint
 10
10580.3877317551
 20
3442.500000000013
 30
0.0
  0
ENDBLK
  5
1608F
330
1608D
100
AcDbEntity
  8
0
 48
50.0
100
AcDbBlockEnd
  0
BLOCK
  5
1609C
330
1609B
100
AcDbEntity
  8
0
 48
50.0
100
AcDbBlockBegin
  2
*D24
 70
     1
 10
0.0
 20
0.0
 30
0.0
  3
*D24
  1

  0
LINE
  5
1651B
330
1609B
100
AcDbEntity
  8
寸法
 62
     0
 48
50.0
370
    -2
100
AcDbLine
 10
7872.946367154312
 20
4042.500000000012
 30
0.0
 11
7692.365240052409
 21
4042.500000000012
 31
0.0
  0
LINE
  5
1651C
330
1609B
100
AcDbEntity
  8
寸法
 62
     0
 48
50.0
370
    -2
100
AcDbLine
 10
7872.946367154312
 20
4142.500000000012
 30
0.0
 11
7692.365240052409
 21
4142.500000000012
 31
0.0
  0
LINE
  5
1651D
330
1609B
100
AcDbEntity
  8
寸法
 62
     0
 48
50.0
370
    -2
100
AcDbLine
 10
7737.365240052409
 20
4042.500000000012
 30
0.0
 11
7737.365240052409
 21
4142.500000000012
 31
0.0
  0
LINE
  5
1651E
330
1609B
100
AcDbEntity
  8
寸法
 62
     0
 48
50.0
370
    -2
100
AcDbLine
 10
7737.365240052409
 20
4142.500000000012
 30
0.0
 11
7737.365240052409
 21
4421.570866141786
 31
0.0
  0
INSERT
  5
1651F
330
1609B
100
AcDbEntity
  8
寸法
 62
     0
 48
50.0
370
    -2
100
AcDbBlockReference
  2
_DOTSMALL
 10
7737.365240052409
 20
4042.500000000012
 30
0.0
 41
75.0
 42
75.0
 43
75.0
 50
270.0
  0
INSERT
  5
16520
330
1609B
100
AcDbEntity
  8
寸法
 62
     0
 48
50.0
370
    -2
100
AcDbBlockReference
  2
_DOTSMALL
 10
7737.365240052409
 20
4142.500000000012
 30
0.0
 41
75.0
 42
75.0
 43
75.0
 50
90.0
  0
MTEXT
  5
16521
330
1609B
100
AcDbEntity
  8
寸法
 62
     7
 48
50.0
100
AcDbMText
 10
7662.365240052408
 20
4319.535433070921
 30
0.0
 40
90.0
 41
0.0
 71
     5
 72
     1
  1
\A1;100
  7
STYLE1
 11
0.0000000000000001
 21
1.0
 31
0.0
 73
     1
 44
1.0
1001
ACAD
1000
MTEXTBEGIN
1070
    73
1070
     1
1070
    44
1040
1.0
1070
    74
1070
     0
1000
MTEXTEND
  0
POINT
  5
16522
330
1609B
100
AcDbEntity
  8
DEFPOINTS
 62
     0
 48
50.0
100
AcDbPoint
 10
7887.946367154312
 20
4042.500000000012
 30
0.0
  0
POINT
  5
16523
330
1609B
100
AcDbEntity
  8
DEFPOINTS
 62
     0
 48
50.0
100
AcDbPoint
 10
7887.946367154312
 20
4142.500000000012
 30
0.0
  0
POINT
  5
16524
330
1609B
100
AcDbEntity
  8
DEFPOINTS
 62
     0
 48
50.0
100
AcDbPoint
 10
7737.365240052409
 20
4142.500000000012
 30
0.0
  0
ENDBLK
  5
1609D
330
1609B
100
AcDbEntity
  8
0
 48
50.0
100
AcDbBlockEnd
  0
BLOCK
  5
160A9
330
160A8
100
AcDbEntity
  8
0
 48
50.0
100
AcDbBlockBegin
  2
*D25
 70
     1
 10
0.0
 20
0.0
 30
0.0
  3
*D25
  1

  0
LINE
  5
16525
330
160A8
100
AcDbEntity
  8
寸法
 62
     0
 48
50.0
370
    -2
100
AcDbLine
 10
7872.946367154312
 20
4042.500000000012
 30
0.0
 11
7692.365240052409
 21
4042.500000000012
 31
0.0
  0
LINE
  5
16526
330
160A8
100
AcDbEntity
  8
寸法
 62
     0
 48
50.0
370
    -2
100
AcDbLine
 10
7872.946367154312
 20
3942.500000000013
 30
0.0
 11
7692.365240052409
 21
3942.500000000013
 31
0.0
  0
LINE
  5
16527
330
160A8
100
AcDbEntity
  8
寸法
 62
     0
 48
50.0
370
    -2
100
AcDbLine
 10
7737.365240052409
 20
4042.500000000012
 30
0.0
 11
7737.365240052409
 21
3942.500000000013
 31
0.0
  0
LINE
  5
16528
330
160A8
100
AcDbEntity
  8
寸法
 62
     0
 48
50.0
370
    -2
100
AcDbLine
 10
7737.365240052409
 20
3942.500000000013
 30
0.0
 11
7737.365240052409
 21
3663.42913385828
 31
0.0
  0
INSERT
  5
16529
330
160A8
100
AcDbEntity
  8
寸法
 62
     0
 48
50.0
370
    -2
100
AcDbBlockReference
  2
_DOTSMALL
 10
7737.365240052409
 20
4042.500000000012
 30
0.0
 41
75.0
 42
75.0
 43
75.0
 50
90.0
  0
INSERT
  5
1652A
330
160A8
100
AcDbEntity
  8
寸法
 62
     0
 48
50.0
370
    -2
100
AcDbBlockReference
  2
_DOTSMALL
 10
7737.365240052409
 20
3942.500000000013
 30
0.0
 41
75.0
 42
75.0
 43
75.0
 50
270.0
  0
MTEXT
  5
1652B
330
160A8
100
AcDbEntity
  8
寸法
 62
     7
 48
50.0
100
AcDbMText
 10
7662.365240052408
 20
3765.464566929148
 30
0.0
 40
90.0
 41
0.0
 71
     5
 72
     1
  1
\A1;100
  7
STYLE1
 11
0.0000000000000001
 21
1.0
 31
0.0
 73
     1
 44
1.0
1001
ACAD
1000
MTEXTBEGIN
1070
    73
1070
     1
1070
    44
1040
1.0
1070
    74
1070
     0
1000
MTEXTEND
  0
POINT
  5
1652C
330
160A8
100
AcDbEntity
  8
DEFPOINTS
 62
     0
 48
50.0
100
AcDbPoint
 10
7887.946367154312
 20
4042.500000000012
 30
0.0
  0
POINT
  5
1652D
330
160A8
100
AcDbEntity
  8
DEFPOINTS
 62
     0
 48
50.0
100
AcDbPoint
 10
7887.946367154312
 20
3942.500000000013
 30
0.0
  0
POINT
  5
1652E
330
160A8
100
AcDbEntity
  8
DEFPOINTS
 62
     0
 48
50.0
100
AcDbPoint
 10
7737.365240052409
 20
3942.500000000013
 30
0.0
  0
ENDBLK
  5
160AA
330
160A8
100
AcDbEntity
  8
0
 48
50.0
100
AcDbBlockEnd
  0
BLOCK
  5
160B6
330
160B5
100
AcDbEntity
  8
0
 48
50.0
100
AcDbBlockBegin
  2
*D26
 70
     1
 10
0.0
 20
0.0
 30
0.0
  3
*D26
  1

  0
LINE
  5
1652F
330
160B5
100
AcDbEntity
  8
寸法
 62
     0
 48
50.0
370
    -2
100
AcDbLine
 10
8387.94636715437
 20
3477.500000000013
 30
0.0
 11
8387.94636715437
 21
3005.883370355978
 31
0.0
  0
LINE
  5
16530
330
160B5
100
AcDbEntity
  8
寸法
 62
     0
 48
50.0
370
    -2
100
AcDbLine
 10
8912.94636715437
 20
3416.442168170134
 30
0.0
 11
8912.94636715437
 21
3005.883370355978
 31
0.0
  0
LINE
  5
16531
330
160B5
100
AcDbEntity
  8
寸法
 62
     0
 48
50.0
370
    -2
100
AcDbLine
 10
8387.94636715437
 20
3050.883370355978
 30
0.0
 11
8912.94636715437
 21
3050.883370355978
 31
0.0
  0
INSERT
  5
16532
330
160B5
100
AcDbEntity
  8
寸法
 62
     0
 48
50.0
370
    -2
100
AcDbBlockReference
  2
_DOTSMALL
 10
8387.94636715437
 20
3050.883370355978
 30
0.0
 41
75.0
 42
75.0
 43
75.0
 50
180.0
  0
INSERT
  5
16533
330
160B5
100
AcDbEntity
  8
寸法
 62
     0
 48
50.0
370
    -2
100
AcDbBlockReference
  2
_DOTSMALL
 10
8912.94636715437
 20
3050.883370355978
 30
0.0
 41
75.0
 42
75.0
 43
75.0
  0
MTEXT
  5
16534
330
160B5
100
AcDbEntity
  8
寸法
 62
     7
 48
50.0
100
AcDbMText
 10
8650.446367154371
 20
3125.892228623694
 30
0.0
 40
90.0
 41
0.0
 71
     5
 72
     1
  1
\A1;525
  7
STYLE1
 73
     1
 44
1.0
1001
ACAD
1000
MTEXTBEGIN
1070
    73
1070
     1
1070
    44
1040
1.0
1070
    74
1070
     0
1000
MTEXTEND
  0
POINT
  5
16535
330
160B5
100
AcDbEntity
  8
DEFPOINTS
 62
     0
 48
50.0
100
AcDbPoint
 10
8387.94636715437
 20
3492.500000000013
 30
0.0
  0
POINT
  5
16536
330
160B5
100
AcDbEntity
  8
DEFPOINTS
 62
     0
 48
50.0
100
AcDbPoint
 10
8912.94636715437
 20
3431.442168170133
 30
0.0
  0
POINT
  5
16537
330
160B5
100
AcDbEntity
  8
DEFPOINTS
 62
     0
 48
50.0
100
AcDbPoint
 10
8912.94636715437
 20
3050.883370355978
 30
0.0
  0
ENDBLK
  5
160B7
330
160B5
100
AcDbEntity
  8
0
 48
50.0
100
AcDbBlockEnd
  0
BLOCK
  5
160C2
330
160C1
100
AcDbEntity
  8
0
 48
50.0
100
AcDbBlockBegin
  2
*D27
 70
     1
 10
0.0
 20
0.0
 30
0.0
  3
*D27
  1

  0
LINE
  5
16538
330
160C1
100
AcDbEntity
  8
寸法
 62
     0
 48
50.0
370
    -2
100
AcDbLine
 10
9787.94636715437
 20
3477.500000000013
 30
0.0
 11
9787.94636715437
 21
2775.797809267226
 31
0.0
  0
LINE
  5
16539
330
160C1
100
AcDbEntity
  8
寸法
 62
     0
 48
50.0
370
    -2
100
AcDbLine
 10
8387.94636715437
 20
3477.500000000013
 30
0.0
 11
8387.94636715437
 21
2775.797809267226
 31
0.0
  0
LINE
  5
1653A
330
160C1
100
AcDbEntity
  8
寸法
 62
     0
 48
50.0
370
    -2
100
AcDbLine
 10
9787.94636715437
 20
2820.797809267226
 30
0.0
 11
8387.94636715437
 21
2820.797809267226
 31
0.0
  0
INSERT
  5
1653B
330
160C1
100
AcDbEntity
  8
寸法
 62
     0
 48
50.0
370
    -2
100
AcDbBlockReference
  2
_DOTSMALL
 10
9787.94636715437
 20
2820.797809267226
 30
0.0
 41
75.0
 42
75.0
 43
75.0
  0
INSERT
  5
1653C
330
160C1
100
AcDbEntity
  8
寸法
 62
     0
 48
50.0
370
    -2
100
AcDbBlockReference
  2
_DOTSMALL
 10
8387.94636715437
 20
2820.797809267226
 30
0.0
 41
75.0
 42
75.0
 43
75.0
 50
180.0
  0
MTEXT
  5
1653D
330
160C1
100
AcDbEntity
  8
寸法
 62
     7
 48
50.0
100
AcDbMText
 10
9087.946367154371
 20
2895.797809267225
 30
0.0
 40
90.0
 41
0.0
 71
     5
 72
     1
  1
\A1;1400
  7
STYLE1
 73
     1
 44
1.0
1001
ACAD
1000
MTEXTBEGIN
1070
    73
1070
     1
1070
    44
1040
1.0
1070
    74
1070
     0
1000
MTEXTEND
  0
POINT
  5
1653E
330
160C1
100
AcDbEntity
  8
DEFPOINTS
 62
     0
 48
50.0
100
AcDbPoint
 10
9787.94636715437
 20
3492.500000000013
 30
0.0
  0
POINT
  5
1653F
330
160C1
100
AcDbEntity
  8
DEFPOINTS
 62
     0
 48
50.0
100
AcDbPoint
 10
8387.94636715437
 20
3492.500000000013
 30
0.0
  0
POINT
  5
16540
330
160C1
100
AcDbEntity
  8
DEFPOINTS
 62
     0
 48
50.0
100
AcDbPoint
 10
8387.94636715437
 20
2820.797809267226
 30
0.0
  0
ENDBLK
  5
160C3
330
160C1
100
AcDbEntity
  8
0
 48
50.0
100
AcDbBlockEnd
  0
BLOCK
  5
160CE
330
160CD
100
AcDbEntity
  8
0
 48
50.0
100
AcDbBlockBegin
  2
*D28
 70
     1
 10
0.0
 20
0.0
 30
0.0
  3
*D28
  1

  0
LINE
  5
16541
330
160CD
100
AcDbEntity
  8
寸法
 62
     0
 48
50.0
370
    -2
100
AcDbLine
 10
8912.94636715437
 20
3416.442168170134
 30
0.0
 11
8912.94636715437
 21
3005.883370355978
 31
0.0
  0
LINE
  5
16542
330
160CD
100
AcDbEntity
  8
寸法
 62
     0
 48
50.0
370
    -2
100
AcDbLine
 10
9262.94636715437
 20
3416.442168170134
 30
0.0
 11
9262.94636715437
 21
3005.883370355978
 31
0.0
  0
LINE
  5
16543
330
160CD
100
AcDbEntity
  8
寸法
 62
     0
 48
50.0
370
    -2
100
AcDbLine
 10
8912.94636715437
 20
3050.883370355978
 30
0.0
 11
9262.94636715437
 21
3050.883370355978
 31
0.0
  0
INSERT
  5
16544
330
160CD
100
AcDbEntity
  8
寸法
 62
     0
 48
50.0
370
    -2
100
AcDbBlockReference
  2
_DOTSMALL
 10
8912.94636715437
 20
3050.883370355978
 30
0.0
 41
75.0
 42
75.0
 43
75.0
 50
180.0
  0
INSERT
  5
16545
330
160CD
100
AcDbEntity
  8
寸法
 62
     0
 48
50.0
370
    -2
100
AcDbBlockReference
  2
_DOTSMALL
 10
9262.94636715437
 20
3050.883370355978
 30
0.0
 41
75.0
 42
75.0
 43
75.0
  0
MTEXT
  5
16546
330
160CD
100
AcDbEntity
  8
寸法
 62
     7
 48
50.0
100
AcDbMText
 10
9087.946367154371
 20
3125.883370355978
 30
0.0
 40
90.0
 41
0.0
 71
     5
 72
     1
  1
\A1;350
  7
STYLE1
 73
     1
 44
1.0
1001
ACAD
1000
MTEXTBEGIN
1070
    73
1070
     1
1070
    44
1040
1.0
1070
    74
1070
     0
1000
MTEXTEND
  0
POINT
  5
16547
330
160CD
100
AcDbEntity
  8
DEFPOINTS
 62
     0
 48
50.0
100
AcDbPoint
 10
8912.94636715437
 20
3431.442168170133
 30
0.0
  0
POINT
  5
16548
330
160CD
100
AcDbEntity
  8
DEFPOINTS
 62
     0
 48
50.0
100
AcDbPoint
 10
9262.94636715437
 20
3431.442168170133
 30
0.0
  0
POINT
  5
16549
330
160CD
100
AcDbEntity
  8
DEFPOINTS
 62
     0
 48
50.0
100
AcDbPoint
 10
9262.94636715437
 20
3050.883370355978
 30
0.0
  0
ENDBLK
  5
160CF
330
160CD
100
AcDbEntity
  8
0
 48
50.0
100
AcDbBlockEnd
  0
BLOCK
  5
160DA
330
160D9
100
AcDbEntity
  8
0
 48
50.0
100
AcDbBlockBegin
  2
*D29
 70
     1
 10
0.0
 20
0.0
 30
0.0
  3
*D29
  1

  0
LINE
  5
1654A
330
160D9
100
AcDbEntity
  8
寸法
 62
     0
 48
50.0
370
    -2
100
AcDbLine
 10
9787.94636715437
 20
3477.500000000013
 30
0.0
 11
9787.94636715437
 21
3005.883370355978
 31
0.0
  0
LINE
  5
1654B
330
160D9
100
AcDbEntity
  8
寸法
 62
     0
 48
50.0
370
    -2
100
AcDbLine
 10
9262.94636715437
 20
3416.442168170134
 30
0.0
 11
9262.94636715437
 21
3005.883370355978
 31
0.0
  0
LINE
  5
1654C
330
160D9
100
AcDbEntity
  8
寸法
 62
     0
 48
50.0
370
    -2
100
AcDbLine
 10
9787.94636715437
 20
3050.883370355978
 30
0.0
 11
9262.94636715437
 21
3050.883370355978
 31
0.0
  0
INSERT
  5
1654D
330
160D9
100
AcDbEntity
  8
寸法
 62
     0
 48
50.0
370
    -2
100
AcDbBlockReference
  2
_DOTSMALL
 10
9787.94636715437
 20
3050.883370355978
 30
0.0
 41
75.0
 42
75.0
 43
75.0
  0
INSERT
  5
1654E
330
160D9
100
AcDbEntity
  8
寸法
 62
     0
 48
50.0
370
    -2
100
AcDbBlockReference
  2
_DOTSMALL
 10
9262.94636715437
 20
3050.883370355978
 30
0.0
 41
75.0
 42
75.0
 43
75.0
 50
180.0
  0
MTEXT
  5
1654F
330
160D9
100
AcDbEntity
  8
寸法
 62
     7
 48
50.0
100
AcDbMText
 10
9525.446367154371
 20
3125.892228623694
 30
0.0
 40
90.0
 41
0.0
 71
     5
 72
     1
  1
\A1;525
  7
STYLE1
 73
     1
 44
1.0
1001
ACAD
1000
MTEXTBEGIN
1070
    73
1070
     1
1070
    44
1040
1.0
1070
    74
1070
     0
1000
MTEXTEND
  0
POINT
  5
16550
330
160D9
100
AcDbEntity
  8
DEFPOINTS
 62
     0
 48
50.0
100
AcDbPoint
 10
9787.94636715437
 20
3492.500000000013
 30
0.0
  0
POINT
  5
16551
330
160D9
100
AcDbEntity
  8
DEFPOINTS
 62
     0
 48
50.0
100
AcDbPoint
 10
9262.94636715437
 20
3431.442168170133
 30
0.0
  0
POINT
  5
16552
330
160D9
100
AcDbEntity
  8
DEFPOINTS
 62
     0
 48
50.0
100
AcDbPoint
 10
9262.94636715437
 20
3050.883370355978
 30
0.0
  0
ENDBLK
  5
160DB
330
160D9
100
AcDbEntity
  8
0
 48
50.0
100
AcDbBlockEnd
  0
ENDSEC
  0
SECTION
  2
ENTITIES
  0
MTEXT
  5
763F
330
747D
100
AcDbEntity
  8
0
100
AcDbMText
 10
302.846345836809
 20
280.1983726409901
 30
0.0
 40
3.5
 41
5.323721266742722
 71
     1
 72
     5
  1

  7
MSMINCHO
 73
     1
 44
1.0
1001
ACAD
1000
MTEXTBEGIN
1070
    73
1070
     1
1070
    44
1040
1.0
1070
    74
1070
     0
1000
MTEXTEND
  0
LINE
  5
10B56
330
747D
100
AcDbEntity
  8
補助
  6
PHANTOM
 62
   230
 48
50.0
100
AcDbLine
 10
105.0
 20
0.0
 30
0.0
 11
104.9999999999996
 21
8557.199999999999
 31
0.0
  0
LINE
  5
10B57
330
747D
100
AcDbEntity
  8
補助
  6
PHANTOM
 62
   230
 48
50.0
100
AcDbLine
 10
104.9999999999996
 20
8557.199999999999
 30
0.0
 11
12230.4
 21
8557.199999999999
 31
0.0
  0
LINE
  5
10B5E
330
747D
100
AcDbEntity
  8
補助
  6
PHANTOM
 62
   230
 48
50.0
100
AcDbLine
 10
12230.4
 20
8557.199999999999
 30
0.0
 11
12230.4
 21
900.0
 31
0.0
  0
LINE
  5
10B6D
330
747D
100
AcDbEntity
  8
補助
  6
PHANTOM
 62
   230
 48
50.0
100
AcDbLine
 10
9830.400000000002
 20
8557.199999999999
 30
0.0
 11
9830.400000000002
 21
3600.0
 31
0.0
  0
LINE
  5
10B6F
330
747D
100
AcDbEntity
  8
補助
  6
PHANTOM
 62
   230
 48
50.0
100
AcDbLine
 10
9830.400000000002
 20
3110.960973647383
 30
0.0
 11
12230.4
 21
3110.960973647383
 31
0.0
  0
LINE
  5
13125
330
747D
100
AcDbEntity
  8
補助
  6
PHANTOM
 62
   230
 48
50.0
100
AcDbLine
 10
11930.4
 20
8182.200000000003
 30
0.0
 11
11930.4
 21
6457.2
 31
0.0
  0
LINE
  5
13126
330
747D
100
AcDbEntity
  8
補助
  6
PHANTOM
 62
   230
 48
50.0
100
AcDbLine
 10
9380.400000000003
 20
8182.199999999999
 30
0.0
 11
9380.400000000003
 21
6457.2
 31
0.0
  0
LINE
  5
13127
330
747D
100
AcDbEntity
  8
補助
  6
PHANTOM
 62
   230
 48
50.0
100
AcDbLine
 10
9380.400000000003
 20
6457.2
 30
0.0
 11
11930.4
 21
6457.2
 31
0.0
  0
LINE
  5
13128
330
747D
100
AcDbEntity
  8
補助
  6
PHANTOM
 62
   230
 48
50.0
100
AcDbLine
 10
9380.400000000003
 20
8182.199999999999
 30
0.0
 11
11930.4
 21
8182.200000000003
 31
0.0
  0
TEXT
  5
13988
330
747D
100
AcDbEntity
  8
文字
 62
     7
 48
50.0
100
AcDbText
 10
10893.09887791649
 20
773.6682797184221
 30
0.0
 40
75.0
  1
             <縮尺> S=1/30
  7
STYLE2
100
AcDbText
  0
TEXT
  5
13989
330
747D
100
AcDbEntity
  8
文字
 62
     7
 48
50.0
100
AcDbText
 10
11138.71739229687
 20
628.6895453046891
 30
0.0
 40
75.0
  1
～一般型～
  7
STYLE2
100
AcDbText
  0
TEXT
  5
1398A
330
747D
100
AcDbEntity
  8
文字
 62
     7
 48
50.0
100
AcDbText
 10
10951.9835159712
 20
362.922534743353
 30
0.0
 40
120.0
  1
BP-24VU
  7
STYLE3
100
AcDbText
  0
LINE
  5
1398B
330
747D
100
AcDbEntity
  8
仕様書枠
  6
Continuous
 48
50.0
100
AcDbLine
 10
10688.4
 20
900.0
 30
0.0
 11
10688.4
 21
600.0
 31
0.0
  0
LINE
  5
1398C
330
747D
100
AcDbEntity
  8
仕様書枠
 48
50.0
100
AcDbLine
 10
9830.4
 20
600.0
 30
0.0
 11
10688.4
 21
600.0
 31
0.0
  0
TEXT
  5
1398D
330
747D
100
AcDbEntity
  8
文字
 62
     7
 48
50.0
100
AcDbText
 10
9907.0540081629
 20
57.07076030736789
 30
0.0
 40
60.0
  1
○寒冷地等は、地域の実情に合わせた基礎にしてください。
  7
STYLE2
100
AcDbText
  0
TEXT
  5
1398E
330
747D
100
AcDbEntity
  8
文字
 62
     7
 48
50.0
100
AcDbText
 10
9907.0540081629
 20
171.4076431926732
 30
0.0
 40
60.0
  1
○間口寸法は柱芯寸法です。
  7
STYLE2
100
AcDbText
  0
TEXT
  5
1398F
330
747D
100
AcDbEntity
  8
文字
 62
     7
 48
50.0
100
AcDbText
 10
9901.077524988314
 20
357.9555495773456
 30
0.0
 40
120.0
  1
機種名
  7
STYLE2
100
AcDbText
  0
TEXT
  5
13990
330
747D
100
AcDbEntity
  8
文字
 62
     7
 48
50.0
100
AcDbText
 10
9872.234292432679
 20
671.3179555724564
 30
0.0
 40
150.0
  1
基 礎 図
  7
STYLE2
100
AcDbText
  0
LINE
  5
13991
330
747D
100
AcDbEntity
  8
文字
 62
     7
 48
50.0
100
AcDbLine
 10
9890.399999999999
 20
300.0
 30
0.0
 11
12170.4
 21
300.0
 31
0.0
  0
LINE
  5
13992
330
747D
100
AcDbEntity
  8
仕様書枠
 48
50.0
100
AcDbLine
 10
9830.4
 20
900.0
 30
0.0
 11
12230.4
 21
900.0
 31
0.0
  0
LINE
  5
13993
330
747D
100
AcDbEntity
  8
仕様書枠
 48
50.0
100
AcDbLine
 10
105.0
 20
0.0
 30
0.0
 11
12230.4
 21
0.0
 31
0.0
  0
LINE
  5
13994
330
747D
100
AcDbEntity
  8
仕様書枠
 48
50.0
100
AcDbLine
 10
12230.4
 20
900.0
 30
0.0
 11
12230.4
 21
0.0
 31
0.0
  0
LINE
  5
13995
330
747D
100
AcDbEntity
  8
仕様書枠
  6
Continuous
 48
50.0
100
AcDbLine
 10
9830.4
 20
900.0
 30
0.0
 11
9830.4
 21
0.0
 31
0.0
  0
LINE
  5
15D4F
330
747D
100
AcDbEntity
  8
センター
 48
10.0
100
AcDbLine
 10
2432.32336155189
 20
3670.0
 30
0.0
 11
5332.32336155189
 21
3670.0
 31
0.0
  0
LINE
  5
15D50
330
747D
100
AcDbEntity
  8
想像線
 48
10.0
100
AcDbLine
 10
2452.323361551949
 20
1806.5
 30
0.0
 11
2452.323361551949
 21
5883.5
 31
0.0
  0
LINE
  5
15D51
330
747D
100
AcDbEntity
  8
想像線
 48
10.0
100
AcDbLine
 10
5312.323361551833
 20
1806.5
 30
0.0
 11
5312.323361551833
 21
5883.5
 31
0.0
  0
LINE
  5
15D52
330
747D
100
AcDbEntity
  8
想像線
 48
10.0
100
AcDbLine
 10
2452.323361551949
 20
1806.5
 30
0.0
 11
5312.323361551833
 21
1806.5
 31
0.0
  0
LINE
  5
15D53
330
747D
100
AcDbEntity
  8
部品1
 48
50.0
100
AcDbLine
 10
2282.32336155189
 20
3145.0
 30
0.0
 11
3082.32336155189
 21
3145.0
 31
0.0
  0
LINE
  5
15D54
330
747D
100
AcDbEntity
  8
部品1
 48
50.0
100
AcDbLine
 10
2282.32336155189
 20
6020.0
 30
0.0
 11
2282.32336155189
 21
1670.0
 31
0.0
  0
CIRCLE
  5
15D55
330
747D
100
AcDbEntity
  8
部品1
 48
50.0
100
AcDbCircle
 10
2682.32336155189
 20
3670.0
 30
0.0
 40
44.55
  0
LINE
  5
15D56
330
747D
100
AcDbEntity
  8
センター
 48
10.0
100
AcDbLine
 10
2432.32336155189
 20
3670.0
 30
0.0
 11
2932.32336155189
 21
3670.0
 31
0.0
  0
LINE
  5
15D57
330
747D
100
AcDbEntity
  8
センター
 48
10.0
100
AcDbLine
 10
2682.32336155189
 20
3920.0
 30
0.0
 11
2682.32336155189
 21
3420.0
 31
0.0
  0
LINE
  5
15D58
330
747D
100
AcDbEntity
  8
センター
 48
10.0
100
AcDbLine
 10
5082.32336155189
 20
3920.0
 30
0.0
 11
5082.32336155189
 21
3420.0
 31
0.0
  0
LINE
  5
15D59
330
747D
100
AcDbEntity
  8
センター
 48
10.0
100
AcDbLine
 10
4832.32336155189
 20
3670.0
 30
0.0
 11
5332.32336155189
 21
3670.0
 31
0.0
  0
CIRCLE
  5
15D5A
330
747D
100
AcDbEntity
  8
部品1
 48
50.0
100
AcDbCircle
 10
5082.32336155189
 20
3670.0
 30
0.0
 40
44.55
  0
LINE
  5
15D5B
330
747D
100
AcDbEntity
  8
部品1
 48
50.0
100
AcDbLine
 10
5482.32336155189
 20
6020.0
 30
0.0
 11
5482.32336155189
 21
1670.0
 31
0.0
  0
LINE
  5
15D5C
330
747D
100
AcDbEntity
  8
部品1
 48
30.0
100
AcDbLine
 10
2282.32336155189
 20
1670.0
 30
0.0
 11
5482.32336155189
 21
1670.0
 31
0.0
  0
LINE
  5
15D5D
330
747D
100
AcDbEntity
  8
寸法
 48
50.0
100
AcDbLine
 10
3793.945398221352
 20
2777.573871967645
 30
0.0
 11
3761.097115388583
 21
2900.165332441102
 31
0.0
  0
LINE
  5
15D5E
330
747D
100
AcDbEntity
  8
寸法
 48
50.0
100
AcDbLine
 10
3793.945398221352
 20
2777.573871967645
 30
0.0
 11
3826.793681054179
 21
2900.165332441102
 31
0.0
  0
LINE
  5
15D5F
330
747D
100
AcDbEntity
  8
寸法
 48
50.0
100
AcDbLine
 10
3793.945398221352
 20
3563.289100400827
 30
0.0
 11
3793.945398221352
 21
2777.573871967645
 31
0.0
  0
MTEXT
  5
15D60
330
747D
100
AcDbEntity
  8
寸法
 62
     7
 48
50.0
100
AcDbMText
 10
3699.507462155575
 20
2916.28717809479
 30
0.0
 40
90.0
 41
0.0
 71
     4
 72
     1
  1
\A1;水勾配 1/100 
  7
STYLE1
 11
0.0000000000000001
 21
1.0
 31
0.0
 73
     1
 44
1.0
1001
ACAD
1000
MTEXTBEGIN
1070
    73
1070
     1
1070
    44
1040
1.0
1070
    74
1070
     0
1000
MTEXTEND
  0
MTEXT
  5
15D61
330
747D
100
AcDbEntity
  8
寸法
 62
     7
 48
50.0
100
AcDbMText
 10
2508.315246334102
 20
1923.78004586749
 30
0.0
 40
90.0
 41
0.0
 71
     4
 72
     1
  1
\A1;床コンクリート打コテ押エ
  7
STYLE1
 73
     1
 44
1.0
1001
ACAD
1000
MTEXTBEGIN
1070
    73
1070
     1
1070
    44
1040
1.0
1070
    74
1070
     0
1000
MTEXTEND
  0
LEADER
  5
15D62
330
747D
100
AcDbEntity
  8
寸法
 48
50.0
100
AcDbLeader
  3
INABA_S30G
 73
     0
 75
     1
 76
     3
 10
5082.32336155189
 20
3670.0
 30
0.0
 10
4993.836836616544
 20
3339.763793156162
 30
0.0
 10
4918.836836616544
 20
3339.763793156162
 30
0.0
  0
MTEXT
  5
15D63
102
{ACAD_REACTORS
330
15D62
102
}
330
747D
100
AcDbEntity
  8
寸法
 62
     7
 48
50.0
100
AcDbMText
 10
4888.836836616544
 20
3414.763793156163
 30
0.0
 40
90.0
 41
0.0
 71
     6
 72
     1
  1
\A1;柱
  7
STYLE1
 73
     1
 44
1.0
1001
ACAD
1000
MTEXTBEGIN
1070
    73
1070
     1
1070
    44
1040
1.0
1070
    74
1070
     0
1000
MTEXTEND
  0
LINE
  5
15D64
330
747D
100
AcDbEntity
  8
センター
 48
10.0
100
AcDbLine
 10
2432.32336155189
 20
4020.0
 30
0.0
 11
5332.32336155189
 21
4020.0
 31
0.0
  0
LINE
  5
15D65
330
747D
100
AcDbEntity
  8
想像線
 48
10.0
100
AcDbLine
 10
2452.323361551949
 20
5883.5
 30
0.0
 11
5312.323361551833
 21
5883.5
 31
0.0
  0
LINE
  5
15D66
330
747D
100
AcDbEntity
  8
部品1
 48
50.0
100
AcDbLine
 10
2282.32336155189
 20
4545.0
 30
0.0
 11
3082.32336155189
 21
4545.0
 31
0.0
  0
CIRCLE
  5
15D67
330
747D
100
AcDbEntity
  8
部品1
 48
50.0
100
AcDbCircle
 10
2682.32336155189
 20
4020.0
 30
0.0
 40
44.55
  0
LINE
  5
15D68
330
747D
100
AcDbEntity
  8
センター
 48
10.0
100
AcDbLine
 10
2432.32336155189
 20
4020.0
 30
0.0
 11
2932.32336155189
 21
4020.0
 31
0.0
  0
LINE
  5
15D69
330
747D
100
AcDbEntity
  8
センター
 48
10.0
100
AcDbLine
 10
2682.32336155189
 20
3770.0
 30
0.0
 11
2682.32336155189
 21
4270.0
 31
0.0
  0
LINE
  5
15D6A
330
747D
100
AcDbEntity
  8
センター
 48
10.0
100
AcDbLine
 10
5082.32336155189
 20
3770.0
 30
0.0
 11
5082.32336155189
 21
4270.0
 31
0.0
  0
LINE
  5
15D6B
330
747D
100
AcDbEntity
  8
センター
 48
10.0
100
AcDbLine
 10
4832.32336155189
 20
4020.0
 30
0.0
 11
5332.32336155189
 21
4020.0
 31
0.0
  0
CIRCLE
  5
15D6C
330
747D
100
AcDbEntity
  8
部品1
 48
50.0
100
AcDbCircle
 10
5082.32336155189
 20
4020.0
 30
0.0
 40
44.55
  0
LINE
  5
15D6D
330
747D
100
AcDbEntity
  8
部品1
 48
50.0
100
AcDbLine
 10
4682.323361551889
 20
3144.999999999985
 30
0.0
 11
4682.323361551889
 21
4545.0
 31
0.0
  0
LINE
  5
15D6E
330
747D
100
AcDbEntity
  8
部品1
 48
30.0
100
AcDbLine
 10
2282.32336155189
 20
6020.0
 30
0.0
 11
5482.32336155189
 21
6020.0
 31
0.0
  0
LINE
  5
15D6F
330
747D
100
AcDbEntity
  8
部品1
 48
50.0
100
AcDbLine
 10
3082.32336155189
 20
4545.0
 30
0.0
 11
3082.32336155189
 21
3145.0
 31
0.0
  0
LINE
  5
15D70
330
747D
100
AcDbEntity
  8
部品1
 48
50.0
100
AcDbLine
 10
4682.323361551889
 20
3145.0
 30
0.0
 11
5482.32336155189
 21
3145.0
 31
0.0
  0
LINE
  5
15D71
330
747D
100
AcDbEntity
  8
部品1
 48
50.0
100
AcDbLine
 10
4682.323361551889
 20
4545.0
 30
0.0
 11
5482.32336155189
 21
4545.0
 31
0.0
  0
DIMENSION
  5
15D72
330
747D
100
AcDbEntity
  8
寸法
 48
50.0
100
AcDbDimension
  2
*D1
 10
2282.32336155189
 20
1341.512281663483
 30
0.0
 11
2367.323361551919
 21
1416.512281663483
 31
0.0
 70
    32
 71
     5
 42
170.0000000000582
  3
INABA_S30G
100
AcDbAlignedDimension
 13
2452.323361551949
 23
1806.5
 33
0.0
 14
2282.32336155189
 24
1670.0
 34
0.0
 50
180.0
100
AcDbRotatedDimension
  0
DIMENSION
  5
15D73
330
747D
100
AcDbEntity
  8
寸法
 48
50.0
100
AcDbDimension
  2
*D2
 10
5482.32336155189
 20
1341.512281663483
 30
0.0
 11
5397.323361551861
 21
1416.512281663483
 31
0.0
 70
    32
 71
     5
 42
170.0000000000582
  3
INABA_S30G
100
AcDbAlignedDimension
 13
5312.323361551833
 23
1806.5
 33
0.0
 14
5482.32336155189
 24
1670.0
 34
0.0
100
AcDbRotatedDimension
  0
DIMENSION
  5
15D74
330
747D
100
AcDbEntity
  8
寸法
 48
50.0
100
AcDbDimension
  2
*D3
 10
5312.323361551833
 20
1341.512281663483
 30
0.0
 11
3882.32336155189
 21
1416.521139931199
 31
0.0
 70
    32
  1
屋根寸法 <>
 71
     5
 42
2859.999999999884
  3
INABA_S30G
100
AcDbAlignedDimension
 13
2452.323361551949
 23
1806.5
 33
0.0
 14
5312.323361551833
 24
1806.5
 34
0.0
100
AcDbRotatedDimension
  0
DIMENSION
  5
15D75
330
747D
100
AcDbEntity
  8
寸法
 48
50.0
100
AcDbDimension
  2
*D4
 10
5864.597583915491
 20
1670.0
 30
0.0
 11
5864.597583915491
 21
1446.136038969322
 31
0.0
 70
   160
 71
     5
 42
136.5
  3
INABA_S30G
100
AcDbAlignedDimension
 13
5312.323361551833
 23
1806.5
 33
0.0
 14
5482.32336155189
 24
1670.0
 34
0.0
 50
90.0
100
AcDbRotatedDimension
  0
DIMENSION
  5
15D76
330
747D
100
AcDbEntity
  8
寸法
 48
50.0
100
AcDbDimension
  2
*D5
 10
5864.597583915491
 20
1806.499999999999
 30
0.0
 11
5789.597583915491
 21
3845.0
 31
0.0
 70
    32
  1
屋根寸法 <>
 71
     5
 42
4077.0
  3
INABA_S30G
100
AcDbAlignedDimension
 13
5312.323361551833
 23
5883.5
 33
0.0
 14
5312.323361551833
 24
1806.5
 34
0.0
 50
90.0
100
AcDbRotatedDimension
  0
DIMENSION
  5
15D77
330
747D
100
AcDbEntity
  8
寸法
 48
50.0
100
AcDbDimension
  2
*D6
 10
5864.597583915493
 20
6020.0
 30
0.0
 11
5864.597583915491
 21
6243.863961030729
 31
0.0
 70
   160
 71
     5
 42
136.5
  3
INABA_S30G
100
AcDbAlignedDimension
 13
5312.323361551833
 23
5883.5
 33
0.0
 14
5482.32336155189
 24
6020.0
 34
0.0
 50
270.0
100
AcDbRotatedDimension
  0
DIMENSION
  5
15D78
330
747D
100
AcDbEntity
  8
寸法
 48
50.0
100
AcDbDimension
  2
*D7
 10
1718.702162824199
 20
1670.0
 30
0.0
 11
1643.702162824199
 21
3845.000000000001
 31
0.0
 70
    32
  1
基礎土間寸法 <>
 71
     5
 42
4350.0
  3
INABA_S30G
100
AcDbAlignedDimension
 13
2282.32336155189
 23
6020.0
 33
0.0
 14
2282.32336155189
 24
1670.0
 34
0.0
 50
90.0
100
AcDbRotatedDimension
  0
DIMENSION
  5
15D79
330
747D
100
AcDbEntity
  8
寸法
 48
50.0
100
AcDbDimension
  2
*D8
 10
1941.451524840645
 20
1670.0
 30
0.0
 11
1866.442666572928
 21
2670.000000000001
 31
0.0
 70
    32
 71
     5
 42
2000.0
  3
INABA_S30G
100
AcDbAlignedDimension
 13
2432.32336155189
 23
3670.0
 33
0.0
 14
2282.32336155189
 24
1670.0
 34
0.0
 50
90.0
100
AcDbRotatedDimension
  0
DIMENSION
  5
15D7A
330
747D
100
AcDbEntity
  8
寸法
 48
50.0
100
AcDbDimension
  2
*D9
 10
1941.451524840645
 20
3670.0
 30
0.0
 11
1866.451524840644
 21
3845.0
 31
0.0
 70
    32
 71
     5
 42
350.0
  3
INABA_S30G
100
AcDbAlignedDimension
 13
2432.32336155189
 23
4020.0
 33
0.0
 14
2432.32336155189
 24
3670.0
 34
0.0
 50
90.0
100
AcDbRotatedDimension
  0
DIMENSION
  5
15D7B
330
747D
100
AcDbEntity
  8
寸法
 48
50.0
100
AcDbDimension
  2
*D10
 10
1941.451524840645
 20
6020.000000000001
 30
0.0
 11
1866.442666572927
 21
5020.000000000001
 31
0.0
 70
    32
 71
     5
 42
2000.0
  3
INABA_S30G
100
AcDbAlignedDimension
 13
2432.32336155189
 23
4020.0
 33
0.0
 14
2282.32336155189
 24
6020.0
 34
0.0
 50
270.0
100
AcDbRotatedDimension
  0
DIMENSION
  5
15D7C
330
747D
100
AcDbEntity
  8
寸法
 48
50.0
100
AcDbDimension
  2
*D11
 10
5482.32336155189
 20
6523.48933310542
 30
0.0
 11
3882.32336155189
 21
6598.498191373136
 31
0.0
 70
    32
  1
基礎土間寸法 <>
 71
     5
 42
3200.0
  3
INABA_S30G
100
AcDbAlignedDimension
 13
2282.32336155189
 23
6020.0
 33
0.0
 14
5482.32336155189
 24
6020.0
 34
0.0
100
AcDbRotatedDimension
  0
DIMENSION
  5
15D7D
330
747D
100
AcDbEntity
  8
寸法
 48
50.0
100
AcDbDimension
  2
*D12
 10
5482.32336155189
 20
6329.452294131101
 30
0.0
 11
5282.32336155189
 21
6404.4522941311
 31
0.0
 70
    32
 71
     5
 42
400.0
  3
INABA_S30G
100
AcDbAlignedDimension
 13
5082.32336155189
 23
4270.0
 33
0.0
 14
5482.32336155189
 24
6020.0
 34
0.0
100
AcDbRotatedDimension
  0
DIMENSION
  5
15D7E
330
747D
100
AcDbEntity
  8
寸法
 48
50.0
100
AcDbDimension
  2
*D13
 10
5082.32336155189
 20
6329.452294131101
 30
0.0
 11
3882.32336155189
 21
6404.461152398816
 31
0.0
 70
    32
 71
     5
 42
2400.0
  3
INABA_S30G
100
AcDbAlignedDimension
 13
2682.32336155189
 23
4270.0
 33
0.0
 14
5082.32336155189
 24
4270.0
 34
0.0
100
AcDbRotatedDimension
  0
DIMENSION
  5
15D7F
330
747D
100
AcDbEntity
  8
寸法
 48
50.0
100
AcDbDimension
  2
*D14
 10
2682.32336155189
 20
6329.452294131101
 30
0.0
 11
2482.32336155189
 21
6404.4522941311
 31
0.0
 70
    32
 71
     5
 42
400.0
  3
INABA_S30G
100
AcDbAlignedDimension
 13
2282.32336155189
 23
6020.0
 33
0.0
 14
2682.32336155189
 24
4270.0
 34
0.0
100
AcDbRotatedDimension
  0
DIMENSION
  5
15D80
330
747D
100
AcDbEntity
  8
寸法
 48
50.0
100
AcDbDimension
  2
*D15
 10
4682.323361551889
 20
2906.863783962908
 30
0.0
 11
4882.32336155189
 21
2981.863783962909
 31
0.0
 70
    32
 71
     5
 42
400.0
  3
INABA_S30G
100
AcDbAlignedDimension
 13
5082.32336155189
 23
3420.0
 33
0.0
 14
4682.323361551889
 24
3145.0
 34
0.0
100
AcDbRotatedDimension
  0
DIMENSION
  5
15D81
330
747D
100
AcDbEntity
  8
寸法
 48
50.0
100
AcDbDimension
  2
*D16
 10
5482.32336155189
 20
2668.727567925845
 30
0.0
 11
5082.32336155189
 21
2668.727567925845
 31
0.0
 70
   160
 71
     5
 42
800.0
  3
INABA_S30G
100
AcDbAlignedDimension
 13
4682.323361551889
 23
3145.0
 33
0.0
 14
5482.32336155189
 24
3145.0
 34
0.0
100
AcDbRotatedDimension
  0
DIMENSION
  5
15D82
330
747D
100
AcDbEntity
  8
寸法
 48
50.0
100
AcDbDimension
  2
*D17
 10
4505.008858267719
 20
3144.999999999985
 30
0.0
 11
4430.000000000002
 21
3407.499999999993
 31
0.0
 70
    32
 71
     5
 42
525.0000000000145
  3
INABA_S30G
100
AcDbAlignedDimension
 13
4832.32336155189
 23
3670.0
 33
0.0
 14
4682.323361551889
 24
3144.999999999985
 34
0.0
 50
90.0
100
AcDbRotatedDimension
  0
DIMENSION
  5
15D83
330
747D
100
AcDbEntity
  8
寸法
 48
50.0
100
AcDbDimension
  2
*D18
 10
4327.694354983548
 20
3144.999999999985
 30
0.0
 11
4252.694354983547
 21
3844.999999999993
 31
0.0
 70
    32
 71
     5
 42
1400.000000000014
  3
INABA_S30G
100
AcDbAlignedDimension
 13
4682.323361551889
 23
4545.0
 33
0.0
 14
4682.323361551889
 24
3144.999999999985
 34
0.0
 50
90.0
100
AcDbRotatedDimension
  0
DIMENSION
  5
15D84
330
747D
100
AcDbEntity
  8
寸法
 48
50.0
100
AcDbDimension
  2
*D19
 10
4505.008858267719
 20
3670.0
 30
0.0
 11
4430.008858267718
 21
3845.0
 31
0.0
 70
    32
 71
     5
 42
350.0
  3
INABA_S30G
100
AcDbAlignedDimension
 13
4832.32336155189
 23
4020.0
 33
0.0
 14
4832.32336155189
 24
3670.0
 34
0.0
 50
90.0
100
AcDbRotatedDimension
  0
DIMENSION
  5
15D85
330
747D
100
AcDbEntity
  8
寸法
 48
50.0
100
AcDbDimension
  2
*D20
 10
4505.008858267719
 20
4545.000000000015
 30
0.0
 11
4430.000000000002
 21
4282.500000000008
 31
0.0
 70
    32
 71
     5
 42
525.0000000000145
  3
INABA_S30G
100
AcDbAlignedDimension
 13
4832.32336155189
 23
4020.0
 33
0.0
 14
4682.323361551889
 24
4545.000000000015
 34
0.0
 50
270.0
100
AcDbRotatedDimension
  0
LINE
  5
15D86
330
747D
100
AcDbEntity
  8
寸法
 48
50.0
100
AcDbLine
 10
3793.945398221352
 20
4912.426128032355
 30
0.0
 11
3761.097115388583
 21
4789.834667558898
 31
0.0
  0
LINE
  5
15D87
330
747D
100
AcDbEntity
  8
寸法
 48
50.0
100
AcDbLine
 10
3793.945398221352
 20
4912.426128032355
 30
0.0
 11
3826.793681054179
 21
4789.834667558898
 31
0.0
  0
LINE
  5
15D88
330
747D
100
AcDbEntity
  8
寸法
 48
50.0
100
AcDbLine
 10
3793.945398221352
 20
4126.710899599173
 30
0.0
 11
3793.945398221352
 21
4912.426128032355
 31
0.0
  0
MTEXT
  5
15D89
330
747D
100
AcDbEntity
  8
寸法
 62
     7
 48
50.0
100
AcDbMText
 10
3699.507462155575
 20
4165.424205726304
 30
0.0
 40
90.0
 41
0.0
 71
     4
 72
     1
  1
\A1;水勾配 1/100 
  7
STYLE1
 11
0.0000000000000001
 21
1.0
 31
0.0
 73
     1
 44
1.0
1001
ACAD
1000
MTEXTBEGIN
1070
    73
1070
     1
1070
    44
1040
1.0
1070
    74
1070
     0
1000
MTEXTEND
  0
LINE
  5
15D8A
330
747D
100
AcDbEntity
  8
寸法
 48
50.0
100
AcDbLine
 10
2428.189530802985
 20
4623.898962480132
 30
0.0
 11
2535.922901385965
 21
4652.766032125714
 31
0.0
  0
LINE
  5
15D8B
330
747D
100
AcDbEntity
  8
寸法
 48
50.0
100
AcDbLine
 10
2535.922901385965
 20
4652.766032125714
 30
0.0
 11
2535.922901385965
 21
4586.83141320417
 31
0.0
  0
LINE
  5
15D8C
330
747D
100
AcDbEntity
  8
寸法
 48
50.0
100
AcDbLine
 10
2682.32336155189
 20
4623.898962480132
 30
0.0
 11
2428.189530802985
 21
4623.898962480132
 31
0.0
  0
TEXT
  5
15D8D
330
747D
100
AcDbEntity
  8
寸法
 62
     7
100
AcDbText
 10
2318.687881389436
 20
4595.833489678363
 30
0.0
 40
90.0
  1
A'
  7
STYLE1
100
AcDbText
  0
LINE
  5
15D8E
330
747D
100
AcDbEntity
  8
寸法
 48
50.0
100
AcDbLine
 10
2682.32336155189
 20
3066.101037519868
 30
0.0
 11
2428.189530802985
 21
3066.101037519868
 31
0.0
  0
LINE
  5
15D8F
330
747D
100
AcDbEntity
  8
寸法
 48
50.0
100
AcDbLine
 10
2428.189530802985
 20
3066.101037519868
 30
0.0
 11
2535.922901385965
 21
3037.233967874287
 31
0.0
  0
LINE
  5
15D90
330
747D
100
AcDbEntity
  8
寸法
 48
50.0
100
AcDbLine
 10
2535.922901385965
 20
3037.233967874287
 30
0.0
 11
2535.922901385965
 21
3103.16858679583
 31
0.0
  0
TEXT
  5
15D91
330
747D
100
AcDbEntity
  8
寸法
 62
     7
100
AcDbText
 10
2317.429252530716
 20
3023.873834511964
 30
0.0
 40
90.0
  1
A
  7
STYLE1
100
AcDbText
  0
LINE
  5
15D92
330
747D
100
AcDbEntity
  8
寸法
 48
50.0
100
AcDbLine
 10
2682.32336155189
 20
3066.101037519868
 30
0.0
 11
2682.32336155189
 21
3420.0
 31
0.0
  0
LINE
  5
15FBD
330
747D
100
AcDbEntity
  8
細線
 48
50.0
100
AcDbLine
 10
8780.559468011031
 20
3342.500000000013
 30
0.0
 11
8773.86073820026
 21
3367.500000000013
 31
0.0
  0
LINE
  5
15FBE
330
747D
100
AcDbEntity
  8
細線
 48
50.0
100
AcDbLine
 10
8657.296897780915
 20
3342.500000000013
 30
0.0
 11
8650.598167970143
 21
3367.500000000013
 31
0.0
  0
LINE
  5
15FBF
330
747D
100
AcDbEntity
  8
細線
 48
50.0
100
AcDbLine
 10
8534.034327550857
 20
3342.500000000013
 30
0.0
 11
8527.335597740087
 21
3367.500000000013
 31
0.0
  0
LINE
  5
15FC0
330
747D
100
AcDbEntity
  8
細線
 48
50.0
100
AcDbLine
 10
8410.7717573208
 20
3342.500000000013
 30
0.0
 11
8404.073027510028
 21
3367.500000000013
 31
0.0
  0
LINE
  5
15FC1
330
747D
100
AcDbEntity
  8
細線
 48
50.0
100
AcDbLine
 10
8787.258197821801
 20
3417.500000000013
 30
0.0
 11
8780.559468011031
 21
3442.500000000013
 31
0.0
  0
LINE
  5
15FC2
330
747D
100
AcDbEntity
  8
細線
 48
50.0
100
AcDbLine
 10
8663.995627591685
 20
3417.500000000013
 30
0.0
 11
8657.296897780915
 21
3442.500000000013
 31
0.0
  0
LINE
  5
15FC3
330
747D
100
AcDbEntity
  8
細線
 48
50.0
100
AcDbLine
 10
8417.47048713157
 20
3417.500000000013
 30
0.0
 11
8410.7717573208
 21
3442.500000000013
 31
0.0
  0
LINE
  5
15FC4
330
747D
100
AcDbEntity
  8
細線
 48
50.0
100
AcDbLine
 10
8540.733057361627
 20
3417.500000000013
 30
0.0
 11
8534.034327550857
 21
3442.500000000013
 31
0.0
  0
LINE
  5
15FC5
330
747D
100
AcDbEntity
  8
U7
100
AcDbLine
 10
8707.94636715437
 20
3877.500000000013
 30
0.0
 11
9467.946367154372
 21
3877.500000000013
 31
0.0
  0
HATCH
  5
15FC6
330
747D
100
AcDbEntity
  8
細線
 48
50.0
100
AcDbHatch
 10
0.0
 20
0.0
 30
0.0000000000013153
210
0.0
220
0.0
230
1.0
  2
PLAST
 70
     0
 71
     0
 91
       20
 92
        7
 72
     1
 73
     1
 93
       48
 10
8702.946367154371
 20
3882.500000000013
 42
-0.4142135623730951
 10
8707.94636715437
 20
3887.500000000013
 42
0.0
 10
8712.946367154371
 20
3887.500000000013
 42
0.0
 10
8712.946367154371
 20
3977.500000000013
 42
0.0
 10
8707.94636715437
 20
3977.500000000013
 42
-0.4142135623730951
 10
8702.946367154371
 20
3982.500000000013
 42
-0.4142135623730951
 10
8707.94636715437
 20
3987.500000000013
 42
0.0
 10
8868.396367154382
 20
3987.500000000013
 42
0.0
 10
8868.396367154382
 20
4042.500000000012
 42
0.0
 10
8387.94636715437
 20
4042.500000000012
 42
0.0
 10
8387.94636715437
 20
3492.500000000013
 42
0.0
 10
8868.396367154382
 20
3492.500000000013
 42
0.0
 10
8868.396367154382
 20
3522.500000000013
 42
0.0
 10
8812.946367154371
 20
3522.500000000013
 42
0.0
 10
8812.946367154371
 20
3532.500000000013
 42
0.0
 10
8868.396367154382
 20
3532.500000000013
 42
0.0
 10
8868.396367154382
 20
3557.499999999998
 42
0.0
 10
8572.226818716451
 20
3557.499999999998
 42
0.0
 10
8572.226818716451
 20
3567.500000000027
 42
0.0
 10
8587.946367154371
 20
3567.500000000013
 42
-0.4142135623730909
 10
8582.94636715437
 20
3572.500000000013
 42
-1.0
 10
8592.946367154372
 20
3572.500000000013
 42
-0.4142135623730992
 10
8587.946367154371
 20
3567.500000000013
 42
0.0
 10
8787.94636715437
 20
3567.500000000013
 42
-0.4142135623730951
 10
8782.946367154371
 20
3572.500000000013
 42
-1.0
 10
8792.946367154371
 20
3572.500000000013
 42
-0.4142135623730984
 10
8787.94636715437
 20
3567.500000000013
 42
0.0
 10
8868.396367154382
 20
3567.500000000013
 42
0.0
 10
8868.396367154382
 20
3677.500000000013
 42
0.0
 10
8725.946367154371
 20
3677.500000000013
 42
0.0
 10
8725.946367154371
 20
3647.500000000013
 42
-0.4142135623730951
 10
8682.94636715437
 20
3604.500000000013
 42
0.0
 10
8537.496367154359
 20
3604.500000000013
 42
0.0
 10
8537.496367154359
 20
3617.500000000013
 42
0.0
 10
8682.94636715437
 20
3617.500000000013
 42
0.4142135623730951
 10
8712.946367154371
 20
3647.500000000013
 42
0.0
 10
8712.946367154371
 20
3677.500000000013
 42
0.0
 10
8707.94636715437
 20
3677.500000000013
 42
-0.4142135623730951
 10
8702.946367154371
 20
3682.500000000013
 42
-0.4142135623730951
 10
8707.94636715437
 20
3687.500000000013
 42
0.0
 10
8712.946367154371
 20
3687.500000000013
 42
0.0
 10
8712.946367154371
 20
3777.500000000013
 42
0.0
 10
8707.94636715437
 20
3777.500000000013
 42
-0.4142135623730951
 10
8702.946367154371
 20
3782.500000000013
 42
-0.4142135623730951
 10
8707.94636715437
 20
3787.500000000013
 42
0.0
 10
8712.946367154371
 20
3787.500000000013
 42
0.0
 10
8712.946367154371
 20
3877.500000000013
 42
0.0
 10
8707.94636715437
 20
3877.500000000013
 42
-0.4142135623730951
 97
        0
 92
       23
 72
     0
 73
     1
 93
        4
 10
8868.396367154382
 20
3777.500000000013
 10
8725.946367154371
 20
3777.500000000013
 10
8725.946367154371
 20
3687.500000000013
 10
8868.396367154382
 20
3687.500000000013
 97
        0
 92
       23
 72
     0
 73
     1
 93
        4
 10
8868.396367154382
 20
3877.500000000013
 10
8725.946367154371
 20
3877.500000000013
 10
8725.946367154371
 20
3787.500000000013
 10
8868.396367154382
 20
3787.500000000013
 97
        0
 92
       23
 72
     0
 73
     1
 93
        4
 10
8868.396367154382
 20
3977.500000000013
 10
8725.946367154371
 20
3977.500000000013
 10
8725.946367154371
 20
3887.500000000013
 10
8868.396367154382
 20
3887.500000000013
 97
        0
 92
        7
 72
     0
 73
     1
 93
        4
 10
9087.946367154371
 20
4042.500000000012
 10
8957.496367154361
 20
4042.500000000012
 10
8957.496367154361
 20
3987.500000000013
 10
9087.946367154371
 20
3987.500000000013
 97
        0
 92
        7
 72
     0
 73
     1
 93
        4
 10
9087.946367154371
 20
3977.500000000013
 10
8957.496367154361
 20
3977.500000000013
 10
8957.496367154361
 20
3887.500000000013
 10
9087.946367154371
 20
3887.500000000013
 97
        0
 92
        7
 72
     0
 73
     1
 93
        4
 10
9087.946367154371
 20
3877.500000000013
 10
8957.496367154361
 20
3877.500000000013
 10
8957.496367154361
 20
3787.500000000013
 10
9087.946367154371
 20
3787.500000000013
 97
        0
 92
        7
 72
     0
 73
     1
 93
        4
 10
9087.946367154371
 20
3777.500000000013
 10
8957.496367154361
 20
3777.500000000013
 10
8957.496367154361
 20
3687.500000000013
 10
9087.946367154371
 20
3687.500000000013
 97
        0
 92
        7
 72
     1
 73
     1
 93
        8
 10
9087.946367154371
 20
3677.500000000013
 42
0.0
 10
8957.496367154361
 20
3677.500000000013
 42
0.0
 10
8957.496367154361
 20
3567.500000000027
 42
0.0
 10
8987.94636715437
 20
3567.500000000013
 42
-0.4142135623730918
 10
8982.946367154371
 20
3572.500000000013
 42
-1.0
 10
8992.946367154372
 20
3572.500000000013
 42
-0.4142135623730984
 10
8987.94636715437
 20
3567.500000000013
 42
0.0
 10
9087.946367154371
 20
3567.500000000013
 42
0.0
 97
        0
 92
        7
 72
     0
 73
     1
 93
        8
 10
9087.946367154371
 20
3557.500000000013
 10
8957.496367154361
 20
3557.499999999998
 10
8957.496367154361
 20
3532.500000000013
 10
9012.94636715437
 20
3532.500000000013
 10
9012.94636715437
 20
3522.500000000013
 10
8957.496367154361
 20
3522.500000000013
 10
8957.496367154361
 20
3492.500000000013
 10
9087.946367154371
 20
3492.500000000013
 97
        0
 92
        7
 72
     0
 73
     1
 93
        8
 10
9162.94636715437
 20
3532.500000000013
 10
9218.396367154381
 20
3532.500000000013
 10
9218.396367154381
 20
3557.500000000013
 10
9087.946367154371
 20
3557.500000000013
 10
9087.946367154371
 20
3492.500000000013
 10
9218.396367154381
 20
3492.500000000013
 10
9218.396367154381
 20
3522.500000000013
 10
9162.94636715437
 20
3522.500000000013
 97
        0
 92
        7
 72
     1
 73
     1
 93
        8
 10
9218.396367154381
 20
3677.500000000013
 42
0.0
 10
9087.946367154371
 20
3677.500000000013
 42
0.0
 10
9087.946367154371
 20
3567.500000000013
 42
0.0
 10
9187.946367154371
 20
3567.500000000013
 42
-0.4142135623730885
 10
9182.94636715437
 20
3572.500000000013
 42
-1.0
 10
9192.946367154371
 20
3572.500000000013
 42
-0.4142135623731017
 10
9187.946367154371
 20
3567.500000000013
 42
0.0
 10
9218.396367154381
 20
3567.500000000013
 42
0.0
 97
        0
 92
        7
 72
     0
 73
     1
 93
        4
 10
9218.396367154381
 20
3777.500000000013
 10
9087.946367154371
 20
3777.500000000013
 10
9087.946367154371
 20
3687.500000000013
 10
9218.396367154381
 20
3687.500000000013
 97
        0
 92
        7
 72
     0
 73
     1
 93
        4
 10
9218.396367154381
 20
3877.500000000013
 10
9087.946367154371
 20
3877.500000000013
 10
9087.946367154371
 20
3787.500000000013
 10
9218.396367154381
 20
3787.500000000013
 97
        0
 92
        7
 72
     0
 73
     1
 93
        4
 10
9218.396367154381
 20
3977.500000000013
 10
9087.946367154371
 20
3977.500000000013
 10
9087.946367154371
 20
3887.500000000013
 10
9218.396367154381
 20
3887.500000000013
 97
        0
 92
        7
 72
     0
 73
     1
 93
        4
 10
9218.396367154381
 20
4042.500000000012
 10
9087.946367154371
 20
4042.500000000012
 10
9087.946367154371
 20
3987.500000000013
 10
9218.396367154381
 20
3987.500000000013
 97
        0
 92
        7
 72
     1
 73
     1
 93
       48
 10
9787.94636715437
 20
4042.500000000012
 42
0.0
 10
9307.49636715436
 20
4042.500000000012
 42
0.0
 10
9307.49636715436
 20
3987.500000000013
 42
0.0
 10
9467.946367154372
 20
3987.500000000013
 42
-0.4142135623730951
 10
9472.946367154371
 20
3982.500000000013
 42
-0.4142135623730951
 10
9467.946367154372
 20
3977.500000000013
 42
0.0
 10
9462.946367154371
 20
3977.500000000013
 42
0.0
 10
9462.946367154371
 20
3887.500000000013
 42
0.0
 10
9467.946367154372
 20
3887.500000000013
 42
-0.4142135623730951
 10
9472.946367154371
 20
3882.500000000013
 42
-0.4142135623730951
 10
9467.946367154372
 20
3877.500000000013
 42
0.0
 10
9462.946367154371
 20
3877.500000000013
 42
0.0
 10
9462.946367154371
 20
3787.500000000013
 42
0.0
 10
9467.946367154372
 20
3787.500000000013
 42
-0.4142135623730951
 10
9472.946367154371
 20
3782.500000000013
 42
-0.4142135623730951
 10
9467.946367154372
 20
3777.500000000013
 42
0.0
 10
9462.946367154371
 20
3777.500000000013
 42
0.0
 10
9462.946367154371
 20
3687.500000000013
 42
0.0
 10
9467.946367154372
 20
3687.500000000013
 42
-0.4142135623730951
 10
9472.946367154371
 20
3682.500000000013
 42
-0.4142135623730951
 10
9467.946367154372
 20
3677.500000000013
 42
0.0
 10
9462.946367154371
 20
3677.500000000013
 42
0.0
 10
9462.946367154486
 20
3647.500000000013
 42
0.4142135623730951
 10
9492.946367154488
 20
3617.500000000013
 42
0.0
 10
9638.396367154498
 20
3617.500000000013
 42
0.0
 10
9638.396367154498
 20
3604.500000000013
 42
0.0
 10
9492.946367154488
 20
3604.500000000013
 42
-0.4142135623730951
 10
9449.946367154486
 20
3647.500000000013
 42
0.0
 10
9449.946367154486
 20
3677.500000000013
 42
0.0
 10
9307.49636715436
 20
3677.500000000013
 42
0.0
 10
9307.49636715436
 20
3567.500000000013
 42
0.0
 10
9387.94636715437
 20
3567.500000000013
 42
-0.4142135623730885
 10
9382.946367154371
 20
3572.500000000013
 42
-1.0
 10
9392.946367154371
 20
3572.500000000013
 42
-0.4142135623731017
 10
9387.94636715437
 20
3567.500000000013
 42
0.0
 10
9587.946367154371
 20
3567.500000000013
 42
-0.4142135623730951
 10
9582.94636715437
 20
3572.500000000013
 42
-1.0
 10
9592.946367154372
 20
3572.500000000013
 42
-0.4142135623731017
 10
9587.946367154371
 20
3567.500000000013
 42
0.0
 10
9603.665915592291
 20
3567.500000000013
 42
0.0
 10
9603.665915592291
 20
3557.500000000013
 42
0.0
 10
9307.49636715436
 20
3557.500000000013
 42
0.0
 10
9307.49636715436
 20
3532.500000000013
 42
0.0
 10
9362.94636715437
 20
3532.500000000013
 42
0.0
 10
9362.94636715437
 20
3522.500000000013
 42
0.0
 10
9307.49636715436
 20
3522.500000000013
 42
0.0
 10
9307.49636715436
 20
3492.500000000013
 42
0.0
 10
9787.94636715437
 20
3492.500000000013
 42
0.0
 97
        0
 92
       23
 72
     0
 73
     1
 93
        4
 10
9449.946367154371
 20
3977.500000000013
 10
9307.49636715436
 20
3977.500000000013
 10
9307.49636715436
 20
3887.500000000013
 10
9449.946367154371
 20
3887.500000000013
 97
        0
 92
       23
 72
     0
 73
     1
 93
        4
 10
9449.946367154371
 20
3877.500000000013
 10
9307.49636715436
 20
3877.500000000013
 10
9307.49636715436
 20
3787.500000000013
 10
9449.946367154371
 20
3787.500000000013
 97
        0
 92
       23
 72
     0
 73
     1
 93
        4
 10
9449.946367154371
 20
3777.500000000013
 10
9307.49636715436
 20
3777.500000000013
 10
9307.49636715436
 20
3687.500000000013
 10
9449.946367154371
 20
3687.500000000013
 97
        0
 75
     0
 76
     1
 52
135.0
 41
37.5
 77
     0
 78
     3
 53
135.0
 43
-263164.6452029067
 44
111853.33008217
 45
-168.3798022700466
 46
-168.3798022700466
 79
     0
 53
135.0
 43
-263185.6926781904
 44
111832.2826068863
 45
-168.3798022700466
 46
-168.3798022700466
 79
     0
 53
135.0
 43
-263206.7401534742
 44
111811.2351316025
 45
-168.3798022700466
 46
-168.3798022700466
 79
     0
 47
2.128691110052188
 98
       20
 10
8576.969724621223
 20
3877.885959821533
 10
8815.491571243162
 20
3737.392469596422
 10
8819.750929809591
 20
3826.797360720679
 10
8813.361752391159
 20
3914.073848603074
 10
9030.587085318293
 20
4009.864998134186
 10
9039.105802451208
 20
3928.974558922359
 10
9039.105802451208
 20
3833.183409391275
 10
9039.105802451208
 20
3735.263646882069
 10
9043.364881880181
 20
3622.442964317377
 10
9058.272497294071
 20
3533.038073193091
 10
9109.38452095411
 20
3528.780637500617
 10
9141.329291496374
 20
3611.799689690566
 10
9164.755624043122
 20
3733.135033903947
 10
9160.496265476693
 20
3833.183409391275
 10
9147.71818977729
 20
3926.845945944237
 10
9166.885163757667
 20
4011.993611112279
 10
9377.721319266312
 20
4018.379659782875
 10
9381.980677832798
 20
3909.816412910628
 10
9405.407010379603
 20
3824.668747742586
 10
9403.277191527603
 20
3731.006420925825
1001
GradientColor1ACI
1070
     5
1001
GradientColor2ACI
1070
     2
1001
ACAD
1010
0.0
1020
0.0
1030
0.0
  0
LINE
  5
15FC7
330
747D
100
AcDbEntity
  8
U7
100
AcDbLine
 10
8812.946367154371
 20
3532.500000000013
 30
0.0
 11
8812.946367154371
 21
3522.500000000013
 31
0.0
  0
LINE
  5
15FC8
330
747D
100
AcDbEntity
  8
U7
100
AcDbLine
 10
9012.94636715437
 20
3532.500000000013
 30
0.0
 11
9012.94636715437
 21
3522.500000000013
 31
0.0
  0
LINE
  5
15FC9
330
747D
100
AcDbEntity
  8
U7
100
AcDbLine
 10
9012.94636715437
 20
3522.500000000013
 30
0.0
 11
8812.946367154371
 21
3522.500000000013
 31
0.0
  0
LINE
  5
15FCA
330
747D
100
AcDbEntity
  8
U7
100
AcDbLine
 10
9012.94636715437
 20
3532.500000000013
 30
0.0
 11
8812.946367154371
 21
3532.500000000013
 31
0.0
  0
CIRCLE
  5
15FCB
330
747D
100
AcDbEntity
  8
U7
100
AcDbCircle
 10
8707.94636715437
 20
3982.500000000013
 30
0.0
 40
5.0
  0
CIRCLE
  5
15FCC
330
747D
100
AcDbEntity
  8
U7
100
AcDbCircle
 10
9467.946367154372
 20
3982.500000000013
 30
0.0
 40
5.0
  0
LINE
  5
15FCD
330
747D
100
AcDbEntity
  8
U7
100
AcDbLine
 10
8707.94636715437
 20
3977.500000000013
 30
0.0
 11
9467.946367154372
 21
3977.500000000013
 31
0.0
  0
LINE
  5
15FCE
330
747D
100
AcDbEntity
  8
U7
100
AcDbLine
 10
8707.94636715437
 20
3987.500000000013
 30
0.0
 11
9467.946367154372
 21
3987.500000000013
 31
0.0
  0
CIRCLE
  5
15FCF
330
747D
100
AcDbEntity
  8
U7
100
AcDbCircle
 10
8707.94636715437
 20
3882.500000000013
 30
0.0
 40
5.0
  0
CIRCLE
  5
15FD0
330
747D
100
AcDbEntity
  8
U7
100
AcDbCircle
 10
9467.946367154372
 20
3882.500000000013
 30
0.0
 40
5.0
  0
CIRCLE
  5
15FD1
330
747D
100
AcDbEntity
  8
U7
100
AcDbCircle
 10
8707.94636715437
 20
3782.500000000013
 30
0.0
 40
5.0
  0
LINE
  5
15FD2
330
747D
100
AcDbEntity
  8
U7
100
AcDbLine
 10
8707.94636715437
 20
3887.500000000013
 30
0.0
 11
9467.946367154372
 21
3887.500000000013
 31
0.0
  0
CIRCLE
  5
15FD3
330
747D
100
AcDbEntity
  8
U7
100
AcDbCircle
 10
9467.946367154372
 20
3782.500000000013
 30
0.0
 40
5.0
  0
LINE
  5
15FD4
330
747D
100
AcDbEntity
  8
U7
100
AcDbLine
 10
8707.94636715437
 20
3777.500000000013
 30
0.0
 11
9467.946367154372
 21
3777.500000000013
 31
0.0
  0
LINE
  5
15FD5
330
747D
100
AcDbEntity
  8
U7
100
AcDbLine
 10
8707.94636715437
 20
3787.500000000013
 30
0.0
 11
9467.946367154372
 21
3787.500000000013
 31
0.0
  0
CIRCLE
  5
15FD6
330
747D
100
AcDbEntity
  8
U7
100
AcDbCircle
 10
9467.946367154372
 20
3682.500000000013
 30
0.0
 40
5.0
  0
CIRCLE
  5
15FD7
330
747D
100
AcDbEntity
  8
U7
100
AcDbCircle
 10
8707.94636715437
 20
3682.500000000013
 30
0.0
 40
5.0
  0
LINE
  5
15FD8
330
747D
100
AcDbEntity
  8
U7
100
AcDbLine
 10
8707.94636715437
 20
3687.500000000013
 30
0.0
 11
9467.946367154372
 21
3687.500000000013
 31
0.0
  0
LINE
  5
15FD9
330
747D
100
AcDbEntity
  8
U7
100
AcDbLine
 10
8707.94636715437
 20
3677.500000000013
 30
0.0
 11
9467.946367154372
 21
3677.500000000013
 31
0.0
  0
LINE
  5
15FDA
330
747D
100
AcDbEntity
  8
KIN-T
100
AcDbLine
 10
9638.396367154498
 20
3604.500000000013
 30
0.0
 11
9492.946367154488
 21
3604.500000000013
 31
0.0
  0
LINE
  5
15FDB
330
747D
100
AcDbEntity
  8
KIN-T
100
AcDbLine
 10
9638.396367154498
 20
3617.500000000013
 30
0.0
 11
9638.396367154498
 21
3604.500000000013
 31
0.0
  0
LINE
  5
15FDC
330
747D
100
AcDbEntity
  8
KIN-T
100
AcDbLine
 10
9449.946367154371
 20
3987.500000000013
 30
0.0
 11
9462.946367154371
 21
3987.500000000013
 31
0.0
  0
ARC
  5
15FDD
330
747D
100
AcDbEntity
  8
KIN-T
100
AcDbCircle
 10
9492.946367154488
 20
3647.500000000013
 30
0.0
 40
43.0
100
AcDbArc
 50
180.0
 51
270.0
  0
ARC
  5
15FDE
330
747D
100
AcDbEntity
  8
KIN-T
100
AcDbCircle
 10
9492.946367154488
 20
3647.500000000013
 30
0.0
 40
30.0
100
AcDbArc
 50
180.0
 51
270.0
  0
LINE
  5
15FDF
330
747D
100
AcDbEntity
  8
KIN-T
100
AcDbLine
 10
9449.946367154371
 20
3987.500000000013
 30
0.0
 11
9449.946367154371
 21
3647.500000000013
 31
0.0
  0
LINE
  5
15FE0
330
747D
100
AcDbEntity
  8
KIN-T
100
AcDbLine
 10
9462.946367154371
 20
3987.500000000013
 30
0.0
 11
9462.946367154371
 21
3647.500000000013
 31
0.0
  0
ARC
  5
15FE1
330
747D
100
AcDbEntity
  8
KIN-T
100
AcDbCircle
 10
8682.94636715437
 20
3647.500000000013
 30
0.0
 40
43.0
100
AcDbArc
 50
270.0
 51
0.0
  0
LINE
  5
15FE2
330
747D
100
AcDbEntity
  8
KIN-T
100
AcDbLine
 10
9638.396367154498
 20
3617.500000000013
 30
0.0
 11
9492.946367154488
 21
3617.500000000013
 31
0.0
  0
LINE
  5
15FE3
330
747D
100
AcDbEntity
  8
KIN-T
100
AcDbLine
 10
8537.496367154359
 20
3617.500000000013
 30
0.0
 11
8537.496367154359
 21
3604.500000000013
 31
0.0
  0
LINE
  5
15FE4
330
747D
100
AcDbEntity
  8
KIN-T
100
AcDbLine
 10
8537.496367154359
 20
3604.500000000013
 30
0.0
 11
8682.94636715437
 21
3604.500000000013
 31
0.0
  0
LINE
  5
15FE5
330
747D
100
AcDbEntity
  8
KIN-T
100
AcDbLine
 10
8712.946367154371
 20
3987.500000000013
 30
0.0
 11
8725.946367154371
 21
3987.500000000013
 31
0.0
  0
ARC
  5
15FE6
330
747D
100
AcDbEntity
  8
KIN-T
100
AcDbCircle
 10
8682.94636715437
 20
3647.500000000013
 30
0.0
 40
30.0
100
AcDbArc
 50
270.0
 51
0.0
  0
LINE
  5
15FE7
330
747D
100
AcDbEntity
  8
KIN-T
100
AcDbLine
 10
8725.946367154371
 20
3987.500000000013
 30
0.0
 11
8725.946367154371
 21
3647.500000000013
 31
0.0
  0
LINE
  5
15FE8
330
747D
100
AcDbEntity
  8
部品1
 48
50.0
100
AcDbLine
 10
8572.226818716451
 20
3567.500000000027
 30
0.0
 11
9603.665915592291
 21
3567.500000000013
 31
0.0
  0
LINE
  5
15FE9
330
747D
100
AcDbEntity
  8
KIN-T
100
AcDbLine
 10
8712.946367154371
 20
3987.500000000013
 30
0.0
 11
8712.946367154371
 21
3647.500000000013
 31
0.0
  0
LINE
  5
15FEA
330
747D
100
AcDbEntity
  8
KIN-T
100
AcDbLine
 10
8537.496367154359
 20
3617.500000000013
 30
0.0
 11
8682.94636715437
 21
3617.500000000013
 31
0.0
  0
CIRCLE
  5
15FEB
330
747D
100
AcDbEntity
  8
部品1
 48
50.0
100
AcDbCircle
 10
9587.946367154371
 20
3572.500000000013
 30
0.0
 40
5.0
  0
LINE
  5
15FEC
330
747D
100
AcDbEntity
  8
部品1
 48
50.0
100
AcDbLine
 10
9603.665915592291
 20
3567.500000000013
 30
0.0
 11
9603.665915592291
 21
3557.500000000013
 31
0.0
  0
CIRCLE
  5
15FED
330
747D
100
AcDbEntity
  8
部品1
 48
50.0
100
AcDbCircle
 10
8787.94636715437
 20
3572.500000000013
 30
0.0
 40
5.0
  0
CIRCLE
  5
15FEE
330
747D
100
AcDbEntity
  8
部品1
 48
50.0
100
AcDbCircle
 10
8987.94636715437
 20
3572.500000000013
 30
0.0
 40
5.0
  0
CIRCLE
  5
15FEF
330
747D
100
AcDbEntity
  8
部品1
 48
50.0
100
AcDbCircle
 10
9187.946367154371
 20
3572.500000000013
 30
0.0
 40
5.0
  0
CIRCLE
  5
15FF0
330
747D
100
AcDbEntity
  8
部品1
 48
50.0
100
AcDbCircle
 10
9387.94636715437
 20
3572.500000000013
 30
0.0
 40
5.0
  0
LINE
  5
15FF1
330
747D
100
AcDbEntity
  8
部品1
 48
50.0
100
AcDbLine
 10
8572.226818716451
 20
3557.499999999998
 30
0.0
 11
9603.665915592291
 21
3557.500000000013
 31
0.0
  0
HATCH
  5
15FF2
330
747D
100
AcDbEntity
  8
細線
 48
50.0
100
AcDbHatch
 10
0.0
 20
0.0
 30
0.0000000000013153
210
0.0
220
0.0
230
1.0
  2
PLAST
 70
     0
 71
     0
 91
        4
 92
        7
 72
     0
 73
     1
 93
        4
 10
8912.94636715437
 20
3492.500000000013
 10
8307.94636715437
 20
3492.500000000013
 10
8307.94636715437
 20
3442.500000000013
 10
8912.94636715437
 20
3442.500000000013
 97
        0
 92
        7
 72
     0
 73
     1
 93
        4
 10
9087.946367154371
 20
3492.500000000013
 10
8912.94636715437
 20
3492.500000000013
 10
8912.94636715437
 20
3442.500000000013
 10
9087.946367154371
 20
3442.500000000013
 97
        0
 92
        7
 72
     0
 73
     1
 93
        4
 10
9262.94636715437
 20
3492.500000000013
 10
9087.946367154371
 20
3492.500000000013
 10
9087.946367154371
 20
3442.500000000013
 10
9262.94636715437
 20
3442.500000000013
 97
        0
 92
        7
 72
     0
 73
     1
 93
        4
 10
9867.946367154372
 20
3492.500000000013
 10
9262.94636715437
 20
3492.500000000013
 10
9262.94636715437
 20
3442.500000000013
 10
9867.946367154372
 20
3442.500000000013
 97
        0
 75
     0
 76
     1
 52
45.0
 41
37.5
 77
     0
 78
     3
 53
45.0
 43
-263164.6452029067
 44
111853.33008217
 45
-168.3798022700466
 46
168.3798022700466
 79
     0
 53
45.0
 43
-263185.6926781904
 44
111874.3775574538
 45
-168.3798022700466
 46
168.3798022700466
 79
     0
 53
45.0
 43
-263206.7401534742
 44
111895.4250327375
 45
-168.3798022700466
 46
168.3798022700466
 79
     0
 47
3.405378208606371
 98
        4
 10
8815.564984396223
 20
3457.812190027484
 10
8968.876770416922
 20
3468.028231957824
 10
9176.699357861952
 20
3457.812190027484
 10
9367.48702327838
 20
3461.21746742552
1001
GradientColor1ACI
1070
     5
1001
GradientColor2ACI
1070
     2
1001
ACAD
1010
0.0
1020
0.0
1030
0.0
  0
LINE
  5
15FF3
330
747D
100
AcDbEntity
  8
細線
 48
50.0
100
AcDbLine
 10
8397.374297699258
 20
3342.500000000013
 30
0.0000000000013153
 11
8424.16921694234
 21
3442.499999999983
 31
0.0000000000013153
1001
GradientColor1ACI
1070
     5
1001
GradientColor2ACI
1070
     2
1001
ACAD
1010
0.0
1020
0.0
1030
0.0
  0
LINE
  5
15FF4
330
747D
100
AcDbEntity
  8
細線
 48
50.0
100
AcDbLine
 10
8520.636867929374
 20
3342.500000000013
 30
0.0000000000013153
 11
8547.431787172456
 21
3442.500000000013
 31
0.0000000000013153
1001
GradientColor1ACI
1070
     5
1001
GradientColor2ACI
1070
     2
1001
ACAD
1010
0.0
1020
0.0
1030
0.0
  0
LINE
  5
15FF5
330
747D
100
AcDbEntity
  8
細線
 48
50.0
100
AcDbLine
 10
8643.899438159373
 20
3342.500000000013
 30
0.0000000000013153
 11
8670.694357402513
 21
3442.500000000013
 31
0.0000000000013153
1001
GradientColor1ACI
1070
     5
1001
GradientColor2ACI
1070
     2
1001
ACAD
1010
0.0
1020
0.0
1030
0.0
  0
LINE
  5
15FF6
330
747D
100
AcDbEntity
  8
細線
 48
50.0
100
AcDbLine
 10
8767.162008389489
 20
3342.500000000013
 30
0.0000000000013153
 11
8793.956927632571
 21
3442.500000000013
 31
0.0000000000013153
1001
GradientColor1ACI
1070
     5
1001
GradientColor2ACI
1070
     2
1001
ACAD
1010
0.0
1020
0.0
1030
0.0
  0
LINE
  5
15FF7
330
747D
100
AcDbEntity
  8
細線
 48
50.0
100
AcDbLine
 10
8890.424578619605
 20
3342.500000000013
 30
0.0000000000013153
 11
8917.219497862687
 21
3442.500000000013
 31
0.0000000000013153
1001
GradientColor1ACI
1070
     5
1001
GradientColor2ACI
1070
     2
1001
ACAD
1010
0.0
1020
0.0
1030
0.0
  0
LINE
  5
15FF8
330
747D
100
AcDbEntity
  8
細線
 48
50.0
100
AcDbLine
 10
9013.687148849603
 20
3342.500000000013
 30
0.0000000000013153
 11
9040.482068092744
 21
3442.500000000013
 31
0.0000000000013153
1001
GradientColor1ACI
1070
     5
1001
GradientColor2ACI
1070
     2
1001
ACAD
1010
0.0
1020
0.0
1030
0.0
  0
LINE
  5
15FF9
330
747D
100
AcDbEntity
  8
細線
 48
50.0
100
AcDbLine
 10
9136.949719079719
 20
3342.500000000013
 30
0.0000000000013153
 11
9163.744638322802
 21
3442.500000000013
 31
0.0000000000013153
1001
GradientColor1ACI
1070
     5
1001
GradientColor2ACI
1070
     2
1001
ACAD
1010
0.0
1020
0.0
1030
0.0
  0
LINE
  5
15FFA
330
747D
100
AcDbEntity
  8
細線
 48
50.0
100
AcDbLine
 10
9260.212289309835
 20
3342.500000000013
 30
0.0000000000013153
 11
9287.007208552918
 21
3442.500000000013
 31
0.0000000000013153
1001
GradientColor1ACI
1070
     5
1001
GradientColor2ACI
1070
     2
1001
ACAD
1010
0.0
1020
0.0
1030
0.0
  0
LINE
  5
15FFB
330
747D
100
AcDbEntity
  8
細線
 48
50.0
100
AcDbLine
 10
9383.474859539834
 20
3342.500000000028
 30
0.0000000000013153
 11
9410.269778782975
 21
3442.500000000013
 31
0.0000000000013153
1001
GradientColor1ACI
1070
     5
1001
GradientColor2ACI
1070
     2
1001
ACAD
1010
0.0
1020
0.0
1030
0.0
  0
LINE
  5
15FFC
330
747D
100
AcDbEntity
  8
細線
 48
50.0
100
AcDbLine
 10
9506.73742976995
 20
3342.500000000013
 30
0.0000000000013153
 11
9533.532349013032
 21
3442.500000000027
 31
0.0000000000013153
1001
GradientColor1ACI
1070
     5
1001
GradientColor2ACI
1070
     2
1001
ACAD
1010
0.0
1020
0.0
1030
0.0
  0
LINE
  5
15FFD
330
747D
100
AcDbEntity
  8
細線
 48
50.0
100
AcDbLine
 10
9630.000000000007
 20
3342.500000000028
 30
0.0000000000013153
 11
9656.794919243148
 21
3442.500000000013
 31
0.0000000000013153
1001
GradientColor1ACI
1070
     5
1001
GradientColor2ACI
1070
     2
1001
ACAD
1010
0.0
1020
0.0
1030
0.0
  0
LINE
  5
15FFE
330
747D
100
AcDbEntity
  8
細線
 48
50.0
100
AcDbLine
 10
9753.262570230065
 20
3342.500000000013
 30
0.0000000000013153
 11
9780.057489473206
 21
3442.500000000013
 31
0.0000000000013153
1001
GradientColor1ACI
1070
     5
1001
GradientColor2ACI
1070
     2
1001
ACAD
1010
0.0
1020
0.0
1030
0.0
  0
LINE
  5
15FFF
330
747D
100
AcDbEntity
  8
部品1
 48
50.0
100
AcDbLine
 10
9867.946367154372
 20
3442.500000000013
 30
0.0
 11
8307.94636715437
 21
3442.500000000013
 31
0.0
  0
LINE
  5
16000
330
747D
100
AcDbEntity
  8
文字
 48
50.0
100
AcDbLine
 10
9505.535993328559
 20
2429.312127828233
 30
0.0
 11
9505.535993328559
 21
2206.187127828233
 31
0.0
  0
LINE
  5
16001
330
747D
100
AcDbEntity
  8
文字
 48
50.0
100
AcDbLine
 10
8670.356740980183
 20
2429.312127828233
 30
0.0
 11
8670.356740980183
 21
2206.187127828233
 31
0.0
  0
TEXT
  5
16002
330
747D
100
AcDbEntity
  8
文字
 62
     7
 48
50.0
100
AcDbText
 10
8736.941548392882
 20
2263.670668801597
 30
0.0
 40
112.5
  1
A-A' 断面
  7
STYLE2
100
AcDbText
  0
LINE
  5
16003
330
747D
100
AcDbEntity
  8
文字
 48
50.0
100
AcDbLine
 10
8670.356740980183
 20
2206.187127828233
 30
0.0
 11
9505.535993328559
 21
2206.187127828233
 31
0.0
  0
LINE
  5
16004
330
747D
100
AcDbEntity
  8
文字
 48
50.0
100
AcDbLine
 10
8670.356740980183
 20
2429.312127828233
 30
0.0
 11
9505.535993328559
 21
2429.312127828233
 31
0.0
  0
LINE
  5
16005
330
747D
100
AcDbEntity
  8
部品1
 48
50.0
100
AcDbLine
 10
8957.496367154361
 20
3492.500000000013
 30
0.0
 11
8868.396367154382
 21
3492.500000000013
 31
0.0
  0
LINE
  5
16006
330
747D
100
AcDbEntity
  8
細線
 48
50.0
100
AcDbLine
 10
7941.830962007582
 20
3942.500000000041
 30
0.0000000000013153
 11
7968.625881250663
 21
4042.500000000027
 31
0.0000000000013153
1001
GradientColor1ACI
1070
     5
1001
GradientColor2ACI
1070
     2
1001
ACAD
1010
0.0
1020
0.0
1030
0.0
  0
LINE
  5
16007
330
747D
100
AcDbEntity
  8
細線
 48
50.0
100
AcDbLine
 10
8065.093532237639
 20
3942.500000000057
 30
0.0000000000013153
 11
8091.888451480722
 21
4042.500000000012
 31
0.0000000000013153
1001
GradientColor1ACI
1070
     5
1001
GradientColor2ACI
1070
     2
1001
ACAD
1010
0.0
1020
0.0
1030
0.0
  0
LINE
  5
16008
330
747D
100
AcDbEntity
  8
細線
 48
50.0
100
AcDbLine
 10
8188.356102467697
 20
3942.500000000041
 30
0.0000000000013153
 11
8215.151021710836
 21
4042.500000000012
 31
0.0000000000013153
1001
GradientColor1ACI
1070
     5
1001
GradientColor2ACI
1070
     2
1001
ACAD
1010
0.0
1020
0.0
1030
0.0
  0
LINE
  5
16009
330
747D
100
AcDbEntity
  8
細線
 48
50.0
100
AcDbLine
 10
8311.618672697813
 20
3942.500000000027
 30
0.0000000000013153
 11
8338.413591940895
 21
4042.500000000012
 31
0.0000000000013153
1001
GradientColor1ACI
1070
     5
1001
GradientColor2ACI
1070
     2
1001
ACAD
1010
0.0
1020
0.0
1030
0.0
  0
LINE
  5
1600A
330
747D
100
AcDbEntity
  8
細線
 48
50.0
100
AcDbLine
 10
9790.769515458677
 20
3942.499999999983
 30
0.0000000000013153
 11
9817.564434701818
 21
4042.500000000012
 31
0.0000000000013153
1001
GradientColor1ACI
1070
     5
1001
GradientColor2ACI
1070
     2
1001
ACAD
1010
0.0
1020
0.0
1030
0.0
  0
LINE
  5
1600B
330
747D
100
AcDbEntity
  8
細線
 48
50.0
100
AcDbLine
 10
9914.032085688734
 20
3942.500000000027
 30
0.0000000000013153
 11
9940.827004931875
 21
4042.500000000012
 31
0.0000000000013153
1001
GradientColor1ACI
1070
     5
1001
GradientColor2ACI
1070
     2
1001
ACAD
1010
0.0
1020
0.0
1030
0.0
  0
LINE
  5
1600C
330
747D
100
AcDbEntity
  8
細線
 48
50.0
100
AcDbLine
 10
10037.29465591885
 20
3942.500000000041
 30
0.0000000000013153
 11
10064.08957516193
 21
4042.500000000012
 31
0.0000000000013153
1001
GradientColor1ACI
1070
     5
1001
GradientColor2ACI
1070
     2
1001
ACAD
1010
0.0
1020
0.0
1030
0.0
  0
LINE
  5
1600D
330
747D
100
AcDbEntity
  8
細線
 48
50.0
100
AcDbLine
 10
10160.5572261489
 20
3942.500000000027
 30
0.0000000000013153
 11
10187.35214539205
 21
4042.500000000012
 31
0.0000000000013153
1001
GradientColor1ACI
1070
     5
1001
GradientColor2ACI
1070
     2
1001
ACAD
1010
0.0
1020
0.0
1030
0.0
  0
LINE
  5
1600E
330
747D
100
AcDbEntity
  8
細線
 48
50.0
100
AcDbLine
 10
10283.81979637896
 20
3942.500000000041
 30
0.0000000000013153
 11
10287.94636715437
 21
3957.900571794946
 31
0.0000000000013153
1001
GradientColor1ACI
1070
     5
1001
GradientColor2ACI
1070
     2
1001
ACAD
1010
0.0
1020
0.0
1030
0.0
  0
LINE
  5
1600F
330
747D
100
AcDbEntity
  8
部品1
 48
50.0
100
AcDbLine
 10
9787.94636715437
 20
3492.500000000013
 30
0.0
 11
9787.94636715437
 21
4042.500000000012
 31
0.0
  0
LINE
  5
16010
330
747D
100
AcDbEntity
  8
センター
 48
10.0
100
AcDbLine
 10
8912.94636715437
 20
4566.972832855054
 30
0.0
 11
8912.94636715437
 21
3431.442168170133
 31
0.0
  0
LINE
  5
16011
330
747D
100
AcDbEntity
  8
部品1
 48
50.0
100
AcDbLine
 10
8387.94636715437
 20
4042.500000000012
 30
0.0
 11
8387.94636715437
 21
3492.500000000013
 31
0.0
  0
HATCH
  5
16012
330
747D
100
AcDbEntity
  8
細線
 48
50.0
100
AcDbHatch
 10
0.0
 20
0.0
 30
0.0000000000013153
210
0.0
220
0.0
230
1.0
  2
PLAST
 70
     0
 71
     0
 91
        3
 92
        7
 72
     0
 73
     1
 93
        6
 10
8868.396367154382
 20
4156.500000000012
 10
8854.396367154382
 20
4156.500000000012
 10
8840.396367154381
 20
4142.500000000012
 10
7887.946367154312
 20
4142.500000000012
 10
7887.94636715437
 20
4042.500000000012
 10
8868.396367154382
 20
4042.500000000012
 97
        0
 92
        7
 72
     0
 73
     1
 93
        8
 10
9218.396367154381
 20
4156.500000000012
 10
9204.396367154382
 20
4156.500000000012
 10
9190.396367154383
 20
4142.499999999998
 10
8985.496367154359
 20
4142.500000000012
 10
8971.496367154417
 20
4156.500000000012
 10
8957.496367154361
 20
4156.500000000012
 10
8957.496367154361
 20
4042.500000000012
 10
9218.396367154381
 20
4042.500000000012
 97
        0
 92
        7
 72
     0
 73
     1
 93
        6
 10
10287.94636715443
 20
4142.500000000012
 10
9335.496367154359
 20
4142.500000000012
 10
9321.496367154416
 20
4156.500000000012
 10
9307.49636715436
 20
4156.500000000012
 10
9307.49636715436
 20
4042.500000000012
 10
10287.94636715443
 20
4042.500000000012
 97
        0
 75
     0
 76
     1
 52
45.0
 41
37.5
 77
     0
 78
     3
 53
45.0
 43
-263164.6452029067
 44
111853.33008217
 45
-168.3798022700466
 46
168.3798022700466
 79
     0
 53
45.0
 43
-263185.6926781904
 44
111874.3775574538
 45
-168.3798022700466
 46
168.3798022700466
 79
     0
 53
45.0
 43
-263206.7401534742
 44
111895.4250327375
 45
-168.3798022700466
 46
168.3798022700466
 79
     0
 47
3.420167112779795
 98
        3
 10
8372.780390410401
 20
4104.277970910987
 10
9084.498578606938
 20
4080.336790219399
 10
9477.996707948689
 20
4090.597296230071
1001
GradientColor1ACI
1070
     5
1001
GradientColor2ACI
1070
     2
1001
ACAD
1010
0.0
1020
0.0
1030
0.0
  0
LINE
  5
16013
330
747D
100
AcDbEntity
  8
部品1
 48
50.0
100
AcDbLine
 10
8957.496367154361
 20
4488.433095944927
 30
0.0
 11
8957.496367154361
 21
3492.500000000013
 31
0.0
  0
LINE
  5
16014
330
747D
100
AcDbEntity
  8
部品1
 48
50.0
100
AcDbLine
 10
8868.396367154382
 20
4488.433095944927
 30
0.0
 11
8868.396367154382
 21
3492.500000000013
 31
0.0
  0
LINE
  5
16015
330
747D
100
AcDbEntity
  8
部品1
 48
50.0
100
AcDbLine
 10
9867.946367154372
 20
3492.500000000013
 30
0.0
 11
8307.94636715437
 21
3492.500000000013
 31
0.0
  0
LINE
  5
16016
330
747D
100
AcDbEntity
  8
部品1
 48
50.0
100
AcDbLine
 10
9190.396367154383
 20
4142.499999999998
 30
0.0
 11
8985.496367154359
 21
4142.500000000012
 31
0.0
  0
LINE
  5
16017
330
747D
100
AcDbEntity
  8
部品1
 48
50.0
100
AcDbLine
 10
9218.396367154381
 20
4042.500000000012
 30
0.0
 11
8957.496367154361
 21
4042.500000000012
 31
0.0
  0
LINE
  5
16018
330
747D
100
AcDbEntity
  8
部品1
 48
50.0
100
AcDbLine
 10
8387.94636715437
 20
3942.500000000013
 30
0.0
 11
7887.94636715437
 21
3942.500000000041
 31
0.0
  0
LINE
  5
16019
330
747D
100
AcDbEntity
  8
部品1
 48
50.0
100
AcDbLine
 10
9867.946367154372
 20
3342.500000000013
 30
0.0
 11
8307.94636715437
 21
3342.500000000013
 31
0.0
  0
LINE
  5
1601A
330
747D
100
AcDbEntity
  8
部品1
 48
50.0
100
AcDbLine
 10
8854.396367154382
 20
4156.500000000012
 30
0.0
 11
8840.396367154381
 21
4142.500000000012
 31
0.0
  0
LINE
  5
1601B
330
747D
100
AcDbEntity
  8
部品1
 48
50.0
100
AcDbLine
 10
8854.396367154382
 20
4156.500000000012
 30
0.0
 11
8868.396367154382
 21
4156.500000000012
 31
0.0
  0
LINE
  5
1601C
330
747D
100
AcDbEntity
  8
部品1
 48
50.0
100
AcDbLine
 10
8957.496367154361
 20
4156.500000000012
 30
0.0
 11
8971.49636715436
 21
4156.500000000012
 31
0.0
  0
LINE
  5
1601D
330
747D
100
AcDbEntity
  8
部品1
 48
50.0
100
AcDbLine
 10
8971.496367154417
 20
4156.500000000012
 30
0.0
 11
8985.496367154359
 21
4142.500000000012
 31
0.0
  0
LINE
  5
1601E
330
747D
100
AcDbEntity
  8
部品1
 48
50.0
100
AcDbLine
 10
8840.396367154381
 20
4142.500000000012
 30
0.0
 11
7887.946367154312
 21
4142.500000000012
 31
0.0
  0
LINE
  5
1601F
330
747D
100
AcDbEntity
  8
部品1
 48
50.0
100
AcDbLine
 10
8868.396367154382
 20
4042.500000000012
 30
0.0
 11
7887.94636715437
 21
4042.500000000012
 31
0.0
  0
LINE
  5
16020
330
747D
100
AcDbEntity
  8
部品1
 48
50.0
100
AcDbLine
 10
9867.946367154372
 20
3492.500000000013
 30
0.0
 11
9867.946367154372
 21
3342.500000000013
 31
0.0
  0
LINE
  5
16021
330
747D
100
AcDbEntity
  8
部品1
 48
50.0
100
AcDbLine
 10
8307.94636715437
 20
3492.500000000013
 30
0.0
 11
8307.94636715437
 21
3342.500000000013
 31
0.0
  0
MTEXT
  5
16022
330
747D
100
AcDbEntity
  8
寸法
 62
     7
 48
50.0
100
AcDbMText
 10
10808.86695896893
 20
4144.772727272733
 30
0.0
 40
100.0
 41
1.0
 71
     4
 72
     1
  1
▽G.L
  7
STYLE2
 73
     1
 44
1.0
1001
ACAD
1000
MTEXTBEGIN
1070
    73
1070
     1
1070
    44
1040
1.0
1070
    74
1070
     0
1000
MTEXTEND
  0
LINE
  5
16023
330
747D
100
AcDbEntity
  8
U7
100
AcDbLine
 10
9162.94636715437
 20
3532.500000000013
 30
0.0
 11
9162.94636715437
 21
3522.500000000013
 31
0.0
  0
LINE
  5
16024
330
747D
100
AcDbEntity
  8
センター
 48
10.0
100
AcDbLine
 10
9262.94636715437
 20
4566.972832855054
 30
0.0
 11
9262.94636715437
 21
3431.442168170133
 31
0.0
  0
LINE
  5
16025
330
747D
100
AcDbEntity
  8
部品1
 48
50.0
100
AcDbLine
 10
9218.396367154381
 20
4488.433095944927
 30
0.0
 11
9218.396367154381
 21
3492.500000000013
 31
0.0
  0
LINE
  5
16026
330
747D
100
AcDbEntity
  8
部品1
 48
50.0
100
AcDbLine
 10
9307.49636715436
 20
4156.500000000012
 30
0.0
 11
9321.49636715436
 21
4156.500000000012
 31
0.0
  0
LINE
  5
16027
330
747D
100
AcDbEntity
  8
部品1
 48
50.0
100
AcDbLine
 10
9335.496367154359
 20
4142.500000000012
 30
0.0
 11
10287.94636715443
 21
4142.500000000012
 31
0.0
  0
LINE
  5
16028
330
747D
100
AcDbEntity
  8
部品1
 48
50.0
100
AcDbLine
 10
9307.49636715436
 20
4042.500000000012
 30
0.0
 11
10287.94636715437
 21
4042.500000000012
 31
0.0
  0
CIRCLE
  5
16029
330
747D
100
AcDbEntity
  8
部品1
 48
50.0
100
AcDbCircle
 10
8587.946367154371
 20
3572.500000000013
 30
0.0
 40
5.0
  0
LINE
  5
1602A
330
747D
100
AcDbEntity
  8
Ｇ．Ｌ
 48
50.0
100
AcDbLine
 10
10287.94636715437
 20
4092.500000000012
 30
0.0
 11
11342.06031765917
 21
4092.500000000012
 31
0.0
  0
LINE
  5
1602B
330
747D
100
AcDbEntity
  8
部品1
 48
50.0
100
AcDbLine
 10
9307.49636715436
 20
4488.433095944927
 30
0.0
 11
9307.49636715436
 21
3492.500000000013
 31
0.0
  0
LINE
  5
1602C
330
747D
100
AcDbEntity
  8
U7
100
AcDbLine
 10
9362.94636715437
 20
3532.500000000013
 30
0.0
 11
9162.94636715437
 21
3532.500000000013
 31
0.0
  0
LINE
  5
1602D
330
747D
100
AcDbEntity
  8
U7
100
AcDbLine
 10
9362.94636715437
 20
3532.500000000013
 30
0.0
 11
9362.94636715437
 21
3522.500000000013
 31
0.0
  0
LINE
  5
1602E
330
747D
100
AcDbEntity
  8
部品1
 48
50.0
100
AcDbLine
 10
9204.396367154382
 20
4156.500000000012
 30
0.0
 11
9190.396367154383
 21
4142.500000000012
 31
0.0
  0
LINE
  5
1602F
330
747D
100
AcDbEntity
  8
部品1
 48
50.0
100
AcDbLine
 10
9321.496367154416
 20
4156.500000000012
 30
0.0
 11
9335.496367154359
 21
4142.500000000012
 31
0.0
  0
LINE
  5
16030
330
747D
100
AcDbEntity
  8
U7
100
AcDbLine
 10
9362.94636715437
 20
3522.500000000013
 30
0.0
 11
9162.94636715437
 21
3522.500000000013
 31
0.0
  0
LINE
  5
16031
330
747D
100
AcDbEntity
  8
部品1
 48
50.0
100
AcDbLine
 10
9204.396367154382
 20
4156.500000000012
 30
0.0
 11
9218.396367154381
 21
4156.500000000012
 31
0.0
  0
LINE
  5
16032
330
747D
100
AcDbEntity
  8
部品1
 48
50.0
100
AcDbLine
 10
9787.94636715437
 20
3942.500000000013
 30
0.0
 11
10287.94636715437
 21
3942.500000000041
 31
0.0
  0
LINE
  5
16033
330
747D
100
AcDbEntity
  8
部品1
 48
50.0
100
AcDbLine
 10
8572.226818716451
 20
3567.500000000013
 30
0.0
 11
8572.226818716451
 21
3557.500000000013
 31
0.0
  0
LINE
  5
16034
330
747D
100
AcDbEntity
  8
細線
 48
50.0
100
AcDbLine
 10
8903.822038241145
 20
3342.500000000013
 30
0.0
 11
8897.123308430375
 21
3367.500000000013
 31
0.0
  0
LINE
  5
16035
330
747D
100
AcDbEntity
  8
細線
 48
50.0
100
AcDbLine
 10
8910.520768051915
 20
3417.500000000013
 30
0.0
 11
8903.822038241145
 21
3442.500000000013
 31
0.0
  0
LINE
  5
16036
330
747D
100
AcDbEntity
  8
細線
 48
50.0
100
AcDbLine
 10
9027.084608471204
 20
3342.500000000013
 30
0.0
 11
9020.385878660432
 21
3367.500000000013
 31
0.0
  0
LINE
  5
16037
330
747D
100
AcDbEntity
  8
細線
 48
50.0
100
AcDbLine
 10
9033.783338281974
 20
3417.500000000013
 30
0.0
 11
9027.084608471204
 21
3442.500000000013
 31
0.0
  0
LINE
  5
16038
330
747D
100
AcDbEntity
  8
細線
 48
50.0
100
AcDbLine
 10
9150.34717870126
 20
3342.500000000013
 30
0.0
 11
9143.648448890489
 21
3367.500000000013
 31
0.0
  0
LINE
  5
16039
330
747D
100
AcDbEntity
  8
細線
 48
50.0
100
AcDbLine
 10
9157.04590851203
 20
3417.500000000013
 30
0.0
 11
9150.34717870126
 21
3442.500000000013
 31
0.0
  0
LINE
  5
1603A
330
747D
100
AcDbEntity
  8
細線
 48
50.0
100
AcDbLine
 10
9273.609748931376
 20
3342.500000000013
 30
0.0
 11
9266.911019120605
 21
3367.500000000013
 31
0.0
  0
LINE
  5
1603B
330
747D
100
AcDbEntity
  8
細線
 48
50.0
100
AcDbLine
 10
9280.308478742147
 20
3417.500000000013
 30
0.0
 11
9273.609748931376
 21
3442.500000000013
 31
0.0
  0
LINE
  5
1603C
330
747D
100
AcDbEntity
  8
細線
 48
50.0
100
AcDbLine
 10
9396.872319161433
 20
3342.500000000013
 30
0.0
 11
9390.173589350663
 21
3367.500000000013
 31
0.0
  0
LINE
  5
1603D
330
747D
100
AcDbEntity
  8
細線
 48
50.0
100
AcDbLine
 10
9403.571048972205
 20
3417.500000000013
 30
0.0
 11
9396.872319161433
 21
3442.500000000013
 31
0.0
  0
LINE
  5
1603E
330
747D
100
AcDbEntity
  8
細線
 48
50.0
100
AcDbLine
 10
9520.13488939149
 20
3342.500000000013
 30
-0.0000000000013153
 11
9513.43615958072
 21
3367.500000000013
 31
-0.0000000000013153
  0
LINE
  5
1603F
330
747D
100
AcDbEntity
  8
細線
 48
50.0
100
AcDbLine
 10
9526.833619202262
 20
3417.500000000013
 30
-0.0000000000013153
 11
9520.13488939149
 21
3442.500000000013
 31
-0.0000000000013153
  0
LINE
  5
16040
330
747D
100
AcDbEntity
  8
細線
 48
50.0
100
AcDbLine
 10
9643.397459621608
 20
3342.500000000013
 30
0.0
 11
9636.698729810838
 21
3367.500000000013
 31
0.0
  0
LINE
  5
16041
330
747D
100
AcDbEntity
  8
細線
 48
50.0
100
AcDbLine
 10
9650.096189432378
 20
3417.500000000013
 30
0.0
 11
9643.397459621608
 21
3442.500000000013
 31
0.0
  0
LINE
  5
16042
330
747D
100
AcDbEntity
  8
細線
 48
50.0
100
AcDbLine
 10
9766.660029851664
 20
3342.500000000013
 30
0.0
 11
9759.961300040894
 21
3367.500000000013
 31
0.0
  0
LINE
  5
16043
330
747D
100
AcDbEntity
  8
細線
 48
50.0
100
AcDbLine
 10
9773.358759662436
 20
3417.500000000013
 30
0.0
 11
9766.660029851664
 21
3442.500000000013
 31
0.0
  0
LINE
  5
16044
330
747D
100
AcDbEntity
  8
細線
 48
50.0
100
AcDbLine
 10
7955.228421629122
 20
3942.500000000041
 30
-0.0000000000013153
 11
7948.529691818352
 21
3967.500000000042
 31
-0.0000000000013153
  0
LINE
  5
16045
330
747D
100
AcDbEntity
  8
細線
 48
50.0
100
AcDbLine
 10
7961.927151439893
 20
4017.500000000041
 30
-0.0000000000013153
 11
7955.228421629122
 21
4042.500000000042
 31
-0.0000000000013153
  0
LINE
  5
16046
330
747D
100
AcDbEntity
  8
細線
 48
50.0
100
AcDbLine
 10
8078.490991859181
 20
3942.500000000027
 30
-0.0000000000013153
 11
8071.792262048409
 21
3967.500000000028
 31
-0.0000000000013153
  0
LINE
  5
16047
330
747D
100
AcDbEntity
  8
細線
 48
50.0
100
AcDbLine
 10
8085.189721669951
 20
4017.500000000027
 30
-0.0000000000013153
 11
8078.490991859181
 21
4042.500000000027
 31
-0.0000000000013153
  0
LINE
  5
16048
330
747D
100
AcDbEntity
  8
細線
 48
50.0
100
AcDbLine
 10
8201.753562089296
 20
3942.500000000027
 30
-0.0000000000013153
 11
8195.054832278525
 21
3967.500000000028
 31
-0.0000000000013153
  0
LINE
  5
16049
330
747D
100
AcDbEntity
  8
細線
 48
50.0
100
AcDbLine
 10
8208.452291900066
 20
4017.500000000027
 30
-0.0000000000013153
 11
8201.753562089296
 21
4042.500000000027
 31
-0.0000000000013153
  0
LINE
  5
1604A
330
747D
100
AcDbEntity
  8
細線
 48
50.0
100
AcDbLine
 10
8325.016132319353
 20
3942.500000000027
 30
-0.0000000000013153
 11
8318.317402508583
 21
3967.500000000028
 31
-0.0000000000013153
  0
LINE
  5
1604B
330
747D
100
AcDbEntity
  8
細線
 48
50.0
100
AcDbLine
 10
8331.714862130125
 20
4017.500000000027
 30
-0.0000000000013153
 11
8325.016132319353
 21
4042.500000000027
 31
-0.0000000000013153
  0
LINE
  5
1604C
330
747D
100
AcDbEntity
  8
細線
 48
50.0
100
AcDbLine
 10
9804.166975080276
 20
3942.500000000027
 30
-0.0000000000013153
 11
9797.468245269506
 21
3967.500000000028
 31
-0.0000000000013153
  0
LINE
  5
1604D
330
747D
100
AcDbEntity
  8
細線
 48
50.0
100
AcDbLine
 10
9810.865704891046
 20
4017.500000000027
 30
-0.0000000000013153
 11
9804.166975080276
 21
4042.500000000027
 31
-0.0000000000013153
  0
LINE
  5
1604E
330
747D
100
AcDbEntity
  8
細線
 48
50.0
100
AcDbLine
 10
9927.429545310333
 20
3942.500000000027
 30
-0.0000000000013153
 11
9920.730815499563
 21
3967.500000000028
 31
-0.0000000000013153
  0
LINE
  5
1604F
330
747D
100
AcDbEntity
  8
細線
 48
50.0
100
AcDbLine
 10
9934.128275121103
 20
4017.500000000027
 30
-0.0000000000013153
 11
9927.429545310333
 21
4042.500000000027
 31
-0.0000000000013153
  0
LINE
  5
16050
330
747D
100
AcDbEntity
  8
細線
 48
50.0
100
AcDbLine
 10
10050.69211554039
 20
3942.500000000027
 30
-0.0000000000013153
 11
10043.99338572962
 21
3967.500000000028
 31
-0.0000000000013153
  0
LINE
  5
16051
330
747D
100
AcDbEntity
  8
細線
 48
50.0
100
AcDbLine
 10
10057.39084535116
 20
4017.500000000027
 30
-0.0000000000013153
 11
10050.69211554039
 21
4042.500000000027
 31
-0.0000000000013153
  0
LINE
  5
16052
330
747D
100
AcDbEntity
  8
細線
 48
50.0
100
AcDbLine
 10
10173.9546857705
 20
3942.500000000027
 30
-0.0000000000013153
 11
10167.25595595973
 21
3967.500000000028
 31
-0.0000000000013153
  0
LINE
  5
16053
330
747D
100
AcDbEntity
  8
細線
 48
50.0
100
AcDbLine
 10
10180.65341558128
 20
4017.500000000027
 30
-0.0000000000013153
 11
10173.9546857705
 21
4042.500000000027
 31
-0.0000000000013153
  0
MTEXT
  5
16054
330
747D
100
AcDbEntity
  8
寸法
 62
     7
 48
50.0
100
AcDbMText
 10
10285.40321887821
 20
4194.772727272733
 30
0.0
 40
100.0
 41
1.0
 71
     5
 72
     1
  1
▽Ｆ.L
  7
STYLE2
 73
     1
 44
1.0
1001
ACAD
1000
MTEXTBEGIN
1070
    73
1070
     1
1070
    44
1040
1.0
1070
    74
1070
     0
1000
MTEXTEND
  0
LINE
  5
16055
330
747D
100
AcDbEntity
  8
寸法
 48
50.0
100
AcDbLine
 10
8121.267091030203
 20
4217.107416202181
 30
0.0
 11
8189.918308895322
 21
4235.502454588552
 31
0.0
  0
LINE
  5
16056
330
747D
100
AcDbEntity
  8
寸法
 48
50.0
100
AcDbLine
 10
8121.267091030203
 20
4217.107416202181
 30
0.0
 11
8750.519586618008
 21
4217.107416202181
 31
0.0
  0
LINE
  5
16057
330
747D
100
AcDbEntity
  8
寸法
 48
50.0
100
AcDbLine
 10
8121.267091030203
 20
4217.107416202181
 30
0.0
 11
8189.918308895322
 21
4198.712377815796
 31
0.0
  0
TEXT
  5
16058
330
747D
100
AcDbEntity
  8
寸法
 62
     7
 48
50.0
100
AcDbText
 10
8219.500532029845
 20
4402.494451844161
 30
0.0
 40
90.0
  1
水勾配
 41
0.8
  7
STYLE1
100
AcDbText
  0
TEXT
  5
16059
330
747D
100
AcDbEntity
  8
寸法
 62
     7
 48
50.0
100
AcDbText
 10
8186.237039058477
 20
4254.155939722068
 30
0.0
 40
90.0
  1
１／１００
 41
0.8
  7
STYLE1
100
AcDbText
  0
LINE
  5
1605A
330
747D
100
AcDbEntity
  8
寸法
 48
50.0
100
AcDbLine
 10
10054.62564327854
 20
4217.107416202181
 30
0.0
 11
9985.97442541342
 21
4235.502454588552
 31
0.0
  0
LINE
  5
1605B
330
747D
100
AcDbEntity
  8
寸法
 48
50.0
100
AcDbLine
 10
10054.62564327854
 20
4217.107416202181
 30
0.0
 11
9425.373147690734
 21
4217.107416202181
 31
0.0
  0
LINE
  5
1605C
330
747D
100
AcDbEntity
  8
寸法
 48
50.0
100
AcDbLine
 10
10054.62564327854
 20
4217.107416202181
 30
0.0
 11
9985.97442541342
 21
4198.712377815796
 31
0.0
  0
TEXT
  5
1605D
330
747D
100
AcDbEntity
  8
寸法
 62
     7
 48
50.0
100
AcDbText
 10
9523.606588690375
 20
4402.494451844161
 30
0.0
 40
90.0
  1
水勾配
 41
0.8
  7
STYLE1
100
AcDbText
  0
TEXT
  5
1605E
330
747D
100
AcDbEntity
  8
寸法
 62
     7
 48
50.0
100
AcDbText
 10
9490.343095719007
 20
4254.155939722068
 30
0.0
 40
90.0
  1
１／１００
 41
0.8
  7
STYLE1
100
AcDbText
  0
DIMENSION
  5
1605F
330
747D
100
AcDbEntity
  8
寸法
 48
50.0
100
AcDbDimension
  2
*D24
 10
7737.365240052409
 20
4142.500000000012
 30
0.0
 11
7737.365240052408
 21
4319.535433070921
 31
0.0
 70
   160
 71
     5
 42
100.0
  3
INABA_S30G
100
AcDbAlignedDimension
 13
7887.946367154312
 23
4042.500000000012
 33
0.0
 14
7887.946367154312
 24
4142.500000000012
 34
0.0
 50
90.0
100
AcDbRotatedDimension
  0
DIMENSION
  5
16060
330
747D
100
AcDbEntity
  8
寸法
 48
50.0
100
AcDbDimension
  2
*D25
 10
7737.365240052409
 20
3942.500000000013
 30
0.0
 11
7737.365240052408
 21
3765.464566929148
 31
0.0
 70
   160
 71
     5
 42
100.0
  3
INABA_S30G
100
AcDbAlignedDimension
 13
7887.946367154312
 23
4042.500000000012
 33
0.0
 14
7887.946367154312
 24
3942.500000000013
 34
0.0
 50
90.0
100
AcDbRotatedDimension
  0
DIMENSION
  5
16061
330
747D
100
AcDbEntity
  8
寸法
 48
50.0
100
AcDbDimension
  2
*D26
 10
8912.94636715437
 20
3050.883370355978
 30
0.0
 11
8650.446367154371
 21
3125.892228623694
 31
0.0
 70
    32
 71
     5
 42
525.0
  3
INABA_S30G
100
AcDbAlignedDimension
 13
8387.94636715437
 23
3492.500000000013
 33
0.0
 14
8912.94636715437
 24
3431.442168170133
 34
0.0
100
AcDbRotatedDimension
  0
DIMENSION
  5
16062
330
747D
100
AcDbEntity
  8
寸法
 48
50.0
100
AcDbDimension
  2
*D27
 10
8387.94636715437
 20
2820.797809267226
 30
0.0
 11
9087.946367154371
 21
2895.797809267225
 31
0.0
 70
    32
 71
     5
 42
1400.0
  3
INABA_S30G
100
AcDbAlignedDimension
 13
9787.94636715437
 23
3492.500000000013
 33
0.0
 14
8387.94636715437
 24
3492.500000000013
 34
0.0
100
AcDbRotatedDimension
  0
DIMENSION
  5
16063
330
747D
100
AcDbEntity
  8
寸法
 48
50.0
100
AcDbDimension
  2
*D28
 10
9262.94636715437
 20
3050.883370355978
 30
0.0
 11
9087.946367154371
 21
3125.883370355978
 31
0.0
 70
    32
 71
     5
 42
350.0
  3
INABA_S30G
100
AcDbAlignedDimension
 13
8912.94636715437
 23
3431.442168170133
 33
0.0
 14
9262.94636715437
 24
3431.442168170133
 34
0.0
100
AcDbRotatedDimension
  0
DIMENSION
  5
16064
330
747D
100
AcDbEntity
  8
寸法
 48
50.0
100
AcDbDimension
  2
*D29
 10
9262.94636715437
 20
3050.883370355978
 30
0.0
 11
9525.446367154371
 21
3125.892228623694
 31
0.0
 70
    32
 71
     5
 42
525.0
  3
INABA_S30G
100
AcDbAlignedDimension
 13
9787.94636715437
 23
3492.500000000013
 33
0.0
 14
9262.94636715437
 24
3431.442168170133
 34
0.0
 50
180.0
100
AcDbRotatedDimension
  0
DIMENSION
  5
16065
330
747D
100
AcDbEntity
  8
寸法
 48
50.0
100
AcDbDimension
  2
*D21
 10
10580.3877317551
 20
3492.500000000013
 30
0.0
 11
10505.3877317551
 21
3792.500000000015
 31
0.0
 70
    32
 71
     5
 42
600.0
  3
INABA_S30G
100
AcDbAlignedDimension
 13
10352.74424471788
 23
4092.500000000012
 33
0.0
 14
9867.946367154372
 24
3492.500000000013
 34
0.0
 50
90.0
100
AcDbRotatedDimension
  0
DIMENSION
  5
16066
330
747D
100
AcDbEntity
  8
寸法
 48
50.0
100
AcDbDimension
  2
*D22
 10
10580.3877317551
 20
4142.500000000012
 30
0.0
 11
10580.3877317551
 21
4372.035433070921
 31
0.0
 70
   160
 71
     5
 42
50.00000000000046
  3
INABA_S30G
100
AcDbAlignedDimension
 13
10287.94636715437
 23
4092.500000000012
 33
0.0
 14
10287.94636715443
 24
4142.500000000012
 34
0.0
 50
90.0
100
AcDbRotatedDimension
  0
DIMENSION
  5
16067
330
747D
100
AcDbEntity
  8
寸法
 48
50.0
100
AcDbDimension
  2
*D23
 10
10580.3877317551
 20
3442.500000000013
 30
0.0
 11
10580.3877317551
 21
3212.964566929148
 31
0.0
 70
   160
 71
     5
 42
50.0
  3
INABA_S30G
100
AcDbAlignedDimension
 13
9867.946367154372
 23
3492.500000000013
 33
0.0
 14
9867.946367154372
 24
3442.500000000013
 34
0.0
 50
90.0
100
AcDbRotatedDimension
  0
TEXT
  5
16068
330
747D
100
AcDbEntity
  8
寸法
 62
     7
 48
50.0
100
AcDbText
 10
9874.732340198599
 20
3641.554412434997
 30
0.0
 40
90.0
  1
主筋4-D13
  7
STYLE1
100
AcDbText
  0
LINE
  5
16069
330
747D
100
AcDbEntity
  8
寸法
 48
50.0
100
AcDbLine
 10
9836.986974116422
 20
3616.547554882605
 30
0.0
 11
10457.2014295836
 21
3616.547554882605
 31
0.0
  0
LINE
  5
1606A
330
747D
100
AcDbEntity
  8
寸法
 48
50.0
100
AcDbLine
 10
9836.986974116422
 20
3616.547554882605
 30
0.0
 11
9462.946367154371
 21
3832.500000000013
 31
0.0
  0
LWPOLYLINE
  5
1606B
330
747D
100
AcDbEntity
  8
寸法
 48
5.0
100
AcDbPolyline
 90
        3
 70
     0
 43
0.0
 10
8587.946367154371
 20
3572.500000000013
 10
8192.295422718693
 20
3176.849055564379
 10
7274.785867573758
 20
3176.849055564379
1001
ACAD
1000
DSTYLE
1002
{
1070
   341
1005
0
1002
}
  0
TEXT
  5
1606C
330
747D
100
AcDbEntity
  8
寸法
 62
     7
100
AcDbText
 10
7279.92230537709
 20
3197.370060562736
 30
-0.0000000000026306
 40
90.0
  1
4-D10X6-D10以上
  7
STYLE1
100
AcDbText
  0
TEXT
  5
1606D
330
747D
100
AcDbEntity
  8
寸法
 62
     7
100
AcDbText
 10
7279.92230537709
 20
3311.842981287364
 30
-0.0000000000026306
 40
90.0
  1
ベース筋
  7
STYLE1
100
AcDbText
  0
LINE
  5
1606E
330
747D
100
AcDbEntity
  8
寸法
 48
50.0
100
AcDbLine
 10
8758.675054244646
 20
3682.500000000013
 30
0.0
 11
8044.431545841515
 21
2968.256491596882
 31
0.0
  0
LINE
  5
1606F
330
747D
100
AcDbEntity
  8
寸法
 48
50.0
100
AcDbLine
 10
8044.431545841515
 20
2968.256491596882
 30
0.0
 11
7354.037567140832
 21
2968.256491596882
 31
0.0
  0
TEXT
  5
16070
330
747D
100
AcDbEntity
  8
寸法
 62
     7
 48
50.0
100
AcDbText
 10
7372.490154505422
 20
2983.332409424735
 30
0.0
 40
90.0
  1
帯筋D10＠100
  7
STYLE1
100
AcDbText
  0
LWPOLYLINE
  5
16071
330
747D
100
AcDbEntity
  8
寸法
 48
50.0
100
AcDbPolyline
 90
        3
 70
     0
 43
0.0
 10
9262.94636715437
 20
3527.500000000013
 10
9919.607414655279
 20
2870.838952499091
 10
10416.00415826601
 20
2870.838952499091
1001
ACAD
1000
DSTYLE
1002
{
1070
   341
1005
0
1002
}
  0
TEXT
  5
16072
330
747D
100
AcDbEntity
  8
寸法
 62
     7
 48
50.0
100
AcDbText
 10
9977.269349948221
 20
2890.398205850723
 30
0.0
 40
90.0
  1
カンザシ
  7
STYLE1
100
AcDbText
  0
ENDSEC
  0
SECTION
  2
OBJECTS
  0
DICTIONARY
  5
7471
330
0
100
AcDbDictionary
281
     1
  3
ACAD_CIP_PREVIOUS_PRODUCT_INFO
350
13D36
  3
ACAD_COLOR
350
1341D
  3
ACAD_DETAILVIEWSTYLE
350
13D2C
  3
ACAD_GROUP
350
7472
  3
ACAD_LAYOUT
350
1341E
  3
ACAD_MATERIAL
350
1341C
  3
ACAD_MLEADERSTYLE
350
13D28
  3
ACAD_MLINESTYLE
350
7473
  3
ACAD_PLOTSETTINGS
350
1341F
  3
ACAD_PLOTSTYLENAME
350
1341A
  3
ACAD_SCALELIST
350
13D16
  3
ACAD_SECTIONVIEWSTYLE
350
13D2A
  3
ACAD_TABLESTYLE
350
13D14
  3
ACAD_VISUALSTYLE
350
13CFB
  3
AcadDim
350
13618
  3
ACDB_RECOMPOSE_DATA
350
165C7
  3
AcDbVariableDictionary
350
13533
  3
CONTENTDICTIONARY
350
E71C
  3
DRAWINGVARIABLESDICT
350
F3B9
  3
DWGPROPS
350
165C8
  0
DICTIONARY
  5
162C0
330
746D
100
AcDbDictionary
280
     1
281
     1
  0
DICTIONARY
  5
13451
330
7467
100
AcDbDictionary
280
     1
281
     1
  3
ACAD_LAYERFILTERS
360
1356A
  3
ACAD_LAYERSTATES
360
13452
  0
DICTIONARY
  5
16245
330
7474
100
AcDbDictionary
280
     1
281
     1
  3
ADSK_XREC_LAYER_RECONCILED
360
16246
  0
DICTIONARY
  5
16247
330
DEB3
100
AcDbDictionary
280
     1
281
     1
  3
ADSK_XREC_LAYER_RECONCILED
360
16248
  0
DICTIONARY
  5
16249
330
DEB4
100
AcDbDictionary
280
     1
281
     1
  3
ADSK_XREC_LAYER_RECONCILED
360
1624A
  0
DICTIONARY
  5
1624B
330
DEB5
100
AcDbDictionary
280
     1
281
     1
  3
ADSK_XREC_LAYER_RECONCILED
360
1624C
  0
DICTIONARY
  5
1624D
330
DEB6
100
AcDbDictionary
280
     1
281
     1
  3
ADSK_XREC_LAYER_RECONCILED
360
1624E
  0
DICTIONARY
  5
1624F
330
10B54
100
AcDbDictionary
280
     1
281
     1
  3
ADSK_XREC_LAYER_RECONCILED
360
16250
  0
DICTIONARY
  5
16251
330
11729
100
AcDbDictionary
280
     1
281
     1
  3
ADSK_XREC_LAYER_RECONCILED
360
16252
  0
DICTIONARY
  5
16253
330
1173F
100
AcDbDictionary
280
     1
281
     1
  3
ADSK_XREC_LAYER_RECONCILED
360
16254
  0
DICTIONARY
  5
16257
330
1356E
100
AcDbDictionary
280
     1
281
     1
  3
ADSK_XREC_LAYER_RECONCILED
360
16258
  0
DICTIONARY
  5
16259
330
135FB
100
AcDbDictionary
280
     1
281
     1
  3
ADSK_XREC_LAYER_RECONCILED
360
1625A
  0
DICTIONARY
  5
1625B
330
137FC
100
AcDbDictionary
280
     1
281
     1
  3
ADSK_XREC_LAYER_RECONCILED
360
1625C
  0
DICTIONARY
  5
1625D
330
137FD
100
AcDbDictionary
280
     1
281
     1
  3
ADSK_XREC_LAYER_RECONCILED
360
1625E
  0
XRECORD
  5
13D36
102
{ACAD_REACTORS
330
7471
102
}
330
7471
100
AcDbXrecord
280
     1
300
ACDLT
300
2014
300
ACDLT_F_S
  0
DICTIONARY
  5
1341D
102
{ACAD_REACTORS
330
7471
102
}
330
7471
100
AcDbDictionary
281
     1
  0
DICTIONARY
  5
13D2C
102
{ACAD_REACTORS
330
7471
102
}
330
7471
100
AcDbDictionary
281
     1
  3
Metric50
350
13D2D
  0
DICTIONARY
  5
7472
102
{ACAD_REACTORS
330
7471
102
}
330
7471
100
AcDbDictionary
281
     1
  0
DICTIONARY
  5
1341E
102
{ACAD_REACTORS
330
7471
102
}
330
7471
100
AcDbDictionary
281
     1
  3
Model
350
13420
  3
レイアウト1
350
13421
  0
DICTIONARY
  5
1341C
102
{ACAD_REACTORS
330
7471
102
}
330
7471
100
AcDbDictionary
281
     1
  3
ByBlock
350
13CEB
  3
ByLayer
350
13CE3
  3
Global
350
13CF3
  0
DICTIONARY
  5
13D28
102
{ACAD_REACTORS
330
7471
102
}
330
7471
100
AcDbDictionary
281
     1
  3
Standard
350
13D29
  0
DICTIONARY
  5
7473
102
{ACAD_REACTORS
330
7471
102
}
330
7471
100
AcDbDictionary
281
     1
  3
STANDARD
350
7480
  0
DICTIONARY
  5
1341F
102
{ACAD_REACTORS
330
7471
102
}
330
7471
100
AcDbDictionary
281
     1
  0
ACDBDICTIONARYWDFLT
  5
1341A
102
{ACAD_REACTORS
330
7471
102
}
330
7471
100
AcDbDictionary
281
     1
  3
Normal
350
1341B
100
AcDbDictionaryWithDefault
340
1341B
  0
DICTIONARY
  5
13D16
102
{ACAD_REACTORS
330
7471
102
}
330
7471
100
AcDbDictionary
281
     1
  3
A0
350
13D17
  3
A1
350
13D18
  3
A2
350
13D19
  3
A3
350
13D1A
  3
A4
350
13D1B
  3
A5
350
13D1C
  3
A6
350
13D1D
  3
A7
350
13D1E
  3
A8
350
13D1F
  3
A9
350
13D20
  3
B0
350
13D21
  3
B1
350
13D22
  3
B2
350
13D23
  3
B3
350
13D24
  3
B4
350
13D25
  3
B5
350
13D26
  3
B6
350
13D27
  0
DICTIONARY
  5
13D2A
102
{ACAD_REACTORS
330
7471
102
}
330
7471
100
AcDbDictionary
281
     1
  3
Metric50
350
13D2B
  0
DICTIONARY
  5
13D14
102
{ACAD_REACTORS
330
7471
102
}
330
7471
100
AcDbDictionary
281
     1
  3
Standard
350
13D15
  0
DICTIONARY
  5
13CFB
102
{ACAD_REACTORS
330
7471
102
}
330
7471
100
AcDbDictionary
281
     1
  3
2dWireframe
350
13D01
  3
Basic
350
13D00
  3
Brighten
350
13D07
  3
ColorChange
350
13D0B
  3
Conceptual
350
13D04
  3
Dim
350
13D06
  3
EdgeColorOff
350
13D13
  3
Facepattern
350
13D0A
  3
Flat
350
13CFC
  3
FlatWithEdges
350
13CFD
  3
Gouraud
350
13CFE
  3
GouraudWithEdges
350
13CFF
  3
Hidden
350
13D03
  3
JitterOff
350
13D11
  3
Linepattern
350
13D09
  3
OverhangOff
350
13D12
  3
Realistic
350
13D05
  3
Shaded
350
13D10
  3
Shaded with edges
350
13D0F
  3
Shades of Gray
350
13D0C
  3
Sketchy
350
13D0D
  3
Thicken
350
13D08
  3
Wireframe
350
13D02
  3
X-Ray
350
13D0E
  0
XRECORD
  5
13618
102
{ACAD_REACTORS
330
7471
102
}
330
7471
100
AcDbXrecord
280
     1
 90
   990106
  3

 60
     0
 61
     0
 62
     1
 63
     3
 64
     0
 65
     0
 66
     0
 67
     3
 68
     1
 69
     0
 70
     0
 71
     0
 72
     0
 40
0.0
170
     0
  0
XRECORD
  5
165C7
102
{ACAD_REACTORS
330
7471
102
}
330
7471
100
AcDbXrecord
280
     1
 90
        1
330
13D15
  0
DICTIONARY
  5
13533
102
{ACAD_REACTORS
330
7471
102
}
330
7471
100
AcDbDictionary
281
     1
  3
CANNOSCALE
350
16305
  3
CMLEADERSTYLE
350
16302
  3
CTABLESTYLE
350
16301
  3
CVIEWDETAILSTYLE
350
16303
  3
CVIEWSECTIONSTYLE
350
16304
  3
DIMASSOC
350
13534
  3
INDEXCTL
350
16307
  3
PROJECTNAME
350
13535
  3
SORTENTS
350
16306
  3
XCLIPFRAME
350
165C5
  0
DICTIONARY
  5
E71C
102
{ACAD_REACTORS
330
7471
102
}
330
7471
100
AcDbDictionary
281
     1
  0
DICTIONARY
  5
F3B9
102
{ACAD_REACTORS
330
7471
102
}
330
7471
100
AcDbDictionary
281
     1
1001
DRAWINGVARIABLESXDATA
1000
POLARMODE
1000
1
  0
XRECORD
  5
165C8
102
{ACAD_REACTORS
330
7471
102
}
330
7471
100
AcDbXrecord
280
     1
  1
DWGPROPS COOKIE
  2

  3

  4

  6

  7

  8
ODAHARA
  9

300
=
301
=
302
=
303
=
304
=
305
=
306
=
307
=
308
=
309
=
 40
0.3926884953703704
 41
2451074.411873148
 42
2456560.839513715
  1

 90
        0
  0
DICTIONARY
  5
1356A
102
{ACAD_REACTORS
330
13451
102
}
330
13451
100
AcDbDictionary
281
     1
  0
DICTIONARY
  5
13452
102
{ACAD_REACTORS
330
13451
102
}
330
13451
100
AcDbDictionary
281
     1
  0
XRECORD
  5
16246
102
{ACAD_REACTORS
330
16245
102
}
330
16245
100
AcDbXrecord
280
     1
290
     1
  0
XRECORD
  5
16248
102
{ACAD_REACTORS
330
16247
102
}
330
16247
100
AcDbXrecord
280
     1
290
     1
  0
XRECORD
  5
1624A
102
{ACAD_REACTORS
330
16249
102
}
330
16249
100
AcDbXrecord
280
     1
290
     1
  0
XRECORD
  5
1624C
102
{ACAD_REACTORS
330
1624B
102
}
330
1624B
100
AcDbXrecord
280
     1
290
     1
  0
XRECORD
  5
1624E
102
{ACAD_REACTORS
330
1624D
102
}
330
1624D
100
AcDbXrecord
280
     1
290
     1
  0
XRECORD
  5
16250
102
{ACAD_REACTORS
330
1624F
102
}
330
1624F
100
AcDbXrecord
280
     1
290
     1
  0
XRECORD
  5
16252
102
{ACAD_REACTORS
330
16251
102
}
330
16251
100
AcDbXrecord
280
     1
290
     1
  0
XRECORD
  5
16254
102
{ACAD_REACTORS
330
16253
102
}
330
16253
100
AcDbXrecord
280
     1
290
     1
  0
XRECORD
  5
16258
102
{ACAD_REACTORS
330
16257
102
}
330
16257
100
AcDbXrecord
280
     1
290
     1
  0
XRECORD
  5
1625A
102
{ACAD_REACTORS
330
16259
102
}
330
16259
100
AcDbXrecord
280
     1
290
     1
  0
XRECORD
  5
1625C
102
{ACAD_REACTORS
330
1625B
102
}
330
1625B
100
AcDbXrecord
280
     1
290
     1
  0
XRECORD
  5
1625E
102
{ACAD_REACTORS
330
1625D
102
}
330
1625D
100
AcDbXrecord
280
     1
290
     1
  0
ACDBDETAILVIEWSTYLE
  5
13D2D
102
{ACAD_XDICTIONARY
360
16605
102
}
102
{ACAD_REACTORS
330
13D2C
102
}
330
13D2C
100
AcDbModelDocViewStyle
 70
     0
  3
Metric50
290
     0
100
AcDbDetailViewStyle
 70
     0
 71
     0
 90
        3
 71
     1
340
7475
 40
5.0
340
0
 40
5.0
300

 40
0.0
280
     1
 71
     2
340
7479
 90
       25
 71
     3
340
7475
 40
5.0
 90
        0
 40
15.0
 90
        1
300
%<\AcVar ViewDetailId>% (%<\AcVar ViewScale \f "%sn">%)
 71
     4
340
7479
 90
       25
340
7479
 90
       25
280
     0
  0
LAYOUT
  5
13420
102
{ACAD_XDICTIONARY
360
165C9
102
}
102
{ACAD_REACTORS
330
1341E
102
}
330
1341E
100
AcDbPlotSettings
  1

  2
CutePDF Writer
  4
A3
  6

 40
3.174999952316284
 41
3.174999952316284
 42
3.17498779296875
 43
3.17498779296875
 44
297.0530090332031
 45
420.1583251953125
 46
0.0
 47
0.0
 48
0.0
 49
0.0
140
0.0
141
0.0
142
1.0
143
30.0
 70
 11952
 72
     1
 73
     1
 74
     2
  7
inaba.ctb
 75
    23
147
0.0333333333333333
148
0.0
149
0.0
100
AcDbLayout
  1
Model
 70
     1
 71
     0
 10
0.0
 20
0.0
 11
12.0
 21
9.0
 12
0.0
 22
0.0
 32
0.0
 14
0.0
 24
0.0
 34
0.0
 15
0.0
 25
0.0
 35
0.0
146
0.0
 13
0.0
 23
0.0
 33
0.0
 16
1.0
 26
0.0
 36
0.0
 17
0.0
 27
1.0
 37
0.0
 76
     0
330
747D
331
13CE1
  0
LAYOUT
  5
13421
102
{ACAD_XDICTIONARY
360
165CB
102
}
102
{ACAD_REACTORS
330
1341E
102
}
330
1341E
100
AcDbPlotSettings
  1

  2
Microsoft Office Document Image Writer
  4

  6

 40
0.0
 41
0.0
 42
0.0
 43
0.0
 44
0.0
 45
0.0
 46
0.0
 47
0.0
 48
0.0
 49
0.0
140
0.0
141
0.0
142
1.0
143
1.0
 70
   688
 72
     0
 73
     0
 74
     5
  7
inaba.ctb
 75
    16
147
1.0
148
0.0
149
0.0
100
AcDbLayout
  1
レイアウト1
 70
     0
 71
     1
 10
0.0
 20
0.0
 11
420.0
 21
297.0
 12
0.0
 22
0.0
 32
0.0
 14
1.000000000000000E+20
 24
1.000000000000000E+20
 34
1.000000000000000E+20
 15
-1.000000000000000E+20
 25
-1.000000000000000E+20
 35
-1.000000000000000E+20
146
0.0
 13
0.0
 23
0.0
 33
0.0
 16
1.0
 26
0.0
 36
0.0
 17
0.0
 27
1.0
 37
0.0
 76
     0
330
747A
  0
MATERIAL
  5
13CEB
102
{ACAD_XDICTIONARY
360
13CEC
102
}
102
{ACAD_REACTORS
330
1341C
102
}
330
1341C
100
AcDbMaterial
  1
ByBlock
 72
     0
 43
0.0208333333333333
 43
0.0
 43
0.0
 43
0.0
 43
0.0
 43
0.0208333333333333
 43
0.0
 43
0.0
 43
0.0
 43
0.0
 43
1.0
 43
0.0
 43
0.0
 43
0.0
 43
0.0
 43
1.0
 77
     0
 47
0.0208333333333333
 47
0.0
 47
0.0
 47
0.0
 47
0.0
 47
0.0208333333333333
 47
0.0
 47
0.0
 47
0.0
 47
0.0
 47
1.0
 47
0.0
 47
0.0
 47
0.0
 47
0.0
 47
1.0
171
     0
 49
0.0208333333333333
 49
0.0
 49
0.0
 49
0.0
 49
0.0
 49
0.0208333333333333
 49
0.0
 49
0.0
 49
0.0
 49
0.0
 49
1.0
 49
0.0
 49
0.0
 49
0.0
 49
0.0
 49
1.0
175
     0
142
0.0208333333333333
142
0.0
142
0.0
142
0.0
142
0.0
142
0.0208333333333333
142
0.0
142
0.0
142
0.0
142
0.0
142
1.0
142
0.0
142
0.0
142
0.0
142
0.0
142
1.0
179
     0
144
0.0208333333333333
144
0.0
144
0.0
144
0.0
144
0.0
144
0.0208333333333333
144
0.0
144
0.0
144
0.0
144
0.0
144
1.0
144
0.0
144
0.0
144
0.0
144
0.0
144
1.0
147
0.0208333333333333
147
0.0
147
0.0
147
0.0
147
0.0
147
0.0208333333333333
147
0.0
147
0.0
147
0.0
147
0.0
147
1.0
147
0.0
147
0.0
147
0.0
147
0.0
147
1.0
  0
MATERIAL
  5
13CE3
102
{ACAD_XDICTIONARY
360
13CE4
102
}
102
{ACAD_REACTORS
330
1341C
102
}
330
1341C
100
AcDbMaterial
  1
ByLayer
 72
     0
 43
0.0208333333333333
 43
0.0
 43
0.0
 43
0.0
 43
0.0
 43
0.0208333333333333
 43
0.0
 43
0.0
 43
0.0
 43
0.0
 43
1.0
 43
0.0
 43
0.0
 43
0.0
 43
0.0
 43
1.0
 77
     0
 47
0.0208333333333333
 47
0.0
 47
0.0
 47
0.0
 47
0.0
 47
0.0208333333333333
 47
0.0
 47
0.0
 47
0.0
 47
0.0
 47
1.0
 47
0.0
 47
0.0
 47
0.0
 47
0.0
 47
1.0
171
     0
 49
0.0208333333333333
 49
0.0
 49
0.0
 49
0.0
 49
0.0
 49
0.0208333333333333
 49
0.0
 49
0.0
 49
0.0
 49
0.0
 49
1.0
 49
0.0
 49
0.0
 49
0.0
 49
0.0
 49
1.0
175
     0
142
0.0208333333333333
142
0.0
142
0.0
142
0.0
142
0.0
142
0.0208333333333333
142
0.0
142
0.0
142
0.0
142
0.0
142
1.0
142
0.0
142
0.0
142
0.0
142
0.0
142
1.0
179
     0
144
0.0208333333333333
144
0.0
144
0.0
144
0.0
144
0.0
144
0.0208333333333333
144
0.0
144
0.0
144
0.0
144
0.0
144
1.0
144
0.0
144
0.0
144
0.0
144
0.0
144
1.0
147
0.0208333333333333
147
0.0
147
0.0
147
0.0
147
0.0
147
0.0208333333333333
147
0.0
147
0.0
147
0.0
147
0.0
147
1.0
147
0.0
147
0.0
147
0.0
147
0.0
147
1.0
  0
MATERIAL
  5
13CF3
102
{ACAD_XDICTIONARY
360
13CF4
102
}
102
{ACAD_REACTORS
330
1341C
102
}
330
1341C
100
AcDbMaterial
  1
Global
 72
     0
 43
0.0208333333333333
 43
0.0
 43
0.0
 43
0.0
 43
0.0
 43
0.0208333333333333
 43
0.0
 43
0.0
 43
0.0
 43
0.0
 43
1.0
 43
0.0
 43
0.0
 43
0.0
 43
0.0
 43
1.0
 77
     0
 47
0.0208333333333333
 47
0.0
 47
0.0
 47
0.0
 47
0.0
 47
0.0208333333333333
 47
0.0
 47
0.0
 47
0.0
 47
0.0
 47
1.0
 47
0.0
 47
0.0
 47
0.0
 47
0.0
 47
1.0
171
     0
 49
0.0208333333333333
 49
0.0
 49
0.0
 49
0.0
 49
0.0
 49
0.0208333333333333
 49
0.0
 49
0.0
 49
0.0
 49
0.0
 49
1.0
 49
0.0
 49
0.0
 49
0.0
 49
0.0
 49
1.0
175
     0
142
0.0208333333333333
142
0.0
142
0.0
142
0.0
142
0.0
142
0.0208333333333333
142
0.0
142
0.0
142
0.0
142
0.0
142
1.0
142
0.0
142
0.0
142
0.0
142
0.0
142
1.0
179
     0
144
0.0208333333333333
144
0.0
144
0.0
144
0.0
144
0.0
144
0.0208333333333333
144
0.0
144
0.0
144
0.0
144
0.0
144
1.0
144
0.0
144
0.0
144
0.0
144
0.0
144
1.0
147
0.0208333333333333
147
0.0
147
0.0
147
0.0
147
0.0
147
0.0208333333333333
147
0.0
147
0.0
147
0.0
147
0.0
147
1.0
147
0.0
147
0.0
147
0.0
147
0.0
147
1.0
  0
MLEADERSTYLE
  5
13D29
102
{ACAD_XDICTIONARY
360
16601
102
}
102
{ACAD_REACTORS
330
13D28
102
}
330
13D28
100
AcDbMLeaderStyle
170
     2
171
     1
172
     0
 90
        2
 40
0.0
 41
0.0
173
     1
 91
-1056964608
340
7477
 92
       -2
290
     1
 42
2.0
291
     1
 43
0.36
  3
Standard
 44
4.0
300

342
7475
174
     1
178
     6
175
     1
176
     0
 93
-1056964608
 45
4.0
292
     0
297
     0
 46
4.0
 94
-1056964608
 47
1.0
 49
1.0
140
1.0
293
     1
141
0.0
294
     1
177
     0
142
1.0
295
     0
296
     0
143
0.125
1001
ACAD_MLEADERVER
1070
     2
  0
MLINESTYLE
  5
7480
102
{ACAD_REACTORS
330
7473
102
}
330
7473
100
AcDbMlineStyle
  2
STANDARD
 70
     0
  3

 62
     0
 51
90.0
 52
90.0
 71
     2
 49
0.5
 62
   256
  6
BYLAYER
 49
-0.5
 62
   256
  6
BYLAYER
  0
ACDBPLACEHOLDER
  5
1341B
102
{ACAD_REACTORS
330
1341A
102
}
330
1341A
  0
SCALE
  5
13D17
102
{ACAD_REACTORS
330
13D16
102
}
330
13D16
100
AcDbScale
 70
     0
300
1:1
140
1.0
141
1.0
290
     1
  0
SCALE
  5
13D18
102
{ACAD_REACTORS
330
13D16
102
}
330
13D16
100
AcDbScale
 70
     0
300
1:2
140
1.0
141
2.0
290
     0
  0
SCALE
  5
13D19
102
{ACAD_REACTORS
330
13D16
102
}
330
13D16
100
AcDbScale
 70
     0
300
1:4
140
1.0
141
4.0
290
     0
  0
SCALE
  5
13D1A
102
{ACAD_REACTORS
330
13D16
102
}
330
13D16
100
AcDbScale
 70
     0
300
1:5
140
1.0
141
5.0
290
     0
  0
SCALE
  5
13D1B
102
{ACAD_REACTORS
330
13D16
102
}
330
13D16
100
AcDbScale
 70
     0
300
1:8
140
1.0
141
8.0
290
     0
  0
SCALE
  5
13D1C
102
{ACAD_REACTORS
330
13D16
102
}
330
13D16
100
AcDbScale
 70
     0
300
1:10
140
1.0
141
10.0
290
     0
  0
SCALE
  5
13D1D
102
{ACAD_REACTORS
330
13D16
102
}
330
13D16
100
AcDbScale
 70
     0
300
1:16
140
1.0
141
16.0
290
     0
  0
SCALE
  5
13D1E
102
{ACAD_REACTORS
330
13D16
102
}
330
13D16
100
AcDbScale
 70
     0
300
1:20
140
1.0
141
20.0
290
     0
  0
SCALE
  5
13D1F
102
{ACAD_REACTORS
330
13D16
102
}
330
13D16
100
AcDbScale
 70
     0
300
1:30
140
1.0
141
30.0
290
     0
  0
SCALE
  5
13D20
102
{ACAD_REACTORS
330
13D16
102
}
330
13D16
100
AcDbScale
 70
     0
300
1:40
140
1.0
141
40.0
290
     0
  0
SCALE
  5
13D21
102
{ACAD_REACTORS
330
13D16
102
}
330
13D16
100
AcDbScale
 70
     0
300
1:50
140
1.0
141
50.0
290
     0
  0
SCALE
  5
13D22
102
{ACAD_REACTORS
330
13D16
102
}
330
13D16
100
AcDbScale
 70
     0
300
1:100
140
1.0
141
100.0
290
     0
  0
SCALE
  5
13D23
102
{ACAD_REACTORS
330
13D16
102
}
330
13D16
100
AcDbScale
 70
     0
300
2:1
140
2.0
141
1.0
290
     0
  0
SCALE
  5
13D24
102
{ACAD_REACTORS
330
13D16
102
}
330
13D16
100
AcDbScale
 70
     0
300
4:1
140
4.0
141
1.0
290
     0
  0
SCALE
  5
13D25
102
{ACAD_REACTORS
330
13D16
102
}
330
13D16
100
AcDbScale
 70
     0
300
8:1
140
8.0
141
1.0
290
     0
  0
SCALE
  5
13D26
102
{ACAD_REACTORS
330
13D16
102
}
330
13D16
100
AcDbScale
 70
     0
300
10:1
140
10.0
141
1.0
290
     0
  0
SCALE
  5
13D27
102
{ACAD_REACTORS
330
13D16
102
}
330
13D16
100
AcDbScale
 70
     0
300
100:1
140
100.0
141
1.0
290
     0
  0
ACDBSECTIONVIEWSTYLE
  5
13D2B
102
{ACAD_XDICTIONARY
360
16603
102
}
102
{ACAD_REACTORS
330
13D2A
102
}
330
13D2A
100
AcDbModelDocViewStyle
 70
     0
  3
Metric50
290
     0
100
AcDbSectionViewStyle
 70
     0
 71
     0
 90
      102
 71
     1
340
7475
 40
5.0
340
0
340
0
 40
5.0
300
I, O, Q, S, X, Z
 40
10.0
 90
        0
 40
2.5
 90
        0
 71
     2
340
7479
 90
       25
340
7479
 90
       50
 40
5.0
 40
2.5
 40
5.0
 71
     3
340
7475
 40
5.0
 90
        0
 40
15.0
 90
        1
300
%<\AcVar ViewSectionStartId>%-%<\AcVar ViewSectionEndId>% (%<\AcVar ViewScale \f "%sn">%)
 71
     4
300
ANSI31
 40
1.0
 90
        0
290
     0
290
     0
 90
        6
 40
0.0
 40
1.570796326794896
 40
0.2617993877991494
 40
1.308996938995747
 40
-0.2617993877991494
 40
1.832595714594046
  0
TABLESTYLE
  5
13D15
102
{ACAD_XDICTIONARY
360
162BC
102
}
102
{ACAD_REACTORS
330
13D14
102
}
330
13D14
100
AcDbTableStyle
  3
Standard
 70
     0
 71
     0
 40
1.5
 41
1.5
280
     0
281
     0
  7
STANDARD
140
4.5
170
     2
 62
     0
 63
     7
283
     0
274
    -2
284
     1
 64
     0
275
    -2
285
     1
 65
     0
276
    -2
286
     1
 66
     0
277
    -2
287
     1
 67
     0
278
    -2
288
     1
 68
     0
279
    -2
289
     1
 69
     0
  7
STANDARD
140
6.0
170
     5
 62
     0
 63
     7
283
     0
274
    -2
284
     1
 64
     0
275
    -2
285
     1
 65
     0
276
    -2
286
     1
 66
     0
277
    -2
287
     1
 67
     0
278
    -2
288
     1
 68
     0
279
    -2
289
     1
 69
     0
  7
STANDARD
140
4.5
170
     5
 62
     0
 63
     7
283
     0
274
    -2
284
     1
 64
     0
275
    -2
285
     1
 65
     0
276
    -2
286
     1
 66
     0
277
    -2
287
     1
 67
     0
278
    -2
288
     1
 68
     0
279
    -2
289
     1
 69
     0
  0
VISUALSTYLE
  5
13D01
102
{ACAD_XDICTIONARY
360
165DA
102
}
102
{ACAD_REACTORS
330
13CFB
102
}
330
13CFB
100
AcDbVisualStyle
  2
2dWireframe
 70
     4
 71
     0
 72
     2
 73
     0
 90
        0
 40
-0.6
 41
-30.0
 62
     5
 63
     7
 74
     1
 91
        4
 64
     7
 65
   257
 75
     1
175
     1
 42
1.0
 92
        0
 66
   257
 43
1.0
 76
     1
 77
     6
 78
     2
 67
     7
 79
     5
170
     0
171
     0
290
     0
174
     0
 93
        1
 44
0.0
173
     0
291
     0
 45
0.0
1001
ACAD
1000
AcDbSavedByObjectVersion
1070
     0
  0
VISUALSTYLE
  5
13D00
102
{ACAD_XDICTIONARY
360
165D8
102
}
102
{ACAD_REACTORS
330
13CFB
102
}
330
13CFB
100
AcDbVisualStyle
  2
Basic
 70
     7
 71
     1
 72
     0
 73
     1
 90
        0
 40
-0.6
 41
-30.0
 62
     5
 63
     7
 74
     0
 91
        4
 64
     7
 65
   257
 75
     1
175
     1
 42
1.0
 92
        8
 66
     7
 43
1.0
 76
     1
 77
     6
 78
     2
 67
     7
 79
     5
170
     0
171
     0
290
     0
174
     0
 93
        1
 44
0.0
173
     0
291
     1
 45
0.0
1001
ACAD
1000
AcDbSavedByObjectVersion
1070
     0
  0
VISUALSTYLE
  5
13D07
102
{ACAD_XDICTIONARY
360
165E6
102
}
102
{ACAD_REACTORS
330
13CFB
102
}
330
13CFB
100
AcDbVisualStyle
  2
Brighten
 70
    12
 71
     2
 72
     2
 73
     0
 90
        0
 40
-0.6
 41
-30.0
 62
     5
 63
     7
 74
     1
 91
        4
 64
     7
 65
   257
 75
     1
175
     1
 42
1.0
 92
        8
 66
     7
 43
1.0
 76
     1
 77
     6
 78
     2
 67
     7
 79
     5
170
     0
171
     0
290
     0
174
     0
 93
        1
 44
50.0
173
     0
291
     1
 45
0.0
1001
ACAD
1000
AcDbSavedByObjectVersion
1070
     0
  0
VISUALSTYLE
  5
13D0B
102
{ACAD_XDICTIONARY
360
165EE
102
}
102
{ACAD_REACTORS
330
13CFB
102
}
330
13CFB
100
AcDbVisualStyle
  2
ColorChange
 70
    16
 71
     2
 72
     2
 73
     3
 90
        0
 40
-0.6
 41
-30.0
 62
     5
 63
     8
 74
     1
 91
        4
 64
     7
 65
   257
 75
     1
175
     1
 42
1.0
 92
        8
 66
     8
 43
1.0
 76
     1
 77
     6
 78
     2
 67
     7
 79
     5
170
     0
171
     0
290
     0
174
     0
 93
        1
 44
0.0
173
     0
291
     1
 45
0.0
1001
ACAD
1000
AcDbSavedByObjectVersion
1070
     0
  0
VISUALSTYLE
  5
13D04
102
{ACAD_XDICTIONARY
360
165E0
102
}
102
{ACAD_REACTORS
330
13CFB
102
}
330
13CFB
100
AcDbVisualStyle
  2
Conceptual
 70
     9
 71
     3
 72
     2
 73
     0
 90
        0
 40
-0.6
 41
-30.0
 62
     5
 63
     7
 74
     2
 91
        2
 64
     7
 65
   257
 75
     1
175
     1
 42
179.0
 92
        8
 66
     7
 43
1.0
 76
     1
 77
     6
 78
     2
 67
     7
 79
     3
170
     0
171
     0
290
     0
174
     0
 93
        1
 44
0.0
173
     0
291
     0
 45
0.0
1001
ACAD
1000
AcDbSavedByObjectVersion
1070
     0
  0
VISUALSTYLE
  5
13D06
102
{ACAD_XDICTIONARY
360
165E4
102
}
102
{ACAD_REACTORS
330
13CFB
102
}
330
13CFB
100
AcDbVisualStyle
  2
Dim
 70
    11
 71
     2
 72
     2
 73
     0
 90
        0
 40
-0.6
 41
-30.0
 62
     5
 63
     7
 74
     1
 91
        4
 64
     7
 65
   257
 75
     1
175
     1
 42
1.0
 92
        8
 66
     7
 43
1.0
 76
     1
 77
     6
 78
     2
 67
     7
 79
     5
170
     0
171
     0
290
     0
174
     0
 93
        1
 44
-50.0
173
     0
291
     1
 45
0.0
1001
ACAD
1000
AcDbSavedByObjectVersion
1070
     0
  0
VISUALSTYLE
  5
13D13
102
{ACAD_XDICTIONARY
360
165FE
102
}
102
{ACAD_REACTORS
330
13CFB
102
}
330
13CFB
100
AcDbVisualStyle
  2
EdgeColorOff
 70
    22
 71
     2
 72
     2
 73
     0
 90
        0
 40
-0.6
 41
-30.0
 62
     5
 63
     7
 74
     1
 91
        4
 64
     7
 65
   257
 75
     1
175
     1
 42
1.0
 92
        8
 66
     7
 43
1.0
 76
     1
 77
     6
 78
     2
 67
     7
 79
     5
170
     0
171
     0
290
     0
174
     0
 93
        1
 44
0.0
173
     0
291
     1
 45
0.0
1001
ACAD
1000
AcDbSavedByObjectVersion
1070
     0
  0
VISUALSTYLE
  5
13D0A
102
{ACAD_XDICTIONARY
360
165EC
102
}
102
{ACAD_REACTORS
330
13CFB
102
}
330
13CFB
100
AcDbVisualStyle
  2
Facepattern
 70
    15
 71
     2
 72
     2
 73
     0
 90
        0
 40
-0.6
 41
-30.0
 62
     5
 63
     7
 74
     1
 91
        4
 64
     7
 65
   257
 75
     1
175
     1
 42
1.0
 92
        8
 66
     7
 43
1.0
 76
     1
 77
     6
 78
     2
 67
     7
 79
     5
170
     0
171
     0
290
     0
174
     0
 93
        1
 44
0.0
173
     0
291
     1
 45
0.0
1001
ACAD
1000
AcDbSavedByObjectVersion
1070
     0
  0
VISUALSTYLE
  5
13CFC
102
{ACAD_XDICTIONARY
360
165D0
102
}
102
{ACAD_REACTORS
330
13CFB
102
}
330
13CFB
100
AcDbVisualStyle
  2
Flat
 70
     0
 71
     2
 72
     1
 73
     1
 90
        2
 40
-0.6
 41
30.0
 62
     5
 63
     7
 74
     0
 91
        0
 64
     7
 65
   257
 75
     1
175
     1
 42
1.0
 92
        8
 66
     7
 43
1.0
 76
     1
 77
     6
 78
     2
 67
     7
 79
     5
170
     0
171
     0
290
     0
174
     0
 93
       13
 44
0.0
173
     0
291
     1
 45
0.0
1001
ACAD
1000
AcDbSavedByObjectVersion
1070
     0
  0
VISUALSTYLE
  5
13CFD
102
{ACAD_XDICTIONARY
360
165D2
102
}
102
{ACAD_REACTORS
330
13CFB
102
}
330
13CFB
100
AcDbVisualStyle
  2
FlatWithEdges
 70
     1
 71
     2
 72
     1
 73
     1
 90
        2
 40
-0.6
 41
30.0
 62
     5
 63
     7
 74
     1
 91
        0
 64
     7
 65
   257
 75
     1
175
     1
 42
1.0
 92
        0
 66
   257
 43
1.0
 76
     1
 77
     6
 78
     2
 67
     7
 79
     5
170
     0
171
     0
290
     0
174
     0
 93
       13
 44
0.0
173
     0
291
     1
 45
0.0
1001
ACAD
1000
AcDbSavedByObjectVersion
1070
     0
  0
VISUALSTYLE
  5
13CFE
102
{ACAD_XDICTIONARY
360
165D4
102
}
102
{ACAD_REACTORS
330
13CFB
102
}
330
13CFB
100
AcDbVisualStyle
  2
Gouraud
 70
     2
 71
     2
 72
     2
 73
     1
 90
        2
 40
-0.6
 41
30.0
 62
     5
 63
     7
 74
     0
 91
        0
 64
     7
 65
   257
 75
     1
175
     1
 42
1.0
 92
        0
 66
     7
 43
1.0
 76
     1
 77
     6
 78
     2
 67
     7
 79
     5
170
     0
171
     0
290
     0
174
     0
 93
       13
 44
0.0
173
     0
291
     1
 45
0.0
1001
ACAD
1000
AcDbSavedByObjectVersion
1070
     0
  0
VISUALSTYLE
  5
13CFF
102
{ACAD_XDICTIONARY
360
165D6
102
}
102
{ACAD_REACTORS
330
13CFB
102
}
330
13CFB
100
AcDbVisualStyle
  2
GouraudWithEdges
 70
     3
 71
     2
 72
     2
 73
     1
 90
        2
 40
-0.6
 41
30.0
 62
     5
 63
     7
 74
     1
 91
        0
 64
     7
 65
   257
 75
     1
175
     1
 42
1.0
 92
        0
 66
   257
 43
1.0
 76
     1
 77
     6
 78
     2
 67
     7
 79
     5
170
     0
171
     0
290
     0
174
     0
 93
       13
 44
0.0
173
     0
291
     1
 45
0.0
1001
ACAD
1000
AcDbSavedByObjectVersion
1070
     0
  0
VISUALSTYLE
  5
13D03
102
{ACAD_XDICTIONARY
360
165DE
102
}
102
{ACAD_REACTORS
330
13CFB
102
}
330
13CFB
100
AcDbVisualStyle
  2
Hidden
 70
     6
 71
     1
 72
     2
 73
     2
 90
        0
 40
-0.6
 41
-30.0
 62
     5
 63
     7
 74
     2
 91
        2
 64
     7
 65
   257
 75
     2
175
     1
 42
40.0
 92
        0
 66
   257
 43
1.0
 76
     1
 77
     6
 78
     2
 67
     7
 79
     3
170
     0
171
     0
290
     0
174
     0
 93
        1
 44
0.0
173
     0
291
     0
 45
0.0
1001
ACAD
1000
AcDbSavedByObjectVersion
1070
     0
  0
VISUALSTYLE
  5
13D11
102
{ACAD_XDICTIONARY
360
165FA
102
}
102
{ACAD_REACTORS
330
13CFB
102
}
330
13CFB
100
AcDbVisualStyle
  2
JitterOff
 70
    20
 71
     2
 72
     2
 73
     0
 90
        0
 40
-0.6
 41
-30.0
 62
     5
 63
     7
 74
     1
 91
        4
 64
     7
 65
   257
 75
     1
175
     1
 42
1.0
 92
       10
 66
     7
 43
1.0
 76
     1
 77
     6
 78
     2
 67
     7
 79
     5
170
     0
171
     0
290
     0
174
     0
 93
        1
 44
0.0
173
     0
291
     1
 45
0.0
1001
ACAD
1000
AcDbSavedByObjectVersion
1070
     0
  0
VISUALSTYLE
  5
13D09
102
{ACAD_XDICTIONARY
360
165EA
102
}
102
{ACAD_REACTORS
330
13CFB
102
}
330
13CFB
100
AcDbVisualStyle
  2
Linepattern
 70
    14
 71
     2
 72
     2
 73
     0
 90
        0
 40
-0.6
 41
-30.0
 62
     5
 63
     7
 74
     1
 91
        4
 64
     7
 65
   257
 75
     7
175
     7
 42
1.0
 92
        8
 66
     7
 43
1.0
 76
     1
 77
     6
 78
     2
 67
     7
 79
     5
170
     0
171
     0
290
     0
174
     0
 93
        1
 44
0.0
173
     0
291
     1
 45
0.0
1001
ACAD
1000
AcDbSavedByObjectVersion
1070
     0
  0
VISUALSTYLE
  5
13D12
102
{ACAD_XDICTIONARY
360
165FC
102
}
102
{ACAD_REACTORS
330
13CFB
102
}
330
13CFB
100
AcDbVisualStyle
  2
OverhangOff
 70
    21
 71
     2
 72
     2
 73
     0
 90
        0
 40
-0.6
 41
-30.0
 62
     5
 63
     7
 74
     1
 91
        4
 64
     7
 65
   257
 75
     1
175
     1
 42
1.0
 92
        9
 66
     7
 43
1.0
 76
     1
 77
     6
 78
     2
 67
     7
 79
     5
170
     0
171
     0
290
     0
174
     0
 93
        1
 44
0.0
173
     0
291
     1
 45
0.0
1001
ACAD
1000
AcDbSavedByObjectVersion
1070
     0
  0
VISUALSTYLE
  5
13D05
102
{ACAD_XDICTIONARY
360
165E2
102
}
102
{ACAD_REACTORS
330
13CFB
102
}
330
13CFB
100
AcDbVisualStyle
  2
Realistic
 70
     8
 71
     2
 72
     2
 73
     0
 90
        2
 40
-0.6
 41
30.0
 62
     5
 63
     7
 74
     0
 91
        0
 64
     7
 65
   257
 75
     1
175
     1
 42
1.0
 92
        8
 66
   257
 43
1.0
 76
     1
 77
     6
 78
     2
 67
     7
 79
     3
170
     0
171
     0
290
     0
174
     0
 93
       13
 44
0.0
173
     0
291
     0
 45
0.0
1001
ACAD
1000
AcDbSavedByObjectVersion
1070
     0
  0
VISUALSTYLE
  5
13D10
102
{ACAD_XDICTIONARY
360
165F8
102
}
102
{ACAD_REACTORS
330
13CFB
102
}
330
13CFB
100
AcDbVisualStyle
  2
Shaded
 70
    27
 71
     2
 72
     2
 73
     1
 90
        2
 40
-0.6
 41
30.0
 62
     5
 63
     7
 74
     0
 91
        4
 64
     7
 65
   257
 75
     1
175
     1
 42
1.0
 92
        8
 66
   257
 43
1.0
 76
     1
 77
     6
 78
     2
 67
     8
 79
     3
170
     0
171
     0
290
     0
174
     0
 93
        5
 44
0.0
173
     0
291
     0
 45
0.0
1001
ACAD
1000
AcDbSavedByObjectVersion
1070
     0
  0
VISUALSTYLE
  5
13D0F
102
{ACAD_XDICTIONARY
360
165F6
102
}
102
{ACAD_REACTORS
330
13CFB
102
}
330
13CFB
100
AcDbVisualStyle
  2
Shaded with edges
 70
    26
 71
     2
 72
     2
 73
     1
 90
        2
 40
-0.6
 41
30.0
 62
     5
 63
     7
 74
     1
 91
       10
 64
     7
 65
   257
 75
     2
175
     1
 42
1.0
 92
        8
 66
   257
 43
1.0
 76
     1
 77
     6
 78
     2
 67
     7
 79
     3
170
     0
171
     0
290
     0
174
     0
 93
        5
 44
0.0
173
     0
291
     0
 45
0.0
1001
ACAD
1000
AcDbSavedByObjectVersion
1070
     0
  0
VISUALSTYLE
  5
13D0C
102
{ACAD_XDICTIONARY
360
165F0
102
}
102
{ACAD_REACTORS
330
13CFB
102
}
330
13CFB
100
AcDbVisualStyle
  2
Shades of Gray
 70
    23
 71
     2
 72
     2
 73
     3
 90
        0
 40
-0.6
 41
-30.0
 62
     5
 63
     7
 74
     2
 91
        2
 64
     7
 65
     7
 75
     1
175
     1
 42
40.0
 92
        8
 66
     7
 43
1.0
 76
     1
 77
     6
 78
     2
 67
     7
 79
     3
170
     0
171
     0
290
     0
174
     0
 93
        1
 44
0.0
173
     0
291
     0
 45
0.0
1001
ACAD
1000
AcDbSavedByObjectVersion
1070
     0
  0
VISUALSTYLE
  5
13D0D
102
{ACAD_XDICTIONARY
360
165F2
102
}
102
{ACAD_REACTORS
330
13CFB
102
}
330
13CFB
100
AcDbVisualStyle
  2
Sketchy
 70
    24
 71
     1
 72
     2
 73
     2
 90
        0
 40
-0.6
 41
-30.0
 62
     5
 63
     7
 74
     2
 91
        2
 64
     7
 65
     7
 75
     1
175
     1
 42
40.0
 92
       11
 66
     7
 43
1.0
 76
     1
 77
     6
 78
     2
 67
     7
 79
     6
170
     0
171
     0
290
     0
174
     0
 93
        1
 44
0.0
173
     0
291
     0
 45
0.0
1001
ACAD
1000
AcDbSavedByObjectVersion
1070
     0
  0
VISUALSTYLE
  5
13D08
102
{ACAD_XDICTIONARY
360
165E8
102
}
102
{ACAD_REACTORS
330
13CFB
102
}
330
13CFB
100
AcDbVisualStyle
  2
Thicken
 70
    13
 71
     2
 72
     2
 73
     0
 90
        0
 40
-0.6
 41
-30.0
 62
     5
 63
     7
 74
     1
 91
        4
 64
     7
 65
   257
 75
     1
175
     1
 42
1.0
 92
       12
 66
     7
 43
1.0
 76
     1
 77
     6
 78
     2
 67
     7
 79
     5
170
     0
171
     0
290
     0
174
     0
 93
        1
 44
0.0
173
     0
291
     1
 45
0.0
1001
ACAD
1000
AcDbSavedByObjectVersion
1070
     0
  0
VISUALSTYLE
  5
13D02
102
{ACAD_XDICTIONARY
360
165DC
102
}
102
{ACAD_REACTORS
330
13CFB
102
}
330
13CFB
100
AcDbVisualStyle
  2
Wireframe
 70
     5
 71
     0
 72
     2
 73
     0
 90
        0
 40
-0.6
 41
-30.0
 62
     5
 63
     7
 74
     1
 91
        4
 64
     7
 65
   257
 75
     1
175
     1
 42
1.0
 92
        0
 66
   257
 43
1.0
 76
     1
 77
     6
 78
     2
 67
     7
 79
     3
170
     0
171
     0
290
     0
174
     0
 93
        1
 44
0.0
173
     0
291
     0
 45
0.0
1001
ACAD
1000
AcDbSavedByObjectVersion
1070
     0
  0
VISUALSTYLE
  5
13D0E
102
{ACAD_XDICTIONARY
360
165F4
102
}
102
{ACAD_REACTORS
330
13CFB
102
}
330
13CFB
100
AcDbVisualStyle
  2
X-Ray
 70
    25
 71
     2
 72
     2
 73
     1
 90
        1
 40
0.5
 41
-30.0
 62
     5
 63
     7
 74
     1
 91
        0
 64
     7
 65
   257
 75
     1
175
     1
 42
1.0
 92
        8
 66
     7
 43
1.0
 76
     1
 77
     6
 78
     2
 67
     7
 79
     3
170
     0
171
     0
290
     0
174
     0
 93
       13
 44
0.0
173
     0
291
     0
 45
0.0
1001
ACAD
1000
AcDbSavedByObjectVersion
1070
     0
  0
DICTIONARYVAR
  5
16305
102
{ACAD_REACTORS
330
13533
102
}
330
13533
100
DictionaryVariables
280
     0
  1
1:1
  0
DICTIONARYVAR
  5
16302
102
{ACAD_REACTORS
330
13533
102
}
330
13533
100
DictionaryVariables
280
     0
  1
STANDARD
  0
DICTIONARYVAR
  5
16301
102
{ACAD_REACTORS
330
13533
102
}
330
13533
100
DictionaryVariables
280
     0
  1
STANDARD
  0
DICTIONARYVAR
  5
16303
102
{ACAD_REACTORS
330
13533
102
}
330
13533
100
DictionaryVariables
280
     0
  1
Metric50
  0
DICTIONARYVAR
  5
16304
102
{ACAD_REACTORS
330
13533
102
}
330
13533
100
DictionaryVariables
280
     0
  1
Metric50
  0
DICTIONARYVAR
  5
13534
102
{ACAD_REACTORS
330
13533
102
}
330
13533
100
DictionaryVariables
280
     0
  1
1
  0
DICTIONARYVAR
  5
16307
102
{ACAD_REACTORS
330
13533
102
}
330
13533
100
DictionaryVariables
280
     0
  1
0
  0
DICTIONARYVAR
  5
13535
102
{ACAD_REACTORS
330
13533
102
}
330
13533
100
DictionaryVariables
280
     0
  1

  0
DICTIONARYVAR
  5
16306
102
{ACAD_REACTORS
330
13533
102
}
330
13533
100
DictionaryVariables
280
     0
  1
127
  0
DICTIONARYVAR
  5
165C5
102
{ACAD_REACTORS
330
13533
102
}
330
13533
100
DictionaryVariables
280
     0
  1
2
  0
DICTIONARY
  5
16605
330
13D2D
100
AcDbDictionary
280
     1
281
     1
  3
ACAD_XREC_ROUNDTRIP
360
16606
  0
DICTIONARY
  5
165C9
330
13420
100
AcDbDictionary
280
     1
281
     1
  3
ACAD_XREC_ROUNDTRIP
360
165CA
  0
DICTIONARY
  5
165CB
330
13421
100
AcDbDictionary
280
     1
281
     1
  3
ACAD_XREC_ROUNDTRIP
360
165CC
  0
DICTIONARY
  5
13CEC
330
13CEB
100
AcDbDictionary
280
     1
281
     1
  3
ACAD_XREC_ROUNDTRIP
360
165CE
  3
BUMPTILE
360
13CEE
  3
DIFFUSETILE
360
13CED
  3
OPACITYTILE
360
13CF1
  3
REFLECTIONTILE
360
13CF0
  3
REFRACTIONTILE
360
13CF2
  3
SPECULARTILE
360
13CEF
  0
DICTIONARY
  5
13CE4
330
13CE3
100
AcDbDictionary
280
     1
281
     1
  3
ACAD_XREC_ROUNDTRIP
360
165CD
  3
BUMPTILE
360
13CE6
  3
DIFFUSETILE
360
13CE5
  3
OPACITYTILE
360
13CE9
  3
REFLECTIONTILE
360
13CE8
  3
REFRACTIONTILE
360
13CEA
  3
SPECULARTILE
360
13CE7
  0
DICTIONARY
  5
13CF4
330
13CF3
100
AcDbDictionary
280
     1
281
     1
  3
ACAD_XREC_ROUNDTRIP
360
165CF
  3
BUMPTILE
360
13CF6
  3
DIFFUSETILE
360
13CF5
  3
OPACITYTILE
360
13CF9
  3
REFLECTIONTILE
360
13CF8
  3
REFRACTIONTILE
360
13CFA
  3
SPECULARTILE
360
13CF7
  0
DICTIONARY
  5
16601
330
13D29
100
AcDbDictionary
280
     1
281
     1
  3
ACAD_XREC_ROUNDTRIP
360
16602
  0
DICTIONARY
  5
16603
330
13D2B
100
AcDbDictionary
280
     1
281
     1
  3
ACAD_XREC_ROUNDTRIP
360
16604
  0
DICTIONARY
  5
162BC
330
13D15
100
AcDbDictionary
280
     1
281
     1
  3
ACAD_ROUNDTRIP_2008_TABLESTYLE_CELLSTYLEMAP
360
165C6
  3
ACAD_XREC_ROUNDTRIP
360
16600
  0
DICTIONARY
  5
165DA
330
13D01
100
AcDbDictionary
280
     1
281
     1
  3
ACAD_XREC_ROUNDTRIP
360
165DB
  0
DICTIONARY
  5
165D8
330
13D00
100
AcDbDictionary
280
     1
281
     1
  3
ACAD_XREC_ROUNDTRIP
360
165D9
  0
DICTIONARY
  5
165E6
330
13D07
100
AcDbDictionary
280
     1
281
     1
  3
ACAD_XREC_ROUNDTRIP
360
165E7
  0
DICTIONARY
  5
165EE
330
13D0B
100
AcDbDictionary
280
     1
281
     1
  3
ACAD_XREC_ROUNDTRIP
360
165EF
  0
DICTIONARY
  5
165E0
330
13D04
100
AcDbDictionary
280
     1
281
     1
  3
ACAD_XREC_ROUNDTRIP
360
165E1
  0
DICTIONARY
  5
165E4
330
13D06
100
AcDbDictionary
280
     1
281
     1
  3
ACAD_XREC_ROUNDTRIP
360
165E5
  0
DICTIONARY
  5
165FE
330
13D13
100
AcDbDictionary
280
     1
281
     1
  3
ACAD_XREC_ROUNDTRIP
360
165FF
  0
DICTIONARY
  5
165EC
330
13D0A
100
AcDbDictionary
280
     1
281
     1
  3
ACAD_XREC_ROUNDTRIP
360
165ED
  0
DICTIONARY
  5
165D0
330
13CFC
100
AcDbDictionary
280
     1
281
     1
  3
ACAD_XREC_ROUNDTRIP
360
165D1
  0
DICTIONARY
  5
165D2
330
13CFD
100
AcDbDictionary
280
     1
281
     1
  3
ACAD_XREC_ROUNDTRIP
360
165D3
  0
DICTIONARY
  5
165D4
330
13CFE
100
AcDbDictionary
280
     1
281
     1
  3
ACAD_XREC_ROUNDTRIP
360
165D5
  0
DICTIONARY
  5
165D6
330
13CFF
100
AcDbDictionary
280
     1
281
     1
  3
ACAD_XREC_ROUNDTRIP
360
165D7
  0
DICTIONARY
  5
165DE
330
13D03
100
AcDbDictionary
280
     1
281
     1
  3
ACAD_XREC_ROUNDTRIP
360
165DF
  0
DICTIONARY
  5
165FA
330
13D11
100
AcDbDictionary
280
     1
281
     1
  3
ACAD_XREC_ROUNDTRIP
360
165FB
  0
DICTIONARY
  5
165EA
330
13D09
100
AcDbDictionary
280
     1
281
     1
  3
ACAD_XREC_ROUNDTRIP
360
165EB
  0
DICTIONARY
  5
165FC
330
13D12
100
AcDbDictionary
280
     1
281
     1
  3
ACAD_XREC_ROUNDTRIP
360
165FD
  0
DICTIONARY
  5
165E2
330
13D05
100
AcDbDictionary
280
     1
281
     1
  3
ACAD_XREC_ROUNDTRIP
360
165E3
  0
DICTIONARY
  5
165F8
330
13D10
100
AcDbDictionary
280
     1
281
     1
  3
ACAD_XREC_ROUNDTRIP
360
165F9
  0
DICTIONARY
  5
165F6
330
13D0F
100
AcDbDictionary
280
     1
281
     1
  3
ACAD_XREC_ROUNDTRIP
360
165F7
  0
DICTIONARY
  5
165F0
330
13D0C
100
AcDbDictionary
280
     1
281
     1
  3
ACAD_XREC_ROUNDTRIP
360
165F1
  0
DICTIONARY
  5
165F2
330
13D0D
100
AcDbDictionary
280
     1
281
     1
  3
ACAD_XREC_ROUNDTRIP
360
165F3
  0
DICTIONARY
  5
165E8
330
13D08
100
AcDbDictionary
280
     1
281
     1
  3
ACAD_XREC_ROUNDTRIP
360
165E9
  0
DICTIONARY
  5
165DC
330
13D02
100
AcDbDictionary
280
     1
281
     1
  3
ACAD_XREC_ROUNDTRIP
360
165DD
  0
DICTIONARY
  5
165F4
330
13D0E
100
AcDbDictionary
280
     1
281
     1
  3
ACAD_XREC_ROUNDTRIP
360
165F5
  0
XRECORD
  5
16606
102
{ACAD_REACTORS
330
16605
102
}
330
16605
100
AcDbXrecord
280
     1
102
DISPLAYNAME
  1
Metric50
102
FLAGS
 90
        0
  0
XRECORD
  5
165CA
102
{ACAD_REACTORS
330
165C9
102
}
330
165C9
100
AcDbXrecord
280
     1
102
SHADEPLOT
 70
     0
102
SHADEPLOTRESLEVEL
 70
     2
102
SHADEPLOTCUSTOMDPI
 70
   300
  0
XRECORD
  5
165CC
102
{ACAD_REACTORS
330
165CB
102
}
330
165CB
100
AcDbXrecord
280
     1
102
SHADEPLOT
 70
     0
102
SHADEPLOTRESLEVEL
 70
     2
102
SHADEPLOTCUSTOMDPI
 70
   300
  0
XRECORD
  5
165CE
102
{ACAD_REACTORS
330
13CEC
102
}
330
13CEC
100
AcDbXrecord
280
     1
102
MATERIAL
148
0.0
149
0.0
149
0.0
 93
        0
 94
      127
282
     0
 72
     0
 77
     0
171
     0
175
     0
179
     0
273
     0
  0
XRECORD
  5
13CEE
102
{ACAD_REACTORS
330
13CEC
102
}
330
13CEC
100
AcDbXrecord
280
     1
270
     1
271
     1
  0
XRECORD
  5
13CED
102
{ACAD_REACTORS
330
13CEC
102
}
330
13CEC
100
AcDbXrecord
280
     1
270
     1
271
     1
  0
XRECORD
  5
13CF1
102
{ACAD_REACTORS
330
13CEC
102
}
330
13CEC
100
AcDbXrecord
280
     1
270
     1
271
     1
  0
XRECORD
  5
13CF0
102
{ACAD_REACTORS
330
13CEC
102
}
330
13CEC
100
AcDbXrecord
280
     1
270
     1
271
     1
  0
XRECORD
  5
13CF2
102
{ACAD_REACTORS
330
13CEC
102
}
330
13CEC
100
AcDbXrecord
280
     1
270
     1
271
     1
  0
XRECORD
  5
13CEF
102
{ACAD_REACTORS
330
13CEC
102
}
330
13CEC
100
AcDbXrecord
280
     1
270
     1
271
     1
  0
XRECORD
  5
165CD
102
{ACAD_REACTORS
330
13CE4
102
}
330
13CE4
100
AcDbXrecord
280
     1
102
MATERIAL
148
0.0
149
0.0
149
0.0
 93
        0
 94
      127
282
     0
 72
     0
 77
     0
171
     0
175
     0
179
     0
273
     0
  0
XRECORD
  5
13CE6
102
{ACAD_REACTORS
330
13CE4
102
}
330
13CE4
100
AcDbXrecord
280
     1
270
     1
271
     1
  0
XRECORD
  5
13CE5
102
{ACAD_REACTORS
330
13CE4
102
}
330
13CE4
100
AcDbXrecord
280
     1
270
     1
271
     1
  0
XRECORD
  5
13CE9
102
{ACAD_REACTORS
330
13CE4
102
}
330
13CE4
100
AcDbXrecord
280
     1
270
     1
271
     1
  0
XRECORD
  5
13CE8
102
{ACAD_REACTORS
330
13CE4
102
}
330
13CE4
100
AcDbXrecord
280
     1
270
     1
271
     1
  0
XRECORD
  5
13CEA
102
{ACAD_REACTORS
330
13CE4
102
}
330
13CE4
100
AcDbXrecord
280
     1
270
     1
271
     1
  0
XRECORD
  5
13CE7
102
{ACAD_REACTORS
330
13CE4
102
}
330
13CE4
100
AcDbXrecord
280
     1
270
     1
271
     1
  0
XRECORD
  5
165CF
102
{ACAD_REACTORS
330
13CF4
102
}
330
13CF4
100
AcDbXrecord
280
     1
102
MATERIAL
148
0.0
149
0.0
149
0.0
 93
        0
 94
      127
282
     0
 72
     0
 77
     0
171
     0
175
     0
179
     0
273
     0
  0
XRECORD
  5
13CF6
102
{ACAD_REACTORS
330
13CF4
102
}
330
13CF4
100
AcDbXrecord
280
     1
270
     1
271
     1
  0
XRECORD
  5
13CF5
102
{ACAD_REACTORS
330
13CF4
102
}
330
13CF4
100
AcDbXrecord
280
     1
270
     1
271
     1
  0
XRECORD
  5
13CF9
102
{ACAD_REACTORS
330
13CF4
102
}
330
13CF4
100
AcDbXrecord
280
     1
270
     1
271
     1
  0
XRECORD
  5
13CF8
102
{ACAD_REACTORS
330
13CF4
102
}
330
13CF4
100
AcDbXrecord
280
     1
270
     1
271
     1
  0
XRECORD
  5
13CFA
102
{ACAD_REACTORS
330
13CF4
102
}
330
13CF4
100
AcDbXrecord
280
     1
270
     1
271
     1
  0
XRECORD
  5
13CF7
102
{ACAD_REACTORS
330
13CF4
102
}
330
13CF4
100
AcDbXrecord
280
     1
270
     1
271
     1
  0
XRECORD
  5
16602
102
{ACAD_REACTORS
330
16601
102
}
330
16601
100
AcDbXrecord
280
     1
102
ACAD_ROUNDTRIP_2012_MLEADER_STYLE
298
     1
  0
XRECORD
  5
16604
102
{ACAD_REACTORS
330
16603
102
}
330
16603
100
AcDbXrecord
280
     1
102
DISPLAYNAME
  1
Metric50
102
FLAGS
 90
        0
  0
CELLSTYLEMAP
  5
165C6
102
{ACAD_REACTORS
330
162BC
102
}
330
162BC
100
AcDbCellStyleMap
 90
        3
300
CELLSTYLE
  1
TABLEFORMAT_BEGIN
 90
        5
170
     1
 91
        0
 92
    32768
 62
   257
 93
        1
300
CONTENTFORMAT
  1
CONTENTFORMAT_BEGIN
 90
        0
 91
        0
 92
      512
 93
        0
300

 40
0.0
140
1.0
 94
        5
 62
     0
340
7475
144
6.0
309
CONTENTFORMAT_END
171
     1
301
MARGIN
  1
CELLMARGIN_BEGIN
 40
1.5
 40
1.5
 40
1.5
 40
1.5
 40
4.5
 40
4.5
309
CELLMARGIN_END
 94
        6
 95
        1
302
GRIDFORMAT
  1
GRIDFORMAT_BEGIN
 90
        0
 91
        1
 62
     0
 92
       -2
340
0
 93
        0
 40
1.125
309
GRIDFORMAT_END
 95
        2
302
GRIDFORMAT
  1
GRIDFORMAT_BEGIN
 90
        0
 91
        1
 62
     0
 92
       -2
340
0
 93
        0
 40
1.125
309
GRIDFORMAT_END
 95
        4
302
GRIDFORMAT
  1
GRIDFORMAT_BEGIN
 90
        0
 91
        1
 62
     0
 92
       -2
340
0
 93
        0
 40
1.125
309
GRIDFORMAT_END
 95
        8
302
GRIDFORMAT
  1
GRIDFORMAT_BEGIN
 90
        0
 91
        1
 62
     0
 92
       -2
340
0
 93
        0
 40
1.125
309
GRIDFORMAT_END
 95
       16
302
GRIDFORMAT
  1
GRIDFORMAT_BEGIN
 90
        0
 91
        1
 62
     0
 92
       -2
340
0
 93
        0
 40
1.125
309
GRIDFORMAT_END
 95
       32
302
GRIDFORMAT
  1
GRIDFORMAT_BEGIN
 90
        0
 91
        1
 62
     0
 92
       -2
340
0
 93
        0
 40
1.125
309
GRIDFORMAT_END
309
TABLEFORMAT_END
  1
CELLSTYLE_BEGIN
 90
        1
 91
        1
300
_TITLE
309
CELLSTYLE_END
300
CELLSTYLE
  1
TABLEFORMAT_BEGIN
 90
        5
170
     1
 91
        0
 92
        0
 62
   257
 93
        1
300
CONTENTFORMAT
  1
CONTENTFORMAT_BEGIN
 90
        0
 91
        0
 92
      512
 93
        0
300

 40
0.0
140
1.0
 94
        5
 62
     0
340
7475
144
4.5
309
CONTENTFORMAT_END
171
     1
301
MARGIN
  1
CELLMARGIN_BEGIN
 40
1.5
 40
1.5
 40
1.5
 40
1.5
 40
4.5
 40
4.5
309
CELLMARGIN_END
 94
        6
 95
        1
302
GRIDFORMAT
  1
GRIDFORMAT_BEGIN
 90
        0
 91
        1
 62
     0
 92
       -2
340
0
 93
        0
 40
1.125
309
GRIDFORMAT_END
 95
        2
302
GRIDFORMAT
  1
GRIDFORMAT_BEGIN
 90
        0
 91
        1
 62
     0
 92
       -2
340
0
 93
        0
 40
1.125
309
GRIDFORMAT_END
 95
        4
302
GRIDFORMAT
  1
GRIDFORMAT_BEGIN
 90
        0
 91
        1
 62
     0
 92
       -2
340
0
 93
        0
 40
1.125
309
GRIDFORMAT_END
 95
        8
302
GRIDFORMAT
  1
GRIDFORMAT_BEGIN
 90
        0
 91
        1
 62
     0
 92
       -2
340
0
 93
        0
 40
1.125
309
GRIDFORMAT_END
 95
       16
302
GRIDFORMAT
  1
GRIDFORMAT_BEGIN
 90
        0
 91
        1
 62
     0
 92
       -2
340
0
 93
        0
 40
1.125
309
GRIDFORMAT_END
 95
       32
302
GRIDFORMAT
  1
GRIDFORMAT_BEGIN
 90
        0
 91
        1
 62
     0
 92
       -2
340
0
 93
        0
 40
1.125
309
GRIDFORMAT_END
309
TABLEFORMAT_END
  1
CELLSTYLE_BEGIN
 90
        2
 91
        1
300
_HEADER
309
CELLSTYLE_END
300
CELLSTYLE
  1
TABLEFORMAT_BEGIN
 90
        5
170
     1
 91
        0
 92
        0
 62
   257
 93
        1
300
CONTENTFORMAT
  1
CONTENTFORMAT_BEGIN
 90
        0
 91
        0
 92
      512
 93
        0
300

 40
0.0
140
1.0
 94
        2
 62
     0
340
7475
144
4.5
309
CONTENTFORMAT_END
171
     1
301
MARGIN
  1
CELLMARGIN_BEGIN
 40
1.5
 40
1.5
 40
1.5
 40
1.5
 40
4.5
 40
4.5
309
CELLMARGIN_END
 94
        6
 95
        1
302
GRIDFORMAT
  1
GRIDFORMAT_BEGIN
 90
        0
 91
        1
 62
     0
 92
       -2
340
0
 93
        0
 40
1.125
309
GRIDFORMAT_END
 95
        2
302
GRIDFORMAT
  1
GRIDFORMAT_BEGIN
 90
        0
 91
        1
 62
     0
 92
       -2
340
0
 93
        0
 40
1.125
309
GRIDFORMAT_END
 95
        4
302
GRIDFORMAT
  1
GRIDFORMAT_BEGIN
 90
        0
 91
        1
 62
     0
 92
       -2
340
0
 93
        0
 40
1.125
309
GRIDFORMAT_END
 95
        8
302
GRIDFORMAT
  1
GRIDFORMAT_BEGIN
 90
        0
 91
        1
 62
     0
 92
       -2
340
0
 93
        0
 40
1.125
309
GRIDFORMAT_END
 95
       16
302
GRIDFORMAT
  1
GRIDFORMAT_BEGIN
 90
        0
 91
        1
 62
     0
 92
       -2
340
0
 93
        0
 40
1.125
309
GRIDFORMAT_END
 95
       32
302
GRIDFORMAT
  1
GRIDFORMAT_BEGIN
 90
        0
 91
        1
 62
     0
 92
       -2
340
0
 93
        0
 40
1.125
309
GRIDFORMAT_END
309
TABLEFORMAT_END
  1
CELLSTYLE_BEGIN
 90
        3
 91
        2
300
_DATA
309
CELLSTYLE_END
  0
XRECORD
  5
16600
102
{ACAD_REACTORS
330
162BC
102
}
330
162BC
100
AcDbXrecord
280
     1
102
ACAD_ROUNDTRIP_PRE2007_TABLESTYLE
 90
      512
 91
        0
  1

 92
      512
 93
        0
  2

 94
      512
 95
        0
  3

  0
XRECORD
  5
165DB
102
{ACAD_REACTORS
330
165DA
102
}
330
165DA
100
AcDbXrecord
280
     1
102
RTVSPost2010Prop28
280
     1
102
RTVSPost2010PropOp28
 70
     1
102
RTVSPost2010Prop29
280
     1
102
RTVSPost2010PropOp29
 70
     1
102
RTVSPost2010Prop30
280
     0
102
RTVSPost2010PropOp30
 70
     1
102
RTVSPost2010Prop31
280
     0
102
RTVSPost2010PropOp31
 70
     1
102
RTVSPost2010Prop32
280
     0
102
RTVSPost2010PropOp32
 70
     1
102
RTVSPost2010Prop33
280
     0
102
RTVSPost2010PropOp33
 70
     1
102
RTVSPost2010Prop34
280
     0
102
RTVSPost2010PropOp34
 70
     1
102
RTVSPost2010Prop35
280
     0
102
RTVSPost2010PropOp35
 70
     1
102
RTVSPost2010Prop36
280
     0
102
RTVSPost2010PropOp36
 70
     1
102
RTVSPost2010Prop37
 90
       50
102
RTVSPost2010PropOp37
 70
     1
102
RTVSPost2010Prop38
140
0.0
102
RTVSPost2010PropOp38
 70
     1
102
RTVSPost2010Prop39
140
1.0
102
RTVSPost2010PropOp39
 70
     1
102
RTVSPost2010Prop40
 90
        0
102
RTVSPost2010PropOp40
 70
     1
102
RTVSPost2010Prop41ColorIndex
 90
       18
102
RTVSPost2010Prop41ColorRGB
 90
        0
102
RTVSPost2010PropOp41
 70
     1
102
RTVSPost2010Prop42
 90
       50
102
RTVSPost2010PropOp42
 70
     1
102
RTVSPost2010Prop43
 90
        3
102
RTVSPost2010PropOp43
 70
     1
102
RTVSPost2010Prop44ColorIndex
 90
        5
102
RTVSPost2010Prop44ColorRGB
 90
      255
102
RTVSPost2010PropOp44
 70
     1
102
RTVSPost2010Prop45
280
     0
102
RTVSPost2010PropOp45
 70
     1
102
RTVSPost2010Prop46
 90
       50
102
RTVSPost2010PropOp46
 70
     1
102
RTVSPost2010Prop47
 90
       50
102
RTVSPost2010PropOp47
 70
     1
102
RTVSPost2010Prop48
 90
       50
102
RTVSPost2010PropOp48
 70
     1
102
RTVSPost2010Prop49
280
     0
102
RTVSPost2010PropOp49
 70
     1
102
RTVSPost2010Prop50
 90
       50
102
RTVSPost2010PropOp50
 70
     1
102
RTVSPost2010Prop51ColorIndex
 90
      256
102
RTVSPost2010Prop51ColorRGB
 90
-16777216
102
RTVSPost2010PropOp51
 70
     0
102
RTVSPost2010Prop52
140
1.0
102
RTVSPost2010PropOp52
 70
     0
102
RTVSPost2010Prop53
 90
        2
102
RTVSPost2010PropOp53
 70
     1
102
RTVSPost2010Prop54
  1
strokes_ogs.tif
102
RTVSPost2010PropOp54
 70
     1
102
RTVSPost2010Prop55
280
     0
102
RTVSPost2010PropOp55
 70
     1
102
RTVSPost2010Prop56
140
1.0
102
RTVSPost2010PropOp56
 70
     1
102
RTVSPost2010Prop57
140
1.0
102
RTVSPost2010PropOp57
 70
     1
102
RTVSPropertyOp0
 70
     1
102
RTVSPropertyOp1
 70
     1
102
RTVSPropertyOp2
 70
     1
102
RTVSPropertyOp3
 70
     1
102
RTVSPropertyOp4
 70
     1
102
RTVSPropertyOp5
 70
     1
102
RTVSPropertyOp6
 70
     1
102
RTVSPropertyOp7
 70
     1
102
RTVSPropertyOp8
 70
     1
102
RTVSPropertyOp9
 70
     1
102
RTVSPropertyOp10
 70
     1
102
RTVSPropertyOp11
 70
     1
102
RTVSPropertyOp12
 70
     1
102
RTVSPropertyOp13
 70
     1
102
RTVSPropertyOp14
 70
     1
102
RTVSPropertyOp15
 70
     1
102
RTVSPropertyOp16
 70
     1
102
RTVSPropertyOp17
 70
     1
102
RTVSPropertyOp18
 70
     1
102
RTVSPropertyOp19
 70
     1
102
RTVSPropertyOp20
 70
     1
102
RTVSPropertyOp21
 70
     1
102
RTVSPropertyOp22
 70
     1
102
RTVSPropertyOp23
 70
     1
102
RTVSPropertyOp24
 70
     1
102
RTVSPropertyOp25
 70
     1
102
RTVSPropertyOp26
 70
     1
102
RTVSPropertyOp27
 70
     1
102
RTVSPropertyOp28
 70
     1
102
RTVSPropertyOp29
 70
     1
102
RTVSPropertyOp30
 70
     1
102
RTVSPropertyOp31
 70
     1
102
RTVSPropertyOp32
 70
     1
102
RTVSPropertyOp33
 70
     1
102
RTVSPropertyOp34
 70
     1
102
RTVSPropertyOp35
 70
     1
102
RTVSPropertyOp36
 70
     1
102
RTVSPropertyOp37
 70
     1
102
RTVSPropertyOp38
 70
     1
102
RTVSPropertyOp39
 70
     1
102
RTVSPropertyOp40
 70
     1
102
RTVSPropertyOp41
 70
     1
102
RTVSPropertyOp42
 70
     1
102
RTVSPropertyOp43
 70
     1
102
RTVSPropertyOp44
 70
     1
102
RTVSPropertyOp45
 70
     1
102
RTVSPropertyOp46
 70
     1
102
RTVSPropertyOp47
 70
     1
102
RTVSPropertyOp48
 70
     1
102
RTVSPropertyOp49
 70
     1
102
RTVSPropertyOp50
 70
     1
102
RTVSPropertyOp51
 70
     0
102
RTVSPropertyOp52
 70
     0
102
RTVSPropertyOp53
 70
     1
102
RTVSPropertyOp54
 70
     1
102
RTVSPropertyOp55
 70
     1
102
RTVSPropertyOp56
 70
     1
102
RTVSPropertyOp57
 70
     1
102
RTVSPropertyOp58
 70
     1
102
RTVSPropertyOp59
 70
     1
102
RTVSPropertyOp60
 70
     1
102
RTVSPropertyOp61
 70
     1
102
RTVSPropertyOp62
 70
     1
  0
XRECORD
  5
165D9
102
{ACAD_REACTORS
330
165D8
102
}
330
165D8
100
AcDbXrecord
280
     1
102
RTVSPost2010Prop28
280
     0
102
RTVSPost2010PropOp28
 70
     1
102
RTVSPost2010Prop29
280
     1
102
RTVSPost2010PropOp29
 70
     1
102
RTVSPost2010Prop30
280
     1
102
RTVSPost2010PropOp30
 70
     1
102
RTVSPost2010Prop31
280
     0
102
RTVSPost2010PropOp31
 70
     1
102
RTVSPost2010Prop32
280
     0
102
RTVSPost2010PropOp32
 70
     1
102
RTVSPost2010Prop33
280
     0
102
RTVSPost2010PropOp33
 70
     1
102
RTVSPost2010Prop34
280
     0
102
RTVSPost2010PropOp34
 70
     1
102
RTVSPost2010Prop35
280
     0
102
RTVSPost2010PropOp35
 70
     1
102
RTVSPost2010Prop36
280
     0
102
RTVSPost2010PropOp36
 70
     1
102
RTVSPost2010Prop37
 90
       50
102
RTVSPost2010PropOp37
 70
     1
102
RTVSPost2010Prop38
140
0.0
102
RTVSPost2010PropOp38
 70
     1
102
RTVSPost2010Prop39
140
1.0
102
RTVSPost2010PropOp39
 70
     1
102
RTVSPost2010Prop40
 90
        0
102
RTVSPost2010PropOp40
 70
     1
102
RTVSPost2010Prop41ColorIndex
 90
       18
102
RTVSPost2010Prop41ColorRGB
 90
        0
102
RTVSPost2010PropOp41
 70
     1
102
RTVSPost2010Prop42
 90
       50
102
RTVSPost2010PropOp42
 70
     1
102
RTVSPost2010Prop43
 90
        3
102
RTVSPost2010PropOp43
 70
     1
102
RTVSPost2010Prop44ColorIndex
 90
        5
102
RTVSPost2010Prop44ColorRGB
 90
      255
102
RTVSPost2010PropOp44
 70
     1
102
RTVSPost2010Prop45
280
     0
102
RTVSPost2010PropOp45
 70
     1
102
RTVSPost2010Prop46
 90
       50
102
RTVSPost2010PropOp46
 70
     1
102
RTVSPost2010Prop47
 90
       50
102
RTVSPost2010PropOp47
 70
     1
102
RTVSPost2010Prop48
 90
       50
102
RTVSPost2010PropOp48
 70
     1
102
RTVSPost2010Prop49
280
     0
102
RTVSPost2010PropOp49
 70
     1
102
RTVSPost2010Prop50
 90
       50
102
RTVSPost2010PropOp50
 70
     1
102
RTVSPost2010Prop51ColorIndex
 90
      256
102
RTVSPost2010Prop51ColorRGB
 90
-16777216
102
RTVSPost2010PropOp51
 70
     0
102
RTVSPost2010Prop52
140
1.0
102
RTVSPost2010PropOp52
 70
     0
102
RTVSPost2010Prop53
 90
        2
102
RTVSPost2010PropOp53
 70
     1
102
RTVSPost2010Prop54
  1
strokes_ogs.tif
102
RTVSPost2010PropOp54
 70
     1
102
RTVSPost2010Prop55
280
     0
102
RTVSPost2010PropOp55
 70
     1
102
RTVSPost2010Prop56
140
1.0
102
RTVSPost2010PropOp56
 70
     1
102
RTVSPost2010Prop57
140
1.0
102
RTVSPost2010PropOp57
 70
     1
102
RTVSPropertyOp0
 70
     1
102
RTVSPropertyOp1
 70
     1
102
RTVSPropertyOp2
 70
     1
102
RTVSPropertyOp3
 70
     1
102
RTVSPropertyOp4
 70
     1
102
RTVSPropertyOp5
 70
     1
102
RTVSPropertyOp6
 70
     1
102
RTVSPropertyOp7
 70
     1
102
RTVSPropertyOp8
 70
     1
102
RTVSPropertyOp9
 70
     1
102
RTVSPropertyOp10
 70
     1
102
RTVSPropertyOp11
 70
     1
102
RTVSPropertyOp12
 70
     1
102
RTVSPropertyOp13
 70
     1
102
RTVSPropertyOp14
 70
     1
102
RTVSPropertyOp15
 70
     1
102
RTVSPropertyOp16
 70
     1
102
RTVSPropertyOp17
 70
     1
102
RTVSPropertyOp18
 70
     1
102
RTVSPropertyOp19
 70
     1
102
RTVSPropertyOp20
 70
     1
102
RTVSPropertyOp21
 70
     1
102
RTVSPropertyOp22
 70
     1
102
RTVSPropertyOp23
 70
     1
102
RTVSPropertyOp24
 70
     1
102
RTVSPropertyOp25
 70
     1
102
RTVSPropertyOp26
 70
     1
102
RTVSPropertyOp27
 70
     1
102
RTVSPropertyOp28
 70
     1
102
RTVSPropertyOp29
 70
     1
102
RTVSPropertyOp30
 70
     1
102
RTVSPropertyOp31
 70
     1
102
RTVSPropertyOp32
 70
     1
102
RTVSPropertyOp33
 70
     1
102
RTVSPropertyOp34
 70
     1
102
RTVSPropertyOp35
 70
     1
102
RTVSPropertyOp36
 70
     1
102
RTVSPropertyOp37
 70
     1
102
RTVSPropertyOp38
 70
     1
102
RTVSPropertyOp39
 70
     1
102
RTVSPropertyOp40
 70
     1
102
RTVSPropertyOp41
 70
     1
102
RTVSPropertyOp42
 70
     1
102
RTVSPropertyOp43
 70
     1
102
RTVSPropertyOp44
 70
     1
102
RTVSPropertyOp45
 70
     1
102
RTVSPropertyOp46
 70
     1
102
RTVSPropertyOp47
 70
     1
102
RTVSPropertyOp48
 70
     1
102
RTVSPropertyOp49
 70
     1
102
RTVSPropertyOp50
 70
     1
102
RTVSPropertyOp51
 70
     0
102
RTVSPropertyOp52
 70
     0
102
RTVSPropertyOp53
 70
     1
102
RTVSPropertyOp54
 70
     1
102
RTVSPropertyOp55
 70
     1
102
RTVSPropertyOp56
 70
     1
102
RTVSPropertyOp57
 70
     1
102
RTVSPropertyOp58
 70
     1
102
RTVSPropertyOp59
 70
     1
102
RTVSPropertyOp60
 70
     1
102
RTVSPropertyOp61
 70
     1
102
RTVSPropertyOp62
 70
     1
  0
XRECORD
  5
165E7
102
{ACAD_REACTORS
330
165E6
102
}
330
165E6
100
AcDbXrecord
280
     1
102
RTVSPost2010Prop28
280
     0
102
RTVSPost2010PropOp28
 70
     1
102
RTVSPost2010Prop29
280
     1
102
RTVSPost2010PropOp29
 70
     1
102
RTVSPost2010Prop30
280
     1
102
RTVSPost2010PropOp30
 70
     1
102
RTVSPost2010Prop31
280
     0
102
RTVSPost2010PropOp31
 70
     1
102
RTVSPost2010Prop32
280
     0
102
RTVSPost2010PropOp32
 70
     1
102
RTVSPost2010Prop33
280
     0
102
RTVSPost2010PropOp33
 70
     1
102
RTVSPost2010Prop34
280
     0
102
RTVSPost2010PropOp34
 70
     1
102
RTVSPost2010Prop35
280
     0
102
RTVSPost2010PropOp35
 70
     1
102
RTVSPost2010Prop36
280
     0
102
RTVSPost2010PropOp36
 70
     1
102
RTVSPost2010Prop37
 90
       50
102
RTVSPost2010PropOp37
 70
     1
102
RTVSPost2010Prop38
140
0.0
102
RTVSPost2010PropOp38
 70
     1
102
RTVSPost2010Prop39
140
1.0
102
RTVSPost2010PropOp39
 70
     1
102
RTVSPost2010Prop40
 90
        0
102
RTVSPost2010PropOp40
 70
     1
102
RTVSPost2010Prop41ColorIndex
 90
       18
102
RTVSPost2010Prop41ColorRGB
 90
        0
102
RTVSPost2010PropOp41
 70
     1
102
RTVSPost2010Prop42
 90
       50
102
RTVSPost2010PropOp42
 70
     1
102
RTVSPost2010Prop43
 90
        3
102
RTVSPost2010PropOp43
 70
     1
102
RTVSPost2010Prop44ColorIndex
 90
        5
102
RTVSPost2010Prop44ColorRGB
 90
      255
102
RTVSPost2010PropOp44
 70
     1
102
RTVSPost2010Prop45
280
     0
102
RTVSPost2010PropOp45
 70
     1
102
RTVSPost2010Prop46
 90
       50
102
RTVSPost2010PropOp46
 70
     1
102
RTVSPost2010Prop47
 90
       50
102
RTVSPost2010PropOp47
 70
     1
102
RTVSPost2010Prop48
 90
       50
102
RTVSPost2010PropOp48
 70
     1
102
RTVSPost2010Prop49
280
     0
102
RTVSPost2010PropOp49
 70
     1
102
RTVSPost2010Prop50
 90
       50
102
RTVSPost2010PropOp50
 70
     1
102
RTVSPost2010Prop51ColorIndex
 90
      256
102
RTVSPost2010Prop51ColorRGB
 90
-16777216
102
RTVSPost2010PropOp51
 70
     0
102
RTVSPost2010Prop52
140
1.0
102
RTVSPost2010PropOp52
 70
     0
102
RTVSPost2010Prop53
 90
        2
102
RTVSPost2010PropOp53
 70
     1
102
RTVSPost2010Prop54
  1
strokes_ogs.tif
102
RTVSPost2010PropOp54
 70
     1
102
RTVSPost2010Prop55
280
     0
102
RTVSPost2010PropOp55
 70
     1
102
RTVSPost2010Prop56
140
1.0
102
RTVSPost2010PropOp56
 70
     1
102
RTVSPost2010Prop57
140
1.0
102
RTVSPost2010PropOp57
 70
     1
102
RTVSPropertyOp0
 70
     1
102
RTVSPropertyOp1
 70
     1
102
RTVSPropertyOp2
 70
     1
102
RTVSPropertyOp3
 70
     1
102
RTVSPropertyOp4
 70
     1
102
RTVSPropertyOp5
 70
     1
102
RTVSPropertyOp6
 70
     1
102
RTVSPropertyOp7
 70
     1
102
RTVSPropertyOp8
 70
     1
102
RTVSPropertyOp9
 70
     1
102
RTVSPropertyOp10
 70
     1
102
RTVSPropertyOp11
 70
     1
102
RTVSPropertyOp12
 70
     1
102
RTVSPropertyOp13
 70
     1
102
RTVSPropertyOp14
 70
     1
102
RTVSPropertyOp15
 70
     1
102
RTVSPropertyOp16
 70
     1
102
RTVSPropertyOp17
 70
     1
102
RTVSPropertyOp18
 70
     1
102
RTVSPropertyOp19
 70
     1
102
RTVSPropertyOp20
 70
     1
102
RTVSPropertyOp21
 70
     1
102
RTVSPropertyOp22
 70
     1
102
RTVSPropertyOp23
 70
     1
102
RTVSPropertyOp24
 70
     1
102
RTVSPropertyOp25
 70
     1
102
RTVSPropertyOp26
 70
     1
102
RTVSPropertyOp27
 70
     1
102
RTVSPropertyOp28
 70
     1
102
RTVSPropertyOp29
 70
     1
102
RTVSPropertyOp30
 70
     1
102
RTVSPropertyOp31
 70
     1
102
RTVSPropertyOp32
 70
     1
102
RTVSPropertyOp33
 70
     1
102
RTVSPropertyOp34
 70
     1
102
RTVSPropertyOp35
 70
     1
102
RTVSPropertyOp36
 70
     1
102
RTVSPropertyOp37
 70
     1
102
RTVSPropertyOp38
 70
     1
102
RTVSPropertyOp39
 70
     1
102
RTVSPropertyOp40
 70
     1
102
RTVSPropertyOp41
 70
     1
102
RTVSPropertyOp42
 70
     1
102
RTVSPropertyOp43
 70
     1
102
RTVSPropertyOp44
 70
     1
102
RTVSPropertyOp45
 70
     1
102
RTVSPropertyOp46
 70
     1
102
RTVSPropertyOp47
 70
     1
102
RTVSPropertyOp48
 70
     1
102
RTVSPropertyOp49
 70
     1
102
RTVSPropertyOp50
 70
     1
102
RTVSPropertyOp51
 70
     0
102
RTVSPropertyOp52
 70
     0
102
RTVSPropertyOp53
 70
     1
102
RTVSPropertyOp54
 70
     1
102
RTVSPropertyOp55
 70
     1
102
RTVSPropertyOp56
 70
     1
102
RTVSPropertyOp57
 70
     1
102
RTVSPropertyOp58
 70
     1
102
RTVSPropertyOp59
 70
     1
102
RTVSPropertyOp60
 70
     1
102
RTVSPropertyOp61
 70
     1
102
RTVSPropertyOp62
 70
     1
  0
XRECORD
  5
165EF
102
{ACAD_REACTORS
330
165EE
102
}
330
165EE
100
AcDbXrecord
280
     1
102
RTVSPost2010Prop28
280
     0
102
RTVSPost2010PropOp28
 70
     1
102
RTVSPost2010Prop29
280
     1
102
RTVSPost2010PropOp29
 70
     1
102
RTVSPost2010Prop30
280
     1
102
RTVSPost2010PropOp30
 70
     1
102
RTVSPost2010Prop31
280
     0
102
RTVSPost2010PropOp31
 70
     1
102
RTVSPost2010Prop32
280
     0
102
RTVSPost2010PropOp32
 70
     1
102
RTVSPost2010Prop33
280
     0
102
RTVSPost2010PropOp33
 70
     1
102
RTVSPost2010Prop34
280
     0
102
RTVSPost2010PropOp34
 70
     1
102
RTVSPost2010Prop35
280
     0
102
RTVSPost2010PropOp35
 70
     1
102
RTVSPost2010Prop36
280
     0
102
RTVSPost2010PropOp36
 70
     1
102
RTVSPost2010Prop37
 90
       50
102
RTVSPost2010PropOp37
 70
     1
102
RTVSPost2010Prop38
140
0.0
102
RTVSPost2010PropOp38
 70
     1
102
RTVSPost2010Prop39
140
1.0
102
RTVSPost2010PropOp39
 70
     1
102
RTVSPost2010Prop40
 90
        0
102
RTVSPost2010PropOp40
 70
     1
102
RTVSPost2010Prop41ColorIndex
 90
       18
102
RTVSPost2010Prop41ColorRGB
 90
        0
102
RTVSPost2010PropOp41
 70
     1
102
RTVSPost2010Prop42
 90
       50
102
RTVSPost2010PropOp42
 70
     1
102
RTVSPost2010Prop43
 90
        3
102
RTVSPost2010PropOp43
 70
     1
102
RTVSPost2010Prop44ColorIndex
 90
        5
102
RTVSPost2010Prop44ColorRGB
 90
      255
102
RTVSPost2010PropOp44
 70
     1
102
RTVSPost2010Prop45
280
     0
102
RTVSPost2010PropOp45
 70
     1
102
RTVSPost2010Prop46
 90
       50
102
RTVSPost2010PropOp46
 70
     1
102
RTVSPost2010Prop47
 90
       50
102
RTVSPost2010PropOp47
 70
     1
102
RTVSPost2010Prop48
 90
       50
102
RTVSPost2010PropOp48
 70
     1
102
RTVSPost2010Prop49
280
     0
102
RTVSPost2010PropOp49
 70
     1
102
RTVSPost2010Prop50
 90
       50
102
RTVSPost2010PropOp50
 70
     1
102
RTVSPost2010Prop51ColorIndex
 90
      256
102
RTVSPost2010Prop51ColorRGB
 90
-16777216
102
RTVSPost2010PropOp51
 70
     0
102
RTVSPost2010Prop52
140
1.0
102
RTVSPost2010PropOp52
 70
     0
102
RTVSPost2010Prop53
 90
        2
102
RTVSPost2010PropOp53
 70
     1
102
RTVSPost2010Prop54
  1
strokes_ogs.tif
102
RTVSPost2010PropOp54
 70
     1
102
RTVSPost2010Prop55
280
     0
102
RTVSPost2010PropOp55
 70
     1
102
RTVSPost2010Prop56
140
1.0
102
RTVSPost2010PropOp56
 70
     1
102
RTVSPost2010Prop57
140
1.0
102
RTVSPost2010PropOp57
 70
     1
102
RTVSPropertyOp0
 70
     1
102
RTVSPropertyOp1
 70
     1
102
RTVSPropertyOp2
 70
     1
102
RTVSPropertyOp3
 70
     1
102
RTVSPropertyOp4
 70
     1
102
RTVSPropertyOp5
 70
     1
102
RTVSPropertyOp6
 70
     1
102
RTVSPropertyOp7
 70
     1
102
RTVSPropertyOp8
 70
     1
102
RTVSPropertyOp9
 70
     1
102
RTVSPropertyOp10
 70
     1
102
RTVSPropertyOp11
 70
     1
102
RTVSPropertyOp12
 70
     1
102
RTVSPropertyOp13
 70
     1
102
RTVSPropertyOp14
 70
     1
102
RTVSPropertyOp15
 70
     1
102
RTVSPropertyOp16
 70
     1
102
RTVSPropertyOp17
 70
     1
102
RTVSPropertyOp18
 70
     1
102
RTVSPropertyOp19
 70
     1
102
RTVSPropertyOp20
 70
     1
102
RTVSPropertyOp21
 70
     1
102
RTVSPropertyOp22
 70
     1
102
RTVSPropertyOp23
 70
     1
102
RTVSPropertyOp24
 70
     1
102
RTVSPropertyOp25
 70
     1
102
RTVSPropertyOp26
 70
     1
102
RTVSPropertyOp27
 70
     1
102
RTVSPropertyOp28
 70
     1
102
RTVSPropertyOp29
 70
     1
102
RTVSPropertyOp30
 70
     1
102
RTVSPropertyOp31
 70
     1
102
RTVSPropertyOp32
 70
     1
102
RTVSPropertyOp33
 70
     1
102
RTVSPropertyOp34
 70
     1
102
RTVSPropertyOp35
 70
     1
102
RTVSPropertyOp36
 70
     1
102
RTVSPropertyOp37
 70
     1
102
RTVSPropertyOp38
 70
     1
102
RTVSPropertyOp39
 70
     1
102
RTVSPropertyOp40
 70
     1
102
RTVSPropertyOp41
 70
     1
102
RTVSPropertyOp42
 70
     1
102
RTVSPropertyOp43
 70
     1
102
RTVSPropertyOp44
 70
     1
102
RTVSPropertyOp45
 70
     1
102
RTVSPropertyOp46
 70
     1
102
RTVSPropertyOp47
 70
     1
102
RTVSPropertyOp48
 70
     1
102
RTVSPropertyOp49
 70
     1
102
RTVSPropertyOp50
 70
     1
102
RTVSPropertyOp51
 70
     0
102
RTVSPropertyOp52
 70
     0
102
RTVSPropertyOp53
 70
     1
102
RTVSPropertyOp54
 70
     1
102
RTVSPropertyOp55
 70
     1
102
RTVSPropertyOp56
 70
     1
102
RTVSPropertyOp57
 70
     1
102
RTVSPropertyOp58
 70
     1
102
RTVSPropertyOp59
 70
     1
102
RTVSPropertyOp60
 70
     1
102
RTVSPropertyOp61
 70
     1
102
RTVSPropertyOp62
 70
     1
  0
XRECORD
  5
165E1
102
{ACAD_REACTORS
330
165E0
102
}
330
165E0
100
AcDbXrecord
280
     1
102
RTVSPost2010Prop28
280
     0
102
RTVSPost2010PropOp28
 70
     1
102
RTVSPost2010Prop29
280
     1
102
RTVSPost2010PropOp29
 70
     1
102
RTVSPost2010Prop30
280
     1
102
RTVSPost2010PropOp30
 70
     1
102
RTVSPost2010Prop31
280
     0
102
RTVSPost2010PropOp31
 70
     1
102
RTVSPost2010Prop32
280
     0
102
RTVSPost2010PropOp32
 70
     1
102
RTVSPost2010Prop33
280
     0
102
RTVSPost2010PropOp33
 70
     1
102
RTVSPost2010Prop34
280
     0
102
RTVSPost2010PropOp34
 70
     1
102
RTVSPost2010Prop35
280
     0
102
RTVSPost2010PropOp35
 70
     1
102
RTVSPost2010Prop36
280
     0
102
RTVSPost2010PropOp36
 70
     1
102
RTVSPost2010Prop37
 90
       50
102
RTVSPost2010PropOp37
 70
     1
102
RTVSPost2010Prop38
140
0.0
102
RTVSPost2010PropOp38
 70
     1
102
RTVSPost2010Prop39
140
1.0
102
RTVSPost2010PropOp39
 70
     1
102
RTVSPost2010Prop40
 90
        0
102
RTVSPost2010PropOp40
 70
     1
102
RTVSPost2010Prop41ColorIndex
 90
       18
102
RTVSPost2010Prop41ColorRGB
 90
        0
102
RTVSPost2010PropOp41
 70
     1
102
RTVSPost2010Prop42
 90
       50
102
RTVSPost2010PropOp42
 70
     1
102
RTVSPost2010Prop43
 90
        3
102
RTVSPost2010PropOp43
 70
     1
102
RTVSPost2010Prop44ColorIndex
 90
        5
102
RTVSPost2010Prop44ColorRGB
 90
      255
102
RTVSPost2010PropOp44
 70
     1
102
RTVSPost2010Prop45
280
     0
102
RTVSPost2010PropOp45
 70
     1
102
RTVSPost2010Prop46
 90
       50
102
RTVSPost2010PropOp46
 70
     1
102
RTVSPost2010Prop47
 90
       50
102
RTVSPost2010PropOp47
 70
     1
102
RTVSPost2010Prop48
 90
       50
102
RTVSPost2010PropOp48
 70
     1
102
RTVSPost2010Prop49
280
     0
102
RTVSPost2010PropOp49
 70
     1
102
RTVSPost2010Prop50
 90
       50
102
RTVSPost2010PropOp50
 70
     1
102
RTVSPost2010Prop51ColorIndex
 90
      256
102
RTVSPost2010Prop51ColorRGB
 90
-16777216
102
RTVSPost2010PropOp51
 70
     0
102
RTVSPost2010Prop52
140
1.0
102
RTVSPost2010PropOp52
 70
     0
102
RTVSPost2010Prop53
 90
        2
102
RTVSPost2010PropOp53
 70
     1
102
RTVSPost2010Prop54
  1
strokes_ogs.tif
102
RTVSPost2010PropOp54
 70
     1
102
RTVSPost2010Prop55
280
     0
102
RTVSPost2010PropOp55
 70
     1
102
RTVSPost2010Prop56
140
1.0
102
RTVSPost2010PropOp56
 70
     1
102
RTVSPost2010Prop57
140
1.0
102
RTVSPost2010PropOp57
 70
     1
102
RTVSPropertyOp0
 70
     1
102
RTVSPropertyOp1
 70
     1
102
RTVSPropertyOp2
 70
     1
102
RTVSPropertyOp3
 70
     1
102
RTVSPropertyOp4
 70
     1
102
RTVSPropertyOp5
 70
     1
102
RTVSPropertyOp6
 70
     1
102
RTVSPropertyOp7
 70
     1
102
RTVSPropertyOp8
 70
     1
102
RTVSPropertyOp9
 70
     1
102
RTVSPropertyOp10
 70
     1
102
RTVSPropertyOp11
 70
     1
102
RTVSPropertyOp12
 70
     1
102
RTVSPropertyOp13
 70
     1
102
RTVSPropertyOp14
 70
     1
102
RTVSPropertyOp15
 70
     1
102
RTVSPropertyOp16
 70
     1
102
RTVSPropertyOp17
 70
     1
102
RTVSPropertyOp18
 70
     1
102
RTVSPropertyOp19
 70
     1
102
RTVSPropertyOp20
 70
     1
102
RTVSPropertyOp21
 70
     1
102
RTVSPropertyOp22
 70
     1
102
RTVSPropertyOp23
 70
     1
102
RTVSPropertyOp24
 70
     1
102
RTVSPropertyOp25
 70
     1
102
RTVSPropertyOp26
 70
     1
102
RTVSPropertyOp27
 70
     1
102
RTVSPropertyOp28
 70
     1
102
RTVSPropertyOp29
 70
     1
102
RTVSPropertyOp30
 70
     1
102
RTVSPropertyOp31
 70
     1
102
RTVSPropertyOp32
 70
     1
102
RTVSPropertyOp33
 70
     1
102
RTVSPropertyOp34
 70
     1
102
RTVSPropertyOp35
 70
     1
102
RTVSPropertyOp36
 70
     1
102
RTVSPropertyOp37
 70
     1
102
RTVSPropertyOp38
 70
     1
102
RTVSPropertyOp39
 70
     1
102
RTVSPropertyOp40
 70
     1
102
RTVSPropertyOp41
 70
     1
102
RTVSPropertyOp42
 70
     1
102
RTVSPropertyOp43
 70
     1
102
RTVSPropertyOp44
 70
     1
102
RTVSPropertyOp45
 70
     1
102
RTVSPropertyOp46
 70
     1
102
RTVSPropertyOp47
 70
     1
102
RTVSPropertyOp48
 70
     1
102
RTVSPropertyOp49
 70
     1
102
RTVSPropertyOp50
 70
     1
102
RTVSPropertyOp51
 70
     0
102
RTVSPropertyOp52
 70
     0
102
RTVSPropertyOp53
 70
     1
102
RTVSPropertyOp54
 70
     1
102
RTVSPropertyOp55
 70
     1
102
RTVSPropertyOp56
 70
     1
102
RTVSPropertyOp57
 70
     1
102
RTVSPropertyOp58
 70
     1
102
RTVSPropertyOp59
 70
     1
102
RTVSPropertyOp60
 70
     1
102
RTVSPropertyOp61
 70
     1
102
RTVSPropertyOp62
 70
     1
  0
XRECORD
  5
165E5
102
{ACAD_REACTORS
330
165E4
102
}
330
165E4
100
AcDbXrecord
280
     1
102
RTVSPost2010Prop28
280
     0
102
RTVSPost2010PropOp28
 70
     1
102
RTVSPost2010Prop29
280
     1
102
RTVSPost2010PropOp29
 70
     1
102
RTVSPost2010Prop30
280
     1
102
RTVSPost2010PropOp30
 70
     1
102
RTVSPost2010Prop31
280
     0
102
RTVSPost2010PropOp31
 70
     1
102
RTVSPost2010Prop32
280
     0
102
RTVSPost2010PropOp32
 70
     1
102
RTVSPost2010Prop33
280
     0
102
RTVSPost2010PropOp33
 70
     1
102
RTVSPost2010Prop34
280
     0
102
RTVSPost2010PropOp34
 70
     1
102
RTVSPost2010Prop35
280
     0
102
RTVSPost2010PropOp35
 70
     1
102
RTVSPost2010Prop36
280
     0
102
RTVSPost2010PropOp36
 70
     1
102
RTVSPost2010Prop37
 90
       50
102
RTVSPost2010PropOp37
 70
     1
102
RTVSPost2010Prop38
140
0.0
102
RTVSPost2010PropOp38
 70
     1
102
RTVSPost2010Prop39
140
1.0
102
RTVSPost2010PropOp39
 70
     1
102
RTVSPost2010Prop40
 90
        0
102
RTVSPost2010PropOp40
 70
     1
102
RTVSPost2010Prop41ColorIndex
 90
       18
102
RTVSPost2010Prop41ColorRGB
 90
        0
102
RTVSPost2010PropOp41
 70
     1
102
RTVSPost2010Prop42
 90
       50
102
RTVSPost2010PropOp42
 70
     1
102
RTVSPost2010Prop43
 90
        3
102
RTVSPost2010PropOp43
 70
     1
102
RTVSPost2010Prop44ColorIndex
 90
        5
102
RTVSPost2010Prop44ColorRGB
 90
      255
102
RTVSPost2010PropOp44
 70
     1
102
RTVSPost2010Prop45
280
     0
102
RTVSPost2010PropOp45
 70
     1
102
RTVSPost2010Prop46
 90
       50
102
RTVSPost2010PropOp46
 70
     1
102
RTVSPost2010Prop47
 90
       50
102
RTVSPost2010PropOp47
 70
     1
102
RTVSPost2010Prop48
 90
       50
102
RTVSPost2010PropOp48
 70
     1
102
RTVSPost2010Prop49
280
     0
102
RTVSPost2010PropOp49
 70
     1
102
RTVSPost2010Prop50
 90
       50
102
RTVSPost2010PropOp50
 70
     1
102
RTVSPost2010Prop51ColorIndex
 90
      256
102
RTVSPost2010Prop51ColorRGB
 90
-16777216
102
RTVSPost2010PropOp51
 70
     0
102
RTVSPost2010Prop52
140
1.0
102
RTVSPost2010PropOp52
 70
     0
102
RTVSPost2010Prop53
 90
        2
102
RTVSPost2010PropOp53
 70
     1
102
RTVSPost2010Prop54
  1
strokes_ogs.tif
102
RTVSPost2010PropOp54
 70
     1
102
RTVSPost2010Prop55
280
     0
102
RTVSPost2010PropOp55
 70
     1
102
RTVSPost2010Prop56
140
1.0
102
RTVSPost2010PropOp56
 70
     1
102
RTVSPost2010Prop57
140
1.0
102
RTVSPost2010PropOp57
 70
     1
102
RTVSPropertyOp0
 70
     1
102
RTVSPropertyOp1
 70
     1
102
RTVSPropertyOp2
 70
     1
102
RTVSPropertyOp3
 70
     1
102
RTVSPropertyOp4
 70
     1
102
RTVSPropertyOp5
 70
     1
102
RTVSPropertyOp6
 70
     1
102
RTVSPropertyOp7
 70
     1
102
RTVSPropertyOp8
 70
     1
102
RTVSPropertyOp9
 70
     1
102
RTVSPropertyOp10
 70
     1
102
RTVSPropertyOp11
 70
     1
102
RTVSPropertyOp12
 70
     1
102
RTVSPropertyOp13
 70
     1
102
RTVSPropertyOp14
 70
     1
102
RTVSPropertyOp15
 70
     1
102
RTVSPropertyOp16
 70
     1
102
RTVSPropertyOp17
 70
     1
102
RTVSPropertyOp18
 70
     1
102
RTVSPropertyOp19
 70
     1
102
RTVSPropertyOp20
 70
     1
102
RTVSPropertyOp21
 70
     1
102
RTVSPropertyOp22
 70
     1
102
RTVSPropertyOp23
 70
     1
102
RTVSPropertyOp24
 70
     1
102
RTVSPropertyOp25
 70
     1
102
RTVSPropertyOp26
 70
     1
102
RTVSPropertyOp27
 70
     1
102
RTVSPropertyOp28
 70
     1
102
RTVSPropertyOp29
 70
     1
102
RTVSPropertyOp30
 70
     1
102
RTVSPropertyOp31
 70
     1
102
RTVSPropertyOp32
 70
     1
102
RTVSPropertyOp33
 70
     1
102
RTVSPropertyOp34
 70
     1
102
RTVSPropertyOp35
 70
     1
102
RTVSPropertyOp36
 70
     1
102
RTVSPropertyOp37
 70
     1
102
RTVSPropertyOp38
 70
     1
102
RTVSPropertyOp39
 70
     1
102
RTVSPropertyOp40
 70
     1
102
RTVSPropertyOp41
 70
     1
102
RTVSPropertyOp42
 70
     1
102
RTVSPropertyOp43
 70
     1
102
RTVSPropertyOp44
 70
     1
102
RTVSPropertyOp45
 70
     1
102
RTVSPropertyOp46
 70
     1
102
RTVSPropertyOp47
 70
     1
102
RTVSPropertyOp48
 70
     1
102
RTVSPropertyOp49
 70
     1
102
RTVSPropertyOp50
 70
     1
102
RTVSPropertyOp51
 70
     0
102
RTVSPropertyOp52
 70
     0
102
RTVSPropertyOp53
 70
     1
102
RTVSPropertyOp54
 70
     1
102
RTVSPropertyOp55
 70
     1
102
RTVSPropertyOp56
 70
     1
102
RTVSPropertyOp57
 70
     1
102
RTVSPropertyOp58
 70
     1
102
RTVSPropertyOp59
 70
     1
102
RTVSPropertyOp60
 70
     1
102
RTVSPropertyOp61
 70
     1
102
RTVSPropertyOp62
 70
     1
  0
XRECORD
  5
165FF
102
{ACAD_REACTORS
330
165FE
102
}
330
165FE
100
AcDbXrecord
280
     1
102
RTVSPost2010Prop28
280
     0
102
RTVSPost2010PropOp28
 70
     0
102
RTVSPost2010Prop29
280
     1
102
RTVSPost2010PropOp29
 70
     0
102
RTVSPost2010Prop30
280
     1
102
RTVSPost2010PropOp30
 70
     0
102
RTVSPost2010Prop31
280
     0
102
RTVSPost2010PropOp31
 70
     0
102
RTVSPost2010Prop32
280
     0
102
RTVSPost2010PropOp32
 70
     0
102
RTVSPost2010Prop33
280
     0
102
RTVSPost2010PropOp33
 70
     0
102
RTVSPost2010Prop34
280
     0
102
RTVSPost2010PropOp34
 70
     0
102
RTVSPost2010Prop35
280
     0
102
RTVSPost2010PropOp35
 70
     0
102
RTVSPost2010Prop36
280
     0
102
RTVSPost2010PropOp36
 70
     0
102
RTVSPost2010Prop37
 90
       50
102
RTVSPost2010PropOp37
 70
     0
102
RTVSPost2010Prop38
140
0.0
102
RTVSPost2010PropOp38
 70
     0
102
RTVSPost2010Prop39
140
1.0
102
RTVSPost2010PropOp39
 70
     0
102
RTVSPost2010Prop40
 90
        0
102
RTVSPost2010PropOp40
 70
     0
102
RTVSPost2010Prop41ColorIndex
 90
       18
102
RTVSPost2010Prop41ColorRGB
 90
        0
102
RTVSPost2010PropOp41
 70
     0
102
RTVSPost2010Prop42
 90
       50
102
RTVSPost2010PropOp42
 70
     0
102
RTVSPost2010Prop43
 90
        3
102
RTVSPost2010PropOp43
 70
     0
102
RTVSPost2010Prop44ColorIndex
 90
        5
102
RTVSPost2010Prop44ColorRGB
 90
      255
102
RTVSPost2010PropOp44
 70
     0
102
RTVSPost2010Prop45
280
     0
102
RTVSPost2010PropOp45
 70
     0
102
RTVSPost2010Prop46
 90
       50
102
RTVSPost2010PropOp46
 70
     0
102
RTVSPost2010Prop47
 90
       50
102
RTVSPost2010PropOp47
 70
     0
102
RTVSPost2010Prop48
 90
       50
102
RTVSPost2010PropOp48
 70
     0
102
RTVSPost2010Prop49
280
     0
102
RTVSPost2010PropOp49
 70
     0
102
RTVSPost2010Prop50
 90
       50
102
RTVSPost2010PropOp50
 70
     0
102
RTVSPost2010Prop51ColorIndex
 90
      256
102
RTVSPost2010Prop51ColorRGB
 90
-16777216
102
RTVSPost2010PropOp51
 70
     0
102
RTVSPost2010Prop52
140
1.0
102
RTVSPost2010PropOp52
 70
     0
102
RTVSPost2010Prop53
 90
        2
102
RTVSPost2010PropOp53
 70
     0
102
RTVSPost2010Prop54
  1
strokes_ogs.tif
102
RTVSPost2010PropOp54
 70
     0
102
RTVSPost2010Prop55
280
     0
102
RTVSPost2010PropOp55
 70
     0
102
RTVSPost2010Prop56
140
1.0
102
RTVSPost2010PropOp56
 70
     0
102
RTVSPost2010Prop57
140
1.0
102
RTVSPost2010PropOp57
 70
     0
102
RTVSPropertyOp0
 70
     0
102
RTVSPropertyOp1
 70
     0
102
RTVSPropertyOp2
 70
     0
102
RTVSPropertyOp3
 70
     0
102
RTVSPropertyOp4
 70
     0
102
RTVSPropertyOp5
 70
     0
102
RTVSPropertyOp6
 70
     0
102
RTVSPropertyOp7
 70
     0
102
RTVSPropertyOp8
 70
     0
102
RTVSPropertyOp9
 70
     0
102
RTVSPropertyOp10
 70
     0
102
RTVSPropertyOp11
 70
     0
102
RTVSPropertyOp12
 70
     0
102
RTVSPropertyOp13
 70
     0
102
RTVSPropertyOp14
 70
     2
102
RTVSPropertyOp15
 70
     0
102
RTVSPropertyOp16
 70
     0
102
RTVSPropertyOp17
 70
     0
102
RTVSPropertyOp18
 70
     0
102
RTVSPropertyOp19
 70
     0
102
RTVSPropertyOp20
 70
     0
102
RTVSPropertyOp21
 70
     0
102
RTVSPropertyOp22
 70
     0
102
RTVSPropertyOp23
 70
     0
102
RTVSPropertyOp24
 70
     0
102
RTVSPropertyOp25
 70
     0
102
RTVSPropertyOp26
 70
     0
102
RTVSPropertyOp27
 70
     0
102
RTVSPropertyOp28
 70
     0
102
RTVSPropertyOp29
 70
     0
102
RTVSPropertyOp30
 70
     0
102
RTVSPropertyOp31
 70
     0
102
RTVSPropertyOp32
 70
     0
102
RTVSPropertyOp33
 70
     0
102
RTVSPropertyOp34
 70
     0
102
RTVSPropertyOp35
 70
     0
102
RTVSPropertyOp36
 70
     0
102
RTVSPropertyOp37
 70
     0
102
RTVSPropertyOp38
 70
     0
102
RTVSPropertyOp39
 70
     0
102
RTVSPropertyOp40
 70
     0
102
RTVSPropertyOp41
 70
     0
102
RTVSPropertyOp42
 70
     0
102
RTVSPropertyOp43
 70
     0
102
RTVSPropertyOp44
 70
     0
102
RTVSPropertyOp45
 70
     0
102
RTVSPropertyOp46
 70
     0
102
RTVSPropertyOp47
 70
     0
102
RTVSPropertyOp48
 70
     0
102
RTVSPropertyOp49
 70
     0
102
RTVSPropertyOp50
 70
     0
102
RTVSPropertyOp51
 70
     0
102
RTVSPropertyOp52
 70
     0
102
RTVSPropertyOp53
 70
     0
102
RTVSPropertyOp54
 70
     0
102
RTVSPropertyOp55
 70
     0
102
RTVSPropertyOp56
 70
     0
102
RTVSPropertyOp57
 70
     0
102
RTVSPropertyOp58
 70
     0
102
RTVSPropertyOp59
 70
     0
102
RTVSPropertyOp60
 70
     0
102
RTVSPropertyOp61
 70
     0
102
RTVSPropertyOp62
 70
     0
  0
XRECORD
  5
165ED
102
{ACAD_REACTORS
330
165EC
102
}
330
165EC
100
AcDbXrecord
280
     1
102
RTVSPost2010Prop28
280
     0
102
RTVSPost2010PropOp28
 70
     1
102
RTVSPost2010Prop29
280
     1
102
RTVSPost2010PropOp29
 70
     1
102
RTVSPost2010Prop30
280
     1
102
RTVSPost2010PropOp30
 70
     1
102
RTVSPost2010Prop31
280
     0
102
RTVSPost2010PropOp31
 70
     1
102
RTVSPost2010Prop32
280
     0
102
RTVSPost2010PropOp32
 70
     1
102
RTVSPost2010Prop33
280
     0
102
RTVSPost2010PropOp33
 70
     1
102
RTVSPost2010Prop34
280
     0
102
RTVSPost2010PropOp34
 70
     1
102
RTVSPost2010Prop35
280
     0
102
RTVSPost2010PropOp35
 70
     1
102
RTVSPost2010Prop36
280
     0
102
RTVSPost2010PropOp36
 70
     1
102
RTVSPost2010Prop37
 90
       50
102
RTVSPost2010PropOp37
 70
     1
102
RTVSPost2010Prop38
140
0.0
102
RTVSPost2010PropOp38
 70
     1
102
RTVSPost2010Prop39
140
1.0
102
RTVSPost2010PropOp39
 70
     1
102
RTVSPost2010Prop40
 90
        0
102
RTVSPost2010PropOp40
 70
     1
102
RTVSPost2010Prop41ColorIndex
 90
       18
102
RTVSPost2010Prop41ColorRGB
 90
        0
102
RTVSPost2010PropOp41
 70
     1
102
RTVSPost2010Prop42
 90
       50
102
RTVSPost2010PropOp42
 70
     1
102
RTVSPost2010Prop43
 90
        3
102
RTVSPost2010PropOp43
 70
     1
102
RTVSPost2010Prop44ColorIndex
 90
        5
102
RTVSPost2010Prop44ColorRGB
 90
      255
102
RTVSPost2010PropOp44
 70
     1
102
RTVSPost2010Prop45
280
     0
102
RTVSPost2010PropOp45
 70
     1
102
RTVSPost2010Prop46
 90
       50
102
RTVSPost2010PropOp46
 70
     1
102
RTVSPost2010Prop47
 90
       50
102
RTVSPost2010PropOp47
 70
     1
102
RTVSPost2010Prop48
 90
       50
102
RTVSPost2010PropOp48
 70
     1
102
RTVSPost2010Prop49
280
     0
102
RTVSPost2010PropOp49
 70
     1
102
RTVSPost2010Prop50
 90
       50
102
RTVSPost2010PropOp50
 70
     1
102
RTVSPost2010Prop51ColorIndex
 90
      256
102
RTVSPost2010Prop51ColorRGB
 90
-16777216
102
RTVSPost2010PropOp51
 70
     0
102
RTVSPost2010Prop52
140
1.0
102
RTVSPost2010PropOp52
 70
     0
102
RTVSPost2010Prop53
 90
        2
102
RTVSPost2010PropOp53
 70
     1
102
RTVSPost2010Prop54
  1
strokes_ogs.tif
102
RTVSPost2010PropOp54
 70
     1
102
RTVSPost2010Prop55
280
     0
102
RTVSPost2010PropOp55
 70
     1
102
RTVSPost2010Prop56
140
1.0
102
RTVSPost2010PropOp56
 70
     1
102
RTVSPost2010Prop57
140
1.0
102
RTVSPost2010PropOp57
 70
     1
102
RTVSPropertyOp0
 70
     1
102
RTVSPropertyOp1
 70
     1
102
RTVSPropertyOp2
 70
     1
102
RTVSPropertyOp3
 70
     1
102
RTVSPropertyOp4
 70
     1
102
RTVSPropertyOp5
 70
     1
102
RTVSPropertyOp6
 70
     1
102
RTVSPropertyOp7
 70
     1
102
RTVSPropertyOp8
 70
     1
102
RTVSPropertyOp9
 70
     1
102
RTVSPropertyOp10
 70
     1
102
RTVSPropertyOp11
 70
     1
102
RTVSPropertyOp12
 70
     1
102
RTVSPropertyOp13
 70
     1
102
RTVSPropertyOp14
 70
     1
102
RTVSPropertyOp15
 70
     1
102
RTVSPropertyOp16
 70
     1
102
RTVSPropertyOp17
 70
     1
102
RTVSPropertyOp18
 70
     1
102
RTVSPropertyOp19
 70
     1
102
RTVSPropertyOp20
 70
     1
102
RTVSPropertyOp21
 70
     1
102
RTVSPropertyOp22
 70
     1
102
RTVSPropertyOp23
 70
     1
102
RTVSPropertyOp24
 70
     1
102
RTVSPropertyOp25
 70
     1
102
RTVSPropertyOp26
 70
     1
102
RTVSPropertyOp27
 70
     1
102
RTVSPropertyOp28
 70
     1
102
RTVSPropertyOp29
 70
     1
102
RTVSPropertyOp30
 70
     1
102
RTVSPropertyOp31
 70
     1
102
RTVSPropertyOp32
 70
     1
102
RTVSPropertyOp33
 70
     1
102
RTVSPropertyOp34
 70
     1
102
RTVSPropertyOp35
 70
     1
102
RTVSPropertyOp36
 70
     1
102
RTVSPropertyOp37
 70
     1
102
RTVSPropertyOp38
 70
     1
102
RTVSPropertyOp39
 70
     1
102
RTVSPropertyOp40
 70
     1
102
RTVSPropertyOp41
 70
     1
102
RTVSPropertyOp42
 70
     1
102
RTVSPropertyOp43
 70
     1
102
RTVSPropertyOp44
 70
     1
102
RTVSPropertyOp45
 70
     1
102
RTVSPropertyOp46
 70
     1
102
RTVSPropertyOp47
 70
     1
102
RTVSPropertyOp48
 70
     1
102
RTVSPropertyOp49
 70
     1
102
RTVSPropertyOp50
 70
     1
102
RTVSPropertyOp51
 70
     0
102
RTVSPropertyOp52
 70
     0
102
RTVSPropertyOp53
 70
     1
102
RTVSPropertyOp54
 70
     1
102
RTVSPropertyOp55
 70
     1
102
RTVSPropertyOp56
 70
     1
102
RTVSPropertyOp57
 70
     1
102
RTVSPropertyOp58
 70
     1
102
RTVSPropertyOp59
 70
     1
102
RTVSPropertyOp60
 70
     1
102
RTVSPropertyOp61
 70
     1
102
RTVSPropertyOp62
 70
     1
  0
XRECORD
  5
165D1
102
{ACAD_REACTORS
330
165D0
102
}
330
165D0
100
AcDbXrecord
280
     1
102
RTVSPost2010Prop28
280
     0
102
RTVSPost2010PropOp28
 70
     1
102
RTVSPost2010Prop29
280
     1
102
RTVSPost2010PropOp29
 70
     1
102
RTVSPost2010Prop30
280
     1
102
RTVSPost2010PropOp30
 70
     1
102
RTVSPost2010Prop31
280
     0
102
RTVSPost2010PropOp31
 70
     1
102
RTVSPost2010Prop32
280
     0
102
RTVSPost2010PropOp32
 70
     1
102
RTVSPost2010Prop33
280
     0
102
RTVSPost2010PropOp33
 70
     1
102
RTVSPost2010Prop34
280
     0
102
RTVSPost2010PropOp34
 70
     1
102
RTVSPost2010Prop35
280
     0
102
RTVSPost2010PropOp35
 70
     1
102
RTVSPost2010Prop36
280
     0
102
RTVSPost2010PropOp36
 70
     1
102
RTVSPost2010Prop37
 90
       50
102
RTVSPost2010PropOp37
 70
     1
102
RTVSPost2010Prop38
140
0.0
102
RTVSPost2010PropOp38
 70
     1
102
RTVSPost2010Prop39
140
1.0
102
RTVSPost2010PropOp39
 70
     1
102
RTVSPost2010Prop40
 90
        0
102
RTVSPost2010PropOp40
 70
     1
102
RTVSPost2010Prop41ColorIndex
 90
       18
102
RTVSPost2010Prop41ColorRGB
 90
        0
102
RTVSPost2010PropOp41
 70
     1
102
RTVSPost2010Prop42
 90
       50
102
RTVSPost2010PropOp42
 70
     1
102
RTVSPost2010Prop43
 90
        3
102
RTVSPost2010PropOp43
 70
     1
102
RTVSPost2010Prop44ColorIndex
 90
        5
102
RTVSPost2010Prop44ColorRGB
 90
      255
102
RTVSPost2010PropOp44
 70
     1
102
RTVSPost2010Prop45
280
     0
102
RTVSPost2010PropOp45
 70
     1
102
RTVSPost2010Prop46
 90
       50
102
RTVSPost2010PropOp46
 70
     1
102
RTVSPost2010Prop47
 90
       50
102
RTVSPost2010PropOp47
 70
     1
102
RTVSPost2010Prop48
 90
       50
102
RTVSPost2010PropOp48
 70
     1
102
RTVSPost2010Prop49
280
     0
102
RTVSPost2010PropOp49
 70
     1
102
RTVSPost2010Prop50
 90
       50
102
RTVSPost2010PropOp50
 70
     1
102
RTVSPost2010Prop51ColorIndex
 90
      256
102
RTVSPost2010Prop51ColorRGB
 90
-16777216
102
RTVSPost2010PropOp51
 70
     0
102
RTVSPost2010Prop52
140
1.0
102
RTVSPost2010PropOp52
 70
     0
102
RTVSPost2010Prop53
 90
        2
102
RTVSPost2010PropOp53
 70
     1
102
RTVSPost2010Prop54
  1
strokes_ogs.tif
102
RTVSPost2010PropOp54
 70
     1
102
RTVSPost2010Prop55
280
     0
102
RTVSPost2010PropOp55
 70
     1
102
RTVSPost2010Prop56
140
1.0
102
RTVSPost2010PropOp56
 70
     1
102
RTVSPost2010Prop57
140
1.0
102
RTVSPost2010PropOp57
 70
     1
102
RTVSPropertyOp0
 70
     1
102
RTVSPropertyOp1
 70
     1
102
RTVSPropertyOp2
 70
     1
102
RTVSPropertyOp3
 70
     1
102
RTVSPropertyOp4
 70
     1
102
RTVSPropertyOp5
 70
     1
102
RTVSPropertyOp6
 70
     1
102
RTVSPropertyOp7
 70
     1
102
RTVSPropertyOp8
 70
     1
102
RTVSPropertyOp9
 70
     1
102
RTVSPropertyOp10
 70
     1
102
RTVSPropertyOp11
 70
     1
102
RTVSPropertyOp12
 70
     1
102
RTVSPropertyOp13
 70
     1
102
RTVSPropertyOp14
 70
     1
102
RTVSPropertyOp15
 70
     1
102
RTVSPropertyOp16
 70
     1
102
RTVSPropertyOp17
 70
     1
102
RTVSPropertyOp18
 70
     1
102
RTVSPropertyOp19
 70
     1
102
RTVSPropertyOp20
 70
     1
102
RTVSPropertyOp21
 70
     1
102
RTVSPropertyOp22
 70
     1
102
RTVSPropertyOp23
 70
     1
102
RTVSPropertyOp24
 70
     1
102
RTVSPropertyOp25
 70
     1
102
RTVSPropertyOp26
 70
     1
102
RTVSPropertyOp27
 70
     1
102
RTVSPropertyOp28
 70
     1
102
RTVSPropertyOp29
 70
     1
102
RTVSPropertyOp30
 70
     1
102
RTVSPropertyOp31
 70
     1
102
RTVSPropertyOp32
 70
     1
102
RTVSPropertyOp33
 70
     1
102
RTVSPropertyOp34
 70
     1
102
RTVSPropertyOp35
 70
     1
102
RTVSPropertyOp36
 70
     1
102
RTVSPropertyOp37
 70
     1
102
RTVSPropertyOp38
 70
     1
102
RTVSPropertyOp39
 70
     1
102
RTVSPropertyOp40
 70
     1
102
RTVSPropertyOp41
 70
     1
102
RTVSPropertyOp42
 70
     1
102
RTVSPropertyOp43
 70
     1
102
RTVSPropertyOp44
 70
     1
102
RTVSPropertyOp45
 70
     1
102
RTVSPropertyOp46
 70
     1
102
RTVSPropertyOp47
 70
     1
102
RTVSPropertyOp48
 70
     1
102
RTVSPropertyOp49
 70
     1
102
RTVSPropertyOp50
 70
     1
102
RTVSPropertyOp51
 70
     0
102
RTVSPropertyOp52
 70
     0
102
RTVSPropertyOp53
 70
     1
102
RTVSPropertyOp54
 70
     1
102
RTVSPropertyOp55
 70
     1
102
RTVSPropertyOp56
 70
     1
102
RTVSPropertyOp57
 70
     1
102
RTVSPropertyOp58
 70
     1
102
RTVSPropertyOp59
 70
     1
102
RTVSPropertyOp60
 70
     1
102
RTVSPropertyOp61
 70
     1
102
RTVSPropertyOp62
 70
     1
  0
XRECORD
  5
165D3
102
{ACAD_REACTORS
330
165D2
102
}
330
165D2
100
AcDbXrecord
280
     1
102
RTVSPost2010Prop28
280
     0
102
RTVSPost2010PropOp28
 70
     1
102
RTVSPost2010Prop29
280
     1
102
RTVSPost2010PropOp29
 70
     1
102
RTVSPost2010Prop30
280
     1
102
RTVSPost2010PropOp30
 70
     1
102
RTVSPost2010Prop31
280
     0
102
RTVSPost2010PropOp31
 70
     1
102
RTVSPost2010Prop32
280
     0
102
RTVSPost2010PropOp32
 70
     1
102
RTVSPost2010Prop33
280
     0
102
RTVSPost2010PropOp33
 70
     1
102
RTVSPost2010Prop34
280
     0
102
RTVSPost2010PropOp34
 70
     1
102
RTVSPost2010Prop35
280
     0
102
RTVSPost2010PropOp35
 70
     1
102
RTVSPost2010Prop36
280
     0
102
RTVSPost2010PropOp36
 70
     1
102
RTVSPost2010Prop37
 90
       50
102
RTVSPost2010PropOp37
 70
     1
102
RTVSPost2010Prop38
140
0.0
102
RTVSPost2010PropOp38
 70
     1
102
RTVSPost2010Prop39
140
1.0
102
RTVSPost2010PropOp39
 70
     1
102
RTVSPost2010Prop40
 90
        0
102
RTVSPost2010PropOp40
 70
     1
102
RTVSPost2010Prop41ColorIndex
 90
       18
102
RTVSPost2010Prop41ColorRGB
 90
        0
102
RTVSPost2010PropOp41
 70
     1
102
RTVSPost2010Prop42
 90
       50
102
RTVSPost2010PropOp42
 70
     1
102
RTVSPost2010Prop43
 90
        3
102
RTVSPost2010PropOp43
 70
     1
102
RTVSPost2010Prop44ColorIndex
 90
        5
102
RTVSPost2010Prop44ColorRGB
 90
      255
102
RTVSPost2010PropOp44
 70
     1
102
RTVSPost2010Prop45
280
     0
102
RTVSPost2010PropOp45
 70
     1
102
RTVSPost2010Prop46
 90
       50
102
RTVSPost2010PropOp46
 70
     1
102
RTVSPost2010Prop47
 90
       50
102
RTVSPost2010PropOp47
 70
     1
102
RTVSPost2010Prop48
 90
       50
102
RTVSPost2010PropOp48
 70
     1
102
RTVSPost2010Prop49
280
     0
102
RTVSPost2010PropOp49
 70
     1
102
RTVSPost2010Prop50
 90
       50
102
RTVSPost2010PropOp50
 70
     1
102
RTVSPost2010Prop51ColorIndex
 90
      256
102
RTVSPost2010Prop51ColorRGB
 90
-16777216
102
RTVSPost2010PropOp51
 70
     0
102
RTVSPost2010Prop52
140
1.0
102
RTVSPost2010PropOp52
 70
     0
102
RTVSPost2010Prop53
 90
        2
102
RTVSPost2010PropOp53
 70
     1
102
RTVSPost2010Prop54
  1
strokes_ogs.tif
102
RTVSPost2010PropOp54
 70
     1
102
RTVSPost2010Prop55
280
     0
102
RTVSPost2010PropOp55
 70
     1
102
RTVSPost2010Prop56
140
1.0
102
RTVSPost2010PropOp56
 70
     1
102
RTVSPost2010Prop57
140
1.0
102
RTVSPost2010PropOp57
 70
     1
102
RTVSPropertyOp0
 70
     1
102
RTVSPropertyOp1
 70
     1
102
RTVSPropertyOp2
 70
     1
102
RTVSPropertyOp3
 70
     1
102
RTVSPropertyOp4
 70
     1
102
RTVSPropertyOp5
 70
     1
102
RTVSPropertyOp6
 70
     1
102
RTVSPropertyOp7
 70
     1
102
RTVSPropertyOp8
 70
     1
102
RTVSPropertyOp9
 70
     1
102
RTVSPropertyOp10
 70
     1
102
RTVSPropertyOp11
 70
     1
102
RTVSPropertyOp12
 70
     1
102
RTVSPropertyOp13
 70
     1
102
RTVSPropertyOp14
 70
     1
102
RTVSPropertyOp15
 70
     1
102
RTVSPropertyOp16
 70
     1
102
RTVSPropertyOp17
 70
     1
102
RTVSPropertyOp18
 70
     1
102
RTVSPropertyOp19
 70
     1
102
RTVSPropertyOp20
 70
     1
102
RTVSPropertyOp21
 70
     1
102
RTVSPropertyOp22
 70
     1
102
RTVSPropertyOp23
 70
     1
102
RTVSPropertyOp24
 70
     1
102
RTVSPropertyOp25
 70
     1
102
RTVSPropertyOp26
 70
     1
102
RTVSPropertyOp27
 70
     1
102
RTVSPropertyOp28
 70
     1
102
RTVSPropertyOp29
 70
     1
102
RTVSPropertyOp30
 70
     1
102
RTVSPropertyOp31
 70
     1
102
RTVSPropertyOp32
 70
     1
102
RTVSPropertyOp33
 70
     1
102
RTVSPropertyOp34
 70
     1
102
RTVSPropertyOp35
 70
     1
102
RTVSPropertyOp36
 70
     1
102
RTVSPropertyOp37
 70
     1
102
RTVSPropertyOp38
 70
     1
102
RTVSPropertyOp39
 70
     1
102
RTVSPropertyOp40
 70
     1
102
RTVSPropertyOp41
 70
     1
102
RTVSPropertyOp42
 70
     1
102
RTVSPropertyOp43
 70
     1
102
RTVSPropertyOp44
 70
     1
102
RTVSPropertyOp45
 70
     1
102
RTVSPropertyOp46
 70
     1
102
RTVSPropertyOp47
 70
     1
102
RTVSPropertyOp48
 70
     1
102
RTVSPropertyOp49
 70
     1
102
RTVSPropertyOp50
 70
     1
102
RTVSPropertyOp51
 70
     0
102
RTVSPropertyOp52
 70
     0
102
RTVSPropertyOp53
 70
     1
102
RTVSPropertyOp54
 70
     1
102
RTVSPropertyOp55
 70
     1
102
RTVSPropertyOp56
 70
     1
102
RTVSPropertyOp57
 70
     1
102
RTVSPropertyOp58
 70
     1
102
RTVSPropertyOp59
 70
     1
102
RTVSPropertyOp60
 70
     1
102
RTVSPropertyOp61
 70
     1
102
RTVSPropertyOp62
 70
     1
  0
XRECORD
  5
165D5
102
{ACAD_REACTORS
330
165D4
102
}
330
165D4
100
AcDbXrecord
280
     1
102
RTVSPost2010Prop28
280
     0
102
RTVSPost2010PropOp28
 70
     1
102
RTVSPost2010Prop29
280
     1
102
RTVSPost2010PropOp29
 70
     1
102
RTVSPost2010Prop30
280
     1
102
RTVSPost2010PropOp30
 70
     1
102
RTVSPost2010Prop31
280
     0
102
RTVSPost2010PropOp31
 70
     1
102
RTVSPost2010Prop32
280
     0
102
RTVSPost2010PropOp32
 70
     1
102
RTVSPost2010Prop33
280
     0
102
RTVSPost2010PropOp33
 70
     1
102
RTVSPost2010Prop34
280
     0
102
RTVSPost2010PropOp34
 70
     1
102
RTVSPost2010Prop35
280
     0
102
RTVSPost2010PropOp35
 70
     1
102
RTVSPost2010Prop36
280
     0
102
RTVSPost2010PropOp36
 70
     1
102
RTVSPost2010Prop37
 90
       50
102
RTVSPost2010PropOp37
 70
     1
102
RTVSPost2010Prop38
140
0.0
102
RTVSPost2010PropOp38
 70
     1
102
RTVSPost2010Prop39
140
1.0
102
RTVSPost2010PropOp39
 70
     1
102
RTVSPost2010Prop40
 90
        0
102
RTVSPost2010PropOp40
 70
     1
102
RTVSPost2010Prop41ColorIndex
 90
       18
102
RTVSPost2010Prop41ColorRGB
 90
        0
102
RTVSPost2010PropOp41
 70
     1
102
RTVSPost2010Prop42
 90
       50
102
RTVSPost2010PropOp42
 70
     1
102
RTVSPost2010Prop43
 90
        3
102
RTVSPost2010PropOp43
 70
     1
102
RTVSPost2010Prop44ColorIndex
 90
        5
102
RTVSPost2010Prop44ColorRGB
 90
      255
102
RTVSPost2010PropOp44
 70
     1
102
RTVSPost2010Prop45
280
     0
102
RTVSPost2010PropOp45
 70
     1
102
RTVSPost2010Prop46
 90
       50
102
RTVSPost2010PropOp46
 70
     1
102
RTVSPost2010Prop47
 90
       50
102
RTVSPost2010PropOp47
 70
     1
102
RTVSPost2010Prop48
 90
       50
102
RTVSPost2010PropOp48
 70
     1
102
RTVSPost2010Prop49
280
     0
102
RTVSPost2010PropOp49
 70
     1
102
RTVSPost2010Prop50
 90
       50
102
RTVSPost2010PropOp50
 70
     1
102
RTVSPost2010Prop51ColorIndex
 90
      256
102
RTVSPost2010Prop51ColorRGB
 90
-16777216
102
RTVSPost2010PropOp51
 70
     0
102
RTVSPost2010Prop52
140
1.0
102
RTVSPost2010PropOp52
 70
     0
102
RTVSPost2010Prop53
 90
        2
102
RTVSPost2010PropOp53
 70
     1
102
RTVSPost2010Prop54
  1
strokes_ogs.tif
102
RTVSPost2010PropOp54
 70
     1
102
RTVSPost2010Prop55
280
     0
102
RTVSPost2010PropOp55
 70
     1
102
RTVSPost2010Prop56
140
1.0
102
RTVSPost2010PropOp56
 70
     1
102
RTVSPost2010Prop57
140
1.0
102
RTVSPost2010PropOp57
 70
     1
102
RTVSPropertyOp0
 70
     1
102
RTVSPropertyOp1
 70
     1
102
RTVSPropertyOp2
 70
     1
102
RTVSPropertyOp3
 70
     1
102
RTVSPropertyOp4
 70
     1
102
RTVSPropertyOp5
 70
     1
102
RTVSPropertyOp6
 70
     1
102
RTVSPropertyOp7
 70
     1
102
RTVSPropertyOp8
 70
     1
102
RTVSPropertyOp9
 70
     1
102
RTVSPropertyOp10
 70
     1
102
RTVSPropertyOp11
 70
     1
102
RTVSPropertyOp12
 70
     1
102
RTVSPropertyOp13
 70
     1
102
RTVSPropertyOp14
 70
     1
102
RTVSPropertyOp15
 70
     1
102
RTVSPropertyOp16
 70
     1
102
RTVSPropertyOp17
 70
     1
102
RTVSPropertyOp18
 70
     1
102
RTVSPropertyOp19
 70
     1
102
RTVSPropertyOp20
 70
     1
102
RTVSPropertyOp21
 70
     1
102
RTVSPropertyOp22
 70
     1
102
RTVSPropertyOp23
 70
     1
102
RTVSPropertyOp24
 70
     1
102
RTVSPropertyOp25
 70
     1
102
RTVSPropertyOp26
 70
     1
102
RTVSPropertyOp27
 70
     1
102
RTVSPropertyOp28
 70
     1
102
RTVSPropertyOp29
 70
     1
102
RTVSPropertyOp30
 70
     1
102
RTVSPropertyOp31
 70
     1
102
RTVSPropertyOp32
 70
     1
102
RTVSPropertyOp33
 70
     1
102
RTVSPropertyOp34
 70
     1
102
RTVSPropertyOp35
 70
     1
102
RTVSPropertyOp36
 70
     1
102
RTVSPropertyOp37
 70
     1
102
RTVSPropertyOp38
 70
     1
102
RTVSPropertyOp39
 70
     1
102
RTVSPropertyOp40
 70
     1
102
RTVSPropertyOp41
 70
     1
102
RTVSPropertyOp42
 70
     1
102
RTVSPropertyOp43
 70
     1
102
RTVSPropertyOp44
 70
     1
102
RTVSPropertyOp45
 70
     1
102
RTVSPropertyOp46
 70
     1
102
RTVSPropertyOp47
 70
     1
102
RTVSPropertyOp48
 70
     1
102
RTVSPropertyOp49
 70
     1
102
RTVSPropertyOp50
 70
     1
102
RTVSPropertyOp51
 70
     0
102
RTVSPropertyOp52
 70
     0
102
RTVSPropertyOp53
 70
     1
102
RTVSPropertyOp54
 70
     1
102
RTVSPropertyOp55
 70
     1
102
RTVSPropertyOp56
 70
     1
102
RTVSPropertyOp57
 70
     1
102
RTVSPropertyOp58
 70
     1
102
RTVSPropertyOp59
 70
     1
102
RTVSPropertyOp60
 70
     1
102
RTVSPropertyOp61
 70
     1
102
RTVSPropertyOp62
 70
     1
  0
XRECORD
  5
165D7
102
{ACAD_REACTORS
330
165D6
102
}
330
165D6
100
AcDbXrecord
280
     1
102
RTVSPost2010Prop28
280
     0
102
RTVSPost2010PropOp28
 70
     1
102
RTVSPost2010Prop29
280
     1
102
RTVSPost2010PropOp29
 70
     1
102
RTVSPost2010Prop30
280
     1
102
RTVSPost2010PropOp30
 70
     1
102
RTVSPost2010Prop31
280
     0
102
RTVSPost2010PropOp31
 70
     1
102
RTVSPost2010Prop32
280
     0
102
RTVSPost2010PropOp32
 70
     1
102
RTVSPost2010Prop33
280
     0
102
RTVSPost2010PropOp33
 70
     1
102
RTVSPost2010Prop34
280
     0
102
RTVSPost2010PropOp34
 70
     1
102
RTVSPost2010Prop35
280
     0
102
RTVSPost2010PropOp35
 70
     1
102
RTVSPost2010Prop36
280
     0
102
RTVSPost2010PropOp36
 70
     1
102
RTVSPost2010Prop37
 90
       50
102
RTVSPost2010PropOp37
 70
     1
102
RTVSPost2010Prop38
140
0.0
102
RTVSPost2010PropOp38
 70
     1
102
RTVSPost2010Prop39
140
1.0
102
RTVSPost2010PropOp39
 70
     1
102
RTVSPost2010Prop40
 90
        0
102
RTVSPost2010PropOp40
 70
     1
102
RTVSPost2010Prop41ColorIndex
 90
       18
102
RTVSPost2010Prop41ColorRGB
 90
        0
102
RTVSPost2010PropOp41
 70
     1
102
RTVSPost2010Prop42
 90
       50
102
RTVSPost2010PropOp42
 70
     1
102
RTVSPost2010Prop43
 90
        3
102
RTVSPost2010PropOp43
 70
     1
102
RTVSPost2010Prop44ColorIndex
 90
        5
102
RTVSPost2010Prop44ColorRGB
 90
      255
102
RTVSPost2010PropOp44
 70
     1
102
RTVSPost2010Prop45
280
     0
102
RTVSPost2010PropOp45
 70
     1
102
RTVSPost2010Prop46
 90
       50
102
RTVSPost2010PropOp46
 70
     1
102
RTVSPost2010Prop47
 90
       50
102
RTVSPost2010PropOp47
 70
     1
102
RTVSPost2010Prop48
 90
       50
102
RTVSPost2010PropOp48
 70
     1
102
RTVSPost2010Prop49
280
     0
102
RTVSPost2010PropOp49
 70
     1
102
RTVSPost2010Prop50
 90
       50
102
RTVSPost2010PropOp50
 70
     1
102
RTVSPost2010Prop51ColorIndex
 90
      256
102
RTVSPost2010Prop51ColorRGB
 90
-16777216
102
RTVSPost2010PropOp51
 70
     0
102
RTVSPost2010Prop52
140
1.0
102
RTVSPost2010PropOp52
 70
     0
102
RTVSPost2010Prop53
 90
        2
102
RTVSPost2010PropOp53
 70
     1
102
RTVSPost2010Prop54
  1
strokes_ogs.tif
102
RTVSPost2010PropOp54
 70
     1
102
RTVSPost2010Prop55
280
     0
102
RTVSPost2010PropOp55
 70
     1
102
RTVSPost2010Prop56
140
1.0
102
RTVSPost2010PropOp56
 70
     1
102
RTVSPost2010Prop57
140
1.0
102
RTVSPost2010PropOp57
 70
     1
102
RTVSPropertyOp0
 70
     1
102
RTVSPropertyOp1
 70
     1
102
RTVSPropertyOp2
 70
     1
102
RTVSPropertyOp3
 70
     1
102
RTVSPropertyOp4
 70
     1
102
RTVSPropertyOp5
 70
     1
102
RTVSPropertyOp6
 70
     1
102
RTVSPropertyOp7
 70
     1
102
RTVSPropertyOp8
 70
     1
102
RTVSPropertyOp9
 70
     1
102
RTVSPropertyOp10
 70
     1
102
RTVSPropertyOp11
 70
     1
102
RTVSPropertyOp12
 70
     1
102
RTVSPropertyOp13
 70
     1
102
RTVSPropertyOp14
 70
     1
102
RTVSPropertyOp15
 70
     1
102
RTVSPropertyOp16
 70
     1
102
RTVSPropertyOp17
 70
     1
102
RTVSPropertyOp18
 70
     1
102
RTVSPropertyOp19
 70
     1
102
RTVSPropertyOp20
 70
     1
102
RTVSPropertyOp21
 70
     1
102
RTVSPropertyOp22
 70
     1
102
RTVSPropertyOp23
 70
     1
102
RTVSPropertyOp24
 70
     1
102
RTVSPropertyOp25
 70
     1
102
RTVSPropertyOp26
 70
     1
102
RTVSPropertyOp27
 70
     1
102
RTVSPropertyOp28
 70
     1
102
RTVSPropertyOp29
 70
     1
102
RTVSPropertyOp30
 70
     1
102
RTVSPropertyOp31
 70
     1
102
RTVSPropertyOp32
 70
     1
102
RTVSPropertyOp33
 70
     1
102
RTVSPropertyOp34
 70
     1
102
RTVSPropertyOp35
 70
     1
102
RTVSPropertyOp36
 70
     1
102
RTVSPropertyOp37
 70
     1
102
RTVSPropertyOp38
 70
     1
102
RTVSPropertyOp39
 70
     1
102
RTVSPropertyOp40
 70
     1
102
RTVSPropertyOp41
 70
     1
102
RTVSPropertyOp42
 70
     1
102
RTVSPropertyOp43
 70
     1
102
RTVSPropertyOp44
 70
     1
102
RTVSPropertyOp45
 70
     1
102
RTVSPropertyOp46
 70
     1
102
RTVSPropertyOp47
 70
     1
102
RTVSPropertyOp48
 70
     1
102
RTVSPropertyOp49
 70
     1
102
RTVSPropertyOp50
 70
     1
102
RTVSPropertyOp51
 70
     0
102
RTVSPropertyOp52
 70
     0
102
RTVSPropertyOp53
 70
     1
102
RTVSPropertyOp54
 70
     1
102
RTVSPropertyOp55
 70
     1
102
RTVSPropertyOp56
 70
     1
102
RTVSPropertyOp57
 70
     1
102
RTVSPropertyOp58
 70
     1
102
RTVSPropertyOp59
 70
     1
102
RTVSPropertyOp60
 70
     1
102
RTVSPropertyOp61
 70
     1
102
RTVSPropertyOp62
 70
     1
  0
XRECORD
  5
165DF
102
{ACAD_REACTORS
330
165DE
102
}
330
165DE
100
AcDbXrecord
280
     1
102
RTVSPost2010Prop28
280
     0
102
RTVSPost2010PropOp28
 70
     1
102
RTVSPost2010Prop29
280
     1
102
RTVSPost2010PropOp29
 70
     1
102
RTVSPost2010Prop30
280
     1
102
RTVSPost2010PropOp30
 70
     1
102
RTVSPost2010Prop31
280
     0
102
RTVSPost2010PropOp31
 70
     1
102
RTVSPost2010Prop32
280
     0
102
RTVSPost2010PropOp32
 70
     1
102
RTVSPost2010Prop33
280
     0
102
RTVSPost2010PropOp33
 70
     1
102
RTVSPost2010Prop34
280
     0
102
RTVSPost2010PropOp34
 70
     1
102
RTVSPost2010Prop35
280
     0
102
RTVSPost2010PropOp35
 70
     1
102
RTVSPost2010Prop36
280
     0
102
RTVSPost2010PropOp36
 70
     1
102
RTVSPost2010Prop37
 90
       50
102
RTVSPost2010PropOp37
 70
     1
102
RTVSPost2010Prop38
140
0.0
102
RTVSPost2010PropOp38
 70
     1
102
RTVSPost2010Prop39
140
1.0
102
RTVSPost2010PropOp39
 70
     1
102
RTVSPost2010Prop40
 90
        0
102
RTVSPost2010PropOp40
 70
     1
102
RTVSPost2010Prop41ColorIndex
 90
       18
102
RTVSPost2010Prop41ColorRGB
 90
        0
102
RTVSPost2010PropOp41
 70
     1
102
RTVSPost2010Prop42
 90
       50
102
RTVSPost2010PropOp42
 70
     1
102
RTVSPost2010Prop43
 90
        3
102
RTVSPost2010PropOp43
 70
     1
102
RTVSPost2010Prop44ColorIndex
 90
        5
102
RTVSPost2010Prop44ColorRGB
 90
      255
102
RTVSPost2010PropOp44
 70
     1
102
RTVSPost2010Prop45
280
     0
102
RTVSPost2010PropOp45
 70
     1
102
RTVSPost2010Prop46
 90
       50
102
RTVSPost2010PropOp46
 70
     1
102
RTVSPost2010Prop47
 90
       50
102
RTVSPost2010PropOp47
 70
     1
102
RTVSPost2010Prop48
 90
       50
102
RTVSPost2010PropOp48
 70
     1
102
RTVSPost2010Prop49
280
     0
102
RTVSPost2010PropOp49
 70
     1
102
RTVSPost2010Prop50
 90
       50
102
RTVSPost2010PropOp50
 70
     1
102
RTVSPost2010Prop51ColorIndex
 90
      256
102
RTVSPost2010Prop51ColorRGB
 90
-16777216
102
RTVSPost2010PropOp51
 70
     0
102
RTVSPost2010Prop52
140
1.0
102
RTVSPost2010PropOp52
 70
     0
102
RTVSPost2010Prop53
 90
        2
102
RTVSPost2010PropOp53
 70
     1
102
RTVSPost2010Prop54
  1
strokes_ogs.tif
102
RTVSPost2010PropOp54
 70
     1
102
RTVSPost2010Prop55
280
     0
102
RTVSPost2010PropOp55
 70
     1
102
RTVSPost2010Prop56
140
1.0
102
RTVSPost2010PropOp56
 70
     1
102
RTVSPost2010Prop57
140
1.0
102
RTVSPost2010PropOp57
 70
     1
102
RTVSPropertyOp0
 70
     1
102
RTVSPropertyOp1
 70
     1
102
RTVSPropertyOp2
 70
     1
102
RTVSPropertyOp3
 70
     1
102
RTVSPropertyOp4
 70
     1
102
RTVSPropertyOp5
 70
     1
102
RTVSPropertyOp6
 70
     1
102
RTVSPropertyOp7
 70
     1
102
RTVSPropertyOp8
 70
     1
102
RTVSPropertyOp9
 70
     1
102
RTVSPropertyOp10
 70
     1
102
RTVSPropertyOp11
 70
     1
102
RTVSPropertyOp12
 70
     1
102
RTVSPropertyOp13
 70
     1
102
RTVSPropertyOp14
 70
     1
102
RTVSPropertyOp15
 70
     1
102
RTVSPropertyOp16
 70
     1
102
RTVSPropertyOp17
 70
     1
102
RTVSPropertyOp18
 70
     1
102
RTVSPropertyOp19
 70
     1
102
RTVSPropertyOp20
 70
     1
102
RTVSPropertyOp21
 70
     1
102
RTVSPropertyOp22
 70
     1
102
RTVSPropertyOp23
 70
     1
102
RTVSPropertyOp24
 70
     1
102
RTVSPropertyOp25
 70
     1
102
RTVSPropertyOp26
 70
     1
102
RTVSPropertyOp27
 70
     1
102
RTVSPropertyOp28
 70
     1
102
RTVSPropertyOp29
 70
     1
102
RTVSPropertyOp30
 70
     1
102
RTVSPropertyOp31
 70
     1
102
RTVSPropertyOp32
 70
     1
102
RTVSPropertyOp33
 70
     1
102
RTVSPropertyOp34
 70
     1
102
RTVSPropertyOp35
 70
     1
102
RTVSPropertyOp36
 70
     1
102
RTVSPropertyOp37
 70
     1
102
RTVSPropertyOp38
 70
     1
102
RTVSPropertyOp39
 70
     1
102
RTVSPropertyOp40
 70
     1
102
RTVSPropertyOp41
 70
     1
102
RTVSPropertyOp42
 70
     1
102
RTVSPropertyOp43
 70
     1
102
RTVSPropertyOp44
 70
     1
102
RTVSPropertyOp45
 70
     1
102
RTVSPropertyOp46
 70
     1
102
RTVSPropertyOp47
 70
     1
102
RTVSPropertyOp48
 70
     1
102
RTVSPropertyOp49
 70
     1
102
RTVSPropertyOp50
 70
     1
102
RTVSPropertyOp51
 70
     0
102
RTVSPropertyOp52
 70
     0
102
RTVSPropertyOp53
 70
     1
102
RTVSPropertyOp54
 70
     1
102
RTVSPropertyOp55
 70
     1
102
RTVSPropertyOp56
 70
     1
102
RTVSPropertyOp57
 70
     1
102
RTVSPropertyOp58
 70
     1
102
RTVSPropertyOp59
 70
     1
102
RTVSPropertyOp60
 70
     1
102
RTVSPropertyOp61
 70
     1
102
RTVSPropertyOp62
 70
     1
  0
XRECORD
  5
165FB
102
{ACAD_REACTORS
330
165FA
102
}
330
165FA
100
AcDbXrecord
280
     1
102
RTVSPost2010Prop28
280
     0
102
RTVSPost2010PropOp28
 70
     0
102
RTVSPost2010Prop29
280
     1
102
RTVSPost2010PropOp29
 70
     0
102
RTVSPost2010Prop30
280
     1
102
RTVSPost2010PropOp30
 70
     0
102
RTVSPost2010Prop31
280
     0
102
RTVSPost2010PropOp31
 70
     0
102
RTVSPost2010Prop32
280
     0
102
RTVSPost2010PropOp32
 70
     0
102
RTVSPost2010Prop33
280
     0
102
RTVSPost2010PropOp33
 70
     0
102
RTVSPost2010Prop34
280
     0
102
RTVSPost2010PropOp34
 70
     0
102
RTVSPost2010Prop35
280
     0
102
RTVSPost2010PropOp35
 70
     0
102
RTVSPost2010Prop36
280
     0
102
RTVSPost2010PropOp36
 70
     0
102
RTVSPost2010Prop37
 90
       50
102
RTVSPost2010PropOp37
 70
     0
102
RTVSPost2010Prop38
140
0.0
102
RTVSPost2010PropOp38
 70
     0
102
RTVSPost2010Prop39
140
1.0
102
RTVSPost2010PropOp39
 70
     0
102
RTVSPost2010Prop40
 90
        0
102
RTVSPost2010PropOp40
 70
     0
102
RTVSPost2010Prop41ColorIndex
 90
       18
102
RTVSPost2010Prop41ColorRGB
 90
        0
102
RTVSPost2010PropOp41
 70
     0
102
RTVSPost2010Prop42
 90
       50
102
RTVSPost2010PropOp42
 70
     0
102
RTVSPost2010Prop43
 90
        3
102
RTVSPost2010PropOp43
 70
     0
102
RTVSPost2010Prop44ColorIndex
 90
        5
102
RTVSPost2010Prop44ColorRGB
 90
      255
102
RTVSPost2010PropOp44
 70
     0
102
RTVSPost2010Prop45
280
     0
102
RTVSPost2010PropOp45
 70
     0
102
RTVSPost2010Prop46
 90
       50
102
RTVSPost2010PropOp46
 70
     0
102
RTVSPost2010Prop47
 90
       50
102
RTVSPost2010PropOp47
 70
     0
102
RTVSPost2010Prop48
 90
       50
102
RTVSPost2010PropOp48
 70
     0
102
RTVSPost2010Prop49
280
     0
102
RTVSPost2010PropOp49
 70
     0
102
RTVSPost2010Prop50
 90
       50
102
RTVSPost2010PropOp50
 70
     0
102
RTVSPost2010Prop51ColorIndex
 90
      256
102
RTVSPost2010Prop51ColorRGB
 90
-16777216
102
RTVSPost2010PropOp51
 70
     0
102
RTVSPost2010Prop52
140
1.0
102
RTVSPost2010PropOp52
 70
     0
102
RTVSPost2010Prop53
 90
        2
102
RTVSPost2010PropOp53
 70
     0
102
RTVSPost2010Prop54
  1
strokes_ogs.tif
102
RTVSPost2010PropOp54
 70
     0
102
RTVSPost2010Prop55
280
     0
102
RTVSPost2010PropOp55
 70
     0
102
RTVSPost2010Prop56
140
1.0
102
RTVSPost2010PropOp56
 70
     0
102
RTVSPost2010Prop57
140
1.0
102
RTVSPost2010PropOp57
 70
     0
102
RTVSPropertyOp0
 70
     0
102
RTVSPropertyOp1
 70
     0
102
RTVSPropertyOp2
 70
     0
102
RTVSPropertyOp3
 70
     0
102
RTVSPropertyOp4
 70
     0
102
RTVSPropertyOp5
 70
     0
102
RTVSPropertyOp6
 70
     0
102
RTVSPropertyOp7
 70
     0
102
RTVSPropertyOp8
 70
     0
102
RTVSPropertyOp9
 70
     0
102
RTVSPropertyOp10
 70
     0
102
RTVSPropertyOp11
 70
     0
102
RTVSPropertyOp12
 70
     0
102
RTVSPropertyOp13
 70
     0
102
RTVSPropertyOp14
 70
     2
102
RTVSPropertyOp15
 70
     0
102
RTVSPropertyOp16
 70
     0
102
RTVSPropertyOp17
 70
     0
102
RTVSPropertyOp18
 70
     0
102
RTVSPropertyOp19
 70
     0
102
RTVSPropertyOp20
 70
     0
102
RTVSPropertyOp21
 70
     0
102
RTVSPropertyOp22
 70
     0
102
RTVSPropertyOp23
 70
     0
102
RTVSPropertyOp24
 70
     0
102
RTVSPropertyOp25
 70
     0
102
RTVSPropertyOp26
 70
     0
102
RTVSPropertyOp27
 70
     0
102
RTVSPropertyOp28
 70
     0
102
RTVSPropertyOp29
 70
     0
102
RTVSPropertyOp30
 70
     0
102
RTVSPropertyOp31
 70
     0
102
RTVSPropertyOp32
 70
     0
102
RTVSPropertyOp33
 70
     0
102
RTVSPropertyOp34
 70
     0
102
RTVSPropertyOp35
 70
     0
102
RTVSPropertyOp36
 70
     0
102
RTVSPropertyOp37
 70
     0
102
RTVSPropertyOp38
 70
     0
102
RTVSPropertyOp39
 70
     0
102
RTVSPropertyOp40
 70
     0
102
RTVSPropertyOp41
 70
     0
102
RTVSPropertyOp42
 70
     0
102
RTVSPropertyOp43
 70
     0
102
RTVSPropertyOp44
 70
     0
102
RTVSPropertyOp45
 70
     0
102
RTVSPropertyOp46
 70
     0
102
RTVSPropertyOp47
 70
     0
102
RTVSPropertyOp48
 70
     0
102
RTVSPropertyOp49
 70
     0
102
RTVSPropertyOp50
 70
     0
102
RTVSPropertyOp51
 70
     0
102
RTVSPropertyOp52
 70
     0
102
RTVSPropertyOp53
 70
     0
102
RTVSPropertyOp54
 70
     0
102
RTVSPropertyOp55
 70
     0
102
RTVSPropertyOp56
 70
     0
102
RTVSPropertyOp57
 70
     0
102
RTVSPropertyOp58
 70
     0
102
RTVSPropertyOp59
 70
     0
102
RTVSPropertyOp60
 70
     0
102
RTVSPropertyOp61
 70
     0
102
RTVSPropertyOp62
 70
     0
  0
XRECORD
  5
165EB
102
{ACAD_REACTORS
330
165EA
102
}
330
165EA
100
AcDbXrecord
280
     1
102
RTVSPost2010Prop28
280
     0
102
RTVSPost2010PropOp28
 70
     1
102
RTVSPost2010Prop29
280
     1
102
RTVSPost2010PropOp29
 70
     1
102
RTVSPost2010Prop30
280
     1
102
RTVSPost2010PropOp30
 70
     1
102
RTVSPost2010Prop31
280
     0
102
RTVSPost2010PropOp31
 70
     1
102
RTVSPost2010Prop32
280
     0
102
RTVSPost2010PropOp32
 70
     1
102
RTVSPost2010Prop33
280
     0
102
RTVSPost2010PropOp33
 70
     1
102
RTVSPost2010Prop34
280
     0
102
RTVSPost2010PropOp34
 70
     1
102
RTVSPost2010Prop35
280
     0
102
RTVSPost2010PropOp35
 70
     1
102
RTVSPost2010Prop36
280
     0
102
RTVSPost2010PropOp36
 70
     1
102
RTVSPost2010Prop37
 90
       50
102
RTVSPost2010PropOp37
 70
     1
102
RTVSPost2010Prop38
140
0.0
102
RTVSPost2010PropOp38
 70
     1
102
RTVSPost2010Prop39
140
1.0
102
RTVSPost2010PropOp39
 70
     1
102
RTVSPost2010Prop40
 90
        0
102
RTVSPost2010PropOp40
 70
     1
102
RTVSPost2010Prop41ColorIndex
 90
       18
102
RTVSPost2010Prop41ColorRGB
 90
        0
102
RTVSPost2010PropOp41
 70
     1
102
RTVSPost2010Prop42
 90
       50
102
RTVSPost2010PropOp42
 70
     1
102
RTVSPost2010Prop43
 90
        3
102
RTVSPost2010PropOp43
 70
     1
102
RTVSPost2010Prop44ColorIndex
 90
        5
102
RTVSPost2010Prop44ColorRGB
 90
      255
102
RTVSPost2010PropOp44
 70
     1
102
RTVSPost2010Prop45
280
     0
102
RTVSPost2010PropOp45
 70
     1
102
RTVSPost2010Prop46
 90
       50
102
RTVSPost2010PropOp46
 70
     1
102
RTVSPost2010Prop47
 90
       50
102
RTVSPost2010PropOp47
 70
     1
102
RTVSPost2010Prop48
 90
       50
102
RTVSPost2010PropOp48
 70
     1
102
RTVSPost2010Prop49
280
     0
102
RTVSPost2010PropOp49
 70
     1
102
RTVSPost2010Prop50
 90
       50
102
RTVSPost2010PropOp50
 70
     1
102
RTVSPost2010Prop51ColorIndex
 90
      256
102
RTVSPost2010Prop51ColorRGB
 90
-16777216
102
RTVSPost2010PropOp51
 70
     0
102
RTVSPost2010Prop52
140
1.0
102
RTVSPost2010PropOp52
 70
     0
102
RTVSPost2010Prop53
 90
        2
102
RTVSPost2010PropOp53
 70
     1
102
RTVSPost2010Prop54
  1
strokes_ogs.tif
102
RTVSPost2010PropOp54
 70
     1
102
RTVSPost2010Prop55
280
     0
102
RTVSPost2010PropOp55
 70
     1
102
RTVSPost2010Prop56
140
1.0
102
RTVSPost2010PropOp56
 70
     1
102
RTVSPost2010Prop57
140
1.0
102
RTVSPost2010PropOp57
 70
     1
102
RTVSPropertyOp0
 70
     1
102
RTVSPropertyOp1
 70
     1
102
RTVSPropertyOp2
 70
     1
102
RTVSPropertyOp3
 70
     1
102
RTVSPropertyOp4
 70
     1
102
RTVSPropertyOp5
 70
     1
102
RTVSPropertyOp6
 70
     1
102
RTVSPropertyOp7
 70
     1
102
RTVSPropertyOp8
 70
     1
102
RTVSPropertyOp9
 70
     1
102
RTVSPropertyOp10
 70
     1
102
RTVSPropertyOp11
 70
     1
102
RTVSPropertyOp12
 70
     1
102
RTVSPropertyOp13
 70
     1
102
RTVSPropertyOp14
 70
     1
102
RTVSPropertyOp15
 70
     1
102
RTVSPropertyOp16
 70
     1
102
RTVSPropertyOp17
 70
     1
102
RTVSPropertyOp18
 70
     1
102
RTVSPropertyOp19
 70
     1
102
RTVSPropertyOp20
 70
     1
102
RTVSPropertyOp21
 70
     1
102
RTVSPropertyOp22
 70
     1
102
RTVSPropertyOp23
 70
     1
102
RTVSPropertyOp24
 70
     1
102
RTVSPropertyOp25
 70
     1
102
RTVSPropertyOp26
 70
     1
102
RTVSPropertyOp27
 70
     1
102
RTVSPropertyOp28
 70
     1
102
RTVSPropertyOp29
 70
     1
102
RTVSPropertyOp30
 70
     1
102
RTVSPropertyOp31
 70
     1
102
RTVSPropertyOp32
 70
     1
102
RTVSPropertyOp33
 70
     1
102
RTVSPropertyOp34
 70
     1
102
RTVSPropertyOp35
 70
     1
102
RTVSPropertyOp36
 70
     1
102
RTVSPropertyOp37
 70
     1
102
RTVSPropertyOp38
 70
     1
102
RTVSPropertyOp39
 70
     1
102
RTVSPropertyOp40
 70
     1
102
RTVSPropertyOp41
 70
     1
102
RTVSPropertyOp42
 70
     1
102
RTVSPropertyOp43
 70
     1
102
RTVSPropertyOp44
 70
     1
102
RTVSPropertyOp45
 70
     1
102
RTVSPropertyOp46
 70
     1
102
RTVSPropertyOp47
 70
     1
102
RTVSPropertyOp48
 70
     1
102
RTVSPropertyOp49
 70
     1
102
RTVSPropertyOp50
 70
     1
102
RTVSPropertyOp51
 70
     0
102
RTVSPropertyOp52
 70
     0
102
RTVSPropertyOp53
 70
     1
102
RTVSPropertyOp54
 70
     1
102
RTVSPropertyOp55
 70
     1
102
RTVSPropertyOp56
 70
     1
102
RTVSPropertyOp57
 70
     1
102
RTVSPropertyOp58
 70
     1
102
RTVSPropertyOp59
 70
     1
102
RTVSPropertyOp60
 70
     1
102
RTVSPropertyOp61
 70
     1
102
RTVSPropertyOp62
 70
     1
  0
XRECORD
  5
165FD
102
{ACAD_REACTORS
330
165FC
102
}
330
165FC
100
AcDbXrecord
280
     1
102
RTVSPost2010Prop28
280
     0
102
RTVSPost2010PropOp28
 70
     0
102
RTVSPost2010Prop29
280
     1
102
RTVSPost2010PropOp29
 70
     0
102
RTVSPost2010Prop30
280
     1
102
RTVSPost2010PropOp30
 70
     0
102
RTVSPost2010Prop31
280
     0
102
RTVSPost2010PropOp31
 70
     0
102
RTVSPost2010Prop32
280
     0
102
RTVSPost2010PropOp32
 70
     0
102
RTVSPost2010Prop33
280
     0
102
RTVSPost2010PropOp33
 70
     0
102
RTVSPost2010Prop34
280
     0
102
RTVSPost2010PropOp34
 70
     0
102
RTVSPost2010Prop35
280
     0
102
RTVSPost2010PropOp35
 70
     0
102
RTVSPost2010Prop36
280
     0
102
RTVSPost2010PropOp36
 70
     0
102
RTVSPost2010Prop37
 90
       50
102
RTVSPost2010PropOp37
 70
     0
102
RTVSPost2010Prop38
140
0.0
102
RTVSPost2010PropOp38
 70
     0
102
RTVSPost2010Prop39
140
1.0
102
RTVSPost2010PropOp39
 70
     0
102
RTVSPost2010Prop40
 90
        0
102
RTVSPost2010PropOp40
 70
     0
102
RTVSPost2010Prop41ColorIndex
 90
       18
102
RTVSPost2010Prop41ColorRGB
 90
        0
102
RTVSPost2010PropOp41
 70
     0
102
RTVSPost2010Prop42
 90
       50
102
RTVSPost2010PropOp42
 70
     0
102
RTVSPost2010Prop43
 90
        3
102
RTVSPost2010PropOp43
 70
     0
102
RTVSPost2010Prop44ColorIndex
 90
        5
102
RTVSPost2010Prop44ColorRGB
 90
      255
102
RTVSPost2010PropOp44
 70
     0
102
RTVSPost2010Prop45
280
     0
102
RTVSPost2010PropOp45
 70
     0
102
RTVSPost2010Prop46
 90
       50
102
RTVSPost2010PropOp46
 70
     0
102
RTVSPost2010Prop47
 90
       50
102
RTVSPost2010PropOp47
 70
     0
102
RTVSPost2010Prop48
 90
       50
102
RTVSPost2010PropOp48
 70
     0
102
RTVSPost2010Prop49
280
     0
102
RTVSPost2010PropOp49
 70
     0
102
RTVSPost2010Prop50
 90
       50
102
RTVSPost2010PropOp50
 70
     0
102
RTVSPost2010Prop51ColorIndex
 90
      256
102
RTVSPost2010Prop51ColorRGB
 90
-16777216
102
RTVSPost2010PropOp51
 70
     0
102
RTVSPost2010Prop52
140
1.0
102
RTVSPost2010PropOp52
 70
     0
102
RTVSPost2010Prop53
 90
        2
102
RTVSPost2010PropOp53
 70
     0
102
RTVSPost2010Prop54
  1
strokes_ogs.tif
102
RTVSPost2010PropOp54
 70
     0
102
RTVSPost2010Prop55
280
     0
102
RTVSPost2010PropOp55
 70
     0
102
RTVSPost2010Prop56
140
1.0
102
RTVSPost2010PropOp56
 70
     0
102
RTVSPost2010Prop57
140
1.0
102
RTVSPost2010PropOp57
 70
     0
102
RTVSPropertyOp0
 70
     0
102
RTVSPropertyOp1
 70
     0
102
RTVSPropertyOp2
 70
     0
102
RTVSPropertyOp3
 70
     0
102
RTVSPropertyOp4
 70
     0
102
RTVSPropertyOp5
 70
     0
102
RTVSPropertyOp6
 70
     0
102
RTVSPropertyOp7
 70
     0
102
RTVSPropertyOp8
 70
     0
102
RTVSPropertyOp9
 70
     0
102
RTVSPropertyOp10
 70
     0
102
RTVSPropertyOp11
 70
     0
102
RTVSPropertyOp12
 70
     0
102
RTVSPropertyOp13
 70
     0
102
RTVSPropertyOp14
 70
     2
102
RTVSPropertyOp15
 70
     0
102
RTVSPropertyOp16
 70
     0
102
RTVSPropertyOp17
 70
     0
102
RTVSPropertyOp18
 70
     0
102
RTVSPropertyOp19
 70
     0
102
RTVSPropertyOp20
 70
     0
102
RTVSPropertyOp21
 70
     0
102
RTVSPropertyOp22
 70
     0
102
RTVSPropertyOp23
 70
     0
102
RTVSPropertyOp24
 70
     0
102
RTVSPropertyOp25
 70
     0
102
RTVSPropertyOp26
 70
     0
102
RTVSPropertyOp27
 70
     0
102
RTVSPropertyOp28
 70
     0
102
RTVSPropertyOp29
 70
     0
102
RTVSPropertyOp30
 70
     0
102
RTVSPropertyOp31
 70
     0
102
RTVSPropertyOp32
 70
     0
102
RTVSPropertyOp33
 70
     0
102
RTVSPropertyOp34
 70
     0
102
RTVSPropertyOp35
 70
     0
102
RTVSPropertyOp36
 70
     0
102
RTVSPropertyOp37
 70
     0
102
RTVSPropertyOp38
 70
     0
102
RTVSPropertyOp39
 70
     0
102
RTVSPropertyOp40
 70
     0
102
RTVSPropertyOp41
 70
     0
102
RTVSPropertyOp42
 70
     0
102
RTVSPropertyOp43
 70
     0
102
RTVSPropertyOp44
 70
     0
102
RTVSPropertyOp45
 70
     0
102
RTVSPropertyOp46
 70
     0
102
RTVSPropertyOp47
 70
     0
102
RTVSPropertyOp48
 70
     0
102
RTVSPropertyOp49
 70
     0
102
RTVSPropertyOp50
 70
     0
102
RTVSPropertyOp51
 70
     0
102
RTVSPropertyOp52
 70
     0
102
RTVSPropertyOp53
 70
     0
102
RTVSPropertyOp54
 70
     0
102
RTVSPropertyOp55
 70
     0
102
RTVSPropertyOp56
 70
     0
102
RTVSPropertyOp57
 70
     0
102
RTVSPropertyOp58
 70
     0
102
RTVSPropertyOp59
 70
     0
102
RTVSPropertyOp60
 70
     0
102
RTVSPropertyOp61
 70
     0
102
RTVSPropertyOp62
 70
     0
  0
XRECORD
  5
165E3
102
{ACAD_REACTORS
330
165E2
102
}
330
165E2
100
AcDbXrecord
280
     1
102
RTVSPost2010Prop28
280
     0
102
RTVSPost2010PropOp28
 70
     1
102
RTVSPost2010Prop29
280
     1
102
RTVSPost2010PropOp29
 70
     1
102
RTVSPost2010Prop30
280
     1
102
RTVSPost2010PropOp30
 70
     1
102
RTVSPost2010Prop31
280
     0
102
RTVSPost2010PropOp31
 70
     1
102
RTVSPost2010Prop32
280
     0
102
RTVSPost2010PropOp32
 70
     1
102
RTVSPost2010Prop33
280
     0
102
RTVSPost2010PropOp33
 70
     1
102
RTVSPost2010Prop34
280
     0
102
RTVSPost2010PropOp34
 70
     1
102
RTVSPost2010Prop35
280
     0
102
RTVSPost2010PropOp35
 70
     1
102
RTVSPost2010Prop36
280
     0
102
RTVSPost2010PropOp36
 70
     1
102
RTVSPost2010Prop37
 90
       50
102
RTVSPost2010PropOp37
 70
     1
102
RTVSPost2010Prop38
140
0.0
102
RTVSPost2010PropOp38
 70
     1
102
RTVSPost2010Prop39
140
1.0
102
RTVSPost2010PropOp39
 70
     1
102
RTVSPost2010Prop40
 90
        0
102
RTVSPost2010PropOp40
 70
     1
102
RTVSPost2010Prop41ColorIndex
 90
       18
102
RTVSPost2010Prop41ColorRGB
 90
        0
102
RTVSPost2010PropOp41
 70
     1
102
RTVSPost2010Prop42
 90
       50
102
RTVSPost2010PropOp42
 70
     1
102
RTVSPost2010Prop43
 90
        3
102
RTVSPost2010PropOp43
 70
     1
102
RTVSPost2010Prop44ColorIndex
 90
        5
102
RTVSPost2010Prop44ColorRGB
 90
      255
102
RTVSPost2010PropOp44
 70
     1
102
RTVSPost2010Prop45
280
     0
102
RTVSPost2010PropOp45
 70
     1
102
RTVSPost2010Prop46
 90
       50
102
RTVSPost2010PropOp46
 70
     1
102
RTVSPost2010Prop47
 90
       50
102
RTVSPost2010PropOp47
 70
     1
102
RTVSPost2010Prop48
 90
       50
102
RTVSPost2010PropOp48
 70
     1
102
RTVSPost2010Prop49
280
     0
102
RTVSPost2010PropOp49
 70
     1
102
RTVSPost2010Prop50
 90
       50
102
RTVSPost2010PropOp50
 70
     1
102
RTVSPost2010Prop51ColorIndex
 90
      256
102
RTVSPost2010Prop51ColorRGB
 90
-16777216
102
RTVSPost2010PropOp51
 70
     0
102
RTVSPost2010Prop52
140
1.0
102
RTVSPost2010PropOp52
 70
     0
102
RTVSPost2010Prop53
 90
        2
102
RTVSPost2010PropOp53
 70
     1
102
RTVSPost2010Prop54
  1
strokes_ogs.tif
102
RTVSPost2010PropOp54
 70
     1
102
RTVSPost2010Prop55
280
     0
102
RTVSPost2010PropOp55
 70
     1
102
RTVSPost2010Prop56
140
1.0
102
RTVSPost2010PropOp56
 70
     1
102
RTVSPost2010Prop57
140
1.0
102
RTVSPost2010PropOp57
 70
     1
102
RTVSPropertyOp0
 70
     1
102
RTVSPropertyOp1
 70
     1
102
RTVSPropertyOp2
 70
     1
102
RTVSPropertyOp3
 70
     1
102
RTVSPropertyOp4
 70
     1
102
RTVSPropertyOp5
 70
     1
102
RTVSPropertyOp6
 70
     1
102
RTVSPropertyOp7
 70
     1
102
RTVSPropertyOp8
 70
     1
102
RTVSPropertyOp9
 70
     1
102
RTVSPropertyOp10
 70
     1
102
RTVSPropertyOp11
 70
     1
102
RTVSPropertyOp12
 70
     1
102
RTVSPropertyOp13
 70
     1
102
RTVSPropertyOp14
 70
     1
102
RTVSPropertyOp15
 70
     1
102
RTVSPropertyOp16
 70
     1
102
RTVSPropertyOp17
 70
     1
102
RTVSPropertyOp18
 70
     1
102
RTVSPropertyOp19
 70
     1
102
RTVSPropertyOp20
 70
     1
102
RTVSPropertyOp21
 70
     1
102
RTVSPropertyOp22
 70
     1
102
RTVSPropertyOp23
 70
     1
102
RTVSPropertyOp24
 70
     1
102
RTVSPropertyOp25
 70
     1
102
RTVSPropertyOp26
 70
     1
102
RTVSPropertyOp27
 70
     1
102
RTVSPropertyOp28
 70
     1
102
RTVSPropertyOp29
 70
     1
102
RTVSPropertyOp30
 70
     1
102
RTVSPropertyOp31
 70
     1
102
RTVSPropertyOp32
 70
     1
102
RTVSPropertyOp33
 70
     1
102
RTVSPropertyOp34
 70
     1
102
RTVSPropertyOp35
 70
     1
102
RTVSPropertyOp36
 70
     1
102
RTVSPropertyOp37
 70
     1
102
RTVSPropertyOp38
 70
     1
102
RTVSPropertyOp39
 70
     1
102
RTVSPropertyOp40
 70
     1
102
RTVSPropertyOp41
 70
     1
102
RTVSPropertyOp42
 70
     1
102
RTVSPropertyOp43
 70
     1
102
RTVSPropertyOp44
 70
     1
102
RTVSPropertyOp45
 70
     1
102
RTVSPropertyOp46
 70
     1
102
RTVSPropertyOp47
 70
     1
102
RTVSPropertyOp48
 70
     1
102
RTVSPropertyOp49
 70
     1
102
RTVSPropertyOp50
 70
     1
102
RTVSPropertyOp51
 70
     0
102
RTVSPropertyOp52
 70
     0
102
RTVSPropertyOp53
 70
     1
102
RTVSPropertyOp54
 70
     1
102
RTVSPropertyOp55
 70
     1
102
RTVSPropertyOp56
 70
     1
102
RTVSPropertyOp57
 70
     1
102
RTVSPropertyOp58
 70
     1
102
RTVSPropertyOp59
 70
     1
102
RTVSPropertyOp60
 70
     1
102
RTVSPropertyOp61
 70
     1
102
RTVSPropertyOp62
 70
     1
  0
XRECORD
  5
165F9
102
{ACAD_REACTORS
330
165F8
102
}
330
165F8
100
AcDbXrecord
280
     1
102
RTVSPost2010Prop28
280
     0
102
RTVSPost2010PropOp28
 70
     1
102
RTVSPost2010Prop29
280
     1
102
RTVSPost2010PropOp29
 70
     1
102
RTVSPost2010Prop30
280
     1
102
RTVSPost2010PropOp30
 70
     1
102
RTVSPost2010Prop31
280
     0
102
RTVSPost2010PropOp31
 70
     1
102
RTVSPost2010Prop32
280
     0
102
RTVSPost2010PropOp32
 70
     1
102
RTVSPost2010Prop33
280
     0
102
RTVSPost2010PropOp33
 70
     1
102
RTVSPost2010Prop34
280
     0
102
RTVSPost2010PropOp34
 70
     1
102
RTVSPost2010Prop35
280
     0
102
RTVSPost2010PropOp35
 70
     1
102
RTVSPost2010Prop36
280
     0
102
RTVSPost2010PropOp36
 70
     1
102
RTVSPost2010Prop37
 90
       50
102
RTVSPost2010PropOp37
 70
     1
102
RTVSPost2010Prop38
140
0.0
102
RTVSPost2010PropOp38
 70
     1
102
RTVSPost2010Prop39
140
1.0
102
RTVSPost2010PropOp39
 70
     1
102
RTVSPost2010Prop40
 90
        0
102
RTVSPost2010PropOp40
 70
     1
102
RTVSPost2010Prop41ColorIndex
 90
       18
102
RTVSPost2010Prop41ColorRGB
 90
        0
102
RTVSPost2010PropOp41
 70
     1
102
RTVSPost2010Prop42
 90
       50
102
RTVSPost2010PropOp42
 70
     1
102
RTVSPost2010Prop43
 90
        3
102
RTVSPost2010PropOp43
 70
     1
102
RTVSPost2010Prop44ColorIndex
 90
        5
102
RTVSPost2010Prop44ColorRGB
 90
      255
102
RTVSPost2010PropOp44
 70
     1
102
RTVSPost2010Prop45
280
     0
102
RTVSPost2010PropOp45
 70
     1
102
RTVSPost2010Prop46
 90
       50
102
RTVSPost2010PropOp46
 70
     1
102
RTVSPost2010Prop47
 90
       50
102
RTVSPost2010PropOp47
 70
     1
102
RTVSPost2010Prop48
 90
       50
102
RTVSPost2010PropOp48
 70
     1
102
RTVSPost2010Prop49
280
     0
102
RTVSPost2010PropOp49
 70
     1
102
RTVSPost2010Prop50
 90
       50
102
RTVSPost2010PropOp50
 70
     1
102
RTVSPost2010Prop51ColorIndex
 90
      256
102
RTVSPost2010Prop51ColorRGB
 90
-16777216
102
RTVSPost2010PropOp51
 70
     0
102
RTVSPost2010Prop52
140
1.0
102
RTVSPost2010PropOp52
 70
     0
102
RTVSPost2010Prop53
 90
        2
102
RTVSPost2010PropOp53
 70
     1
102
RTVSPost2010Prop54
  1
strokes_ogs.tif
102
RTVSPost2010PropOp54
 70
     1
102
RTVSPost2010Prop55
280
     0
102
RTVSPost2010PropOp55
 70
     1
102
RTVSPost2010Prop56
140
1.0
102
RTVSPost2010PropOp56
 70
     1
102
RTVSPost2010Prop57
140
1.0
102
RTVSPost2010PropOp57
 70
     1
102
RTVSPropertyOp0
 70
     1
102
RTVSPropertyOp1
 70
     1
102
RTVSPropertyOp2
 70
     1
102
RTVSPropertyOp3
 70
     1
102
RTVSPropertyOp4
 70
     1
102
RTVSPropertyOp5
 70
     1
102
RTVSPropertyOp6
 70
     1
102
RTVSPropertyOp7
 70
     1
102
RTVSPropertyOp8
 70
     1
102
RTVSPropertyOp9
 70
     1
102
RTVSPropertyOp10
 70
     1
102
RTVSPropertyOp11
 70
     1
102
RTVSPropertyOp12
 70
     1
102
RTVSPropertyOp13
 70
     1
102
RTVSPropertyOp14
 70
     1
102
RTVSPropertyOp15
 70
     1
102
RTVSPropertyOp16
 70
     1
102
RTVSPropertyOp17
 70
     1
102
RTVSPropertyOp18
 70
     1
102
RTVSPropertyOp19
 70
     1
102
RTVSPropertyOp20
 70
     1
102
RTVSPropertyOp21
 70
     1
102
RTVSPropertyOp22
 70
     1
102
RTVSPropertyOp23
 70
     1
102
RTVSPropertyOp24
 70
     1
102
RTVSPropertyOp25
 70
     1
102
RTVSPropertyOp26
 70
     1
102
RTVSPropertyOp27
 70
     1
102
RTVSPropertyOp28
 70
     1
102
RTVSPropertyOp29
 70
     1
102
RTVSPropertyOp30
 70
     1
102
RTVSPropertyOp31
 70
     1
102
RTVSPropertyOp32
 70
     1
102
RTVSPropertyOp33
 70
     1
102
RTVSPropertyOp34
 70
     1
102
RTVSPropertyOp35
 70
     1
102
RTVSPropertyOp36
 70
     1
102
RTVSPropertyOp37
 70
     1
102
RTVSPropertyOp38
 70
     1
102
RTVSPropertyOp39
 70
     1
102
RTVSPropertyOp40
 70
     1
102
RTVSPropertyOp41
 70
     1
102
RTVSPropertyOp42
 70
     1
102
RTVSPropertyOp43
 70
     1
102
RTVSPropertyOp44
 70
     1
102
RTVSPropertyOp45
 70
     1
102
RTVSPropertyOp46
 70
     1
102
RTVSPropertyOp47
 70
     1
102
RTVSPropertyOp48
 70
     1
102
RTVSPropertyOp49
 70
     1
102
RTVSPropertyOp50
 70
     1
102
RTVSPropertyOp51
 70
     0
102
RTVSPropertyOp52
 70
     0
102
RTVSPropertyOp53
 70
     1
102
RTVSPropertyOp54
 70
     1
102
RTVSPropertyOp55
 70
     1
102
RTVSPropertyOp56
 70
     1
102
RTVSPropertyOp57
 70
     1
102
RTVSPropertyOp58
 70
     1
102
RTVSPropertyOp59
 70
     1
102
RTVSPropertyOp60
 70
     1
102
RTVSPropertyOp61
 70
     1
102
RTVSPropertyOp62
 70
     1
  0
XRECORD
  5
165F7
102
{ACAD_REACTORS
330
165F6
102
}
330
165F6
100
AcDbXrecord
280
     1
102
RTVSPost2010Prop28
280
     0
102
RTVSPost2010PropOp28
 70
     1
102
RTVSPost2010Prop29
280
     1
102
RTVSPost2010PropOp29
 70
     1
102
RTVSPost2010Prop30
280
     1
102
RTVSPost2010PropOp30
 70
     1
102
RTVSPost2010Prop31
280
     0
102
RTVSPost2010PropOp31
 70
     1
102
RTVSPost2010Prop32
280
     0
102
RTVSPost2010PropOp32
 70
     1
102
RTVSPost2010Prop33
280
     0
102
RTVSPost2010PropOp33
 70
     1
102
RTVSPost2010Prop34
280
     0
102
RTVSPost2010PropOp34
 70
     1
102
RTVSPost2010Prop35
280
     0
102
RTVSPost2010PropOp35
 70
     1
102
RTVSPost2010Prop36
280
     0
102
RTVSPost2010PropOp36
 70
     1
102
RTVSPost2010Prop37
 90
       50
102
RTVSPost2010PropOp37
 70
     1
102
RTVSPost2010Prop38
140
0.0
102
RTVSPost2010PropOp38
 70
     1
102
RTVSPost2010Prop39
140
1.0
102
RTVSPost2010PropOp39
 70
     1
102
RTVSPost2010Prop40
 90
        0
102
RTVSPost2010PropOp40
 70
     1
102
RTVSPost2010Prop41ColorIndex
 90
       18
102
RTVSPost2010Prop41ColorRGB
 90
        0
102
RTVSPost2010PropOp41
 70
     1
102
RTVSPost2010Prop42
 90
       50
102
RTVSPost2010PropOp42
 70
     1
102
RTVSPost2010Prop43
 90
        3
102
RTVSPost2010PropOp43
 70
     1
102
RTVSPost2010Prop44ColorIndex
 90
        5
102
RTVSPost2010Prop44ColorRGB
 90
      255
102
RTVSPost2010PropOp44
 70
     1
102
RTVSPost2010Prop45
280
     0
102
RTVSPost2010PropOp45
 70
     1
102
RTVSPost2010Prop46
 90
       50
102
RTVSPost2010PropOp46
 70
     1
102
RTVSPost2010Prop47
 90
       50
102
RTVSPost2010PropOp47
 70
     1
102
RTVSPost2010Prop48
 90
       50
102
RTVSPost2010PropOp48
 70
     1
102
RTVSPost2010Prop49
280
     0
102
RTVSPost2010PropOp49
 70
     1
102
RTVSPost2010Prop50
 90
       50
102
RTVSPost2010PropOp50
 70
     1
102
RTVSPost2010Prop51ColorIndex
 90
      256
102
RTVSPost2010Prop51ColorRGB
 90
-16777216
102
RTVSPost2010PropOp51
 70
     0
102
RTVSPost2010Prop52
140
1.0
102
RTVSPost2010PropOp52
 70
     0
102
RTVSPost2010Prop53
 90
        2
102
RTVSPost2010PropOp53
 70
     1
102
RTVSPost2010Prop54
  1
strokes_ogs.tif
102
RTVSPost2010PropOp54
 70
     1
102
RTVSPost2010Prop55
280
     0
102
RTVSPost2010PropOp55
 70
     1
102
RTVSPost2010Prop56
140
1.0
102
RTVSPost2010PropOp56
 70
     1
102
RTVSPost2010Prop57
140
1.0
102
RTVSPost2010PropOp57
 70
     1
102
RTVSPropertyOp0
 70
     1
102
RTVSPropertyOp1
 70
     1
102
RTVSPropertyOp2
 70
     1
102
RTVSPropertyOp3
 70
     1
102
RTVSPropertyOp4
 70
     1
102
RTVSPropertyOp5
 70
     1
102
RTVSPropertyOp6
 70
     1
102
RTVSPropertyOp7
 70
     1
102
RTVSPropertyOp8
 70
     1
102
RTVSPropertyOp9
 70
     1
102
RTVSPropertyOp10
 70
     1
102
RTVSPropertyOp11
 70
     1
102
RTVSPropertyOp12
 70
     1
102
RTVSPropertyOp13
 70
     1
102
RTVSPropertyOp14
 70
     1
102
RTVSPropertyOp15
 70
     1
102
RTVSPropertyOp16
 70
     1
102
RTVSPropertyOp17
 70
     1
102
RTVSPropertyOp18
 70
     1
102
RTVSPropertyOp19
 70
     1
102
RTVSPropertyOp20
 70
     1
102
RTVSPropertyOp21
 70
     1
102
RTVSPropertyOp22
 70
     1
102
RTVSPropertyOp23
 70
     1
102
RTVSPropertyOp24
 70
     1
102
RTVSPropertyOp25
 70
     1
102
RTVSPropertyOp26
 70
     1
102
RTVSPropertyOp27
 70
     1
102
RTVSPropertyOp28
 70
     1
102
RTVSPropertyOp29
 70
     1
102
RTVSPropertyOp30
 70
     1
102
RTVSPropertyOp31
 70
     1
102
RTVSPropertyOp32
 70
     1
102
RTVSPropertyOp33
 70
     1
102
RTVSPropertyOp34
 70
     1
102
RTVSPropertyOp35
 70
     1
102
RTVSPropertyOp36
 70
     1
102
RTVSPropertyOp37
 70
     1
102
RTVSPropertyOp38
 70
     1
102
RTVSPropertyOp39
 70
     1
102
RTVSPropertyOp40
 70
     1
102
RTVSPropertyOp41
 70
     1
102
RTVSPropertyOp42
 70
     1
102
RTVSPropertyOp43
 70
     1
102
RTVSPropertyOp44
 70
     1
102
RTVSPropertyOp45
 70
     1
102
RTVSPropertyOp46
 70
     1
102
RTVSPropertyOp47
 70
     1
102
RTVSPropertyOp48
 70
     1
102
RTVSPropertyOp49
 70
     1
102
RTVSPropertyOp50
 70
     1
102
RTVSPropertyOp51
 70
     0
102
RTVSPropertyOp52
 70
     0
102
RTVSPropertyOp53
 70
     1
102
RTVSPropertyOp54
 70
     1
102
RTVSPropertyOp55
 70
     1
102
RTVSPropertyOp56
 70
     1
102
RTVSPropertyOp57
 70
     1
102
RTVSPropertyOp58
 70
     1
102
RTVSPropertyOp59
 70
     1
102
RTVSPropertyOp60
 70
     1
102
RTVSPropertyOp61
 70
     1
102
RTVSPropertyOp62
 70
     1
  0
XRECORD
  5
165F1
102
{ACAD_REACTORS
330
165F0
102
}
330
165F0
100
AcDbXrecord
280
     1
102
RTVSPost2010Prop28
280
     0
102
RTVSPost2010PropOp28
 70
     1
102
RTVSPost2010Prop29
280
     1
102
RTVSPost2010PropOp29
 70
     1
102
RTVSPost2010Prop30
280
     1
102
RTVSPost2010PropOp30
 70
     1
102
RTVSPost2010Prop31
280
     0
102
RTVSPost2010PropOp31
 70
     1
102
RTVSPost2010Prop32
280
     0
102
RTVSPost2010PropOp32
 70
     1
102
RTVSPost2010Prop33
280
     0
102
RTVSPost2010PropOp33
 70
     1
102
RTVSPost2010Prop34
280
     0
102
RTVSPost2010PropOp34
 70
     1
102
RTVSPost2010Prop35
280
     0
102
RTVSPost2010PropOp35
 70
     1
102
RTVSPost2010Prop36
280
     0
102
RTVSPost2010PropOp36
 70
     1
102
RTVSPost2010Prop37
 90
       50
102
RTVSPost2010PropOp37
 70
     1
102
RTVSPost2010Prop38
140
0.0
102
RTVSPost2010PropOp38
 70
     1
102
RTVSPost2010Prop39
140
1.0
102
RTVSPost2010PropOp39
 70
     1
102
RTVSPost2010Prop40
 90
        0
102
RTVSPost2010PropOp40
 70
     1
102
RTVSPost2010Prop41ColorIndex
 90
       18
102
RTVSPost2010Prop41ColorRGB
 90
        0
102
RTVSPost2010PropOp41
 70
     1
102
RTVSPost2010Prop42
 90
       50
102
RTVSPost2010PropOp42
 70
     1
102
RTVSPost2010Prop43
 90
        3
102
RTVSPost2010PropOp43
 70
     1
102
RTVSPost2010Prop44ColorIndex
 90
        5
102
RTVSPost2010Prop44ColorRGB
 90
      255
102
RTVSPost2010PropOp44
 70
     1
102
RTVSPost2010Prop45
280
     0
102
RTVSPost2010PropOp45
 70
     1
102
RTVSPost2010Prop46
 90
       50
102
RTVSPost2010PropOp46
 70
     1
102
RTVSPost2010Prop47
 90
       50
102
RTVSPost2010PropOp47
 70
     1
102
RTVSPost2010Prop48
 90
       50
102
RTVSPost2010PropOp48
 70
     1
102
RTVSPost2010Prop49
280
     0
102
RTVSPost2010PropOp49
 70
     1
102
RTVSPost2010Prop50
 90
       50
102
RTVSPost2010PropOp50
 70
     1
102
RTVSPost2010Prop51ColorIndex
 90
      256
102
RTVSPost2010Prop51ColorRGB
 90
-16777216
102
RTVSPost2010PropOp51
 70
     0
102
RTVSPost2010Prop52
140
1.0
102
RTVSPost2010PropOp52
 70
     0
102
RTVSPost2010Prop53
 90
        2
102
RTVSPost2010PropOp53
 70
     1
102
RTVSPost2010Prop54
  1
strokes_ogs.tif
102
RTVSPost2010PropOp54
 70
     1
102
RTVSPost2010Prop55
280
     0
102
RTVSPost2010PropOp55
 70
     1
102
RTVSPost2010Prop56
140
1.0
102
RTVSPost2010PropOp56
 70
     1
102
RTVSPost2010Prop57
140
1.0
102
RTVSPost2010PropOp57
 70
     1
102
RTVSPropertyOp0
 70
     1
102
RTVSPropertyOp1
 70
     1
102
RTVSPropertyOp2
 70
     1
102
RTVSPropertyOp3
 70
     1
102
RTVSPropertyOp4
 70
     1
102
RTVSPropertyOp5
 70
     1
102
RTVSPropertyOp6
 70
     1
102
RTVSPropertyOp7
 70
     1
102
RTVSPropertyOp8
 70
     1
102
RTVSPropertyOp9
 70
     1
102
RTVSPropertyOp10
 70
     1
102
RTVSPropertyOp11
 70
     1
102
RTVSPropertyOp12
 70
     1
102
RTVSPropertyOp13
 70
     1
102
RTVSPropertyOp14
 70
     1
102
RTVSPropertyOp15
 70
     1
102
RTVSPropertyOp16
 70
     1
102
RTVSPropertyOp17
 70
     1
102
RTVSPropertyOp18
 70
     1
102
RTVSPropertyOp19
 70
     1
102
RTVSPropertyOp20
 70
     1
102
RTVSPropertyOp21
 70
     1
102
RTVSPropertyOp22
 70
     1
102
RTVSPropertyOp23
 70
     1
102
RTVSPropertyOp24
 70
     1
102
RTVSPropertyOp25
 70
     1
102
RTVSPropertyOp26
 70
     1
102
RTVSPropertyOp27
 70
     1
102
RTVSPropertyOp28
 70
     1
102
RTVSPropertyOp29
 70
     1
102
RTVSPropertyOp30
 70
     1
102
RTVSPropertyOp31
 70
     1
102
RTVSPropertyOp32
 70
     1
102
RTVSPropertyOp33
 70
     1
102
RTVSPropertyOp34
 70
     1
102
RTVSPropertyOp35
 70
     1
102
RTVSPropertyOp36
 70
     1
102
RTVSPropertyOp37
 70
     1
102
RTVSPropertyOp38
 70
     1
102
RTVSPropertyOp39
 70
     1
102
RTVSPropertyOp40
 70
     1
102
RTVSPropertyOp41
 70
     1
102
RTVSPropertyOp42
 70
     1
102
RTVSPropertyOp43
 70
     1
102
RTVSPropertyOp44
 70
     1
102
RTVSPropertyOp45
 70
     1
102
RTVSPropertyOp46
 70
     1
102
RTVSPropertyOp47
 70
     1
102
RTVSPropertyOp48
 70
     1
102
RTVSPropertyOp49
 70
     1
102
RTVSPropertyOp50
 70
     1
102
RTVSPropertyOp51
 70
     0
102
RTVSPropertyOp52
 70
     0
102
RTVSPropertyOp53
 70
     1
102
RTVSPropertyOp54
 70
     1
102
RTVSPropertyOp55
 70
     1
102
RTVSPropertyOp56
 70
     1
102
RTVSPropertyOp57
 70
     1
102
RTVSPropertyOp58
 70
     1
102
RTVSPropertyOp59
 70
     1
102
RTVSPropertyOp60
 70
     1
102
RTVSPropertyOp61
 70
     1
102
RTVSPropertyOp62
 70
     1
  0
XRECORD
  5
165F3
102
{ACAD_REACTORS
330
165F2
102
}
330
165F2
100
AcDbXrecord
280
     1
102
RTVSPost2010Prop28
280
     0
102
RTVSPost2010PropOp28
 70
     1
102
RTVSPost2010Prop29
280
     1
102
RTVSPost2010PropOp29
 70
     1
102
RTVSPost2010Prop30
280
     1
102
RTVSPost2010PropOp30
 70
     1
102
RTVSPost2010Prop31
280
     0
102
RTVSPost2010PropOp31
 70
     1
102
RTVSPost2010Prop32
280
     0
102
RTVSPost2010PropOp32
 70
     1
102
RTVSPost2010Prop33
280
     0
102
RTVSPost2010PropOp33
 70
     1
102
RTVSPost2010Prop34
280
     0
102
RTVSPost2010PropOp34
 70
     1
102
RTVSPost2010Prop35
280
     0
102
RTVSPost2010PropOp35
 70
     1
102
RTVSPost2010Prop36
280
     0
102
RTVSPost2010PropOp36
 70
     1
102
RTVSPost2010Prop37
 90
       50
102
RTVSPost2010PropOp37
 70
     1
102
RTVSPost2010Prop38
140
0.0
102
RTVSPost2010PropOp38
 70
     1
102
RTVSPost2010Prop39
140
1.0
102
RTVSPost2010PropOp39
 70
     1
102
RTVSPost2010Prop40
 90
        0
102
RTVSPost2010PropOp40
 70
     1
102
RTVSPost2010Prop41ColorIndex
 90
       18
102
RTVSPost2010Prop41ColorRGB
 90
        0
102
RTVSPost2010PropOp41
 70
     1
102
RTVSPost2010Prop42
 90
       50
102
RTVSPost2010PropOp42
 70
     1
102
RTVSPost2010Prop43
 90
        3
102
RTVSPost2010PropOp43
 70
     1
102
RTVSPost2010Prop44ColorIndex
 90
        5
102
RTVSPost2010Prop44ColorRGB
 90
      255
102
RTVSPost2010PropOp44
 70
     1
102
RTVSPost2010Prop45
280
     0
102
RTVSPost2010PropOp45
 70
     1
102
RTVSPost2010Prop46
 90
       50
102
RTVSPost2010PropOp46
 70
     1
102
RTVSPost2010Prop47
 90
       50
102
RTVSPost2010PropOp47
 70
     1
102
RTVSPost2010Prop48
 90
       50
102
RTVSPost2010PropOp48
 70
     1
102
RTVSPost2010Prop49
280
     0
102
RTVSPost2010PropOp49
 70
     1
102
RTVSPost2010Prop50
 90
       50
102
RTVSPost2010PropOp50
 70
     1
102
RTVSPost2010Prop51ColorIndex
 90
      256
102
RTVSPost2010Prop51ColorRGB
 90
-16777216
102
RTVSPost2010PropOp51
 70
     0
102
RTVSPost2010Prop52
140
1.0
102
RTVSPost2010PropOp52
 70
     0
102
RTVSPost2010Prop53
 90
        2
102
RTVSPost2010PropOp53
 70
     1
102
RTVSPost2010Prop54
  1
strokes_ogs.tif
102
RTVSPost2010PropOp54
 70
     1
102
RTVSPost2010Prop55
280
     0
102
RTVSPost2010PropOp55
 70
     1
102
RTVSPost2010Prop56
140
1.0
102
RTVSPost2010PropOp56
 70
     1
102
RTVSPost2010Prop57
140
1.0
102
RTVSPost2010PropOp57
 70
     1
102
RTVSPropertyOp0
 70
     1
102
RTVSPropertyOp1
 70
     1
102
RTVSPropertyOp2
 70
     1
102
RTVSPropertyOp3
 70
     1
102
RTVSPropertyOp4
 70
     1
102
RTVSPropertyOp5
 70
     1
102
RTVSPropertyOp6
 70
     1
102
RTVSPropertyOp7
 70
     1
102
RTVSPropertyOp8
 70
     1
102
RTVSPropertyOp9
 70
     1
102
RTVSPropertyOp10
 70
     1
102
RTVSPropertyOp11
 70
     1
102
RTVSPropertyOp12
 70
     1
102
RTVSPropertyOp13
 70
     1
102
RTVSPropertyOp14
 70
     1
102
RTVSPropertyOp15
 70
     1
102
RTVSPropertyOp16
 70
     1
102
RTVSPropertyOp17
 70
     1
102
RTVSPropertyOp18
 70
     1
102
RTVSPropertyOp19
 70
     1
102
RTVSPropertyOp20
 70
     1
102
RTVSPropertyOp21
 70
     1
102
RTVSPropertyOp22
 70
     1
102
RTVSPropertyOp23
 70
     1
102
RTVSPropertyOp24
 70
     1
102
RTVSPropertyOp25
 70
     1
102
RTVSPropertyOp26
 70
     1
102
RTVSPropertyOp27
 70
     1
102
RTVSPropertyOp28
 70
     1
102
RTVSPropertyOp29
 70
     1
102
RTVSPropertyOp30
 70
     1
102
RTVSPropertyOp31
 70
     1
102
RTVSPropertyOp32
 70
     1
102
RTVSPropertyOp33
 70
     1
102
RTVSPropertyOp34
 70
     1
102
RTVSPropertyOp35
 70
     1
102
RTVSPropertyOp36
 70
     1
102
RTVSPropertyOp37
 70
     1
102
RTVSPropertyOp38
 70
     1
102
RTVSPropertyOp39
 70
     1
102
RTVSPropertyOp40
 70
     1
102
RTVSPropertyOp41
 70
     1
102
RTVSPropertyOp42
 70
     1
102
RTVSPropertyOp43
 70
     1
102
RTVSPropertyOp44
 70
     1
102
RTVSPropertyOp45
 70
     1
102
RTVSPropertyOp46
 70
     1
102
RTVSPropertyOp47
 70
     1
102
RTVSPropertyOp48
 70
     1
102
RTVSPropertyOp49
 70
     1
102
RTVSPropertyOp50
 70
     1
102
RTVSPropertyOp51
 70
     0
102
RTVSPropertyOp52
 70
     0
102
RTVSPropertyOp53
 70
     1
102
RTVSPropertyOp54
 70
     1
102
RTVSPropertyOp55
 70
     1
102
RTVSPropertyOp56
 70
     1
102
RTVSPropertyOp57
 70
     1
102
RTVSPropertyOp58
 70
     1
102
RTVSPropertyOp59
 70
     1
102
RTVSPropertyOp60
 70
     1
102
RTVSPropertyOp61
 70
     1
102
RTVSPropertyOp62
 70
     1
  0
XRECORD
  5
165E9
102
{ACAD_REACTORS
330
165E8
102
}
330
165E8
100
AcDbXrecord
280
     1
102
RTVSPost2010Prop28
280
     0
102
RTVSPost2010PropOp28
 70
     1
102
RTVSPost2010Prop29
280
     1
102
RTVSPost2010PropOp29
 70
     1
102
RTVSPost2010Prop30
280
     1
102
RTVSPost2010PropOp30
 70
     1
102
RTVSPost2010Prop31
280
     0
102
RTVSPost2010PropOp31
 70
     1
102
RTVSPost2010Prop32
280
     0
102
RTVSPost2010PropOp32
 70
     1
102
RTVSPost2010Prop33
280
     0
102
RTVSPost2010PropOp33
 70
     1
102
RTVSPost2010Prop34
280
     0
102
RTVSPost2010PropOp34
 70
     1
102
RTVSPost2010Prop35
280
     0
102
RTVSPost2010PropOp35
 70
     1
102
RTVSPost2010Prop36
280
     0
102
RTVSPost2010PropOp36
 70
     1
102
RTVSPost2010Prop37
 90
       50
102
RTVSPost2010PropOp37
 70
     1
102
RTVSPost2010Prop38
140
0.0
102
RTVSPost2010PropOp38
 70
     1
102
RTVSPost2010Prop39
140
1.0
102
RTVSPost2010PropOp39
 70
     1
102
RTVSPost2010Prop40
 90
        0
102
RTVSPost2010PropOp40
 70
     1
102
RTVSPost2010Prop41ColorIndex
 90
       18
102
RTVSPost2010Prop41ColorRGB
 90
        0
102
RTVSPost2010PropOp41
 70
     1
102
RTVSPost2010Prop42
 90
       50
102
RTVSPost2010PropOp42
 70
     1
102
RTVSPost2010Prop43
 90
        3
102
RTVSPost2010PropOp43
 70
     1
102
RTVSPost2010Prop44ColorIndex
 90
        5
102
RTVSPost2010Prop44ColorRGB
 90
      255
102
RTVSPost2010PropOp44
 70
     1
102
RTVSPost2010Prop45
280
     0
102
RTVSPost2010PropOp45
 70
     1
102
RTVSPost2010Prop46
 90
       50
102
RTVSPost2010PropOp46
 70
     1
102
RTVSPost2010Prop47
 90
       50
102
RTVSPost2010PropOp47
 70
     1
102
RTVSPost2010Prop48
 90
       50
102
RTVSPost2010PropOp48
 70
     1
102
RTVSPost2010Prop49
280
     0
102
RTVSPost2010PropOp49
 70
     1
102
RTVSPost2010Prop50
 90
       50
102
RTVSPost2010PropOp50
 70
     1
102
RTVSPost2010Prop51ColorIndex
 90
      256
102
RTVSPost2010Prop51ColorRGB
 90
-16777216
102
RTVSPost2010PropOp51
 70
     0
102
RTVSPost2010Prop52
140
1.0
102
RTVSPost2010PropOp52
 70
     0
102
RTVSPost2010Prop53
 90
        2
102
RTVSPost2010PropOp53
 70
     1
102
RTVSPost2010Prop54
  1
strokes_ogs.tif
102
RTVSPost2010PropOp54
 70
     1
102
RTVSPost2010Prop55
280
     0
102
RTVSPost2010PropOp55
 70
     1
102
RTVSPost2010Prop56
140
1.0
102
RTVSPost2010PropOp56
 70
     1
102
RTVSPost2010Prop57
140
1.0
102
RTVSPost2010PropOp57
 70
     1
102
RTVSPropertyOp0
 70
     1
102
RTVSPropertyOp1
 70
     1
102
RTVSPropertyOp2
 70
     1
102
RTVSPropertyOp3
 70
     1
102
RTVSPropertyOp4
 70
     1
102
RTVSPropertyOp5
 70
     1
102
RTVSPropertyOp6
 70
     1
102
RTVSPropertyOp7
 70
     1
102
RTVSPropertyOp8
 70
     1
102
RTVSPropertyOp9
 70
     1
102
RTVSPropertyOp10
 70
     1
102
RTVSPropertyOp11
 70
     1
102
RTVSPropertyOp12
 70
     1
102
RTVSPropertyOp13
 70
     1
102
RTVSPropertyOp14
 70
     1
102
RTVSPropertyOp15
 70
     1
102
RTVSPropertyOp16
 70
     1
102
RTVSPropertyOp17
 70
     1
102
RTVSPropertyOp18
 70
     1
102
RTVSPropertyOp19
 70
     1
102
RTVSPropertyOp20
 70
     1
102
RTVSPropertyOp21
 70
     1
102
RTVSPropertyOp22
 70
     1
102
RTVSPropertyOp23
 70
     1
102
RTVSPropertyOp24
 70
     1
102
RTVSPropertyOp25
 70
     1
102
RTVSPropertyOp26
 70
     1
102
RTVSPropertyOp27
 70
     1
102
RTVSPropertyOp28
 70
     1
102
RTVSPropertyOp29
 70
     1
102
RTVSPropertyOp30
 70
     1
102
RTVSPropertyOp31
 70
     1
102
RTVSPropertyOp32
 70
     1
102
RTVSPropertyOp33
 70
     1
102
RTVSPropertyOp34
 70
     1
102
RTVSPropertyOp35
 70
     1
102
RTVSPropertyOp36
 70
     1
102
RTVSPropertyOp37
 70
     1
102
RTVSPropertyOp38
 70
     1
102
RTVSPropertyOp39
 70
     1
102
RTVSPropertyOp40
 70
     1
102
RTVSPropertyOp41
 70
     1
102
RTVSPropertyOp42
 70
     1
102
RTVSPropertyOp43
 70
     1
102
RTVSPropertyOp44
 70
     1
102
RTVSPropertyOp45
 70
     1
102
RTVSPropertyOp46
 70
     1
102
RTVSPropertyOp47
 70
     1
102
RTVSPropertyOp48
 70
     1
102
RTVSPropertyOp49
 70
     1
102
RTVSPropertyOp50
 70
     1
102
RTVSPropertyOp51
 70
     0
102
RTVSPropertyOp52
 70
     0
102
RTVSPropertyOp53
 70
     1
102
RTVSPropertyOp54
 70
     1
102
RTVSPropertyOp55
 70
     1
102
RTVSPropertyOp56
 70
     1
102
RTVSPropertyOp57
 70
     1
102
RTVSPropertyOp58
 70
     1
102
RTVSPropertyOp59
 70
     1
102
RTVSPropertyOp60
 70
     1
102
RTVSPropertyOp61
 70
     1
102
RTVSPropertyOp62
 70
     1
  0
XRECORD
  5
165DD
102
{ACAD_REACTORS
330
165DC
102
}
330
165DC
100
AcDbXrecord
280
     1
102
RTVSPost2010Prop28
280
     0
102
RTVSPost2010PropOp28
 70
     1
102
RTVSPost2010Prop29
280
     1
102
RTVSPost2010PropOp29
 70
     1
102
RTVSPost2010Prop30
280
     1
102
RTVSPost2010PropOp30
 70
     1
102
RTVSPost2010Prop31
280
     0
102
RTVSPost2010PropOp31
 70
     1
102
RTVSPost2010Prop32
280
     0
102
RTVSPost2010PropOp32
 70
     1
102
RTVSPost2010Prop33
280
     0
102
RTVSPost2010PropOp33
 70
     1
102
RTVSPost2010Prop34
280
     0
102
RTVSPost2010PropOp34
 70
     1
102
RTVSPost2010Prop35
280
     0
102
RTVSPost2010PropOp35
 70
     1
102
RTVSPost2010Prop36
280
     0
102
RTVSPost2010PropOp36
 70
     1
102
RTVSPost2010Prop37
 90
       50
102
RTVSPost2010PropOp37
 70
     1
102
RTVSPost2010Prop38
140
0.0
102
RTVSPost2010PropOp38
 70
     1
102
RTVSPost2010Prop39
140
1.0
102
RTVSPost2010PropOp39
 70
     1
102
RTVSPost2010Prop40
 90
        0
102
RTVSPost2010PropOp40
 70
     1
102
RTVSPost2010Prop41ColorIndex
 90
       18
102
RTVSPost2010Prop41ColorRGB
 90
        0
102
RTVSPost2010PropOp41
 70
     1
102
RTVSPost2010Prop42
 90
       50
102
RTVSPost2010PropOp42
 70
     1
102
RTVSPost2010Prop43
 90
        3
102
RTVSPost2010PropOp43
 70
     1
102
RTVSPost2010Prop44ColorIndex
 90
        5
102
RTVSPost2010Prop44ColorRGB
 90
      255
102
RTVSPost2010PropOp44
 70
     1
102
RTVSPost2010Prop45
280
     0
102
RTVSPost2010PropOp45
 70
     1
102
RTVSPost2010Prop46
 90
       50
102
RTVSPost2010PropOp46
 70
     1
102
RTVSPost2010Prop47
 90
       50
102
RTVSPost2010PropOp47
 70
     1
102
RTVSPost2010Prop48
 90
       50
102
RTVSPost2010PropOp48
 70
     1
102
RTVSPost2010Prop49
280
     0
102
RTVSPost2010PropOp49
 70
     1
102
RTVSPost2010Prop50
 90
       50
102
RTVSPost2010PropOp50
 70
     1
102
RTVSPost2010Prop51ColorIndex
 90
      256
102
RTVSPost2010Prop51ColorRGB
 90
-16777216
102
RTVSPost2010PropOp51
 70
     0
102
RTVSPost2010Prop52
140
1.0
102
RTVSPost2010PropOp52
 70
     0
102
RTVSPost2010Prop53
 90
        2
102
RTVSPost2010PropOp53
 70
     1
102
RTVSPost2010Prop54
  1
strokes_ogs.tif
102
RTVSPost2010PropOp54
 70
     1
102
RTVSPost2010Prop55
280
     0
102
RTVSPost2010PropOp55
 70
     1
102
RTVSPost2010Prop56
140
1.0
102
RTVSPost2010PropOp56
 70
     1
102
RTVSPost2010Prop57
140
1.0
102
RTVSPost2010PropOp57
 70
     1
102
RTVSPropertyOp0
 70
     1
102
RTVSPropertyOp1
 70
     1
102
RTVSPropertyOp2
 70
     1
102
RTVSPropertyOp3
 70
     1
102
RTVSPropertyOp4
 70
     1
102
RTVSPropertyOp5
 70
     1
102
RTVSPropertyOp6
 70
     1
102
RTVSPropertyOp7
 70
     1
102
RTVSPropertyOp8
 70
     1
102
RTVSPropertyOp9
 70
     1
102
RTVSPropertyOp10
 70
     1
102
RTVSPropertyOp11
 70
     1
102
RTVSPropertyOp12
 70
     1
102
RTVSPropertyOp13
 70
     1
102
RTVSPropertyOp14
 70
     1
102
RTVSPropertyOp15
 70
     1
102
RTVSPropertyOp16
 70
     1
102
RTVSPropertyOp17
 70
     1
102
RTVSPropertyOp18
 70
     1
102
RTVSPropertyOp19
 70
     1
102
RTVSPropertyOp20
 70
     1
102
RTVSPropertyOp21
 70
     1
102
RTVSPropertyOp22
 70
     1
102
RTVSPropertyOp23
 70
     1
102
RTVSPropertyOp24
 70
     1
102
RTVSPropertyOp25
 70
     1
102
RTVSPropertyOp26
 70
     1
102
RTVSPropertyOp27
 70
     1
102
RTVSPropertyOp28
 70
     1
102
RTVSPropertyOp29
 70
     1
102
RTVSPropertyOp30
 70
     1
102
RTVSPropertyOp31
 70
     1
102
RTVSPropertyOp32
 70
     1
102
RTVSPropertyOp33
 70
     1
102
RTVSPropertyOp34
 70
     1
102
RTVSPropertyOp35
 70
     1
102
RTVSPropertyOp36
 70
     1
102
RTVSPropertyOp37
 70
     1
102
RTVSPropertyOp38
 70
     1
102
RTVSPropertyOp39
 70
     1
102
RTVSPropertyOp40
 70
     1
102
RTVSPropertyOp41
 70
     1
102
RTVSPropertyOp42
 70
     1
102
RTVSPropertyOp43
 70
     1
102
RTVSPropertyOp44
 70
     1
102
RTVSPropertyOp45
 70
     1
102
RTVSPropertyOp46
 70
     1
102
RTVSPropertyOp47
 70
     1
102
RTVSPropertyOp48
 70
     1
102
RTVSPropertyOp49
 70
     1
102
RTVSPropertyOp50
 70
     1
102
RTVSPropertyOp51
 70
     0
102
RTVSPropertyOp52
 70
     0
102
RTVSPropertyOp53
 70
     1
102
RTVSPropertyOp54
 70
     1
102
RTVSPropertyOp55
 70
     1
102
RTVSPropertyOp56
 70
     1
102
RTVSPropertyOp57
 70
     1
102
RTVSPropertyOp58
 70
     1
102
RTVSPropertyOp59
 70
     1
102
RTVSPropertyOp60
 70
     1
102
RTVSPropertyOp61
 70
     1
102
RTVSPropertyOp62
 70
     1
  0
XRECORD
  5
165F5
102
{ACAD_REACTORS
330
165F4
102
}
330
165F4
100
AcDbXrecord
280
     1
102
RTVSPost2010Prop28
280
     0
102
RTVSPost2010PropOp28
 70
     1
102
RTVSPost2010Prop29
280
     1
102
RTVSPost2010PropOp29
 70
     1
102
RTVSPost2010Prop30
280
     1
102
RTVSPost2010PropOp30
 70
     1
102
RTVSPost2010Prop31
280
     0
102
RTVSPost2010PropOp31
 70
     1
102
RTVSPost2010Prop32
280
     0
102
RTVSPost2010PropOp32
 70
     1
102
RTVSPost2010Prop33
280
     0
102
RTVSPost2010PropOp33
 70
     1
102
RTVSPost2010Prop34
280
     0
102
RTVSPost2010PropOp34
 70
     1
102
RTVSPost2010Prop35
280
     0
102
RTVSPost2010PropOp35
 70
     1
102
RTVSPost2010Prop36
280
     0
102
RTVSPost2010PropOp36
 70
     1
102
RTVSPost2010Prop37
 90
       50
102
RTVSPost2010PropOp37
 70
     1
102
RTVSPost2010Prop38
140
0.0
102
RTVSPost2010PropOp38
 70
     1
102
RTVSPost2010Prop39
140
1.0
102
RTVSPost2010PropOp39
 70
     1
102
RTVSPost2010Prop40
 90
        0
102
RTVSPost2010PropOp40
 70
     1
102
RTVSPost2010Prop41ColorIndex
 90
       18
102
RTVSPost2010Prop41ColorRGB
 90
        0
102
RTVSPost2010PropOp41
 70
     1
102
RTVSPost2010Prop42
 90
       50
102
RTVSPost2010PropOp42
 70
     1
102
RTVSPost2010Prop43
 90
        3
102
RTVSPost2010PropOp43
 70
     1
102
RTVSPost2010Prop44ColorIndex
 90
        5
102
RTVSPost2010Prop44ColorRGB
 90
      255
102
RTVSPost2010PropOp44
 70
     1
102
RTVSPost2010Prop45
280
     0
102
RTVSPost2010PropOp45
 70
     1
102
RTVSPost2010Prop46
 90
       50
102
RTVSPost2010PropOp46
 70
     1
102
RTVSPost2010Prop47
 90
       50
102
RTVSPost2010PropOp47
 70
     1
102
RTVSPost2010Prop48
 90
       50
102
RTVSPost2010PropOp48
 70
     1
102
RTVSPost2010Prop49
280
     0
102
RTVSPost2010PropOp49
 70
     1
102
RTVSPost2010Prop50
 90
       50
102
RTVSPost2010PropOp50
 70
     1
102
RTVSPost2010Prop51ColorIndex
 90
      256
102
RTVSPost2010Prop51ColorRGB
 90
-16777216
102
RTVSPost2010PropOp51
 70
     0
102
RTVSPost2010Prop52
140
1.0
102
RTVSPost2010PropOp52
 70
     0
102
RTVSPost2010Prop53
 90
        2
102
RTVSPost2010PropOp53
 70
     1
102
RTVSPost2010Prop54
  1
strokes_ogs.tif
102
RTVSPost2010PropOp54
 70
     1
102
RTVSPost2010Prop55
280
     0
102
RTVSPost2010PropOp55
 70
     1
102
RTVSPost2010Prop56
140
1.0
102
RTVSPost2010PropOp56
 70
     1
102
RTVSPost2010Prop57
140
1.0
102
RTVSPost2010PropOp57
 70
     1
102
RTVSPropertyOp0
 70
     1
102
RTVSPropertyOp1
 70
     1
102
RTVSPropertyOp2
 70
     1
102
RTVSPropertyOp3
 70
     1
102
RTVSPropertyOp4
 70
     1
102
RTVSPropertyOp5
 70
     1
102
RTVSPropertyOp6
 70
     1
102
RTVSPropertyOp7
 70
     1
102
RTVSPropertyOp8
 70
     1
102
RTVSPropertyOp9
 70
     1
102
RTVSPropertyOp10
 70
     1
102
RTVSPropertyOp11
 70
     1
102
RTVSPropertyOp12
 70
     1
102
RTVSPropertyOp13
 70
     1
102
RTVSPropertyOp14
 70
     1
102
RTVSPropertyOp15
 70
     1
102
RTVSPropertyOp16
 70
     1
102
RTVSPropertyOp17
 70
     1
102
RTVSPropertyOp18
 70
     1
102
RTVSPropertyOp19
 70
     1
102
RTVSPropertyOp20
 70
     1
102
RTVSPropertyOp21
 70
     1
102
RTVSPropertyOp22
 70
     1
102
RTVSPropertyOp23
 70
     1
102
RTVSPropertyOp24
 70
     1
102
RTVSPropertyOp25
 70
     1
102
RTVSPropertyOp26
 70
     1
102
RTVSPropertyOp27
 70
     1
102
RTVSPropertyOp28
 70
     1
102
RTVSPropertyOp29
 70
     1
102
RTVSPropertyOp30
 70
     1
102
RTVSPropertyOp31
 70
     1
102
RTVSPropertyOp32
 70
     1
102
RTVSPropertyOp33
 70
     1
102
RTVSPropertyOp34
 70
     1
102
RTVSPropertyOp35
 70
     1
102
RTVSPropertyOp36
 70
     1
102
RTVSPropertyOp37
 70
     1
102
RTVSPropertyOp38
 70
     1
102
RTVSPropertyOp39
 70
     1
102
RTVSPropertyOp40
 70
     1
102
RTVSPropertyOp41
 70
     1
102
RTVSPropertyOp42
 70
     1
102
RTVSPropertyOp43
 70
     1
102
RTVSPropertyOp44
 70
     1
102
RTVSPropertyOp45
 70
     1
102
RTVSPropertyOp46
 70
     1
102
RTVSPropertyOp47
 70
     1
102
RTVSPropertyOp48
 70
     1
102
RTVSPropertyOp49
 70
     1
102
RTVSPropertyOp50
 70
     1
102
RTVSPropertyOp51
 70
     0
102
RTVSPropertyOp52
 70
     0
102
RTVSPropertyOp53
 70
     1
102
RTVSPropertyOp54
 70
     1
102
RTVSPropertyOp55
 70
     1
102
RTVSPropertyOp56
 70
     1
102
RTVSPropertyOp57
 70
     1
102
RTVSPropertyOp58
 70
     1
102
RTVSPropertyOp59
 70
     1
102
RTVSPropertyOp60
 70
     1
102
RTVSPropertyOp61
 70
     1
102
RTVSPropertyOp62
 70
     1
  0
ENDSEC
  0
EOF
