  0
SECTION
  2
HEADER
  9
$ACADVER
  1
AC1015
  9
$ACADMAINTVER
 70
    20
  9
$DWGCODEPAGE
  3
ANSI_932
  9
$INSBASE
 10
0.0
 20
0.0
 30
0.0
  9
$EXTMIN
 10
104.9999999999996
 20
0.0
 30
-0.0000000000013153
  9
$EXTMAX
 10
12230.4
 20
8557.199999999999
 30
0.0000000000013153
  9
$LIMMIN
 10
0.0
 20
0.0
  9
$LIMMAX
 10
12600.0
 20
8910.0
  9
$ORTHOMODE
 70
     0
  9
$REGENMODE
 70
     1
  9
$FILLMODE
 70
     1
  9
$QTEXTMODE
 70
     0
  9
$MIRRTEXT
 70
     1
  9
$LTSCALE
 40
7.0
  9
$ATTMODE
 70
     1
  9
$TEXTSIZE
 40
100.0
  9
$TRACEWID
 40
1.0
  9
$TEXTSTYLE
  7
STYLE3
  9
$CLAYER
  8
点線
  9
$CELTYPE
  6
BYLAYER
  9
$CECOLOR
 62
   256
  9
$CELTSCALE
 40
50.0
  9
$DISPSILH
 70
     0
  9
$DIMSCALE
 40
30.0
  9
$DIMASZ
 40
2.5
  9
$DIMEXO
 40
0.5
  9
$DIMDLI
 40
7.0
  9
$DIMRND
 40
0.0
  9
$DIMDLE
 40
0.0
  9
$DIMEXE
 40
1.5
  9
$DIMTP
 40
0.0
  9
$DIMTM
 40
0.0
  9
$DIMTXT
 40
3.0
  9
$DIMCEN
 40
0.0
  9
$DIMTSZ
 40
0.0
  9
$DIMTOL
 70
     0
  9
$DIMLIM
 70
     0
  9
$DIMTIH
 70
     1
  9
$DIMTOH
 70
     1
  9
$DIMSE1
 70
     0
  9
$DIMSE2
 70
     0
  9
$DIMTAD
 70
     3
  9
$DIMZIN
 70
     8
  9
$DIMBLK
  1

  9
$DIMASO
 70
     1
  9
$DIMSHO
 70
     1
  9
$DIMPOST
  1

  9
$DIMAPOST
  1

  9
$DIMALT
 70
     0
  9
$DIMALTD
 70
     2
  9
$DIMALTF
 40
0.0394
  9
$DIMLFAC
 40
1.0
  9
$DIMTOFL
 70
     1
  9
$DIMTVP
 40
0.0
  9
$DIMTIX
 70
     1
  9
$DIMSOXD
 70
     1
  9
$DIMSAH
 70
     1
  9
$DIMBLK1
  1
DOTSMALL
  9
$DIMBLK2
  1
DOTSMALL
  9
$DIMSTYLE
  2
INABA_S30G
  9
$DIMCLRD
 70
     0
  9
$DIMCLRE
 70
     0
  9
$DIMCLRT
 70
     7
  9
$DIMTFAC
 40
1.0
  9
$DIMGAP
 40
1.0
  9
$DIMJUST
 70
     0
  9
$DIMSD1
 70
     0
  9
$DIMSD2
 70
     0
  9
$DIMTOLJ
 70
     1
  9
$DIMTZIN
 70
     0
  9
$DIMALTZ
 70
     0
  9
$DIMALTTZ
 70
     0
  9
$DIMUPT
 70
     0
  9
$DIMDEC
 70
     1
  9
$DIMTDEC
 70
     1
  9
$DIMALTU
 70
     2
  9
$DIMALTTD
 70
     2
  9
$DIMTXSTY
  7
STYLE1
  9
$DIMAUNIT
 70
     0
  9
$DIMADEC
 70
     0
  9
$DIMALTRND
 40
0.0
  9
$DIMAZIN
 70
     0
  9
$DIMDSEP
 70
    46
  9
$DIMATFIT
 70
     3
  9
$DIMFRAC
 70
     0
  9
$DIMLDRBLK
  1

  9
$DIMLUNIT
 70
     2
  9
$DIMLWD
 70
    -2
  9
$DIMLWE
 70
    -2
  9
$DIMTMOVE
 70
     0
  9
$LUNITS
 70
     2
  9
$LUPREC
 70
     1
  9
$SKETCHINC
 40
1.0
  9
$FILLETRAD
 40
5.0
  9
$AUNITS
 70
     0
  9
$AUPREC
 70
     0
  9
$MENU
  1
acad
  9
$ELEVATION
 40
0.0
  9
$PELEVATION
 40
0.0
  9
$THICKNESS
 40
0.0
  9
$LIMCHECK
 70
     0
  9
$CHAMFERA
 40
0.0
  9
$CHAMFERB
 40
0.0
  9
$CHAMFERC
 40
0.0
  9
$CHAMFERD
 40
0.0
  9
$SKPOLY
 70
     0
  9
$TDCREATE
 40
2451074.411873148
  9
$TDUCREATE
 40
2451074.036873148
  9
$TDUPDATE
 40
2456560.839029225
  9
$TDUUPDATE
 40
2456560.464029225
  9
$TDINDWG
 40
0.3443023495
  9
$TDUSRTIMER
 40
0.3443023495
  9
$USRTIMER
 70
     1
  9
$ANGBASE
 50
0.0
  9
$ANGDIR
 70
     0
  9
$PDMODE
 70
     3
  9
$PDSIZE
 40
2.0
  9
$PLINEWID
 40
0.0
  9
$SPLFRAME
 70
     0
  9
$SPLINETYPE
 70
     6
  9
$SPLINESEGS
 70
     8
  9
$HANDSEED
  5
15890
  9
$SURFTAB1
 70
     6
  9
$SURFTAB2
 70
     6
  9
$SURFTYPE
 70
     6
  9
$SURFU
 70
     6
  9
$SURFV
 70
     6
  9
$UCSBASE
  2

  9
$UCSNAME
  2

  9
$UCSORG
 10
0.0
 20
0.0
 30
0.0
  9
$UCSXDIR
 10
1.0
 20
0.0
 30
0.0
  9
$UCSYDIR
 10
0.0
 20
1.0
 30
0.0
  9
$UCSORTHOREF
  2

  9
$UCSORTHOVIEW
 70
     0
  9
$UCSORGTOP
 10
0.0
 20
0.0
 30
0.0
  9
$UCSORGBOTTOM
 10
0.0
 20
0.0
 30
0.0
  9
$UCSORGLEFT
 10
0.0
 20
0.0
 30
0.0
  9
$UCSORGRIGHT
 10
0.0
 20
0.0
 30
0.0
  9
$UCSORGFRONT
 10
0.0
 20
0.0
 30
0.0
  9
$UCSORGBACK
 10
0.0
 20
0.0
 30
0.0
  9
$PUCSBASE
  2

  9
$PUCSNAME
  2

  9
$PUCSORG
 10
0.0
 20
0.0
 30
0.0
  9
$PUCSXDIR
 10
1.0
 20
0.0
 30
0.0
  9
$PUCSYDIR
 10
0.0
 20
1.0
 30
0.0
  9
$PUCSORTHOREF
  2

  9
$PUCSORTHOVIEW
 70
     0
  9
$PUCSORGTOP
 10
0.0
 20
0.0
 30
0.0
  9
$PUCSORGBOTTOM
 10
0.0
 20
0.0
 30
0.0
  9
$PUCSORGLEFT
 10
0.0
 20
0.0
 30
0.0
  9
$PUCSORGRIGHT
 10
0.0
 20
0.0
 30
0.0
  9
$PUCSORGFRONT
 10
0.0
 20
0.0
 30
0.0
  9
$PUCSORGBACK
 10
0.0
 20
0.0
 30
0.0
  9
$USERI1
 70
     0
  9
$USERI2
 70
     0
  9
$USERI3
 70
     0
  9
$USERI4
 70
     0
  9
$USERI5
 70
     0
  9
$USERR1
 40
0.0
  9
$USERR2
 40
0.0
  9
$USERR3
 40
0.0
  9
$USERR4
 40
0.0
  9
$USERR5
 40
0.0
  9
$WORLDVIEW
 70
     1
  9
$SHADEDGE
 70
     3
  9
$SHADEDIF
 70
    70
  9
$TILEMODE
 70
     1
  9
$MAXACTVP
 70
    16
  9
$PINSBASE
 10
0.0
 20
0.0
 30
0.0
  9
$PLIMCHECK
 70
     0
  9
$PEXTMIN
 10
1.000000000000000E+20
 20
1.000000000000000E+20
 30
1.000000000000000E+20
  9
$PEXTMAX
 10
-1.000000000000000E+20
 20
-1.000000000000000E+20
 30
-1.000000000000000E+20
  9
$PLIMMIN
 10
0.0
 20
0.0
  9
$PLIMMAX
 10
420.0
 20
297.0
  9
$UNITMODE
 70
     0
  9
$VISRETAIN
 70
     0
  9
$PLINEGEN
 70
     0
  9
$PSLTSCALE
 70
     0
  9
$TREEDEPTH
 70
  3020
  9
$CMLSTYLE
  2
STANDARD
  9
$CMLJUST
 70
     0
  9
$CMLSCALE
 40
1.0
  9
$PROXYGRAPHICS
 70
     1
  9
$MEASUREMENT
 70
     1
  9
$CELWEIGHT
370
    -1
  9
$ENDCAPS
280
     0
  9
$JOINSTYLE
280
     0
  9
$LWDISPLAY
290
     0
  9
$INSUNITS
 70
     0
  9
$HYPERLINKBASE
  1

  9
$STYLESHEET
  1
inaba.ctb
  9
$XEDIT
290
     1
  9
$CEPSNTYPE
380
     0
  9
$PSTYLEMODE
290
     1
  9
$FINGERPRINTGUID
  2
{696AEDA2-CF37-4C16-A548-8F3E259D4281}
  9
$VERSIONGUID
  2
{0C29F997-6838-40D3-8722-3981118C7E9D}
  9
$EXTNAMES
290
     1
  9
$PSVPSCALE
 40
0.0
  9
$OLESTARTUP
290
     0
  0
ENDSEC
  0
SECTION
  2
CLASSES
  0
CLASS
  1
ACDBDICTIONARYWDFLT
  2
AcDbDictionaryWithDefault
  3
ObjectDBX Classes
 90
        0
280
     0
281
     0
  0
CLASS
  1
DICTIONARYVAR
  2
AcDbDictionaryVar
  3
ObjectDBX Classes
 90
        0
280
     0
281
     0
  0
CLASS
  1
MATERIAL
  2
AcDbMaterial
  3
ObjectDBX Classes
 90
     1153
280
     0
281
     0
  0
CLASS
  1
VISUALSTYLE
  2
AcDbVisualStyle
  3
ObjectDBX Classes
 90
     4095
280
     0
281
     0
  0
CLASS
  1
TABLESTYLE
  2
AcDbTableStyle
  3
ObjectDBX Classes
 90
     4095
280
     0
281
     0
  0
CLASS
  1
SCALE
  2
AcDbScale
  3
ObjectDBX Classes
 90
     1153
280
     0
281
     0
  0
CLASS
  1
MLEADERSTYLE
  2
AcDbMLeaderStyle
  3
ACDB_MLEADERSTYLE_CLASS
 90
     4095
280
     0
281
     0
  0
CLASS
  1
ACDBSECTIONVIEWSTYLE
  2
AcDbSectionViewStyle
  3
ObjectDBX Classes
 90
     1025
280
     0
281
     0
  0
CLASS
  1
ACDBDETAILVIEWSTYLE
  2
AcDbDetailViewStyle
  3
ObjectDBX Classes
 90
     1025
280
     0
281
     0
  0
CLASS
  1
EXACXREFPANELOBJECT
  2
ExAcXREFPanelObject
  3
EXAC_ESW
 90
    33793
280
     0
281
     0
  0
CLASS
  1
NPOCOLLECTION
  2
AcDbImpNonPersistentObjectsCollection
  3
ObjectDBX Classes
 90
    33921
280
     0
281
     0
  0
CLASS
  1
SORTENTSTABLE
  2
AcDbSortentsTable
  3
ObjectDBX Classes
 90
        0
280
     0
281
     0
  0
CLASS
  1
CELLSTYLEMAP
  2
AcDbCellStyleMap
  3
ObjectDBX Classes
 90
     1152
280
     0
281
     0
  0
CLASS
  1
ACDBPLACEHOLDER
  2
AcDbPlaceHolder
  3
ObjectDBX Classes
 90
        0
280
     0
281
     0
  0
CLASS
  1
LAYOUT
  2
AcDbLayout
  3
ObjectDBX Classes
 90
        0
280
     0
281
     0
  0
ENDSEC
  0
SECTION
  2
TABLES
  0
TABLE
  2
VPORT
  5
746D
102
{ACAD_XDICTIONARY
360
157A5
102
}
330
0
100
AcDbSymbolTable
 70
     1
  0
VPORT
  5
13EA9
330
746D
100
AcDbSymbolTableRecord
100
AcDbViewportTableRecord
  2
*Active
 70
     0
 10
0.0
 20
0.0
 11
1.0
 21
1.0
 12
6167.820768928882
 22
4278.725149753508
 13
0.0
 23
0.0
 14
10.0
 24
10.0
 15
10.0
 25
10.0
 16
0.0
 26
0.0
 36
1.0
 17
0.0
 27
0.0
 37
0.0
 40
8770.682985505251
 41
1.390896921017402
 42
50.0
 43
0.0
 44
0.0
 50
0.0
 51
0.0
 71
     0
 72
     0
 73
     1
 74
     0
 75
     0
 76
     0
 77
     0
 78
     0
281
     0
 65
     1
110
0.0
120
0.0
130
0.0
111
1.0
121
0.0
131
0.0
112
0.0
122
1.0
132
0.0
 79
     0
146
0.0
1001
ACAD_NAV_VCDISPLAY
1070
     3
  0
ENDTAB
  0
TABLE
  2
LTYPE
  5
746A
330
0
100
AcDbSymbolTable
 70
     4
  0
LTYPE
  5
7477
330
746A
100
AcDbSymbolTableRecord
100
AcDbLinetypeTableRecord
  2
BYBLOCK
 70
     0
  3

 72
    65
 73
     0
 40
0.0
  0
LTYPE
  5
7478
330
746A
100
AcDbSymbolTableRecord
100
AcDbLinetypeTableRecord
  2
BYLAYER
 70
     0
  3

 72
    65
 73
     0
 40
0.0
  0
LTYPE
  5
7479
330
746A
100
AcDbSymbolTableRecord
100
AcDbLinetypeTableRecord
  2
CONTINUOUS
 70
     0
  3
Solid line
 72
    65
 73
     0
 40
0.0
  0
LTYPE
  5
781A
330
746A
100
AcDbSymbolTableRecord
100
AcDbLinetypeTableRecord
  2
HIDDEN
 70
     0
  3
__ __ __ __ __ __ __ __ __ __ __ __ __ __ __ __
 72
    65
 73
     2
 40
0.375
 49
0.25
 74
     0
 49
-0.125
 74
     0
  0
LTYPE
  5
781B
330
746A
100
AcDbSymbolTableRecord
100
AcDbLinetypeTableRecord
  2
PHANTOM
 70
     0
  3
______  __  __  ______  __  __  ______  __  __ 
 72
    65
 73
     6
 40
2.5
 49
1.25
 74
     0
 49
-0.25
 74
     0
 49
0.25
 74
     0
 49
-0.25
 74
     0
 49
0.25
 74
     0
 49
-0.25
 74
     0
  0
LTYPE
  5
13571
330
746A
100
AcDbSymbolTableRecord
100
AcDbLinetypeTableRecord
  2
CENTER
 70
     0
  3
Center ____ _ ____ _ ____ _ ____ _ ____ _ ____
 72
    65
 73
     4
 40
50.8
 49
31.75
 74
     0
 49
-6.349999999999999
 74
     0
 49
6.349999999999999
 74
     0
 49
-6.349999999999999
 74
     0
  0
ENDTAB
  0
TABLE
  2
LAYER
  5
7467
102
{ACAD_XDICTIONARY
360
13451
102
}
330
0
100
AcDbSymbolTable
 70
    15
  0
LAYER
  5
7474
102
{ACAD_XDICTIONARY
360
15596
102
}
330
7467
100
AcDbSymbolTableRecord
100
AcDbLayerTableRecord
  2
0
 70
     0
 62
     7
  6
CONTINUOUS
370
    -3
390
1341B
  0
LAYER
  5
DEB3
102
{ACAD_XDICTIONARY
360
15598
102
}
330
7467
100
AcDbSymbolTableRecord
100
AcDbLayerTableRecord
  2
寸法
 70
     0
 62
     4
  6
CONTINUOUS
370
    -3
390
1341B
  0
LAYER
  5
DEB4
102
{ACAD_XDICTIONARY
360
1559A
102
}
330
7467
100
AcDbSymbolTableRecord
100
AcDbLayerTableRecord
  2
部品1
 70
     0
 62
     7
  6
CONTINUOUS
370
    -3
390
1341B
  0
LAYER
  5
DEB5
102
{ACAD_XDICTIONARY
360
1559C
102
}
330
7467
100
AcDbSymbolTableRecord
100
AcDbLayerTableRecord
  2
補助
 70
     0
 62
    -1
  6
CONTINUOUS
370
    -3
390
1341B
  0
LAYER
  5
DEB6
102
{ACAD_XDICTIONARY
360
1559E
102
}
330
7467
100
AcDbSymbolTableRecord
100
AcDbLayerTableRecord
  2
文字
 70
     0
 62
     7
  6
CONTINUOUS
370
    -3
390
1341B
  0
LAYER
  5
F255
330
7467
100
AcDbSymbolTableRecord
100
AcDbLayerTableRecord
  2
DEFPOINTS
 70
     0
 62
     7
  6
CONTINUOUS
290
     0
370
    -3
390
1341B
  0
LAYER
  5
10B54
102
{ACAD_XDICTIONARY
360
155A0
102
}
330
7467
100
AcDbSymbolTableRecord
100
AcDbLayerTableRecord
  2
仕様書枠
 70
     0
 62
   230
  6
CONTINUOUS
370
    -3
390
1341B
  0
LAYER
  5
11729
102
{ACAD_XDICTIONARY
360
155A2
102
}
330
7467
100
AcDbSymbolTableRecord
100
AcDbLayerTableRecord
  2
Ｇ．Ｌ
 70
     0
 62
    30
  6
CONTINUOUS
370
    -3
390
1341B
  0
LAYER
  5
1173F
102
{ACAD_XDICTIONARY
360
155A4
102
}
330
7467
100
AcDbSymbolTableRecord
100
AcDbLayerTableRecord
  2
細線
 70
     0
 62
     5
  6
CONTINUOUS
370
    -3
390
1341B
  0
LAYER
  5
11740
102
{ACAD_XDICTIONARY
360
155A6
102
}
330
7467
100
AcDbSymbolTableRecord
100
AcDbLayerTableRecord
  2
点線
 70
     0
 62
     2
  6
HIDDEN
370
    -3
390
1341B
  0
LAYER
  5
1356E
102
{ACAD_XDICTIONARY
360
155A8
102
}
330
7467
100
AcDbSymbolTableRecord
100
AcDbLayerTableRecord
  2
センター
 70
     0
 62
     3
  6
CENTER
370
    -3
390
1341B
  0
LAYER
  5
135FB
102
{ACAD_XDICTIONARY
360
155AA
102
}
330
7467
100
AcDbSymbolTableRecord
100
AcDbLayerTableRecord
  2
想像線
 70
     0
 62
     6
  6
PHANTOM
370
    -3
390
1341B
  0
LAYER
  5
1383F
102
{ACAD_XDICTIONARY
360
155AC
102
}
330
7467
100
AcDbSymbolTableRecord
100
AcDbLayerTableRecord
  2
U7
 70
     0
 62
     2
  6
CONTINUOUS
370
    -3
390
1341B
  0
LAYER
  5
13840
102
{ACAD_XDICTIONARY
360
155AE
102
}
330
7467
100
AcDbSymbolTableRecord
100
AcDbLayerTableRecord
  2
KIN-T
 70
     0
 62
     3
  6
CONTINUOUS
370
    -3
390
1341B
  0
LAYER
  5
13841
102
{ACAD_XDICTIONARY
360
155B0
102
}
330
7467
100
AcDbSymbolTableRecord
100
AcDbLayerTableRecord
  2
CSLAYER17
 70
     0
 62
     7
  6
CONTINUOUS
370
    -3
390
1341B
  0
ENDTAB
  0
TABLE
  2
STYLE
  5
7468
330
0
100
AcDbSymbolTable
 70
     5
  0
STYLE
  5
7475
330
7468
100
AcDbSymbolTableRecord
100
AcDbTextStyleTableRecord
  2
STANDARD
 70
     0
 40
0.0
 41
1.0
 50
0.0
 71
     0
 42
4.0
  3
txt
  4
C:\AutoCAD LT\bigfont.shx
  0
STYLE
  5
763C
330
7468
100
AcDbSymbolTableRecord
100
AcDbTextStyleTableRecord
  2
MSMINCHO
 70
     0
 40
0.0
 41
1.0
 50
0.0
 71
     0
 42
1.199999999999999
  3
C:\AutoCAD LT\msminch2.TTF
  4

  0
STYLE
  5
F706
330
7468
100
AcDbSymbolTableRecord
100
AcDbTextStyleTableRecord
  2
STYLE1
 70
     0
 40
0.0
 41
1.0
 50
0.0
 71
     0
 42
4.0
  3
isocp.shx
  4
bigfont.shx
  0
STYLE
  5
103BF
330
7468
100
AcDbSymbolTableRecord
100
AcDbTextStyleTableRecord
  2
STYLE2
 70
     0
 40
0.0
 41
1.0
 50
0.0
 71
     0
 42
100.0
  3

  4

1001
ACAD
1000
MS PGothic
1071
    32818
  0
STYLE
  5
10BAA
330
7468
100
AcDbSymbolTableRecord
100
AcDbTextStyleTableRecord
  2
STYLE3
 70
     0
 40
0.0
 41
1.0
 50
0.0
 71
     0
 42
100.0
  3

  4

1001
ACAD
1000
MS PGothic
1071
    32818
  0
ENDTAB
  0
TABLE
  2
VIEW
  5
746B
330
0
100
AcDbSymbolTable
 70
     0
  0
ENDTAB
  0
TABLE
  2
UCS
  5
746C
330
0
100
AcDbSymbolTable
 70
     0
  0
ENDTAB
  0
TABLE
  2
APPID
  5
746E
330
0
100
AcDbSymbolTable
 70
    12
  0
APPID
  5
7476
330
746E
100
AcDbSymbolTableRecord
100
AcDbRegAppTableRecord
  2
ACAD
 70
     0
  0
APPID
  5
DEA9
330
746E
100
AcDbSymbolTableRecord
100
AcDbRegAppTableRecord
  2
CONTENTBLOCKICON
 70
     0
  0
APPID
  5
DEAA
330
746E
100
AcDbSymbolTableRecord
100
AcDbRegAppTableRecord
  2
CONTENTBLOCKDESCRIPTION
 70
     0
  0
APPID
  5
E71D
330
746E
100
AcDbSymbolTableRecord
100
AcDbRegAppTableRecord
  2
CONTENTTABDATA
 70
     0
  0
APPID
  5
E71E
330
746E
100
AcDbSymbolTableRecord
100
AcDbRegAppTableRecord
  2
CONTENTCURRENTTAB
 70
     0
  0
APPID
  5
F3BA
330
746E
100
AcDbSymbolTableRecord
100
AcDbRegAppTableRecord
  2
DRAWINGVARIABLESXDATA
 70
     0
  0
APPID
  5
143B9
330
746E
100
AcDbSymbolTableRecord
100
AcDbRegAppTableRecord
  2
ACAD_NAV_VCDISPLAY
 70
     0
  0
APPID
  5
143BA
330
746E
100
AcDbSymbolTableRecord
100
AcDbRegAppTableRecord
  2
GradientColor1ACI
 70
     0
  0
APPID
  5
143BB
330
746E
100
AcDbSymbolTableRecord
100
AcDbRegAppTableRecord
  2
GradientColor2ACI
 70
     0
  0
APPID
  5
15539
330
746E
100
AcDbSymbolTableRecord
100
AcDbRegAppTableRecord
  2
AcadAnnoMonitorAlertIconDisabled
 70
     0
  0
APPID
  5
1553A
330
746E
100
AcDbSymbolTableRecord
100
AcDbRegAppTableRecord
  2
ACAD_EXEMPT_FROM_CAD_STANDARDS
 70
     0
  0
APPID
  5
157DF
330
746E
100
AcDbSymbolTableRecord
100
AcDbRegAppTableRecord
  2
ACAD_MLEADERVER
 70
     0
  0
ENDTAB
  0
TABLE
  2
DIMSTYLE
  5
746F
330
0
100
AcDbSymbolTable
 70
     2
100
AcDbDimStyleTable
 71
     1
340
F71F
  0
DIMSTYLE
105
F71F
102
{ACAD_REACTORS
330
14A11
330
14A12
330
14A13
330
14A17
330
14A18
330
14A19
330
14A3B
330
14A3C
330
14A3D
330
14A3E
330
14A48
330
14A49
330
14A4A
330
14A4B
330
14A4C
330
14A4D
330
14A4E
330
14A4F
330
14A50
330
14A51
330
14889
330
1488A
330
1488B
330
1488C
330
1488D
330
1488E
330
1488F
330
14890
330
14891
330
14907
330
14908
330
153AF
330
153BC
330
1548B
102
}
330
746F
100
AcDbSymbolTableRecord
100
AcDbDimStyleTableRecord
  2
INABA_S30G
 70
     0
 40
30.0
 41
2.5
 42
0.5
 43
7.0
 44
1.5
 73
     0
 74
     0
 77
     3
 78
     8
140
3.0
141
0.0
143
0.0394
147
1.0
172
     1
173
     1
174
     1
175
     1
178
     7
271
     1
340
F706
341
F770
343
F770
344
F770
  0
DIMSTYLE
105
13842
330
746F
100
AcDbSymbolTableRecord
100
AcDbDimStyleTableRecord
  2
INABA_S50G
 70
     0
 41
125.0
 42
25.0
 43
7.0
 44
75.0
 73
     0
 74
     0
 77
     3
 78
     8
140
150.0
141
0.0
143
0.0394
147
25.0
172
     1
173
     1
174
     1
178
     7
271
     1
340
F706
341
F770
343
F770
344
F770
  0
ENDTAB
  0
TABLE
  2
BLOCK_RECORD
  5
7466
330
0
100
AcDbSymbolTable
 70
    36
  0
BLOCK_RECORD
  5
747D
102
{ACAD_XDICTIONARY
360
1557D
102
}
330
7466
100
AcDbSymbolTableRecord
100
AcDbBlockTableRecord
  2
*MODEL_SPACE
340
13420
  0
BLOCK_RECORD
  5
747A
330
7466
100
AcDbSymbolTableRecord
100
AcDbBlockTableRecord
  2
*PAPER_SPACE
340
13421
  0
BLOCK_RECORD
  5
F770
330
7466
100
AcDbSymbolTableRecord
100
AcDbBlockTableRecord
  2
_DOTSMALL
340
0
102
{BLKREFS
331
156EB
331
156EC
331
156F4
331
156F5
331
156FD
331
156FE
331
15706
331
15707
331
1570F
331
15710
331
15718
331
15719
331
15721
331
15722
331
15729
331
15730
331
15739
331
1573A
331
15743
331
15744
331
1574C
331
1574D
331
15755
331
15756
331
1575E
331
1575F
331
15767
331
15768
331
15770
331
15771
331
1577B
331
1577C
331
15786
331
15787
331
15790
331
15791
331
1579B
331
1579C
331
1566F
331
15670
331
15687
331
15688
331
15690
331
15691
331
1569A
331
1569B
331
156A3
331
156A4
331
156AC
331
156AD
331
156B5
331
156B6
331
156BE
331
156BF
331
156C7
331
156C8
331
156D0
331
156D1
331
156D9
331
156DA
331
156E2
331
156E3
102
}
  0
BLOCK_RECORD
  5
135E3
330
7466
100
AcDbSymbolTableRecord
100
AcDbBlockTableRecord
  2
_None
340
0
  0
BLOCK_RECORD
  5
14B0E
330
7466
100
AcDbSymbolTableRecord
100
AcDbBlockTableRecord
  2
*D2
340
0
  0
BLOCK_RECORD
  5
14B1A
330
7466
100
AcDbSymbolTableRecord
100
AcDbBlockTableRecord
  2
*D3
340
0
  0
BLOCK_RECORD
  5
14B24
330
7466
100
AcDbSymbolTableRecord
100
AcDbBlockTableRecord
  2
*D4
340
0
  0
BLOCK_RECORD
  5
14B54
330
7466
100
AcDbSymbolTableRecord
100
AcDbBlockTableRecord
  2
*D5
340
0
  0
BLOCK_RECORD
  5
14B61
330
7466
100
AcDbSymbolTableRecord
100
AcDbBlockTableRecord
  2
*D6
340
0
  0
BLOCK_RECORD
  5
14B6D
330
7466
100
AcDbSymbolTableRecord
100
AcDbBlockTableRecord
  2
*D7
340
0
  0
BLOCK_RECORD
  5
14C22
330
7466
100
AcDbSymbolTableRecord
100
AcDbBlockTableRecord
  2
*D8
340
0
  0
BLOCK_RECORD
  5
14C2E
330
7466
100
AcDbSymbolTableRecord
100
AcDbBlockTableRecord
  2
*D9
340
0
  0
BLOCK_RECORD
  5
14C3A
330
7466
100
AcDbSymbolTableRecord
100
AcDbBlockTableRecord
  2
*D10
340
0
  0
BLOCK_RECORD
  5
14C46
330
7466
100
AcDbSymbolTableRecord
100
AcDbBlockTableRecord
  2
*D11
340
0
  0
BLOCK_RECORD
  5
14C52
330
7466
100
AcDbSymbolTableRecord
100
AcDbBlockTableRecord
  2
*D12
340
0
  0
BLOCK_RECORD
  5
14C5E
330
7466
100
AcDbSymbolTableRecord
100
AcDbBlockTableRecord
  2
*D13
340
0
  0
BLOCK_RECORD
  5
14C6A
330
7466
100
AcDbSymbolTableRecord
100
AcDbBlockTableRecord
  2
*D14
340
0
  0
BLOCK_RECORD
  5
14C76
330
7466
100
AcDbSymbolTableRecord
100
AcDbBlockTableRecord
  2
*D15
340
0
  0
BLOCK_RECORD
  5
14C82
330
7466
100
AcDbSymbolTableRecord
100
AcDbBlockTableRecord
  2
*D16
340
0
  0
BLOCK_RECORD
  5
14C8E
330
7466
100
AcDbSymbolTableRecord
100
AcDbBlockTableRecord
  2
*D17
340
0
  0
BLOCK_RECORD
  5
14C9A
330
7466
100
AcDbSymbolTableRecord
100
AcDbBlockTableRecord
  2
*D18
340
0
  0
BLOCK_RECORD
  5
14CA6
330
7466
100
AcDbSymbolTableRecord
100
AcDbBlockTableRecord
  2
*D19
340
0
  0
BLOCK_RECORD
  5
14CB2
330
7466
100
AcDbSymbolTableRecord
100
AcDbBlockTableRecord
  2
*D20
340
0
  0
BLOCK_RECORD
  5
14CBE
330
7466
100
AcDbSymbolTableRecord
100
AcDbBlockTableRecord
  2
*D21
340
0
  0
BLOCK_RECORD
  5
14CCA
330
7466
100
AcDbSymbolTableRecord
100
AcDbBlockTableRecord
  2
*D22
340
0
  0
BLOCK_RECORD
  5
14CD7
330
7466
100
AcDbSymbolTableRecord
100
AcDbBlockTableRecord
  2
*D23
340
0
  0
BLOCK_RECORD
  5
14CE4
330
7466
100
AcDbSymbolTableRecord
100
AcDbBlockTableRecord
  2
*D24
340
0
  0
BLOCK_RECORD
  5
14CF0
330
7466
100
AcDbSymbolTableRecord
100
AcDbBlockTableRecord
  2
*D25
340
0
  0
BLOCK_RECORD
  5
14CFC
330
7466
100
AcDbSymbolTableRecord
100
AcDbBlockTableRecord
  2
*D26
340
0
  0
BLOCK_RECORD
  5
14D08
330
7466
100
AcDbSymbolTableRecord
100
AcDbBlockTableRecord
  2
*D27
340
0
  0
BLOCK_RECORD
  5
14D14
330
7466
100
AcDbSymbolTableRecord
100
AcDbBlockTableRecord
  2
*D28
340
0
  0
BLOCK_RECORD
  5
14D20
330
7466
100
AcDbSymbolTableRecord
100
AcDbBlockTableRecord
  2
*D29
340
0
  0
BLOCK_RECORD
  5
14D2E
330
7466
100
AcDbSymbolTableRecord
100
AcDbBlockTableRecord
  2
*D30
340
0
  0
BLOCK_RECORD
  5
14D3C
330
7466
100
AcDbSymbolTableRecord
100
AcDbBlockTableRecord
  2
*D31
340
0
  0
BLOCK_RECORD
  5
14D49
330
7466
100
AcDbSymbolTableRecord
100
AcDbBlockTableRecord
  2
*D32
340
0
  0
BLOCK_RECORD
  5
153B0
330
7466
100
AcDbSymbolTableRecord
100
AcDbBlockTableRecord
  2
*D33
340
0
  0
BLOCK_RECORD
  5
153BD
330
7466
100
AcDbSymbolTableRecord
100
AcDbBlockTableRecord
  2
*D34
340
0
  0
BLOCK_RECORD
  5
1548C
330
7466
100
AcDbSymbolTableRecord
100
AcDbBlockTableRecord
  2
*D35
340
0
  0
ENDTAB
  0
ENDSEC
  0
SECTION
  2
BLOCKS
  0
BLOCK
  5
7489
330
747D
100
AcDbEntity
  8
0
100
AcDbBlockBegin
  2
*MODEL_SPACE
 70
     0
 10
0.0
 20
0.0
 30
0.0
  3
*MODEL_SPACE
  1

  0
ENDBLK
  5
748A
330
747D
100
AcDbEntity
  8
0
100
AcDbBlockEnd
  0
BLOCK
  5
7487
330
747A
100
AcDbEntity
 67
     1
  8
0
100
AcDbBlockBegin
  2
*PAPER_SPACE
 70
     0
 10
0.0
 20
0.0
 30
0.0
  3
*PAPER_SPACE
  1

  0
ENDBLK
  5
7488
330
747A
100
AcDbEntity
 67
     1
  8
0
100
AcDbBlockEnd
  0
BLOCK
  5
F771
330
F770
100
AcDbEntity
  8
0
 48
50.0
100
AcDbBlockBegin
  2
_DOTSMALL
 70
     0
 10
0.0
 20
0.0
 30
0.0
  3
_DOTSMALL
  1

  0
LWPOLYLINE
  5
F772
330
F770
100
AcDbEntity
  8
0
  6
ByBlock
 62
     0
 48
50.0
100
AcDbPolyline
 90
        2
 70
     1
 43
0.5
 10
-0.0625
 20
0.0
 42
1.0
 10
0.0625
 20
0.0
 42
1.0
  0
ENDBLK
  5
F776
330
F770
100
AcDbEntity
  8
0
 48
50.0
100
AcDbBlockEnd
  0
BLOCK
  5
135E4
330
135E3
100
AcDbEntity
  8
0
 48
50.0
100
AcDbBlockBegin
  2
_None
 70
     0
 10
0.0
 20
0.0
 30
0.0
  3
_None
  1

  0
ENDBLK
  5
135E5
330
135E3
100
AcDbEntity
  8
0
 48
50.0
100
AcDbBlockEnd
  0
BLOCK
  5
14B0F
330
14B0E
100
AcDbEntity
  8
0
 48
50.0
100
AcDbBlockBegin
  2
*D2
 70
     1
 10
0.0
 20
0.0
 30
0.0
  3
*D2
  1

  0
LINE
  5
1566C
330
14B0E
100
AcDbEntity
  8
寸法
 62
     0
 48
50.0
370
    -2
100
AcDbLine
 10
1541.003494576624
 20
1508.601800160525
 30
0.0
 11
1541.003494576624
 21
1013.614081823993
 31
0.0
  0
LINE
  5
1566D
330
14B0E
100
AcDbEntity
  8
寸法
 62
     0
 48
50.0
370
    -2
100
AcDbLine
 10
6801.003494576507
 20
1508.601800160539
 30
0.0
 11
6801.003494576507
 21
1013.614081823993
 31
0.0
  0
LINE
  5
1566E
330
14B0E
100
AcDbEntity
  8
寸法
 62
     0
 48
50.0
370
    -2
100
AcDbLine
 10
1541.003494576624
 20
1058.614081823993
 30
0.0
 11
6801.003494576507
 21
1058.614081823993
 31
0.0
  0
INSERT
  5
1566F
330
14B0E
100
AcDbEntity
  8
寸法
 62
     0
 48
50.0
370
    -2
100
AcDbBlockReference
  2
_DOTSMALL
 10
1541.003494576624
 20
1058.614081823993
 30
0.0
 41
75.0
 42
75.0
 43
75.0
 50
180.0
  0
INSERT
  5
15670
330
14B0E
100
AcDbEntity
  8
寸法
 62
     0
 48
50.0
370
    -2
100
AcDbBlockReference
  2
_DOTSMALL
 10
6801.003494576507
 20
1058.614081823993
 30
0.0
 41
75.0
 42
75.0
 43
75.0
  0
MTEXT
  5
15671
330
14B0E
100
AcDbEntity
  8
寸法
 62
     7
 48
50.0
100
AcDbMText
 10
4171.003494576566
 20
1133.62294009171
 30
0.0
 40
90.0
 41
0.0
 71
     5
 72
     1
  1
\A1;屋根寸法 N \U+00D72400 ＋ 460
  7
STYLE1
 73
     1
 44
1.0
1001
ACAD
1000
MTEXTBEGIN
1070
    73
1070
     1
1070
    44
1040
1.0
1070
    74
1070
     0
1000
MTEXTEND
  0
POINT
  5
15672
330
14B0E
100
AcDbEntity
  8
DEFPOINTS
 62
     0
 48
50.0
100
AcDbPoint
 10
1541.003494576624
 20
1523.601800160525
 30
0.0
  0
POINT
  5
15673
330
14B0E
100
AcDbEntity
  8
DEFPOINTS
 62
     0
 48
50.0
100
AcDbPoint
 10
6801.003494576507
 20
1523.601800160539
 30
0.0
  0
POINT
  5
15674
330
14B0E
100
AcDbEntity
  8
DEFPOINTS
 62
     0
 48
50.0
100
AcDbPoint
 10
6801.003494576507
 20
1058.614081823993
 30
0.0
  0
ENDBLK
  5
14B10
330
14B0E
100
AcDbEntity
  8
0
 48
50.0
100
AcDbBlockEnd
  0
BLOCK
  5
14B1B
330
14B1A
100
AcDbEntity
  8
0
 48
50.0
100
AcDbBlockBegin
  2
*D3
 70
     1
 10
0.0
 20
0.0
 30
0.0
  3
*D3
  1

  0
LINE
  5
15675
330
14B1A
100
AcDbEntity
  8
寸法
 62
     0
 48
50.0
370
    -2
100
AcDbLine
 10
1541.003494576624
 20
1508.601800160525
 30
0.0
 11
1541.003494576624
 21
1013.614081823993
 31
0.0
  0
LINE
  5
15676
330
14B1A
100
AcDbEntity
  8
寸法
 62
     0
 48
50.0
370
    -2
100
AcDbLine
 10
1371.003494576565
 20
1372.101800160539
 30
0.0
 11
1371.003494576565
 21
1013.614081823993
 31
0.0
  0
LINE
  5
15677
330
14B1A
100
AcDbEntity
  8
寸法
 62
     0
 48
50.0
370
    -2
100
AcDbLine
 10
1541.003494576624
 20
1058.614081823993
 30
0.0
 11
1371.003494576565
 21
1058.614081823993
 31
0.0
  0
MTEXT
  5
15678
330
14B1A
100
AcDbEntity
  8
寸法
 62
     7
 48
50.0
100
AcDbMText
 10
1456.003494576594
 20
1133.614081823993
 30
0.0
 40
90.0
 41
0.0
 71
     5
 72
     1
  1
\A1;170
  7
STYLE1
 73
     1
 44
1.0
1001
ACAD
1000
MTEXTBEGIN
1070
    73
1070
     1
1070
    44
1040
1.0
1070
    74
1070
     0
1000
MTEXTEND
  0
POINT
  5
15679
330
14B1A
100
AcDbEntity
  8
DEFPOINTS
 62
     0
 48
50.0
100
AcDbPoint
 10
1541.003494576624
 20
1523.601800160525
 30
0.0
  0
POINT
  5
1567A
330
14B1A
100
AcDbEntity
  8
DEFPOINTS
 62
     0
 48
50.0
100
AcDbPoint
 10
1371.003494576565
 20
1387.101800160539
 30
0.0
  0
POINT
  5
1567B
330
14B1A
100
AcDbEntity
  8
DEFPOINTS
 62
     0
 48
50.0
100
AcDbPoint
 10
1371.003494576565
 20
1058.614081823993
 30
0.0
  0
ENDBLK
  5
14B1C
330
14B1A
100
AcDbEntity
  8
0
 48
50.0
100
AcDbBlockEnd
  0
BLOCK
  5
14B25
330
14B24
100
AcDbEntity
  8
0
 48
50.0
100
AcDbBlockBegin
  2
*D4
 70
     1
 10
0.0
 20
0.0
 30
0.0
  3
*D4
  1

  0
LINE
  5
1567C
330
14B24
100
AcDbEntity
  8
寸法
 62
     0
 48
50.0
370
    -2
100
AcDbLine
 10
6801.003494576507
 20
1508.601800160539
 30
0.0
 11
6801.003494576507
 21
1013.614081823993
 31
0.0
  0
LINE
  5
1567D
330
14B24
100
AcDbEntity
  8
寸法
 62
     0
 48
50.0
370
    -2
100
AcDbLine
 10
6971.003494576565
 20
1372.101800160539
 30
0.0
 11
6971.003494576565
 21
1013.614081823993
 31
0.0
  0
LINE
  5
1567E
330
14B24
100
AcDbEntity
  8
寸法
 62
     0
 48
50.0
370
    -2
100
AcDbLine
 10
6801.003494576507
 20
1058.614081823993
 30
0.0
 11
6971.003494576565
 21
1058.614081823993
 31
0.0
  0
MTEXT
  5
1567F
330
14B24
100
AcDbEntity
  8
寸法
 62
     7
 48
50.0
100
AcDbMText
 10
6886.003494576536
 20
1133.614081823993
 30
0.0
 40
90.0
 41
0.0
 71
     5
 72
     1
  1
\A1;170
  7
STYLE1
 73
     1
 44
1.0
1001
ACAD
1000
MTEXTBEGIN
1070
    73
1070
     1
1070
    44
1040
1.0
1070
    74
1070
     0
1000
MTEXTEND
  0
POINT
  5
15680
330
14B24
100
AcDbEntity
  8
DEFPOINTS
 62
     0
 48
50.0
100
AcDbPoint
 10
6801.003494576507
 20
1523.601800160539
 30
0.0
  0
POINT
  5
15681
330
14B24
100
AcDbEntity
  8
DEFPOINTS
 62
     0
 48
50.0
100
AcDbPoint
 10
6971.003494576565
 20
1387.101800160539
 30
0.0
  0
POINT
  5
15682
330
14B24
100
AcDbEntity
  8
DEFPOINTS
 62
     0
 48
50.0
100
AcDbPoint
 10
6971.003494576565
 20
1058.614081823993
 30
0.0
  0
ENDBLK
  5
14B26
330
14B24
100
AcDbEntity
  8
0
 48
50.0
100
AcDbBlockEnd
  0
BLOCK
  5
14B55
330
14B54
100
AcDbEntity
  8
0
 48
50.0
100
AcDbBlockBegin
  2
*D5
 70
     1
 10
0.0
 20
0.0
 30
0.0
  3
*D5
  1

  0
LINE
  5
15683
330
14B54
100
AcDbEntity
  8
寸法
 62
     0
 48
50.0
370
    -2
100
AcDbLine
 10
6816.003494576508
 20
1523.601800160539
 30
0.0
 11
7398.277716940167
 21
1523.601800160539
 31
0.0
  0
LINE
  5
15684
330
14B54
100
AcDbEntity
  8
寸法
 62
     0
 48
50.0
370
    -2
100
AcDbLine
 10
6986.003494576566
 20
1387.101800160539
 30
0.0
 11
7398.277716940167
 21
1387.101800160539
 31
0.0
  0
LINE
  5
15685
330
14B54
100
AcDbEntity
  8
寸法
 62
     0
 48
50.0
370
    -2
100
AcDbLine
 10
7353.277716940167
 20
1523.601800160539
 30
0.0
 11
7353.277716940167
 21
1387.101800160539
 31
0.0
  0
LINE
  5
15686
330
14B54
100
AcDbEntity
  8
寸法
 62
     0
 48
50.0
370
    -2
100
AcDbLine
 10
7353.277716940167
 20
1387.101800160539
 30
0.0
 11
7353.277716940167
 21
1014.373878099181
 31
0.0
  0
INSERT
  5
15687
330
14B54
100
AcDbEntity
  8
寸法
 62
     0
 48
50.0
370
    -2
100
AcDbBlockReference
  2
_DOTSMALL
 10
7353.277716940167
 20
1523.601800160539
 30
0.0
 41
75.0
 42
75.0
 43
75.0
 50
90.0
  0
INSERT
  5
15688
330
14B54
100
AcDbEntity
  8
寸法
 62
     0
 48
50.0
370
    -2
100
AcDbBlockReference
  2
_DOTSMALL
 10
7353.277716940167
 20
1387.101800160539
 30
0.0
 41
75.0
 42
75.0
 43
75.0
 50
270.0
  0
MTEXT
  5
15689
330
14B54
100
AcDbEntity
  8
寸法
 62
     7
 48
50.0
100
AcDbMText
 10
7278.277716940166
 20
1163.237839129861
 30
0.0
 40
90.0
 41
0.0
 71
     5
 72
     1
  1
\A1;136.5
  7
STYLE1
 11
0.0000000000000001
 21
1.0
 31
0.0
 73
     1
 44
1.0
1001
ACAD
1000
MTEXTBEGIN
1070
    73
1070
     1
1070
    44
1040
1.0
1070
    74
1070
     0
1000
MTEXTEND
  0
POINT
  5
1568A
330
14B54
100
AcDbEntity
  8
DEFPOINTS
 62
     0
 48
50.0
100
AcDbPoint
 10
6801.003494576507
 20
1523.601800160539
 30
0.0
  0
POINT
  5
1568B
330
14B54
100
AcDbEntity
  8
DEFPOINTS
 62
     0
 48
50.0
100
AcDbPoint
 10
6971.003494576565
 20
1387.101800160539
 30
0.0
  0
POINT
  5
1568C
330
14B54
100
AcDbEntity
  8
DEFPOINTS
 62
     0
 48
50.0
100
AcDbPoint
 10
7353.277716940167
 20
1387.101800160539
 30
0.0
  0
ENDBLK
  5
14B56
330
14B54
100
AcDbEntity
  8
0
 48
50.0
100
AcDbBlockEnd
  0
BLOCK
  5
14B62
330
14B61
100
AcDbEntity
  8
0
 48
50.0
100
AcDbBlockBegin
  2
*D6
 70
     1
 10
0.0
 20
0.0
 30
0.0
  3
*D6
  1

  0
LINE
  5
1568D
330
14B61
100
AcDbEntity
  8
寸法
 62
     0
 48
50.0
370
    -2
100
AcDbLine
 10
6816.003494576508
 20
5600.601800160539
 30
0.0
 11
7398.277716940168
 21
5600.601800160539
 31
0.0
  0
LINE
  5
1568E
330
14B61
100
AcDbEntity
  8
寸法
 62
     0
 48
50.0
370
    -2
100
AcDbLine
 10
6816.003494576508
 20
1523.601800160539
 30
0.0
 11
7398.277716940167
 21
1523.601800160539
 31
0.0
  0
LINE
  5
1568F
330
14B61
100
AcDbEntity
  8
寸法
 62
     0
 48
50.0
370
    -2
100
AcDbLine
 10
7353.277716940168
 20
5600.601800160539
 30
0.0
 11
7353.277716940167
 21
1523.601800160539
 31
0.0
  0
INSERT
  5
15690
330
14B61
100
AcDbEntity
  8
寸法
 62
     0
 48
50.0
370
    -2
100
AcDbBlockReference
  2
_DOTSMALL
 10
7353.277716940168
 20
5600.601800160539
 30
0.0
 41
75.0
 42
75.0
 43
75.0
 50
90.0
  0
INSERT
  5
15691
330
14B61
100
AcDbEntity
  8
寸法
 62
     0
 48
50.0
370
    -2
100
AcDbBlockReference
  2
_DOTSMALL
 10
7353.277716940167
 20
1523.601800160539
 30
0.0
 41
75.0
 42
75.0
 43
75.0
 50
270.0
  0
MTEXT
  5
15692
330
14B61
100
AcDbEntity
  8
寸法
 62
     7
 48
50.0
100
AcDbMText
 10
7278.277716940166
 20
3562.101800160541
 30
0.0
 40
90.0
 41
0.0
 71
     5
 72
     1
  1
\A1;屋根寸法 4077
  7
STYLE1
 11
0.0000000000000001
 21
1.0
 31
0.0
 73
     1
 44
1.0
1001
ACAD
1000
MTEXTBEGIN
1070
    73
1070
     1
1070
    44
1040
1.0
1070
    74
1070
     0
1000
MTEXTEND
  0
POINT
  5
15693
330
14B61
100
AcDbEntity
  8
DEFPOINTS
 62
     0
 48
50.0
100
AcDbPoint
 10
6801.003494576507
 20
5600.601800160539
 30
0.0
  0
POINT
  5
15694
330
14B61
100
AcDbEntity
  8
DEFPOINTS
 62
     0
 48
50.0
100
AcDbPoint
 10
6801.003494576507
 20
1523.601800160539
 30
0.0
  0
POINT
  5
15695
330
14B61
100
AcDbEntity
  8
DEFPOINTS
 62
     0
 48
50.0
100
AcDbPoint
 10
7353.277716940167
 20
1523.601800160539
 30
0.0
  0
ENDBLK
  5
14B63
330
14B61
100
AcDbEntity
  8
0
 48
50.0
100
AcDbBlockEnd
  0
BLOCK
  5
14B6E
330
14B6D
100
AcDbEntity
  8
0
 48
50.0
100
AcDbBlockBegin
  2
*D7
 70
     1
 10
0.0
 20
0.0
 30
0.0
  3
*D7
  1

  0
LINE
  5
15696
330
14B6D
100
AcDbEntity
  8
寸法
 62
     0
 48
50.0
370
    -2
100
AcDbLine
 10
6816.003494576508
 20
5600.601800160539
 30
0.0
 11
7398.277716940168
 21
5600.601800160539
 31
0.0
  0
LINE
  5
15697
330
14B6D
100
AcDbEntity
  8
寸法
 62
     0
 48
50.0
370
    -2
100
AcDbLine
 10
6986.003494576566
 20
5737.101800160539
 30
0.0
 11
7398.277716940168
 21
5737.101800160539
 31
0.0
  0
LINE
  5
15698
330
14B6D
100
AcDbEntity
  8
寸法
 62
     0
 48
50.0
370
    -2
100
AcDbLine
 10
7353.277716940168
 20
5600.601800160539
 30
0.0
 11
7353.277716940168
 21
5737.101800160539
 31
0.0
  0
LINE
  5
15699
330
14B6D
100
AcDbEntity
  8
寸法
 62
     0
 48
50.0
370
    -2
100
AcDbLine
 10
7353.277716940168
 20
5737.101800160539
 30
0.0
 11
7353.277716940168
 21
6109.829722221945
 31
0.0
  0
INSERT
  5
1569A
330
14B6D
100
AcDbEntity
  8
寸法
 62
     0
 48
50.0
370
    -2
100
AcDbBlockReference
  2
_DOTSMALL
 10
7353.277716940168
 20
5600.601800160539
 30
0.0
 41
75.0
 42
75.0
 43
75.0
 50
270.0
  0
INSERT
  5
1569B
330
14B6D
100
AcDbEntity
  8
寸法
 62
     0
 48
50.0
370
    -2
100
AcDbBlockReference
  2
_DOTSMALL
 10
7353.277716940168
 20
5737.101800160539
 30
0.0
 41
75.0
 42
75.0
 43
75.0
 50
90.0
  0
MTEXT
  5
1569C
330
14B6D
100
AcDbEntity
  8
寸法
 62
     7
 48
50.0
100
AcDbMText
 10
7278.277716940166
 20
5960.965761191268
 30
0.0
 40
90.0
 41
0.0
 71
     5
 72
     1
  1
\A1;136.5
  7
STYLE1
 11
0.0000000000000001
 21
1.0
 31
0.0
 73
     1
 44
1.0
1001
ACAD
1000
MTEXTBEGIN
1070
    73
1070
     1
1070
    44
1040
1.0
1070
    74
1070
     0
1000
MTEXTEND
  0
POINT
  5
1569D
330
14B6D
100
AcDbEntity
  8
DEFPOINTS
 62
     0
 48
50.0
100
AcDbPoint
 10
6801.003494576507
 20
5600.601800160539
 30
0.0
  0
POINT
  5
1569E
330
14B6D
100
AcDbEntity
  8
DEFPOINTS
 62
     0
 48
50.0
100
AcDbPoint
 10
6971.003494576565
 20
5737.101800160539
 30
0.0
  0
POINT
  5
1569F
330
14B6D
100
AcDbEntity
  8
DEFPOINTS
 62
     0
 48
50.0
100
AcDbPoint
 10
7353.277716940168
 20
5737.101800160539
 30
0.0
  0
ENDBLK
  5
14B6F
330
14B6D
100
AcDbEntity
  8
0
 48
50.0
100
AcDbBlockEnd
  0
BLOCK
  5
14C23
330
14C22
100
AcDbEntity
  8
0
 48
50.0
100
AcDbBlockBegin
  2
*D8
 70
     1
 10
0.0
 20
0.0
 30
0.0
  3
*D8
  1

  0
LINE
  5
156A0
330
14C22
100
AcDbEntity
  8
寸法
 62
     0
 48
50.0
370
    -2
100
AcDbLine
 10
1356.003494576536
 20
5737.101800160539
 30
0.0
 11
762.3822958488463
 21
5737.101800160539
 31
0.0
  0
LINE
  5
156A1
330
14C22
100
AcDbEntity
  8
寸法
 62
     0
 48
50.0
370
    -2
100
AcDbLine
 10
1356.003494576536
 20
1387.101800160539
 30
0.0
 11
762.3822958488453
 21
1387.101800160539
 31
0.0
  0
LINE
  5
156A2
330
14C22
100
AcDbEntity
  8
寸法
 62
     0
 48
50.0
370
    -2
100
AcDbLine
 10
807.3822958488463
 20
5737.101800160539
 30
0.0
 11
807.3822958488454
 21
1387.101800160539
 31
0.0
  0
INSERT
  5
156A3
330
14C22
100
AcDbEntity
  8
寸法
 62
     0
 48
50.0
370
    -2
100
AcDbBlockReference
  2
_DOTSMALL
 10
807.3822958488463
 20
5737.101800160539
 30
0.0
 41
75.0
 42
75.0
 43
75.0
 50
90.0
  0
INSERT
  5
156A4
330
14C22
100
AcDbEntity
  8
寸法
 62
     0
 48
50.0
370
    -2
100
AcDbBlockReference
  2
_DOTSMALL
 10
807.3822958488454
 20
1387.101800160539
 30
0.0
 41
75.0
 42
75.0
 43
75.0
 50
270.0
  0
MTEXT
  5
156A5
330
14C22
100
AcDbEntity
  8
寸法
 62
     7
 48
50.0
100
AcDbMText
 10
732.3822958488452
 20
3562.101800160539
 30
0.0
 40
90.0
 41
0.0
 71
     5
 72
     1
  1
\A1;基礎土間寸法 4350
  7
STYLE1
 11
0.0000000000000001
 21
1.0
 31
0.0
 73
     1
 44
1.0
1001
ACAD
1000
MTEXTBEGIN
1070
    73
1070
     1
1070
    44
1040
1.0
1070
    74
1070
     0
1000
MTEXTEND
  0
POINT
  5
156A6
330
14C22
100
AcDbEntity
  8
DEFPOINTS
 62
     0
 48
50.0
100
AcDbPoint
 10
1371.003494576536
 20
5737.101800160539
 30
0.0
  0
POINT
  5
156A7
330
14C22
100
AcDbEntity
  8
DEFPOINTS
 62
     0
 48
50.0
100
AcDbPoint
 10
1371.003494576536
 20
1387.101800160539
 30
0.0
  0
POINT
  5
156A8
330
14C22
100
AcDbEntity
  8
DEFPOINTS
 62
     0
 48
50.0
100
AcDbPoint
 10
807.3822958488454
 20
1387.101800160539
 30
0.0
  0
ENDBLK
  5
14C24
330
14C22
100
AcDbEntity
  8
0
 48
50.0
100
AcDbBlockEnd
  0
BLOCK
  5
14C2F
330
14C2E
100
AcDbEntity
  8
0
 48
50.0
100
AcDbBlockBegin
  2
*D9
 70
     1
 10
0.0
 20
0.0
 30
0.0
  3
*D9
  1

  0
LINE
  5
156A9
330
14C2E
100
AcDbEntity
  8
寸法
 62
     0
 48
50.0
370
    -2
100
AcDbLine
 10
1506.003494576536
 20
3387.101800160539
 30
0.0
 11
985.1316578652919
 21
3387.10180016054
 31
0.0
  0
LINE
  5
156AA
330
14C2E
100
AcDbEntity
  8
寸法
 62
     0
 48
50.0
370
    -2
100
AcDbLine
 10
1356.003494576536
 20
1387.101800160539
 30
0.0
 11
985.1316578652914
 21
1387.101800160539
 31
0.0
  0
LINE
  5
156AB
330
14C2E
100
AcDbEntity
  8
寸法
 62
     0
 48
50.0
370
    -2
100
AcDbLine
 10
1030.131657865291
 20
3387.101800160539
 30
0.0
 11
1030.131657865291
 21
1387.101800160539
 31
0.0
  0
INSERT
  5
156AC
330
14C2E
100
AcDbEntity
  8
寸法
 62
     0
 48
50.0
370
    -2
100
AcDbBlockReference
  2
_DOTSMALL
 10
1030.131657865291
 20
3387.101800160539
 30
0.0
 41
75.0
 42
75.0
 43
75.0
 50
90.0
  0
INSERT
  5
156AD
330
14C2E
100
AcDbEntity
  8
寸法
 62
     0
 48
50.0
370
    -2
100
AcDbBlockReference
  2
_DOTSMALL
 10
1030.131657865291
 20
1387.101800160539
 30
0.0
 41
75.0
 42
75.0
 43
75.0
 50
270.0
  0
MTEXT
  5
156AE
330
14C2E
100
AcDbEntity
  8
寸法
 62
     7
 48
50.0
100
AcDbMText
 10
955.1227995975747
 20
2387.10180016054
 30
0.0
 40
90.0
 41
0.0
 71
     5
 72
     1
  1
\A1;2000
  7
STYLE1
 11
0.0000000000000001
 21
1.0
 31
0.0
 73
     1
 44
1.0
1001
ACAD
1000
MTEXTBEGIN
1070
    73
1070
     1
1070
    44
1040
1.0
1070
    74
1070
     0
1000
MTEXTEND
  0
POINT
  5
156AF
330
14C2E
100
AcDbEntity
  8
DEFPOINTS
 62
     0
 48
50.0
100
AcDbPoint
 10
1521.003494576536
 20
3387.101800160539
 30
0.0
  0
POINT
  5
156B0
330
14C2E
100
AcDbEntity
  8
DEFPOINTS
 62
     0
 48
50.0
100
AcDbPoint
 10
1371.003494576536
 20
1387.101800160539
 30
0.0
  0
POINT
  5
156B1
330
14C2E
100
AcDbEntity
  8
DEFPOINTS
 62
     0
 48
50.0
100
AcDbPoint
 10
1030.131657865291
 20
1387.101800160539
 30
0.0
  0
ENDBLK
  5
14C30
330
14C2E
100
AcDbEntity
  8
0
 48
50.0
100
AcDbBlockEnd
  0
BLOCK
  5
14C3B
330
14C3A
100
AcDbEntity
  8
0
 48
50.0
100
AcDbBlockBegin
  2
*D10
 70
     1
 10
0.0
 20
0.0
 30
0.0
  3
*D10
  1

  0
LINE
  5
156B2
330
14C3A
100
AcDbEntity
  8
寸法
 62
     0
 48
50.0
370
    -2
100
AcDbLine
 10
1506.003494576536
 20
3737.10180016054
 30
0.0
 11
985.1316578652914
 21
3737.10180016054
 31
0.0
  0
LINE
  5
156B3
330
14C3A
100
AcDbEntity
  8
寸法
 62
     0
 48
50.0
370
    -2
100
AcDbLine
 10
1506.003494576536
 20
3387.101800160539
 30
0.0
 11
985.1316578652914
 21
3387.10180016054
 31
0.0
  0
LINE
  5
156B4
330
14C3A
100
AcDbEntity
  8
寸法
 62
     0
 48
50.0
370
    -2
100
AcDbLine
 10
1030.131657865291
 20
3737.10180016054
 30
0.0
 11
1030.131657865291
 21
3387.101800160539
 31
0.0
  0
INSERT
  5
156B5
330
14C3A
100
AcDbEntity
  8
寸法
 62
     0
 48
50.0
370
    -2
100
AcDbBlockReference
  2
_DOTSMALL
 10
1030.131657865291
 20
3737.10180016054
 30
0.0
 41
75.0
 42
75.0
 43
75.0
 50
90.0
  0
INSERT
  5
156B6
330
14C3A
100
AcDbEntity
  8
寸法
 62
     0
 48
50.0
370
    -2
100
AcDbBlockReference
  2
_DOTSMALL
 10
1030.131657865291
 20
3387.101800160539
 30
0.0
 41
75.0
 42
75.0
 43
75.0
 50
270.0
  0
MTEXT
  5
156B7
330
14C3A
100
AcDbEntity
  8
寸法
 62
     7
 48
50.0
100
AcDbMText
 10
955.1316578652908
 20
3562.10180016054
 30
0.0
 40
90.0
 41
0.0
 71
     5
 72
     1
  1
\A1;350
  7
STYLE1
 11
0.0000000000000001
 21
1.0
 31
0.0
 73
     1
 44
1.0
1001
ACAD
1000
MTEXTBEGIN
1070
    73
1070
     1
1070
    44
1040
1.0
1070
    74
1070
     0
1000
MTEXTEND
  0
POINT
  5
156B8
330
14C3A
100
AcDbEntity
  8
DEFPOINTS
 62
     0
 48
50.0
100
AcDbPoint
 10
1521.003494576536
 20
3737.10180016054
 30
0.0
  0
POINT
  5
156B9
330
14C3A
100
AcDbEntity
  8
DEFPOINTS
 62
     0
 48
50.0
100
AcDbPoint
 10
1521.003494576536
 20
3387.101800160539
 30
0.0
  0
POINT
  5
156BA
330
14C3A
100
AcDbEntity
  8
DEFPOINTS
 62
     0
 48
50.0
100
AcDbPoint
 10
1030.131657865291
 20
3387.101800160539
 30
0.0
  0
ENDBLK
  5
14C3C
330
14C3A
100
AcDbEntity
  8
0
 48
50.0
100
AcDbBlockEnd
  0
BLOCK
  5
14C47
330
14C46
100
AcDbEntity
  8
0
 48
50.0
100
AcDbBlockBegin
  2
*D11
 70
     1
 10
0.0
 20
0.0
 30
0.0
  3
*D11
  1

  0
LINE
  5
156BB
330
14C46
100
AcDbEntity
  8
寸法
 62
     0
 48
50.0
370
    -2
100
AcDbLine
 10
1506.003494576536
 20
3737.10180016054
 30
0.0
 11
985.1316578652907
 21
3737.10180016054
 31
0.0
  0
LINE
  5
156BC
330
14C46
100
AcDbEntity
  8
寸法
 62
     0
 48
50.0
370
    -2
100
AcDbLine
 10
1356.003494576536
 20
5737.101800160539
 30
0.0
 11
985.1316578652912
 21
5737.101800160539
 31
0.0
  0
LINE
  5
156BD
330
14C46
100
AcDbEntity
  8
寸法
 62
     0
 48
50.0
370
    -2
100
AcDbLine
 10
1030.131657865291
 20
3737.10180016054
 30
0.0
 11
1030.131657865291
 21
5737.101800160539
 31
0.0
  0
INSERT
  5
156BE
330
14C46
100
AcDbEntity
  8
寸法
 62
     0
 48
50.0
370
    -2
100
AcDbBlockReference
  2
_DOTSMALL
 10
1030.131657865291
 20
3737.10180016054
 30
0.0
 41
75.0
 42
75.0
 43
75.0
 50
270.0
  0
INSERT
  5
156BF
330
14C46
100
AcDbEntity
  8
寸法
 62
     0
 48
50.0
370
    -2
100
AcDbBlockReference
  2
_DOTSMALL
 10
1030.131657865291
 20
5737.101800160539
 30
0.0
 41
75.0
 42
75.0
 43
75.0
 50
90.0
  0
MTEXT
  5
156C0
330
14C46
100
AcDbEntity
  8
寸法
 62
     7
 48
50.0
100
AcDbMText
 10
955.1227995975738
 20
4737.101800160539
 30
0.0
 40
90.0
 41
0.0
 71
     5
 72
     1
  1
\A1;2000
  7
STYLE1
 11
0.0000000000000001
 21
1.0
 31
0.0
 73
     1
 44
1.0
1001
ACAD
1000
MTEXTBEGIN
1070
    73
1070
     1
1070
    44
1040
1.0
1070
    74
1070
     0
1000
MTEXTEND
  0
POINT
  5
156C1
330
14C46
100
AcDbEntity
  8
DEFPOINTS
 62
     0
 48
50.0
100
AcDbPoint
 10
1521.003494576536
 20
3737.10180016054
 30
0.0
  0
POINT
  5
156C2
330
14C46
100
AcDbEntity
  8
DEFPOINTS
 62
     0
 48
50.0
100
AcDbPoint
 10
1371.003494576536
 20
5737.101800160539
 30
0.0
  0
POINT
  5
156C3
330
14C46
100
AcDbEntity
  8
DEFPOINTS
 62
     0
 48
50.0
100
AcDbPoint
 10
1030.131657865291
 20
5737.101800160539
 30
0.0
  0
ENDBLK
  5
14C48
330
14C46
100
AcDbEntity
  8
0
 48
50.0
100
AcDbBlockEnd
  0
BLOCK
  5
14C53
330
14C52
100
AcDbEntity
  8
0
 48
50.0
100
AcDbBlockBegin
  2
*D12
 70
     1
 10
0.0
 20
0.0
 30
0.0
  3
*D12
  1

  0
LINE
  5
156C4
330
14C52
100
AcDbEntity
  8
寸法
 62
     0
 48
50.0
370
    -2
100
AcDbLine
 10
1371.003494576565
 20
5752.101800160539
 30
0.0
 11
1371.003494576565
 21
6486.960471796816
 31
0.0
  0
LINE
  5
156C5
330
14C52
100
AcDbEntity
  8
寸法
 62
     0
 48
50.0
370
    -2
100
AcDbLine
 10
6971.003494576565
 20
5752.101800160539
 30
0.0
 11
6971.003494576565
 21
6486.960471796816
 31
0.0
  0
LINE
  5
156C6
330
14C52
100
AcDbEntity
  8
寸法
 62
     0
 48
50.0
370
    -2
100
AcDbLine
 10
1371.003494576565
 20
6441.960471796815
 30
0.0
 11
6971.003494576565
 21
6441.960471796815
 31
0.0
  0
INSERT
  5
156C7
330
14C52
100
AcDbEntity
  8
寸法
 62
     0
 48
50.0
370
    -2
100
AcDbBlockReference
  2
_DOTSMALL
 10
1371.003494576565
 20
6441.960471796815
 30
0.0
 41
75.0
 42
75.0
 43
75.0
 50
180.0
  0
INSERT
  5
156C8
330
14C52
100
AcDbEntity
  8
寸法
 62
     0
 48
50.0
370
    -2
100
AcDbBlockReference
  2
_DOTSMALL
 10
6971.003494576565
 20
6441.960471796815
 30
0.0
 41
75.0
 42
75.0
 43
75.0
  0
MTEXT
  5
156C9
330
14C52
100
AcDbEntity
  8
寸法
 62
     7
 48
50.0
100
AcDbMText
 10
4171.003494576566
 20
6516.969330064532
 30
0.0
 40
90.0
 41
0.0
 71
     5
 72
     1
  1
\A1;基礎土間寸法 N \U+00D72400 ＋ 800
  7
STYLE1
 73
     1
 44
1.0
1001
ACAD
1000
MTEXTBEGIN
1070
    73
1070
     1
1070
    44
1040
1.0
1070
    74
1070
     0
1000
MTEXTEND
  0
POINT
  5
156CA
330
14C52
100
AcDbEntity
  8
DEFPOINTS
 62
     0
 48
50.0
100
AcDbPoint
 10
1371.003494576565
 20
5737.101800160539
 30
0.0
  0
POINT
  5
156CB
330
14C52
100
AcDbEntity
  8
DEFPOINTS
 62
     0
 48
50.0
100
AcDbPoint
 10
6971.003494576565
 20
5737.101800160539
 30
0.0
  0
POINT
  5
156CC
330
14C52
100
AcDbEntity
  8
DEFPOINTS
 62
     0
 48
50.0
100
AcDbPoint
 10
6971.003494576565
 20
6441.960471796815
 30
0.0
  0
ENDBLK
  5
14C54
330
14C52
100
AcDbEntity
  8
0
 48
50.0
100
AcDbBlockEnd
  0
BLOCK
  5
14C5F
330
14C5E
100
AcDbEntity
  8
0
 48
50.0
100
AcDbBlockBegin
  2
*D13
 70
     1
 10
0.0
 20
0.0
 30
0.0
  3
*D13
  1

  0
LINE
  5
156CD
330
14C5E
100
AcDbEntity
  8
寸法
 62
     0
 48
50.0
370
    -2
100
AcDbLine
 10
6571.003494576565
 20
4002.101800160539
 30
0.0
 11
6571.003494576565
 21
6292.923432822497
 31
0.0
  0
LINE
  5
156CE
330
14C5E
100
AcDbEntity
  8
寸法
 62
     0
 48
50.0
370
    -2
100
AcDbLine
 10
6971.003494576565
 20
5752.101800160539
 30
0.0
 11
6971.003494576565
 21
6292.923432822497
 31
0.0
  0
LINE
  5
156CF
330
14C5E
100
AcDbEntity
  8
寸法
 62
     0
 48
50.0
370
    -2
100
AcDbLine
 10
6571.003494576565
 20
6247.923432822497
 30
0.0
 11
6971.003494576565
 21
6247.923432822497
 31
0.0
  0
INSERT
  5
156D0
330
14C5E
100
AcDbEntity
  8
寸法
 62
     0
 48
50.0
370
    -2
100
AcDbBlockReference
  2
_DOTSMALL
 10
6571.003494576565
 20
6247.923432822497
 30
0.0
 41
75.0
 42
75.0
 43
75.0
 50
180.0
  0
INSERT
  5
156D1
330
14C5E
100
AcDbEntity
  8
寸法
 62
     0
 48
50.0
370
    -2
100
AcDbBlockReference
  2
_DOTSMALL
 10
6971.003494576565
 20
6247.923432822497
 30
0.0
 41
75.0
 42
75.0
 43
75.0
  0
MTEXT
  5
156D2
330
14C5E
100
AcDbEntity
  8
寸法
 62
     7
 48
50.0
100
AcDbMText
 10
6771.003494576565
 20
6322.923432822498
 30
0.0
 40
90.0
 41
0.0
 71
     5
 72
     1
  1
\A1;400
  7
STYLE1
 73
     1
 44
1.0
1001
ACAD
1000
MTEXTBEGIN
1070
    73
1070
     1
1070
    44
1040
1.0
1070
    74
1070
     0
1000
MTEXTEND
  0
POINT
  5
156D3
330
14C5E
100
AcDbEntity
  8
DEFPOINTS
 62
     0
 48
50.0
100
AcDbPoint
 10
6571.003494576565
 20
3987.101800160539
 30
0.0
  0
POINT
  5
156D4
330
14C5E
100
AcDbEntity
  8
DEFPOINTS
 62
     0
 48
50.0
100
AcDbPoint
 10
6971.003494576565
 20
5737.101800160539
 30
0.0
  0
POINT
  5
156D5
330
14C5E
100
AcDbEntity
  8
DEFPOINTS
 62
     0
 48
50.0
100
AcDbPoint
 10
6971.003494576565
 20
6247.923432822497
 30
0.0
  0
ENDBLK
  5
14C60
330
14C5E
100
AcDbEntity
  8
0
 48
50.0
100
AcDbBlockEnd
  0
BLOCK
  5
14C6B
330
14C6A
100
AcDbEntity
  8
0
 48
50.0
100
AcDbBlockBegin
  2
*D14
 70
     1
 10
0.0
 20
0.0
 30
0.0
  3
*D14
  1

  0
LINE
  5
156D6
330
14C6A
100
AcDbEntity
  8
寸法
 62
     0
 48
50.0
370
    -2
100
AcDbLine
 10
1771.003494576565
 20
4002.101800160539
 30
0.0
 11
1771.003494576566
 21
6292.923432822497
 31
0.0
  0
LINE
  5
156D7
330
14C6A
100
AcDbEntity
  8
寸法
 62
     0
 48
50.0
370
    -2
100
AcDbLine
 10
6571.003494576565
 20
4002.101800160539
 30
0.0
 11
6571.003494576565
 21
6292.923432822497
 31
0.0
  0
LINE
  5
156D8
330
14C6A
100
AcDbEntity
  8
寸法
 62
     0
 48
50.0
370
    -2
100
AcDbLine
 10
1771.003494576566
 20
6247.923432822497
 30
0.0
 11
6571.003494576565
 21
6247.923432822497
 31
0.0
  0
INSERT
  5
156D9
330
14C6A
100
AcDbEntity
  8
寸法
 62
     0
 48
50.0
370
    -2
100
AcDbBlockReference
  2
_DOTSMALL
 10
1771.003494576566
 20
6247.923432822497
 30
0.0
 41
75.0
 42
75.0
 43
75.0
 50
180.0
  0
INSERT
  5
156DA
330
14C6A
100
AcDbEntity
  8
寸法
 62
     0
 48
50.0
370
    -2
100
AcDbBlockReference
  2
_DOTSMALL
 10
6571.003494576565
 20
6247.923432822497
 30
0.0
 41
75.0
 42
75.0
 43
75.0
  0
MTEXT
  5
156DB
330
14C6A
100
AcDbEntity
  8
寸法
 62
     7
 48
50.0
100
AcDbMText
 10
4171.003494576566
 20
6322.932291090214
 30
0.0
 40
90.0
 41
0.0
 71
     5
 72
     1
  1
\A1;N \U+00D72400
  7
STYLE1
 73
     1
 44
1.0
1001
ACAD
1000
MTEXTBEGIN
1070
    73
1070
     1
1070
    44
1040
1.0
1070
    74
1070
     0
1000
MTEXTEND
  0
POINT
  5
156DC
330
14C6A
100
AcDbEntity
  8
DEFPOINTS
 62
     0
 48
50.0
100
AcDbPoint
 10
1771.003494576565
 20
3987.101800160539
 30
0.0
  0
POINT
  5
156DD
330
14C6A
100
AcDbEntity
  8
DEFPOINTS
 62
     0
 48
50.0
100
AcDbPoint
 10
6571.003494576565
 20
3987.101800160539
 30
0.0
  0
POINT
  5
156DE
330
14C6A
100
AcDbEntity
  8
DEFPOINTS
 62
     0
 48
50.0
100
AcDbPoint
 10
6571.003494576565
 20
6247.923432822497
 30
0.0
  0
ENDBLK
  5
14C6C
330
14C6A
100
AcDbEntity
  8
0
 48
50.0
100
AcDbBlockEnd
  0
BLOCK
  5
14C77
330
14C76
100
AcDbEntity
  8
0
 48
50.0
100
AcDbBlockBegin
  2
*D15
 70
     1
 10
0.0
 20
0.0
 30
0.0
  3
*D15
  1

  0
LINE
  5
156DF
330
14C76
100
AcDbEntity
  8
寸法
 62
     0
 48
50.0
370
    -2
100
AcDbLine
 10
1371.003494576565
 20
5752.101800160539
 30
0.0
 11
1371.003494576565
 21
6292.923432822497
 31
0.0
  0
LINE
  5
156E0
330
14C76
100
AcDbEntity
  8
寸法
 62
     0
 48
50.0
370
    -2
100
AcDbLine
 10
1771.003494576565
 20
4002.101800160539
 30
0.0
 11
1771.003494576566
 21
6292.923432822497
 31
0.0
  0
LINE
  5
156E1
330
14C76
100
AcDbEntity
  8
寸法
 62
     0
 48
50.0
370
    -2
100
AcDbLine
 10
1371.003494576565
 20
6247.923432822497
 30
0.0
 11
1771.003494576566
 21
6247.923432822497
 31
0.0
  0
INSERT
  5
156E2
330
14C76
100
AcDbEntity
  8
寸法
 62
     0
 48
50.0
370
    -2
100
AcDbBlockReference
  2
_DOTSMALL
 10
1371.003494576565
 20
6247.923432822497
 30
0.0
 41
75.0
 42
75.0
 43
75.0
 50
180.0
  0
INSERT
  5
156E3
330
14C76
100
AcDbEntity
  8
寸法
 62
     0
 48
50.0
370
    -2
100
AcDbBlockReference
  2
_DOTSMALL
 10
1771.003494576566
 20
6247.923432822497
 30
0.0
 41
75.0
 42
75.0
 43
75.0
  0
MTEXT
  5
156E4
330
14C76
100
AcDbEntity
  8
寸法
 62
     7
 48
50.0
100
AcDbMText
 10
1571.003494576565
 20
6322.923432822498
 30
0.0
 40
90.0
 41
0.0
 71
     5
 72
     1
  1
\A1;400
  7
STYLE1
 73
     1
 44
1.0
1001
ACAD
1000
MTEXTBEGIN
1070
    73
1070
     1
1070
    44
1040
1.0
1070
    74
1070
     0
1000
MTEXTEND
  0
POINT
  5
156E5
330
14C76
100
AcDbEntity
  8
DEFPOINTS
 62
     0
 48
50.0
100
AcDbPoint
 10
1371.003494576565
 20
5737.101800160539
 30
0.0
  0
POINT
  5
156E6
330
14C76
100
AcDbEntity
  8
DEFPOINTS
 62
     0
 48
50.0
100
AcDbPoint
 10
1771.003494576565
 20
3987.101800160539
 30
0.0
  0
POINT
  5
156E7
330
14C76
100
AcDbEntity
  8
DEFPOINTS
 62
     0
 48
50.0
100
AcDbPoint
 10
1771.003494576566
 20
6247.923432822497
 30
0.0
  0
ENDBLK
  5
14C78
330
14C76
100
AcDbEntity
  8
0
 48
50.0
100
AcDbBlockEnd
  0
BLOCK
  5
14C83
330
14C82
100
AcDbEntity
  8
0
 48
50.0
100
AcDbBlockBegin
  2
*D16
 70
     1
 10
0.0
 20
0.0
 30
0.0
  3
*D16
  1

  0
LINE
  5
156E8
330
14C82
100
AcDbEntity
  8
寸法
 62
     0
 48
50.0
370
    -2
100
AcDbLine
 10
6571.003494576537
 20
3122.101800160525
 30
0.0
 11
6571.003494576537
 21
2578.965584123433
 31
0.0
  0
LINE
  5
156E9
330
14C82
100
AcDbEntity
  8
寸法
 62
     0
 48
50.0
370
    -2
100
AcDbLine
 10
6171.003494576536
 20
2847.101800160525
 30
0.0
 11
6171.003494576536
 21
2578.965584123433
 31
0.0
  0
LINE
  5
156EA
330
14C82
100
AcDbEntity
  8
寸法
 62
     0
 48
50.0
370
    -2
100
AcDbLine
 10
6571.003494576537
 20
2623.965584123433
 30
0.0
 11
6171.003494576536
 21
2623.965584123433
 31
0.0
  0
INSERT
  5
156EB
330
14C82
100
AcDbEntity
  8
寸法
 62
     0
 48
50.0
370
    -2
100
AcDbBlockReference
  2
_DOTSMALL
 10
6571.003494576537
 20
2623.965584123433
 30
0.0
 41
75.0
 42
75.0
 43
75.0
  0
INSERT
  5
156EC
330
14C82
100
AcDbEntity
  8
寸法
 62
     0
 48
50.0
370
    -2
100
AcDbBlockReference
  2
_DOTSMALL
 10
6171.003494576536
 20
2623.965584123433
 30
0.0
 41
75.0
 42
75.0
 43
75.0
 50
180.0
  0
MTEXT
  5
156ED
330
14C82
100
AcDbEntity
  8
寸法
 62
     7
 48
50.0
100
AcDbMText
 10
6371.003494576537
 20
2698.965584123433
 30
0.0
 40
90.0
 41
0.0
 71
     5
 72
     1
  1
\A1;400
  7
STYLE1
 73
     1
 44
1.0
1001
ACAD
1000
MTEXTBEGIN
1070
    73
1070
     1
1070
    44
1040
1.0
1070
    74
1070
     0
1000
MTEXTEND
  0
POINT
  5
156EE
330
14C82
100
AcDbEntity
  8
DEFPOINTS
 62
     0
 48
50.0
100
AcDbPoint
 10
6571.003494576537
 20
3137.101800160525
 30
0.0
  0
POINT
  5
156EF
330
14C82
100
AcDbEntity
  8
DEFPOINTS
 62
     0
 48
50.0
100
AcDbPoint
 10
6171.003494576536
 20
2862.101800160525
 30
0.0
  0
POINT
  5
156F0
330
14C82
100
AcDbEntity
  8
DEFPOINTS
 62
     0
 48
50.0
100
AcDbPoint
 10
6171.003494576536
 20
2623.965584123433
 30
0.0
  0
ENDBLK
  5
14C84
330
14C82
100
AcDbEntity
  8
0
 48
50.0
100
AcDbBlockEnd
  0
BLOCK
  5
14C8F
330
14C8E
100
AcDbEntity
  8
0
 48
50.0
100
AcDbBlockBegin
  2
*D17
 70
     1
 10
0.0
 20
0.0
 30
0.0
  3
*D17
  1

  0
LINE
  5
156F1
330
14C8E
100
AcDbEntity
  8
寸法
 62
     0
 48
50.0
370
    -2
100
AcDbLine
 10
6171.003494576536
 20
2847.101800160525
 30
0.0
 11
6171.003494576536
 21
2340.82936808637
 31
0.0
  0
LINE
  5
156F2
330
14C8E
100
AcDbEntity
  8
寸法
 62
     0
 48
50.0
370
    -2
100
AcDbLine
 10
6971.003494576565
 20
2847.101800160525
 30
0.0
 11
6971.003494576565
 21
2340.82936808637
 31
0.0
  0
LINE
  5
156F3
330
14C8E
100
AcDbEntity
  8
寸法
 62
     0
 48
50.0
370
    -2
100
AcDbLine
 10
6171.003494576536
 20
2385.82936808637
 30
0.0
 11
6971.003494576565
 21
2385.82936808637
 31
0.0
  0
INSERT
  5
156F4
330
14C8E
100
AcDbEntity
  8
寸法
 62
     0
 48
50.0
370
    -2
100
AcDbBlockReference
  2
_DOTSMALL
 10
6171.003494576536
 20
2385.82936808637
 30
0.0
 41
75.0
 42
75.0
 43
75.0
 50
180.0
  0
INSERT
  5
156F5
330
14C8E
100
AcDbEntity
  8
寸法
 62
     0
 48
50.0
370
    -2
100
AcDbBlockReference
  2
_DOTSMALL
 10
6971.003494576565
 20
2385.82936808637
 30
0.0
 41
75.0
 42
75.0
 43
75.0
  0
MTEXT
  5
156F6
330
14C8E
100
AcDbEntity
  8
寸法
 62
     7
 48
50.0
100
AcDbMText
 10
6571.003494576537
 20
2460.829368086371
 30
0.0
 40
90.0
 41
0.0
 71
     5
 72
     1
  1
\A1;800
  7
STYLE1
 73
     1
 44
1.0
1001
ACAD
1000
MTEXTBEGIN
1070
    73
1070
     1
1070
    44
1040
1.0
1070
    74
1070
     0
1000
MTEXTEND
  0
POINT
  5
156F7
330
14C8E
100
AcDbEntity
  8
DEFPOINTS
 62
     0
 48
50.0
100
AcDbPoint
 10
6171.003494576536
 20
2862.101800160525
 30
0.0
  0
POINT
  5
156F8
330
14C8E
100
AcDbEntity
  8
DEFPOINTS
 62
     0
 48
50.0
100
AcDbPoint
 10
6971.003494576565
 20
2862.101800160525
 30
0.0
  0
POINT
  5
156F9
330
14C8E
100
AcDbEntity
  8
DEFPOINTS
 62
     0
 48
50.0
100
AcDbPoint
 10
6971.003494576565
 20
2385.82936808637
 30
0.0
  0
ENDBLK
  5
14C90
330
14C8E
100
AcDbEntity
  8
0
 48
50.0
100
AcDbBlockEnd
  0
BLOCK
  5
14C9B
330
14C9A
100
AcDbEntity
  8
0
 48
50.0
100
AcDbBlockBegin
  2
*D18
 70
     1
 10
0.0
 20
0.0
 30
0.0
  3
*D18
  1

  0
LINE
  5
156FA
330
14C9A
100
AcDbEntity
  8
寸法
 62
     0
 48
50.0
370
    -2
100
AcDbLine
 10
6306.003494576536
 20
3387.101800160525
 30
0.0
 11
5948.688991292365
 21
3387.101800160525
 31
0.0
  0
LINE
  5
156FB
330
14C9A
100
AcDbEntity
  8
寸法
 62
     0
 48
50.0
370
    -2
100
AcDbLine
 10
6156.003494576537
 20
2862.101800160511
 30
0.0
 11
5948.688991292365
 21
2862.101800160511
 31
0.0
  0
LINE
  5
156FC
330
14C9A
100
AcDbEntity
  8
寸法
 62
     0
 48
50.0
370
    -2
100
AcDbLine
 10
5993.688991292366
 20
3387.101800160525
 30
0.0
 11
5993.688991292366
 21
2862.101800160511
 31
0.0
  0
INSERT
  5
156FD
330
14C9A
100
AcDbEntity
  8
寸法
 62
     0
 48
50.0
370
    -2
100
AcDbBlockReference
  2
_DOTSMALL
 10
5993.688991292366
 20
3387.101800160525
 30
0.0
 41
75.0
 42
75.0
 43
75.0
 50
90.0
  0
INSERT
  5
156FE
330
14C9A
100
AcDbEntity
  8
寸法
 62
     0
 48
50.0
370
    -2
100
AcDbBlockReference
  2
_DOTSMALL
 10
5993.688991292366
 20
2862.101800160511
 30
0.0
 41
75.0
 42
75.0
 43
75.0
 50
270.0
  0
MTEXT
  5
156FF
330
14C9A
100
AcDbEntity
  8
寸法
 62
     7
 48
50.0
100
AcDbMText
 10
5918.680133024648
 20
3124.601800160519
 30
0.0
 40
90.0
 41
0.0
 71
     5
 72
     1
  1
\A1;525
  7
STYLE1
 11
0.0000000000000001
 21
1.0
 31
0.0
 73
     1
 44
1.0
1001
ACAD
1000
MTEXTBEGIN
1070
    73
1070
     1
1070
    44
1040
1.0
1070
    74
1070
     0
1000
MTEXTEND
  0
POINT
  5
15700
330
14C9A
100
AcDbEntity
  8
DEFPOINTS
 62
     0
 48
50.0
100
AcDbPoint
 10
6321.003494576537
 20
3387.101800160525
 30
0.0
  0
POINT
  5
15701
330
14C9A
100
AcDbEntity
  8
DEFPOINTS
 62
     0
 48
50.0
100
AcDbPoint
 10
6171.003494576536
 20
2862.101800160511
 30
0.0
  0
POINT
  5
15702
330
14C9A
100
AcDbEntity
  8
DEFPOINTS
 62
     0
 48
50.0
100
AcDbPoint
 10
5993.688991292366
 20
2862.101800160511
 30
0.0
  0
ENDBLK
  5
14C9C
330
14C9A
100
AcDbEntity
  8
0
 48
50.0
100
AcDbBlockEnd
  0
BLOCK
  5
14CA7
330
14CA6
100
AcDbEntity
  8
0
 48
50.0
100
AcDbBlockBegin
  2
*D19
 70
     1
 10
0.0
 20
0.0
 30
0.0
  3
*D19
  1

  0
LINE
  5
15703
330
14CA6
100
AcDbEntity
  8
寸法
 62
     0
 48
50.0
370
    -2
100
AcDbLine
 10
6156.003494576537
 20
4262.101800160524
 30
0.0
 11
5771.374488008194
 21
4262.101800160524
 31
0.0
  0
LINE
  5
15704
330
14CA6
100
AcDbEntity
  8
寸法
 62
     0
 48
50.0
370
    -2
100
AcDbLine
 10
6156.003494576537
 20
2862.101800160511
 30
0.0
 11
5771.374488008194
 21
2862.101800160511
 31
0.0
  0
LINE
  5
15705
330
14CA6
100
AcDbEntity
  8
寸法
 62
     0
 48
50.0
370
    -2
100
AcDbLine
 10
5816.374488008194
 20
4262.101800160524
 30
0.0
 11
5816.374488008194
 21
2862.101800160511
 31
0.0
  0
INSERT
  5
15706
330
14CA6
100
AcDbEntity
  8
寸法
 62
     0
 48
50.0
370
    -2
100
AcDbBlockReference
  2
_DOTSMALL
 10
5816.374488008194
 20
4262.101800160524
 30
0.0
 41
75.0
 42
75.0
 43
75.0
 50
90.0
  0
INSERT
  5
15707
330
14CA6
100
AcDbEntity
  8
寸法
 62
     0
 48
50.0
370
    -2
100
AcDbBlockReference
  2
_DOTSMALL
 10
5816.374488008194
 20
2862.101800160511
 30
0.0
 41
75.0
 42
75.0
 43
75.0
 50
270.0
  0
MTEXT
  5
15708
330
14CA6
100
AcDbEntity
  8
寸法
 62
     7
 48
50.0
100
AcDbMText
 10
5741.374488008194
 20
3562.101800160519
 30
0.0
 40
90.0
 41
0.0
 71
     5
 72
     1
  1
\A1;1400
  7
STYLE1
 11
0.0000000000000001
 21
1.0
 31
0.0
 73
     1
 44
1.0
1001
ACAD
1000
MTEXTBEGIN
1070
    73
1070
     1
1070
    44
1040
1.0
1070
    74
1070
     0
1000
MTEXTEND
  0
POINT
  5
15709
330
14CA6
100
AcDbEntity
  8
DEFPOINTS
 62
     0
 48
50.0
100
AcDbPoint
 10
6171.003494576536
 20
4262.101800160524
 30
0.0
  0
POINT
  5
1570A
330
14CA6
100
AcDbEntity
  8
DEFPOINTS
 62
     0
 48
50.0
100
AcDbPoint
 10
6171.003494576536
 20
2862.101800160511
 30
0.0
  0
POINT
  5
1570B
330
14CA6
100
AcDbEntity
  8
DEFPOINTS
 62
     0
 48
50.0
100
AcDbPoint
 10
5816.374488008194
 20
2862.101800160511
 30
0.0
  0
ENDBLK
  5
14CA8
330
14CA6
100
AcDbEntity
  8
0
 48
50.0
100
AcDbBlockEnd
  0
BLOCK
  5
14CB3
330
14CB2
100
AcDbEntity
  8
0
 48
50.0
100
AcDbBlockBegin
  2
*D20
 70
     1
 10
0.0
 20
0.0
 30
0.0
  3
*D20
  1

  0
LINE
  5
1570C
330
14CB2
100
AcDbEntity
  8
寸法
 62
     0
 48
50.0
370
    -2
100
AcDbLine
 10
6306.003494576536
 20
3737.101800160525
 30
0.0
 11
5948.688991292365
 21
3737.101800160525
 31
0.0
  0
LINE
  5
1570D
330
14CB2
100
AcDbEntity
  8
寸法
 62
     0
 48
50.0
370
    -2
100
AcDbLine
 10
6306.003494576536
 20
3387.101800160525
 30
0.0
 11
5948.688991292365
 21
3387.101800160525
 31
0.0
  0
LINE
  5
1570E
330
14CB2
100
AcDbEntity
  8
寸法
 62
     0
 48
50.0
370
    -2
100
AcDbLine
 10
5993.688991292366
 20
3737.101800160525
 30
0.0
 11
5993.688991292366
 21
3387.101800160525
 31
0.0
  0
INSERT
  5
1570F
330
14CB2
100
AcDbEntity
  8
寸法
 62
     0
 48
50.0
370
    -2
100
AcDbBlockReference
  2
_DOTSMALL
 10
5993.688991292366
 20
3737.101800160525
 30
0.0
 41
75.0
 42
75.0
 43
75.0
 50
90.0
  0
INSERT
  5
15710
330
14CB2
100
AcDbEntity
  8
寸法
 62
     0
 48
50.0
370
    -2
100
AcDbBlockReference
  2
_DOTSMALL
 10
5993.688991292366
 20
3387.101800160525
 30
0.0
 41
75.0
 42
75.0
 43
75.0
 50
270.0
  0
MTEXT
  5
15711
330
14CB2
100
AcDbEntity
  8
寸法
 62
     7
 48
50.0
100
AcDbMText
 10
5918.688991292365
 20
3562.101800160526
 30
0.0
 40
90.0
 41
0.0
 71
     5
 72
     1
  1
\A1;350
  7
STYLE1
 11
0.0000000000000001
 21
1.0
 31
0.0
 73
     1
 44
1.0
1001
ACAD
1000
MTEXTBEGIN
1070
    73
1070
     1
1070
    44
1040
1.0
1070
    74
1070
     0
1000
MTEXTEND
  0
POINT
  5
15712
330
14CB2
100
AcDbEntity
  8
DEFPOINTS
 62
     0
 48
50.0
100
AcDbPoint
 10
6321.003494576537
 20
3737.101800160525
 30
0.0
  0
POINT
  5
15713
330
14CB2
100
AcDbEntity
  8
DEFPOINTS
 62
     0
 48
50.0
100
AcDbPoint
 10
6321.003494576537
 20
3387.101800160525
 30
0.0
  0
POINT
  5
15714
330
14CB2
100
AcDbEntity
  8
DEFPOINTS
 62
     0
 48
50.0
100
AcDbPoint
 10
5993.688991292366
 20
3387.101800160525
 30
0.0
  0
ENDBLK
  5
14CB4
330
14CB2
100
AcDbEntity
  8
0
 48
50.0
100
AcDbBlockEnd
  0
BLOCK
  5
14CBF
330
14CBE
100
AcDbEntity
  8
0
 48
50.0
100
AcDbBlockBegin
  2
*D21
 70
     1
 10
0.0
 20
0.0
 30
0.0
  3
*D21
  1

  0
LINE
  5
15715
330
14CBE
100
AcDbEntity
  8
寸法
 62
     0
 48
50.0
370
    -2
100
AcDbLine
 10
6306.003494576536
 20
3737.101800160525
 30
0.0
 11
5948.688991292365
 21
3737.101800160525
 31
0.0
  0
LINE
  5
15716
330
14CBE
100
AcDbEntity
  8
寸法
 62
     0
 48
50.0
370
    -2
100
AcDbLine
 10
6156.003494576537
 20
4262.101800160539
 30
0.0
 11
5948.688991292365
 21
4262.101800160539
 31
0.0
  0
LINE
  5
15717
330
14CBE
100
AcDbEntity
  8
寸法
 62
     0
 48
50.0
370
    -2
100
AcDbLine
 10
5993.688991292366
 20
3737.101800160525
 30
0.0
 11
5993.688991292366
 21
4262.101800160539
 31
0.0
  0
INSERT
  5
15718
330
14CBE
100
AcDbEntity
  8
寸法
 62
     0
 48
50.0
370
    -2
100
AcDbBlockReference
  2
_DOTSMALL
 10
5993.688991292366
 20
3737.101800160525
 30
0.0
 41
75.0
 42
75.0
 43
75.0
 50
270.0
  0
INSERT
  5
15719
330
14CBE
100
AcDbEntity
  8
寸法
 62
     0
 48
50.0
370
    -2
100
AcDbBlockReference
  2
_DOTSMALL
 10
5993.688991292366
 20
4262.101800160539
 30
0.0
 41
75.0
 42
75.0
 43
75.0
 50
90.0
  0
MTEXT
  5
1571A
330
14CBE
100
AcDbEntity
  8
寸法
 62
     7
 48
50.0
100
AcDbMText
 10
5918.680133024648
 20
3999.601800160533
 30
0.0
 40
90.0
 41
0.0
 71
     5
 72
     1
  1
\A1;525
  7
STYLE1
 11
0.0000000000000001
 21
1.0
 31
0.0
 73
     1
 44
1.0
1001
ACAD
1000
MTEXTBEGIN
1070
    73
1070
     1
1070
    44
1040
1.0
1070
    74
1070
     0
1000
MTEXTEND
  0
POINT
  5
1571B
330
14CBE
100
AcDbEntity
  8
DEFPOINTS
 62
     0
 48
50.0
100
AcDbPoint
 10
6321.003494576537
 20
3737.101800160525
 30
0.0
  0
POINT
  5
1571C
330
14CBE
100
AcDbEntity
  8
DEFPOINTS
 62
     0
 48
50.0
100
AcDbPoint
 10
6171.003494576536
 20
4262.101800160539
 30
0.0
  0
POINT
  5
1571D
330
14CBE
100
AcDbEntity
  8
DEFPOINTS
 62
     0
 48
50.0
100
AcDbPoint
 10
5993.688991292366
 20
4262.101800160539
 30
0.0
  0
ENDBLK
  5
14CC0
330
14CBE
100
AcDbEntity
  8
0
 48
50.0
100
AcDbBlockEnd
  0
BLOCK
  5
14CCB
330
14CCA
100
AcDbEntity
  8
0
 48
50.0
100
AcDbBlockBegin
  2
*D22
 70
     1
 10
0.0
 20
0.0
 30
0.0
  3
*D22
  1

  0
LINE
  5
15735
330
14CCA
100
AcDbEntity
  8
寸法
 62
     0
 48
50.0
370
    -2
100
AcDbLine
 10
8416.242828653748
 20
3639.266628061264
 30
0.0
 11
8235.661701551842
 21
3639.266628061264
 31
0.0
  0
LINE
  5
15736
330
14CCA
100
AcDbEntity
  8
寸法
 62
     0
 48
50.0
370
    -2
100
AcDbLine
 10
8416.242828653748
 20
3739.266628061264
 30
0.0
 11
8235.661701551842
 21
3739.266628061264
 31
0.0
  0
LINE
  5
15737
330
14CCA
100
AcDbEntity
  8
寸法
 62
     0
 48
50.0
370
    -2
100
AcDbLine
 10
8280.661701551842
 20
3639.266628061264
 30
0.0
 11
8280.661701551842
 21
3739.266628061264
 31
0.0
  0
LINE
  5
15738
330
14CCA
100
AcDbEntity
  8
寸法
 62
     0
 48
50.0
370
    -2
100
AcDbLine
 10
8280.661701551842
 20
3739.266628061264
 30
0.0
 11
8280.661701551842
 21
4018.337494203037
 31
0.0
  0
INSERT
  5
15739
330
14CCA
100
AcDbEntity
  8
寸法
 62
     0
 48
50.0
370
    -2
100
AcDbBlockReference
  2
_DOTSMALL
 10
8280.661701551842
 20
3639.266628061264
 30
0.0
 41
75.0
 42
75.0
 43
75.0
 50
270.0
  0
INSERT
  5
1573A
330
14CCA
100
AcDbEntity
  8
寸法
 62
     0
 48
50.0
370
    -2
100
AcDbBlockReference
  2
_DOTSMALL
 10
8280.661701551842
 20
3739.266628061264
 30
0.0
 41
75.0
 42
75.0
 43
75.0
 50
90.0
  0
MTEXT
  5
1573B
330
14CCA
100
AcDbEntity
  8
寸法
 62
     7
 48
50.0
100
AcDbMText
 10
8205.661701551843
 20
3916.302061132172
 30
0.0
 40
90.0
 41
0.0
 71
     5
 72
     1
  1
\A1;100
  7
STYLE1
 11
0.0000000000000001
 21
1.0
 31
0.0
 73
     1
 44
1.0
1001
ACAD
1000
MTEXTBEGIN
1070
    73
1070
     1
1070
    44
1040
1.0
1070
    74
1070
     0
1000
MTEXTEND
  0
POINT
  5
1573C
330
14CCA
100
AcDbEntity
  8
DEFPOINTS
 62
     0
 48
50.0
100
AcDbPoint
 10
8431.242828653747
 20
3639.266628061264
 30
0.0
  0
POINT
  5
1573D
330
14CCA
100
AcDbEntity
  8
DEFPOINTS
 62
     0
 48
50.0
100
AcDbPoint
 10
8431.242828653747
 20
3739.266628061264
 30
0.0
  0
POINT
  5
1573E
330
14CCA
100
AcDbEntity
  8
DEFPOINTS
 62
     0
 48
50.0
100
AcDbPoint
 10
8280.661701551842
 20
3739.266628061264
 30
0.0
  0
ENDBLK
  5
14CCC
330
14CCA
100
AcDbEntity
  8
0
 48
50.0
100
AcDbBlockEnd
  0
BLOCK
  5
14CD8
330
14CD7
100
AcDbEntity
  8
0
 48
50.0
100
AcDbBlockBegin
  2
*D23
 70
     1
 10
0.0
 20
0.0
 30
0.0
  3
*D23
  1

  0
LINE
  5
1573F
330
14CD7
100
AcDbEntity
  8
寸法
 62
     0
 48
50.0
370
    -2
100
AcDbLine
 10
8416.242828653748
 20
3639.266628061264
 30
0.0
 11
8235.661701551842
 21
3639.266628061264
 31
0.0
  0
LINE
  5
15740
330
14CD7
100
AcDbEntity
  8
寸法
 62
     0
 48
50.0
370
    -2
100
AcDbLine
 10
8416.242828653748
 20
3539.266628061264
 30
0.0
 11
8235.661701551842
 21
3539.266628061264
 31
0.0
  0
LINE
  5
15741
330
14CD7
100
AcDbEntity
  8
寸法
 62
     0
 48
50.0
370
    -2
100
AcDbLine
 10
8280.661701551842
 20
3639.266628061264
 30
0.0
 11
8280.661701551842
 21
3539.266628061264
 31
0.0
  0
LINE
  5
15742
330
14CD7
100
AcDbEntity
  8
寸法
 62
     0
 48
50.0
370
    -2
100
AcDbLine
 10
8280.661701551842
 20
3539.266628061264
 30
0.0
 11
8280.661701551842
 21
3260.19576191953
 31
0.0
  0
INSERT
  5
15743
330
14CD7
100
AcDbEntity
  8
寸法
 62
     0
 48
50.0
370
    -2
100
AcDbBlockReference
  2
_DOTSMALL
 10
8280.661701551842
 20
3639.266628061264
 30
0.0
 41
75.0
 42
75.0
 43
75.0
 50
90.0
  0
INSERT
  5
15744
330
14CD7
100
AcDbEntity
  8
寸法
 62
     0
 48
50.0
370
    -2
100
AcDbBlockReference
  2
_DOTSMALL
 10
8280.661701551842
 20
3539.266628061264
 30
0.0
 41
75.0
 42
75.0
 43
75.0
 50
270.0
  0
MTEXT
  5
15745
330
14CD7
100
AcDbEntity
  8
寸法
 62
     7
 48
50.0
100
AcDbMText
 10
8205.661701551843
 20
3362.231194990398
 30
0.0
 40
90.0
 41
0.0
 71
     5
 72
     1
  1
\A1;100
  7
STYLE1
 11
0.0000000000000001
 21
1.0
 31
0.0
 73
     1
 44
1.0
1001
ACAD
1000
MTEXTBEGIN
1070
    73
1070
     1
1070
    44
1040
1.0
1070
    74
1070
     0
1000
MTEXTEND
  0
POINT
  5
15746
330
14CD7
100
AcDbEntity
  8
DEFPOINTS
 62
     0
 48
50.0
100
AcDbPoint
 10
8431.242828653747
 20
3639.266628061264
 30
0.0
  0
POINT
  5
15747
330
14CD7
100
AcDbEntity
  8
DEFPOINTS
 62
     0
 48
50.0
100
AcDbPoint
 10
8431.242828653747
 20
3539.266628061264
 30
0.0
  0
POINT
  5
15748
330
14CD7
100
AcDbEntity
  8
DEFPOINTS
 62
     0
 48
50.0
100
AcDbPoint
 10
8280.661701551842
 20
3539.266628061264
 30
0.0
  0
ENDBLK
  5
14CD9
330
14CD7
100
AcDbEntity
  8
0
 48
50.0
100
AcDbBlockEnd
  0
BLOCK
  5
14CE5
330
14CE4
100
AcDbEntity
  8
0
 48
50.0
100
AcDbBlockBegin
  2
*D24
 70
     1
 10
0.0
 20
0.0
 30
0.0
  3
*D24
  1

  0
LINE
  5
15749
330
14CE4
100
AcDbEntity
  8
寸法
 62
     0
 48
50.0
370
    -2
100
AcDbLine
 10
8931.242828653806
 20
3074.266628061264
 30
0.0
 11
8931.242828653806
 21
2602.649998417228
 31
0.0
  0
LINE
  5
1574A
330
14CE4
100
AcDbEntity
  8
寸法
 62
     0
 48
50.0
370
    -2
100
AcDbLine
 10
9456.242828653804
 20
3013.208796231384
 30
0.0
 11
9456.242828653804
 21
2602.649998417228
 31
0.0
  0
LINE
  5
1574B
330
14CE4
100
AcDbEntity
  8
寸法
 62
     0
 48
50.0
370
    -2
100
AcDbLine
 10
8931.242828653806
 20
2647.649998417228
 30
0.0
 11
9456.242828653804
 21
2647.649998417228
 31
0.0
  0
INSERT
  5
1574C
330
14CE4
100
AcDbEntity
  8
寸法
 62
     0
 48
50.0
370
    -2
100
AcDbBlockReference
  2
_DOTSMALL
 10
8931.242828653806
 20
2647.649998417228
 30
0.0
 41
75.0
 42
75.0
 43
75.0
 50
180.0
  0
INSERT
  5
1574D
330
14CE4
100
AcDbEntity
  8
寸法
 62
     0
 48
50.0
370
    -2
100
AcDbBlockReference
  2
_DOTSMALL
 10
9456.242828653804
 20
2647.649998417228
 30
0.0
 41
75.0
 42
75.0
 43
75.0
  0
MTEXT
  5
1574E
330
14CE4
100
AcDbEntity
  8
寸法
 62
     7
 48
50.0
100
AcDbMText
 10
9193.742828653805
 20
2722.658856684945
 30
0.0
 40
90.0
 41
0.0
 71
     5
 72
     1
  1
\A1;525
  7
STYLE1
 73
     1
 44
1.0
1001
ACAD
1000
MTEXTBEGIN
1070
    73
1070
     1
1070
    44
1040
1.0
1070
    74
1070
     0
1000
MTEXTEND
  0
POINT
  5
1574F
330
14CE4
100
AcDbEntity
  8
DEFPOINTS
 62
     0
 48
50.0
100
AcDbPoint
 10
8931.242828653806
 20
3089.266628061264
 30
0.0
  0
POINT
  5
15750
330
14CE4
100
AcDbEntity
  8
DEFPOINTS
 62
     0
 48
50.0
100
AcDbPoint
 10
9456.242828653804
 20
3028.208796231384
 30
0.0
  0
POINT
  5
15751
330
14CE4
100
AcDbEntity
  8
DEFPOINTS
 62
     0
 48
50.0
100
AcDbPoint
 10
9456.242828653804
 20
2647.649998417228
 30
0.0
  0
ENDBLK
  5
14CE6
330
14CE4
100
AcDbEntity
  8
0
 48
50.0
100
AcDbBlockEnd
  0
BLOCK
  5
14CF1
330
14CF0
100
AcDbEntity
  8
0
 48
50.0
100
AcDbBlockBegin
  2
*D25
 70
     1
 10
0.0
 20
0.0
 30
0.0
  3
*D25
  1

  0
LINE
  5
15752
330
14CF0
100
AcDbEntity
  8
寸法
 62
     0
 48
50.0
370
    -2
100
AcDbLine
 10
10331.2428286538
 20
3074.266628061264
 30
0.0
 11
10331.2428286538
 21
2372.564437328476
 31
0.0
  0
LINE
  5
15753
330
14CF0
100
AcDbEntity
  8
寸法
 62
     0
 48
50.0
370
    -2
100
AcDbLine
 10
8931.242828653806
 20
3074.266628061264
 30
0.0
 11
8931.242828653806
 21
2372.564437328476
 31
0.0
  0
LINE
  5
15754
330
14CF0
100
AcDbEntity
  8
寸法
 62
     0
 48
50.0
370
    -2
100
AcDbLine
 10
10331.2428286538
 20
2417.564437328477
 30
0.0
 11
8931.242828653806
 21
2417.564437328477
 31
0.0
  0
INSERT
  5
15755
330
14CF0
100
AcDbEntity
  8
寸法
 62
     0
 48
50.0
370
    -2
100
AcDbBlockReference
  2
_DOTSMALL
 10
10331.2428286538
 20
2417.564437328477
 30
0.0
 41
75.0
 42
75.0
 43
75.0
  0
INSERT
  5
15756
330
14CF0
100
AcDbEntity
  8
寸法
 62
     0
 48
50.0
370
    -2
100
AcDbBlockReference
  2
_DOTSMALL
 10
8931.242828653806
 20
2417.564437328477
 30
0.0
 41
75.0
 42
75.0
 43
75.0
 50
180.0
  0
MTEXT
  5
15757
330
14CF0
100
AcDbEntity
  8
寸法
 62
     7
 48
50.0
100
AcDbMText
 10
9631.242828653805
 20
2492.564437328477
 30
0.0
 40
90.0
 41
0.0
 71
     5
 72
     1
  1
\A1;1400
  7
STYLE1
 73
     1
 44
1.0
1001
ACAD
1000
MTEXTBEGIN
1070
    73
1070
     1
1070
    44
1040
1.0
1070
    74
1070
     0
1000
MTEXTEND
  0
POINT
  5
15758
330
14CF0
100
AcDbEntity
  8
DEFPOINTS
 62
     0
 48
50.0
100
AcDbPoint
 10
10331.2428286538
 20
3089.266628061264
 30
0.0
  0
POINT
  5
15759
330
14CF0
100
AcDbEntity
  8
DEFPOINTS
 62
     0
 48
50.0
100
AcDbPoint
 10
8931.242828653806
 20
3089.266628061264
 30
0.0
  0
POINT
  5
1575A
330
14CF0
100
AcDbEntity
  8
DEFPOINTS
 62
     0
 48
50.0
100
AcDbPoint
 10
8931.242828653806
 20
2417.564437328477
 30
0.0
  0
ENDBLK
  5
14CF2
330
14CF0
100
AcDbEntity
  8
0
 48
50.0
100
AcDbBlockEnd
  0
BLOCK
  5
14CFD
330
14CFC
100
AcDbEntity
  8
0
 48
50.0
100
AcDbBlockBegin
  2
*D26
 70
     1
 10
0.0
 20
0.0
 30
0.0
  3
*D26
  1

  0
LINE
  5
1575B
330
14CFC
100
AcDbEntity
  8
寸法
 62
     0
 48
50.0
370
    -2
100
AcDbLine
 10
9456.242828653804
 20
3013.208796231384
 30
0.0
 11
9456.242828653804
 21
2602.649998417228
 31
0.0
  0
LINE
  5
1575C
330
14CFC
100
AcDbEntity
  8
寸法
 62
     0
 48
50.0
370
    -2
100
AcDbLine
 10
9806.242828653806
 20
3013.208796231384
 30
0.0
 11
9806.242828653806
 21
2602.649998417228
 31
0.0
  0
LINE
  5
1575D
330
14CFC
100
AcDbEntity
  8
寸法
 62
     0
 48
50.0
370
    -2
100
AcDbLine
 10
9456.242828653804
 20
2647.649998417228
 30
0.0
 11
9806.242828653806
 21
2647.649998417228
 31
0.0
  0
INSERT
  5
1575E
330
14CFC
100
AcDbEntity
  8
寸法
 62
     0
 48
50.0
370
    -2
100
AcDbBlockReference
  2
_DOTSMALL
 10
9456.242828653804
 20
2647.649998417228
 30
0.0
 41
75.0
 42
75.0
 43
75.0
 50
180.0
  0
INSERT
  5
1575F
330
14CFC
100
AcDbEntity
  8
寸法
 62
     0
 48
50.0
370
    -2
100
AcDbBlockReference
  2
_DOTSMALL
 10
9806.242828653806
 20
2647.649998417228
 30
0.0
 41
75.0
 42
75.0
 43
75.0
  0
MTEXT
  5
15760
330
14CFC
100
AcDbEntity
  8
寸法
 62
     7
 48
50.0
100
AcDbMText
 10
9631.242828653805
 20
2722.649998417228
 30
0.0
 40
90.0
 41
0.0
 71
     5
 72
     1
  1
\A1;350
  7
STYLE1
 73
     1
 44
1.0
1001
ACAD
1000
MTEXTBEGIN
1070
    73
1070
     1
1070
    44
1040
1.0
1070
    74
1070
     0
1000
MTEXTEND
  0
POINT
  5
15761
330
14CFC
100
AcDbEntity
  8
DEFPOINTS
 62
     0
 48
50.0
100
AcDbPoint
 10
9456.242828653804
 20
3028.208796231384
 30
0.0
  0
POINT
  5
15762
330
14CFC
100
AcDbEntity
  8
DEFPOINTS
 62
     0
 48
50.0
100
AcDbPoint
 10
9806.242828653806
 20
3028.208796231384
 30
0.0
  0
POINT
  5
15763
330
14CFC
100
AcDbEntity
  8
DEFPOINTS
 62
     0
 48
50.0
100
AcDbPoint
 10
9806.242828653806
 20
2647.649998417228
 30
0.0
  0
ENDBLK
  5
14CFE
330
14CFC
100
AcDbEntity
  8
0
 48
50.0
100
AcDbBlockEnd
  0
BLOCK
  5
14D09
330
14D08
100
AcDbEntity
  8
0
 48
50.0
100
AcDbBlockBegin
  2
*D27
 70
     1
 10
0.0
 20
0.0
 30
0.0
  3
*D27
  1

  0
LINE
  5
15764
330
14D08
100
AcDbEntity
  8
寸法
 62
     0
 48
50.0
370
    -2
100
AcDbLine
 10
10331.2428286538
 20
3074.266628061264
 30
0.0
 11
10331.2428286538
 21
2602.649998417228
 31
0.0
  0
LINE
  5
15765
330
14D08
100
AcDbEntity
  8
寸法
 62
     0
 48
50.0
370
    -2
100
AcDbLine
 10
9806.242828653806
 20
3013.208796231384
 30
0.0
 11
9806.242828653806
 21
2602.649998417228
 31
0.0
  0
LINE
  5
15766
330
14D08
100
AcDbEntity
  8
寸法
 62
     0
 48
50.0
370
    -2
100
AcDbLine
 10
10331.2428286538
 20
2647.649998417228
 30
0.0
 11
9806.242828653806
 21
2647.649998417228
 31
0.0
  0
INSERT
  5
15767
330
14D08
100
AcDbEntity
  8
寸法
 62
     0
 48
50.0
370
    -2
100
AcDbBlockReference
  2
_DOTSMALL
 10
10331.2428286538
 20
2647.649998417228
 30
0.0
 41
75.0
 42
75.0
 43
75.0
  0
INSERT
  5
15768
330
14D08
100
AcDbEntity
  8
寸法
 62
     0
 48
50.0
370
    -2
100
AcDbBlockReference
  2
_DOTSMALL
 10
9806.242828653806
 20
2647.649998417228
 30
0.0
 41
75.0
 42
75.0
 43
75.0
 50
180.0
  0
MTEXT
  5
15769
330
14D08
100
AcDbEntity
  8
寸法
 62
     7
 48
50.0
100
AcDbMText
 10
10068.7428286538
 20
2722.658856684945
 30
0.0
 40
90.0
 41
0.0
 71
     5
 72
     1
  1
\A1;525
  7
STYLE1
 73
     1
 44
1.0
1001
ACAD
1000
MTEXTBEGIN
1070
    73
1070
     1
1070
    44
1040
1.0
1070
    74
1070
     0
1000
MTEXTEND
  0
POINT
  5
1576A
330
14D08
100
AcDbEntity
  8
DEFPOINTS
 62
     0
 48
50.0
100
AcDbPoint
 10
10331.2428286538
 20
3089.266628061264
 30
0.0
  0
POINT
  5
1576B
330
14D08
100
AcDbEntity
  8
DEFPOINTS
 62
     0
 48
50.0
100
AcDbPoint
 10
9806.242828653806
 20
3028.208796231384
 30
0.0
  0
POINT
  5
1576C
330
14D08
100
AcDbEntity
  8
DEFPOINTS
 62
     0
 48
50.0
100
AcDbPoint
 10
9806.242828653806
 20
2647.649998417228
 30
0.0
  0
ENDBLK
  5
14D0A
330
14D08
100
AcDbEntity
  8
0
 48
50.0
100
AcDbBlockEnd
  0
BLOCK
  5
14D15
330
14D14
100
AcDbEntity
  8
0
 48
50.0
100
AcDbBlockBegin
  2
*D28
 70
     1
 10
0.0
 20
0.0
 30
0.0
  3
*D28
  1

  0
LINE
  5
1576D
330
14D14
100
AcDbEntity
  8
寸法
 62
     0
 48
50.0
370
    -2
100
AcDbLine
 10
10911.04070621732
 20
3689.266628061264
 30
0.0
 11
11168.68419325453
 21
3689.266628061264
 31
0.0
  0
LINE
  5
1576E
330
14D14
100
AcDbEntity
  8
寸法
 62
     0
 48
50.0
370
    -2
100
AcDbLine
 10
10426.2428286538
 20
3089.266628061264
 30
0.0
 11
11168.68419325453
 21
3089.266628061264
 31
0.0
  0
LINE
  5
1576F
330
14D14
100
AcDbEntity
  8
寸法
 62
     0
 48
50.0
370
    -2
100
AcDbLine
 10
11123.68419325453
 20
3689.266628061264
 30
0.0
 11
11123.68419325453
 21
3089.266628061264
 31
0.0
  0
INSERT
  5
15770
330
14D14
100
AcDbEntity
  8
寸法
 62
     0
 48
50.0
370
    -2
100
AcDbBlockReference
  2
_DOTSMALL
 10
11123.68419325453
 20
3689.266628061264
 30
0.0
 41
75.0
 42
75.0
 43
75.0
 50
90.0
  0
INSERT
  5
15771
330
14D14
100
AcDbEntity
  8
寸法
 62
     0
 48
50.0
370
    -2
100
AcDbBlockReference
  2
_DOTSMALL
 10
11123.68419325453
 20
3089.266628061264
 30
0.0
 41
75.0
 42
75.0
 43
75.0
 50
270.0
  0
MTEXT
  5
15772
330
14D14
100
AcDbEntity
  8
寸法
 62
     7
 48
50.0
100
AcDbMText
 10
11048.68419325453
 20
3389.266628061265
 30
0.0
 40
90.0
 41
0.0
 71
     5
 72
     1
  1
\A1;600
  7
STYLE1
 11
0.0000000000000001
 21
1.0
 31
0.0
 73
     1
 44
1.0
1001
ACAD
1000
MTEXTBEGIN
1070
    73
1070
     1
1070
    44
1040
1.0
1070
    74
1070
     0
1000
MTEXTEND
  0
POINT
  5
15773
330
14D14
100
AcDbEntity
  8
DEFPOINTS
 62
     0
 48
50.0
100
AcDbPoint
 10
10896.04070621732
 20
3689.266628061264
 30
0.0
  0
POINT
  5
15774
330
14D14
100
AcDbEntity
  8
DEFPOINTS
 62
     0
 48
50.0
100
AcDbPoint
 10
10411.2428286538
 20
3089.266628061264
 30
0.0
  0
POINT
  5
15775
330
14D14
100
AcDbEntity
  8
DEFPOINTS
 62
     0
 48
50.0
100
AcDbPoint
 10
11123.68419325453
 20
3089.266628061264
 30
0.0
  0
ENDBLK
  5
14D16
330
14D14
100
AcDbEntity
  8
0
 48
50.0
100
AcDbBlockEnd
  0
BLOCK
  5
14D21
330
14D20
100
AcDbEntity
  8
0
 48
50.0
100
AcDbBlockBegin
  2
*D29
 70
     1
 10
0.0
 20
0.0
 30
0.0
  3
*D29
  1

  0
LINE
  5
15776
330
14D20
100
AcDbEntity
  8
寸法
 62
     0
 48
50.0
370
    -2
100
AcDbLine
 10
10846.2428286538
 20
3689.266628061264
 30
0.0
 11
11168.68419325453
 21
3689.266628061264
 31
0.0
  0
LINE
  5
15777
330
14D20
100
AcDbEntity
  8
寸法
 62
     0
 48
50.0
370
    -2
100
AcDbLine
 10
10846.24282865386
 20
3739.266628061264
 30
0.0
 11
11168.68419325453
 21
3739.266628061264
 31
0.0
  0
LINE
  5
15778
330
14D20
100
AcDbEntity
  8
寸法
 62
     0
 48
50.0
370
    -2
100
AcDbLine
 10
11123.68419325453
 20
3689.266628061264
 30
0.0
 11
11123.68419325453
 21
3614.266628061264
 31
0.0
  0
LINE
  5
15779
330
14D20
100
AcDbEntity
  8
寸法
 62
     0
 48
50.0
370
    -2
100
AcDbLine
 10
11123.68419325453
 20
3739.266628061264
 30
0.0
 11
11123.68419325453
 21
4048.337494203036
 31
0.0
  0
LINE
  5
1577A
330
14D20
100
AcDbEntity
  8
寸法
 62
     0
 48
50.0
370
    -2
100
AcDbLine
 10
11123.68419325453
 20
3689.266628061264
 30
0.0
 11
11123.68419325453
 21
3739.266628061264
 31
0.0
  0
INSERT
  5
1577B
330
14D20
100
AcDbEntity
  8
寸法
 62
     0
 48
50.0
370
    -2
100
AcDbBlockReference
  2
_DOTSMALL
 10
11123.68419325453
 20
3689.266628061264
 30
0.0
 41
75.0
 42
75.0
 43
75.0
 50
90.0
  0
INSERT
  5
1577C
330
14D20
100
AcDbEntity
  8
寸法
 62
     0
 48
50.0
370
    -2
100
AcDbBlockReference
  2
_DOTSMALL
 10
11123.68419325453
 20
3739.266628061264
 30
0.0
 41
75.0
 42
75.0
 43
75.0
 50
270.0
  0
MTEXT
  5
1577D
330
14D20
100
AcDbEntity
  8
寸法
 62
     7
 48
50.0
100
AcDbMText
 10
11048.68419325453
 20
3968.802061132173
 30
0.0
 40
90.0
 41
0.0
 71
     5
 72
     1
  1
\A1;50
  7
STYLE1
 11
0.0000000000000001
 21
1.0
 31
0.0
 73
     1
 44
1.0
1001
ACAD
1000
MTEXTBEGIN
1070
    73
1070
     1
1070
    44
1040
1.0
1070
    74
1070
     0
1000
MTEXTEND
  0
POINT
  5
1577E
330
14D20
100
AcDbEntity
  8
DEFPOINTS
 62
     0
 48
50.0
100
AcDbPoint
 10
10831.2428286538
 20
3689.266628061264
 30
0.0
  0
POINT
  5
1577F
330
14D20
100
AcDbEntity
  8
DEFPOINTS
 62
     0
 48
50.0
100
AcDbPoint
 10
10831.24282865386
 20
3739.266628061264
 30
0.0
  0
POINT
  5
15780
330
14D20
100
AcDbEntity
  8
DEFPOINTS
 62
     0
 48
50.0
100
AcDbPoint
 10
11123.68419325453
 20
3739.266628061264
 30
0.0
  0
ENDBLK
  5
14D22
330
14D20
100
AcDbEntity
  8
0
 48
50.0
100
AcDbBlockEnd
  0
BLOCK
  5
14D2F
330
14D2E
100
AcDbEntity
  8
0
 48
50.0
100
AcDbBlockBegin
  2
*D30
 70
     1
 10
0.0
 20
0.0
 30
0.0
  3
*D30
  1

  0
LINE
  5
15781
330
14D2E
100
AcDbEntity
  8
寸法
 62
     0
 48
50.0
370
    -2
100
AcDbLine
 10
10426.2428286538
 20
3089.266628061264
 30
0.0
 11
11168.68419325453
 21
3089.266628061264
 31
0.0
  0
LINE
  5
15782
330
14D2E
100
AcDbEntity
  8
寸法
 62
     0
 48
50.0
370
    -2
100
AcDbLine
 10
10426.2428286538
 20
3039.266628061263
 30
0.0
 11
11168.68419325453
 21
3039.266628061263
 31
0.0
  0
LINE
  5
15783
330
14D2E
100
AcDbEntity
  8
寸法
 62
     0
 48
50.0
370
    -2
100
AcDbLine
 10
11123.68419325453
 20
3089.266628061264
 30
0.0
 11
11123.68419325453
 21
3164.266628061263
 31
0.0
  0
LINE
  5
15784
330
14D2E
100
AcDbEntity
  8
寸法
 62
     0
 48
50.0
370
    -2
100
AcDbLine
 10
11123.68419325453
 20
3039.266628061263
 30
0.0
 11
11123.68419325453
 21
2730.195761919531
 31
0.0
  0
LINE
  5
15785
330
14D2E
100
AcDbEntity
  8
寸法
 62
     0
 48
50.0
370
    -2
100
AcDbLine
 10
11123.68419325453
 20
3089.266628061264
 30
0.0
 11
11123.68419325453
 21
3039.266628061263
 31
0.0
  0
INSERT
  5
15786
330
14D2E
100
AcDbEntity
  8
寸法
 62
     0
 48
50.0
370
    -2
100
AcDbBlockReference
  2
_DOTSMALL
 10
11123.68419325453
 20
3089.266628061264
 30
0.0
 41
75.0
 42
75.0
 43
75.0
 50
270.0
  0
INSERT
  5
15787
330
14D2E
100
AcDbEntity
  8
寸法
 62
     0
 48
50.0
370
    -2
100
AcDbBlockReference
  2
_DOTSMALL
 10
11123.68419325453
 20
3039.266628061263
 30
0.0
 41
75.0
 42
75.0
 43
75.0
 50
90.0
  0
MTEXT
  5
15788
330
14D2E
100
AcDbEntity
  8
寸法
 62
     7
 48
50.0
100
AcDbMText
 10
11048.68419325453
 20
2809.7311949904
 30
0.0
 40
90.0
 41
0.0
 71
     5
 72
     1
  1
\A1;50
  7
STYLE1
 11
0.0000000000000001
 21
1.0
 31
0.0
 73
     1
 44
1.0
1001
ACAD
1000
MTEXTBEGIN
1070
    73
1070
     1
1070
    44
1040
1.0
1070
    74
1070
     0
1000
MTEXTEND
  0
POINT
  5
15789
330
14D2E
100
AcDbEntity
  8
DEFPOINTS
 62
     0
 48
50.0
100
AcDbPoint
 10
10411.2428286538
 20
3089.266628061264
 30
0.0
  0
POINT
  5
1578A
330
14D2E
100
AcDbEntity
  8
DEFPOINTS
 62
     0
 48
50.0
100
AcDbPoint
 10
10411.2428286538
 20
3039.266628061263
 30
0.0
  0
POINT
  5
1578B
330
14D2E
100
AcDbEntity
  8
DEFPOINTS
 62
     0
 48
50.0
100
AcDbPoint
 10
11123.68419325453
 20
3039.266628061263
 30
0.0
  0
ENDBLK
  5
14D30
330
14D2E
100
AcDbEntity
  8
0
 48
50.0
100
AcDbBlockEnd
  0
BLOCK
  5
14D3D
330
14D3C
100
AcDbEntity
  8
0
 48
50.0
100
AcDbBlockBegin
  2
*D31
 70
     1
 10
0.0
 20
0.0
 30
0.0
  3
*D31
  1

  0
LINE
  5
1578C
330
14D3C
100
AcDbEntity
  8
寸法
 62
     0
 48
50.0
370
    -2
100
AcDbLine
 10
8853.061637568549
 20
3539.266628061249
 30
0.0
 11
8465.566532888827
 21
3539.266628061249
 31
0.0
  0
LINE
  5
1578D
330
14D3C
100
AcDbEntity
  8
寸法
 62
     0
 48
50.0
370
    -2
100
AcDbLine
 10
9335.242828653806
 20
3599.266628061249
 30
0.0
 11
8465.566532888827
 21
3599.26662806125
 31
0.0
  0
LINE
  5
1578E
330
14D3C
100
AcDbEntity
  8
寸法
 62
     0
 48
50.0
370
    -2
100
AcDbLine
 10
8510.566532888828
 20
3599.26662806125
 30
0.0
 11
8510.566532888828
 21
3539.266628061249
 31
0.0
  0
LINE
  5
1578F
330
14D3C
100
AcDbEntity
  8
寸法
 62
     0
 48
50.0
370
    -2
100
AcDbLine
 10
8510.566532888828
 20
3539.266628061249
 30
0.0
 11
8510.566532888828
 21
3299.809935147863
 31
0.0
  0
INSERT
  5
15790
330
14D3C
100
AcDbEntity
  8
寸法
 62
     0
 48
50.0
370
    -2
100
AcDbBlockReference
  2
_DOTSMALL
 10
8510.566532888828
 20
3599.26662806125
 30
0.0
 41
75.0
 42
75.0
 43
75.0
 50
90.0
  0
INSERT
  5
15791
330
14D3C
100
AcDbEntity
  8
寸法
 62
     0
 48
50.0
370
    -2
100
AcDbBlockReference
  2
_DOTSMALL
 10
8510.566532888828
 20
3539.266628061249
 30
0.0
 41
75.0
 42
75.0
 43
75.0
 50
270.0
  0
MTEXT
  5
15792
330
14D3C
100
AcDbEntity
  8
寸法
 62
     7
 48
50.0
100
AcDbMText
 10
8435.566532888827
 20
3382.038281604557
 30
0.0
 40
90.0
 41
0.0
 71
     5
 72
     1
  1
\A1;60
  7
STYLE1
 11
0.0000000000000001
 21
1.0
 31
0.0
 73
     1
 44
1.0
1001
ACAD
1000
MTEXTBEGIN
1070
    73
1070
     1
1070
    44
1040
1.0
1070
    74
1070
     0
1000
MTEXTEND
  0
POINT
  5
15793
330
14D3C
100
AcDbEntity
  8
DEFPOINTS
 62
     0
 48
50.0
100
AcDbPoint
 10
8868.061637568549
 20
3539.266628061249
 30
0.0
  0
POINT
  5
15794
330
14D3C
100
AcDbEntity
  8
DEFPOINTS
 62
     0
 48
50.0
100
AcDbPoint
 10
9350.242828653804
 20
3599.266628061249
 30
0.0
  0
POINT
  5
15795
330
14D3C
100
AcDbEntity
  8
DEFPOINTS
 62
     0
 48
50.0
100
AcDbPoint
 10
8510.566532888828
 20
3599.26662806125
 30
0.0
  0
ENDBLK
  5
14D3E
330
14D3C
100
AcDbEntity
  8
0
 48
50.0
100
AcDbBlockEnd
  0
BLOCK
  5
14D4A
330
14D49
100
AcDbEntity
  8
0
 48
50.0
100
AcDbBlockBegin
  2
*D32
 70
     1
 10
0.0
 20
0.0
 30
0.0
  3
*D32
  1

  0
LINE
  5
15796
330
14D49
100
AcDbEntity
  8
寸法
 62
     0
 48
50.0
370
    -2
100
AcDbLine
 10
8853.061637568549
 20
3539.266628061249
 30
0.0
 11
8665.742436282133
 21
3539.266628061249
 31
0.0
  0
LINE
  5
15797
330
14D49
100
AcDbEntity
  8
寸法
 62
     0
 48
50.0
370
    -2
100
AcDbLine
 10
9301.242828653805
 20
3569.266628061264
 30
0.0
 11
8665.742436282133
 21
3569.266628061264
 31
0.0
  0
LINE
  5
15798
330
14D49
100
AcDbEntity
  8
寸法
 62
     0
 48
50.0
370
    -2
100
AcDbLine
 10
8710.742436282133
 20
3569.266628061264
 30
0.0
 11
8710.742436282133
 21
3644.266628061264
 31
0.0
  0
LINE
  5
15799
330
14D49
100
AcDbEntity
  8
寸法
 62
     0
 48
50.0
370
    -2
100
AcDbLine
 10
8710.742436282133
 20
3539.266628061249
 30
0.0
 11
8710.742436282133
 21
3230.195761919516
 31
0.0
  0
LINE
  5
1579A
330
14D49
100
AcDbEntity
  8
寸法
 62
     0
 48
50.0
370
    -2
100
AcDbLine
 10
8710.742436282133
 20
3569.266628061264
 30
0.0
 11
8710.742436282133
 21
3539.266628061249
 31
0.0
  0
INSERT
  5
1579B
330
14D49
100
AcDbEntity
  8
寸法
 62
     0
 48
50.0
370
    -2
100
AcDbBlockReference
  2
_DOTSMALL
 10
8710.742436282133
 20
3569.266628061264
 30
0.0
 41
75.0
 42
75.0
 43
75.0
 50
270.0
  0
INSERT
  5
1579C
330
14D49
100
AcDbEntity
  8
寸法
 62
     0
 48
50.0
370
    -2
100
AcDbBlockReference
  2
_DOTSMALL
 10
8710.742436282133
 20
3539.266628061249
 30
0.0
 41
75.0
 42
75.0
 43
75.0
 50
90.0
  0
MTEXT
  5
1579D
330
14D49
100
AcDbEntity
  8
寸法
 62
     7
 48
50.0
100
AcDbMText
 10
8635.742436282134
 20
3309.731194990384
 30
0.0
 40
90.0
 41
0.0
 71
     5
 72
     1
  1
\A1;30
  7
STYLE1
 11
0.0000000000000001
 21
1.0
 31
0.0
 73
     1
 44
1.0
1001
ACAD
1000
MTEXTBEGIN
1070
    73
1070
     1
1070
    44
1040
1.0
1070
    74
1070
     0
1000
MTEXTEND
  0
POINT
  5
1579E
330
14D49
100
AcDbEntity
  8
DEFPOINTS
 62
     0
 48
50.0
100
AcDbPoint
 10
8868.061637568549
 20
3539.266628061249
 30
0.0
  0
POINT
  5
1579F
330
14D49
100
AcDbEntity
  8
DEFPOINTS
 62
     0
 48
50.0
100
AcDbPoint
 10
9316.242828653805
 20
3569.266628061264
 30
0.0
  0
POINT
  5
157A0
330
14D49
100
AcDbEntity
  8
DEFPOINTS
 62
     0
 48
50.0
100
AcDbPoint
 10
8710.742436282133
 20
3569.266628061264
 30
0.0
  0
ENDBLK
  5
14D4B
330
14D49
100
AcDbEntity
  8
0
 48
50.0
100
AcDbBlockEnd
  0
BLOCK
  5
153B1
330
153B0
100
AcDbEntity
  8
0
 48
50.0
100
AcDbBlockBegin
  2
*D33
 70
     1
 10
0.0
 20
0.0
 30
0.0
  3
*D33
  1

  0
LINE
  5
1571E
330
153B0
100
AcDbEntity
  8
寸法
 62
     0
 48
50.0
370
    -2
100
AcDbLine
 10
1771.003494576565
 20
4002.101800160539
 30
0.0
 11
1771.003494576566
 21
6085.090200330263
 31
0.0
  0
LINE
  5
1571F
330
153B0
100
AcDbEntity
  8
寸法
 62
     0
 48
50.0
370
    -2
100
AcDbLine
 10
4171.003494576562
 20
4002.101800160539
 30
0.0
 11
4171.003494576562
 21
6085.090200330263
 31
0.0
  0
LINE
  5
15720
330
153B0
100
AcDbEntity
  8
寸法
 62
     0
 48
50.0
370
    -2
100
AcDbLine
 10
1771.003494576566
 20
6040.090200330263
 30
0.0
 11
4171.003494576562
 21
6040.090200330263
 31
0.0
  0
INSERT
  5
15721
330
153B0
100
AcDbEntity
  8
寸法
 62
     0
 48
50.0
370
    -2
100
AcDbBlockReference
  2
_DOTSMALL
 10
1771.003494576566
 20
6040.090200330263
 30
0.0
 41
75.0
 42
75.0
 43
75.0
 50
180.0
  0
INSERT
  5
15722
330
153B0
100
AcDbEntity
  8
寸法
 62
     0
 48
50.0
370
    -2
100
AcDbBlockReference
  2
_DOTSMALL
 10
4171.003494576562
 20
6040.090200330263
 30
0.0
 41
75.0
 42
75.0
 43
75.0
  0
MTEXT
  5
15723
330
153B0
100
AcDbEntity
  8
寸法
 62
     7
 48
50.0
100
AcDbMText
 10
2971.003494576564
 20
6115.09905859798
 30
0.0
 40
90.0
 41
0.0
 71
     5
 72
     1
  1
\A1;2400
  7
STYLE1
 73
     1
 44
1.0
1001
ACAD
1000
MTEXTBEGIN
1070
    73
1070
     1
1070
    44
1040
1.0
1070
    74
1070
     0
1000
MTEXTEND
  0
POINT
  5
15724
330
153B0
100
AcDbEntity
  8
DEFPOINTS
 62
     0
 48
50.0
100
AcDbPoint
 10
1771.003494576565
 20
3987.101800160539
 30
-0.0000000000013153
  0
POINT
  5
15725
330
153B0
100
AcDbEntity
  8
DEFPOINTS
 62
     0
 48
50.0
100
AcDbPoint
 10
4171.003494576562
 20
3987.101800160539
 30
-0.0000000000013153
  0
POINT
  5
15726
330
153B0
100
AcDbEntity
  8
DEFPOINTS
 62
     0
 48
50.0
100
AcDbPoint
 10
4171.003494576562
 20
6040.090200330263
 30
0.0
  0
ENDBLK
  5
153B2
330
153B0
100
AcDbEntity
  8
0
 48
50.0
100
AcDbBlockEnd
  0
BLOCK
  5
153BE
330
153BD
100
AcDbEntity
  8
0
 48
50.0
100
AcDbBlockBegin
  2
*D34
 70
     1
 10
0.0
 20
0.0
 30
0.0
  3
*D34
  1

  0
LINE
  5
15727
330
153BD
100
AcDbEntity
  8
寸法
 62
     0
 48
50.0
370
    -2
100
AcDbLine
 10
4171.003494576566
 20
4002.101800160539
 30
0.0
 11
4171.003494576566
 21
6085.090200330263
 31
0.0
  0
LINE
  5
15728
330
153BD
100
AcDbEntity
  8
寸法
 62
     0
 48
50.0
370
    -2
100
AcDbLine
 10
4171.003494576566
 20
6040.090200330263
 30
0.0
 11
5291.003494576562
 21
6040.090200330263
 31
0.0
  0
INSERT
  5
15729
330
153BD
100
AcDbEntity
  8
寸法
 62
     0
 48
50.0
370
    -2
100
AcDbBlockReference
  2
_DOTSMALL
 10
4171.003494576566
 20
6040.090200330263
 30
0.0
 41
75.0
 42
75.0
 43
75.0
 50
180.0
  0
MTEXT
  5
1572A
330
153BD
100
AcDbEntity
  8
寸法
 62
     7
 48
50.0
100
AcDbMText
 10
4731.003494576563
 20
6115.09905859798
 30
0.0
 40
90.0
 41
0.0
 71
     5
 72
     1
  1
\A1;2400
  7
STYLE1
 73
     1
 44
1.0
1001
ACAD
1000
MTEXTBEGIN
1070
    73
1070
     1
1070
    44
1040
1.0
1070
    74
1070
     0
1000
MTEXTEND
  0
POINT
  5
1572B
330
153BD
100
AcDbEntity
  8
DEFPOINTS
 62
     0
 48
50.0
100
AcDbPoint
 10
4171.003494576566
 20
3987.101800160539
 30
-0.0000000000013153
  0
POINT
  5
1572C
330
153BD
100
AcDbEntity
  8
DEFPOINTS
 62
     0
 48
50.0
100
AcDbPoint
 10
5291.003494576562
 20
3987.101800160539
 30
-0.0000000000013153
  0
POINT
  5
1572D
330
153BD
100
AcDbEntity
  8
DEFPOINTS
 62
     0
 48
50.0
100
AcDbPoint
 10
5291.003494576562
 20
6040.090200330263
 30
0.0
  0
ENDBLK
  5
153BF
330
153BD
100
AcDbEntity
  8
0
 48
50.0
100
AcDbBlockEnd
  0
BLOCK
  5
1548D
330
1548C
100
AcDbEntity
  8
0
 48
50.0
100
AcDbBlockBegin
  2
*D35
 70
     1
 10
0.0
 20
0.0
 30
0.0
  3
*D35
  1

  0
LINE
  5
1572E
330
1548C
100
AcDbEntity
  8
寸法
 62
     0
 48
50.0
370
    -2
100
AcDbLine
 10
6571.003494576562
 20
4002.101800160539
 30
0.0
 11
6571.003494576562
 21
6085.090200330263
 31
0.0
  0
LINE
  5
1572F
330
1548C
100
AcDbEntity
  8
寸法
 62
     0
 48
50.0
370
    -2
100
AcDbLine
 10
6571.003494576562
 20
6040.090200330263
 30
0.0
 11
5371.003494576562
 21
6040.090200330263
 31
0.0
  0
INSERT
  5
15730
330
1548C
100
AcDbEntity
  8
寸法
 62
     0
 48
50.0
370
    -2
100
AcDbBlockReference
  2
_DOTSMALL
 10
6571.003494576562
 20
6040.090200330263
 30
0.0
 41
75.0
 42
75.0
 43
75.0
  0
MTEXT
  5
15731
330
1548C
100
AcDbEntity
  8
寸法
 62
     7
 48
50.0
100
AcDbMText
 10
5971.003494576562
 20
6115.09905859798
 30
0.0
 40
90.0
 41
0.0
 71
     5
 72
     1
  1
\A1;2400
  7
STYLE1
 73
     1
 44
1.0
1001
ACAD
1000
MTEXTBEGIN
1070
    73
1070
     1
1070
    44
1040
1.0
1070
    74
1070
     0
1000
MTEXTEND
  0
POINT
  5
15732
330
1548C
100
AcDbEntity
  8
DEFPOINTS
 62
     0
 48
50.0
100
AcDbPoint
 10
6571.003494576562
 20
3987.101800160539
 30
-0.0000000000013153
  0
POINT
  5
15733
330
1548C
100
AcDbEntity
  8
DEFPOINTS
 62
     0
 48
50.0
100
AcDbPoint
 10
5371.003494576562
 20
3987.101800160539
 30
-0.0000000000013153
  0
POINT
  5
15734
330
1548C
100
AcDbEntity
  8
DEFPOINTS
 62
     0
 48
50.0
100
AcDbPoint
 10
5371.003494576562
 20
6040.090200330263
 30
0.0
  0
ENDBLK
  5
1548E
330
1548C
100
AcDbEntity
  8
0
 48
50.0
100
AcDbBlockEnd
  0
ENDSEC
  0
SECTION
  2
ENTITIES
  0
MTEXT
  5
763F
330
747D
100
AcDbEntity
  8
0
100
AcDbMText
 10
302.846345836809
 20
280.1983726409901
 30
0.0
 40
3.5
 41
5.323721266742722
 71
     1
 72
     5
  1

  7
MSMINCHO
 73
     1
 44
1.0
1001
ACAD
1000
MTEXTBEGIN
1070
    73
1070
     1
1070
    44
1040
1.0
1070
    74
1070
     0
1000
MTEXTEND
  0
LINE
  5
10B56
330
747D
100
AcDbEntity
  8
補助
  6
PHANTOM
 62
   230
 48
50.0
100
AcDbLine
 10
105.0
 20
0.0
 30
0.0
 11
104.9999999999996
 21
8557.199999999999
 31
0.0
  0
LINE
  5
10B57
330
747D
100
AcDbEntity
  8
補助
  6
PHANTOM
 62
   230
 48
50.0
100
AcDbLine
 10
104.9999999999996
 20
8557.199999999999
 30
0.0
 11
12230.4
 21
8557.199999999999
 31
0.0
  0
LINE
  5
10B5E
330
747D
100
AcDbEntity
  8
補助
  6
PHANTOM
 62
   230
 48
50.0
100
AcDbLine
 10
12230.4
 20
8557.199999999999
 30
0.0
 11
12230.4
 21
900.0
 31
0.0
  0
LINE
  5
10B6D
330
747D
100
AcDbEntity
  8
補助
  6
PHANTOM
 62
   230
 48
50.0
100
AcDbLine
 10
9830.400000000002
 20
8557.199999999999
 30
0.0
 11
9830.400000000002
 21
3600.0
 31
0.0
  0
LINE
  5
10B6F
330
747D
100
AcDbEntity
  8
補助
  6
PHANTOM
 62
   230
 48
50.0
100
AcDbLine
 10
9830.400000000002
 20
3110.960973647383
 30
0.0
 11
12230.4
 21
3110.960973647383
 31
0.0
  0
LINE
  5
13125
330
747D
100
AcDbEntity
  8
補助
  6
PHANTOM
 62
   230
 48
50.0
100
AcDbLine
 10
11930.4
 20
8182.200000000003
 30
0.0
 11
11930.4
 21
6457.2
 31
0.0
  0
LINE
  5
13126
330
747D
100
AcDbEntity
  8
補助
  6
PHANTOM
 62
   230
 48
50.0
100
AcDbLine
 10
9380.400000000003
 20
8182.199999999999
 30
0.0
 11
9380.400000000003
 21
6457.2
 31
0.0
  0
LINE
  5
13127
330
747D
100
AcDbEntity
  8
補助
  6
PHANTOM
 62
   230
 48
50.0
100
AcDbLine
 10
9380.400000000003
 20
6457.2
 30
0.0
 11
11930.4
 21
6457.2
 31
0.0
  0
LINE
  5
13128
330
747D
100
AcDbEntity
  8
補助
  6
PHANTOM
 62
   230
 48
50.0
100
AcDbLine
 10
9380.400000000003
 20
8182.199999999999
 30
0.0
 11
11930.4
 21
8182.200000000003
 31
0.0
  0
LINE
  5
13A69
330
747D
100
AcDbEntity
  8
仕様書枠
  6
Continuous
 48
50.0
100
AcDbLine
 10
9830.400000000004
 20
900.0000000000037
 30
0.0
 11
9830.400000000004
 21
0.0
 31
0.0
  0
LINE
  5
13A6A
330
747D
100
AcDbEntity
  8
仕様書枠
 48
50.0
100
AcDbLine
 10
12230.4
 20
900.0000000000037
 30
0.0
 11
12230.4
 21
0.0
 31
0.0
  0
LINE
  5
13A6B
330
747D
100
AcDbEntity
  8
仕様書枠
 48
50.0
100
AcDbLine
 10
105.0
 20
0.0
 30
0.0
 11
12230.4
 21
0.0
 31
0.0
  0
LINE
  5
13A6C
330
747D
100
AcDbEntity
  8
仕様書枠
 48
50.0
100
AcDbLine
 10
9830.400000000004
 20
900.0000000000037
 30
0.0
 11
12230.4
 21
900.0000000000037
 31
0.0
  0
LINE
  5
13A6D
330
747D
100
AcDbEntity
  8
文字
 62
     7
 48
50.0
100
AcDbLine
 10
9890.400000000004
 20
300.0
 30
0.0
 11
12170.4
 21
300.0
 31
0.0
  0
TEXT
  5
13A6E
330
747D
100
AcDbEntity
  8
文字
 62
     7
 48
50.0
100
AcDbText
 10
9872.234292432683
 20
671.31795557246
 30
0.0
 40
150.0
  1
基 礎 図
  7
STYLE2
100
AcDbText
  0
TEXT
  5
13A6F
330
747D
100
AcDbEntity
  8
文字
 62
     7
 48
50.0
100
AcDbText
 10
9901.077524988318
 20
357.9555495773529
 30
0.0
 40
120.0
  1
機種名
  7
STYLE2
100
AcDbText
  0
TEXT
  5
13A70
330
747D
100
AcDbEntity
  8
文字
 62
     7
 48
50.0
100
AcDbText
 10
9907.054008162901
 20
171.4076431926805
 30
0.0
 40
60.0
  1
○間口寸法は柱芯寸法です。
  7
STYLE2
100
AcDbText
  0
TEXT
  5
13A71
330
747D
100
AcDbEntity
  8
文字
 62
     7
 48
50.0
100
AcDbText
 10
9907.054008162901
 20
57.07076030736789
 30
0.0
 40
60.0
  1
○寒冷地等は、地域の実情に合わせた基礎にしてください。
  7
STYLE2
100
AcDbText
  0
LINE
  5
13A72
330
747D
100
AcDbEntity
  8
仕様書枠
 48
50.0
100
AcDbLine
 10
9830.400000000004
 20
600.0000000000036
 30
0.0
 11
10688.4
 21
600.0000000000036
 31
0.0
  0
LINE
  5
13A73
330
747D
100
AcDbEntity
  8
仕様書枠
  6
Continuous
 48
50.0
100
AcDbLine
 10
10688.4
 20
900.0000000000037
 30
0.0
 11
10688.4
 21
600.0000000000036
 31
0.0
  0
TEXT
  5
13A74
330
747D
100
AcDbEntity
  8
文字
 62
     7
 48
50.0
100
AcDbText
 10
10951.9835159712
 20
362.922534743353
 30
0.0
 40
120.0
  1
BP-24VPL
  7
STYLE3
100
AcDbText
  0
TEXT
  5
13A75
330
747D
100
AcDbEntity
  8
文字
 62
     7
 48
50.0
100
AcDbText
 10
11138.71739229687
 20
628.6895453046927
 30
0.0
 40
75.0
  1
～一般型～
  7
STYLE2
100
AcDbText
  0
TEXT
  5
13A76
330
747D
100
AcDbEntity
  8
文字
 62
     7
 48
50.0
100
AcDbText
 10
10893.0988779165
 20
773.6682797184258
 30
0.0
 40
75.0
  1
             <縮尺> S=1/30
  7
STYLE2
100
AcDbText
  0
LINE
  5
147F7
330
747D
100
AcDbEntity
  8
細線
 48
50.0
100
AcDbLine
 10
9323.855929510465
 20
2939.266628061263
 30
0.0
 11
9317.157199699693
 21
2964.266628061264
 31
0.0
  0
LINE
  5
147F8
330
747D
100
AcDbEntity
  8
細線
 48
50.0
100
AcDbLine
 10
9200.593359280349
 20
2939.266628061263
 30
0.0
 11
9193.894629469578
 21
2964.266628061264
 31
0.0
  0
LINE
  5
147F9
330
747D
100
AcDbEntity
  8
細線
 48
50.0
100
AcDbLine
 10
9077.330789050291
 20
2939.266628061263
 30
0.0
 11
9070.632059239519
 21
2964.266628061264
 31
0.0
  0
LINE
  5
147FA
330
747D
100
AcDbEntity
  8
細線
 48
50.0
100
AcDbLine
 10
8954.068218820234
 20
2939.266628061263
 30
0.0
 11
8947.369489009464
 21
2964.266628061264
 31
0.0
  0
LINE
  5
147FB
330
747D
100
AcDbEntity
  8
細線
 48
50.0
100
AcDbLine
 10
9330.554659321235
 20
3014.266628061263
 30
0.0
 11
9323.855929510465
 21
3039.266628061263
 31
0.0
  0
LINE
  5
147FC
330
747D
100
AcDbEntity
  8
細線
 48
50.0
100
AcDbLine
 10
9207.292089091119
 20
3014.266628061263
 30
0.0
 11
9200.593359280349
 21
3039.266628061263
 31
0.0
  0
LINE
  5
147FD
330
747D
100
AcDbEntity
  8
細線
 48
50.0
100
AcDbLine
 10
8960.766948631004
 20
3014.266628061263
 30
0.0
 11
8954.068218820234
 21
3039.266628061263
 31
0.0
  0
LINE
  5
147FE
330
747D
100
AcDbEntity
  8
細線
 48
50.0
100
AcDbLine
 10
9084.029518861063
 20
3014.266628061263
 30
0.0
 11
9077.330789050291
 21
3039.266628061263
 31
0.0
  0
HATCH
  5
147FF
330
747D
100
AcDbEntity
  8
細線
 48
50.0
100
AcDbHatch
 10
0.0
 20
0.0
 30
0.0000000000013153
210
0.0
220
0.0
230
1.0
  2
PLAST
 70
     0
 71
     0
 91
       10
 92
        7
 72
     1
 73
     1
 93
       16
 10
9411.692828653817
 20
3753.266628061264
 42
0.0
 10
9397.692828653816
 20
3753.266628061264
 42
0.0
 10
9383.692828653817
 20
3739.266628061264
 42
0.0
 10
8431.242828653747
 20
3739.266628061264
 42
0.0
 10
8431.242828653806
 20
3639.266628061264
 42
0.0
 10
8931.242828653806
 20
3639.266628061264
 42
0.0
 10
8931.242828653806
 20
3539.266628061293
 42
0.0
 10
9256.242828653805
 20
3539.266628061293
 42
0.0
 10
9256.242828653805
 20
3574.266628061263
 42
0.0
 10
9251.242828653806
 20
3574.266628061263
 42
-0.4142135623730951
 10
9246.242828653805
 20
3579.266628061264
 42
-0.4142135623730951
 10
9251.242828653806
 20
3584.266628061263
 42
0.0
 10
9322.692828653817
 20
3584.266628061263
 42
0.0
 10
9322.692828653817
 20
3621.266628061264
 42
0.0
 10
9332.692828653817
 20
3631.266628061263
 42
0.0
 10
9411.692828653817
 20
3631.266628061263
 42
0.0
 97
        0
 92
       23
 72
     0
 73
     1
 93
        6
 10
9350.242828653804
 20
3569.266628061264
 10
9316.242828653805
 20
3569.266628061264
 10
9316.242828653805
 20
3574.266628061263
 10
9269.242828653807
 20
3574.266628061263
 10
9269.242828653807
 20
3539.266628061293
 10
9350.242828653804
 20
3539.266628061293
 97
        0
 92
        7
 72
     1
 73
     1
 93
        4
 10
9456.242828653804
 20
3569.266628061293
 42
0.0
 10
9362.242828653805
 20
3569.266628061278
 42
0.0
 10
9362.242828653805
 20
3539.266628061293
 42
0.0
 10
9411.597559293644
 20
3539.266628061293
 42
-0.304773531682055
 97
        0
 92
        7
 72
     1
 73
     1
 93
        4
 10
9550.242828653805
 20
3569.266628061264
 42
0.0
 10
9456.242828653804
 20
3569.266628061293
 42
-0.304773531682055
 10
9500.888098013966
 20
3539.266628061293
 42
0.0
 10
9550.242828653805
 20
3539.266628061293
 42
0.0
 97
        0
 92
        7
 72
     0
 73
     1
 93
        8
 10
9700.242828653806
 20
3569.266628061264
 10
9666.242828653807
 20
3569.266628061264
 10
9666.242828653807
 20
3574.266628061263
 10
9596.242828653805
 20
3574.266628061263
 10
9596.242828653805
 20
3569.266628061264
 10
9562.242828653806
 20
3569.266628061264
 10
9562.242828653806
 20
3539.266628061293
 10
9700.242828653806
 20
3539.266628061293
 97
        0
 92
        7
 72
     0
 73
     1
 93
       14
 10
9672.692828653817
 20
3621.266628061264
 10
9682.692828653818
 20
3631.266628061263
 10
9761.692828653817
 20
3631.266628061263
 10
9761.692828653817
 20
3753.266628061264
 10
9747.692828653818
 20
3753.266628061264
 10
9733.692828653817
 20
3739.266628061249
 10
9528.792828653793
 20
3739.266628061264
 10
9514.792828653851
 20
3753.266628061264
 10
9500.792828653793
 20
3753.266628061264
 10
9500.792828653793
 20
3631.266628061263
 10
9579.792828653793
 20
3631.266628061263
 10
9589.792828653793
 20
3621.266628061264
 10
9589.792828653793
 20
3584.266628061263
 10
9672.692828653817
 20
3584.266628061263
 97
        0
 92
        7
 72
     1
 73
     1
 93
        4
 10
9806.242828653806
 20
3569.266628061293
 42
0.0
 10
9712.242828653806
 20
3569.266628061278
 42
0.0
 10
9712.242828653806
 20
3539.266628061293
 42
0.0
 10
9761.597559293646
 20
3539.266628061293
 42
-0.3047735316820541
 97
        0
 92
        7
 72
     1
 73
     1
 93
        4
 10
9900.242828653805
 20
3569.266628061264
 42
0.0
 10
9806.242828653806
 20
3569.266628061293
 42
-0.3047735316820546
 10
9850.888098013967
 20
3539.266628061293
 42
0.0
 10
9900.242828653805
 20
3539.266628061293
 42
0.0
 97
        0
 92
       23
 72
     0
 73
     1
 93
        6
 10
9993.242828653805
 20
3574.266628061263
 10
9946.242828653806
 20
3574.266628061263
 10
9946.242828653806
 20
3569.266628061264
 10
9912.242828653806
 20
3569.266628061264
 10
9912.242828653806
 20
3539.266628061293
 10
9993.242828653805
 20
3539.266628061293
 97
        0
 92
        7
 72
     1
 73
     1
 93
       16
 10
10331.2428286538
 20
3639.266628061264
 42
0.0
 10
10831.2428286538
 20
3639.266628061264
 42
0.0
 10
10831.24282865386
 20
3739.266628061264
 42
0.0
 10
9878.792828653793
 20
3739.266628061264
 42
0.0
 10
9864.792828653852
 20
3753.266628061264
 42
0.0
 10
9850.792828653794
 20
3753.266628061264
 42
0.0
 10
9850.792828653794
 20
3631.266628061263
 42
0.0
 10
9929.792828653795
 20
3631.266628061263
 42
0.0
 10
9939.792828653793
 20
3621.266628061264
 42
0.0
 10
9939.792828653793
 20
3584.266628061263
 42
0.0
 10
10011.2428286538
 20
3584.266628061263
 42
-0.4142135623730951
 10
10016.2428286538
 20
3579.266628061264
 42
-0.4142135623730951
 10
10011.2428286538
 20
3574.266628061263
 42
0.0
 10
10006.2428286538
 20
3574.266628061263
 42
0.0
 10
10006.2428286538
 20
3539.266628061293
 42
0.0
 10
10331.2428286538
 20
3539.266628061293
 42
0.0
 97
        0
 75
     0
 76
     1
 52
45.0
 41
37.5
 77
     0
 78
     3
 53
45.0
 43
-267031.4725184735
 44
111450.0967102313
 45
-168.3798022700466
 46
168.3798022700466
 79
     0
 53
45.0
 43
-267052.5199937574
 44
111471.144185515
 45
-168.3798022700466
 46
168.3798022700466
 79
     0
 53
45.0
 43
-267073.5674690411
 44
111492.1916607988
 45
-168.3798022700466
 46
168.3798022700466
 79
     0
 47
2.934270310785949
 98
       10
 10
9172.701883962522
 20
3685.744341138593
 10
9305.809421185898
 20
3546.498571733932
 10
9394.134376750299
 20
3548.791617914819
 10
9523.753812220792
 20
3554.524338235135
 10
9637.314469375036
 20
3555.670966193679
 10
9639.608700193436
 20
3603.826194409502
 10
9750.874847391825
 20
3556.817384415992
 10
9878.200331181433
 20
3553.377920012792
 10
9963.084080086993
 20
3553.377920012792
 10
10229.77089684826
 20
3625.296892071305
1001
GradientColor1ACI
1070
     5
1001
GradientColor2ACI
1070
     2
1001
ACAD
1010
0.0
1020
0.0
1030
0.0
  0
CIRCLE
  5
14800
330
747D
100
AcDbEntity
  8
U7
100
AcDbCircle
 10
9251.242828653806
 20
3579.266628061264
 30
0.0
 40
5.0
  0
CIRCLE
  5
14801
330
747D
100
AcDbEntity
  8
U7
100
AcDbCircle
 10
10011.2428286538
 20
3579.266628061264
 30
0.0
 40
5.0
  0
LINE
  5
14802
330
747D
100
AcDbEntity
  8
U7
100
AcDbLine
 10
9251.242828653806
 20
3574.266628061263
 30
0.0
 11
10011.2428286538
 21
3574.266628061263
 31
0.0
  0
LINE
  5
14803
330
747D
100
AcDbEntity
  8
U7
100
AcDbLine
 10
9251.242828653806
 20
3584.266628061263
 30
0.0
 11
10011.2428286538
 21
3584.266628061263
 31
0.0
  0
HATCH
  5
14804
330
747D
100
AcDbEntity
  8
細線
 48
50.0
100
AcDbHatch
 10
0.0
 20
0.0
 30
0.0000000000013153
210
0.0
220
0.0
230
1.0
  2
PLAST
 70
     0
 71
     0
 91
       29
 92
        7
 72
     1
 73
     1
 93
       34
 10
9251.242828653806
 20
3384.266628061264
 42
0.0
 10
9256.242828653805
 20
3384.266628061264
 42
0.0
 10
9256.242828653805
 20
3474.266628061263
 42
0.0
 10
9251.242828653806
 20
3474.266628061263
 42
-0.4142135623730951
 10
9246.242828653805
 20
3479.266628061264
 42
-0.4142135623730951
 10
9251.242828653806
 20
3484.266628061263
 42
0.0
 10
9256.242828653805
 20
3484.266628061263
 42
0.0
 10
9256.242828653805
 20
3539.266628061293
 42
0.0
 10
8931.242828653806
 20
3539.266628061293
 42
0.0
 10
8931.242828653806
 20
3089.266628061264
 42
0.0
 10
9051.242828653805
 20
3089.266628061264
 42
0.0
 10
9115.523280215887
 20
3153.547079623344
 42
0.0
 10
9115.523280215887
 20
3164.266628061278
 42
0.0
 10
9126.242828653806
 20
3164.266628061278
 42
0.0
 10
9127.707294747844
 20
3165.731094155332
 42
-0.1989123673796434
 10
9126.242828653806
 20
3169.266628061264
 42
-1.0
 10
9136.242828653804
 20
3169.266628061264
 42
-0.4142135623730992
 10
9131.242828653805
 20
3164.266628061263
 42
0.0
 10
9186.971515744081
 20
3164.266628061263
 42
0.0
 10
9223.97151574408
 20
3201.266628061264
 42
0.0
 10
9080.792828653795
 20
3201.266628061264
 42
0.0
 10
9080.792828653795
 20
3214.266628061264
 42
0.0
 10
9226.242828653806
 20
3214.266628061264
 42
0.1260483184577218
 10
9240.666337916133
 20
3217.96145023333
 42
0.0
 10
9252.548006481752
 20
3229.843118798922
 42
0.1260483184577219
 10
9256.242828653805
 20
3244.266628061263
 42
0.0
 10
9256.242828653805
 20
3274.266628061263
 42
0.0
 10
9251.242828653806
 20
3274.266628061263
 42
-0.4142135623730951
 10
9246.242828653805
 20
3279.266628061264
 42
-0.4142135623730951
 10
9251.242828653806
 20
3284.266628061264
 42
0.0
 10
9256.242828653805
 20
3284.266628061264
 42
0.0
 10
9256.242828653805
 20
3374.266628061263
 42
0.0
 10
9251.242828653806
 20
3374.266628061263
 42
-0.4142135623730951
 10
9246.242828653805
 20
3379.266628061264
 42
-0.4142135623730951
 97
        0
 92
        7
 72
     0
 73
     1
 93
        4
 10
9350.242828653804
 20
3539.266628061293
 10
9269.242828653807
 20
3539.266628061293
 10
9269.242828653807
 20
3484.266628061263
 10
9350.242828653804
 20
3484.266628061263
 97
        0
 92
        7
 72
     0
 73
     1
 93
        4
 10
9350.242828653804
 20
3474.266628061263
 10
9269.242828653807
 20
3474.266628061263
 10
9269.242828653807
 20
3384.266628061264
 10
9350.242828653804
 20
3384.266628061264
 97
        0
 92
        7
 72
     1
 73
     1
 93
        7
 10
9350.242828653804
 20
3374.266628061263
 42
0.0
 10
9269.242828653807
 20
3374.266628061263
 42
0.0
 10
9269.242828653807
 20
3284.266628061264
 42
0.0
 10
9306.242828653806
 20
3284.266628061264
 42
0.0
 10
9306.242828653806
 20
3290.266628061264
 42
0.0
 10
9325.242828653804
 20
3290.266628061264
 42
0.4142135623730951
 10
9350.242828653804
 20
3315.266628061264
 42
0.0
 97
        0
 92
        7
 72
     1
 73
     1
 93
       12
 10
9456.242828653804
 20
3274.266628061263
 42
0.0
 10
9296.971515744081
 20
3274.266628061263
 42
0.0
 10
9269.242828653807
 20
3246.537940970988
 42
0.0
 10
9269.242828653807
 20
3244.266628061263
 42
-0.4142135623730951
 10
9226.242828653806
 20
3201.266628061264
 42
0.0
 10
9223.97151574408
 20
3201.266628061264
 42
0.0
 10
9186.971515744081
 20
3164.266628061278
 42
0.0
 10
9331.242828653804
 20
3164.266628061263
 42
-0.4142135623730918
 10
9326.242828653805
 20
3169.266628061264
 42
-1.0
 10
9336.242828653805
 20
3169.266628061264
 42
-0.4142135623730984
 10
9331.242828653804
 20
3164.266628061263
 42
0.0
 10
9456.242828653804
 20
3164.266628061263
 42
0.0
 97
        0
 92
       23
 72
     0
 73
     1
 93
        4
 10
9176.971515744082
 20
3154.266628061249
 10
9116.242828653806
 20
3154.266628061249
 10
9051.242828653805
 20
3089.266628061264
 10
9111.97151574408
 20
3089.266628061264
 97
        0
 92
        7
 72
     0
 73
     1
 93
        4
 10
9456.242828653804
 20
3154.266628061249
 10
9176.971515744082
 20
3154.266628061249
 10
9111.97151574408
 20
3089.266628061264
 10
9456.242828653804
 20
3089.266628061264
 97
        0
 92
        7
 72
     0
 73
     1
 93
        4
 10
9456.242828653804
 20
3539.266628061293
 10
9362.242828653805
 20
3539.266628061293
 10
9362.242828653805
 20
3484.266628061263
 10
9456.242828653804
 20
3484.266628061263
 97
        0
 92
        7
 72
     0
 73
     1
 93
        4
 10
9456.242828653804
 20
3474.266628061263
 10
9362.242828653805
 20
3474.266628061263
 10
9362.242828653805
 20
3384.266628061264
 10
9456.242828653804
 20
3384.266628061264
 97
        0
 92
        7
 72
     1
 73
     1
 93
        5
 10
9456.242828653804
 20
3374.266628061263
 42
0.0
 10
9362.242828653805
 20
3374.266628061263
 42
0.0
 10
9362.242828653805
 20
3315.266628061264
 42
-0.2535612698375805
 10
9345.441838530502
 20
3284.266628061264
 42
0.0
 10
9456.242828653804
 20
3284.266628061264
 42
0.0
 97
        0
 92
        7
 72
     0
 73
     1
 93
        4
 10
9806.242828653806
 20
3154.266628061264
 10
9456.242828653804
 20
3154.266628061249
 10
9456.242828653804
 20
3089.266628061264
 10
9806.242828653806
 20
3089.266628061264
 97
        0
 92
        7
 72
     1
 73
     1
 93
       12
 10
9806.242828653806
 20
3274.266628061263
 42
0.0
 10
9456.242828653804
 20
3274.266628061263
 42
0.0
 10
9456.242828653804
 20
3164.266628061278
 42
0.0
 10
9531.242828653805
 20
3164.266628061263
 42
-0.4142135623730918
 10
9526.242828653805
 20
3169.266628061264
 42
-1.0
 10
9536.242828653804
 20
3169.266628061264
 42
-0.4142135623730984
 10
9531.242828653805
 20
3164.266628061263
 42
0.0
 10
9731.242828653805
 20
3164.266628061263
 42
-0.4142135623730951
 10
9726.242828653806
 20
3169.266628061264
 42
-1.0
 10
9736.242828653805
 20
3169.266628061264
 42
-0.4142135623731017
 10
9731.242828653805
 20
3164.266628061263
 42
0.0
 10
9806.242828653806
 20
3164.266628061263
 42
0.0
 97
        0
 92
        7
 72
     1
 73
     1
 93
        5
 10
9550.242828653805
 20
3374.266628061263
 42
0.0
 10
9456.242828653804
 20
3374.266628061263
 42
0.0
 10
9456.242828653804
 20
3284.266628061264
 42
0.0
 10
9567.043818777106
 20
3284.266628061264
 42
-0.2535612698375802
 10
9550.242828653805
 20
3315.266628061264
 42
0.0
 97
        0
 92
        7
 72
     0
 73
     1
 93
        4
 10
9550.242828653805
 20
3474.266628061263
 10
9456.242828653804
 20
3474.266628061263
 10
9456.242828653804
 20
3384.266628061264
 10
9550.242828653805
 20
3384.266628061264
 97
        0
 92
        7
 72
     0
 73
     1
 93
        4
 10
9550.242828653805
 20
3539.266628061293
 10
9456.242828653804
 20
3539.266628061293
 10
9456.242828653804
 20
3484.266628061263
 10
9550.242828653805
 20
3484.266628061263
 97
        0
 92
        7
 72
     0
 73
     1
 93
        4
 10
9700.242828653806
 20
3539.266628061293
 10
9562.242828653806
 20
3539.266628061293
 10
9562.242828653806
 20
3484.266628061263
 10
9700.242828653806
 20
3484.266628061263
 97
        0
 92
        7
 72
     0
 73
     1
 93
        4
 10
9700.242828653806
 20
3474.266628061263
 10
9562.242828653806
 20
3474.266628061263
 10
9562.242828653806
 20
3384.266628061264
 10
9700.242828653806
 20
3384.266628061264
 97
        0
 92
        7
 72
     1
 73
     1
 93
       10
 10
9700.242828653806
 20
3374.266628061263
 42
0.0
 10
9562.242828653806
 20
3374.266628061263
 42
0.0
 10
9562.242828653806
 20
3315.266628061264
 42
0.4142135623730951
 10
9587.242828653804
 20
3290.266628061264
 42
0.0
 10
9606.242828653805
 20
3290.266628061264
 42
0.0
 10
9606.242828653805
 20
3284.266628061264
 42
0.0
 10
9656.242828653805
 20
3284.266628061264
 42
0.0
 10
9656.242828653805
 20
3290.266628061264
 42
0.0
 10
9675.242828653805
 20
3290.266628061264
 42
0.4142135623730951
 10
9700.242828653806
 20
3315.266628061264
 42
0.0
 97
        0
 92
        7
 72
     0
 73
     1
 93
        4
 10
9806.242828653806
 20
3539.266628061293
 10
9712.242828653806
 20
3539.266628061293
 10
9712.242828653806
 20
3484.266628061263
 10
9806.242828653806
 20
3484.266628061263
 97
        0
 92
        7
 72
     0
 73
     1
 93
        4
 10
9900.242828653805
 20
3539.266628061293
 10
9806.242828653806
 20
3539.266628061293
 10
9806.242828653806
 20
3484.266628061263
 10
9900.242828653805
 20
3484.266628061263
 97
        0
 92
        7
 72
     0
 73
     1
 93
        4
 10
9900.242828653805
 20
3474.266628061263
 10
9806.242828653806
 20
3474.266628061263
 10
9806.242828653806
 20
3384.266628061264
 10
9900.242828653805
 20
3384.266628061264
 97
        0
 92
        7
 72
     0
 73
     1
 93
        4
 10
9806.242828653806
 20
3474.266628061263
 10
9712.242828653806
 20
3474.266628061263
 10
9712.242828653806
 20
3384.266628061264
 10
9806.242828653806
 20
3384.266628061264
 97
        0
 92
        7
 72
     1
 73
     1
 93
        5
 10
9806.242828653806
 20
3374.266628061263
 42
0.0
 10
9712.242828653806
 20
3374.266628061263
 42
0.0
 10
9712.242828653806
 20
3315.266628061264
 42
-0.2535612698375804
 10
9695.441838530504
 20
3284.266628061264
 42
0.0
 10
9806.242828653806
 20
3284.266628061264
 42
0.0
 97
        0
 92
       23
 72
     1
 73
     1
 93
        5
 10
9900.242828653805
 20
3374.266628061263
 42
0.0
 10
9806.242828653806
 20
3374.266628061263
 42
0.0
 10
9806.242828653806
 20
3284.266628061264
 42
0.0
 10
9917.043818777107
 20
3284.266628061264
 42
-0.2535612698375802
 10
9900.242828653805
 20
3315.266628061264
 42
0.0
 97
        0
 92
        7
 72
     1
 73
     1
 93
       34
 10
9993.242828653922
 20
3244.266628061263
 42
0.0
 10
9993.242828653922
 20
3274.266628061263
 42
0.0
 10
9806.242828653806
 20
3274.266628061263
 42
0.0
 10
9806.242828653806
 20
3164.266628061263
 42
0.0
 10
9931.242828653806
 20
3164.266628061263
 42
-0.4142135623730885
 10
9926.242828653805
 20
3169.266628061264
 42
-1.0
 10
9936.242828653805
 20
3169.266628061264
 42
-0.4142135623731017
 10
9931.242828653806
 20
3164.266628061263
 42
0.0
 10
10131.2428286538
 20
3164.266628061263
 42
-0.4142135623730951
 10
10126.2428286538
 20
3169.266628061264
 42
-1.0
 10
10136.2428286538
 20
3169.266628061264
 42
-0.4142135623731017
 10
10131.2428286538
 20
3164.266628061263
 42
0.0
 10
10146.96237709172
 20
3164.266628061263
 42
0.0
 10
10146.96237709172
 20
3154.266628061264
 42
0.0
 10
9806.242828653806
 20
3154.266628061264
 42
0.0
 10
9806.242828653806
 20
3089.266628061264
 42
0.0
 10
10331.2428286538
 20
3089.266628061264
 42
0.0
 10
10331.2428286538
 20
3241.627790574627
 42
0.0
 10
10006.2428286538
 20
3429.266628061264
 42
0.0
 10
10006.2428286538
 20
3384.266628061264
 42
0.0
 10
10011.2428286538
 20
3384.266628061264
 42
-0.4142135623730951
 10
10016.2428286538
 20
3379.266628061264
 42
-0.4142135623730951
 10
10011.2428286538
 20
3374.266628061263
 42
0.0
 10
10006.2428286538
 20
3374.266628061263
 42
0.0
 10
10006.2428286538
 20
3284.266628061264
 42
0.0
 10
10011.2428286538
 20
3284.266628061264
 42
-0.4142135623730951
 10
10016.2428286538
 20
3279.266628061264
 42
-0.4142135623730951
 10
10011.2428286538
 20
3274.266628061263
 42
0.0
 10
10006.2428286538
 20
3274.266628061263
 42
0.0
 10
10006.24282865392
 20
3244.266628061263
 42
0.4142135623730951
 10
10036.24282865392
 20
3214.266628061264
 42
0.0
 10
10181.69282865393
 20
3214.266628061264
 42
0.0
 10
10181.69282865393
 20
3201.266628061264
 42
0.0
 10
10036.24282865392
 20
3201.266628061264
 42
-0.4142135623730945
 97
        0
 92
       23
 72
     1
 73
     1
 93
        7
 10
9993.242828653805
 20
3374.266628061263
 42
0.0
 10
9912.242828653806
 20
3374.266628061263
 42
0.0
 10
9912.242828653806
 20
3315.266628061264
 42
0.4142135623730946
 10
9937.242828653806
 20
3290.266628061264
 42
0.0
 10
9956.242828653806
 20
3290.266628061264
 42
0.0
 10
9956.242828653806
 20
3284.266628061264
 42
0.0
 10
9993.242828653805
 20
3284.266628061264
 42
0.0
 97
        0
 92
        7
 72
     0
 73
     1
 93
        4
 10
9993.242828653805
 20
3474.266628061263
 10
9912.242828653806
 20
3474.266628061263
 10
9912.242828653806
 20
3384.266628061264
 10
9993.242828653805
 20
3384.266628061264
 97
        0
 92
        7
 72
     0
 73
     1
 93
        4
 10
9993.242828653805
 20
3539.266628061293
 10
9912.242828653806
 20
3539.266628061293
 10
9912.242828653806
 20
3484.266628061263
 10
9993.242828653805
 20
3484.266628061263
 97
        0
 92
        7
 72
     1
 73
     1
 93
        9
 10
10331.2428286538
 20
3539.266628061293
 42
0.0
 10
10006.2428286538
 20
3539.266628061293
 42
0.0
 10
10006.2428286538
 20
3484.266628061263
 42
0.0
 10
10011.2428286538
 20
3484.266628061263
 42
-0.4142135623730951
 10
10016.2428286538
 20
3479.266628061264
 42
-0.4142135623730951
 10
10011.2428286538
 20
3474.266628061263
 42
0.0
 10
10006.2428286538
 20
3474.266628061263
 42
0.0
 10
10006.2428286538
 20
3429.266628061264
 42
0.0
 10
10331.2428286538
 20
3241.627790574627
 42
0.0
 97
        0
 75
     0
 76
     1
 52
135.0
 41
37.5
 77
     0
 78
     3
 53
135.0
 43
-267031.4725184735
 44
111450.0967102313
 45
-168.3798022700466
 46
-168.3798022700466
 79
     0
 53
135.0
 43
-267052.5199937574
 44
111429.0492349475
 45
-168.3798022700466
 46
-168.3798022700466
 79
     0
 53
135.0
 43
-267073.5674690411
 44
111408.0017596638
 45
-168.3798022700466
 46
-168.3798022700466
 79
     0
 47
2.834284063646393
 98
       29
 10
9114.672554801771
 20
3380.429006919864
 10
9310.327261044207
 20
3507.971914273791
 10
9307.491503545229
 20
3428.611920317798
 10
9315.998217767193
 20
3318.074845803714
 10
9335.847403710038
 20
3213.20631232417
 10
9103.330362218345
 20
3122.509236299101
 10
9205.410932881788
 20
3122.509236299101
 10
9418.078788430634
 20
3513.640455308329
 10
9412.40783170765
 20
3431.446295703167
 10
9412.40783170765
 20
3315.240470418316
 10
9582.542116146738
 20
3125.34361168447
 10
9559.85745184237
 20
3227.377769778616
 10
9508.817166510651
 20
3349.251926361775
 10
9514.488402371149
 20
3454.12045984132
 10
9508.817166510651
 20
3513.640455308329
 10
9644.924594061945
 20
3510.80607992293
 10
9633.582401478518
 20
3422.943379283259
 10
9633.582401478518
 20
3329.41192787279
 10
9738.498450503422
 20
3513.640455308329
 10
9849.086014526344
 20
3516.474830693699
 10
9868.934921331733
 20
3437.114836737706
 10
9769.689829029754
 20
3425.777754668629
 10
9764.018593169312
 20
3332.24630325816
 10
9851.921492887807
 20
3326.577762223622
 10
9877.441635553696
 20
3224.543394393246
 10
9951.166585189787
 20
3326.577762223622
 10
9942.659870967823
 20
3422.943379283259
 10
9951.166585189787
 20
3496.634832204715
 10
10126.97210548937
 20
3496.634832204715
1001
GradientColor1ACI
1070
     5
1001
GradientColor2ACI
1070
     2
1001
ACAD
1010
0.0
1020
0.0
1030
0.0
  0
CIRCLE
  5
14805
330
747D
100
AcDbEntity
  8
U7
100
AcDbCircle
 10
9251.242828653806
 20
3479.266628061264
 30
0.0
 40
5.0
  0
CIRCLE
  5
14806
330
747D
100
AcDbEntity
  8
U7
100
AcDbCircle
 10
10011.2428286538
 20
3479.266628061264
 30
0.0
 40
5.0
  0
LINE
  5
14807
330
747D
100
AcDbEntity
  8
U7
100
AcDbLine
 10
9251.242828653806
 20
3474.266628061263
 30
0.0
 11
10011.2428286538
 21
3474.266628061263
 31
0.0
  0
CIRCLE
  5
14808
330
747D
100
AcDbEntity
  8
U7
100
AcDbCircle
 10
9251.242828653806
 20
3379.266628061264
 30
0.0
 40
5.0
  0
LINE
  5
14809
330
747D
100
AcDbEntity
  8
U7
100
AcDbLine
 10
9251.242828653806
 20
3484.266628061263
 30
0.0
 11
10011.2428286538
 21
3484.266628061263
 31
0.0
  0
CIRCLE
  5
1480A
330
747D
100
AcDbEntity
  8
U7
100
AcDbCircle
 10
10011.2428286538
 20
3379.266628061264
 30
0.0
 40
5.0
  0
LINE
  5
1480B
330
747D
100
AcDbEntity
  8
U7
100
AcDbLine
 10
9251.242828653806
 20
3374.266628061263
 30
0.0
 11
10011.2428286538
 21
3374.266628061263
 31
0.0
  0
LINE
  5
1480C
330
747D
100
AcDbEntity
  8
U7
100
AcDbLine
 10
9251.242828653806
 20
3384.266628061264
 30
0.0
 11
10011.2428286538
 21
3384.266628061264
 31
0.0
  0
CIRCLE
  5
1480D
330
747D
100
AcDbEntity
  8
U7
100
AcDbCircle
 10
10011.2428286538
 20
3279.266628061264
 30
0.0
 40
5.0
  0
CIRCLE
  5
1480E
330
747D
100
AcDbEntity
  8
U7
100
AcDbCircle
 10
9251.242828653806
 20
3279.266628061264
 30
0.0
 40
5.0
  0
LINE
  5
1480F
330
747D
100
AcDbEntity
  8
U7
100
AcDbLine
 10
9251.242828653806
 20
3284.266628061264
 30
0.0
 11
10011.2428286538
 21
3284.266628061264
 31
0.0
  0
LINE
  5
14810
330
747D
100
AcDbEntity
  8
U7
100
AcDbLine
 10
9251.242828653806
 20
3274.266628061263
 30
0.0
 11
10011.2428286538
 21
3274.266628061263
 31
0.0
  0
LINE
  5
14811
330
747D
100
AcDbEntity
  8
KIN-T
100
AcDbLine
 10
10181.69282865393
 20
3201.266628061264
 30
0.0
 11
10036.24282865392
 21
3201.266628061264
 31
0.0
  0
LINE
  5
14812
330
747D
100
AcDbEntity
  8
KIN-T
100
AcDbLine
 10
10181.69282865393
 20
3214.266628061264
 30
0.0
 11
10181.69282865393
 21
3201.266628061264
 31
0.0
  0
LINE
  5
14813
330
747D
100
AcDbEntity
  8
KIN-T
100
AcDbLine
 10
9993.242828653805
 20
3584.266628061263
 30
0.0
 11
10006.2428286538
 21
3584.266628061263
 31
0.0
  0
ARC
  5
14814
330
747D
100
AcDbEntity
  8
KIN-T
100
AcDbCircle
 10
10036.24282865392
 20
3244.266628061263
 30
0.0
 40
43.0
100
AcDbArc
 50
180.0
 51
270.0
  0
ARC
  5
14815
330
747D
100
AcDbEntity
  8
KIN-T
100
AcDbCircle
 10
10036.24282865392
 20
3244.266628061263
 30
0.0
 40
30.0
100
AcDbArc
 50
180.0
 51
270.0
  0
LINE
  5
14816
330
747D
100
AcDbEntity
  8
KIN-T
100
AcDbLine
 10
9993.242828653805
 20
3584.266628061263
 30
0.0
 11
9993.242828653805
 21
3244.266628061263
 31
0.0
  0
LINE
  5
14817
330
747D
100
AcDbEntity
  8
KIN-T
100
AcDbLine
 10
10006.2428286538
 20
3584.266628061263
 30
0.0
 11
10006.2428286538
 21
3244.266628061263
 31
0.0
  0
ARC
  5
14818
330
747D
100
AcDbEntity
  8
KIN-T
100
AcDbCircle
 10
9226.242828653806
 20
3244.266628061263
 30
0.0
 40
43.0
100
AcDbArc
 50
270.0
 51
0.0
  0
LINE
  5
14819
330
747D
100
AcDbEntity
  8
KIN-T
100
AcDbLine
 10
10181.69282865393
 20
3214.266628061264
 30
0.0
 11
10036.24282865392
 21
3214.266628061264
 31
0.0
  0
LINE
  5
1481A
330
747D
100
AcDbEntity
  8
KIN-T
100
AcDbLine
 10
9080.792828653795
 20
3214.266628061264
 30
0.0
 11
9080.792828653795
 21
3201.266628061264
 31
0.0
  0
LINE
  5
1481B
330
747D
100
AcDbEntity
  8
KIN-T
100
AcDbLine
 10
9080.792828653795
 20
3201.266628061264
 30
0.0
 11
9226.242828653806
 21
3201.266628061264
 31
0.0
  0
LINE
  5
1481C
330
747D
100
AcDbEntity
  8
KIN-T
100
AcDbLine
 10
9256.242828653805
 20
3584.266628061263
 30
0.0
 11
9269.242828653807
 21
3584.266628061263
 31
0.0
  0
ARC
  5
1481D
330
747D
100
AcDbEntity
  8
KIN-T
100
AcDbCircle
 10
9226.242828653806
 20
3244.266628061263
 30
0.0
 40
30.0
100
AcDbArc
 50
270.0
 51
0.0
  0
LINE
  5
1481E
330
747D
100
AcDbEntity
  8
KIN-T
100
AcDbLine
 10
9269.242828653807
 20
3584.266628061263
 30
0.0
 11
9269.242828653807
 21
3244.266628061263
 31
0.0
  0
LINE
  5
1481F
330
747D
100
AcDbEntity
  8
部品1
 48
50.0
100
AcDbLine
 10
9115.523280215887
 20
3164.266628061278
 30
0.0
 11
10146.96237709172
 21
3164.266628061263
 31
0.0
  0
LINE
  5
14820
330
747D
100
AcDbEntity
  8
KIN-T
100
AcDbLine
 10
9256.242828653805
 20
3584.266628061263
 30
0.0
 11
9256.242828653805
 21
3244.266628061263
 31
0.0
  0
LINE
  5
14821
330
747D
100
AcDbEntity
  8
KIN-T
100
AcDbLine
 10
9080.792828653795
 20
3214.266628061264
 30
0.0
 11
9226.242828653806
 21
3214.266628061264
 31
0.0
  0
CIRCLE
  5
14822
330
747D
100
AcDbEntity
  8
部品1
 48
50.0
100
AcDbCircle
 10
10131.2428286538
 20
3169.266628061264
 30
0.0
 40
5.0
  0
LINE
  5
14823
330
747D
100
AcDbEntity
  8
部品1
 48
50.0
100
AcDbLine
 10
10146.96237709172
 20
3164.266628061263
 30
0.0
 11
10146.96237709172
 21
3154.266628061264
 31
0.0
  0
CIRCLE
  5
14824
330
747D
100
AcDbEntity
  8
部品1
 48
50.0
100
AcDbCircle
 10
9331.242828653804
 20
3169.266628061264
 30
0.0
 40
5.0
  0
CIRCLE
  5
14825
330
747D
100
AcDbEntity
  8
部品1
 48
50.0
100
AcDbCircle
 10
9531.242828653805
 20
3169.266628061264
 30
0.0
 40
5.0
  0
CIRCLE
  5
14826
330
747D
100
AcDbEntity
  8
部品1
 48
50.0
100
AcDbCircle
 10
9731.242828653805
 20
3169.266628061264
 30
0.0
 40
5.0
  0
CIRCLE
  5
14827
330
747D
100
AcDbEntity
  8
部品1
 48
50.0
100
AcDbCircle
 10
9931.242828653806
 20
3169.266628061264
 30
0.0
 40
5.0
  0
LINE
  5
14828
330
747D
100
AcDbEntity
  8
部品1
 48
50.0
100
AcDbLine
 10
9115.523280215887
 20
3154.266628061249
 30
0.0
 11
10146.96237709172
 21
3154.266628061264
 31
0.0
  0
HATCH
  5
14829
330
747D
100
AcDbEntity
  8
細線
 48
50.0
100
AcDbHatch
 10
0.0
 20
0.0
 30
0.0000000000013153
210
0.0
220
0.0
230
1.0
  2
PLAST
 70
     0
 71
     0
 91
        4
 92
        7
 72
     0
 73
     1
 93
        4
 10
9456.242828653804
 20
3089.266628061264
 10
8851.242828653806
 20
3089.266628061264
 10
8851.242828653806
 20
3039.266628061263
 10
9456.242828653804
 20
3039.266628061263
 97
        0
 92
        7
 72
     0
 73
     1
 93
        4
 10
9631.242828653805
 20
3089.266628061264
 10
9456.242828653804
 20
3089.266628061264
 10
9456.242828653804
 20
3039.266628061263
 10
9631.242828653805
 20
3039.266628061263
 97
        0
 92
        7
 72
     0
 73
     1
 93
        4
 10
9806.242828653806
 20
3089.266628061264
 10
9631.242828653805
 20
3089.266628061264
 10
9631.242828653805
 20
3039.266628061263
 10
9806.242828653806
 20
3039.266628061263
 97
        0
 92
        7
 72
     0
 73
     1
 93
        4
 10
10411.2428286538
 20
3089.266628061264
 10
9806.242828653806
 20
3089.266628061264
 10
9806.242828653806
 20
3039.266628061263
 10
10411.2428286538
 20
3039.266628061263
 97
        0
 75
     0
 76
     1
 52
45.0
 41
37.5
 77
     0
 78
     3
 53
45.0
 43
-262621.3487414073
 44
111450.0967102313
 45
-168.3798022700466
 46
168.3798022700466
 79
     0
 53
45.0
 43
-262642.396216691
 44
111471.144185515
 45
-168.3798022700466
 46
168.3798022700466
 79
     0
 53
45.0
 43
-262663.4436919748
 44
111492.1916607988
 45
-168.3798022700466
 46
168.3798022700466
 79
     0
 47
3.405378208606371
 98
        4
 10
9358.861445895659
 20
3054.578818088734
 10
9512.173231916356
 20
3064.794860019075
 10
9719.995819361386
 20
3054.578818088734
 10
9910.783484777814
 20
3057.984095486771
1001
GradientColor1ACI
1070
     5
1001
GradientColor2ACI
1070
     2
1001
ACAD
1010
0.0
1020
0.0
1030
0.0
  0
LINE
  5
1482A
330
747D
100
AcDbEntity
  8
細線
 48
50.0
100
AcDbLine
 10
8940.670759198694
 20
2939.266628061263
 30
0.0000000000013153
 11
8967.465678441774
 21
3039.266628061235
 31
0.0000000000013153
1001
GradientColor1ACI
1070
     5
1001
GradientColor2ACI
1070
     2
1001
ACAD
1010
0.0
1020
0.0
1030
0.0
  0
LINE
  5
1482B
330
747D
100
AcDbEntity
  8
細線
 48
50.0
100
AcDbLine
 10
9063.933329428808
 20
2939.266628061263
 30
0.0000000000013153
 11
9090.728248671892
 21
3039.266628061263
 31
0.0000000000013153
1001
GradientColor1ACI
1070
     5
1001
GradientColor2ACI
1070
     2
1001
ACAD
1010
0.0
1020
0.0
1030
0.0
  0
LINE
  5
1482C
330
747D
100
AcDbEntity
  8
細線
 48
50.0
100
AcDbLine
 10
9187.195899658808
 20
2939.266628061263
 30
0.0000000000013153
 11
9213.990818901947
 21
3039.266628061263
 31
0.0000000000013153
1001
GradientColor1ACI
1070
     5
1001
GradientColor2ACI
1070
     2
1001
ACAD
1010
0.0
1020
0.0
1030
0.0
  0
LINE
  5
1482D
330
747D
100
AcDbEntity
  8
細線
 48
50.0
100
AcDbLine
 10
9310.458469888923
 20
2939.266628061263
 30
0.0000000000013153
 11
9337.253389132007
 21
3039.266628061263
 31
0.0000000000013153
1001
GradientColor1ACI
1070
     5
1001
GradientColor2ACI
1070
     2
1001
ACAD
1010
0.0
1020
0.0
1030
0.0
  0
LINE
  5
1482E
330
747D
100
AcDbEntity
  8
細線
 48
50.0
100
AcDbLine
 10
9433.721040119039
 20
2939.266628061263
 30
0.0000000000013153
 11
9460.515959362121
 21
3039.266628061263
 31
0.0000000000013153
1001
GradientColor1ACI
1070
     5
1001
GradientColor2ACI
1070
     2
1001
ACAD
1010
0.0
1020
0.0
1030
0.0
  0
LINE
  5
1482F
330
747D
100
AcDbEntity
  8
細線
 48
50.0
100
AcDbLine
 10
9556.983610349037
 20
2939.266628061263
 30
0.0000000000013153
 11
9583.778529592178
 21
3039.266628061263
 31
0.0000000000013153
1001
GradientColor1ACI
1070
     5
1001
GradientColor2ACI
1070
     2
1001
ACAD
1010
0.0
1020
0.0
1030
0.0
  0
LINE
  5
14830
330
747D
100
AcDbEntity
  8
細線
 48
50.0
100
AcDbLine
 10
9680.246180579153
 20
2939.266628061263
 30
0.0000000000013153
 11
9707.041099822236
 21
3039.266628061263
 31
0.0000000000013153
1001
GradientColor1ACI
1070
     5
1001
GradientColor2ACI
1070
     2
1001
ACAD
1010
0.0
1020
0.0
1030
0.0
  0
LINE
  5
14831
330
747D
100
AcDbEntity
  8
細線
 48
50.0
100
AcDbLine
 10
9803.508750809271
 20
2939.266628061263
 30
0.0000000000013153
 11
9830.303670052352
 21
3039.266628061263
 31
0.0000000000013153
1001
GradientColor1ACI
1070
     5
1001
GradientColor2ACI
1070
     2
1001
ACAD
1010
0.0
1020
0.0
1030
0.0
  0
LINE
  5
14832
330
747D
100
AcDbEntity
  8
細線
 48
50.0
100
AcDbLine
 10
9926.771321039268
 20
2939.266628061278
 30
0.0000000000013153
 11
9953.566240282409
 21
3039.266628061263
 31
0.0000000000013153
1001
GradientColor1ACI
1070
     5
1001
GradientColor2ACI
1070
     2
1001
ACAD
1010
0.0
1020
0.0
1030
0.0
  0
LINE
  5
14833
330
747D
100
AcDbEntity
  8
細線
 48
50.0
100
AcDbLine
 10
10050.03389126938
 20
2939.266628061263
 30
0.0000000000013153
 11
10076.82881051247
 21
3039.266628061278
 31
0.0000000000013153
1001
GradientColor1ACI
1070
     5
1001
GradientColor2ACI
1070
     2
1001
ACAD
1010
0.0
1020
0.0
1030
0.0
  0
LINE
  5
14834
330
747D
100
AcDbEntity
  8
細線
 48
50.0
100
AcDbLine
 10
10173.29646149944
 20
2939.266628061278
 30
0.0000000000013153
 11
10200.09138074258
 21
3039.266628061263
 31
0.0000000000013153
1001
GradientColor1ACI
1070
     5
1001
GradientColor2ACI
1070
     2
1001
ACAD
1010
0.0
1020
0.0
1030
0.0
  0
LINE
  5
14835
330
747D
100
AcDbEntity
  8
細線
 48
50.0
100
AcDbLine
 10
10296.5590317295
 20
2939.266628061263
 30
0.0000000000013153
 11
10323.35395097264
 21
3039.266628061263
 31
0.0000000000013153
1001
GradientColor1ACI
1070
     5
1001
GradientColor2ACI
1070
     2
1001
ACAD
1010
0.0
1020
0.0
1030
0.0
  0
LINE
  5
14836
330
747D
100
AcDbEntity
  8
部品1
 48
50.0
100
AcDbLine
 10
10411.2428286538
 20
3039.266628061263
 30
0.0
 11
8851.242828653806
 21
3039.266628061263
 31
0.0
  0
LINE
  5
14837
330
747D
100
AcDbEntity
  8
文字
 48
50.0
100
AcDbLine
 10
10048.83245482799
 20
2026.078755889483
 30
0.0
 11
10048.83245482799
 21
1802.953755889483
 31
0.0
  0
LINE
  5
14838
330
747D
100
AcDbEntity
  8
文字
 48
50.0
100
AcDbLine
 10
9213.653202479617
 20
2026.078755889483
 30
0.0
 11
9213.653202479617
 21
1802.953755889483
 31
0.0
  0
TEXT
  5
14839
330
747D
100
AcDbEntity
  8
文字
 62
     7
 48
50.0
100
AcDbText
 10
9280.238009892316
 20
1860.437296862847
 30
0.0
 40
112.5
  1
A-A' 断面
  7
STYLE2
100
AcDbText
  0
LINE
  5
1483A
330
747D
100
AcDbEntity
  8
文字
 48
50.0
100
AcDbLine
 10
9213.653202479617
 20
1802.953755889483
 30
0.0
 11
10048.83245482799
 21
1802.953755889483
 31
0.0
  0
LINE
  5
1483B
330
747D
100
AcDbEntity
  8
文字
 48
50.0
100
AcDbLine
 10
9213.653202479617
 20
2026.078755889483
 30
0.0
 11
10048.83245482799
 21
2026.078755889483
 31
0.0
  0
LINE
  5
1483C
330
747D
100
AcDbEntity
  8
部品1
 48
50.0
100
AcDbLine
 10
9500.792828653793
 20
3089.266628061264
 30
0.0
 11
9411.692828653817
 21
3089.266628061264
 31
0.0
  0
LINE
  5
1483D
330
747D
100
AcDbEntity
  8
細線
 48
50.0
100
AcDbLine
 10
8485.127423507016
 20
3539.266628061293
 30
0.0000000000013153
 11
8511.922342750098
 21
3639.266628061278
 31
0.0000000000013153
1001
GradientColor1ACI
1070
     5
1001
GradientColor2ACI
1070
     2
1001
ACAD
1010
0.0
1020
0.0
1030
0.0
  0
LINE
  5
1483E
330
747D
100
AcDbEntity
  8
細線
 48
50.0
100
AcDbLine
 10
8608.389993737073
 20
3539.266628061307
 30
0.0000000000013153
 11
8635.184912980156
 21
3639.266628061264
 31
0.0000000000013153
1001
GradientColor1ACI
1070
     5
1001
GradientColor2ACI
1070
     2
1001
ACAD
1010
0.0
1020
0.0
1030
0.0
  0
LINE
  5
1483F
330
747D
100
AcDbEntity
  8
細線
 48
50.0
100
AcDbLine
 10
8731.652563967131
 20
3539.266628061293
 30
0.0000000000013153
 11
8758.447483210272
 21
3639.266628061264
 31
0.0000000000013153
1001
GradientColor1ACI
1070
     5
1001
GradientColor2ACI
1070
     2
1001
ACAD
1010
0.0
1020
0.0
1030
0.0
  0
LINE
  5
14840
330
747D
100
AcDbEntity
  8
細線
 48
50.0
100
AcDbLine
 10
8854.915134197247
 20
3539.266628061278
 30
0.0000000000013153
 11
8881.710053440329
 21
3639.266628061264
 31
0.0000000000013153
1001
GradientColor1ACI
1070
     5
1001
GradientColor2ACI
1070
     2
1001
ACAD
1010
0.0
1020
0.0
1030
0.0
  0
LINE
  5
14841
330
747D
100
AcDbEntity
  8
細線
 48
50.0
100
AcDbLine
 10
10334.06597695811
 20
3539.266628061235
 30
0.0000000000013153
 11
10360.86089620125
 21
3639.266628061264
 31
0.0000000000013153
1001
GradientColor1ACI
1070
     5
1001
GradientColor2ACI
1070
     2
1001
ACAD
1010
0.0
1020
0.0
1030
0.0
  0
LINE
  5
14842
330
747D
100
AcDbEntity
  8
細線
 48
50.0
100
AcDbLine
 10
10457.32854718817
 20
3539.266628061278
 30
0.0000000000013153
 11
10484.12346643131
 21
3639.266628061264
 31
0.0000000000013153
1001
GradientColor1ACI
1070
     5
1001
GradientColor2ACI
1070
     2
1001
ACAD
1010
0.0
1020
0.0
1030
0.0
  0
LINE
  5
14843
330
747D
100
AcDbEntity
  8
細線
 48
50.0
100
AcDbLine
 10
10580.59111741828
 20
3539.266628061293
 30
0.0000000000013153
 11
10607.38603666136
 21
3639.266628061264
 31
0.0000000000013153
1001
GradientColor1ACI
1070
     5
1001
GradientColor2ACI
1070
     2
1001
ACAD
1010
0.0
1020
0.0
1030
0.0
  0
LINE
  5
14844
330
747D
100
AcDbEntity
  8
細線
 48
50.0
100
AcDbLine
 10
10703.85368764834
 20
3539.266628061278
 30
0.0000000000013153
 11
10730.64860689148
 21
3639.266628061264
 31
0.0000000000013153
1001
GradientColor1ACI
1070
     5
1001
GradientColor2ACI
1070
     2
1001
ACAD
1010
0.0
1020
0.0
1030
0.0
  0
LINE
  5
14845
330
747D
100
AcDbEntity
  8
細線
 48
50.0
100
AcDbLine
 10
10827.1162578784
 20
3539.266628061293
 30
0.0000000000013153
 11
10831.2428286538
 21
3554.667199856197
 31
0.0000000000013153
1001
GradientColor1ACI
1070
     5
1001
GradientColor2ACI
1070
     2
1001
ACAD
1010
0.0
1020
0.0
1030
0.0
  0
LINE
  5
14846
330
747D
100
AcDbEntity
  8
部品1
 48
50.0
100
AcDbLine
 10
10331.2428286538
 20
3089.266628061264
 30
0.0
 11
10331.2428286538
 21
3639.266628061264
 31
0.0
  0
LINE
  5
14847
330
747D
100
AcDbEntity
  8
部品1
 48
50.0
100
AcDbLine
 10
8931.242828653806
 20
3639.266628061264
 30
0.0
 11
8931.242828653806
 21
3089.266628061264
 31
0.0
  0
LINE
  5
14848
330
747D
100
AcDbEntity
  8
部品1
 48
50.0
100
AcDbLine
 10
10411.2428286538
 20
3089.266628061264
 30
0.0
 11
8851.242828653806
 21
3089.266628061264
 31
0.0
  0
LINE
  5
14849
330
747D
100
AcDbEntity
  8
部品1
 48
50.0
100
AcDbLine
 10
9733.692828653817
 20
3739.266628061249
 30
0.0
 11
9528.792828653793
 21
3739.266628061264
 31
0.0
  0
LINE
  5
1484A
330
747D
100
AcDbEntity
  8
部品1
 48
50.0
100
AcDbLine
 10
10831.2428286538
 20
3539.266628061293
 30
0.0
 11
8431.242828653806
 21
3539.266628061293
 31
0.0
  0
LINE
  5
1484B
330
747D
100
AcDbEntity
  8
部品1
 48
50.0
100
AcDbLine
 10
10411.2428286538
 20
2939.266628061263
 30
0.0
 11
8851.242828653806
 21
2939.266628061263
 31
0.0
  0
LINE
  5
1484C
330
747D
100
AcDbEntity
  8
部品1
 48
50.0
100
AcDbLine
 10
9397.692828653816
 20
3753.266628061264
 30
0.0
 11
9383.692828653817
 21
3739.266628061264
 31
0.0
  0
LINE
  5
1484D
330
747D
100
AcDbEntity
  8
部品1
 48
50.0
100
AcDbLine
 10
9397.692828653816
 20
3753.266628061264
 30
0.0
 11
9411.692828653817
 21
3753.266628061264
 31
0.0
  0
LINE
  5
1484E
330
747D
100
AcDbEntity
  8
部品1
 48
50.0
100
AcDbLine
 10
9500.792828653793
 20
3753.266628061264
 30
0.0
 11
9514.792828653794
 21
3753.266628061264
 31
0.0
  0
LINE
  5
1484F
330
747D
100
AcDbEntity
  8
部品1
 48
50.0
100
AcDbLine
 10
9514.792828653851
 20
3753.266628061264
 30
0.0
 11
9528.792828653793
 21
3739.266628061264
 31
0.0
  0
LINE
  5
14850
330
747D
100
AcDbEntity
  8
部品1
 48
50.0
100
AcDbLine
 10
9383.692828653817
 20
3739.266628061264
 30
0.0
 11
8431.242828653747
 21
3739.266628061264
 31
0.0
  0
LINE
  5
14851
330
747D
100
AcDbEntity
  8
部品1
 48
50.0
100
AcDbLine
 10
8931.242828653806
 20
3639.266628061264
 30
0.0
 11
8431.242828653806
 21
3639.266628061264
 31
0.0
  0
LINE
  5
14852
330
747D
100
AcDbEntity
  8
部品1
 48
50.0
100
AcDbLine
 10
10411.2428286538
 20
3089.266628061264
 30
0.0
 11
10411.2428286538
 21
2939.266628061263
 31
0.0
  0
LINE
  5
14853
330
747D
100
AcDbEntity
  8
部品1
 48
50.0
100
AcDbLine
 10
8851.242828653806
 20
3089.266628061264
 30
0.0
 11
8851.242828653806
 21
2939.266628061263
 31
0.0
  0
LINE
  5
14854
330
747D
100
AcDbEntity
  8
Ｇ．Ｌ
 48
50.0
100
AcDbLine
 10
10831.2428286538
 20
3689.266628061264
 30
0.0
 11
11885.35677915861
 21
3689.266628061264
 31
0.0
  0
MTEXT
  5
14855
330
747D
100
AcDbEntity
  8
寸法
 62
     7
 48
50.0
100
AcDbMText
 10
11352.16342046836
 20
3741.539355333984
 30
0.0
 40
100.0
 41
1.0
 71
     4
 72
     1
  1
▽G.L
  7
STYLE2
 73
     1
 44
1.0
1001
ACAD
1000
MTEXTBEGIN
1070
    73
1070
     1
1070
    44
1040
1.0
1070
    74
1070
     0
1000
MTEXTEND
  0
LINE
  5
14856
330
747D
100
AcDbEntity
  8
部品1
 48
50.0
100
AcDbLine
 10
9747.692828653818
 20
3753.266628061264
 30
0.0
 11
9733.692828653817
 21
3739.266628061264
 31
0.0
  0
LINE
  5
14857
330
747D
100
AcDbEntity
  8
部品1
 48
50.0
100
AcDbLine
 10
9864.792828653852
 20
3753.266628061264
 30
0.0
 11
9878.792828653793
 21
3739.266628061264
 31
0.0
  0
LINE
  5
14858
330
747D
100
AcDbEntity
  8
部品1
 48
50.0
100
AcDbLine
 10
10331.24282865386
 20
3639.266628061264
 30
0.0
 11
10831.2428286538
 21
3639.266628061264
 31
0.0
  0
LINE
  5
14859
330
747D
100
AcDbEntity
  8
部品1
 48
50.0
100
AcDbLine
 10
9850.792828653794
 20
3753.266628061264
 30
0.0
 11
9864.792828653794
 21
3753.266628061264
 31
0.0
  0
LINE
  5
1485A
330
747D
100
AcDbEntity
  8
部品1
 48
50.0
100
AcDbLine
 10
9747.692828653818
 20
3753.266628061264
 30
0.0
 11
9761.692828653817
 21
3753.266628061264
 31
0.0
  0
LINE
  5
1485B
330
747D
100
AcDbEntity
  8
部品1
 48
50.0
100
AcDbLine
 10
9878.792828653793
 20
3739.266628061264
 30
0.0
 11
10831.24282865386
 21
3739.266628061264
 31
0.0
  0
LINE
  5
1485C
330
747D
100
AcDbEntity
  8
部品1
 48
50.0
100
AcDbLine
 10
9115.523280215887
 20
3164.266628061263
 30
0.0
 11
9115.523280215887
 21
3154.266628061264
 31
0.0
  0
CIRCLE
  5
1485D
330
747D
100
AcDbEntity
  8
部品1
 48
50.0
100
AcDbCircle
 10
9131.242828653805
 20
3169.266628061264
 30
0.0
 40
5.0
  0
LINE
  5
1485E
330
747D
100
AcDbEntity
  8
細線
 48
50.0
100
AcDbLine
 10
9447.118499740581
 20
2939.266628061263
 30
0.0
 11
9440.419769929809
 21
2964.266628061264
 31
0.0
  0
LINE
  5
1485F
330
747D
100
AcDbEntity
  8
細線
 48
50.0
100
AcDbLine
 10
9453.817229551351
 20
3014.266628061263
 30
0.0
 11
9447.118499740581
 21
3039.266628061263
 31
0.0
  0
LINE
  5
14860
330
747D
100
AcDbEntity
  8
細線
 48
50.0
100
AcDbLine
 10
9570.381069970638
 20
2939.266628061263
 30
0.0
 11
9563.682340159868
 21
2964.266628061264
 31
0.0
  0
LINE
  5
14861
330
747D
100
AcDbEntity
  8
細線
 48
50.0
100
AcDbLine
 10
9577.079799781408
 20
3014.266628061263
 30
0.0
 11
9570.381069970638
 21
3039.266628061263
 31
0.0
  0
LINE
  5
14862
330
747D
100
AcDbEntity
  8
細線
 48
50.0
100
AcDbLine
 10
9693.643640200695
 20
2939.266628061263
 30
0.0
 11
9686.944910389925
 21
2964.266628061264
 31
0.0
  0
LINE
  5
14863
330
747D
100
AcDbEntity
  8
細線
 48
50.0
100
AcDbLine
 10
9700.342370011465
 20
3014.266628061263
 30
0.0
 11
9693.643640200695
 21
3039.266628061263
 31
0.0
  0
LINE
  5
14864
330
747D
100
AcDbEntity
  8
細線
 48
50.0
100
AcDbLine
 10
9816.906210430811
 20
2939.266628061263
 30
0.0
 11
9810.207480620041
 21
2964.266628061264
 31
0.0
  0
LINE
  5
14865
330
747D
100
AcDbEntity
  8
細線
 48
50.0
100
AcDbLine
 10
9823.604940241581
 20
3014.266628061263
 30
0.0
 11
9816.906210430811
 21
3039.266628061263
 31
0.0
  0
LINE
  5
14866
330
747D
100
AcDbEntity
  8
細線
 48
50.0
100
AcDbLine
 10
9940.168780660869
 20
2939.266628061263
 30
0.0
 11
9933.470050850097
 21
2964.266628061264
 31
0.0
  0
LINE
  5
14867
330
747D
100
AcDbEntity
  8
細線
 48
50.0
100
AcDbLine
 10
9946.867510471639
 20
3014.266628061263
 30
0.0
 11
9940.168780660869
 21
3039.266628061263
 31
0.0
  0
LINE
  5
14868
330
747D
100
AcDbEntity
  8
細線
 48
50.0
100
AcDbLine
 10
10063.43135089092
 20
2939.266628061263
 30
-0.0000000000013153
 11
10056.73262108015
 21
2964.266628061264
 31
-0.0000000000013153
  0
LINE
  5
14869
330
747D
100
AcDbEntity
  8
細線
 48
50.0
100
AcDbLine
 10
10070.13008070169
 20
3014.266628061263
 30
-0.0000000000013153
 11
10063.43135089092
 21
3039.266628061263
 31
-0.0000000000013153
  0
LINE
  5
1486A
330
747D
100
AcDbEntity
  8
細線
 48
50.0
100
AcDbLine
 10
10186.69392112104
 20
2939.266628061263
 30
0.0
 11
10179.99519131027
 21
2964.266628061264
 31
0.0
  0
LINE
  5
1486B
330
747D
100
AcDbEntity
  8
細線
 48
50.0
100
AcDbLine
 10
10193.39265093181
 20
3014.266628061263
 30
0.0
 11
10186.69392112104
 21
3039.266628061263
 31
0.0
  0
LINE
  5
1486C
330
747D
100
AcDbEntity
  8
細線
 48
50.0
100
AcDbLine
 10
10309.9564913511
 20
2939.266628061263
 30
0.0
 11
10303.25776154032
 21
2964.266628061264
 31
0.0
  0
LINE
  5
1486D
330
747D
100
AcDbEntity
  8
細線
 48
50.0
100
AcDbLine
 10
10316.65522116187
 20
3014.266628061263
 30
0.0
 11
10309.9564913511
 21
3039.266628061263
 31
0.0
  0
LINE
  5
1486E
330
747D
100
AcDbEntity
  8
細線
 48
50.0
100
AcDbLine
 10
8498.524883128558
 20
3539.266628061293
 30
-0.0000000000013153
 11
8491.826153317786
 21
3564.266628061293
 31
-0.0000000000013153
  0
LINE
  5
1486F
330
747D
100
AcDbEntity
  8
細線
 48
50.0
100
AcDbLine
 10
8505.223612939328
 20
3614.266628061293
 30
-0.0000000000013153
 11
8498.524883128558
 21
3639.266628061293
 31
-0.0000000000013153
  0
LINE
  5
14870
330
747D
100
AcDbEntity
  8
細線
 48
50.0
100
AcDbLine
 10
8621.787453358614
 20
3539.266628061278
 30
-0.0000000000013153
 11
8615.088723547843
 21
3564.266628061278
 31
-0.0000000000013153
  0
LINE
  5
14871
330
747D
100
AcDbEntity
  8
細線
 48
50.0
100
AcDbLine
 10
8628.486183169385
 20
3614.266628061278
 30
-0.0000000000013153
 11
8621.787453358614
 21
3639.266628061278
 31
-0.0000000000013153
  0
LINE
  5
14872
330
747D
100
AcDbEntity
  8
細線
 48
50.0
100
AcDbLine
 10
8745.05002358873
 20
3539.266628061278
 30
-0.0000000000013153
 11
8738.351293777959
 21
3564.266628061278
 31
-0.0000000000013153
  0
LINE
  5
14873
330
747D
100
AcDbEntity
  8
細線
 48
50.0
100
AcDbLine
 10
8751.748753399501
 20
3614.266628061278
 30
-0.0000000000013153
 11
8745.05002358873
 21
3639.266628061278
 31
-0.0000000000013153
  0
LINE
  5
14874
330
747D
100
AcDbEntity
  8
細線
 48
50.0
100
AcDbLine
 10
8868.312593818789
 20
3539.266628061278
 30
-0.0000000000013153
 11
8861.613864008017
 21
3564.266628061278
 31
-0.0000000000013153
  0
LINE
  5
14875
330
747D
100
AcDbEntity
  8
細線
 48
50.0
100
AcDbLine
 10
8875.011323629559
 20
3614.266628061278
 30
-0.0000000000013153
 11
8868.312593818789
 21
3639.266628061278
 31
-0.0000000000013153
  0
LINE
  5
14876
330
747D
100
AcDbEntity
  8
細線
 48
50.0
100
AcDbLine
 10
10347.46343657971
 20
3539.266628061278
 30
-0.0000000000013153
 11
10340.76470676894
 21
3564.266628061278
 31
-0.0000000000013153
  0
LINE
  5
14877
330
747D
100
AcDbEntity
  8
細線
 48
50.0
100
AcDbLine
 10
10354.16216639048
 20
3614.266628061278
 30
-0.0000000000013153
 11
10347.46343657971
 21
3639.266628061278
 31
-0.0000000000013153
  0
LINE
  5
14878
330
747D
100
AcDbEntity
  8
細線
 48
50.0
100
AcDbLine
 10
10470.72600680976
 20
3539.266628061278
 30
-0.0000000000013153
 11
10464.02727699899
 21
3564.266628061278
 31
-0.0000000000013153
  0
LINE
  5
14879
330
747D
100
AcDbEntity
  8
細線
 48
50.0
100
AcDbLine
 10
10477.42473662054
 20
3614.266628061278
 30
-0.0000000000013153
 11
10470.72600680976
 21
3639.266628061278
 31
-0.0000000000013153
  0
LINE
  5
1487A
330
747D
100
AcDbEntity
  8
細線
 48
50.0
100
AcDbLine
 10
10593.98857703982
 20
3539.266628061278
 30
-0.0000000000013153
 11
10587.28984722905
 21
3564.266628061278
 31
-0.0000000000013153
  0
LINE
  5
1487B
330
747D
100
AcDbEntity
  8
細線
 48
50.0
100
AcDbLine
 10
10600.68730685059
 20
3614.266628061278
 30
-0.0000000000013153
 11
10593.98857703982
 21
3639.266628061278
 31
-0.0000000000013153
  0
LINE
  5
1487C
330
747D
100
AcDbEntity
  8
細線
 48
50.0
100
AcDbLine
 10
10717.25114726994
 20
3539.266628061278
 30
-0.0000000000013153
 11
10710.55241745917
 21
3564.266628061278
 31
-0.0000000000013153
  0
LINE
  5
1487D
330
747D
100
AcDbEntity
  8
細線
 48
50.0
100
AcDbLine
 10
10723.94987708071
 20
3614.266628061278
 30
-0.0000000000013153
 11
10717.25114726994
 21
3639.266628061278
 31
-0.0000000000013153
  0
MTEXT
  5
1487E
330
747D
100
AcDbEntity
  8
寸法
 62
     7
 48
50.0
100
AcDbMText
 10
10828.69968037764
 20
3791.539355333984
 30
0.0
 40
100.0
 41
1.0
 71
     5
 72
     1
  1
▽Ｆ.L
  7
STYLE2
 73
     1
 44
1.0
1001
ACAD
1000
MTEXTBEGIN
1070
    73
1070
     1
1070
    44
1040
1.0
1070
    74
1070
     0
1000
MTEXTEND
  0
LINE
  5
1487F
330
747D
100
AcDbEntity
  8
寸法
 48
50.0
100
AcDbLine
 10
8664.563552529639
 20
3813.874044263432
 30
0.0
 11
8733.214770394756
 21
3832.269082649803
 31
0.0
  0
LINE
  5
14880
330
747D
100
AcDbEntity
  8
寸法
 48
50.0
100
AcDbLine
 10
8664.563552529639
 20
3813.874044263432
 30
0.0
 11
9293.816048117442
 21
3813.874044263432
 31
0.0
  0
LINE
  5
14881
330
747D
100
AcDbEntity
  8
寸法
 48
50.0
100
AcDbLine
 10
8664.563552529639
 20
3813.874044263432
 30
0.0
 11
8733.214770394756
 21
3795.479005877047
 31
0.0
  0
TEXT
  5
14882
330
747D
100
AcDbEntity
  8
寸法
 62
     7
 48
50.0
100
AcDbText
 10
8762.796993529278
 20
3999.261079905411
 30
0.0
 40
90.0
  1
水勾配
 41
0.8
  7
STYLE1
100
AcDbText
  0
TEXT
  5
14883
330
747D
100
AcDbEntity
  8
寸法
 62
     7
 48
50.0
100
AcDbText
 10
8729.533500557911
 20
3850.922567783319
 30
0.0
 40
90.0
  1
１／１００
 41
0.8
  7
STYLE1
100
AcDbText
  0
LINE
  5
14884
330
747D
100
AcDbEntity
  8
寸法
 48
50.0
100
AcDbLine
 10
10597.92210477797
 20
3813.874044263432
 30
0.0
 11
10529.27088691285
 21
3832.269082649803
 31
0.0
  0
LINE
  5
14885
330
747D
100
AcDbEntity
  8
寸法
 48
50.0
100
AcDbLine
 10
10597.92210477797
 20
3813.874044263432
 30
0.0
 11
9968.66960919017
 21
3813.874044263432
 31
0.0
  0
LINE
  5
14886
330
747D
100
AcDbEntity
  8
寸法
 48
50.0
100
AcDbLine
 10
10597.92210477797
 20
3813.874044263432
 30
0.0
 11
10529.27088691285
 21
3795.479005877047
 31
0.0
  0
TEXT
  5
14887
330
747D
100
AcDbEntity
  8
寸法
 62
     7
 48
50.0
100
AcDbText
 10
10066.90305018981
 20
3999.261079905411
 30
0.0
 40
90.0
  1
水勾配
 41
0.8
  7
STYLE1
100
AcDbText
  0
TEXT
  5
14888
330
747D
100
AcDbEntity
  8
寸法
 62
     7
 48
50.0
100
AcDbText
 10
10033.63955721844
 20
3850.922567783319
 30
0.0
 40
90.0
  1
１／１００
 41
0.8
  7
STYLE1
100
AcDbText
  0
DIMENSION
  5
14889
330
747D
100
AcDbEntity
  8
寸法
 48
50.0
100
AcDbDimension
  2
*D22
 10
8280.661701551842
 20
3739.266628061264
 30
0.0
 11
8280.661701551842
 21
3916.302061132172
 31
0.0
 70
   160
 71
     5
 42
100.0
  3
INABA_S30G
100
AcDbAlignedDimension
 13
8431.242828653747
 23
3639.266628061264
 33
0.0
 14
8431.242828653747
 24
3739.266628061264
 34
0.0
 50
90.0
100
AcDbRotatedDimension
  0
DIMENSION
  5
1488A
330
747D
100
AcDbEntity
  8
寸法
 48
50.0
100
AcDbDimension
  2
*D23
 10
8280.661701551842
 20
3539.266628061264
 30
0.0
 11
8280.661701551842
 21
3362.231194990398
 31
0.0
 70
   160
 71
     5
 42
100.0
  3
INABA_S30G
100
AcDbAlignedDimension
 13
8431.242828653747
 23
3639.266628061264
 33
0.0
 14
8431.242828653747
 24
3539.266628061264
 34
0.0
 50
90.0
100
AcDbRotatedDimension
  0
DIMENSION
  5
1488B
330
747D
100
AcDbEntity
  8
寸法
 48
50.0
100
AcDbDimension
  2
*D24
 10
9456.242828653804
 20
2647.649998417228
 30
0.0
 11
9193.742828653805
 21
2722.658856684945
 31
0.0
 70
    32
 71
     5
 42
525.0
  3
INABA_S30G
100
AcDbAlignedDimension
 13
8931.242828653806
 23
3089.266628061264
 33
0.0
 14
9456.242828653804
 24
3028.208796231384
 34
0.0
100
AcDbRotatedDimension
  0
DIMENSION
  5
1488C
330
747D
100
AcDbEntity
  8
寸法
 48
50.0
100
AcDbDimension
  2
*D25
 10
8931.242828653806
 20
2417.564437328477
 30
0.0
 11
9631.242828653805
 21
2492.564437328477
 31
0.0
 70
    32
 71
     5
 42
1400.0
  3
INABA_S30G
100
AcDbAlignedDimension
 13
10331.2428286538
 23
3089.266628061264
 33
0.0
 14
8931.242828653806
 24
3089.266628061264
 34
0.0
100
AcDbRotatedDimension
  0
DIMENSION
  5
1488D
330
747D
100
AcDbEntity
  8
寸法
 48
50.0
100
AcDbDimension
  2
*D26
 10
9806.242828653806
 20
2647.649998417228
 30
0.0
 11
9631.242828653805
 21
2722.649998417228
 31
0.0
 70
    32
 71
     5
 42
350.0
  3
INABA_S30G
100
AcDbAlignedDimension
 13
9456.242828653804
 23
3028.208796231384
 33
0.0
 14
9806.242828653806
 24
3028.208796231384
 34
0.0
100
AcDbRotatedDimension
  0
DIMENSION
  5
1488E
330
747D
100
AcDbEntity
  8
寸法
 48
50.0
100
AcDbDimension
  2
*D27
 10
9806.242828653806
 20
2647.649998417228
 30
0.0
 11
10068.7428286538
 21
2722.658856684945
 31
0.0
 70
    32
 71
     5
 42
525.0
  3
INABA_S30G
100
AcDbAlignedDimension
 13
10331.2428286538
 23
3089.266628061264
 33
0.0
 14
9806.242828653806
 24
3028.208796231384
 34
0.0
 50
180.0
100
AcDbRotatedDimension
  0
DIMENSION
  5
1488F
330
747D
100
AcDbEntity
  8
寸法
 48
50.0
100
AcDbDimension
  2
*D28
 10
11123.68419325453
 20
3089.266628061264
 30
0.0
 11
11048.68419325453
 21
3389.266628061265
 31
0.0
 70
    32
 71
     5
 42
600.0
  3
INABA_S30G
100
AcDbAlignedDimension
 13
10896.04070621732
 23
3689.266628061264
 33
0.0
 14
10411.2428286538
 24
3089.266628061264
 34
0.0
 50
90.0
100
AcDbRotatedDimension
  0
DIMENSION
  5
14890
330
747D
100
AcDbEntity
  8
寸法
 48
50.0
100
AcDbDimension
  2
*D29
 10
11123.68419325453
 20
3739.266628061264
 30
0.0
 11
11123.68419325453
 21
3968.802061132173
 31
0.0
 70
   160
 71
     5
 42
50.0
  3
INABA_S30G
100
AcDbAlignedDimension
 13
10831.2428286538
 23
3689.266628061264
 33
0.0
 14
10831.24282865386
 24
3739.266628061264
 34
0.0
 50
90.0
100
AcDbRotatedDimension
  0
DIMENSION
  5
14891
330
747D
100
AcDbEntity
  8
寸法
 48
50.0
100
AcDbDimension
  2
*D30
 10
11123.68419325453
 20
3039.266628061263
 30
0.0
 11
11123.68419325453
 21
2809.7311949904
 31
0.0
 70
   160
 71
     5
 42
50.0
  3
INABA_S30G
100
AcDbAlignedDimension
 13
10411.2428286538
 23
3089.266628061264
 33
0.0
 14
10411.2428286538
 24
3039.266628061263
 34
0.0
 50
90.0
100
AcDbRotatedDimension
  0
TEXT
  5
14892
330
747D
100
AcDbEntity
  8
寸法
 62
     7
 48
50.0
100
AcDbText
 10
10418.02880169803
 20
3238.321040496247
 30
0.0
 40
90.0
  1
主筋4-D13
  7
STYLE1
100
AcDbText
  0
LINE
  5
14893
330
747D
100
AcDbEntity
  8
寸法
 48
50.0
100
AcDbLine
 10
10380.28343561586
 20
3213.314182943856
 30
0.0
 11
11000.49789108304
 21
3213.314182943856
 31
0.0
  0
LINE
  5
14894
330
747D
100
AcDbEntity
  8
寸法
 48
50.0
100
AcDbLine
 10
10380.28343561586
 20
3213.314182943856
 30
0.0
 11
10006.2428286538
 21
3429.266628061264
 31
0.0
  0
LWPOLYLINE
  5
14895
330
747D
100
AcDbEntity
  8
寸法
 48
5.0
100
AcDbPolyline
 90
        3
 70
     0
 43
0.0
 10
9131.242828653805
 20
3169.266628061264
 10
8735.591884218127
 20
2773.615683625629
 10
7818.082329073194
 20
2773.615683625629
1001
ACAD
1000
DSTYLE
1002
{
1070
   341
1005
0
1002
}
  0
TEXT
  5
14896
330
747D
100
AcDbEntity
  8
寸法
 62
     7
100
AcDbText
 10
7823.218766876526
 20
2794.136688623988
 30
-0.0000000000026306
 40
90.0
  1
4-D10X6-D10以上
  7
STYLE1
100
AcDbText
  0
TEXT
  5
14897
330
747D
100
AcDbEntity
  8
寸法
 62
     7
100
AcDbText
 10
7823.218766876526
 20
2908.609609348614
 30
-0.0000000000026306
 40
90.0
  1
ベース筋
  7
STYLE1
100
AcDbText
  0
LINE
  5
14898
330
747D
100
AcDbEntity
  8
寸法
 48
50.0
100
AcDbLine
 10
9301.971515744082
 20
3279.266628061264
 30
0.0
 11
8587.728007340949
 21
2565.023119658132
 31
0.0
  0
LINE
  5
14899
330
747D
100
AcDbEntity
  8
寸法
 48
50.0
100
AcDbLine
 10
8587.728007340949
 20
2565.023119658132
 30
0.0
 11
7897.334028640267
 21
2565.023119658132
 31
0.0
  0
TEXT
  5
1489A
330
747D
100
AcDbEntity
  8
寸法
 62
     7
 48
50.0
100
AcDbText
 10
7915.786616004858
 20
2580.099037485986
 30
0.0
 40
90.0
  1
帯筋D10＠100
  7
STYLE1
100
AcDbText
  0
ARC
  5
1489B
330
747D
100
AcDbEntity
  8
部品1
 48
50.0
100
AcDbCircle
 10
9456.242828653804
 20
3521.046626790619
 30
0.0
 40
48.22000127066345
100
AcDbArc
 50
22.20066484154703
 51
157.7993351584529
  0
LINE
  5
1489C
330
747D
100
AcDbEntity
  8
部品1
100
AcDbLine
 10
9587.242828653804
 20
3290.266628061264
 30
0.0
 11
9606.242828653805
 21
3290.266628061264
 31
0.0
  0
LINE
  5
1489D
330
747D
100
AcDbEntity
  8
部品1
100
AcDbLine
 10
9587.242828653804
 20
3278.266628061264
 30
0.0
 11
9606.242828653805
 21
3278.266628061264
 31
0.0
  0
LINE
  5
1489E
330
747D
100
AcDbEntity
  8
部品1
100
AcDbLine
 10
9606.242828653805
 20
3290.266628061264
 30
0.0
 11
9606.242828653805
 21
3278.266628061264
 31
0.0
  0
ARC
  5
1489F
330
747D
100
AcDbEntity
  8
部品1
100
AcDbCircle
 10
9587.242828653804
 20
3315.266628061264
 30
0.0
 40
25.0
100
AcDbArc
 50
180.0
 51
270.0
  0
ARC
  5
148A0
330
747D
100
AcDbEntity
  8
部品1
100
AcDbCircle
 10
9587.242828653804
 20
3315.266628061264
 30
0.0
 40
37.0
100
AcDbArc
 50
180.0
 51
270.0
  0
LINE
  5
148A1
330
747D
100
AcDbEntity
  8
部品1
100
AcDbLine
 10
9550.242828653805
 20
3569.266628061264
 30
0.0
 11
9550.242828653805
 21
3315.266628061264
 31
0.0
  0
LINE
  5
148A2
330
747D
100
AcDbEntity
  8
部品1
100
AcDbLine
 10
9562.242828653806
 20
3599.266628061263
 30
0.0
 11
9550.242828653805
 21
3599.266628061263
 31
0.0
  0
LINE
  5
148A3
330
747D
100
AcDbEntity
  8
部品1
100
AcDbLine
 10
9562.242828653806
 20
3599.266628061263
 30
0.0
 11
9562.242828653806
 21
3591.266628061263
 31
0.0
  0
LINE
  5
148A4
330
747D
100
AcDbEntity
  8
部品1
100
AcDbLine
 10
9550.242828653805
 20
3599.266628061263
 30
0.0
 11
9550.242828653805
 21
3591.266628061263
 31
0.0
  0
LINE
  5
148A5
330
747D
100
AcDbEntity
  8
部品1
100
AcDbLine
 10
9567.21248376844
 20
3591.266628061263
 30
0.0
 11
9545.27317353923
 21
3591.266628061263
 31
0.0
  0
LINE
  5
148A6
330
747D
100
AcDbEntity
  8
部品1
100
AcDbLine
 10
9545.27317353923
 20
3581.266628061263
 30
0.0
 11
9545.27317353923
 21
3591.266628061263
 31
0.0
  0
LINE
  5
148A7
330
747D
100
AcDbEntity
  8
部品1
100
AcDbLine
 10
9550.758001096516
 20
3581.266628061263
 30
0.0
 11
9550.758001096516
 21
3591.266628061263
 31
0.0
  0
LINE
  5
148A8
330
747D
100
AcDbEntity
  8
部品1
100
AcDbLine
 10
9561.727656211093
 20
3581.266628061263
 30
0.0
 11
9561.727656211093
 21
3591.266628061263
 31
0.0
  0
LINE
  5
148A9
330
747D
100
AcDbEntity
  8
部品1
100
AcDbLine
 10
9567.21248376844
 20
3581.266628061263
 30
0.0
 11
9567.21248376844
 21
3591.266628061263
 31
0.0
  0
LINE
  5
148AA
330
747D
100
AcDbEntity
  8
部品1
100
AcDbLine
 10
9567.21248376844
 20
3581.266628061263
 30
0.0
 11
9545.27317353923
 21
3581.266628061263
 31
0.0
  0
LINE
  5
148AB
330
747D
100
AcDbEntity
  8
部品1
100
AcDbLine
 10
9562.242828653806
 20
3569.266628061264
 30
0.0
 11
9562.242828653806
 21
3315.266628061264
 31
0.0
  0
LINE
  5
148AC
330
747D
100
AcDbEntity
  8
部品1
100
AcDbLine
 10
9362.242828653805
 20
3569.266628061264
 30
0.0
 11
9362.242828653805
 21
3315.266628061264
 31
0.0
  0
LINE
  5
148AD
330
747D
100
AcDbEntity
  8
部品1
100
AcDbLine
 10
9350.242828653804
 20
3569.266628061264
 30
0.0
 11
9350.242828653804
 21
3315.266628061264
 31
0.0
  0
LINE
  5
148AE
330
747D
100
AcDbEntity
  8
部品1
100
AcDbLine
 10
9345.273173539231
 20
3581.266628061263
 30
0.0
 11
9367.212483768438
 21
3581.266628061263
 31
0.0
  0
LINE
  5
148AF
330
747D
100
AcDbEntity
  8
部品1
100
AcDbLine
 10
9345.273173539231
 20
3581.266628061263
 30
0.0
 11
9345.273173539231
 21
3591.266628061263
 31
0.0
  0
LINE
  5
148B0
330
747D
100
AcDbEntity
  8
部品1
100
AcDbLine
 10
9350.758001096517
 20
3581.266628061263
 30
0.0
 11
9350.758001096517
 21
3591.266628061263
 31
0.0
  0
LINE
  5
148B1
330
747D
100
AcDbEntity
  8
部品1
100
AcDbLine
 10
9361.727656211092
 20
3581.266628061263
 30
0.0
 11
9361.727656211092
 21
3591.266628061263
 31
0.0
  0
LINE
  5
148B2
330
747D
100
AcDbEntity
  8
部品1
100
AcDbLine
 10
9367.212483768438
 20
3581.266628061263
 30
0.0
 11
9367.212483768438
 21
3591.266628061263
 31
0.0
  0
LINE
  5
148B3
330
747D
100
AcDbEntity
  8
部品1
100
AcDbLine
 10
9345.273173539231
 20
3591.266628061263
 30
0.0
 11
9367.212483768438
 21
3591.266628061263
 31
0.0
  0
ARC
  5
148B4
330
747D
100
AcDbEntity
  8
部品1
100
AcDbCircle
 10
9325.242828653804
 20
3315.266628061264
 30
0.0
 40
37.0
100
AcDbArc
 50
270.0
 51
0.0
  0
ARC
  5
148B5
330
747D
100
AcDbEntity
  8
部品1
100
AcDbCircle
 10
9325.242828653804
 20
3315.266628061264
 30
0.0
 40
25.0
100
AcDbArc
 50
270.0
 51
0.0
  0
LINE
  5
148B6
330
747D
100
AcDbEntity
  8
部品1
100
AcDbLine
 10
9306.242828653806
 20
3290.266628061264
 30
0.0
 11
9306.242828653806
 21
3278.266628061264
 31
0.0
  0
LINE
  5
148B7
330
747D
100
AcDbEntity
  8
部品1
100
AcDbLine
 10
9325.242828653804
 20
3278.266628061264
 30
0.0
 11
9306.242828653806
 21
3278.266628061264
 31
0.0
  0
LINE
  5
148B8
330
747D
100
AcDbEntity
  8
部品1
100
AcDbLine
 10
9325.242828653804
 20
3290.266628061264
 30
0.0
 11
9306.242828653806
 21
3290.266628061264
 31
0.0
  0
LINE
  5
148B9
330
747D
100
AcDbEntity
  8
部品1
100
AcDbLine
 10
9362.242828653805
 20
3599.266628061263
 30
0.0
 11
9362.242828653805
 21
3591.266628061263
 31
0.0
  0
LINE
  5
148BA
330
747D
100
AcDbEntity
  8
部品1
100
AcDbLine
 10
9350.242828653804
 20
3599.266628061263
 30
0.0
 11
9350.242828653804
 21
3591.266628061263
 31
0.0
  0
LINE
  5
148BB
330
747D
100
AcDbEntity
  8
部品1
100
AcDbLine
 10
9350.242828653804
 20
3599.266628061263
 30
0.0
 11
9362.242828653805
 21
3599.266628061263
 31
0.0
  0
LINE
  5
148BC
330
747D
100
AcDbEntity
  8
CSLAYER17
  6
Continuous
 62
     7
100
AcDbLine
 10
9579.792828653793
 20
3631.266628061263
 30
0.0
 11
9589.792828653793
 21
3621.266628061264
 31
0.0
  0
LINE
  5
148BD
330
747D
100
AcDbEntity
  8
CSLAYER17
  6
Continuous
 62
     7
100
AcDbLine
 10
9332.692828653817
 20
3631.266628061263
 30
0.0
 11
9322.692828653817
 21
3621.266628061264
 31
0.0
  0
LINE
  5
148BE
330
747D
100
AcDbEntity
  8
CSLAYER17
  6
Continuous
 62
     7
100
AcDbLine
 10
9411.192828653817
 20
3591.266628061263
 30
0.0
 11
9401.192828653817
 21
3581.266628061263
 31
0.0
  0
LINE
  5
148BF
330
747D
100
AcDbEntity
  8
部品1
100
AcDbLine
 10
9411.192828653817
 20
3631.266628061263
 30
0.0
 11
9411.192828653817
 21
3591.266628061263
 31
0.0
  0
LINE
  5
148C0
330
747D
100
AcDbEntity
  8
部品1
100
AcDbLine
 10
9501.292828653793
 20
3631.266628061263
 30
0.0
 11
9501.292828653793
 21
3591.266628061263
 31
0.0
  0
LINE
  5
148C1
330
747D
100
AcDbEntity
  8
CSLAYER17
  6
Continuous
 62
     7
100
AcDbLine
 10
9501.292828653793
 20
3591.266628061263
 30
0.0
 11
9511.292828653793
 21
3581.266628061263
 31
0.0
  0
LINE
  5
148C2
330
747D
100
AcDbEntity
  8
CSLAYER17
  6
Continuous
 62
     7
100
AcDbLine
 10
9501.292828653793
 20
3631.266628061263
 30
0.0
 11
9579.792828653793
 21
3631.266628061263
 31
0.0
  0
LINE
  5
148C3
330
747D
100
AcDbEntity
  8
CSLAYER17
  6
Continuous
 62
     7
100
AcDbLine
 10
9322.692828653817
 20
3621.266628061264
 30
0.0
 11
9322.692828653817
 21
3581.266628061263
 31
0.0
  0
LINE
  5
148C4
330
747D
100
AcDbEntity
  8
CSLAYER17
  6
Continuous
 62
     7
100
AcDbLine
 10
9589.792828653793
 20
3621.266628061264
 30
0.0
 11
9589.792828653793
 21
3581.266628061263
 31
0.0
  0
LINE
  5
148C5
330
747D
100
AcDbEntity
  8
CSLAYER17
  6
Continuous
 62
     7
100
AcDbLine
 10
9332.692828653817
 20
3631.266628061263
 30
0.0
 11
9411.192828653817
 21
3631.266628061263
 31
0.0
  0
LINE
  5
148C6
330
747D
100
AcDbEntity
  8
CSLAYER17
  6
Continuous
 62
     7
100
AcDbLine
 10
9453.992828653806
 20
3631.266628061263
 30
0.0
 11
9458.492828653806
 21
3631.266628061263
 31
0.0
  0
LINE
  5
148C7
330
747D
100
AcDbEntity
  8
CSLAYER17
  6
Continuous
 62
     7
100
AcDbLine
 10
9458.492828653806
 20
3631.266628061263
 30
0.0
 11
9458.492828653806
 21
3581.266628061263
 31
0.0
  0
LINE
  5
148C8
330
747D
100
AcDbEntity
  8
CSLAYER17
  6
Continuous
 62
     7
100
AcDbLine
 10
9453.992828653806
 20
3631.266628061263
 30
0.0
 11
9453.992828653806
 21
3581.266628061263
 31
0.0
  0
LINE
  5
148C9
330
747D
100
AcDbEntity
  8
CSLAYER17
  6
Continuous
 62
     7
100
AcDbLine
 10
9596.242828653805
 20
3581.266628061263
 30
0.0
 11
9596.242828653805
 21
3569.266628061264
 31
0.0
  0
LINE
  5
148CA
330
747D
100
AcDbEntity
  8
CSLAYER17
  6
Continuous
 62
     7
100
AcDbLine
 10
9316.242828653805
 20
3569.266628061264
 30
0.0
 11
9316.242828653805
 21
3581.266628061263
 31
0.0
  0
LINE
  5
148CB
330
747D
100
AcDbEntity
  8
CSLAYER17
  6
Continuous
 62
     7
100
AcDbLine
 10
9316.242828653805
 20
3581.266628061263
 30
0.0
 11
9596.242828653805
 21
3581.266628061263
 31
0.0
  0
LINE
  5
148CC
330
747D
100
AcDbEntity
  8
CSLAYER17
  6
Continuous
 62
     7
100
AcDbLine
 10
9316.242828653805
 20
3569.266628061264
 30
0.0
 11
9596.242828653805
 21
3569.266628061264
 31
0.0
  0
LINE
  5
148CD
330
747D
100
AcDbEntity
  8
部品1
 48
50.0
100
AcDbLine
 10
9500.906060549343
 20
3581.266628061263
 30
0.0
 11
9411.692828653817
 21
3581.266628061263
 31
0.0
  0
LINE
  5
148CE
330
747D
100
AcDbEntity
  8
部品1
 48
50.0
100
AcDbLine
 10
9411.692828653817
 20
4085.199724006193
 30
0.0
 11
9411.692828653817
 21
3581.266628061278
 31
0.0
  0
LINE
  5
148CF
330
747D
100
AcDbEntity
  8
部品1
 48
50.0
100
AcDbLine
 10
9500.792828653793
 20
4085.199724006193
 30
0.0
 11
9500.792828653793
 21
3581.266628061278
 31
0.0
  0
ARC
  5
148D0
330
747D
100
AcDbEntity
  8
部品1
 48
50.0
100
AcDbCircle
 10
9806.242828653806
 20
3521.046626790619
 30
0.0
 40
48.22000127066345
100
AcDbArc
 50
22.20066484154703
 51
157.7993351584529
  0
LINE
  5
148D1
330
747D
100
AcDbEntity
  8
部品1
100
AcDbLine
 10
9937.242828653806
 20
3290.266628061264
 30
0.0
 11
9956.242828653806
 21
3290.266628061264
 31
0.0
  0
LINE
  5
148D2
330
747D
100
AcDbEntity
  8
部品1
100
AcDbLine
 10
9937.242828653806
 20
3278.266628061264
 30
0.0
 11
9956.242828653806
 21
3278.266628061264
 31
0.0
  0
LINE
  5
148D3
330
747D
100
AcDbEntity
  8
部品1
100
AcDbLine
 10
9956.242828653806
 20
3290.266628061264
 30
0.0
 11
9956.242828653806
 21
3278.266628061264
 31
0.0
  0
ARC
  5
148D4
330
747D
100
AcDbEntity
  8
部品1
100
AcDbCircle
 10
9937.242828653806
 20
3315.266628061264
 30
0.0
 40
25.0
100
AcDbArc
 50
180.0
 51
270.0
  0
ARC
  5
148D5
330
747D
100
AcDbEntity
  8
部品1
100
AcDbCircle
 10
9937.242828653806
 20
3315.266628061264
 30
0.0
 40
37.0
100
AcDbArc
 50
180.0
 51
270.0
  0
LINE
  5
148D6
330
747D
100
AcDbEntity
  8
部品1
100
AcDbLine
 10
9900.242828653805
 20
3569.266628061264
 30
0.0
 11
9900.242828653805
 21
3315.266628061264
 31
0.0
  0
LINE
  5
148D7
330
747D
100
AcDbEntity
  8
部品1
100
AcDbLine
 10
9912.242828653806
 20
3599.266628061263
 30
0.0
 11
9900.242828653805
 21
3599.266628061263
 31
0.0
  0
LINE
  5
148D8
330
747D
100
AcDbEntity
  8
部品1
100
AcDbLine
 10
9912.242828653806
 20
3599.266628061263
 30
0.0
 11
9912.242828653806
 21
3591.266628061263
 31
0.0
  0
LINE
  5
148D9
330
747D
100
AcDbEntity
  8
部品1
100
AcDbLine
 10
9900.242828653805
 20
3599.266628061263
 30
0.0
 11
9900.242828653805
 21
3591.266628061263
 31
0.0
  0
LINE
  5
148DA
330
747D
100
AcDbEntity
  8
部品1
100
AcDbLine
 10
9917.212483768439
 20
3591.266628061263
 30
0.0
 11
9895.27317353923
 21
3591.266628061263
 31
0.0
  0
LINE
  5
148DB
330
747D
100
AcDbEntity
  8
部品1
100
AcDbLine
 10
9895.27317353923
 20
3581.266628061263
 30
0.0
 11
9895.27317353923
 21
3591.266628061263
 31
0.0
  0
LINE
  5
148DC
330
747D
100
AcDbEntity
  8
部品1
100
AcDbLine
 10
9900.758001096518
 20
3581.266628061263
 30
0.0
 11
9900.758001096518
 21
3591.266628061263
 31
0.0
  0
LINE
  5
148DD
330
747D
100
AcDbEntity
  8
部品1
100
AcDbLine
 10
9911.727656211093
 20
3581.266628061263
 30
0.0
 11
9911.727656211093
 21
3591.266628061263
 31
0.0
  0
LINE
  5
148DE
330
747D
100
AcDbEntity
  8
部品1
100
AcDbLine
 10
9917.212483768439
 20
3581.266628061263
 30
0.0
 11
9917.212483768439
 21
3591.266628061263
 31
0.0
  0
LINE
  5
148DF
330
747D
100
AcDbEntity
  8
部品1
100
AcDbLine
 10
9917.212483768439
 20
3581.266628061263
 30
0.0
 11
9895.27317353923
 21
3581.266628061263
 31
0.0
  0
LINE
  5
148E0
330
747D
100
AcDbEntity
  8
部品1
100
AcDbLine
 10
9912.242828653806
 20
3569.266628061264
 30
0.0
 11
9912.242828653806
 21
3315.266628061264
 31
0.0
  0
LINE
  5
148E1
330
747D
100
AcDbEntity
  8
部品1
100
AcDbLine
 10
9712.242828653806
 20
3569.266628061264
 30
0.0
 11
9712.242828653806
 21
3315.266628061264
 31
0.0
  0
LINE
  5
148E2
330
747D
100
AcDbEntity
  8
部品1
100
AcDbLine
 10
9700.242828653806
 20
3569.266628061264
 30
0.0
 11
9700.242828653806
 21
3315.266628061264
 31
0.0
  0
LINE
  5
148E3
330
747D
100
AcDbEntity
  8
部品1
100
AcDbLine
 10
9695.273173539231
 20
3581.266628061263
 30
0.0
 11
9717.21248376844
 21
3581.266628061263
 31
0.0
  0
LINE
  5
148E4
330
747D
100
AcDbEntity
  8
部品1
100
AcDbLine
 10
9695.273173539231
 20
3581.266628061263
 30
0.0
 11
9695.273173539231
 21
3591.266628061263
 31
0.0
  0
LINE
  5
148E5
330
747D
100
AcDbEntity
  8
部品1
100
AcDbLine
 10
9700.758001096517
 20
3581.266628061263
 30
0.0
 11
9700.758001096517
 21
3591.266628061263
 31
0.0
  0
LINE
  5
148E6
330
747D
100
AcDbEntity
  8
部品1
100
AcDbLine
 10
9711.727656211094
 20
3581.266628061263
 30
0.0
 11
9711.727656211094
 21
3591.266628061263
 31
0.0
  0
LINE
  5
148E7
330
747D
100
AcDbEntity
  8
部品1
100
AcDbLine
 10
9717.21248376844
 20
3581.266628061263
 30
0.0
 11
9717.21248376844
 21
3591.266628061263
 31
0.0
  0
LINE
  5
148E8
330
747D
100
AcDbEntity
  8
部品1
100
AcDbLine
 10
9695.273173539231
 20
3591.266628061263
 30
0.0
 11
9717.21248376844
 21
3591.266628061263
 31
0.0
  0
ARC
  5
148E9
330
747D
100
AcDbEntity
  8
部品1
100
AcDbCircle
 10
9675.242828653805
 20
3315.266628061264
 30
0.0
 40
37.0
100
AcDbArc
 50
270.0
 51
0.0
  0
ARC
  5
148EA
330
747D
100
AcDbEntity
  8
部品1
100
AcDbCircle
 10
9675.242828653805
 20
3315.266628061264
 30
0.0
 40
25.0
100
AcDbArc
 50
270.0
 51
0.0
  0
LINE
  5
148EB
330
747D
100
AcDbEntity
  8
部品1
100
AcDbLine
 10
9656.242828653805
 20
3290.266628061264
 30
0.0
 11
9656.242828653805
 21
3278.266628061264
 31
0.0
  0
LINE
  5
148EC
330
747D
100
AcDbEntity
  8
部品1
100
AcDbLine
 10
9675.242828653805
 20
3278.266628061264
 30
0.0
 11
9656.242828653805
 21
3278.266628061264
 31
0.0
  0
LINE
  5
148ED
330
747D
100
AcDbEntity
  8
部品1
100
AcDbLine
 10
9675.242828653805
 20
3290.266628061264
 30
0.0
 11
9656.242828653805
 21
3290.266628061264
 31
0.0
  0
LINE
  5
148EE
330
747D
100
AcDbEntity
  8
部品1
100
AcDbLine
 10
9712.242828653806
 20
3599.266628061263
 30
0.0
 11
9712.242828653806
 21
3591.266628061263
 31
0.0
  0
LINE
  5
148EF
330
747D
100
AcDbEntity
  8
部品1
100
AcDbLine
 10
9700.242828653806
 20
3599.266628061263
 30
0.0
 11
9700.242828653806
 21
3591.266628061263
 31
0.0
  0
LINE
  5
148F0
330
747D
100
AcDbEntity
  8
部品1
100
AcDbLine
 10
9700.242828653806
 20
3599.266628061263
 30
0.0
 11
9712.242828653806
 21
3599.266628061263
 31
0.0
  0
LINE
  5
148F1
330
747D
100
AcDbEntity
  8
CSLAYER17
  6
Continuous
 62
     7
100
AcDbLine
 10
9929.792828653795
 20
3631.266628061263
 30
0.0
 11
9939.792828653793
 21
3621.266628061264
 31
0.0
  0
LINE
  5
148F2
330
747D
100
AcDbEntity
  8
CSLAYER17
  6
Continuous
 62
     7
100
AcDbLine
 10
9682.692828653818
 20
3631.266628061263
 30
0.0
 11
9672.692828653817
 21
3621.266628061264
 31
0.0
  0
LINE
  5
148F3
330
747D
100
AcDbEntity
  8
CSLAYER17
  6
Continuous
 62
     7
100
AcDbLine
 10
9761.192828653818
 20
3591.266628061263
 30
0.0
 11
9751.192828653817
 21
3581.266628061263
 31
0.0
  0
LINE
  5
148F4
330
747D
100
AcDbEntity
  8
部品1
100
AcDbLine
 10
9761.192828653818
 20
3631.266628061263
 30
0.0
 11
9761.192828653818
 21
3591.266628061263
 31
0.0
  0
LINE
  5
148F5
330
747D
100
AcDbEntity
  8
部品1
100
AcDbLine
 10
9851.292828653795
 20
3631.266628061263
 30
0.0
 11
9851.292828653795
 21
3591.266628061263
 31
0.0
  0
LINE
  5
148F6
330
747D
100
AcDbEntity
  8
CSLAYER17
  6
Continuous
 62
     7
100
AcDbLine
 10
9851.292828653795
 20
3591.266628061263
 30
0.0
 11
9861.292828653795
 21
3581.266628061263
 31
0.0
  0
LINE
  5
148F7
330
747D
100
AcDbEntity
  8
CSLAYER17
  6
Continuous
 62
     7
100
AcDbLine
 10
9851.292828653795
 20
3631.266628061263
 30
0.0
 11
9929.792828653795
 21
3631.266628061263
 31
0.0
  0
LINE
  5
148F8
330
747D
100
AcDbEntity
  8
CSLAYER17
  6
Continuous
 62
     7
100
AcDbLine
 10
9672.692828653817
 20
3621.266628061264
 30
0.0
 11
9672.692828653817
 21
3581.266628061263
 31
0.0
  0
LINE
  5
148F9
330
747D
100
AcDbEntity
  8
CSLAYER17
  6
Continuous
 62
     7
100
AcDbLine
 10
9939.792828653793
 20
3621.266628061264
 30
0.0
 11
9939.792828653793
 21
3581.266628061263
 31
0.0
  0
LINE
  5
148FA
330
747D
100
AcDbEntity
  8
CSLAYER17
  6
Continuous
 62
     7
100
AcDbLine
 10
9682.692828653818
 20
3631.266628061263
 30
0.0
 11
9761.192828653818
 21
3631.266628061263
 31
0.0
  0
LINE
  5
148FB
330
747D
100
AcDbEntity
  8
CSLAYER17
  6
Continuous
 62
     7
100
AcDbLine
 10
9803.992828653806
 20
3631.266628061263
 30
0.0
 11
9808.492828653806
 21
3631.266628061263
 31
0.0
  0
LINE
  5
148FC
330
747D
100
AcDbEntity
  8
CSLAYER17
  6
Continuous
 62
     7
100
AcDbLine
 10
9808.492828653806
 20
3631.266628061263
 30
0.0
 11
9808.492828653806
 21
3581.266628061263
 31
0.0
  0
LINE
  5
148FD
330
747D
100
AcDbEntity
  8
CSLAYER17
  6
Continuous
 62
     7
100
AcDbLine
 10
9803.992828653806
 20
3631.266628061263
 30
0.0
 11
9803.992828653806
 21
3581.266628061263
 31
0.0
  0
LINE
  5
148FE
330
747D
100
AcDbEntity
  8
CSLAYER17
  6
Continuous
 62
     7
100
AcDbLine
 10
9946.242828653806
 20
3581.266628061263
 30
0.0
 11
9946.242828653806
 21
3569.266628061264
 31
0.0
  0
LINE
  5
148FF
330
747D
100
AcDbEntity
  8
CSLAYER17
  6
Continuous
 62
     7
100
AcDbLine
 10
9666.242828653807
 20
3569.266628061264
 30
0.0
 11
9666.242828653807
 21
3581.266628061263
 31
0.0
  0
LINE
  5
14900
330
747D
100
AcDbEntity
  8
CSLAYER17
  6
Continuous
 62
     7
100
AcDbLine
 10
9666.242828653807
 20
3581.266628061263
 30
0.0
 11
9946.242828653806
 21
3581.266628061263
 31
0.0
  0
LINE
  5
14901
330
747D
100
AcDbEntity
  8
CSLAYER17
  6
Continuous
 62
     7
100
AcDbLine
 10
9666.242828653807
 20
3569.266628061264
 30
0.0
 11
9946.242828653806
 21
3569.266628061264
 31
0.0
  0
LINE
  5
14902
330
747D
100
AcDbEntity
  8
部品1
 48
50.0
100
AcDbLine
 10
9850.906060549343
 20
3581.266628061263
 30
0.0
 11
9761.692828653817
 21
3581.266628061263
 31
0.0
  0
LINE
  5
14903
330
747D
100
AcDbEntity
  8
部品1
 48
50.0
100
AcDbLine
 10
9761.692828653817
 20
4085.199724006193
 30
0.0
 11
9761.692828653817
 21
3581.266628061278
 31
0.0
  0
LINE
  5
14904
330
747D
100
AcDbEntity
  8
部品1
 48
50.0
100
AcDbLine
 10
9850.792828653794
 20
4085.199724006193
 30
0.0
 11
9850.792828653794
 21
3581.266628061278
 31
0.0
  0
LINE
  5
14905
330
747D
100
AcDbEntity
  8
センター
 48
10.0
100
AcDbLine
 10
9456.242828653804
 20
4163.739460916303
 30
0.0
 11
9456.242828653804
 21
3028.208796231384
 31
0.0
  0
LINE
  5
14906
330
747D
100
AcDbEntity
  8
センター
 48
10.0
100
AcDbLine
 10
9806.242828653806
 20
4163.739460916303
 30
0.0
 11
9806.242828653806
 21
3028.208796231384
 31
0.0
  0
DIMENSION
  5
14907
330
747D
100
AcDbEntity
  8
寸法
 48
50.0
100
AcDbDimension
  2
*D31
 10
8510.566532888828
 20
3599.26662806125
 30
0.0
 11
8510.566532888828
 21
3382.038281604557
 31
0.0
 70
   160
 71
     5
 42
60.00000000000046
  3
INABA_S30G
100
AcDbAlignedDimension
 13
8868.061637568549
 23
3539.266628061249
 33
0.0
 14
9350.242828653804
 24
3599.266628061249
 34
0.0
 50
90.0
100
AcDbRotatedDimension
  0
DIMENSION
  5
14908
330
747D
100
AcDbEntity
  8
寸法
 48
50.0
100
AcDbDimension
  2
*D32
 10
8710.742436282133
 20
3569.266628061264
 30
0.0
 11
8710.742436282133
 21
3309.731194990384
 31
0.0
 70
   160
 71
     5
 42
30.00000000001501
  3
INABA_S30G
100
AcDbAlignedDimension
 13
8868.061637568549
 23
3539.266628061249
 33
0.0
 14
9316.242828653805
 24
3569.266628061264
 34
0.0
 50
90.0
100
AcDbRotatedDimension
  0
LINE
  5
14909
330
747D
100
AcDbEntity
  8
寸法
 48
50.0
100
AcDbLine
 10
10779.88049617523
 20
2565.023119658132
 30
0.0
 11
9912.242828653806
 21
3442.266628061264
 31
0.0
  0
TEXT
  5
1490A
330
747D
100
AcDbEntity
  8
寸法
 62
     7
 48
50.0
100
AcDbText
 10
10817.62586225735
 20
2457.744744673839
 30
0.0
 40
90.0
  1
M12X350（市販品）
  7
STYLE1
100
AcDbText
  0
TEXT
  5
1490B
330
747D
100
AcDbEntity
  8
寸法
 62
     7
 48
50.0
100
AcDbText
 10
10817.62586225735
 20
2577.291023190281
 30
0.0
 40
90.0
  1
アンカーボルト
  7
STYLE1
100
AcDbText
  0
LINE
  5
1490C
330
747D
100
AcDbEntity
  8
寸法
 48
50.0
100
AcDbLine
 10
10779.88049617523
 20
2565.023119658132
 30
0.0
 11
11772.80782269584
 21
2565.023119658132
 31
0.0
  0
LINE
  5
149C1
330
747D
100
AcDbEntity
  8
部品1
 48
50.0
100
AcDbLine
 10
6971.003494576565
 20
4262.101800160539
 30
-0.0000000000013153
 11
6171.003494576566
 21
4262.101800160539
 31
-0.0000000000013153
  0
LINE
  5
149C2
330
747D
100
AcDbEntity
  8
部品1
 48
50.0
100
AcDbLine
 10
6171.003494576566
 20
2862.101800160539
 30
-0.0000000000013153
 11
6971.003494576565
 21
2862.101800160539
 31
-0.0000000000013153
  0
LINE
  5
149C3
330
747D
100
AcDbEntity
  8
部品1
 48
50.0
100
AcDbLine
 10
6171.003494576566
 20
4262.101800160539
 30
-0.0000000000013153
 11
6171.003494576566
 21
2862.101800160539
 31
-0.0000000000013153
  0
LINE
  5
149C4
330
747D
100
AcDbEntity
  8
部品1
 48
50.0
100
AcDbLine
 10
1371.003494576565
 20
2862.101800160539
 30
-0.0000000000013153
 11
2171.003494576566
 21
2862.101800160539
 31
-0.0000000000013153
  0
LINE
  5
149C5
330
747D
100
AcDbEntity
  8
部品1
 48
50.0
100
AcDbLine
 10
2171.003494576566
 20
4262.101800160539
 30
-0.0000000000013153
 11
2171.003494576566
 21
2862.101800160539
 31
-0.0000000000013153
  0
LINE
  5
149C6
330
747D
100
AcDbEntity
  8
部品1
 48
50.0
100
AcDbLine
 10
2171.003494576566
 20
4262.101800160539
 30
-0.0000000000013153
 11
1371.003494576565
 21
4262.101800160539
 31
-0.0000000000013153
  0
LINE
  5
149C7
330
747D
100
AcDbEntity
  8
想像線
 48
10.0
100
AcDbLine
 10
1541.003494576624
 20
1523.601800160525
 30
-0.0000000000013153
 11
4743.355077676529
 21
1523.601800160534
 31
-0.0000000000013153
  0
LINE
  5
149C8
330
747D
100
AcDbEntity
  8
想像線
 48
10.0
100
AcDbLine
 10
6801.003494576507
 20
1523.601800160539
 30
-0.0000000000013153
 11
6801.003494576507
 21
5600.601800160539
 31
-0.0000000000013153
  0
LINE
  5
149C9
330
747D
100
AcDbEntity
  8
想像線
 48
10.0
100
AcDbLine
 10
6801.003494576507
 20
5600.601800160539
 30
-0.0000000000013153
 11
5492.702976381515
 21
5600.601800160536
 31
-0.0000000000013153
  0
LINE
  5
149CA
330
747D
100
AcDbEntity
  8
想像線
 48
10.0
100
AcDbLine
 10
1541.003494576624
 20
1523.601800160539
 30
-0.0000000000013153
 11
1541.003494576594
 21
5600.601800160539
 31
-0.0000000000013153
  0
LINE
  5
149CB
330
747D
100
AcDbEntity
  8
センター
 48
10.0
100
AcDbLine
 10
1521.003494576565
 20
3387.101800160539
 30
-0.0000000000013153
 11
5071.940406226757
 21
3387.101800160539
 31
-0.0000000000013153
  0
CIRCLE
  5
149CC
330
747D
100
AcDbEntity
  8
部品1
 48
50.0
100
AcDbCircle
 10
6671.003494576566
 20
3487.10180016054
 30
-0.0000000000013153
 40
15.0
  0
LINE
  5
149CD
330
747D
100
AcDbEntity
  8
センター
 48
3.0
100
AcDbLine
 10
6671.003494576566
 20
3562.101800160539
 30
-0.0000000000013153
 11
6671.003494576566
 21
3412.101800160539
 31
-0.0000000000013153
  0
LINE
  5
149CE
330
747D
100
AcDbEntity
  8
センター
 48
3.0
100
AcDbLine
 10
6596.003494576565
 20
3487.10180016054
 30
-0.0000000000013153
 11
6746.003494576566
 21
3487.10180016054
 31
-0.0000000000013153
  0
LINE
  5
149CF
330
747D
100
AcDbEntity
  8
センター
 48
3.0
100
AcDbLine
 10
6671.003494576566
 20
3362.10180016054
 30
-0.0000000000013153
 11
6671.003494576566
 21
3212.101800160539
 31
-0.0000000000013153
  0
CIRCLE
  5
149D0
330
747D
100
AcDbEntity
  8
部品1
 48
50.0
100
AcDbCircle
 10
6671.003494576566
 20
3287.101800160539
 30
-0.0000000000013153
 40
15.0
  0
LINE
  5
149D1
330
747D
100
AcDbEntity
  8
センター
 48
3.0
100
AcDbLine
 10
6596.003494576565
 20
3287.101800160539
 30
-0.0000000000013153
 11
6746.003494576566
 21
3287.101800160539
 31
-0.0000000000013153
  0
LINE
  5
149D2
330
747D
100
AcDbEntity
  8
センター
 48
10.0
100
AcDbLine
 10
6571.003494576565
 20
3137.10180016054
 30
-0.0000000000013153
 11
6571.003494576565
 21
3637.101800160539
 31
-0.0000000000013153
  0
CIRCLE
  5
149D3
330
747D
100
AcDbEntity
  8
部品1
 48
50.0
100
AcDbCircle
 10
6471.003494576565
 20
3487.10180016054
 30
-0.0000000000013153
 40
15.0
  0
LINE
  5
149D4
330
747D
100
AcDbEntity
  8
センター
 48
3.0
100
AcDbLine
 10
6471.003494576565
 20
3562.101800160539
 30
-0.0000000000013153
 11
6471.003494576565
 21
3412.101800160539
 31
-0.0000000000013153
  0
LINE
  5
149D5
330
747D
100
AcDbEntity
  8
センター
 48
3.0
100
AcDbLine
 10
6471.003494576565
 20
3362.10180016054
 30
-0.0000000000013153
 11
6471.003494576565
 21
3212.101800160539
 31
-0.0000000000013153
  0
CIRCLE
  5
149D6
330
747D
100
AcDbEntity
  8
部品1
 48
50.0
100
AcDbCircle
 10
6471.003494576565
 20
3287.101800160539
 30
-0.0000000000013153
 40
15.0
  0
LINE
  5
149D7
330
747D
100
AcDbEntity
  8
センター
 48
10.0
100
AcDbLine
 10
6321.003494576565
 20
3387.101800160539
 30
-0.0000000000013153
 11
6821.003494576565
 21
3387.101800160539
 31
-0.0000000000013153
  0
LINE
  5
149D8
330
747D
100
AcDbEntity
  8
センター
 48
3.0
100
AcDbLine
 10
6396.003494576565
 20
3487.10180016054
 30
-0.0000000000013153
 11
6546.003494576566
 21
3487.10180016054
 31
-0.0000000000013153
  0
LINE
  5
149D9
330
747D
100
AcDbEntity
  8
センター
 48
3.0
100
AcDbLine
 10
6396.003494576565
 20
3287.101800160539
 30
-0.0000000000013153
 11
6546.003494576566
 21
3287.101800160539
 31
-0.0000000000013153
  0
LINE
  5
149DA
330
747D
100
AcDbEntity
  8
センター
 48
3.0
100
AcDbLine
 10
1596.003494576565
 20
3287.101800160539
 30
-0.0000000000013153
 11
1746.003494576565
 21
3287.101800160539
 31
-0.0000000000013153
  0
LINE
  5
149DB
330
747D
100
AcDbEntity
  8
センター
 48
3.0
100
AcDbLine
 10
1596.003494576565
 20
3487.10180016054
 30
-0.0000000000013153
 11
1746.003494576565
 21
3487.10180016054
 31
-0.0000000000013153
  0
LINE
  5
149DC
330
747D
100
AcDbEntity
  8
センター
 48
10.0
100
AcDbLine
 10
1521.003494576565
 20
3387.101800160539
 30
-0.0000000000013153
 11
2021.003494576566
 21
3387.101800160539
 31
-0.0000000000013153
  0
CIRCLE
  5
149DD
330
747D
100
AcDbEntity
  8
部品1
 48
50.0
100
AcDbCircle
 10
1671.003494576565
 20
3287.101800160539
 30
-0.0000000000013153
 40
15.0
  0
LINE
  5
149DE
330
747D
100
AcDbEntity
  8
センター
 48
3.0
100
AcDbLine
 10
1671.003494576565
 20
3362.10180016054
 30
-0.0000000000013153
 11
1671.003494576565
 21
3212.101800160539
 31
-0.0000000000013153
  0
LINE
  5
149DF
330
747D
100
AcDbEntity
  8
センター
 48
3.0
100
AcDbLine
 10
1671.003494576565
 20
3562.101800160539
 30
-0.0000000000013153
 11
1671.003494576565
 21
3412.101800160539
 31
-0.0000000000013153
  0
CIRCLE
  5
149E0
330
747D
100
AcDbEntity
  8
部品1
 48
50.0
100
AcDbCircle
 10
1671.003494576565
 20
3487.10180016054
 30
-0.0000000000013153
 40
15.0
  0
LINE
  5
149E1
330
747D
100
AcDbEntity
  8
センター
 48
10.0
100
AcDbLine
 10
1771.003494576565
 20
3137.10180016054
 30
-0.0000000000013153
 11
1771.003494576565
 21
3637.101800160539
 31
-0.0000000000013153
  0
LINE
  5
149E2
330
747D
100
AcDbEntity
  8
センター
 48
3.0
100
AcDbLine
 10
1796.003494576565
 20
3287.101800160539
 30
-0.0000000000013153
 11
1946.003494576565
 21
3287.101800160539
 31
-0.0000000000013153
  0
CIRCLE
  5
149E3
330
747D
100
AcDbEntity
  8
部品1
 48
50.0
100
AcDbCircle
 10
1871.003494576565
 20
3287.101800160539
 30
-0.0000000000013153
 40
15.0
  0
LINE
  5
149E4
330
747D
100
AcDbEntity
  8
センター
 48
3.0
100
AcDbLine
 10
1871.003494576565
 20
3362.10180016054
 30
-0.0000000000013153
 11
1871.003494576565
 21
3212.101800160539
 31
-0.0000000000013153
  0
LINE
  5
149E5
330
747D
100
AcDbEntity
  8
センター
 48
3.0
100
AcDbLine
 10
1796.003494576565
 20
3487.10180016054
 30
-0.0000000000013153
 11
1946.003494576565
 21
3487.10180016054
 31
-0.0000000000013153
  0
LINE
  5
149E6
330
747D
100
AcDbEntity
  8
センター
 48
3.0
100
AcDbLine
 10
1871.003494576565
 20
3562.101800160539
 30
-0.0000000000013153
 11
1871.003494576565
 21
3412.101800160539
 31
-0.0000000000013153
  0
CIRCLE
  5
149E7
330
747D
100
AcDbEntity
  8
部品1
 48
50.0
100
AcDbCircle
 10
1871.003494576565
 20
3487.10180016054
 30
-0.0000000000013153
 40
15.0
  0
LINE
  5
149E8
330
747D
100
AcDbEntity
  8
文字
 48
50.0
100
AcDbLine
 10
1371.003494576565
 20
5737.101800160539
 30
-0.0000000000013153
 11
5486.308810891642
 21
5737.101800160539
 31
-0.0000000000013153
  0
LINE
  5
149E9
330
747D
100
AcDbEntity
  8
部品1
 48
30.0
100
AcDbLine
 10
1371.003494576565
 20
1387.101800160539
 30
-0.0000000000013153
 11
4719.28644480983
 21
1387.101800160539
 31
-0.0000000000013153
  0
LINE
  5
149EA
330
747D
100
AcDbEntity
  8
部品1
 48
50.0
100
AcDbLine
 10
1371.003494576565
 20
5737.101800160539
 30
-0.0000000000013153
 11
1371.003494576565
 21
1387.101800160539
 31
-0.0000000000013153
  0
LINE
  5
149EB
330
747D
100
AcDbEntity
  8
部品1
 48
50.0
100
AcDbLine
 10
6971.003494576565
 20
5737.101800160539
 30
-0.0000000000013153
 11
6971.003494576565
 21
1387.101800160539
 31
-0.0000000000013153
  0
MTEXT
  5
149EC
330
747D
100
AcDbEntity
  8
寸法
 62
     7
 48
50.0
100
AcDbMText
 10
1596.995379358777
 20
1640.881846028029
 30
-0.0000000000013153
 40
90.0
 41
0.0
 71
     4
 72
     1
  1
\A1;床コンクリート打コテ押エ
  7
STYLE1
 73
     1
 44
1.0
1001
ACAD
1000
MTEXTBEGIN
1070
    73
1070
     1
1070
    44
1040
1.0
1070
    74
1070
     0
1000
MTEXTEND
  0
LINE
  5
149ED
330
747D
100
AcDbEntity
  8
センター
 48
10.0
100
AcDbLine
 10
1521.003494576565
 20
3737.10180016054
 30
-0.0000000000013153
 11
5133.654849474718
 21
3737.101800160541
 31
-0.0000000000013153
  0
CIRCLE
  5
149EE
330
747D
100
AcDbEntity
  8
部品1
 48
50.0
100
AcDbCircle
 10
6671.003494576566
 20
3837.101800160539
 30
-0.0000000000013153
 40
15.0
  0
LINE
  5
149EF
330
747D
100
AcDbEntity
  8
センター
 48
3.0
100
AcDbLine
 10
6671.003494576566
 20
3912.101800160539
 30
-0.0000000000013153
 11
6671.003494576566
 21
3762.101800160539
 31
-0.0000000000013153
  0
LINE
  5
149F0
330
747D
100
AcDbEntity
  8
センター
 48
3.0
100
AcDbLine
 10
6596.003494576565
 20
3837.101800160539
 30
-0.0000000000013153
 11
6746.003494576566
 21
3837.101800160539
 31
-0.0000000000013153
  0
LINE
  5
149F1
330
747D
100
AcDbEntity
  8
センター
 48
3.0
100
AcDbLine
 10
6671.003494576566
 20
3712.101800160539
 30
-0.0000000000013153
 11
6671.003494576566
 21
3562.101800160539
 31
-0.0000000000013153
  0
CIRCLE
  5
149F2
330
747D
100
AcDbEntity
  8
部品1
 48
50.0
100
AcDbCircle
 10
6671.003494576566
 20
3637.101800160539
 30
-0.0000000000013153
 40
15.0
  0
LINE
  5
149F3
330
747D
100
AcDbEntity
  8
センター
 48
3.0
100
AcDbLine
 10
6596.003494576565
 20
3637.101800160539
 30
-0.0000000000013153
 11
6746.003494576566
 21
3637.101800160539
 31
-0.0000000000013153
  0
LINE
  5
149F4
330
747D
100
AcDbEntity
  8
センター
 48
10.0
100
AcDbLine
 10
6571.003494576565
 20
3487.10180016054
 30
-0.0000000000013153
 11
6571.003494576565
 21
3987.101800160539
 31
-0.0000000000013153
  0
CIRCLE
  5
149F5
330
747D
100
AcDbEntity
  8
部品1
 48
50.0
100
AcDbCircle
 10
6471.003494576565
 20
3837.101800160539
 30
-0.0000000000013153
 40
15.0
  0
LINE
  5
149F6
330
747D
100
AcDbEntity
  8
センター
 48
3.0
100
AcDbLine
 10
6471.003494576565
 20
3912.101800160539
 30
-0.0000000000013153
 11
6471.003494576565
 21
3762.101800160539
 31
-0.0000000000013153
  0
LINE
  5
149F7
330
747D
100
AcDbEntity
  8
センター
 48
3.0
100
AcDbLine
 10
6471.003494576565
 20
3712.101800160539
 30
-0.0000000000013153
 11
6471.003494576565
 21
3562.101800160539
 31
-0.0000000000013153
  0
CIRCLE
  5
149F8
330
747D
100
AcDbEntity
  8
部品1
 48
50.0
100
AcDbCircle
 10
6471.003494576565
 20
3637.101800160539
 30
-0.0000000000013153
 40
15.0
  0
LINE
  5
149F9
330
747D
100
AcDbEntity
  8
センター
 48
10.0
100
AcDbLine
 10
6321.003494576565
 20
3737.10180016054
 30
-0.0000000000013153
 11
6821.003494576565
 21
3737.10180016054
 31
-0.0000000000013153
  0
LINE
  5
149FA
330
747D
100
AcDbEntity
  8
センター
 48
3.0
100
AcDbLine
 10
6396.003494576565
 20
3837.101800160539
 30
-0.0000000000013153
 11
6546.003494576566
 21
3837.101800160539
 31
-0.0000000000013153
  0
LINE
  5
149FB
330
747D
100
AcDbEntity
  8
センター
 48
3.0
100
AcDbLine
 10
6396.003494576565
 20
3637.101800160539
 30
-0.0000000000013153
 11
6546.003494576566
 21
3637.101800160539
 31
-0.0000000000013153
  0
LINE
  5
149FC
330
747D
100
AcDbEntity
  8
センター
 48
3.0
100
AcDbLine
 10
1596.003494576565
 20
3637.101800160539
 30
-0.0000000000013153
 11
1746.003494576565
 21
3637.101800160539
 31
-0.0000000000013153
  0
LINE
  5
149FD
330
747D
100
AcDbEntity
  8
センター
 48
3.0
100
AcDbLine
 10
1596.003494576565
 20
3837.101800160539
 30
-0.0000000000013153
 11
1746.003494576565
 21
3837.101800160539
 31
-0.0000000000013153
  0
LINE
  5
149FE
330
747D
100
AcDbEntity
  8
センター
 48
10.0
100
AcDbLine
 10
1521.003494576565
 20
3737.10180016054
 30
-0.0000000000013153
 11
2021.003494576566
 21
3737.10180016054
 31
-0.0000000000013153
  0
CIRCLE
  5
149FF
330
747D
100
AcDbEntity
  8
部品1
 48
50.0
100
AcDbCircle
 10
1671.003494576565
 20
3637.101800160539
 30
-0.0000000000013153
 40
15.0
  0
LINE
  5
14A00
330
747D
100
AcDbEntity
  8
センター
 48
3.0
100
AcDbLine
 10
1671.003494576565
 20
3712.101800160539
 30
-0.0000000000013153
 11
1671.003494576565
 21
3562.101800160539
 31
-0.0000000000013153
  0
LINE
  5
14A01
330
747D
100
AcDbEntity
  8
センター
 48
3.0
100
AcDbLine
 10
1671.003494576565
 20
3912.101800160539
 30
-0.0000000000013153
 11
1671.003494576565
 21
3762.101800160539
 31
-0.0000000000013153
  0
CIRCLE
  5
14A02
330
747D
100
AcDbEntity
  8
部品1
 48
50.0
100
AcDbCircle
 10
1671.003494576565
 20
3837.101800160539
 30
-0.0000000000013153
 40
15.0
  0
LINE
  5
14A03
330
747D
100
AcDbEntity
  8
センター
 48
10.0
100
AcDbLine
 10
1771.003494576565
 20
3487.10180016054
 30
-0.0000000000013153
 11
1771.003494576565
 21
3987.101800160539
 31
-0.0000000000013153
  0
LINE
  5
14A04
330
747D
100
AcDbEntity
  8
センター
 48
3.0
100
AcDbLine
 10
1796.003494576565
 20
3637.101800160539
 30
-0.0000000000013153
 11
1946.003494576565
 21
3637.101800160539
 31
-0.0000000000013153
  0
CIRCLE
  5
14A05
330
747D
100
AcDbEntity
  8
部品1
 48
50.0
100
AcDbCircle
 10
1871.003494576565
 20
3637.101800160539
 30
-0.0000000000013153
 40
15.0
  0
LINE
  5
14A06
330
747D
100
AcDbEntity
  8
センター
 48
3.0
100
AcDbLine
 10
1871.003494576565
 20
3712.101800160539
 30
-0.0000000000013153
 11
1871.003494576565
 21
3562.101800160539
 31
-0.0000000000013153
  0
LINE
  5
14A07
330
747D
100
AcDbEntity
  8
センター
 48
3.0
100
AcDbLine
 10
1796.003494576565
 20
3837.101800160539
 30
-0.0000000000013153
 11
1946.003494576565
 21
3837.101800160539
 31
-0.0000000000013153
  0
LINE
  5
14A08
330
747D
100
AcDbEntity
  8
センター
 48
3.0
100
AcDbLine
 10
1871.003494576565
 20
3912.101800160539
 30
-0.0000000000013153
 11
1871.003494576565
 21
3762.101800160539
 31
-0.0000000000013153
  0
CIRCLE
  5
14A09
330
747D
100
AcDbEntity
  8
部品1
 48
50.0
100
AcDbCircle
 10
1871.003494576565
 20
3837.101800160539
 30
-0.0000000000013153
 40
15.0
  0
LINE
  5
14A0A
330
747D
100
AcDbEntity
  8
寸法
 48
50.0
100
AcDbLine
 10
2882.625531246027
 20
2494.675672128184
 30
-0.0000000000013153
 11
2849.777248413258
 21
2617.267132601642
 31
-0.0000000000013153
  0
LINE
  5
14A0B
330
747D
100
AcDbEntity
  8
寸法
 48
50.0
100
AcDbLine
 10
2882.625531246027
 20
2494.675672128184
 30
-0.0000000000013153
 11
2915.473814078854
 21
2617.267132601642
 31
-0.0000000000013153
  0
LINE
  5
14A0C
330
747D
100
AcDbEntity
  8
寸法
 48
50.0
100
AcDbLine
 10
2882.625531246027
 20
3280.390900561366
 30
-0.0000000000013153
 11
2882.625531246027
 21
2494.675672128184
 31
-0.0000000000013153
  0
MTEXT
  5
14A0D
330
747D
100
AcDbEntity
  8
寸法
 62
     7
 48
50.0
100
AcDbMText
 10
2788.187595180251
 20
2633.388978255329
 30
-0.0000000000013153
 40
90.0
 41
0.0
 71
     4
 72
     1
  1
\A1;水勾配 1/100 
  7
STYLE1
 11
0.0000000000000001
 21
1.0
 31
0.0
 73
     1
 44
1.0
1001
ACAD
1000
MTEXTBEGIN
1070
    73
1070
     1
1070
    44
1040
1.0
1070
    74
1070
     0
1000
MTEXTEND
  0
DIMENSION
  5
14A11
330
747D
100
AcDbEntity
  8
寸法
 48
50.0
100
AcDbDimension
  2
*D2
 10
6801.003494576507
 20
1058.614081823993
 30
-0.0000000000013153
 11
4171.003494576566
 21
1133.62294009171
 31
-0.0000000000013153
 70
    32
  1
屋根寸法 N \U+00D72400 ＋ 460
 71
     5
 42
5259.999999999884
  3
INABA_S30G
100
AcDbAlignedDimension
 13
1541.003494576624
 23
1523.601800160525
 33
-0.0000000000013153
 14
6801.003494576507
 24
1523.601800160539
 34
-0.0000000000013153
100
AcDbRotatedDimension
  0
DIMENSION
  5
14A12
330
747D
100
AcDbEntity
  8
寸法
 48
50.0
100
AcDbDimension
  2
*D3
 10
1371.003494576565
 20
1058.614081823993
 30
-0.0000000000013153
 11
1456.003494576594
 21
1133.614081823993
 31
-0.0000000000013153
 70
    32
 71
     5
 42
170.0000000000582
  3
INABA_S30G
100
AcDbAlignedDimension
 13
1541.003494576624
 23
1523.601800160525
 33
-0.0000000000013153
 14
1371.003494576565
 24
1387.101800160539
 34
-0.0000000000013153
100
AcDbRotatedDimension
  0
DIMENSION
  5
14A13
330
747D
100
AcDbEntity
  8
寸法
 48
50.0
100
AcDbDimension
  2
*D4
 10
6971.003494576565
 20
1058.614081823993
 30
-0.0000000000013153
 11
6886.003494576536
 21
1133.614081823993
 31
-0.0000000000013153
 70
    32
 71
     5
 42
170.0000000000582
  3
INABA_S30G
100
AcDbAlignedDimension
 13
6801.003494576507
 23
1523.601800160539
 33
-0.0000000000013153
 14
6971.003494576565
 24
1387.101800160539
 34
-0.0000000000013153
100
AcDbRotatedDimension
  0
DIMENSION
  5
14A17
330
747D
100
AcDbEntity
  8
寸法
 48
50.0
100
AcDbDimension
  2
*D5
 10
7353.277716940167
 20
1387.101800160539
 30
-0.0000000000013153
 11
7353.277716940167
 21
1163.237839129861
 31
-0.0000000000013153
 70
   160
 71
     5
 42
136.5
  3
INABA_S30G
100
AcDbAlignedDimension
 13
6801.003494576507
 23
1523.601800160539
 33
-0.0000000000013153
 14
6971.003494576565
 24
1387.101800160539
 34
-0.0000000000013153
 50
90.0
100
AcDbRotatedDimension
  0
DIMENSION
  5
14A18
330
747D
100
AcDbEntity
  8
寸法
 48
50.0
100
AcDbDimension
  2
*D6
 10
7353.277716940167
 20
1523.601800160539
 30
-0.0000000000013153
 11
7278.277716940166
 21
3562.101800160541
 31
-0.0000000000013153
 70
    32
  1
屋根寸法 <>
 71
     5
 42
4077.0
  3
INABA_S30G
100
AcDbAlignedDimension
 13
6801.003494576507
 23
5600.601800160539
 33
-0.0000000000013153
 14
6801.003494576507
 24
1523.601800160539
 34
-0.0000000000013153
 50
90.0
100
AcDbRotatedDimension
  0
DIMENSION
  5
14A19
330
747D
100
AcDbEntity
  8
寸法
 48
50.0
100
AcDbDimension
  2
*D7
 10
7353.277716940168
 20
5737.101800160539
 30
-0.0000000000013153
 11
7353.277716940167
 21
5960.965761191268
 31
-0.0000000000013153
 70
   160
 71
     5
 42
136.5
  3
INABA_S30G
100
AcDbAlignedDimension
 13
6801.003494576507
 23
5600.601800160539
 33
-0.0000000000013153
 14
6971.003494576565
 24
5737.101800160539
 34
-0.0000000000013153
 50
270.0
100
AcDbRotatedDimension
  0
LINE
  5
14A35
330
747D
100
AcDbEntity
  8
寸法
 48
50.0
100
AcDbLine
 10
2882.625531246027
 20
4629.527928192894
 30
-0.0000000000013153
 11
2849.777248413258
 21
4506.936467719437
 31
-0.0000000000013153
  0
LINE
  5
14A36
330
747D
100
AcDbEntity
  8
寸法
 48
50.0
100
AcDbLine
 10
2882.625531246027
 20
4629.527928192894
 30
-0.0000000000013153
 11
2915.473814078854
 21
4506.936467719437
 31
-0.0000000000013153
  0
LINE
  5
14A37
330
747D
100
AcDbEntity
  8
寸法
 48
50.0
100
AcDbLine
 10
2882.625531246027
 20
3843.812699759713
 30
-0.0000000000013153
 11
2882.625531246027
 21
4629.527928192894
 31
-0.0000000000013153
  0
MTEXT
  5
14A38
330
747D
100
AcDbEntity
  8
寸法
 62
     7
 48
50.0
100
AcDbMText
 10
2788.187595180251
 20
3882.526005886843
 30
-0.0000000000013153
 40
90.0
 41
0.0
 71
     4
 72
     1
  1
\A1;水勾配 1/100 
  7
STYLE1
 11
0.0000000000000001
 21
1.0
 31
0.0
 73
     1
 44
1.0
1001
ACAD
1000
MTEXTBEGIN
1070
    73
1070
     1
1070
    44
1040
1.0
1070
    74
1070
     0
1000
MTEXTEND
  0
TEXT
  5
14A39
330
747D
100
AcDbEntity
  8
寸法
 62
     7
100
AcDbText
 10
5029.147395205349
 20
2262.428068694628
 30
-0.0000000000013153
 40
90.0
  1
ｱﾝｶｰﾎﾞﾙﾄ(市販品)
  7
STYLE1
100
AcDbText
  0
LEADER
  5
14A3A
330
747D
100
AcDbEntity
  8
寸法
 48
50.0
100
AcDbLeader
  3
INABA_S50G
 76
     3
 10
6471.003494576565
 20
3287.101800160539
 30
-0.0000000000013153
 10
5859.489255596141
 20
2227.928068694629
 30
-0.0000000000013153
 10
5006.600846629022
 20
2227.928068694629
 30
-0.0000000000013153
1001
ACAD
1000
DSTYLE
1002
{
1070
    41
1040
80.0
1070
   147
1040
25.0
1070
    77
1070
     0
1002
}
  0
DIMENSION
  5
14A3B
330
747D
100
AcDbEntity
  8
寸法
 48
50.0
100
AcDbDimension
  2
*D8
 10
807.3822958488454
 20
1387.101800160539
 30
-0.0000000000013153
 11
732.3822958488452
 21
3562.101800160539
 31
-0.0000000000013153
 70
    32
  1
基礎土間寸法 <>
 71
     5
 42
4349.999999999999
  3
INABA_S30G
100
AcDbAlignedDimension
 13
1371.003494576536
 23
5737.101800160539
 33
-0.0000000000013153
 14
1371.003494576536
 24
1387.101800160539
 34
-0.0000000000013153
 50
90.0
100
AcDbRotatedDimension
  0
DIMENSION
  5
14A3C
330
747D
100
AcDbEntity
  8
寸法
 48
50.0
100
AcDbDimension
  2
*D9
 10
1030.131657865291
 20
1387.101800160539
 30
-0.0000000000013153
 11
955.1227995975747
 21
2387.10180016054
 31
-0.0000000000013153
 70
    32
 71
     5
 42
2000.0
  3
INABA_S30G
100
AcDbAlignedDimension
 13
1521.003494576536
 23
3387.101800160539
 33
-0.0000000000013153
 14
1371.003494576536
 24
1387.101800160539
 34
-0.0000000000013153
 50
90.0
100
AcDbRotatedDimension
  0
DIMENSION
  5
14A3D
330
747D
100
AcDbEntity
  8
寸法
 48
50.0
100
AcDbDimension
  2
*D10
 10
1030.131657865291
 20
3387.101800160539
 30
-0.0000000000013153
 11
955.1316578652908
 21
3562.10180016054
 31
-0.0000000000013153
 70
    32
 71
     5
 42
350.0
  3
INABA_S30G
100
AcDbAlignedDimension
 13
1521.003494576536
 23
3737.10180016054
 33
-0.0000000000013153
 14
1521.003494576536
 24
3387.101800160539
 34
-0.0000000000013153
 50
90.0
100
AcDbRotatedDimension
  0
DIMENSION
  5
14A3E
330
747D
100
AcDbEntity
  8
寸法
 48
50.0
100
AcDbDimension
  2
*D11
 10
1030.131657865291
 20
5737.101800160539
 30
-0.0000000000013153
 11
955.1227995975738
 21
4737.101800160539
 31
-0.0000000000013153
 70
    32
 71
     5
 42
1999.999999999999
  3
INABA_S30G
100
AcDbAlignedDimension
 13
1521.003494576536
 23
3737.10180016054
 33
-0.0000000000013153
 14
1371.003494576536
 24
5737.101800160539
 34
-0.0000000000013153
 50
270.0
100
AcDbRotatedDimension
  0
LINE
  5
14A3F
330
747D
100
AcDbEntity
  8
寸法
 48
50.0
100
AcDbLine
 10
1516.86966382766
 20
4341.000762640671
 30
-0.0000000000013153
 11
1624.60303441064
 21
4369.867832286252
 31
-0.0000000000013153
  0
LINE
  5
14A40
330
747D
100
AcDbEntity
  8
寸法
 48
50.0
100
AcDbLine
 10
1624.60303441064
 20
4369.867832286252
 30
-0.0000000000013153
 11
1624.60303441064
 21
4303.933213364709
 31
-0.0000000000013153
  0
LINE
  5
14A41
330
747D
100
AcDbEntity
  8
寸法
 48
50.0
100
AcDbLine
 10
1771.003494576565
 20
4341.000762640671
 30
-0.0000000000013153
 11
1516.86966382766
 21
4341.000762640671
 31
-0.0000000000013153
  0
TEXT
  5
14A42
330
747D
100
AcDbEntity
  8
寸法
 62
     7
100
AcDbText
 10
1407.36801441411
 20
4312.935289838902
 30
-0.0000000000013153
 40
90.0
  1
A'
  7
STYLE1
100
AcDbText
  0
LINE
  5
14A43
330
747D
100
AcDbEntity
  8
寸法
 48
50.0
100
AcDbLine
 10
1771.003494576565
 20
2783.202837680407
 30
-0.0000000000013153
 11
1516.86966382766
 21
2783.202837680407
 31
-0.0000000000013153
  0
LINE
  5
14A44
330
747D
100
AcDbEntity
  8
寸法
 48
50.0
100
AcDbLine
 10
1516.86966382766
 20
2783.202837680407
 30
-0.0000000000013153
 11
1624.60303441064
 21
2754.335768034826
 31
-0.0000000000013153
  0
LINE
  5
14A45
330
747D
100
AcDbEntity
  8
寸法
 48
50.0
100
AcDbLine
 10
1624.60303441064
 20
2754.335768034826
 30
-0.0000000000013153
 11
1624.60303441064
 21
2820.270386956369
 31
-0.0000000000013153
  0
TEXT
  5
14A46
330
747D
100
AcDbEntity
  8
寸法
 62
     7
100
AcDbText
 10
1406.109385555392
 20
2740.975634672504
 30
-0.0000000000013153
 40
90.0
  1
A
  7
STYLE1
100
AcDbText
  0
LINE
  5
14A47
330
747D
100
AcDbEntity
  8
寸法
 48
50.0
100
AcDbLine
 10
1771.003494576565
 20
2783.202837680407
 30
-0.0000000000013153
 11
1771.003494576565
 21
3137.10180016054
 31
-0.0000000000013153
  0
DIMENSION
  5
14A48
330
747D
100
AcDbEntity
  8
寸法
 48
50.0
100
AcDbDimension
  2
*D12
 10
6971.003494576565
 20
6441.960471796815
 30
-0.0000000000013153
 11
4171.003494576566
 21
6516.969330064532
 31
-0.0000000000013153
 70
    32
  1
基礎土間寸法 N \U+00D72400 ＋ 800
 71
     5
 42
5600.0
  3
INABA_S30G
100
AcDbAlignedDimension
 13
1371.003494576565
 23
5737.101800160539
 33
-0.0000000000013153
 14
6971.003494576565
 24
5737.101800160539
 34
-0.0000000000013153
100
AcDbRotatedDimension
  0
DIMENSION
  5
14A49
330
747D
100
AcDbEntity
  8
寸法
 48
50.0
100
AcDbDimension
  2
*D13
 10
6971.003494576565
 20
6247.923432822497
 30
-0.0000000000013153
 11
6771.003494576565
 21
6322.923432822498
 31
-0.0000000000013153
 70
    32
 71
     5
 42
400.0
  3
INABA_S30G
100
AcDbAlignedDimension
 13
6571.003494576565
 23
3987.101800160539
 33
-0.0000000000013153
 14
6971.003494576565
 24
5737.101800160539
 34
-0.0000000000013153
100
AcDbRotatedDimension
  0
DIMENSION
  5
14A4A
330
747D
100
AcDbEntity
  8
寸法
 48
50.0
100
AcDbDimension
  2
*D14
 10
6571.003494576565
 20
6247.923432822497
 30
-0.0000000000013153
 11
4171.003494576566
 21
6322.932291090214
 31
-0.0000000000013153
 70
    32
  1
N \U+00D72400
 71
     5
 42
4800.0
  3
INABA_S30G
100
AcDbAlignedDimension
 13
1771.003494576565
 23
3987.101800160539
 33
-0.0000000000013153
 14
6571.003494576565
 24
3987.101800160539
 34
-0.0000000000013153
100
AcDbRotatedDimension
  0
DIMENSION
  5
14A4B
330
747D
100
AcDbEntity
  8
寸法
 48
50.0
100
AcDbDimension
  2
*D15
 10
1771.003494576566
 20
6247.923432822497
 30
-0.0000000000013153
 11
1571.003494576565
 21
6322.923432822498
 31
-0.0000000000013153
 70
    32
 71
     5
 42
400.0
  3
INABA_S30G
100
AcDbAlignedDimension
 13
1371.003494576565
 23
5737.101800160539
 33
-0.0000000000013153
 14
1771.003494576565
 24
3987.101800160539
 34
-0.0000000000013153
100
AcDbRotatedDimension
  0
DIMENSION
  5
14A4C
330
747D
100
AcDbEntity
  8
寸法
 48
50.0
100
AcDbDimension
  2
*D16
 10
6171.003494576536
 20
2623.965584123433
 30
-0.0000000000013153
 11
6371.003494576537
 21
2698.965584123433
 31
-0.0000000000013153
 70
    32
 71
     5
 42
400.0
  3
INABA_S30G
100
AcDbAlignedDimension
 13
6571.003494576537
 23
3137.101800160525
 33
-0.0000000000013153
 14
6171.003494576536
 24
2862.101800160525
 34
-0.0000000000013153
100
AcDbRotatedDimension
  0
DIMENSION
  5
14A4D
330
747D
100
AcDbEntity
  8
寸法
 48
50.0
100
AcDbDimension
  2
*D17
 10
6971.003494576565
 20
2385.82936808637
 30
-0.0000000000013153
 11
6571.003494576537
 21
2385.82936808637
 31
-0.0000000000013153
 70
   160
 71
     5
 42
800.0000000000291
  3
INABA_S30G
100
AcDbAlignedDimension
 13
6171.003494576536
 23
2862.101800160525
 33
-0.0000000000013153
 14
6971.003494576565
 24
2862.101800160525
 34
-0.0000000000013153
100
AcDbRotatedDimension
  0
DIMENSION
  5
14A4E
330
747D
100
AcDbEntity
  8
寸法
 48
50.0
100
AcDbDimension
  2
*D18
 10
5993.688991292366
 20
2862.101800160511
 30
-0.0000000000013153
 11
5918.680133024648
 21
3124.601800160519
 31
-0.0000000000013153
 70
    32
 71
     5
 42
525.0000000000145
  3
INABA_S30G
100
AcDbAlignedDimension
 13
6321.003494576537
 23
3387.101800160525
 33
-0.0000000000013153
 14
6171.003494576536
 24
2862.101800160511
 34
-0.0000000000013153
 50
90.0
100
AcDbRotatedDimension
  0
DIMENSION
  5
14A4F
330
747D
100
AcDbEntity
  8
寸法
 48
50.0
100
AcDbDimension
  2
*D19
 10
5816.374488008194
 20
2862.101800160511
 30
-0.0000000000013153
 11
5741.374488008194
 21
3562.101800160519
 31
-0.0000000000013153
 70
    32
 71
     5
 42
1400.000000000014
  3
INABA_S30G
100
AcDbAlignedDimension
 13
6171.003494576536
 23
4262.101800160524
 33
-0.0000000000013153
 14
6171.003494576536
 24
2862.101800160511
 34
-0.0000000000013153
 50
90.0
100
AcDbRotatedDimension
  0
DIMENSION
  5
14A50
330
747D
100
AcDbEntity
  8
寸法
 48
50.0
100
AcDbDimension
  2
*D20
 10
5993.688991292366
 20
3387.101800160525
 30
-0.0000000000013153
 11
5918.688991292365
 21
3562.101800160526
 31
-0.0000000000013153
 70
    32
 71
     5
 42
350.0
  3
INABA_S30G
100
AcDbAlignedDimension
 13
6321.003494576537
 23
3737.101800160525
 33
-0.0000000000013153
 14
6321.003494576537
 24
3387.101800160525
 34
-0.0000000000013153
 50
90.0
100
AcDbRotatedDimension
  0
DIMENSION
  5
14A51
330
747D
100
AcDbEntity
  8
寸法
 48
50.0
100
AcDbDimension
  2
*D21
 10
5993.688991292366
 20
4262.101800160539
 30
-0.0000000000013153
 11
5918.680133024648
 21
3999.601800160533
 31
-0.0000000000013153
 70
    32
 71
     5
 42
525.0000000000145
  3
INABA_S30G
100
AcDbAlignedDimension
 13
6321.003494576537
 23
3737.101800160525
 33
-0.0000000000013153
 14
6171.003494576536
 24
4262.101800160539
 34
-0.0000000000013153
 50
270.0
100
AcDbRotatedDimension
  0
LINE
  5
14A5C
330
747D
100
AcDbEntity
  8
部品1
 48
50.0
100
AcDbLine
 10
4571.003494576565
 20
4262.101800160539
 30
-0.0000000000013153
 11
3771.003494576566
 21
4262.101800160539
 31
-0.0000000000013153
  0
LINE
  5
14A5D
330
747D
100
AcDbEntity
  8
部品1
 48
50.0
100
AcDbLine
 10
3771.003494576566
 20
2862.101800160539
 30
-0.0000000000013153
 11
4571.003494576565
 21
2862.101800160539
 31
-0.0000000000013153
  0
LINE
  5
14A5E
330
747D
100
AcDbEntity
  8
部品1
 48
50.0
100
AcDbLine
 10
3771.003494576566
 20
4262.101800160539
 30
-0.0000000000013153
 11
3771.003494576566
 21
2862.101800160539
 31
-0.0000000000013153
  0
CIRCLE
  5
14A5F
330
747D
100
AcDbEntity
  8
部品1
 48
50.0
100
AcDbCircle
 10
4271.003494576565
 20
3487.10180016054
 30
-0.0000000000013153
 40
15.0
  0
LINE
  5
14A60
330
747D
100
AcDbEntity
  8
センター
 48
3.0
100
AcDbLine
 10
4271.003494576565
 20
3562.101800160539
 30
-0.0000000000013153
 11
4271.003494576565
 21
3412.101800160539
 31
-0.0000000000013153
  0
LINE
  5
14A61
330
747D
100
AcDbEntity
  8
センター
 48
3.0
100
AcDbLine
 10
4196.003494576565
 20
3487.10180016054
 30
-0.0000000000013153
 11
4346.003494576565
 21
3487.10180016054
 31
-0.0000000000013153
  0
LINE
  5
14A62
330
747D
100
AcDbEntity
  8
センター
 48
3.0
100
AcDbLine
 10
4271.003494576565
 20
3362.10180016054
 30
-0.0000000000013153
 11
4271.003494576565
 21
3212.101800160539
 31
-0.0000000000013153
  0
CIRCLE
  5
14A63
330
747D
100
AcDbEntity
  8
部品1
 48
50.0
100
AcDbCircle
 10
4271.003494576565
 20
3287.101800160539
 30
-0.0000000000013153
 40
15.0
  0
LINE
  5
14A64
330
747D
100
AcDbEntity
  8
センター
 48
3.0
100
AcDbLine
 10
4196.003494576565
 20
3287.101800160539
 30
-0.0000000000013153
 11
4346.003494576565
 21
3287.101800160539
 31
-0.0000000000013153
  0
LINE
  5
14A65
330
747D
100
AcDbEntity
  8
センター
 48
10.0
100
AcDbLine
 10
4171.003494576566
 20
3137.10180016054
 30
-0.0000000000013153
 11
4171.003494576566
 21
3637.101800160539
 31
-0.0000000000013153
  0
CIRCLE
  5
14A66
330
747D
100
AcDbEntity
  8
部品1
 48
50.0
100
AcDbCircle
 10
4071.003494576565
 20
3487.10180016054
 30
-0.0000000000013153
 40
15.0
  0
LINE
  5
14A67
330
747D
100
AcDbEntity
  8
センター
 48
3.0
100
AcDbLine
 10
4071.003494576565
 20
3562.101800160539
 30
-0.0000000000013153
 11
4071.003494576565
 21
3412.101800160539
 31
-0.0000000000013153
  0
LINE
  5
14A68
330
747D
100
AcDbEntity
  8
センター
 48
3.0
100
AcDbLine
 10
4071.003494576565
 20
3362.10180016054
 30
-0.0000000000013153
 11
4071.003494576565
 21
3212.101800160539
 31
-0.0000000000013153
  0
CIRCLE
  5
14A69
330
747D
100
AcDbEntity
  8
部品1
 48
50.0
100
AcDbCircle
 10
4071.003494576565
 20
3287.101800160539
 30
-0.0000000000013153
 40
15.0
  0
LINE
  5
14A6A
330
747D
100
AcDbEntity
  8
センター
 48
10.0
100
AcDbLine
 10
3921.003494576566
 20
3387.101800160539
 30
-0.0000000000013153
 11
4421.003494576566
 21
3387.101800160539
 31
-0.0000000000013153
  0
LINE
  5
14A6B
330
747D
100
AcDbEntity
  8
センター
 48
3.0
100
AcDbLine
 10
3996.003494576566
 20
3487.10180016054
 30
-0.0000000000013153
 11
4146.003494576565
 21
3487.10180016054
 31
-0.0000000000013153
  0
LINE
  5
14A6C
330
747D
100
AcDbEntity
  8
センター
 48
3.0
100
AcDbLine
 10
3996.003494576566
 20
3287.101800160539
 30
-0.0000000000013153
 11
4146.003494576565
 21
3287.101800160539
 31
-0.0000000000013153
  0
CIRCLE
  5
14A6D
330
747D
100
AcDbEntity
  8
部品1
 48
50.0
100
AcDbCircle
 10
4271.003494576565
 20
3837.101800160539
 30
-0.0000000000013153
 40
15.0
  0
LINE
  5
14A6E
330
747D
100
AcDbEntity
  8
センター
 48
3.0
100
AcDbLine
 10
4271.003494576565
 20
3912.101800160539
 30
-0.0000000000013153
 11
4271.003494576565
 21
3762.101800160539
 31
-0.0000000000013153
  0
LINE
  5
14A6F
330
747D
100
AcDbEntity
  8
センター
 48
3.0
100
AcDbLine
 10
4196.003494576565
 20
3837.101800160539
 30
-0.0000000000013153
 11
4346.003494576565
 21
3837.101800160539
 31
-0.0000000000013153
  0
LINE
  5
14A70
330
747D
100
AcDbEntity
  8
センター
 48
3.0
100
AcDbLine
 10
4271.003494576565
 20
3712.101800160539
 30
-0.0000000000013153
 11
4271.003494576565
 21
3562.101800160539
 31
-0.0000000000013153
  0
CIRCLE
  5
14A71
330
747D
100
AcDbEntity
  8
部品1
 48
50.0
100
AcDbCircle
 10
4271.003494576565
 20
3637.101800160539
 30
-0.0000000000013153
 40
15.0
  0
LINE
  5
14A72
330
747D
100
AcDbEntity
  8
センター
 48
3.0
100
AcDbLine
 10
4196.003494576565
 20
3637.101800160539
 30
-0.0000000000013153
 11
4346.003494576565
 21
3637.101800160539
 31
-0.0000000000013153
  0
LINE
  5
14A73
330
747D
100
AcDbEntity
  8
センター
 48
10.0
100
AcDbLine
 10
4171.003494576566
 20
3487.10180016054
 30
-0.0000000000013153
 11
4171.003494576566
 21
3987.101800160539
 31
-0.0000000000013153
  0
CIRCLE
  5
14A74
330
747D
100
AcDbEntity
  8
部品1
 48
50.0
100
AcDbCircle
 10
4071.003494576565
 20
3837.101800160539
 30
-0.0000000000013153
 40
15.0
  0
LINE
  5
14A75
330
747D
100
AcDbEntity
  8
センター
 48
3.0
100
AcDbLine
 10
4071.003494576565
 20
3912.101800160539
 30
-0.0000000000013153
 11
4071.003494576565
 21
3762.101800160539
 31
-0.0000000000013153
  0
LINE
  5
14A76
330
747D
100
AcDbEntity
  8
センター
 48
3.0
100
AcDbLine
 10
4071.003494576565
 20
3712.101800160539
 30
-0.0000000000013153
 11
4071.003494576565
 21
3562.101800160539
 31
-0.0000000000013153
  0
CIRCLE
  5
14A77
330
747D
100
AcDbEntity
  8
部品1
 48
50.0
100
AcDbCircle
 10
4071.003494576565
 20
3637.101800160539
 30
-0.0000000000013153
 40
15.0
  0
LINE
  5
14A78
330
747D
100
AcDbEntity
  8
センター
 48
10.0
100
AcDbLine
 10
3921.003494576566
 20
3737.10180016054
 30
-0.0000000000013153
 11
4421.003494576566
 21
3737.10180016054
 31
-0.0000000000013153
  0
LINE
  5
14A79
330
747D
100
AcDbEntity
  8
センター
 48
3.0
100
AcDbLine
 10
3996.003494576566
 20
3837.101800160539
 30
-0.0000000000013153
 11
4146.003494576565
 21
3837.101800160539
 31
-0.0000000000013153
  0
LINE
  5
14A7A
330
747D
100
AcDbEntity
  8
センター
 48
3.0
100
AcDbLine
 10
3996.003494576566
 20
3637.101800160539
 30
-0.0000000000013153
 11
4146.003494576565
 21
3637.101800160539
 31
-0.0000000000013153
  0
LINE
  5
14A7B
330
747D
100
AcDbEntity
  8
部品1
 48
50.0
100
AcDbLine
 10
4571.003494576565
 20
4262.101800160539
 30
-0.0000000000013153
 11
4571.003494576565
 21
2862.101800160539
 31
-0.0000000000013153
  0
DIMENSION
  5
153AF
330
747D
100
AcDbEntity
  8
寸法
 48
50.0
100
AcDbDimension
  2
*D33
 10
4171.003494576562
 20
6040.090200330263
 30
0.0
 11
2971.003494576564
 21
6115.09905859798
 31
0.0
 70
    32
 71
     5
 42
2399.999999999996
  3
INABA_S30G
100
AcDbAlignedDimension
 13
1771.003494576565
 23
3987.101800160539
 33
-0.0000000000013153
 14
4171.003494576562
 24
3987.101800160539
 34
-0.0000000000013153
100
AcDbRotatedDimension
1001
ACAD
1000
DSTYLE
1002
{
1070
    73
1070
     1
1070
    74
1070
     1
1070
   272
1070
     1
1070
   341
1005
0
1002
}
  0
DIMENSION
  5
153BC
330
747D
100
AcDbEntity
  8
寸法
 48
50.0
100
AcDbDimension
  2
*D34
 10
5291.003494576562
 20
6040.090200330263
 30
0.0
 11
4731.003494576563
 21
6115.09905859798
 31
0.0
 70
    32
  1
2400
 71
     5
 42
1119.999999999996
  3
INABA_S30G
100
AcDbAlignedDimension
 13
4171.003494576566
 23
3987.101800160539
 33
-0.0000000000013153
 14
5291.003494576562
 24
3987.101800160539
 34
-0.0000000000013153
100
AcDbRotatedDimension
1001
ACAD
1000
DSTYLE
1002
{
1070
    76
1070
     1
1070
   344
1005
135E3
1070
    73
1070
     1
1070
    74
1070
     1
1070
   272
1070
     1
1070
   341
1005
0
1002
}
  0
DIMENSION
  5
1548B
330
747D
100
AcDbEntity
  8
寸法
 48
50.0
100
AcDbDimension
  2
*D35
 10
5371.003494576562
 20
6040.090200330263
 30
0.0
 11
5971.003494576562
 21
6115.09905859798
 31
0.0
 70
    32
  1
2400
 71
     5
 42
1200.0
  3
INABA_S30G
100
AcDbAlignedDimension
 13
6571.003494576562
 23
3987.101800160539
 33
-0.0000000000013153
 14
5371.003494576562
 24
3987.101800160539
 34
-0.0000000000013153
100
AcDbRotatedDimension
1001
ACAD
1000
DSTYLE
1002
{
1070
    76
1070
     1
1070
   344
1005
135E3
1070
    73
1070
     1
1070
    74
1070
     1
1070
   272
1070
     1
1070
   341
1005
0
1002
}
  0
LINE
  5
1552E
102
{ACAD_REACTORS
330
15538
102
}
330
747D
100
AcDbEntity
  8
寸法
 48
50.0
100
AcDbLine
 10
5504.33415013731
 20
5839.328578916918
 30
0.0
 11
5125.97806880108
 21
3693.564613492926
 31
0.0
  0
LINE
  5
1552F
102
{ACAD_REACTORS
330
15538
102
}
330
747D
100
AcDbEntity
  8
寸法
 48
50.0
100
AcDbLine
 10
5534.796948493884
 20
5839.328578916918
 30
0.0
 11
5151.524953397333
 21
3665.685081157207
 31
0.0
  0
LINE
  5
15530
102
{ACAD_REACTORS
330
15538
102
}
330
747D
100
AcDbEntity
  8
寸法
 48
50.0
100
AcDbLine
 10
5082.166647962134
 20
3445.0976989974
 30
0.0
 11
4699.527708030833
 21
1275.044435487211
 31
0.0
  0
LINE
  5
15531
102
{ACAD_REACTORS
330
15538
102
}
330
747D
100
AcDbEntity
  8
寸法
 48
50.0
100
AcDbLine
 10
5107.713532558388
 20
3417.218166661682
 30
0.0
 11
4729.990506387406
 21
1275.044435487211
 31
0.0
  0
LINE
  5
15532
102
{ACAD_REACTORS
330
15538
102
}
330
747D
100
AcDbEntity
  8
寸法
 48
50.0
100
AcDbLine
 10
5125.97806880108
 20
3693.564613492926
 30
0.0
 11
4838.900794111324
 21
3668.448606401656
 31
0.0
  0
LINE
  5
15533
102
{ACAD_REACTORS
330
15538
102
}
330
747D
100
AcDbEntity
  8
寸法
 48
50.0
100
AcDbLine
 10
5082.166647962134
 20
3445.0976989974
 30
0.0
 11
5280.640658140438
 21
3462.461924892533
 31
0.0
  0
LINE
  5
15534
102
{ACAD_REACTORS
330
15538
102
}
330
747D
100
AcDbEntity
  8
寸法
 48
50.0
100
AcDbLine
 10
4838.900794111324
 20
3668.448606401656
 30
0.0
 11
5280.640658140438
 21
3462.461924892533
 31
0.0
  0
LINE
  5
15535
102
{ACAD_REACTORS
330
15538
102
}
330
747D
100
AcDbEntity
  8
寸法
 48
50.0
100
AcDbLine
 10
5151.524953397333
 20
3665.685081157207
 30
0.0
 11
4953.05094321903
 21
3648.320855262074
 31
0.0
  0
LINE
  5
15536
102
{ACAD_REACTORS
330
15538
102
}
330
747D
100
AcDbEntity
  8
寸法
 48
50.0
100
AcDbLine
 10
4953.05094321903
 20
3648.320855262074
 30
0.0
 11
5394.790807248144
 21
3442.334173752951
 31
0.0
  0
LINE
  5
15537
102
{ACAD_REACTORS
330
15538
102
}
330
747D
100
AcDbEntity
  8
寸法
 48
50.0
100
AcDbLine
 10
5107.713532558388
 20
3417.218166661682
 30
0.0
 11
5394.790807248144
 21
3442.334173752951
 31
0.0
  0
LINE
  5
1557C
330
747D
100
AcDbEntity
  8
文字
 48
50.0
100
AcDbLine
 10
5516.771609248222
 20
5737.101800160539
 30
-0.0000000000013153
 11
6971.003494576565
 21
5737.101800160539
 31
-0.0000000000013153
  0
LINE
  5
1557F
330
747D
100
AcDbEntity
  8
想像線
 48
10.0
100
AcDbLine
 10
5462.240178024938
 20
5600.601800160536
 30
-0.0000000000013153
 11
1541.003494576624
 21
5600.601800160524
 31
-0.0000000000013153
  0
LINE
  5
15580
330
747D
100
AcDbEntity
  8
センター
 48
10.0
100
AcDbLine
 10
5164.117647831296
 20
3737.10180016054
 30
-0.0000000000013153
 11
6821.003494576565
 21
3737.10180016054
 31
-0.0000000000013153
  0
LINE
  5
15581
330
747D
100
AcDbEntity
  8
センター
 48
10.0
100
AcDbLine
 10
5102.40320458333
 20
3387.10180016054
 30
-0.0000000000013153
 11
6821.003494576565
 21
3387.101800160539
 31
-0.0000000000013153
  0
LINE
  5
15582
330
747D
100
AcDbEntity
  8
想像線
 48
10.0
100
AcDbLine
 10
4773.817876033106
 20
1523.601800160534
 30
-0.0000000000013153
 11
6801.003494576507
 21
1523.601800160539
 31
-0.0000000000013153
  0
LINE
  5
15583
330
747D
100
AcDbEntity
  8
部品1
 48
30.0
100
AcDbLine
 10
4749.749243166403
 20
1387.101800160539
 30
-0.0000000000013153
 11
6971.003494576565
 21
1387.101800160539
 31
-0.0000000000013153
  0
ENDSEC
  0
SECTION
  2
OBJECTS
  0
DICTIONARY
  5
7471
330
0
100
AcDbDictionary
281
     1
  3
ACAD_CIP_PREVIOUS_PRODUCT_INFO
350
13EFE
  3
ACAD_COLOR
350
1341D
  3
ACAD_DETAILVIEWSTYLE
350
13EF4
  3
ACAD_GROUP
350
7472
  3
ACAD_LAYOUT
350
1341E
  3
ACAD_MATERIAL
350
1341C
  3
ACAD_MLEADERSTYLE
350
13EF0
  3
ACAD_MLINESTYLE
350
7473
  3
ACAD_PLOTSETTINGS
350
1341F
  3
ACAD_PLOTSTYLENAME
350
1341A
  3
ACAD_SCALELIST
350
13EDE
  3
ACAD_SECTIONVIEWSTYLE
350
13EF2
  3
ACAD_TABLESTYLE
350
13EDC
  3
ACAD_VISUALSTYLE
350
13EC3
  3
AcadDim
350
13618
  3
ACDB_RECOMPOSE_DATA
350
1584F
  3
AcDbVariableDictionary
350
13533
  3
CONTENTDICTIONARY
350
E71C
  3
DRAWINGVARIABLESDICT
350
F3B9
  3
DWGPROPS
350
15850
  0
DICTIONARY
  5
157A5
330
746D
100
AcDbDictionary
280
     1
281
     1
  0
DICTIONARY
  5
13451
330
7467
100
AcDbDictionary
280
     1
281
     1
  3
ACAD_LAYERFILTERS
360
1356A
  3
ACAD_LAYERSTATES
360
13452
  0
DICTIONARY
  5
15596
330
7474
100
AcDbDictionary
280
     1
281
     1
  3
ADSK_XREC_LAYER_RECONCILED
360
15597
  0
DICTIONARY
  5
15598
330
DEB3
100
AcDbDictionary
280
     1
281
     1
  3
ADSK_XREC_LAYER_RECONCILED
360
15599
  0
DICTIONARY
  5
1559A
330
DEB4
100
AcDbDictionary
280
     1
281
     1
  3
ADSK_XREC_LAYER_RECONCILED
360
1559B
  0
DICTIONARY
  5
1559C
330
DEB5
100
AcDbDictionary
280
     1
281
     1
  3
ADSK_XREC_LAYER_RECONCILED
360
1559D
  0
DICTIONARY
  5
1559E
330
DEB6
100
AcDbDictionary
280
     1
281
     1
  3
ADSK_XREC_LAYER_RECONCILED
360
1559F
  0
DICTIONARY
  5
155A0
330
10B54
100
AcDbDictionary
280
     1
281
     1
  3
ADSK_XREC_LAYER_RECONCILED
360
155A1
  0
DICTIONARY
  5
155A2
330
11729
100
AcDbDictionary
280
     1
281
     1
  3
ADSK_XREC_LAYER_RECONCILED
360
155A3
  0
DICTIONARY
  5
155A4
330
1173F
100
AcDbDictionary
280
     1
281
     1
  3
ADSK_XREC_LAYER_RECONCILED
360
155A5
  0
DICTIONARY
  5
155A6
330
11740
100
AcDbDictionary
280
     1
281
     1
  3
ADSK_XREC_LAYER_RECONCILED
360
155A7
  0
DICTIONARY
  5
155A8
330
1356E
100
AcDbDictionary
280
     1
281
     1
  3
ADSK_XREC_LAYER_RECONCILED
360
155A9
  0
DICTIONARY
  5
155AA
330
135FB
100
AcDbDictionary
280
     1
281
     1
  3
ADSK_XREC_LAYER_RECONCILED
360
155AB
  0
DICTIONARY
  5
155AC
330
1383F
100
AcDbDictionary
280
     1
281
     1
  3
ADSK_XREC_LAYER_RECONCILED
360
155AD
  0
DICTIONARY
  5
155AE
330
13840
100
AcDbDictionary
280
     1
281
     1
  3
ADSK_XREC_LAYER_RECONCILED
360
155AF
  0
DICTIONARY
  5
155B0
330
13841
100
AcDbDictionary
280
     1
281
     1
  3
ADSK_XREC_LAYER_RECONCILED
360
155B1
  0
DICTIONARY
  5
1557D
330
747D
100
AcDbDictionary
280
     1
281
     1
  3
ACAD_SORTENTS
360
1557E
  0
XRECORD
  5
13EFE
102
{ACAD_REACTORS
330
7471
102
}
330
7471
100
AcDbXrecord
280
     1
300
ACDLT
300
2014
300
ACDLT_F_S
  0
DICTIONARY
  5
1341D
102
{ACAD_REACTORS
330
7471
102
}
330
7471
100
AcDbDictionary
281
     1
  0
DICTIONARY
  5
13EF4
102
{ACAD_REACTORS
330
7471
102
}
330
7471
100
AcDbDictionary
281
     1
  3
Metric50
350
13EF5
  0
DICTIONARY
  5
7472
102
{ACAD_REACTORS
330
7471
102
}
330
7471
100
AcDbDictionary
281
     1
  3
*A1
350
15538
  0
DICTIONARY
  5
1341E
102
{ACAD_REACTORS
330
7471
102
}
330
7471
100
AcDbDictionary
281
     1
  3
Model
350
13420
  3
レイアウト1
350
13421
  0
DICTIONARY
  5
1341C
102
{ACAD_REACTORS
330
7471
102
}
330
7471
100
AcDbDictionary
281
     1
  3
ByBlock
350
13EB3
  3
ByLayer
350
13EAB
  3
Global
350
13EBB
  0
DICTIONARY
  5
13EF0
102
{ACAD_REACTORS
330
7471
102
}
330
7471
100
AcDbDictionary
281
     1
  3
Standard
350
13EF1
  0
DICTIONARY
  5
7473
102
{ACAD_REACTORS
330
7471
102
}
330
7471
100
AcDbDictionary
281
     1
  3
STANDARD
350
7480
  0
DICTIONARY
  5
1341F
102
{ACAD_REACTORS
330
7471
102
}
330
7471
100
AcDbDictionary
281
     1
  0
ACDBDICTIONARYWDFLT
  5
1341A
102
{ACAD_REACTORS
330
7471
102
}
330
7471
100
AcDbDictionary
281
     1
  3
Normal
350
1341B
100
AcDbDictionaryWithDefault
340
1341B
  0
DICTIONARY
  5
13EDE
102
{ACAD_REACTORS
330
7471
102
}
330
7471
100
AcDbDictionary
281
     1
  3
A0
350
13EDF
  3
A1
350
13EE0
  3
A2
350
13EE1
  3
A3
350
13EE2
  3
A4
350
13EE3
  3
A5
350
13EE4
  3
A6
350
13EE5
  3
A7
350
13EE6
  3
A8
350
13EE7
  3
A9
350
13EE8
  3
B0
350
13EE9
  3
B1
350
13EEA
  3
B2
350
13EEB
  3
B3
350
13EEC
  3
B4
350
13EED
  3
B5
350
13EEE
  3
B6
350
13EEF
  0
DICTIONARY
  5
13EF2
102
{ACAD_REACTORS
330
7471
102
}
330
7471
100
AcDbDictionary
281
     1
  3
Metric50
350
13EF3
  0
DICTIONARY
  5
13EDC
102
{ACAD_REACTORS
330
7471
102
}
330
7471
100
AcDbDictionary
281
     1
  3
Standard
350
13EDD
  0
DICTIONARY
  5
13EC3
102
{ACAD_REACTORS
330
7471
102
}
330
7471
100
AcDbDictionary
281
     1
  3
2dWireframe
350
13EC9
  3
Basic
350
13EC8
  3
Brighten
350
13ECF
  3
ColorChange
350
13ED3
  3
Conceptual
350
13ECC
  3
Dim
350
13ECE
  3
EdgeColorOff
350
13EDB
  3
Facepattern
350
13ED2
  3
Flat
350
13EC4
  3
FlatWithEdges
350
13EC5
  3
Gouraud
350
13EC6
  3
GouraudWithEdges
350
13EC7
  3
Hidden
350
13ECB
  3
JitterOff
350
13ED9
  3
Linepattern
350
13ED1
  3
OverhangOff
350
13EDA
  3
Realistic
350
13ECD
  3
Shaded
350
13ED8
  3
Shaded with edges
350
13ED7
  3
Shades of Gray
350
13ED4
  3
Sketchy
350
13ED5
  3
Thicken
350
13ED0
  3
Wireframe
350
13ECA
  3
X-Ray
350
13ED6
  0
XRECORD
  5
13618
102
{ACAD_REACTORS
330
7471
102
}
330
7471
100
AcDbXrecord
280
     1
 90
   990106
  3

 60
     0
 61
     0
 62
     1
 63
     3
 64
     0
 65
     0
 66
     0
 67
     3
 68
     1
 69
     0
 70
     0
 71
     0
 72
     0
 40
0.0
170
     0
  0
XRECORD
  5
1584F
102
{ACAD_REACTORS
330
7471
102
}
330
7471
100
AcDbXrecord
280
     1
 90
        1
330
13EDD
  0
DICTIONARY
  5
13533
102
{ACAD_REACTORS
330
7471
102
}
330
7471
100
AcDbDictionary
281
     1
  3
CANNOSCALE
350
157EA
  3
CMLEADERSTYLE
350
157E7
  3
CTABLESTYLE
350
157E6
  3
CVIEWDETAILSTYLE
350
157E8
  3
CVIEWSECTIONSTYLE
350
157E9
  3
DIMASSOC
350
13534
  3
INDEXCTL
350
157EC
  3
PROJECTNAME
350
13535
  3
SORTENTS
350
157EB
  3
XCLIPFRAME
350
1584D
  0
DICTIONARY
  5
E71C
102
{ACAD_REACTORS
330
7471
102
}
330
7471
100
AcDbDictionary
281
     1
  0
DICTIONARY
  5
F3B9
102
{ACAD_REACTORS
330
7471
102
}
330
7471
100
AcDbDictionary
281
     1
1001
DRAWINGVARIABLESXDATA
1000
POLARMODE
1000
1
  0
XRECORD
  5
15850
102
{ACAD_REACTORS
330
7471
102
}
330
7471
100
AcDbXrecord
280
     1
  1
DWGPROPS COOKIE
  2

  3

  4

  6

  7

  8
ODAHARA
  9

300
=
301
=
302
=
303
=
304
=
305
=
306
=
307
=
308
=
309
=
 40
0.3442990972222222
 41
2451074.411873148
 42
2456560.839029225
  1

 90
        0
  0
DICTIONARY
  5
1356A
102
{ACAD_REACTORS
330
13451
102
}
330
13451
100
AcDbDictionary
281
     1
  0
DICTIONARY
  5
13452
102
{ACAD_REACTORS
330
13451
102
}
330
13451
100
AcDbDictionary
281
     1
  0
XRECORD
  5
15597
102
{ACAD_REACTORS
330
15596
102
}
330
15596
100
AcDbXrecord
280
     1
290
     1
  0
XRECORD
  5
15599
102
{ACAD_REACTORS
330
15598
102
}
330
15598
100
AcDbXrecord
280
     1
290
     1
  0
XRECORD
  5
1559B
102
{ACAD_REACTORS
330
1559A
102
}
330
1559A
100
AcDbXrecord
280
     1
290
     1
  0
XRECORD
  5
1559D
102
{ACAD_REACTORS
330
1559C
102
}
330
1559C
100
AcDbXrecord
280
     1
290
     1
  0
XRECORD
  5
1559F
102
{ACAD_REACTORS
330
1559E
102
}
330
1559E
100
AcDbXrecord
280
     1
290
     1
  0
XRECORD
  5
155A1
102
{ACAD_REACTORS
330
155A0
102
}
330
155A0
100
AcDbXrecord
280
     1
290
     1
  0
XRECORD
  5
155A3
102
{ACAD_REACTORS
330
155A2
102
}
330
155A2
100
AcDbXrecord
280
     1
290
     1
  0
XRECORD
  5
155A5
102
{ACAD_REACTORS
330
155A4
102
}
330
155A4
100
AcDbXrecord
280
     1
290
     1
  0
XRECORD
  5
155A7
102
{ACAD_REACTORS
330
155A6
102
}
330
155A6
100
AcDbXrecord
280
     1
290
     1
  0
XRECORD
  5
155A9
102
{ACAD_REACTORS
330
155A8
102
}
330
155A8
100
AcDbXrecord
280
     1
290
     1
  0
XRECORD
  5
155AB
102
{ACAD_REACTORS
330
155AA
102
}
330
155AA
100
AcDbXrecord
280
     1
290
     1
  0
XRECORD
  5
155AD
102
{ACAD_REACTORS
330
155AC
102
}
330
155AC
100
AcDbXrecord
280
     1
290
     1
  0
XRECORD
  5
155AF
102
{ACAD_REACTORS
330
155AE
102
}
330
155AE
100
AcDbXrecord
280
     1
290
     1
  0
XRECORD
  5
155B1
102
{ACAD_REACTORS
330
155B0
102
}
330
155B0
100
AcDbXrecord
280
     1
290
     1
  0
SORTENTSTABLE
  5
1557E
102
{ACAD_REACTORS
330
1557D
102
}
330
1557D
100
AcDbSortentsTable
330
747D
331
148D0
  5
148D0
331
1485A
  5
1485A
331
14899
  5
14899
331
1552E
  5
15534
331
149FE
  5
14A04
331
149C7
  5
149C7
331
148D8
  5
148D8
331
14862
  5
14862
331
148A1
  5
148A1
331
14A4D
  5
14A5D
331
15536
  5
15582
331
14A06
  5
14A0C
331
148E0
  5
148E0
331
148A9
  5
148A9
331
1486A
  5
1486A
331
149CF
  5
149D2
331
14823
  5
14823
331
14A5D
  5
14A63
331
14872
  5
14872
331
148E8
  5
148E8
331
149D7
  5
149DA
331
1482B
  5
1482B
331
14833
  5
14833
331
147FC
  5
147FC
331
13A6E
  5
13A6E
331
148F0
  5
148F0
331
1487A
  5
1487A
331
148B1
  5
148B1
331
1483B
  5
1483B
331
153AF
  5
15531
331
148F8
  5
148F8
331
14882
  5
14882
331
148B9
  5
148B9
331
149DF
  5
149E2
331
14A65
  5
14A6B
331
14843
  5
14843
331
14804
  5
14804
331
14A36
  5
14A3C
331
14900
  5
14900
331
148C1
  5
148C1
331
1488A
  5
1488A
331
1484B
  5
1484B
331
149E7
  5
149EA
331
14A6D
  5
14A73
331
13A76
  5
13A76
331
14A75
  5
14A7B
331
149EF
  5
149F5
331
148C9
  5
148C9
331
14853
  5
14853
331
14892
  5
14892
331
14908
  5
14908
331
14A3E
  5
14A44
331
1480C
  5
1480C
331
14A46
  5
14A4C
331
149F7
  5
149FD
331
14814
  5
14814
331
1481C
  5
1481C
331
148D1
  5
148D1
331
1489A
  5
1489A
331
1485B
  5
1485B
331
1552F
  5
15535
331
14A4E
  5
14A5E
331
149FF
  5
14A05
331
149C8
  5
149C9
331
148A2
  5
148A2
331
14863
  5
14863
331
148D9
  5
148D9
331
763F
  5
763F
331
15537
  5
15583
331
149D0
  5
149D3
331
148E1
  5
148E1
331
1486B
  5
1486B
331
148AA
  5
148AA
331
14A07
  5
14A0D
331
14824
  5
14824
331
14873
  5
14873
331
148E9
  5
148E9
331
14A5E
  5
14A64
331
1482C
  5
1482C
331
1557F
  5
149CB
331
14A17
  5
14A38
331
14834
  5
14834
331
147FD
  5
147FD
331
13A6F
  5
13A6F
331
148F1
  5
148F1
331
149D8
  5
149DB
331
1487B
  5
1487B
331
148B2
  5
148B2
331
1483C
  5
1483C
331
148F9
  5
148F9
331
149E0
  5
149E3
331
14883
  5
14883
331
148BA
  5
148BA
331
14A66
  5
14A6C
331
14844
  5
14844
331
148C2
  5
148C2
331
1488B
  5
1488B
331
1484C
  5
1484C
331
14901
  5
14901
331
149E8
  5
149EB
331
14A37
  5
14A3D
331
14A6E
  5
14A74
331
14805
  5
14805
331
14A3F
  5
14A45
331
14909
  5
14909
331
14893
  5
14893
331
14854
  5
14854
331
148CA
  5
148CA
331
149F0
  5
149F6
331
14A76
  5
153AF
331
1480D
  5
1480D
331
14A47
  5
14A4D
331
14815
  5
14815
331
1481D
  5
1481D
331
149F8
  5
149FE
331
149C1
  5
149C1
331
148D2
  5
148D2
331
1485C
  5
1485C
331
1489B
  5
1489B
331
15530
  5
15536
331
14A00
  5
14A06
331
149C9
  5
149CA
331
148DA
  5
148DA
331
14864
  5
14864
331
148A3
  5
148A3
331
14A4F
  5
14A5F
331
149D1
  5
149D4
331
148E2
  5
148E2
331
148AB
  5
148AB
331
1486C
  5
1486C
331
14A08
  5
14A11
331
14825
  5
14825
331
14A5F
  5
14A65
331
14874
  5
14874
331
148EA
  5
148EA
331
1482D
  5
1482D
331
14835
  5
14835
331
147FE
  5
147FE
331
15580
  5
149F3
331
14A18
  5
14A39
331
148F2
  5
148F2
331
1487C
  5
1487C
331
148B3
  5
148B3
331
149D9
  5
149DC
331
1483D
  5
1483D
331
148FA
  5
148FA
331
149E1
  5
149E4
331
14884
  5
14884
331
148BB
  5
148BB
331
14A67
  5
14A6D
331
14845
  5
14845
331
13A70
  5
13A70
331
14A6F
  5
14A75
331
14806
  5
14806
331
14902
  5
14902
331
148C3
  5
148C3
331
1488C
  5
1488C
331
1484D
  5
1484D
331
149E9
  5
149ED
331
14A38
  5
14A3E
331
1480E
  5
1480E
331
14A77
  5
153BC
331
149F1
  5
149F7
331
148CB
  5
148CB
331
14894
  5
14894
331
14855
  5
14855
331
1490A
  5
1490A
331
14A40
  5
14A46
331
14816
  5
14816
331
1481E
  5
1481E
331
14A48
  5
14A4E
331
149C2
  5
149C2
331
148D3
  5
148D3
331
1489C
  5
1489C
331
15531
  5
15537
331
1485D
  5
1485D
331
149F9
  5
149FF
331
10B6D
  5
10B6D
331
14A50
  5
14A60
331
14A01
  5
14A07
331
149CA
  5
149CC
331
148A4
  5
148A4
331
14865
  5
14865
331
148DB
  5
148DB
331
14A09
  5
14A12
331
149D2
  5
149D5
331
148E3
  5
148E3
331
1486D
  5
1486D
331
148AC
  5
148AC
331
14826
  5
14826
331
14A11
  5
14A35
331
14875
  5
14875
331
148EB
  5
148EB
331
1482E
  5
1482E
331
14836
  5
14836
331
13A69
  5
13A69
331
147F7
  5
147F7
331
147FF
  5
147FF
331
15581
  5
149CE
331
14A19
  5
14A3A
331
148F3
  5
148F3
331
149DA
  5
149DD
331
1487D
  5
1487D
331
148B4
  5
148B4
331
14A60
  5
14A66
331
1483E
  5
1483E
331
13A71
  5
13A71
331
148FB
  5
148FB
331
149E2
  5
149E5
331
14885
  5
14885
331
148BC
  5
148BC
331
14A68
  5
14A6E
331
14846
  5
14846
331
13125
  5
13125
331
14A70
  5
14A76
331
14A39
  5
14A3F
331
148C4
  5
148C4
331
1488D
  5
1488D
331
1484E
  5
1484E
331
14903
  5
14903
331
149EA
  5
149EF
331
14807
  5
14807
331
10B56
  5
10B56
331
14A78
  5
1548B
331
1490B
  5
1490B
331
14895
  5
14895
331
14856
  5
14856
331
148CC
  5
148CC
331
149F2
  5
149F8
331
14A41
  5
14A47
331
1480F
  5
1480F
331
10B5E
  5
10B5E
331
14817
  5
14817
331
1481F
  5
1481F
331
149FA
  5
14A00
331
149C3
  5
149C3
331
148D4
  5
148D4
331
15532
  5
1557C
331
1485E
  5
1485E
331
1489D
  5
1489D
331
14A49
  5
14A4F
331
14A02
  5
14A08
331
149CB
  5
149CD
331
148DC
  5
148DC
331
148A5
  5
148A5
331
14866
  5
14866
331
14A51
  5
14A61
331
149D3
  5
149D6
331
148E4
  5
148E4
331
148AD
  5
148AD
331
1486E
  5
1486E
331
14A0A
  5
14A13
331
14827
  5
14827
331
14A12
  5
14A36
331
14876
  5
14876
331
148EC
  5
148EC
331
1482F
  5
1482F
331
14837
  5
14837
331
13A6A
  5
13A6A
331
147F8
  5
147F8
331
15582
  5
149C8
331
14A61
  5
14A67
331
148F4
  5
148F4
331
1487E
  5
1487E
331
148B5
  5
148B5
331
149DB
  5
149DE
331
1483F
  5
1483F
331
13A72
  5
13A72
331
148FC
  5
148FC
331
149E3
  5
149E6
331
14886
  5
14886
331
148BD
  5
148BD
331
14A69
  5
14A6F
331
14847
  5
14847
331
14800
  5
14800
331
13126
  5
13126
331
14A71
  5
14A77
331
14904
  5
14904
331
148C5
  5
148C5
331
1488E
  5
1488E
331
1548B
  5
15533
331
1484F
  5
1484F
331
149EB
  5
149F0
331
14A3A
  5
14A40
331
14808
  5
14808
331
10B57
  5
10B57
331
14A79
  5
1552E
331
149F3
  5
149F9
331
148CD
  5
148CD
331
14896
  5
14896
331
14857
  5
14857
331
1490C
  5
1490C
331
14A42
  5
14A48
331
14810
  5
14810
331
14818
  5
14818
331
14A4A
  5
14A50
331
149FB
  5
14A01
331
149C4
  5
149C4
331
1489E
  5
1489E
331
15533
  5
1557F
331
1485F
  5
1485F
331
148D5
  5
148D5
331
10B6F
  5
10B6F
331
14A03
  5
14A09
331
149CC
  5
149CF
331
148A6
  5
148A6
331
14867
  5
14867
331
148DD
  5
148DD
331
14820
  5
14820
331
14A0B
  5
14A17
331
149D4
  5
149D7
331
148E5
  5
148E5
331
1486F
  5
1486F
331
148AE
  5
148AE
331
14828
  5
14828
331
14A13
  5
14A37
331
148ED
  5
148ED
331
14877
  5
14877
331
14830
  5
14830
331
13A6B
  5
13A6B
331
147F9
  5
147F9
331
15583
  5
149EE
331
14838
  5
14838
331
148F5
  5
148F5
331
149DC
  5
149DF
331
1487F
  5
1487F
331
148B6
  5
148B6
331
14A62
  5
14A68
331
14840
  5
14840
331
14801
  5
14801
331
148FD
  5
148FD
331
149E4
  5
149E7
331
153BC
  5
15532
331
14848
  5
14848
331
14887
  5
14887
331
148BE
  5
148BE
331
14A6A
  5
14A70
331
13A73
  5
13A73
331
13127
  5
13127
331
14A72
  5
14A78
331
14A3B
  5
14A41
331
148C6
  5
148C6
331
1488F
  5
1488F
331
14850
  5
14850
331
14905
  5
14905
331
149EC
  5
149F1
331
14809
  5
14809
331
14A7A
  5
1552F
331
149F4
  5
149FA
331
14897
  5
14897
331
148CE
  5
148CE
331
14A43
  5
14A49
331
14811
  5
14811
331
14819
  5
14819
331
14858
  5
14858
331
149FC
  5
14A02
331
149C5
  5
149C5
331
148D6
  5
148D6
331
15534
  5
15580
331
14860
  5
14860
331
1489F
  5
1489F
331
14A4B
  5
14A51
331
14A04
  5
14A0A
331
149CD
  5
149D0
331
148DE
  5
148DE
331
14868
  5
14868
331
148A7
  5
148A7
331
14821
  5
14821
331
14A0C
  5
14A18
331
149D5
  5
149D8
331
148AF
  5
148AF
331
1557C
  5
149EC
331
14870
  5
14870
331
148E6
  5
148E6
331
14829
  5
14829
331
148EE
  5
148EE
331
14831
  5
14831
331
147FA
  5
147FA
331
13A6C
  5
13A6C
331
14878
  5
14878
331
14839
  5
14839
331
148F6
  5
148F6
331
14880
  5
14880
331
148B7
  5
148B7
331
149DD
  5
149E0
331
14A63
  5
14A69
331
14841
  5
14841
331
14802
  5
14802
331
148FE
  5
148FE
331
149E5
  5
149E8
331
14849
  5
14849
331
14888
  5
14888
331
148BF
  5
148BF
331
14A6B
  5
14A71
331
13A74
  5
13A74
331
1480A
  5
1480A
331
14A73
  5
14A79
331
14906
  5
14906
331
148C7
  5
148C7
331
14851
  5
14851
331
14890
  5
14890
331
149ED
  5
149F2
331
14A3C
  5
14A42
331
13128
  5
13128
331
14A7B
  5
15530
331
149F5
  5
149FB
331
148CF
  5
148CF
331
14A44
  5
14A4A
331
14812
  5
14812
331
1481A
  5
1481A
331
14898
  5
14898
331
14859
  5
14859
331
14A4C
  5
14A5C
331
149FD
  5
14A03
331
149C6
  5
149C6
331
148A0
  5
148A0
331
14861
  5
14861
331
148D7
  5
148D7
331
15535
  5
15581
331
14A05
  5
14A0B
331
149CE
  5
149D1
331
148A8
  5
148A8
331
14869
  5
14869
331
148DF
  5
148DF
331
14822
  5
14822
331
14A0D
  5
14A19
331
149D6
  5
149D9
331
14871
  5
14871
331
148E7
  5
148E7
331
14A5C
  5
14A62
331
1482A
  5
1482A
331
148EF
  5
148EF
331
14832
  5
14832
331
147FB
  5
147FB
331
13A6D
  5
13A6D
331
14879
  5
14879
331
148B0
  5
148B0
331
1483A
  5
1483A
331
148F7
  5
148F7
331
149DE
  5
149E1
331
14881
  5
14881
331
148B8
  5
148B8
331
14A64
  5
14A6A
331
14842
  5
14842
331
14803
  5
14803
331
14A35
  5
14A3B
331
14A6C
  5
14A72
331
148C0
  5
148C0
331
14889
  5
14889
331
1484A
  5
1484A
331
148FF
  5
148FF
331
149E6
  5
149E9
331
13A75
  5
13A75
331
14A3D
  5
14A43
331
14907
  5
14907
331
14891
  5
14891
331
14852
  5
14852
331
148C8
  5
148C8
331
149EE
  5
149F4
331
14A74
  5
14A7A
331
1480B
  5
1480B
331
149F6
  5
149FC
331
14A45
  5
14A4B
331
14813
  5
14813
331
1481B
  5
1481B
  0
ACDBDETAILVIEWSTYLE
  5
13EF5
102
{ACAD_XDICTIONARY
360
1588D
102
}
102
{ACAD_REACTORS
330
13EF4
102
}
330
13EF4
100
AcDbModelDocViewStyle
 70
     0
  3
Metric50
290
     0
100
AcDbDetailViewStyle
 70
     0
 71
     0
 90
        3
 71
     1
340
7475
 40
5.0
340
0
 40
5.0
300

 40
0.0
280
     1
 71
     2
340
7479
 90
       25
 71
     3
340
7475
 40
5.0
 90
        0
 40
15.0
 90
        1
300
%<\AcVar ViewDetailId>% (%<\AcVar ViewScale \f "%sn">%)
 71
     4
340
7479
 90
       25
340
7479
 90
       25
280
     0
  0
GROUP
  5
15538
102
{ACAD_REACTORS
330
7472
102
}
330
7472
100
AcDbGroup
300

 70
     1
 71
     1
340
15537
340
15536
340
15535
340
15534
340
15533
340
15532
340
15531
340
15530
340
1552F
340
1552E
  0
LAYOUT
  5
13420
102
{ACAD_XDICTIONARY
360
15851
102
}
102
{ACAD_REACTORS
330
1341E
102
}
330
1341E
100
AcDbPlotSettings
  1

  2
CutePDF Writer
  4
A3
  6

 40
3.174999952316284
 41
3.174999952316284
 42
3.17498779296875
 43
3.17498779296875
 44
297.0530090332031
 45
420.1583251953125
 46
0.0
 47
0.0
 48
0.0
 49
0.0
140
0.0
141
0.0
142
1.0
143
30.0
 70
 11952
 72
     1
 73
     1
 74
     2
  7
inaba.ctb
 75
    23
147
0.0333333333333333
148
0.0
149
0.0
100
AcDbLayout
  1
Model
 70
     1
 71
     0
 10
0.0
 20
0.0
 11
12.0
 21
9.0
 12
0.0
 22
0.0
 32
0.0
 14
0.0
 24
0.0
 34
0.0
 15
0.0
 25
0.0
 35
0.0
146
0.0
 13
0.0
 23
0.0
 33
0.0
 16
1.0
 26
0.0
 36
0.0
 17
0.0
 27
1.0
 37
0.0
 76
     0
330
747D
331
13EA9
  0
LAYOUT
  5
13421
102
{ACAD_XDICTIONARY
360
15853
102
}
102
{ACAD_REACTORS
330
1341E
102
}
330
1341E
100
AcDbPlotSettings
  1

  2
Microsoft Office Document Image Writer
  4

  6

 40
0.0
 41
0.0
 42
0.0
 43
0.0
 44
0.0
 45
0.0
 46
0.0
 47
0.0
 48
0.0
 49
0.0
140
0.0
141
0.0
142
1.0
143
1.0
 70
   688
 72
     0
 73
     0
 74
     5
  7
inaba.ctb
 75
    16
147
1.0
148
0.0
149
0.0
100
AcDbLayout
  1
レイアウト1
 70
     0
 71
     1
 10
0.0
 20
0.0
 11
420.0
 21
297.0
 12
0.0
 22
0.0
 32
0.0
 14
1.000000000000000E+20
 24
1.000000000000000E+20
 34
1.000000000000000E+20
 15
-1.000000000000000E+20
 25
-1.000000000000000E+20
 35
-1.000000000000000E+20
146
0.0
 13
0.0
 23
0.0
 33
0.0
 16
1.0
 26
0.0
 36
0.0
 17
0.0
 27
1.0
 37
0.0
 76
     0
330
747A
  0
MATERIAL
  5
13EB3
102
{ACAD_XDICTIONARY
360
13EB4
102
}
102
{ACAD_REACTORS
330
1341C
102
}
330
1341C
100
AcDbMaterial
  1
ByBlock
 72
     0
 43
0.0208333333333333
 43
0.0
 43
0.0
 43
0.0
 43
0.0
 43
0.0208333333333333
 43
0.0
 43
0.0
 43
0.0
 43
0.0
 43
1.0
 43
0.0
 43
0.0
 43
0.0
 43
0.0
 43
1.0
 77
     0
 47
0.0208333333333333
 47
0.0
 47
0.0
 47
0.0
 47
0.0
 47
0.0208333333333333
 47
0.0
 47
0.0
 47
0.0
 47
0.0
 47
1.0
 47
0.0
 47
0.0
 47
0.0
 47
0.0
 47
1.0
171
     0
 49
0.0208333333333333
 49
0.0
 49
0.0
 49
0.0
 49
0.0
 49
0.0208333333333333
 49
0.0
 49
0.0
 49
0.0
 49
0.0
 49
1.0
 49
0.0
 49
0.0
 49
0.0
 49
0.0
 49
1.0
175
     0
142
0.0208333333333333
142
0.0
142
0.0
142
0.0
142
0.0
142
0.0208333333333333
142
0.0
142
0.0
142
0.0
142
0.0
142
1.0
142
0.0
142
0.0
142
0.0
142
0.0
142
1.0
179
     0
144
0.0208333333333333
144
0.0
144
0.0
144
0.0
144
0.0
144
0.0208333333333333
144
0.0
144
0.0
144
0.0
144
0.0
144
1.0
144
0.0
144
0.0
144
0.0
144
0.0
144
1.0
147
0.0208333333333333
147
0.0
147
0.0
147
0.0
147
0.0
147
0.0208333333333333
147
0.0
147
0.0
147
0.0
147
0.0
147
1.0
147
0.0
147
0.0
147
0.0
147
0.0
147
1.0
  0
MATERIAL
  5
13EAB
102
{ACAD_XDICTIONARY
360
13EAC
102
}
102
{ACAD_REACTORS
330
1341C
102
}
330
1341C
100
AcDbMaterial
  1
ByLayer
 72
     0
 43
0.0208333333333333
 43
0.0
 43
0.0
 43
0.0
 43
0.0
 43
0.0208333333333333
 43
0.0
 43
0.0
 43
0.0
 43
0.0
 43
1.0
 43
0.0
 43
0.0
 43
0.0
 43
0.0
 43
1.0
 77
     0
 47
0.0208333333333333
 47
0.0
 47
0.0
 47
0.0
 47
0.0
 47
0.0208333333333333
 47
0.0
 47
0.0
 47
0.0
 47
0.0
 47
1.0
 47
0.0
 47
0.0
 47
0.0
 47
0.0
 47
1.0
171
     0
 49
0.0208333333333333
 49
0.0
 49
0.0
 49
0.0
 49
0.0
 49
0.0208333333333333
 49
0.0
 49
0.0
 49
0.0
 49
0.0
 49
1.0
 49
0.0
 49
0.0
 49
0.0
 49
0.0
 49
1.0
175
     0
142
0.0208333333333333
142
0.0
142
0.0
142
0.0
142
0.0
142
0.0208333333333333
142
0.0
142
0.0
142
0.0
142
0.0
142
1.0
142
0.0
142
0.0
142
0.0
142
0.0
142
1.0
179
     0
144
0.0208333333333333
144
0.0
144
0.0
144
0.0
144
0.0
144
0.0208333333333333
144
0.0
144
0.0
144
0.0
144
0.0
144
1.0
144
0.0
144
0.0
144
0.0
144
0.0
144
1.0
147
0.0208333333333333
147
0.0
147
0.0
147
0.0
147
0.0
147
0.0208333333333333
147
0.0
147
0.0
147
0.0
147
0.0
147
1.0
147
0.0
147
0.0
147
0.0
147
0.0
147
1.0
  0
MATERIAL
  5
13EBB
102
{ACAD_XDICTIONARY
360
13EBC
102
}
102
{ACAD_REACTORS
330
1341C
102
}
330
1341C
100
AcDbMaterial
  1
Global
 72
     0
 43
0.0208333333333333
 43
0.0
 43
0.0
 43
0.0
 43
0.0
 43
0.0208333333333333
 43
0.0
 43
0.0
 43
0.0
 43
0.0
 43
1.0
 43
0.0
 43
0.0
 43
0.0
 43
0.0
 43
1.0
 77
     0
 47
0.0208333333333333
 47
0.0
 47
0.0
 47
0.0
 47
0.0
 47
0.0208333333333333
 47
0.0
 47
0.0
 47
0.0
 47
0.0
 47
1.0
 47
0.0
 47
0.0
 47
0.0
 47
0.0
 47
1.0
171
     0
 49
0.0208333333333333
 49
0.0
 49
0.0
 49
0.0
 49
0.0
 49
0.0208333333333333
 49
0.0
 49
0.0
 49
0.0
 49
0.0
 49
1.0
 49
0.0
 49
0.0
 49
0.0
 49
0.0
 49
1.0
175
     0
142
0.0208333333333333
142
0.0
142
0.0
142
0.0
142
0.0
142
0.0208333333333333
142
0.0
142
0.0
142
0.0
142
0.0
142
1.0
142
0.0
142
0.0
142
0.0
142
0.0
142
1.0
179
     0
144
0.0208333333333333
144
0.0
144
0.0
144
0.0
144
0.0
144
0.0208333333333333
144
0.0
144
0.0
144
0.0
144
0.0
144
1.0
144
0.0
144
0.0
144
0.0
144
0.0
144
1.0
147
0.0208333333333333
147
0.0
147
0.0
147
0.0
147
0.0
147
0.0208333333333333
147
0.0
147
0.0
147
0.0
147
0.0
147
1.0
147
0.0
147
0.0
147
0.0
147
0.0
147
1.0
  0
MLEADERSTYLE
  5
13EF1
102
{ACAD_XDICTIONARY
360
15889
102
}
102
{ACAD_REACTORS
330
13EF0
102
}
330
13EF0
100
AcDbMLeaderStyle
170
     2
171
     1
172
     0
 90
        2
 40
0.0
 41
0.0
173
     1
 91
-1056964608
340
7477
 92
       -2
290
     1
 42
2.0
291
     1
 43
0.36
  3
Standard
 44
4.0
300

342
7475
174
     1
178
     6
175
     1
176
     0
 93
-1056964608
 45
4.0
292
     0
297
     0
 46
4.0
 94
-1056964608
 47
1.0
 49
1.0
140
1.0
293
     1
141
0.0
294
     1
177
     0
142
1.0
295
     0
296
     0
143
0.125
1001
ACAD_MLEADERVER
1070
     2
  0
MLINESTYLE
  5
7480
102
{ACAD_REACTORS
330
7473
102
}
330
7473
100
AcDbMlineStyle
  2
STANDARD
 70
     0
  3

 62
     0
 51
90.0
 52
90.0
 71
     2
 49
0.5
 62
   256
  6
BYLAYER
 49
-0.5
 62
   256
  6
BYLAYER
  0
ACDBPLACEHOLDER
  5
1341B
102
{ACAD_REACTORS
330
1341A
102
}
330
1341A
  0
SCALE
  5
13EDF
102
{ACAD_REACTORS
330
13EDE
102
}
330
13EDE
100
AcDbScale
 70
     0
300
1:1
140
1.0
141
1.0
290
     1
  0
SCALE
  5
13EE0
102
{ACAD_REACTORS
330
13EDE
102
}
330
13EDE
100
AcDbScale
 70
     0
300
1:2
140
1.0
141
2.0
290
     0
  0
SCALE
  5
13EE1
102
{ACAD_REACTORS
330
13EDE
102
}
330
13EDE
100
AcDbScale
 70
     0
300
1:4
140
1.0
141
4.0
290
     0
  0
SCALE
  5
13EE2
102
{ACAD_REACTORS
330
13EDE
102
}
330
13EDE
100
AcDbScale
 70
     0
300
1:5
140
1.0
141
5.0
290
     0
  0
SCALE
  5
13EE3
102
{ACAD_REACTORS
330
13EDE
102
}
330
13EDE
100
AcDbScale
 70
     0
300
1:8
140
1.0
141
8.0
290
     0
  0
SCALE
  5
13EE4
102
{ACAD_REACTORS
330
13EDE
102
}
330
13EDE
100
AcDbScale
 70
     0
300
1:10
140
1.0
141
10.0
290
     0
  0
SCALE
  5
13EE5
102
{ACAD_REACTORS
330
13EDE
102
}
330
13EDE
100
AcDbScale
 70
     0
300
1:16
140
1.0
141
16.0
290
     0
  0
SCALE
  5
13EE6
102
{ACAD_REACTORS
330
13EDE
102
}
330
13EDE
100
AcDbScale
 70
     0
300
1:20
140
1.0
141
20.0
290
     0
  0
SCALE
  5
13EE7
102
{ACAD_REACTORS
330
13EDE
102
}
330
13EDE
100
AcDbScale
 70
     0
300
1:30
140
1.0
141
30.0
290
     0
  0
SCALE
  5
13EE8
102
{ACAD_REACTORS
330
13EDE
102
}
330
13EDE
100
AcDbScale
 70
     0
300
1:40
140
1.0
141
40.0
290
     0
  0
SCALE
  5
13EE9
102
{ACAD_REACTORS
330
13EDE
102
}
330
13EDE
100
AcDbScale
 70
     0
300
1:50
140
1.0
141
50.0
290
     0
  0
SCALE
  5
13EEA
102
{ACAD_REACTORS
330
13EDE
102
}
330
13EDE
100
AcDbScale
 70
     0
300
1:100
140
1.0
141
100.0
290
     0
  0
SCALE
  5
13EEB
102
{ACAD_REACTORS
330
13EDE
102
}
330
13EDE
100
AcDbScale
 70
     0
300
2:1
140
2.0
141
1.0
290
     0
  0
SCALE
  5
13EEC
102
{ACAD_REACTORS
330
13EDE
102
}
330
13EDE
100
AcDbScale
 70
     0
300
4:1
140
4.0
141
1.0
290
     0
  0
SCALE
  5
13EED
102
{ACAD_REACTORS
330
13EDE
102
}
330
13EDE
100
AcDbScale
 70
     0
300
8:1
140
8.0
141
1.0
290
     0
  0
SCALE
  5
13EEE
102
{ACAD_REACTORS
330
13EDE
102
}
330
13EDE
100
AcDbScale
 70
     0
300
10:1
140
10.0
141
1.0
290
     0
  0
SCALE
  5
13EEF
102
{ACAD_REACTORS
330
13EDE
102
}
330
13EDE
100
AcDbScale
 70
     0
300
100:1
140
100.0
141
1.0
290
     0
  0
ACDBSECTIONVIEWSTYLE
  5
13EF3
102
{ACAD_XDICTIONARY
360
1588B
102
}
102
{ACAD_REACTORS
330
13EF2
102
}
330
13EF2
100
AcDbModelDocViewStyle
 70
     0
  3
Metric50
290
     0
100
AcDbSectionViewStyle
 70
     0
 71
     0
 90
      102
 71
     1
340
7475
 40
5.0
340
0
340
0
 40
5.0
300
I, O, Q, S, X, Z
 40
10.0
 90
        0
 40
2.5
 90
        0
 71
     2
340
7479
 90
       25
340
7479
 90
       50
 40
5.0
 40
2.5
 40
5.0
 71
     3
340
7475
 40
5.0
 90
        0
 40
15.0
 90
        1
300
%<\AcVar ViewSectionStartId>%-%<\AcVar ViewSectionEndId>% (%<\AcVar ViewScale \f "%sn">%)
 71
     4
300
ANSI31
 40
1.0
 90
        0
290
     0
290
     0
 90
        6
 40
0.0
 40
1.570796326794896
 40
0.2617993877991494
 40
1.308996938995747
 40
-0.2617993877991494
 40
1.832595714594046
  0
TABLESTYLE
  5
13EDD
102
{ACAD_XDICTIONARY
360
157A1
102
}
102
{ACAD_REACTORS
330
13EDC
102
}
330
13EDC
100
AcDbTableStyle
  3
Standard
 70
     0
 71
     0
 40
1.5
 41
1.5
280
     0
281
     0
  7
STANDARD
140
4.5
170
     2
 62
     0
 63
     7
283
     0
274
    -2
284
     1
 64
     0
275
    -2
285
     1
 65
     0
276
    -2
286
     1
 66
     0
277
    -2
287
     1
 67
     0
278
    -2
288
     1
 68
     0
279
    -2
289
     1
 69
     0
  7
STANDARD
140
6.0
170
     5
 62
     0
 63
     7
283
     0
274
    -2
284
     1
 64
     0
275
    -2
285
     1
 65
     0
276
    -2
286
     1
 66
     0
277
    -2
287
     1
 67
     0
278
    -2
288
     1
 68
     0
279
    -2
289
     1
 69
     0
  7
STANDARD
140
4.5
170
     5
 62
     0
 63
     7
283
     0
274
    -2
284
     1
 64
     0
275
    -2
285
     1
 65
     0
276
    -2
286
     1
 66
     0
277
    -2
287
     1
 67
     0
278
    -2
288
     1
 68
     0
279
    -2
289
     1
 69
     0
  0
VISUALSTYLE
  5
13EC9
102
{ACAD_XDICTIONARY
360
15862
102
}
102
{ACAD_REACTORS
330
13EC3
102
}
330
13EC3
100
AcDbVisualStyle
  2
2dWireframe
 70
     4
 71
     0
 72
     2
 73
     0
 90
        0
 40
-0.6
 41
-30.0
 62
     5
 63
     7
 74
     1
 91
        4
 64
     7
 65
   257
 75
     1
175
     1
 42
1.0
 92
        0
 66
   257
 43
1.0
 76
     1
 77
     6
 78
     2
 67
     7
 79
     5
170
     0
171
     0
290
     0
174
     0
 93
        1
 44
0.0
173
     0
291
     0
 45
0.0
1001
ACAD
1000
AcDbSavedByObjectVersion
1070
     0
  0
VISUALSTYLE
  5
13EC8
102
{ACAD_XDICTIONARY
360
15860
102
}
102
{ACAD_REACTORS
330
13EC3
102
}
330
13EC3
100
AcDbVisualStyle
  2
Basic
 70
     7
 71
     1
 72
     0
 73
     1
 90
        0
 40
-0.6
 41
-30.0
 62
     5
 63
     7
 74
     0
 91
        4
 64
     7
 65
   257
 75
     1
175
     1
 42
1.0
 92
        8
 66
     7
 43
1.0
 76
     1
 77
     6
 78
     2
 67
     7
 79
     5
170
     0
171
     0
290
     0
174
     0
 93
        1
 44
0.0
173
     0
291
     1
 45
0.0
1001
ACAD
1000
AcDbSavedByObjectVersion
1070
     0
  0
VISUALSTYLE
  5
13ECF
102
{ACAD_XDICTIONARY
360
1586E
102
}
102
{ACAD_REACTORS
330
13EC3
102
}
330
13EC3
100
AcDbVisualStyle
  2
Brighten
 70
    12
 71
     2
 72
     2
 73
     0
 90
        0
 40
-0.6
 41
-30.0
 62
     5
 63
     7
 74
     1
 91
        4
 64
     7
 65
   257
 75
     1
175
     1
 42
1.0
 92
        8
 66
     7
 43
1.0
 76
     1
 77
     6
 78
     2
 67
     7
 79
     5
170
     0
171
     0
290
     0
174
     0
 93
        1
 44
50.0
173
     0
291
     1
 45
0.0
1001
ACAD
1000
AcDbSavedByObjectVersion
1070
     0
  0
VISUALSTYLE
  5
13ED3
102
{ACAD_XDICTIONARY
360
15876
102
}
102
{ACAD_REACTORS
330
13EC3
102
}
330
13EC3
100
AcDbVisualStyle
  2
ColorChange
 70
    16
 71
     2
 72
     2
 73
     3
 90
        0
 40
-0.6
 41
-30.0
 62
     5
 63
     8
 74
     1
 91
        4
 64
     7
 65
   257
 75
     1
175
     1
 42
1.0
 92
        8
 66
     8
 43
1.0
 76
     1
 77
     6
 78
     2
 67
     7
 79
     5
170
     0
171
     0
290
     0
174
     0
 93
        1
 44
0.0
173
     0
291
     1
 45
0.0
1001
ACAD
1000
AcDbSavedByObjectVersion
1070
     0
  0
VISUALSTYLE
  5
13ECC
102
{ACAD_XDICTIONARY
360
15868
102
}
102
{ACAD_REACTORS
330
13EC3
102
}
330
13EC3
100
AcDbVisualStyle
  2
Conceptual
 70
     9
 71
     3
 72
     2
 73
     0
 90
        0
 40
-0.6
 41
-30.0
 62
     5
 63
     7
 74
     2
 91
        2
 64
     7
 65
   257
 75
     1
175
     1
 42
179.0
 92
        8
 66
     7
 43
1.0
 76
     1
 77
     6
 78
     2
 67
     7
 79
     3
170
     0
171
     0
290
     0
174
     0
 93
        1
 44
0.0
173
     0
291
     0
 45
0.0
1001
ACAD
1000
AcDbSavedByObjectVersion
1070
     0
  0
VISUALSTYLE
  5
13ECE
102
{ACAD_XDICTIONARY
360
1586C
102
}
102
{ACAD_REACTORS
330
13EC3
102
}
330
13EC3
100
AcDbVisualStyle
  2
Dim
 70
    11
 71
     2
 72
     2
 73
     0
 90
        0
 40
-0.6
 41
-30.0
 62
     5
 63
     7
 74
     1
 91
        4
 64
     7
 65
   257
 75
     1
175
     1
 42
1.0
 92
        8
 66
     7
 43
1.0
 76
     1
 77
     6
 78
     2
 67
     7
 79
     5
170
     0
171
     0
290
     0
174
     0
 93
        1
 44
-50.0
173
     0
291
     1
 45
0.0
1001
ACAD
1000
AcDbSavedByObjectVersion
1070
     0
  0
VISUALSTYLE
  5
13EDB
102
{ACAD_XDICTIONARY
360
15886
102
}
102
{ACAD_REACTORS
330
13EC3
102
}
330
13EC3
100
AcDbVisualStyle
  2
EdgeColorOff
 70
    22
 71
     2
 72
     2
 73
     0
 90
        0
 40
-0.6
 41
-30.0
 62
     5
 63
     7
 74
     1
 91
        4
 64
     7
 65
   257
 75
     1
175
     1
 42
1.0
 92
        8
 66
     7
 43
1.0
 76
     1
 77
     6
 78
     2
 67
     7
 79
     5
170
     0
171
     0
290
     0
174
     0
 93
        1
 44
0.0
173
     0
291
     1
 45
0.0
1001
ACAD
1000
AcDbSavedByObjectVersion
1070
     0
  0
VISUALSTYLE
  5
13ED2
102
{ACAD_XDICTIONARY
360
15874
102
}
102
{ACAD_REACTORS
330
13EC3
102
}
330
13EC3
100
AcDbVisualStyle
  2
Facepattern
 70
    15
 71
     2
 72
     2
 73
     0
 90
        0
 40
-0.6
 41
-30.0
 62
     5
 63
     7
 74
     1
 91
        4
 64
     7
 65
   257
 75
     1
175
     1
 42
1.0
 92
        8
 66
     7
 43
1.0
 76
     1
 77
     6
 78
     2
 67
     7
 79
     5
170
     0
171
     0
290
     0
174
     0
 93
        1
 44
0.0
173
     0
291
     1
 45
0.0
1001
ACAD
1000
AcDbSavedByObjectVersion
1070
     0
  0
VISUALSTYLE
  5
13EC4
102
{ACAD_XDICTIONARY
360
15858
102
}
102
{ACAD_REACTORS
330
13EC3
102
}
330
13EC3
100
AcDbVisualStyle
  2
Flat
 70
     0
 71
     2
 72
     1
 73
     1
 90
        2
 40
-0.6
 41
30.0
 62
     5
 63
     7
 74
     0
 91
        0
 64
     7
 65
   257
 75
     1
175
     1
 42
1.0
 92
        8
 66
     7
 43
1.0
 76
     1
 77
     6
 78
     2
 67
     7
 79
     5
170
     0
171
     0
290
     0
174
     0
 93
       13
 44
0.0
173
     0
291
     1
 45
0.0
1001
ACAD
1000
AcDbSavedByObjectVersion
1070
     0
  0
VISUALSTYLE
  5
13EC5
102
{ACAD_XDICTIONARY
360
1585A
102
}
102
{ACAD_REACTORS
330
13EC3
102
}
330
13EC3
100
AcDbVisualStyle
  2
FlatWithEdges
 70
     1
 71
     2
 72
     1
 73
     1
 90
        2
 40
-0.6
 41
30.0
 62
     5
 63
     7
 74
     1
 91
        0
 64
     7
 65
   257
 75
     1
175
     1
 42
1.0
 92
        0
 66
   257
 43
1.0
 76
     1
 77
     6
 78
     2
 67
     7
 79
     5
170
     0
171
     0
290
     0
174
     0
 93
       13
 44
0.0
173
     0
291
     1
 45
0.0
1001
ACAD
1000
AcDbSavedByObjectVersion
1070
     0
  0
VISUALSTYLE
  5
13EC6
102
{ACAD_XDICTIONARY
360
1585C
102
}
102
{ACAD_REACTORS
330
13EC3
102
}
330
13EC3
100
AcDbVisualStyle
  2
Gouraud
 70
     2
 71
     2
 72
     2
 73
     1
 90
        2
 40
-0.6
 41
30.0
 62
     5
 63
     7
 74
     0
 91
        0
 64
     7
 65
   257
 75
     1
175
     1
 42
1.0
 92
        0
 66
     7
 43
1.0
 76
     1
 77
     6
 78
     2
 67
     7
 79
     5
170
     0
171
     0
290
     0
174
     0
 93
       13
 44
0.0
173
     0
291
     1
 45
0.0
1001
ACAD
1000
AcDbSavedByObjectVersion
1070
     0
  0
VISUALSTYLE
  5
13EC7
102
{ACAD_XDICTIONARY
360
1585E
102
}
102
{ACAD_REACTORS
330
13EC3
102
}
330
13EC3
100
AcDbVisualStyle
  2
GouraudWithEdges
 70
     3
 71
     2
 72
     2
 73
     1
 90
        2
 40
-0.6
 41
30.0
 62
     5
 63
     7
 74
     1
 91
        0
 64
     7
 65
   257
 75
     1
175
     1
 42
1.0
 92
        0
 66
   257
 43
1.0
 76
     1
 77
     6
 78
     2
 67
     7
 79
     5
170
     0
171
     0
290
     0
174
     0
 93
       13
 44
0.0
173
     0
291
     1
 45
0.0
1001
ACAD
1000
AcDbSavedByObjectVersion
1070
     0
  0
VISUALSTYLE
  5
13ECB
102
{ACAD_XDICTIONARY
360
15866
102
}
102
{ACAD_REACTORS
330
13EC3
102
}
330
13EC3
100
AcDbVisualStyle
  2
Hidden
 70
     6
 71
     1
 72
     2
 73
     2
 90
        0
 40
-0.6
 41
-30.0
 62
     5
 63
     7
 74
     2
 91
        2
 64
     7
 65
   257
 75
     2
175
     1
 42
40.0
 92
        0
 66
   257
 43
1.0
 76
     1
 77
     6
 78
     2
 67
     7
 79
     3
170
     0
171
     0
290
     0
174
     0
 93
        1
 44
0.0
173
     0
291
     0
 45
0.0
1001
ACAD
1000
AcDbSavedByObjectVersion
1070
     0
  0
VISUALSTYLE
  5
13ED9
102
{ACAD_XDICTIONARY
360
15882
102
}
102
{ACAD_REACTORS
330
13EC3
102
}
330
13EC3
100
AcDbVisualStyle
  2
JitterOff
 70
    20
 71
     2
 72
     2
 73
     0
 90
        0
 40
-0.6
 41
-30.0
 62
     5
 63
     7
 74
     1
 91
        4
 64
     7
 65
   257
 75
     1
175
     1
 42
1.0
 92
       10
 66
     7
 43
1.0
 76
     1
 77
     6
 78
     2
 67
     7
 79
     5
170
     0
171
     0
290
     0
174
     0
 93
        1
 44
0.0
173
     0
291
     1
 45
0.0
1001
ACAD
1000
AcDbSavedByObjectVersion
1070
     0
  0
VISUALSTYLE
  5
13ED1
102
{ACAD_XDICTIONARY
360
15872
102
}
102
{ACAD_REACTORS
330
13EC3
102
}
330
13EC3
100
AcDbVisualStyle
  2
Linepattern
 70
    14
 71
     2
 72
     2
 73
     0
 90
        0
 40
-0.6
 41
-30.0
 62
     5
 63
     7
 74
     1
 91
        4
 64
     7
 65
   257
 75
     7
175
     7
 42
1.0
 92
        8
 66
     7
 43
1.0
 76
     1
 77
     6
 78
     2
 67
     7
 79
     5
170
     0
171
     0
290
     0
174
     0
 93
        1
 44
0.0
173
     0
291
     1
 45
0.0
1001
ACAD
1000
AcDbSavedByObjectVersion
1070
     0
  0
VISUALSTYLE
  5
13EDA
102
{ACAD_XDICTIONARY
360
15884
102
}
102
{ACAD_REACTORS
330
13EC3
102
}
330
13EC3
100
AcDbVisualStyle
  2
OverhangOff
 70
    21
 71
     2
 72
     2
 73
     0
 90
        0
 40
-0.6
 41
-30.0
 62
     5
 63
     7
 74
     1
 91
        4
 64
     7
 65
   257
 75
     1
175
     1
 42
1.0
 92
        9
 66
     7
 43
1.0
 76
     1
 77
     6
 78
     2
 67
     7
 79
     5
170
     0
171
     0
290
     0
174
     0
 93
        1
 44
0.0
173
     0
291
     1
 45
0.0
1001
ACAD
1000
AcDbSavedByObjectVersion
1070
     0
  0
VISUALSTYLE
  5
13ECD
102
{ACAD_XDICTIONARY
360
1586A
102
}
102
{ACAD_REACTORS
330
13EC3
102
}
330
13EC3
100
AcDbVisualStyle
  2
Realistic
 70
     8
 71
     2
 72
     2
 73
     0
 90
        2
 40
-0.6
 41
30.0
 62
     5
 63
     7
 74
     0
 91
        0
 64
     7
 65
   257
 75
     1
175
     1
 42
1.0
 92
        8
 66
   257
 43
1.0
 76
     1
 77
     6
 78
     2
 67
     7
 79
     3
170
     0
171
     0
290
     0
174
     0
 93
       13
 44
0.0
173
     0
291
     0
 45
0.0
1001
ACAD
1000
AcDbSavedByObjectVersion
1070
     0
  0
VISUALSTYLE
  5
13ED8
102
{ACAD_XDICTIONARY
360
15880
102
}
102
{ACAD_REACTORS
330
13EC3
102
}
330
13EC3
100
AcDbVisualStyle
  2
Shaded
 70
    27
 71
     2
 72
     2
 73
     1
 90
        2
 40
-0.6
 41
30.0
 62
     5
 63
     7
 74
     0
 91
        4
 64
     7
 65
   257
 75
     1
175
     1
 42
1.0
 92
        8
 66
   257
 43
1.0
 76
     1
 77
     6
 78
     2
 67
     8
 79
     3
170
     0
171
     0
290
     0
174
     0
 93
        5
 44
0.0
173
     0
291
     0
 45
0.0
1001
ACAD
1000
AcDbSavedByObjectVersion
1070
     0
  0
VISUALSTYLE
  5
13ED7
102
{ACAD_XDICTIONARY
360
1587E
102
}
102
{ACAD_REACTORS
330
13EC3
102
}
330
13EC3
100
AcDbVisualStyle
  2
Shaded with edges
 70
    26
 71
     2
 72
     2
 73
     1
 90
        2
 40
-0.6
 41
30.0
 62
     5
 63
     7
 74
     1
 91
       10
 64
     7
 65
   257
 75
     2
175
     1
 42
1.0
 92
        8
 66
   257
 43
1.0
 76
     1
 77
     6
 78
     2
 67
     7
 79
     3
170
     0
171
     0
290
     0
174
     0
 93
        5
 44
0.0
173
     0
291
     0
 45
0.0
1001
ACAD
1000
AcDbSavedByObjectVersion
1070
     0
  0
VISUALSTYLE
  5
13ED4
102
{ACAD_XDICTIONARY
360
15878
102
}
102
{ACAD_REACTORS
330
13EC3
102
}
330
13EC3
100
AcDbVisualStyle
  2
Shades of Gray
 70
    23
 71
     2
 72
     2
 73
     3
 90
        0
 40
-0.6
 41
-30.0
 62
     5
 63
     7
 74
     2
 91
        2
 64
     7
 65
     7
 75
     1
175
     1
 42
40.0
 92
        8
 66
     7
 43
1.0
 76
     1
 77
     6
 78
     2
 67
     7
 79
     3
170
     0
171
     0
290
     0
174
     0
 93
        1
 44
0.0
173
     0
291
     0
 45
0.0
1001
ACAD
1000
AcDbSavedByObjectVersion
1070
     0
  0
VISUALSTYLE
  5
13ED5
102
{ACAD_XDICTIONARY
360
1587A
102
}
102
{ACAD_REACTORS
330
13EC3
102
}
330
13EC3
100
AcDbVisualStyle
  2
Sketchy
 70
    24
 71
     1
 72
     2
 73
     2
 90
        0
 40
-0.6
 41
-30.0
 62
     5
 63
     7
 74
     2
 91
        2
 64
     7
 65
     7
 75
     1
175
     1
 42
40.0
 92
       11
 66
     7
 43
1.0
 76
     1
 77
     6
 78
     2
 67
     7
 79
     6
170
     0
171
     0
290
     0
174
     0
 93
        1
 44
0.0
173
     0
291
     0
 45
0.0
1001
ACAD
1000
AcDbSavedByObjectVersion
1070
     0
  0
VISUALSTYLE
  5
13ED0
102
{ACAD_XDICTIONARY
360
15870
102
}
102
{ACAD_REACTORS
330
13EC3
102
}
330
13EC3
100
AcDbVisualStyle
  2
Thicken
 70
    13
 71
     2
 72
     2
 73
     0
 90
        0
 40
-0.6
 41
-30.0
 62
     5
 63
     7
 74
     1
 91
        4
 64
     7
 65
   257
 75
     1
175
     1
 42
1.0
 92
       12
 66
     7
 43
1.0
 76
     1
 77
     6
 78
     2
 67
     7
 79
     5
170
     0
171
     0
290
     0
174
     0
 93
        1
 44
0.0
173
     0
291
     1
 45
0.0
1001
ACAD
1000
AcDbSavedByObjectVersion
1070
     0
  0
VISUALSTYLE
  5
13ECA
102
{ACAD_XDICTIONARY
360
15864
102
}
102
{ACAD_REACTORS
330
13EC3
102
}
330
13EC3
100
AcDbVisualStyle
  2
Wireframe
 70
     5
 71
     0
 72
     2
 73
     0
 90
        0
 40
-0.6
 41
-30.0
 62
     5
 63
     7
 74
     1
 91
        4
 64
     7
 65
   257
 75
     1
175
     1
 42
1.0
 92
        0
 66
   257
 43
1.0
 76
     1
 77
     6
 78
     2
 67
     7
 79
     3
170
     0
171
     0
290
     0
174
     0
 93
        1
 44
0.0
173
     0
291
     0
 45
0.0
1001
ACAD
1000
AcDbSavedByObjectVersion
1070
     0
  0
VISUALSTYLE
  5
13ED6
102
{ACAD_XDICTIONARY
360
1587C
102
}
102
{ACAD_REACTORS
330
13EC3
102
}
330
13EC3
100
AcDbVisualStyle
  2
X-Ray
 70
    25
 71
     2
 72
     2
 73
     1
 90
        1
 40
0.5
 41
-30.0
 62
     5
 63
     7
 74
     1
 91
        0
 64
     7
 65
   257
 75
     1
175
     1
 42
1.0
 92
        8
 66
     7
 43
1.0
 76
     1
 77
     6
 78
     2
 67
     7
 79
     3
170
     0
171
     0
290
     0
174
     0
 93
       13
 44
0.0
173
     0
291
     0
 45
0.0
1001
ACAD
1000
AcDbSavedByObjectVersion
1070
     0
  0
DICTIONARYVAR
  5
157EA
102
{ACAD_REACTORS
330
13533
102
}
330
13533
100
DictionaryVariables
280
     0
  1
1:1
  0
DICTIONARYVAR
  5
157E7
102
{ACAD_REACTORS
330
13533
102
}
330
13533
100
DictionaryVariables
280
     0
  1
STANDARD
  0
DICTIONARYVAR
  5
157E6
102
{ACAD_REACTORS
330
13533
102
}
330
13533
100
DictionaryVariables
280
     0
  1
STANDARD
  0
DICTIONARYVAR
  5
157E8
102
{ACAD_REACTORS
330
13533
102
}
330
13533
100
DictionaryVariables
280
     0
  1
Metric50
  0
DICTIONARYVAR
  5
157E9
102
{ACAD_REACTORS
330
13533
102
}
330
13533
100
DictionaryVariables
280
     0
  1
Metric50
  0
DICTIONARYVAR
  5
13534
102
{ACAD_REACTORS
330
13533
102
}
330
13533
100
DictionaryVariables
280
     0
  1
1
  0
DICTIONARYVAR
  5
157EC
102
{ACAD_REACTORS
330
13533
102
}
330
13533
100
DictionaryVariables
280
     0
  1
0
  0
DICTIONARYVAR
  5
13535
102
{ACAD_REACTORS
330
13533
102
}
330
13533
100
DictionaryVariables
280
     0
  1

  0
DICTIONARYVAR
  5
157EB
102
{ACAD_REACTORS
330
13533
102
}
330
13533
100
DictionaryVariables
280
     0
  1
127
  0
DICTIONARYVAR
  5
1584D
102
{ACAD_REACTORS
330
13533
102
}
330
13533
100
DictionaryVariables
280
     0
  1
2
  0
DICTIONARY
  5
1588D
330
13EF5
100
AcDbDictionary
280
     1
281
     1
  3
ACAD_XREC_ROUNDTRIP
360
1588E
  0
DICTIONARY
  5
15851
330
13420
100
AcDbDictionary
280
     1
281
     1
  3
ACAD_XREC_ROUNDTRIP
360
15852
  0
DICTIONARY
  5
15853
330
13421
100
AcDbDictionary
280
     1
281
     1
  3
ACAD_XREC_ROUNDTRIP
360
15854
  0
DICTIONARY
  5
13EB4
330
13EB3
100
AcDbDictionary
280
     1
281
     1
  3
ACAD_XREC_ROUNDTRIP
360
15856
  3
BUMPTILE
360
13EB6
  3
DIFFUSETILE
360
13EB5
  3
OPACITYTILE
360
13EB9
  3
REFLECTIONTILE
360
13EB8
  3
REFRACTIONTILE
360
13EBA
  3
SPECULARTILE
360
13EB7
  0
DICTIONARY
  5
13EAC
330
13EAB
100
AcDbDictionary
280
     1
281
     1
  3
ACAD_XREC_ROUNDTRIP
360
15855
  3
BUMPTILE
360
13EAE
  3
DIFFUSETILE
360
13EAD
  3
OPACITYTILE
360
13EB1
  3
REFLECTIONTILE
360
13EB0
  3
REFRACTIONTILE
360
13EB2
  3
SPECULARTILE
360
13EAF
  0
DICTIONARY
  5
13EBC
330
13EBB
100
AcDbDictionary
280
     1
281
     1
  3
ACAD_XREC_ROUNDTRIP
360
15857
  3
BUMPTILE
360
13EBE
  3
DIFFUSETILE
360
13EBD
  3
OPACITYTILE
360
13EC1
  3
REFLECTIONTILE
360
13EC0
  3
REFRACTIONTILE
360
13EC2
  3
SPECULARTILE
360
13EBF
  0
DICTIONARY
  5
15889
330
13EF1
100
AcDbDictionary
280
     1
281
     1
  3
ACAD_XREC_ROUNDTRIP
360
1588A
  0
DICTIONARY
  5
1588B
330
13EF3
100
AcDbDictionary
280
     1
281
     1
  3
ACAD_XREC_ROUNDTRIP
360
1588C
  0
DICTIONARY
  5
157A1
330
13EDD
100
AcDbDictionary
280
     1
281
     1
  3
ACAD_ROUNDTRIP_2008_TABLESTYLE_CELLSTYLEMAP
360
1584E
  3
ACAD_XREC_ROUNDTRIP
360
15888
  0
DICTIONARY
  5
15862
330
13EC9
100
AcDbDictionary
280
     1
281
     1
  3
ACAD_XREC_ROUNDTRIP
360
15863
  0
DICTIONARY
  5
15860
330
13EC8
100
AcDbDictionary
280
     1
281
     1
  3
ACAD_XREC_ROUNDTRIP
360
15861
  0
DICTIONARY
  5
1586E
330
13ECF
100
AcDbDictionary
280
     1
281
     1
  3
ACAD_XREC_ROUNDTRIP
360
1586F
  0
DICTIONARY
  5
15876
330
13ED3
100
AcDbDictionary
280
     1
281
     1
  3
ACAD_XREC_ROUNDTRIP
360
15877
  0
DICTIONARY
  5
15868
330
13ECC
100
AcDbDictionary
280
     1
281
     1
  3
ACAD_XREC_ROUNDTRIP
360
15869
  0
DICTIONARY
  5
1586C
330
13ECE
100
AcDbDictionary
280
     1
281
     1
  3
ACAD_XREC_ROUNDTRIP
360
1586D
  0
DICTIONARY
  5
15886
330
13EDB
100
AcDbDictionary
280
     1
281
     1
  3
ACAD_XREC_ROUNDTRIP
360
15887
  0
DICTIONARY
  5
15874
330
13ED2
100
AcDbDictionary
280
     1
281
     1
  3
ACAD_XREC_ROUNDTRIP
360
15875
  0
DICTIONARY
  5
15858
330
13EC4
100
AcDbDictionary
280
     1
281
     1
  3
ACAD_XREC_ROUNDTRIP
360
15859
  0
DICTIONARY
  5
1585A
330
13EC5
100
AcDbDictionary
280
     1
281
     1
  3
ACAD_XREC_ROUNDTRIP
360
1585B
  0
DICTIONARY
  5
1585C
330
13EC6
100
AcDbDictionary
280
     1
281
     1
  3
ACAD_XREC_ROUNDTRIP
360
1585D
  0
DICTIONARY
  5
1585E
330
13EC7
100
AcDbDictionary
280
     1
281
     1
  3
ACAD_XREC_ROUNDTRIP
360
1585F
  0
DICTIONARY
  5
15866
330
13ECB
100
AcDbDictionary
280
     1
281
     1
  3
ACAD_XREC_ROUNDTRIP
360
15867
  0
DICTIONARY
  5
15882
330
13ED9
100
AcDbDictionary
280
     1
281
     1
  3
ACAD_XREC_ROUNDTRIP
360
15883
  0
DICTIONARY
  5
15872
330
13ED1
100
AcDbDictionary
280
     1
281
     1
  3
ACAD_XREC_ROUNDTRIP
360
15873
  0
DICTIONARY
  5
15884
330
13EDA
100
AcDbDictionary
280
     1
281
     1
  3
ACAD_XREC_ROUNDTRIP
360
15885
  0
DICTIONARY
  5
1586A
330
13ECD
100
AcDbDictionary
280
     1
281
     1
  3
ACAD_XREC_ROUNDTRIP
360
1586B
  0
DICTIONARY
  5
15880
330
13ED8
100
AcDbDictionary
280
     1
281
     1
  3
ACAD_XREC_ROUNDTRIP
360
15881
  0
DICTIONARY
  5
1587E
330
13ED7
100
AcDbDictionary
280
     1
281
     1
  3
ACAD_XREC_ROUNDTRIP
360
1587F
  0
DICTIONARY
  5
15878
330
13ED4
100
AcDbDictionary
280
     1
281
     1
  3
ACAD_XREC_ROUNDTRIP
360
15879
  0
DICTIONARY
  5
1587A
330
13ED5
100
AcDbDictionary
280
     1
281
     1
  3
ACAD_XREC_ROUNDTRIP
360
1587B
  0
DICTIONARY
  5
15870
330
13ED0
100
AcDbDictionary
280
     1
281
     1
  3
ACAD_XREC_ROUNDTRIP
360
15871
  0
DICTIONARY
  5
15864
330
13ECA
100
AcDbDictionary
280
     1
281
     1
  3
ACAD_XREC_ROUNDTRIP
360
15865
  0
DICTIONARY
  5
1587C
330
13ED6
100
AcDbDictionary
280
     1
281
     1
  3
ACAD_XREC_ROUNDTRIP
360
1587D
  0
XRECORD
  5
1588E
102
{ACAD_REACTORS
330
1588D
102
}
330
1588D
100
AcDbXrecord
280
     1
102
DISPLAYNAME
  1
Metric50
102
FLAGS
 90
        0
  0
XRECORD
  5
15852
102
{ACAD_REACTORS
330
15851
102
}
330
15851
100
AcDbXrecord
280
     1
102
SHADEPLOT
 70
     0
102
SHADEPLOTRESLEVEL
 70
     2
102
SHADEPLOTCUSTOMDPI
 70
   300
  0
XRECORD
  5
15854
102
{ACAD_REACTORS
330
15853
102
}
330
15853
100
AcDbXrecord
280
     1
102
SHADEPLOT
 70
     0
102
SHADEPLOTRESLEVEL
 70
     2
102
SHADEPLOTCUSTOMDPI
 70
   300
  0
XRECORD
  5
15856
102
{ACAD_REACTORS
330
13EB4
102
}
330
13EB4
100
AcDbXrecord
280
     1
102
MATERIAL
148
0.0
149
0.0
149
0.0
 93
        0
 94
      127
282
     0
 72
     0
 77
     0
171
     0
175
     0
179
     0
273
     0
  0
XRECORD
  5
13EB6
102
{ACAD_REACTORS
330
13EB4
102
}
330
13EB4
100
AcDbXrecord
280
     1
270
     1
271
     1
  0
XRECORD
  5
13EB5
102
{ACAD_REACTORS
330
13EB4
102
}
330
13EB4
100
AcDbXrecord
280
     1
270
     1
271
     1
  0
XRECORD
  5
13EB9
102
{ACAD_REACTORS
330
13EB4
102
}
330
13EB4
100
AcDbXrecord
280
     1
270
     1
271
     1
  0
XRECORD
  5
13EB8
102
{ACAD_REACTORS
330
13EB4
102
}
330
13EB4
100
AcDbXrecord
280
     1
270
     1
271
     1
  0
XRECORD
  5
13EBA
102
{ACAD_REACTORS
330
13EB4
102
}
330
13EB4
100
AcDbXrecord
280
     1
270
     1
271
     1
  0
XRECORD
  5
13EB7
102
{ACAD_REACTORS
330
13EB4
102
}
330
13EB4
100
AcDbXrecord
280
     1
270
     1
271
     1
  0
XRECORD
  5
15855
102
{ACAD_REACTORS
330
13EAC
102
}
330
13EAC
100
AcDbXrecord
280
     1
102
MATERIAL
148
0.0
149
0.0
149
0.0
 93
        0
 94
      127
282
     0
 72
     0
 77
     0
171
     0
175
     0
179
     0
273
     0
  0
XRECORD
  5
13EAE
102
{ACAD_REACTORS
330
13EAC
102
}
330
13EAC
100
AcDbXrecord
280
     1
270
     1
271
     1
  0
XRECORD
  5
13EAD
102
{ACAD_REACTORS
330
13EAC
102
}
330
13EAC
100
AcDbXrecord
280
     1
270
     1
271
     1
  0
XRECORD
  5
13EB1
102
{ACAD_REACTORS
330
13EAC
102
}
330
13EAC
100
AcDbXrecord
280
     1
270
     1
271
     1
  0
XRECORD
  5
13EB0
102
{ACAD_REACTORS
330
13EAC
102
}
330
13EAC
100
AcDbXrecord
280
     1
270
     1
271
     1
  0
XRECORD
  5
13EB2
102
{ACAD_REACTORS
330
13EAC
102
}
330
13EAC
100
AcDbXrecord
280
     1
270
     1
271
     1
  0
XRECORD
  5
13EAF
102
{ACAD_REACTORS
330
13EAC
102
}
330
13EAC
100
AcDbXrecord
280
     1
270
     1
271
     1
  0
XRECORD
  5
15857
102
{ACAD_REACTORS
330
13EBC
102
}
330
13EBC
100
AcDbXrecord
280
     1
102
MATERIAL
148
0.0
149
0.0
149
0.0
 93
        0
 94
      127
282
     0
 72
     0
 77
     0
171
     0
175
     0
179
     0
273
     0
  0
XRECORD
  5
13EBE
102
{ACAD_REACTORS
330
13EBC
102
}
330
13EBC
100
AcDbXrecord
280
     1
270
     1
271
     1
  0
XRECORD
  5
13EBD
102
{ACAD_REACTORS
330
13EBC
102
}
330
13EBC
100
AcDbXrecord
280
     1
270
     1
271
     1
  0
XRECORD
  5
13EC1
102
{ACAD_REACTORS
330
13EBC
102
}
330
13EBC
100
AcDbXrecord
280
     1
270
     1
271
     1
  0
XRECORD
  5
13EC0
102
{ACAD_REACTORS
330
13EBC
102
}
330
13EBC
100
AcDbXrecord
280
     1
270
     1
271
     1
  0
XRECORD
  5
13EC2
102
{ACAD_REACTORS
330
13EBC
102
}
330
13EBC
100
AcDbXrecord
280
     1
270
     1
271
     1
  0
XRECORD
  5
13EBF
102
{ACAD_REACTORS
330
13EBC
102
}
330
13EBC
100
AcDbXrecord
280
     1
270
     1
271
     1
  0
XRECORD
  5
1588A
102
{ACAD_REACTORS
330
15889
102
}
330
15889
100
AcDbXrecord
280
     1
102
ACAD_ROUNDTRIP_2012_MLEADER_STYLE
298
     1
  0
XRECORD
  5
1588C
102
{ACAD_REACTORS
330
1588B
102
}
330
1588B
100
AcDbXrecord
280
     1
102
DISPLAYNAME
  1
Metric50
102
FLAGS
 90
        0
  0
CELLSTYLEMAP
  5
1584E
102
{ACAD_REACTORS
330
157A1
102
}
330
157A1
100
AcDbCellStyleMap
 90
        3
300
CELLSTYLE
  1
TABLEFORMAT_BEGIN
 90
        5
170
     1
 91
        0
 92
    32768
 62
   257
 93
        1
300
CONTENTFORMAT
  1
CONTENTFORMAT_BEGIN
 90
        0
 91
        0
 92
      512
 93
        0
300

 40
0.0
140
1.0
 94
        5
 62
     0
340
7475
144
6.0
309
CONTENTFORMAT_END
171
     1
301
MARGIN
  1
CELLMARGIN_BEGIN
 40
1.5
 40
1.5
 40
1.5
 40
1.5
 40
4.5
 40
4.5
309
CELLMARGIN_END
 94
        6
 95
        1
302
GRIDFORMAT
  1
GRIDFORMAT_BEGIN
 90
        0
 91
        1
 62
     0
 92
       -2
340
0
 93
        0
 40
1.125
309
GRIDFORMAT_END
 95
        2
302
GRIDFORMAT
  1
GRIDFORMAT_BEGIN
 90
        0
 91
        1
 62
     0
 92
       -2
340
0
 93
        0
 40
1.125
309
GRIDFORMAT_END
 95
        4
302
GRIDFORMAT
  1
GRIDFORMAT_BEGIN
 90
        0
 91
        1
 62
     0
 92
       -2
340
0
 93
        0
 40
1.125
309
GRIDFORMAT_END
 95
        8
302
GRIDFORMAT
  1
GRIDFORMAT_BEGIN
 90
        0
 91
        1
 62
     0
 92
       -2
340
0
 93
        0
 40
1.125
309
GRIDFORMAT_END
 95
       16
302
GRIDFORMAT
  1
GRIDFORMAT_BEGIN
 90
        0
 91
        1
 62
     0
 92
       -2
340
0
 93
        0
 40
1.125
309
GRIDFORMAT_END
 95
       32
302
GRIDFORMAT
  1
GRIDFORMAT_BEGIN
 90
        0
 91
        1
 62
     0
 92
       -2
340
0
 93
        0
 40
1.125
309
GRIDFORMAT_END
309
TABLEFORMAT_END
  1
CELLSTYLE_BEGIN
 90
        1
 91
        1
300
_TITLE
309
CELLSTYLE_END
300
CELLSTYLE
  1
TABLEFORMAT_BEGIN
 90
        5
170
     1
 91
        0
 92
        0
 62
   257
 93
        1
300
CONTENTFORMAT
  1
CONTENTFORMAT_BEGIN
 90
        0
 91
        0
 92
      512
 93
        0
300

 40
0.0
140
1.0
 94
        5
 62
     0
340
7475
144
4.5
309
CONTENTFORMAT_END
171
     1
301
MARGIN
  1
CELLMARGIN_BEGIN
 40
1.5
 40
1.5
 40
1.5
 40
1.5
 40
4.5
 40
4.5
309
CELLMARGIN_END
 94
        6
 95
        1
302
GRIDFORMAT
  1
GRIDFORMAT_BEGIN
 90
        0
 91
        1
 62
     0
 92
       -2
340
0
 93
        0
 40
1.125
309
GRIDFORMAT_END
 95
        2
302
GRIDFORMAT
  1
GRIDFORMAT_BEGIN
 90
        0
 91
        1
 62
     0
 92
       -2
340
0
 93
        0
 40
1.125
309
GRIDFORMAT_END
 95
        4
302
GRIDFORMAT
  1
GRIDFORMAT_BEGIN
 90
        0
 91
        1
 62
     0
 92
       -2
340
0
 93
        0
 40
1.125
309
GRIDFORMAT_END
 95
        8
302
GRIDFORMAT
  1
GRIDFORMAT_BEGIN
 90
        0
 91
        1
 62
     0
 92
       -2
340
0
 93
        0
 40
1.125
309
GRIDFORMAT_END
 95
       16
302
GRIDFORMAT
  1
GRIDFORMAT_BEGIN
 90
        0
 91
        1
 62
     0
 92
       -2
340
0
 93
        0
 40
1.125
309
GRIDFORMAT_END
 95
       32
302
GRIDFORMAT
  1
GRIDFORMAT_BEGIN
 90
        0
 91
        1
 62
     0
 92
       -2
340
0
 93
        0
 40
1.125
309
GRIDFORMAT_END
309
TABLEFORMAT_END
  1
CELLSTYLE_BEGIN
 90
        2
 91
        1
300
_HEADER
309
CELLSTYLE_END
300
CELLSTYLE
  1
TABLEFORMAT_BEGIN
 90
        5
170
     1
 91
        0
 92
        0
 62
   257
 93
        1
300
CONTENTFORMAT
  1
CONTENTFORMAT_BEGIN
 90
        0
 91
        0
 92
      512
 93
        0
300

 40
0.0
140
1.0
 94
        2
 62
     0
340
7475
144
4.5
309
CONTENTFORMAT_END
171
     1
301
MARGIN
  1
CELLMARGIN_BEGIN
 40
1.5
 40
1.5
 40
1.5
 40
1.5
 40
4.5
 40
4.5
309
CELLMARGIN_END
 94
        6
 95
        1
302
GRIDFORMAT
  1
GRIDFORMAT_BEGIN
 90
        0
 91
        1
 62
     0
 92
       -2
340
0
 93
        0
 40
1.125
309
GRIDFORMAT_END
 95
        2
302
GRIDFORMAT
  1
GRIDFORMAT_BEGIN
 90
        0
 91
        1
 62
     0
 92
       -2
340
0
 93
        0
 40
1.125
309
GRIDFORMAT_END
 95
        4
302
GRIDFORMAT
  1
GRIDFORMAT_BEGIN
 90
        0
 91
        1
 62
     0
 92
       -2
340
0
 93
        0
 40
1.125
309
GRIDFORMAT_END
 95
        8
302
GRIDFORMAT
  1
GRIDFORMAT_BEGIN
 90
        0
 91
        1
 62
     0
 92
       -2
340
0
 93
        0
 40
1.125
309
GRIDFORMAT_END
 95
       16
302
GRIDFORMAT
  1
GRIDFORMAT_BEGIN
 90
        0
 91
        1
 62
     0
 92
       -2
340
0
 93
        0
 40
1.125
309
GRIDFORMAT_END
 95
       32
302
GRIDFORMAT
  1
GRIDFORMAT_BEGIN
 90
        0
 91
        1
 62
     0
 92
       -2
340
0
 93
        0
 40
1.125
309
GRIDFORMAT_END
309
TABLEFORMAT_END
  1
CELLSTYLE_BEGIN
 90
        3
 91
        2
300
_DATA
309
CELLSTYLE_END
  0
XRECORD
  5
15888
102
{ACAD_REACTORS
330
157A1
102
}
330
157A1
100
AcDbXrecord
280
     1
102
ACAD_ROUNDTRIP_PRE2007_TABLESTYLE
 90
      512
 91
        0
  1

 92
      512
 93
        0
  2

 94
      512
 95
        0
  3

  0
XRECORD
  5
15863
102
{ACAD_REACTORS
330
15862
102
}
330
15862
100
AcDbXrecord
280
     1
102
RTVSPost2010Prop28
280
     1
102
RTVSPost2010PropOp28
 70
     1
102
RTVSPost2010Prop29
280
     1
102
RTVSPost2010PropOp29
 70
     1
102
RTVSPost2010Prop30
280
     0
102
RTVSPost2010PropOp30
 70
     1
102
RTVSPost2010Prop31
280
     0
102
RTVSPost2010PropOp31
 70
     1
102
RTVSPost2010Prop32
280
     0
102
RTVSPost2010PropOp32
 70
     1
102
RTVSPost2010Prop33
280
     0
102
RTVSPost2010PropOp33
 70
     1
102
RTVSPost2010Prop34
280
     0
102
RTVSPost2010PropOp34
 70
     1
102
RTVSPost2010Prop35
280
     0
102
RTVSPost2010PropOp35
 70
     1
102
RTVSPost2010Prop36
280
     0
102
RTVSPost2010PropOp36
 70
     1
102
RTVSPost2010Prop37
 90
       50
102
RTVSPost2010PropOp37
 70
     1
102
RTVSPost2010Prop38
140
0.0
102
RTVSPost2010PropOp38
 70
     1
102
RTVSPost2010Prop39
140
1.0
102
RTVSPost2010PropOp39
 70
     1
102
RTVSPost2010Prop40
 90
        0
102
RTVSPost2010PropOp40
 70
     1
102
RTVSPost2010Prop41ColorIndex
 90
       18
102
RTVSPost2010Prop41ColorRGB
 90
        0
102
RTVSPost2010PropOp41
 70
     1
102
RTVSPost2010Prop42
 90
       50
102
RTVSPost2010PropOp42
 70
     1
102
RTVSPost2010Prop43
 90
        3
102
RTVSPost2010PropOp43
 70
     1
102
RTVSPost2010Prop44ColorIndex
 90
        5
102
RTVSPost2010Prop44ColorRGB
 90
      255
102
RTVSPost2010PropOp44
 70
     1
102
RTVSPost2010Prop45
280
     0
102
RTVSPost2010PropOp45
 70
     1
102
RTVSPost2010Prop46
 90
       50
102
RTVSPost2010PropOp46
 70
     1
102
RTVSPost2010Prop47
 90
       50
102
RTVSPost2010PropOp47
 70
     1
102
RTVSPost2010Prop48
 90
       50
102
RTVSPost2010PropOp48
 70
     1
102
RTVSPost2010Prop49
280
     0
102
RTVSPost2010PropOp49
 70
     1
102
RTVSPost2010Prop50
 90
       50
102
RTVSPost2010PropOp50
 70
     1
102
RTVSPost2010Prop51ColorIndex
 90
      256
102
RTVSPost2010Prop51ColorRGB
 90
-16777216
102
RTVSPost2010PropOp51
 70
     0
102
RTVSPost2010Prop52
140
1.0
102
RTVSPost2010PropOp52
 70
     0
102
RTVSPost2010Prop53
 90
        2
102
RTVSPost2010PropOp53
 70
     1
102
RTVSPost2010Prop54
  1
strokes_ogs.tif
102
RTVSPost2010PropOp54
 70
     1
102
RTVSPost2010Prop55
280
     0
102
RTVSPost2010PropOp55
 70
     1
102
RTVSPost2010Prop56
140
1.0
102
RTVSPost2010PropOp56
 70
     1
102
RTVSPost2010Prop57
140
1.0
102
RTVSPost2010PropOp57
 70
     1
102
RTVSPropertyOp0
 70
     1
102
RTVSPropertyOp1
 70
     1
102
RTVSPropertyOp2
 70
     1
102
RTVSPropertyOp3
 70
     1
102
RTVSPropertyOp4
 70
     1
102
RTVSPropertyOp5
 70
     1
102
RTVSPropertyOp6
 70
     1
102
RTVSPropertyOp7
 70
     1
102
RTVSPropertyOp8
 70
     1
102
RTVSPropertyOp9
 70
     1
102
RTVSPropertyOp10
 70
     1
102
RTVSPropertyOp11
 70
     1
102
RTVSPropertyOp12
 70
     1
102
RTVSPropertyOp13
 70
     1
102
RTVSPropertyOp14
 70
     1
102
RTVSPropertyOp15
 70
     1
102
RTVSPropertyOp16
 70
     1
102
RTVSPropertyOp17
 70
     1
102
RTVSPropertyOp18
 70
     1
102
RTVSPropertyOp19
 70
     1
102
RTVSPropertyOp20
 70
     1
102
RTVSPropertyOp21
 70
     1
102
RTVSPropertyOp22
 70
     1
102
RTVSPropertyOp23
 70
     1
102
RTVSPropertyOp24
 70
     1
102
RTVSPropertyOp25
 70
     1
102
RTVSPropertyOp26
 70
     1
102
RTVSPropertyOp27
 70
     1
102
RTVSPropertyOp28
 70
     1
102
RTVSPropertyOp29
 70
     1
102
RTVSPropertyOp30
 70
     1
102
RTVSPropertyOp31
 70
     1
102
RTVSPropertyOp32
 70
     1
102
RTVSPropertyOp33
 70
     1
102
RTVSPropertyOp34
 70
     1
102
RTVSPropertyOp35
 70
     1
102
RTVSPropertyOp36
 70
     1
102
RTVSPropertyOp37
 70
     1
102
RTVSPropertyOp38
 70
     1
102
RTVSPropertyOp39
 70
     1
102
RTVSPropertyOp40
 70
     1
102
RTVSPropertyOp41
 70
     1
102
RTVSPropertyOp42
 70
     1
102
RTVSPropertyOp43
 70
     1
102
RTVSPropertyOp44
 70
     1
102
RTVSPropertyOp45
 70
     1
102
RTVSPropertyOp46
 70
     1
102
RTVSPropertyOp47
 70
     1
102
RTVSPropertyOp48
 70
     1
102
RTVSPropertyOp49
 70
     1
102
RTVSPropertyOp50
 70
     1
102
RTVSPropertyOp51
 70
     0
102
RTVSPropertyOp52
 70
     0
102
RTVSPropertyOp53
 70
     1
102
RTVSPropertyOp54
 70
     1
102
RTVSPropertyOp55
 70
     1
102
RTVSPropertyOp56
 70
     1
102
RTVSPropertyOp57
 70
     1
102
RTVSPropertyOp58
 70
     1
102
RTVSPropertyOp59
 70
     1
102
RTVSPropertyOp60
 70
     1
102
RTVSPropertyOp61
 70
     1
102
RTVSPropertyOp62
 70
     1
  0
XRECORD
  5
15861
102
{ACAD_REACTORS
330
15860
102
}
330
15860
100
AcDbXrecord
280
     1
102
RTVSPost2010Prop28
280
     0
102
RTVSPost2010PropOp28
 70
     1
102
RTVSPost2010Prop29
280
     1
102
RTVSPost2010PropOp29
 70
     1
102
RTVSPost2010Prop30
280
     1
102
RTVSPost2010PropOp30
 70
     1
102
RTVSPost2010Prop31
280
     0
102
RTVSPost2010PropOp31
 70
     1
102
RTVSPost2010Prop32
280
     0
102
RTVSPost2010PropOp32
 70
     1
102
RTVSPost2010Prop33
280
     0
102
RTVSPost2010PropOp33
 70
     1
102
RTVSPost2010Prop34
280
     0
102
RTVSPost2010PropOp34
 70
     1
102
RTVSPost2010Prop35
280
     0
102
RTVSPost2010PropOp35
 70
     1
102
RTVSPost2010Prop36
280
     0
102
RTVSPost2010PropOp36
 70
     1
102
RTVSPost2010Prop37
 90
       50
102
RTVSPost2010PropOp37
 70
     1
102
RTVSPost2010Prop38
140
0.0
102
RTVSPost2010PropOp38
 70
     1
102
RTVSPost2010Prop39
140
1.0
102
RTVSPost2010PropOp39
 70
     1
102
RTVSPost2010Prop40
 90
        0
102
RTVSPost2010PropOp40
 70
     1
102
RTVSPost2010Prop41ColorIndex
 90
       18
102
RTVSPost2010Prop41ColorRGB
 90
        0
102
RTVSPost2010PropOp41
 70
     1
102
RTVSPost2010Prop42
 90
       50
102
RTVSPost2010PropOp42
 70
     1
102
RTVSPost2010Prop43
 90
        3
102
RTVSPost2010PropOp43
 70
     1
102
RTVSPost2010Prop44ColorIndex
 90
        5
102
RTVSPost2010Prop44ColorRGB
 90
      255
102
RTVSPost2010PropOp44
 70
     1
102
RTVSPost2010Prop45
280
     0
102
RTVSPost2010PropOp45
 70
     1
102
RTVSPost2010Prop46
 90
       50
102
RTVSPost2010PropOp46
 70
     1
102
RTVSPost2010Prop47
 90
       50
102
RTVSPost2010PropOp47
 70
     1
102
RTVSPost2010Prop48
 90
       50
102
RTVSPost2010PropOp48
 70
     1
102
RTVSPost2010Prop49
280
     0
102
RTVSPost2010PropOp49
 70
     1
102
RTVSPost2010Prop50
 90
       50
102
RTVSPost2010PropOp50
 70
     1
102
RTVSPost2010Prop51ColorIndex
 90
      256
102
RTVSPost2010Prop51ColorRGB
 90
-16777216
102
RTVSPost2010PropOp51
 70
     0
102
RTVSPost2010Prop52
140
1.0
102
RTVSPost2010PropOp52
 70
     0
102
RTVSPost2010Prop53
 90
        2
102
RTVSPost2010PropOp53
 70
     1
102
RTVSPost2010Prop54
  1
strokes_ogs.tif
102
RTVSPost2010PropOp54
 70
     1
102
RTVSPost2010Prop55
280
     0
102
RTVSPost2010PropOp55
 70
     1
102
RTVSPost2010Prop56
140
1.0
102
RTVSPost2010PropOp56
 70
     1
102
RTVSPost2010Prop57
140
1.0
102
RTVSPost2010PropOp57
 70
     1
102
RTVSPropertyOp0
 70
     1
102
RTVSPropertyOp1
 70
     1
102
RTVSPropertyOp2
 70
     1
102
RTVSPropertyOp3
 70
     1
102
RTVSPropertyOp4
 70
     1
102
RTVSPropertyOp5
 70
     1
102
RTVSPropertyOp6
 70
     1
102
RTVSPropertyOp7
 70
     1
102
RTVSPropertyOp8
 70
     1
102
RTVSPropertyOp9
 70
     1
102
RTVSPropertyOp10
 70
     1
102
RTVSPropertyOp11
 70
     1
102
RTVSPropertyOp12
 70
     1
102
RTVSPropertyOp13
 70
     1
102
RTVSPropertyOp14
 70
     1
102
RTVSPropertyOp15
 70
     1
102
RTVSPropertyOp16
 70
     1
102
RTVSPropertyOp17
 70
     1
102
RTVSPropertyOp18
 70
     1
102
RTVSPropertyOp19
 70
     1
102
RTVSPropertyOp20
 70
     1
102
RTVSPropertyOp21
 70
     1
102
RTVSPropertyOp22
 70
     1
102
RTVSPropertyOp23
 70
     1
102
RTVSPropertyOp24
 70
     1
102
RTVSPropertyOp25
 70
     1
102
RTVSPropertyOp26
 70
     1
102
RTVSPropertyOp27
 70
     1
102
RTVSPropertyOp28
 70
     1
102
RTVSPropertyOp29
 70
     1
102
RTVSPropertyOp30
 70
     1
102
RTVSPropertyOp31
 70
     1
102
RTVSPropertyOp32
 70
     1
102
RTVSPropertyOp33
 70
     1
102
RTVSPropertyOp34
 70
     1
102
RTVSPropertyOp35
 70
     1
102
RTVSPropertyOp36
 70
     1
102
RTVSPropertyOp37
 70
     1
102
RTVSPropertyOp38
 70
     1
102
RTVSPropertyOp39
 70
     1
102
RTVSPropertyOp40
 70
     1
102
RTVSPropertyOp41
 70
     1
102
RTVSPropertyOp42
 70
     1
102
RTVSPropertyOp43
 70
     1
102
RTVSPropertyOp44
 70
     1
102
RTVSPropertyOp45
 70
     1
102
RTVSPropertyOp46
 70
     1
102
RTVSPropertyOp47
 70
     1
102
RTVSPropertyOp48
 70
     1
102
RTVSPropertyOp49
 70
     1
102
RTVSPropertyOp50
 70
     1
102
RTVSPropertyOp51
 70
     0
102
RTVSPropertyOp52
 70
     0
102
RTVSPropertyOp53
 70
     1
102
RTVSPropertyOp54
 70
     1
102
RTVSPropertyOp55
 70
     1
102
RTVSPropertyOp56
 70
     1
102
RTVSPropertyOp57
 70
     1
102
RTVSPropertyOp58
 70
     1
102
RTVSPropertyOp59
 70
     1
102
RTVSPropertyOp60
 70
     1
102
RTVSPropertyOp61
 70
     1
102
RTVSPropertyOp62
 70
     1
  0
XRECORD
  5
1586F
102
{ACAD_REACTORS
330
1586E
102
}
330
1586E
100
AcDbXrecord
280
     1
102
RTVSPost2010Prop28
280
     0
102
RTVSPost2010PropOp28
 70
     1
102
RTVSPost2010Prop29
280
     1
102
RTVSPost2010PropOp29
 70
     1
102
RTVSPost2010Prop30
280
     1
102
RTVSPost2010PropOp30
 70
     1
102
RTVSPost2010Prop31
280
     0
102
RTVSPost2010PropOp31
 70
     1
102
RTVSPost2010Prop32
280
     0
102
RTVSPost2010PropOp32
 70
     1
102
RTVSPost2010Prop33
280
     0
102
RTVSPost2010PropOp33
 70
     1
102
RTVSPost2010Prop34
280
     0
102
RTVSPost2010PropOp34
 70
     1
102
RTVSPost2010Prop35
280
     0
102
RTVSPost2010PropOp35
 70
     1
102
RTVSPost2010Prop36
280
     0
102
RTVSPost2010PropOp36
 70
     1
102
RTVSPost2010Prop37
 90
       50
102
RTVSPost2010PropOp37
 70
     1
102
RTVSPost2010Prop38
140
0.0
102
RTVSPost2010PropOp38
 70
     1
102
RTVSPost2010Prop39
140
1.0
102
RTVSPost2010PropOp39
 70
     1
102
RTVSPost2010Prop40
 90
        0
102
RTVSPost2010PropOp40
 70
     1
102
RTVSPost2010Prop41ColorIndex
 90
       18
102
RTVSPost2010Prop41ColorRGB
 90
        0
102
RTVSPost2010PropOp41
 70
     1
102
RTVSPost2010Prop42
 90
       50
102
RTVSPost2010PropOp42
 70
     1
102
RTVSPost2010Prop43
 90
        3
102
RTVSPost2010PropOp43
 70
     1
102
RTVSPost2010Prop44ColorIndex
 90
        5
102
RTVSPost2010Prop44ColorRGB
 90
      255
102
RTVSPost2010PropOp44
 70
     1
102
RTVSPost2010Prop45
280
     0
102
RTVSPost2010PropOp45
 70
     1
102
RTVSPost2010Prop46
 90
       50
102
RTVSPost2010PropOp46
 70
     1
102
RTVSPost2010Prop47
 90
       50
102
RTVSPost2010PropOp47
 70
     1
102
RTVSPost2010Prop48
 90
       50
102
RTVSPost2010PropOp48
 70
     1
102
RTVSPost2010Prop49
280
     0
102
RTVSPost2010PropOp49
 70
     1
102
RTVSPost2010Prop50
 90
       50
102
RTVSPost2010PropOp50
 70
     1
102
RTVSPost2010Prop51ColorIndex
 90
      256
102
RTVSPost2010Prop51ColorRGB
 90
-16777216
102
RTVSPost2010PropOp51
 70
     0
102
RTVSPost2010Prop52
140
1.0
102
RTVSPost2010PropOp52
 70
     0
102
RTVSPost2010Prop53
 90
        2
102
RTVSPost2010PropOp53
 70
     1
102
RTVSPost2010Prop54
  1
strokes_ogs.tif
102
RTVSPost2010PropOp54
 70
     1
102
RTVSPost2010Prop55
280
     0
102
RTVSPost2010PropOp55
 70
     1
102
RTVSPost2010Prop56
140
1.0
102
RTVSPost2010PropOp56
 70
     1
102
RTVSPost2010Prop57
140
1.0
102
RTVSPost2010PropOp57
 70
     1
102
RTVSPropertyOp0
 70
     1
102
RTVSPropertyOp1
 70
     1
102
RTVSPropertyOp2
 70
     1
102
RTVSPropertyOp3
 70
     1
102
RTVSPropertyOp4
 70
     1
102
RTVSPropertyOp5
 70
     1
102
RTVSPropertyOp6
 70
     1
102
RTVSPropertyOp7
 70
     1
102
RTVSPropertyOp8
 70
     1
102
RTVSPropertyOp9
 70
     1
102
RTVSPropertyOp10
 70
     1
102
RTVSPropertyOp11
 70
     1
102
RTVSPropertyOp12
 70
     1
102
RTVSPropertyOp13
 70
     1
102
RTVSPropertyOp14
 70
     1
102
RTVSPropertyOp15
 70
     1
102
RTVSPropertyOp16
 70
     1
102
RTVSPropertyOp17
 70
     1
102
RTVSPropertyOp18
 70
     1
102
RTVSPropertyOp19
 70
     1
102
RTVSPropertyOp20
 70
     1
102
RTVSPropertyOp21
 70
     1
102
RTVSPropertyOp22
 70
     1
102
RTVSPropertyOp23
 70
     1
102
RTVSPropertyOp24
 70
     1
102
RTVSPropertyOp25
 70
     1
102
RTVSPropertyOp26
 70
     1
102
RTVSPropertyOp27
 70
     1
102
RTVSPropertyOp28
 70
     1
102
RTVSPropertyOp29
 70
     1
102
RTVSPropertyOp30
 70
     1
102
RTVSPropertyOp31
 70
     1
102
RTVSPropertyOp32
 70
     1
102
RTVSPropertyOp33
 70
     1
102
RTVSPropertyOp34
 70
     1
102
RTVSPropertyOp35
 70
     1
102
RTVSPropertyOp36
 70
     1
102
RTVSPropertyOp37
 70
     1
102
RTVSPropertyOp38
 70
     1
102
RTVSPropertyOp39
 70
     1
102
RTVSPropertyOp40
 70
     1
102
RTVSPropertyOp41
 70
     1
102
RTVSPropertyOp42
 70
     1
102
RTVSPropertyOp43
 70
     1
102
RTVSPropertyOp44
 70
     1
102
RTVSPropertyOp45
 70
     1
102
RTVSPropertyOp46
 70
     1
102
RTVSPropertyOp47
 70
     1
102
RTVSPropertyOp48
 70
     1
102
RTVSPropertyOp49
 70
     1
102
RTVSPropertyOp50
 70
     1
102
RTVSPropertyOp51
 70
     0
102
RTVSPropertyOp52
 70
     0
102
RTVSPropertyOp53
 70
     1
102
RTVSPropertyOp54
 70
     1
102
RTVSPropertyOp55
 70
     1
102
RTVSPropertyOp56
 70
     1
102
RTVSPropertyOp57
 70
     1
102
RTVSPropertyOp58
 70
     1
102
RTVSPropertyOp59
 70
     1
102
RTVSPropertyOp60
 70
     1
102
RTVSPropertyOp61
 70
     1
102
RTVSPropertyOp62
 70
     1
  0
XRECORD
  5
15877
102
{ACAD_REACTORS
330
15876
102
}
330
15876
100
AcDbXrecord
280
     1
102
RTVSPost2010Prop28
280
     0
102
RTVSPost2010PropOp28
 70
     1
102
RTVSPost2010Prop29
280
     1
102
RTVSPost2010PropOp29
 70
     1
102
RTVSPost2010Prop30
280
     1
102
RTVSPost2010PropOp30
 70
     1
102
RTVSPost2010Prop31
280
     0
102
RTVSPost2010PropOp31
 70
     1
102
RTVSPost2010Prop32
280
     0
102
RTVSPost2010PropOp32
 70
     1
102
RTVSPost2010Prop33
280
     0
102
RTVSPost2010PropOp33
 70
     1
102
RTVSPost2010Prop34
280
     0
102
RTVSPost2010PropOp34
 70
     1
102
RTVSPost2010Prop35
280
     0
102
RTVSPost2010PropOp35
 70
     1
102
RTVSPost2010Prop36
280
     0
102
RTVSPost2010PropOp36
 70
     1
102
RTVSPost2010Prop37
 90
       50
102
RTVSPost2010PropOp37
 70
     1
102
RTVSPost2010Prop38
140
0.0
102
RTVSPost2010PropOp38
 70
     1
102
RTVSPost2010Prop39
140
1.0
102
RTVSPost2010PropOp39
 70
     1
102
RTVSPost2010Prop40
 90
        0
102
RTVSPost2010PropOp40
 70
     1
102
RTVSPost2010Prop41ColorIndex
 90
       18
102
RTVSPost2010Prop41ColorRGB
 90
        0
102
RTVSPost2010PropOp41
 70
     1
102
RTVSPost2010Prop42
 90
       50
102
RTVSPost2010PropOp42
 70
     1
102
RTVSPost2010Prop43
 90
        3
102
RTVSPost2010PropOp43
 70
     1
102
RTVSPost2010Prop44ColorIndex
 90
        5
102
RTVSPost2010Prop44ColorRGB
 90
      255
102
RTVSPost2010PropOp44
 70
     1
102
RTVSPost2010Prop45
280
     0
102
RTVSPost2010PropOp45
 70
     1
102
RTVSPost2010Prop46
 90
       50
102
RTVSPost2010PropOp46
 70
     1
102
RTVSPost2010Prop47
 90
       50
102
RTVSPost2010PropOp47
 70
     1
102
RTVSPost2010Prop48
 90
       50
102
RTVSPost2010PropOp48
 70
     1
102
RTVSPost2010Prop49
280
     0
102
RTVSPost2010PropOp49
 70
     1
102
RTVSPost2010Prop50
 90
       50
102
RTVSPost2010PropOp50
 70
     1
102
RTVSPost2010Prop51ColorIndex
 90
      256
102
RTVSPost2010Prop51ColorRGB
 90
-16777216
102
RTVSPost2010PropOp51
 70
     0
102
RTVSPost2010Prop52
140
1.0
102
RTVSPost2010PropOp52
 70
     0
102
RTVSPost2010Prop53
 90
        2
102
RTVSPost2010PropOp53
 70
     1
102
RTVSPost2010Prop54
  1
strokes_ogs.tif
102
RTVSPost2010PropOp54
 70
     1
102
RTVSPost2010Prop55
280
     0
102
RTVSPost2010PropOp55
 70
     1
102
RTVSPost2010Prop56
140
1.0
102
RTVSPost2010PropOp56
 70
     1
102
RTVSPost2010Prop57
140
1.0
102
RTVSPost2010PropOp57
 70
     1
102
RTVSPropertyOp0
 70
     1
102
RTVSPropertyOp1
 70
     1
102
RTVSPropertyOp2
 70
     1
102
RTVSPropertyOp3
 70
     1
102
RTVSPropertyOp4
 70
     1
102
RTVSPropertyOp5
 70
     1
102
RTVSPropertyOp6
 70
     1
102
RTVSPropertyOp7
 70
     1
102
RTVSPropertyOp8
 70
     1
102
RTVSPropertyOp9
 70
     1
102
RTVSPropertyOp10
 70
     1
102
RTVSPropertyOp11
 70
     1
102
RTVSPropertyOp12
 70
     1
102
RTVSPropertyOp13
 70
     1
102
RTVSPropertyOp14
 70
     1
102
RTVSPropertyOp15
 70
     1
102
RTVSPropertyOp16
 70
     1
102
RTVSPropertyOp17
 70
     1
102
RTVSPropertyOp18
 70
     1
102
RTVSPropertyOp19
 70
     1
102
RTVSPropertyOp20
 70
     1
102
RTVSPropertyOp21
 70
     1
102
RTVSPropertyOp22
 70
     1
102
RTVSPropertyOp23
 70
     1
102
RTVSPropertyOp24
 70
     1
102
RTVSPropertyOp25
 70
     1
102
RTVSPropertyOp26
 70
     1
102
RTVSPropertyOp27
 70
     1
102
RTVSPropertyOp28
 70
     1
102
RTVSPropertyOp29
 70
     1
102
RTVSPropertyOp30
 70
     1
102
RTVSPropertyOp31
 70
     1
102
RTVSPropertyOp32
 70
     1
102
RTVSPropertyOp33
 70
     1
102
RTVSPropertyOp34
 70
     1
102
RTVSPropertyOp35
 70
     1
102
RTVSPropertyOp36
 70
     1
102
RTVSPropertyOp37
 70
     1
102
RTVSPropertyOp38
 70
     1
102
RTVSPropertyOp39
 70
     1
102
RTVSPropertyOp40
 70
     1
102
RTVSPropertyOp41
 70
     1
102
RTVSPropertyOp42
 70
     1
102
RTVSPropertyOp43
 70
     1
102
RTVSPropertyOp44
 70
     1
102
RTVSPropertyOp45
 70
     1
102
RTVSPropertyOp46
 70
     1
102
RTVSPropertyOp47
 70
     1
102
RTVSPropertyOp48
 70
     1
102
RTVSPropertyOp49
 70
     1
102
RTVSPropertyOp50
 70
     1
102
RTVSPropertyOp51
 70
     0
102
RTVSPropertyOp52
 70
     0
102
RTVSPropertyOp53
 70
     1
102
RTVSPropertyOp54
 70
     1
102
RTVSPropertyOp55
 70
     1
102
RTVSPropertyOp56
 70
     1
102
RTVSPropertyOp57
 70
     1
102
RTVSPropertyOp58
 70
     1
102
RTVSPropertyOp59
 70
     1
102
RTVSPropertyOp60
 70
     1
102
RTVSPropertyOp61
 70
     1
102
RTVSPropertyOp62
 70
     1
  0
XRECORD
  5
15869
102
{ACAD_REACTORS
330
15868
102
}
330
15868
100
AcDbXrecord
280
     1
102
RTVSPost2010Prop28
280
     0
102
RTVSPost2010PropOp28
 70
     1
102
RTVSPost2010Prop29
280
     1
102
RTVSPost2010PropOp29
 70
     1
102
RTVSPost2010Prop30
280
     1
102
RTVSPost2010PropOp30
 70
     1
102
RTVSPost2010Prop31
280
     0
102
RTVSPost2010PropOp31
 70
     1
102
RTVSPost2010Prop32
280
     0
102
RTVSPost2010PropOp32
 70
     1
102
RTVSPost2010Prop33
280
     0
102
RTVSPost2010PropOp33
 70
     1
102
RTVSPost2010Prop34
280
     0
102
RTVSPost2010PropOp34
 70
     1
102
RTVSPost2010Prop35
280
     0
102
RTVSPost2010PropOp35
 70
     1
102
RTVSPost2010Prop36
280
     0
102
RTVSPost2010PropOp36
 70
     1
102
RTVSPost2010Prop37
 90
       50
102
RTVSPost2010PropOp37
 70
     1
102
RTVSPost2010Prop38
140
0.0
102
RTVSPost2010PropOp38
 70
     1
102
RTVSPost2010Prop39
140
1.0
102
RTVSPost2010PropOp39
 70
     1
102
RTVSPost2010Prop40
 90
        0
102
RTVSPost2010PropOp40
 70
     1
102
RTVSPost2010Prop41ColorIndex
 90
       18
102
RTVSPost2010Prop41ColorRGB
 90
        0
102
RTVSPost2010PropOp41
 70
     1
102
RTVSPost2010Prop42
 90
       50
102
RTVSPost2010PropOp42
 70
     1
102
RTVSPost2010Prop43
 90
        3
102
RTVSPost2010PropOp43
 70
     1
102
RTVSPost2010Prop44ColorIndex
 90
        5
102
RTVSPost2010Prop44ColorRGB
 90
      255
102
RTVSPost2010PropOp44
 70
     1
102
RTVSPost2010Prop45
280
     0
102
RTVSPost2010PropOp45
 70
     1
102
RTVSPost2010Prop46
 90
       50
102
RTVSPost2010PropOp46
 70
     1
102
RTVSPost2010Prop47
 90
       50
102
RTVSPost2010PropOp47
 70
     1
102
RTVSPost2010Prop48
 90
       50
102
RTVSPost2010PropOp48
 70
     1
102
RTVSPost2010Prop49
280
     0
102
RTVSPost2010PropOp49
 70
     1
102
RTVSPost2010Prop50
 90
       50
102
RTVSPost2010PropOp50
 70
     1
102
RTVSPost2010Prop51ColorIndex
 90
      256
102
RTVSPost2010Prop51ColorRGB
 90
-16777216
102
RTVSPost2010PropOp51
 70
     0
102
RTVSPost2010Prop52
140
1.0
102
RTVSPost2010PropOp52
 70
     0
102
RTVSPost2010Prop53
 90
        2
102
RTVSPost2010PropOp53
 70
     1
102
RTVSPost2010Prop54
  1
strokes_ogs.tif
102
RTVSPost2010PropOp54
 70
     1
102
RTVSPost2010Prop55
280
     0
102
RTVSPost2010PropOp55
 70
     1
102
RTVSPost2010Prop56
140
1.0
102
RTVSPost2010PropOp56
 70
     1
102
RTVSPost2010Prop57
140
1.0
102
RTVSPost2010PropOp57
 70
     1
102
RTVSPropertyOp0
 70
     1
102
RTVSPropertyOp1
 70
     1
102
RTVSPropertyOp2
 70
     1
102
RTVSPropertyOp3
 70
     1
102
RTVSPropertyOp4
 70
     1
102
RTVSPropertyOp5
 70
     1
102
RTVSPropertyOp6
 70
     1
102
RTVSPropertyOp7
 70
     1
102
RTVSPropertyOp8
 70
     1
102
RTVSPropertyOp9
 70
     1
102
RTVSPropertyOp10
 70
     1
102
RTVSPropertyOp11
 70
     1
102
RTVSPropertyOp12
 70
     1
102
RTVSPropertyOp13
 70
     1
102
RTVSPropertyOp14
 70
     1
102
RTVSPropertyOp15
 70
     1
102
RTVSPropertyOp16
 70
     1
102
RTVSPropertyOp17
 70
     1
102
RTVSPropertyOp18
 70
     1
102
RTVSPropertyOp19
 70
     1
102
RTVSPropertyOp20
 70
     1
102
RTVSPropertyOp21
 70
     1
102
RTVSPropertyOp22
 70
     1
102
RTVSPropertyOp23
 70
     1
102
RTVSPropertyOp24
 70
     1
102
RTVSPropertyOp25
 70
     1
102
RTVSPropertyOp26
 70
     1
102
RTVSPropertyOp27
 70
     1
102
RTVSPropertyOp28
 70
     1
102
RTVSPropertyOp29
 70
     1
102
RTVSPropertyOp30
 70
     1
102
RTVSPropertyOp31
 70
     1
102
RTVSPropertyOp32
 70
     1
102
RTVSPropertyOp33
 70
     1
102
RTVSPropertyOp34
 70
     1
102
RTVSPropertyOp35
 70
     1
102
RTVSPropertyOp36
 70
     1
102
RTVSPropertyOp37
 70
     1
102
RTVSPropertyOp38
 70
     1
102
RTVSPropertyOp39
 70
     1
102
RTVSPropertyOp40
 70
     1
102
RTVSPropertyOp41
 70
     1
102
RTVSPropertyOp42
 70
     1
102
RTVSPropertyOp43
 70
     1
102
RTVSPropertyOp44
 70
     1
102
RTVSPropertyOp45
 70
     1
102
RTVSPropertyOp46
 70
     1
102
RTVSPropertyOp47
 70
     1
102
RTVSPropertyOp48
 70
     1
102
RTVSPropertyOp49
 70
     1
102
RTVSPropertyOp50
 70
     1
102
RTVSPropertyOp51
 70
     0
102
RTVSPropertyOp52
 70
     0
102
RTVSPropertyOp53
 70
     1
102
RTVSPropertyOp54
 70
     1
102
RTVSPropertyOp55
 70
     1
102
RTVSPropertyOp56
 70
     1
102
RTVSPropertyOp57
 70
     1
102
RTVSPropertyOp58
 70
     1
102
RTVSPropertyOp59
 70
     1
102
RTVSPropertyOp60
 70
     1
102
RTVSPropertyOp61
 70
     1
102
RTVSPropertyOp62
 70
     1
  0
XRECORD
  5
1586D
102
{ACAD_REACTORS
330
1586C
102
}
330
1586C
100
AcDbXrecord
280
     1
102
RTVSPost2010Prop28
280
     0
102
RTVSPost2010PropOp28
 70
     1
102
RTVSPost2010Prop29
280
     1
102
RTVSPost2010PropOp29
 70
     1
102
RTVSPost2010Prop30
280
     1
102
RTVSPost2010PropOp30
 70
     1
102
RTVSPost2010Prop31
280
     0
102
RTVSPost2010PropOp31
 70
     1
102
RTVSPost2010Prop32
280
     0
102
RTVSPost2010PropOp32
 70
     1
102
RTVSPost2010Prop33
280
     0
102
RTVSPost2010PropOp33
 70
     1
102
RTVSPost2010Prop34
280
     0
102
RTVSPost2010PropOp34
 70
     1
102
RTVSPost2010Prop35
280
     0
102
RTVSPost2010PropOp35
 70
     1
102
RTVSPost2010Prop36
280
     0
102
RTVSPost2010PropOp36
 70
     1
102
RTVSPost2010Prop37
 90
       50
102
RTVSPost2010PropOp37
 70
     1
102
RTVSPost2010Prop38
140
0.0
102
RTVSPost2010PropOp38
 70
     1
102
RTVSPost2010Prop39
140
1.0
102
RTVSPost2010PropOp39
 70
     1
102
RTVSPost2010Prop40
 90
        0
102
RTVSPost2010PropOp40
 70
     1
102
RTVSPost2010Prop41ColorIndex
 90
       18
102
RTVSPost2010Prop41ColorRGB
 90
        0
102
RTVSPost2010PropOp41
 70
     1
102
RTVSPost2010Prop42
 90
       50
102
RTVSPost2010PropOp42
 70
     1
102
RTVSPost2010Prop43
 90
        3
102
RTVSPost2010PropOp43
 70
     1
102
RTVSPost2010Prop44ColorIndex
 90
        5
102
RTVSPost2010Prop44ColorRGB
 90
      255
102
RTVSPost2010PropOp44
 70
     1
102
RTVSPost2010Prop45
280
     0
102
RTVSPost2010PropOp45
 70
     1
102
RTVSPost2010Prop46
 90
       50
102
RTVSPost2010PropOp46
 70
     1
102
RTVSPost2010Prop47
 90
       50
102
RTVSPost2010PropOp47
 70
     1
102
RTVSPost2010Prop48
 90
       50
102
RTVSPost2010PropOp48
 70
     1
102
RTVSPost2010Prop49
280
     0
102
RTVSPost2010PropOp49
 70
     1
102
RTVSPost2010Prop50
 90
       50
102
RTVSPost2010PropOp50
 70
     1
102
RTVSPost2010Prop51ColorIndex
 90
      256
102
RTVSPost2010Prop51ColorRGB
 90
-16777216
102
RTVSPost2010PropOp51
 70
     0
102
RTVSPost2010Prop52
140
1.0
102
RTVSPost2010PropOp52
 70
     0
102
RTVSPost2010Prop53
 90
        2
102
RTVSPost2010PropOp53
 70
     1
102
RTVSPost2010Prop54
  1
strokes_ogs.tif
102
RTVSPost2010PropOp54
 70
     1
102
RTVSPost2010Prop55
280
     0
102
RTVSPost2010PropOp55
 70
     1
102
RTVSPost2010Prop56
140
1.0
102
RTVSPost2010PropOp56
 70
     1
102
RTVSPost2010Prop57
140
1.0
102
RTVSPost2010PropOp57
 70
     1
102
RTVSPropertyOp0
 70
     1
102
RTVSPropertyOp1
 70
     1
102
RTVSPropertyOp2
 70
     1
102
RTVSPropertyOp3
 70
     1
102
RTVSPropertyOp4
 70
     1
102
RTVSPropertyOp5
 70
     1
102
RTVSPropertyOp6
 70
     1
102
RTVSPropertyOp7
 70
     1
102
RTVSPropertyOp8
 70
     1
102
RTVSPropertyOp9
 70
     1
102
RTVSPropertyOp10
 70
     1
102
RTVSPropertyOp11
 70
     1
102
RTVSPropertyOp12
 70
     1
102
RTVSPropertyOp13
 70
     1
102
RTVSPropertyOp14
 70
     1
102
RTVSPropertyOp15
 70
     1
102
RTVSPropertyOp16
 70
     1
102
RTVSPropertyOp17
 70
     1
102
RTVSPropertyOp18
 70
     1
102
RTVSPropertyOp19
 70
     1
102
RTVSPropertyOp20
 70
     1
102
RTVSPropertyOp21
 70
     1
102
RTVSPropertyOp22
 70
     1
102
RTVSPropertyOp23
 70
     1
102
RTVSPropertyOp24
 70
     1
102
RTVSPropertyOp25
 70
     1
102
RTVSPropertyOp26
 70
     1
102
RTVSPropertyOp27
 70
     1
102
RTVSPropertyOp28
 70
     1
102
RTVSPropertyOp29
 70
     1
102
RTVSPropertyOp30
 70
     1
102
RTVSPropertyOp31
 70
     1
102
RTVSPropertyOp32
 70
     1
102
RTVSPropertyOp33
 70
     1
102
RTVSPropertyOp34
 70
     1
102
RTVSPropertyOp35
 70
     1
102
RTVSPropertyOp36
 70
     1
102
RTVSPropertyOp37
 70
     1
102
RTVSPropertyOp38
 70
     1
102
RTVSPropertyOp39
 70
     1
102
RTVSPropertyOp40
 70
     1
102
RTVSPropertyOp41
 70
     1
102
RTVSPropertyOp42
 70
     1
102
RTVSPropertyOp43
 70
     1
102
RTVSPropertyOp44
 70
     1
102
RTVSPropertyOp45
 70
     1
102
RTVSPropertyOp46
 70
     1
102
RTVSPropertyOp47
 70
     1
102
RTVSPropertyOp48
 70
     1
102
RTVSPropertyOp49
 70
     1
102
RTVSPropertyOp50
 70
     1
102
RTVSPropertyOp51
 70
     0
102
RTVSPropertyOp52
 70
     0
102
RTVSPropertyOp53
 70
     1
102
RTVSPropertyOp54
 70
     1
102
RTVSPropertyOp55
 70
     1
102
RTVSPropertyOp56
 70
     1
102
RTVSPropertyOp57
 70
     1
102
RTVSPropertyOp58
 70
     1
102
RTVSPropertyOp59
 70
     1
102
RTVSPropertyOp60
 70
     1
102
RTVSPropertyOp61
 70
     1
102
RTVSPropertyOp62
 70
     1
  0
XRECORD
  5
15887
102
{ACAD_REACTORS
330
15886
102
}
330
15886
100
AcDbXrecord
280
     1
102
RTVSPost2010Prop28
280
     0
102
RTVSPost2010PropOp28
 70
     0
102
RTVSPost2010Prop29
280
     1
102
RTVSPost2010PropOp29
 70
     0
102
RTVSPost2010Prop30
280
     1
102
RTVSPost2010PropOp30
 70
     0
102
RTVSPost2010Prop31
280
     0
102
RTVSPost2010PropOp31
 70
     0
102
RTVSPost2010Prop32
280
     0
102
RTVSPost2010PropOp32
 70
     0
102
RTVSPost2010Prop33
280
     0
102
RTVSPost2010PropOp33
 70
     0
102
RTVSPost2010Prop34
280
     0
102
RTVSPost2010PropOp34
 70
     0
102
RTVSPost2010Prop35
280
     0
102
RTVSPost2010PropOp35
 70
     0
102
RTVSPost2010Prop36
280
     0
102
RTVSPost2010PropOp36
 70
     0
102
RTVSPost2010Prop37
 90
       50
102
RTVSPost2010PropOp37
 70
     0
102
RTVSPost2010Prop38
140
0.0
102
RTVSPost2010PropOp38
 70
     0
102
RTVSPost2010Prop39
140
1.0
102
RTVSPost2010PropOp39
 70
     0
102
RTVSPost2010Prop40
 90
        0
102
RTVSPost2010PropOp40
 70
     0
102
RTVSPost2010Prop41ColorIndex
 90
       18
102
RTVSPost2010Prop41ColorRGB
 90
        0
102
RTVSPost2010PropOp41
 70
     0
102
RTVSPost2010Prop42
 90
       50
102
RTVSPost2010PropOp42
 70
     0
102
RTVSPost2010Prop43
 90
        3
102
RTVSPost2010PropOp43
 70
     0
102
RTVSPost2010Prop44ColorIndex
 90
        5
102
RTVSPost2010Prop44ColorRGB
 90
      255
102
RTVSPost2010PropOp44
 70
     0
102
RTVSPost2010Prop45
280
     0
102
RTVSPost2010PropOp45
 70
     0
102
RTVSPost2010Prop46
 90
       50
102
RTVSPost2010PropOp46
 70
     0
102
RTVSPost2010Prop47
 90
       50
102
RTVSPost2010PropOp47
 70
     0
102
RTVSPost2010Prop48
 90
       50
102
RTVSPost2010PropOp48
 70
     0
102
RTVSPost2010Prop49
280
     0
102
RTVSPost2010PropOp49
 70
     0
102
RTVSPost2010Prop50
 90
       50
102
RTVSPost2010PropOp50
 70
     0
102
RTVSPost2010Prop51ColorIndex
 90
      256
102
RTVSPost2010Prop51ColorRGB
 90
-16777216
102
RTVSPost2010PropOp51
 70
     0
102
RTVSPost2010Prop52
140
1.0
102
RTVSPost2010PropOp52
 70
     0
102
RTVSPost2010Prop53
 90
        2
102
RTVSPost2010PropOp53
 70
     0
102
RTVSPost2010Prop54
  1
strokes_ogs.tif
102
RTVSPost2010PropOp54
 70
     0
102
RTVSPost2010Prop55
280
     0
102
RTVSPost2010PropOp55
 70
     0
102
RTVSPost2010Prop56
140
1.0
102
RTVSPost2010PropOp56
 70
     0
102
RTVSPost2010Prop57
140
1.0
102
RTVSPost2010PropOp57
 70
     0
102
RTVSPropertyOp0
 70
     0
102
RTVSPropertyOp1
 70
     0
102
RTVSPropertyOp2
 70
     0
102
RTVSPropertyOp3
 70
     0
102
RTVSPropertyOp4
 70
     0
102
RTVSPropertyOp5
 70
     0
102
RTVSPropertyOp6
 70
     0
102
RTVSPropertyOp7
 70
     0
102
RTVSPropertyOp8
 70
     0
102
RTVSPropertyOp9
 70
     0
102
RTVSPropertyOp10
 70
     0
102
RTVSPropertyOp11
 70
     0
102
RTVSPropertyOp12
 70
     0
102
RTVSPropertyOp13
 70
     0
102
RTVSPropertyOp14
 70
     2
102
RTVSPropertyOp15
 70
     0
102
RTVSPropertyOp16
 70
     0
102
RTVSPropertyOp17
 70
     0
102
RTVSPropertyOp18
 70
     0
102
RTVSPropertyOp19
 70
     0
102
RTVSPropertyOp20
 70
     0
102
RTVSPropertyOp21
 70
     0
102
RTVSPropertyOp22
 70
     0
102
RTVSPropertyOp23
 70
     0
102
RTVSPropertyOp24
 70
     0
102
RTVSPropertyOp25
 70
     0
102
RTVSPropertyOp26
 70
     0
102
RTVSPropertyOp27
 70
     0
102
RTVSPropertyOp28
 70
     0
102
RTVSPropertyOp29
 70
     0
102
RTVSPropertyOp30
 70
     0
102
RTVSPropertyOp31
 70
     0
102
RTVSPropertyOp32
 70
     0
102
RTVSPropertyOp33
 70
     0
102
RTVSPropertyOp34
 70
     0
102
RTVSPropertyOp35
 70
     0
102
RTVSPropertyOp36
 70
     0
102
RTVSPropertyOp37
 70
     0
102
RTVSPropertyOp38
 70
     0
102
RTVSPropertyOp39
 70
     0
102
RTVSPropertyOp40
 70
     0
102
RTVSPropertyOp41
 70
     0
102
RTVSPropertyOp42
 70
     0
102
RTVSPropertyOp43
 70
     0
102
RTVSPropertyOp44
 70
     0
102
RTVSPropertyOp45
 70
     0
102
RTVSPropertyOp46
 70
     0
102
RTVSPropertyOp47
 70
     0
102
RTVSPropertyOp48
 70
     0
102
RTVSPropertyOp49
 70
     0
102
RTVSPropertyOp50
 70
     0
102
RTVSPropertyOp51
 70
     0
102
RTVSPropertyOp52
 70
     0
102
RTVSPropertyOp53
 70
     0
102
RTVSPropertyOp54
 70
     0
102
RTVSPropertyOp55
 70
     0
102
RTVSPropertyOp56
 70
     0
102
RTVSPropertyOp57
 70
     0
102
RTVSPropertyOp58
 70
     0
102
RTVSPropertyOp59
 70
     0
102
RTVSPropertyOp60
 70
     0
102
RTVSPropertyOp61
 70
     0
102
RTVSPropertyOp62
 70
     0
  0
XRECORD
  5
15875
102
{ACAD_REACTORS
330
15874
102
}
330
15874
100
AcDbXrecord
280
     1
102
RTVSPost2010Prop28
280
     0
102
RTVSPost2010PropOp28
 70
     1
102
RTVSPost2010Prop29
280
     1
102
RTVSPost2010PropOp29
 70
     1
102
RTVSPost2010Prop30
280
     1
102
RTVSPost2010PropOp30
 70
     1
102
RTVSPost2010Prop31
280
     0
102
RTVSPost2010PropOp31
 70
     1
102
RTVSPost2010Prop32
280
     0
102
RTVSPost2010PropOp32
 70
     1
102
RTVSPost2010Prop33
280
     0
102
RTVSPost2010PropOp33
 70
     1
102
RTVSPost2010Prop34
280
     0
102
RTVSPost2010PropOp34
 70
     1
102
RTVSPost2010Prop35
280
     0
102
RTVSPost2010PropOp35
 70
     1
102
RTVSPost2010Prop36
280
     0
102
RTVSPost2010PropOp36
 70
     1
102
RTVSPost2010Prop37
 90
       50
102
RTVSPost2010PropOp37
 70
     1
102
RTVSPost2010Prop38
140
0.0
102
RTVSPost2010PropOp38
 70
     1
102
RTVSPost2010Prop39
140
1.0
102
RTVSPost2010PropOp39
 70
     1
102
RTVSPost2010Prop40
 90
        0
102
RTVSPost2010PropOp40
 70
     1
102
RTVSPost2010Prop41ColorIndex
 90
       18
102
RTVSPost2010Prop41ColorRGB
 90
        0
102
RTVSPost2010PropOp41
 70
     1
102
RTVSPost2010Prop42
 90
       50
102
RTVSPost2010PropOp42
 70
     1
102
RTVSPost2010Prop43
 90
        3
102
RTVSPost2010PropOp43
 70
     1
102
RTVSPost2010Prop44ColorIndex
 90
        5
102
RTVSPost2010Prop44ColorRGB
 90
      255
102
RTVSPost2010PropOp44
 70
     1
102
RTVSPost2010Prop45
280
     0
102
RTVSPost2010PropOp45
 70
     1
102
RTVSPost2010Prop46
 90
       50
102
RTVSPost2010PropOp46
 70
     1
102
RTVSPost2010Prop47
 90
       50
102
RTVSPost2010PropOp47
 70
     1
102
RTVSPost2010Prop48
 90
       50
102
RTVSPost2010PropOp48
 70
     1
102
RTVSPost2010Prop49
280
     0
102
RTVSPost2010PropOp49
 70
     1
102
RTVSPost2010Prop50
 90
       50
102
RTVSPost2010PropOp50
 70
     1
102
RTVSPost2010Prop51ColorIndex
 90
      256
102
RTVSPost2010Prop51ColorRGB
 90
-16777216
102
RTVSPost2010PropOp51
 70
     0
102
RTVSPost2010Prop52
140
1.0
102
RTVSPost2010PropOp52
 70
     0
102
RTVSPost2010Prop53
 90
        2
102
RTVSPost2010PropOp53
 70
     1
102
RTVSPost2010Prop54
  1
strokes_ogs.tif
102
RTVSPost2010PropOp54
 70
     1
102
RTVSPost2010Prop55
280
     0
102
RTVSPost2010PropOp55
 70
     1
102
RTVSPost2010Prop56
140
1.0
102
RTVSPost2010PropOp56
 70
     1
102
RTVSPost2010Prop57
140
1.0
102
RTVSPost2010PropOp57
 70
     1
102
RTVSPropertyOp0
 70
     1
102
RTVSPropertyOp1
 70
     1
102
RTVSPropertyOp2
 70
     1
102
RTVSPropertyOp3
 70
     1
102
RTVSPropertyOp4
 70
     1
102
RTVSPropertyOp5
 70
     1
102
RTVSPropertyOp6
 70
     1
102
RTVSPropertyOp7
 70
     1
102
RTVSPropertyOp8
 70
     1
102
RTVSPropertyOp9
 70
     1
102
RTVSPropertyOp10
 70
     1
102
RTVSPropertyOp11
 70
     1
102
RTVSPropertyOp12
 70
     1
102
RTVSPropertyOp13
 70
     1
102
RTVSPropertyOp14
 70
     1
102
RTVSPropertyOp15
 70
     1
102
RTVSPropertyOp16
 70
     1
102
RTVSPropertyOp17
 70
     1
102
RTVSPropertyOp18
 70
     1
102
RTVSPropertyOp19
 70
     1
102
RTVSPropertyOp20
 70
     1
102
RTVSPropertyOp21
 70
     1
102
RTVSPropertyOp22
 70
     1
102
RTVSPropertyOp23
 70
     1
102
RTVSPropertyOp24
 70
     1
102
RTVSPropertyOp25
 70
     1
102
RTVSPropertyOp26
 70
     1
102
RTVSPropertyOp27
 70
     1
102
RTVSPropertyOp28
 70
     1
102
RTVSPropertyOp29
 70
     1
102
RTVSPropertyOp30
 70
     1
102
RTVSPropertyOp31
 70
     1
102
RTVSPropertyOp32
 70
     1
102
RTVSPropertyOp33
 70
     1
102
RTVSPropertyOp34
 70
     1
102
RTVSPropertyOp35
 70
     1
102
RTVSPropertyOp36
 70
     1
102
RTVSPropertyOp37
 70
     1
102
RTVSPropertyOp38
 70
     1
102
RTVSPropertyOp39
 70
     1
102
RTVSPropertyOp40
 70
     1
102
RTVSPropertyOp41
 70
     1
102
RTVSPropertyOp42
 70
     1
102
RTVSPropertyOp43
 70
     1
102
RTVSPropertyOp44
 70
     1
102
RTVSPropertyOp45
 70
     1
102
RTVSPropertyOp46
 70
     1
102
RTVSPropertyOp47
 70
     1
102
RTVSPropertyOp48
 70
     1
102
RTVSPropertyOp49
 70
     1
102
RTVSPropertyOp50
 70
     1
102
RTVSPropertyOp51
 70
     0
102
RTVSPropertyOp52
 70
     0
102
RTVSPropertyOp53
 70
     1
102
RTVSPropertyOp54
 70
     1
102
RTVSPropertyOp55
 70
     1
102
RTVSPropertyOp56
 70
     1
102
RTVSPropertyOp57
 70
     1
102
RTVSPropertyOp58
 70
     1
102
RTVSPropertyOp59
 70
     1
102
RTVSPropertyOp60
 70
     1
102
RTVSPropertyOp61
 70
     1
102
RTVSPropertyOp62
 70
     1
  0
XRECORD
  5
15859
102
{ACAD_REACTORS
330
15858
102
}
330
15858
100
AcDbXrecord
280
     1
102
RTVSPost2010Prop28
280
     0
102
RTVSPost2010PropOp28
 70
     1
102
RTVSPost2010Prop29
280
     1
102
RTVSPost2010PropOp29
 70
     1
102
RTVSPost2010Prop30
280
     1
102
RTVSPost2010PropOp30
 70
     1
102
RTVSPost2010Prop31
280
     0
102
RTVSPost2010PropOp31
 70
     1
102
RTVSPost2010Prop32
280
     0
102
RTVSPost2010PropOp32
 70
     1
102
RTVSPost2010Prop33
280
     0
102
RTVSPost2010PropOp33
 70
     1
102
RTVSPost2010Prop34
280
     0
102
RTVSPost2010PropOp34
 70
     1
102
RTVSPost2010Prop35
280
     0
102
RTVSPost2010PropOp35
 70
     1
102
RTVSPost2010Prop36
280
     0
102
RTVSPost2010PropOp36
 70
     1
102
RTVSPost2010Prop37
 90
       50
102
RTVSPost2010PropOp37
 70
     1
102
RTVSPost2010Prop38
140
0.0
102
RTVSPost2010PropOp38
 70
     1
102
RTVSPost2010Prop39
140
1.0
102
RTVSPost2010PropOp39
 70
     1
102
RTVSPost2010Prop40
 90
        0
102
RTVSPost2010PropOp40
 70
     1
102
RTVSPost2010Prop41ColorIndex
 90
       18
102
RTVSPost2010Prop41ColorRGB
 90
        0
102
RTVSPost2010PropOp41
 70
     1
102
RTVSPost2010Prop42
 90
       50
102
RTVSPost2010PropOp42
 70
     1
102
RTVSPost2010Prop43
 90
        3
102
RTVSPost2010PropOp43
 70
     1
102
RTVSPost2010Prop44ColorIndex
 90
        5
102
RTVSPost2010Prop44ColorRGB
 90
      255
102
RTVSPost2010PropOp44
 70
     1
102
RTVSPost2010Prop45
280
     0
102
RTVSPost2010PropOp45
 70
     1
102
RTVSPost2010Prop46
 90
       50
102
RTVSPost2010PropOp46
 70
     1
102
RTVSPost2010Prop47
 90
       50
102
RTVSPost2010PropOp47
 70
     1
102
RTVSPost2010Prop48
 90
       50
102
RTVSPost2010PropOp48
 70
     1
102
RTVSPost2010Prop49
280
     0
102
RTVSPost2010PropOp49
 70
     1
102
RTVSPost2010Prop50
 90
       50
102
RTVSPost2010PropOp50
 70
     1
102
RTVSPost2010Prop51ColorIndex
 90
      256
102
RTVSPost2010Prop51ColorRGB
 90
-16777216
102
RTVSPost2010PropOp51
 70
     0
102
RTVSPost2010Prop52
140
1.0
102
RTVSPost2010PropOp52
 70
     0
102
RTVSPost2010Prop53
 90
        2
102
RTVSPost2010PropOp53
 70
     1
102
RTVSPost2010Prop54
  1
strokes_ogs.tif
102
RTVSPost2010PropOp54
 70
     1
102
RTVSPost2010Prop55
280
     0
102
RTVSPost2010PropOp55
 70
     1
102
RTVSPost2010Prop56
140
1.0
102
RTVSPost2010PropOp56
 70
     1
102
RTVSPost2010Prop57
140
1.0
102
RTVSPost2010PropOp57
 70
     1
102
RTVSPropertyOp0
 70
     1
102
RTVSPropertyOp1
 70
     1
102
RTVSPropertyOp2
 70
     1
102
RTVSPropertyOp3
 70
     1
102
RTVSPropertyOp4
 70
     1
102
RTVSPropertyOp5
 70
     1
102
RTVSPropertyOp6
 70
     1
102
RTVSPropertyOp7
 70
     1
102
RTVSPropertyOp8
 70
     1
102
RTVSPropertyOp9
 70
     1
102
RTVSPropertyOp10
 70
     1
102
RTVSPropertyOp11
 70
     1
102
RTVSPropertyOp12
 70
     1
102
RTVSPropertyOp13
 70
     1
102
RTVSPropertyOp14
 70
     1
102
RTVSPropertyOp15
 70
     1
102
RTVSPropertyOp16
 70
     1
102
RTVSPropertyOp17
 70
     1
102
RTVSPropertyOp18
 70
     1
102
RTVSPropertyOp19
 70
     1
102
RTVSPropertyOp20
 70
     1
102
RTVSPropertyOp21
 70
     1
102
RTVSPropertyOp22
 70
     1
102
RTVSPropertyOp23
 70
     1
102
RTVSPropertyOp24
 70
     1
102
RTVSPropertyOp25
 70
     1
102
RTVSPropertyOp26
 70
     1
102
RTVSPropertyOp27
 70
     1
102
RTVSPropertyOp28
 70
     1
102
RTVSPropertyOp29
 70
     1
102
RTVSPropertyOp30
 70
     1
102
RTVSPropertyOp31
 70
     1
102
RTVSPropertyOp32
 70
     1
102
RTVSPropertyOp33
 70
     1
102
RTVSPropertyOp34
 70
     1
102
RTVSPropertyOp35
 70
     1
102
RTVSPropertyOp36
 70
     1
102
RTVSPropertyOp37
 70
     1
102
RTVSPropertyOp38
 70
     1
102
RTVSPropertyOp39
 70
     1
102
RTVSPropertyOp40
 70
     1
102
RTVSPropertyOp41
 70
     1
102
RTVSPropertyOp42
 70
     1
102
RTVSPropertyOp43
 70
     1
102
RTVSPropertyOp44
 70
     1
102
RTVSPropertyOp45
 70
     1
102
RTVSPropertyOp46
 70
     1
102
RTVSPropertyOp47
 70
     1
102
RTVSPropertyOp48
 70
     1
102
RTVSPropertyOp49
 70
     1
102
RTVSPropertyOp50
 70
     1
102
RTVSPropertyOp51
 70
     0
102
RTVSPropertyOp52
 70
     0
102
RTVSPropertyOp53
 70
     1
102
RTVSPropertyOp54
 70
     1
102
RTVSPropertyOp55
 70
     1
102
RTVSPropertyOp56
 70
     1
102
RTVSPropertyOp57
 70
     1
102
RTVSPropertyOp58
 70
     1
102
RTVSPropertyOp59
 70
     1
102
RTVSPropertyOp60
 70
     1
102
RTVSPropertyOp61
 70
     1
102
RTVSPropertyOp62
 70
     1
  0
XRECORD
  5
1585B
102
{ACAD_REACTORS
330
1585A
102
}
330
1585A
100
AcDbXrecord
280
     1
102
RTVSPost2010Prop28
280
     0
102
RTVSPost2010PropOp28
 70
     1
102
RTVSPost2010Prop29
280
     1
102
RTVSPost2010PropOp29
 70
     1
102
RTVSPost2010Prop30
280
     1
102
RTVSPost2010PropOp30
 70
     1
102
RTVSPost2010Prop31
280
     0
102
RTVSPost2010PropOp31
 70
     1
102
RTVSPost2010Prop32
280
     0
102
RTVSPost2010PropOp32
 70
     1
102
RTVSPost2010Prop33
280
     0
102
RTVSPost2010PropOp33
 70
     1
102
RTVSPost2010Prop34
280
     0
102
RTVSPost2010PropOp34
 70
     1
102
RTVSPost2010Prop35
280
     0
102
RTVSPost2010PropOp35
 70
     1
102
RTVSPost2010Prop36
280
     0
102
RTVSPost2010PropOp36
 70
     1
102
RTVSPost2010Prop37
 90
       50
102
RTVSPost2010PropOp37
 70
     1
102
RTVSPost2010Prop38
140
0.0
102
RTVSPost2010PropOp38
 70
     1
102
RTVSPost2010Prop39
140
1.0
102
RTVSPost2010PropOp39
 70
     1
102
RTVSPost2010Prop40
 90
        0
102
RTVSPost2010PropOp40
 70
     1
102
RTVSPost2010Prop41ColorIndex
 90
       18
102
RTVSPost2010Prop41ColorRGB
 90
        0
102
RTVSPost2010PropOp41
 70
     1
102
RTVSPost2010Prop42
 90
       50
102
RTVSPost2010PropOp42
 70
     1
102
RTVSPost2010Prop43
 90
        3
102
RTVSPost2010PropOp43
 70
     1
102
RTVSPost2010Prop44ColorIndex
 90
        5
102
RTVSPost2010Prop44ColorRGB
 90
      255
102
RTVSPost2010PropOp44
 70
     1
102
RTVSPost2010Prop45
280
     0
102
RTVSPost2010PropOp45
 70
     1
102
RTVSPost2010Prop46
 90
       50
102
RTVSPost2010PropOp46
 70
     1
102
RTVSPost2010Prop47
 90
       50
102
RTVSPost2010PropOp47
 70
     1
102
RTVSPost2010Prop48
 90
       50
102
RTVSPost2010PropOp48
 70
     1
102
RTVSPost2010Prop49
280
     0
102
RTVSPost2010PropOp49
 70
     1
102
RTVSPost2010Prop50
 90
       50
102
RTVSPost2010PropOp50
 70
     1
102
RTVSPost2010Prop51ColorIndex
 90
      256
102
RTVSPost2010Prop51ColorRGB
 90
-16777216
102
RTVSPost2010PropOp51
 70
     0
102
RTVSPost2010Prop52
140
1.0
102
RTVSPost2010PropOp52
 70
     0
102
RTVSPost2010Prop53
 90
        2
102
RTVSPost2010PropOp53
 70
     1
102
RTVSPost2010Prop54
  1
strokes_ogs.tif
102
RTVSPost2010PropOp54
 70
     1
102
RTVSPost2010Prop55
280
     0
102
RTVSPost2010PropOp55
 70
     1
102
RTVSPost2010Prop56
140
1.0
102
RTVSPost2010PropOp56
 70
     1
102
RTVSPost2010Prop57
140
1.0
102
RTVSPost2010PropOp57
 70
     1
102
RTVSPropertyOp0
 70
     1
102
RTVSPropertyOp1
 70
     1
102
RTVSPropertyOp2
 70
     1
102
RTVSPropertyOp3
 70
     1
102
RTVSPropertyOp4
 70
     1
102
RTVSPropertyOp5
 70
     1
102
RTVSPropertyOp6
 70
     1
102
RTVSPropertyOp7
 70
     1
102
RTVSPropertyOp8
 70
     1
102
RTVSPropertyOp9
 70
     1
102
RTVSPropertyOp10
 70
     1
102
RTVSPropertyOp11
 70
     1
102
RTVSPropertyOp12
 70
     1
102
RTVSPropertyOp13
 70
     1
102
RTVSPropertyOp14
 70
     1
102
RTVSPropertyOp15
 70
     1
102
RTVSPropertyOp16
 70
     1
102
RTVSPropertyOp17
 70
     1
102
RTVSPropertyOp18
 70
     1
102
RTVSPropertyOp19
 70
     1
102
RTVSPropertyOp20
 70
     1
102
RTVSPropertyOp21
 70
     1
102
RTVSPropertyOp22
 70
     1
102
RTVSPropertyOp23
 70
     1
102
RTVSPropertyOp24
 70
     1
102
RTVSPropertyOp25
 70
     1
102
RTVSPropertyOp26
 70
     1
102
RTVSPropertyOp27
 70
     1
102
RTVSPropertyOp28
 70
     1
102
RTVSPropertyOp29
 70
     1
102
RTVSPropertyOp30
 70
     1
102
RTVSPropertyOp31
 70
     1
102
RTVSPropertyOp32
 70
     1
102
RTVSPropertyOp33
 70
     1
102
RTVSPropertyOp34
 70
     1
102
RTVSPropertyOp35
 70
     1
102
RTVSPropertyOp36
 70
     1
102
RTVSPropertyOp37
 70
     1
102
RTVSPropertyOp38
 70
     1
102
RTVSPropertyOp39
 70
     1
102
RTVSPropertyOp40
 70
     1
102
RTVSPropertyOp41
 70
     1
102
RTVSPropertyOp42
 70
     1
102
RTVSPropertyOp43
 70
     1
102
RTVSPropertyOp44
 70
     1
102
RTVSPropertyOp45
 70
     1
102
RTVSPropertyOp46
 70
     1
102
RTVSPropertyOp47
 70
     1
102
RTVSPropertyOp48
 70
     1
102
RTVSPropertyOp49
 70
     1
102
RTVSPropertyOp50
 70
     1
102
RTVSPropertyOp51
 70
     0
102
RTVSPropertyOp52
 70
     0
102
RTVSPropertyOp53
 70
     1
102
RTVSPropertyOp54
 70
     1
102
RTVSPropertyOp55
 70
     1
102
RTVSPropertyOp56
 70
     1
102
RTVSPropertyOp57
 70
     1
102
RTVSPropertyOp58
 70
     1
102
RTVSPropertyOp59
 70
     1
102
RTVSPropertyOp60
 70
     1
102
RTVSPropertyOp61
 70
     1
102
RTVSPropertyOp62
 70
     1
  0
XRECORD
  5
1585D
102
{ACAD_REACTORS
330
1585C
102
}
330
1585C
100
AcDbXrecord
280
     1
102
RTVSPost2010Prop28
280
     0
102
RTVSPost2010PropOp28
 70
     1
102
RTVSPost2010Prop29
280
     1
102
RTVSPost2010PropOp29
 70
     1
102
RTVSPost2010Prop30
280
     1
102
RTVSPost2010PropOp30
 70
     1
102
RTVSPost2010Prop31
280
     0
102
RTVSPost2010PropOp31
 70
     1
102
RTVSPost2010Prop32
280
     0
102
RTVSPost2010PropOp32
 70
     1
102
RTVSPost2010Prop33
280
     0
102
RTVSPost2010PropOp33
 70
     1
102
RTVSPost2010Prop34
280
     0
102
RTVSPost2010PropOp34
 70
     1
102
RTVSPost2010Prop35
280
     0
102
RTVSPost2010PropOp35
 70
     1
102
RTVSPost2010Prop36
280
     0
102
RTVSPost2010PropOp36
 70
     1
102
RTVSPost2010Prop37
 90
       50
102
RTVSPost2010PropOp37
 70
     1
102
RTVSPost2010Prop38
140
0.0
102
RTVSPost2010PropOp38
 70
     1
102
RTVSPost2010Prop39
140
1.0
102
RTVSPost2010PropOp39
 70
     1
102
RTVSPost2010Prop40
 90
        0
102
RTVSPost2010PropOp40
 70
     1
102
RTVSPost2010Prop41ColorIndex
 90
       18
102
RTVSPost2010Prop41ColorRGB
 90
        0
102
RTVSPost2010PropOp41
 70
     1
102
RTVSPost2010Prop42
 90
       50
102
RTVSPost2010PropOp42
 70
     1
102
RTVSPost2010Prop43
 90
        3
102
RTVSPost2010PropOp43
 70
     1
102
RTVSPost2010Prop44ColorIndex
 90
        5
102
RTVSPost2010Prop44ColorRGB
 90
      255
102
RTVSPost2010PropOp44
 70
     1
102
RTVSPost2010Prop45
280
     0
102
RTVSPost2010PropOp45
 70
     1
102
RTVSPost2010Prop46
 90
       50
102
RTVSPost2010PropOp46
 70
     1
102
RTVSPost2010Prop47
 90
       50
102
RTVSPost2010PropOp47
 70
     1
102
RTVSPost2010Prop48
 90
       50
102
RTVSPost2010PropOp48
 70
     1
102
RTVSPost2010Prop49
280
     0
102
RTVSPost2010PropOp49
 70
     1
102
RTVSPost2010Prop50
 90
       50
102
RTVSPost2010PropOp50
 70
     1
102
RTVSPost2010Prop51ColorIndex
 90
      256
102
RTVSPost2010Prop51ColorRGB
 90
-16777216
102
RTVSPost2010PropOp51
 70
     0
102
RTVSPost2010Prop52
140
1.0
102
RTVSPost2010PropOp52
 70
     0
102
RTVSPost2010Prop53
 90
        2
102
RTVSPost2010PropOp53
 70
     1
102
RTVSPost2010Prop54
  1
strokes_ogs.tif
102
RTVSPost2010PropOp54
 70
     1
102
RTVSPost2010Prop55
280
     0
102
RTVSPost2010PropOp55
 70
     1
102
RTVSPost2010Prop56
140
1.0
102
RTVSPost2010PropOp56
 70
     1
102
RTVSPost2010Prop57
140
1.0
102
RTVSPost2010PropOp57
 70
     1
102
RTVSPropertyOp0
 70
     1
102
RTVSPropertyOp1
 70
     1
102
RTVSPropertyOp2
 70
     1
102
RTVSPropertyOp3
 70
     1
102
RTVSPropertyOp4
 70
     1
102
RTVSPropertyOp5
 70
     1
102
RTVSPropertyOp6
 70
     1
102
RTVSPropertyOp7
 70
     1
102
RTVSPropertyOp8
 70
     1
102
RTVSPropertyOp9
 70
     1
102
RTVSPropertyOp10
 70
     1
102
RTVSPropertyOp11
 70
     1
102
RTVSPropertyOp12
 70
     1
102
RTVSPropertyOp13
 70
     1
102
RTVSPropertyOp14
 70
     1
102
RTVSPropertyOp15
 70
     1
102
RTVSPropertyOp16
 70
     1
102
RTVSPropertyOp17
 70
     1
102
RTVSPropertyOp18
 70
     1
102
RTVSPropertyOp19
 70
     1
102
RTVSPropertyOp20
 70
     1
102
RTVSPropertyOp21
 70
     1
102
RTVSPropertyOp22
 70
     1
102
RTVSPropertyOp23
 70
     1
102
RTVSPropertyOp24
 70
     1
102
RTVSPropertyOp25
 70
     1
102
RTVSPropertyOp26
 70
     1
102
RTVSPropertyOp27
 70
     1
102
RTVSPropertyOp28
 70
     1
102
RTVSPropertyOp29
 70
     1
102
RTVSPropertyOp30
 70
     1
102
RTVSPropertyOp31
 70
     1
102
RTVSPropertyOp32
 70
     1
102
RTVSPropertyOp33
 70
     1
102
RTVSPropertyOp34
 70
     1
102
RTVSPropertyOp35
 70
     1
102
RTVSPropertyOp36
 70
     1
102
RTVSPropertyOp37
 70
     1
102
RTVSPropertyOp38
 70
     1
102
RTVSPropertyOp39
 70
     1
102
RTVSPropertyOp40
 70
     1
102
RTVSPropertyOp41
 70
     1
102
RTVSPropertyOp42
 70
     1
102
RTVSPropertyOp43
 70
     1
102
RTVSPropertyOp44
 70
     1
102
RTVSPropertyOp45
 70
     1
102
RTVSPropertyOp46
 70
     1
102
RTVSPropertyOp47
 70
     1
102
RTVSPropertyOp48
 70
     1
102
RTVSPropertyOp49
 70
     1
102
RTVSPropertyOp50
 70
     1
102
RTVSPropertyOp51
 70
     0
102
RTVSPropertyOp52
 70
     0
102
RTVSPropertyOp53
 70
     1
102
RTVSPropertyOp54
 70
     1
102
RTVSPropertyOp55
 70
     1
102
RTVSPropertyOp56
 70
     1
102
RTVSPropertyOp57
 70
     1
102
RTVSPropertyOp58
 70
     1
102
RTVSPropertyOp59
 70
     1
102
RTVSPropertyOp60
 70
     1
102
RTVSPropertyOp61
 70
     1
102
RTVSPropertyOp62
 70
     1
  0
XRECORD
  5
1585F
102
{ACAD_REACTORS
330
1585E
102
}
330
1585E
100
AcDbXrecord
280
     1
102
RTVSPost2010Prop28
280
     0
102
RTVSPost2010PropOp28
 70
     1
102
RTVSPost2010Prop29
280
     1
102
RTVSPost2010PropOp29
 70
     1
102
RTVSPost2010Prop30
280
     1
102
RTVSPost2010PropOp30
 70
     1
102
RTVSPost2010Prop31
280
     0
102
RTVSPost2010PropOp31
 70
     1
102
RTVSPost2010Prop32
280
     0
102
RTVSPost2010PropOp32
 70
     1
102
RTVSPost2010Prop33
280
     0
102
RTVSPost2010PropOp33
 70
     1
102
RTVSPost2010Prop34
280
     0
102
RTVSPost2010PropOp34
 70
     1
102
RTVSPost2010Prop35
280
     0
102
RTVSPost2010PropOp35
 70
     1
102
RTVSPost2010Prop36
280
     0
102
RTVSPost2010PropOp36
 70
     1
102
RTVSPost2010Prop37
 90
       50
102
RTVSPost2010PropOp37
 70
     1
102
RTVSPost2010Prop38
140
0.0
102
RTVSPost2010PropOp38
 70
     1
102
RTVSPost2010Prop39
140
1.0
102
RTVSPost2010PropOp39
 70
     1
102
RTVSPost2010Prop40
 90
        0
102
RTVSPost2010PropOp40
 70
     1
102
RTVSPost2010Prop41ColorIndex
 90
       18
102
RTVSPost2010Prop41ColorRGB
 90
        0
102
RTVSPost2010PropOp41
 70
     1
102
RTVSPost2010Prop42
 90
       50
102
RTVSPost2010PropOp42
 70
     1
102
RTVSPost2010Prop43
 90
        3
102
RTVSPost2010PropOp43
 70
     1
102
RTVSPost2010Prop44ColorIndex
 90
        5
102
RTVSPost2010Prop44ColorRGB
 90
      255
102
RTVSPost2010PropOp44
 70
     1
102
RTVSPost2010Prop45
280
     0
102
RTVSPost2010PropOp45
 70
     1
102
RTVSPost2010Prop46
 90
       50
102
RTVSPost2010PropOp46
 70
     1
102
RTVSPost2010Prop47
 90
       50
102
RTVSPost2010PropOp47
 70
     1
102
RTVSPost2010Prop48
 90
       50
102
RTVSPost2010PropOp48
 70
     1
102
RTVSPost2010Prop49
280
     0
102
RTVSPost2010PropOp49
 70
     1
102
RTVSPost2010Prop50
 90
       50
102
RTVSPost2010PropOp50
 70
     1
102
RTVSPost2010Prop51ColorIndex
 90
      256
102
RTVSPost2010Prop51ColorRGB
 90
-16777216
102
RTVSPost2010PropOp51
 70
     0
102
RTVSPost2010Prop52
140
1.0
102
RTVSPost2010PropOp52
 70
     0
102
RTVSPost2010Prop53
 90
        2
102
RTVSPost2010PropOp53
 70
     1
102
RTVSPost2010Prop54
  1
strokes_ogs.tif
102
RTVSPost2010PropOp54
 70
     1
102
RTVSPost2010Prop55
280
     0
102
RTVSPost2010PropOp55
 70
     1
102
RTVSPost2010Prop56
140
1.0
102
RTVSPost2010PropOp56
 70
     1
102
RTVSPost2010Prop57
140
1.0
102
RTVSPost2010PropOp57
 70
     1
102
RTVSPropertyOp0
 70
     1
102
RTVSPropertyOp1
 70
     1
102
RTVSPropertyOp2
 70
     1
102
RTVSPropertyOp3
 70
     1
102
RTVSPropertyOp4
 70
     1
102
RTVSPropertyOp5
 70
     1
102
RTVSPropertyOp6
 70
     1
102
RTVSPropertyOp7
 70
     1
102
RTVSPropertyOp8
 70
     1
102
RTVSPropertyOp9
 70
     1
102
RTVSPropertyOp10
 70
     1
102
RTVSPropertyOp11
 70
     1
102
RTVSPropertyOp12
 70
     1
102
RTVSPropertyOp13
 70
     1
102
RTVSPropertyOp14
 70
     1
102
RTVSPropertyOp15
 70
     1
102
RTVSPropertyOp16
 70
     1
102
RTVSPropertyOp17
 70
     1
102
RTVSPropertyOp18
 70
     1
102
RTVSPropertyOp19
 70
     1
102
RTVSPropertyOp20
 70
     1
102
RTVSPropertyOp21
 70
     1
102
RTVSPropertyOp22
 70
     1
102
RTVSPropertyOp23
 70
     1
102
RTVSPropertyOp24
 70
     1
102
RTVSPropertyOp25
 70
     1
102
RTVSPropertyOp26
 70
     1
102
RTVSPropertyOp27
 70
     1
102
RTVSPropertyOp28
 70
     1
102
RTVSPropertyOp29
 70
     1
102
RTVSPropertyOp30
 70
     1
102
RTVSPropertyOp31
 70
     1
102
RTVSPropertyOp32
 70
     1
102
RTVSPropertyOp33
 70
     1
102
RTVSPropertyOp34
 70
     1
102
RTVSPropertyOp35
 70
     1
102
RTVSPropertyOp36
 70
     1
102
RTVSPropertyOp37
 70
     1
102
RTVSPropertyOp38
 70
     1
102
RTVSPropertyOp39
 70
     1
102
RTVSPropertyOp40
 70
     1
102
RTVSPropertyOp41
 70
     1
102
RTVSPropertyOp42
 70
     1
102
RTVSPropertyOp43
 70
     1
102
RTVSPropertyOp44
 70
     1
102
RTVSPropertyOp45
 70
     1
102
RTVSPropertyOp46
 70
     1
102
RTVSPropertyOp47
 70
     1
102
RTVSPropertyOp48
 70
     1
102
RTVSPropertyOp49
 70
     1
102
RTVSPropertyOp50
 70
     1
102
RTVSPropertyOp51
 70
     0
102
RTVSPropertyOp52
 70
     0
102
RTVSPropertyOp53
 70
     1
102
RTVSPropertyOp54
 70
     1
102
RTVSPropertyOp55
 70
     1
102
RTVSPropertyOp56
 70
     1
102
RTVSPropertyOp57
 70
     1
102
RTVSPropertyOp58
 70
     1
102
RTVSPropertyOp59
 70
     1
102
RTVSPropertyOp60
 70
     1
102
RTVSPropertyOp61
 70
     1
102
RTVSPropertyOp62
 70
     1
  0
XRECORD
  5
15867
102
{ACAD_REACTORS
330
15866
102
}
330
15866
100
AcDbXrecord
280
     1
102
RTVSPost2010Prop28
280
     0
102
RTVSPost2010PropOp28
 70
     1
102
RTVSPost2010Prop29
280
     1
102
RTVSPost2010PropOp29
 70
     1
102
RTVSPost2010Prop30
280
     1
102
RTVSPost2010PropOp30
 70
     1
102
RTVSPost2010Prop31
280
     0
102
RTVSPost2010PropOp31
 70
     1
102
RTVSPost2010Prop32
280
     0
102
RTVSPost2010PropOp32
 70
     1
102
RTVSPost2010Prop33
280
     0
102
RTVSPost2010PropOp33
 70
     1
102
RTVSPost2010Prop34
280
     0
102
RTVSPost2010PropOp34
 70
     1
102
RTVSPost2010Prop35
280
     0
102
RTVSPost2010PropOp35
 70
     1
102
RTVSPost2010Prop36
280
     0
102
RTVSPost2010PropOp36
 70
     1
102
RTVSPost2010Prop37
 90
       50
102
RTVSPost2010PropOp37
 70
     1
102
RTVSPost2010Prop38
140
0.0
102
RTVSPost2010PropOp38
 70
     1
102
RTVSPost2010Prop39
140
1.0
102
RTVSPost2010PropOp39
 70
     1
102
RTVSPost2010Prop40
 90
        0
102
RTVSPost2010PropOp40
 70
     1
102
RTVSPost2010Prop41ColorIndex
 90
       18
102
RTVSPost2010Prop41ColorRGB
 90
        0
102
RTVSPost2010PropOp41
 70
     1
102
RTVSPost2010Prop42
 90
       50
102
RTVSPost2010PropOp42
 70
     1
102
RTVSPost2010Prop43
 90
        3
102
RTVSPost2010PropOp43
 70
     1
102
RTVSPost2010Prop44ColorIndex
 90
        5
102
RTVSPost2010Prop44ColorRGB
 90
      255
102
RTVSPost2010PropOp44
 70
     1
102
RTVSPost2010Prop45
280
     0
102
RTVSPost2010PropOp45
 70
     1
102
RTVSPost2010Prop46
 90
       50
102
RTVSPost2010PropOp46
 70
     1
102
RTVSPost2010Prop47
 90
       50
102
RTVSPost2010PropOp47
 70
     1
102
RTVSPost2010Prop48
 90
       50
102
RTVSPost2010PropOp48
 70
     1
102
RTVSPost2010Prop49
280
     0
102
RTVSPost2010PropOp49
 70
     1
102
RTVSPost2010Prop50
 90
       50
102
RTVSPost2010PropOp50
 70
     1
102
RTVSPost2010Prop51ColorIndex
 90
      256
102
RTVSPost2010Prop51ColorRGB
 90
-16777216
102
RTVSPost2010PropOp51
 70
     0
102
RTVSPost2010Prop52
140
1.0
102
RTVSPost2010PropOp52
 70
     0
102
RTVSPost2010Prop53
 90
        2
102
RTVSPost2010PropOp53
 70
     1
102
RTVSPost2010Prop54
  1
strokes_ogs.tif
102
RTVSPost2010PropOp54
 70
     1
102
RTVSPost2010Prop55
280
     0
102
RTVSPost2010PropOp55
 70
     1
102
RTVSPost2010Prop56
140
1.0
102
RTVSPost2010PropOp56
 70
     1
102
RTVSPost2010Prop57
140
1.0
102
RTVSPost2010PropOp57
 70
     1
102
RTVSPropertyOp0
 70
     1
102
RTVSPropertyOp1
 70
     1
102
RTVSPropertyOp2
 70
     1
102
RTVSPropertyOp3
 70
     1
102
RTVSPropertyOp4
 70
     1
102
RTVSPropertyOp5
 70
     1
102
RTVSPropertyOp6
 70
     1
102
RTVSPropertyOp7
 70
     1
102
RTVSPropertyOp8
 70
     1
102
RTVSPropertyOp9
 70
     1
102
RTVSPropertyOp10
 70
     1
102
RTVSPropertyOp11
 70
     1
102
RTVSPropertyOp12
 70
     1
102
RTVSPropertyOp13
 70
     1
102
RTVSPropertyOp14
 70
     1
102
RTVSPropertyOp15
 70
     1
102
RTVSPropertyOp16
 70
     1
102
RTVSPropertyOp17
 70
     1
102
RTVSPropertyOp18
 70
     1
102
RTVSPropertyOp19
 70
     1
102
RTVSPropertyOp20
 70
     1
102
RTVSPropertyOp21
 70
     1
102
RTVSPropertyOp22
 70
     1
102
RTVSPropertyOp23
 70
     1
102
RTVSPropertyOp24
 70
     1
102
RTVSPropertyOp25
 70
     1
102
RTVSPropertyOp26
 70
     1
102
RTVSPropertyOp27
 70
     1
102
RTVSPropertyOp28
 70
     1
102
RTVSPropertyOp29
 70
     1
102
RTVSPropertyOp30
 70
     1
102
RTVSPropertyOp31
 70
     1
102
RTVSPropertyOp32
 70
     1
102
RTVSPropertyOp33
 70
     1
102
RTVSPropertyOp34
 70
     1
102
RTVSPropertyOp35
 70
     1
102
RTVSPropertyOp36
 70
     1
102
RTVSPropertyOp37
 70
     1
102
RTVSPropertyOp38
 70
     1
102
RTVSPropertyOp39
 70
     1
102
RTVSPropertyOp40
 70
     1
102
RTVSPropertyOp41
 70
     1
102
RTVSPropertyOp42
 70
     1
102
RTVSPropertyOp43
 70
     1
102
RTVSPropertyOp44
 70
     1
102
RTVSPropertyOp45
 70
     1
102
RTVSPropertyOp46
 70
     1
102
RTVSPropertyOp47
 70
     1
102
RTVSPropertyOp48
 70
     1
102
RTVSPropertyOp49
 70
     1
102
RTVSPropertyOp50
 70
     1
102
RTVSPropertyOp51
 70
     0
102
RTVSPropertyOp52
 70
     0
102
RTVSPropertyOp53
 70
     1
102
RTVSPropertyOp54
 70
     1
102
RTVSPropertyOp55
 70
     1
102
RTVSPropertyOp56
 70
     1
102
RTVSPropertyOp57
 70
     1
102
RTVSPropertyOp58
 70
     1
102
RTVSPropertyOp59
 70
     1
102
RTVSPropertyOp60
 70
     1
102
RTVSPropertyOp61
 70
     1
102
RTVSPropertyOp62
 70
     1
  0
XRECORD
  5
15883
102
{ACAD_REACTORS
330
15882
102
}
330
15882
100
AcDbXrecord
280
     1
102
RTVSPost2010Prop28
280
     0
102
RTVSPost2010PropOp28
 70
     0
102
RTVSPost2010Prop29
280
     1
102
RTVSPost2010PropOp29
 70
     0
102
RTVSPost2010Prop30
280
     1
102
RTVSPost2010PropOp30
 70
     0
102
RTVSPost2010Prop31
280
     0
102
RTVSPost2010PropOp31
 70
     0
102
RTVSPost2010Prop32
280
     0
102
RTVSPost2010PropOp32
 70
     0
102
RTVSPost2010Prop33
280
     0
102
RTVSPost2010PropOp33
 70
     0
102
RTVSPost2010Prop34
280
     0
102
RTVSPost2010PropOp34
 70
     0
102
RTVSPost2010Prop35
280
     0
102
RTVSPost2010PropOp35
 70
     0
102
RTVSPost2010Prop36
280
     0
102
RTVSPost2010PropOp36
 70
     0
102
RTVSPost2010Prop37
 90
       50
102
RTVSPost2010PropOp37
 70
     0
102
RTVSPost2010Prop38
140
0.0
102
RTVSPost2010PropOp38
 70
     0
102
RTVSPost2010Prop39
140
1.0
102
RTVSPost2010PropOp39
 70
     0
102
RTVSPost2010Prop40
 90
        0
102
RTVSPost2010PropOp40
 70
     0
102
RTVSPost2010Prop41ColorIndex
 90
       18
102
RTVSPost2010Prop41ColorRGB
 90
        0
102
RTVSPost2010PropOp41
 70
     0
102
RTVSPost2010Prop42
 90
       50
102
RTVSPost2010PropOp42
 70
     0
102
RTVSPost2010Prop43
 90
        3
102
RTVSPost2010PropOp43
 70
     0
102
RTVSPost2010Prop44ColorIndex
 90
        5
102
RTVSPost2010Prop44ColorRGB
 90
      255
102
RTVSPost2010PropOp44
 70
     0
102
RTVSPost2010Prop45
280
     0
102
RTVSPost2010PropOp45
 70
     0
102
RTVSPost2010Prop46
 90
       50
102
RTVSPost2010PropOp46
 70
     0
102
RTVSPost2010Prop47
 90
       50
102
RTVSPost2010PropOp47
 70
     0
102
RTVSPost2010Prop48
 90
       50
102
RTVSPost2010PropOp48
 70
     0
102
RTVSPost2010Prop49
280
     0
102
RTVSPost2010PropOp49
 70
     0
102
RTVSPost2010Prop50
 90
       50
102
RTVSPost2010PropOp50
 70
     0
102
RTVSPost2010Prop51ColorIndex
 90
      256
102
RTVSPost2010Prop51ColorRGB
 90
-16777216
102
RTVSPost2010PropOp51
 70
     0
102
RTVSPost2010Prop52
140
1.0
102
RTVSPost2010PropOp52
 70
     0
102
RTVSPost2010Prop53
 90
        2
102
RTVSPost2010PropOp53
 70
     0
102
RTVSPost2010Prop54
  1
strokes_ogs.tif
102
RTVSPost2010PropOp54
 70
     0
102
RTVSPost2010Prop55
280
     0
102
RTVSPost2010PropOp55
 70
     0
102
RTVSPost2010Prop56
140
1.0
102
RTVSPost2010PropOp56
 70
     0
102
RTVSPost2010Prop57
140
1.0
102
RTVSPost2010PropOp57
 70
     0
102
RTVSPropertyOp0
 70
     0
102
RTVSPropertyOp1
 70
     0
102
RTVSPropertyOp2
 70
     0
102
RTVSPropertyOp3
 70
     0
102
RTVSPropertyOp4
 70
     0
102
RTVSPropertyOp5
 70
     0
102
RTVSPropertyOp6
 70
     0
102
RTVSPropertyOp7
 70
     0
102
RTVSPropertyOp8
 70
     0
102
RTVSPropertyOp9
 70
     0
102
RTVSPropertyOp10
 70
     0
102
RTVSPropertyOp11
 70
     0
102
RTVSPropertyOp12
 70
     0
102
RTVSPropertyOp13
 70
     0
102
RTVSPropertyOp14
 70
     2
102
RTVSPropertyOp15
 70
     0
102
RTVSPropertyOp16
 70
     0
102
RTVSPropertyOp17
 70
     0
102
RTVSPropertyOp18
 70
     0
102
RTVSPropertyOp19
 70
     0
102
RTVSPropertyOp20
 70
     0
102
RTVSPropertyOp21
 70
     0
102
RTVSPropertyOp22
 70
     0
102
RTVSPropertyOp23
 70
     0
102
RTVSPropertyOp24
 70
     0
102
RTVSPropertyOp25
 70
     0
102
RTVSPropertyOp26
 70
     0
102
RTVSPropertyOp27
 70
     0
102
RTVSPropertyOp28
 70
     0
102
RTVSPropertyOp29
 70
     0
102
RTVSPropertyOp30
 70
     0
102
RTVSPropertyOp31
 70
     0
102
RTVSPropertyOp32
 70
     0
102
RTVSPropertyOp33
 70
     0
102
RTVSPropertyOp34
 70
     0
102
RTVSPropertyOp35
 70
     0
102
RTVSPropertyOp36
 70
     0
102
RTVSPropertyOp37
 70
     0
102
RTVSPropertyOp38
 70
     0
102
RTVSPropertyOp39
 70
     0
102
RTVSPropertyOp40
 70
     0
102
RTVSPropertyOp41
 70
     0
102
RTVSPropertyOp42
 70
     0
102
RTVSPropertyOp43
 70
     0
102
RTVSPropertyOp44
 70
     0
102
RTVSPropertyOp45
 70
     0
102
RTVSPropertyOp46
 70
     0
102
RTVSPropertyOp47
 70
     0
102
RTVSPropertyOp48
 70
     0
102
RTVSPropertyOp49
 70
     0
102
RTVSPropertyOp50
 70
     0
102
RTVSPropertyOp51
 70
     0
102
RTVSPropertyOp52
 70
     0
102
RTVSPropertyOp53
 70
     0
102
RTVSPropertyOp54
 70
     0
102
RTVSPropertyOp55
 70
     0
102
RTVSPropertyOp56
 70
     0
102
RTVSPropertyOp57
 70
     0
102
RTVSPropertyOp58
 70
     0
102
RTVSPropertyOp59
 70
     0
102
RTVSPropertyOp60
 70
     0
102
RTVSPropertyOp61
 70
     0
102
RTVSPropertyOp62
 70
     0
  0
XRECORD
  5
15873
102
{ACAD_REACTORS
330
15872
102
}
330
15872
100
AcDbXrecord
280
     1
102
RTVSPost2010Prop28
280
     0
102
RTVSPost2010PropOp28
 70
     1
102
RTVSPost2010Prop29
280
     1
102
RTVSPost2010PropOp29
 70
     1
102
RTVSPost2010Prop30
280
     1
102
RTVSPost2010PropOp30
 70
     1
102
RTVSPost2010Prop31
280
     0
102
RTVSPost2010PropOp31
 70
     1
102
RTVSPost2010Prop32
280
     0
102
RTVSPost2010PropOp32
 70
     1
102
RTVSPost2010Prop33
280
     0
102
RTVSPost2010PropOp33
 70
     1
102
RTVSPost2010Prop34
280
     0
102
RTVSPost2010PropOp34
 70
     1
102
RTVSPost2010Prop35
280
     0
102
RTVSPost2010PropOp35
 70
     1
102
RTVSPost2010Prop36
280
     0
102
RTVSPost2010PropOp36
 70
     1
102
RTVSPost2010Prop37
 90
       50
102
RTVSPost2010PropOp37
 70
     1
102
RTVSPost2010Prop38
140
0.0
102
RTVSPost2010PropOp38
 70
     1
102
RTVSPost2010Prop39
140
1.0
102
RTVSPost2010PropOp39
 70
     1
102
RTVSPost2010Prop40
 90
        0
102
RTVSPost2010PropOp40
 70
     1
102
RTVSPost2010Prop41ColorIndex
 90
       18
102
RTVSPost2010Prop41ColorRGB
 90
        0
102
RTVSPost2010PropOp41
 70
     1
102
RTVSPost2010Prop42
 90
       50
102
RTVSPost2010PropOp42
 70
     1
102
RTVSPost2010Prop43
 90
        3
102
RTVSPost2010PropOp43
 70
     1
102
RTVSPost2010Prop44ColorIndex
 90
        5
102
RTVSPost2010Prop44ColorRGB
 90
      255
102
RTVSPost2010PropOp44
 70
     1
102
RTVSPost2010Prop45
280
     0
102
RTVSPost2010PropOp45
 70
     1
102
RTVSPost2010Prop46
 90
       50
102
RTVSPost2010PropOp46
 70
     1
102
RTVSPost2010Prop47
 90
       50
102
RTVSPost2010PropOp47
 70
     1
102
RTVSPost2010Prop48
 90
       50
102
RTVSPost2010PropOp48
 70
     1
102
RTVSPost2010Prop49
280
     0
102
RTVSPost2010PropOp49
 70
     1
102
RTVSPost2010Prop50
 90
       50
102
RTVSPost2010PropOp50
 70
     1
102
RTVSPost2010Prop51ColorIndex
 90
      256
102
RTVSPost2010Prop51ColorRGB
 90
-16777216
102
RTVSPost2010PropOp51
 70
     0
102
RTVSPost2010Prop52
140
1.0
102
RTVSPost2010PropOp52
 70
     0
102
RTVSPost2010Prop53
 90
        2
102
RTVSPost2010PropOp53
 70
     1
102
RTVSPost2010Prop54
  1
strokes_ogs.tif
102
RTVSPost2010PropOp54
 70
     1
102
RTVSPost2010Prop55
280
     0
102
RTVSPost2010PropOp55
 70
     1
102
RTVSPost2010Prop56
140
1.0
102
RTVSPost2010PropOp56
 70
     1
102
RTVSPost2010Prop57
140
1.0
102
RTVSPost2010PropOp57
 70
     1
102
RTVSPropertyOp0
 70
     1
102
RTVSPropertyOp1
 70
     1
102
RTVSPropertyOp2
 70
     1
102
RTVSPropertyOp3
 70
     1
102
RTVSPropertyOp4
 70
     1
102
RTVSPropertyOp5
 70
     1
102
RTVSPropertyOp6
 70
     1
102
RTVSPropertyOp7
 70
     1
102
RTVSPropertyOp8
 70
     1
102
RTVSPropertyOp9
 70
     1
102
RTVSPropertyOp10
 70
     1
102
RTVSPropertyOp11
 70
     1
102
RTVSPropertyOp12
 70
     1
102
RTVSPropertyOp13
 70
     1
102
RTVSPropertyOp14
 70
     1
102
RTVSPropertyOp15
 70
     1
102
RTVSPropertyOp16
 70
     1
102
RTVSPropertyOp17
 70
     1
102
RTVSPropertyOp18
 70
     1
102
RTVSPropertyOp19
 70
     1
102
RTVSPropertyOp20
 70
     1
102
RTVSPropertyOp21
 70
     1
102
RTVSPropertyOp22
 70
     1
102
RTVSPropertyOp23
 70
     1
102
RTVSPropertyOp24
 70
     1
102
RTVSPropertyOp25
 70
     1
102
RTVSPropertyOp26
 70
     1
102
RTVSPropertyOp27
 70
     1
102
RTVSPropertyOp28
 70
     1
102
RTVSPropertyOp29
 70
     1
102
RTVSPropertyOp30
 70
     1
102
RTVSPropertyOp31
 70
     1
102
RTVSPropertyOp32
 70
     1
102
RTVSPropertyOp33
 70
     1
102
RTVSPropertyOp34
 70
     1
102
RTVSPropertyOp35
 70
     1
102
RTVSPropertyOp36
 70
     1
102
RTVSPropertyOp37
 70
     1
102
RTVSPropertyOp38
 70
     1
102
RTVSPropertyOp39
 70
     1
102
RTVSPropertyOp40
 70
     1
102
RTVSPropertyOp41
 70
     1
102
RTVSPropertyOp42
 70
     1
102
RTVSPropertyOp43
 70
     1
102
RTVSPropertyOp44
 70
     1
102
RTVSPropertyOp45
 70
     1
102
RTVSPropertyOp46
 70
     1
102
RTVSPropertyOp47
 70
     1
102
RTVSPropertyOp48
 70
     1
102
RTVSPropertyOp49
 70
     1
102
RTVSPropertyOp50
 70
     1
102
RTVSPropertyOp51
 70
     0
102
RTVSPropertyOp52
 70
     0
102
RTVSPropertyOp53
 70
     1
102
RTVSPropertyOp54
 70
     1
102
RTVSPropertyOp55
 70
     1
102
RTVSPropertyOp56
 70
     1
102
RTVSPropertyOp57
 70
     1
102
RTVSPropertyOp58
 70
     1
102
RTVSPropertyOp59
 70
     1
102
RTVSPropertyOp60
 70
     1
102
RTVSPropertyOp61
 70
     1
102
RTVSPropertyOp62
 70
     1
  0
XRECORD
  5
15885
102
{ACAD_REACTORS
330
15884
102
}
330
15884
100
AcDbXrecord
280
     1
102
RTVSPost2010Prop28
280
     0
102
RTVSPost2010PropOp28
 70
     0
102
RTVSPost2010Prop29
280
     1
102
RTVSPost2010PropOp29
 70
     0
102
RTVSPost2010Prop30
280
     1
102
RTVSPost2010PropOp30
 70
     0
102
RTVSPost2010Prop31
280
     0
102
RTVSPost2010PropOp31
 70
     0
102
RTVSPost2010Prop32
280
     0
102
RTVSPost2010PropOp32
 70
     0
102
RTVSPost2010Prop33
280
     0
102
RTVSPost2010PropOp33
 70
     0
102
RTVSPost2010Prop34
280
     0
102
RTVSPost2010PropOp34
 70
     0
102
RTVSPost2010Prop35
280
     0
102
RTVSPost2010PropOp35
 70
     0
102
RTVSPost2010Prop36
280
     0
102
RTVSPost2010PropOp36
 70
     0
102
RTVSPost2010Prop37
 90
       50
102
RTVSPost2010PropOp37
 70
     0
102
RTVSPost2010Prop38
140
0.0
102
RTVSPost2010PropOp38
 70
     0
102
RTVSPost2010Prop39
140
1.0
102
RTVSPost2010PropOp39
 70
     0
102
RTVSPost2010Prop40
 90
        0
102
RTVSPost2010PropOp40
 70
     0
102
RTVSPost2010Prop41ColorIndex
 90
       18
102
RTVSPost2010Prop41ColorRGB
 90
        0
102
RTVSPost2010PropOp41
 70
     0
102
RTVSPost2010Prop42
 90
       50
102
RTVSPost2010PropOp42
 70
     0
102
RTVSPost2010Prop43
 90
        3
102
RTVSPost2010PropOp43
 70
     0
102
RTVSPost2010Prop44ColorIndex
 90
        5
102
RTVSPost2010Prop44ColorRGB
 90
      255
102
RTVSPost2010PropOp44
 70
     0
102
RTVSPost2010Prop45
280
     0
102
RTVSPost2010PropOp45
 70
     0
102
RTVSPost2010Prop46
 90
       50
102
RTVSPost2010PropOp46
 70
     0
102
RTVSPost2010Prop47
 90
       50
102
RTVSPost2010PropOp47
 70
     0
102
RTVSPost2010Prop48
 90
       50
102
RTVSPost2010PropOp48
 70
     0
102
RTVSPost2010Prop49
280
     0
102
RTVSPost2010PropOp49
 70
     0
102
RTVSPost2010Prop50
 90
       50
102
RTVSPost2010PropOp50
 70
     0
102
RTVSPost2010Prop51ColorIndex
 90
      256
102
RTVSPost2010Prop51ColorRGB
 90
-16777216
102
RTVSPost2010PropOp51
 70
     0
102
RTVSPost2010Prop52
140
1.0
102
RTVSPost2010PropOp52
 70
     0
102
RTVSPost2010Prop53
 90
        2
102
RTVSPost2010PropOp53
 70
     0
102
RTVSPost2010Prop54
  1
strokes_ogs.tif
102
RTVSPost2010PropOp54
 70
     0
102
RTVSPost2010Prop55
280
     0
102
RTVSPost2010PropOp55
 70
     0
102
RTVSPost2010Prop56
140
1.0
102
RTVSPost2010PropOp56
 70
     0
102
RTVSPost2010Prop57
140
1.0
102
RTVSPost2010PropOp57
 70
     0
102
RTVSPropertyOp0
 70
     0
102
RTVSPropertyOp1
 70
     0
102
RTVSPropertyOp2
 70
     0
102
RTVSPropertyOp3
 70
     0
102
RTVSPropertyOp4
 70
     0
102
RTVSPropertyOp5
 70
     0
102
RTVSPropertyOp6
 70
     0
102
RTVSPropertyOp7
 70
     0
102
RTVSPropertyOp8
 70
     0
102
RTVSPropertyOp9
 70
     0
102
RTVSPropertyOp10
 70
     0
102
RTVSPropertyOp11
 70
     0
102
RTVSPropertyOp12
 70
     0
102
RTVSPropertyOp13
 70
     0
102
RTVSPropertyOp14
 70
     2
102
RTVSPropertyOp15
 70
     0
102
RTVSPropertyOp16
 70
     0
102
RTVSPropertyOp17
 70
     0
102
RTVSPropertyOp18
 70
     0
102
RTVSPropertyOp19
 70
     0
102
RTVSPropertyOp20
 70
     0
102
RTVSPropertyOp21
 70
     0
102
RTVSPropertyOp22
 70
     0
102
RTVSPropertyOp23
 70
     0
102
RTVSPropertyOp24
 70
     0
102
RTVSPropertyOp25
 70
     0
102
RTVSPropertyOp26
 70
     0
102
RTVSPropertyOp27
 70
     0
102
RTVSPropertyOp28
 70
     0
102
RTVSPropertyOp29
 70
     0
102
RTVSPropertyOp30
 70
     0
102
RTVSPropertyOp31
 70
     0
102
RTVSPropertyOp32
 70
     0
102
RTVSPropertyOp33
 70
     0
102
RTVSPropertyOp34
 70
     0
102
RTVSPropertyOp35
 70
     0
102
RTVSPropertyOp36
 70
     0
102
RTVSPropertyOp37
 70
     0
102
RTVSPropertyOp38
 70
     0
102
RTVSPropertyOp39
 70
     0
102
RTVSPropertyOp40
 70
     0
102
RTVSPropertyOp41
 70
     0
102
RTVSPropertyOp42
 70
     0
102
RTVSPropertyOp43
 70
     0
102
RTVSPropertyOp44
 70
     0
102
RTVSPropertyOp45
 70
     0
102
RTVSPropertyOp46
 70
     0
102
RTVSPropertyOp47
 70
     0
102
RTVSPropertyOp48
 70
     0
102
RTVSPropertyOp49
 70
     0
102
RTVSPropertyOp50
 70
     0
102
RTVSPropertyOp51
 70
     0
102
RTVSPropertyOp52
 70
     0
102
RTVSPropertyOp53
 70
     0
102
RTVSPropertyOp54
 70
     0
102
RTVSPropertyOp55
 70
     0
102
RTVSPropertyOp56
 70
     0
102
RTVSPropertyOp57
 70
     0
102
RTVSPropertyOp58
 70
     0
102
RTVSPropertyOp59
 70
     0
102
RTVSPropertyOp60
 70
     0
102
RTVSPropertyOp61
 70
     0
102
RTVSPropertyOp62
 70
     0
  0
XRECORD
  5
1586B
102
{ACAD_REACTORS
330
1586A
102
}
330
1586A
100
AcDbXrecord
280
     1
102
RTVSPost2010Prop28
280
     0
102
RTVSPost2010PropOp28
 70
     1
102
RTVSPost2010Prop29
280
     1
102
RTVSPost2010PropOp29
 70
     1
102
RTVSPost2010Prop30
280
     1
102
RTVSPost2010PropOp30
 70
     1
102
RTVSPost2010Prop31
280
     0
102
RTVSPost2010PropOp31
 70
     1
102
RTVSPost2010Prop32
280
     0
102
RTVSPost2010PropOp32
 70
     1
102
RTVSPost2010Prop33
280
     0
102
RTVSPost2010PropOp33
 70
     1
102
RTVSPost2010Prop34
280
     0
102
RTVSPost2010PropOp34
 70
     1
102
RTVSPost2010Prop35
280
     0
102
RTVSPost2010PropOp35
 70
     1
102
RTVSPost2010Prop36
280
     0
102
RTVSPost2010PropOp36
 70
     1
102
RTVSPost2010Prop37
 90
       50
102
RTVSPost2010PropOp37
 70
     1
102
RTVSPost2010Prop38
140
0.0
102
RTVSPost2010PropOp38
 70
     1
102
RTVSPost2010Prop39
140
1.0
102
RTVSPost2010PropOp39
 70
     1
102
RTVSPost2010Prop40
 90
        0
102
RTVSPost2010PropOp40
 70
     1
102
RTVSPost2010Prop41ColorIndex
 90
       18
102
RTVSPost2010Prop41ColorRGB
 90
        0
102
RTVSPost2010PropOp41
 70
     1
102
RTVSPost2010Prop42
 90
       50
102
RTVSPost2010PropOp42
 70
     1
102
RTVSPost2010Prop43
 90
        3
102
RTVSPost2010PropOp43
 70
     1
102
RTVSPost2010Prop44ColorIndex
 90
        5
102
RTVSPost2010Prop44ColorRGB
 90
      255
102
RTVSPost2010PropOp44
 70
     1
102
RTVSPost2010Prop45
280
     0
102
RTVSPost2010PropOp45
 70
     1
102
RTVSPost2010Prop46
 90
       50
102
RTVSPost2010PropOp46
 70
     1
102
RTVSPost2010Prop47
 90
       50
102
RTVSPost2010PropOp47
 70
     1
102
RTVSPost2010Prop48
 90
       50
102
RTVSPost2010PropOp48
 70
     1
102
RTVSPost2010Prop49
280
     0
102
RTVSPost2010PropOp49
 70
     1
102
RTVSPost2010Prop50
 90
       50
102
RTVSPost2010PropOp50
 70
     1
102
RTVSPost2010Prop51ColorIndex
 90
      256
102
RTVSPost2010Prop51ColorRGB
 90
-16777216
102
RTVSPost2010PropOp51
 70
     0
102
RTVSPost2010Prop52
140
1.0
102
RTVSPost2010PropOp52
 70
     0
102
RTVSPost2010Prop53
 90
        2
102
RTVSPost2010PropOp53
 70
     1
102
RTVSPost2010Prop54
  1
strokes_ogs.tif
102
RTVSPost2010PropOp54
 70
     1
102
RTVSPost2010Prop55
280
     0
102
RTVSPost2010PropOp55
 70
     1
102
RTVSPost2010Prop56
140
1.0
102
RTVSPost2010PropOp56
 70
     1
102
RTVSPost2010Prop57
140
1.0
102
RTVSPost2010PropOp57
 70
     1
102
RTVSPropertyOp0
 70
     1
102
RTVSPropertyOp1
 70
     1
102
RTVSPropertyOp2
 70
     1
102
RTVSPropertyOp3
 70
     1
102
RTVSPropertyOp4
 70
     1
102
RTVSPropertyOp5
 70
     1
102
RTVSPropertyOp6
 70
     1
102
RTVSPropertyOp7
 70
     1
102
RTVSPropertyOp8
 70
     1
102
RTVSPropertyOp9
 70
     1
102
RTVSPropertyOp10
 70
     1
102
RTVSPropertyOp11
 70
     1
102
RTVSPropertyOp12
 70
     1
102
RTVSPropertyOp13
 70
     1
102
RTVSPropertyOp14
 70
     1
102
RTVSPropertyOp15
 70
     1
102
RTVSPropertyOp16
 70
     1
102
RTVSPropertyOp17
 70
     1
102
RTVSPropertyOp18
 70
     1
102
RTVSPropertyOp19
 70
     1
102
RTVSPropertyOp20
 70
     1
102
RTVSPropertyOp21
 70
     1
102
RTVSPropertyOp22
 70
     1
102
RTVSPropertyOp23
 70
     1
102
RTVSPropertyOp24
 70
     1
102
RTVSPropertyOp25
 70
     1
102
RTVSPropertyOp26
 70
     1
102
RTVSPropertyOp27
 70
     1
102
RTVSPropertyOp28
 70
     1
102
RTVSPropertyOp29
 70
     1
102
RTVSPropertyOp30
 70
     1
102
RTVSPropertyOp31
 70
     1
102
RTVSPropertyOp32
 70
     1
102
RTVSPropertyOp33
 70
     1
102
RTVSPropertyOp34
 70
     1
102
RTVSPropertyOp35
 70
     1
102
RTVSPropertyOp36
 70
     1
102
RTVSPropertyOp37
 70
     1
102
RTVSPropertyOp38
 70
     1
102
RTVSPropertyOp39
 70
     1
102
RTVSPropertyOp40
 70
     1
102
RTVSPropertyOp41
 70
     1
102
RTVSPropertyOp42
 70
     1
102
RTVSPropertyOp43
 70
     1
102
RTVSPropertyOp44
 70
     1
102
RTVSPropertyOp45
 70
     1
102
RTVSPropertyOp46
 70
     1
102
RTVSPropertyOp47
 70
     1
102
RTVSPropertyOp48
 70
     1
102
RTVSPropertyOp49
 70
     1
102
RTVSPropertyOp50
 70
     1
102
RTVSPropertyOp51
 70
     0
102
RTVSPropertyOp52
 70
     0
102
RTVSPropertyOp53
 70
     1
102
RTVSPropertyOp54
 70
     1
102
RTVSPropertyOp55
 70
     1
102
RTVSPropertyOp56
 70
     1
102
RTVSPropertyOp57
 70
     1
102
RTVSPropertyOp58
 70
     1
102
RTVSPropertyOp59
 70
     1
102
RTVSPropertyOp60
 70
     1
102
RTVSPropertyOp61
 70
     1
102
RTVSPropertyOp62
 70
     1
  0
XRECORD
  5
15881
102
{ACAD_REACTORS
330
15880
102
}
330
15880
100
AcDbXrecord
280
     1
102
RTVSPost2010Prop28
280
     0
102
RTVSPost2010PropOp28
 70
     1
102
RTVSPost2010Prop29
280
     1
102
RTVSPost2010PropOp29
 70
     1
102
RTVSPost2010Prop30
280
     1
102
RTVSPost2010PropOp30
 70
     1
102
RTVSPost2010Prop31
280
     0
102
RTVSPost2010PropOp31
 70
     1
102
RTVSPost2010Prop32
280
     0
102
RTVSPost2010PropOp32
 70
     1
102
RTVSPost2010Prop33
280
     0
102
RTVSPost2010PropOp33
 70
     1
102
RTVSPost2010Prop34
280
     0
102
RTVSPost2010PropOp34
 70
     1
102
RTVSPost2010Prop35
280
     0
102
RTVSPost2010PropOp35
 70
     1
102
RTVSPost2010Prop36
280
     0
102
RTVSPost2010PropOp36
 70
     1
102
RTVSPost2010Prop37
 90
       50
102
RTVSPost2010PropOp37
 70
     1
102
RTVSPost2010Prop38
140
0.0
102
RTVSPost2010PropOp38
 70
     1
102
RTVSPost2010Prop39
140
1.0
102
RTVSPost2010PropOp39
 70
     1
102
RTVSPost2010Prop40
 90
        0
102
RTVSPost2010PropOp40
 70
     1
102
RTVSPost2010Prop41ColorIndex
 90
       18
102
RTVSPost2010Prop41ColorRGB
 90
        0
102
RTVSPost2010PropOp41
 70
     1
102
RTVSPost2010Prop42
 90
       50
102
RTVSPost2010PropOp42
 70
     1
102
RTVSPost2010Prop43
 90
        3
102
RTVSPost2010PropOp43
 70
     1
102
RTVSPost2010Prop44ColorIndex
 90
        5
102
RTVSPost2010Prop44ColorRGB
 90
      255
102
RTVSPost2010PropOp44
 70
     1
102
RTVSPost2010Prop45
280
     0
102
RTVSPost2010PropOp45
 70
     1
102
RTVSPost2010Prop46
 90
       50
102
RTVSPost2010PropOp46
 70
     1
102
RTVSPost2010Prop47
 90
       50
102
RTVSPost2010PropOp47
 70
     1
102
RTVSPost2010Prop48
 90
       50
102
RTVSPost2010PropOp48
 70
     1
102
RTVSPost2010Prop49
280
     0
102
RTVSPost2010PropOp49
 70
     1
102
RTVSPost2010Prop50
 90
       50
102
RTVSPost2010PropOp50
 70
     1
102
RTVSPost2010Prop51ColorIndex
 90
      256
102
RTVSPost2010Prop51ColorRGB
 90
-16777216
102
RTVSPost2010PropOp51
 70
     0
102
RTVSPost2010Prop52
140
1.0
102
RTVSPost2010PropOp52
 70
     0
102
RTVSPost2010Prop53
 90
        2
102
RTVSPost2010PropOp53
 70
     1
102
RTVSPost2010Prop54
  1
strokes_ogs.tif
102
RTVSPost2010PropOp54
 70
     1
102
RTVSPost2010Prop55
280
     0
102
RTVSPost2010PropOp55
 70
     1
102
RTVSPost2010Prop56
140
1.0
102
RTVSPost2010PropOp56
 70
     1
102
RTVSPost2010Prop57
140
1.0
102
RTVSPost2010PropOp57
 70
     1
102
RTVSPropertyOp0
 70
     1
102
RTVSPropertyOp1
 70
     1
102
RTVSPropertyOp2
 70
     1
102
RTVSPropertyOp3
 70
     1
102
RTVSPropertyOp4
 70
     1
102
RTVSPropertyOp5
 70
     1
102
RTVSPropertyOp6
 70
     1
102
RTVSPropertyOp7
 70
     1
102
RTVSPropertyOp8
 70
     1
102
RTVSPropertyOp9
 70
     1
102
RTVSPropertyOp10
 70
     1
102
RTVSPropertyOp11
 70
     1
102
RTVSPropertyOp12
 70
     1
102
RTVSPropertyOp13
 70
     1
102
RTVSPropertyOp14
 70
     1
102
RTVSPropertyOp15
 70
     1
102
RTVSPropertyOp16
 70
     1
102
RTVSPropertyOp17
 70
     1
102
RTVSPropertyOp18
 70
     1
102
RTVSPropertyOp19
 70
     1
102
RTVSPropertyOp20
 70
     1
102
RTVSPropertyOp21
 70
     1
102
RTVSPropertyOp22
 70
     1
102
RTVSPropertyOp23
 70
     1
102
RTVSPropertyOp24
 70
     1
102
RTVSPropertyOp25
 70
     1
102
RTVSPropertyOp26
 70
     1
102
RTVSPropertyOp27
 70
     1
102
RTVSPropertyOp28
 70
     1
102
RTVSPropertyOp29
 70
     1
102
RTVSPropertyOp30
 70
     1
102
RTVSPropertyOp31
 70
     1
102
RTVSPropertyOp32
 70
     1
102
RTVSPropertyOp33
 70
     1
102
RTVSPropertyOp34
 70
     1
102
RTVSPropertyOp35
 70
     1
102
RTVSPropertyOp36
 70
     1
102
RTVSPropertyOp37
 70
     1
102
RTVSPropertyOp38
 70
     1
102
RTVSPropertyOp39
 70
     1
102
RTVSPropertyOp40
 70
     1
102
RTVSPropertyOp41
 70
     1
102
RTVSPropertyOp42
 70
     1
102
RTVSPropertyOp43
 70
     1
102
RTVSPropertyOp44
 70
     1
102
RTVSPropertyOp45
 70
     1
102
RTVSPropertyOp46
 70
     1
102
RTVSPropertyOp47
 70
     1
102
RTVSPropertyOp48
 70
     1
102
RTVSPropertyOp49
 70
     1
102
RTVSPropertyOp50
 70
     1
102
RTVSPropertyOp51
 70
     0
102
RTVSPropertyOp52
 70
     0
102
RTVSPropertyOp53
 70
     1
102
RTVSPropertyOp54
 70
     1
102
RTVSPropertyOp55
 70
     1
102
RTVSPropertyOp56
 70
     1
102
RTVSPropertyOp57
 70
     1
102
RTVSPropertyOp58
 70
     1
102
RTVSPropertyOp59
 70
     1
102
RTVSPropertyOp60
 70
     1
102
RTVSPropertyOp61
 70
     1
102
RTVSPropertyOp62
 70
     1
  0
XRECORD
  5
1587F
102
{ACAD_REACTORS
330
1587E
102
}
330
1587E
100
AcDbXrecord
280
     1
102
RTVSPost2010Prop28
280
     0
102
RTVSPost2010PropOp28
 70
     1
102
RTVSPost2010Prop29
280
     1
102
RTVSPost2010PropOp29
 70
     1
102
RTVSPost2010Prop30
280
     1
102
RTVSPost2010PropOp30
 70
     1
102
RTVSPost2010Prop31
280
     0
102
RTVSPost2010PropOp31
 70
     1
102
RTVSPost2010Prop32
280
     0
102
RTVSPost2010PropOp32
 70
     1
102
RTVSPost2010Prop33
280
     0
102
RTVSPost2010PropOp33
 70
     1
102
RTVSPost2010Prop34
280
     0
102
RTVSPost2010PropOp34
 70
     1
102
RTVSPost2010Prop35
280
     0
102
RTVSPost2010PropOp35
 70
     1
102
RTVSPost2010Prop36
280
     0
102
RTVSPost2010PropOp36
 70
     1
102
RTVSPost2010Prop37
 90
       50
102
RTVSPost2010PropOp37
 70
     1
102
RTVSPost2010Prop38
140
0.0
102
RTVSPost2010PropOp38
 70
     1
102
RTVSPost2010Prop39
140
1.0
102
RTVSPost2010PropOp39
 70
     1
102
RTVSPost2010Prop40
 90
        0
102
RTVSPost2010PropOp40
 70
     1
102
RTVSPost2010Prop41ColorIndex
 90
       18
102
RTVSPost2010Prop41ColorRGB
 90
        0
102
RTVSPost2010PropOp41
 70
     1
102
RTVSPost2010Prop42
 90
       50
102
RTVSPost2010PropOp42
 70
     1
102
RTVSPost2010Prop43
 90
        3
102
RTVSPost2010PropOp43
 70
     1
102
RTVSPost2010Prop44ColorIndex
 90
        5
102
RTVSPost2010Prop44ColorRGB
 90
      255
102
RTVSPost2010PropOp44
 70
     1
102
RTVSPost2010Prop45
280
     0
102
RTVSPost2010PropOp45
 70
     1
102
RTVSPost2010Prop46
 90
       50
102
RTVSPost2010PropOp46
 70
     1
102
RTVSPost2010Prop47
 90
       50
102
RTVSPost2010PropOp47
 70
     1
102
RTVSPost2010Prop48
 90
       50
102
RTVSPost2010PropOp48
 70
     1
102
RTVSPost2010Prop49
280
     0
102
RTVSPost2010PropOp49
 70
     1
102
RTVSPost2010Prop50
 90
       50
102
RTVSPost2010PropOp50
 70
     1
102
RTVSPost2010Prop51ColorIndex
 90
      256
102
RTVSPost2010Prop51ColorRGB
 90
-16777216
102
RTVSPost2010PropOp51
 70
     0
102
RTVSPost2010Prop52
140
1.0
102
RTVSPost2010PropOp52
 70
     0
102
RTVSPost2010Prop53
 90
        2
102
RTVSPost2010PropOp53
 70
     1
102
RTVSPost2010Prop54
  1
strokes_ogs.tif
102
RTVSPost2010PropOp54
 70
     1
102
RTVSPost2010Prop55
280
     0
102
RTVSPost2010PropOp55
 70
     1
102
RTVSPost2010Prop56
140
1.0
102
RTVSPost2010PropOp56
 70
     1
102
RTVSPost2010Prop57
140
1.0
102
RTVSPost2010PropOp57
 70
     1
102
RTVSPropertyOp0
 70
     1
102
RTVSPropertyOp1
 70
     1
102
RTVSPropertyOp2
 70
     1
102
RTVSPropertyOp3
 70
     1
102
RTVSPropertyOp4
 70
     1
102
RTVSPropertyOp5
 70
     1
102
RTVSPropertyOp6
 70
     1
102
RTVSPropertyOp7
 70
     1
102
RTVSPropertyOp8
 70
     1
102
RTVSPropertyOp9
 70
     1
102
RTVSPropertyOp10
 70
     1
102
RTVSPropertyOp11
 70
     1
102
RTVSPropertyOp12
 70
     1
102
RTVSPropertyOp13
 70
     1
102
RTVSPropertyOp14
 70
     1
102
RTVSPropertyOp15
 70
     1
102
RTVSPropertyOp16
 70
     1
102
RTVSPropertyOp17
 70
     1
102
RTVSPropertyOp18
 70
     1
102
RTVSPropertyOp19
 70
     1
102
RTVSPropertyOp20
 70
     1
102
RTVSPropertyOp21
 70
     1
102
RTVSPropertyOp22
 70
     1
102
RTVSPropertyOp23
 70
     1
102
RTVSPropertyOp24
 70
     1
102
RTVSPropertyOp25
 70
     1
102
RTVSPropertyOp26
 70
     1
102
RTVSPropertyOp27
 70
     1
102
RTVSPropertyOp28
 70
     1
102
RTVSPropertyOp29
 70
     1
102
RTVSPropertyOp30
 70
     1
102
RTVSPropertyOp31
 70
     1
102
RTVSPropertyOp32
 70
     1
102
RTVSPropertyOp33
 70
     1
102
RTVSPropertyOp34
 70
     1
102
RTVSPropertyOp35
 70
     1
102
RTVSPropertyOp36
 70
     1
102
RTVSPropertyOp37
 70
     1
102
RTVSPropertyOp38
 70
     1
102
RTVSPropertyOp39
 70
     1
102
RTVSPropertyOp40
 70
     1
102
RTVSPropertyOp41
 70
     1
102
RTVSPropertyOp42
 70
     1
102
RTVSPropertyOp43
 70
     1
102
RTVSPropertyOp44
 70
     1
102
RTVSPropertyOp45
 70
     1
102
RTVSPropertyOp46
 70
     1
102
RTVSPropertyOp47
 70
     1
102
RTVSPropertyOp48
 70
     1
102
RTVSPropertyOp49
 70
     1
102
RTVSPropertyOp50
 70
     1
102
RTVSPropertyOp51
 70
     0
102
RTVSPropertyOp52
 70
     0
102
RTVSPropertyOp53
 70
     1
102
RTVSPropertyOp54
 70
     1
102
RTVSPropertyOp55
 70
     1
102
RTVSPropertyOp56
 70
     1
102
RTVSPropertyOp57
 70
     1
102
RTVSPropertyOp58
 70
     1
102
RTVSPropertyOp59
 70
     1
102
RTVSPropertyOp60
 70
     1
102
RTVSPropertyOp61
 70
     1
102
RTVSPropertyOp62
 70
     1
  0
XRECORD
  5
15879
102
{ACAD_REACTORS
330
15878
102
}
330
15878
100
AcDbXrecord
280
     1
102
RTVSPost2010Prop28
280
     0
102
RTVSPost2010PropOp28
 70
     1
102
RTVSPost2010Prop29
280
     1
102
RTVSPost2010PropOp29
 70
     1
102
RTVSPost2010Prop30
280
     1
102
RTVSPost2010PropOp30
 70
     1
102
RTVSPost2010Prop31
280
     0
102
RTVSPost2010PropOp31
 70
     1
102
RTVSPost2010Prop32
280
     0
102
RTVSPost2010PropOp32
 70
     1
102
RTVSPost2010Prop33
280
     0
102
RTVSPost2010PropOp33
 70
     1
102
RTVSPost2010Prop34
280
     0
102
RTVSPost2010PropOp34
 70
     1
102
RTVSPost2010Prop35
280
     0
102
RTVSPost2010PropOp35
 70
     1
102
RTVSPost2010Prop36
280
     0
102
RTVSPost2010PropOp36
 70
     1
102
RTVSPost2010Prop37
 90
       50
102
RTVSPost2010PropOp37
 70
     1
102
RTVSPost2010Prop38
140
0.0
102
RTVSPost2010PropOp38
 70
     1
102
RTVSPost2010Prop39
140
1.0
102
RTVSPost2010PropOp39
 70
     1
102
RTVSPost2010Prop40
 90
        0
102
RTVSPost2010PropOp40
 70
     1
102
RTVSPost2010Prop41ColorIndex
 90
       18
102
RTVSPost2010Prop41ColorRGB
 90
        0
102
RTVSPost2010PropOp41
 70
     1
102
RTVSPost2010Prop42
 90
       50
102
RTVSPost2010PropOp42
 70
     1
102
RTVSPost2010Prop43
 90
        3
102
RTVSPost2010PropOp43
 70
     1
102
RTVSPost2010Prop44ColorIndex
 90
        5
102
RTVSPost2010Prop44ColorRGB
 90
      255
102
RTVSPost2010PropOp44
 70
     1
102
RTVSPost2010Prop45
280
     0
102
RTVSPost2010PropOp45
 70
     1
102
RTVSPost2010Prop46
 90
       50
102
RTVSPost2010PropOp46
 70
     1
102
RTVSPost2010Prop47
 90
       50
102
RTVSPost2010PropOp47
 70
     1
102
RTVSPost2010Prop48
 90
       50
102
RTVSPost2010PropOp48
 70
     1
102
RTVSPost2010Prop49
280
     0
102
RTVSPost2010PropOp49
 70
     1
102
RTVSPost2010Prop50
 90
       50
102
RTVSPost2010PropOp50
 70
     1
102
RTVSPost2010Prop51ColorIndex
 90
      256
102
RTVSPost2010Prop51ColorRGB
 90
-16777216
102
RTVSPost2010PropOp51
 70
     0
102
RTVSPost2010Prop52
140
1.0
102
RTVSPost2010PropOp52
 70
     0
102
RTVSPost2010Prop53
 90
        2
102
RTVSPost2010PropOp53
 70
     1
102
RTVSPost2010Prop54
  1
strokes_ogs.tif
102
RTVSPost2010PropOp54
 70
     1
102
RTVSPost2010Prop55
280
     0
102
RTVSPost2010PropOp55
 70
     1
102
RTVSPost2010Prop56
140
1.0
102
RTVSPost2010PropOp56
 70
     1
102
RTVSPost2010Prop57
140
1.0
102
RTVSPost2010PropOp57
 70
     1
102
RTVSPropertyOp0
 70
     1
102
RTVSPropertyOp1
 70
     1
102
RTVSPropertyOp2
 70
     1
102
RTVSPropertyOp3
 70
     1
102
RTVSPropertyOp4
 70
     1
102
RTVSPropertyOp5
 70
     1
102
RTVSPropertyOp6
 70
     1
102
RTVSPropertyOp7
 70
     1
102
RTVSPropertyOp8
 70
     1
102
RTVSPropertyOp9
 70
     1
102
RTVSPropertyOp10
 70
     1
102
RTVSPropertyOp11
 70
     1
102
RTVSPropertyOp12
 70
     1
102
RTVSPropertyOp13
 70
     1
102
RTVSPropertyOp14
 70
     1
102
RTVSPropertyOp15
 70
     1
102
RTVSPropertyOp16
 70
     1
102
RTVSPropertyOp17
 70
     1
102
RTVSPropertyOp18
 70
     1
102
RTVSPropertyOp19
 70
     1
102
RTVSPropertyOp20
 70
     1
102
RTVSPropertyOp21
 70
     1
102
RTVSPropertyOp22
 70
     1
102
RTVSPropertyOp23
 70
     1
102
RTVSPropertyOp24
 70
     1
102
RTVSPropertyOp25
 70
     1
102
RTVSPropertyOp26
 70
     1
102
RTVSPropertyOp27
 70
     1
102
RTVSPropertyOp28
 70
     1
102
RTVSPropertyOp29
 70
     1
102
RTVSPropertyOp30
 70
     1
102
RTVSPropertyOp31
 70
     1
102
RTVSPropertyOp32
 70
     1
102
RTVSPropertyOp33
 70
     1
102
RTVSPropertyOp34
 70
     1
102
RTVSPropertyOp35
 70
     1
102
RTVSPropertyOp36
 70
     1
102
RTVSPropertyOp37
 70
     1
102
RTVSPropertyOp38
 70
     1
102
RTVSPropertyOp39
 70
     1
102
RTVSPropertyOp40
 70
     1
102
RTVSPropertyOp41
 70
     1
102
RTVSPropertyOp42
 70
     1
102
RTVSPropertyOp43
 70
     1
102
RTVSPropertyOp44
 70
     1
102
RTVSPropertyOp45
 70
     1
102
RTVSPropertyOp46
 70
     1
102
RTVSPropertyOp47
 70
     1
102
RTVSPropertyOp48
 70
     1
102
RTVSPropertyOp49
 70
     1
102
RTVSPropertyOp50
 70
     1
102
RTVSPropertyOp51
 70
     0
102
RTVSPropertyOp52
 70
     0
102
RTVSPropertyOp53
 70
     1
102
RTVSPropertyOp54
 70
     1
102
RTVSPropertyOp55
 70
     1
102
RTVSPropertyOp56
 70
     1
102
RTVSPropertyOp57
 70
     1
102
RTVSPropertyOp58
 70
     1
102
RTVSPropertyOp59
 70
     1
102
RTVSPropertyOp60
 70
     1
102
RTVSPropertyOp61
 70
     1
102
RTVSPropertyOp62
 70
     1
  0
XRECORD
  5
1587B
102
{ACAD_REACTORS
330
1587A
102
}
330
1587A
100
AcDbXrecord
280
     1
102
RTVSPost2010Prop28
280
     0
102
RTVSPost2010PropOp28
 70
     1
102
RTVSPost2010Prop29
280
     1
102
RTVSPost2010PropOp29
 70
     1
102
RTVSPost2010Prop30
280
     1
102
RTVSPost2010PropOp30
 70
     1
102
RTVSPost2010Prop31
280
     0
102
RTVSPost2010PropOp31
 70
     1
102
RTVSPost2010Prop32
280
     0
102
RTVSPost2010PropOp32
 70
     1
102
RTVSPost2010Prop33
280
     0
102
RTVSPost2010PropOp33
 70
     1
102
RTVSPost2010Prop34
280
     0
102
RTVSPost2010PropOp34
 70
     1
102
RTVSPost2010Prop35
280
     0
102
RTVSPost2010PropOp35
 70
     1
102
RTVSPost2010Prop36
280
     0
102
RTVSPost2010PropOp36
 70
     1
102
RTVSPost2010Prop37
 90
       50
102
RTVSPost2010PropOp37
 70
     1
102
RTVSPost2010Prop38
140
0.0
102
RTVSPost2010PropOp38
 70
     1
102
RTVSPost2010Prop39
140
1.0
102
RTVSPost2010PropOp39
 70
     1
102
RTVSPost2010Prop40
 90
        0
102
RTVSPost2010PropOp40
 70
     1
102
RTVSPost2010Prop41ColorIndex
 90
       18
102
RTVSPost2010Prop41ColorRGB
 90
        0
102
RTVSPost2010PropOp41
 70
     1
102
RTVSPost2010Prop42
 90
       50
102
RTVSPost2010PropOp42
 70
     1
102
RTVSPost2010Prop43
 90
        3
102
RTVSPost2010PropOp43
 70
     1
102
RTVSPost2010Prop44ColorIndex
 90
        5
102
RTVSPost2010Prop44ColorRGB
 90
      255
102
RTVSPost2010PropOp44
 70
     1
102
RTVSPost2010Prop45
280
     0
102
RTVSPost2010PropOp45
 70
     1
102
RTVSPost2010Prop46
 90
       50
102
RTVSPost2010PropOp46
 70
     1
102
RTVSPost2010Prop47
 90
       50
102
RTVSPost2010PropOp47
 70
     1
102
RTVSPost2010Prop48
 90
       50
102
RTVSPost2010PropOp48
 70
     1
102
RTVSPost2010Prop49
280
     0
102
RTVSPost2010PropOp49
 70
     1
102
RTVSPost2010Prop50
 90
       50
102
RTVSPost2010PropOp50
 70
     1
102
RTVSPost2010Prop51ColorIndex
 90
      256
102
RTVSPost2010Prop51ColorRGB
 90
-16777216
102
RTVSPost2010PropOp51
 70
     0
102
RTVSPost2010Prop52
140
1.0
102
RTVSPost2010PropOp52
 70
     0
102
RTVSPost2010Prop53
 90
        2
102
RTVSPost2010PropOp53
 70
     1
102
RTVSPost2010Prop54
  1
strokes_ogs.tif
102
RTVSPost2010PropOp54
 70
     1
102
RTVSPost2010Prop55
280
     0
102
RTVSPost2010PropOp55
 70
     1
102
RTVSPost2010Prop56
140
1.0
102
RTVSPost2010PropOp56
 70
     1
102
RTVSPost2010Prop57
140
1.0
102
RTVSPost2010PropOp57
 70
     1
102
RTVSPropertyOp0
 70
     1
102
RTVSPropertyOp1
 70
     1
102
RTVSPropertyOp2
 70
     1
102
RTVSPropertyOp3
 70
     1
102
RTVSPropertyOp4
 70
     1
102
RTVSPropertyOp5
 70
     1
102
RTVSPropertyOp6
 70
     1
102
RTVSPropertyOp7
 70
     1
102
RTVSPropertyOp8
 70
     1
102
RTVSPropertyOp9
 70
     1
102
RTVSPropertyOp10
 70
     1
102
RTVSPropertyOp11
 70
     1
102
RTVSPropertyOp12
 70
     1
102
RTVSPropertyOp13
 70
     1
102
RTVSPropertyOp14
 70
     1
102
RTVSPropertyOp15
 70
     1
102
RTVSPropertyOp16
 70
     1
102
RTVSPropertyOp17
 70
     1
102
RTVSPropertyOp18
 70
     1
102
RTVSPropertyOp19
 70
     1
102
RTVSPropertyOp20
 70
     1
102
RTVSPropertyOp21
 70
     1
102
RTVSPropertyOp22
 70
     1
102
RTVSPropertyOp23
 70
     1
102
RTVSPropertyOp24
 70
     1
102
RTVSPropertyOp25
 70
     1
102
RTVSPropertyOp26
 70
     1
102
RTVSPropertyOp27
 70
     1
102
RTVSPropertyOp28
 70
     1
102
RTVSPropertyOp29
 70
     1
102
RTVSPropertyOp30
 70
     1
102
RTVSPropertyOp31
 70
     1
102
RTVSPropertyOp32
 70
     1
102
RTVSPropertyOp33
 70
     1
102
RTVSPropertyOp34
 70
     1
102
RTVSPropertyOp35
 70
     1
102
RTVSPropertyOp36
 70
     1
102
RTVSPropertyOp37
 70
     1
102
RTVSPropertyOp38
 70
     1
102
RTVSPropertyOp39
 70
     1
102
RTVSPropertyOp40
 70
     1
102
RTVSPropertyOp41
 70
     1
102
RTVSPropertyOp42
 70
     1
102
RTVSPropertyOp43
 70
     1
102
RTVSPropertyOp44
 70
     1
102
RTVSPropertyOp45
 70
     1
102
RTVSPropertyOp46
 70
     1
102
RTVSPropertyOp47
 70
     1
102
RTVSPropertyOp48
 70
     1
102
RTVSPropertyOp49
 70
     1
102
RTVSPropertyOp50
 70
     1
102
RTVSPropertyOp51
 70
     0
102
RTVSPropertyOp52
 70
     0
102
RTVSPropertyOp53
 70
     1
102
RTVSPropertyOp54
 70
     1
102
RTVSPropertyOp55
 70
     1
102
RTVSPropertyOp56
 70
     1
102
RTVSPropertyOp57
 70
     1
102
RTVSPropertyOp58
 70
     1
102
RTVSPropertyOp59
 70
     1
102
RTVSPropertyOp60
 70
     1
102
RTVSPropertyOp61
 70
     1
102
RTVSPropertyOp62
 70
     1
  0
XRECORD
  5
15871
102
{ACAD_REACTORS
330
15870
102
}
330
15870
100
AcDbXrecord
280
     1
102
RTVSPost2010Prop28
280
     0
102
RTVSPost2010PropOp28
 70
     1
102
RTVSPost2010Prop29
280
     1
102
RTVSPost2010PropOp29
 70
     1
102
RTVSPost2010Prop30
280
     1
102
RTVSPost2010PropOp30
 70
     1
102
RTVSPost2010Prop31
280
     0
102
RTVSPost2010PropOp31
 70
     1
102
RTVSPost2010Prop32
280
     0
102
RTVSPost2010PropOp32
 70
     1
102
RTVSPost2010Prop33
280
     0
102
RTVSPost2010PropOp33
 70
     1
102
RTVSPost2010Prop34
280
     0
102
RTVSPost2010PropOp34
 70
     1
102
RTVSPost2010Prop35
280
     0
102
RTVSPost2010PropOp35
 70
     1
102
RTVSPost2010Prop36
280
     0
102
RTVSPost2010PropOp36
 70
     1
102
RTVSPost2010Prop37
 90
       50
102
RTVSPost2010PropOp37
 70
     1
102
RTVSPost2010Prop38
140
0.0
102
RTVSPost2010PropOp38
 70
     1
102
RTVSPost2010Prop39
140
1.0
102
RTVSPost2010PropOp39
 70
     1
102
RTVSPost2010Prop40
 90
        0
102
RTVSPost2010PropOp40
 70
     1
102
RTVSPost2010Prop41ColorIndex
 90
       18
102
RTVSPost2010Prop41ColorRGB
 90
        0
102
RTVSPost2010PropOp41
 70
     1
102
RTVSPost2010Prop42
 90
       50
102
RTVSPost2010PropOp42
 70
     1
102
RTVSPost2010Prop43
 90
        3
102
RTVSPost2010PropOp43
 70
     1
102
RTVSPost2010Prop44ColorIndex
 90
        5
102
RTVSPost2010Prop44ColorRGB
 90
      255
102
RTVSPost2010PropOp44
 70
     1
102
RTVSPost2010Prop45
280
     0
102
RTVSPost2010PropOp45
 70
     1
102
RTVSPost2010Prop46
 90
       50
102
RTVSPost2010PropOp46
 70
     1
102
RTVSPost2010Prop47
 90
       50
102
RTVSPost2010PropOp47
 70
     1
102
RTVSPost2010Prop48
 90
       50
102
RTVSPost2010PropOp48
 70
     1
102
RTVSPost2010Prop49
280
     0
102
RTVSPost2010PropOp49
 70
     1
102
RTVSPost2010Prop50
 90
       50
102
RTVSPost2010PropOp50
 70
     1
102
RTVSPost2010Prop51ColorIndex
 90
      256
102
RTVSPost2010Prop51ColorRGB
 90
-16777216
102
RTVSPost2010PropOp51
 70
     0
102
RTVSPost2010Prop52
140
1.0
102
RTVSPost2010PropOp52
 70
     0
102
RTVSPost2010Prop53
 90
        2
102
RTVSPost2010PropOp53
 70
     1
102
RTVSPost2010Prop54
  1
strokes_ogs.tif
102
RTVSPost2010PropOp54
 70
     1
102
RTVSPost2010Prop55
280
     0
102
RTVSPost2010PropOp55
 70
     1
102
RTVSPost2010Prop56
140
1.0
102
RTVSPost2010PropOp56
 70
     1
102
RTVSPost2010Prop57
140
1.0
102
RTVSPost2010PropOp57
 70
     1
102
RTVSPropertyOp0
 70
     1
102
RTVSPropertyOp1
 70
     1
102
RTVSPropertyOp2
 70
     1
102
RTVSPropertyOp3
 70
     1
102
RTVSPropertyOp4
 70
     1
102
RTVSPropertyOp5
 70
     1
102
RTVSPropertyOp6
 70
     1
102
RTVSPropertyOp7
 70
     1
102
RTVSPropertyOp8
 70
     1
102
RTVSPropertyOp9
 70
     1
102
RTVSPropertyOp10
 70
     1
102
RTVSPropertyOp11
 70
     1
102
RTVSPropertyOp12
 70
     1
102
RTVSPropertyOp13
 70
     1
102
RTVSPropertyOp14
 70
     1
102
RTVSPropertyOp15
 70
     1
102
RTVSPropertyOp16
 70
     1
102
RTVSPropertyOp17
 70
     1
102
RTVSPropertyOp18
 70
     1
102
RTVSPropertyOp19
 70
     1
102
RTVSPropertyOp20
 70
     1
102
RTVSPropertyOp21
 70
     1
102
RTVSPropertyOp22
 70
     1
102
RTVSPropertyOp23
 70
     1
102
RTVSPropertyOp24
 70
     1
102
RTVSPropertyOp25
 70
     1
102
RTVSPropertyOp26
 70
     1
102
RTVSPropertyOp27
 70
     1
102
RTVSPropertyOp28
 70
     1
102
RTVSPropertyOp29
 70
     1
102
RTVSPropertyOp30
 70
     1
102
RTVSPropertyOp31
 70
     1
102
RTVSPropertyOp32
 70
     1
102
RTVSPropertyOp33
 70
     1
102
RTVSPropertyOp34
 70
     1
102
RTVSPropertyOp35
 70
     1
102
RTVSPropertyOp36
 70
     1
102
RTVSPropertyOp37
 70
     1
102
RTVSPropertyOp38
 70
     1
102
RTVSPropertyOp39
 70
     1
102
RTVSPropertyOp40
 70
     1
102
RTVSPropertyOp41
 70
     1
102
RTVSPropertyOp42
 70
     1
102
RTVSPropertyOp43
 70
     1
102
RTVSPropertyOp44
 70
     1
102
RTVSPropertyOp45
 70
     1
102
RTVSPropertyOp46
 70
     1
102
RTVSPropertyOp47
 70
     1
102
RTVSPropertyOp48
 70
     1
102
RTVSPropertyOp49
 70
     1
102
RTVSPropertyOp50
 70
     1
102
RTVSPropertyOp51
 70
     0
102
RTVSPropertyOp52
 70
     0
102
RTVSPropertyOp53
 70
     1
102
RTVSPropertyOp54
 70
     1
102
RTVSPropertyOp55
 70
     1
102
RTVSPropertyOp56
 70
     1
102
RTVSPropertyOp57
 70
     1
102
RTVSPropertyOp58
 70
     1
102
RTVSPropertyOp59
 70
     1
102
RTVSPropertyOp60
 70
     1
102
RTVSPropertyOp61
 70
     1
102
RTVSPropertyOp62
 70
     1
  0
XRECORD
  5
15865
102
{ACAD_REACTORS
330
15864
102
}
330
15864
100
AcDbXrecord
280
     1
102
RTVSPost2010Prop28
280
     0
102
RTVSPost2010PropOp28
 70
     1
102
RTVSPost2010Prop29
280
     1
102
RTVSPost2010PropOp29
 70
     1
102
RTVSPost2010Prop30
280
     1
102
RTVSPost2010PropOp30
 70
     1
102
RTVSPost2010Prop31
280
     0
102
RTVSPost2010PropOp31
 70
     1
102
RTVSPost2010Prop32
280
     0
102
RTVSPost2010PropOp32
 70
     1
102
RTVSPost2010Prop33
280
     0
102
RTVSPost2010PropOp33
 70
     1
102
RTVSPost2010Prop34
280
     0
102
RTVSPost2010PropOp34
 70
     1
102
RTVSPost2010Prop35
280
     0
102
RTVSPost2010PropOp35
 70
     1
102
RTVSPost2010Prop36
280
     0
102
RTVSPost2010PropOp36
 70
     1
102
RTVSPost2010Prop37
 90
       50
102
RTVSPost2010PropOp37
 70
     1
102
RTVSPost2010Prop38
140
0.0
102
RTVSPost2010PropOp38
 70
     1
102
RTVSPost2010Prop39
140
1.0
102
RTVSPost2010PropOp39
 70
     1
102
RTVSPost2010Prop40
 90
        0
102
RTVSPost2010PropOp40
 70
     1
102
RTVSPost2010Prop41ColorIndex
 90
       18
102
RTVSPost2010Prop41ColorRGB
 90
        0
102
RTVSPost2010PropOp41
 70
     1
102
RTVSPost2010Prop42
 90
       50
102
RTVSPost2010PropOp42
 70
     1
102
RTVSPost2010Prop43
 90
        3
102
RTVSPost2010PropOp43
 70
     1
102
RTVSPost2010Prop44ColorIndex
 90
        5
102
RTVSPost2010Prop44ColorRGB
 90
      255
102
RTVSPost2010PropOp44
 70
     1
102
RTVSPost2010Prop45
280
     0
102
RTVSPost2010PropOp45
 70
     1
102
RTVSPost2010Prop46
 90
       50
102
RTVSPost2010PropOp46
 70
     1
102
RTVSPost2010Prop47
 90
       50
102
RTVSPost2010PropOp47
 70
     1
102
RTVSPost2010Prop48
 90
       50
102
RTVSPost2010PropOp48
 70
     1
102
RTVSPost2010Prop49
280
     0
102
RTVSPost2010PropOp49
 70
     1
102
RTVSPost2010Prop50
 90
       50
102
RTVSPost2010PropOp50
 70
     1
102
RTVSPost2010Prop51ColorIndex
 90
      256
102
RTVSPost2010Prop51ColorRGB
 90
-16777216
102
RTVSPost2010PropOp51
 70
     0
102
RTVSPost2010Prop52
140
1.0
102
RTVSPost2010PropOp52
 70
     0
102
RTVSPost2010Prop53
 90
        2
102
RTVSPost2010PropOp53
 70
     1
102
RTVSPost2010Prop54
  1
strokes_ogs.tif
102
RTVSPost2010PropOp54
 70
     1
102
RTVSPost2010Prop55
280
     0
102
RTVSPost2010PropOp55
 70
     1
102
RTVSPost2010Prop56
140
1.0
102
RTVSPost2010PropOp56
 70
     1
102
RTVSPost2010Prop57
140
1.0
102
RTVSPost2010PropOp57
 70
     1
102
RTVSPropertyOp0
 70
     1
102
RTVSPropertyOp1
 70
     1
102
RTVSPropertyOp2
 70
     1
102
RTVSPropertyOp3
 70
     1
102
RTVSPropertyOp4
 70
     1
102
RTVSPropertyOp5
 70
     1
102
RTVSPropertyOp6
 70
     1
102
RTVSPropertyOp7
 70
     1
102
RTVSPropertyOp8
 70
     1
102
RTVSPropertyOp9
 70
     1
102
RTVSPropertyOp10
 70
     1
102
RTVSPropertyOp11
 70
     1
102
RTVSPropertyOp12
 70
     1
102
RTVSPropertyOp13
 70
     1
102
RTVSPropertyOp14
 70
     1
102
RTVSPropertyOp15
 70
     1
102
RTVSPropertyOp16
 70
     1
102
RTVSPropertyOp17
 70
     1
102
RTVSPropertyOp18
 70
     1
102
RTVSPropertyOp19
 70
     1
102
RTVSPropertyOp20
 70
     1
102
RTVSPropertyOp21
 70
     1
102
RTVSPropertyOp22
 70
     1
102
RTVSPropertyOp23
 70
     1
102
RTVSPropertyOp24
 70
     1
102
RTVSPropertyOp25
 70
     1
102
RTVSPropertyOp26
 70
     1
102
RTVSPropertyOp27
 70
     1
102
RTVSPropertyOp28
 70
     1
102
RTVSPropertyOp29
 70
     1
102
RTVSPropertyOp30
 70
     1
102
RTVSPropertyOp31
 70
     1
102
RTVSPropertyOp32
 70
     1
102
RTVSPropertyOp33
 70
     1
102
RTVSPropertyOp34
 70
     1
102
RTVSPropertyOp35
 70
     1
102
RTVSPropertyOp36
 70
     1
102
RTVSPropertyOp37
 70
     1
102
RTVSPropertyOp38
 70
     1
102
RTVSPropertyOp39
 70
     1
102
RTVSPropertyOp40
 70
     1
102
RTVSPropertyOp41
 70
     1
102
RTVSPropertyOp42
 70
     1
102
RTVSPropertyOp43
 70
     1
102
RTVSPropertyOp44
 70
     1
102
RTVSPropertyOp45
 70
     1
102
RTVSPropertyOp46
 70
     1
102
RTVSPropertyOp47
 70
     1
102
RTVSPropertyOp48
 70
     1
102
RTVSPropertyOp49
 70
     1
102
RTVSPropertyOp50
 70
     1
102
RTVSPropertyOp51
 70
     0
102
RTVSPropertyOp52
 70
     0
102
RTVSPropertyOp53
 70
     1
102
RTVSPropertyOp54
 70
     1
102
RTVSPropertyOp55
 70
     1
102
RTVSPropertyOp56
 70
     1
102
RTVSPropertyOp57
 70
     1
102
RTVSPropertyOp58
 70
     1
102
RTVSPropertyOp59
 70
     1
102
RTVSPropertyOp60
 70
     1
102
RTVSPropertyOp61
 70
     1
102
RTVSPropertyOp62
 70
     1
  0
XRECORD
  5
1587D
102
{ACAD_REACTORS
330
1587C
102
}
330
1587C
100
AcDbXrecord
280
     1
102
RTVSPost2010Prop28
280
     0
102
RTVSPost2010PropOp28
 70
     1
102
RTVSPost2010Prop29
280
     1
102
RTVSPost2010PropOp29
 70
     1
102
RTVSPost2010Prop30
280
     1
102
RTVSPost2010PropOp30
 70
     1
102
RTVSPost2010Prop31
280
     0
102
RTVSPost2010PropOp31
 70
     1
102
RTVSPost2010Prop32
280
     0
102
RTVSPost2010PropOp32
 70
     1
102
RTVSPost2010Prop33
280
     0
102
RTVSPost2010PropOp33
 70
     1
102
RTVSPost2010Prop34
280
     0
102
RTVSPost2010PropOp34
 70
     1
102
RTVSPost2010Prop35
280
     0
102
RTVSPost2010PropOp35
 70
     1
102
RTVSPost2010Prop36
280
     0
102
RTVSPost2010PropOp36
 70
     1
102
RTVSPost2010Prop37
 90
       50
102
RTVSPost2010PropOp37
 70
     1
102
RTVSPost2010Prop38
140
0.0
102
RTVSPost2010PropOp38
 70
     1
102
RTVSPost2010Prop39
140
1.0
102
RTVSPost2010PropOp39
 70
     1
102
RTVSPost2010Prop40
 90
        0
102
RTVSPost2010PropOp40
 70
     1
102
RTVSPost2010Prop41ColorIndex
 90
       18
102
RTVSPost2010Prop41ColorRGB
 90
        0
102
RTVSPost2010PropOp41
 70
     1
102
RTVSPost2010Prop42
 90
       50
102
RTVSPost2010PropOp42
 70
     1
102
RTVSPost2010Prop43
 90
        3
102
RTVSPost2010PropOp43
 70
     1
102
RTVSPost2010Prop44ColorIndex
 90
        5
102
RTVSPost2010Prop44ColorRGB
 90
      255
102
RTVSPost2010PropOp44
 70
     1
102
RTVSPost2010Prop45
280
     0
102
RTVSPost2010PropOp45
 70
     1
102
RTVSPost2010Prop46
 90
       50
102
RTVSPost2010PropOp46
 70
     1
102
RTVSPost2010Prop47
 90
       50
102
RTVSPost2010PropOp47
 70
     1
102
RTVSPost2010Prop48
 90
       50
102
RTVSPost2010PropOp48
 70
     1
102
RTVSPost2010Prop49
280
     0
102
RTVSPost2010PropOp49
 70
     1
102
RTVSPost2010Prop50
 90
       50
102
RTVSPost2010PropOp50
 70
     1
102
RTVSPost2010Prop51ColorIndex
 90
      256
102
RTVSPost2010Prop51ColorRGB
 90
-16777216
102
RTVSPost2010PropOp51
 70
     0
102
RTVSPost2010Prop52
140
1.0
102
RTVSPost2010PropOp52
 70
     0
102
RTVSPost2010Prop53
 90
        2
102
RTVSPost2010PropOp53
 70
     1
102
RTVSPost2010Prop54
  1
strokes_ogs.tif
102
RTVSPost2010PropOp54
 70
     1
102
RTVSPost2010Prop55
280
     0
102
RTVSPost2010PropOp55
 70
     1
102
RTVSPost2010Prop56
140
1.0
102
RTVSPost2010PropOp56
 70
     1
102
RTVSPost2010Prop57
140
1.0
102
RTVSPost2010PropOp57
 70
     1
102
RTVSPropertyOp0
 70
     1
102
RTVSPropertyOp1
 70
     1
102
RTVSPropertyOp2
 70
     1
102
RTVSPropertyOp3
 70
     1
102
RTVSPropertyOp4
 70
     1
102
RTVSPropertyOp5
 70
     1
102
RTVSPropertyOp6
 70
     1
102
RTVSPropertyOp7
 70
     1
102
RTVSPropertyOp8
 70
     1
102
RTVSPropertyOp9
 70
     1
102
RTVSPropertyOp10
 70
     1
102
RTVSPropertyOp11
 70
     1
102
RTVSPropertyOp12
 70
     1
102
RTVSPropertyOp13
 70
     1
102
RTVSPropertyOp14
 70
     1
102
RTVSPropertyOp15
 70
     1
102
RTVSPropertyOp16
 70
     1
102
RTVSPropertyOp17
 70
     1
102
RTVSPropertyOp18
 70
     1
102
RTVSPropertyOp19
 70
     1
102
RTVSPropertyOp20
 70
     1
102
RTVSPropertyOp21
 70
     1
102
RTVSPropertyOp22
 70
     1
102
RTVSPropertyOp23
 70
     1
102
RTVSPropertyOp24
 70
     1
102
RTVSPropertyOp25
 70
     1
102
RTVSPropertyOp26
 70
     1
102
RTVSPropertyOp27
 70
     1
102
RTVSPropertyOp28
 70
     1
102
RTVSPropertyOp29
 70
     1
102
RTVSPropertyOp30
 70
     1
102
RTVSPropertyOp31
 70
     1
102
RTVSPropertyOp32
 70
     1
102
RTVSPropertyOp33
 70
     1
102
RTVSPropertyOp34
 70
     1
102
RTVSPropertyOp35
 70
     1
102
RTVSPropertyOp36
 70
     1
102
RTVSPropertyOp37
 70
     1
102
RTVSPropertyOp38
 70
     1
102
RTVSPropertyOp39
 70
     1
102
RTVSPropertyOp40
 70
     1
102
RTVSPropertyOp41
 70
     1
102
RTVSPropertyOp42
 70
     1
102
RTVSPropertyOp43
 70
     1
102
RTVSPropertyOp44
 70
     1
102
RTVSPropertyOp45
 70
     1
102
RTVSPropertyOp46
 70
     1
102
RTVSPropertyOp47
 70
     1
102
RTVSPropertyOp48
 70
     1
102
RTVSPropertyOp49
 70
     1
102
RTVSPropertyOp50
 70
     1
102
RTVSPropertyOp51
 70
     0
102
RTVSPropertyOp52
 70
     0
102
RTVSPropertyOp53
 70
     1
102
RTVSPropertyOp54
 70
     1
102
RTVSPropertyOp55
 70
     1
102
RTVSPropertyOp56
 70
     1
102
RTVSPropertyOp57
 70
     1
102
RTVSPropertyOp58
 70
     1
102
RTVSPropertyOp59
 70
     1
102
RTVSPropertyOp60
 70
     1
102
RTVSPropertyOp61
 70
     1
102
RTVSPropertyOp62
 70
     1
  0
ENDSEC
  0
EOF
