  0
SECTION
  2
HEADER
  9
$ACADVER
  1
AC1015
  9
$ACADMAINTVER
 70
    20
  9
$DWGCODEPAGE
  3
ANSI_932
  9
$INSBASE
 10
0.0
 20
0.0
 30
0.0
  9
$EXTMIN
 10
104.9999999999996
 20
0.0
 30
-0.0000000000013153
  9
$EXTMAX
 10
12230.4
 20
8557.199999999999
 30
0.0000000000013153
  9
$LIMMIN
 10
0.0
 20
0.0
  9
$LIMMAX
 10
12600.0
 20
8910.0
  9
$ORTHOMODE
 70
     0
  9
$REGENMODE
 70
     1
  9
$FILLMODE
 70
     1
  9
$QTEXTMODE
 70
     0
  9
$MIRRTEXT
 70
     1
  9
$LTSCALE
 40
7.0
  9
$ATTMODE
 70
     1
  9
$TEXTSIZE
 40
100.0
  9
$TRACEWID
 40
1.0
  9
$TEXTSTYLE
  7
STYLE3
  9
$CLAYER
  8
点線
  9
$CELTYPE
  6
BYLAYER
  9
$CECOLOR
 62
   256
  9
$CELTSCALE
 40
50.0
  9
$DISPSILH
 70
     0
  9
$DIMSCALE
 40
30.0
  9
$DIMASZ
 40
2.5
  9
$DIMEXO
 40
0.5
  9
$DIMDLI
 40
7.0
  9
$DIMRND
 40
0.0
  9
$DIMDLE
 40
0.0
  9
$DIMEXE
 40
1.5
  9
$DIMTP
 40
0.0
  9
$DIMTM
 40
0.0
  9
$DIMTXT
 40
3.0
  9
$DIMCEN
 40
0.0
  9
$DIMTSZ
 40
0.0
  9
$DIMTOL
 70
     0
  9
$DIMLIM
 70
     0
  9
$DIMTIH
 70
     1
  9
$DIMTOH
 70
     1
  9
$DIMSE1
 70
     0
  9
$DIMSE2
 70
     0
  9
$DIMTAD
 70
     3
  9
$DIMZIN
 70
     8
  9
$DIMBLK
  1

  9
$DIMASO
 70
     1
  9
$DIMSHO
 70
     1
  9
$DIMPOST
  1

  9
$DIMAPOST
  1

  9
$DIMALT
 70
     0
  9
$DIMALTD
 70
     2
  9
$DIMALTF
 40
0.0394
  9
$DIMLFAC
 40
1.0
  9
$DIMTOFL
 70
     1
  9
$DIMTVP
 40
0.0
  9
$DIMTIX
 70
     1
  9
$DIMSOXD
 70
     1
  9
$DIMSAH
 70
     1
  9
$DIMBLK1
  1
DOTSMALL
  9
$DIMBLK2
  1
DOTSMALL
  9
$DIMSTYLE
  2
INABA_S30G
  9
$DIMCLRD
 70
     0
  9
$DIMCLRE
 70
     0
  9
$DIMCLRT
 70
     7
  9
$DIMTFAC
 40
1.0
  9
$DIMGAP
 40
1.0
  9
$DIMJUST
 70
     0
  9
$DIMSD1
 70
     0
  9
$DIMSD2
 70
     0
  9
$DIMTOLJ
 70
     1
  9
$DIMTZIN
 70
     0
  9
$DIMALTZ
 70
     0
  9
$DIMALTTZ
 70
     0
  9
$DIMUPT
 70
     0
  9
$DIMDEC
 70
     1
  9
$DIMTDEC
 70
     1
  9
$DIMALTU
 70
     2
  9
$DIMALTTD
 70
     2
  9
$DIMTXSTY
  7
STYLE1
  9
$DIMAUNIT
 70
     0
  9
$DIMADEC
 70
     0
  9
$DIMALTRND
 40
0.0
  9
$DIMAZIN
 70
     0
  9
$DIMDSEP
 70
    46
  9
$DIMATFIT
 70
     3
  9
$DIMFRAC
 70
     0
  9
$DIMLDRBLK
  1

  9
$DIMLUNIT
 70
     2
  9
$DIMLWD
 70
    -2
  9
$DIMLWE
 70
    -2
  9
$DIMTMOVE
 70
     0
  9
$LUNITS
 70
     2
  9
$LUPREC
 70
     1
  9
$SKETCHINC
 40
1.0
  9
$FILLETRAD
 40
5.0
  9
$AUNITS
 70
     0
  9
$AUPREC
 70
     0
  9
$MENU
  1
acad
  9
$ELEVATION
 40
0.0
  9
$PELEVATION
 40
0.0
  9
$THICKNESS
 40
0.0
  9
$LIMCHECK
 70
     0
  9
$CHAMFERA
 40
0.0
  9
$CHAMFERB
 40
0.0
  9
$CHAMFERC
 40
0.0
  9
$CHAMFERD
 40
0.0
  9
$SKPOLY
 70
     0
  9
$TDCREATE
 40
2451074.411873148
  9
$TDUCREATE
 40
2451074.036873148
  9
$TDUPDATE
 40
2456560.839274514
  9
$TDUUPDATE
 40
2456560.464274514
  9
$TDINDWG
 40
0.3410173611
  9
$TDUSRTIMER
 40
0.3410173611
  9
$USRTIMER
 70
     1
  9
$ANGBASE
 50
0.0
  9
$ANGDIR
 70
     0
  9
$PDMODE
 70
     3
  9
$PDSIZE
 40
2.0
  9
$PLINEWID
 40
0.0
  9
$SPLFRAME
 70
     0
  9
$SPLINETYPE
 70
     6
  9
$SPLINESEGS
 70
     8
  9
$HANDSEED
  5
1581D
  9
$SURFTAB1
 70
     6
  9
$SURFTAB2
 70
     6
  9
$SURFTYPE
 70
     6
  9
$SURFU
 70
     6
  9
$SURFV
 70
     6
  9
$UCSBASE
  2

  9
$UCSNAME
  2

  9
$UCSORG
 10
0.0
 20
0.0
 30
0.0
  9
$UCSXDIR
 10
1.0
 20
0.0
 30
0.0
  9
$UCSYDIR
 10
0.0
 20
1.0
 30
0.0
  9
$UCSORTHOREF
  2

  9
$UCSORTHOVIEW
 70
     0
  9
$UCSORGTOP
 10
0.0
 20
0.0
 30
0.0
  9
$UCSORGBOTTOM
 10
0.0
 20
0.0
 30
0.0
  9
$UCSORGLEFT
 10
0.0
 20
0.0
 30
0.0
  9
$UCSORGRIGHT
 10
0.0
 20
0.0
 30
0.0
  9
$UCSORGFRONT
 10
0.0
 20
0.0
 30
0.0
  9
$UCSORGBACK
 10
0.0
 20
0.0
 30
0.0
  9
$PUCSBASE
  2

  9
$PUCSNAME
  2

  9
$PUCSORG
 10
0.0
 20
0.0
 30
0.0
  9
$PUCSXDIR
 10
1.0
 20
0.0
 30
0.0
  9
$PUCSYDIR
 10
0.0
 20
1.0
 30
0.0
  9
$PUCSORTHOREF
  2

  9
$PUCSORTHOVIEW
 70
     0
  9
$PUCSORGTOP
 10
0.0
 20
0.0
 30
0.0
  9
$PUCSORGBOTTOM
 10
0.0
 20
0.0
 30
0.0
  9
$PUCSORGLEFT
 10
0.0
 20
0.0
 30
0.0
  9
$PUCSORGRIGHT
 10
0.0
 20
0.0
 30
0.0
  9
$PUCSORGFRONT
 10
0.0
 20
0.0
 30
0.0
  9
$PUCSORGBACK
 10
0.0
 20
0.0
 30
0.0
  9
$USERI1
 70
     0
  9
$USERI2
 70
     0
  9
$USERI3
 70
     0
  9
$USERI4
 70
     0
  9
$USERI5
 70
     0
  9
$USERR1
 40
0.0
  9
$USERR2
 40
0.0
  9
$USERR3
 40
0.0
  9
$USERR4
 40
0.0
  9
$USERR5
 40
0.0
  9
$WORLDVIEW
 70
     1
  9
$SHADEDGE
 70
     3
  9
$SHADEDIF
 70
    70
  9
$TILEMODE
 70
     1
  9
$MAXACTVP
 70
    16
  9
$PINSBASE
 10
0.0
 20
0.0
 30
0.0
  9
$PLIMCHECK
 70
     0
  9
$PEXTMIN
 10
1.000000000000000E+20
 20
1.000000000000000E+20
 30
1.000000000000000E+20
  9
$PEXTMAX
 10
-1.000000000000000E+20
 20
-1.000000000000000E+20
 30
-1.000000000000000E+20
  9
$PLIMMIN
 10
0.0
 20
0.0
  9
$PLIMMAX
 10
420.0
 20
297.0
  9
$UNITMODE
 70
     0
  9
$VISRETAIN
 70
     0
  9
$PLINEGEN
 70
     0
  9
$PSLTSCALE
 70
     0
  9
$TREEDEPTH
 70
  3020
  9
$CMLSTYLE
  2
STANDARD
  9
$CMLJUST
 70
     0
  9
$CMLSCALE
 40
1.0
  9
$PROXYGRAPHICS
 70
     1
  9
$MEASUREMENT
 70
     1
  9
$CELWEIGHT
370
    -1
  9
$ENDCAPS
280
     0
  9
$JOINSTYLE
280
     0
  9
$LWDISPLAY
290
     0
  9
$INSUNITS
 70
     0
  9
$HYPERLINKBASE
  1

  9
$STYLESHEET
  1
inaba.ctb
  9
$XEDIT
290
     1
  9
$CEPSNTYPE
380
     0
  9
$PSTYLEMODE
290
     1
  9
$FINGERPRINTGUID
  2
{696AEDA2-CF37-4C16-A548-8F3E259D4281}
  9
$VERSIONGUID
  2
{E003EFFA-E07C-4F0F-B18B-053CEE8DD8C3}
  9
$EXTNAMES
290
     1
  9
$PSVPSCALE
 40
0.0
  9
$OLESTARTUP
290
     0
  0
ENDSEC
  0
SECTION
  2
CLASSES
  0
CLASS
  1
ACDBDICTIONARYWDFLT
  2
AcDbDictionaryWithDefault
  3
ObjectDBX Classes
 90
        0
280
     0
281
     0
  0
CLASS
  1
DICTIONARYVAR
  2
AcDbDictionaryVar
  3
ObjectDBX Classes
 90
        0
280
     0
281
     0
  0
CLASS
  1
MATERIAL
  2
AcDbMaterial
  3
ObjectDBX Classes
 90
     1153
280
     0
281
     0
  0
CLASS
  1
VISUALSTYLE
  2
AcDbVisualStyle
  3
ObjectDBX Classes
 90
     4095
280
     0
281
     0
  0
CLASS
  1
TABLESTYLE
  2
AcDbTableStyle
  3
ObjectDBX Classes
 90
     4095
280
     0
281
     0
  0
CLASS
  1
SCALE
  2
AcDbScale
  3
ObjectDBX Classes
 90
     1153
280
     0
281
     0
  0
CLASS
  1
MLEADERSTYLE
  2
AcDbMLeaderStyle
  3
ACDB_MLEADERSTYLE_CLASS
 90
     4095
280
     0
281
     0
  0
CLASS
  1
ACDBSECTIONVIEWSTYLE
  2
AcDbSectionViewStyle
  3
ObjectDBX Classes
 90
     1025
280
     0
281
     0
  0
CLASS
  1
ACDBDETAILVIEWSTYLE
  2
AcDbDetailViewStyle
  3
ObjectDBX Classes
 90
     1025
280
     0
281
     0
  0
CLASS
  1
EXACXREFPANELOBJECT
  2
ExAcXREFPanelObject
  3
EXAC_ESW
 90
    33793
280
     0
281
     0
  0
CLASS
  1
NPOCOLLECTION
  2
AcDbImpNonPersistentObjectsCollection
  3
ObjectDBX Classes
 90
    33921
280
     0
281
     0
  0
CLASS
  1
CELLSTYLEMAP
  2
AcDbCellStyleMap
  3
ObjectDBX Classes
 90
     1152
280
     0
281
     0
  0
CLASS
  1
ACDBPLACEHOLDER
  2
AcDbPlaceHolder
  3
ObjectDBX Classes
 90
        0
280
     0
281
     0
  0
CLASS
  1
LAYOUT
  2
AcDbLayout
  3
ObjectDBX Classes
 90
        0
280
     0
281
     0
  0
ENDSEC
  0
SECTION
  2
TABLES
  0
TABLE
  2
VPORT
  5
746D
102
{ACAD_XDICTIONARY
360
15568
102
}
330
0
100
AcDbSymbolTable
 70
     1
  0
VPORT
  5
13E71
330
746D
100
AcDbSymbolTableRecord
100
AcDbViewportTableRecord
  2
*Active
 70
     0
 10
0.0
 20
0.0
 11
1.0
 21
1.0
 12
6167.820768928882
 22
4278.625929001144
 13
0.0
 23
0.0
 14
10.0
 24
10.0
 15
10.0
 25
10.0
 16
0.0
 26
0.0
 36
1.0
 17
0.0
 27
0.0
 37
0.0
 40
8771.043272920413
 41
1.390896921017402
 42
50.0
 43
0.0
 44
0.0
 50
0.0
 51
0.0
 71
     0
 72
     0
 73
     1
 74
     0
 75
     0
 76
     0
 77
     0
 78
     0
281
     0
 65
     1
110
0.0
120
0.0
130
0.0
111
1.0
121
0.0
131
0.0
112
0.0
122
1.0
132
0.0
 79
     0
146
0.0
1001
ACAD_NAV_VCDISPLAY
1070
     3
  0
ENDTAB
  0
TABLE
  2
LTYPE
  5
746A
330
0
100
AcDbSymbolTable
 70
     4
  0
LTYPE
  5
7477
330
746A
100
AcDbSymbolTableRecord
100
AcDbLinetypeTableRecord
  2
BYBLOCK
 70
     0
  3

 72
    65
 73
     0
 40
0.0
  0
LTYPE
  5
7478
330
746A
100
AcDbSymbolTableRecord
100
AcDbLinetypeTableRecord
  2
BYLAYER
 70
     0
  3

 72
    65
 73
     0
 40
0.0
  0
LTYPE
  5
7479
330
746A
100
AcDbSymbolTableRecord
100
AcDbLinetypeTableRecord
  2
CONTINUOUS
 70
     0
  3
Solid line
 72
    65
 73
     0
 40
0.0
  0
LTYPE
  5
781A
330
746A
100
AcDbSymbolTableRecord
100
AcDbLinetypeTableRecord
  2
HIDDEN
 70
     0
  3
__ __ __ __ __ __ __ __ __ __ __ __ __ __ __ __
 72
    65
 73
     2
 40
0.375
 49
0.25
 74
     0
 49
-0.125
 74
     0
  0
LTYPE
  5
781B
330
746A
100
AcDbSymbolTableRecord
100
AcDbLinetypeTableRecord
  2
PHANTOM
 70
     0
  3
______  __  __  ______  __  __  ______  __  __ 
 72
    65
 73
     6
 40
2.5
 49
1.25
 74
     0
 49
-0.25
 74
     0
 49
0.25
 74
     0
 49
-0.25
 74
     0
 49
0.25
 74
     0
 49
-0.25
 74
     0
  0
LTYPE
  5
13571
330
746A
100
AcDbSymbolTableRecord
100
AcDbLinetypeTableRecord
  2
CENTER
 70
     0
  3
Center ____ _ ____ _ ____ _ ____ _ ____ _ ____
 72
    65
 73
     4
 40
50.8
 49
31.75
 74
     0
 49
-6.349999999999999
 74
     0
 49
6.349999999999999
 74
     0
 49
-6.349999999999999
 74
     0
  0
ENDTAB
  0
TABLE
  2
LAYER
  5
7467
102
{ACAD_XDICTIONARY
360
13451
102
}
330
0
100
AcDbSymbolTable
 70
    15
  0
LAYER
  5
7474
102
{ACAD_XDICTIONARY
360
15548
102
}
330
7467
100
AcDbSymbolTableRecord
100
AcDbLayerTableRecord
  2
0
 70
     0
 62
     7
  6
CONTINUOUS
370
    -3
390
1341B
  0
LAYER
  5
DEB3
102
{ACAD_XDICTIONARY
360
1554A
102
}
330
7467
100
AcDbSymbolTableRecord
100
AcDbLayerTableRecord
  2
寸法
 70
     0
 62
     4
  6
CONTINUOUS
370
    -3
390
1341B
  0
LAYER
  5
DEB4
102
{ACAD_XDICTIONARY
360
1554C
102
}
330
7467
100
AcDbSymbolTableRecord
100
AcDbLayerTableRecord
  2
部品1
 70
     0
 62
     7
  6
CONTINUOUS
370
    -3
390
1341B
  0
LAYER
  5
DEB5
102
{ACAD_XDICTIONARY
360
1554E
102
}
330
7467
100
AcDbSymbolTableRecord
100
AcDbLayerTableRecord
  2
補助
 70
     0
 62
    -1
  6
CONTINUOUS
370
    -3
390
1341B
  0
LAYER
  5
DEB6
102
{ACAD_XDICTIONARY
360
15550
102
}
330
7467
100
AcDbSymbolTableRecord
100
AcDbLayerTableRecord
  2
文字
 70
     0
 62
     7
  6
CONTINUOUS
370
    -3
390
1341B
  0
LAYER
  5
F255
330
7467
100
AcDbSymbolTableRecord
100
AcDbLayerTableRecord
  2
DEFPOINTS
 70
     0
 62
     7
  6
CONTINUOUS
290
     0
370
    -3
390
1341B
  0
LAYER
  5
10B54
102
{ACAD_XDICTIONARY
360
15552
102
}
330
7467
100
AcDbSymbolTableRecord
100
AcDbLayerTableRecord
  2
仕様書枠
 70
     0
 62
   230
  6
CONTINUOUS
370
    -3
390
1341B
  0
LAYER
  5
11729
102
{ACAD_XDICTIONARY
360
15554
102
}
330
7467
100
AcDbSymbolTableRecord
100
AcDbLayerTableRecord
  2
Ｇ．Ｌ
 70
     0
 62
    30
  6
CONTINUOUS
370
    -3
390
1341B
  0
LAYER
  5
1173F
102
{ACAD_XDICTIONARY
360
15556
102
}
330
7467
100
AcDbSymbolTableRecord
100
AcDbLayerTableRecord
  2
細線
 70
     0
 62
     5
  6
CONTINUOUS
370
    -3
390
1341B
  0
LAYER
  5
11740
102
{ACAD_XDICTIONARY
360
15558
102
}
330
7467
100
AcDbSymbolTableRecord
100
AcDbLayerTableRecord
  2
点線
 70
     0
 62
     2
  6
HIDDEN
370
    -3
390
1341B
  0
LAYER
  5
1356E
102
{ACAD_XDICTIONARY
360
1555A
102
}
330
7467
100
AcDbSymbolTableRecord
100
AcDbLayerTableRecord
  2
センター
 70
     0
 62
     3
  6
CENTER
370
    -3
390
1341B
  0
LAYER
  5
135FB
102
{ACAD_XDICTIONARY
360
1555C
102
}
330
7467
100
AcDbSymbolTableRecord
100
AcDbLayerTableRecord
  2
想像線
 70
     0
 62
     6
  6
PHANTOM
370
    -3
390
1341B
  0
LAYER
  5
13837
102
{ACAD_XDICTIONARY
360
1555E
102
}
330
7467
100
AcDbSymbolTableRecord
100
AcDbLayerTableRecord
  2
U7
 70
     0
 62
     2
  6
CONTINUOUS
370
    -3
390
1341B
  0
LAYER
  5
13838
102
{ACAD_XDICTIONARY
360
15560
102
}
330
7467
100
AcDbSymbolTableRecord
100
AcDbLayerTableRecord
  2
KIN-T
 70
     0
 62
     3
  6
CONTINUOUS
370
    -3
390
1341B
  0
LAYER
  5
13839
102
{ACAD_XDICTIONARY
360
15562
102
}
330
7467
100
AcDbSymbolTableRecord
100
AcDbLayerTableRecord
  2
CSLAYER17
 70
     0
 62
     7
  6
CONTINUOUS
370
    -3
390
1341B
  0
ENDTAB
  0
TABLE
  2
STYLE
  5
7468
330
0
100
AcDbSymbolTable
 70
     5
  0
STYLE
  5
7475
330
7468
100
AcDbSymbolTableRecord
100
AcDbTextStyleTableRecord
  2
STANDARD
 70
     0
 40
0.0
 41
1.0
 50
0.0
 71
     0
 42
4.0
  3
txt
  4
C:\AutoCAD LT\bigfont.shx
  0
STYLE
  5
763C
330
7468
100
AcDbSymbolTableRecord
100
AcDbTextStyleTableRecord
  2
MSMINCHO
 70
     0
 40
0.0
 41
1.0
 50
0.0
 71
     0
 42
1.199999999999999
  3
C:\AutoCAD LT\msminch2.TTF
  4

  0
STYLE
  5
F706
330
7468
100
AcDbSymbolTableRecord
100
AcDbTextStyleTableRecord
  2
STYLE1
 70
     0
 40
0.0
 41
1.0
 50
0.0
 71
     0
 42
4.0
  3
isocp.shx
  4
bigfont.shx
  0
STYLE
  5
103BF
330
7468
100
AcDbSymbolTableRecord
100
AcDbTextStyleTableRecord
  2
STYLE2
 70
     0
 40
0.0
 41
1.0
 50
0.0
 71
     0
 42
100.0
  3

  4

1001
ACAD
1000
MS PGothic
1071
    32818
  0
STYLE
  5
10BAA
330
7468
100
AcDbSymbolTableRecord
100
AcDbTextStyleTableRecord
  2
STYLE3
 70
     0
 40
0.0
 41
1.0
 50
0.0
 71
     0
 42
100.0
  3

  4

1001
ACAD
1000
MS PGothic
1071
    32818
  0
ENDTAB
  0
TABLE
  2
VIEW
  5
746B
330
0
100
AcDbSymbolTable
 70
     0
  0
ENDTAB
  0
TABLE
  2
UCS
  5
746C
330
0
100
AcDbSymbolTable
 70
     0
  0
ENDTAB
  0
TABLE
  2
APPID
  5
746E
330
0
100
AcDbSymbolTable
 70
    11
  0
APPID
  5
7476
330
746E
100
AcDbSymbolTableRecord
100
AcDbRegAppTableRecord
  2
ACAD
 70
     0
  0
APPID
  5
DEA9
330
746E
100
AcDbSymbolTableRecord
100
AcDbRegAppTableRecord
  2
CONTENTBLOCKICON
 70
     0
  0
APPID
  5
DEAA
330
746E
100
AcDbSymbolTableRecord
100
AcDbRegAppTableRecord
  2
CONTENTBLOCKDESCRIPTION
 70
     0
  0
APPID
  5
E71D
330
746E
100
AcDbSymbolTableRecord
100
AcDbRegAppTableRecord
  2
CONTENTTABDATA
 70
     0
  0
APPID
  5
E71E
330
746E
100
AcDbSymbolTableRecord
100
AcDbRegAppTableRecord
  2
CONTENTCURRENTTAB
 70
     0
  0
APPID
  5
F3BA
330
746E
100
AcDbSymbolTableRecord
100
AcDbRegAppTableRecord
  2
DRAWINGVARIABLESXDATA
 70
     0
  0
APPID
  5
14381
330
746E
100
AcDbSymbolTableRecord
100
AcDbRegAppTableRecord
  2
ACAD_NAV_VCDISPLAY
 70
     0
  0
APPID
  5
14382
330
746E
100
AcDbSymbolTableRecord
100
AcDbRegAppTableRecord
  2
GradientColor1ACI
 70
     0
  0
APPID
  5
14383
330
746E
100
AcDbSymbolTableRecord
100
AcDbRegAppTableRecord
  2
GradientColor2ACI
 70
     0
  0
APPID
  5
155A2
330
746E
100
AcDbSymbolTableRecord
100
AcDbRegAppTableRecord
  2
ACAD_MLEADERVER
 70
     0
  0
APPID
  5
1578D
330
746E
100
AcDbSymbolTableRecord
100
AcDbRegAppTableRecord
  2
ACAD_EXEMPT_FROM_CAD_STANDARDS
 70
     0
  0
ENDTAB
  0
TABLE
  2
DIMSTYLE
  5
746F
330
0
100
AcDbSymbolTable
 70
     2
100
AcDbDimStyleTable
 71
     1
340
F71F
  0
DIMSTYLE
105
F71F
102
{ACAD_REACTORS
330
149D9
330
149DA
330
149DB
330
149DF
330
149E0
330
149E1
330
14A03
330
14A04
330
14A05
330
14A06
330
14A10
330
14A11
330
14A12
330
14A13
330
14A14
330
14A15
330
14A16
330
14A17
330
14A18
330
14A19
330
14851
330
14852
330
14853
330
14854
330
14855
330
14856
330
14857
330
14858
330
14859
330
148CF
330
148D0
330
1538D
330
15380
102
}
330
746F
100
AcDbSymbolTableRecord
100
AcDbDimStyleTableRecord
  2
INABA_S30G
 70
     0
 40
30.0
 41
2.5
 42
0.5
 43
7.0
 44
1.5
 73
     0
 74
     0
 77
     3
 78
     8
140
3.0
141
0.0
143
0.0394
147
1.0
172
     1
173
     1
174
     1
175
     1
178
     7
271
     1
340
F706
341
F770
343
F770
344
F770
  0
DIMSTYLE
105
1383A
330
746F
100
AcDbSymbolTableRecord
100
AcDbDimStyleTableRecord
  2
INABA_S50G
 70
     0
 41
125.0
 42
25.0
 43
7.0
 44
75.0
 73
     0
 74
     0
 77
     3
 78
     8
140
150.0
141
0.0
143
0.0394
147
25.0
172
     1
173
     1
174
     1
178
     7
271
     1
340
F706
341
F770
343
F770
344
F770
  0
ENDTAB
  0
TABLE
  2
BLOCK_RECORD
  5
7466
330
0
100
AcDbSymbolTable
 70
    34
  0
BLOCK_RECORD
  5
747D
330
7466
100
AcDbSymbolTableRecord
100
AcDbBlockTableRecord
  2
*MODEL_SPACE
340
13420
  0
BLOCK_RECORD
  5
747A
330
7466
100
AcDbSymbolTableRecord
100
AcDbBlockTableRecord
  2
*PAPER_SPACE
340
13421
  0
BLOCK_RECORD
  5
F770
330
7466
100
AcDbSymbolTableRecord
100
AcDbBlockTableRecord
  2
_DOTSMALL
340
0
102
{BLKREFS
331
15615
331
15616
331
1561F
331
15620
331
15628
331
15629
331
15631
331
15632
331
1563A
331
1563B
331
15643
331
15644
331
1564C
331
1564D
331
15657
331
15658
331
15662
331
15663
331
1566C
331
1566D
331
15677
331
15678
331
15680
331
15681
331
15698
331
15699
331
156A1
331
156A2
331
156AB
331
156AC
331
156B4
331
156B5
331
156BD
331
156BE
331
156C6
331
156C7
331
156CF
331
156D0
331
156D8
331
156D9
331
156E1
331
156E2
331
156EA
331
156EB
331
156F3
331
156F4
331
156FC
331
156FD
331
15705
331
15706
331
1570E
331
1570F
331
15717
331
15718
331
15720
331
15721
331
15729
331
1572A
331
15732
331
15733
331
1573B
331
1573C
102
}
  0
BLOCK_RECORD
  5
14A64
330
7466
100
AcDbSymbolTableRecord
100
AcDbBlockTableRecord
  2
*D1
340
0
  0
BLOCK_RECORD
  5
14A70
330
7466
100
AcDbSymbolTableRecord
100
AcDbBlockTableRecord
  2
*D2
340
0
  0
BLOCK_RECORD
  5
14A7A
330
7466
100
AcDbSymbolTableRecord
100
AcDbBlockTableRecord
  2
*D3
340
0
  0
BLOCK_RECORD
  5
14AAA
330
7466
100
AcDbSymbolTableRecord
100
AcDbBlockTableRecord
  2
*D4
340
0
  0
BLOCK_RECORD
  5
14AB7
330
7466
100
AcDbSymbolTableRecord
100
AcDbBlockTableRecord
  2
*D5
340
0
  0
BLOCK_RECORD
  5
14AC3
330
7466
100
AcDbSymbolTableRecord
100
AcDbBlockTableRecord
  2
*D6
340
0
  0
BLOCK_RECORD
  5
14B78
330
7466
100
AcDbSymbolTableRecord
100
AcDbBlockTableRecord
  2
*D7
340
0
  0
BLOCK_RECORD
  5
14B84
330
7466
100
AcDbSymbolTableRecord
100
AcDbBlockTableRecord
  2
*D8
340
0
  0
BLOCK_RECORD
  5
14B90
330
7466
100
AcDbSymbolTableRecord
100
AcDbBlockTableRecord
  2
*D9
340
0
  0
BLOCK_RECORD
  5
14B9C
330
7466
100
AcDbSymbolTableRecord
100
AcDbBlockTableRecord
  2
*D10
340
0
  0
BLOCK_RECORD
  5
14BA8
330
7466
100
AcDbSymbolTableRecord
100
AcDbBlockTableRecord
  2
*D11
340
0
  0
BLOCK_RECORD
  5
14BB4
330
7466
100
AcDbSymbolTableRecord
100
AcDbBlockTableRecord
  2
*D12
340
0
  0
BLOCK_RECORD
  5
14BC0
330
7466
100
AcDbSymbolTableRecord
100
AcDbBlockTableRecord
  2
*D13
340
0
  0
BLOCK_RECORD
  5
14BCC
330
7466
100
AcDbSymbolTableRecord
100
AcDbBlockTableRecord
  2
*D14
340
0
  0
BLOCK_RECORD
  5
14BD8
330
7466
100
AcDbSymbolTableRecord
100
AcDbBlockTableRecord
  2
*D15
340
0
  0
BLOCK_RECORD
  5
14BE4
330
7466
100
AcDbSymbolTableRecord
100
AcDbBlockTableRecord
  2
*D16
340
0
  0
BLOCK_RECORD
  5
14BF0
330
7466
100
AcDbSymbolTableRecord
100
AcDbBlockTableRecord
  2
*D17
340
0
  0
BLOCK_RECORD
  5
14BFC
330
7466
100
AcDbSymbolTableRecord
100
AcDbBlockTableRecord
  2
*D18
340
0
  0
BLOCK_RECORD
  5
14C08
330
7466
100
AcDbSymbolTableRecord
100
AcDbBlockTableRecord
  2
*D19
340
0
  0
BLOCK_RECORD
  5
14C14
330
7466
100
AcDbSymbolTableRecord
100
AcDbBlockTableRecord
  2
*D20
340
0
  0
BLOCK_RECORD
  5
14C92
330
7466
100
AcDbSymbolTableRecord
100
AcDbBlockTableRecord
  2
*D21
340
0
  0
BLOCK_RECORD
  5
14C9F
330
7466
100
AcDbSymbolTableRecord
100
AcDbBlockTableRecord
  2
*D22
340
0
  0
BLOCK_RECORD
  5
14CAC
330
7466
100
AcDbSymbolTableRecord
100
AcDbBlockTableRecord
  2
*D23
340
0
  0
BLOCK_RECORD
  5
14CB8
330
7466
100
AcDbSymbolTableRecord
100
AcDbBlockTableRecord
  2
*D24
340
0
  0
BLOCK_RECORD
  5
14CC4
330
7466
100
AcDbSymbolTableRecord
100
AcDbBlockTableRecord
  2
*D25
340
0
  0
BLOCK_RECORD
  5
14CD0
330
7466
100
AcDbSymbolTableRecord
100
AcDbBlockTableRecord
  2
*D26
340
0
  0
BLOCK_RECORD
  5
14CDC
330
7466
100
AcDbSymbolTableRecord
100
AcDbBlockTableRecord
  2
*D27
340
0
  0
BLOCK_RECORD
  5
14CE8
330
7466
100
AcDbSymbolTableRecord
100
AcDbBlockTableRecord
  2
*D28
340
0
  0
BLOCK_RECORD
  5
14CF6
330
7466
100
AcDbSymbolTableRecord
100
AcDbBlockTableRecord
  2
*D29
340
0
  0
BLOCK_RECORD
  5
14D04
330
7466
100
AcDbSymbolTableRecord
100
AcDbBlockTableRecord
  2
*D30
340
0
  0
BLOCK_RECORD
  5
14D11
330
7466
100
AcDbSymbolTableRecord
100
AcDbBlockTableRecord
  2
*D31
340
0
  0
BLOCK_RECORD
  5
15381
330
7466
100
AcDbSymbolTableRecord
100
AcDbBlockTableRecord
  2
*D32
340
0
  0
BLOCK_RECORD
  5
1538E
330
7466
100
AcDbSymbolTableRecord
100
AcDbBlockTableRecord
  2
*D33
340
0
  0
ENDTAB
  0
ENDSEC
  0
SECTION
  2
BLOCKS
  0
BLOCK
  5
7489
330
747D
100
AcDbEntity
  8
0
100
AcDbBlockBegin
  2
*MODEL_SPACE
 70
     0
 10
0.0
 20
0.0
 30
0.0
  3
*MODEL_SPACE
  1

  0
ENDBLK
  5
748A
330
747D
100
AcDbEntity
  8
0
100
AcDbBlockEnd
  0
BLOCK
  5
7487
330
747A
100
AcDbEntity
 67
     1
  8
0
100
AcDbBlockBegin
  2
*PAPER_SPACE
 70
     0
 10
0.0
 20
0.0
 30
0.0
  3
*PAPER_SPACE
  1

  0
ENDBLK
  5
7488
330
747A
100
AcDbEntity
 67
     1
  8
0
100
AcDbBlockEnd
  0
BLOCK
  5
F771
330
F770
100
AcDbEntity
  8
0
 48
50.0
100
AcDbBlockBegin
  2
_DOTSMALL
 70
     0
 10
0.0
 20
0.0
 30
0.0
  3
_DOTSMALL
  1

  0
LWPOLYLINE
  5
F772
330
F770
100
AcDbEntity
  8
0
  6
ByBlock
 62
     0
 48
50.0
100
AcDbPolyline
 90
        2
 70
     1
 43
0.5
 10
-0.0625
 20
0.0
 42
1.0
 10
0.0625
 20
0.0
 42
1.0
  0
ENDBLK
  5
F776
330
F770
100
AcDbEntity
  8
0
 48
50.0
100
AcDbBlockEnd
  0
BLOCK
  5
14A65
330
14A64
100
AcDbEntity
  8
0
 48
50.0
100
AcDbBlockBegin
  2
*D1
 70
     1
 10
0.0
 20
0.0
 30
0.0
  3
*D1
  1

  0
LINE
  5
1567D
330
14A64
100
AcDbEntity
  8
寸法
 62
     0
 48
50.0
370
    -2
100
AcDbLine
 10
1408.796722801198
 20
2039.867941370018
 30
0.0
 11
1408.796722801198
 21
1544.880223033486
 31
0.0
  0
LINE
  5
1567E
330
14A64
100
AcDbEntity
  8
寸法
 62
     0
 48
50.0
370
    -2
100
AcDbLine
 10
6668.796722801082
 20
2039.867941370033
 30
0.0
 11
6668.796722801082
 21
1544.880223033486
 31
0.0
  0
LINE
  5
1567F
330
14A64
100
AcDbEntity
  8
寸法
 62
     0
 48
50.0
370
    -2
100
AcDbLine
 10
1408.796722801198
 20
1589.880223033486
 30
0.0
 11
6668.796722801082
 21
1589.880223033486
 31
0.0
  0
INSERT
  5
15680
330
14A64
100
AcDbEntity
  8
寸法
 62
     0
 48
50.0
370
    -2
100
AcDbBlockReference
  2
_DOTSMALL
 10
1408.796722801198
 20
1589.880223033486
 30
0.0
 41
75.0
 42
75.0
 43
75.0
 50
180.0
  0
INSERT
  5
15681
330
14A64
100
AcDbEntity
  8
寸法
 62
     0
 48
50.0
370
    -2
100
AcDbBlockReference
  2
_DOTSMALL
 10
6668.796722801082
 20
1589.880223033486
 30
0.0
 41
75.0
 42
75.0
 43
75.0
  0
MTEXT
  5
15682
330
14A64
100
AcDbEntity
  8
寸法
 62
     7
 48
50.0
100
AcDbMText
 10
4038.79672280114
 20
1664.889081301202
 30
0.0
 40
90.0
 41
0.0
 71
     5
 72
     1
  1
\A1;屋根寸法 5260
  7
STYLE1
 73
     1
 44
1.0
1001
ACAD
1000
MTEXTBEGIN
1070
    73
1070
     1
1070
    44
1040
1.0
1070
    74
1070
     0
1000
MTEXTEND
  0
POINT
  5
15683
330
14A64
100
AcDbEntity
  8
DEFPOINTS
 62
     0
 48
50.0
100
AcDbPoint
 10
1408.796722801198
 20
2054.867941370018
 30
0.0
  0
POINT
  5
15684
330
14A64
100
AcDbEntity
  8
DEFPOINTS
 62
     0
 48
50.0
100
AcDbPoint
 10
6668.796722801082
 20
2054.867941370032
 30
0.0
  0
POINT
  5
15685
330
14A64
100
AcDbEntity
  8
DEFPOINTS
 62
     0
 48
50.0
100
AcDbPoint
 10
6668.796722801082
 20
1589.880223033486
 30
0.0
  0
ENDBLK
  5
14A66
330
14A64
100
AcDbEntity
  8
0
 48
50.0
100
AcDbBlockEnd
  0
BLOCK
  5
14A71
330
14A70
100
AcDbEntity
  8
0
 48
50.0
100
AcDbBlockBegin
  2
*D2
 70
     1
 10
0.0
 20
0.0
 30
0.0
  3
*D2
  1

  0
LINE
  5
15686
330
14A70
100
AcDbEntity
  8
寸法
 62
     0
 48
50.0
370
    -2
100
AcDbLine
 10
1408.796722801198
 20
2039.867941370018
 30
0.0
 11
1408.796722801198
 21
1544.880223033486
 31
0.0
  0
LINE
  5
15687
330
14A70
100
AcDbEntity
  8
寸法
 62
     0
 48
50.0
370
    -2
100
AcDbLine
 10
1238.79672280114
 20
1903.367941370032
 30
0.0
 11
1238.79672280114
 21
1544.880223033486
 31
0.0
  0
LINE
  5
15688
330
14A70
100
AcDbEntity
  8
寸法
 62
     0
 48
50.0
370
    -2
100
AcDbLine
 10
1408.796722801198
 20
1589.880223033486
 30
0.0
 11
1238.79672280114
 21
1589.880223033486
 31
0.0
  0
MTEXT
  5
15689
330
14A70
100
AcDbEntity
  8
寸法
 62
     7
 48
50.0
100
AcDbMText
 10
1323.796722801169
 20
1664.880223033486
 30
0.0
 40
90.0
 41
0.0
 71
     5
 72
     1
  1
\A1;170
  7
STYLE1
 73
     1
 44
1.0
1001
ACAD
1000
MTEXTBEGIN
1070
    73
1070
     1
1070
    44
1040
1.0
1070
    74
1070
     0
1000
MTEXTEND
  0
POINT
  5
1568A
330
14A70
100
AcDbEntity
  8
DEFPOINTS
 62
     0
 48
50.0
100
AcDbPoint
 10
1408.796722801198
 20
2054.867941370018
 30
0.0
  0
POINT
  5
1568B
330
14A70
100
AcDbEntity
  8
DEFPOINTS
 62
     0
 48
50.0
100
AcDbPoint
 10
1238.79672280114
 20
1918.367941370032
 30
0.0
  0
POINT
  5
1568C
330
14A70
100
AcDbEntity
  8
DEFPOINTS
 62
     0
 48
50.0
100
AcDbPoint
 10
1238.79672280114
 20
1589.880223033486
 30
0.0
  0
ENDBLK
  5
14A72
330
14A70
100
AcDbEntity
  8
0
 48
50.0
100
AcDbBlockEnd
  0
BLOCK
  5
14A7B
330
14A7A
100
AcDbEntity
  8
0
 48
50.0
100
AcDbBlockBegin
  2
*D3
 70
     1
 10
0.0
 20
0.0
 30
0.0
  3
*D3
  1

  0
LINE
  5
1568D
330
14A7A
100
AcDbEntity
  8
寸法
 62
     0
 48
50.0
370
    -2
100
AcDbLine
 10
6668.796722801082
 20
2039.867941370033
 30
0.0
 11
6668.796722801082
 21
1544.880223033486
 31
0.0
  0
LINE
  5
1568E
330
14A7A
100
AcDbEntity
  8
寸法
 62
     0
 48
50.0
370
    -2
100
AcDbLine
 10
6838.796722801141
 20
1903.367941370032
 30
0.0
 11
6838.796722801141
 21
1544.880223033486
 31
0.0
  0
LINE
  5
1568F
330
14A7A
100
AcDbEntity
  8
寸法
 62
     0
 48
50.0
370
    -2
100
AcDbLine
 10
6668.796722801082
 20
1589.880223033486
 30
0.0
 11
6838.796722801141
 21
1589.880223033486
 31
0.0
  0
MTEXT
  5
15690
330
14A7A
100
AcDbEntity
  8
寸法
 62
     7
 48
50.0
100
AcDbMText
 10
6753.796722801111
 20
1664.880223033486
 30
0.0
 40
90.0
 41
0.0
 71
     5
 72
     1
  1
\A1;170
  7
STYLE1
 73
     1
 44
1.0
1001
ACAD
1000
MTEXTBEGIN
1070
    73
1070
     1
1070
    44
1040
1.0
1070
    74
1070
     0
1000
MTEXTEND
  0
POINT
  5
15691
330
14A7A
100
AcDbEntity
  8
DEFPOINTS
 62
     0
 48
50.0
100
AcDbPoint
 10
6668.796722801082
 20
2054.867941370032
 30
0.0
  0
POINT
  5
15692
330
14A7A
100
AcDbEntity
  8
DEFPOINTS
 62
     0
 48
50.0
100
AcDbPoint
 10
6838.796722801141
 20
1918.367941370032
 30
0.0
  0
POINT
  5
15693
330
14A7A
100
AcDbEntity
  8
DEFPOINTS
 62
     0
 48
50.0
100
AcDbPoint
 10
6838.796722801141
 20
1589.880223033486
 30
0.0
  0
ENDBLK
  5
14A7C
330
14A7A
100
AcDbEntity
  8
0
 48
50.0
100
AcDbBlockEnd
  0
BLOCK
  5
14AAB
330
14AAA
100
AcDbEntity
  8
0
 48
50.0
100
AcDbBlockBegin
  2
*D4
 70
     1
 10
0.0
 20
0.0
 30
0.0
  3
*D4
  1

  0
LINE
  5
15694
330
14AAA
100
AcDbEntity
  8
寸法
 62
     0
 48
50.0
370
    -2
100
AcDbLine
 10
6683.796722801083
 20
2054.867941370032
 30
0.0
 11
7266.070945164743
 21
2054.867941370032
 31
0.0
  0
LINE
  5
15695
330
14AAA
100
AcDbEntity
  8
寸法
 62
     0
 48
50.0
370
    -2
100
AcDbLine
 10
6853.796722801141
 20
1918.367941370032
 30
0.0
 11
7266.070945164742
 21
1918.367941370032
 31
0.0
  0
LINE
  5
15696
330
14AAA
100
AcDbEntity
  8
寸法
 62
     0
 48
50.0
370
    -2
100
AcDbLine
 10
7221.070945164743
 20
2054.867941370032
 30
0.0
 11
7221.070945164742
 21
1918.367941370032
 31
0.0
  0
LINE
  5
15697
330
14AAA
100
AcDbEntity
  8
寸法
 62
     0
 48
50.0
370
    -2
100
AcDbLine
 10
7221.070945164742
 20
1918.367941370032
 30
0.0
 11
7221.070945164742
 21
1545.640019308674
 31
0.0
  0
INSERT
  5
15698
330
14AAA
100
AcDbEntity
  8
寸法
 62
     0
 48
50.0
370
    -2
100
AcDbBlockReference
  2
_DOTSMALL
 10
7221.070945164743
 20
2054.867941370032
 30
0.0
 41
75.0
 42
75.0
 43
75.0
 50
90.0
  0
INSERT
  5
15699
330
14AAA
100
AcDbEntity
  8
寸法
 62
     0
 48
50.0
370
    -2
100
AcDbBlockReference
  2
_DOTSMALL
 10
7221.070945164742
 20
1918.367941370032
 30
0.0
 41
75.0
 42
75.0
 43
75.0
 50
270.0
  0
MTEXT
  5
1569A
330
14AAA
100
AcDbEntity
  8
寸法
 62
     7
 48
50.0
100
AcDbMText
 10
7146.070945164741
 20
1694.503980339354
 30
0.0
 40
90.0
 41
0.0
 71
     5
 72
     1
  1
\A1;136.5
  7
STYLE1
 11
0.0000000000000001
 21
1.0
 31
0.0
 73
     1
 44
1.0
1001
ACAD
1000
MTEXTBEGIN
1070
    73
1070
     1
1070
    44
1040
1.0
1070
    74
1070
     0
1000
MTEXTEND
  0
POINT
  5
1569B
330
14AAA
100
AcDbEntity
  8
DEFPOINTS
 62
     0
 48
50.0
100
AcDbPoint
 10
6668.796722801082
 20
2054.867941370032
 30
0.0
  0
POINT
  5
1569C
330
14AAA
100
AcDbEntity
  8
DEFPOINTS
 62
     0
 48
50.0
100
AcDbPoint
 10
6838.796722801141
 20
1918.367941370032
 30
0.0
  0
POINT
  5
1569D
330
14AAA
100
AcDbEntity
  8
DEFPOINTS
 62
     0
 48
50.0
100
AcDbPoint
 10
7221.070945164742
 20
1918.367941370032
 30
0.0
  0
ENDBLK
  5
14AAC
330
14AAA
100
AcDbEntity
  8
0
 48
50.0
100
AcDbBlockEnd
  0
BLOCK
  5
14AB8
330
14AB7
100
AcDbEntity
  8
0
 48
50.0
100
AcDbBlockBegin
  2
*D5
 70
     1
 10
0.0
 20
0.0
 30
0.0
  3
*D5
  1

  0
LINE
  5
1569E
330
14AB7
100
AcDbEntity
  8
寸法
 62
     0
 48
50.0
370
    -2
100
AcDbLine
 10
6683.796722801083
 20
6131.867941370032
 30
0.0
 11
7266.070945164742
 21
6131.867941370032
 31
0.0
  0
LINE
  5
1569F
330
14AB7
100
AcDbEntity
  8
寸法
 62
     0
 48
50.0
370
    -2
100
AcDbLine
 10
6683.796722801083
 20
2054.867941370032
 30
0.0
 11
7266.070945164742
 21
2054.867941370032
 31
0.0
  0
LINE
  5
156A0
330
14AB7
100
AcDbEntity
  8
寸法
 62
     0
 48
50.0
370
    -2
100
AcDbLine
 10
7221.070945164742
 20
6131.867941370032
 30
0.0
 11
7221.070945164742
 21
2054.867941370032
 31
0.0
  0
INSERT
  5
156A1
330
14AB7
100
AcDbEntity
  8
寸法
 62
     0
 48
50.0
370
    -2
100
AcDbBlockReference
  2
_DOTSMALL
 10
7221.070945164742
 20
6131.867941370032
 30
0.0
 41
75.0
 42
75.0
 43
75.0
 50
90.0
  0
INSERT
  5
156A2
330
14AB7
100
AcDbEntity
  8
寸法
 62
     0
 48
50.0
370
    -2
100
AcDbBlockReference
  2
_DOTSMALL
 10
7221.070945164742
 20
2054.867941370032
 30
0.0
 41
75.0
 42
75.0
 43
75.0
 50
270.0
  0
MTEXT
  5
156A3
330
14AB7
100
AcDbEntity
  8
寸法
 62
     7
 48
50.0
100
AcDbMText
 10
7146.070945164741
 20
4093.367941370033
 30
0.0
 40
90.0
 41
0.0
 71
     5
 72
     1
  1
\A1;屋根寸法 4077
  7
STYLE1
 11
0.0000000000000001
 21
1.0
 31
0.0
 73
     1
 44
1.0
1001
ACAD
1000
MTEXTBEGIN
1070
    73
1070
     1
1070
    44
1040
1.0
1070
    74
1070
     0
1000
MTEXTEND
  0
POINT
  5
156A4
330
14AB7
100
AcDbEntity
  8
DEFPOINTS
 62
     0
 48
50.0
100
AcDbPoint
 10
6668.796722801082
 20
6131.867941370032
 30
0.0
  0
POINT
  5
156A5
330
14AB7
100
AcDbEntity
  8
DEFPOINTS
 62
     0
 48
50.0
100
AcDbPoint
 10
6668.796722801082
 20
2054.867941370032
 30
0.0
  0
POINT
  5
156A6
330
14AB7
100
AcDbEntity
  8
DEFPOINTS
 62
     0
 48
50.0
100
AcDbPoint
 10
7221.070945164742
 20
2054.867941370032
 30
0.0
  0
ENDBLK
  5
14AB9
330
14AB7
100
AcDbEntity
  8
0
 48
50.0
100
AcDbBlockEnd
  0
BLOCK
  5
14AC4
330
14AC3
100
AcDbEntity
  8
0
 48
50.0
100
AcDbBlockBegin
  2
*D6
 70
     1
 10
0.0
 20
0.0
 30
0.0
  3
*D6
  1

  0
LINE
  5
156A7
330
14AC3
100
AcDbEntity
  8
寸法
 62
     0
 48
50.0
370
    -2
100
AcDbLine
 10
6683.796722801083
 20
6131.867941370032
 30
0.0
 11
7266.070945164743
 21
6131.867941370032
 31
0.0
  0
LINE
  5
156A8
330
14AC3
100
AcDbEntity
  8
寸法
 62
     0
 48
50.0
370
    -2
100
AcDbLine
 10
6853.796722801141
 20
6268.367941370032
 30
0.0
 11
7266.070945164743
 21
6268.367941370032
 31
0.0
  0
LINE
  5
156A9
330
14AC3
100
AcDbEntity
  8
寸法
 62
     0
 48
50.0
370
    -2
100
AcDbLine
 10
7221.070945164743
 20
6131.867941370032
 30
0.0
 11
7221.070945164743
 21
6268.367941370032
 31
0.0
  0
LINE
  5
156AA
330
14AC3
100
AcDbEntity
  8
寸法
 62
     0
 48
50.0
370
    -2
100
AcDbLine
 10
7221.070945164743
 20
6268.367941370032
 30
0.0
 11
7221.070945164743
 21
6641.095863431438
 31
0.0
  0
INSERT
  5
156AB
330
14AC3
100
AcDbEntity
  8
寸法
 62
     0
 48
50.0
370
    -2
100
AcDbBlockReference
  2
_DOTSMALL
 10
7221.070945164743
 20
6131.867941370032
 30
0.0
 41
75.0
 42
75.0
 43
75.0
 50
270.0
  0
INSERT
  5
156AC
330
14AC3
100
AcDbEntity
  8
寸法
 62
     0
 48
50.0
370
    -2
100
AcDbBlockReference
  2
_DOTSMALL
 10
7221.070945164743
 20
6268.367941370032
 30
0.0
 41
75.0
 42
75.0
 43
75.0
 50
90.0
  0
MTEXT
  5
156AD
330
14AC3
100
AcDbEntity
  8
寸法
 62
     7
 48
50.0
100
AcDbMText
 10
7146.070945164741
 20
6492.23190240076
 30
0.0
 40
90.0
 41
0.0
 71
     5
 72
     1
  1
\A1;136.5
  7
STYLE1
 11
0.0000000000000001
 21
1.0
 31
0.0
 73
     1
 44
1.0
1001
ACAD
1000
MTEXTBEGIN
1070
    73
1070
     1
1070
    44
1040
1.0
1070
    74
1070
     0
1000
MTEXTEND
  0
POINT
  5
156AE
330
14AC3
100
AcDbEntity
  8
DEFPOINTS
 62
     0
 48
50.0
100
AcDbPoint
 10
6668.796722801082
 20
6131.867941370032
 30
0.0
  0
POINT
  5
156AF
330
14AC3
100
AcDbEntity
  8
DEFPOINTS
 62
     0
 48
50.0
100
AcDbPoint
 10
6838.796722801141
 20
6268.367941370032
 30
0.0
  0
POINT
  5
156B0
330
14AC3
100
AcDbEntity
  8
DEFPOINTS
 62
     0
 48
50.0
100
AcDbPoint
 10
7221.070945164743
 20
6268.367941370032
 30
0.0
  0
ENDBLK
  5
14AC5
330
14AC3
100
AcDbEntity
  8
0
 48
50.0
100
AcDbBlockEnd
  0
BLOCK
  5
14B79
330
14B78
100
AcDbEntity
  8
0
 48
50.0
100
AcDbBlockBegin
  2
*D7
 70
     1
 10
0.0
 20
0.0
 30
0.0
  3
*D7
  1

  0
LINE
  5
156B1
330
14B78
100
AcDbEntity
  8
寸法
 62
     0
 48
50.0
370
    -2
100
AcDbLine
 10
1223.796722801111
 20
6268.367941370032
 30
0.0
 11
630.175524073421
 21
6268.367941370032
 31
0.0
  0
LINE
  5
156B2
330
14B78
100
AcDbEntity
  8
寸法
 62
     0
 48
50.0
370
    -2
100
AcDbLine
 10
1223.796722801111
 20
1918.367941370032
 30
0.0
 11
630.1755240734201
 21
1918.367941370032
 31
0.0
  0
LINE
  5
156B3
330
14B78
100
AcDbEntity
  8
寸法
 62
     0
 48
50.0
370
    -2
100
AcDbLine
 10
675.175524073421
 20
6268.367941370032
 30
0.0
 11
675.17552407342
 21
1918.367941370032
 31
0.0
  0
INSERT
  5
156B4
330
14B78
100
AcDbEntity
  8
寸法
 62
     0
 48
50.0
370
    -2
100
AcDbBlockReference
  2
_DOTSMALL
 10
675.175524073421
 20
6268.367941370032
 30
0.0
 41
75.0
 42
75.0
 43
75.0
 50
90.0
  0
INSERT
  5
156B5
330
14B78
100
AcDbEntity
  8
寸法
 62
     0
 48
50.0
370
    -2
100
AcDbBlockReference
  2
_DOTSMALL
 10
675.17552407342
 20
1918.367941370032
 30
0.0
 41
75.0
 42
75.0
 43
75.0
 50
270.0
  0
MTEXT
  5
156B6
330
14B78
100
AcDbEntity
  8
寸法
 62
     7
 48
50.0
100
AcDbMText
 10
600.1755240734198
 20
4093.367941370032
 30
0.0
 40
90.0
 41
0.0
 71
     5
 72
     1
  1
\A1;基礎土間寸法 4350
  7
STYLE1
 11
0.0000000000000001
 21
1.0
 31
0.0
 73
     1
 44
1.0
1001
ACAD
1000
MTEXTBEGIN
1070
    73
1070
     1
1070
    44
1040
1.0
1070
    74
1070
     0
1000
MTEXTEND
  0
POINT
  5
156B7
330
14B78
100
AcDbEntity
  8
DEFPOINTS
 62
     0
 48
50.0
100
AcDbPoint
 10
1238.796722801111
 20
6268.367941370032
 30
0.0
  0
POINT
  5
156B8
330
14B78
100
AcDbEntity
  8
DEFPOINTS
 62
     0
 48
50.0
100
AcDbPoint
 10
1238.796722801111
 20
1918.367941370032
 30
0.0
  0
POINT
  5
156B9
330
14B78
100
AcDbEntity
  8
DEFPOINTS
 62
     0
 48
50.0
100
AcDbPoint
 10
675.17552407342
 20
1918.367941370032
 30
0.0
  0
ENDBLK
  5
14B7A
330
14B78
100
AcDbEntity
  8
0
 48
50.0
100
AcDbBlockEnd
  0
BLOCK
  5
14B85
330
14B84
100
AcDbEntity
  8
0
 48
50.0
100
AcDbBlockBegin
  2
*D8
 70
     1
 10
0.0
 20
0.0
 30
0.0
  3
*D8
  1

  0
LINE
  5
156BA
330
14B84
100
AcDbEntity
  8
寸法
 62
     0
 48
50.0
370
    -2
100
AcDbLine
 10
1373.796722801111
 20
3918.367941370032
 30
0.0
 11
852.9248860898665
 21
3918.367941370033
 31
0.0
  0
LINE
  5
156BB
330
14B84
100
AcDbEntity
  8
寸法
 62
     0
 48
50.0
370
    -2
100
AcDbLine
 10
1223.796722801111
 20
1918.367941370032
 30
0.0
 11
852.9248860898659
 21
1918.367941370032
 31
0.0
  0
LINE
  5
156BC
330
14B84
100
AcDbEntity
  8
寸法
 62
     0
 48
50.0
370
    -2
100
AcDbLine
 10
897.9248860898664
 20
3918.367941370033
 30
0.0
 11
897.924886089866
 21
1918.367941370032
 31
0.0
  0
INSERT
  5
156BD
330
14B84
100
AcDbEntity
  8
寸法
 62
     0
 48
50.0
370
    -2
100
AcDbBlockReference
  2
_DOTSMALL
 10
897.9248860898664
 20
3918.367941370033
 30
0.0
 41
75.0
 42
75.0
 43
75.0
 50
90.0
  0
INSERT
  5
156BE
330
14B84
100
AcDbEntity
  8
寸法
 62
     0
 48
50.0
370
    -2
100
AcDbBlockReference
  2
_DOTSMALL
 10
897.924886089866
 20
1918.367941370032
 30
0.0
 41
75.0
 42
75.0
 43
75.0
 50
270.0
  0
MTEXT
  5
156BF
330
14B84
100
AcDbEntity
  8
寸法
 62
     7
 48
50.0
100
AcDbMText
 10
822.9160278221494
 20
2918.367941370033
 30
0.0
 40
90.0
 41
0.0
 71
     5
 72
     1
  1
\A1;2000
  7
STYLE1
 11
0.0000000000000001
 21
1.0
 31
0.0
 73
     1
 44
1.0
1001
ACAD
1000
MTEXTBEGIN
1070
    73
1070
     1
1070
    44
1040
1.0
1070
    74
1070
     0
1000
MTEXTEND
  0
POINT
  5
156C0
330
14B84
100
AcDbEntity
  8
DEFPOINTS
 62
     0
 48
50.0
100
AcDbPoint
 10
1388.796722801111
 20
3918.367941370032
 30
0.0
  0
POINT
  5
156C1
330
14B84
100
AcDbEntity
  8
DEFPOINTS
 62
     0
 48
50.0
100
AcDbPoint
 10
1238.796722801111
 20
1918.367941370032
 30
0.0
  0
POINT
  5
156C2
330
14B84
100
AcDbEntity
  8
DEFPOINTS
 62
     0
 48
50.0
100
AcDbPoint
 10
897.924886089866
 20
1918.367941370032
 30
0.0
  0
ENDBLK
  5
14B86
330
14B84
100
AcDbEntity
  8
0
 48
50.0
100
AcDbBlockEnd
  0
BLOCK
  5
14B91
330
14B90
100
AcDbEntity
  8
0
 48
50.0
100
AcDbBlockBegin
  2
*D9
 70
     1
 10
0.0
 20
0.0
 30
0.0
  3
*D9
  1

  0
LINE
  5
156C3
330
14B90
100
AcDbEntity
  8
寸法
 62
     0
 48
50.0
370
    -2
100
AcDbLine
 10
1373.796722801111
 20
4268.367941370032
 30
0.0
 11
852.9248860898659
 21
4268.367941370032
 31
0.0
  0
LINE
  5
156C4
330
14B90
100
AcDbEntity
  8
寸法
 62
     0
 48
50.0
370
    -2
100
AcDbLine
 10
1373.796722801111
 20
3918.367941370032
 30
0.0
 11
852.9248860898659
 21
3918.367941370033
 31
0.0
  0
LINE
  5
156C5
330
14B90
100
AcDbEntity
  8
寸法
 62
     0
 48
50.0
370
    -2
100
AcDbLine
 10
897.924886089866
 20
4268.367941370032
 30
0.0
 11
897.924886089866
 21
3918.367941370033
 31
0.0
  0
INSERT
  5
156C6
330
14B90
100
AcDbEntity
  8
寸法
 62
     0
 48
50.0
370
    -2
100
AcDbBlockReference
  2
_DOTSMALL
 10
897.924886089866
 20
4268.367941370032
 30
0.0
 41
75.0
 42
75.0
 43
75.0
 50
90.0
  0
INSERT
  5
156C7
330
14B90
100
AcDbEntity
  8
寸法
 62
     0
 48
50.0
370
    -2
100
AcDbBlockReference
  2
_DOTSMALL
 10
897.924886089866
 20
3918.367941370033
 30
0.0
 41
75.0
 42
75.0
 43
75.0
 50
270.0
  0
MTEXT
  5
156C8
330
14B90
100
AcDbEntity
  8
寸法
 62
     7
 48
50.0
100
AcDbMText
 10
822.9248860898653
 20
4093.367941370032
 30
0.0
 40
90.0
 41
0.0
 71
     5
 72
     1
  1
\A1;350
  7
STYLE1
 11
0.0000000000000001
 21
1.0
 31
0.0
 73
     1
 44
1.0
1001
ACAD
1000
MTEXTBEGIN
1070
    73
1070
     1
1070
    44
1040
1.0
1070
    74
1070
     0
1000
MTEXTEND
  0
POINT
  5
156C9
330
14B90
100
AcDbEntity
  8
DEFPOINTS
 62
     0
 48
50.0
100
AcDbPoint
 10
1388.796722801111
 20
4268.367941370032
 30
0.0
  0
POINT
  5
156CA
330
14B90
100
AcDbEntity
  8
DEFPOINTS
 62
     0
 48
50.0
100
AcDbPoint
 10
1388.796722801111
 20
3918.367941370032
 30
0.0
  0
POINT
  5
156CB
330
14B90
100
AcDbEntity
  8
DEFPOINTS
 62
     0
 48
50.0
100
AcDbPoint
 10
897.924886089866
 20
3918.367941370033
 30
0.0
  0
ENDBLK
  5
14B92
330
14B90
100
AcDbEntity
  8
0
 48
50.0
100
AcDbBlockEnd
  0
BLOCK
  5
14B9D
330
14B9C
100
AcDbEntity
  8
0
 48
50.0
100
AcDbBlockBegin
  2
*D10
 70
     1
 10
0.0
 20
0.0
 30
0.0
  3
*D10
  1

  0
LINE
  5
156CC
330
14B9C
100
AcDbEntity
  8
寸法
 62
     0
 48
50.0
370
    -2
100
AcDbLine
 10
1373.796722801111
 20
4268.367941370032
 30
0.0
 11
852.9248860898656
 21
4268.367941370032
 31
0.0
  0
LINE
  5
156CD
330
14B9C
100
AcDbEntity
  8
寸法
 62
     0
 48
50.0
370
    -2
100
AcDbLine
 10
1223.796722801111
 20
6268.367941370032
 30
0.0
 11
852.9248860898659
 21
6268.367941370032
 31
0.0
  0
LINE
  5
156CE
330
14B9C
100
AcDbEntity
  8
寸法
 62
     0
 48
50.0
370
    -2
100
AcDbLine
 10
897.9248860898655
 20
4268.367941370032
 30
0.0
 11
897.924886089866
 21
6268.367941370032
 31
0.0
  0
INSERT
  5
156CF
330
14B9C
100
AcDbEntity
  8
寸法
 62
     0
 48
50.0
370
    -2
100
AcDbBlockReference
  2
_DOTSMALL
 10
897.9248860898655
 20
4268.367941370032
 30
0.0
 41
75.0
 42
75.0
 43
75.0
 50
270.0
  0
INSERT
  5
156D0
330
14B9C
100
AcDbEntity
  8
寸法
 62
     0
 48
50.0
370
    -2
100
AcDbBlockReference
  2
_DOTSMALL
 10
897.924886089866
 20
6268.367941370032
 30
0.0
 41
75.0
 42
75.0
 43
75.0
 50
90.0
  0
MTEXT
  5
156D1
330
14B9C
100
AcDbEntity
  8
寸法
 62
     7
 48
50.0
100
AcDbMText
 10
822.9160278221485
 20
5268.367941370032
 30
0.0
 40
90.0
 41
0.0
 71
     5
 72
     1
  1
\A1;2000
  7
STYLE1
 11
0.0000000000000001
 21
1.0
 31
0.0
 73
     1
 44
1.0
1001
ACAD
1000
MTEXTBEGIN
1070
    73
1070
     1
1070
    44
1040
1.0
1070
    74
1070
     0
1000
MTEXTEND
  0
POINT
  5
156D2
330
14B9C
100
AcDbEntity
  8
DEFPOINTS
 62
     0
 48
50.0
100
AcDbPoint
 10
1388.796722801111
 20
4268.367941370032
 30
0.0
  0
POINT
  5
156D3
330
14B9C
100
AcDbEntity
  8
DEFPOINTS
 62
     0
 48
50.0
100
AcDbPoint
 10
1238.796722801111
 20
6268.367941370032
 30
0.0
  0
POINT
  5
156D4
330
14B9C
100
AcDbEntity
  8
DEFPOINTS
 62
     0
 48
50.0
100
AcDbPoint
 10
897.924886089866
 20
6268.367941370032
 30
0.0
  0
ENDBLK
  5
14B9E
330
14B9C
100
AcDbEntity
  8
0
 48
50.0
100
AcDbBlockEnd
  0
BLOCK
  5
14BA9
330
14BA8
100
AcDbEntity
  8
0
 48
50.0
100
AcDbBlockBegin
  2
*D11
 70
     1
 10
0.0
 20
0.0
 30
0.0
  3
*D11
  1

  0
LINE
  5
156D5
330
14BA8
100
AcDbEntity
  8
寸法
 62
     0
 48
50.0
370
    -2
100
AcDbLine
 10
1238.79672280114
 20
6283.367941370032
 30
0.0
 11
1238.79672280114
 21
7059.746608242463
 31
0.0
  0
LINE
  5
156D6
330
14BA8
100
AcDbEntity
  8
寸法
 62
     0
 48
50.0
370
    -2
100
AcDbLine
 10
6838.796722801141
 20
6283.367941370032
 30
0.0
 11
6838.796722801141
 21
7059.746608242463
 31
0.0
  0
LINE
  5
156D7
330
14BA8
100
AcDbEntity
  8
寸法
 62
     0
 48
50.0
370
    -2
100
AcDbLine
 10
1238.79672280114
 20
7014.746608242464
 30
0.0
 11
6838.796722801141
 21
7014.746608242464
 31
0.0
  0
INSERT
  5
156D8
330
14BA8
100
AcDbEntity
  8
寸法
 62
     0
 48
50.0
370
    -2
100
AcDbBlockReference
  2
_DOTSMALL
 10
1238.79672280114
 20
7014.746608242464
 30
0.0
 41
75.0
 42
75.0
 43
75.0
 50
180.0
  0
INSERT
  5
156D9
330
14BA8
100
AcDbEntity
  8
寸法
 62
     0
 48
50.0
370
    -2
100
AcDbBlockReference
  2
_DOTSMALL
 10
6838.796722801141
 20
7014.746608242464
 30
0.0
 41
75.0
 42
75.0
 43
75.0
  0
MTEXT
  5
156DA
330
14BA8
100
AcDbEntity
  8
寸法
 62
     7
 48
50.0
100
AcDbMText
 10
4038.79672280114
 20
7089.746608242464
 30
0.0
 40
90.0
 41
0.0
 71
     5
 72
     1
  1
\A1;基礎土間寸法 5600
  7
STYLE1
 73
     1
 44
1.0
1001
ACAD
1000
MTEXTBEGIN
1070
    73
1070
     1
1070
    44
1040
1.0
1070
    74
1070
     0
1000
MTEXTEND
  0
POINT
  5
156DB
330
14BA8
100
AcDbEntity
  8
DEFPOINTS
 62
     0
 48
50.0
100
AcDbPoint
 10
1238.79672280114
 20
6268.367941370032
 30
0.0
  0
POINT
  5
156DC
330
14BA8
100
AcDbEntity
  8
DEFPOINTS
 62
     0
 48
50.0
100
AcDbPoint
 10
6838.796722801141
 20
6268.367941370032
 30
0.0
  0
POINT
  5
156DD
330
14BA8
100
AcDbEntity
  8
DEFPOINTS
 62
     0
 48
50.0
100
AcDbPoint
 10
6838.796722801141
 20
7014.746608242464
 30
0.0
  0
ENDBLK
  5
14BAA
330
14BA8
100
AcDbEntity
  8
0
 48
50.0
100
AcDbBlockEnd
  0
BLOCK
  5
14BB5
330
14BB4
100
AcDbEntity
  8
0
 48
50.0
100
AcDbBlockBegin
  2
*D12
 70
     1
 10
0.0
 20
0.0
 30
0.0
  3
*D12
  1

  0
LINE
  5
156DE
330
14BB4
100
AcDbEntity
  8
寸法
 62
     0
 48
50.0
370
    -2
100
AcDbLine
 10
6438.79672280114
 20
4533.367941370032
 30
0.0
 11
6438.79672280114
 21
6865.709569268145
 31
0.0
  0
LINE
  5
156DF
330
14BB4
100
AcDbEntity
  8
寸法
 62
     0
 48
50.0
370
    -2
100
AcDbLine
 10
6838.796722801141
 20
6283.367941370032
 30
0.0
 11
6838.796722801141
 21
6865.709569268145
 31
0.0
  0
LINE
  5
156E0
330
14BB4
100
AcDbEntity
  8
寸法
 62
     0
 48
50.0
370
    -2
100
AcDbLine
 10
6438.79672280114
 20
6820.709569268145
 30
0.0
 11
6838.796722801141
 21
6820.709569268145
 31
0.0
  0
INSERT
  5
156E1
330
14BB4
100
AcDbEntity
  8
寸法
 62
     0
 48
50.0
370
    -2
100
AcDbBlockReference
  2
_DOTSMALL
 10
6438.79672280114
 20
6820.709569268145
 30
0.0
 41
75.0
 42
75.0
 43
75.0
 50
180.0
  0
INSERT
  5
156E2
330
14BB4
100
AcDbEntity
  8
寸法
 62
     0
 48
50.0
370
    -2
100
AcDbBlockReference
  2
_DOTSMALL
 10
6838.796722801141
 20
6820.709569268145
 30
0.0
 41
75.0
 42
75.0
 43
75.0
  0
MTEXT
  5
156E3
330
14BB4
100
AcDbEntity
  8
寸法
 62
     7
 48
50.0
100
AcDbMText
 10
6638.79672280114
 20
6895.709569268145
 30
0.0
 40
90.0
 41
0.0
 71
     5
 72
     1
  1
\A1;400
  7
STYLE1
 73
     1
 44
1.0
1001
ACAD
1000
MTEXTBEGIN
1070
    73
1070
     1
1070
    44
1040
1.0
1070
    74
1070
     0
1000
MTEXTEND
  0
POINT
  5
156E4
330
14BB4
100
AcDbEntity
  8
DEFPOINTS
 62
     0
 48
50.0
100
AcDbPoint
 10
6438.79672280114
 20
4518.367941370032
 30
0.0
  0
POINT
  5
156E5
330
14BB4
100
AcDbEntity
  8
DEFPOINTS
 62
     0
 48
50.0
100
AcDbPoint
 10
6838.796722801141
 20
6268.367941370032
 30
0.0
  0
POINT
  5
156E6
330
14BB4
100
AcDbEntity
  8
DEFPOINTS
 62
     0
 48
50.0
100
AcDbPoint
 10
6838.796722801141
 20
6820.709569268145
 30
0.0
  0
ENDBLK
  5
14BB6
330
14BB4
100
AcDbEntity
  8
0
 48
50.0
100
AcDbBlockEnd
  0
BLOCK
  5
14BC1
330
14BC0
100
AcDbEntity
  8
0
 48
50.0
100
AcDbBlockBegin
  2
*D13
 70
     1
 10
0.0
 20
0.0
 30
0.0
  3
*D13
  1

  0
LINE
  5
156E7
330
14BC0
100
AcDbEntity
  8
寸法
 62
     0
 48
50.0
370
    -2
100
AcDbLine
 10
1638.79672280114
 20
4533.367941370032
 30
0.0
 11
1638.79672280114
 21
6865.709569268145
 31
0.0
  0
LINE
  5
156E8
330
14BC0
100
AcDbEntity
  8
寸法
 62
     0
 48
50.0
370
    -2
100
AcDbLine
 10
6438.79672280114
 20
4533.367941370032
 30
0.0
 11
6438.79672280114
 21
6865.709569268145
 31
0.0
  0
LINE
  5
156E9
330
14BC0
100
AcDbEntity
  8
寸法
 62
     0
 48
50.0
370
    -2
100
AcDbLine
 10
1638.79672280114
 20
6820.709569268145
 30
0.0
 11
6438.79672280114
 21
6820.709569268145
 31
0.0
  0
INSERT
  5
156EA
330
14BC0
100
AcDbEntity
  8
寸法
 62
     0
 48
50.0
370
    -2
100
AcDbBlockReference
  2
_DOTSMALL
 10
1638.79672280114
 20
6820.709569268145
 30
0.0
 41
75.0
 42
75.0
 43
75.0
 50
180.0
  0
INSERT
  5
156EB
330
14BC0
100
AcDbEntity
  8
寸法
 62
     0
 48
50.0
370
    -2
100
AcDbBlockReference
  2
_DOTSMALL
 10
6438.79672280114
 20
6820.709569268145
 30
0.0
 41
75.0
 42
75.0
 43
75.0
  0
MTEXT
  5
156EC
330
14BC0
100
AcDbEntity
  8
寸法
 62
     7
 48
50.0
100
AcDbMText
 10
4038.79672280114
 20
6895.709569268145
 30
0.0
 40
90.0
 41
0.0
 71
     5
 72
     1
  1
\A1;4800
  7
STYLE1
 73
     1
 44
1.0
1001
ACAD
1000
MTEXTBEGIN
1070
    73
1070
     1
1070
    44
1040
1.0
1070
    74
1070
     0
1000
MTEXTEND
  0
POINT
  5
156ED
330
14BC0
100
AcDbEntity
  8
DEFPOINTS
 62
     0
 48
50.0
100
AcDbPoint
 10
1638.79672280114
 20
4518.367941370032
 30
0.0
  0
POINT
  5
156EE
330
14BC0
100
AcDbEntity
  8
DEFPOINTS
 62
     0
 48
50.0
100
AcDbPoint
 10
6438.79672280114
 20
4518.367941370032
 30
0.0
  0
POINT
  5
156EF
330
14BC0
100
AcDbEntity
  8
DEFPOINTS
 62
     0
 48
50.0
100
AcDbPoint
 10
6438.79672280114
 20
6820.709569268145
 30
0.0
  0
ENDBLK
  5
14BC2
330
14BC0
100
AcDbEntity
  8
0
 48
50.0
100
AcDbBlockEnd
  0
BLOCK
  5
14BCD
330
14BCC
100
AcDbEntity
  8
0
 48
50.0
100
AcDbBlockBegin
  2
*D14
 70
     1
 10
0.0
 20
0.0
 30
0.0
  3
*D14
  1

  0
LINE
  5
156F0
330
14BCC
100
AcDbEntity
  8
寸法
 62
     0
 48
50.0
370
    -2
100
AcDbLine
 10
1238.79672280114
 20
6283.367941370032
 30
0.0
 11
1238.79672280114
 21
6865.709569268145
 31
0.0
  0
LINE
  5
156F1
330
14BCC
100
AcDbEntity
  8
寸法
 62
     0
 48
50.0
370
    -2
100
AcDbLine
 10
1638.79672280114
 20
4533.367941370032
 30
0.0
 11
1638.79672280114
 21
6865.709569268145
 31
0.0
  0
LINE
  5
156F2
330
14BCC
100
AcDbEntity
  8
寸法
 62
     0
 48
50.0
370
    -2
100
AcDbLine
 10
1238.79672280114
 20
6820.709569268145
 30
0.0
 11
1638.79672280114
 21
6820.709569268145
 31
0.0
  0
INSERT
  5
156F3
330
14BCC
100
AcDbEntity
  8
寸法
 62
     0
 48
50.0
370
    -2
100
AcDbBlockReference
  2
_DOTSMALL
 10
1238.79672280114
 20
6820.709569268145
 30
0.0
 41
75.0
 42
75.0
 43
75.0
 50
180.0
  0
INSERT
  5
156F4
330
14BCC
100
AcDbEntity
  8
寸法
 62
     0
 48
50.0
370
    -2
100
AcDbBlockReference
  2
_DOTSMALL
 10
1638.79672280114
 20
6820.709569268145
 30
0.0
 41
75.0
 42
75.0
 43
75.0
  0
MTEXT
  5
156F5
330
14BCC
100
AcDbEntity
  8
寸法
 62
     7
 48
50.0
100
AcDbMText
 10
1438.79672280114
 20
6895.709569268145
 30
0.0
 40
90.0
 41
0.0
 71
     5
 72
     1
  1
\A1;400
  7
STYLE1
 73
     1
 44
1.0
1001
ACAD
1000
MTEXTBEGIN
1070
    73
1070
     1
1070
    44
1040
1.0
1070
    74
1070
     0
1000
MTEXTEND
  0
POINT
  5
156F6
330
14BCC
100
AcDbEntity
  8
DEFPOINTS
 62
     0
 48
50.0
100
AcDbPoint
 10
1238.79672280114
 20
6268.367941370032
 30
0.0
  0
POINT
  5
156F7
330
14BCC
100
AcDbEntity
  8
DEFPOINTS
 62
     0
 48
50.0
100
AcDbPoint
 10
1638.79672280114
 20
4518.367941370032
 30
0.0
  0
POINT
  5
156F8
330
14BCC
100
AcDbEntity
  8
DEFPOINTS
 62
     0
 48
50.0
100
AcDbPoint
 10
1638.79672280114
 20
6820.709569268145
 30
0.0
  0
ENDBLK
  5
14BCE
330
14BCC
100
AcDbEntity
  8
0
 48
50.0
100
AcDbBlockEnd
  0
BLOCK
  5
14BD9
330
14BD8
100
AcDbEntity
  8
0
 48
50.0
100
AcDbBlockBegin
  2
*D15
 70
     1
 10
0.0
 20
0.0
 30
0.0
  3
*D15
  1

  0
LINE
  5
156F9
330
14BD8
100
AcDbEntity
  8
寸法
 62
     0
 48
50.0
370
    -2
100
AcDbLine
 10
6438.796722801111
 20
3653.367941370018
 30
0.0
 11
6438.796722801111
 21
3110.231725332926
 31
0.0
  0
LINE
  5
156FA
330
14BD8
100
AcDbEntity
  8
寸法
 62
     0
 48
50.0
370
    -2
100
AcDbLine
 10
6038.796722801111
 20
3378.367941370018
 30
0.0
 11
6038.796722801111
 21
3110.231725332926
 31
0.0
  0
LINE
  5
156FB
330
14BD8
100
AcDbEntity
  8
寸法
 62
     0
 48
50.0
370
    -2
100
AcDbLine
 10
6438.796722801111
 20
3155.231725332926
 30
0.0
 11
6038.796722801111
 21
3155.231725332926
 31
0.0
  0
INSERT
  5
156FC
330
14BD8
100
AcDbEntity
  8
寸法
 62
     0
 48
50.0
370
    -2
100
AcDbBlockReference
  2
_DOTSMALL
 10
6438.796722801111
 20
3155.231725332926
 30
0.0
 41
75.0
 42
75.0
 43
75.0
  0
INSERT
  5
156FD
330
14BD8
100
AcDbEntity
  8
寸法
 62
     0
 48
50.0
370
    -2
100
AcDbBlockReference
  2
_DOTSMALL
 10
6038.796722801111
 20
3155.231725332926
 30
0.0
 41
75.0
 42
75.0
 43
75.0
 50
180.0
  0
MTEXT
  5
156FE
330
14BD8
100
AcDbEntity
  8
寸法
 62
     7
 48
50.0
100
AcDbMText
 10
6238.796722801112
 20
3230.231725332926
 30
0.0
 40
90.0
 41
0.0
 71
     5
 72
     1
  1
\A1;400
  7
STYLE1
 73
     1
 44
1.0
1001
ACAD
1000
MTEXTBEGIN
1070
    73
1070
     1
1070
    44
1040
1.0
1070
    74
1070
     0
1000
MTEXTEND
  0
POINT
  5
156FF
330
14BD8
100
AcDbEntity
  8
DEFPOINTS
 62
     0
 48
50.0
100
AcDbPoint
 10
6438.796722801111
 20
3668.367941370018
 30
0.0
  0
POINT
  5
15700
330
14BD8
100
AcDbEntity
  8
DEFPOINTS
 62
     0
 48
50.0
100
AcDbPoint
 10
6038.796722801111
 20
3393.367941370018
 30
0.0
  0
POINT
  5
15701
330
14BD8
100
AcDbEntity
  8
DEFPOINTS
 62
     0
 48
50.0
100
AcDbPoint
 10
6038.796722801111
 20
3155.231725332926
 30
0.0
  0
ENDBLK
  5
14BDA
330
14BD8
100
AcDbEntity
  8
0
 48
50.0
100
AcDbBlockEnd
  0
BLOCK
  5
14BE5
330
14BE4
100
AcDbEntity
  8
0
 48
50.0
100
AcDbBlockBegin
  2
*D16
 70
     1
 10
0.0
 20
0.0
 30
0.0
  3
*D16
  1

  0
LINE
  5
15702
330
14BE4
100
AcDbEntity
  8
寸法
 62
     0
 48
50.0
370
    -2
100
AcDbLine
 10
6038.796722801111
 20
3378.367941370018
 30
0.0
 11
6038.796722801111
 21
2872.095509295863
 31
0.0
  0
LINE
  5
15703
330
14BE4
100
AcDbEntity
  8
寸法
 62
     0
 48
50.0
370
    -2
100
AcDbLine
 10
6838.796722801141
 20
3378.367941370018
 30
0.0
 11
6838.796722801141
 21
2872.095509295863
 31
0.0
  0
LINE
  5
15704
330
14BE4
100
AcDbEntity
  8
寸法
 62
     0
 48
50.0
370
    -2
100
AcDbLine
 10
6038.796722801111
 20
2917.095509295864
 30
0.0
 11
6838.796722801141
 21
2917.095509295864
 31
0.0
  0
INSERT
  5
15705
330
14BE4
100
AcDbEntity
  8
寸法
 62
     0
 48
50.0
370
    -2
100
AcDbBlockReference
  2
_DOTSMALL
 10
6038.796722801111
 20
2917.095509295864
 30
0.0
 41
75.0
 42
75.0
 43
75.0
 50
180.0
  0
INSERT
  5
15706
330
14BE4
100
AcDbEntity
  8
寸法
 62
     0
 48
50.0
370
    -2
100
AcDbBlockReference
  2
_DOTSMALL
 10
6838.796722801141
 20
2917.095509295864
 30
0.0
 41
75.0
 42
75.0
 43
75.0
  0
MTEXT
  5
15707
330
14BE4
100
AcDbEntity
  8
寸法
 62
     7
 48
50.0
100
AcDbMText
 10
6438.796722801111
 20
2992.095509295864
 30
0.0
 40
90.0
 41
0.0
 71
     5
 72
     1
  1
\A1;800
  7
STYLE1
 73
     1
 44
1.0
1001
ACAD
1000
MTEXTBEGIN
1070
    73
1070
     1
1070
    44
1040
1.0
1070
    74
1070
     0
1000
MTEXTEND
  0
POINT
  5
15708
330
14BE4
100
AcDbEntity
  8
DEFPOINTS
 62
     0
 48
50.0
100
AcDbPoint
 10
6038.796722801111
 20
3393.367941370018
 30
0.0
  0
POINT
  5
15709
330
14BE4
100
AcDbEntity
  8
DEFPOINTS
 62
     0
 48
50.0
100
AcDbPoint
 10
6838.796722801141
 20
3393.367941370018
 30
0.0
  0
POINT
  5
1570A
330
14BE4
100
AcDbEntity
  8
DEFPOINTS
 62
     0
 48
50.0
100
AcDbPoint
 10
6838.796722801141
 20
2917.095509295864
 30
0.0
  0
ENDBLK
  5
14BE6
330
14BE4
100
AcDbEntity
  8
0
 48
50.0
100
AcDbBlockEnd
  0
BLOCK
  5
14BF1
330
14BF0
100
AcDbEntity
  8
0
 48
50.0
100
AcDbBlockBegin
  2
*D17
 70
     1
 10
0.0
 20
0.0
 30
0.0
  3
*D17
  1

  0
LINE
  5
1570B
330
14BF0
100
AcDbEntity
  8
寸法
 62
     0
 48
50.0
370
    -2
100
AcDbLine
 10
6173.796722801111
 20
3918.367941370018
 30
0.0
 11
5816.48221951694
 21
3918.367941370018
 31
0.0
  0
LINE
  5
1570C
330
14BF0
100
AcDbEntity
  8
寸法
 62
     0
 48
50.0
370
    -2
100
AcDbLine
 10
6023.796722801112
 20
3393.367941370004
 30
0.0
 11
5816.48221951694
 21
3393.367941370004
 31
0.0
  0
LINE
  5
1570D
330
14BF0
100
AcDbEntity
  8
寸法
 62
     0
 48
50.0
370
    -2
100
AcDbLine
 10
5861.48221951694
 20
3918.367941370018
 30
0.0
 11
5861.48221951694
 21
3393.367941370004
 31
0.0
  0
INSERT
  5
1570E
330
14BF0
100
AcDbEntity
  8
寸法
 62
     0
 48
50.0
370
    -2
100
AcDbBlockReference
  2
_DOTSMALL
 10
5861.48221951694
 20
3918.367941370018
 30
0.0
 41
75.0
 42
75.0
 43
75.0
 50
90.0
  0
INSERT
  5
1570F
330
14BF0
100
AcDbEntity
  8
寸法
 62
     0
 48
50.0
370
    -2
100
AcDbBlockReference
  2
_DOTSMALL
 10
5861.48221951694
 20
3393.367941370004
 30
0.0
 41
75.0
 42
75.0
 43
75.0
 50
270.0
  0
MTEXT
  5
15710
330
14BF0
100
AcDbEntity
  8
寸法
 62
     7
 48
50.0
100
AcDbMText
 10
5786.473361249223
 20
3655.867941370012
 30
0.0
 40
90.0
 41
0.0
 71
     5
 72
     1
  1
\A1;525
  7
STYLE1
 11
0.0000000000000001
 21
1.0
 31
0.0
 73
     1
 44
1.0
1001
ACAD
1000
MTEXTBEGIN
1070
    73
1070
     1
1070
    44
1040
1.0
1070
    74
1070
     0
1000
MTEXTEND
  0
POINT
  5
15711
330
14BF0
100
AcDbEntity
  8
DEFPOINTS
 62
     0
 48
50.0
100
AcDbPoint
 10
6188.796722801111
 20
3918.367941370018
 30
0.0
  0
POINT
  5
15712
330
14BF0
100
AcDbEntity
  8
DEFPOINTS
 62
     0
 48
50.0
100
AcDbPoint
 10
6038.796722801111
 20
3393.367941370004
 30
0.0
  0
POINT
  5
15713
330
14BF0
100
AcDbEntity
  8
DEFPOINTS
 62
     0
 48
50.0
100
AcDbPoint
 10
5861.48221951694
 20
3393.367941370004
 30
0.0
  0
ENDBLK
  5
14BF2
330
14BF0
100
AcDbEntity
  8
0
 48
50.0
100
AcDbBlockEnd
  0
BLOCK
  5
14BFD
330
14BFC
100
AcDbEntity
  8
0
 48
50.0
100
AcDbBlockBegin
  2
*D18
 70
     1
 10
0.0
 20
0.0
 30
0.0
  3
*D18
  1

  0
LINE
  5
15714
330
14BFC
100
AcDbEntity
  8
寸法
 62
     0
 48
50.0
370
    -2
100
AcDbLine
 10
6023.796722801112
 20
4793.367941370017
 30
0.0
 11
5639.167716232769
 21
4793.367941370017
 31
0.0
  0
LINE
  5
15715
330
14BFC
100
AcDbEntity
  8
寸法
 62
     0
 48
50.0
370
    -2
100
AcDbLine
 10
6023.796722801112
 20
3393.367941370004
 30
0.0
 11
5639.167716232769
 21
3393.367941370004
 31
0.0
  0
LINE
  5
15716
330
14BFC
100
AcDbEntity
  8
寸法
 62
     0
 48
50.0
370
    -2
100
AcDbLine
 10
5684.167716232769
 20
4793.367941370017
 30
0.0
 11
5684.167716232769
 21
3393.367941370004
 31
0.0
  0
INSERT
  5
15717
330
14BFC
100
AcDbEntity
  8
寸法
 62
     0
 48
50.0
370
    -2
100
AcDbBlockReference
  2
_DOTSMALL
 10
5684.167716232769
 20
4793.367941370017
 30
0.0
 41
75.0
 42
75.0
 43
75.0
 50
90.0
  0
INSERT
  5
15718
330
14BFC
100
AcDbEntity
  8
寸法
 62
     0
 48
50.0
370
    -2
100
AcDbBlockReference
  2
_DOTSMALL
 10
5684.167716232769
 20
3393.367941370004
 30
0.0
 41
75.0
 42
75.0
 43
75.0
 50
270.0
  0
MTEXT
  5
15719
330
14BFC
100
AcDbEntity
  8
寸法
 62
     7
 48
50.0
100
AcDbMText
 10
5609.167716232768
 20
4093.367941370011
 30
0.0
 40
90.0
 41
0.0
 71
     5
 72
     1
  1
\A1;1400
  7
STYLE1
 11
0.0000000000000001
 21
1.0
 31
0.0
 73
     1
 44
1.0
1001
ACAD
1000
MTEXTBEGIN
1070
    73
1070
     1
1070
    44
1040
1.0
1070
    74
1070
     0
1000
MTEXTEND
  0
POINT
  5
1571A
330
14BFC
100
AcDbEntity
  8
DEFPOINTS
 62
     0
 48
50.0
100
AcDbPoint
 10
6038.796722801111
 20
4793.367941370017
 30
0.0
  0
POINT
  5
1571B
330
14BFC
100
AcDbEntity
  8
DEFPOINTS
 62
     0
 48
50.0
100
AcDbPoint
 10
6038.796722801111
 20
3393.367941370004
 30
0.0
  0
POINT
  5
1571C
330
14BFC
100
AcDbEntity
  8
DEFPOINTS
 62
     0
 48
50.0
100
AcDbPoint
 10
5684.167716232769
 20
3393.367941370004
 30
0.0
  0
ENDBLK
  5
14BFE
330
14BFC
100
AcDbEntity
  8
0
 48
50.0
100
AcDbBlockEnd
  0
BLOCK
  5
14C09
330
14C08
100
AcDbEntity
  8
0
 48
50.0
100
AcDbBlockBegin
  2
*D19
 70
     1
 10
0.0
 20
0.0
 30
0.0
  3
*D19
  1

  0
LINE
  5
1571D
330
14C08
100
AcDbEntity
  8
寸法
 62
     0
 48
50.0
370
    -2
100
AcDbLine
 10
6173.796722801111
 20
4268.367941370017
 30
0.0
 11
5816.48221951694
 21
4268.367941370018
 31
0.0
  0
LINE
  5
1571E
330
14C08
100
AcDbEntity
  8
寸法
 62
     0
 48
50.0
370
    -2
100
AcDbLine
 10
6173.796722801111
 20
3918.367941370018
 30
0.0
 11
5816.48221951694
 21
3918.367941370018
 31
0.0
  0
LINE
  5
1571F
330
14C08
100
AcDbEntity
  8
寸法
 62
     0
 48
50.0
370
    -2
100
AcDbLine
 10
5861.48221951694
 20
4268.367941370018
 30
0.0
 11
5861.48221951694
 21
3918.367941370018
 31
0.0
  0
INSERT
  5
15720
330
14C08
100
AcDbEntity
  8
寸法
 62
     0
 48
50.0
370
    -2
100
AcDbBlockReference
  2
_DOTSMALL
 10
5861.48221951694
 20
4268.367941370018
 30
0.0
 41
75.0
 42
75.0
 43
75.0
 50
90.0
  0
INSERT
  5
15721
330
14C08
100
AcDbEntity
  8
寸法
 62
     0
 48
50.0
370
    -2
100
AcDbBlockReference
  2
_DOTSMALL
 10
5861.48221951694
 20
3918.367941370018
 30
0.0
 41
75.0
 42
75.0
 43
75.0
 50
270.0
  0
MTEXT
  5
15722
330
14C08
100
AcDbEntity
  8
寸法
 62
     7
 48
50.0
100
AcDbMText
 10
5786.482219516939
 20
4093.367941370019
 30
0.0
 40
90.0
 41
0.0
 71
     5
 72
     1
  1
\A1;350
  7
STYLE1
 11
0.0000000000000001
 21
1.0
 31
0.0
 73
     1
 44
1.0
1001
ACAD
1000
MTEXTBEGIN
1070
    73
1070
     1
1070
    44
1040
1.0
1070
    74
1070
     0
1000
MTEXTEND
  0
POINT
  5
15723
330
14C08
100
AcDbEntity
  8
DEFPOINTS
 62
     0
 48
50.0
100
AcDbPoint
 10
6188.796722801111
 20
4268.367941370017
 30
0.0
  0
POINT
  5
15724
330
14C08
100
AcDbEntity
  8
DEFPOINTS
 62
     0
 48
50.0
100
AcDbPoint
 10
6188.796722801111
 20
3918.367941370018
 30
0.0
  0
POINT
  5
15725
330
14C08
100
AcDbEntity
  8
DEFPOINTS
 62
     0
 48
50.0
100
AcDbPoint
 10
5861.48221951694
 20
3918.367941370018
 30
0.0
  0
ENDBLK
  5
14C0A
330
14C08
100
AcDbEntity
  8
0
 48
50.0
100
AcDbBlockEnd
  0
BLOCK
  5
14C15
330
14C14
100
AcDbEntity
  8
0
 48
50.0
100
AcDbBlockBegin
  2
*D20
 70
     1
 10
0.0
 20
0.0
 30
0.0
  3
*D20
  1

  0
LINE
  5
15726
330
14C14
100
AcDbEntity
  8
寸法
 62
     0
 48
50.0
370
    -2
100
AcDbLine
 10
6173.796722801111
 20
4268.367941370017
 30
0.0
 11
5816.48221951694
 21
4268.367941370018
 31
0.0
  0
LINE
  5
15727
330
14C14
100
AcDbEntity
  8
寸法
 62
     0
 48
50.0
370
    -2
100
AcDbLine
 10
6023.796722801112
 20
4793.367941370031
 30
0.0
 11
5816.48221951694
 21
4793.367941370031
 31
0.0
  0
LINE
  5
15728
330
14C14
100
AcDbEntity
  8
寸法
 62
     0
 48
50.0
370
    -2
100
AcDbLine
 10
5861.48221951694
 20
4268.367941370018
 30
0.0
 11
5861.48221951694
 21
4793.367941370031
 31
0.0
  0
INSERT
  5
15729
330
14C14
100
AcDbEntity
  8
寸法
 62
     0
 48
50.0
370
    -2
100
AcDbBlockReference
  2
_DOTSMALL
 10
5861.48221951694
 20
4268.367941370018
 30
0.0
 41
75.0
 42
75.0
 43
75.0
 50
270.0
  0
INSERT
  5
1572A
330
14C14
100
AcDbEntity
  8
寸法
 62
     0
 48
50.0
370
    -2
100
AcDbBlockReference
  2
_DOTSMALL
 10
5861.48221951694
 20
4793.367941370031
 30
0.0
 41
75.0
 42
75.0
 43
75.0
 50
90.0
  0
MTEXT
  5
1572B
330
14C14
100
AcDbEntity
  8
寸法
 62
     7
 48
50.0
100
AcDbMText
 10
5786.473361249223
 20
4530.867941370027
 30
0.0
 40
90.0
 41
0.0
 71
     5
 72
     1
  1
\A1;525
  7
STYLE1
 11
0.0000000000000001
 21
1.0
 31
0.0
 73
     1
 44
1.0
1001
ACAD
1000
MTEXTBEGIN
1070
    73
1070
     1
1070
    44
1040
1.0
1070
    74
1070
     0
1000
MTEXTEND
  0
POINT
  5
1572C
330
14C14
100
AcDbEntity
  8
DEFPOINTS
 62
     0
 48
50.0
100
AcDbPoint
 10
6188.796722801111
 20
4268.367941370017
 30
0.0
  0
POINT
  5
1572D
330
14C14
100
AcDbEntity
  8
DEFPOINTS
 62
     0
 48
50.0
100
AcDbPoint
 10
6038.796722801111
 20
4793.367941370031
 30
0.0
  0
POINT
  5
1572E
330
14C14
100
AcDbEntity
  8
DEFPOINTS
 62
     0
 48
50.0
100
AcDbPoint
 10
5861.48221951694
 20
4793.367941370031
 30
0.0
  0
ENDBLK
  5
14C16
330
14C14
100
AcDbEntity
  8
0
 48
50.0
100
AcDbBlockEnd
  0
BLOCK
  5
14C93
330
14C92
100
AcDbEntity
  8
0
 48
50.0
100
AcDbBlockBegin
  2
*D21
 70
     1
 10
0.0
 20
0.0
 30
0.0
  3
*D21
  1

  0
LINE
  5
15611
330
14C92
100
AcDbEntity
  8
寸法
 62
     0
 48
50.0
370
    -2
100
AcDbLine
 10
8603.762197019547
 20
4462.065356575476
 30
0.0
 11
8423.181069917644
 21
4462.065356575476
 31
0.0
  0
LINE
  5
15612
330
14C92
100
AcDbEntity
  8
寸法
 62
     0
 48
50.0
370
    -2
100
AcDbLine
 10
8603.762197019547
 20
4562.065356575476
 30
0.0
 11
8423.181069917644
 21
4562.065356575476
 31
0.0
  0
LINE
  5
15613
330
14C92
100
AcDbEntity
  8
寸法
 62
     0
 48
50.0
370
    -2
100
AcDbLine
 10
8468.181069917644
 20
4462.065356575476
 30
0.0
 11
8468.181069917644
 21
4562.065356575476
 31
0.0
  0
LINE
  5
15614
330
14C92
100
AcDbEntity
  8
寸法
 62
     0
 48
50.0
370
    -2
100
AcDbLine
 10
8468.181069917644
 20
4562.065356575476
 30
0.0
 11
8468.181069917644
 21
4841.13622271725
 31
0.0
  0
INSERT
  5
15615
330
14C92
100
AcDbEntity
  8
寸法
 62
     0
 48
50.0
370
    -2
100
AcDbBlockReference
  2
_DOTSMALL
 10
8468.181069917644
 20
4462.065356575476
 30
0.0
 41
75.0
 42
75.0
 43
75.0
 50
270.0
  0
INSERT
  5
15616
330
14C92
100
AcDbEntity
  8
寸法
 62
     0
 48
50.0
370
    -2
100
AcDbBlockReference
  2
_DOTSMALL
 10
8468.181069917644
 20
4562.065356575476
 30
0.0
 41
75.0
 42
75.0
 43
75.0
 50
90.0
  0
MTEXT
  5
15617
330
14C92
100
AcDbEntity
  8
寸法
 62
     7
 48
50.0
100
AcDbMText
 10
8393.181069917643
 20
4739.100789646385
 30
0.0
 40
90.0
 41
0.0
 71
     5
 72
     1
  1
\A1;100
  7
STYLE1
 11
0.0000000000000001
 21
1.0
 31
0.0
 73
     1
 44
1.0
1001
ACAD
1000
MTEXTBEGIN
1070
    73
1070
     1
1070
    44
1040
1.0
1070
    74
1070
     0
1000
MTEXTEND
  0
POINT
  5
15618
330
14C92
100
AcDbEntity
  8
DEFPOINTS
 62
     0
 48
50.0
100
AcDbPoint
 10
8618.762197019547
 20
4462.065356575476
 30
0.0
  0
POINT
  5
15619
330
14C92
100
AcDbEntity
  8
DEFPOINTS
 62
     0
 48
50.0
100
AcDbPoint
 10
8618.762197019547
 20
4562.065356575476
 30
0.0
  0
POINT
  5
1561A
330
14C92
100
AcDbEntity
  8
DEFPOINTS
 62
     0
 48
50.0
100
AcDbPoint
 10
8468.181069917644
 20
4562.065356575476
 30
0.0
  0
ENDBLK
  5
14C94
330
14C92
100
AcDbEntity
  8
0
 48
50.0
100
AcDbBlockEnd
  0
BLOCK
  5
14CA0
330
14C9F
100
AcDbEntity
  8
0
 48
50.0
100
AcDbBlockBegin
  2
*D22
 70
     1
 10
0.0
 20
0.0
 30
0.0
  3
*D22
  1

  0
LINE
  5
1561B
330
14C9F
100
AcDbEntity
  8
寸法
 62
     0
 48
50.0
370
    -2
100
AcDbLine
 10
8603.762197019547
 20
4462.065356575476
 30
0.0
 11
8423.181069917644
 21
4462.065356575476
 31
0.0
  0
LINE
  5
1561C
330
14C9F
100
AcDbEntity
  8
寸法
 62
     0
 48
50.0
370
    -2
100
AcDbLine
 10
8603.762197019547
 20
4362.065356575477
 30
0.0
 11
8423.181069917644
 21
4362.065356575477
 31
0.0
  0
LINE
  5
1561D
330
14C9F
100
AcDbEntity
  8
寸法
 62
     0
 48
50.0
370
    -2
100
AcDbLine
 10
8468.181069917644
 20
4462.065356575476
 30
0.0
 11
8468.181069917644
 21
4362.065356575477
 31
0.0
  0
LINE
  5
1561E
330
14C9F
100
AcDbEntity
  8
寸法
 62
     0
 48
50.0
370
    -2
100
AcDbLine
 10
8468.181069917644
 20
4362.065356575477
 30
0.0
 11
8468.181069917642
 21
4082.994490433743
 31
0.0
  0
INSERT
  5
1561F
330
14C9F
100
AcDbEntity
  8
寸法
 62
     0
 48
50.0
370
    -2
100
AcDbBlockReference
  2
_DOTSMALL
 10
8468.181069917644
 20
4462.065356575476
 30
0.0
 41
75.0
 42
75.0
 43
75.0
 50
90.0
  0
INSERT
  5
15620
330
14C9F
100
AcDbEntity
  8
寸法
 62
     0
 48
50.0
370
    -2
100
AcDbBlockReference
  2
_DOTSMALL
 10
8468.181069917644
 20
4362.065356575477
 30
0.0
 41
75.0
 42
75.0
 43
75.0
 50
270.0
  0
MTEXT
  5
15621
330
14C9F
100
AcDbEntity
  8
寸法
 62
     7
 48
50.0
100
AcDbMText
 10
8393.181069917643
 20
4185.029923504611
 30
0.0
 40
90.0
 41
0.0
 71
     5
 72
     1
  1
\A1;100
  7
STYLE1
 11
0.0000000000000001
 21
1.0
 31
0.0
 73
     1
 44
1.0
1001
ACAD
1000
MTEXTBEGIN
1070
    73
1070
     1
1070
    44
1040
1.0
1070
    74
1070
     0
1000
MTEXTEND
  0
POINT
  5
15622
330
14C9F
100
AcDbEntity
  8
DEFPOINTS
 62
     0
 48
50.0
100
AcDbPoint
 10
8618.762197019547
 20
4462.065356575476
 30
0.0
  0
POINT
  5
15623
330
14C9F
100
AcDbEntity
  8
DEFPOINTS
 62
     0
 48
50.0
100
AcDbPoint
 10
8618.762197019547
 20
4362.065356575477
 30
0.0
  0
POINT
  5
15624
330
14C9F
100
AcDbEntity
  8
DEFPOINTS
 62
     0
 48
50.0
100
AcDbPoint
 10
8468.181069917644
 20
4362.065356575477
 30
0.0
  0
ENDBLK
  5
14CA1
330
14C9F
100
AcDbEntity
  8
0
 48
50.0
100
AcDbBlockEnd
  0
BLOCK
  5
14CAD
330
14CAC
100
AcDbEntity
  8
0
 48
50.0
100
AcDbBlockBegin
  2
*D23
 70
     1
 10
0.0
 20
0.0
 30
0.0
  3
*D23
  1

  0
LINE
  5
15625
330
14CAC
100
AcDbEntity
  8
寸法
 62
     0
 48
50.0
370
    -2
100
AcDbLine
 10
9118.762197019604
 20
3897.065356575478
 30
0.0
 11
9118.762197019604
 21
3425.448726931442
 31
0.0
  0
LINE
  5
15626
330
14CAC
100
AcDbEntity
  8
寸法
 62
     0
 48
50.0
370
    -2
100
AcDbLine
 10
9643.762197019604
 20
3836.007524745598
 30
0.0
 11
9643.762197019604
 21
3425.448726931442
 31
0.0
  0
LINE
  5
15627
330
14CAC
100
AcDbEntity
  8
寸法
 62
     0
 48
50.0
370
    -2
100
AcDbLine
 10
9118.762197019604
 20
3470.448726931442
 30
0.0
 11
9643.762197019604
 21
3470.448726931442
 31
0.0
  0
INSERT
  5
15628
330
14CAC
100
AcDbEntity
  8
寸法
 62
     0
 48
50.0
370
    -2
100
AcDbBlockReference
  2
_DOTSMALL
 10
9118.762197019604
 20
3470.448726931442
 30
0.0
 41
75.0
 42
75.0
 43
75.0
 50
180.0
  0
INSERT
  5
15629
330
14CAC
100
AcDbEntity
  8
寸法
 62
     0
 48
50.0
370
    -2
100
AcDbBlockReference
  2
_DOTSMALL
 10
9643.762197019604
 20
3470.448726931442
 30
0.0
 41
75.0
 42
75.0
 43
75.0
  0
MTEXT
  5
1562A
330
14CAC
100
AcDbEntity
  8
寸法
 62
     7
 48
50.0
100
AcDbMText
 10
9381.262197019605
 20
3545.457585199159
 30
0.0
 40
90.0
 41
0.0
 71
     5
 72
     1
  1
\A1;525
  7
STYLE1
 73
     1
 44
1.0
1001
ACAD
1000
MTEXTBEGIN
1070
    73
1070
     1
1070
    44
1040
1.0
1070
    74
1070
     0
1000
MTEXTEND
  0
POINT
  5
1562B
330
14CAC
100
AcDbEntity
  8
DEFPOINTS
 62
     0
 48
50.0
100
AcDbPoint
 10
9118.762197019604
 20
3912.065356575477
 30
0.0
  0
POINT
  5
1562C
330
14CAC
100
AcDbEntity
  8
DEFPOINTS
 62
     0
 48
50.0
100
AcDbPoint
 10
9643.762197019604
 20
3851.007524745597
 30
0.0
  0
POINT
  5
1562D
330
14CAC
100
AcDbEntity
  8
DEFPOINTS
 62
     0
 48
50.0
100
AcDbPoint
 10
9643.762197019604
 20
3470.448726931442
 30
0.0
  0
ENDBLK
  5
14CAE
330
14CAC
100
AcDbEntity
  8
0
 48
50.0
100
AcDbBlockEnd
  0
BLOCK
  5
14CB9
330
14CB8
100
AcDbEntity
  8
0
 48
50.0
100
AcDbBlockBegin
  2
*D24
 70
     1
 10
0.0
 20
0.0
 30
0.0
  3
*D24
  1

  0
LINE
  5
1562E
330
14CB8
100
AcDbEntity
  8
寸法
 62
     0
 48
50.0
370
    -2
100
AcDbLine
 10
10518.7621970196
 20
3897.065356575478
 30
0.0
 11
10518.7621970196
 21
3195.36316584269
 31
0.0
  0
LINE
  5
1562F
330
14CB8
100
AcDbEntity
  8
寸法
 62
     0
 48
50.0
370
    -2
100
AcDbLine
 10
9118.762197019604
 20
3897.065356575478
 30
0.0
 11
9118.762197019604
 21
3195.36316584269
 31
0.0
  0
LINE
  5
15630
330
14CB8
100
AcDbEntity
  8
寸法
 62
     0
 48
50.0
370
    -2
100
AcDbLine
 10
10518.7621970196
 20
3240.36316584269
 30
0.0
 11
9118.762197019604
 21
3240.36316584269
 31
0.0
  0
INSERT
  5
15631
330
14CB8
100
AcDbEntity
  8
寸法
 62
     0
 48
50.0
370
    -2
100
AcDbBlockReference
  2
_DOTSMALL
 10
10518.7621970196
 20
3240.36316584269
 30
0.0
 41
75.0
 42
75.0
 43
75.0
  0
INSERT
  5
15632
330
14CB8
100
AcDbEntity
  8
寸法
 62
     0
 48
50.0
370
    -2
100
AcDbBlockReference
  2
_DOTSMALL
 10
9118.762197019604
 20
3240.36316584269
 30
0.0
 41
75.0
 42
75.0
 43
75.0
 50
180.0
  0
MTEXT
  5
15633
330
14CB8
100
AcDbEntity
  8
寸法
 62
     7
 48
50.0
100
AcDbMText
 10
9818.762197019605
 20
3315.36316584269
 30
0.0
 40
90.0
 41
0.0
 71
     5
 72
     1
  1
\A1;1400
  7
STYLE1
 73
     1
 44
1.0
1001
ACAD
1000
MTEXTBEGIN
1070
    73
1070
     1
1070
    44
1040
1.0
1070
    74
1070
     0
1000
MTEXTEND
  0
POINT
  5
15634
330
14CB8
100
AcDbEntity
  8
DEFPOINTS
 62
     0
 48
50.0
100
AcDbPoint
 10
10518.7621970196
 20
3912.065356575477
 30
0.0
  0
POINT
  5
15635
330
14CB8
100
AcDbEntity
  8
DEFPOINTS
 62
     0
 48
50.0
100
AcDbPoint
 10
9118.762197019604
 20
3912.065356575477
 30
0.0
  0
POINT
  5
15636
330
14CB8
100
AcDbEntity
  8
DEFPOINTS
 62
     0
 48
50.0
100
AcDbPoint
 10
9118.762197019604
 20
3240.36316584269
 30
0.0
  0
ENDBLK
  5
14CBA
330
14CB8
100
AcDbEntity
  8
0
 48
50.0
100
AcDbBlockEnd
  0
BLOCK
  5
14CC5
330
14CC4
100
AcDbEntity
  8
0
 48
50.0
100
AcDbBlockBegin
  2
*D25
 70
     1
 10
0.0
 20
0.0
 30
0.0
  3
*D25
  1

  0
LINE
  5
15637
330
14CC4
100
AcDbEntity
  8
寸法
 62
     0
 48
50.0
370
    -2
100
AcDbLine
 10
9643.762197019604
 20
3836.007524745598
 30
0.0
 11
9643.762197019604
 21
3425.448726931442
 31
0.0
  0
LINE
  5
15638
330
14CC4
100
AcDbEntity
  8
寸法
 62
     0
 48
50.0
370
    -2
100
AcDbLine
 10
9993.762197019606
 20
3836.007524745598
 30
0.0
 11
9993.762197019606
 21
3425.448726931442
 31
0.0
  0
LINE
  5
15639
330
14CC4
100
AcDbEntity
  8
寸法
 62
     0
 48
50.0
370
    -2
100
AcDbLine
 10
9643.762197019604
 20
3470.448726931442
 30
0.0
 11
9993.762197019606
 21
3470.448726931442
 31
0.0
  0
INSERT
  5
1563A
330
14CC4
100
AcDbEntity
  8
寸法
 62
     0
 48
50.0
370
    -2
100
AcDbBlockReference
  2
_DOTSMALL
 10
9643.762197019604
 20
3470.448726931442
 30
0.0
 41
75.0
 42
75.0
 43
75.0
 50
180.0
  0
INSERT
  5
1563B
330
14CC4
100
AcDbEntity
  8
寸法
 62
     0
 48
50.0
370
    -2
100
AcDbBlockReference
  2
_DOTSMALL
 10
9993.762197019606
 20
3470.448726931442
 30
0.0
 41
75.0
 42
75.0
 43
75.0
  0
MTEXT
  5
1563C
330
14CC4
100
AcDbEntity
  8
寸法
 62
     7
 48
50.0
100
AcDbMText
 10
9818.762197019605
 20
3545.448726931442
 30
0.0
 40
90.0
 41
0.0
 71
     5
 72
     1
  1
\A1;350
  7
STYLE1
 73
     1
 44
1.0
1001
ACAD
1000
MTEXTBEGIN
1070
    73
1070
     1
1070
    44
1040
1.0
1070
    74
1070
     0
1000
MTEXTEND
  0
POINT
  5
1563D
330
14CC4
100
AcDbEntity
  8
DEFPOINTS
 62
     0
 48
50.0
100
AcDbPoint
 10
9643.762197019604
 20
3851.007524745597
 30
0.0
  0
POINT
  5
1563E
330
14CC4
100
AcDbEntity
  8
DEFPOINTS
 62
     0
 48
50.0
100
AcDbPoint
 10
9993.762197019606
 20
3851.007524745597
 30
0.0
  0
POINT
  5
1563F
330
14CC4
100
AcDbEntity
  8
DEFPOINTS
 62
     0
 48
50.0
100
AcDbPoint
 10
9993.762197019606
 20
3470.448726931442
 30
0.0
  0
ENDBLK
  5
14CC6
330
14CC4
100
AcDbEntity
  8
0
 48
50.0
100
AcDbBlockEnd
  0
BLOCK
  5
14CD1
330
14CD0
100
AcDbEntity
  8
0
 48
50.0
100
AcDbBlockBegin
  2
*D26
 70
     1
 10
0.0
 20
0.0
 30
0.0
  3
*D26
  1

  0
LINE
  5
15640
330
14CD0
100
AcDbEntity
  8
寸法
 62
     0
 48
50.0
370
    -2
100
AcDbLine
 10
10518.7621970196
 20
3897.065356575478
 30
0.0
 11
10518.7621970196
 21
3425.448726931442
 31
0.0
  0
LINE
  5
15641
330
14CD0
100
AcDbEntity
  8
寸法
 62
     0
 48
50.0
370
    -2
100
AcDbLine
 10
9993.762197019606
 20
3836.007524745598
 30
0.0
 11
9993.762197019606
 21
3425.448726931442
 31
0.0
  0
LINE
  5
15642
330
14CD0
100
AcDbEntity
  8
寸法
 62
     0
 48
50.0
370
    -2
100
AcDbLine
 10
10518.7621970196
 20
3470.448726931442
 30
0.0
 11
9993.762197019606
 21
3470.448726931442
 31
0.0
  0
INSERT
  5
15643
330
14CD0
100
AcDbEntity
  8
寸法
 62
     0
 48
50.0
370
    -2
100
AcDbBlockReference
  2
_DOTSMALL
 10
10518.7621970196
 20
3470.448726931442
 30
0.0
 41
75.0
 42
75.0
 43
75.0
  0
INSERT
  5
15644
330
14CD0
100
AcDbEntity
  8
寸法
 62
     0
 48
50.0
370
    -2
100
AcDbBlockReference
  2
_DOTSMALL
 10
9993.762197019606
 20
3470.448726931442
 30
0.0
 41
75.0
 42
75.0
 43
75.0
 50
180.0
  0
MTEXT
  5
15645
330
14CD0
100
AcDbEntity
  8
寸法
 62
     7
 48
50.0
100
AcDbMText
 10
10256.2621970196
 20
3545.457585199159
 30
0.0
 40
90.0
 41
0.0
 71
     5
 72
     1
  1
\A1;525
  7
STYLE1
 73
     1
 44
1.0
1001
ACAD
1000
MTEXTBEGIN
1070
    73
1070
     1
1070
    44
1040
1.0
1070
    74
1070
     0
1000
MTEXTEND
  0
POINT
  5
15646
330
14CD0
100
AcDbEntity
  8
DEFPOINTS
 62
     0
 48
50.0
100
AcDbPoint
 10
10518.7621970196
 20
3912.065356575477
 30
0.0
  0
POINT
  5
15647
330
14CD0
100
AcDbEntity
  8
DEFPOINTS
 62
     0
 48
50.0
100
AcDbPoint
 10
9993.762197019606
 20
3851.007524745597
 30
0.0
  0
POINT
  5
15648
330
14CD0
100
AcDbEntity
  8
DEFPOINTS
 62
     0
 48
50.0
100
AcDbPoint
 10
9993.762197019606
 20
3470.448726931442
 30
0.0
  0
ENDBLK
  5
14CD2
330
14CD0
100
AcDbEntity
  8
0
 48
50.0
100
AcDbBlockEnd
  0
BLOCK
  5
14CDD
330
14CDC
100
AcDbEntity
  8
0
 48
50.0
100
AcDbBlockBegin
  2
*D27
 70
     1
 10
0.0
 20
0.0
 30
0.0
  3
*D27
  1

  0
LINE
  5
15649
330
14CDC
100
AcDbEntity
  8
寸法
 62
     0
 48
50.0
370
    -2
100
AcDbLine
 10
11098.56007458312
 20
4512.065356575476
 30
0.0
 11
11356.20356162033
 21
4512.065356575476
 31
0.0
  0
LINE
  5
1564A
330
14CDC
100
AcDbEntity
  8
寸法
 62
     0
 48
50.0
370
    -2
100
AcDbLine
 10
10613.7621970196
 20
3912.065356575477
 30
0.0
 11
11356.20356162033
 21
3912.065356575477
 31
0.0
  0
LINE
  5
1564B
330
14CDC
100
AcDbEntity
  8
寸法
 62
     0
 48
50.0
370
    -2
100
AcDbLine
 10
11311.20356162033
 20
4512.065356575476
 30
0.0
 11
11311.20356162033
 21
3912.065356575477
 31
0.0
  0
INSERT
  5
1564C
330
14CDC
100
AcDbEntity
  8
寸法
 62
     0
 48
50.0
370
    -2
100
AcDbBlockReference
  2
_DOTSMALL
 10
11311.20356162033
 20
4512.065356575476
 30
0.0
 41
75.0
 42
75.0
 43
75.0
 50
90.0
  0
INSERT
  5
1564D
330
14CDC
100
AcDbEntity
  8
寸法
 62
     0
 48
50.0
370
    -2
100
AcDbBlockReference
  2
_DOTSMALL
 10
11311.20356162033
 20
3912.065356575477
 30
0.0
 41
75.0
 42
75.0
 43
75.0
 50
270.0
  0
MTEXT
  5
1564E
330
14CDC
100
AcDbEntity
  8
寸法
 62
     7
 48
50.0
100
AcDbMText
 10
11236.20356162033
 20
4212.065356575478
 30
0.0
 40
90.0
 41
0.0
 71
     5
 72
     1
  1
\A1;600
  7
STYLE1
 11
0.0000000000000001
 21
1.0
 31
0.0
 73
     1
 44
1.0
1001
ACAD
1000
MTEXTBEGIN
1070
    73
1070
     1
1070
    44
1040
1.0
1070
    74
1070
     0
1000
MTEXTEND
  0
POINT
  5
1564F
330
14CDC
100
AcDbEntity
  8
DEFPOINTS
 62
     0
 48
50.0
100
AcDbPoint
 10
11083.56007458312
 20
4512.065356575476
 30
0.0
  0
POINT
  5
15650
330
14CDC
100
AcDbEntity
  8
DEFPOINTS
 62
     0
 48
50.0
100
AcDbPoint
 10
10598.7621970196
 20
3912.065356575477
 30
0.0
  0
POINT
  5
15651
330
14CDC
100
AcDbEntity
  8
DEFPOINTS
 62
     0
 48
50.0
100
AcDbPoint
 10
11311.20356162033
 20
3912.065356575477
 30
0.0
  0
ENDBLK
  5
14CDE
330
14CDC
100
AcDbEntity
  8
0
 48
50.0
100
AcDbBlockEnd
  0
BLOCK
  5
14CE9
330
14CE8
100
AcDbEntity
  8
0
 48
50.0
100
AcDbBlockBegin
  2
*D28
 70
     1
 10
0.0
 20
0.0
 30
0.0
  3
*D28
  1

  0
LINE
  5
15652
330
14CE8
100
AcDbEntity
  8
寸法
 62
     0
 48
50.0
370
    -2
100
AcDbLine
 10
11033.7621970196
 20
4512.065356575476
 30
0.0
 11
11356.20356162033
 21
4512.065356575476
 31
0.0
  0
LINE
  5
15653
330
14CE8
100
AcDbEntity
  8
寸法
 62
     0
 48
50.0
370
    -2
100
AcDbLine
 10
11033.76219701966
 20
4562.065356575476
 30
0.0
 11
11356.20356162033
 21
4562.065356575476
 31
0.0
  0
LINE
  5
15654
330
14CE8
100
AcDbEntity
  8
寸法
 62
     0
 48
50.0
370
    -2
100
AcDbLine
 10
11311.20356162033
 20
4512.065356575476
 30
0.0
 11
11311.20356162033
 21
4437.065356575476
 31
0.0
  0
LINE
  5
15655
330
14CE8
100
AcDbEntity
  8
寸法
 62
     0
 48
50.0
370
    -2
100
AcDbLine
 10
11311.20356162033
 20
4562.065356575476
 30
0.0
 11
11311.20356162033
 21
4871.136222717249
 31
0.0
  0
LINE
  5
15656
330
14CE8
100
AcDbEntity
  8
寸法
 62
     0
 48
50.0
370
    -2
100
AcDbLine
 10
11311.20356162033
 20
4512.065356575476
 30
0.0
 11
11311.20356162033
 21
4562.065356575476
 31
0.0
  0
INSERT
  5
15657
330
14CE8
100
AcDbEntity
  8
寸法
 62
     0
 48
50.0
370
    -2
100
AcDbBlockReference
  2
_DOTSMALL
 10
11311.20356162033
 20
4512.065356575476
 30
0.0
 41
75.0
 42
75.0
 43
75.0
 50
90.0
  0
INSERT
  5
15658
330
14CE8
100
AcDbEntity
  8
寸法
 62
     0
 48
50.0
370
    -2
100
AcDbBlockReference
  2
_DOTSMALL
 10
11311.20356162033
 20
4562.065356575476
 30
0.0
 41
75.0
 42
75.0
 43
75.0
 50
270.0
  0
MTEXT
  5
15659
330
14CE8
100
AcDbEntity
  8
寸法
 62
     7
 48
50.0
100
AcDbMText
 10
11236.20356162033
 20
4791.600789646385
 30
0.0
 40
90.0
 41
0.0
 71
     5
 72
     1
  1
\A1;50
  7
STYLE1
 11
0.0000000000000001
 21
1.0
 31
0.0
 73
     1
 44
1.0
1001
ACAD
1000
MTEXTBEGIN
1070
    73
1070
     1
1070
    44
1040
1.0
1070
    74
1070
     0
1000
MTEXTEND
  0
POINT
  5
1565A
330
14CE8
100
AcDbEntity
  8
DEFPOINTS
 62
     0
 48
50.0
100
AcDbPoint
 10
11018.7621970196
 20
4512.065356575476
 30
0.0
  0
POINT
  5
1565B
330
14CE8
100
AcDbEntity
  8
DEFPOINTS
 62
     0
 48
50.0
100
AcDbPoint
 10
11018.76219701966
 20
4562.065356575476
 30
0.0
  0
POINT
  5
1565C
330
14CE8
100
AcDbEntity
  8
DEFPOINTS
 62
     0
 48
50.0
100
AcDbPoint
 10
11311.20356162033
 20
4562.065356575476
 30
0.0
  0
ENDBLK
  5
14CEA
330
14CE8
100
AcDbEntity
  8
0
 48
50.0
100
AcDbBlockEnd
  0
BLOCK
  5
14CF7
330
14CF6
100
AcDbEntity
  8
0
 48
50.0
100
AcDbBlockBegin
  2
*D29
 70
     1
 10
0.0
 20
0.0
 30
0.0
  3
*D29
  1

  0
LINE
  5
1565D
330
14CF6
100
AcDbEntity
  8
寸法
 62
     0
 48
50.0
370
    -2
100
AcDbLine
 10
10613.7621970196
 20
3912.065356575477
 30
0.0
 11
11356.20356162033
 21
3912.065356575477
 31
0.0
  0
LINE
  5
1565E
330
14CF6
100
AcDbEntity
  8
寸法
 62
     0
 48
50.0
370
    -2
100
AcDbLine
 10
10613.7621970196
 20
3862.065356575477
 30
0.0
 11
11356.20356162033
 21
3862.065356575477
 31
0.0
  0
LINE
  5
1565F
330
14CF6
100
AcDbEntity
  8
寸法
 62
     0
 48
50.0
370
    -2
100
AcDbLine
 10
11311.20356162033
 20
3912.065356575477
 30
0.0
 11
11311.20356162033
 21
3987.065356575477
 31
0.0
  0
LINE
  5
15660
330
14CF6
100
AcDbEntity
  8
寸法
 62
     0
 48
50.0
370
    -2
100
AcDbLine
 10
11311.20356162033
 20
3862.065356575477
 30
0.0
 11
11311.20356162033
 21
3552.994490433744
 31
0.0
  0
LINE
  5
15661
330
14CF6
100
AcDbEntity
  8
寸法
 62
     0
 48
50.0
370
    -2
100
AcDbLine
 10
11311.20356162033
 20
3912.065356575477
 30
0.0
 11
11311.20356162033
 21
3862.065356575477
 31
0.0
  0
INSERT
  5
15662
330
14CF6
100
AcDbEntity
  8
寸法
 62
     0
 48
50.0
370
    -2
100
AcDbBlockReference
  2
_DOTSMALL
 10
11311.20356162033
 20
3912.065356575477
 30
0.0
 41
75.0
 42
75.0
 43
75.0
 50
270.0
  0
INSERT
  5
15663
330
14CF6
100
AcDbEntity
  8
寸法
 62
     0
 48
50.0
370
    -2
100
AcDbBlockReference
  2
_DOTSMALL
 10
11311.20356162033
 20
3862.065356575477
 30
0.0
 41
75.0
 42
75.0
 43
75.0
 50
90.0
  0
MTEXT
  5
15664
330
14CF6
100
AcDbEntity
  8
寸法
 62
     7
 48
50.0
100
AcDbMText
 10
11236.20356162033
 20
3632.529923504613
 30
0.0
 40
90.0
 41
0.0
 71
     5
 72
     1
  1
\A1;50
  7
STYLE1
 11
0.0000000000000001
 21
1.0
 31
0.0
 73
     1
 44
1.0
1001
ACAD
1000
MTEXTBEGIN
1070
    73
1070
     1
1070
    44
1040
1.0
1070
    74
1070
     0
1000
MTEXTEND
  0
POINT
  5
15665
330
14CF6
100
AcDbEntity
  8
DEFPOINTS
 62
     0
 48
50.0
100
AcDbPoint
 10
10598.7621970196
 20
3912.065356575477
 30
0.0
  0
POINT
  5
15666
330
14CF6
100
AcDbEntity
  8
DEFPOINTS
 62
     0
 48
50.0
100
AcDbPoint
 10
10598.7621970196
 20
3862.065356575477
 30
0.0
  0
POINT
  5
15667
330
14CF6
100
AcDbEntity
  8
DEFPOINTS
 62
     0
 48
50.0
100
AcDbPoint
 10
11311.20356162033
 20
3862.065356575477
 30
0.0
  0
ENDBLK
  5
14CF8
330
14CF6
100
AcDbEntity
  8
0
 48
50.0
100
AcDbBlockEnd
  0
BLOCK
  5
14D05
330
14D04
100
AcDbEntity
  8
0
 48
50.0
100
AcDbBlockBegin
  2
*D30
 70
     1
 10
0.0
 20
0.0
 30
0.0
  3
*D30
  1

  0
LINE
  5
15668
330
14D04
100
AcDbEntity
  8
寸法
 62
     0
 48
50.0
370
    -2
100
AcDbLine
 10
9040.581005934349
 20
4362.065356575462
 30
0.0
 11
8653.08590125463
 21
4362.065356575462
 31
0.0
  0
LINE
  5
15669
330
14D04
100
AcDbEntity
  8
寸法
 62
     0
 48
50.0
370
    -2
100
AcDbLine
 10
9522.762197019606
 20
4422.065356575461
 30
0.0
 11
8653.08590125463
 21
4422.065356575461
 31
0.0
  0
LINE
  5
1566A
330
14D04
100
AcDbEntity
  8
寸法
 62
     0
 48
50.0
370
    -2
100
AcDbLine
 10
8698.08590125463
 20
4422.065356575461
 30
0.0
 11
8698.08590125463
 21
4362.065356575462
 31
0.0
  0
LINE
  5
1566B
330
14D04
100
AcDbEntity
  8
寸法
 62
     0
 48
50.0
370
    -2
100
AcDbLine
 10
8698.08590125463
 20
4362.065356575462
 30
0.0
 11
8698.08590125463
 21
4122.608663662076
 31
0.0
  0
INSERT
  5
1566C
330
14D04
100
AcDbEntity
  8
寸法
 62
     0
 48
50.0
370
    -2
100
AcDbBlockReference
  2
_DOTSMALL
 10
8698.08590125463
 20
4422.065356575461
 30
0.0
 41
75.0
 42
75.0
 43
75.0
 50
90.0
  0
INSERT
  5
1566D
330
14D04
100
AcDbEntity
  8
寸法
 62
     0
 48
50.0
370
    -2
100
AcDbBlockReference
  2
_DOTSMALL
 10
8698.08590125463
 20
4362.065356575462
 30
0.0
 41
75.0
 42
75.0
 43
75.0
 50
270.0
  0
MTEXT
  5
1566E
330
14D04
100
AcDbEntity
  8
寸法
 62
     7
 48
50.0
100
AcDbMText
 10
8623.085901254627
 20
4204.83701011877
 30
0.0
 40
90.0
 41
0.0
 71
     5
 72
     1
  1
\A1;60
  7
STYLE1
 11
0.0000000000000001
 21
1.0
 31
0.0
 73
     1
 44
1.0
1001
ACAD
1000
MTEXTBEGIN
1070
    73
1070
     1
1070
    44
1040
1.0
1070
    74
1070
     0
1000
MTEXTEND
  0
POINT
  5
1566F
330
14D04
100
AcDbEntity
  8
DEFPOINTS
 62
     0
 48
50.0
100
AcDbPoint
 10
9055.58100593435
 20
4362.065356575462
 30
0.0
  0
POINT
  5
15670
330
14D04
100
AcDbEntity
  8
DEFPOINTS
 62
     0
 48
50.0
100
AcDbPoint
 10
9537.762197019604
 20
4422.065356575461
 30
0.0
  0
POINT
  5
15671
330
14D04
100
AcDbEntity
  8
DEFPOINTS
 62
     0
 48
50.0
100
AcDbPoint
 10
8698.08590125463
 20
4422.065356575461
 30
0.0
  0
ENDBLK
  5
14D06
330
14D04
100
AcDbEntity
  8
0
 48
50.0
100
AcDbBlockEnd
  0
BLOCK
  5
14D12
330
14D11
100
AcDbEntity
  8
0
 48
50.0
100
AcDbBlockBegin
  2
*D31
 70
     1
 10
0.0
 20
0.0
 30
0.0
  3
*D31
  1

  0
LINE
  5
15672
330
14D11
100
AcDbEntity
  8
寸法
 62
     0
 48
50.0
370
    -2
100
AcDbLine
 10
9040.581005934349
 20
4362.065356575462
 30
0.0
 11
8853.261804647933
 21
4362.065356575462
 31
0.0
  0
LINE
  5
15673
330
14D11
100
AcDbEntity
  8
寸法
 62
     0
 48
50.0
370
    -2
100
AcDbLine
 10
9488.762197019605
 20
4392.065356575477
 30
0.0
 11
8853.261804647933
 21
4392.065356575477
 31
0.0
  0
LINE
  5
15674
330
14D11
100
AcDbEntity
  8
寸法
 62
     0
 48
50.0
370
    -2
100
AcDbLine
 10
8898.261804647935
 20
4392.065356575477
 30
0.0
 11
8898.261804647935
 21
4467.065356575477
 31
0.0
  0
LINE
  5
15675
330
14D11
100
AcDbEntity
  8
寸法
 62
     0
 48
50.0
370
    -2
100
AcDbLine
 10
8898.261804647935
 20
4362.065356575462
 30
0.0
 11
8898.261804647933
 21
4052.994490433729
 31
0.0
  0
LINE
  5
15676
330
14D11
100
AcDbEntity
  8
寸法
 62
     0
 48
50.0
370
    -2
100
AcDbLine
 10
8898.261804647935
 20
4392.065356575477
 30
0.0
 11
8898.261804647935
 21
4362.065356575462
 31
0.0
  0
INSERT
  5
15677
330
14D11
100
AcDbEntity
  8
寸法
 62
     0
 48
50.0
370
    -2
100
AcDbBlockReference
  2
_DOTSMALL
 10
8898.261804647935
 20
4392.065356575477
 30
0.0
 41
75.0
 42
75.0
 43
75.0
 50
270.0
  0
INSERT
  5
15678
330
14D11
100
AcDbEntity
  8
寸法
 62
     0
 48
50.0
370
    -2
100
AcDbBlockReference
  2
_DOTSMALL
 10
8898.261804647935
 20
4362.065356575462
 30
0.0
 41
75.0
 42
75.0
 43
75.0
 50
90.0
  0
MTEXT
  5
15679
330
14D11
100
AcDbEntity
  8
寸法
 62
     7
 48
50.0
100
AcDbMText
 10
8823.261804647932
 20
4132.529923504597
 30
0.0
 40
90.0
 41
0.0
 71
     5
 72
     1
  1
\A1;30
  7
STYLE1
 11
0.0000000000000001
 21
1.0
 31
0.0
 73
     1
 44
1.0
1001
ACAD
1000
MTEXTBEGIN
1070
    73
1070
     1
1070
    44
1040
1.0
1070
    74
1070
     0
1000
MTEXTEND
  0
POINT
  5
1567A
330
14D11
100
AcDbEntity
  8
DEFPOINTS
 62
     0
 48
50.0
100
AcDbPoint
 10
9055.58100593435
 20
4362.065356575462
 30
0.0
  0
POINT
  5
1567B
330
14D11
100
AcDbEntity
  8
DEFPOINTS
 62
     0
 48
50.0
100
AcDbPoint
 10
9503.762197019606
 20
4392.065356575477
 30
0.0
  0
POINT
  5
1567C
330
14D11
100
AcDbEntity
  8
DEFPOINTS
 62
     0
 48
50.0
100
AcDbPoint
 10
8898.261804647935
 20
4392.065356575477
 30
0.0
  0
ENDBLK
  5
14D13
330
14D11
100
AcDbEntity
  8
0
 48
50.0
100
AcDbBlockEnd
  0
BLOCK
  5
15382
330
15381
100
AcDbEntity
  8
0
 48
50.0
100
AcDbBlockBegin
  2
*D32
 70
     1
 10
0.0
 20
0.0
 30
0.0
  3
*D32
  1

  0
LINE
  5
1572F
330
15381
100
AcDbEntity
  8
寸法
 62
     0
 48
50.0
370
    -2
100
AcDbLine
 10
1638.79672280114
 20
4533.367941370032
 30
0.0
 11
1638.79672280114
 21
6614.885406672404
 31
0.0
  0
LINE
  5
15730
330
15381
100
AcDbEntity
  8
寸法
 62
     0
 48
50.0
370
    -2
100
AcDbLine
 10
4038.79672280114
 20
4533.367941370032
 30
0.0
 11
4038.79672280114
 21
6614.885406672404
 31
0.0
  0
LINE
  5
15731
330
15381
100
AcDbEntity
  8
寸法
 62
     0
 48
50.0
370
    -2
100
AcDbLine
 10
1638.79672280114
 20
6569.885406672404
 30
0.0
 11
4038.79672280114
 21
6569.885406672404
 31
0.0
  0
INSERT
  5
15732
330
15381
100
AcDbEntity
  8
寸法
 62
     0
 48
50.0
370
    -2
100
AcDbBlockReference
  2
_DOTSMALL
 10
1638.79672280114
 20
6569.885406672404
 30
0.0
 41
75.0
 42
75.0
 43
75.0
 50
180.0
  0
INSERT
  5
15733
330
15381
100
AcDbEntity
  8
寸法
 62
     0
 48
50.0
370
    -2
100
AcDbBlockReference
  2
_DOTSMALL
 10
4038.79672280114
 20
6569.885406672404
 30
0.0
 41
75.0
 42
75.0
 43
75.0
  0
MTEXT
  5
15734
330
15381
100
AcDbEntity
  8
寸法
 62
     7
 48
50.0
100
AcDbMText
 10
2838.796722801141
 20
6644.89426494012
 30
0.0
 40
90.0
 41
0.0
 71
     5
 72
     1
  1
\A1;2400
  7
STYLE1
 73
     1
 44
1.0
1001
ACAD
1000
MTEXTBEGIN
1070
    73
1070
     1
1070
    44
1040
1.0
1070
    74
1070
     0
1000
MTEXTEND
  0
POINT
  5
15735
330
15381
100
AcDbEntity
  8
DEFPOINTS
 62
     0
 48
50.0
100
AcDbPoint
 10
1638.79672280114
 20
4518.367941370032
 30
-0.0000000000013153
  0
POINT
  5
15736
330
15381
100
AcDbEntity
  8
DEFPOINTS
 62
     0
 48
50.0
100
AcDbPoint
 10
4038.79672280114
 20
4518.367941370032
 30
-0.0000000000013153
  0
POINT
  5
15737
330
15381
100
AcDbEntity
  8
DEFPOINTS
 62
     0
 48
50.0
100
AcDbPoint
 10
4038.79672280114
 20
6569.885406672404
 30
0.0
  0
ENDBLK
  5
15383
330
15381
100
AcDbEntity
  8
0
 48
50.0
100
AcDbBlockEnd
  0
BLOCK
  5
1538F
330
1538E
100
AcDbEntity
  8
0
 48
50.0
100
AcDbBlockBegin
  2
*D33
 70
     1
 10
0.0
 20
0.0
 30
0.0
  3
*D33
  1

  0
LINE
  5
15738
330
1538E
100
AcDbEntity
  8
寸法
 62
     0
 48
50.0
370
    -2
100
AcDbLine
 10
4038.79672280114
 20
4533.367941370032
 30
0.0
 11
4038.79672280114
 21
6614.885406672404
 31
0.0
  0
LINE
  5
15739
330
1538E
100
AcDbEntity
  8
寸法
 62
     0
 48
50.0
370
    -2
100
AcDbLine
 10
6438.79672280114
 20
4533.367941370032
 30
0.0
 11
6438.79672280114
 21
6614.885406672404
 31
0.0
  0
LINE
  5
1573A
330
1538E
100
AcDbEntity
  8
寸法
 62
     0
 48
50.0
370
    -2
100
AcDbLine
 10
4038.79672280114
 20
6569.885406672404
 30
0.0
 11
6438.79672280114
 21
6569.885406672404
 31
0.0
  0
INSERT
  5
1573B
330
1538E
100
AcDbEntity
  8
寸法
 62
     0
 48
50.0
370
    -2
100
AcDbBlockReference
  2
_DOTSMALL
 10
4038.79672280114
 20
6569.885406672404
 30
0.0
 41
75.0
 42
75.0
 43
75.0
 50
180.0
  0
INSERT
  5
1573C
330
1538E
100
AcDbEntity
  8
寸法
 62
     0
 48
50.0
370
    -2
100
AcDbBlockReference
  2
_DOTSMALL
 10
6438.79672280114
 20
6569.885406672404
 30
0.0
 41
75.0
 42
75.0
 43
75.0
  0
MTEXT
  5
1573D
330
1538E
100
AcDbEntity
  8
寸法
 62
     7
 48
50.0
100
AcDbMText
 10
5238.79672280114
 20
6644.89426494012
 30
0.0
 40
90.0
 41
0.0
 71
     5
 72
     1
  1
\A1;2400
  7
STYLE1
 73
     1
 44
1.0
1001
ACAD
1000
MTEXTBEGIN
1070
    73
1070
     1
1070
    44
1040
1.0
1070
    74
1070
     0
1000
MTEXTEND
  0
POINT
  5
1573E
330
1538E
100
AcDbEntity
  8
DEFPOINTS
 62
     0
 48
50.0
100
AcDbPoint
 10
4038.79672280114
 20
4518.367941370032
 30
-0.0000000000013153
  0
POINT
  5
1573F
330
1538E
100
AcDbEntity
  8
DEFPOINTS
 62
     0
 48
50.0
100
AcDbPoint
 10
6438.79672280114
 20
4518.367941370032
 30
-0.0000000000013153
  0
POINT
  5
15740
330
1538E
100
AcDbEntity
  8
DEFPOINTS
 62
     0
 48
50.0
100
AcDbPoint
 10
6438.79672280114
 20
6569.885406672404
 30
0.0
  0
ENDBLK
  5
15390
330
1538E
100
AcDbEntity
  8
0
 48
50.0
100
AcDbBlockEnd
  0
ENDSEC
  0
SECTION
  2
ENTITIES
  0
MTEXT
  5
763F
330
747D
100
AcDbEntity
  8
0
100
AcDbMText
 10
302.846345836809
 20
280.1983726409901
 30
0.0
 40
3.5
 41
5.323721266742722
 71
     1
 72
     5
  1

  7
MSMINCHO
 73
     1
 44
1.0
1001
ACAD
1000
MTEXTBEGIN
1070
    73
1070
     1
1070
    44
1040
1.0
1070
    74
1070
     0
1000
MTEXTEND
  0
LINE
  5
10B56
330
747D
100
AcDbEntity
  8
補助
  6
PHANTOM
 62
   230
 48
50.0
100
AcDbLine
 10
105.0
 20
0.0
 30
0.0
 11
104.9999999999996
 21
8557.199999999999
 31
0.0
  0
LINE
  5
10B57
330
747D
100
AcDbEntity
  8
補助
  6
PHANTOM
 62
   230
 48
50.0
100
AcDbLine
 10
104.9999999999996
 20
8557.199999999999
 30
0.0
 11
12230.4
 21
8557.199999999999
 31
0.0
  0
LINE
  5
10B5E
330
747D
100
AcDbEntity
  8
補助
  6
PHANTOM
 62
   230
 48
50.0
100
AcDbLine
 10
12230.4
 20
8557.199999999999
 30
0.0
 11
12230.4
 21
900.0
 31
0.0
  0
LINE
  5
10B6D
330
747D
100
AcDbEntity
  8
補助
  6
PHANTOM
 62
   230
 48
50.0
100
AcDbLine
 10
9830.400000000002
 20
8557.199999999999
 30
0.0
 11
9830.400000000002
 21
3600.0
 31
0.0
  0
LINE
  5
10B6F
330
747D
100
AcDbEntity
  8
補助
  6
PHANTOM
 62
   230
 48
50.0
100
AcDbLine
 10
9830.400000000002
 20
3110.960973647383
 30
0.0
 11
12230.4
 21
3110.960973647383
 31
0.0
  0
LINE
  5
13125
330
747D
100
AcDbEntity
  8
補助
  6
PHANTOM
 62
   230
 48
50.0
100
AcDbLine
 10
11930.4
 20
8182.200000000003
 30
0.0
 11
11930.4
 21
6457.2
 31
0.0
  0
LINE
  5
13126
330
747D
100
AcDbEntity
  8
補助
  6
PHANTOM
 62
   230
 48
50.0
100
AcDbLine
 10
9380.400000000003
 20
8182.199999999999
 30
0.0
 11
9380.400000000003
 21
6457.2
 31
0.0
  0
LINE
  5
13127
330
747D
100
AcDbEntity
  8
補助
  6
PHANTOM
 62
   230
 48
50.0
100
AcDbLine
 10
9380.400000000003
 20
6457.2
 30
0.0
 11
11930.4
 21
6457.2
 31
0.0
  0
LINE
  5
13128
330
747D
100
AcDbEntity
  8
補助
  6
PHANTOM
 62
   230
 48
50.0
100
AcDbLine
 10
9380.400000000003
 20
8182.199999999999
 30
0.0
 11
11930.4
 21
8182.200000000003
 31
0.0
  0
LINE
  5
13A40
330
747D
100
AcDbEntity
  8
仕様書枠
  6
Continuous
 48
50.0
100
AcDbLine
 10
9830.400000000002
 20
900.0000000000037
 30
0.0
 11
9830.400000000002
 21
0.0
 31
0.0
  0
LINE
  5
13A41
330
747D
100
AcDbEntity
  8
仕様書枠
 48
50.0
100
AcDbLine
 10
12230.4
 20
900.0000000000037
 30
0.0
 11
12230.4
 21
0.0
 31
0.0
  0
LINE
  5
13A42
330
747D
100
AcDbEntity
  8
仕様書枠
 48
50.0
100
AcDbLine
 10
105.0
 20
0.0
 30
0.0
 11
12230.4
 21
0.0
 31
0.0
  0
LINE
  5
13A43
330
747D
100
AcDbEntity
  8
仕様書枠
 48
50.0
100
AcDbLine
 10
9830.400000000002
 20
900.0000000000037
 30
0.0
 11
12230.4
 21
900.0000000000037
 31
0.0
  0
LINE
  5
13A44
330
747D
100
AcDbEntity
  8
文字
 62
     7
 48
50.0
100
AcDbLine
 10
9890.400000000001
 20
300.0
 30
0.0
 11
12170.4
 21
300.0
 31
0.0
  0
TEXT
  5
13A45
330
747D
100
AcDbEntity
  8
文字
 62
     7
 48
50.0
100
AcDbText
 10
9872.234292432681
 20
671.31795557246
 30
0.0
 40
150.0
  1
基 礎 図
  7
STYLE2
100
AcDbText
  0
TEXT
  5
13A46
330
747D
100
AcDbEntity
  8
文字
 62
     7
 48
50.0
100
AcDbText
 10
9901.077524988316
 20
357.9555495773529
 30
0.0
 40
120.0
  1
機種名
  7
STYLE2
100
AcDbText
  0
TEXT
  5
13A47
330
747D
100
AcDbEntity
  8
文字
 62
     7
 48
50.0
100
AcDbText
 10
9907.054008162901
 20
171.4076431926805
 30
0.0
 40
60.0
  1
○間口寸法は柱芯寸法です。
  7
STYLE2
100
AcDbText
  0
TEXT
  5
13A48
330
747D
100
AcDbEntity
  8
文字
 62
     7
 48
50.0
100
AcDbText
 10
9907.054008162901
 20
57.07076030736789
 30
0.0
 40
60.0
  1
○寒冷地等は、地域の実情に合わせた基礎にしてください。
  7
STYLE2
100
AcDbText
  0
LINE
  5
13A49
330
747D
100
AcDbEntity
  8
仕様書枠
 48
50.0
100
AcDbLine
 10
9830.400000000002
 20
600.0000000000036
 30
0.0
 11
10688.4
 21
600.0000000000036
 31
0.0
  0
LINE
  5
13A4A
330
747D
100
AcDbEntity
  8
仕様書枠
  6
Continuous
 48
50.0
100
AcDbLine
 10
10688.4
 20
900.0000000000037
 30
0.0
 11
10688.4
 21
600.0000000000036
 31
0.0
  0
TEXT
  5
13A4B
330
747D
100
AcDbEntity
  8
文字
 62
     7
 48
50.0
100
AcDbText
 10
10951.9835159712
 20
362.922534743353
 30
0.0
 40
120.0
  1
BP-24VPL-2
  7
STYLE3
100
AcDbText
  0
TEXT
  5
13A4C
330
747D
100
AcDbEntity
  8
文字
 62
     7
 48
50.0
100
AcDbText
 10
11138.71739229687
 20
628.6895453046927
 30
0.0
 40
75.0
  1
～一般型～
  7
STYLE2
100
AcDbText
  0
TEXT
  5
13A4D
330
747D
100
AcDbEntity
  8
文字
 62
     7
 48
50.0
100
AcDbText
 10
10893.0988779165
 20
773.6682797184258
 30
0.0
 40
75.0
  1
             <縮尺> S=1/30
  7
STYLE2
100
AcDbText
  0
LINE
  5
147BF
330
747D
100
AcDbEntity
  8
細線
 48
50.0
100
AcDbLine
 10
9511.375297876265
 20
3762.065356575477
 30
0.0
 11
9504.676568065494
 21
3787.065356575477
 31
0.0
  0
LINE
  5
147C0
330
747D
100
AcDbEntity
  8
細線
 48
50.0
100
AcDbLine
 10
9388.112727646149
 20
3762.065356575477
 30
0.0
 11
9381.413997835378
 21
3787.065356575477
 31
0.0
  0
LINE
  5
147C1
330
747D
100
AcDbEntity
  8
細線
 48
50.0
100
AcDbLine
 10
9264.850157416091
 20
3762.065356575477
 30
0.0
 11
9258.151427605319
 21
3787.065356575477
 31
0.0
  0
LINE
  5
147C2
330
747D
100
AcDbEntity
  8
細線
 48
50.0
100
AcDbLine
 10
9141.587587186034
 20
3762.065356575477
 30
0.0
 11
9134.888857375264
 21
3787.065356575477
 31
0.0
  0
LINE
  5
147C3
330
747D
100
AcDbEntity
  8
細線
 48
50.0
100
AcDbLine
 10
9518.074027687035
 20
3837.065356575477
 30
0.0
 11
9511.375297876265
 21
3862.065356575477
 31
0.0
  0
LINE
  5
147C4
330
747D
100
AcDbEntity
  8
細線
 48
50.0
100
AcDbLine
 10
9394.811457456919
 20
3837.065356575477
 30
0.0
 11
9388.112727646149
 21
3862.065356575477
 31
0.0
  0
LINE
  5
147C5
330
747D
100
AcDbEntity
  8
細線
 48
50.0
100
AcDbLine
 10
9148.286316996804
 20
3837.065356575477
 30
0.0
 11
9141.587587186034
 21
3862.065356575477
 31
0.0
  0
LINE
  5
147C6
330
747D
100
AcDbEntity
  8
細線
 48
50.0
100
AcDbLine
 10
9271.548887226861
 20
3837.065356575477
 30
0.0
 11
9264.850157416091
 21
3862.065356575477
 31
0.0
  0
HATCH
  5
147C7
330
747D
100
AcDbEntity
  8
細線
 48
50.0
100
AcDbHatch
 10
0.0
 20
0.0
 30
0.0000000000013153
210
0.0
220
0.0
230
1.0
  2
PLAST
 70
     0
 71
     0
 91
       10
 92
        7
 72
     1
 73
     1
 93
       16
 10
9599.212197019616
 20
4576.065356575476
 42
0.0
 10
9585.212197019616
 20
4576.065356575476
 42
0.0
 10
9571.212197019617
 20
4562.065356575476
 42
0.0
 10
8618.762197019547
 20
4562.065356575476
 42
0.0
 10
8618.762197019604
 20
4462.065356575476
 42
0.0
 10
9118.762197019604
 20
4462.065356575476
 42
0.0
 10
9118.762197019604
 20
4362.065356575505
 42
0.0
 10
9443.762197019605
 20
4362.065356575505
 42
0.0
 10
9443.762197019605
 20
4397.065356575477
 42
0.0
 10
9438.762197019604
 20
4397.065356575477
 42
-0.4142135623730951
 10
9433.762197019605
 20
4402.065356575476
 42
-0.4142135623730951
 10
9438.762197019604
 20
4407.065356575476
 42
0.0
 10
9510.212197019617
 20
4407.065356575476
 42
0.0
 10
9510.212197019617
 20
4444.065356575476
 42
0.0
 10
9520.212197019617
 20
4454.065356575476
 42
0.0
 10
9599.212197019616
 20
4454.065356575476
 42
0.0
 97
        0
 92
       23
 72
     0
 73
     1
 93
        6
 10
9537.762197019604
 20
4392.065356575477
 10
9503.762197019606
 20
4392.065356575477
 10
9503.762197019606
 20
4397.065356575477
 10
9456.762197019605
 20
4397.065356575477
 10
9456.762197019605
 20
4362.065356575505
 10
9537.762197019604
 20
4362.065356575505
 97
        0
 92
        7
 72
     1
 73
     1
 93
        4
 10
9643.762197019604
 20
4392.065356575505
 42
0.0
 10
9549.762197019605
 20
4392.065356575491
 42
0.0
 10
9549.762197019605
 20
4362.065356575505
 42
0.0
 10
9599.116927659444
 20
4362.065356575505
 42
-0.304773531682055
 97
        0
 92
        7
 72
     1
 73
     1
 93
        4
 10
9737.762197019605
 20
4392.065356575477
 42
0.0
 10
9643.762197019604
 20
4392.065356575505
 42
-0.304773531682055
 10
9688.407466379766
 20
4362.065356575505
 42
0.0
 10
9737.762197019605
 20
4362.065356575505
 42
0.0
 97
        0
 92
        7
 72
     0
 73
     1
 93
        8
 10
9887.762197019606
 20
4392.065356575477
 10
9853.762197019605
 20
4392.065356575477
 10
9853.762197019605
 20
4397.065356575477
 10
9783.762197019605
 20
4397.065356575477
 10
9783.762197019605
 20
4392.065356575477
 10
9749.762197019606
 20
4392.065356575477
 10
9749.762197019606
 20
4362.065356575505
 10
9887.762197019606
 20
4362.065356575505
 97
        0
 92
        7
 72
     0
 73
     1
 93
       14
 10
9860.212197019617
 20
4444.065356575476
 10
9870.212197019618
 20
4454.065356575476
 10
9949.212197019617
 20
4454.065356575476
 10
9949.212197019617
 20
4576.065356575476
 10
9935.212197019616
 20
4576.065356575476
 10
9921.212197019617
 20
4562.065356575462
 10
9716.312197019593
 20
4562.065356575476
 10
9702.312197019651
 20
4576.065356575476
 10
9688.312197019593
 20
4576.065356575476
 10
9688.312197019593
 20
4454.065356575476
 10
9767.312197019593
 20
4454.065356575476
 10
9777.312197019593
 20
4444.065356575476
 10
9777.312197019593
 20
4407.065356575476
 10
9860.212197019617
 20
4407.065356575476
 97
        0
 92
        7
 72
     1
 73
     1
 93
        4
 10
9993.762197019606
 20
4392.065356575505
 42
0.0
 10
9899.762197019605
 20
4392.065356575491
 42
0.0
 10
9899.762197019605
 20
4362.065356575505
 42
0.0
 10
9949.116927659446
 20
4362.065356575505
 42
-0.3047735316820541
 97
        0
 92
        7
 72
     1
 73
     1
 93
        4
 10
10087.7621970196
 20
4392.065356575477
 42
0.0
 10
9993.762197019606
 20
4392.065356575505
 42
-0.3047735316820546
 10
10038.40746637976
 20
4362.065356575505
 42
0.0
 10
10087.7621970196
 20
4362.065356575505
 42
0.0
 97
        0
 92
       23
 72
     0
 73
     1
 93
        6
 10
10180.7621970196
 20
4397.065356575477
 10
10133.7621970196
 20
4397.065356575477
 10
10133.7621970196
 20
4392.065356575477
 10
10099.7621970196
 20
4392.065356575477
 10
10099.7621970196
 20
4362.065356575505
 10
10180.7621970196
 20
4362.065356575505
 97
        0
 92
        7
 72
     1
 73
     1
 93
       16
 10
10518.7621970196
 20
4462.065356575476
 42
0.0
 10
11018.7621970196
 20
4462.065356575476
 42
0.0
 10
11018.76219701966
 20
4562.065356575476
 42
0.0
 10
10066.31219701959
 20
4562.065356575476
 42
0.0
 10
10052.31219701965
 20
4576.065356575476
 42
0.0
 10
10038.31219701959
 20
4576.065356575476
 42
0.0
 10
10038.31219701959
 20
4454.065356575476
 42
0.0
 10
10117.31219701959
 20
4454.065356575476
 42
0.0
 10
10127.31219701959
 20
4444.065356575476
 42
0.0
 10
10127.31219701959
 20
4407.065356575476
 42
0.0
 10
10198.7621970196
 20
4407.065356575476
 42
-0.4142135623730951
 10
10203.7621970196
 20
4402.065356575476
 42
-0.4142135623730951
 10
10198.7621970196
 20
4397.065356575477
 42
0.0
 10
10193.7621970196
 20
4397.065356575477
 42
0.0
 10
10193.7621970196
 20
4362.065356575505
 42
0.0
 10
10518.7621970196
 20
4362.065356575505
 42
0.0
 97
        0
 75
     0
 76
     1
 52
45.0
 41
37.5
 77
     0
 78
     3
 53
45.0
 43
-266843.9531501078
 44
112272.8954387455
 45
-168.3798022700466
 46
168.3798022700466
 79
     0
 53
45.0
 43
-266865.0006253915
 44
112293.9429140292
 45
-168.3798022700466
 46
168.3798022700466
 79
     0
 53
45.0
 43
-266886.0481006753
 44
112314.990389313
 45
-168.3798022700466
 46
168.3798022700466
 79
     0
 47
2.934270310785949
 98
       10
 10
9360.221252328322
 20
4508.543069652805
 10
9493.328789551698
 20
4369.297300248144
 10
9581.653745116097
 20
4371.590346429031
 10
9711.273180586593
 20
4377.323066749347
 10
9824.833837740836
 20
4378.469694707892
 10
9827.128068559236
 20
4426.624922923714
 10
9938.394215757625
 20
4379.616112930206
 10
10065.71969954723
 20
4376.176648527006
 10
10150.60344845279
 20
4376.176648527006
 10
10417.29026521406
 20
4448.095620585518
1001
GradientColor1ACI
1070
     5
1001
GradientColor2ACI
1070
     2
1001
ACAD
1010
0.0
1020
0.0
1030
0.0
  0
CIRCLE
  5
147C8
330
747D
100
AcDbEntity
  8
U7
100
AcDbCircle
 10
9438.762197019604
 20
4402.065356575476
 30
0.0
 40
5.0
  0
CIRCLE
  5
147C9
330
747D
100
AcDbEntity
  8
U7
100
AcDbCircle
 10
10198.7621970196
 20
4402.065356575476
 30
0.0
 40
5.0
  0
LINE
  5
147CA
330
747D
100
AcDbEntity
  8
U7
100
AcDbLine
 10
9438.762197019604
 20
4397.065356575477
 30
0.0
 11
10198.7621970196
 21
4397.065356575477
 31
0.0
  0
LINE
  5
147CB
330
747D
100
AcDbEntity
  8
U7
100
AcDbLine
 10
9438.762197019604
 20
4407.065356575476
 30
0.0
 11
10198.7621970196
 21
4407.065356575476
 31
0.0
  0
HATCH
  5
147CC
330
747D
100
AcDbEntity
  8
細線
 48
50.0
100
AcDbHatch
 10
0.0
 20
0.0
 30
0.0000000000013153
210
0.0
220
0.0
230
1.0
  2
PLAST
 70
     0
 71
     0
 91
       29
 92
        7
 72
     1
 73
     1
 93
       34
 10
9438.762197019604
 20
4207.065356575476
 42
0.0
 10
9443.762197019605
 20
4207.065356575476
 42
0.0
 10
9443.762197019605
 20
4297.065356575476
 42
0.0
 10
9438.762197019604
 20
4297.065356575476
 42
-0.4142135623730951
 10
9433.762197019605
 20
4302.065356575476
 42
-0.4142135623730951
 10
9438.762197019604
 20
4307.065356575477
 42
0.0
 10
9443.762197019605
 20
4307.065356575477
 42
0.0
 10
9443.762197019605
 20
4362.065356575505
 42
0.0
 10
9118.762197019604
 20
4362.065356575505
 42
0.0
 10
9118.762197019604
 20
3912.065356575477
 42
0.0
 10
9238.762197019605
 20
3912.065356575477
 42
0.0
 10
9303.042648581685
 20
3976.345808137558
 42
0.0
 10
9303.042648581685
 20
3987.065356575492
 42
0.0
 10
9313.762197019604
 20
3987.065356575492
 42
0.0
 10
9315.226663113644
 20
3988.529822669546
 42
-0.1989123673796434
 10
9313.762197019604
 20
3992.065356575477
 42
-1.0
 10
9323.762197019606
 20
3992.065356575477
 42
-0.4142135623730992
 10
9318.762197019605
 20
3987.065356575477
 42
0.0
 10
9374.49088410988
 20
3987.065356575477
 42
0.0
 10
9411.49088410988
 20
4024.065356575476
 42
0.0
 10
9268.312197019595
 20
4024.065356575476
 42
0.0
 10
9268.312197019595
 20
4037.065356575477
 42
0.0
 10
9413.762197019606
 20
4037.065356575477
 42
0.1260483184577218
 10
9428.185706281933
 20
4040.760178747543
 42
0.0
 10
9440.067374847552
 20
4052.641847313135
 42
0.1260483184577219
 10
9443.762197019605
 20
4067.065356575477
 42
0.0
 10
9443.762197019605
 20
4097.065356575476
 42
0.0
 10
9438.762197019604
 20
4097.065356575476
 42
-0.4142135623730951
 10
9433.762197019605
 20
4102.065356575476
 42
-0.4142135623730951
 10
9438.762197019604
 20
4107.065356575477
 42
0.0
 10
9443.762197019605
 20
4107.065356575477
 42
0.0
 10
9443.762197019605
 20
4197.065356575476
 42
0.0
 10
9438.762197019604
 20
4197.065356575476
 42
-0.4142135623730951
 10
9433.762197019605
 20
4202.065356575476
 42
-0.4142135623730951
 97
        0
 92
        7
 72
     0
 73
     1
 93
        4
 10
9537.762197019604
 20
4362.065356575505
 10
9456.762197019605
 20
4362.065356575505
 10
9456.762197019605
 20
4307.065356575477
 10
9537.762197019604
 20
4307.065356575477
 97
        0
 92
        7
 72
     0
 73
     1
 93
        4
 10
9537.762197019604
 20
4297.065356575476
 10
9456.762197019605
 20
4297.065356575476
 10
9456.762197019605
 20
4207.065356575476
 10
9537.762197019604
 20
4207.065356575476
 97
        0
 92
        7
 72
     1
 73
     1
 93
        7
 10
9537.762197019604
 20
4197.065356575476
 42
0.0
 10
9456.762197019605
 20
4197.065356575476
 42
0.0
 10
9456.762197019605
 20
4107.065356575477
 42
0.0
 10
9493.762197019604
 20
4107.065356575477
 42
0.0
 10
9493.762197019604
 20
4113.065356575476
 42
0.0
 10
9512.762197019604
 20
4113.065356575476
 42
0.4142135623730951
 10
9537.762197019604
 20
4138.065356575476
 42
0.0
 97
        0
 92
        7
 72
     1
 73
     1
 93
       12
 10
9643.762197019604
 20
4097.065356575476
 42
0.0
 10
9484.490884109879
 20
4097.065356575476
 42
0.0
 10
9456.762197019605
 20
4069.336669485202
 42
0.0
 10
9456.762197019605
 20
4067.065356575477
 42
-0.4142135623730951
 10
9413.762197019606
 20
4024.065356575476
 42
0.0
 10
9411.49088410988
 20
4024.065356575476
 42
0.0
 10
9374.49088410988
 20
3987.065356575492
 42
0.0
 10
9518.762197019604
 20
3987.065356575477
 42
-0.4142135623730918
 10
9513.762197019605
 20
3992.065356575477
 42
-1.0
 10
9523.762197019605
 20
3992.065356575477
 42
-0.4142135623730984
 10
9518.762197019604
 20
3987.065356575477
 42
0.0
 10
9643.762197019604
 20
3987.065356575477
 42
0.0
 97
        0
 92
       23
 72
     0
 73
     1
 93
        4
 10
9364.490884109882
 20
3977.065356575462
 10
9303.762197019606
 20
3977.065356575462
 10
9238.762197019605
 20
3912.065356575477
 10
9299.49088410988
 20
3912.065356575477
 97
        0
 92
        7
 72
     0
 73
     1
 93
        4
 10
9643.762197019604
 20
3977.065356575462
 10
9364.490884109882
 20
3977.065356575462
 10
9299.49088410988
 20
3912.065356575477
 10
9643.762197019604
 20
3912.065356575477
 97
        0
 92
        7
 72
     0
 73
     1
 93
        4
 10
9643.762197019604
 20
4362.065356575505
 10
9549.762197019605
 20
4362.065356575505
 10
9549.762197019605
 20
4307.065356575477
 10
9643.762197019604
 20
4307.065356575477
 97
        0
 92
        7
 72
     0
 73
     1
 93
        4
 10
9643.762197019604
 20
4297.065356575476
 10
9549.762197019605
 20
4297.065356575476
 10
9549.762197019605
 20
4207.065356575476
 10
9643.762197019604
 20
4207.065356575476
 97
        0
 92
        7
 72
     1
 73
     1
 93
        5
 10
9643.762197019604
 20
4197.065356575476
 42
0.0
 10
9549.762197019605
 20
4197.065356575476
 42
0.0
 10
9549.762197019605
 20
4138.065356575476
 42
-0.2535612698375805
 10
9532.961206896302
 20
4107.065356575477
 42
0.0
 10
9643.762197019604
 20
4107.065356575477
 42
0.0
 97
        0
 92
        7
 72
     0
 73
     1
 93
        4
 10
9993.762197019606
 20
3977.065356575477
 10
9643.762197019604
 20
3977.065356575462
 10
9643.762197019604
 20
3912.065356575477
 10
9993.762197019606
 20
3912.065356575477
 97
        0
 92
        7
 72
     1
 73
     1
 93
       12
 10
9993.762197019606
 20
4097.065356575476
 42
0.0
 10
9643.762197019604
 20
4097.065356575476
 42
0.0
 10
9643.762197019604
 20
3987.065356575492
 42
0.0
 10
9718.762197019605
 20
3987.065356575477
 42
-0.4142135623730918
 10
9713.762197019605
 20
3992.065356575477
 42
-1.0
 10
9723.762197019606
 20
3992.065356575477
 42
-0.4142135623730984
 10
9718.762197019605
 20
3987.065356575477
 42
0.0
 10
9918.762197019605
 20
3987.065356575477
 42
-0.4142135623730951
 10
9913.762197019606
 20
3992.065356575477
 42
-1.0
 10
9923.762197019605
 20
3992.065356575477
 42
-0.4142135623731017
 10
9918.762197019605
 20
3987.065356575477
 42
0.0
 10
9993.762197019606
 20
3987.065356575477
 42
0.0
 97
        0
 92
        7
 72
     1
 73
     1
 93
        5
 10
9737.762197019605
 20
4197.065356575476
 42
0.0
 10
9643.762197019604
 20
4197.065356575476
 42
0.0
 10
9643.762197019604
 20
4107.065356575477
 42
0.0
 10
9754.563187142906
 20
4107.065356575477
 42
-0.2535612698375802
 10
9737.762197019605
 20
4138.065356575476
 42
0.0
 97
        0
 92
        7
 72
     0
 73
     1
 93
        4
 10
9737.762197019605
 20
4297.065356575476
 10
9643.762197019604
 20
4297.065356575476
 10
9643.762197019604
 20
4207.065356575476
 10
9737.762197019605
 20
4207.065356575476
 97
        0
 92
        7
 72
     0
 73
     1
 93
        4
 10
9737.762197019605
 20
4362.065356575505
 10
9643.762197019604
 20
4362.065356575505
 10
9643.762197019604
 20
4307.065356575477
 10
9737.762197019605
 20
4307.065356575477
 97
        0
 92
        7
 72
     0
 73
     1
 93
        4
 10
9887.762197019606
 20
4362.065356575505
 10
9749.762197019606
 20
4362.065356575505
 10
9749.762197019606
 20
4307.065356575477
 10
9887.762197019606
 20
4307.065356575477
 97
        0
 92
        7
 72
     0
 73
     1
 93
        4
 10
9887.762197019606
 20
4297.065356575476
 10
9749.762197019606
 20
4297.065356575476
 10
9749.762197019606
 20
4207.065356575476
 10
9887.762197019606
 20
4207.065356575476
 97
        0
 92
        7
 72
     1
 73
     1
 93
       10
 10
9887.762197019606
 20
4197.065356575476
 42
0.0
 10
9749.762197019606
 20
4197.065356575476
 42
0.0
 10
9749.762197019606
 20
4138.065356575476
 42
0.4142135623730951
 10
9774.762197019605
 20
4113.065356575476
 42
0.0
 10
9793.762197019605
 20
4113.065356575476
 42
0.0
 10
9793.762197019605
 20
4107.065356575477
 42
0.0
 10
9843.762197019605
 20
4107.065356575477
 42
0.0
 10
9843.762197019605
 20
4113.065356575476
 42
0.0
 10
9862.762197019605
 20
4113.065356575476
 42
0.4142135623730951
 10
9887.762197019606
 20
4138.065356575476
 42
0.0
 97
        0
 92
        7
 72
     0
 73
     1
 93
        4
 10
9993.762197019606
 20
4362.065356575505
 10
9899.762197019605
 20
4362.065356575505
 10
9899.762197019605
 20
4307.065356575477
 10
9993.762197019606
 20
4307.065356575477
 97
        0
 92
        7
 72
     0
 73
     1
 93
        4
 10
10087.7621970196
 20
4362.065356575505
 10
9993.762197019606
 20
4362.065356575505
 10
9993.762197019606
 20
4307.065356575477
 10
10087.7621970196
 20
4307.065356575477
 97
        0
 92
        7
 72
     0
 73
     1
 93
        4
 10
10087.7621970196
 20
4297.065356575476
 10
9993.762197019606
 20
4297.065356575476
 10
9993.762197019606
 20
4207.065356575476
 10
10087.7621970196
 20
4207.065356575476
 97
        0
 92
        7
 72
     0
 73
     1
 93
        4
 10
9993.762197019606
 20
4297.065356575476
 10
9899.762197019605
 20
4297.065356575476
 10
9899.762197019605
 20
4207.065356575476
 10
9993.762197019606
 20
4207.065356575476
 97
        0
 92
        7
 72
     1
 73
     1
 93
        5
 10
9993.762197019606
 20
4197.065356575476
 42
0.0
 10
9899.762197019605
 20
4197.065356575476
 42
0.0
 10
9899.762197019605
 20
4138.065356575476
 42
-0.2535612698375804
 10
9882.961206896304
 20
4107.065356575477
 42
0.0
 10
9993.762197019606
 20
4107.065356575477
 42
0.0
 97
        0
 92
       23
 72
     1
 73
     1
 93
        5
 10
10087.7621970196
 20
4197.065356575476
 42
0.0
 10
9993.762197019606
 20
4197.065356575476
 42
0.0
 10
9993.762197019606
 20
4107.065356575477
 42
0.0
 10
10104.5631871429
 20
4107.065356575477
 42
-0.2535612698375802
 10
10087.7621970196
 20
4138.065356575476
 42
0.0
 97
        0
 92
        7
 72
     1
 73
     1
 93
       34
 10
10180.76219701972
 20
4067.065356575477
 42
0.0
 10
10180.76219701972
 20
4097.065356575476
 42
0.0
 10
9993.762197019606
 20
4097.065356575476
 42
0.0
 10
9993.762197019606
 20
3987.065356575477
 42
0.0
 10
10118.7621970196
 20
3987.065356575477
 42
-0.4142135623730885
 10
10113.7621970196
 20
3992.065356575477
 42
-1.0
 10
10123.7621970196
 20
3992.065356575477
 42
-0.4142135623731017
 10
10118.7621970196
 20
3987.065356575477
 42
0.0
 10
10318.7621970196
 20
3987.065356575477
 42
-0.4142135623730951
 10
10313.7621970196
 20
3992.065356575477
 42
-1.0
 10
10323.7621970196
 20
3992.065356575477
 42
-0.4142135623731017
 10
10318.7621970196
 20
3987.065356575477
 42
0.0
 10
10334.48174545752
 20
3987.065356575477
 42
0.0
 10
10334.48174545752
 20
3977.065356575477
 42
0.0
 10
9993.762197019606
 20
3977.065356575477
 42
0.0
 10
9993.762197019606
 20
3912.065356575477
 42
0.0
 10
10518.7621970196
 20
3912.065356575477
 42
0.0
 10
10518.7621970196
 20
4064.42651908884
 42
0.0
 10
10193.7621970196
 20
4252.065356575476
 42
0.0
 10
10193.7621970196
 20
4207.065356575476
 42
0.0
 10
10198.7621970196
 20
4207.065356575476
 42
-0.4142135623730951
 10
10203.7621970196
 20
4202.065356575476
 42
-0.4142135623730951
 10
10198.7621970196
 20
4197.065356575476
 42
0.0
 10
10193.7621970196
 20
4197.065356575476
 42
0.0
 10
10193.7621970196
 20
4107.065356575477
 42
0.0
 10
10198.7621970196
 20
4107.065356575477
 42
-0.4142135623730951
 10
10203.7621970196
 20
4102.065356575476
 42
-0.4142135623730951
 10
10198.7621970196
 20
4097.065356575476
 42
0.0
 10
10193.7621970196
 20
4097.065356575476
 42
0.0
 10
10193.76219701972
 20
4067.065356575477
 42
0.4142135623730951
 10
10223.76219701972
 20
4037.065356575477
 42
0.0
 10
10369.21219701973
 20
4037.065356575477
 42
0.0
 10
10369.21219701973
 20
4024.065356575476
 42
0.0
 10
10223.76219701972
 20
4024.065356575476
 42
-0.4142135623730945
 97
        0
 92
       23
 72
     1
 73
     1
 93
        7
 10
10180.7621970196
 20
4197.065356575476
 42
0.0
 10
10099.7621970196
 20
4197.065356575476
 42
0.0
 10
10099.7621970196
 20
4138.065356575476
 42
0.4142135623730946
 10
10124.7621970196
 20
4113.065356575476
 42
0.0
 10
10143.7621970196
 20
4113.065356575476
 42
0.0
 10
10143.7621970196
 20
4107.065356575477
 42
0.0
 10
10180.7621970196
 20
4107.065356575477
 42
0.0
 97
        0
 92
        7
 72
     0
 73
     1
 93
        4
 10
10180.7621970196
 20
4297.065356575476
 10
10099.7621970196
 20
4297.065356575476
 10
10099.7621970196
 20
4207.065356575476
 10
10180.7621970196
 20
4207.065356575476
 97
        0
 92
        7
 72
     0
 73
     1
 93
        4
 10
10180.7621970196
 20
4362.065356575505
 10
10099.7621970196
 20
4362.065356575505
 10
10099.7621970196
 20
4307.065356575477
 10
10180.7621970196
 20
4307.065356575477
 97
        0
 92
        7
 72
     1
 73
     1
 93
        9
 10
10518.7621970196
 20
4362.065356575505
 42
0.0
 10
10193.7621970196
 20
4362.065356575505
 42
0.0
 10
10193.7621970196
 20
4307.065356575477
 42
0.0
 10
10198.7621970196
 20
4307.065356575477
 42
-0.4142135623730951
 10
10203.7621970196
 20
4302.065356575476
 42
-0.4142135623730951
 10
10198.7621970196
 20
4297.065356575476
 42
0.0
 10
10193.7621970196
 20
4297.065356575476
 42
0.0
 10
10193.7621970196
 20
4252.065356575476
 42
0.0
 10
10518.7621970196
 20
4064.42651908884
 42
0.0
 97
        0
 75
     0
 76
     1
 52
135.0
 41
37.5
 77
     0
 78
     3
 53
135.0
 43
-266843.9531501078
 44
112272.8954387455
 45
-168.3798022700466
 46
-168.3798022700466
 79
     0
 53
135.0
 43
-266865.0006253915
 44
112251.8479634617
 45
-168.3798022700466
 46
-168.3798022700466
 79
     0
 53
135.0
 43
-266886.0481006753
 44
112230.800488178
 45
-168.3798022700466
 46
-168.3798022700466
 79
     0
 47
2.834284063646393
 98
       29
 10
9302.191923167571
 20
4203.227735434077
 10
9497.846629410007
 20
4330.770642788004
 10
9495.010871911029
 20
4251.41064883201
 10
9503.517586132991
 20
4140.873574317928
 10
9523.366772075839
 20
4036.005040838383
 10
9290.849730584145
 20
3945.307964813314
 10
9392.930301247586
 20
3945.307964813314
 10
9605.598156796434
 20
4336.439183822542
 10
9599.92720007345
 20
4254.24502421738
 10
9599.92720007345
 20
4138.039198932529
 10
9770.061484512538
 20
3948.142340198684
 10
9747.37682020817
 20
4050.176498292829
 10
9696.336534876451
 20
4172.050654875987
 10
9702.007770736949
 20
4276.919188355532
 10
9696.336534876451
 20
4336.439183822542
 10
9832.443962427745
 20
4333.604808437143
 10
9821.101769844318
 20
4245.742107797472
 10
9821.101769844318
 20
4152.210656387004
 10
9926.017818869222
 20
4336.439183822542
 10
10036.60538289214
 20
4339.273559207912
 10
10056.45428969753
 20
4259.913565251918
 10
9957.209197395554
 20
4248.576483182842
 10
9951.537961535112
 20
4155.045031772373
 10
10039.4408612536
 20
4149.376490737835
 10
10064.96100391949
 20
4047.342122907459
 10
10138.68595355558
 20
4149.376490737835
 10
10130.17923933362
 20
4245.742107797472
 10
10138.68595355558
 20
4319.433560718928
 10
10314.49147385517
 20
4319.433560718928
1001
GradientColor1ACI
1070
     5
1001
GradientColor2ACI
1070
     2
1001
ACAD
1010
0.0
1020
0.0
1030
0.0
  0
CIRCLE
  5
147CD
330
747D
100
AcDbEntity
  8
U7
100
AcDbCircle
 10
9438.762197019604
 20
4302.065356575476
 30
0.0
 40
5.0
  0
CIRCLE
  5
147CE
330
747D
100
AcDbEntity
  8
U7
100
AcDbCircle
 10
10198.7621970196
 20
4302.065356575476
 30
0.0
 40
5.0
  0
LINE
  5
147CF
330
747D
100
AcDbEntity
  8
U7
100
AcDbLine
 10
9438.762197019604
 20
4297.065356575476
 30
0.0
 11
10198.7621970196
 21
4297.065356575476
 31
0.0
  0
CIRCLE
  5
147D0
330
747D
100
AcDbEntity
  8
U7
100
AcDbCircle
 10
9438.762197019604
 20
4202.065356575476
 30
0.0
 40
5.0
  0
LINE
  5
147D1
330
747D
100
AcDbEntity
  8
U7
100
AcDbLine
 10
9438.762197019604
 20
4307.065356575477
 30
0.0
 11
10198.7621970196
 21
4307.065356575477
 31
0.0
  0
CIRCLE
  5
147D2
330
747D
100
AcDbEntity
  8
U7
100
AcDbCircle
 10
10198.7621970196
 20
4202.065356575476
 30
0.0
 40
5.0
  0
LINE
  5
147D3
330
747D
100
AcDbEntity
  8
U7
100
AcDbLine
 10
9438.762197019604
 20
4197.065356575476
 30
0.0
 11
10198.7621970196
 21
4197.065356575476
 31
0.0
  0
LINE
  5
147D4
330
747D
100
AcDbEntity
  8
U7
100
AcDbLine
 10
9438.762197019604
 20
4207.065356575476
 30
0.0
 11
10198.7621970196
 21
4207.065356575476
 31
0.0
  0
CIRCLE
  5
147D5
330
747D
100
AcDbEntity
  8
U7
100
AcDbCircle
 10
10198.7621970196
 20
4102.065356575476
 30
0.0
 40
5.0
  0
CIRCLE
  5
147D6
330
747D
100
AcDbEntity
  8
U7
100
AcDbCircle
 10
9438.762197019604
 20
4102.065356575476
 30
0.0
 40
5.0
  0
LINE
  5
147D7
330
747D
100
AcDbEntity
  8
U7
100
AcDbLine
 10
9438.762197019604
 20
4107.065356575477
 30
0.0
 11
10198.7621970196
 21
4107.065356575477
 31
0.0
  0
LINE
  5
147D8
330
747D
100
AcDbEntity
  8
U7
100
AcDbLine
 10
9438.762197019604
 20
4097.065356575476
 30
0.0
 11
10198.7621970196
 21
4097.065356575476
 31
0.0
  0
LINE
  5
147D9
330
747D
100
AcDbEntity
  8
KIN-T
100
AcDbLine
 10
10369.21219701973
 20
4024.065356575476
 30
0.0
 11
10223.76219701972
 21
4024.065356575476
 31
0.0
  0
LINE
  5
147DA
330
747D
100
AcDbEntity
  8
KIN-T
100
AcDbLine
 10
10369.21219701973
 20
4037.065356575477
 30
0.0
 11
10369.21219701973
 21
4024.065356575476
 31
0.0
  0
LINE
  5
147DB
330
747D
100
AcDbEntity
  8
KIN-T
100
AcDbLine
 10
10180.7621970196
 20
4407.065356575476
 30
0.0
 11
10193.7621970196
 21
4407.065356575476
 31
0.0
  0
ARC
  5
147DC
330
747D
100
AcDbEntity
  8
KIN-T
100
AcDbCircle
 10
10223.76219701972
 20
4067.065356575477
 30
0.0
 40
43.0
100
AcDbArc
 50
180.0
 51
270.0
  0
ARC
  5
147DD
330
747D
100
AcDbEntity
  8
KIN-T
100
AcDbCircle
 10
10223.76219701972
 20
4067.065356575477
 30
0.0
 40
30.0
100
AcDbArc
 50
180.0
 51
270.0
  0
LINE
  5
147DE
330
747D
100
AcDbEntity
  8
KIN-T
100
AcDbLine
 10
10180.7621970196
 20
4407.065356575476
 30
0.0
 11
10180.7621970196
 21
4067.065356575477
 31
0.0
  0
LINE
  5
147DF
330
747D
100
AcDbEntity
  8
KIN-T
100
AcDbLine
 10
10193.7621970196
 20
4407.065356575476
 30
0.0
 11
10193.7621970196
 21
4067.065356575477
 31
0.0
  0
ARC
  5
147E0
330
747D
100
AcDbEntity
  8
KIN-T
100
AcDbCircle
 10
9413.762197019606
 20
4067.065356575477
 30
0.0
 40
43.0
100
AcDbArc
 50
270.0
 51
0.0
  0
LINE
  5
147E1
330
747D
100
AcDbEntity
  8
KIN-T
100
AcDbLine
 10
10369.21219701973
 20
4037.065356575477
 30
0.0
 11
10223.76219701972
 21
4037.065356575477
 31
0.0
  0
LINE
  5
147E2
330
747D
100
AcDbEntity
  8
KIN-T
100
AcDbLine
 10
9268.312197019595
 20
4037.065356575477
 30
0.0
 11
9268.312197019595
 21
4024.065356575476
 31
0.0
  0
LINE
  5
147E3
330
747D
100
AcDbEntity
  8
KIN-T
100
AcDbLine
 10
9268.312197019595
 20
4024.065356575476
 30
0.0
 11
9413.762197019606
 21
4024.065356575476
 31
0.0
  0
LINE
  5
147E4
330
747D
100
AcDbEntity
  8
KIN-T
100
AcDbLine
 10
9443.762197019605
 20
4407.065356575476
 30
0.0
 11
9456.762197019605
 21
4407.065356575476
 31
0.0
  0
ARC
  5
147E5
330
747D
100
AcDbEntity
  8
KIN-T
100
AcDbCircle
 10
9413.762197019606
 20
4067.065356575477
 30
0.0
 40
30.0
100
AcDbArc
 50
270.0
 51
0.0
  0
LINE
  5
147E6
330
747D
100
AcDbEntity
  8
KIN-T
100
AcDbLine
 10
9456.762197019605
 20
4407.065356575476
 30
0.0
 11
9456.762197019605
 21
4067.065356575477
 31
0.0
  0
LINE
  5
147E7
330
747D
100
AcDbEntity
  8
部品1
 48
50.0
100
AcDbLine
 10
9303.042648581685
 20
3987.065356575492
 30
0.0
 11
10334.48174545752
 21
3987.065356575477
 31
0.0
  0
LINE
  5
147E8
330
747D
100
AcDbEntity
  8
KIN-T
100
AcDbLine
 10
9443.762197019605
 20
4407.065356575476
 30
0.0
 11
9443.762197019605
 21
4067.065356575477
 31
0.0
  0
LINE
  5
147E9
330
747D
100
AcDbEntity
  8
KIN-T
100
AcDbLine
 10
9268.312197019595
 20
4037.065356575477
 30
0.0
 11
9413.762197019606
 21
4037.065356575477
 31
0.0
  0
CIRCLE
  5
147EA
330
747D
100
AcDbEntity
  8
部品1
 48
50.0
100
AcDbCircle
 10
10318.7621970196
 20
3992.065356575477
 30
0.0
 40
5.0
  0
LINE
  5
147EB
330
747D
100
AcDbEntity
  8
部品1
 48
50.0
100
AcDbLine
 10
10334.48174545752
 20
3987.065356575477
 30
0.0
 11
10334.48174545752
 21
3977.065356575477
 31
0.0
  0
CIRCLE
  5
147EC
330
747D
100
AcDbEntity
  8
部品1
 48
50.0
100
AcDbCircle
 10
9518.762197019604
 20
3992.065356575477
 30
0.0
 40
5.0
  0
CIRCLE
  5
147ED
330
747D
100
AcDbEntity
  8
部品1
 48
50.0
100
AcDbCircle
 10
9718.762197019605
 20
3992.065356575477
 30
0.0
 40
5.0
  0
CIRCLE
  5
147EE
330
747D
100
AcDbEntity
  8
部品1
 48
50.0
100
AcDbCircle
 10
9918.762197019605
 20
3992.065356575477
 30
0.0
 40
5.0
  0
CIRCLE
  5
147EF
330
747D
100
AcDbEntity
  8
部品1
 48
50.0
100
AcDbCircle
 10
10118.7621970196
 20
3992.065356575477
 30
0.0
 40
5.0
  0
LINE
  5
147F0
330
747D
100
AcDbEntity
  8
部品1
 48
50.0
100
AcDbLine
 10
9303.042648581685
 20
3977.065356575462
 30
0.0
 11
10334.48174545752
 21
3977.065356575477
 31
0.0
  0
HATCH
  5
147F1
330
747D
100
AcDbEntity
  8
細線
 48
50.0
100
AcDbHatch
 10
0.0
 20
0.0
 30
0.0000000000013153
210
0.0
220
0.0
230
1.0
  2
PLAST
 70
     0
 71
     0
 91
        4
 92
        7
 72
     0
 73
     1
 93
        4
 10
9643.762197019604
 20
3912.065356575477
 10
9038.762197019606
 20
3912.065356575477
 10
9038.762197019606
 20
3862.065356575477
 10
9643.762197019604
 20
3862.065356575477
 97
        0
 92
        7
 72
     0
 73
     1
 93
        4
 10
9818.762197019605
 20
3912.065356575477
 10
9643.762197019604
 20
3912.065356575477
 10
9643.762197019604
 20
3862.065356575477
 10
9818.762197019605
 20
3862.065356575477
 97
        0
 92
        7
 72
     0
 73
     1
 93
        4
 10
9993.762197019606
 20
3912.065356575477
 10
9818.762197019605
 20
3912.065356575477
 10
9818.762197019605
 20
3862.065356575477
 10
9993.762197019606
 20
3862.065356575477
 97
        0
 92
        7
 72
     0
 73
     1
 93
        4
 10
10598.7621970196
 20
3912.065356575477
 10
9993.762197019606
 20
3912.065356575477
 10
9993.762197019606
 20
3862.065356575477
 10
10598.7621970196
 20
3862.065356575477
 97
        0
 75
     0
 76
     1
 52
45.0
 41
37.5
 77
     0
 78
     3
 53
45.0
 43
-262433.8293730415
 44
112272.8954387455
 45
-168.3798022700466
 46
168.3798022700466
 79
     0
 53
45.0
 43
-262454.8768483252
 44
112293.9429140292
 45
-168.3798022700466
 46
168.3798022700466
 79
     0
 53
45.0
 43
-262475.924323609
 44
112314.990389313
 45
-168.3798022700466
 46
168.3798022700466
 79
     0
 47
3.405378208606371
 98
        4
 10
9546.380814261459
 20
3877.377546602948
 10
9699.692600282157
 20
3887.593588533288
 10
9907.515187727186
 20
3877.377546602948
 10
10098.30285314361
 20
3880.782824000985
1001
GradientColor1ACI
1070
     5
1001
GradientColor2ACI
1070
     2
1001
ACAD
1010
0.0
1020
0.0
1030
0.0
  0
LINE
  5
147F2
330
747D
100
AcDbEntity
  8
細線
 48
50.0
100
AcDbLine
 10
9128.190127564492
 20
3762.065356575477
 30
0.0000000000013153
 11
9154.985046807574
 21
3862.065356575448
 31
0.0000000000013153
1001
GradientColor1ACI
1070
     5
1001
GradientColor2ACI
1070
     2
1001
ACAD
1010
0.0
1020
0.0
1030
0.0
  0
LINE
  5
147F3
330
747D
100
AcDbEntity
  8
細線
 48
50.0
100
AcDbLine
 10
9251.452697794608
 20
3762.065356575477
 30
0.0000000000013153
 11
9278.24761703769
 21
3862.065356575477
 31
0.0000000000013153
1001
GradientColor1ACI
1070
     5
1001
GradientColor2ACI
1070
     2
1001
ACAD
1010
0.0
1020
0.0
1030
0.0
  0
LINE
  5
147F4
330
747D
100
AcDbEntity
  8
細線
 48
50.0
100
AcDbLine
 10
9374.715268024607
 20
3762.065356575477
 30
0.0000000000013153
 11
9401.510187267748
 21
3862.065356575477
 31
0.0000000000013153
1001
GradientColor1ACI
1070
     5
1001
GradientColor2ACI
1070
     2
1001
ACAD
1010
0.0
1020
0.0
1030
0.0
  0
LINE
  5
147F5
330
747D
100
AcDbEntity
  8
細線
 48
50.0
100
AcDbLine
 10
9497.977838254723
 20
3762.065356575477
 30
0.0000000000013153
 11
9524.772757497805
 21
3862.065356575477
 31
0.0000000000013153
1001
GradientColor1ACI
1070
     5
1001
GradientColor2ACI
1070
     2
1001
ACAD
1010
0.0
1020
0.0
1030
0.0
  0
LINE
  5
147F6
330
747D
100
AcDbEntity
  8
細線
 48
50.0
100
AcDbLine
 10
9621.240408484839
 20
3762.065356575477
 30
0.0000000000013153
 11
9648.035327727921
 21
3862.065356575477
 31
0.0000000000013153
1001
GradientColor1ACI
1070
     5
1001
GradientColor2ACI
1070
     2
1001
ACAD
1010
0.0
1020
0.0
1030
0.0
  0
LINE
  5
147F7
330
747D
100
AcDbEntity
  8
細線
 48
50.0
100
AcDbLine
 10
9744.502978714839
 20
3762.065356575477
 30
0.0000000000013153
 11
9771.297897957978
 21
3862.065356575477
 31
0.0000000000013153
1001
GradientColor1ACI
1070
     5
1001
GradientColor2ACI
1070
     2
1001
ACAD
1010
0.0
1020
0.0
1030
0.0
  0
LINE
  5
147F8
330
747D
100
AcDbEntity
  8
細線
 48
50.0
100
AcDbLine
 10
9867.765548944953
 20
3762.065356575477
 30
0.0000000000013153
 11
9894.560468188036
 21
3862.065356575477
 31
0.0000000000013153
1001
GradientColor1ACI
1070
     5
1001
GradientColor2ACI
1070
     2
1001
ACAD
1010
0.0
1020
0.0
1030
0.0
  0
LINE
  5
147F9
330
747D
100
AcDbEntity
  8
細線
 48
50.0
100
AcDbLine
 10
9991.028119175069
 20
3762.065356575477
 30
0.0000000000013153
 11
10017.82303841815
 21
3862.065356575477
 31
0.0000000000013153
1001
GradientColor1ACI
1070
     5
1001
GradientColor2ACI
1070
     2
1001
ACAD
1010
0.0
1020
0.0
1030
0.0
  0
LINE
  5
147FA
330
747D
100
AcDbEntity
  8
細線
 48
50.0
100
AcDbLine
 10
10114.29068940507
 20
3762.065356575492
 30
0.0000000000013153
 11
10141.08560864821
 21
3862.065356575477
 31
0.0000000000013153
1001
GradientColor1ACI
1070
     5
1001
GradientColor2ACI
1070
     2
1001
ACAD
1010
0.0
1020
0.0
1030
0.0
  0
LINE
  5
147FB
330
747D
100
AcDbEntity
  8
細線
 48
50.0
100
AcDbLine
 10
10237.55325963518
 20
3762.065356575477
 30
0.0000000000013153
 11
10264.34817887826
 21
3862.065356575492
 31
0.0000000000013153
1001
GradientColor1ACI
1070
     5
1001
GradientColor2ACI
1070
     2
1001
ACAD
1010
0.0
1020
0.0
1030
0.0
  0
LINE
  5
147FC
330
747D
100
AcDbEntity
  8
細線
 48
50.0
100
AcDbLine
 10
10360.81582986524
 20
3762.065356575492
 30
0.0000000000013153
 11
10387.61074910838
 21
3862.065356575477
 31
0.0000000000013153
1001
GradientColor1ACI
1070
     5
1001
GradientColor2ACI
1070
     2
1001
ACAD
1010
0.0
1020
0.0
1030
0.0
  0
LINE
  5
147FD
330
747D
100
AcDbEntity
  8
細線
 48
50.0
100
AcDbLine
 10
10484.0784000953
 20
3762.065356575477
 30
0.0000000000013153
 11
10510.87331933844
 21
3862.065356575477
 31
0.0000000000013153
1001
GradientColor1ACI
1070
     5
1001
GradientColor2ACI
1070
     2
1001
ACAD
1010
0.0
1020
0.0
1030
0.0
  0
LINE
  5
147FE
330
747D
100
AcDbEntity
  8
部品1
 48
50.0
100
AcDbLine
 10
10598.7621970196
 20
3862.065356575477
 30
0.0
 11
9038.762197019606
 21
3862.065356575477
 31
0.0
  0
LINE
  5
147FF
330
747D
100
AcDbEntity
  8
文字
 48
50.0
100
AcDbLine
 10
10236.35182319379
 20
2848.877484403697
 30
0.0
 11
10236.35182319379
 21
2625.752484403697
 31
0.0
  0
LINE
  5
14800
330
747D
100
AcDbEntity
  8
文字
 48
50.0
100
AcDbLine
 10
9401.172570845417
 20
2848.877484403697
 30
0.0
 11
9401.172570845417
 21
2625.752484403697
 31
0.0
  0
TEXT
  5
14801
330
747D
100
AcDbEntity
  8
文字
 62
     7
 48
50.0
100
AcDbText
 10
9467.757378258117
 20
2683.236025377061
 30
0.0
 40
112.5
  1
A-A' 断面
  7
STYLE2
100
AcDbText
  0
LINE
  5
14802
330
747D
100
AcDbEntity
  8
文字
 48
50.0
100
AcDbLine
 10
9401.172570845417
 20
2625.752484403697
 30
0.0
 11
10236.35182319379
 21
2625.752484403697
 31
0.0
  0
LINE
  5
14803
330
747D
100
AcDbEntity
  8
文字
 48
50.0
100
AcDbLine
 10
9401.172570845417
 20
2848.877484403697
 30
0.0
 11
10236.35182319379
 21
2848.877484403697
 31
0.0
  0
LINE
  5
14804
330
747D
100
AcDbEntity
  8
部品1
 48
50.0
100
AcDbLine
 10
9688.312197019593
 20
3912.065356575477
 30
0.0
 11
9599.212197019616
 21
3912.065356575477
 31
0.0
  0
LINE
  5
14805
330
747D
100
AcDbEntity
  8
細線
 48
50.0
100
AcDbLine
 10
8672.646791872816
 20
4362.065356575505
 30
0.0000000000013153
 11
8699.441711115898
 21
4462.065356575491
 31
0.0000000000013153
1001
GradientColor1ACI
1070
     5
1001
GradientColor2ACI
1070
     2
1001
ACAD
1010
0.0
1020
0.0
1030
0.0
  0
LINE
  5
14806
330
747D
100
AcDbEntity
  8
細線
 48
50.0
100
AcDbLine
 10
8795.909362102873
 20
4362.06535657552
 30
0.0000000000013153
 11
8822.704281345956
 21
4462.065356575476
 31
0.0000000000013153
1001
GradientColor1ACI
1070
     5
1001
GradientColor2ACI
1070
     2
1001
ACAD
1010
0.0
1020
0.0
1030
0.0
  0
LINE
  5
14807
330
747D
100
AcDbEntity
  8
細線
 48
50.0
100
AcDbLine
 10
8919.171932332931
 20
4362.065356575505
 30
0.0000000000013153
 11
8945.966851576072
 21
4462.065356575476
 31
0.0000000000013153
1001
GradientColor1ACI
1070
     5
1001
GradientColor2ACI
1070
     2
1001
ACAD
1010
0.0
1020
0.0
1030
0.0
  0
LINE
  5
14808
330
747D
100
AcDbEntity
  8
細線
 48
50.0
100
AcDbLine
 10
9042.434502563047
 20
4362.065356575491
 30
0.0000000000013153
 11
9069.229421806129
 21
4462.065356575476
 31
0.0000000000013153
1001
GradientColor1ACI
1070
     5
1001
GradientColor2ACI
1070
     2
1001
ACAD
1010
0.0
1020
0.0
1030
0.0
  0
LINE
  5
14809
330
747D
100
AcDbEntity
  8
細線
 48
50.0
100
AcDbLine
 10
10521.58534532391
 20
4362.065356575447
 30
0.0000000000013153
 11
10548.38026456705
 21
4462.065356575476
 31
0.0000000000013153
1001
GradientColor1ACI
1070
     5
1001
GradientColor2ACI
1070
     2
1001
ACAD
1010
0.0
1020
0.0
1030
0.0
  0
LINE
  5
1480A
330
747D
100
AcDbEntity
  8
細線
 48
50.0
100
AcDbLine
 10
10644.84791555396
 20
4362.065356575491
 30
0.0000000000013153
 11
10671.64283479711
 21
4462.065356575476
 31
0.0000000000013153
1001
GradientColor1ACI
1070
     5
1001
GradientColor2ACI
1070
     2
1001
ACAD
1010
0.0
1020
0.0
1030
0.0
  0
LINE
  5
1480B
330
747D
100
AcDbEntity
  8
細線
 48
50.0
100
AcDbLine
 10
10768.11048578408
 20
4362.065356575505
 30
0.0000000000013153
 11
10794.90540502716
 21
4462.065356575476
 31
0.0000000000013153
1001
GradientColor1ACI
1070
     5
1001
GradientColor2ACI
1070
     2
1001
ACAD
1010
0.0
1020
0.0
1030
0.0
  0
LINE
  5
1480C
330
747D
100
AcDbEntity
  8
細線
 48
50.0
100
AcDbLine
 10
10891.37305601414
 20
4362.065356575491
 30
0.0000000000013153
 11
10918.16797525728
 21
4462.065356575476
 31
0.0000000000013153
1001
GradientColor1ACI
1070
     5
1001
GradientColor2ACI
1070
     2
1001
ACAD
1010
0.0
1020
0.0
1030
0.0
  0
LINE
  5
1480D
330
747D
100
AcDbEntity
  8
細線
 48
50.0
100
AcDbLine
 10
11014.6356262442
 20
4362.065356575505
 30
0.0000000000013153
 11
11018.7621970196
 21
4377.465928370409
 31
0.0000000000013153
1001
GradientColor1ACI
1070
     5
1001
GradientColor2ACI
1070
     2
1001
ACAD
1010
0.0
1020
0.0
1030
0.0
  0
LINE
  5
1480E
330
747D
100
AcDbEntity
  8
部品1
 48
50.0
100
AcDbLine
 10
10518.7621970196
 20
3912.065356575477
 30
0.0
 11
10518.7621970196
 21
4462.065356575476
 31
0.0
  0
LINE
  5
1480F
330
747D
100
AcDbEntity
  8
部品1
 48
50.0
100
AcDbLine
 10
9118.762197019604
 20
4462.065356575476
 30
0.0
 11
9118.762197019604
 21
3912.065356575477
 31
0.0
  0
LINE
  5
14810
330
747D
100
AcDbEntity
  8
部品1
 48
50.0
100
AcDbLine
 10
10598.7621970196
 20
3912.065356575477
 30
0.0
 11
9038.762197019606
 21
3912.065356575477
 31
0.0
  0
LINE
  5
14811
330
747D
100
AcDbEntity
  8
部品1
 48
50.0
100
AcDbLine
 10
9921.212197019617
 20
4562.065356575462
 30
0.0
 11
9716.312197019593
 21
4562.065356575476
 31
0.0
  0
LINE
  5
14812
330
747D
100
AcDbEntity
  8
部品1
 48
50.0
100
AcDbLine
 10
11018.7621970196
 20
4362.065356575505
 30
0.0
 11
8618.762197019604
 21
4362.065356575505
 31
0.0
  0
LINE
  5
14813
330
747D
100
AcDbEntity
  8
部品1
 48
50.0
100
AcDbLine
 10
10598.7621970196
 20
3762.065356575477
 30
0.0
 11
9038.762197019606
 21
3762.065356575477
 31
0.0
  0
LINE
  5
14814
330
747D
100
AcDbEntity
  8
部品1
 48
50.0
100
AcDbLine
 10
9585.212197019616
 20
4576.065356575476
 30
0.0
 11
9571.212197019617
 21
4562.065356575476
 31
0.0
  0
LINE
  5
14815
330
747D
100
AcDbEntity
  8
部品1
 48
50.0
100
AcDbLine
 10
9585.212197019616
 20
4576.065356575476
 30
0.0
 11
9599.212197019616
 21
4576.065356575476
 31
0.0
  0
LINE
  5
14816
330
747D
100
AcDbEntity
  8
部品1
 48
50.0
100
AcDbLine
 10
9688.312197019593
 20
4576.065356575476
 30
0.0
 11
9702.312197019594
 21
4576.065356575476
 31
0.0
  0
LINE
  5
14817
330
747D
100
AcDbEntity
  8
部品1
 48
50.0
100
AcDbLine
 10
9702.312197019651
 20
4576.065356575476
 30
0.0
 11
9716.312197019593
 21
4562.065356575476
 31
0.0
  0
LINE
  5
14818
330
747D
100
AcDbEntity
  8
部品1
 48
50.0
100
AcDbLine
 10
9571.212197019617
 20
4562.065356575476
 30
0.0
 11
8618.762197019547
 21
4562.065356575476
 31
0.0
  0
LINE
  5
14819
330
747D
100
AcDbEntity
  8
部品1
 48
50.0
100
AcDbLine
 10
9118.762197019604
 20
4462.065356575476
 30
0.0
 11
8618.762197019604
 21
4462.065356575476
 31
0.0
  0
LINE
  5
1481A
330
747D
100
AcDbEntity
  8
部品1
 48
50.0
100
AcDbLine
 10
10598.7621970196
 20
3912.065356575477
 30
0.0
 11
10598.7621970196
 21
3762.065356575477
 31
0.0
  0
LINE
  5
1481B
330
747D
100
AcDbEntity
  8
部品1
 48
50.0
100
AcDbLine
 10
9038.762197019606
 20
3912.065356575477
 30
0.0
 11
9038.762197019606
 21
3762.065356575477
 31
0.0
  0
LINE
  5
1481C
330
747D
100
AcDbEntity
  8
Ｇ．Ｌ
 48
50.0
100
AcDbLine
 10
11018.7621970196
 20
4512.065356575476
 30
0.0
 11
12072.87614752441
 21
4512.065356575476
 31
0.0
  0
MTEXT
  5
1481D
330
747D
100
AcDbEntity
  8
寸法
 62
     7
 48
50.0
100
AcDbMText
 10
11539.68278883416
 20
4564.338083848197
 30
0.0
 40
100.0
 41
1.0
 71
     4
 72
     1
  1
▽G.L
  7
STYLE2
 73
     1
 44
1.0
1001
ACAD
1000
MTEXTBEGIN
1070
    73
1070
     1
1070
    44
1040
1.0
1070
    74
1070
     0
1000
MTEXTEND
  0
LINE
  5
1481E
330
747D
100
AcDbEntity
  8
部品1
 48
50.0
100
AcDbLine
 10
9935.212197019616
 20
4576.065356575476
 30
0.0
 11
9921.212197019617
 21
4562.065356575476
 31
0.0
  0
LINE
  5
1481F
330
747D
100
AcDbEntity
  8
部品1
 48
50.0
100
AcDbLine
 10
10052.31219701965
 20
4576.065356575476
 30
0.0
 11
10066.31219701959
 21
4562.065356575476
 31
0.0
  0
LINE
  5
14820
330
747D
100
AcDbEntity
  8
部品1
 48
50.0
100
AcDbLine
 10
10518.76219701966
 20
4462.065356575476
 30
0.0
 11
11018.7621970196
 21
4462.065356575476
 31
0.0
  0
LINE
  5
14821
330
747D
100
AcDbEntity
  8
部品1
 48
50.0
100
AcDbLine
 10
10038.31219701959
 20
4576.065356575476
 30
0.0
 11
10052.31219701959
 21
4576.065356575476
 31
0.0
  0
LINE
  5
14822
330
747D
100
AcDbEntity
  8
部品1
 48
50.0
100
AcDbLine
 10
9935.212197019616
 20
4576.065356575476
 30
0.0
 11
9949.212197019617
 21
4576.065356575476
 31
0.0
  0
LINE
  5
14823
330
747D
100
AcDbEntity
  8
部品1
 48
50.0
100
AcDbLine
 10
10066.31219701959
 20
4562.065356575476
 30
0.0
 11
11018.76219701966
 21
4562.065356575476
 31
0.0
  0
LINE
  5
14824
330
747D
100
AcDbEntity
  8
部品1
 48
50.0
100
AcDbLine
 10
9303.042648581685
 20
3987.065356575477
 30
0.0
 11
9303.042648581685
 21
3977.065356575477
 31
0.0
  0
CIRCLE
  5
14825
330
747D
100
AcDbEntity
  8
部品1
 48
50.0
100
AcDbCircle
 10
9318.762197019605
 20
3992.065356575477
 30
0.0
 40
5.0
  0
LINE
  5
14826
330
747D
100
AcDbEntity
  8
細線
 48
50.0
100
AcDbLine
 10
9634.637868106381
 20
3762.065356575477
 30
0.0
 11
9627.939138295609
 21
3787.065356575477
 31
0.0
  0
LINE
  5
14827
330
747D
100
AcDbEntity
  8
細線
 48
50.0
100
AcDbLine
 10
9641.336597917151
 20
3837.065356575477
 30
0.0
 11
9634.637868106381
 21
3862.065356575477
 31
0.0
  0
LINE
  5
14828
330
747D
100
AcDbEntity
  8
細線
 48
50.0
100
AcDbLine
 10
9757.900438336438
 20
3762.065356575477
 30
0.0
 11
9751.201708525668
 21
3787.065356575477
 31
0.0
  0
LINE
  5
14829
330
747D
100
AcDbEntity
  8
細線
 48
50.0
100
AcDbLine
 10
9764.599168147208
 20
3837.065356575477
 30
0.0
 11
9757.900438336438
 21
3862.065356575477
 31
0.0
  0
LINE
  5
1482A
330
747D
100
AcDbEntity
  8
細線
 48
50.0
100
AcDbLine
 10
9881.163008566495
 20
3762.065356575477
 30
0.0
 11
9874.464278755723
 21
3787.065356575477
 31
0.0
  0
LINE
  5
1482B
330
747D
100
AcDbEntity
  8
細線
 48
50.0
100
AcDbLine
 10
9887.861738377266
 20
3837.065356575477
 30
0.0
 11
9881.163008566495
 21
3862.065356575477
 31
0.0
  0
LINE
  5
1482C
330
747D
100
AcDbEntity
  8
細線
 48
50.0
100
AcDbLine
 10
10004.42557879661
 20
3762.065356575477
 30
0.0
 11
9997.726848985841
 21
3787.065356575477
 31
0.0
  0
LINE
  5
1482D
330
747D
100
AcDbEntity
  8
細線
 48
50.0
100
AcDbLine
 10
10011.12430860738
 20
3837.065356575477
 30
0.0
 11
10004.42557879661
 21
3862.065356575477
 31
0.0
  0
LINE
  5
1482E
330
747D
100
AcDbEntity
  8
細線
 48
50.0
100
AcDbLine
 10
10127.68814902667
 20
3762.065356575477
 30
0.0
 11
10120.9894192159
 21
3787.065356575477
 31
0.0
  0
LINE
  5
1482F
330
747D
100
AcDbEntity
  8
細線
 48
50.0
100
AcDbLine
 10
10134.38687883744
 20
3837.065356575477
 30
0.0
 11
10127.68814902667
 21
3862.065356575477
 31
0.0
  0
LINE
  5
14830
330
747D
100
AcDbEntity
  8
細線
 48
50.0
100
AcDbLine
 10
10250.95071925672
 20
3762.065356575477
 30
-0.0000000000013153
 11
10244.25198944595
 21
3787.065356575477
 31
-0.0000000000013153
  0
LINE
  5
14831
330
747D
100
AcDbEntity
  8
細線
 48
50.0
100
AcDbLine
 10
10257.64944906749
 20
3837.065356575477
 30
-0.0000000000013153
 11
10250.95071925672
 21
3862.065356575477
 31
-0.0000000000013153
  0
LINE
  5
14832
330
747D
100
AcDbEntity
  8
細線
 48
50.0
100
AcDbLine
 10
10374.21328948684
 20
3762.065356575477
 30
0.0
 11
10367.51455967607
 21
3787.065356575477
 31
0.0
  0
LINE
  5
14833
330
747D
100
AcDbEntity
  8
細線
 48
50.0
100
AcDbLine
 10
10380.91201929761
 20
3837.065356575477
 30
0.0
 11
10374.21328948684
 21
3862.065356575477
 31
0.0
  0
LINE
  5
14834
330
747D
100
AcDbEntity
  8
細線
 48
50.0
100
AcDbLine
 10
10497.4758597169
 20
3762.065356575477
 30
0.0
 11
10490.77712990613
 21
3787.065356575477
 31
0.0
  0
LINE
  5
14835
330
747D
100
AcDbEntity
  8
細線
 48
50.0
100
AcDbLine
 10
10504.17458952767
 20
3837.065356575477
 30
0.0
 11
10497.4758597169
 21
3862.065356575477
 31
0.0
  0
LINE
  5
14836
330
747D
100
AcDbEntity
  8
細線
 48
50.0
100
AcDbLine
 10
8686.044251494356
 20
4362.065356575505
 30
-0.0000000000013153
 11
8679.345521683586
 21
4387.065356575505
 31
-0.0000000000013153
  0
LINE
  5
14837
330
747D
100
AcDbEntity
  8
細線
 48
50.0
100
AcDbLine
 10
8692.742981305128
 20
4437.065356575505
 30
-0.0000000000013153
 11
8686.044251494356
 21
4462.065356575505
 31
-0.0000000000013153
  0
LINE
  5
14838
330
747D
100
AcDbEntity
  8
細線
 48
50.0
100
AcDbLine
 10
8809.306821724415
 20
4362.065356575491
 30
-0.0000000000013153
 11
8802.608091913645
 21
4387.065356575491
 31
-0.0000000000013153
  0
LINE
  5
14839
330
747D
100
AcDbEntity
  8
細線
 48
50.0
100
AcDbLine
 10
8816.005551535186
 20
4437.065356575491
 30
-0.0000000000013153
 11
8809.306821724415
 21
4462.065356575491
 31
-0.0000000000013153
  0
LINE
  5
1483A
330
747D
100
AcDbEntity
  8
細線
 48
50.0
100
AcDbLine
 10
8932.56939195453
 20
4362.065356575491
 30
-0.0000000000013153
 11
8925.87066214376
 21
4387.065356575491
 31
-0.0000000000013153
  0
LINE
  5
1483B
330
747D
100
AcDbEntity
  8
細線
 48
50.0
100
AcDbLine
 10
8939.2681217653
 20
4437.065356575491
 30
-0.0000000000013153
 11
8932.56939195453
 21
4462.065356575491
 31
-0.0000000000013153
  0
LINE
  5
1483C
330
747D
100
AcDbEntity
  8
細線
 48
50.0
100
AcDbLine
 10
9055.831962184589
 20
4362.065356575491
 30
-0.0000000000013153
 11
9049.133232373817
 21
4387.065356575491
 31
-0.0000000000013153
  0
LINE
  5
1483D
330
747D
100
AcDbEntity
  8
細線
 48
50.0
100
AcDbLine
 10
9062.530691995359
 20
4437.065356575491
 30
-0.0000000000013153
 11
9055.831962184589
 21
4462.065356575491
 31
-0.0000000000013153
  0
LINE
  5
1483E
330
747D
100
AcDbEntity
  8
細線
 48
50.0
100
AcDbLine
 10
10534.98280494551
 20
4362.065356575491
 30
-0.0000000000013153
 11
10528.28407513474
 21
4387.065356575491
 31
-0.0000000000013153
  0
LINE
  5
1483F
330
747D
100
AcDbEntity
  8
細線
 48
50.0
100
AcDbLine
 10
10541.68153475628
 20
4437.065356575491
 30
-0.0000000000013153
 11
10534.98280494551
 21
4462.065356575491
 31
-0.0000000000013153
  0
LINE
  5
14840
330
747D
100
AcDbEntity
  8
細線
 48
50.0
100
AcDbLine
 10
10658.24537517557
 20
4362.065356575491
 30
-0.0000000000013153
 11
10651.5466453648
 21
4387.065356575491
 31
-0.0000000000013153
  0
LINE
  5
14841
330
747D
100
AcDbEntity
  8
細線
 48
50.0
100
AcDbLine
 10
10664.94410498634
 20
4437.065356575491
 30
-0.0000000000013153
 11
10658.24537517557
 21
4462.065356575491
 31
-0.0000000000013153
  0
LINE
  5
14842
330
747D
100
AcDbEntity
  8
細線
 48
50.0
100
AcDbLine
 10
10781.50794540562
 20
4362.065356575491
 30
-0.0000000000013153
 11
10774.80921559485
 21
4387.065356575491
 31
-0.0000000000013153
  0
LINE
  5
14843
330
747D
100
AcDbEntity
  8
細線
 48
50.0
100
AcDbLine
 10
10788.20667521639
 20
4437.065356575491
 30
-0.0000000000013153
 11
10781.50794540562
 21
4462.065356575491
 31
-0.0000000000013153
  0
LINE
  5
14844
330
747D
100
AcDbEntity
  8
細線
 48
50.0
100
AcDbLine
 10
10904.77051563574
 20
4362.065356575491
 30
-0.0000000000013153
 11
10898.07178582497
 21
4387.065356575491
 31
-0.0000000000013153
  0
LINE
  5
14845
330
747D
100
AcDbEntity
  8
細線
 48
50.0
100
AcDbLine
 10
10911.46924544651
 20
4437.065356575491
 30
-0.0000000000013153
 11
10904.77051563574
 21
4462.065356575491
 31
-0.0000000000013153
  0
MTEXT
  5
14846
330
747D
100
AcDbEntity
  8
寸法
 62
     7
 48
50.0
100
AcDbMText
 10
11016.21904874344
 20
4614.338083848197
 30
0.0
 40
100.0
 41
1.0
 71
     5
 72
     1
  1
▽Ｆ.L
  7
STYLE2
 73
     1
 44
1.0
1001
ACAD
1000
MTEXTBEGIN
1070
    73
1070
     1
1070
    44
1040
1.0
1070
    74
1070
     0
1000
MTEXTEND
  0
LINE
  5
14847
330
747D
100
AcDbEntity
  8
寸法
 48
50.0
100
AcDbLine
 10
8852.082920895439
 20
4636.672772777645
 30
0.0
 11
8920.734138760556
 21
4655.067811164015
 31
0.0
  0
LINE
  5
14848
330
747D
100
AcDbEntity
  8
寸法
 48
50.0
100
AcDbLine
 10
8852.082920895439
 20
4636.672772777645
 30
0.0
 11
9481.335416483242
 21
4636.672772777645
 31
0.0
  0
LINE
  5
14849
330
747D
100
AcDbEntity
  8
寸法
 48
50.0
100
AcDbLine
 10
8852.082920895439
 20
4636.672772777645
 30
0.0
 11
8920.734138760556
 21
4618.27773439126
 31
0.0
  0
TEXT
  5
1484A
330
747D
100
AcDbEntity
  8
寸法
 62
     7
 48
50.0
100
AcDbText
 10
8950.316361895078
 20
4822.059808419624
 30
0.0
 40
90.0
  1
水勾配
 41
0.8
  7
STYLE1
100
AcDbText
  0
TEXT
  5
1484B
330
747D
100
AcDbEntity
  8
寸法
 62
     7
 48
50.0
100
AcDbText
 10
8917.052868923711
 20
4673.721296297531
 30
0.0
 40
90.0
  1
１／１００
 41
0.8
  7
STYLE1
100
AcDbText
  0
LINE
  5
1484C
330
747D
100
AcDbEntity
  8
寸法
 48
50.0
100
AcDbLine
 10
10785.44147314377
 20
4636.672772777645
 30
0.0
 11
10716.79025527865
 21
4655.067811164015
 31
0.0
  0
LINE
  5
1484D
330
747D
100
AcDbEntity
  8
寸法
 48
50.0
100
AcDbLine
 10
10785.44147314377
 20
4636.672772777645
 30
0.0
 11
10156.18897755597
 21
4636.672772777645
 31
0.0
  0
LINE
  5
1484E
330
747D
100
AcDbEntity
  8
寸法
 48
50.0
100
AcDbLine
 10
10785.44147314377
 20
4636.672772777645
 30
0.0
 11
10716.79025527865
 21
4618.27773439126
 31
0.0
  0
TEXT
  5
1484F
330
747D
100
AcDbEntity
  8
寸法
 62
     7
 48
50.0
100
AcDbText
 10
10254.42241855561
 20
4822.059808419624
 30
0.0
 40
90.0
  1
水勾配
 41
0.8
  7
STYLE1
100
AcDbText
  0
TEXT
  5
14850
330
747D
100
AcDbEntity
  8
寸法
 62
     7
 48
50.0
100
AcDbText
 10
10221.15892558424
 20
4673.721296297531
 30
0.0
 40
90.0
  1
１／１００
 41
0.8
  7
STYLE1
100
AcDbText
  0
DIMENSION
  5
14851
330
747D
100
AcDbEntity
  8
寸法
 48
50.0
100
AcDbDimension
  2
*D21
 10
8468.181069917644
 20
4562.065356575476
 30
0.0
 11
8468.181069917642
 21
4739.100789646385
 31
0.0
 70
   160
 71
     5
 42
100.0
  3
INABA_S30G
100
AcDbAlignedDimension
 13
8618.762197019547
 23
4462.065356575476
 33
0.0
 14
8618.762197019547
 24
4562.065356575476
 34
0.0
 50
90.0
100
AcDbRotatedDimension
  0
DIMENSION
  5
14852
330
747D
100
AcDbEntity
  8
寸法
 48
50.0
100
AcDbDimension
  2
*D22
 10
8468.181069917644
 20
4362.065356575477
 30
0.0
 11
8468.181069917642
 21
4185.029923504611
 31
0.0
 70
   160
 71
     5
 42
100.0
  3
INABA_S30G
100
AcDbAlignedDimension
 13
8618.762197019547
 23
4462.065356575476
 33
0.0
 14
8618.762197019547
 24
4362.065356575477
 34
0.0
 50
90.0
100
AcDbRotatedDimension
  0
DIMENSION
  5
14853
330
747D
100
AcDbEntity
  8
寸法
 48
50.0
100
AcDbDimension
  2
*D23
 10
9643.762197019604
 20
3470.448726931442
 30
0.0
 11
9381.262197019605
 21
3545.457585199159
 31
0.0
 70
    32
 71
     5
 42
525.0
  3
INABA_S30G
100
AcDbAlignedDimension
 13
9118.762197019604
 23
3912.065356575477
 33
0.0
 14
9643.762197019604
 24
3851.007524745597
 34
0.0
100
AcDbRotatedDimension
  0
DIMENSION
  5
14854
330
747D
100
AcDbEntity
  8
寸法
 48
50.0
100
AcDbDimension
  2
*D24
 10
9118.762197019604
 20
3240.36316584269
 30
0.0
 11
9818.762197019605
 21
3315.36316584269
 31
0.0
 70
    32
 71
     5
 42
1400.0
  3
INABA_S30G
100
AcDbAlignedDimension
 13
10518.7621970196
 23
3912.065356575477
 33
0.0
 14
9118.762197019604
 24
3912.065356575477
 34
0.0
100
AcDbRotatedDimension
  0
DIMENSION
  5
14855
330
747D
100
AcDbEntity
  8
寸法
 48
50.0
100
AcDbDimension
  2
*D25
 10
9993.762197019606
 20
3470.448726931442
 30
0.0
 11
9818.762197019605
 21
3545.448726931442
 31
0.0
 70
    32
 71
     5
 42
350.0
  3
INABA_S30G
100
AcDbAlignedDimension
 13
9643.762197019604
 23
3851.007524745597
 33
0.0
 14
9993.762197019606
 24
3851.007524745597
 34
0.0
100
AcDbRotatedDimension
  0
DIMENSION
  5
14856
330
747D
100
AcDbEntity
  8
寸法
 48
50.0
100
AcDbDimension
  2
*D26
 10
9993.762197019606
 20
3470.448726931442
 30
0.0
 11
10256.2621970196
 21
3545.457585199159
 31
0.0
 70
    32
 71
     5
 42
525.0
  3
INABA_S30G
100
AcDbAlignedDimension
 13
10518.7621970196
 23
3912.065356575477
 33
0.0
 14
9993.762197019606
 24
3851.007524745597
 34
0.0
 50
180.0
100
AcDbRotatedDimension
  0
DIMENSION
  5
14857
330
747D
100
AcDbEntity
  8
寸法
 48
50.0
100
AcDbDimension
  2
*D27
 10
11311.20356162033
 20
3912.065356575477
 30
0.0
 11
11236.20356162033
 21
4212.065356575478
 31
0.0
 70
    32
 71
     5
 42
600.0
  3
INABA_S30G
100
AcDbAlignedDimension
 13
11083.56007458312
 23
4512.065356575476
 33
0.0
 14
10598.7621970196
 24
3912.065356575477
 34
0.0
 50
90.0
100
AcDbRotatedDimension
  0
DIMENSION
  5
14858
330
747D
100
AcDbEntity
  8
寸法
 48
50.0
100
AcDbDimension
  2
*D28
 10
11311.20356162033
 20
4562.065356575476
 30
0.0
 11
11311.20356162033
 21
4791.600789646385
 31
0.0
 70
   160
 71
     5
 42
50.0
  3
INABA_S30G
100
AcDbAlignedDimension
 13
11018.7621970196
 23
4512.065356575476
 33
0.0
 14
11018.76219701966
 24
4562.065356575476
 34
0.0
 50
90.0
100
AcDbRotatedDimension
  0
DIMENSION
  5
14859
330
747D
100
AcDbEntity
  8
寸法
 48
50.0
100
AcDbDimension
  2
*D29
 10
11311.20356162033
 20
3862.065356575477
 30
0.0
 11
11311.20356162033
 21
3632.529923504613
 31
0.0
 70
   160
 71
     5
 42
50.0
  3
INABA_S30G
100
AcDbAlignedDimension
 13
10598.7621970196
 23
3912.065356575477
 33
0.0
 14
10598.7621970196
 24
3862.065356575477
 34
0.0
 50
90.0
100
AcDbRotatedDimension
  0
TEXT
  5
1485A
330
747D
100
AcDbEntity
  8
寸法
 62
     7
 48
50.0
100
AcDbText
 10
10605.54817006383
 20
4061.11976901046
 30
0.0
 40
90.0
  1
主筋4-D13
  7
STYLE1
100
AcDbText
  0
LINE
  5
1485B
330
747D
100
AcDbEntity
  8
寸法
 48
50.0
100
AcDbLine
 10
10567.80280398165
 20
4036.11291145807
 30
0.0
 11
11188.01725944884
 21
4036.11291145807
 31
0.0
  0
LINE
  5
1485C
330
747D
100
AcDbEntity
  8
寸法
 48
50.0
100
AcDbLine
 10
10567.80280398165
 20
4036.11291145807
 30
0.0
 11
10193.7621970196
 21
4252.065356575476
 31
0.0
  0
LWPOLYLINE
  5
1485D
330
747D
100
AcDbEntity
  8
寸法
 48
5.0
100
AcDbPolyline
 90
        3
 70
     0
 43
0.0
 10
9318.762197019605
 20
3992.065356575477
 10
8923.111252583927
 20
3596.414412139843
 10
8005.601697438994
 20
3596.414412139843
1001
ACAD
1000
DSTYLE
1002
{
1070
   341
1005
0
1002
}
  0
TEXT
  5
1485E
330
747D
100
AcDbEntity
  8
寸法
 62
     7
100
AcDbText
 10
8010.738135242325
 20
3616.935417138201
 30
-0.0000000000026306
 40
90.0
  1
4-D10X6-D10以上
  7
STYLE1
100
AcDbText
  0
TEXT
  5
1485F
330
747D
100
AcDbEntity
  8
寸法
 62
     7
100
AcDbText
 10
8010.738135242325
 20
3731.408337862828
 30
-0.0000000000026306
 40
90.0
  1
ベース筋
  7
STYLE1
100
AcDbText
  0
LINE
  5
14860
330
747D
100
AcDbEntity
  8
寸法
 48
50.0
100
AcDbLine
 10
9489.490884109882
 20
4102.065356575476
 30
0.0
 11
8775.247375706749
 21
3387.821848172346
 31
0.0
  0
LINE
  5
14861
330
747D
100
AcDbEntity
  8
寸法
 48
50.0
100
AcDbLine
 10
8775.247375706749
 20
3387.821848172346
 30
0.0
 11
8084.853397006067
 21
3387.821848172346
 31
0.0
  0
TEXT
  5
14862
330
747D
100
AcDbEntity
  8
寸法
 62
     7
 48
50.0
100
AcDbText
 10
8103.305984370658
 20
3402.897766000199
 30
0.0
 40
90.0
  1
帯筋D10＠100
  7
STYLE1
100
AcDbText
  0
ARC
  5
14863
330
747D
100
AcDbEntity
  8
部品1
 48
50.0
100
AcDbCircle
 10
9643.762197019604
 20
4343.845355304831
 30
0.0
 40
48.22000127066345
100
AcDbArc
 50
22.20066484154743
 51
157.7993351584525
  0
LINE
  5
14864
330
747D
100
AcDbEntity
  8
部品1
100
AcDbLine
 10
9774.762197019605
 20
4113.065356575476
 30
0.0
 11
9793.762197019605
 21
4113.065356575476
 31
0.0
  0
LINE
  5
14865
330
747D
100
AcDbEntity
  8
部品1
100
AcDbLine
 10
9774.762197019605
 20
4101.065356575476
 30
0.0
 11
9793.762197019605
 21
4101.065356575476
 31
0.0
  0
LINE
  5
14866
330
747D
100
AcDbEntity
  8
部品1
100
AcDbLine
 10
9793.762197019605
 20
4113.065356575476
 30
0.0
 11
9793.762197019605
 21
4101.065356575476
 31
0.0
  0
ARC
  5
14867
330
747D
100
AcDbEntity
  8
部品1
100
AcDbCircle
 10
9774.762197019605
 20
4138.065356575476
 30
0.0
 40
25.0
100
AcDbArc
 50
180.0
 51
270.0
  0
ARC
  5
14868
330
747D
100
AcDbEntity
  8
部品1
100
AcDbCircle
 10
9774.762197019605
 20
4138.065356575476
 30
0.0
 40
37.0
100
AcDbArc
 50
180.0
 51
270.0
  0
LINE
  5
14869
330
747D
100
AcDbEntity
  8
部品1
100
AcDbLine
 10
9737.762197019605
 20
4392.065356575477
 30
0.0
 11
9737.762197019605
 21
4138.065356575476
 31
0.0
  0
LINE
  5
1486A
330
747D
100
AcDbEntity
  8
部品1
100
AcDbLine
 10
9749.762197019606
 20
4422.065356575476
 30
0.0
 11
9737.762197019605
 21
4422.065356575476
 31
0.0
  0
LINE
  5
1486B
330
747D
100
AcDbEntity
  8
部品1
100
AcDbLine
 10
9749.762197019606
 20
4422.065356575476
 30
0.0
 11
9749.762197019606
 21
4414.065356575476
 31
0.0
  0
LINE
  5
1486C
330
747D
100
AcDbEntity
  8
部品1
100
AcDbLine
 10
9737.762197019605
 20
4422.065356575476
 30
0.0
 11
9737.762197019605
 21
4414.065356575476
 31
0.0
  0
LINE
  5
1486D
330
747D
100
AcDbEntity
  8
部品1
100
AcDbLine
 10
9754.73185213424
 20
4414.065356575476
 30
0.0
 11
9732.79254190503
 21
4414.065356575476
 31
0.0
  0
LINE
  5
1486E
330
747D
100
AcDbEntity
  8
部品1
100
AcDbLine
 10
9732.79254190503
 20
4404.065356575476
 30
0.0
 11
9732.79254190503
 21
4414.065356575476
 31
0.0
  0
LINE
  5
1486F
330
747D
100
AcDbEntity
  8
部品1
100
AcDbLine
 10
9738.277369462318
 20
4404.065356575476
 30
0.0
 11
9738.277369462318
 21
4414.065356575476
 31
0.0
  0
LINE
  5
14870
330
747D
100
AcDbEntity
  8
部品1
100
AcDbLine
 10
9749.247024576893
 20
4404.065356575476
 30
0.0
 11
9749.247024576893
 21
4414.065356575476
 31
0.0
  0
LINE
  5
14871
330
747D
100
AcDbEntity
  8
部品1
100
AcDbLine
 10
9754.73185213424
 20
4404.065356575476
 30
0.0
 11
9754.73185213424
 21
4414.065356575476
 31
0.0
  0
LINE
  5
14872
330
747D
100
AcDbEntity
  8
部品1
100
AcDbLine
 10
9754.73185213424
 20
4404.065356575476
 30
0.0
 11
9732.79254190503
 21
4404.065356575476
 31
0.0
  0
LINE
  5
14873
330
747D
100
AcDbEntity
  8
部品1
100
AcDbLine
 10
9749.762197019606
 20
4392.065356575477
 30
0.0
 11
9749.762197019606
 21
4138.065356575476
 31
0.0
  0
LINE
  5
14874
330
747D
100
AcDbEntity
  8
部品1
100
AcDbLine
 10
9549.762197019605
 20
4392.065356575477
 30
0.0
 11
9549.762197019605
 21
4138.065356575476
 31
0.0
  0
LINE
  5
14875
330
747D
100
AcDbEntity
  8
部品1
100
AcDbLine
 10
9537.762197019604
 20
4392.065356575477
 30
0.0
 11
9537.762197019604
 21
4138.065356575476
 31
0.0
  0
LINE
  5
14876
330
747D
100
AcDbEntity
  8
部品1
100
AcDbLine
 10
9532.792541905029
 20
4404.065356575476
 30
0.0
 11
9554.731852134239
 21
4404.065356575476
 31
0.0
  0
LINE
  5
14877
330
747D
100
AcDbEntity
  8
部品1
100
AcDbLine
 10
9532.792541905029
 20
4404.065356575476
 30
0.0
 11
9532.792541905029
 21
4414.065356575476
 31
0.0
  0
LINE
  5
14878
330
747D
100
AcDbEntity
  8
部品1
100
AcDbLine
 10
9538.277369462319
 20
4404.065356575476
 30
0.0
 11
9538.277369462319
 21
4414.065356575476
 31
0.0
  0
LINE
  5
14879
330
747D
100
AcDbEntity
  8
部品1
100
AcDbLine
 10
9549.247024576892
 20
4404.065356575476
 30
0.0
 11
9549.247024576892
 21
4414.065356575476
 31
0.0
  0
LINE
  5
1487A
330
747D
100
AcDbEntity
  8
部品1
100
AcDbLine
 10
9554.731852134239
 20
4404.065356575476
 30
0.0
 11
9554.731852134239
 21
4414.065356575476
 31
0.0
  0
LINE
  5
1487B
330
747D
100
AcDbEntity
  8
部品1
100
AcDbLine
 10
9532.792541905029
 20
4414.065356575476
 30
0.0
 11
9554.731852134239
 21
4414.065356575476
 31
0.0
  0
ARC
  5
1487C
330
747D
100
AcDbEntity
  8
部品1
100
AcDbCircle
 10
9512.762197019604
 20
4138.065356575476
 30
0.0
 40
37.0
100
AcDbArc
 50
270.0
 51
0.0
  0
ARC
  5
1487D
330
747D
100
AcDbEntity
  8
部品1
100
AcDbCircle
 10
9512.762197019604
 20
4138.065356575476
 30
0.0
 40
25.0
100
AcDbArc
 50
270.0
 51
0.0
  0
LINE
  5
1487E
330
747D
100
AcDbEntity
  8
部品1
100
AcDbLine
 10
9493.762197019604
 20
4113.065356575476
 30
0.0
 11
9493.762197019604
 21
4101.065356575476
 31
0.0
  0
LINE
  5
1487F
330
747D
100
AcDbEntity
  8
部品1
100
AcDbLine
 10
9512.762197019604
 20
4101.065356575476
 30
0.0
 11
9493.762197019604
 21
4101.065356575476
 31
0.0
  0
LINE
  5
14880
330
747D
100
AcDbEntity
  8
部品1
100
AcDbLine
 10
9512.762197019604
 20
4113.065356575476
 30
0.0
 11
9493.762197019604
 21
4113.065356575476
 31
0.0
  0
LINE
  5
14881
330
747D
100
AcDbEntity
  8
部品1
100
AcDbLine
 10
9549.762197019605
 20
4422.065356575476
 30
0.0
 11
9549.762197019605
 21
4414.065356575476
 31
0.0
  0
LINE
  5
14882
330
747D
100
AcDbEntity
  8
部品1
100
AcDbLine
 10
9537.762197019604
 20
4422.065356575476
 30
0.0
 11
9537.762197019604
 21
4414.065356575476
 31
0.0
  0
LINE
  5
14883
330
747D
100
AcDbEntity
  8
部品1
100
AcDbLine
 10
9537.762197019604
 20
4422.065356575476
 30
0.0
 11
9549.762197019605
 21
4422.065356575476
 31
0.0
  0
LINE
  5
14884
330
747D
100
AcDbEntity
  8
CSLAYER17
  6
Continuous
 62
     7
100
AcDbLine
 10
9767.312197019593
 20
4454.065356575476
 30
0.0
 11
9777.312197019593
 21
4444.065356575476
 31
0.0
  0
LINE
  5
14885
330
747D
100
AcDbEntity
  8
CSLAYER17
  6
Continuous
 62
     7
100
AcDbLine
 10
9520.212197019617
 20
4454.065356575476
 30
0.0
 11
9510.212197019617
 21
4444.065356575476
 31
0.0
  0
LINE
  5
14886
330
747D
100
AcDbEntity
  8
CSLAYER17
  6
Continuous
 62
     7
100
AcDbLine
 10
9598.712197019617
 20
4414.065356575476
 30
0.0
 11
9588.712197019617
 21
4404.065356575476
 31
0.0
  0
LINE
  5
14887
330
747D
100
AcDbEntity
  8
部品1
100
AcDbLine
 10
9598.712197019617
 20
4454.065356575476
 30
0.0
 11
9598.712197019617
 21
4414.065356575476
 31
0.0
  0
LINE
  5
14888
330
747D
100
AcDbEntity
  8
部品1
100
AcDbLine
 10
9688.812197019593
 20
4454.065356575476
 30
0.0
 11
9688.812197019593
 21
4414.065356575476
 31
0.0
  0
LINE
  5
14889
330
747D
100
AcDbEntity
  8
CSLAYER17
  6
Continuous
 62
     7
100
AcDbLine
 10
9688.812197019593
 20
4414.065356575476
 30
0.0
 11
9698.812197019593
 21
4404.065356575476
 31
0.0
  0
LINE
  5
1488A
330
747D
100
AcDbEntity
  8
CSLAYER17
  6
Continuous
 62
     7
100
AcDbLine
 10
9688.812197019593
 20
4454.065356575476
 30
0.0
 11
9767.312197019593
 21
4454.065356575476
 31
0.0
  0
LINE
  5
1488B
330
747D
100
AcDbEntity
  8
CSLAYER17
  6
Continuous
 62
     7
100
AcDbLine
 10
9510.212197019617
 20
4444.065356575476
 30
0.0
 11
9510.212197019617
 21
4404.065356575476
 31
0.0
  0
LINE
  5
1488C
330
747D
100
AcDbEntity
  8
CSLAYER17
  6
Continuous
 62
     7
100
AcDbLine
 10
9777.312197019593
 20
4444.065356575476
 30
0.0
 11
9777.312197019593
 21
4404.065356575476
 31
0.0
  0
LINE
  5
1488D
330
747D
100
AcDbEntity
  8
CSLAYER17
  6
Continuous
 62
     7
100
AcDbLine
 10
9520.212197019617
 20
4454.065356575476
 30
0.0
 11
9598.712197019617
 21
4454.065356575476
 31
0.0
  0
LINE
  5
1488E
330
747D
100
AcDbEntity
  8
CSLAYER17
  6
Continuous
 62
     7
100
AcDbLine
 10
9641.512197019606
 20
4454.065356575476
 30
0.0
 11
9646.012197019606
 21
4454.065356575476
 31
0.0
  0
LINE
  5
1488F
330
747D
100
AcDbEntity
  8
CSLAYER17
  6
Continuous
 62
     7
100
AcDbLine
 10
9646.012197019606
 20
4454.065356575476
 30
0.0
 11
9646.012197019606
 21
4404.065356575476
 31
0.0
  0
LINE
  5
14890
330
747D
100
AcDbEntity
  8
CSLAYER17
  6
Continuous
 62
     7
100
AcDbLine
 10
9641.512197019606
 20
4454.065356575476
 30
0.0
 11
9641.512197019606
 21
4404.065356575476
 31
0.0
  0
LINE
  5
14891
330
747D
100
AcDbEntity
  8
CSLAYER17
  6
Continuous
 62
     7
100
AcDbLine
 10
9783.762197019605
 20
4404.065356575476
 30
0.0
 11
9783.762197019605
 21
4392.065356575477
 31
0.0
  0
LINE
  5
14892
330
747D
100
AcDbEntity
  8
CSLAYER17
  6
Continuous
 62
     7
100
AcDbLine
 10
9503.762197019606
 20
4392.065356575477
 30
0.0
 11
9503.762197019606
 21
4404.065356575476
 31
0.0
  0
LINE
  5
14893
330
747D
100
AcDbEntity
  8
CSLAYER17
  6
Continuous
 62
     7
100
AcDbLine
 10
9503.762197019606
 20
4404.065356575476
 30
0.0
 11
9783.762197019605
 21
4404.065356575476
 31
0.0
  0
LINE
  5
14894
330
747D
100
AcDbEntity
  8
CSLAYER17
  6
Continuous
 62
     7
100
AcDbLine
 10
9503.762197019606
 20
4392.065356575477
 30
0.0
 11
9783.762197019605
 21
4392.065356575477
 31
0.0
  0
LINE
  5
14895
330
747D
100
AcDbEntity
  8
部品1
 48
50.0
100
AcDbLine
 10
9688.425428915143
 20
4404.065356575476
 30
0.0
 11
9599.212197019616
 21
4404.065356575476
 31
0.0
  0
LINE
  5
14896
330
747D
100
AcDbEntity
  8
部品1
 48
50.0
100
AcDbLine
 10
9599.212197019616
 20
4907.998452520406
 30
0.0
 11
9599.212197019616
 21
4404.065356575491
 31
0.0
  0
LINE
  5
14897
330
747D
100
AcDbEntity
  8
部品1
 48
50.0
100
AcDbLine
 10
9688.312197019593
 20
4907.998452520406
 30
0.0
 11
9688.312197019593
 21
4404.065356575491
 31
0.0
  0
ARC
  5
14898
330
747D
100
AcDbEntity
  8
部品1
 48
50.0
100
AcDbCircle
 10
9993.762197019606
 20
4343.845355304831
 30
0.0
 40
48.22000127066345
100
AcDbArc
 50
22.20066484154743
 51
157.7993351584525
  0
LINE
  5
14899
330
747D
100
AcDbEntity
  8
部品1
100
AcDbLine
 10
10124.7621970196
 20
4113.065356575476
 30
0.0
 11
10143.7621970196
 21
4113.065356575476
 31
0.0
  0
LINE
  5
1489A
330
747D
100
AcDbEntity
  8
部品1
100
AcDbLine
 10
10124.7621970196
 20
4101.065356575476
 30
0.0
 11
10143.7621970196
 21
4101.065356575476
 31
0.0
  0
LINE
  5
1489B
330
747D
100
AcDbEntity
  8
部品1
100
AcDbLine
 10
10143.7621970196
 20
4113.065356575476
 30
0.0
 11
10143.7621970196
 21
4101.065356575476
 31
0.0
  0
ARC
  5
1489C
330
747D
100
AcDbEntity
  8
部品1
100
AcDbCircle
 10
10124.7621970196
 20
4138.065356575476
 30
0.0
 40
25.0
100
AcDbArc
 50
180.0
 51
270.0
  0
ARC
  5
1489D
330
747D
100
AcDbEntity
  8
部品1
100
AcDbCircle
 10
10124.7621970196
 20
4138.065356575476
 30
0.0
 40
37.0
100
AcDbArc
 50
180.0
 51
270.0
  0
LINE
  5
1489E
330
747D
100
AcDbEntity
  8
部品1
100
AcDbLine
 10
10087.7621970196
 20
4392.065356575477
 30
0.0
 11
10087.7621970196
 21
4138.065356575476
 31
0.0
  0
LINE
  5
1489F
330
747D
100
AcDbEntity
  8
部品1
100
AcDbLine
 10
10099.7621970196
 20
4422.065356575476
 30
0.0
 11
10087.7621970196
 21
4422.065356575476
 31
0.0
  0
LINE
  5
148A0
330
747D
100
AcDbEntity
  8
部品1
100
AcDbLine
 10
10099.7621970196
 20
4422.065356575476
 30
0.0
 11
10099.7621970196
 21
4414.065356575476
 31
0.0
  0
LINE
  5
148A1
330
747D
100
AcDbEntity
  8
部品1
100
AcDbLine
 10
10087.7621970196
 20
4422.065356575476
 30
0.0
 11
10087.7621970196
 21
4414.065356575476
 31
0.0
  0
LINE
  5
148A2
330
747D
100
AcDbEntity
  8
部品1
100
AcDbLine
 10
10104.73185213424
 20
4414.065356575476
 30
0.0
 11
10082.79254190503
 21
4414.065356575476
 31
0.0
  0
LINE
  5
148A3
330
747D
100
AcDbEntity
  8
部品1
100
AcDbLine
 10
10082.79254190503
 20
4404.065356575476
 30
0.0
 11
10082.79254190503
 21
4414.065356575476
 31
0.0
  0
LINE
  5
148A4
330
747D
100
AcDbEntity
  8
部品1
100
AcDbLine
 10
10088.27736946231
 20
4404.065356575476
 30
0.0
 11
10088.27736946231
 21
4414.065356575476
 31
0.0
  0
LINE
  5
148A5
330
747D
100
AcDbEntity
  8
部品1
100
AcDbLine
 10
10099.24702457689
 20
4404.065356575476
 30
0.0
 11
10099.24702457689
 21
4414.065356575476
 31
0.0
  0
LINE
  5
148A6
330
747D
100
AcDbEntity
  8
部品1
100
AcDbLine
 10
10104.73185213424
 20
4404.065356575476
 30
0.0
 11
10104.73185213424
 21
4414.065356575476
 31
0.0
  0
LINE
  5
148A7
330
747D
100
AcDbEntity
  8
部品1
100
AcDbLine
 10
10104.73185213424
 20
4404.065356575476
 30
0.0
 11
10082.79254190503
 21
4404.065356575476
 31
0.0
  0
LINE
  5
148A8
330
747D
100
AcDbEntity
  8
部品1
100
AcDbLine
 10
10099.7621970196
 20
4392.065356575477
 30
0.0
 11
10099.7621970196
 21
4138.065356575476
 31
0.0
  0
LINE
  5
148A9
330
747D
100
AcDbEntity
  8
部品1
100
AcDbLine
 10
9899.762197019605
 20
4392.065356575477
 30
0.0
 11
9899.762197019605
 21
4138.065356575476
 31
0.0
  0
LINE
  5
148AA
330
747D
100
AcDbEntity
  8
部品1
100
AcDbLine
 10
9887.762197019606
 20
4392.065356575477
 30
0.0
 11
9887.762197019606
 21
4138.065356575476
 31
0.0
  0
LINE
  5
148AB
330
747D
100
AcDbEntity
  8
部品1
100
AcDbLine
 10
9882.792541905031
 20
4404.065356575476
 30
0.0
 11
9904.73185213424
 21
4404.065356575476
 31
0.0
  0
LINE
  5
148AC
330
747D
100
AcDbEntity
  8
部品1
100
AcDbLine
 10
9882.792541905031
 20
4404.065356575476
 30
0.0
 11
9882.792541905031
 21
4414.065356575476
 31
0.0
  0
LINE
  5
148AD
330
747D
100
AcDbEntity
  8
部品1
100
AcDbLine
 10
9888.277369462318
 20
4404.065356575476
 30
0.0
 11
9888.277369462318
 21
4414.065356575476
 31
0.0
  0
LINE
  5
148AE
330
747D
100
AcDbEntity
  8
部品1
100
AcDbLine
 10
9899.247024576894
 20
4404.065356575476
 30
0.0
 11
9899.247024576894
 21
4414.065356575476
 31
0.0
  0
LINE
  5
148AF
330
747D
100
AcDbEntity
  8
部品1
100
AcDbLine
 10
9904.73185213424
 20
4404.065356575476
 30
0.0
 11
9904.73185213424
 21
4414.065356575476
 31
0.0
  0
LINE
  5
148B0
330
747D
100
AcDbEntity
  8
部品1
100
AcDbLine
 10
9882.792541905031
 20
4414.065356575476
 30
0.0
 11
9904.73185213424
 21
4414.065356575476
 31
0.0
  0
ARC
  5
148B1
330
747D
100
AcDbEntity
  8
部品1
100
AcDbCircle
 10
9862.762197019605
 20
4138.065356575476
 30
0.0
 40
37.0
100
AcDbArc
 50
270.0
 51
0.0
  0
ARC
  5
148B2
330
747D
100
AcDbEntity
  8
部品1
100
AcDbCircle
 10
9862.762197019605
 20
4138.065356575476
 30
0.0
 40
25.0
100
AcDbArc
 50
270.0
 51
0.0
  0
LINE
  5
148B3
330
747D
100
AcDbEntity
  8
部品1
100
AcDbLine
 10
9843.762197019605
 20
4113.065356575476
 30
0.0
 11
9843.762197019605
 21
4101.065356575476
 31
0.0
  0
LINE
  5
148B4
330
747D
100
AcDbEntity
  8
部品1
100
AcDbLine
 10
9862.762197019605
 20
4101.065356575476
 30
0.0
 11
9843.762197019605
 21
4101.065356575476
 31
0.0
  0
LINE
  5
148B5
330
747D
100
AcDbEntity
  8
部品1
100
AcDbLine
 10
9862.762197019605
 20
4113.065356575476
 30
0.0
 11
9843.762197019605
 21
4113.065356575476
 31
0.0
  0
LINE
  5
148B6
330
747D
100
AcDbEntity
  8
部品1
100
AcDbLine
 10
9899.762197019605
 20
4422.065356575476
 30
0.0
 11
9899.762197019605
 21
4414.065356575476
 31
0.0
  0
LINE
  5
148B7
330
747D
100
AcDbEntity
  8
部品1
100
AcDbLine
 10
9887.762197019606
 20
4422.065356575476
 30
0.0
 11
9887.762197019606
 21
4414.065356575476
 31
0.0
  0
LINE
  5
148B8
330
747D
100
AcDbEntity
  8
部品1
100
AcDbLine
 10
9887.762197019606
 20
4422.065356575476
 30
0.0
 11
9899.762197019605
 21
4422.065356575476
 31
0.0
  0
LINE
  5
148B9
330
747D
100
AcDbEntity
  8
CSLAYER17
  6
Continuous
 62
     7
100
AcDbLine
 10
10117.31219701959
 20
4454.065356575476
 30
0.0
 11
10127.31219701959
 21
4444.065356575476
 31
0.0
  0
LINE
  5
148BA
330
747D
100
AcDbEntity
  8
CSLAYER17
  6
Continuous
 62
     7
100
AcDbLine
 10
9870.212197019618
 20
4454.065356575476
 30
0.0
 11
9860.212197019617
 21
4444.065356575476
 31
0.0
  0
LINE
  5
148BB
330
747D
100
AcDbEntity
  8
CSLAYER17
  6
Continuous
 62
     7
100
AcDbLine
 10
9948.712197019617
 20
4414.065356575476
 30
0.0
 11
9938.712197019619
 21
4404.065356575476
 31
0.0
  0
LINE
  5
148BC
330
747D
100
AcDbEntity
  8
部品1
100
AcDbLine
 10
9948.712197019617
 20
4454.065356575476
 30
0.0
 11
9948.712197019617
 21
4414.065356575476
 31
0.0
  0
LINE
  5
148BD
330
747D
100
AcDbEntity
  8
部品1
100
AcDbLine
 10
10038.81219701959
 20
4454.065356575476
 30
0.0
 11
10038.81219701959
 21
4414.065356575476
 31
0.0
  0
LINE
  5
148BE
330
747D
100
AcDbEntity
  8
CSLAYER17
  6
Continuous
 62
     7
100
AcDbLine
 10
10038.81219701959
 20
4414.065356575476
 30
0.0
 11
10048.81219701959
 21
4404.065356575476
 31
0.0
  0
LINE
  5
148BF
330
747D
100
AcDbEntity
  8
CSLAYER17
  6
Continuous
 62
     7
100
AcDbLine
 10
10038.81219701959
 20
4454.065356575476
 30
0.0
 11
10117.31219701959
 21
4454.065356575476
 31
0.0
  0
LINE
  5
148C0
330
747D
100
AcDbEntity
  8
CSLAYER17
  6
Continuous
 62
     7
100
AcDbLine
 10
9860.212197019617
 20
4444.065356575476
 30
0.0
 11
9860.212197019617
 21
4404.065356575476
 31
0.0
  0
LINE
  5
148C1
330
747D
100
AcDbEntity
  8
CSLAYER17
  6
Continuous
 62
     7
100
AcDbLine
 10
10127.31219701959
 20
4444.065356575476
 30
0.0
 11
10127.31219701959
 21
4404.065356575476
 31
0.0
  0
LINE
  5
148C2
330
747D
100
AcDbEntity
  8
CSLAYER17
  6
Continuous
 62
     7
100
AcDbLine
 10
9870.212197019618
 20
4454.065356575476
 30
0.0
 11
9948.712197019617
 21
4454.065356575476
 31
0.0
  0
LINE
  5
148C3
330
747D
100
AcDbEntity
  8
CSLAYER17
  6
Continuous
 62
     7
100
AcDbLine
 10
9991.512197019606
 20
4454.065356575476
 30
0.0
 11
9996.012197019606
 21
4454.065356575476
 31
0.0
  0
LINE
  5
148C4
330
747D
100
AcDbEntity
  8
CSLAYER17
  6
Continuous
 62
     7
100
AcDbLine
 10
9996.012197019606
 20
4454.065356575476
 30
0.0
 11
9996.012197019606
 21
4404.065356575476
 31
0.0
  0
LINE
  5
148C5
330
747D
100
AcDbEntity
  8
CSLAYER17
  6
Continuous
 62
     7
100
AcDbLine
 10
9991.512197019606
 20
4454.065356575476
 30
0.0
 11
9991.512197019606
 21
4404.065356575476
 31
0.0
  0
LINE
  5
148C6
330
747D
100
AcDbEntity
  8
CSLAYER17
  6
Continuous
 62
     7
100
AcDbLine
 10
10133.7621970196
 20
4404.065356575476
 30
0.0
 11
10133.7621970196
 21
4392.065356575477
 31
0.0
  0
LINE
  5
148C7
330
747D
100
AcDbEntity
  8
CSLAYER17
  6
Continuous
 62
     7
100
AcDbLine
 10
9853.762197019605
 20
4392.065356575477
 30
0.0
 11
9853.762197019605
 21
4404.065356575476
 31
0.0
  0
LINE
  5
148C8
330
747D
100
AcDbEntity
  8
CSLAYER17
  6
Continuous
 62
     7
100
AcDbLine
 10
9853.762197019605
 20
4404.065356575476
 30
0.0
 11
10133.7621970196
 21
4404.065356575476
 31
0.0
  0
LINE
  5
148C9
330
747D
100
AcDbEntity
  8
CSLAYER17
  6
Continuous
 62
     7
100
AcDbLine
 10
9853.762197019605
 20
4392.065356575477
 30
0.0
 11
10133.7621970196
 21
4392.065356575477
 31
0.0
  0
LINE
  5
148CA
330
747D
100
AcDbEntity
  8
部品1
 48
50.0
100
AcDbLine
 10
10038.42542891514
 20
4404.065356575476
 30
0.0
 11
9949.212197019617
 21
4404.065356575476
 31
0.0
  0
LINE
  5
148CB
330
747D
100
AcDbEntity
  8
部品1
 48
50.0
100
AcDbLine
 10
9949.212197019617
 20
4907.998452520406
 30
0.0
 11
9949.212197019617
 21
4404.065356575491
 31
0.0
  0
LINE
  5
148CC
330
747D
100
AcDbEntity
  8
部品1
 48
50.0
100
AcDbLine
 10
10038.31219701959
 20
4907.998452520406
 30
0.0
 11
10038.31219701959
 21
4404.065356575491
 31
0.0
  0
LINE
  5
148CD
330
747D
100
AcDbEntity
  8
センター
 48
10.0
100
AcDbLine
 10
9643.762197019604
 20
4986.538189430517
 30
0.0
 11
9643.762197019604
 21
3851.007524745597
 31
0.0
  0
LINE
  5
148CE
330
747D
100
AcDbEntity
  8
センター
 48
10.0
100
AcDbLine
 10
9993.762197019606
 20
4986.538189430517
 30
0.0
 11
9993.762197019606
 21
3851.007524745597
 31
0.0
  0
DIMENSION
  5
148CF
330
747D
100
AcDbEntity
  8
寸法
 48
50.0
100
AcDbDimension
  2
*D30
 10
8698.08590125463
 20
4422.065356575461
 30
0.0
 11
8698.085901254627
 21
4204.83701011877
 31
0.0
 70
   160
 71
     5
 42
60.0
  3
INABA_S30G
100
AcDbAlignedDimension
 13
9055.58100593435
 23
4362.065356575462
 33
0.0
 14
9537.762197019604
 24
4422.065356575461
 34
0.0
 50
90.0
100
AcDbRotatedDimension
  0
DIMENSION
  5
148D0
330
747D
100
AcDbEntity
  8
寸法
 48
50.0
100
AcDbDimension
  2
*D31
 10
8898.261804647935
 20
4392.065356575477
 30
0.0
 11
8898.261804647933
 21
4132.529923504597
 31
0.0
 70
   160
 71
     5
 42
30.00000000001455
  3
INABA_S30G
100
AcDbAlignedDimension
 13
9055.58100593435
 23
4362.065356575462
 33
0.0
 14
9503.762197019606
 24
4392.065356575477
 34
0.0
 50
90.0
100
AcDbRotatedDimension
  0
LINE
  5
148D1
330
747D
100
AcDbEntity
  8
寸法
 48
50.0
100
AcDbLine
 10
10967.39986454103
 20
3387.821848172346
 30
0.0
 11
10099.7621970196
 21
4265.065356575476
 31
0.0
  0
TEXT
  5
148D2
330
747D
100
AcDbEntity
  8
寸法
 62
     7
 48
50.0
100
AcDbText
 10
11005.14523062315
 20
3280.543473188053
 30
0.0
 40
90.0
  1
M12X350（市販品）
  7
STYLE1
100
AcDbText
  0
TEXT
  5
148D3
330
747D
100
AcDbEntity
  8
寸法
 62
     7
 48
50.0
100
AcDbText
 10
11005.14523062315
 20
3400.089751704495
 30
0.0
 40
90.0
  1
アンカーボルト
  7
STYLE1
100
AcDbText
  0
LINE
  5
148D4
330
747D
100
AcDbEntity
  8
寸法
 48
50.0
100
AcDbLine
 10
10967.39986454103
 20
3387.821848172346
 30
0.0
 11
11960.32719106164
 21
3387.821848172346
 31
0.0
  0
LINE
  5
14989
330
747D
100
AcDbEntity
  8
部品1
 48
50.0
100
AcDbLine
 10
6838.796722801141
 20
4793.367941370031
 30
-0.0000000000013153
 11
6038.796722801141
 21
4793.367941370031
 31
-0.0000000000013153
  0
LINE
  5
1498A
330
747D
100
AcDbEntity
  8
部品1
 48
50.0
100
AcDbLine
 10
6038.796722801141
 20
3393.367941370033
 30
-0.0000000000013153
 11
6838.796722801141
 21
3393.367941370033
 31
-0.0000000000013153
  0
LINE
  5
1498B
330
747D
100
AcDbEntity
  8
部品1
 48
50.0
100
AcDbLine
 10
6038.796722801141
 20
4793.367941370031
 30
-0.0000000000013153
 11
6038.796722801141
 21
3393.367941370033
 31
-0.0000000000013153
  0
LINE
  5
1498C
330
747D
100
AcDbEntity
  8
部品1
 48
50.0
100
AcDbLine
 10
1238.79672280114
 20
3393.367941370033
 30
-0.0000000000013153
 11
2038.79672280114
 21
3393.367941370033
 31
-0.0000000000013153
  0
LINE
  5
1498D
330
747D
100
AcDbEntity
  8
部品1
 48
50.0
100
AcDbLine
 10
2038.79672280114
 20
4793.367941370031
 30
-0.0000000000013153
 11
2038.79672280114
 21
3393.367941370033
 31
-0.0000000000013153
  0
LINE
  5
1498E
330
747D
100
AcDbEntity
  8
部品1
 48
50.0
100
AcDbLine
 10
2038.79672280114
 20
4793.367941370031
 30
-0.0000000000013153
 11
1238.79672280114
 21
4793.367941370031
 31
-0.0000000000013153
  0
LINE
  5
1498F
330
747D
100
AcDbEntity
  8
想像線
 48
10.0
100
AcDbLine
 10
1408.796722801198
 20
2054.867941370018
 30
-0.0000000000013153
 11
6668.796722801082
 21
2054.867941370032
 31
-0.0000000000013153
  0
LINE
  5
14990
330
747D
100
AcDbEntity
  8
想像線
 48
10.0
100
AcDbLine
 10
6668.796722801082
 20
2054.867941370032
 30
-0.0000000000013153
 11
6668.796722801082
 21
6131.867941370032
 31
-0.0000000000013153
  0
LINE
  5
14991
330
747D
100
AcDbEntity
  8
想像線
 48
10.0
100
AcDbLine
 10
6668.796722801082
 20
6131.867941370032
 30
-0.0000000000013153
 11
1408.796722801198
 21
6131.867941370018
 31
-0.0000000000013153
  0
LINE
  5
14992
330
747D
100
AcDbEntity
  8
想像線
 48
10.0
100
AcDbLine
 10
1408.796722801198
 20
2054.867941370032
 30
-0.0000000000013153
 11
1408.796722801169
 21
6131.867941370032
 31
-0.0000000000013153
  0
LINE
  5
14993
330
747D
100
AcDbEntity
  8
センター
 48
10.0
100
AcDbLine
 10
1388.79672280114
 20
3918.367941370032
 30
-0.0000000000013153
 11
6688.79672280114
 21
3918.367941370032
 31
-0.0000000000013153
  0
CIRCLE
  5
14994
330
747D
100
AcDbEntity
  8
部品1
 48
50.0
100
AcDbCircle
 10
6538.796722801141
 20
4018.367941370033
 30
-0.0000000000013153
 40
15.0
  0
LINE
  5
14995
330
747D
100
AcDbEntity
  8
センター
 48
3.0
100
AcDbLine
 10
6538.796722801141
 20
4093.367941370032
 30
-0.0000000000013153
 11
6538.796722801141
 21
3943.367941370033
 31
-0.0000000000013153
  0
LINE
  5
14996
330
747D
100
AcDbEntity
  8
センター
 48
3.0
100
AcDbLine
 10
6463.796722801141
 20
4018.367941370033
 30
-0.0000000000013153
 11
6613.79672280114
 21
4018.367941370033
 31
-0.0000000000013153
  0
LINE
  5
14997
330
747D
100
AcDbEntity
  8
センター
 48
3.0
100
AcDbLine
 10
6538.796722801141
 20
3893.367941370033
 30
-0.0000000000013153
 11
6538.796722801141
 21
3743.367941370033
 31
-0.0000000000013153
  0
CIRCLE
  5
14998
330
747D
100
AcDbEntity
  8
部品1
 48
50.0
100
AcDbCircle
 10
6538.796722801141
 20
3818.367941370033
 30
-0.0000000000013153
 40
15.0
  0
LINE
  5
14999
330
747D
100
AcDbEntity
  8
センター
 48
3.0
100
AcDbLine
 10
6463.796722801141
 20
3818.367941370033
 30
-0.0000000000013153
 11
6613.79672280114
 21
3818.367941370033
 31
-0.0000000000013153
  0
LINE
  5
1499A
330
747D
100
AcDbEntity
  8
センター
 48
10.0
100
AcDbLine
 10
6438.79672280114
 20
3668.367941370032
 30
-0.0000000000013153
 11
6438.79672280114
 21
4168.367941370031
 31
-0.0000000000013153
  0
CIRCLE
  5
1499B
330
747D
100
AcDbEntity
  8
部品1
 48
50.0
100
AcDbCircle
 10
6338.796722801141
 20
4018.367941370033
 30
-0.0000000000013153
 40
15.0
  0
LINE
  5
1499C
330
747D
100
AcDbEntity
  8
センター
 48
3.0
100
AcDbLine
 10
6338.796722801141
 20
4093.367941370032
 30
-0.0000000000013153
 11
6338.796722801141
 21
3943.367941370033
 31
-0.0000000000013153
  0
LINE
  5
1499D
330
747D
100
AcDbEntity
  8
センター
 48
3.0
100
AcDbLine
 10
6338.796722801141
 20
3893.367941370033
 30
-0.0000000000013153
 11
6338.796722801141
 21
3743.367941370033
 31
-0.0000000000013153
  0
CIRCLE
  5
1499E
330
747D
100
AcDbEntity
  8
部品1
 48
50.0
100
AcDbCircle
 10
6338.796722801141
 20
3818.367941370033
 30
-0.0000000000013153
 40
15.0
  0
LINE
  5
1499F
330
747D
100
AcDbEntity
  8
センター
 48
10.0
100
AcDbLine
 10
6188.79672280114
 20
3918.367941370032
 30
-0.0000000000013153
 11
6688.79672280114
 21
3918.367941370032
 31
-0.0000000000013153
  0
LINE
  5
149A0
330
747D
100
AcDbEntity
  8
センター
 48
3.0
100
AcDbLine
 10
6263.79672280114
 20
4018.367941370033
 30
-0.0000000000013153
 11
6413.796722801141
 21
4018.367941370033
 31
-0.0000000000013153
  0
LINE
  5
149A1
330
747D
100
AcDbEntity
  8
センター
 48
3.0
100
AcDbLine
 10
6263.79672280114
 20
3818.367941370033
 30
-0.0000000000013153
 11
6413.796722801141
 21
3818.367941370033
 31
-0.0000000000013153
  0
LINE
  5
149A2
330
747D
100
AcDbEntity
  8
センター
 48
3.0
100
AcDbLine
 10
1463.79672280114
 20
3818.367941370033
 30
-0.0000000000013153
 11
1613.79672280114
 21
3818.367941370033
 31
-0.0000000000013153
  0
LINE
  5
149A3
330
747D
100
AcDbEntity
  8
センター
 48
3.0
100
AcDbLine
 10
1463.79672280114
 20
4018.367941370033
 30
-0.0000000000013153
 11
1613.79672280114
 21
4018.367941370033
 31
-0.0000000000013153
  0
LINE
  5
149A4
330
747D
100
AcDbEntity
  8
センター
 48
10.0
100
AcDbLine
 10
1388.79672280114
 20
3918.367941370032
 30
-0.0000000000013153
 11
1888.79672280114
 21
3918.367941370032
 31
-0.0000000000013153
  0
CIRCLE
  5
149A5
330
747D
100
AcDbEntity
  8
部品1
 48
50.0
100
AcDbCircle
 10
1538.79672280114
 20
3818.367941370033
 30
-0.0000000000013153
 40
15.0
  0
LINE
  5
149A6
330
747D
100
AcDbEntity
  8
センター
 48
3.0
100
AcDbLine
 10
1538.79672280114
 20
3893.367941370033
 30
-0.0000000000013153
 11
1538.79672280114
 21
3743.367941370033
 31
-0.0000000000013153
  0
LINE
  5
149A7
330
747D
100
AcDbEntity
  8
センター
 48
3.0
100
AcDbLine
 10
1538.79672280114
 20
4093.367941370032
 30
-0.0000000000013153
 11
1538.79672280114
 21
3943.367941370033
 31
-0.0000000000013153
  0
CIRCLE
  5
149A8
330
747D
100
AcDbEntity
  8
部品1
 48
50.0
100
AcDbCircle
 10
1538.79672280114
 20
4018.367941370033
 30
-0.0000000000013153
 40
15.0
  0
LINE
  5
149A9
330
747D
100
AcDbEntity
  8
センター
 48
10.0
100
AcDbLine
 10
1638.79672280114
 20
3668.367941370032
 30
-0.0000000000013153
 11
1638.79672280114
 21
4168.367941370031
 31
-0.0000000000013153
  0
LINE
  5
149AA
330
747D
100
AcDbEntity
  8
センター
 48
3.0
100
AcDbLine
 10
1663.79672280114
 20
3818.367941370033
 30
-0.0000000000013153
 11
1813.79672280114
 21
3818.367941370033
 31
-0.0000000000013153
  0
CIRCLE
  5
149AB
330
747D
100
AcDbEntity
  8
部品1
 48
50.0
100
AcDbCircle
 10
1738.79672280114
 20
3818.367941370033
 30
-0.0000000000013153
 40
15.0
  0
LINE
  5
149AC
330
747D
100
AcDbEntity
  8
センター
 48
3.0
100
AcDbLine
 10
1738.79672280114
 20
3893.367941370033
 30
-0.0000000000013153
 11
1738.79672280114
 21
3743.367941370033
 31
-0.0000000000013153
  0
LINE
  5
149AD
330
747D
100
AcDbEntity
  8
センター
 48
3.0
100
AcDbLine
 10
1663.79672280114
 20
4018.367941370033
 30
-0.0000000000013153
 11
1813.79672280114
 21
4018.367941370033
 31
-0.0000000000013153
  0
LINE
  5
149AE
330
747D
100
AcDbEntity
  8
センター
 48
3.0
100
AcDbLine
 10
1738.79672280114
 20
4093.367941370032
 30
-0.0000000000013153
 11
1738.79672280114
 21
3943.367941370033
 31
-0.0000000000013153
  0
CIRCLE
  5
149AF
330
747D
100
AcDbEntity
  8
部品1
 48
50.0
100
AcDbCircle
 10
1738.79672280114
 20
4018.367941370033
 30
-0.0000000000013153
 40
15.0
  0
LINE
  5
149B0
330
747D
100
AcDbEntity
  8
文字
 48
50.0
100
AcDbLine
 10
1238.79672280114
 20
6268.367941370032
 30
-0.0000000000013153
 11
6838.796722801141
 21
6268.367941370032
 31
-0.0000000000013153
  0
LINE
  5
149B1
330
747D
100
AcDbEntity
  8
部品1
 48
30.0
100
AcDbLine
 10
1238.79672280114
 20
1918.367941370032
 30
-0.0000000000013153
 11
6838.796722801141
 21
1918.367941370032
 31
-0.0000000000013153
  0
LINE
  5
149B2
330
747D
100
AcDbEntity
  8
部品1
 48
50.0
100
AcDbLine
 10
1238.79672280114
 20
6268.367941370032
 30
-0.0000000000013153
 11
1238.79672280114
 21
1918.367941370032
 31
-0.0000000000013153
  0
LINE
  5
149B3
330
747D
100
AcDbEntity
  8
部品1
 48
50.0
100
AcDbLine
 10
6838.796722801141
 20
6268.367941370032
 30
-0.0000000000013153
 11
6838.796722801141
 21
1918.367941370032
 31
-0.0000000000013153
  0
MTEXT
  5
149B4
330
747D
100
AcDbEntity
  8
寸法
 62
     7
 48
50.0
100
AcDbMText
 10
1464.788607583352
 20
2172.147987237523
 30
-0.0000000000013153
 40
90.0
 41
0.0
 71
     4
 72
     1
  1
\A1;床コンクリート打コテ押エ
  7
STYLE1
 73
     1
 44
1.0
1001
ACAD
1000
MTEXTBEGIN
1070
    73
1070
     1
1070
    44
1040
1.0
1070
    74
1070
     0
1000
MTEXTEND
  0
LINE
  5
149B5
330
747D
100
AcDbEntity
  8
センター
 48
10.0
100
AcDbLine
 10
1388.79672280114
 20
4268.367941370032
 30
-0.0000000000013153
 11
6688.79672280114
 21
4268.367941370032
 31
-0.0000000000013153
  0
CIRCLE
  5
149B6
330
747D
100
AcDbEntity
  8
部品1
 48
50.0
100
AcDbCircle
 10
6538.796722801141
 20
4368.367941370031
 30
-0.0000000000013153
 40
15.0
  0
LINE
  5
149B7
330
747D
100
AcDbEntity
  8
センター
 48
3.0
100
AcDbLine
 10
6538.796722801141
 20
4443.367941370031
 30
-0.0000000000013153
 11
6538.796722801141
 21
4293.367941370031
 31
-0.0000000000013153
  0
LINE
  5
149B8
330
747D
100
AcDbEntity
  8
センター
 48
3.0
100
AcDbLine
 10
6463.796722801141
 20
4368.367941370031
 30
-0.0000000000013153
 11
6613.79672280114
 21
4368.367941370031
 31
-0.0000000000013153
  0
LINE
  5
149B9
330
747D
100
AcDbEntity
  8
センター
 48
3.0
100
AcDbLine
 10
6538.796722801141
 20
4243.367941370031
 30
-0.0000000000013153
 11
6538.796722801141
 21
4093.367941370032
 31
-0.0000000000013153
  0
CIRCLE
  5
149BA
330
747D
100
AcDbEntity
  8
部品1
 48
50.0
100
AcDbCircle
 10
6538.796722801141
 20
4168.367941370031
 30
-0.0000000000013153
 40
15.0
  0
LINE
  5
149BB
330
747D
100
AcDbEntity
  8
センター
 48
3.0
100
AcDbLine
 10
6463.796722801141
 20
4168.367941370031
 30
-0.0000000000013153
 11
6613.79672280114
 21
4168.367941370031
 31
-0.0000000000013153
  0
LINE
  5
149BC
330
747D
100
AcDbEntity
  8
センター
 48
10.0
100
AcDbLine
 10
6438.79672280114
 20
4018.367941370033
 30
-0.0000000000013153
 11
6438.79672280114
 21
4518.367941370032
 31
-0.0000000000013153
  0
CIRCLE
  5
149BD
330
747D
100
AcDbEntity
  8
部品1
 48
50.0
100
AcDbCircle
 10
6338.796722801141
 20
4368.367941370031
 30
-0.0000000000013153
 40
15.0
  0
LINE
  5
149BE
330
747D
100
AcDbEntity
  8
センター
 48
3.0
100
AcDbLine
 10
6338.796722801141
 20
4443.367941370031
 30
-0.0000000000013153
 11
6338.796722801141
 21
4293.367941370031
 31
-0.0000000000013153
  0
LINE
  5
149BF
330
747D
100
AcDbEntity
  8
センター
 48
3.0
100
AcDbLine
 10
6338.796722801141
 20
4243.367941370031
 30
-0.0000000000013153
 11
6338.796722801141
 21
4093.367941370032
 31
-0.0000000000013153
  0
CIRCLE
  5
149C0
330
747D
100
AcDbEntity
  8
部品1
 48
50.0
100
AcDbCircle
 10
6338.796722801141
 20
4168.367941370031
 30
-0.0000000000013153
 40
15.0
  0
LINE
  5
149C1
330
747D
100
AcDbEntity
  8
センター
 48
10.0
100
AcDbLine
 10
6188.79672280114
 20
4268.367941370032
 30
-0.0000000000013153
 11
6688.79672280114
 21
4268.367941370032
 31
-0.0000000000013153
  0
LINE
  5
149C2
330
747D
100
AcDbEntity
  8
センター
 48
3.0
100
AcDbLine
 10
6263.79672280114
 20
4368.367941370031
 30
-0.0000000000013153
 11
6413.796722801141
 21
4368.367941370031
 31
-0.0000000000013153
  0
LINE
  5
149C3
330
747D
100
AcDbEntity
  8
センター
 48
3.0
100
AcDbLine
 10
6263.79672280114
 20
4168.367941370031
 30
-0.0000000000013153
 11
6413.796722801141
 21
4168.367941370031
 31
-0.0000000000013153
  0
LINE
  5
149C4
330
747D
100
AcDbEntity
  8
センター
 48
3.0
100
AcDbLine
 10
1463.79672280114
 20
4168.367941370031
 30
-0.0000000000013153
 11
1613.79672280114
 21
4168.367941370031
 31
-0.0000000000013153
  0
LINE
  5
149C5
330
747D
100
AcDbEntity
  8
センター
 48
3.0
100
AcDbLine
 10
1463.79672280114
 20
4368.367941370031
 30
-0.0000000000013153
 11
1613.79672280114
 21
4368.367941370031
 31
-0.0000000000013153
  0
LINE
  5
149C6
330
747D
100
AcDbEntity
  8
センター
 48
10.0
100
AcDbLine
 10
1388.79672280114
 20
4268.367941370032
 30
-0.0000000000013153
 11
1888.79672280114
 21
4268.367941370032
 31
-0.0000000000013153
  0
CIRCLE
  5
149C7
330
747D
100
AcDbEntity
  8
部品1
 48
50.0
100
AcDbCircle
 10
1538.79672280114
 20
4168.367941370031
 30
-0.0000000000013153
 40
15.0
  0
LINE
  5
149C8
330
747D
100
AcDbEntity
  8
センター
 48
3.0
100
AcDbLine
 10
1538.79672280114
 20
4243.367941370031
 30
-0.0000000000013153
 11
1538.79672280114
 21
4093.367941370032
 31
-0.0000000000013153
  0
LINE
  5
149C9
330
747D
100
AcDbEntity
  8
センター
 48
3.0
100
AcDbLine
 10
1538.79672280114
 20
4443.367941370031
 30
-0.0000000000013153
 11
1538.79672280114
 21
4293.367941370031
 31
-0.0000000000013153
  0
CIRCLE
  5
149CA
330
747D
100
AcDbEntity
  8
部品1
 48
50.0
100
AcDbCircle
 10
1538.79672280114
 20
4368.367941370031
 30
-0.0000000000013153
 40
15.0
  0
LINE
  5
149CB
330
747D
100
AcDbEntity
  8
センター
 48
10.0
100
AcDbLine
 10
1638.79672280114
 20
4018.367941370033
 30
-0.0000000000013153
 11
1638.79672280114
 21
4518.367941370032
 31
-0.0000000000013153
  0
LINE
  5
149CC
330
747D
100
AcDbEntity
  8
センター
 48
3.0
100
AcDbLine
 10
1663.79672280114
 20
4168.367941370031
 30
-0.0000000000013153
 11
1813.79672280114
 21
4168.367941370031
 31
-0.0000000000013153
  0
CIRCLE
  5
149CD
330
747D
100
AcDbEntity
  8
部品1
 48
50.0
100
AcDbCircle
 10
1738.79672280114
 20
4168.367941370031
 30
-0.0000000000013153
 40
15.0
  0
LINE
  5
149CE
330
747D
100
AcDbEntity
  8
センター
 48
3.0
100
AcDbLine
 10
1738.79672280114
 20
4243.367941370031
 30
-0.0000000000013153
 11
1738.79672280114
 21
4093.367941370032
 31
-0.0000000000013153
  0
LINE
  5
149CF
330
747D
100
AcDbEntity
  8
センター
 48
3.0
100
AcDbLine
 10
1663.79672280114
 20
4368.367941370031
 30
-0.0000000000013153
 11
1813.79672280114
 21
4368.367941370031
 31
-0.0000000000013153
  0
LINE
  5
149D0
330
747D
100
AcDbEntity
  8
センター
 48
3.0
100
AcDbLine
 10
1738.79672280114
 20
4443.367941370031
 30
-0.0000000000013153
 11
1738.79672280114
 21
4293.367941370031
 31
-0.0000000000013153
  0
CIRCLE
  5
149D1
330
747D
100
AcDbEntity
  8
部品1
 48
50.0
100
AcDbCircle
 10
1738.79672280114
 20
4368.367941370031
 30
-0.0000000000013153
 40
15.0
  0
LINE
  5
149D2
330
747D
100
AcDbEntity
  8
寸法
 48
50.0
100
AcDbLine
 10
2750.418759470602
 20
3025.941813337678
 30
-0.0000000000013153
 11
2717.570476637833
 21
3148.533273811134
 31
-0.0000000000013153
  0
LINE
  5
149D3
330
747D
100
AcDbEntity
  8
寸法
 48
50.0
100
AcDbLine
 10
2750.418759470602
 20
3025.941813337678
 30
-0.0000000000013153
 11
2783.267042303429
 21
3148.533273811134
 31
-0.0000000000013153
  0
LINE
  5
149D4
330
747D
100
AcDbEntity
  8
寸法
 48
50.0
100
AcDbLine
 10
2750.418759470602
 20
3811.657041770859
 30
-0.0000000000013153
 11
2750.418759470602
 21
3025.941813337678
 31
-0.0000000000013153
  0
MTEXT
  5
149D5
330
747D
100
AcDbEntity
  8
寸法
 62
     7
 48
50.0
100
AcDbMText
 10
2655.980823404825
 20
3164.655119464823
 30
-0.0000000000013153
 40
90.0
 41
0.0
 71
     4
 72
     1
  1
\A1;水勾配 1/100 
  7
STYLE1
 11
0.0000000000000001
 21
1.0
 31
0.0
 73
     1
 44
1.0
1001
ACAD
1000
MTEXTBEGIN
1070
    73
1070
     1
1070
    44
1040
1.0
1070
    74
1070
     0
1000
MTEXTEND
  0
DIMENSION
  5
149D9
330
747D
100
AcDbEntity
  8
寸法
 48
50.0
100
AcDbDimension
  2
*D1
 10
6668.796722801082
 20
1589.880223033486
 30
-0.0000000000013153
 11
4038.79672280114
 21
1664.889081301202
 31
-0.0000000000013153
 70
    32
  1
屋根寸法 <>
 71
     5
 42
5259.999999999884
  3
INABA_S30G
100
AcDbAlignedDimension
 13
1408.796722801198
 23
2054.867941370018
 33
-0.0000000000013153
 14
6668.796722801082
 24
2054.867941370032
 34
-0.0000000000013153
100
AcDbRotatedDimension
  0
DIMENSION
  5
149DA
330
747D
100
AcDbEntity
  8
寸法
 48
50.0
100
AcDbDimension
  2
*D2
 10
1238.79672280114
 20
1589.880223033486
 30
-0.0000000000013153
 11
1323.796722801169
 21
1664.880223033486
 31
-0.0000000000013153
 70
    32
 71
     5
 42
170.0000000000582
  3
INABA_S30G
100
AcDbAlignedDimension
 13
1408.796722801198
 23
2054.867941370018
 33
-0.0000000000013153
 14
1238.79672280114
 24
1918.367941370032
 34
-0.0000000000013153
100
AcDbRotatedDimension
  0
DIMENSION
  5
149DB
330
747D
100
AcDbEntity
  8
寸法
 48
50.0
100
AcDbDimension
  2
*D3
 10
6838.796722801141
 20
1589.880223033486
 30
-0.0000000000013153
 11
6753.796722801111
 21
1664.880223033486
 31
-0.0000000000013153
 70
    32
 71
     5
 42
170.0000000000582
  3
INABA_S30G
100
AcDbAlignedDimension
 13
6668.796722801082
 23
2054.867941370032
 33
-0.0000000000013153
 14
6838.796722801141
 24
1918.367941370032
 34
-0.0000000000013153
100
AcDbRotatedDimension
  0
DIMENSION
  5
149DF
330
747D
100
AcDbEntity
  8
寸法
 48
50.0
100
AcDbDimension
  2
*D4
 10
7221.070945164742
 20
1918.367941370032
 30
-0.0000000000013153
 11
7221.070945164742
 21
1694.503980339354
 31
-0.0000000000013153
 70
   160
 71
     5
 42
136.4999999999997
  3
INABA_S30G
100
AcDbAlignedDimension
 13
6668.796722801082
 23
2054.867941370032
 33
-0.0000000000013153
 14
6838.796722801141
 24
1918.367941370032
 34
-0.0000000000013153
 50
90.0
100
AcDbRotatedDimension
  0
DIMENSION
  5
149E0
330
747D
100
AcDbEntity
  8
寸法
 48
50.0
100
AcDbDimension
  2
*D5
 10
7221.070945164742
 20
2054.867941370032
 30
-0.0000000000013153
 11
7146.070945164741
 21
4093.367941370033
 31
-0.0000000000013153
 70
    32
  1
屋根寸法 <>
 71
     5
 42
4077.0
  3
INABA_S30G
100
AcDbAlignedDimension
 13
6668.796722801082
 23
6131.867941370032
 33
-0.0000000000013153
 14
6668.796722801082
 24
2054.867941370032
 34
-0.0000000000013153
 50
90.0
100
AcDbRotatedDimension
  0
DIMENSION
  5
149E1
330
747D
100
AcDbEntity
  8
寸法
 48
50.0
100
AcDbDimension
  2
*D6
 10
7221.070945164743
 20
6268.367941370032
 30
-0.0000000000013153
 11
7221.070945164742
 21
6492.23190240076
 31
-0.0000000000013153
 70
   160
 71
     5
 42
136.5
  3
INABA_S30G
100
AcDbAlignedDimension
 13
6668.796722801082
 23
6131.867941370032
 33
-0.0000000000013153
 14
6838.796722801141
 24
6268.367941370032
 34
-0.0000000000013153
 50
270.0
100
AcDbRotatedDimension
  0
LINE
  5
149FD
330
747D
100
AcDbEntity
  8
寸法
 48
50.0
100
AcDbLine
 10
2750.418759470602
 20
5160.794069402387
 30
-0.0000000000013153
 11
2717.570476637833
 21
5038.20260892893
 31
-0.0000000000013153
  0
LINE
  5
149FE
330
747D
100
AcDbEntity
  8
寸法
 48
50.0
100
AcDbLine
 10
2750.418759470602
 20
5160.794069402387
 30
-0.0000000000013153
 11
2783.267042303429
 21
5038.20260892893
 31
-0.0000000000013153
  0
LINE
  5
149FF
330
747D
100
AcDbEntity
  8
寸法
 48
50.0
100
AcDbLine
 10
2750.418759470602
 20
4375.078840969204
 30
-0.0000000000013153
 11
2750.418759470602
 21
5160.794069402387
 31
-0.0000000000013153
  0
MTEXT
  5
14A00
330
747D
100
AcDbEntity
  8
寸法
 62
     7
 48
50.0
100
AcDbMText
 10
2655.980823404825
 20
4413.792147096335
 30
-0.0000000000013153
 40
90.0
 41
0.0
 71
     4
 72
     1
  1
\A1;水勾配 1/100 
  7
STYLE1
 11
0.0000000000000001
 21
1.0
 31
0.0
 73
     1
 44
1.0
1001
ACAD
1000
MTEXTBEGIN
1070
    73
1070
     1
1070
    44
1040
1.0
1070
    74
1070
     0
1000
MTEXTEND
  0
TEXT
  5
14A01
330
747D
100
AcDbEntity
  8
寸法
 62
     7
100
AcDbText
 10
4896.940623429924
 20
2793.694209904121
 30
-0.0000000000013153
 40
90.0
  1
ｱﾝｶｰﾎﾞﾙﾄ(市販品)
  7
STYLE1
100
AcDbText
  0
LEADER
  5
14A02
330
747D
100
AcDbEntity
  8
寸法
 48
50.0
100
AcDbLeader
  3
INABA_S50G
 76
     3
 10
6338.796722801141
 20
3818.367941370033
 30
-0.0000000000013153
 10
5727.282483820716
 20
2759.194209904122
 30
-0.0000000000013153
 10
4874.394074853597
 20
2759.194209904122
 30
-0.0000000000013153
1001
ACAD
1000
DSTYLE
1002
{
1070
    41
1040
80.0
1070
   147
1040
25.0
1070
    77
1070
     0
1002
}
  0
DIMENSION
  5
14A03
330
747D
100
AcDbEntity
  8
寸法
 48
50.0
100
AcDbDimension
  2
*D7
 10
675.17552407342
 20
1918.367941370032
 30
-0.0000000000013153
 11
600.1755240734198
 21
4093.367941370032
 31
-0.0000000000013153
 70
    32
  1
基礎土間寸法 <>
 71
     5
 42
4349.999999999999
  3
INABA_S30G
100
AcDbAlignedDimension
 13
1238.796722801111
 23
6268.367941370032
 33
-0.0000000000013153
 14
1238.796722801111
 24
1918.367941370032
 34
-0.0000000000013153
 50
90.0
100
AcDbRotatedDimension
  0
DIMENSION
  5
14A04
330
747D
100
AcDbEntity
  8
寸法
 48
50.0
100
AcDbDimension
  2
*D8
 10
897.924886089866
 20
1918.367941370032
 30
-0.0000000000013153
 11
822.9160278221494
 21
2918.367941370033
 31
-0.0000000000013153
 70
    32
 71
     5
 42
2000.0
  3
INABA_S30G
100
AcDbAlignedDimension
 13
1388.796722801111
 23
3918.367941370032
 33
-0.0000000000013153
 14
1238.796722801111
 24
1918.367941370032
 34
-0.0000000000013153
 50
90.0
100
AcDbRotatedDimension
  0
DIMENSION
  5
14A05
330
747D
100
AcDbEntity
  8
寸法
 48
50.0
100
AcDbDimension
  2
*D9
 10
897.924886089866
 20
3918.367941370033
 30
-0.0000000000013153
 11
822.9248860898653
 21
4093.367941370032
 31
-0.0000000000013153
 70
    32
 71
     5
 42
349.9999999999991
  3
INABA_S30G
100
AcDbAlignedDimension
 13
1388.796722801111
 23
4268.367941370032
 33
-0.0000000000013153
 14
1388.796722801111
 24
3918.367941370032
 34
-0.0000000000013153
 50
90.0
100
AcDbRotatedDimension
  0
DIMENSION
  5
14A06
330
747D
100
AcDbEntity
  8
寸法
 48
50.0
100
AcDbDimension
  2
*D10
 10
897.924886089866
 20
6268.367941370032
 30
-0.0000000000013153
 11
822.9160278221485
 21
5268.367941370032
 31
-0.0000000000013153
 70
    32
 71
     5
 42
2000.0
  3
INABA_S30G
100
AcDbAlignedDimension
 13
1388.796722801111
 23
4268.367941370032
 33
-0.0000000000013153
 14
1238.796722801111
 24
6268.367941370032
 34
-0.0000000000013153
 50
270.0
100
AcDbRotatedDimension
  0
LINE
  5
14A07
330
747D
100
AcDbEntity
  8
寸法
 48
50.0
100
AcDbLine
 10
1384.662892052234
 20
4872.266903850164
 30
-0.0000000000013153
 11
1492.396262635215
 21
4901.133973495745
 31
-0.0000000000013153
  0
LINE
  5
14A08
330
747D
100
AcDbEntity
  8
寸法
 48
50.0
100
AcDbLine
 10
1492.396262635215
 20
4901.133973495745
 30
-0.0000000000013153
 11
1492.396262635215
 21
4835.199354574203
 31
-0.0000000000013153
  0
LINE
  5
14A09
330
747D
100
AcDbEntity
  8
寸法
 48
50.0
100
AcDbLine
 10
1638.79672280114
 20
4872.266903850164
 30
-0.0000000000013153
 11
1384.662892052234
 21
4872.266903850164
 31
-0.0000000000013153
  0
TEXT
  5
14A0A
330
747D
100
AcDbEntity
  8
寸法
 62
     7
100
AcDbText
 10
1275.161242638686
 20
4844.201431048396
 30
-0.0000000000013153
 40
90.0
  1
A'
  7
STYLE1
100
AcDbText
  0
LINE
  5
14A0B
330
747D
100
AcDbEntity
  8
寸法
 48
50.0
100
AcDbLine
 10
1638.79672280114
 20
3314.4689788899
 30
-0.0000000000013153
 11
1384.662892052234
 21
3314.4689788899
 31
-0.0000000000013153
  0
LINE
  5
14A0C
330
747D
100
AcDbEntity
  8
寸法
 48
50.0
100
AcDbLine
 10
1384.662892052234
 20
3314.4689788899
 30
-0.0000000000013153
 11
1492.396262635215
 21
3285.601909244319
 31
-0.0000000000013153
  0
LINE
  5
14A0D
330
747D
100
AcDbEntity
  8
寸法
 48
50.0
100
AcDbLine
 10
1492.396262635215
 20
3285.601909244319
 30
-0.0000000000013153
 11
1492.396262635215
 21
3351.536528165862
 31
-0.0000000000013153
  0
TEXT
  5
14A0E
330
747D
100
AcDbEntity
  8
寸法
 62
     7
100
AcDbText
 10
1273.902613779966
 20
3272.241775881996
 30
-0.0000000000013153
 40
90.0
  1
A
  7
STYLE1
100
AcDbText
  0
LINE
  5
14A0F
330
747D
100
AcDbEntity
  8
寸法
 48
50.0
100
AcDbLine
 10
1638.79672280114
 20
3314.4689788899
 30
-0.0000000000013153
 11
1638.79672280114
 21
3668.367941370032
 31
-0.0000000000013153
  0
DIMENSION
  5
14A10
330
747D
100
AcDbEntity
  8
寸法
 48
50.0
100
AcDbDimension
  2
*D11
 10
6838.796722801141
 20
7014.746608242464
 30
-0.0000000000013153
 11
4038.79672280114
 21
7089.746608242464
 31
-0.0000000000013153
 70
    32
  1
基礎土間寸法 <>
 71
     5
 42
5600.0
  3
INABA_S30G
100
AcDbAlignedDimension
 13
1238.79672280114
 23
6268.367941370032
 33
-0.0000000000013153
 14
6838.796722801141
 24
6268.367941370032
 34
-0.0000000000013153
100
AcDbRotatedDimension
  0
DIMENSION
  5
14A11
330
747D
100
AcDbEntity
  8
寸法
 48
50.0
100
AcDbDimension
  2
*D12
 10
6838.796722801141
 20
6820.709569268145
 30
-0.0000000000013153
 11
6638.79672280114
 21
6895.709569268145
 31
-0.0000000000013153
 70
    32
 71
     5
 42
400.0
  3
INABA_S30G
100
AcDbAlignedDimension
 13
6438.79672280114
 23
4518.367941370032
 33
-0.0000000000013153
 14
6838.796722801141
 24
6268.367941370032
 34
-0.0000000000013153
100
AcDbRotatedDimension
  0
DIMENSION
  5
14A12
330
747D
100
AcDbEntity
  8
寸法
 48
50.0
100
AcDbDimension
  2
*D13
 10
6438.79672280114
 20
6820.709569268145
 30
-0.0000000000013153
 11
4038.79672280114
 21
6895.709569268145
 31
-0.0000000000013153
 70
    32
 71
     5
 42
4800.0
  3
INABA_S30G
100
AcDbAlignedDimension
 13
1638.79672280114
 23
4518.367941370032
 33
-0.0000000000013153
 14
6438.79672280114
 24
4518.367941370032
 34
-0.0000000000013153
100
AcDbRotatedDimension
  0
DIMENSION
  5
14A13
330
747D
100
AcDbEntity
  8
寸法
 48
50.0
100
AcDbDimension
  2
*D14
 10
1638.79672280114
 20
6820.709569268145
 30
-0.0000000000013153
 11
1438.79672280114
 21
6895.709569268145
 31
-0.0000000000013153
 70
    32
 71
     5
 42
400.0
  3
INABA_S30G
100
AcDbAlignedDimension
 13
1238.79672280114
 23
6268.367941370032
 33
-0.0000000000013153
 14
1638.79672280114
 24
4518.367941370032
 34
-0.0000000000013153
100
AcDbRotatedDimension
  0
DIMENSION
  5
14A14
330
747D
100
AcDbEntity
  8
寸法
 48
50.0
100
AcDbDimension
  2
*D15
 10
6038.796722801111
 20
3155.231725332926
 30
-0.0000000000013153
 11
6238.796722801112
 21
3230.231725332926
 31
-0.0000000000013153
 70
    32
 71
     5
 42
400.0
  3
INABA_S30G
100
AcDbAlignedDimension
 13
6438.796722801111
 23
3668.367941370018
 33
-0.0000000000013153
 14
6038.796722801111
 24
3393.367941370018
 34
-0.0000000000013153
100
AcDbRotatedDimension
  0
DIMENSION
  5
14A15
330
747D
100
AcDbEntity
  8
寸法
 48
50.0
100
AcDbDimension
  2
*D16
 10
6838.796722801141
 20
2917.095509295864
 30
-0.0000000000013153
 11
6438.796722801111
 21
2917.095509295864
 31
-0.0000000000013153
 70
   160
 71
     5
 42
800.0000000000291
  3
INABA_S30G
100
AcDbAlignedDimension
 13
6038.796722801111
 23
3393.367941370018
 33
-0.0000000000013153
 14
6838.796722801141
 24
3393.367941370018
 34
-0.0000000000013153
100
AcDbRotatedDimension
  0
DIMENSION
  5
14A16
330
747D
100
AcDbEntity
  8
寸法
 48
50.0
100
AcDbDimension
  2
*D17
 10
5861.48221951694
 20
3393.367941370004
 30
-0.0000000000013153
 11
5786.473361249223
 21
3655.867941370012
 31
-0.0000000000013153
 70
    32
 71
     5
 42
525.0000000000145
  3
INABA_S30G
100
AcDbAlignedDimension
 13
6188.796722801111
 23
3918.367941370018
 33
-0.0000000000013153
 14
6038.796722801111
 24
3393.367941370004
 34
-0.0000000000013153
 50
90.0
100
AcDbRotatedDimension
  0
DIMENSION
  5
14A17
330
747D
100
AcDbEntity
  8
寸法
 48
50.0
100
AcDbDimension
  2
*D18
 10
5684.167716232769
 20
3393.367941370004
 30
-0.0000000000013153
 11
5609.167716232768
 21
4093.367941370011
 31
-0.0000000000013153
 70
    32
 71
     5
 42
1400.000000000013
  3
INABA_S30G
100
AcDbAlignedDimension
 13
6038.796722801111
 23
4793.367941370017
 33
-0.0000000000013153
 14
6038.796722801111
 24
3393.367941370004
 34
-0.0000000000013153
 50
90.0
100
AcDbRotatedDimension
  0
DIMENSION
  5
14A18
330
747D
100
AcDbEntity
  8
寸法
 48
50.0
100
AcDbDimension
  2
*D19
 10
5861.48221951694
 20
3918.367941370018
 30
-0.0000000000013153
 11
5786.482219516939
 21
4093.367941370019
 31
-0.0000000000013153
 70
    32
 71
     5
 42
350.0
  3
INABA_S30G
100
AcDbAlignedDimension
 13
6188.796722801111
 23
4268.367941370017
 33
-0.0000000000013153
 14
6188.796722801111
 24
3918.367941370018
 34
-0.0000000000013153
 50
90.0
100
AcDbRotatedDimension
  0
DIMENSION
  5
14A19
330
747D
100
AcDbEntity
  8
寸法
 48
50.0
100
AcDbDimension
  2
*D20
 10
5861.48221951694
 20
4793.367941370031
 30
-0.0000000000013153
 11
5786.473361249223
 21
4530.867941370027
 31
-0.0000000000013153
 70
    32
 71
     5
 42
525.0000000000136
  3
INABA_S30G
100
AcDbAlignedDimension
 13
6188.796722801111
 23
4268.367941370017
 33
-0.0000000000013153
 14
6038.796722801111
 24
4793.367941370031
 34
-0.0000000000013153
 50
270.0
100
AcDbRotatedDimension
  0
LINE
  5
14A24
330
747D
100
AcDbEntity
  8
部品1
 48
50.0
100
AcDbLine
 10
4438.79672280114
 20
4793.367941370031
 30
-0.0000000000013153
 11
3638.796722801141
 21
4793.367941370031
 31
-0.0000000000013153
  0
LINE
  5
14A25
330
747D
100
AcDbEntity
  8
部品1
 48
50.0
100
AcDbLine
 10
3638.796722801141
 20
3393.367941370033
 30
-0.0000000000013153
 11
4438.79672280114
 21
3393.367941370033
 31
-0.0000000000013153
  0
LINE
  5
14A26
330
747D
100
AcDbEntity
  8
部品1
 48
50.0
100
AcDbLine
 10
3638.796722801141
 20
4793.367941370031
 30
-0.0000000000013153
 11
3638.796722801141
 21
3393.367941370033
 31
-0.0000000000013153
  0
CIRCLE
  5
14A27
330
747D
100
AcDbEntity
  8
部品1
 48
50.0
100
AcDbCircle
 10
4138.79672280114
 20
4018.367941370033
 30
-0.0000000000013153
 40
15.0
  0
LINE
  5
14A28
330
747D
100
AcDbEntity
  8
センター
 48
3.0
100
AcDbLine
 10
4138.79672280114
 20
4093.367941370032
 30
-0.0000000000013153
 11
4138.79672280114
 21
3943.367941370033
 31
-0.0000000000013153
  0
LINE
  5
14A29
330
747D
100
AcDbEntity
  8
センター
 48
3.0
100
AcDbLine
 10
4063.79672280114
 20
4018.367941370033
 30
-0.0000000000013153
 11
4213.796722801141
 21
4018.367941370033
 31
-0.0000000000013153
  0
LINE
  5
14A2A
330
747D
100
AcDbEntity
  8
センター
 48
3.0
100
AcDbLine
 10
4138.79672280114
 20
3893.367941370033
 30
-0.0000000000013153
 11
4138.79672280114
 21
3743.367941370033
 31
-0.0000000000013153
  0
CIRCLE
  5
14A2B
330
747D
100
AcDbEntity
  8
部品1
 48
50.0
100
AcDbCircle
 10
4138.79672280114
 20
3818.367941370033
 30
-0.0000000000013153
 40
15.0
  0
LINE
  5
14A2C
330
747D
100
AcDbEntity
  8
センター
 48
3.0
100
AcDbLine
 10
4063.79672280114
 20
3818.367941370033
 30
-0.0000000000013153
 11
4213.796722801141
 21
3818.367941370033
 31
-0.0000000000013153
  0
LINE
  5
14A2D
330
747D
100
AcDbEntity
  8
センター
 48
10.0
100
AcDbLine
 10
4038.79672280114
 20
3668.367941370032
 30
-0.0000000000013153
 11
4038.79672280114
 21
4168.367941370031
 31
-0.0000000000013153
  0
CIRCLE
  5
14A2E
330
747D
100
AcDbEntity
  8
部品1
 48
50.0
100
AcDbCircle
 10
3938.796722801141
 20
4018.367941370033
 30
-0.0000000000013153
 40
15.0
  0
LINE
  5
14A2F
330
747D
100
AcDbEntity
  8
センター
 48
3.0
100
AcDbLine
 10
3938.796722801141
 20
4093.367941370032
 30
-0.0000000000013153
 11
3938.796722801141
 21
3943.367941370033
 31
-0.0000000000013153
  0
LINE
  5
14A30
330
747D
100
AcDbEntity
  8
センター
 48
3.0
100
AcDbLine
 10
3938.796722801141
 20
3893.367941370033
 30
-0.0000000000013153
 11
3938.796722801141
 21
3743.367941370033
 31
-0.0000000000013153
  0
CIRCLE
  5
14A31
330
747D
100
AcDbEntity
  8
部品1
 48
50.0
100
AcDbCircle
 10
3938.796722801141
 20
3818.367941370033
 30
-0.0000000000013153
 40
15.0
  0
LINE
  5
14A32
330
747D
100
AcDbEntity
  8
センター
 48
10.0
100
AcDbLine
 10
3788.796722801141
 20
3918.367941370032
 30
-0.0000000000013153
 11
4288.79672280114
 21
3918.367941370032
 31
-0.0000000000013153
  0
LINE
  5
14A33
330
747D
100
AcDbEntity
  8
センター
 48
3.0
100
AcDbLine
 10
3863.79672280114
 20
4018.367941370033
 30
-0.0000000000013153
 11
4013.79672280114
 21
4018.367941370033
 31
-0.0000000000013153
  0
LINE
  5
14A34
330
747D
100
AcDbEntity
  8
センター
 48
3.0
100
AcDbLine
 10
3863.79672280114
 20
3818.367941370033
 30
-0.0000000000013153
 11
4013.79672280114
 21
3818.367941370033
 31
-0.0000000000013153
  0
CIRCLE
  5
14A35
330
747D
100
AcDbEntity
  8
部品1
 48
50.0
100
AcDbCircle
 10
4138.79672280114
 20
4368.367941370031
 30
-0.0000000000013153
 40
15.0
  0
LINE
  5
14A36
330
747D
100
AcDbEntity
  8
センター
 48
3.0
100
AcDbLine
 10
4138.79672280114
 20
4443.367941370031
 30
-0.0000000000013153
 11
4138.79672280114
 21
4293.367941370031
 31
-0.0000000000013153
  0
LINE
  5
14A37
330
747D
100
AcDbEntity
  8
センター
 48
3.0
100
AcDbLine
 10
4063.79672280114
 20
4368.367941370031
 30
-0.0000000000013153
 11
4213.796722801141
 21
4368.367941370031
 31
-0.0000000000013153
  0
LINE
  5
14A38
330
747D
100
AcDbEntity
  8
センター
 48
3.0
100
AcDbLine
 10
4138.79672280114
 20
4243.367941370031
 30
-0.0000000000013153
 11
4138.79672280114
 21
4093.367941370032
 31
-0.0000000000013153
  0
CIRCLE
  5
14A39
330
747D
100
AcDbEntity
  8
部品1
 48
50.0
100
AcDbCircle
 10
4138.79672280114
 20
4168.367941370031
 30
-0.0000000000013153
 40
15.0
  0
LINE
  5
14A3A
330
747D
100
AcDbEntity
  8
センター
 48
3.0
100
AcDbLine
 10
4063.79672280114
 20
4168.367941370031
 30
-0.0000000000013153
 11
4213.796722801141
 21
4168.367941370031
 31
-0.0000000000013153
  0
LINE
  5
14A3B
330
747D
100
AcDbEntity
  8
センター
 48
10.0
100
AcDbLine
 10
4038.79672280114
 20
4018.367941370033
 30
-0.0000000000013153
 11
4038.79672280114
 21
4518.367941370032
 31
-0.0000000000013153
  0
CIRCLE
  5
14A3C
330
747D
100
AcDbEntity
  8
部品1
 48
50.0
100
AcDbCircle
 10
3938.796722801141
 20
4368.367941370031
 30
-0.0000000000013153
 40
15.0
  0
LINE
  5
14A3D
330
747D
100
AcDbEntity
  8
センター
 48
3.0
100
AcDbLine
 10
3938.796722801141
 20
4443.367941370031
 30
-0.0000000000013153
 11
3938.796722801141
 21
4293.367941370031
 31
-0.0000000000013153
  0
LINE
  5
14A3E
330
747D
100
AcDbEntity
  8
センター
 48
3.0
100
AcDbLine
 10
3938.796722801141
 20
4243.367941370031
 30
-0.0000000000013153
 11
3938.796722801141
 21
4093.367941370032
 31
-0.0000000000013153
  0
CIRCLE
  5
14A3F
330
747D
100
AcDbEntity
  8
部品1
 48
50.0
100
AcDbCircle
 10
3938.796722801141
 20
4168.367941370031
 30
-0.0000000000013153
 40
15.0
  0
LINE
  5
14A40
330
747D
100
AcDbEntity
  8
センター
 48
10.0
100
AcDbLine
 10
3788.796722801141
 20
4268.367941370032
 30
-0.0000000000013153
 11
4288.79672280114
 21
4268.367941370032
 31
-0.0000000000013153
  0
LINE
  5
14A41
330
747D
100
AcDbEntity
  8
センター
 48
3.0
100
AcDbLine
 10
3863.79672280114
 20
4368.367941370031
 30
-0.0000000000013153
 11
4013.79672280114
 21
4368.367941370031
 31
-0.0000000000013153
  0
LINE
  5
14A42
330
747D
100
AcDbEntity
  8
センター
 48
3.0
100
AcDbLine
 10
3863.79672280114
 20
4168.367941370031
 30
-0.0000000000013153
 11
4013.79672280114
 21
4168.367941370031
 31
-0.0000000000013153
  0
LINE
  5
14A43
330
747D
100
AcDbEntity
  8
部品1
 48
50.0
100
AcDbLine
 10
4438.79672280114
 20
4793.367941370031
 30
-0.0000000000013153
 11
4438.79672280114
 21
3393.367941370033
 31
-0.0000000000013153
  0
DIMENSION
  5
15380
330
747D
100
AcDbEntity
  8
寸法
 48
50.0
100
AcDbDimension
  2
*D32
 10
4038.79672280114
 20
6569.885406672404
 30
0.0
 11
2838.796722801141
 21
6644.89426494012
 31
0.0
 70
    32
 71
     5
 42
2400.0
  3
INABA_S30G
100
AcDbAlignedDimension
 13
1638.79672280114
 23
4518.367941370032
 33
-0.0000000000013153
 14
4038.79672280114
 24
4518.367941370032
 34
-0.0000000000013153
100
AcDbRotatedDimension
  0
DIMENSION
  5
1538D
330
747D
100
AcDbEntity
  8
寸法
 48
50.0
100
AcDbDimension
  2
*D33
 10
6438.79672280114
 20
6569.885406672404
 30
0.0
 11
5238.79672280114
 21
6644.89426494012
 31
0.0
 70
    32
 71
     5
 42
2400.0
  3
INABA_S30G
100
AcDbAlignedDimension
 13
4038.79672280114
 23
4518.367941370032
 33
-0.0000000000013153
 14
6438.79672280114
 24
4518.367941370032
 34
-0.0000000000013153
100
AcDbRotatedDimension
  0
ENDSEC
  0
SECTION
  2
OBJECTS
  0
DICTIONARY
  5
7471
330
0
100
AcDbDictionary
281
     1
  3
ACAD_CIP_PREVIOUS_PRODUCT_INFO
350
13EC6
  3
ACAD_COLOR
350
1341D
  3
ACAD_DETAILVIEWSTYLE
350
13EBC
  3
ACAD_GROUP
350
7472
  3
ACAD_LAYOUT
350
1341E
  3
ACAD_MATERIAL
350
1341C
  3
ACAD_MLEADERSTYLE
350
13EB8
  3
ACAD_MLINESTYLE
350
7473
  3
ACAD_PLOTSETTINGS
350
1341F
  3
ACAD_PLOTSTYLENAME
350
1341A
  3
ACAD_SCALELIST
350
13EA6
  3
ACAD_SECTIONVIEWSTYLE
350
13EBA
  3
ACAD_TABLESTYLE
350
13EA4
  3
ACAD_VISUALSTYLE
350
13E8B
  3
AcadDim
350
13618
  3
ACDB_RECOMPOSE_DATA
350
157DC
  3
AcDbVariableDictionary
350
13533
  3
CONTENTDICTIONARY
350
E71C
  3
DRAWINGVARIABLESDICT
350
F3B9
  3
DWGPROPS
350
157DD
  0
DICTIONARY
  5
15568
330
746D
100
AcDbDictionary
280
     1
281
     1
  0
DICTIONARY
  5
13451
330
7467
100
AcDbDictionary
280
     1
281
     1
  3
ACAD_LAYERFILTERS
360
1356A
  3
ACAD_LAYERSTATES
360
13452
  0
DICTIONARY
  5
15548
330
7474
100
AcDbDictionary
280
     1
281
     1
  3
ADSK_XREC_LAYER_RECONCILED
360
15549
  0
DICTIONARY
  5
1554A
330
DEB3
100
AcDbDictionary
280
     1
281
     1
  3
ADSK_XREC_LAYER_RECONCILED
360
1554B
  0
DICTIONARY
  5
1554C
330
DEB4
100
AcDbDictionary
280
     1
281
     1
  3
ADSK_XREC_LAYER_RECONCILED
360
1554D
  0
DICTIONARY
  5
1554E
330
DEB5
100
AcDbDictionary
280
     1
281
     1
  3
ADSK_XREC_LAYER_RECONCILED
360
1554F
  0
DICTIONARY
  5
15550
330
DEB6
100
AcDbDictionary
280
     1
281
     1
  3
ADSK_XREC_LAYER_RECONCILED
360
15551
  0
DICTIONARY
  5
15552
330
10B54
100
AcDbDictionary
280
     1
281
     1
  3
ADSK_XREC_LAYER_RECONCILED
360
15553
  0
DICTIONARY
  5
15554
330
11729
100
AcDbDictionary
280
     1
281
     1
  3
ADSK_XREC_LAYER_RECONCILED
360
15555
  0
DICTIONARY
  5
15556
330
1173F
100
AcDbDictionary
280
     1
281
     1
  3
ADSK_XREC_LAYER_RECONCILED
360
15557
  0
DICTIONARY
  5
15558
330
11740
100
AcDbDictionary
280
     1
281
     1
  3
ADSK_XREC_LAYER_RECONCILED
360
15559
  0
DICTIONARY
  5
1555A
330
1356E
100
AcDbDictionary
280
     1
281
     1
  3
ADSK_XREC_LAYER_RECONCILED
360
1555B
  0
DICTIONARY
  5
1555C
330
135FB
100
AcDbDictionary
280
     1
281
     1
  3
ADSK_XREC_LAYER_RECONCILED
360
1555D
  0
DICTIONARY
  5
1555E
330
13837
100
AcDbDictionary
280
     1
281
     1
  3
ADSK_XREC_LAYER_RECONCILED
360
1555F
  0
DICTIONARY
  5
15560
330
13838
100
AcDbDictionary
280
     1
281
     1
  3
ADSK_XREC_LAYER_RECONCILED
360
15561
  0
DICTIONARY
  5
15562
330
13839
100
AcDbDictionary
280
     1
281
     1
  3
ADSK_XREC_LAYER_RECONCILED
360
15563
  0
XRECORD
  5
13EC6
102
{ACAD_REACTORS
330
7471
102
}
330
7471
100
AcDbXrecord
280
     1
300
ACDLT
300
2014
300
ACDLT_F_S
  0
DICTIONARY
  5
1341D
102
{ACAD_REACTORS
330
7471
102
}
330
7471
100
AcDbDictionary
281
     1
  0
DICTIONARY
  5
13EBC
102
{ACAD_REACTORS
330
7471
102
}
330
7471
100
AcDbDictionary
281
     1
  3
Metric50
350
13EBD
  0
DICTIONARY
  5
7472
102
{ACAD_REACTORS
330
7471
102
}
330
7471
100
AcDbDictionary
281
     1
  0
DICTIONARY
  5
1341E
102
{ACAD_REACTORS
330
7471
102
}
330
7471
100
AcDbDictionary
281
     1
  3
Model
350
13420
  3
レイアウト1
350
13421
  0
DICTIONARY
  5
1341C
102
{ACAD_REACTORS
330
7471
102
}
330
7471
100
AcDbDictionary
281
     1
  3
ByBlock
350
13E7B
  3
ByLayer
350
13E73
  3
Global
350
13E83
  0
DICTIONARY
  5
13EB8
102
{ACAD_REACTORS
330
7471
102
}
330
7471
100
AcDbDictionary
281
     1
  3
Standard
350
13EB9
  0
DICTIONARY
  5
7473
102
{ACAD_REACTORS
330
7471
102
}
330
7471
100
AcDbDictionary
281
     1
  3
STANDARD
350
7480
  0
DICTIONARY
  5
1341F
102
{ACAD_REACTORS
330
7471
102
}
330
7471
100
AcDbDictionary
281
     1
  0
ACDBDICTIONARYWDFLT
  5
1341A
102
{ACAD_REACTORS
330
7471
102
}
330
7471
100
AcDbDictionary
281
     1
  3
Normal
350
1341B
100
AcDbDictionaryWithDefault
340
1341B
  0
DICTIONARY
  5
13EA6
102
{ACAD_REACTORS
330
7471
102
}
330
7471
100
AcDbDictionary
281
     1
  3
A0
350
13EA7
  3
A1
350
13EA8
  3
A2
350
13EA9
  3
A3
350
13EAA
  3
A4
350
13EAB
  3
A5
350
13EAC
  3
A6
350
13EAD
  3
A7
350
13EAE
  3
A8
350
13EAF
  3
A9
350
13EB0
  3
B0
350
13EB1
  3
B1
350
13EB2
  3
B2
350
13EB3
  3
B3
350
13EB4
  3
B4
350
13EB5
  3
B5
350
13EB6
  3
B6
350
13EB7
  0
DICTIONARY
  5
13EBA
102
{ACAD_REACTORS
330
7471
102
}
330
7471
100
AcDbDictionary
281
     1
  3
Metric50
350
13EBB
  0
DICTIONARY
  5
13EA4
102
{ACAD_REACTORS
330
7471
102
}
330
7471
100
AcDbDictionary
281
     1
  3
Standard
350
13EA5
  0
DICTIONARY
  5
13E8B
102
{ACAD_REACTORS
330
7471
102
}
330
7471
100
AcDbDictionary
281
     1
  3
2dWireframe
350
13E91
  3
Basic
350
13E90
  3
Brighten
350
13E97
  3
ColorChange
350
13E9B
  3
Conceptual
350
13E94
  3
Dim
350
13E96
  3
EdgeColorOff
350
13EA3
  3
Facepattern
350
13E9A
  3
Flat
350
13E8C
  3
FlatWithEdges
350
13E8D
  3
Gouraud
350
13E8E
  3
GouraudWithEdges
350
13E8F
  3
Hidden
350
13E93
  3
JitterOff
350
13EA1
  3
Linepattern
350
13E99
  3
OverhangOff
350
13EA2
  3
Realistic
350
13E95
  3
Shaded
350
13EA0
  3
Shaded with edges
350
13E9F
  3
Shades of Gray
350
13E9C
  3
Sketchy
350
13E9D
  3
Thicken
350
13E98
  3
Wireframe
350
13E92
  3
X-Ray
350
13E9E
  0
XRECORD
  5
13618
102
{ACAD_REACTORS
330
7471
102
}
330
7471
100
AcDbXrecord
280
     1
 90
   990106
  3

 60
     0
 61
     0
 62
     1
 63
     3
 64
     0
 65
     0
 66
     0
 67
     3
 68
     1
 69
     0
 70
     0
 71
     0
 72
     0
 40
0.0
170
     0
  0
XRECORD
  5
157DC
102
{ACAD_REACTORS
330
7471
102
}
330
7471
100
AcDbXrecord
280
     1
 90
        1
330
13EA5
  0
DICTIONARY
  5
13533
102
{ACAD_REACTORS
330
7471
102
}
330
7471
100
AcDbDictionary
281
     1
  3
CANNOSCALE
350
155AE
  3
CMLEADERSTYLE
350
155AB
  3
CTABLESTYLE
350
155AA
  3
CVIEWDETAILSTYLE
350
155AC
  3
CVIEWSECTIONSTYLE
350
155AD
  3
DIMASSOC
350
13534
  3
INDEXCTL
350
155B0
  3
PROJECTNAME
350
13535
  3
SORTENTS
350
155AF
  3
XCLIPFRAME
350
157DA
  0
DICTIONARY
  5
E71C
102
{ACAD_REACTORS
330
7471
102
}
330
7471
100
AcDbDictionary
281
     1
  0
DICTIONARY
  5
F3B9
102
{ACAD_REACTORS
330
7471
102
}
330
7471
100
AcDbDictionary
281
     1
1001
DRAWINGVARIABLESXDATA
1000
POLARMODE
1000
1
  0
XRECORD
  5
157DD
102
{ACAD_REACTORS
330
7471
102
}
330
7471
100
AcDbXrecord
280
     1
  1
DWGPROPS COOKIE
  2

  3

  4

  6

  7

  8
ODAHARA
  9

300
=
301
=
302
=
303
=
304
=
305
=
306
=
307
=
308
=
309
=
 40
0.3410141203703704
 41
2451074.411873148
 42
2456560.839274514
  1

 90
        0
  0
DICTIONARY
  5
1356A
102
{ACAD_REACTORS
330
13451
102
}
330
13451
100
AcDbDictionary
281
     1
  0
DICTIONARY
  5
13452
102
{ACAD_REACTORS
330
13451
102
}
330
13451
100
AcDbDictionary
281
     1
  0
XRECORD
  5
15549
102
{ACAD_REACTORS
330
15548
102
}
330
15548
100
AcDbXrecord
280
     1
290
     1
  0
XRECORD
  5
1554B
102
{ACAD_REACTORS
330
1554A
102
}
330
1554A
100
AcDbXrecord
280
     1
290
     1
  0
XRECORD
  5
1554D
102
{ACAD_REACTORS
330
1554C
102
}
330
1554C
100
AcDbXrecord
280
     1
290
     1
  0
XRECORD
  5
1554F
102
{ACAD_REACTORS
330
1554E
102
}
330
1554E
100
AcDbXrecord
280
     1
290
     1
  0
XRECORD
  5
15551
102
{ACAD_REACTORS
330
15550
102
}
330
15550
100
AcDbXrecord
280
     1
290
     1
  0
XRECORD
  5
15553
102
{ACAD_REACTORS
330
15552
102
}
330
15552
100
AcDbXrecord
280
     1
290
     1
  0
XRECORD
  5
15555
102
{ACAD_REACTORS
330
15554
102
}
330
15554
100
AcDbXrecord
280
     1
290
     1
  0
XRECORD
  5
15557
102
{ACAD_REACTORS
330
15556
102
}
330
15556
100
AcDbXrecord
280
     1
290
     1
  0
XRECORD
  5
15559
102
{ACAD_REACTORS
330
15558
102
}
330
15558
100
AcDbXrecord
280
     1
290
     1
  0
XRECORD
  5
1555B
102
{ACAD_REACTORS
330
1555A
102
}
330
1555A
100
AcDbXrecord
280
     1
290
     1
  0
XRECORD
  5
1555D
102
{ACAD_REACTORS
330
1555C
102
}
330
1555C
100
AcDbXrecord
280
     1
290
     1
  0
XRECORD
  5
1555F
102
{ACAD_REACTORS
330
1555E
102
}
330
1555E
100
AcDbXrecord
280
     1
290
     1
  0
XRECORD
  5
15561
102
{ACAD_REACTORS
330
15560
102
}
330
15560
100
AcDbXrecord
280
     1
290
     1
  0
XRECORD
  5
15563
102
{ACAD_REACTORS
330
15562
102
}
330
15562
100
AcDbXrecord
280
     1
290
     1
  0
ACDBDETAILVIEWSTYLE
  5
13EBD
102
{ACAD_XDICTIONARY
360
1581A
102
}
102
{ACAD_REACTORS
330
13EBC
102
}
330
13EBC
100
AcDbModelDocViewStyle
 70
     0
  3
Metric50
290
     0
100
AcDbDetailViewStyle
 70
     0
 71
     0
 90
        3
 71
     1
340
7475
 40
5.0
340
0
 40
5.0
300

 40
0.0
280
     1
 71
     2
340
7479
 90
       25
 71
     3
340
7475
 40
5.0
 90
        0
 40
15.0
 90
        1
300
%<\AcVar ViewDetailId>% (%<\AcVar ViewScale \f "%sn">%)
 71
     4
340
7479
 90
       25
340
7479
 90
       25
280
     0
  0
LAYOUT
  5
13420
102
{ACAD_XDICTIONARY
360
157DE
102
}
102
{ACAD_REACTORS
330
1341E
102
}
330
1341E
100
AcDbPlotSettings
  1

  2
CutePDF Writer
  4
A3
  6

 40
3.174999952316284
 41
3.174999952316284
 42
3.17498779296875
 43
3.17498779296875
 44
297.0530090332031
 45
420.1583251953125
 46
0.0
 47
0.0
 48
0.0
 49
0.0
140
0.0
141
0.0
142
1.0
143
30.0
 70
 11952
 72
     1
 73
     1
 74
     2
  7
inaba.ctb
 75
    23
147
0.0333333333333333
148
0.0
149
0.0
100
AcDbLayout
  1
Model
 70
     1
 71
     0
 10
0.0
 20
0.0
 11
12.0
 21
9.0
 12
0.0
 22
0.0
 32
0.0
 14
0.0
 24
0.0
 34
0.0
 15
0.0
 25
0.0
 35
0.0
146
0.0
 13
0.0
 23
0.0
 33
0.0
 16
1.0
 26
0.0
 36
0.0
 17
0.0
 27
1.0
 37
0.0
 76
     0
330
747D
331
13E71
  0
LAYOUT
  5
13421
102
{ACAD_XDICTIONARY
360
157E0
102
}
102
{ACAD_REACTORS
330
1341E
102
}
330
1341E
100
AcDbPlotSettings
  1

  2
Microsoft Office Document Image Writer
  4

  6

 40
0.0
 41
0.0
 42
0.0
 43
0.0
 44
0.0
 45
0.0
 46
0.0
 47
0.0
 48
0.0
 49
0.0
140
0.0
141
0.0
142
1.0
143
1.0
 70
   688
 72
     0
 73
     0
 74
     5
  7
inaba.ctb
 75
    16
147
1.0
148
0.0
149
0.0
100
AcDbLayout
  1
レイアウト1
 70
     0
 71
     1
 10
0.0
 20
0.0
 11
420.0
 21
297.0
 12
0.0
 22
0.0
 32
0.0
 14
1.000000000000000E+20
 24
1.000000000000000E+20
 34
1.000000000000000E+20
 15
-1.000000000000000E+20
 25
-1.000000000000000E+20
 35
-1.000000000000000E+20
146
0.0
 13
0.0
 23
0.0
 33
0.0
 16
1.0
 26
0.0
 36
0.0
 17
0.0
 27
1.0
 37
0.0
 76
     0
330
747A
  0
MATERIAL
  5
13E7B
102
{ACAD_XDICTIONARY
360
13E7C
102
}
102
{ACAD_REACTORS
330
1341C
102
}
330
1341C
100
AcDbMaterial
  1
ByBlock
 72
     0
 43
0.0208333333333333
 43
0.0
 43
0.0
 43
0.0
 43
0.0
 43
0.0208333333333333
 43
0.0
 43
0.0
 43
0.0
 43
0.0
 43
1.0
 43
0.0
 43
0.0
 43
0.0
 43
0.0
 43
1.0
 77
     0
 47
0.0208333333333333
 47
0.0
 47
0.0
 47
0.0
 47
0.0
 47
0.0208333333333333
 47
0.0
 47
0.0
 47
0.0
 47
0.0
 47
1.0
 47
0.0
 47
0.0
 47
0.0
 47
0.0
 47
1.0
171
     0
 49
0.0208333333333333
 49
0.0
 49
0.0
 49
0.0
 49
0.0
 49
0.0208333333333333
 49
0.0
 49
0.0
 49
0.0
 49
0.0
 49
1.0
 49
0.0
 49
0.0
 49
0.0
 49
0.0
 49
1.0
175
     0
142
0.0208333333333333
142
0.0
142
0.0
142
0.0
142
0.0
142
0.0208333333333333
142
0.0
142
0.0
142
0.0
142
0.0
142
1.0
142
0.0
142
0.0
142
0.0
142
0.0
142
1.0
179
     0
144
0.0208333333333333
144
0.0
144
0.0
144
0.0
144
0.0
144
0.0208333333333333
144
0.0
144
0.0
144
0.0
144
0.0
144
1.0
144
0.0
144
0.0
144
0.0
144
0.0
144
1.0
147
0.0208333333333333
147
0.0
147
0.0
147
0.0
147
0.0
147
0.0208333333333333
147
0.0
147
0.0
147
0.0
147
0.0
147
1.0
147
0.0
147
0.0
147
0.0
147
0.0
147
1.0
  0
MATERIAL
  5
13E73
102
{ACAD_XDICTIONARY
360
13E74
102
}
102
{ACAD_REACTORS
330
1341C
102
}
330
1341C
100
AcDbMaterial
  1
ByLayer
 72
     0
 43
0.0208333333333333
 43
0.0
 43
0.0
 43
0.0
 43
0.0
 43
0.0208333333333333
 43
0.0
 43
0.0
 43
0.0
 43
0.0
 43
1.0
 43
0.0
 43
0.0
 43
0.0
 43
0.0
 43
1.0
 77
     0
 47
0.0208333333333333
 47
0.0
 47
0.0
 47
0.0
 47
0.0
 47
0.0208333333333333
 47
0.0
 47
0.0
 47
0.0
 47
0.0
 47
1.0
 47
0.0
 47
0.0
 47
0.0
 47
0.0
 47
1.0
171
     0
 49
0.0208333333333333
 49
0.0
 49
0.0
 49
0.0
 49
0.0
 49
0.0208333333333333
 49
0.0
 49
0.0
 49
0.0
 49
0.0
 49
1.0
 49
0.0
 49
0.0
 49
0.0
 49
0.0
 49
1.0
175
     0
142
0.0208333333333333
142
0.0
142
0.0
142
0.0
142
0.0
142
0.0208333333333333
142
0.0
142
0.0
142
0.0
142
0.0
142
1.0
142
0.0
142
0.0
142
0.0
142
0.0
142
1.0
179
     0
144
0.0208333333333333
144
0.0
144
0.0
144
0.0
144
0.0
144
0.0208333333333333
144
0.0
144
0.0
144
0.0
144
0.0
144
1.0
144
0.0
144
0.0
144
0.0
144
0.0
144
1.0
147
0.0208333333333333
147
0.0
147
0.0
147
0.0
147
0.0
147
0.0208333333333333
147
0.0
147
0.0
147
0.0
147
0.0
147
1.0
147
0.0
147
0.0
147
0.0
147
0.0
147
1.0
  0
MATERIAL
  5
13E83
102
{ACAD_XDICTIONARY
360
13E84
102
}
102
{ACAD_REACTORS
330
1341C
102
}
330
1341C
100
AcDbMaterial
  1
Global
 72
     0
 43
0.0208333333333333
 43
0.0
 43
0.0
 43
0.0
 43
0.0
 43
0.0208333333333333
 43
0.0
 43
0.0
 43
0.0
 43
0.0
 43
1.0
 43
0.0
 43
0.0
 43
0.0
 43
0.0
 43
1.0
 77
     0
 47
0.0208333333333333
 47
0.0
 47
0.0
 47
0.0
 47
0.0
 47
0.0208333333333333
 47
0.0
 47
0.0
 47
0.0
 47
0.0
 47
1.0
 47
0.0
 47
0.0
 47
0.0
 47
0.0
 47
1.0
171
     0
 49
0.0208333333333333
 49
0.0
 49
0.0
 49
0.0
 49
0.0
 49
0.0208333333333333
 49
0.0
 49
0.0
 49
0.0
 49
0.0
 49
1.0
 49
0.0
 49
0.0
 49
0.0
 49
0.0
 49
1.0
175
     0
142
0.0208333333333333
142
0.0
142
0.0
142
0.0
142
0.0
142
0.0208333333333333
142
0.0
142
0.0
142
0.0
142
0.0
142
1.0
142
0.0
142
0.0
142
0.0
142
0.0
142
1.0
179
     0
144
0.0208333333333333
144
0.0
144
0.0
144
0.0
144
0.0
144
0.0208333333333333
144
0.0
144
0.0
144
0.0
144
0.0
144
1.0
144
0.0
144
0.0
144
0.0
144
0.0
144
1.0
147
0.0208333333333333
147
0.0
147
0.0
147
0.0
147
0.0
147
0.0208333333333333
147
0.0
147
0.0
147
0.0
147
0.0
147
1.0
147
0.0
147
0.0
147
0.0
147
0.0
147
1.0
  0
MLEADERSTYLE
  5
13EB9
102
{ACAD_XDICTIONARY
360
15816
102
}
102
{ACAD_REACTORS
330
13EB8
102
}
330
13EB8
100
AcDbMLeaderStyle
170
     2
171
     1
172
     0
 90
        2
 40
0.0
 41
0.0
173
     1
 91
-1056964608
340
7477
 92
       -2
290
     1
 42
2.0
291
     1
 43
0.36
  3
Standard
 44
4.0
300

342
7475
174
     1
178
     6
175
     1
176
     0
 93
-1056964608
 45
4.0
292
     0
297
     0
 46
4.0
 94
-1056964608
 47
1.0
 49
1.0
140
1.0
293
     1
141
0.0
294
     1
177
     0
142
1.0
295
     0
296
     0
143
0.125
1001
ACAD_MLEADERVER
1070
     2
  0
MLINESTYLE
  5
7480
102
{ACAD_REACTORS
330
7473
102
}
330
7473
100
AcDbMlineStyle
  2
STANDARD
 70
     0
  3

 62
     0
 51
90.0
 52
90.0
 71
     2
 49
0.5
 62
   256
  6
BYLAYER
 49
-0.5
 62
   256
  6
BYLAYER
  0
ACDBPLACEHOLDER
  5
1341B
102
{ACAD_REACTORS
330
1341A
102
}
330
1341A
  0
SCALE
  5
13EA7
102
{ACAD_REACTORS
330
13EA6
102
}
330
13EA6
100
AcDbScale
 70
     0
300
1:1
140
1.0
141
1.0
290
     1
  0
SCALE
  5
13EA8
102
{ACAD_REACTORS
330
13EA6
102
}
330
13EA6
100
AcDbScale
 70
     0
300
1:2
140
1.0
141
2.0
290
     0
  0
SCALE
  5
13EA9
102
{ACAD_REACTORS
330
13EA6
102
}
330
13EA6
100
AcDbScale
 70
     0
300
1:4
140
1.0
141
4.0
290
     0
  0
SCALE
  5
13EAA
102
{ACAD_REACTORS
330
13EA6
102
}
330
13EA6
100
AcDbScale
 70
     0
300
1:5
140
1.0
141
5.0
290
     0
  0
SCALE
  5
13EAB
102
{ACAD_REACTORS
330
13EA6
102
}
330
13EA6
100
AcDbScale
 70
     0
300
1:8
140
1.0
141
8.0
290
     0
  0
SCALE
  5
13EAC
102
{ACAD_REACTORS
330
13EA6
102
}
330
13EA6
100
AcDbScale
 70
     0
300
1:10
140
1.0
141
10.0
290
     0
  0
SCALE
  5
13EAD
102
{ACAD_REACTORS
330
13EA6
102
}
330
13EA6
100
AcDbScale
 70
     0
300
1:16
140
1.0
141
16.0
290
     0
  0
SCALE
  5
13EAE
102
{ACAD_REACTORS
330
13EA6
102
}
330
13EA6
100
AcDbScale
 70
     0
300
1:20
140
1.0
141
20.0
290
     0
  0
SCALE
  5
13EAF
102
{ACAD_REACTORS
330
13EA6
102
}
330
13EA6
100
AcDbScale
 70
     0
300
1:30
140
1.0
141
30.0
290
     0
  0
SCALE
  5
13EB0
102
{ACAD_REACTORS
330
13EA6
102
}
330
13EA6
100
AcDbScale
 70
     0
300
1:40
140
1.0
141
40.0
290
     0
  0
SCALE
  5
13EB1
102
{ACAD_REACTORS
330
13EA6
102
}
330
13EA6
100
AcDbScale
 70
     0
300
1:50
140
1.0
141
50.0
290
     0
  0
SCALE
  5
13EB2
102
{ACAD_REACTORS
330
13EA6
102
}
330
13EA6
100
AcDbScale
 70
     0
300
1:100
140
1.0
141
100.0
290
     0
  0
SCALE
  5
13EB3
102
{ACAD_REACTORS
330
13EA6
102
}
330
13EA6
100
AcDbScale
 70
     0
300
2:1
140
2.0
141
1.0
290
     0
  0
SCALE
  5
13EB4
102
{ACAD_REACTORS
330
13EA6
102
}
330
13EA6
100
AcDbScale
 70
     0
300
4:1
140
4.0
141
1.0
290
     0
  0
SCALE
  5
13EB5
102
{ACAD_REACTORS
330
13EA6
102
}
330
13EA6
100
AcDbScale
 70
     0
300
8:1
140
8.0
141
1.0
290
     0
  0
SCALE
  5
13EB6
102
{ACAD_REACTORS
330
13EA6
102
}
330
13EA6
100
AcDbScale
 70
     0
300
10:1
140
10.0
141
1.0
290
     0
  0
SCALE
  5
13EB7
102
{ACAD_REACTORS
330
13EA6
102
}
330
13EA6
100
AcDbScale
 70
     0
300
100:1
140
100.0
141
1.0
290
     0
  0
ACDBSECTIONVIEWSTYLE
  5
13EBB
102
{ACAD_XDICTIONARY
360
15818
102
}
102
{ACAD_REACTORS
330
13EBA
102
}
330
13EBA
100
AcDbModelDocViewStyle
 70
     0
  3
Metric50
290
     0
100
AcDbSectionViewStyle
 70
     0
 71
     0
 90
      102
 71
     1
340
7475
 40
5.0
340
0
340
0
 40
5.0
300
I, O, Q, S, X, Z
 40
10.0
 90
        0
 40
2.5
 90
        0
 71
     2
340
7479
 90
       25
340
7479
 90
       50
 40
5.0
 40
2.5
 40
5.0
 71
     3
340
7475
 40
5.0
 90
        0
 40
15.0
 90
        1
300
%<\AcVar ViewSectionStartId>%-%<\AcVar ViewSectionEndId>% (%<\AcVar ViewScale \f "%sn">%)
 71
     4
300
ANSI31
 40
1.0
 90
        0
290
     0
290
     0
 90
        6
 40
0.0
 40
1.570796326794896
 40
0.2617993877991494
 40
1.308996938995747
 40
-0.2617993877991494
 40
1.832595714594046
  0
TABLESTYLE
  5
13EA5
102
{ACAD_XDICTIONARY
360
15564
102
}
102
{ACAD_REACTORS
330
13EA4
102
}
330
13EA4
100
AcDbTableStyle
  3
Standard
 70
     0
 71
     0
 40
1.5
 41
1.5
280
     0
281
     0
  7
STANDARD
140
4.5
170
     2
 62
     0
 63
     7
283
     0
274
    -2
284
     1
 64
     0
275
    -2
285
     1
 65
     0
276
    -2
286
     1
 66
     0
277
    -2
287
     1
 67
     0
278
    -2
288
     1
 68
     0
279
    -2
289
     1
 69
     0
  7
STANDARD
140
6.0
170
     5
 62
     0
 63
     7
283
     0
274
    -2
284
     1
 64
     0
275
    -2
285
     1
 65
     0
276
    -2
286
     1
 66
     0
277
    -2
287
     1
 67
     0
278
    -2
288
     1
 68
     0
279
    -2
289
     1
 69
     0
  7
STANDARD
140
4.5
170
     5
 62
     0
 63
     7
283
     0
274
    -2
284
     1
 64
     0
275
    -2
285
     1
 65
     0
276
    -2
286
     1
 66
     0
277
    -2
287
     1
 67
     0
278
    -2
288
     1
 68
     0
279
    -2
289
     1
 69
     0
  0
VISUALSTYLE
  5
13E91
102
{ACAD_XDICTIONARY
360
157EF
102
}
102
{ACAD_REACTORS
330
13E8B
102
}
330
13E8B
100
AcDbVisualStyle
  2
2dWireframe
 70
     4
 71
     0
 72
     2
 73
     0
 90
        0
 40
-0.6
 41
-30.0
 62
     5
 63
     7
 74
     1
 91
        4
 64
     7
 65
   257
 75
     1
175
     1
 42
1.0
 92
        0
 66
   257
 43
1.0
 76
     1
 77
     6
 78
     2
 67
     7
 79
     5
170
     0
171
     0
290
     0
174
     0
 93
        1
 44
0.0
173
     0
291
     0
 45
0.0
1001
ACAD
1000
AcDbSavedByObjectVersion
1070
     0
  0
VISUALSTYLE
  5
13E90
102
{ACAD_XDICTIONARY
360
157ED
102
}
102
{ACAD_REACTORS
330
13E8B
102
}
330
13E8B
100
AcDbVisualStyle
  2
Basic
 70
     7
 71
     1
 72
     0
 73
     1
 90
        0
 40
-0.6
 41
-30.0
 62
     5
 63
     7
 74
     0
 91
        4
 64
     7
 65
   257
 75
     1
175
     1
 42
1.0
 92
        8
 66
     7
 43
1.0
 76
     1
 77
     6
 78
     2
 67
     7
 79
     5
170
     0
171
     0
290
     0
174
     0
 93
        1
 44
0.0
173
     0
291
     1
 45
0.0
1001
ACAD
1000
AcDbSavedByObjectVersion
1070
     0
  0
VISUALSTYLE
  5
13E97
102
{ACAD_XDICTIONARY
360
157FB
102
}
102
{ACAD_REACTORS
330
13E8B
102
}
330
13E8B
100
AcDbVisualStyle
  2
Brighten
 70
    12
 71
     2
 72
     2
 73
     0
 90
        0
 40
-0.6
 41
-30.0
 62
     5
 63
     7
 74
     1
 91
        4
 64
     7
 65
   257
 75
     1
175
     1
 42
1.0
 92
        8
 66
     7
 43
1.0
 76
     1
 77
     6
 78
     2
 67
     7
 79
     5
170
     0
171
     0
290
     0
174
     0
 93
        1
 44
50.0
173
     0
291
     1
 45
0.0
1001
ACAD
1000
AcDbSavedByObjectVersion
1070
     0
  0
VISUALSTYLE
  5
13E9B
102
{ACAD_XDICTIONARY
360
15803
102
}
102
{ACAD_REACTORS
330
13E8B
102
}
330
13E8B
100
AcDbVisualStyle
  2
ColorChange
 70
    16
 71
     2
 72
     2
 73
     3
 90
        0
 40
-0.6
 41
-30.0
 62
     5
 63
     8
 74
     1
 91
        4
 64
     7
 65
   257
 75
     1
175
     1
 42
1.0
 92
        8
 66
     8
 43
1.0
 76
     1
 77
     6
 78
     2
 67
     7
 79
     5
170
     0
171
     0
290
     0
174
     0
 93
        1
 44
0.0
173
     0
291
     1
 45
0.0
1001
ACAD
1000
AcDbSavedByObjectVersion
1070
     0
  0
VISUALSTYLE
  5
13E94
102
{ACAD_XDICTIONARY
360
157F5
102
}
102
{ACAD_REACTORS
330
13E8B
102
}
330
13E8B
100
AcDbVisualStyle
  2
Conceptual
 70
     9
 71
     3
 72
     2
 73
     0
 90
        0
 40
-0.6
 41
-30.0
 62
     5
 63
     7
 74
     2
 91
        2
 64
     7
 65
   257
 75
     1
175
     1
 42
179.0
 92
        8
 66
     7
 43
1.0
 76
     1
 77
     6
 78
     2
 67
     7
 79
     3
170
     0
171
     0
290
     0
174
     0
 93
        1
 44
0.0
173
     0
291
     0
 45
0.0
1001
ACAD
1000
AcDbSavedByObjectVersion
1070
     0
  0
VISUALSTYLE
  5
13E96
102
{ACAD_XDICTIONARY
360
157F9
102
}
102
{ACAD_REACTORS
330
13E8B
102
}
330
13E8B
100
AcDbVisualStyle
  2
Dim
 70
    11
 71
     2
 72
     2
 73
     0
 90
        0
 40
-0.6
 41
-30.0
 62
     5
 63
     7
 74
     1
 91
        4
 64
     7
 65
   257
 75
     1
175
     1
 42
1.0
 92
        8
 66
     7
 43
1.0
 76
     1
 77
     6
 78
     2
 67
     7
 79
     5
170
     0
171
     0
290
     0
174
     0
 93
        1
 44
-50.0
173
     0
291
     1
 45
0.0
1001
ACAD
1000
AcDbSavedByObjectVersion
1070
     0
  0
VISUALSTYLE
  5
13EA3
102
{ACAD_XDICTIONARY
360
15813
102
}
102
{ACAD_REACTORS
330
13E8B
102
}
330
13E8B
100
AcDbVisualStyle
  2
EdgeColorOff
 70
    22
 71
     2
 72
     2
 73
     0
 90
        0
 40
-0.6
 41
-30.0
 62
     5
 63
     7
 74
     1
 91
        4
 64
     7
 65
   257
 75
     1
175
     1
 42
1.0
 92
        8
 66
     7
 43
1.0
 76
     1
 77
     6
 78
     2
 67
     7
 79
     5
170
     0
171
     0
290
     0
174
     0
 93
        1
 44
0.0
173
     0
291
     1
 45
0.0
1001
ACAD
1000
AcDbSavedByObjectVersion
1070
     0
  0
VISUALSTYLE
  5
13E9A
102
{ACAD_XDICTIONARY
360
15801
102
}
102
{ACAD_REACTORS
330
13E8B
102
}
330
13E8B
100
AcDbVisualStyle
  2
Facepattern
 70
    15
 71
     2
 72
     2
 73
     0
 90
        0
 40
-0.6
 41
-30.0
 62
     5
 63
     7
 74
     1
 91
        4
 64
     7
 65
   257
 75
     1
175
     1
 42
1.0
 92
        8
 66
     7
 43
1.0
 76
     1
 77
     6
 78
     2
 67
     7
 79
     5
170
     0
171
     0
290
     0
174
     0
 93
        1
 44
0.0
173
     0
291
     1
 45
0.0
1001
ACAD
1000
AcDbSavedByObjectVersion
1070
     0
  0
VISUALSTYLE
  5
13E8C
102
{ACAD_XDICTIONARY
360
157E5
102
}
102
{ACAD_REACTORS
330
13E8B
102
}
330
13E8B
100
AcDbVisualStyle
  2
Flat
 70
     0
 71
     2
 72
     1
 73
     1
 90
        2
 40
-0.6
 41
30.0
 62
     5
 63
     7
 74
     0
 91
        0
 64
     7
 65
   257
 75
     1
175
     1
 42
1.0
 92
        8
 66
     7
 43
1.0
 76
     1
 77
     6
 78
     2
 67
     7
 79
     5
170
     0
171
     0
290
     0
174
     0
 93
       13
 44
0.0
173
     0
291
     1
 45
0.0
1001
ACAD
1000
AcDbSavedByObjectVersion
1070
     0
  0
VISUALSTYLE
  5
13E8D
102
{ACAD_XDICTIONARY
360
157E7
102
}
102
{ACAD_REACTORS
330
13E8B
102
}
330
13E8B
100
AcDbVisualStyle
  2
FlatWithEdges
 70
     1
 71
     2
 72
     1
 73
     1
 90
        2
 40
-0.6
 41
30.0
 62
     5
 63
     7
 74
     1
 91
        0
 64
     7
 65
   257
 75
     1
175
     1
 42
1.0
 92
        0
 66
   257
 43
1.0
 76
     1
 77
     6
 78
     2
 67
     7
 79
     5
170
     0
171
     0
290
     0
174
     0
 93
       13
 44
0.0
173
     0
291
     1
 45
0.0
1001
ACAD
1000
AcDbSavedByObjectVersion
1070
     0
  0
VISUALSTYLE
  5
13E8E
102
{ACAD_XDICTIONARY
360
157E9
102
}
102
{ACAD_REACTORS
330
13E8B
102
}
330
13E8B
100
AcDbVisualStyle
  2
Gouraud
 70
     2
 71
     2
 72
     2
 73
     1
 90
        2
 40
-0.6
 41
30.0
 62
     5
 63
     7
 74
     0
 91
        0
 64
     7
 65
   257
 75
     1
175
     1
 42
1.0
 92
        0
 66
     7
 43
1.0
 76
     1
 77
     6
 78
     2
 67
     7
 79
     5
170
     0
171
     0
290
     0
174
     0
 93
       13
 44
0.0
173
     0
291
     1
 45
0.0
1001
ACAD
1000
AcDbSavedByObjectVersion
1070
     0
  0
VISUALSTYLE
  5
13E8F
102
{ACAD_XDICTIONARY
360
157EB
102
}
102
{ACAD_REACTORS
330
13E8B
102
}
330
13E8B
100
AcDbVisualStyle
  2
GouraudWithEdges
 70
     3
 71
     2
 72
     2
 73
     1
 90
        2
 40
-0.6
 41
30.0
 62
     5
 63
     7
 74
     1
 91
        0
 64
     7
 65
   257
 75
     1
175
     1
 42
1.0
 92
        0
 66
   257
 43
1.0
 76
     1
 77
     6
 78
     2
 67
     7
 79
     5
170
     0
171
     0
290
     0
174
     0
 93
       13
 44
0.0
173
     0
291
     1
 45
0.0
1001
ACAD
1000
AcDbSavedByObjectVersion
1070
     0
  0
VISUALSTYLE
  5
13E93
102
{ACAD_XDICTIONARY
360
157F3
102
}
102
{ACAD_REACTORS
330
13E8B
102
}
330
13E8B
100
AcDbVisualStyle
  2
Hidden
 70
     6
 71
     1
 72
     2
 73
     2
 90
        0
 40
-0.6
 41
-30.0
 62
     5
 63
     7
 74
     2
 91
        2
 64
     7
 65
   257
 75
     2
175
     1
 42
40.0
 92
        0
 66
   257
 43
1.0
 76
     1
 77
     6
 78
     2
 67
     7
 79
     3
170
     0
171
     0
290
     0
174
     0
 93
        1
 44
0.0
173
     0
291
     0
 45
0.0
1001
ACAD
1000
AcDbSavedByObjectVersion
1070
     0
  0
VISUALSTYLE
  5
13EA1
102
{ACAD_XDICTIONARY
360
1580F
102
}
102
{ACAD_REACTORS
330
13E8B
102
}
330
13E8B
100
AcDbVisualStyle
  2
JitterOff
 70
    20
 71
     2
 72
     2
 73
     0
 90
        0
 40
-0.6
 41
-30.0
 62
     5
 63
     7
 74
     1
 91
        4
 64
     7
 65
   257
 75
     1
175
     1
 42
1.0
 92
       10
 66
     7
 43
1.0
 76
     1
 77
     6
 78
     2
 67
     7
 79
     5
170
     0
171
     0
290
     0
174
     0
 93
        1
 44
0.0
173
     0
291
     1
 45
0.0
1001
ACAD
1000
AcDbSavedByObjectVersion
1070
     0
  0
VISUALSTYLE
  5
13E99
102
{ACAD_XDICTIONARY
360
157FF
102
}
102
{ACAD_REACTORS
330
13E8B
102
}
330
13E8B
100
AcDbVisualStyle
  2
Linepattern
 70
    14
 71
     2
 72
     2
 73
     0
 90
        0
 40
-0.6
 41
-30.0
 62
     5
 63
     7
 74
     1
 91
        4
 64
     7
 65
   257
 75
     7
175
     7
 42
1.0
 92
        8
 66
     7
 43
1.0
 76
     1
 77
     6
 78
     2
 67
     7
 79
     5
170
     0
171
     0
290
     0
174
     0
 93
        1
 44
0.0
173
     0
291
     1
 45
0.0
1001
ACAD
1000
AcDbSavedByObjectVersion
1070
     0
  0
VISUALSTYLE
  5
13EA2
102
{ACAD_XDICTIONARY
360
15811
102
}
102
{ACAD_REACTORS
330
13E8B
102
}
330
13E8B
100
AcDbVisualStyle
  2
OverhangOff
 70
    21
 71
     2
 72
     2
 73
     0
 90
        0
 40
-0.6
 41
-30.0
 62
     5
 63
     7
 74
     1
 91
        4
 64
     7
 65
   257
 75
     1
175
     1
 42
1.0
 92
        9
 66
     7
 43
1.0
 76
     1
 77
     6
 78
     2
 67
     7
 79
     5
170
     0
171
     0
290
     0
174
     0
 93
        1
 44
0.0
173
     0
291
     1
 45
0.0
1001
ACAD
1000
AcDbSavedByObjectVersion
1070
     0
  0
VISUALSTYLE
  5
13E95
102
{ACAD_XDICTIONARY
360
157F7
102
}
102
{ACAD_REACTORS
330
13E8B
102
}
330
13E8B
100
AcDbVisualStyle
  2
Realistic
 70
     8
 71
     2
 72
     2
 73
     0
 90
        2
 40
-0.6
 41
30.0
 62
     5
 63
     7
 74
     0
 91
        0
 64
     7
 65
   257
 75
     1
175
     1
 42
1.0
 92
        8
 66
   257
 43
1.0
 76
     1
 77
     6
 78
     2
 67
     7
 79
     3
170
     0
171
     0
290
     0
174
     0
 93
       13
 44
0.0
173
     0
291
     0
 45
0.0
1001
ACAD
1000
AcDbSavedByObjectVersion
1070
     0
  0
VISUALSTYLE
  5
13EA0
102
{ACAD_XDICTIONARY
360
1580D
102
}
102
{ACAD_REACTORS
330
13E8B
102
}
330
13E8B
100
AcDbVisualStyle
  2
Shaded
 70
    27
 71
     2
 72
     2
 73
     1
 90
        2
 40
-0.6
 41
30.0
 62
     5
 63
     7
 74
     0
 91
        4
 64
     7
 65
   257
 75
     1
175
     1
 42
1.0
 92
        8
 66
   257
 43
1.0
 76
     1
 77
     6
 78
     2
 67
     8
 79
     3
170
     0
171
     0
290
     0
174
     0
 93
        5
 44
0.0
173
     0
291
     0
 45
0.0
1001
ACAD
1000
AcDbSavedByObjectVersion
1070
     0
  0
VISUALSTYLE
  5
13E9F
102
{ACAD_XDICTIONARY
360
1580B
102
}
102
{ACAD_REACTORS
330
13E8B
102
}
330
13E8B
100
AcDbVisualStyle
  2
Shaded with edges
 70
    26
 71
     2
 72
     2
 73
     1
 90
        2
 40
-0.6
 41
30.0
 62
     5
 63
     7
 74
     1
 91
       10
 64
     7
 65
   257
 75
     2
175
     1
 42
1.0
 92
        8
 66
   257
 43
1.0
 76
     1
 77
     6
 78
     2
 67
     7
 79
     3
170
     0
171
     0
290
     0
174
     0
 93
        5
 44
0.0
173
     0
291
     0
 45
0.0
1001
ACAD
1000
AcDbSavedByObjectVersion
1070
     0
  0
VISUALSTYLE
  5
13E9C
102
{ACAD_XDICTIONARY
360
15805
102
}
102
{ACAD_REACTORS
330
13E8B
102
}
330
13E8B
100
AcDbVisualStyle
  2
Shades of Gray
 70
    23
 71
     2
 72
     2
 73
     3
 90
        0
 40
-0.6
 41
-30.0
 62
     5
 63
     7
 74
     2
 91
        2
 64
     7
 65
     7
 75
     1
175
     1
 42
40.0
 92
        8
 66
     7
 43
1.0
 76
     1
 77
     6
 78
     2
 67
     7
 79
     3
170
     0
171
     0
290
     0
174
     0
 93
        1
 44
0.0
173
     0
291
     0
 45
0.0
1001
ACAD
1000
AcDbSavedByObjectVersion
1070
     0
  0
VISUALSTYLE
  5
13E9D
102
{ACAD_XDICTIONARY
360
15807
102
}
102
{ACAD_REACTORS
330
13E8B
102
}
330
13E8B
100
AcDbVisualStyle
  2
Sketchy
 70
    24
 71
     1
 72
     2
 73
     2
 90
        0
 40
-0.6
 41
-30.0
 62
     5
 63
     7
 74
     2
 91
        2
 64
     7
 65
     7
 75
     1
175
     1
 42
40.0
 92
       11
 66
     7
 43
1.0
 76
     1
 77
     6
 78
     2
 67
     7
 79
     6
170
     0
171
     0
290
     0
174
     0
 93
        1
 44
0.0
173
     0
291
     0
 45
0.0
1001
ACAD
1000
AcDbSavedByObjectVersion
1070
     0
  0
VISUALSTYLE
  5
13E98
102
{ACAD_XDICTIONARY
360
157FD
102
}
102
{ACAD_REACTORS
330
13E8B
102
}
330
13E8B
100
AcDbVisualStyle
  2
Thicken
 70
    13
 71
     2
 72
     2
 73
     0
 90
        0
 40
-0.6
 41
-30.0
 62
     5
 63
     7
 74
     1
 91
        4
 64
     7
 65
   257
 75
     1
175
     1
 42
1.0
 92
       12
 66
     7
 43
1.0
 76
     1
 77
     6
 78
     2
 67
     7
 79
     5
170
     0
171
     0
290
     0
174
     0
 93
        1
 44
0.0
173
     0
291
     1
 45
0.0
1001
ACAD
1000
AcDbSavedByObjectVersion
1070
     0
  0
VISUALSTYLE
  5
13E92
102
{ACAD_XDICTIONARY
360
157F1
102
}
102
{ACAD_REACTORS
330
13E8B
102
}
330
13E8B
100
AcDbVisualStyle
  2
Wireframe
 70
     5
 71
     0
 72
     2
 73
     0
 90
        0
 40
-0.6
 41
-30.0
 62
     5
 63
     7
 74
     1
 91
        4
 64
     7
 65
   257
 75
     1
175
     1
 42
1.0
 92
        0
 66
   257
 43
1.0
 76
     1
 77
     6
 78
     2
 67
     7
 79
     3
170
     0
171
     0
290
     0
174
     0
 93
        1
 44
0.0
173
     0
291
     0
 45
0.0
1001
ACAD
1000
AcDbSavedByObjectVersion
1070
     0
  0
VISUALSTYLE
  5
13E9E
102
{ACAD_XDICTIONARY
360
15809
102
}
102
{ACAD_REACTORS
330
13E8B
102
}
330
13E8B
100
AcDbVisualStyle
  2
X-Ray
 70
    25
 71
     2
 72
     2
 73
     1
 90
        1
 40
0.5
 41
-30.0
 62
     5
 63
     7
 74
     1
 91
        0
 64
     7
 65
   257
 75
     1
175
     1
 42
1.0
 92
        8
 66
     7
 43
1.0
 76
     1
 77
     6
 78
     2
 67
     7
 79
     3
170
     0
171
     0
290
     0
174
     0
 93
       13
 44
0.0
173
     0
291
     0
 45
0.0
1001
ACAD
1000
AcDbSavedByObjectVersion
1070
     0
  0
DICTIONARYVAR
  5
155AE
102
{ACAD_REACTORS
330
13533
102
}
330
13533
100
DictionaryVariables
280
     0
  1
1:1
  0
DICTIONARYVAR
  5
155AB
102
{ACAD_REACTORS
330
13533
102
}
330
13533
100
DictionaryVariables
280
     0
  1
STANDARD
  0
DICTIONARYVAR
  5
155AA
102
{ACAD_REACTORS
330
13533
102
}
330
13533
100
DictionaryVariables
280
     0
  1
STANDARD
  0
DICTIONARYVAR
  5
155AC
102
{ACAD_REACTORS
330
13533
102
}
330
13533
100
DictionaryVariables
280
     0
  1
Metric50
  0
DICTIONARYVAR
  5
155AD
102
{ACAD_REACTORS
330
13533
102
}
330
13533
100
DictionaryVariables
280
     0
  1
Metric50
  0
DICTIONARYVAR
  5
13534
102
{ACAD_REACTORS
330
13533
102
}
330
13533
100
DictionaryVariables
280
     0
  1
1
  0
DICTIONARYVAR
  5
155B0
102
{ACAD_REACTORS
330
13533
102
}
330
13533
100
DictionaryVariables
280
     0
  1
0
  0
DICTIONARYVAR
  5
13535
102
{ACAD_REACTORS
330
13533
102
}
330
13533
100
DictionaryVariables
280
     0
  1

  0
DICTIONARYVAR
  5
155AF
102
{ACAD_REACTORS
330
13533
102
}
330
13533
100
DictionaryVariables
280
     0
  1
127
  0
DICTIONARYVAR
  5
157DA
102
{ACAD_REACTORS
330
13533
102
}
330
13533
100
DictionaryVariables
280
     0
  1
2
  0
DICTIONARY
  5
1581A
330
13EBD
100
AcDbDictionary
280
     1
281
     1
  3
ACAD_XREC_ROUNDTRIP
360
1581B
  0
DICTIONARY
  5
157DE
330
13420
100
AcDbDictionary
280
     1
281
     1
  3
ACAD_XREC_ROUNDTRIP
360
157DF
  0
DICTIONARY
  5
157E0
330
13421
100
AcDbDictionary
280
     1
281
     1
  3
ACAD_XREC_ROUNDTRIP
360
157E1
  0
DICTIONARY
  5
13E7C
330
13E7B
100
AcDbDictionary
280
     1
281
     1
  3
ACAD_XREC_ROUNDTRIP
360
157E3
  3
BUMPTILE
360
13E7E
  3
DIFFUSETILE
360
13E7D
  3
OPACITYTILE
360
13E81
  3
REFLECTIONTILE
360
13E80
  3
REFRACTIONTILE
360
13E82
  3
SPECULARTILE
360
13E7F
  0
DICTIONARY
  5
13E74
330
13E73
100
AcDbDictionary
280
     1
281
     1
  3
ACAD_XREC_ROUNDTRIP
360
157E2
  3
BUMPTILE
360
13E76
  3
DIFFUSETILE
360
13E75
  3
OPACITYTILE
360
13E79
  3
REFLECTIONTILE
360
13E78
  3
REFRACTIONTILE
360
13E7A
  3
SPECULARTILE
360
13E77
  0
DICTIONARY
  5
13E84
330
13E83
100
AcDbDictionary
280
     1
281
     1
  3
ACAD_XREC_ROUNDTRIP
360
157E4
  3
BUMPTILE
360
13E86
  3
DIFFUSETILE
360
13E85
  3
OPACITYTILE
360
13E89
  3
REFLECTIONTILE
360
13E88
  3
REFRACTIONTILE
360
13E8A
  3
SPECULARTILE
360
13E87
  0
DICTIONARY
  5
15816
330
13EB9
100
AcDbDictionary
280
     1
281
     1
  3
ACAD_XREC_ROUNDTRIP
360
15817
  0
DICTIONARY
  5
15818
330
13EBB
100
AcDbDictionary
280
     1
281
     1
  3
ACAD_XREC_ROUNDTRIP
360
15819
  0
DICTIONARY
  5
15564
330
13EA5
100
AcDbDictionary
280
     1
281
     1
  3
ACAD_ROUNDTRIP_2008_TABLESTYLE_CELLSTYLEMAP
360
157DB
  3
ACAD_XREC_ROUNDTRIP
360
15815
  0
DICTIONARY
  5
157EF
330
13E91
100
AcDbDictionary
280
     1
281
     1
  3
ACAD_XREC_ROUNDTRIP
360
157F0
  0
DICTIONARY
  5
157ED
330
13E90
100
AcDbDictionary
280
     1
281
     1
  3
ACAD_XREC_ROUNDTRIP
360
157EE
  0
DICTIONARY
  5
157FB
330
13E97
100
AcDbDictionary
280
     1
281
     1
  3
ACAD_XREC_ROUNDTRIP
360
157FC
  0
DICTIONARY
  5
15803
330
13E9B
100
AcDbDictionary
280
     1
281
     1
  3
ACAD_XREC_ROUNDTRIP
360
15804
  0
DICTIONARY
  5
157F5
330
13E94
100
AcDbDictionary
280
     1
281
     1
  3
ACAD_XREC_ROUNDTRIP
360
157F6
  0
DICTIONARY
  5
157F9
330
13E96
100
AcDbDictionary
280
     1
281
     1
  3
ACAD_XREC_ROUNDTRIP
360
157FA
  0
DICTIONARY
  5
15813
330
13EA3
100
AcDbDictionary
280
     1
281
     1
  3
ACAD_XREC_ROUNDTRIP
360
15814
  0
DICTIONARY
  5
15801
330
13E9A
100
AcDbDictionary
280
     1
281
     1
  3
ACAD_XREC_ROUNDTRIP
360
15802
  0
DICTIONARY
  5
157E5
330
13E8C
100
AcDbDictionary
280
     1
281
     1
  3
ACAD_XREC_ROUNDTRIP
360
157E6
  0
DICTIONARY
  5
157E7
330
13E8D
100
AcDbDictionary
280
     1
281
     1
  3
ACAD_XREC_ROUNDTRIP
360
157E8
  0
DICTIONARY
  5
157E9
330
13E8E
100
AcDbDictionary
280
     1
281
     1
  3
ACAD_XREC_ROUNDTRIP
360
157EA
  0
DICTIONARY
  5
157EB
330
13E8F
100
AcDbDictionary
280
     1
281
     1
  3
ACAD_XREC_ROUNDTRIP
360
157EC
  0
DICTIONARY
  5
157F3
330
13E93
100
AcDbDictionary
280
     1
281
     1
  3
ACAD_XREC_ROUNDTRIP
360
157F4
  0
DICTIONARY
  5
1580F
330
13EA1
100
AcDbDictionary
280
     1
281
     1
  3
ACAD_XREC_ROUNDTRIP
360
15810
  0
DICTIONARY
  5
157FF
330
13E99
100
AcDbDictionary
280
     1
281
     1
  3
ACAD_XREC_ROUNDTRIP
360
15800
  0
DICTIONARY
  5
15811
330
13EA2
100
AcDbDictionary
280
     1
281
     1
  3
ACAD_XREC_ROUNDTRIP
360
15812
  0
DICTIONARY
  5
157F7
330
13E95
100
AcDbDictionary
280
     1
281
     1
  3
ACAD_XREC_ROUNDTRIP
360
157F8
  0
DICTIONARY
  5
1580D
330
13EA0
100
AcDbDictionary
280
     1
281
     1
  3
ACAD_XREC_ROUNDTRIP
360
1580E
  0
DICTIONARY
  5
1580B
330
13E9F
100
AcDbDictionary
280
     1
281
     1
  3
ACAD_XREC_ROUNDTRIP
360
1580C
  0
DICTIONARY
  5
15805
330
13E9C
100
AcDbDictionary
280
     1
281
     1
  3
ACAD_XREC_ROUNDTRIP
360
15806
  0
DICTIONARY
  5
15807
330
13E9D
100
AcDbDictionary
280
     1
281
     1
  3
ACAD_XREC_ROUNDTRIP
360
15808
  0
DICTIONARY
  5
157FD
330
13E98
100
AcDbDictionary
280
     1
281
     1
  3
ACAD_XREC_ROUNDTRIP
360
157FE
  0
DICTIONARY
  5
157F1
330
13E92
100
AcDbDictionary
280
     1
281
     1
  3
ACAD_XREC_ROUNDTRIP
360
157F2
  0
DICTIONARY
  5
15809
330
13E9E
100
AcDbDictionary
280
     1
281
     1
  3
ACAD_XREC_ROUNDTRIP
360
1580A
  0
XRECORD
  5
1581B
102
{ACAD_REACTORS
330
1581A
102
}
330
1581A
100
AcDbXrecord
280
     1
102
DISPLAYNAME
  1
Metric50
102
FLAGS
 90
        0
  0
XRECORD
  5
157DF
102
{ACAD_REACTORS
330
157DE
102
}
330
157DE
100
AcDbXrecord
280
     1
102
SHADEPLOT
 70
     0
102
SHADEPLOTRESLEVEL
 70
     2
102
SHADEPLOTCUSTOMDPI
 70
   300
  0
XRECORD
  5
157E1
102
{ACAD_REACTORS
330
157E0
102
}
330
157E0
100
AcDbXrecord
280
     1
102
SHADEPLOT
 70
     0
102
SHADEPLOTRESLEVEL
 70
     2
102
SHADEPLOTCUSTOMDPI
 70
   300
  0
XRECORD
  5
157E3
102
{ACAD_REACTORS
330
13E7C
102
}
330
13E7C
100
AcDbXrecord
280
     1
102
MATERIAL
148
0.0
149
0.0
149
0.0
 93
        0
 94
      127
282
     0
 72
     0
 77
     0
171
     0
175
     0
179
     0
273
     0
  0
XRECORD
  5
13E7E
102
{ACAD_REACTORS
330
13E7C
102
}
330
13E7C
100
AcDbXrecord
280
     1
270
     1
271
     1
  0
XRECORD
  5
13E7D
102
{ACAD_REACTORS
330
13E7C
102
}
330
13E7C
100
AcDbXrecord
280
     1
270
     1
271
     1
  0
XRECORD
  5
13E81
102
{ACAD_REACTORS
330
13E7C
102
}
330
13E7C
100
AcDbXrecord
280
     1
270
     1
271
     1
  0
XRECORD
  5
13E80
102
{ACAD_REACTORS
330
13E7C
102
}
330
13E7C
100
AcDbXrecord
280
     1
270
     1
271
     1
  0
XRECORD
  5
13E82
102
{ACAD_REACTORS
330
13E7C
102
}
330
13E7C
100
AcDbXrecord
280
     1
270
     1
271
     1
  0
XRECORD
  5
13E7F
102
{ACAD_REACTORS
330
13E7C
102
}
330
13E7C
100
AcDbXrecord
280
     1
270
     1
271
     1
  0
XRECORD
  5
157E2
102
{ACAD_REACTORS
330
13E74
102
}
330
13E74
100
AcDbXrecord
280
     1
102
MATERIAL
148
0.0
149
0.0
149
0.0
 93
        0
 94
      127
282
     0
 72
     0
 77
     0
171
     0
175
     0
179
     0
273
     0
  0
XRECORD
  5
13E76
102
{ACAD_REACTORS
330
13E74
102
}
330
13E74
100
AcDbXrecord
280
     1
270
     1
271
     1
  0
XRECORD
  5
13E75
102
{ACAD_REACTORS
330
13E74
102
}
330
13E74
100
AcDbXrecord
280
     1
270
     1
271
     1
  0
XRECORD
  5
13E79
102
{ACAD_REACTORS
330
13E74
102
}
330
13E74
100
AcDbXrecord
280
     1
270
     1
271
     1
  0
XRECORD
  5
13E78
102
{ACAD_REACTORS
330
13E74
102
}
330
13E74
100
AcDbXrecord
280
     1
270
     1
271
     1
  0
XRECORD
  5
13E7A
102
{ACAD_REACTORS
330
13E74
102
}
330
13E74
100
AcDbXrecord
280
     1
270
     1
271
     1
  0
XRECORD
  5
13E77
102
{ACAD_REACTORS
330
13E74
102
}
330
13E74
100
AcDbXrecord
280
     1
270
     1
271
     1
  0
XRECORD
  5
157E4
102
{ACAD_REACTORS
330
13E84
102
}
330
13E84
100
AcDbXrecord
280
     1
102
MATERIAL
148
0.0
149
0.0
149
0.0
 93
        0
 94
      127
282
     0
 72
     0
 77
     0
171
     0
175
     0
179
     0
273
     0
  0
XRECORD
  5
13E86
102
{ACAD_REACTORS
330
13E84
102
}
330
13E84
100
AcDbXrecord
280
     1
270
     1
271
     1
  0
XRECORD
  5
13E85
102
{ACAD_REACTORS
330
13E84
102
}
330
13E84
100
AcDbXrecord
280
     1
270
     1
271
     1
  0
XRECORD
  5
13E89
102
{ACAD_REACTORS
330
13E84
102
}
330
13E84
100
AcDbXrecord
280
     1
270
     1
271
     1
  0
XRECORD
  5
13E88
102
{ACAD_REACTORS
330
13E84
102
}
330
13E84
100
AcDbXrecord
280
     1
270
     1
271
     1
  0
XRECORD
  5
13E8A
102
{ACAD_REACTORS
330
13E84
102
}
330
13E84
100
AcDbXrecord
280
     1
270
     1
271
     1
  0
XRECORD
  5
13E87
102
{ACAD_REACTORS
330
13E84
102
}
330
13E84
100
AcDbXrecord
280
     1
270
     1
271
     1
  0
XRECORD
  5
15817
102
{ACAD_REACTORS
330
15816
102
}
330
15816
100
AcDbXrecord
280
     1
102
ACAD_ROUNDTRIP_2012_MLEADER_STYLE
298
     1
  0
XRECORD
  5
15819
102
{ACAD_REACTORS
330
15818
102
}
330
15818
100
AcDbXrecord
280
     1
102
DISPLAYNAME
  1
Metric50
102
FLAGS
 90
        0
  0
CELLSTYLEMAP
  5
157DB
102
{ACAD_REACTORS
330
15564
102
}
330
15564
100
AcDbCellStyleMap
 90
        3
300
CELLSTYLE
  1
TABLEFORMAT_BEGIN
 90
        5
170
     1
 91
        0
 92
    32768
 62
   257
 93
        1
300
CONTENTFORMAT
  1
CONTENTFORMAT_BEGIN
 90
        0
 91
        0
 92
      512
 93
        0
300

 40
0.0
140
1.0
 94
        5
 62
     0
340
7475
144
6.0
309
CONTENTFORMAT_END
171
     1
301
MARGIN
  1
CELLMARGIN_BEGIN
 40
1.5
 40
1.5
 40
1.5
 40
1.5
 40
4.5
 40
4.5
309
CELLMARGIN_END
 94
        6
 95
        1
302
GRIDFORMAT
  1
GRIDFORMAT_BEGIN
 90
        0
 91
        1
 62
     0
 92
       -2
340
0
 93
        0
 40
1.125
309
GRIDFORMAT_END
 95
        2
302
GRIDFORMAT
  1
GRIDFORMAT_BEGIN
 90
        0
 91
        1
 62
     0
 92
       -2
340
0
 93
        0
 40
1.125
309
GRIDFORMAT_END
 95
        4
302
GRIDFORMAT
  1
GRIDFORMAT_BEGIN
 90
        0
 91
        1
 62
     0
 92
       -2
340
0
 93
        0
 40
1.125
309
GRIDFORMAT_END
 95
        8
302
GRIDFORMAT
  1
GRIDFORMAT_BEGIN
 90
        0
 91
        1
 62
     0
 92
       -2
340
0
 93
        0
 40
1.125
309
GRIDFORMAT_END
 95
       16
302
GRIDFORMAT
  1
GRIDFORMAT_BEGIN
 90
        0
 91
        1
 62
     0
 92
       -2
340
0
 93
        0
 40
1.125
309
GRIDFORMAT_END
 95
       32
302
GRIDFORMAT
  1
GRIDFORMAT_BEGIN
 90
        0
 91
        1
 62
     0
 92
       -2
340
0
 93
        0
 40
1.125
309
GRIDFORMAT_END
309
TABLEFORMAT_END
  1
CELLSTYLE_BEGIN
 90
        1
 91
        1
300
_TITLE
309
CELLSTYLE_END
300
CELLSTYLE
  1
TABLEFORMAT_BEGIN
 90
        5
170
     1
 91
        0
 92
        0
 62
   257
 93
        1
300
CONTENTFORMAT
  1
CONTENTFORMAT_BEGIN
 90
        0
 91
        0
 92
      512
 93
        0
300

 40
0.0
140
1.0
 94
        5
 62
     0
340
7475
144
4.5
309
CONTENTFORMAT_END
171
     1
301
MARGIN
  1
CELLMARGIN_BEGIN
 40
1.5
 40
1.5
 40
1.5
 40
1.5
 40
4.5
 40
4.5
309
CELLMARGIN_END
 94
        6
 95
        1
302
GRIDFORMAT
  1
GRIDFORMAT_BEGIN
 90
        0
 91
        1
 62
     0
 92
       -2
340
0
 93
        0
 40
1.125
309
GRIDFORMAT_END
 95
        2
302
GRIDFORMAT
  1
GRIDFORMAT_BEGIN
 90
        0
 91
        1
 62
     0
 92
       -2
340
0
 93
        0
 40
1.125
309
GRIDFORMAT_END
 95
        4
302
GRIDFORMAT
  1
GRIDFORMAT_BEGIN
 90
        0
 91
        1
 62
     0
 92
       -2
340
0
 93
        0
 40
1.125
309
GRIDFORMAT_END
 95
        8
302
GRIDFORMAT
  1
GRIDFORMAT_BEGIN
 90
        0
 91
        1
 62
     0
 92
       -2
340
0
 93
        0
 40
1.125
309
GRIDFORMAT_END
 95
       16
302
GRIDFORMAT
  1
GRIDFORMAT_BEGIN
 90
        0
 91
        1
 62
     0
 92
       -2
340
0
 93
        0
 40
1.125
309
GRIDFORMAT_END
 95
       32
302
GRIDFORMAT
  1
GRIDFORMAT_BEGIN
 90
        0
 91
        1
 62
     0
 92
       -2
340
0
 93
        0
 40
1.125
309
GRIDFORMAT_END
309
TABLEFORMAT_END
  1
CELLSTYLE_BEGIN
 90
        2
 91
        1
300
_HEADER
309
CELLSTYLE_END
300
CELLSTYLE
  1
TABLEFORMAT_BEGIN
 90
        5
170
     1
 91
        0
 92
        0
 62
   257
 93
        1
300
CONTENTFORMAT
  1
CONTENTFORMAT_BEGIN
 90
        0
 91
        0
 92
      512
 93
        0
300

 40
0.0
140
1.0
 94
        2
 62
     0
340
7475
144
4.5
309
CONTENTFORMAT_END
171
     1
301
MARGIN
  1
CELLMARGIN_BEGIN
 40
1.5
 40
1.5
 40
1.5
 40
1.5
 40
4.5
 40
4.5
309
CELLMARGIN_END
 94
        6
 95
        1
302
GRIDFORMAT
  1
GRIDFORMAT_BEGIN
 90
        0
 91
        1
 62
     0
 92
       -2
340
0
 93
        0
 40
1.125
309
GRIDFORMAT_END
 95
        2
302
GRIDFORMAT
  1
GRIDFORMAT_BEGIN
 90
        0
 91
        1
 62
     0
 92
       -2
340
0
 93
        0
 40
1.125
309
GRIDFORMAT_END
 95
        4
302
GRIDFORMAT
  1
GRIDFORMAT_BEGIN
 90
        0
 91
        1
 62
     0
 92
       -2
340
0
 93
        0
 40
1.125
309
GRIDFORMAT_END
 95
        8
302
GRIDFORMAT
  1
GRIDFORMAT_BEGIN
 90
        0
 91
        1
 62
     0
 92
       -2
340
0
 93
        0
 40
1.125
309
GRIDFORMAT_END
 95
       16
302
GRIDFORMAT
  1
GRIDFORMAT_BEGIN
 90
        0
 91
        1
 62
     0
 92
       -2
340
0
 93
        0
 40
1.125
309
GRIDFORMAT_END
 95
       32
302
GRIDFORMAT
  1
GRIDFORMAT_BEGIN
 90
        0
 91
        1
 62
     0
 92
       -2
340
0
 93
        0
 40
1.125
309
GRIDFORMAT_END
309
TABLEFORMAT_END
  1
CELLSTYLE_BEGIN
 90
        3
 91
        2
300
_DATA
309
CELLSTYLE_END
  0
XRECORD
  5
15815
102
{ACAD_REACTORS
330
15564
102
}
330
15564
100
AcDbXrecord
280
     1
102
ACAD_ROUNDTRIP_PRE2007_TABLESTYLE
 90
      512
 91
        0
  1

 92
      512
 93
        0
  2

 94
      512
 95
        0
  3

  0
XRECORD
  5
157F0
102
{ACAD_REACTORS
330
157EF
102
}
330
157EF
100
AcDbXrecord
280
     1
102
RTVSPost2010Prop28
280
     1
102
RTVSPost2010PropOp28
 70
     1
102
RTVSPost2010Prop29
280
     1
102
RTVSPost2010PropOp29
 70
     1
102
RTVSPost2010Prop30
280
     0
102
RTVSPost2010PropOp30
 70
     1
102
RTVSPost2010Prop31
280
     0
102
RTVSPost2010PropOp31
 70
     1
102
RTVSPost2010Prop32
280
     0
102
RTVSPost2010PropOp32
 70
     1
102
RTVSPost2010Prop33
280
     0
102
RTVSPost2010PropOp33
 70
     1
102
RTVSPost2010Prop34
280
     0
102
RTVSPost2010PropOp34
 70
     1
102
RTVSPost2010Prop35
280
     0
102
RTVSPost2010PropOp35
 70
     1
102
RTVSPost2010Prop36
280
     0
102
RTVSPost2010PropOp36
 70
     1
102
RTVSPost2010Prop37
 90
       50
102
RTVSPost2010PropOp37
 70
     1
102
RTVSPost2010Prop38
140
0.0
102
RTVSPost2010PropOp38
 70
     1
102
RTVSPost2010Prop39
140
1.0
102
RTVSPost2010PropOp39
 70
     1
102
RTVSPost2010Prop40
 90
        0
102
RTVSPost2010PropOp40
 70
     1
102
RTVSPost2010Prop41ColorIndex
 90
       18
102
RTVSPost2010Prop41ColorRGB
 90
        0
102
RTVSPost2010PropOp41
 70
     1
102
RTVSPost2010Prop42
 90
       50
102
RTVSPost2010PropOp42
 70
     1
102
RTVSPost2010Prop43
 90
        3
102
RTVSPost2010PropOp43
 70
     1
102
RTVSPost2010Prop44ColorIndex
 90
        5
102
RTVSPost2010Prop44ColorRGB
 90
      255
102
RTVSPost2010PropOp44
 70
     1
102
RTVSPost2010Prop45
280
     0
102
RTVSPost2010PropOp45
 70
     1
102
RTVSPost2010Prop46
 90
       50
102
RTVSPost2010PropOp46
 70
     1
102
RTVSPost2010Prop47
 90
       50
102
RTVSPost2010PropOp47
 70
     1
102
RTVSPost2010Prop48
 90
       50
102
RTVSPost2010PropOp48
 70
     1
102
RTVSPost2010Prop49
280
     0
102
RTVSPost2010PropOp49
 70
     1
102
RTVSPost2010Prop50
 90
       50
102
RTVSPost2010PropOp50
 70
     1
102
RTVSPost2010Prop51ColorIndex
 90
      256
102
RTVSPost2010Prop51ColorRGB
 90
-16777216
102
RTVSPost2010PropOp51
 70
     0
102
RTVSPost2010Prop52
140
1.0
102
RTVSPost2010PropOp52
 70
     0
102
RTVSPost2010Prop53
 90
        2
102
RTVSPost2010PropOp53
 70
     1
102
RTVSPost2010Prop54
  1
strokes_ogs.tif
102
RTVSPost2010PropOp54
 70
     1
102
RTVSPost2010Prop55
280
     0
102
RTVSPost2010PropOp55
 70
     1
102
RTVSPost2010Prop56
140
1.0
102
RTVSPost2010PropOp56
 70
     1
102
RTVSPost2010Prop57
140
1.0
102
RTVSPost2010PropOp57
 70
     1
102
RTVSPropertyOp0
 70
     1
102
RTVSPropertyOp1
 70
     1
102
RTVSPropertyOp2
 70
     1
102
RTVSPropertyOp3
 70
     1
102
RTVSPropertyOp4
 70
     1
102
RTVSPropertyOp5
 70
     1
102
RTVSPropertyOp6
 70
     1
102
RTVSPropertyOp7
 70
     1
102
RTVSPropertyOp8
 70
     1
102
RTVSPropertyOp9
 70
     1
102
RTVSPropertyOp10
 70
     1
102
RTVSPropertyOp11
 70
     1
102
RTVSPropertyOp12
 70
     1
102
RTVSPropertyOp13
 70
     1
102
RTVSPropertyOp14
 70
     1
102
RTVSPropertyOp15
 70
     1
102
RTVSPropertyOp16
 70
     1
102
RTVSPropertyOp17
 70
     1
102
RTVSPropertyOp18
 70
     1
102
RTVSPropertyOp19
 70
     1
102
RTVSPropertyOp20
 70
     1
102
RTVSPropertyOp21
 70
     1
102
RTVSPropertyOp22
 70
     1
102
RTVSPropertyOp23
 70
     1
102
RTVSPropertyOp24
 70
     1
102
RTVSPropertyOp25
 70
     1
102
RTVSPropertyOp26
 70
     1
102
RTVSPropertyOp27
 70
     1
102
RTVSPropertyOp28
 70
     1
102
RTVSPropertyOp29
 70
     1
102
RTVSPropertyOp30
 70
     1
102
RTVSPropertyOp31
 70
     1
102
RTVSPropertyOp32
 70
     1
102
RTVSPropertyOp33
 70
     1
102
RTVSPropertyOp34
 70
     1
102
RTVSPropertyOp35
 70
     1
102
RTVSPropertyOp36
 70
     1
102
RTVSPropertyOp37
 70
     1
102
RTVSPropertyOp38
 70
     1
102
RTVSPropertyOp39
 70
     1
102
RTVSPropertyOp40
 70
     1
102
RTVSPropertyOp41
 70
     1
102
RTVSPropertyOp42
 70
     1
102
RTVSPropertyOp43
 70
     1
102
RTVSPropertyOp44
 70
     1
102
RTVSPropertyOp45
 70
     1
102
RTVSPropertyOp46
 70
     1
102
RTVSPropertyOp47
 70
     1
102
RTVSPropertyOp48
 70
     1
102
RTVSPropertyOp49
 70
     1
102
RTVSPropertyOp50
 70
     1
102
RTVSPropertyOp51
 70
     0
102
RTVSPropertyOp52
 70
     0
102
RTVSPropertyOp53
 70
     1
102
RTVSPropertyOp54
 70
     1
102
RTVSPropertyOp55
 70
     1
102
RTVSPropertyOp56
 70
     1
102
RTVSPropertyOp57
 70
     1
102
RTVSPropertyOp58
 70
     1
102
RTVSPropertyOp59
 70
     1
102
RTVSPropertyOp60
 70
     1
102
RTVSPropertyOp61
 70
     1
102
RTVSPropertyOp62
 70
     1
  0
XRECORD
  5
157EE
102
{ACAD_REACTORS
330
157ED
102
}
330
157ED
100
AcDbXrecord
280
     1
102
RTVSPost2010Prop28
280
     0
102
RTVSPost2010PropOp28
 70
     1
102
RTVSPost2010Prop29
280
     1
102
RTVSPost2010PropOp29
 70
     1
102
RTVSPost2010Prop30
280
     1
102
RTVSPost2010PropOp30
 70
     1
102
RTVSPost2010Prop31
280
     0
102
RTVSPost2010PropOp31
 70
     1
102
RTVSPost2010Prop32
280
     0
102
RTVSPost2010PropOp32
 70
     1
102
RTVSPost2010Prop33
280
     0
102
RTVSPost2010PropOp33
 70
     1
102
RTVSPost2010Prop34
280
     0
102
RTVSPost2010PropOp34
 70
     1
102
RTVSPost2010Prop35
280
     0
102
RTVSPost2010PropOp35
 70
     1
102
RTVSPost2010Prop36
280
     0
102
RTVSPost2010PropOp36
 70
     1
102
RTVSPost2010Prop37
 90
       50
102
RTVSPost2010PropOp37
 70
     1
102
RTVSPost2010Prop38
140
0.0
102
RTVSPost2010PropOp38
 70
     1
102
RTVSPost2010Prop39
140
1.0
102
RTVSPost2010PropOp39
 70
     1
102
RTVSPost2010Prop40
 90
        0
102
RTVSPost2010PropOp40
 70
     1
102
RTVSPost2010Prop41ColorIndex
 90
       18
102
RTVSPost2010Prop41ColorRGB
 90
        0
102
RTVSPost2010PropOp41
 70
     1
102
RTVSPost2010Prop42
 90
       50
102
RTVSPost2010PropOp42
 70
     1
102
RTVSPost2010Prop43
 90
        3
102
RTVSPost2010PropOp43
 70
     1
102
RTVSPost2010Prop44ColorIndex
 90
        5
102
RTVSPost2010Prop44ColorRGB
 90
      255
102
RTVSPost2010PropOp44
 70
     1
102
RTVSPost2010Prop45
280
     0
102
RTVSPost2010PropOp45
 70
     1
102
RTVSPost2010Prop46
 90
       50
102
RTVSPost2010PropOp46
 70
     1
102
RTVSPost2010Prop47
 90
       50
102
RTVSPost2010PropOp47
 70
     1
102
RTVSPost2010Prop48
 90
       50
102
RTVSPost2010PropOp48
 70
     1
102
RTVSPost2010Prop49
280
     0
102
RTVSPost2010PropOp49
 70
     1
102
RTVSPost2010Prop50
 90
       50
102
RTVSPost2010PropOp50
 70
     1
102
RTVSPost2010Prop51ColorIndex
 90
      256
102
RTVSPost2010Prop51ColorRGB
 90
-16777216
102
RTVSPost2010PropOp51
 70
     0
102
RTVSPost2010Prop52
140
1.0
102
RTVSPost2010PropOp52
 70
     0
102
RTVSPost2010Prop53
 90
        2
102
RTVSPost2010PropOp53
 70
     1
102
RTVSPost2010Prop54
  1
strokes_ogs.tif
102
RTVSPost2010PropOp54
 70
     1
102
RTVSPost2010Prop55
280
     0
102
RTVSPost2010PropOp55
 70
     1
102
RTVSPost2010Prop56
140
1.0
102
RTVSPost2010PropOp56
 70
     1
102
RTVSPost2010Prop57
140
1.0
102
RTVSPost2010PropOp57
 70
     1
102
RTVSPropertyOp0
 70
     1
102
RTVSPropertyOp1
 70
     1
102
RTVSPropertyOp2
 70
     1
102
RTVSPropertyOp3
 70
     1
102
RTVSPropertyOp4
 70
     1
102
RTVSPropertyOp5
 70
     1
102
RTVSPropertyOp6
 70
     1
102
RTVSPropertyOp7
 70
     1
102
RTVSPropertyOp8
 70
     1
102
RTVSPropertyOp9
 70
     1
102
RTVSPropertyOp10
 70
     1
102
RTVSPropertyOp11
 70
     1
102
RTVSPropertyOp12
 70
     1
102
RTVSPropertyOp13
 70
     1
102
RTVSPropertyOp14
 70
     1
102
RTVSPropertyOp15
 70
     1
102
RTVSPropertyOp16
 70
     1
102
RTVSPropertyOp17
 70
     1
102
RTVSPropertyOp18
 70
     1
102
RTVSPropertyOp19
 70
     1
102
RTVSPropertyOp20
 70
     1
102
RTVSPropertyOp21
 70
     1
102
RTVSPropertyOp22
 70
     1
102
RTVSPropertyOp23
 70
     1
102
RTVSPropertyOp24
 70
     1
102
RTVSPropertyOp25
 70
     1
102
RTVSPropertyOp26
 70
     1
102
RTVSPropertyOp27
 70
     1
102
RTVSPropertyOp28
 70
     1
102
RTVSPropertyOp29
 70
     1
102
RTVSPropertyOp30
 70
     1
102
RTVSPropertyOp31
 70
     1
102
RTVSPropertyOp32
 70
     1
102
RTVSPropertyOp33
 70
     1
102
RTVSPropertyOp34
 70
     1
102
RTVSPropertyOp35
 70
     1
102
RTVSPropertyOp36
 70
     1
102
RTVSPropertyOp37
 70
     1
102
RTVSPropertyOp38
 70
     1
102
RTVSPropertyOp39
 70
     1
102
RTVSPropertyOp40
 70
     1
102
RTVSPropertyOp41
 70
     1
102
RTVSPropertyOp42
 70
     1
102
RTVSPropertyOp43
 70
     1
102
RTVSPropertyOp44
 70
     1
102
RTVSPropertyOp45
 70
     1
102
RTVSPropertyOp46
 70
     1
102
RTVSPropertyOp47
 70
     1
102
RTVSPropertyOp48
 70
     1
102
RTVSPropertyOp49
 70
     1
102
RTVSPropertyOp50
 70
     1
102
RTVSPropertyOp51
 70
     0
102
RTVSPropertyOp52
 70
     0
102
RTVSPropertyOp53
 70
     1
102
RTVSPropertyOp54
 70
     1
102
RTVSPropertyOp55
 70
     1
102
RTVSPropertyOp56
 70
     1
102
RTVSPropertyOp57
 70
     1
102
RTVSPropertyOp58
 70
     1
102
RTVSPropertyOp59
 70
     1
102
RTVSPropertyOp60
 70
     1
102
RTVSPropertyOp61
 70
     1
102
RTVSPropertyOp62
 70
     1
  0
XRECORD
  5
157FC
102
{ACAD_REACTORS
330
157FB
102
}
330
157FB
100
AcDbXrecord
280
     1
102
RTVSPost2010Prop28
280
     0
102
RTVSPost2010PropOp28
 70
     1
102
RTVSPost2010Prop29
280
     1
102
RTVSPost2010PropOp29
 70
     1
102
RTVSPost2010Prop30
280
     1
102
RTVSPost2010PropOp30
 70
     1
102
RTVSPost2010Prop31
280
     0
102
RTVSPost2010PropOp31
 70
     1
102
RTVSPost2010Prop32
280
     0
102
RTVSPost2010PropOp32
 70
     1
102
RTVSPost2010Prop33
280
     0
102
RTVSPost2010PropOp33
 70
     1
102
RTVSPost2010Prop34
280
     0
102
RTVSPost2010PropOp34
 70
     1
102
RTVSPost2010Prop35
280
     0
102
RTVSPost2010PropOp35
 70
     1
102
RTVSPost2010Prop36
280
     0
102
RTVSPost2010PropOp36
 70
     1
102
RTVSPost2010Prop37
 90
       50
102
RTVSPost2010PropOp37
 70
     1
102
RTVSPost2010Prop38
140
0.0
102
RTVSPost2010PropOp38
 70
     1
102
RTVSPost2010Prop39
140
1.0
102
RTVSPost2010PropOp39
 70
     1
102
RTVSPost2010Prop40
 90
        0
102
RTVSPost2010PropOp40
 70
     1
102
RTVSPost2010Prop41ColorIndex
 90
       18
102
RTVSPost2010Prop41ColorRGB
 90
        0
102
RTVSPost2010PropOp41
 70
     1
102
RTVSPost2010Prop42
 90
       50
102
RTVSPost2010PropOp42
 70
     1
102
RTVSPost2010Prop43
 90
        3
102
RTVSPost2010PropOp43
 70
     1
102
RTVSPost2010Prop44ColorIndex
 90
        5
102
RTVSPost2010Prop44ColorRGB
 90
      255
102
RTVSPost2010PropOp44
 70
     1
102
RTVSPost2010Prop45
280
     0
102
RTVSPost2010PropOp45
 70
     1
102
RTVSPost2010Prop46
 90
       50
102
RTVSPost2010PropOp46
 70
     1
102
RTVSPost2010Prop47
 90
       50
102
RTVSPost2010PropOp47
 70
     1
102
RTVSPost2010Prop48
 90
       50
102
RTVSPost2010PropOp48
 70
     1
102
RTVSPost2010Prop49
280
     0
102
RTVSPost2010PropOp49
 70
     1
102
RTVSPost2010Prop50
 90
       50
102
RTVSPost2010PropOp50
 70
     1
102
RTVSPost2010Prop51ColorIndex
 90
      256
102
RTVSPost2010Prop51ColorRGB
 90
-16777216
102
RTVSPost2010PropOp51
 70
     0
102
RTVSPost2010Prop52
140
1.0
102
RTVSPost2010PropOp52
 70
     0
102
RTVSPost2010Prop53
 90
        2
102
RTVSPost2010PropOp53
 70
     1
102
RTVSPost2010Prop54
  1
strokes_ogs.tif
102
RTVSPost2010PropOp54
 70
     1
102
RTVSPost2010Prop55
280
     0
102
RTVSPost2010PropOp55
 70
     1
102
RTVSPost2010Prop56
140
1.0
102
RTVSPost2010PropOp56
 70
     1
102
RTVSPost2010Prop57
140
1.0
102
RTVSPost2010PropOp57
 70
     1
102
RTVSPropertyOp0
 70
     1
102
RTVSPropertyOp1
 70
     1
102
RTVSPropertyOp2
 70
     1
102
RTVSPropertyOp3
 70
     1
102
RTVSPropertyOp4
 70
     1
102
RTVSPropertyOp5
 70
     1
102
RTVSPropertyOp6
 70
     1
102
RTVSPropertyOp7
 70
     1
102
RTVSPropertyOp8
 70
     1
102
RTVSPropertyOp9
 70
     1
102
RTVSPropertyOp10
 70
     1
102
RTVSPropertyOp11
 70
     1
102
RTVSPropertyOp12
 70
     1
102
RTVSPropertyOp13
 70
     1
102
RTVSPropertyOp14
 70
     1
102
RTVSPropertyOp15
 70
     1
102
RTVSPropertyOp16
 70
     1
102
RTVSPropertyOp17
 70
     1
102
RTVSPropertyOp18
 70
     1
102
RTVSPropertyOp19
 70
     1
102
RTVSPropertyOp20
 70
     1
102
RTVSPropertyOp21
 70
     1
102
RTVSPropertyOp22
 70
     1
102
RTVSPropertyOp23
 70
     1
102
RTVSPropertyOp24
 70
     1
102
RTVSPropertyOp25
 70
     1
102
RTVSPropertyOp26
 70
     1
102
RTVSPropertyOp27
 70
     1
102
RTVSPropertyOp28
 70
     1
102
RTVSPropertyOp29
 70
     1
102
RTVSPropertyOp30
 70
     1
102
RTVSPropertyOp31
 70
     1
102
RTVSPropertyOp32
 70
     1
102
RTVSPropertyOp33
 70
     1
102
RTVSPropertyOp34
 70
     1
102
RTVSPropertyOp35
 70
     1
102
RTVSPropertyOp36
 70
     1
102
RTVSPropertyOp37
 70
     1
102
RTVSPropertyOp38
 70
     1
102
RTVSPropertyOp39
 70
     1
102
RTVSPropertyOp40
 70
     1
102
RTVSPropertyOp41
 70
     1
102
RTVSPropertyOp42
 70
     1
102
RTVSPropertyOp43
 70
     1
102
RTVSPropertyOp44
 70
     1
102
RTVSPropertyOp45
 70
     1
102
RTVSPropertyOp46
 70
     1
102
RTVSPropertyOp47
 70
     1
102
RTVSPropertyOp48
 70
     1
102
RTVSPropertyOp49
 70
     1
102
RTVSPropertyOp50
 70
     1
102
RTVSPropertyOp51
 70
     0
102
RTVSPropertyOp52
 70
     0
102
RTVSPropertyOp53
 70
     1
102
RTVSPropertyOp54
 70
     1
102
RTVSPropertyOp55
 70
     1
102
RTVSPropertyOp56
 70
     1
102
RTVSPropertyOp57
 70
     1
102
RTVSPropertyOp58
 70
     1
102
RTVSPropertyOp59
 70
     1
102
RTVSPropertyOp60
 70
     1
102
RTVSPropertyOp61
 70
     1
102
RTVSPropertyOp62
 70
     1
  0
XRECORD
  5
15804
102
{ACAD_REACTORS
330
15803
102
}
330
15803
100
AcDbXrecord
280
     1
102
RTVSPost2010Prop28
280
     0
102
RTVSPost2010PropOp28
 70
     1
102
RTVSPost2010Prop29
280
     1
102
RTVSPost2010PropOp29
 70
     1
102
RTVSPost2010Prop30
280
     1
102
RTVSPost2010PropOp30
 70
     1
102
RTVSPost2010Prop31
280
     0
102
RTVSPost2010PropOp31
 70
     1
102
RTVSPost2010Prop32
280
     0
102
RTVSPost2010PropOp32
 70
     1
102
RTVSPost2010Prop33
280
     0
102
RTVSPost2010PropOp33
 70
     1
102
RTVSPost2010Prop34
280
     0
102
RTVSPost2010PropOp34
 70
     1
102
RTVSPost2010Prop35
280
     0
102
RTVSPost2010PropOp35
 70
     1
102
RTVSPost2010Prop36
280
     0
102
RTVSPost2010PropOp36
 70
     1
102
RTVSPost2010Prop37
 90
       50
102
RTVSPost2010PropOp37
 70
     1
102
RTVSPost2010Prop38
140
0.0
102
RTVSPost2010PropOp38
 70
     1
102
RTVSPost2010Prop39
140
1.0
102
RTVSPost2010PropOp39
 70
     1
102
RTVSPost2010Prop40
 90
        0
102
RTVSPost2010PropOp40
 70
     1
102
RTVSPost2010Prop41ColorIndex
 90
       18
102
RTVSPost2010Prop41ColorRGB
 90
        0
102
RTVSPost2010PropOp41
 70
     1
102
RTVSPost2010Prop42
 90
       50
102
RTVSPost2010PropOp42
 70
     1
102
RTVSPost2010Prop43
 90
        3
102
RTVSPost2010PropOp43
 70
     1
102
RTVSPost2010Prop44ColorIndex
 90
        5
102
RTVSPost2010Prop44ColorRGB
 90
      255
102
RTVSPost2010PropOp44
 70
     1
102
RTVSPost2010Prop45
280
     0
102
RTVSPost2010PropOp45
 70
     1
102
RTVSPost2010Prop46
 90
       50
102
RTVSPost2010PropOp46
 70
     1
102
RTVSPost2010Prop47
 90
       50
102
RTVSPost2010PropOp47
 70
     1
102
RTVSPost2010Prop48
 90
       50
102
RTVSPost2010PropOp48
 70
     1
102
RTVSPost2010Prop49
280
     0
102
RTVSPost2010PropOp49
 70
     1
102
RTVSPost2010Prop50
 90
       50
102
RTVSPost2010PropOp50
 70
     1
102
RTVSPost2010Prop51ColorIndex
 90
      256
102
RTVSPost2010Prop51ColorRGB
 90
-16777216
102
RTVSPost2010PropOp51
 70
     0
102
RTVSPost2010Prop52
140
1.0
102
RTVSPost2010PropOp52
 70
     0
102
RTVSPost2010Prop53
 90
        2
102
RTVSPost2010PropOp53
 70
     1
102
RTVSPost2010Prop54
  1
strokes_ogs.tif
102
RTVSPost2010PropOp54
 70
     1
102
RTVSPost2010Prop55
280
     0
102
RTVSPost2010PropOp55
 70
     1
102
RTVSPost2010Prop56
140
1.0
102
RTVSPost2010PropOp56
 70
     1
102
RTVSPost2010Prop57
140
1.0
102
RTVSPost2010PropOp57
 70
     1
102
RTVSPropertyOp0
 70
     1
102
RTVSPropertyOp1
 70
     1
102
RTVSPropertyOp2
 70
     1
102
RTVSPropertyOp3
 70
     1
102
RTVSPropertyOp4
 70
     1
102
RTVSPropertyOp5
 70
     1
102
RTVSPropertyOp6
 70
     1
102
RTVSPropertyOp7
 70
     1
102
RTVSPropertyOp8
 70
     1
102
RTVSPropertyOp9
 70
     1
102
RTVSPropertyOp10
 70
     1
102
RTVSPropertyOp11
 70
     1
102
RTVSPropertyOp12
 70
     1
102
RTVSPropertyOp13
 70
     1
102
RTVSPropertyOp14
 70
     1
102
RTVSPropertyOp15
 70
     1
102
RTVSPropertyOp16
 70
     1
102
RTVSPropertyOp17
 70
     1
102
RTVSPropertyOp18
 70
     1
102
RTVSPropertyOp19
 70
     1
102
RTVSPropertyOp20
 70
     1
102
RTVSPropertyOp21
 70
     1
102
RTVSPropertyOp22
 70
     1
102
RTVSPropertyOp23
 70
     1
102
RTVSPropertyOp24
 70
     1
102
RTVSPropertyOp25
 70
     1
102
RTVSPropertyOp26
 70
     1
102
RTVSPropertyOp27
 70
     1
102
RTVSPropertyOp28
 70
     1
102
RTVSPropertyOp29
 70
     1
102
RTVSPropertyOp30
 70
     1
102
RTVSPropertyOp31
 70
     1
102
RTVSPropertyOp32
 70
     1
102
RTVSPropertyOp33
 70
     1
102
RTVSPropertyOp34
 70
     1
102
RTVSPropertyOp35
 70
     1
102
RTVSPropertyOp36
 70
     1
102
RTVSPropertyOp37
 70
     1
102
RTVSPropertyOp38
 70
     1
102
RTVSPropertyOp39
 70
     1
102
RTVSPropertyOp40
 70
     1
102
RTVSPropertyOp41
 70
     1
102
RTVSPropertyOp42
 70
     1
102
RTVSPropertyOp43
 70
     1
102
RTVSPropertyOp44
 70
     1
102
RTVSPropertyOp45
 70
     1
102
RTVSPropertyOp46
 70
     1
102
RTVSPropertyOp47
 70
     1
102
RTVSPropertyOp48
 70
     1
102
RTVSPropertyOp49
 70
     1
102
RTVSPropertyOp50
 70
     1
102
RTVSPropertyOp51
 70
     0
102
RTVSPropertyOp52
 70
     0
102
RTVSPropertyOp53
 70
     1
102
RTVSPropertyOp54
 70
     1
102
RTVSPropertyOp55
 70
     1
102
RTVSPropertyOp56
 70
     1
102
RTVSPropertyOp57
 70
     1
102
RTVSPropertyOp58
 70
     1
102
RTVSPropertyOp59
 70
     1
102
RTVSPropertyOp60
 70
     1
102
RTVSPropertyOp61
 70
     1
102
RTVSPropertyOp62
 70
     1
  0
XRECORD
  5
157F6
102
{ACAD_REACTORS
330
157F5
102
}
330
157F5
100
AcDbXrecord
280
     1
102
RTVSPost2010Prop28
280
     0
102
RTVSPost2010PropOp28
 70
     1
102
RTVSPost2010Prop29
280
     1
102
RTVSPost2010PropOp29
 70
     1
102
RTVSPost2010Prop30
280
     1
102
RTVSPost2010PropOp30
 70
     1
102
RTVSPost2010Prop31
280
     0
102
RTVSPost2010PropOp31
 70
     1
102
RTVSPost2010Prop32
280
     0
102
RTVSPost2010PropOp32
 70
     1
102
RTVSPost2010Prop33
280
     0
102
RTVSPost2010PropOp33
 70
     1
102
RTVSPost2010Prop34
280
     0
102
RTVSPost2010PropOp34
 70
     1
102
RTVSPost2010Prop35
280
     0
102
RTVSPost2010PropOp35
 70
     1
102
RTVSPost2010Prop36
280
     0
102
RTVSPost2010PropOp36
 70
     1
102
RTVSPost2010Prop37
 90
       50
102
RTVSPost2010PropOp37
 70
     1
102
RTVSPost2010Prop38
140
0.0
102
RTVSPost2010PropOp38
 70
     1
102
RTVSPost2010Prop39
140
1.0
102
RTVSPost2010PropOp39
 70
     1
102
RTVSPost2010Prop40
 90
        0
102
RTVSPost2010PropOp40
 70
     1
102
RTVSPost2010Prop41ColorIndex
 90
       18
102
RTVSPost2010Prop41ColorRGB
 90
        0
102
RTVSPost2010PropOp41
 70
     1
102
RTVSPost2010Prop42
 90
       50
102
RTVSPost2010PropOp42
 70
     1
102
RTVSPost2010Prop43
 90
        3
102
RTVSPost2010PropOp43
 70
     1
102
RTVSPost2010Prop44ColorIndex
 90
        5
102
RTVSPost2010Prop44ColorRGB
 90
      255
102
RTVSPost2010PropOp44
 70
     1
102
RTVSPost2010Prop45
280
     0
102
RTVSPost2010PropOp45
 70
     1
102
RTVSPost2010Prop46
 90
       50
102
RTVSPost2010PropOp46
 70
     1
102
RTVSPost2010Prop47
 90
       50
102
RTVSPost2010PropOp47
 70
     1
102
RTVSPost2010Prop48
 90
       50
102
RTVSPost2010PropOp48
 70
     1
102
RTVSPost2010Prop49
280
     0
102
RTVSPost2010PropOp49
 70
     1
102
RTVSPost2010Prop50
 90
       50
102
RTVSPost2010PropOp50
 70
     1
102
RTVSPost2010Prop51ColorIndex
 90
      256
102
RTVSPost2010Prop51ColorRGB
 90
-16777216
102
RTVSPost2010PropOp51
 70
     0
102
RTVSPost2010Prop52
140
1.0
102
RTVSPost2010PropOp52
 70
     0
102
RTVSPost2010Prop53
 90
        2
102
RTVSPost2010PropOp53
 70
     1
102
RTVSPost2010Prop54
  1
strokes_ogs.tif
102
RTVSPost2010PropOp54
 70
     1
102
RTVSPost2010Prop55
280
     0
102
RTVSPost2010PropOp55
 70
     1
102
RTVSPost2010Prop56
140
1.0
102
RTVSPost2010PropOp56
 70
     1
102
RTVSPost2010Prop57
140
1.0
102
RTVSPost2010PropOp57
 70
     1
102
RTVSPropertyOp0
 70
     1
102
RTVSPropertyOp1
 70
     1
102
RTVSPropertyOp2
 70
     1
102
RTVSPropertyOp3
 70
     1
102
RTVSPropertyOp4
 70
     1
102
RTVSPropertyOp5
 70
     1
102
RTVSPropertyOp6
 70
     1
102
RTVSPropertyOp7
 70
     1
102
RTVSPropertyOp8
 70
     1
102
RTVSPropertyOp9
 70
     1
102
RTVSPropertyOp10
 70
     1
102
RTVSPropertyOp11
 70
     1
102
RTVSPropertyOp12
 70
     1
102
RTVSPropertyOp13
 70
     1
102
RTVSPropertyOp14
 70
     1
102
RTVSPropertyOp15
 70
     1
102
RTVSPropertyOp16
 70
     1
102
RTVSPropertyOp17
 70
     1
102
RTVSPropertyOp18
 70
     1
102
RTVSPropertyOp19
 70
     1
102
RTVSPropertyOp20
 70
     1
102
RTVSPropertyOp21
 70
     1
102
RTVSPropertyOp22
 70
     1
102
RTVSPropertyOp23
 70
     1
102
RTVSPropertyOp24
 70
     1
102
RTVSPropertyOp25
 70
     1
102
RTVSPropertyOp26
 70
     1
102
RTVSPropertyOp27
 70
     1
102
RTVSPropertyOp28
 70
     1
102
RTVSPropertyOp29
 70
     1
102
RTVSPropertyOp30
 70
     1
102
RTVSPropertyOp31
 70
     1
102
RTVSPropertyOp32
 70
     1
102
RTVSPropertyOp33
 70
     1
102
RTVSPropertyOp34
 70
     1
102
RTVSPropertyOp35
 70
     1
102
RTVSPropertyOp36
 70
     1
102
RTVSPropertyOp37
 70
     1
102
RTVSPropertyOp38
 70
     1
102
RTVSPropertyOp39
 70
     1
102
RTVSPropertyOp40
 70
     1
102
RTVSPropertyOp41
 70
     1
102
RTVSPropertyOp42
 70
     1
102
RTVSPropertyOp43
 70
     1
102
RTVSPropertyOp44
 70
     1
102
RTVSPropertyOp45
 70
     1
102
RTVSPropertyOp46
 70
     1
102
RTVSPropertyOp47
 70
     1
102
RTVSPropertyOp48
 70
     1
102
RTVSPropertyOp49
 70
     1
102
RTVSPropertyOp50
 70
     1
102
RTVSPropertyOp51
 70
     0
102
RTVSPropertyOp52
 70
     0
102
RTVSPropertyOp53
 70
     1
102
RTVSPropertyOp54
 70
     1
102
RTVSPropertyOp55
 70
     1
102
RTVSPropertyOp56
 70
     1
102
RTVSPropertyOp57
 70
     1
102
RTVSPropertyOp58
 70
     1
102
RTVSPropertyOp59
 70
     1
102
RTVSPropertyOp60
 70
     1
102
RTVSPropertyOp61
 70
     1
102
RTVSPropertyOp62
 70
     1
  0
XRECORD
  5
157FA
102
{ACAD_REACTORS
330
157F9
102
}
330
157F9
100
AcDbXrecord
280
     1
102
RTVSPost2010Prop28
280
     0
102
RTVSPost2010PropOp28
 70
     1
102
RTVSPost2010Prop29
280
     1
102
RTVSPost2010PropOp29
 70
     1
102
RTVSPost2010Prop30
280
     1
102
RTVSPost2010PropOp30
 70
     1
102
RTVSPost2010Prop31
280
     0
102
RTVSPost2010PropOp31
 70
     1
102
RTVSPost2010Prop32
280
     0
102
RTVSPost2010PropOp32
 70
     1
102
RTVSPost2010Prop33
280
     0
102
RTVSPost2010PropOp33
 70
     1
102
RTVSPost2010Prop34
280
     0
102
RTVSPost2010PropOp34
 70
     1
102
RTVSPost2010Prop35
280
     0
102
RTVSPost2010PropOp35
 70
     1
102
RTVSPost2010Prop36
280
     0
102
RTVSPost2010PropOp36
 70
     1
102
RTVSPost2010Prop37
 90
       50
102
RTVSPost2010PropOp37
 70
     1
102
RTVSPost2010Prop38
140
0.0
102
RTVSPost2010PropOp38
 70
     1
102
RTVSPost2010Prop39
140
1.0
102
RTVSPost2010PropOp39
 70
     1
102
RTVSPost2010Prop40
 90
        0
102
RTVSPost2010PropOp40
 70
     1
102
RTVSPost2010Prop41ColorIndex
 90
       18
102
RTVSPost2010Prop41ColorRGB
 90
        0
102
RTVSPost2010PropOp41
 70
     1
102
RTVSPost2010Prop42
 90
       50
102
RTVSPost2010PropOp42
 70
     1
102
RTVSPost2010Prop43
 90
        3
102
RTVSPost2010PropOp43
 70
     1
102
RTVSPost2010Prop44ColorIndex
 90
        5
102
RTVSPost2010Prop44ColorRGB
 90
      255
102
RTVSPost2010PropOp44
 70
     1
102
RTVSPost2010Prop45
280
     0
102
RTVSPost2010PropOp45
 70
     1
102
RTVSPost2010Prop46
 90
       50
102
RTVSPost2010PropOp46
 70
     1
102
RTVSPost2010Prop47
 90
       50
102
RTVSPost2010PropOp47
 70
     1
102
RTVSPost2010Prop48
 90
       50
102
RTVSPost2010PropOp48
 70
     1
102
RTVSPost2010Prop49
280
     0
102
RTVSPost2010PropOp49
 70
     1
102
RTVSPost2010Prop50
 90
       50
102
RTVSPost2010PropOp50
 70
     1
102
RTVSPost2010Prop51ColorIndex
 90
      256
102
RTVSPost2010Prop51ColorRGB
 90
-16777216
102
RTVSPost2010PropOp51
 70
     0
102
RTVSPost2010Prop52
140
1.0
102
RTVSPost2010PropOp52
 70
     0
102
RTVSPost2010Prop53
 90
        2
102
RTVSPost2010PropOp53
 70
     1
102
RTVSPost2010Prop54
  1
strokes_ogs.tif
102
RTVSPost2010PropOp54
 70
     1
102
RTVSPost2010Prop55
280
     0
102
RTVSPost2010PropOp55
 70
     1
102
RTVSPost2010Prop56
140
1.0
102
RTVSPost2010PropOp56
 70
     1
102
RTVSPost2010Prop57
140
1.0
102
RTVSPost2010PropOp57
 70
     1
102
RTVSPropertyOp0
 70
     1
102
RTVSPropertyOp1
 70
     1
102
RTVSPropertyOp2
 70
     1
102
RTVSPropertyOp3
 70
     1
102
RTVSPropertyOp4
 70
     1
102
RTVSPropertyOp5
 70
     1
102
RTVSPropertyOp6
 70
     1
102
RTVSPropertyOp7
 70
     1
102
RTVSPropertyOp8
 70
     1
102
RTVSPropertyOp9
 70
     1
102
RTVSPropertyOp10
 70
     1
102
RTVSPropertyOp11
 70
     1
102
RTVSPropertyOp12
 70
     1
102
RTVSPropertyOp13
 70
     1
102
RTVSPropertyOp14
 70
     1
102
RTVSPropertyOp15
 70
     1
102
RTVSPropertyOp16
 70
     1
102
RTVSPropertyOp17
 70
     1
102
RTVSPropertyOp18
 70
     1
102
RTVSPropertyOp19
 70
     1
102
RTVSPropertyOp20
 70
     1
102
RTVSPropertyOp21
 70
     1
102
RTVSPropertyOp22
 70
     1
102
RTVSPropertyOp23
 70
     1
102
RTVSPropertyOp24
 70
     1
102
RTVSPropertyOp25
 70
     1
102
RTVSPropertyOp26
 70
     1
102
RTVSPropertyOp27
 70
     1
102
RTVSPropertyOp28
 70
     1
102
RTVSPropertyOp29
 70
     1
102
RTVSPropertyOp30
 70
     1
102
RTVSPropertyOp31
 70
     1
102
RTVSPropertyOp32
 70
     1
102
RTVSPropertyOp33
 70
     1
102
RTVSPropertyOp34
 70
     1
102
RTVSPropertyOp35
 70
     1
102
RTVSPropertyOp36
 70
     1
102
RTVSPropertyOp37
 70
     1
102
RTVSPropertyOp38
 70
     1
102
RTVSPropertyOp39
 70
     1
102
RTVSPropertyOp40
 70
     1
102
RTVSPropertyOp41
 70
     1
102
RTVSPropertyOp42
 70
     1
102
RTVSPropertyOp43
 70
     1
102
RTVSPropertyOp44
 70
     1
102
RTVSPropertyOp45
 70
     1
102
RTVSPropertyOp46
 70
     1
102
RTVSPropertyOp47
 70
     1
102
RTVSPropertyOp48
 70
     1
102
RTVSPropertyOp49
 70
     1
102
RTVSPropertyOp50
 70
     1
102
RTVSPropertyOp51
 70
     0
102
RTVSPropertyOp52
 70
     0
102
RTVSPropertyOp53
 70
     1
102
RTVSPropertyOp54
 70
     1
102
RTVSPropertyOp55
 70
     1
102
RTVSPropertyOp56
 70
     1
102
RTVSPropertyOp57
 70
     1
102
RTVSPropertyOp58
 70
     1
102
RTVSPropertyOp59
 70
     1
102
RTVSPropertyOp60
 70
     1
102
RTVSPropertyOp61
 70
     1
102
RTVSPropertyOp62
 70
     1
  0
XRECORD
  5
15814
102
{ACAD_REACTORS
330
15813
102
}
330
15813
100
AcDbXrecord
280
     1
102
RTVSPost2010Prop28
280
     0
102
RTVSPost2010PropOp28
 70
     0
102
RTVSPost2010Prop29
280
     1
102
RTVSPost2010PropOp29
 70
     0
102
RTVSPost2010Prop30
280
     1
102
RTVSPost2010PropOp30
 70
     0
102
RTVSPost2010Prop31
280
     0
102
RTVSPost2010PropOp31
 70
     0
102
RTVSPost2010Prop32
280
     0
102
RTVSPost2010PropOp32
 70
     0
102
RTVSPost2010Prop33
280
     0
102
RTVSPost2010PropOp33
 70
     0
102
RTVSPost2010Prop34
280
     0
102
RTVSPost2010PropOp34
 70
     0
102
RTVSPost2010Prop35
280
     0
102
RTVSPost2010PropOp35
 70
     0
102
RTVSPost2010Prop36
280
     0
102
RTVSPost2010PropOp36
 70
     0
102
RTVSPost2010Prop37
 90
       50
102
RTVSPost2010PropOp37
 70
     0
102
RTVSPost2010Prop38
140
0.0
102
RTVSPost2010PropOp38
 70
     0
102
RTVSPost2010Prop39
140
1.0
102
RTVSPost2010PropOp39
 70
     0
102
RTVSPost2010Prop40
 90
        0
102
RTVSPost2010PropOp40
 70
     0
102
RTVSPost2010Prop41ColorIndex
 90
       18
102
RTVSPost2010Prop41ColorRGB
 90
        0
102
RTVSPost2010PropOp41
 70
     0
102
RTVSPost2010Prop42
 90
       50
102
RTVSPost2010PropOp42
 70
     0
102
RTVSPost2010Prop43
 90
        3
102
RTVSPost2010PropOp43
 70
     0
102
RTVSPost2010Prop44ColorIndex
 90
        5
102
RTVSPost2010Prop44ColorRGB
 90
      255
102
RTVSPost2010PropOp44
 70
     0
102
RTVSPost2010Prop45
280
     0
102
RTVSPost2010PropOp45
 70
     0
102
RTVSPost2010Prop46
 90
       50
102
RTVSPost2010PropOp46
 70
     0
102
RTVSPost2010Prop47
 90
       50
102
RTVSPost2010PropOp47
 70
     0
102
RTVSPost2010Prop48
 90
       50
102
RTVSPost2010PropOp48
 70
     0
102
RTVSPost2010Prop49
280
     0
102
RTVSPost2010PropOp49
 70
     0
102
RTVSPost2010Prop50
 90
       50
102
RTVSPost2010PropOp50
 70
     0
102
RTVSPost2010Prop51ColorIndex
 90
      256
102
RTVSPost2010Prop51ColorRGB
 90
-16777216
102
RTVSPost2010PropOp51
 70
     0
102
RTVSPost2010Prop52
140
1.0
102
RTVSPost2010PropOp52
 70
     0
102
RTVSPost2010Prop53
 90
        2
102
RTVSPost2010PropOp53
 70
     0
102
RTVSPost2010Prop54
  1
strokes_ogs.tif
102
RTVSPost2010PropOp54
 70
     0
102
RTVSPost2010Prop55
280
     0
102
RTVSPost2010PropOp55
 70
     0
102
RTVSPost2010Prop56
140
1.0
102
RTVSPost2010PropOp56
 70
     0
102
RTVSPost2010Prop57
140
1.0
102
RTVSPost2010PropOp57
 70
     0
102
RTVSPropertyOp0
 70
     0
102
RTVSPropertyOp1
 70
     0
102
RTVSPropertyOp2
 70
     0
102
RTVSPropertyOp3
 70
     0
102
RTVSPropertyOp4
 70
     0
102
RTVSPropertyOp5
 70
     0
102
RTVSPropertyOp6
 70
     0
102
RTVSPropertyOp7
 70
     0
102
RTVSPropertyOp8
 70
     0
102
RTVSPropertyOp9
 70
     0
102
RTVSPropertyOp10
 70
     0
102
RTVSPropertyOp11
 70
     0
102
RTVSPropertyOp12
 70
     0
102
RTVSPropertyOp13
 70
     0
102
RTVSPropertyOp14
 70
     2
102
RTVSPropertyOp15
 70
     0
102
RTVSPropertyOp16
 70
     0
102
RTVSPropertyOp17
 70
     0
102
RTVSPropertyOp18
 70
     0
102
RTVSPropertyOp19
 70
     0
102
RTVSPropertyOp20
 70
     0
102
RTVSPropertyOp21
 70
     0
102
RTVSPropertyOp22
 70
     0
102
RTVSPropertyOp23
 70
     0
102
RTVSPropertyOp24
 70
     0
102
RTVSPropertyOp25
 70
     0
102
RTVSPropertyOp26
 70
     0
102
RTVSPropertyOp27
 70
     0
102
RTVSPropertyOp28
 70
     0
102
RTVSPropertyOp29
 70
     0
102
RTVSPropertyOp30
 70
     0
102
RTVSPropertyOp31
 70
     0
102
RTVSPropertyOp32
 70
     0
102
RTVSPropertyOp33
 70
     0
102
RTVSPropertyOp34
 70
     0
102
RTVSPropertyOp35
 70
     0
102
RTVSPropertyOp36
 70
     0
102
RTVSPropertyOp37
 70
     0
102
RTVSPropertyOp38
 70
     0
102
RTVSPropertyOp39
 70
     0
102
RTVSPropertyOp40
 70
     0
102
RTVSPropertyOp41
 70
     0
102
RTVSPropertyOp42
 70
     0
102
RTVSPropertyOp43
 70
     0
102
RTVSPropertyOp44
 70
     0
102
RTVSPropertyOp45
 70
     0
102
RTVSPropertyOp46
 70
     0
102
RTVSPropertyOp47
 70
     0
102
RTVSPropertyOp48
 70
     0
102
RTVSPropertyOp49
 70
     0
102
RTVSPropertyOp50
 70
     0
102
RTVSPropertyOp51
 70
     0
102
RTVSPropertyOp52
 70
     0
102
RTVSPropertyOp53
 70
     0
102
RTVSPropertyOp54
 70
     0
102
RTVSPropertyOp55
 70
     0
102
RTVSPropertyOp56
 70
     0
102
RTVSPropertyOp57
 70
     0
102
RTVSPropertyOp58
 70
     0
102
RTVSPropertyOp59
 70
     0
102
RTVSPropertyOp60
 70
     0
102
RTVSPropertyOp61
 70
     0
102
RTVSPropertyOp62
 70
     0
  0
XRECORD
  5
15802
102
{ACAD_REACTORS
330
15801
102
}
330
15801
100
AcDbXrecord
280
     1
102
RTVSPost2010Prop28
280
     0
102
RTVSPost2010PropOp28
 70
     1
102
RTVSPost2010Prop29
280
     1
102
RTVSPost2010PropOp29
 70
     1
102
RTVSPost2010Prop30
280
     1
102
RTVSPost2010PropOp30
 70
     1
102
RTVSPost2010Prop31
280
     0
102
RTVSPost2010PropOp31
 70
     1
102
RTVSPost2010Prop32
280
     0
102
RTVSPost2010PropOp32
 70
     1
102
RTVSPost2010Prop33
280
     0
102
RTVSPost2010PropOp33
 70
     1
102
RTVSPost2010Prop34
280
     0
102
RTVSPost2010PropOp34
 70
     1
102
RTVSPost2010Prop35
280
     0
102
RTVSPost2010PropOp35
 70
     1
102
RTVSPost2010Prop36
280
     0
102
RTVSPost2010PropOp36
 70
     1
102
RTVSPost2010Prop37
 90
       50
102
RTVSPost2010PropOp37
 70
     1
102
RTVSPost2010Prop38
140
0.0
102
RTVSPost2010PropOp38
 70
     1
102
RTVSPost2010Prop39
140
1.0
102
RTVSPost2010PropOp39
 70
     1
102
RTVSPost2010Prop40
 90
        0
102
RTVSPost2010PropOp40
 70
     1
102
RTVSPost2010Prop41ColorIndex
 90
       18
102
RTVSPost2010Prop41ColorRGB
 90
        0
102
RTVSPost2010PropOp41
 70
     1
102
RTVSPost2010Prop42
 90
       50
102
RTVSPost2010PropOp42
 70
     1
102
RTVSPost2010Prop43
 90
        3
102
RTVSPost2010PropOp43
 70
     1
102
RTVSPost2010Prop44ColorIndex
 90
        5
102
RTVSPost2010Prop44ColorRGB
 90
      255
102
RTVSPost2010PropOp44
 70
     1
102
RTVSPost2010Prop45
280
     0
102
RTVSPost2010PropOp45
 70
     1
102
RTVSPost2010Prop46
 90
       50
102
RTVSPost2010PropOp46
 70
     1
102
RTVSPost2010Prop47
 90
       50
102
RTVSPost2010PropOp47
 70
     1
102
RTVSPost2010Prop48
 90
       50
102
RTVSPost2010PropOp48
 70
     1
102
RTVSPost2010Prop49
280
     0
102
RTVSPost2010PropOp49
 70
     1
102
RTVSPost2010Prop50
 90
       50
102
RTVSPost2010PropOp50
 70
     1
102
RTVSPost2010Prop51ColorIndex
 90
      256
102
RTVSPost2010Prop51ColorRGB
 90
-16777216
102
RTVSPost2010PropOp51
 70
     0
102
RTVSPost2010Prop52
140
1.0
102
RTVSPost2010PropOp52
 70
     0
102
RTVSPost2010Prop53
 90
        2
102
RTVSPost2010PropOp53
 70
     1
102
RTVSPost2010Prop54
  1
strokes_ogs.tif
102
RTVSPost2010PropOp54
 70
     1
102
RTVSPost2010Prop55
280
     0
102
RTVSPost2010PropOp55
 70
     1
102
RTVSPost2010Prop56
140
1.0
102
RTVSPost2010PropOp56
 70
     1
102
RTVSPost2010Prop57
140
1.0
102
RTVSPost2010PropOp57
 70
     1
102
RTVSPropertyOp0
 70
     1
102
RTVSPropertyOp1
 70
     1
102
RTVSPropertyOp2
 70
     1
102
RTVSPropertyOp3
 70
     1
102
RTVSPropertyOp4
 70
     1
102
RTVSPropertyOp5
 70
     1
102
RTVSPropertyOp6
 70
     1
102
RTVSPropertyOp7
 70
     1
102
RTVSPropertyOp8
 70
     1
102
RTVSPropertyOp9
 70
     1
102
RTVSPropertyOp10
 70
     1
102
RTVSPropertyOp11
 70
     1
102
RTVSPropertyOp12
 70
     1
102
RTVSPropertyOp13
 70
     1
102
RTVSPropertyOp14
 70
     1
102
RTVSPropertyOp15
 70
     1
102
RTVSPropertyOp16
 70
     1
102
RTVSPropertyOp17
 70
     1
102
RTVSPropertyOp18
 70
     1
102
RTVSPropertyOp19
 70
     1
102
RTVSPropertyOp20
 70
     1
102
RTVSPropertyOp21
 70
     1
102
RTVSPropertyOp22
 70
     1
102
RTVSPropertyOp23
 70
     1
102
RTVSPropertyOp24
 70
     1
102
RTVSPropertyOp25
 70
     1
102
RTVSPropertyOp26
 70
     1
102
RTVSPropertyOp27
 70
     1
102
RTVSPropertyOp28
 70
     1
102
RTVSPropertyOp29
 70
     1
102
RTVSPropertyOp30
 70
     1
102
RTVSPropertyOp31
 70
     1
102
RTVSPropertyOp32
 70
     1
102
RTVSPropertyOp33
 70
     1
102
RTVSPropertyOp34
 70
     1
102
RTVSPropertyOp35
 70
     1
102
RTVSPropertyOp36
 70
     1
102
RTVSPropertyOp37
 70
     1
102
RTVSPropertyOp38
 70
     1
102
RTVSPropertyOp39
 70
     1
102
RTVSPropertyOp40
 70
     1
102
RTVSPropertyOp41
 70
     1
102
RTVSPropertyOp42
 70
     1
102
RTVSPropertyOp43
 70
     1
102
RTVSPropertyOp44
 70
     1
102
RTVSPropertyOp45
 70
     1
102
RTVSPropertyOp46
 70
     1
102
RTVSPropertyOp47
 70
     1
102
RTVSPropertyOp48
 70
     1
102
RTVSPropertyOp49
 70
     1
102
RTVSPropertyOp50
 70
     1
102
RTVSPropertyOp51
 70
     0
102
RTVSPropertyOp52
 70
     0
102
RTVSPropertyOp53
 70
     1
102
RTVSPropertyOp54
 70
     1
102
RTVSPropertyOp55
 70
     1
102
RTVSPropertyOp56
 70
     1
102
RTVSPropertyOp57
 70
     1
102
RTVSPropertyOp58
 70
     1
102
RTVSPropertyOp59
 70
     1
102
RTVSPropertyOp60
 70
     1
102
RTVSPropertyOp61
 70
     1
102
RTVSPropertyOp62
 70
     1
  0
XRECORD
  5
157E6
102
{ACAD_REACTORS
330
157E5
102
}
330
157E5
100
AcDbXrecord
280
     1
102
RTVSPost2010Prop28
280
     0
102
RTVSPost2010PropOp28
 70
     1
102
RTVSPost2010Prop29
280
     1
102
RTVSPost2010PropOp29
 70
     1
102
RTVSPost2010Prop30
280
     1
102
RTVSPost2010PropOp30
 70
     1
102
RTVSPost2010Prop31
280
     0
102
RTVSPost2010PropOp31
 70
     1
102
RTVSPost2010Prop32
280
     0
102
RTVSPost2010PropOp32
 70
     1
102
RTVSPost2010Prop33
280
     0
102
RTVSPost2010PropOp33
 70
     1
102
RTVSPost2010Prop34
280
     0
102
RTVSPost2010PropOp34
 70
     1
102
RTVSPost2010Prop35
280
     0
102
RTVSPost2010PropOp35
 70
     1
102
RTVSPost2010Prop36
280
     0
102
RTVSPost2010PropOp36
 70
     1
102
RTVSPost2010Prop37
 90
       50
102
RTVSPost2010PropOp37
 70
     1
102
RTVSPost2010Prop38
140
0.0
102
RTVSPost2010PropOp38
 70
     1
102
RTVSPost2010Prop39
140
1.0
102
RTVSPost2010PropOp39
 70
     1
102
RTVSPost2010Prop40
 90
        0
102
RTVSPost2010PropOp40
 70
     1
102
RTVSPost2010Prop41ColorIndex
 90
       18
102
RTVSPost2010Prop41ColorRGB
 90
        0
102
RTVSPost2010PropOp41
 70
     1
102
RTVSPost2010Prop42
 90
       50
102
RTVSPost2010PropOp42
 70
     1
102
RTVSPost2010Prop43
 90
        3
102
RTVSPost2010PropOp43
 70
     1
102
RTVSPost2010Prop44ColorIndex
 90
        5
102
RTVSPost2010Prop44ColorRGB
 90
      255
102
RTVSPost2010PropOp44
 70
     1
102
RTVSPost2010Prop45
280
     0
102
RTVSPost2010PropOp45
 70
     1
102
RTVSPost2010Prop46
 90
       50
102
RTVSPost2010PropOp46
 70
     1
102
RTVSPost2010Prop47
 90
       50
102
RTVSPost2010PropOp47
 70
     1
102
RTVSPost2010Prop48
 90
       50
102
RTVSPost2010PropOp48
 70
     1
102
RTVSPost2010Prop49
280
     0
102
RTVSPost2010PropOp49
 70
     1
102
RTVSPost2010Prop50
 90
       50
102
RTVSPost2010PropOp50
 70
     1
102
RTVSPost2010Prop51ColorIndex
 90
      256
102
RTVSPost2010Prop51ColorRGB
 90
-16777216
102
RTVSPost2010PropOp51
 70
     0
102
RTVSPost2010Prop52
140
1.0
102
RTVSPost2010PropOp52
 70
     0
102
RTVSPost2010Prop53
 90
        2
102
RTVSPost2010PropOp53
 70
     1
102
RTVSPost2010Prop54
  1
strokes_ogs.tif
102
RTVSPost2010PropOp54
 70
     1
102
RTVSPost2010Prop55
280
     0
102
RTVSPost2010PropOp55
 70
     1
102
RTVSPost2010Prop56
140
1.0
102
RTVSPost2010PropOp56
 70
     1
102
RTVSPost2010Prop57
140
1.0
102
RTVSPost2010PropOp57
 70
     1
102
RTVSPropertyOp0
 70
     1
102
RTVSPropertyOp1
 70
     1
102
RTVSPropertyOp2
 70
     1
102
RTVSPropertyOp3
 70
     1
102
RTVSPropertyOp4
 70
     1
102
RTVSPropertyOp5
 70
     1
102
RTVSPropertyOp6
 70
     1
102
RTVSPropertyOp7
 70
     1
102
RTVSPropertyOp8
 70
     1
102
RTVSPropertyOp9
 70
     1
102
RTVSPropertyOp10
 70
     1
102
RTVSPropertyOp11
 70
     1
102
RTVSPropertyOp12
 70
     1
102
RTVSPropertyOp13
 70
     1
102
RTVSPropertyOp14
 70
     1
102
RTVSPropertyOp15
 70
     1
102
RTVSPropertyOp16
 70
     1
102
RTVSPropertyOp17
 70
     1
102
RTVSPropertyOp18
 70
     1
102
RTVSPropertyOp19
 70
     1
102
RTVSPropertyOp20
 70
     1
102
RTVSPropertyOp21
 70
     1
102
RTVSPropertyOp22
 70
     1
102
RTVSPropertyOp23
 70
     1
102
RTVSPropertyOp24
 70
     1
102
RTVSPropertyOp25
 70
     1
102
RTVSPropertyOp26
 70
     1
102
RTVSPropertyOp27
 70
     1
102
RTVSPropertyOp28
 70
     1
102
RTVSPropertyOp29
 70
     1
102
RTVSPropertyOp30
 70
     1
102
RTVSPropertyOp31
 70
     1
102
RTVSPropertyOp32
 70
     1
102
RTVSPropertyOp33
 70
     1
102
RTVSPropertyOp34
 70
     1
102
RTVSPropertyOp35
 70
     1
102
RTVSPropertyOp36
 70
     1
102
RTVSPropertyOp37
 70
     1
102
RTVSPropertyOp38
 70
     1
102
RTVSPropertyOp39
 70
     1
102
RTVSPropertyOp40
 70
     1
102
RTVSPropertyOp41
 70
     1
102
RTVSPropertyOp42
 70
     1
102
RTVSPropertyOp43
 70
     1
102
RTVSPropertyOp44
 70
     1
102
RTVSPropertyOp45
 70
     1
102
RTVSPropertyOp46
 70
     1
102
RTVSPropertyOp47
 70
     1
102
RTVSPropertyOp48
 70
     1
102
RTVSPropertyOp49
 70
     1
102
RTVSPropertyOp50
 70
     1
102
RTVSPropertyOp51
 70
     0
102
RTVSPropertyOp52
 70
     0
102
RTVSPropertyOp53
 70
     1
102
RTVSPropertyOp54
 70
     1
102
RTVSPropertyOp55
 70
     1
102
RTVSPropertyOp56
 70
     1
102
RTVSPropertyOp57
 70
     1
102
RTVSPropertyOp58
 70
     1
102
RTVSPropertyOp59
 70
     1
102
RTVSPropertyOp60
 70
     1
102
RTVSPropertyOp61
 70
     1
102
RTVSPropertyOp62
 70
     1
  0
XRECORD
  5
157E8
102
{ACAD_REACTORS
330
157E7
102
}
330
157E7
100
AcDbXrecord
280
     1
102
RTVSPost2010Prop28
280
     0
102
RTVSPost2010PropOp28
 70
     1
102
RTVSPost2010Prop29
280
     1
102
RTVSPost2010PropOp29
 70
     1
102
RTVSPost2010Prop30
280
     1
102
RTVSPost2010PropOp30
 70
     1
102
RTVSPost2010Prop31
280
     0
102
RTVSPost2010PropOp31
 70
     1
102
RTVSPost2010Prop32
280
     0
102
RTVSPost2010PropOp32
 70
     1
102
RTVSPost2010Prop33
280
     0
102
RTVSPost2010PropOp33
 70
     1
102
RTVSPost2010Prop34
280
     0
102
RTVSPost2010PropOp34
 70
     1
102
RTVSPost2010Prop35
280
     0
102
RTVSPost2010PropOp35
 70
     1
102
RTVSPost2010Prop36
280
     0
102
RTVSPost2010PropOp36
 70
     1
102
RTVSPost2010Prop37
 90
       50
102
RTVSPost2010PropOp37
 70
     1
102
RTVSPost2010Prop38
140
0.0
102
RTVSPost2010PropOp38
 70
     1
102
RTVSPost2010Prop39
140
1.0
102
RTVSPost2010PropOp39
 70
     1
102
RTVSPost2010Prop40
 90
        0
102
RTVSPost2010PropOp40
 70
     1
102
RTVSPost2010Prop41ColorIndex
 90
       18
102
RTVSPost2010Prop41ColorRGB
 90
        0
102
RTVSPost2010PropOp41
 70
     1
102
RTVSPost2010Prop42
 90
       50
102
RTVSPost2010PropOp42
 70
     1
102
RTVSPost2010Prop43
 90
        3
102
RTVSPost2010PropOp43
 70
     1
102
RTVSPost2010Prop44ColorIndex
 90
        5
102
RTVSPost2010Prop44ColorRGB
 90
      255
102
RTVSPost2010PropOp44
 70
     1
102
RTVSPost2010Prop45
280
     0
102
RTVSPost2010PropOp45
 70
     1
102
RTVSPost2010Prop46
 90
       50
102
RTVSPost2010PropOp46
 70
     1
102
RTVSPost2010Prop47
 90
       50
102
RTVSPost2010PropOp47
 70
     1
102
RTVSPost2010Prop48
 90
       50
102
RTVSPost2010PropOp48
 70
     1
102
RTVSPost2010Prop49
280
     0
102
RTVSPost2010PropOp49
 70
     1
102
RTVSPost2010Prop50
 90
       50
102
RTVSPost2010PropOp50
 70
     1
102
RTVSPost2010Prop51ColorIndex
 90
      256
102
RTVSPost2010Prop51ColorRGB
 90
-16777216
102
RTVSPost2010PropOp51
 70
     0
102
RTVSPost2010Prop52
140
1.0
102
RTVSPost2010PropOp52
 70
     0
102
RTVSPost2010Prop53
 90
        2
102
RTVSPost2010PropOp53
 70
     1
102
RTVSPost2010Prop54
  1
strokes_ogs.tif
102
RTVSPost2010PropOp54
 70
     1
102
RTVSPost2010Prop55
280
     0
102
RTVSPost2010PropOp55
 70
     1
102
RTVSPost2010Prop56
140
1.0
102
RTVSPost2010PropOp56
 70
     1
102
RTVSPost2010Prop57
140
1.0
102
RTVSPost2010PropOp57
 70
     1
102
RTVSPropertyOp0
 70
     1
102
RTVSPropertyOp1
 70
     1
102
RTVSPropertyOp2
 70
     1
102
RTVSPropertyOp3
 70
     1
102
RTVSPropertyOp4
 70
     1
102
RTVSPropertyOp5
 70
     1
102
RTVSPropertyOp6
 70
     1
102
RTVSPropertyOp7
 70
     1
102
RTVSPropertyOp8
 70
     1
102
RTVSPropertyOp9
 70
     1
102
RTVSPropertyOp10
 70
     1
102
RTVSPropertyOp11
 70
     1
102
RTVSPropertyOp12
 70
     1
102
RTVSPropertyOp13
 70
     1
102
RTVSPropertyOp14
 70
     1
102
RTVSPropertyOp15
 70
     1
102
RTVSPropertyOp16
 70
     1
102
RTVSPropertyOp17
 70
     1
102
RTVSPropertyOp18
 70
     1
102
RTVSPropertyOp19
 70
     1
102
RTVSPropertyOp20
 70
     1
102
RTVSPropertyOp21
 70
     1
102
RTVSPropertyOp22
 70
     1
102
RTVSPropertyOp23
 70
     1
102
RTVSPropertyOp24
 70
     1
102
RTVSPropertyOp25
 70
     1
102
RTVSPropertyOp26
 70
     1
102
RTVSPropertyOp27
 70
     1
102
RTVSPropertyOp28
 70
     1
102
RTVSPropertyOp29
 70
     1
102
RTVSPropertyOp30
 70
     1
102
RTVSPropertyOp31
 70
     1
102
RTVSPropertyOp32
 70
     1
102
RTVSPropertyOp33
 70
     1
102
RTVSPropertyOp34
 70
     1
102
RTVSPropertyOp35
 70
     1
102
RTVSPropertyOp36
 70
     1
102
RTVSPropertyOp37
 70
     1
102
RTVSPropertyOp38
 70
     1
102
RTVSPropertyOp39
 70
     1
102
RTVSPropertyOp40
 70
     1
102
RTVSPropertyOp41
 70
     1
102
RTVSPropertyOp42
 70
     1
102
RTVSPropertyOp43
 70
     1
102
RTVSPropertyOp44
 70
     1
102
RTVSPropertyOp45
 70
     1
102
RTVSPropertyOp46
 70
     1
102
RTVSPropertyOp47
 70
     1
102
RTVSPropertyOp48
 70
     1
102
RTVSPropertyOp49
 70
     1
102
RTVSPropertyOp50
 70
     1
102
RTVSPropertyOp51
 70
     0
102
RTVSPropertyOp52
 70
     0
102
RTVSPropertyOp53
 70
     1
102
RTVSPropertyOp54
 70
     1
102
RTVSPropertyOp55
 70
     1
102
RTVSPropertyOp56
 70
     1
102
RTVSPropertyOp57
 70
     1
102
RTVSPropertyOp58
 70
     1
102
RTVSPropertyOp59
 70
     1
102
RTVSPropertyOp60
 70
     1
102
RTVSPropertyOp61
 70
     1
102
RTVSPropertyOp62
 70
     1
  0
XRECORD
  5
157EA
102
{ACAD_REACTORS
330
157E9
102
}
330
157E9
100
AcDbXrecord
280
     1
102
RTVSPost2010Prop28
280
     0
102
RTVSPost2010PropOp28
 70
     1
102
RTVSPost2010Prop29
280
     1
102
RTVSPost2010PropOp29
 70
     1
102
RTVSPost2010Prop30
280
     1
102
RTVSPost2010PropOp30
 70
     1
102
RTVSPost2010Prop31
280
     0
102
RTVSPost2010PropOp31
 70
     1
102
RTVSPost2010Prop32
280
     0
102
RTVSPost2010PropOp32
 70
     1
102
RTVSPost2010Prop33
280
     0
102
RTVSPost2010PropOp33
 70
     1
102
RTVSPost2010Prop34
280
     0
102
RTVSPost2010PropOp34
 70
     1
102
RTVSPost2010Prop35
280
     0
102
RTVSPost2010PropOp35
 70
     1
102
RTVSPost2010Prop36
280
     0
102
RTVSPost2010PropOp36
 70
     1
102
RTVSPost2010Prop37
 90
       50
102
RTVSPost2010PropOp37
 70
     1
102
RTVSPost2010Prop38
140
0.0
102
RTVSPost2010PropOp38
 70
     1
102
RTVSPost2010Prop39
140
1.0
102
RTVSPost2010PropOp39
 70
     1
102
RTVSPost2010Prop40
 90
        0
102
RTVSPost2010PropOp40
 70
     1
102
RTVSPost2010Prop41ColorIndex
 90
       18
102
RTVSPost2010Prop41ColorRGB
 90
        0
102
RTVSPost2010PropOp41
 70
     1
102
RTVSPost2010Prop42
 90
       50
102
RTVSPost2010PropOp42
 70
     1
102
RTVSPost2010Prop43
 90
        3
102
RTVSPost2010PropOp43
 70
     1
102
RTVSPost2010Prop44ColorIndex
 90
        5
102
RTVSPost2010Prop44ColorRGB
 90
      255
102
RTVSPost2010PropOp44
 70
     1
102
RTVSPost2010Prop45
280
     0
102
RTVSPost2010PropOp45
 70
     1
102
RTVSPost2010Prop46
 90
       50
102
RTVSPost2010PropOp46
 70
     1
102
RTVSPost2010Prop47
 90
       50
102
RTVSPost2010PropOp47
 70
     1
102
RTVSPost2010Prop48
 90
       50
102
RTVSPost2010PropOp48
 70
     1
102
RTVSPost2010Prop49
280
     0
102
RTVSPost2010PropOp49
 70
     1
102
RTVSPost2010Prop50
 90
       50
102
RTVSPost2010PropOp50
 70
     1
102
RTVSPost2010Prop51ColorIndex
 90
      256
102
RTVSPost2010Prop51ColorRGB
 90
-16777216
102
RTVSPost2010PropOp51
 70
     0
102
RTVSPost2010Prop52
140
1.0
102
RTVSPost2010PropOp52
 70
     0
102
RTVSPost2010Prop53
 90
        2
102
RTVSPost2010PropOp53
 70
     1
102
RTVSPost2010Prop54
  1
strokes_ogs.tif
102
RTVSPost2010PropOp54
 70
     1
102
RTVSPost2010Prop55
280
     0
102
RTVSPost2010PropOp55
 70
     1
102
RTVSPost2010Prop56
140
1.0
102
RTVSPost2010PropOp56
 70
     1
102
RTVSPost2010Prop57
140
1.0
102
RTVSPost2010PropOp57
 70
     1
102
RTVSPropertyOp0
 70
     1
102
RTVSPropertyOp1
 70
     1
102
RTVSPropertyOp2
 70
     1
102
RTVSPropertyOp3
 70
     1
102
RTVSPropertyOp4
 70
     1
102
RTVSPropertyOp5
 70
     1
102
RTVSPropertyOp6
 70
     1
102
RTVSPropertyOp7
 70
     1
102
RTVSPropertyOp8
 70
     1
102
RTVSPropertyOp9
 70
     1
102
RTVSPropertyOp10
 70
     1
102
RTVSPropertyOp11
 70
     1
102
RTVSPropertyOp12
 70
     1
102
RTVSPropertyOp13
 70
     1
102
RTVSPropertyOp14
 70
     1
102
RTVSPropertyOp15
 70
     1
102
RTVSPropertyOp16
 70
     1
102
RTVSPropertyOp17
 70
     1
102
RTVSPropertyOp18
 70
     1
102
RTVSPropertyOp19
 70
     1
102
RTVSPropertyOp20
 70
     1
102
RTVSPropertyOp21
 70
     1
102
RTVSPropertyOp22
 70
     1
102
RTVSPropertyOp23
 70
     1
102
RTVSPropertyOp24
 70
     1
102
RTVSPropertyOp25
 70
     1
102
RTVSPropertyOp26
 70
     1
102
RTVSPropertyOp27
 70
     1
102
RTVSPropertyOp28
 70
     1
102
RTVSPropertyOp29
 70
     1
102
RTVSPropertyOp30
 70
     1
102
RTVSPropertyOp31
 70
     1
102
RTVSPropertyOp32
 70
     1
102
RTVSPropertyOp33
 70
     1
102
RTVSPropertyOp34
 70
     1
102
RTVSPropertyOp35
 70
     1
102
RTVSPropertyOp36
 70
     1
102
RTVSPropertyOp37
 70
     1
102
RTVSPropertyOp38
 70
     1
102
RTVSPropertyOp39
 70
     1
102
RTVSPropertyOp40
 70
     1
102
RTVSPropertyOp41
 70
     1
102
RTVSPropertyOp42
 70
     1
102
RTVSPropertyOp43
 70
     1
102
RTVSPropertyOp44
 70
     1
102
RTVSPropertyOp45
 70
     1
102
RTVSPropertyOp46
 70
     1
102
RTVSPropertyOp47
 70
     1
102
RTVSPropertyOp48
 70
     1
102
RTVSPropertyOp49
 70
     1
102
RTVSPropertyOp50
 70
     1
102
RTVSPropertyOp51
 70
     0
102
RTVSPropertyOp52
 70
     0
102
RTVSPropertyOp53
 70
     1
102
RTVSPropertyOp54
 70
     1
102
RTVSPropertyOp55
 70
     1
102
RTVSPropertyOp56
 70
     1
102
RTVSPropertyOp57
 70
     1
102
RTVSPropertyOp58
 70
     1
102
RTVSPropertyOp59
 70
     1
102
RTVSPropertyOp60
 70
     1
102
RTVSPropertyOp61
 70
     1
102
RTVSPropertyOp62
 70
     1
  0
XRECORD
  5
157EC
102
{ACAD_REACTORS
330
157EB
102
}
330
157EB
100
AcDbXrecord
280
     1
102
RTVSPost2010Prop28
280
     0
102
RTVSPost2010PropOp28
 70
     1
102
RTVSPost2010Prop29
280
     1
102
RTVSPost2010PropOp29
 70
     1
102
RTVSPost2010Prop30
280
     1
102
RTVSPost2010PropOp30
 70
     1
102
RTVSPost2010Prop31
280
     0
102
RTVSPost2010PropOp31
 70
     1
102
RTVSPost2010Prop32
280
     0
102
RTVSPost2010PropOp32
 70
     1
102
RTVSPost2010Prop33
280
     0
102
RTVSPost2010PropOp33
 70
     1
102
RTVSPost2010Prop34
280
     0
102
RTVSPost2010PropOp34
 70
     1
102
RTVSPost2010Prop35
280
     0
102
RTVSPost2010PropOp35
 70
     1
102
RTVSPost2010Prop36
280
     0
102
RTVSPost2010PropOp36
 70
     1
102
RTVSPost2010Prop37
 90
       50
102
RTVSPost2010PropOp37
 70
     1
102
RTVSPost2010Prop38
140
0.0
102
RTVSPost2010PropOp38
 70
     1
102
RTVSPost2010Prop39
140
1.0
102
RTVSPost2010PropOp39
 70
     1
102
RTVSPost2010Prop40
 90
        0
102
RTVSPost2010PropOp40
 70
     1
102
RTVSPost2010Prop41ColorIndex
 90
       18
102
RTVSPost2010Prop41ColorRGB
 90
        0
102
RTVSPost2010PropOp41
 70
     1
102
RTVSPost2010Prop42
 90
       50
102
RTVSPost2010PropOp42
 70
     1
102
RTVSPost2010Prop43
 90
        3
102
RTVSPost2010PropOp43
 70
     1
102
RTVSPost2010Prop44ColorIndex
 90
        5
102
RTVSPost2010Prop44ColorRGB
 90
      255
102
RTVSPost2010PropOp44
 70
     1
102
RTVSPost2010Prop45
280
     0
102
RTVSPost2010PropOp45
 70
     1
102
RTVSPost2010Prop46
 90
       50
102
RTVSPost2010PropOp46
 70
     1
102
RTVSPost2010Prop47
 90
       50
102
RTVSPost2010PropOp47
 70
     1
102
RTVSPost2010Prop48
 90
       50
102
RTVSPost2010PropOp48
 70
     1
102
RTVSPost2010Prop49
280
     0
102
RTVSPost2010PropOp49
 70
     1
102
RTVSPost2010Prop50
 90
       50
102
RTVSPost2010PropOp50
 70
     1
102
RTVSPost2010Prop51ColorIndex
 90
      256
102
RTVSPost2010Prop51ColorRGB
 90
-16777216
102
RTVSPost2010PropOp51
 70
     0
102
RTVSPost2010Prop52
140
1.0
102
RTVSPost2010PropOp52
 70
     0
102
RTVSPost2010Prop53
 90
        2
102
RTVSPost2010PropOp53
 70
     1
102
RTVSPost2010Prop54
  1
strokes_ogs.tif
102
RTVSPost2010PropOp54
 70
     1
102
RTVSPost2010Prop55
280
     0
102
RTVSPost2010PropOp55
 70
     1
102
RTVSPost2010Prop56
140
1.0
102
RTVSPost2010PropOp56
 70
     1
102
RTVSPost2010Prop57
140
1.0
102
RTVSPost2010PropOp57
 70
     1
102
RTVSPropertyOp0
 70
     1
102
RTVSPropertyOp1
 70
     1
102
RTVSPropertyOp2
 70
     1
102
RTVSPropertyOp3
 70
     1
102
RTVSPropertyOp4
 70
     1
102
RTVSPropertyOp5
 70
     1
102
RTVSPropertyOp6
 70
     1
102
RTVSPropertyOp7
 70
     1
102
RTVSPropertyOp8
 70
     1
102
RTVSPropertyOp9
 70
     1
102
RTVSPropertyOp10
 70
     1
102
RTVSPropertyOp11
 70
     1
102
RTVSPropertyOp12
 70
     1
102
RTVSPropertyOp13
 70
     1
102
RTVSPropertyOp14
 70
     1
102
RTVSPropertyOp15
 70
     1
102
RTVSPropertyOp16
 70
     1
102
RTVSPropertyOp17
 70
     1
102
RTVSPropertyOp18
 70
     1
102
RTVSPropertyOp19
 70
     1
102
RTVSPropertyOp20
 70
     1
102
RTVSPropertyOp21
 70
     1
102
RTVSPropertyOp22
 70
     1
102
RTVSPropertyOp23
 70
     1
102
RTVSPropertyOp24
 70
     1
102
RTVSPropertyOp25
 70
     1
102
RTVSPropertyOp26
 70
     1
102
RTVSPropertyOp27
 70
     1
102
RTVSPropertyOp28
 70
     1
102
RTVSPropertyOp29
 70
     1
102
RTVSPropertyOp30
 70
     1
102
RTVSPropertyOp31
 70
     1
102
RTVSPropertyOp32
 70
     1
102
RTVSPropertyOp33
 70
     1
102
RTVSPropertyOp34
 70
     1
102
RTVSPropertyOp35
 70
     1
102
RTVSPropertyOp36
 70
     1
102
RTVSPropertyOp37
 70
     1
102
RTVSPropertyOp38
 70
     1
102
RTVSPropertyOp39
 70
     1
102
RTVSPropertyOp40
 70
     1
102
RTVSPropertyOp41
 70
     1
102
RTVSPropertyOp42
 70
     1
102
RTVSPropertyOp43
 70
     1
102
RTVSPropertyOp44
 70
     1
102
RTVSPropertyOp45
 70
     1
102
RTVSPropertyOp46
 70
     1
102
RTVSPropertyOp47
 70
     1
102
RTVSPropertyOp48
 70
     1
102
RTVSPropertyOp49
 70
     1
102
RTVSPropertyOp50
 70
     1
102
RTVSPropertyOp51
 70
     0
102
RTVSPropertyOp52
 70
     0
102
RTVSPropertyOp53
 70
     1
102
RTVSPropertyOp54
 70
     1
102
RTVSPropertyOp55
 70
     1
102
RTVSPropertyOp56
 70
     1
102
RTVSPropertyOp57
 70
     1
102
RTVSPropertyOp58
 70
     1
102
RTVSPropertyOp59
 70
     1
102
RTVSPropertyOp60
 70
     1
102
RTVSPropertyOp61
 70
     1
102
RTVSPropertyOp62
 70
     1
  0
XRECORD
  5
157F4
102
{ACAD_REACTORS
330
157F3
102
}
330
157F3
100
AcDbXrecord
280
     1
102
RTVSPost2010Prop28
280
     0
102
RTVSPost2010PropOp28
 70
     1
102
RTVSPost2010Prop29
280
     1
102
RTVSPost2010PropOp29
 70
     1
102
RTVSPost2010Prop30
280
     1
102
RTVSPost2010PropOp30
 70
     1
102
RTVSPost2010Prop31
280
     0
102
RTVSPost2010PropOp31
 70
     1
102
RTVSPost2010Prop32
280
     0
102
RTVSPost2010PropOp32
 70
     1
102
RTVSPost2010Prop33
280
     0
102
RTVSPost2010PropOp33
 70
     1
102
RTVSPost2010Prop34
280
     0
102
RTVSPost2010PropOp34
 70
     1
102
RTVSPost2010Prop35
280
     0
102
RTVSPost2010PropOp35
 70
     1
102
RTVSPost2010Prop36
280
     0
102
RTVSPost2010PropOp36
 70
     1
102
RTVSPost2010Prop37
 90
       50
102
RTVSPost2010PropOp37
 70
     1
102
RTVSPost2010Prop38
140
0.0
102
RTVSPost2010PropOp38
 70
     1
102
RTVSPost2010Prop39
140
1.0
102
RTVSPost2010PropOp39
 70
     1
102
RTVSPost2010Prop40
 90
        0
102
RTVSPost2010PropOp40
 70
     1
102
RTVSPost2010Prop41ColorIndex
 90
       18
102
RTVSPost2010Prop41ColorRGB
 90
        0
102
RTVSPost2010PropOp41
 70
     1
102
RTVSPost2010Prop42
 90
       50
102
RTVSPost2010PropOp42
 70
     1
102
RTVSPost2010Prop43
 90
        3
102
RTVSPost2010PropOp43
 70
     1
102
RTVSPost2010Prop44ColorIndex
 90
        5
102
RTVSPost2010Prop44ColorRGB
 90
      255
102
RTVSPost2010PropOp44
 70
     1
102
RTVSPost2010Prop45
280
     0
102
RTVSPost2010PropOp45
 70
     1
102
RTVSPost2010Prop46
 90
       50
102
RTVSPost2010PropOp46
 70
     1
102
RTVSPost2010Prop47
 90
       50
102
RTVSPost2010PropOp47
 70
     1
102
RTVSPost2010Prop48
 90
       50
102
RTVSPost2010PropOp48
 70
     1
102
RTVSPost2010Prop49
280
     0
102
RTVSPost2010PropOp49
 70
     1
102
RTVSPost2010Prop50
 90
       50
102
RTVSPost2010PropOp50
 70
     1
102
RTVSPost2010Prop51ColorIndex
 90
      256
102
RTVSPost2010Prop51ColorRGB
 90
-16777216
102
RTVSPost2010PropOp51
 70
     0
102
RTVSPost2010Prop52
140
1.0
102
RTVSPost2010PropOp52
 70
     0
102
RTVSPost2010Prop53
 90
        2
102
RTVSPost2010PropOp53
 70
     1
102
RTVSPost2010Prop54
  1
strokes_ogs.tif
102
RTVSPost2010PropOp54
 70
     1
102
RTVSPost2010Prop55
280
     0
102
RTVSPost2010PropOp55
 70
     1
102
RTVSPost2010Prop56
140
1.0
102
RTVSPost2010PropOp56
 70
     1
102
RTVSPost2010Prop57
140
1.0
102
RTVSPost2010PropOp57
 70
     1
102
RTVSPropertyOp0
 70
     1
102
RTVSPropertyOp1
 70
     1
102
RTVSPropertyOp2
 70
     1
102
RTVSPropertyOp3
 70
     1
102
RTVSPropertyOp4
 70
     1
102
RTVSPropertyOp5
 70
     1
102
RTVSPropertyOp6
 70
     1
102
RTVSPropertyOp7
 70
     1
102
RTVSPropertyOp8
 70
     1
102
RTVSPropertyOp9
 70
     1
102
RTVSPropertyOp10
 70
     1
102
RTVSPropertyOp11
 70
     1
102
RTVSPropertyOp12
 70
     1
102
RTVSPropertyOp13
 70
     1
102
RTVSPropertyOp14
 70
     1
102
RTVSPropertyOp15
 70
     1
102
RTVSPropertyOp16
 70
     1
102
RTVSPropertyOp17
 70
     1
102
RTVSPropertyOp18
 70
     1
102
RTVSPropertyOp19
 70
     1
102
RTVSPropertyOp20
 70
     1
102
RTVSPropertyOp21
 70
     1
102
RTVSPropertyOp22
 70
     1
102
RTVSPropertyOp23
 70
     1
102
RTVSPropertyOp24
 70
     1
102
RTVSPropertyOp25
 70
     1
102
RTVSPropertyOp26
 70
     1
102
RTVSPropertyOp27
 70
     1
102
RTVSPropertyOp28
 70
     1
102
RTVSPropertyOp29
 70
     1
102
RTVSPropertyOp30
 70
     1
102
RTVSPropertyOp31
 70
     1
102
RTVSPropertyOp32
 70
     1
102
RTVSPropertyOp33
 70
     1
102
RTVSPropertyOp34
 70
     1
102
RTVSPropertyOp35
 70
     1
102
RTVSPropertyOp36
 70
     1
102
RTVSPropertyOp37
 70
     1
102
RTVSPropertyOp38
 70
     1
102
RTVSPropertyOp39
 70
     1
102
RTVSPropertyOp40
 70
     1
102
RTVSPropertyOp41
 70
     1
102
RTVSPropertyOp42
 70
     1
102
RTVSPropertyOp43
 70
     1
102
RTVSPropertyOp44
 70
     1
102
RTVSPropertyOp45
 70
     1
102
RTVSPropertyOp46
 70
     1
102
RTVSPropertyOp47
 70
     1
102
RTVSPropertyOp48
 70
     1
102
RTVSPropertyOp49
 70
     1
102
RTVSPropertyOp50
 70
     1
102
RTVSPropertyOp51
 70
     0
102
RTVSPropertyOp52
 70
     0
102
RTVSPropertyOp53
 70
     1
102
RTVSPropertyOp54
 70
     1
102
RTVSPropertyOp55
 70
     1
102
RTVSPropertyOp56
 70
     1
102
RTVSPropertyOp57
 70
     1
102
RTVSPropertyOp58
 70
     1
102
RTVSPropertyOp59
 70
     1
102
RTVSPropertyOp60
 70
     1
102
RTVSPropertyOp61
 70
     1
102
RTVSPropertyOp62
 70
     1
  0
XRECORD
  5
15810
102
{ACAD_REACTORS
330
1580F
102
}
330
1580F
100
AcDbXrecord
280
     1
102
RTVSPost2010Prop28
280
     0
102
RTVSPost2010PropOp28
 70
     0
102
RTVSPost2010Prop29
280
     1
102
RTVSPost2010PropOp29
 70
     0
102
RTVSPost2010Prop30
280
     1
102
RTVSPost2010PropOp30
 70
     0
102
RTVSPost2010Prop31
280
     0
102
RTVSPost2010PropOp31
 70
     0
102
RTVSPost2010Prop32
280
     0
102
RTVSPost2010PropOp32
 70
     0
102
RTVSPost2010Prop33
280
     0
102
RTVSPost2010PropOp33
 70
     0
102
RTVSPost2010Prop34
280
     0
102
RTVSPost2010PropOp34
 70
     0
102
RTVSPost2010Prop35
280
     0
102
RTVSPost2010PropOp35
 70
     0
102
RTVSPost2010Prop36
280
     0
102
RTVSPost2010PropOp36
 70
     0
102
RTVSPost2010Prop37
 90
       50
102
RTVSPost2010PropOp37
 70
     0
102
RTVSPost2010Prop38
140
0.0
102
RTVSPost2010PropOp38
 70
     0
102
RTVSPost2010Prop39
140
1.0
102
RTVSPost2010PropOp39
 70
     0
102
RTVSPost2010Prop40
 90
        0
102
RTVSPost2010PropOp40
 70
     0
102
RTVSPost2010Prop41ColorIndex
 90
       18
102
RTVSPost2010Prop41ColorRGB
 90
        0
102
RTVSPost2010PropOp41
 70
     0
102
RTVSPost2010Prop42
 90
       50
102
RTVSPost2010PropOp42
 70
     0
102
RTVSPost2010Prop43
 90
        3
102
RTVSPost2010PropOp43
 70
     0
102
RTVSPost2010Prop44ColorIndex
 90
        5
102
RTVSPost2010Prop44ColorRGB
 90
      255
102
RTVSPost2010PropOp44
 70
     0
102
RTVSPost2010Prop45
280
     0
102
RTVSPost2010PropOp45
 70
     0
102
RTVSPost2010Prop46
 90
       50
102
RTVSPost2010PropOp46
 70
     0
102
RTVSPost2010Prop47
 90
       50
102
RTVSPost2010PropOp47
 70
     0
102
RTVSPost2010Prop48
 90
       50
102
RTVSPost2010PropOp48
 70
     0
102
RTVSPost2010Prop49
280
     0
102
RTVSPost2010PropOp49
 70
     0
102
RTVSPost2010Prop50
 90
       50
102
RTVSPost2010PropOp50
 70
     0
102
RTVSPost2010Prop51ColorIndex
 90
      256
102
RTVSPost2010Prop51ColorRGB
 90
-16777216
102
RTVSPost2010PropOp51
 70
     0
102
RTVSPost2010Prop52
140
1.0
102
RTVSPost2010PropOp52
 70
     0
102
RTVSPost2010Prop53
 90
        2
102
RTVSPost2010PropOp53
 70
     0
102
RTVSPost2010Prop54
  1
strokes_ogs.tif
102
RTVSPost2010PropOp54
 70
     0
102
RTVSPost2010Prop55
280
     0
102
RTVSPost2010PropOp55
 70
     0
102
RTVSPost2010Prop56
140
1.0
102
RTVSPost2010PropOp56
 70
     0
102
RTVSPost2010Prop57
140
1.0
102
RTVSPost2010PropOp57
 70
     0
102
RTVSPropertyOp0
 70
     0
102
RTVSPropertyOp1
 70
     0
102
RTVSPropertyOp2
 70
     0
102
RTVSPropertyOp3
 70
     0
102
RTVSPropertyOp4
 70
     0
102
RTVSPropertyOp5
 70
     0
102
RTVSPropertyOp6
 70
     0
102
RTVSPropertyOp7
 70
     0
102
RTVSPropertyOp8
 70
     0
102
RTVSPropertyOp9
 70
     0
102
RTVSPropertyOp10
 70
     0
102
RTVSPropertyOp11
 70
     0
102
RTVSPropertyOp12
 70
     0
102
RTVSPropertyOp13
 70
     0
102
RTVSPropertyOp14
 70
     2
102
RTVSPropertyOp15
 70
     0
102
RTVSPropertyOp16
 70
     0
102
RTVSPropertyOp17
 70
     0
102
RTVSPropertyOp18
 70
     0
102
RTVSPropertyOp19
 70
     0
102
RTVSPropertyOp20
 70
     0
102
RTVSPropertyOp21
 70
     0
102
RTVSPropertyOp22
 70
     0
102
RTVSPropertyOp23
 70
     0
102
RTVSPropertyOp24
 70
     0
102
RTVSPropertyOp25
 70
     0
102
RTVSPropertyOp26
 70
     0
102
RTVSPropertyOp27
 70
     0
102
RTVSPropertyOp28
 70
     0
102
RTVSPropertyOp29
 70
     0
102
RTVSPropertyOp30
 70
     0
102
RTVSPropertyOp31
 70
     0
102
RTVSPropertyOp32
 70
     0
102
RTVSPropertyOp33
 70
     0
102
RTVSPropertyOp34
 70
     0
102
RTVSPropertyOp35
 70
     0
102
RTVSPropertyOp36
 70
     0
102
RTVSPropertyOp37
 70
     0
102
RTVSPropertyOp38
 70
     0
102
RTVSPropertyOp39
 70
     0
102
RTVSPropertyOp40
 70
     0
102
RTVSPropertyOp41
 70
     0
102
RTVSPropertyOp42
 70
     0
102
RTVSPropertyOp43
 70
     0
102
RTVSPropertyOp44
 70
     0
102
RTVSPropertyOp45
 70
     0
102
RTVSPropertyOp46
 70
     0
102
RTVSPropertyOp47
 70
     0
102
RTVSPropertyOp48
 70
     0
102
RTVSPropertyOp49
 70
     0
102
RTVSPropertyOp50
 70
     0
102
RTVSPropertyOp51
 70
     0
102
RTVSPropertyOp52
 70
     0
102
RTVSPropertyOp53
 70
     0
102
RTVSPropertyOp54
 70
     0
102
RTVSPropertyOp55
 70
     0
102
RTVSPropertyOp56
 70
     0
102
RTVSPropertyOp57
 70
     0
102
RTVSPropertyOp58
 70
     0
102
RTVSPropertyOp59
 70
     0
102
RTVSPropertyOp60
 70
     0
102
RTVSPropertyOp61
 70
     0
102
RTVSPropertyOp62
 70
     0
  0
XRECORD
  5
15800
102
{ACAD_REACTORS
330
157FF
102
}
330
157FF
100
AcDbXrecord
280
     1
102
RTVSPost2010Prop28
280
     0
102
RTVSPost2010PropOp28
 70
     1
102
RTVSPost2010Prop29
280
     1
102
RTVSPost2010PropOp29
 70
     1
102
RTVSPost2010Prop30
280
     1
102
RTVSPost2010PropOp30
 70
     1
102
RTVSPost2010Prop31
280
     0
102
RTVSPost2010PropOp31
 70
     1
102
RTVSPost2010Prop32
280
     0
102
RTVSPost2010PropOp32
 70
     1
102
RTVSPost2010Prop33
280
     0
102
RTVSPost2010PropOp33
 70
     1
102
RTVSPost2010Prop34
280
     0
102
RTVSPost2010PropOp34
 70
     1
102
RTVSPost2010Prop35
280
     0
102
RTVSPost2010PropOp35
 70
     1
102
RTVSPost2010Prop36
280
     0
102
RTVSPost2010PropOp36
 70
     1
102
RTVSPost2010Prop37
 90
       50
102
RTVSPost2010PropOp37
 70
     1
102
RTVSPost2010Prop38
140
0.0
102
RTVSPost2010PropOp38
 70
     1
102
RTVSPost2010Prop39
140
1.0
102
RTVSPost2010PropOp39
 70
     1
102
RTVSPost2010Prop40
 90
        0
102
RTVSPost2010PropOp40
 70
     1
102
RTVSPost2010Prop41ColorIndex
 90
       18
102
RTVSPost2010Prop41ColorRGB
 90
        0
102
RTVSPost2010PropOp41
 70
     1
102
RTVSPost2010Prop42
 90
       50
102
RTVSPost2010PropOp42
 70
     1
102
RTVSPost2010Prop43
 90
        3
102
RTVSPost2010PropOp43
 70
     1
102
RTVSPost2010Prop44ColorIndex
 90
        5
102
RTVSPost2010Prop44ColorRGB
 90
      255
102
RTVSPost2010PropOp44
 70
     1
102
RTVSPost2010Prop45
280
     0
102
RTVSPost2010PropOp45
 70
     1
102
RTVSPost2010Prop46
 90
       50
102
RTVSPost2010PropOp46
 70
     1
102
RTVSPost2010Prop47
 90
       50
102
RTVSPost2010PropOp47
 70
     1
102
RTVSPost2010Prop48
 90
       50
102
RTVSPost2010PropOp48
 70
     1
102
RTVSPost2010Prop49
280
     0
102
RTVSPost2010PropOp49
 70
     1
102
RTVSPost2010Prop50
 90
       50
102
RTVSPost2010PropOp50
 70
     1
102
RTVSPost2010Prop51ColorIndex
 90
      256
102
RTVSPost2010Prop51ColorRGB
 90
-16777216
102
RTVSPost2010PropOp51
 70
     0
102
RTVSPost2010Prop52
140
1.0
102
RTVSPost2010PropOp52
 70
     0
102
RTVSPost2010Prop53
 90
        2
102
RTVSPost2010PropOp53
 70
     1
102
RTVSPost2010Prop54
  1
strokes_ogs.tif
102
RTVSPost2010PropOp54
 70
     1
102
RTVSPost2010Prop55
280
     0
102
RTVSPost2010PropOp55
 70
     1
102
RTVSPost2010Prop56
140
1.0
102
RTVSPost2010PropOp56
 70
     1
102
RTVSPost2010Prop57
140
1.0
102
RTVSPost2010PropOp57
 70
     1
102
RTVSPropertyOp0
 70
     1
102
RTVSPropertyOp1
 70
     1
102
RTVSPropertyOp2
 70
     1
102
RTVSPropertyOp3
 70
     1
102
RTVSPropertyOp4
 70
     1
102
RTVSPropertyOp5
 70
     1
102
RTVSPropertyOp6
 70
     1
102
RTVSPropertyOp7
 70
     1
102
RTVSPropertyOp8
 70
     1
102
RTVSPropertyOp9
 70
     1
102
RTVSPropertyOp10
 70
     1
102
RTVSPropertyOp11
 70
     1
102
RTVSPropertyOp12
 70
     1
102
RTVSPropertyOp13
 70
     1
102
RTVSPropertyOp14
 70
     1
102
RTVSPropertyOp15
 70
     1
102
RTVSPropertyOp16
 70
     1
102
RTVSPropertyOp17
 70
     1
102
RTVSPropertyOp18
 70
     1
102
RTVSPropertyOp19
 70
     1
102
RTVSPropertyOp20
 70
     1
102
RTVSPropertyOp21
 70
     1
102
RTVSPropertyOp22
 70
     1
102
RTVSPropertyOp23
 70
     1
102
RTVSPropertyOp24
 70
     1
102
RTVSPropertyOp25
 70
     1
102
RTVSPropertyOp26
 70
     1
102
RTVSPropertyOp27
 70
     1
102
RTVSPropertyOp28
 70
     1
102
RTVSPropertyOp29
 70
     1
102
RTVSPropertyOp30
 70
     1
102
RTVSPropertyOp31
 70
     1
102
RTVSPropertyOp32
 70
     1
102
RTVSPropertyOp33
 70
     1
102
RTVSPropertyOp34
 70
     1
102
RTVSPropertyOp35
 70
     1
102
RTVSPropertyOp36
 70
     1
102
RTVSPropertyOp37
 70
     1
102
RTVSPropertyOp38
 70
     1
102
RTVSPropertyOp39
 70
     1
102
RTVSPropertyOp40
 70
     1
102
RTVSPropertyOp41
 70
     1
102
RTVSPropertyOp42
 70
     1
102
RTVSPropertyOp43
 70
     1
102
RTVSPropertyOp44
 70
     1
102
RTVSPropertyOp45
 70
     1
102
RTVSPropertyOp46
 70
     1
102
RTVSPropertyOp47
 70
     1
102
RTVSPropertyOp48
 70
     1
102
RTVSPropertyOp49
 70
     1
102
RTVSPropertyOp50
 70
     1
102
RTVSPropertyOp51
 70
     0
102
RTVSPropertyOp52
 70
     0
102
RTVSPropertyOp53
 70
     1
102
RTVSPropertyOp54
 70
     1
102
RTVSPropertyOp55
 70
     1
102
RTVSPropertyOp56
 70
     1
102
RTVSPropertyOp57
 70
     1
102
RTVSPropertyOp58
 70
     1
102
RTVSPropertyOp59
 70
     1
102
RTVSPropertyOp60
 70
     1
102
RTVSPropertyOp61
 70
     1
102
RTVSPropertyOp62
 70
     1
  0
XRECORD
  5
15812
102
{ACAD_REACTORS
330
15811
102
}
330
15811
100
AcDbXrecord
280
     1
102
RTVSPost2010Prop28
280
     0
102
RTVSPost2010PropOp28
 70
     0
102
RTVSPost2010Prop29
280
     1
102
RTVSPost2010PropOp29
 70
     0
102
RTVSPost2010Prop30
280
     1
102
RTVSPost2010PropOp30
 70
     0
102
RTVSPost2010Prop31
280
     0
102
RTVSPost2010PropOp31
 70
     0
102
RTVSPost2010Prop32
280
     0
102
RTVSPost2010PropOp32
 70
     0
102
RTVSPost2010Prop33
280
     0
102
RTVSPost2010PropOp33
 70
     0
102
RTVSPost2010Prop34
280
     0
102
RTVSPost2010PropOp34
 70
     0
102
RTVSPost2010Prop35
280
     0
102
RTVSPost2010PropOp35
 70
     0
102
RTVSPost2010Prop36
280
     0
102
RTVSPost2010PropOp36
 70
     0
102
RTVSPost2010Prop37
 90
       50
102
RTVSPost2010PropOp37
 70
     0
102
RTVSPost2010Prop38
140
0.0
102
RTVSPost2010PropOp38
 70
     0
102
RTVSPost2010Prop39
140
1.0
102
RTVSPost2010PropOp39
 70
     0
102
RTVSPost2010Prop40
 90
        0
102
RTVSPost2010PropOp40
 70
     0
102
RTVSPost2010Prop41ColorIndex
 90
       18
102
RTVSPost2010Prop41ColorRGB
 90
        0
102
RTVSPost2010PropOp41
 70
     0
102
RTVSPost2010Prop42
 90
       50
102
RTVSPost2010PropOp42
 70
     0
102
RTVSPost2010Prop43
 90
        3
102
RTVSPost2010PropOp43
 70
     0
102
RTVSPost2010Prop44ColorIndex
 90
        5
102
RTVSPost2010Prop44ColorRGB
 90
      255
102
RTVSPost2010PropOp44
 70
     0
102
RTVSPost2010Prop45
280
     0
102
RTVSPost2010PropOp45
 70
     0
102
RTVSPost2010Prop46
 90
       50
102
RTVSPost2010PropOp46
 70
     0
102
RTVSPost2010Prop47
 90
       50
102
RTVSPost2010PropOp47
 70
     0
102
RTVSPost2010Prop48
 90
       50
102
RTVSPost2010PropOp48
 70
     0
102
RTVSPost2010Prop49
280
     0
102
RTVSPost2010PropOp49
 70
     0
102
RTVSPost2010Prop50
 90
       50
102
RTVSPost2010PropOp50
 70
     0
102
RTVSPost2010Prop51ColorIndex
 90
      256
102
RTVSPost2010Prop51ColorRGB
 90
-16777216
102
RTVSPost2010PropOp51
 70
     0
102
RTVSPost2010Prop52
140
1.0
102
RTVSPost2010PropOp52
 70
     0
102
RTVSPost2010Prop53
 90
        2
102
RTVSPost2010PropOp53
 70
     0
102
RTVSPost2010Prop54
  1
strokes_ogs.tif
102
RTVSPost2010PropOp54
 70
     0
102
RTVSPost2010Prop55
280
     0
102
RTVSPost2010PropOp55
 70
     0
102
RTVSPost2010Prop56
140
1.0
102
RTVSPost2010PropOp56
 70
     0
102
RTVSPost2010Prop57
140
1.0
102
RTVSPost2010PropOp57
 70
     0
102
RTVSPropertyOp0
 70
     0
102
RTVSPropertyOp1
 70
     0
102
RTVSPropertyOp2
 70
     0
102
RTVSPropertyOp3
 70
     0
102
RTVSPropertyOp4
 70
     0
102
RTVSPropertyOp5
 70
     0
102
RTVSPropertyOp6
 70
     0
102
RTVSPropertyOp7
 70
     0
102
RTVSPropertyOp8
 70
     0
102
RTVSPropertyOp9
 70
     0
102
RTVSPropertyOp10
 70
     0
102
RTVSPropertyOp11
 70
     0
102
RTVSPropertyOp12
 70
     0
102
RTVSPropertyOp13
 70
     0
102
RTVSPropertyOp14
 70
     2
102
RTVSPropertyOp15
 70
     0
102
RTVSPropertyOp16
 70
     0
102
RTVSPropertyOp17
 70
     0
102
RTVSPropertyOp18
 70
     0
102
RTVSPropertyOp19
 70
     0
102
RTVSPropertyOp20
 70
     0
102
RTVSPropertyOp21
 70
     0
102
RTVSPropertyOp22
 70
     0
102
RTVSPropertyOp23
 70
     0
102
RTVSPropertyOp24
 70
     0
102
RTVSPropertyOp25
 70
     0
102
RTVSPropertyOp26
 70
     0
102
RTVSPropertyOp27
 70
     0
102
RTVSPropertyOp28
 70
     0
102
RTVSPropertyOp29
 70
     0
102
RTVSPropertyOp30
 70
     0
102
RTVSPropertyOp31
 70
     0
102
RTVSPropertyOp32
 70
     0
102
RTVSPropertyOp33
 70
     0
102
RTVSPropertyOp34
 70
     0
102
RTVSPropertyOp35
 70
     0
102
RTVSPropertyOp36
 70
     0
102
RTVSPropertyOp37
 70
     0
102
RTVSPropertyOp38
 70
     0
102
RTVSPropertyOp39
 70
     0
102
RTVSPropertyOp40
 70
     0
102
RTVSPropertyOp41
 70
     0
102
RTVSPropertyOp42
 70
     0
102
RTVSPropertyOp43
 70
     0
102
RTVSPropertyOp44
 70
     0
102
RTVSPropertyOp45
 70
     0
102
RTVSPropertyOp46
 70
     0
102
RTVSPropertyOp47
 70
     0
102
RTVSPropertyOp48
 70
     0
102
RTVSPropertyOp49
 70
     0
102
RTVSPropertyOp50
 70
     0
102
RTVSPropertyOp51
 70
     0
102
RTVSPropertyOp52
 70
     0
102
RTVSPropertyOp53
 70
     0
102
RTVSPropertyOp54
 70
     0
102
RTVSPropertyOp55
 70
     0
102
RTVSPropertyOp56
 70
     0
102
RTVSPropertyOp57
 70
     0
102
RTVSPropertyOp58
 70
     0
102
RTVSPropertyOp59
 70
     0
102
RTVSPropertyOp60
 70
     0
102
RTVSPropertyOp61
 70
     0
102
RTVSPropertyOp62
 70
     0
  0
XRECORD
  5
157F8
102
{ACAD_REACTORS
330
157F7
102
}
330
157F7
100
AcDbXrecord
280
     1
102
RTVSPost2010Prop28
280
     0
102
RTVSPost2010PropOp28
 70
     1
102
RTVSPost2010Prop29
280
     1
102
RTVSPost2010PropOp29
 70
     1
102
RTVSPost2010Prop30
280
     1
102
RTVSPost2010PropOp30
 70
     1
102
RTVSPost2010Prop31
280
     0
102
RTVSPost2010PropOp31
 70
     1
102
RTVSPost2010Prop32
280
     0
102
RTVSPost2010PropOp32
 70
     1
102
RTVSPost2010Prop33
280
     0
102
RTVSPost2010PropOp33
 70
     1
102
RTVSPost2010Prop34
280
     0
102
RTVSPost2010PropOp34
 70
     1
102
RTVSPost2010Prop35
280
     0
102
RTVSPost2010PropOp35
 70
     1
102
RTVSPost2010Prop36
280
     0
102
RTVSPost2010PropOp36
 70
     1
102
RTVSPost2010Prop37
 90
       50
102
RTVSPost2010PropOp37
 70
     1
102
RTVSPost2010Prop38
140
0.0
102
RTVSPost2010PropOp38
 70
     1
102
RTVSPost2010Prop39
140
1.0
102
RTVSPost2010PropOp39
 70
     1
102
RTVSPost2010Prop40
 90
        0
102
RTVSPost2010PropOp40
 70
     1
102
RTVSPost2010Prop41ColorIndex
 90
       18
102
RTVSPost2010Prop41ColorRGB
 90
        0
102
RTVSPost2010PropOp41
 70
     1
102
RTVSPost2010Prop42
 90
       50
102
RTVSPost2010PropOp42
 70
     1
102
RTVSPost2010Prop43
 90
        3
102
RTVSPost2010PropOp43
 70
     1
102
RTVSPost2010Prop44ColorIndex
 90
        5
102
RTVSPost2010Prop44ColorRGB
 90
      255
102
RTVSPost2010PropOp44
 70
     1
102
RTVSPost2010Prop45
280
     0
102
RTVSPost2010PropOp45
 70
     1
102
RTVSPost2010Prop46
 90
       50
102
RTVSPost2010PropOp46
 70
     1
102
RTVSPost2010Prop47
 90
       50
102
RTVSPost2010PropOp47
 70
     1
102
RTVSPost2010Prop48
 90
       50
102
RTVSPost2010PropOp48
 70
     1
102
RTVSPost2010Prop49
280
     0
102
RTVSPost2010PropOp49
 70
     1
102
RTVSPost2010Prop50
 90
       50
102
RTVSPost2010PropOp50
 70
     1
102
RTVSPost2010Prop51ColorIndex
 90
      256
102
RTVSPost2010Prop51ColorRGB
 90
-16777216
102
RTVSPost2010PropOp51
 70
     0
102
RTVSPost2010Prop52
140
1.0
102
RTVSPost2010PropOp52
 70
     0
102
RTVSPost2010Prop53
 90
        2
102
RTVSPost2010PropOp53
 70
     1
102
RTVSPost2010Prop54
  1
strokes_ogs.tif
102
RTVSPost2010PropOp54
 70
     1
102
RTVSPost2010Prop55
280
     0
102
RTVSPost2010PropOp55
 70
     1
102
RTVSPost2010Prop56
140
1.0
102
RTVSPost2010PropOp56
 70
     1
102
RTVSPost2010Prop57
140
1.0
102
RTVSPost2010PropOp57
 70
     1
102
RTVSPropertyOp0
 70
     1
102
RTVSPropertyOp1
 70
     1
102
RTVSPropertyOp2
 70
     1
102
RTVSPropertyOp3
 70
     1
102
RTVSPropertyOp4
 70
     1
102
RTVSPropertyOp5
 70
     1
102
RTVSPropertyOp6
 70
     1
102
RTVSPropertyOp7
 70
     1
102
RTVSPropertyOp8
 70
     1
102
RTVSPropertyOp9
 70
     1
102
RTVSPropertyOp10
 70
     1
102
RTVSPropertyOp11
 70
     1
102
RTVSPropertyOp12
 70
     1
102
RTVSPropertyOp13
 70
     1
102
RTVSPropertyOp14
 70
     1
102
RTVSPropertyOp15
 70
     1
102
RTVSPropertyOp16
 70
     1
102
RTVSPropertyOp17
 70
     1
102
RTVSPropertyOp18
 70
     1
102
RTVSPropertyOp19
 70
     1
102
RTVSPropertyOp20
 70
     1
102
RTVSPropertyOp21
 70
     1
102
RTVSPropertyOp22
 70
     1
102
RTVSPropertyOp23
 70
     1
102
RTVSPropertyOp24
 70
     1
102
RTVSPropertyOp25
 70
     1
102
RTVSPropertyOp26
 70
     1
102
RTVSPropertyOp27
 70
     1
102
RTVSPropertyOp28
 70
     1
102
RTVSPropertyOp29
 70
     1
102
RTVSPropertyOp30
 70
     1
102
RTVSPropertyOp31
 70
     1
102
RTVSPropertyOp32
 70
     1
102
RTVSPropertyOp33
 70
     1
102
RTVSPropertyOp34
 70
     1
102
RTVSPropertyOp35
 70
     1
102
RTVSPropertyOp36
 70
     1
102
RTVSPropertyOp37
 70
     1
102
RTVSPropertyOp38
 70
     1
102
RTVSPropertyOp39
 70
     1
102
RTVSPropertyOp40
 70
     1
102
RTVSPropertyOp41
 70
     1
102
RTVSPropertyOp42
 70
     1
102
RTVSPropertyOp43
 70
     1
102
RTVSPropertyOp44
 70
     1
102
RTVSPropertyOp45
 70
     1
102
RTVSPropertyOp46
 70
     1
102
RTVSPropertyOp47
 70
     1
102
RTVSPropertyOp48
 70
     1
102
RTVSPropertyOp49
 70
     1
102
RTVSPropertyOp50
 70
     1
102
RTVSPropertyOp51
 70
     0
102
RTVSPropertyOp52
 70
     0
102
RTVSPropertyOp53
 70
     1
102
RTVSPropertyOp54
 70
     1
102
RTVSPropertyOp55
 70
     1
102
RTVSPropertyOp56
 70
     1
102
RTVSPropertyOp57
 70
     1
102
RTVSPropertyOp58
 70
     1
102
RTVSPropertyOp59
 70
     1
102
RTVSPropertyOp60
 70
     1
102
RTVSPropertyOp61
 70
     1
102
RTVSPropertyOp62
 70
     1
  0
XRECORD
  5
1580E
102
{ACAD_REACTORS
330
1580D
102
}
330
1580D
100
AcDbXrecord
280
     1
102
RTVSPost2010Prop28
280
     0
102
RTVSPost2010PropOp28
 70
     1
102
RTVSPost2010Prop29
280
     1
102
RTVSPost2010PropOp29
 70
     1
102
RTVSPost2010Prop30
280
     1
102
RTVSPost2010PropOp30
 70
     1
102
RTVSPost2010Prop31
280
     0
102
RTVSPost2010PropOp31
 70
     1
102
RTVSPost2010Prop32
280
     0
102
RTVSPost2010PropOp32
 70
     1
102
RTVSPost2010Prop33
280
     0
102
RTVSPost2010PropOp33
 70
     1
102
RTVSPost2010Prop34
280
     0
102
RTVSPost2010PropOp34
 70
     1
102
RTVSPost2010Prop35
280
     0
102
RTVSPost2010PropOp35
 70
     1
102
RTVSPost2010Prop36
280
     0
102
RTVSPost2010PropOp36
 70
     1
102
RTVSPost2010Prop37
 90
       50
102
RTVSPost2010PropOp37
 70
     1
102
RTVSPost2010Prop38
140
0.0
102
RTVSPost2010PropOp38
 70
     1
102
RTVSPost2010Prop39
140
1.0
102
RTVSPost2010PropOp39
 70
     1
102
RTVSPost2010Prop40
 90
        0
102
RTVSPost2010PropOp40
 70
     1
102
RTVSPost2010Prop41ColorIndex
 90
       18
102
RTVSPost2010Prop41ColorRGB
 90
        0
102
RTVSPost2010PropOp41
 70
     1
102
RTVSPost2010Prop42
 90
       50
102
RTVSPost2010PropOp42
 70
     1
102
RTVSPost2010Prop43
 90
        3
102
RTVSPost2010PropOp43
 70
     1
102
RTVSPost2010Prop44ColorIndex
 90
        5
102
RTVSPost2010Prop44ColorRGB
 90
      255
102
RTVSPost2010PropOp44
 70
     1
102
RTVSPost2010Prop45
280
     0
102
RTVSPost2010PropOp45
 70
     1
102
RTVSPost2010Prop46
 90
       50
102
RTVSPost2010PropOp46
 70
     1
102
RTVSPost2010Prop47
 90
       50
102
RTVSPost2010PropOp47
 70
     1
102
RTVSPost2010Prop48
 90
       50
102
RTVSPost2010PropOp48
 70
     1
102
RTVSPost2010Prop49
280
     0
102
RTVSPost2010PropOp49
 70
     1
102
RTVSPost2010Prop50
 90
       50
102
RTVSPost2010PropOp50
 70
     1
102
RTVSPost2010Prop51ColorIndex
 90
      256
102
RTVSPost2010Prop51ColorRGB
 90
-16777216
102
RTVSPost2010PropOp51
 70
     0
102
RTVSPost2010Prop52
140
1.0
102
RTVSPost2010PropOp52
 70
     0
102
RTVSPost2010Prop53
 90
        2
102
RTVSPost2010PropOp53
 70
     1
102
RTVSPost2010Prop54
  1
strokes_ogs.tif
102
RTVSPost2010PropOp54
 70
     1
102
RTVSPost2010Prop55
280
     0
102
RTVSPost2010PropOp55
 70
     1
102
RTVSPost2010Prop56
140
1.0
102
RTVSPost2010PropOp56
 70
     1
102
RTVSPost2010Prop57
140
1.0
102
RTVSPost2010PropOp57
 70
     1
102
RTVSPropertyOp0
 70
     1
102
RTVSPropertyOp1
 70
     1
102
RTVSPropertyOp2
 70
     1
102
RTVSPropertyOp3
 70
     1
102
RTVSPropertyOp4
 70
     1
102
RTVSPropertyOp5
 70
     1
102
RTVSPropertyOp6
 70
     1
102
RTVSPropertyOp7
 70
     1
102
RTVSPropertyOp8
 70
     1
102
RTVSPropertyOp9
 70
     1
102
RTVSPropertyOp10
 70
     1
102
RTVSPropertyOp11
 70
     1
102
RTVSPropertyOp12
 70
     1
102
RTVSPropertyOp13
 70
     1
102
RTVSPropertyOp14
 70
     1
102
RTVSPropertyOp15
 70
     1
102
RTVSPropertyOp16
 70
     1
102
RTVSPropertyOp17
 70
     1
102
RTVSPropertyOp18
 70
     1
102
RTVSPropertyOp19
 70
     1
102
RTVSPropertyOp20
 70
     1
102
RTVSPropertyOp21
 70
     1
102
RTVSPropertyOp22
 70
     1
102
RTVSPropertyOp23
 70
     1
102
RTVSPropertyOp24
 70
     1
102
RTVSPropertyOp25
 70
     1
102
RTVSPropertyOp26
 70
     1
102
RTVSPropertyOp27
 70
     1
102
RTVSPropertyOp28
 70
     1
102
RTVSPropertyOp29
 70
     1
102
RTVSPropertyOp30
 70
     1
102
RTVSPropertyOp31
 70
     1
102
RTVSPropertyOp32
 70
     1
102
RTVSPropertyOp33
 70
     1
102
RTVSPropertyOp34
 70
     1
102
RTVSPropertyOp35
 70
     1
102
RTVSPropertyOp36
 70
     1
102
RTVSPropertyOp37
 70
     1
102
RTVSPropertyOp38
 70
     1
102
RTVSPropertyOp39
 70
     1
102
RTVSPropertyOp40
 70
     1
102
RTVSPropertyOp41
 70
     1
102
RTVSPropertyOp42
 70
     1
102
RTVSPropertyOp43
 70
     1
102
RTVSPropertyOp44
 70
     1
102
RTVSPropertyOp45
 70
     1
102
RTVSPropertyOp46
 70
     1
102
RTVSPropertyOp47
 70
     1
102
RTVSPropertyOp48
 70
     1
102
RTVSPropertyOp49
 70
     1
102
RTVSPropertyOp50
 70
     1
102
RTVSPropertyOp51
 70
     0
102
RTVSPropertyOp52
 70
     0
102
RTVSPropertyOp53
 70
     1
102
RTVSPropertyOp54
 70
     1
102
RTVSPropertyOp55
 70
     1
102
RTVSPropertyOp56
 70
     1
102
RTVSPropertyOp57
 70
     1
102
RTVSPropertyOp58
 70
     1
102
RTVSPropertyOp59
 70
     1
102
RTVSPropertyOp60
 70
     1
102
RTVSPropertyOp61
 70
     1
102
RTVSPropertyOp62
 70
     1
  0
XRECORD
  5
1580C
102
{ACAD_REACTORS
330
1580B
102
}
330
1580B
100
AcDbXrecord
280
     1
102
RTVSPost2010Prop28
280
     0
102
RTVSPost2010PropOp28
 70
     1
102
RTVSPost2010Prop29
280
     1
102
RTVSPost2010PropOp29
 70
     1
102
RTVSPost2010Prop30
280
     1
102
RTVSPost2010PropOp30
 70
     1
102
RTVSPost2010Prop31
280
     0
102
RTVSPost2010PropOp31
 70
     1
102
RTVSPost2010Prop32
280
     0
102
RTVSPost2010PropOp32
 70
     1
102
RTVSPost2010Prop33
280
     0
102
RTVSPost2010PropOp33
 70
     1
102
RTVSPost2010Prop34
280
     0
102
RTVSPost2010PropOp34
 70
     1
102
RTVSPost2010Prop35
280
     0
102
RTVSPost2010PropOp35
 70
     1
102
RTVSPost2010Prop36
280
     0
102
RTVSPost2010PropOp36
 70
     1
102
RTVSPost2010Prop37
 90
       50
102
RTVSPost2010PropOp37
 70
     1
102
RTVSPost2010Prop38
140
0.0
102
RTVSPost2010PropOp38
 70
     1
102
RTVSPost2010Prop39
140
1.0
102
RTVSPost2010PropOp39
 70
     1
102
RTVSPost2010Prop40
 90
        0
102
RTVSPost2010PropOp40
 70
     1
102
RTVSPost2010Prop41ColorIndex
 90
       18
102
RTVSPost2010Prop41ColorRGB
 90
        0
102
RTVSPost2010PropOp41
 70
     1
102
RTVSPost2010Prop42
 90
       50
102
RTVSPost2010PropOp42
 70
     1
102
RTVSPost2010Prop43
 90
        3
102
RTVSPost2010PropOp43
 70
     1
102
RTVSPost2010Prop44ColorIndex
 90
        5
102
RTVSPost2010Prop44ColorRGB
 90
      255
102
RTVSPost2010PropOp44
 70
     1
102
RTVSPost2010Prop45
280
     0
102
RTVSPost2010PropOp45
 70
     1
102
RTVSPost2010Prop46
 90
       50
102
RTVSPost2010PropOp46
 70
     1
102
RTVSPost2010Prop47
 90
       50
102
RTVSPost2010PropOp47
 70
     1
102
RTVSPost2010Prop48
 90
       50
102
RTVSPost2010PropOp48
 70
     1
102
RTVSPost2010Prop49
280
     0
102
RTVSPost2010PropOp49
 70
     1
102
RTVSPost2010Prop50
 90
       50
102
RTVSPost2010PropOp50
 70
     1
102
RTVSPost2010Prop51ColorIndex
 90
      256
102
RTVSPost2010Prop51ColorRGB
 90
-16777216
102
RTVSPost2010PropOp51
 70
     0
102
RTVSPost2010Prop52
140
1.0
102
RTVSPost2010PropOp52
 70
     0
102
RTVSPost2010Prop53
 90
        2
102
RTVSPost2010PropOp53
 70
     1
102
RTVSPost2010Prop54
  1
strokes_ogs.tif
102
RTVSPost2010PropOp54
 70
     1
102
RTVSPost2010Prop55
280
     0
102
RTVSPost2010PropOp55
 70
     1
102
RTVSPost2010Prop56
140
1.0
102
RTVSPost2010PropOp56
 70
     1
102
RTVSPost2010Prop57
140
1.0
102
RTVSPost2010PropOp57
 70
     1
102
RTVSPropertyOp0
 70
     1
102
RTVSPropertyOp1
 70
     1
102
RTVSPropertyOp2
 70
     1
102
RTVSPropertyOp3
 70
     1
102
RTVSPropertyOp4
 70
     1
102
RTVSPropertyOp5
 70
     1
102
RTVSPropertyOp6
 70
     1
102
RTVSPropertyOp7
 70
     1
102
RTVSPropertyOp8
 70
     1
102
RTVSPropertyOp9
 70
     1
102
RTVSPropertyOp10
 70
     1
102
RTVSPropertyOp11
 70
     1
102
RTVSPropertyOp12
 70
     1
102
RTVSPropertyOp13
 70
     1
102
RTVSPropertyOp14
 70
     1
102
RTVSPropertyOp15
 70
     1
102
RTVSPropertyOp16
 70
     1
102
RTVSPropertyOp17
 70
     1
102
RTVSPropertyOp18
 70
     1
102
RTVSPropertyOp19
 70
     1
102
RTVSPropertyOp20
 70
     1
102
RTVSPropertyOp21
 70
     1
102
RTVSPropertyOp22
 70
     1
102
RTVSPropertyOp23
 70
     1
102
RTVSPropertyOp24
 70
     1
102
RTVSPropertyOp25
 70
     1
102
RTVSPropertyOp26
 70
     1
102
RTVSPropertyOp27
 70
     1
102
RTVSPropertyOp28
 70
     1
102
RTVSPropertyOp29
 70
     1
102
RTVSPropertyOp30
 70
     1
102
RTVSPropertyOp31
 70
     1
102
RTVSPropertyOp32
 70
     1
102
RTVSPropertyOp33
 70
     1
102
RTVSPropertyOp34
 70
     1
102
RTVSPropertyOp35
 70
     1
102
RTVSPropertyOp36
 70
     1
102
RTVSPropertyOp37
 70
     1
102
RTVSPropertyOp38
 70
     1
102
RTVSPropertyOp39
 70
     1
102
RTVSPropertyOp40
 70
     1
102
RTVSPropertyOp41
 70
     1
102
RTVSPropertyOp42
 70
     1
102
RTVSPropertyOp43
 70
     1
102
RTVSPropertyOp44
 70
     1
102
RTVSPropertyOp45
 70
     1
102
RTVSPropertyOp46
 70
     1
102
RTVSPropertyOp47
 70
     1
102
RTVSPropertyOp48
 70
     1
102
RTVSPropertyOp49
 70
     1
102
RTVSPropertyOp50
 70
     1
102
RTVSPropertyOp51
 70
     0
102
RTVSPropertyOp52
 70
     0
102
RTVSPropertyOp53
 70
     1
102
RTVSPropertyOp54
 70
     1
102
RTVSPropertyOp55
 70
     1
102
RTVSPropertyOp56
 70
     1
102
RTVSPropertyOp57
 70
     1
102
RTVSPropertyOp58
 70
     1
102
RTVSPropertyOp59
 70
     1
102
RTVSPropertyOp60
 70
     1
102
RTVSPropertyOp61
 70
     1
102
RTVSPropertyOp62
 70
     1
  0
XRECORD
  5
15806
102
{ACAD_REACTORS
330
15805
102
}
330
15805
100
AcDbXrecord
280
     1
102
RTVSPost2010Prop28
280
     0
102
RTVSPost2010PropOp28
 70
     1
102
RTVSPost2010Prop29
280
     1
102
RTVSPost2010PropOp29
 70
     1
102
RTVSPost2010Prop30
280
     1
102
RTVSPost2010PropOp30
 70
     1
102
RTVSPost2010Prop31
280
     0
102
RTVSPost2010PropOp31
 70
     1
102
RTVSPost2010Prop32
280
     0
102
RTVSPost2010PropOp32
 70
     1
102
RTVSPost2010Prop33
280
     0
102
RTVSPost2010PropOp33
 70
     1
102
RTVSPost2010Prop34
280
     0
102
RTVSPost2010PropOp34
 70
     1
102
RTVSPost2010Prop35
280
     0
102
RTVSPost2010PropOp35
 70
     1
102
RTVSPost2010Prop36
280
     0
102
RTVSPost2010PropOp36
 70
     1
102
RTVSPost2010Prop37
 90
       50
102
RTVSPost2010PropOp37
 70
     1
102
RTVSPost2010Prop38
140
0.0
102
RTVSPost2010PropOp38
 70
     1
102
RTVSPost2010Prop39
140
1.0
102
RTVSPost2010PropOp39
 70
     1
102
RTVSPost2010Prop40
 90
        0
102
RTVSPost2010PropOp40
 70
     1
102
RTVSPost2010Prop41ColorIndex
 90
       18
102
RTVSPost2010Prop41ColorRGB
 90
        0
102
RTVSPost2010PropOp41
 70
     1
102
RTVSPost2010Prop42
 90
       50
102
RTVSPost2010PropOp42
 70
     1
102
RTVSPost2010Prop43
 90
        3
102
RTVSPost2010PropOp43
 70
     1
102
RTVSPost2010Prop44ColorIndex
 90
        5
102
RTVSPost2010Prop44ColorRGB
 90
      255
102
RTVSPost2010PropOp44
 70
     1
102
RTVSPost2010Prop45
280
     0
102
RTVSPost2010PropOp45
 70
     1
102
RTVSPost2010Prop46
 90
       50
102
RTVSPost2010PropOp46
 70
     1
102
RTVSPost2010Prop47
 90
       50
102
RTVSPost2010PropOp47
 70
     1
102
RTVSPost2010Prop48
 90
       50
102
RTVSPost2010PropOp48
 70
     1
102
RTVSPost2010Prop49
280
     0
102
RTVSPost2010PropOp49
 70
     1
102
RTVSPost2010Prop50
 90
       50
102
RTVSPost2010PropOp50
 70
     1
102
RTVSPost2010Prop51ColorIndex
 90
      256
102
RTVSPost2010Prop51ColorRGB
 90
-16777216
102
RTVSPost2010PropOp51
 70
     0
102
RTVSPost2010Prop52
140
1.0
102
RTVSPost2010PropOp52
 70
     0
102
RTVSPost2010Prop53
 90
        2
102
RTVSPost2010PropOp53
 70
     1
102
RTVSPost2010Prop54
  1
strokes_ogs.tif
102
RTVSPost2010PropOp54
 70
     1
102
RTVSPost2010Prop55
280
     0
102
RTVSPost2010PropOp55
 70
     1
102
RTVSPost2010Prop56
140
1.0
102
RTVSPost2010PropOp56
 70
     1
102
RTVSPost2010Prop57
140
1.0
102
RTVSPost2010PropOp57
 70
     1
102
RTVSPropertyOp0
 70
     1
102
RTVSPropertyOp1
 70
     1
102
RTVSPropertyOp2
 70
     1
102
RTVSPropertyOp3
 70
     1
102
RTVSPropertyOp4
 70
     1
102
RTVSPropertyOp5
 70
     1
102
RTVSPropertyOp6
 70
     1
102
RTVSPropertyOp7
 70
     1
102
RTVSPropertyOp8
 70
     1
102
RTVSPropertyOp9
 70
     1
102
RTVSPropertyOp10
 70
     1
102
RTVSPropertyOp11
 70
     1
102
RTVSPropertyOp12
 70
     1
102
RTVSPropertyOp13
 70
     1
102
RTVSPropertyOp14
 70
     1
102
RTVSPropertyOp15
 70
     1
102
RTVSPropertyOp16
 70
     1
102
RTVSPropertyOp17
 70
     1
102
RTVSPropertyOp18
 70
     1
102
RTVSPropertyOp19
 70
     1
102
RTVSPropertyOp20
 70
     1
102
RTVSPropertyOp21
 70
     1
102
RTVSPropertyOp22
 70
     1
102
RTVSPropertyOp23
 70
     1
102
RTVSPropertyOp24
 70
     1
102
RTVSPropertyOp25
 70
     1
102
RTVSPropertyOp26
 70
     1
102
RTVSPropertyOp27
 70
     1
102
RTVSPropertyOp28
 70
     1
102
RTVSPropertyOp29
 70
     1
102
RTVSPropertyOp30
 70
     1
102
RTVSPropertyOp31
 70
     1
102
RTVSPropertyOp32
 70
     1
102
RTVSPropertyOp33
 70
     1
102
RTVSPropertyOp34
 70
     1
102
RTVSPropertyOp35
 70
     1
102
RTVSPropertyOp36
 70
     1
102
RTVSPropertyOp37
 70
     1
102
RTVSPropertyOp38
 70
     1
102
RTVSPropertyOp39
 70
     1
102
RTVSPropertyOp40
 70
     1
102
RTVSPropertyOp41
 70
     1
102
RTVSPropertyOp42
 70
     1
102
RTVSPropertyOp43
 70
     1
102
RTVSPropertyOp44
 70
     1
102
RTVSPropertyOp45
 70
     1
102
RTVSPropertyOp46
 70
     1
102
RTVSPropertyOp47
 70
     1
102
RTVSPropertyOp48
 70
     1
102
RTVSPropertyOp49
 70
     1
102
RTVSPropertyOp50
 70
     1
102
RTVSPropertyOp51
 70
     0
102
RTVSPropertyOp52
 70
     0
102
RTVSPropertyOp53
 70
     1
102
RTVSPropertyOp54
 70
     1
102
RTVSPropertyOp55
 70
     1
102
RTVSPropertyOp56
 70
     1
102
RTVSPropertyOp57
 70
     1
102
RTVSPropertyOp58
 70
     1
102
RTVSPropertyOp59
 70
     1
102
RTVSPropertyOp60
 70
     1
102
RTVSPropertyOp61
 70
     1
102
RTVSPropertyOp62
 70
     1
  0
XRECORD
  5
15808
102
{ACAD_REACTORS
330
15807
102
}
330
15807
100
AcDbXrecord
280
     1
102
RTVSPost2010Prop28
280
     0
102
RTVSPost2010PropOp28
 70
     1
102
RTVSPost2010Prop29
280
     1
102
RTVSPost2010PropOp29
 70
     1
102
RTVSPost2010Prop30
280
     1
102
RTVSPost2010PropOp30
 70
     1
102
RTVSPost2010Prop31
280
     0
102
RTVSPost2010PropOp31
 70
     1
102
RTVSPost2010Prop32
280
     0
102
RTVSPost2010PropOp32
 70
     1
102
RTVSPost2010Prop33
280
     0
102
RTVSPost2010PropOp33
 70
     1
102
RTVSPost2010Prop34
280
     0
102
RTVSPost2010PropOp34
 70
     1
102
RTVSPost2010Prop35
280
     0
102
RTVSPost2010PropOp35
 70
     1
102
RTVSPost2010Prop36
280
     0
102
RTVSPost2010PropOp36
 70
     1
102
RTVSPost2010Prop37
 90
       50
102
RTVSPost2010PropOp37
 70
     1
102
RTVSPost2010Prop38
140
0.0
102
RTVSPost2010PropOp38
 70
     1
102
RTVSPost2010Prop39
140
1.0
102
RTVSPost2010PropOp39
 70
     1
102
RTVSPost2010Prop40
 90
        0
102
RTVSPost2010PropOp40
 70
     1
102
RTVSPost2010Prop41ColorIndex
 90
       18
102
RTVSPost2010Prop41ColorRGB
 90
        0
102
RTVSPost2010PropOp41
 70
     1
102
RTVSPost2010Prop42
 90
       50
102
RTVSPost2010PropOp42
 70
     1
102
RTVSPost2010Prop43
 90
        3
102
RTVSPost2010PropOp43
 70
     1
102
RTVSPost2010Prop44ColorIndex
 90
        5
102
RTVSPost2010Prop44ColorRGB
 90
      255
102
RTVSPost2010PropOp44
 70
     1
102
RTVSPost2010Prop45
280
     0
102
RTVSPost2010PropOp45
 70
     1
102
RTVSPost2010Prop46
 90
       50
102
RTVSPost2010PropOp46
 70
     1
102
RTVSPost2010Prop47
 90
       50
102
RTVSPost2010PropOp47
 70
     1
102
RTVSPost2010Prop48
 90
       50
102
RTVSPost2010PropOp48
 70
     1
102
RTVSPost2010Prop49
280
     0
102
RTVSPost2010PropOp49
 70
     1
102
RTVSPost2010Prop50
 90
       50
102
RTVSPost2010PropOp50
 70
     1
102
RTVSPost2010Prop51ColorIndex
 90
      256
102
RTVSPost2010Prop51ColorRGB
 90
-16777216
102
RTVSPost2010PropOp51
 70
     0
102
RTVSPost2010Prop52
140
1.0
102
RTVSPost2010PropOp52
 70
     0
102
RTVSPost2010Prop53
 90
        2
102
RTVSPost2010PropOp53
 70
     1
102
RTVSPost2010Prop54
  1
strokes_ogs.tif
102
RTVSPost2010PropOp54
 70
     1
102
RTVSPost2010Prop55
280
     0
102
RTVSPost2010PropOp55
 70
     1
102
RTVSPost2010Prop56
140
1.0
102
RTVSPost2010PropOp56
 70
     1
102
RTVSPost2010Prop57
140
1.0
102
RTVSPost2010PropOp57
 70
     1
102
RTVSPropertyOp0
 70
     1
102
RTVSPropertyOp1
 70
     1
102
RTVSPropertyOp2
 70
     1
102
RTVSPropertyOp3
 70
     1
102
RTVSPropertyOp4
 70
     1
102
RTVSPropertyOp5
 70
     1
102
RTVSPropertyOp6
 70
     1
102
RTVSPropertyOp7
 70
     1
102
RTVSPropertyOp8
 70
     1
102
RTVSPropertyOp9
 70
     1
102
RTVSPropertyOp10
 70
     1
102
RTVSPropertyOp11
 70
     1
102
RTVSPropertyOp12
 70
     1
102
RTVSPropertyOp13
 70
     1
102
RTVSPropertyOp14
 70
     1
102
RTVSPropertyOp15
 70
     1
102
RTVSPropertyOp16
 70
     1
102
RTVSPropertyOp17
 70
     1
102
RTVSPropertyOp18
 70
     1
102
RTVSPropertyOp19
 70
     1
102
RTVSPropertyOp20
 70
     1
102
RTVSPropertyOp21
 70
     1
102
RTVSPropertyOp22
 70
     1
102
RTVSPropertyOp23
 70
     1
102
RTVSPropertyOp24
 70
     1
102
RTVSPropertyOp25
 70
     1
102
RTVSPropertyOp26
 70
     1
102
RTVSPropertyOp27
 70
     1
102
RTVSPropertyOp28
 70
     1
102
RTVSPropertyOp29
 70
     1
102
RTVSPropertyOp30
 70
     1
102
RTVSPropertyOp31
 70
     1
102
RTVSPropertyOp32
 70
     1
102
RTVSPropertyOp33
 70
     1
102
RTVSPropertyOp34
 70
     1
102
RTVSPropertyOp35
 70
     1
102
RTVSPropertyOp36
 70
     1
102
RTVSPropertyOp37
 70
     1
102
RTVSPropertyOp38
 70
     1
102
RTVSPropertyOp39
 70
     1
102
RTVSPropertyOp40
 70
     1
102
RTVSPropertyOp41
 70
     1
102
RTVSPropertyOp42
 70
     1
102
RTVSPropertyOp43
 70
     1
102
RTVSPropertyOp44
 70
     1
102
RTVSPropertyOp45
 70
     1
102
RTVSPropertyOp46
 70
     1
102
RTVSPropertyOp47
 70
     1
102
RTVSPropertyOp48
 70
     1
102
RTVSPropertyOp49
 70
     1
102
RTVSPropertyOp50
 70
     1
102
RTVSPropertyOp51
 70
     0
102
RTVSPropertyOp52
 70
     0
102
RTVSPropertyOp53
 70
     1
102
RTVSPropertyOp54
 70
     1
102
RTVSPropertyOp55
 70
     1
102
RTVSPropertyOp56
 70
     1
102
RTVSPropertyOp57
 70
     1
102
RTVSPropertyOp58
 70
     1
102
RTVSPropertyOp59
 70
     1
102
RTVSPropertyOp60
 70
     1
102
RTVSPropertyOp61
 70
     1
102
RTVSPropertyOp62
 70
     1
  0
XRECORD
  5
157FE
102
{ACAD_REACTORS
330
157FD
102
}
330
157FD
100
AcDbXrecord
280
     1
102
RTVSPost2010Prop28
280
     0
102
RTVSPost2010PropOp28
 70
     1
102
RTVSPost2010Prop29
280
     1
102
RTVSPost2010PropOp29
 70
     1
102
RTVSPost2010Prop30
280
     1
102
RTVSPost2010PropOp30
 70
     1
102
RTVSPost2010Prop31
280
     0
102
RTVSPost2010PropOp31
 70
     1
102
RTVSPost2010Prop32
280
     0
102
RTVSPost2010PropOp32
 70
     1
102
RTVSPost2010Prop33
280
     0
102
RTVSPost2010PropOp33
 70
     1
102
RTVSPost2010Prop34
280
     0
102
RTVSPost2010PropOp34
 70
     1
102
RTVSPost2010Prop35
280
     0
102
RTVSPost2010PropOp35
 70
     1
102
RTVSPost2010Prop36
280
     0
102
RTVSPost2010PropOp36
 70
     1
102
RTVSPost2010Prop37
 90
       50
102
RTVSPost2010PropOp37
 70
     1
102
RTVSPost2010Prop38
140
0.0
102
RTVSPost2010PropOp38
 70
     1
102
RTVSPost2010Prop39
140
1.0
102
RTVSPost2010PropOp39
 70
     1
102
RTVSPost2010Prop40
 90
        0
102
RTVSPost2010PropOp40
 70
     1
102
RTVSPost2010Prop41ColorIndex
 90
       18
102
RTVSPost2010Prop41ColorRGB
 90
        0
102
RTVSPost2010PropOp41
 70
     1
102
RTVSPost2010Prop42
 90
       50
102
RTVSPost2010PropOp42
 70
     1
102
RTVSPost2010Prop43
 90
        3
102
RTVSPost2010PropOp43
 70
     1
102
RTVSPost2010Prop44ColorIndex
 90
        5
102
RTVSPost2010Prop44ColorRGB
 90
      255
102
RTVSPost2010PropOp44
 70
     1
102
RTVSPost2010Prop45
280
     0
102
RTVSPost2010PropOp45
 70
     1
102
RTVSPost2010Prop46
 90
       50
102
RTVSPost2010PropOp46
 70
     1
102
RTVSPost2010Prop47
 90
       50
102
RTVSPost2010PropOp47
 70
     1
102
RTVSPost2010Prop48
 90
       50
102
RTVSPost2010PropOp48
 70
     1
102
RTVSPost2010Prop49
280
     0
102
RTVSPost2010PropOp49
 70
     1
102
RTVSPost2010Prop50
 90
       50
102
RTVSPost2010PropOp50
 70
     1
102
RTVSPost2010Prop51ColorIndex
 90
      256
102
RTVSPost2010Prop51ColorRGB
 90
-16777216
102
RTVSPost2010PropOp51
 70
     0
102
RTVSPost2010Prop52
140
1.0
102
RTVSPost2010PropOp52
 70
     0
102
RTVSPost2010Prop53
 90
        2
102
RTVSPost2010PropOp53
 70
     1
102
RTVSPost2010Prop54
  1
strokes_ogs.tif
102
RTVSPost2010PropOp54
 70
     1
102
RTVSPost2010Prop55
280
     0
102
RTVSPost2010PropOp55
 70
     1
102
RTVSPost2010Prop56
140
1.0
102
RTVSPost2010PropOp56
 70
     1
102
RTVSPost2010Prop57
140
1.0
102
RTVSPost2010PropOp57
 70
     1
102
RTVSPropertyOp0
 70
     1
102
RTVSPropertyOp1
 70
     1
102
RTVSPropertyOp2
 70
     1
102
RTVSPropertyOp3
 70
     1
102
RTVSPropertyOp4
 70
     1
102
RTVSPropertyOp5
 70
     1
102
RTVSPropertyOp6
 70
     1
102
RTVSPropertyOp7
 70
     1
102
RTVSPropertyOp8
 70
     1
102
RTVSPropertyOp9
 70
     1
102
RTVSPropertyOp10
 70
     1
102
RTVSPropertyOp11
 70
     1
102
RTVSPropertyOp12
 70
     1
102
RTVSPropertyOp13
 70
     1
102
RTVSPropertyOp14
 70
     1
102
RTVSPropertyOp15
 70
     1
102
RTVSPropertyOp16
 70
     1
102
RTVSPropertyOp17
 70
     1
102
RTVSPropertyOp18
 70
     1
102
RTVSPropertyOp19
 70
     1
102
RTVSPropertyOp20
 70
     1
102
RTVSPropertyOp21
 70
     1
102
RTVSPropertyOp22
 70
     1
102
RTVSPropertyOp23
 70
     1
102
RTVSPropertyOp24
 70
     1
102
RTVSPropertyOp25
 70
     1
102
RTVSPropertyOp26
 70
     1
102
RTVSPropertyOp27
 70
     1
102
RTVSPropertyOp28
 70
     1
102
RTVSPropertyOp29
 70
     1
102
RTVSPropertyOp30
 70
     1
102
RTVSPropertyOp31
 70
     1
102
RTVSPropertyOp32
 70
     1
102
RTVSPropertyOp33
 70
     1
102
RTVSPropertyOp34
 70
     1
102
RTVSPropertyOp35
 70
     1
102
RTVSPropertyOp36
 70
     1
102
RTVSPropertyOp37
 70
     1
102
RTVSPropertyOp38
 70
     1
102
RTVSPropertyOp39
 70
     1
102
RTVSPropertyOp40
 70
     1
102
RTVSPropertyOp41
 70
     1
102
RTVSPropertyOp42
 70
     1
102
RTVSPropertyOp43
 70
     1
102
RTVSPropertyOp44
 70
     1
102
RTVSPropertyOp45
 70
     1
102
RTVSPropertyOp46
 70
     1
102
RTVSPropertyOp47
 70
     1
102
RTVSPropertyOp48
 70
     1
102
RTVSPropertyOp49
 70
     1
102
RTVSPropertyOp50
 70
     1
102
RTVSPropertyOp51
 70
     0
102
RTVSPropertyOp52
 70
     0
102
RTVSPropertyOp53
 70
     1
102
RTVSPropertyOp54
 70
     1
102
RTVSPropertyOp55
 70
     1
102
RTVSPropertyOp56
 70
     1
102
RTVSPropertyOp57
 70
     1
102
RTVSPropertyOp58
 70
     1
102
RTVSPropertyOp59
 70
     1
102
RTVSPropertyOp60
 70
     1
102
RTVSPropertyOp61
 70
     1
102
RTVSPropertyOp62
 70
     1
  0
XRECORD
  5
157F2
102
{ACAD_REACTORS
330
157F1
102
}
330
157F1
100
AcDbXrecord
280
     1
102
RTVSPost2010Prop28
280
     0
102
RTVSPost2010PropOp28
 70
     1
102
RTVSPost2010Prop29
280
     1
102
RTVSPost2010PropOp29
 70
     1
102
RTVSPost2010Prop30
280
     1
102
RTVSPost2010PropOp30
 70
     1
102
RTVSPost2010Prop31
280
     0
102
RTVSPost2010PropOp31
 70
     1
102
RTVSPost2010Prop32
280
     0
102
RTVSPost2010PropOp32
 70
     1
102
RTVSPost2010Prop33
280
     0
102
RTVSPost2010PropOp33
 70
     1
102
RTVSPost2010Prop34
280
     0
102
RTVSPost2010PropOp34
 70
     1
102
RTVSPost2010Prop35
280
     0
102
RTVSPost2010PropOp35
 70
     1
102
RTVSPost2010Prop36
280
     0
102
RTVSPost2010PropOp36
 70
     1
102
RTVSPost2010Prop37
 90
       50
102
RTVSPost2010PropOp37
 70
     1
102
RTVSPost2010Prop38
140
0.0
102
RTVSPost2010PropOp38
 70
     1
102
RTVSPost2010Prop39
140
1.0
102
RTVSPost2010PropOp39
 70
     1
102
RTVSPost2010Prop40
 90
        0
102
RTVSPost2010PropOp40
 70
     1
102
RTVSPost2010Prop41ColorIndex
 90
       18
102
RTVSPost2010Prop41ColorRGB
 90
        0
102
RTVSPost2010PropOp41
 70
     1
102
RTVSPost2010Prop42
 90
       50
102
RTVSPost2010PropOp42
 70
     1
102
RTVSPost2010Prop43
 90
        3
102
RTVSPost2010PropOp43
 70
     1
102
RTVSPost2010Prop44ColorIndex
 90
        5
102
RTVSPost2010Prop44ColorRGB
 90
      255
102
RTVSPost2010PropOp44
 70
     1
102
RTVSPost2010Prop45
280
     0
102
RTVSPost2010PropOp45
 70
     1
102
RTVSPost2010Prop46
 90
       50
102
RTVSPost2010PropOp46
 70
     1
102
RTVSPost2010Prop47
 90
       50
102
RTVSPost2010PropOp47
 70
     1
102
RTVSPost2010Prop48
 90
       50
102
RTVSPost2010PropOp48
 70
     1
102
RTVSPost2010Prop49
280
     0
102
RTVSPost2010PropOp49
 70
     1
102
RTVSPost2010Prop50
 90
       50
102
RTVSPost2010PropOp50
 70
     1
102
RTVSPost2010Prop51ColorIndex
 90
      256
102
RTVSPost2010Prop51ColorRGB
 90
-16777216
102
RTVSPost2010PropOp51
 70
     0
102
RTVSPost2010Prop52
140
1.0
102
RTVSPost2010PropOp52
 70
     0
102
RTVSPost2010Prop53
 90
        2
102
RTVSPost2010PropOp53
 70
     1
102
RTVSPost2010Prop54
  1
strokes_ogs.tif
102
RTVSPost2010PropOp54
 70
     1
102
RTVSPost2010Prop55
280
     0
102
RTVSPost2010PropOp55
 70
     1
102
RTVSPost2010Prop56
140
1.0
102
RTVSPost2010PropOp56
 70
     1
102
RTVSPost2010Prop57
140
1.0
102
RTVSPost2010PropOp57
 70
     1
102
RTVSPropertyOp0
 70
     1
102
RTVSPropertyOp1
 70
     1
102
RTVSPropertyOp2
 70
     1
102
RTVSPropertyOp3
 70
     1
102
RTVSPropertyOp4
 70
     1
102
RTVSPropertyOp5
 70
     1
102
RTVSPropertyOp6
 70
     1
102
RTVSPropertyOp7
 70
     1
102
RTVSPropertyOp8
 70
     1
102
RTVSPropertyOp9
 70
     1
102
RTVSPropertyOp10
 70
     1
102
RTVSPropertyOp11
 70
     1
102
RTVSPropertyOp12
 70
     1
102
RTVSPropertyOp13
 70
     1
102
RTVSPropertyOp14
 70
     1
102
RTVSPropertyOp15
 70
     1
102
RTVSPropertyOp16
 70
     1
102
RTVSPropertyOp17
 70
     1
102
RTVSPropertyOp18
 70
     1
102
RTVSPropertyOp19
 70
     1
102
RTVSPropertyOp20
 70
     1
102
RTVSPropertyOp21
 70
     1
102
RTVSPropertyOp22
 70
     1
102
RTVSPropertyOp23
 70
     1
102
RTVSPropertyOp24
 70
     1
102
RTVSPropertyOp25
 70
     1
102
RTVSPropertyOp26
 70
     1
102
RTVSPropertyOp27
 70
     1
102
RTVSPropertyOp28
 70
     1
102
RTVSPropertyOp29
 70
     1
102
RTVSPropertyOp30
 70
     1
102
RTVSPropertyOp31
 70
     1
102
RTVSPropertyOp32
 70
     1
102
RTVSPropertyOp33
 70
     1
102
RTVSPropertyOp34
 70
     1
102
RTVSPropertyOp35
 70
     1
102
RTVSPropertyOp36
 70
     1
102
RTVSPropertyOp37
 70
     1
102
RTVSPropertyOp38
 70
     1
102
RTVSPropertyOp39
 70
     1
102
RTVSPropertyOp40
 70
     1
102
RTVSPropertyOp41
 70
     1
102
RTVSPropertyOp42
 70
     1
102
RTVSPropertyOp43
 70
     1
102
RTVSPropertyOp44
 70
     1
102
RTVSPropertyOp45
 70
     1
102
RTVSPropertyOp46
 70
     1
102
RTVSPropertyOp47
 70
     1
102
RTVSPropertyOp48
 70
     1
102
RTVSPropertyOp49
 70
     1
102
RTVSPropertyOp50
 70
     1
102
RTVSPropertyOp51
 70
     0
102
RTVSPropertyOp52
 70
     0
102
RTVSPropertyOp53
 70
     1
102
RTVSPropertyOp54
 70
     1
102
RTVSPropertyOp55
 70
     1
102
RTVSPropertyOp56
 70
     1
102
RTVSPropertyOp57
 70
     1
102
RTVSPropertyOp58
 70
     1
102
RTVSPropertyOp59
 70
     1
102
RTVSPropertyOp60
 70
     1
102
RTVSPropertyOp61
 70
     1
102
RTVSPropertyOp62
 70
     1
  0
XRECORD
  5
1580A
102
{ACAD_REACTORS
330
15809
102
}
330
15809
100
AcDbXrecord
280
     1
102
RTVSPost2010Prop28
280
     0
102
RTVSPost2010PropOp28
 70
     1
102
RTVSPost2010Prop29
280
     1
102
RTVSPost2010PropOp29
 70
     1
102
RTVSPost2010Prop30
280
     1
102
RTVSPost2010PropOp30
 70
     1
102
RTVSPost2010Prop31
280
     0
102
RTVSPost2010PropOp31
 70
     1
102
RTVSPost2010Prop32
280
     0
102
RTVSPost2010PropOp32
 70
     1
102
RTVSPost2010Prop33
280
     0
102
RTVSPost2010PropOp33
 70
     1
102
RTVSPost2010Prop34
280
     0
102
RTVSPost2010PropOp34
 70
     1
102
RTVSPost2010Prop35
280
     0
102
RTVSPost2010PropOp35
 70
     1
102
RTVSPost2010Prop36
280
     0
102
RTVSPost2010PropOp36
 70
     1
102
RTVSPost2010Prop37
 90
       50
102
RTVSPost2010PropOp37
 70
     1
102
RTVSPost2010Prop38
140
0.0
102
RTVSPost2010PropOp38
 70
     1
102
RTVSPost2010Prop39
140
1.0
102
RTVSPost2010PropOp39
 70
     1
102
RTVSPost2010Prop40
 90
        0
102
RTVSPost2010PropOp40
 70
     1
102
RTVSPost2010Prop41ColorIndex
 90
       18
102
RTVSPost2010Prop41ColorRGB
 90
        0
102
RTVSPost2010PropOp41
 70
     1
102
RTVSPost2010Prop42
 90
       50
102
RTVSPost2010PropOp42
 70
     1
102
RTVSPost2010Prop43
 90
        3
102
RTVSPost2010PropOp43
 70
     1
102
RTVSPost2010Prop44ColorIndex
 90
        5
102
RTVSPost2010Prop44ColorRGB
 90
      255
102
RTVSPost2010PropOp44
 70
     1
102
RTVSPost2010Prop45
280
     0
102
RTVSPost2010PropOp45
 70
     1
102
RTVSPost2010Prop46
 90
       50
102
RTVSPost2010PropOp46
 70
     1
102
RTVSPost2010Prop47
 90
       50
102
RTVSPost2010PropOp47
 70
     1
102
RTVSPost2010Prop48
 90
       50
102
RTVSPost2010PropOp48
 70
     1
102
RTVSPost2010Prop49
280
     0
102
RTVSPost2010PropOp49
 70
     1
102
RTVSPost2010Prop50
 90
       50
102
RTVSPost2010PropOp50
 70
     1
102
RTVSPost2010Prop51ColorIndex
 90
      256
102
RTVSPost2010Prop51ColorRGB
 90
-16777216
102
RTVSPost2010PropOp51
 70
     0
102
RTVSPost2010Prop52
140
1.0
102
RTVSPost2010PropOp52
 70
     0
102
RTVSPost2010Prop53
 90
        2
102
RTVSPost2010PropOp53
 70
     1
102
RTVSPost2010Prop54
  1
strokes_ogs.tif
102
RTVSPost2010PropOp54
 70
     1
102
RTVSPost2010Prop55
280
     0
102
RTVSPost2010PropOp55
 70
     1
102
RTVSPost2010Prop56
140
1.0
102
RTVSPost2010PropOp56
 70
     1
102
RTVSPost2010Prop57
140
1.0
102
RTVSPost2010PropOp57
 70
     1
102
RTVSPropertyOp0
 70
     1
102
RTVSPropertyOp1
 70
     1
102
RTVSPropertyOp2
 70
     1
102
RTVSPropertyOp3
 70
     1
102
RTVSPropertyOp4
 70
     1
102
RTVSPropertyOp5
 70
     1
102
RTVSPropertyOp6
 70
     1
102
RTVSPropertyOp7
 70
     1
102
RTVSPropertyOp8
 70
     1
102
RTVSPropertyOp9
 70
     1
102
RTVSPropertyOp10
 70
     1
102
RTVSPropertyOp11
 70
     1
102
RTVSPropertyOp12
 70
     1
102
RTVSPropertyOp13
 70
     1
102
RTVSPropertyOp14
 70
     1
102
RTVSPropertyOp15
 70
     1
102
RTVSPropertyOp16
 70
     1
102
RTVSPropertyOp17
 70
     1
102
RTVSPropertyOp18
 70
     1
102
RTVSPropertyOp19
 70
     1
102
RTVSPropertyOp20
 70
     1
102
RTVSPropertyOp21
 70
     1
102
RTVSPropertyOp22
 70
     1
102
RTVSPropertyOp23
 70
     1
102
RTVSPropertyOp24
 70
     1
102
RTVSPropertyOp25
 70
     1
102
RTVSPropertyOp26
 70
     1
102
RTVSPropertyOp27
 70
     1
102
RTVSPropertyOp28
 70
     1
102
RTVSPropertyOp29
 70
     1
102
RTVSPropertyOp30
 70
     1
102
RTVSPropertyOp31
 70
     1
102
RTVSPropertyOp32
 70
     1
102
RTVSPropertyOp33
 70
     1
102
RTVSPropertyOp34
 70
     1
102
RTVSPropertyOp35
 70
     1
102
RTVSPropertyOp36
 70
     1
102
RTVSPropertyOp37
 70
     1
102
RTVSPropertyOp38
 70
     1
102
RTVSPropertyOp39
 70
     1
102
RTVSPropertyOp40
 70
     1
102
RTVSPropertyOp41
 70
     1
102
RTVSPropertyOp42
 70
     1
102
RTVSPropertyOp43
 70
     1
102
RTVSPropertyOp44
 70
     1
102
RTVSPropertyOp45
 70
     1
102
RTVSPropertyOp46
 70
     1
102
RTVSPropertyOp47
 70
     1
102
RTVSPropertyOp48
 70
     1
102
RTVSPropertyOp49
 70
     1
102
RTVSPropertyOp50
 70
     1
102
RTVSPropertyOp51
 70
     0
102
RTVSPropertyOp52
 70
     0
102
RTVSPropertyOp53
 70
     1
102
RTVSPropertyOp54
 70
     1
102
RTVSPropertyOp55
 70
     1
102
RTVSPropertyOp56
 70
     1
102
RTVSPropertyOp57
 70
     1
102
RTVSPropertyOp58
 70
     1
102
RTVSPropertyOp59
 70
     1
102
RTVSPropertyOp60
 70
     1
102
RTVSPropertyOp61
 70
     1
102
RTVSPropertyOp62
 70
     1
  0
ENDSEC
  0
EOF
