  0
SECTION
  2
HEADER
  9
$ACADVER
  1
AC1015
  9
$ACADMAINTVER
 70
    20
  9
$DWGCODEPAGE
  3
ANSI_932
  9
$INSBASE
 10
0.0
 20
0.0
 30
0.0
  9
$EXTMIN
 10
225.0
 20
13.6318724961292
 30
0.0
  9
$EXTMAX
 10
20335.95055315682
 20
14162.0
 30
0.0
  9
$LIMMIN
 10
0.0
 20
0.0
  9
$LIMMAX
 10
21000.0
 20
14850.0
  9
$ORTHOMODE
 70
     0
  9
$REGENMODE
 70
     1
  9
$FILLMODE
 70
     1
  9
$QTEXTMODE
 70
     0
  9
$MIRRTEXT
 70
     1
  9
$LTSCALE
 40
20.0
  9
$ATTMODE
 70
     1
  9
$TEXTSIZE
 40
100.0
  9
$TRACEWID
 40
1.0
  9
$TEXTSTYLE
  7
STYLE3
  9
$CLAYER
  8
寸法
  9
$CELTYPE
  6
BYLAYER
  9
$CECOLOR
 62
   256
  9
$CELTSCALE
 40
50.0
  9
$DISPSILH
 70
     0
  9
$DIMSCALE
 40
1.0
  9
$DIMASZ
 40
125.0
  9
$DIMEXO
 40
25.0
  9
$DIMDLI
 40
7.0
  9
$DIMRND
 40
0.0
  9
$DIMDLE
 40
0.0
  9
$DIMEXE
 40
75.0
  9
$DIMTP
 40
0.0
  9
$DIMTM
 40
0.0
  9
$DIMTXT
 40
150.0
  9
$DIMCEN
 40
0.0
  9
$DIMTSZ
 40
0.0
  9
$DIMTOL
 70
     0
  9
$DIMLIM
 70
     0
  9
$DIMTIH
 70
     0
  9
$DIMTOH
 70
     0
  9
$DIMSE1
 70
     0
  9
$DIMSE2
 70
     0
  9
$DIMTAD
 70
     3
  9
$DIMZIN
 70
     8
  9
$DIMBLK
  1

  9
$DIMASO
 70
     1
  9
$DIMSHO
 70
     1
  9
$DIMPOST
  1

  9
$DIMAPOST
  1

  9
$DIMALT
 70
     0
  9
$DIMALTD
 70
     2
  9
$DIMALTF
 40
0.0394
  9
$DIMLFAC
 40
1.0
  9
$DIMTOFL
 70
     1
  9
$DIMTVP
 40
0.0
  9
$DIMTIX
 70
     1
  9
$DIMSOXD
 70
     0
  9
$DIMSAH
 70
     1
  9
$DIMBLK1
  1
DOTSMALL
  9
$DIMBLK2
  1
DOTSMALL
  9
$DIMSTYLE
  2
INABA_S50G
  9
$DIMCLRD
 70
     0
  9
$DIMCLRE
 70
     0
  9
$DIMCLRT
 70
     7
  9
$DIMTFAC
 40
1.0
  9
$DIMGAP
 40
25.0
  9
$DIMJUST
 70
     0
  9
$DIMSD1
 70
     0
  9
$DIMSD2
 70
     0
  9
$DIMTOLJ
 70
     1
  9
$DIMTZIN
 70
     0
  9
$DIMALTZ
 70
     0
  9
$DIMALTTZ
 70
     0
  9
$DIMUPT
 70
     0
  9
$DIMDEC
 70
     1
  9
$DIMTDEC
 70
     4
  9
$DIMALTU
 70
     2
  9
$DIMALTTD
 70
     2
  9
$DIMTXSTY
  7
STYLE1
  9
$DIMAUNIT
 70
     0
  9
$DIMADEC
 70
     0
  9
$DIMALTRND
 40
0.0
  9
$DIMAZIN
 70
     0
  9
$DIMDSEP
 70
    46
  9
$DIMATFIT
 70
     3
  9
$DIMFRAC
 70
     0
  9
$DIMLDRBLK
  1

  9
$DIMLUNIT
 70
     2
  9
$DIMLWD
 70
    -2
  9
$DIMLWE
 70
    -2
  9
$DIMTMOVE
 70
     0
  9
$LUNITS
 70
     2
  9
$LUPREC
 70
     1
  9
$SKETCHINC
 40
1.0
  9
$FILLETRAD
 40
5.0
  9
$AUNITS
 70
     0
  9
$AUPREC
 70
     0
  9
$MENU
  1
acad
  9
$ELEVATION
 40
0.0
  9
$PELEVATION
 40
0.0
  9
$THICKNESS
 40
0.0
  9
$LIMCHECK
 70
     0
  9
$CHAMFERA
 40
0.0
  9
$CHAMFERB
 40
0.0
  9
$CHAMFERC
 40
0.0
  9
$CHAMFERD
 40
0.0
  9
$SKPOLY
 70
     0
  9
$TDCREATE
 40
2454393.687810347
  9
$TDUCREATE
 40
2454393.312810347
  9
$TDUPDATE
 40
2456381.662467153
  9
$TDUUPDATE
 40
2456381.287467153
  9
$TDINDWG
 40
1.0532686227
  9
$TDUSRTIMER
 40
1.0532686227
  9
$USRTIMER
 70
     1
  9
$ANGBASE
 50
0.0
  9
$ANGDIR
 70
     0
  9
$PDMODE
 70
     3
  9
$PDSIZE
 40
2.0
  9
$PLINEWID
 40
0.0
  9
$SPLFRAME
 70
     0
  9
$SPLINETYPE
 70
     6
  9
$SPLINESEGS
 70
     8
  9
$HANDSEED
  5
3CE52
  9
$SURFTAB1
 70
     6
  9
$SURFTAB2
 70
     6
  9
$SURFTYPE
 70
     6
  9
$SURFU
 70
     6
  9
$SURFV
 70
     6
  9
$UCSBASE
  2

  9
$UCSNAME
  2

  9
$UCSORG
 10
0.0
 20
0.0
 30
0.0
  9
$UCSXDIR
 10
1.0
 20
0.0
 30
0.0
  9
$UCSYDIR
 10
0.0
 20
1.0
 30
0.0
  9
$UCSORTHOREF
  2

  9
$UCSORTHOVIEW
 70
     0
  9
$UCSORGTOP
 10
0.0
 20
0.0
 30
0.0
  9
$UCSORGBOTTOM
 10
0.0
 20
0.0
 30
0.0
  9
$UCSORGLEFT
 10
0.0
 20
0.0
 30
0.0
  9
$UCSORGRIGHT
 10
0.0
 20
0.0
 30
0.0
  9
$UCSORGFRONT
 10
0.0
 20
0.0
 30
0.0
  9
$UCSORGBACK
 10
0.0
 20
0.0
 30
0.0
  9
$PUCSBASE
  2

  9
$PUCSNAME
  2

  9
$PUCSORG
 10
0.0
 20
0.0
 30
0.0
  9
$PUCSXDIR
 10
1.0
 20
0.0
 30
0.0
  9
$PUCSYDIR
 10
0.0
 20
1.0
 30
0.0
  9
$PUCSORTHOREF
  2

  9
$PUCSORTHOVIEW
 70
     0
  9
$PUCSORGTOP
 10
0.0
 20
0.0
 30
0.0
  9
$PUCSORGBOTTOM
 10
0.0
 20
0.0
 30
0.0
  9
$PUCSORGLEFT
 10
0.0
 20
0.0
 30
0.0
  9
$PUCSORGRIGHT
 10
0.0
 20
0.0
 30
0.0
  9
$PUCSORGFRONT
 10
0.0
 20
0.0
 30
0.0
  9
$PUCSORGBACK
 10
0.0
 20
0.0
 30
0.0
  9
$USERI1
 70
     0
  9
$USERI2
 70
     0
  9
$USERI3
 70
     0
  9
$USERI4
 70
     0
  9
$USERI5
 70
     0
  9
$USERR1
 40
0.0
  9
$USERR2
 40
0.0
  9
$USERR3
 40
0.0
  9
$USERR4
 40
0.0
  9
$USERR5
 40
0.0
  9
$WORLDVIEW
 70
     1
  9
$SHADEDGE
 70
     3
  9
$SHADEDIF
 70
    70
  9
$TILEMODE
 70
     1
  9
$MAXACTVP
 70
    16
  9
$PINSBASE
 10
0.0
 20
0.0
 30
0.0
  9
$PLIMCHECK
 70
     0
  9
$PEXTMIN
 10
1.000000000000000E+20
 20
1.000000000000000E+20
 30
1.000000000000000E+20
  9
$PEXTMAX
 10
-1.000000000000000E+20
 20
-1.000000000000000E+20
 30
-1.000000000000000E+20
  9
$PLIMMIN
 10
0.0
 20
0.0
  9
$PLIMMAX
 10
420.0
 20
297.0
  9
$UNITMODE
 70
     0
  9
$VISRETAIN
 70
     0
  9
$PLINEGEN
 70
     0
  9
$PSLTSCALE
 70
     0
  9
$TREEDEPTH
 70
  3020
  9
$CMLSTYLE
  2
STANDARD
  9
$CMLJUST
 70
     0
  9
$CMLSCALE
 40
1.0
  9
$PROXYGRAPHICS
 70
     1
  9
$MEASUREMENT
 70
     1
  9
$CELWEIGHT
370
    -1
  9
$ENDCAPS
280
     0
  9
$JOINSTYLE
280
     0
  9
$LWDISPLAY
290
     0
  9
$INSUNITS
 70
     0
  9
$HYPERLINKBASE
  1

  9
$STYLESHEET
  1
inaba.ctb
  9
$XEDIT
290
     1
  9
$CEPSNTYPE
380
     0
  9
$PSTYLEMODE
290
     1
  9
$FINGERPRINTGUID
  2
{66FC07EA-86B4-4723-9974-471CF9EDD9CD}
  9
$VERSIONGUID
  2
{4E14151C-D150-4E97-B342-DB5F637CC590}
  9
$EXTNAMES
290
     1
  9
$PSVPSCALE
 40
0.0
  9
$OLESTARTUP
290
     0
  0
ENDSEC
  0
SECTION
  2
CLASSES
  0
CLASS
  1
ACDBDICTIONARYWDFLT
  2
AcDbDictionaryWithDefault
  3
ObjectDBX Classes
 90
        0
280
     0
281
     0
  0
CLASS
  1
DICTIONARYVAR
  2
AcDbDictionaryVar
  3
ObjectDBX Classes
 90
        0
280
     0
281
     0
  0
CLASS
  1
ACDBPLACEHOLDER
  2
AcDbPlaceHolder
  3
ObjectDBX Classes
 90
        0
280
     0
281
     0
  0
CLASS
  1
LAYOUT
  2
AcDbLayout
  3
ObjectDBX Classes
 90
        0
280
     0
281
     0
  0
ENDSEC
  0
SECTION
  2
TABLES
  0
TABLE
  2
VPORT
  5
746D
330
0
100
AcDbSymbolTable
 70
     2
  0
VPORT
  5
3CE4A
330
746D
100
AcDbSymbolTableRecord
100
AcDbViewportTableRecord
  2
*Active
 70
     0
 10
0.0
 20
0.0
 11
1.0
 21
1.0
 12
10500.0
 22
7425.0
 13
0.0
 23
0.0
 14
10.0
 24
10.0
 15
10.0
 25
10.0
 16
0.0
 26
0.0
 36
1.0
 17
0.0
 27
0.0
 37
0.0
 40
15279.45804028891
 41
1.382275132275132
 42
50.0
 43
0.0
 44
0.0
 50
0.0
 51
0.0
 71
     0
 72
     0
 73
     1
 74
     0
 75
     0
 76
     0
 77
     0
 78
     0
281
     0
 65
     1
110
0.0
120
0.0
130
0.0
111
1.0
121
0.0
131
0.0
112
0.0
122
1.0
132
0.0
 79
     0
146
0.0
  0
ENDTAB
  0
TABLE
  2
LTYPE
  5
746A
330
0
100
AcDbSymbolTable
 70
     4
  0
LTYPE
  5
7477
330
746A
100
AcDbSymbolTableRecord
100
AcDbLinetypeTableRecord
  2
BYBLOCK
 70
     0
  3

 72
    65
 73
     0
 40
0.0
  0
LTYPE
  5
7478
330
746A
100
AcDbSymbolTableRecord
100
AcDbLinetypeTableRecord
  2
BYLAYER
 70
     0
  3

 72
    65
 73
     0
 40
0.0
  0
LTYPE
  5
7479
330
746A
100
AcDbSymbolTableRecord
100
AcDbLinetypeTableRecord
  2
CONTINUOUS
 70
     0
  3
Solid line
 72
    65
 73
     0
 40
0.0
  0
LTYPE
  5
781A
330
746A
100
AcDbSymbolTableRecord
100
AcDbLinetypeTableRecord
  2
HIDDEN
 70
     0
  3
__ __ __ __ __ __ __ __ __ __ __ __ __ __ __ __
 72
    65
 73
     2
 40
0.375
 49
0.25
 74
     0
 49
-0.125
 74
     0
  0
LTYPE
  5
781B
330
746A
100
AcDbSymbolTableRecord
100
AcDbLinetypeTableRecord
  2
PHANTOM
 70
     0
  3
______  __  __  ______  __  __  ______  __  __ 
 72
    65
 73
     6
 40
2.5
 49
1.25
 74
     0
 49
-0.25
 74
     0
 49
0.25
 74
     0
 49
-0.25
 74
     0
 49
0.25
 74
     0
 49
-0.25
 74
     0
  0
LTYPE
  5
19B3C
330
746A
100
AcDbSymbolTableRecord
100
AcDbLinetypeTableRecord
  2
CENTER
 70
     0
  3
____ _ ____ _ ____ _ ____ _ ____ _ ____ _ ____ 
 72
    65
 73
     4
 40
2.0
 49
1.25
 74
     0
 49
-0.25
 74
     0
 49
0.25
 74
     0
 49
-0.25
 74
     0
  0
ENDTAB
  0
TABLE
  2
LAYER
  5
7467
102
{ACAD_XDICTIONARY
360
1199D
102
}
330
0
100
AcDbSymbolTable
 70
    12
  0
LAYER
  5
7474
330
7467
100
AcDbSymbolTableRecord
100
AcDbLayerTableRecord
  2
0
 70
     0
 62
     7
  6
CONTINUOUS
370
    -3
390
11752
  0
LAYER
  5
DEB3
330
7467
100
AcDbSymbolTableRecord
100
AcDbLayerTableRecord
  2
寸法
 70
     0
 62
     4
  6
CONTINUOUS
370
    -3
390
11752
  0
LAYER
  5
DEB4
330
7467
100
AcDbSymbolTableRecord
100
AcDbLayerTableRecord
  2
部品1
 70
     0
 62
     7
  6
CONTINUOUS
370
    -3
390
11752
  0
LAYER
  5
DEB5
330
7467
100
AcDbSymbolTableRecord
100
AcDbLayerTableRecord
  2
補助
 70
     0
 62
     1
  6
CONTINUOUS
370
    -3
390
11752
  0
LAYER
  5
DEB6
330
7467
100
AcDbSymbolTableRecord
100
AcDbLayerTableRecord
  2
文字
 70
     0
 62
     7
  6
CONTINUOUS
370
    -3
390
11752
  0
LAYER
  5
F255
330
7467
100
AcDbSymbolTableRecord
100
AcDbLayerTableRecord
  2
DEFPOINTS
 70
     0
 62
     7
  6
CONTINUOUS
290
     0
370
    -3
390
11752
  0
LAYER
  5
10B54
330
7467
100
AcDbSymbolTableRecord
100
AcDbLayerTableRecord
  2
仕様書枠
 70
     0
 62
   230
  6
CONTINUOUS
370
    -3
390
11752
  0
LAYER
  5
1173F
330
7467
100
AcDbSymbolTableRecord
100
AcDbLayerTableRecord
  2
細線
 70
     0
 62
     5
  6
CONTINUOUS
370
    -3
390
11752
  0
LAYER
  5
1199B
330
7467
100
AcDbSymbolTableRecord
100
AcDbLayerTableRecord
  2
破線
 70
     0
 62
     2
  6
HIDDEN
370
    -3
390
11752
  0
LAYER
  5
19B3D
330
7467
100
AcDbSymbolTableRecord
100
AcDbLayerTableRecord
  2
センター
 70
     0
 62
     3
  6
CENTER
370
    -3
390
11752
  0
LAYER
  5
19B3E
330
7467
100
AcDbSymbolTableRecord
100
AcDbLayerTableRecord
  2
想像線
 70
     0
 62
     6
  6
PHANTOM
370
    -3
390
11752
  0
LAYER
  5
3AC8A
330
7467
100
AcDbSymbolTableRecord
100
AcDbLayerTableRecord
  2
Ｇ．Ｌ
 70
     0
 62
    30
  6
CONTINUOUS
370
    -3
390
11752
  0
ENDTAB
  0
TABLE
  2
STYLE
  5
7468
330
0
100
AcDbSymbolTable
 70
     4
  0
STYLE
  5
7475
330
7468
100
AcDbSymbolTableRecord
100
AcDbTextStyleTableRecord
  2
STANDARD
 70
     0
 40
0.0
 41
1.0
 50
0.0
 71
     0
 42
4.0
  3
txt
  4
C:\AutoCAD LT\bigfont.shx
  0
STYLE
  5
F706
330
7468
100
AcDbSymbolTableRecord
100
AcDbTextStyleTableRecord
  2
STYLE1
 70
     0
 40
0.0
 41
1.0
 50
0.0
 71
     0
 42
4.0
  3
isocp.shx
  4
bigfont.shx
  0
STYLE
  5
103BF
330
7468
100
AcDbSymbolTableRecord
100
AcDbTextStyleTableRecord
  2
STYLE2
 70
     0
 40
0.0
 41
1.0
 50
0.0
 71
     0
 42
100.0
  3
MS PGothic.ttf
  4

1001
ACAD
1000
MS PGothic
1071
    32818
  0
STYLE
  5
10BAA
330
7468
100
AcDbSymbolTableRecord
100
AcDbTextStyleTableRecord
  2
STYLE3
 70
     0
 40
0.0
 41
1.0
 50
0.0
 71
     0
 42
100.0
  3
DFPGothic-EB.ttf
  4

1001
ACAD
1000
DFPGothic-EB
1071
    32818
  0
ENDTAB
  0
TABLE
  2
VIEW
  5
746B
330
0
100
AcDbSymbolTable
 70
     0
  0
ENDTAB
  0
TABLE
  2
UCS
  5
746C
330
0
100
AcDbSymbolTable
 70
     0
  0
ENDTAB
  0
TABLE
  2
APPID
  5
746E
330
0
100
AcDbSymbolTable
 70
     8
  0
APPID
  5
7476
330
746E
100
AcDbSymbolTableRecord
100
AcDbRegAppTableRecord
  2
ACAD
 70
     0
  0
APPID
  5
DEA9
330
746E
100
AcDbSymbolTableRecord
100
AcDbRegAppTableRecord
  2
CONTENTBLOCKICON
 70
     0
  0
APPID
  5
DEAA
330
746E
100
AcDbSymbolTableRecord
100
AcDbRegAppTableRecord
  2
CONTENTBLOCKDESCRIPTION
 70
     0
  0
APPID
  5
E71D
330
746E
100
AcDbSymbolTableRecord
100
AcDbRegAppTableRecord
  2
CONTENTTABDATA
 70
     0
  0
APPID
  5
E71E
330
746E
100
AcDbSymbolTableRecord
100
AcDbRegAppTableRecord
  2
CONTENTCURRENTTAB
 70
     0
  0
APPID
  5
F3BA
330
746E
100
AcDbSymbolTableRecord
100
AcDbRegAppTableRecord
  2
DRAWINGVARIABLESXDATA
 70
     0
  0
APPID
  5
2BA8D
330
746E
100
AcDbSymbolTableRecord
100
AcDbRegAppTableRecord
  2
GENIUS_GENODEF_13
 70
     0
  0
APPID
  5
2BA8E
330
746E
100
AcDbSymbolTableRecord
100
AcDbRegAppTableRecord
  2
GENIUS_GENOBJ-N-FIL_13
 70
     0
  0
ENDTAB
  0
TABLE
  2
DIMSTYLE
  5
746F
330
0
100
AcDbSymbolTable
 70
     1
100
AcDbDimStyleTable
 71
     1
340
F71F
  0
DIMSTYLE
105
F71F
102
{ACAD_REACTORS
330
3B0C7
330
3B0F0
330
3B0F1
330
3B0F2
330
3B0F3
330
3B0F4
330
3B0F5
330
3B0F6
330
3B0F7
330
3B0F8
330
3B18B
330
3B18C
330
3B18D
330
3B18E
330
3B18F
330
3B190
330
3B191
330
3B192
330
3B193
330
3BE80
330
3BE81
330
3BEF7
330
3BF15
330
3CA38
330
3CA39
330
3CA3D
330
3CA40
330
3CA41
330
3CA47
330
3CAA1
330
3CAA2
330
3CAA3
330
3CAA4
102
}
330
746F
100
AcDbSymbolTableRecord
100
AcDbDimStyleTableRecord
  2
INABA_S50G
 70
     0
 41
125.0
 42
25.0
 43
7.0
 44
75.0
 73
     0
 74
     0
 77
     3
 78
     8
140
150.0
141
0.0
143
0.0394
147
25.0
172
     1
173
     1
174
     1
178
     7
271
     1
340
F706
341
F770
343
F770
344
F770
  0
ENDTAB
  0
TABLE
  2
BLOCK_RECORD
  5
7466
330
0
100
AcDbSymbolTable
 70
    34
  0
BLOCK_RECORD
  5
747D
330
7466
100
AcDbSymbolTableRecord
100
AcDbBlockTableRecord
  2
*MODEL_SPACE
340
11757
  0
BLOCK_RECORD
  5
747A
330
7466
100
AcDbSymbolTableRecord
100
AcDbBlockTableRecord
  2
*PAPER_SPACE
340
11758
  0
BLOCK_RECORD
  5
F770
330
7466
100
AcDbSymbolTableRecord
100
AcDbBlockTableRecord
  2
_DOTSMALL
340
0
102
{BLKREFS
331
3C734
331
3C735
331
3C77E
331
3C77F
331
3C787
331
3C788
331
3C791
331
3C792
331
3C799
331
3C79A
331
3C7A4
331
3C7A5
331
3C892
331
3C893
331
3C8AD
331
3C8AE
331
3C8C0
331
3C8C1
331
3C8CA
331
3C8CB
331
3C8DB
331
3C8DC
331
3CB95
331
3CB96
331
3CBF1
331
3CBF2
331
3CBF9
331
3CBFA
331
3CC03
331
3CC04
331
3CC0C
331
3CC0D
331
3CC15
331
3CC16
331
3CC1F
331
3CC20
331
3CC2F
331
3CC30
331
3CC72
331
3CC73
331
3CC7B
331
3CC7C
331
3CC8E
331
3CC8F
331
3CC97
331
3CC98
331
3CCA1
331
3CCA2
331
3CCB3
331
3CCB4
331
3CCBD
331
3CCBE
331
3CCE1
331
3CCE2
331
3CCEB
331
3CCEC
331
3CCF4
331
3CCF5
331
3CCFE
331
3CCFF
331
3CD10
331
3CD11
331
3CDDB
331
3CDDC
331
3CE2B
331
3CE2C
102
}
  0
BLOCK_RECORD
  5
3B223
330
7466
100
AcDbSymbolTableRecord
100
AcDbBlockTableRecord
  2
*D1
340
0
  0
BLOCK_RECORD
  5
3B23C
330
7466
100
AcDbSymbolTableRecord
100
AcDbBlockTableRecord
  2
*D2
340
0
  0
BLOCK_RECORD
  5
3B247
330
7466
100
AcDbSymbolTableRecord
100
AcDbBlockTableRecord
  2
*D3
340
0
  0
BLOCK_RECORD
  5
3B254
330
7466
100
AcDbSymbolTableRecord
100
AcDbBlockTableRecord
  2
*D4
340
0
  0
BLOCK_RECORD
  5
3B261
330
7466
100
AcDbSymbolTableRecord
100
AcDbBlockTableRecord
  2
*D5
340
0
  0
BLOCK_RECORD
  5
3B26C
330
7466
100
AcDbSymbolTableRecord
100
AcDbBlockTableRecord
  2
*D6
340
0
  0
BLOCK_RECORD
  5
3B277
330
7466
100
AcDbSymbolTableRecord
100
AcDbBlockTableRecord
  2
*D7
340
0
  0
BLOCK_RECORD
  5
3B284
330
7466
100
AcDbSymbolTableRecord
100
AcDbBlockTableRecord
  2
*D8
340
0
  0
BLOCK_RECORD
  5
3B290
330
7466
100
AcDbSymbolTableRecord
100
AcDbBlockTableRecord
  2
*D9
340
0
  0
BLOCK_RECORD
  5
3B29D
330
7466
100
AcDbSymbolTableRecord
100
AcDbBlockTableRecord
  2
*D10
340
0
  0
BLOCK_RECORD
  5
3B2ED
330
7466
100
AcDbSymbolTableRecord
100
AcDbBlockTableRecord
  2
*D11
340
0
  0
BLOCK_RECORD
  5
3B2FA
330
7466
100
AcDbSymbolTableRecord
100
AcDbBlockTableRecord
  2
*D12
340
0
  0
BLOCK_RECORD
  5
3B306
330
7466
100
AcDbSymbolTableRecord
100
AcDbBlockTableRecord
  2
*D13
340
0
  0
BLOCK_RECORD
  5
3B314
330
7466
100
AcDbSymbolTableRecord
100
AcDbBlockTableRecord
  2
*D14
340
0
  0
BLOCK_RECORD
  5
3B322
330
7466
100
AcDbSymbolTableRecord
100
AcDbBlockTableRecord
  2
*D15
340
0
  0
BLOCK_RECORD
  5
3B32F
330
7466
100
AcDbSymbolTableRecord
100
AcDbBlockTableRecord
  2
*D16
340
0
  0
BLOCK_RECORD
  5
3B33B
330
7466
100
AcDbSymbolTableRecord
100
AcDbBlockTableRecord
  2
*D17
340
0
  0
BLOCK_RECORD
  5
3B348
330
7466
100
AcDbSymbolTableRecord
100
AcDbBlockTableRecord
  2
*D18
340
0
  0
BLOCK_RECORD
  5
3B354
330
7466
100
AcDbSymbolTableRecord
100
AcDbBlockTableRecord
  2
*D19
340
0
  0
BLOCK_RECORD
  5
3BE95
330
7466
100
AcDbSymbolTableRecord
100
AcDbBlockTableRecord
  2
*D20
340
0
  0
BLOCK_RECORD
  5
3BEA0
330
7466
100
AcDbSymbolTableRecord
100
AcDbBlockTableRecord
  2
*D21
340
0
  0
BLOCK_RECORD
  5
3BF16
330
7466
100
AcDbSymbolTableRecord
100
AcDbBlockTableRecord
  2
*D22
340
0
  0
BLOCK_RECORD
  5
3BF23
330
7466
100
AcDbSymbolTableRecord
100
AcDbBlockTableRecord
  2
*D23
340
0
  0
BLOCK_RECORD
  5
3CAB8
330
7466
100
AcDbSymbolTableRecord
100
AcDbBlockTableRecord
  2
*D24
340
0
  0
BLOCK_RECORD
  5
3CAC5
330
7466
100
AcDbSymbolTableRecord
100
AcDbBlockTableRecord
  2
*D25
340
0
  0
BLOCK_RECORD
  5
3CAD1
330
7466
100
AcDbSymbolTableRecord
100
AcDbBlockTableRecord
  2
*D26
340
0
  0
BLOCK_RECORD
  5
3CADD
330
7466
100
AcDbSymbolTableRecord
100
AcDbBlockTableRecord
  2
*D27
340
0
  0
BLOCK_RECORD
  5
3CAEA
330
7466
100
AcDbSymbolTableRecord
100
AcDbBlockTableRecord
  2
*D28
340
0
  0
BLOCK_RECORD
  5
3CAF6
330
7466
100
AcDbSymbolTableRecord
100
AcDbBlockTableRecord
  2
*D29
340
0
  0
BLOCK_RECORD
  5
3CB03
330
7466
100
AcDbSymbolTableRecord
100
AcDbBlockTableRecord
  2
*D30
340
0
  0
BLOCK_RECORD
  5
3CB0F
330
7466
100
AcDbSymbolTableRecord
100
AcDbBlockTableRecord
  2
*D31
340
0
  0
BLOCK_RECORD
  5
3CB1B
330
7466
100
AcDbSymbolTableRecord
100
AcDbBlockTableRecord
  2
*D32
340
0
  0
BLOCK_RECORD
  5
3CB27
330
7466
100
AcDbSymbolTableRecord
100
AcDbBlockTableRecord
  2
*D33
340
0
  0
ENDTAB
  0
ENDSEC
  0
SECTION
  2
BLOCKS
  0
BLOCK
  5
7489
330
747D
100
AcDbEntity
  8
0
100
AcDbBlockBegin
  2
*MODEL_SPACE
 70
     0
 10
0.0
 20
0.0
 30
0.0
  3
*MODEL_SPACE
  1

  0
ENDBLK
  5
748A
330
747D
100
AcDbEntity
  8
0
100
AcDbBlockEnd
  0
BLOCK
  5
7487
330
747A
100
AcDbEntity
 67
     1
  8
0
100
AcDbBlockBegin
  2
*PAPER_SPACE
 70
     0
 10
0.0
 20
0.0
 30
0.0
  3
*PAPER_SPACE
  1

  0
ENDBLK
  5
7488
330
747A
100
AcDbEntity
 67
     1
  8
0
100
AcDbBlockEnd
  0
BLOCK
  5
F771
330
F770
100
AcDbEntity
  8
0
 48
50.0
100
AcDbBlockBegin
  2
_DOTSMALL
 70
     0
 10
0.0
 20
0.0
 30
0.0
  3
_DOTSMALL
  1

  0
LWPOLYLINE
  5
F772
330
F770
100
AcDbEntity
  8
0
  6
ByBlock
 62
     0
 48
50.0
100
AcDbPolyline
 90
        2
 70
     1
 43
0.5
 10
-0.0625
 20
0.0
 42
1.0
 10
0.0625
 20
0.0
 42
1.0
  0
ENDBLK
  5
F776
330
F770
100
AcDbEntity
  8
0
 48
50.0
100
AcDbBlockEnd
  0
BLOCK
  5
3B22E
330
3B223
100
AcDbEntity
  8
0
 48
50.0
100
AcDbBlockBegin
  2
*D1
 70
     1
 10
0.0
 20
0.0
 30
0.0
  3
*D1
  1

  0
LINE
  5
3C79F
330
3B223
100
AcDbEntity
  8
寸法
 62
     0
 48
50.0
370
    -2
100
AcDbLine
 10
8668.0
 20
6767.499999999995
 30
0.0
 11
8668.0
 21
6278.418878792811
 31
0.0
  0
LINE
  5
3C7A0
330
3B223
100
AcDbEntity
  8
寸法
 62
     0
 48
50.0
370
    -2
100
AcDbLine
 10
8619.999999999986
 20
6353.418878792811
 30
0.0
 11
8494.999999999986
 21
6353.418878792811
 31
0.0
  0
LINE
  5
3C7A1
330
3B223
100
AcDbEntity
  8
寸法
 62
     0
 48
50.0
370
    -2
100
AcDbLine
 10
8668.0
 20
6353.418878792811
 30
0.0
 11
8793.0
 21
6353.418878792811
 31
0.0
  0
MTEXT
  5
3C7A2
330
3B223
100
AcDbEntity
  8
寸法
 62
     7
 48
50.0
100
AcDbMText
 10
8458.233093542615
 20
6452.495236709996
 30
0.0
 40
150.0
 41
0.0
 71
     5
 72
     1
  1
\A1;48
  7
STYLE1
 73
     1
 44
1.0
1001
ACAD
1000
MTEXTBEGIN
1070
    73
1070
     1
1070
    44
1040
1.0
1070
    74
1070
     0
1000
MTEXTEND
  0
LINE
  5
3C7A3
330
3B223
100
AcDbEntity
  8
寸法
 62
     0
 48
50.0
370
    -2
100
AcDbLine
 10
8619.999999999986
 20
6353.418878792811
 30
0.0
 11
8668.0
 21
6353.418878792811
 31
0.0
  0
INSERT
  5
3C7A4
330
3B223
100
AcDbEntity
  8
寸法
 62
     0
 48
50.0
370
    -2
100
AcDbBlockReference
  2
_DOTSMALL
 10
8619.999999999986
 20
6353.418878792811
 30
0.0
 41
125.0
 42
125.0
 43
125.0
  0
INSERT
  5
3C7A5
330
3B223
100
AcDbEntity
  8
寸法
 62
     0
 48
50.0
370
    -2
100
AcDbBlockReference
  2
_DOTSMALL
 10
8668.0
 20
6353.418878792811
 30
0.0
 41
125.0
 42
125.0
 43
125.0
 50
180.0
  0
POINT
  5
3C7A6
330
3B223
100
AcDbEntity
  8
DEFPOINTS
 62
     0
 48
50.0
100
AcDbPoint
 10
8619.999999999986
 20
6820.999999999999
 30
0.0
  0
POINT
  5
3C7A7
330
3B223
100
AcDbEntity
  8
DEFPOINTS
 62
     0
 48
50.0
100
AcDbPoint
 10
8668.0
 20
6792.499999999995
 30
0.0
  0
POINT
  5
3C7A8
330
3B223
100
AcDbEntity
  8
DEFPOINTS
 62
     0
 48
50.0
100
AcDbPoint
 10
8668.0
 20
6353.418878792811
 30
0.0
  0
ENDBLK
  5
3B22F
330
3B223
100
AcDbEntity
  8
0
 48
50.0
100
AcDbBlockEnd
  0
BLOCK
  5
3B245
330
3B23C
100
AcDbEntity
  8
0
 48
50.0
100
AcDbBlockBegin
  2
*D2
 70
     1
 10
0.0
 20
0.0
 30
0.0
  3
*D2
  1

  0
LINE
  5
3C797
330
3B23C
100
AcDbEntity
  8
寸法
 62
     0
 48
50.0
370
    -2
100
AcDbLine
 10
8793.0
 20
6859.999999999996
 30
0.0
 11
9620.136749169295
 21
6859.999999999996
 31
0.0
  0
LINE
  5
3C798
330
3B23C
100
AcDbEntity
  8
寸法
 62
     0
 48
50.0
370
    -2
100
AcDbLine
 10
9545.136749169294
 20
9799.999999999995
 30
0.0
 11
9545.136749169294
 21
6859.999999999996
 31
0.0
  0
INSERT
  5
3C799
330
3B23C
100
AcDbEntity
  8
寸法
 62
     0
 48
50.0
370
    -2
100
AcDbBlockReference
  2
_DOTSMALL
 10
9545.136749169294
 20
9799.999999999995
 30
0.0
 41
125.0
 42
125.0
 43
125.0
 50
90.0
  0
INSERT
  5
3C79A
330
3B23C
100
AcDbEntity
  8
寸法
 62
     0
 48
50.0
370
    -2
100
AcDbBlockReference
  2
_DOTSMALL
 10
9545.136749169294
 20
6859.999999999996
 30
0.0
 41
125.0
 42
125.0
 43
125.0
 50
270.0
  0
MTEXT
  5
3C79B
330
3B23C
100
AcDbEntity
  8
寸法
 62
     7
 48
50.0
100
AcDbMText
 10
9445.121985389766
 20
8329.999999999996
 30
0.0
 40
150.0
 41
0.0
 71
     5
 72
     1
  1
\A1;7X420=2940
  7
STYLE1
 11
0.0000000000000001
 21
1.0
 31
0.0
 73
     1
 44
1.0
1001
ACAD
1000
MTEXTBEGIN
1070
    73
1070
     1
1070
    44
1040
1.0
1070
    74
1070
     0
1000
MTEXTEND
  0
POINT
  5
3C79C
330
3B23C
100
AcDbEntity
  8
DEFPOINTS
 62
     0
 48
50.0
100
AcDbPoint
 10
8764.0
 20
9799.999999999995
 30
0.0
  0
POINT
  5
3C79D
330
3B23C
100
AcDbEntity
  8
DEFPOINTS
 62
     0
 48
50.0
100
AcDbPoint
 10
8768.0
 20
6859.999999999996
 30
0.0
  0
POINT
  5
3C79E
330
3B23C
100
AcDbEntity
  8
DEFPOINTS
 62
     0
 48
50.0
100
AcDbPoint
 10
9545.136749169294
 20
6859.999999999996
 30
0.0
  0
ENDBLK
  5
3B246
330
3B23C
100
AcDbEntity
  8
0
 48
50.0
100
AcDbBlockEnd
  0
BLOCK
  5
3B252
330
3B247
100
AcDbEntity
  8
0
 48
50.0
100
AcDbBlockBegin
  2
*D3
 70
     1
 10
0.0
 20
0.0
 30
0.0
  3
*D3
  1

  0
LINE
  5
3C78D
330
3B247
100
AcDbEntity
  8
寸法
 62
     0
 48
50.0
370
    -2
100
AcDbLine
 10
8668.0
 20
6767.499999999995
 30
0.0
 11
8668.0
 21
6278.418878792966
 31
0.0
  0
LINE
  5
3C78E
330
3B247
100
AcDbEntity
  8
寸法
 62
     0
 48
50.0
370
    -2
100
AcDbLine
 10
8768.0
 20
6754.999999999997
 30
0.0
 11
8768.0
 21
6278.418878792966
 31
0.0
  0
LINE
  5
3C78F
330
3B247
100
AcDbEntity
  8
寸法
 62
     0
 48
50.0
370
    -2
100
AcDbLine
 10
8668.0
 20
6353.418878792966
 30
0.0
 11
8768.0
 21
6353.418878792966
 31
0.0
  0
LINE
  5
3C790
330
3B247
100
AcDbEntity
  8
寸法
 62
     0
 48
50.0
370
    -2
100
AcDbLine
 10
8768.0
 20
6353.418878792966
 30
0.0
 11
9243.159055118109
 21
6353.418878792966
 31
0.0
  0
INSERT
  5
3C791
330
3B247
100
AcDbEntity
  8
寸法
 62
     0
 48
50.0
370
    -2
100
AcDbBlockReference
  2
_DOTSMALL
 10
8668.0
 20
6353.418878792966
 30
0.0
 41
125.0
 42
125.0
 43
125.0
 50
180.0
  0
INSERT
  5
3C792
330
3B247
100
AcDbEntity
  8
寸法
 62
     0
 48
50.0
370
    -2
100
AcDbBlockReference
  2
_DOTSMALL
 10
8768.0
 20
6353.418878792966
 30
0.0
 41
125.0
 42
125.0
 43
125.0
  0
MTEXT
  5
3C793
330
3B247
100
AcDbEntity
  8
寸法
 62
     7
 48
50.0
100
AcDbMText
 10
9098.099999999998
 20
6453.418878792966
 30
0.0
 40
150.0
 41
0.0
 71
     5
 72
     1
  1
\A1;100
  7
STYLE1
 73
     1
 44
1.0
1001
ACAD
1000
MTEXTBEGIN
1070
    73
1070
     1
1070
    44
1040
1.0
1070
    74
1070
     0
1000
MTEXTEND
  0
POINT
  5
3C794
330
3B247
100
AcDbEntity
  8
DEFPOINTS
 62
     0
 48
50.0
100
AcDbPoint
 10
8668.0
 20
6792.499999999995
 30
0.0
  0
POINT
  5
3C795
330
3B247
100
AcDbEntity
  8
DEFPOINTS
 62
     0
 48
50.0
100
AcDbPoint
 10
8768.0
 20
6779.999999999997
 30
0.0
  0
POINT
  5
3C796
330
3B247
100
AcDbEntity
  8
DEFPOINTS
 62
     0
 48
50.0
100
AcDbPoint
 10
8768.0
 20
6353.418878792966
 30
0.0
  0
ENDBLK
  5
3B253
330
3B247
100
AcDbEntity
  8
0
 48
50.0
100
AcDbBlockEnd
  0
BLOCK
  5
3B25F
330
3B254
100
AcDbEntity
  8
0
 48
50.0
100
AcDbBlockBegin
  2
*D4
 70
     1
 10
0.0
 20
0.0
 30
0.0
  3
*D4
  1

  0
LINE
  5
3C783
330
3B254
100
AcDbEntity
  8
寸法
 62
     0
 48
50.0
370
    -2
100
AcDbLine
 10
8789.0
 20
6859.999999999995
 30
0.0
 11
9620.136749169297
 21
6859.999999999995
 31
0.0
  0
LINE
  5
3C784
330
3B254
100
AcDbEntity
  8
寸法
 62
     0
 48
50.0
370
    -2
100
AcDbLine
 10
8793.0
 20
6779.999999999997
 30
0.0
 11
9620.136749169297
 21
6779.999999999997
 31
0.0
  0
LINE
  5
3C785
330
3B254
100
AcDbEntity
  8
寸法
 62
     0
 48
50.0
370
    -2
100
AcDbLine
 10
9545.136749169296
 20
6859.999999999995
 30
0.0
 11
9545.136749169296
 21
6779.999999999997
 31
0.0
  0
LINE
  5
3C786
330
3B254
100
AcDbEntity
  8
寸法
 62
     0
 48
50.0
370
    -2
100
AcDbLine
 10
9545.136749169296
 20
6779.999999999997
 30
0.0
 11
9545.136749169296
 21
6439.881889763771
 31
0.0
  0
INSERT
  5
3C787
330
3B254
100
AcDbEntity
  8
寸法
 62
     0
 48
50.0
370
    -2
100
AcDbBlockReference
  2
_DOTSMALL
 10
9545.136749169296
 20
6859.999999999995
 30
0.0
 41
125.0
 42
125.0
 43
125.0
 50
90.0
  0
INSERT
  5
3C788
330
3B254
100
AcDbEntity
  8
寸法
 62
     0
 48
50.0
370
    -2
100
AcDbBlockReference
  2
_DOTSMALL
 10
9545.136749169296
 20
6779.999999999997
 30
0.0
 41
125.0
 42
125.0
 43
125.0
 50
270.0
  0
MTEXT
  5
3C789
330
3B254
100
AcDbEntity
  8
寸法
 62
     7
 48
50.0
100
AcDbMText
 10
9445.136749169295
 20
6547.440944881881
 30
0.0
 40
150.0
 41
0.0
 71
     5
 72
     1
  1
\A1;80
  7
STYLE1
 11
0.0000000000000001
 21
1.0
 31
0.0
 73
     1
 44
1.0
1001
ACAD
1000
MTEXTBEGIN
1070
    73
1070
     1
1070
    44
1040
1.0
1070
    74
1070
     0
1000
MTEXTEND
  0
POINT
  5
3C78A
330
3B254
100
AcDbEntity
  8
DEFPOINTS
 62
     0
 48
50.0
100
AcDbPoint
 10
8764.0
 20
6859.999999999995
 30
0.0
  0
POINT
  5
3C78B
330
3B254
100
AcDbEntity
  8
DEFPOINTS
 62
     0
 48
50.0
100
AcDbPoint
 10
8768.0
 20
6779.999999999997
 30
0.0
  0
POINT
  5
3C78C
330
3B254
100
AcDbEntity
  8
DEFPOINTS
 62
     0
 48
50.0
100
AcDbPoint
 10
9545.136749169296
 20
6779.999999999997
 30
0.0
  0
ENDBLK
  5
3B260
330
3B254
100
AcDbEntity
  8
0
 48
50.0
100
AcDbBlockEnd
  0
BLOCK
  5
3B26A
330
3B261
100
AcDbEntity
  8
0
 48
50.0
100
AcDbBlockBegin
  2
*D5
 70
     1
 10
0.0
 20
0.0
 30
0.0
  3
*D5
  1

  0
LINE
  5
3C77B
330
3B261
100
AcDbEntity
  8
寸法
 62
     0
 48
50.0
370
    -2
100
AcDbLine
 10
8789.0
 20
9799.999999999995
 30
0.0
 11
9620.136749169295
 21
9799.999999999995
 31
0.0
  0
LINE
  5
3C77C
330
3B261
100
AcDbEntity
  8
寸法
 62
     0
 48
50.0
370
    -2
100
AcDbLine
 10
9545.136749169294
 20
9929.999999999996
 30
0.0
 11
9545.136749169294
 21
9799.999999999995
 31
0.0
  0
MTEXT
  5
3C77D
330
3B261
100
AcDbEntity
  8
寸法
 62
     7
 48
50.0
100
AcDbMText
 10
9445.136749169295
 20
9864.999999999994
 30
0.0
 40
150.0
 41
0.0
 71
     5
 72
     1
  1
\A1;130
  7
STYLE1
 11
0.0000000000000001
 21
1.0
 31
0.0
 73
     1
 44
1.0
1001
ACAD
1000
MTEXTBEGIN
1070
    73
1070
     1
1070
    44
1040
1.0
1070
    74
1070
     0
1000
MTEXTEND
  0
INSERT
  5
3C77E
330
3B261
100
AcDbEntity
  8
寸法
 62
     0
 48
50.0
370
    -2
100
AcDbBlockReference
  2
_DOTSMALL
 10
9545.136749169294
 20
9929.999999999996
 30
0.0
 41
125.0
 42
125.0
 43
125.0
 50
90.0
  0
INSERT
  5
3C77F
330
3B261
100
AcDbEntity
  8
寸法
 62
     0
 48
50.0
370
    -2
100
AcDbBlockReference
  2
_DOTSMALL
 10
9545.136749169294
 20
9799.999999999995
 30
0.0
 41
125.0
 42
125.0
 43
125.0
 50
270.0
  0
POINT
  5
3C780
330
3B261
100
AcDbEntity
  8
DEFPOINTS
 62
     0
 48
50.0
100
AcDbPoint
 10
8764.0
 20
9929.999999999996
 30
0.0
  0
POINT
  5
3C781
330
3B261
100
AcDbEntity
  8
DEFPOINTS
 62
     0
 48
50.0
100
AcDbPoint
 10
8764.0
 20
9799.999999999995
 30
0.0
  0
POINT
  5
3C782
330
3B261
100
AcDbEntity
  8
DEFPOINTS
 62
     0
 48
50.0
100
AcDbPoint
 10
9545.136749169294
 20
9799.999999999995
 30
0.0
  0
ENDBLK
  5
3B26B
330
3B261
100
AcDbEntity
  8
0
 48
50.0
100
AcDbBlockEnd
  0
BLOCK
  5
3B275
330
3B26C
100
AcDbEntity
  8
0
 48
50.0
100
AcDbBlockBegin
  2
*D6
 70
     1
 10
0.0
 20
0.0
 30
0.0
  3
*D6
  1

  0
LINE
  5
3CC2D
330
3B26C
100
AcDbEntity
  8
寸法
 62
     0
 48
50.0
370
    -2
100
AcDbLine
 10
8789.0
 20
9929.999999999996
 30
0.0
 11
9620.136749169295
 21
9929.999999999996
 31
0.0
  0
LINE
  5
3CC2E
330
3B26C
100
AcDbEntity
  8
寸法
 62
     0
 48
50.0
370
    -2
100
AcDbLine
 10
9545.136749169296
 20
12449.99999999999
 30
0.0
 11
9545.136749169294
 21
9929.999999999996
 31
0.0
  0
INSERT
  5
3CC2F
330
3B26C
100
AcDbEntity
  8
寸法
 62
     0
 48
50.0
370
    -2
100
AcDbBlockReference
  2
_DOTSMALL
 10
9545.136749169296
 20
12449.99999999999
 30
0.0
 41
125.0
 42
125.0
 43
125.0
 50
90.0
  0
INSERT
  5
3CC30
330
3B26C
100
AcDbEntity
  8
寸法
 62
     0
 48
50.0
370
    -2
100
AcDbBlockReference
  2
_DOTSMALL
 10
9545.136749169294
 20
9929.999999999996
 30
0.0
 41
125.0
 42
125.0
 43
125.0
 50
270.0
  0
MTEXT
  5
3CC31
330
3B26C
100
AcDbEntity
  8
寸法
 62
     7
 48
50.0
100
AcDbMText
 10
9445.121985389766
 20
11189.99999999999
 30
0.0
 40
150.0
 41
0.0
 71
     5
 72
     1
  1
\A1;6X420=2520
  7
STYLE1
 11
0.0000000000000001
 21
1.0
 31
0.0
 73
     1
 44
1.0
1001
ACAD
1000
MTEXTBEGIN
1070
    73
1070
     1
1070
    44
1040
1.0
1070
    74
1070
     0
1000
MTEXTEND
  0
POINT
  5
3CC32
330
3B26C
100
AcDbEntity
  8
DEFPOINTS
 62
     0
 48
50.0
100
AcDbPoint
 10
8764.0
 20
12449.99999999999
 30
0.0
  0
POINT
  5
3CC33
330
3B26C
100
AcDbEntity
  8
DEFPOINTS
 62
     0
 48
50.0
100
AcDbPoint
 10
8764.0
 20
9929.999999999996
 30
0.0
  0
POINT
  5
3CC34
330
3B26C
100
AcDbEntity
  8
DEFPOINTS
 62
     0
 48
50.0
100
AcDbPoint
 10
9545.136749169294
 20
9929.999999999996
 30
0.0
  0
ENDBLK
  5
3B276
330
3B26C
100
AcDbEntity
  8
0
 48
50.0
100
AcDbBlockEnd
  0
BLOCK
  5
3B282
330
3B277
100
AcDbEntity
  8
0
 48
50.0
100
AcDbBlockBegin
  2
*D7
 70
     1
 10
0.0
 20
0.0
 30
0.0
  3
*D7
  1

  0
LINE
  5
3CC1B
330
3B277
100
AcDbEntity
  8
寸法
 62
     0
 48
50.0
370
    -2
100
AcDbLine
 10
8789.0
 20
12514.99999999999
 30
0.0
 11
9620.136749169297
 21
12514.99999999999
 31
0.0
  0
LINE
  5
3CC1C
330
3B277
100
AcDbEntity
  8
寸法
 62
     0
 48
50.0
370
    -2
100
AcDbLine
 10
8789.0
 20
12449.99999999999
 30
0.0
 11
9620.136749169297
 21
12449.99999999999
 31
0.0
  0
LINE
  5
3CC1D
330
3B277
100
AcDbEntity
  8
寸法
 62
     0
 48
50.0
370
    -2
100
AcDbLine
 10
9545.136749169298
 20
12449.99999999999
 30
0.0
 11
9545.136749169298
 21
12514.99999999999
 31
0.0
  0
LINE
  5
3CC1E
330
3B277
100
AcDbEntity
  8
寸法
 62
     0
 48
50.0
370
    -2
100
AcDbLine
 10
9545.136749169298
 20
12514.99999999999
 30
0.0
 11
9545.136749169298
 21
12870.18958138835
 31
0.0
  0
INSERT
  5
3CC1F
330
3B277
100
AcDbEntity
  8
寸法
 62
     0
 48
50.0
370
    -2
100
AcDbBlockReference
  2
_DOTSMALL
 10
9545.136749169298
 20
12449.99999999999
 30
0.0
 41
125.0
 42
125.0
 43
125.0
 50
270.0
  0
INSERT
  5
3CC20
330
3B277
100
AcDbEntity
  8
寸法
 62
     0
 48
50.0
370
    -2
100
AcDbBlockReference
  2
_DOTSMALL
 10
9545.136749169298
 20
12514.99999999999
 30
0.0
 41
125.0
 42
125.0
 43
125.0
 50
90.0
  0
MTEXT
  5
3CC21
330
3B277
100
AcDbEntity
  8
寸法
 62
     7
 48
50.0
100
AcDbMText
 10
9445.136749169295
 20
12755.09479069417
 30
0.0
 40
150.0
 41
0.0
 71
     5
 72
     1
  1
\A1;65
  7
STYLE1
 11
0.0000000000000001
 21
1.0
 31
0.0
 73
     1
 44
1.0
1001
ACAD
1000
MTEXTBEGIN
1070
    73
1070
     1
1070
    44
1040
1.0
1070
    74
1070
     0
1000
MTEXTEND
  0
POINT
  5
3CC22
330
3B277
100
AcDbEntity
  8
DEFPOINTS
 62
     0
 48
50.0
100
AcDbPoint
 10
8764.0
 20
12514.99999999999
 30
0.0
  0
POINT
  5
3CC23
330
3B277
100
AcDbEntity
  8
DEFPOINTS
 62
     0
 48
50.0
100
AcDbPoint
 10
8764.0
 20
12449.99999999999
 30
0.0
  0
POINT
  5
3CC24
330
3B277
100
AcDbEntity
  8
DEFPOINTS
 62
     0
 48
50.0
100
AcDbPoint
 10
9545.136749169298
 20
12449.99999999999
 30
0.0
  0
ENDBLK
  5
3B283
330
3B277
100
AcDbEntity
  8
0
 48
50.0
100
AcDbBlockEnd
  0
BLOCK
  5
3B28E
330
3B284
100
AcDbEntity
  8
0
 48
50.0
100
AcDbBlockBegin
  2
*D8
 70
     1
 10
0.0
 20
0.0
 30
0.0
  3
*D8
  1

  0
LINE
  5
3CC12
330
3B284
100
AcDbEntity
  8
寸法
 62
     0
 48
50.0
370
    -2
100
AcDbLine
 10
8789.0
 20
12514.99999999999
 30
0.0
 11
9970.102536133682
 21
12514.99999999999
 31
0.0
  0
LINE
  5
3CC13
330
3B284
100
AcDbEntity
  8
寸法
 62
     0
 48
50.0
370
    -2
100
AcDbLine
 10
8793.0
 20
6779.999999999997
 30
0.0
 11
9970.10253613368
 21
6779.999999999997
 31
0.0
  0
LINE
  5
3CC14
330
3B284
100
AcDbEntity
  8
寸法
 62
     0
 48
50.0
370
    -2
100
AcDbLine
 10
9895.102536133682
 20
12514.99999999999
 30
0.0
 11
9895.102536133681
 21
6779.999999999997
 31
0.0
  0
INSERT
  5
3CC15
330
3B284
100
AcDbEntity
  8
寸法
 62
     0
 48
50.0
370
    -2
100
AcDbBlockReference
  2
_DOTSMALL
 10
9895.102536133682
 20
12514.99999999999
 30
0.0
 41
125.0
 42
125.0
 43
125.0
 50
90.0
  0
INSERT
  5
3CC16
330
3B284
100
AcDbEntity
  8
寸法
 62
     0
 48
50.0
370
    -2
100
AcDbBlockReference
  2
_DOTSMALL
 10
9895.102536133681
 20
6779.999999999997
 30
0.0
 41
125.0
 42
125.0
 43
125.0
 50
270.0
  0
MTEXT
  5
3CC17
330
3B284
100
AcDbEntity
  8
寸法
 62
     7
 48
50.0
100
AcDbMText
 10
9795.102536133677
 20
9647.499999999997
 30
0.0
 40
150.0
 41
0.0
 71
     5
 72
     1
  1
\A1;5735
  7
STYLE1
 11
0.0000000000000001
 21
1.0
 31
0.0
 73
     1
 44
1.0
1001
ACAD
1000
MTEXTBEGIN
1070
    73
1070
     1
1070
    44
1040
1.0
1070
    74
1070
     0
1000
MTEXTEND
  0
POINT
  5
3CC18
330
3B284
100
AcDbEntity
  8
DEFPOINTS
 62
     0
 48
50.0
100
AcDbPoint
 10
8764.0
 20
12514.99999999999
 30
0.0
  0
POINT
  5
3CC19
330
3B284
100
AcDbEntity
  8
DEFPOINTS
 62
     0
 48
50.0
100
AcDbPoint
 10
8768.0
 20
6779.999999999997
 30
0.0
  0
POINT
  5
3CC1A
330
3B284
100
AcDbEntity
  8
DEFPOINTS
 62
     0
 48
50.0
100
AcDbPoint
 10
9895.102536133681
 20
6779.999999999997
 30
0.0
  0
ENDBLK
  5
3B28F
330
3B284
100
AcDbEntity
  8
0
 48
50.0
100
AcDbBlockEnd
  0
BLOCK
  5
3B29B
330
3B290
100
AcDbEntity
  8
0
 48
50.0
100
AcDbBlockBegin
  2
*D9
 70
     1
 10
0.0
 20
0.0
 30
0.0
  3
*D9
  1

  0
LINE
  5
3C8C6
330
3B290
100
AcDbEntity
  8
寸法
 62
     0
 48
50.0
370
    -2
100
AcDbLine
 10
6109.999999999993
 20
6754.999999999997
 30
0.0
 11
6109.999999999993
 21
6278.418878792966
 31
0.0
  0
LINE
  5
3C8C7
330
3B290
100
AcDbEntity
  8
寸法
 62
     0
 48
50.0
370
    -2
100
AcDbLine
 10
6209.999999999993
 20
6767.499999999995
 30
0.0
 11
6209.999999999993
 21
6278.418878792966
 31
0.0
  0
LINE
  5
3C8C8
330
3B290
100
AcDbEntity
  8
寸法
 62
     0
 48
50.0
370
    -2
100
AcDbLine
 10
6209.999999999993
 20
6353.418878792966
 30
0.0
 11
6109.999999999993
 21
6353.418878792966
 31
0.0
  0
LINE
  5
3C8C9
330
3B290
100
AcDbEntity
  8
寸法
 62
     0
 48
50.0
370
    -2
100
AcDbLine
 10
6109.999999999993
 20
6353.418878792966
 30
0.0
 11
5634.940944881883
 21
6353.418878792966
 31
0.0
  0
INSERT
  5
3C8CA
330
3B290
100
AcDbEntity
  8
寸法
 62
     0
 48
50.0
370
    -2
100
AcDbBlockReference
  2
_DOTSMALL
 10
6209.999999999993
 20
6353.418878792966
 30
0.0
 41
125.0
 42
125.0
 43
125.0
  0
INSERT
  5
3C8CB
330
3B290
100
AcDbEntity
  8
寸法
 62
     0
 48
50.0
370
    -2
100
AcDbBlockReference
  2
_DOTSMALL
 10
6109.999999999993
 20
6353.418878792966
 30
0.0
 41
125.0
 42
125.0
 43
125.0
 50
180.0
  0
MTEXT
  5
3C8CC
330
3B290
100
AcDbEntity
  8
寸法
 62
     7
 48
50.0
100
AcDbMText
 10
5779.999999999993
 20
6453.418878792966
 30
0.0
 40
150.0
 41
0.0
 71
     5
 72
     1
  1
\A1;100
  7
STYLE1
 73
     1
 44
1.0
1001
ACAD
1000
MTEXTBEGIN
1070
    73
1070
     1
1070
    44
1040
1.0
1070
    74
1070
     0
1000
MTEXTEND
  0
POINT
  5
3C8CD
330
3B290
100
AcDbEntity
  8
DEFPOINTS
 62
     0
 48
50.0
100
AcDbPoint
 10
6109.999999999993
 20
6779.999999999997
 30
0.0
  0
POINT
  5
3C8CE
330
3B290
100
AcDbEntity
  8
DEFPOINTS
 62
     0
 48
50.0
100
AcDbPoint
 10
6209.999999999993
 20
6792.499999999995
 30
0.0
  0
POINT
  5
3C8CF
330
3B290
100
AcDbEntity
  8
DEFPOINTS
 62
     0
 48
50.0
100
AcDbPoint
 10
6209.999999999993
 20
6353.418878792966
 30
0.0
  0
ENDBLK
  5
3B29C
330
3B290
100
AcDbEntity
  8
0
 48
50.0
100
AcDbBlockEnd
  0
BLOCK
  5
3B2A7
330
3B29D
100
AcDbEntity
  8
0
 48
50.0
100
AcDbBlockBegin
  2
*D10
 70
     1
 10
0.0
 20
0.0
 30
0.0
  3
*D10
  1

  0
LINE
  5
3C8BD
330
3B29D
100
AcDbEntity
  8
寸法
 62
     0
 48
50.0
370
    -2
100
AcDbLine
 10
6109.999999999993
 20
6754.999999999997
 30
0.0
 11
6109.999999999993
 21
5837.003342300898
 31
0.0
  0
LINE
  5
3C8BE
330
3B29D
100
AcDbEntity
  8
寸法
 62
     0
 48
50.0
370
    -2
100
AcDbLine
 10
8768.0
 20
6754.999999999997
 30
0.0
 11
8768.0
 21
5837.003342300898
 31
0.0
  0
LINE
  5
3C8BF
330
3B29D
100
AcDbEntity
  8
寸法
 62
     0
 48
50.0
370
    -2
100
AcDbLine
 10
6109.999999999993
 20
5912.003342300898
 30
0.0
 11
8768.0
 21
5912.003342300898
 31
0.0
  0
INSERT
  5
3C8C0
330
3B29D
100
AcDbEntity
  8
寸法
 62
     0
 48
50.0
370
    -2
100
AcDbBlockReference
  2
_DOTSMALL
 10
6109.999999999993
 20
5912.003342300898
 30
0.0
 41
125.0
 42
125.0
 43
125.0
 50
180.0
  0
INSERT
  5
3C8C1
330
3B29D
100
AcDbEntity
  8
寸法
 62
     0
 48
50.0
370
    -2
100
AcDbBlockReference
  2
_DOTSMALL
 10
8768.0
 20
5912.003342300898
 30
0.0
 41
125.0
 42
125.0
 43
125.0
  0
MTEXT
  5
3C8C2
330
3B29D
100
AcDbEntity
  8
寸法
 62
     7
 48
50.0
100
AcDbMText
 10
7438.999999999997
 20
6012.018106080424
 30
0.0
 40
150.0
 41
0.0
 71
     5
 72
     1
  1
\A1;2658
  7
STYLE1
 73
     1
 44
1.0
1001
ACAD
1000
MTEXTBEGIN
1070
    73
1070
     1
1070
    44
1040
1.0
1070
    74
1070
     0
1000
MTEXTEND
  0
POINT
  5
3C8C3
330
3B29D
100
AcDbEntity
  8
DEFPOINTS
 62
     0
 48
50.0
100
AcDbPoint
 10
6109.999999999993
 20
6779.999999999997
 30
0.0
  0
POINT
  5
3C8C4
330
3B29D
100
AcDbEntity
  8
DEFPOINTS
 62
     0
 48
50.0
100
AcDbPoint
 10
8768.0
 20
6779.999999999997
 30
0.0
  0
POINT
  5
3C8C5
330
3B29D
100
AcDbEntity
  8
DEFPOINTS
 62
     0
 48
50.0
100
AcDbPoint
 10
8768.0
 20
5912.003342300898
 30
0.0
  0
ENDBLK
  5
3B2A8
330
3B29D
100
AcDbEntity
  8
0
 48
50.0
100
AcDbBlockEnd
  0
BLOCK
  5
3B2F8
330
3B2ED
100
AcDbEntity
  8
0
 48
50.0
100
AcDbBlockBegin
  2
*D11
 70
     1
 10
0.0
 20
0.0
 30
0.0
  3
*D11
  1

  0
LINE
  5
3CC08
330
3B2ED
100
AcDbEntity
  8
寸法
 62
     0
 48
50.0
370
    -2
100
AcDbLine
 10
6113.999999999993
 20
12539.99999999999
 30
0.0
 11
6113.999999999993
 21
12940.034587899
 31
0.0
  0
LINE
  5
3CC09
330
3B2ED
100
AcDbEntity
  8
寸法
 62
     0
 48
50.0
370
    -2
100
AcDbLine
 10
6178.999999999993
 20
12539.99999999999
 30
0.0
 11
6178.999999999993
 21
12940.034587899
 31
0.0
  0
LINE
  5
3CC0A
330
3B2ED
100
AcDbEntity
  8
寸法
 62
     0
 48
50.0
370
    -2
100
AcDbLine
 10
6178.999999999993
 20
12865.034587899
 30
0.0
 11
6113.999999999993
 21
12865.034587899
 31
0.0
  0
LINE
  5
3CC0B
330
3B2ED
100
AcDbEntity
  8
寸法
 62
     0
 48
50.0
370
    -2
100
AcDbLine
 10
6113.999999999993
 20
12865.034587899
 30
0.0
 11
5758.732772898108
 21
12865.034587899
 31
0.0
  0
INSERT
  5
3CC0C
330
3B2ED
100
AcDbEntity
  8
寸法
 62
     0
 48
50.0
370
    -2
100
AcDbBlockReference
  2
_DOTSMALL
 10
6178.999999999993
 20
12865.034587899
 30
0.0
 41
125.0
 42
125.0
 43
125.0
  0
INSERT
  5
3CC0D
330
3B2ED
100
AcDbEntity
  8
寸法
 62
     0
 48
50.0
370
    -2
100
AcDbBlockReference
  2
_DOTSMALL
 10
6113.999999999993
 20
12865.034587899
 30
0.0
 41
125.0
 42
125.0
 43
125.0
 50
180.0
  0
MTEXT
  5
3CC0E
330
3B2ED
100
AcDbEntity
  8
寸法
 62
     7
 48
50.0
100
AcDbMText
 10
5873.827563592284
 20
12965.034587899
 30
0.0
 40
150.0
 41
0.0
 71
     5
 72
     1
  1
\A1;65
  7
STYLE1
 73
     1
 44
1.0
1001
ACAD
1000
MTEXTBEGIN
1070
    73
1070
     1
1070
    44
1040
1.0
1070
    74
1070
     0
1000
MTEXTEND
  0
POINT
  5
3CC0F
330
3B2ED
100
AcDbEntity
  8
DEFPOINTS
 62
     0
 48
50.0
100
AcDbPoint
 10
6113.999999999993
 20
12514.99999999999
 30
0.0
  0
POINT
  5
3CC10
330
3B2ED
100
AcDbEntity
  8
DEFPOINTS
 62
     0
 48
50.0
100
AcDbPoint
 10
6178.999999999993
 20
12514.99999999999
 30
0.0
  0
POINT
  5
3CC11
330
3B2ED
100
AcDbEntity
  8
DEFPOINTS
 62
     0
 48
50.0
100
AcDbPoint
 10
6178.999999999993
 20
12865.034587899
 30
0.0
  0
ENDBLK
  5
3B2F9
330
3B2ED
100
AcDbEntity
  8
0
 48
50.0
100
AcDbBlockEnd
  0
BLOCK
  5
3B304
330
3B2FA
100
AcDbEntity
  8
0
 48
50.0
100
AcDbBlockBegin
  2
*D12
 70
     1
 10
0.0
 20
0.0
 30
0.0
  3
*D12
  1

  0
LINE
  5
3CBFF
330
3B2FA
100
AcDbEntity
  8
寸法
 62
     0
 48
50.0
370
    -2
100
AcDbLine
 10
8763.999999999994
 20
12539.99999999999
 30
0.0
 11
8763.999999999994
 21
12940.034587899
 31
0.0
  0
LINE
  5
3CC00
330
3B2FA
100
AcDbEntity
  8
寸法
 62
     0
 48
50.0
370
    -2
100
AcDbLine
 10
8698.999999999992
 20
12865.034587899
 30
0.0
 11
8763.999999999994
 21
12865.034587899
 31
0.0
  0
LINE
  5
3CC01
330
3B2FA
100
AcDbEntity
  8
寸法
 62
     0
 48
50.0
370
    -2
100
AcDbLine
 10
9126.604339589361
 20
12865.034587899
 30
0.0
 11
8763.999999999994
 21
12865.034587899
 31
0.0
  0
MTEXT
  5
3CC02
330
3B2FA
100
AcDbEntity
  8
寸法
 62
     7
 48
50.0
100
AcDbMText
 10
9011.509548895185
 20
12965.034587899
 30
0.0
 40
150.0
 41
0.0
 71
     5
 72
     1
  1
\A1;65
  7
STYLE1
 73
     1
 44
1.0
1001
ACAD
1000
MTEXTBEGIN
1070
    73
1070
     1
1070
    44
1040
1.0
1070
    74
1070
     0
1000
MTEXTEND
  0
INSERT
  5
3CC03
330
3B2FA
100
AcDbEntity
  8
寸法
 62
     0
 48
50.0
370
    -2
100
AcDbBlockReference
  2
_DOTSMALL
 10
8698.999999999992
 20
12865.034587899
 30
0.0
 41
125.0
 42
125.0
 43
125.0
 50
180.0
  0
INSERT
  5
3CC04
330
3B2FA
100
AcDbEntity
  8
寸法
 62
     0
 48
50.0
370
    -2
100
AcDbBlockReference
  2
_DOTSMALL
 10
8763.999999999994
 20
12865.034587899
 30
0.0
 41
125.0
 42
125.0
 43
125.0
  0
POINT
  5
3CC05
330
3B2FA
100
AcDbEntity
  8
DEFPOINTS
 62
     0
 48
50.0
100
AcDbPoint
 10
8698.999999999992
 20
12514.99999999999
 30
0.0
  0
POINT
  5
3CC06
330
3B2FA
100
AcDbEntity
  8
DEFPOINTS
 62
     0
 48
50.0
100
AcDbPoint
 10
8763.999999999994
 20
12514.99999999999
 30
0.0
  0
POINT
  5
3CC07
330
3B2FA
100
AcDbEntity
  8
DEFPOINTS
 62
     0
 48
50.0
100
AcDbPoint
 10
8763.999999999994
 20
12865.034587899
 30
0.0
  0
ENDBLK
  5
3B305
330
3B2FA
100
AcDbEntity
  8
0
 48
50.0
100
AcDbBlockEnd
  0
BLOCK
  5
3B312
330
3B306
100
AcDbEntity
  8
0
 48
50.0
100
AcDbBlockBegin
  2
*D13
 70
     1
 10
0.0
 20
0.0
 30
0.0
  3
*D13
  1

  0
LINE
  5
3C72F
330
3B306
100
AcDbEntity
  8
寸法
 62
     0
 48
50.0
370
    -2
100
AcDbLine
 10
8770.698729810771
 20
6884.999999999997
 30
0.0
 11
8819.374260393976
 21
7066.659553221889
 31
0.0
  0
LINE
  5
3C730
330
3B306
100
AcDbEntity
  8
寸法
 62
     0
 48
50.0
370
    -2
100
AcDbLine
 10
8774.698729810777
 20
6884.999999999997
 30
0.0
 11
8823.374260393984
 21
7066.659553221889
 31
0.0
  0
LINE
  5
3C731
330
3B306
100
AcDbEntity
  8
寸法
 62
     0
 48
50.0
370
    -2
100
AcDbLine
 10
8799.278070961642
 20
6991.659553221889
 30
0.0
 11
8674.278070961642
 21
6991.659553221889
 31
0.0
  0
LINE
  5
3C732
330
3B306
100
AcDbEntity
  8
寸法
 62
     0
 48
50.0
370
    -2
100
AcDbLine
 10
8803.278070961649
 20
6991.659553221889
 30
0.0
 11
9238.37807096164
 21
6991.659553221889
 31
0.0
  0
LINE
  5
3C733
330
3B306
100
AcDbEntity
  8
寸法
 62
     0
 48
50.0
370
    -2
100
AcDbLine
 10
8799.278070961642
 20
6991.659553221889
 30
0.0
 11
8803.278070961649
 21
6991.659553221889
 31
0.0
  0
INSERT
  5
3C734
330
3B306
100
AcDbEntity
  8
寸法
 62
     0
 48
50.0
370
    -2
100
AcDbBlockReference
  2
_DOTSMALL
 10
8799.278070961642
 20
6991.659553221889
 30
0.0
 41
125.0
 42
125.0
 43
125.0
  0
INSERT
  5
3C735
330
3B306
100
AcDbEntity
  8
寸法
 62
     0
 48
50.0
370
    -2
100
AcDbBlockReference
  2
_DOTSMALL
 10
8803.278070961649
 20
6991.659553221889
 30
0.0
 41
125.0
 42
125.0
 43
125.0
 50
180.0
  0
MTEXT
  5
3C736
330
3B306
100
AcDbEntity
  8
寸法
 62
     7
 48
50.0
100
AcDbMText
 10
9175.87807096164
 20
7091.659553221889
 30
0.0
 40
150.0
 41
0.0
 71
     5
 72
     1
  1
\A1;4
  7
STYLE1
 73
     1
 44
1.0
1001
ACAD
1000
MTEXTBEGIN
1070
    73
1070
     1
1070
    44
1040
1.0
1070
    74
1070
     0
1000
MTEXTEND
  0
POINT
  5
3C737
330
3B306
100
AcDbEntity
  8
DEFPOINTS
 62
     0
 48
50.0
100
AcDbPoint
 10
8763.999999999994
 20
6859.999999999996
 30
0.0
  0
POINT
  5
3C738
330
3B306
100
AcDbEntity
  8
DEFPOINTS
 62
     0
 48
50.0
100
AcDbPoint
 10
8768.0
 20
6859.999999999996
 30
0.0
  0
POINT
  5
3C739
330
3B306
100
AcDbEntity
  8
DEFPOINTS
 62
     0
 48
50.0
100
AcDbPoint
 10
8803.278070961649
 20
6991.659553221889
 30
0.0
  0
ENDBLK
  5
3B313
330
3B306
100
AcDbEntity
  8
0
 48
50.0
100
AcDbBlockEnd
  0
BLOCK
  5
3B320
330
3B314
100
AcDbEntity
  8
0
 48
50.0
100
AcDbBlockBegin
  2
*D14
 70
     1
 10
0.0
 20
0.0
 30
0.0
  3
*D14
  1

  0
LINE
  5
3C8A8
330
3B314
100
AcDbEntity
  8
寸法
 62
     0
 48
50.0
370
    -2
100
AcDbLine
 10
6107.301270189214
 20
6884.999999999997
 30
0.0
 11
6058.62573960601
 21
7066.659553221889
 31
0.0
  0
LINE
  5
3C8A9
330
3B314
100
AcDbEntity
  8
寸法
 62
     0
 48
50.0
370
    -2
100
AcDbLine
 10
6103.301270189215
 20
6884.999999999997
 30
0.0
 11
6054.625739606009
 21
7066.659553221889
 31
0.0
  0
LINE
  5
3C8AA
330
3B314
100
AcDbEntity
  8
寸法
 62
     0
 48
50.0
370
    -2
100
AcDbLine
 10
6078.721929038344
 20
6991.659553221889
 30
0.0
 11
6203.721929038344
 21
6991.659553221889
 31
0.0
  0
LINE
  5
3C8AB
330
3B314
100
AcDbEntity
  8
寸法
 62
     0
 48
50.0
370
    -2
100
AcDbLine
 10
6074.721929038345
 20
6991.659553221889
 30
0.0
 11
5639.621929038344
 21
6991.659553221889
 31
0.0
  0
LINE
  5
3C8AC
330
3B314
100
AcDbEntity
  8
寸法
 62
     0
 48
50.0
370
    -2
100
AcDbLine
 10
6078.721929038344
 20
6991.659553221889
 30
0.0
 11
6074.721929038345
 21
6991.659553221889
 31
0.0
  0
INSERT
  5
3C8AD
330
3B314
100
AcDbEntity
  8
寸法
 62
     0
 48
50.0
370
    -2
100
AcDbBlockReference
  2
_DOTSMALL
 10
6078.721929038344
 20
6991.659553221889
 30
0.0
 41
125.0
 42
125.0
 43
125.0
 50
180.0
  0
INSERT
  5
3C8AE
330
3B314
100
AcDbEntity
  8
寸法
 62
     0
 48
50.0
370
    -2
100
AcDbBlockReference
  2
_DOTSMALL
 10
6074.721929038345
 20
6991.659553221889
 30
0.0
 41
125.0
 42
125.0
 43
125.0
  0
MTEXT
  5
3C8AF
330
3B314
100
AcDbEntity
  8
寸法
 62
     7
 48
50.0
100
AcDbMText
 10
5702.121929038344
 20
7091.659553221889
 30
0.0
 40
150.0
 41
0.0
 71
     5
 72
     1
  1
\A1;4
  7
STYLE1
 73
     1
 44
1.0
1001
ACAD
1000
MTEXTBEGIN
1070
    73
1070
     1
1070
    44
1040
1.0
1070
    74
1070
     0
1000
MTEXTEND
  0
POINT
  5
3C8B0
330
3B314
100
AcDbEntity
  8
DEFPOINTS
 62
     0
 48
50.0
100
AcDbPoint
 10
6113.999999999993
 20
6859.999999999996
 30
0.0
  0
POINT
  5
3C8B1
330
3B314
100
AcDbEntity
  8
DEFPOINTS
 62
     0
 48
50.0
100
AcDbPoint
 10
6109.999999999993
 20
6859.999999999996
 30
0.0
  0
POINT
  5
3C8B2
330
3B314
100
AcDbEntity
  8
DEFPOINTS
 62
     0
 48
50.0
100
AcDbPoint
 10
6074.721929038345
 20
6991.659553221889
 30
0.0
  0
ENDBLK
  5
3B321
330
3B314
100
AcDbEntity
  8
0
 48
50.0
100
AcDbBlockEnd
  0
BLOCK
  5
3B32D
330
3B322
100
AcDbEntity
  8
0
 48
50.0
100
AcDbBlockBegin
  2
*D15
 70
     1
 10
0.0
 20
0.0
 30
0.0
  3
*D15
  1

  0
LINE
  5
3CCFA
330
3B322
100
AcDbEntity
  8
寸法
 62
     0
 48
50.0
370
    -2
100
AcDbLine
 10
6033.999999999981
 20
4664.999999999996
 30
0.0
 11
6033.999999999981
 21
5116.009141976133
 31
0.0
  0
LINE
  5
3CCFB
330
3B322
100
AcDbEntity
  8
寸法
 62
     0
 48
50.0
370
    -2
100
AcDbLine
 10
6113.999999999994
 20
4664.999999999996
 30
0.0
 11
6113.999999999994
 21
5116.009141976133
 31
0.0
  0
LINE
  5
3CCFC
330
3B322
100
AcDbEntity
  8
寸法
 62
     0
 48
50.0
370
    -2
100
AcDbLine
 10
6113.999999999994
 20
5041.009141976133
 30
0.0
 11
6033.999999999981
 21
5041.009141976133
 31
0.0
  0
LINE
  5
3CCFD
330
3B322
100
AcDbEntity
  8
寸法
 62
     0
 48
50.0
370
    -2
100
AcDbLine
 10
6033.999999999981
 20
5041.009141976133
 30
0.0
 11
5693.881889763759
 21
5041.009141976133
 31
0.0
  0
INSERT
  5
3CCFE
330
3B322
100
AcDbEntity
  8
寸法
 62
     0
 48
50.0
370
    -2
100
AcDbBlockReference
  2
_DOTSMALL
 10
6113.999999999994
 20
5041.009141976133
 30
0.0
 41
125.0
 42
125.0
 43
125.0
  0
INSERT
  5
3CCFF
330
3B322
100
AcDbEntity
  8
寸法
 62
     0
 48
50.0
370
    -2
100
AcDbBlockReference
  2
_DOTSMALL
 10
6033.999999999981
 20
5041.009141976133
 30
0.0
 41
125.0
 42
125.0
 43
125.0
 50
180.0
  0
MTEXT
  5
3CD00
330
3B322
100
AcDbEntity
  8
寸法
 62
     7
 48
50.0
100
AcDbMText
 10
5801.44094488187
 20
5141.009141976134
 30
0.0
 40
150.0
 41
0.0
 71
     5
 72
     1
  1
\A1;80
  7
STYLE1
 73
     1
 44
1.0
1001
ACAD
1000
MTEXTBEGIN
1070
    73
1070
     1
1070
    44
1040
1.0
1070
    74
1070
     0
1000
MTEXTEND
  0
POINT
  5
3CD01
330
3B322
100
AcDbEntity
  8
DEFPOINTS
 62
     0
 48
50.0
100
AcDbPoint
 10
6033.999999999981
 20
4639.999999999996
 30
0.0
  0
POINT
  5
3CD02
330
3B322
100
AcDbEntity
  8
DEFPOINTS
 62
     0
 48
50.0
100
AcDbPoint
 10
6113.999999999994
 20
4639.999999999996
 30
0.0
  0
POINT
  5
3CD03
330
3B322
100
AcDbEntity
  8
DEFPOINTS
 62
     0
 48
50.0
100
AcDbPoint
 10
6113.999999999994
 20
5041.009141976133
 30
0.0
  0
ENDBLK
  5
3B32E
330
3B322
100
AcDbEntity
  8
0
 48
50.0
100
AcDbBlockEnd
  0
BLOCK
  5
3B339
330
3B32F
100
AcDbEntity
  8
0
 48
50.0
100
AcDbBlockBegin
  2
*D16
 70
     1
 10
0.0
 20
0.0
 30
0.0
  3
*D16
  1

  0
LINE
  5
3CCF1
330
3B32F
100
AcDbEntity
  8
寸法
 62
     0
 48
50.0
370
    -2
100
AcDbLine
 10
6113.999999999994
 20
4664.999999999995
 30
0.0
 11
6113.999999999994
 21
5116.009141976133
 31
0.0
  0
LINE
  5
3CCF2
330
3B32F
100
AcDbEntity
  8
寸法
 62
     0
 48
50.0
370
    -2
100
AcDbLine
 10
8763.999999999994
 20
4664.999999999996
 30
0.0
 11
8763.999999999994
 21
5116.009141976133
 31
0.0
  0
LINE
  5
3CCF3
330
3B32F
100
AcDbEntity
  8
寸法
 62
     0
 48
50.0
370
    -2
100
AcDbLine
 10
6113.999999999994
 20
5041.009141976133
 30
0.0
 11
8763.999999999994
 21
5041.009141976133
 31
0.0
  0
INSERT
  5
3CCF4
330
3B32F
100
AcDbEntity
  8
寸法
 62
     0
 48
50.0
370
    -2
100
AcDbBlockReference
  2
_DOTSMALL
 10
6113.999999999994
 20
5041.009141976133
 30
0.0
 41
125.0
 42
125.0
 43
125.0
 50
180.0
  0
INSERT
  5
3CCF5
330
3B32F
100
AcDbEntity
  8
寸法
 62
     0
 48
50.0
370
    -2
100
AcDbBlockReference
  2
_DOTSMALL
 10
8763.999999999994
 20
5041.009141976133
 30
0.0
 41
125.0
 42
125.0
 43
125.0
  0
MTEXT
  5
3CCF6
330
3B32F
100
AcDbEntity
  8
寸法
 62
     7
 48
50.0
100
AcDbMText
 10
7438.999999999994
 20
5141.023905755661
 30
0.0
 40
150.0
 41
0.0
 71
     5
 72
     1
  1
\A1;2650
  7
STYLE1
 73
     1
 44
1.0
1001
ACAD
1000
MTEXTBEGIN
1070
    73
1070
     1
1070
    44
1040
1.0
1070
    74
1070
     0
1000
MTEXTEND
  0
POINT
  5
3CCF7
330
3B32F
100
AcDbEntity
  8
DEFPOINTS
 62
     0
 48
50.0
100
AcDbPoint
 10
6113.999999999994
 20
4639.999999999996
 30
0.0
  0
POINT
  5
3CCF8
330
3B32F
100
AcDbEntity
  8
DEFPOINTS
 62
     0
 48
50.0
100
AcDbPoint
 10
8763.999999999994
 20
4639.999999999996
 30
0.0
  0
POINT
  5
3CCF9
330
3B32F
100
AcDbEntity
  8
DEFPOINTS
 62
     0
 48
50.0
100
AcDbPoint
 10
8763.999999999994
 20
5041.009141976133
 30
0.0
  0
ENDBLK
  5
3B33A
330
3B32F
100
AcDbEntity
  8
0
 48
50.0
100
AcDbBlockEnd
  0
BLOCK
  5
3B346
330
3B33B
100
AcDbEntity
  8
0
 48
50.0
100
AcDbBlockBegin
  2
*D17
 70
     1
 10
0.0
 20
0.0
 30
0.0
  3
*D17
  1

  0
LINE
  5
3CCE7
330
3B33B
100
AcDbEntity
  8
寸法
 62
     0
 48
50.0
370
    -2
100
AcDbLine
 10
8763.999999999994
 20
4664.999999999996
 30
0.0
 11
8763.999999999994
 21
5116.009141976133
 31
0.0
  0
LINE
  5
3CCE8
330
3B33B
100
AcDbEntity
  8
寸法
 62
     0
 48
50.0
370
    -2
100
AcDbLine
 10
8843.999999999994
 20
4664.999999999996
 30
0.0
 11
8843.999999999994
 21
5116.009141976133
 31
0.0
  0
LINE
  5
3CCE9
330
3B33B
100
AcDbEntity
  8
寸法
 62
     0
 48
50.0
370
    -2
100
AcDbLine
 10
8763.999999999994
 20
5041.009141976133
 30
0.0
 11
8843.999999999994
 21
5041.009141976133
 31
0.0
  0
LINE
  5
3CCEA
330
3B33B
100
AcDbEntity
  8
寸法
 62
     0
 48
50.0
370
    -2
100
AcDbLine
 10
8843.999999999994
 20
5041.009141976133
 30
0.0
 11
9184.118110236216
 21
5041.009141976133
 31
0.0
  0
INSERT
  5
3CCEB
330
3B33B
100
AcDbEntity
  8
寸法
 62
     0
 48
50.0
370
    -2
100
AcDbBlockReference
  2
_DOTSMALL
 10
8763.999999999994
 20
5041.009141976133
 30
0.0
 41
125.0
 42
125.0
 43
125.0
 50
180.0
  0
INSERT
  5
3CCEC
330
3B33B
100
AcDbEntity
  8
寸法
 62
     0
 48
50.0
370
    -2
100
AcDbBlockReference
  2
_DOTSMALL
 10
8843.999999999994
 20
5041.009141976133
 30
0.0
 41
125.0
 42
125.0
 43
125.0
  0
MTEXT
  5
3CCED
330
3B33B
100
AcDbEntity
  8
寸法
 62
     7
 48
50.0
100
AcDbMText
 10
9076.559055118105
 20
5141.009141976134
 30
0.0
 40
150.0
 41
0.0
 71
     5
 72
     1
  1
\A1;80
  7
STYLE1
 73
     1
 44
1.0
1001
ACAD
1000
MTEXTBEGIN
1070
    73
1070
     1
1070
    44
1040
1.0
1070
    74
1070
     0
1000
MTEXTEND
  0
POINT
  5
3CCEE
330
3B33B
100
AcDbEntity
  8
DEFPOINTS
 62
     0
 48
50.0
100
AcDbPoint
 10
8763.999999999994
 20
4639.999999999996
 30
0.0
  0
POINT
  5
3CCEF
330
3B33B
100
AcDbEntity
  8
DEFPOINTS
 62
     0
 48
50.0
100
AcDbPoint
 10
8843.999999999994
 20
4639.999999999996
 30
0.0
  0
POINT
  5
3CCF0
330
3B33B
100
AcDbEntity
  8
DEFPOINTS
 62
     0
 48
50.0
100
AcDbPoint
 10
8843.999999999994
 20
5041.009141976133
 30
0.0
  0
ENDBLK
  5
3B347
330
3B33B
100
AcDbEntity
  8
0
 48
50.0
100
AcDbBlockEnd
  0
BLOCK
  5
3B352
330
3B348
100
AcDbEntity
  8
0
 48
50.0
100
AcDbBlockBegin
  2
*D18
 70
     1
 10
0.0
 20
0.0
 30
0.0
  3
*D18
  1

  0
LINE
  5
3CCDE
330
3B348
100
AcDbEntity
  8
寸法
 62
     0
 48
50.0
370
    -2
100
AcDbLine
 10
6033.999999999981
 20
4664.999999999996
 30
0.0
 11
6033.999999999981
 21
5382.443082427609
 31
0.0
  0
LINE
  5
3CCDF
330
3B348
100
AcDbEntity
  8
寸法
 62
     0
 48
50.0
370
    -2
100
AcDbLine
 10
8843.999999999994
 20
4664.999999999996
 30
0.0
 11
8843.999999999994
 21
5382.443082427609
 31
0.0
  0
LINE
  5
3CCE0
330
3B348
100
AcDbEntity
  8
寸法
 62
     0
 48
50.0
370
    -2
100
AcDbLine
 10
6033.999999999981
 20
5307.44308242761
 30
0.0
 11
8843.999999999994
 21
5307.44308242761
 31
0.0
  0
INSERT
  5
3CCE1
330
3B348
100
AcDbEntity
  8
寸法
 62
     0
 48
50.0
370
    -2
100
AcDbBlockReference
  2
_DOTSMALL
 10
6033.999999999981
 20
5307.44308242761
 30
0.0
 41
125.0
 42
125.0
 43
125.0
 50
180.0
  0
INSERT
  5
3CCE2
330
3B348
100
AcDbEntity
  8
寸法
 62
     0
 48
50.0
370
    -2
100
AcDbBlockReference
  2
_DOTSMALL
 10
8843.999999999994
 20
5307.44308242761
 30
0.0
 41
125.0
 42
125.0
 43
125.0
  0
MTEXT
  5
3CCE3
330
3B348
100
AcDbEntity
  8
寸法
 62
     7
 48
50.0
100
AcDbMText
 10
7438.999999999987
 20
5407.457846207137
 30
0.0
 40
150.0
 41
0.0
 71
     5
 72
     1
  1
\A1;2810
  7
STYLE1
 73
     1
 44
1.0
1001
ACAD
1000
MTEXTBEGIN
1070
    73
1070
     1
1070
    44
1040
1.0
1070
    74
1070
     0
1000
MTEXTEND
  0
POINT
  5
3CCE4
330
3B348
100
AcDbEntity
  8
DEFPOINTS
 62
     0
 48
50.0
100
AcDbPoint
 10
6033.999999999981
 20
4639.999999999996
 30
0.0
  0
POINT
  5
3CCE5
330
3B348
100
AcDbEntity
  8
DEFPOINTS
 62
     0
 48
50.0
100
AcDbPoint
 10
8843.999999999994
 20
4639.999999999996
 30
0.0
  0
POINT
  5
3CCE6
330
3B348
100
AcDbEntity
  8
DEFPOINTS
 62
     0
 48
50.0
100
AcDbPoint
 10
8843.999999999994
 20
5307.44308242761
 30
0.0
  0
ENDBLK
  5
3B353
330
3B348
100
AcDbEntity
  8
0
 48
50.0
100
AcDbBlockEnd
  0
BLOCK
  5
3B35E
330
3B354
100
AcDbEntity
  8
0
 48
50.0
100
AcDbBlockBegin
  2
*D19
 70
     1
 10
0.0
 20
0.0
 30
0.0
  3
*D19
  1

  0
LINE
  5
3CD0D
330
3B354
100
AcDbEntity
  8
寸法
 62
     0
 48
50.0
370
    -2
100
AcDbLine
 10
6184.899999999996
 20
4097.99999999999
 30
0.0
 11
5040.470975800645
 21
4097.999999999991
 31
0.0
  0
LINE
  5
3CD0E
330
3B354
100
AcDbEntity
  8
寸法
 62
     0
 48
50.0
370
    -2
100
AcDbLine
 10
6084.999999999994
 20
1979.999999999987
 30
0.0
 11
5040.470975800644
 21
1979.999999999987
 31
0.0
  0
LINE
  5
3CD0F
330
3B354
100
AcDbEntity
  8
寸法
 62
     0
 48
50.0
370
    -2
100
AcDbLine
 10
5115.470975800645
 20
4097.999999999991
 30
0.0
 11
5115.470975800644
 21
1979.999999999987
 31
0.0
  0
INSERT
  5
3CD10
330
3B354
100
AcDbEntity
  8
寸法
 62
     0
 48
50.0
370
    -2
100
AcDbBlockReference
  2
_DOTSMALL
 10
5115.470975800645
 20
4097.999999999991
 30
0.0
 41
125.0
 42
125.0
 43
125.0
 50
90.0
  0
INSERT
  5
3CD11
330
3B354
100
AcDbEntity
  8
寸法
 62
     0
 48
50.0
370
    -2
100
AcDbBlockReference
  2
_DOTSMALL
 10
5115.470975800644
 20
1979.999999999987
 30
0.0
 41
125.0
 42
125.0
 43
125.0
 50
270.0
  0
MTEXT
  5
3CD12
330
3B354
100
AcDbEntity
  8
寸法
 62
     7
 48
50.0
100
AcDbMText
 10
5015.456212021117
 20
3038.999999999991
 30
0.0
 40
150.0
 41
0.0
 71
     5
 72
     1
  1
\A1;有効開口高サ 2118
  7
STYLE1
 11
0.0000000000000001
 21
1.0
 31
0.0
 73
     1
 44
1.0
1001
ACAD
1000
MTEXTBEGIN
1070
    73
1070
     1
1070
    44
1040
1.0
1070
    74
1070
     0
1000
MTEXTEND
  0
POINT
  5
3CD13
330
3B354
100
AcDbEntity
  8
DEFPOINTS
 62
     0
 48
50.0
100
AcDbPoint
 10
6209.899999999996
 20
4097.99999999999
 30
0.0
  0
POINT
  5
3CD14
330
3B354
100
AcDbEntity
  8
DEFPOINTS
 62
     0
 48
50.0
100
AcDbPoint
 10
6109.999999999994
 20
1979.999999999987
 30
0.0
  0
POINT
  5
3CD15
330
3B354
100
AcDbEntity
  8
DEFPOINTS
 62
     0
 48
50.0
100
AcDbPoint
 10
5115.470975800644
 20
1979.999999999987
 30
0.0
  0
ENDBLK
  5
3B35F
330
3B354
100
AcDbEntity
  8
0
 48
50.0
100
AcDbBlockEnd
  0
BLOCK
  5
3BE9E
330
3BE95
100
AcDbEntity
  8
0
 48
50.0
100
AcDbBlockBegin
  2
*D20
 70
     1
 10
0.0
 20
0.0
 30
0.0
  3
*D20
  1

  0
LINE
  5
3CBF7
330
3BE95
100
AcDbEntity
  8
寸法
 62
     0
 48
50.0
370
    -2
100
AcDbLine
 10
8698.999999999985
 20
12539.99999999999
 30
0.0
 11
8698.999999999985
 21
12940.034587899
 31
0.0
  0
LINE
  5
3CBF8
330
3BE95
100
AcDbEntity
  8
寸法
 62
     0
 48
50.0
370
    -2
100
AcDbLine
 10
6178.999999999993
 20
12865.034587899
 30
0.0
 11
8698.999999999985
 21
12865.034587899
 31
0.0
  0
INSERT
  5
3CBF9
330
3BE95
100
AcDbEntity
  8
寸法
 62
     0
 48
50.0
370
    -2
100
AcDbBlockReference
  2
_DOTSMALL
 10
6178.999999999993
 20
12865.034587899
 30
0.0
 41
125.0
 42
125.0
 43
125.0
 50
180.0
  0
INSERT
  5
3CBFA
330
3BE95
100
AcDbEntity
  8
寸法
 62
     0
 48
50.0
370
    -2
100
AcDbBlockReference
  2
_DOTSMALL
 10
8698.999999999985
 20
12865.034587899
 30
0.0
 41
125.0
 42
125.0
 43
125.0
  0
MTEXT
  5
3CBFB
330
3BE95
100
AcDbEntity
  8
寸法
 62
     7
 48
50.0
100
AcDbMText
 10
7438.999999999989
 20
12965.04935167853
 30
0.0
 40
150.0
 41
0.0
 71
     5
 72
     1
  1
\A1;6X420=2520
  7
STYLE1
 73
     1
 44
1.0
1001
ACAD
1000
MTEXTBEGIN
1070
    73
1070
     1
1070
    44
1040
1.0
1070
    74
1070
     0
1000
MTEXTEND
  0
POINT
  5
3CBFC
330
3BE95
100
AcDbEntity
  8
DEFPOINTS
 62
     0
 48
50.0
100
AcDbPoint
 10
6178.999999999993
 20
12514.99999999999
 30
0.0
  0
POINT
  5
3CBFD
330
3BE95
100
AcDbEntity
  8
DEFPOINTS
 62
     0
 48
50.0
100
AcDbPoint
 10
8698.999999999985
 20
12514.99999999999
 30
0.0
  0
POINT
  5
3CBFE
330
3BE95
100
AcDbEntity
  8
DEFPOINTS
 62
     0
 48
50.0
100
AcDbPoint
 10
8698.999999999985
 20
12865.034587899
 30
0.0
  0
ENDBLK
  5
3BE9F
330
3BE95
100
AcDbEntity
  8
0
 48
50.0
100
AcDbBlockEnd
  0
BLOCK
  5
3BEAA
330
3BEA0
100
AcDbEntity
  8
0
 48
50.0
100
AcDbBlockBegin
  2
*D21
 70
     1
 10
0.0
 20
0.0
 30
0.0
  3
*D21
  1

  0
LINE
  5
3CBEE
330
3BEA0
100
AcDbEntity
  8
寸法
 62
     0
 48
50.0
370
    -2
100
AcDbLine
 10
6113.999999999993
 20
12539.99999999999
 30
0.0
 11
6113.999999999993
 21
13290.05340226754
 31
0.0
  0
LINE
  5
3CBEF
330
3BEA0
100
AcDbEntity
  8
寸法
 62
     0
 48
50.0
370
    -2
100
AcDbLine
 10
8764.0
 20
12539.99999999999
 30
0.0
 11
8764.0
 21
13290.05340226754
 31
0.0
  0
LINE
  5
3CBF0
330
3BEA0
100
AcDbEntity
  8
寸法
 62
     0
 48
50.0
370
    -2
100
AcDbLine
 10
6113.999999999993
 20
13215.05340226754
 30
0.0
 11
8764.0
 21
13215.05340226754
 31
0.0
  0
INSERT
  5
3CBF1
330
3BEA0
100
AcDbEntity
  8
寸法
 62
     0
 48
50.0
370
    -2
100
AcDbBlockReference
  2
_DOTSMALL
 10
6113.999999999993
 20
13215.05340226754
 30
0.0
 41
125.0
 42
125.0
 43
125.0
 50
180.0
  0
INSERT
  5
3CBF2
330
3BEA0
100
AcDbEntity
  8
寸法
 62
     0
 48
50.0
370
    -2
100
AcDbBlockReference
  2
_DOTSMALL
 10
8764.0
 20
13215.05340226754
 30
0.0
 41
125.0
 42
125.0
 43
125.0
  0
MTEXT
  5
3CBF3
330
3BEA0
100
AcDbEntity
  8
寸法
 62
     7
 48
50.0
100
AcDbMText
 10
7438.999999999997
 20
13315.06816604707
 30
0.0
 40
150.0
 41
0.0
 71
     5
 72
     1
  1
\A1;2650
  7
STYLE1
 73
     1
 44
1.0
1001
ACAD
1000
MTEXTBEGIN
1070
    73
1070
     1
1070
    44
1040
1.0
1070
    74
1070
     0
1000
MTEXTEND
  0
POINT
  5
3CBF4
330
3BEA0
100
AcDbEntity
  8
DEFPOINTS
 62
     0
 48
50.0
100
AcDbPoint
 10
6113.999999999993
 20
12514.99999999999
 30
0.0
  0
POINT
  5
3CBF5
330
3BEA0
100
AcDbEntity
  8
DEFPOINTS
 62
     0
 48
50.0
100
AcDbPoint
 10
8764.0
 20
12514.99999999999
 30
0.0
  0
POINT
  5
3CBF6
330
3BEA0
100
AcDbEntity
  8
DEFPOINTS
 62
     0
 48
50.0
100
AcDbPoint
 10
8764.0
 20
13215.05340226754
 30
0.0
  0
ENDBLK
  5
3BEAB
330
3BEA0
100
AcDbEntity
  8
0
 48
50.0
100
AcDbBlockEnd
  0
BLOCK
  5
3BF21
330
3BF16
100
AcDbEntity
  8
0
 48
50.0
100
AcDbBlockBegin
  2
*D22
 70
     1
 10
0.0
 20
0.0
 30
0.0
  3
*D22
  1

  0
LINE
  5
3C88D
330
3BF16
100
AcDbEntity
  8
寸法
 62
     0
 48
50.0
370
    -2
100
AcDbLine
 10
6258.0
 20
6795.999999999999
 30
0.0
 11
6258.0
 21
6278.418878792811
 31
0.0
  0
LINE
  5
3C88E
330
3BF16
100
AcDbEntity
  8
寸法
 62
     0
 48
50.0
370
    -2
100
AcDbLine
 10
6209.999999999993
 20
6353.418878792811
 30
0.0
 11
6084.999999999993
 21
6353.418878792811
 31
0.0
  0
LINE
  5
3C88F
330
3BF16
100
AcDbEntity
  8
寸法
 62
     0
 48
50.0
370
    -2
100
AcDbLine
 10
6258.0
 20
6353.418878792811
 30
0.0
 11
6383.0
 21
6353.418878792811
 31
0.0
  0
MTEXT
  5
3C890
330
3BF16
100
AcDbEntity
  8
寸法
 62
     7
 48
50.0
100
AcDbMText
 10
6383.0
 20
6453.41887879281
 30
0.0
 40
150.0
 41
0.0
 71
     5
 72
     1
  1
\A1;48
  7
STYLE1
 73
     1
 44
1.0
1001
ACAD
1000
MTEXTBEGIN
1070
    73
1070
     1
1070
    44
1040
1.0
1070
    74
1070
     0
1000
MTEXTEND
  0
LINE
  5
3C891
330
3BF16
100
AcDbEntity
  8
寸法
 62
     0
 48
50.0
370
    -2
100
AcDbLine
 10
6209.999999999993
 20
6353.418878792811
 30
0.0
 11
6258.0
 21
6353.418878792811
 31
0.0
  0
INSERT
  5
3C892
330
3BF16
100
AcDbEntity
  8
寸法
 62
     0
 48
50.0
370
    -2
100
AcDbBlockReference
  2
_DOTSMALL
 10
6209.999999999993
 20
6353.418878792811
 30
0.0
 41
125.0
 42
125.0
 43
125.0
  0
INSERT
  5
3C893
330
3BF16
100
AcDbEntity
  8
寸法
 62
     0
 48
50.0
370
    -2
100
AcDbBlockReference
  2
_DOTSMALL
 10
6258.0
 20
6353.418878792811
 30
0.0
 41
125.0
 42
125.0
 43
125.0
 50
180.0
  0
POINT
  5
3C894
330
3BF16
100
AcDbEntity
  8
DEFPOINTS
 62
     0
 48
50.0
100
AcDbPoint
 10
6209.999999999993
 20
6794.99999999984
 30
0.0
  0
POINT
  5
3C895
330
3BF16
100
AcDbEntity
  8
DEFPOINTS
 62
     0
 48
50.0
100
AcDbPoint
 10
6258.0
 20
6820.999999999999
 30
0.0
  0
POINT
  5
3C896
330
3BF16
100
AcDbEntity
  8
DEFPOINTS
 62
     0
 48
50.0
100
AcDbPoint
 10
6258.0
 20
6353.418878792811
 30
0.0
  0
ENDBLK
  5
3BF22
330
3BF16
100
AcDbEntity
  8
0
 48
50.0
100
AcDbBlockEnd
  0
BLOCK
  5
3BF2D
330
3BF23
100
AcDbEntity
  8
0
 48
50.0
100
AcDbBlockBegin
  2
*D23
 70
     1
 10
0.0
 20
0.0
 30
0.0
  3
*D23
  1

  0
LINE
  5
3C8D8
330
3BF23
100
AcDbEntity
  8
寸法
 62
     0
 48
50.0
370
    -2
100
AcDbLine
 10
8619.99999999991
 20
6795.999999999999
 30
0.0
 11
8619.99999999991
 21
6278.418878792811
 31
0.0
  0
LINE
  5
3C8D9
330
3BF23
100
AcDbEntity
  8
寸法
 62
     0
 48
50.0
370
    -2
100
AcDbLine
 10
6258.0
 20
6795.999999999999
 30
0.0
 11
6258.0
 21
6278.418878792811
 31
0.0
  0
LINE
  5
3C8DA
330
3BF23
100
AcDbEntity
  8
寸法
 62
     0
 48
50.0
370
    -2
100
AcDbLine
 10
8619.99999999991
 20
6353.418878792811
 30
0.0
 11
6258.0
 21
6353.418878792811
 31
0.0
  0
INSERT
  5
3C8DB
330
3BF23
100
AcDbEntity
  8
寸法
 62
     0
 48
50.0
370
    -2
100
AcDbBlockReference
  2
_DOTSMALL
 10
8619.99999999991
 20
6353.418878792811
 30
0.0
 41
125.0
 42
125.0
 43
125.0
  0
INSERT
  5
3C8DC
330
3BF23
100
AcDbEntity
  8
寸法
 62
     0
 48
50.0
370
    -2
100
AcDbBlockReference
  2
_DOTSMALL
 10
6258.0
 20
6353.418878792811
 30
0.0
 41
125.0
 42
125.0
 43
125.0
 50
180.0
  0
MTEXT
  5
3C8DD
330
3BF23
100
AcDbEntity
  8
寸法
 62
     7
 48
50.0
100
AcDbMText
 10
7438.999999999954
 20
6578.433642572338
 30
0.0
 40
150.0
 41
0.0
 71
     5
 72
     1
  1
\A1;有効開口部間口\P2362
  7
STYLE1
 73
     1
 44
1.0
1001
ACAD
1000
MTEXTBEGIN
1070
    73
1070
     1
1070
    44
1040
1.0
1070
    74
1070
     0
1000
MTEXTEND
  0
POINT
  5
3C8DE
330
3BF23
100
AcDbEntity
  8
DEFPOINTS
 62
     0
 48
50.0
100
AcDbPoint
 10
8619.99999999991
 20
6820.999999999999
 30
0.0
  0
POINT
  5
3C8DF
330
3BF23
100
AcDbEntity
  8
DEFPOINTS
 62
     0
 48
50.0
100
AcDbPoint
 10
6258.0
 20
6820.999999999999
 30
0.0
  0
POINT
  5
3C8E0
330
3BF23
100
AcDbEntity
  8
DEFPOINTS
 62
     0
 48
50.0
100
AcDbPoint
 10
6258.0
 20
6353.418878792811
 30
0.0
  0
ENDBLK
  5
3BF2E
330
3BF23
100
AcDbEntity
  8
0
 48
50.0
100
AcDbBlockEnd
  0
BLOCK
  5
3CAC3
330
3CAB8
100
AcDbEntity
  8
0
 48
50.0
100
AcDbBlockBegin
  2
*D24
 70
     1
 10
0.0
 20
0.0
 30
0.0
  3
*D24
  1

  0
LINE
  5
3CCB9
330
3CAB8
100
AcDbEntity
  8
寸法
 62
     0
 48
50.0
370
    -2
100
AcDbLine
 10
10151.22912888039
 20
4638.574808051221
 30
0.0
 11
9524.710635377049
 21
4667.502439336623
 31
0.0
  0
LINE
  5
3CCBA
330
3CAB8
100
AcDbEntity
  8
寸法
 62
     0
 48
50.0
370
    -2
100
AcDbLine
 10
10143.5266056735
 20
4471.752533950166
 30
0.0
 11
9517.008112170744
 21
4500.680165235542
 31
0.0
  0
LINE
  5
3CCBB
330
3CAB8
100
AcDbEntity
  8
寸法
 62
     0
 48
50.0
370
    -2
100
AcDbLine
 10
9591.928295150273
 20
4497.220948226722
 30
0.0
 11
9599.630818356576
 21
4664.043222327804
 31
0.0
  0
LINE
  5
3CCBC
330
3CAB8
100
AcDbEntity
  8
寸法
 62
     0
 48
50.0
370
    -2
100
AcDbLine
 10
9599.630818356576
 20
4664.043222327804
 30
0.0
 11
9618.771819138713
 21
5078.60156814788
 31
0.0
  0
INSERT
  5
3CCBD
330
3CAB8
100
AcDbEntity
  8
寸法
 62
     0
 48
50.0
370
    -2
100
AcDbBlockReference
  2
_DOTSMALL
 10
9591.928295150273
 20
4497.220948226722
 30
0.0
 41
125.0
 42
125.0
 43
125.0
 50
267.3564150083235
  0
INSERT
  5
3CCBE
330
3CAB8
100
AcDbEntity
  8
寸法
 62
     0
 48
50.0
370
    -2
100
AcDbBlockReference
  2
_DOTSMALL
 10
9599.630818356576
 20
4664.043222327804
 30
0.0
 41
125.0
 42
125.0
 43
125.0
 50
87.35641500832349
  0
MTEXT
  5
3CCBF
330
3CAB8
100
AcDbEntity
  8
寸法
 62
     7
 48
50.0
100
AcDbMText
 10
9512.190422282293
 20
4938.368170399221
 30
0.0
 40
150.0
 41
0.0
 71
     5
 72
     1
  1
\A1;167
  7
STYLE1
 11
0.0461228934509261
 21
0.9989357730603677
 31
0.0
 73
     1
 44
1.0
1001
ACAD
1000
MTEXTBEGIN
1070
    73
1070
     1
1070
    44
1040
1.0
1070
    74
1070
     0
1000
MTEXTEND
  0
POINT
  5
3CCC0
330
3CAB8
100
AcDbEntity
  8
DEFPOINTS
 62
     0
 48
50.0
100
AcDbPoint
 10
10176.2025232069
 20
4637.421735714947
 30
0.0
  0
POINT
  5
3CCC1
330
3CAB8
100
AcDbEntity
  8
DEFPOINTS
 62
     0
 48
50.0
100
AcDbPoint
 10
10168.50000000001
 20
4470.599461613892
 30
0.0
  0
POINT
  5
3CCC2
330
3CAB8
100
AcDbEntity
  8
DEFPOINTS
 62
     0
 48
50.0
100
AcDbPoint
 10
9591.928295150273
 20
4497.220948226722
 30
0.0
  0
ENDBLK
  5
3CAC4
330
3CAB8
100
AcDbEntity
  8
0
 48
50.0
100
AcDbBlockEnd
  0
BLOCK
  5
3CACF
330
3CAC5
100
AcDbEntity
  8
0
 48
50.0
100
AcDbBlockBegin
  2
*D25
 70
     1
 10
0.0
 20
0.0
 30
0.0
  3
*D25
  1

  0
LINE
  5
3CCB0
330
3CAC5
100
AcDbEntity
  8
寸法
 62
     0
 48
50.0
370
    -2
100
AcDbLine
 10
16139.00000000002
 20
4408.499999999996
 30
0.0
 11
16139.00000000002
 21
5382.443082427609
 31
0.0
  0
LINE
  5
3CCB1
330
3CAC5
100
AcDbEntity
  8
寸法
 62
     0
 48
50.0
370
    -2
100
AcDbLine
 10
10124.00000000001
 20
4664.999999999996
 30
0.0
 11
10124.00000000001
 21
5382.443082427609
 31
0.0
  0
LINE
  5
3CCB2
330
3CAC5
100
AcDbEntity
  8
寸法
 62
     0
 48
50.0
370
    -2
100
AcDbLine
 10
16139.00000000002
 20
5307.44308242761
 30
0.0
 11
10124.00000000001
 21
5307.44308242761
 31
0.0
  0
INSERT
  5
3CCB3
330
3CAC5
100
AcDbEntity
  8
寸法
 62
     0
 48
50.0
370
    -2
100
AcDbBlockReference
  2
_DOTSMALL
 10
16139.00000000002
 20
5307.44308242761
 30
0.0
 41
125.0
 42
125.0
 43
125.0
  0
INSERT
  5
3CCB4
330
3CAC5
100
AcDbEntity
  8
寸法
 62
     0
 48
50.0
370
    -2
100
AcDbBlockReference
  2
_DOTSMALL
 10
10124.00000000001
 20
5307.44308242761
 30
0.0
 41
125.0
 42
125.0
 43
125.0
 50
180.0
  0
MTEXT
  5
3CCB5
330
3CAC5
100
AcDbEntity
  8
寸法
 62
     7
 48
50.0
100
AcDbMText
 10
13131.50000000002
 20
5407.44308242761
 30
0.0
 40
150.0
 41
0.0
 71
     5
 72
     1
  1
\A1;6015
  7
STYLE1
 73
     1
 44
1.0
1001
ACAD
1000
MTEXTBEGIN
1070
    73
1070
     1
1070
    44
1040
1.0
1070
    74
1070
     0
1000
MTEXTEND
  0
POINT
  5
3CCB6
330
3CAC5
100
AcDbEntity
  8
DEFPOINTS
 62
     0
 48
50.0
100
AcDbPoint
 10
16139.00000000002
 20
4383.499999999997
 30
0.0
  0
POINT
  5
3CCB7
330
3CAC5
100
AcDbEntity
  8
DEFPOINTS
 62
     0
 48
50.0
100
AcDbPoint
 10
10124.00000000001
 20
4639.999999999996
 30
0.0
  0
POINT
  5
3CCB8
330
3CAC5
100
AcDbEntity
  8
DEFPOINTS
 62
     0
 48
50.0
100
AcDbPoint
 10
10124.00000000001
 20
5307.44308242761
 30
0.0
  0
ENDBLK
  5
3CAD0
330
3CAC5
100
AcDbEntity
  8
0
 48
50.0
100
AcDbBlockEnd
  0
BLOCK
  5
3CADB
330
3CAD1
100
AcDbEntity
  8
0
 48
50.0
100
AcDbBlockBegin
  2
*D26
 70
     1
 10
0.0
 20
0.0
 30
0.0
  3
*D26
  1

  0
LINE
  5
3CE28
330
3CAD1
100
AcDbEntity
  8
寸法
 62
     0
 48
50.0
370
    -2
100
AcDbLine
 10
10239.0
 20
1979.999999999996
 30
0.0
 11
9380.354169527221
 21
1979.999999999996
 31
0.0
  0
LINE
  5
3CE29
330
3CAD1
100
AcDbEntity
  8
寸法
 62
     0
 48
50.0
370
    -2
100
AcDbLine
 10
10215.80251771085
 20
4597.499999999997
 30
0.0
 11
9380.354169527223
 21
4597.499999999997
 31
0.0
  0
LINE
  5
3CE2A
330
3CAD1
100
AcDbEntity
  8
寸法
 62
     0
 48
50.0
370
    -2
100
AcDbLine
 10
9455.354169527222
 20
1979.999999999996
 30
0.0
 11
9455.354169527224
 21
4597.499999999997
 31
0.0
  0
INSERT
  5
3CE2B
330
3CAD1
100
AcDbEntity
  8
寸法
 62
     0
 48
50.0
370
    -2
100
AcDbBlockReference
  2
_DOTSMALL
 10
9455.354169527222
 20
1979.999999999996
 30
0.0
 41
125.0
 42
125.0
 43
125.0
 50
270.0
  0
INSERT
  5
3CE2C
330
3CAD1
100
AcDbEntity
  8
寸法
 62
     0
 48
50.0
370
    -2
100
AcDbBlockReference
  2
_DOTSMALL
 10
9455.354169527224
 20
4597.499999999997
 30
0.0
 41
125.0
 42
125.0
 43
125.0
 50
90.0
  0
MTEXT
  5
3CE2D
330
3CAD1
100
AcDbEntity
  8
寸法
 62
     7
 48
50.0
100
AcDbMText
 10
9355.339405747695
 20
3288.749999999997
 30
0.0
 40
150.0
 41
0.0
 71
     5
 72
     1
  1
\A1;軒高 2617.5
  7
STYLE1
 11
0.0000000000000001
 21
1.0
 31
0.0
 73
     1
 44
1.0
1001
ACAD
1000
MTEXTBEGIN
1070
    73
1070
     1
1070
    44
1040
1.0
1070
    74
1070
     0
1000
MTEXTEND
  0
POINT
  5
3CE2E
330
3CAD1
100
AcDbEntity
  8
DEFPOINTS
 62
     0
 48
50.0
100
AcDbPoint
 10
10264.00000000001
 20
1979.999999999996
 30
0.0
  0
POINT
  5
3CE2F
330
3CAD1
100
AcDbEntity
  8
DEFPOINTS
 62
     0
 48
50.0
100
AcDbPoint
 10
10240.80251771086
 20
4597.499999999996
 30
0.0
  0
POINT
  5
3CE30
330
3CAD1
100
AcDbEntity
  8
DEFPOINTS
 62
     0
 48
50.0
100
AcDbPoint
 10
9455.354169527224
 20
4597.499999999997
 30
0.0
  0
ENDBLK
  5
3CADC
330
3CAD1
100
AcDbEntity
  8
0
 48
50.0
100
AcDbBlockEnd
  0
BLOCK
  5
3CAE8
330
3CADD
100
AcDbEntity
  8
0
 48
50.0
100
AcDbBlockBegin
  2
*D27
 70
     1
 10
0.0
 20
0.0
 30
0.0
  3
*D27
  1

  0
LINE
  5
3CC9D
330
3CADD
100
AcDbEntity
  8
寸法
 62
     0
 48
50.0
370
    -2
100
AcDbLine
 10
15999.00000000002
 20
4415.087896305166
 30
0.0
 11
15999.00000000002
 21
5116.009141976133
 31
0.0
  0
LINE
  5
3CC9E
330
3CADD
100
AcDbEntity
  8
寸法
 62
     0
 48
50.0
370
    -2
100
AcDbLine
 10
16139.00000000002
 20
4408.499999999996
 30
0.0
 11
16139.00000000002
 21
5116.009141976133
 31
0.0
  0
LINE
  5
3CC9F
330
3CADD
100
AcDbEntity
  8
寸法
 62
     0
 48
50.0
370
    -2
100
AcDbLine
 10
15999.00000000002
 20
5041.009141976133
 30
0.0
 11
16139.00000000002
 21
5041.009141976133
 31
0.0
  0
LINE
  5
3CCA0
330
3CADD
100
AcDbEntity
  8
寸法
 62
     0
 48
50.0
370
    -2
100
AcDbLine
 10
16139.00000000002
 20
5041.009141976133
 30
0.0
 11
16569.11811023624
 21
5041.009141976133
 31
0.0
  0
INSERT
  5
3CCA1
330
3CADD
100
AcDbEntity
  8
寸法
 62
     0
 48
50.0
370
    -2
100
AcDbBlockReference
  2
_DOTSMALL
 10
15999.00000000002
 20
5041.009141976133
 30
0.0
 41
125.0
 42
125.0
 43
125.0
 50
180.0
  0
INSERT
  5
3CCA2
330
3CADD
100
AcDbEntity
  8
寸法
 62
     0
 48
50.0
370
    -2
100
AcDbBlockReference
  2
_DOTSMALL
 10
16139.00000000002
 20
5041.009141976133
 30
0.0
 41
125.0
 42
125.0
 43
125.0
  0
MTEXT
  5
3CCA3
330
3CADD
100
AcDbEntity
  8
寸法
 62
     7
 48
50.0
100
AcDbMText
 10
16416.55905511813
 20
5141.009141976134
 30
0.0
 40
150.0
 41
0.0
 71
     5
 72
     1
  1
\A1;140
  7
STYLE1
 73
     1
 44
1.0
1001
ACAD
1000
MTEXTBEGIN
1070
    73
1070
     1
1070
    44
1040
1.0
1070
    74
1070
     0
1000
MTEXTEND
  0
POINT
  5
3CCA4
330
3CADD
100
AcDbEntity
  8
DEFPOINTS
 62
     0
 48
50.0
100
AcDbPoint
 10
15999.00000000002
 20
4390.087896305167
 30
0.0
  0
POINT
  5
3CCA5
330
3CADD
100
AcDbEntity
  8
DEFPOINTS
 62
     0
 48
50.0
100
AcDbPoint
 10
16139.00000000002
 20
4383.499999999997
 30
0.0
  0
POINT
  5
3CCA6
330
3CADD
100
AcDbEntity
  8
DEFPOINTS
 62
     0
 48
50.0
100
AcDbPoint
 10
16139.00000000002
 20
5041.009141976133
 30
0.0
  0
ENDBLK
  5
3CAE9
330
3CADD
100
AcDbEntity
  8
0
 48
50.0
100
AcDbBlockEnd
  0
BLOCK
  5
3CAF4
330
3CAEA
100
AcDbEntity
  8
0
 48
50.0
100
AcDbBlockBegin
  2
*D28
 70
     1
 10
0.0
 20
0.0
 30
0.0
  3
*D28
  1

  0
LINE
  5
3CC94
330
3CAEA
100
AcDbEntity
  8
寸法
 62
     0
 48
50.0
370
    -2
100
AcDbLine
 10
10264.00000000001
 20
4658.869670483503
 30
0.0
 11
10264.00000000001
 21
5116.009141976133
 31
0.0
  0
LINE
  5
3CC95
330
3CAEA
100
AcDbEntity
  8
寸法
 62
     0
 48
50.0
370
    -2
100
AcDbLine
 10
15999.00000000002
 20
4415.087896305166
 30
0.0
 11
15999.00000000002
 21
5116.009141976133
 31
0.0
  0
LINE
  5
3CC96
330
3CAEA
100
AcDbEntity
  8
寸法
 62
     0
 48
50.0
370
    -2
100
AcDbLine
 10
10264.00000000001
 20
5041.009141976133
 30
0.0
 11
15999.00000000002
 21
5041.009141976133
 31
0.0
  0
INSERT
  5
3CC97
330
3CAEA
100
AcDbEntity
  8
寸法
 62
     0
 48
50.0
370
    -2
100
AcDbBlockReference
  2
_DOTSMALL
 10
10264.00000000001
 20
5041.009141976133
 30
0.0
 41
125.0
 42
125.0
 43
125.0
 50
180.0
  0
INSERT
  5
3CC98
330
3CAEA
100
AcDbEntity
  8
寸法
 62
     0
 48
50.0
370
    -2
100
AcDbBlockReference
  2
_DOTSMALL
 10
15999.00000000002
 20
5041.009141976133
 30
0.0
 41
125.0
 42
125.0
 43
125.0
  0
MTEXT
  5
3CC99
330
3CAEA
100
AcDbEntity
  8
寸法
 62
     7
 48
50.0
100
AcDbMText
 10
13131.50000000002
 20
5141.009141976134
 30
0.0
 40
150.0
 41
0.0
 71
     5
 72
     1
  1
\A1;5735
  7
STYLE1
 73
     1
 44
1.0
1001
ACAD
1000
MTEXTBEGIN
1070
    73
1070
     1
1070
    44
1040
1.0
1070
    74
1070
     0
1000
MTEXTEND
  0
POINT
  5
3CC9A
330
3CAEA
100
AcDbEntity
  8
DEFPOINTS
 62
     0
 48
50.0
100
AcDbPoint
 10
10264.00000000001
 20
4633.869670483504
 30
0.0
  0
POINT
  5
3CC9B
330
3CAEA
100
AcDbEntity
  8
DEFPOINTS
 62
     0
 48
50.0
100
AcDbPoint
 10
15999.00000000002
 20
4390.087896305167
 30
0.0
  0
POINT
  5
3CC9C
330
3CAEA
100
AcDbEntity
  8
DEFPOINTS
 62
     0
 48
50.0
100
AcDbPoint
 10
15999.00000000002
 20
5041.009141976133
 30
0.0
  0
ENDBLK
  5
3CAF5
330
3CAEA
100
AcDbEntity
  8
0
 48
50.0
100
AcDbBlockEnd
  0
BLOCK
  5
3CB01
330
3CAF6
100
AcDbEntity
  8
0
 48
50.0
100
AcDbBlockBegin
  2
*D29
 70
     1
 10
0.0
 20
0.0
 30
0.0
  3
*D29
  1

  0
LINE
  5
3CC8A
330
3CAF6
100
AcDbEntity
  8
寸法
 62
     0
 48
50.0
370
    -2
100
AcDbLine
 10
10264.00000000001
 20
4658.869670483503
 30
0.0
 11
10264.00000000001
 21
5116.009141976133
 31
0.0
  0
LINE
  5
3CC8B
330
3CAF6
100
AcDbEntity
  8
寸法
 62
     0
 48
50.0
370
    -2
100
AcDbLine
 10
10124.00000000001
 20
4664.999999999996
 30
0.0
 11
10124.00000000001
 21
5116.009141976133
 31
0.0
  0
LINE
  5
3CC8C
330
3CAF6
100
AcDbEntity
  8
寸法
 62
     0
 48
50.0
370
    -2
100
AcDbLine
 10
10264.00000000001
 20
5041.009141976133
 30
0.0
 11
10124.00000000001
 21
5041.009141976133
 31
0.0
  0
LINE
  5
3CC8D
330
3CAF6
100
AcDbEntity
  8
寸法
 62
     0
 48
50.0
370
    -2
100
AcDbLine
 10
10124.00000000001
 20
5041.009141976133
 30
0.0
 11
9693.881889763794
 21
5041.009141976133
 31
0.0
  0
INSERT
  5
3CC8E
330
3CAF6
100
AcDbEntity
  8
寸法
 62
     0
 48
50.0
370
    -2
100
AcDbBlockReference
  2
_DOTSMALL
 10
10264.00000000001
 20
5041.009141976133
 30
0.0
 41
125.0
 42
125.0
 43
125.0
  0
INSERT
  5
3CC8F
330
3CAF6
100
AcDbEntity
  8
寸法
 62
     0
 48
50.0
370
    -2
100
AcDbBlockReference
  2
_DOTSMALL
 10
10124.00000000001
 20
5041.009141976133
 30
0.0
 41
125.0
 42
125.0
 43
125.0
 50
180.0
  0
MTEXT
  5
3CC90
330
3CAF6
100
AcDbEntity
  8
寸法
 62
     7
 48
50.0
100
AcDbMText
 10
9846.440944881905
 20
5141.009141976134
 30
0.0
 40
150.0
 41
0.0
 71
     5
 72
     1
  1
\A1;140
  7
STYLE1
 73
     1
 44
1.0
1001
ACAD
1000
MTEXTBEGIN
1070
    73
1070
     1
1070
    44
1040
1.0
1070
    74
1070
     0
1000
MTEXTEND
  0
POINT
  5
3CC91
330
3CAF6
100
AcDbEntity
  8
DEFPOINTS
 62
     0
 48
50.0
100
AcDbPoint
 10
10264.00000000001
 20
4633.869670483504
 30
0.0
  0
POINT
  5
3CC92
330
3CAF6
100
AcDbEntity
  8
DEFPOINTS
 62
     0
 48
50.0
100
AcDbPoint
 10
10124.00000000001
 20
4639.999999999996
 30
0.0
  0
POINT
  5
3CC93
330
3CAF6
100
AcDbEntity
  8
DEFPOINTS
 62
     0
 48
50.0
100
AcDbPoint
 10
10124.00000000001
 20
5041.009141976133
 30
0.0
  0
ENDBLK
  5
3CB02
330
3CAF6
100
AcDbEntity
  8
0
 48
50.0
100
AcDbBlockEnd
  0
BLOCK
  5
3CB0D
330
3CB03
100
AcDbEntity
  8
0
 48
50.0
100
AcDbBlockBegin
  2
*D30
 70
     1
 10
0.0
 20
0.0
 30
0.0
  3
*D30
  1

  0
LINE
  5
3CDD8
330
3CB03
100
AcDbEntity
  8
寸法
 62
     0
 48
50.0
370
    -2
100
AcDbLine
 10
16164.00000000001
 20
4383.999999999996
 30
0.0
 11
16493.2960775968
 21
4383.999999999996
 31
0.0
  0
LINE
  5
3CDD9
330
3CB03
100
AcDbEntity
  8
寸法
 62
     0
 48
50.0
370
    -2
100
AcDbLine
 10
16024.0
 20
1979.999999999996
 30
0.0
 11
16493.2960775968
 21
1979.999999999996
 31
0.0
  0
LINE
  5
3CDDA
330
3CB03
100
AcDbEntity
  8
寸法
 62
     0
 48
50.0
370
    -2
100
AcDbLine
 10
16418.2960775968
 20
4383.999999999996
 30
0.0
 11
16418.2960775968
 21
1979.999999999996
 31
0.0
  0
INSERT
  5
3CDDB
330
3CB03
100
AcDbEntity
  8
寸法
 62
     0
 48
50.0
370
    -2
100
AcDbBlockReference
  2
_DOTSMALL
 10
16418.2960775968
 20
4383.999999999996
 30
0.0
 41
125.0
 42
125.0
 43
125.0
 50
90.0
  0
INSERT
  5
3CDDC
330
3CB03
100
AcDbEntity
  8
寸法
 62
     0
 48
50.0
370
    -2
100
AcDbBlockReference
  2
_DOTSMALL
 10
16418.2960775968
 20
1979.999999999996
 30
0.0
 41
125.0
 42
125.0
 43
125.0
 50
270.0
  0
MTEXT
  5
3CDDD
330
3CB03
100
AcDbEntity
  8
寸法
 62
     7
 48
50.0
100
AcDbMText
 10
16318.28131381727
 20
3181.999999999999
 30
0.0
 40
150.0
 41
0.0
 71
     5
 72
     1
  1
\A1;2404
  7
STYLE1
 11
0.0000000000000001
 21
1.0
 31
0.0
 73
     1
 44
1.0
1001
ACAD
1000
MTEXTBEGIN
1070
    73
1070
     1
1070
    44
1040
1.0
1070
    74
1070
     0
1000
MTEXTEND
  0
POINT
  5
3CDDE
330
3CB03
100
AcDbEntity
  8
DEFPOINTS
 62
     0
 48
50.0
100
AcDbPoint
 10
16139.00000000001
 20
4383.999999999996
 30
0.0
  0
POINT
  5
3CDDF
330
3CB03
100
AcDbEntity
  8
DEFPOINTS
 62
     0
 48
50.0
100
AcDbPoint
 10
15999.0
 20
1979.999999999996
 30
0.0
  0
POINT
  5
3CDE0
330
3CB03
100
AcDbEntity
  8
DEFPOINTS
 62
     0
 48
50.0
100
AcDbPoint
 10
16418.2960775968
 20
1979.999999999996
 30
0.0
  0
ENDBLK
  5
3CB0E
330
3CB03
100
AcDbEntity
  8
0
 48
50.0
100
AcDbBlockEnd
  0
BLOCK
  5
3CB19
330
3CB0F
100
AcDbEntity
  8
0
 48
50.0
100
AcDbBlockBegin
  2
*D31
 70
     1
 10
0.0
 20
0.0
 30
0.0
  3
*D31
  1

  0
LINE
  5
3CC78
330
3CB0F
100
AcDbEntity
  8
寸法
 62
     0
 48
50.0
370
    -2
100
AcDbLine
 10
10099.00000000001
 20
4639.999999999996
 30
0.0
 11
9103.556001293046
 21
4639.999999999996
 31
0.0
  0
LINE
  5
3CC79
330
3CB0F
100
AcDbEntity
  8
寸法
 62
     0
 48
50.0
370
    -2
100
AcDbLine
 10
10239.0
 20
1979.999999999996
 30
0.0
 11
9103.556001293043
 21
1979.999999999996
 31
0.0
  0
LINE
  5
3CC7A
330
3CB0F
100
AcDbEntity
  8
寸法
 62
     0
 48
50.0
370
    -2
100
AcDbLine
 10
9178.556001293046
 20
4639.999999999996
 30
0.0
 11
9178.556001293044
 21
1979.999999999996
 31
0.0
  0
INSERT
  5
3CC7B
330
3CB0F
100
AcDbEntity
  8
寸法
 62
     0
 48
50.0
370
    -2
100
AcDbBlockReference
  2
_DOTSMALL
 10
9178.556001293046
 20
4639.999999999996
 30
0.0
 41
125.0
 42
125.0
 43
125.0
 50
90.0
  0
INSERT
  5
3CC7C
330
3CB0F
100
AcDbEntity
  8
寸法
 62
     0
 48
50.0
370
    -2
100
AcDbBlockReference
  2
_DOTSMALL
 10
9178.556001293044
 20
1979.999999999996
 30
0.0
 41
125.0
 42
125.0
 43
125.0
 50
270.0
  0
MTEXT
  5
3CC7D
330
3CB0F
100
AcDbEntity
  8
寸法
 62
     7
 48
50.0
100
AcDbMText
 10
9078.541237513517
 20
3309.999999999998
 30
0.0
 40
150.0
 41
0.0
 71
     5
 72
     1
  1
\A1;2660
  7
STYLE1
 11
0.0000000000000001
 21
1.0
 31
0.0
 73
     1
 44
1.0
1001
ACAD
1000
MTEXTBEGIN
1070
    73
1070
     1
1070
    44
1040
1.0
1070
    74
1070
     0
1000
MTEXTEND
  0
POINT
  5
3CC7E
330
3CB0F
100
AcDbEntity
  8
DEFPOINTS
 62
     0
 48
50.0
100
AcDbPoint
 10
10124.00000000001
 20
4639.999999999996
 30
0.0
  0
POINT
  5
3CC7F
330
3CB0F
100
AcDbEntity
  8
DEFPOINTS
 62
     0
 48
50.0
100
AcDbPoint
 10
10264.00000000001
 20
1979.999999999996
 30
0.0
  0
POINT
  5
3CC80
330
3CB0F
100
AcDbEntity
  8
DEFPOINTS
 62
     0
 48
50.0
100
AcDbPoint
 10
9178.556001293044
 20
1979.999999999996
 30
0.0
  0
ENDBLK
  5
3CB1A
330
3CB0F
100
AcDbEntity
  8
0
 48
50.0
100
AcDbBlockEnd
  0
BLOCK
  5
3CB25
330
3CB1B
100
AcDbEntity
  8
0
 48
50.0
100
AcDbBlockBegin
  2
*D32
 70
     1
 10
0.0
 20
0.0
 30
0.0
  3
*D32
  1

  0
LINE
  5
3CC6F
330
3CB1B
100
AcDbEntity
  8
寸法
 62
     0
 48
50.0
370
    -2
100
AcDbLine
 10
10239.0
 20
4124.999999999997
 30
0.0
 11
9654.00000000001
 21
4124.999999999997
 31
0.0
  0
LINE
  5
3CC70
330
3CB1B
100
AcDbEntity
  8
寸法
 62
     0
 48
50.0
370
    -2
100
AcDbLine
 10
10239.0
 20
2039.999999999996
 30
0.0
 11
9654.000000000008
 21
2039.999999999997
 31
0.0
  0
LINE
  5
3CC71
330
3CB1B
100
AcDbEntity
  8
寸法
 62
     0
 48
50.0
370
    -2
100
AcDbLine
 10
9729.000000000009
 20
4124.999999999997
 30
0.0
 11
9729.000000000008
 21
2039.999999999996
 31
0.0
  0
INSERT
  5
3CC72
330
3CB1B
100
AcDbEntity
  8
寸法
 62
     0
 48
50.0
370
    -2
100
AcDbBlockReference
  2
_DOTSMALL
 10
9729.000000000009
 20
4124.999999999997
 30
0.0
 41
125.0
 42
125.0
 43
125.0
 50
90.0
  0
INSERT
  5
3CC73
330
3CB1B
100
AcDbEntity
  8
寸法
 62
     0
 48
50.0
370
    -2
100
AcDbBlockReference
  2
_DOTSMALL
 10
9729.000000000008
 20
2039.999999999996
 30
0.0
 41
125.0
 42
125.0
 43
125.0
 50
270.0
  0
MTEXT
  5
3CC74
330
3CB1B
100
AcDbEntity
  8
寸法
 62
     7
 48
50.0
100
AcDbMText
 10
9628.985236220479
 20
3082.499999999999
 30
0.0
 40
150.0
 41
0.0
 71
     5
 72
     1
  1
\A1;2085
  7
STYLE1
 11
0.0000000000000001
 21
1.0
 31
0.0
 73
     1
 44
1.0
1001
ACAD
1000
MTEXTBEGIN
1070
    73
1070
     1
1070
    44
1040
1.0
1070
    74
1070
     0
1000
MTEXTEND
  0
POINT
  5
3CC75
330
3CB1B
100
AcDbEntity
  8
DEFPOINTS
 62
     0
 48
50.0
100
AcDbPoint
 10
10264.00000000001
 20
4124.999999999996
 30
0.0
  0
POINT
  5
3CC76
330
3CB1B
100
AcDbEntity
  8
DEFPOINTS
 62
     0
 48
50.0
100
AcDbPoint
 10
10264.00000000001
 20
2039.999999999996
 30
0.0
  0
POINT
  5
3CC77
330
3CB1B
100
AcDbEntity
  8
DEFPOINTS
 62
     0
 48
50.0
100
AcDbPoint
 10
9729.000000000008
 20
2039.999999999996
 30
0.0
  0
ENDBLK
  5
3CB26
330
3CB1B
100
AcDbEntity
  8
0
 48
50.0
100
AcDbBlockEnd
  0
BLOCK
  5
3CB31
330
3CB27
100
AcDbEntity
  8
0
 48
50.0
100
AcDbBlockBegin
  2
*D33
 70
     1
 10
0.0
 20
0.0
 30
0.0
  3
*D33
  1

  0
LINE
  5
3CB91
330
3CB27
100
AcDbEntity
  8
寸法
 62
     0
 48
50.0
370
    -2
100
AcDbLine
 10
10239.0
 20
2039.999999999996
 30
0.0
 11
9654.000000000008
 21
2039.999999999997
 31
0.0
  0
LINE
  5
3CB92
330
3CB27
100
AcDbEntity
  8
寸法
 62
     0
 48
50.0
370
    -2
100
AcDbLine
 10
10239.0
 20
1979.999999999996
 30
0.0
 11
9654.000000000008
 21
1979.999999999996
 31
0.0
  0
LINE
  5
3CB93
330
3CB27
100
AcDbEntity
  8
寸法
 62
     0
 48
50.0
370
    -2
100
AcDbLine
 10
9729.000000000008
 20
2039.999999999996
 30
0.0
 11
9729.000000000008
 21
1979.999999999996
 31
0.0
  0
MTEXT
  5
3CB94
330
3CB27
100
AcDbEntity
  8
寸法
 62
     7
 48
50.0
100
AcDbMText
 10
9636.13338777292
 20
1945.301995320991
 30
0.0
 40
150.0
 41
0.0
 71
     5
 72
     1
  1
\A1;60
  7
STYLE1
 11
0.0000000000000001
 21
1.0
 31
0.0
 73
     1
 44
1.0
1001
ACAD
1000
MTEXTBEGIN
1070
    73
1070
     1
1070
    44
1040
1.0
1070
    74
1070
     0
1000
MTEXTEND
  0
INSERT
  5
3CB95
330
3CB27
100
AcDbEntity
  8
寸法
 62
     0
 48
50.0
370
    -2
100
AcDbBlockReference
  2
_DOTSMALL
 10
9729.000000000008
 20
2039.999999999996
 30
0.0
 41
125.0
 42
125.0
 43
125.0
 50
90.0
  0
INSERT
  5
3CB96
330
3CB27
100
AcDbEntity
  8
寸法
 62
     0
 48
50.0
370
    -2
100
AcDbBlockReference
  2
_DOTSMALL
 10
9729.000000000008
 20
1979.999999999996
 30
0.0
 41
125.0
 42
125.0
 43
125.0
 50
270.0
  0
POINT
  5
3CB97
330
3CB27
100
AcDbEntity
  8
DEFPOINTS
 62
     0
 48
50.0
100
AcDbPoint
 10
10264.00000000001
 20
2039.999999999996
 30
0.0
  0
POINT
  5
3CB98
330
3CB27
100
AcDbEntity
  8
DEFPOINTS
 62
     0
 48
50.0
100
AcDbPoint
 10
10264.00000000001
 20
1979.999999999996
 30
0.0
  0
POINT
  5
3CB99
330
3CB27
100
AcDbEntity
  8
DEFPOINTS
 62
     0
 48
50.0
100
AcDbPoint
 10
9729.000000000008
 20
1979.999999999996
 30
0.0
  0
ENDBLK
  5
3CB32
330
3CB27
100
AcDbEntity
  8
0
 48
50.0
100
AcDbBlockEnd
  0
ENDSEC
  0
SECTION
  2
ENTITIES
  0
LINE
  5
3384C
330
747D
100
AcDbEntity
  8
仕様書枠
 48
50.0
100
AcDbLine
 10
20334.0
 20
14162.0
 30
0.0
 11
20334.0
 21
280.0
 31
0.0
  0
LINE
  5
3384D
330
747D
100
AcDbEntity
  8
仕様書枠
 48
50.0
100
AcDbLine
 10
225.0
 20
280.0
 30
0.0
 11
20334.0
 21
280.0
 31
0.0
  0
LINE
  5
3384E
330
747D
100
AcDbEntity
  8
仕様書枠
 48
50.0
100
AcDbLine
 10
225.0
 20
14162.0
 30
0.0
 11
20334.0
 21
14162.0
 31
0.0
  0
LINE
  5
3384F
330
747D
100
AcDbEntity
  8
仕様書枠
 48
50.0
100
AcDbLine
 10
225.0
 20
280.0
 30
0.0
 11
225.0
 21
14162.0
 31
0.0
  0
LINE
  5
33854
330
747D
100
AcDbEntity
  8
仕様書枠
 48
50.0
100
AcDbLine
 10
14783.99999999999
 20
1579.999999999996
 30
0.0
 11
14784.0
 21
279.9999999999964
 31
0.0
  0
LINE
  5
33855
330
747D
100
AcDbEntity
  8
仕様書枠
 48
50.0
100
AcDbLine
 10
14783.99999999999
 20
1579.999999999996
 30
0.0
 11
20334.0
 21
1579.999999999996
 31
0.0
  0
LINE
  5
33857
330
747D
100
AcDbEntity
  8
文字
 48
0.5
100
AcDbLine
 10
20295.26228822168
 20
214.9311834292321
 30
0.0
 11
20299.87944449571
 21
197.7081126596624
 31
0.0
1001
ACAD
1000
ASC_BOUNDS
1002
{
1070
    19
1002
}
  0
LINE
  5
33858
330
747D
100
AcDbEntity
  8
文字
 48
0.5
100
AcDbLine
 10
20084.9862894815
 20
203.0834305032343
 30
0.0
 11
20181.68538673025
 21
203.0834305032343
 31
0.0
1001
ACAD
1000
ASC_BOUNDS
1002
{
1070
    19
1002
}
  0
LINE
  5
33859
330
747D
100
AcDbEntity
  8
文字
 48
0.5
100
AcDbLine
 10
20181.68538673026
 20
210.1512055187507
 30
0.0
 11
20084.98628948151
 21
210.1512055187507
 31
0.0
1001
ACAD
1000
ASC_BOUNDS
1002
{
1070
    19
1002
}
  0
LINE
  5
3385A
330
747D
100
AcDbEntity
  8
文字
 48
0.5
100
AcDbLine
 10
20181.68538673026
 20
215.5944055187505
 30
0.0
 11
20084.98628948151
 21
215.5944055187505
 31
0.0
1001
ACAD
1000
ASC_BOUNDS
1002
{
1070
    19
1002
}
  0
LINE
  5
3385B
330
747D
100
AcDbEntity
  8
文字
 48
0.5
100
AcDbLine
 10
20084.98628948151
 20
215.5944055187505
 30
0.0
 11
20084.9862894815
 21
197.6402305032344
 31
0.0
1001
ACAD
1000
ASC_BOUNDS
1002
{
1070
    19
1002
}
  0
LINE
  5
3385C
330
747D
100
AcDbEntity
  8
文字
 48
0.5
100
AcDbLine
 10
20084.9862894815
 20
197.6402305032344
 30
0.0
 11
20181.68538673025
 21
197.6402305032344
 31
0.0
1001
ACAD
1000
ASC_BOUNDS
1002
{
1070
    19
1002
}
  0
LINE
  5
3385D
330
747D
100
AcDbEntity
  8
文字
 48
0.5
100
AcDbLine
 10
20084.98628948151
 20
180.6834755733376
 30
0.0
 11
20181.68538673026
 21
180.6834755733376
 31
0.0
1001
ACAD
1000
ASC_BOUNDS
1002
{
1070
    19
1002
}
  0
LINE
  5
3385E
330
747D
100
AcDbEntity
  8
文字
 48
0.5
100
AcDbLine
 10
20105.58838338195
 20
166.2074467358808
 30
0.0
 11
20163.00561747891
 21
166.2074467358808
 31
0.0
1001
ACAD
1000
ASC_BOUNDS
1002
{
1070
    19
1002
}
  0
LINE
  5
3385F
330
747D
100
AcDbEntity
  8
文字
 48
0.5
100
AcDbLine
 10
20181.68538673025
 20
197.6402305032344
 30
0.0
 11
20181.68538673026
 21
215.5944055187505
 31
0.0
1001
ACAD
1000
ASC_BOUNDS
1002
{
1070
    19
1002
}
  0
LINE
  5
33860
330
747D
100
AcDbEntity
  8
文字
 48
0.5
100
AcDbLine
 10
20090.4294894815
 20
175.2402755733354
 30
0.0
 11
20176.24218673025
 21
175.2402755733354
 31
0.0
1001
ACAD
1000
ASC_BOUNDS
1002
{
1070
    19
1002
}
  0
LINE
  5
33861
330
747D
100
AcDbEntity
  8
文字
 48
0.5
100
AcDbLine
 10
20299.87944449571
 20
197.7081126596624
 30
0.0
 11
20224.15107825691
 21
179.6425625523402
 31
0.0
1001
ACAD
1000
ASC_BOUNDS
1002
{
1070
    19
1002
}
  0
LINE
  5
33862
330
747D
100
AcDbEntity
  8
文字
 48
0.5
100
AcDbLine
 10
20295.26228822168
 20
214.9311834292321
 30
0.0
 11
20202.17865386538
 21
192.7254084448263
 31
0.0
1001
ACAD
1000
ASC_BOUNDS
1002
{
1070
    19
1002
}
  0
LINE
  5
33863
330
747D
100
AcDbEntity
  8
文字
 48
0.5
100
AcDbLine
 10
20296.67227489956
 20
209.6716039617001
 30
0.0
 11
20207.62185386539
 21
188.4279812193586
 31
0.0
1001
ACAD
1000
ASC_BOUNDS
1002
{
1070
    19
1002
}
  0
LINE
  5
33864
330
747D
100
AcDbEntity
  8
文字
 48
0.5
100
AcDbLine
 10
20298.6163728597
 20
203.0027397742289
 30
0.0
 11
20213.06505386537
 21
182.5938531601208
 31
0.0
1001
ACAD
1000
ASC_BOUNDS
1002
{
1070
    19
1002
}
  0
LINE
  5
33865
330
747D
100
AcDbEntity
  8
文字
 48
0.5
100
AcDbLine
 10
20302.38623853836
 20
160.6064690640676
 30
0.0
 11
20302.38623853837
 21
140.9640439326831
 31
0.0
1001
ACAD
1000
ASC_BOUNDS
1002
{
1070
    19
1002
}
  0
LINE
  5
33866
330
747D
100
AcDbEntity
  8
文字
 48
0.5
100
AcDbLine
 10
20277.59499171409
 20
146.4072439326829
 30
0.0
 11
20277.59499171409
 21
31.82349629992967
 31
0.0
1001
ACAD
1000
ASC_BOUNDS
1002
{
1070
    19
1002
}
  0
LINE
  5
33867
330
747D
100
AcDbEntity
  8
文字
 48
0.5
100
AcDbLine
 10
20268.41084069747
 20
146.4072439326829
 30
0.0
 11
20268.41084069746
 21
31.82349629992967
 31
0.0
1001
ACAD
1000
ASC_BOUNDS
1002
{
1070
    19
1002
}
  0
LINE
  5
33868
330
747D
100
AcDbEntity
  8
文字
 48
0.5
100
AcDbLine
 10
20262.96764069746
 20
31.82349629992967
 30
0.0
 11
20283.03819171409
 21
31.82349629992967
 31
0.0
1001
ACAD
1000
ASC_BOUNDS
1002
{
1070
    19
1002
}
  0
LINE
  5
33869
330
747D
100
AcDbEntity
  8
文字
 48
0.5
100
AcDbLine
 10
20283.03819171409
 20
140.9640439326831
 30
0.0
 11
20283.03819171409
 21
31.82349629992967
 31
0.0
1001
ACAD
1000
ASC_BOUNDS
1002
{
1070
    19
1002
}
  0
LINE
  5
3386A
330
747D
100
AcDbEntity
  8
文字
 48
0.5
100
AcDbLine
 10
20262.96764069746
 20
140.9640439326831
 30
0.0
 11
20262.96764069746
 21
31.82349629992967
 31
0.0
1001
ACAD
1000
ASC_BOUNDS
1002
{
1070
    19
1002
}
  0
LINE
  5
3386B
330
747D
100
AcDbEntity
  8
文字
 48
0.5
100
AcDbLine
 10
20100.14518338194
 20
112.4716812442093
 30
0.0
 11
20176.24218673026
 21
112.4716812442093
 31
0.0
1001
ACAD
1000
ASC_BOUNDS
1002
{
1070
    19
1002
}
  0
LINE
  5
3386C
330
747D
100
AcDbEntity
  8
文字
 48
0.5
100
AcDbLine
 10
20105.58838338195
 20
123.1953421837381
 30
0.0
 11
20163.00561747891
 21
123.1953421837381
 31
0.0
1001
ACAD
1000
ASC_BOUNDS
1002
{
1070
    19
1002
}
  0
LINE
  5
3386D
330
747D
100
AcDbEntity
  8
文字
 48
0.5
100
AcDbLine
 10
20105.58838338195
 20
107.0284812442095
 30
0.0
 11
20181.68538673026
 21
107.0284812442095
 31
0.0
1001
ACAD
1000
ASC_BOUNDS
1002
{
1070
    19
1002
}
  0
LINE
  5
3386E
330
747D
100
AcDbEntity
  8
文字
 48
0.5
100
AcDbLine
 10
20202.17865386538
 20
31.82349629992967
 30
0.0
 11
20224.1510782569
 21
31.82349629992967
 31
0.0
1001
ACAD
1000
ASC_BOUNDS
1002
{
1070
    19
1002
}
  0
LINE
  5
3386F
330
747D
100
AcDbEntity
  8
文字
 48
0.5
100
AcDbLine
 10
20084.98628948151
 20
31.82349629992967
 30
0.0
 11
20105.58838338195
 21
31.82349629992967
 31
0.0
1001
ACAD
1000
ASC_BOUNDS
1002
{
1070
    19
1002
}
  0
LINE
  5
33870
330
747D
100
AcDbEntity
  8
文字
 48
0.5
100
AcDbLine
 10
20105.58838338195
 20
107.0284812442095
 30
0.0
 11
20105.58838338195
 21
31.82349629992967
 31
0.0
1001
ACAD
1000
ASC_BOUNDS
1002
{
1070
    19
1002
}
  0
LINE
  5
33871
330
747D
100
AcDbEntity
  8
文字
 48
0.5
100
AcDbLine
 10
20224.15107825691
 20
140.9640439326831
 30
0.0
 11
20224.1510782569
 21
31.82349629992967
 31
0.0
1001
ACAD
1000
ASC_BOUNDS
1002
{
1070
    19
1002
}
  0
LINE
  5
33872
330
747D
100
AcDbEntity
  8
文字
 48
0.5
100
AcDbLine
 10
20224.15107825691
 20
140.9640439326831
 30
0.0
 11
20262.96764069746
 21
140.9640439326831
 31
0.0
1001
ACAD
1000
ASC_BOUNDS
1002
{
1070
    19
1002
}
  0
LINE
  5
33873
330
747D
100
AcDbEntity
  8
文字
 48
0.5
100
AcDbLine
 10
20283.03819171409
 20
140.9640439326831
 30
0.0
 11
20302.38623853837
 21
140.9640439326831
 31
0.0
1001
ACAD
1000
ASC_BOUNDS
1002
{
1070
    19
1002
}
  0
LINE
  5
33874
330
747D
100
AcDbEntity
  8
文字
 48
0.5
100
AcDbLine
 10
20224.15107825691
 20
160.6064690640676
 30
0.0
 11
20302.38623853836
 21
160.6064690640676
 31
0.0
1001
ACAD
1000
ASC_BOUNDS
1002
{
1070
    19
1002
}
  0
LINE
  5
33875
330
747D
100
AcDbEntity
  8
文字
 48
0.5
100
AcDbLine
 10
20218.70787825691
 20
146.4072439326829
 30
0.0
 11
20302.38623853837
 21
146.4072439326854
 31
0.0
1001
ACAD
1000
ASC_BOUNDS
1002
{
1070
    19
1002
}
  0
LINE
  5
33876
330
747D
100
AcDbEntity
  8
文字
 48
0.5
100
AcDbLine
 10
20218.70787825691
 20
155.1632690640678
 30
0.0
 11
20302.38623853836
 21
155.1632690640678
 31
0.0
1001
ACAD
1000
ASC_BOUNDS
1002
{
1070
    19
1002
}
  0
LINE
  5
33877
330
747D
100
AcDbEntity
  8
文字
 48
0.5
100
AcDbLine
 10
20176.24218673025
 20
175.2402755733354
 30
0.0
 11
20176.24218673026
 21
112.4716812442093
 31
0.0
1001
ACAD
1000
ASC_BOUNDS
1002
{
1070
    19
1002
}
  0
LINE
  5
33878
330
747D
100
AcDbEntity
  8
文字
 48
0.5
100
AcDbLine
 10
20168.44881747889
 20
175.2402755733354
 30
0.0
 11
20168.44881747891
 21
112.4716812442093
 31
0.0
1001
ACAD
1000
ASC_BOUNDS
1002
{
1070
    19
1002
}
  0
LINE
  5
33879
330
747D
100
AcDbEntity
  8
文字
 48
0.5
100
AcDbLine
 10
20105.58838338195
 20
123.1953421837381
 30
0.0
 11
20105.58838338195
 21
166.2074467358808
 31
0.0
1001
ACAD
1000
ASC_BOUNDS
1002
{
1070
    19
1002
}
  0
LINE
  5
3387A
330
747D
100
AcDbEntity
  8
文字
 48
0.5
100
AcDbLine
 10
20163.00561747891
 20
166.2074467358808
 30
0.0
 11
20163.00561747891
 21
123.1953421837381
 31
0.0
1001
ACAD
1000
ASC_BOUNDS
1002
{
1070
    19
1002
}
  0
LINE
  5
3387B
330
747D
100
AcDbEntity
  8
文字
 48
0.5
100
AcDbLine
 10
20181.68538673026
 20
180.6834755733376
 30
0.0
 11
20181.68538673026
 21
107.0284812442095
 31
0.0
1001
ACAD
1000
ASC_BOUNDS
1002
{
1070
    19
1002
}
  0
LINE
  5
3387C
330
747D
100
AcDbEntity
  8
文字
 48
0.5
100
AcDbLine
 10
20084.98628948151
 20
180.6834755733376
 30
0.0
 11
20084.98628948151
 21
31.82349629992967
 31
0.0
1001
ACAD
1000
ASC_BOUNDS
1002
{
1070
    19
1002
}
  0
LINE
  5
3387D
330
747D
100
AcDbEntity
  8
文字
 48
0.5
100
AcDbLine
 10
20202.17865386538
 20
192.7254084448263
 30
0.0
 11
20202.17865386538
 21
31.82349629992967
 31
0.0
1001
ACAD
1000
ASC_BOUNDS
1002
{
1070
    19
1002
}
  0
LINE
  5
3387E
330
747D
100
AcDbEntity
  8
文字
 48
0.5
100
AcDbLine
 10
20207.62185386539
 20
188.4279812193586
 30
0.0
 11
20207.62185386538
 21
31.82349629992967
 31
0.0
1001
ACAD
1000
ASC_BOUNDS
1002
{
1070
    19
1002
}
  0
LINE
  5
3387F
330
747D
100
AcDbEntity
  8
文字
 48
0.5
100
AcDbLine
 10
20218.70787825691
 20
183.9399897778145
 30
0.0
 11
20218.70787825691
 21
31.82349629992967
 31
0.0
1001
ACAD
1000
ASC_BOUNDS
1002
{
1070
    19
1002
}
  0
LINE
  5
33880
330
747D
100
AcDbEntity
  8
文字
 48
0.5
100
AcDbLine
 10
20213.06505386537
 20
182.5938531601208
 30
0.0
 11
20213.06505386537
 21
31.82349629992967
 31
0.0
1001
ACAD
1000
ASC_BOUNDS
1002
{
1070
    19
1002
}
  0
LINE
  5
33881
330
747D
100
AcDbEntity
  8
文字
 48
0.5
100
AcDbLine
 10
20100.14518338194
 20
175.2402755733354
 30
0.0
 11
20100.14518338194
 21
31.82349629992967
 31
0.0
1001
ACAD
1000
ASC_BOUNDS
1002
{
1070
    19
1002
}
  0
LINE
  5
33882
330
747D
100
AcDbEntity
  8
文字
 48
0.5
100
AcDbLine
 10
20090.4294894815
 20
175.2402755733354
 30
0.0
 11
20090.42948948151
 21
31.82349629992967
 31
0.0
1001
ACAD
1000
ASC_BOUNDS
1002
{
1070
    19
1002
}
  0
LINE
  5
33883
330
747D
100
AcDbEntity
  8
文字
 48
0.5
100
AcDbLine
 10
20224.15107825691
 20
179.6425625523402
 30
0.0
 11
20224.15107825691
 21
160.6064690640676
 31
0.0
1001
ACAD
1000
ASC_BOUNDS
1002
{
1070
    19
1002
}
  0
LINE
  5
33884
330
747D
100
AcDbEntity
  8
文字
 48
0.5
100
AcDbLine
 10
19953.57606337974
 20
207.5667532042154
 30
0.0
 11
19939.10979831985
 21
221.7760670311075
 31
0.0
1001
ACAD
1000
ASC_BOUNDS
1002
{
1070
    19
1002
}
  0
LINE
  5
33885
330
747D
100
AcDbEntity
  8
文字
 48
0.5
100
AcDbLine
 10
19883.18649559102
 20
210.6356154700279
 30
0.0
 11
19868.53364560033
 21
225.7726225876283
 31
0.0
1001
ACAD
1000
ASC_BOUNDS
1002
{
1070
    19
1002
}
  0
LINE
  5
33886
330
747D
100
AcDbEntity
  8
文字
 48
0.5
100
AcDbLine
 10
19905.99346252448
 20
166.8713111433218
 30
0.0
 11
20023.66162543082
 21
166.8713111433218
 31
0.0
1001
ACAD
1000
ASC_BOUNDS
1002
{
1070
    19
1002
}
  0
LINE
  5
33887
330
747D
100
AcDbEntity
  8
文字
 48
0.5
100
AcDbLine
 10
19905.99346252448
 20
166.8713111433218
 30
0.0
 11
19953.57606337974
 21
207.5667532042154
 31
0.0
1001
ACAD
1000
ASC_BOUNDS
1002
{
1070
    19
1002
}
  0
LINE
  5
33888
330
747D
100
AcDbEntity
  8
文字
 48
0.5
100
AcDbLine
 10
19691.63723104729
 20
211.9758836014797
 30
0.0
 11
19711.90097526308
 21
211.9758836014797
 31
0.0
1001
ACAD
1000
ASC_BOUNDS
1002
{
1070
    19
1002
}
  0
LINE
  5
33889
330
747D
100
AcDbEntity
  8
文字
 48
0.5
100
AcDbLine
 10
19839.05016137576
 20
172.0890693764828
 30
0.0
 11
19883.18649559102
 21
210.6356154700279
 31
0.0
1001
ACAD
1000
ASC_BOUNDS
1002
{
1070
    19
1002
}
  0
LINE
  5
3388A
330
747D
100
AcDbEntity
  8
文字
 48
0.5
100
AcDbLine
 10
19870.47987129922
 20
136.4979967783172
 30
0.0
 11
19893.2247746126
 21
155.9507773815703
 31
0.0
1001
ACAD
1000
ASC_BOUNDS
1002
{
1070
    19
1002
}
  0
LINE
  5
3388B
330
747D
100
AcDbEntity
  8
文字
 48
0.5
100
AcDbLine
 10
19856.96580322466
 20
151.7194533444858
 30
0.0
 11
19870.47987129922
 21
136.4979967783172
 31
0.0
1001
ACAD
1000
ASC_BOUNDS
1002
{
1070
    19
1002
}
  0
LINE
  5
3388C
330
747D
100
AcDbEntity
  8
文字
 48
0.5
100
AcDbLine
 10
19912.89476602226
 20
151.3392499524115
 30
0.0
 11
19912.89476602224
 21
120.6389513656353
 31
0.0
1001
ACAD
1000
ASC_BOUNDS
1002
{
1070
    19
1002
}
  0
LINE
  5
3388D
330
747D
100
AcDbEntity
  8
文字
 48
0.5
100
AcDbLine
 10
19893.2247746126
 20
155.9507773815703
 30
0.0
 11
19893.2247746126
 21
31.82349629992967
 31
0.0
1001
ACAD
1000
ASC_BOUNDS
1002
{
1070
    19
1002
}
  0
LINE
  5
3388E
330
747D
100
AcDbEntity
  8
文字
 48
0.5
100
AcDbLine
 10
19907.45156602222
 20
158.6369450851369
 30
0.0
 11
19907.45156602224
 21
31.82349629992967
 31
0.0
1001
ACAD
1000
ASC_BOUNDS
1002
{
1070
    19
1002
}
  0
LINE
  5
3388F
330
747D
100
AcDbEntity
  8
文字
 48
0.5
100
AcDbLine
 10
19907.45156602224
 20
113.3014759013072
 30
0.0
 11
20013.47622504242
 21
113.3014759013023
 31
0.0
1001
ACAD
1000
ASC_BOUNDS
1002
{
1070
    19
1002
}
  0
LINE
  5
33890
330
747D
100
AcDbEntity
  8
文字
 48
0.5
100
AcDbLine
 10
19912.89476602224
 20
120.6389513656353
 30
0.0
 11
20013.47622504242
 21
120.6389513656353
 31
0.0
1001
ACAD
1000
ASC_BOUNDS
1002
{
1070
    19
1002
}
  0
LINE
  5
33891
330
747D
100
AcDbEntity
  8
文字
 48
0.5
100
AcDbLine
 10
19912.89476602224
 20
105.7673517044972
 30
0.0
 11
20013.47622504242
 21
105.7673517044972
 31
0.0
1001
ACAD
1000
ASC_BOUNDS
1002
{
1070
    19
1002
}
  0
LINE
  5
33892
330
747D
100
AcDbEntity
  8
文字
 48
0.5
100
AcDbLine
 10
19907.45156602224
 20
71.70464130232193
 30
0.0
 11
20013.47622504242
 21
71.70464130231704
 31
0.0
1001
ACAD
1000
ASC_BOUNDS
1002
{
1070
    19
1002
}
  0
LINE
  5
33893
330
747D
100
AcDbEntity
  8
文字
 48
0.5
100
AcDbLine
 10
20013.47622504242
 20
79.7025782964264
 30
0.0
 11
20013.47622504242
 21
64.17051710551112
 31
0.0
1001
ACAD
1000
ASC_BOUNDS
1002
{
1070
    19
1002
}
  0
LINE
  5
33894
330
747D
100
AcDbEntity
  8
文字
 48
0.5
100
AcDbLine
 10
19912.89476602224
 20
79.7025782964264
 30
0.0
 11
20013.47622504242
 21
79.7025782964264
 31
0.0
1001
ACAD
1000
ASC_BOUNDS
1002
{
1070
    19
1002
}
  0
LINE
  5
33895
330
747D
100
AcDbEntity
  8
文字
 48
0.5
100
AcDbLine
 10
19912.89476602224
 20
64.17051710551112
 30
0.0
 11
20013.47622504242
 21
64.17051710551112
 31
0.0
1001
ACAD
1000
ASC_BOUNDS
1002
{
1070
    19
1002
}
  0
LINE
  5
33896
330
747D
100
AcDbEntity
  8
文字
 48
0.5
100
AcDbLine
 10
19893.2247746126
 20
31.82349629992967
 30
0.0
 11
19912.89476602225
 21
31.82349629992967
 31
0.0
1001
ACAD
1000
ASC_BOUNDS
1002
{
1070
    19
1002
}
  0
LINE
  5
33897
330
747D
100
AcDbEntity
  8
文字
 48
0.5
100
AcDbLine
 10
19912.89476602224
 20
64.17051710551112
 30
0.0
 11
19912.89476602225
 21
31.82349629992967
 31
0.0
1001
ACAD
1000
ASC_BOUNDS
1002
{
1070
    19
1002
}
  0
LINE
  5
33898
330
747D
100
AcDbEntity
  8
文字
 48
0.5
100
AcDbLine
 10
19912.89476602224
 20
105.7673517044972
 30
0.0
 11
19912.89476602224
 21
79.7025782964264
 31
0.0
1001
ACAD
1000
ASC_BOUNDS
1002
{
1070
    19
1002
}
  0
LINE
  5
33899
330
747D
100
AcDbEntity
  8
文字
 48
0.5
100
AcDbLine
 10
20013.47622504242
 20
120.6389513656353
 30
0.0
 11
20013.47622504242
 21
105.7673517044972
 31
0.0
1001
ACAD
1000
ASC_BOUNDS
1002
{
1070
    19
1002
}
  0
LINE
  5
3389A
330
747D
100
AcDbEntity
  8
文字
 48
0.5
100
AcDbLine
 10
19907.45156602222
 20
158.8733741492149
 30
0.0
 11
20023.66162543082
 21
158.8733741492149
 31
0.0
1001
ACAD
1000
ASC_BOUNDS
1002
{
1070
    19
1002
}
  0
LINE
  5
3389B
330
747D
100
AcDbEntity
  8
文字
 48
0.5
100
AcDbLine
 10
19912.89476602226
 20
151.3392499524115
 30
0.0
 11
20023.66162543082
 21
151.3392499524115
 31
0.0
1001
ACAD
1000
ASC_BOUNDS
1002
{
1070
    19
1002
}
  0
LINE
  5
3389C
330
747D
100
AcDbEntity
  8
文字
 48
0.5
100
AcDbLine
 10
19818.10705436896
 20
31.82349629992967
 30
0.0
 11
19839.05016137576
 21
31.82349629992967
 31
0.0
1001
ACAD
1000
ASC_BOUNDS
1002
{
1070
    19
1002
}
  0
LINE
  5
3389D
330
747D
100
AcDbEntity
  8
文字
 48
0.5
100
AcDbLine
 10
19818.10705436896
 20
153.7983695724807
 30
0.0
 11
19818.10705436896
 21
31.82349629992967
 31
0.0
1001
ACAD
1000
ASC_BOUNDS
1002
{
1070
    19
1002
}
  0
LINE
  5
3389E
330
747D
100
AcDbEntity
  8
文字
 48
0.5
100
AcDbLine
 10
19774.95084775211
 20
143.002950310897
 30
0.0
 11
19789.44498146323
 21
128.7662971532251
 31
0.0
1001
ACAD
1000
ASC_BOUNDS
1002
{
1070
    19
1002
}
  0
LINE
  5
3389F
330
747D
100
AcDbEntity
  8
文字
 48
0.5
100
AcDbLine
 10
19789.44498146323
 20
128.7662971532251
 30
0.0
 11
19818.10705436896
 21
153.7983695724807
 31
0.0
1001
ACAD
1000
ASC_BOUNDS
1002
{
1070
    19
1002
}
  0
LINE
  5
338A0
330
747D
100
AcDbEntity
  8
文字
 48
0.5
100
AcDbLine
 10
19667.01131542987
 20
123.7659696273218
 30
0.0
 11
19711.90097526308
 21
123.7659696273218
 31
0.0
1001
ACAD
1000
ASC_BOUNDS
1002
{
1070
    19
1002
}
  0
LINE
  5
338A1
330
747D
100
AcDbEntity
  8
文字
 48
0.5
100
AcDbLine
 10
19660.6449572691
 20
139.590532968525
 30
0.0
 11
19667.01131542987
 21
123.7659696273218
 31
0.0
1001
ACAD
1000
ASC_BOUNDS
1002
{
1070
    19
1002
}
  0
LINE
  5
338A2
330
747D
100
AcDbEntity
  8
文字
 48
0.5
100
AcDbLine
 10
19660.6449572691
 20
139.590532968525
 30
0.0
 11
19691.63723104729
 21
139.590532968525
 31
0.0
1001
ACAD
1000
ASC_BOUNDS
1002
{
1070
    19
1002
}
  0
LINE
  5
338A3
330
747D
100
AcDbEntity
  8
文字
 48
0.5
100
AcDbLine
 10
19664.82146917669
 20
131.3000938241252
 30
0.0
 11
19701.01457526308
 21
131.3000938241252
 31
0.0
1001
ACAD
1000
ASC_BOUNDS
1002
{
1070
    19
1002
}
  0
LINE
  5
338A4
330
747D
100
AcDbEntity
  8
文字
 48
0.5
100
AcDbLine
 10
19660.9433995593
 20
49.70603450636827
 30
0.0
 11
19643.85096894347
 21
60.92891084470409
 31
0.0
1001
ACAD
1000
ASC_BOUNDS
1002
{
1070
    19
1002
}
  0
LINE
  5
338A5
330
747D
100
AcDbEntity
  8
文字
 48
0.5
100
AcDbLine
 10
19722.53759470928
 20
46.47478771543427
 30
0.0
 11
19708.81679812419
 21
45.89140139763157
 31
0.0
1001
ACAD
1000
ASC_BOUNDS
1002
{
1070
    19
1002
}
  0
LINE
  5
338A6
330
747D
100
AcDbEntity
  8
文字
 48
0.5
100
AcDbLine
 10
19708.81679812419
 20
45.89140139763157
 30
0.0
 11
19693.4484332217
 21
47.75272187550962
 31
0.0
1001
ACAD
1000
ASC_BOUNDS
1002
{
1070
    19
1002
}
  0
LINE
  5
338A7
330
747D
100
AcDbEntity
  8
文字
 48
0.5
100
AcDbLine
 10
19702.44464864706
 20
91.79196484494184
 30
0.0
 11
19712.06796029541
 21
77.59475229457132
 31
0.0
1001
ACAD
1000
ASC_BOUNDS
1002
{
1070
    19
1002
}
  0
LINE
  5
338A8
330
747D
100
AcDbEntity
  8
文字
 48
0.5
100
AcDbLine
 10
19640.01865383274
 20
93.29510745131921
 30
0.0
 11
19705.60990892998
 21
93.29510745131921
 31
0.0
1001
ACAD
1000
ASC_BOUNDS
1002
{
1070
    19
1002
}
  0
LINE
  5
338A9
330
747D
100
AcDbEntity
  8
文字
 48
0.5
100
AcDbLine
 10
19701.42577189914
 20
93.29510745131921
 30
0.0
 11
19721.69542338726
 21
93.29510745131921
 31
0.0
1001
ACAD
1000
ASC_BOUNDS
1002
{
1070
    19
1002
}
  0
LINE
  5
338AA
330
747D
100
AcDbEntity
  8
文字
 48
0.5
100
AcDbLine
 10
19708.62437376949
 20
82.67505433931427
 30
0.0
 11
19651.81742396383
 21
55.69814281891365
 31
0.0
1001
ACAD
1000
ASC_BOUNDS
1002
{
1070
    19
1002
}
  0
LINE
  5
338AB
330
747D
100
AcDbEntity
  8
文字
 48
0.5
100
AcDbLine
 10
19693.4484332217
 20
47.75272187550962
 30
0.0
 11
19673.62517727002
 21
56.69496094094501
 31
0.0
1001
ACAD
1000
ASC_BOUNDS
1002
{
1070
    19
1002
}
  0
LINE
  5
338AC
330
747D
100
AcDbEntity
  8
文字
 48
0.5
100
AcDbLine
 10
19712.06796029541
 20
77.59475229457132
 30
0.0
 11
19673.62517727002
 21
56.69496094094501
 31
0.0
1001
ACAD
1000
ASC_BOUNDS
1002
{
1070
    19
1002
}
  0
LINE
  5
338AD
330
747D
100
AcDbEntity
  8
文字
 48
0.5
100
AcDbLine
 10
19702.44464864706
 20
91.79196484494184
 30
0.0
 11
19655.73602602729
 21
67.67043917953504
 31
0.0
1001
ACAD
1000
ASC_BOUNDS
1002
{
1070
    19
1002
}
  0
LINE
  5
338AE
330
747D
100
AcDbEntity
  8
文字
 48
0.5
100
AcDbLine
 10
19640.01865383274
 20
93.29510745131921
 30
0.0
 11
19655.73602602729
 21
67.67043917953504
 31
0.0
1001
ACAD
1000
ASC_BOUNDS
1002
{
1070
    19
1002
}
  0
LINE
  5
338AF
330
747D
100
AcDbEntity
  8
文字
 48
0.5
100
AcDbLine
 10
19655.73602602729
 20
41.32926834483041
 30
0.0
 11
19642.77605163317
 21
51.7960353618044
 31
0.0
1001
ACAD
1000
ASC_BOUNDS
1002
{
1070
    19
1002
}
  0
LINE
  5
338B0
330
747D
100
AcDbEntity
  8
文字
 48
0.5
100
AcDbLine
 10
19718.53441802826
 20
27.00876148285749
 30
0.0
 11
19682.92334183184
 21
30.2764753813517
 31
0.0
1001
ACAD
1000
ASC_BOUNDS
1002
{
1070
    19
1002
}
  0
LINE
  5
338B1
330
747D
100
AcDbEntity
  8
文字
 48
0.5
100
AcDbLine
 10
19720.26289648912
 20
35.41373826567869
 30
0.0
 11
19700.87583025052
 21
35.41373826567869
 31
0.0
  0
LINE
  5
338B2
330
747D
100
AcDbEntity
  8
文字
 48
0.5
100
AcDbLine
 10
19722.53759470928
 20
46.47478771543427
 30
0.0
 11
19718.53441802826
 21
27.00876148285749
 31
0.0
1001
ACAD
1000
ASC_BOUNDS
1002
{
1070
    19
1002
}
  0
LINE
  5
338B3
330
747D
100
AcDbEntity
  8
文字
 48
0.5
100
AcDbLine
 10
19700.87583025052
 20
35.41373826567869
 30
0.0
 11
19660.9433995593
 21
49.70603450636827
 31
0.0
1001
ACAD
1000
ASC_BOUNDS
1002
{
1070
    19
1002
}
  0
LINE
  5
338B4
330
747D
100
AcDbEntity
  8
文字
 48
0.5
100
AcDbLine
 10
19682.92334183184
 20
30.2764753813517
 30
0.0
 11
19655.73602602729
 21
41.32926834483041
 31
0.0
1001
ACAD
1000
ASC_BOUNDS
1002
{
1070
    19
1002
}
  0
LINE
  5
338B5
330
747D
100
AcDbEntity
  8
文字
 48
0.5
100
AcDbLine
 10
19721.69542338726
 20
105.8962454565699
 30
0.0
 11
19721.69542338726
 21
93.29510745131921
 31
0.0
1001
ACAD
1000
ASC_BOUNDS
1002
{
1070
    19
1002
}
  0
LINE
  5
338B6
330
747D
100
AcDbEntity
  8
文字
 48
0.5
100
AcDbLine
 10
19872.32334930044
 20
221.8577001037157
 30
0.0
 11
19778.84369707624
 21
139.1792553783581
 31
0.0
1001
ACAD
1000
ASC_BOUNDS
1002
{
1070
    19
1002
}
  0
LINE
  5
338B7
330
747D
100
AcDbEntity
  8
文字
 48
0.5
100
AcDbLine
 10
19868.53364560033
 20
225.7726225876283
 30
0.0
 11
19774.95084775211
 21
143.002950310897
 31
0.0
1001
ACAD
1000
ASC_BOUNDS
1002
{
1070
    19
1002
}
  0
LINE
  5
338B8
330
747D
100
AcDbEntity
  8
文字
 48
0.5
100
AcDbLine
 10
19785.55034040905
 20
132.5917519866824
 30
0.0
 11
19879.39564859366
 21
214.5517190278596
 31
0.0
1001
ACAD
1000
ASC_BOUNDS
1002
{
1070
    19
1002
}
  0
LINE
  5
338B9
330
747D
100
AcDbEntity
  8
文字
 48
0.5
100
AcDbLine
 10
19828.16376137576
 20
169.8082590823079
 30
0.0
 11
19828.16376137576
 21
31.82349629992967
 31
0.0
1001
ACAD
1000
ASC_BOUNDS
1002
{
1070
    19
1002
}
  0
LINE
  5
338BA
330
747D
100
AcDbEntity
  8
文字
 48
0.5
100
AcDbLine
 10
19711.90097526308
 20
211.9758836014797
 30
0.0
 11
19711.90097526308
 21
123.7659696273218
 31
0.0
1001
ACAD
1000
ASC_BOUNDS
1002
{
1070
    19
1002
}
  0
LINE
  5
338BB
330
747D
100
AcDbEntity
  8
文字
 48
0.5
100
AcDbLine
 10
19691.63723104729
 20
211.9758836014797
 30
0.0
 11
19691.63723104729
 21
139.590532968525
 31
0.0
1001
ACAD
1000
ASC_BOUNDS
1002
{
1070
    19
1002
}
  0
LINE
  5
338BC
330
747D
100
AcDbEntity
  8
文字
 48
0.5
100
AcDbLine
 10
19701.01457526308
 20
211.9758836014797
 30
0.0
 11
19701.01457526308
 21
131.3000938241252
 31
0.0
1001
ACAD
1000
ASC_BOUNDS
1002
{
1070
    19
1002
}
  0
LINE
  5
338BD
330
747D
100
AcDbEntity
  8
文字
 48
0.5
100
AcDbLine
 10
19651.15821782281
 20
204.8369025487306
 30
0.0
 11
19651.15821782281
 21
150.4769329685245
 31
0.0
1001
ACAD
1000
ASC_BOUNDS
1002
{
1070
    19
1002
}
  0
LINE
  5
338BE
330
747D
100
AcDbEntity
  8
文字
 48
0.5
100
AcDbLine
 10
19641.18521160316
 20
204.8369025487306
 30
0.0
 11
19641.18521160317
 21
150.4769329685245
 31
0.0
1001
ACAD
1000
ASC_BOUNDS
1002
{
1070
    19
1002
}
  0
LINE
  5
338BF
330
747D
100
AcDbEntity
  8
文字
 48
0.5
100
AcDbLine
 10
19866.86539480499
 20
140.5691318845538
 30
0.0
 11
19949.67812554502
 21
211.3954554809901
 31
0.0
1001
ACAD
1000
ASC_BOUNDS
1002
{
1070
    19
1002
}
  0
LINE
  5
338C0
330
747D
100
AcDbEntity
  8
文字
 48
0.5
100
AcDbLine
 10
19839.05016137576
 20
172.0890693764828
 30
0.0
 11
19839.05016137576
 21
31.82349629992967
 31
0.0
1001
ACAD
1000
ASC_BOUNDS
1002
{
1070
    19
1002
}
  0
LINE
  5
338C1
330
747D
100
AcDbEntity
  8
文字
 48
0.5
100
AcDbLine
 10
19898.66797461259
 20
167.7685707694454
 30
0.0
 11
19898.66797461259
 21
31.82349629992967
 31
0.0
1001
ACAD
1000
ASC_BOUNDS
1002
{
1070
    19
1002
}
  0
LINE
  5
338C2
330
747D
100
AcDbEntity
  8
文字
 48
0.5
100
AcDbLine
 10
19943.00821229896
 20
217.9468970672662
 30
0.0
 11
19860.58037638105
 21
147.6482093636453
 31
0.0
1001
ACAD
1000
ASC_BOUNDS
1002
{
1070
    19
1002
}
  0
LINE
  5
338C3
330
747D
100
AcDbEntity
  8
文字
 48
0.5
100
AcDbLine
 10
19939.10979831985
 20
221.7760670311075
 30
0.0
 11
19856.96580322466
 21
151.7194533444858
 31
0.0
1001
ACAD
1000
ASC_BOUNDS
1002
{
1070
    19
1002
}
  0
LINE
  5
338C4
330
747D
100
AcDbEntity
  8
文字
 48
0.5
100
AcDbLine
 10
20023.66162543082
 20
166.8713111433218
 30
0.0
 11
20023.66162543082
 21
151.3392499524115
 31
0.0
1001
ACAD
1000
ASC_BOUNDS
1002
{
1070
    19
1002
}
  0
LINE
  5
338C5
330
747D
100
AcDbEntity
  8
文字
 48
0.5
100
AcDbLine
 10
19607.67053332127
 20
169.8300260600258
 30
0.0
 11
19607.67053332127
 21
180.3605165246717
 31
0.0
1001
ACAD
1000
ASC_BOUNDS
1002
{
1070
    19
1002
}
  0
LINE
  5
338C6
330
747D
100
AcDbEntity
  8
文字
 48
0.5
100
AcDbLine
 10
19601.31808219974
 20
204.8369025487306
 30
0.0
 11
19601.31808219974
 21
196.346128483958
 31
0.0
1001
ACAD
1000
ASC_BOUNDS
1002
{
1070
    19
1002
}
  0
LINE
  5
338C7
330
747D
100
AcDbEntity
  8
文字
 48
0.5
100
AcDbLine
 10
19561.60180289818
 20
196.346128483958
 30
0.0
 11
19561.60180289818
 21
180.3605165246717
 31
0.0
1001
ACAD
1000
ASC_BOUNDS
1002
{
1070
    19
1002
}
  0
LINE
  5
338C8
330
747D
100
AcDbEntity
  8
文字
 48
0.5
100
AcDbLine
 10
19561.60180289818
 20
221.1545283605036
 30
0.0
 11
19561.60180289817
 21
204.8369025487306
 31
0.0
1001
ACAD
1000
ASC_BOUNDS
1002
{
1070
    19
1002
}
  0
LINE
  5
338C9
330
747D
100
AcDbEntity
  8
文字
 48
0.5
100
AcDbLine
 10
19494.87599793994
 20
169.8300260600258
 30
0.0
 11
19543.67435516937
 21
169.8300260600258
 31
0.0
1001
ACAD
1000
ASC_BOUNDS
1002
{
1070
    19
1002
}
  0
LINE
  5
338CA
330
747D
100
AcDbEntity
  8
文字
 48
0.5
100
AcDbLine
 10
19494.87599793994
 20
180.3605165246717
 30
0.0
 11
19494.87599793994
 21
169.8300260600258
 31
0.0
1001
ACAD
1000
ASC_BOUNDS
1002
{
1070
    19
1002
}
  0
LINE
  5
338CB
330
747D
100
AcDbEntity
  8
文字
 48
0.5
100
AcDbLine
 10
19543.67435516939
 20
180.3605165246717
 30
0.0
 11
19494.87599793994
 21
180.3605165246717
 31
0.0
1001
ACAD
1000
ASC_BOUNDS
1002
{
1070
    19
1002
}
  0
LINE
  5
338CC
330
747D
100
AcDbEntity
  8
文字
 48
0.5
100
AcDbLine
 10
19543.67435516939
 20
196.346128483958
 30
0.0
 11
19543.67435516939
 21
180.3605165246717
 31
0.0
1001
ACAD
1000
ASC_BOUNDS
1002
{
1070
    19
1002
}
  0
LINE
  5
338CD
330
747D
100
AcDbEntity
  8
文字
 48
0.5
100
AcDbLine
 10
19498.50671739814
 20
196.346128483958
 30
0.0
 11
19543.67435516939
 21
196.346128483958
 31
0.0
1001
ACAD
1000
ASC_BOUNDS
1002
{
1070
    19
1002
}
  0
LINE
  5
338CE
330
747D
100
AcDbEntity
  8
文字
 48
0.5
100
AcDbLine
 10
19498.50671739814
 20
221.1545283605036
 30
0.0
 11
19498.50671739814
 21
196.346128483958
 31
0.0
1001
ACAD
1000
ASC_BOUNDS
1002
{
1070
    19
1002
}
  0
LINE
  5
338CF
330
747D
100
AcDbEntity
  8
文字
 48
0.5
100
AcDbLine
 10
19498.50671739814
 20
221.1545283605036
 30
0.0
 11
19514.09786863992
 21
221.1545283605036
 31
0.0
1001
ACAD
1000
ASC_BOUNDS
1002
{
1070
    19
1002
}
  0
LINE
  5
338D0
330
747D
100
AcDbEntity
  8
文字
 48
0.5
100
AcDbLine
 10
19514.09786863992
 20
221.1545283605036
 30
0.0
 11
19514.09786863992
 21
204.8369025487306
 31
0.0
1001
ACAD
1000
ASC_BOUNDS
1002
{
1070
    19
1002
}
  0
LINE
  5
338D1
330
747D
100
AcDbEntity
  8
文字
 48
0.5
100
AcDbLine
 10
19514.09786863992
 20
204.8369025487306
 30
0.0
 11
19543.67435516939
 21
204.8369025487306
 31
0.0
1001
ACAD
1000
ASC_BOUNDS
1002
{
1070
    19
1002
}
  0
LINE
  5
338D2
330
747D
100
AcDbEntity
  8
文字
 48
0.5
100
AcDbLine
 10
19543.67435516939
 20
221.1545283605036
 30
0.0
 11
19543.67435516939
 21
204.8369025487306
 31
0.0
1001
ACAD
1000
ASC_BOUNDS
1002
{
1070
    19
1002
}
  0
LINE
  5
338D3
330
747D
100
AcDbEntity
  8
文字
 48
0.5
100
AcDbLine
 10
19543.67435516939
 20
221.1545283605036
 30
0.0
 11
19561.60180289818
 21
221.1545283605036
 31
0.0
1001
ACAD
1000
ASC_BOUNDS
1002
{
1070
    19
1002
}
  0
LINE
  5
338D4
330
747D
100
AcDbEntity
  8
文字
 48
0.5
100
AcDbLine
 10
19420.45167449377
 20
199.3917656276727
 30
0.0
 11
19420.45167449377
 21
212.9940292595555
 31
0.0
1001
ACAD
1000
ASC_BOUNDS
1002
{
1070
    19
1002
}
  0
LINE
  5
338D5
330
747D
100
AcDbEntity
  8
文字
 48
0.5
100
AcDbLine
 10
19506.461133171
 20
221.1545283605036
 30
0.0
 11
19506.461133171
 21
196.346128483958
 31
0.0
1001
ACAD
1000
ASC_BOUNDS
1002
{
1070
    19
1002
}
  0
LINE
  5
338D6
330
747D
100
AcDbEntity
  8
文字
 48
0.5
100
AcDbLine
 10
19561.60180289818
 20
169.8300260600258
 30
0.0
 11
19607.67053332127
 21
169.8300260600258
 31
0.0
1001
ACAD
1000
ASC_BOUNDS
1002
{
1070
    19
1002
}
  0
LINE
  5
338D7
330
747D
100
AcDbEntity
  8
文字
 48
0.5
100
AcDbLine
 10
19607.67053332127
 20
180.3605165246717
 30
0.0
 11
19561.60180289818
 21
180.3605165246717
 31
0.0
1001
ACAD
1000
ASC_BOUNDS
1002
{
1070
    19
1002
}
  0
LINE
  5
338D8
330
747D
100
AcDbEntity
  8
文字
 48
0.5
100
AcDbLine
 10
19561.60180289818
 20
196.346128483958
 30
0.0
 11
19601.31808219974
 21
196.346128483958
 31
0.0
1001
ACAD
1000
ASC_BOUNDS
1002
{
1070
    19
1002
}
  0
LINE
  5
338D9
330
747D
100
AcDbEntity
  8
文字
 48
0.5
100
AcDbLine
 10
19561.60180289817
 20
204.8369025487306
 30
0.0
 11
19601.31808219974
 21
204.8369025487306
 31
0.0
1001
ACAD
1000
ASC_BOUNDS
1002
{
1070
    19
1002
}
  0
LINE
  5
338DA
330
747D
100
AcDbEntity
  8
文字
 48
0.5
100
AcDbLine
 10
19384.08288480264
 20
182.2936337802386
 30
0.0
 11
19399.60516756771
 21
182.2936337802386
 31
0.0
1001
ACAD
1000
ASC_BOUNDS
1002
{
1070
    19
1002
}
  0
LINE
  5
338DB
330
747D
100
AcDbEntity
  8
文字
 48
0.5
100
AcDbLine
 10
19363.87783794991
 20
188.2726265096719
 30
0.0
 11
19363.87783794991
 21
199.3917656276727
 31
0.0
1001
ACAD
1000
ASC_BOUNDS
1002
{
1070
    19
1002
}
  0
LINE
  5
338DC
330
747D
100
AcDbEntity
  8
文字
 48
0.5
100
AcDbLine
 10
19363.87783794991
 20
212.9940292595555
 30
0.0
 11
19363.87783794991
 21
227.7386985430618
 31
0.0
1001
ACAD
1000
ASC_BOUNDS
1002
{
1070
    19
1002
}
  0
LINE
  5
338DD
330
747D
100
AcDbEntity
  8
文字
 48
0.5
100
AcDbLine
 10
19384.08288480264
 20
182.2936337802386
 30
0.0
 11
19384.08288480265
 21
170.3671233873725
 31
0.0
1001
ACAD
1000
ASC_BOUNDS
1002
{
1070
    19
1002
}
  0
LINE
  5
338DE
330
747D
100
AcDbEntity
  8
文字
 48
0.5
100
AcDbLine
 10
19230.74189455324
 20
182.2936337802386
 30
0.0
 11
19230.74189455324
 21
170.3671233873725
 31
0.0
1001
ACAD
1000
ASC_BOUNDS
1002
{
1070
    19
1002
}
  0
LINE
  5
338DF
330
747D
100
AcDbEntity
  8
文字
 48
0.5
100
AcDbLine
 10
19230.74189455324
 20
182.2936337802386
 30
0.0
 11
19249.65452296342
 21
182.2936337802386
 31
0.0
1001
ACAD
1000
ASC_BOUNDS
1002
{
1070
    19
1002
}
  0
LINE
  5
338E0
330
747D
100
AcDbEntity
  8
文字
 48
0.5
100
AcDbLine
 10
19249.65452296342
 20
182.2936337802386
 30
0.0
 11
19249.65452296344
 21
170.3671233873725
 31
0.0
1001
ACAD
1000
ASC_BOUNDS
1002
{
1070
    19
1002
}
  0
LINE
  5
338E1
330
747D
100
AcDbEntity
  8
文字
 48
0.5
100
AcDbLine
 10
19302.30099797038
 20
170.3671233873725
 30
0.0
 11
19249.65452296344
 21
170.3671233873725
 31
0.0
1001
ACAD
1000
ASC_BOUNDS
1002
{
1070
    19
1002
}
  0
LINE
  5
338E2
330
747D
100
AcDbEntity
  8
文字
 48
0.5
100
AcDbLine
 10
19302.30099797038
 20
182.2936337802386
 30
0.0
 11
19302.30099797038
 21
170.3671233873725
 31
0.0
1001
ACAD
1000
ASC_BOUNDS
1002
{
1070
    19
1002
}
  0
LINE
  5
338E3
330
747D
100
AcDbEntity
  8
文字
 48
0.5
100
AcDbLine
 10
19302.30099797038
 20
182.2936337802386
 30
0.0
 11
19318.67529032927
 21
182.2936337802386
 31
0.0
1001
ACAD
1000
ASC_BOUNDS
1002
{
1070
    19
1002
}
  0
LINE
  5
338E4
330
747D
100
AcDbEntity
  8
文字
 48
0.5
100
AcDbLine
 10
19318.67529032927
 20
182.2936337802386
 30
0.0
 11
19318.67529032927
 21
170.3671233873725
 31
0.0
1001
ACAD
1000
ASC_BOUNDS
1002
{
1070
    19
1002
}
  0
LINE
  5
338E5
330
747D
100
AcDbEntity
  8
文字
 48
0.5
100
AcDbLine
 10
19349.72902470874
 20
199.3917656276727
 30
0.0
 11
19349.72902470874
 21
188.2726265096719
 31
0.0
1001
ACAD
1000
ASC_BOUNDS
1002
{
1070
    19
1002
}
  0
LINE
  5
338E6
330
747D
100
AcDbEntity
  8
文字
 48
0.5
100
AcDbLine
 10
19274.68973620461
 20
199.3917656276727
 30
0.0
 11
19349.72902470874
 21
199.3917656276727
 31
0.0
1001
ACAD
1000
ASC_BOUNDS
1002
{
1070
    19
1002
}
  0
LINE
  5
338E7
330
747D
100
AcDbEntity
  8
文字
 48
0.5
100
AcDbLine
 10
19274.68973620461
 20
188.2726265096719
 30
0.0
 11
19274.68973620461
 21
199.3917656276727
 31
0.0
1001
ACAD
1000
ASC_BOUNDS
1002
{
1070
    19
1002
}
  0
LINE
  5
338E8
330
747D
100
AcDbEntity
  8
文字
 48
0.5
100
AcDbLine
 10
19260.54092296343
 20
188.2726265096719
 30
0.0
 11
19274.68973620461
 21
188.2726265096719
 31
0.0
1001
ACAD
1000
ASC_BOUNDS
1002
{
1070
    19
1002
}
  0
LINE
  5
338E9
330
747D
100
AcDbEntity
  8
文字
 48
0.5
100
AcDbLine
 10
19260.54092296343
 20
199.3917656276727
 30
0.0
 11
19260.54092296343
 21
188.2726265096719
 31
0.0
1001
ACAD
1000
ASC_BOUNDS
1002
{
1070
    19
1002
}
  0
LINE
  5
338EA
330
747D
100
AcDbEntity
  8
文字
 48
0.5
100
AcDbLine
 10
19260.54092296343
 20
227.7386985430618
 30
0.0
 11
19260.54092296343
 21
212.9940292595555
 31
0.0
1001
ACAD
1000
ASC_BOUNDS
1002
{
1070
    19
1002
}
  0
LINE
  5
338EB
330
747D
100
AcDbEntity
  8
文字
 48
0.5
100
AcDbLine
 10
19260.54092296343
 20
227.7386985430618
 30
0.0
 11
19274.68973620461
 21
227.7386985430618
 31
0.0
1001
ACAD
1000
ASC_BOUNDS
1002
{
1070
    19
1002
}
  0
LINE
  5
338EC
330
747D
100
AcDbEntity
  8
文字
 48
0.5
100
AcDbLine
 10
19274.68973620462
 20
212.9940292595555
 30
0.0
 11
19274.68973620461
 21
227.7386985430618
 31
0.0
1001
ACAD
1000
ASC_BOUNDS
1002
{
1070
    19
1002
}
  0
LINE
  5
338ED
330
747D
100
AcDbEntity
  8
文字
 48
0.5
100
AcDbLine
 10
19274.68973620462
 20
212.9940292595555
 30
0.0
 11
19349.72902470874
 21
212.9940292595555
 31
0.0
1001
ACAD
1000
ASC_BOUNDS
1002
{
1070
    19
1002
}
  0
LINE
  5
338EE
330
747D
100
AcDbEntity
  8
文字
 48
0.5
100
AcDbLine
 10
19349.72902470874
 20
227.7386985430618
 30
0.0
 11
19349.72902470874
 21
212.9940292595555
 31
0.0
1001
ACAD
1000
ASC_BOUNDS
1002
{
1070
    19
1002
}
  0
LINE
  5
338EF
330
747D
100
AcDbEntity
  8
文字
 48
0.5
100
AcDbLine
 10
19356.84636855731
 20
227.7386985430618
 30
0.0
 11
19356.84636855732
 21
188.2726265096719
 31
0.0
1001
ACAD
1000
ASC_BOUNDS
1002
{
1070
    19
1002
}
  0
LINE
  5
338F0
330
747D
100
AcDbEntity
  8
文字
 48
0.5
100
AcDbLine
 10
19267.65826681201
 20
227.7386985430618
 30
0.0
 11
19267.65826681201
 21
188.2726265096719
 31
0.0
1001
ACAD
1000
ASC_BOUNDS
1002
{
1070
    19
1002
}
  0
LINE
  5
338F1
330
747D
100
AcDbEntity
  8
文字
 48
0.5
100
AcDbLine
 10
19384.08288480265
 20
170.3671233873725
 30
0.0
 11
19318.67529032927
 21
170.3671233873725
 31
0.0
1001
ACAD
1000
ASC_BOUNDS
1002
{
1070
    19
1002
}
  0
LINE
  5
338F2
330
747D
100
AcDbEntity
  8
文字
 48
0.5
100
AcDbLine
 10
19349.72902470874
 20
188.2726265096719
 30
0.0
 11
19363.87783794991
 21
188.2726265096719
 31
0.0
1001
ACAD
1000
ASC_BOUNDS
1002
{
1070
    19
1002
}
  0
LINE
  5
338F3
330
747D
100
AcDbEntity
  8
文字
 48
0.5
100
AcDbLine
 10
19349.72902470874
 20
227.7386985430618
 30
0.0
 11
19363.87783794991
 21
227.7386985430618
 31
0.0
1001
ACAD
1000
ASC_BOUNDS
1002
{
1070
    19
1002
}
  0
LINE
  5
338F4
330
747D
100
AcDbEntity
  8
文字
 48
0.5
100
AcDbLine
 10
19399.60516756771
 20
182.2936337802386
 30
0.0
 11
19399.60516756771
 21
170.3671233873725
 31
0.0
1001
ACAD
1000
ASC_BOUNDS
1002
{
1070
    19
1002
}
  0
LINE
  5
338F5
330
747D
100
AcDbEntity
  8
文字
 48
0.5
100
AcDbLine
 10
19363.87783794991
 20
199.3917656276727
 30
0.0
 11
19420.45167449377
 21
199.3917656276727
 31
0.0
1001
ACAD
1000
ASC_BOUNDS
1002
{
1070
    19
1002
}
  0
LINE
  5
338F6
330
747D
100
AcDbEntity
  8
文字
 48
0.5
100
AcDbLine
 10
19363.87783794991
 20
212.9940292595555
 30
0.0
 11
19420.45167449377
 21
212.9940292595555
 31
0.0
1001
ACAD
1000
ASC_BOUNDS
1002
{
1070
    19
1002
}
  0
LINE
  5
338F7
330
747D
100
AcDbEntity
  8
文字
 48
0.5
100
AcDbLine
 10
19420.45167449377
 20
170.3671233873725
 30
0.0
 11
19399.60516756771
 21
170.3671233873725
 31
0.0
1001
ACAD
1000
ASC_BOUNDS
1002
{
1070
    19
1002
}
  0
LINE
  5
338F8
330
747D
100
AcDbEntity
  8
文字
 48
0.5
100
AcDbLine
 10
19607.67053332127
 20
154.3541192529266
 30
0.0
 11
19607.67053332127
 21
136.0945236614975
 31
0.0
1001
ACAD
1000
ASC_BOUNDS
1002
{
1070
    19
1002
}
  0
LINE
  5
338F9
330
747D
100
AcDbEntity
  8
文字
 48
0.5
100
AcDbLine
 10
19592.211601945
 20
144.4372984049805
 30
0.0
 11
19592.21160194501
 21
123.7659696273218
 31
0.0
1001
ACAD
1000
ASC_BOUNDS
1002
{
1070
    19
1002
}
  0
LINE
  5
338FA
330
747D
100
AcDbEntity
  8
文字
 48
0.5
100
AcDbLine
 10
19600.16601771787
 20
154.3541192529266
 30
0.0
 11
19600.16601771788
 21
123.7659696273218
 31
0.0
1001
ACAD
1000
ASC_BOUNDS
1002
{
1070
    19
1002
}
  0
LINE
  5
338FB
330
747D
100
AcDbEntity
  8
文字
 48
0.5
100
AcDbLine
 10
19561.60180289819
 20
144.4372984049805
 30
0.0
 11
19561.60180289818
 21
123.7659696273218
 31
0.0
1001
ACAD
1000
ASC_BOUNDS
1002
{
1070
    19
1002
}
  0
LINE
  5
338FC
330
747D
100
AcDbEntity
  8
文字
 48
0.5
100
AcDbLine
 10
19543.67435516939
 20
144.4372984049805
 30
0.0
 11
19543.67435516939
 21
123.7659696273218
 31
0.0
1001
ACAD
1000
ASC_BOUNDS
1002
{
1070
    19
1002
}
  0
LINE
  5
338FD
330
747D
100
AcDbEntity
  8
文字
 48
0.5
100
AcDbLine
 10
19511.47592017006
 20
144.4372984049805
 30
0.0
 11
19511.47592017007
 21
123.7659696273218
 31
0.0
1001
ACAD
1000
ASC_BOUNDS
1002
{
1070
    19
1002
}
  0
LINE
  5
338FE
330
747D
100
AcDbEntity
  8
文字
 48
0.5
100
AcDbLine
 10
19494.87599793994
 20
154.3541192529266
 30
0.0
 11
19494.87599793994
 21
123.7659696273218
 31
0.0
1001
ACAD
1000
ASC_BOUNDS
1002
{
1070
    19
1002
}
  0
LINE
  5
338FF
330
747D
100
AcDbEntity
  8
文字
 48
0.5
100
AcDbLine
 10
19502.8304137128
 20
154.3541192529266
 30
0.0
 11
19502.83041371281
 21
123.7659696273218
 31
0.0
1001
ACAD
1000
ASC_BOUNDS
1002
{
1070
    19
1002
}
  0
LINE
  5
33900
330
747D
100
AcDbEntity
  8
文字
 48
0.5
100
AcDbLine
 10
19607.67053332127
 20
136.0945236614975
 30
0.0
 11
19629.01072449339
 21
136.0945236614975
 31
0.0
1001
ACAD
1000
ASC_BOUNDS
1002
{
1070
    19
1002
}
  0
LINE
  5
33901
330
747D
100
AcDbEntity
  8
文字
 48
0.5
100
AcDbLine
 10
19625.3769649073
 20
98.36499658391369
 30
0.0
 11
19495.30356076078
 21
55.71974870693987
 31
0.0
1001
ACAD
1000
ASC_BOUNDS
1002
{
1070
    19
1002
}
  0
LINE
  5
33902
330
747D
100
AcDbEntity
  8
文字
 48
0.5
100
AcDbLine
 10
19557.63407202688
 20
45.20810468942454
 30
0.0
 11
19629.68695001332
 21
67.67043917953504
 31
0.0
1001
ACAD
1000
ASC_BOUNDS
1002
{
1070
    19
1002
}
  0
LINE
  5
33903
330
747D
100
AcDbEntity
  8
文字
 48
0.5
100
AcDbLine
 10
19619.52600425197
 20
84.25561654543736
 30
0.0
 11
19553.59379840664
 21
63.37395478806957
 31
0.0
1001
ACAD
1000
ASC_BOUNDS
1002
{
1070
    19
1002
}
  0
LINE
  5
33904
330
747D
100
AcDbEntity
  8
文字
 48
0.5
100
AcDbLine
 10
19592.21160194501
 20
123.7659696273218
 30
0.0
 11
19603.62921538226
 21
123.7659696273218
 31
0.0
1001
ACAD
1000
ASC_BOUNDS
1002
{
1070
    19
1002
}
  0
LINE
  5
33905
330
747D
100
AcDbEntity
  8
文字
 48
0.5
100
AcDbLine
 10
19603.62921538226
 20
123.7659696273218
 30
0.0
 11
19603.62921538227
 21
105.8962454565699
 31
0.0
1001
ACAD
1000
ASC_BOUNDS
1002
{
1070
    19
1002
}
  0
LINE
  5
33906
330
747D
100
AcDbEntity
  8
文字
 48
0.5
100
AcDbLine
 10
19543.67435516939
 20
123.7659696273218
 30
0.0
 11
19561.60180289818
 21
123.7659696273218
 31
0.0
1001
ACAD
1000
ASC_BOUNDS
1002
{
1070
    19
1002
}
  0
LINE
  5
33907
330
747D
100
AcDbEntity
  8
文字
 48
0.5
100
AcDbLine
 10
19494.87599793994
 20
123.7659696273218
 30
0.0
 11
19511.47592017007
 21
123.7659696273218
 31
0.0
1001
ACAD
1000
ASC_BOUNDS
1002
{
1070
    19
1002
}
  0
LINE
  5
33908
330
747D
100
AcDbEntity
  8
文字
 48
0.5
100
AcDbLine
 10
19534.69285732155
 20
40.62822297973079
 30
0.0
 11
19532.83251373827
 21
57.97682707906881
 31
0.0
1001
ACAD
1000
ASC_BOUNDS
1002
{
1070
    19
1002
}
  0
LINE
  5
33909
330
747D
100
AcDbEntity
  8
文字
 48
0.5
100
AcDbLine
 10
19497.09530227834
 20
50.0735422066291
 30
0.0
 11
19532.83251373827
 21
57.97682707906881
 31
0.0
1001
ACAD
1000
ASC_BOUNDS
1002
{
1070
    19
1002
}
  0
LINE
  5
3390A
330
747D
100
AcDbEntity
  8
文字
 48
0.5
100
AcDbLine
 10
19491.53252426861
 20
67.60318755471264
 30
0.0
 11
19497.09530227834
 21
50.0735422066291
 31
0.0
1001
ACAD
1000
ASC_BOUNDS
1002
{
1070
    19
1002
}
  0
LINE
  5
3390B
330
747D
100
AcDbEntity
  8
文字
 48
0.5
100
AcDbLine
 10
19553.59379840664
 20
63.37395478806957
 30
0.0
 11
19557.63407202688
 21
45.20810468942454
 31
0.0
1001
ACAD
1000
ASC_BOUNDS
1002
{
1070
    19
1002
}
  0
LINE
  5
3390C
330
747D
100
AcDbEntity
  8
文字
 48
0.5
100
AcDbLine
 10
19420.45167449377
 20
77.68968828039397
 30
0.0
 11
19420.45167449377
 21
91.71107677328491
 31
0.0
  0
LINE
  5
3390D
330
747D
100
AcDbEntity
  8
文字
 48
0.5
100
AcDbLine
 10
19540.82445645859
 20
70.64401315095421
 30
0.0
 11
19548.40007199182
 21
36.58258337743507
 31
0.0
1001
ACAD
1000
ASC_BOUNDS
1002
{
1070
    19
1002
}
  0
LINE
  5
3390E
330
747D
100
AcDbEntity
  8
文字
 48
0.5
100
AcDbLine
 10
19491.53252426861
 20
67.60318755471264
 30
0.0
 11
19538.35819828563
 21
78.64591741812103
 31
0.0
  0
LINE
  5
3390F
330
747D
100
AcDbEntity
  8
文字
 48
0.5
100
AcDbLine
 10
19551.70008495161
 20
27.86446387283223
 30
0.0
 11
19544.35889750439
 21
28.19790093754608
 31
0.0
1001
ACAD
1000
ASC_BOUNDS
1002
{
1070
    19
1002
}
  0
LINE
  5
33910
330
747D
100
AcDbEntity
  8
文字
 48
0.5
100
AcDbLine
 10
19544.35889750439
 20
28.19790093754608
 30
0.0
 11
19536.93552795492
 21
32.5610171007871
 31
0.0
1001
ACAD
1000
ASC_BOUNDS
1002
{
1070
    19
1002
}
  0
LINE
  5
33911
330
747D
100
AcDbEntity
  8
文字
 48
0.5
100
AcDbLine
 10
19572.37222417127
 20
31.10449748249619
 30
0.0
 11
19551.70008495161
 21
27.86446387283223
 31
0.0
1001
ACAD
1000
ASC_BOUNDS
1002
{
1070
    19
1002
}
  0
LINE
  5
33912
330
747D
100
AcDbEntity
  8
文字
 48
0.5
100
AcDbLine
 10
19536.93552795492
 20
32.5610171007871
 30
0.0
 11
19534.69285732155
 21
40.62822297973079
 31
0.0
1001
ACAD
1000
ASC_BOUNDS
1002
{
1070
    19
1002
}
  0
LINE
  5
33913
330
747D
100
AcDbEntity
  8
文字
 48
0.5
100
AcDbLine
 10
19426.40816209045
 20
44.03618529261438
 30
0.0
 11
19421.95406864088
 21
28.07631811284443
 31
0.0
1001
ACAD
1000
ASC_BOUNDS
1002
{
1070
    19
1002
}
  0
LINE
  5
33914
330
747D
100
AcDbEntity
  8
文字
 48
0.5
100
AcDbLine
 10
19494.87599793994
 20
105.8962454565699
 30
0.0
 11
19494.87599793994
 21
93.29510745131921
 31
0.0
1001
ACAD
1000
ASC_BOUNDS
1002
{
1070
    19
1002
}
  0
LINE
  5
33915
330
747D
100
AcDbEntity
  8
文字
 48
0.5
100
AcDbLine
 10
19538.35819828563
 20
78.64591741812103
 30
0.0
 11
19583.90177095162
 21
93.29510745131921
 31
0.0
  0
LINE
  5
33916
330
747D
100
AcDbEntity
  8
文字
 48
0.5
100
AcDbLine
 10
19494.87599793994
 20
105.8962454565699
 30
0.0
 11
19603.62921538227
 21
105.8962454565699
 31
0.0
1001
ACAD
1000
ASC_BOUNDS
1002
{
1070
    19
1002
}
  0
LINE
  5
33917
330
747D
100
AcDbEntity
  8
文字
 48
0.5
100
AcDbLine
 10
19494.87599793994
 20
93.29510745131921
 30
0.0
 11
19609.91316129605
 21
93.29510745131921
 31
0.0
1001
ACAD
1000
ASC_BOUNDS
1002
{
1070
    19
1002
}
  0
LINE
  5
33918
330
747D
100
AcDbEntity
  8
文字
 48
0.5
100
AcDbLine
 10
19602.00876162281
 20
39.06680065108048
 30
0.0
 11
19572.37222417127
 21
31.10449748249619
 31
0.0
1001
ACAD
1000
ASC_BOUNDS
1002
{
1070
    19
1002
}
  0
LINE
  5
33919
330
747D
100
AcDbEntity
  8
文字
 48
0.5
100
AcDbLine
 10
19629.68695001332
 20
67.67043917953504
 30
0.0
 11
19619.52600425197
 21
84.25561654543736
 31
0.0
1001
ACAD
1000
ASC_BOUNDS
1002
{
1070
    19
1002
}
  0
LINE
  5
3391A
330
747D
100
AcDbEntity
  8
文字
 48
0.5
100
AcDbLine
 10
19629.01072449339
 20
136.0945236614975
 30
0.0
 11
19629.01072449339
 21
105.8962454565699
 31
0.0
1001
ACAD
1000
ASC_BOUNDS
1002
{
1070
    19
1002
}
  0
LINE
  5
3391B
330
747D
100
AcDbEntity
  8
文字
 48
0.5
100
AcDbLine
 10
19614.51561538227
 20
136.0945236614975
 30
0.0
 11
19614.51561538227
 21
94.80404616663111
 31
0.0
1001
ACAD
1000
ASC_BOUNDS
1002
{
1070
    19
1002
}
  0
LINE
  5
3391C
330
747D
100
AcDbEntity
  8
文字
 48
0.5
100
AcDbLine
 10
19511.47592017006
 20
144.4372984049805
 30
0.0
 11
19543.67435516939
 21
144.4372984049805
 31
0.0
1001
ACAD
1000
ASC_BOUNDS
1002
{
1070
    19
1002
}
  0
LINE
  5
3391D
330
747D
100
AcDbEntity
  8
文字
 48
0.5
100
AcDbLine
 10
19494.87599793994
 20
154.3541192529266
 30
0.0
 11
19543.67435516939
 21
154.3541192529266
 31
0.0
1001
ACAD
1000
ASC_BOUNDS
1002
{
1070
    19
1002
}
  0
LINE
  5
3391E
330
747D
100
AcDbEntity
  8
文字
 48
0.5
100
AcDbLine
 10
19561.60180289819
 20
154.3541192529266
 30
0.0
 11
19607.67053332127
 21
154.3541192529266
 31
0.0
1001
ACAD
1000
ASC_BOUNDS
1002
{
1070
    19
1002
}
  0
LINE
  5
3391F
330
747D
100
AcDbEntity
  8
文字
 48
0.5
100
AcDbLine
 10
19561.60180289819
 20
144.4372984049805
 30
0.0
 11
19592.211601945
 21
144.4372984049805
 31
0.0
1001
ACAD
1000
ASC_BOUNDS
1002
{
1070
    19
1002
}
  0
LINE
  5
33920
330
747D
100
AcDbEntity
  8
文字
 48
0.5
100
AcDbLine
 10
19323.70135741859
 20
111.0401500797506
 30
0.0
 11
19409.65520905782
 21
111.0401500797506
 31
0.0
1001
ACAD
1000
ASC_BOUNDS
1002
{
1070
    19
1002
}
  0
LINE
  5
33921
330
747D
100
AcDbEntity
  8
文字
 48
0.5
100
AcDbLine
 10
19302.30099797038
 20
137.2590321528987
 30
0.0
 11
19399.60516756771
 21
137.2590321528987
 31
0.0
1001
ACAD
1000
ASC_BOUNDS
1002
{
1070
    19
1002
}
  0
LINE
  5
33922
330
747D
100
AcDbEntity
  8
文字
 48
0.5
100
AcDbLine
 10
19249.65452296342
 20
120.5516517887907
 30
0.0
 11
19409.65520905782
 21
120.5516517887907
 31
0.0
1001
ACAD
1000
ASC_BOUNDS
1002
{
1070
    19
1002
}
  0
LINE
  5
33923
330
747D
100
AcDbEntity
  8
文字
 48
0.5
100
AcDbLine
 10
19384.08288480266
 20
160.2785741107095
 30
0.0
 11
19384.08288480264
 21
141.0108888433514
 31
0.0
1001
ACAD
1000
ASC_BOUNDS
1002
{
1070
    19
1002
}
  0
LINE
  5
33924
330
747D
100
AcDbEntity
  8
文字
 48
0.5
100
AcDbLine
 10
19230.74189455324
 20
160.2785741107095
 30
0.0
 11
19230.74189455324
 21
111.0401500797506
 31
0.0
1001
ACAD
1000
ASC_BOUNDS
1002
{
1070
    19
1002
}
  0
LINE
  5
33925
330
747D
100
AcDbEntity
  8
文字
 48
0.5
100
AcDbLine
 10
19302.30099797039
 20
160.2785741107095
 30
0.0
 11
19302.30099797038
 21
137.2590321528987
 31
0.0
1001
ACAD
1000
ASC_BOUNDS
1002
{
1070
    19
1002
}
  0
LINE
  5
33926
330
747D
100
AcDbEntity
  8
文字
 48
0.5
100
AcDbLine
 10
19318.67529032927
 20
160.2785741107095
 30
0.0
 11
19318.67529032927
 21
141.0108888433514
 31
0.0
1001
ACAD
1000
ASC_BOUNDS
1002
{
1070
    19
1002
}
  0
LINE
  5
33927
330
747D
100
AcDbEntity
  8
文字
 48
0.5
100
AcDbLine
 10
19249.65452296342
 20
160.2785741107095
 30
0.0
 11
19249.65452296342
 21
120.5516517887907
 31
0.0
1001
ACAD
1000
ASC_BOUNDS
1002
{
1070
    19
1002
}
  0
LINE
  5
33928
330
747D
100
AcDbEntity
  8
文字
 48
0.5
100
AcDbLine
 10
19230.74189455324
 20
111.0401500797506
 30
0.0
 11
19302.21576847432
 21
111.0401500797506
 31
0.0
1001
ACAD
1000
ASC_BOUNDS
1002
{
1070
    19
1002
}
  0
LINE
  5
33929
330
747D
100
AcDbEntity
  8
文字
 48
0.5
100
AcDbLine
 10
19302.21576847433
 20
31.82349629992967
 30
0.0
 11
19323.70135741858
 21
31.82349629992967
 31
0.0
1001
ACAD
1000
ASC_BOUNDS
1002
{
1070
    19
1002
}
  0
LINE
  5
3392A
330
747D
100
AcDbEntity
  8
文字
 48
0.5
100
AcDbLine
 10
19323.70135741859
 20
61.04882322925624
 30
0.0
 11
19323.70135741858
 21
31.82349629992967
 31
0.0
1001
ACAD
1000
ASC_BOUNDS
1002
{
1070
    19
1002
}
  0
LINE
  5
3392B
330
747D
100
AcDbEntity
  8
文字
 48
0.5
100
AcDbLine
 10
19302.21576847433
 20
61.04882322925624
 30
0.0
 11
19302.21576847433
 21
31.82349629992967
 31
0.0
1001
ACAD
1000
ASC_BOUNDS
1002
{
1070
    19
1002
}
  0
LINE
  5
3392C
330
747D
100
AcDbEntity
  8
文字
 48
0.5
100
AcDbLine
 10
19312.81495741858
 20
120.5516517887907
 30
0.0
 11
19312.81495741858
 21
31.82349629992967
 31
0.0
1001
ACAD
1000
ASC_BOUNDS
1002
{
1070
    19
1002
}
  0
LINE
  5
3392D
330
747D
100
AcDbEntity
  8
文字
 48
0.5
100
AcDbLine
 10
19302.21576847432
 20
111.0401500797506
 30
0.0
 11
19302.21576847432
 21
91.71107677328491
 31
0.0
1001
ACAD
1000
ASC_BOUNDS
1002
{
1070
    19
1002
}
  0
LINE
  5
3392E
330
747D
100
AcDbEntity
  8
文字
 48
0.5
100
AcDbLine
 10
19323.70135741859
 20
111.0401500797506
 30
0.0
 11
19323.70135741859
 21
91.71107677328491
 31
0.0
1001
ACAD
1000
ASC_BOUNDS
1002
{
1070
    19
1002
}
  0
LINE
  5
3392F
330
747D
100
AcDbEntity
  8
文字
 48
0.5
100
AcDbLine
 10
19318.67529032927
 20
141.0108888433514
 30
0.0
 11
19384.08288480264
 21
141.0108888433514
 31
0.0
1001
ACAD
1000
ASC_BOUNDS
1002
{
1070
    19
1002
}
  0
LINE
  5
33930
330
747D
100
AcDbEntity
  8
文字
 48
0.5
100
AcDbLine
 10
19249.65452296342
 20
160.2785741107095
 30
0.0
 11
19302.30099797039
 21
160.2785741107095
 31
0.0
1001
ACAD
1000
ASC_BOUNDS
1002
{
1070
    19
1002
}
  0
LINE
  5
33931
330
747D
100
AcDbEntity
  8
文字
 48
0.5
100
AcDbLine
 10
19318.67529032927
 20
160.2785741107095
 30
0.0
 11
19384.08288480266
 21
160.2785741107095
 31
0.0
1001
ACAD
1000
ASC_BOUNDS
1002
{
1070
    19
1002
}
  0
LINE
  5
33932
330
747D
100
AcDbEntity
  8
文字
 48
0.5
100
AcDbLine
 10
19399.60516756771
 20
160.2785741107095
 30
0.0
 11
19399.60516756771
 21
137.2590321528987
 31
0.0
1001
ACAD
1000
ASC_BOUNDS
1002
{
1070
    19
1002
}
  0
LINE
  5
33933
330
747D
100
AcDbEntity
  8
文字
 48
0.5
100
AcDbLine
 10
19409.65520905782
 20
120.5516517887907
 30
0.0
 11
19409.65520905782
 21
111.0401500797506
 31
0.0
1001
ACAD
1000
ASC_BOUNDS
1002
{
1070
    19
1002
}
  0
ARC
  5
33934
330
747D
100
AcDbEntity
  8
文字
 48
0.5
100
AcDbCircle
 10
19474.60425141464
 20
347.8401287404887
 30
0.0
 40
324.0693387736968
100
AcDbArc
 50
242.2477016763901
 51
260.6499511358123
1001
ACAD
1000
ASC_BOUNDS
1002
{
1070
    19
1002
}
  0
LINE
  5
33935
330
747D
100
AcDbEntity
  8
文字
 48
0.5
100
AcDbLine
 10
19420.45167449377
 20
91.71107677328491
 30
0.0
 11
19323.70135741859
 21
91.71107677328491
 31
0.0
  0
ARC
  5
33936
330
747D
100
AcDbEntity
  8
文字
 48
0.5
100
AcDbCircle
 10
19474.60425141464
 20
349.9310529372948
 30
0.0
 40
318.6261387736968
100
AcDbArc
 50
239.4844913408569
 51
260.7570436308943
1001
ACAD
1000
ASC_BOUNDS
1002
{
1070
    19
1002
}
  0
ARC
  5
33937
330
747D
100
AcDbEntity
  8
文字
 48
0.5
100
AcDbCircle
 10
19474.60425141464
 20
346.8993877394256
 30
0.0
 40
306.6740654546495
100
AcDbArc
 50
241.3824772890072
 51
261.0056201054476
1001
ACAD
1000
ASC_BOUNDS
1002
{
1070
    19
1002
}
  0
LINE
  5
33938
330
747D
100
AcDbEntity
  8
文字
 48
0.5
100
AcDbLine
 10
19327.71953423948
 20
77.68968828039397
 30
0.0
 11
19420.45167449377
 21
77.68968828039397
 31
0.0
  0
LINE
  5
33939
330
747D
100
AcDbEntity
  8
文字
 48
0.5
100
AcDbLine
 10
19399.60516756771
 20
160.2785741107095
 30
0.0
 11
19420.45167449377
 21
160.2785741107095
 31
0.0
1001
ACAD
1000
ASC_BOUNDS
1002
{
1070
    19
1002
}
  0
LINE
  5
3393A
330
747D
100
AcDbEntity
  8
文字
 48
0.5
100
AcDbLine
 10
19241.70017811753
 20
182.2936337802362
 30
0.0
 11
19241.70017811755
 21
111.0401500797506
 31
0.0
1001
ACAD
1000
ASC_BOUNDS
1002
{
1070
    19
1002
}
  0
LINE
  5
3393B
330
747D
100
AcDbEntity
  8
文字
 48
0.5
100
AcDbLine
 10
19310.72094548336
 20
182.2936337802386
 30
0.0
 11
19310.72094548336
 21
137.2590321528987
 31
0.0
1001
ACAD
1000
ASC_BOUNDS
1002
{
1070
    19
1002
}
  0
LINE
  5
3393C
330
747D
100
AcDbEntity
  8
文字
 48
0.5
100
AcDbLine
 10
19391.6508227218
 20
182.2936337802386
 30
0.0
 11
19391.6508227218
 21
137.2590321528987
 31
0.0
1001
ACAD
1000
ASC_BOUNDS
1002
{
1070
    19
1002
}
  0
LINE
  5
3393D
330
747D
100
AcDbEntity
  8
文字
 48
0.5
100
AcDbLine
 10
19551.62877094219
 20
221.1545283605036
 30
0.0
 11
19551.62877094229
 21
123.7659696273218
 31
0.0
1001
ACAD
1000
ASC_BOUNDS
1002
{
1070
    19
1002
}
  0
LINE
  5
3393E
330
747D
100
AcDbEntity
  8
文字
 48
0.5
100
AcDbLine
 10
19561.60180289818
 20
169.8300260600258
 30
0.0
 11
19561.60180289819
 21
154.3541192529266
 31
0.0
1001
ACAD
1000
ASC_BOUNDS
1002
{
1070
    19
1002
}
  0
LINE
  5
3393F
330
747D
100
AcDbEntity
  8
文字
 48
0.5
100
AcDbLine
 10
19543.67435516937
 20
169.8300260600258
 30
0.0
 11
19543.67435516939
 21
154.3541192529266
 31
0.0
1001
ACAD
1000
ASC_BOUNDS
1002
{
1070
    19
1002
}
  0
LINE
  5
33940
330
747D
100
AcDbEntity
  8
文字
 48
0.5
100
AcDbLine
 10
19420.45167449377
 20
160.2785741107095
 30
0.0
 11
19420.45167449377
 21
170.3671233873725
 31
0.0
1001
ACAD
1000
ASC_BOUNDS
1002
{
1070
    19
1002
}
  0
LINE
  5
33941
330
747D
100
AcDbEntity
  8
文字
 48
0.5
100
AcDbLine
 10
19633.23086521624
 20
204.8369025487306
 30
0.0
 11
19633.23086521624
 21
150.4769329685245
 31
0.0
1001
ACAD
1000
ASC_BOUNDS
1002
{
1070
    19
1002
}
  0
LINE
  5
33942
330
747D
100
AcDbEntity
  8
文字
 48
0.5
100
AcDbLine
 10
19112.8804628703
 20
217.5064675211299
 30
0.0
 11
19022.15380671725
 21
210.2075475445546
 31
0.0
1001
ACAD
1000
ASC_BOUNDS
1002
{
1070
    19
1002
}
  0
LINE
  5
33943
330
747D
100
AcDbEntity
  8
文字
 48
0.5
100
AcDbLine
 10
19022.15384226836
 20
219.9842876248308
 30
0.0
 11
19022.15378686022
 21
204.746759800522
 31
0.0
1001
ACAD
1000
ASC_BOUNDS
1002
{
1070
    19
1002
}
  0
LINE
  5
33944
330
747D
100
AcDbEntity
  8
文字
 48
0.5
100
AcDbLine
 10
19112.88049842142
 20
227.2832076014069
 30
0.0
 11
19022.15384226836
 21
219.9842876248308
 31
0.0
1001
ACAD
1000
ASC_BOUNDS
1002
{
1070
    19
1002
}
  0
LINE
  5
33945
330
747D
100
AcDbEntity
  8
文字
 48
0.5
100
AcDbLine
 10
19112.88044301327
 20
212.0456797770932
 30
0.0
 11
19022.15378686022
 21
204.746759800522
 31
0.0
1001
ACAD
1000
ASC_BOUNDS
1002
{
1070
    19
1002
}
  0
LINE
  5
33946
330
747D
100
AcDbEntity
  8
文字
 48
0.5
100
AcDbLine
 10
19112.88049842142
 20
227.2832076014069
 30
0.0
 11
19112.88044301327
 21
212.0456797770932
 31
0.0
1001
ACAD
1000
ASC_BOUNDS
1002
{
1070
    19
1002
}
  0
LINE
  5
33947
330
747D
100
AcDbEntity
  8
文字
 48
0.5
100
AcDbLine
 10
19110.03771346793
 20
192.3982104046814
 30
0.0
 11
19123.68951318585
 21
192.3982104046814
 31
0.0
1001
ACAD
1000
ASC_BOUNDS
1002
{
1070
    19
1002
}
  0
LINE
  5
33948
330
747D
100
AcDbEntity
  8
文字
 48
0.5
100
AcDbLine
 10
19062.81172629385
 20
185.4168358969761
 30
0.0
 11
19076.78323174416
 21
185.4168358969761
 31
0.0
1001
ACAD
1000
ASC_BOUNDS
1002
{
1070
    19
1002
}
  0
LINE
  5
33949
330
747D
100
AcDbEntity
  8
文字
 48
0.5
100
AcDbLine
 10
19023.30290852228
 20
185.4168358969761
 30
0.0
 11
19034.45756010388
 21
185.4168358969761
 31
0.0
1001
ACAD
1000
ASC_BOUNDS
1002
{
1070
    19
1002
}
  0
LINE
  5
3394A
330
747D
100
AcDbEntity
  8
文字
 48
0.5
100
AcDbLine
 10
18989.40825435614
 20
206.5570934783171
 30
0.0
 11
18989.40825435614
 21
221.8507161482295
 31
0.0
1001
ACAD
1000
ASC_BOUNDS
1002
{
1070
    19
1002
}
  0
LINE
  5
3394B
330
747D
100
AcDbEntity
  8
文字
 48
0.5
100
AcDbLine
 10
19197.79888700992
 20
212.9940292595555
 30
0.0
 11
19197.79888700992
 21
199.3917656276727
 31
0.0
1001
ACAD
1000
ASC_BOUNDS
1002
{
1070
    19
1002
}
  0
LINE
  5
3394C
330
747D
100
AcDbEntity
  8
文字
 48
0.5
100
AcDbLine
 10
18935.90357984967
 20
206.5570934783171
 30
0.0
 11
18935.90357984968
 21
172.1086467286035
 31
0.0
1001
ACAD
1000
ASC_BOUNDS
1002
{
1070
    19
1002
}
  0
LINE
  5
3394D
330
747D
100
AcDbEntity
  8
文字
 48
0.5
100
AcDbLine
 10
18822.24267838382
 20
217.9532428294408
 30
0.0
 11
18822.24267838383
 21
218.0418122693324
 31
0.0
1001
ACAD
1000
ASC_BOUNDS
1002
{
1070
    19
1002
}
  0
LINE
  5
3394E
330
747D
100
AcDbEntity
  8
文字
 48
0.5
100
AcDbLine
 10
18802.93472208797
 20
218.0418122693324
 30
0.0
 11
18822.24267838382
 21
218.0418122693324
 31
0.0
1001
ACAD
1000
ASC_BOUNDS
1002
{
1070
    19
1002
}
  0
LINE
  5
3394F
330
747D
100
AcDbEntity
  8
文字
 48
0.5
100
AcDbLine
 10
18802.93472208797
 20
217.9532428294408
 30
0.0
 11
18822.24267838382
 21
217.9532428294408
 31
0.0
1001
ACAD
1000
ASC_BOUNDS
1002
{
1070
    19
1002
}
  0
LINE
  5
33950
330
747D
100
AcDbEntity
  8
文字
 48
0.5
100
AcDbLine
 10
18802.93472208797
 20
218.0418122693324
 30
0.0
 11
18802.93472208797
 21
217.9532428294408
 31
0.0
1001
ACAD
1000
ASC_BOUNDS
1002
{
1070
    19
1002
}
  0
LINE
  5
33951
330
747D
100
AcDbEntity
  8
文字
 48
0.5
100
AcDbLine
 10
18778.39195650416
 20
218.0418122693324
 30
0.0
 11
18778.39195650417
 21
202.6627120923757
 31
0.0
1001
ACAD
1000
ASC_BOUNDS
1002
{
1070
    19
1002
}
  0
LINE
  5
33952
330
747D
100
AcDbEntity
  8
文字
 48
0.5
100
AcDbLine
 10
18784.84861748287
 20
218.0418122693324
 30
0.0
 11
18778.39195650416
 21
218.0418122693324
 31
0.0
1001
ACAD
1000
ASC_BOUNDS
1002
{
1070
    19
1002
}
  0
LINE
  5
33953
330
747D
100
AcDbEntity
  8
文字
 48
0.5
100
AcDbLine
 10
18784.84861748287
 20
202.6627120923757
 30
0.0
 11
18784.84861748287
 21
218.0418122693324
 31
0.0
1001
ACAD
1000
ASC_BOUNDS
1002
{
1070
    19
1002
}
  0
LINE
  5
33954
330
747D
100
AcDbEntity
  8
文字
 48
0.5
100
AcDbLine
 10
18784.84861748287
 20
202.6627120923757
 30
0.0
 11
18826.07676911718
 21
202.6627120923757
 31
0.0
1001
ACAD
1000
ASC_BOUNDS
1002
{
1070
    19
1002
}
  0
LINE
  5
33955
330
747D
100
AcDbEntity
  8
文字
 48
0.5
100
AcDbLine
 10
18826.07676911718
 20
202.6627120923757
 30
0.0
 11
18826.07676911718
 21
199.1827301331256
 31
0.0
1001
ACAD
1000
ASC_BOUNDS
1002
{
1070
    19
1002
}
  0
LINE
  5
33956
330
747D
100
AcDbEntity
  8
文字
 48
0.5
100
AcDbLine
 10
18826.07676911718
 20
199.1827301331256
 30
0.0
 11
18784.8324361358
 21
199.1827301331256
 31
0.0
1001
ACAD
1000
ASC_BOUNDS
1002
{
1070
    19
1002
}
  0
LINE
  5
33957
330
747D
100
AcDbEntity
  8
文字
 48
0.5
100
AcDbLine
 10
18778.89454423657
 20
199.1827301331256
 30
0.0
 11
18779.69019060125
 21
192.8228196064289
 31
0.0
1001
ACAD
1000
ASC_BOUNDS
1002
{
1070
    19
1002
}
  0
LINE
  5
33958
330
747D
100
AcDbEntity
  8
文字
 48
0.5
100
AcDbLine
 10
18779.69019060125
 20
192.8228196064289
 30
0.0
 11
18784.10042248752
 21
172.111800723109
 31
0.0
1001
ACAD
1000
ASC_BOUNDS
1002
{
1070
    19
1002
}
  0
LINE
  5
33959
330
747D
100
AcDbEntity
  8
文字
 48
0.5
100
AcDbLine
 10
18786.28311292614
 20
185.7750665140909
 30
0.0
 11
18784.8324361358
 21
199.1827301331256
 31
0.0
1001
ACAD
1000
ASC_BOUNDS
1002
{
1070
    19
1002
}
  0
LINE
  5
3395A
330
747D
100
AcDbEntity
  8
文字
 48
0.5
100
AcDbLine
 10
18789.23651798181
 20
172.7416078681372
 30
0.0
 11
18786.28311292614
 21
185.7750665140909
 31
0.0
1001
ACAD
1000
ASC_BOUNDS
1002
{
1070
    19
1002
}
  0
LINE
  5
3395B
330
747D
100
AcDbEntity
  8
文字
 48
0.5
100
AcDbLine
 10
18784.10042248752
 20
172.111800723109
 30
0.0
 11
18788.29418622686
 21
162.0550858289399
 31
0.0
1001
ACAD
1000
ASC_BOUNDS
1002
{
1070
    19
1002
}
  0
LINE
  5
3395C
330
747D
100
AcDbEntity
  8
文字
 48
0.5
100
AcDbLine
 10
18794.8738029727
 20
161.4763461356794
 30
0.0
 11
18789.23651798181
 21
172.7416078681372
 31
0.0
1001
ACAD
1000
ASC_BOUNDS
1002
{
1070
    19
1002
}
  0
LINE
  5
3395D
330
747D
100
AcDbEntity
  8
文字
 48
0.5
100
AcDbLine
 10
18904.52266916357
 20
221.8507161482295
 30
0.0
 11
18904.52266916356
 21
206.5570934783171
 31
0.0
1001
ACAD
1000
ASC_BOUNDS
1002
{
1070
    19
1002
}
  0
LINE
  5
3395E
330
747D
100
AcDbEntity
  8
文字
 48
0.5
100
AcDbLine
 10
18904.52266916356
 20
206.5570934783171
 30
0.0
 11
18935.90357984967
 21
206.5570934783171
 31
0.0
1001
ACAD
1000
ASC_BOUNDS
1002
{
1070
    19
1002
}
  0
LINE
  5
3395F
330
747D
100
AcDbEntity
  8
文字
 48
0.5
100
AcDbLine
 10
18895.91410957418
 20
172.1086467286035
 30
0.0
 11
18935.90357984968
 21
172.1086467286035
 31
0.0
1001
ACAD
1000
ASC_BOUNDS
1002
{
1070
    19
1002
}
  0
LINE
  5
33960
330
747D
100
AcDbEntity
  8
文字
 48
0.5
100
AcDbLine
 10
18953.5362438639
 20
206.5570934783171
 30
0.0
 11
18953.5362438639
 21
172.1086467286035
 31
0.0
1001
ACAD
1000
ASC_BOUNDS
1002
{
1070
    19
1002
}
  0
LINE
  5
33961
330
747D
100
AcDbEntity
  8
文字
 48
0.5
100
AcDbLine
 10
18904.52266916357
 20
221.8507161482295
 30
0.0
 11
18989.40825435614
 21
221.8507161482295
 31
0.0
1001
ACAD
1000
ASC_BOUNDS
1002
{
1070
    19
1002
}
  0
LINE
  5
33962
330
747D
100
AcDbEntity
  8
文字
 48
0.5
100
AcDbLine
 10
18904.52266916357
 20
214.7347926837556
 30
0.0
 11
18989.40825435614
 21
214.7347926837556
 31
0.0
1001
ACAD
1000
ASC_BOUNDS
1002
{
1070
    19
1002
}
  0
LINE
  5
33963
330
747D
100
AcDbEntity
  8
文字
 48
0.5
100
AcDbLine
 10
18895.91410957418
 20
163.4106719804332
 30
0.0
 11
18999.87978233841
 21
163.4106719804332
 31
0.0
1001
ACAD
1000
ASC_BOUNDS
1002
{
1070
    19
1002
}
  0
LINE
  5
33964
330
747D
100
AcDbEntity
  8
文字
 48
0.5
100
AcDbLine
 10
18953.5362438639
 20
172.1086467286035
 30
0.0
 11
18999.87978233841
 21
172.1086467286035
 31
0.0
1001
ACAD
1000
ASC_BOUNDS
1002
{
1070
    19
1002
}
  0
LINE
  5
33965
330
747D
100
AcDbEntity
  8
文字
 48
0.5
100
AcDbLine
 10
18953.5362438639
 20
206.5570934783171
 30
0.0
 11
18989.40825435614
 21
206.5570934783171
 31
0.0
1001
ACAD
1000
ASC_BOUNDS
1002
{
1070
    19
1002
}
  0
LINE
  5
33966
330
747D
100
AcDbEntity
  8
文字
 48
0.5
100
AcDbLine
 10
19023.00846121662
 20
136.3292736307901
 30
0.0
 11
19010.76618233842
 21
136.3292736307901
 31
0.0
1001
ACAD
1000
ASC_BOUNDS
1002
{
1070
    19
1002
}
  0
LINE
  5
33967
330
747D
100
AcDbEntity
  8
文字
 48
0.5
100
AcDbLine
 10
19111.12762369749
 20
121.1102123989437
 30
0.0
 11
19057.19852087283
 21
121.1102123989437
 31
0.0
1001
ACAD
1000
ASC_BOUNDS
1002
{
1070
    19
1002
}
  0
LINE
  5
33968
330
747D
100
AcDbEntity
  8
文字
 48
0.5
100
AcDbLine
 10
19046.41503613675
 20
136.3292736307901
 30
0.0
 11
19123.91466744606
 21
136.3292736307901
 31
0.0
1001
ACAD
1000
ASC_BOUNDS
1002
{
1070
    19
1002
}
  0
LINE
  5
33969
330
747D
100
AcDbEntity
  8
文字
 48
0.5
100
AcDbLine
 10
19051.85823613675
 20
129.2133501663122
 30
0.0
 11
19118.47146744605
 21
129.2133501663122
 31
0.0
1001
ACAD
1000
ASC_BOUNDS
1002
{
1070
    19
1002
}
  0
LINE
  5
3396A
330
747D
100
AcDbEntity
  8
文字
 48
0.5
100
AcDbLine
 10
19118.47146744605
 20
48.89678822710374
 30
0.0
 11
19051.85823613676
 21
48.89678822710374
 31
0.0
1001
ACAD
1000
ASC_BOUNDS
1002
{
1070
    19
1002
}
  0
LINE
  5
3396B
330
747D
100
AcDbEntity
  8
文字
 48
0.5
100
AcDbLine
 10
19118.47146744605
 20
87.67031682553062
 30
0.0
 11
19051.85823613676
 21
87.67031682553062
 31
0.0
1001
ACAD
1000
ASC_BOUNDS
1002
{
1070
    19
1002
}
  0
LINE
  5
3396C
330
747D
100
AcDbEntity
  8
文字
 48
0.5
100
AcDbLine
 10
19111.12762369749
 20
54.33998822710356
 30
0.0
 11
19057.19852087283
 21
54.33998822710356
 31
0.0
1001
ACAD
1000
ASC_BOUNDS
1002
{
1070
    19
1002
}
  0
LINE
  5
3396D
330
747D
100
AcDbEntity
  8
文字
 48
0.5
100
AcDbLine
 10
19057.19852087283
 20
83.30224124997528
 30
0.0
 11
19057.19852087283
 21
54.33998822710356
 31
0.0
1001
ACAD
1000
ASC_BOUNDS
1002
{
1070
    19
1002
}
  0
LINE
  5
3396E
330
747D
100
AcDbEntity
  8
文字
 48
0.5
100
AcDbLine
 10
19111.12762369749
 20
83.30224124997528
 30
0.0
 11
19057.19852087283
 21
83.30224124997528
 31
0.0
1001
ACAD
1000
ASC_BOUNDS
1002
{
1070
    19
1002
}
  0
LINE
  5
3396F
330
747D
100
AcDbEntity
  8
文字
 48
0.5
100
AcDbLine
 10
19111.12762369749
 20
93.11351682553038
 30
0.0
 11
19057.19852087283
 21
93.11351682553038
 31
0.0
1001
ACAD
1000
ASC_BOUNDS
1002
{
1070
    19
1002
}
  0
LINE
  5
33970
330
747D
100
AcDbEntity
  8
文字
 48
0.5
100
AcDbLine
 10
19111.12762369749
 20
83.30224124997528
 30
0.0
 11
19111.12762369749
 21
54.33998822710356
 31
0.0
1001
ACAD
1000
ASC_BOUNDS
1002
{
1070
    19
1002
}
  0
LINE
  5
33971
330
747D
100
AcDbEntity
  8
文字
 48
0.5
100
AcDbLine
 10
19111.12762369749
 20
44.52871265154846
 30
0.0
 11
19057.19852087283
 21
44.52871265154846
 31
0.0
1001
ACAD
1000
ASC_BOUNDS
1002
{
1070
    19
1002
}
  0
LINE
  5
33972
330
747D
100
AcDbEntity
  8
文字
 48
0.5
100
AcDbLine
 10
19010.76618233841
 20
31.82349629992967
 30
0.0
 11
19023.00846121661
 21
31.82349629992967
 31
0.0
1001
ACAD
1000
ASC_BOUNDS
1002
{
1070
    19
1002
}
  0
LINE
  5
33973
330
747D
100
AcDbEntity
  8
文字
 48
0.5
100
AcDbLine
 10
19123.91466744606
 20
31.82349629992967
 30
0.0
 11
19111.12762369749
 21
31.82349629992967
 31
0.0
1001
ACAD
1000
ASC_BOUNDS
1002
{
1070
    19
1002
}
  0
LINE
  5
33974
330
747D
100
AcDbEntity
  8
文字
 48
0.5
100
AcDbLine
 10
19046.41503613675
 20
31.82349629992967
 30
0.0
 11
19057.19852087283
 21
31.82349629992967
 31
0.0
1001
ACAD
1000
ASC_BOUNDS
1002
{
1070
    19
1002
}
  0
LINE
  5
33975
330
747D
100
AcDbEntity
  8
文字
 48
0.5
100
AcDbLine
 10
19111.12762369749
 20
44.52871265154846
 30
0.0
 11
19111.12762369749
 21
31.82349629992967
 31
0.0
1001
ACAD
1000
ASC_BOUNDS
1002
{
1070
    19
1002
}
  0
LINE
  5
33976
330
747D
100
AcDbEntity
  8
文字
 48
0.5
100
AcDbLine
 10
19057.19852087283
 20
44.52871265154846
 30
0.0
 11
19057.19852087283
 21
31.82349629992967
 31
0.0
1001
ACAD
1000
ASC_BOUNDS
1002
{
1070
    19
1002
}
  0
LINE
  5
33977
330
747D
100
AcDbEntity
  8
文字
 48
0.5
100
AcDbLine
 10
19057.19852087283
 20
121.1102123989437
 30
0.0
 11
19057.19852087283
 21
93.11351682553038
 31
0.0
1001
ACAD
1000
ASC_BOUNDS
1002
{
1070
    19
1002
}
  0
LINE
  5
33978
330
747D
100
AcDbEntity
  8
文字
 48
0.5
100
AcDbLine
 10
19111.12762369749
 20
121.1102123989437
 30
0.0
 11
19111.12762369749
 21
93.11351682553038
 31
0.0
1001
ACAD
1000
ASC_BOUNDS
1002
{
1070
    19
1002
}
  0
LINE
  5
33979
330
747D
100
AcDbEntity
  8
文字
 48
0.5
100
AcDbLine
 10
19017.56526121661
 20
136.3292736307901
 30
0.0
 11
19017.56526121661
 21
31.82349629992967
 31
0.0
1001
ACAD
1000
ASC_BOUNDS
1002
{
1070
    19
1002
}
  0
LINE
  5
3397A
330
747D
100
AcDbEntity
  8
文字
 48
0.5
100
AcDbLine
 10
19023.00846121662
 20
136.3292736307901
 30
0.0
 11
19023.00846121661
 21
31.82349629992967
 31
0.0
1001
ACAD
1000
ASC_BOUNDS
1002
{
1070
    19
1002
}
  0
LINE
  5
3397B
330
747D
100
AcDbEntity
  8
文字
 48
0.5
100
AcDbLine
 10
19010.76618233842
 20
136.3292736307901
 30
0.0
 11
19010.76618233841
 21
31.82349629992967
 31
0.0
1001
ACAD
1000
ASC_BOUNDS
1002
{
1070
    19
1002
}
  0
LINE
  5
3397C
330
747D
100
AcDbEntity
  8
文字
 48
0.5
100
AcDbLine
 10
19046.41503613675
 20
136.3292736307901
 30
0.0
 11
19046.41503613675
 21
31.82349629992967
 31
0.0
1001
ACAD
1000
ASC_BOUNDS
1002
{
1070
    19
1002
}
  0
LINE
  5
3397D
330
747D
100
AcDbEntity
  8
文字
 48
0.5
100
AcDbLine
 10
19123.91466744606
 20
136.3292736307901
 30
0.0
 11
19123.91466744606
 21
31.82349629992967
 31
0.0
1001
ACAD
1000
ASC_BOUNDS
1002
{
1070
    19
1002
}
  0
LINE
  5
3397E
330
747D
100
AcDbEntity
  8
文字
 48
0.5
100
AcDbLine
 10
19118.47146744605
 20
129.2133501663122
 30
0.0
 11
19118.47146744605
 21
31.82349629992967
 31
0.0
1001
ACAD
1000
ASC_BOUNDS
1002
{
1070
    19
1002
}
  0
LINE
  5
3397F
330
747D
100
AcDbEntity
  8
文字
 48
0.5
100
AcDbLine
 10
19051.85823613675
 20
129.2133501663122
 30
0.0
 11
19051.85823613676
 21
31.82349629992967
 31
0.0
1001
ACAD
1000
ASC_BOUNDS
1002
{
1070
    19
1002
}
  0
LINE
  5
33980
330
747D
100
AcDbEntity
  8
文字
 48
0.5
100
AcDbLine
 10
18997.54534839225
 20
110.332183484087
 30
0.0
 11
18987.27203591666
 21
101.7188359035966
 31
0.0
1001
ACAD
1000
ASC_BOUNDS
1002
{
1070
    19
1002
}
  0
LINE
  5
33981
330
747D
100
AcDbEntity
  8
文字
 48
0.5
100
AcDbLine
 10
19197.79888700992
 20
91.71107677328491
 30
0.0
 11
19197.79888700992
 21
77.68968828039397
 31
0.0
  0
LINE
  5
33982
330
747D
100
AcDbEntity
  8
文字
 48
0.5
100
AcDbLine
 10
19197.79888700992
 20
43.76899820154159
 30
0.0
 11
19197.79888700993
 21
27.12220443296718
 31
0.0
1001
ACAD
1000
ASC_BOUNDS
1002
{
1070
    19
1002
}
  0
LINE
  5
33983
330
747D
100
AcDbEntity
  8
文字
 48
0.5
100
AcDbLine
 10
19110.03771346794
 20
160.0875071323347
 30
0.0
 11
19123.68951318585
 21
160.0875071323347
 31
0.0
1001
ACAD
1000
ASC_BOUNDS
1002
{
1070
    19
1002
}
  0
LINE
  5
33984
330
747D
100
AcDbEntity
  8
文字
 48
0.5
100
AcDbLine
 10
19076.78323174416
 20
160.0875071323347
 30
0.0
 11
19062.81172629386
 21
160.0875071323347
 31
0.0
1001
ACAD
1000
ASC_BOUNDS
1002
{
1070
    19
1002
}
  0
LINE
  5
33985
330
747D
100
AcDbEntity
  8
文字
 48
0.5
100
AcDbLine
 10
19034.45756010387
 20
160.0875071323347
 30
0.0
 11
19023.30290852228
 21
160.0875071323347
 31
0.0
1001
ACAD
1000
ASC_BOUNDS
1002
{
1070
    19
1002
}
  0
LINE
  5
33986
330
747D
100
AcDbEntity
  8
文字
 48
0.5
100
AcDbLine
 10
18935.90357984968
 20
31.82349629992967
 30
0.0
 11
18953.5362438639
 21
31.82349629992967
 31
0.0
1001
ACAD
1000
ASC_BOUNDS
1002
{
1070
    19
1002
}
  0
LINE
  5
33987
330
747D
100
AcDbEntity
  8
文字
 48
0.5
100
AcDbLine
 10
18944.27650922791
 20
143.0165210973285
 30
0.0
 11
18892.6234779287
 21
60.17995714191539
 31
0.0
1001
ACAD
1000
ASC_BOUNDS
1002
{
1070
    19
1002
}
  0
LINE
  5
33988
330
747D
100
AcDbEntity
  8
文字
 48
0.5
100
AcDbLine
 10
18935.90357984968
 20
154.1969954449035
 30
0.0
 11
18935.90357984968
 21
139.876104123316
 31
0.0
1001
ACAD
1000
ASC_BOUNDS
1002
{
1070
    19
1002
}
  0
LINE
  5
33989
330
747D
100
AcDbEntity
  8
文字
 48
0.5
100
AcDbLine
 10
18804.85882345699
 20
142.1379566642842
 30
0.0
 11
18811.48947355438
 21
138.6305340459597
 31
0.0
1001
ACAD
1000
ASC_BOUNDS
1002
{
1070
    19
1002
}
  0
LINE
  5
3398A
330
747D
100
AcDbEntity
  8
文字
 48
0.5
100
AcDbLine
 10
18828.6146301928
 20
140.8981980353371
 30
0.0
 11
18832.7604282678
 21
143.5250874457308
 31
0.0
1001
ACAD
1000
ASC_BOUNDS
1002
{
1070
    19
1002
}
  0
LINE
  5
3398B
330
747D
100
AcDbEntity
  8
文字
 48
0.5
100
AcDbLine
 10
18935.90357984968
 20
114.3357400066099
 30
0.0
 11
18935.90357984968
 21
31.82349629992967
 31
0.0
1001
ACAD
1000
ASC_BOUNDS
1002
{
1070
    19
1002
}
  0
LINE
  5
3398C
330
747D
100
AcDbEntity
  8
文字
 48
0.5
100
AcDbLine
 10
18801.43526668417
 20
110.0468673042406
 30
0.0
 11
18798.14969466713
 21
110.0468673042406
 31
0.0
1001
ACAD
1000
ASC_BOUNDS
1002
{
1070
    19
1002
}
  0
LINE
  5
3398D
330
747D
100
AcDbEntity
  8
文字
 48
0.5
100
AcDbLine
 10
18811.48947355438
 20
138.6305340459597
 30
0.0
 11
18815.91257447543
 21
137.3931131310751
 31
0.0
1001
ACAD
1000
ASC_BOUNDS
1002
{
1070
    19
1002
}
  0
LINE
  5
3398E
330
747D
100
AcDbEntity
  8
文字
 48
0.5
100
AcDbLine
 10
18815.91257447543
 20
137.3931131310751
 30
0.0
 11
18820.2343923487
 21
137.3931131310751
 31
0.0
1001
ACAD
1000
ASC_BOUNDS
1002
{
1070
    19
1002
}
  0
LINE
  5
3398F
330
747D
100
AcDbEntity
  8
文字
 48
0.5
100
AcDbLine
 10
18820.2343923487
 20
137.3931131310751
 30
0.0
 11
18828.6146301928
 21
140.8981980353371
 31
0.0
1001
ACAD
1000
ASC_BOUNDS
1002
{
1070
    19
1002
}
  0
LINE
  5
33990
330
747D
100
AcDbEntity
  8
文字
 48
0.5
100
AcDbLine
 10
18801.43526668417
 20
78.67374118198586
 30
0.0
 11
18824.02184411375
 21
78.67374118198586
 31
0.0
1001
ACAD
1000
ASC_BOUNDS
1002
{
1070
    19
1002
}
  0
LINE
  5
33991
330
747D
100
AcDbEntity
  8
文字
 48
0.5
100
AcDbLine
 10
18775.78456173174
 20
78.67374118198586
 30
0.0
 11
18798.14969466713
 21
78.67374118198586
 31
0.0
1001
ACAD
1000
ASC_BOUNDS
1002
{
1070
    19
1002
}
  0
LINE
  5
33992
330
747D
100
AcDbEntity
  8
文字
 48
0.5
100
AcDbLine
 10
18775.78456173173
 20
82.39015930559634
 30
0.0
 11
18775.78456173174
 21
78.67374118198586
 31
0.0
1001
ACAD
1000
ASC_BOUNDS
1002
{
1070
    19
1002
}
  0
LINE
  5
33993
330
747D
100
AcDbEntity
  8
文字
 48
0.5
100
AcDbLine
 10
18824.02184411375
 20
78.67374118198586
 30
0.0
 11
18824.02184411376
 21
82.39015930559634
 31
0.0
1001
ACAD
1000
ASC_BOUNDS
1002
{
1070
    19
1002
}
  0
LINE
  5
33994
330
747D
100
AcDbEntity
  8
文字
 48
0.5
100
AcDbLine
 10
18824.02184411376
 20
82.39015930559634
 30
0.0
 11
18801.43526668417
 21
82.39015930559634
 31
0.0
1001
ACAD
1000
ASC_BOUNDS
1002
{
1070
    19
1002
}
  0
LINE
  5
33995
330
747D
100
AcDbEntity
  8
文字
 48
0.5
100
AcDbLine
 10
18798.14969466713
 20
82.39015930559634
 30
0.0
 11
18775.78456173173
 21
82.39015930559634
 31
0.0
1001
ACAD
1000
ASC_BOUNDS
1002
{
1070
    19
1002
}
  0
LINE
  5
33996
330
747D
100
AcDbEntity
  8
文字
 48
0.5
100
AcDbLine
 10
18888.0046533537
 20
63.06004147842305
 30
0.0
 11
18898.73207137238
 21
54.7233617618291
 31
0.0
1001
ACAD
1000
ASC_BOUNDS
1002
{
1070
    19
1002
}
  0
LINE
  5
33997
330
747D
100
AcDbEntity
  8
文字
 48
0.5
100
AcDbLine
 10
18826.45763842764
 20
29.997873979796
 30
0.0
 11
18773.34876741787
 21
29.997873979796
 31
0.0
1001
ACAD
1000
ASC_BOUNDS
1002
{
1070
    19
1002
}
  0
LINE
  5
33998
330
747D
100
AcDbEntity
  8
文字
 48
0.5
100
AcDbLine
 10
18826.45763842763
 20
33.49297900104318
 30
0.0
 11
18826.45763842764
 21
29.997873979796
 31
0.0
1001
ACAD
1000
ASC_BOUNDS
1002
{
1070
    19
1002
}
  0
LINE
  5
33999
330
747D
100
AcDbEntity
  8
文字
 48
0.5
100
AcDbLine
 10
18801.43526668418
 20
33.49297900104318
 30
0.0
 11
18826.45763842763
 21
33.49297900104318
 31
0.0
1001
ACAD
1000
ASC_BOUNDS
1002
{
1070
    19
1002
}
  0
LINE
  5
3399A
330
747D
100
AcDbEntity
  8
文字
 48
0.5
100
AcDbLine
 10
18773.34876741787
 20
33.49297900104318
 30
0.0
 11
18798.14969466713
 21
33.49297900104318
 31
0.0
1001
ACAD
1000
ASC_BOUNDS
1002
{
1070
    19
1002
}
  0
LINE
  5
3399B
330
747D
100
AcDbEntity
  8
文字
 48
0.5
100
AcDbLine
 10
18773.34876741787
 20
29.997873979796
 30
0.0
 11
18773.34876741787
 21
33.49297900104318
 31
0.0
1001
ACAD
1000
ASC_BOUNDS
1002
{
1070
    19
1002
}
  0
LINE
  5
3399C
330
747D
100
AcDbEntity
  8
文字
 48
0.5
100
AcDbLine
 10
18801.43526668418
 20
33.49297900104318
 30
0.0
 11
18801.43526668417
 21
78.67374118198586
 31
0.0
1001
ACAD
1000
ASC_BOUNDS
1002
{
1070
    19
1002
}
  0
LINE
  5
3399D
330
747D
100
AcDbEntity
  8
文字
 48
0.5
100
AcDbLine
 10
18798.14969466713
 20
78.67374118198586
 30
0.0
 11
18798.14969466713
 21
33.49297900104318
 31
0.0
1001
ACAD
1000
ASC_BOUNDS
1002
{
1070
    19
1002
}
  0
LINE
  5
3399E
330
747D
100
AcDbEntity
  8
文字
 48
0.5
100
AcDbLine
 10
18801.43526668417
 20
82.39015930559634
 30
0.0
 11
18801.43526668417
 21
110.0468673042406
 31
0.0
1001
ACAD
1000
ASC_BOUNDS
1002
{
1070
    19
1002
}
  0
LINE
  5
3399F
330
747D
100
AcDbEntity
  8
文字
 48
0.5
100
AcDbLine
 10
18798.14969466713
 20
110.0468673042406
 30
0.0
 11
18798.14969466713
 21
82.39015930559634
 31
0.0
1001
ACAD
1000
ASC_BOUNDS
1002
{
1070
    19
1002
}
  0
LINE
  5
339A0
330
747D
100
AcDbEntity
  8
文字
 48
0.5
100
AcDbLine
 10
18935.90357984968
 20
139.876104123316
 30
0.0
 11
18888.0046533537
 21
63.06004147842305
 31
0.0
1001
ACAD
1000
ASC_BOUNDS
1002
{
1070
    19
1002
}
  0
LINE
  5
339A1
330
747D
100
AcDbEntity
  8
文字
 48
0.5
100
AcDbLine
 10
18935.90357984968
 20
114.3357400066099
 30
0.0
 11
18898.73207137238
 21
54.7233617618291
 31
0.0
1001
ACAD
1000
ASC_BOUNDS
1002
{
1070
    19
1002
}
  0
LINE
  5
339A2
330
747D
100
AcDbEntity
  8
文字
 48
0.5
100
AcDbLine
 10
18795.41715387293
 20
150.7515108018839
 30
0.0
 11
18804.85882345699
 21
142.1379566642842
 31
0.0
1001
ACAD
1000
ASC_BOUNDS
1002
{
1070
    19
1002
}
  0
LINE
  5
339A3
330
747D
100
AcDbEntity
  8
文字
 48
0.5
100
AcDbLine
 10
18810.47195622398
 20
144.6743953736434
 30
0.0
 11
18800.31053266475
 21
152.4227932017642
 31
0.0
1001
ACAD
1000
ASC_BOUNDS
1002
{
1070
    19
1002
}
  0
LINE
  5
339A4
330
747D
100
AcDbEntity
  8
文字
 48
0.5
100
AcDbLine
 10
18814.31796011764
 20
143.2770312208915
 30
0.0
 11
18810.47195622398
 21
144.6743953736434
 31
0.0
1001
ACAD
1000
ASC_BOUNDS
1002
{
1070
    19
1002
}
  0
LINE
  5
339A5
330
747D
100
AcDbEntity
  8
文字
 48
0.5
100
AcDbLine
 10
18819.13451233803
 20
142.6353673572604
 30
0.0
 11
18814.31796011764
 21
143.2770312208915
 31
0.0
1001
ACAD
1000
ASC_BOUNDS
1002
{
1070
    19
1002
}
  0
LINE
  5
339A6
330
747D
100
AcDbEntity
  8
文字
 48
0.5
100
AcDbLine
 10
18823.82913113393
 20
143.4171421354251
 30
0.0
 11
18819.13451233803
 21
142.6353673572604
 31
0.0
1001
ACAD
1000
ASC_BOUNDS
1002
{
1070
    19
1002
}
  0
LINE
  5
339A7
330
747D
100
AcDbEntity
  8
文字
 48
0.5
100
AcDbLine
 10
18829.96544087261
 20
147.5046569512021
 30
0.0
 11
18823.82913113393
 21
143.4171421354251
 31
0.0
1001
ACAD
1000
ASC_BOUNDS
1002
{
1070
    19
1002
}
  0
LINE
  5
339A8
330
747D
100
AcDbEntity
  8
文字
 48
0.5
100
AcDbLine
 10
18832.7604282678
 20
143.5250874457308
 30
0.0
 11
18829.96544087261
 21
147.5046569512021
 31
0.0
1001
ACAD
1000
ASC_BOUNDS
1002
{
1070
    19
1002
}
  0
LINE
  5
339A9
330
747D
100
AcDbEntity
  8
文字
 48
0.5
100
AcDbLine
 10
18895.91410957418
 20
154.1969954449035
 30
0.0
 11
18935.90357984968
 21
154.1969954449035
 31
0.0
1001
ACAD
1000
ASC_BOUNDS
1002
{
1070
    19
1002
}
  0
LINE
  5
339AA
330
747D
100
AcDbEntity
  8
文字
 48
0.5
100
AcDbLine
 10
18953.5362438639
 20
139.9043721012416
 30
0.0
 11
18953.5362438639
 21
31.82349629992967
 31
0.0
1001
ACAD
1000
ASC_BOUNDS
1002
{
1070
    19
1002
}
  0
LINE
  5
339AB
330
747D
100
AcDbEntity
  8
文字
 48
0.5
100
AcDbLine
 10
18997.54534839225
 20
110.332183484087
 30
0.0
 11
18958.79208414361
 21
154.1969954449035
 31
0.0
1001
ACAD
1000
ASC_BOUNDS
1002
{
1070
    19
1002
}
  0
LINE
  5
339AC
330
747D
100
AcDbEntity
  8
文字
 48
0.5
100
AcDbLine
 10
18987.27203591666
 20
101.7188359035966
 30
0.0
 11
18953.5362438639
 21
139.9043721012416
 31
0.0
1001
ACAD
1000
ASC_BOUNDS
1002
{
1070
    19
1002
}
  0
LINE
  5
339AD
330
747D
100
AcDbEntity
  8
文字
 48
0.5
100
AcDbLine
 10
18958.79208414361
 20
154.1969954449035
 30
0.0
 11
18999.87978233841
 21
154.1969954449035
 31
0.0
1001
ACAD
1000
ASC_BOUNDS
1002
{
1070
    19
1002
}
  0
LINE
  5
339AE
330
747D
100
AcDbEntity
  8
文字
 48
0.5
100
AcDbLine
 10
18788.29418622686
 20
162.0550858289399
 30
0.0
 11
18795.41715387293
 21
150.7515108018839
 31
0.0
1001
ACAD
1000
ASC_BOUNDS
1002
{
1070
    19
1002
}
  0
LINE
  5
339AF
330
747D
100
AcDbEntity
  8
文字
 48
0.5
100
AcDbLine
 10
18800.31053266475
 20
152.4227932017642
 30
0.0
 11
18794.8738029727
 21
161.4763461356794
 31
0.0
1001
ACAD
1000
ASC_BOUNDS
1002
{
1070
    19
1002
}
  0
LINE
  5
339B0
330
747D
100
AcDbEntity
  8
文字
 48
0.5
100
AcDbLine
 10
18895.91410957418
 20
172.1086467286035
 30
0.0
 11
18895.91410957418
 21
154.1969954449035
 31
0.0
1001
ACAD
1000
ASC_BOUNDS
1002
{
1070
    19
1002
}
  0
LINE
  5
339B1
330
747D
100
AcDbEntity
  8
文字
 48
0.5
100
AcDbLine
 10
18993.46609330456
 20
106.7282822410516
 30
0.0
 11
18944.27650922791
 21
162.4059625032517
 31
0.0
1001
ACAD
1000
ASC_BOUNDS
1002
{
1070
    19
1002
}
  0
LINE
  5
339B2
330
747D
100
AcDbEntity
  8
文字
 48
0.5
100
AcDbLine
 10
18944.27650922791
 20
216.4075161482272
 30
0.0
 11
18944.27650922791
 21
31.82349629992967
 31
0.0
1001
ACAD
1000
ASC_BOUNDS
1002
{
1070
    19
1002
}
  0
LINE
  5
339B3
330
747D
100
AcDbEntity
  8
文字
 48
0.5
100
AcDbLine
 10
19029.01436010387
 20
185.4168358969761
 30
0.0
 11
19029.01436010387
 21
160.0875071323347
 31
0.0
1001
ACAD
1000
ASC_BOUNDS
1002
{
1070
    19
1002
}
  0
LINE
  5
339B4
330
747D
100
AcDbEntity
  8
文字
 48
0.5
100
AcDbLine
 10
19123.68951318585
 20
192.3982104046814
 30
0.0
 11
19123.68951318585
 21
160.0875071323347
 31
0.0
1001
ACAD
1000
ASC_BOUNDS
1002
{
1070
    19
1002
}
  0
LINE
  5
339B5
330
747D
100
AcDbEntity
  8
文字
 48
0.5
100
AcDbLine
 10
19110.03771346793
 20
192.3982104046814
 30
0.0
 11
19110.03771346794
 21
160.0875071323347
 31
0.0
1001
ACAD
1000
ASC_BOUNDS
1002
{
1070
    19
1002
}
  0
LINE
  5
339B6
330
747D
100
AcDbEntity
  8
文字
 48
0.5
100
AcDbLine
 10
19076.78323174416
 20
185.4168358969761
 30
0.0
 11
19076.78323174416
 21
160.0875071323347
 31
0.0
1001
ACAD
1000
ASC_BOUNDS
1002
{
1070
    19
1002
}
  0
LINE
  5
339B7
330
747D
100
AcDbEntity
  8
文字
 48
0.5
100
AcDbLine
 10
19062.81172629385
 20
185.4168358969761
 30
0.0
 11
19062.81172629386
 21
160.0875071323347
 31
0.0
1001
ACAD
1000
ASC_BOUNDS
1002
{
1070
    19
1002
}
  0
LINE
  5
339B8
330
747D
100
AcDbEntity
  8
文字
 48
0.5
100
AcDbLine
 10
19023.30290852228
 20
185.4168358969761
 30
0.0
 11
19023.30290852228
 21
160.0875071323347
 31
0.0
1001
ACAD
1000
ASC_BOUNDS
1002
{
1070
    19
1002
}
  0
LINE
  5
339B9
330
747D
100
AcDbEntity
  8
文字
 48
0.5
100
AcDbLine
 10
19034.45756010388
 20
185.4168358969761
 30
0.0
 11
19034.45756010387
 21
160.0875071323347
 31
0.0
1001
ACAD
1000
ASC_BOUNDS
1002
{
1070
    19
1002
}
  0
LINE
  5
339BA
330
747D
100
AcDbEntity
  8
文字
 48
0.5
100
AcDbLine
 10
18999.87978233841
 20
154.1969954449035
 30
0.0
 11
18999.87978233841
 21
172.1086467286035
 31
0.0
1001
ACAD
1000
ASC_BOUNDS
1002
{
1070
    19
1002
}
  0
LINE
  5
339BB
330
747D
100
AcDbEntity
  8
文字
 48
0.5
100
AcDbLine
 10
19069.92904701433
 20
185.4168358969761
 30
0.0
 11
19069.92904701433
 21
160.0875071323347
 31
0.0
1001
ACAD
1000
ASC_BOUNDS
1002
{
1070
    19
1002
}
  0
LINE
  5
339BC
330
747D
100
AcDbEntity
  8
文字
 48
0.5
100
AcDbLine
 10
19117.1550341884
 20
192.3982104046814
 30
0.0
 11
19117.1550341884
 21
160.0875071323347
 31
0.0
1001
ACAD
1000
ASC_BOUNDS
1002
{
1070
    19
1002
}
  0
LINE
  5
339BD
330
747D
100
AcDbEntity
  8
文字
 48
0.5
100
AcDbLine
 10
19197.79888700992
 20
170.3671233873725
 30
0.0
 11
19197.79888700992
 21
160.2785741107095
 31
0.0
1001
ACAD
1000
ASC_BOUNDS
1002
{
1070
    19
1002
}
  0
LINE
  5
339BE
330
747D
100
AcDbEntity
  8
文字
 48
0.5
100
AcDbLine
 10
19420.45167449377
 20
86.26787677328264
 30
0.0
 11
19197.79888700992
 21
86.26787677328264
 31
0.0
  0
LINE
  5
339BF
330
747D
100
AcDbEntity
  8
文字
 48
0.5
100
AcDbLine
 10
19420.45167449377
 20
164.9239233873752
 30
0.0
 11
19197.79888700992
 21
164.9239233873752
 31
0.0
1001
ACAD
1000
ASC_BOUNDS
1002
{
1070
    19
1002
}
  0
LINE
  5
339C0
330
747D
100
AcDbEntity
  8
文字
 48
0.5
100
AcDbLine
 10
19197.79888700992
 20
207.5508292595581
 30
0.0
 11
19420.45167449377
 21
207.5508292595581
 31
0.0
1001
ACAD
1000
ASC_BOUNDS
1002
{
1070
    19
1002
}
  0
LINE
  5
339C1
330
747D
100
AcDbEntity
  8
文字
 48
0.5
100
AcDbLine
 10
19302.21576847432
 20
91.71107677328491
 30
0.0
 11
19197.79888700992
 21
91.71107677328491
 31
0.0
  0
ARC
  5
339C2
330
747D
100
AcDbEntity
  8
文字
 48
0.5
100
AcDbCircle
 10
19151.31287447826
 20
346.8993877394256
 30
0.0
 40
306.6740654546495
100
AcDbArc
 50
278.7185685875113
 51
298.6175227109928
1001
ACAD
1000
ASC_BOUNDS
1002
{
1070
    19
1002
}
  0
LINE
  5
339C3
330
747D
100
AcDbEntity
  8
文字
 48
0.5
100
AcDbLine
 10
19197.79888700992
 20
77.68968828039397
 30
0.0
 11
19298.19759165344
 21
77.68968828039397
 31
0.0
  0
ARC
  5
339C4
330
747D
100
AcDbEntity
  8
文字
 48
0.5
100
AcDbCircle
 10
19151.31287447826
 20
347.8401287404887
 30
0.0
 40
324.0693387736968
100
AcDbArc
 50
278.24722261401
 51
297.7522983236099
1001
ACAD
1000
ASC_BOUNDS
1002
{
1070
    19
1002
}
  0
ARC
  5
339C5
330
747D
100
AcDbEntity
  8
文字
 48
0.5
100
AcDbCircle
 10
19151.31287447826
 20
350.767399553931
 30
0.0
 40
318.6261387736968
100
AcDbArc
 50
278.3891195392822
 51
300.4555768365285
1001
ACAD
1000
ASC_BOUNDS
1002
{
1070
    19
1002
}
  0
LINE
  5
339C6
330
747D
100
AcDbEntity
  8
文字
 48
0.5
100
AcDbLine
 10
19197.79888700992
 20
160.2785741107095
 30
0.0
 11
19230.74189455324
 21
160.2785741107095
 31
0.0
1001
ACAD
1000
ASC_BOUNDS
1002
{
1070
    19
1002
}
  0
LINE
  5
339C7
330
747D
100
AcDbEntity
  8
文字
 48
0.5
100
AcDbLine
 10
19230.74189455324
 20
170.3671233873725
 30
0.0
 11
19197.79888700992
 21
170.3671233873725
 31
0.0
1001
ACAD
1000
ASC_BOUNDS
1002
{
1070
    19
1002
}
  0
LINE
  5
339C8
330
747D
100
AcDbEntity
  8
文字
 48
0.5
100
AcDbLine
 10
19197.79888700992
 20
199.3917656276727
 30
0.0
 11
19260.54092296343
 21
199.3917656276727
 31
0.0
1001
ACAD
1000
ASC_BOUNDS
1002
{
1070
    19
1002
}
  0
LINE
  5
339C9
330
747D
100
AcDbEntity
  8
文字
 48
0.5
100
AcDbLine
 10
19197.79888700992
 20
212.9940292595555
 30
0.0
 11
19260.54092296343
 21
212.9940292595555
 31
0.0
1001
ACAD
1000
ASC_BOUNDS
1002
{
1070
    19
1002
}
  0
LINE
  5
339CA
330
747D
100
AcDbEntity
  8
文字
 48
0.5
100
AcDbLine
 10
18698.35627903882
 20
179.6758686344311
 30
0.0
 11
18698.35627903882
 21
176.855030865055
 31
0.0
1001
ACAD
1000
ASC_BOUNDS
1002
{
1070
    19
1002
}
  0
LINE
  5
339CB
330
747D
100
AcDbEntity
  8
文字
 48
0.5
100
AcDbLine
 10
18697.50455481159
 20
200.6822232941913
 30
0.0
 11
18697.50455481159
 21
198.0196770865987
 31
0.0
1001
ACAD
1000
ASC_BOUNDS
1002
{
1070
    19
1002
}
  0
LINE
  5
339CC
330
747D
100
AcDbEntity
  8
文字
 48
0.5
100
AcDbLine
 10
18678.43550141577
 20
169.5436491812496
 30
0.0
 11
18678.43550141577
 21
176.855030865055
 31
0.0
1001
ACAD
1000
ASC_BOUNDS
1002
{
1070
    19
1002
}
  0
LINE
  5
339CD
330
747D
100
AcDbEntity
  8
文字
 48
0.5
100
AcDbLine
 10
18676.185524849
 20
176.855030865055
 30
0.0
 11
18676.185524849
 21
172.2956526061273
 31
0.0
1001
ACAD
1000
ASC_BOUNDS
1002
{
1070
    19
1002
}
  0
LINE
  5
339CE
330
747D
100
AcDbEntity
  8
文字
 48
0.5
100
AcDbLine
 10
18651.59224937415
 20
176.855030865055
 30
0.0
 11
18676.185524849
 21
176.855030865055
 31
0.0
1001
ACAD
1000
ASC_BOUNDS
1002
{
1070
    19
1002
}
  0
LINE
  5
339CF
330
747D
100
AcDbEntity
  8
文字
 48
0.5
100
AcDbLine
 10
18651.59224937415
 20
179.6758686344311
 30
0.0
 11
18651.59224937415
 21
176.855030865055
 31
0.0
1001
ACAD
1000
ASC_BOUNDS
1002
{
1070
    19
1002
}
  0
LINE
  5
339D0
330
747D
100
AcDbEntity
  8
文字
 48
0.5
100
AcDbLine
 10
18651.59224937415
 20
179.6758686344311
 30
0.0
 11
18676.185524849
 21
179.6758686344311
 31
0.0
1001
ACAD
1000
ASC_BOUNDS
1002
{
1070
    19
1002
}
  0
LINE
  5
339D1
330
747D
100
AcDbEntity
  8
文字
 48
0.5
100
AcDbLine
 10
18678.43550141577
 20
179.6758686344311
 30
0.0
 11
18678.43550141577
 21
198.0196770865987
 31
0.0
1001
ACAD
1000
ASC_BOUNDS
1002
{
1070
    19
1002
}
  0
LINE
  5
339D2
330
747D
100
AcDbEntity
  8
文字
 48
0.5
100
AcDbLine
 10
18678.43550141577
 20
200.6822232941913
 30
0.0
 11
18678.43550141577
 21
218.0418122693324
 31
0.0
1001
ACAD
1000
ASC_BOUNDS
1002
{
1070
    19
1002
}
  0
LINE
  5
339D3
330
747D
100
AcDbEntity
  8
文字
 48
0.5
100
AcDbLine
 10
18676.18552484899
 20
198.0196770865987
 30
0.0
 11
18676.185524849
 21
179.6758686344311
 31
0.0
1001
ACAD
1000
ASC_BOUNDS
1002
{
1070
    19
1002
}
  0
LINE
  5
339D4
330
747D
100
AcDbEntity
  8
文字
 48
0.5
100
AcDbLine
 10
18676.18552484899
 20
198.0196770865987
 30
0.0
 11
18651.59224937416
 21
198.0196770865987
 31
0.0
1001
ACAD
1000
ASC_BOUNDS
1002
{
1070
    19
1002
}
  0
LINE
  5
339D5
330
747D
100
AcDbEntity
  8
文字
 48
0.5
100
AcDbLine
 10
18651.59224937416
 20
218.0418122693324
 30
0.0
 11
18651.59224937416
 21
198.0196770865987
 31
0.0
1001
ACAD
1000
ASC_BOUNDS
1002
{
1070
    19
1002
}
  0
LINE
  5
339D6
330
747D
100
AcDbEntity
  8
文字
 48
0.5
100
AcDbLine
 10
18655.94461692482
 20
218.0418122693324
 30
0.0
 11
18651.59224937416
 21
218.0418122693324
 31
0.0
1001
ACAD
1000
ASC_BOUNDS
1002
{
1070
    19
1002
}
  0
LINE
  5
339D7
330
747D
100
AcDbEntity
  8
文字
 48
0.5
100
AcDbLine
 10
18655.94461692482
 20
218.0418122693324
 30
0.0
 11
18655.94461692482
 21
200.6822232941913
 31
0.0
1001
ACAD
1000
ASC_BOUNDS
1002
{
1070
    19
1002
}
  0
LINE
  5
339D8
330
747D
100
AcDbEntity
  8
文字
 48
0.5
100
AcDbLine
 10
18655.94461692482
 20
200.6822232941913
 30
0.0
 11
18676.185524849
 21
200.6822232941913
 31
0.0
1001
ACAD
1000
ASC_BOUNDS
1002
{
1070
    19
1002
}
  0
LINE
  5
339D9
330
747D
100
AcDbEntity
  8
文字
 48
0.5
100
AcDbLine
 10
18676.185524849
 20
218.0418122693324
 30
0.0
 11
18676.185524849
 21
200.6822232941913
 31
0.0
1001
ACAD
1000
ASC_BOUNDS
1002
{
1070
    19
1002
}
  0
LINE
  5
339DA
330
747D
100
AcDbEntity
  8
文字
 48
0.5
100
AcDbLine
 10
18678.43550141577
 20
218.0418122693324
 30
0.0
 11
18676.185524849
 21
218.0418122693324
 31
0.0
1001
ACAD
1000
ASC_BOUNDS
1002
{
1070
    19
1002
}
  0
LINE
  5
339DB
330
747D
100
AcDbEntity
  8
文字
 48
0.5
100
AcDbLine
 10
18618.55469035865
 20
200.6822232941913
 30
0.0
 11
18618.55469035865
 21
218.0418122693324
 31
0.0
  0
LINE
  5
339DC
330
747D
100
AcDbEntity
  8
文字
 48
0.5
100
AcDbLine
 10
18618.55469035865
 20
198.0196770865987
 30
0.0
 11
18595.67190238142
 21
198.0196770865987
 31
0.0
1001
ACAD
1000
ASC_BOUNDS
1002
{
1070
    19
1002
}
  0
LINE
  5
339DD
330
747D
100
AcDbEntity
  8
文字
 48
0.5
100
AcDbLine
 10
18618.55469035865
 20
198.0196770865987
 30
0.0
 11
18618.55469035865
 21
191.337508004238
 31
0.0
1001
ACAD
1000
ASC_BOUNDS
1002
{
1070
    19
1002
}
  0
LINE
  5
339DE
330
747D
100
AcDbEntity
  8
文字
 48
0.5
100
AcDbLine
 10
18638.40013197799
 20
167.4102745803051
 30
0.0
 11
18620.80476204762
 21
178.9878914239757
 31
0.0
1001
ACAD
1000
ASC_BOUNDS
1002
{
1070
    19
1002
}
  0
LINE
  5
339DF
330
747D
100
AcDbEntity
  8
文字
 48
0.5
100
AcDbLine
 10
18638.40013197799
 20
167.4102745803051
 30
0.0
 11
18639.94410285762
 21
169.917170986575
 31
0.0
1001
ACAD
1000
ASC_BOUNDS
1002
{
1070
    19
1002
}
  0
LINE
  5
339E0
330
747D
100
AcDbEntity
  8
文字
 48
0.5
100
AcDbLine
 10
18639.94410285762
 20
169.917170986575
 30
0.0
 11
18620.80476204763
 21
186.6123339451931
 31
0.0
1001
ACAD
1000
ASC_BOUNDS
1002
{
1070
    19
1002
}
  0
LINE
  5
339E1
330
747D
100
AcDbEntity
  8
文字
 48
0.5
100
AcDbLine
 10
18620.80476204762
 20
198.0196770865987
 30
0.0
 11
18620.80476204763
 21
186.6123339451931
 31
0.0
1001
ACAD
1000
ASC_BOUNDS
1002
{
1070
    19
1002
}
  0
LINE
  5
339E2
330
747D
100
AcDbEntity
  8
文字
 48
0.5
100
AcDbLine
 10
18635.70013843678
 20
198.0196770865987
 30
0.0
 11
18620.80476204762
 21
198.0196770865987
 31
0.0
1001
ACAD
1000
ASC_BOUNDS
1002
{
1070
    19
1002
}
  0
LINE
  5
339E3
330
747D
100
AcDbEntity
  8
文字
 48
0.5
100
AcDbLine
 10
18635.70013843678
 20
200.6822232941913
 30
0.0
 11
18635.70013843678
 21
198.0196770865987
 31
0.0
1001
ACAD
1000
ASC_BOUNDS
1002
{
1070
    19
1002
}
  0
LINE
  5
339E4
330
747D
100
AcDbEntity
  8
文字
 48
0.5
100
AcDbLine
 10
18620.80476204763
 20
200.6822232941913
 30
0.0
 11
18635.70013843678
 21
200.6822232941913
 31
0.0
1001
ACAD
1000
ASC_BOUNDS
1002
{
1070
    19
1002
}
  0
LINE
  5
339E5
330
747D
100
AcDbEntity
  8
文字
 48
0.5
100
AcDbLine
 10
18620.80476204763
 20
218.0418122693324
 30
0.0
 11
18620.80476204763
 21
200.6822232941913
 31
0.0
1001
ACAD
1000
ASC_BOUNDS
1002
{
1070
    19
1002
}
  0
LINE
  5
339E6
330
747D
100
AcDbEntity
  8
文字
 48
0.5
100
AcDbLine
 10
18595.67190238142
 20
200.6822232941913
 30
0.0
 11
18595.67190238142
 21
198.0196770865987
 31
0.0
1001
ACAD
1000
ASC_BOUNDS
1002
{
1070
    19
1002
}
  0
LINE
  5
339E7
330
747D
100
AcDbEntity
  8
文字
 48
0.5
100
AcDbLine
 10
18595.67190238142
 20
200.6822232941913
 30
0.0
 11
18618.55469035865
 21
200.6822232941913
 31
0.0
1001
ACAD
1000
ASC_BOUNDS
1002
{
1070
    19
1002
}
  0
LINE
  5
339E8
330
747D
100
AcDbEntity
  8
文字
 48
0.5
100
AcDbLine
 10
18620.80476204763
 20
218.0418122693324
 30
0.0
 11
18618.55469035865
 21
218.0418122693324
 31
0.0
1001
ACAD
1000
ASC_BOUNDS
1002
{
1070
    19
1002
}
  0
LINE
  5
339E9
330
747D
100
AcDbEntity
  8
文字
 48
0.5
100
AcDbLine
 10
18678.43550141577
 20
176.855030865055
 30
0.0
 11
18698.35627903882
 21
176.855030865055
 31
0.0
1001
ACAD
1000
ASC_BOUNDS
1002
{
1070
    19
1002
}
  0
LINE
  5
339EA
330
747D
100
AcDbEntity
  8
文字
 48
0.5
100
AcDbLine
 10
18678.43550141577
 20
179.6758686344311
 30
0.0
 11
18698.35627903882
 21
179.6758686344311
 31
0.0
1001
ACAD
1000
ASC_BOUNDS
1002
{
1070
    19
1002
}
  0
LINE
  5
339EB
330
747D
100
AcDbEntity
  8
文字
 48
0.5
100
AcDbLine
 10
18697.50455481159
 20
198.0196770865987
 30
0.0
 11
18678.43550141577
 21
198.0196770865987
 31
0.0
1001
ACAD
1000
ASC_BOUNDS
1002
{
1070
    19
1002
}
  0
LINE
  5
339EC
330
747D
100
AcDbEntity
  8
文字
 48
0.5
100
AcDbLine
 10
18678.43550141577
 20
200.6822232941913
 30
0.0
 11
18697.50455481159
 21
200.6822232941913
 31
0.0
1001
ACAD
1000
ASC_BOUNDS
1002
{
1070
    19
1002
}
  0
LINE
  5
339ED
330
747D
100
AcDbEntity
  8
文字
 48
0.5
100
AcDbLine
 10
18765.20883085461
 20
179.1640115394668
 30
0.0
 11
18754.18549895876
 21
179.1640115394668
 31
0.0
1001
ACAD
1000
ASC_BOUNDS
1002
{
1070
    19
1002
}
  0
LINE
  5
339EE
330
747D
100
AcDbEntity
  8
文字
 48
0.5
100
AcDbLine
 10
18747.81806260872
 20
179.1640115394668
 30
0.0
 11
18730.08481034343
 21
179.1640115394668
 31
0.0
1001
ACAD
1000
ASC_BOUNDS
1002
{
1070
    19
1002
}
  0
LINE
  5
339EF
330
747D
100
AcDbEntity
  8
文字
 48
0.5
100
AcDbLine
 10
18730.08481034343
 20
181.6862347014377
 30
0.0
 11
18730.08481034343
 21
179.1640115394668
 31
0.0
1001
ACAD
1000
ASC_BOUNDS
1002
{
1070
    19
1002
}
  0
LINE
  5
339F0
330
747D
100
AcDbEntity
  8
文字
 48
0.5
100
AcDbLine
 10
18730.08481034343
 20
181.6862347014377
 30
0.0
 11
18765.2088308546
 21
181.6862347014377
 31
0.0
1001
ACAD
1000
ASC_BOUNDS
1002
{
1070
    19
1002
}
  0
LINE
  5
339F1
330
747D
100
AcDbEntity
  8
文字
 48
0.5
100
AcDbLine
 10
18765.2088308546
 20
181.6862347014377
 30
0.0
 11
18765.20883085461
 21
179.1640115394668
 31
0.0
1001
ACAD
1000
ASC_BOUNDS
1002
{
1070
    19
1002
}
  0
LINE
  5
339F2
330
747D
100
AcDbEntity
  8
文字
 48
0.5
100
AcDbLine
 10
18725.77130369485
 20
202.6627120923757
 30
0.0
 11
18725.77130369484
 21
199.1827301331256
 31
0.0
1001
ACAD
1000
ASC_BOUNDS
1002
{
1070
    19
1002
}
  0
LINE
  5
339F3
330
747D
100
AcDbEntity
  8
文字
 48
0.5
100
AcDbLine
 10
18496.10464382159
 20
168.3951267527589
 30
0.0
 11
18498.26675067101
 21
168.3951267527589
 31
0.0
1001
ACAD
1000
ASC_BOUNDS
1002
{
1070
    19
1002
}
  0
LINE
  5
339F4
330
747D
100
AcDbEntity
  8
文字
 48
0.5
100
AcDbLine
 10
18498.26675067101
 20
168.3951267527589
 30
0.0
 11
18493.45550979553
 21
180.6537639036236
 31
0.0
1001
ACAD
1000
ASC_BOUNDS
1002
{
1070
    19
1002
}
  0
LINE
  5
339F5
330
747D
100
AcDbEntity
  8
文字
 48
0.5
100
AcDbLine
 10
18482.30506084701
 20
197.8692536948934
 30
0.0
 11
18474.05367325511
 21
208.0829541256322
 31
0.0
  0
LINE
  5
339F6
330
747D
100
AcDbEntity
  8
文字
 48
0.5
100
AcDbLine
 10
18477.94045578165
 20
198.2323399446004
 30
0.0
 11
18489.33920877901
 21
181.1484162099734
 31
0.0
1001
ACAD
1000
ASC_BOUNDS
1002
{
1070
    19
1002
}
  0
LINE
  5
339F7
330
747D
100
AcDbEntity
  8
文字
 48
0.5
100
AcDbLine
 10
18489.33920877901
 20
181.1484162099734
 30
0.0
 11
18495.57641665309
 21
170.2423836682299
 31
0.0
1001
ACAD
1000
ASC_BOUNDS
1002
{
1070
    19
1002
}
  0
LINE
  5
339F8
330
747D
100
AcDbEntity
  8
文字
 48
0.5
100
AcDbLine
 10
18495.57641665309
 20
170.2423836682299
 30
0.0
 11
18496.10464382159
 21
168.3951267527589
 31
0.0
1001
ACAD
1000
ASC_BOUNDS
1002
{
1070
    19
1002
}
  0
LINE
  5
339F9
330
747D
100
AcDbEntity
  8
文字
 48
0.5
100
AcDbLine
 10
18493.93888705716
 20
179.7065089325454
 30
0.0
 11
18482.30506084701
 21
197.8692536948934
 31
0.0
1001
ACAD
1000
ASC_BOUNDS
1002
{
1070
    19
1002
}
  0
LINE
  5
339FA
330
747D
100
AcDbEntity
  8
文字
 48
0.5
100
AcDbLine
 10
18464.67516216036
 20
222.3514655288365
 30
0.0
 11
18465.75561174358
 21
220.2823499197757
 31
0.0
  0
LINE
  5
339FB
330
747D
100
AcDbEntity
  8
文字
 48
0.5
100
AcDbLine
 10
18338.31423176518
 20
218.1882640946114
 30
0.0
 11
18336.66156205259
 21
218.3062102279683
 31
0.0
  0
LINE
  5
339FC
330
747D
100
AcDbEntity
  8
文字
 48
0.5
100
AcDbLine
 10
18342.68204830749
 20
239.7732093999473
 30
0.0
 11
18341.85567721639
 21
238.0039371094976
 31
0.0
  0
LINE
  5
339FD
330
747D
100
AcDbEntity
  8
文字
 48
0.5
100
AcDbLine
 10
18348.23032251034
 20
233.9936079951576
 30
0.0
 11
18344.33471802009
 21
233.049998783256
 31
0.0
  0
LINE
  5
339FE
330
747D
100
AcDbEntity
  8
文字
 48
0.5
100
AcDbLine
 10
18355.78535299521
 20
243.6655522358869
 30
0.0
 11
18354.13268328262
 21
241.5424415453601
 31
0.0
  0
LINE
  5
339FF
330
747D
100
AcDbEntity
  8
文字
 48
0.5
100
AcDbLine
 10
18358.50049982493
 20
230.1012651592212
 30
0.0
 11
18355.78535299521
 21
230.1012651592212
 31
0.0
  0
LINE
  5
33A00
330
747D
100
AcDbEntity
  8
文字
 48
0.5
100
AcDbLine
 10
18369.95113480006
 20
235.5269880189017
 30
0.0
 11
18367.11800742694
 21
235.6449341522545
 31
0.0
  0
LINE
  5
33A01
330
747D
100
AcDbEntity
  8
文字
 48
0.5
100
AcDbLine
 10
18381.16566374916
 20
241.7783739571164
 30
0.0
 11
18377.97837733698
 21
241.6603876787178
 31
0.0
  0
LINE
  5
33A02
330
747D
100
AcDbEntity
  8
文字
 48
0.5
100
AcDbLine
 10
18371.01353944757
 20
248.6194905621285
 30
0.0
 11
18368.41651810048
 21
247.0861105383942
 31
0.0
  0
LINE
  5
33A03
330
747D
100
AcDbEntity
  8
文字
 48
0.5
100
AcDbLine
 10
18460.53345083634
 20
214.2548528807183
 30
0.0
 11
18457.83236311314
 21
213.4452076739253
 31
0.0
  0
LINE
  5
33A04
330
747D
100
AcDbEntity
  8
文字
 48
0.5
100
AcDbLine
 10
18452.22321442844
 20
219.1480919034793
 30
0.0
 11
18448.89185840923
 21
218.9681618252871
 31
0.0
  0
LINE
  5
33A05
330
747D
100
AcDbEntity
  8
文字
 48
0.5
100
AcDbLine
 10
18454.47412086445
 20
230.4833255238145
 30
0.0
 11
18455.55457044765
 21
227.8744196802007
 31
0.0
  0
LINE
  5
33A06
330
747D
100
AcDbEntity
  8
文字
 48
0.5
100
AcDbLine
 10
18442.13913910122
 20
225.8952691102426
 30
0.0
 11
18437.54724649
 21
225.0856239034496
 31
0.0
  0
LINE
  5
33A07
330
747D
100
AcDbEntity
  8
文字
 48
0.5
100
AcDbLine
 10
18433.67570191399
 20
228.1443147974784
 30
0.0
 11
18434.93616603638
 21
228.1443147974784
 31
0.0
  0
LINE
  5
33A08
330
747D
100
AcDbEntity
  8
文字
 48
0.5
100
AcDbLine
 10
18437.0070579332
 20
235.1613871215211
 30
0.0
 11
18437.9974277772
 21
234.1718118365449
 31
0.0
  0
LINE
  5
33A09
330
747D
100
AcDbEntity
  8
文字
 48
0.5
100
AcDbLine
 10
18441.32878379642
 20
238.2201181605998
 30
0.0
 11
18442.85941466682
 21
236.1509624065022
 31
0.0
  0
LINE
  5
33A0A
330
747D
100
AcDbEntity
  8
文字
 48
0.5
100
AcDbLine
 10
18428.36353373718
 20
232.6424463170018
 30
0.0
 11
18426.65281585797
 21
232.3725511997216
 31
0.0
  0
LINE
  5
33A0B
330
747D
100
AcDbEntity
  8
文字
 48
0.5
100
AcDbLine
 10
18428.99380203318
 20
244.2475750546163
 30
0.0
 11
18430.52436043396
 21
241.9985293673788
 31
0.0
  0
LINE
  5
33A0C
330
747D
100
AcDbEntity
  8
文字
 48
0.5
100
AcDbLine
 10
18415.90259977222
 20
237.1405376914792
 30
0.0
 11
18412.7513307618
 21
235.9710323283149
 31
0.0
  0
LINE
  5
33A0D
330
747D
100
AcDbEntity
  8
文字
 48
0.5
100
AcDbLine
 10
18412.93141777062
 20
247.5761610659295
 30
0.0
 11
18415.99267951142
 21
246.5865857809524
 31
0.0
  0
LINE
  5
33A0E
330
747D
100
AcDbEntity
  8
文字
 48
0.5
100
AcDbLine
 10
18399.87608797216
 20
242.178459445562
 30
0.0
 11
18401.58680585139
 21
242.0884944064676
 31
0.0
  0
LINE
  5
33A0F
330
747D
100
AcDbEntity
  8
文字
 48
0.5
100
AcDbLine
 10
18731.52267760038
 20
143.3519300925787
 30
0.0
 11
18731.52267760038
 21
141.7138460872455
 31
0.0
1001
ACAD
1000
ASC_BOUNDS
1002
{
1070
    19
1002
}
  0
LINE
  5
33A10
330
747D
100
AcDbEntity
  8
文字
 48
0.5
100
AcDbLine
 10
18731.52267760038
 20
141.7138460872455
 30
0.0
 11
18766.16737731849
 21
146.8151694239914
 31
0.0
1001
ACAD
1000
ASC_BOUNDS
1002
{
1070
    19
1002
}
  0
LINE
  5
33A11
330
747D
100
AcDbEntity
  8
文字
 48
0.5
100
AcDbLine
 10
18706.10009170254
 20
70.19253950502605
 30
0.0
 11
18702.67261036332
 21
67.03647963529483
 31
0.0
1001
ACAD
1000
ASC_BOUNDS
1002
{
1070
    19
1002
}
  0
LINE
  5
33A12
330
747D
100
AcDbEntity
  8
文字
 48
0.5
100
AcDbLine
 10
18659.38070709838
 20
109.8706157209361
 30
0.0
 11
18637.04876925982
 21
109.8706157209361
 31
0.0
1001
ACAD
1000
ASC_BOUNDS
1002
{
1070
    19
1002
}
  0
LINE
  5
33A13
330
747D
100
AcDbEntity
  8
文字
 48
0.5
100
AcDbLine
 10
18631.96329063136
 20
114.6932305012072
 30
0.0
 11
18664.30940132237
 21
114.6932305012072
 31
0.0
1001
ACAD
1000
ASC_BOUNDS
1002
{
1070
    19
1002
}
  0
LINE
  5
33A14
330
747D
100
AcDbEntity
  8
文字
 48
0.5
100
AcDbLine
 10
18678.43550141577
 20
137.4726277671458
 30
0.0
 11
18676.18552484901
 21
137.4726277671458
 31
0.0
1001
ACAD
1000
ASC_BOUNDS
1002
{
1070
    19
1002
}
  0
LINE
  5
33A15
330
747D
100
AcDbEntity
  8
文字
 48
0.5
100
AcDbLine
 10
18595.53497254727
 20
141.0234912368399
 30
0.0
 11
18596.50942599179
 21
140.4555338471298
 31
0.0
1001
ACAD
1000
ASC_BOUNDS
1002
{
1070
    19
1002
}
  0
LINE
  5
33A16
330
747D
100
AcDbEntity
  8
文字
 48
0.5
100
AcDbLine
 10
18620.80476204763
 20
137.4726277671458
 30
0.0
 11
18618.55469035865
 21
137.4726277671458
 31
0.0
1001
ACAD
1000
ASC_BOUNDS
1002
{
1070
    19
1002
}
  0
LINE
  5
33A17
330
747D
100
AcDbEntity
  8
文字
 48
0.5
100
AcDbLine
 10
18691.55846575157
 20
54.99961515400094
 30
0.0
 11
18691.55846575157
 21
59.15850140155544
 31
0.0
1001
ACAD
1000
ASC_BOUNDS
1002
{
1070
    19
1002
}
  0
LINE
  5
33A18
330
747D
100
AcDbEntity
  8
文字
 48
0.5
100
AcDbLine
 10
18628.57926372453
 20
54.99961515400094
 30
0.0
 11
18622.81245984291
 21
44.05166898978206
 31
0.0
1001
ACAD
1000
ASC_BOUNDS
1002
{
1070
    19
1002
}
  0
LINE
  5
33A19
330
747D
100
AcDbEntity
  8
文字
 48
0.5
100
AcDbLine
 10
18622.81245984291
 20
44.05166898978206
 30
0.0
 11
18622.32643977436
 21
38.71000816577743
 31
0.0
1001
ACAD
1000
ASC_BOUNDS
1002
{
1070
    19
1002
}
  0
LINE
  5
33A1A
330
747D
100
AcDbEntity
  8
文字
 48
0.5
100
AcDbLine
 10
18686.09128647884
 20
36.66231753491627
 30
0.0
 11
18674.93596367066
 21
54.99961515400094
 31
0.0
1001
ACAD
1000
ASC_BOUNDS
1002
{
1070
    19
1002
}
  0
LINE
  5
33A1B
330
747D
100
AcDbEntity
  8
文字
 48
0.5
100
AcDbLine
 10
18677.96620513282
 20
43.47100059925168
 30
0.0
 11
18671.62025062761
 21
54.99961515400094
 31
0.0
1001
ACAD
1000
ASC_BOUNDS
1002
{
1070
    19
1002
}
  0
LINE
  5
33A1C
330
747D
100
AcDbEntity
  8
文字
 48
0.5
100
AcDbLine
 10
18677.51583085387
 20
37.1712165368518
 30
0.0
 11
18677.96620513282
 21
43.47100059925168
 31
0.0
1001
ACAD
1000
ASC_BOUNDS
1002
{
1070
    19
1002
}
  0
LINE
  5
33A1D
330
747D
100
AcDbEntity
  8
文字
 48
0.5
100
AcDbLine
 10
18604.12683960906
 20
54.99961515400094
 30
0.0
 11
18621.22161694534
 21
54.99961515400094
 31
0.0
1001
ACAD
1000
ASC_BOUNDS
1002
{
1070
    19
1002
}
  0
LINE
  5
33A1E
330
747D
100
AcDbEntity
  8
文字
 48
0.5
100
AcDbLine
 10
18628.57926372453
 20
54.99961515400094
 30
0.0
 11
18671.62025062761
 21
54.99961515400094
 31
0.0
1001
ACAD
1000
ASC_BOUNDS
1002
{
1070
    19
1002
}
  0
LINE
  5
33A1F
330
747D
100
AcDbEntity
  8
文字
 48
0.5
100
AcDbLine
 10
18604.12683960906
 20
59.15850140155544
 30
0.0
 11
18604.12683960906
 21
54.99961515400094
 31
0.0
1001
ACAD
1000
ASC_BOUNDS
1002
{
1070
    19
1002
}
  0
LINE
  5
33A20
330
747D
100
AcDbEntity
  8
文字
 48
0.5
100
AcDbLine
 10
18620.95605043416
 20
78.45253346681364
 30
0.0
 11
18673.84347694972
 21
78.45253346681364
 31
0.0
1001
ACAD
1000
ASC_BOUNDS
1002
{
1070
    19
1002
}
  0
LINE
  5
33A21
330
747D
100
AcDbEntity
  8
文字
 48
0.5
100
AcDbLine
 10
18620.95605043416
 20
82.83268012313181
 30
0.0
 11
18620.95605043416
 21
78.45253346681364
 31
0.0
1001
ACAD
1000
ASC_BOUNDS
1002
{
1070
    19
1002
}
  0
LINE
  5
33A22
330
747D
100
AcDbEntity
  8
文字
 48
0.5
100
AcDbLine
 10
18673.84347694972
 20
82.83268012313181
 30
0.0
 11
18620.95605043416
 21
82.83268012313181
 31
0.0
1001
ACAD
1000
ASC_BOUNDS
1002
{
1070
    19
1002
}
  0
LINE
  5
33A23
330
747D
100
AcDbEntity
  8
文字
 48
0.5
100
AcDbLine
 10
18673.84347694972
 20
78.45253346681364
 30
0.0
 11
18673.84347694972
 21
82.83268012313181
 31
0.0
1001
ACAD
1000
ASC_BOUNDS
1002
{
1070
    19
1002
}
  0
LINE
  5
33A24
330
747D
100
AcDbEntity
  8
文字
 48
0.5
100
AcDbLine
 10
18595.43158997503
 20
64.89337102861828
 30
0.0
 11
18591.69237278617
 21
67.81434581858395
 31
0.0
1001
ACAD
1000
ASC_BOUNDS
1002
{
1070
    19
1002
}
  0
LINE
  5
33A25
330
747D
100
AcDbEntity
  8
文字
 48
0.5
100
AcDbLine
 10
18626.00508078487
 20
32.82925046833469
 30
0.0
 11
18674.25664696334
 21
32.82925046833469
 31
0.0
1001
ACAD
1000
ASC_BOUNDS
1002
{
1070
    19
1002
}
  0
LINE
  5
33A26
330
747D
100
AcDbEntity
  8
文字
 48
0.5
100
AcDbLine
 10
18613.20577850419
 20
30.97210207612432
 30
0.0
 11
18613.20577850418
 21
29.21648436192646
 31
0.0
1001
ACAD
1000
ASC_BOUNDS
1002
{
1070
    19
1002
}
  0
LINE
  5
33A27
330
747D
100
AcDbEntity
  8
文字
 48
0.5
100
AcDbLine
 10
18613.20577850418
 20
29.21648436192646
 30
0.0
 11
18614.1811219834
 21
28.891624629543
 31
0.0
1001
ACAD
1000
ASC_BOUNDS
1002
{
1070
    19
1002
}
  0
LINE
  5
33A28
330
747D
100
AcDbEntity
  8
文字
 48
0.5
100
AcDbLine
 10
18614.1811219834
 20
28.891624629543
 30
0.0
 11
18683.52709056436
 21
28.891624629543
 31
0.0
1001
ACAD
1000
ASC_BOUNDS
1002
{
1070
    19
1002
}
  0
LINE
  5
33A29
330
747D
100
AcDbEntity
  8
文字
 48
0.5
100
AcDbLine
 10
18686.64764738014
 20
31.57252903782944
 30
0.0
 11
18686.49202035069
 21
34.52691046946512
 31
0.0
1001
ACAD
1000
ASC_BOUNDS
1002
{
1070
    19
1002
}
  0
LINE
  5
33A2A
330
747D
100
AcDbEntity
  8
文字
 48
0.5
100
AcDbLine
 10
18686.22272232083
 20
30.04411092451699
 30
0.0
 11
18686.64764738014
 21
31.57252903782944
 31
0.0
1001
ACAD
1000
ASC_BOUNDS
1002
{
1070
    19
1002
}
  0
LINE
  5
33A2B
330
747D
100
AcDbEntity
  8
文字
 48
0.5
100
AcDbLine
 10
18685.38785181516
 20
29.32910895261839
 30
0.0
 11
18686.22272232083
 21
30.04411092451699
 31
0.0
1001
ACAD
1000
ASC_BOUNDS
1002
{
1070
    19
1002
}
  0
LINE
  5
33A2C
330
747D
100
AcDbEntity
  8
文字
 48
0.5
100
AcDbLine
 10
18683.52709056436
 20
28.891624629543
 30
0.0
 11
18685.38785181516
 21
29.32910895261839
 31
0.0
1001
ACAD
1000
ASC_BOUNDS
1002
{
1070
    19
1002
}
  0
LINE
  5
33A2D
330
747D
100
AcDbEntity
  8
文字
 48
0.5
100
AcDbLine
 10
18622.32643977436
 20
38.71000816577743
 30
0.0
 11
18626.00508078487
 21
32.82925046833469
 31
0.0
1001
ACAD
1000
ASC_BOUNDS
1002
{
1070
    19
1002
}
  0
LINE
  5
33A2E
330
747D
100
AcDbEntity
  8
文字
 48
0.5
100
AcDbLine
 10
18621.22161694534
 20
54.99961515400094
 30
0.0
 11
18613.20577850419
 21
30.97210207612432
 31
0.0
1001
ACAD
1000
ASC_BOUNDS
1002
{
1070
    19
1002
}
  0
LINE
  5
33A2F
330
747D
100
AcDbEntity
  8
文字
 48
0.5
100
AcDbLine
 10
18686.49202035069
 20
34.52691046946512
 30
0.0
 11
18686.09128647884
 21
36.66231753491627
 31
0.0
1001
ACAD
1000
ASC_BOUNDS
1002
{
1070
    19
1002
}
  0
LINE
  5
33A30
330
747D
100
AcDbEntity
  8
文字
 48
0.5
100
AcDbLine
 10
18674.25664696334
 20
32.82925046833469
 30
0.0
 11
18677.51583085387
 21
37.1712165368518
 31
0.0
1001
ACAD
1000
ASC_BOUNDS
1002
{
1070
    19
1002
}
  0
LINE
  5
33A31
330
747D
100
AcDbEntity
  8
文字
 48
0.5
100
AcDbLine
 10
18674.93596367066
 20
54.99961515400094
 30
0.0
 11
18691.55846575157
 21
54.99961515400094
 31
0.0
1001
ACAD
1000
ASC_BOUNDS
1002
{
1070
    19
1002
}
  0
LINE
  5
33A32
330
747D
100
AcDbEntity
  8
文字
 48
0.5
100
AcDbLine
 10
18691.55846575157
 20
59.15850140155544
 30
0.0
 11
18604.12683960906
 21
59.15850140155544
 31
0.0
1001
ACAD
1000
ASC_BOUNDS
1002
{
1070
    19
1002
}
  0
LINE
  5
33A33
330
747D
100
AcDbEntity
  8
文字
 48
0.5
100
AcDbLine
 10
18637.04876925982
 20
109.8706157209361
 30
0.0
 11
18595.43158997503
 21
64.89337102861828
 31
0.0
1001
ACAD
1000
ASC_BOUNDS
1002
{
1070
    19
1002
}
  0
LINE
  5
33A34
330
747D
100
AcDbEntity
  8
文字
 48
0.5
100
AcDbLine
 10
18591.69237278617
 20
67.81434581858395
 30
0.0
 11
18631.96329063136
 21
114.6932305012072
 31
0.0
1001
ACAD
1000
ASC_BOUNDS
1002
{
1070
    19
1002
}
  0
LINE
  5
33A35
330
747D
100
AcDbEntity
  8
文字
 48
0.5
100
AcDbLine
 10
18664.30940132237
 20
114.6932305012072
 30
0.0
 11
18706.10009170254
 21
70.19253950502605
 31
0.0
1001
ACAD
1000
ASC_BOUNDS
1002
{
1070
    19
1002
}
  0
LINE
  5
33A36
330
747D
100
AcDbEntity
  8
文字
 48
0.5
100
AcDbLine
 10
18702.67261036332
 20
67.03647963529483
 30
0.0
 11
18659.38070709838
 21
109.8706157209361
 31
0.0
1001
ACAD
1000
ASC_BOUNDS
1002
{
1070
    19
1002
}
  0
LINE
  5
33A37
330
747D
100
AcDbEntity
  8
文字
 48
0.5
100
AcDbLine
 10
18744.08304513346
 20
111.3744297568593
 30
0.0
 11
18740.35467925026
 21
111.3744297568593
 31
0.0
1001
ACAD
1000
ASC_BOUNDS
1002
{
1070
    19
1002
}
  0
LINE
  5
33A38
330
747D
100
AcDbEntity
  8
文字
 48
0.5
100
AcDbLine
 10
18761.44786705723
 20
95.89901161372381
 30
0.0
 11
18761.44786705723
 21
96.85981646528956
 31
0.0
1001
ACAD
1000
ASC_BOUNDS
1002
{
1070
    19
1002
}
  0
LINE
  5
33A39
330
747D
100
AcDbEntity
  8
文字
 48
0.5
100
AcDbLine
 10
18760.69993286703
 20
96.85981646528956
 30
0.0
 11
18761.44786705723
 21
95.89901161372381
 31
0.0
1001
ACAD
1000
ASC_BOUNDS
1002
{
1070
    19
1002
}
  0
LINE
  5
33A3A
330
747D
100
AcDbEntity
  8
文字
 48
0.5
100
AcDbLine
 10
18761.44786705723
 20
96.85981646528956
 30
0.0
 11
18760.69993286703
 21
96.85981646528956
 31
0.0
1001
ACAD
1000
ASC_BOUNDS
1002
{
1070
    19
1002
}
  0
LINE
  5
33A3B
330
747D
100
AcDbEntity
  8
文字
 48
0.5
100
AcDbLine
 10
18723.0196994089
 20
54.41014860232542
 30
0.0
 11
18740.35467925025
 21
68.08426031519013
 31
0.0
1001
ACAD
1000
ASC_BOUNDS
1002
{
1070
    19
1002
}
  0
LINE
  5
33A3C
330
747D
100
AcDbEntity
  8
文字
 48
0.5
100
AcDbLine
 10
18720.70687545426
 20
57.10620424128302
 30
0.0
 11
18723.0196994089
 21
54.41014860232542
 31
0.0
1001
ACAD
1000
ASC_BOUNDS
1002
{
1070
    19
1002
}
  0
LINE
  5
33A3D
330
747D
100
AcDbEntity
  8
文字
 48
0.5
100
AcDbLine
 10
18756.2595686739
 20
86.8800138671428
 30
0.0
 11
18720.70687545426
 21
57.10620424128302
 31
0.0
1001
ACAD
1000
ASC_BOUNDS
1002
{
1070
    19
1002
}
  0
LINE
  5
33A3E
330
747D
100
AcDbEntity
  8
文字
 48
0.5
100
AcDbLine
 10
18760.4379967886
 20
56.46592557687757
 30
0.0
 11
18742.82509692917
 21
71.55021649551628
 31
0.0
1001
ACAD
1000
ASC_BOUNDS
1002
{
1070
    19
1002
}
  0
LINE
  5
33A3F
330
747D
100
AcDbEntity
  8
文字
 48
0.5
100
AcDbLine
 10
18758.32175283597
 20
54.25533182739219
 30
0.0
 11
18760.4379967886
 21
56.46592557687757
 31
0.0
1001
ACAD
1000
ASC_BOUNDS
1002
{
1070
    19
1002
}
  0
LINE
  5
33A40
330
747D
100
AcDbEntity
  8
文字
 48
0.5
100
AcDbLine
 10
18744.30448962765
 20
66.86045404472196
 30
0.0
 11
18758.32175283597
 21
54.25533182739219
 31
0.0
1001
ACAD
1000
ASC_BOUNDS
1002
{
1070
    19
1002
}
  0
LINE
  5
33A41
330
747D
100
AcDbEntity
  8
文字
 48
0.5
100
AcDbLine
 10
18742.82509692917
 20
71.55021649551628
 30
0.0
 11
18766.89106705724
 21
91.29339036063129
 31
0.0
1001
ACAD
1000
ASC_BOUNDS
1002
{
1070
    19
1002
}
  0
LINE
  5
33A42
330
747D
100
AcDbEntity
  8
文字
 48
0.5
100
AcDbLine
 10
18757.34590379506
 20
92.30717415495872
 30
0.0
 11
18756.2595686739
 21
86.8800138671428
 31
0.0
1001
ACAD
1000
ASC_BOUNDS
1002
{
1070
    19
1002
}
  0
LINE
  5
33A43
330
747D
100
AcDbEntity
  8
文字
 48
0.5
100
AcDbLine
 10
18752.98740895228
 20
97.90614669198767
 30
0.0
 11
18757.34590379506
 21
92.30717415495872
 31
0.0
1001
ACAD
1000
ASC_BOUNDS
1002
{
1070
    19
1002
}
  0
LINE
  5
33A44
330
747D
100
AcDbEntity
  8
文字
 48
0.5
100
AcDbLine
 10
18748.02377025223
 20
98.80791144403964
 30
0.0
 11
18752.98740895228
 21
97.90614669198767
 31
0.0
1001
ACAD
1000
ASC_BOUNDS
1002
{
1070
    19
1002
}
  0
LINE
  5
33A45
330
747D
100
AcDbEntity
  8
文字
 48
0.5
100
AcDbLine
 10
18723.74691291935
 20
98.80791144403964
 30
0.0
 11
18748.02377025223
 21
98.80791144403964
 31
0.0
1001
ACAD
1000
ASC_BOUNDS
1002
{
1070
    19
1002
}
  0
LINE
  5
33A46
330
747D
100
AcDbEntity
  8
文字
 48
0.5
100
AcDbLine
 10
18766.89106705724
 20
91.29339036063129
 30
0.0
 11
18766.89106705724
 21
98.12950072574961
 31
0.0
1001
ACAD
1000
ASC_BOUNDS
1002
{
1070
    19
1002
}
  0
LINE
  5
33A47
330
747D
100
AcDbEntity
  8
文字
 48
0.5
100
AcDbLine
 10
18766.89106705724
 20
98.12950072574961
 30
0.0
 11
18766.32399094471
 21
99.64050980476907
 31
0.0
1001
ACAD
1000
ASC_BOUNDS
1002
{
1070
    19
1002
}
  0
LINE
  5
33A48
330
747D
100
AcDbEntity
  8
文字
 48
0.5
100
AcDbLine
 10
18766.32399094471
 20
99.64050980476907
 30
0.0
 11
18764.75114269277
 21
101.2120756249737
 31
0.0
1001
ACAD
1000
ASC_BOUNDS
1002
{
1070
    19
1002
}
  0
LINE
  5
33A49
330
747D
100
AcDbEntity
  8
文字
 48
0.5
100
AcDbLine
 10
18764.75114269277
 20
101.2120756249737
 30
0.0
 11
18763.43726017509
 21
102.2219236321877
 31
0.0
1001
ACAD
1000
ASC_BOUNDS
1002
{
1070
    19
1002
}
  0
LINE
  5
33A4A
330
747D
100
AcDbEntity
  8
文字
 48
0.5
100
AcDbLine
 10
18763.43726017509
 20
102.2219236321877
 30
0.0
 11
18762.38221112278
 21
102.3030164652893
 31
0.0
1001
ACAD
1000
ASC_BOUNDS
1002
{
1070
    19
1002
}
  0
LINE
  5
33A4B
330
747D
100
AcDbEntity
  8
文字
 48
0.5
100
AcDbLine
 10
18762.38221112278
 20
102.3030164652893
 30
0.0
 11
18744.08304513345
 21
102.3030164652893
 31
0.0
1001
ACAD
1000
ASC_BOUNDS
1002
{
1070
    19
1002
}
  0
LINE
  5
33A4C
330
747D
100
AcDbEntity
  8
文字
 48
0.5
100
AcDbLine
 10
18723.74691291935
 20
102.3030164652893
 30
0.0
 11
18723.74691291935
 21
98.80791144403964
 31
0.0
1001
ACAD
1000
ASC_BOUNDS
1002
{
1070
    19
1002
}
  0
LINE
  5
33A4D
330
747D
100
AcDbEntity
  8
文字
 48
0.5
100
AcDbLine
 10
18740.35467925024
 20
102.3030164652893
 30
0.0
 11
18723.74691291935
 21
102.3030164652893
 31
0.0
1001
ACAD
1000
ASC_BOUNDS
1002
{
1070
    19
1002
}
  0
LINE
  5
33A4E
330
747D
100
AcDbEntity
  8
文字
 48
0.5
100
AcDbLine
 10
18740.35467925025
 20
29.77661357103153
 30
0.0
 11
18744.30448962765
 21
29.77661357103153
 31
0.0
1001
ACAD
1000
ASC_BOUNDS
1002
{
1070
    19
1002
}
  0
LINE
  5
33A4F
330
747D
100
AcDbEntity
  8
文字
 48
0.5
100
AcDbLine
 10
18744.30448962765
 20
29.77661357103153
 30
0.0
 11
18744.30448962765
 21
66.86045404472196
 31
0.0
1001
ACAD
1000
ASC_BOUNDS
1002
{
1070
    19
1002
}
  0
LINE
  5
33A50
330
747D
100
AcDbEntity
  8
文字
 48
0.5
100
AcDbLine
 10
18740.35467925025
 20
68.08426031519013
 30
0.0
 11
18740.35467925025
 21
29.77661357103153
 31
0.0
1001
ACAD
1000
ASC_BOUNDS
1002
{
1070
    19
1002
}
  0
LINE
  5
33A51
330
747D
100
AcDbEntity
  8
文字
 48
0.5
100
AcDbLine
 10
18744.08304513345
 20
102.3030164652893
 30
0.0
 11
18744.08304513346
 21
111.3744297568593
 31
0.0
1001
ACAD
1000
ASC_BOUNDS
1002
{
1070
    19
1002
}
  0
LINE
  5
33A52
330
747D
100
AcDbEntity
  8
文字
 48
0.5
100
AcDbLine
 10
18740.35467925026
 20
111.3744297568593
 30
0.0
 11
18740.35467925024
 21
102.3030164652893
 31
0.0
1001
ACAD
1000
ASC_BOUNDS
1002
{
1070
    19
1002
}
  0
LINE
  5
33A53
330
747D
100
AcDbEntity
  8
文字
 48
0.5
100
AcDbLine
 10
18697.4626003348
 20
146.2711217408088
 30
0.0
 11
18696.29050772787
 21
145.1557583519611
 31
0.0
1001
ACAD
1000
ASC_BOUNDS
1002
{
1070
    19
1002
}
  0
LINE
  5
33A54
330
747D
100
AcDbEntity
  8
文字
 48
0.5
100
AcDbLine
 10
18650.96734256232
 20
149.5669158118232
 30
0.0
 11
18652.6742614987
 21
147.7801842751578
 31
0.0
1001
ACAD
1000
ASC_BOUNDS
1002
{
1070
    19
1002
}
  0
LINE
  5
33A55
330
747D
100
AcDbEntity
  8
文字
 48
0.5
100
AcDbLine
 10
18754.18549895876
 20
147.642396388245
 30
0.0
 11
18766.1673773185
 21
149.9107743826836
 31
0.0
1001
ACAD
1000
ASC_BOUNDS
1002
{
1070
    19
1002
}
  0
LINE
  5
33A56
330
747D
100
AcDbEntity
  8
文字
 48
0.5
100
AcDbLine
 10
18731.52267760038
 20
143.3519300925787
 30
0.0
 11
18747.81806260872
 21
146.4369299276665
 31
0.0
1001
ACAD
1000
ASC_BOUNDS
1002
{
1070
    19
1002
}
  0
LINE
  5
33A57
330
747D
100
AcDbEntity
  8
文字
 48
0.5
100
AcDbLine
 10
18766.1673773185
 20
149.9107743826836
 30
0.0
 11
18766.16737731849
 21
146.8151694239914
 31
0.0
1001
ACAD
1000
ASC_BOUNDS
1002
{
1070
    19
1002
}
  0
LINE
  5
33A58
330
747D
100
AcDbEntity
  8
文字
 48
0.5
100
AcDbLine
 10
18509.00789886891
 20
114.7849216052245
 30
0.0
 11
18476.23432450339
 21
114.7849216052294
 31
0.0
  0
ARC
  5
33A59
330
747D
100
AcDbEntity
  8
文字
 48
0.5
100
AcDbCircle
 10
18485.75004280843
 20
93.99692920646538
 30
0.0
 40
21.16085652998149
100
AcDbArc
 50
289.4125991682901
 51
79.22825438806707
1001
ACAD
1000
ASC_BOUNDS
1002
{
1070
    19
1002
}
  0
ARC
  5
33A5A
330
747D
100
AcDbEntity
  8
文字
 48
0.5
100
AcDbCircle
 10
18485.75001646164
 20
135.0656591040061
 30
0.0
 40
21.16088287677571
100
AcDbArc
 50
286.5830671361221
 51
66.12996623032585
1001
ACAD
1000
ASC_BOUNDS
1002
{
1070
    19
1002
}
  0
LINE
  5
33A5B
330
747D
100
AcDbEntity
  8
文字
 48
0.5
100
AcDbLine
 10
18513.8939958273
 20
74.03907596328446
 30
0.0
 11
18444.43764156568
 21
74.03907596328446
 31
0.0
1001
ACAD
1000
ASC_BOUNDS
1002
{
1070
    19
1002
}
  0
LINE
  5
33A5C
330
747D
100
AcDbEntity
  8
文字
 48
0.5
100
AcDbLine
 10
18447.07218322536
 20
154.4165611639482
 30
0.0
 11
18514.4510988689
 21
154.4165611639482
 31
0.0
1001
ACAD
1000
ASC_BOUNDS
1002
{
1070
    19
1002
}
  0
LINE
  5
33A5D
330
747D
100
AcDbEntity
  8
文字
 48
0.5
100
AcDbLine
 10
18476.23432450339
 20
154.4165611639482
 30
0.0
 11
18476.23432450339
 21
74.03907596328446
 31
0.0
1001
ACAD
1000
ASC_BOUNDS
1002
{
1070
    19
1002
}
  0
LINE
  5
33A5E
330
747D
100
AcDbEntity
  8
文字
 48
0.5
100
AcDbLine
 10
18465.34792450339
 20
154.4165611639482
 30
0.0
 11
18465.34792450337
 21
74.03907596328446
 31
0.0
1001
ACAD
1000
ASC_BOUNDS
1002
{
1070
    19
1002
}
  0
LINE
  5
33A5F
330
747D
100
AcDbEntity
  8
文字
 48
0.5
100
AcDbLine
 10
18356.67088814526
 20
154.4165611639482
 30
0.0
 11
18409.39078725713
 21
80.66960770862044
 31
0.0
1001
ACAD
1000
ASC_BOUNDS
1002
{
1070
    19
1002
}
  0
LINE
  5
33A60
330
747D
100
AcDbEntity
  8
文字
 48
0.5
100
AcDbLine
 10
18356.43122910758
 20
154.4165611639482
 30
0.0
 11
18356.4312291076
 21
74.03907596328446
 31
0.0
1001
ACAD
1000
ASC_BOUNDS
1002
{
1070
    19
1002
}
  0
LINE
  5
33A61
330
747D
100
AcDbEntity
  8
文字
 48
0.5
100
AcDbLine
 10
18409.39078725714
 20
154.4165611639482
 30
0.0
 11
18409.39078725713
 21
74.03907596328446
 31
0.0
1001
ACAD
1000
ASC_BOUNDS
1002
{
1070
    19
1002
}
  0
LINE
  5
33A62
330
747D
100
AcDbEntity
  8
文字
 48
0.5
100
AcDbLine
 10
18453.62962281251
 20
150.6306216531113
 30
0.0
 11
18453.62962281251
 21
79.34606881052343
 31
0.0
1001
ACAD
1000
ASC_BOUNDS
1002
{
1070
    19
1002
}
  0
LINE
  5
33A63
330
747D
100
AcDbEntity
  8
文字
 48
0.5
100
AcDbLine
 10
18402.88554087144
 20
150.6306216531096
 30
0.0
 11
18402.88554087144
 21
99.12915645773654
 31
0.0
1001
ACAD
1000
ASC_BOUNDS
1002
{
1070
    19
1002
}
  0
LINE
  5
33A64
330
747D
100
AcDbEntity
  8
文字
 48
0.5
100
AcDbLine
 10
18414.83398725713
 20
151.2165506599599
 30
0.0
 11
18414.83398725713
 21
78.7601398036748
 31
0.0
1001
ACAD
1000
ASC_BOUNDS
1002
{
1070
    19
1002
}
  0
LINE
  5
33A65
330
747D
100
AcDbEntity
  8
文字
 48
0.5
100
AcDbLine
 10
18363.36192312586
 20
154.4165611639482
 30
0.0
 11
18402.88554087144
 21
99.12915645773654
 31
0.0
1001
ACAD
1000
ASC_BOUNDS
1002
{
1070
    19
1002
}
  0
LINE
  5
33A66
330
747D
100
AcDbEntity
  8
文字
 48
0.5
100
AcDbLine
 10
18345.54482910759
 20
150.3376296902607
 30
0.0
 11
18345.54482910759
 21
79.63906077336742
 31
0.0
1001
ACAD
1000
ASC_BOUNDS
1002
{
1070
    19
1002
}
  0
LINE
  5
33A67
330
747D
100
AcDbEntity
  8
文字
 48
0.5
100
AcDbLine
 10
18444.43764156568
 20
74.03907596328446
 30
0.0
 11
18453.62962281251
 21
79.34606881052343
 31
0.0
1001
ACAD
1000
ASC_BOUNDS
1002
{
1070
    19
1002
}
  0
LINE
  5
33A68
330
747D
100
AcDbEntity
  8
文字
 48
0.5
100
AcDbLine
 10
18423.01110969448
 20
74.03907596328446
 30
0.0
 11
18414.83398725713
 21
78.7601398036748
 31
0.0
1001
ACAD
1000
ASC_BOUNDS
1002
{
1070
    19
1002
}
  0
LINE
  5
33A69
330
747D
100
AcDbEntity
  8
文字
 48
0.5
100
AcDbLine
 10
18423.01110969448
 20
74.03907596328446
 30
0.0
 11
18400.82632339277
 21
74.03907596328446
 31
0.0
1001
ACAD
1000
ASC_BOUNDS
1002
{
1070
    19
1002
}
  0
LINE
  5
33A6A
330
747D
100
AcDbEntity
  8
文字
 48
0.5
100
AcDbLine
 10
18373.28198168511
 20
74.03907596328446
 30
0.0
 11
18366.62719502311
 21
77.88121883398464
 31
0.0
1001
ACAD
1000
ASC_BOUNDS
1002
{
1070
    19
1002
}
  0
LINE
  5
33A6B
330
747D
100
AcDbEntity
  8
文字
 48
0.5
100
AcDbLine
 10
18361.87442910759
 20
139.2321726643361
 30
0.0
 11
18407.46863507351
 21
74.03907596328446
 31
0.0
1001
ACAD
1000
ASC_BOUNDS
1002
{
1070
    19
1002
}
  0
LINE
  5
33A6C
330
747D
100
AcDbEntity
  8
文字
 48
0.5
100
AcDbLine
 10
18366.62719502311
 20
122.9388656550324
 30
0.0
 11
18400.82632339277
 21
74.03907596328446
 31
0.0
1001
ACAD
1000
ASC_BOUNDS
1002
{
1070
    19
1002
}
  0
LINE
  5
33A6D
330
747D
100
AcDbEntity
  8
文字
 48
0.5
100
AcDbLine
 10
18366.62719502311
 20
122.9388656550324
 30
0.0
 11
18366.62719502311
 21
77.88121883398464
 31
0.0
1001
ACAD
1000
ASC_BOUNDS
1002
{
1070
    19
1002
}
  0
LINE
  5
33A6E
330
747D
100
AcDbEntity
  8
文字
 48
0.5
100
AcDbLine
 10
18447.07218322536
 20
154.4165611639482
 30
0.0
 11
18453.62962281251
 21
150.6306216531113
 31
0.0
1001
ACAD
1000
ASC_BOUNDS
1002
{
1070
    19
1002
}
  0
LINE
  5
33A6F
330
747D
100
AcDbEntity
  8
文字
 48
0.5
100
AcDbLine
 10
18396.32810128428
 20
154.4165611639482
 30
0.0
 11
18402.88554087144
 21
150.6306216531096
 31
0.0
1001
ACAD
1000
ASC_BOUNDS
1002
{
1070
    19
1002
}
  0
LINE
  5
33A70
330
747D
100
AcDbEntity
  8
文字
 48
0.5
100
AcDbLine
 10
18396.32810128428
 20
154.4165611639482
 30
0.0
 11
18420.37656803482
 21
154.4165611639482
 31
0.0
1001
ACAD
1000
ASC_BOUNDS
1002
{
1070
    19
1002
}
  0
LINE
  5
33A71
330
747D
100
AcDbEntity
  8
文字
 48
0.5
100
AcDbLine
 10
18420.37656803482
 20
154.4165611639482
 30
0.0
 11
18414.83398725713
 21
151.2165506599599
 31
0.0
1001
ACAD
1000
ASC_BOUNDS
1002
{
1070
    19
1002
}
  0
LINE
  5
33A72
330
747D
100
AcDbEntity
  8
文字
 48
0.5
100
AcDbLine
 10
18338.47991255457
 20
154.4165611639482
 30
0.0
 11
18345.54482910759
 21
150.3376296902607
 31
0.0
1001
ACAD
1000
ASC_BOUNDS
1002
{
1070
    19
1002
}
  0
LINE
  5
33A73
330
747D
100
AcDbEntity
  8
文字
 48
0.5
100
AcDbLine
 10
18338.47991255457
 20
154.4165611639482
 30
0.0
 11
18363.36192312586
 21
154.4165611639482
 31
0.0
1001
ACAD
1000
ASC_BOUNDS
1002
{
1070
    19
1002
}
  0
ARC
  5
33A74
330
747D
100
AcDbEntity
  8
文字
 48
0.5
100
AcDbCircle
 10
18514.4510988689
 20
137.3223413845924
 30
0.0
 40
11.65101977936561
100
AcDbArc
 50
315.5889426494196
 51
53.40255825179377
1001
ACAD
1000
ASC_BOUNDS
1002
{
1070
    19
1002
}
  0
ARC
  5
33A75
330
747D
100
AcDbEntity
  8
文字
 48
0.5
100
AcDbCircle
 10
18514.4510988689
 20
137.3223413845924
 30
0.0
 40
17.09421977936561
100
AcDbArc
 50
269.3005323577149
 51
90.0
1001
ACAD
1000
ASC_BOUNDS
1002
{
1070
    19
1002
}
  0
ARC
  5
33A76
330
747D
100
AcDbEntity
  8
文字
 48
0.5
100
AcDbCircle
 10
18485.75001646164
 20
135.0656591040061
 30
0.0
 40
32.04728287677571
100
AcDbArc
 50
300.5927253075449
 51
37.14422825644193
1001
ACAD
1000
ASC_BOUNDS
1002
{
1070
    19
1002
}
  0
ARC
  5
33A77
330
747D
100
AcDbEntity
  8
文字
 48
0.5
100
AcDbCircle
 10
18513.8939958273
 20
91.69039878425582
 30
0.0
 40
12.20812282097012
100
AcDbArc
 50
307.0632633919243
 51
43.56635642213213
1001
ACAD
1000
ASC_BOUNDS
1002
{
1070
    19
1002
}
  0
ARC
  5
33A78
330
747D
100
AcDbEntity
  8
文字
 48
0.5
100
AcDbCircle
 10
18485.75004280843
 20
93.99692920646538
 30
0.0
 40
32.04725652998148
100
AcDbArc
 50
321.4817972701671
 51
59.40730796531603
1001
ACAD
1000
ASC_BOUNDS
1002
{
1070
    19
1002
}
  0
ARC
  5
33A79
330
747D
100
AcDbEntity
  8
文字
 48
0.5
100
AcDbCircle
 10
18513.8939958273
 20
91.69039878425582
 30
0.0
 40
17.65132282097012
100
AcDbArc
 50
270.0
 51
89.30053235771486
1001
ACAD
1000
ASC_BOUNDS
1002
{
1070
    19
1002
}
  0
LINE
  5
33A7A
330
747D
100
AcDbEntity
  8
文字
 48
0.5
100
AcDbLine
 10
18678.43550141577
 20
137.4726277671458
 30
0.0
 11
18678.43550141577
 21
167.5999208566625
 31
0.0
1001
ACAD
1000
ASC_BOUNDS
1002
{
1070
    19
1002
}
  0
LINE
  5
33A7B
330
747D
100
AcDbEntity
  8
文字
 48
0.5
100
AcDbLine
 10
18676.185524849
 20
170.4281942727417
 30
0.0
 11
18676.18552484901
 21
137.4726277671458
 31
0.0
1001
ACAD
1000
ASC_BOUNDS
1002
{
1070
    19
1002
}
  0
LINE
  5
33A7C
330
747D
100
AcDbEntity
  8
文字
 48
0.5
100
AcDbLine
 10
18595.53497254727
 20
141.0234912368399
 30
0.0
 11
18618.55469035865
 21
191.337508004238
 31
0.0
1001
ACAD
1000
ASC_BOUNDS
1002
{
1070
    19
1002
}
  0
LINE
  5
33A7D
330
747D
100
AcDbEntity
  8
文字
 48
0.5
100
AcDbLine
 10
18596.50942599179
 20
140.4555338471298
 30
0.0
 11
18618.55469035865
 21
182.8576372381407
 31
0.0
1001
ACAD
1000
ASC_BOUNDS
1002
{
1070
    19
1002
}
  0
LINE
  5
33A7E
330
747D
100
AcDbEntity
  8
文字
 48
0.5
100
AcDbLine
 10
18618.55469035865
 20
182.8576372381407
 30
0.0
 11
18618.55469035865
 21
137.4726277671458
 31
0.0
1001
ACAD
1000
ASC_BOUNDS
1002
{
1070
    19
1002
}
  0
LINE
  5
33A7F
330
747D
100
AcDbEntity
  8
文字
 48
0.5
100
AcDbLine
 10
18620.80476204762
 20
178.9878914239757
 30
0.0
 11
18620.80476204763
 21
137.4726277671458
 31
0.0
1001
ACAD
1000
ASC_BOUNDS
1002
{
1070
    19
1002
}
  0
LINE
  5
33A80
330
747D
100
AcDbEntity
  8
文字
 48
0.5
100
AcDbLine
 10
18650.96734256232
 20
149.5669158118232
 30
0.0
 11
18676.185524849
 21
172.4383815473706
 31
0.0
1001
ACAD
1000
ASC_BOUNDS
1002
{
1070
    19
1002
}
  0
LINE
  5
33A81
330
747D
100
AcDbEntity
  8
文字
 48
0.5
100
AcDbLine
 10
18652.6742614987
 20
147.7801842751578
 30
0.0
 11
18676.185524849
 21
170.3323864164091
 31
0.0
1001
ACAD
1000
ASC_BOUNDS
1002
{
1070
    19
1002
}
  0
LINE
  5
33A82
330
747D
100
AcDbEntity
  8
文字
 48
0.5
100
AcDbLine
 10
18697.4626003348
 20
146.2711217408088
 30
0.0
 11
18678.43550141577
 21
169.5436491812496
 31
0.0
1001
ACAD
1000
ASC_BOUNDS
1002
{
1070
    19
1002
}
  0
LINE
  5
33A83
330
747D
100
AcDbEntity
  8
文字
 48
0.5
100
AcDbLine
 10
18696.29050772787
 20
145.1557583519611
 30
0.0
 11
18678.43550141577
 21
167.5999208566642
 31
0.0
1001
ACAD
1000
ASC_BOUNDS
1002
{
1070
    19
1002
}
  0
LINE
  5
33A84
330
747D
100
AcDbEntity
  8
文字
 48
0.5
100
AcDbLine
 10
18754.18549895876
 20
179.1640115394668
 30
0.0
 11
18754.18549895876
 21
147.642396388245
 31
0.0
1001
ACAD
1000
ASC_BOUNDS
1002
{
1070
    19
1002
}
  0
LINE
  5
33A85
330
747D
100
AcDbEntity
  8
文字
 48
0.5
100
AcDbLine
 10
18747.81806260872
 20
179.1640115394668
 30
0.0
 11
18747.81806260872
 21
146.4369299276665
 31
0.0
1001
ACAD
1000
ASC_BOUNDS
1002
{
1070
    19
1002
}
  0
LINE
  5
33A86
330
747D
100
AcDbEntity
  8
文字
 48
0.5
100
AcDbLine
 10
18290.88086851194
 20
187.4488726002038
 30
0.0
 11
18303.97254505641
 21
204.2558871279668
 31
0.0
  0
LINE
  5
33A87
330
747D
100
AcDbEntity
  8
文字
 48
0.5
100
AcDbLine
 10
18302.87729013739
 20
197.4022702313751
 30
0.0
 11
18297.44219403029
 21
190.9205479562612
 31
0.0
1001
ACAD
1000
ASC_BOUNDS
1002
{
1070
    19
1002
}
  0
LINE
  5
33A88
330
747D
100
AcDbEntity
  8
文字
 48
0.5
100
AcDbLine
 10
18297.44219403029
 20
190.9205479562612
 30
0.0
 11
18288.65651725494
 21
177.1804237607403
 31
0.0
1001
ACAD
1000
ASC_BOUNDS
1002
{
1070
    19
1002
}
  0
LINE
  5
33A89
330
747D
100
AcDbEntity
  8
文字
 48
0.5
100
AcDbLine
 10
18288.65651725494
 20
177.1804237607403
 30
0.0
 11
18284.84637734036
 21
168.3951267527589
 31
0.0
1001
ACAD
1000
ASC_BOUNDS
1002
{
1070
    19
1002
}
  0
LINE
  5
33A8A
330
747D
100
AcDbEntity
  8
文字
 48
0.5
100
AcDbLine
 10
18283.09187680188
 20
168.3951267527589
 30
0.0
 11
18284.84637734036
 21
168.3951267527589
 31
0.0
1001
ACAD
1000
ASC_BOUNDS
1002
{
1070
    19
1002
}
  0
LINE
  5
33A8B
330
747D
100
AcDbEntity
  8
文字
 48
0.5
100
AcDbLine
 10
18290.88086851194
 20
187.4488726002038
 30
0.0
 11
18283.09187680188
 21
168.3951267527589
 31
0.0
1001
ACAD
1000
ASC_BOUNDS
1002
{
1070
    19
1002
}
  0
LINE
  5
33A8C
330
747D
100
AcDbEntity
  8
文字
 48
0.5
100
AcDbLine
 10
18318.71830124011
 20
206.8649936967836
 30
0.0
 11
18315.88517386699
 21
206.8649936967836
 31
0.0
  0
LINE
  5
33A8D
330
747D
100
AcDbEntity
  8
文字
 48
0.5
100
AcDbLine
 10
18327.33580884212
 20
213.8240965801943
 30
0.0
 11
18324.14852242994
 21
213.8240965801943
 31
0.0
  0
LINE
  5
33A8E
330
747D
100
AcDbEntity
  8
文字
 48
0.5
100
AcDbLine
 10
18331.82160592783
 20
226.9165991234309
 30
0.0
 11
18330.28698922825
 21
224.2037176210739
 31
0.0
  0
LINE
  5
33A8F
330
747D
100
AcDbEntity
  8
文字
 48
0.5
100
AcDbLine
 10
18321.90558765228
 20
226.3268283116024
 30
0.0
 11
18320.60707697873
 21
223.7319330876447
 31
0.0
  0
LINE
  5
33A90
330
747D
100
AcDbEntity
  8
文字
 48
0.5
100
AcDbLine
 10
18311.62259368685
 20
220.1100801535188
 30
0.0
 11
18309.83707262412
 21
213.483398931087
 31
0.0
1001
ACAD
1000
ASC_BOUNDS
1002
{
1070
    19
1002
}
  0
LINE
  5
33A91
330
747D
100
AcDbEntity
  8
文字
 48
0.5
100
AcDbLine
 10
18292.95398666617
 20
154.4165611639482
 30
0.0
 11
18292.95398666616
 21
74.03907596328446
 31
0.0
1001
ACAD
1000
ASC_BOUNDS
1002
{
1070
    19
1002
}
  0
LINE
  5
33A92
330
747D
100
AcDbEntity
  8
文字
 48
0.5
100
AcDbLine
 10
18282.06758666616
 20
154.4165611639482
 30
0.0
 11
18282.06758666615
 21
74.03907596328446
 31
0.0
1001
ACAD
1000
ASC_BOUNDS
1002
{
1070
    19
1002
}
  0
LINE
  5
33A93
330
747D
100
AcDbEntity
  8
文字
 48
0.5
100
AcDbLine
 10
18271.18118666616
 20
154.4165611639482
 30
0.0
 11
18271.18118666616
 21
74.03907596328446
 31
0.0
1001
ACAD
1000
ASC_BOUNDS
1002
{
1070
    19
1002
}
  0
LINE
  5
33A94
330
747D
100
AcDbEntity
  8
文字
 48
0.5
100
AcDbLine
 10
18260.29478666615
 20
147.7096791750811
 30
0.0
 11
18260.29478666615
 21
80.51798174305924
 31
0.0
1001
ACAD
1000
ASC_BOUNDS
1002
{
1070
    19
1002
}
  0
LINE
  5
33A95
330
747D
100
AcDbEntity
  8
文字
 48
0.5
100
AcDbLine
 10
18303.19704503568
 20
148.5176420066042
 30
0.0
 11
18303.19704503569
 21
79.93205273620162
 31
0.0
1001
ACAD
1000
ASC_BOUNDS
1002
{
1070
    19
1002
}
  0
LINE
  5
33A96
330
747D
100
AcDbEntity
  8
文字
 48
0.5
100
AcDbLine
 10
18313.40398021421
 20
74.03907596328446
 30
0.0
 11
18249.07299267813
 21
74.03907596328446
 31
0.0
1001
ACAD
1000
ASC_BOUNDS
1002
{
1070
    19
1002
}
  0
LINE
  5
33A97
330
747D
100
AcDbEntity
  8
文字
 48
0.5
100
AcDbLine
 10
18249.07299267813
 20
74.03907596328446
 30
0.0
 11
18260.29478666615
 21
80.51798174305924
 31
0.0
1001
ACAD
1000
ASC_BOUNDS
1002
{
1070
    19
1002
}
  0
LINE
  5
33A98
330
747D
100
AcDbEntity
  8
文字
 48
0.5
100
AcDbLine
 10
18313.40398021421
 20
74.03907596328446
 30
0.0
 11
18303.19704503569
 21
79.93205273620162
 31
0.0
1001
ACAD
1000
ASC_BOUNDS
1002
{
1070
    19
1002
}
  0
LINE
  5
33A99
330
747D
100
AcDbEntity
  8
文字
 48
0.5
100
AcDbLine
 10
18251.87046563911
 20
154.4165611639482
 30
0.0
 11
18310.60650725324
 21
154.4165611639482
 31
0.0
1001
ACAD
1000
ASC_BOUNDS
1002
{
1070
    19
1002
}
  0
LINE
  5
33A9A
330
747D
100
AcDbEntity
  8
文字
 48
0.5
100
AcDbLine
 10
18251.87046563911
 20
154.4165611639482
 30
0.0
 11
18260.29478666615
 21
147.7096791750811
 31
0.0
1001
ACAD
1000
ASC_BOUNDS
1002
{
1070
    19
1002
}
  0
LINE
  5
33A9B
330
747D
100
AcDbEntity
  8
文字
 48
0.5
100
AcDbLine
 10
18310.60650725324
 20
154.4165611639482
 30
0.0
 11
18303.19704503568
 21
148.5176420066042
 31
0.0
1001
ACAD
1000
ASC_BOUNDS
1002
{
1070
    19
1002
}
  0
LINE
  5
33A9C
330
747D
100
AcDbEntity
  8
文字
 48
0.5
100
AcDbLine
 10
18373.28198168511
 20
74.03907596328446
 30
0.0
 11
18335.84537089491
 21
74.03907596328446
 31
0.0
1001
ACAD
1000
ASC_BOUNDS
1002
{
1070
    19
1002
}
  0
LINE
  5
33A9D
330
747D
100
AcDbEntity
  8
文字
 48
0.5
100
AcDbLine
 10
18335.84537089491
 20
74.03907596328446
 30
0.0
 11
18345.54482910759
 21
79.63906077336742
 31
0.0
1001
ACAD
1000
ASC_BOUNDS
1002
{
1070
    19
1002
}
  0
ARC
  5
33A9E
330
747D
100
AcDbEntity
  8
文字
 48
0.5
100
AcDbCircle
 10
18388.46784615786
 20
123.3994814211966
 30
0.0
 40
116.7417899296617
100
AcDbArc
 50
210.2856833461148
 51
329.7143166538852
1001
ACAD
1000
ASC_BOUNDS
1002
{
1070
    19
1002
}
  0
LINE
  5
33A9F
330
747D
100
AcDbEntity
  8
文字
 48
0.5
100
AcDbLine
 10
18778.89454423657
 20
199.1827301331256
 30
0.0
 11
18725.77130369484
 21
199.1827301331256
 31
0.0
1001
ACAD
1000
ASC_BOUNDS
1002
{
1070
    19
1002
}
  0
LINE
  5
33AA0
330
747D
100
AcDbEntity
  8
文字
 48
0.5
100
AcDbLine
 10
18725.77130369485
 20
202.6627120923757
 30
0.0
 11
18778.39195650417
 21
202.6627120923757
 31
0.0
1001
ACAD
1000
ASC_BOUNDS
1002
{
1070
    19
1002
}
  0
LINE
  5
33AA1
330
747D
100
AcDbEntity
  8
文字
 48
0.5
100
AcDbLine
 10
19642.77605163317
 20
51.7960353618044
 30
0.0
 11
19602.00876162281
 21
39.06680065108048
 31
0.0
1001
ACAD
1000
ASC_BOUNDS
1002
{
1070
    19
1002
}
  0
LINE
  5
33AA2
330
747D
100
AcDbEntity
  8
文字
 48
0.5
100
AcDbLine
 10
19548.40007199182
 20
36.58258337743507
 30
0.0
 11
19641.37137726894
 21
65.95360426494824
 31
0.0
1001
ACAD
1000
ASC_BOUNDS
1002
{
1070
    19
1002
}
  0
LINE
  5
33AA3
330
747D
100
AcDbEntity
  8
文字
 48
0.5
100
AcDbLine
 10
19629.01072449339
 20
105.8962454565699
 30
0.0
 11
19721.69542338726
 21
105.8962454565699
 31
0.0
1001
ACAD
1000
ASC_BOUNDS
1002
{
1070
    19
1002
}
  0
LINE
  5
33AA4
330
747D
100
AcDbEntity
  8
文字
 48
0.5
100
AcDbLine
 10
19625.3769649073
 20
98.36499658391369
 30
0.0
 11
19643.85096894347
 21
60.92891084470409
 31
0.0
1001
ACAD
1000
ASC_BOUNDS
1002
{
1070
    19
1002
}
  0
LINE
  5
33AA5
330
747D
100
AcDbEntity
  8
文字
 48
0.5
100
AcDbLine
 10
19633.23086521624
 20
150.4769329685245
 30
0.0
 11
19651.15821782281
 21
150.4769329685245
 31
0.0
1001
ACAD
1000
ASC_BOUNDS
1002
{
1070
    19
1002
}
  0
LINE
  5
33AA6
330
747D
100
AcDbEntity
  8
文字
 48
0.5
100
AcDbLine
 10
19633.23086521624
 20
204.8369025487306
 30
0.0
 11
19651.15821782281
 21
204.8369025487306
 31
0.0
1001
ACAD
1000
ASC_BOUNDS
1002
{
1070
    19
1002
}
  0
TEXT
  5
33AA7
330
747D
100
AcDbEntity
  8
文字
 62
     7
 48
50.0
100
AcDbText
 10
18541.28375252029
 20
1123.121687693044
 30
0.0
 40
125.0
  1
～一般型･豪雪地型～
  7
STYLE2
100
AcDbText
  0
LINE
  5
33AA8
330
747D
100
AcDbEntity
  8
仕様書枠
  6
Continuous
 48
50.0
100
AcDbLine
 10
16633.99999999999
 20
1579.999999999996
 30
0.0
 11
16633.99999999999
 21
1079.999999999996
 31
0.0
  0
LINE
  5
33AA9
330
747D
100
AcDbEntity
  8
仕様書枠
 48
50.0
100
AcDbLine
 10
14783.99999999999
 20
1079.999999999996
 30
0.0
 11
16633.99999999999
 21
1079.999999999996
 31
0.0
  0
TEXT
  5
33AAA
330
747D
100
AcDbEntity
  8
文字
 62
     7
 48
50.0
100
AcDbText
 10
15250.02130386996
 20
721.6540738358999
 30
0.0
 40
200.0
  1
機種名
  7
STYLE2
100
AcDbText
  0
LINE
  5
33AAC
330
747D
100
AcDbEntity
  8
文字
 62
     7
 48
50.0
100
AcDbLine
 10
14983.99999999999
 20
625.0614912069904
 30
0.0
 11
20184.00000000001
 21
625.0614912069904
 31
0.0
  0
TEXT
  5
33AAD
330
747D
100
AcDbEntity
  8
文字
 62
     7
 48
50.0
100
AcDbText
 10
18941.59569316363
 20
1360.815873013485
 30
0.0
 40
125.0
  1
<縮尺> S=1/50
  7
STYLE2
100
AcDbText
  0
TEXT
  5
33AAE
330
747D
100
AcDbEntity
  8
文字
 62
     7
 48
50.0
100
AcDbText
 10
17128.6651299039
 20
729.932382445917
 30
0.0
 40
200.0
  1
ＧＲ－１５０Ｈ
  7
STYLE2
100
AcDbText
  0
TEXT
  5
34D1B
330
747D
100
AcDbEntity
  8
文字
 62
     7
 48
50.0
100
AcDbText
 10
16731.25148754171
 20
1360.815873013485
 30
0.0
 40
125.0
  1
NO.056
  7
STYLE2
100
AcDbText
  0
TEXT
  5
3AA5E
330
747D
100
AcDbEntity
  8
文字
 62
     7
 48
50.0
100
AcDbText
 10
15045.06695735888
 20
1207.311830518756
 30
0.0
 40
250.0
  1
外 形 図
  7
STYLE2
100
AcDbText
  0
TEXT
  5
3AA5F
330
747D
100
AcDbEntity
  8
仕様書枠
 62
     7
 48
50.0
100
AcDbText
 10
18210.95055315682
 20
413.1020185187081
 30
0.0
 40
125.0
  1
○床面積:15.20㎡(4.61坪) 　
  7
STYLE2
100
AcDbText
  0
TEXT
  5
3AA60
330
747D
100
AcDbEntity
  8
仕様書枠
 62
     7
 48
50.0
100
AcDbText
 10
15011.75668027149
 20
410.7408965281174
 30
0.0
 40
125.0
  1
○有効開口寸法:2362×2118(mm)
  7
STYLE2
100
AcDbText
  0
LINE
  5
3B070
330
747D
100
AcDbEntity
  8
細線
 48
50.0
100
AcDbLine
 10
6189.899999999996
 20
4472.999999999996
 30
0.0
 11
6189.899999999996
 21
1779.999999999996
 31
0.0
  0
LINE
  5
3B073
330
747D
100
AcDbEntity
  8
細線
 48
50.0
100
AcDbLine
 10
8688.1
 20
4472.999999999996
 30
0.0
 11
8688.099999999993
 21
1779.999999999996
 31
0.0
  0
LINE
  5
3B095
330
747D
100
AcDbEntity
  8
部品1
 48
50.0
100
AcDbLine
 10
6139.999999999993
 20
6859.999999999996
 30
0.0
 11
6139.999999999993
 21
6837.999999999997
 31
0.0
  0
LINE
  5
3B096
330
747D
100
AcDbEntity
  8
部品1
 48
50.0
100
AcDbLine
 10
6139.999999999993
 20
6859.999999999996
 30
0.0
 11
6109.999999999993
 21
6859.999999999996
 31
0.0
  0
LINE
  5
3B097
330
747D
100
AcDbEntity
  8
部品1
 48
50.0
100
AcDbLine
 10
6209.900000000001
 20
6859.999999999998
 30
0.0
 11
6209.900000000001
 21
6820.999999999997
 31
0.0
  0
LINE
  5
3B098
330
747D
100
AcDbEntity
  8
部品1
 48
50.0
100
AcDbLine
 10
6209.999999999993
 20
6830.999999999995
 30
0.0
 11
6186.999999999993
 21
6830.999999999995
 31
0.0
  0
LINE
  5
3B099
330
747D
100
AcDbEntity
  8
部品1
 48
50.0
100
AcDbLine
 10
6209.999999999993
 20
6830.999999999995
 30
0.0
 11
6209.999999999993
 21
6792.499999999996
 31
0.0
  0
LINE
  5
3B09A
330
747D
100
AcDbEntity
  8
部品1
 48
50.0
100
AcDbLine
 10
6109.999999999993
 20
6779.999999999997
 30
0.0
 11
6189.999999999993
 21
6779.999999999997
 31
0.0
  0
LINE
  5
3B09B
330
747D
100
AcDbEntity
  8
部品1
 48
50.0
100
AcDbLine
 10
6189.999999999993
 20
6779.999999999997
 30
0.0
 11
6209.999999999993
 21
6792.499999999996
 31
0.0
  0
LINE
  5
3B09C
330
747D
100
AcDbEntity
  8
部品1
100
AcDbLine
 10
6209.999999999993
 20
6792.499999999996
 30
0.0
 11
6255.599999999994
 21
6821.0
 31
0.0
  0
LINE
  5
3B09D
330
747D
100
AcDbEntity
  8
部品1
 48
50.0
100
AcDbLine
 10
6258.0
 20
6821.0
 30
0.0
 11
6258.0
 21
6830.0
 31
0.0
  0
LINE
  5
3B09E
330
747D
100
AcDbEntity
  8
部品1
100
AcDbLine
 10
6258.0
 20
6821.0
 30
0.0
 11
6210.0
 21
6820.999999999997
 31
0.0
  0
LINE
  5
3B09F
330
747D
100
AcDbEntity
  8
部品1
 48
50.0
100
AcDbLine
 10
6258.0
 20
6860.0
 30
0.0
 11
6258.0
 21
6851.0
 31
0.0
  0
LINE
  5
3B0A0
330
747D
100
AcDbEntity
  8
部品1
100
AcDbLine
 10
6258.0
 20
6860.0
 30
0.0
 11
6210.0
 21
6859.999999999998
 31
0.0
  0
LINE
  5
3B0A1
330
747D
100
AcDbEntity
  8
部品1
100
AcDbLine
 10
8668.0
 20
6792.499999999996
 30
0.0
 11
8622.399999999995
 21
6821.0
 31
0.0
  0
LINE
  5
3B0A2
330
747D
100
AcDbEntity
  8
部品1
 48
50.0
100
AcDbLine
 10
8667.999999999985
 20
6859.999999999998
 30
0.0
 11
8667.999999999985
 21
6820.999999999997
 31
0.0
  0
LINE
  5
3B0A3
330
747D
100
AcDbEntity
  8
部品1
100
AcDbLine
 10
8619.999999999986
 20
6860.0
 30
0.0
 11
8667.999999999985
 21
6859.999999999998
 31
0.0
  0
LINE
  5
3B0A4
330
747D
100
AcDbEntity
  8
部品1
 48
50.0
100
AcDbLine
 10
8619.999999999986
 20
6860.0
 30
0.0
 11
8619.999999999986
 21
6851.0
 31
0.0
  0
LINE
  5
3B0A6
330
747D
100
AcDbEntity
  8
部品1
 48
50.0
100
AcDbLine
 10
8619.999999999986
 20
6821.0
 30
0.0
 11
8619.999999999986
 21
6830.0
 31
0.0
  0
LINE
  5
3B0A7
330
747D
100
AcDbEntity
  8
部品1
100
AcDbLine
 10
8619.999999999986
 20
6821.0
 30
0.0
 11
8667.999999999985
 21
6820.999999999997
 31
0.0
  0
LINE
  5
3B0A8
330
747D
100
AcDbEntity
  8
部品1
 48
50.0
100
AcDbLine
 10
8738.0
 20
6859.999999999996
 30
0.0
 11
8738.0
 21
6837.999999999997
 31
0.0
  0
LINE
  5
3B0A9
330
747D
100
AcDbEntity
  8
部品1
 48
50.0
100
AcDbLine
 10
8668.0
 20
6830.999999999995
 30
0.0
 11
8691.0
 21
6830.999999999995
 31
0.0
  0
LINE
  5
3B0AA
330
747D
100
AcDbEntity
  8
部品1
 48
50.0
100
AcDbLine
 10
8688.0
 20
6779.999999999997
 30
0.0
 11
8668.0
 21
6792.499999999996
 31
0.0
  0
LINE
  5
3B0AB
330
747D
100
AcDbEntity
  8
部品1
 48
50.0
100
AcDbLine
 10
6113.999999999993
 20
10349.99999999999
 30
0.0
 11
6143.499999999993
 21
10349.99999999999
 31
0.0
  0
LINE
  5
3B0AC
330
747D
100
AcDbEntity
  8
部品1
 48
50.0
100
AcDbLine
 10
8734.5
 20
10349.99999999999
 30
0.0
 11
8764.0
 21
10349.99999999999
 31
0.0
  0
LINE
  5
3B0AD
330
747D
100
AcDbEntity
  8
部品1
 48
50.0
100
AcDbLine
 10
8764.0
 20
12002.99999999999
 30
0.0
 11
8764.0
 21
12029.99999999999
 31
0.0
  0
LINE
  5
3B0AE
330
747D
100
AcDbEntity
  8
部品1
 48
50.0
100
AcDbLine
 10
8734.5
 20
11609.99999999999
 30
0.0
 11
8764.0
 21
11609.99999999999
 31
0.0
  0
LINE
  5
3B0AF
330
747D
100
AcDbEntity
  8
部品1
 48
50.0
100
AcDbLine
 10
8734.5
 20
12029.99999999999
 30
0.0
 11
8764.0
 21
12029.99999999999
 31
0.0
  0
LINE
  5
3B0B4
330
747D
100
AcDbEntity
  8
部品1
 48
50.0
100
AcDbLine
 10
8620.1
 20
4124.999999999996
 30
0.0
 11
8620.099999999993
 21
1779.999999999996
 31
0.0
  0
LINE
  5
3B0B5
330
747D
100
AcDbEntity
  8
部品1
 48
50.0
100
AcDbLine
 10
6257.899999999995
 20
4124.999999999996
 30
0.0
 11
6257.899999999995
 21
1779.999999999996
 31
0.0
  0
LINE
  5
3B0C3
330
747D
100
AcDbEntity
  8
部品1
 48
50.0
100
AcDbLine
 10
6113.999999999993
 20
7699.999999999994
 30
0.0
 11
6143.499999999993
 21
7699.999999999994
 31
0.0
  0
LINE
  5
3B0C4
330
747D
100
AcDbEntity
  8
部品1
 48
50.0
100
AcDbLine
 10
6113.999999999993
 20
8119.999999999995
 30
0.0
 11
6143.499999999993
 21
8119.999999999995
 31
0.0
  0
DIMENSION
  5
3B0C7
330
747D
100
AcDbEntity
  8
寸法
 48
50.0
100
AcDbDimension
  2
*D1
 10
8668.0
 20
6353.418878792811
 30
0.0
 11
8458.233093542615
 21
6352.495236709994
 31
0.0
 70
   160
 71
     5
 42
48.00000000001455
  3
INABA_S50G
100
AcDbAlignedDimension
 13
8619.999999999986
 23
6820.999999999999
 33
0.0
 14
8668.0
 24
6792.499999999995
 34
0.0
100
AcDbRotatedDimension
1001
ACAD
1000
DSTYLE
1002
{
1070
    75
1070
     1
1070
   279
1070
     1
1002
}
  0
LINE
  5
3B0C9
330
747D
100
AcDbEntity
  8
部品1
 48
50.0
100
AcDbLine
 10
8669.0
 20
12419.99999999999
 30
0.0
 11
8669.0
 21
6833.499999999997
 31
0.0
  0
LINE
  5
3B0CA
330
747D
100
AcDbEntity
  8
部品1
 48
50.0
100
AcDbLine
 10
8764.0
 20
9379.999999999993
 30
0.0
 11
8734.5
 21
9379.999999999993
 31
0.0
  0
LINE
  5
3B0CB
330
747D
100
AcDbEntity
  8
部品1
 48
50.0
100
AcDbLine
 10
8699.0
 20
9819.999999999994
 30
0.0
 11
8699.0
 21
9394.99999999991
 31
0.0
  0
LINE
  5
3B0CC
330
747D
100
AcDbEntity
  8
部品1
 48
50.0
100
AcDbLine
 10
8699.0
 20
9819.999999999994
 30
0.0
 11
8699.0
 21
9394.99999999991
 31
0.0
  0
LINE
  5
3B0CE
330
747D
100
AcDbEntity
  8
部品1
 48
50.0
100
AcDbLine
 10
8734.5
 20
11189.99999999999
 30
0.0
 11
8764.0
 21
11189.99999999999
 31
0.0
  0
LINE
  5
3B0D0
330
747D
100
AcDbEntity
  8
部品1
 48
50.0
100
AcDbLine
 10
6113.99999999999
 20
11189.99999999999
 30
0.0
 11
6143.499999999988
 21
11189.99999999999
 31
0.0
  0
LINE
  5
3B0D1
330
747D
100
AcDbEntity
  8
部品1
 48
50.0
100
AcDbLine
 10
6113.999999999993
 20
12449.99999999999
 30
0.0
 11
6113.999999999993
 21
9929.999999999996
 31
0.0
  0
LINE
  5
3B0D4
330
747D
100
AcDbEntity
  8
部品1
 48
50.0
100
AcDbLine
 10
6208.999999999988
 20
9734.999999999995
 30
0.0
 11
6143.499999999988
 21
9734.999999999995
 31
0.0
  0
LINE
  5
3B0D5
330
747D
100
AcDbEntity
  8
部品1
 48
50.0
100
AcDbLine
 10
6208.999999999988
 20
9994.999999999995
 30
0.0
 11
6143.499999999988
 21
9994.999999999995
 31
0.0
  0
LINE
  5
3B0D6
330
747D
100
AcDbEntity
  8
部品1
 48
50.0
100
AcDbLine
 10
8669.0
 20
9994.999999999992
 30
0.0
 11
8734.5
 21
9994.999999999995
 31
0.0
  0
LINE
  5
3B0D7
330
747D
100
AcDbEntity
  8
部品1
 48
50.0
100
AcDbLine
 10
8669.0
 20
9734.99999999999
 30
0.0
 11
8734.5
 21
9734.999999999995
 31
0.0
  0
LINE
  5
3B0D8
330
747D
100
AcDbEntity
  8
部品1
 48
50.0
100
AcDbLine
 10
8764.0
 20
7279.999999999997
 30
0.0
 11
8734.5
 21
7279.999999999997
 31
0.0
  0
LINE
  5
3B0D9
330
747D
100
AcDbEntity
  8
部品1
 48
50.0
100
AcDbLine
 10
8764.0
 20
7699.999999999994
 30
0.0
 11
8734.5
 21
7699.999999999994
 31
0.0
  0
LINE
  5
3B0DA
330
747D
100
AcDbEntity
  8
部品1
 48
50.0
100
AcDbLine
 10
8764.0
 20
8119.999999999995
 30
0.0
 11
8734.5
 21
8119.999999999995
 31
0.0
  0
LINE
  5
3B0DB
330
747D
100
AcDbEntity
  8
部品1
 48
50.0
100
AcDbLine
 10
8764.0
 20
8539.999999999995
 30
0.0
 11
8734.5
 21
8539.999999999995
 31
0.0
  0
LINE
  5
3B0DC
330
747D
100
AcDbEntity
  8
部品1
 48
50.0
100
AcDbLine
 10
8764.0
 20
8959.999999999995
 30
0.0
 11
8734.5
 21
8959.999999999995
 31
0.0
  0
LINE
  5
3B0DD
330
747D
100
AcDbEntity
  8
部品1
 48
50.0
100
AcDbLine
 10
8764.0
 20
9379.999999999993
 30
0.0
 11
8734.5
 21
9379.999999999993
 31
0.0
  0
LINE
  5
3B0DE
330
747D
100
AcDbEntity
  8
部品1
 48
50.0
100
AcDbLine
 10
8734.5
 20
10769.99999999999
 30
0.0
 11
8764.0
 21
10769.99999999999
 31
0.0
  0
LINE
  5
3B0DF
330
747D
100
AcDbEntity
  8
部品1
 48
50.0
100
AcDbLine
 10
6113.999999999993
 20
7279.999999999997
 30
0.0
 11
6143.499999999993
 21
7279.999999999997
 31
0.0
  0
LINE
  5
3B0E0
330
747D
100
AcDbEntity
  8
部品1
 48
50.0
100
AcDbLine
 10
6113.999999999993
 20
9379.999999999993
 30
0.0
 11
6143.499999999993
 21
9379.999999999993
 31
0.0
  0
LINE
  5
3B0E1
330
747D
100
AcDbEntity
  8
部品1
 48
50.0
100
AcDbLine
 10
6113.999999999993
 20
8959.999999999995
 30
0.0
 11
6143.499999999993
 21
8959.999999999995
 31
0.0
  0
LINE
  5
3B0E2
330
747D
100
AcDbEntity
  8
部品1
 48
50.0
100
AcDbLine
 10
6113.999999999993
 20
8539.999999999995
 30
0.0
 11
6143.499999999993
 21
8539.999999999995
 31
0.0
  0
LINE
  5
3B0E3
330
747D
100
AcDbEntity
  8
部品1
 48
50.0
100
AcDbLine
 10
6113.999999999993
 20
10769.99999999999
 30
0.0
 11
6143.499999999993
 21
10769.99999999999
 31
0.0
  0
LINE
  5
3B0E4
330
747D
100
AcDbEntity
  8
部品1
 48
50.0
100
AcDbLine
 10
6113.999999999993
 20
11189.99999999999
 30
0.0
 11
6143.499999999993
 21
11189.99999999999
 31
0.0
  0
DIMENSION
  5
3B0F0
330
747D
100
AcDbEntity
  8
寸法
 48
50.0
100
AcDbDimension
  2
*D2
 10
9545.136749169294
 20
6859.999999999996
 30
0.0
 11
9445.121985389766
 21
8329.999999999996
 31
0.0
 70
    32
  1
7X420=<>
 71
     5
 42
2939.999999999998
  3
INABA_S50G
100
AcDbAlignedDimension
 13
8764.0
 23
9799.999999999995
 33
0.0
 14
8768.0
 24
6859.999999999996
 34
0.0
 50
90.0
100
AcDbRotatedDimension
1001
ACAD
1000
DSTYLE
1002
{
1070
    75
1070
     1
1070
   279
1070
     1
1002
}
  0
DIMENSION
  5
3B0F1
330
747D
100
AcDbEntity
  8
寸法
 48
50.0
100
AcDbDimension
  2
*D3
 10
8768.0
 20
6353.418878792966
 30
0.0
 11
9098.099999999998
 21
6353.418878792966
 31
0.0
 70
   160
 71
     5
 42
100.0
  3
INABA_S50G
100
AcDbAlignedDimension
 13
8668.0
 23
6792.499999999995
 33
0.0
 14
8768.0
 24
6779.999999999997
 34
0.0
100
AcDbRotatedDimension
  0
DIMENSION
  5
3B0F2
330
747D
100
AcDbEntity
  8
寸法
 48
50.0
100
AcDbDimension
  2
*D4
 10
9545.136749169296
 20
6779.999999999997
 30
0.0
 11
9545.136749169294
 21
6547.440944881881
 31
0.0
 70
   160
 71
     5
 42
79.99999999999818
  3
INABA_S50G
100
AcDbAlignedDimension
 13
8764.0
 23
6859.999999999995
 33
0.0
 14
8768.0
 24
6779.999999999997
 34
0.0
 50
90.0
100
AcDbRotatedDimension
  0
DIMENSION
  5
3B0F3
330
747D
100
AcDbEntity
  8
寸法
 48
50.0
100
AcDbDimension
  2
*D5
 10
9545.136749169294
 20
9799.999999999995
 30
0.0
 11
9545.136749169294
 21
9864.999999999994
 31
0.0
 70
   160
 71
     5
 42
130.0
  3
INABA_S50G
100
AcDbAlignedDimension
 13
8764.0
 23
9929.999999999996
 33
0.0
 14
8764.0
 24
9799.999999999995
 34
0.0
 50
90.0
100
AcDbRotatedDimension
1001
ACAD
1000
DSTYLE
1002
{
1070
    75
1070
     1
1070
   279
1070
     1
1002
}
  0
DIMENSION
  5
3B0F4
330
747D
100
AcDbEntity
  8
寸法
 48
50.0
100
AcDbDimension
  2
*D6
 10
9545.136749169294
 20
9929.999999999996
 30
0.0
 11
9445.121985389766
 21
11189.99999999999
 31
0.0
 70
    32
  1
6X420=<>
 71
     5
 42
2520.0
  3
INABA_S50G
100
AcDbAlignedDimension
 13
8764.0
 23
12449.99999999999
 33
0.0
 14
8764.0
 24
9929.999999999996
 34
0.0
 50
90.0
100
AcDbRotatedDimension
1001
ACAD
1000
DSTYLE
1002
{
1070
    75
1070
     1
1070
   279
1070
     1
1002
}
  0
DIMENSION
  5
3B0F5
330
747D
100
AcDbEntity
  8
寸法
 48
50.0
100
AcDbDimension
  2
*D7
 10
9545.136749169298
 20
12449.99999999999
 30
0.0
 11
9545.136749169294
 21
12755.09479069417
 31
0.0
 70
   160
 71
     5
 42
65.0
  3
INABA_S50G
100
AcDbAlignedDimension
 13
8764.0
 23
12514.99999999999
 33
0.0
 14
8764.0
 24
12449.99999999999
 34
0.0
 50
90.0
100
AcDbRotatedDimension
  0
DIMENSION
  5
3B0F6
330
747D
100
AcDbEntity
  8
寸法
 48
50.0
100
AcDbDimension
  2
*D8
 10
9895.102536133681
 20
6779.999999999997
 30
0.0
 11
9795.102536133677
 21
9647.499999999997
 31
0.0
 70
    32
 71
     5
 42
5734.999999999998
  3
INABA_S50G
100
AcDbAlignedDimension
 13
8764.0
 23
12514.99999999999
 33
0.0
 14
8768.0
 24
6779.999999999997
 34
0.0
 50
90.0
100
AcDbRotatedDimension
  0
DIMENSION
  5
3B0F7
330
747D
100
AcDbEntity
  8
寸法
 48
50.0
100
AcDbDimension
  2
*D9
 10
6209.999999999993
 20
6353.418878792966
 30
0.0
 11
5779.999999999993
 21
6353.418878792966
 31
0.0
 70
   160
 71
     5
 42
100.0
  3
INABA_S50G
100
AcDbAlignedDimension
 13
6109.999999999993
 23
6779.999999999997
 33
0.0
 14
6209.999999999993
 24
6792.499999999995
 34
0.0
100
AcDbRotatedDimension
  0
DIMENSION
  5
3B0F8
330
747D
100
AcDbEntity
  8
寸法
 48
50.0
100
AcDbDimension
  2
*D10
 10
8768.0
 20
5912.003342300898
 30
0.0
 11
7438.999999999997
 21
6012.018106080424
 31
0.0
 70
    32
 71
     5
 42
2658.000000000007
  3
INABA_S50G
100
AcDbAlignedDimension
 13
6109.999999999993
 23
6779.999999999997
 33
0.0
 14
8768.0
 24
6779.999999999997
 34
0.0
100
AcDbRotatedDimension
1001
ACAD
1000
DSTYLE
1002
{
1070
   271
1070
     1
1002
}
  0
LINE
  5
3B0F9
330
747D
100
AcDbEntity
  8
部品1
 48
50.0
100
AcDbLine
 10
6109.999999999993
 20
6859.999999999996
 30
0.0
 11
6109.999999999993
 21
6779.999999999997
 31
0.0
  0
LINE
  5
3B0FA
330
747D
100
AcDbEntity
  8
部品1
 48
50.0
100
AcDbLine
 10
6153.999999999992
 20
9819.999999999994
 30
0.0
 11
6178.999999999993
 21
9819.999999999994
 31
0.0
  0
LINE
  5
3B0FB
330
747D
100
AcDbEntity
  8
部品1
 48
50.0
100
AcDbLine
 10
6153.999999999992
 20
9909.999999999996
 30
0.0
 11
6178.999999999993
 21
9909.999999999996
 31
0.0
  0
LINE
  5
3B0FC
330
747D
100
AcDbEntity
  8
部品1
 48
50.0
100
AcDbLine
 10
6113.999999999993
 20
9799.999999999995
 30
0.0
 11
6143.499999999993
 21
9799.999999999995
 31
0.0
  0
LINE
  5
3B0FD
330
747D
100
AcDbEntity
  8
部品1
 48
50.0
100
AcDbLine
 10
6113.999999999993
 20
9929.999999999996
 30
0.0
 11
6143.499999999993
 21
9929.999999999996
 31
0.0
  0
LINE
  5
3B0FE
330
747D
100
AcDbEntity
  8
部品1
 48
50.0
100
AcDbLine
 10
6178.999999999993
 20
9909.999999999996
 30
0.0
 11
6178.999999999993
 21
9819.999999999994
 31
0.0
  0
LINE
  5
3B0FF
330
747D
100
AcDbEntity
  8
部品1
 48
50.0
100
AcDbLine
 10
6113.999999999993
 20
9929.999999999996
 30
0.0
 11
6113.999999999993
 21
9799.999999999995
 31
0.0
  0
LINE
  5
3B100
330
747D
100
AcDbEntity
  8
部品1
 48
50.0
100
AcDbLine
 10
6178.999999999993
 20
9819.999999999994
 30
0.0
 11
6178.999999999993
 21
6859.999999999996
 31
0.0
  0
LINE
  5
3B101
330
747D
100
AcDbEntity
  8
部品1
 48
50.0
100
AcDbLine
 10
6178.999999999993
 20
9819.999999999994
 30
0.0
 11
6178.999999999993
 21
6795.499999999996
 31
0.0
  0
LINE
  5
3B102
330
747D
100
AcDbEntity
  8
部品1
 48
50.0
100
AcDbLine
 10
6113.999999999993
 20
9799.999999999995
 30
0.0
 11
6113.999999999993
 21
6795.499999999996
 31
0.0
  0
LINE
  5
3B103
330
747D
100
AcDbEntity
  8
部品1
 48
50.0
100
AcDbLine
 10
8668.0
 20
6830.999999999995
 30
0.0
 11
8668.0
 21
6792.499999999996
 31
0.0
  0
LINE
  5
3B104
330
747D
100
AcDbEntity
  8
部品1
 48
50.0
100
AcDbLine
 10
8738.0
 20
6859.999999999996
 30
0.0
 11
8768.0
 21
6859.999999999996
 31
0.0
  0
LINE
  5
3B105
330
747D
100
AcDbEntity
  8
部品1
 48
50.0
100
AcDbLine
 10
8768.0
 20
6859.999999999996
 30
0.0
 11
8768.0
 21
6779.999999999997
 31
0.0
  0
LINE
  5
3B106
330
747D
100
AcDbEntity
  8
部品1
 48
50.0
100
AcDbLine
 10
8724.0
 20
9819.999999999994
 30
0.0
 11
8699.0
 21
9819.999999999994
 31
0.0
  0
LINE
  5
3B107
330
747D
100
AcDbEntity
  8
部品1
 48
50.0
100
AcDbLine
 10
8764.0
 20
9799.999999999995
 30
0.0
 11
8734.5
 21
9799.999999999995
 31
0.0
  0
LINE
  5
3B108
330
747D
100
AcDbEntity
  8
部品1
 48
50.0
100
AcDbLine
 10
8734.5
 20
9929.999999999996
 30
0.0
 11
8764.0
 21
9929.999999999996
 31
0.0
  0
LINE
  5
3B109
330
747D
100
AcDbEntity
  8
部品1
 48
50.0
100
AcDbLine
 10
8699.0
 20
9909.999999999996
 30
0.0
 11
8724.0
 21
9909.999999999996
 31
0.0
  0
LINE
  5
3B10A
330
747D
100
AcDbEntity
  8
部品1
 48
50.0
100
AcDbLine
 10
8699.0
 20
9819.999999999994
 30
0.0
 11
8699.0
 21
9909.999999999996
 31
0.0
  0
LINE
  5
3B10B
330
747D
100
AcDbEntity
  8
部品1
 48
50.0
100
AcDbLine
 10
8764.0
 20
9929.999999999996
 30
0.0
 11
8764.0
 21
9799.999999999995
 31
0.0
  0
LINE
  5
3B10C
330
747D
100
AcDbEntity
  8
部品1
 48
50.0
100
AcDbLine
 10
8764.0
 20
9799.999999999995
 30
0.0
 11
8764.0
 21
6795.499999999996
 31
0.0
  0
LINE
  5
3B10D
330
747D
100
AcDbEntity
  8
部品1
 48
50.0
100
AcDbLine
 10
8699.0
 20
9819.999999999994
 30
0.0
 11
8699.0
 21
6859.999999999996
 31
0.0
  0
LINE
  5
3B10E
330
747D
100
AcDbEntity
  8
部品1
 48
50.0
100
AcDbLine
 10
8699.0
 20
9819.999999999994
 30
0.0
 11
8699.0
 21
6795.499999999996
 31
0.0
  0
LINE
  5
3B10F
330
747D
100
AcDbEntity
  8
部品1
 48
50.0
100
AcDbLine
 10
8764.0
 20
12514.99999999999
 30
0.0
 11
8764.0
 21
12449.99999999999
 31
0.0
  0
LINE
  5
3B110
330
747D
100
AcDbEntity
  8
部品1
 48
50.0
100
AcDbLine
 10
8699.0
 20
12515.0
 30
0.0
 11
8764.0
 21
12514.99999999999
 31
0.0
  0
LINE
  5
3B119
330
747D
100
AcDbEntity
  8
部品1
 48
50.0
100
AcDbLine
 10
6113.999999999993
 20
12514.99999999999
 30
0.0
 11
6113.999999999993
 21
12449.99999999999
 31
0.0
  0
LINE
  5
3B11A
330
747D
100
AcDbEntity
  8
部品1
 48
50.0
100
AcDbLine
 10
6178.999999999993
 20
12515.0
 30
0.0
 11
6113.999999999993
 21
12514.99999999999
 31
0.0
  0
LINE
  5
3B11B
330
747D
100
AcDbEntity
  8
部品1
 48
50.0
100
AcDbLine
 10
8699.0
 20
12515.0
 30
0.0
 11
8699.0
 21
12485.49999999999
 31
0.0
  0
LINE
  5
3B11C
330
747D
100
AcDbEntity
  8
部品1
 48
50.0
100
AcDbLine
 10
8764.0
 20
12449.99999999999
 30
0.0
 11
8734.5
 21
12449.99999999999
 31
0.0
  0
LINE
  5
3B11D
330
747D
100
AcDbEntity
  8
部品1
 48
50.0
100
AcDbLine
 10
8764.0
 20
12449.99999999999
 30
0.0
 11
8734.5
 21
12449.99999999999
 31
0.0
  0
LINE
  5
3B11E
330
747D
100
AcDbEntity
  8
部品1
 48
50.0
100
AcDbLine
 10
8764.0
 20
12514.99999999999
 30
0.0
 11
8669.0
 21
12419.99999999999
 31
0.0
  0
LINE
  5
3B11F
330
747D
100
AcDbEntity
  8
部品1
 48
50.0
100
AcDbLine
 10
8764.0
 20
9896.999999999994
 30
0.0
 11
8724.0
 21
9896.999999999994
 31
0.0
  0
LINE
  5
3B120
330
747D
100
AcDbEntity
  8
部品1
 48
50.0
100
AcDbLine
 10
8724.0
 20
9909.999999999996
 30
0.0
 11
8724.0
 21
9896.999999999994
 31
0.0
  0
LINE
  5
3B121
330
747D
100
AcDbEntity
  8
部品1
 48
50.0
100
AcDbLine
 10
8724.0
 20
9832.999999999994
 30
0.0
 11
8724.0
 21
9819.999999999994
 31
0.0
  0
LINE
  5
3B122
330
747D
100
AcDbEntity
  8
部品1
 48
50.0
100
AcDbLine
 10
8764.0
 20
9832.999999999994
 30
0.0
 11
8724.0
 21
9832.999999999994
 31
0.0
  0
LINE
  5
3B123
330
747D
100
AcDbEntity
  8
部品1
 48
50.0
100
AcDbLine
 10
8734.5
 20
9819.999999999994
 30
0.0
 11
8724.0
 21
9819.999999999994
 31
0.0
  0
LINE
  5
3B124
330
747D
100
AcDbEntity
  8
部品1
 48
50.0
100
AcDbLine
 10
8734.5
 20
9909.999999999996
 30
0.0
 11
8724.0
 21
9909.999999999996
 31
0.0
  0
LINE
  5
3B125
330
747D
100
AcDbEntity
  8
部品1
 48
50.0
100
AcDbLine
 10
8768.0
 20
6779.999999999997
 30
0.0
 11
8688.0
 21
6779.999999999997
 31
0.0
  0
LINE
  5
3B126
330
747D
100
AcDbEntity
  8
部品1
 48
50.0
100
AcDbLine
 10
8734.5
 20
9832.999999999994
 30
0.0
 11
8734.499999999993
 21
6795.499999999996
 31
0.0
  0
LINE
  5
3B12E
330
747D
100
AcDbEntity
  8
部品1
 48
50.0
100
AcDbLine
 10
6153.999999999992
 20
9832.999999999994
 30
0.0
 11
6153.999999999992
 21
9819.999999999994
 31
0.0
  0
LINE
  5
3B12F
330
747D
100
AcDbEntity
  8
部品1
 48
50.0
100
AcDbLine
 10
6153.999999999992
 20
9909.999999999996
 30
0.0
 11
6153.999999999992
 21
9896.999999999994
 31
0.0
  0
LINE
  5
3B130
330
747D
100
AcDbEntity
  8
部品1
 48
50.0
100
AcDbLine
 10
6143.499999999993
 20
9819.999999999994
 30
0.0
 11
6153.999999999992
 21
9819.999999999994
 31
0.0
  0
LINE
  5
3B131
330
747D
100
AcDbEntity
  8
部品1
 48
50.0
100
AcDbLine
 10
6143.499999999993
 20
9909.999999999996
 30
0.0
 11
6153.999999999992
 21
9909.999999999996
 31
0.0
  0
LINE
  5
3B132
330
747D
100
AcDbEntity
  8
部品1
 48
50.0
100
AcDbLine
 10
6178.999999999993
 20
12449.99999999999
 30
0.0
 11
6178.999999999993
 21
9909.999999999996
 31
0.0
  0
LINE
  5
3B133
330
747D
100
AcDbEntity
  8
部品1
 48
50.0
100
AcDbLine
 10
6143.499999999993
 20
9832.999999999994
 30
0.0
 11
6143.499999999985
 21
6795.499999999996
 31
0.0
  0
LINE
  5
3B134
330
747D
100
AcDbEntity
  8
部品1
 48
50.0
100
AcDbLine
 10
6113.999999999993
 20
9832.999999999994
 30
0.0
 11
6153.999999999992
 21
9832.999999999994
 31
0.0
  0
LINE
  5
3B135
330
747D
100
AcDbEntity
  8
部品1
 48
50.0
100
AcDbLine
 10
6113.999999999993
 20
9896.999999999994
 30
0.0
 11
6153.999999999992
 21
9896.999999999994
 31
0.0
  0
LINE
  5
3B136
330
747D
100
AcDbEntity
  8
部品1
 48
50.0
100
AcDbLine
 10
6113.999999999993
 20
12449.99999999999
 30
0.0
 11
6143.499999999993
 21
12449.99999999999
 31
0.0
  0
LINE
  5
3B137
330
747D
100
AcDbEntity
  8
部品1
 48
50.0
100
AcDbLine
 10
6113.999999999993
 20
12514.99999999999
 30
0.0
 11
6208.999999999988
 21
12419.99999999999
 31
0.0
  0
LINE
  5
3B138
330
747D
100
AcDbEntity
  8
部品1
 48
50.0
100
AcDbLine
 10
6178.999999999993
 20
12449.99999999999
 30
0.0
 11
6178.999999999993
 21
9909.999999999996
 31
0.0
  0
LINE
  5
3B139
330
747D
100
AcDbEntity
  8
部品1
 48
50.0
100
AcDbLine
 10
6178.999999999993
 20
12449.99999999999
 30
0.0
 11
8699.0
 21
12449.99999999999
 31
0.0
  0
LINE
  5
3B13A
330
747D
100
AcDbEntity
  8
部品1
 48
50.0
100
AcDbLine
 10
6143.499999999993
 20
12485.49999999999
 30
0.0
 11
6143.499999999993
 21
9896.999999999994
 31
0.0
  0
LINE
  5
3B13B
330
747D
100
AcDbEntity
  8
部品1
 48
50.0
100
AcDbLine
 10
6143.499999999993
 20
12485.49999999999
 30
0.0
 11
8734.5
 21
12485.49999999999
 31
0.0
  0
LINE
  5
3B13C
330
747D
100
AcDbEntity
  8
部品1
 48
50.0
100
AcDbLine
 10
6208.999999999992
 20
12419.99999999999
 30
0.0
 11
6208.999999999996
 21
6833.499999999997
 31
0.0
  0
LINE
  5
3B13D
330
747D
100
AcDbEntity
  8
部品1
 48
50.0
100
AcDbLine
 10
6208.999999999988
 20
12419.99999999999
 30
0.0
 11
8669.0
 21
12419.99999999999
 31
0.0
  0
LINE
  5
3B13E
330
747D
100
AcDbEntity
  8
部品1
 48
50.0
100
AcDbLine
 10
6178.999999999993
 20
12515.0
 30
0.0
 11
6178.999999999993
 21
12485.49999999999
 31
0.0
  0
LINE
  5
3B13F
330
747D
100
AcDbEntity
  8
部品1
 48
50.0
100
AcDbLine
 10
6113.999999999993
 20
12449.99999999999
 30
0.0
 11
6143.499999999993
 21
12449.99999999999
 31
0.0
  0
LINE
  5
3B140
330
747D
100
AcDbEntity
  8
部品1
 48
50.0
100
AcDbLine
 10
6178.999999999993
 20
12514.99999999999
 30
0.0
 11
8698.999999999989
 21
12514.99999999999
 31
0.0
  0
LINE
  5
3B141
330
747D
100
AcDbEntity
  8
部品1
 48
50.0
100
AcDbLine
 10
8699.0
 20
9909.999999999996
 30
0.0
 11
8699.0
 21
12449.99999999999
 31
0.0
  0
LINE
  5
3B142
330
747D
100
AcDbEntity
  8
部品1
 48
50.0
100
AcDbLine
 10
8764.0
 20
12449.99999999999
 30
0.0
 11
8764.0
 21
9929.999999999996
 31
0.0
  0
LINE
  5
3B143
330
747D
100
AcDbEntity
  8
部品1
 48
50.0
100
AcDbLine
 10
8734.499999999993
 20
12485.49999999999
 30
0.0
 11
8734.5
 21
9896.999999999994
 31
0.0
  0
LINE
  5
3B144
330
747D
100
AcDbEntity
  8
部品1
 48
50.0
100
AcDbLine
 10
8764.0
 20
11162.99999999999
 30
0.0
 11
8764.0
 21
11189.99999999999
 31
0.0
  0
LINE
  5
3B145
330
747D
100
AcDbEntity
  8
部品1
 48
50.0
100
AcDbLine
 10
6113.999999999993
 20
12029.99999999999
 30
0.0
 11
6143.499999999993
 21
12029.99999999999
 31
0.0
  0
LINE
  5
3B146
330
747D
100
AcDbEntity
  8
部品1
 48
50.0
100
AcDbLine
 10
6113.999999999993
 20
11609.99999999999
 30
0.0
 11
6143.499999999993
 21
11609.99999999999
 31
0.0
  0
LINE
  5
3B147
330
747D
100
AcDbEntity
  8
部品1
 48
50.0
100
AcDbLine
 10
6113.99999999999
 20
12029.99999999999
 30
0.0
 11
6143.499999999988
 21
12029.99999999999
 31
0.0
  0
LINE
  5
3B148
330
747D
100
AcDbEntity
  8
部品1
 48
50.0
100
AcDbLine
 10
6250.499999999993
 20
12485.49999999999
 30
0.0
 11
6250.499999999993
 21
12419.99999999999
 31
0.0
  0
LINE
  5
3B149
330
747D
100
AcDbEntity
  8
部品1
 48
50.0
100
AcDbLine
 10
6143.499999999993
 20
12378.49999999999
 30
0.0
 11
6208.999999999992
 21
12378.49999999999
 31
0.0
  0
LINE
  5
3B14A
330
747D
100
AcDbEntity
  8
部品1
 48
50.0
100
AcDbLine
 10
8627.499999999994
 20
12485.49999999999
 30
0.0
 11
8627.499999999994
 21
12419.99999999999
 31
0.0
  0
LINE
  5
3B14B
330
747D
100
AcDbEntity
  8
部品1
 48
50.0
100
AcDbLine
 10
8734.5
 20
12378.49999999999
 30
0.0
 11
8668.999999999993
 21
12378.49999999999
 31
0.0
  0
LINE
  5
3B14C
330
747D
100
AcDbEntity
  8
部品1
 48
50.0
100
AcDbLine
 10
8669.0
 20
6958.499999999997
 30
0.0
 11
8734.5
 21
6958.499999999997
 31
0.0
  0
LINE
  5
3B14D
330
747D
100
AcDbEntity
  8
部品1
 48
50.0
100
AcDbLine
 10
8669.0
 20
6863.499999999996
 30
0.0
 11
8734.5
 21
6863.499999999996
 31
0.0
  0
LINE
  5
3B14E
330
747D
100
AcDbEntity
  8
部品1
 48
50.0
100
AcDbLine
 10
8678.499999999999
 20
6795.499999999996
 30
0.0
 11
8767.999999999993
 21
6795.499999999996
 31
0.0
  0
LINE
  5
3B14F
330
747D
100
AcDbEntity
  8
部品1
 48
50.0
100
AcDbLine
 10
8669.0
 20
6833.499999999997
 30
0.0
 11
8678.499999999999
 21
6833.499999999997
 31
0.0
  0
LINE
  5
3B150
330
747D
100
AcDbEntity
  8
部品1
 48
50.0
100
AcDbLine
 10
8678.499999999999
 20
6833.499999999997
 30
0.0
 11
8678.499999999999
 21
6795.499999999996
 31
0.0
  0
LINE
  5
3B151
330
747D
100
AcDbEntity
  8
部品1
 48
50.0
100
AcDbLine
 10
6199.499999999989
 20
6795.499999999996
 30
0.0
 11
6109.999999999993
 21
6795.499999999996
 31
0.0
  0
LINE
  5
3B152
330
747D
100
AcDbEntity
  8
部品1
 48
50.0
100
AcDbLine
 10
6199.499999999989
 20
6833.499999999997
 30
0.0
 11
6199.499999999989
 21
6795.499999999996
 31
0.0
  0
LINE
  5
3B153
330
747D
100
AcDbEntity
  8
部品1
 48
50.0
100
AcDbLine
 10
6208.999999999988
 20
6833.499999999997
 30
0.0
 11
6199.499999999989
 21
6833.499999999997
 31
0.0
  0
LINE
  5
3B154
330
747D
100
AcDbEntity
  8
部品1
 48
50.0
100
AcDbLine
 10
6208.999999999988
 20
6863.499999999996
 30
0.0
 11
6143.499999999993
 21
6863.499999999996
 31
0.0
  0
LINE
  5
3B155
330
747D
100
AcDbEntity
  8
部品1
 48
50.0
100
AcDbLine
 10
6208.999999999988
 20
6958.499999999997
 30
0.0
 11
6143.499999999993
 21
6958.499999999997
 31
0.0
  0
LINE
  5
3B156
330
747D
100
AcDbEntity
  8
破線
 48
5.0
100
AcDbLine
 10
6209.899999999989
 20
1729.999999999992
 30
0.0
 11
6257.899999999995
 21
1729.999999999992
 31
0.0
  0
LINE
  5
3B157
330
747D
100
AcDbEntity
  8
破線
 48
5.0
100
AcDbLine
 10
8620.099999999993
 20
1729.999999999992
 30
0.0
 11
8668.099999999993
 21
1729.999999999992
 31
0.0
  0
TEXT
  5
3B158
330
747D
100
AcDbEntity
  8
部品1
 62
     7
 48
50.0
100
AcDbText
 10
5150.888355692258
 20
1797.664345435161
 30
0.0
 40
125.0
  1
▽G.L
  7
STYLE2
100
AcDbText
  0
LINE
  5
3B159
330
747D
100
AcDbEntity
  8
Ｇ．Ｌ
 62
    30
 48
50.0
100
AcDbLine
 10
4964.76469728552
 20
1779.999999999996
 30
0.0
 11
9435.994626469359
 21
1779.999999999996
 31
0.0
  0
LINE
  5
3B15A
330
747D
100
AcDbEntity
  8
破線
 48
5.0
100
AcDbLine
 10
8768.099999999993
 20
1779.999999999996
 30
0.0
 11
8768.099999999993
 21
1579.999999999993
 31
0.0
  0
LINE
  5
3B15B
330
747D
100
AcDbEntity
  8
破線
 48
5.0
100
AcDbLine
 10
8668.099999999993
 20
1579.999999999993
 30
0.0
 11
8768.099999999993
 21
1579.999999999993
 31
0.0
  0
LINE
  5
3B15C
330
747D
100
AcDbEntity
  8
破線
 48
5.0
100
AcDbLine
 10
8668.099999999993
 20
1779.999999999996
 30
0.0
 11
8668.099999999993
 21
1579.999999999993
 31
0.0
  0
LINE
  5
3B15D
330
747D
100
AcDbEntity
  8
部品1
 48
50.0
100
AcDbLine
 10
8668.1
 20
4472.999999999996
 30
0.0
 11
8668.099999999993
 21
1779.999999999996
 31
0.0
  0
LINE
  5
3B15E
330
747D
100
AcDbEntity
  8
部品1
 48
50.0
100
AcDbLine
 10
8768.100000000002
 20
4473.0
 30
0.0
 11
8768.099999999993
 21
1779.999999999996
 31
0.0
  0
LINE
  5
3B15F
330
747D
100
AcDbEntity
  8
破線
 48
5.0
100
AcDbLine
 10
6209.899999999996
 20
1779.999999999996
 30
0.0
 11
6209.899999999989
 21
1579.999999999993
 31
0.0
  0
LINE
  5
3B160
330
747D
100
AcDbEntity
  8
破線
 48
5.0
100
AcDbLine
 10
6109.899999999989
 20
1579.999999999993
 30
0.0
 11
6209.899999999989
 21
1579.999999999993
 31
0.0
  0
LINE
  5
3B161
330
747D
100
AcDbEntity
  8
破線
 48
5.0
100
AcDbLine
 10
6109.899999999996
 20
1779.999999999996
 30
0.0
 11
6109.899999999992
 21
1579.999999999993
 31
0.0
  0
LINE
  5
3B162
330
747D
100
AcDbEntity
  8
部品1
 48
50.0
100
AcDbLine
 10
6109.899999999999
 20
4472.999999999996
 30
0.0
 11
6109.899999999996
 21
1779.999999999996
 31
0.0
  0
LINE
  5
3B163
330
747D
100
AcDbEntity
  8
部品1
 48
50.0
100
AcDbLine
 10
6209.899999999996
 20
4472.999999999996
 30
0.0
 11
6209.899999999996
 21
1779.999999999996
 31
0.0
  0
LINE
  5
3B164
330
747D
100
AcDbEntity
  8
部品1
 48
50.0
100
AcDbLine
 10
6209.899999999996
 20
4124.999999999996
 30
0.0
 11
8668.099999999991
 21
4124.999999999996
 31
0.0
  0
LINE
  5
3B166
330
747D
100
AcDbEntity
  8
部品1
 48
50.0
100
AcDbLine
 10
6209.899999999996
 20
4392.499999999996
 30
0.0
 11
8668.099999999991
 21
4392.499999999996
 31
0.0
  0
LINE
  5
3B167
330
747D
100
AcDbEntity
  8
部品1
 48
50.0
100
AcDbLine
 10
6209.899999999996
 20
4328.499999999996
 30
0.0
 11
8668.099999999991
 21
4328.499999999998
 31
0.0
  0
LINE
  5
3B168
330
747D
100
AcDbEntity
  8
部品1
 48
50.0
100
AcDbLine
 10
6209.899999999996
 20
4270.999999999996
 30
0.0
 11
8668.099999999991
 21
4270.999999999996
 31
0.0
  0
LINE
  5
3B169
330
747D
100
AcDbEntity
  8
細線
 48
50.0
100
AcDbLine
 10
6209.899999999996
 20
4277.999999999996
 30
0.0
 11
8668.099999999991
 21
4277.999999999994
 31
0.0
  0
LINE
  5
3B16A
330
747D
100
AcDbEntity
  8
細線
 48
50.0
100
AcDbLine
 10
6209.899999999996
 20
4322.999999999995
 30
0.0
 11
8668.099999999991
 21
4322.999999999995
 31
0.0
  0
LINE
  5
3B16B
330
747D
100
AcDbEntity
  8
部品1
 48
50.0
100
AcDbLine
 10
8836.156643419812
 20
4639.999999999996
 30
0.0
 11
6041.843356580173
 21
4639.999999999996
 31
0.0
  0
LINE
  5
3B16C
330
747D
100
AcDbEntity
  8
部品1
 48
50.0
100
AcDbLine
 10
8822.820421612815
 20
4472.999999999996
 30
0.0
 11
6055.17957838717
 21
4472.999999999996
 31
0.0
  0
ARC
  5
3B16D
330
747D
100
AcDbEntity
  8
部品1
100
AcDbCircle
 10
8836.156643419812
 20
4632.999999999996
 30
0.0
 40
7.0
100
AcDbArc
 50
357.2573886425274
 51
89.99999999979156
  0
LINE
  5
3B16E
330
747D
100
AcDbEntity
  8
部品1
100
AcDbLine
 10
8843.148625376592
 20
4632.665054756558
 30
0.0
 11
8841.901390123764
 21
4606.629018853786
 31
0.0
  0
ARC
  5
3B16F
330
747D
100
AcDbEntity
  8
部品1
100
AcDbCircle
 10
8841.202191928083
 20
4606.662513378131
 30
0.0
 40
0.7
100
AcDbArc
 50
278.1628586391775
 51
357.2573886425274
  0
ARC
  5
3B170
330
747D
100
AcDbEntity
  8
部品1
100
AcDbCircle
 10
8841.727544909208
 20
4602.999999999974
 30
0.0
 40
3.0
100
AcDbArc
 50
98.16285863917743
 51
177.2573886425274
  0
LINE
  5
3B171
330
747D
100
AcDbEntity
  8
部品1
100
AcDbLine
 10
8838.73098121345
 20
4603.143547961448
 30
0.0
 11
8833.676392992726
 21
4497.629018854033
 31
0.0
  0
ARC
  5
3B172
330
747D
100
AcDbEntity
  8
部品1
100
AcDbCircle
 10
8832.977194797052
 20
4497.662513378378
 30
0.0
 40
0.7
100
AcDbArc
 50
278.1628586391775
 51
357.2573886425274
  0
LINE
  5
3B173
330
747D
100
AcDbEntity
  8
部品1
100
AcDbLine
 10
8830.505984082412
 20
4494.143547961695
 30
0.0
 11
8829.812403569595
 21
4479.665054756562
 31
0.0
  0
LINE
  5
3B174
330
747D
100
AcDbEntity
  8
細線
 48
50.0
100
AcDbLine
 10
8768.000367633607
 20
4606.000000000327
 30
0.0
 11
8836.15664341984
 21
4605.999999999997
 31
0.0
  0
LINE
  5
3B175
330
747D
100
AcDbEntity
  8
細線
 48
50.0
100
AcDbLine
 10
8841.428191980728
 20
4605.999999999997
 30
0.0
 11
6036.571808019258
 21
4605.999999999997
 31
0.0
  0
LINE
  5
3B176
330
747D
100
AcDbEntity
  8
細線
 48
50.0
100
AcDbLine
 10
8833.203194848969
 20
4496.999999999996
 30
0.0
 11
6044.796805151012
 21
4496.999999999996
 31
0.0
  0
LINE
  5
3B177
330
747D
100
AcDbEntity
  8
細線
 48
50.0
100
AcDbLine
 10
8794.000000000002
 20
4639.999999999996
 30
0.0
 11
8793.999999999995
 21
4472.999999999996
 31
0.0
  0
ARC
  5
3B178
330
747D
100
AcDbEntity
  8
部品1
100
AcDbCircle
 10
8833.502547778177
 20
4494.000000000222
 30
0.0
 40
3.0
100
AcDbArc
 50
98.16285863917743
 51
177.2573886425274
  0
ARC
  5
3B179
330
747D
100
AcDbEntity
  8
部品1
 48
50.0
100
AcDbCircle
 10
8822.820421612815
 20
4479.999999999995
 30
0.0
 40
7.0
100
AcDbArc
 50
270.0
 51
357.2573886425014
  0
ARC
  5
3B17A
330
747D
100
AcDbEntity
  8
部品1
 48
50.0
100
AcDbCircle
 10
6055.17957838717
 20
4479.999999999995
 30
0.0
 40
7.0
100
AcDbArc
 50
182.7426113574986
 51
270.0
  0
ARC
  5
3B17B
330
747D
100
AcDbEntity
  8
部品1
100
AcDbCircle
 10
6044.497452221809
 20
4494.000000000222
 30
0.0
 40
3.0
100
AcDbArc
 50
2.742611357472558
 51
81.83714136082256
  0
LINE
  5
3B17C
330
747D
100
AcDbEntity
  8
細線
 48
50.0
100
AcDbLine
 10
6083.999999999988
 20
4639.999999999996
 30
0.0
 11
6083.999999999991
 21
4472.999999999996
 31
0.0
  0
LINE
  5
3B17D
330
747D
100
AcDbEntity
  8
細線
 48
50.0
100
AcDbLine
 10
6109.999632366371
 20
4606.000000000327
 30
0.0
 11
6041.843356580145
 21
4605.999999999997
 31
0.0
  0
LINE
  5
3B17E
330
747D
100
AcDbEntity
  8
部品1
100
AcDbLine
 10
6047.494015917573
 20
4494.143547961695
 30
0.0
 11
6048.187596430392
 21
4479.665054756562
 31
0.0
  0
ARC
  5
3B17F
330
747D
100
AcDbEntity
  8
部品1
100
AcDbCircle
 10
6045.022805202933
 20
4497.662513378378
 30
0.0
 40
0.7
100
AcDbArc
 50
182.7426113574725
 51
261.8371413608226
  0
LINE
  5
3B180
330
747D
100
AcDbEntity
  8
部品1
100
AcDbLine
 10
6039.269018786535
 20
4603.143547961448
 30
0.0
 11
6044.323607007258
 21
4497.629018854033
 31
0.0
  0
ARC
  5
3B181
330
747D
100
AcDbEntity
  8
部品1
100
AcDbCircle
 10
6036.272455090778
 20
4602.999999999974
 30
0.0
 40
3.0
100
AcDbArc
 50
2.742611357472558
 51
81.83714136082256
  0
ARC
  5
3B182
330
747D
100
AcDbEntity
  8
部品1
100
AcDbCircle
 10
6036.797808071902
 20
4606.662513378131
 30
0.0
 40
0.7
100
AcDbArc
 50
182.7426113574725
 51
261.8371413608226
  0
LINE
  5
3B183
330
747D
100
AcDbEntity
  8
部品1
100
AcDbLine
 10
6034.851374623396
 20
4632.665054756558
 30
0.0
 11
6036.098609876228
 21
4606.629018853786
 31
0.0
  0
ARC
  5
3B184
330
747D
100
AcDbEntity
  8
部品1
100
AcDbCircle
 10
6041.843356580173
 20
4632.999999999996
 30
0.0
 40
7.0
100
AcDbArc
 50
90.00000000020843
 51
182.7426113574725
  0
DIMENSION
  5
3B18B
330
747D
100
AcDbEntity
  8
寸法
 48
50.0
100
AcDbDimension
  2
*D11
 10
6178.999999999993
 20
12865.034587899
 30
0.0
 11
5873.827563592284
 21
12865.034587899
 31
0.0
 70
   160
 71
     5
 42
65.0
  3
INABA_S50G
100
AcDbAlignedDimension
 13
6113.999999999993
 23
12514.99999999999
 33
0.0
 14
6178.999999999993
 24
12514.99999999999
 34
0.0
100
AcDbRotatedDimension
  0
DIMENSION
  5
3B18C
330
747D
100
AcDbEntity
  8
寸法
 48
50.0
100
AcDbDimension
  2
*D12
 10
8763.999999999994
 20
12865.034587899
 30
0.0
 11
9011.509548895185
 21
12865.034587899
 31
0.0
 70
   160
 71
     5
 42
65.0
  3
INABA_S50G
100
AcDbAlignedDimension
 13
8698.999999999992
 23
12514.99999999999
 33
0.0
 14
8763.999999999994
 24
12514.99999999999
 34
0.0
100
AcDbRotatedDimension
1001
ACAD
1000
DSTYLE
1002
{
1070
    75
1070
     1
1070
   279
1070
     1
1002
}
  0
DIMENSION
  5
3B18D
330
747D
100
AcDbEntity
  8
寸法
 48
50.0
100
AcDbDimension
  2
*D13
 10
8803.278070961649
 20
6991.659553221889
 30
0.0
 11
9175.87807096164
 21
6991.659553221889
 31
0.0
 70
   160
 71
     5
 42
4.000000000007275
  3
INABA_S50G
100
AcDbAlignedDimension
 13
8763.999999999994
 23
6859.999999999996
 33
0.0
 14
8768.0
 24
6859.999999999996
 34
0.0
 50
180.0
100
AcDbRotatedDimension
1001
ACAD
1000
DSTYLE
1002
{
1070
   271
1070
     1
1002
}
  0
DIMENSION
  5
3B18E
330
747D
100
AcDbEntity
  8
寸法
 48
50.0
100
AcDbDimension
  2
*D14
 10
6074.721929038345
 20
6991.659553221889
 30
0.0
 11
5702.121929038344
 21
6991.659553221889
 31
0.0
 70
   160
 71
     5
 42
4.0
  3
INABA_S50G
100
AcDbAlignedDimension
 13
6113.999999999993
 23
6859.999999999996
 33
0.0
 14
6109.999999999993
 24
6859.999999999996
 34
0.0
100
AcDbRotatedDimension
1001
ACAD
1000
DSTYLE
1002
{
1070
   271
1070
     1
1002
}
  0
DIMENSION
  5
3B18F
330
747D
100
AcDbEntity
  8
寸法
 48
50.0
100
AcDbDimension
  2
*D15
 10
6113.999999999994
 20
5041.009141976133
 30
0.0
 11
5801.44094488187
 21
5041.009141976133
 31
0.0
 70
   160
 71
     5
 42
80.00000000001454
  3
INABA_S50G
100
AcDbAlignedDimension
 13
6033.999999999981
 23
4639.999999999996
 33
0.0
 14
6113.999999999994
 24
4639.999999999996
 34
0.0
100
AcDbRotatedDimension
1001
ACAD
1000
DSTYLE
1002
{
1070
   174
1070
     0
1070
   175
1070
     0
1070
   272
1070
     1
1070
   341
1005
0
1002
}
  0
DIMENSION
  5
3B190
330
747D
100
AcDbEntity
  8
寸法
 48
50.0
100
AcDbDimension
  2
*D16
 10
8763.999999999994
 20
5041.009141976133
 30
0.0
 11
7438.999999999994
 21
5141.023905755661
 31
0.0
 70
    32
 71
     5
 42
2650.0
  3
INABA_S50G
100
AcDbAlignedDimension
 13
6113.999999999994
 23
4639.999999999996
 33
0.0
 14
8763.999999999994
 24
4639.999999999996
 34
0.0
100
AcDbRotatedDimension
1001
ACAD
1000
DSTYLE
1002
{
1070
   174
1070
     0
1070
   175
1070
     0
1070
   272
1070
     1
1070
   341
1005
0
1002
}
  0
DIMENSION
  5
3B191
330
747D
100
AcDbEntity
  8
寸法
 48
50.0
100
AcDbDimension
  2
*D17
 10
8843.999999999994
 20
5041.009141976133
 30
0.0
 11
9076.559055118105
 21
5141.009141976134
 31
0.0
 70
    32
 71
     5
 42
80.0
  3
INABA_S50G
100
AcDbAlignedDimension
 13
8763.999999999994
 23
4639.999999999996
 33
0.0
 14
8843.999999999994
 24
4639.999999999996
 34
0.0
100
AcDbRotatedDimension
1001
ACAD
1000
DSTYLE
1002
{
1070
   174
1070
     0
1070
   175
1070
     0
1070
   272
1070
     1
1070
   341
1005
0
1002
}
  0
DIMENSION
  5
3B192
330
747D
100
AcDbEntity
  8
寸法
 48
50.0
100
AcDbDimension
  2
*D18
 10
8843.999999999994
 20
5307.44308242761
 30
0.0
 11
7438.999999999987
 21
5407.457846207137
 31
0.0
 70
    32
 71
     5
 42
2810.000000000015
  3
INABA_S50G
100
AcDbAlignedDimension
 13
6033.999999999981
 23
4639.999999999996
 33
0.0
 14
8843.999999999994
 24
4639.999999999996
 34
0.0
100
AcDbRotatedDimension
1001
ACAD
1000
DSTYLE
1002
{
1070
   174
1070
     0
1070
   175
1070
     0
1070
   272
1070
     1
1070
   341
1005
0
1002
}
  0
DIMENSION
  5
3B193
330
747D
100
AcDbEntity
  8
寸法
 48
50.0
100
AcDbDimension
  2
*D19
 10
5115.470975800644
 20
1979.999999999987
 30
0.0
 11
5015.456212021117
 21
3038.999999999991
 31
0.0
 70
    32
  1
有効開口高サ <>
 71
     5
 42
2118.000000000003
  3
INABA_S50G
100
AcDbAlignedDimension
 13
6209.899999999996
 23
4097.99999999999
 33
0.0
 14
6109.999999999994
 24
1979.999999999987
 34
0.0
 50
90.0
100
AcDbRotatedDimension
1001
ACAD
1000
DSTYLE
1002
{
1070
   341
1005
0
1002
}
  0
LINE
  5
3B194
330
747D
100
AcDbEntity
  8
破線
 48
5.0
100
AcDbLine
 10
8620.099999999993
 20
1779.999999999996
 30
0.0
 11
8620.099999999993
 21
1729.999999999992
 31
0.0
  0
LINE
  5
3B195
330
747D
100
AcDbEntity
  8
破線
 48
5.0
100
AcDbLine
 10
6257.899999999995
 20
1779.999999999996
 30
0.0
 11
6257.899999999995
 21
1729.999999999992
 31
0.0
  0
TEXT
  5
3B196
330
747D
100
AcDbEntity
  8
部品1
 62
     7
 48
50.0
100
AcDbText
 10
5148.656501392331
 20
2028.627137678766
 30
0.0
 40
125.0
  1
▽基礎天端
  7
STYLE2
100
AcDbText
  0
LINE
  5
3BE10
330
747D
100
AcDbEntity
  8
細線
 48
50.0
100
AcDbLine
 10
6257.899999999995
 20
1788.799999999995
 30
0.0
 11
8620.099999999993
 21
1788.799999999995
 31
0.0
  0
LINE
  5
3BE21
330
747D
100
AcDbEntity
  8
細線
 48
50.0
100
AcDbLine
 10
6257.899999999995
 20
1852.449999999997
 30
0.0
 11
8620.099999999993
 21
1852.449999999997
 31
0.0
  0
LINE
  5
3BE22
330
747D
100
AcDbEntity
  8
細線
 48
50.0
100
AcDbLine
 10
6257.899999999995
 20
1916.949999999997
 30
0.0
 11
8620.099999999993
 21
1916.949999999997
 31
0.0
  0
LINE
  5
3BE23
330
747D
100
AcDbEntity
  8
細線
 48
50.0
100
AcDbLine
 10
6257.899999999995
 20
1981.449999999997
 30
0.0
 11
8620.099999999993
 21
1981.449999999997
 31
0.0
  0
LINE
  5
3BE24
330
747D
100
AcDbEntity
  8
細線
 48
50.0
100
AcDbLine
 10
6257.899999999995
 20
2045.949999999997
 30
0.0
 11
8620.099999999993
 21
2045.949999999997
 31
0.0
  0
LINE
  5
3BE25
330
747D
100
AcDbEntity
  8
細線
 48
50.0
100
AcDbLine
 10
6257.899999999995
 20
2110.449999999997
 30
0.0
 11
8620.099999999993
 21
2110.449999999997
 31
0.0
  0
LINE
  5
3BE26
330
747D
100
AcDbEntity
  8
細線
 48
50.0
100
AcDbLine
 10
6257.899999999995
 20
2174.949999999997
 30
0.0
 11
8620.099999999993
 21
2174.949999999997
 31
0.0
  0
LINE
  5
3BE27
330
747D
100
AcDbEntity
  8
細線
 48
50.0
100
AcDbLine
 10
6257.899999999995
 20
2239.449999999997
 30
0.0
 11
8620.099999999993
 21
2239.449999999997
 31
0.0
  0
LINE
  5
3BE28
330
747D
100
AcDbEntity
  8
細線
 48
50.0
100
AcDbLine
 10
6257.899999999995
 20
2303.949999999997
 30
0.0
 11
8620.099999999993
 21
2303.949999999997
 31
0.0
  0
LINE
  5
3BE29
330
747D
100
AcDbEntity
  8
細線
 48
50.0
100
AcDbLine
 10
6257.899999999995
 20
2368.449999999997
 30
0.0
 11
8620.099999999993
 21
2368.449999999997
 31
0.0
  0
LINE
  5
3BE2A
330
747D
100
AcDbEntity
  8
細線
 48
50.0
100
AcDbLine
 10
6257.899999999995
 20
2432.949999999997
 30
0.0
 11
8620.099999999993
 21
2432.949999999997
 31
0.0
  0
LINE
  5
3BE2B
330
747D
100
AcDbEntity
  8
細線
 48
50.0
100
AcDbLine
 10
6257.899999999995
 20
2497.449999999997
 30
0.0
 11
8620.099999999993
 21
2497.449999999997
 31
0.0
  0
LINE
  5
3BE2C
330
747D
100
AcDbEntity
  8
細線
 48
50.0
100
AcDbLine
 10
6257.899999999995
 20
2561.949999999997
 30
0.0
 11
8620.099999999993
 21
2561.949999999997
 31
0.0
  0
LINE
  5
3BE2D
330
747D
100
AcDbEntity
  8
細線
 48
50.0
100
AcDbLine
 10
6257.899999999995
 20
2626.449999999997
 30
0.0
 11
8620.099999999993
 21
2626.449999999997
 31
0.0
  0
LINE
  5
3BE2E
330
747D
100
AcDbEntity
  8
細線
 48
50.0
100
AcDbLine
 10
6257.899999999995
 20
2690.949999999997
 30
0.0
 11
8620.099999999993
 21
2690.949999999997
 31
0.0
  0
LINE
  5
3BE2F
330
747D
100
AcDbEntity
  8
細線
 48
50.0
100
AcDbLine
 10
6257.899999999995
 20
2755.449999999997
 30
0.0
 11
8620.099999999993
 21
2755.449999999997
 31
0.0
  0
LINE
  5
3BE30
330
747D
100
AcDbEntity
  8
細線
 48
50.0
100
AcDbLine
 10
6257.899999999995
 20
2819.949999999997
 30
0.0
 11
8620.099999999993
 21
2819.949999999997
 31
0.0
  0
LINE
  5
3BE31
330
747D
100
AcDbEntity
  8
細線
 48
50.0
100
AcDbLine
 10
6257.899999999995
 20
2884.449999999997
 30
0.0
 11
8620.099999999993
 21
2884.449999999997
 31
0.0
  0
LINE
  5
3BE32
330
747D
100
AcDbEntity
  8
細線
 48
50.0
100
AcDbLine
 10
6257.899999999995
 20
2948.949999999997
 30
0.0
 11
8620.099999999993
 21
2948.949999999997
 31
0.0
  0
LINE
  5
3BE33
330
747D
100
AcDbEntity
  8
細線
 48
50.0
100
AcDbLine
 10
6257.899999999995
 20
3013.449999999997
 30
0.0
 11
8620.099999999993
 21
3013.449999999997
 31
0.0
  0
LINE
  5
3BE34
330
747D
100
AcDbEntity
  8
細線
 48
50.0
100
AcDbLine
 10
6257.899999999995
 20
3077.949999999997
 30
0.0
 11
8620.099999999993
 21
3077.949999999997
 31
0.0
  0
LINE
  5
3BE35
330
747D
100
AcDbEntity
  8
細線
 48
50.0
100
AcDbLine
 10
6257.899999999995
 20
3142.449999999997
 30
0.0
 11
8620.099999999993
 21
3142.449999999997
 31
0.0
  0
LINE
  5
3BE3A
330
747D
100
AcDbEntity
  8
細線
 48
50.0
100
AcDbLine
 10
6257.899999999995
 20
4109.949999999996
 30
0.0
 11
8620.099999999993
 21
4109.949999999996
 31
0.0
  0
LINE
  5
3BE3B
330
747D
100
AcDbEntity
  8
細線
 48
50.0
100
AcDbLine
 10
6257.899999999995
 20
4045.449999999997
 30
0.0
 11
8620.099999999993
 21
4045.449999999997
 31
0.0
  0
LINE
  5
3BE3C
330
747D
100
AcDbEntity
  8
細線
 48
50.0
100
AcDbLine
 10
6257.899999999995
 20
3980.949999999997
 30
0.0
 11
8620.099999999993
 21
3980.949999999997
 31
0.0
  0
LINE
  5
3BE3D
330
747D
100
AcDbEntity
  8
細線
 48
50.0
100
AcDbLine
 10
6257.899999999995
 20
3916.449999999997
 30
0.0
 11
8620.099999999993
 21
3916.449999999997
 31
0.0
  0
LINE
  5
3BE3E
330
747D
100
AcDbEntity
  8
細線
 48
50.0
100
AcDbLine
 10
6257.899999999995
 20
3851.949999999997
 30
0.0
 11
8620.099999999993
 21
3851.949999999997
 31
0.0
  0
LINE
  5
3BE3F
330
747D
100
AcDbEntity
  8
細線
 48
50.0
100
AcDbLine
 10
6257.899999999995
 20
3787.449999999997
 30
0.0
 11
8620.099999999993
 21
3787.449999999997
 31
0.0
  0
LINE
  5
3BE40
330
747D
100
AcDbEntity
  8
細線
 48
50.0
100
AcDbLine
 10
6257.899999999995
 20
3722.949999999997
 30
0.0
 11
8620.099999999993
 21
3722.949999999997
 31
0.0
  0
LINE
  5
3BE41
330
747D
100
AcDbEntity
  8
細線
 48
50.0
100
AcDbLine
 10
6257.899999999995
 20
3658.449999999997
 30
0.0
 11
8620.099999999993
 21
3658.449999999997
 31
0.0
  0
LINE
  5
3BE42
330
747D
100
AcDbEntity
  8
細線
 48
50.0
100
AcDbLine
 10
6257.899999999995
 20
3593.949999999998
 30
0.0
 11
8620.099999999993
 21
3593.949999999998
 31
0.0
  0
LINE
  5
3BE43
330
747D
100
AcDbEntity
  8
細線
 48
50.0
100
AcDbLine
 10
6257.899999999995
 20
3529.449999999997
 30
0.0
 11
8620.099999999993
 21
3529.449999999997
 31
0.0
  0
LINE
  5
3BE44
330
747D
100
AcDbEntity
  8
細線
 48
50.0
100
AcDbLine
 10
6257.899999999995
 20
3464.949999999998
 30
0.0
 11
8620.099999999993
 21
3464.949999999998
 31
0.0
  0
LINE
  5
3BE45
330
747D
100
AcDbEntity
  8
細線
 48
50.0
100
AcDbLine
 10
6257.899999999995
 20
3400.449999999997
 30
0.0
 11
8620.099999999993
 21
3400.449999999997
 31
0.0
  0
LINE
  5
3BE46
330
747D
100
AcDbEntity
  8
細線
 48
50.0
100
AcDbLine
 10
6257.899999999995
 20
3335.949999999997
 30
0.0
 11
8620.099999999993
 21
3335.949999999997
 31
0.0
  0
LINE
  5
3BE47
330
747D
100
AcDbEntity
  8
細線
 48
50.0
100
AcDbLine
 10
6257.899999999995
 20
3271.449999999997
 30
0.0
 11
8620.099999999993
 21
3271.449999999997
 31
0.0
  0
LINE
  5
3BE48
330
747D
100
AcDbEntity
  8
細線
 48
50.0
100
AcDbLine
 10
6257.899999999995
 20
3206.949999999997
 30
0.0
 11
8620.099999999993
 21
3206.949999999997
 31
0.0
  0
CIRCLE
  5
3BE49
330
747D
100
AcDbEntity
  8
細線
 48
50.0
100
AcDbCircle
 10
7438.999999999994
 20
2723.199999999997
 30
0.0
 40
18.0
  0
LINE
  5
3BE4A
330
747D
100
AcDbEntity
  8
細線
 48
50.0
100
AcDbLine
 10
7665.499999999994
 20
2384.199999999997
 30
0.0
 11
7762.499999999994
 21
2384.199999999997
 31
0.0
  0
LINE
  5
3BE4B
330
747D
100
AcDbEntity
  8
細線
 48
50.0
100
AcDbLine
 10
7762.499999999994
 20
2417.199999999998
 30
0.0
 11
7665.499999999994
 21
2417.199999999998
 31
0.0
  0
ARC
  5
3BE4C
330
747D
100
AcDbEntity
  8
細線
 48
50.0
100
AcDbCircle
 10
7762.499999999994
 20
2400.699999999997
 30
0.0
 40
16.5
100
AcDbArc
 50
270.0
 51
90.0
  0
ARC
  5
3BE4D
330
747D
100
AcDbEntity
  8
細線
 48
50.0
100
AcDbCircle
 10
7665.499999999994
 20
2400.699999999997
 30
0.0
 40
16.5
100
AcDbArc
 50
90.0
 51
270.0
  0
ARC
  5
3BE4E
330
747D
100
AcDbEntity
  8
細線
 48
50.0
100
AcDbCircle
 10
7115.499999999994
 20
2400.699999999997
 30
0.0
 40
16.5
100
AcDbArc
 50
90.0
 51
270.0
  0
LINE
  5
3BE4F
330
747D
100
AcDbEntity
  8
細線
 48
50.0
100
AcDbLine
 10
7115.499999999994
 20
2417.199999999998
 30
0.0
 11
7212.499999999991
 21
2417.199999999998
 31
0.0
  0
LINE
  5
3BE50
330
747D
100
AcDbEntity
  8
細線
 48
50.0
100
AcDbLine
 10
7212.499999999991
 20
2384.199999999997
 30
0.0
 11
7115.499999999994
 21
2384.199999999997
 31
0.0
  0
ARC
  5
3BE51
330
747D
100
AcDbEntity
  8
細線
 48
50.0
100
AcDbCircle
 10
7212.499999999991
 20
2400.699999999997
 30
0.0
 40
16.5
100
AcDbArc
 50
270.0
 51
90.0
  0
DIMENSION
  5
3BE80
330
747D
100
AcDbEntity
  8
寸法
 48
50.0
100
AcDbDimension
  2
*D20
 10
8698.999999999985
 20
12865.034587899
 30
0.0
 11
7438.999999999989
 21
12965.04935167853
 31
0.0
 70
    32
  1
6X420=<>
 71
     5
 42
2519.999999999993
  3
INABA_S50G
100
AcDbAlignedDimension
 13
6178.999999999993
 23
12514.99999999999
 33
0.0
 14
8698.999999999985
 24
12514.99999999999
 34
0.0
100
AcDbRotatedDimension
1001
ACAD
1000
DSTYLE
1002
{
1070
    75
1070
     1
1070
   279
1070
     1
1002
}
  0
DIMENSION
  5
3BE81
330
747D
100
AcDbEntity
  8
寸法
 48
50.0
100
AcDbDimension
  2
*D21
 10
8764.0
 20
13215.05340226754
 30
0.0
 11
7438.999999999997
 21
13315.06816604707
 31
0.0
 70
    32
 71
     5
 42
2650.000000000007
  3
INABA_S50G
100
AcDbAlignedDimension
 13
6113.999999999993
 23
12514.99999999999
 33
0.0
 14
8764.0
 24
12514.99999999999
 34
0.0
100
AcDbRotatedDimension
  0
LINE
  5
3BEE6
330
747D
100
AcDbEntity
  8
部品1
 48
50.0
100
AcDbLine
 10
6598.999999999993
 20
12515.0
 30
0.0
 11
6598.999999999993
 21
12485.49999999999
 31
0.0
  0
LINE
  5
3BEE7
330
747D
100
AcDbEntity
  8
部品1
 48
50.0
100
AcDbLine
 10
7018.999999999993
 20
12515.0
 30
0.0
 11
7018.999999999993
 21
12485.49999999999
 31
0.0
  0
LINE
  5
3BEE8
330
747D
100
AcDbEntity
  8
部品1
 48
50.0
100
AcDbLine
 10
7438.999999999992
 20
12515.0
 30
0.0
 11
7438.999999999992
 21
12485.49999999999
 31
0.0
  0
LINE
  5
3BEE9
330
747D
100
AcDbEntity
  8
部品1
 48
50.0
100
AcDbLine
 10
7858.999999999993
 20
12515.0
 30
0.0
 11
7858.999999999993
 21
12485.49999999999
 31
0.0
  0
LINE
  5
3BEEA
330
747D
100
AcDbEntity
  8
部品1
 48
50.0
100
AcDbLine
 10
8278.999999999994
 20
12515.0
 30
0.0
 11
8278.999999999994
 21
12485.49999999999
 31
0.0
  0
DIMENSION
  5
3BEF7
330
747D
100
AcDbEntity
  8
寸法
 48
50.0
100
AcDbDimension
  2
*D22
 10
6258.0
 20
6353.418878792811
 30
0.0
 11
6383.0
 21
6353.418878792811
 31
0.0
 70
   160
 71
     5
 42
48.00000000000728
  3
INABA_S50G
100
AcDbAlignedDimension
 13
6209.999999999993
 23
6794.99999999984
 33
0.0
 14
6258.0
 24
6820.999999999999
 34
0.0
100
AcDbRotatedDimension
1001
ACAD
1000
DSTYLE
1002
{
1070
    75
1070
     1
1070
   279
1070
     1
1002
}
  0
LINE
  5
3BF12
330
747D
100
AcDbEntity
  8
部品1
  6
Continuous
 62
     7
 48
25.0
100
AcDbLine
 10
8653.099999999911
 20
6840.50000000002
 30
0.0
 11
6224.899999999994
 21
6840.499999999996
 31
0.0
  0
DIMENSION
  5
3BF15
330
747D
100
AcDbEntity
  8
寸法
 48
50.0
100
AcDbDimension
  2
*D23
 10
6258.0
 20
6353.418878792811
 30
0.0
 11
7438.999999999954
 21
6578.433642572338
 31
0.0
 70
    32
  1
有効開口部間口\P<>
 71
     5
 42
2361.999999999909
  3
INABA_S50G
100
AcDbAlignedDimension
 13
8619.99999999991
 23
6820.999999999999
 33
0.0
 14
6258.0
 24
6820.999999999999
 34
0.0
100
AcDbRotatedDimension
1001
ACAD
1000
DSTYLE
1002
{
1070
   271
1070
     1
1002
}
  0
LINE
  5
3CA12
330
747D
100
AcDbEntity
  8
細線
 48
50.0
100
AcDbLine
 10
10701.49999999992
 20
4124.999999999952
 30
0.0
 11
10701.49999999992
 21
2039.999999999952
 31
0.0
  0
LINE
  5
3CA13
330
747D
100
AcDbEntity
  8
細線
 48
50.0
100
AcDbLine
 10
10686.49999999992
 20
4124.999999999952
 30
0.0
 11
10686.49999999992
 21
2039.999999999952
 31
0.0
  0
LINE
  5
3CA14
330
747D
100
AcDbEntity
  8
細線
 48
50.0
100
AcDbLine
 10
10561.49999999993
 20
4124.999999999952
 30
0.0
 11
10561.49999999992
 21
2039.999999999952
 31
0.0
  0
LINE
  5
3CA15
330
747D
100
AcDbEntity
  8
細線
 48
50.0
100
AcDbLine
 10
10546.49999999992
 20
4124.999999999952
 30
0.0
 11
10546.49999999992
 21
2039.999999999952
 31
0.0
  0
LINE
  5
3CA16
330
747D
100
AcDbEntity
  8
細線
 48
50.0
100
AcDbLine
 10
10421.49999999992
 20
4124.999999999952
 30
0.0
 11
10421.49999999992
 21
2039.999999999952
 31
0.0
  0
LINE
  5
3CA17
330
747D
100
AcDbEntity
  8
細線
 48
50.0
100
AcDbLine
 10
10406.49999999992
 20
4124.999999999952
 30
0.0
 11
10406.49999999992
 21
2039.999999999952
 31
0.0
  0
LINE
  5
3CA18
330
747D
100
AcDbEntity
  8
部品1
 48
50.0
100
AcDbLine
 10
10763.99999999993
 20
4124.999999999996
 30
0.0
 11
10763.99999999993
 21
2039.999999999996
 31
0.0
  0
LINE
  5
3CA19
330
747D
100
AcDbEntity
  8
部品1
 48
50.0
100
AcDbLine
 10
13413.99999999992
 20
4124.999999999996
 30
0.0
 11
13413.99999999992
 21
2039.999999999996
 31
0.0
  0
LINE
  5
3CA1A
330
747D
100
AcDbEntity
  8
細線
 48
50.0
100
AcDbLine
 10
13476.49999999992
 20
4124.999999999952
 30
0.0
 11
13476.49999999992
 21
2039.999999999952
 31
0.0
  0
LINE
  5
3CA1B
330
747D
100
AcDbEntity
  8
細線
 48
50.0
100
AcDbLine
 10
13491.49999999992
 20
4124.999999999952
 30
0.0
 11
13491.49999999992
 21
2039.999999999952
 31
0.0
  0
LINE
  5
3CA1C
330
747D
100
AcDbEntity
  8
細線
 48
50.0
100
AcDbLine
 10
13616.49999999992
 20
4124.999999999952
 30
0.0
 11
13616.49999999992
 21
2039.999999999952
 31
0.0
  0
LINE
  5
3CA1D
330
747D
100
AcDbEntity
  8
細線
 48
50.0
100
AcDbLine
 10
13631.49999999993
 20
4124.999999999952
 30
0.0
 11
13631.49999999992
 21
2039.999999999952
 31
0.0
  0
LINE
  5
3CA1E
330
747D
100
AcDbEntity
  8
細線
 48
50.0
100
AcDbLine
 10
13756.49999999992
 20
4124.999999999952
 30
0.0
 11
13756.49999999992
 21
2039.999999999952
 31
0.0
  0
LINE
  5
3CA1F
330
747D
100
AcDbEntity
  8
細線
 48
50.0
100
AcDbLine
 10
13771.49999999992
 20
4124.999999999952
 30
0.0
 11
13771.49999999992
 21
2039.999999999952
 31
0.0
  0
LINE
  5
3CA20
330
747D
100
AcDbEntity
  8
細線
 48
50.0
100
AcDbLine
 10
15871.49999999993
 20
4124.999999999952
 30
0.0
 11
15871.49999999993
 21
2039.999999999952
 31
0.0
  0
LINE
  5
3CA21
330
747D
100
AcDbEntity
  8
細線
 48
50.0
100
AcDbLine
 10
15856.49999999993
 20
4124.999999999952
 30
0.0
 11
15856.49999999993
 21
2039.999999999952
 31
0.0
  0
LINE
  5
3CA22
330
747D
100
AcDbEntity
  8
細線
 48
50.0
100
AcDbLine
 10
15731.49999999995
 20
4124.999999999952
 30
0.0
 11
15731.49999999993
 21
2039.999999999952
 31
0.0
  0
LINE
  5
3CA23
330
747D
100
AcDbEntity
  8
細線
 48
50.0
100
AcDbLine
 10
15716.49999999993
 20
4124.999999999952
 30
0.0
 11
15716.49999999993
 21
2039.999999999952
 31
0.0
  0
LINE
  5
3CA24
330
747D
100
AcDbEntity
  8
細線
 48
50.0
100
AcDbLine
 10
15591.49999999993
 20
4124.999999999952
 30
0.0
 11
15591.49999999993
 21
2039.999999999952
 31
0.0
  0
LINE
  5
3CA25
330
747D
100
AcDbEntity
  8
細線
 48
50.0
100
AcDbLine
 10
15576.49999999993
 20
4124.999999999952
 30
0.0
 11
15576.49999999993
 21
2039.999999999952
 31
0.0
  0
LINE
  5
3CA26
330
747D
100
AcDbEntity
  8
部品1
 48
50.0
100
AcDbLine
 10
15513.99999999995
 20
4124.999999999996
 30
0.0
 11
15513.99999999995
 21
2039.999999999996
 31
0.0
  0
LINE
  5
3CA27
330
747D
100
AcDbEntity
  8
部品1
 48
50.0
100
AcDbLine
 10
15093.99999999993
 20
4124.999999999996
 30
0.0
 11
15093.99999999993
 21
2039.999999999996
 31
0.0
  0
LINE
  5
3CA28
330
747D
100
AcDbEntity
  8
細線
 48
50.0
100
AcDbLine
 10
15156.49999999993
 20
4124.999999999952
 30
0.0
 11
15156.49999999993
 21
2039.999999999952
 31
0.0
  0
LINE
  5
3CA29
330
747D
100
AcDbEntity
  8
細線
 48
50.0
100
AcDbLine
 10
15171.49999999993
 20
4124.999999999952
 30
0.0
 11
15171.49999999993
 21
2039.999999999952
 31
0.0
  0
LINE
  5
3CA2A
330
747D
100
AcDbEntity
  8
細線
 48
50.0
100
AcDbLine
 10
15296.49999999993
 20
4124.999999999952
 30
0.0
 11
15296.49999999993
 21
2039.999999999952
 31
0.0
  0
LINE
  5
3CA2B
330
747D
100
AcDbEntity
  8
細線
 48
50.0
100
AcDbLine
 10
15311.49999999995
 20
4124.999999999952
 30
0.0
 11
15311.49999999993
 21
2039.999999999952
 31
0.0
  0
LINE
  5
3CA2C
330
747D
100
AcDbEntity
  8
細線
 48
50.0
100
AcDbLine
 10
15436.49999999993
 20
4124.999999999952
 30
0.0
 11
15436.49999999993
 21
2039.999999999952
 31
0.0
  0
LINE
  5
3CA2D
330
747D
100
AcDbEntity
  8
細線
 48
50.0
100
AcDbLine
 10
15451.49999999993
 20
4124.999999999952
 30
0.0
 11
15451.49999999993
 21
2039.999999999952
 31
0.0
  0
LINE
  5
3CA2E
330
747D
100
AcDbEntity
  8
細線
 48
50.0
100
AcDbLine
 10
14736.49999999992
 20
4124.999999999952
 30
0.0
 11
14736.49999999992
 21
2039.999999999952
 31
0.0
  0
LINE
  5
3CA2F
330
747D
100
AcDbEntity
  8
細線
 48
50.0
100
AcDbLine
 10
14751.49999999992
 20
4124.999999999952
 30
0.0
 11
14751.49999999992
 21
2039.999999999952
 31
0.0
  0
LINE
  5
3CA30
330
747D
100
AcDbEntity
  8
細線
 48
50.0
100
AcDbLine
 10
14876.49999999992
 20
4124.999999999952
 30
0.0
 11
14876.49999999992
 21
2039.999999999952
 31
0.0
  0
LINE
  5
3CA31
330
747D
100
AcDbEntity
  8
細線
 48
50.0
100
AcDbLine
 10
14891.49999999993
 20
4124.999999999952
 30
0.0
 11
14891.49999999992
 21
2039.999999999952
 31
0.0
  0
LINE
  5
3CA32
330
747D
100
AcDbEntity
  8
細線
 48
50.0
100
AcDbLine
 10
15016.49999999992
 20
4124.999999999952
 30
0.0
 11
15016.49999999992
 21
2039.999999999952
 31
0.0
  0
LINE
  5
3CA33
330
747D
100
AcDbEntity
  8
細線
 48
50.0
100
AcDbLine
 10
15031.49999999992
 20
4124.999999999952
 30
0.0
 11
15031.49999999992
 21
2039.999999999952
 31
0.0
  0
DIMENSION
  5
3CA38
330
747D
100
AcDbEntity
  8
寸法
 48
50.0
100
AcDbDimension
  2
*D24
 10
9591.928295150273
 20
4497.220948226722
 30
0.0
 11
9612.083999588328
 21
4933.755881054128
 31
0.0
 70
   160
 71
     5
 42
167.0
  3
INABA_S50G
100
AcDbAlignedDimension
 13
10176.2025232069
 23
4637.421735714948
 33
0.0
 14
10168.50000000001
 24
4470.599461613894
 34
0.0
 50
87.3564150083235
100
AcDbRotatedDimension
1001
ACAD
1000
DSTYLE
1002
{
1070
   174
1070
     0
1070
   175
1070
     0
1070
   272
1070
     1
1070
   341
1005
0
1002
}
  0
DIMENSION
  5
3CA39
330
747D
100
AcDbEntity
  8
寸法
 48
50.0
100
AcDbDimension
  2
*D25
 10
10124.00000000001
 20
5307.44308242761
 30
0.0
 11
13131.50000000002
 21
5407.44308242761
 31
0.0
 70
    32
 71
     5
 42
6015.000000000007
  3
INABA_S50G
100
AcDbAlignedDimension
 13
16139.00000000002
 23
4383.499999999997
 33
0.0
 14
10124.00000000001
 24
4639.999999999996
 34
0.0
100
AcDbRotatedDimension
1001
ACAD
1000
DSTYLE
1002
{
1070
   174
1070
     0
1070
   175
1070
     0
1070
   272
1070
     1
1070
   341
1005
0
1002
}
  0
TEXT
  5
3CA3A
330
747D
100
AcDbEntity
  8
文字
 48
50.0
100
AcDbText
 10
13689.43797039656
 20
4555.022925255125
 30
0.0
 40
150.0
  1
49
 50
90.0
  7
STYLE1
100
AcDbText
  0
TEXT
  5
3CA3B
330
747D
100
AcDbEntity
  8
文字
 48
50.0
100
AcDbText
 10
13070.57380400374
 20
4736.672611778758
 30
0.0
 40
150.0
  1
1000
  7
STYLE1
100
AcDbText
  0
LINE
  5
3CA3C
330
747D
100
AcDbEntity
  8
部品1
 48
50.0
100
AcDbLine
 10
13476.50000000001
 20
4668.94168401042
 30
0.0
 11
13476.50000000001
 21
4646.125454893474
 31
0.0
  0
DIMENSION
  5
3CA3D
330
747D
100
AcDbEntity
  8
寸法
 48
50.0
100
AcDbDimension
  2
*D26
 10
9455.354169527224
 20
4597.499999999997
 30
0.0
 11
9455.354169527222
 21
3288.749999999997
 31
0.0
 70
   160
  1
軒高 <>
 71
     5
 42
2617.500000000001
  3
INABA_S50G
100
AcDbAlignedDimension
 13
10264.00000000001
 23
1979.999999999996
 33
0.0
 14
10240.80251771086
 24
4597.499999999996
 34
0.0
 50
90.0
100
AcDbRotatedDimension
1001
ACAD
1000
DSTYLE
1002
{
1070
   174
1070
     0
1070
   175
1070
     0
1070
   272
1070
     1
1070
   341
1005
0
1002
}
  0
LINE
  5
3CA3E
330
747D
100
AcDbEntity
  8
部品1
 48
50.0
100
AcDbLine
 10
13076.50000000001
 20
4668.94168401042
 30
0.0
 11
13476.50000000001
 21
4668.94168401042
 31
0.0
  0
LINE
  5
3CA3F
330
747D
100
AcDbEntity
  8
部品1
 48
50.0
100
AcDbLine
 10
13476.50000000001
 20
4646.125454893474
 30
0.0
 11
13076.50000000001
 21
4668.94168401042
 31
0.0
  0
DIMENSION
  5
3CA40
330
747D
100
AcDbEntity
  8
寸法
 48
50.0
100
AcDbDimension
  2
*D27
 10
16139.00000000002
 20
5041.009141976133
 30
0.0
 11
16416.55905511813
 21
5141.009141976134
 31
0.0
 70
    32
 71
     5
 42
140.0
  3
INABA_S50G
100
AcDbAlignedDimension
 13
15999.00000000002
 23
4390.087896305167
 33
0.0
 14
16139.00000000002
 24
4383.499999999997
 34
0.0
100
AcDbRotatedDimension
1001
ACAD
1000
DSTYLE
1002
{
1070
   174
1070
     0
1070
   175
1070
     0
1070
   272
1070
     1
1070
   341
1005
0
1002
}
  0
DIMENSION
  5
3CA41
330
747D
100
AcDbEntity
  8
寸法
 48
50.0
100
AcDbDimension
  2
*D28
 10
15999.00000000002
 20
5041.009141976133
 30
0.0
 11
13131.50000000002
 21
5141.009141976134
 31
0.0
 70
    32
 71
     5
 42
5735.000000000007
  3
INABA_S50G
100
AcDbAlignedDimension
 13
10264.00000000001
 23
4633.869670483504
 33
0.0
 14
15999.00000000002
 24
4390.087896305167
 34
0.0
100
AcDbRotatedDimension
1001
ACAD
1000
DSTYLE
1002
{
1070
   341
1005
0
1002
}
  0
ARC
  5
3CA42
330
747D
100
AcDbEntity
  8
細線
 48
5.0
100
AcDbCircle
 10
16104.81198694285
 20
4270.587657775435
 30
0.0
 40
80.0
100
AcDbArc
 50
77.55191471946886
 51
84.87917540950283
  0
LINE
  5
3CA43
330
747D
100
AcDbEntity
  8
細線
 48
5.0
100
AcDbLine
 10
16087.2583917979
 20
4351.530934059457
 30
0.0
 11
10174.63432565504
 21
4603.457504149206
 31
0.0
  0
LINE
  5
3CA44
330
747D
100
AcDbEntity
  8
細線
 48
5.0
100
AcDbLine
 10
16083.70694914187
 20
4274.613294764658
 30
0.0
 11
10169.60694944291
 21
4494.573920167335
 31
0.0
  0
LINE
  5
3CA45
330
747D
100
AcDbEntity
  8
細線
 48
5.0
100
AcDbLine
 10
10169.60694944291
 20
4494.573920167335
 30
0.0
 11
10129.9587731661
 21
4497.260894414186
 31
0.0
  0
LINE
  5
3CA46
330
747D
100
AcDbEntity
  8
細線
 48
5.0
100
AcDbLine
 10
10174.63432565504
 20
4603.457504149206
 30
0.0
 11
10126.80065476239
 21
4606.809758068135
 31
0.0
  0
DIMENSION
  5
3CA47
330
747D
100
AcDbEntity
  8
寸法
 48
50.0
100
AcDbDimension
  2
*D29
 10
10124.00000000001
 20
5041.009141976133
 30
0.0
 11
9846.440944881905
 21
5141.009141976134
 31
0.0
 70
    32
 71
     5
 42
140.0
  3
INABA_S50G
100
AcDbAlignedDimension
 13
10264.00000000001
 23
4633.869670483504
 33
0.0
 14
10124.00000000001
 24
4639.999999999996
 34
0.0
100
AcDbRotatedDimension
1001
ACAD
1000
DSTYLE
1002
{
1070
   174
1070
     0
1070
   175
1070
     0
1070
   272
1070
     1
1070
   341
1005
0
1002
}
  0
ARC
  5
3CA48
330
747D
100
AcDbEntity
  8
部品1
370
    15
100
AcDbCircle
 10
10130.18409923987
 20
4498.439549648119
 30
0.0
 40
1.200000000000004
100
AcDbArc
 50
180.0826967214714
 51
259.1772267247776
  0
ARC
  5
3CA49
330
747D
100
AcDbEntity
  8
部品1
370
    15
100
AcDbCircle
 10
10127.02598083616
 20
4607.988413302067
 30
0.0
 40
1.199999999999997
100
AcDbArc
 50
180.0826967214714
 51
259.1772267247776
  0
ARC
  5
3CA4A
330
747D
100
AcDbEntity
  8
部品1
370
    15
100
AcDbCircle
 10
10132.79588473523
 20
4632.224751389997
 30
0.0
 40
7.004878917433828
100
AcDbArc
 50
89.39689406581257
 51
180.0805568178331
  0
SPLINE
  5
3CA4B
330
747D
100
AcDbEntity
  8
部品1
370
    15
100
AcDbSpline
210
0.0
220
0.0
230
1.0
 70
    28
 71
     3
 72
     8
 73
     4
 74
     0
 42
0.0000000001
 43
0.0000000001
 40
0.0
 40
0.0
 40
0.0
 40
0.0
 40
1.0
 40
1.0
 40
1.0
 40
1.0
 10
10125.79249189133
 20
4631.190085839881
 30
0.0
 41
1.0
 10
10125.7922424265
 20
4631.36292547768
 30
0.0
 41
1.0
 10
10125.79126674208
 20
4632.038920362385
 30
0.0
 41
1.0
 10
10125.79101274136
 20
4632.21490266163
 30
0.0
 41
1.0
  0
ARC
  5
3CA4C
330
747D
100
AcDbEntity
  8
部品1
370
    15
100
AcDbCircle
 10
10139.51078111983
 20
4479.959941215853
 30
0.0
 40
7.500000000000007
100
AcDbArc
 50
180.0826967214714
 51
265.3563857275058
  0
LINE
  5
3CA4D
330
747D
100
AcDbEntity
  8
部品1
370
    15
100
AcDbLine
 10
10138.90359865696
 20
4472.484559656575
 30
0.0
 11
10141.31108075067
 21
4472.289013663987
 31
0.0
  0
LINE
  5
3CA4E
330
747D
100
AcDbEntity
  8
部品1
370
    15
100
AcDbLine
 10
10131.98934124173
 20
4494.808971000748
 30
0.0
 11
10132.01078893184
 21
4479.949116244083
 31
0.0
  0
LINE
  5
3CA4F
330
747D
100
AcDbEntity
  8
部品1
370
    15
100
AcDbLine
 10
10141.31108075067
 20
4472.289013663987
 30
0.0
 11
10153.6978598276
 21
4471.28290648841
 31
0.0
  0
ARC
  5
3CA50
330
747D
100
AcDbEntity
  8
部品1
370
    15
100
AcDbCircle
 10
10129.48934384573
 20
4494.805362676827
 30
0.0
 40
2.500000000000007
100
AcDbArc
 50
0.0826967214713959
 51
79.17722672477755
  0
LINE
  5
3CA51
330
747D
100
AcDbEntity
  8
部品1
370
    15
100
AcDbLine
 10
10142.95668846992
 20
4639.121557185219
 30
0.0
 11
10132.86961802
 21
4639.229242238772
 31
0.0
  0
LINE
  5
3CA52
330
747D
100
AcDbEntity
  8
部品1
370
    15
100
AcDbLine
 10
10128.83122283802
 20
4604.3578346547
 30
0.0
 11
10128.98410031196
 21
4498.437940860629
 31
0.0
  0
ARC
  5
3CA53
330
747D
100
AcDbEntity
  8
部品1
370
    15
100
AcDbCircle
 10
10126.33122544202
 20
4604.354226330776
 30
0.0
 40
2.500000000000013
100
AcDbArc
 50
0.0826967214713959
 51
79.17722672477755
  0
LINE
  5
3CA54
330
747D
100
AcDbEntity
  8
部品1
370
    15
100
AcDbLine
 10
10126.80065476239
 20
4606.809758068135
 30
0.0
 11
10126.80095392874
 21
4606.809800490082
 31
0.0
  0
ARC
  5
3CA55
330
747D
100
AcDbEntity
  8
部品1
370
    15
100
AcDbCircle
 10
10127.02598006277
 20
4607.988512382813
 30
0.0
 40
1.199999369608618
100
AcDbArc
 50
180.0827121069742
 51
259.1918010387235
  0
LINE
  5
3CA56
330
747D
100
AcDbEntity
  8
部品1
370
    15
100
AcDbLine
 10
10125.79249189133
 20
4631.190085839881
 30
0.0
 11
10125.82598194354
 21
4607.98678006601
 31
0.0
  0
LINE
  5
3CA57
330
747D
100
AcDbEntity
  8
細線
 48
5.0
100
AcDbLine
 10
16111.95249172295
 20
4350.268353000098
 30
0.0
 11
16087.2583917979
 21
4351.530934059457
 31
0.0
  0
LINE
  5
3CA58
330
747D
100
AcDbEntity
  8
細線
 48
5.0
100
AcDbLine
 10
16125.37612810908
 20
4273.480432248962
 30
0.0
 11
16083.70694914187
 21
4274.613294764658
 31
0.0
  0
LINE
  5
3CA59
330
747D
100
AcDbEntity
  8
細線
370
    15
100
AcDbLine
 10
16082.6
 20
4250.638836197311
 30
0.0
 11
16088.82658892336
 21
4385.495165646996
 31
0.0
  0
LINE
  5
3CA5A
330
747D
100
AcDbEntity
  8
部品1
370
    15
100
AcDbLine
 10
16126.80521707937
 20
4274.603029047124
 30
0.0
 11
16126.80519945373
 21
4274.602861632691
 31
0.0
  0
ARC
  5
3CA5B
330
747D
100
AcDbEntity
  8
部品1
370
    15
100
AcDbCircle
 10
16125.6117951884
 20
4274.728505014842
 30
0.0
 40
1.200000000000013
100
AcDbArc
 50
274.8954250606681
 51
353.9899550641265
  0
ARC
  5
3CA5C
330
747D
100
AcDbEntity
  8
部品1
370
    15
100
AcDbCircle
 10
16114.4133977611
 20
4257.185079989645
 30
0.0
 40
7.500000000000015
100
AcDbArc
 50
269.3564157274694
 51
353.9899550641265
  0
LINE
  5
3CA5D
330
747D
100
AcDbEntity
  8
部品1
370
    15
100
AcDbLine
 10
16114.3291545484
 20
4249.685553132494
 30
0.0
 11
16111.91443584962
 21
4249.712677998479
 31
0.0
  0
LINE
  5
3CA5E
330
747D
100
AcDbEntity
  8
部品1
370
    15
100
AcDbLine
 10
16123.44128455993
 20
4271.303759241538
 30
0.0
 11
16121.87217441945
 21
4256.399808851212
 31
0.0
  0
LINE
  5
3CA5F
330
747D
100
AcDbEntity
  8
部品1
370
    15
100
AcDbLine
 10
16111.91443584962
 20
4249.712677998479
 30
0.0
 11
16099.39974212394
 21
4249.853257267747
 31
0.0
  0
ARC
  5
3CA60
330
747D
100
AcDbEntity
  8
部品1
370
    15
100
AcDbCircle
 10
16125.92754344605
 20
4271.042002195394
 30
0.0
 40
2.500000000000044
100
AcDbArc
 50
94.89542506066804
 51
173.9899550641265
  0
LINE
  5
3CA61
330
747D
100
AcDbEntity
  8
部品1
370
    15
100
AcDbLine
 10
16119.81000078889
 20
4382.554165777263
 30
0.0
 11
16125.33687914775
 21
4381.910423237296
 31
0.0
  0
ARC
  5
3CA62
330
747D
100
AcDbEntity
  8
部品1
370
    15
100
AcDbCircle
 10
16129.71264083995
 20
4373.850054267684
 30
0.0
 40
7.500000000000016
100
AcDbArc
 50
353.9899550641265
 51
83.35641572756914
  0
LINE
  5
3CA63
330
747D
100
AcDbEntity
  8
部品1
370
    15
100
AcDbLine
 10
16125.33687914775
 20
4381.910423237296
 30
0.0
 11
16130.58033657713
 21
4381.299692118457
 31
0.0
  0
LINE
  5
3CA64
330
747D
100
AcDbEntity
  8
部品1
370
    15
100
AcDbLine
 10
16137.1714174983
 20
4373.064783129247
 30
0.0
 11
16126.80521707937
 21
4274.603029047124
 31
0.0
  0
LINE
  5
3CA65
330
747D
100
AcDbEntity
  8
部品1
370
    15
100
AcDbLine
 10
16099.04587135784
 20
4384.972665435154
 30
0.0
 11
16119.81000078889
 21
4382.554165777263
 31
0.0
  0
LINE
  5
3CA66
330
747D
100
AcDbEntity
  8
細線
 48
5.0
100
AcDbLine
 10
10168.50000000001
 20
4470.599461613892
 30
0.0
 11
10176.2025232069
 21
4637.42173571495
 31
0.0
  0
LINE
  5
3CA67
330
747D
100
AcDbEntity
  8
部品1
 48
5.0
100
AcDbLine
 10
16099.04587135782
 20
4384.972665435157
 30
0.0
 11
10142.95668846992
 21
4639.121557185219
 31
0.0
  0
LINE
  5
3CA68
330
747D
100
AcDbEntity
  8
部品1
 48
5.0
100
AcDbLine
 10
16099.40022271562
 20
4249.863135793723
 30
0.0
 11
10153.69785982758
 21
4471.28290648841
 31
0.0
  0
LINE
  5
3CA69
330
747D
100
AcDbEntity
  8
細線
 48
50.0
100
AcDbLine
 10
13221.50000000001
 20
4124.999999999949
 30
0.0
 11
13221.50000000001
 21
2039.999999999952
 31
0.0
  0
LINE
  5
3CA6A
330
747D
100
AcDbEntity
  8
細線
 48
50.0
100
AcDbLine
 10
13206.5
 20
4124.999999999949
 30
0.0
 11
13206.5
 21
2039.999999999952
 31
0.0
  0
LINE
  5
3CA6B
330
747D
100
AcDbEntity
  8
細線
 48
50.0
100
AcDbLine
 10
13081.50000000001
 20
4124.999999999949
 30
0.0
 11
13081.50000000001
 21
2039.999999999952
 31
0.0
  0
LINE
  5
3CA6C
330
747D
100
AcDbEntity
  8
細線
 48
50.0
100
AcDbLine
 10
13066.5
 20
4124.999999999949
 30
0.0
 11
13066.5
 21
2039.999999999952
 31
0.0
  0
LINE
  5
3CA6D
330
747D
100
AcDbEntity
  8
細線
 48
50.0
100
AcDbLine
 10
12941.50000000001
 20
4124.999999999949
 30
0.0
 11
12941.50000000001
 21
2039.999999999952
 31
0.0
  0
LINE
  5
3CA6E
330
747D
100
AcDbEntity
  8
細線
 48
50.0
100
AcDbLine
 10
12926.5
 20
4124.999999999949
 30
0.0
 11
12926.5
 21
2039.999999999952
 31
0.0
  0
LINE
  5
3CA6F
330
747D
100
AcDbEntity
  8
細線
 48
50.0
100
AcDbLine
 10
12801.49999999998
 20
4124.999999999952
 30
0.0
 11
12801.49999999998
 21
2039.999999999952
 31
0.0
  0
LINE
  5
3CA70
330
747D
100
AcDbEntity
  8
細線
 48
50.0
100
AcDbLine
 10
12786.49999999998
 20
4124.999999999952
 30
0.0
 11
12786.49999999998
 21
2039.999999999952
 31
0.0
  0
LINE
  5
3CA71
330
747D
100
AcDbEntity
  8
細線
 48
50.0
100
AcDbLine
 10
12661.49999999999
 20
4124.999999999952
 30
0.0
 11
12661.49999999998
 21
2039.999999999952
 31
0.0
  0
LINE
  5
3CA72
330
747D
100
AcDbEntity
  8
細線
 48
50.0
100
AcDbLine
 10
12646.49999999998
 20
4124.999999999952
 30
0.0
 11
12646.49999999998
 21
2039.999999999952
 31
0.0
  0
LINE
  5
3CA73
330
747D
100
AcDbEntity
  8
細線
 48
50.0
100
AcDbLine
 10
12521.49999999998
 20
4124.999999999952
 30
0.0
 11
12521.49999999998
 21
2039.999999999952
 31
0.0
  0
LINE
  5
3CA74
330
747D
100
AcDbEntity
  8
細線
 48
50.0
100
AcDbLine
 10
12506.49999999998
 20
4124.999999999952
 30
0.0
 11
12506.49999999998
 21
2039.999999999952
 31
0.0
  0
LINE
  5
3CA75
330
747D
100
AcDbEntity
  8
部品1
 48
50.0
100
AcDbLine
 10
12864.0
 20
4125.0
 30
0.0
 11
12864.0
 21
2039.999999999996
 31
0.0
  0
LINE
  5
3CA76
330
747D
100
AcDbEntity
  8
部品1
 48
50.0
100
AcDbLine
 10
12443.99999999998
 20
4124.999999999996
 30
0.0
 11
12443.99999999998
 21
2039.999999999996
 31
0.0
  0
LINE
  5
3CA77
330
747D
100
AcDbEntity
  8
部品1
 48
50.0
100
AcDbLine
 10
12023.99999999996
 20
4124.999999999996
 30
0.0
 11
12023.99999999996
 21
2039.999999999996
 31
0.0
  0
LINE
  5
3CA78
330
747D
100
AcDbEntity
  8
細線
 48
50.0
100
AcDbLine
 10
12086.49999999996
 20
4124.999999999952
 30
0.0
 11
12086.49999999996
 21
2039.999999999952
 31
0.0
  0
LINE
  5
3CA79
330
747D
100
AcDbEntity
  8
細線
 48
50.0
100
AcDbLine
 10
12101.49999999996
 20
4124.999999999952
 30
0.0
 11
12101.49999999996
 21
2039.999999999952
 31
0.0
  0
LINE
  5
3CA7A
330
747D
100
AcDbEntity
  8
細線
 48
50.0
100
AcDbLine
 10
12226.49999999996
 20
4124.999999999952
 30
0.0
 11
12226.49999999996
 21
2039.999999999952
 31
0.0
  0
LINE
  5
3CA7B
330
747D
100
AcDbEntity
  8
細線
 48
50.0
100
AcDbLine
 10
12241.49999999998
 20
4124.999999999952
 30
0.0
 11
12241.49999999996
 21
2039.999999999952
 31
0.0
  0
LINE
  5
3CA7C
330
747D
100
AcDbEntity
  8
細線
 48
50.0
100
AcDbLine
 10
12366.49999999996
 20
4124.999999999952
 30
0.0
 11
12366.49999999996
 21
2039.999999999952
 31
0.0
  0
LINE
  5
3CA7D
330
747D
100
AcDbEntity
  8
細線
 48
50.0
100
AcDbLine
 10
12381.49999999996
 20
4124.999999999952
 30
0.0
 11
12381.49999999996
 21
2039.999999999952
 31
0.0
  0
LINE
  5
3CA7E
330
747D
100
AcDbEntity
  8
部品1
 48
50.0
100
AcDbLine
 10
11603.99999999995
 20
4124.999999999996
 30
0.0
 11
11603.99999999995
 21
2039.999999999996
 31
0.0
  0
LINE
  5
3CA7F
330
747D
100
AcDbEntity
  8
細線
 48
50.0
100
AcDbLine
 10
11666.49999999995
 20
4124.999999999952
 30
0.0
 11
11666.49999999995
 21
2039.999999999952
 31
0.0
  0
LINE
  5
3CA80
330
747D
100
AcDbEntity
  8
細線
 48
50.0
100
AcDbLine
 10
11681.49999999995
 20
4124.999999999952
 30
0.0
 11
11681.49999999995
 21
2039.999999999952
 31
0.0
  0
LINE
  5
3CA81
330
747D
100
AcDbEntity
  8
細線
 48
50.0
100
AcDbLine
 10
11806.49999999995
 20
4124.999999999952
 30
0.0
 11
11806.49999999995
 21
2039.999999999952
 31
0.0
  0
LINE
  5
3CA82
330
747D
100
AcDbEntity
  8
細線
 48
50.0
100
AcDbLine
 10
11821.49999999996
 20
4124.999999999952
 30
0.0
 11
11821.49999999995
 21
2039.999999999952
 31
0.0
  0
LINE
  5
3CA83
330
747D
100
AcDbEntity
  8
細線
 48
50.0
100
AcDbLine
 10
11946.49999999995
 20
4124.999999999952
 30
0.0
 11
11946.49999999995
 21
2039.999999999952
 31
0.0
  0
LINE
  5
3CA84
330
747D
100
AcDbEntity
  8
細線
 48
50.0
100
AcDbLine
 10
11961.49999999995
 20
4124.999999999952
 30
0.0
 11
11961.49999999995
 21
2039.999999999952
 31
0.0
  0
LINE
  5
3CA85
330
747D
100
AcDbEntity
  8
部品1
 48
50.0
100
AcDbLine
 10
11183.99999999993
 20
4124.999999999996
 30
0.0
 11
11183.99999999993
 21
2039.999999999996
 31
0.0
  0
LINE
  5
3CA86
330
747D
100
AcDbEntity
  8
細線
 48
50.0
100
AcDbLine
 10
11246.49999999993
 20
4124.999999999952
 30
0.0
 11
11246.49999999993
 21
2039.999999999952
 31
0.0
  0
LINE
  5
3CA87
330
747D
100
AcDbEntity
  8
細線
 48
50.0
100
AcDbLine
 10
11261.49999999993
 20
4124.999999999952
 30
0.0
 11
11261.49999999993
 21
2039.999999999952
 31
0.0
  0
LINE
  5
3CA88
330
747D
100
AcDbEntity
  8
細線
 48
50.0
100
AcDbLine
 10
11386.49999999993
 20
4124.999999999952
 30
0.0
 11
11386.49999999993
 21
2039.999999999952
 31
0.0
  0
LINE
  5
3CA89
330
747D
100
AcDbEntity
  8
細線
 48
50.0
100
AcDbLine
 10
11401.49999999995
 20
4124.999999999952
 30
0.0
 11
11401.49999999993
 21
2039.999999999952
 31
0.0
  0
LINE
  5
3CA8A
330
747D
100
AcDbEntity
  8
細線
 48
50.0
100
AcDbLine
 10
11526.49999999993
 20
4124.999999999952
 30
0.0
 11
11526.49999999993
 21
2039.999999999952
 31
0.0
  0
LINE
  5
3CA8B
330
747D
100
AcDbEntity
  8
細線
 48
50.0
100
AcDbLine
 10
11541.49999999993
 20
4124.999999999952
 30
0.0
 11
11541.49999999993
 21
2039.999999999952
 31
0.0
  0
LINE
  5
3CA8C
330
747D
100
AcDbEntity
  8
細線
 48
50.0
100
AcDbLine
 10
10826.49999999992
 20
4124.999999999952
 30
0.0
 11
10826.49999999992
 21
2039.999999999952
 31
0.0
  0
LINE
  5
3CA8D
330
747D
100
AcDbEntity
  8
細線
 48
50.0
100
AcDbLine
 10
10841.49999999992
 20
4124.999999999952
 30
0.0
 11
10841.49999999992
 21
2039.999999999952
 31
0.0
  0
LINE
  5
3CA8E
330
747D
100
AcDbEntity
  8
細線
 48
50.0
100
AcDbLine
 10
10966.49999999992
 20
4124.999999999952
 30
0.0
 11
10966.49999999992
 21
2039.999999999952
 31
0.0
  0
LINE
  5
3CA8F
330
747D
100
AcDbEntity
  8
細線
 48
50.0
100
AcDbLine
 10
10981.49999999993
 20
4124.999999999952
 30
0.0
 11
10981.49999999992
 21
2039.999999999952
 31
0.0
  0
LINE
  5
3CA90
330
747D
100
AcDbEntity
  8
細線
 48
50.0
100
AcDbLine
 10
11106.49999999992
 20
4124.999999999952
 30
0.0
 11
11106.49999999992
 21
2039.999999999952
 31
0.0
  0
LINE
  5
3CA91
330
747D
100
AcDbEntity
  8
細線
 48
50.0
100
AcDbLine
 10
11121.49999999992
 20
4124.999999999952
 30
0.0
 11
11121.49999999992
 21
2039.999999999952
 31
0.0
  0
LINE
  5
3CA92
330
747D
100
AcDbEntity
  8
細線
 48
50.0
100
AcDbLine
 10
14191.49999999992
 20
4124.999999999952
 30
0.0
 11
14191.49999999992
 21
2039.999999999952
 31
0.0
  0
LINE
  5
3CA93
330
747D
100
AcDbEntity
  8
細線
 48
50.0
100
AcDbLine
 10
14176.49999999992
 20
4124.999999999952
 30
0.0
 11
14176.49999999992
 21
2039.999999999952
 31
0.0
  0
LINE
  5
3CA94
330
747D
100
AcDbEntity
  8
細線
 48
50.0
100
AcDbLine
 10
14051.49999999993
 20
4124.999999999952
 30
0.0
 11
14051.49999999992
 21
2039.999999999952
 31
0.0
  0
LINE
  5
3CA95
330
747D
100
AcDbEntity
  8
細線
 48
50.0
100
AcDbLine
 10
14036.49999999992
 20
4124.999999999952
 30
0.0
 11
14036.49999999992
 21
2039.999999999952
 31
0.0
  0
LINE
  5
3CA96
330
747D
100
AcDbEntity
  8
細線
 48
50.0
100
AcDbLine
 10
13911.49999999992
 20
4124.999999999952
 30
0.0
 11
13911.49999999992
 21
2039.999999999952
 31
0.0
  0
LINE
  5
3CA97
330
747D
100
AcDbEntity
  8
細線
 48
50.0
100
AcDbLine
 10
13896.49999999992
 20
4124.999999999952
 30
0.0
 11
13896.49999999992
 21
2039.999999999952
 31
0.0
  0
LINE
  5
3CA98
330
747D
100
AcDbEntity
  8
部品1
 48
50.0
100
AcDbLine
 10
13833.99999999992
 20
4124.999999999996
 30
0.0
 11
13833.99999999992
 21
2039.999999999996
 31
0.0
  0
LINE
  5
3CA99
330
747D
100
AcDbEntity
  8
細線
 48
50.0
100
AcDbLine
 10
14611.49999999993
 20
4124.999999999952
 30
0.0
 11
14611.49999999993
 21
2039.999999999952
 31
0.0
  0
LINE
  5
3CA9A
330
747D
100
AcDbEntity
  8
細線
 48
50.0
100
AcDbLine
 10
14596.49999999993
 20
4124.999999999952
 30
0.0
 11
14596.49999999993
 21
2039.999999999952
 31
0.0
  0
LINE
  5
3CA9B
330
747D
100
AcDbEntity
  8
細線
 48
50.0
100
AcDbLine
 10
14471.49999999995
 20
4124.999999999952
 30
0.0
 11
14471.49999999993
 21
2039.999999999952
 31
0.0
  0
LINE
  5
3CA9C
330
747D
100
AcDbEntity
  8
細線
 48
50.0
100
AcDbLine
 10
14456.49999999993
 20
4124.999999999952
 30
0.0
 11
14456.49999999993
 21
2039.999999999952
 31
0.0
  0
LINE
  5
3CA9D
330
747D
100
AcDbEntity
  8
細線
 48
50.0
100
AcDbLine
 10
14331.49999999993
 20
4124.999999999952
 30
0.0
 11
14331.49999999993
 21
2039.999999999952
 31
0.0
  0
LINE
  5
3CA9E
330
747D
100
AcDbEntity
  8
細線
 48
50.0
100
AcDbLine
 10
14316.49999999993
 20
4124.999999999952
 30
0.0
 11
14316.49999999993
 21
2039.999999999952
 31
0.0
  0
LINE
  5
3CA9F
330
747D
100
AcDbEntity
  8
部品1
 48
50.0
100
AcDbLine
 10
14253.99999999993
 20
4124.999999999996
 30
0.0
 11
14253.99999999993
 21
2039.999999999996
 31
0.0
  0
LINE
  5
3CAA0
330
747D
100
AcDbEntity
  8
部品1
 48
50.0
100
AcDbLine
 10
14673.99999999995
 20
4124.999999999996
 30
0.0
 11
14673.99999999995
 21
2039.999999999996
 31
0.0
  0
DIMENSION
  5
3CAA1
330
747D
100
AcDbEntity
  8
寸法
 48
50.0
100
AcDbDimension
  2
*D30
 10
16418.2960775968
 20
1979.999999999996
 30
0.0
 11
16318.28131381727
 21
3181.999999999999
 31
0.0
 70
    32
 71
     5
 42
2404.0
  3
INABA_S50G
100
AcDbAlignedDimension
 13
16139.00000000001
 23
4383.999999999996
 33
0.0
 14
15999.0
 24
1979.999999999996
 34
0.0
 50
90.0
100
AcDbRotatedDimension
  0
DIMENSION
  5
3CAA2
330
747D
100
AcDbEntity
  8
寸法
 48
50.0
100
AcDbDimension
  2
*D31
 10
9178.556001293044
 20
1979.999999999996
 30
0.0
 11
9078.541237513517
 21
3309.999999999998
 31
0.0
 70
    32
 71
     5
 42
2660.0
  3
INABA_S50G
100
AcDbAlignedDimension
 13
10124.00000000001
 23
4639.999999999996
 33
0.0
 14
10264.00000000001
 24
1979.999999999996
 34
0.0
 50
90.0
100
AcDbRotatedDimension
  0
DIMENSION
  5
3CAA3
330
747D
100
AcDbEntity
  8
寸法
 48
50.0
100
AcDbDimension
  2
*D32
 10
9729.000000000008
 20
2039.999999999996
 30
0.0
 11
9628.985236220479
 21
3082.499999999999
 31
0.0
 70
    32
 71
     5
 42
2085.0
  3
INABA_S50G
100
AcDbAlignedDimension
 13
10264.00000000001
 23
4124.999999999996
 33
0.0
 14
10264.00000000001
 24
2039.999999999996
 34
0.0
 50
90.0
100
AcDbRotatedDimension
  0
DIMENSION
  5
3CAA4
330
747D
100
AcDbEntity
  8
寸法
 48
50.0
100
AcDbDimension
  2
*D33
 10
9729.000000000008
 20
1979.999999999996
 30
0.0
 11
9636.13338777292
 21
1945.301995320991
 31
0.0
 70
   160
 71
     5
 42
60.0
  3
INABA_S50G
100
AcDbAlignedDimension
 13
10264.00000000001
 23
2039.999999999996
 33
0.0
 14
10264.00000000001
 24
1979.999999999996
 34
0.0
 50
90.0
100
AcDbRotatedDimension
1001
ACAD
1000
DSTYLE
1002
{
1070
   279
1070
     2
1002
}
  0
LINE
  5
3CAA5
330
747D
100
AcDbEntity
  8
部品1
 48
50.0
100
AcDbLine
 10
13349.00000000001
 20
4352.288879543279
 30
0.0
 11
13349.0
 21
4124.999999999996
 31
0.0
  0
LINE
  5
3CAA6
330
747D
100
AcDbEntity
  8
部品1
 48
50.0
100
AcDbLine
 10
13349.0
 20
2039.999999999996
 30
0.0
 11
13349.0
 21
1979.999999999996
 31
0.0
  0
LINE
  5
3CAA7
330
747D
100
AcDbEntity
  8
部品1
 48
50.0
100
AcDbLine
 10
13284.0
 20
4124.999999999996
 30
0.0
 11
13284.0
 21
2039.999999999996
 31
0.0
  0
LINE
  5
3CAA8
330
747D
100
AcDbEntity
  8
部品1
 48
50.0
100
AcDbLine
 10
15934.0
 20
4124.999999999996
 30
0.0
 11
15934.0
 21
2039.999999999996
 31
0.0
  0
LINE
  5
3CAA9
330
747D
100
AcDbEntity
  8
部品1
 48
50.0
100
AcDbLine
 10
15999.00000000002
 20
4253.602070731022
 30
0.0
 11
15999.0
 21
1779.999999999996
 31
0.0
  0
LINE
  5
3CAAA
330
747D
100
AcDbEntity
  8
部品1
 48
50.0
100
AcDbLine
 10
10344.0
 20
4124.999999999996
 30
0.0
 11
15999.0
 21
4124.999999999996
 31
0.0
  0
LINE
  5
3CAAB
330
747D
100
AcDbEntity
  8
部品1
 48
50.0
100
AcDbLine
 10
10344.0
 20
2039.999999999996
 30
0.0
 11
15999.0
 21
2039.999999999996
 31
0.0
  0
LINE
  5
3CAAC
330
747D
100
AcDbEntity
  8
部品1
 48
50.0
100
AcDbLine
 10
10344.0
 20
1979.999999999996
 30
0.0
 11
15999.0
 21
1979.999999999996
 31
0.0
  0
LINE
  5
3CAAD
330
747D
100
AcDbEntity
  8
部品1
 48
50.0
100
AcDbLine
 10
10344.0
 20
4464.195996705859
 30
0.0
 11
10344.0
 21
1779.999999999996
 31
0.0
  0
LINE
  5
3CAAE
330
747D
100
AcDbEntity
  8
部品1
 48
50.0
100
AcDbLine
 10
10264.00000000001
 20
4467.175221122832
 30
0.0
 11
10264.00000000001
 21
1779.999999999996
 31
0.0
  0
LINE
  5
3CAAF
330
747D
100
AcDbEntity
  8
破線
 48
10.0
100
AcDbLine
 10
10264.00000000001
 20
1779.999999999992
 30
0.0
 11
10264.0
 21
1579.999999999993
 31
0.0
  0
LINE
  5
3CAB0
330
747D
100
AcDbEntity
  8
破線
 48
10.0
100
AcDbLine
 10
10344.0
 20
1779.999999999992
 30
0.0
 11
10344.0
 21
1579.999999999993
 31
0.0
  0
LINE
  5
3CAB1
330
747D
100
AcDbEntity
  8
Ｇ．Ｌ
 62
    30
 48
50.0
100
AcDbLine
 10
9979.000000000008
 20
1779.999999999996
 30
0.0
 11
16299.00000000001
 21
1779.999999999996
 31
0.0
  0
LINE
  5
3CAB6
330
747D
100
AcDbEntity
  8
細線
 48
50.0
100
AcDbLine
 10
13444.0
 20
4498.264616752781
 30
0.0
 11
13438.43978029812
 21
4348.958114826868
 31
0.0
  0
LINE
  5
3CAB7
330
747D
100
AcDbEntity
  8
破線
 48
10.0
100
AcDbLine
 10
10264.0
 20
1579.999999999993
 30
0.0
 11
10344.0
 21
1579.999999999993
 31
0.0
  0
LINE
  5
3CD76
330
747D
100
AcDbEntity
  8
部品1
100
AcDbLine
 10
20034.00000000001
 20
13861.99999999999
 30
0.0
 11
16404.00000000001
 21
13861.99999999999
 31
0.0
  0
TEXT
  5
3CD77
330
747D
100
AcDbEntity
  8
文字
 62
     7
 48
50.0
100
AcDbText
 10
16516.89389822236
 20
9781.455120472095
 30
0.0
 40
110.0
  1
Z08→塗装溶融亜鉛めっき鋼板(JIS G 3312)
 41
0.9
  7
STYLE1
100
AcDbText
  0
TEXT
  5
3CD78
330
747D
100
AcDbEntity
  8
文字
 62
     7
 48
50.0
100
AcDbText
 10
18620.98362021954
 20
10529.45512047209
 30
0.0
 40
110.0
  1
F12            0.7
  7
STYLE1
100
AcDbText
  0
TEXT
  5
3CD79
330
747D
100
AcDbEntity
  8
文字
 62
     7
 48
50.0
100
AcDbText
 10
16516.89389822214
 20
9968.455120472095
 30
0.0
 40
110.0
  1
Y10→溶融亜鉛-5％アルミニウム合金めっき鋼板(JIS G 3317)
 41
0.9
  7
STYLE1
100
AcDbText
  0
TEXT
  5
3CD7A
330
747D
100
AcDbEntity
  8
文字
 62
     7
 48
50.0
100
AcDbText
 10
16516.89389822215
 20
10155.45512047209
 30
0.0
 40
110.0
  1
F12→溶融亜鉛めっき鋼板(JIS G 3302)
  7
STYLE1
100
AcDbText
  0
TEXT
  5
3CD7B
330
747D
100
AcDbEntity
  8
文字
 62
     7
 48
50.0
100
AcDbText
 10
16905.51000918209
 20
10529.45512047209
 30
0.0
 40
110.0
  1
シャッターカバー
  7
STYLE1
100
AcDbText
  0
LINE
  5
3CD7C
330
747D
100
AcDbEntity
  8
部品1
100
AcDbLine
 10
20034.0
 20
9747.999999999999
 30
0.0
 11
16404.0
 21
9748.000000000002
 31
0.0
  0
LINE
  5
3CD7D
330
747D
100
AcDbEntity
  8
部品1
100
AcDbLine
 10
20034.00000000002
 20
9934.999999999998
 30
0.0
 11
16404.00000000002
 21
9934.999999999998
 31
0.0
  0
TEXT
  5
3CD7E
330
747D
100
AcDbEntity
  8
文字
 62
     7
 48
50.0
100
AcDbText
 10
18620.9836202197
 20
12586.45512047209
 30
0.0
 40
110.0
  1
Y10            1.6
  7
STYLE1
100
AcDbText
  0
TEXT
  5
3CD7F
330
747D
100
AcDbEntity
  8
文字
 62
     7
 48
50.0
100
AcDbText
 10
18620.9836202197
 20
12773.45512047209
 30
0.0
 40
110.0
  1
Y10            1.6
  7
STYLE1
100
AcDbText
  0
TEXT
  5
3CD80
330
747D
100
AcDbEntity
  8
文字
 62
     7
 48
50.0
100
AcDbText
 10
18413.93318537196
 20
11651.45512047208
 30
0.0
 40
110.0
  1
ポリエチレンフォーム 4.0
  7
STYLE1
100
AcDbText
  0
TEXT
  5
3CD81
330
747D
100
AcDbEntity
  8
文字
 62
     7
 48
50.0
100
AcDbText
 10
16905.51000918219
 20
10342.45512047208
 30
0.0
 40
110.0
  1
シャッターレール
  7
STYLE1
100
AcDbText
  0
TEXT
  5
3CD82
330
747D
100
AcDbEntity
  8
文字
 62
     7
 48
50.0
100
AcDbText
 10
18620.9836202197
 20
10903.45512047209
 30
0.0
 40
110.0
  1
F12            2.3
  7
STYLE1
100
AcDbText
  0
TEXT
  5
3CD83
330
747D
100
AcDbEntity
  8
文字
 62
     7
 48
50.0
100
AcDbText
 10
16905.51000918227
 20
10903.45512047209
 30
0.0
 40
110.0
  1
コーナー金具
  7
STYLE1
100
AcDbText
  0
TEXT
  5
3CD84
330
747D
100
AcDbEntity
  8
文字
 62
     7
 48
50.0
100
AcDbText
 10
18620.98362021965
 20
11838.45512047208
 30
0.0
 40
110.0
  1
Y10            0.5
  7
STYLE1
100
AcDbText
  0
TEXT
  5
3CD85
330
747D
100
AcDbEntity
  8
文字
 62
     7
 48
50.0
100
AcDbText
 10
16905.51000918223
 20
11838.45512047209
 30
0.0
 40
110.0
  1
屋根パネル
  7
STYLE1
100
AcDbText
  0
TEXT
  5
3CD86
330
747D
100
AcDbEntity
  8
文字
 62
     7
 48
50.0
100
AcDbText
 10
18620.9836202197
 20
12399.45512047209
 30
0.0
 40
110.0
  1
Y10            1.0
  7
STYLE1
100
AcDbText
  0
TEXT
  5
3CD87
330
747D
100
AcDbEntity
  8
文字
 62
     7
 48
50.0
100
AcDbText
 10
16905.51000918228
 20
12399.4551204721
 30
0.0
 40
110.0
  1
梁左右
  7
STYLE1
100
AcDbText
  0
TEXT
  5
3CD88
330
747D
100
AcDbEntity
  8
文字
 62
     7
 48
50.0
100
AcDbText
 10
16905.51000918228
 20
12586.45512047209
 30
0.0
 40
110.0
  1
桁後
  7
STYLE1
100
AcDbText
  0
TEXT
  5
3CD89
330
747D
100
AcDbEntity
  8
文字
 62
     7
 48
50.0
100
AcDbText
 10
16905.51000918228
 20
12773.45512047209
 30
0.0
 40
110.0
  1
桁前
  7
STYLE1
100
AcDbText
  0
TEXT
  5
3CD8A
330
747D
100
AcDbEntity
  8
文字
 62
     7
 48
50.0
100
AcDbText
 10
18620.98362021971
 20
12960.45512047209
 30
0.0
 40
110.0
  1
F12            1.6
  7
STYLE1
100
AcDbText
  0
TEXT
  5
3CD8B
330
747D
100
AcDbEntity
  8
文字
 62
     7
 48
50.0
100
AcDbText
 10
16905.51000918229
 20
12960.45512047209
 30
0.0
 40
110.0
  1
柱後左右
  7
STYLE1
100
AcDbText
  0
TEXT
  5
3CD8C
330
747D
100
AcDbEntity
  8
文字
 62
     7
 48
50.0
100
AcDbText
 10
18620.98362021971
 20
13147.45512047209
 30
0.0
 40
110.0
  1
F12         1.2+1.6
  7
STYLE1
100
AcDbText
  0
TEXT
  5
3CD8D
330
747D
100
AcDbEntity
  8
文字
 62
     7
 48
50.0
100
AcDbText
 10
16905.51000918229
 20
13147.45512047209
 30
0.0
 40
110.0
  1
柱中左右
  7
STYLE1
100
AcDbText
  0
TEXT
  5
3CD8E
330
747D
100
AcDbEntity
  8
文字
 62
     7
 48
50.0
100
AcDbText
 10
16537.73522103094
 20
10529.45512047209
 30
0.0
 40
110.0
  1
17
  7
STYLE1
100
AcDbText
  0
TEXT
  5
3CD8F
330
747D
100
AcDbEntity
  8
文字
 62
     7
 48
50.0
100
AcDbText
 10
16537.73522103094
 20
10342.4551204721
 30
0.0
 40
110.0
  1
18
  7
STYLE1
100
AcDbText
  0
TEXT
  5
3CD90
330
747D
100
AcDbEntity
  8
文字
 62
     7
 48
50.0
100
AcDbText
 10
16537.73522103094
 20
10716.45512047209
 30
0.0
 40
110.0
  1
16
  7
STYLE1
100
AcDbText
  0
TEXT
  5
3CD91
330
747D
100
AcDbEntity
  8
文字
 62
     7
 48
50.0
100
AcDbText
 10
16537.73522103094
 20
10903.45512047209
 30
0.0
 40
110.0
  1
15
  7
STYLE1
100
AcDbText
  0
LINE
  5
3CD92
330
747D
100
AcDbEntity
  8
部品1
100
AcDbLine
 10
20034.00000000002
 20
10121.99999999999
 30
0.0
 11
16404.00000000002
 21
10121.99999999999
 31
0.0
  0
LINE
  5
3CD93
330
747D
100
AcDbEntity
  8
部品1
100
AcDbLine
 10
20033.99999999999
 20
10495.99999999999
 30
0.0
 11
16404.0
 21
10496.0
 31
0.0
  0
LINE
  5
3CD94
330
747D
100
AcDbEntity
  8
部品1
100
AcDbLine
 10
20033.99999999999
 20
10308.99999999999
 30
0.0
 11
16404.0
 21
10309.0
 31
0.0
  0
TEXT
  5
3CD95
330
747D
100
AcDbEntity
  8
文字
 62
     7
 48
50.0
100
AcDbText
 10
16905.51000918216
 20
10716.45512047209
 30
0.0
 40
110.0
  1
シャッター
  7
STYLE1
100
AcDbText
  0
TEXT
  5
3CD96
330
747D
100
AcDbEntity
  8
文字
 62
     7
 48
50.0
100
AcDbText
 10
18605.67356229904
 20
10716.45512047208
 30
0.0
 40
110.0
  1
Z08            0.5
  7
STYLE1
100
AcDbText
  0
LINE
  5
3CD97
330
747D
100
AcDbEntity
  8
部品1
100
AcDbLine
 10
20034.00000000001
 20
12365.99999999999
 30
0.0
 11
16404.0
 21
12365.99999999999
 31
0.0
  0
LINE
  5
3CD98
330
747D
100
AcDbEntity
  8
部品1
100
AcDbLine
 10
20034.00000000007
 20
9747.999999999999
 30
0.0
 11
20034.00000000001
 21
13861.99999999999
 31
0.0
  0
LINE
  5
3CD99
330
747D
100
AcDbEntity
  8
部品1
100
AcDbLine
 10
18359.80000000001
 20
13861.99999999999
 30
0.0
 11
18359.8
 21
10309.0
 31
0.0
  0
LINE
  5
3CD9A
330
747D
100
AcDbEntity
  8
部品1
100
AcDbLine
 10
16803.30000000001
 20
13861.99999999999
 30
0.0
 11
16803.30000000002
 21
10309.0
 31
0.0
  0
LINE
  5
3CD9B
330
747D
100
AcDbEntity
  8
部品1
100
AcDbLine
 10
20034.00000000001
 20
13674.99999999999
 30
0.0
 11
16404.00000000001
 21
13674.99999999999
 31
0.0
  0
LINE
  5
3CD9C
330
747D
100
AcDbEntity
  8
部品1
100
AcDbLine
 10
20034.00000000001
 20
13300.99999999999
 30
0.0
 11
16404.00000000001
 21
13300.99999999999
 31
0.0
  0
LINE
  5
3CD9D
330
747D
100
AcDbEntity
  8
部品1
100
AcDbLine
 10
20034.00000000001
 20
13487.99999999999
 30
0.0
 11
16404.00000000001
 21
13487.99999999999
 31
0.0
  0
LINE
  5
3CD9E
330
747D
100
AcDbEntity
  8
部品1
100
AcDbLine
 10
20034.00000000001
 20
12926.99999999999
 30
0.0
 11
16404.0
 21
12926.99999999999
 31
0.0
  0
LINE
  5
3CD9F
330
747D
100
AcDbEntity
  8
部品1
100
AcDbLine
 10
20034.00000000001
 20
12739.99999999999
 30
0.0
 11
16404.0
 21
12739.99999999999
 31
0.0
  0
LINE
  5
3CDA0
330
747D
100
AcDbEntity
  8
部品1
100
AcDbLine
 10
20034.00000000001
 20
13113.99999999999
 30
0.0
 11
16404.0
 21
13113.99999999999
 31
0.0
  0
TEXT
  5
3CDA1
330
747D
100
AcDbEntity
  8
文字
 62
     7
 48
50.0
100
AcDbText
 10
16481.24770416449
 20
13708.45512047209
 30
0.0
 40
110.0
  1
品番
  7
STYLE1
100
AcDbText
  0
TEXT
  5
3CDA2
330
747D
100
AcDbEntity
  8
文字
 62
     7
 48
50.0
100
AcDbText
 10
16562.38935469272
 20
13521.45512047209
 30
0.0
 40
110.0
  1
1
  7
STYLE1
100
AcDbText
  0
TEXT
  5
3CDA3
330
747D
100
AcDbEntity
  8
文字
 62
     7
 48
50.0
100
AcDbText
 10
16562.38935469272
 20
13334.45512047209
 30
0.0
 40
110.0
  1
2
  7
STYLE1
100
AcDbText
  0
TEXT
  5
3CDA4
330
747D
100
AcDbEntity
  8
文字
 62
     7
 48
50.0
100
AcDbText
 10
16562.38935469272
 20
12960.45512047209
 30
0.0
 40
110.0
  1
4
  7
STYLE1
100
AcDbText
  0
TEXT
  5
3CDA5
330
747D
100
AcDbEntity
  8
文字
 62
     7
 48
50.0
100
AcDbText
 10
16562.38935469272
 20
13147.45512047209
 30
0.0
 40
110.0
  1
3
  7
STYLE1
100
AcDbText
  0
TEXT
  5
3CDA6
330
747D
100
AcDbEntity
  8
文字
 62
     7
 48
50.0
100
AcDbText
 10
17095.53572717326
 20
13708.45512047209
 30
0.0
 40
110.0
  1
部　　品　　名
  7
STYLE1
100
AcDbText
  0
TEXT
  5
3CDA7
330
747D
100
AcDbEntity
  8
文字
 62
     7
 48
50.0
100
AcDbText
 10
18441.85752075931
 20
13708.45512047209
 30
0.0
 40
110.0
  1
材料（材質）　　単位mm
  7
STYLE1
100
AcDbText
  0
TEXT
  5
3CDA8
330
747D
100
AcDbEntity
  8
文字
 62
     7
 48
50.0
100
AcDbText
 10
16905.51000918227
 20
13521.45512047209
 30
0.0
 40
110.0
  1
土台枠
  7
STYLE1
100
AcDbText
  0
TEXT
  5
3CDA9
330
747D
100
AcDbEntity
  8
文字
 62
     7
 48
50.0
100
AcDbText
 10
16905.51000918228
 20
13334.45512047209
 30
0.0
 40
110.0
  1
柱前左右
  7
STYLE1
100
AcDbText
  0
TEXT
  5
3CDAA
330
747D
100
AcDbEntity
  8
文字
 62
     7
 48
50.0
100
AcDbText
 10
16562.38935469272
 20
12773.45512047209
 30
0.0
 40
110.0
  1
5
  7
STYLE1
100
AcDbText
  0
TEXT
  5
3CDAB
330
747D
100
AcDbEntity
  8
文字
 62
     7
 48
50.0
100
AcDbText
 10
16905.51000918223
 20
11277.45512047209
 30
0.0
 40
110.0
  1
妻板左右
  7
STYLE1
100
AcDbText
  0
TEXT
  5
3CDAC
330
747D
100
AcDbEntity
  8
文字
 62
     7
 48
50.0
100
AcDbText
 10
16537.73522103093
 20
11838.45512047209
 30
0.0
 40
110.0
  1
10
  7
STYLE1
100
AcDbText
  0
TEXT
  5
3CDAD
330
747D
100
AcDbEntity
  8
文字
 62
     7
 48
50.0
100
AcDbText
 10
16905.51000918222
 20
11464.45512047209
 30
0.0
 40
110.0
  1
壁パネル
  7
STYLE1
100
AcDbText
  0
TEXT
  5
3CDAE
330
747D
100
AcDbEntity
  8
文字
 62
     7
 48
50.0
100
AcDbText
 10
16905.51000918222
 20
11090.45512047209
 30
0.0
 40
110.0
  1
鼻隠シ前後
  7
STYLE1
100
AcDbText
  0
TEXT
  5
3CDAF
330
747D
100
AcDbEntity
  8
文字
 62
     7
 48
50.0
100
AcDbText
 10
16562.38935469272
 20
12212.45512047209
 30
0.0
 40
110.0
  1
8
  7
STYLE1
100
AcDbText
  0
TEXT
  5
3CDB0
330
747D
100
AcDbEntity
  8
文字
 62
     7
 48
50.0
100
AcDbText
 10
16562.38935469272
 20
12025.45512047209
 30
0.0
 40
110.0
  1
9
  7
STYLE1
100
AcDbText
  0
TEXT
  5
3CDB1
330
747D
100
AcDbEntity
  8
文字
 62
     7
 48
50.0
100
AcDbText
 10
16562.38935469272
 20
12399.45512047209
 30
0.0
 40
110.0
  1
7
  7
STYLE1
100
AcDbText
  0
TEXT
  5
3CDB2
330
747D
100
AcDbEntity
  8
文字
 62
     7
 48
50.0
100
AcDbText
 10
16562.38935469272
 20
12586.45512047209
 30
0.0
 40
110.0
  1
6
  7
STYLE1
100
AcDbText
  0
LINE
  5
3CDB3
330
747D
100
AcDbEntity
  8
部品1
100
AcDbLine
 10
20034.0
 20
11991.99999999999
 30
0.0
 11
16404.0
 21
11991.99999999999
 31
0.0
  0
LINE
  5
3CDB4
330
747D
100
AcDbEntity
  8
部品1
100
AcDbLine
 10
20034.0
 20
11617.99999999999
 30
0.0
 11
16404.0
 21
11617.99999999999
 31
0.0
  0
LINE
  5
3CDB5
330
747D
100
AcDbEntity
  8
部品1
100
AcDbLine
 10
20034.0
 20
11804.99999999999
 30
0.0
 11
16404.0
 21
11804.99999999999
 31
0.0
  0
LINE
  5
3CDB6
330
747D
100
AcDbEntity
  8
部品1
100
AcDbLine
 10
20034.00000000001
 20
12552.99999999999
 30
0.0
 11
16404.00000000001
 21
12552.99999999999
 31
0.0
  0
LINE
  5
3CDB7
330
747D
100
AcDbEntity
  8
部品1
100
AcDbLine
 10
20034.00000000001
 20
12178.99999999999
 30
0.0
 11
16404.0
 21
12178.99999999999
 31
0.0
  0
TEXT
  5
3CDB8
330
747D
100
AcDbEntity
  8
文字
 62
     7
 48
50.0
100
AcDbText
 10
16537.73522103093
 20
11651.45512047209
 30
0.0
 40
110.0
  1
11
  7
STYLE1
100
AcDbText
  0
LINE
  5
3CDB9
330
747D
100
AcDbEntity
  8
部品1
100
AcDbLine
 10
20034.0
 20
11430.99999999999
 30
0.0
 11
16404.0
 21
11430.99999999999
 31
0.0
  0
LINE
  5
3CDBA
330
747D
100
AcDbEntity
  8
部品1
100
AcDbLine
 10
20034.0
 20
11056.99999999999
 30
0.0
 11
16404.0
 21
11056.99999999999
 31
0.0
  0
TEXT
  5
3CDBB
330
747D
100
AcDbEntity
  8
文字
 62
     7
 48
50.0
100
AcDbText
 10
16537.73522103093
 20
11277.45512047209
 30
0.0
 40
110.0
  1
13
  7
STYLE1
100
AcDbText
  0
TEXT
  5
3CDBC
330
747D
100
AcDbEntity
  8
文字
 62
     7
 48
50.0
100
AcDbText
 10
16537.73522103093
 20
11464.45512047209
 30
0.0
 40
110.0
  1
12
  7
STYLE1
100
AcDbText
  0
TEXT
  5
3CDBD
330
747D
100
AcDbEntity
  8
文字
 62
     7
 48
50.0
100
AcDbText
 10
18620.9836202197
 20
13521.45512047209
 30
0.0
 40
110.0
  1
F12            1.2
  7
STYLE1
100
AcDbText
  0
TEXT
  5
3CDBE
330
747D
100
AcDbEntity
  8
文字
 62
     7
 48
50.0
100
AcDbText
 10
18620.98362021971
 20
13334.45512047209
 30
0.0
 40
110.0
  1
F12            2.3
  7
STYLE1
100
AcDbText
  0
TEXT
  5
3CDBF
330
747D
100
AcDbEntity
  8
文字
 62
     7
 48
50.0
100
AcDbText
 10
18620.98362021965
 20
11277.45512047209
 30
0.0
 40
110.0
  1
Y10            0.7
  7
STYLE1
100
AcDbText
  0
TEXT
  5
3CDC0
330
747D
100
AcDbEntity
  8
文字
 62
     7
 48
50.0
100
AcDbText
 10
18620.98362021963
 20
11090.45512047209
 30
0.0
 40
110.0
  1
Y10            0.7
  7
STYLE1
100
AcDbText
  0
TEXT
  5
3CDC1
330
747D
100
AcDbEntity
  8
文字
 62
     7
 48
50.0
100
AcDbText
 10
18620.98362021964
 20
11464.45512047209
 30
0.0
 40
110.0
  1
F12            0.7
  7
STYLE1
100
AcDbText
  0
LINE
  5
3CDC2
330
747D
100
AcDbEntity
  8
部品1
100
AcDbLine
 10
20034.0
 20
10869.99999999999
 30
0.0
 11
16404.0
 21
10870.0
 31
0.0
  0
LINE
  5
3CDC3
330
747D
100
AcDbEntity
  8
部品1
100
AcDbLine
 10
20034.0
 20
10682.99999999999
 30
0.0
 11
16404.0
 21
10683.0
 31
0.0
  0
LINE
  5
3CDC4
330
747D
100
AcDbEntity
  8
部品1
100
AcDbLine
 10
16404.00000000001
 20
13861.99999999999
 30
0.0
 11
16404.00000000006
 21
9748.000000000002
 31
0.0
  0
LINE
  5
3CDC5
330
747D
100
AcDbEntity
  8
部品1
100
AcDbLine
 10
20034.0
 20
11243.99999999999
 30
0.0
 11
16404.0
 21
11243.99999999999
 31
0.0
  0
TEXT
  5
3CDC6
330
747D
100
AcDbEntity
  8
文字
 62
     7
 48
50.0
100
AcDbText
 10
16537.73522103093
 20
11090.45512047209
 30
0.0
 40
110.0
  1
14
  7
STYLE1
100
AcDbText
  0
TEXT
  5
3CDC7
330
747D
100
AcDbEntity
  8
文字
 62
     7
 48
50.0
100
AcDbText
 10
18604.74130166499
 20
10342.45512047209
 30
0.0
 40
90.0
  1
アルミニウム合金押出形材
  7
STYLE1
100
AcDbText
  0
TEXT
  5
3CDC8
330
747D
100
AcDbEntity
  8
文字
 62
     7
 48
50.0
100
AcDbText
 10
16905.51000918222
 20
11651.45512047209
 30
0.0
 40
110.0
  1
結露軽減材(不燃材)-別売-
 41
0.85
  7
STYLE1
100
AcDbText
  0
TEXT
  5
3CDC9
330
747D
100
AcDbEntity
  8
文字
 62
     7
 48
50.0
100
AcDbText
 10
16905.51000918223
 20
12212.45512047209
 30
0.0
 40
110.0
  1
母屋中央
  7
STYLE1
100
AcDbText
  0
TEXT
  5
3CDCA
330
747D
100
AcDbEntity
  8
文字
 62
     7
 48
50.0
100
AcDbText
 10
18620.98362021964
 20
12212.45512047208
 30
0.0
 40
110.0
  1
F12            1.6
  7
STYLE1
100
AcDbText
  0
TEXT
  5
3CDCB
330
747D
100
AcDbEntity
  8
文字
 62
     7
 48
50.0
100
AcDbText
 10
18478.84947306252
 20
12025.45512047209
 30
0.0
 40
110.0
  1
F12 1.2(豪雪地型1.6+2.3)
  7
STYLE1
100
AcDbText
  0
TEXT
  5
3CDCC
330
747D
100
AcDbEntity
  8
文字
 62
     7
 48
50.0
100
AcDbText
 10
16905.51000918223
 20
12025.45512047209
 30
0.0
 40
110.0
  1
母屋中
  7
STYLE1
100
AcDbText
  0
ENDSEC
  0
SECTION
  2
OBJECTS
  0
DICTIONARY
  5
7471
330
0
100
AcDbDictionary
281
     1
  3
ACAD_COLOR
350
11754
  3
ACAD_GROUP
350
7472
  3
ACAD_LAYOUT
350
11755
  3
ACAD_MATERIAL
350
11753
  3
ACAD_MLINESTYLE
350
7473
  3
ACAD_PLOTSETTINGS
350
11756
  3
ACAD_PLOTSTYLENAME
350
11751
  3
ACDBHEADERROUNDTRIPXREC
350
3CE4B
  3
AcDbVariableDictionary
350
3CE47
  3
CONTENTDICTIONARY
350
E71C
  3
DRAWINGVARIABLESDICT
350
F3B9
  0
DICTIONARY
  5
1199D
330
7467
100
AcDbDictionary
280
     1
281
     1
  3
ACAD_LAYERSTATES
360
1199E
  0
DICTIONARY
  5
11754
102
{ACAD_REACTORS
330
7471
102
}
330
7471
100
AcDbDictionary
281
     1
  0
DICTIONARY
  5
7472
102
{ACAD_REACTORS
330
7471
102
}
330
7471
100
AcDbDictionary
281
     1
  3
*A1
350
31981
  3
*A10
350
31E12
  3
*A100
350
374B3
  3
*A101
350
31B24
  3
*A102
350
35378
  3
*A11
350
34CF2
  3
*A12
350
3634E
  3
*A13
350
31E17
  3
*A14
350
34D00
  3
*A15
350
31B58
  3
*A16
350
3544F
  3
*A17
350
31E16
  3
*A18
350
34CF4
  3
*A19
350
374D6
  3
*A2
350
34D0D
  3
*A20
350
31E1A
  3
*A21
350
3634A
  3
*A22
350
31B67
  3
*A23
350
374CD
  3
*A24
350
355F7
  3
*A25
350
31B5E
  3
*A26
350
374D3
  3
*A27
350
374BC
  3
*A28
350
34CF7
  3
*A29
350
34D06
  3
*A3
350
374CA
  3
*A30
350
37493
  3
*A31
350
31E14
  3
*A32
350
34D03
  3
*A33
350
3741E
  3
*A34
350
37866
  3
*A35
350
31E19
  3
*A36
350
34D0C
  3
*A37
350
31E1D
  3
*A38
350
31F59
  3
*A39
350
31E10
  3
*A4
350
34D0A
  3
*A40
350
31F5E
  3
*A41
350
31E18
  3
*A42
350
31B2C
  3
*A43
350
34CF6
  3
*A44
350
31B55
  3
*A45
350
374D9
  3
*A46
350
374DC
  3
*A47
350
34CF9
  3
*A48
350
3535C
  3
*A49
350
31B64
  3
*A5
350
35375
  3
*A50
350
34CFE
  3
*A51
350
35356
  3
*A52
350
31986
  3
*A53
350
34D04
  3
*A54
350
31B6A
  3
*A55
350
3538F
  3
*A56
350
374DD
  3
*A57
350
35402
  3
*A58
350
35419
  3
*A59
350
31E13
  3
*A6
350
3541C
  3
*A60
350
3769F
  3
*A61
350
3255A
  3
*A62
350
31B6D
  3
*A63
350
34CFC
  3
*A64
350
31E1B
  3
*A65
350
34CF3
  3
*A66
350
31E15
  3
*A67
350
3631A
  3
*A68
350
3631D
  3
*A69
350
31E1C
  3
*A7
350
32561
  3
*A70
350
36398
  3
*A71
350
3255E
  3
*A72
350
363CE
  3
*A73
350
363E3
  3
*A74
350
31B5B
  3
*A75
350
363F9
  3
*A76
350
31E11
  3
*A77
350
34D02
  3
*A78
350
363FF
  3
*A79
350
34CF8
  3
*A8
350
35312
  3
*A80
350
34D01
  3
*A81
350
34CFF
  3
*A82
350
37405
  3
*A83
350
363FC
  3
*A84
350
34D0B
  3
*A85
350
34CF5
  3
*A86
350
34D09
  3
*A87
350
34CFA
  3
*A88
350
374C7
  3
*A89
350
34CFD
  3
*A9
350
34CF1
  3
*A90
350
374D0
  3
*A91
350
34D05
  3
*A92
350
34CFB
  3
*A93
350
37865
  3
*A94
350
37414
  3
*A95
350
31ADA
  3
*A96
350
34D08
  3
*A97
350
3748C
  3
*A98
350
34D07
  3
*A99
350
31B61
  0
DICTIONARY
  5
11755
102
{ACAD_REACTORS
330
7471
102
}
330
7471
100
AcDbDictionary
281
     1
  3
Model
350
11757
  3
レイアウト1
350
11758
  0
DICTIONARY
  5
11753
102
{ACAD_REACTORS
330
7471
102
}
330
7471
100
AcDbDictionary
281
     1
  0
DICTIONARY
  5
7473
102
{ACAD_REACTORS
330
7471
102
}
330
7471
100
AcDbDictionary
281
     1
  3
STANDARD
350
7480
  0
DICTIONARY
  5
11756
102
{ACAD_REACTORS
330
7471
102
}
330
7471
100
AcDbDictionary
281
     1
  0
ACDBDICTIONARYWDFLT
  5
11751
102
{ACAD_REACTORS
330
7471
102
}
330
7471
100
AcDbDictionary
281
     1
  3
Normal
350
11752
100
AcDbDictionaryWithDefault
340
11752
  0
DICTIONARY
  5
3CE4B
102
{ACAD_REACTORS
330
7471
102
}
330
7471
100
AcDbDictionary
281
     1
  3
COLORDICT
350
3CE4D
  3
MATERIALDICT
350
3CE4C
  0
DICTIONARY
  5
3CE47
102
{ACAD_REACTORS
330
7471
102
}
330
7471
100
AcDbDictionary
281
     1
  3
DIMASSOC
350
3CE48
  3
PROJECTNAME
350
3CE49
  0
DICTIONARY
  5
E71C
102
{ACAD_REACTORS
330
7471
102
}
330
7471
100
AcDbDictionary
281
     1
  0
DICTIONARY
  5
F3B9
102
{ACAD_REACTORS
330
7471
102
}
330
7471
100
AcDbDictionary
281
     1
1001
DRAWINGVARIABLESXDATA
1000
POLARMODE
1000
1
  0
DICTIONARY
  5
1199E
102
{ACAD_REACTORS
330
1199D
102
}
330
1199D
100
AcDbDictionary
281
     1
  0
GROUP
  5
31981
102
{ACAD_REACTORS
330
7472
102
}
330
7472
100
AcDbGroup
300

 70
     1
 71
     1
  0
GROUP
  5
31E12
102
{ACAD_REACTORS
330
7472
102
}
330
7472
100
AcDbGroup
300

 70
     1
 71
     1
  0
GROUP
  5
374B3
102
{ACAD_REACTORS
330
7472
102
}
330
7472
100
AcDbGroup
300

 70
     1
 71
     1
  0
GROUP
  5
31B24
102
{ACAD_REACTORS
330
7472
102
}
330
7472
100
AcDbGroup
300

 70
     1
 71
     1
  0
GROUP
  5
35378
102
{ACAD_REACTORS
330
7472
102
}
330
7472
100
AcDbGroup
300

 70
     1
 71
     1
  0
GROUP
  5
34CF2
102
{ACAD_REACTORS
330
7472
102
}
330
7472
100
AcDbGroup
300

 70
     1
 71
     1
  0
GROUP
  5
3634E
102
{ACAD_REACTORS
330
7472
102
}
330
7472
100
AcDbGroup
300

 70
     1
 71
     1
  0
GROUP
  5
31E17
102
{ACAD_REACTORS
330
7472
102
}
330
7472
100
AcDbGroup
300

 70
     1
 71
     1
  0
GROUP
  5
34D00
102
{ACAD_REACTORS
330
7472
102
}
330
7472
100
AcDbGroup
300

 70
     1
 71
     1
  0
GROUP
  5
31B58
102
{ACAD_REACTORS
330
7472
102
}
330
7472
100
AcDbGroup
300

 70
     1
 71
     1
  0
GROUP
  5
3544F
102
{ACAD_REACTORS
330
7472
102
}
330
7472
100
AcDbGroup
300

 70
     1
 71
     1
  0
GROUP
  5
31E16
102
{ACAD_REACTORS
330
7472
102
}
330
7472
100
AcDbGroup
300

 70
     1
 71
     1
  0
GROUP
  5
34CF4
102
{ACAD_REACTORS
330
7472
102
}
330
7472
100
AcDbGroup
300

 70
     1
 71
     1
  0
GROUP
  5
374D6
102
{ACAD_REACTORS
330
7472
102
}
330
7472
100
AcDbGroup
300

 70
     1
 71
     1
  0
GROUP
  5
34D0D
102
{ACAD_REACTORS
330
7472
102
}
330
7472
100
AcDbGroup
300

 70
     1
 71
     1
  0
GROUP
  5
31E1A
102
{ACAD_REACTORS
330
7472
102
}
330
7472
100
AcDbGroup
300

 70
     1
 71
     1
  0
GROUP
  5
3634A
102
{ACAD_REACTORS
330
7472
102
}
330
7472
100
AcDbGroup
300

 70
     1
 71
     1
  0
GROUP
  5
31B67
102
{ACAD_REACTORS
330
7472
102
}
330
7472
100
AcDbGroup
300

 70
     1
 71
     1
  0
GROUP
  5
374CD
102
{ACAD_REACTORS
330
7472
102
}
330
7472
100
AcDbGroup
300

 70
     1
 71
     1
  0
GROUP
  5
355F7
102
{ACAD_REACTORS
330
7472
102
}
330
7472
100
AcDbGroup
300

 70
     1
 71
     1
  0
GROUP
  5
31B5E
102
{ACAD_REACTORS
330
7472
102
}
330
7472
100
AcDbGroup
300

 70
     1
 71
     1
  0
GROUP
  5
374D3
102
{ACAD_REACTORS
330
7472
102
}
330
7472
100
AcDbGroup
300

 70
     1
 71
     1
  0
GROUP
  5
374BC
102
{ACAD_REACTORS
330
7472
102
}
330
7472
100
AcDbGroup
300

 70
     1
 71
     1
  0
GROUP
  5
34CF7
102
{ACAD_REACTORS
330
7472
102
}
330
7472
100
AcDbGroup
300

 70
     1
 71
     1
  0
GROUP
  5
34D06
102
{ACAD_REACTORS
330
7472
102
}
330
7472
100
AcDbGroup
300

 70
     1
 71
     1
  0
GROUP
  5
374CA
102
{ACAD_REACTORS
330
7472
102
}
330
7472
100
AcDbGroup
300

 70
     1
 71
     1
  0
GROUP
  5
37493
102
{ACAD_REACTORS
330
7472
102
}
330
7472
100
AcDbGroup
300

 70
     1
 71
     1
  0
GROUP
  5
31E14
102
{ACAD_REACTORS
330
7472
102
}
330
7472
100
AcDbGroup
300

 70
     1
 71
     1
  0
GROUP
  5
34D03
102
{ACAD_REACTORS
330
7472
102
}
330
7472
100
AcDbGroup
300

 70
     1
 71
     1
  0
GROUP
  5
3741E
102
{ACAD_REACTORS
330
7472
102
}
330
7472
100
AcDbGroup
300

 70
     1
 71
     1
  0
GROUP
  5
37866
102
{ACAD_REACTORS
330
7472
102
}
330
7472
100
AcDbGroup
300

 70
     1
 71
     1
  0
GROUP
  5
31E19
102
{ACAD_REACTORS
330
7472
102
}
330
7472
100
AcDbGroup
300

 70
     1
 71
     1
  0
GROUP
  5
34D0C
102
{ACAD_REACTORS
330
7472
102
}
330
7472
100
AcDbGroup
300

 70
     1
 71
     1
  0
GROUP
  5
31E1D
102
{ACAD_REACTORS
330
7472
102
}
330
7472
100
AcDbGroup
300

 70
     1
 71
     1
  0
GROUP
  5
31F59
102
{ACAD_REACTORS
330
7472
102
}
330
7472
100
AcDbGroup
300

 70
     1
 71
     1
  0
GROUP
  5
31E10
102
{ACAD_REACTORS
330
7472
102
}
330
7472
100
AcDbGroup
300

 70
     1
 71
     1
  0
GROUP
  5
34D0A
102
{ACAD_REACTORS
330
7472
102
}
330
7472
100
AcDbGroup
300

 70
     1
 71
     1
  0
GROUP
  5
31F5E
102
{ACAD_REACTORS
330
7472
102
}
330
7472
100
AcDbGroup
300

 70
     1
 71
     1
  0
GROUP
  5
31E18
102
{ACAD_REACTORS
330
7472
102
}
330
7472
100
AcDbGroup
300

 70
     1
 71
     1
  0
GROUP
  5
31B2C
102
{ACAD_REACTORS
330
7472
102
}
330
7472
100
AcDbGroup
300

 70
     1
 71
     1
  0
GROUP
  5
34CF6
102
{ACAD_REACTORS
330
7472
102
}
330
7472
100
AcDbGroup
300

 70
     1
 71
     1
  0
GROUP
  5
31B55
102
{ACAD_REACTORS
330
7472
102
}
330
7472
100
AcDbGroup
300

 70
     1
 71
     1
  0
GROUP
  5
374D9
102
{ACAD_REACTORS
330
7472
102
}
330
7472
100
AcDbGroup
300

 70
     1
 71
     1
  0
GROUP
  5
374DC
102
{ACAD_REACTORS
330
7472
102
}
330
7472
100
AcDbGroup
300

 70
     1
 71
     1
  0
GROUP
  5
34CF9
102
{ACAD_REACTORS
330
7472
102
}
330
7472
100
AcDbGroup
300

 70
     1
 71
     1
  0
GROUP
  5
3535C
102
{ACAD_REACTORS
330
7472
102
}
330
7472
100
AcDbGroup
300

 70
     1
 71
     1
  0
GROUP
  5
31B64
102
{ACAD_REACTORS
330
7472
102
}
330
7472
100
AcDbGroup
300

 70
     1
 71
     1
  0
GROUP
  5
35375
102
{ACAD_REACTORS
330
7472
102
}
330
7472
100
AcDbGroup
300

 70
     1
 71
     1
  0
GROUP
  5
34CFE
102
{ACAD_REACTORS
330
7472
102
}
330
7472
100
AcDbGroup
300

 70
     1
 71
     1
  0
GROUP
  5
35356
102
{ACAD_REACTORS
330
7472
102
}
330
7472
100
AcDbGroup
300

 70
     1
 71
     1
  0
GROUP
  5
31986
102
{ACAD_REACTORS
330
7472
102
}
330
7472
100
AcDbGroup
300

 70
     1
 71
     1
  0
GROUP
  5
34D04
102
{ACAD_REACTORS
330
7472
102
}
330
7472
100
AcDbGroup
300

 70
     1
 71
     1
  0
GROUP
  5
31B6A
102
{ACAD_REACTORS
330
7472
102
}
330
7472
100
AcDbGroup
300

 70
     1
 71
     1
  0
GROUP
  5
3538F
102
{ACAD_REACTORS
330
7472
102
}
330
7472
100
AcDbGroup
300

 70
     1
 71
     1
  0
GROUP
  5
374DD
102
{ACAD_REACTORS
330
7472
102
}
330
7472
100
AcDbGroup
300

 70
     1
 71
     1
  0
GROUP
  5
35402
102
{ACAD_REACTORS
330
7472
102
}
330
7472
100
AcDbGroup
300

 70
     1
 71
     1
  0
GROUP
  5
35419
102
{ACAD_REACTORS
330
7472
102
}
330
7472
100
AcDbGroup
300

 70
     1
 71
     1
  0
GROUP
  5
31E13
102
{ACAD_REACTORS
330
7472
102
}
330
7472
100
AcDbGroup
300

 70
     1
 71
     1
  0
GROUP
  5
3541C
102
{ACAD_REACTORS
330
7472
102
}
330
7472
100
AcDbGroup
300

 70
     1
 71
     1
  0
GROUP
  5
3769F
102
{ACAD_REACTORS
330
7472
102
}
330
7472
100
AcDbGroup
300

 70
     1
 71
     1
  0
GROUP
  5
3255A
102
{ACAD_REACTORS
330
7472
102
}
330
7472
100
AcDbGroup
300

 70
     1
 71
     1
  0
GROUP
  5
31B6D
102
{ACAD_REACTORS
330
7472
102
}
330
7472
100
AcDbGroup
300

 70
     1
 71
     1
  0
GROUP
  5
34CFC
102
{ACAD_REACTORS
330
7472
102
}
330
7472
100
AcDbGroup
300

 70
     1
 71
     1
  0
GROUP
  5
31E1B
102
{ACAD_REACTORS
330
7472
102
}
330
7472
100
AcDbGroup
300

 70
     1
 71
     1
  0
GROUP
  5
34CF3
102
{ACAD_REACTORS
330
7472
102
}
330
7472
100
AcDbGroup
300

 70
     1
 71
     1
  0
GROUP
  5
31E15
102
{ACAD_REACTORS
330
7472
102
}
330
7472
100
AcDbGroup
300

 70
     1
 71
     1
  0
GROUP
  5
3631A
102
{ACAD_REACTORS
330
7472
102
}
330
7472
100
AcDbGroup
300

 70
     1
 71
     1
  0
GROUP
  5
3631D
102
{ACAD_REACTORS
330
7472
102
}
330
7472
100
AcDbGroup
300

 70
     1
 71
     1
  0
GROUP
  5
31E1C
102
{ACAD_REACTORS
330
7472
102
}
330
7472
100
AcDbGroup
300

 70
     1
 71
     1
  0
GROUP
  5
32561
102
{ACAD_REACTORS
330
7472
102
}
330
7472
100
AcDbGroup
300

 70
     1
 71
     1
  0
GROUP
  5
36398
102
{ACAD_REACTORS
330
7472
102
}
330
7472
100
AcDbGroup
300

 70
     1
 71
     1
  0
GROUP
  5
3255E
102
{ACAD_REACTORS
330
7472
102
}
330
7472
100
AcDbGroup
300

 70
     1
 71
     1
  0
GROUP
  5
363CE
102
{ACAD_REACTORS
330
7472
102
}
330
7472
100
AcDbGroup
300

 70
     1
 71
     1
  0
GROUP
  5
363E3
102
{ACAD_REACTORS
330
7472
102
}
330
7472
100
AcDbGroup
300

 70
     1
 71
     1
  0
GROUP
  5
31B5B
102
{ACAD_REACTORS
330
7472
102
}
330
7472
100
AcDbGroup
300

 70
     1
 71
     1
  0
GROUP
  5
363F9
102
{ACAD_REACTORS
330
7472
102
}
330
7472
100
AcDbGroup
300

 70
     1
 71
     1
  0
GROUP
  5
31E11
102
{ACAD_REACTORS
330
7472
102
}
330
7472
100
AcDbGroup
300

 70
     1
 71
     1
  0
GROUP
  5
34D02
102
{ACAD_REACTORS
330
7472
102
}
330
7472
100
AcDbGroup
300

 70
     1
 71
     1
  0
GROUP
  5
363FF
102
{ACAD_REACTORS
330
7472
102
}
330
7472
100
AcDbGroup
300

 70
     1
 71
     1
  0
GROUP
  5
34CF8
102
{ACAD_REACTORS
330
7472
102
}
330
7472
100
AcDbGroup
300

 70
     1
 71
     1
  0
GROUP
  5
35312
102
{ACAD_REACTORS
330
7472
102
}
330
7472
100
AcDbGroup
300

 70
     1
 71
     1
  0
GROUP
  5
34D01
102
{ACAD_REACTORS
330
7472
102
}
330
7472
100
AcDbGroup
300

 70
     1
 71
     1
  0
GROUP
  5
34CFF
102
{ACAD_REACTORS
330
7472
102
}
330
7472
100
AcDbGroup
300

 70
     1
 71
     1
  0
GROUP
  5
37405
102
{ACAD_REACTORS
330
7472
102
}
330
7472
100
AcDbGroup
300

 70
     1
 71
     1
  0
GROUP
  5
363FC
102
{ACAD_REACTORS
330
7472
102
}
330
7472
100
AcDbGroup
300

 70
     1
 71
     1
  0
GROUP
  5
34D0B
102
{ACAD_REACTORS
330
7472
102
}
330
7472
100
AcDbGroup
300

 70
     1
 71
     1
  0
GROUP
  5
34CF5
102
{ACAD_REACTORS
330
7472
102
}
330
7472
100
AcDbGroup
300

 70
     1
 71
     1
  0
GROUP
  5
34D09
102
{ACAD_REACTORS
330
7472
102
}
330
7472
100
AcDbGroup
300

 70
     1
 71
     1
  0
GROUP
  5
34CFA
102
{ACAD_REACTORS
330
7472
102
}
330
7472
100
AcDbGroup
300

 70
     1
 71
     1
  0
GROUP
  5
374C7
102
{ACAD_REACTORS
330
7472
102
}
330
7472
100
AcDbGroup
300

 70
     1
 71
     1
  0
GROUP
  5
34CFD
102
{ACAD_REACTORS
330
7472
102
}
330
7472
100
AcDbGroup
300

 70
     1
 71
     1
  0
GROUP
  5
34CF1
102
{ACAD_REACTORS
330
7472
102
}
330
7472
100
AcDbGroup
300

 70
     1
 71
     1
  0
GROUP
  5
374D0
102
{ACAD_REACTORS
330
7472
102
}
330
7472
100
AcDbGroup
300

 70
     1
 71
     1
  0
GROUP
  5
34D05
102
{ACAD_REACTORS
330
7472
102
}
330
7472
100
AcDbGroup
300

 70
     1
 71
     1
  0
GROUP
  5
34CFB
102
{ACAD_REACTORS
330
7472
102
}
330
7472
100
AcDbGroup
300

 70
     1
 71
     1
  0
GROUP
  5
37865
102
{ACAD_REACTORS
330
7472
102
}
330
7472
100
AcDbGroup
300

 70
     1
 71
     1
  0
GROUP
  5
37414
102
{ACAD_REACTORS
330
7472
102
}
330
7472
100
AcDbGroup
300

 70
     1
 71
     1
  0
GROUP
  5
31ADA
102
{ACAD_REACTORS
330
7472
102
}
330
7472
100
AcDbGroup
300

 70
     1
 71
     1
  0
GROUP
  5
34D08
102
{ACAD_REACTORS
330
7472
102
}
330
7472
100
AcDbGroup
300

 70
     1
 71
     1
  0
GROUP
  5
3748C
102
{ACAD_REACTORS
330
7472
102
}
330
7472
100
AcDbGroup
300

 70
     1
 71
     1
  0
GROUP
  5
34D07
102
{ACAD_REACTORS
330
7472
102
}
330
7472
100
AcDbGroup
300

 70
     1
 71
     1
  0
GROUP
  5
31B61
102
{ACAD_REACTORS
330
7472
102
}
330
7472
100
AcDbGroup
300

 70
     1
 71
     1
  0
LAYOUT
  5
11757
102
{ACAD_XDICTIONARY
360
3CE4E
102
}
102
{ACAD_REACTORS
330
11755
102
}
330
11755
100
AcDbPlotSettings
  1

  2
iR C3880
  4
A3
  6

 40
5.873749732971191
 41
5.873747825622558
 42
5.873748779296875
 43
5.873748779296875
 44
296.9259948730469
 45
419.9466552734374
 46
0.0
 47
0.0
 48
0.0
 49
0.0
140
0.0
141
0.0
142
1.0
143
50.0
 70
 11952
 72
     1
 73
     1
 74
     2
  7
inaba.ctb
 75
    25
147
0.02
148
0.0
149
0.0
100
AcDbLayout
  1
Model
 70
     1
 71
     0
 10
0.0
 20
0.0
 11
12.0
 21
9.0
 12
0.0
 22
0.0
 32
0.0
 14
0.0
 24
0.0
 34
0.0
 15
0.0
 25
0.0
 35
0.0
146
0.0
 13
0.0
 23
0.0
 33
0.0
 16
1.0
 26
0.0
 36
0.0
 17
0.0
 27
1.0
 37
0.0
 76
     0
330
747D
  0
LAYOUT
  5
11758
102
{ACAD_XDICTIONARY
360
3CE50
102
}
102
{ACAD_REACTORS
330
11755
102
}
330
11755
100
AcDbPlotSettings
  1

  2
C:\Documents and Settings\技術\Application Data\Autodesk\AutoCAD LT 2004\R9\jpn\plotters\Default Windows System Printer.pc3
  4

  6

 40
0.0
 41
0.0
 42
0.0
 43
0.0
 44
0.0
 45
0.0
 46
0.0
 47
0.0
 48
0.0
 49
0.0
140
0.0
141
0.0
142
1.0
143
1.0
 70
   688
 72
     0
 73
     0
 74
     5
  7
inaba.ctb
 75
    16
147
1.0
148
0.0
149
0.0
100
AcDbLayout
  1
レイアウト1
 70
     0
 71
     1
 10
0.0
 20
0.0
 11
420.0
 21
297.0
 12
0.0
 22
0.0
 32
0.0
 14
1.000000000000000E+20
 24
1.000000000000000E+20
 34
1.000000000000000E+20
 15
-1.000000000000000E+20
 25
-1.000000000000000E+20
 35
-1.000000000000000E+20
146
0.0
 13
0.0
 23
0.0
 33
0.0
 16
1.0
 26
0.0
 36
0.0
 17
0.0
 27
1.0
 37
0.0
 76
     0
330
747A
  0
MLINESTYLE
  5
7480
102
{ACAD_REACTORS
330
7473
102
}
330
7473
100
AcDbMlineStyle
  2
STANDARD
 70
     0
  3

 62
     0
 51
90.0
 52
90.0
 71
     2
 49
0.5
 62
   256
  6
BYLAYER
 49
-0.5
 62
   256
  6
BYLAYER
  0
ACDBPLACEHOLDER
  5
11752
102
{ACAD_REACTORS
330
11751
102
}
330
11751
  0
XRECORD
  5
3CE4D
102
{ACAD_REACTORS
330
3CE4B
102
}
330
3CE4B
100
AcDbXrecord
280
     1
340
11754
  0
XRECORD
  5
3CE4C
102
{ACAD_REACTORS
330
3CE4B
102
}
330
3CE4B
100
AcDbXrecord
280
     1
340
11753
  0
DICTIONARYVAR
  5
3CE48
102
{ACAD_REACTORS
330
3CE47
102
}
330
3CE47
100
DictionaryVariables
280
     0
  1
1
  0
DICTIONARYVAR
  5
3CE49
102
{ACAD_REACTORS
330
3CE47
102
}
330
3CE47
100
DictionaryVariables
280
     0
  1

  0
DICTIONARY
  5
3CE4E
330
11757
100
AcDbDictionary
280
     1
281
     1
  3
ACAD_XREC_ROUNDTRIP
360
3CE4F
  0
DICTIONARY
  5
3CE50
330
11758
100
AcDbDictionary
280
     1
281
     1
  3
ACAD_XREC_ROUNDTRIP
360
3CE51
  0
XRECORD
  5
3CE4F
102
{ACAD_REACTORS
330
3CE4E
102
}
330
3CE4E
100
AcDbXrecord
280
     1
102
SHADEPLOT
 70
     1
102
SHADEPLOTRESLEVEL
 70
     2
102
SHADEPLOTCUSTOMDPI
 70
   300
  0
XRECORD
  5
3CE51
102
{ACAD_REACTORS
330
3CE50
102
}
330
3CE50
100
AcDbXrecord
280
     1
102
SHADEPLOT
 70
     0
102
SHADEPLOTRESLEVEL
 70
     2
102
SHADEPLOTCUSTOMDPI
 70
   300
  0
ENDSEC
  0
EOF
