  0
SECTION
  2
HEADER
  9
$ACADVER
  1
AC1015
  9
$ACADMAINTVER
 70
    20
  9
$DWGCODEPAGE
  3
ANSI_932
  9
$INSBASE
 10
0.0
 20
0.0
 30
0.0
  9
$EXTMIN
 10
139.196816621341
 20
-0.7250533989645192
 30
-0.0000000349181948
  9
$EXTMAX
 10
16308.32523385566
 20
11409.94112792278
 30
0.0000000814935746
  9
$LIMMIN
 10
0.0
 20
0.0
  9
$LIMMAX
 10
16800.0
 20
11880.0
  9
$ORTHOMODE
 70
     0
  9
$REGENMODE
 70
     1
  9
$FILLMODE
 70
     1
  9
$QTEXTMODE
 70
     0
  9
$MIRRTEXT
 70
     1
  9
$LTSCALE
 40
20.0
  9
$ATTMODE
 70
     1
  9
$TEXTSIZE
 40
100.0
  9
$TRACEWID
 40
1.0
  9
$TEXTSTYLE
  7
STYLE2
  9
$CLAYER
  8
寸法
  9
$CELTYPE
  6
BYLAYER
  9
$CECOLOR
 62
   256
  9
$CELTSCALE
 40
50.0
  9
$DISPSILH
 70
     0
  9
$DIMSCALE
 40
40.0
  9
$DIMASZ
 40
2.5
  9
$DIMEXO
 40
0.5
  9
$DIMDLI
 40
7.0
  9
$DIMRND
 40
0.0
  9
$DIMDLE
 40
0.0
  9
$DIMEXE
 40
1.5
  9
$DIMTP
 40
0.0
  9
$DIMTM
 40
0.0
  9
$DIMTXT
 40
3.0
  9
$DIMCEN
 40
0.0
  9
$DIMTSZ
 40
0.0
  9
$DIMTOL
 70
     0
  9
$DIMLIM
 70
     0
  9
$DIMTIH
 70
     0
  9
$DIMTOH
 70
     0
  9
$DIMSE1
 70
     0
  9
$DIMSE2
 70
     0
  9
$DIMTAD
 70
     3
  9
$DIMZIN
 70
     8
  9
$DIMBLK
  1

  9
$DIMASO
 70
     1
  9
$DIMSHO
 70
     1
  9
$DIMPOST
  1

  9
$DIMAPOST
  1

  9
$DIMALT
 70
     0
  9
$DIMALTD
 70
     2
  9
$DIMALTF
 40
0.0394
  9
$DIMLFAC
 40
1.0
  9
$DIMTOFL
 70
     1
  9
$DIMTVP
 40
0.0
  9
$DIMTIX
 70
     0
  9
$DIMSOXD
 70
     0
  9
$DIMSAH
 70
     1
  9
$DIMBLK1
  1
DOTSMALL
  9
$DIMBLK2
  1
DOTSMALL
  9
$DIMSTYLE
  2
INABA_S40G
  9
$DIMCLRD
 70
     0
  9
$DIMCLRE
 70
     0
  9
$DIMCLRT
 70
     7
  9
$DIMTFAC
 40
1.0
  9
$DIMGAP
 40
1.0
  9
$DIMJUST
 70
     0
  9
$DIMSD1
 70
     0
  9
$DIMSD2
 70
     0
  9
$DIMTOLJ
 70
     1
  9
$DIMTZIN
 70
     0
  9
$DIMALTZ
 70
     0
  9
$DIMALTTZ
 70
     0
  9
$DIMUPT
 70
     0
  9
$DIMDEC
 70
     1
  9
$DIMTDEC
 70
     1
  9
$DIMALTU
 70
     2
  9
$DIMALTTD
 70
     2
  9
$DIMTXSTY
  7
STYLE1
  9
$DIMAUNIT
 70
     0
  9
$DIMADEC
 70
     0
  9
$DIMALTRND
 40
0.0
  9
$DIMAZIN
 70
     0
  9
$DIMDSEP
 70
    46
  9
$DIMATFIT
 70
     3
  9
$DIMFRAC
 70
     0
  9
$DIMLDRBLK
  1

  9
$DIMLUNIT
 70
     2
  9
$DIMLWD
 70
    -2
  9
$DIMLWE
 70
    -2
  9
$DIMTMOVE
 70
     0
  9
$LUNITS
 70
     2
  9
$LUPREC
 70
     1
  9
$SKETCHINC
 40
1.0
  9
$FILLETRAD
 40
7.0
  9
$AUNITS
 70
     0
  9
$AUPREC
 70
     0
  9
$MENU
  1
acad
  9
$ELEVATION
 40
0.0
  9
$PELEVATION
 40
0.0
  9
$THICKNESS
 40
0.0
  9
$LIMCHECK
 70
     0
  9
$CHAMFERA
 40
3.0
  9
$CHAMFERB
 40
3.0
  9
$CHAMFERC
 40
0.0
  9
$CHAMFERD
 40
0.0
  9
$SKPOLY
 70
     0
  9
$TDCREATE
 40
2451368.612993866
  9
$TDUCREATE
 40
2451368.237993866
  9
$TDUPDATE
 40
2455552.713228252
  9
$TDUUPDATE
 40
2455552.338228252
  9
$TDINDWG
 40
1.4870597569
  9
$TDUSRTIMER
 40
1.4870597569
  9
$USRTIMER
 70
     1
  9
$ANGBASE
 50
0.0
  9
$ANGDIR
 70
     0
  9
$PDMODE
 70
     3
  9
$PDSIZE
 40
2.0
  9
$PLINEWID
 40
0.0
  9
$SPLFRAME
 70
     0
  9
$SPLINETYPE
 70
     6
  9
$SPLINESEGS
 70
     8
  9
$HANDSEED
  5
2C517
  9
$SURFTAB1
 70
     6
  9
$SURFTAB2
 70
     6
  9
$SURFTYPE
 70
     6
  9
$SURFU
 70
     6
  9
$SURFV
 70
     6
  9
$UCSBASE
  2

  9
$UCSNAME
  2

  9
$UCSORG
 10
0.0
 20
0.0
 30
0.0
  9
$UCSXDIR
 10
1.0
 20
0.0
 30
0.0
  9
$UCSYDIR
 10
0.0
 20
1.0
 30
0.0
  9
$UCSORTHOREF
  2

  9
$UCSORTHOVIEW
 70
     0
  9
$UCSORGTOP
 10
0.0
 20
0.0
 30
0.0
  9
$UCSORGBOTTOM
 10
0.0
 20
0.0
 30
0.0
  9
$UCSORGLEFT
 10
0.0
 20
0.0
 30
0.0
  9
$UCSORGRIGHT
 10
0.0
 20
0.0
 30
0.0
  9
$UCSORGFRONT
 10
0.0
 20
0.0
 30
0.0
  9
$UCSORGBACK
 10
0.0
 20
0.0
 30
0.0
  9
$PUCSBASE
  2

  9
$PUCSNAME
  2

  9
$PUCSORG
 10
0.0
 20
0.0
 30
0.0
  9
$PUCSXDIR
 10
1.0
 20
0.0
 30
0.0
  9
$PUCSYDIR
 10
0.0
 20
1.0
 30
0.0
  9
$PUCSORTHOREF
  2

  9
$PUCSORTHOVIEW
 70
     0
  9
$PUCSORGTOP
 10
0.0
 20
0.0
 30
0.0
  9
$PUCSORGBOTTOM
 10
0.0
 20
0.0
 30
0.0
  9
$PUCSORGLEFT
 10
0.0
 20
0.0
 30
0.0
  9
$PUCSORGRIGHT
 10
0.0
 20
0.0
 30
0.0
  9
$PUCSORGFRONT
 10
0.0
 20
0.0
 30
0.0
  9
$PUCSORGBACK
 10
0.0
 20
0.0
 30
0.0
  9
$USERI1
 70
     0
  9
$USERI2
 70
     0
  9
$USERI3
 70
     0
  9
$USERI4
 70
     0
  9
$USERI5
 70
     0
  9
$USERR1
 40
0.0
  9
$USERR2
 40
0.0
  9
$USERR3
 40
0.0
  9
$USERR4
 40
0.0
  9
$USERR5
 40
0.0
  9
$WORLDVIEW
 70
     1
  9
$SHADEDGE
 70
     3
  9
$SHADEDIF
 70
    70
  9
$TILEMODE
 70
     1
  9
$MAXACTVP
 70
    16
  9
$PINSBASE
 10
0.0
 20
0.0
 30
0.0
  9
$PLIMCHECK
 70
     0
  9
$PEXTMIN
 10
1.000000000000000E+20
 20
1.000000000000000E+20
 30
1.000000000000000E+20
  9
$PEXTMAX
 10
-1.000000000000000E+20
 20
-1.000000000000000E+20
 30
-1.000000000000000E+20
  9
$PLIMMIN
 10
0.0
 20
0.0
  9
$PLIMMAX
 10
420.0
 20
297.0
  9
$UNITMODE
 70
     0
  9
$VISRETAIN
 70
     0
  9
$PLINEGEN
 70
     0
  9
$PSLTSCALE
 70
     0
  9
$TREEDEPTH
 70
  3020
  9
$CMLSTYLE
  2
STANDARD
  9
$CMLJUST
 70
     0
  9
$CMLSCALE
 40
1.0
  9
$PROXYGRAPHICS
 70
     1
  9
$MEASUREMENT
 70
     1
  9
$CELWEIGHT
370
    -1
  9
$ENDCAPS
280
     0
  9
$JOINSTYLE
280
     0
  9
$LWDISPLAY
290
     0
  9
$INSUNITS
 70
     0
  9
$HYPERLINKBASE
  1

  9
$STYLESHEET
  1
inaba.ctb
  9
$XEDIT
290
     1
  9
$CEPSNTYPE
380
     0
  9
$PSTYLEMODE
290
     1
  9
$FINGERPRINTGUID
  2
{3B57B35E-7D77-4BBF-81B7-6C583B9EB24C}
  9
$VERSIONGUID
  2
{9A107A0D-D413-4F91-816A-0ABB51FC04AD}
  9
$EXTNAMES
290
     1
  9
$PSVPSCALE
 40
0.0
  9
$OLESTARTUP
290
     0
  0
ENDSEC
  0
SECTION
  2
CLASSES
  0
CLASS
  1
ACDBDICTIONARYWDFLT
  2
AcDbDictionaryWithDefault
  3
ObjectDBX Classes
 90
        0
280
     0
281
     0
  0
CLASS
  1
DICTIONARYVAR
  2
AcDbDictionaryVar
  3
ObjectDBX Classes
 90
        0
280
     0
281
     0
  0
CLASS
  1
ACDBPLACEHOLDER
  2
AcDbPlaceHolder
  3
ObjectDBX Classes
 90
        0
280
     0
281
     0
  0
CLASS
  1
LAYOUT
  2
AcDbLayout
  3
ObjectDBX Classes
 90
        0
280
     0
281
     0
  0
ENDSEC
  0
SECTION
  2
TABLES
  0
TABLE
  2
VPORT
  5
746D
330
0
100
AcDbSymbolTable
 70
     2
  0
VPORT
  5
2C50F
330
746D
100
AcDbSymbolTableRecord
100
AcDbViewportTableRecord
  2
*Active
 70
     0
 10
0.0
 20
0.0
 11
1.0
 21
1.0
 12
8223.7610252385
 22
5704.608037261909
 13
0.0
 23
0.0
 14
10.0
 24
10.0
 15
10.0
 25
10.0
 16
0.0
 26
0.0
 36
1.0
 17
0.0
 27
0.0
 37
0.0
 40
11496.13933623801
 41
1.507499999999999
 42
50.0
 43
0.0
 44
0.0
 50
0.0
 51
0.0
 71
     0
 72
     0
 73
     1
 74
     0
 75
     0
 76
     0
 77
     0
 78
     0
281
     0
 65
     1
110
0.0
120
0.0
130
0.0
111
1.0
121
0.0
131
0.0
112
0.0
122
1.0
132
0.0
 79
     0
146
0.0
  0
ENDTAB
  0
TABLE
  2
LTYPE
  5
746A
330
0
100
AcDbSymbolTable
 70
     3
  0
LTYPE
  5
7477
330
746A
100
AcDbSymbolTableRecord
100
AcDbLinetypeTableRecord
  2
BYBLOCK
 70
     0
  3

 72
    65
 73
     0
 40
0.0
  0
LTYPE
  5
7478
330
746A
100
AcDbSymbolTableRecord
100
AcDbLinetypeTableRecord
  2
BYLAYER
 70
     0
  3

 72
    65
 73
     0
 40
0.0
  0
LTYPE
  5
7479
330
746A
100
AcDbSymbolTableRecord
100
AcDbLinetypeTableRecord
  2
CONTINUOUS
 70
     0
  3
Solid line
 72
    65
 73
     0
 40
0.0
  0
LTYPE
  5
781A
330
746A
100
AcDbSymbolTableRecord
100
AcDbLinetypeTableRecord
  2
HIDDEN
 70
     0
  3
__ __ __ __ __ __ __ __ __ __ __ __ __ __ __ __
 72
    65
 73
     2
 40
0.375
 49
0.25
 74
     0
 49
-0.125
 74
     0
  0
LTYPE
  5
781B
330
746A
100
AcDbSymbolTableRecord
100
AcDbLinetypeTableRecord
  2
PHANTOM
 70
     0
  3
______  __  __  ______  __  __  ______  __  __ 
 72
    65
 73
     6
 40
2.5
 49
1.25
 74
     0
 49
-0.25
 74
     0
 49
0.25
 74
     0
 49
-0.25
 74
     0
 49
0.25
 74
     0
 49
-0.25
 74
     0
  0
ENDTAB
  0
TABLE
  2
LAYER
  5
7467
102
{ACAD_XDICTIONARY
360
1FFA9
102
}
330
0
100
AcDbSymbolTable
 70
    11
  0
LAYER
  5
7474
330
7467
100
AcDbSymbolTableRecord
100
AcDbLayerTableRecord
  2
0
 70
     0
 62
     7
  6
CONTINUOUS
370
    -3
390
159AE
  0
LAYER
  5
DEB3
330
7467
100
AcDbSymbolTableRecord
100
AcDbLayerTableRecord
  2
寸法
 70
     0
 62
     4
  6
CONTINUOUS
370
    -3
390
159AE
  0
LAYER
  5
DEB4
330
7467
100
AcDbSymbolTableRecord
100
AcDbLayerTableRecord
  2
部品1
 70
     0
 62
     7
  6
CONTINUOUS
370
    -3
390
159AE
  0
LAYER
  5
DEB5
330
7467
100
AcDbSymbolTableRecord
100
AcDbLayerTableRecord
  2
補助
 70
     0
 62
    -1
  6
CONTINUOUS
370
    -3
390
159AE
  0
LAYER
  5
DEB6
330
7467
100
AcDbSymbolTableRecord
100
AcDbLayerTableRecord
  2
文字
 70
     0
 62
     7
  6
CONTINUOUS
370
    -3
390
159AE
  0
LAYER
  5
F255
330
7467
100
AcDbSymbolTableRecord
100
AcDbLayerTableRecord
  2
DEFPOINTS
 70
     0
 62
     7
  6
CONTINUOUS
290
     0
370
    -3
390
159AE
  0
LAYER
  5
10B54
330
7467
100
AcDbSymbolTableRecord
100
AcDbLayerTableRecord
  2
仕様書枠
 70
     0
 62
   230
  6
CONTINUOUS
370
    -3
390
159AE
  0
LAYER
  5
11729
330
7467
100
AcDbSymbolTableRecord
100
AcDbLayerTableRecord
  2
Ｇ．Ｌ
 70
     0
 62
    30
  6
CONTINUOUS
370
    -3
390
159AE
  0
LAYER
  5
1173F
330
7467
100
AcDbSymbolTableRecord
100
AcDbLayerTableRecord
  2
細線
 70
     0
 62
     5
  6
CONTINUOUS
370
    -3
390
159AE
  0
LAYER
  5
142E2
330
7467
100
AcDbSymbolTableRecord
100
AcDbLayerTableRecord
  2
破線
 70
     0
 62
     2
  6
HIDDEN
370
    -3
390
159AE
  0
LAYER
  5
2AB54
330
7467
100
AcDbSymbolTableRecord
100
AcDbLayerTableRecord
  2
想像線
 70
     0
 62
     6
  6
PHANTOM
370
    -3
390
159AE
  0
ENDTAB
  0
TABLE
  2
STYLE
  5
7468
330
0
100
AcDbSymbolTable
 70
     6
  0
STYLE
  5
7475
330
7468
100
AcDbSymbolTableRecord
100
AcDbTextStyleTableRecord
  2
STANDARD
 70
     0
 40
0.0
 41
1.0
 50
0.0
 71
     0
 42
4.0
  3
txt
  4
C:\AutoCAD LT\bigfont.shx
  0
STYLE
  5
F706
330
7468
100
AcDbSymbolTableRecord
100
AcDbTextStyleTableRecord
  2
STYLE1
 70
     0
 40
0.0
 41
1.0
 50
0.0
 71
     0
 42
100.0
  3
isocp.shx
  4
bigfont.shx
  0
STYLE
  5
103BF
330
7468
100
AcDbSymbolTableRecord
100
AcDbTextStyleTableRecord
  2
STYLE2
 70
     0
 40
0.0
 41
1.0
 50
0.0
 71
     0
 42
100.0
  3
MS PGothic.ttf
  4

1001
ACAD
1000
MS PGothic
1071
    32818
  0
STYLE
  5
2AB55
330
7468
100
AcDbSymbolTableRecord
100
AcDbTextStyleTableRecord
  2
MSPゴシック
 70
     0
 40
0.0
 41
1.0
 50
0.0
 71
     0
 42
4.0
  3
MS PGothic.ttf
  4

1001
ACAD
1000
MS PGothic
1071
    32818
  0
STYLE
  5
2B60A
330
7468
100
AcDbSymbolTableRecord
100
AcDbTextStyleTableRecord
  2
STYLE3
 70
     0
 40
0.0
 41
1.0
 50
0.0
 71
     0
 42
100.0
  3
DFPGothic-EB.ttf
  4

1001
ACAD
1000
DFPGothic-EB
1071
    32818
  0
STYLE
  5
2B60B
330
7468
100
AcDbSymbolTableRecord
100
AcDbTextStyleTableRecord
  2
丸ゴシック
 70
     0
 40
0.0
 41
1.0
 50
0.0
 71
     0
 42
150.0
  3
HGRSMP.TTF
  4

1001
ACAD
1000
HG丸ｺﾞｼｯｸM-PRO
1071
    32818
  0
ENDTAB
  0
TABLE
  2
VIEW
  5
746B
330
0
100
AcDbSymbolTable
 70
     0
  0
ENDTAB
  0
TABLE
  2
UCS
  5
746C
330
0
100
AcDbSymbolTable
 70
     0
  0
ENDTAB
  0
TABLE
  2
APPID
  5
746E
330
0
100
AcDbSymbolTable
 70
     6
  0
APPID
  5
7476
330
746E
100
AcDbSymbolTableRecord
100
AcDbRegAppTableRecord
  2
ACAD
 70
     0
  0
APPID
  5
DEA9
330
746E
100
AcDbSymbolTableRecord
100
AcDbRegAppTableRecord
  2
CONTENTBLOCKICON
 70
     0
  0
APPID
  5
DEAA
330
746E
100
AcDbSymbolTableRecord
100
AcDbRegAppTableRecord
  2
CONTENTBLOCKDESCRIPTION
 70
     0
  0
APPID
  5
E71D
330
746E
100
AcDbSymbolTableRecord
100
AcDbRegAppTableRecord
  2
CONTENTTABDATA
 70
     0
  0
APPID
  5
E71E
330
746E
100
AcDbSymbolTableRecord
100
AcDbRegAppTableRecord
  2
CONTENTCURRENTTAB
 70
     0
  0
APPID
  5
F3BA
330
746E
100
AcDbSymbolTableRecord
100
AcDbRegAppTableRecord
  2
DRAWINGVARIABLESXDATA
 70
     0
  0
ENDTAB
  0
TABLE
  2
DIMSTYLE
  5
746F
330
0
100
AcDbSymbolTable
 70
     2
100
AcDbDimStyleTable
 71
     1
340
F71F
  0
DIMSTYLE
105
F71F
102
{ACAD_REACTORS
330
20CC4
330
20CCC
330
20CCD
330
20CD4
330
22EED
330
22EEB
330
22EB7
330
22EB3
330
22E91
330
22E90
330
22E8F
330
22E8E
330
22E8D
330
22F26
330
25C25
330
25C24
330
29886
330
29895
330
298BE
330
298BF
330
298C0
330
298C7
330
298C8
330
2A5E2
330
2A5FA
330
2A5F9
330
2A5F8
102
}
330
746F
100
AcDbSymbolTableRecord
100
AcDbDimStyleTableRecord
  2
INABA_S40G
 70
     0
 40
40.0
 41
2.5
 42
0.5
 43
7.0
 44
1.5
 73
     0
 74
     0
 77
     3
 78
     8
140
3.0
141
0.0
143
0.0394
147
1.0
172
     1
173
     1
174
     1
178
     7
271
     1
288
     1
340
F706
341
F770
343
F770
344
F770
  0
DIMSTYLE
105
2C063
330
746F
100
AcDbSymbolTableRecord
100
AcDbDimStyleTableRecord
  2
INABA_S20G
 70
     0
 40
20.0
 41
2.5
 42
0.5
 43
7.0
 44
1.5
 73
     0
 74
     0
 77
     3
 78
     8
140
3.0
141
0.0
143
0.0394
147
1.0
172
     1
173
     1
174
     1
178
     7
271
     1
340
F706
341
F770
343
F770
344
F770
  0
ENDTAB
  0
TABLE
  2
BLOCK_RECORD
  5
7466
330
0
100
AcDbSymbolTable
 70
    28
  0
BLOCK_RECORD
  5
747D
330
7466
100
AcDbSymbolTableRecord
100
AcDbBlockTableRecord
  2
*MODEL_SPACE
340
159B3
  0
BLOCK_RECORD
  5
747A
330
7466
100
AcDbSymbolTableRecord
100
AcDbBlockTableRecord
  2
*PAPER_SPACE
340
159B4
  0
BLOCK_RECORD
  5
F770
330
7466
100
AcDbSymbolTableRecord
100
AcDbBlockTableRecord
  2
_DOTSMALL
340
0
102
{BLKREFS
331
2C32E
331
2C32F
331
2C337
331
2C338
331
2C340
331
2C341
331
2C349
331
2C34A
331
2C353
331
2C354
331
2C35E
331
2C35F
331
2C367
331
2C368
331
2C372
331
2C373
331
2C37B
331
2C37C
331
2C385
331
2C386
331
2C38F
331
2C390
331
2C398
331
2C399
331
2C3A3
331
2C3A4
331
2C3AE
331
2C3AF
331
2C3B7
331
2C3B8
331
2C3C0
331
2C3C1
331
2C3C9
331
2C3CA
331
2C3D2
331
2C3D3
331
2C3DB
331
2C3DC
331
2C3E4
331
2C3E5
331
2C3ED
331
2C3EE
331
2C3F8
331
2C3F9
331
2C403
331
2C404
331
2C40E
331
2C40F
331
2C419
331
2C41A
331
2C422
331
2C423
331
2C42B
331
2C42C
102
}
  0
BLOCK_RECORD
  5
20D09
330
7466
100
AcDbSymbolTableRecord
100
AcDbBlockTableRecord
  2
*D1
340
0
  0
BLOCK_RECORD
  5
20D15
330
7466
100
AcDbSymbolTableRecord
100
AcDbBlockTableRecord
  2
*D2
340
0
  0
BLOCK_RECORD
  5
20D23
330
7466
100
AcDbSymbolTableRecord
100
AcDbBlockTableRecord
  2
*D3
340
0
  0
BLOCK_RECORD
  5
20D31
330
7466
100
AcDbSymbolTableRecord
100
AcDbBlockTableRecord
  2
*D4
340
0
  0
BLOCK_RECORD
  5
22F29
330
7466
100
AcDbSymbolTableRecord
100
AcDbBlockTableRecord
  2
*D5
340
0
  0
BLOCK_RECORD
  5
22F35
330
7466
100
AcDbSymbolTableRecord
100
AcDbBlockTableRecord
  2
*D6
340
0
  0
BLOCK_RECORD
  5
22F41
330
7466
100
AcDbSymbolTableRecord
100
AcDbBlockTableRecord
  2
*D7
340
0
  0
BLOCK_RECORD
  5
22F4D
330
7466
100
AcDbSymbolTableRecord
100
AcDbBlockTableRecord
  2
*D8
340
0
  0
BLOCK_RECORD
  5
22F73
330
7466
100
AcDbSymbolTableRecord
100
AcDbBlockTableRecord
  2
*D9
340
0
  0
BLOCK_RECORD
  5
22F81
330
7466
100
AcDbSymbolTableRecord
100
AcDbBlockTableRecord
  2
*D10
340
0
  0
BLOCK_RECORD
  5
22F8F
330
7466
100
AcDbSymbolTableRecord
100
AcDbBlockTableRecord
  2
*D11
340
0
  0
BLOCK_RECORD
  5
22F9D
330
7466
100
AcDbSymbolTableRecord
100
AcDbBlockTableRecord
  2
*D12
340
0
  0
BLOCK_RECORD
  5
22FA9
330
7466
100
AcDbSymbolTableRecord
100
AcDbBlockTableRecord
  2
*D13
340
0
  0
BLOCK_RECORD
  5
22FB5
330
7466
100
AcDbSymbolTableRecord
100
AcDbBlockTableRecord
  2
*D14
340
0
  0
BLOCK_RECORD
  5
25C26
330
7466
100
AcDbSymbolTableRecord
100
AcDbBlockTableRecord
  2
*D15
340
0
  0
BLOCK_RECORD
  5
25C32
330
7466
100
AcDbSymbolTableRecord
100
AcDbBlockTableRecord
  2
*D16
340
0
  0
BLOCK_RECORD
  5
29919
330
7466
100
AcDbSymbolTableRecord
100
AcDbBlockTableRecord
  2
*D17
340
0
  0
BLOCK_RECORD
  5
29926
330
7466
100
AcDbSymbolTableRecord
100
AcDbBlockTableRecord
  2
*D18
340
0
  0
BLOCK_RECORD
  5
29933
330
7466
100
AcDbSymbolTableRecord
100
AcDbBlockTableRecord
  2
*D19
340
0
  0
BLOCK_RECORD
  5
2993F
330
7466
100
AcDbSymbolTableRecord
100
AcDbBlockTableRecord
  2
*D20
340
0
  0
BLOCK_RECORD
  5
2994D
330
7466
100
AcDbSymbolTableRecord
100
AcDbBlockTableRecord
  2
*D21
340
0
  0
BLOCK_RECORD
  5
29965
330
7466
100
AcDbSymbolTableRecord
100
AcDbBlockTableRecord
  2
*D22
340
0
  0
BLOCK_RECORD
  5
29973
330
7466
100
AcDbSymbolTableRecord
100
AcDbBlockTableRecord
  2
*D23
340
0
  0
BLOCK_RECORD
  5
2A5E3
330
7466
100
AcDbSymbolTableRecord
100
AcDbBlockTableRecord
  2
*D24
340
0
  0
BLOCK_RECORD
  5
2A5FB
330
7466
100
AcDbSymbolTableRecord
100
AcDbBlockTableRecord
  2
*D25
340
0
  0
BLOCK_RECORD
  5
2A607
330
7466
100
AcDbSymbolTableRecord
100
AcDbBlockTableRecord
  2
*D26
340
0
  0
BLOCK_RECORD
  5
2A613
330
7466
100
AcDbSymbolTableRecord
100
AcDbBlockTableRecord
  2
*D27
340
0
  0
ENDTAB
  0
ENDSEC
  0
SECTION
  2
BLOCKS
  0
BLOCK
  5
7489
330
747D
100
AcDbEntity
  8
0
100
AcDbBlockBegin
  2
*MODEL_SPACE
 70
     0
 10
0.0
 20
0.0
 30
0.0
  3
*MODEL_SPACE
  1

  0
ENDBLK
  5
748A
330
747D
100
AcDbEntity
  8
0
100
AcDbBlockEnd
  0
BLOCK
  5
7487
330
747A
100
AcDbEntity
 67
     1
  8
0
100
AcDbBlockBegin
  2
*PAPER_SPACE
 70
     0
 10
0.0
 20
0.0
 30
0.0
  3
*PAPER_SPACE
  1

  0
ENDBLK
  5
7488
330
747A
100
AcDbEntity
 67
     1
  8
0
100
AcDbBlockEnd
  0
BLOCK
  5
F771
330
F770
100
AcDbEntity
  8
0
 48
50.0
100
AcDbBlockBegin
  2
_DOTSMALL
 70
     0
 10
0.0
 20
0.0
 30
0.0
  3
_DOTSMALL
  1

  0
LWPOLYLINE
  5
F772
330
F770
100
AcDbEntity
  8
0
  6
ByBlock
 62
     0
 48
50.0
100
AcDbPolyline
 90
        2
 70
     1
 43
0.5
 10
-0.0625
 20
0.0
 42
1.0
 10
0.0625
 20
0.0
 42
1.0
  0
ENDBLK
  5
F776
330
F770
100
AcDbEntity
  8
0
 48
50.0
100
AcDbBlockEnd
  0
BLOCK
  5
20D13
330
20D09
100
AcDbEntity
  8
0
 48
50.0
100
AcDbBlockBegin
  2
*D1
 70
     1
 10
0.0
 20
0.0
 30
0.0
  3
*D1
  1

  0
LINE
  5
2C3B4
330
20D09
100
AcDbEntity
  8
寸法
 62
     0
 48
50.0
370
    -2
100
AcDbLine
 10
7020.791854839193
 20
4865.984612627048
 30
0.0
 11
7020.791854839193
 21
5118.526197885287
 31
0.0
  0
LINE
  5
2C3B5
330
20D09
100
AcDbEntity
  8
寸法
 62
     0
 48
50.0
370
    -2
100
AcDbLine
 10
4390.791854839192
 20
4865.984612627049
 30
0.0
 11
4390.791854839192
 21
5118.526197885287
 31
0.0
  0
LINE
  5
2C3B6
330
20D09
100
AcDbEntity
  8
寸法
 62
     0
 48
50.0
370
    -2
100
AcDbLine
 10
7020.791854839193
 20
5058.526197885287
 30
0.0
 11
4390.791854839192
 21
5058.526197885287
 31
0.0
  0
INSERT
  5
2C3B7
330
20D09
100
AcDbEntity
  8
寸法
 62
     0
 48
50.0
370
    -2
100
AcDbBlockReference
  2
_DOTSMALL
 10
7020.791854839193
 20
5058.526197885287
 30
0.0
 41
100.0
 42
100.0
 43
100.0
  0
INSERT
  5
2C3B8
330
20D09
100
AcDbEntity
  8
寸法
 62
     0
 48
50.0
370
    -2
100
AcDbBlockReference
  2
_DOTSMALL
 10
4390.791854839192
 20
5058.526197885287
 30
0.0
 41
100.0
 42
100.0
 43
100.0
 50
180.0
  0
MTEXT
  5
2C3B9
330
20D09
100
AcDbEntity
  8
寸法
 62
     7
 48
50.0
100
AcDbMText
 10
5806.313767406317
 20
5158.538008908909
 30
0.0
 40
120.0
 41
0.0
 71
     5
 72
     1
  1
\A1;柱外寸法2630
  7
STYLE1
 73
     1
 44
1.0
1001
ACAD
1000
MTEXTBEGIN
1070
    73
1070
     1
1070
    44
1040
1.0
1070
    74
1070
     0
1000
MTEXTEND
  0
POINT
  5
2C3BA
330
20D09
100
AcDbEntity
  8
DEFPOINTS
 62
     0
 48
50.0
100
AcDbPoint
 10
7020.791854839193
 20
4845.984612627048
 30
0.0
  0
POINT
  5
2C3BB
330
20D09
100
AcDbEntity
  8
DEFPOINTS
 62
     0
 48
50.0
100
AcDbPoint
 10
4390.791854839192
 20
4845.98461262705
 30
0.0
  0
POINT
  5
2C3BC
330
20D09
100
AcDbEntity
  8
DEFPOINTS
 62
     0
 48
50.0
100
AcDbPoint
 10
4390.791854839192
 20
5058.526197885287
 30
0.0
  0
ENDBLK
  5
20D14
330
20D09
100
AcDbEntity
  8
0
 48
50.0
100
AcDbBlockEnd
  0
BLOCK
  5
20D21
330
20D15
100
AcDbEntity
  8
0
 48
50.0
100
AcDbBlockBegin
  2
*D2
 70
     1
 10
0.0
 20
0.0
 30
0.0
  3
*D2
  1

  0
LINE
  5
2C3A9
330
20D15
100
AcDbEntity
  8
寸法
 62
     0
 48
50.0
370
    -2
100
AcDbLine
 10
4390.791854839192
 20
4865.984612627049
 30
0.0
 11
4390.791854839192
 21
5118.526197885287
 31
0.0
  0
LINE
  5
2C3AA
330
20D15
100
AcDbEntity
  8
寸法
 62
     0
 48
50.0
370
    -2
100
AcDbLine
 10
4340.791854839192
 20
4865.984612627048
 30
0.0
 11
4340.791854839192
 21
5118.526197885287
 31
0.0
  0
LINE
  5
2C3AB
330
20D15
100
AcDbEntity
  8
寸法
 62
     0
 48
50.0
370
    -2
100
AcDbLine
 10
4390.791854839192
 20
5058.526197885287
 30
0.0
 11
4490.791854839192
 21
5058.526197885287
 31
0.0
  0
LINE
  5
2C3AC
330
20D15
100
AcDbEntity
  8
寸法
 62
     0
 48
50.0
370
    -2
100
AcDbLine
 10
4340.791854839192
 20
5058.526197885287
 30
0.0
 11
3921.259329370457
 21
5058.526197885287
 31
0.0
  0
LINE
  5
2C3AD
330
20D15
100
AcDbEntity
  8
寸法
 62
     0
 48
50.0
370
    -2
100
AcDbLine
 10
4390.791854839192
 20
5058.526197885287
 30
0.0
 11
4340.791854839192
 21
5058.526197885287
 31
0.0
  0
INSERT
  5
2C3AE
330
20D15
100
AcDbEntity
  8
寸法
 62
     0
 48
50.0
370
    -2
100
AcDbBlockReference
  2
_DOTSMALL
 10
4390.791854839192
 20
5058.526197885287
 30
0.0
 41
100.0
 42
100.0
 43
100.0
 50
180.0
  0
INSERT
  5
2C3AF
330
20D15
100
AcDbEntity
  8
寸法
 62
     0
 48
50.0
370
    -2
100
AcDbBlockReference
  2
_DOTSMALL
 10
4340.791854839192
 20
5058.526197885287
 30
0.0
 41
100.0
 42
100.0
 43
100.0
  0
MTEXT
  5
2C3B0
330
20D15
100
AcDbEntity
  8
寸法
 62
     7
 48
50.0
100
AcDbMText
 10
4027.306573464946
 20
5158.526197885286
 30
0.0
 40
120.0
 41
0.0
 71
     5
 72
     1
  1
\A1;50
  7
STYLE1
 73
     1
 44
1.0
1001
ACAD
1000
MTEXTBEGIN
1070
    73
1070
     1
1070
    44
1040
1.0
1070
    74
1070
     0
1000
MTEXTEND
  0
POINT
  5
2C3B1
330
20D15
100
AcDbEntity
  8
DEFPOINTS
 62
     0
 48
50.0
100
AcDbPoint
 10
4390.791854839192
 20
4845.98461262705
 30
0.0
  0
POINT
  5
2C3B2
330
20D15
100
AcDbEntity
  8
DEFPOINTS
 62
     0
 48
50.0
100
AcDbPoint
 10
4340.791854839192
 20
4845.984612627048
 30
0.0
  0
POINT
  5
2C3B3
330
20D15
100
AcDbEntity
  8
DEFPOINTS
 62
     0
 48
50.0
100
AcDbPoint
 10
4340.791854839192
 20
5058.526197885287
 30
0.0
  0
ENDBLK
  5
20D22
330
20D15
100
AcDbEntity
  8
0
 48
50.0
100
AcDbBlockEnd
  0
BLOCK
  5
20D2F
330
20D23
100
AcDbEntity
  8
0
 48
50.0
100
AcDbBlockBegin
  2
*D3
 70
     1
 10
0.0
 20
0.0
 30
0.0
  3
*D3
  1

  0
LINE
  5
2C39E
330
20D23
100
AcDbEntity
  8
寸法
 62
     0
 48
50.0
370
    -2
100
AcDbLine
 10
7070.791854839193
 20
4865.984612627046
 30
0.0
 11
7070.791854839193
 21
5118.526197885287
 31
0.0
  0
LINE
  5
2C39F
330
20D23
100
AcDbEntity
  8
寸法
 62
     0
 48
50.0
370
    -2
100
AcDbLine
 10
7020.791854839193
 20
4865.984612627048
 30
0.0
 11
7020.791854839193
 21
5118.526197885287
 31
0.0
  0
LINE
  5
2C3A0
330
20D23
100
AcDbEntity
  8
寸法
 62
     0
 48
50.0
370
    -2
100
AcDbLine
 10
7020.791854839193
 20
5058.526197885287
 30
0.0
 11
6920.791854839193
 21
5058.526197885287
 31
0.0
  0
LINE
  5
2C3A1
330
20D23
100
AcDbEntity
  8
寸法
 62
     0
 48
50.0
370
    -2
100
AcDbLine
 10
7070.791854839193
 20
5058.526197885287
 30
0.0
 11
7490.324380307917
 21
5058.526197885287
 31
0.0
  0
LINE
  5
2C3A2
330
20D23
100
AcDbEntity
  8
寸法
 62
     0
 48
50.0
370
    -2
100
AcDbLine
 10
7020.791854839193
 20
5058.526197885287
 30
0.0
 11
7070.791854839193
 21
5058.526197885287
 31
0.0
  0
INSERT
  5
2C3A3
330
20D23
100
AcDbEntity
  8
寸法
 62
     0
 48
50.0
370
    -2
100
AcDbBlockReference
  2
_DOTSMALL
 10
7020.791854839193
 20
5058.526197885287
 30
0.0
 41
100.0
 42
100.0
 43
100.0
  0
INSERT
  5
2C3A4
330
20D23
100
AcDbEntity
  8
寸法
 62
     0
 48
50.0
370
    -2
100
AcDbBlockReference
  2
_DOTSMALL
 10
7070.791854839193
 20
5058.526197885287
 30
0.0
 41
100.0
 42
100.0
 43
100.0
 50
180.0
  0
MTEXT
  5
2C3A5
330
20D23
100
AcDbEntity
  8
寸法
 62
     7
 48
50.0
100
AcDbMText
 10
7384.277136213428
 20
5158.526197885286
 30
0.0
 40
120.0
 41
0.0
 71
     5
 72
     1
  1
\A1;50
  7
STYLE1
 73
     1
 44
1.0
1001
ACAD
1000
MTEXTBEGIN
1070
    73
1070
     1
1070
    44
1040
1.0
1070
    74
1070
     0
1000
MTEXTEND
  0
POINT
  5
2C3A6
330
20D23
100
AcDbEntity
  8
DEFPOINTS
 62
     0
 48
50.0
100
AcDbPoint
 10
7070.791854839193
 20
4845.984612627046
 30
0.0
  0
POINT
  5
2C3A7
330
20D23
100
AcDbEntity
  8
DEFPOINTS
 62
     0
 48
50.0
100
AcDbPoint
 10
7020.791854839193
 20
4845.984612627048
 30
0.0
  0
POINT
  5
2C3A8
330
20D23
100
AcDbEntity
  8
DEFPOINTS
 62
     0
 48
50.0
100
AcDbPoint
 10
7020.791854839193
 20
5058.526197885287
 30
0.0
  0
ENDBLK
  5
20D30
330
20D23
100
AcDbEntity
  8
0
 48
50.0
100
AcDbBlockEnd
  0
BLOCK
  5
20D3B
330
20D31
100
AcDbEntity
  8
0
 48
50.0
100
AcDbBlockBegin
  2
*D4
 70
     1
 10
0.0
 20
0.0
 30
0.0
  3
*D4
  1

  0
LINE
  5
2C395
330
20D31
100
AcDbEntity
  8
寸法
 62
     0
 48
50.0
370
    -2
100
AcDbLine
 10
4340.791854839192
 20
4865.984612627048
 30
0.0
 11
4340.791854839192
 21
5333.921629367542
 31
0.0
  0
LINE
  5
2C396
330
20D31
100
AcDbEntity
  8
寸法
 62
     0
 48
50.0
370
    -2
100
AcDbLine
 10
7070.791854839193
 20
4865.984612627046
 30
0.0
 11
7070.791854839193
 21
5333.921629367542
 31
0.0
  0
LINE
  5
2C397
330
20D31
100
AcDbEntity
  8
寸法
 62
     0
 48
50.0
370
    -2
100
AcDbLine
 10
4340.791854839192
 20
5273.921629367542
 30
0.0
 11
7070.791854839193
 21
5273.921629367542
 31
0.0
  0
INSERT
  5
2C398
330
20D31
100
AcDbEntity
  8
寸法
 62
     0
 48
50.0
370
    -2
100
AcDbBlockReference
  2
_DOTSMALL
 10
4340.791854839192
 20
5273.921629367542
 30
0.0
 41
100.0
 42
100.0
 43
100.0
 50
180.0
  0
INSERT
  5
2C399
330
20D31
100
AcDbEntity
  8
寸法
 62
     0
 48
50.0
370
    -2
100
AcDbBlockReference
  2
_DOTSMALL
 10
7070.791854839193
 20
5273.921629367542
 30
0.0
 41
100.0
 42
100.0
 43
100.0
  0
MTEXT
  5
2C39A
330
20D31
100
AcDbEntity
  8
寸法
 62
     7
 48
50.0
100
AcDbMText
 10
5748.358176346016
 20
5373.933440391163
 30
0.0
 40
120.0
 41
0.0
 71
     5
 72
     1
  1
\A1;2730
  7
STYLE1
 73
     1
 44
1.0
1001
ACAD
1000
MTEXTBEGIN
1070
    73
1070
     1
1070
    44
1040
1.0
1070
    74
1070
     0
1000
MTEXTEND
  0
POINT
  5
2C39B
330
20D31
100
AcDbEntity
  8
DEFPOINTS
 62
     0
 48
50.0
100
AcDbPoint
 10
4340.791854839192
 20
4845.984612627048
 30
0.0
  0
POINT
  5
2C39C
330
20D31
100
AcDbEntity
  8
DEFPOINTS
 62
     0
 48
50.0
100
AcDbPoint
 10
7070.791854839193
 20
4845.984612627046
 30
0.0
  0
POINT
  5
2C39D
330
20D31
100
AcDbEntity
  8
DEFPOINTS
 62
     0
 48
50.0
100
AcDbPoint
 10
7070.791854839193
 20
5273.921629367542
 30
0.0
  0
ENDBLK
  5
20D3C
330
20D31
100
AcDbEntity
  8
0
 48
50.0
100
AcDbBlockEnd
  0
BLOCK
  5
22F33
330
22F29
100
AcDbEntity
  8
0
 48
50.0
100
AcDbBlockBegin
  2
*D5
 70
     1
 10
0.0
 20
0.0
 30
0.0
  3
*D5
  1

  0
LINE
  5
2C3D8
330
22F29
100
AcDbEntity
  8
寸法
 62
     0
 48
50.0
370
    -2
100
AcDbLine
 10
7040.791854839231
 20
9988.891688367367
 30
0.0
 11
7728.59396611809
 21
9988.891688367367
 31
0.0
  0
LINE
  5
2C3D9
330
22F29
100
AcDbEntity
  8
寸法
 62
     0
 48
50.0
370
    -2
100
AcDbLine
 10
7040.79185483916
 20
7468.891688367309
 30
0.0
 11
7728.59396611809
 21
7468.891688367309
 31
0.0
  0
LINE
  5
2C3DA
330
22F29
100
AcDbEntity
  8
寸法
 62
     0
 48
50.0
370
    -2
100
AcDbLine
 10
7668.593966118089
 20
9988.891688367367
 30
0.0
 11
7668.593966118089
 21
7468.891688367309
 31
0.0
  0
INSERT
  5
2C3DB
330
22F29
100
AcDbEntity
  8
寸法
 62
     0
 48
50.0
370
    -2
100
AcDbBlockReference
  2
_DOTSMALL
 10
7668.593966118089
 20
9988.891688367367
 30
0.0
 41
100.0
 42
100.0
 43
100.0
 50
90.0
  0
INSERT
  5
2C3DC
330
22F29
100
AcDbEntity
  8
寸法
 62
     0
 48
50.0
370
    -2
100
AcDbBlockReference
  2
_DOTSMALL
 10
7668.593966118089
 20
7468.891688367309
 30
0.0
 41
100.0
 42
100.0
 43
100.0
 50
270.0
  0
MTEXT
  5
2C3DD
330
22F29
100
AcDbEntity
  8
寸法
 62
     7
 48
50.0
100
AcDbMText
 10
7568.582155094468
 20
8714.945376417542
 30
0.0
 40
120.0
 41
0.0
 71
     5
 72
     1
  1
\A1;6X420=2520
  7
STYLE1
 11
0.0000000000000001
 21
1.0
 31
0.0
 73
     1
 44
1.0
1001
ACAD
1000
MTEXTBEGIN
1070
    73
1070
     1
1070
    44
1040
1.0
1070
    74
1070
     0
1000
MTEXTEND
  0
POINT
  5
2C3DE
330
22F29
100
AcDbEntity
  8
DEFPOINTS
 62
     0
 48
50.0
100
AcDbPoint
 10
7020.791854839231
 20
9988.891688367367
 30
0.0
  0
POINT
  5
2C3DF
330
22F29
100
AcDbEntity
  8
DEFPOINTS
 62
     0
 48
50.0
100
AcDbPoint
 10
7020.79185483916
 20
7468.891688367309
 30
0.0
  0
POINT
  5
2C3E0
330
22F29
100
AcDbEntity
  8
DEFPOINTS
 62
     0
 48
50.0
100
AcDbPoint
 10
7668.593966118089
 20
7468.891688367309
 30
0.0
  0
ENDBLK
  5
22F34
330
22F29
100
AcDbEntity
  8
0
 48
50.0
100
AcDbBlockEnd
  0
BLOCK
  5
22F3F
330
22F35
100
AcDbEntity
  8
0
 48
50.0
100
AcDbBlockBegin
  2
*D6
 70
     1
 10
0.0
 20
0.0
 30
0.0
  3
*D6
  1

  0
LINE
  5
2C3E1
330
22F35
100
AcDbEntity
  8
寸法
 62
     0
 48
50.0
370
    -2
100
AcDbLine
 10
7012.29185483923
 20
10008.53270451874
 30
0.0
 11
7407.649580701255
 21
9902.596921152607
 31
0.0
  0
LINE
  5
2C3E2
330
22F35
100
AcDbEntity
  8
寸法
 62
     0
 48
50.0
370
    -2
100
AcDbLine
 10
7012.29185483923
 20
9558.532704518745
 30
0.0
 11
7407.649580701255
 21
9452.596921152609
 31
0.0
  0
LINE
  5
2C3E3
330
22F35
100
AcDbEntity
  8
寸法
 62
     0
 48
50.0
370
    -2
100
AcDbLine
 10
7347.649580701255
 20
9918.673872698473
 30
0.0
 11
7347.649580701255
 21
9468.673872698477
 31
0.0
  0
INSERT
  5
2C3E4
330
22F35
100
AcDbEntity
  8
寸法
 62
     0
 48
50.0
370
    -2
100
AcDbBlockReference
  2
_DOTSMALL
 10
7347.649580701255
 20
9918.673872698473
 30
0.0
 41
100.0
 42
100.0
 43
100.0
 50
90.0
  0
INSERT
  5
2C3E5
330
22F35
100
AcDbEntity
  8
寸法
 62
     0
 48
50.0
370
    -2
100
AcDbBlockReference
  2
_DOTSMALL
 10
7347.649580701255
 20
9468.673872698477
 30
0.0
 41
100.0
 42
100.0
 43
100.0
 50
270.0
  0
MTEXT
  5
2C3E6
330
22F35
100
AcDbEntity
  8
寸法
 62
     7
 48
50.0
100
AcDbMText
 10
7247.649580701254
 20
9693.673872698477
 30
0.0
 40
120.0
 41
0.0
 71
     5
 72
     1
  1
\A1;450
  7
STYLE1
 11
0.0000000000000001
 21
1.0
 31
0.0
 73
     1
 44
1.0
1001
ACAD
1000
MTEXTBEGIN
1070
    73
1070
     1
1070
    44
1040
1.0
1070
    74
1070
     0
1000
MTEXTEND
  0
POINT
  5
2C3E7
330
22F35
100
AcDbEntity
  8
DEFPOINTS
 62
     0
 48
50.0
100
AcDbPoint
 10
6992.29185483923
 20
10013.89168836736
 30
0.0
  0
POINT
  5
2C3E8
330
22F35
100
AcDbEntity
  8
DEFPOINTS
 62
     0
 48
50.0
100
AcDbPoint
 10
6992.29185483923
 20
9563.891688367368
 30
0.0
  0
POINT
  5
2C3E9
330
22F35
100
AcDbEntity
  8
DEFPOINTS
 62
     0
 48
50.0
100
AcDbPoint
 10
7347.649580701255
 20
9468.673872698477
 30
0.0
  0
ENDBLK
  5
22F40
330
22F35
100
AcDbEntity
  8
0
 48
50.0
100
AcDbBlockEnd
  0
BLOCK
  5
22F4B
330
22F41
100
AcDbEntity
  8
0
 48
50.0
100
AcDbBlockBegin
  2
*D7
 70
     1
 10
0.0
 20
0.0
 30
0.0
  3
*D7
  1

  0
LINE
  5
2C3EA
330
22F41
100
AcDbEntity
  8
寸法
 62
     0
 48
50.0
370
    -2
100
AcDbLine
 10
5713.932870990609
 20
9543.891688367374
 30
0.0
 11
5623.488094586413
 21
9206.347187547711
 31
0.0
  0
LINE
  5
2C3EB
330
22F41
100
AcDbEntity
  8
寸法
 62
     0
 48
50.0
370
    -2
100
AcDbLine
 10
6986.93287099062
 20
9543.891688367367
 30
0.0
 11
6896.488094586427
 21
9206.347187547711
 31
0.0
  0
LINE
  5
2C3EC
330
22F41
100
AcDbEntity
  8
寸法
 62
     0
 48
50.0
370
    -2
100
AcDbLine
 10
5639.56504613228
 20
9266.347187547712
 30
0.0
 11
6912.565046132293
 21
9266.347187547712
 31
0.0
  0
INSERT
  5
2C3ED
330
22F41
100
AcDbEntity
  8
寸法
 62
     0
 48
50.0
370
    -2
100
AcDbBlockReference
  2
_DOTSMALL
 10
5639.56504613228
 20
9266.347187547712
 30
0.0
 41
100.0
 42
100.0
 43
100.0
 50
180.0
  0
INSERT
  5
2C3EE
330
22F41
100
AcDbEntity
  8
寸法
 62
     0
 48
50.0
370
    -2
100
AcDbBlockReference
  2
_DOTSMALL
 10
6912.565046132293
 20
9266.347187547712
 30
0.0
 41
100.0
 42
100.0
 43
100.0
  0
MTEXT
  5
2C3EF
330
22F41
100
AcDbEntity
  8
寸法
 62
     7
 48
50.0
100
AcDbMText
 10
6323.513130640694
 20
9366.358998571334
 30
0.0
 40
120.0
 41
0.0
 71
     5
 72
     1
  1
\A1;1273
  7
STYLE1
 73
     1
 44
1.0
1001
ACAD
1000
MTEXTBEGIN
1070
    73
1070
     1
1070
    44
1040
1.0
1070
    74
1070
     0
1000
MTEXTEND
  0
POINT
  5
2C3F0
330
22F41
100
AcDbEntity
  8
DEFPOINTS
 62
     0
 48
50.0
100
AcDbPoint
 10
5719.29185483923
 20
9563.891688367375
 30
0.0
  0
POINT
  5
2C3F1
330
22F41
100
AcDbEntity
  8
DEFPOINTS
 62
     0
 48
50.0
100
AcDbPoint
 10
6992.291854839241
 20
9563.891688367368
 30
0.0
  0
POINT
  5
2C3F2
330
22F41
100
AcDbEntity
  8
DEFPOINTS
 62
     0
 48
50.0
100
AcDbPoint
 10
6912.565046132293
 20
9266.347187547712
 30
0.0
  0
ENDBLK
  5
22F4C
330
22F41
100
AcDbEntity
  8
0
 48
50.0
100
AcDbBlockEnd
  0
BLOCK
  5
22F59
330
22F4D
100
AcDbEntity
  8
0
 48
50.0
100
AcDbBlockBegin
  2
*D8
 70
     1
 10
0.0
 20
0.0
 30
0.0
  3
*D8
  1

  0
LINE
  5
2C3F3
330
22F4D
100
AcDbEntity
  8
寸法
 62
     0
 48
50.0
370
    -2
100
AcDbLine
 10
7040.79185483916
 20
7468.891688367309
 30
0.0
 11
7728.218200573572
 21
7468.891688367309
 31
0.0
  0
LINE
  5
2C3F4
330
22F4D
100
AcDbEntity
  8
寸法
 62
     0
 48
50.0
370
    -2
100
AcDbLine
 10
7040.79185483916
 20
7413.891688367312
 30
0.0
 11
7728.218200573572
 21
7413.891688367312
 31
0.0
  0
LINE
  5
2C3F5
330
22F4D
100
AcDbEntity
  8
寸法
 62
     0
 48
50.0
370
    -2
100
AcDbLine
 10
7668.218200573571
 20
7468.891688367309
 30
0.0
 11
7668.218200573571
 21
7568.891688367308
 31
0.0
  0
LINE
  5
2C3F6
330
22F4D
100
AcDbEntity
  8
寸法
 62
     0
 48
50.0
370
    -2
100
AcDbLine
 10
7668.218200573571
 20
7413.891688367312
 30
0.0
 11
7668.218200573571
 21
6927.54494008821
 31
0.0
  0
LINE
  5
2C3F7
330
22F4D
100
AcDbEntity
  8
寸法
 62
     0
 48
50.0
370
    -2
100
AcDbLine
 10
7668.218200573571
 20
7468.891688367309
 30
0.0
 11
7668.218200573571
 21
7413.891688367312
 31
0.0
  0
INSERT
  5
2C3F8
330
22F4D
100
AcDbEntity
  8
寸法
 62
     0
 48
50.0
370
    -2
100
AcDbBlockReference
  2
_DOTSMALL
 10
7668.218200573571
 20
7468.891688367309
 30
0.0
 41
100.0
 42
100.0
 43
100.0
 50
270.0
  0
INSERT
  5
2C3F9
330
22F4D
100
AcDbEntity
  8
寸法
 62
     0
 48
50.0
370
    -2
100
AcDbBlockReference
  2
_DOTSMALL
 10
7668.218200573571
 20
7413.891688367312
 30
0.0
 41
100.0
 42
100.0
 43
100.0
 50
90.0
  0
MTEXT
  5
2C3FA
330
22F4D
100
AcDbEntity
  8
寸法
 62
     7
 48
50.0
100
AcDbMText
 10
7568.21820057357
 20
7036.03022146245
 30
0.0
 40
120.0
 41
0.0
 71
     5
 72
     1
  1
\A1;55
  7
STYLE1
 11
0.0000000000000001
 21
1.0
 31
0.0
 73
     1
 44
1.0
1001
ACAD
1000
MTEXTBEGIN
1070
    73
1070
     1
1070
    44
1040
1.0
1070
    74
1070
     0
1000
MTEXTEND
  0
POINT
  5
2C3FB
330
22F4D
100
AcDbEntity
  8
DEFPOINTS
 62
     0
 48
50.0
100
AcDbPoint
 10
7020.79185483916
 20
7468.891688367309
 30
0.0
  0
POINT
  5
2C3FC
330
22F4D
100
AcDbEntity
  8
DEFPOINTS
 62
     0
 48
50.0
100
AcDbPoint
 10
7020.79185483916
 20
7413.891688367312
 30
0.0
  0
POINT
  5
2C3FD
330
22F4D
100
AcDbEntity
  8
DEFPOINTS
 62
     0
 48
50.0
100
AcDbPoint
 10
7668.218200573571
 20
7413.891688367312
 30
0.0
  0
ENDBLK
  5
22F5A
330
22F4D
100
AcDbEntity
  8
0
 48
50.0
100
AcDbBlockEnd
  0
BLOCK
  5
22F7F
330
22F73
100
AcDbEntity
  8
0
 48
50.0
100
AcDbBlockBegin
  2
*D9
 70
     1
 10
0.0
 20
0.0
 30
0.0
  3
*D9
  1

  0
LINE
  5
2C3FE
330
22F73
100
AcDbEntity
  8
寸法
 62
     0
 48
50.0
370
    -2
100
AcDbLine
 10
4390.791854839195
 20
10063.89168836727
 30
0.0
 11
4390.791854839195
 21
10319.69990799225
 31
0.0
  0
LINE
  5
2C3FF
330
22F73
100
AcDbEntity
  8
寸法
 62
     0
 48
50.0
370
    -2
100
AcDbLine
 10
4445.791854839231
 20
10063.89168836727
 30
0.0
 11
4445.791854839231
 21
10319.69990799225
 31
0.0
  0
LINE
  5
2C400
330
22F73
100
AcDbEntity
  8
寸法
 62
     0
 48
50.0
370
    -2
100
AcDbLine
 10
4445.791854839231
 20
10259.69990799225
 30
0.0
 11
4545.79185483923
 21
10259.69990799225
 31
0.0
  0
LINE
  5
2C401
330
22F73
100
AcDbEntity
  8
寸法
 62
     0
 48
50.0
370
    -2
100
AcDbLine
 10
4390.791854839195
 20
10259.69990799225
 30
0.0
 11
3973.821292090717
 21
10259.69990799225
 31
0.0
  0
LINE
  5
2C402
330
22F73
100
AcDbEntity
  8
寸法
 62
     0
 48
50.0
370
    -2
100
AcDbLine
 10
4445.791854839231
 20
10259.69990799225
 30
0.0
 11
4390.791854839195
 21
10259.69990799225
 31
0.0
  0
INSERT
  5
2C403
330
22F73
100
AcDbEntity
  8
寸法
 62
     0
 48
50.0
370
    -2
100
AcDbBlockReference
  2
_DOTSMALL
 10
4445.791854839231
 20
10259.69990799225
 30
0.0
 41
100.0
 42
100.0
 43
100.0
 50
180.0
  0
INSERT
  5
2C404
330
22F73
100
AcDbEntity
  8
寸法
 62
     0
 48
50.0
370
    -2
100
AcDbBlockReference
  2
_DOTSMALL
 10
4390.791854839195
 20
10259.69990799225
 30
0.0
 41
100.0
 42
100.0
 43
100.0
  0
MTEXT
  5
2C405
330
22F73
100
AcDbEntity
  8
寸法
 62
     7
 48
50.0
100
AcDbMText
 10
4082.306573464956
 20
10359.69990799225
 30
0.0
 40
120.0
 41
0.0
 71
     5
 72
     1
  1
\A1;55
  7
STYLE1
 73
     1
 44
1.0
1001
ACAD
1000
MTEXTBEGIN
1070
    73
1070
     1
1070
    44
1040
1.0
1070
    74
1070
     0
1000
MTEXTEND
  0
POINT
  5
2C406
330
22F73
100
AcDbEntity
  8
DEFPOINTS
 62
     0
 48
50.0
100
AcDbPoint
 10
4390.791854839195
 20
10043.89168836727
 30
0.0
  0
POINT
  5
2C407
330
22F73
100
AcDbEntity
  8
DEFPOINTS
 62
     0
 48
50.0
100
AcDbPoint
 10
4445.791854839231
 20
10043.89168836727
 30
0.0
  0
POINT
  5
2C408
330
22F73
100
AcDbEntity
  8
DEFPOINTS
 62
     0
 48
50.0
100
AcDbPoint
 10
4445.791854839231
 20
10259.69990799225
 30
0.0
  0
ENDBLK
  5
22F80
330
22F73
100
AcDbEntity
  8
0
 48
50.0
100
AcDbBlockEnd
  0
BLOCK
  5
22F8D
330
22F81
100
AcDbEntity
  8
0
 48
50.0
100
AcDbBlockBegin
  2
*D10
 70
     1
 10
0.0
 20
0.0
 30
0.0
  3
*D10
  1

  0
LINE
  5
2C409
330
22F81
100
AcDbEntity
  8
寸法
 62
     0
 48
50.0
370
    -2
100
AcDbLine
 10
7040.791854839231
 20
10043.89168836736
 30
0.0
 11
7728.218200573642
 21
10043.89168836736
 31
0.0
  0
LINE
  5
2C40A
330
22F81
100
AcDbEntity
  8
寸法
 62
     0
 48
50.0
370
    -2
100
AcDbLine
 10
7040.791854839231
 20
9988.891688367367
 30
0.0
 11
7728.218200573642
 21
9988.891688367367
 31
0.0
  0
LINE
  5
2C40B
330
22F81
100
AcDbEntity
  8
寸法
 62
     0
 48
50.0
370
    -2
100
AcDbLine
 10
7668.21820057364
 20
9988.891688367367
 30
0.0
 11
7668.21820057364
 21
9888.891688367367
 31
0.0
  0
LINE
  5
2C40C
330
22F81
100
AcDbEntity
  8
寸法
 62
     0
 48
50.0
370
    -2
100
AcDbLine
 10
7668.21820057364
 20
10043.89168836736
 30
0.0
 11
7668.218200573642
 21
10460.86225111584
 31
0.0
  0
LINE
  5
2C40D
330
22F81
100
AcDbEntity
  8
寸法
 62
     0
 48
50.0
370
    -2
100
AcDbLine
 10
7668.21820057364
 20
9988.891688367367
 30
0.0
 11
7668.21820057364
 21
10043.89168836736
 31
0.0
  0
INSERT
  5
2C40E
330
22F81
100
AcDbEntity
  8
寸法
 62
     0
 48
50.0
370
    -2
100
AcDbBlockReference
  2
_DOTSMALL
 10
7668.21820057364
 20
9988.891688367367
 30
0.0
 41
100.0
 42
100.0
 43
100.0
 50
90.0
  0
INSERT
  5
2C40F
330
22F81
100
AcDbEntity
  8
寸法
 62
     0
 48
50.0
370
    -2
100
AcDbBlockReference
  2
_DOTSMALL
 10
7668.21820057364
 20
10043.89168836736
 30
0.0
 41
100.0
 42
100.0
 43
100.0
 50
270.0
  0
MTEXT
  5
2C410
330
22F81
100
AcDbEntity
  8
寸法
 62
     7
 48
50.0
100
AcDbMText
 10
7568.218200573641
 20
10352.3769697416
 30
0.0
 40
120.0
 41
0.0
 71
     5
 72
     1
  1
\A1;55
  7
STYLE1
 11
0.0000000000000001
 21
1.0
 31
0.0
 73
     1
 44
1.0
1001
ACAD
1000
MTEXTBEGIN
1070
    73
1070
     1
1070
    44
1040
1.0
1070
    74
1070
     0
1000
MTEXTEND
  0
POINT
  5
2C411
330
22F81
100
AcDbEntity
  8
DEFPOINTS
 62
     0
 48
50.0
100
AcDbPoint
 10
7020.791854839231
 20
10043.89168836736
 30
0.0
  0
POINT
  5
2C412
330
22F81
100
AcDbEntity
  8
DEFPOINTS
 62
     0
 48
50.0
100
AcDbPoint
 10
7020.791854839231
 20
9988.891688367367
 30
0.0
  0
POINT
  5
2C413
330
22F81
100
AcDbEntity
  8
DEFPOINTS
 62
     0
 48
50.0
100
AcDbPoint
 10
7668.21820057364
 20
9988.891688367367
 30
0.0
  0
ENDBLK
  5
22F8E
330
22F81
100
AcDbEntity
  8
0
 48
50.0
100
AcDbBlockEnd
  0
BLOCK
  5
22F9B
330
22F8F
100
AcDbEntity
  8
0
 48
50.0
100
AcDbBlockBegin
  2
*D11
 70
     1
 10
0.0
 20
0.0
 30
0.0
  3
*D11
  1

  0
LINE
  5
2C414
330
22F8F
100
AcDbEntity
  8
寸法
 62
     0
 48
50.0
370
    -2
100
AcDbLine
 10
6965.791854839231
 20
10063.89168836736
 30
0.0
 11
6965.791854839231
 21
10319.69990799235
 31
0.0
  0
LINE
  5
2C415
330
22F8F
100
AcDbEntity
  8
寸法
 62
     0
 48
50.0
370
    -2
100
AcDbLine
 10
7020.791854839231
 20
10063.89168836736
 30
0.0
 11
7020.791854839231
 21
10319.69990799235
 31
0.0
  0
LINE
  5
2C416
330
22F8F
100
AcDbEntity
  8
寸法
 62
     0
 48
50.0
370
    -2
100
AcDbLine
 10
6965.791854839231
 20
10259.69990799235
 30
0.0
 11
6865.791854839232
 21
10259.69990799235
 31
0.0
  0
LINE
  5
2C417
330
22F8F
100
AcDbEntity
  8
寸法
 62
     0
 48
50.0
370
    -2
100
AcDbLine
 10
7020.791854839231
 20
10259.69990799235
 30
0.0
 11
7437.762417587709
 21
10259.69990799235
 31
0.0
  0
LINE
  5
2C418
330
22F8F
100
AcDbEntity
  8
寸法
 62
     0
 48
50.0
370
    -2
100
AcDbLine
 10
6965.791854839231
 20
10259.69990799235
 30
0.0
 11
7020.791854839231
 21
10259.69990799235
 31
0.0
  0
INSERT
  5
2C419
330
22F8F
100
AcDbEntity
  8
寸法
 62
     0
 48
50.0
370
    -2
100
AcDbBlockReference
  2
_DOTSMALL
 10
6965.791854839231
 20
10259.69990799235
 30
0.0
 41
100.0
 42
100.0
 43
100.0
  0
INSERT
  5
2C41A
330
22F8F
100
AcDbEntity
  8
寸法
 62
     0
 48
50.0
370
    -2
100
AcDbBlockReference
  2
_DOTSMALL
 10
7020.791854839231
 20
10259.69990799235
 30
0.0
 41
100.0
 42
100.0
 43
100.0
 50
180.0
  0
MTEXT
  5
2C41B
330
22F8F
100
AcDbEntity
  8
寸法
 62
     7
 48
50.0
100
AcDbMText
 10
7329.27713621347
 20
10359.69990799235
 30
0.0
 40
120.0
 41
0.0
 71
     5
 72
     1
  1
\A1;55
  7
STYLE1
 73
     1
 44
1.0
1001
ACAD
1000
MTEXTBEGIN
1070
    73
1070
     1
1070
    44
1040
1.0
1070
    74
1070
     0
1000
MTEXTEND
  0
POINT
  5
2C41C
330
22F8F
100
AcDbEntity
  8
DEFPOINTS
 62
     0
 48
50.0
100
AcDbPoint
 10
6965.791854839231
 20
10043.89168836736
 30
0.0
  0
POINT
  5
2C41D
330
22F8F
100
AcDbEntity
  8
DEFPOINTS
 62
     0
 48
50.0
100
AcDbPoint
 10
7020.791854839231
 20
10043.89168836736
 30
0.0
  0
POINT
  5
2C41E
330
22F8F
100
AcDbEntity
  8
DEFPOINTS
 62
     0
 48
50.0
100
AcDbPoint
 10
7020.791854839231
 20
10259.69990799235
 30
0.0
  0
ENDBLK
  5
22F9C
330
22F8F
100
AcDbEntity
  8
0
 48
50.0
100
AcDbBlockEnd
  0
BLOCK
  5
22FA7
330
22F9D
100
AcDbEntity
  8
0
 48
50.0
100
AcDbBlockBegin
  2
*D12
 70
     1
 10
0.0
 20
0.0
 30
0.0
  3
*D12
  1

  0
LINE
  5
2C41F
330
22F9D
100
AcDbEntity
  8
寸法
 62
     0
 48
50.0
370
    -2
100
AcDbLine
 10
4445.791854839231
 20
10063.89168836727
 30
0.0
 11
4445.791854839231
 21
10319.69990799236
 31
0.0
  0
LINE
  5
2C420
330
22F9D
100
AcDbEntity
  8
寸法
 62
     0
 48
50.0
370
    -2
100
AcDbLine
 10
6965.791854839231
 20
10063.89168836736
 30
0.0
 11
6965.791854839231
 21
10319.69990799236
 31
0.0
  0
LINE
  5
2C421
330
22F9D
100
AcDbEntity
  8
寸法
 62
     0
 48
50.0
370
    -2
100
AcDbLine
 10
4445.791854839231
 20
10259.69990799236
 30
0.0
 11
6965.791854839231
 21
10259.69990799236
 31
0.0
  0
INSERT
  5
2C422
330
22F9D
100
AcDbEntity
  8
寸法
 62
     0
 48
50.0
370
    -2
100
AcDbBlockReference
  2
_DOTSMALL
 10
4445.791854839231
 20
10259.69990799236
 30
0.0
 41
100.0
 42
100.0
 43
100.0
 50
180.0
  0
INSERT
  5
2C423
330
22F9D
100
AcDbEntity
  8
寸法
 62
     0
 48
50.0
370
    -2
100
AcDbBlockReference
  2
_DOTSMALL
 10
6965.791854839231
 20
10259.69990799236
 30
0.0
 41
100.0
 42
100.0
 43
100.0
  0
MTEXT
  5
2C424
330
22F9D
100
AcDbEntity
  8
寸法
 62
     7
 48
50.0
100
AcDbMText
 10
5705.79185483923
 20
10359.71171901599
 30
0.0
 40
120.0
 41
0.0
 71
     5
 72
     1
  1
\A1;6X420=2520
  7
STYLE1
 73
     1
 44
1.0
1001
ACAD
1000
MTEXTBEGIN
1070
    73
1070
     1
1070
    44
1040
1.0
1070
    74
1070
     0
1000
MTEXTEND
  0
POINT
  5
2C425
330
22F9D
100
AcDbEntity
  8
DEFPOINTS
 62
     0
 48
50.0
100
AcDbPoint
 10
4445.791854839231
 20
10043.89168836727
 30
0.0
  0
POINT
  5
2C426
330
22F9D
100
AcDbEntity
  8
DEFPOINTS
 62
     0
 48
50.0
100
AcDbPoint
 10
6965.791854839231
 20
10043.89168836736
 30
0.0
  0
POINT
  5
2C427
330
22F9D
100
AcDbEntity
  8
DEFPOINTS
 62
     0
 48
50.0
100
AcDbPoint
 10
6965.791854839231
 20
10259.69990799236
 30
0.0
  0
ENDBLK
  5
22FA8
330
22F9D
100
AcDbEntity
  8
0
 48
50.0
100
AcDbBlockEnd
  0
BLOCK
  5
22FB3
330
22FA9
100
AcDbEntity
  8
0
 48
50.0
100
AcDbBlockBegin
  2
*D13
 70
     1
 10
0.0
 20
0.0
 30
0.0
  3
*D13
  1

  0
LINE
  5
2C428
330
22FA9
100
AcDbEntity
  8
寸法
 62
     0
 48
50.0
370
    -2
100
AcDbLine
 10
7040.791854839229
 20
10043.89168836736
 30
0.0
 11
8026.920452883206
 21
10043.89168836736
 31
0.0
  0
LINE
  5
2C429
330
22FA9
100
AcDbEntity
  8
寸法
 62
     0
 48
50.0
370
    -2
100
AcDbLine
 10
7040.79185483916
 20
7413.891688367312
 30
0.0
 11
8026.920452883206
 21
7413.891688367312
 31
0.0
  0
LINE
  5
2C42A
330
22FA9
100
AcDbEntity
  8
寸法
 62
     0
 48
50.0
370
    -2
100
AcDbLine
 10
7966.920452883207
 20
10043.89168836736
 30
0.0
 11
7966.920452883207
 21
7413.891688367312
 31
0.0
  0
INSERT
  5
2C42B
330
22FA9
100
AcDbEntity
  8
寸法
 62
     0
 48
50.0
370
    -2
100
AcDbBlockReference
  2
_DOTSMALL
 10
7966.920452883207
 20
10043.89168836736
 30
0.0
 41
100.0
 42
100.0
 43
100.0
 50
90.0
  0
INSERT
  5
2C42C
330
22FA9
100
AcDbEntity
  8
寸法
 62
     0
 48
50.0
370
    -2
100
AcDbBlockReference
  2
_DOTSMALL
 10
7966.920452883207
 20
7413.891688367312
 30
0.0
 41
100.0
 42
100.0
 43
100.0
 50
270.0
  0
MTEXT
  5
2C42D
330
22FA9
100
AcDbEntity
  8
寸法
 62
     7
 48
50.0
100
AcDbMText
 10
7866.908641859584
 20
8726.875716299984
 30
0.0
 40
120.0
 41
0.0
 71
     5
 72
     1
  1
\A1;2630
  7
STYLE1
 11
0.0000000000000001
 21
1.0
 31
0.0
 73
     1
 44
1.0
1001
ACAD
1000
MTEXTBEGIN
1070
    73
1070
     1
1070
    44
1040
1.0
1070
    74
1070
     0
1000
MTEXTEND
  0
POINT
  5
2C42E
330
22FA9
100
AcDbEntity
  8
DEFPOINTS
 62
     0
 48
50.0
100
AcDbPoint
 10
7020.791854839228
 20
10043.89168836736
 30
0.0
  0
POINT
  5
2C42F
330
22FA9
100
AcDbEntity
  8
DEFPOINTS
 62
     0
 48
50.0
100
AcDbPoint
 10
7020.79185483916
 20
7413.891688367312
 30
0.0
  0
POINT
  5
2C430
330
22FA9
100
AcDbEntity
  8
DEFPOINTS
 62
     0
 48
50.0
100
AcDbPoint
 10
7966.920452883207
 20
7413.891688367312
 30
0.0
  0
ENDBLK
  5
22FB4
330
22FA9
100
AcDbEntity
  8
0
 48
50.0
100
AcDbBlockEnd
  0
BLOCK
  5
22FBF
330
22FB5
100
AcDbEntity
  8
0
 48
50.0
100
AcDbBlockBegin
  2
*D14
 70
     1
 10
0.0
 20
0.0
 30
0.0
  3
*D14
  1

  0
LINE
  5
2C3CF
330
22FB5
100
AcDbEntity
  8
寸法
 62
     0
 48
50.0
370
    -2
100
AcDbLine
 10
4413.932870990609
 20
9543.891688367265
 30
0.0
 11
4323.488094586442
 21
9206.347187547711
 31
0.0
  0
LINE
  5
2C3D0
330
22FB5
100
AcDbEntity
  8
寸法
 62
     0
 48
50.0
370
    -2
100
AcDbLine
 10
5686.93287099062
 20
9543.891688367258
 30
0.0
 11
5596.488094586455
 21
9206.347187547711
 31
0.0
  0
LINE
  5
2C3D1
330
22FB5
100
AcDbEntity
  8
寸法
 62
     0
 48
50.0
370
    -2
100
AcDbLine
 10
4339.565046132309
 20
9266.347187547712
 30
0.0
 11
5612.565046132322
 21
9266.347187547712
 31
0.0
  0
INSERT
  5
2C3D2
330
22FB5
100
AcDbEntity
  8
寸法
 62
     0
 48
50.0
370
    -2
100
AcDbBlockReference
  2
_DOTSMALL
 10
4339.565046132309
 20
9266.347187547712
 30
0.0
 41
100.0
 42
100.0
 43
100.0
 50
180.0
  0
INSERT
  5
2C3D3
330
22FB5
100
AcDbEntity
  8
寸法
 62
     0
 48
50.0
370
    -2
100
AcDbBlockReference
  2
_DOTSMALL
 10
5612.565046132322
 20
9266.347187547712
 30
0.0
 41
100.0
 42
100.0
 43
100.0
  0
MTEXT
  5
2C3D4
330
22FB5
100
AcDbEntity
  8
寸法
 62
     7
 48
50.0
100
AcDbMText
 10
4995.2819976678
 20
9366.358998571334
 30
0.0
 40
120.0
 41
0.0
 71
     5
 72
     1
  1
\A1;1273
  7
STYLE1
 73
     1
 44
1.0
1001
ACAD
1000
MTEXTBEGIN
1070
    73
1070
     1
1070
    44
1040
1.0
1070
    74
1070
     0
1000
MTEXTEND
  0
POINT
  5
2C3D5
330
22FB5
100
AcDbEntity
  8
DEFPOINTS
 62
     0
 48
50.0
100
AcDbPoint
 10
4419.29185483923
 20
9563.891688367265
 30
0.0
  0
POINT
  5
2C3D6
330
22FB5
100
AcDbEntity
  8
DEFPOINTS
 62
     0
 48
50.0
100
AcDbPoint
 10
5692.291854839242
 20
9563.891688367258
 30
0.0
  0
POINT
  5
2C3D7
330
22FB5
100
AcDbEntity
  8
DEFPOINTS
 62
     0
 48
50.0
100
AcDbPoint
 10
5612.565046132322
 20
9266.347187547712
 30
0.0
  0
ENDBLK
  5
22FC0
330
22FB5
100
AcDbEntity
  8
0
 48
50.0
100
AcDbBlockEnd
  0
BLOCK
  5
25C30
330
25C26
100
AcDbEntity
  8
0
 48
50.0
100
AcDbBlockBegin
  2
*D15
 70
     1
 10
0.0
 20
0.0
 30
0.0
  3
*D15
  1

  0
LINE
  5
2C3BD
330
25C26
100
AcDbEntity
  8
寸法
 62
     0
 48
50.0
370
    -2
100
AcDbLine
 10
4390.791854839178
 20
7393.891688367078
 30
0.0
 11
4390.791854839178
 21
6589.755719013552
 31
0.0
  0
LINE
  5
2C3BE
330
25C26
100
AcDbEntity
  8
寸法
 62
     0
 48
50.0
370
    -2
100
AcDbLine
 10
7020.79185483916
 20
7393.891688367206
 30
0.0
 11
7020.79185483916
 21
6589.755719013552
 31
0.0
  0
LINE
  5
2C3BF
330
25C26
100
AcDbEntity
  8
寸法
 62
     0
 48
50.0
370
    -2
100
AcDbLine
 10
4390.791854839178
 20
6649.755719013552
 30
0.0
 11
7020.79185483916
 21
6649.755719013552
 31
0.0
  0
INSERT
  5
2C3C0
330
25C26
100
AcDbEntity
  8
寸法
 62
     0
 48
50.0
370
    -2
100
AcDbBlockReference
  2
_DOTSMALL
 10
4390.791854839178
 20
6649.755719013552
 30
0.0
 41
100.0
 42
100.0
 43
100.0
 50
180.0
  0
INSERT
  5
2C3C1
330
25C26
100
AcDbEntity
  8
寸法
 62
     0
 48
50.0
370
    -2
100
AcDbBlockReference
  2
_DOTSMALL
 10
7020.79185483916
 20
6649.755719013552
 30
0.0
 41
100.0
 42
100.0
 43
100.0
  0
MTEXT
  5
2C3C2
330
25C26
100
AcDbEntity
  8
寸法
 62
     7
 48
50.0
100
AcDbMText
 10
5705.791854839169
 20
6749.767530037174
 30
0.0
 40
120.0
 41
0.0
 71
     5
 72
     1
  1
\A1;2630
  7
STYLE1
 73
     1
 44
1.0
1001
ACAD
1000
MTEXTBEGIN
1070
    73
1070
     1
1070
    44
1040
1.0
1070
    74
1070
     0
1000
MTEXTEND
  0
POINT
  5
2C3C3
330
25C26
100
AcDbEntity
  8
DEFPOINTS
 62
     0
 48
50.0
100
AcDbPoint
 10
4390.791854839178
 20
7413.891688367079
 30
0.0
  0
POINT
  5
2C3C4
330
25C26
100
AcDbEntity
  8
DEFPOINTS
 62
     0
 48
50.0
100
AcDbPoint
 10
7020.79185483916
 20
7413.891688367207
 30
0.0
  0
POINT
  5
2C3C5
330
25C26
100
AcDbEntity
  8
DEFPOINTS
 62
     0
 48
50.0
100
AcDbPoint
 10
7020.79185483916
 20
6649.755719013552
 30
0.0
  0
ENDBLK
  5
25C31
330
25C26
100
AcDbEntity
  8
0
 48
50.0
100
AcDbBlockEnd
  0
BLOCK
  5
25C3C
330
25C32
100
AcDbEntity
  8
0
 48
50.0
100
AcDbBlockBegin
  2
*D16
 70
     1
 10
0.0
 20
0.0
 30
0.0
  3
*D16
  1

  0
LINE
  5
2C3C6
330
25C32
100
AcDbEntity
  8
寸法
 62
     0
 48
50.0
370
    -2
100
AcDbLine
 10
6210.291854839169
 20
7393.891688367283
 30
0.0
 11
6210.291854839169
 21
6794.332282598581
 31
0.0
  0
LINE
  5
2C3C7
330
25C32
100
AcDbEntity
  8
寸法
 62
     0
 48
50.0
370
    -2
100
AcDbLine
 10
5113.291854839169
 20
7393.891688367173
 30
0.0
 11
5113.291854839169
 21
6794.332282598581
 31
0.0
  0
LINE
  5
2C3C8
330
25C32
100
AcDbEntity
  8
寸法
 62
     0
 48
50.0
370
    -2
100
AcDbLine
 10
6210.291854839169
 20
6854.332282598581
 30
0.0
 11
5113.291854839169
 21
6854.332282598581
 31
0.0
  0
INSERT
  5
2C3C9
330
25C32
100
AcDbEntity
  8
寸法
 62
     0
 48
50.0
370
    -2
100
AcDbBlockReference
  2
_DOTSMALL
 10
6210.291854839169
 20
6854.332282598581
 30
0.0
 41
100.0
 42
100.0
 43
100.0
  0
INSERT
  5
2C3CA
330
25C32
100
AcDbEntity
  8
寸法
 62
     0
 48
50.0
370
    -2
100
AcDbBlockReference
  2
_DOTSMALL
 10
5113.291854839169
 20
6854.332282598581
 30
0.0
 41
100.0
 42
100.0
 43
100.0
 50
180.0
  0
MTEXT
  5
2C3CB
330
25C32
100
AcDbEntity
  8
寸法
 62
     7
 48
50.0
100
AcDbMText
 10
5705.791854839169
 20
7054.332282598581
 30
0.0
 40
120.0
 41
0.0
 71
     5
 72
     1
  1
\A1;有効開口部間口\P1097
  7
STYLE1
 73
     1
 44
1.0
1001
ACAD
1000
MTEXTBEGIN
1070
    73
1070
     1
1070
    44
1040
1.0
1070
    74
1070
     0
1000
MTEXTEND
  0
POINT
  5
2C3CC
330
25C32
100
AcDbEntity
  8
DEFPOINTS
 62
     0
 48
50.0
100
AcDbPoint
 10
6210.291854839169
 20
7413.891688367283
 30
0.0
  0
POINT
  5
2C3CD
330
25C32
100
AcDbEntity
  8
DEFPOINTS
 62
     0
 48
50.0
100
AcDbPoint
 10
5113.291854839169
 20
7413.891688367172
 30
0.0
  0
POINT
  5
2C3CE
330
25C32
100
AcDbEntity
  8
DEFPOINTS
 62
     0
 48
50.0
100
AcDbPoint
 10
5113.291854839169
 20
6854.332282598581
 30
0.0
  0
ENDBLK
  5
25C3D
330
25C32
100
AcDbEntity
  8
0
 48
50.0
100
AcDbBlockEnd
  0
BLOCK
  5
29924
330
29919
100
AcDbEntity
  8
0
 48
50.0
100
AcDbBlockBegin
  2
*D17
 70
     1
 10
0.0
 20
0.0
 30
0.0
  3
*D17
  1

  0
LINE
  5
2C38B
330
29919
100
AcDbEntity
  8
寸法
 62
     0
 48
50.0
370
    -2
100
AcDbLine
 10
9045.02801119572
 20
4845.282319696703
 30
0.0
 11
8429.093572090446
 21
4862.996469971033
 31
0.0
  0
LINE
  5
2C38C
330
29919
100
AcDbEntity
  8
寸法
 62
     0
 48
50.0
370
    -2
100
AcDbLine
 10
9040.974555639092
 20
4704.340595930992
 30
0.0
 11
8425.04011653382
 21
4722.054746205322
 31
0.0
  0
LINE
  5
2C38D
330
29919
100
AcDbEntity
  8
寸法
 62
     0
 48
50.0
370
    -2
100
AcDbLine
 10
8485.01531813625
 20
4720.329871500374
 30
0.0
 11
8489.068773692876
 21
4861.271595266085
 31
0.0
  0
LINE
  5
2C38E
330
29919
100
AcDbEntity
  8
寸法
 62
     0
 48
50.0
370
    -2
100
AcDbLine
 10
8489.068773692876
 20
4861.271595266085
 30
0.0
 11
8499.41802192256
 21
5221.122804880672
 31
0.0
  0
INSERT
  5
2C38F
330
29919
100
AcDbEntity
  8
寸法
 62
     0
 48
50.0
370
    -2
100
AcDbBlockReference
  2
_DOTSMALL
 10
8485.01531813625
 20
4720.329871500374
 30
0.0
 41
100.0
 42
100.0
 43
100.0
 50
268.3526390256378
  0
INSERT
  5
2C390
330
29919
100
AcDbEntity
  8
寸法
 62
     0
 48
50.0
370
    -2
100
AcDbBlockReference
  2
_DOTSMALL
 10
8489.068773692876
 20
4861.271595266085
 30
0.0
 41
100.0
 42
100.0
 43
100.0
 50
88.35263902563776
  0
MTEXT
  5
2C391
330
29919
100
AcDbEntity
  8
寸法
 62
     7
 48
50.0
100
AcDbMText
 10
8395.722124057789
 20
5094.051325916985
 30
0.0
 40
120.0
 41
0.0
 71
     5
 72
     1
  1
\A1;141
  7
STYLE1
 11
0.0287479117491237
 21
0.9995866933738488
 31
0.0
 73
     1
 44
1.0
1001
ACAD
1000
MTEXTBEGIN
1070
    73
1070
     1
1070
    44
1040
1.0
1070
    74
1070
     0
1000
MTEXTEND
  0
POINT
  5
2C392
330
29919
100
AcDbEntity
  8
DEFPOINTS
 62
     0
 48
50.0
100
AcDbPoint
 10
9065.019745063196
 20
4844.707361461721
 30
0.0
  0
POINT
  5
2C393
330
29919
100
AcDbEntity
  8
DEFPOINTS
 62
     0
 48
50.0
100
AcDbPoint
 10
9060.966289506568
 20
4703.765637696009
 30
0.0
  0
POINT
  5
2C394
330
29919
100
AcDbEntity
  8
DEFPOINTS
 62
     0
 48
50.0
100
AcDbPoint
 10
8485.01531813625
 20
4720.329871500374
 30
0.0
  0
ENDBLK
  5
29925
330
29919
100
AcDbEntity
  8
0
 48
50.0
100
AcDbBlockEnd
  0
BLOCK
  5
29931
330
29926
100
AcDbEntity
  8
0
 48
50.0
100
AcDbBlockBegin
  2
*D18
 70
     1
 10
0.0
 20
0.0
 30
0.0
  3
*D18
  1

  0
LINE
  5
2C381
330
29926
100
AcDbEntity
  8
寸法
 62
     0
 48
50.0
370
    -2
100
AcDbLine
 10
11735.62372490462
 20
4812.795292238696
 30
0.0
 11
11735.62372490462
 21
5304.642066206348
 31
0.0
  0
LINE
  5
2C382
330
29926
100
AcDbEntity
  8
寸法
 62
     0
 48
50.0
370
    -2
100
AcDbLine
 10
11815.62372490462
 20
4810.984612627044
 30
0.0
 11
11815.62372490462
 21
5304.642066206348
 31
0.0
  0
LINE
  5
2C383
330
29926
100
AcDbEntity
  8
寸法
 62
     0
 48
50.0
370
    -2
100
AcDbLine
 10
11735.62372490462
 20
5244.642066206347
 30
0.0
 11
11815.62372490462
 21
5244.642066206347
 31
0.0
  0
LINE
  5
2C384
330
29926
100
AcDbEntity
  8
寸法
 62
     0
 48
50.0
370
    -2
100
AcDbLine
 10
11815.62372490462
 20
5244.642066206347
 30
0.0
 11
12127.71821309359
 21
5244.642066206347
 31
0.0
  0
INSERT
  5
2C385
330
29926
100
AcDbEntity
  8
寸法
 62
     0
 48
50.0
370
    -2
100
AcDbBlockReference
  2
_DOTSMALL
 10
11735.62372490462
 20
5244.642066206347
 30
0.0
 41
100.0
 42
100.0
 43
100.0
 50
180.0
  0
INSERT
  5
2C386
330
29926
100
AcDbEntity
  8
寸法
 62
     0
 48
50.0
370
    -2
100
AcDbBlockReference
  2
_DOTSMALL
 10
11815.62372490462
 20
5244.642066206347
 30
0.0
 41
100.0
 42
100.0
 43
100.0
  0
MTEXT
  5
2C387
330
29926
100
AcDbEntity
  8
寸法
 62
     7
 48
50.0
100
AcDbMText
 10
12021.6709689991
 20
5344.642066206347
 30
0.0
 40
120.0
 41
0.0
 71
     5
 72
     1
  1
\A1;80
  7
STYLE1
 73
     1
 44
1.0
1001
ACAD
1000
MTEXTBEGIN
1070
    73
1070
     1
1070
    44
1040
1.0
1070
    74
1070
     0
1000
MTEXTEND
  0
POINT
  5
2C388
330
29926
100
AcDbEntity
  8
DEFPOINTS
 62
     0
 48
50.0
100
AcDbPoint
 10
11735.62372490462
 20
4792.795292238696
 30
0.0
  0
POINT
  5
2C389
330
29926
100
AcDbEntity
  8
DEFPOINTS
 62
     0
 48
50.0
100
AcDbPoint
 10
11815.62372490462
 20
4790.984612627045
 30
0.0
  0
POINT
  5
2C38A
330
29926
100
AcDbEntity
  8
DEFPOINTS
 62
     0
 48
50.0
100
AcDbPoint
 10
11815.62372490462
 20
5244.642066206347
 30
0.0
  0
ENDBLK
  5
29932
330
29926
100
AcDbEntity
  8
0
 48
50.0
100
AcDbBlockEnd
  0
BLOCK
  5
2993D
330
29933
100
AcDbEntity
  8
0
 48
50.0
100
AcDbBlockBegin
  2
*D19
 70
     1
 10
0.0
 20
0.0
 30
0.0
  3
*D19
  1

  0
LINE
  5
2C378
330
29933
100
AcDbEntity
  8
寸法
 62
     0
 48
50.0
370
    -2
100
AcDbLine
 10
11815.62372490462
 20
4810.984612627044
 30
0.0
 11
11815.62372490462
 21
5524.852752937964
 31
0.0
  0
LINE
  5
2C379
330
29933
100
AcDbEntity
  8
寸法
 62
     0
 48
50.0
370
    -2
100
AcDbLine
 10
9045.623724904617
 20
4865.984612627046
 30
0.0
 11
9045.623724904617
 21
5524.852752937964
 31
0.0
  0
LINE
  5
2C37A
330
29933
100
AcDbEntity
  8
寸法
 62
     0
 48
50.0
370
    -2
100
AcDbLine
 10
11815.62372490462
 20
5464.852752937964
 30
0.0
 11
9045.623724904617
 21
5464.852752937964
 31
0.0
  0
INSERT
  5
2C37B
330
29933
100
AcDbEntity
  8
寸法
 62
     0
 48
50.0
370
    -2
100
AcDbBlockReference
  2
_DOTSMALL
 10
11815.62372490462
 20
5464.852752937964
 30
0.0
 41
100.0
 42
100.0
 43
100.0
  0
INSERT
  5
2C37C
330
29933
100
AcDbEntity
  8
寸法
 62
     0
 48
50.0
370
    -2
100
AcDbBlockReference
  2
_DOTSMALL
 10
9045.623724904617
 20
5464.852752937964
 30
0.0
 41
100.0
 42
100.0
 43
100.0
 50
180.0
  0
MTEXT
  5
2C37D
330
29933
100
AcDbEntity
  8
寸法
 62
     7
 48
50.0
100
AcDbMText
 10
10448.98264979199
 20
5564.864563961586
 30
0.0
 40
120.0
 41
0.0
 71
     5
 72
     1
  1
\A1;2770
  7
STYLE1
 73
     1
 44
1.0
1001
ACAD
1000
MTEXTBEGIN
1070
    73
1070
     1
1070
    44
1040
1.0
1070
    74
1070
     0
1000
MTEXTEND
  0
POINT
  5
2C37E
330
29933
100
AcDbEntity
  8
DEFPOINTS
 62
     0
 48
50.0
100
AcDbPoint
 10
11815.62372490462
 20
4790.984612627045
 30
0.0
  0
POINT
  5
2C37F
330
29933
100
AcDbEntity
  8
DEFPOINTS
 62
     0
 48
50.0
100
AcDbPoint
 10
9045.623724904617
 20
4845.984612627047
 30
0.0
  0
POINT
  5
2C380
330
29933
100
AcDbEntity
  8
DEFPOINTS
 62
     0
 48
50.0
100
AcDbPoint
 10
9045.623724904617
 20
5464.852752937964
 30
0.0
  0
ENDBLK
  5
2993E
330
29933
100
AcDbEntity
  8
0
 48
50.0
100
AcDbBlockEnd
  0
BLOCK
  5
2994B
330
2993F
100
AcDbEntity
  8
0
 48
50.0
100
AcDbBlockBegin
  2
*D20
 70
     1
 10
0.0
 20
0.0
 30
0.0
  3
*D20
  1

  0
LINE
  5
2C36D
330
2993F
100
AcDbEntity
  8
寸法
 62
     0
 48
50.0
370
    -2
100
AcDbLine
 10
9105.623724904617
 20
4861.986230750019
 30
0.0
 11
9105.623724904617
 21
5304.642066206347
 31
0.0
  0
LINE
  5
2C36E
330
2993F
100
AcDbEntity
  8
寸法
 62
     0
 48
50.0
370
    -2
100
AcDbLine
 10
9045.623724904617
 20
4865.984612627046
 30
0.0
 11
9045.623724904617
 21
5304.642066206347
 31
0.0
  0
LINE
  5
2C36F
330
2993F
100
AcDbEntity
  8
寸法
 62
     0
 48
50.0
370
    -2
100
AcDbLine
 10
9105.623724904617
 20
5244.642066206346
 30
0.0
 11
9205.623724904617
 21
5244.642066206346
 31
0.0
  0
LINE
  5
2C370
330
2993F
100
AcDbEntity
  8
寸法
 62
     0
 48
50.0
370
    -2
100
AcDbLine
 10
9045.623724904617
 20
5244.642066206346
 30
0.0
 11
8626.348134353436
 21
5244.642066206346
 31
0.0
  0
LINE
  5
2C371
330
2993F
100
AcDbEntity
  8
寸法
 62
     0
 48
50.0
370
    -2
100
AcDbLine
 10
9105.623724904617
 20
5244.642066206346
 30
0.0
 11
9045.623724904617
 21
5244.642066206346
 31
0.0
  0
INSERT
  5
2C372
330
2993F
100
AcDbEntity
  8
寸法
 62
     0
 48
50.0
370
    -2
100
AcDbBlockReference
  2
_DOTSMALL
 10
9105.623724904617
 20
5244.642066206346
 30
0.0
 41
100.0
 42
100.0
 43
100.0
 50
180.0
  0
INSERT
  5
2C373
330
2993F
100
AcDbEntity
  8
寸法
 62
     0
 48
50.0
370
    -2
100
AcDbBlockReference
  2
_DOTSMALL
 10
9045.623724904617
 20
5244.642066206346
 30
0.0
 41
100.0
 42
100.0
 43
100.0
  0
MTEXT
  5
2C374
330
2993F
100
AcDbEntity
  8
寸法
 62
     7
 48
50.0
100
AcDbMText
 10
8735.985929629027
 20
5344.642066206347
 30
0.0
 40
120.0
 41
0.0
 71
     5
 72
     1
  1
\A1;60
  7
STYLE1
 73
     1
 44
1.0
1001
ACAD
1000
MTEXTBEGIN
1070
    73
1070
     1
1070
    44
1040
1.0
1070
    74
1070
     0
1000
MTEXTEND
  0
POINT
  5
2C375
330
2993F
100
AcDbEntity
  8
DEFPOINTS
 62
     0
 48
50.0
100
AcDbPoint
 10
9105.623724904617
 20
4841.986230750019
 30
0.0
  0
POINT
  5
2C376
330
2993F
100
AcDbEntity
  8
DEFPOINTS
 62
     0
 48
50.0
100
AcDbPoint
 10
9045.623724904617
 20
4845.984612627047
 30
0.0
  0
POINT
  5
2C377
330
2993F
100
AcDbEntity
  8
DEFPOINTS
 62
     0
 48
50.0
100
AcDbPoint
 10
9045.623724904617
 20
5244.642066206346
 30
0.0
  0
ENDBLK
  5
2994C
330
2993F
100
AcDbEntity
  8
0
 48
50.0
100
AcDbBlockEnd
  0
BLOCK
  5
29957
330
2994D
100
AcDbEntity
  8
0
 48
50.0
100
AcDbBlockBegin
  2
*D21
 70
     1
 10
0.0
 20
0.0
 30
0.0
  3
*D21
  1

  0
LINE
  5
2C364
330
2994D
100
AcDbEntity
  8
寸法
 62
     0
 48
50.0
370
    -2
100
AcDbLine
 10
11735.62372490462
 20
4812.795292238696
 30
0.0
 11
11735.62372490462
 21
5304.642066206348
 31
0.0
  0
LINE
  5
2C365
330
2994D
100
AcDbEntity
  8
寸法
 62
     0
 48
50.0
370
    -2
100
AcDbLine
 10
9105.623724904617
 20
4861.986230750019
 30
0.0
 11
9105.623724904617
 21
5304.642066206348
 31
0.0
  0
LINE
  5
2C366
330
2994D
100
AcDbEntity
  8
寸法
 62
     0
 48
50.0
370
    -2
100
AcDbLine
 10
11735.62372490462
 20
5244.642066206347
 30
0.0
 11
9105.623724904617
 21
5244.642066206347
 31
0.0
  0
INSERT
  5
2C367
330
2994D
100
AcDbEntity
  8
寸法
 62
     0
 48
50.0
370
    -2
100
AcDbBlockReference
  2
_DOTSMALL
 10
11735.62372490462
 20
5244.642066206347
 30
0.0
 41
100.0
 42
100.0
 43
100.0
  0
INSERT
  5
2C368
330
2994D
100
AcDbEntity
  8
寸法
 62
     0
 48
50.0
370
    -2
100
AcDbBlockReference
  2
_DOTSMALL
 10
9105.623724904617
 20
5244.642066206347
 30
0.0
 41
100.0
 42
100.0
 43
100.0
 50
180.0
  0
MTEXT
  5
2C369
330
2994D
100
AcDbEntity
  8
寸法
 62
     7
 48
50.0
100
AcDbMText
 10
10460.39391593381
 20
5344.653877229969
 30
0.0
 40
120.0
 41
0.0
 71
     5
 72
     1
  1
\A1;柱外寸法2630
  7
STYLE1
 73
     1
 44
1.0
1001
ACAD
1000
MTEXTBEGIN
1070
    73
1070
     1
1070
    44
1040
1.0
1070
    74
1070
     0
1000
MTEXTEND
  0
POINT
  5
2C36A
330
2994D
100
AcDbEntity
  8
DEFPOINTS
 62
     0
 48
50.0
100
AcDbPoint
 10
11735.62372490462
 20
4792.795292238696
 30
0.0
  0
POINT
  5
2C36B
330
2994D
100
AcDbEntity
  8
DEFPOINTS
 62
     0
 48
50.0
100
AcDbPoint
 10
9105.623724904617
 20
4841.986230750019
 30
0.0
  0
POINT
  5
2C36C
330
2994D
100
AcDbEntity
  8
DEFPOINTS
 62
     0
 48
50.0
100
AcDbPoint
 10
9105.623724904617
 20
5244.642066206347
 30
0.0
  0
ENDBLK
  5
29958
330
2994D
100
AcDbEntity
  8
0
 48
50.0
100
AcDbBlockEnd
  0
BLOCK
  5
29971
330
29965
100
AcDbEntity
  8
0
 48
50.0
100
AcDbBlockBegin
  2
*D22
 70
     1
 10
0.0
 20
0.0
 30
0.0
  3
*D22
  1

  0
LINE
  5
2C359
330
29965
100
AcDbEntity
  8
寸法
 62
     0
 48
50.0
370
    -2
100
AcDbLine
 10
9085.623724904618
 20
2520.984612627043
 30
0.0
 11
8201.873595721357
 21
2520.984612627043
 31
0.0
  0
LINE
  5
2C35A
330
29965
100
AcDbEntity
  8
寸法
 62
     0
 48
50.0
370
    -2
100
AcDbLine
 10
9030.623724904618
 20
2470.984612627042
 30
0.0
 11
8201.873595721357
 21
2470.984612627042
 31
0.0
  0
LINE
  5
2C35B
330
29965
100
AcDbEntity
  8
寸法
 62
     0
 48
50.0
370
    -2
100
AcDbLine
 10
8261.873595721358
 20
2520.984612627043
 30
0.0
 11
8261.873595721358
 21
2620.984612627042
 31
0.0
  0
LINE
  5
2C35C
330
29965
100
AcDbEntity
  8
寸法
 62
     0
 48
50.0
370
    -2
100
AcDbLine
 10
8261.873595721358
 20
2470.984612627042
 30
0.0
 11
8261.873595721358
 21
2058.890124438063
 31
0.0
  0
LINE
  5
2C35D
330
29965
100
AcDbEntity
  8
寸法
 62
     0
 48
50.0
370
    -2
100
AcDbLine
 10
8261.873595721358
 20
2520.984612627043
 30
0.0
 11
8261.873595721358
 21
2470.984612627042
 31
0.0
  0
INSERT
  5
2C35E
330
29965
100
AcDbEntity
  8
寸法
 62
     0
 48
50.0
370
    -2
100
AcDbBlockReference
  2
_DOTSMALL
 10
8261.873595721358
 20
2520.984612627043
 30
0.0
 41
100.0
 42
100.0
 43
100.0
 50
270.0
  0
INSERT
  5
2C35F
330
29965
100
AcDbEntity
  8
寸法
 62
     0
 48
50.0
370
    -2
100
AcDbBlockReference
  2
_DOTSMALL
 10
8261.873595721358
 20
2470.984612627042
 30
0.0
 41
100.0
 42
100.0
 43
100.0
 50
90.0
  0
MTEXT
  5
2C360
330
29965
100
AcDbEntity
  8
寸法
 62
     7
 48
50.0
100
AcDbMText
 10
8161.873595721358
 20
2164.937368532553
 30
0.0
 40
120.0
 41
0.0
 71
     5
 72
     1
  1
\A1;50
  7
STYLE1
 11
0.0000000000000001
 21
1.0
 31
0.0
 73
     1
 44
1.0
1001
ACAD
1000
MTEXTBEGIN
1070
    73
1070
     1
1070
    44
1040
1.0
1070
    74
1070
     0
1000
MTEXTEND
  0
POINT
  5
2C361
330
29965
100
AcDbEntity
  8
DEFPOINTS
 62
     0
 48
50.0
100
AcDbPoint
 10
9105.623724904617
 20
2520.984612627043
 30
0.0
  0
POINT
  5
2C362
330
29965
100
AcDbEntity
  8
DEFPOINTS
 62
     0
 48
50.0
100
AcDbPoint
 10
9050.623724904617
 20
2470.984612627042
 30
0.0
  0
POINT
  5
2C363
330
29965
100
AcDbEntity
  8
DEFPOINTS
 62
     0
 48
50.0
100
AcDbPoint
 10
8261.873595721358
 20
2470.984612627042
 30
0.0
  0
ENDBLK
  5
29972
330
29965
100
AcDbEntity
  8
0
 48
50.0
100
AcDbBlockEnd
  0
BLOCK
  5
2997E
330
29973
100
AcDbEntity
  8
0
 48
50.0
100
AcDbBlockBegin
  2
*D23
 70
     1
 10
0.0
 20
0.0
 30
0.0
  3
*D23
  1

  0
LINE
  5
2C34F
330
29973
100
AcDbEntity
  8
寸法
 62
     0
 48
50.0
370
    -2
100
AcDbLine
 10
9030.623724904618
 20
2470.984612627042
 30
0.0
 11
7901.873595721359
 21
2470.984612627042
 31
0.0
  0
LINE
  5
2C350
330
29973
100
AcDbEntity
  8
寸法
 62
     0
 48
50.0
370
    -2
100
AcDbLine
 10
8029.122649009485
 20
2370.984612627042
 30
0.0
 11
7901.873595721359
 21
2370.984612627042
 31
0.0
  0
LINE
  5
2C351
330
29973
100
AcDbEntity
  8
寸法
 62
     0
 48
50.0
370
    -2
100
AcDbLine
 10
7961.873595721359
 20
2470.984612627042
 30
0.0
 11
7961.873595721359
 21
2370.984612627042
 31
0.0
  0
LINE
  5
2C352
330
29973
100
AcDbEntity
  8
寸法
 62
     0
 48
50.0
370
    -2
100
AcDbLine
 10
7961.873595721359
 20
2370.984612627042
 30
0.0
 11
7961.873595721357
 21
1998.890124438063
 31
0.0
  0
INSERT
  5
2C353
330
29973
100
AcDbEntity
  8
寸法
 62
     0
 48
50.0
370
    -2
100
AcDbBlockReference
  2
_DOTSMALL
 10
7961.873595721359
 20
2470.984612627042
 30
0.0
 41
100.0
 42
100.0
 43
100.0
 50
90.0
  0
INSERT
  5
2C354
330
29973
100
AcDbEntity
  8
寸法
 62
     0
 48
50.0
370
    -2
100
AcDbBlockReference
  2
_DOTSMALL
 10
7961.873595721359
 20
2370.984612627042
 30
0.0
 41
100.0
 42
100.0
 43
100.0
 50
270.0
  0
MTEXT
  5
2C355
330
29973
100
AcDbEntity
  8
寸法
 62
     7
 48
50.0
100
AcDbMText
 10
7861.873595721357
 20
2134.937368532553
 30
0.0
 40
120.0
 41
0.0
 71
     5
 72
     1
  1
\A1;100
  7
STYLE1
 11
0.0000000000000001
 21
1.0
 31
0.0
 73
     1
 44
1.0
1001
ACAD
1000
MTEXTBEGIN
1070
    73
1070
     1
1070
    44
1040
1.0
1070
    74
1070
     0
1000
MTEXTEND
  0
POINT
  5
2C356
330
29973
100
AcDbEntity
  8
DEFPOINTS
 62
     0
 48
50.0
100
AcDbPoint
 10
9050.623724904617
 20
2470.984612627042
 30
0.0
  0
POINT
  5
2C357
330
29973
100
AcDbEntity
  8
DEFPOINTS
 62
     0
 48
50.0
100
AcDbPoint
 10
8049.122649009484
 20
2370.984612627042
 30
0.0
  0
POINT
  5
2C358
330
29973
100
AcDbEntity
  8
DEFPOINTS
 62
     0
 48
50.0
100
AcDbPoint
 10
7961.873595721359
 20
2370.984612627042
 30
0.0
  0
ENDBLK
  5
2997F
330
29973
100
AcDbEntity
  8
0
 48
50.0
100
AcDbBlockEnd
  0
BLOCK
  5
2A5ED
330
2A5E3
100
AcDbEntity
  8
0
 48
50.0
100
AcDbBlockBegin
  2
*D24
 70
     1
 10
0.0
 20
0.0
 30
0.0
  3
*D24
  1

  0
LINE
  5
2C346
330
2A5E3
100
AcDbEntity
  8
寸法
 62
     0
 48
50.0
370
    -2
100
AcDbLine
 10
11755.62372490462
 20
2470.984612627043
 30
0.0
 11
12500.55088287674
 21
2470.984612627043
 31
0.0
  0
LINE
  5
2C347
330
2A5E3
100
AcDbEntity
  8
寸法
 62
     0
 48
50.0
370
    -2
100
AcDbLine
 10
11835.62372490462
 20
4790.984612627043
 30
0.0
 11
12500.55088287675
 21
4790.984612627043
 31
0.0
  0
LINE
  5
2C348
330
2A5E3
100
AcDbEntity
  8
寸法
 62
     0
 48
50.0
370
    -2
100
AcDbLine
 10
12440.55088287674
 20
2470.984612627043
 30
0.0
 11
12440.55088287675
 21
4790.984612627043
 31
0.0
  0
INSERT
  5
2C349
330
2A5E3
100
AcDbEntity
  8
寸法
 62
     0
 48
50.0
370
    -2
100
AcDbBlockReference
  2
_DOTSMALL
 10
12440.55088287674
 20
2470.984612627043
 30
0.0
 41
100.0
 42
100.0
 43
100.0
 50
270.0
  0
INSERT
  5
2C34A
330
2A5E3
100
AcDbEntity
  8
寸法
 62
     0
 48
50.0
370
    -2
100
AcDbBlockReference
  2
_DOTSMALL
 10
12440.55088287675
 20
4790.984612627043
 30
0.0
 41
100.0
 42
100.0
 43
100.0
 50
90.0
  0
MTEXT
  5
2C34B
330
2A5E3
100
AcDbEntity
  8
寸法
 62
     7
 48
50.0
100
AcDbMText
 10
12340.53907185312
 20
3630.984612627045
 30
0.0
 40
120.0
 41
0.0
 71
     5
 72
     1
  1
\A1;2320
  7
STYLE1
 11
0.0000000000000001
 21
1.0
 31
0.0
 73
     1
 44
1.0
1001
ACAD
1000
MTEXTBEGIN
1070
    73
1070
     1
1070
    44
1040
1.0
1070
    74
1070
     0
1000
MTEXTEND
  0
POINT
  5
2C34C
330
2A5E3
100
AcDbEntity
  8
DEFPOINTS
 62
     0
 48
50.0
100
AcDbPoint
 10
11735.62372490462
 20
2470.984612627043
 30
0.0
  0
POINT
  5
2C34D
330
2A5E3
100
AcDbEntity
  8
DEFPOINTS
 62
     0
 48
50.0
100
AcDbPoint
 10
11815.62372490462
 20
4790.984612627043
 30
0.0
  0
POINT
  5
2C34E
330
2A5E3
100
AcDbEntity
  8
DEFPOINTS
 62
     0
 48
50.0
100
AcDbPoint
 10
12440.55088287675
 20
4790.984612627043
 30
0.0
  0
ENDBLK
  5
2A5EE
330
2A5E3
100
AcDbEntity
  8
0
 48
50.0
100
AcDbBlockEnd
  0
BLOCK
  5
2A605
330
2A5FB
100
AcDbEntity
  8
0
 48
50.0
100
AcDbBlockBegin
  2
*D25
 70
     1
 10
0.0
 20
0.0
 30
0.0
  3
*D25
  1

  0
LINE
  5
2C32B
330
2A5FB
100
AcDbEntity
  8
寸法
 62
     0
 48
50.0
370
    -2
100
AcDbLine
 10
9085.623724904619
 20
4602.984612627038
 30
0.0
 11
8500.715083507364
 21
4602.984612627038
 31
0.0
  0
LINE
  5
2C32C
330
2A5FB
100
AcDbEntity
  8
寸法
 62
     0
 48
50.0
370
    -2
100
AcDbLine
 10
9085.623724904618
 20
2532.984612627038
 30
0.0
 11
8500.715083507364
 21
2532.984612627038
 31
0.0
  0
LINE
  5
2C32D
330
2A5FB
100
AcDbEntity
  8
寸法
 62
     0
 48
50.0
370
    -2
100
AcDbLine
 10
8560.715083507364
 20
4602.984612627038
 30
0.0
 11
8560.715083507362
 21
2532.984612627038
 31
0.0
  0
INSERT
  5
2C32E
330
2A5FB
100
AcDbEntity
  8
寸法
 62
     0
 48
50.0
370
    -2
100
AcDbBlockReference
  2
_DOTSMALL
 10
8560.715083507364
 20
4602.984612627038
 30
0.0
 41
100.0
 42
100.0
 43
100.0
 50
90.0
  0
INSERT
  5
2C32F
330
2A5FB
100
AcDbEntity
  8
寸法
 62
     0
 48
50.0
370
    -2
100
AcDbBlockReference
  2
_DOTSMALL
 10
8560.715083507362
 20
2532.984612627038
 30
0.0
 41
100.0
 42
100.0
 43
100.0
 50
270.0
  0
MTEXT
  5
2C330
330
2A5FB
100
AcDbEntity
  8
寸法
 62
     7
 48
50.0
100
AcDbMText
 10
8460.70327248374
 20
3567.984612627039
 30
0.0
 40
120.0
 41
0.0
 71
     5
 72
     1
  1
\A1;有効開口部高サ2070
  7
STYLE1
 11
0.0000000000000001
 21
1.0
 31
0.0
 73
     1
 44
1.0
1001
ACAD
1000
MTEXTBEGIN
1070
    73
1070
     1
1070
    44
1040
1.0
1070
    74
1070
     0
1000
MTEXTEND
  0
POINT
  5
2C331
330
2A5FB
100
AcDbEntity
  8
DEFPOINTS
 62
     0
 48
50.0
100
AcDbPoint
 10
9105.623724904621
 20
4602.984612627038
 30
0.0
  0
POINT
  5
2C332
330
2A5FB
100
AcDbEntity
  8
DEFPOINTS
 62
     0
 48
50.0
100
AcDbPoint
 10
9105.623724904617
 20
2532.984612627038
 30
0.0
  0
POINT
  5
2C333
330
2A5FB
100
AcDbEntity
  8
DEFPOINTS
 62
     0
 48
50.0
100
AcDbPoint
 10
8560.715083507362
 20
2532.984612627038
 30
0.0
  0
ENDBLK
  5
2A606
330
2A5FB
100
AcDbEntity
  8
0
 48
50.0
100
AcDbBlockEnd
  0
BLOCK
  5
2A611
330
2A607
100
AcDbEntity
  8
0
 48
50.0
100
AcDbBlockBegin
  2
*D26
 70
     1
 10
0.0
 20
0.0
 30
0.0
  3
*D26
  1

  0
LINE
  5
2C334
330
2A607
100
AcDbEntity
  8
寸法
 62
     0
 48
50.0
370
    -2
100
AcDbLine
 10
9085.623724904618
 20
4610.984612627038
 30
0.0
 11
8201.873595721359
 21
4610.984612627038
 31
0.0
  0
LINE
  5
2C335
330
2A607
100
AcDbEntity
  8
寸法
 62
     0
 48
50.0
370
    -2
100
AcDbLine
 10
9085.623724904618
 20
2520.984612627038
 30
0.0
 11
8201.873595721357
 21
2520.984612627038
 31
0.0
  0
LINE
  5
2C336
330
2A607
100
AcDbEntity
  8
寸法
 62
     0
 48
50.0
370
    -2
100
AcDbLine
 10
8261.873595721359
 20
4610.984612627038
 30
0.0
 11
8261.873595721358
 21
2520.984612627038
 31
0.0
  0
INSERT
  5
2C337
330
2A607
100
AcDbEntity
  8
寸法
 62
     0
 48
50.0
370
    -2
100
AcDbBlockReference
  2
_DOTSMALL
 10
8261.873595721359
 20
4610.984612627038
 30
0.0
 41
100.0
 42
100.0
 43
100.0
 50
90.0
  0
INSERT
  5
2C338
330
2A607
100
AcDbEntity
  8
寸法
 62
     0
 48
50.0
370
    -2
100
AcDbBlockReference
  2
_DOTSMALL
 10
8261.873595721358
 20
2520.984612627038
 30
0.0
 41
100.0
 42
100.0
 43
100.0
 50
270.0
  0
MTEXT
  5
2C339
330
2A607
100
AcDbEntity
  8
寸法
 62
     7
 48
50.0
100
AcDbMText
 10
8161.861784697736
 20
3565.98461262704
 30
0.0
 40
120.0
 41
0.0
 71
     5
 72
     1
  1
\A1;2090
  7
STYLE1
 11
0.0000000000000001
 21
1.0
 31
0.0
 73
     1
 44
1.0
1001
ACAD
1000
MTEXTBEGIN
1070
    73
1070
     1
1070
    44
1040
1.0
1070
    74
1070
     0
1000
MTEXTEND
  0
POINT
  5
2C33A
330
2A607
100
AcDbEntity
  8
DEFPOINTS
 62
     0
 48
50.0
100
AcDbPoint
 10
9105.623724904617
 20
4610.984612627038
 30
0.0
  0
POINT
  5
2C33B
330
2A607
100
AcDbEntity
  8
DEFPOINTS
 62
     0
 48
50.0
100
AcDbPoint
 10
9105.623724904617
 20
2520.984612627038
 30
0.0
  0
POINT
  5
2C33C
330
2A607
100
AcDbEntity
  8
DEFPOINTS
 62
     0
 48
50.0
100
AcDbPoint
 10
8261.873595721358
 20
2520.984612627038
 30
0.0
  0
ENDBLK
  5
2A612
330
2A607
100
AcDbEntity
  8
0
 48
50.0
100
AcDbBlockEnd
  0
BLOCK
  5
2A61D
330
2A613
100
AcDbEntity
  8
0
 48
50.0
100
AcDbBlockBegin
  2
*D27
 70
     1
 10
0.0
 20
0.0
 30
0.0
  3
*D27
  1

  0
LINE
  5
2C33D
330
2A613
100
AcDbEntity
  8
寸法
 62
     0
 48
50.0
370
    -2
100
AcDbLine
 10
9085.623724904618
 20
2470.984612627038
 30
0.0
 11
7901.873595721358
 21
2470.984612627038
 31
0.0
  0
LINE
  5
2C33E
330
2A613
100
AcDbEntity
  8
寸法
 62
     0
 48
50.0
370
    -2
100
AcDbLine
 10
9025.623724904617
 20
4845.984612627042
 30
0.0
 11
7901.873595721358
 21
4845.984612627042
 31
0.0
  0
LINE
  5
2C33F
330
2A613
100
AcDbEntity
  8
寸法
 62
     0
 48
50.0
370
    -2
100
AcDbLine
 10
7961.873595721357
 20
2470.984612627038
 30
0.0
 11
7961.873595721357
 21
4845.984612627042
 31
0.0
  0
INSERT
  5
2C340
330
2A613
100
AcDbEntity
  8
寸法
 62
     0
 48
50.0
370
    -2
100
AcDbBlockReference
  2
_DOTSMALL
 10
7961.873595721357
 20
2470.984612627038
 30
0.0
 41
100.0
 42
100.0
 43
100.0
 50
270.0
  0
INSERT
  5
2C341
330
2A613
100
AcDbEntity
  8
寸法
 62
     0
 48
50.0
370
    -2
100
AcDbBlockReference
  2
_DOTSMALL
 10
7961.873595721357
 20
4845.984612627042
 30
0.0
 41
100.0
 42
100.0
 43
100.0
 50
90.0
  0
MTEXT
  5
2C342
330
2A613
100
AcDbEntity
  8
寸法
 62
     7
 48
50.0
100
AcDbMText
 10
7861.861784697736
 20
3658.484612627042
 30
0.0
 40
120.0
 41
0.0
 71
     5
 72
     1
  1
\A1;2375
  7
STYLE1
 11
0.0000000000000001
 21
1.0
 31
0.0
 73
     1
 44
1.0
1001
ACAD
1000
MTEXTBEGIN
1070
    73
1070
     1
1070
    44
1040
1.0
1070
    74
1070
     0
1000
MTEXTEND
  0
POINT
  5
2C343
330
2A613
100
AcDbEntity
  8
DEFPOINTS
 62
     0
 48
50.0
100
AcDbPoint
 10
9105.623724904617
 20
2470.984612627038
 30
0.0
  0
POINT
  5
2C344
330
2A613
100
AcDbEntity
  8
DEFPOINTS
 62
     0
 48
50.0
100
AcDbPoint
 10
9045.623724904617
 20
4845.984612627042
 30
0.0
  0
POINT
  5
2C345
330
2A613
100
AcDbEntity
  8
DEFPOINTS
 62
     0
 48
50.0
100
AcDbPoint
 10
7961.873595721357
 20
4845.984612627042
 30
0.0
  0
ENDBLK
  5
2A61E
330
2A613
100
AcDbEntity
  8
0
 48
50.0
100
AcDbBlockEnd
  0
ENDSEC
  0
SECTION
  2
ENTITIES
  0
LINE
  5
10B57
330
747D
100
AcDbEntity
  8
補助
  6
PHANTOM
 62
   230
 48
50.0
100
AcDbLine
 10
139.9999999999995
 20
11409.6
 30
0.0
 11
16307.2
 21
11409.6
 31
0.0
  0
LINE
  5
10B59
330
747D
100
AcDbEntity
  8
仕様書枠
  6
Continuous
 48
50.0
100
AcDbLine
 10
13107.2
 20
1200.0
 30
0.0
 11
13107.2
 21
-0.0000000000000729
 31
0.0
  0
LINE
  5
10B5C
330
747D
100
AcDbEntity
  8
仕様書枠
 48
50.0
100
AcDbLine
 10
16307.2
 20
1200.0
 30
0.0
 11
16307.2
 21
-0.0000000000000909
 31
0.0
  0
LINE
  5
10B5D
330
747D
100
AcDbEntity
  8
仕様書枠
 48
50.0
100
AcDbLine
 10
140.0
 20
0.0
 30
0.0
 11
16307.2
 21
-0.0000000000000909
 31
0.0
  0
LINE
  5
10B5E
330
747D
100
AcDbEntity
  8
補助
  6
PHANTOM
 62
   230
 48
50.0
100
AcDbLine
 10
16307.2
 20
11409.6
 30
0.0
 11
16307.2
 21
1200.0
 31
0.0
  0
LINE
  5
10B6C
330
747D
100
AcDbEntity
  8
仕様書枠
 48
50.0
100
AcDbLine
 10
13107.2
 20
1200.0
 30
0.0
 11
16307.2
 21
1200.0
 31
0.0
  0
LINE
  5
10B6D
330
747D
100
AcDbEntity
  8
補助
  6
PHANTOM
 62
   230
 48
50.0
100
AcDbLine
 10
13107.2
 20
11409.6
 30
0.0
 11
13107.2
 21
4800.0
 31
0.0
  0
LINE
  5
10B6F
330
747D
100
AcDbEntity
  8
補助
  6
PHANTOM
 62
   230
 48
50.0
100
AcDbLine
 10
13107.2
 20
4800.0
 30
0.0
 11
16307.2
 21
4800.0
 31
0.0
  0
LINE
  5
10B72
330
747D
100
AcDbEntity
  8
文字
 62
     7
 48
50.0
100
AcDbLine
 10
13187.2
 20
400.0
 30
0.0
 11
16227.2
 21
400.0
 31
0.0
  0
TEXT
  5
10B73
330
747D
100
AcDbEntity
  8
文字
 62
     7
 48
50.0
100
AcDbText
 10
13162.9790565769
 20
895.0906074299405
 30
0.0
 40
200.0
  1
外 形 図
  7
STYLE2
100
AcDbText
  0
TEXT
  5
10B74
330
747D
100
AcDbEntity
  8
文字
 62
     7
 48
50.0
100
AcDbText
 10
13201.43669998441
 20
477.2740661031255
 30
0.0
 40
160.0
  1
機種名
  7
STYLE2
100
AcDbText
  0
TEXT
  5
10B75
330
747D
100
AcDbEntity
  8
文字
 62
     7
 48
50.0
100
AcDbText
 10
13209.4053442172
 20
228.5435242569016
 30
0.0
 40
100.0
  1
○有効開口寸法 ： 1097×2070(mm)
  7
STYLE2
100
AcDbText
  0
TEXT
  5
10B79
330
747D
100
AcDbEntity
  8
文字
 62
     7
 48
50.0
100
AcDbText
 10
14524.131837222
 20
1031.557706291228
 30
0.0
 40
100.0
  1
NO.03      <縮尺> S=1/40
  7
STYLE2
100
AcDbText
  0
LINE
  5
10B7B
330
747D
100
AcDbEntity
  8
仕様書枠
 48
50.0
100
AcDbLine
 10
13107.2
 20
800.0
 30
0.0
 11
14251.2
 21
800.0
 31
0.0
  0
LINE
  5
10B88
330
747D
100
AcDbEntity
  8
仕様書枠
  6
Continuous
 48
50.0
100
AcDbLine
 10
14251.2
 20
1200.0
 30
0.0
 11
14251.2
 21
800.0
 31
0.0
  0
LINE
  5
12765
330
747D
100
AcDbEntity
  8
Ｇ．Ｌ
100
AcDbLine
 10
3634.747375059786
 20
2370.984612627042
 30
0.0
 11
12385.12269553938
 21
2370.984612627042
 31
0.0
  0
LWPOLYLINE
  5
14534
330
747D
100
AcDbEntity
  8
部品1
100
AcDbPolyline
 90
        4
 70
     1
 43
0.0
 10
5324.056521724966
 20
6478.904723084657
 10
5324.056521724966
 20
6239.012401539124
 10
6087.527187953405
 20
6239.012401539124
 10
6087.527187953405
 20
6478.904723084657
  0
TEXT
  5
14535
330
747D
100
AcDbEntity
  8
部品1
100
AcDbText
 10
5413.976131554004
 20
6286.011193866134
 30
0.0
 40
135.0
  1
平面図
  7
STYLE2
100
AcDbText
  0
TEXT
  5
149A1
330
747D
100
AcDbEntity
  8
部品1
100
AcDbText
 10
5414.581925462929
 20
1705.052801712181
 30
0.0
 40
135.0
  1
正面図
  7
STYLE2
100
AcDbText
  0
LWPOLYLINE
  5
149A2
330
747D
100
AcDbEntity
  8
部品1
100
AcDbPolyline
 90
        4
 70
     1
 43
0.0
 10
5324.056521724973
 20
1897.946330930704
 10
5324.056521724973
 20
1658.054009385172
 10
6087.527187953412
 20
1658.054009385172
 10
6087.527187953412
 20
1897.946330930704
  0
TEXT
  5
14DEF
330
747D
100
AcDbEntity
  8
文字
 62
     7
 48
50.0
100
AcDbText
 10
14641.2525855784
 20
871.1744590657925
 30
0.0
 40
100.0
  1
～一般型・多雪地型～
  7
STYLE2
100
AcDbText
  0
TEXT
  5
15A76
330
747D
100
AcDbEntity
  8
文字
 62
     7
 48
50.0
100
AcDbText
 10
14505.34213575793
 20
483.8967129911411
 30
0.0
 40
160.0
  1
ＮＸＮ－７０ＨＧ
  7
STYLE2
100
AcDbText
  0
LINE
  5
20C57
330
747D
100
AcDbEntity
  8
細線
100
AcDbLine
 10
5910.791854839193
 20
4602.984612627045
 30
0.0
 11
5910.791854839192
 21
2519.984612627046
 31
0.0
  0
LINE
  5
20C58
330
747D
100
AcDbEntity
  8
細線
100
AcDbLine
 10
5980.791854839194
 20
4602.984612627045
 30
0.0
 11
5980.791854839193
 21
2519.984612627046
 31
0.0
  0
LINE
  5
20C59
330
747D
100
AcDbEntity
  8
部品1
100
AcDbLine
 10
4341.211515854524
 20
4838.588087231807
 30
0.0
 11
4342.344913186872
 21
4818.611959249206
 31
0.0
  0
LINE
  5
20C5A
330
747D
100
AcDbEntity
  8
部品1
100
AcDbLine
 10
4353.781933508448
 20
4722.954552082148
 30
0.0
 11
4354.426839315556
 21
4711.588087231809
 31
0.0
  0
LINE
  5
20C5B
330
747D
100
AcDbEntity
  8
部品1
100
AcDbLine
 10
4345.545902983601
 20
4815.154552082149
 30
0.0
 11
4350.580943711712
 21
4726.411959249206
 31
0.0
  0
ARC
  5
20C5C
330
747D
100
AcDbEntity
  8
部品1
 48
50.0
100
AcDbCircle
 10
4342.550720087417
 20
4814.984612627047
 30
0.0
 40
3.0
100
AcDbArc
 50
3.24734279033473
 51
82.34187279258314
  0
ARC
  5
20C5D
330
747D
100
AcDbEntity
  8
部品1
 48
50.0
100
AcDbCircle
 10
4350.786750612259
 20
4722.784612627044
 30
0.0
 40
3.0
100
AcDbArc
 50
3.24734279033473
 51
82.3418727926348
  0
ARC
  5
20C5E
330
747D
100
AcDbEntity
  8
部品1
 48
50.0
100
AcDbCircle
 10
4351.27981972082
 20
4726.451611788728
 30
0.0
 40
0.7
100
AcDbArc
 50
183.2473427902827
 51
262.3418727926349
  0
ARC
  5
20C5F
330
747D
100
AcDbEntity
  8
部品1
 48
50.0
100
AcDbCircle
 10
4343.04378919598
 20
4818.651611788733
 30
0.0
 40
0.7
100
AcDbArc
 50
183.2473427903867
 51
262.3418727926349
  0
ARC
  5
20C60
330
747D
100
AcDbEntity
  8
部品1
100
AcDbCircle
 10
4361.415599406655
 20
4711.984612627047
 30
0.0
 40
7.0
100
AcDbArc
 50
183.2473427903347
 51
270.0
  0
ARC
  5
20C61
330
747D
100
AcDbEntity
  8
部品1
100
AcDbCircle
 10
4348.200275945623
 20
4838.984612627046
 30
0.0
 40
7.0
100
AcDbArc
 50
90.0
 51
183.2473427903347
  0
ARC
  5
20C62
330
747D
100
AcDbEntity
  8
部品1
100
AcDbCircle
 10
7063.383433732759
 20
4838.984612627046
 30
0.0
 40
7.0
100
AcDbArc
 50
356.7526572096653
 51
90.0
  0
ARC
  5
20C63
330
747D
100
AcDbEntity
  8
部品1
100
AcDbCircle
 10
7050.168110271726
 20
4711.984612627047
 30
0.0
 40
7.0
100
AcDbArc
 50
270.0
 51
356.7526572096653
  0
ARC
  5
20C64
330
747D
100
AcDbEntity
  8
部品1
 48
50.0
100
AcDbCircle
 10
7068.539920482405
 20
4818.651611788733
 30
0.0
 40
0.7
100
AcDbArc
 50
277.6581272073652
 51
356.7526572096132
  0
ARC
  5
20C65
330
747D
100
AcDbEntity
  8
部品1
 48
50.0
100
AcDbCircle
 10
7060.303889957561
 20
4726.451611788728
 30
0.0
 40
0.7
100
AcDbArc
 50
277.6581272073652
 51
356.7526572097173
  0
ARC
  5
20C66
330
747D
100
AcDbEntity
  8
部品1
 48
50.0
100
AcDbCircle
 10
7060.796959066123
 20
4722.784612627044
 30
0.0
 40
3.0
100
AcDbArc
 50
97.65812720736519
 51
176.7526572096653
  0
ARC
  5
20C67
330
747D
100
AcDbEntity
  8
部品1
 48
50.0
100
AcDbCircle
 10
7069.032989590967
 20
4814.984612627047
 30
0.0
 40
3.0
100
AcDbArc
 50
97.65812720741685
 51
176.7526572096653
  0
LINE
  5
20C68
330
747D
100
AcDbEntity
  8
部品1
100
AcDbLine
 10
7066.037806694781
 20
4815.154552082149
 30
0.0
 11
7061.002765966669
 21
4726.411959249206
 31
0.0
  0
LINE
  5
20C69
330
747D
100
AcDbEntity
  8
部品1
100
AcDbLine
 10
7057.801776169937
 20
4722.954552082148
 30
0.0
 11
7057.156870362824
 21
4711.588087231809
 31
0.0
  0
LINE
  5
20C6A
330
747D
100
AcDbEntity
  8
細線
 48
50.0
100
AcDbLine
 10
4373.791854839192
 20
4845.984612627046
 30
0.0
 11
4373.791854839192
 21
4704.984612627046
 31
0.0
  0
LINE
  5
20C6B
330
747D
100
AcDbEntity
  8
細線
 48
50.0
100
AcDbLine
 10
7037.791854839193
 20
4845.984612627046
 30
0.0
 11
7037.791854839193
 21
4704.984612627046
 31
0.0
  0
LINE
  5
20C6C
330
747D
100
AcDbEntity
  8
部品1
100
AcDbLine
 10
7070.372193823859
 20
4838.588087231807
 30
0.0
 11
7069.238796491514
 21
4818.611959249206
 31
0.0
  0
LINE
  5
20C6D
330
747D
100
AcDbEntity
  8
細線
 48
50.0
100
AcDbLine
 10
7060.397173302432
 20
4725.757855190513
 30
0.0
 11
4351.186536375992
 21
4725.757855190834
 31
0.0
  0
LINE
  5
20C6E
330
747D
100
AcDbEntity
  8
細線
 48
50.0
100
AcDbLine
 10
7068.633203827277
 20
4817.957855190514
 30
0.0
 11
4342.950505851152
 21
4817.957855190834
 31
0.0
  0
LINE
  5
20C6F
330
747D
100
AcDbEntity
  8
部品1
 48
50.0
100
AcDbLine
 10
7050.168110271726
 20
4704.984612627048
 30
0.0
 11
4361.415599406655
 21
4704.984612627048
 31
0.0
  0
LINE
  5
20C70
330
747D
100
AcDbEntity
  8
部品1
 48
50.0
100
AcDbLine
 10
7063.383433732759
 20
4845.984612627046
 30
0.0
 11
4348.200275945623
 21
4845.984612627046
 31
0.0
  0
ARC
  5
20C71
330
747D
100
AcDbEntity
  8
部品1
 48
0.01
100
AcDbCircle
 10
5283.791854839191
 20
4643.484612627042
 30
0.0
 40
2.0
100
AcDbArc
 50
270.0
 51
0.0
  0
ARC
  5
20C72
330
747D
100
AcDbEntity
  8
部品1
 48
0.01
100
AcDbCircle
 10
5283.791854839193
 20
4674.984612627041
 30
0.0
 40
2.0
100
AcDbArc
 50
0.0
 51
90.0
  0
ARC
  5
20C73
330
747D
100
AcDbEntity
  8
部品1
 48
0.01
100
AcDbCircle
 10
5107.791854839192
 20
4643.484612627042
 30
0.0
 40
2.0
100
AcDbArc
 50
180.0
 51
270.0
  0
ARC
  5
20C74
330
747D
100
AcDbEntity
  8
部品1
 48
0.01
100
AcDbCircle
 10
5107.791854839192
 20
4674.984612627041
 30
0.0
 40
2.0
100
AcDbArc
 50
90.0
 51
180.0
  0
LINE
  5
20C75
330
747D
100
AcDbEntity
  8
細線
100
AcDbLine
 10
5195.791854839191
 20
4647.484612627041
 30
0.0
 11
5269.791854839192
 21
4647.484612627041
 31
0.0
  0
LINE
  5
20C76
330
747D
100
AcDbEntity
  8
細線
100
AcDbLine
 10
5195.791854839193
 20
4670.484612627042
 30
0.0
 11
5121.791854839193
 21
4670.484612627042
 31
0.0
  0
LINE
  5
20C77
330
747D
100
AcDbEntity
  8
細線
100
AcDbLine
 10
5121.791854839193
 20
4647.484612627041
 30
0.0
 11
5195.791854839193
 21
4647.484612627041
 31
0.0
  0
LINE
  5
20C78
330
747D
100
AcDbEntity
  8
細線
100
AcDbLine
 10
5269.791854839192
 20
4670.484612627042
 30
0.0
 11
5195.791854839193
 21
4670.484612627042
 31
0.0
  0
LINE
  5
20C79
330
747D
100
AcDbEntity
  8
細線
100
AcDbLine
 10
5269.791854839192
 20
4647.484612627041
 30
0.0
 11
5269.791854839192
 21
4670.484612627042
 31
0.0
  0
LINE
  5
20C7A
330
747D
100
AcDbEntity
  8
細線
100
AcDbLine
 10
5121.791854839193
 20
4670.484612627042
 30
0.0
 11
5121.791854839193
 21
4647.484612627041
 31
0.0
  0
LINE
  5
20C7B
330
747D
100
AcDbEntity
  8
部品1
 48
0.01
100
AcDbLine
 10
5285.791854839191
 20
4643.484612627042
 30
0.0
 11
5285.791854839192
 21
4674.984612627041
 31
0.0
  0
LINE
  5
20C7C
330
747D
100
AcDbEntity
  8
部品1
 48
0.01
100
AcDbLine
 10
5107.791854839192
 20
4641.484612627042
 30
0.0
 11
5283.791854839191
 21
4641.484612627042
 31
0.0
  0
LINE
  5
20C7D
330
747D
100
AcDbEntity
  8
部品1
 48
0.01
100
AcDbLine
 10
5105.791854839193
 20
4674.984612627041
 30
0.0
 11
5105.791854839193
 21
4643.484612627042
 31
0.0
  0
LINE
  5
20C7E
330
747D
100
AcDbEntity
  8
部品1
 48
0.01
100
AcDbLine
 10
5283.791854839193
 20
4676.984612627042
 30
0.0
 11
5107.791854839192
 21
4676.984612627042
 31
0.0
  0
LINE
  5
20C7F
330
747D
100
AcDbEntity
  8
細線
100
AcDbLine
 10
5121.791854839193
 20
4664.484612627042
 30
0.0
 11
5195.791854839193
 21
4664.484612627042
 31
0.0
  0
LINE
  5
20C80
330
747D
100
AcDbEntity
  8
細線
100
AcDbLine
 10
5121.791854839193
 20
4658.484612627042
 30
0.0
 11
5195.791854839193
 21
4658.484612627042
 31
0.0
  0
LINE
  5
20C81
330
747D
100
AcDbEntity
  8
細線
100
AcDbLine
 10
5121.791854839191
 20
4652.484612627042
 30
0.0
 11
5195.791854839193
 21
4652.484612627042
 31
0.0
  0
LINE
  5
20C82
330
747D
100
AcDbEntity
  8
細線
100
AcDbLine
 10
5121.791854839193
 20
4664.484612627042
 30
0.0
 11
5190.791854839193
 21
4664.484612627042
 31
0.0
  0
LINE
  5
20C83
330
747D
100
AcDbEntity
  8
細線
100
AcDbLine
 10
5269.791854839191
 20
4664.484612627042
 30
0.0
 11
5195.791854839193
 21
4664.484612627042
 31
0.0
  0
LINE
  5
20C84
330
747D
100
AcDbEntity
  8
細線
100
AcDbLine
 10
5269.791854839191
 20
4652.484612627042
 30
0.0
 11
5195.791854839193
 21
4652.484612627042
 31
0.0
  0
LINE
  5
20C85
330
747D
100
AcDbEntity
  8
細線
100
AcDbLine
 10
5269.791854839191
 20
4658.484612627042
 30
0.0
 11
5195.791854839193
 21
4658.484612627042
 31
0.0
  0
LINE
  5
20C86
330
747D
100
AcDbEntity
  8
細線
100
AcDbLine
 10
5195.791854839193
 20
4670.484612627042
 30
0.0
 11
5195.791854839191
 21
4647.484612627041
 31
0.0
  0
LINE
  5
20C87
330
747D
100
AcDbEntity
  8
細線
100
AcDbLine
 10
6215.791854839192
 20
4670.484612627042
 30
0.0
 11
6215.791854839192
 21
4647.484612627041
 31
0.0
  0
LINE
  5
20C88
330
747D
100
AcDbEntity
  8
細線
100
AcDbLine
 10
6141.791854839192
 20
4658.484612627042
 30
0.0
 11
6215.791854839192
 21
4658.484612627042
 31
0.0
  0
LINE
  5
20C89
330
747D
100
AcDbEntity
  8
細線
100
AcDbLine
 10
6141.791854839192
 20
4652.484612627042
 30
0.0
 11
6215.791854839192
 21
4652.484612627042
 31
0.0
  0
LINE
  5
20C8A
330
747D
100
AcDbEntity
  8
細線
100
AcDbLine
 10
6141.791854839192
 20
4664.484612627042
 30
0.0
 11
6215.791854839192
 21
4664.484612627042
 31
0.0
  0
LINE
  5
20C8B
330
747D
100
AcDbEntity
  8
細線
100
AcDbLine
 10
6289.791854839193
 20
4664.484612627042
 30
0.0
 11
6220.791854839193
 21
4664.484612627042
 31
0.0
  0
LINE
  5
20C8C
330
747D
100
AcDbEntity
  8
細線
100
AcDbLine
 10
6289.791854839193
 20
4652.484612627042
 30
0.0
 11
6215.791854839192
 21
4652.484612627042
 31
0.0
  0
LINE
  5
20C8D
330
747D
100
AcDbEntity
  8
細線
100
AcDbLine
 10
6289.791854839193
 20
4658.484612627042
 30
0.0
 11
6215.791854839192
 21
4658.484612627042
 31
0.0
  0
LINE
  5
20C8E
330
747D
100
AcDbEntity
  8
細線
100
AcDbLine
 10
6289.791854839193
 20
4664.484612627042
 30
0.0
 11
6215.791854839192
 21
4664.484612627042
 31
0.0
  0
LINE
  5
20C8F
330
747D
100
AcDbEntity
  8
部品1
 48
0.01
100
AcDbLine
 10
6127.791854839193
 20
4676.984612627042
 30
0.0
 11
6303.791854839193
 21
4676.984612627042
 31
0.0
  0
LINE
  5
20C90
330
747D
100
AcDbEntity
  8
部品1
 48
0.01
100
AcDbLine
 10
6305.791854839192
 20
4674.984612627041
 30
0.0
 11
6305.791854839192
 21
4643.484612627042
 31
0.0
  0
LINE
  5
20C91
330
747D
100
AcDbEntity
  8
部品1
 48
0.01
100
AcDbLine
 10
6303.791854839193
 20
4641.484612627042
 30
0.0
 11
6127.791854839193
 21
4641.484612627042
 31
0.0
  0
LINE
  5
20C92
330
747D
100
AcDbEntity
  8
部品1
 48
0.01
100
AcDbLine
 10
6125.791854839192
 20
4643.484612627042
 30
0.0
 11
6125.791854839192
 21
4674.984612627041
 31
0.0
  0
LINE
  5
20C93
330
747D
100
AcDbEntity
  8
細線
100
AcDbLine
 10
6289.791854839193
 20
4670.484612627042
 30
0.0
 11
6289.791854839193
 21
4647.484612627041
 31
0.0
  0
LINE
  5
20C94
330
747D
100
AcDbEntity
  8
細線
100
AcDbLine
 10
6141.791854839192
 20
4647.484612627041
 30
0.0
 11
6141.791854839192
 21
4670.484612627042
 31
0.0
  0
LINE
  5
20C95
330
747D
100
AcDbEntity
  8
細線
100
AcDbLine
 10
6141.791854839192
 20
4670.484612627042
 30
0.0
 11
6215.791854839192
 21
4670.484612627042
 31
0.0
  0
LINE
  5
20C96
330
747D
100
AcDbEntity
  8
細線
100
AcDbLine
 10
6289.791854839193
 20
4647.484612627041
 30
0.0
 11
6215.791854839192
 21
4647.484612627041
 31
0.0
  0
LINE
  5
20C97
330
747D
100
AcDbEntity
  8
細線
100
AcDbLine
 10
6215.791854839192
 20
4670.484612627042
 30
0.0
 11
6289.791854839193
 21
4670.484612627042
 31
0.0
  0
LINE
  5
20C98
330
747D
100
AcDbEntity
  8
細線
100
AcDbLine
 10
6215.791854839192
 20
4647.484612627041
 30
0.0
 11
6141.791854839192
 21
4647.484612627041
 31
0.0
  0
ARC
  5
20C99
330
747D
100
AcDbEntity
  8
部品1
 48
0.01
100
AcDbCircle
 10
6303.791854839193
 20
4674.984612627041
 30
0.0
 40
2.0
100
AcDbArc
 50
0.0
 51
90.0
  0
ARC
  5
20C9A
330
747D
100
AcDbEntity
  8
部品1
 48
0.01
100
AcDbCircle
 10
6303.791854839193
 20
4643.484612627042
 30
0.0
 40
2.0
100
AcDbArc
 50
270.0
 51
0.0
  0
ARC
  5
20C9B
330
747D
100
AcDbEntity
  8
部品1
 48
0.01
100
AcDbCircle
 10
6127.791854839193
 20
4674.984612627041
 30
0.0
 40
2.0
100
AcDbArc
 50
90.0
 51
180.0
  0
ARC
  5
20C9C
330
747D
100
AcDbEntity
  8
部品1
 48
0.01
100
AcDbCircle
 10
6127.791854839193
 20
4643.484612627042
 30
0.0
 40
2.0
100
AcDbArc
 50
180.0
 51
270.0
  0
LINE
  5
20CBA
330
747D
100
AcDbEntity
  8
細線
100
AcDbLine
 10
5824.79185483919
 20
4602.984612627044
 30
0.0
 11
5824.791854839193
 21
2519.984612627048
 31
0.0
  0
LINE
  5
20CBB
330
747D
100
AcDbEntity
  8
細線
100
AcDbLine
 10
5858.791854839191
 20
4602.984612627045
 30
0.0
 11
5858.791854839193
 21
2519.98461262705
 31
0.0
  0
LINE
  5
20CBC
330
747D
100
AcDbEntity
  8
部品1
100
AcDbLine
 10
5816.791854839191
 20
4602.984612627044
 30
0.0
 11
5816.791854839192
 21
2519.984612627048
 31
0.0
  0
LINE
  5
20CBD
330
747D
100
AcDbEntity
  8
部品1
100
AcDbLine
 10
5866.791854839191
 20
4602.984612627045
 30
0.0
 11
5866.791854839192
 21
2519.98461262705
 31
0.0
  0
LINE
  5
20CBE
330
747D
100
AcDbEntity
  8
細線
100
AcDbLine
 10
6050.791854839193
 20
4602.984612627045
 30
0.0
 11
6050.791854839193
 21
2519.984612627046
 31
0.0
  0
LINE
  5
20CBF
330
747D
100
AcDbEntity
  8
細線
100
AcDbLine
 10
6120.791854839193
 20
4602.984612627044
 30
0.0
 11
6120.791854839193
 21
2519.984612627048
 31
0.0
  0
LINE
  5
20CC0
330
747D
100
AcDbEntity
  8
細線
100
AcDbLine
 10
6190.791854839194
 20
4602.984612627044
 30
0.0
 11
6190.791854839193
 21
2519.984612627048
 31
0.0
  0
LINE
  5
20CC1
330
747D
100
AcDbEntity
  8
細線
100
AcDbLine
 10
6260.791854839194
 20
4602.984612627045
 30
0.0
 11
6260.791854839193
 21
2519.98461262705
 31
0.0
  0
LINE
  5
20CC2
330
747D
100
AcDbEntity
  8
細線
100
AcDbLine
 10
4450.791854839192
 20
4602.984612627046
 30
0.0
 11
6960.791854839192
 21
4602.984612627042
 31
0.0
  0
LINE
  5
20CC3
330
747D
100
AcDbEntity
  8
部品1
100
AcDbLine
 10
4390.791854839192
 20
2512.984612627042
 30
0.0
 11
7020.791854839192
 21
2512.984612627066
 31
0.0
  0
DIMENSION
  5
20CC4
330
747D
100
AcDbEntity
  8
寸法
 48
50.0
100
AcDbDimension
  2
*D1
 10
4390.791854839192
 20
5058.526197885287
 30
0.0
 11
5806.313767406317
 21
5058.526197885287
 31
0.0
 70
   160
  1
柱外寸法<>
 71
     5
 42
2630.0
  3
INABA_S40G
100
AcDbAlignedDimension
 13
7020.791854839193
 23
4845.984612627048
 33
0.0
 14
4390.791854839192
 24
4845.98461262705
 34
0.0
100
AcDbRotatedDimension
  0
LINE
  5
20CCB
330
747D
100
AcDbEntity
  8
部品1
100
AcDbLine
 10
6360.791854839193
 20
2527.48461262706
 30
0.0
 11
6960.791854839192
 21
2527.484612627068
 31
0.0
  0
DIMENSION
  5
20CCC
330
747D
100
AcDbEntity
  8
寸法
 48
50.0
100
AcDbDimension
  2
*D2
 10
4340.791854839192
 20
5058.526197885287
 30
0.0
 11
4027.306573464946
 21
5058.526197885287
 31
0.0
 70
   160
 71
     5
 42
50.0
  3
INABA_S40G
100
AcDbAlignedDimension
 13
4390.791854839192
 23
4845.98461262705
 33
0.0
 14
4340.791854839192
 24
4845.984612627048
 34
0.0
100
AcDbRotatedDimension
1001
ACAD
1000
DSTYLE
1002
{
1002
}
  0
DIMENSION
  5
20CCD
330
747D
100
AcDbEntity
  8
寸法
 48
50.0
100
AcDbDimension
  2
*D3
 10
7020.791854839193
 20
5058.526197885287
 30
0.0
 11
7384.277136213428
 21
5058.526197885287
 31
0.0
 70
   160
 71
     5
 42
50.0
  3
INABA_S40G
100
AcDbAlignedDimension
 13
7070.791854839193
 23
4845.984612627046
 33
0.0
 14
7020.791854839193
 24
4845.984612627048
 34
0.0
100
AcDbRotatedDimension
  0
LINE
  5
20CD0
330
747D
100
AcDbEntity
  8
部品1
100
AcDbLine
 10
7020.791854839192
 20
4704.984612627048
 30
0.0
 11
7020.791854839193
 21
2370.984612627042
 31
0.0
  0
LINE
  5
20CD1
330
747D
100
AcDbEntity
  8
部品1
100
AcDbLine
 10
4450.791854839192
 20
4610.984612627042
 30
0.0
 11
4450.791854839192
 21
2512.984612627046
 31
0.0
  0
LINE
  5
20CD2
330
747D
100
AcDbEntity
  8
部品1
100
AcDbLine
 10
6960.791854839193
 20
4610.984612627044
 30
0.0
 11
6960.791854839192
 21
2512.984612627062
 31
0.0
  0
LINE
  5
20CD3
330
747D
100
AcDbEntity
  8
部品1
100
AcDbLine
 10
4390.791854839192
 20
4704.984612627048
 30
0.0
 11
4390.791854839192
 21
2370.984612627042
 31
0.0
  0
DIMENSION
  5
20CD4
330
747D
100
AcDbEntity
  8
寸法
 48
50.0
100
AcDbDimension
  2
*D4
 10
7070.791854839193
 20
5273.921629367542
 30
0.0
 11
5748.358176346016
 21
5273.921629367542
 31
0.0
 70
   160
 71
     5
 42
2730.0
  3
INABA_S40G
100
AcDbAlignedDimension
 13
4340.791854839192
 23
4845.984612627048
 33
0.0
 14
7070.791854839193
 24
4845.984612627046
 34
0.0
100
AcDbRotatedDimension
  0
LINE
  5
20CD5
330
747D
100
AcDbEntity
  8
部品1
100
AcDbLine
 10
5050.791854839193
 20
2519.984612627035
 30
0.0
 11
6360.791854839193
 21
2519.98461262705
 31
0.0
  0
LINE
  5
20CD6
330
747D
100
AcDbEntity
  8
部品1
100
AcDbLine
 10
4390.791854839192
 20
4610.984612627042
 30
0.0
 11
7020.791854839192
 21
4610.984612627044
 31
0.0
  0
LINE
  5
20CD7
330
747D
100
AcDbEntity
  8
部品1
100
AcDbLine
 10
4390.791854839192
 20
2470.984612627042
 30
0.0
 11
7020.791854839192
 21
2470.984612627042
 31
0.0
  0
TEXT
  5
20CD8
330
747D
100
AcDbEntity
  8
部品1
100
AcDbText
 10
3730.440526898786
 20
2384.938340666268
 30
0.0
 40
125.0
  1
▽G.L
  7
STYLE2
100
AcDbText
  0
LINE
  5
20CDE
330
747D
100
AcDbEntity
  8
部品1
 48
50.0
100
AcDbLine
 10
5705.791854839194
 20
4602.984612627045
 30
0.0
 11
5705.791854839194
 21
3455.484612627054
 31
0.0
  0
LINE
  5
20CDF
330
747D
100
AcDbEntity
  8
部品1
 48
50.0
100
AcDbLine
 10
6360.791854839194
 20
4602.984612627044
 30
0.0
 11
6360.791854839193
 21
2519.98461262705
 31
0.0
  0
LINE
  5
20CE0
330
747D
100
AcDbEntity
  8
部品1
 48
50.0
100
AcDbLine
 10
5050.791854839193
 20
4602.984612627045
 30
0.0
 11
5050.791854839193
 21
2519.984612627035
 31
0.0
  0
LINE
  5
20CE1
330
747D
100
AcDbEntity
  8
部品1
100
AcDbLine
 10
5594.791854839194
 20
4602.984612627046
 30
0.0
 11
5594.791854839196
 21
2519.984612627048
 31
0.0
  0
LINE
  5
20CE2
330
747D
100
AcDbEntity
  8
部品1
100
AcDbLine
 10
5544.791854839195
 20
4602.984612627045
 30
0.0
 11
5544.791854839196
 21
2519.984612627046
 31
0.0
  0
LINE
  5
20CE3
330
747D
100
AcDbEntity
  8
細線
100
AcDbLine
 10
5586.791854839194
 20
4602.984612627046
 30
0.0
 11
5586.791854839196
 21
2519.984612627048
 31
0.0
  0
LINE
  5
20CE4
330
747D
100
AcDbEntity
  8
細線
100
AcDbLine
 10
5552.791854839195
 20
4602.984612627045
 30
0.0
 11
5552.791854839196
 21
2519.984612627046
 31
0.0
  0
LINE
  5
20CE5
330
747D
100
AcDbEntity
  8
細線
100
AcDbLine
 10
5150.791854839193
 20
4602.984612627046
 30
0.0
 11
5150.791854839193
 21
2519.98461262705
 31
0.0
  0
LINE
  5
20CE6
330
747D
100
AcDbEntity
  8
細線
100
AcDbLine
 10
5220.791854839194
 20
4602.984612627045
 30
0.0
 11
5220.791854839193
 21
2519.984612627048
 31
0.0
  0
LINE
  5
20CE7
330
747D
100
AcDbEntity
  8
細線
100
AcDbLine
 10
5290.791854839192
 20
4602.984612627045
 30
0.0
 11
5290.791854839192
 21
2519.984612627048
 31
0.0
  0
LINE
  5
20CE8
330
747D
100
AcDbEntity
  8
細線
100
AcDbLine
 10
5360.791854839193
 20
4602.984612627046
 30
0.0
 11
5360.791854839193
 21
2519.984612627046
 31
0.0
  0
LINE
  5
20CE9
330
747D
100
AcDbEntity
  8
細線
100
AcDbLine
 10
5430.791854839194
 20
4602.984612627046
 30
0.0
 11
5430.791854839192
 21
2519.984612627046
 31
0.0
  0
LINE
  5
20CEA
330
747D
100
AcDbEntity
  8
細線
100
AcDbLine
 10
5500.791854839193
 20
4602.984612627046
 30
0.0
 11
5500.791854839192
 21
2519.984612627046
 31
0.0
  0
LINE
  5
20CEB
330
747D
100
AcDbEntity
  8
部品1
100
AcDbLine
 10
4450.791854839192
 20
2527.484612627063
 30
0.0
 11
5050.791854839193
 21
2527.484612627068
 31
0.0
  0
LINE
  5
20CEC
330
747D
100
AcDbEntity
  8
細線
100
AcDbLine
 10
6417.791854839193
 20
4602.984612627043
 30
0.0
 11
6417.791854839193
 21
2527.484612627063
 31
0.0
  0
LINE
  5
20CED
330
747D
100
AcDbEntity
  8
細線
100
AcDbLine
 10
6487.791854839193
 20
4602.984612627043
 30
0.0
 11
6487.791854839193
 21
2527.484612627063
 31
0.0
  0
LINE
  5
20CEE
330
747D
100
AcDbEntity
  8
細線
100
AcDbLine
 10
6557.791854839192
 20
4602.984612627043
 30
0.0
 11
6557.791854839192
 21
2527.484612627063
 31
0.0
  0
LINE
  5
20CEF
330
747D
100
AcDbEntity
  8
細線
100
AcDbLine
 10
6627.791854839192
 20
4602.984612627043
 30
0.0
 11
6627.791854839192
 21
2527.484612627063
 31
0.0
  0
LINE
  5
20CF0
330
747D
100
AcDbEntity
  8
細線
100
AcDbLine
 10
6697.791854839192
 20
4602.984612627043
 30
0.0
 11
6697.791854839192
 21
2527.484612627063
 31
0.0
  0
LINE
  5
20CF1
330
747D
100
AcDbEntity
  8
細線
100
AcDbLine
 10
6767.791854839192
 20
4602.984612627043
 30
0.0
 11
6767.791854839193
 21
2527.484612627063
 31
0.0
  0
LINE
  5
20CF2
330
747D
100
AcDbEntity
  8
細線
100
AcDbLine
 10
6837.791854839193
 20
4602.984612627043
 30
0.0
 11
6837.791854839193
 21
2527.484612627063
 31
0.0
  0
LINE
  5
20CF3
330
747D
100
AcDbEntity
  8
細線
100
AcDbLine
 10
6907.791854839193
 20
4602.984612627043
 30
0.0
 11
6907.791854839193
 21
2527.484612627063
 31
0.0
  0
LINE
  5
20CF4
330
747D
100
AcDbEntity
  8
細線
100
AcDbLine
 10
4503.791854839192
 20
4602.984612627046
 30
0.0
 11
4503.791854839192
 21
2527.484612627053
 31
0.0
  0
LINE
  5
20CF5
330
747D
100
AcDbEntity
  8
細線
100
AcDbLine
 10
4573.791854839192
 20
4602.984612627045
 30
0.0
 11
4573.791854839192
 21
2527.484612627053
 31
0.0
  0
LINE
  5
20CF6
330
747D
100
AcDbEntity
  8
細線
100
AcDbLine
 10
4643.791854839192
 20
4602.984612627045
 30
0.0
 11
4643.791854839192
 21
2527.484612627053
 31
0.0
  0
LINE
  5
20CF7
330
747D
100
AcDbEntity
  8
細線
100
AcDbLine
 10
4713.791854839192
 20
4602.984612627045
 30
0.0
 11
4713.791854839192
 21
2527.484612627053
 31
0.0
  0
LINE
  5
20CF8
330
747D
100
AcDbEntity
  8
細線
100
AcDbLine
 10
4783.791854839194
 20
4602.984612627045
 30
0.0
 11
4783.791854839193
 21
2527.484612627053
 31
0.0
  0
LINE
  5
20CF9
330
747D
100
AcDbEntity
  8
細線
100
AcDbLine
 10
4853.791854839192
 20
4602.984612627045
 30
0.0
 11
4853.791854839193
 21
2527.484612627053
 31
0.0
  0
LINE
  5
20CFA
330
747D
100
AcDbEntity
  8
細線
100
AcDbLine
 10
4923.791854839191
 20
4602.984612627045
 30
0.0
 11
4923.791854839192
 21
2527.484612627053
 31
0.0
  0
LINE
  5
20CFB
330
747D
100
AcDbEntity
  8
細線
100
AcDbLine
 10
4993.791854839193
 20
4602.984612627045
 30
0.0
 11
4993.791854839193
 21
2527.484612627053
 31
0.0
  0
LINE
  5
22DB0
330
747D
100
AcDbEntity
  8
細線
100
AcDbLine
 10
6351.304161488239
 20
7452.191688367297
 30
0.0
 11
6351.304161488239
 21
7452.891688367298
 31
0.0
  0
ARC
  5
22DB1
330
747D
100
AcDbEntity
  8
細線
100
AcDbCircle
 10
6349.304161488238
 20
7452.191688367297
 30
0.0
 40
2.0
100
AcDbArc
 50
270.0
 51
0.0
  0
LINE
  5
22DB2
330
747D
100
AcDbEntity
  8
細線
100
AcDbLine
 10
6347.304161488239
 20
7450.191688367296
 30
0.0
 11
6349.304161488238
 21
7450.191688367296
 31
0.0
  0
LINE
  5
22DB3
330
747D
100
AcDbEntity
  8
細線
100
AcDbLine
 10
6345.304161488239
 20
7452.191688367297
 30
0.0
 11
6345.304161488239
 21
7452.891688367298
 31
0.0
  0
ARC
  5
22DB4
330
747D
100
AcDbEntity
  8
細線
100
AcDbCircle
 10
6347.304161488239
 20
7452.191688367297
 30
0.0
 40
2.0
100
AcDbArc
 50
180.0
 51
270.0
  0
LINE
  5
22DBC
330
747D
100
AcDbEntity
  8
細線
100
AcDbLine
 10
6345.304161488241
 20
7439.891688367293
 30
0.0
 11
6345.304161488242
 21
7446.891688367291
 31
0.0
  0
LINE
  5
22DBD
330
747D
100
AcDbEntity
  8
細線
100
AcDbLine
 10
6360.304161488244
 20
7446.891688367296
 30
0.0
 11
6345.304161488242
 21
7446.891688367291
 31
0.0
  0
LINE
  5
22DBE
330
747D
100
AcDbEntity
  8
細線
100
AcDbLine
 10
6360.304161488237
 20
7416.891688367297
 30
0.0
 11
6360.304161488246
 21
7446.891688367296
 31
0.0
  0
ARC
  5
22DC3
330
747D
100
AcDbEntity
  8
細線
100
AcDbCircle
 10
6155.304167988138
 20
7442.391688367296
 30
0.0
 40
6.0
100
AcDbArc
 50
204.6243183521779
 51
335.3756816478222
  0
LINE
  5
22DC7
330
747D
100
AcDbEntity
  8
細線
100
AcDbLine
 10
6907.304161488231
 20
7452.89168836733
 30
0.0
 11
6904.972623197465
 21
7457.891688367316
 31
0.0
  0
LINE
  5
22DC8
330
747D
100
AcDbEntity
  8
細線
100
AcDbLine
 10
6904.972623197465
 20
7457.891688367316
 30
0.0
 11
6839.635699778991
 21
7457.891688367304
 31
0.0
  0
LINE
  5
22DC9
330
747D
100
AcDbEntity
  8
細線
100
AcDbLine
 10
6837.304161488237
 20
7452.891688367349
 30
0.0
 11
6839.635699779005
 21
7457.891688367334
 31
0.0
  0
LINE
  5
22DCA
330
747D
100
AcDbEntity
  8
細線
100
AcDbLine
 10
6837.304161488224
 20
7452.891688367319
 30
0.0
 11
6767.304161488223
 21
7452.891688367319
 31
0.0
  0
LINE
  5
22DD2
330
747D
100
AcDbEntity
  8
細線
100
AcDbLine
 10
6360.304161488237
 20
7416.891688367369
 30
0.0
 11
6260.304161488215
 21
7416.891688367356
 31
0.0
  0
LINE
  5
22DD6
330
747D
100
AcDbEntity
  8
細線
100
AcDbLine
 10
6417.304161488239
 20
7452.891688367301
 30
0.0
 11
6351.304161488239
 21
7452.891688367303
 31
0.0
  0
LINE
  5
22DD7
330
747D
100
AcDbEntity
  8
細線
100
AcDbLine
 10
6557.304161488227
 20
7452.891688367298
 30
0.0
 11
6487.304161488217
 21
7452.891688367298
 31
0.0
  0
LINE
  5
22DD8
330
747D
100
AcDbEntity
  8
細線
100
AcDbLine
 10
6697.304161488222
 20
7452.891688367298
 30
0.0
 11
6627.304161488222
 21
7452.891688367298
 31
0.0
  0
LINE
  5
22DD9
330
747D
100
AcDbEntity
  8
細線
100
AcDbLine
 10
6417.304161488239
 20
7452.891688367301
 30
0.0
 11
6419.635699779002
 21
7457.891688367273
 31
0.0
  0
LINE
  5
22DDA
330
747D
100
AcDbEntity
  8
細線
100
AcDbLine
 10
6487.304161488228
 20
7452.89168836727
 30
0.0
 11
6484.972623197461
 21
7457.891688367256
 31
0.0
  0
LINE
  5
22DDB
330
747D
100
AcDbEntity
  8
細線
100
AcDbLine
 10
6484.972623197461
 20
7457.891688367256
 30
0.0
 11
6419.635699778988
 21
7457.891688367245
 31
0.0
  0
LINE
  5
22DDC
330
747D
100
AcDbEntity
  8
細線
100
AcDbLine
 10
6557.304161488232
 20
7452.891688367309
 30
0.0
 11
6559.635699779001
 21
7457.891688367293
 31
0.0
  0
LINE
  5
22DDD
330
747D
100
AcDbEntity
  8
細線
100
AcDbLine
 10
6627.304161488227
 20
7452.891688367291
 30
0.0
 11
6624.972623197461
 21
7457.891688367276
 31
0.0
  0
LINE
  5
22DDE
330
747D
100
AcDbEntity
  8
細線
100
AcDbLine
 10
6624.972623197461
 20
7457.891688367276
 30
0.0
 11
6559.635699778986
 21
7457.891688367265
 31
0.0
  0
LINE
  5
22DDF
330
747D
100
AcDbEntity
  8
細線
100
AcDbLine
 10
6697.304161488235
 20
7452.891688367329
 30
0.0
 11
6699.635699779003
 21
7457.891688367315
 31
0.0
  0
LINE
  5
22DE0
330
747D
100
AcDbEntity
  8
細線
100
AcDbLine
 10
6764.972623197462
 20
7457.891688367296
 30
0.0
 11
6699.635699778989
 21
7457.891688367284
 31
0.0
  0
LINE
  5
22DE1
330
747D
100
AcDbEntity
  8
細線
100
AcDbLine
 10
6767.30416148823
 20
7452.89168836731
 30
0.0
 11
6764.972623197462
 21
7457.891688367296
 31
0.0
  0
ARC
  5
22DEB
330
747D
100
AcDbEntity
  8
部品1
 48
0.01
100
AcDbCircle
 10
5866.304161488232
 20
7415.891688367317
 30
0.0
 40
0.5
100
AcDbArc
 50
270.0
 51
0.0
  0
LINE
  5
22DEC
330
747D
100
AcDbEntity
  8
部品1
 48
0.01
100
AcDbLine
 10
5866.804161488231
 20
7416.891688367318
 30
0.0
 11
5866.804161488231
 21
7415.891688367317
 31
0.0
  0
LINE
  5
22DED
330
747D
100
AcDbEntity
  8
部品1
 48
0.01
100
AcDbLine
 10
5866.804161488231
 20
7416.891688367318
 30
0.0
 11
5866.804161488231
 21
7415.891688367317
 31
0.0
  0
LINE
  5
22DEE
330
747D
100
AcDbEntity
  8
部品1
 48
0.01
100
AcDbLine
 10
5866.304161488232
 20
7415.391688367318
 30
0.0
 11
5859.691656058169
 21
7415.391688367318
 31
0.0
  0
ARC
  5
22DEF
330
747D
100
AcDbEntity
  8
部品1
100
AcDbCircle
 10
5859.760005610946
 20
7416.391688367318
 30
0.0
 40
1.0
100
AcDbArc
 50
160.5287793655287
 51
270.0
  0
ARC
  5
22DF0
330
747D
100
AcDbEntity
  8
部品1
100
AcDbCircle
 10
5834.304161488232
 20
7425.391688367317
 30
0.0
 40
26.0
100
AcDbArc
 50
340.5287793655287
 51
0.0
  0
LINE
  5
22DF1
330
747D
100
AcDbEntity
  8
部品1
100
AcDbLine
 10
5860.304161488231
 20
7425.391688367317
 30
0.0
 11
5860.304161488231
 21
7430.391688367318
 31
0.0
  0
ARC
  5
22DF2
330
747D
100
AcDbEntity
  8
部品1
 48
0.01
100
AcDbCircle
 10
5858.304161488231
 20
7430.391688367318
 30
0.0
 40
2.0
100
AcDbArc
 50
0.0
 51
90.0
  0
ARC
  5
22DF3
330
747D
100
AcDbEntity
  8
部品1
100
AcDbCircle
 10
5856.69576986342
 20
7429.391688367317
 30
0.0
 40
3.0
100
AcDbArc
 50
90.0
 51
141.6069559807873
  0
LINE
  5
22DF4
330
747D
100
AcDbEntity
  8
部品1
 48
0.01
100
AcDbLine
 10
5858.304161488231
 20
7432.391688367317
 30
0.0
 11
5856.69576986342
 21
7432.391688367317
 31
0.0
  0
ARC
  5
22DF5
330
747D
100
AcDbEntity
  8
部品1
100
AcDbCircle
 10
5838.233447273958
 20
7428.691688367317
 30
0.0
 40
3.0
100
AcDbArc
 50
254.0576313943716
 51
270.0
  0
ARC
  5
22DF6
330
747D
100
AcDbEntity
  8
部品1
100
AcDbCircle
 10
5845.374875702503
 20
7428.691688367317
 30
0.0
 40
3.0
100
AcDbArc
 50
270.0
 51
285.9423686056284
  0
LINE
  5
22DF7
330
747D
100
AcDbEntity
  8
部品1
100
AcDbLine
 10
5845.374875702503
 20
7425.691688367317
 30
0.0
 11
5838.233447273958
 21
7425.691688367317
 31
0.0
  0
ARC
  5
22DF8
330
747D
100
AcDbEntity
  8
部品1
100
AcDbCircle
 10
5841.804161488231
 20
7441.191688367317
 30
0.0
 40
16.0
100
AcDbArc
 50
285.9423686056284
 51
321.6069559807873
  0
LINE
  5
22DF9
330
747D
100
AcDbEntity
  8
部品1
 48
0.01
100
AcDbLine
 10
5825.304161488231
 20
7432.391688367317
 30
0.0
 11
5826.912553113043
 21
7432.391688367317
 31
0.0
  0
ARC
  5
22DFA
330
747D
100
AcDbEntity
  8
部品1
100
AcDbCircle
 10
5826.912553113043
 20
7429.391688367317
 30
0.0
 40
3.0
100
AcDbArc
 50
38.39304401921267
 51
90.0
  0
ARC
  5
22DFB
330
747D
100
AcDbEntity
  8
部品1
100
AcDbCircle
 10
5841.804161488231
 20
7441.191688367317
 30
0.0
 40
16.0
100
AcDbArc
 50
218.3930440192126
 51
254.0576313943716
  0
LINE
  5
22DFC
330
747D
100
AcDbEntity
  8
部品1
100
AcDbLine
 10
5823.304161488231
 20
7425.391688367317
 30
0.0
 11
5823.304161488231
 21
7430.391688367318
 31
0.0
  0
ARC
  5
22DFD
330
747D
100
AcDbEntity
  8
部品1
 48
0.01
100
AcDbCircle
 10
5825.304161488231
 20
7430.391688367318
 30
0.0
 40
2.0
100
AcDbArc
 50
90.0
 51
180.0
  0
ARC
  5
22DFE
330
747D
100
AcDbEntity
  8
部品1
100
AcDbCircle
 10
5849.304161488231
 20
7425.391688367317
 30
0.0
 40
26.0
100
AcDbArc
 50
180.0
 51
199.4712206344713
  0
ARC
  5
22DFF
330
747D
100
AcDbEntity
  8
部品1
 48
0.01
100
AcDbCircle
 10
5817.304161488231
 20
7415.891688367317
 30
0.0
 40
0.5
100
AcDbArc
 50
180.0
 51
270.0
  0
LINE
  5
22E00
330
747D
100
AcDbEntity
  8
部品1
 48
0.01
100
AcDbLine
 10
5817.304161488231
 20
7415.391688367318
 30
0.0
 11
5823.848317365515
 21
7415.391688367318
 31
0.0
  0
LINE
  5
22E01
330
747D
100
AcDbEntity
  8
部品1
 48
0.01
100
AcDbLine
 10
5816.804161488231
 20
7416.891688367318
 30
0.0
 11
5816.804161488231
 21
7415.891688367317
 31
0.0
  0
ARC
  5
22E02
330
747D
100
AcDbEntity
  8
部品1
100
AcDbCircle
 10
5823.848317365515
 20
7416.391688367318
 30
0.0
 40
1.0
100
AcDbArc
 50
270.0
 51
19.47122063447127
  0
LINE
  5
22E03
330
747D
100
AcDbEntity
  8
細線
100
AcDbLine
 10
5862.304161488236
 20
7434.891688367317
 30
0.0
 11
5821.304161488237
 21
7434.891688367314
 31
0.0
  0
LINE
  5
22E04
330
747D
100
AcDbEntity
  8
細線
100
AcDbLine
 10
5821.304161488237
 20
7434.891688367314
 30
0.0
 11
5821.304161488237
 21
7416.891688367297
 31
0.0
  0
LINE
  5
22E05
330
747D
100
AcDbEntity
  8
細線
100
AcDbLine
 10
5862.304161488236
 20
7434.891688367317
 30
0.0
 11
5862.304161488236
 21
7416.891688367297
 31
0.0
  0
LINE
  5
22E06
330
747D
100
AcDbEntity
  8
細線
100
AcDbLine
 10
5910.304161488237
 20
7416.891688367297
 30
0.0
 11
5912.635699779005
 21
7421.89168836728
 31
0.0
  0
LINE
  5
22E07
330
747D
100
AcDbEntity
  8
細線
100
AcDbLine
 10
5980.304161488231
 20
7416.891688367278
 30
0.0
 11
5977.972623197463
 21
7421.891688367264
 31
0.0
  0
LINE
  5
22E08
330
747D
100
AcDbEntity
  8
細線
100
AcDbLine
 10
5977.972623197466
 20
7421.891688367264
 30
0.0
 11
5912.635699778991
 21
7421.891688367252
 31
0.0
  0
LINE
  5
22E09
330
747D
100
AcDbEntity
  8
細線
100
AcDbLine
 10
6050.304161488237
 20
7416.891688367316
 30
0.0
 11
6052.635699779004
 21
7421.891688367302
 31
0.0
  0
LINE
  5
22E0A
330
747D
100
AcDbEntity
  8
細線
100
AcDbLine
 10
6120.304161488231
 20
7416.891688367297
 30
0.0
 11
6117.972623197464
 21
7421.891688367283
 31
0.0
  0
LINE
  5
22E0B
330
747D
100
AcDbEntity
  8
細線
100
AcDbLine
 10
6117.972623197464
 20
7421.891688367283
 30
0.0
 11
6052.635699778989
 21
7421.891688367272
 31
0.0
  0
LINE
  5
22E0C
330
747D
100
AcDbEntity
  8
細線
100
AcDbLine
 10
6190.304161488239
 20
7416.891688367336
 30
0.0
 11
6192.635699779007
 21
7421.891688367321
 31
0.0
  0
LINE
  5
22E0D
330
747D
100
AcDbEntity
  8
細線
100
AcDbLine
 10
5910.304161488252
 20
7416.891688367326
 30
0.0
 11
5696.791854839187
 21
7416.891688367293
 31
0.0
  0
LINE
  5
22E0E
330
747D
100
AcDbEntity
  8
細線
100
AcDbLine
 10
6050.304161488238
 20
7416.891688367273
 30
0.0
 11
5980.304161488239
 21
7416.891688367262
 31
0.0
  0
LINE
  5
22E0F
330
747D
100
AcDbEntity
  8
細線
100
AcDbLine
 10
6190.304161488237
 20
7416.891688367292
 30
0.0
 11
6120.304161488236
 21
7416.891688367283
 31
0.0
  0
LINE
  5
22E10
330
747D
100
AcDbEntity
  8
細線
100
AcDbLine
 10
6257.972623197465
 20
7421.891688367303
 30
0.0
 11
6192.635699778992
 21
7421.891688367292
 31
0.0
  0
LINE
  5
22E11
330
747D
100
AcDbEntity
  8
細線
100
AcDbLine
 10
6260.304161488215
 20
7416.891688367356
 30
0.0
 11
6257.972623197465
 21
7421.891688367303
 31
0.0
  0
LINE
  5
22E13
330
747D
100
AcDbEntity
  8
細線
100
AcDbLine
 10
5705.804161488237
 20
7446.891688367293
 30
0.0
 11
5705.804161488237
 21
7416.891688367297
 31
0.0
  0
LINE
  5
22E1D
330
747D
100
AcDbEntity
  8
細線
100
AcDbLine
 10
6185.304161488162
 20
7416.891688367394
 30
0.0
 11
6177.804161488168
 21
7439.891688367322
 31
0.0
  0
LINE
  5
22E1E
330
747D
100
AcDbEntity
  8
細線
100
AcDbLine
 10
6125.304161488163
 20
7416.891688367404
 30
0.0
 11
6132.804161488167
 21
7439.891688367322
 31
0.0
  0
LINE
  5
22E21
330
747D
100
AcDbEntity
  8
細線
100
AcDbLine
 10
6522.80416148824
 20
7480.891688367298
 30
0.0
 11
6507.804161488238
 21
7452.891688367301
 31
0.0
  0
LINE
  5
22E22
330
747D
100
AcDbEntity
  8
細線
100
AcDbLine
 10
6537.804161488239
 20
7480.891688367298
 30
0.0
 11
6537.804161488238
 21
7452.891688367301
 31
0.0
  0
LINE
  5
22E26
330
747D
100
AcDbEntity
  8
細線
100
AcDbLine
 10
6345.304161488239
 20
7452.891688367298
 30
0.0
 11
6339.304161488239
 21
7452.891688367298
 31
0.0
  0
LINE
  5
22E4D
330
747D
100
AcDbEntity
  8
細線
100
AcDbLine
 10
6960.791887824182
 20
7448.891688367308
 30
0.0
 11
6960.791887824183
 21
7452.891688367299
 31
0.0
  0
LINE
  5
22E53
330
747D
100
AcDbEntity
  8
細線
100
AcDbLine
 10
6319.304161488239
 20
7444.891688367298
 30
0.0
 11
6319.304161488239
 21
7480.891688367304
 31
0.0
  0
LINE
  5
22E54
330
747D
100
AcDbEntity
  8
細線
100
AcDbLine
 10
6339.304161488239
 20
7444.891688367298
 30
0.0
 11
6319.304161488239
 21
7444.891688367298
 31
0.0
  0
LINE
  5
22E55
330
747D
100
AcDbEntity
  8
細線
100
AcDbLine
 10
6339.304161488239
 20
7444.891688367298
 30
0.0
 11
6339.304161488239
 21
7452.891688367298
 31
0.0
  0
LINE
  5
22E56
330
747D
100
AcDbEntity
  8
細線
100
AcDbLine
 10
6992.791854839163
 20
7480.891688367292
 30
0.0
 11
6319.304161488239
 21
7480.891688367304
 31
0.0
  0
LINE
  5
22E57
330
747D
100
AcDbEntity
  8
細線
 48
50.0
100
AcDbLine
 10
6907.304161488238
 20
7429.891688367304
 30
0.0
 11
6360.30416148824
 21
7429.891688367304
 31
0.0
  0
LINE
  5
22E58
330
747D
100
AcDbEntity
  8
細線
100
AcDbLine
 10
6960.791887824183
 20
7452.891688367298
 30
0.0
 11
6907.304161488238
 21
7452.891688367301
 31
0.0
  0
LINE
  5
22E5E
330
747D
100
AcDbEntity
  8
細線
100
AcDbLine
 10
5720.804161488237
 20
7446.891688367293
 30
0.0
 11
5705.804161488237
 21
7446.891688367293
 31
0.0
  0
LINE
  5
22E5F
330
747D
100
AcDbEntity
  8
細線
100
AcDbLine
 10
5720.804161488237
 20
7446.891688367293
 30
0.0
 11
5720.804161488237
 21
7439.891688367294
 31
0.0
  0
LINE
  5
22E68
330
747D
100
AcDbEntity
  8
部品1
100
AcDbLine
 10
6116.304161488246
 20
7413.891688367176
 30
0.0
 11
6065.304161488246
 21
7413.891688367176
 31
0.0
  0
LINE
  5
22E69
330
747D
100
AcDbEntity
  8
細線
100
AcDbLine
 10
6345.304161488239
 20
7439.891688367389
 30
0.0
 11
5720.804161488237
 21
7439.891688367294
 31
0.0
  0
LINE
  5
22E74
330
747D
100
AcDbEntity
  8
細線
 48
50.0
100
AcDbLine
 10
6960.791887824183
 20
7429.89168836738
 30
0.0
 11
6500.804161488243
 21
7429.89168836738
 31
0.0
  0
DIMENSION
  5
22E8D
330
747D
100
AcDbEntity
  8
寸法
100
AcDbDimension
  2
*D13
 10
7966.920452883207
 20
7413.891688367312
 30
0.0
 11
7966.920452883205
 21
8726.875716299984
 31
0.0
 70
   160
 71
     5
 42
2630.000000000049
  3
INABA_S40G
100
AcDbAlignedDimension
 13
7020.791854839228
 23
10043.89168836736
 33
0.0
 14
7020.79185483916
 24
7413.891688367312
 34
0.0
 50
90.0
100
AcDbRotatedDimension
1001
ACAD
1000
DSTYLE
1002
{
1002
}
  0
DIMENSION
  5
22E8E
330
747D
100
AcDbEntity
  8
寸法
100
AcDbDimension
  2
*D12
 10
6965.791854839231
 20
10259.69990799236
 30
0.0
 11
5705.79185483923
 21
10259.69990799236
 31
0.0
 70
   160
  1
6X420=<>
 71
     5
 42
2520.0
  3
INABA_S40G
100
AcDbAlignedDimension
 13
4445.791854839231
 23
10043.89168836727
 33
0.0
 14
6965.791854839231
 24
10043.89168836736
 34
0.0
100
AcDbRotatedDimension
1001
ACAD
1000
DSTYLE
1002
{
1002
}
  0
DIMENSION
  5
22E8F
330
747D
100
AcDbEntity
  8
寸法
100
AcDbDimension
  2
*D11
 10
7020.791854839231
 20
10259.69990799235
 30
0.0
 11
7329.27713621347
 21
10259.69990799235
 31
0.0
 70
   160
 71
     5
 42
55.0
  3
INABA_S40G
100
AcDbAlignedDimension
 13
6965.791854839231
 23
10043.89168836736
 33
0.0
 14
7020.791854839231
 24
10043.89168836736
 34
0.0
100
AcDbRotatedDimension
1001
ACAD
1000
DSTYLE
1002
{
1002
}
  0
DIMENSION
  5
22E90
330
747D
100
AcDbEntity
  8
寸法
100
AcDbDimension
  2
*D10
 10
7668.21820057364
 20
9988.891688367367
 30
0.0
 11
7668.21820057364
 21
10352.3769697416
 31
0.0
 70
   160
 71
     5
 42
54.99999999999636
  3
INABA_S40G
100
AcDbAlignedDimension
 13
7020.791854839231
 23
10043.89168836736
 33
0.0
 14
7020.791854839231
 24
9988.891688367367
 34
0.0
 50
90.0
100
AcDbRotatedDimension
1001
ACAD
1000
DSTYLE
1002
{
1002
}
  0
DIMENSION
  5
22E91
330
747D
100
AcDbEntity
  8
寸法
100
AcDbDimension
  2
*D9
 10
4445.791854839231
 20
10259.69990799225
 30
0.0
 11
4082.306573464956
 21
10259.69990799225
 31
0.0
 70
   160
 71
     5
 42
55.00000000003637
  3
INABA_S40G
100
AcDbAlignedDimension
 13
4390.791854839195
 23
10043.89168836727
 33
0.0
 14
4445.791854839231
 24
10043.89168836727
 34
0.0
100
AcDbRotatedDimension
1001
ACAD
1000
DSTYLE
1002
{
1002
}
  0
LINE
  5
22E92
330
747D
100
AcDbEntity
  8
部品1
100
AcDbLine
 10
6964.291854839164
 20
7544.391688367388
 30
0.0
 11
4447.29185483908
 21
7544.391688367294
 31
0.0
  0
LINE
  5
22E94
330
747D
100
AcDbEntity
  8
部品1
100
AcDbLine
 10
6992.791854839161
 20
7515.891688367393
 30
0.0
 11
4418.79185483916
 21
7515.89168836729
 31
0.0
  0
LINE
  5
22E95
330
747D
100
AcDbEntity
  8
細線
 48
50.0
100
AcDbLine
 10
5692.291854839229
 20
9563.891688367375
 30
0.0
 11
4419.291854839229
 21
10013.89168836727
 31
0.0
  0
LINE
  5
22E96
330
747D
100
AcDbEntity
  8
部品1
100
AcDbLine
 10
4419.291854839203
 20
10013.89168836727
 30
0.0
 11
5692.291854839231
 21
10013.89168836737
 31
0.0
  0
LINE
  5
22E97
330
747D
100
AcDbEntity
  8
細線
 48
50.0
100
AcDbLine
 10
5692.291854839231
 20
10013.89168836737
 30
0.0
 11
4419.29185483923
 21
9563.891688367268
 31
0.0
  0
LINE
  5
22E98
330
747D
100
AcDbEntity
  8
部品1
100
AcDbLine
 10
4419.291854839204
 20
9563.891688367267
 30
0.0
 11
5692.291854839229
 21
9563.891688367375
 31
0.0
  0
LINE
  5
22E99
330
747D
100
AcDbEntity
  8
部品1
100
AcDbLine
 10
4390.791854839231
 20
10043.89168836727
 30
0.0
 11
7020.791854839231
 21
10043.89168836736
 31
0.0
  0
LINE
  5
22E9A
330
747D
100
AcDbEntity
  8
部品1
100
AcDbLine
 10
4418.791854839231
 20
10015.89168836726
 30
0.0
 11
5495.791854839231
 21
10015.89168836727
 31
0.0
  0
LINE
  5
22E9D
330
747D
100
AcDbEntity
  8
部品1
100
AcDbLine
 10
7020.79185483916
 20
7413.891688367312
 30
0.0
 11
4390.791854839178
 21
7413.891688367218
 31
0.0
  0
LINE
  5
22E9E
330
747D
100
AcDbEntity
  8
部品1
100
AcDbLine
 10
4445.791854839231
 20
10015.89168836738
 30
0.0
 11
5693.291854839227
 21
10015.89168836738
 31
0.0
  0
LINE
  5
22EA1
330
747D
100
AcDbEntity
  8
破線
 48
10.0
100
AcDbLine
 10
4470.791854839089
 20
9563.891688367268
 30
0.0
 11
4470.791854839173
 21
7567.891688367295
 31
0.0
  0
LINE
  5
22EA2
330
747D
100
AcDbEntity
  8
部品1
100
AcDbLine
 10
4447.291854839106
 20
9563.891688367268
 30
0.0
 11
4447.291854839172
 21
7544.391688367293
 31
0.0
  0
LINE
  5
22EA3
330
747D
100
AcDbEntity
  8
部品1
100
AcDbLine
 10
4418.79185483916
 20
7468.891688367178
 30
0.0
 11
4418.791854839232
 21
10015.89168836726
 31
0.0
  0
LINE
  5
22EA4
330
747D
100
AcDbEntity
  8
部品1
100
AcDbLine
 10
4390.791854839096
 20
10043.89168836727
 30
0.0
 11
4390.791854839178
 21
7413.891688367181
 31
0.0
  0
LINE
  5
22EA7
330
747D
100
AcDbEntity
  8
部品1
100
AcDbLine
 10
4450.791854839176
 20
7420.891688367181
 30
0.0
 11
4450.791854839174
 21
7448.891688367308
 31
0.0
  0
LINE
  5
22EA8
330
747D
100
AcDbEntity
  8
部品1
100
AcDbLine
 10
4390.791854839176
 20
7468.891688367145
 30
0.0
 11
4390.791854839178
 21
7413.891688367148
 31
0.0
  0
LINE
  5
22EA9
330
747D
100
AcDbEntity
  8
部品1
100
AcDbLine
 10
4418.791854839176
 20
7468.891688367195
 30
0.0
 11
4390.791854839176
 21
7468.891688367195
 31
0.0
  0
LINE
  5
22EAA
330
747D
100
AcDbEntity
  8
部品1
100
AcDbLine
 10
4418.79185483916
 20
7468.891688367181
 30
0.0
 11
4390.791854839176
 21
7468.891688367181
 31
0.0
  0
LINE
  5
22EAB
330
747D
100
AcDbEntity
  8
部品1
100
AcDbLine
 10
4418.79185483916
 20
7468.891688367145
 30
0.0
 11
4390.791854839176
 21
7468.891688367145
 31
0.0
  0
LINE
  5
22EAC
330
747D
100
AcDbEntity
  8
部品1
100
AcDbLine
 10
4441.791854839178
 20
7413.891688367181
 30
0.0
 11
4390.791854839178
 21
7413.891688367181
 31
0.0
  0
LINE
  5
22EAD
330
747D
100
AcDbEntity
  8
部品1
 48
50.0
100
AcDbLine
 10
4447.291854839174
 20
7544.391688367388
 30
0.0
 11
4418.791854839176
 21
7515.891688367393
 31
0.0
  0
LINE
  5
22EAE
330
747D
100
AcDbEntity
  8
部品1
 48
50.0
100
AcDbLine
 10
4419.291854839203
 20
10013.89168836727
 30
0.0
 11
4419.291854839204
 21
9563.891688367267
 31
0.0
  0
LINE
  5
22EAF
330
747D
100
AcDbEntity
  8
部品1
100
AcDbLine
 10
4418.79185483916
 20
7888.891688367195
 30
0.0
 11
4390.79185483916
 21
7888.891688367195
 31
0.0
  0
LINE
  5
22EB0
330
747D
100
AcDbEntity
  8
部品1
100
AcDbLine
 10
4418.791854839198
 20
9988.891688367239
 30
0.0
 11
4390.791854839198
 21
9988.891688367239
 31
0.0
  0
LINE
  5
22EB1
330
747D
100
AcDbEntity
  8
部品1
100
AcDbLine
 10
4445.791854839231
 20
10043.89168836727
 30
0.0
 11
4445.791854839231
 21
10015.89168836727
 31
0.0
  0
LINE
  5
22EB2
330
747D
100
AcDbEntity
  8
部品1
100
AcDbLine
 10
4445.791854839194
 20
10043.89168836723
 30
0.0
 11
4445.791854839198
 21
10015.89168836723
 31
0.0
  0
DIMENSION
  5
22EB3
330
747D
100
AcDbEntity
  8
寸法
100
AcDbDimension
  2
*D8
 10
7668.218200573571
 20
7413.891688367312
 30
0.0
 11
7668.218200573569
 21
7036.03022146245
 31
0.0
 70
   160
 71
     5
 42
54.99999999999636
  3
INABA_S40G
100
AcDbAlignedDimension
 13
7020.79185483916
 23
7468.891688367309
 33
0.0
 14
7020.79185483916
 24
7413.891688367312
 34
0.0
 50
90.0
100
AcDbRotatedDimension
1001
ACAD
1000
DSTYLE
1002
{
1002
}
  0
DIMENSION
  5
22EB7
330
747D
100
AcDbEntity
  8
寸法
100
AcDbDimension
  2
*D7
 10
6912.565046132293
 20
9266.347187547712
 30
0.0
 11
6323.513130640694
 21
9266.347187547712
 31
0.0
 70
   160
 71
     5
 42
1273.000000000011
  3
INABA_S40G
100
AcDbAlignedDimension
 13
5719.29185483923
 23
9563.891688367375
 33
0.0
 14
6992.291854839241
 24
9563.891688367368
 34
0.0
100
AcDbRotatedDimension
1001
ACAD
1000
DSTYLE
1002
{
1002
}
  0
LINE
  5
22EB8
330
747D
100
AcDbEntity
  8
細線
 48
50.0
100
AcDbLine
 10
6992.29185483923
 20
10013.89168836736
 30
0.0
 11
5719.291854839229
 21
9563.891688367375
 31
0.0
  0
LINE
  5
22EB9
330
747D
100
AcDbEntity
  8
部品1
100
AcDbLine
 10
5719.29185483923
 20
10013.89168836737
 30
0.0
 11
6992.291854839208
 21
10013.89168836736
 31
0.0
  0
LINE
  5
22EBA
330
747D
100
AcDbEntity
  8
部品1
100
AcDbLine
 10
5719.291854839229
 20
9563.891688367375
 30
0.0
 11
6992.291854839206
 21
9563.891688367364
 31
0.0
  0
LINE
  5
22EBB
330
747D
100
AcDbEntity
  8
細線
 48
50.0
100
AcDbLine
 10
6992.29185483923
 20
9563.891688367368
 30
0.0
 11
5719.29185483923
 21
10013.89168836736
 31
0.0
  0
LINE
  5
22EBC
330
747D
100
AcDbEntity
  8
部品1
100
AcDbLine
 10
5718.291854839231
 20
10015.89168836738
 30
0.0
 11
6992.791854839227
 21
10015.89168836736
 31
0.0
  0
LINE
  5
22EDA
330
747D
100
AcDbEntity
  8
部品1
100
AcDbLine
 10
5285.791854839231
 20
10043.89168836727
 30
0.0
 11
5285.791854839231
 21
10015.89168836727
 31
0.0
  0
LINE
  5
22EDB
330
747D
100
AcDbEntity
  8
部品1
100
AcDbLine
 10
5285.791854839231
 20
10043.89168836727
 30
0.0
 11
5285.791854839231
 21
10015.89168836727
 31
0.0
  0
LINE
  5
22EDC
330
747D
100
AcDbEntity
  8
部品1
100
AcDbLine
 10
5285.791854839231
 20
10043.89168836738
 30
0.0
 11
5285.791854839231
 21
10015.89168836738
 31
0.0
  0
LINE
  5
22EDD
330
747D
100
AcDbEntity
  8
部品1
 48
50.0
100
AcDbLine
 10
5692.291854839231
 20
10013.89168836737
 30
0.0
 11
5692.291854839231
 21
9563.891688367375
 31
0.0
  0
LINE
  5
22EDE
330
747D
100
AcDbEntity
  8
部品1
 48
50.0
100
AcDbLine
 10
5719.29185483923
 20
10013.89168836736
 30
0.0
 11
5719.29185483923
 21
9563.891688367375
 31
0.0
  0
LINE
  5
22EDF
330
747D
100
AcDbEntity
  8
部品1
 48
50.0
100
AcDbLine
 10
5693.291854839229
 20
10015.89168836737
 30
0.0
 11
5693.29185483923
 21
9563.891688367375
 31
0.0
  0
LINE
  5
22EE0
330
747D
100
AcDbEntity
  8
部品1
 48
50.0
100
AcDbLine
 10
5718.291854839231
 20
10015.89168836737
 30
0.0
 11
5718.291854839231
 21
9563.891688367375
 31
0.0
  0
LINE
  5
22EE1
330
747D
100
AcDbEntity
  8
部品1
100
AcDbLine
 10
5693.29185483923
 20
9563.891688367375
 30
0.0
 11
5718.291854839231
 21
9563.891688367375
 31
0.0
  0
LINE
  5
22EE2
330
747D
100
AcDbEntity
  8
部品1
100
AcDbLine
 10
5670.79185483923
 20
10033.89168836737
 30
0.0
 11
5670.79185483923
 21
10015.89168836737
 31
0.0
  0
LINE
  5
22EE3
330
747D
100
AcDbEntity
  8
部品1
100
AcDbLine
 10
5670.79185483923
 20
10033.89168836737
 30
0.0
 11
5676.791854839231
 21
10033.89168836737
 31
0.0
  0
LINE
  5
22EE4
330
747D
100
AcDbEntity
  8
部品1
100
AcDbLine
 10
5740.791854839231
 20
10033.89168836737
 30
0.0
 11
5740.791854839231
 21
10015.89168836737
 31
0.0
  0
LINE
  5
22EE5
330
747D
100
AcDbEntity
  8
部品1
100
AcDbLine
 10
5734.79185483923
 20
10033.89168836737
 30
0.0
 11
5740.791854839231
 21
10033.89168836737
 31
0.0
  0
LINE
  5
22EE6
330
747D
100
AcDbEntity
  8
部品1
100
AcDbLine
 10
5693.29185483923
 20
10007.89168836736
 30
0.0
 11
5718.291854839231
 21
10007.89168836737
 31
0.0
  0
LINE
  5
22EE7
330
747D
100
AcDbEntity
  8
部品1
100
AcDbLine
 10
5705.791854839231
 20
10043.89168836738
 30
0.0
 11
5705.791854839231
 21
10015.89168836738
 31
0.0
  0
LINE
  5
22EE8
330
747D
100
AcDbEntity
  8
部品1
100
AcDbLine
 10
6545.791854839231
 20
10043.89168836738
 30
0.0
 11
6545.791854839231
 21
10015.89168836738
 31
0.0
  0
LINE
  5
22EE9
330
747D
100
AcDbEntity
  8
破線
 48
10.0
100
AcDbLine
 10
6940.791854839236
 20
9563.891688367364
 30
0.0
 11
6940.791854839165
 21
7567.891688367371
 31
0.0
  0
LINE
  5
22EEA
330
747D
100
AcDbEntity
  8
部品1
100
AcDbLine
 10
6964.291854839231
 20
9563.891688367363
 30
0.0
 11
6964.291854839164
 21
7544.391688367388
 31
0.0
  0
DIMENSION
  5
22EEB
330
747D
100
AcDbEntity
  8
寸法
100
AcDbDimension
  2
*D6
 10
7347.649580701255
 20
9468.673872698477
 30
0.0
 11
7247.649580701254
 21
9693.673872698477
 31
0.0
 70
    32
 71
     5
 42
449.9999999999963
  3
INABA_S40G
100
AcDbAlignedDimension
 13
6992.29185483923
 23
10013.89168836736
 33
0.0
 14
6992.29185483923
 24
9563.891688367368
 34
0.0
 50
90.0
100
AcDbRotatedDimension
1001
ACAD
1000
DSTYLE
1002
{
1002
}
  0
LINE
  5
22EEC
330
747D
100
AcDbEntity
  8
部品1
100
AcDbLine
 10
6992.791854839225
 20
10015.89168836736
 30
0.0
 11
6992.791854839163
 21
7468.891688367325
 31
0.0
  0
DIMENSION
  5
22EED
330
747D
100
AcDbEntity
  8
寸法
100
AcDbDimension
  2
*D5
 10
7668.593966118089
 20
7468.891688367309
 30
0.0
 11
7668.593966118089
 21
8714.945376417542
 31
0.0
 70
   160
  1
6X420=<>
 71
     5
 42
2520.000000000058
  3
INABA_S40G
100
AcDbAlignedDimension
 13
7020.791854839231
 23
9988.891688367367
 33
0.0
 14
7020.79185483916
 24
7468.891688367309
 34
0.0
 50
90.0
100
AcDbRotatedDimension
1001
ACAD
1000
DSTYLE
1002
{
1002
}
  0
LINE
  5
22EEE
330
747D
100
AcDbEntity
  8
部品1
100
AcDbLine
 10
7020.791854839228
 20
10043.89168836736
 30
0.0
 11
7020.79185483916
 21
7413.891688367312
 31
0.0
  0
LINE
  5
22EEF
330
747D
100
AcDbEntity
  8
部品1
100
AcDbLine
 10
6992.791854839161
 20
7468.891688367309
 30
0.0
 11
7020.79185483916
 21
7468.891688367309
 31
0.0
  0
LINE
  5
22EF0
330
747D
100
AcDbEntity
  8
部品1
100
AcDbLine
 10
7020.79185483916
 20
7413.891688367312
 30
0.0
 11
6969.79185483916
 21
7413.891688367312
 31
0.0
  0
LINE
  5
22EF2
330
747D
100
AcDbEntity
  8
部品1
100
AcDbLine
 10
6960.791854839159
 20
7413.891688367309
 30
0.0
 11
6960.791854839159
 21
7448.89168836731
 31
0.0
  0
LINE
  5
22EF4
330
747D
100
AcDbEntity
  8
部品1
 48
50.0
100
AcDbLine
 10
6964.291854839164
 20
7544.391688367388
 30
0.0
 11
6992.791854839161
 21
7515.891688367393
 31
0.0
  0
LINE
  5
22EF5
330
747D
100
AcDbEntity
  8
部品1
100
AcDbLine
 10
7020.791854839162
 20
7468.891688367309
 30
0.0
 11
7020.79185483916
 21
7413.891688367312
 31
0.0
  0
LINE
  5
22EF6
330
747D
100
AcDbEntity
  8
部品1
100
AcDbLine
 10
6992.291854839208
 20
10013.89168836736
 30
0.0
 11
6992.291854839206
 21
9563.891688367364
 31
0.0
  0
LINE
  5
22EF7
330
747D
100
AcDbEntity
  8
部品1
100
AcDbLine
 10
6992.791854839186
 20
7888.891688367323
 30
0.0
 11
7020.791854839186
 21
7888.891688367323
 31
0.0
  0
LINE
  5
22EF8
330
747D
100
AcDbEntity
  8
部品1
100
AcDbLine
 10
6992.791854839231
 20
9988.891688367367
 30
0.0
 11
7020.791854839231
 21
9988.891688367367
 31
0.0
  0
LINE
  5
22EF9
330
747D
100
AcDbEntity
  8
部品1
100
AcDbLine
 10
6965.791854839231
 20
10043.89168836738
 30
0.0
 11
6965.791854839231
 21
10015.89168836738
 31
0.0
  0
LINE
  5
22EFA
330
747D
100
AcDbEntity
  8
部品1
100
AcDbLine
 10
6965.791854839231
 20
10043.89168836736
 30
0.0
 11
6965.791854839231
 21
10015.89168836736
 31
0.0
  0
LINE
  5
22EFB
330
747D
100
AcDbEntity
  8
部品1
100
AcDbLine
 10
5705.791854839231
 20
10043.89168836727
 30
0.0
 11
5705.791854839231
 21
10015.89168836727
 31
0.0
  0
LINE
  5
22EFC
330
747D
100
AcDbEntity
  8
部品1
100
AcDbLine
 10
5705.791854839231
 20
10043.89168836727
 30
0.0
 11
5705.791854839231
 21
10015.89168836727
 31
0.0
  0
LINE
  5
22EFD
330
747D
100
AcDbEntity
  8
部品1
100
AcDbLine
 10
5705.791854839231
 20
10043.89168836738
 30
0.0
 11
5705.791854839231
 21
10015.89168836738
 31
0.0
  0
LINE
  5
22EFF
330
747D
100
AcDbEntity
  8
部品1
100
AcDbLine
 10
4865.791854839231
 20
10043.89168836738
 30
0.0
 11
4865.791854839231
 21
10015.89168836738
 31
0.0
  0
LINE
  5
22F00
330
747D
100
AcDbEntity
  8
部品1
100
AcDbLine
 10
4865.791854839231
 20
10043.89168836727
 30
0.0
 11
4865.791854839231
 21
10015.89168836727
 31
0.0
  0
LINE
  5
22F01
330
747D
100
AcDbEntity
  8
部品1
100
AcDbLine
 10
4865.791854839231
 20
10043.89168836727
 30
0.0
 11
4865.791854839231
 21
10015.89168836727
 31
0.0
  0
LINE
  5
22F02
330
747D
100
AcDbEntity
  8
部品1
100
AcDbLine
 10
6125.791854839231
 20
10043.89168836738
 30
0.0
 11
6125.791854839231
 21
10015.89168836738
 31
0.0
  0
LINE
  5
22F05
330
747D
100
AcDbEntity
  8
破線
 48
10.0
100
AcDbLine
 10
6940.791854839165
 20
7567.891688367371
 30
0.0
 11
4470.791854839173
 21
7567.891688367295
 31
0.0
  0
LINE
  5
22F06
330
747D
100
AcDbEntity
  8
部品1
100
AcDbLine
 10
6992.791854839163
 20
7448.891688367308
 30
0.0
 11
6960.791854839159
 21
7448.891688367308
 31
0.0
  0
LINE
  5
22F24
330
747D
100
AcDbEntity
  8
部品1
100
AcDbLine
 10
4418.791854839156
 20
7448.891688367308
 30
0.0
 11
4450.791854839158
 21
7448.891688367308
 31
0.0
  0
LINE
  5
22F25
330
747D
100
AcDbEntity
  8
部品1
100
AcDbLine
 10
4450.791854839158
 20
7413.891688367309
 30
0.0
 11
4450.791854839158
 21
7448.89168836731
 31
0.0
  0
DIMENSION
  5
22F26
330
747D
100
AcDbEntity
  8
寸法
100
AcDbDimension
  2
*D14
 10
5612.565046132322
 20
9266.347187547712
 30
0.0
 11
4995.2819976678
 21
9266.347187547712
 31
0.0
 70
   160
 71
     5
 42
1273.000000000011
  3
INABA_S40G
100
AcDbAlignedDimension
 13
4419.29185483923
 23
9563.891688367265
 33
0.0
 14
5692.291854839242
 24
9563.891688367258
 34
0.0
100
AcDbRotatedDimension
1001
ACAD
1000
DSTYLE
1002
{
1002
}
  0
LINE
  5
23EED
330
747D
100
AcDbEntity
  8
細線
100
AcDbLine
 10
6334.304161488239
 20
7480.891688367298
 30
0.0
 11
6334.304161488239
 21
7475.534716965263
 31
0.0
  0
LINE
  5
24B81
330
747D
100
AcDbEntity
  8
細線
100
AcDbLine
 10
6992.791854839163
 20
7480.891688367295
 30
0.0
 11
6992.791854839163
 21
7448.891688367307
 31
0.0
  0
LINE
  5
25A1B
330
747D
100
AcDbEntity
  8
細線
100
AcDbLine
 10
4418.791854839176
 20
7480.891688367295
 30
0.0
 11
4418.791854839176
 21
7448.891688367307
 31
0.0
  0
LINE
  5
25A21
330
747D
100
AcDbEntity
  8
細線
100
AcDbLine
 10
5077.279548190101
 20
7480.891688367298
 30
0.0
 11
5077.279548190101
 21
7475.534716965263
 31
0.0
  0
LINE
  5
25A23
330
747D
100
AcDbEntity
  8
細線
 48
50.0
100
AcDbLine
 10
4450.791821854156
 20
7429.89168836738
 30
0.0
 11
4910.779548190095
 21
7429.89168836738
 31
0.0
  0
LINE
  5
25A25
330
747D
100
AcDbEntity
  8
細線
100
AcDbLine
 10
5066.279548190099
 20
7439.891688367389
 30
0.0
 11
5690.779548190102
 21
7439.891688367294
 31
0.0
  0
LINE
  5
25A27
330
747D
100
AcDbEntity
  8
細線
100
AcDbLine
 10
5690.779548190102
 20
7446.891688367293
 30
0.0
 11
5690.779548190102
 21
7439.891688367294
 31
0.0
  0
LINE
  5
25A28
330
747D
100
AcDbEntity
  8
細線
100
AcDbLine
 10
5690.779548190102
 20
7446.891688367293
 30
0.0
 11
5705.779548190102
 21
7446.891688367293
 31
0.0
  0
LINE
  5
25A29
330
747D
100
AcDbEntity
  8
細線
100
AcDbLine
 10
4450.791821854156
 20
7452.891688367298
 30
0.0
 11
4504.279548190099
 21
7452.891688367301
 31
0.0
  0
LINE
  5
25A2A
330
747D
100
AcDbEntity
  8
細線
 48
50.0
100
AcDbLine
 10
4504.279548190099
 20
7429.891688367304
 30
0.0
 11
5051.279548190096
 21
7429.891688367304
 31
0.0
  0
LINE
  5
25A2B
330
747D
100
AcDbEntity
  8
細線
100
AcDbLine
 10
4418.791854839176
 20
7480.891688367292
 30
0.0
 11
5092.2795481901
 21
7480.891688367304
 31
0.0
  0
LINE
  5
25A2C
330
747D
100
AcDbEntity
  8
細線
100
AcDbLine
 10
5072.2795481901
 20
7444.891688367298
 30
0.0
 11
5072.2795481901
 21
7452.891688367298
 31
0.0
  0
LINE
  5
25A2D
330
747D
100
AcDbEntity
  8
細線
100
AcDbLine
 10
5072.2795481901
 20
7444.891688367298
 30
0.0
 11
5092.2795481901
 21
7444.891688367298
 31
0.0
  0
LINE
  5
25A2E
330
747D
100
AcDbEntity
  8
細線
100
AcDbLine
 10
5092.2795481901
 20
7444.891688367298
 30
0.0
 11
5092.2795481901
 21
7480.891688367304
 31
0.0
  0
LINE
  5
25A2F
330
747D
100
AcDbEntity
  8
細線
100
AcDbLine
 10
4450.791821854156
 20
7448.891688367308
 30
0.0
 11
4450.791821854156
 21
7452.891688367299
 31
0.0
  0
LINE
  5
25A30
330
747D
100
AcDbEntity
  8
細線
100
AcDbLine
 10
5066.279548190099
 20
7452.891688367298
 30
0.0
 11
5072.2795481901
 21
7452.891688367298
 31
0.0
  0
LINE
  5
25A31
330
747D
100
AcDbEntity
  8
細線
100
AcDbLine
 10
4873.779548190099
 20
7480.891688367298
 30
0.0
 11
4873.7795481901
 21
7452.891688367301
 31
0.0
  0
LINE
  5
25A32
330
747D
100
AcDbEntity
  8
細線
100
AcDbLine
 10
4888.779548190099
 20
7480.891688367298
 30
0.0
 11
4903.779548190101
 21
7452.891688367301
 31
0.0
  0
LINE
  5
25A33
330
747D
100
AcDbEntity
  8
細線
100
AcDbLine
 10
5286.279548190175
 20
7416.891688367404
 30
0.0
 11
5278.779548190169
 21
7439.891688367322
 31
0.0
  0
LINE
  5
25A34
330
747D
100
AcDbEntity
  8
細線
100
AcDbLine
 10
5226.279548190174
 20
7416.891688367394
 30
0.0
 11
5233.779548190171
 21
7439.891688367322
 31
0.0
  0
LINE
  5
25A38
330
747D
100
AcDbEntity
  8
細線
100
AcDbLine
 10
5705.779548190102
 20
7446.891688367293
 30
0.0
 11
5705.779548190101
 21
7421.391688367293
 31
0.0
  0
LINE
  5
25A39
330
747D
100
AcDbEntity
  8
細線
100
AcDbLine
 10
5151.279548190125
 20
7416.891688367356
 30
0.0
 11
5153.611086480873
 21
7421.891688367303
 31
0.0
  0
LINE
  5
25A3A
330
747D
100
AcDbEntity
  8
細線
100
AcDbLine
 10
5153.611086480871
 20
7421.891688367303
 30
0.0
 11
5218.948009899346
 21
7421.891688367292
 31
0.0
  0
LINE
  5
25A3B
330
747D
100
AcDbEntity
  8
細線
100
AcDbLine
 10
5221.2795481901
 20
7416.891688367292
 30
0.0
 11
5291.2795481901
 21
7416.891688367283
 31
0.0
  0
LINE
  5
25A3C
330
747D
100
AcDbEntity
  8
細線
100
AcDbLine
 10
5361.2795481901
 20
7416.891688367273
 30
0.0
 11
5431.279548190101
 21
7416.891688367262
 31
0.0
  0
LINE
  5
25A3D
330
747D
100
AcDbEntity
  8
細線
100
AcDbLine
 10
5501.279548190087
 20
7416.891688367326
 30
0.0
 11
5696.779548190099
 21
7416.891688367297
 31
0.0
  0
LINE
  5
25A3E
330
747D
100
AcDbEntity
  8
細線
100
AcDbLine
 10
5221.2795481901
 20
7416.891688367336
 30
0.0
 11
5218.948009899333
 21
7421.891688367321
 31
0.0
  0
LINE
  5
25A3F
330
747D
100
AcDbEntity
  8
細線
100
AcDbLine
 10
5293.611086480873
 20
7421.891688367283
 30
0.0
 11
5358.948009899347
 21
7421.891688367272
 31
0.0
  0
LINE
  5
25A40
330
747D
100
AcDbEntity
  8
細線
100
AcDbLine
 10
5291.279548190107
 20
7416.891688367297
 30
0.0
 11
5293.611086480876
 21
7421.891688367283
 31
0.0
  0
LINE
  5
25A41
330
747D
100
AcDbEntity
  8
細線
100
AcDbLine
 10
5361.279548190102
 20
7416.891688367316
 30
0.0
 11
5358.948009899335
 21
7421.891688367302
 31
0.0
  0
LINE
  5
25A42
330
747D
100
AcDbEntity
  8
細線
100
AcDbLine
 10
5433.611086480873
 20
7421.891688367264
 30
0.0
 11
5498.948009899347
 21
7421.891688367252
 31
0.0
  0
LINE
  5
25A43
330
747D
100
AcDbEntity
  8
細線
100
AcDbLine
 10
5431.279548190105
 20
7416.891688367278
 30
0.0
 11
5433.611086480873
 21
7421.891688367264
 31
0.0
  0
LINE
  5
25A44
330
747D
100
AcDbEntity
  8
細線
100
AcDbLine
 10
5501.2795481901
 20
7416.891688367297
 30
0.0
 11
5498.948009899333
 21
7421.89168836728
 31
0.0
  0
LINE
  5
25A45
330
747D
100
AcDbEntity
  8
細線
100
AcDbLine
 10
5549.2795481901
 20
7434.891688367317
 30
0.0
 11
5549.2795481901
 21
7416.891688367297
 31
0.0
  0
LINE
  5
25A46
330
747D
100
AcDbEntity
  8
細線
100
AcDbLine
 10
5590.2795481901
 20
7434.891688367314
 30
0.0
 11
5590.2795481901
 21
7416.891688367297
 31
0.0
  0
LINE
  5
25A47
330
747D
100
AcDbEntity
  8
細線
100
AcDbLine
 10
5549.2795481901
 20
7434.891688367317
 30
0.0
 11
5590.2795481901
 21
7434.891688367314
 31
0.0
  0
ARC
  5
25A48
330
747D
100
AcDbEntity
  8
部品1
100
AcDbCircle
 10
5587.735392312824
 20
7416.391688367318
 30
0.0
 40
1.0
100
AcDbArc
 50
160.5287793655287
 51
270.0
  0
LINE
  5
25A49
330
747D
100
AcDbEntity
  8
部品1
 48
0.01
100
AcDbLine
 10
5594.779548190107
 20
7416.891688367318
 30
0.0
 11
5594.779548190107
 21
7415.891688367317
 31
0.0
  0
LINE
  5
25A4A
330
747D
100
AcDbEntity
  8
部品1
 48
0.01
100
AcDbLine
 10
5594.279548190108
 20
7415.391688367318
 30
0.0
 11
5587.735392312824
 21
7415.391688367318
 31
0.0
  0
ARC
  5
25A4B
330
747D
100
AcDbEntity
  8
部品1
 48
0.01
100
AcDbCircle
 10
5594.279548190108
 20
7415.891688367317
 30
0.0
 40
0.5
100
AcDbArc
 50
270.0
 51
0.000000000000007
  0
ARC
  5
25A4C
330
747D
100
AcDbEntity
  8
部品1
100
AcDbCircle
 10
5562.279548190108
 20
7425.391688367317
 30
0.0
 40
26.0
100
AcDbArc
 50
340.5287793655288
 51
0.000000000000007
  0
ARC
  5
25A4D
330
747D
100
AcDbEntity
  8
部品1
 48
0.01
100
AcDbCircle
 10
5586.279548190107
 20
7430.391688367318
 30
0.0
 40
2.0
100
AcDbArc
 50
0.000000000000007
 51
90.0
  0
LINE
  5
25A4E
330
747D
100
AcDbEntity
  8
部品1
100
AcDbLine
 10
5588.279548190108
 20
7425.391688367317
 30
0.0
 11
5588.279548190108
 21
7430.391688367318
 31
0.0
  0
ARC
  5
25A4F
330
747D
100
AcDbEntity
  8
部品1
100
AcDbCircle
 10
5569.779548190108
 20
7441.191688367317
 30
0.0
 40
16.0
100
AcDbArc
 50
285.9423686056284
 51
321.6069559807873
  0
ARC
  5
25A50
330
747D
100
AcDbEntity
  8
部品1
100
AcDbCircle
 10
5584.671156565296
 20
7429.391688367317
 30
0.0
 40
3.0
100
AcDbArc
 50
90.0
 51
141.6069559807873
  0
LINE
  5
25A51
330
747D
100
AcDbEntity
  8
部品1
 48
0.01
100
AcDbLine
 10
5586.279548190107
 20
7432.391688367317
 30
0.0
 11
5584.671156565296
 21
7432.391688367317
 31
0.0
  0
ARC
  5
25A52
330
747D
100
AcDbEntity
  8
部品1
100
AcDbCircle
 10
5569.779548190108
 20
7441.191688367317
 30
0.0
 40
16.0
100
AcDbArc
 50
218.3930440192126
 51
254.0576313943716
  0
LINE
  5
25A53
330
747D
100
AcDbEntity
  8
部品1
100
AcDbLine
 10
5566.208833975837
 20
7425.691688367317
 30
0.0
 11
5573.350262404378
 21
7425.691688367317
 31
0.0
  0
ARC
  5
25A54
330
747D
100
AcDbEntity
  8
部品1
100
AcDbCircle
 10
5566.208833975837
 20
7428.691688367317
 30
0.0
 40
3.0
100
AcDbArc
 50
254.0576313943716
 51
270.0
  0
ARC
  5
25A55
330
747D
100
AcDbEntity
  8
部品1
100
AcDbCircle
 10
5573.350262404378
 20
7428.691688367317
 30
0.0
 40
3.0
100
AcDbArc
 50
270.0
 51
285.9423686056284
  0
LINE
  5
25A56
330
747D
100
AcDbEntity
  8
部品1
 48
0.01
100
AcDbLine
 10
5553.279548190108
 20
7432.391688367317
 30
0.0
 11
5554.88793981492
 21
7432.391688367317
 31
0.0
  0
ARC
  5
25A57
330
747D
100
AcDbEntity
  8
部品1
100
AcDbCircle
 10
5554.88793981492
 20
7429.391688367317
 30
0.0
 40
3.0
100
AcDbArc
 50
38.39304401921268
 51
90.0
  0
ARC
  5
25A58
330
747D
100
AcDbEntity
  8
部品1
 48
0.01
100
AcDbCircle
 10
5553.279548190108
 20
7430.391688367318
 30
0.0
 40
2.0
100
AcDbArc
 50
90.0
 51
180.0
  0
LINE
  5
25A59
330
747D
100
AcDbEntity
  8
部品1
100
AcDbLine
 10
5551.279548190108
 20
7425.391688367317
 30
0.0
 11
5551.279548190108
 21
7430.391688367318
 31
0.0
  0
ARC
  5
25A5A
330
747D
100
AcDbEntity
  8
部品1
100
AcDbCircle
 10
5577.279548190108
 20
7425.391688367317
 30
0.0
 40
26.0
100
AcDbArc
 50
180.0
 51
199.4712206344713
  0
ARC
  5
25A5B
330
747D
100
AcDbEntity
  8
部品1
100
AcDbCircle
 10
5551.823704067391
 20
7416.391688367318
 30
0.0
 40
1.0
100
AcDbArc
 50
270.0
 51
19.47122063447127
  0
LINE
  5
25A5C
330
747D
100
AcDbEntity
  8
部品1
 48
0.01
100
AcDbLine
 10
5545.279548190108
 20
7415.391688367318
 30
0.0
 11
5551.892053620171
 21
7415.391688367318
 31
0.0
  0
LINE
  5
25A5D
330
747D
100
AcDbEntity
  8
部品1
 48
0.01
100
AcDbLine
 10
5544.779548190107
 20
7416.891688367318
 30
0.0
 11
5544.779548190107
 21
7415.891688367317
 31
0.0
  0
LINE
  5
25A5E
330
747D
100
AcDbEntity
  8
部品1
 48
0.01
100
AcDbLine
 10
5544.779548190107
 20
7416.891688367318
 30
0.0
 11
5544.779548190107
 21
7415.891688367317
 31
0.0
  0
ARC
  5
25A5F
330
747D
100
AcDbEntity
  8
部品1
 48
0.01
100
AcDbCircle
 10
5545.279548190108
 20
7415.891688367317
 30
0.0
 40
0.5
100
AcDbArc
 50
180.0
 51
270.0
  0
LINE
  5
25A60
330
747D
100
AcDbEntity
  8
細線
100
AcDbLine
 10
4644.279548190109
 20
7452.89168836731
 30
0.0
 11
4646.611086480876
 21
7457.891688367296
 31
0.0
  0
LINE
  5
25A61
330
747D
100
AcDbEntity
  8
細線
100
AcDbLine
 10
4646.611086480875
 20
7457.891688367296
 30
0.0
 11
4711.948009899349
 21
7457.891688367284
 31
0.0
  0
LINE
  5
25A62
330
747D
100
AcDbEntity
  8
細線
100
AcDbLine
 10
4714.279548190102
 20
7452.891688367329
 30
0.0
 11
4711.948009899334
 21
7457.891688367315
 31
0.0
  0
LINE
  5
25A63
330
747D
100
AcDbEntity
  8
細線
100
AcDbLine
 10
4786.611086480877
 20
7457.891688367276
 30
0.0
 11
4851.948009899351
 21
7457.891688367265
 31
0.0
  0
LINE
  5
25A64
330
747D
100
AcDbEntity
  8
細線
100
AcDbLine
 10
4784.279548190109
 20
7452.891688367291
 30
0.0
 11
4786.611086480877
 21
7457.891688367276
 31
0.0
  0
LINE
  5
25A65
330
747D
100
AcDbEntity
  8
細線
100
AcDbLine
 10
4854.279548190106
 20
7452.891688367309
 30
0.0
 11
4851.948009899338
 21
7457.891688367293
 31
0.0
  0
LINE
  5
25A66
330
747D
100
AcDbEntity
  8
細線
100
AcDbLine
 10
4926.611086480877
 20
7457.891688367256
 30
0.0
 11
4991.948009899349
 21
7457.891688367245
 31
0.0
  0
LINE
  5
25A67
330
747D
100
AcDbEntity
  8
細線
100
AcDbLine
 10
4924.27954819011
 20
7452.89168836727
 30
0.0
 11
4926.611086480877
 21
7457.891688367256
 31
0.0
  0
LINE
  5
25A68
330
747D
100
AcDbEntity
  8
細線
100
AcDbLine
 10
4994.279548190099
 20
7452.891688367301
 30
0.0
 11
4991.948009899336
 21
7457.891688367273
 31
0.0
  0
LINE
  5
25A69
330
747D
100
AcDbEntity
  8
細線
100
AcDbLine
 10
4714.279548190116
 20
7452.891688367298
 30
0.0
 11
4784.279548190117
 21
7452.891688367298
 31
0.0
  0
LINE
  5
25A6A
330
747D
100
AcDbEntity
  8
細線
100
AcDbLine
 10
4854.27954819011
 20
7452.891688367298
 30
0.0
 11
4924.279548190121
 21
7452.891688367298
 31
0.0
  0
LINE
  5
25A6B
330
747D
100
AcDbEntity
  8
細線
100
AcDbLine
 10
4994.279548190099
 20
7452.891688367301
 30
0.0
 11
5060.279548190099
 21
7452.891688367303
 31
0.0
  0
LINE
  5
25A6C
330
747D
100
AcDbEntity
  8
細線
100
AcDbLine
 10
5051.2795481901
 20
7416.891688367369
 30
0.0
 11
5151.279548190125
 21
7416.891688367356
 31
0.0
  0
LINE
  5
25A6D
330
747D
100
AcDbEntity
  8
細線
100
AcDbLine
 10
4574.279548190115
 20
7452.891688367319
 30
0.0
 11
4644.279548190112
 21
7452.891688367319
 31
0.0
  0
LINE
  5
25A6E
330
747D
100
AcDbEntity
  8
細線
100
AcDbLine
 10
4574.279548190101
 20
7452.891688367349
 30
0.0
 11
4571.948009899334
 21
7457.891688367334
 31
0.0
  0
LINE
  5
25A6F
330
747D
100
AcDbEntity
  8
細線
100
AcDbLine
 10
4506.611086480873
 20
7457.891688367316
 30
0.0
 11
4571.948009899347
 21
7457.891688367304
 31
0.0
  0
LINE
  5
25A70
330
747D
100
AcDbEntity
  8
細線
100
AcDbLine
 10
4504.279548190106
 20
7452.89168836733
 30
0.0
 11
4506.611086480873
 21
7457.891688367316
 31
0.0
  0
ARC
  5
25A71
330
747D
100
AcDbEntity
  8
細線
100
AcDbCircle
 10
5256.279541690202
 20
7442.391688367296
 30
0.0
 40
6.0
100
AcDbArc
 50
204.6243183521779
 51
335.3756816478222
  0
LINE
  5
25A72
330
747D
100
AcDbEntity
  8
細線
100
AcDbLine
 10
5051.2795481901
 20
7416.891688367297
 30
0.0
 11
5051.279548190093
 21
7446.891688367296
 31
0.0
  0
LINE
  5
25A73
330
747D
100
AcDbEntity
  8
細線
100
AcDbLine
 10
5051.279548190093
 20
7446.891688367296
 30
0.0
 11
5066.279548190096
 21
7446.891688367291
 31
0.0
  0
LINE
  5
25A74
330
747D
100
AcDbEntity
  8
細線
100
AcDbLine
 10
5066.279548190099
 20
7439.891688367293
 30
0.0
 11
5066.279548190096
 21
7446.891688367291
 31
0.0
  0
ARC
  5
25A75
330
747D
100
AcDbEntity
  8
細線
100
AcDbCircle
 10
5064.2795481901
 20
7452.191688367297
 30
0.0
 40
2.0
100
AcDbArc
 50
270.0
 51
0.000000000000007
  0
LINE
  5
25A76
330
747D
100
AcDbEntity
  8
細線
100
AcDbLine
 10
5066.279548190099
 20
7452.191688367297
 30
0.0
 11
5066.279548190099
 21
7452.891688367298
 31
0.0
  0
LINE
  5
25A77
330
747D
100
AcDbEntity
  8
細線
100
AcDbLine
 10
5064.279548190098
 20
7450.191688367296
 30
0.0
 11
5062.279548190098
 21
7450.191688367296
 31
0.0
  0
ARC
  5
25A78
330
747D
100
AcDbEntity
  8
細線
100
AcDbCircle
 10
5062.2795481901
 20
7452.191688367297
 30
0.0
 40
2.0
100
AcDbArc
 50
180.0
 51
270.0
  0
LINE
  5
25A79
330
747D
100
AcDbEntity
  8
細線
100
AcDbLine
 10
5060.279548190099
 20
7452.191688367297
 30
0.0
 11
5060.279548190099
 21
7452.891688367298
 31
0.0
  0
LINE
  5
25B49
330
747D
100
AcDbEntity
  8
細線
100
AcDbLine
 10
5705.779548190101
 20
7421.391688367293
 30
0.0
 11
5696.7795481901
 21
7421.391688367293
 31
0.0
  0
LINE
  5
25B4A
330
747D
100
AcDbEntity
  8
細線
100
AcDbLine
 10
5696.7795481901
 20
7421.391688367293
 30
0.0
 11
5696.779548190099
 21
7416.891688367297
 31
0.0
  0
LINE
  5
25B4B
330
747D
100
AcDbEntity
  8
細線
100
AcDbLine
 10
5675.779548190102
 20
7439.891688367294
 30
0.0
 11
5675.779548190102
 21
7435.891688367293
 31
0.0
  0
LINE
  5
25BB1
330
747D
100
AcDbEntity
  8
細線
100
AcDbLine
 10
5081.279548190116
 20
7439.891688367385
 30
0.0
 11
5081.279548190116
 21
7434.891688367385
 31
0.0
  0
MTEXT
  5
25C14
330
747D
100
AcDbEntity
  8
寸法
 62
     7
 48
50.0
100
AcDbMText
 10
5067.659878375251
 20
9640.531219146872
 30
0.0
 40
96.0
 41
0.0
 71
     5
 72
     1
  1
棚 3段
  7
STYLE1
 73
     1
 44
1.0
1001
ACAD
1000
MTEXTBEGIN
1070
    73
1070
     1
1070
    44
1040
1.0
1070
    74
1070
     0
1000
MTEXTEND
  0
MTEXT
  5
25C15
330
747D
100
AcDbEntity
  8
寸法
 62
     7
 48
50.0
100
AcDbMText
 10
6367.659878375249
 20
9640.531219146916
 30
0.0
 40
96.0
 41
0.0
 71
     5
 72
     1
  1
棚 3段
  7
STYLE1
 73
     1
 44
1.0
1001
ACAD
1000
MTEXTBEGIN
1070
    73
1070
     1
1070
    44
1040
1.0
1070
    74
1070
     0
1000
MTEXTEND
  0
LINE
  5
25C16
330
747D
100
AcDbEntity
  8
寸法
 48
50.0
100
AcDbLine
 10
5804.45833822538
 20
7344.219285980692
 30
0.0
 11
6023.610278401104
 21
7344.219285980692
 31
0.0
  0
LINE
  5
25C17
330
747D
100
AcDbEntity
  8
寸法
 48
50.0
100
AcDbLine
 10
5680.088850884108
 20
7342.307488147523
 30
0.0
 11
5650.327518892685
 21
7342.307488147523
 31
0.0
  0
LINE
  5
25C18
330
747D
100
AcDbEntity
  8
寸法
 48
50.0
100
AcDbLine
 10
5650.327518892685
 20
7342.307488147523
 30
0.0
 11
5705.791854839159
 21
7379.886939076135
 31
0.0
  0
LINE
  5
25C19
330
747D
100
AcDbEntity
  8
寸法
 48
50.0
100
AcDbLine
 10
5731.494858794212
 20
7310.997329495356
 30
0.0
 11
5680.088850884108
 21
7310.997329495356
 31
0.0
  0
LINE
  5
25C1A
330
747D
100
AcDbEntity
  8
寸法
 48
50.0
100
AcDbLine
 10
5680.088850884108
 20
7310.997329495356
 30
0.0
 11
5680.088850884108
 21
7342.307488147523
 31
0.0
  0
LINE
  5
25C1B
330
747D
100
AcDbEntity
  8
寸法
 48
50.0
100
AcDbLine
 10
5761.256190785635
 20
7342.307488147523
 30
0.0
 11
5705.791854839159
 21
7379.886939076135
 31
0.0
  0
LINE
  5
25C1C
330
747D
100
AcDbEntity
  8
寸法
 48
50.0
100
AcDbLine
 10
5731.494858794212
 20
7342.307488147523
 30
0.0
 11
5761.256190785635
 21
7342.307488147523
 31
0.0
  0
LINE
  5
25C1D
330
747D
100
AcDbEntity
  8
寸法
 48
50.0
100
AcDbLine
 10
5731.494858794212
 20
7310.997329495356
 30
0.0
 11
5731.494858794212
 21
7342.307488147523
 31
0.0
  0
LINE
  5
25C1E
330
747D
100
AcDbEntity
  8
寸法
 48
50.0
100
AcDbLine
 10
5680.088850884108
 20
7310.997329495356
 30
0.0
 11
5731.494858794212
 21
7310.997329495356
 31
0.0
  0
LINE
  5
25C1F
330
747D
100
AcDbEntity
  8
寸法
 48
50.0
100
AcDbLine
 10
6023.610278401104
 20
7344.219285980692
 30
0.0
 11
5934.326059805683
 21
7368.14292025018
 31
0.0
  0
LINE
  5
25C20
330
747D
100
AcDbEntity
  8
寸法
 48
50.0
100
AcDbLine
 10
5934.326059805683
 20
7368.14292025018
 30
0.0
 11
5934.326059805683
 21
7314.479285668389
 31
0.0
  0
LINE
  5
25C21
330
747D
100
AcDbEntity
  8
寸法
 48
50.0
100
AcDbLine
 10
5607.125371452941
 20
7344.219285980692
 30
0.0
 11
5387.973431277215
 21
7344.219285980692
 31
0.0
  0
LINE
  5
25C22
330
747D
100
AcDbEntity
  8
寸法
 48
50.0
100
AcDbLine
 10
5477.257649872637
 20
7368.14292025018
 30
0.0
 11
5477.257649872637
 21
7314.479285668389
 31
0.0
  0
LINE
  5
25C23
330
747D
100
AcDbEntity
  8
寸法
 48
50.0
100
AcDbLine
 10
5387.973431277215
 20
7344.219285980692
 30
0.0
 11
5477.257649872637
 21
7368.14292025018
 31
0.0
  0
DIMENSION
  5
25C24
330
747D
100
AcDbEntity
  8
寸法
100
AcDbDimension
  2
*D16
 10
5113.291854839169
 20
6854.332282598581
 30
0.0
 11
5705.791854839169
 21
6854.332282598581
 31
0.0
 70
   160
  1
有効開口部間口\P<>
 71
     5
 42
1097.0
  3
INABA_S40G
100
AcDbAlignedDimension
 13
6210.291854839169
 23
7413.891688367283
 33
0.0
 14
5113.291854839169
 24
7413.891688367172
 34
0.0
100
AcDbRotatedDimension
1001
ACAD
1000
DSTYLE
1002
{
1002
}
  0
DIMENSION
  5
25C25
330
747D
100
AcDbEntity
  8
寸法
100
AcDbDimension
  2
*D15
 10
7020.79185483916
 20
6649.755719013552
 30
0.0
 11
5705.791854839169
 21
6649.755719013552
 31
0.0
 70
   160
 71
     5
 42
2629.999999999982
  3
INABA_S40G
100
AcDbAlignedDimension
 13
4390.791854839178
 23
7413.891688367079
 33
0.0
 14
7020.79185483916
 24
7413.891688367207
 34
0.0
100
AcDbRotatedDimension
1001
ACAD
1000
DSTYLE
1002
{
1002
}
  0
LINE
  5
280D1
330
747D
100
AcDbEntity
  8
部品1
100
AcDbLine
 10
6992.791854839208
 20
8308.891688367337
 30
0.0
 11
7020.791854839209
 21
8308.891688367337
 31
0.0
  0
LINE
  5
280D2
330
747D
100
AcDbEntity
  8
部品1
100
AcDbLine
 10
4418.791854839184
 20
8308.891688367209
 30
0.0
 11
4390.791854839183
 21
8308.891688367209
 31
0.0
  0
LINE
  5
280D3
330
747D
100
AcDbEntity
  8
部品1
100
AcDbLine
 10
6992.791854839267
 20
9568.891688367381
 30
0.0
 11
7020.791854839266
 21
9568.891688367381
 31
0.0
  0
LINE
  5
280D4
330
747D
100
AcDbEntity
  8
部品1
100
AcDbLine
 10
4418.791854839241
 20
9568.891688367253
 30
0.0
 11
4390.791854839242
 21
9568.891688367253
 31
0.0
  0
LINE
  5
28DC8
330
747D
100
AcDbEntity
  8
部品1
100
AcDbLine
 10
4418.791854839207
 20
8728.891688367225
 30
0.0
 11
4390.791854839207
 21
8728.891688367225
 31
0.0
  0
LINE
  5
28DC9
330
747D
100
AcDbEntity
  8
部品1
100
AcDbLine
 10
6992.791854839232
 20
8728.891688367353
 30
0.0
 11
7020.791854839233
 21
8728.891688367353
 31
0.0
  0
TEXT
  5
29390
330
747D
100
AcDbEntity
  8
文字
 62
     7
 48
50.0
100
AcDbText
 10
13204.62817349958
 20
45.77562937909442
 30
0.0
 40
100.0
  1
○床面積 ： 6.92㎡(2.10坪) 　
  7
STYLE2
100
AcDbText
  0
DIMENSION
  5
29886
330
747D
100
AcDbEntity
  8
寸法
 48
50.0
100
AcDbDimension
  2
*D17
 10
8485.01531813625
 20
4720.329871500374
 30
0.0
 11
8495.680793395173
 21
5091.176534742072
 31
0.0
 70
   161
 71
     5
 42
140.9999999999991
  3
INABA_S40G
100
AcDbAlignedDimension
 13
9065.019745063196
 23
4844.707361461722
 33
0.0
 14
9060.966289506572
 24
4703.765637696009
 34
0.0
1001
ACAD
1000
DSTYLE
1002
{
1070
   174
1070
     0
1070
   272
1070
     1
1070
   288
1070
     0
1070
   341
1005
0
1002
}
  0
LINE
  5
29887
330
747D
100
AcDbEntity
  8
細線
 48
50.0
100
AcDbLine
 10
11603.12372490462
 20
4610.984612627042
 30
0.0
 11
11603.12372490462
 21
2520.984612627043
 31
0.0
  0
LINE
  5
29888
330
747D
100
AcDbEntity
  8
細線
 48
50.0
100
AcDbLine
 10
11618.12372490462
 20
4610.984612627042
 30
0.0
 11
11618.12372490462
 21
2520.984612627043
 31
0.0
  0
LINE
  5
29889
330
747D
100
AcDbEntity
  8
細線
 48
50.0
100
AcDbLine
 10
11478.12372490462
 20
4610.984612627042
 30
0.0
 11
11478.12372490462
 21
2520.984612627043
 31
0.0
  0
LINE
  5
2988A
330
747D
100
AcDbEntity
  8
細線
 48
50.0
100
AcDbLine
 10
11463.12372490462
 20
4610.984612627042
 30
0.0
 11
11463.12372490462
 21
2520.984612627043
 31
0.0
  0
LINE
  5
2988B
330
747D
100
AcDbEntity
  8
細線
 48
50.0
100
AcDbLine
 10
11323.12372490462
 20
4610.984612627042
 30
0.0
 11
11323.12372490462
 21
2520.984612627043
 31
0.0
  0
LINE
  5
2988C
330
747D
100
AcDbEntity
  8
細線
 48
50.0
100
AcDbLine
 10
11338.12372490462
 20
4610.984612627042
 30
0.0
 11
11338.12372490462
 21
2520.984612627043
 31
0.0
  0
LINE
  5
2988D
330
747D
100
AcDbEntity
  8
部品1
100
AcDbLine
 10
10420.62372490462
 20
4610.984612627042
 30
0.0
 11
10420.62372490462
 21
2520.984612627043
 31
0.0
  0
LINE
  5
2988E
330
747D
100
AcDbEntity
  8
細線
 48
50.0
100
AcDbLine
 10
10078.12372490462
 20
4610.984612627042
 30
0.0
 11
10078.12372490462
 21
2520.984612627043
 31
0.0
  0
LINE
  5
2988F
330
747D
100
AcDbEntity
  8
細線
 48
50.0
100
AcDbLine
 10
10063.12372490462
 20
4610.984612627042
 30
0.0
 11
10063.12372490462
 21
2520.984612627043
 31
0.0
  0
LINE
  5
29890
330
747D
100
AcDbEntity
  8
細線
 48
50.0
100
AcDbLine
 10
10203.12372490462
 20
4610.984612627042
 30
0.0
 11
10203.12372490462
 21
2520.984612627043
 31
0.0
  0
LINE
  5
29891
330
747D
100
AcDbEntity
  8
細線
 48
50.0
100
AcDbLine
 10
10218.12372490462
 20
4610.984612627042
 30
0.0
 11
10218.12372490462
 21
2520.984612627043
 31
0.0
  0
LINE
  5
29892
330
747D
100
AcDbEntity
  8
細線
 48
50.0
100
AcDbLine
 10
10358.12372490462
 20
4610.984612627042
 30
0.0
 11
10358.12372490462
 21
2520.984612627043
 31
0.0
  0
LINE
  5
29893
330
747D
100
AcDbEntity
  8
細線
 48
50.0
100
AcDbLine
 10
10343.12372490462
 20
4610.984612627042
 30
0.0
 11
10343.12372490462
 21
2520.984612627043
 31
0.0
  0
LINE
  5
29894
330
747D
100
AcDbEntity
  8
部品1
100
AcDbLine
 10
10000.62372490462
 20
4610.984612627042
 30
0.0
 11
10000.62372490462
 21
2520.984612627043
 31
0.0
  0
DIMENSION
  5
29895
330
747D
100
AcDbEntity
  8
寸法
 48
50.0
100
AcDbDimension
  2
*D18
 10
11815.62372490462
 20
5244.642066206347
 30
0.0
 11
12021.6709689991
 21
5244.642066206347
 31
0.0
 70
   160
 71
     5
 42
80.0
  3
INABA_S40G
100
AcDbAlignedDimension
 13
11735.62372490462
 23
4792.795292238696
 33
0.0
 14
11815.62372490462
 24
4790.984612627045
 34
0.0
100
AcDbRotatedDimension
1001
ACAD
1000
DSTYLE
1002
{
1070
   174
1070
     0
1070
   272
1070
     1
1070
   288
1070
     0
1070
   341
1005
0
1002
}
  0
LINE
  5
29896
330
747D
100
AcDbEntity
  8
細線
 48
50.0
100
AcDbLine
 10
9238.123724904617
 20
4610.984612627042
 30
0.0
 11
9238.123724904617
 21
2520.984612627043
 31
0.0
  0
LINE
  5
29897
330
747D
100
AcDbEntity
  8
細線
 48
50.0
100
AcDbLine
 10
9223.123724904617
 20
4610.984612627042
 30
0.0
 11
9223.123724904617
 21
2520.984612627043
 31
0.0
  0
LINE
  5
29898
330
747D
100
AcDbEntity
  8
細線
 48
50.0
100
AcDbLine
 10
9363.123724904617
 20
4610.984612627042
 30
0.0
 11
9363.123724904617
 21
2520.984612627043
 31
0.0
  0
LINE
  5
29899
330
747D
100
AcDbEntity
  8
細線
 48
50.0
100
AcDbLine
 10
9378.123724904616
 20
4610.984612627042
 30
0.0
 11
9378.123724904616
 21
2520.984612627043
 31
0.0
  0
LINE
  5
2989A
330
747D
100
AcDbEntity
  8
細線
 48
50.0
100
AcDbLine
 10
9518.123724904617
 20
4610.984612627042
 30
0.0
 11
9518.123724904617
 21
2520.984612627043
 31
0.0
  0
LINE
  5
2989B
330
747D
100
AcDbEntity
  8
細線
 48
50.0
100
AcDbLine
 10
9503.123724904616
 20
4610.984612627042
 30
0.0
 11
9503.123724904616
 21
2520.984612627043
 31
0.0
  0
LWPOLYLINE
  5
298A2
330
747D
100
AcDbEntity
  8
部品1
100
AcDbPolyline
 90
        4
 70
     1
 43
0.0
 10
10048.88839179039
 20
1897.946330930704
 10
10048.88839179039
 20
1658.054009385172
 10
10812.35905801884
 20
1658.054009385172
 10
10812.35905801884
 20
1897.946330930704
  0
TEXT
  5
298A3
330
747D
100
AcDbEntity
  8
部品1
100
AcDbText
 10
10138.334493214
 20
1705.052801712181
 30
0.0
 40
135.0
  1
側面図
  7
STYLE2
100
AcDbText
  0
LINE
  5
298A4
330
747D
100
AcDbEntity
  8
部品1
100
AcDbLine
 10
9105.623724904615
 20
2470.984612627042
 30
0.0
 11
11735.62372490462
 21
2470.984612627042
 31
0.0
  0
DIMENSION
  5
298BE
330
747D
100
AcDbEntity
  8
寸法
 48
50.0
100
AcDbDimension
  2
*D19
 10
9045.623724904617
 20
5464.852752937964
 30
0.0
 11
10448.98264979199
 21
5464.852752937964
 31
0.0
 70
   160
 71
     5
 42
2770.0
  3
INABA_S40G
100
AcDbAlignedDimension
 13
11815.62372490462
 23
4790.984612627045
 33
0.0
 14
9045.623724904617
 24
4845.984612627047
 34
0.0
100
AcDbRotatedDimension
1001
ACAD
1000
DSTYLE
1002
{
1070
   174
1070
     0
1070
   272
1070
     1
1070
   288
1070
     0
1070
   341
1005
0
1002
}
  0
DIMENSION
  5
298BF
330
747D
100
AcDbEntity
  8
寸法
 48
50.0
100
AcDbDimension
  2
*D20
 10
9045.623724904617
 20
5244.642066206346
 30
0.0
 11
8735.985929629027
 21
5244.642066206346
 31
0.0
 70
   160
 71
     5
 42
60.0
  3
INABA_S40G
100
AcDbAlignedDimension
 13
9105.623724904617
 23
4841.986230750019
 33
0.0
 14
9045.623724904617
 24
4845.984612627047
 34
0.0
100
AcDbRotatedDimension
1001
ACAD
1000
DSTYLE
1002
{
1070
   174
1070
     0
1070
   272
1070
     1
1070
   288
1070
     0
1070
   341
1005
0
1002
}
  0
DIMENSION
  5
298C0
330
747D
100
AcDbEntity
  8
寸法
 48
50.0
100
AcDbDimension
  2
*D21
 10
9105.623724904617
 20
5244.642066206347
 30
0.0
 11
10460.39391593381
 21
5244.642066206347
 31
0.0
 70
   160
  1
柱外寸法<>
 71
     5
 42
2630.0
  3
INABA_S40G
100
AcDbAlignedDimension
 13
11735.62372490462
 23
4792.795292238696
 33
0.0
 14
9105.623724904617
 24
4841.986230750019
 34
0.0
100
AcDbRotatedDimension
1001
ACAD
1000
DSTYLE
1002
{
1070
   174
1070
     0
1070
   272
1070
     1
1070
   288
1070
     0
1070
   341
1005
0
1002
}
  0
LINE
  5
298C4
330
747D
100
AcDbEntity
  8
部品1
100
AcDbLine
 10
11680.62372490462
 20
4610.984612627042
 30
0.0
 11
11680.62372490462
 21
2520.984612627043
 31
0.0
  0
LINE
  5
298C5
330
747D
100
AcDbEntity
  8
部品1
100
AcDbLine
 10
11735.62372490461
 20
4665.518886014781
 30
0.0
 11
11735.62372490462
 21
2370.984612627043
 31
0.0
  0
LINE
  5
298C6
330
747D
100
AcDbEntity
  8
部品1
100
AcDbLine
 10
9580.623724904617
 20
4610.984612627042
 30
0.0
 11
9580.623724904617
 21
2520.984612627043
 31
0.0
  0
DIMENSION
  5
298C7
330
747D
100
AcDbEntity
  8
寸法
100
AcDbDimension
  2
*D22
 10
8261.873595721358
 20
2470.984612627042
 30
0.0
 11
8261.873595721358
 21
2164.937368532553
 31
0.0
 70
   160
 71
     5
 42
50.0
  3
INABA_S40G
100
AcDbAlignedDimension
 13
9105.623724904617
 23
2520.984612627043
 33
0.0
 14
9050.623724904617
 24
2470.984612627042
 34
0.0
 50
90.0
100
AcDbRotatedDimension
1001
ACAD
1000
DSTYLE
1002
{
1070
   174
1070
     0
1070
   272
1070
     1
1070
   288
1070
     0
1070
   341
1005
0
1002
}
  0
DIMENSION
  5
298C8
330
747D
100
AcDbEntity
  8
寸法
100
AcDbDimension
  2
*D23
 10
7961.873595721359
 20
2370.984612627042
 30
0.0
 11
7961.873595721357
 21
2134.937368532553
 31
0.0
 70
   160
 71
     5
 42
100.0
  3
INABA_S40G
100
AcDbAlignedDimension
 13
9050.623724904617
 23
2470.984612627042
 33
0.0
 14
8049.122649009484
 24
2370.984612627042
 34
0.0
 50
90.0
100
AcDbRotatedDimension
1001
ACAD
1000
DSTYLE
1002
{
1070
   174
1070
     0
1070
   272
1070
     1
1070
   288
1070
     0
1070
   341
1005
0
1002
}
  0
LINE
  5
298CC
330
747D
100
AcDbEntity
  8
部品1
100
AcDbLine
 10
9105.623724904619
 20
4703.12705055592
 30
0.0
 11
9105.623724904617
 21
2370.984612627042
 31
0.0
  0
LINE
  5
298CD
330
747D
100
AcDbEntity
  8
部品1
100
AcDbLine
 10
9160.623724904617
 20
4610.984612627042
 30
0.0
 11
9160.623724904617
 21
2520.984612627043
 31
0.0
  0
LINE
  5
298CF
330
747D
100
AcDbEntity
  8
部品1
100
AcDbLine
 10
9105.623724904617
 20
2520.984612627043
 30
0.0
 11
11735.62372490462
 21
2520.984612627043
 31
0.0
  0
LINE
  5
298D0
330
747D
100
AcDbEntity
  8
部品1
100
AcDbLine
 10
9105.623724904617
 20
4610.984612627042
 30
0.0
 11
11735.62372490462
 21
4610.984612627042
 31
0.0
  0
LINE
  5
298D1
330
747D
100
AcDbEntity
  8
部品1
100
AcDbLine
 10
11260.62372490461
 20
4610.984612627042
 30
0.0
 11
11260.62372490461
 21
2520.984612627043
 31
0.0
  0
LINE
  5
298D2
330
747D
100
AcDbEntity
  8
細線
 48
50.0
100
AcDbLine
 10
10763.12372490462
 20
4610.984612627042
 30
0.0
 11
10763.12372490462
 21
2520.984612627043
 31
0.0
  0
LINE
  5
298D3
330
747D
100
AcDbEntity
  8
細線
 48
50.0
100
AcDbLine
 10
10778.12372490462
 20
4610.984612627042
 30
0.0
 11
10778.12372490462
 21
2520.984612627043
 31
0.0
  0
LINE
  5
298D4
330
747D
100
AcDbEntity
  8
細線
 48
50.0
100
AcDbLine
 10
10638.12372490462
 20
4610.984612627042
 30
0.0
 11
10638.12372490462
 21
2520.984612627043
 31
0.0
  0
LINE
  5
298D5
330
747D
100
AcDbEntity
  8
細線
 48
50.0
100
AcDbLine
 10
10623.12372490462
 20
4610.984612627042
 30
0.0
 11
10623.12372490462
 21
2520.984612627043
 31
0.0
  0
LINE
  5
298D6
330
747D
100
AcDbEntity
  8
細線
 48
50.0
100
AcDbLine
 10
10483.12372490462
 20
4610.984612627042
 30
0.0
 11
10483.12372490462
 21
2520.984612627043
 31
0.0
  0
LINE
  5
298D7
330
747D
100
AcDbEntity
  8
細線
 48
50.0
100
AcDbLine
 10
10498.12372490462
 20
4610.984612627042
 30
0.0
 11
10498.12372490462
 21
2520.984612627043
 31
0.0
  0
TEXT
  5
298D8
330
747D
100
AcDbEntity
  8
部品1
 48
50.0
100
AcDbText
 10
10772.20472686571
 20
4868.253705565349
 30
0.0
 40
120.0
  1
37
 50
90.0
  7
STYLE1
100
AcDbText
  0
TEXT
  5
298D9
330
747D
100
AcDbEntity
  8
部品1
 48
50.0
100
AcDbText
 10
10294.57170420062
 20
5005.754963783632
 30
0.0
 40
120.0
  1
1000
  7
STYLE1
100
AcDbText
  0
LINE
  5
298DA
330
747D
100
AcDbEntity
  8
部品1
 48
50.0
100
AcDbLine
 10
10606.30386897689
 20
4969.870941631199
 30
0.0
 11
10606.30386897689
 21
4953.6709416312
 31
0.0
  0
LINE
  5
298DB
330
747D
100
AcDbEntity
  8
部品1
 48
50.0
100
AcDbLine
 10
10306.30386897689
 20
4969.870941631199
 30
0.0
 11
10606.30386897689
 21
4969.870941631199
 31
0.0
  0
LINE
  5
298DC
330
747D
100
AcDbEntity
  8
部品1
100
AcDbLine
 10
9053.16871126158
 20
4844.702347961309
 30
0.0
 11
11808.23560176608
 21
4789.625410336181
 31
0.0
  0
LINE
  5
298DD
330
747D
100
AcDbEntity
  8
部品1
100
AcDbLine
 10
9060.966289506572
 20
4703.765637696009
 30
0.0
 11
11790.28742544447
 21
4664.737212461804
 31
0.0
  0
LINE
  5
298DE
330
747D
100
AcDbEntity
  8
細線
 48
50.0
100
AcDbLine
 10
9078.623724904616
 20
4843.384289002447
 30
0.0
 11
9073.33462334911
 21
4703.298656375093
 31
0.0
  0
LINE
  5
298DF
330
747D
100
AcDbEntity
  8
細線
 48
50.0
100
AcDbLine
 10
11782.59300809831
 20
4790.138035106512
 30
0.0
 11
11777.87604201662
 21
4665.205819171595
 31
0.0
  0
LINE
  5
298E0
330
747D
100
AcDbEntity
  8
部品1
 48
50.0
100
AcDbLine
 10
9045.808010817724
 20
4837.578158791735
 30
0.0
 11
9046.188270595536
 21
4817.651194345323
 31
0.0
  0
LINE
  5
298E1
330
747D
100
AcDbEntity
  8
部品1
 48
50.0
100
AcDbLine
 10
9049.257042701782
 20
4814.075912851851
 30
0.0
 11
9050.960944193146
 21
4724.785416145204
 31
0.0
  0
LINE
  5
298E2
330
747D
100
AcDbEntity
  8
細線
 48
50.0
100
AcDbLine
 10
9046.663148005432
 20
4817.001694468404
 30
0.0
 11
11812.2991327506
 21
4761.377489827576
 31
0.0
  0
LINE
  5
298E3
330
747D
100
AcDbEntity
  8
細線
 48
50.0
100
AcDbLine
 10
9051.423623242717
 20
4724.14018277054
 30
0.0
 11
11801.42728767336
 21
4684.330863796048
 31
0.0
  0
LINE
  5
298E4
330
747D
100
AcDbEntity
  8
部品1
 48
50.0
100
AcDbLine
 10
9054.029716299387
 20
4721.210134651732
 30
0.0
 11
9054.23166891982
 21
4710.62709925864
 31
0.0
  0
ARC
  5
298E5
330
747D
100
AcDbEntity
  8
部品1
 48
50.0
100
AcDbCircle
 10
9052.806736646063
 20
4837.711713199162
 30
0.0
 40
7.0
100
AcDbArc
 50
87.03587545283093
 51
181.0932240293156
  0
ARC
  5
298E6
330
747D
100
AcDbEntity
  8
部品1
 48
50.0
100
AcDbCircle
 10
9061.230394748159
 20
4710.760653666067
 30
0.0
 40
7.0
100
AcDbArc
 50
181.0932240293156
 51
267.8377559869492
  0
ARC
  5
298E7
330
747D
100
AcDbEntity
  8
部品1
100
AcDbCircle
 10
9051.030262372959
 20
4721.152897048549
 30
0.0
 40
3.0
100
AcDbArc
 50
1.093224029315636
 51
80.18775403169875
  0
ARC
  5
298E8
330
747D
100
AcDbEntity
  8
部品1
100
AcDbCircle
 10
9046.257588775352
 20
4814.018675248668
 30
0.0
 40
3.0
100
AcDbArc
 50
1.093224029315636
 51
80.18775403169875
  0
ARC
  5
298E9
330
747D
100
AcDbEntity
  8
部品1
100
AcDbCircle
 10
9046.888143178374
 20
4817.664549786066
 30
0.0
 40
0.7
100
AcDbArc
 50
181.0932240292114
 51
260.1877540314845
  0
ARC
  5
298EA
330
747D
100
AcDbEntity
  8
部品1
100
AcDbCircle
 10
9051.660816775983
 20
4724.798771585946
 30
0.0
 40
0.7
100
AcDbArc
 50
181.0932240292635
 51
260.1877540314845
  0
LINE
  5
298EB
330
747D
100
AcDbEntity
  8
部品1
 48
50.0
100
AcDbLine
 10
11814.83762771532
 20
4781.925764901262
 30
0.0
 11
11812.80700652435
 21
4761.980723643481
 31
0.0
  0
LINE
  5
298EC
330
747D
100
AcDbEntity
  8
部品1
 48
50.0
100
AcDbLine
 10
11809.45444003987
 20
4758.670089570572
 30
0.0
 11
11801.94766077503
 21
4684.93746882556
 31
0.0
  0
LINE
  5
298ED
330
747D
100
AcDbEntity
  8
部品1
 48
50.0
100
AcDbLine
 10
11798.59509429054
 20
4681.626834752647
 30
0.0
 11
11797.51553125081
 21
4671.023217759089
 31
0.0
  0
ARC
  5
298EE
330
747D
100
AcDbEntity
  8
部品1
 48
50.0
100
AcDbCircle
 10
11807.87362715056
 20
4782.634775574036
 30
0.0
 40
7.0
100
AcDbArc
 50
354.1866997665532
 51
87.03587545283093
  0
ARC
  5
298EF
330
747D
100
AcDbEntity
  8
部品1
 48
50.0
100
AcDbCircle
 10
11790.55153068605
 20
4671.732228431863
 30
0.0
 40
7.0
100
AcDbArc
 50
267.8377559869492
 51
354.1866997665532
  0
ARC
  5
298F0
330
747D
100
AcDbEntity
  8
部品1
100
AcDbCircle
 10
11801.57966596115
 20
4681.322973035745
 30
0.0
 40
3.0
100
AcDbArc
 50
95.0921697642102
 51
174.1866997665532
  0
ARC
  5
298F1
330
747D
100
AcDbEntity
  8
部品1
100
AcDbCircle
 10
11812.43901171048
 20
4758.366227853669
 30
0.0
 40
3.0
100
AcDbArc
 50
95.0921697642102
 51
174.1866997665532
  0
ARC
  5
298F2
330
747D
100
AcDbEntity
  8
部品1
100
AcDbCircle
 10
11812.11060646788
 20
4762.051624710759
 30
0.0
 40
0.7
100
AcDbArc
 50
275.0921697642102
 51
354.1866997665532
  0
ARC
  5
298F3
330
747D
100
AcDbEntity
  8
部品1
100
AcDbCircle
 10
11801.25126071856
 20
4685.008369892836
 30
0.0
 40
0.7
100
AcDbArc
 50
275.0921697642102
 51
354.1866997667087
  0
LINE
  5
298F4
330
747D
100
AcDbEntity
  8
部品1
100
AcDbLine
 10
10280.84885533385
 20
4971.189000590061
 30
0.0
 11
10606.30386897689
 21
4953.6709416312
 31
0.0
  0
LINE
  5
298F5
330
747D
100
AcDbEntity
  8
部品1
100
AcDbLine
 10
10840.62372490461
 20
4610.984612627042
 30
0.0
 11
10840.62372490461
 21
2520.984612627044
 31
0.0
  0
LINE
  5
29AE3
330
747D
100
AcDbEntity
  8
部品1
100
AcDbLine
 10
6992.791854839257
 20
9148.891688367367
 30
0.0
 11
7020.791854839257
 21
9148.891688367367
 31
0.0
  0
LINE
  5
29AE4
330
747D
100
AcDbEntity
  8
部品1
100
AcDbLine
 10
4418.791854839231
 20
9148.891688367239
 30
0.0
 11
4390.791854839231
 21
9148.891688367239
 31
0.0
  0
DIMENSION
  5
2A5E2
330
747D
100
AcDbEntity
  8
寸法
100
AcDbDimension
  2
*D24
 10
12440.55088287675
 20
4790.984612627043
 30
0.0
 11
12340.53907185312
 21
3630.984612627045
 31
0.0
 70
    32
 71
     5
 42
2320.0
  3
INABA_S40G
100
AcDbAlignedDimension
 13
11735.62372490462
 23
2470.984612627043
 33
0.0
 14
11815.62372490462
 24
4790.984612627043
 34
0.0
 50
90.0
100
AcDbRotatedDimension
1001
ACAD
1000
DSTYLE
1002
{
1070
   174
1070
     0
1070
   272
1070
     1
1070
   288
1070
     0
1070
   341
1005
0
1002
}
  0
DIMENSION
  5
2A5F8
330
747D
100
AcDbEntity
  8
寸法
100
AcDbDimension
  2
*D27
 10
7961.873595721357
 20
4845.984612627042
 30
0.0
 11
7861.861784697736
 21
3658.484612627042
 31
0.0
 70
    32
 71
     5
 42
2375.000000000005
  3
INABA_S40G
100
AcDbAlignedDimension
 13
9105.623724904617
 23
2470.984612627038
 33
0.0
 14
9045.623724904617
 24
4845.984612627042
 34
0.0
 50
90.0
100
AcDbRotatedDimension
1001
ACAD
1000
DSTYLE
1002
{
1070
   174
1070
     0
1070
   272
1070
     1
1070
   288
1070
     0
1070
   341
1005
0
1002
}
  0
DIMENSION
  5
2A5F9
330
747D
100
AcDbEntity
  8
寸法
100
AcDbDimension
  2
*D26
 10
8261.873595721358
 20
2520.984612627038
 30
0.0
 11
8161.861784697736
 21
3565.98461262704
 31
0.0
 70
    32
 71
     5
 42
2090.000000000001
  3
INABA_S40G
100
AcDbAlignedDimension
 13
9105.623724904617
 23
4610.984612627038
 33
0.0
 14
9105.623724904617
 24
2520.984612627038
 34
0.0
 50
90.0
100
AcDbRotatedDimension
1001
ACAD
1000
DSTYLE
1002
{
1070
   174
1070
     0
1070
   272
1070
     1
1070
   288
1070
     0
1070
   341
1005
0
1002
}
  0
DIMENSION
  5
2A5FA
330
747D
100
AcDbEntity
  8
寸法
100
AcDbDimension
  2
*D25
 10
8560.715083507362
 20
2532.984612627038
 30
0.0
 11
8460.70327248374
 21
3567.984612627039
 31
0.0
 70
    32
  1
有効開口部高サ<>
 71
     5
 42
2070.0
  3
INABA_S40G
100
AcDbAlignedDimension
 13
9105.623724904621
 23
4602.984612627038
 33
0.0
 14
9105.623724904617
 24
2532.984612627038
 34
0.0
 50
90.0
100
AcDbRotatedDimension
1001
ACAD
1000
DSTYLE
1002
{
1070
   174
1070
     0
1070
   272
1070
     1
1070
   288
1070
     0
1070
   341
1005
0
1002
}
  0
TEXT
  5
2AFA2
330
747D
100
AcDbEntity
  8
文字
 62
     7
 48
50.0
100
AcDbText
 10
14975.33715950515
 20
8720.013745883729
 30
0.0
 40
100.0
  1
SUS            2.0
  7
STYLE1
100
AcDbText
  0
TEXT
  5
2AFA3
330
747D
100
AcDbEntity
  8
文字
 62
     7
 48
50.0
100
AcDbText
 10
13583.11819016569
 20
8720.013745883733
 30
0.0
 40
100.0
  1
掛金
  7
STYLE1
100
AcDbText
  0
TEXT
  5
2AFA4
330
747D
100
AcDbEntity
  8
文字
 62
     7
 48
50.0
100
AcDbText
 10
15022.63965474515
 20
8890.013745883729
 30
0.0
 40
100.0
  1
F12            0.6
  7
STYLE1
100
AcDbText
  0
TEXT
  5
2AFA5
330
747D
100
AcDbEntity
  8
文字
 62
     7
 48
50.0
100
AcDbText
 10
13583.11819016569
 20
8890.013745883733
 30
0.0
 40
100.0
  1
ガラリ付壁パネル
  7
STYLE1
100
AcDbText
  0
LINE
  5
2AFA7
330
747D
100
AcDbEntity
  8
仕様書枠
 48
50.0
100
AcDbLine
 10
16307.19999999999
 20
8349.600000000004
 30
0.0
 11
13127.19999999999
 21
8349.600000000007
 31
0.0
  0
LINE
  5
2AFA9
330
747D
100
AcDbEntity
  8
仕様書枠
 48
50.0
100
AcDbLine
 10
16307.19999999999
 20
8519.600000000004
 30
0.0
 11
13127.19999999999
 21
8519.600000000004
 31
0.0
  0
MTEXT
  5
2B019
330
747D
100
AcDbEntity
  8
文字
  6
ByBlock
 62
     7
 48
50.0
100
AcDbMText
 10
5089.515033678412
 20
8741.162960112685
 30
0.0
 40
150.0
 41
0.0
 71
     1
 72
     1
  1
組立後、\P床コンクリート打
  7
STYLE1
 73
     1
 44
1.0
1001
ACAD
1000
MTEXTBEGIN
1070
    73
1070
     1
1070
    44
1040
1.0
1070
    74
1070
     0
1000
MTEXTEND
  0
TEXT
  5
2B064
330
747D
100
AcDbEntity
  8
文字
 62
     7
 48
50.0
100
AcDbText
 10
13583.11819016568
 20
9060.013745883729
 30
0.0
 40
100.0
  1
アンカープレート
  7
STYLE1
100
AcDbText
  0
TEXT
  5
2B065
330
747D
100
AcDbEntity
  8
文字
 62
     7
 48
50.0
100
AcDbText
 10
15022.63965474514
 20
9060.013745883722
 30
0.0
 40
100.0
  1
F12            2.3
  7
STYLE1
100
AcDbText
  0
LINE
  5
2B066
330
747D
100
AcDbEntity
  8
仕様書枠
 48
50.0
100
AcDbLine
 10
16307.2
 20
10049.6
 30
0.0
 11
13127.2
 21
10049.6
 31
0.0
  0
LINE
  5
2B067
330
747D
100
AcDbEntity
  8
仕様書枠
 48
50.0
100
AcDbLine
 10
16307.2
 20
11409.6
 30
0.0
 11
13127.2
 21
11409.6
 31
0.0
  0
LINE
  5
2B068
330
747D
100
AcDbEntity
  8
仕様書枠
 48
50.0
100
AcDbLine
 10
16307.19999999999
 20
8349.600000000002
 30
0.0
 11
16307.2
 21
11409.6
 31
0.0
  0
LINE
  5
2B069
330
747D
100
AcDbEntity
  8
仕様書枠
 48
50.0
100
AcDbLine
 10
14785.2
 20
11409.6
 30
0.0
 11
14785.2
 21
8689.600000000003
 31
0.0
  0
LINE
  5
2B06A
330
747D
100
AcDbEntity
  8
仕様書枠
 48
50.0
100
AcDbLine
 10
13490.2
 20
11409.6
 30
0.0
 11
13490.20000000001
 21
8689.600000000003
 31
0.0
  0
LINE
  5
2B06B
330
747D
100
AcDbEntity
  8
仕様書枠
 48
50.0
100
AcDbLine
 10
16307.2
 20
11239.6
 30
0.0
 11
13127.2
 21
11239.6
 31
0.0
  0
LINE
  5
2B06C
330
747D
100
AcDbEntity
  8
仕様書枠
 48
50.0
100
AcDbLine
 10
16307.2
 20
10899.6
 30
0.0
 11
13127.2
 21
10899.6
 31
0.0
  0
LINE
  5
2B06D
330
747D
100
AcDbEntity
  8
仕様書枠
 48
50.0
100
AcDbLine
 10
16307.2
 20
11069.6
 30
0.0
 11
13127.2
 21
11069.6
 31
0.0
  0
LINE
  5
2B06E
330
747D
100
AcDbEntity
  8
仕様書枠
 48
50.0
100
AcDbLine
 10
16307.19999999999
 20
10559.6
 30
0.0
 11
13127.2
 21
10559.6
 31
0.0
  0
LINE
  5
2B06F
330
747D
100
AcDbEntity
  8
仕様書枠
 48
50.0
100
AcDbLine
 10
16307.19999999999
 20
10389.6
 30
0.0
 11
13127.2
 21
10389.6
 31
0.0
  0
LINE
  5
2B070
330
747D
100
AcDbEntity
  8
仕様書枠
 48
50.0
100
AcDbLine
 10
16307.19999999999
 20
10729.6
 30
0.0
 11
13127.2
 21
10729.6
 31
0.0
  0
TEXT
  5
2B071
330
747D
100
AcDbEntity
  8
文字
 62
     7
 48
50.0
100
AcDbText
 10
13197.42518560407
 20
11270.01374588373
 30
0.0
 40
100.0
  1
品番
  7
STYLE1
100
AcDbText
  0
TEXT
  5
2B072
330
747D
100
AcDbEntity
  8
文字
 62
     7
 48
50.0
100
AcDbText
 10
13271.19032244792
 20
11100.01374588373
 30
0.0
 40
100.0
  1
1
  7
STYLE1
100
AcDbText
  0
TEXT
  5
2B073
330
747D
100
AcDbEntity
  8
文字
 62
     7
 48
50.0
100
AcDbText
 10
13271.19032244792
 20
10930.01374588373
 30
0.0
 40
100.0
  1
2
  7
STYLE1
100
AcDbText
  0
TEXT
  5
2B074
330
747D
100
AcDbEntity
  8
文字
 62
     7
 48
50.0
100
AcDbText
 10
13271.19032244792
 20
10590.01374588373
 30
0.0
 40
100.0
  1
4
  7
STYLE1
100
AcDbText
  0
TEXT
  5
2B075
330
747D
100
AcDbEntity
  8
文字
 62
     7
 48
50.0
100
AcDbText
 10
13271.19032244792
 20
10760.01374588373
 30
0.0
 40
100.0
  1
3
  7
STYLE1
100
AcDbText
  0
TEXT
  5
2B076
330
747D
100
AcDbEntity
  8
文字
 62
     7
 48
50.0
100
AcDbText
 10
13732.03840939434
 20
11270.01374588373
 30
0.0
 40
100.0
  1
部　　品　　名
  7
STYLE1
100
AcDbText
  0
TEXT
  5
2B077
330
747D
100
AcDbEntity
  8
文字
 62
     7
 48
50.0
100
AcDbText
 10
14859.79774614482
 20
11270.01374588373
 30
0.0
 40
100.0
  1
材料（材質）　　単位mm
  7
STYLE1
100
AcDbText
  0
TEXT
  5
2B078
330
747D
100
AcDbEntity
  8
文字
 62
     7
 48
50.0
100
AcDbText
 10
13583.11819016569
 20
11100.01374588373
 30
0.0
 40
100.0
  1
土台枠
  7
STYLE1
100
AcDbText
  0
TEXT
  5
2B079
330
747D
100
AcDbEntity
  8
文字
 62
     7
 48
50.0
100
AcDbText
 10
13583.1181901657
 20
10930.01374588373
 30
0.0
 40
100.0
  1
柱
  7
STYLE1
100
AcDbText
  0
TEXT
  5
2B07A
330
747D
100
AcDbEntity
  8
文字
 62
     7
 48
50.0
100
AcDbText
 10
13583.11819016569
 20
10760.01374588373
 30
0.0
 40
100.0
  1
鴨居
  7
STYLE1
100
AcDbText
  0
TEXT
  5
2B07B
330
747D
100
AcDbEntity
  8
文字
 62
     7
 48
50.0
100
AcDbText
 10
13583.11819016569
 20
10590.01374588373
 30
0.0
 40
100.0
  1
桁後
  7
STYLE1
100
AcDbText
  0
TEXT
  5
2B07C
330
747D
100
AcDbEntity
  8
文字
 62
     7
 48
50.0
100
AcDbText
 10
13271.19032244792
 20
10420.01374588373
 30
0.0
 40
100.0
  1
5
  7
STYLE1
100
AcDbText
  0
TEXT
  5
2B07D
330
747D
100
AcDbEntity
  8
文字
 62
     7
 48
50.0
100
AcDbText
 10
13583.11819016569
 20
10420.01374588373
 30
0.0
 40
100.0
  1
妻板左右
  7
STYLE1
100
AcDbText
  0
TEXT
  5
2B07E
330
747D
100
AcDbEntity
  8
文字
 62
     7
 48
50.0
100
AcDbText
 10
13248.77747366447
 20
9570.013745883729
 30
0.0
 40
100.0
  1
10
  7
STYLE1
100
AcDbText
  0
TEXT
  5
2B07F
330
747D
100
AcDbEntity
  8
文字
 62
     7
 48
50.0
100
AcDbText
 10
13583.11819016568
 20
9740.013745883729
 30
0.0
 40
100.0
  1
壁パネル
  7
STYLE1
100
AcDbText
  0
TEXT
  5
2B080
330
747D
100
AcDbEntity
  8
文字
 62
     7
 48
50.0
100
AcDbText
 10
13583.11819016569
 20
10080.01374588373
 30
0.0
 40
100.0
  1
屋根パネル
  7
STYLE1
100
AcDbText
  0
TEXT
  5
2B081
330
747D
100
AcDbEntity
  8
文字
 62
     7
 48
50.0
100
AcDbText
 10
13583.11819016569
 20
10250.01374588373
 30
0.0
 40
100.0
  1
鼻隠シ前後
  7
STYLE1
100
AcDbText
  0
TEXT
  5
2B082
330
747D
100
AcDbEntity
  8
文字
 62
     7
 48
50.0
100
AcDbText
 10
13271.19032244792
 20
9910.01374588373
 30
0.0
 40
100.0
  1
8
  7
STYLE1
100
AcDbText
  0
TEXT
  5
2B083
330
747D
100
AcDbEntity
  8
文字
 62
     7
 48
50.0
100
AcDbText
 10
13271.19032244792
 20
9740.013745883729
 30
0.0
 40
100.0
  1
9
  7
STYLE1
100
AcDbText
  0
TEXT
  5
2B084
330
747D
100
AcDbEntity
  8
文字
 62
     7
 48
50.0
100
AcDbText
 10
13271.19032244792
 20
10080.01374588373
 30
0.0
 40
100.0
  1
7
  7
STYLE1
100
AcDbText
  0
TEXT
  5
2B085
330
747D
100
AcDbEntity
  8
文字
 62
     7
 48
50.0
100
AcDbText
 10
13271.19032244792
 20
10250.01374588373
 30
0.0
 40
100.0
  1
6
  7
STYLE1
100
AcDbText
  0
LINE
  5
2B086
330
747D
100
AcDbEntity
  8
仕様書枠
 48
50.0
100
AcDbLine
 10
16307.19999999999
 20
9709.600000000001
 30
0.0
 11
13127.2
 21
9709.600000000001
 31
0.0
  0
LINE
  5
2B087
330
747D
100
AcDbEntity
  8
仕様書枠
 48
50.0
100
AcDbLine
 10
16307.19999999999
 20
9369.600000000001
 30
0.0
 11
13127.2
 21
9369.600000000001
 31
0.0
  0
LINE
  5
2B088
330
747D
100
AcDbEntity
  8
仕様書枠
 48
50.0
100
AcDbLine
 10
16307.19999999999
 20
9539.6
 30
0.0
 11
13127.2
 21
9539.6
 31
0.0
  0
LINE
  5
2B089
330
747D
100
AcDbEntity
  8
仕様書枠
 48
50.0
100
AcDbLine
 10
16307.2
 20
10219.6
 30
0.0
 11
13127.2
 21
10219.6
 31
0.0
  0
LINE
  5
2B08A
330
747D
100
AcDbEntity
  8
仕様書枠
 48
50.0
100
AcDbLine
 10
16307.2
 20
9879.600000000001
 30
0.0
 11
13127.2
 21
9879.600000000001
 31
0.0
  0
TEXT
  5
2B08B
330
747D
100
AcDbEntity
  8
文字
 62
     7
 48
50.0
100
AcDbText
 10
13248.77747366447
 20
9400.013745883729
 30
0.0
 40
100.0
  1
11
  7
STYLE1
100
AcDbText
  0
LINE
  5
2B08C
330
747D
100
AcDbEntity
  8
仕様書枠
 48
50.0
100
AcDbLine
 10
16307.19999999999
 20
9199.600000000001
 30
0.0
 11
13127.2
 21
9199.600000000001
 31
0.0
  0
LINE
  5
2B08D
330
747D
100
AcDbEntity
  8
仕様書枠
 48
50.0
100
AcDbLine
 10
16307.19999999999
 20
8859.6
 30
0.0
 11
13127.2
 21
8859.600000000005
 31
0.0
  0
TEXT
  5
2B08E
330
747D
100
AcDbEntity
  8
文字
 62
     7
 48
50.0
100
AcDbText
 10
13248.77747366447
 20
9060.013745883729
 30
0.0
 40
100.0
  1
13
  7
STYLE1
100
AcDbText
  0
TEXT
  5
2B08F
330
747D
100
AcDbEntity
  8
文字
 62
     7
 48
50.0
100
AcDbText
 10
13248.77747366447
 20
9230.013745883729
 30
0.0
 40
100.0
  1
12
  7
STYLE1
100
AcDbText
  0
TEXT
  5
2B090
330
747D
100
AcDbEntity
  8
文字
 62
     7
 48
50.0
100
AcDbText
 10
15022.63965474517
 20
11100.01374588373
 30
0.0
 40
100.0
  1
F12            1.2
  7
STYLE1
100
AcDbText
  0
TEXT
  5
2B091
330
747D
100
AcDbEntity
  8
文字
 62
     7
 48
50.0
100
AcDbText
 10
15022.63965474518
 20
10930.01374588372
 30
0.0
 40
100.0
  1
F12            1.0
  7
STYLE1
100
AcDbText
  0
TEXT
  5
2B092
330
747D
100
AcDbEntity
  8
文字
 62
     7
 48
50.0
100
AcDbText
 10
15022.63965474516
 20
10760.01374588372
 30
0.0
 40
100.0
  1
Y10            1.0
  7
STYLE1
100
AcDbText
  0
TEXT
  5
2B093
330
747D
100
AcDbEntity
  8
文字
 62
     7
 48
50.0
100
AcDbText
 10
15022.63965474516
 20
10590.01374588372
 30
0.0
 40
100.0
  1
Y10            1.0
  7
STYLE1
100
AcDbText
  0
TEXT
  5
2B094
330
747D
100
AcDbEntity
  8
文字
 62
     7
 48
50.0
100
AcDbText
 10
15022.63965474516
 20
10420.01374588372
 30
0.0
 40
100.0
  1
Y10            0.7
  7
STYLE1
100
AcDbText
  0
TEXT
  5
2B095
330
747D
100
AcDbEntity
  8
文字
 62
     7
 48
50.0
100
AcDbText
 10
15022.63965474516
 20
10250.01374588372
 30
0.0
 40
100.0
  1
Y10            0.7
  7
STYLE1
100
AcDbText
  0
TEXT
  5
2B096
330
747D
100
AcDbEntity
  8
文字
 62
     7
 48
50.0
100
AcDbText
 10
15022.63965474516
 20
10080.01374588372
 30
0.0
 40
100.0
  1
Y10            0.5
  7
STYLE1
100
AcDbText
  0
TEXT
  5
2B097
330
747D
100
AcDbEntity
  8
文字
 62
     7
 48
50.0
100
AcDbText
 10
15022.63965474515
 20
9740.013745883725
 30
0.0
 40
100.0
  1
F12            0.6
  7
STYLE1
100
AcDbText
  0
LINE
  5
2B098
330
747D
100
AcDbEntity
  8
仕様書枠
 48
50.0
100
AcDbLine
 10
16307.19999999998
 20
8689.600000000003
 30
0.0
 11
13127.19999999999
 21
8689.600000000003
 31
0.0
  0
TEXT
  5
2B099
330
747D
100
AcDbEntity
  8
文字
 62
     7
 48
50.0
100
AcDbText
 10
13229.83081656555
 20
8550.013745883735
 30
0.0
 40
100.0
  1
F12→溶融亜鉛めっき鋼板(JIS G 3302)
  7
STYLE1
100
AcDbText
  0
TEXT
  5
2B09A
330
747D
100
AcDbEntity
  8
文字
 62
     7
 48
50.0
100
AcDbText
 10
13229.83081656555
 20
8380.013745883735
 30
0.0
 40
100.0
  1
Y10→溶融亜鉛-5％アルミニウム合金めっき鋼板(JIS G 3317)
 41
0.9
  7
STYLE1
100
AcDbText
  0
LINE
  5
2B09B
330
747D
100
AcDbEntity
  8
仕様書枠
 48
50.0
100
AcDbLine
 10
13127.2
 20
11409.6
 30
0.0
 11
13127.19999999998
 21
8349.600000000007
 31
0.0
  0
LINE
  5
2B09C
330
747D
100
AcDbEntity
  8
仕様書枠
 48
50.0
100
AcDbLine
 10
16307.19999999999
 20
9029.6
 30
0.0
 11
13127.2
 21
9029.600000000003
 31
0.0
  0
TEXT
  5
2B09E
330
747D
100
AcDbEntity
  8
文字
 62
     7
 48
50.0
100
AcDbText
 10
13248.77747366447
 20
8890.013745883729
 30
0.0
 40
100.0
  1
14
  7
STYLE1
100
AcDbText
  0
TEXT
  5
2B0A0
330
747D
100
AcDbEntity
  8
文字
 62
     7
 48
50.0
100
AcDbText
 10
15022.63965474514
 20
9570.013745883725
 30
0.0
 40
100.0
  1
F12            0.7
  7
STYLE1
100
AcDbText
  0
TEXT
  5
2B0A1
330
747D
100
AcDbEntity
  8
文字
 62
     7
 48
50.0
100
AcDbText
 10
13583.11819016567
 20
9570.013745883729
 30
0.0
 40
100.0
  1
正面パネル
  7
STYLE1
100
AcDbText
  0
TEXT
  5
2B0A2
330
747D
100
AcDbEntity
  8
文字
 62
     7
 48
50.0
100
AcDbText
 10
15022.63965474515
 20
9400.013745883725
 30
0.0
 40
100.0
  1
F12            0.8
  7
STYLE1
100
AcDbText
  0
TEXT
  5
2B0A3
330
747D
100
AcDbEntity
  8
文字
 62
     7
 48
50.0
100
AcDbText
 10
13583.11819016568
 20
9400.013745883729
 30
0.0
 40
100.0
  1
扉
  7
STYLE1
100
AcDbText
  0
TEXT
  5
2B0A4
330
747D
100
AcDbEntity
  8
文字
 62
     7
 48
50.0
100
AcDbText
 10
15022.63965474515
 20
9230.013745883729
 30
0.0
 40
100.0
  1
F12            0.6
  7
STYLE1
100
AcDbText
  0
TEXT
  5
2B0A5
330
747D
100
AcDbEntity
  8
文字
 62
     7
 48
50.0
100
AcDbText
 10
13583.11819016568
 20
9230.013745883733
 30
0.0
 40
100.0
  1
棚板
  7
STYLE1
100
AcDbText
  0
TEXT
  5
2B0A6
330
747D
100
AcDbEntity
  8
文字
 62
     7
 48
50.0
100
AcDbText
 10
13248.77747366447
 20
8720.013745883733
 30
0.0
 40
100.0
  1
15
  7
STYLE1
100
AcDbText
  0
TEXT
  5
2B0A7
330
747D
100
AcDbEntity
  8
文字
 62
     7
 48
50.0
100
AcDbText
 10
13583.11819016569
 20
9910.01374588373
 30
0.0
 40
100.0
  1
母屋中
  7
STYLE1
100
AcDbText
  0
TEXT
  5
2B0A8
330
747D
100
AcDbEntity
  8
文字
 62
     7
 48
50.0
100
AcDbText
 10
14798.72402257234
 20
9910.013745883725
 30
0.0
 40
100.0
  1
F12(一般型1.2/多雪地型2.3)
  7
STYLE1
100
AcDbText
  0
LINE
  5
2BF9E
330
747D
100
AcDbEntity
  8
細線
 48
50.0
100
AcDbLine
 10
4447.291854839177
 20
7584.683042513089
 30
0.0
 11
4647.291854839165
 21
7784.683042513076
 31
0.0
  0
LINE
  5
2BF9F
330
747D
100
AcDbEntity
  8
細線
 48
50.0
100
AcDbLine
 10
4586.605623114772
 20
7544.3916883673
 30
0.0
 11
4786.605623114779
 21
7744.391688367308
 31
0.0
  0
LINE
  5
2BFA0
330
747D
100
AcDbEntity
  8
細線
 48
50.0
100
AcDbLine
 10
4766.210745536162
 20
7544.391688367305
 30
0.0
 11
4966.210745536172
 21
7744.391688367315
 31
0.0
  0
LINE
  5
2BFA1
330
747D
100
AcDbEntity
  8
細線
 48
50.0
100
AcDbLine
 10
4945.815867957549
 20
7544.391688367312
 30
0.0
 11
5145.815867957562
 21
7744.391688367321
 31
0.0
  0
LINE
  5
2BFA2
330
747D
100
AcDbEntity
  8
細線
 48
50.0
100
AcDbLine
 10
5125.420990378941
 20
7544.391688367319
 30
0.0
 11
5325.420990378948
 21
7744.391688367326
 31
0.0
  0
LINE
  5
2BFA3
330
747D
100
AcDbEntity
  8
細線
 48
50.0
100
AcDbLine
 10
5305.026112800331
 20
7544.391688367325
 30
0.0
 11
5505.026112800342
 21
7744.391688367334
 31
0.0
  0
LINE
  5
2BFA4
330
747D
100
AcDbEntity
  8
細線
 48
50.0
100
AcDbLine
 10
5484.631235221721
 20
7544.391688367332
 30
0.0
 11
5684.631235221731
 21
7744.391688367341
 31
0.0
  0
LINE
  5
2BFA5
330
747D
100
AcDbEntity
  8
細線
 48
50.0
100
AcDbLine
 10
5664.236357643111
 20
7544.39168836734
 30
0.0
 11
5864.236357643117
 21
7744.391688367348
 31
0.0
  0
LINE
  5
2BFA6
330
747D
100
AcDbEntity
  8
細線
 48
50.0
100
AcDbLine
 10
5843.841480064501
 20
7544.391688367347
 30
0.0
 11
6043.841480064511
 21
7744.391688367355
 31
0.0
  0
LINE
  5
2BFA7
330
747D
100
AcDbEntity
  8
細線
 48
50.0
100
AcDbLine
 10
6023.44660248589
 20
7544.391688367352
 30
0.0
 11
6223.4466024859
 21
7744.391688367362
 31
0.0
  0
LINE
  5
2BFA8
330
747D
100
AcDbEntity
  8
細線
 48
50.0
100
AcDbLine
 10
6203.05172490728
 20
7544.391688367361
 30
0.0
 11
6403.051724907285
 21
7744.391688367366
 31
0.0
  0
LINE
  5
2BFA9
330
747D
100
AcDbEntity
  8
細線
 48
50.0
100
AcDbLine
 10
6382.656847328672
 20
7544.391688367368
 30
0.0
 11
6582.65684732868
 21
7744.391688367374
 31
0.0
  0
LINE
  5
2BFAA
330
747D
100
AcDbEntity
  8
細線
 48
50.0
100
AcDbLine
 10
6562.26196975006
 20
7544.391688367373
 30
0.0
 11
6762.261969750068
 21
7744.391688367381
 31
0.0
  0
LINE
  5
2BFAB
330
747D
100
AcDbEntity
  8
細線
 48
50.0
100
AcDbLine
 10
6741.86709217145
 20
7544.391688367382
 30
0.0
 11
6964.291854839165
 21
7766.816451035097
 31
0.0
  0
LINE
  5
2BFAC
330
747D
100
AcDbEntity
  8
細線
 48
50.0
100
AcDbLine
 10
4447.291854839177
 20
7607.133682815763
 30
0.0
 11
4647.291854839164
 21
7807.13368281575
 31
0.0
  0
LINE
  5
2BFAD
330
747D
100
AcDbEntity
  8
細線
 48
50.0
100
AcDbLine
 10
4564.154982812095
 20
7544.391688367297
 30
0.0
 11
4764.154982812106
 21
7744.391688367308
 31
0.0
  0
LINE
  5
2BFAE
330
747D
100
AcDbEntity
  8
細線
 48
50.0
100
AcDbLine
 10
4743.760105233486
 20
7544.391688367305
 30
0.0
 11
4943.760105233497
 21
7744.391688367314
 31
0.0
  0
LINE
  5
2BFAF
330
747D
100
AcDbEntity
  8
細線
 48
50.0
100
AcDbLine
 10
4923.365227654876
 20
7544.391688367312
 30
0.0
 11
5123.365227654883
 21
7744.391688367319
 31
0.0
  0
LINE
  5
2BFB0
330
747D
100
AcDbEntity
  8
細線
 48
50.0
100
AcDbLine
 10
5102.970350076266
 20
7544.391688367318
 30
0.0
 11
5302.970350076274
 21
7744.391688367326
 31
0.0
  0
LINE
  5
2BFB1
330
747D
100
AcDbEntity
  8
細線
 48
50.0
100
AcDbLine
 10
5282.575472497656
 20
7544.391688367325
 30
0.0
 11
5482.575472497665
 21
7744.391688367334
 31
0.0
  0
LINE
  5
2BFB2
330
747D
100
AcDbEntity
  8
細線
 48
50.0
100
AcDbLine
 10
5462.180594919046
 20
7544.391688367332
 30
0.0
 11
5662.180594919053
 21
7744.39168836734
 31
0.0
  0
LINE
  5
2BFB3
330
747D
100
AcDbEntity
  8
細線
 48
50.0
100
AcDbLine
 10
5641.785717340436
 20
7544.39168836734
 30
0.0
 11
5841.785717340446
 21
7744.391688367347
 31
0.0
  0
LINE
  5
2BFB4
330
747D
100
AcDbEntity
  8
細線
 48
50.0
100
AcDbLine
 10
5821.390839761825
 20
7544.391688367345
 30
0.0
 11
6021.390839761832
 21
7744.391688367354
 31
0.0
  0
LINE
  5
2BFB5
330
747D
100
AcDbEntity
  8
細線
 48
50.0
100
AcDbLine
 10
6000.995962183215
 20
7544.391688367352
 30
0.0
 11
6200.995962183223
 21
7744.391688367359
 31
0.0
  0
LINE
  5
2BFB6
330
747D
100
AcDbEntity
  8
細線
 48
50.0
100
AcDbLine
 10
6180.601084604605
 20
7544.391688367359
 30
0.0
 11
6380.601084604614
 21
7744.391688367366
 31
0.0
  0
LINE
  5
2BFB7
330
747D
100
AcDbEntity
  8
細線
 48
50.0
100
AcDbLine
 10
6360.206207025996
 20
7544.391688367366
 30
0.0
 11
6560.206207026005
 21
7744.391688367374
 31
0.0
  0
LINE
  5
2BFB8
330
747D
100
AcDbEntity
  8
細線
 48
50.0
100
AcDbLine
 10
6539.811329447386
 20
7544.391688367373
 30
0.0
 11
6739.811329447393
 21
7744.391688367381
 31
0.0
  0
LINE
  5
2BFB9
330
747D
100
AcDbEntity
  8
細線
 48
50.0
100
AcDbLine
 10
6719.416451868776
 20
7544.39168836738
 30
0.0
 11
6964.291854839167
 21
7789.267091337773
 31
0.0
  0
LINE
  5
2BFBA
330
747D
100
AcDbEntity
  8
細線
 48
50.0
100
AcDbLine
 10
4447.291854839177
 20
7629.584323118433
 30
0.0
 11
4647.291854839163
 21
7829.584323118419
 31
0.0
  0
LINE
  5
2BFBB
330
747D
100
AcDbEntity
  8
細線
 48
50.0
100
AcDbLine
 10
4541.704342509427
 20
7544.391688367298
 30
0.0
 11
4741.704342509435
 21
7744.391688367307
 31
0.0
  0
LINE
  5
2BFBC
330
747D
100
AcDbEntity
  8
細線
 48
50.0
100
AcDbLine
 10
4721.309464930815
 20
7544.391688367305
 30
0.0
 11
4921.309464930822
 21
7744.391688367312
 31
0.0
  0
LINE
  5
2BFBD
330
747D
100
AcDbEntity
  8
細線
 48
50.0
100
AcDbLine
 10
4900.914587352205
 20
7544.391688367309
 30
0.0
 11
5100.914587352214
 21
7744.391688367319
 31
0.0
  0
LINE
  5
2BFBE
330
747D
100
AcDbEntity
  8
細線
 48
50.0
100
AcDbLine
 10
5080.519709773595
 20
7544.391688367316
 30
0.0
 11
5280.519709773606
 21
7744.391688367326
 31
0.0
  0
LINE
  5
2BFBF
330
747D
100
AcDbEntity
  8
細線
 48
50.0
100
AcDbLine
 10
5260.124832194986
 20
7544.391688367325
 30
0.0
 11
5460.124832194992
 21
7744.391688367333
 31
0.0
  0
LINE
  5
2BFC0
330
747D
100
AcDbEntity
  8
細線
 48
50.0
100
AcDbLine
 10
5439.729954616375
 20
7544.391688367332
 30
0.0
 11
5639.729954616383
 21
7744.39168836734
 31
0.0
  0
LINE
  5
2BFC1
330
747D
100
AcDbEntity
  8
細線
 48
50.0
100
AcDbLine
 10
5619.335077037764
 20
7544.391688367338
 30
0.0
 11
5819.335077037774
 21
7744.391688367345
 31
0.0
  0
LINE
  5
2BFC2
330
747D
100
AcDbEntity
  8
細線
 48
50.0
100
AcDbLine
 10
5798.940199459154
 20
7544.391688367345
 30
0.0
 11
5998.940199459162
 21
7744.391688367352
 31
0.0
  0
LINE
  5
2BFC3
330
747D
100
AcDbEntity
  8
細線
 48
50.0
100
AcDbLine
 10
5978.545321880545
 20
7544.391688367352
 30
0.0
 11
6178.545321880554
 21
7744.391688367361
 31
0.0
  0
LINE
  5
2BFC4
330
747D
100
AcDbEntity
  8
細線
 48
50.0
100
AcDbLine
 10
6158.150444301933
 20
7544.391688367358
 30
0.0
 11
6358.150444301944
 21
7744.391688367366
 31
0.0
  0
LINE
  5
2BFC5
330
747D
100
AcDbEntity
  8
細線
 48
50.0
100
AcDbLine
 10
6337.755566723324
 20
7544.391688367366
 30
0.0
 11
6537.75556672333
 21
7744.391688367372
 31
0.0
  0
LINE
  5
2BFC6
330
747D
100
AcDbEntity
  8
細線
 48
50.0
100
AcDbLine
 10
6517.360689144715
 20
7544.391688367372
 30
0.0
 11
6717.360689144722
 21
7744.391688367379
 31
0.0
  0
LINE
  5
2BFC7
330
747D
100
AcDbEntity
  8
細線
 48
50.0
100
AcDbLine
 10
6696.965811566105
 20
7544.39168836738
 30
0.0
 11
6964.291854839167
 21
7811.717731640441
 31
0.0
  0
LINE
  5
2BFC8
330
747D
100
AcDbEntity
  8
細線
 48
50.0
100
AcDbLine
 10
6921.47221459284
 20
7544.391688367388
 30
0.0
 11
6964.291854839165
 21
7587.211328613711
 31
0.0
  0
LINE
  5
2BFC9
330
747D
100
AcDbEntity
  8
細線
 48
50.0
100
AcDbLine
 10
6899.021574290164
 20
7544.391688367387
 30
0.0
 11
6964.291854839165
 21
7609.661968916386
 31
0.0
  0
LINE
  5
2BFCA
330
747D
100
AcDbEntity
  8
細線
 48
50.0
100
AcDbLine
 10
6876.570933987496
 20
7544.391688367387
 30
0.0
 11
6964.291854839165
 21
7632.112609219056
 31
0.0
  0
LINE
  5
2BFCB
330
747D
100
AcDbEntity
  8
細線
 48
50.0
100
AcDbLine
 10
6764.291854839175
 20
7926.026695877874
 30
0.0
 11
6964.291854839171
 21
8126.026695877866
 31
0.0
  0
LINE
  5
2BFCC
330
747D
100
AcDbEntity
  8
細線
 48
50.0
100
AcDbLine
 10
6764.291854839171
 20
7746.421573456483
 30
0.0
 11
6964.291854839167
 21
7946.421573456483
 31
0.0
  0
LINE
  5
2BFCD
330
747D
100
AcDbEntity
  8
細線
 48
50.0
100
AcDbLine
 10
6764.291854839171
 20
7768.872213759161
 30
0.0
 11
6964.291854839167
 21
7968.872213759155
 31
0.0
  0
LINE
  5
2BFCE
330
747D
100
AcDbEntity
  8
細線
 48
50.0
100
AcDbLine
 10
6764.291854839171
 20
7791.322854061829
 30
0.0
 11
6964.291854839167
 21
7991.322854061827
 31
0.0
  0
LINE
  5
2BFCF
330
747D
100
AcDbEntity
  8
細線
 48
50.0
100
AcDbLine
 10
6764.291854839178
 20
7948.477336180545
 30
0.0
 11
6964.291854839185
 21
8148.477336180556
 31
0.0
  0
LINE
  5
2BFD0
330
747D
100
AcDbEntity
  8
細線
 48
50.0
100
AcDbLine
 10
6764.291854839178
 20
7970.927976483219
 30
0.0
 11
6964.291854839186
 21
8170.927976483225
 31
0.0
  0
LINE
  5
2BFD1
330
747D
100
AcDbEntity
  8
細線
 48
50.0
100
AcDbLine
 10
6764.291854839189
 20
8285.236940720649
 30
0.0
 11
6964.291854839195
 21
8485.236940720659
 31
0.0
  0
LINE
  5
2BFD2
330
747D
100
AcDbEntity
  8
細線
 48
50.0
100
AcDbLine
 10
6764.291854839183
 20
8105.631818299263
 30
0.0
 11
6964.291854839188
 21
8305.63181829927
 31
0.0
  0
LINE
  5
2BFD3
330
747D
100
AcDbEntity
  8
細線
 48
50.0
100
AcDbLine
 10
6764.291854839189
 20
8307.687581023325
 30
0.0
 11
6964.291854839196
 21
8507.687581023331
 31
0.0
  0
LINE
  5
2BFD4
330
747D
100
AcDbEntity
  8
細線
 48
50.0
100
AcDbLine
 10
6764.291854839185
 20
8128.082458601939
 30
0.0
 11
6964.291854839188
 21
8328.082458601945
 31
0.0
  0
LINE
  5
2BFD5
330
747D
100
AcDbEntity
  8
細線
 48
50.0
100
AcDbLine
 10
6764.29185483919
 20
8330.138221325997
 30
0.0
 11
6964.291854839196
 21
8530.138221326005
 31
0.0
  0
LINE
  5
2BFD6
330
747D
100
AcDbEntity
  8
細線
 48
50.0
100
AcDbLine
 10
6764.291854839186
 20
8150.533098904608
 30
0.0
 11
6964.29185483919
 21
8350.533098904616
 31
0.0
  0
LINE
  5
2BFD7
330
747D
100
AcDbEntity
  8
細線
 48
50.0
100
AcDbLine
 10
6764.291854839195
 20
8464.842063142041
 30
0.0
 11
6964.2918548392
 21
8664.842063142046
 31
0.0
  0
LINE
  5
2BFD8
330
747D
100
AcDbEntity
  8
細線
 48
50.0
100
AcDbLine
 10
6764.291854839195
 20
8487.292703444712
 30
0.0
 11
6964.291854839203
 21
8687.292703444731
 31
0.0
  0
LINE
  5
2BFD9
330
747D
100
AcDbEntity
  8
細線
 48
50.0
100
AcDbLine
 10
6764.291854839195
 20
8509.743343747379
 30
0.0
 11
6964.291854839204
 21
8709.743343747415
 31
0.0
  0
LINE
  5
2BFE1
330
747D
100
AcDbEntity
  8
細線
 48
50.0
100
AcDbLine
 10
6764.291854839232
 20
9228.163833432965
 30
0.0
 11
6964.291854839242
 21
9428.163833433004
 31
0.0
  0
LINE
  5
2BFE2
330
747D
100
AcDbEntity
  8
細線
 48
50.0
100
AcDbLine
 10
6764.291854839232
 20
9205.713193130298
 30
0.0
 11
6964.291854839238
 21
9405.713193130319
 31
0.0
  0
LINE
  5
2BFE3
330
747D
100
AcDbEntity
  8
細線
 48
50.0
100
AcDbLine
 10
6764.291854839232
 20
9183.262552827629
 30
0.0
 11
6964.291854839237
 21
9383.262552827636
 31
0.0
  0
LINE
  5
2BFE4
330
747D
100
AcDbEntity
  8
細線
 48
50.0
100
AcDbLine
 10
6764.291854839221
 20
8868.953588590198
 30
0.0
 11
6964.291854839228
 21
9068.953588590204
 31
0.0
  0
LINE
  5
2BFE5
330
747D
100
AcDbEntity
  8
細線
 48
50.0
100
AcDbLine
 10
6764.291854839226
 20
9048.558711011585
 30
0.0
 11
6964.291854839233
 21
9248.558711011595
 31
0.0
  0
LINE
  5
2BFE6
330
747D
100
AcDbEntity
  8
細線
 48
50.0
100
AcDbLine
 10
6764.29185483922
 20
8846.502948287527
 30
0.0
 11
6964.291854839226
 21
9046.502948287532
 31
0.0
  0
LINE
  5
2BFE7
330
747D
100
AcDbEntity
  8
細線
 48
50.0
100
AcDbLine
 10
6764.291854839226
 20
9026.108070708913
 30
0.0
 11
6964.291854839233
 21
9226.108070708919
 31
0.0
  0
LINE
  5
2BFE8
330
747D
100
AcDbEntity
  8
細線
 48
50.0
100
AcDbLine
 10
6764.291854839219
 20
8824.052307984851
 30
0.0
 11
6964.291854839226
 21
9024.052307984858
 31
0.0
  0
LINE
  5
2BFE9
330
747D
100
AcDbEntity
  8
細線
 48
50.0
100
AcDbLine
 10
6764.291854839226
 20
9003.657430406239
 30
0.0
 11
6964.291854839231
 21
9203.657430406247
 31
0.0
  0
LINE
  5
2BFEA
330
747D
100
AcDbEntity
  8
細線
 48
50.0
100
AcDbLine
 10
6764.291854839214
 20
8689.348466168807
 30
0.0
 11
6964.291854839221
 21
8889.348466168813
 31
0.0
  0
LINE
  5
2BFEB
330
747D
100
AcDbEntity
  8
細線
 48
50.0
100
AcDbLine
 10
6764.291854839213
 20
8666.897825866135
 30
0.0
 11
6964.291854839221
 21
8866.897825866145
 31
0.0
  0
LINE
  5
2BFEC
330
747D
100
AcDbEntity
  8
細線
 48
50.0
100
AcDbLine
 10
6764.291854839211
 20
8644.447185563462
 30
0.0
 11
6964.291854839206
 21
8844.447185563454
 31
0.0
  0
LINE
  5
2BFED
330
747D
100
AcDbEntity
  8
細線
 48
50.0
100
AcDbLine
 10
6764.291854839225
 20
9362.867675249026
 30
0.0
 11
6964.291854839231
 21
9562.86767524903
 31
0.0
  0
LINE
  5
2BFEE
330
747D
100
AcDbEntity
  8
細線
 48
50.0
100
AcDbLine
 10
6764.291854839225
 20
9385.318315551694
 30
0.0
 11
6942.865227654886
 21
9563.891688367368
 31
0.0
  0
LINE
  5
2BFEF
330
747D
100
AcDbEntity
  8
細線
 48
50.0
100
AcDbLine
 10
6764.291854839225
 20
9407.768955854361
 30
0.0
 11
6920.414587352205
 21
9563.891688367364
 31
0.0
  0
LINE
  5
2BFF0
330
747D
100
AcDbEntity
  8
細線
 48
50.0
100
AcDbLine
 10
4447.291854839159
 20
7988.79456796118
 30
0.0
 11
4647.291854839151
 21
8188.794567961172
 31
0.0
  0
LINE
  5
2BFF1
330
747D
100
AcDbEntity
  8
細線
 48
50.0
100
AcDbLine
 10
4447.291854839158
 20
7966.343927658511
 30
0.0
 11
4647.291854839152
 21
8166.3439276585
 31
0.0
  0
LINE
  5
2BFF2
330
747D
100
AcDbEntity
  8
細線
 48
50.0
100
AcDbLine
 10
4447.291854839159
 20
7943.893287355836
 30
0.0
 11
4647.291854839152
 21
8143.893287355826
 31
0.0
  0
LINE
  5
2BFF3
330
747D
100
AcDbEntity
  8
細線
 48
50.0
100
AcDbLine
 10
4447.291854839164
 20
7809.189445539802
 30
0.0
 11
4647.291854839155
 21
8009.189445539792
 31
0.0
  0
LINE
  5
2BFF4
330
747D
100
AcDbEntity
  8
細線
 48
50.0
100
AcDbLine
 10
4447.291854839166
 20
7786.738805237134
 30
0.0
 11
4647.291854839157
 21
7986.738805237127
 31
0.0
  0
LINE
  5
2BFF5
330
747D
100
AcDbEntity
  8
細線
 48
50.0
100
AcDbLine
 10
4447.291854839165
 20
7764.288164934459
 30
0.0
 11
4647.291854839158
 21
7964.288164934453
 31
0.0
  0
LINE
  5
2BFF6
330
747D
100
AcDbEntity
  8
細線
 48
50.0
100
AcDbLine
 10
4447.291854839153
 20
8123.498409777212
 30
0.0
 11
4647.291854839146
 21
8323.498409777206
 31
0.0
  0
LINE
  5
2BFF7
330
747D
100
AcDbEntity
  8
細線
 48
50.0
100
AcDbLine
 10
4447.291854839154
 20
8145.949050079888
 30
0.0
 11
4647.291854839145
 21
8345.94905007988
 31
0.0
  0
LINE
  5
2BFF8
330
747D
100
AcDbEntity
  8
細線
 48
50.0
100
AcDbLine
 10
4447.291854839153
 20
8168.399690382555
 30
0.0
 11
4647.291854839145
 21
8368.399690382545
 31
0.0
  0
LINE
  5
2BFF9
330
747D
100
AcDbEntity
  8
細線
 48
50.0
100
AcDbLine
 10
4447.291854839146
 20
8303.103532198589
 30
0.0
 11
4647.291854839139
 21
8503.103532198579
 31
0.0
  0
LINE
  5
2BFFA
330
747D
100
AcDbEntity
  8
細線
 48
50.0
100
AcDbLine
 10
4447.291854839146
 20
8325.554172501265
 30
0.0
 11
4647.291854839139
 21
8525.554172501255
 31
0.0
  0
LINE
  5
2BFFB
330
747D
100
AcDbEntity
  8
細線
 48
50.0
100
AcDbLine
 10
4447.291854839146
 20
8348.004812803933
 30
0.0
 11
4647.291854839139
 21
8548.004812803927
 31
0.0
  0
LINE
  5
2BFFC
330
747D
100
AcDbEntity
  8
細線
 48
50.0
100
AcDbLine
 10
4447.291854839123
 20
9066.425302489442
 30
0.0
 11
4647.291854839115
 21
9266.425302489436
 31
0.0
  0
LINE
  5
2BFFD
330
747D
100
AcDbEntity
  8
細線
 48
50.0
100
AcDbLine
 10
4447.291854839122
 20
9043.974662186773
 30
0.0
 11
4647.291854839116
 21
9243.974662186763
 31
0.0
  0
LINE
  5
2BFFE
330
747D
100
AcDbEntity
  8
細線
 48
50.0
100
AcDbLine
 10
4447.291854839123
 20
9021.524021884097
 30
0.0
 11
4647.291854839116
 21
9221.524021884089
 31
0.0
  0
LINE
  5
2BFFF
330
747D
100
AcDbEntity
  8
細線
 48
50.0
100
AcDbLine
 10
4447.291854839129
 20
8886.820180068063
 30
0.0
 11
4647.29185483912
 21
9086.820180068055
 31
0.0
  0
LINE
  5
2C000
330
747D
100
AcDbEntity
  8
細線
 48
50.0
100
AcDbLine
 10
4447.29185483913
 20
8864.369539765396
 30
0.0
 11
4647.291854839122
 21
9064.369539765388
 31
0.0
  0
LINE
  5
2C001
330
747D
100
AcDbEntity
  8
細線
 48
50.0
100
AcDbLine
 10
4447.29185483913
 20
8841.91889946272
 30
0.0
 11
4647.291854839123
 21
9041.918899462714
 31
0.0
  0
LINE
  5
2C002
330
747D
100
AcDbEntity
  8
細線
 48
50.0
100
AcDbLine
 10
4447.291854839142
 20
8482.708654619967
 30
0.0
 11
4647.291854839134
 21
8682.708654619961
 31
0.0
  0
LINE
  5
2C003
330
747D
100
AcDbEntity
  8
細線
 48
50.0
100
AcDbLine
 10
4447.291854839142
 20
8505.159294922641
 30
0.0
 11
4647.291854839133
 21
8705.159294922635
 31
0.0
  0
LINE
  5
2C004
330
747D
100
AcDbEntity
  8
細線
 48
50.0
100
AcDbLine
 10
4447.291854839141
 20
8527.60993522531
 30
0.0
 11
4647.291854839132
 21
8727.6099352253
 31
0.0
  0
LINE
  5
2C005
330
747D
100
AcDbEntity
  8
細線
 48
50.0
100
AcDbLine
 10
4447.291854839135
 20
8662.313777041344
 30
0.0
 11
4647.291854839128
 21
8862.313777041334
 31
0.0
  0
LINE
  5
2C006
330
747D
100
AcDbEntity
  8
細線
 48
50.0
100
AcDbLine
 10
4447.291854839135
 20
8684.764417344018
 30
0.0
 11
4647.291854839128
 21
8884.76441734401
 31
0.0
  0
LINE
  5
2C007
330
747D
100
AcDbEntity
  8
細線
 48
50.0
100
AcDbLine
 10
4447.291854839135
 20
8707.215057646688
 30
0.0
 11
4647.291854839127
 21
8907.215057646681
 31
0.0
  0
LINE
  5
2C008
330
747D
100
AcDbEntity
  8
細線
 48
50.0
100
AcDbLine
 10
4447.291854839118
 20
9201.129144305474
 30
0.0
 11
4647.29185483911
 21
9401.129144305469
 31
0.0
  0
LINE
  5
2C009
330
747D
100
AcDbEntity
  8
細線
 48
50.0
100
AcDbLine
 10
4447.291854839119
 20
9223.579784608149
 30
0.0
 11
4647.291854839109
 21
9423.579784608142
 31
0.0
  0
LINE
  5
2C00A
330
747D
100
AcDbEntity
  8
細線
 48
50.0
100
AcDbLine
 10
4447.291854839117
 20
9246.030424910818
 30
0.0
 11
4647.291854839109
 21
9446.030424910809
 31
0.0
  0
LINE
  5
2C00B
330
747D
100
AcDbEntity
  8
細線
 48
50.0
100
AcDbLine
 10
4447.291854839112
 20
9380.734266726852
 30
0.0
 11
4630.449276479544
 21
9563.891688367283
 31
0.0
  0
LINE
  5
2C00C
330
747D
100
AcDbEntity
  8
細線
 48
50.0
100
AcDbLine
 10
4447.29185483911
 20
9403.184907029526
 30
0.0
 11
4607.998636176867
 21
9563.891688367281
 31
0.0
  0
LINE
  5
2C00D
330
747D
100
AcDbEntity
  8
細線
 48
50.0
100
AcDbLine
 10
4447.291854839112
 20
9425.635547332197
 30
0.0
 11
4585.547995874194
 21
9563.891688367279
 31
0.0
  0
LINE
  5
2C00F
330
747D
100
AcDbEntity
  8
想像線
 48
25.0
100
AcDbLine
 10
4666.791854839135
 20
9358.891688367268
 30
0.0
 11
4166.791854839135
 21
9358.891688367268
 31
0.0
  0
LINE
  5
2C010
330
747D
100
AcDbEntity
  8
想像線
 48
25.0
100
AcDbLine
 10
4666.791854839135
 20
9358.891688367268
 30
0.0
 11
4570.199272210227
 21
9333.009783857017
 31
0.0
  0
LINE
  5
2C011
330
747D
100
AcDbEntity
  8
想像線
 48
25.0
100
AcDbLine
 10
4570.199272210227
 20
9384.77359287752
 30
0.0
 11
4570.199272210226
 21
9333.009783857017
 31
0.0
  0
LINE
  5
2C012
330
747D
100
AcDbEntity
  8
想像線
 48
25.0
100
AcDbLine
 10
4166.791854839135
 20
9358.891688367268
 30
0.0
 11
4263.384437468041
 21
9384.77359287752
 31
0.0
  0
LINE
  5
2C013
330
747D
100
AcDbEntity
  8
想像線
 48
25.0
100
AcDbLine
 10
4263.384437468041
 20
9384.77359287752
 30
0.0
 11
4263.384437468041
 21
9333.009783857017
 31
0.0
  0
LINE
  5
2C030
330
747D
100
AcDbEntity
  8
想像線
 48
25.0
100
AcDbLine
 10
6893.384437468172
 20
9384.773592877648
 30
0.0
 11
6893.384437468172
 21
9333.009783857143
 31
0.0
  0
LINE
  5
2C031
330
747D
100
AcDbEntity
  8
想像線
 48
25.0
100
AcDbLine
 10
6796.791854839267
 20
9358.891688367396
 30
0.0
 11
6893.384437468172
 21
9384.773592877648
 31
0.0
  0
LINE
  5
2C032
330
747D
100
AcDbEntity
  8
想像線
 48
25.0
100
AcDbLine
 10
7296.791854839267
 20
9358.891688367396
 30
0.0
 11
6796.791854839267
 21
9358.891688367396
 31
0.0
  0
LINE
  5
2C033
330
747D
100
AcDbEntity
  8
想像線
 48
25.0
100
AcDbLine
 10
7296.791854839267
 20
9358.891688367396
 30
0.0
 11
7200.199272210359
 21
9333.009783857143
 31
0.0
  0
LINE
  5
2C034
330
747D
100
AcDbEntity
  8
想像線
 48
25.0
100
AcDbLine
 10
7200.199272210359
 20
9384.773592877648
 30
0.0
 11
7200.199272210358
 21
9333.009783857143
 31
0.0
  0
LINE
  5
2C035
330
747D
100
AcDbEntity
  8
想像線
 48
25.0
100
AcDbLine
 10
4666.791854839051
 20
8098.891688367224
 30
0.0
 11
4570.199272210144
 21
8073.009783856972
 31
0.0
  0
LINE
  5
2C036
330
747D
100
AcDbEntity
  8
想像線
 48
25.0
100
AcDbLine
 10
4666.791854839051
 20
8098.891688367224
 30
0.0
 11
4166.791854839051
 21
8098.891688367224
 31
0.0
  0
LINE
  5
2C037
330
747D
100
AcDbEntity
  8
想像線
 48
25.0
100
AcDbLine
 10
4570.199272210144
 20
8124.773592877476
 30
0.0
 11
4570.199272210142
 21
8073.009783856972
 31
0.0
  0
LINE
  5
2C038
330
747D
100
AcDbEntity
  8
想像線
 48
25.0
100
AcDbLine
 10
4263.384437467958
 20
8124.773592877476
 30
0.0
 11
4263.384437467958
 21
8073.009783856972
 31
0.0
  0
LINE
  5
2C039
330
747D
100
AcDbEntity
  8
想像線
 48
25.0
100
AcDbLine
 10
4166.791854839051
 20
8098.891688367224
 30
0.0
 11
4263.384437467958
 21
8124.773592877476
 31
0.0
  0
LINE
  5
2C03A
330
747D
100
AcDbEntity
  8
想像線
 48
25.0
100
AcDbLine
 10
7200.199272210276
 20
8124.773592877604
 30
0.0
 11
7200.199272210274
 21
8073.0097838571
 31
0.0
  0
LINE
  5
2C03B
330
747D
100
AcDbEntity
  8
想像線
 48
25.0
100
AcDbLine
 10
7296.791854839184
 20
8098.891688367352
 30
0.0
 11
7200.199272210276
 21
8073.0097838571
 31
0.0
  0
LINE
  5
2C03C
330
747D
100
AcDbEntity
  8
想像線
 48
25.0
100
AcDbLine
 10
7296.791854839184
 20
8098.891688367352
 30
0.0
 11
6796.791854839184
 21
8098.891688367352
 31
0.0
  0
LINE
  5
2C03D
330
747D
100
AcDbEntity
  8
想像線
 48
25.0
100
AcDbLine
 10
6796.791854839184
 20
8098.891688367352
 30
0.0
 11
6893.38443746809
 21
8124.773592877604
 31
0.0
  0
LINE
  5
2C03E
330
747D
100
AcDbEntity
  8
想像線
 48
25.0
100
AcDbLine
 10
6893.38443746809
 20
8124.773592877604
 30
0.0
 11
6893.38443746809
 21
8073.0097838571
 31
0.0
  0
ARC
  5
2C03F
330
747D
100
AcDbEntity
  8
細線
 48
5.0
100
AcDbCircle
 10
5752.629466587132
 20
3445.984612627054
 30
0.0
 40
6.0
100
AcDbArc
 50
90.0
 51
180.0
  0
ARC
  5
2C040
330
747D
100
AcDbEntity
  8
細線
 48
5.0
100
AcDbCircle
 10
5752.629466587132
 20
3445.984612627054
 30
0.0
 40
6.0
100
AcDbArc
 50
0.0
 51
90.0
  0
ARC
  5
2C041
330
747D
100
AcDbEntity
  8
細線
100
AcDbCircle
 10
5752.629466587132
 20
3446.484612627054
 30
0.0
 40
3.0
100
AcDbArc
 50
180.0
 51
0.0
  0
ARC
  5
2C042
330
747D
100
AcDbEntity
  8
細線
 48
5.0
100
AcDbCircle
 10
5752.629466587132
 20
3446.484612627054
 30
0.0
 40
3.0
100
AcDbArc
 50
0.0
 51
180.0
  0
ARC
  5
2C043
330
747D
100
AcDbEntity
  8
細線
 48
5.0
100
AcDbCircle
 10
5752.629466587132
 20
3422.984612627054
 30
0.0
 40
6.0
100
AcDbArc
 50
180.0
 51
270.0
  0
ARC
  5
2C044
330
747D
100
AcDbEntity
  8
細線
 48
5.0
100
AcDbCircle
 10
5752.629466587132
 20
3422.984612627054
 30
0.0
 40
6.0
100
AcDbArc
 50
270.0
 51
0.0
  0
ARC
  5
2C045
330
747D
100
AcDbEntity
  8
細線
 48
5.0
100
AcDbCircle
 10
5752.629466587132
 20
3422.484612627054
 30
0.0
 40
3.0
100
AcDbArc
 50
180.0
 51
0.0
  0
ARC
  5
2C046
330
747D
100
AcDbEntity
  8
細線
100
AcDbCircle
 10
5752.629466587132
 20
3422.484612627054
 30
0.0
 40
3.0
100
AcDbArc
 50
0.0
 51
180.0
  0
LINE
  5
2C047
330
747D
100
AcDbEntity
  8
細線
 48
5.0
100
AcDbLine
 10
5746.629466587132
 20
3422.984612627054
 30
0.0
 11
5746.629466587132
 21
3445.984612627054
 31
0.0
  0
LINE
  5
2C048
330
747D
100
AcDbEntity
  8
細線
 48
5.0
100
AcDbLine
 10
5758.629466587132
 20
3422.984612627054
 30
0.0
 11
5758.629466587132
 21
3445.984612627054
 31
0.0
  0
LINE
  5
2C049
330
747D
100
AcDbEntity
  8
細線
 48
5.0
100
AcDbLine
 10
5755.629466587132
 20
3446.484612627054
 30
0.0
 11
5755.629466587132
 21
3422.484612627054
 31
0.0
  0
LINE
  5
2C04A
330
747D
100
AcDbEntity
  8
細線
 48
5.0
100
AcDbLine
 10
5749.629466587132
 20
3446.484612627054
 30
0.0
 11
5749.629466587132
 21
3422.484612627054
 31
0.0
  0
ARC
  5
2C04B
330
747D
100
AcDbEntity
  8
細線
 48
5.0
100
AcDbCircle
 10
5764.629466587132
 20
3418.484612627053
 30
0.0
 40
5.0
100
AcDbArc
 50
270.0
 51
0.0
  0
ARC
  5
2C04C
330
747D
100
AcDbEntity
  8
細線
 48
5.0
100
AcDbCircle
 10
5764.629466587132
 20
3450.484612627054
 30
0.0
 40
5.0
100
AcDbArc
 50
0.0
 51
90.0
  0
LINE
  5
2C04D
330
747D
100
AcDbEntity
  8
細線
 48
50.0
100
AcDbLine
 10
5769.629466587132
 20
3450.484612627054
 30
0.0
 11
5769.629466587132
 21
3418.484612627053
 31
0.0
  0
LINE
  5
2C04E
330
747D
100
AcDbEntity
  8
細線
 48
5.0
100
AcDbLine
 10
5643.029466587131
 20
3444.484612627054
 30
0.0
 11
5652.22946658713
 21
3444.484612627054
 31
0.0
  0
LINE
  5
2C04F
330
747D
100
AcDbEntity
  8
細線
 48
5.0
100
AcDbLine
 10
5643.029466587131
 20
3444.984612627054
 30
0.0
 11
5652.629466587132
 21
3444.984612627054
 31
0.0
  0
ARC
  5
2C050
330
747D
100
AcDbEntity
  8
細線
 48
5.0
100
AcDbCircle
 10
5644.029466587131
 20
3454.484612627054
 30
0.0
 40
1.0
100
AcDbArc
 50
90.0
 51
180.0
  0
ARC
  5
2C051
330
747D
100
AcDbEntity
  8
細線
 48
5.0
100
AcDbCircle
 10
5647.629466587132
 20
3451.194612627054
 30
0.0
 40
6.289999999999992
100
AcDbArc
 50
43.00286864812033
 51
136.9971313518796
  0
ARC
  5
2C052
330
747D
100
AcDbEntity
  8
細線
  6
HIDDEN
100
AcDbCircle
 10
5666.129466587132
 20
3452.484612627054
 30
0.0
 40
3.0
100
AcDbArc
 50
0.0
 51
90.0
  0
ARC
  5
2C053
330
747D
100
AcDbEntity
  8
細線
  6
HIDDEN
100
AcDbCircle
 10
5666.129466587132
 20
3416.484612627054
 30
0.0
 40
3.0
100
AcDbArc
 50
270.0
 51
0.0
  0
ARC
  5
2C054
330
747D
100
AcDbEntity
  8
細線
 48
5.0
100
AcDbCircle
 10
5644.029466587131
 20
3414.484612627054
 30
0.0
 40
1.0
100
AcDbArc
 50
180.0
 51
270.0
  0
ARC
  5
2C055
330
747D
100
AcDbEntity
  8
細線
 48
5.0
100
AcDbCircle
 10
5647.629466587132
 20
3417.774612627054
 30
0.0
 40
6.289999999999992
100
AcDbArc
 50
223.0028686481203
 51
316.9971313518797
  0
LINE
  5
2C056
330
747D
100
AcDbEntity
  8
細線
 48
5.0
100
AcDbLine
 10
5643.029466587131
 20
3424.484612627054
 30
0.0
 11
5652.22946658713
 21
3424.484612627054
 31
0.0
  0
LINE
  5
2C057
330
747D
100
AcDbEntity
  8
細線
 48
5.0
100
AcDbLine
 10
5643.029466587131
 20
3423.984612627054
 30
0.0
 11
5652.629466587132
 21
3423.984612627054
 31
0.0
  0
LINE
  5
2C058
330
747D
100
AcDbEntity
  8
細線
 48
5.0
100
AcDbLine
 10
5643.029466587131
 20
3414.484612627054
 30
0.0
 11
5643.029466587131
 21
3454.484612627054
 31
0.0
  0
LINE
  5
2C059
330
747D
100
AcDbEntity
  8
細線
 48
5.0
100
AcDbLine
 10
5652.22946658713
 20
3424.484612627054
 30
0.0
 11
5652.22946658713
 21
3444.484612627054
 31
0.0
  0
LINE
  5
2C05A
330
747D
100
AcDbEntity
  8
細線
 48
5.0
100
AcDbLine
 10
5652.629466587132
 20
3423.984612627054
 30
0.0
 11
5652.629466587132
 21
3444.984612627054
 31
0.0
  0
LINE
  5
2C05B
330
747D
100
AcDbEntity
  8
細線
  6
HIDDEN
 48
2.0
100
AcDbLine
 10
5669.129466587132
 20
3416.484612627054
 30
0.0
 11
5669.129466587132
 21
3452.484612627054
 31
0.0
  0
LINE
  5
2C05C
330
747D
100
AcDbEntity
  8
細線
 48
50.0
100
AcDbLine
 10
5717.329466587132
 20
3455.484612627054
 30
0.0
 11
5717.329466587132
 21
3413.484612627054
 31
0.0
  0
LINE
  5
2C05D
330
747D
100
AcDbEntity
  8
細線
 48
50.0
100
AcDbLine
 10
5709.629466587132
 20
3455.484612627054
 30
0.0
 11
5709.629466587132
 21
3413.484612627054
 31
0.0
  0
LINE
  5
2C05E
330
747D
100
AcDbEntity
  8
細線
 48
50.0
100
AcDbLine
 10
5764.629466587132
 20
3413.484612627054
 30
0.0
 11
5643.029466587131
 21
3413.484612627054
 31
0.0
  0
LINE
  5
2C05F
330
747D
100
AcDbEntity
  8
細線
 48
50.0
100
AcDbLine
 10
5643.029466587131
 20
3455.484612627054
 30
0.0
 11
5764.629466587132
 21
3455.484612627054
 31
0.0
  0
LEADER
  5
2C060
330
747D
100
AcDbEntity
  8
寸法
 48
50.0
100
AcDbLeader
  3
INABA_S40G
 73
     0
 75
     1
 40
130.6818181818182
 41
284.0909090909091
 76
     3
 10
5643.029466587131
 20
3434.484612627054
 30
0.0
 10
5485.232090751861
 20
3025.732341230028
 30
0.0
 10
5385.232090751861
 20
3025.732341230028
 30
0.0
340
2C061
  0
MTEXT
  5
2C061
102
{ACAD_REACTORS
330
2C060
102
}
330
747D
100
AcDbEntity
  8
寸法
 62
     7
 48
50.0
100
AcDbMText
 10
5345.23209075186
 20
3131.073250320937
 30
0.0
 40
100.0
 41
1.0
 71
     6
 72
     1
  1
\A1;掛金
  7
MSPゴシック
 73
     1
 44
1.0
1001
ACAD
1000
MTEXTBEGIN
1070
    73
1070
     1
1070
    44
1040
1.0
1070
    74
1070
     0
1000
MTEXTEND
  0
LINE
  5
2C062
330
747D
100
AcDbEntity
  8
部品1
 48
50.0
100
AcDbLine
 10
5705.791854839194
 20
3413.484612627054
 30
0.0
 11
5705.791854839192
 21
2512.984612627053
 31
0.0
  0
LINE
  5
2C0FD
330
747D
100
AcDbEntity
  8
細線
 48
50.0
100
AcDbLine
 10
11174.62372490461
 20
2821.984612627042
 30
0.0
 11
11174.62372490461
 21
2624.984612627043
 31
0.0
  0
LINE
  5
2C0FE
330
747D
100
AcDbEntity
  8
細線
 48
50.0
100
AcDbLine
 10
10926.62372490462
 20
2821.984612627043
 30
0.0
 11
10926.62372490462
 21
2624.984612627043
 31
0.0
  0
LINE
  5
2C0FF
330
747D
100
AcDbEntity
  8
細線
 48
50.0
100
AcDbLine
 10
10926.62372490462
 20
2821.984612627043
 30
0.0
 11
11174.62372490461
 21
2821.984612627042
 31
0.0
  0
LINE
  5
2C100
330
747D
100
AcDbEntity
  8
細線
 48
50.0
100
AcDbLine
 10
10926.62372490462
 20
2624.984612627043
 30
0.0
 11
11174.62372490461
 21
2624.984612627043
 31
0.0
  0
LINE
  5
2C101
330
747D
100
AcDbEntity
  8
細線
 48
50.0
100
AcDbLine
 10
11149.62372490462
 20
2796.984612627043
 30
0.0
 11
11149.62372490461
 21
2772.984612627043
 31
0.0
  0
LINE
  5
2C102
330
747D
100
AcDbEntity
  8
細線
 48
50.0
100
AcDbLine
 10
10951.62372490461
 20
2796.984612627043
 30
0.0
 11
10951.62372490461
 21
2772.984612627044
 31
0.0
  0
LINE
  5
2C103
330
747D
100
AcDbEntity
  8
細線
 48
50.0
100
AcDbLine
 10
10951.62372490461
 20
2796.984612627044
 30
0.0
 11
11149.62372490462
 21
2796.984612627043
 31
0.0
  0
LINE
  5
2C104
330
747D
100
AcDbEntity
  8
細線
 48
50.0
100
AcDbLine
 10
10951.62372490461
 20
2649.984612627044
 30
0.0
 11
11149.62372490462
 21
2649.984612627043
 31
0.0
  0
LINE
  5
2C105
330
747D
100
AcDbEntity
  8
細線
 48
50.0
100
AcDbLine
 10
10951.62372490461
 20
2763.484612627044
 30
0.0
 11
11149.62372490462
 21
2763.484612627042
 31
0.0
  0
LINE
  5
2C106
330
747D
100
AcDbEntity
  8
細線
 48
50.0
100
AcDbLine
 10
10951.62372490461
 20
2729.484612627044
 30
0.0
 11
11149.62372490462
 21
2729.484612627042
 31
0.0
  0
LINE
  5
2C107
330
747D
100
AcDbEntity
  8
細線
 48
50.0
100
AcDbLine
 10
10951.62372490461
 20
2695.484612627044
 30
0.0
 11
11149.62372490462
 21
2695.484612627042
 31
0.0
  0
LINE
  5
2C108
330
747D
100
AcDbEntity
  8
細線
 48
50.0
100
AcDbLine
 10
10951.62372490461
 20
2661.484612627044
 30
0.0
 11
11149.62372490462
 21
2661.484612627042
 31
0.0
  0
LINE
  5
2C109
330
747D
100
AcDbEntity
  8
細線
 48
50.0
100
AcDbLine
 10
10951.62372490461
 20
2670.984612627044
 30
0.0
 11
11149.62372490462
 21
2670.984612627043
 31
0.0
  0
LINE
  5
2C10A
330
747D
100
AcDbEntity
  8
細線
 48
50.0
100
AcDbLine
 10
10951.62372490461
 20
2704.984612627044
 30
0.0
 11
11149.62372490462
 21
2704.984612627042
 31
0.0
  0
LINE
  5
2C10B
330
747D
100
AcDbEntity
  8
細線
 48
50.0
100
AcDbLine
 10
10951.62372490461
 20
2738.984612627044
 30
0.0
 11
11149.62372490462
 21
2738.984612627043
 31
0.0
  0
LINE
  5
2C10C
330
747D
100
AcDbEntity
  8
細線
 48
50.0
100
AcDbLine
 10
10951.62372490461
 20
2772.984612627044
 30
0.0
 11
11149.62372490462
 21
2772.984612627042
 31
0.0
  0
LINE
  5
2C10D
330
747D
100
AcDbEntity
  8
細線
 48
50.0
100
AcDbLine
 10
11149.62372490461
 20
2763.484612627043
 30
0.0
 11
11149.62372490461
 21
2738.984612627043
 31
0.0
  0
LINE
  5
2C10E
330
747D
100
AcDbEntity
  8
細線
 48
50.0
100
AcDbLine
 10
11149.62372490461
 20
2729.484612627043
 30
0.0
 11
11149.62372490461
 21
2704.984612627043
 31
0.0
  0
LINE
  5
2C10F
330
747D
100
AcDbEntity
  8
細線
 48
50.0
100
AcDbLine
 10
11149.62372490461
 20
2695.484612627043
 30
0.0
 11
11149.62372490461
 21
2670.984612627043
 31
0.0
  0
LINE
  5
2C110
330
747D
100
AcDbEntity
  8
細線
 48
50.0
100
AcDbLine
 10
10951.62372490461
 20
2661.484612627044
 30
0.0
 11
10951.62372490462
 21
2649.984612627044
 31
0.0
  0
LINE
  5
2C111
330
747D
100
AcDbEntity
  8
細線
 48
50.0
100
AcDbLine
 10
10951.62372490461
 20
2695.484612627044
 30
0.0
 11
10951.62372490461
 21
2670.984612627044
 31
0.0
  0
LINE
  5
2C112
330
747D
100
AcDbEntity
  8
細線
 48
50.0
100
AcDbLine
 10
10951.62372490461
 20
2729.484612627045
 30
0.0
 11
10951.62372490461
 21
2704.984612627044
 31
0.0
  0
LINE
  5
2C113
330
747D
100
AcDbEntity
  8
細線
 48
50.0
100
AcDbLine
 10
10951.62372490461
 20
2763.484612627044
 30
0.0
 11
10951.62372490461
 21
2738.984612627044
 31
0.0
  0
LINE
  5
2C114
330
747D
100
AcDbEntity
  8
細線
 48
50.0
100
AcDbLine
 10
11149.62372490461
 20
2661.484612627043
 30
0.0
 11
11149.62372490462
 21
2649.984612627043
 31
0.0
  0
LINE
  5
2C115
330
747D
100
AcDbEntity
  8
細線
 48
50.0
100
AcDbLine
 10
11043.12372490461
 20
2624.984612627045
 30
0.0
 11
11043.12372490461
 21
2520.984612627043
 31
0.0
  0
LINE
  5
2C116
330
747D
100
AcDbEntity
  8
細線
 48
50.0
100
AcDbLine
 10
11058.12372490462
 20
2624.984612627045
 30
0.0
 11
11058.12372490462
 21
2520.984612627043
 31
0.0
  0
LINE
  5
2C117
330
747D
100
AcDbEntity
  8
細線
 62
     5
100
AcDbLine
 10
11255.62372490461
 20
4590.82793915753
 30
0.0
 11
11260.62372490461
 21
4595.827939157529
 31
0.0
  0
LINE
  5
2C118
330
747D
100
AcDbEntity
  8
細線
 62
     5
100
AcDbLine
 10
11260.62372490461
 20
4607.827939157529
 30
0.0
 11
11260.62372490461
 21
4595.827939157529
 31
0.0
  0
LINE
  5
2C119
330
747D
100
AcDbEntity
  8
細線
 62
     5
100
AcDbLine
 10
11086.12372490461
 20
4490.627939157529
 30
0.0
 11
11149.12372490461
 21
4490.627939157529
 31
0.0
  0
LINE
  5
2C11A
330
747D
100
AcDbEntity
  8
細線
 62
     5
100
AcDbLine
 10
11086.12372490461
 20
4494.127939157529
 30
0.0
 11
11149.12372490461
 21
4494.127939157529
 31
0.0
  0
LINE
  5
2C11B
330
747D
100
AcDbEntity
  8
細線
 62
     5
100
AcDbLine
 10
11086.12372490461
 20
4522.127939157529
 30
0.0
 11
11149.12372490461
 21
4522.127939157529
 31
0.0
  0
LINE
  5
2C11C
330
747D
100
AcDbEntity
  8
細線
 62
     5
100
AcDbLine
 10
11086.12372490461
 20
4525.627939157529
 30
0.0
 11
11149.12372490461
 21
4525.627939157529
 31
0.0
  0
LINE
  5
2C11D
330
747D
100
AcDbEntity
  8
細線
 62
     5
100
AcDbLine
 10
11086.12372490461
 20
4553.627939157529
 30
0.0
 11
11149.12372490461
 21
4553.627939157529
 31
0.0
  0
LINE
  5
2C11E
330
747D
100
AcDbEntity
  8
細線
 62
     5
100
AcDbLine
 10
11086.12372490461
 20
4557.127939157529
 30
0.0
 11
11149.12372490461
 21
4557.127939157529
 31
0.0
  0
LINE
  5
2C11F
330
747D
100
AcDbEntity
  8
細線
 62
     5
100
AcDbLine
 10
11086.12372490461
 20
4585.127939157529
 30
0.0
 11
11149.12372490461
 21
4585.127939157529
 31
0.0
  0
LINE
  5
2C120
330
747D
100
AcDbEntity
  8
細線
 62
     5
100
AcDbLine
 10
11153.12372490461
 20
4490.627939157529
 30
0.0
 11
11216.12372490461
 21
4490.627939157529
 31
0.0
  0
LINE
  5
2C121
330
747D
100
AcDbEntity
  8
細線
 62
     5
100
AcDbLine
 10
11153.12372490461
 20
4494.127939157529
 30
0.0
 11
11216.12372490461
 21
4494.127939157529
 31
0.0
  0
LINE
  5
2C122
330
747D
100
AcDbEntity
  8
細線
 62
     5
100
AcDbLine
 10
11153.12372490461
 20
4522.127939157529
 30
0.0
 11
11216.12372490461
 21
4522.127939157529
 31
0.0
  0
LINE
  5
2C123
330
747D
100
AcDbEntity
  8
細線
 62
     5
100
AcDbLine
 10
11153.12372490461
 20
4525.627939157529
 30
0.0
 11
11216.12372490461
 21
4525.627939157529
 31
0.0
  0
LINE
  5
2C124
330
747D
100
AcDbEntity
  8
細線
 62
     5
100
AcDbLine
 10
11153.12372490461
 20
4553.627939157529
 30
0.0
 11
11216.12372490461
 21
4553.627939157529
 31
0.0
  0
LINE
  5
2C125
330
747D
100
AcDbEntity
  8
細線
 62
     5
100
AcDbLine
 10
11153.12372490461
 20
4557.127939157529
 30
0.0
 11
11216.12372490461
 21
4557.127939157529
 31
0.0
  0
LINE
  5
2C126
330
747D
100
AcDbEntity
  8
細線
 62
     5
100
AcDbLine
 10
11153.12372490461
 20
4585.127939157529
 30
0.0
 11
11216.12372490461
 21
4585.127939157529
 31
0.0
  0
LINE
  5
2C127
330
747D
100
AcDbEntity
  8
細線
 62
     5
100
AcDbLine
 10
11153.12372490461
 20
4588.627939157529
 30
0.0
 11
11220.1237249046
 21
4588.627939157531
 31
0.0
  0
ARC
  5
2C128
330
747D
100
AcDbEntity
  8
細線
 62
     5
100
AcDbCircle
 10
11240.12372490462
 20
4312.427939157529
 30
0.0
 40
3.0
100
AcDbArc
 50
270.0
 51
0.0
  0
LINE
  5
2C129
330
747D
100
AcDbEntity
  8
細線
 62
     5
100
AcDbLine
 10
11086.12372490461
 20
4364.627939157527
 30
0.0
 11
11149.12372490461
 21
4364.627939157527
 31
0.0
  0
LINE
  5
2C12A
330
747D
100
AcDbEntity
  8
細線
 62
     5
100
AcDbLine
 10
11086.12372490461
 20
4336.627939157529
 30
0.0
 11
11149.12372490461
 21
4336.627939157529
 31
0.0
  0
LINE
  5
2C12B
330
747D
100
AcDbEntity
  8
細線
 62
     5
100
AcDbLine
 10
11086.12372490461
 20
4368.127939157527
 30
0.0
 11
11149.12372490461
 21
4368.127939157527
 31
0.0
  0
LINE
  5
2C12C
330
747D
100
AcDbEntity
  8
細線
 62
     5
100
AcDbLine
 10
11086.12372490461
 20
4396.127939157529
 30
0.0
 11
11149.12372490461
 21
4396.127939157529
 31
0.0
  0
LINE
  5
2C12D
330
747D
100
AcDbEntity
  8
細線
 62
     5
100
AcDbLine
 10
11086.12372490461
 20
4399.627939157529
 30
0.0
 11
11149.12372490461
 21
4399.627939157529
 31
0.0
  0
LINE
  5
2C12E
330
747D
100
AcDbEntity
  8
細線
 62
     5
100
AcDbLine
 10
11086.12372490461
 20
4427.627939157529
 30
0.0
 11
11149.12372490461
 21
4427.627939157529
 31
0.0
  0
LINE
  5
2C12F
330
747D
100
AcDbEntity
  8
細線
 62
     5
100
AcDbLine
 10
11086.12372490461
 20
4431.127939157529
 30
0.0
 11
11149.12372490461
 21
4431.127939157529
 31
0.0
  0
LINE
  5
2C130
330
747D
100
AcDbEntity
  8
細線
 62
     5
100
AcDbLine
 10
11086.12372490461
 20
4459.127939157529
 30
0.0
 11
11149.12372490461
 21
4459.127939157529
 31
0.0
  0
LINE
  5
2C131
330
747D
100
AcDbEntity
  8
細線
 62
     5
100
AcDbLine
 10
11086.12372490461
 20
4462.627939157528
 30
0.0
 11
11149.12372490461
 21
4462.627939157528
 31
0.0
  0
LINE
  5
2C132
330
747D
100
AcDbEntity
  8
細線
 62
     5
100
AcDbLine
 10
11153.12372490461
 20
4333.127939157529
 30
0.0
 11
11220.12372490461
 21
4333.12793915753
 31
0.0
  0
LINE
  5
2C133
330
747D
100
AcDbEntity
  8
細線
 62
     5
100
AcDbLine
 10
11153.12372490461
 20
4336.627939157529
 30
0.0
 11
11216.12372490461
 21
4336.627939157529
 31
0.0
  0
LINE
  5
2C134
330
747D
100
AcDbEntity
  8
細線
 62
     5
100
AcDbLine
 10
11153.12372490461
 20
4364.627939157529
 30
0.0
 11
11216.12372490461
 21
4364.627939157529
 31
0.0
  0
LINE
  5
2C135
330
747D
100
AcDbEntity
  8
細線
 62
     5
100
AcDbLine
 10
11153.12372490461
 20
4368.127939157527
 30
0.0
 11
11216.12372490461
 21
4368.127939157528
 31
0.0
  0
LINE
  5
2C136
330
747D
100
AcDbEntity
  8
細線
 62
     5
100
AcDbLine
 10
11153.12372490461
 20
4396.127939157529
 30
0.0
 11
11216.12372490461
 21
4396.127939157529
 31
0.0
  0
LINE
  5
2C137
330
747D
100
AcDbEntity
  8
細線
 62
     5
100
AcDbLine
 10
11153.12372490461
 20
4399.627939157529
 30
0.0
 11
11216.12372490461
 21
4399.627939157529
 31
0.0
  0
LINE
  5
2C138
330
747D
100
AcDbEntity
  8
細線
 62
     5
100
AcDbLine
 10
11153.12372490461
 20
4427.627939157529
 30
0.0
 11
11216.12372490461
 21
4427.627939157529
 31
0.0
  0
LINE
  5
2C139
330
747D
100
AcDbEntity
  8
細線
 62
     5
100
AcDbLine
 10
11153.12372490461
 20
4431.127939157529
 30
0.0
 11
11216.12372490461
 21
4431.127939157529
 31
0.0
  0
LINE
  5
2C13A
330
747D
100
AcDbEntity
  8
細線
 62
     5
100
AcDbLine
 10
11153.12372490461
 20
4459.127939157529
 30
0.0
 11
11216.12372490461
 21
4459.127939157529
 31
0.0
  0
LINE
  5
2C13B
330
747D
100
AcDbEntity
  8
細線
 62
     5
100
AcDbLine
 10
11153.12372490461
 20
4462.627939157528
 30
0.0
 11
11216.12372490461
 21
4462.627939157528
 31
0.0
  0
LINE
  5
2C13C
330
747D
100
AcDbEntity
  8
細線
 62
     5
100
AcDbLine
 10
11243.12372490461
 20
4590.82793915753
 30
0.0
 11
11243.12372490462
 21
4312.427939157529
 31
0.0
  0
LINE
  5
2C13D
330
747D
100
AcDbEntity
  8
細線
 62
     5
100
AcDbLine
 10
11233.12372490461
 20
4590.82793915753
 30
0.0
 11
11233.12372490461
 21
4309.427939157528
 31
0.0
  0
LINE
  5
2C13E
330
747D
100
AcDbEntity
  8
細線
 62
     5
100
AcDbLine
 10
11221.12372490461
 20
4590.82793915753
 30
0.0
 11
11221.12372490461
 21
4329.627939157528
 31
0.0
  0
LINE
  5
2C13F
330
747D
100
AcDbEntity
  8
細線
 62
     5
100
AcDbLine
 10
11216.12372490461
 20
4588.627939157529
 30
0.0
 11
11216.12372490461
 21
4333.127939157529
 31
0.0
  0
LINE
  5
2C140
330
747D
100
AcDbEntity
  8
細線
 62
     5
100
AcDbLine
 10
11220.12372490461
 20
4588.627939157529
 30
0.0
 11
11220.12372490461
 21
4333.127939157529
 31
0.0
  0
LINE
  5
2C141
330
747D
100
AcDbEntity
  8
細線
 62
     5
100
AcDbLine
 10
11082.12372490461
 20
4588.627939157527
 30
0.0
 11
11082.12372490461
 21
4333.127939157527
 31
0.0
  0
LINE
  5
2C142
330
747D
100
AcDbEntity
  8
細線
 62
     5
100
AcDbLine
 10
11086.12372490461
 20
4588.627939157527
 30
0.0
 11
11086.12372490461
 21
4333.127939157527
 31
0.0
  0
LINE
  5
2C143
330
747D
100
AcDbEntity
  8
細線
 62
     5
100
AcDbLine
 10
11153.12372490461
 20
4590.82793915753
 30
0.0
 11
11153.12372490461
 21
4329.627939157528
 31
0.0
  0
LINE
  5
2C144
330
747D
100
AcDbEntity
  8
細線
 62
     5
100
AcDbLine
 10
11149.12372490461
 20
4590.82793915753
 30
0.0
 11
11149.12372490461
 21
4329.627939157528
 31
0.0
  0
LINE
  5
2C145
330
747D
100
AcDbEntity
  8
細線
 62
     5
100
AcDbLine
 10
10952.12372490461
 20
4585.127939157527
 30
0.0
 11
11015.12372490461
 21
4585.127939157527
 31
0.0
  0
LINE
  5
2C146
330
747D
100
AcDbEntity
  8
細線
 62
     5
100
AcDbLine
 10
10952.12372490461
 20
4557.127939157527
 30
0.0
 11
11015.12372490461
 21
4557.127939157529
 31
0.0
  0
LINE
  5
2C147
330
747D
100
AcDbEntity
  8
細線
 62
     5
100
AcDbLine
 10
10952.12372490461
 20
4553.627939157527
 30
0.0
 11
11015.12372490461
 21
4553.627939157529
 31
0.0
  0
LINE
  5
2C148
330
747D
100
AcDbEntity
  8
細線
 62
     5
100
AcDbLine
 10
10952.12372490461
 20
4525.627939157526
 30
0.0
 11
11015.12372490461
 21
4525.627939157526
 31
0.0
  0
LINE
  5
2C149
330
747D
100
AcDbEntity
  8
細線
 62
     5
100
AcDbLine
 10
10952.12372490461
 20
4522.127939157527
 30
0.0
 11
11015.12372490461
 21
4522.127939157527
 31
0.0
  0
LINE
  5
2C14A
330
747D
100
AcDbEntity
  8
細線
 62
     5
100
AcDbLine
 10
10952.12372490461
 20
4494.127939157527
 30
0.0
 11
11015.12372490461
 21
4494.127939157529
 31
0.0
  0
LINE
  5
2C14B
330
747D
100
AcDbEntity
  8
細線
 62
     5
100
AcDbLine
 10
10952.12372490461
 20
4490.627939157527
 30
0.0
 11
11015.12372490461
 21
4490.627939157529
 31
0.0
  0
LINE
  5
2C14C
330
747D
100
AcDbEntity
  8
細線
 62
     5
100
AcDbLine
 10
10845.62372490461
 20
4590.82793915753
 30
0.0
 11
10840.62372490461
 21
4595.827939157529
 31
0.0
  0
LINE
  5
2C14D
330
747D
100
AcDbEntity
  8
細線
 62
     5
100
AcDbLine
 10
10840.62372490461
 20
4607.827939157529
 30
0.0
 11
10840.62372490461
 21
4595.827939157529
 31
0.0
  0
LINE
  5
2C14E
330
747D
100
AcDbEntity
  8
細線
 62
     5
100
AcDbLine
 10
10885.12372490461
 20
4490.627939157527
 30
0.0
 11
10948.12372490461
 21
4490.627939157527
 31
0.0
  0
LINE
  5
2C14F
330
747D
100
AcDbEntity
  8
細線
 62
     5
100
AcDbLine
 10
10885.12372490461
 20
4494.127939157527
 30
0.0
 11
10948.12372490461
 21
4494.127939157527
 31
0.0
  0
LINE
  5
2C150
330
747D
100
AcDbEntity
  8
細線
 62
     5
100
AcDbLine
 10
10885.12372490461
 20
4522.127939157527
 30
0.0
 11
10948.12372490461
 21
4522.127939157527
 31
0.0
  0
LINE
  5
2C151
330
747D
100
AcDbEntity
  8
細線
 62
     5
100
AcDbLine
 10
10885.12372490461
 20
4525.627939157526
 30
0.0
 11
10948.12372490461
 21
4525.627939157526
 31
0.0
  0
LINE
  5
2C152
330
747D
100
AcDbEntity
  8
細線
 62
     5
100
AcDbLine
 10
10885.12372490461
 20
4553.627939157527
 30
0.0
 11
10948.12372490461
 21
4553.627939157527
 31
0.0
  0
LINE
  5
2C153
330
747D
100
AcDbEntity
  8
細線
 62
     5
100
AcDbLine
 10
10885.12372490461
 20
4557.127939157527
 30
0.0
 11
10948.12372490461
 21
4557.127939157527
 31
0.0
  0
LINE
  5
2C154
330
747D
100
AcDbEntity
  8
細線
 62
     5
100
AcDbLine
 10
10885.12372490461
 20
4585.127939157527
 30
0.0
 11
10948.12372490461
 21
4585.127939157527
 31
0.0
  0
LINE
  5
2C155
330
747D
100
AcDbEntity
  8
細線
 62
     5
100
AcDbLine
 10
10881.12372490461
 20
4588.627939157527
 30
0.0
 11
10948.12372490461
 21
4588.627939157529
 31
0.0
  0
LINE
  5
2C156
330
747D
100
AcDbEntity
  8
細線
 62
     5
100
AcDbLine
 10
10952.12372490461
 20
4364.627939157527
 30
0.0
 11
11015.12372490461
 21
4364.627939157527
 31
0.0
  0
LINE
  5
2C157
330
747D
100
AcDbEntity
  8
細線
 62
     5
100
AcDbLine
 10
10952.12372490461
 20
4336.627939157527
 30
0.0
 11
11015.12372490461
 21
4336.627939157527
 31
0.0
  0
LINE
  5
2C158
330
747D
100
AcDbEntity
  8
細線
 62
     5
100
AcDbLine
 10
10952.12372490461
 20
4462.627939157527
 30
0.0
 11
11015.12372490461
 21
4462.627939157527
 31
0.0
  0
LINE
  5
2C159
330
747D
100
AcDbEntity
  8
細線
 62
     5
100
AcDbLine
 10
10952.12372490461
 20
4459.127939157527
 30
0.0
 11
11015.12372490461
 21
4459.127939157527
 31
0.0
  0
LINE
  5
2C15A
330
747D
100
AcDbEntity
  8
細線
 62
     5
100
AcDbLine
 10
10952.12372490461
 20
4431.127939157527
 30
0.0
 11
11015.12372490461
 21
4431.127939157529
 31
0.0
  0
LINE
  5
2C15B
330
747D
100
AcDbEntity
  8
細線
 62
     5
100
AcDbLine
 10
10952.12372490461
 20
4427.627939157527
 30
0.0
 11
11015.12372490461
 21
4427.627939157529
 31
0.0
  0
LINE
  5
2C15C
330
747D
100
AcDbEntity
  8
細線
 62
     5
100
AcDbLine
 10
10952.12372490461
 20
4399.627939157527
 30
0.0
 11
11015.12372490461
 21
4399.627939157527
 31
0.0
  0
LINE
  5
2C15D
330
747D
100
AcDbEntity
  8
細線
 62
     5
100
AcDbLine
 10
10952.12372490461
 20
4396.127939157527
 30
0.0
 11
11015.12372490461
 21
4396.127939157527
 31
0.0
  0
LINE
  5
2C15E
330
747D
100
AcDbEntity
  8
細線
 62
     5
100
AcDbLine
 10
10952.12372490461
 20
4368.127939157527
 30
0.0
 11
11015.12372490461
 21
4368.127939157527
 31
0.0
  0
ARC
  5
2C15F
330
747D
100
AcDbEntity
  8
細線
 62
     5
100
AcDbCircle
 10
10861.12372490461
 20
4312.427939157529
 30
0.0
 40
3.0
100
AcDbArc
 50
180.0
 51
270.0
  0
LINE
  5
2C160
330
747D
100
AcDbEntity
  8
細線
 62
     5
100
AcDbLine
 10
10885.12372490461
 20
4364.627939157527
 30
0.0
 11
10948.12372490461
 21
4364.627939157527
 31
0.0
  0
LINE
  5
2C161
330
747D
100
AcDbEntity
  8
細線
 62
     5
100
AcDbLine
 10
10881.12372490461
 20
4333.127939157527
 30
0.0
 11
10948.12372490461
 21
4333.127939157527
 31
0.0
  0
LINE
  5
2C162
330
747D
100
AcDbEntity
  8
細線
 62
     5
100
AcDbLine
 10
10885.12372490461
 20
4336.627939157527
 30
0.0
 11
10948.12372490461
 21
4336.627939157527
 31
0.0
  0
LINE
  5
2C163
330
747D
100
AcDbEntity
  8
細線
 62
     5
100
AcDbLine
 10
10885.12372490461
 20
4368.127939157527
 30
0.0
 11
10948.12372490461
 21
4368.127939157527
 31
0.0
  0
LINE
  5
2C164
330
747D
100
AcDbEntity
  8
細線
 62
     5
100
AcDbLine
 10
10885.12372490461
 20
4396.127939157527
 30
0.0
 11
10948.12372490461
 21
4396.127939157527
 31
0.0
  0
LINE
  5
2C165
330
747D
100
AcDbEntity
  8
細線
 62
     5
100
AcDbLine
 10
10885.12372490461
 20
4399.627939157527
 30
0.0
 11
10948.12372490461
 21
4399.627939157527
 31
0.0
  0
LINE
  5
2C166
330
747D
100
AcDbEntity
  8
細線
 62
     5
100
AcDbLine
 10
10885.12372490461
 20
4427.627939157527
 30
0.0
 11
10948.12372490461
 21
4427.627939157527
 31
0.0
  0
LINE
  5
2C167
330
747D
100
AcDbEntity
  8
細線
 62
     5
100
AcDbLine
 10
10885.12372490461
 20
4431.127939157527
 30
0.0
 11
10948.12372490461
 21
4431.127939157527
 31
0.0
  0
LINE
  5
2C168
330
747D
100
AcDbEntity
  8
細線
 62
     5
100
AcDbLine
 10
10885.12372490461
 20
4459.127939157527
 30
0.0
 11
10948.12372490461
 21
4459.127939157527
 31
0.0
  0
LINE
  5
2C169
330
747D
100
AcDbEntity
  8
細線
 62
     5
100
AcDbLine
 10
10885.12372490461
 20
4462.627939157527
 30
0.0
 11
10948.12372490461
 21
4462.627939157527
 31
0.0
  0
LINE
  5
2C16A
330
747D
100
AcDbEntity
  8
細線
 62
     5
100
AcDbLine
 10
10952.12372490461
 20
4590.82793915753
 30
0.0
 11
10952.12372490461
 21
4329.627939157528
 31
0.0
  0
LINE
  5
2C16B
330
747D
100
AcDbEntity
  8
細線
 62
     5
100
AcDbLine
 10
10948.12372490461
 20
4590.82793915753
 30
0.0
 11
10948.12372490461
 21
4329.627939157528
 31
0.0
  0
LINE
  5
2C16C
330
747D
100
AcDbEntity
  8
細線
 62
     5
100
AcDbLine
 10
10880.12372490461
 20
4590.82793915753
 30
0.0
 11
10880.12372490461
 21
4329.627939157528
 31
0.0
  0
LINE
  5
2C16D
330
747D
100
AcDbEntity
  8
細線
 62
     5
100
AcDbLine
 10
10868.12372490461
 20
4590.82793915753
 30
0.0
 11
10868.12372490461
 21
4309.427939157529
 31
0.0
  0
LINE
  5
2C16E
330
747D
100
AcDbEntity
  8
細線
 62
     5
100
AcDbLine
 10
10858.12372490461
 20
4590.82793915753
 30
0.0
 11
10858.12372490461
 21
4312.427939157529
 31
0.0
  0
LINE
  5
2C16F
330
747D
100
AcDbEntity
  8
細線
 62
     5
100
AcDbLine
 10
11019.12372490461
 20
4588.627939157527
 30
0.0
 11
11019.12372490461
 21
4333.127939157527
 31
0.0
  0
LINE
  5
2C170
330
747D
100
AcDbEntity
  8
細線
 62
     5
100
AcDbLine
 10
11015.12372490461
 20
4588.627939157527
 30
0.0
 11
11015.12372490461
 21
4333.127939157527
 31
0.0
  0
LINE
  5
2C171
330
747D
100
AcDbEntity
  8
細線
 62
     5
100
AcDbLine
 10
10885.12372490461
 20
4588.627939157527
 30
0.0
 11
10885.12372490461
 21
4333.127939157527
 31
0.0
  0
LINE
  5
2C172
330
747D
100
AcDbEntity
  8
細線
 62
     5
100
AcDbLine
 10
10881.12372490461
 20
4588.627939157527
 30
0.0
 11
10881.12372490461
 21
4333.127939157527
 31
0.0
  0
LINE
  5
2C173
330
747D
100
AcDbEntity
  8
細線
 62
     5
100
AcDbLine
 10
11019.12372490461
 20
4364.627939157527
 30
0.0
 11
11082.12372490461
 21
4364.627939157527
 31
0.0
  0
LINE
  5
2C174
330
747D
100
AcDbEntity
  8
細線
 62
     5
100
AcDbLine
 10
11019.12372490461
 20
4336.627939157527
 30
0.0
 11
11082.12372490461
 21
4336.627939157529
 31
0.0
  0
LINE
  5
2C175
330
747D
100
AcDbEntity
  8
細線
 62
     5
100
AcDbLine
 10
10952.12372490461
 20
4333.127939157527
 30
0.0
 11
11149.12372490461
 21
4333.127939157529
 31
0.0
  0
LINE
  5
2C176
330
747D
100
AcDbEntity
  8
細線
 62
     5
100
AcDbLine
 10
10861.12372490461
 20
4309.427939157529
 30
0.0
 11
11240.12372490462
 21
4309.427939157528
 31
0.0
  0
LINE
  5
2C177
330
747D
100
AcDbEntity
  8
細線
 62
     5
100
AcDbLine
 10
10868.12372490461
 20
4319.42793915753
 30
0.0
 11
11233.12372490461
 21
4319.427939157528
 31
0.0
  0
LINE
  5
2C178
330
747D
100
AcDbEntity
  8
細線
 62
     5
100
AcDbLine
 10
10868.12372490461
 20
4329.627939157528
 30
0.0
 11
11233.12372490461
 21
4329.627939157528
 31
0.0
  0
LINE
  5
2C179
330
747D
100
AcDbEntity
  8
細線
 62
     5
100
AcDbLine
 10
11019.12372490461
 20
4553.627939157529
 30
0.0
 11
11082.12372490461
 21
4553.627939157529
 31
0.0
  0
LINE
  5
2C17A
330
747D
100
AcDbEntity
  8
細線
 62
     5
100
AcDbLine
 10
11019.12372490461
 20
4557.127939157529
 30
0.0
 11
11082.12372490461
 21
4557.127939157529
 31
0.0
  0
LINE
  5
2C17B
330
747D
100
AcDbEntity
  8
細線
 62
     5
100
AcDbLine
 10
11019.12372490461
 20
4585.127939157527
 30
0.0
 11
11082.12372490461
 21
4585.127939157529
 31
0.0
  0
LINE
  5
2C17C
330
747D
100
AcDbEntity
  8
細線
 62
     5
100
AcDbLine
 10
11019.12372490461
 20
4459.127939157527
 30
0.0
 11
11082.12372490461
 21
4459.127939157529
 31
0.0
  0
LINE
  5
2C17D
330
747D
100
AcDbEntity
  8
細線
 62
     5
100
AcDbLine
 10
11019.12372490461
 20
4462.627939157527
 30
0.0
 11
11082.12372490461
 21
4462.627939157528
 31
0.0
  0
LINE
  5
2C17E
330
747D
100
AcDbEntity
  8
細線
 62
     5
100
AcDbLine
 10
11019.12372490461
 20
4490.627939157529
 30
0.0
 11
11082.12372490461
 21
4490.627939157529
 31
0.0
  0
LINE
  5
2C17F
330
747D
100
AcDbEntity
  8
細線
 62
     5
100
AcDbLine
 10
11019.12372490461
 20
4494.127939157529
 30
0.0
 11
11082.12372490461
 21
4494.127939157529
 31
0.0
  0
LINE
  5
2C180
330
747D
100
AcDbEntity
  8
細線
 62
     5
100
AcDbLine
 10
11019.12372490461
 20
4522.127939157527
 30
0.0
 11
11082.12372490461
 21
4522.127939157529
 31
0.0
  0
LINE
  5
2C181
330
747D
100
AcDbEntity
  8
細線
 62
     5
100
AcDbLine
 10
11019.12372490461
 20
4525.627939157526
 30
0.0
 11
11082.12372490461
 21
4525.627939157529
 31
0.0
  0
LINE
  5
2C182
330
747D
100
AcDbEntity
  8
細線
 62
     5
100
AcDbLine
 10
11019.12372490461
 20
4396.127939157527
 30
0.0
 11
11082.12372490461
 21
4396.127939157529
 31
0.0
  0
LINE
  5
2C183
330
747D
100
AcDbEntity
  8
細線
 62
     5
100
AcDbLine
 10
11019.12372490461
 20
4399.627939157527
 30
0.0
 11
11082.12372490461
 21
4399.627939157529
 31
0.0
  0
LINE
  5
2C184
330
747D
100
AcDbEntity
  8
細線
 62
     5
100
AcDbLine
 10
11019.12372490461
 20
4427.627939157529
 30
0.0
 11
11082.12372490461
 21
4427.627939157529
 31
0.0
  0
LINE
  5
2C185
330
747D
100
AcDbEntity
  8
細線
 62
     5
100
AcDbLine
 10
11019.12372490461
 20
4431.127939157529
 30
0.0
 11
11082.12372490461
 21
4431.127939157529
 31
0.0
  0
LINE
  5
2C186
330
747D
100
AcDbEntity
  8
細線
 62
     5
100
AcDbLine
 10
11019.12372490461
 20
4368.127939157527
 30
0.0
 11
11082.12372490461
 21
4368.127939157527
 31
0.0
  0
LINE
  5
2C187
330
747D
100
AcDbEntity
  8
細線
 62
     5
100
AcDbLine
 10
10952.12372490461
 20
4588.627939157529
 30
0.0
 11
11149.12372490461
 21
4588.627939157529
 31
0.0
  0
LINE
  5
2C188
330
747D
100
AcDbEntity
  8
細線
 62
     5
100
AcDbLine
 10
10845.62372490461
 20
4590.82793915753
 30
0.0
 11
11255.62372490461
 21
4590.82793915753
 31
0.0
  0
LINE
  5
2C189
330
747D
100
AcDbEntity
  8
細線
 62
     5
100
AcDbLine
 10
10840.62372490461
 20
4600.82793915753
 30
0.0
 11
11260.62372490461
 21
4600.82793915753
 31
0.0
  0
LINE
  5
2C18C
330
747D
100
AcDbEntity
  8
細線
 48
50.0
100
AcDbLine
 10
10903.12372490461
 20
4309.427939157529
 30
0.0
 11
10903.12372490461
 21
2520.984612627043
 31
0.0
  0
LINE
  5
2C18D
330
747D
100
AcDbEntity
  8
細線
 48
50.0
100
AcDbLine
 10
11198.12372490462
 20
4309.427939157528
 30
0.0
 11
11198.12372490462
 21
2520.984612627043
 31
0.0
  0
LINE
  5
2C18E
330
747D
100
AcDbEntity
  8
細線
 48
50.0
100
AcDbLine
 10
10918.12372490462
 20
4309.427939157529
 30
0.0
 11
10918.12372490462
 21
2520.984612627043
 31
0.0
  0
LINE
  5
2C18F
330
747D
100
AcDbEntity
  8
細線
 48
50.0
100
AcDbLine
 10
11043.12372490461
 20
4309.427939157528
 30
0.0
 11
11043.12372490461
 21
2821.984612627042
 31
0.0
  0
LINE
  5
2C190
330
747D
100
AcDbEntity
  8
細線
 48
50.0
100
AcDbLine
 10
11058.12372490462
 20
4309.427939157528
 30
0.0
 11
11058.12372490462
 21
2821.984612627042
 31
0.0
  0
LINE
  5
2C191
330
747D
100
AcDbEntity
  8
細線
 48
50.0
100
AcDbLine
 10
11183.12372490462
 20
4309.427939157528
 30
0.0
 11
11183.12372490462
 21
2520.984612627043
 31
0.0
  0
LINE
  5
2C192
330
747D
100
AcDbEntity
  8
細線
 62
     5
100
AcDbLine
 10
9580.623724904617
 20
4600.827939157528
 30
0.0
 11
10000.62372490462
 21
4600.827939157528
 31
0.0
  0
LINE
  5
2C193
330
747D
100
AcDbEntity
  8
細線
 62
     5
100
AcDbLine
 10
9585.623724904618
 20
4590.827939157527
 30
0.0
 11
9995.623724904618
 21
4590.827939157527
 31
0.0
  0
LINE
  5
2C194
330
747D
100
AcDbEntity
  8
細線
 62
     5
100
AcDbLine
 10
9692.123724904618
 20
4588.627939157527
 30
0.0
 11
9889.123724904614
 21
4588.627939157527
 31
0.0
  0
LINE
  5
2C195
330
747D
100
AcDbEntity
  8
細線
 62
     5
100
AcDbLine
 10
9759.123724904618
 20
4368.127939157525
 30
0.0
 11
9822.123724904617
 21
4368.127939157525
 31
0.0
  0
LINE
  5
2C196
330
747D
100
AcDbEntity
  8
細線
 62
     5
100
AcDbLine
 10
9759.123724904618
 20
4431.127939157527
 30
0.0
 11
9822.123724904617
 21
4431.127939157527
 31
0.0
  0
LINE
  5
2C197
330
747D
100
AcDbEntity
  8
細線
 62
     5
100
AcDbLine
 10
9759.123724904618
 20
4427.627939157527
 30
0.0
 11
9822.123724904617
 21
4427.627939157527
 31
0.0
  0
LINE
  5
2C198
330
747D
100
AcDbEntity
  8
細線
 62
     5
100
AcDbLine
 10
9759.123724904618
 20
4399.627939157525
 30
0.0
 11
9822.123724904617
 21
4399.627939157527
 31
0.0
  0
LINE
  5
2C199
330
747D
100
AcDbEntity
  8
細線
 62
     5
100
AcDbLine
 10
9759.123724904618
 20
4396.127939157525
 30
0.0
 11
9822.123724904617
 21
4396.127939157527
 31
0.0
  0
LINE
  5
2C19A
330
747D
100
AcDbEntity
  8
細線
 62
     5
100
AcDbLine
 10
9759.123724904618
 20
4525.627939157526
 30
0.0
 11
9822.123724904617
 21
4525.627939157526
 31
0.0
  0
LINE
  5
2C19B
330
747D
100
AcDbEntity
  8
細線
 62
     5
100
AcDbLine
 10
9759.123724904618
 20
4522.127939157525
 30
0.0
 11
9822.123724904617
 21
4522.127939157527
 31
0.0
  0
LINE
  5
2C19C
330
747D
100
AcDbEntity
  8
細線
 62
     5
100
AcDbLine
 10
9759.123724904618
 20
4494.127939157527
 30
0.0
 11
9822.123724904617
 21
4494.127939157527
 31
0.0
  0
LINE
  5
2C19D
330
747D
100
AcDbEntity
  8
細線
 62
     5
100
AcDbLine
 10
9759.123724904618
 20
4490.627939157527
 30
0.0
 11
9822.123724904617
 21
4490.627939157527
 31
0.0
  0
LINE
  5
2C19E
330
747D
100
AcDbEntity
  8
細線
 62
     5
100
AcDbLine
 10
9759.123724904618
 20
4462.627939157525
 30
0.0
 11
9822.123724904617
 21
4462.627939157527
 31
0.0
  0
LINE
  5
2C19F
330
747D
100
AcDbEntity
  8
細線
 62
     5
100
AcDbLine
 10
9759.123724904618
 20
4459.127939157525
 30
0.0
 11
9822.123724904617
 21
4459.127939157527
 31
0.0
  0
LINE
  5
2C1A0
330
747D
100
AcDbEntity
  8
細線
 62
     5
100
AcDbLine
 10
9759.123724904618
 20
4585.127939157525
 30
0.0
 11
9822.123724904617
 21
4585.127939157527
 31
0.0
  0
LINE
  5
2C1A1
330
747D
100
AcDbEntity
  8
細線
 62
     5
100
AcDbLine
 10
9759.123724904618
 20
4557.127939157527
 30
0.0
 11
9822.123724904617
 21
4557.127939157527
 31
0.0
  0
LINE
  5
2C1A2
330
747D
100
AcDbEntity
  8
細線
 62
     5
100
AcDbLine
 10
9759.123724904618
 20
4553.627939157527
 30
0.0
 11
9822.123724904617
 21
4553.627939157527
 31
0.0
  0
LINE
  5
2C1A3
330
747D
100
AcDbEntity
  8
細線
 62
     5
100
AcDbLine
 10
9608.123724904617
 20
4329.627939157528
 30
0.0
 11
9973.123724904617
 21
4329.627939157528
 31
0.0
  0
LINE
  5
2C1A4
330
747D
100
AcDbEntity
  8
細線
 62
     5
100
AcDbLine
 10
9608.123724904617
 20
4319.427939157528
 30
0.0
 11
9973.123724904617
 21
4319.427939157526
 31
0.0
  0
LINE
  5
2C1A5
330
747D
100
AcDbEntity
  8
細線
 62
     5
100
AcDbLine
 10
9601.123724904613
 20
4309.427939157528
 30
0.0
 11
9980.123724904622
 21
4309.427939157526
 31
0.0
  0
LINE
  5
2C1A6
330
747D
100
AcDbEntity
  8
細線
 62
     5
100
AcDbLine
 10
9692.123724904618
 20
4333.127939157526
 30
0.0
 11
9889.123724904614
 21
4333.127939157527
 31
0.0
  0
LINE
  5
2C1A7
330
747D
100
AcDbEntity
  8
細線
 62
     5
100
AcDbLine
 10
9759.123724904618
 20
4336.627939157525
 30
0.0
 11
9822.123724904617
 21
4336.627939157527
 31
0.0
  0
LINE
  5
2C1A8
330
747D
100
AcDbEntity
  8
細線
 62
     5
100
AcDbLine
 10
9759.123724904618
 20
4364.627939157525
 30
0.0
 11
9822.123724904617
 21
4364.627939157525
 31
0.0
  0
LINE
  5
2C1A9
330
747D
100
AcDbEntity
  8
細線
 62
     5
100
AcDbLine
 10
9621.123724904618
 20
4588.627939157525
 30
0.0
 11
9621.123724904618
 21
4333.127939157526
 31
0.0
  0
LINE
  5
2C1AA
330
747D
100
AcDbEntity
  8
細線
 62
     5
100
AcDbLine
 10
9625.123724904618
 20
4588.627939157525
 30
0.0
 11
9625.123724904618
 21
4333.127939157526
 31
0.0
  0
LINE
  5
2C1AB
330
747D
100
AcDbEntity
  8
細線
 62
     5
100
AcDbLine
 10
9755.123724904617
 20
4588.627939157525
 30
0.0
 11
9755.123724904617
 21
4333.127939157526
 31
0.0
  0
LINE
  5
2C1AC
330
747D
100
AcDbEntity
  8
細線
 62
     5
100
AcDbLine
 10
9759.123724904618
 20
4588.627939157525
 30
0.0
 11
9759.123724904618
 21
4333.127939157526
 31
0.0
  0
LINE
  5
2C1AD
330
747D
100
AcDbEntity
  8
細線
 62
     5
100
AcDbLine
 10
9598.123724904617
 20
4590.827939157527
 30
0.0
 11
9598.123724904613
 21
4312.427939157529
 31
0.0
  0
LINE
  5
2C1AE
330
747D
100
AcDbEntity
  8
細線
 62
     5
100
AcDbLine
 10
9608.123724904615
 20
4590.827939157527
 30
0.0
 11
9608.123724904615
 21
4309.427939157528
 31
0.0
  0
LINE
  5
2C1AF
330
747D
100
AcDbEntity
  8
細線
 62
     5
100
AcDbLine
 10
9620.123724904617
 20
4590.827939157527
 30
0.0
 11
9620.123724904617
 21
4329.627939157528
 31
0.0
  0
LINE
  5
2C1B0
330
747D
100
AcDbEntity
  8
細線
 62
     5
100
AcDbLine
 10
9688.123724904619
 20
4590.827939157527
 30
0.0
 11
9688.123724904619
 21
4329.627939157528
 31
0.0
  0
LINE
  5
2C1B1
330
747D
100
AcDbEntity
  8
細線
 62
     5
100
AcDbLine
 10
9692.123724904618
 20
4590.827939157527
 30
0.0
 11
9692.123724904622
 21
4329.627939157528
 31
0.0
  0
LINE
  5
2C1B2
330
747D
100
AcDbEntity
  8
細線
 62
     5
100
AcDbLine
 10
9625.123724904614
 20
4462.627939157525
 30
0.0
 11
9688.123724904619
 21
4462.627939157525
 31
0.0
  0
LINE
  5
2C1B3
330
747D
100
AcDbEntity
  8
細線
 62
     5
100
AcDbLine
 10
9625.123724904614
 20
4459.127939157525
 30
0.0
 11
9688.123724904619
 21
4459.127939157525
 31
0.0
  0
LINE
  5
2C1B4
330
747D
100
AcDbEntity
  8
細線
 62
     5
100
AcDbLine
 10
9625.123724904614
 20
4431.127939157526
 30
0.0
 11
9688.123724904619
 21
4431.127939157526
 31
0.0
  0
LINE
  5
2C1B5
330
747D
100
AcDbEntity
  8
細線
 62
     5
100
AcDbLine
 10
9625.123724904614
 20
4427.627939157525
 30
0.0
 11
9688.123724904619
 21
4427.627939157525
 31
0.0
  0
LINE
  5
2C1B6
330
747D
100
AcDbEntity
  8
細線
 62
     5
100
AcDbLine
 10
9625.123724904614
 20
4399.627939157525
 30
0.0
 11
9688.123724904619
 21
4399.627939157525
 31
0.0
  0
LINE
  5
2C1B7
330
747D
100
AcDbEntity
  8
細線
 62
     5
100
AcDbLine
 10
9625.123724904614
 20
4396.127939157525
 30
0.0
 11
9688.123724904619
 21
4396.127939157525
 31
0.0
  0
LINE
  5
2C1B8
330
747D
100
AcDbEntity
  8
細線
 62
     5
100
AcDbLine
 10
9625.123724904614
 20
4368.127939157525
 30
0.0
 11
9688.123724904619
 21
4368.127939157525
 31
0.0
  0
LINE
  5
2C1B9
330
747D
100
AcDbEntity
  8
細線
 62
     5
100
AcDbLine
 10
9625.123724904614
 20
4336.627939157525
 30
0.0
 11
9688.123724904619
 21
4336.627939157525
 31
0.0
  0
LINE
  5
2C1BA
330
747D
100
AcDbEntity
  8
細線
 62
     5
100
AcDbLine
 10
9621.123724904613
 20
4333.127939157526
 30
0.0
 11
9688.123724904619
 21
4333.127939157526
 31
0.0
  0
LINE
  5
2C1BB
330
747D
100
AcDbEntity
  8
細線
 62
     5
100
AcDbLine
 10
9625.123724904614
 20
4364.627939157525
 30
0.0
 11
9688.123724904619
 21
4364.627939157525
 31
0.0
  0
ARC
  5
2C1BC
330
747D
100
AcDbEntity
  8
細線
 62
     5
100
AcDbCircle
 10
9601.123724904613
 20
4312.427939157529
 30
0.0
 40
3.0
100
AcDbArc
 50
180.0
 51
270.0
  0
LINE
  5
2C1BD
330
747D
100
AcDbEntity
  8
細線
 62
     5
100
AcDbLine
 10
9692.123724904622
 20
4368.127939157525
 30
0.0
 11
9755.123724904617
 21
4368.127939157525
 31
0.0
  0
LINE
  5
2C1BE
330
747D
100
AcDbEntity
  8
細線
 62
     5
100
AcDbLine
 10
9692.123724904622
 20
4396.127939157525
 30
0.0
 11
9755.123724904617
 21
4396.127939157525
 31
0.0
  0
LINE
  5
2C1BF
330
747D
100
AcDbEntity
  8
細線
 62
     5
100
AcDbLine
 10
9692.123724904622
 20
4399.627939157525
 30
0.0
 11
9755.123724904617
 21
4399.627939157525
 31
0.0
  0
LINE
  5
2C1C0
330
747D
100
AcDbEntity
  8
細線
 62
     5
100
AcDbLine
 10
9692.123724904618
 20
4427.627939157525
 30
0.0
 11
9755.123724904617
 21
4427.627939157527
 31
0.0
  0
LINE
  5
2C1C1
330
747D
100
AcDbEntity
  8
細線
 62
     5
100
AcDbLine
 10
9692.123724904618
 20
4431.127939157526
 30
0.0
 11
9755.123724904617
 21
4431.127939157527
 31
0.0
  0
LINE
  5
2C1C2
330
747D
100
AcDbEntity
  8
細線
 62
     5
100
AcDbLine
 10
9692.123724904618
 20
4459.127939157525
 30
0.0
 11
9755.123724904617
 21
4459.127939157525
 31
0.0
  0
LINE
  5
2C1C3
330
747D
100
AcDbEntity
  8
細線
 62
     5
100
AcDbLine
 10
9692.123724904618
 20
4462.627939157525
 30
0.0
 11
9755.123724904617
 21
4462.627939157525
 31
0.0
  0
LINE
  5
2C1C4
330
747D
100
AcDbEntity
  8
細線
 62
     5
100
AcDbLine
 10
9692.123724904622
 20
4336.627939157525
 30
0.0
 11
9755.123724904617
 21
4336.627939157525
 31
0.0
  0
LINE
  5
2C1C5
330
747D
100
AcDbEntity
  8
細線
 62
     5
100
AcDbLine
 10
9692.123724904622
 20
4364.627939157525
 30
0.0
 11
9755.123724904617
 21
4364.627939157525
 31
0.0
  0
LINE
  5
2C1C6
330
747D
100
AcDbEntity
  8
細線
 62
     5
100
AcDbLine
 10
9621.123724904613
 20
4588.627939157525
 30
0.0
 11
9688.123724904619
 21
4588.627939157527
 31
0.0
  0
LINE
  5
2C1C7
330
747D
100
AcDbEntity
  8
細線
 62
     5
100
AcDbLine
 10
9625.123724904614
 20
4585.127939157525
 30
0.0
 11
9688.123724904619
 21
4585.127939157525
 31
0.0
  0
LINE
  5
2C1C8
330
747D
100
AcDbEntity
  8
細線
 62
     5
100
AcDbLine
 10
9625.123724904614
 20
4557.127939157525
 30
0.0
 11
9688.123724904619
 21
4557.127939157525
 31
0.0
  0
LINE
  5
2C1C9
330
747D
100
AcDbEntity
  8
細線
 62
     5
100
AcDbLine
 10
9625.123724904614
 20
4553.627939157525
 30
0.0
 11
9688.123724904619
 21
4553.627939157525
 31
0.0
  0
LINE
  5
2C1CA
330
747D
100
AcDbEntity
  8
細線
 62
     5
100
AcDbLine
 10
9625.123724904614
 20
4525.627939157526
 30
0.0
 11
9688.123724904619
 21
4525.627939157526
 31
0.0
  0
LINE
  5
2C1CB
330
747D
100
AcDbEntity
  8
細線
 62
     5
100
AcDbLine
 10
9625.123724904614
 20
4522.127939157525
 30
0.0
 11
9688.123724904619
 21
4522.127939157525
 31
0.0
  0
LINE
  5
2C1CC
330
747D
100
AcDbEntity
  8
細線
 62
     5
100
AcDbLine
 10
9625.123724904614
 20
4494.127939157525
 30
0.0
 11
9688.123724904619
 21
4494.127939157525
 31
0.0
  0
LINE
  5
2C1CD
330
747D
100
AcDbEntity
  8
細線
 62
     5
100
AcDbLine
 10
9625.123724904614
 20
4490.627939157525
 30
0.0
 11
9688.123724904619
 21
4490.627939157525
 31
0.0
  0
LINE
  5
2C1CE
330
747D
100
AcDbEntity
  8
細線
 62
     5
100
AcDbLine
 10
9580.623724904617
 20
4607.827939157528
 30
0.0
 11
9580.623724904617
 21
4595.827939157528
 31
0.0
  0
LINE
  5
2C1CF
330
747D
100
AcDbEntity
  8
細線
 62
     5
100
AcDbLine
 10
9585.623724904618
 20
4590.827939157527
 30
0.0
 11
9580.623724904617
 21
4595.827939157528
 31
0.0
  0
LINE
  5
2C1D0
330
747D
100
AcDbEntity
  8
細線
 62
     5
100
AcDbLine
 10
9692.123724904618
 20
4490.627939157525
 30
0.0
 11
9755.123724904617
 21
4490.627939157527
 31
0.0
  0
LINE
  5
2C1D1
330
747D
100
AcDbEntity
  8
細線
 62
     5
100
AcDbLine
 10
9692.123724904618
 20
4494.127939157525
 30
0.0
 11
9755.123724904617
 21
4494.127939157527
 31
0.0
  0
LINE
  5
2C1D2
330
747D
100
AcDbEntity
  8
細線
 62
     5
100
AcDbLine
 10
9692.123724904618
 20
4522.127939157525
 30
0.0
 11
9755.123724904617
 21
4522.127939157525
 31
0.0
  0
LINE
  5
2C1D3
330
747D
100
AcDbEntity
  8
細線
 62
     5
100
AcDbLine
 10
9692.123724904618
 20
4525.627939157526
 30
0.0
 11
9755.123724904617
 21
4525.627939157526
 31
0.0
  0
LINE
  5
2C1D4
330
747D
100
AcDbEntity
  8
細線
 62
     5
100
AcDbLine
 10
9692.123724904618
 20
4553.627939157525
 30
0.0
 11
9755.123724904617
 21
4553.627939157527
 31
0.0
  0
LINE
  5
2C1D5
330
747D
100
AcDbEntity
  8
細線
 62
     5
100
AcDbLine
 10
9692.123724904618
 20
4557.127939157525
 30
0.0
 11
9755.123724904617
 21
4557.127939157527
 31
0.0
  0
LINE
  5
2C1D6
330
747D
100
AcDbEntity
  8
細線
 62
     5
100
AcDbLine
 10
9692.123724904618
 20
4585.127939157525
 30
0.0
 11
9755.123724904617
 21
4585.127939157525
 31
0.0
  0
LINE
  5
2C1D7
330
747D
100
AcDbEntity
  8
細線
 62
     5
100
AcDbLine
 10
9889.123724904614
 20
4590.827939157527
 30
0.0
 11
9889.123724904614
 21
4329.627939157528
 31
0.0
  0
LINE
  5
2C1D8
330
747D
100
AcDbEntity
  8
細線
 62
     5
100
AcDbLine
 10
9893.123724904619
 20
4590.827939157527
 30
0.0
 11
9893.123724904613
 21
4329.627939157528
 31
0.0
  0
LINE
  5
2C1D9
330
747D
100
AcDbEntity
  8
細線
 62
     5
100
AcDbLine
 10
9826.123724904618
 20
4588.627939157525
 30
0.0
 11
9826.123724904618
 21
4333.127939157526
 31
0.0
  0
LINE
  5
2C1DA
330
747D
100
AcDbEntity
  8
細線
 62
     5
100
AcDbLine
 10
9822.123724904617
 20
4588.627939157525
 30
0.0
 11
9822.123724904617
 21
4333.127939157526
 31
0.0
  0
LINE
  5
2C1DB
330
747D
100
AcDbEntity
  8
細線
 62
     5
100
AcDbLine
 10
9960.123724904613
 20
4588.627939157527
 30
0.0
 11
9960.123724904619
 21
4333.127939157527
 31
0.0
  0
LINE
  5
2C1DC
330
747D
100
AcDbEntity
  8
細線
 62
     5
100
AcDbLine
 10
9956.123724904614
 20
4588.627939157527
 30
0.0
 11
9956.123724904617
 21
4333.127939157527
 31
0.0
  0
LINE
  5
2C1DD
330
747D
100
AcDbEntity
  8
細線
 62
     5
100
AcDbLine
 10
9961.123724904615
 20
4590.827939157527
 30
0.0
 11
9961.123724904616
 21
4329.627939157528
 31
0.0
  0
LINE
  5
2C1DE
330
747D
100
AcDbEntity
  8
細線
 62
     5
100
AcDbLine
 10
9973.123724904613
 20
4590.827939157527
 30
0.0
 11
9973.123724904622
 21
4309.427939157526
 31
0.0
  0
LINE
  5
2C1DF
330
747D
100
AcDbEntity
  8
細線
 62
     5
100
AcDbLine
 10
9983.123724904615
 20
4590.827939157527
 30
0.0
 11
9983.123724904622
 21
4312.427939157526
 31
0.0
  0
LINE
  5
2C1E0
330
747D
100
AcDbEntity
  8
細線
 62
     5
100
AcDbLine
 10
9893.12372490462
 20
4462.627939157527
 30
0.0
 11
9956.123724904614
 21
4462.627939157527
 31
0.0
  0
LINE
  5
2C1E1
330
747D
100
AcDbEntity
  8
細線
 62
     5
100
AcDbLine
 10
9893.12372490462
 20
4459.127939157527
 30
0.0
 11
9956.123724904614
 21
4459.127939157527
 31
0.0
  0
LINE
  5
2C1E2
330
747D
100
AcDbEntity
  8
細線
 62
     5
100
AcDbLine
 10
9893.12372490462
 20
4431.127939157527
 30
0.0
 11
9956.123724904614
 21
4431.127939157527
 31
0.0
  0
LINE
  5
2C1E3
330
747D
100
AcDbEntity
  8
細線
 62
     5
100
AcDbLine
 10
9893.12372490462
 20
4427.627939157527
 30
0.0
 11
9956.123724904614
 21
4427.627939157527
 31
0.0
  0
LINE
  5
2C1E4
330
747D
100
AcDbEntity
  8
細線
 62
     5
100
AcDbLine
 10
9893.12372490462
 20
4399.627939157527
 30
0.0
 11
9956.123724904614
 21
4399.627939157527
 31
0.0
  0
LINE
  5
2C1E5
330
747D
100
AcDbEntity
  8
細線
 62
     5
100
AcDbLine
 10
9893.12372490462
 20
4396.127939157527
 30
0.0
 11
9956.123724904614
 21
4396.127939157527
 31
0.0
  0
LINE
  5
2C1E6
330
747D
100
AcDbEntity
  8
細線
 62
     5
100
AcDbLine
 10
9893.123724904619
 20
4368.127939157525
 30
0.0
 11
9956.123724904614
 21
4368.127939157527
 31
0.0
  0
LINE
  5
2C1E7
330
747D
100
AcDbEntity
  8
細線
 62
     5
100
AcDbLine
 10
9893.123724904619
 20
4364.627939157527
 30
0.0
 11
9956.123724904614
 21
4364.627939157527
 31
0.0
  0
LINE
  5
2C1E8
330
747D
100
AcDbEntity
  8
細線
 62
     5
100
AcDbLine
 10
9893.123724904619
 20
4336.627939157527
 30
0.0
 11
9956.123724904614
 21
4336.627939157527
 31
0.0
  0
LINE
  5
2C1E9
330
747D
100
AcDbEntity
  8
細線
 62
     5
100
AcDbLine
 10
9893.123724904619
 20
4333.127939157527
 30
0.0
 11
9960.123724904613
 21
4333.127939157529
 31
0.0
  0
LINE
  5
2C1EA
330
747D
100
AcDbEntity
  8
細線
 62
     5
100
AcDbLine
 10
9826.123724904618
 20
4462.627939157527
 30
0.0
 11
9889.123724904617
 21
4462.627939157527
 31
0.0
  0
LINE
  5
2C1EB
330
747D
100
AcDbEntity
  8
細線
 62
     5
100
AcDbLine
 10
9826.123724904618
 20
4459.127939157527
 30
0.0
 11
9889.123724904617
 21
4459.127939157527
 31
0.0
  0
LINE
  5
2C1EC
330
747D
100
AcDbEntity
  8
細線
 62
     5
100
AcDbLine
 10
9826.123724904618
 20
4431.127939157527
 30
0.0
 11
9889.123724904617
 21
4431.127939157527
 31
0.0
  0
LINE
  5
2C1ED
330
747D
100
AcDbEntity
  8
細線
 62
     5
100
AcDbLine
 10
9826.123724904618
 20
4427.627939157527
 30
0.0
 11
9889.123724904617
 21
4427.627939157527
 31
0.0
  0
LINE
  5
2C1EE
330
747D
100
AcDbEntity
  8
細線
 62
     5
100
AcDbLine
 10
9826.123724904618
 20
4399.627939157527
 30
0.0
 11
9889.123724904617
 21
4399.627939157527
 31
0.0
  0
LINE
  5
2C1EF
330
747D
100
AcDbEntity
  8
細線
 62
     5
100
AcDbLine
 10
9826.123724904618
 20
4396.127939157527
 30
0.0
 11
9889.123724904617
 21
4396.127939157527
 31
0.0
  0
LINE
  5
2C1F0
330
747D
100
AcDbEntity
  8
細線
 62
     5
100
AcDbLine
 10
9826.123724904618
 20
4368.127939157525
 30
0.0
 11
9889.123724904614
 21
4368.127939157525
 31
0.0
  0
LINE
  5
2C1F1
330
747D
100
AcDbEntity
  8
細線
 62
     5
100
AcDbLine
 10
9826.123724904618
 20
4336.627939157527
 30
0.0
 11
9889.123724904614
 21
4336.627939157527
 31
0.0
  0
LINE
  5
2C1F2
330
747D
100
AcDbEntity
  8
細線
 62
     5
100
AcDbLine
 10
9826.123724904618
 20
4364.627939157525
 30
0.0
 11
9889.123724904614
 21
4364.627939157525
 31
0.0
  0
ARC
  5
2C1F3
330
747D
100
AcDbEntity
  8
細線
 62
     5
100
AcDbCircle
 10
9980.123724904622
 20
4312.427939157526
 30
0.0
 40
3.0
100
AcDbArc
 50
270.0
 51
0.0
  0
LINE
  5
2C1F4
330
747D
100
AcDbEntity
  8
細線
 62
     5
100
AcDbLine
 10
9893.123724904619
 20
4588.627939157527
 30
0.0
 11
9960.123724904612
 21
4588.627939157529
 31
0.0
  0
LINE
  5
2C1F5
330
747D
100
AcDbEntity
  8
細線
 62
     5
100
AcDbLine
 10
9893.12372490462
 20
4585.127939157527
 30
0.0
 11
9956.123724904614
 21
4585.127939157527
 31
0.0
  0
LINE
  5
2C1F6
330
747D
100
AcDbEntity
  8
細線
 62
     5
100
AcDbLine
 10
9893.12372490462
 20
4557.127939157527
 30
0.0
 11
9956.123724904614
 21
4557.127939157527
 31
0.0
  0
LINE
  5
2C1F7
330
747D
100
AcDbEntity
  8
細線
 62
     5
100
AcDbLine
 10
9893.12372490462
 20
4553.627939157527
 30
0.0
 11
9956.123724904614
 21
4553.627939157527
 31
0.0
  0
LINE
  5
2C1F8
330
747D
100
AcDbEntity
  8
細線
 62
     5
100
AcDbLine
 10
9893.12372490462
 20
4525.627939157526
 30
0.0
 11
9956.123724904614
 21
4525.627939157526
 31
0.0
  0
LINE
  5
2C1F9
330
747D
100
AcDbEntity
  8
細線
 62
     5
100
AcDbLine
 10
9893.12372490462
 20
4522.127939157527
 30
0.0
 11
9956.123724904614
 21
4522.127939157527
 31
0.0
  0
LINE
  5
2C1FA
330
747D
100
AcDbEntity
  8
細線
 62
     5
100
AcDbLine
 10
9893.12372490462
 20
4494.127939157527
 30
0.0
 11
9956.123724904614
 21
4494.127939157527
 31
0.0
  0
LINE
  5
2C1FB
330
747D
100
AcDbEntity
  8
細線
 62
     5
100
AcDbLine
 10
9893.12372490462
 20
4490.627939157527
 30
0.0
 11
9956.123724904614
 21
4490.627939157527
 31
0.0
  0
LINE
  5
2C1FC
330
747D
100
AcDbEntity
  8
細線
 62
     5
100
AcDbLine
 10
9826.123724904618
 20
4585.127939157527
 30
0.0
 11
9889.123724904617
 21
4585.127939157527
 31
0.0
  0
LINE
  5
2C1FD
330
747D
100
AcDbEntity
  8
細線
 62
     5
100
AcDbLine
 10
9826.123724904618
 20
4557.127939157527
 30
0.0
 11
9889.123724904617
 21
4557.127939157527
 31
0.0
  0
LINE
  5
2C1FE
330
747D
100
AcDbEntity
  8
細線
 62
     5
100
AcDbLine
 10
9826.123724904618
 20
4553.627939157527
 30
0.0
 11
9889.123724904617
 21
4553.627939157527
 31
0.0
  0
LINE
  5
2C1FF
330
747D
100
AcDbEntity
  8
細線
 62
     5
100
AcDbLine
 10
9826.123724904618
 20
4525.627939157526
 30
0.0
 11
9889.123724904617
 21
4525.627939157526
 31
0.0
  0
LINE
  5
2C200
330
747D
100
AcDbEntity
  8
細線
 62
     5
100
AcDbLine
 10
9826.123724904618
 20
4522.127939157527
 30
0.0
 11
9889.123724904617
 21
4522.127939157527
 31
0.0
  0
LINE
  5
2C201
330
747D
100
AcDbEntity
  8
細線
 62
     5
100
AcDbLine
 10
9826.123724904618
 20
4494.127939157527
 30
0.0
 11
9889.123724904617
 21
4494.127939157527
 31
0.0
  0
LINE
  5
2C202
330
747D
100
AcDbEntity
  8
細線
 62
     5
100
AcDbLine
 10
9826.123724904618
 20
4490.627939157527
 30
0.0
 11
9889.123724904617
 21
4490.627939157527
 31
0.0
  0
LINE
  5
2C203
330
747D
100
AcDbEntity
  8
細線
 62
     5
100
AcDbLine
 10
10000.62372490462
 20
4607.827939157528
 30
0.0
 11
10000.62372490462
 21
4595.827939157528
 31
0.0
  0
LINE
  5
2C204
330
747D
100
AcDbEntity
  8
細線
 62
     5
100
AcDbLine
 10
9995.623724904618
 20
4590.827939157527
 30
0.0
 11
10000.62372490462
 21
4595.827939157528
 31
0.0
  0
LINE
  5
2C205
330
747D
100
AcDbEntity
  8
細線
 48
50.0
100
AcDbLine
 10
9798.123724904622
 20
2624.984612627043
 30
0.0
 11
9798.123724904622
 21
2520.984612627041
 31
0.0
  0
LINE
  5
2C206
330
747D
100
AcDbEntity
  8
細線
 48
50.0
100
AcDbLine
 10
9783.123724904621
 20
2624.984612627043
 30
0.0
 11
9783.123724904621
 21
2520.984612627041
 31
0.0
  0
LINE
  5
2C207
330
747D
100
AcDbEntity
  8
細線
 48
50.0
100
AcDbLine
 10
9889.62372490462
 20
2661.484612627042
 30
0.0
 11
9889.623724904621
 21
2649.984612627041
 31
0.0
  0
LINE
  5
2C208
330
747D
100
AcDbEntity
  8
細線
 48
50.0
100
AcDbLine
 10
9691.623724904621
 20
2763.484612627042
 30
0.0
 11
9691.623724904617
 21
2738.984612627043
 31
0.0
  0
LINE
  5
2C209
330
747D
100
AcDbEntity
  8
細線
 48
50.0
100
AcDbLine
 10
9691.623724904617
 20
2729.484612627043
 30
0.0
 11
9691.623724904619
 21
2704.984612627042
 31
0.0
  0
LINE
  5
2C20A
330
747D
100
AcDbEntity
  8
細線
 48
50.0
100
AcDbLine
 10
9691.623724904619
 20
2695.484612627042
 30
0.0
 11
9691.623724904621
 21
2670.984612627043
 31
0.0
  0
LINE
  5
2C20B
330
747D
100
AcDbEntity
  8
細線
 48
50.0
100
AcDbLine
 10
9691.623724904621
 20
2661.484612627042
 30
0.0
 11
9691.623724904623
 21
2649.984612627042
 31
0.0
  0
LINE
  5
2C20C
330
747D
100
AcDbEntity
  8
細線
 48
50.0
100
AcDbLine
 10
9889.62372490462
 20
2695.484612627041
 30
0.0
 11
9889.62372490462
 21
2670.984612627041
 31
0.0
  0
LINE
  5
2C20D
330
747D
100
AcDbEntity
  8
細線
 48
50.0
100
AcDbLine
 10
9889.62372490462
 20
2729.484612627041
 30
0.0
 11
9889.62372490462
 21
2704.984612627042
 31
0.0
  0
LINE
  5
2C20E
330
747D
100
AcDbEntity
  8
細線
 48
50.0
100
AcDbLine
 10
9889.62372490462
 20
2763.484612627041
 30
0.0
 11
9889.62372490462
 21
2738.984612627041
 31
0.0
  0
LINE
  5
2C20F
330
747D
100
AcDbEntity
  8
細線
 48
50.0
100
AcDbLine
 10
9691.623724904621
 20
2772.984612627042
 30
0.0
 11
9889.623724904621
 21
2772.984612627041
 31
0.0
  0
LINE
  5
2C210
330
747D
100
AcDbEntity
  8
細線
 48
50.0
100
AcDbLine
 10
9691.623724904621
 20
2738.984612627042
 30
0.0
 11
9889.623724904621
 21
2738.984612627041
 31
0.0
  0
LINE
  5
2C211
330
747D
100
AcDbEntity
  8
細線
 48
50.0
100
AcDbLine
 10
9691.623724904621
 20
2704.984612627042
 30
0.0
 11
9889.623724904621
 21
2704.984612627041
 31
0.0
  0
LINE
  5
2C212
330
747D
100
AcDbEntity
  8
細線
 48
50.0
100
AcDbLine
 10
9691.623724904621
 20
2670.984612627042
 30
0.0
 11
9889.623724904621
 21
2670.984612627041
 31
0.0
  0
LINE
  5
2C213
330
747D
100
AcDbEntity
  8
細線
 48
50.0
100
AcDbLine
 10
9691.623724904621
 20
2661.484612627042
 30
0.0
 11
9889.623724904621
 21
2661.48461262704
 31
0.0
  0
LINE
  5
2C214
330
747D
100
AcDbEntity
  8
細線
 48
50.0
100
AcDbLine
 10
9691.623724904621
 20
2695.484612627042
 30
0.0
 11
9889.623724904621
 21
2695.484612627041
 31
0.0
  0
LINE
  5
2C215
330
747D
100
AcDbEntity
  8
細線
 48
50.0
100
AcDbLine
 10
9691.623724904621
 20
2729.484612627042
 30
0.0
 11
9889.623724904621
 21
2729.48461262704
 31
0.0
  0
LINE
  5
2C216
330
747D
100
AcDbEntity
  8
細線
 48
50.0
100
AcDbLine
 10
9691.623724904621
 20
2763.484612627042
 30
0.0
 11
9889.623724904621
 21
2763.484612627041
 31
0.0
  0
LINE
  5
2C217
330
747D
100
AcDbEntity
  8
細線
 48
50.0
100
AcDbLine
 10
9691.623724904621
 20
2649.984612627042
 30
0.0
 11
9889.623724904621
 21
2649.984612627041
 31
0.0
  0
LINE
  5
2C218
330
747D
100
AcDbEntity
  8
細線
 48
50.0
100
AcDbLine
 10
9691.623724904621
 20
2796.984612627042
 30
0.0
 11
9889.623724904621
 21
2796.984612627041
 31
0.0
  0
LINE
  5
2C219
330
747D
100
AcDbEntity
  8
細線
 48
50.0
100
AcDbLine
 10
9691.623724904621
 20
2796.984612627042
 30
0.0
 11
9691.623724904621
 21
2772.984612627042
 31
0.0
  0
LINE
  5
2C21A
330
747D
100
AcDbEntity
  8
細線
 48
50.0
100
AcDbLine
 10
9889.623724904621
 20
2796.984612627041
 30
0.0
 11
9889.62372490462
 21
2772.984612627041
 31
0.0
  0
LINE
  5
2C21B
330
747D
100
AcDbEntity
  8
細線
 48
50.0
100
AcDbLine
 10
9666.623724904621
 20
2624.984612627041
 30
0.0
 11
9914.623724904622
 21
2624.984612627041
 31
0.0
  0
LINE
  5
2C21C
330
747D
100
AcDbEntity
  8
細線
 48
50.0
100
AcDbLine
 10
9666.623724904621
 20
2821.984612627042
 30
0.0
 11
9914.62372490462
 21
2821.984612627041
 31
0.0
  0
LINE
  5
2C21D
330
747D
100
AcDbEntity
  8
細線
 48
50.0
100
AcDbLine
 10
9666.623724904621
 20
2821.984612627042
 30
0.0
 11
9666.623724904621
 21
2624.984612627041
 31
0.0
  0
LINE
  5
2C21E
330
747D
100
AcDbEntity
  8
細線
 48
50.0
100
AcDbLine
 10
9914.62372490462
 20
2821.984612627041
 30
0.0
 11
9914.623724904622
 21
2624.984612627041
 31
0.0
  0
LINE
  5
2C21F
330
747D
100
AcDbEntity
  8
細線
 48
50.0
100
AcDbLine
 10
9923.123724904622
 20
4309.427939157526
 30
0.0
 11
9923.123724904622
 21
2520.984612627041
 31
0.0
  0
LINE
  5
2C220
330
747D
100
AcDbEntity
  8
細線
 48
50.0
100
AcDbLine
 10
9798.123724904622
 20
4309.427939157528
 30
0.0
 11
9798.123724904622
 21
2821.984612627041
 31
0.0
  0
LINE
  5
2C221
330
747D
100
AcDbEntity
  8
細線
 48
50.0
100
AcDbLine
 10
9783.123724904621
 20
4309.427939157528
 30
0.0
 11
9783.123724904621
 21
2821.984612627041
 31
0.0
  0
LINE
  5
2C222
330
747D
100
AcDbEntity
  8
細線
 48
50.0
100
AcDbLine
 10
9658.123724904621
 20
4309.427939157528
 30
0.0
 11
9658.123724904621
 21
2520.984612627041
 31
0.0
  0
LINE
  5
2C223
330
747D
100
AcDbEntity
  8
細線
 48
50.0
100
AcDbLine
 10
9938.12372490462
 20
4309.427939157526
 30
0.0
 11
9938.12372490462
 21
2520.984612627041
 31
0.0
  0
LINE
  5
2C224
330
747D
100
AcDbEntity
  8
細線
 48
50.0
100
AcDbLine
 10
9643.12372490462
 20
4309.427939157528
 30
0.0
 11
9643.12372490462
 21
2520.984612627041
 31
0.0
  0
LINE
  5
2C4D5
330
747D
100
AcDbEntity
  8
部品1
 48
50.0
100
AcDbLine
 10
5798.791854839191
 20
3621.484612627055
 30
0.0
 11
5798.791854839191
 21
3510.484612627055
 31
0.0
  0
LINE
  5
2C4D6
330
747D
100
AcDbEntity
  8
部品1
 48
50.0
100
AcDbLine
 10
5793.791854839192
 20
3505.484612627054
 30
0.0
 11
5740.791854839192
 21
3505.484612627054
 31
0.0
  0
LINE
  5
2C4D7
330
747D
100
AcDbEntity
  8
部品1
 48
50.0
100
AcDbLine
 10
5735.791854839192
 20
3510.484612627055
 30
0.0
 11
5735.791854839192
 21
3621.484612627055
 31
0.0
  0
ARC
  5
2C4D8
330
747D
100
AcDbEntity
  8
部品1
 48
50.0
100
AcDbCircle
 10
5793.791854839192
 20
3621.484612627055
 30
0.0
 40
5.0
100
AcDbArc
 50
0.0
 51
90.0
  0
ARC
  5
2C4D9
330
747D
100
AcDbEntity
  8
部品1
 48
50.0
100
AcDbCircle
 10
5793.791854839192
 20
3510.484612627055
 30
0.0
 40
5.0
100
AcDbArc
 50
270.0
 51
0.0
  0
ARC
  5
2C4DA
330
747D
100
AcDbEntity
  8
部品1
 48
50.0
100
AcDbCircle
 10
5740.791854839192
 20
3510.484612627055
 30
0.0
 40
5.0
100
AcDbArc
 50
180.0
 51
270.0
  0
ARC
  5
2C4DB
330
747D
100
AcDbEntity
  8
部品1
 48
50.0
100
AcDbCircle
 10
5740.791854839192
 20
3621.484612627055
 30
0.0
 40
5.0
100
AcDbArc
 50
90.0
 51
180.0
  0
ARC
  5
2C4DC
330
747D
100
AcDbEntity
  8
細線
 48
50.0
100
AcDbCircle
 10
5767.291854839192
 20
3595.984612627054
 30
0.0
 40
16.5
100
AcDbArc
 50
152.0012352654438
 51
207.9987647345562
  0
ARC
  5
2C4DD
330
747D
100
AcDbEntity
  8
細線
 48
50.0
100
AcDbCircle
 10
5767.291854839192
 20
3595.984612627054
 30
0.0
 40
14.0
100
AcDbArc
 50
146.4074436112769
 51
213.592556388723
  0
LINE
  5
2C4DE
330
747D
100
AcDbEntity
  8
細線
 48
50.0
100
AcDbLine
 10
5778.953758628881
 20
3588.23864593464
 30
0.0
 11
5781.860657123527
 21
3588.23864593464
 31
0.0
  0
LINE
  5
2C4DF
330
747D
100
AcDbEntity
  8
細線
 48
50.0
100
AcDbLine
 10
5778.953758628881
 20
3603.730579319469
 30
0.0
 11
5781.860657123527
 21
3603.730579319469
 31
0.0
  0
LINE
  5
2C4E0
330
747D
100
AcDbEntity
  8
細線
 48
50.0
100
AcDbLine
 10
5752.72305255486
 20
3588.23864593464
 30
0.0
 11
5755.629951049503
 21
3588.23864593464
 31
0.0
  0
LINE
  5
2C4E1
330
747D
100
AcDbEntity
  8
細線
 48
50.0
100
AcDbLine
 10
5752.72305255486
 20
3603.730579319469
 30
0.0
 11
5755.629951049503
 21
3603.730579319469
 31
0.0
  0
ARC
  5
2C4E2
330
747D
100
AcDbEntity
  8
細線
 48
50.0
100
AcDbCircle
 10
5767.291854839192
 20
3595.984612627054
 30
0.0
 40
14.0
100
AcDbArc
 50
326.407443611277
 51
33.59255638872305
  0
ARC
  5
2C4E3
330
747D
100
AcDbEntity
  8
細線
 48
50.0
100
AcDbCircle
 10
5767.291854839192
 20
3595.984612627054
 30
0.0
 40
16.5
100
AcDbArc
 50
332.0012352654438
 51
27.99876473455621
  0
LWPOLYLINE
  5
2C4E4
330
747D
100
AcDbEntity
  8
部品1
 48
50.0
100
AcDbPolyline
 90
        2
 70
     0
 43
0.0
 10
5770.791854839192
 20
3577.309763230072
 10
5770.791854839192
 20
3588.23864593464
  0
ARC
  5
2C4E5
330
747D
100
AcDbEntity
  8
部品1
 48
50.0
100
AcDbCircle
 10
5767.291854839192
 20
3595.984612627054
 30
0.0
 40
8.5
100
AcDbArc
 50
294.315739171091
 51
65.68426082890896
  0
LWPOLYLINE
  5
2C4E6
330
747D
100
AcDbEntity
  8
部品1
 48
50.0
100
AcDbPolyline
 90
        2
 70
     0
 43
0.0
 10
5770.791854839192
 20
3603.730579319469
 10
5770.791854839192
 20
3614.659462024036
  0
LWPOLYLINE
  5
2C4E7
330
747D
100
AcDbEntity
  8
部品1
 48
50.0
100
AcDbPolyline
 90
        2
 70
     0
 43
0.0
 10
5763.791854839191
 20
3588.23864593464
 10
5763.791854839191
 20
3577.309763230072
  0
CIRCLE
  5
2C4E8
330
747D
100
AcDbEntity
  8
部品1
 48
50.0
100
AcDbCircle
 10
5767.291854839192
 20
3595.984612627054
 30
0.0
 40
19.0
  0
LWPOLYLINE
  5
2C4E9
330
747D
100
AcDbEntity
  8
部品1
 48
50.0
100
AcDbPolyline
 90
        2
 70
     0
 43
0.0
 10
5763.791854839191
 20
3614.659462024036
 10
5763.791854839191
 20
3603.730579319469
  0
CIRCLE
  5
2C4EA
330
747D
100
AcDbEntity
  8
細線
 48
50.0
100
AcDbCircle
 10
5767.291854839192
 20
3595.984612627054
 30
0.0
 40
4.5
  0
ARC
  5
2C4EB
330
747D
100
AcDbEntity
  8
部品1
 48
50.0
100
AcDbCircle
 10
5767.291854839192
 20
3595.984612627054
 30
0.0
 40
8.5
100
AcDbArc
 50
114.315739171091
 51
245.684260828909
  0
CIRCLE
  5
2C4EC
330
747D
100
AcDbEntity
  8
細線
 48
50.0
100
AcDbCircle
 10
5767.291854839192
 20
3545.984612627054
 30
0.0
 40
12.0
  0
ARC
  5
2C4ED
330
747D
100
AcDbEntity
  8
細線
 48
50.0
100
AcDbCircle
 10
5762.091854839194
 20
3525.432240501248
 30
0.0
 40
0.3
100
AcDbArc
 50
180.0
 51
255.8014401248145
  0
ARC
  5
2C4EE
330
747D
100
AcDbEntity
  8
細線
 48
50.0
100
AcDbCircle
 10
5772.491854839189
 20
3525.432240501248
 30
0.0
 40
0.3
100
AcDbArc
 50
284.1985598747557
 51
0.0000000001042204
  0
ARC
  5
2C4EF
330
747D
100
AcDbEntity
  8
細線
 48
50.0
100
AcDbCircle
 10
5772.491854839192
 20
3530.009632188584
 30
0.0
 40
0.3
100
AcDbArc
 50
0.0
 51
108.0305353930674
  0
ARC
  5
2C4F0
330
747D
100
AcDbEntity
  8
細線
 48
50.0
100
AcDbCircle
 10
5762.091854839194
 20
3530.009632188582
 30
0.0
 40
0.3
100
AcDbArc
 50
71.96946460693259
 51
180.0
  0
LINE
  5
2C4F1
330
747D
100
AcDbEntity
  8
細線
 48
50.0
100
AcDbLine
 10
5761.791854839191
 20
3525.432240501248
 30
0.0
 11
5761.791854839191
 21
3530.009632188582
 31
0.0
  0
LINE
  5
2C4F2
330
747D
100
AcDbEntity
  8
細線
 48
50.0
100
AcDbLine
 10
5772.791854839192
 20
3525.432240501248
 30
0.0
 11
5772.791854839192
 21
3530.009632188584
 31
0.0
  0
ARC
  5
2C4F3
330
747D
100
AcDbEntity
  8
細線
 48
50.0
100
AcDbCircle
 10
5767.291854839192
 20
3545.984612627054
 30
0.0
 40
16.5
100
AcDbArc
 50
251.9694646069326
 51
288.0305353930674
  0
ARC
  5
2C4F4
330
747D
100
AcDbEntity
  8
細線
 48
50.0
100
AcDbCircle
 10
5767.291854839192
 20
3545.984612627054
 30
0.0
 40
21.5
100
AcDbArc
 50
255.8014401250294
 51
284.1985598749706
  0
ARC
  5
2C4F5
330
747D
100
AcDbEntity
  8
細線
 48
50.0
100
AcDbCircle
 10
5778.291854839196
 20
3531.110137846413
 30
0.0
 40
1.0
100
AcDbArc
 50
126.4837370615282
 51
180.0
  0
ARC
  5
2C4F6
330
747D
100
AcDbEntity
  8
細線
 48
50.0
100
AcDbCircle
 10
5756.291854839192
 20
3531.11013784641
 30
0.0
 40
1.0
100
AcDbArc
 50
0.0
 51
53.51626293873231
  0
ARC
  5
2C4F7
330
747D
100
AcDbEntity
  8
細線
 48
50.0
100
AcDbCircle
 10
5758.291854839192
 20
3522.125652046173
 30
0.0
 40
1.0
100
AcDbArc
 50
180.0
 51
249.3326835066164
  0
ARC
  5
2C4F8
330
747D
100
AcDbEntity
  8
細線
 48
50.0
100
AcDbCircle
 10
5776.291854839184
 20
3522.125652046172
 30
0.0
 40
1.0
100
AcDbArc
 50
290.667316493597
 51
359.9999999998958
  0
ARC
  5
2C4F9
330
747D
100
AcDbEntity
  8
細線
 48
50.0
100
AcDbCircle
 10
5767.291854839192
 20
3545.984612627054
 30
0.0
 40
26.5
100
AcDbArc
 50
249.332683506403
 51
290.6673164933835
  0
LINE
  5
2C4FA
330
747D
100
AcDbEntity
  8
細線
 48
50.0
100
AcDbLine
 10
5757.291854839191
 20
3522.125652046173
 30
0.0
 11
5757.291854839191
 21
3531.11013784641
 31
0.0
  0
LINE
  5
2C4FB
330
747D
100
AcDbEntity
  8
細線
 48
50.0
100
AcDbLine
 10
5777.291854839188
 20
3522.125652046172
 30
0.0
 11
5777.291854839192
 21
3531.110137846413
 31
0.0
  0
ARC
  5
2C4FC
330
747D
100
AcDbEntity
  8
細線
 48
50.0
100
AcDbCircle
 10
5767.291854839192
 20
3545.984612627054
 30
0.0
 40
17.5
100
AcDbArc
 50
306.4837370612677
 51
233.5162629387323
  0
ARC
  5
2C4FD
330
747D
100
AcDbEntity
  8
細線
 48
50.0
100
AcDbCircle
 10
5767.291854839192
 20
3545.984612627054
 30
0.0
 40
4.0
100
AcDbArc
 50
111.2538091853132
 51
248.7461908146868
  0
CIRCLE
  5
2C4FE
330
747D
100
AcDbEntity
  8
部品1
 48
50.0
100
AcDbCircle
 10
5767.291854839192
 20
3545.984612627054
 30
0.0
 40
9.0
  0
LWPOLYLINE
  5
2C4FF
330
747D
100
AcDbEntity
  8
部品1
 48
50.0
100
AcDbPolyline
 90
        4
 70
     1
 43
0.0
 10
5765.841854839191
 20
3541.234612627054
 10
5768.741854839192
 20
3541.234612627054
 10
5768.741854839192
 20
3550.734612627054
 10
5765.841854839191
 20
3550.734612627054
  0
LINE
  5
2C500
330
747D
100
AcDbEntity
  8
部品1
 48
50.0
100
AcDbLine
 10
5740.791854839192
 20
3626.484612627054
 30
0.0
 11
5793.791854839192
 21
3626.484612627055
 31
0.0
  0
ENDSEC
  0
SECTION
  2
OBJECTS
  0
DICTIONARY
  5
7471
330
0
100
AcDbDictionary
281
     1
  3
ACAD_COLOR
350
159B0
  3
ACAD_GROUP
350
7472
  3
ACAD_LAYOUT
350
159B1
  3
ACAD_MATERIAL
350
159AF
  3
ACAD_MLINESTYLE
350
7473
  3
ACAD_PLOTSETTINGS
350
159B2
  3
ACAD_PLOTSTYLENAME
350
159AD
  3
ACDBHEADERROUNDTRIPXREC
350
2C510
  3
AcDbVariableDictionary
350
2C50C
  3
CONTENTDICTIONARY
350
E71C
  3
DRAWINGVARIABLESDICT
350
F3B9
  0
DICTIONARY
  5
1FFA9
330
7467
100
AcDbDictionary
280
     1
281
     1
  3
ACAD_LAYERSTATES
360
1FFAA
  0
DICTIONARY
  5
159B0
102
{ACAD_REACTORS
330
7471
102
}
330
7471
100
AcDbDictionary
281
     1
  0
DICTIONARY
  5
7472
102
{ACAD_REACTORS
330
7471
102
}
330
7471
100
AcDbDictionary
281
     1
  0
DICTIONARY
  5
159B1
102
{ACAD_REACTORS
330
7471
102
}
330
7471
100
AcDbDictionary
281
     1
  3
Model
350
159B3
  3
レイアウト1
350
159B4
  0
DICTIONARY
  5
159AF
102
{ACAD_REACTORS
330
7471
102
}
330
7471
100
AcDbDictionary
281
     1
  0
DICTIONARY
  5
7473
102
{ACAD_REACTORS
330
7471
102
}
330
7471
100
AcDbDictionary
281
     1
  3
STANDARD
350
7480
  0
DICTIONARY
  5
159B2
102
{ACAD_REACTORS
330
7471
102
}
330
7471
100
AcDbDictionary
281
     1
  0
ACDBDICTIONARYWDFLT
  5
159AD
102
{ACAD_REACTORS
330
7471
102
}
330
7471
100
AcDbDictionary
281
     1
  3
Normal
350
159AE
100
AcDbDictionaryWithDefault
340
159AE
  0
DICTIONARY
  5
2C510
102
{ACAD_REACTORS
330
7471
102
}
330
7471
100
AcDbDictionary
281
     1
  3
COLORDICT
350
2C512
  3
MATERIALDICT
350
2C511
  0
DICTIONARY
  5
2C50C
102
{ACAD_REACTORS
330
7471
102
}
330
7471
100
AcDbDictionary
281
     1
  3
DIMASSOC
350
2C50D
  3
PROJECTNAME
350
2C50E
  0
DICTIONARY
  5
E71C
102
{ACAD_REACTORS
330
7471
102
}
330
7471
100
AcDbDictionary
281
     1
  0
DICTIONARY
  5
F3B9
102
{ACAD_REACTORS
330
7471
102
}
330
7471
100
AcDbDictionary
281
     1
1001
DRAWINGVARIABLESXDATA
1000
POLARMODE
1000
1
  0
DICTIONARY
  5
1FFAA
102
{ACAD_REACTORS
330
1FFA9
102
}
330
1FFA9
100
AcDbDictionary
281
     1
  0
LAYOUT
  5
159B3
102
{ACAD_XDICTIONARY
360
2C513
102
}
102
{ACAD_REACTORS
330
159B1
102
}
330
159B1
100
AcDbPlotSettings
  1

  2
none_device
  4
Letter_(8.50_x_11.00_Inches)
  6

 40
6.349999904632568
 41
6.349999904632568
 42
6.350006103515625
 43
6.350006103515625
 44
215.8999938964844
 45
279.3999938964844
 46
0.0
 47
0.0
 48
0.0
 49
0.0
140
0.0
141
0.0
142
1.0
143
1.0
 70
 11952
 72
     1
 73
     1
 74
     0
  7

 75
     0
147
1.0
148
-4149.571981164617
149
65.56433826894044
100
AcDbLayout
  1
Model
 70
     1
 71
     0
 10
0.0
 20
0.0
 11
12.0
 21
9.0
 12
0.0
 22
0.0
 32
0.0
 14
0.0
 24
0.0
 34
0.0
 15
0.0
 25
0.0
 35
0.0
146
0.0
 13
0.0
 23
0.0
 33
0.0
 16
1.0
 26
0.0
 36
0.0
 17
0.0
 27
1.0
 37
0.0
 76
     0
330
747D
  0
LAYOUT
  5
159B4
102
{ACAD_XDICTIONARY
360
2C515
102
}
102
{ACAD_REACTORS
330
159B1
102
}
330
159B1
100
AcDbPlotSettings
  1

  2
自動 EPSON LP-8400FX (TATENO 上)
  4

  6

 40
0.0
 41
0.0
 42
0.0
 43
0.0
 44
0.0
 45
0.0
 46
0.0
 47
0.0
 48
0.0
 49
0.0
140
0.0
141
0.0
142
1.0
143
1.0
 70
   688
 72
     0
 73
     0
 74
     5
  7
inaba.ctb
 75
    16
147
1.0
148
0.0
149
0.0
100
AcDbLayout
  1
レイアウト1
 70
     0
 71
     1
 10
0.0
 20
0.0
 11
420.0
 21
297.0
 12
0.0
 22
0.0
 32
0.0
 14
1.000000000000000E+20
 24
1.000000000000000E+20
 34
1.000000000000000E+20
 15
-1.000000000000000E+20
 25
-1.000000000000000E+20
 35
-1.000000000000000E+20
146
0.0
 13
0.0
 23
0.0
 33
0.0
 16
1.0
 26
0.0
 36
0.0
 17
0.0
 27
1.0
 37
0.0
 76
     0
330
747A
  0
MLINESTYLE
  5
7480
102
{ACAD_REACTORS
330
7473
102
}
330
7473
100
AcDbMlineStyle
  2
STANDARD
 70
     0
  3

 62
     0
 51
90.0
 52
90.0
 71
     2
 49
0.5
 62
   256
  6
BYLAYER
 49
-0.5
 62
   256
  6
BYLAYER
  0
ACDBPLACEHOLDER
  5
159AE
102
{ACAD_REACTORS
330
159AD
102
}
330
159AD
  0
XRECORD
  5
2C512
102
{ACAD_REACTORS
330
2C510
102
}
330
2C510
100
AcDbXrecord
280
     1
340
159B0
  0
XRECORD
  5
2C511
102
{ACAD_REACTORS
330
2C510
102
}
330
2C510
100
AcDbXrecord
280
     1
340
159AF
  0
DICTIONARYVAR
  5
2C50D
102
{ACAD_REACTORS
330
2C50C
102
}
330
2C50C
100
DictionaryVariables
280
     0
  1
1
  0
DICTIONARYVAR
  5
2C50E
102
{ACAD_REACTORS
330
2C50C
102
}
330
2C50C
100
DictionaryVariables
280
     0
  1

  0
DICTIONARY
  5
2C513
330
159B3
100
AcDbDictionary
280
     1
281
     1
  3
ACAD_XREC_ROUNDTRIP
360
2C514
  0
DICTIONARY
  5
2C515
330
159B4
100
AcDbDictionary
280
     1
281
     1
  3
ACAD_XREC_ROUNDTRIP
360
2C516
  0
XRECORD
  5
2C514
102
{ACAD_REACTORS
330
2C513
102
}
330
2C513
100
AcDbXrecord
280
     1
102
SHADEPLOT
 70
     0
102
SHADEPLOTRESLEVEL
 70
     2
102
SHADEPLOTCUSTOMDPI
 70
   300
  0
XRECORD
  5
2C516
102
{ACAD_REACTORS
330
2C515
102
}
330
2C515
100
AcDbXrecord
280
     1
102
SHADEPLOT
 70
     0
102
SHADEPLOTRESLEVEL
 70
     2
102
SHADEPLOTCUSTOMDPI
 70
   300
  0
ENDSEC
  0
EOF
