  0
SECTION
  2
HEADER
  9
$ACADVER
  1
AC1015
  9
$ACADMAINTVER
 70
    20
  9
$DWGCODEPAGE
  3
ANSI_932
  9
$INSBASE
 10
0.0
 20
0.0
 30
0.0
  9
$EXTMIN
 10
139.196816621341
 20
-0.7250533989645192
 30
-0.0000000349181948
  9
$EXTMAX
 10
16308.32523385566
 20
11409.94112792278
 30
0.0000000814935746
  9
$LIMMIN
 10
0.0
 20
0.0
  9
$LIMMAX
 10
16800.0
 20
11880.0
  9
$ORTHOMODE
 70
     0
  9
$REGENMODE
 70
     1
  9
$FILLMODE
 70
     1
  9
$QTEXTMODE
 70
     0
  9
$MIRRTEXT
 70
     1
  9
$LTSCALE
 40
20.0
  9
$ATTMODE
 70
     1
  9
$TEXTSIZE
 40
4.0
  9
$TRACEWID
 40
1.0
  9
$TEXTSTYLE
  7
STYLE1
  9
$CLAYER
  8
部品1
  9
$CELTYPE
  6
BYLAYER
  9
$CECOLOR
 62
   256
  9
$CELTSCALE
 40
50.0
  9
$DISPSILH
 70
     0
  9
$DIMSCALE
 40
40.0
  9
$DIMASZ
 40
2.5
  9
$DIMEXO
 40
0.5
  9
$DIMDLI
 40
7.0
  9
$DIMRND
 40
0.0
  9
$DIMDLE
 40
0.0
  9
$DIMEXE
 40
1.5
  9
$DIMTP
 40
0.0
  9
$DIMTM
 40
0.0
  9
$DIMTXT
 40
3.0
  9
$DIMCEN
 40
0.0
  9
$DIMTSZ
 40
0.0
  9
$DIMTOL
 70
     0
  9
$DIMLIM
 70
     0
  9
$DIMTIH
 70
     0
  9
$DIMTOH
 70
     0
  9
$DIMSE1
 70
     0
  9
$DIMSE2
 70
     0
  9
$DIMTAD
 70
     3
  9
$DIMZIN
 70
     8
  9
$DIMBLK
  1

  9
$DIMASO
 70
     1
  9
$DIMSHO
 70
     1
  9
$DIMPOST
  1

  9
$DIMAPOST
  1

  9
$DIMALT
 70
     0
  9
$DIMALTD
 70
     2
  9
$DIMALTF
 40
0.0394
  9
$DIMLFAC
 40
1.0
  9
$DIMTOFL
 70
     1
  9
$DIMTVP
 40
0.0
  9
$DIMTIX
 70
     1
  9
$DIMSOXD
 70
     0
  9
$DIMSAH
 70
     1
  9
$DIMBLK1
  1
DOTSMALL
  9
$DIMBLK2
  1
DOTSMALL
  9
$DIMSTYLE
  2
INABA_S40G
  9
$DIMCLRD
 70
     0
  9
$DIMCLRE
 70
     0
  9
$DIMCLRT
 70
     7
  9
$DIMTFAC
 40
1.0
  9
$DIMGAP
 40
1.0
  9
$DIMJUST
 70
     0
  9
$DIMSD1
 70
     0
  9
$DIMSD2
 70
     0
  9
$DIMTOLJ
 70
     1
  9
$DIMTZIN
 70
     0
  9
$DIMALTZ
 70
     0
  9
$DIMALTTZ
 70
     0
  9
$DIMUPT
 70
     0
  9
$DIMDEC
 70
     1
  9
$DIMTDEC
 70
     4
  9
$DIMALTU
 70
     2
  9
$DIMALTTD
 70
     2
  9
$DIMTXSTY
  7
STYLE1
  9
$DIMAUNIT
 70
     0
  9
$DIMADEC
 70
     0
  9
$DIMALTRND
 40
0.0
  9
$DIMAZIN
 70
     0
  9
$DIMDSEP
 70
    46
  9
$DIMATFIT
 70
     3
  9
$DIMFRAC
 70
     0
  9
$DIMLDRBLK
  1

  9
$DIMLUNIT
 70
     2
  9
$DIMLWD
 70
    -2
  9
$DIMLWE
 70
    -2
  9
$DIMTMOVE
 70
     0
  9
$LUNITS
 70
     2
  9
$LUPREC
 70
     1
  9
$SKETCHINC
 40
1.0
  9
$FILLETRAD
 40
3.0
  9
$AUNITS
 70
     0
  9
$AUPREC
 70
     0
  9
$MENU
  1
acad
  9
$ELEVATION
 40
0.0
  9
$PELEVATION
 40
0.0
  9
$THICKNESS
 40
0.0
  9
$LIMCHECK
 70
     0
  9
$CHAMFERA
 40
0.0
  9
$CHAMFERB
 40
0.0
  9
$CHAMFERC
 40
0.0
  9
$CHAMFERD
 40
0.0
  9
$SKPOLY
 70
     0
  9
$TDCREATE
 40
2451368.612993866
  9
$TDUCREATE
 40
2451368.237993866
  9
$TDUPDATE
 40
2455552.712769456
  9
$TDUUPDATE
 40
2455552.337769456
  9
$TDINDWG
 40
0.7389407407
  9
$TDUSRTIMER
 40
0.7389407407
  9
$USRTIMER
 70
     1
  9
$ANGBASE
 50
0.0
  9
$ANGDIR
 70
     0
  9
$PDMODE
 70
     3
  9
$PDSIZE
 40
2.0
  9
$PLINEWID
 40
0.0
  9
$SPLFRAME
 70
     0
  9
$SPLINETYPE
 70
     6
  9
$SPLINESEGS
 70
     8
  9
$HANDSEED
  5
1A9DF
  9
$SURFTAB1
 70
     6
  9
$SURFTAB2
 70
     6
  9
$SURFTYPE
 70
     6
  9
$SURFU
 70
     6
  9
$SURFV
 70
     6
  9
$UCSBASE
  2

  9
$UCSNAME
  2

  9
$UCSORG
 10
0.0
 20
0.0
 30
0.0
  9
$UCSXDIR
 10
1.0
 20
0.0
 30
0.0
  9
$UCSYDIR
 10
0.0
 20
1.0
 30
0.0
  9
$UCSORTHOREF
  2

  9
$UCSORTHOVIEW
 70
     0
  9
$UCSORGTOP
 10
0.0
 20
0.0
 30
0.0
  9
$UCSORGBOTTOM
 10
0.0
 20
0.0
 30
0.0
  9
$UCSORGLEFT
 10
0.0
 20
0.0
 30
0.0
  9
$UCSORGRIGHT
 10
0.0
 20
0.0
 30
0.0
  9
$UCSORGFRONT
 10
0.0
 20
0.0
 30
0.0
  9
$UCSORGBACK
 10
0.0
 20
0.0
 30
0.0
  9
$PUCSBASE
  2

  9
$PUCSNAME
  2

  9
$PUCSORG
 10
0.0
 20
0.0
 30
0.0
  9
$PUCSXDIR
 10
1.0
 20
0.0
 30
0.0
  9
$PUCSYDIR
 10
0.0
 20
1.0
 30
0.0
  9
$PUCSORTHOREF
  2

  9
$PUCSORTHOVIEW
 70
     0
  9
$PUCSORGTOP
 10
0.0
 20
0.0
 30
0.0
  9
$PUCSORGBOTTOM
 10
0.0
 20
0.0
 30
0.0
  9
$PUCSORGLEFT
 10
0.0
 20
0.0
 30
0.0
  9
$PUCSORGRIGHT
 10
0.0
 20
0.0
 30
0.0
  9
$PUCSORGFRONT
 10
0.0
 20
0.0
 30
0.0
  9
$PUCSORGBACK
 10
0.0
 20
0.0
 30
0.0
  9
$USERI1
 70
     0
  9
$USERI2
 70
     0
  9
$USERI3
 70
     0
  9
$USERI4
 70
     0
  9
$USERI5
 70
     0
  9
$USERR1
 40
0.0
  9
$USERR2
 40
0.0
  9
$USERR3
 40
0.0
  9
$USERR4
 40
0.0
  9
$USERR5
 40
0.0
  9
$WORLDVIEW
 70
     1
  9
$SHADEDGE
 70
     3
  9
$SHADEDIF
 70
    70
  9
$TILEMODE
 70
     1
  9
$MAXACTVP
 70
    16
  9
$PINSBASE
 10
0.0
 20
0.0
 30
0.0
  9
$PLIMCHECK
 70
     0
  9
$PEXTMIN
 10
1.000000000000000E+20
 20
1.000000000000000E+20
 30
1.000000000000000E+20
  9
$PEXTMAX
 10
-1.000000000000000E+20
 20
-1.000000000000000E+20
 30
-1.000000000000000E+20
  9
$PLIMMIN
 10
0.0
 20
0.0
  9
$PLIMMAX
 10
420.0
 20
297.0
  9
$UNITMODE
 70
     0
  9
$VISRETAIN
 70
     0
  9
$PLINEGEN
 70
     0
  9
$PSLTSCALE
 70
     0
  9
$TREEDEPTH
 70
  3020
  9
$CMLSTYLE
  2
STANDARD
  9
$CMLJUST
 70
     0
  9
$CMLSCALE
 40
1.0
  9
$PROXYGRAPHICS
 70
     1
  9
$MEASUREMENT
 70
     1
  9
$CELWEIGHT
370
    -1
  9
$ENDCAPS
280
     0
  9
$JOINSTYLE
280
     0
  9
$LWDISPLAY
290
     0
  9
$INSUNITS
 70
     0
  9
$HYPERLINKBASE
  1

  9
$STYLESHEET
  1

  9
$XEDIT
290
     1
  9
$CEPSNTYPE
380
     0
  9
$PSTYLEMODE
290
     1
  9
$FINGERPRINTGUID
  2
{B7778F7F-2B04-488C-B7D3-C5983C864380}
  9
$VERSIONGUID
  2
{6397DC92-9338-4E92-AD1D-CA9168941B4B}
  9
$EXTNAMES
290
     1
  9
$PSVPSCALE
 40
0.0
  9
$OLESTARTUP
290
     0
  0
ENDSEC
  0
SECTION
  2
CLASSES
  0
CLASS
  1
ACDBDICTIONARYWDFLT
  2
AcDbDictionaryWithDefault
  3
ObjectDBX Classes
 90
        0
280
     0
281
     0
  0
CLASS
  1
DICTIONARYVAR
  2
AcDbDictionaryVar
  3
ObjectDBX Classes
 90
        0
280
     0
281
     0
  0
CLASS
  1
ACDBPLACEHOLDER
  2
AcDbPlaceHolder
  3
ObjectDBX Classes
 90
        0
280
     0
281
     0
  0
CLASS
  1
LAYOUT
  2
AcDbLayout
  3
ObjectDBX Classes
 90
        0
280
     0
281
     0
  0
ENDSEC
  0
SECTION
  2
TABLES
  0
TABLE
  2
VPORT
  5
746D
330
0
100
AcDbSymbolTable
 70
     2
  0
VPORT
  5
1A9D7
330
746D
100
AcDbSymbolTableRecord
100
AcDbViewportTableRecord
  2
*Active
 70
     0
 10
0.0
 20
0.0
 11
1.0
 21
1.0
 12
8223.7610252385
 22
5704.608037261909
 13
0.0
 23
0.0
 14
10.0
 24
10.0
 15
10.0
 25
10.0
 16
0.0
 26
0.0
 36
1.0
 17
0.0
 27
0.0
 37
0.0
 40
11496.13933623801
 41
1.507499999999999
 42
50.0
 43
0.0
 44
0.0
 50
0.0
 51
0.0
 71
     0
 72
     0
 73
     1
 74
     0
 75
     0
 76
     0
 77
     0
 78
     0
281
     0
 65
     1
110
0.0
120
0.0
130
0.0
111
1.0
121
0.0
131
0.0
112
0.0
122
1.0
132
0.0
 79
     0
146
0.0
  0
ENDTAB
  0
TABLE
  2
LTYPE
  5
746A
330
0
100
AcDbSymbolTable
 70
     3
  0
LTYPE
  5
7477
330
746A
100
AcDbSymbolTableRecord
100
AcDbLinetypeTableRecord
  2
BYBLOCK
 70
     0
  3

 72
    65
 73
     0
 40
0.0
  0
LTYPE
  5
7478
330
746A
100
AcDbSymbolTableRecord
100
AcDbLinetypeTableRecord
  2
BYLAYER
 70
     0
  3

 72
    65
 73
     0
 40
0.0
  0
LTYPE
  5
7479
330
746A
100
AcDbSymbolTableRecord
100
AcDbLinetypeTableRecord
  2
CONTINUOUS
 70
     0
  3
Solid line
 72
    65
 73
     0
 40
0.0
  0
LTYPE
  5
781A
330
746A
100
AcDbSymbolTableRecord
100
AcDbLinetypeTableRecord
  2
HIDDEN
 70
     0
  3
__ __ __ __ __ __ __ __ __ __ __ __ __ __ __ __
 72
    65
 73
     2
 40
0.375
 49
0.25
 74
     0
 49
-0.125
 74
     0
  0
LTYPE
  5
781B
330
746A
100
AcDbSymbolTableRecord
100
AcDbLinetypeTableRecord
  2
PHANTOM
 70
     0
  3
______  __  __  ______  __  __  ______  __  __ 
 72
    65
 73
     6
 40
2.5
 49
1.25
 74
     0
 49
-0.25
 74
     0
 49
0.25
 74
     0
 49
-0.25
 74
     0
 49
0.25
 74
     0
 49
-0.25
 74
     0
  0
ENDTAB
  0
TABLE
  2
LAYER
  5
7467
102
{ACAD_XDICTIONARY
360
16B21
102
}
330
0
100
AcDbSymbolTable
 70
    11
  0
LAYER
  5
7474
330
7467
100
AcDbSymbolTableRecord
100
AcDbLayerTableRecord
  2
0
 70
     0
 62
     7
  6
CONTINUOUS
370
    -3
390
1684E
  0
LAYER
  5
DEB3
330
7467
100
AcDbSymbolTableRecord
100
AcDbLayerTableRecord
  2
寸法
 70
     0
 62
     4
  6
CONTINUOUS
370
    -3
390
1684E
  0
LAYER
  5
DEB4
330
7467
100
AcDbSymbolTableRecord
100
AcDbLayerTableRecord
  2
部品1
 70
     0
 62
     7
  6
CONTINUOUS
370
    -3
390
1684E
  0
LAYER
  5
DEB5
330
7467
100
AcDbSymbolTableRecord
100
AcDbLayerTableRecord
  2
補助
 70
     0
 62
    -1
  6
CONTINUOUS
370
    -3
390
1684E
  0
LAYER
  5
DEB6
330
7467
100
AcDbSymbolTableRecord
100
AcDbLayerTableRecord
  2
文字
 70
     0
 62
     7
  6
CONTINUOUS
370
    -3
390
1684E
  0
LAYER
  5
F255
330
7467
100
AcDbSymbolTableRecord
100
AcDbLayerTableRecord
  2
DEFPOINTS
 70
     0
 62
     7
  6
CONTINUOUS
290
     0
370
    -3
390
1684E
  0
LAYER
  5
10B54
330
7467
100
AcDbSymbolTableRecord
100
AcDbLayerTableRecord
  2
仕様書枠
 70
     0
 62
   230
  6
CONTINUOUS
370
    -3
390
1684E
  0
LAYER
  5
11729
330
7467
100
AcDbSymbolTableRecord
100
AcDbLayerTableRecord
  2
Ｇ．Ｌ
 70
     0
 62
    30
  6
CONTINUOUS
370
    -3
390
1684E
  0
LAYER
  5
1173F
330
7467
100
AcDbSymbolTableRecord
100
AcDbLayerTableRecord
  2
細線
 70
     0
 62
     5
  6
CONTINUOUS
370
    -3
390
1684E
  0
LAYER
  5
142E2
330
7467
100
AcDbSymbolTableRecord
100
AcDbLayerTableRecord
  2
破線
 70
     0
 62
     2
  6
HIDDEN
370
    -3
390
1684E
  0
LAYER
  5
1847C
330
7467
100
AcDbSymbolTableRecord
100
AcDbLayerTableRecord
  2
想像線
 70
     0
 62
     6
  6
PHANTOM
370
    -3
390
1684E
  0
ENDTAB
  0
TABLE
  2
STYLE
  5
7468
330
0
100
AcDbSymbolTable
 70
     8
  0
STYLE
  5
7475
330
7468
100
AcDbSymbolTableRecord
100
AcDbTextStyleTableRecord
  2
STANDARD
 70
     0
 40
0.0
 41
1.0
 50
0.0
 71
     0
 42
4.0
  3
txt
  4
C:\AutoCAD LT\bigfont.shx
  0
STYLE
  5
763C
330
7468
100
AcDbSymbolTableRecord
100
AcDbTextStyleTableRecord
  2
MSMINCHO
 70
     0
 40
0.0
 41
1.0
 50
0.0
 71
     0
 42
1.199999999999999
  3
C:\AutoCAD LT\msminch2.TTF
  4

  0
STYLE
  5
F706
330
7468
100
AcDbSymbolTableRecord
100
AcDbTextStyleTableRecord
  2
STYLE1
 70
     0
 40
0.0
 41
1.0
 50
0.0
 71
     0
 42
4.0
  3
isocp.shx
  4
bigfont.shx
  0
STYLE
  5
103BF
330
7468
100
AcDbSymbolTableRecord
100
AcDbTextStyleTableRecord
  2
STYLE2
 70
     0
 40
0.0
 41
1.0
 50
0.0
 71
     0
 42
100.0
  3
MS PGothic.ttf
  4

1001
ACAD
1000
MS PGothic
1071
    32818
  0
STYLE
  5
10BAA
330
7468
100
AcDbSymbolTableRecord
100
AcDbTextStyleTableRecord
  2
STYLE3
 70
     0
 40
0.0
 41
1.0
 50
0.0
 71
     0
 42
100.0
  3
DFPGothic-EB.ttf
  4

1001
ACAD
1000
DFPGothic-EB
1071
    32818
  0
STYLE
  5
11A15
330
7468
100
AcDbSymbolTableRecord
100
AcDbTextStyleTableRecord
  2
MSGOTHIC
 70
     0
 40
0.0
 41
1.0
 50
0.0
 71
     0
 42
3.5
  3
msgothi2.ttf
  4

  0
STYLE
  5
1847D
330
7468
100
AcDbSymbolTableRecord
100
AcDbTextStyleTableRecord
  2
MSPゴシック
 70
     0
 40
0.0
 41
1.0
 50
0.0
 71
     0
 42
4.0
  3
MS PGothic.ttf
  4

1001
ACAD
1000
MS PGothic
1071
    32818
  0
STYLE
  5
190B9
330
7468
100
AcDbSymbolTableRecord
100
AcDbTextStyleTableRecord
  2
丸ゴシック
 70
     0
 40
0.0
 41
1.0
 50
0.0
 71
     0
 42
150.0
  3
HGRSMP.TTF
  4

1001
ACAD
1000
HG丸ｺﾞｼｯｸM-PRO
1071
    32818
  0
ENDTAB
  0
TABLE
  2
VIEW
  5
746B
330
0
100
AcDbSymbolTable
 70
     0
  0
ENDTAB
  0
TABLE
  2
UCS
  5
746C
330
0
100
AcDbSymbolTable
 70
     0
  0
ENDTAB
  0
TABLE
  2
APPID
  5
746E
330
0
100
AcDbSymbolTable
 70
     6
  0
APPID
  5
7476
330
746E
100
AcDbSymbolTableRecord
100
AcDbRegAppTableRecord
  2
ACAD
 70
     0
  0
APPID
  5
DEA9
330
746E
100
AcDbSymbolTableRecord
100
AcDbRegAppTableRecord
  2
CONTENTBLOCKICON
 70
     0
  0
APPID
  5
DEAA
330
746E
100
AcDbSymbolTableRecord
100
AcDbRegAppTableRecord
  2
CONTENTBLOCKDESCRIPTION
 70
     0
  0
APPID
  5
E71D
330
746E
100
AcDbSymbolTableRecord
100
AcDbRegAppTableRecord
  2
CONTENTTABDATA
 70
     0
  0
APPID
  5
E71E
330
746E
100
AcDbSymbolTableRecord
100
AcDbRegAppTableRecord
  2
CONTENTCURRENTTAB
 70
     0
  0
APPID
  5
F3BA
330
746E
100
AcDbSymbolTableRecord
100
AcDbRegAppTableRecord
  2
DRAWINGVARIABLESXDATA
 70
     0
  0
ENDTAB
  0
TABLE
  2
DIMSTYLE
  5
746F
330
0
100
AcDbSymbolTable
 70
     1
100
AcDbDimStyleTable
 71
     1
340
F71F
  0
DIMSTYLE
105
F71F
102
{ACAD_REACTORS
330
14E59
330
14E5A
330
14E5B
330
14E5C
330
14E5D
330
14E87
330
14ED1
330
16D6C
330
16D6D
330
16D6E
330
16D6F
330
1766C
330
1767B
330
176A4
330
176A5
330
176A6
330
176AC
330
176DE
330
176DF
330
176E0
330
17EAC
330
17EAD
330
17EAE
330
19ACF
330
19AD6
330
19AC7
330
1A5EF
330
1A5EE
330
1A5ED
330
1A5EC
330
1A5EB
330
1A5EA
102
}
330
746F
100
AcDbSymbolTableRecord
100
AcDbDimStyleTableRecord
  2
INABA_S40G
 70
     0
 40
40.0
 41
2.5
 42
0.5
 43
7.0
 44
1.5
 73
     0
 74
     0
 77
     3
 78
     8
140
3.0
141
0.0
143
0.0394
147
1.0
172
     1
173
     1
174
     1
178
     7
271
     1
340
F706
341
F770
343
F770
344
F770
  0
ENDTAB
  0
TABLE
  2
BLOCK_RECORD
  5
7466
330
0
100
AcDbSymbolTable
 70
    35
  0
BLOCK_RECORD
  5
747D
330
7466
100
AcDbSymbolTableRecord
100
AcDbBlockTableRecord
  2
*MODEL_SPACE
340
16853
  0
BLOCK_RECORD
  5
747A
330
7466
100
AcDbSymbolTableRecord
100
AcDbBlockTableRecord
  2
*PAPER_SPACE
340
16854
  0
BLOCK_RECORD
  5
F770
330
7466
100
AcDbSymbolTableRecord
100
AcDbBlockTableRecord
  2
_DOTSMALL
340
0
102
{BLKREFS
331
17BD2
331
17BD3
331
17BDB
331
17BDC
331
17BE4
331
17BE5
331
17BED
331
17BEE
331
17C02
331
17C03
331
17C0B
331
17C0C
331
17C16
331
17C17
331
17C1F
331
17C20
331
17C29
331
17C2A
331
17C33
331
17C34
331
17C3F
331
17C40
331
17C48
331
17C49
331
17C53
331
17C54
331
17C5C
331
17C5D
331
17C83
331
17C84
331
17CC0
331
17CC1
331
17CCB
331
17CCC
331
17CDF
331
17CE0
331
17CEA
331
17CEB
331
17CF5
331
17CF6
331
17CFE
331
17CFF
331
17D07
331
17D08
331
19B2C
331
19B2D
331
19B3E
331
19B3F
331
19DBD
331
19DBE
331
1A646
331
1A647
331
1A652
331
1A653
331
1A659
331
1A65A
331
1A665
331
1A666
331
1A66F
331
1A670
331
1A678
331
1A679
331
1A69A
331
1A69B
331
1A9BD
331
1A9BE
331
1A9C6
331
1A9C7
102
}
  0
BLOCK_RECORD
  5
14EE4
330
7466
100
AcDbSymbolTableRecord
100
AcDbBlockTableRecord
  2
*D1
340
0
  0
BLOCK_RECORD
  5
14EF0
330
7466
100
AcDbSymbolTableRecord
100
AcDbBlockTableRecord
  2
*D2
340
0
  0
BLOCK_RECORD
  5
14EFC
330
7466
100
AcDbSymbolTableRecord
100
AcDbBlockTableRecord
  2
*D3
340
0
  0
BLOCK_RECORD
  5
14F0A
330
7466
100
AcDbSymbolTableRecord
100
AcDbBlockTableRecord
  2
*D4
340
0
  0
BLOCK_RECORD
  5
14F18
330
7466
100
AcDbSymbolTableRecord
100
AcDbBlockTableRecord
  2
*D5
340
0
  0
BLOCK_RECORD
  5
14F4A
330
7466
100
AcDbSymbolTableRecord
100
AcDbBlockTableRecord
  2
*D6
340
0
  0
BLOCK_RECORD
  5
14F70
330
7466
100
AcDbSymbolTableRecord
100
AcDbBlockTableRecord
  2
*D7
340
0
  0
BLOCK_RECORD
  5
16F21
330
7466
100
AcDbSymbolTableRecord
100
AcDbBlockTableRecord
  2
*D9
340
0
  0
BLOCK_RECORD
  5
16F2D
330
7466
100
AcDbSymbolTableRecord
100
AcDbBlockTableRecord
  2
*D10
340
0
  0
BLOCK_RECORD
  5
16F3B
330
7466
100
AcDbSymbolTableRecord
100
AcDbBlockTableRecord
  2
*D11
340
0
  0
BLOCK_RECORD
  5
16F47
330
7466
100
AcDbSymbolTableRecord
100
AcDbBlockTableRecord
  2
*D12
340
0
  0
BLOCK_RECORD
  5
1792E
330
7466
100
AcDbSymbolTableRecord
100
AcDbBlockTableRecord
  2
*D13
340
0
  0
BLOCK_RECORD
  5
1793B
330
7466
100
AcDbSymbolTableRecord
100
AcDbBlockTableRecord
  2
*D14
340
0
  0
BLOCK_RECORD
  5
17948
330
7466
100
AcDbSymbolTableRecord
100
AcDbBlockTableRecord
  2
*D15
340
0
  0
BLOCK_RECORD
  5
17954
330
7466
100
AcDbSymbolTableRecord
100
AcDbBlockTableRecord
  2
*D16
340
0
  0
BLOCK_RECORD
  5
17962
330
7466
100
AcDbSymbolTableRecord
100
AcDbBlockTableRecord
  2
*D17
340
0
  0
BLOCK_RECORD
  5
1796E
330
7466
100
AcDbSymbolTableRecord
100
AcDbBlockTableRecord
  2
*D18
340
0
  0
BLOCK_RECORD
  5
17989
330
7466
100
AcDbSymbolTableRecord
100
AcDbBlockTableRecord
  2
*D19
340
0
  0
BLOCK_RECORD
  5
17995
330
7466
100
AcDbSymbolTableRecord
100
AcDbBlockTableRecord
  2
*D20
340
0
  0
BLOCK_RECORD
  5
179A1
330
7466
100
AcDbSymbolTableRecord
100
AcDbBlockTableRecord
  2
*D21
340
0
  0
BLOCK_RECORD
  5
17F21
330
7466
100
AcDbSymbolTableRecord
100
AcDbBlockTableRecord
  2
*D23
340
0
  0
BLOCK_RECORD
  5
17F2E
330
7466
100
AcDbSymbolTableRecord
100
AcDbBlockTableRecord
  2
*D24
340
0
  0
BLOCK_RECORD
  5
17F3C
330
7466
100
AcDbSymbolTableRecord
100
AcDbBlockTableRecord
  2
*D25
340
0
  0
BLOCK_RECORD
  5
19B05
330
7466
100
AcDbSymbolTableRecord
100
AcDbBlockTableRecord
  2
*D26
340
0
  0
BLOCK_RECORD
  5
19B11
330
7466
100
AcDbSymbolTableRecord
100
AcDbBlockTableRecord
  2
*D27
340
0
  0
BLOCK_RECORD
  5
19B1D
330
7466
100
AcDbSymbolTableRecord
100
AcDbBlockTableRecord
  2
*D28
340
0
  0
BLOCK_RECORD
  5
1A5F2
330
7466
100
AcDbSymbolTableRecord
100
AcDbBlockTableRecord
  2
*D29
340
0
  0
BLOCK_RECORD
  5
1A600
330
7466
100
AcDbSymbolTableRecord
100
AcDbBlockTableRecord
  2
*D30
340
0
  0
BLOCK_RECORD
  5
1A60E
330
7466
100
AcDbSymbolTableRecord
100
AcDbBlockTableRecord
  2
*D31
340
0
  0
BLOCK_RECORD
  5
1A619
330
7466
100
AcDbSymbolTableRecord
100
AcDbBlockTableRecord
  2
*D32
340
0
  0
BLOCK_RECORD
  5
1A627
330
7466
100
AcDbSymbolTableRecord
100
AcDbBlockTableRecord
  2
*D33
340
0
  0
BLOCK_RECORD
  5
1A635
330
7466
100
AcDbSymbolTableRecord
100
AcDbBlockTableRecord
  2
*D34
340
0
  0
ENDTAB
  0
ENDSEC
  0
SECTION
  2
BLOCKS
  0
BLOCK
  5
7489
330
747D
100
AcDbEntity
  8
0
100
AcDbBlockBegin
  2
*MODEL_SPACE
 70
     0
 10
0.0
 20
0.0
 30
0.0
  3
*MODEL_SPACE
  1

  0
ENDBLK
  5
748A
330
747D
100
AcDbEntity
  8
0
100
AcDbBlockEnd
  0
BLOCK
  5
7487
330
747A
100
AcDbEntity
 67
     1
  8
0
100
AcDbBlockBegin
  2
*PAPER_SPACE
 70
     0
 10
0.0
 20
0.0
 30
0.0
  3
*PAPER_SPACE
  1

  0
ENDBLK
  5
7488
330
747A
100
AcDbEntity
 67
     1
  8
0
100
AcDbBlockEnd
  0
BLOCK
  5
F771
330
F770
100
AcDbEntity
  8
0
 48
50.0
100
AcDbBlockBegin
  2
_DOTSMALL
 70
     0
 10
0.0
 20
0.0
 30
0.0
  3
_DOTSMALL
  1

  0
LWPOLYLINE
  5
F772
330
F770
100
AcDbEntity
  8
0
  6
ByBlock
 62
     0
 48
50.0
100
AcDbPolyline
 90
        2
 70
     1
 43
0.5
 10
-0.0625
 20
0.0
 42
1.0
 10
0.0625
 20
0.0
 42
1.0
  0
ENDBLK
  5
F776
330
F770
100
AcDbEntity
  8
0
 48
50.0
100
AcDbBlockEnd
  0
BLOCK
  5
162F0
330
14EE4
100
AcDbEntity
  8
0
 48
50.0
100
AcDbBlockBegin
  2
*D1
 70
     1
 10
0.0
 20
0.0
 30
0.0
  3
*D1
  1

  0
LINE
  5
17D04
330
14EE4
100
AcDbEntity
  8
寸法
 62
     0
 48
50.0
370
    -2
100
AcDbLine
 10
6808.669036246692
 20
10032.49742454596
 30
0.0
 11
7861.202323720738
 21
10032.49742454596
 31
0.0
  0
LINE
  5
17D05
330
14EE4
100
AcDbEntity
  8
寸法
 62
     0
 48
50.0
370
    -2
100
AcDbLine
 10
6808.669036246667
 20
6982.497424545956
 30
0.0
 11
7861.202323720738
 21
6982.497424545956
 31
0.0
  0
LINE
  5
17D06
330
14EE4
100
AcDbEntity
  8
寸法
 62
     0
 48
50.0
370
    -2
100
AcDbLine
 10
7801.202323720737
 20
10032.49742454596
 30
0.0
 11
7801.202323720737
 21
6982.497424545956
 31
0.0
  0
INSERT
  5
17D07
330
14EE4
100
AcDbEntity
  8
寸法
 62
     0
 48
50.0
370
    -2
100
AcDbBlockReference
  2
_DOTSMALL
 10
7801.202323720737
 20
10032.49742454596
 30
0.0
 41
100.0
 42
100.0
 43
100.0
 50
90.0
  0
INSERT
  5
17D08
330
14EE4
100
AcDbEntity
  8
寸法
 62
     0
 48
50.0
370
    -2
100
AcDbBlockReference
  2
_DOTSMALL
 10
7801.202323720737
 20
6982.497424545956
 30
0.0
 41
100.0
 42
100.0
 43
100.0
 50
270.0
  0
MTEXT
  5
17D09
330
14EE4
100
AcDbEntity
  8
寸法
 62
     7
 48
50.0
100
AcDbMText
 10
7701.202323720737
 20
8507.497424545961
 30
0.0
 40
120.0
 41
0.0
 71
     5
 72
     1
  1
\A1;3050
  7
STYLE1
 11
0.0000000000000001
 21
1.0
 31
0.0
 73
     1
 44
1.0
1001
ACAD
1000
MTEXTBEGIN
1070
    73
1070
     1
1070
    44
1040
1.0
1070
    74
1070
     0
1000
MTEXTEND
  0
POINT
  5
17D0A
330
14EE4
100
AcDbEntity
  8
DEFPOINTS
 62
     0
 48
50.0
100
AcDbPoint
 10
6788.669036246692
 20
10032.49742454596
 30
0.0
  0
POINT
  5
17D0B
330
14EE4
100
AcDbEntity
  8
DEFPOINTS
 62
     0
 48
50.0
100
AcDbPoint
 10
6788.669036246666
 20
6982.497424545956
 30
0.0
  0
POINT
  5
17D0C
330
14EE4
100
AcDbEntity
  8
DEFPOINTS
 62
     0
 48
50.0
100
AcDbPoint
 10
7801.202323720737
 20
6982.497424545956
 30
0.0
  0
ENDBLK
  5
162FA
330
14EE4
100
AcDbEntity
  8
0
 48
50.0
100
AcDbBlockEnd
  0
BLOCK
  5
1613E
330
14EF0
100
AcDbEntity
  8
0
 48
50.0
100
AcDbBlockBegin
  2
*D2
 70
     1
 10
0.0
 20
0.0
 30
0.0
  3
*D2
  1

  0
LINE
  5
17CFB
330
14EF0
100
AcDbEntity
  8
寸法
 62
     0
 48
50.0
370
    -2
100
AcDbLine
 10
4213.669036246691
 20
10052.49742454587
 30
0.0
 11
4213.669036246691
 21
10308.30564417096
 31
0.0
  0
LINE
  5
17CFC
330
14EF0
100
AcDbEntity
  8
寸法
 62
     0
 48
50.0
370
    -2
100
AcDbLine
 10
6733.669036246692
 20
10052.49742454596
 30
0.0
 11
6733.669036246692
 21
10308.30564417096
 31
0.0
  0
LINE
  5
17CFD
330
14EF0
100
AcDbEntity
  8
寸法
 62
     0
 48
50.0
370
    -2
100
AcDbLine
 10
4213.669036246691
 20
10248.30564417096
 30
0.0
 11
6733.669036246692
 21
10248.30564417096
 31
0.0
  0
INSERT
  5
17CFE
330
14EF0
100
AcDbEntity
  8
寸法
 62
     0
 48
50.0
370
    -2
100
AcDbBlockReference
  2
_DOTSMALL
 10
4213.669036246691
 20
10248.30564417096
 30
0.0
 41
100.0
 42
100.0
 43
100.0
 50
180.0
  0
INSERT
  5
17CFF
330
14EF0
100
AcDbEntity
  8
寸法
 62
     0
 48
50.0
370
    -2
100
AcDbBlockReference
  2
_DOTSMALL
 10
6733.669036246692
 20
10248.30564417096
 30
0.0
 41
100.0
 42
100.0
 43
100.0
  0
MTEXT
  5
17D00
330
14EF0
100
AcDbEntity
  8
寸法
 62
     7
 48
50.0
100
AcDbMText
 10
5473.669036246692
 20
10348.31745519459
 30
0.0
 40
120.0
 41
0.0
 71
     5
 72
     1
  1
\A1;6X420=2520
  7
STYLE1
 73
     1
 44
1.0
1001
ACAD
1000
MTEXTBEGIN
1070
    73
1070
     1
1070
    44
1040
1.0
1070
    74
1070
     0
1000
MTEXTEND
  0
POINT
  5
17D01
330
14EF0
100
AcDbEntity
  8
DEFPOINTS
 62
     0
 48
50.0
100
AcDbPoint
 10
4213.669036246691
 20
10032.49742454587
 30
0.0
  0
POINT
  5
17D02
330
14EF0
100
AcDbEntity
  8
DEFPOINTS
 62
     0
 48
50.0
100
AcDbPoint
 10
6733.669036246692
 20
10032.49742454596
 30
0.0
  0
POINT
  5
17D03
330
14EF0
100
AcDbEntity
  8
DEFPOINTS
 62
     0
 48
50.0
100
AcDbPoint
 10
6733.669036246692
 20
10248.30564417096
 30
0.0
  0
ENDBLK
  5
16148
330
14EF0
100
AcDbEntity
  8
0
 48
50.0
100
AcDbBlockEnd
  0
BLOCK
  5
1528E
330
14EFC
100
AcDbEntity
  8
0
 48
50.0
100
AcDbBlockBegin
  2
*D3
 70
     1
 10
0.0
 20
0.0
 30
0.0
  3
*D3
  1

  0
LINE
  5
17CF0
330
14EFC
100
AcDbEntity
  8
寸法
 62
     0
 48
50.0
370
    -2
100
AcDbLine
 10
6733.669036246692
 20
10052.49742454596
 30
0.0
 11
6733.669036246692
 21
10308.30564417095
 31
0.0
  0
LINE
  5
17CF1
330
14EFC
100
AcDbEntity
  8
寸法
 62
     0
 48
50.0
370
    -2
100
AcDbLine
 10
6788.669036246692
 20
10052.49742454596
 30
0.0
 11
6788.669036246692
 21
10308.30564417095
 31
0.0
  0
LINE
  5
17CF2
330
14EFC
100
AcDbEntity
  8
寸法
 62
     0
 48
50.0
370
    -2
100
AcDbLine
 10
6733.669036246692
 20
10248.30564417095
 30
0.0
 11
6633.669036246693
 21
10248.30564417095
 31
0.0
  0
LINE
  5
17CF3
330
14EFC
100
AcDbEntity
  8
寸法
 62
     0
 48
50.0
370
    -2
100
AcDbLine
 10
6788.669036246692
 20
10248.30564417095
 30
0.0
 11
7205.639598995169
 21
10248.30564417095
 31
0.0
  0
LINE
  5
17CF4
330
14EFC
100
AcDbEntity
  8
寸法
 62
     0
 48
50.0
370
    -2
100
AcDbLine
 10
6733.669036246692
 20
10248.30564417095
 30
0.0
 11
6788.669036246692
 21
10248.30564417095
 31
0.0
  0
INSERT
  5
17CF5
330
14EFC
100
AcDbEntity
  8
寸法
 62
     0
 48
50.0
370
    -2
100
AcDbBlockReference
  2
_DOTSMALL
 10
6733.669036246692
 20
10248.30564417095
 30
0.0
 41
100.0
 42
100.0
 43
100.0
  0
INSERT
  5
17CF6
330
14EFC
100
AcDbEntity
  8
寸法
 62
     0
 48
50.0
370
    -2
100
AcDbBlockReference
  2
_DOTSMALL
 10
6788.669036246692
 20
10248.30564417095
 30
0.0
 41
100.0
 42
100.0
 43
100.0
 50
180.0
  0
MTEXT
  5
17CF7
330
14EFC
100
AcDbEntity
  8
寸法
 62
     7
 48
50.0
100
AcDbMText
 10
7097.154317620931
 20
10348.30564417095
 30
0.0
 40
120.0
 41
0.0
 71
     5
 72
     1
  1
\A1;55
  7
STYLE1
 73
     1
 44
1.0
1001
ACAD
1000
MTEXTBEGIN
1070
    73
1070
     1
1070
    44
1040
1.0
1070
    74
1070
     0
1000
MTEXTEND
  0
POINT
  5
17CF8
330
14EFC
100
AcDbEntity
  8
DEFPOINTS
 62
     0
 48
50.0
100
AcDbPoint
 10
6733.669036246692
 20
10032.49742454596
 30
0.0
  0
POINT
  5
17CF9
330
14EFC
100
AcDbEntity
  8
DEFPOINTS
 62
     0
 48
50.0
100
AcDbPoint
 10
6788.669036246692
 20
10032.49742454596
 30
0.0
  0
POINT
  5
17CFA
330
14EFC
100
AcDbEntity
  8
DEFPOINTS
 62
     0
 48
50.0
100
AcDbPoint
 10
6788.669036246692
 20
10248.30564417095
 30
0.0
  0
ENDBLK
  5
1529A
330
14EFC
100
AcDbEntity
  8
0
 48
50.0
100
AcDbBlockEnd
  0
BLOCK
  5
1529B
330
14F0A
100
AcDbEntity
  8
0
 48
50.0
100
AcDbBlockBegin
  2
*D4
 70
     1
 10
0.0
 20
0.0
 30
0.0
  3
*D4
  1

  0
LINE
  5
17CE5
330
14F0A
100
AcDbEntity
  8
寸法
 62
     0
 48
50.0
370
    -2
100
AcDbLine
 10
6808.669036246692
 20
10032.49742454596
 30
0.0
 11
7496.095381981103
 21
10032.49742454596
 31
0.0
  0
LINE
  5
17CE6
330
14F0A
100
AcDbEntity
  8
寸法
 62
     0
 48
50.0
370
    -2
100
AcDbLine
 10
6808.669036246692
 20
9977.497424545967
 30
0.0
 11
7496.095381981103
 21
9977.497424545967
 31
0.0
  0
LINE
  5
17CE7
330
14F0A
100
AcDbEntity
  8
寸法
 62
     0
 48
50.0
370
    -2
100
AcDbLine
 10
7436.095381981103
 20
9977.497424545967
 30
0.0
 11
7436.095381981103
 21
9877.497424545968
 31
0.0
  0
LINE
  5
17CE8
330
14F0A
100
AcDbEntity
  8
寸法
 62
     0
 48
50.0
370
    -2
100
AcDbLine
 10
7436.095381981103
 20
10032.49742454596
 30
0.0
 11
7436.095381981104
 21
10449.46798729444
 31
0.0
  0
LINE
  5
17CE9
330
14F0A
100
AcDbEntity
  8
寸法
 62
     0
 48
50.0
370
    -2
100
AcDbLine
 10
7436.095381981103
 20
9977.497424545967
 30
0.0
 11
7436.095381981103
 21
10032.49742454596
 31
0.0
  0
INSERT
  5
17CEA
330
14F0A
100
AcDbEntity
  8
寸法
 62
     0
 48
50.0
370
    -2
100
AcDbBlockReference
  2
_DOTSMALL
 10
7436.095381981103
 20
9977.497424545967
 30
0.0
 41
100.0
 42
100.0
 43
100.0
 50
90.0
  0
INSERT
  5
17CEB
330
14F0A
100
AcDbEntity
  8
寸法
 62
     0
 48
50.0
370
    -2
100
AcDbBlockReference
  2
_DOTSMALL
 10
7436.095381981103
 20
10032.49742454596
 30
0.0
 41
100.0
 42
100.0
 43
100.0
 50
270.0
  0
MTEXT
  5
17CEC
330
14F0A
100
AcDbEntity
  8
寸法
 62
     7
 48
50.0
100
AcDbMText
 10
7336.095381981102
 20
10340.9827059202
 30
0.0
 40
120.0
 41
0.0
 71
     5
 72
     1
  1
\A1;55
  7
STYLE1
 11
0.0000000000000001
 21
1.0
 31
0.0
 73
     1
 44
1.0
1001
ACAD
1000
MTEXTBEGIN
1070
    73
1070
     1
1070
    44
1040
1.0
1070
    74
1070
     0
1000
MTEXTEND
  0
POINT
  5
17CED
330
14F0A
100
AcDbEntity
  8
DEFPOINTS
 62
     0
 48
50.0
100
AcDbPoint
 10
6788.669036246692
 20
10032.49742454596
 30
0.0
  0
POINT
  5
17CEE
330
14F0A
100
AcDbEntity
  8
DEFPOINTS
 62
     0
 48
50.0
100
AcDbPoint
 10
6788.669036246692
 20
9977.497424545967
 30
0.0
  0
POINT
  5
17CEF
330
14F0A
100
AcDbEntity
  8
DEFPOINTS
 62
     0
 48
50.0
100
AcDbPoint
 10
7436.095381981103
 20
9977.497424545967
 30
0.0
  0
ENDBLK
  5
152A7
330
14F0A
100
AcDbEntity
  8
0
 48
50.0
100
AcDbBlockEnd
  0
BLOCK
  5
152A8
330
14F18
100
AcDbEntity
  8
0
 48
50.0
100
AcDbBlockBegin
  2
*D5
 70
     1
 10
0.0
 20
0.0
 30
0.0
  3
*D5
  1

  0
LINE
  5
17CDA
330
14F18
100
AcDbEntity
  8
寸法
 62
     0
 48
50.0
370
    -2
100
AcDbLine
 10
4158.669036246656
 20
10052.49742454587
 30
0.0
 11
4158.669036246656
 21
10308.30564417085
 31
0.0
  0
LINE
  5
17CDB
330
14F18
100
AcDbEntity
  8
寸法
 62
     0
 48
50.0
370
    -2
100
AcDbLine
 10
4213.669036246691
 20
10052.49742454587
 30
0.0
 11
4213.669036246691
 21
10308.30564417085
 31
0.0
  0
LINE
  5
17CDC
330
14F18
100
AcDbEntity
  8
寸法
 62
     0
 48
50.0
370
    -2
100
AcDbLine
 10
4213.669036246691
 20
10248.30564417085
 30
0.0
 11
4313.669036246691
 21
10248.30564417085
 31
0.0
  0
LINE
  5
17CDD
330
14F18
100
AcDbEntity
  8
寸法
 62
     0
 48
50.0
370
    -2
100
AcDbLine
 10
4158.669036246656
 20
10248.30564417085
 30
0.0
 11
3741.69847349818
 21
10248.30564417085
 31
0.0
  0
LINE
  5
17CDE
330
14F18
100
AcDbEntity
  8
寸法
 62
     0
 48
50.0
370
    -2
100
AcDbLine
 10
4213.669036246691
 20
10248.30564417085
 30
0.0
 11
4158.669036246656
 21
10248.30564417085
 31
0.0
  0
INSERT
  5
17CDF
330
14F18
100
AcDbEntity
  8
寸法
 62
     0
 48
50.0
370
    -2
100
AcDbBlockReference
  2
_DOTSMALL
 10
4213.669036246691
 20
10248.30564417085
 30
0.0
 41
100.0
 42
100.0
 43
100.0
 50
180.0
  0
INSERT
  5
17CE0
330
14F18
100
AcDbEntity
  8
寸法
 62
     0
 48
50.0
370
    -2
100
AcDbBlockReference
  2
_DOTSMALL
 10
4158.669036246656
 20
10248.30564417085
 30
0.0
 41
100.0
 42
100.0
 43
100.0
  0
MTEXT
  5
17CE1
330
14F18
100
AcDbEntity
  8
寸法
 62
     7
 48
50.0
100
AcDbMText
 10
3850.183754872418
 20
10348.30564417085
 30
0.0
 40
120.0
 41
0.0
 71
     5
 72
     1
  1
\A1;55
  7
STYLE1
 73
     1
 44
1.0
1001
ACAD
1000
MTEXTBEGIN
1070
    73
1070
     1
1070
    44
1040
1.0
1070
    74
1070
     0
1000
MTEXTEND
  0
POINT
  5
17CE2
330
14F18
100
AcDbEntity
  8
DEFPOINTS
 62
     0
 48
50.0
100
AcDbPoint
 10
4158.669036246656
 20
10032.49742454587
 30
0.0
  0
POINT
  5
17CE3
330
14F18
100
AcDbEntity
  8
DEFPOINTS
 62
     0
 48
50.0
100
AcDbPoint
 10
4213.669036246691
 20
10032.49742454587
 30
0.0
  0
POINT
  5
17CE4
330
14F18
100
AcDbEntity
  8
DEFPOINTS
 62
     0
 48
50.0
100
AcDbPoint
 10
4213.669036246691
 20
10248.30564417085
 30
0.0
  0
ENDBLK
  5
152B4
330
14F18
100
AcDbEntity
  8
0
 48
50.0
100
AcDbBlockEnd
  0
BLOCK
  5
152D6
330
14F4A
100
AcDbEntity
  8
0
 48
50.0
100
AcDbBlockBegin
  2
*D6
 70
     1
 10
0.0
 20
0.0
 30
0.0
  3
*D6
  1

  0
LINE
  5
17CC6
330
14F4A
100
AcDbEntity
  8
寸法
 62
     0
 48
50.0
370
    -2
100
AcDbLine
 10
6808.669036246667
 20
7037.497424545953
 30
0.0
 11
7496.095381981078
 21
7037.497424545953
 31
0.0
  0
LINE
  5
17CC7
330
14F4A
100
AcDbEntity
  8
寸法
 62
     0
 48
50.0
370
    -2
100
AcDbLine
 10
6808.669036246667
 20
6982.497424545956
 30
0.0
 11
7496.095381981078
 21
6982.497424545956
 31
0.0
  0
LINE
  5
17CC8
330
14F4A
100
AcDbEntity
  8
寸法
 62
     0
 48
50.0
370
    -2
100
AcDbLine
 10
7436.095381981079
 20
7037.497424545953
 30
0.0
 11
7436.095381981079
 21
7137.497424545952
 31
0.0
  0
LINE
  5
17CC9
330
14F4A
100
AcDbEntity
  8
寸法
 62
     0
 48
50.0
370
    -2
100
AcDbLine
 10
7436.095381981079
 20
6982.497424545956
 30
0.0
 11
7436.095381981079
 21
6496.150676266855
 31
0.0
  0
LINE
  5
17CCA
330
14F4A
100
AcDbEntity
  8
寸法
 62
     0
 48
50.0
370
    -2
100
AcDbLine
 10
7436.095381981079
 20
7037.497424545953
 30
0.0
 11
7436.095381981079
 21
6982.497424545956
 31
0.0
  0
INSERT
  5
17CCB
330
14F4A
100
AcDbEntity
  8
寸法
 62
     0
 48
50.0
370
    -2
100
AcDbBlockReference
  2
_DOTSMALL
 10
7436.095381981079
 20
7037.497424545953
 30
0.0
 41
100.0
 42
100.0
 43
100.0
 50
270.0
  0
INSERT
  5
17CCC
330
14F4A
100
AcDbEntity
  8
寸法
 62
     0
 48
50.0
370
    -2
100
AcDbBlockReference
  2
_DOTSMALL
 10
7436.095381981079
 20
6982.497424545956
 30
0.0
 41
100.0
 42
100.0
 43
100.0
 50
90.0
  0
MTEXT
  5
17CCD
330
14F4A
100
AcDbEntity
  8
寸法
 62
     7
 48
50.0
100
AcDbMText
 10
7336.095381981078
 20
6604.635957641095
 30
0.0
 40
120.0
 41
0.0
 71
     5
 72
     1
  1
\A1;55
  7
STYLE1
 11
0.0000000000000001
 21
1.0
 31
0.0
 73
     1
 44
1.0
1001
ACAD
1000
MTEXTBEGIN
1070
    73
1070
     1
1070
    44
1040
1.0
1070
    74
1070
     0
1000
MTEXTEND
  0
POINT
  5
17CCE
330
14F4A
100
AcDbEntity
  8
DEFPOINTS
 62
     0
 48
50.0
100
AcDbPoint
 10
6788.669036246666
 20
7037.497424545953
 30
0.0
  0
POINT
  5
17CCF
330
14F4A
100
AcDbEntity
  8
DEFPOINTS
 62
     0
 48
50.0
100
AcDbPoint
 10
6788.669036246666
 20
6982.497424545956
 30
0.0
  0
POINT
  5
17CD0
330
14F4A
100
AcDbEntity
  8
DEFPOINTS
 62
     0
 48
50.0
100
AcDbPoint
 10
7436.095381981079
 20
6982.497424545956
 30
0.0
  0
ENDBLK
  5
152E2
330
14F4A
100
AcDbEntity
  8
0
 48
50.0
100
AcDbBlockEnd
  0
BLOCK
  5
162E5
330
14F70
100
AcDbEntity
  8
0
 48
50.0
100
AcDbBlockBegin
  2
*D7
 70
     1
 10
0.0
 20
0.0
 30
0.0
  3
*D7
  1

  0
LINE
  5
17CBD
330
14F70
100
AcDbEntity
  8
寸法
 62
     0
 48
50.0
370
    -2
100
AcDbLine
 10
6808.669036246692
 20
9977.497424545967
 30
0.0
 11
7496.095381981098
 21
9977.497424545967
 31
0.0
  0
LINE
  5
17CBE
330
14F70
100
AcDbEntity
  8
寸法
 62
     0
 48
50.0
370
    -2
100
AcDbLine
 10
6808.669036246667
 20
7037.497424545953
 30
0.0
 11
7496.095381981098
 21
7037.497424545953
 31
0.0
  0
LINE
  5
17CBF
330
14F70
100
AcDbEntity
  8
寸法
 62
     0
 48
50.0
370
    -2
100
AcDbLine
 10
7436.095381981099
 20
9977.497424545967
 30
0.0
 11
7436.095381981099
 21
7037.497424545953
 31
0.0
  0
INSERT
  5
17CC0
330
14F70
100
AcDbEntity
  8
寸法
 62
     0
 48
50.0
370
    -2
100
AcDbBlockReference
  2
_DOTSMALL
 10
7436.095381981099
 20
9977.497424545967
 30
0.0
 41
100.0
 42
100.0
 43
100.0
 50
90.0
  0
INSERT
  5
17CC1
330
14F70
100
AcDbEntity
  8
寸法
 62
     0
 48
50.0
370
    -2
100
AcDbBlockReference
  2
_DOTSMALL
 10
7436.095381981099
 20
7037.497424545953
 30
0.0
 41
100.0
 42
100.0
 43
100.0
 50
270.0
  0
MTEXT
  5
17CC2
330
14F70
100
AcDbEntity
  8
寸法
 62
     7
 48
50.0
100
AcDbMText
 10
7336.083570957476
 20
8507.497424545961
 30
0.0
 40
120.0
 41
0.0
 71
     5
 72
     1
  1
\A1;7X420=2940
  7
STYLE1
 11
0.0000000000000001
 21
1.0
 31
0.0
 73
     1
 44
1.0
1001
ACAD
1000
MTEXTBEGIN
1070
    73
1070
     1
1070
    44
1040
1.0
1070
    74
1070
     0
1000
MTEXTEND
  0
POINT
  5
17CC3
330
14F70
100
AcDbEntity
  8
DEFPOINTS
 62
     0
 48
50.0
100
AcDbPoint
 10
6788.669036246692
 20
9977.497424545967
 30
0.0
  0
POINT
  5
17CC4
330
14F70
100
AcDbEntity
  8
DEFPOINTS
 62
     0
 48
50.0
100
AcDbPoint
 10
6788.669036246666
 20
7037.497424545953
 30
0.0
  0
POINT
  5
17CC5
330
14F70
100
AcDbEntity
  8
DEFPOINTS
 62
     0
 48
50.0
100
AcDbPoint
 10
7436.095381981099
 20
7037.497424545953
 30
0.0
  0
ENDBLK
  5
162EF
330
14F70
100
AcDbEntity
  8
0
 48
50.0
100
AcDbBlockEnd
  0
BLOCK
  5
16F2B
330
16F21
100
AcDbEntity
  8
0
 48
50.0
100
AcDbBlockBegin
  2
*D9
 70
     1
 10
0.0
 20
0.0
 30
0.0
  3
*D9
  1

  0
LINE
  5
17C59
330
16F21
100
AcDbEntity
  8
寸法
 62
     0
 48
50.0
370
    -2
100
AcDbLine
 10
6788.669036246687
 20
4399.963665626827
 30
0.0
 11
6788.669036246687
 21
4652.505250885067
 31
0.0
  0
LINE
  5
17C5A
330
16F21
100
AcDbEntity
  8
寸法
 62
     0
 48
50.0
370
    -2
100
AcDbLine
 10
4158.669036246687
 20
4399.963665626829
 30
0.0
 11
4158.669036246687
 21
4652.505250885067
 31
0.0
  0
LINE
  5
17C5B
330
16F21
100
AcDbEntity
  8
寸法
 62
     0
 48
50.0
370
    -2
100
AcDbLine
 10
6788.669036246687
 20
4592.505250885067
 30
0.0
 11
4158.669036246687
 21
4592.505250885067
 31
0.0
  0
INSERT
  5
17C5C
330
16F21
100
AcDbEntity
  8
寸法
 62
     0
 48
50.0
370
    -2
100
AcDbBlockReference
  2
_DOTSMALL
 10
6788.669036246687
 20
4592.505250885067
 30
0.0
 41
100.0
 42
100.0
 43
100.0
  0
INSERT
  5
17C5D
330
16F21
100
AcDbEntity
  8
寸法
 62
     0
 48
50.0
370
    -2
100
AcDbBlockReference
  2
_DOTSMALL
 10
4158.669036246687
 20
4592.505250885067
 30
0.0
 41
100.0
 42
100.0
 43
100.0
 50
180.0
  0
MTEXT
  5
17C5E
330
16F21
100
AcDbEntity
  8
寸法
 62
     7
 48
50.0
100
AcDbMText
 10
5574.190948813812
 20
4692.517061908688
 30
0.0
 40
120.0
 41
0.0
 71
     5
 72
     1
  1
\A1;柱外寸法2630
  7
STYLE1
 73
     1
 44
1.0
1001
ACAD
1000
MTEXTBEGIN
1070
    73
1070
     1
1070
    44
1040
1.0
1070
    74
1070
     0
1000
MTEXTEND
  0
POINT
  5
17C5F
330
16F21
100
AcDbEntity
  8
DEFPOINTS
 62
     0
 48
50.0
100
AcDbPoint
 10
6788.669036246687
 20
4379.963665626827
 30
0.0
  0
POINT
  5
17C60
330
16F21
100
AcDbEntity
  8
DEFPOINTS
 62
     0
 48
50.0
100
AcDbPoint
 10
4158.669036246687
 20
4379.96366562683
 30
0.0
  0
POINT
  5
17C61
330
16F21
100
AcDbEntity
  8
DEFPOINTS
 62
     0
 48
50.0
100
AcDbPoint
 10
4158.669036246687
 20
4592.505250885067
 30
0.0
  0
ENDBLK
  5
16F2C
330
16F21
100
AcDbEntity
  8
0
 48
50.0
100
AcDbBlockEnd
  0
BLOCK
  5
16F39
330
16F2D
100
AcDbEntity
  8
0
 48
50.0
100
AcDbBlockBegin
  2
*D10
 70
     1
 10
0.0
 20
0.0
 30
0.0
  3
*D10
  1

  0
LINE
  5
17C4E
330
16F2D
100
AcDbEntity
  8
寸法
 62
     0
 48
50.0
370
    -2
100
AcDbLine
 10
6838.669036246686
 20
4399.963665626826
 30
0.0
 11
6838.669036246686
 21
4652.505250885067
 31
0.0
  0
LINE
  5
17C4F
330
16F2D
100
AcDbEntity
  8
寸法
 62
     0
 48
50.0
370
    -2
100
AcDbLine
 10
6788.669036246687
 20
4399.963665626827
 30
0.0
 11
6788.669036246687
 21
4652.505250885067
 31
0.0
  0
LINE
  5
17C50
330
16F2D
100
AcDbEntity
  8
寸法
 62
     0
 48
50.0
370
    -2
100
AcDbLine
 10
6788.669036246687
 20
4592.505250885067
 30
0.0
 11
6688.669036246686
 21
4592.505250885067
 31
0.0
  0
LINE
  5
17C51
330
16F2D
100
AcDbEntity
  8
寸法
 62
     0
 48
50.0
370
    -2
100
AcDbLine
 10
6838.669036246686
 20
4592.505250885067
 30
0.0
 11
7258.201561715411
 21
4592.505250885067
 31
0.0
  0
LINE
  5
17C52
330
16F2D
100
AcDbEntity
  8
寸法
 62
     0
 48
50.0
370
    -2
100
AcDbLine
 10
6788.669036246687
 20
4592.505250885067
 30
0.0
 11
6838.669036246686
 21
4592.505250885067
 31
0.0
  0
INSERT
  5
17C53
330
16F2D
100
AcDbEntity
  8
寸法
 62
     0
 48
50.0
370
    -2
100
AcDbBlockReference
  2
_DOTSMALL
 10
6788.669036246687
 20
4592.505250885067
 30
0.0
 41
100.0
 42
100.0
 43
100.0
  0
INSERT
  5
17C54
330
16F2D
100
AcDbEntity
  8
寸法
 62
     0
 48
50.0
370
    -2
100
AcDbBlockReference
  2
_DOTSMALL
 10
6838.669036246686
 20
4592.505250885067
 30
0.0
 41
100.0
 42
100.0
 43
100.0
 50
180.0
  0
MTEXT
  5
17C55
330
16F2D
100
AcDbEntity
  8
寸法
 62
     7
 48
50.0
100
AcDbMText
 10
7152.154317620923
 20
4692.505250885067
 30
0.0
 40
120.0
 41
0.0
 71
     5
 72
     1
  1
\A1;50
  7
STYLE1
 73
     1
 44
1.0
1001
ACAD
1000
MTEXTBEGIN
1070
    73
1070
     1
1070
    44
1040
1.0
1070
    74
1070
     0
1000
MTEXTEND
  0
POINT
  5
17C56
330
16F2D
100
AcDbEntity
  8
DEFPOINTS
 62
     0
 48
50.0
100
AcDbPoint
 10
6838.669036246686
 20
4379.963665626825
 30
0.0
  0
POINT
  5
17C57
330
16F2D
100
AcDbEntity
  8
DEFPOINTS
 62
     0
 48
50.0
100
AcDbPoint
 10
6788.669036246687
 20
4379.963665626827
 30
0.0
  0
POINT
  5
17C58
330
16F2D
100
AcDbEntity
  8
DEFPOINTS
 62
     0
 48
50.0
100
AcDbPoint
 10
6788.669036246687
 20
4592.505250885067
 30
0.0
  0
ENDBLK
  5
16F3A
330
16F2D
100
AcDbEntity
  8
0
 48
50.0
100
AcDbBlockEnd
  0
BLOCK
  5
16F45
330
16F3B
100
AcDbEntity
  8
0
 48
50.0
100
AcDbBlockBegin
  2
*D11
 70
     1
 10
0.0
 20
0.0
 30
0.0
  3
*D11
  1

  0
LINE
  5
17C45
330
16F3B
100
AcDbEntity
  8
寸法
 62
     0
 48
50.0
370
    -2
100
AcDbLine
 10
4108.669036246687
 20
4399.963665626827
 30
0.0
 11
4108.669036246687
 21
4867.900682367322
 31
0.0
  0
LINE
  5
17C46
330
16F3B
100
AcDbEntity
  8
寸法
 62
     0
 48
50.0
370
    -2
100
AcDbLine
 10
6838.669036246686
 20
4399.963665626826
 30
0.0
 11
6838.669036246686
 21
4867.900682367322
 31
0.0
  0
LINE
  5
17C47
330
16F3B
100
AcDbEntity
  8
寸法
 62
     0
 48
50.0
370
    -2
100
AcDbLine
 10
4108.669036246687
 20
4807.900682367321
 30
0.0
 11
6838.669036246686
 21
4807.900682367321
 31
0.0
  0
INSERT
  5
17C48
330
16F3B
100
AcDbEntity
  8
寸法
 62
     0
 48
50.0
370
    -2
100
AcDbBlockReference
  2
_DOTSMALL
 10
4108.669036246687
 20
4807.900682367321
 30
0.0
 41
100.0
 42
100.0
 43
100.0
 50
180.0
  0
INSERT
  5
17C49
330
16F3B
100
AcDbEntity
  8
寸法
 62
     0
 48
50.0
370
    -2
100
AcDbBlockReference
  2
_DOTSMALL
 10
6838.669036246686
 20
4807.900682367321
 30
0.0
 41
100.0
 42
100.0
 43
100.0
  0
MTEXT
  5
17C4A
330
16F3B
100
AcDbEntity
  8
寸法
 62
     7
 48
50.0
100
AcDbMText
 10
5516.235357753511
 20
4907.912493390943
 30
0.0
 40
120.0
 41
0.0
 71
     5
 72
     1
  1
\A1;2730
  7
STYLE1
 73
     1
 44
1.0
1001
ACAD
1000
MTEXTBEGIN
1070
    73
1070
     1
1070
    44
1040
1.0
1070
    74
1070
     0
1000
MTEXTEND
  0
POINT
  5
17C4B
330
16F3B
100
AcDbEntity
  8
DEFPOINTS
 62
     0
 48
50.0
100
AcDbPoint
 10
4108.669036246687
 20
4379.963665626827
 30
0.0
  0
POINT
  5
17C4C
330
16F3B
100
AcDbEntity
  8
DEFPOINTS
 62
     0
 48
50.0
100
AcDbPoint
 10
6838.669036246686
 20
4379.963665626825
 30
0.0
  0
POINT
  5
17C4D
330
16F3B
100
AcDbEntity
  8
DEFPOINTS
 62
     0
 48
50.0
100
AcDbPoint
 10
6838.669036246686
 20
4807.900682367321
 30
0.0
  0
ENDBLK
  5
16F46
330
16F3B
100
AcDbEntity
  8
0
 48
50.0
100
AcDbBlockEnd
  0
BLOCK
  5
16F53
330
16F47
100
AcDbEntity
  8
0
 48
50.0
100
AcDbBlockBegin
  2
*D12
 70
     1
 10
0.0
 20
0.0
 30
0.0
  3
*D12
  1

  0
LINE
  5
17C3A
330
16F47
100
AcDbEntity
  8
寸法
 62
     0
 48
50.0
370
    -2
100
AcDbLine
 10
4158.669036246687
 20
4399.963665626829
 30
0.0
 11
4158.669036246687
 21
4652.505250885067
 31
0.0
  0
LINE
  5
17C3B
330
16F47
100
AcDbEntity
  8
寸法
 62
     0
 48
50.0
370
    -2
100
AcDbLine
 10
4108.669036246687
 20
4399.963665626827
 30
0.0
 11
4108.669036246687
 21
4652.505250885067
 31
0.0
  0
LINE
  5
17C3C
330
16F47
100
AcDbEntity
  8
寸法
 62
     0
 48
50.0
370
    -2
100
AcDbLine
 10
4158.669036246687
 20
4592.505250885067
 30
0.0
 11
4258.669036246686
 21
4592.505250885067
 31
0.0
  0
LINE
  5
17C3D
330
16F47
100
AcDbEntity
  8
寸法
 62
     0
 48
50.0
370
    -2
100
AcDbLine
 10
4108.669036246687
 20
4592.505250885067
 30
0.0
 11
3689.136510777951
 21
4592.505250885067
 31
0.0
  0
LINE
  5
17C3E
330
16F47
100
AcDbEntity
  8
寸法
 62
     0
 48
50.0
370
    -2
100
AcDbLine
 10
4158.669036246687
 20
4592.505250885067
 30
0.0
 11
4108.669036246687
 21
4592.505250885067
 31
0.0
  0
INSERT
  5
17C3F
330
16F47
100
AcDbEntity
  8
寸法
 62
     0
 48
50.0
370
    -2
100
AcDbBlockReference
  2
_DOTSMALL
 10
4158.669036246687
 20
4592.505250885067
 30
0.0
 41
100.0
 42
100.0
 43
100.0
 50
180.0
  0
INSERT
  5
17C40
330
16F47
100
AcDbEntity
  8
寸法
 62
     0
 48
50.0
370
    -2
100
AcDbBlockReference
  2
_DOTSMALL
 10
4108.669036246687
 20
4592.505250885067
 30
0.0
 41
100.0
 42
100.0
 43
100.0
  0
MTEXT
  5
17C41
330
16F47
100
AcDbEntity
  8
寸法
 62
     7
 48
50.0
100
AcDbMText
 10
3795.18375487244
 20
4692.505250885067
 30
0.0
 40
120.0
 41
0.0
 71
     5
 72
     1
  1
\A1;50
  7
STYLE1
 73
     1
 44
1.0
1001
ACAD
1000
MTEXTBEGIN
1070
    73
1070
     1
1070
    44
1040
1.0
1070
    74
1070
     0
1000
MTEXTEND
  0
POINT
  5
17C42
330
16F47
100
AcDbEntity
  8
DEFPOINTS
 62
     0
 48
50.0
100
AcDbPoint
 10
4158.669036246687
 20
4379.96366562683
 30
0.0
  0
POINT
  5
17C43
330
16F47
100
AcDbEntity
  8
DEFPOINTS
 62
     0
 48
50.0
100
AcDbPoint
 10
4108.669036246687
 20
4379.963665626827
 30
0.0
  0
POINT
  5
17C44
330
16F47
100
AcDbEntity
  8
DEFPOINTS
 62
     0
 48
50.0
100
AcDbPoint
 10
4108.669036246687
 20
4592.505250885067
 30
0.0
  0
ENDBLK
  5
16F54
330
16F47
100
AcDbEntity
  8
0
 48
50.0
100
AcDbBlockEnd
  0
BLOCK
  5
17939
330
1792E
100
AcDbEntity
  8
0
 48
50.0
100
AcDbBlockBegin
  2
*D13
 70
     1
 10
0.0
 20
0.0
 30
0.0
  3
*D13
  1

  0
LINE
  5
17C2F
330
1792E
100
AcDbEntity
  8
寸法
 62
     0
 48
50.0
370
    -2
100
AcDbLine
 10
9418.909213480187
 20
4379.261372696484
 30
0.0
 11
8802.974774374909
 21
4396.975522970814
 31
0.0
  0
LINE
  5
17C30
330
1792E
100
AcDbEntity
  8
寸法
 62
     0
 48
50.0
370
    -2
100
AcDbLine
 10
9414.855757923563
 20
4238.319648930771
 30
0.0
 11
8798.921318818285
 21
4256.033799205101
 31
0.0
  0
LINE
  5
17C31
330
1792E
100
AcDbEntity
  8
寸法
 62
     0
 48
50.0
370
    -2
100
AcDbLine
 10
8858.896520420714
 20
4254.308924500154
 30
0.0
 11
8862.949975977342
 21
4395.250648265867
 31
0.0
  0
LINE
  5
17C32
330
1792E
100
AcDbEntity
  8
寸法
 62
     0
 48
50.0
370
    -2
100
AcDbLine
 10
8862.949975977342
 20
4395.250648265867
 30
0.0
 11
8873.299224207027
 21
4755.101857880453
 31
0.0
  0
INSERT
  5
17C33
330
1792E
100
AcDbEntity
  8
寸法
 62
     0
 48
50.0
370
    -2
100
AcDbBlockReference
  2
_DOTSMALL
 10
8858.896520420714
 20
4254.308924500154
 30
0.0
 41
100.0
 42
100.0
 43
100.0
 50
268.3526390256378
  0
INSERT
  5
17C34
330
1792E
100
AcDbEntity
  8
寸法
 62
     0
 48
50.0
370
    -2
100
AcDbBlockReference
  2
_DOTSMALL
 10
8862.949975977342
 20
4395.250648265867
 30
0.0
 41
100.0
 42
100.0
 43
100.0
 50
88.35263902563776
  0
MTEXT
  5
17C35
330
1792E
100
AcDbEntity
  8
寸法
 62
     7
 48
50.0
100
AcDbMText
 10
8769.603326342256
 20
4628.030378916767
 30
0.0
 40
120.0
 41
0.0
 71
     5
 72
     1
  1
\A1;141
  7
STYLE1
 11
0.0287479117491237
 21
0.9995866933738488
 31
0.0
 73
     1
 44
1.0
1001
ACAD
1000
MTEXTBEGIN
1070
    73
1070
     1
1070
    44
1040
1.0
1070
    74
1070
     0
1000
MTEXTEND
  0
POINT
  5
17C36
330
1792E
100
AcDbEntity
  8
DEFPOINTS
 62
     0
 48
50.0
100
AcDbPoint
 10
9438.900947347663
 20
4378.686414461503
 30
0.0
  0
POINT
  5
17C37
330
1792E
100
AcDbEntity
  8
DEFPOINTS
 62
     0
 48
50.0
100
AcDbPoint
 10
9434.847491791039
 20
4237.74469069579
 30
0.0
  0
POINT
  5
17C38
330
1792E
100
AcDbEntity
  8
DEFPOINTS
 62
     0
 48
50.0
100
AcDbPoint
 10
8858.896520420714
 20
4254.308924500154
 30
0.0
  0
ENDBLK
  5
1793A
330
1792E
100
AcDbEntity
  8
0
 48
50.0
100
AcDbBlockEnd
  0
BLOCK
  5
17946
330
1793B
100
AcDbEntity
  8
0
 48
50.0
100
AcDbBlockBegin
  2
*D14
 70
     1
 10
0.0
 20
0.0
 30
0.0
  3
*D14
  1

  0
LINE
  5
17C25
330
1793B
100
AcDbEntity
  8
寸法
 62
     0
 48
50.0
370
    -2
100
AcDbLine
 10
12529.50492718908
 20
4346.774345238478
 30
0.0
 11
12529.50492718908
 21
4838.62111920613
 31
0.0
  0
LINE
  5
17C26
330
1793B
100
AcDbEntity
  8
寸法
 62
     0
 48
50.0
370
    -2
100
AcDbLine
 10
12609.50492718908
 20
4344.963665626827
 30
0.0
 11
12609.50492718908
 21
4838.62111920613
 31
0.0
  0
LINE
  5
17C27
330
1793B
100
AcDbEntity
  8
寸法
 62
     0
 48
50.0
370
    -2
100
AcDbLine
 10
12529.50492718908
 20
4778.621119206129
 30
0.0
 11
12609.50492718908
 21
4778.621119206129
 31
0.0
  0
LINE
  5
17C28
330
1793B
100
AcDbEntity
  8
寸法
 62
     0
 48
50.0
370
    -2
100
AcDbLine
 10
12609.50492718908
 20
4778.621119206129
 30
0.0
 11
12921.59941537806
 21
4778.621119206129
 31
0.0
  0
INSERT
  5
17C29
330
1793B
100
AcDbEntity
  8
寸法
 62
     0
 48
50.0
370
    -2
100
AcDbBlockReference
  2
_DOTSMALL
 10
12529.50492718908
 20
4778.621119206129
 30
0.0
 41
100.0
 42
100.0
 43
100.0
 50
180.0
  0
INSERT
  5
17C2A
330
1793B
100
AcDbEntity
  8
寸法
 62
     0
 48
50.0
370
    -2
100
AcDbBlockReference
  2
_DOTSMALL
 10
12609.50492718908
 20
4778.621119206129
 30
0.0
 41
100.0
 42
100.0
 43
100.0
  0
MTEXT
  5
17C2B
330
1793B
100
AcDbEntity
  8
寸法
 62
     7
 48
50.0
100
AcDbMText
 10
12815.55217128357
 20
4878.62111920613
 30
0.0
 40
120.0
 41
0.0
 71
     5
 72
     1
  1
\A1;80
  7
STYLE1
 73
     1
 44
1.0
1001
ACAD
1000
MTEXTBEGIN
1070
    73
1070
     1
1070
    44
1040
1.0
1070
    74
1070
     0
1000
MTEXTEND
  0
POINT
  5
17C2C
330
1793B
100
AcDbEntity
  8
DEFPOINTS
 62
     0
 48
50.0
100
AcDbPoint
 10
12529.50492718908
 20
4326.774345238479
 30
0.0
  0
POINT
  5
17C2D
330
1793B
100
AcDbEntity
  8
DEFPOINTS
 62
     0
 48
50.0
100
AcDbPoint
 10
12609.50492718908
 20
4324.963665626826
 30
0.0
  0
POINT
  5
17C2E
330
1793B
100
AcDbEntity
  8
DEFPOINTS
 62
     0
 48
50.0
100
AcDbPoint
 10
12609.50492718908
 20
4778.621119206129
 30
0.0
  0
ENDBLK
  5
17947
330
1793B
100
AcDbEntity
  8
0
 48
50.0
100
AcDbBlockEnd
  0
BLOCK
  5
17952
330
17948
100
AcDbEntity
  8
0
 48
50.0
100
AcDbBlockBegin
  2
*D15
 70
     1
 10
0.0
 20
0.0
 30
0.0
  3
*D15
  1

  0
LINE
  5
17C1C
330
17948
100
AcDbEntity
  8
寸法
 62
     0
 48
50.0
370
    -2
100
AcDbLine
 10
12609.50492718908
 20
4344.963665626824
 30
0.0
 11
12609.50492718908
 21
5068.734711992405
 31
0.0
  0
LINE
  5
17C1D
330
17948
100
AcDbEntity
  8
寸法
 62
     0
 48
50.0
370
    -2
100
AcDbLine
 10
9419.504927189086
 20
4399.963665626827
 30
0.0
 11
9419.504927189086
 21
5068.734711992405
 31
0.0
  0
LINE
  5
17C1E
330
17948
100
AcDbEntity
  8
寸法
 62
     0
 48
50.0
370
    -2
100
AcDbLine
 10
12609.50492718908
 20
5008.734711992405
 30
0.0
 11
9419.504927189086
 21
5008.734711992405
 31
0.0
  0
INSERT
  5
17C1F
330
17948
100
AcDbEntity
  8
寸法
 62
     0
 48
50.0
370
    -2
100
AcDbBlockReference
  2
_DOTSMALL
 10
12609.50492718908
 20
5008.734711992405
 30
0.0
 41
100.0
 42
100.0
 43
100.0
  0
INSERT
  5
17C20
330
17948
100
AcDbEntity
  8
寸法
 62
     0
 48
50.0
370
    -2
100
AcDbBlockReference
  2
_DOTSMALL
 10
9419.504927189086
 20
5008.734711992405
 30
0.0
 41
100.0
 42
100.0
 43
100.0
 50
180.0
  0
MTEXT
  5
17C21
330
17948
100
AcDbEntity
  8
寸法
 62
     7
 48
50.0
100
AcDbMText
 10
11091.21073349861
 20
5108.734711992405
 30
0.0
 40
120.0
 41
0.0
 71
     5
 72
     1
  1
\A1;3190
  7
STYLE1
 73
     1
 44
1.0
1001
ACAD
1000
MTEXTBEGIN
1070
    73
1070
     1
1070
    44
1040
1.0
1070
    74
1070
     0
1000
MTEXTEND
  0
POINT
  5
17C22
330
17948
100
AcDbEntity
  8
DEFPOINTS
 62
     0
 48
50.0
100
AcDbPoint
 10
12609.50492718908
 20
4324.963665626825
 30
0.0
  0
POINT
  5
17C23
330
17948
100
AcDbEntity
  8
DEFPOINTS
 62
     0
 48
50.0
100
AcDbPoint
 10
9419.504927189086
 20
4379.963665626827
 30
0.0
  0
POINT
  5
17C24
330
17948
100
AcDbEntity
  8
DEFPOINTS
 62
     0
 48
50.0
100
AcDbPoint
 10
9419.504927189086
 20
5008.734711992405
 30
0.0
  0
ENDBLK
  5
17953
330
17948
100
AcDbEntity
  8
0
 48
50.0
100
AcDbBlockEnd
  0
BLOCK
  5
17960
330
17954
100
AcDbEntity
  8
0
 48
50.0
100
AcDbBlockBegin
  2
*D16
 70
     1
 10
0.0
 20
0.0
 30
0.0
  3
*D16
  1

  0
LINE
  5
17C11
330
17954
100
AcDbEntity
  8
寸法
 62
     0
 48
50.0
370
    -2
100
AcDbLine
 10
9479.504927189086
 20
4395.9652837498
 30
0.0
 11
9479.504927189086
 21
4838.621119206127
 31
0.0
  0
LINE
  5
17C12
330
17954
100
AcDbEntity
  8
寸法
 62
     0
 48
50.0
370
    -2
100
AcDbLine
 10
9419.504927189086
 20
4399.963665626827
 30
0.0
 11
9419.504927189086
 21
4838.621119206127
 31
0.0
  0
LINE
  5
17C13
330
17954
100
AcDbEntity
  8
寸法
 62
     0
 48
50.0
370
    -2
100
AcDbLine
 10
9479.504927189086
 20
4778.621119206127
 30
0.0
 11
9579.504927189086
 21
4778.621119206127
 31
0.0
  0
LINE
  5
17C14
330
17954
100
AcDbEntity
  8
寸法
 62
     0
 48
50.0
370
    -2
100
AcDbLine
 10
9419.504927189086
 20
4778.621119206127
 30
0.0
 11
9000.229336637906
 21
4778.621119206127
 31
0.0
  0
LINE
  5
17C15
330
17954
100
AcDbEntity
  8
寸法
 62
     0
 48
50.0
370
    -2
100
AcDbLine
 10
9479.504927189086
 20
4778.621119206127
 30
0.0
 11
9419.504927189086
 21
4778.621119206127
 31
0.0
  0
INSERT
  5
17C16
330
17954
100
AcDbEntity
  8
寸法
 62
     0
 48
50.0
370
    -2
100
AcDbBlockReference
  2
_DOTSMALL
 10
9479.504927189086
 20
4778.621119206127
 30
0.0
 41
100.0
 42
100.0
 43
100.0
 50
180.0
  0
INSERT
  5
17C17
330
17954
100
AcDbEntity
  8
寸法
 62
     0
 48
50.0
370
    -2
100
AcDbBlockReference
  2
_DOTSMALL
 10
9419.504927189086
 20
4778.621119206127
 30
0.0
 41
100.0
 42
100.0
 43
100.0
  0
MTEXT
  5
17C18
330
17954
100
AcDbEntity
  8
寸法
 62
     7
 48
50.0
100
AcDbMText
 10
9109.867131913494
 20
4878.621119206127
 30
0.0
 40
120.0
 41
0.0
 71
     5
 72
     1
  1
\A1;60
  7
STYLE1
 73
     1
 44
1.0
1001
ACAD
1000
MTEXTBEGIN
1070
    73
1070
     1
1070
    44
1040
1.0
1070
    74
1070
     0
1000
MTEXTEND
  0
POINT
  5
17C19
330
17954
100
AcDbEntity
  8
DEFPOINTS
 62
     0
 48
50.0
100
AcDbPoint
 10
9479.504927189086
 20
4375.965283749799
 30
0.0
  0
POINT
  5
17C1A
330
17954
100
AcDbEntity
  8
DEFPOINTS
 62
     0
 48
50.0
100
AcDbPoint
 10
9419.504927189086
 20
4379.963665626827
 30
0.0
  0
POINT
  5
17C1B
330
17954
100
AcDbEntity
  8
DEFPOINTS
 62
     0
 48
50.0
100
AcDbPoint
 10
9419.504927189086
 20
4778.621119206127
 30
0.0
  0
ENDBLK
  5
17961
330
17954
100
AcDbEntity
  8
0
 48
50.0
100
AcDbBlockEnd
  0
BLOCK
  5
1796C
330
17962
100
AcDbEntity
  8
0
 48
50.0
100
AcDbBlockBegin
  2
*D17
 70
     1
 10
0.0
 20
0.0
 30
0.0
  3
*D17
  1

  0
LINE
  5
17C08
330
17962
100
AcDbEntity
  8
寸法
 62
     0
 48
50.0
370
    -2
100
AcDbLine
 10
12529.50492718908
 20
4346.774345238478
 30
0.0
 11
12529.50492718908
 21
4838.62111920613
 31
0.0
  0
LINE
  5
17C09
330
17962
100
AcDbEntity
  8
寸法
 62
     0
 48
50.0
370
    -2
100
AcDbLine
 10
9479.504927189086
 20
4395.9652837498
 30
0.0
 11
9479.504927189086
 21
4838.62111920613
 31
0.0
  0
LINE
  5
17C0A
330
17962
100
AcDbEntity
  8
寸法
 62
     0
 48
50.0
370
    -2
100
AcDbLine
 10
12529.50492718908
 20
4778.621119206129
 30
0.0
 11
9479.504927189086
 21
4778.621119206129
 31
0.0
  0
INSERT
  5
17C0B
330
17962
100
AcDbEntity
  8
寸法
 62
     0
 48
50.0
370
    -2
100
AcDbBlockReference
  2
_DOTSMALL
 10
12529.50492718908
 20
4778.621119206129
 30
0.0
 41
100.0
 42
100.0
 43
100.0
  0
INSERT
  5
17C0C
330
17962
100
AcDbEntity
  8
寸法
 62
     0
 48
50.0
370
    -2
100
AcDbBlockReference
  2
_DOTSMALL
 10
9479.504927189086
 20
4778.621119206129
 30
0.0
 41
100.0
 42
100.0
 43
100.0
 50
180.0
  0
MTEXT
  5
17C0D
330
17962
100
AcDbEntity
  8
寸法
 62
     7
 48
50.0
100
AcDbMText
 10
11049.5633017485
 20
4878.62111920613
 30
0.0
 40
120.0
 41
0.0
 71
     5
 72
     1
  1
\A1;柱外寸法3050
  7
STYLE1
 73
     1
 44
1.0
1001
ACAD
1000
MTEXTBEGIN
1070
    73
1070
     1
1070
    44
1040
1.0
1070
    74
1070
     0
1000
MTEXTEND
  0
POINT
  5
17C0E
330
17962
100
AcDbEntity
  8
DEFPOINTS
 62
     0
 48
50.0
100
AcDbPoint
 10
12529.50492718908
 20
4326.774345238479
 30
0.0
  0
POINT
  5
17C0F
330
17962
100
AcDbEntity
  8
DEFPOINTS
 62
     0
 48
50.0
100
AcDbPoint
 10
9479.504927189086
 20
4375.965283749799
 30
0.0
  0
POINT
  5
17C10
330
17962
100
AcDbEntity
  8
DEFPOINTS
 62
     0
 48
50.0
100
AcDbPoint
 10
9479.504927189086
 20
4778.621119206129
 30
0.0
  0
ENDBLK
  5
1796D
330
17962
100
AcDbEntity
  8
0
 48
50.0
100
AcDbBlockEnd
  0
BLOCK
  5
1797A
330
1796E
100
AcDbEntity
  8
0
 48
50.0
100
AcDbBlockBegin
  2
*D18
 70
     1
 10
0.0
 20
0.0
 30
0.0
  3
*D18
  1

  0
LINE
  5
17BFD
330
1796E
100
AcDbEntity
  8
寸法
 62
     0
 48
50.0
370
    -2
100
AcDbLine
 10
9459.504927189085
 20
2054.963665626823
 30
0.0
 11
8575.754798005826
 21
2054.963665626823
 31
0.0
  0
LINE
  5
17BFE
330
1796E
100
AcDbEntity
  8
寸法
 62
     0
 48
50.0
370
    -2
100
AcDbLine
 10
9404.504927189085
 20
2004.963665626823
 30
0.0
 11
8575.754798005826
 21
2004.963665626823
 31
0.0
  0
LINE
  5
17BFF
330
1796E
100
AcDbEntity
  8
寸法
 62
     0
 48
50.0
370
    -2
100
AcDbLine
 10
8635.754798005825
 20
2054.963665626823
 30
0.0
 11
8635.754798005825
 21
2154.963665626823
 31
0.0
  0
LINE
  5
17C00
330
1796E
100
AcDbEntity
  8
寸法
 62
     0
 48
50.0
370
    -2
100
AcDbLine
 10
8635.754798005825
 20
2004.963665626823
 30
0.0
 11
8635.754798005825
 21
1592.869177437844
 31
0.0
  0
LINE
  5
17C01
330
1796E
100
AcDbEntity
  8
寸法
 62
     0
 48
50.0
370
    -2
100
AcDbLine
 10
8635.754798005825
 20
2054.963665626823
 30
0.0
 11
8635.754798005825
 21
2004.963665626823
 31
0.0
  0
INSERT
  5
17C02
330
1796E
100
AcDbEntity
  8
寸法
 62
     0
 48
50.0
370
    -2
100
AcDbBlockReference
  2
_DOTSMALL
 10
8635.754798005825
 20
2054.963665626823
 30
0.0
 41
100.0
 42
100.0
 43
100.0
 50
270.0
  0
INSERT
  5
17C03
330
1796E
100
AcDbEntity
  8
寸法
 62
     0
 48
50.0
370
    -2
100
AcDbBlockReference
  2
_DOTSMALL
 10
8635.754798005825
 20
2004.963665626823
 30
0.0
 41
100.0
 42
100.0
 43
100.0
 50
90.0
  0
MTEXT
  5
17C04
330
1796E
100
AcDbEntity
  8
寸法
 62
     7
 48
50.0
100
AcDbMText
 10
8535.754798005825
 20
1698.916421532333
 30
0.0
 40
120.0
 41
0.0
 71
     5
 72
     1
  1
\A1;50
  7
STYLE1
 11
0.0000000000000001
 21
1.0
 31
0.0
 73
     1
 44
1.0
1001
ACAD
1000
MTEXTBEGIN
1070
    73
1070
     1
1070
    44
1040
1.0
1070
    74
1070
     0
1000
MTEXTEND
  0
POINT
  5
17C05
330
1796E
100
AcDbEntity
  8
DEFPOINTS
 62
     0
 48
50.0
100
AcDbPoint
 10
9479.504927189086
 20
2054.963665626823
 30
0.0
  0
POINT
  5
17C06
330
1796E
100
AcDbEntity
  8
DEFPOINTS
 62
     0
 48
50.0
100
AcDbPoint
 10
9424.504927189087
 20
2004.963665626823
 30
0.0
  0
POINT
  5
17C07
330
1796E
100
AcDbEntity
  8
DEFPOINTS
 62
     0
 48
50.0
100
AcDbPoint
 10
8635.754798005825
 20
2004.963665626823
 30
0.0
  0
ENDBLK
  5
1797B
330
1796E
100
AcDbEntity
  8
0
 48
50.0
100
AcDbBlockEnd
  0
BLOCK
  5
17993
330
17989
100
AcDbEntity
  8
0
 48
50.0
100
AcDbBlockBegin
  2
*D19
 70
     1
 10
0.0
 20
0.0
 30
0.0
  3
*D19
  1

  0
LINE
  5
17BEA
330
17989
100
AcDbEntity
  8
寸法
 62
     0
 48
50.0
370
    -2
100
AcDbLine
 10
12549.50492718908
 20
2004.963665626826
 30
0.0
 11
13294.43208516121
 21
2004.963665626825
 31
0.0
  0
LINE
  5
17BEB
330
17989
100
AcDbEntity
  8
寸法
 62
     0
 48
50.0
370
    -2
100
AcDbLine
 10
12629.50492718908
 20
4324.963665626825
 30
0.0
 11
13294.43208516121
 21
4324.963665626825
 31
0.0
  0
LINE
  5
17BEC
330
17989
100
AcDbEntity
  8
寸法
 62
     0
 48
50.0
370
    -2
100
AcDbLine
 10
13234.43208516121
 20
2004.963665626825
 30
0.0
 11
13234.43208516121
 21
4324.963665626825
 31
0.0
  0
INSERT
  5
17BED
330
17989
100
AcDbEntity
  8
寸法
 62
     0
 48
50.0
370
    -2
100
AcDbBlockReference
  2
_DOTSMALL
 10
13234.43208516121
 20
2004.963665626825
 30
0.0
 41
100.0
 42
100.0
 43
100.0
 50
270.0
  0
INSERT
  5
17BEE
330
17989
100
AcDbEntity
  8
寸法
 62
     0
 48
50.0
370
    -2
100
AcDbBlockReference
  2
_DOTSMALL
 10
13234.43208516121
 20
4324.963665626825
 30
0.0
 41
100.0
 42
100.0
 43
100.0
 50
90.0
  0
MTEXT
  5
17BEF
330
17989
100
AcDbEntity
  8
寸法
 62
     7
 48
50.0
100
AcDbMText
 10
13134.42027413759
 20
3164.963665626827
 30
0.0
 40
120.0
 41
0.0
 71
     5
 72
     1
  1
\A1;2320
  7
STYLE1
 11
0.0000000000000001
 21
1.0
 31
0.0
 73
     1
 44
1.0
1001
ACAD
1000
MTEXTBEGIN
1070
    73
1070
     1
1070
    44
1040
1.0
1070
    74
1070
     0
1000
MTEXTEND
  0
POINT
  5
17BF0
330
17989
100
AcDbEntity
  8
DEFPOINTS
 62
     0
 48
50.0
100
AcDbPoint
 10
12529.50492718908
 20
2004.963665626826
 30
0.0
  0
POINT
  5
17BF1
330
17989
100
AcDbEntity
  8
DEFPOINTS
 62
     0
 48
50.0
100
AcDbPoint
 10
12609.50492718908
 20
4324.963665626825
 30
0.0
  0
POINT
  5
17BF2
330
17989
100
AcDbEntity
  8
DEFPOINTS
 62
     0
 48
50.0
100
AcDbPoint
 10
13234.43208516121
 20
4324.963665626825
 30
0.0
  0
ENDBLK
  5
17994
330
17989
100
AcDbEntity
  8
0
 48
50.0
100
AcDbBlockEnd
  0
BLOCK
  5
1799F
330
17995
100
AcDbEntity
  8
0
 48
50.0
100
AcDbBlockBegin
  2
*D20
 70
     1
 10
0.0
 20
0.0
 30
0.0
  3
*D20
  1

  0
LINE
  5
17BE1
330
17995
100
AcDbEntity
  8
寸法
 62
     0
 48
50.0
370
    -2
100
AcDbLine
 10
9459.504927189085
 20
2004.963665626819
 30
0.0
 11
8275.754798005825
 21
2004.963665626819
 31
0.0
  0
LINE
  5
17BE2
330
17995
100
AcDbEntity
  8
寸法
 62
     0
 48
50.0
370
    -2
100
AcDbLine
 10
9399.504927189086
 20
4379.963665626823
 30
0.0
 11
8275.754798005825
 21
4379.963665626823
 31
0.0
  0
LINE
  5
17BE3
330
17995
100
AcDbEntity
  8
寸法
 62
     0
 48
50.0
370
    -2
100
AcDbLine
 10
8335.754798005824
 20
2004.963665626819
 30
0.0
 11
8335.754798005826
 21
4379.963665626823
 31
0.0
  0
INSERT
  5
17BE4
330
17995
100
AcDbEntity
  8
寸法
 62
     0
 48
50.0
370
    -2
100
AcDbBlockReference
  2
_DOTSMALL
 10
8335.754798005824
 20
2004.963665626819
 30
0.0
 41
100.0
 42
100.0
 43
100.0
 50
270.0
  0
INSERT
  5
17BE5
330
17995
100
AcDbEntity
  8
寸法
 62
     0
 48
50.0
370
    -2
100
AcDbBlockReference
  2
_DOTSMALL
 10
8335.754798005826
 20
4379.963665626823
 30
0.0
 41
100.0
 42
100.0
 43
100.0
 50
90.0
  0
MTEXT
  5
17BE6
330
17995
100
AcDbEntity
  8
寸法
 62
     7
 48
50.0
100
AcDbMText
 10
8235.742986982202
 20
3192.463665626823
 30
0.0
 40
120.0
 41
0.0
 71
     5
 72
     1
  1
\A1;2375
  7
STYLE1
 11
0.0000000000000001
 21
1.0
 31
0.0
 73
     1
 44
1.0
1001
ACAD
1000
MTEXTBEGIN
1070
    73
1070
     1
1070
    44
1040
1.0
1070
    74
1070
     0
1000
MTEXTEND
  0
POINT
  5
17BE7
330
17995
100
AcDbEntity
  8
DEFPOINTS
 62
     0
 48
50.0
100
AcDbPoint
 10
9479.504927189086
 20
2004.963665626819
 30
0.0
  0
POINT
  5
17BE8
330
17995
100
AcDbEntity
  8
DEFPOINTS
 62
     0
 48
50.0
100
AcDbPoint
 10
9419.504927189086
 20
4379.963665626823
 30
0.0
  0
POINT
  5
17BE9
330
17995
100
AcDbEntity
  8
DEFPOINTS
 62
     0
 48
50.0
100
AcDbPoint
 10
8335.754798005826
 20
4379.963665626823
 30
0.0
  0
ENDBLK
  5
179A0
330
17995
100
AcDbEntity
  8
0
 48
50.0
100
AcDbBlockEnd
  0
BLOCK
  5
179AB
330
179A1
100
AcDbEntity
  8
0
 48
50.0
100
AcDbBlockBegin
  2
*D21
 70
     1
 10
0.0
 20
0.0
 30
0.0
  3
*D21
  1

  0
LINE
  5
17BD8
330
179A1
100
AcDbEntity
  8
寸法
 62
     0
 48
50.0
370
    -2
100
AcDbLine
 10
9459.504927189085
 20
4144.96366562682
 30
0.0
 11
8575.754798005828
 21
4144.96366562682
 31
0.0
  0
LINE
  5
17BD9
330
179A1
100
AcDbEntity
  8
寸法
 62
     0
 48
50.0
370
    -2
100
AcDbLine
 10
9459.504927189085
 20
2054.963665626818
 30
0.0
 11
8575.754798005826
 21
2054.963665626819
 31
0.0
  0
LINE
  5
17BDA
330
179A1
100
AcDbEntity
  8
寸法
 62
     0
 48
50.0
370
    -2
100
AcDbLine
 10
8635.754798005828
 20
4144.96366562682
 30
0.0
 11
8635.754798005825
 21
2054.963665626819
 31
0.0
  0
INSERT
  5
17BDB
330
179A1
100
AcDbEntity
  8
寸法
 62
     0
 48
50.0
370
    -2
100
AcDbBlockReference
  2
_DOTSMALL
 10
8635.754798005828
 20
4144.96366562682
 30
0.0
 41
100.0
 42
100.0
 43
100.0
 50
90.0
  0
INSERT
  5
17BDC
330
179A1
100
AcDbEntity
  8
寸法
 62
     0
 48
50.0
370
    -2
100
AcDbBlockReference
  2
_DOTSMALL
 10
8635.754798005825
 20
2054.963665626819
 30
0.0
 41
100.0
 42
100.0
 43
100.0
 50
270.0
  0
MTEXT
  5
17BDD
330
179A1
100
AcDbEntity
  8
寸法
 62
     7
 48
50.0
100
AcDbMText
 10
8535.742986982205
 20
3099.963665626821
 30
0.0
 40
120.0
 41
0.0
 71
     5
 72
     1
  1
\A1;2090
  7
STYLE1
 11
0.0000000000000001
 21
1.0
 31
0.0
 73
     1
 44
1.0
1001
ACAD
1000
MTEXTBEGIN
1070
    73
1070
     1
1070
    44
1040
1.0
1070
    74
1070
     0
1000
MTEXTEND
  0
POINT
  5
17BDE
330
179A1
100
AcDbEntity
  8
DEFPOINTS
 62
     0
 48
50.0
100
AcDbPoint
 10
9479.504927189086
 20
4144.96366562682
 30
0.0
  0
POINT
  5
17BDF
330
179A1
100
AcDbEntity
  8
DEFPOINTS
 62
     0
 48
50.0
100
AcDbPoint
 10
9479.504927189086
 20
2054.963665626818
 30
0.0
  0
POINT
  5
17BE0
330
179A1
100
AcDbEntity
  8
DEFPOINTS
 62
     0
 48
50.0
100
AcDbPoint
 10
8635.754798005825
 20
2054.963665626819
 30
0.0
  0
ENDBLK
  5
179AC
330
179A1
100
AcDbEntity
  8
0
 48
50.0
100
AcDbBlockEnd
  0
BLOCK
  5
17F2C
330
17F21
100
AcDbEntity
  8
0
 48
50.0
100
AcDbBlockBegin
  2
*D23
 70
     1
 10
0.0
 20
0.0
 30
0.0
  3
*D23
  1

  0
LINE
  5
1A9C2
330
17F21
100
AcDbEntity
  8
寸法
 62
     0
 48
50.0
370
    -2
100
AcDbLine
 10
6808.669036246687
 20
3979.963665626824
 30
0.0
 11
7136.212138568431
 21
3979.963665626824
 31
0.0
  0
LINE
  5
1A9C3
330
17F21
100
AcDbEntity
  8
寸法
 62
     0
 48
50.0
370
    -2
100
AcDbLine
 10
6808.669036246685
 20
4144.963665626823
 30
0.0
 11
7136.212138568431
 21
4144.963665626823
 31
0.0
  0
LINE
  5
1A9C4
330
17F21
100
AcDbEntity
  8
寸法
 62
     0
 48
50.0
370
    -2
100
AcDbLine
 10
7076.212138568433
 20
3979.963665626824
 30
0.0
 11
7076.212138568433
 21
4144.963665626823
 31
0.0
  0
LINE
  5
1A9C5
330
17F21
100
AcDbEntity
  8
寸法
 62
     0
 48
50.0
370
    -2
100
AcDbLine
 10
7076.212138568433
 20
4144.963665626823
 30
0.0
 11
7076.212138568433
 21
4521.934228375299
 31
0.0
  0
INSERT
  5
1A9C6
330
17F21
100
AcDbEntity
  8
寸法
 62
     0
 48
50.0
370
    -2
100
AcDbBlockReference
  2
_DOTSMALL
 10
7076.212138568433
 20
3979.963665626824
 30
0.0
 41
100.0
 42
100.0
 43
100.0
 50
270.0
  0
INSERT
  5
1A9C7
330
17F21
100
AcDbEntity
  8
寸法
 62
     0
 48
50.0
370
    -2
100
AcDbBlockReference
  2
_DOTSMALL
 10
7076.212138568433
 20
4144.963665626823
 30
0.0
 41
100.0
 42
100.0
 43
100.0
 50
90.0
  0
MTEXT
  5
1A9C8
330
17F21
100
AcDbEntity
  8
寸法
 62
     7
 48
50.0
100
AcDbMText
 10
6976.212138568431
 20
4383.448947001062
 30
0.0
 40
120.0
 41
0.0
 71
     5
 72
     1
  1
\A1;165
  7
STYLE1
 11
0.0000000000000001
 21
1.0
 31
0.0
 73
     1
 44
1.0
1001
ACAD
1000
MTEXTBEGIN
1070
    73
1070
     1
1070
    44
1040
1.0
1070
    74
1070
     0
1000
MTEXTEND
  0
POINT
  5
1A9C9
330
17F21
100
AcDbEntity
  8
DEFPOINTS
 62
     0
 48
50.0
100
AcDbPoint
 10
6788.669036246687
 20
3979.963665626824
 30
0.0
  0
POINT
  5
1A9CA
330
17F21
100
AcDbEntity
  8
DEFPOINTS
 62
     0
 48
50.0
100
AcDbPoint
 10
6788.669036246685
 20
4144.963665626823
 30
0.0
  0
POINT
  5
1A9CB
330
17F21
100
AcDbEntity
  8
DEFPOINTS
 62
     0
 48
50.0
100
AcDbPoint
 10
7076.212138568433
 20
4144.963665626823
 30
0.0
  0
ENDBLK
  5
17F2D
330
17F21
100
AcDbEntity
  8
0
 48
50.0
100
AcDbBlockEnd
  0
BLOCK
  5
17F3A
330
17F2E
100
AcDbEntity
  8
0
 48
50.0
100
AcDbBlockBegin
  2
*D24
 70
     1
 10
0.0
 20
0.0
 30
0.0
  3
*D24
  1

  0
LINE
  5
1A9B7
330
17F2E
100
AcDbEntity
  8
寸法
 62
     0
 48
50.0
370
    -2
100
AcDbLine
 10
6808.669036246687
 20
3952.963665626823
 30
0.0
 11
7136.212138568431
 21
3952.963665626823
 31
0.0
  0
LINE
  5
1A9B8
330
17F2E
100
AcDbEntity
  8
寸法
 62
     0
 48
50.0
370
    -2
100
AcDbLine
 10
6808.669036246687
 20
3979.963665626824
 30
0.0
 11
7136.212138568431
 21
3979.963665626824
 31
0.0
  0
LINE
  5
1A9B9
330
17F2E
100
AcDbEntity
  8
寸法
 62
     0
 48
50.0
370
    -2
100
AcDbLine
 10
7076.212138568431
 20
3952.963665626823
 30
0.0
 11
7076.212138568431
 21
3852.963665626822
 31
0.0
  0
LINE
  5
1A9BA
330
17F2E
100
AcDbEntity
  8
寸法
 62
     0
 48
50.0
370
    -2
100
AcDbLine
 10
7076.212138568431
 20
3979.963665626824
 30
0.0
 11
7076.212138568431
 21
4079.963665626823
 31
0.0
  0
MTEXT
  5
1A9BB
330
17F2E
100
AcDbEntity
  8
寸法
 62
     7
 48
50.0
100
AcDbMText
 10
7216.381961814796
 20
3980.930865466482
 30
0.0
 40
120.0
 41
0.0
 71
     5
 72
     1
  1
\A1;27
  7
STYLE1
 11
0.0000000000000001
 21
1.0
 31
0.0
 73
     1
 44
1.0
1001
ACAD
1000
MTEXTBEGIN
1070
    73
1070
     1
1070
    44
1040
1.0
1070
    74
1070
     0
1000
MTEXTEND
  0
LINE
  5
1A9BC
330
17F2E
100
AcDbEntity
  8
寸法
 62
     0
 48
50.0
370
    -2
100
AcDbLine
 10
7076.212138568431
 20
3952.963665626823
 30
0.0
 11
7076.212138568431
 21
3979.963665626824
 31
0.0
  0
INSERT
  5
1A9BD
330
17F2E
100
AcDbEntity
  8
寸法
 62
     0
 48
50.0
370
    -2
100
AcDbBlockReference
  2
_DOTSMALL
 10
7076.212138568431
 20
3952.963665626823
 30
0.0
 41
100.0
 42
100.0
 43
100.0
 50
90.0
  0
INSERT
  5
1A9BE
330
17F2E
100
AcDbEntity
  8
寸法
 62
     0
 48
50.0
370
    -2
100
AcDbBlockReference
  2
_DOTSMALL
 10
7076.212138568431
 20
3979.963665626824
 30
0.0
 41
100.0
 42
100.0
 43
100.0
 50
270.0
  0
POINT
  5
1A9BF
330
17F2E
100
AcDbEntity
  8
DEFPOINTS
 62
     0
 48
50.0
100
AcDbPoint
 10
6788.669036246687
 20
3952.963665626823
 30
0.0
  0
POINT
  5
1A9C0
330
17F2E
100
AcDbEntity
  8
DEFPOINTS
 62
     0
 48
50.0
100
AcDbPoint
 10
6788.669036246687
 20
3979.963665626824
 30
0.0
  0
POINT
  5
1A9C1
330
17F2E
100
AcDbEntity
  8
DEFPOINTS
 62
     0
 48
50.0
100
AcDbPoint
 10
7076.212138568431
 20
3979.963665626824
 30
0.0
  0
ENDBLK
  5
17F3B
330
17F2E
100
AcDbEntity
  8
0
 48
50.0
100
AcDbBlockEnd
  0
BLOCK
  5
17F46
330
17F3C
100
AcDbEntity
  8
0
 48
50.0
100
AcDbBlockBegin
  2
*D25
 70
     1
 10
0.0
 20
0.0
 30
0.0
  3
*D25
  1

  0
LINE
  5
1A697
330
17F3C
100
AcDbEntity
  8
寸法
 62
     0
 48
50.0
370
    -2
100
AcDbLine
 10
6808.669036246685
 20
2004.963665626819
 30
0.0
 11
7136.21213856843
 21
2004.963665626819
 31
0.0
  0
LINE
  5
1A698
330
17F3C
100
AcDbEntity
  8
寸法
 62
     0
 48
50.0
370
    -2
100
AcDbLine
 10
6808.669036246687
 20
3952.963665626823
 30
0.0
 11
7136.212138568431
 21
3952.963665626823
 31
0.0
  0
LINE
  5
1A699
330
17F3C
100
AcDbEntity
  8
寸法
 62
     0
 48
50.0
370
    -2
100
AcDbLine
 10
7076.212138568431
 20
2004.963665626819
 30
0.0
 11
7076.212138568431
 21
3952.963665626823
 31
0.0
  0
INSERT
  5
1A69A
330
17F3C
100
AcDbEntity
  8
寸法
 62
     0
 48
50.0
370
    -2
100
AcDbBlockReference
  2
_DOTSMALL
 10
7076.212138568431
 20
2004.963665626819
 30
0.0
 41
100.0
 42
100.0
 43
100.0
 50
270.0
  0
INSERT
  5
1A69B
330
17F3C
100
AcDbEntity
  8
寸法
 62
     0
 48
50.0
370
    -2
100
AcDbBlockReference
  2
_DOTSMALL
 10
7076.212138568431
 20
3952.963665626823
 30
0.0
 41
100.0
 42
100.0
 43
100.0
 50
90.0
  0
MTEXT
  5
1A69C
330
17F3C
100
AcDbEntity
  8
寸法
 62
     7
 48
50.0
100
AcDbMText
 10
6976.212138568431
 20
2978.963665626822
 30
0.0
 40
120.0
 41
0.0
 71
     5
 72
     1
  1
\A1;有効開口部高サ 1948
  7
STYLE1
 11
0.0000000000000001
 21
1.0
 31
0.0
 73
     1
 44
1.0
1001
ACAD
1000
MTEXTBEGIN
1070
    73
1070
     1
1070
    44
1040
1.0
1070
    74
1070
     0
1000
MTEXTEND
  0
POINT
  5
1A69D
330
17F3C
100
AcDbEntity
  8
DEFPOINTS
 62
     0
 48
50.0
100
AcDbPoint
 10
6788.669036246685
 20
2004.963665626819
 30
0.0
  0
POINT
  5
1A69E
330
17F3C
100
AcDbEntity
  8
DEFPOINTS
 62
     0
 48
50.0
100
AcDbPoint
 10
6788.669036246687
 20
3952.963665626823
 30
0.0
  0
POINT
  5
1A69F
330
17F3C
100
AcDbEntity
  8
DEFPOINTS
 62
     0
 48
50.0
100
AcDbPoint
 10
7076.212138568431
 20
3952.963665626823
 30
0.0
  0
ENDBLK
  5
17F47
330
17F3C
100
AcDbEntity
  8
0
 48
50.0
100
AcDbBlockEnd
  0
BLOCK
  5
19B0F
330
19B05
100
AcDbEntity
  8
0
 48
50.0
100
AcDbBlockBegin
  2
*D26
 70
     1
 10
0.0
 20
0.0
 30
0.0
  3
*D26
  1

  0
LINE
  5
19B29
330
19B05
100
AcDbEntity
  8
寸法
 62
     0
 48
50.0
370
    -2
100
AcDbLine
 10
4181.810052398072
 20
9532.497424545868
 30
0.0
 11
4091.365275993905
 21
9194.952923726315
 31
0.0
  0
LINE
  5
19B2A
330
19B05
100
AcDbEntity
  8
寸法
 62
     0
 48
50.0
370
    -2
100
AcDbLine
 10
5454.810052398083
 20
9532.49742454586
 30
0.0
 11
5364.365275993918
 21
9194.952923726315
 31
0.0
  0
LINE
  5
19B2B
330
19B05
100
AcDbEntity
  8
寸法
 62
     0
 48
50.0
370
    -2
100
AcDbLine
 10
4107.442227539773
 20
9254.952923726314
 30
0.0
 11
5380.442227539785
 21
9254.952923726314
 31
0.0
  0
INSERT
  5
19B2C
330
19B05
100
AcDbEntity
  8
寸法
 62
     0
 48
50.0
370
    -2
100
AcDbBlockReference
  2
_DOTSMALL
 10
4107.442227539773
 20
9254.952923726314
 30
0.0
 41
100.0
 42
100.0
 43
100.0
 50
180.0
  0
INSERT
  5
19B2D
330
19B05
100
AcDbEntity
  8
寸法
 62
     0
 48
50.0
370
    -2
100
AcDbBlockReference
  2
_DOTSMALL
 10
5380.442227539785
 20
9254.952923726314
 30
0.0
 41
100.0
 42
100.0
 43
100.0
  0
MTEXT
  5
19B2E
330
19B05
100
AcDbEntity
  8
寸法
 62
     7
 48
50.0
100
AcDbMText
 10
4763.159179075264
 20
9354.964734749936
 30
0.0
 40
120.0
 41
0.0
 71
     5
 72
     1
  1
\A1;1273
  7
STYLE1
 73
     1
 44
1.0
1001
ACAD
1000
MTEXTBEGIN
1070
    73
1070
     1
1070
    44
1040
1.0
1070
    74
1070
     0
1000
MTEXTEND
  0
POINT
  5
19B2F
330
19B05
100
AcDbEntity
  8
DEFPOINTS
 62
     0
 48
50.0
100
AcDbPoint
 10
4187.169036246694
 20
9552.497424545867
 30
0.0
  0
POINT
  5
19B30
330
19B05
100
AcDbEntity
  8
DEFPOINTS
 62
     0
 48
50.0
100
AcDbPoint
 10
5460.169036246705
 20
9552.49742454586
 30
0.0
  0
POINT
  5
19B31
330
19B05
100
AcDbEntity
  8
DEFPOINTS
 62
     0
 48
50.0
100
AcDbPoint
 10
5380.442227539785
 20
9254.952923726314
 30
0.0
  0
ENDBLK
  5
19B10
330
19B05
100
AcDbEntity
  8
0
 48
50.0
100
AcDbBlockEnd
  0
BLOCK
  5
19B1B
330
19B11
100
AcDbEntity
  8
0
 48
50.0
100
AcDbBlockBegin
  2
*D27
 70
     1
 10
0.0
 20
0.0
 30
0.0
  3
*D27
  1

  0
LINE
  5
19DBA
330
19B11
100
AcDbEntity
  8
寸法
 62
     0
 48
50.0
370
    -2
100
AcDbLine
 10
6780.169036246694
 20
9997.138440697343
 30
0.0
 11
7297.304748423529
 21
9858.572344242267
 31
0.0
  0
LINE
  5
19DBB
330
19B11
100
AcDbEntity
  8
寸法
 62
     0
 48
50.0
370
    -2
100
AcDbLine
 10
6780.169036246694
 20
9547.138440697347
 30
0.0
 11
7297.304748423529
 21
9408.572344242269
 31
0.0
  0
LINE
  5
19DBC
330
19B11
100
AcDbEntity
  8
寸法
 62
     0
 48
50.0
370
    -2
100
AcDbLine
 10
7237.30474842353
 20
9874.649295788135
 30
0.0
 11
7237.30474842353
 21
9424.649295788139
 31
0.0
  0
INSERT
  5
19DBD
330
19B11
100
AcDbEntity
  8
寸法
 62
     0
 48
50.0
370
    -2
100
AcDbBlockReference
  2
_DOTSMALL
 10
7237.30474842353
 20
9874.649295788135
 30
0.0
 41
100.0
 42
100.0
 43
100.0
 50
90.0
  0
INSERT
  5
19DBE
330
19B11
100
AcDbEntity
  8
寸法
 62
     0
 48
50.0
370
    -2
100
AcDbBlockReference
  2
_DOTSMALL
 10
7237.30474842353
 20
9424.649295788139
 30
0.0
 41
100.0
 42
100.0
 43
100.0
 50
270.0
  0
MTEXT
  5
19DBF
330
19B11
100
AcDbEntity
  8
寸法
 62
     7
 48
50.0
100
AcDbMText
 10
7137.304748423528
 20
9690.817875743546
 30
0.0
 40
120.0
 41
0.0
 71
     5
 72
     1
  1
\A1;450
  7
STYLE1
 11
0.0000000000000001
 21
1.0
 31
0.0
 73
     1
 44
1.0
1001
ACAD
1000
MTEXTBEGIN
1070
    73
1070
     1
1070
    44
1040
1.0
1070
    74
1070
     0
1000
MTEXTEND
  0
POINT
  5
19DC0
330
19B11
100
AcDbEntity
  8
DEFPOINTS
 62
     0
 48
50.0
100
AcDbPoint
 10
6760.169036246693
 20
10002.49742454596
 30
0.0
  0
POINT
  5
19DC1
330
19B11
100
AcDbEntity
  8
DEFPOINTS
 62
     0
 48
50.0
100
AcDbPoint
 10
6760.169036246693
 20
9552.497424545968
 30
0.0
  0
POINT
  5
19DC2
330
19B11
100
AcDbEntity
  8
DEFPOINTS
 62
     0
 48
50.0
100
AcDbPoint
 10
7237.30474842353
 20
9424.649295788139
 30
0.0
  0
ENDBLK
  5
19B1C
330
19B11
100
AcDbEntity
  8
0
 48
50.0
100
AcDbBlockEnd
  0
BLOCK
  5
19B27
330
19B1D
100
AcDbEntity
  8
0
 48
50.0
100
AcDbBlockBegin
  2
*D28
 70
     1
 10
0.0
 20
0.0
 30
0.0
  3
*D28
  1

  0
LINE
  5
19B3B
330
19B1D
100
AcDbEntity
  8
寸法
 62
     0
 48
50.0
370
    -2
100
AcDbLine
 10
5481.810052398071
 20
9532.497424545976
 30
0.0
 11
5391.365275993877
 21
9194.952923726315
 31
0.0
  0
LINE
  5
19B3C
330
19B1D
100
AcDbEntity
  8
寸法
 62
     0
 48
50.0
370
    -2
100
AcDbLine
 10
6754.810052398084
 20
9532.497424545969
 30
0.0
 11
6664.36527599389
 21
9194.952923726315
 31
0.0
  0
LINE
  5
19B3D
330
19B1D
100
AcDbEntity
  8
寸法
 62
     0
 48
50.0
370
    -2
100
AcDbLine
 10
5407.442227539744
 20
9254.952923726314
 30
0.0
 11
6680.442227539757
 21
9254.952923726314
 31
0.0
  0
INSERT
  5
19B3E
330
19B1D
100
AcDbEntity
  8
寸法
 62
     0
 48
50.0
370
    -2
100
AcDbBlockReference
  2
_DOTSMALL
 10
5407.442227539744
 20
9254.952923726314
 30
0.0
 41
100.0
 42
100.0
 43
100.0
 50
180.0
  0
INSERT
  5
19B3F
330
19B1D
100
AcDbEntity
  8
寸法
 62
     0
 48
50.0
370
    -2
100
AcDbBlockReference
  2
_DOTSMALL
 10
6680.442227539757
 20
9254.952923726314
 30
0.0
 41
100.0
 42
100.0
 43
100.0
  0
MTEXT
  5
19B40
330
19B1D
100
AcDbEntity
  8
寸法
 62
     7
 48
50.0
100
AcDbMText
 10
6091.390312048159
 20
9354.964734749936
 30
0.0
 40
120.0
 41
0.0
 71
     5
 72
     1
  1
\A1;1273
  7
STYLE1
 73
     1
 44
1.0
1001
ACAD
1000
MTEXTBEGIN
1070
    73
1070
     1
1070
    44
1040
1.0
1070
    74
1070
     0
1000
MTEXTEND
  0
POINT
  5
19B41
330
19B1D
100
AcDbEntity
  8
DEFPOINTS
 62
     0
 48
50.0
100
AcDbPoint
 10
5487.169036246694
 20
9552.497424545975
 30
0.0
  0
POINT
  5
19B42
330
19B1D
100
AcDbEntity
  8
DEFPOINTS
 62
     0
 48
50.0
100
AcDbPoint
 10
6760.169036246705
 20
9552.497424545968
 30
0.0
  0
POINT
  5
19B43
330
19B1D
100
AcDbEntity
  8
DEFPOINTS
 62
     0
 48
50.0
100
AcDbPoint
 10
6680.442227539757
 20
9254.952923726314
 30
0.0
  0
ENDBLK
  5
19B28
330
19B1D
100
AcDbEntity
  8
0
 48
50.0
100
AcDbBlockEnd
  0
BLOCK
  5
1A5FE
330
1A5F2
100
AcDbEntity
  8
0
 48
50.0
100
AcDbBlockBegin
  2
*D29
 70
     1
 10
0.0
 20
0.0
 30
0.0
  3
*D29
  1

  0
LINE
  5
1A641
330
1A5F2
100
AcDbEntity
  8
寸法
 62
     0
 48
50.0
370
    -2
100
AcDbLine
 10
4213.669036246681
 20
6962.497424545901
 30
0.0
 11
4213.669036246681
 21
6388.066653779738
 31
0.0
  0
LINE
  5
1A642
330
1A5F2
100
AcDbEntity
  8
寸法
 62
     0
 48
50.0
370
    -2
100
AcDbLine
 10
4158.669036246685
 20
6962.497424545898
 30
0.0
 11
4158.669036246685
 21
6388.066653779738
 31
0.0
  0
LINE
  5
1A643
330
1A5F2
100
AcDbEntity
  8
寸法
 62
     0
 48
50.0
370
    -2
100
AcDbLine
 10
4213.669036246681
 20
6448.066653779737
 30
0.0
 11
4313.669036246682
 21
6448.066653779737
 31
0.0
  0
LINE
  5
1A644
330
1A5F2
100
AcDbEntity
  8
寸法
 62
     0
 48
50.0
370
    -2
100
AcDbLine
 10
4158.669036246685
 20
6448.066653779737
 30
0.0
 11
3741.698473498208
 21
6448.066653779737
 31
0.0
  0
LINE
  5
1A645
330
1A5F2
100
AcDbEntity
  8
寸法
 62
     0
 48
50.0
370
    -2
100
AcDbLine
 10
4213.669036246681
 20
6448.066653779737
 30
0.0
 11
4158.669036246685
 21
6448.066653779737
 31
0.0
  0
INSERT
  5
1A646
330
1A5F2
100
AcDbEntity
  8
寸法
 62
     0
 48
50.0
370
    -2
100
AcDbBlockReference
  2
_DOTSMALL
 10
4213.669036246681
 20
6448.066653779737
 30
0.0
 41
100.0
 42
100.0
 43
100.0
 50
180.0
  0
INSERT
  5
1A647
330
1A5F2
100
AcDbEntity
  8
寸法
 62
     0
 48
50.0
370
    -2
100
AcDbBlockReference
  2
_DOTSMALL
 10
4158.669036246685
 20
6448.066653779737
 30
0.0
 41
100.0
 42
100.0
 43
100.0
  0
MTEXT
  5
1A648
330
1A5F2
100
AcDbEntity
  8
寸法
 62
     7
 48
50.0
100
AcDbMText
 10
3850.183754872447
 20
6548.066653779738
 30
0.0
 40
120.0
 41
0.0
 71
     5
 72
     1
  1
\A1;55
  7
STYLE1
 73
     1
 44
1.0
1001
ACAD
1000
MTEXTBEGIN
1070
    73
1070
     1
1070
    44
1040
1.0
1070
    74
1070
     0
1000
MTEXTEND
  0
POINT
  5
1A649
330
1A5F2
100
AcDbEntity
  8
DEFPOINTS
 62
     0
 48
50.0
100
AcDbPoint
 10
4213.669036246681
 20
6982.497424545901
 30
0.0
  0
POINT
  5
1A64A
330
1A5F2
100
AcDbEntity
  8
DEFPOINTS
 62
     0
 48
50.0
100
AcDbPoint
 10
4158.669036246685
 20
6982.497424545897
 30
0.0
  0
POINT
  5
1A64B
330
1A5F2
100
AcDbEntity
  8
DEFPOINTS
 62
     0
 48
50.0
100
AcDbPoint
 10
4158.669036246685
 20
6448.066653779737
 30
0.0
  0
ENDBLK
  5
1A5FF
330
1A5F2
100
AcDbEntity
  8
0
 48
50.0
100
AcDbBlockEnd
  0
BLOCK
  5
1A60C
330
1A600
100
AcDbEntity
  8
0
 48
50.0
100
AcDbBlockBegin
  2
*D30
 70
     1
 10
0.0
 20
0.0
 30
0.0
  3
*D30
  1

  0
LINE
  5
1A64C
330
1A600
100
AcDbEntity
  8
寸法
 62
     0
 48
50.0
370
    -2
100
AcDbLine
 10
4261.669036246686
 20
6988.497424545902
 30
0.0
 11
4261.669036246686
 21
6388.066653779738
 31
0.0
  0
LINE
  5
1A64D
330
1A600
100
AcDbEntity
  8
寸法
 62
     0
 48
50.0
370
    -2
100
AcDbLine
 10
4213.669036246681
 20
6962.497424545901
 30
0.0
 11
4213.669036246681
 21
6388.066653779738
 31
0.0
  0
LINE
  5
1A64E
330
1A600
100
AcDbEntity
  8
寸法
 62
     0
 48
50.0
370
    -2
100
AcDbLine
 10
4261.669036246686
 20
6448.066653779737
 30
0.0
 11
4361.669036246685
 21
6448.066653779737
 31
0.0
  0
LINE
  5
1A64F
330
1A600
100
AcDbEntity
  8
寸法
 62
     0
 48
50.0
370
    -2
100
AcDbLine
 10
4213.669036246681
 20
6448.066653779737
 30
0.0
 11
4113.669036246681
 21
6448.066653779737
 31
0.0
  0
MTEXT
  5
1A650
330
1A600
100
AcDbEntity
  8
寸法
 62
     7
 48
50.0
100
AcDbMText
 10
4374.571007246742
 20
6548.066653779738
 30
0.0
 40
120.0
 41
0.0
 71
     5
 72
     1
  1
\A1;48
  7
STYLE1
 73
     1
 44
1.0
1001
ACAD
1000
MTEXTBEGIN
1070
    73
1070
     1
1070
    44
1040
1.0
1070
    74
1070
     0
1000
MTEXTEND
  0
LINE
  5
1A651
330
1A600
100
AcDbEntity
  8
寸法
 62
     0
 48
50.0
370
    -2
100
AcDbLine
 10
4261.669036246686
 20
6448.066653779737
 30
0.0
 11
4213.669036246681
 21
6448.066653779737
 31
0.0
  0
INSERT
  5
1A652
330
1A600
100
AcDbEntity
  8
寸法
 62
     0
 48
50.0
370
    -2
100
AcDbBlockReference
  2
_DOTSMALL
 10
4261.669036246686
 20
6448.066653779737
 30
0.0
 41
100.0
 42
100.0
 43
100.0
 50
180.0
  0
INSERT
  5
1A653
330
1A600
100
AcDbEntity
  8
寸法
 62
     0
 48
50.0
370
    -2
100
AcDbBlockReference
  2
_DOTSMALL
 10
4213.669036246681
 20
6448.066653779737
 30
0.0
 41
100.0
 42
100.0
 43
100.0
  0
POINT
  5
1A654
330
1A600
100
AcDbEntity
  8
DEFPOINTS
 62
     0
 48
50.0
100
AcDbPoint
 10
4261.669036246686
 20
7008.497424545902
 30
0.0
  0
POINT
  5
1A655
330
1A600
100
AcDbEntity
  8
DEFPOINTS
 62
     0
 48
50.0
100
AcDbPoint
 10
4213.669036246681
 20
6982.497424545901
 30
0.0
  0
POINT
  5
1A656
330
1A600
100
AcDbEntity
  8
DEFPOINTS
 62
     0
 48
50.0
100
AcDbPoint
 10
4213.669036246681
 20
6448.066653779737
 30
0.0
  0
ENDBLK
  5
1A60D
330
1A600
100
AcDbEntity
  8
0
 48
50.0
100
AcDbBlockEnd
  0
BLOCK
  5
1A617
330
1A60E
100
AcDbEntity
  8
0
 48
50.0
100
AcDbBlockBegin
  2
*D31
 70
     1
 10
0.0
 20
0.0
 30
0.0
  3
*D31
  1

  0
LINE
  5
1A657
330
1A60E
100
AcDbEntity
  8
寸法
 62
     0
 48
50.0
370
    -2
100
AcDbLine
 10
4261.669036246686
 20
6988.497424545902
 30
0.0
 11
4261.669036246686
 21
6388.066653779738
 31
0.0
  0
LINE
  5
1A658
330
1A60E
100
AcDbEntity
  8
寸法
 62
     0
 48
50.0
370
    -2
100
AcDbLine
 10
6685.669036246666
 20
6448.066653779737
 30
0.0
 11
4261.669036246686
 21
6448.066653779737
 31
0.0
  0
INSERT
  5
1A659
330
1A60E
100
AcDbEntity
  8
寸法
 62
     0
 48
50.0
370
    -2
100
AcDbBlockReference
  2
_DOTSMALL
 10
6685.669036246666
 20
6448.066653779737
 30
0.0
 41
100.0
 42
100.0
 43
100.0
  0
INSERT
  5
1A65A
330
1A60E
100
AcDbEntity
  8
寸法
 62
     0
 48
50.0
370
    -2
100
AcDbBlockReference
  2
_DOTSMALL
 10
4261.669036246686
 20
6448.066653779737
 30
0.0
 41
100.0
 42
100.0
 43
100.0
 50
180.0
  0
MTEXT
  5
1A65B
330
1A60E
100
AcDbEntity
  8
寸法
 62
     7
 48
50.0
100
AcDbMText
 10
5473.669036246676
 20
6548.078464803359
 30
0.0
 40
120.0
 41
0.0
 71
     5
 72
     1
  1
\A1;有効開口部間口 2424
  7
STYLE1
 73
     1
 44
1.0
1001
ACAD
1000
MTEXTBEGIN
1070
    73
1070
     1
1070
    44
1040
1.0
1070
    74
1070
     0
1000
MTEXTEND
  0
POINT
  5
1A65C
330
1A60E
100
AcDbEntity
  8
DEFPOINTS
 62
     0
 48
50.0
100
AcDbPoint
 10
6685.669036246666
 20
7008.497424545902
 30
0.0
  0
POINT
  5
1A65D
330
1A60E
100
AcDbEntity
  8
DEFPOINTS
 62
     0
 48
50.0
100
AcDbPoint
 10
4261.669036246686
 20
7008.497424545902
 30
0.0
  0
POINT
  5
1A65E
330
1A60E
100
AcDbEntity
  8
DEFPOINTS
 62
     0
 48
50.0
100
AcDbPoint
 10
4261.669036246686
 20
6448.066653779737
 30
0.0
  0
ENDBLK
  5
1A618
330
1A60E
100
AcDbEntity
  8
0
 48
50.0
100
AcDbBlockEnd
  0
BLOCK
  5
1A625
330
1A619
100
AcDbEntity
  8
0
 48
50.0
100
AcDbBlockBegin
  2
*D32
 70
     1
 10
0.0
 20
0.0
 30
0.0
  3
*D32
  1

  0
LINE
  5
1A65F
330
1A619
100
AcDbEntity
  8
寸法
 62
     0
 48
50.0
370
    -2
100
AcDbLine
 10
6733.669036246668
 20
6962.49742454599
 30
0.0
 11
6733.669036246668
 21
6388.066653779738
 31
0.0
  0
LINE
  5
1A660
330
1A619
100
AcDbEntity
  8
寸法
 62
     0
 48
50.0
370
    -2
100
AcDbLine
 10
6685.669036246666
 20
6988.497424545902
 30
0.0
 11
6685.669036246666
 21
6388.066653779738
 31
0.0
  0
LINE
  5
1A661
330
1A619
100
AcDbEntity
  8
寸法
 62
     0
 48
50.0
370
    -2
100
AcDbLine
 10
6733.669036246668
 20
6448.066653779737
 30
0.0
 11
6833.669036246668
 21
6448.066653779737
 31
0.0
  0
LINE
  5
1A662
330
1A619
100
AcDbEntity
  8
寸法
 62
     0
 48
50.0
370
    -2
100
AcDbLine
 10
6685.669036246666
 20
6448.066653779737
 30
0.0
 11
6585.669036246667
 21
6448.066653779737
 31
0.0
  0
MTEXT
  5
1A663
330
1A619
100
AcDbEntity
  8
寸法
 62
     7
 48
50.0
100
AcDbMText
 10
6574.706138597919
 20
6548.066653779738
 30
0.0
 40
120.0
 41
0.0
 71
     5
 72
     1
  1
\A1;48
  7
STYLE1
 73
     1
 44
1.0
1001
ACAD
1000
MTEXTBEGIN
1070
    73
1070
     1
1070
    44
1040
1.0
1070
    74
1070
     0
1000
MTEXTEND
  0
LINE
  5
1A664
330
1A619
100
AcDbEntity
  8
寸法
 62
     0
 48
50.0
370
    -2
100
AcDbLine
 10
6733.669036246668
 20
6448.066653779737
 30
0.0
 11
6685.669036246666
 21
6448.066653779737
 31
0.0
  0
INSERT
  5
1A665
330
1A619
100
AcDbEntity
  8
寸法
 62
     0
 48
50.0
370
    -2
100
AcDbBlockReference
  2
_DOTSMALL
 10
6733.669036246668
 20
6448.066653779737
 30
0.0
 41
100.0
 42
100.0
 43
100.0
 50
180.0
  0
INSERT
  5
1A666
330
1A619
100
AcDbEntity
  8
寸法
 62
     0
 48
50.0
370
    -2
100
AcDbBlockReference
  2
_DOTSMALL
 10
6685.669036246666
 20
6448.066653779737
 30
0.0
 41
100.0
 42
100.0
 43
100.0
  0
POINT
  5
1A667
330
1A619
100
AcDbEntity
  8
DEFPOINTS
 62
     0
 48
50.0
100
AcDbPoint
 10
6733.669036246668
 20
6982.497424545988
 30
0.0
  0
POINT
  5
1A668
330
1A619
100
AcDbEntity
  8
DEFPOINTS
 62
     0
 48
50.0
100
AcDbPoint
 10
6685.669036246666
 20
7008.497424545902
 30
0.0
  0
POINT
  5
1A669
330
1A619
100
AcDbEntity
  8
DEFPOINTS
 62
     0
 48
50.0
100
AcDbPoint
 10
6685.669036246666
 20
6448.066653779737
 30
0.0
  0
ENDBLK
  5
1A626
330
1A619
100
AcDbEntity
  8
0
 48
50.0
100
AcDbBlockEnd
  0
BLOCK
  5
1A633
330
1A627
100
AcDbEntity
  8
0
 48
50.0
100
AcDbBlockBegin
  2
*D33
 70
     1
 10
0.0
 20
0.0
 30
0.0
  3
*D33
  1

  0
LINE
  5
1A66A
330
1A627
100
AcDbEntity
  8
寸法
 62
     0
 48
50.0
370
    -2
100
AcDbLine
 10
6788.669036246666
 20
6962.497424545992
 30
0.0
 11
6788.669036246666
 21
6388.066653779738
 31
0.0
  0
LINE
  5
1A66B
330
1A627
100
AcDbEntity
  8
寸法
 62
     0
 48
50.0
370
    -2
100
AcDbLine
 10
6733.669036246668
 20
6962.49742454599
 30
0.0
 11
6733.669036246668
 21
6388.066653779738
 31
0.0
  0
LINE
  5
1A66C
330
1A627
100
AcDbEntity
  8
寸法
 62
     0
 48
50.0
370
    -2
100
AcDbLine
 10
6733.669036246668
 20
6448.066653779737
 30
0.0
 11
6633.669036246669
 21
6448.066653779737
 31
0.0
  0
LINE
  5
1A66D
330
1A627
100
AcDbEntity
  8
寸法
 62
     0
 48
50.0
370
    -2
100
AcDbLine
 10
6788.669036246666
 20
6448.066653779737
 30
0.0
 11
7205.639598995144
 21
6448.066653779737
 31
0.0
  0
LINE
  5
1A66E
330
1A627
100
AcDbEntity
  8
寸法
 62
     0
 48
50.0
370
    -2
100
AcDbLine
 10
6733.669036246668
 20
6448.066653779737
 30
0.0
 11
6788.669036246666
 21
6448.066653779737
 31
0.0
  0
INSERT
  5
1A66F
330
1A627
100
AcDbEntity
  8
寸法
 62
     0
 48
50.0
370
    -2
100
AcDbBlockReference
  2
_DOTSMALL
 10
6733.669036246668
 20
6448.066653779737
 30
0.0
 41
100.0
 42
100.0
 43
100.0
  0
INSERT
  5
1A670
330
1A627
100
AcDbEntity
  8
寸法
 62
     0
 48
50.0
370
    -2
100
AcDbBlockReference
  2
_DOTSMALL
 10
6788.669036246666
 20
6448.066653779737
 30
0.0
 41
100.0
 42
100.0
 43
100.0
 50
180.0
  0
MTEXT
  5
1A671
330
1A627
100
AcDbEntity
  8
寸法
 62
     7
 48
50.0
100
AcDbMText
 10
7097.154317620905
 20
6548.066653779738
 30
0.0
 40
120.0
 41
0.0
 71
     5
 72
     1
  1
\A1;55
  7
STYLE1
 73
     1
 44
1.0
1001
ACAD
1000
MTEXTBEGIN
1070
    73
1070
     1
1070
    44
1040
1.0
1070
    74
1070
     0
1000
MTEXTEND
  0
POINT
  5
1A672
330
1A627
100
AcDbEntity
  8
DEFPOINTS
 62
     0
 48
50.0
100
AcDbPoint
 10
6788.669036246666
 20
6982.497424545993
 30
0.0
  0
POINT
  5
1A673
330
1A627
100
AcDbEntity
  8
DEFPOINTS
 62
     0
 48
50.0
100
AcDbPoint
 10
6733.669036246668
 20
6982.497424545988
 30
0.0
  0
POINT
  5
1A674
330
1A627
100
AcDbEntity
  8
DEFPOINTS
 62
     0
 48
50.0
100
AcDbPoint
 10
6733.669036246668
 20
6448.066653779737
 30
0.0
  0
ENDBLK
  5
1A634
330
1A627
100
AcDbEntity
  8
0
 48
50.0
100
AcDbBlockEnd
  0
BLOCK
  5
1A63F
330
1A635
100
AcDbEntity
  8
0
 48
50.0
100
AcDbBlockBegin
  2
*D34
 70
     1
 10
0.0
 20
0.0
 30
0.0
  3
*D34
  1

  0
LINE
  5
1A675
330
1A635
100
AcDbEntity
  8
寸法
 62
     0
 48
50.0
370
    -2
100
AcDbLine
 10
4158.669036246685
 20
6962.497424545829
 30
0.0
 11
4158.669036246685
 21
6101.893658188863
 31
0.0
  0
LINE
  5
1A676
330
1A635
100
AcDbEntity
  8
寸法
 62
     0
 48
50.0
370
    -2
100
AcDbLine
 10
6788.669036246666
 20
6962.497424545957
 30
0.0
 11
6788.669036246666
 21
6101.893658188863
 31
0.0
  0
LINE
  5
1A677
330
1A635
100
AcDbEntity
  8
寸法
 62
     0
 48
50.0
370
    -2
100
AcDbLine
 10
4158.669036246685
 20
6161.893658188863
 30
0.0
 11
6788.669036246666
 21
6161.893658188863
 31
0.0
  0
INSERT
  5
1A678
330
1A635
100
AcDbEntity
  8
寸法
 62
     0
 48
50.0
370
    -2
100
AcDbBlockReference
  2
_DOTSMALL
 10
4158.669036246685
 20
6161.893658188863
 30
0.0
 41
100.0
 42
100.0
 43
100.0
 50
180.0
  0
INSERT
  5
1A679
330
1A635
100
AcDbEntity
  8
寸法
 62
     0
 48
50.0
370
    -2
100
AcDbBlockReference
  2
_DOTSMALL
 10
6788.669036246666
 20
6161.893658188863
 30
0.0
 41
100.0
 42
100.0
 43
100.0
  0
MTEXT
  5
1A67A
330
1A635
100
AcDbEntity
  8
寸法
 62
     7
 48
50.0
100
AcDbMText
 10
5473.669036246676
 20
6261.905469212485
 30
0.0
 40
120.0
 41
0.0
 71
     5
 72
     1
  1
\A1;2630
  7
STYLE1
 73
     1
 44
1.0
1001
ACAD
1000
MTEXTBEGIN
1070
    73
1070
     1
1070
    44
1040
1.0
1070
    74
1070
     0
1000
MTEXTEND
  0
POINT
  5
1A67B
330
1A635
100
AcDbEntity
  8
DEFPOINTS
 62
     0
 48
50.0
100
AcDbPoint
 10
4158.669036246685
 20
6982.49742454583
 30
0.0
  0
POINT
  5
1A67C
330
1A635
100
AcDbEntity
  8
DEFPOINTS
 62
     0
 48
50.0
100
AcDbPoint
 10
6788.669036246666
 20
6982.497424545956
 30
0.0
  0
POINT
  5
1A67D
330
1A635
100
AcDbEntity
  8
DEFPOINTS
 62
     0
 48
50.0
100
AcDbPoint
 10
6788.669036246666
 20
6161.893658188863
 30
0.0
  0
ENDBLK
  5
1A640
330
1A635
100
AcDbEntity
  8
0
 48
50.0
100
AcDbBlockEnd
  0
ENDSEC
  0
SECTION
  2
ENTITIES
  0
MTEXT
  5
763F
330
747D
100
AcDbEntity
  8
0
100
AcDbMText
 10
302.846345836809
 20
280.1983726409901
 30
0.0
 40
3.5
 41
5.323721266742722
 71
     1
 72
     5
  1

  7
MSMINCHO
 73
     1
 44
1.0
1001
ACAD
1000
MTEXTBEGIN
1070
    73
1070
     1
1070
    44
1040
1.0
1070
    74
1070
     0
1000
MTEXTEND
  0
LINE
  5
10B57
330
747D
100
AcDbEntity
  8
補助
  6
PHANTOM
 62
   230
 48
50.0
100
AcDbLine
 10
139.9999999999995
 20
11409.6
 30
0.0
 11
16307.2
 21
11409.6
 31
0.0
  0
LINE
  5
10B59
330
747D
100
AcDbEntity
  8
仕様書枠
  6
Continuous
 48
50.0
100
AcDbLine
 10
13107.2
 20
1200.0
 30
0.0
 11
13107.2
 21
-0.0000000000000729
 31
0.0
  0
LINE
  5
10B5C
330
747D
100
AcDbEntity
  8
仕様書枠
 48
50.0
100
AcDbLine
 10
16307.2
 20
1200.0
 30
0.0
 11
16307.2
 21
-0.0000000000000909
 31
0.0
  0
LINE
  5
10B5D
330
747D
100
AcDbEntity
  8
仕様書枠
 48
50.0
100
AcDbLine
 10
140.0
 20
0.0
 30
0.0
 11
16307.2
 21
-0.0000000000000909
 31
0.0
  0
LINE
  5
10B5E
330
747D
100
AcDbEntity
  8
補助
  6
PHANTOM
 62
   230
 48
50.0
100
AcDbLine
 10
16307.2
 20
11409.6
 30
0.0
 11
16307.2
 21
1200.0
 31
0.0
  0
LINE
  5
10B6C
330
747D
100
AcDbEntity
  8
仕様書枠
 48
50.0
100
AcDbLine
 10
13107.2
 20
1200.0
 30
0.0
 11
16307.2
 21
1200.0
 31
0.0
  0
LINE
  5
10B6D
330
747D
100
AcDbEntity
  8
補助
  6
PHANTOM
 62
   230
 48
50.0
100
AcDbLine
 10
13107.2
 20
11409.6
 30
0.0
 11
13107.2
 21
4800.0
 31
0.0
  0
LINE
  5
10B6F
330
747D
100
AcDbEntity
  8
補助
  6
PHANTOM
 62
   230
 48
50.0
100
AcDbLine
 10
13107.2
 20
4800.0
 30
0.0
 11
16307.2
 21
4800.0
 31
0.0
  0
LINE
  5
10B72
330
747D
100
AcDbEntity
  8
文字
 62
     7
 48
50.0
100
AcDbLine
 10
13187.2
 20
400.0
 30
0.0
 11
16227.2
 21
400.0
 31
0.0
  0
TEXT
  5
10B73
330
747D
100
AcDbEntity
  8
文字
 62
     7
 48
50.0
100
AcDbText
 10
13162.9790565769
 20
895.0906074299405
 30
0.0
 40
200.0
  1
外 形 図
  7
STYLE2
100
AcDbText
  0
TEXT
  5
10B74
330
747D
100
AcDbEntity
  8
文字
 62
     7
 48
50.0
100
AcDbText
 10
13201.43669998441
 20
477.2740661031255
 30
0.0
 40
160.0
  1
機種名
  7
STYLE2
100
AcDbText
  0
TEXT
  5
10B75
330
747D
100
AcDbEntity
  8
文字
 62
     7
 48
50.0
100
AcDbText
 10
13209.4053442172
 20
228.5435242569016
 30
0.0
 40
100.0
  1
○有効開口寸法 ： 2424×1886(mm)
  7
STYLE2
100
AcDbText
  0
TEXT
  5
10B76
330
747D
100
AcDbEntity
  8
文字
 62
     7
 48
50.0
100
AcDbText
 10
13209.4053442172
 20
76.09434707649343
 30
0.0
 40
100.0
  1
○床面積 ： 8.02㎡(2.43坪) 　
  7
STYLE2
100
AcDbText
  0
TEXT
  5
10B79
330
747D
100
AcDbEntity
  8
文字
 62
     7
 48
50.0
100
AcDbText
 10
14524.131837222
 20
1031.557706291228
 30
0.0
 40
100.0
  1
NO.04      <縮尺> S=1/40
  7
STYLE2
100
AcDbText
  0
LINE
  5
10B7B
330
747D
100
AcDbEntity
  8
仕様書枠
 48
50.0
100
AcDbLine
 10
13107.2
 20
800.0
 30
0.0
 11
14251.2
 21
800.0
 31
0.0
  0
LINE
  5
10B88
330
747D
100
AcDbEntity
  8
仕様書枠
  6
Continuous
 48
50.0
100
AcDbLine
 10
14251.2
 20
1200.0
 30
0.0
 11
14251.2
 21
800.0
 31
0.0
  0
DIMENSION
  5
14E59
330
747D
100
AcDbEntity
  8
寸法
100
AcDbDimension
  2
*D1
 10
7801.202323720737
 20
6982.497424545956
 30
0.0
 11
7701.202323720737
 21
8507.497424545961
 31
0.0
 70
    32
 71
     5
 42
3050.000000000008
  3
INABA_S40G
100
AcDbAlignedDimension
 13
6788.669036246692
 23
10032.49742454596
 33
0.0
 14
6788.669036246666
 24
6982.497424545956
 34
0.0
 50
90.0
100
AcDbRotatedDimension
1001
ACAD
1000
DSTYLE
1002
{
1002
}
  0
DIMENSION
  5
14E5A
330
747D
100
AcDbEntity
  8
寸法
100
AcDbDimension
  2
*D2
 10
6733.669036246692
 20
10248.30564417096
 30
0.0
 11
5473.669036246692
 21
10348.31745519459
 31
0.0
 70
    32
  1
6X420=<>
 71
     5
 42
2520.000000000001
  3
INABA_S40G
100
AcDbAlignedDimension
 13
4213.669036246691
 23
10032.49742454587
 33
0.0
 14
6733.669036246692
 24
10032.49742454596
 34
0.0
100
AcDbRotatedDimension
1001
ACAD
1000
DSTYLE
1002
{
1002
}
  0
DIMENSION
  5
14E5B
330
747D
100
AcDbEntity
  8
寸法
100
AcDbDimension
  2
*D3
 10
6788.669036246692
 20
10248.30564417095
 30
0.0
 11
7097.154317620931
 21
10248.30564417095
 31
0.0
 70
   160
 71
     5
 42
55.0
  3
INABA_S40G
100
AcDbAlignedDimension
 13
6733.669036246692
 23
10032.49742454596
 33
0.0
 14
6788.669036246692
 24
10032.49742454596
 34
0.0
100
AcDbRotatedDimension
1001
ACAD
1000
DSTYLE
1002
{
1002
}
  0
DIMENSION
  5
14E5C
330
747D
100
AcDbEntity
  8
寸法
100
AcDbDimension
  2
*D4
 10
7436.095381981103
 20
9977.497424545967
 30
0.0
 11
7436.095381981101
 21
10340.9827059202
 31
0.0
 70
   160
 71
     5
 42
54.99999999999636
  3
INABA_S40G
100
AcDbAlignedDimension
 13
6788.669036246692
 23
10032.49742454596
 33
0.0
 14
6788.669036246692
 24
9977.497424545967
 34
0.0
 50
90.0
100
AcDbRotatedDimension
1001
ACAD
1000
DSTYLE
1002
{
1002
}
  0
DIMENSION
  5
14E5D
330
747D
100
AcDbEntity
  8
寸法
100
AcDbDimension
  2
*D5
 10
4213.669036246691
 20
10248.30564417085
 30
0.0
 11
3850.183754872418
 21
10248.30564417085
 31
0.0
 70
   160
 71
     5
 42
55.00000000003456
  3
INABA_S40G
100
AcDbAlignedDimension
 13
4158.669036246656
 23
10032.49742454587
 33
0.0
 14
4213.669036246691
 24
10032.49742454587
 34
0.0
100
AcDbRotatedDimension
1001
ACAD
1000
DSTYLE
1002
{
1002
}
  0
LINE
  5
14E67
330
747D
100
AcDbEntity
  8
部品1
100
AcDbLine
 10
4158.669036246691
 20
10032.49742454587
 30
0.0
 11
6788.669036246692
 21
10032.49742454596
 31
0.0
  0
LINE
  5
14E68
330
747D
100
AcDbEntity
  8
部品1
100
AcDbLine
 10
4186.669036246692
 20
10004.49742454587
 30
0.0
 11
4843.669036246692
 21
10004.49742454587
 31
0.0
  0
LINE
  5
14E6C
330
747D
100
AcDbEntity
  8
部品1
100
AcDbLine
 10
6788.669036246666
 20
6982.497424545956
 30
0.0
 11
6733.669036246668
 21
6982.497424545953
 31
0.0
  0
LINE
  5
14E6D
330
747D
100
AcDbEntity
  8
部品1
100
AcDbLine
 10
4213.669036246691
 20
10004.49742454598
 30
0.0
 11
5461.16903624669
 21
10004.49742454598
 31
0.0
  0
LINE
  5
14E72
330
747D
100
AcDbEntity
  8
部品1
100
AcDbLine
 10
4186.669036246667
 20
7037.497424545822
 30
0.0
 11
4186.669036246677
 21
10004.49742454587
 31
0.0
  0
LINE
  5
14E73
330
747D
100
AcDbEntity
  8
部品1
100
AcDbLine
 10
4158.669036246656
 20
10032.49742454583
 30
0.0
 11
4158.669036246685
 21
6982.497424545861
 31
0.0
  0
LINE
  5
14E7C
330
747D
100
AcDbEntity
  8
部品1
100
AcDbLine
 10
4186.669036246683
 20
7037.49742454584
 30
0.0
 11
4158.669036246683
 21
7037.49742454584
 31
0.0
  0
LINE
  5
14E7D
330
747D
100
AcDbEntity
  8
部品1
100
AcDbLine
 10
4186.669036246667
 20
7037.497424545825
 30
0.0
 11
4158.669036246683
 21
7037.497424545825
 31
0.0
  0
LINE
  5
14E7E
330
747D
100
AcDbEntity
  8
部品1
100
AcDbLine
 10
4213.669036246684
 20
7037.497424545789
 30
0.0
 11
4158.669036246683
 21
7037.497424545789
 31
0.0
  0
LINE
  5
14E81
330
747D
100
AcDbEntity
  8
部品1
100
AcDbLine
 10
4186.669036246672
 20
9137.49742454584
 30
0.0
 11
4158.669036246672
 21
9137.49742454584
 31
0.0
  0
LINE
  5
14E83
330
747D
100
AcDbEntity
  8
部品1
100
AcDbLine
 10
4186.669036246666
 20
9557.497424545841
 30
0.0
 11
4158.669036246666
 21
9557.497424545841
 31
0.0
  0
LINE
  5
14E84
330
747D
100
AcDbEntity
  8
部品1
100
AcDbLine
 10
4186.669036246659
 20
9977.497424545839
 30
0.0
 11
4158.669036246659
 21
9977.497424545839
 31
0.0
  0
LINE
  5
14E85
330
747D
100
AcDbEntity
  8
部品1
100
AcDbLine
 10
4213.669036246691
 20
10032.49742454587
 30
0.0
 11
4213.669036246691
 21
10004.49742454587
 31
0.0
  0
LINE
  5
14E86
330
747D
100
AcDbEntity
  8
部品1
100
AcDbLine
 10
4213.669036246657
 20
10032.49742454583
 30
0.0
 11
4213.669036246659
 21
10004.49742454583
 31
0.0
  0
DIMENSION
  5
14E87
330
747D
100
AcDbEntity
  8
寸法
100
AcDbDimension
  2
*D6
 10
7436.095381981079
 20
6982.497424545956
 30
0.0
 11
7436.095381981077
 21
6604.635957641093
 31
0.0
 70
   160
 71
     5
 42
54.99999999999636
  3
INABA_S40G
100
AcDbAlignedDimension
 13
6788.669036246666
 23
7037.497424545953
 33
0.0
 14
6788.669036246666
 24
6982.497424545956
 34
0.0
 50
90.0
100
AcDbRotatedDimension
1001
ACAD
1000
DSTYLE
1002
{
1002
}
  0
LINE
  5
14E90
330
747D
100
AcDbEntity
  8
部品1
100
AcDbLine
 10
5486.169036246692
 20
10004.49742454598
 30
0.0
 11
6760.669036246692
 21
10004.49742454596
 31
0.0
  0
LINE
  5
14EBE
330
747D
100
AcDbEntity
  8
部品1
100
AcDbLine
 10
4633.669036246692
 20
10032.49742454587
 30
0.0
 11
4633.669036246692
 21
10004.49742454587
 31
0.0
  0
LINE
  5
14EBF
330
747D
100
AcDbEntity
  8
部品1
100
AcDbLine
 10
4633.669036246692
 20
10032.49742454587
 30
0.0
 11
4633.669036246692
 21
10004.49742454587
 31
0.0
  0
LINE
  5
14EC0
330
747D
100
AcDbEntity
  8
部品1
100
AcDbLine
 10
4633.669036246692
 20
10032.49742454598
 30
0.0
 11
4633.669036246692
 21
10004.49742454598
 31
0.0
  0
LINE
  5
14EC6
330
747D
100
AcDbEntity
  8
部品1
100
AcDbLine
 10
5438.669036246691
 20
10022.49742454597
 30
0.0
 11
5438.669036246691
 21
10004.49742454597
 31
0.0
  0
LINE
  5
14EC7
330
747D
100
AcDbEntity
  8
部品1
100
AcDbLine
 10
5438.669036246691
 20
10022.49742454597
 30
0.0
 11
5444.669036246692
 21
10022.49742454597
 31
0.0
  0
LINE
  5
14EC8
330
747D
100
AcDbEntity
  8
部品1
100
AcDbLine
 10
5508.669036246692
 20
10022.49742454597
 30
0.0
 11
5508.669036246692
 21
10004.49742454597
 31
0.0
  0
LINE
  5
14EC9
330
747D
100
AcDbEntity
  8
部品1
100
AcDbLine
 10
5502.669036246691
 20
10022.49742454597
 30
0.0
 11
5508.669036246692
 21
10022.49742454597
 31
0.0
  0
LINE
  5
14ECA
330
747D
100
AcDbEntity
  8
部品1
100
AcDbLine
 10
5461.169036246691
 20
9996.497424545967
 30
0.0
 11
5486.169036246692
 21
9996.497424545971
 31
0.0
  0
LINE
  5
14ECC
330
747D
100
AcDbEntity
  8
部品1
100
AcDbLine
 10
5893.669036246691
 20
10032.49742454598
 30
0.0
 11
5893.669036246691
 21
10004.49742454598
 31
0.0
  0
DIMENSION
  5
14ED1
330
747D
100
AcDbEntity
  8
寸法
100
AcDbDimension
  2
*D7
 10
7436.095381981099
 20
7037.497424545953
 30
0.0
 11
7336.083570957476
 21
8507.497424545961
 31
0.0
 70
    32
  1
7X420=<>
 71
     5
 42
2940.000000000015
  3
INABA_S40G
100
AcDbAlignedDimension
 13
6788.669036246692
 23
9977.497424545967
 33
0.0
 14
6788.669036246666
 24
7037.497424545953
 34
0.0
 50
90.0
100
AcDbRotatedDimension
1001
ACAD
1000
DSTYLE
1002
{
1002
}
  0
LINE
  5
14ED2
330
747D
100
AcDbEntity
  8
部品1
100
AcDbLine
 10
6788.669036246692
 20
10032.49742454596
 30
0.0
 11
6788.669036246666
 21
6982.497424545956
 31
0.0
  0
LINE
  5
14ED3
330
747D
100
AcDbEntity
  8
部品1
100
AcDbLine
 10
6733.669036246666
 20
7037.497424545967
 30
0.0
 11
6788.669036246699
 21
7037.497424545967
 31
0.0
  0
LINE
  5
14EDE
330
747D
100
AcDbEntity
  8
部品1
100
AcDbLine
 10
6760.669036246696
 20
9137.497424545967
 30
0.0
 11
6788.669036246696
 21
9137.497424545967
 31
0.0
  0
LINE
  5
14EE0
330
747D
100
AcDbEntity
  8
部品1
100
AcDbLine
 10
6760.669036246692
 20
9557.497424545967
 30
0.0
 11
6788.669036246692
 21
9557.497424545967
 31
0.0
  0
LINE
  5
14EE1
330
747D
100
AcDbEntity
  8
部品1
100
AcDbLine
 10
6760.669036246692
 20
9977.497424545967
 30
0.0
 11
6788.669036246692
 21
9977.497424545967
 31
0.0
  0
LINE
  5
14EE2
330
747D
100
AcDbEntity
  8
部品1
100
AcDbLine
 10
6733.669036246692
 20
10032.49742454598
 30
0.0
 11
6733.669036246692
 21
10004.49742454598
 31
0.0
  0
LINE
  5
14EE3
330
747D
100
AcDbEntity
  8
部品1
100
AcDbLine
 10
6733.669036246692
 20
10032.49742454596
 30
0.0
 11
6733.669036246692
 21
10004.49742454596
 31
0.0
  0
LINE
  5
15151
330
747D
100
AcDbEntity
  8
部品1
100
AcDbLine
 10
5053.669036246692
 20
10032.49742454587
 30
0.0
 11
5053.669036246692
 21
10004.49742454587
 31
0.0
  0
LINE
  5
15152
330
747D
100
AcDbEntity
  8
部品1
100
AcDbLine
 10
5053.669036246692
 20
10032.49742454587
 30
0.0
 11
5053.669036246692
 21
10004.49742454587
 31
0.0
  0
LINE
  5
15153
330
747D
100
AcDbEntity
  8
部品1
100
AcDbLine
 10
5053.669036246692
 20
10032.49742454598
 30
0.0
 11
5053.669036246692
 21
10004.49742454598
 31
0.0
  0
LINE
  5
15535
330
747D
100
AcDbEntity
  8
部品1
100
AcDbLine
 10
6760.669036246676
 20
10004.49742454596
 30
0.0
 11
6760.669036246669
 21
7037.497424545953
 31
0.0
  0
LINE
  5
15536
330
747D
100
AcDbEntity
  8
部品1
100
AcDbLine
 10
6733.669036246684
 20
9552.497424545967
 30
0.0
 11
6733.669036246668
 21
6982.497424545953
 31
0.0
  0
LINE
  5
1553F
330
747D
100
AcDbEntity
  8
部品1
100
AcDbLine
 10
4213.669036246669
 20
9552.497424545874
 30
0.0
 11
4213.669036246684
 21
7047.497424545864
 31
0.0
  0
TEXT
  5
15550
330
747D
100
AcDbEntity
  8
文字
 62
     7
 48
50.0
100
AcDbText
 10
14646.46056207479
 20
871.9640646083623
 30
0.0
 40
100.0
  1
～一般型・多雪地型～
  7
STYLE2
100
AcDbText
  0
LINE
  5
15D59
330
747D
100
AcDbEntity
  8
部品1
100
AcDbLine
 10
4238.669036246671
 20
9552.497424545876
 30
0.0
 11
4238.669036246684
 21
7047.497424545864
 31
0.0
  0
LINE
  5
15D5A
330
747D
100
AcDbEntity
  8
部品1
100
AcDbLine
 10
6708.669036246688
 20
9552.497424545968
 30
0.0
 11
6708.669036246668
 21
7047.497424545864
 31
0.0
  0
LINE
  5
15D5D
330
747D
100
AcDbEntity
  8
部品1
100
AcDbLine
 10
4213.669036246684
 20
7018.497424545863
 30
0.0
 11
4190.669036246685
 21
7018.497424545863
 31
0.0
  0
LINE
  5
15D60
330
747D
100
AcDbEntity
  8
部品1
100
AcDbLine
 10
4261.669036246686
 20
7008.497424545865
 30
0.0
 11
4213.669036246685
 21
7008.497424545864
 31
0.0
  0
LINE
  5
15D61
330
747D
100
AcDbEntity
  8
部品1
100
AcDbLine
 10
4261.669036246686
 20
7047.497424545865
 30
0.0
 11
4213.669036246685
 21
7047.497424545864
 31
0.0
  0
LINE
  5
15D62
330
747D
100
AcDbEntity
  8
部品1
 48
50.0
100
AcDbLine
 10
4261.669036246686
 20
7047.497424545865
 30
0.0
 11
4261.669036246686
 21
7038.497424545865
 31
0.0
  0
LINE
  5
15D63
330
747D
100
AcDbEntity
  8
部品1
 48
50.0
100
AcDbLine
 10
4261.669036246686
 20
7008.497424545865
 30
0.0
 11
4261.669036246686
 21
7017.497424545865
 31
0.0
  0
LINE
  5
15D64
330
747D
100
AcDbEntity
  8
部品1
 48
50.0
100
AcDbLine
 10
4213.669036246685
 20
7047.497424545864
 30
0.0
 11
4213.669036246681
 21
6982.497424545865
 31
0.0
  0
LINE
  5
15D71
330
747D
100
AcDbEntity
  8
部品1
 48
50.0
100
AcDbLine
 10
4223.669036246685
 20
7008.497424545864
 30
0.0
 11
4213.669036246685
 21
6987.497424545864
 31
0.0
  0
LINE
  5
15D72
330
747D
100
AcDbEntity
  8
部品1
100
AcDbLine
 10
6685.669036246666
 20
7008.497424545865
 30
0.0
 11
6733.669036246666
 21
7008.497424545864
 31
0.0
  0
LINE
  5
15D73
330
747D
100
AcDbEntity
  8
部品1
 48
50.0
100
AcDbLine
 10
6685.669036246666
 20
7008.497424545865
 30
0.0
 11
6685.669036246666
 21
7017.497424545865
 31
0.0
  0
LINE
  5
15D74
330
747D
100
AcDbEntity
  8
部品1
100
AcDbLine
 10
6685.669036246666
 20
7047.497424545865
 30
0.0
 11
6733.669036246668
 21
7047.497424545864
 31
0.0
  0
LINE
  5
15D75
330
747D
100
AcDbEntity
  8
部品1
 48
50.0
100
AcDbLine
 10
6685.669036246666
 20
7047.497424545865
 30
0.0
 11
6685.669036246666
 21
7038.497424545865
 31
0.0
  0
LINE
  5
15D76
330
747D
100
AcDbEntity
  8
部品1
100
AcDbLine
 10
6733.669036246666
 20
7018.497424545863
 30
0.0
 11
6756.669036246667
 21
7018.497424545863
 31
0.0
  0
LINE
  5
15D78
330
747D
100
AcDbEntity
  8
部品1
 48
50.0
100
AcDbLine
 10
6723.669036246668
 20
7008.497424545864
 30
0.0
 11
6733.669036246666
 21
6987.497424545864
 31
0.0
  0
LINE
  5
15D7A
330
747D
100
AcDbEntity
  8
部品1
 48
50.0
100
AcDbLine
 10
4213.669036246685
 20
7018.497424545863
 30
0.0
 11
4190.669036246685
 21
7018.497424545863
 31
0.0
  0
LINE
  5
15D7B
330
747D
100
AcDbEntity
  8
部品1
 48
50.0
100
AcDbLine
 10
4225.669036246684
 20
7027.997424545863
 30
0.0
 11
6721.669036246668
 21
7027.997424545863
 31
0.0
  0
LINE
  5
15D85
330
747D
100
AcDbEntity
  8
部品1
100
AcDbLine
 10
4213.66903624668
 20
6982.497424545865
 30
0.0
 11
4158.669036246685
 21
6982.497424545861
 31
0.0
  0
LINE
  5
160AA
330
747D
100
AcDbEntity
  8
部品1
100
AcDbLine
 10
6760.669036246696
 20
8717.497424545966
 30
0.0
 11
6788.669036246696
 21
8717.497424545966
 31
0.0
  0
LINE
  5
160AB
330
747D
100
AcDbEntity
  8
部品1
100
AcDbLine
 10
4186.669036246672
 20
8717.49742454584
 30
0.0
 11
4158.669036246672
 21
8717.49742454584
 31
0.0
  0
LINE
  5
16112
330
747D
100
AcDbEntity
  8
部品1
100
AcDbLine
 10
6313.669036246691
 20
10032.49742454598
 30
0.0
 11
6313.669036246691
 21
10004.49742454598
 31
0.0
  0
LINE
  5
161D6
330
747D
100
AcDbEntity
  8
部品1
100
AcDbLine
 10
4186.669036246672
 20
8297.49742454584
 30
0.0
 11
4158.669036246672
 21
8297.49742454584
 31
0.0
  0
LINE
  5
161D7
330
747D
100
AcDbEntity
  8
部品1
100
AcDbLine
 10
6760.669036246696
 20
8297.497424545968
 30
0.0
 11
6788.669036246696
 21
8297.497424545968
 31
0.0
  0
LINE
  5
1622B
330
747D
100
AcDbEntity
  8
部品1
100
AcDbLine
 10
4186.669036246672
 20
7877.49742454584
 30
0.0
 11
4158.669036246672
 21
7877.49742454584
 31
0.0
  0
LINE
  5
1622C
330
747D
100
AcDbEntity
  8
部品1
100
AcDbLine
 10
6760.669036246696
 20
7877.497424545968
 30
0.0
 11
6788.669036246696
 21
7877.497424545968
 31
0.0
  0
LINE
  5
162C3
330
747D
100
AcDbEntity
  8
部品1
100
AcDbLine
 10
4186.669036246672
 20
7457.497424545839
 30
0.0
 11
4158.669036246672
 21
7457.497424545839
 31
0.0
  0
LINE
  5
162C4
330
747D
100
AcDbEntity
  8
部品1
100
AcDbLine
 10
6760.669036246696
 20
7457.497424545967
 30
0.0
 11
6788.669036246696
 21
7457.497424545967
 31
0.0
  0
LINE
  5
16832
330
747D
100
AcDbEntity
  8
部品1
 48
50.0
100
AcDbLine
 10
5486.169036246692
 20
10004.49742454598
 30
0.0
 11
5486.169036246692
 21
9996.497424545971
 31
0.0
  0
LINE
  5
16833
330
747D
100
AcDbEntity
  8
部品1
 48
50.0
100
AcDbLine
 10
5461.16903624669
 20
10004.49742454598
 30
0.0
 11
5461.169036246691
 21
9996.497424545967
 31
0.0
  0
LINE
  5
16847
330
747D
100
AcDbEntity
  8
部品1
100
AcDbLine
 10
5473.669036246691
 20
10032.49742454598
 30
0.0
 11
5473.669036246691
 21
10004.49742454598
 31
0.0
  0
LINE
  5
16925
330
747D
100
AcDbEntity
  8
仕様書枠
 48
50.0
100
AcDbLine
 10
16307.19999999999
 20
11409.6
 30
0.0
 11
13127.2
 21
11409.6
 31
0.0
  0
LINE
  5
16926
330
747D
100
AcDbEntity
  8
仕様書枠
 48
50.0
100
AcDbLine
 10
13127.2
 20
11409.6
 30
0.0
 11
13127.2
 21
8179.600000000002
 31
0.0
  0
LINE
  5
16927
330
747D
100
AcDbEntity
  8
仕様書枠
 48
50.0
100
AcDbLine
 10
16307.19999999999
 20
8179.6
 30
0.0
 11
16307.2
 21
11409.6
 31
0.0
  0
LINE
  5
16928
330
747D
100
AcDbEntity
  8
仕様書枠
 48
50.0
100
AcDbLine
 10
14785.2
 20
11409.59999999999
 30
0.0
 11
14785.2
 21
8689.600000000003
 31
0.0
  0
LINE
  5
16929
330
747D
100
AcDbEntity
  8
仕様書枠
 48
50.0
100
AcDbLine
 10
13490.2
 20
11409.6
 30
0.0
 11
13490.20000000001
 21
8689.600000000003
 31
0.0
  0
LINE
  5
1692A
330
747D
100
AcDbEntity
  8
仕様書枠
 48
50.0
100
AcDbLine
 10
16307.19999999999
 20
11239.6
 30
0.0
 11
13127.2
 21
11239.6
 31
0.0
  0
LINE
  5
1692B
330
747D
100
AcDbEntity
  8
仕様書枠
 48
50.0
100
AcDbLine
 10
16307.19999999999
 20
10899.6
 30
0.0
 11
13127.2
 21
10899.6
 31
0.0
  0
LINE
  5
1692C
330
747D
100
AcDbEntity
  8
仕様書枠
 48
50.0
100
AcDbLine
 10
16307.19999999999
 20
11069.6
 30
0.0
 11
13127.2
 21
11069.6
 31
0.0
  0
LINE
  5
1692D
330
747D
100
AcDbEntity
  8
仕様書枠
 48
50.0
100
AcDbLine
 10
16307.19999999999
 20
10559.6
 30
0.0
 11
13127.19999999999
 21
10559.6
 31
0.0
  0
LINE
  5
1692E
330
747D
100
AcDbEntity
  8
仕様書枠
 48
50.0
100
AcDbLine
 10
16307.19999999999
 20
10389.6
 30
0.0
 11
13127.19999999999
 21
10389.6
 31
0.0
  0
LINE
  5
1692F
330
747D
100
AcDbEntity
  8
仕様書枠
 48
50.0
100
AcDbLine
 10
16307.19999999999
 20
10729.6
 30
0.0
 11
13127.19999999999
 21
10729.6
 31
0.0
  0
TEXT
  5
16930
330
747D
100
AcDbEntity
  8
文字
 62
     7
 48
50.0
100
AcDbText
 10
13197.42518560407
 20
11270.01374588372
 30
0.0
 40
100.0
  1
品番
  7
STYLE1
100
AcDbText
  0
TEXT
  5
16931
330
747D
100
AcDbEntity
  8
文字
 62
     7
 48
50.0
100
AcDbText
 10
13271.19032244792
 20
11100.01374588373
 30
0.0
 40
100.0
  1
1
  7
STYLE1
100
AcDbText
  0
TEXT
  5
16932
330
747D
100
AcDbEntity
  8
文字
 62
     7
 48
50.0
100
AcDbText
 10
13271.19032244792
 20
10930.01374588373
 30
0.0
 40
100.0
  1
2
  7
STYLE1
100
AcDbText
  0
TEXT
  5
16933
330
747D
100
AcDbEntity
  8
文字
 62
     7
 48
50.0
100
AcDbText
 10
13271.19032244792
 20
10590.01374588373
 30
0.0
 40
100.0
  1
4
  7
STYLE1
100
AcDbText
  0
TEXT
  5
16934
330
747D
100
AcDbEntity
  8
文字
 62
     7
 48
50.0
100
AcDbText
 10
13271.19032244792
 20
10760.01374588373
 30
0.0
 40
100.0
  1
3
  7
STYLE1
100
AcDbText
  0
TEXT
  5
16935
330
747D
100
AcDbEntity
  8
文字
 62
     7
 48
50.0
100
AcDbText
 10
13732.03840939434
 20
11270.01374588372
 30
0.0
 40
100.0
  1
部　　品　　名
  7
STYLE1
100
AcDbText
  0
TEXT
  5
16936
330
747D
100
AcDbEntity
  8
文字
 62
     7
 48
50.0
100
AcDbText
 10
14859.79774614482
 20
11270.01374588372
 30
0.0
 40
100.0
  1
材料（材質）　　単位mm
  7
STYLE1
100
AcDbText
  0
TEXT
  5
16937
330
747D
100
AcDbEntity
  8
文字
 62
     7
 48
50.0
100
AcDbText
 10
13583.11819016569
 20
11100.01374588373
 30
0.0
 40
100.0
  1
土台枠
  7
STYLE1
100
AcDbText
  0
TEXT
  5
16938
330
747D
100
AcDbEntity
  8
文字
 62
     7
 48
50.0
100
AcDbText
 10
13583.11819016569
 20
10930.01374588372
 30
0.0
 40
100.0
  1
柱
  7
STYLE1
100
AcDbText
  0
TEXT
  5
16939
330
747D
100
AcDbEntity
  8
文字
 62
     7
 48
50.0
100
AcDbText
 10
13583.11819016569
 20
10760.01374588372
 30
0.0
 40
100.0
  1
桁前
  7
STYLE1
100
AcDbText
  0
TEXT
  5
1693A
330
747D
100
AcDbEntity
  8
文字
 62
     7
 48
50.0
100
AcDbText
 10
13583.11819016569
 20
10590.01374588373
 30
0.0
 40
100.0
  1
桁後
  7
STYLE1
100
AcDbText
  0
TEXT
  5
1693B
330
747D
100
AcDbEntity
  8
文字
 62
     7
 48
50.0
100
AcDbText
 10
13271.19032244792
 20
10420.01374588372
 30
0.0
 40
100.0
  1
5
  7
STYLE1
100
AcDbText
  0
TEXT
  5
1693C
330
747D
100
AcDbEntity
  8
文字
 62
     7
 48
50.0
100
AcDbText
 10
13583.11819016569
 20
10420.01374588372
 30
0.0
 40
100.0
  1
妻板左右
  7
STYLE1
100
AcDbText
  0
TEXT
  5
1693E
330
747D
100
AcDbEntity
  8
文字
 62
     7
 48
50.0
100
AcDbText
 10
13248.77747366448
 20
9570.013745883727
 30
0.0
 40
100.0
  1
10
  7
STYLE1
100
AcDbText
  0
TEXT
  5
1693F
330
747D
100
AcDbEntity
  8
文字
 62
     7
 48
50.0
100
AcDbText
 10
13583.11819016569
 20
9740.013745883729
 30
0.0
 40
100.0
  1
壁パネル
  7
STYLE1
100
AcDbText
  0
TEXT
  5
16940
330
747D
100
AcDbEntity
  8
文字
 62
     7
 48
50.0
100
AcDbText
 10
13583.11819016569
 20
9910.013745883727
 30
0.0
 40
100.0
  1
屋根パネル
  7
STYLE1
100
AcDbText
  0
TEXT
  5
16941
330
747D
100
AcDbEntity
  8
文字
 62
     7
 48
50.0
100
AcDbText
 10
13583.11819016569
 20
10080.01374588372
 30
0.0
 40
100.0
  1
母屋中
  7
STYLE1
100
AcDbText
  0
TEXT
  5
16942
330
747D
100
AcDbEntity
  8
文字
 62
     7
 48
50.0
100
AcDbText
 10
13583.11819016569
 20
10250.01374588373
 30
0.0
 40
100.0
  1
鼻隠シ前後
  7
STYLE1
100
AcDbText
  0
TEXT
  5
16943
330
747D
100
AcDbEntity
  8
文字
 62
     7
 48
50.0
100
AcDbText
 10
13271.19032244792
 20
9910.01374588373
 30
0.0
 40
100.0
  1
8
  7
STYLE1
100
AcDbText
  0
TEXT
  5
16944
330
747D
100
AcDbEntity
  8
文字
 62
     7
 48
50.0
100
AcDbText
 10
13271.19032244792
 20
9740.013745883729
 30
0.0
 40
100.0
  1
9
  7
STYLE1
100
AcDbText
  0
TEXT
  5
16945
330
747D
100
AcDbEntity
  8
文字
 62
     7
 48
50.0
100
AcDbText
 10
13271.19032244792
 20
10080.01374588373
 30
0.0
 40
100.0
  1
7
  7
STYLE1
100
AcDbText
  0
TEXT
  5
16946
330
747D
100
AcDbEntity
  8
文字
 62
     7
 48
50.0
100
AcDbText
 10
13271.19032244792
 20
10250.01374588373
 30
0.0
 40
100.0
  1
6
  7
STYLE1
100
AcDbText
  0
LINE
  5
16947
330
747D
100
AcDbEntity
  8
仕様書枠
 48
50.0
100
AcDbLine
 10
16307.19999999999
 20
9539.599999999998
 30
0.0
 11
13127.19999999999
 21
9539.6
 31
0.0
  0
LINE
  5
16948
330
747D
100
AcDbEntity
  8
仕様書枠
 48
50.0
100
AcDbLine
 10
16307.19999999999
 20
9709.6
 30
0.0
 11
13127.19999999999
 21
9709.600000000001
 31
0.0
  0
LINE
  5
16949
330
747D
100
AcDbEntity
  8
仕様書枠
 48
50.0
100
AcDbLine
 10
16307.19999999999
 20
10219.6
 30
0.0
 11
13127.2
 21
10219.6
 31
0.0
  0
LINE
  5
1694A
330
747D
100
AcDbEntity
  8
仕様書枠
 48
50.0
100
AcDbLine
 10
16307.19999999999
 20
10049.6
 30
0.0
 11
13127.2
 21
10049.6
 31
0.0
  0
TEXT
  5
1694B
330
747D
100
AcDbEntity
  8
文字
 62
     7
 48
50.0
100
AcDbText
 10
13248.77747366448
 20
9400.013745883727
 30
0.0
 40
100.0
  1
11
  7
STYLE1
100
AcDbText
  0
LINE
  5
1694D
330
747D
100
AcDbEntity
  8
仕様書枠
 48
50.0
100
AcDbLine
 10
16307.19999999999
 20
9369.599999999998
 30
0.0
 11
13127.19999999999
 21
9369.600000000001
 31
0.0
  0
LINE
  5
1694E
330
747D
100
AcDbEntity
  8
仕様書枠
 48
50.0
100
AcDbLine
 10
16307.19999999999
 20
9199.600000000001
 30
0.0
 11
13127.19999999999
 21
9199.600000000001
 31
0.0
  0
TEXT
  5
16950
330
747D
100
AcDbEntity
  8
文字
 62
     7
 48
50.0
100
AcDbText
 10
13248.77747366448
 20
9230.013745883729
 30
0.0
 40
100.0
  1
12
  7
STYLE1
100
AcDbText
  0
TEXT
  5
16951
330
747D
100
AcDbEntity
  8
文字
 62
     7
 48
50.0
100
AcDbText
 10
15022.63965474517
 20
11100.01374588372
 30
0.0
 40
100.0
  1
F12            1.2
  7
STYLE1
100
AcDbText
  0
TEXT
  5
16952
330
747D
100
AcDbEntity
  8
文字
 62
     7
 48
50.0
100
AcDbText
 10
15022.63965474517
 20
10930.01374588372
 30
0.0
 40
100.0
  1
F12         1.0,1.2
  7
STYLE1
100
AcDbText
  0
TEXT
  5
16953
330
747D
100
AcDbEntity
  8
文字
 62
     7
 48
50.0
100
AcDbText
 10
15022.63965474516
 20
10760.01374588372
 30
0.0
 40
100.0
  1
Y10            1.0
  7
STYLE1
100
AcDbText
  0
TEXT
  5
16954
330
747D
100
AcDbEntity
  8
文字
 62
     7
 48
50.0
100
AcDbText
 10
15022.63965474516
 20
10590.01374588372
 30
0.0
 40
100.0
  1
Y10            1.0
  7
STYLE1
100
AcDbText
  0
TEXT
  5
16955
330
747D
100
AcDbEntity
  8
文字
 62
     7
 48
50.0
100
AcDbText
 10
15022.63965474516
 20
10420.01374588372
 30
0.0
 40
100.0
  1
Y10            0.7
  7
STYLE1
100
AcDbText
  0
TEXT
  5
16956
330
747D
100
AcDbEntity
  8
文字
 62
     7
 48
50.0
100
AcDbText
 10
15022.63965474516
 20
10250.01374588372
 30
0.0
 40
100.0
  1
Y10            0.7
  7
STYLE1
100
AcDbText
  0
TEXT
  5
16957
330
747D
100
AcDbEntity
  8
文字
 62
     7
 48
50.0
100
AcDbText
 10
14834.39215341524
 20
10080.01374588372
 30
0.0
 40
100.0
  1
F12    1.2(多雪地型  2.3)
  7
STYLE1
100
AcDbText
  0
TEXT
  5
16958
330
747D
100
AcDbEntity
  8
文字
 62
     7
 48
50.0
100
AcDbText
 10
15022.63965474517
 20
9910.013745883725
 30
0.0
 40
100.0
  1
Y10            0.5
  7
STYLE1
100
AcDbText
  0
TEXT
  5
16959
330
747D
100
AcDbEntity
  8
文字
 62
     7
 48
50.0
100
AcDbText
 10
15022.63965474516
 20
9740.013745883725
 30
0.0
 40
100.0
  1
F12            0.7
  7
STYLE1
100
AcDbText
  0
LINE
  5
1695D
330
747D
100
AcDbEntity
  8
仕様書枠
 48
50.0
100
AcDbLine
 10
16307.19999999999
 20
8519.600000000002
 30
0.0
 11
13127.19999999999
 21
8519.600000000002
 31
0.0
  0
LINE
  5
1695E
330
747D
100
AcDbEntity
  8
仕様書枠
 48
50.0
100
AcDbLine
 10
16307.19999999999
 20
8349.6
 30
0.0
 11
13127.19999999999
 21
8349.600000000002
 31
0.0
  0
LINE
  5
1695F
330
747D
100
AcDbEntity
  8
仕様書枠
 48
50.0
100
AcDbLine
 10
16307.19999999999
 20
8179.6
 30
0.0
 11
13127.19999999999
 21
8179.600000000002
 31
0.0
  0
TEXT
  5
16960
330
747D
100
AcDbEntity
  8
文字
 62
     7
 48
50.0
100
AcDbText
 10
13229.83081656555
 20
8550.013745883729
 30
0.0
 40
100.0
  1
F12→溶融亜鉛めっき鋼板(JIS G 3302)
  7
STYLE1
100
AcDbText
  0
TEXT
  5
16961
330
747D
100
AcDbEntity
  8
文字
 62
     7
 48
50.0
100
AcDbText
 10
13229.83081656555
 20
8380.013745883728
 30
0.0
 40
100.0
  1
Y10→溶融亜鉛-5％アルミニウム合金めっき鋼板(JIS G 3317)
 41
0.9
  7
STYLE1
100
AcDbText
  0
TEXT
  5
16962
330
747D
100
AcDbEntity
  8
文字
 62
     7
 48
50.0
100
AcDbText
 10
13229.83081656555
 20
8210.013745883731
 30
0.0
 40
100.0
  1
Z08→塗装溶融亜鉛めっき鋼板(JIS G 3313)
  7
STYLE1
100
AcDbText
  0
LINE
  5
16963
330
747D
100
AcDbEntity
  8
仕様書枠
 48
50.0
100
AcDbLine
 10
16307.19999999999
 20
9879.599999999999
 30
0.0
 11
13127.19999999999
 21
9879.600000000001
 31
0.0
  0
LINE
  5
16D1F
330
747D
100
AcDbEntity
  8
Ｇ．Ｌ
100
AcDbLine
 10
3071.630201579035
 20
1904.963665626823
 30
0.0
 11
13210.79354554683
 21
1904.963665626823
 31
0.0
  0
LINE
  5
16D20
330
747D
100
AcDbEntity
  8
部品1
100
AcDbLine
 10
3169.899444900302
 20
2034.867476194488
 30
0.0
 11
3319.899444900303
 21
2034.867476194488
 31
0.0
  0
LINE
  5
16D21
330
747D
100
AcDbEntity
  8
部品1
100
AcDbLine
 10
3244.899444900303
 20
1904.963665626823
 30
0.0
 11
3169.899444900302
 21
2034.867476194488
 31
0.0
  0
TEXT
  5
16D22
330
747D
100
AcDbEntity
  8
部品1
100
AcDbText
 10
3348.004387025075
 20
1941.070569232724
 30
0.0
 40
125.0
  1
G.L
  7
MSGOTHIC
100
AcDbText
  0
LINE
  5
16D23
330
747D
100
AcDbEntity
  8
部品1
100
AcDbLine
 10
3319.899444900303
 20
2034.867476194488
 30
0.0
 11
3244.899444900303
 21
1904.963665626823
 31
0.0
  0
LINE
  5
16D24
330
747D
100
AcDbEntity
  8
部品1
100
AcDbLine
 10
4158.669036246685
 20
2004.963665626819
 30
0.0
 11
6788.669036246685
 21
2004.963665626819
 31
0.0
  0
LINE
  5
16D25
330
747D
100
AcDbEntity
  8
部品1
100
AcDbLine
 10
4158.669036246685
 20
4144.963665626823
 30
0.0
 11
6788.669036246685
 21
4144.963665626823
 31
0.0
  0
LINE
  5
16D26
330
747D
100
AcDbEntity
  8
部品1
100
AcDbLine
 10
4158.669036246685
 20
4238.963665626828
 30
0.0
 11
4158.669036246685
 21
1904.963665626823
 31
0.0
  0
LINE
  5
16D27
330
747D
100
AcDbEntity
  8
部品1
100
AcDbLine
 10
6733.669036246685
 20
3979.963665626824
 30
0.0
 11
6733.669036246681
 21
2004.963665626819
 31
0.0
  0
LINE
  5
16D28
330
747D
100
AcDbEntity
  8
部品1
100
AcDbLine
 10
4213.669036246685
 20
3979.963665626824
 30
0.0
 11
4213.669036246685
 21
2004.963665626819
 31
0.0
  0
LINE
  5
16D29
330
747D
100
AcDbEntity
  8
部品1
100
AcDbLine
 10
6788.669036246687
 20
4238.963665626828
 30
0.0
 11
6788.669036246685
 21
1904.963665626823
 31
0.0
  0
LINE
  5
16D37
330
747D
100
AcDbEntity
  8
部品1
100
AcDbLine
 10
4261.669036246686
 20
3979.963665626824
 30
0.0
 11
4261.669036246686
 21
2004.963665626819
 31
0.0
  0
LINE
  5
16D39
330
747D
100
AcDbEntity
  8
部品1
100
AcDbLine
 10
6685.669036246688
 20
3979.963665626824
 30
0.0
 11
6685.669036246682
 21
2004.963665626819
 31
0.0
  0
LINE
  5
16D3D
330
747D
100
AcDbEntity
  8
部品1
100
AcDbLine
 10
4158.669036246685
 20
3979.963665626824
 30
0.0
 11
6788.669036246687
 21
3979.963665626824
 31
0.0
  0
LINE
  5
16D3E
330
747D
100
AcDbEntity
  8
細線
100
AcDbLine
 10
4261.669036246682
 20
3639.963665626819
 30
0.0
 11
6685.669036246683
 21
3639.963665626819
 31
0.0
  0
LINE
  5
16D3F
330
747D
100
AcDbEntity
  8
細線
100
AcDbLine
 10
4261.669036246682
 20
3704.963665626819
 30
0.0
 11
6685.669036246683
 21
3704.963665626819
 31
0.0
  0
LINE
  5
16D40
330
747D
100
AcDbEntity
  8
細線
100
AcDbLine
 10
4261.669036246682
 20
3769.963665626818
 30
0.0
 11
6685.669036246683
 21
3769.963665626818
 31
0.0
  0
LINE
  5
16D41
330
747D
100
AcDbEntity
  8
細線
100
AcDbLine
 10
4261.669036246682
 20
3249.963665626819
 30
0.0
 11
6685.669036246683
 21
3249.963665626819
 31
0.0
  0
LINE
  5
16D42
330
747D
100
AcDbEntity
  8
細線
100
AcDbLine
 10
4261.669036246682
 20
3314.963665626819
 30
0.0
 11
6685.669036246683
 21
3314.963665626819
 31
0.0
  0
LINE
  5
16D43
330
747D
100
AcDbEntity
  8
細線
100
AcDbLine
 10
4261.669036246682
 20
3379.963665626819
 30
0.0
 11
6685.669036246683
 21
3379.963665626819
 31
0.0
  0
LINE
  5
16D44
330
747D
100
AcDbEntity
  8
細線
100
AcDbLine
 10
4261.669036246682
 20
3444.963665626818
 30
0.0
 11
6685.669036246683
 21
3444.963665626818
 31
0.0
  0
LINE
  5
16D45
330
747D
100
AcDbEntity
  8
細線
100
AcDbLine
 10
4261.669036246682
 20
3509.963665626819
 30
0.0
 11
6685.669036246683
 21
3509.963665626819
 31
0.0
  0
LINE
  5
16D46
330
747D
100
AcDbEntity
  8
細線
100
AcDbLine
 10
4261.669036246682
 20
3574.963665626819
 30
0.0
 11
6685.669036246683
 21
3574.963665626819
 31
0.0
  0
LINE
  5
16D47
330
747D
100
AcDbEntity
  8
細線
100
AcDbLine
 10
4261.669036246682
 20
2599.963665626819
 30
0.0
 11
6685.669036246683
 21
2599.963665626819
 31
0.0
  0
LINE
  5
16D48
330
747D
100
AcDbEntity
  8
細線
100
AcDbLine
 10
4261.669036246682
 20
2664.963665626819
 30
0.0
 11
6685.669036246683
 21
2664.963665626819
 31
0.0
  0
LINE
  5
16D49
330
747D
100
AcDbEntity
  8
細線
100
AcDbLine
 10
4261.669036246682
 20
2729.963665626819
 30
0.0
 11
6685.669036246683
 21
2729.963665626819
 31
0.0
  0
LINE
  5
16D4A
330
747D
100
AcDbEntity
  8
細線
100
AcDbLine
 10
4261.669036246682
 20
2794.963665626819
 30
0.0
 11
6685.669036246683
 21
2794.963665626819
 31
0.0
  0
LINE
  5
16D4B
330
747D
100
AcDbEntity
  8
細線
100
AcDbLine
 10
4261.669036246682
 20
2859.963665626819
 30
0.0
 11
6685.669036246683
 21
2859.963665626819
 31
0.0
  0
LINE
  5
16D4C
330
747D
100
AcDbEntity
  8
細線
100
AcDbLine
 10
4261.669036246682
 20
2924.963665626819
 30
0.0
 11
6685.669036246683
 21
2924.963665626819
 31
0.0
  0
LINE
  5
16D4D
330
747D
100
AcDbEntity
  8
細線
100
AcDbLine
 10
4261.669036246682
 20
2989.963665626819
 30
0.0
 11
6685.669036246683
 21
2989.963665626819
 31
0.0
  0
LINE
  5
16D4E
330
747D
100
AcDbEntity
  8
細線
100
AcDbLine
 10
4261.669036246682
 20
3054.963665626818
 30
0.0
 11
6685.669036246683
 21
3054.963665626818
 31
0.0
  0
LINE
  5
16D4F
330
747D
100
AcDbEntity
  8
細線
100
AcDbLine
 10
4261.669036246682
 20
3119.963665626819
 30
0.0
 11
6685.669036246683
 21
3119.963665626819
 31
0.0
  0
LINE
  5
16D50
330
747D
100
AcDbEntity
  8
細線
100
AcDbLine
 10
4261.669036246682
 20
3184.963665626819
 30
0.0
 11
6685.669036246683
 21
3184.963665626819
 31
0.0
  0
LINE
  5
16D51
330
747D
100
AcDbEntity
  8
細線
100
AcDbLine
 10
4261.669036246682
 20
3899.963665626819
 30
0.0
 11
6685.669036246683
 21
3899.963665626819
 31
0.0
  0
LINE
  5
16D53
330
747D
100
AcDbEntity
  8
細線
100
AcDbLine
 10
4261.669036246682
 20
3834.963665626819
 30
0.0
 11
6685.669036246683
 21
3834.963665626819
 31
0.0
  0
LINE
  5
16D54
330
747D
100
AcDbEntity
  8
細線
100
AcDbLine
 10
4261.669036246682
 20
2014.963665626819
 30
0.0
 11
6685.669036246683
 21
2014.963665626819
 31
0.0
  0
LINE
  5
16D55
330
747D
100
AcDbEntity
  8
細線
100
AcDbLine
 10
4261.669036246682
 20
2079.963665626818
 30
0.0
 11
6685.669036246683
 21
2079.963665626818
 31
0.0
  0
LINE
  5
16D56
330
747D
100
AcDbEntity
  8
細線
100
AcDbLine
 10
4261.669036246682
 20
2144.963665626819
 30
0.0
 11
6685.669036246683
 21
2144.963665626819
 31
0.0
  0
LINE
  5
16D57
330
747D
100
AcDbEntity
  8
細線
100
AcDbLine
 10
4261.669036246682
 20
2209.963665626819
 30
0.0
 11
6685.669036246683
 21
2209.963665626819
 31
0.0
  0
LINE
  5
16D58
330
747D
100
AcDbEntity
  8
細線
100
AcDbLine
 10
4261.669036246682
 20
2274.963665626819
 30
0.0
 11
6685.669036246683
 21
2274.963665626819
 31
0.0
  0
LINE
  5
16D59
330
747D
100
AcDbEntity
  8
細線
100
AcDbLine
 10
4261.669036246682
 20
2339.963665626819
 30
0.0
 11
6685.669036246683
 21
2339.963665626819
 31
0.0
  0
LINE
  5
16D5A
330
747D
100
AcDbEntity
  8
細線
100
AcDbLine
 10
4261.669036246682
 20
2404.963665626818
 30
0.0
 11
6685.669036246683
 21
2404.963665626818
 31
0.0
  0
LINE
  5
16D5B
330
747D
100
AcDbEntity
  8
細線
100
AcDbLine
 10
4261.669036246682
 20
2469.963665626819
 30
0.0
 11
6685.669036246683
 21
2469.963665626819
 31
0.0
  0
LINE
  5
16D5C
330
747D
100
AcDbEntity
  8
細線
100
AcDbLine
 10
4261.669036246682
 20
2534.963665626819
 30
0.0
 11
6685.669036246683
 21
2534.963665626819
 31
0.0
  0
LINE
  5
16D5D
330
747D
100
AcDbEntity
  8
細線
100
AcDbLine
 10
6685.669036246685
 20
2014.963665626819
 30
0.0
 11
4261.669036246679
 21
2014.963665626819
 31
0.0
  0
CIRCLE
  5
16D61
330
747D
100
AcDbEntity
  8
細線
 48
50.0
100
AcDbCircle
 10
5473.669036246683
 20
2892.463665626819
 30
0.0
 40
18.0
  0
ARC
  5
16D62
330
747D
100
AcDbEntity
  8
細線
 48
50.0
100
AcDbCircle
 10
5773.669036246683
 20
2567.463665626819
 30
0.0
 40
15.0
100
AcDbArc
 50
270.0
 51
90.0
  0
ARC
  5
16D63
330
747D
100
AcDbEntity
  8
細線
 48
50.0
100
AcDbCircle
 10
5673.669036246684
 20
2567.463665626819
 30
0.0
 40
15.0
100
AcDbArc
 50
90.0
 51
270.0
  0
LINE
  5
16D64
330
747D
100
AcDbEntity
  8
細線
 48
50.0
100
AcDbLine
 10
5673.669036246684
 20
2582.463665626819
 30
0.0
 11
5773.669036246683
 21
2582.463665626819
 31
0.0
  0
LINE
  5
16D65
330
747D
100
AcDbEntity
  8
細線
 48
50.0
100
AcDbLine
 10
5773.669036246683
 20
2552.463665626819
 30
0.0
 11
5673.669036246684
 21
2552.463665626819
 31
0.0
  0
LINE
  5
16D66
330
747D
100
AcDbEntity
  8
細線
 48
50.0
100
AcDbLine
 10
5273.669036246683
 20
2552.463665626819
 30
0.0
 11
5173.669036246684
 21
2552.463665626819
 31
0.0
  0
LINE
  5
16D67
330
747D
100
AcDbEntity
  8
細線
 48
50.0
100
AcDbLine
 10
5173.669036246684
 20
2582.463665626819
 30
0.0
 11
5273.669036246683
 21
2582.463665626819
 31
0.0
  0
ARC
  5
16D68
330
747D
100
AcDbEntity
  8
細線
 48
50.0
100
AcDbCircle
 10
5273.669036246683
 20
2567.463665626819
 30
0.0
 40
15.0
100
AcDbArc
 50
270.0
 51
90.0
  0
ARC
  5
16D69
330
747D
100
AcDbEntity
  8
細線
 48
50.0
100
AcDbCircle
 10
5173.669036246684
 20
2567.463665626819
 30
0.0
 40
15.0
100
AcDbArc
 50
90.0
 51
270.0
  0
TEXT
  5
16D6A
330
747D
100
AcDbEntity
  8
部品1
100
AcDbText
 10
10722.21569549847
 20
1125.053443771937
 30
0.0
 40
135.0
  1
側面図
  7
STYLE2
100
AcDbText
  0
LWPOLYLINE
  5
16D6B
330
747D
100
AcDbEntity
  8
部品1
100
AcDbPolyline
 90
        4
 70
     1
 43
0.0
 10
10632.76959407486
 20
1317.946972990461
 10
10632.76959407486
 20
1078.054651444928
 10
11396.2402603033
 20
1078.054651444928
 10
11396.2402603033
 20
1317.946972990461
  0
DIMENSION
  5
16D6C
330
747D
100
AcDbEntity
  8
寸法
 48
50.0
100
AcDbDimension
  2
*D9
 10
4158.669036246687
 20
4592.505250885067
 30
0.0
 11
5574.190948813812
 21
4592.505250885067
 31
0.0
 70
   160
  1
柱外寸法<>
 71
     5
 42
2630.0
  3
INABA_S40G
100
AcDbAlignedDimension
 13
6788.669036246687
 23
4379.963665626827
 33
0.0
 14
4158.669036246687
 24
4379.96366562683
 34
0.0
100
AcDbRotatedDimension
  0
DIMENSION
  5
16D6D
330
747D
100
AcDbEntity
  8
寸法
 48
50.0
100
AcDbDimension
  2
*D10
 10
6788.669036246687
 20
4592.505250885067
 30
0.0
 11
7152.154317620923
 21
4592.505250885067
 31
0.0
 70
   160
 71
     5
 42
50.0
  3
INABA_S40G
100
AcDbAlignedDimension
 13
6838.669036246686
 23
4379.963665626825
 33
0.0
 14
6788.669036246687
 24
4379.963665626827
 34
0.0
100
AcDbRotatedDimension
  0
DIMENSION
  5
16D6E
330
747D
100
AcDbEntity
  8
寸法
 48
50.0
100
AcDbDimension
  2
*D11
 10
6838.669036246686
 20
4807.900682367321
 30
0.0
 11
5516.235357753511
 21
4807.900682367321
 31
0.0
 70
   160
 71
     5
 42
2730.0
  3
INABA_S40G
100
AcDbAlignedDimension
 13
4108.669036246687
 23
4379.963665626827
 33
0.0
 14
6838.669036246686
 24
4379.963665626825
 34
0.0
100
AcDbRotatedDimension
  0
DIMENSION
  5
16D6F
330
747D
100
AcDbEntity
  8
寸法
 48
50.0
100
AcDbDimension
  2
*D12
 10
4108.669036246687
 20
4592.505250885067
 30
0.0
 11
3795.18375487244
 21
4592.505250885067
 31
0.0
 70
   160
 71
     5
 42
50.0
  3
INABA_S40G
100
AcDbAlignedDimension
 13
4158.669036246687
 23
4379.96366562683
 33
0.0
 14
4108.669036246687
 24
4379.963665626827
 34
0.0
100
AcDbRotatedDimension
1001
ACAD
1000
DSTYLE
1002
{
1002
}
  0
LINE
  5
16D70
330
747D
100
AcDbEntity
  8
部品1
100
AcDbLine
 10
4109.088697262017
 20
4372.567140231587
 30
0.0
 11
4110.222094594366
 21
4352.591012248987
 31
0.0
  0
LINE
  5
16D71
330
747D
100
AcDbEntity
  8
部品1
100
AcDbLine
 10
4121.659114915943
 20
4256.933605081928
 30
0.0
 11
4122.304020723052
 21
4245.567140231588
 31
0.0
  0
LINE
  5
16D72
330
747D
100
AcDbEntity
  8
部品1
100
AcDbLine
 10
4113.423084391095
 20
4349.133605081929
 30
0.0
 11
4118.458125119206
 21
4260.391012248986
 31
0.0
  0
ARC
  5
16D73
330
747D
100
AcDbEntity
  8
部品1
 48
50.0
100
AcDbCircle
 10
4110.42790149491
 20
4348.963665626827
 30
0.0
 40
3.0
100
AcDbArc
 50
3.247342790337682
 51
82.34187279263654
  0
ARC
  5
16D74
330
747D
100
AcDbEntity
  8
部品1
 48
50.0
100
AcDbCircle
 10
4118.663932019753
 20
4256.763665626825
 30
0.0
 40
3.0
100
AcDbArc
 50
3.247342790337682
 51
82.34187279263654
  0
ARC
  5
16D75
330
747D
100
AcDbEntity
  8
部品1
 48
50.0
100
AcDbCircle
 10
4119.157001128314
 20
4260.430664788509
 30
0.0
 40
0.7
100
AcDbArc
 50
183.2473427903377
 51
262.3418727926365
  0
ARC
  5
16D76
330
747D
100
AcDbEntity
  8
部品1
 48
50.0
100
AcDbCircle
 10
4110.920970603475
 20
4352.630664788512
 30
0.0
 40
0.7
100
AcDbArc
 50
183.2473427904417
 51
262.3418727926365
  0
ARC
  5
16D77
330
747D
100
AcDbEntity
  8
部品1
100
AcDbCircle
 10
4129.29278081415
 20
4245.963665626828
 30
0.0
 40
7.0
100
AcDbArc
 50
183.2473427903377
 51
270.0
  0
ARC
  5
16D78
330
747D
100
AcDbEntity
  8
部品1
100
AcDbCircle
 10
4116.077457353116
 20
4372.963665626826
 30
0.0
 40
7.0
100
AcDbArc
 50
90.0
 51
183.2473427903377
  0
ARC
  5
16D79
330
747D
100
AcDbEntity
  8
部品1
100
AcDbCircle
 10
6831.260615140255
 20
4372.963665626826
 30
0.0
 40
7.0
100
AcDbArc
 50
356.7526572096623
 51
90.0
  0
ARC
  5
16D7A
330
747D
100
AcDbEntity
  8
部品1
100
AcDbCircle
 10
6818.04529167922
 20
4245.963665626828
 30
0.0
 40
7.0
100
AcDbArc
 50
270.0
 51
356.7526572096623
  0
ARC
  5
16D7B
330
747D
100
AcDbEntity
  8
部品1
 48
50.0
100
AcDbCircle
 10
6836.4171018899
 20
4352.630664788512
 30
0.0
 40
0.7
100
AcDbArc
 50
277.6581272073635
 51
356.7526572095583
  0
ARC
  5
16D7C
330
747D
100
AcDbEntity
  8
部品1
 48
50.0
100
AcDbCircle
 10
6828.181071365055
 20
4260.430664788509
 30
0.0
 40
0.7
100
AcDbArc
 50
277.6581272073635
 51
356.7526572096623
  0
ARC
  5
16D7D
330
747D
100
AcDbEntity
  8
部品1
 48
50.0
100
AcDbCircle
 10
6828.674140473616
 20
4256.763665626825
 30
0.0
 40
3.0
100
AcDbArc
 50
97.65812720736347
 51
176.7526572096623
  0
ARC
  5
16D7E
330
747D
100
AcDbEntity
  8
部品1
 48
50.0
100
AcDbCircle
 10
6836.910170998461
 20
4348.963665626827
 30
0.0
 40
3.0
100
AcDbArc
 50
97.65812720736347
 51
176.7526572096623
  0
LINE
  5
16D7F
330
747D
100
AcDbEntity
  8
部品1
100
AcDbLine
 10
6833.914988102275
 20
4349.133605081929
 30
0.0
 11
6828.879947374163
 21
4260.391012248986
 31
0.0
  0
LINE
  5
16D80
330
747D
100
AcDbEntity
  8
部品1
100
AcDbLine
 10
6825.67895757743
 20
4256.933605081928
 30
0.0
 11
6825.03405177032
 21
4245.567140231588
 31
0.0
  0
LINE
  5
16D81
330
747D
100
AcDbEntity
  8
細線
 48
50.0
100
AcDbLine
 10
4141.669036246687
 20
4379.963665626825
 30
0.0
 11
4141.669036246687
 21
4238.963665626825
 31
0.0
  0
LINE
  5
16D82
330
747D
100
AcDbEntity
  8
細線
 48
50.0
100
AcDbLine
 10
6805.669036246687
 20
4379.963665626825
 30
0.0
 11
6805.669036246687
 21
4238.963665626825
 31
0.0
  0
LINE
  5
16D83
330
747D
100
AcDbEntity
  8
部品1
100
AcDbLine
 10
6838.249375231353
 20
4372.567140231587
 30
0.0
 11
6837.115977899007
 21
4352.591012248987
 31
0.0
  0
LINE
  5
16D84
330
747D
100
AcDbEntity
  8
細線
 48
50.0
100
AcDbLine
 10
6828.274354709927
 20
4259.736908190293
 30
0.0
 11
4119.063717783487
 21
4259.736908190613
 31
0.0
  0
LINE
  5
16D85
330
747D
100
AcDbEntity
  8
細線
 48
50.0
100
AcDbLine
 10
6836.510385234771
 20
4351.936908190294
 30
0.0
 11
4110.827687258646
 21
4351.936908190614
 31
0.0
  0
LINE
  5
16D86
330
747D
100
AcDbEntity
  8
部品1
 48
50.0
100
AcDbLine
 10
6818.04529167922
 20
4238.963665626828
 30
0.0
 11
4129.29278081415
 21
4238.963665626828
 31
0.0
  0
LINE
  5
16D87
330
747D
100
AcDbEntity
  8
部品1
 48
50.0
100
AcDbLine
 10
6831.260615140255
 20
4379.963665626825
 30
0.0
 11
4116.077457353116
 21
4379.963665626825
 31
0.0
  0
LWPOLYLINE
  5
16DB4
330
747D
100
AcDbEntity
  8
部品1
100
AcDbPolyline
 90
        4
 70
     1
 43
0.0
 10
5091.933703132466
 20
1317.946972990461
 10
5091.933703132466
 20
1078.054651444928
 10
5855.404369360906
 20
1078.054651444928
 10
5855.404369360906
 20
1317.946972990461
  0
TEXT
  5
16DB5
330
747D
100
AcDbEntity
  8
部品1
100
AcDbText
 10
5182.459106870421
 20
1125.053443771938
 30
0.0
 40
135.0
  1
正面図
  7
STYLE2
100
AcDbText
  0
LINE
  5
17655
330
747D
100
AcDbEntity
  8
部品1
100
AcDbLine
 10
12054.50492718907
 20
4144.963665626824
 30
0.0
 11
12054.50492718907
 21
2054.963665626826
 31
0.0
  0
LINE
  5
17656
330
747D
100
AcDbEntity
  8
細線
 48
50.0
100
AcDbLine
 10
11977.00492718908
 20
4144.963665626823
 30
0.0
 11
11977.00492718908
 21
2054.963665626825
 31
0.0
  0
LINE
  5
17657
330
747D
100
AcDbEntity
  8
細線
 48
50.0
100
AcDbLine
 10
11992.00492718908
 20
4144.963665626823
 30
0.0
 11
11992.00492718908
 21
2054.963665626825
 31
0.0
  0
LINE
  5
17658
330
747D
100
AcDbEntity
  8
細線
 48
50.0
100
AcDbLine
 10
11852.00492718908
 20
4144.963665626823
 30
0.0
 11
11852.00492718908
 21
2054.963665626825
 31
0.0
  0
LINE
  5
17659
330
747D
100
AcDbEntity
  8
細線
 48
50.0
100
AcDbLine
 10
11837.00492718908
 20
4144.963665626823
 30
0.0
 11
11837.00492718908
 21
2054.963665626825
 31
0.0
  0
LINE
  5
1765A
330
747D
100
AcDbEntity
  8
細線
 48
50.0
100
AcDbLine
 10
11697.00492718908
 20
4144.963665626823
 30
0.0
 11
11697.00492718908
 21
2054.963665626825
 31
0.0
  0
LINE
  5
1765B
330
747D
100
AcDbEntity
  8
細線
 48
50.0
100
AcDbLine
 10
11712.00492718908
 20
4144.963665626823
 30
0.0
 11
11712.00492718908
 21
2054.963665626825
 31
0.0
  0
LINE
  5
1765C
330
747D
100
AcDbEntity
  8
部品1
100
AcDbLine
 10
11634.50492718908
 20
4144.963665626823
 30
0.0
 11
11634.50492718908
 21
2054.963665626825
 31
0.0
  0
DIMENSION
  5
1766C
330
747D
100
AcDbEntity
  8
寸法
 48
50.0
100
AcDbDimension
  2
*D13
 10
8858.896520420714
 20
4254.308924500154
 30
0.0
 11
8869.56199567964
 21
4625.155587741853
 31
0.0
 70
   161
 71
     5
 42
141.0
  3
INABA_S40G
100
AcDbAlignedDimension
 13
9438.900947347667
 23
4378.686414461503
 33
0.0
 14
9434.847491791039
 24
4237.74469069579
 34
0.0
1001
ACAD
1000
DSTYLE
1002
{
1070
   174
1070
     0
1070
   272
1070
     1
1070
   288
1070
     0
1070
   341
1005
0
1002
}
  0
LINE
  5
17673
330
747D
100
AcDbEntity
  8
部品1
100
AcDbLine
 10
10794.50492718908
 20
4144.963665626823
 30
0.0
 11
10794.50492718908
 21
2054.963665626823
 31
0.0
  0
LINE
  5
17674
330
747D
100
AcDbEntity
  8
細線
 48
50.0
100
AcDbLine
 10
10452.00492718908
 20
4144.963665626823
 30
0.0
 11
10452.00492718909
 21
2054.963665626823
 31
0.0
  0
LINE
  5
17675
330
747D
100
AcDbEntity
  8
細線
 48
50.0
100
AcDbLine
 10
10437.00492718908
 20
4144.963665626823
 30
0.0
 11
10437.00492718909
 21
2054.963665626823
 31
0.0
  0
LINE
  5
17676
330
747D
100
AcDbEntity
  8
細線
 48
50.0
100
AcDbLine
 10
10577.00492718908
 20
4144.963665626823
 30
0.0
 11
10577.00492718909
 21
2054.963665626823
 31
0.0
  0
LINE
  5
17677
330
747D
100
AcDbEntity
  8
細線
 48
50.0
100
AcDbLine
 10
10592.00492718908
 20
4144.963665626823
 30
0.0
 11
10592.00492718909
 21
2054.963665626823
 31
0.0
  0
LINE
  5
17678
330
747D
100
AcDbEntity
  8
細線
 48
50.0
100
AcDbLine
 10
10732.00492718908
 20
4144.963665626823
 30
0.0
 11
10732.00492718909
 21
2054.963665626823
 31
0.0
  0
LINE
  5
17679
330
747D
100
AcDbEntity
  8
細線
 48
50.0
100
AcDbLine
 10
10717.00492718908
 20
4144.963665626823
 30
0.0
 11
10717.00492718909
 21
2054.963665626823
 31
0.0
  0
LINE
  5
1767A
330
747D
100
AcDbEntity
  8
部品1
100
AcDbLine
 10
10374.50492718908
 20
4144.963665626823
 30
0.0
 11
10374.50492718908
 21
2054.963665626823
 31
0.0
  0
DIMENSION
  5
1767B
330
747D
100
AcDbEntity
  8
寸法
 48
50.0
100
AcDbDimension
  2
*D14
 10
12609.50492718908
 20
4778.621119206129
 30
0.0
 11
12815.55217128357
 21
4778.621119206129
 31
0.0
 70
   160
 71
     5
 42
80.0
  3
INABA_S40G
100
AcDbAlignedDimension
 13
12529.50492718908
 23
4326.774345238479
 33
0.0
 14
12609.50492718908
 24
4324.963665626826
 34
0.0
100
AcDbRotatedDimension
1001
ACAD
1000
DSTYLE
1002
{
1070
   174
1070
     0
1070
   272
1070
     1
1070
   288
1070
     0
1070
   341
1005
0
1002
}
  0
LINE
  5
1767C
330
747D
100
AcDbEntity
  8
細線
 48
50.0
100
AcDbLine
 10
9612.004927189087
 20
4144.963665626823
 30
0.0
 11
9612.004927189087
 21
2054.963665626823
 31
0.0
  0
LINE
  5
1767D
330
747D
100
AcDbEntity
  8
細線
 48
50.0
100
AcDbLine
 10
9597.004927189086
 20
4144.963665626823
 30
0.0
 11
9597.004927189086
 21
2054.963665626823
 31
0.0
  0
LINE
  5
1767E
330
747D
100
AcDbEntity
  8
細線
 48
50.0
100
AcDbLine
 10
9737.004927189087
 20
4144.963665626823
 30
0.0
 11
9737.004927189087
 21
2054.963665626823
 31
0.0
  0
LINE
  5
1767F
330
747D
100
AcDbEntity
  8
細線
 48
50.0
100
AcDbLine
 10
9752.004927189085
 20
4144.963665626823
 30
0.0
 11
9752.004927189085
 21
2054.963665626823
 31
0.0
  0
LINE
  5
17680
330
747D
100
AcDbEntity
  8
細線
 48
50.0
100
AcDbLine
 10
9892.004927189086
 20
4144.963665626823
 30
0.0
 11
9892.004927189086
 21
2054.963665626823
 31
0.0
  0
LINE
  5
17681
330
747D
100
AcDbEntity
  8
細線
 48
50.0
100
AcDbLine
 10
9877.004927189085
 20
4144.963665626823
 30
0.0
 11
9877.004927189085
 21
2054.963665626823
 31
0.0
  0
LINE
  5
1768A
330
747D
100
AcDbEntity
  8
部品1
100
AcDbLine
 10
9534.504927189093
 20
2004.963665626823
 30
0.0
 11
12529.50492718908
 21
2004.963665626823
 31
0.0
  0
DIMENSION
  5
176A4
330
747D
100
AcDbEntity
  8
寸法
 48
50.0
100
AcDbDimension
  2
*D15
 10
9419.504927189086
 20
5008.734711992405
 30
0.0
 11
11091.21073349861
 21
5008.734711992405
 31
0.0
 70
   160
 71
     5
 42
3190.0
  3
INABA_S40G
100
AcDbAlignedDimension
 13
12609.50492718908
 23
4324.963665626825
 33
0.0
 14
9419.504927189086
 24
4379.963665626827
 34
0.0
100
AcDbRotatedDimension
1001
ACAD
1000
DSTYLE
1002
{
1070
   174
1070
     0
1070
   272
1070
     1
1070
   288
1070
     0
1070
   341
1005
0
1002
}
  0
DIMENSION
  5
176A5
330
747D
100
AcDbEntity
  8
寸法
 48
50.0
100
AcDbDimension
  2
*D16
 10
9419.504927189086
 20
4778.621119206127
 30
0.0
 11
9109.867131913494
 21
4778.621119206127
 31
0.0
 70
   160
 71
     5
 42
60.0
  3
INABA_S40G
100
AcDbAlignedDimension
 13
9479.504927189086
 23
4375.965283749799
 33
0.0
 14
9419.504927189086
 24
4379.963665626827
 34
0.0
100
AcDbRotatedDimension
1001
ACAD
1000
DSTYLE
1002
{
1070
   174
1070
     0
1070
   272
1070
     1
1070
   288
1070
     0
1070
   341
1005
0
1002
}
  0
DIMENSION
  5
176A6
330
747D
100
AcDbEntity
  8
寸法
 48
50.0
100
AcDbDimension
  2
*D17
 10
9479.504927189086
 20
4778.621119206129
 30
0.0
 11
11049.5633017485
 21
4778.621119206129
 31
0.0
 70
   160
  1
柱外寸法<>
 71
     5
 42
3050.0
  3
INABA_S40G
100
AcDbAlignedDimension
 13
12529.50492718908
 23
4326.774345238479
 33
0.0
 14
9479.504927189086
 24
4375.965283749799
 34
0.0
100
AcDbRotatedDimension
1001
ACAD
1000
DSTYLE
1002
{
1070
   174
1070
     0
1070
   272
1070
     1
1070
   288
1070
     0
1070
   341
1005
0
1002
}
  0
LINE
  5
176A9
330
747D
100
AcDbEntity
  8
部品1
100
AcDbLine
 10
12474.50492718908
 20
4144.963665626824
 30
0.0
 11
12474.50492718908
 21
2054.963665626825
 31
0.0
  0
LINE
  5
176AA
330
747D
100
AcDbEntity
  8
部品1
100
AcDbLine
 10
12529.50492718908
 20
4199.393693407944
 30
0.0
 11
12529.50492718908
 21
1904.963665626825
 31
0.0
  0
LINE
  5
176AB
330
747D
100
AcDbEntity
  8
部品1
100
AcDbLine
 10
9954.504927189086
 20
4144.963665626823
 30
0.0
 11
9954.504927189086
 21
2054.963665626823
 31
0.0
  0
DIMENSION
  5
176AC
330
747D
100
AcDbEntity
  8
寸法
100
AcDbDimension
  2
*D18
 10
8635.754798005825
 20
2004.963665626823
 30
0.0
 11
8635.754798005825
 21
1698.916421532333
 31
0.0
 70
   160
 71
     5
 42
50.00000000000023
  3
INABA_S40G
100
AcDbAlignedDimension
 13
9479.504927189086
 23
2054.963665626823
 33
0.0
 14
9424.504927189087
 24
2004.963665626823
 34
0.0
 50
90.0
100
AcDbRotatedDimension
1001
ACAD
1000
DSTYLE
1002
{
1070
   174
1070
     0
1070
   272
1070
     1
1070
   288
1070
     0
1070
   341
1005
0
1002
}
  0
LINE
  5
176AE
330
747D
100
AcDbEntity
  8
部品1
100
AcDbLine
 10
9479.504927189086
 20
4237.106103555701
 30
0.0
 11
9479.504927189086
 21
1904.963665626823
 31
0.0
  0
LINE
  5
176AF
330
747D
100
AcDbEntity
  8
部品1
100
AcDbLine
 10
9534.504927189086
 20
4144.963665626823
 30
0.0
 11
9534.504927189093
 21
1904.963665626823
 31
0.0
  0
LINE
  5
176B1
330
747D
100
AcDbEntity
  8
部品1
100
AcDbLine
 10
9534.504927189093
 20
2054.963665626823
 30
0.0
 11
12529.50492718908
 21
2054.963665626825
 31
0.0
  0
LINE
  5
176B2
330
747D
100
AcDbEntity
  8
部品1
100
AcDbLine
 10
9479.504927189086
 20
4144.963665626823
 30
0.0
 11
12529.50492718908
 21
4144.963665626823
 31
0.0
  0
LINE
  5
176B3
330
747D
100
AcDbEntity
  8
部品1
100
AcDbLine
 10
12474.50492718908
 20
4144.963665626827
 30
0.0
 11
12474.50492718908
 21
2054.963665626827
 31
0.0
  0
LINE
  5
176B4
330
747D
100
AcDbEntity
  8
細線
 48
50.0
100
AcDbLine
 10
11137.00492718908
 20
4144.963665626823
 30
0.0
 11
11137.00492718908
 21
2054.963665626823
 31
0.0
  0
LINE
  5
176B5
330
747D
100
AcDbEntity
  8
細線
 48
50.0
100
AcDbLine
 10
11152.00492718908
 20
4144.963665626823
 30
0.0
 11
11152.00492718908
 21
2054.963665626823
 31
0.0
  0
LINE
  5
176B6
330
747D
100
AcDbEntity
  8
細線
 48
50.0
100
AcDbLine
 10
11012.00492718908
 20
4144.963665626823
 30
0.0
 11
11012.00492718908
 21
2054.963665626823
 31
0.0
  0
LINE
  5
176B7
330
747D
100
AcDbEntity
  8
細線
 48
50.0
100
AcDbLine
 10
10997.00492718908
 20
4144.963665626823
 30
0.0
 11
10997.00492718908
 21
2054.963665626823
 31
0.0
  0
LINE
  5
176B8
330
747D
100
AcDbEntity
  8
細線
 48
50.0
100
AcDbLine
 10
10857.00492718908
 20
4144.963665626823
 30
0.0
 11
10857.00492718908
 21
2054.963665626823
 31
0.0
  0
LINE
  5
176B9
330
747D
100
AcDbEntity
  8
細線
 48
50.0
100
AcDbLine
 10
10872.00492718908
 20
4144.963665626823
 30
0.0
 11
10872.00492718908
 21
2054.963665626823
 31
0.0
  0
TEXT
  5
176BA
330
747D
100
AcDbEntity
  8
部品1
 48
50.0
100
AcDbText
 10
11349.37407124445
 20
4402.23275856513
 30
0.0
 40
120.0
  1
32
 50
90.0
  7
STYLE1
100
AcDbText
  0
TEXT
  5
176BB
330
747D
100
AcDbEntity
  8
部品1
 48
50.0
100
AcDbText
 10
10871.74104857936
 20
4539.734016783413
 30
0.0
 40
120.0
  1
1000
  7
STYLE1
100
AcDbText
  0
LINE
  5
176BC
330
747D
100
AcDbEntity
  8
部品1
 48
50.0
100
AcDbLine
 10
11183.47321335563
 20
4503.849994630979
 30
0.0
 11
11183.47321335563
 21
4487.64999463098
 31
0.0
  0
LINE
  5
176BD
330
747D
100
AcDbEntity
  8
部品1
 48
50.0
100
AcDbLine
 10
10883.47321335563
 20
4503.849994630979
 30
0.0
 11
11183.47321335563
 21
4503.849994630979
 31
0.0
  0
LINE
  5
176BE
330
747D
100
AcDbEntity
  8
部品1
100
AcDbLine
 10
9427.049913546047
 20
4378.68140096109
 30
0.0
 11
12602.11680405055
 21
4323.604463335962
 31
0.0
  0
LINE
  5
176BF
330
747D
100
AcDbEntity
  8
部品1
100
AcDbLine
 10
9434.847491791039
 20
4237.74469069579
 30
0.0
 11
12584.16862772893
 21
4198.716265461585
 31
0.0
  0
LINE
  5
176C0
330
747D
100
AcDbEntity
  8
細線
 48
50.0
100
AcDbLine
 10
9452.504927189087
 20
4377.363342002228
 30
0.0
 11
9447.215825633579
 21
4237.277709374874
 31
0.0
  0
LINE
  5
176C1
330
747D
100
AcDbEntity
  8
細線
 48
50.0
100
AcDbLine
 10
12576.47421038277
 20
4324.117088106293
 30
0.0
 11
12571.75724430109
 21
4199.184872171375
 31
0.0
  0
LINE
  5
176C2
330
747D
100
AcDbEntity
  8
部品1
 48
50.0
100
AcDbLine
 10
9419.689213102193
 20
4371.557211791516
 30
0.0
 11
9420.069472880005
 21
4351.630247345104
 31
0.0
  0
LINE
  5
176C3
330
747D
100
AcDbEntity
  8
部品1
 48
50.0
100
AcDbLine
 10
9423.138244986251
 20
4348.054965851632
 30
0.0
 11
9424.842146477613
 21
4258.764469144985
 31
0.0
  0
LINE
  5
176C4
330
747D
100
AcDbEntity
  8
細線
 48
50.0
100
AcDbLine
 10
9420.544350289899
 20
4350.980747468184
 30
0.0
 11
12606.18033503507
 21
4295.356542827357
 31
0.0
  0
LINE
  5
176C5
330
747D
100
AcDbEntity
  8
細線
 48
50.0
100
AcDbLine
 10
9425.304825527186
 20
4258.119235770322
 30
0.0
 11
12595.30848995783
 21
4218.309916795828
 31
0.0
  0
LINE
  5
176C6
330
747D
100
AcDbEntity
  8
部品1
 48
50.0
100
AcDbLine
 10
9427.910918583858
 20
4255.189187651512
 30
0.0
 11
9428.112871204289
 21
4244.606152258421
 31
0.0
  0
ARC
  5
176C7
330
747D
100
AcDbEntity
  8
部品1
 48
50.0
100
AcDbCircle
 10
9426.687938930532
 20
4371.690766198944
 30
0.0
 40
7.0
100
AcDbArc
 50
87.03587545283093
 51
181.0932240293156
  0
ARC
  5
176C8
330
747D
100
AcDbEntity
  8
部品1
 48
50.0
100
AcDbCircle
 10
9435.111597032628
 20
4244.739706665849
 30
0.0
 40
7.0
100
AcDbArc
 50
181.0932240293156
 51
267.8377559869487
  0
ARC
  5
176C9
330
747D
100
AcDbEntity
  8
部品1
100
AcDbCircle
 10
9424.911464657427
 20
4255.131950048329
 30
0.0
 40
3.0
100
AcDbArc
 50
1.093224029315636
 51
80.18775403169653
  0
ARC
  5
176CA
330
747D
100
AcDbEntity
  8
部品1
100
AcDbCircle
 10
9420.138791059819
 20
4347.997728248449
 30
0.0
 40
3.0
100
AcDbArc
 50
1.093224029315636
 51
80.18775403169653
  0
ARC
  5
176CB
330
747D
100
AcDbEntity
  8
部品1
100
AcDbCircle
 10
9420.769345462842
 20
4351.643602785846
 30
0.0
 40
0.7
100
AcDbArc
 50
181.0932240292114
 51
260.1877540314867
  0
ARC
  5
176CC
330
747D
100
AcDbEntity
  8
部品1
100
AcDbCircle
 10
9425.542019060452
 20
4258.777824585727
 30
0.0
 40
0.7
100
AcDbArc
 50
181.0932240292635
 51
260.1877540314867
  0
LINE
  5
176CD
330
747D
100
AcDbEntity
  8
部品1
 48
50.0
100
AcDbLine
 10
12608.71882999979
 20
4315.904817901042
 30
0.0
 11
12606.68820880882
 21
4295.959776643263
 31
0.0
  0
LINE
  5
176CE
330
747D
100
AcDbEntity
  8
部品1
 48
50.0
100
AcDbLine
 10
12603.33564232433
 20
4292.649142570353
 30
0.0
 11
12595.8288630595
 21
4218.916521825341
 31
0.0
  0
LINE
  5
176CF
330
747D
100
AcDbEntity
  8
部品1
 48
50.0
100
AcDbLine
 10
12592.47629657501
 20
4215.605887752429
 30
0.0
 11
12591.39673353527
 21
4205.00227075887
 31
0.0
  0
ARC
  5
176D0
330
747D
100
AcDbEntity
  8
部品1
 48
50.0
100
AcDbCircle
 10
12601.75482943504
 20
4316.613828573816
 30
0.0
 40
7.0
100
AcDbArc
 50
354.1866997665532
 51
87.03587545283093
  0
ARC
  5
176D1
330
747D
100
AcDbEntity
  8
部品1
 48
50.0
100
AcDbCircle
 10
12584.43273297052
 20
4205.711281431644
 30
0.0
 40
7.0
100
AcDbArc
 50
267.8377559869487
 51
354.1866997665532
  0
ARC
  5
176D2
330
747D
100
AcDbEntity
  8
部品1
100
AcDbCircle
 10
12595.46086824562
 20
4215.302026035526
 30
0.0
 40
3.0
100
AcDbArc
 50
95.0921697642102
 51
174.1866997665532
  0
ARC
  5
176D3
330
747D
100
AcDbEntity
  8
部品1
100
AcDbCircle
 10
12606.32021399495
 20
4292.34528085345
 30
0.0
 40
3.0
100
AcDbArc
 50
95.0921697642102
 51
174.1866997665532
  0
ARC
  5
176D4
330
747D
100
AcDbEntity
  8
部品1
100
AcDbCircle
 10
12605.99180875235
 20
4296.03067771054
 30
0.0
 40
0.7
100
AcDbArc
 50
275.0921697642102
 51
354.1866997665532
  0
ARC
  5
176D5
330
747D
100
AcDbEntity
  8
部品1
100
AcDbCircle
 10
12595.13246300302
 20
4218.987422892616
 30
0.0
 40
0.7
100
AcDbArc
 50
275.0921697642102
 51
354.1866997667087
  0
LINE
  5
176D6
330
747D
100
AcDbEntity
  8
部品1
100
AcDbLine
 10
10858.0181997126
 20
4505.168053589841
 30
0.0
 11
11183.47321335563
 21
4487.64999463098
 31
0.0
  0
LINE
  5
176D7
330
747D
100
AcDbEntity
  8
部品1
100
AcDbLine
 10
11214.50492718908
 20
4144.963665626823
 30
0.0
 11
11214.50492718908
 21
2054.963665626825
 31
0.0
  0
LINE
  5
176D8
330
747D
100
AcDbEntity
  8
細線
 48
50.0
100
AcDbLine
 10
11292.00492718908
 20
4144.963665626823
 30
0.0
 11
11292.00492718908
 21
2054.963665626825
 31
0.0
  0
LINE
  5
176D9
330
747D
100
AcDbEntity
  8
細線
 48
50.0
100
AcDbLine
 10
11277.00492718908
 20
4144.963665626823
 30
0.0
 11
11277.00492718908
 21
2054.963665626825
 31
0.0
  0
LINE
  5
176DA
330
747D
100
AcDbEntity
  8
細線
 48
50.0
100
AcDbLine
 10
11417.00492718908
 20
4144.963665626823
 30
0.0
 11
11417.00492718908
 21
2054.963665626825
 31
0.0
  0
LINE
  5
176DB
330
747D
100
AcDbEntity
  8
細線
 48
50.0
100
AcDbLine
 10
11432.00492718908
 20
4144.963665626823
 30
0.0
 11
11432.00492718908
 21
2054.963665626825
 31
0.0
  0
LINE
  5
176DC
330
747D
100
AcDbEntity
  8
細線
 48
50.0
100
AcDbLine
 10
11572.00492718908
 20
4144.963665626823
 30
0.0
 11
11572.00492718908
 21
2054.963665626825
 31
0.0
  0
LINE
  5
176DD
330
747D
100
AcDbEntity
  8
細線
 48
50.0
100
AcDbLine
 10
11557.00492718908
 20
4144.963665626823
 30
0.0
 11
11557.00492718908
 21
2054.963665626825
 31
0.0
  0
DIMENSION
  5
176DE
330
747D
100
AcDbEntity
  8
寸法
100
AcDbDimension
  2
*D19
 10
13234.43208516121
 20
4324.963665626825
 30
0.0
 11
13134.42027413759
 21
3164.963665626827
 31
0.0
 70
    32
 71
     5
 42
2320.0
  3
INABA_S40G
100
AcDbAlignedDimension
 13
12529.50492718908
 23
2004.963665626826
 33
0.0
 14
12609.50492718908
 24
4324.963665626825
 34
0.0
 50
90.0
100
AcDbRotatedDimension
1001
ACAD
1000
DSTYLE
1002
{
1070
   174
1070
     0
1070
   272
1070
     1
1070
   288
1070
     0
1070
   341
1005
0
1002
}
  0
DIMENSION
  5
176DF
330
747D
100
AcDbEntity
  8
寸法
100
AcDbDimension
  2
*D20
 10
8335.754798005826
 20
4379.963665626823
 30
0.0
 11
8235.742986982202
 21
3192.463665626823
 31
0.0
 70
    32
 71
     5
 42
2375.000000000005
  3
INABA_S40G
100
AcDbAlignedDimension
 13
9479.504927189086
 23
2004.963665626819
 33
0.0
 14
9419.504927189086
 24
4379.963665626823
 34
0.0
 50
90.0
100
AcDbRotatedDimension
1001
ACAD
1000
DSTYLE
1002
{
1070
   174
1070
     0
1070
   272
1070
     1
1070
   288
1070
     0
1070
   341
1005
0
1002
}
  0
DIMENSION
  5
176E0
330
747D
100
AcDbEntity
  8
寸法
100
AcDbDimension
  2
*D21
 10
8635.754798005825
 20
2054.963665626819
 30
0.0
 11
8535.742986982205
 21
3099.963665626821
 31
0.0
 70
    32
 71
     5
 42
2090.000000000001
  3
INABA_S40G
100
AcDbAlignedDimension
 13
9479.504927189086
 23
4144.96366562682
 33
0.0
 14
9479.504927189086
 24
2054.963665626818
 34
0.0
 50
90.0
100
AcDbRotatedDimension
1001
ACAD
1000
DSTYLE
1002
{
1070
   174
1070
     0
1070
   272
1070
     1
1070
   288
1070
     0
1070
   341
1005
0
1002
}
  0
TEXT
  5
17D34
330
747D
100
AcDbEntity
  8
文字
 62
     7
 48
50.0
100
AcDbText
 10
14499.88896070973
 20
483.8967129911414
 30
0.0
 40
160.0
  1
FXN-80HDG
  7
STYLE3
100
AcDbText
  0
LINE
  5
17D4B
330
747D
100
AcDbEntity
  8
補助
  6
PHANTOM
 62
   230
 48
50.0
100
AcDbLine
 10
140.0
 20
0.0
 30
0.0
 11
139.9999999999995
 21
11409.6
 31
0.0
  0
DIMENSION
  5
17EAC
330
747D
100
AcDbEntity
  8
寸法
 48
50.0
100
AcDbDimension
  2
*D23
 10
7076.212138568433
 20
4144.963665626823
 30
0.0
 11
7076.212138568431
 21
4383.448947001062
 31
0.0
 70
   160
 71
     5
 42
165.0
  3
INABA_S40G
100
AcDbAlignedDimension
 13
6788.669036246687
 23
3979.963665626824
 33
0.0
 14
6788.669036246685
 24
4144.963665626823
 34
0.0
 50
90.0
100
AcDbRotatedDimension
1001
ACAD
1000
DSTYLE
1002
{
1002
}
  0
DIMENSION
  5
17EAD
330
747D
100
AcDbEntity
  8
寸法
 48
50.0
100
AcDbDimension
  2
*D24
 10
7076.212138568431
 20
3979.963665626824
 30
0.0
 11
7216.381961814796
 21
3980.930865466482
 31
0.0
 70
   160
 71
     5
 42
27.00000000000136
  3
INABA_S40G
100
AcDbAlignedDimension
 13
6788.669036246687
 23
3952.963665626823
 33
0.0
 14
6788.669036246687
 24
3979.963665626824
 34
0.0
 50
90.0
100
AcDbRotatedDimension
1001
ACAD
1000
DSTYLE
1002
{
1070
   279
1070
     2
1002
}
  0
DIMENSION
  5
17EAE
330
747D
100
AcDbEntity
  8
寸法
 48
50.0
100
AcDbDimension
  2
*D25
 10
7076.212138568431
 20
3952.963665626823
 30
0.0
 11
6976.212138568431
 21
2978.963665626822
 31
0.0
 70
    32
  1
有効開口部高サ <>
 71
     5
 42
1948.000000000003
  3
INABA_S40G
100
AcDbAlignedDimension
 13
6788.669036246685
 23
2004.963665626819
 33
0.0
 14
6788.669036246687
 24
3952.963665626823
 34
0.0
 50
90.0
100
AcDbRotatedDimension
  0
ARC
  5
18144
330
747D
100
AcDbEntity
  8
部品1
 48
0.01
100
AcDbCircle
 10
4946.669036246689
 20
4208.963665626823
 30
0.0
 40
2.0
100
AcDbArc
 50
0.0
 51
90.0
  0
ARC
  5
18145
330
747D
100
AcDbEntity
  8
部品1
 48
0.01
100
AcDbCircle
 10
4770.669036246689
 20
4208.963665626823
 30
0.0
 40
2.0
100
AcDbArc
 50
90.0
 51
180.0
  0
LINE
  5
18146
330
747D
100
AcDbEntity
  8
細線
100
AcDbLine
 10
4858.669036246685
 20
4181.463665626823
 30
0.0
 11
4932.669036246689
 21
4181.463665626823
 31
0.0
  0
LINE
  5
18147
330
747D
100
AcDbEntity
  8
細線
100
AcDbLine
 10
4858.669036246689
 20
4204.463665626823
 30
0.0
 11
4784.669036246689
 21
4204.463665626823
 31
0.0
  0
LINE
  5
18148
330
747D
100
AcDbEntity
  8
細線
100
AcDbLine
 10
4784.669036246689
 20
4181.463665626823
 30
0.0
 11
4858.669036246689
 21
4181.463665626823
 31
0.0
  0
LINE
  5
18149
330
747D
100
AcDbEntity
  8
細線
100
AcDbLine
 10
4932.669036246689
 20
4204.463665626823
 30
0.0
 11
4858.669036246689
 21
4204.463665626823
 31
0.0
  0
LINE
  5
1814A
330
747D
100
AcDbEntity
  8
細線
100
AcDbLine
 10
4932.669036246689
 20
4181.463665626823
 30
0.0
 11
4932.669036246689
 21
4204.463665626823
 31
0.0
  0
LINE
  5
1814B
330
747D
100
AcDbEntity
  8
細線
100
AcDbLine
 10
4784.669036246689
 20
4204.463665626823
 30
0.0
 11
4784.669036246689
 21
4181.463665626823
 31
0.0
  0
LINE
  5
1814C
330
747D
100
AcDbEntity
  8
部品1
 48
0.01
100
AcDbLine
 10
4948.669036246685
 20
4177.463665626823
 30
0.0
 11
4948.669036246688
 21
4208.963665626823
 31
0.0
  0
LINE
  5
1814D
330
747D
100
AcDbEntity
  8
部品1
 48
0.01
100
AcDbLine
 10
4768.669036246689
 20
4208.963665626823
 30
0.0
 11
4768.669036246689
 21
4177.463665626823
 31
0.0
  0
LINE
  5
1814E
330
747D
100
AcDbEntity
  8
部品1
 48
0.01
100
AcDbLine
 10
4946.669036246689
 20
4210.963665626823
 30
0.0
 11
4770.669036246689
 21
4210.963665626823
 31
0.0
  0
LINE
  5
1814F
330
747D
100
AcDbEntity
  8
細線
100
AcDbLine
 10
4784.669036246689
 20
4198.463665626823
 30
0.0
 11
4858.669036246689
 21
4198.463665626823
 31
0.0
  0
LINE
  5
18150
330
747D
100
AcDbEntity
  8
細線
100
AcDbLine
 10
4784.669036246689
 20
4192.463665626823
 30
0.0
 11
4858.669036246689
 21
4192.463665626823
 31
0.0
  0
LINE
  5
18151
330
747D
100
AcDbEntity
  8
細線
100
AcDbLine
 10
4784.669036246685
 20
4186.463665626823
 30
0.0
 11
4858.669036246689
 21
4186.463665626823
 31
0.0
  0
LINE
  5
18152
330
747D
100
AcDbEntity
  8
細線
100
AcDbLine
 10
4784.669036246689
 20
4198.463665626823
 30
0.0
 11
4853.669036246689
 21
4198.463665626823
 31
0.0
  0
LINE
  5
18153
330
747D
100
AcDbEntity
  8
細線
100
AcDbLine
 10
4932.669036246686
 20
4198.463665626823
 30
0.0
 11
4858.669036246689
 21
4198.463665626823
 31
0.0
  0
LINE
  5
18154
330
747D
100
AcDbEntity
  8
細線
100
AcDbLine
 10
4932.669036246686
 20
4186.463665626823
 30
0.0
 11
4858.669036246689
 21
4186.463665626823
 31
0.0
  0
LINE
  5
18155
330
747D
100
AcDbEntity
  8
細線
100
AcDbLine
 10
4932.669036246686
 20
4192.463665626823
 30
0.0
 11
4858.669036246689
 21
4192.463665626823
 31
0.0
  0
LINE
  5
18156
330
747D
100
AcDbEntity
  8
細線
100
AcDbLine
 10
4858.669036246689
 20
4204.463665626823
 30
0.0
 11
4858.669036246685
 21
4181.463665626823
 31
0.0
  0
LINE
  5
18157
330
747D
100
AcDbEntity
  8
細線
100
AcDbLine
 10
6088.669036246688
 20
4204.463665626823
 30
0.0
 11
6088.669036246688
 21
4181.463665626823
 31
0.0
  0
LINE
  5
18158
330
747D
100
AcDbEntity
  8
細線
100
AcDbLine
 10
6014.669036246689
 20
4192.463665626823
 30
0.0
 11
6088.669036246688
 21
4192.463665626823
 31
0.0
  0
LINE
  5
18159
330
747D
100
AcDbEntity
  8
細線
100
AcDbLine
 10
6014.669036246689
 20
4186.463665626823
 30
0.0
 11
6088.669036246688
 21
4186.463665626823
 31
0.0
  0
LINE
  5
1815A
330
747D
100
AcDbEntity
  8
細線
100
AcDbLine
 10
6014.669036246689
 20
4198.463665626823
 30
0.0
 11
6088.669036246688
 21
4198.463665626823
 31
0.0
  0
LINE
  5
1815B
330
747D
100
AcDbEntity
  8
細線
100
AcDbLine
 10
6162.669036246689
 20
4198.463665626823
 30
0.0
 11
6093.669036246689
 21
4198.463665626823
 31
0.0
  0
LINE
  5
1815C
330
747D
100
AcDbEntity
  8
細線
100
AcDbLine
 10
6162.669036246689
 20
4186.463665626823
 30
0.0
 11
6088.669036246688
 21
4186.463665626823
 31
0.0
  0
LINE
  5
1815D
330
747D
100
AcDbEntity
  8
細線
100
AcDbLine
 10
6162.669036246689
 20
4192.463665626823
 30
0.0
 11
6088.669036246688
 21
4192.463665626823
 31
0.0
  0
LINE
  5
1815E
330
747D
100
AcDbEntity
  8
細線
100
AcDbLine
 10
6162.669036246689
 20
4198.463665626823
 30
0.0
 11
6088.669036246688
 21
4198.463665626823
 31
0.0
  0
LINE
  5
1815F
330
747D
100
AcDbEntity
  8
部品1
 48
0.01
100
AcDbLine
 10
6000.669036246689
 20
4210.963665626823
 30
0.0
 11
6176.669036246689
 21
4210.963665626823
 31
0.0
  0
LINE
  5
18160
330
747D
100
AcDbEntity
  8
部品1
 48
0.01
100
AcDbLine
 10
6178.669036246689
 20
4208.963665626823
 30
0.0
 11
6178.669036246689
 21
4177.463665626823
 31
0.0
  0
LINE
  5
18161
330
747D
100
AcDbEntity
  8
部品1
 48
0.01
100
AcDbLine
 10
5998.669036246688
 20
4177.463665626823
 30
0.0
 11
5998.669036246688
 21
4208.963665626823
 31
0.0
  0
LINE
  5
18162
330
747D
100
AcDbEntity
  8
細線
100
AcDbLine
 10
6162.669036246689
 20
4204.463665626823
 30
0.0
 11
6162.669036246689
 21
4181.463665626823
 31
0.0
  0
LINE
  5
18163
330
747D
100
AcDbEntity
  8
細線
100
AcDbLine
 10
6014.669036246689
 20
4181.463665626823
 30
0.0
 11
6014.669036246689
 21
4204.463665626823
 31
0.0
  0
LINE
  5
18164
330
747D
100
AcDbEntity
  8
細線
100
AcDbLine
 10
6014.669036246689
 20
4204.463665626823
 30
0.0
 11
6088.669036246688
 21
4204.463665626823
 31
0.0
  0
LINE
  5
18165
330
747D
100
AcDbEntity
  8
細線
100
AcDbLine
 10
6162.669036246689
 20
4181.463665626823
 30
0.0
 11
6088.669036246688
 21
4181.463665626823
 31
0.0
  0
LINE
  5
18166
330
747D
100
AcDbEntity
  8
細線
100
AcDbLine
 10
6088.669036246688
 20
4204.463665626823
 30
0.0
 11
6162.669036246689
 21
4204.463665626823
 31
0.0
  0
LINE
  5
18167
330
747D
100
AcDbEntity
  8
細線
100
AcDbLine
 10
6088.669036246688
 20
4181.463665626823
 30
0.0
 11
6014.669036246689
 21
4181.463665626823
 31
0.0
  0
ARC
  5
18168
330
747D
100
AcDbEntity
  8
部品1
 48
0.01
100
AcDbCircle
 10
6176.669036246689
 20
4208.963665626823
 30
0.0
 40
2.0
100
AcDbArc
 50
0.0
 51
90.0
  0
ARC
  5
18169
330
747D
100
AcDbEntity
  8
部品1
 48
0.01
100
AcDbCircle
 10
6000.669036246689
 20
4208.963665626823
 30
0.0
 40
2.0
100
AcDbArc
 50
90.0
 51
180.0
  0
ARC
  5
1816A
330
747D
100
AcDbEntity
  8
部品1
 48
0.01
100
AcDbCircle
 10
4946.669036246685
 20
4177.463665626823
 30
0.0
 40
2.0
100
AcDbArc
 50
270.0
 51
0.0
  0
ARC
  5
1816B
330
747D
100
AcDbEntity
  8
部品1
 48
0.01
100
AcDbCircle
 10
4770.669036246689
 20
4177.463665626823
 30
0.0
 40
2.0
100
AcDbArc
 50
180.0
 51
270.0
  0
LINE
  5
1816C
330
747D
100
AcDbEntity
  8
部品1
 48
0.01
100
AcDbLine
 10
4770.669036246689
 20
4175.463665626823
 30
0.0
 11
4946.669036246685
 21
4175.463665626823
 31
0.0
  0
LINE
  5
1816D
330
747D
100
AcDbEntity
  8
部品1
 48
0.01
100
AcDbLine
 10
6176.669036246689
 20
4175.463665626823
 30
0.0
 11
6000.669036246689
 21
4175.463665626823
 31
0.0
  0
ARC
  5
1816E
330
747D
100
AcDbEntity
  8
部品1
 48
0.01
100
AcDbCircle
 10
6176.669036246689
 20
4177.463665626823
 30
0.0
 40
2.0
100
AcDbArc
 50
270.0
 51
0.0
  0
ARC
  5
1816F
330
747D
100
AcDbEntity
  8
部品1
 48
0.01
100
AcDbCircle
 10
6000.669036246689
 20
4177.463665626823
 30
0.0
 40
2.0
100
AcDbArc
 50
180.0
 51
270.0
  0
TEXT
  5
18A6E
330
747D
100
AcDbEntity
  8
文字
 62
     7
 48
50.0
100
AcDbText
 10
13583.11819016569
 20
9060.013745883729
 30
0.0
 40
100.0
  1
棚板
  7
STYLE1
100
AcDbText
  0
TEXT
  5
18A6F
330
747D
100
AcDbEntity
  8
文字
 62
     7
 48
50.0
100
AcDbText
 10
15022.63965474516
 20
9060.013745883725
 30
0.0
 40
100.0
  1
F12            0.6
  7
STYLE1
100
AcDbText
  0
TEXT
  5
18AAC
330
747D
100
AcDbEntity
  8
文字
 62
     7
 48
50.0
100
AcDbText
 10
15022.63965474515
 20
8890.013745883718
 30
0.0
 40
100.0
  1
F12            2.3
  7
STYLE1
100
AcDbText
  0
TEXT
  5
18AAD
330
747D
100
AcDbEntity
  8
文字
 62
     7
 48
50.0
100
AcDbText
 10
13583.11819016569
 20
8890.013745883726
 30
0.0
 40
100.0
  1
アンカープレート
  7
STYLE1
100
AcDbText
  0
TEXT
  5
18AB1
330
747D
100
AcDbEntity
  8
文字
 62
     7
 48
50.0
100
AcDbText
 10
13583.1181901657
 20
8720.013745883729
 30
0.0
 40
100.0
  1
ガラリ付壁パネル
  7
STYLE1
100
AcDbText
  0
TEXT
  5
18AB2
330
747D
100
AcDbEntity
  8
文字
 62
     7
 48
50.0
100
AcDbText
 10
15022.63965474516
 20
8720.013745883726
 30
0.0
 40
100.0
  1
F12            0.6
  7
STYLE1
100
AcDbText
  0
LINE
  5
19AC3
330
747D
100
AcDbEntity
  8
細線
 48
50.0
100
AcDbLine
 10
6760.169036246693
 20
10002.49742454596
 30
0.0
 11
5487.169036246694
 21
9552.497424545975
 31
0.0
  0
LINE
  5
19AC4
330
747D
100
AcDbEntity
  8
部品1
100
AcDbLine
 10
5487.169036246694
 20
9552.497424545975
 30
0.0
 11
6760.169036246669
 21
9552.497424545967
 31
0.0
  0
LINE
  5
19AC5
330
747D
100
AcDbEntity
  8
細線
 48
50.0
100
AcDbLine
 10
6760.169036246693
 20
9552.497424545968
 30
0.0
 11
5487.169036246694
 21
10002.49742454597
 31
0.0
  0
MTEXT
  5
19AC6
330
747D
100
AcDbEntity
  8
寸法
 62
     7
 48
50.0
100
AcDbMText
 10
6135.537059782713
 20
9629.13695532552
 30
0.0
 40
96.0
 41
0.0
 71
     5
 72
     1
  1
棚 3段
  7
STYLE1
 73
     1
 44
1.0
1001
ACAD
1000
MTEXTBEGIN
1070
    73
1070
     1
1070
    44
1040
1.0
1070
    74
1070
     0
1000
MTEXTEND
  0
DIMENSION
  5
19AC7
330
747D
100
AcDbEntity
  8
寸法
100
AcDbDimension
  2
*D28
 10
6680.442227539757
 20
9254.952923726314
 30
0.0
 11
6091.390312048159
 21
9254.952923726314
 31
0.0
 70
   160
 71
     5
 42
1273.000000000011
  3
INABA_S40G
100
AcDbAlignedDimension
 13
5487.169036246694
 23
9552.497424545975
 33
0.0
 14
6760.169036246705
 24
9552.497424545968
 34
0.0
100
AcDbRotatedDimension
1001
ACAD
1000
DSTYLE
1002
{
1002
}
  0
LINE
  5
19AC8
330
747D
100
AcDbEntity
  8
細線
 48
50.0
100
AcDbLine
 10
5460.169036246695
 20
9552.497424545975
 30
0.0
 11
4187.169036246694
 21
10002.49742454587
 31
0.0
  0
LINE
  5
19AC9
330
747D
100
AcDbEntity
  8
部品1
100
AcDbLine
 10
4187.169036246668
 20
9552.497424545869
 30
0.0
 11
5460.169036246695
 21
9552.497424545975
 31
0.0
  0
LINE
  5
19ACA
330
747D
100
AcDbEntity
  8
部品1
 48
50.0
100
AcDbLine
 10
5460.169036246695
 20
10002.49742454597
 30
0.0
 11
5460.169036246695
 21
9552.497424545975
 31
0.0
  0
LINE
  5
19ACB
330
747D
100
AcDbEntity
  8
部品1
 48
50.0
100
AcDbLine
 10
5487.169036246694
 20
10002.49742454597
 30
0.0
 11
5487.169036246694
 21
9552.497424545975
 31
0.0
  0
LINE
  5
19ACC
330
747D
100
AcDbEntity
  8
部品1
 48
50.0
100
AcDbLine
 10
5461.169036246694
 20
10004.49742454598
 30
0.0
 11
5461.169036246694
 21
9552.497424545975
 31
0.0
  0
LINE
  5
19ACD
330
747D
100
AcDbEntity
  8
部品1
 48
50.0
100
AcDbLine
 10
5486.169036246694
 20
10004.49742454597
 30
0.0
 11
5486.169036246694
 21
9552.497424545975
 31
0.0
  0
LINE
  5
19ACE
330
747D
100
AcDbEntity
  8
部品1
100
AcDbLine
 10
5461.169036246694
 20
9552.497424545975
 30
0.0
 11
5486.169036246694
 21
9552.497424545975
 31
0.0
  0
DIMENSION
  5
19ACF
330
747D
100
AcDbEntity
  8
寸法
100
AcDbDimension
  2
*D26
 10
5380.442227539785
 20
9254.952923726314
 30
0.0
 11
4763.159179075264
 21
9254.952923726314
 31
0.0
 70
   160
 71
     5
 42
1273.000000000011
  3
INABA_S40G
100
AcDbAlignedDimension
 13
4187.169036246694
 23
9552.497424545867
 33
0.0
 14
5460.169036246705
 24
9552.49742454586
 34
0.0
100
AcDbRotatedDimension
1001
ACAD
1000
DSTYLE
1002
{
1002
}
  0
LINE
  5
19AD0
330
747D
100
AcDbEntity
  8
細線
 48
50.0
100
AcDbLine
 10
5460.169036246695
 20
10002.49742454597
 30
0.0
 11
4187.169036246694
 21
9552.497424545871
 31
0.0
  0
MTEXT
  5
19AD1
330
747D
100
AcDbEntity
  8
寸法
 62
     7
 48
50.0
100
AcDbMText
 10
4835.537059782713
 20
9629.136955325474
 30
0.0
 40
96.0
 41
0.0
 71
     5
 72
     1
  1
棚 3段
  7
STYLE1
 73
     1
 44
1.0
1001
ACAD
1000
MTEXTBEGIN
1070
    73
1070
     1
1070
    44
1040
1.0
1070
    74
1070
     0
1000
MTEXTEND
  0
LINE
  5
19AD2
330
747D
100
AcDbEntity
  8
部品1
100
AcDbLine
 10
4187.169036246668
 20
10002.49742454587
 30
0.0
 11
5460.169036246695
 21
10002.49742454597
 31
0.0
  0
LINE
  5
19AD3
330
747D
100
AcDbEntity
  8
部品1
100
AcDbLine
 10
5487.169036246694
 20
10002.49742454597
 30
0.0
 11
6760.169036246672
 21
10002.49742454596
 31
0.0
  0
LINE
  5
19AD4
330
747D
100
AcDbEntity
  8
部品1
 48
50.0
100
AcDbLine
 10
4187.169036246668
 20
10002.49742454587
 30
0.0
 11
4187.169036246668
 21
9552.497424545869
 31
0.0
  0
LINE
  5
19AD5
330
747D
100
AcDbEntity
  8
部品1
100
AcDbLine
 10
6760.169036246672
 20
10002.49742454596
 30
0.0
 11
6760.169036246669
 21
9552.497424545967
 31
0.0
  0
DIMENSION
  5
19AD6
330
747D
100
AcDbEntity
  8
寸法
100
AcDbDimension
  2
*D27
 10
7237.30474842353
 20
9424.649295788139
 30
0.0
 11
7237.304748423529
 21
9690.817875743546
 31
0.0
 70
   160
 71
     5
 42
449.9999999999963
  3
INABA_S40G
100
AcDbAlignedDimension
 13
6760.169036246693
 23
10002.49742454596
 33
0.0
 14
6760.169036246693
 24
9552.497424545968
 34
0.0
 50
90.0
100
AcDbRotatedDimension
1001
ACAD
1000
DSTYLE
1002
{
1002
}
  0
LINE
  5
19C71
330
747D
100
AcDbEntity
  8
細線
 62
     5
100
AcDbLine
 10
9954.504927189086
 20
4134.806992157307
 30
0.0
 11
10374.50492718908
 21
4134.806992157307
 31
0.0
  0
LINE
  5
19C72
330
747D
100
AcDbEntity
  8
細線
 62
     5
100
AcDbLine
 10
9959.504927189087
 20
4124.806992157307
 30
0.0
 11
10369.50492718908
 21
4124.806992157307
 31
0.0
  0
LINE
  5
19C73
330
747D
100
AcDbEntity
  8
細線
 62
     5
100
AcDbLine
 10
10066.00492718908
 20
4122.606992157307
 30
0.0
 11
10263.00492718908
 21
4122.606992157307
 31
0.0
  0
LINE
  5
19C74
330
747D
100
AcDbEntity
  8
細線
 62
     5
100
AcDbLine
 10
10133.00492718908
 20
3902.106992157308
 30
0.0
 11
10196.00492718908
 21
3902.106992157308
 31
0.0
  0
LINE
  5
19C75
330
747D
100
AcDbEntity
  8
細線
 62
     5
100
AcDbLine
 10
10133.00492718908
 20
3965.106992157308
 30
0.0
 11
10196.00492718908
 21
3965.106992157308
 31
0.0
  0
LINE
  5
19C76
330
747D
100
AcDbEntity
  8
細線
 62
     5
100
AcDbLine
 10
10133.00492718908
 20
3961.606992157308
 30
0.0
 11
10196.00492718908
 21
3961.606992157308
 31
0.0
  0
LINE
  5
19C77
330
747D
100
AcDbEntity
  8
細線
 62
     5
100
AcDbLine
 10
10133.00492718908
 20
3933.606992157308
 30
0.0
 11
10196.00492718908
 21
3933.606992157308
 31
0.0
  0
LINE
  5
19C78
330
747D
100
AcDbEntity
  8
細線
 62
     5
100
AcDbLine
 10
10133.00492718908
 20
3930.106992157308
 30
0.0
 11
10196.00492718908
 21
3930.106992157308
 31
0.0
  0
LINE
  5
19C79
330
747D
100
AcDbEntity
  8
細線
 62
     5
100
AcDbLine
 10
10133.00492718908
 20
4059.606992157307
 30
0.0
 11
10196.00492718908
 21
4059.606992157307
 31
0.0
  0
LINE
  5
19C7A
330
747D
100
AcDbEntity
  8
細線
 62
     5
100
AcDbLine
 10
10133.00492718908
 20
4056.106992157308
 30
0.0
 11
10196.00492718908
 21
4056.106992157308
 31
0.0
  0
LINE
  5
19C7B
330
747D
100
AcDbEntity
  8
細線
 62
     5
100
AcDbLine
 10
10133.00492718908
 20
4028.106992157307
 30
0.0
 11
10196.00492718908
 21
4028.106992157307
 31
0.0
  0
LINE
  5
19C7C
330
747D
100
AcDbEntity
  8
細線
 62
     5
100
AcDbLine
 10
10133.00492718908
 20
4024.606992157307
 30
0.0
 11
10196.00492718908
 21
4024.606992157307
 31
0.0
  0
LINE
  5
19C7D
330
747D
100
AcDbEntity
  8
細線
 62
     5
100
AcDbLine
 10
10133.00492718908
 20
3996.606992157307
 30
0.0
 11
10196.00492718908
 21
3996.606992157307
 31
0.0
  0
LINE
  5
19C7E
330
747D
100
AcDbEntity
  8
細線
 62
     5
100
AcDbLine
 10
10133.00492718908
 20
3993.106992157308
 30
0.0
 11
10196.00492718908
 21
3993.106992157308
 31
0.0
  0
LINE
  5
19C7F
330
747D
100
AcDbEntity
  8
細線
 62
     5
100
AcDbLine
 10
10133.00492718908
 20
4119.106992157307
 30
0.0
 11
10196.00492718908
 21
4119.106992157307
 31
0.0
  0
LINE
  5
19C80
330
747D
100
AcDbEntity
  8
細線
 62
     5
100
AcDbLine
 10
10133.00492718908
 20
4091.106992157307
 30
0.0
 11
10196.00492718908
 21
4091.106992157307
 31
0.0
  0
LINE
  5
19C81
330
747D
100
AcDbEntity
  8
細線
 62
     5
100
AcDbLine
 10
10133.00492718908
 20
4087.606992157307
 30
0.0
 11
10196.00492718908
 21
4087.606992157307
 31
0.0
  0
LINE
  5
19C82
330
747D
100
AcDbEntity
  8
細線
 62
     5
100
AcDbLine
 10
9982.004927189088
 20
3863.606992157308
 30
0.0
 11
10347.00492718908
 21
3863.606992157308
 31
0.0
  0
LINE
  5
19C83
330
747D
100
AcDbEntity
  8
細線
 62
     5
100
AcDbLine
 10
9982.004927189088
 20
3853.40699215731
 30
0.0
 11
10347.00492718908
 21
3853.406992157307
 31
0.0
  0
LINE
  5
19C84
330
747D
100
AcDbEntity
  8
細線
 62
     5
100
AcDbLine
 10
9975.004927189083
 20
3843.406992157311
 30
0.0
 11
10354.00492718909
 21
3843.406992157307
 31
0.0
  0
LINE
  5
19C85
330
747D
100
AcDbEntity
  8
細線
 62
     5
100
AcDbLine
 10
10066.00492718908
 20
3867.106992157308
 30
0.0
 11
10263.00492718908
 21
3867.106992157308
 31
0.0
  0
LINE
  5
19C86
330
747D
100
AcDbEntity
  8
細線
 62
     5
100
AcDbLine
 10
10133.00492718908
 20
3870.606992157308
 30
0.0
 11
10196.00492718908
 21
3870.606992157308
 31
0.0
  0
LINE
  5
19C87
330
747D
100
AcDbEntity
  8
細線
 62
     5
100
AcDbLine
 10
10133.00492718908
 20
3898.606992157308
 30
0.0
 11
10196.00492718908
 21
3898.606992157308
 31
0.0
  0
LINE
  5
19C88
330
747D
100
AcDbEntity
  8
細線
 62
     5
100
AcDbLine
 10
9995.004927189086
 20
4122.606992157307
 30
0.0
 11
9995.004927189086
 21
3867.106992157308
 31
0.0
  0
LINE
  5
19C89
330
747D
100
AcDbEntity
  8
細線
 62
     5
100
AcDbLine
 10
9999.004927189085
 20
4122.606992157307
 30
0.0
 11
9999.004927189085
 21
3867.106992157308
 31
0.0
  0
LINE
  5
19C8A
330
747D
100
AcDbEntity
  8
細線
 62
     5
100
AcDbLine
 10
10129.00492718908
 20
4122.606992157307
 30
0.0
 11
10129.00492718908
 21
3867.106992157308
 31
0.0
  0
LINE
  5
19C8B
330
747D
100
AcDbEntity
  8
細線
 62
     5
100
AcDbLine
 10
10133.00492718908
 20
4122.606992157307
 30
0.0
 11
10133.00492718908
 21
3867.106992157308
 31
0.0
  0
LINE
  5
19C8C
330
747D
100
AcDbEntity
  8
細線
 62
     5
100
AcDbLine
 10
9972.004927189086
 20
4124.806992157307
 30
0.0
 11
9972.004927189082
 21
3846.406992157311
 31
0.0
  0
LINE
  5
19C8D
330
747D
100
AcDbEntity
  8
細線
 62
     5
100
AcDbLine
 10
9982.004927189082
 20
4124.806992157307
 30
0.0
 11
9982.004927189082
 21
3843.406992157311
 31
0.0
  0
LINE
  5
19C8E
330
747D
100
AcDbEntity
  8
細線
 62
     5
100
AcDbLine
 10
9994.004927189086
 20
4124.806992157307
 30
0.0
 11
9994.004927189086
 21
3863.606992157308
 31
0.0
  0
LINE
  5
19C8F
330
747D
100
AcDbEntity
  8
細線
 62
     5
100
AcDbLine
 10
10062.00492718908
 20
4124.806992157307
 30
0.0
 11
10062.00492718908
 21
3863.606992157308
 31
0.0
  0
LINE
  5
19C90
330
747D
100
AcDbEntity
  8
細線
 62
     5
100
AcDbLine
 10
10066.00492718908
 20
4124.806992157307
 30
0.0
 11
10066.00492718909
 21
3863.606992157308
 31
0.0
  0
LINE
  5
19C91
330
747D
100
AcDbEntity
  8
細線
 62
     5
100
AcDbLine
 10
9999.004927189083
 20
3996.606992157307
 30
0.0
 11
10062.00492718908
 21
3996.606992157307
 31
0.0
  0
LINE
  5
19C92
330
747D
100
AcDbEntity
  8
細線
 62
     5
100
AcDbLine
 10
9999.004927189083
 20
3993.106992157308
 30
0.0
 11
10062.00492718908
 21
3993.106992157308
 31
0.0
  0
LINE
  5
19C93
330
747D
100
AcDbEntity
  8
細線
 62
     5
100
AcDbLine
 10
9999.004927189083
 20
3965.106992157308
 30
0.0
 11
10062.00492718908
 21
3965.106992157308
 31
0.0
  0
LINE
  5
19C94
330
747D
100
AcDbEntity
  8
細線
 62
     5
100
AcDbLine
 10
9999.004927189083
 20
3961.606992157308
 30
0.0
 11
10062.00492718908
 21
3961.606992157308
 31
0.0
  0
LINE
  5
19C95
330
747D
100
AcDbEntity
  8
細線
 62
     5
100
AcDbLine
 10
9999.004927189083
 20
3933.606992157308
 30
0.0
 11
10062.00492718908
 21
3933.606992157308
 31
0.0
  0
LINE
  5
19C96
330
747D
100
AcDbEntity
  8
細線
 62
     5
100
AcDbLine
 10
9999.004927189083
 20
3930.106992157308
 30
0.0
 11
10062.00492718908
 21
3930.106992157308
 31
0.0
  0
LINE
  5
19C97
330
747D
100
AcDbEntity
  8
細線
 62
     5
100
AcDbLine
 10
9999.004927189083
 20
3902.106992157308
 30
0.0
 11
10062.00492718908
 21
3902.106992157308
 31
0.0
  0
LINE
  5
19C98
330
747D
100
AcDbEntity
  8
細線
 62
     5
100
AcDbLine
 10
9999.004927189083
 20
3870.606992157308
 30
0.0
 11
10062.00492718908
 21
3870.606992157308
 31
0.0
  0
LINE
  5
19C99
330
747D
100
AcDbEntity
  8
細線
 62
     5
100
AcDbLine
 10
9995.004927189082
 20
3867.106992157308
 30
0.0
 11
10062.00492718908
 21
3867.106992157308
 31
0.0
  0
LINE
  5
19C9A
330
747D
100
AcDbEntity
  8
細線
 62
     5
100
AcDbLine
 10
9999.004927189083
 20
3898.606992157308
 30
0.0
 11
10062.00492718908
 21
3898.606992157308
 31
0.0
  0
ARC
  5
19C9B
330
747D
100
AcDbEntity
  8
細線
 62
     5
100
AcDbCircle
 10
9975.004927189083
 20
3846.406992157311
 30
0.0
 40
3.0
100
AcDbArc
 50
180.0
 51
270.0
  0
LINE
  5
19C9C
330
747D
100
AcDbEntity
  8
細線
 62
     5
100
AcDbLine
 10
10066.00492718909
 20
3902.106992157308
 30
0.0
 11
10129.00492718908
 21
3902.106992157308
 31
0.0
  0
LINE
  5
19C9D
330
747D
100
AcDbEntity
  8
細線
 62
     5
100
AcDbLine
 10
10066.00492718909
 20
3930.106992157308
 30
0.0
 11
10129.00492718908
 21
3930.106992157308
 31
0.0
  0
LINE
  5
19C9E
330
747D
100
AcDbEntity
  8
細線
 62
     5
100
AcDbLine
 10
10066.00492718909
 20
3933.606992157308
 30
0.0
 11
10129.00492718908
 21
3933.606992157308
 31
0.0
  0
LINE
  5
19C9F
330
747D
100
AcDbEntity
  8
細線
 62
     5
100
AcDbLine
 10
10066.00492718908
 20
3961.606992157308
 30
0.0
 11
10129.00492718908
 21
3961.606992157308
 31
0.0
  0
LINE
  5
19CA0
330
747D
100
AcDbEntity
  8
細線
 62
     5
100
AcDbLine
 10
10066.00492718908
 20
3965.106992157308
 30
0.0
 11
10129.00492718908
 21
3965.106992157308
 31
0.0
  0
LINE
  5
19CA1
330
747D
100
AcDbEntity
  8
細線
 62
     5
100
AcDbLine
 10
10066.00492718908
 20
3993.106992157308
 30
0.0
 11
10129.00492718908
 21
3993.106992157308
 31
0.0
  0
LINE
  5
19CA2
330
747D
100
AcDbEntity
  8
細線
 62
     5
100
AcDbLine
 10
10066.00492718908
 20
3996.606992157307
 30
0.0
 11
10129.00492718908
 21
3996.606992157307
 31
0.0
  0
LINE
  5
19CA3
330
747D
100
AcDbEntity
  8
細線
 62
     5
100
AcDbLine
 10
10066.00492718909
 20
3870.606992157308
 30
0.0
 11
10129.00492718908
 21
3870.606992157308
 31
0.0
  0
LINE
  5
19CA4
330
747D
100
AcDbEntity
  8
細線
 62
     5
100
AcDbLine
 10
10066.00492718909
 20
3898.606992157308
 30
0.0
 11
10129.00492718908
 21
3898.606992157308
 31
0.0
  0
LINE
  5
19CA5
330
747D
100
AcDbEntity
  8
細線
 62
     5
100
AcDbLine
 10
9995.004927189082
 20
4122.606992157307
 30
0.0
 11
10062.00492718908
 21
4122.606992157307
 31
0.0
  0
LINE
  5
19CA6
330
747D
100
AcDbEntity
  8
細線
 62
     5
100
AcDbLine
 10
9999.004927189083
 20
4119.106992157307
 30
0.0
 11
10062.00492718908
 21
4119.106992157307
 31
0.0
  0
LINE
  5
19CA7
330
747D
100
AcDbEntity
  8
細線
 62
     5
100
AcDbLine
 10
9999.004927189083
 20
4091.106992157307
 30
0.0
 11
10062.00492718908
 21
4091.106992157307
 31
0.0
  0
LINE
  5
19CA8
330
747D
100
AcDbEntity
  8
細線
 62
     5
100
AcDbLine
 10
9999.004927189083
 20
4087.606992157307
 30
0.0
 11
10062.00492718908
 21
4087.606992157307
 31
0.0
  0
LINE
  5
19CA9
330
747D
100
AcDbEntity
  8
細線
 62
     5
100
AcDbLine
 10
9999.004927189083
 20
4059.606992157307
 30
0.0
 11
10062.00492718908
 21
4059.606992157307
 31
0.0
  0
LINE
  5
19CAA
330
747D
100
AcDbEntity
  8
細線
 62
     5
100
AcDbLine
 10
9999.004927189083
 20
4056.106992157308
 30
0.0
 11
10062.00492718908
 21
4056.106992157308
 31
0.0
  0
LINE
  5
19CAB
330
747D
100
AcDbEntity
  8
細線
 62
     5
100
AcDbLine
 10
9999.004927189083
 20
4028.106992157307
 30
0.0
 11
10062.00492718908
 21
4028.106992157307
 31
0.0
  0
LINE
  5
19CAC
330
747D
100
AcDbEntity
  8
細線
 62
     5
100
AcDbLine
 10
9999.004927189083
 20
4024.606992157307
 30
0.0
 11
10062.00492718908
 21
4024.606992157307
 31
0.0
  0
LINE
  5
19CAD
330
747D
100
AcDbEntity
  8
細線
 62
     5
100
AcDbLine
 10
9954.504927189086
 20
4141.806992157308
 30
0.0
 11
9954.504927189086
 21
4129.806992157308
 31
0.0
  0
LINE
  5
19CAE
330
747D
100
AcDbEntity
  8
細線
 62
     5
100
AcDbLine
 10
9959.504927189087
 20
4124.806992157307
 30
0.0
 11
9954.504927189086
 21
4129.806992157308
 31
0.0
  0
LINE
  5
19CAF
330
747D
100
AcDbEntity
  8
細線
 62
     5
100
AcDbLine
 10
10066.00492718908
 20
4024.606992157307
 30
0.0
 11
10129.00492718908
 21
4024.606992157307
 31
0.0
  0
LINE
  5
19CB0
330
747D
100
AcDbEntity
  8
細線
 62
     5
100
AcDbLine
 10
10066.00492718908
 20
4028.106992157307
 30
0.0
 11
10129.00492718908
 21
4028.106992157307
 31
0.0
  0
LINE
  5
19CB1
330
747D
100
AcDbEntity
  8
細線
 62
     5
100
AcDbLine
 10
10066.00492718908
 20
4056.106992157308
 30
0.0
 11
10129.00492718908
 21
4056.106992157308
 31
0.0
  0
LINE
  5
19CB2
330
747D
100
AcDbEntity
  8
細線
 62
     5
100
AcDbLine
 10
10066.00492718908
 20
4059.606992157307
 30
0.0
 11
10129.00492718908
 21
4059.606992157307
 31
0.0
  0
LINE
  5
19CB3
330
747D
100
AcDbEntity
  8
細線
 62
     5
100
AcDbLine
 10
10066.00492718908
 20
4087.606992157307
 30
0.0
 11
10129.00492718908
 21
4087.606992157307
 31
0.0
  0
LINE
  5
19CB4
330
747D
100
AcDbEntity
  8
細線
 62
     5
100
AcDbLine
 10
10066.00492718908
 20
4091.106992157307
 30
0.0
 11
10129.00492718908
 21
4091.106992157307
 31
0.0
  0
LINE
  5
19CB5
330
747D
100
AcDbEntity
  8
細線
 62
     5
100
AcDbLine
 10
10066.00492718908
 20
4119.106992157307
 30
0.0
 11
10129.00492718908
 21
4119.106992157307
 31
0.0
  0
LINE
  5
19CB6
330
747D
100
AcDbEntity
  8
細線
 62
     5
100
AcDbLine
 10
10263.00492718908
 20
4124.806992157307
 30
0.0
 11
10263.00492718908
 21
3863.606992157308
 31
0.0
  0
LINE
  5
19CB7
330
747D
100
AcDbEntity
  8
細線
 62
     5
100
AcDbLine
 10
10267.00492718908
 20
4124.806992157307
 30
0.0
 11
10267.00492718908
 21
3863.606992157308
 31
0.0
  0
LINE
  5
19CB8
330
747D
100
AcDbEntity
  8
細線
 62
     5
100
AcDbLine
 10
10200.00492718908
 20
4122.606992157307
 30
0.0
 11
10200.00492718908
 21
3867.106992157308
 31
0.0
  0
LINE
  5
19CB9
330
747D
100
AcDbEntity
  8
細線
 62
     5
100
AcDbLine
 10
10196.00492718908
 20
4122.606992157307
 30
0.0
 11
10196.00492718908
 21
3867.106992157308
 31
0.0
  0
LINE
  5
19CBA
330
747D
100
AcDbEntity
  8
細線
 62
     5
100
AcDbLine
 10
10334.00492718908
 20
4122.606992157307
 30
0.0
 11
10334.00492718908
 21
3867.106992157308
 31
0.0
  0
LINE
  5
19CBB
330
747D
100
AcDbEntity
  8
細線
 62
     5
100
AcDbLine
 10
10330.00492718908
 20
4122.606992157307
 30
0.0
 11
10330.00492718908
 21
3867.106992157308
 31
0.0
  0
LINE
  5
19CBC
330
747D
100
AcDbEntity
  8
細線
 62
     5
100
AcDbLine
 10
10335.00492718908
 20
4124.806992157307
 30
0.0
 11
10335.00492718908
 21
3863.606992157308
 31
0.0
  0
LINE
  5
19CBD
330
747D
100
AcDbEntity
  8
細線
 62
     5
100
AcDbLine
 10
10347.00492718908
 20
4124.806992157307
 30
0.0
 11
10347.00492718909
 21
3843.406992157307
 31
0.0
  0
LINE
  5
19CBE
330
747D
100
AcDbEntity
  8
細線
 62
     5
100
AcDbLine
 10
10357.00492718908
 20
4124.806992157307
 30
0.0
 11
10357.00492718909
 21
3846.406992157307
 31
0.0
  0
LINE
  5
19CBF
330
747D
100
AcDbEntity
  8
細線
 62
     5
100
AcDbLine
 10
10267.00492718909
 20
3996.606992157307
 30
0.0
 11
10330.00492718908
 21
3996.606992157307
 31
0.0
  0
LINE
  5
19CC0
330
747D
100
AcDbEntity
  8
細線
 62
     5
100
AcDbLine
 10
10267.00492718909
 20
3993.106992157308
 30
0.0
 11
10330.00492718908
 21
3993.106992157308
 31
0.0
  0
LINE
  5
19CC1
330
747D
100
AcDbEntity
  8
細線
 62
     5
100
AcDbLine
 10
10267.00492718909
 20
3965.106992157308
 30
0.0
 11
10330.00492718908
 21
3965.106992157308
 31
0.0
  0
LINE
  5
19CC2
330
747D
100
AcDbEntity
  8
細線
 62
     5
100
AcDbLine
 10
10267.00492718909
 20
3961.606992157308
 30
0.0
 11
10330.00492718908
 21
3961.606992157308
 31
0.0
  0
LINE
  5
19CC3
330
747D
100
AcDbEntity
  8
細線
 62
     5
100
AcDbLine
 10
10267.00492718909
 20
3933.606992157308
 30
0.0
 11
10330.00492718908
 21
3933.606992157308
 31
0.0
  0
LINE
  5
19CC4
330
747D
100
AcDbEntity
  8
細線
 62
     5
100
AcDbLine
 10
10267.00492718909
 20
3930.106992157308
 30
0.0
 11
10330.00492718908
 21
3930.106992157308
 31
0.0
  0
LINE
  5
19CC5
330
747D
100
AcDbEntity
  8
細線
 62
     5
100
AcDbLine
 10
10267.00492718908
 20
3902.106992157308
 30
0.0
 11
10330.00492718908
 21
3902.106992157308
 31
0.0
  0
LINE
  5
19CC6
330
747D
100
AcDbEntity
  8
細線
 62
     5
100
AcDbLine
 10
10267.00492718908
 20
3898.606992157308
 30
0.0
 11
10330.00492718908
 21
3898.606992157308
 31
0.0
  0
LINE
  5
19CC7
330
747D
100
AcDbEntity
  8
細線
 62
     5
100
AcDbLine
 10
10267.00492718908
 20
3870.606992157308
 30
0.0
 11
10330.00492718908
 21
3870.606992157308
 31
0.0
  0
LINE
  5
19CC8
330
747D
100
AcDbEntity
  8
細線
 62
     5
100
AcDbLine
 10
10267.00492718908
 20
3867.106992157308
 30
0.0
 11
10334.00492718908
 21
3867.106992157312
 31
0.0
  0
LINE
  5
19CC9
330
747D
100
AcDbEntity
  8
細線
 62
     5
100
AcDbLine
 10
10200.00492718908
 20
3996.606992157307
 30
0.0
 11
10263.00492718908
 21
3996.606992157307
 31
0.0
  0
LINE
  5
19CCA
330
747D
100
AcDbEntity
  8
細線
 62
     5
100
AcDbLine
 10
10200.00492718908
 20
3993.106992157308
 30
0.0
 11
10263.00492718908
 21
3993.106992157308
 31
0.0
  0
LINE
  5
19CCB
330
747D
100
AcDbEntity
  8
細線
 62
     5
100
AcDbLine
 10
10200.00492718908
 20
3965.106992157308
 30
0.0
 11
10263.00492718908
 21
3965.106992157308
 31
0.0
  0
LINE
  5
19CCC
330
747D
100
AcDbEntity
  8
細線
 62
     5
100
AcDbLine
 10
10200.00492718908
 20
3961.606992157308
 30
0.0
 11
10263.00492718908
 21
3961.606992157308
 31
0.0
  0
LINE
  5
19CCD
330
747D
100
AcDbEntity
  8
細線
 62
     5
100
AcDbLine
 10
10200.00492718908
 20
3933.606992157308
 30
0.0
 11
10263.00492718908
 21
3933.606992157308
 31
0.0
  0
LINE
  5
19CCE
330
747D
100
AcDbEntity
  8
細線
 62
     5
100
AcDbLine
 10
10200.00492718908
 20
3930.106992157308
 30
0.0
 11
10263.00492718908
 21
3930.106992157308
 31
0.0
  0
LINE
  5
19CCF
330
747D
100
AcDbEntity
  8
細線
 62
     5
100
AcDbLine
 10
10200.00492718908
 20
3902.106992157308
 30
0.0
 11
10263.00492718908
 21
3902.106992157308
 31
0.0
  0
LINE
  5
19CD0
330
747D
100
AcDbEntity
  8
細線
 62
     5
100
AcDbLine
 10
10200.00492718908
 20
3870.606992157308
 30
0.0
 11
10263.00492718908
 21
3870.606992157308
 31
0.0
  0
LINE
  5
19CD1
330
747D
100
AcDbEntity
  8
細線
 62
     5
100
AcDbLine
 10
10200.00492718908
 20
3898.606992157308
 30
0.0
 11
10263.00492718908
 21
3898.606992157308
 31
0.0
  0
ARC
  5
19CD2
330
747D
100
AcDbEntity
  8
細線
 62
     5
100
AcDbCircle
 10
10354.00492718909
 20
3846.406992157307
 30
0.0
 40
3.0
100
AcDbArc
 50
270.0
 51
0.0
  0
LINE
  5
19CD3
330
747D
100
AcDbEntity
  8
細線
 62
     5
100
AcDbLine
 10
10267.00492718908
 20
4122.606992157307
 30
0.0
 11
10334.00492718908
 21
4122.606992157311
 31
0.0
  0
LINE
  5
19CD4
330
747D
100
AcDbEntity
  8
細線
 62
     5
100
AcDbLine
 10
10267.00492718909
 20
4119.106992157307
 30
0.0
 11
10330.00492718908
 21
4119.106992157307
 31
0.0
  0
LINE
  5
19CD5
330
747D
100
AcDbEntity
  8
細線
 62
     5
100
AcDbLine
 10
10267.00492718909
 20
4091.106992157307
 30
0.0
 11
10330.00492718908
 21
4091.106992157307
 31
0.0
  0
LINE
  5
19CD6
330
747D
100
AcDbEntity
  8
細線
 62
     5
100
AcDbLine
 10
10267.00492718909
 20
4087.606992157307
 30
0.0
 11
10330.00492718908
 21
4087.606992157307
 31
0.0
  0
LINE
  5
19CD7
330
747D
100
AcDbEntity
  8
細線
 62
     5
100
AcDbLine
 10
10267.00492718909
 20
4059.606992157307
 30
0.0
 11
10330.00492718908
 21
4059.606992157307
 31
0.0
  0
LINE
  5
19CD8
330
747D
100
AcDbEntity
  8
細線
 62
     5
100
AcDbLine
 10
10267.00492718909
 20
4056.106992157308
 30
0.0
 11
10330.00492718908
 21
4056.106992157308
 31
0.0
  0
LINE
  5
19CD9
330
747D
100
AcDbEntity
  8
細線
 62
     5
100
AcDbLine
 10
10267.00492718909
 20
4028.106992157307
 30
0.0
 11
10330.00492718908
 21
4028.106992157307
 31
0.0
  0
LINE
  5
19CDA
330
747D
100
AcDbEntity
  8
細線
 62
     5
100
AcDbLine
 10
10267.00492718909
 20
4024.606992157307
 30
0.0
 11
10330.00492718908
 21
4024.606992157307
 31
0.0
  0
LINE
  5
19CDB
330
747D
100
AcDbEntity
  8
細線
 62
     5
100
AcDbLine
 10
10200.00492718908
 20
4119.106992157307
 30
0.0
 11
10263.00492718908
 21
4119.106992157307
 31
0.0
  0
LINE
  5
19CDC
330
747D
100
AcDbEntity
  8
細線
 62
     5
100
AcDbLine
 10
10200.00492718908
 20
4091.106992157307
 30
0.0
 11
10263.00492718908
 21
4091.106992157307
 31
0.0
  0
LINE
  5
19CDD
330
747D
100
AcDbEntity
  8
細線
 62
     5
100
AcDbLine
 10
10200.00492718908
 20
4087.606992157307
 30
0.0
 11
10263.00492718908
 21
4087.606992157307
 31
0.0
  0
LINE
  5
19CDE
330
747D
100
AcDbEntity
  8
細線
 62
     5
100
AcDbLine
 10
10200.00492718908
 20
4059.606992157307
 30
0.0
 11
10263.00492718908
 21
4059.606992157307
 31
0.0
  0
LINE
  5
19CDF
330
747D
100
AcDbEntity
  8
細線
 62
     5
100
AcDbLine
 10
10200.00492718908
 20
4056.106992157308
 30
0.0
 11
10263.00492718908
 21
4056.106992157308
 31
0.0
  0
LINE
  5
19CE0
330
747D
100
AcDbEntity
  8
細線
 62
     5
100
AcDbLine
 10
10200.00492718908
 20
4028.106992157307
 30
0.0
 11
10263.00492718908
 21
4028.106992157307
 31
0.0
  0
LINE
  5
19CE1
330
747D
100
AcDbEntity
  8
細線
 62
     5
100
AcDbLine
 10
10200.00492718908
 20
4024.606992157307
 30
0.0
 11
10263.00492718908
 21
4024.606992157307
 31
0.0
  0
LINE
  5
19CE2
330
747D
100
AcDbEntity
  8
細線
 62
     5
100
AcDbLine
 10
10374.50492718908
 20
4141.806992157308
 30
0.0
 11
10374.50492718908
 21
4129.806992157308
 31
0.0
  0
LINE
  5
19CE3
330
747D
100
AcDbEntity
  8
細線
 62
     5
100
AcDbLine
 10
10369.50492718908
 20
4124.806992157307
 30
0.0
 11
10374.50492718908
 21
4129.806992157308
 31
0.0
  0
LINE
  5
19CE4
330
747D
100
AcDbEntity
  8
細線
 48
50.0
100
AcDbLine
 10
10297.00492718909
 20
3843.406992157307
 30
0.0
 11
10297.00492718909
 21
2054.963665626823
 31
0.0
  0
LINE
  5
19CE5
330
747D
100
AcDbEntity
  8
細線
 48
50.0
100
AcDbLine
 10
10172.00492718909
 20
3843.406992157309
 30
0.0
 11
10172.00492718909
 21
2355.963665626822
 31
0.0
  0
LINE
  5
19CE6
330
747D
100
AcDbEntity
  8
細線
 48
50.0
100
AcDbLine
 10
10157.00492718909
 20
3843.406992157309
 30
0.0
 11
10157.00492718909
 21
2355.963665626822
 31
0.0
  0
LINE
  5
19CE7
330
747D
100
AcDbEntity
  8
細線
 48
50.0
100
AcDbLine
 10
10032.00492718909
 20
3843.406992157311
 30
0.0
 11
10032.00492718909
 21
2054.963665626823
 31
0.0
  0
LINE
  5
19CE8
330
747D
100
AcDbEntity
  8
細線
 48
50.0
100
AcDbLine
 10
10312.00492718909
 20
3843.406992157307
 30
0.0
 11
10312.00492718909
 21
2054.963665626823
 31
0.0
  0
LINE
  5
19CE9
330
747D
100
AcDbEntity
  8
細線
 48
50.0
100
AcDbLine
 10
10017.00492718909
 20
3843.406992157311
 30
0.0
 11
10017.00492718909
 21
2054.963665626823
 31
0.0
  0
LINE
  5
19CEA
330
747D
100
AcDbEntity
  8
細線
 48
50.0
100
AcDbLine
 10
10172.00492718909
 20
2158.963665626824
 30
0.0
 11
10172.00492718909
 21
2054.963665626823
 31
0.0
  0
LINE
  5
19CEB
330
747D
100
AcDbEntity
  8
細線
 48
50.0
100
AcDbLine
 10
10157.00492718909
 20
2158.963665626824
 30
0.0
 11
10157.00492718909
 21
2054.963665626823
 31
0.0
  0
LINE
  5
19CEC
330
747D
100
AcDbEntity
  8
細線
 48
50.0
100
AcDbLine
 10
10263.50492718908
 20
2195.463665626823
 30
0.0
 11
10263.50492718909
 21
2183.963665626823
 31
0.0
  0
LINE
  5
19CED
330
747D
100
AcDbEntity
  8
細線
 48
50.0
100
AcDbLine
 10
10065.50492718909
 20
2297.463665626823
 30
0.0
 11
10065.50492718908
 21
2272.963665626824
 31
0.0
  0
LINE
  5
19CEE
330
747D
100
AcDbEntity
  8
細線
 48
50.0
100
AcDbLine
 10
10065.50492718908
 20
2263.463665626824
 30
0.0
 11
10065.50492718908
 21
2238.963665626823
 31
0.0
  0
LINE
  5
19CEF
330
747D
100
AcDbEntity
  8
細線
 48
50.0
100
AcDbLine
 10
10065.50492718908
 20
2229.463665626823
 30
0.0
 11
10065.50492718909
 21
2204.963665626824
 31
0.0
  0
LINE
  5
19CF0
330
747D
100
AcDbEntity
  8
細線
 48
50.0
100
AcDbLine
 10
10065.50492718909
 20
2195.463665626824
 30
0.0
 11
10065.50492718909
 21
2183.963665626824
 31
0.0
  0
LINE
  5
19CF1
330
747D
100
AcDbEntity
  8
細線
 48
50.0
100
AcDbLine
 10
10263.50492718908
 20
2229.463665626822
 30
0.0
 11
10263.50492718908
 21
2204.963665626822
 31
0.0
  0
LINE
  5
19CF2
330
747D
100
AcDbEntity
  8
細線
 48
50.0
100
AcDbLine
 10
10263.50492718908
 20
2263.463665626822
 30
0.0
 11
10263.50492718908
 21
2238.963665626823
 31
0.0
  0
LINE
  5
19CF3
330
747D
100
AcDbEntity
  8
細線
 48
50.0
100
AcDbLine
 10
10263.50492718908
 20
2297.463665626822
 30
0.0
 11
10263.50492718908
 21
2272.963665626821
 31
0.0
  0
LINE
  5
19CF4
330
747D
100
AcDbEntity
  8
細線
 48
50.0
100
AcDbLine
 10
10065.50492718909
 20
2306.963665626824
 30
0.0
 11
10263.50492718909
 21
2306.963665626822
 31
0.0
  0
LINE
  5
19CF5
330
747D
100
AcDbEntity
  8
細線
 48
50.0
100
AcDbLine
 10
10065.50492718909
 20
2272.963665626824
 30
0.0
 11
10263.50492718909
 21
2272.963665626821
 31
0.0
  0
LINE
  5
19CF6
330
747D
100
AcDbEntity
  8
細線
 48
50.0
100
AcDbLine
 10
10065.50492718909
 20
2238.963665626823
 30
0.0
 11
10263.50492718909
 21
2238.963665626822
 31
0.0
  0
LINE
  5
19CF7
330
747D
100
AcDbEntity
  8
細線
 48
50.0
100
AcDbLine
 10
10065.50492718909
 20
2204.963665626824
 30
0.0
 11
10263.50492718909
 21
2204.963665626822
 31
0.0
  0
LINE
  5
19CF8
330
747D
100
AcDbEntity
  8
細線
 48
50.0
100
AcDbLine
 10
10065.50492718909
 20
2195.463665626824
 30
0.0
 11
10263.50492718909
 21
2195.463665626822
 31
0.0
  0
LINE
  5
19CF9
330
747D
100
AcDbEntity
  8
細線
 48
50.0
100
AcDbLine
 10
10065.50492718909
 20
2229.463665626823
 30
0.0
 11
10263.50492718909
 21
2229.463665626822
 31
0.0
  0
LINE
  5
19CFA
330
747D
100
AcDbEntity
  8
細線
 48
50.0
100
AcDbLine
 10
10065.50492718909
 20
2263.463665626824
 30
0.0
 11
10263.50492718909
 21
2263.463665626822
 31
0.0
  0
LINE
  5
19CFB
330
747D
100
AcDbEntity
  8
細線
 48
50.0
100
AcDbLine
 10
10065.50492718909
 20
2297.463665626823
 30
0.0
 11
10263.50492718909
 21
2297.463665626822
 31
0.0
  0
LINE
  5
19CFC
330
747D
100
AcDbEntity
  8
細線
 48
50.0
100
AcDbLine
 10
10065.50492718909
 20
2183.963665626824
 30
0.0
 11
10263.50492718909
 21
2183.963665626823
 31
0.0
  0
LINE
  5
19CFD
330
747D
100
AcDbEntity
  8
細線
 48
50.0
100
AcDbLine
 10
10065.50492718909
 20
2330.963665626823
 30
0.0
 11
10263.50492718909
 21
2330.963665626822
 31
0.0
  0
LINE
  5
19CFE
330
747D
100
AcDbEntity
  8
細線
 48
50.0
100
AcDbLine
 10
10065.50492718909
 20
2330.963665626823
 30
0.0
 11
10065.50492718909
 21
2306.963665626824
 31
0.0
  0
LINE
  5
19CFF
330
747D
100
AcDbEntity
  8
細線
 48
50.0
100
AcDbLine
 10
10263.50492718909
 20
2330.963665626822
 30
0.0
 11
10263.50492718908
 21
2306.963665626822
 31
0.0
  0
LINE
  5
19D00
330
747D
100
AcDbEntity
  8
細線
 48
50.0
100
AcDbLine
 10
10040.50492718909
 20
2158.963665626822
 30
0.0
 11
10288.50492718909
 21
2158.963665626822
 31
0.0
  0
LINE
  5
19D01
330
747D
100
AcDbEntity
  8
細線
 48
50.0
100
AcDbLine
 10
10040.50492718909
 20
2355.963665626823
 30
0.0
 11
10288.50492718908
 21
2355.963665626822
 31
0.0
  0
LINE
  5
19D02
330
747D
100
AcDbEntity
  8
細線
 48
50.0
100
AcDbLine
 10
10040.50492718909
 20
2355.963665626823
 30
0.0
 11
10040.50492718909
 21
2158.963665626822
 31
0.0
  0
LINE
  5
19D03
330
747D
100
AcDbEntity
  8
細線
 48
50.0
100
AcDbLine
 10
10288.50492718908
 20
2355.963665626822
 30
0.0
 11
10288.50492718909
 21
2158.963665626822
 31
0.0
  0
LINE
  5
19D04
330
747D
100
AcDbEntity
  8
細線
 62
     5
100
AcDbLine
 10
12469.50492718908
 20
4124.806992157309
 30
0.0
 11
12474.50492718908
 21
4129.806992157309
 31
0.0
  0
LINE
  5
19D05
330
747D
100
AcDbEntity
  8
細線
 62
     5
100
AcDbLine
 10
12474.50492718908
 20
4141.806992157309
 30
0.0
 11
12474.50492718908
 21
4129.806992157309
 31
0.0
  0
LINE
  5
19D06
330
747D
100
AcDbEntity
  8
細線
 62
     5
100
AcDbLine
 10
12300.00492718908
 20
4024.606992157309
 30
0.0
 11
12363.00492718908
 21
4024.606992157309
 31
0.0
  0
LINE
  5
19D07
330
747D
100
AcDbEntity
  8
細線
 62
     5
100
AcDbLine
 10
12300.00492718908
 20
4028.106992157309
 30
0.0
 11
12363.00492718908
 21
4028.106992157309
 31
0.0
  0
LINE
  5
19D08
330
747D
100
AcDbEntity
  8
細線
 62
     5
100
AcDbLine
 10
12300.00492718908
 20
4056.106992157309
 30
0.0
 11
12363.00492718908
 21
4056.106992157309
 31
0.0
  0
LINE
  5
19D09
330
747D
100
AcDbEntity
  8
細線
 62
     5
100
AcDbLine
 10
12300.00492718908
 20
4059.606992157309
 30
0.0
 11
12363.00492718908
 21
4059.606992157309
 31
0.0
  0
LINE
  5
19D0A
330
747D
100
AcDbEntity
  8
細線
 62
     5
100
AcDbLine
 10
12300.00492718908
 20
4087.60699215731
 30
0.0
 11
12363.00492718908
 21
4087.60699215731
 31
0.0
  0
LINE
  5
19D0B
330
747D
100
AcDbEntity
  8
細線
 62
     5
100
AcDbLine
 10
12300.00492718908
 20
4091.106992157309
 30
0.0
 11
12363.00492718908
 21
4091.106992157309
 31
0.0
  0
LINE
  5
19D0C
330
747D
100
AcDbEntity
  8
細線
 62
     5
100
AcDbLine
 10
12300.00492718908
 20
4119.106992157308
 30
0.0
 11
12363.00492718908
 21
4119.106992157308
 31
0.0
  0
LINE
  5
19D0D
330
747D
100
AcDbEntity
  8
細線
 62
     5
100
AcDbLine
 10
12367.00492718909
 20
4024.606992157309
 30
0.0
 11
12430.00492718908
 21
4024.606992157309
 31
0.0
  0
LINE
  5
19D0E
330
747D
100
AcDbEntity
  8
細線
 62
     5
100
AcDbLine
 10
12367.00492718909
 20
4028.106992157309
 30
0.0
 11
12430.00492718908
 21
4028.106992157309
 31
0.0
  0
LINE
  5
19D0F
330
747D
100
AcDbEntity
  8
細線
 62
     5
100
AcDbLine
 10
12367.00492718909
 20
4056.106992157309
 30
0.0
 11
12430.00492718908
 21
4056.106992157309
 31
0.0
  0
LINE
  5
19D10
330
747D
100
AcDbEntity
  8
細線
 62
     5
100
AcDbLine
 10
12367.00492718909
 20
4059.606992157309
 30
0.0
 11
12430.00492718908
 21
4059.606992157309
 31
0.0
  0
LINE
  5
19D11
330
747D
100
AcDbEntity
  8
細線
 62
     5
100
AcDbLine
 10
12367.00492718909
 20
4087.60699215731
 30
0.0
 11
12430.00492718908
 21
4087.60699215731
 31
0.0
  0
LINE
  5
19D12
330
747D
100
AcDbEntity
  8
細線
 62
     5
100
AcDbLine
 10
12367.00492718909
 20
4091.106992157309
 30
0.0
 11
12430.00492718908
 21
4091.106992157309
 31
0.0
  0
LINE
  5
19D13
330
747D
100
AcDbEntity
  8
細線
 62
     5
100
AcDbLine
 10
12367.00492718909
 20
4119.106992157308
 30
0.0
 11
12430.00492718908
 21
4119.106992157308
 31
0.0
  0
LINE
  5
19D14
330
747D
100
AcDbEntity
  8
細線
 62
     5
100
AcDbLine
 10
12367.00492718908
 20
4122.606992157309
 30
0.0
 11
12434.00492718908
 21
4122.606992157312
 31
0.0
  0
ARC
  5
19D15
330
747D
100
AcDbEntity
  8
細線
 62
     5
100
AcDbCircle
 10
12454.00492718909
 20
3846.406992157309
 30
0.0
 40
3.0
100
AcDbArc
 50
270.0
 51
0.0
  0
LINE
  5
19D16
330
747D
100
AcDbEntity
  8
細線
 62
     5
100
AcDbLine
 10
12300.00492718908
 20
3898.60699215731
 30
0.0
 11
12363.00492718908
 21
3898.60699215731
 31
0.0
  0
LINE
  5
19D17
330
747D
100
AcDbEntity
  8
細線
 62
     5
100
AcDbLine
 10
12300.00492718908
 20
3870.606992157309
 30
0.0
 11
12363.00492718908
 21
3870.606992157309
 31
0.0
  0
LINE
  5
19D18
330
747D
100
AcDbEntity
  8
細線
 62
     5
100
AcDbLine
 10
12300.00492718908
 20
3902.106992157309
 30
0.0
 11
12363.00492718908
 21
3902.106992157309
 31
0.0
  0
LINE
  5
19D19
330
747D
100
AcDbEntity
  8
細線
 62
     5
100
AcDbLine
 10
12300.00492718908
 20
3930.106992157309
 30
0.0
 11
12363.00492718908
 21
3930.106992157309
 31
0.0
  0
LINE
  5
19D1A
330
747D
100
AcDbEntity
  8
細線
 62
     5
100
AcDbLine
 10
12300.00492718908
 20
3933.606992157309
 30
0.0
 11
12363.00492718908
 21
3933.606992157309
 31
0.0
  0
LINE
  5
19D1B
330
747D
100
AcDbEntity
  8
細線
 62
     5
100
AcDbLine
 10
12300.00492718908
 20
3961.606992157309
 30
0.0
 11
12363.00492718908
 21
3961.606992157309
 31
0.0
  0
LINE
  5
19D1C
330
747D
100
AcDbEntity
  8
細線
 62
     5
100
AcDbLine
 10
12300.00492718908
 20
3965.10699215731
 30
0.0
 11
12363.00492718908
 21
3965.10699215731
 31
0.0
  0
LINE
  5
19D1D
330
747D
100
AcDbEntity
  8
細線
 62
     5
100
AcDbLine
 10
12300.00492718908
 20
3993.10699215731
 30
0.0
 11
12363.00492718908
 21
3993.10699215731
 31
0.0
  0
LINE
  5
19D1E
330
747D
100
AcDbEntity
  8
細線
 62
     5
100
AcDbLine
 10
12300.00492718908
 20
3996.606992157309
 30
0.0
 11
12363.00492718908
 21
3996.606992157309
 31
0.0
  0
LINE
  5
19D1F
330
747D
100
AcDbEntity
  8
細線
 62
     5
100
AcDbLine
 10
12367.00492718908
 20
3867.106992157309
 30
0.0
 11
12434.00492718908
 21
3867.106992157313
 31
0.0
  0
LINE
  5
19D20
330
747D
100
AcDbEntity
  8
細線
 62
     5
100
AcDbLine
 10
12367.00492718908
 20
3870.606992157309
 30
0.0
 11
12430.00492718908
 21
3870.606992157309
 31
0.0
  0
LINE
  5
19D21
330
747D
100
AcDbEntity
  8
細線
 62
     5
100
AcDbLine
 10
12367.00492718908
 20
3898.60699215731
 30
0.0
 11
12430.00492718908
 21
3898.60699215731
 31
0.0
  0
LINE
  5
19D22
330
747D
100
AcDbEntity
  8
細線
 62
     5
100
AcDbLine
 10
12367.00492718908
 20
3902.106992157309
 30
0.0
 11
12430.00492718908
 21
3902.106992157309
 31
0.0
  0
LINE
  5
19D23
330
747D
100
AcDbEntity
  8
細線
 62
     5
100
AcDbLine
 10
12367.00492718909
 20
3930.106992157309
 30
0.0
 11
12430.00492718908
 21
3930.106992157309
 31
0.0
  0
LINE
  5
19D24
330
747D
100
AcDbEntity
  8
細線
 62
     5
100
AcDbLine
 10
12367.00492718909
 20
3933.606992157309
 30
0.0
 11
12430.00492718908
 21
3933.606992157309
 31
0.0
  0
LINE
  5
19D25
330
747D
100
AcDbEntity
  8
細線
 62
     5
100
AcDbLine
 10
12367.00492718909
 20
3961.606992157309
 30
0.0
 11
12430.00492718908
 21
3961.606992157309
 31
0.0
  0
LINE
  5
19D26
330
747D
100
AcDbEntity
  8
細線
 62
     5
100
AcDbLine
 10
12367.00492718909
 20
3965.10699215731
 30
0.0
 11
12430.00492718908
 21
3965.10699215731
 31
0.0
  0
LINE
  5
19D27
330
747D
100
AcDbEntity
  8
細線
 62
     5
100
AcDbLine
 10
12367.00492718909
 20
3993.10699215731
 30
0.0
 11
12430.00492718908
 21
3993.10699215731
 31
0.0
  0
LINE
  5
19D28
330
747D
100
AcDbEntity
  8
細線
 62
     5
100
AcDbLine
 10
12367.00492718909
 20
3996.606992157309
 30
0.0
 11
12430.00492718908
 21
3996.606992157309
 31
0.0
  0
LINE
  5
19D29
330
747D
100
AcDbEntity
  8
細線
 62
     5
100
AcDbLine
 10
12457.00492718908
 20
4124.806992157309
 30
0.0
 11
12457.00492718909
 21
3846.406992157309
 31
0.0
  0
LINE
  5
19D2A
330
747D
100
AcDbEntity
  8
細線
 62
     5
100
AcDbLine
 10
12447.00492718908
 20
4124.806992157309
 30
0.0
 11
12447.00492718909
 21
3843.406992157309
 31
0.0
  0
LINE
  5
19D2B
330
747D
100
AcDbEntity
  8
細線
 62
     5
100
AcDbLine
 10
12435.00492718908
 20
4124.806992157309
 30
0.0
 11
12435.00492718908
 21
3863.60699215731
 31
0.0
  0
LINE
  5
19D2C
330
747D
100
AcDbEntity
  8
細線
 62
     5
100
AcDbLine
 10
12430.00492718908
 20
4122.606992157309
 30
0.0
 11
12430.00492718908
 21
3867.106992157309
 31
0.0
  0
LINE
  5
19D2D
330
747D
100
AcDbEntity
  8
細線
 62
     5
100
AcDbLine
 10
12434.00492718908
 20
4122.606992157309
 30
0.0
 11
12434.00492718908
 21
3867.106992157309
 31
0.0
  0
LINE
  5
19D2E
330
747D
100
AcDbEntity
  8
細線
 62
     5
100
AcDbLine
 10
12296.00492718908
 20
4122.606992157309
 30
0.0
 11
12296.00492718908
 21
3867.106992157309
 31
0.0
  0
LINE
  5
19D2F
330
747D
100
AcDbEntity
  8
細線
 62
     5
100
AcDbLine
 10
12300.00492718908
 20
4122.606992157309
 30
0.0
 11
12300.00492718908
 21
3867.106992157309
 31
0.0
  0
LINE
  5
19D30
330
747D
100
AcDbEntity
  8
細線
 62
     5
100
AcDbLine
 10
12367.00492718908
 20
4124.806992157309
 30
0.0
 11
12367.00492718908
 21
3863.60699215731
 31
0.0
  0
LINE
  5
19D31
330
747D
100
AcDbEntity
  8
細線
 62
     5
100
AcDbLine
 10
12363.00492718908
 20
4124.806992157309
 30
0.0
 11
12363.00492718908
 21
3863.60699215731
 31
0.0
  0
LINE
  5
19D32
330
747D
100
AcDbEntity
  8
細線
 62
     5
100
AcDbLine
 10
12166.00492718908
 20
4119.106992157308
 30
0.0
 11
12229.00492718908
 21
4119.106992157308
 31
0.0
  0
LINE
  5
19D33
330
747D
100
AcDbEntity
  8
細線
 62
     5
100
AcDbLine
 10
12166.00492718908
 20
4091.106992157309
 30
0.0
 11
12229.00492718908
 21
4091.106992157309
 31
0.0
  0
LINE
  5
19D34
330
747D
100
AcDbEntity
  8
細線
 62
     5
100
AcDbLine
 10
12166.00492718908
 20
4087.60699215731
 30
0.0
 11
12229.00492718908
 21
4087.60699215731
 31
0.0
  0
LINE
  5
19D35
330
747D
100
AcDbEntity
  8
細線
 62
     5
100
AcDbLine
 10
12166.00492718908
 20
4059.606992157309
 30
0.0
 11
12229.00492718908
 21
4059.606992157309
 31
0.0
  0
LINE
  5
19D36
330
747D
100
AcDbEntity
  8
細線
 62
     5
100
AcDbLine
 10
12166.00492718908
 20
4056.106992157309
 30
0.0
 11
12229.00492718908
 21
4056.106992157309
 31
0.0
  0
LINE
  5
19D37
330
747D
100
AcDbEntity
  8
細線
 62
     5
100
AcDbLine
 10
12166.00492718908
 20
4028.106992157309
 30
0.0
 11
12229.00492718908
 21
4028.106992157309
 31
0.0
  0
LINE
  5
19D38
330
747D
100
AcDbEntity
  8
細線
 62
     5
100
AcDbLine
 10
12166.00492718908
 20
4024.606992157309
 30
0.0
 11
12229.00492718908
 21
4024.606992157309
 31
0.0
  0
LINE
  5
19D39
330
747D
100
AcDbEntity
  8
細線
 62
     5
100
AcDbLine
 10
12059.50492718908
 20
4124.806992157309
 30
0.0
 11
12054.50492718908
 21
4129.806992157309
 31
0.0
  0
LINE
  5
19D3A
330
747D
100
AcDbEntity
  8
細線
 62
     5
100
AcDbLine
 10
12054.50492718908
 20
4141.806992157309
 30
0.0
 11
12054.50492718908
 21
4129.806992157309
 31
0.0
  0
LINE
  5
19D3B
330
747D
100
AcDbEntity
  8
細線
 62
     5
100
AcDbLine
 10
12099.00492718908
 20
4024.606992157309
 30
0.0
 11
12162.00492718908
 21
4024.606992157309
 31
0.0
  0
LINE
  5
19D3C
330
747D
100
AcDbEntity
  8
細線
 62
     5
100
AcDbLine
 10
12099.00492718908
 20
4028.106992157309
 30
0.0
 11
12162.00492718908
 21
4028.106992157309
 31
0.0
  0
LINE
  5
19D3D
330
747D
100
AcDbEntity
  8
細線
 62
     5
100
AcDbLine
 10
12099.00492718908
 20
4056.106992157309
 30
0.0
 11
12162.00492718908
 21
4056.106992157309
 31
0.0
  0
LINE
  5
19D3E
330
747D
100
AcDbEntity
  8
細線
 62
     5
100
AcDbLine
 10
12099.00492718908
 20
4059.606992157309
 30
0.0
 11
12162.00492718908
 21
4059.606992157309
 31
0.0
  0
LINE
  5
19D3F
330
747D
100
AcDbEntity
  8
細線
 62
     5
100
AcDbLine
 10
12099.00492718908
 20
4087.60699215731
 30
0.0
 11
12162.00492718908
 21
4087.60699215731
 31
0.0
  0
LINE
  5
19D40
330
747D
100
AcDbEntity
  8
細線
 62
     5
100
AcDbLine
 10
12099.00492718908
 20
4091.106992157309
 30
0.0
 11
12162.00492718908
 21
4091.106992157309
 31
0.0
  0
LINE
  5
19D41
330
747D
100
AcDbEntity
  8
細線
 62
     5
100
AcDbLine
 10
12099.00492718908
 20
4119.106992157308
 30
0.0
 11
12162.00492718908
 21
4119.106992157308
 31
0.0
  0
LINE
  5
19D42
330
747D
100
AcDbEntity
  8
細線
 62
     5
100
AcDbLine
 10
12095.00492718908
 20
4122.606992157309
 30
0.0
 11
12162.00492718908
 21
4122.606992157309
 31
0.0
  0
LINE
  5
19D43
330
747D
100
AcDbEntity
  8
細線
 62
     5
100
AcDbLine
 10
12166.00492718909
 20
3898.60699215731
 30
0.0
 11
12229.00492718908
 21
3898.60699215731
 31
0.0
  0
LINE
  5
19D44
330
747D
100
AcDbEntity
  8
細線
 62
     5
100
AcDbLine
 10
12166.00492718909
 20
3870.606992157309
 30
0.0
 11
12229.00492718908
 21
3870.606992157309
 31
0.0
  0
LINE
  5
19D45
330
747D
100
AcDbEntity
  8
細線
 62
     5
100
AcDbLine
 10
12166.00492718908
 20
3996.606992157309
 30
0.0
 11
12229.00492718908
 21
3996.606992157309
 31
0.0
  0
LINE
  5
19D46
330
747D
100
AcDbEntity
  8
細線
 62
     5
100
AcDbLine
 10
12166.00492718908
 20
3993.10699215731
 30
0.0
 11
12229.00492718908
 21
3993.10699215731
 31
0.0
  0
LINE
  5
19D47
330
747D
100
AcDbEntity
  8
細線
 62
     5
100
AcDbLine
 10
12166.00492718908
 20
3965.10699215731
 30
0.0
 11
12229.00492718908
 21
3965.10699215731
 31
0.0
  0
LINE
  5
19D48
330
747D
100
AcDbEntity
  8
細線
 62
     5
100
AcDbLine
 10
12166.00492718908
 20
3961.606992157309
 30
0.0
 11
12229.00492718908
 21
3961.606992157309
 31
0.0
  0
LINE
  5
19D49
330
747D
100
AcDbEntity
  8
細線
 62
     5
100
AcDbLine
 10
12166.00492718909
 20
3933.606992157309
 30
0.0
 11
12229.00492718908
 21
3933.606992157309
 31
0.0
  0
LINE
  5
19D4A
330
747D
100
AcDbEntity
  8
細線
 62
     5
100
AcDbLine
 10
12166.00492718909
 20
3930.106992157309
 30
0.0
 11
12229.00492718908
 21
3930.106992157309
 31
0.0
  0
LINE
  5
19D4B
330
747D
100
AcDbEntity
  8
細線
 62
     5
100
AcDbLine
 10
12166.00492718909
 20
3902.106992157309
 30
0.0
 11
12229.00492718908
 21
3902.106992157309
 31
0.0
  0
ARC
  5
19D4C
330
747D
100
AcDbEntity
  8
細線
 62
     5
100
AcDbCircle
 10
12075.00492718908
 20
3846.406992157312
 30
0.0
 40
3.0
100
AcDbArc
 50
180.0
 51
270.0
  0
LINE
  5
19D4D
330
747D
100
AcDbEntity
  8
細線
 62
     5
100
AcDbLine
 10
12099.00492718908
 20
3898.60699215731
 30
0.0
 11
12162.00492718908
 21
3898.60699215731
 31
0.0
  0
LINE
  5
19D4E
330
747D
100
AcDbEntity
  8
細線
 62
     5
100
AcDbLine
 10
12095.00492718908
 20
3867.106992157309
 30
0.0
 11
12162.00492718908
 21
3867.106992157309
 31
0.0
  0
LINE
  5
19D4F
330
747D
100
AcDbEntity
  8
細線
 62
     5
100
AcDbLine
 10
12099.00492718908
 20
3870.606992157309
 30
0.0
 11
12162.00492718908
 21
3870.606992157309
 31
0.0
  0
LINE
  5
19D50
330
747D
100
AcDbEntity
  8
細線
 62
     5
100
AcDbLine
 10
12099.00492718908
 20
3902.106992157309
 30
0.0
 11
12162.00492718908
 21
3902.106992157309
 31
0.0
  0
LINE
  5
19D51
330
747D
100
AcDbEntity
  8
細線
 62
     5
100
AcDbLine
 10
12099.00492718908
 20
3930.106992157309
 30
0.0
 11
12162.00492718908
 21
3930.106992157309
 31
0.0
  0
LINE
  5
19D52
330
747D
100
AcDbEntity
  8
細線
 62
     5
100
AcDbLine
 10
12099.00492718908
 20
3933.606992157309
 30
0.0
 11
12162.00492718908
 21
3933.606992157309
 31
0.0
  0
LINE
  5
19D53
330
747D
100
AcDbEntity
  8
細線
 62
     5
100
AcDbLine
 10
12099.00492718908
 20
3961.606992157309
 30
0.0
 11
12162.00492718908
 21
3961.606992157309
 31
0.0
  0
LINE
  5
19D54
330
747D
100
AcDbEntity
  8
細線
 62
     5
100
AcDbLine
 10
12099.00492718908
 20
3965.10699215731
 30
0.0
 11
12162.00492718908
 21
3965.10699215731
 31
0.0
  0
LINE
  5
19D55
330
747D
100
AcDbEntity
  8
細線
 62
     5
100
AcDbLine
 10
12099.00492718908
 20
3993.10699215731
 30
0.0
 11
12162.00492718908
 21
3993.10699215731
 31
0.0
  0
LINE
  5
19D56
330
747D
100
AcDbEntity
  8
細線
 62
     5
100
AcDbLine
 10
12099.00492718908
 20
3996.606992157309
 30
0.0
 11
12162.00492718908
 21
3996.606992157309
 31
0.0
  0
LINE
  5
19D57
330
747D
100
AcDbEntity
  8
細線
 62
     5
100
AcDbLine
 10
12166.00492718908
 20
4124.806992157309
 30
0.0
 11
12166.00492718909
 21
3863.60699215731
 31
0.0
  0
LINE
  5
19D58
330
747D
100
AcDbEntity
  8
細線
 62
     5
100
AcDbLine
 10
12162.00492718908
 20
4124.806992157309
 30
0.0
 11
12162.00492718908
 21
3863.60699215731
 31
0.0
  0
LINE
  5
19D59
330
747D
100
AcDbEntity
  8
細線
 62
     5
100
AcDbLine
 10
12094.00492718908
 20
4124.806992157309
 30
0.0
 11
12094.00492718908
 21
3863.60699215731
 31
0.0
  0
LINE
  5
19D5A
330
747D
100
AcDbEntity
  8
細線
 62
     5
100
AcDbLine
 10
12082.00492718908
 20
4124.806992157309
 30
0.0
 11
12082.00492718908
 21
3843.406992157312
 31
0.0
  0
LINE
  5
19D5B
330
747D
100
AcDbEntity
  8
細線
 62
     5
100
AcDbLine
 10
12072.00492718908
 20
4124.806992157309
 30
0.0
 11
12072.00492718908
 21
3846.406992157312
 31
0.0
  0
LINE
  5
19D5C
330
747D
100
AcDbEntity
  8
細線
 62
     5
100
AcDbLine
 10
12233.00492718908
 20
4122.606992157309
 30
0.0
 11
12233.00492718908
 21
3867.106992157309
 31
0.0
  0
LINE
  5
19D5D
330
747D
100
AcDbEntity
  8
細線
 62
     5
100
AcDbLine
 10
12229.00492718908
 20
4122.606992157309
 30
0.0
 11
12229.00492718908
 21
3867.106992157309
 31
0.0
  0
LINE
  5
19D5E
330
747D
100
AcDbEntity
  8
細線
 62
     5
100
AcDbLine
 10
12099.00492718908
 20
4122.606992157309
 30
0.0
 11
12099.00492718908
 21
3867.106992157309
 31
0.0
  0
LINE
  5
19D5F
330
747D
100
AcDbEntity
  8
細線
 62
     5
100
AcDbLine
 10
12095.00492718908
 20
4122.606992157309
 30
0.0
 11
12095.00492718908
 21
3867.106992157309
 31
0.0
  0
LINE
  5
19D60
330
747D
100
AcDbEntity
  8
細線
 62
     5
100
AcDbLine
 10
12233.00492718908
 20
3898.60699215731
 30
0.0
 11
12296.00492718908
 21
3898.60699215731
 31
0.0
  0
LINE
  5
19D61
330
747D
100
AcDbEntity
  8
細線
 62
     5
100
AcDbLine
 10
12233.00492718908
 20
3870.606992157309
 30
0.0
 11
12296.00492718908
 21
3870.606992157309
 31
0.0
  0
LINE
  5
19D62
330
747D
100
AcDbEntity
  8
細線
 62
     5
100
AcDbLine
 10
12166.00492718908
 20
3867.106992157309
 30
0.0
 11
12363.00492718908
 21
3867.106992157309
 31
0.0
  0
LINE
  5
19D63
330
747D
100
AcDbEntity
  8
細線
 62
     5
100
AcDbLine
 10
12075.00492718908
 20
3843.406992157312
 30
0.0
 11
12454.00492718909
 21
3843.406992157309
 31
0.0
  0
LINE
  5
19D64
330
747D
100
AcDbEntity
  8
細線
 62
     5
100
AcDbLine
 10
12082.00492718908
 20
3853.406992157312
 30
0.0
 11
12447.00492718908
 21
3853.406992157309
 31
0.0
  0
LINE
  5
19D65
330
747D
100
AcDbEntity
  8
細線
 62
     5
100
AcDbLine
 10
12082.00492718908
 20
3863.60699215731
 30
0.0
 11
12447.00492718908
 21
3863.60699215731
 31
0.0
  0
LINE
  5
19D66
330
747D
100
AcDbEntity
  8
細線
 62
     5
100
AcDbLine
 10
12233.00492718908
 20
4087.60699215731
 30
0.0
 11
12296.00492718908
 21
4087.60699215731
 31
0.0
  0
LINE
  5
19D67
330
747D
100
AcDbEntity
  8
細線
 62
     5
100
AcDbLine
 10
12233.00492718908
 20
4091.106992157309
 30
0.0
 11
12296.00492718908
 21
4091.106992157309
 31
0.0
  0
LINE
  5
19D68
330
747D
100
AcDbEntity
  8
細線
 62
     5
100
AcDbLine
 10
12233.00492718908
 20
4119.106992157308
 30
0.0
 11
12296.00492718908
 21
4119.106992157308
 31
0.0
  0
LINE
  5
19D69
330
747D
100
AcDbEntity
  8
細線
 62
     5
100
AcDbLine
 10
12233.00492718908
 20
3993.10699215731
 30
0.0
 11
12296.00492718908
 21
3993.10699215731
 31
0.0
  0
LINE
  5
19D6A
330
747D
100
AcDbEntity
  8
細線
 62
     5
100
AcDbLine
 10
12233.00492718908
 20
3996.606992157309
 30
0.0
 11
12296.00492718908
 21
3996.606992157309
 31
0.0
  0
LINE
  5
19D6B
330
747D
100
AcDbEntity
  8
細線
 62
     5
100
AcDbLine
 10
12233.00492718908
 20
4024.606992157309
 30
0.0
 11
12296.00492718908
 21
4024.606992157309
 31
0.0
  0
LINE
  5
19D6C
330
747D
100
AcDbEntity
  8
細線
 62
     5
100
AcDbLine
 10
12233.00492718908
 20
4028.106992157309
 30
0.0
 11
12296.00492718908
 21
4028.106992157309
 31
0.0
  0
LINE
  5
19D6D
330
747D
100
AcDbEntity
  8
細線
 62
     5
100
AcDbLine
 10
12233.00492718908
 20
4056.106992157309
 30
0.0
 11
12296.00492718908
 21
4056.106992157309
 31
0.0
  0
LINE
  5
19D6E
330
747D
100
AcDbEntity
  8
細線
 62
     5
100
AcDbLine
 10
12233.00492718908
 20
4059.606992157309
 30
0.0
 11
12296.00492718908
 21
4059.606992157309
 31
0.0
  0
LINE
  5
19D6F
330
747D
100
AcDbEntity
  8
細線
 62
     5
100
AcDbLine
 10
12233.00492718908
 20
3930.106992157309
 30
0.0
 11
12296.00492718908
 21
3930.106992157309
 31
0.0
  0
LINE
  5
19D70
330
747D
100
AcDbEntity
  8
細線
 62
     5
100
AcDbLine
 10
12233.00492718908
 20
3933.606992157309
 30
0.0
 11
12296.00492718908
 21
3933.606992157309
 31
0.0
  0
LINE
  5
19D71
330
747D
100
AcDbEntity
  8
細線
 62
     5
100
AcDbLine
 10
12233.00492718908
 20
3961.606992157309
 30
0.0
 11
12296.00492718908
 21
3961.606992157309
 31
0.0
  0
LINE
  5
19D72
330
747D
100
AcDbEntity
  8
細線
 62
     5
100
AcDbLine
 10
12233.00492718908
 20
3965.10699215731
 30
0.0
 11
12296.00492718908
 21
3965.10699215731
 31
0.0
  0
LINE
  5
19D73
330
747D
100
AcDbEntity
  8
細線
 62
     5
100
AcDbLine
 10
12233.00492718908
 20
3902.106992157309
 30
0.0
 11
12296.00492718908
 21
3902.106992157309
 31
0.0
  0
LINE
  5
19D74
330
747D
100
AcDbEntity
  8
細線
 62
     5
100
AcDbLine
 10
12166.00492718908
 20
4122.606992157309
 30
0.0
 11
12363.00492718908
 21
4122.606992157309
 31
0.0
  0
LINE
  5
19D75
330
747D
100
AcDbEntity
  8
細線
 62
     5
100
AcDbLine
 10
12059.50492718908
 20
4124.806992157309
 30
0.0
 11
12469.50492718908
 21
4124.806992157309
 31
0.0
  0
LINE
  5
19D76
330
747D
100
AcDbEntity
  8
細線
 62
     5
100
AcDbLine
 10
12054.50492718908
 20
4134.80699215731
 30
0.0
 11
12474.50492718908
 21
4134.80699215731
 31
0.0
  0
LINE
  5
19D77
330
747D
100
AcDbEntity
  8
細線
 48
50.0
100
AcDbLine
 10
12117.00492718909
 20
3843.406992157312
 30
0.0
 11
12117.00492718909
 21
2054.963665626825
 31
0.0
  0
LINE
  5
19D78
330
747D
100
AcDbEntity
  8
細線
 48
50.0
100
AcDbLine
 10
12412.00492718909
 20
3843.406992157309
 30
0.0
 11
12412.00492718909
 21
2054.963665626825
 31
0.0
  0
LINE
  5
19D79
330
747D
100
AcDbEntity
  8
細線
 48
50.0
100
AcDbLine
 10
12132.00492718909
 20
3843.406992157312
 30
0.0
 11
12132.00492718909
 21
2054.963665626825
 31
0.0
  0
LINE
  5
19D7A
330
747D
100
AcDbEntity
  8
細線
 48
50.0
100
AcDbLine
 10
12257.00492718909
 20
3843.406992157311
 30
0.0
 11
12257.00492718909
 21
2355.963665626823
 31
0.0
  0
LINE
  5
19D7B
330
747D
100
AcDbEntity
  8
細線
 48
50.0
100
AcDbLine
 10
12272.00492718909
 20
3843.406992157311
 30
0.0
 11
12272.00492718909
 21
2355.963665626823
 31
0.0
  0
LINE
  5
19D7C
330
747D
100
AcDbEntity
  8
細線
 48
50.0
100
AcDbLine
 10
12397.00492718909
 20
3843.406992157309
 30
0.0
 11
12397.00492718909
 21
2054.963665626825
 31
0.0
  0
LINE
  5
19D7D
330
747D
100
AcDbEntity
  8
細線
 48
50.0
100
AcDbLine
 10
12388.50492718908
 20
2355.963665626823
 30
0.0
 11
12388.50492718909
 21
2158.963665626824
 31
0.0
  0
LINE
  5
19D7E
330
747D
100
AcDbEntity
  8
細線
 48
50.0
100
AcDbLine
 10
12140.50492718909
 20
2355.963665626825
 30
0.0
 11
12140.50492718909
 21
2158.963665626824
 31
0.0
  0
LINE
  5
19D7F
330
747D
100
AcDbEntity
  8
細線
 48
50.0
100
AcDbLine
 10
12140.50492718909
 20
2355.963665626825
 30
0.0
 11
12388.50492718908
 21
2355.963665626823
 31
0.0
  0
LINE
  5
19D80
330
747D
100
AcDbEntity
  8
細線
 48
50.0
100
AcDbLine
 10
12140.50492718909
 20
2158.963665626824
 30
0.0
 11
12388.50492718909
 21
2158.963665626824
 31
0.0
  0
LINE
  5
19D81
330
747D
100
AcDbEntity
  8
細線
 48
50.0
100
AcDbLine
 10
12363.50492718909
 20
2330.963665626823
 30
0.0
 11
12363.50492718908
 21
2306.963665626824
 31
0.0
  0
LINE
  5
19D82
330
747D
100
AcDbEntity
  8
細線
 48
50.0
100
AcDbLine
 10
12165.50492718909
 20
2330.963665626825
 30
0.0
 11
12165.50492718909
 21
2306.963665626826
 31
0.0
  0
LINE
  5
19D83
330
747D
100
AcDbEntity
  8
細線
 48
50.0
100
AcDbLine
 10
12165.50492718909
 20
2330.963665626825
 30
0.0
 11
12363.50492718909
 21
2330.963665626823
 31
0.0
  0
LINE
  5
19D84
330
747D
100
AcDbEntity
  8
細線
 48
50.0
100
AcDbLine
 10
12165.50492718909
 20
2183.963665626825
 30
0.0
 11
12363.50492718909
 21
2183.963665626825
 31
0.0
  0
LINE
  5
19D85
330
747D
100
AcDbEntity
  8
細線
 48
50.0
100
AcDbLine
 10
12165.50492718909
 20
2297.463665626825
 30
0.0
 11
12363.50492718909
 21
2297.463665626823
 31
0.0
  0
LINE
  5
19D86
330
747D
100
AcDbEntity
  8
細線
 48
50.0
100
AcDbLine
 10
12165.50492718909
 20
2263.463665626825
 30
0.0
 11
12363.50492718909
 21
2263.463665626824
 31
0.0
  0
LINE
  5
19D87
330
747D
100
AcDbEntity
  8
細線
 48
50.0
100
AcDbLine
 10
12165.50492718909
 20
2229.463665626825
 30
0.0
 11
12363.50492718909
 21
2229.463665626823
 31
0.0
  0
LINE
  5
19D88
330
747D
100
AcDbEntity
  8
細線
 48
50.0
100
AcDbLine
 10
12165.50492718909
 20
2195.463665626825
 30
0.0
 11
12363.50492718909
 21
2195.463665626824
 31
0.0
  0
LINE
  5
19D89
330
747D
100
AcDbEntity
  8
細線
 48
50.0
100
AcDbLine
 10
12165.50492718909
 20
2204.963665626825
 30
0.0
 11
12363.50492718909
 21
2204.963665626824
 31
0.0
  0
LINE
  5
19D8A
330
747D
100
AcDbEntity
  8
細線
 48
50.0
100
AcDbLine
 10
12165.50492718909
 20
2238.963665626826
 30
0.0
 11
12363.50492718909
 21
2238.963665626823
 31
0.0
  0
LINE
  5
19D8B
330
747D
100
AcDbEntity
  8
細線
 48
50.0
100
AcDbLine
 10
12165.50492718909
 20
2272.963665626825
 30
0.0
 11
12363.50492718909
 21
2272.963665626824
 31
0.0
  0
LINE
  5
19D8C
330
747D
100
AcDbEntity
  8
細線
 48
50.0
100
AcDbLine
 10
12165.50492718909
 20
2306.963665626826
 30
0.0
 11
12363.50492718909
 21
2306.963665626824
 31
0.0
  0
LINE
  5
19D8D
330
747D
100
AcDbEntity
  8
細線
 48
50.0
100
AcDbLine
 10
12363.50492718908
 20
2297.463665626823
 30
0.0
 11
12363.50492718908
 21
2272.963665626824
 31
0.0
  0
LINE
  5
19D8E
330
747D
100
AcDbEntity
  8
細線
 48
50.0
100
AcDbLine
 10
12363.50492718908
 20
2263.463665626824
 30
0.0
 11
12363.50492718908
 21
2238.963665626824
 31
0.0
  0
LINE
  5
19D8F
330
747D
100
AcDbEntity
  8
細線
 48
50.0
100
AcDbLine
 10
12363.50492718908
 20
2229.463665626823
 30
0.0
 11
12363.50492718908
 21
2204.963665626824
 31
0.0
  0
LINE
  5
19D90
330
747D
100
AcDbEntity
  8
細線
 48
50.0
100
AcDbLine
 10
12165.50492718909
 20
2195.463665626825
 30
0.0
 11
12165.50492718909
 21
2183.963665626825
 31
0.0
  0
LINE
  5
19D91
330
747D
100
AcDbEntity
  8
細線
 48
50.0
100
AcDbLine
 10
12165.50492718908
 20
2229.463665626825
 30
0.0
 11
12165.50492718909
 21
2204.963665626825
 31
0.0
  0
LINE
  5
19D92
330
747D
100
AcDbEntity
  8
細線
 48
50.0
100
AcDbLine
 10
12165.50492718908
 20
2263.463665626825
 30
0.0
 11
12165.50492718908
 21
2238.963665626826
 31
0.0
  0
LINE
  5
19D93
330
747D
100
AcDbEntity
  8
細線
 48
50.0
100
AcDbLine
 10
12165.50492718909
 20
2297.463665626825
 30
0.0
 11
12165.50492718908
 21
2272.963665626825
 31
0.0
  0
LINE
  5
19D94
330
747D
100
AcDbEntity
  8
細線
 48
50.0
100
AcDbLine
 10
12363.50492718908
 20
2195.463665626824
 30
0.0
 11
12363.50492718909
 21
2183.963665626825
 31
0.0
  0
LINE
  5
19D95
330
747D
100
AcDbEntity
  8
細線
 48
50.0
100
AcDbLine
 10
12257.00492718909
 20
2158.963665626826
 30
0.0
 11
12257.00492718909
 21
2054.963665626825
 31
0.0
  0
LINE
  5
19D96
330
747D
100
AcDbEntity
  8
細線
 48
50.0
100
AcDbLine
 10
12272.00492718909
 20
2158.963665626826
 30
0.0
 11
12272.00492718909
 21
2054.963665626825
 31
0.0
  0
LINE
  5
19D97
330
747D
100
AcDbEntity
  8
仕様書枠
 48
50.0
100
AcDbLine
 10
16307.19999999999
 20
8689.600000000003
 30
0.0
 11
13127.19999999999
 21
8689.600000000003
 31
0.0
  0
LINE
  5
19D98
330
747D
100
AcDbEntity
  8
仕様書枠
 48
50.0
100
AcDbLine
 10
16307.19999999999
 20
8859.6
 30
0.0
 11
13127.19999999999
 21
8859.600000000002
 31
0.0
  0
LINE
  5
19D99
330
747D
100
AcDbEntity
  8
仕様書枠
 48
50.0
100
AcDbLine
 10
16307.19999999999
 20
9029.6
 30
0.0
 11
13127.19999999999
 21
9029.600000000002
 31
0.0
  0
TEXT
  5
19D9A
330
747D
100
AcDbEntity
  8
文字
 62
     7
 48
50.0
100
AcDbText
 10
13248.77747366447
 20
9060.013745883731
 30
0.0
 40
100.0
  1
13
  7
STYLE1
100
AcDbText
  0
TEXT
  5
19D9B
330
747D
100
AcDbEntity
  8
文字
 62
     7
 48
50.0
100
AcDbText
 10
13248.77747366447
 20
8890.013745883731
 30
0.0
 40
100.0
  1
14
  7
STYLE1
100
AcDbText
  0
TEXT
  5
19D9C
330
747D
100
AcDbEntity
  8
文字
 62
     7
 48
50.0
100
AcDbText
 10
13248.77747366447
 20
8720.013745883735
 30
0.0
 40
100.0
  1
15
  7
STYLE1
100
AcDbText
  0
LINE
  5
19D9D
330
747D
100
AcDbEntity
  8
想像線
 48
25.0
100
AcDbLine
 10
4434.669036246563
 20
7667.497424545868
 30
0.0
 11
3934.669036246564
 21
7667.497424545868
 31
0.0
  0
LINE
  5
19D9E
330
747D
100
AcDbEntity
  8
想像線
 48
25.0
100
AcDbLine
 10
4031.261618875469
 20
7693.379329056121
 30
0.0
 11
4031.261618875469
 21
7641.615520035617
 31
0.0
  0
LINE
  5
19D9F
330
747D
100
AcDbEntity
  8
想像線
 48
25.0
100
AcDbLine
 10
3934.669036246564
 20
7667.497424545868
 30
0.0
 11
4031.261618875469
 21
7693.379329056121
 31
0.0
  0
LINE
  5
19DA0
330
747D
100
AcDbEntity
  8
想像線
 48
25.0
100
AcDbLine
 10
4434.669036246563
 20
7667.497424545868
 30
0.0
 11
4338.076453617654
 21
7641.615520035617
 31
0.0
  0
LINE
  5
19DA1
330
747D
100
AcDbEntity
  8
想像線
 48
25.0
100
AcDbLine
 10
4338.076453617654
 20
7693.379329056121
 30
0.0
 11
4338.076453617654
 21
7641.615520035617
 31
0.0
  0
LINE
  5
19DA2
330
747D
100
AcDbEntity
  8
想像線
 48
25.0
100
AcDbLine
 10
6536.66903624659
 20
7667.497424545996
 30
0.0
 11
6633.261618875497
 21
7693.379329056248
 31
0.0
  0
LINE
  5
19DA3
330
747D
100
AcDbEntity
  8
想像線
 48
25.0
100
AcDbLine
 10
6633.261618875497
 20
7693.379329056248
 30
0.0
 11
6633.261618875497
 21
7641.615520035745
 31
0.0
  0
LINE
  5
19DA4
330
747D
100
AcDbEntity
  8
想像線
 48
25.0
100
AcDbLine
 10
7036.66903624659
 20
7667.497424545996
 30
0.0
 11
6536.66903624659
 21
7667.497424545996
 31
0.0
  0
LINE
  5
19DA5
330
747D
100
AcDbEntity
  8
想像線
 48
25.0
100
AcDbLine
 10
6940.076453617681
 20
7693.379329056248
 30
0.0
 11
6940.076453617681
 21
7641.615520035745
 31
0.0
  0
LINE
  5
19DA6
330
747D
100
AcDbEntity
  8
想像線
 48
25.0
100
AcDbLine
 10
7036.66903624659
 20
7667.497424545996
 30
0.0
 11
6940.076453617681
 21
7641.615520035745
 31
0.0
  0
LINE
  5
19DA7
330
747D
100
AcDbEntity
  8
想像線
 48
25.0
100
AcDbLine
 10
7036.669036246609
 20
9767.497424545997
 30
0.0
 11
6940.076453617699
 21
9741.615520035745
 31
0.0
  0
LINE
  5
19DA8
330
747D
100
AcDbEntity
  8
想像線
 48
25.0
100
AcDbLine
 10
6940.076453617699
 20
9793.379329056248
 30
0.0
 11
6940.076453617699
 21
9741.615520035745
 31
0.0
  0
LINE
  5
19DA9
330
747D
100
AcDbEntity
  8
想像線
 48
25.0
100
AcDbLine
 10
7036.669036246609
 20
9767.497424545997
 30
0.0
 11
6536.669036246609
 21
9767.497424545997
 31
0.0
  0
LINE
  5
19DAA
330
747D
100
AcDbEntity
  8
想像線
 48
25.0
100
AcDbLine
 10
6633.261618875515
 20
9793.379329056248
 30
0.0
 11
6633.261618875515
 21
9741.615520035745
 31
0.0
  0
LINE
  5
19DAB
330
747D
100
AcDbEntity
  8
想像線
 48
25.0
100
AcDbLine
 10
6536.669036246609
 20
9767.497424545997
 30
0.0
 11
6633.261618875515
 21
9793.379329056248
 31
0.0
  0
LINE
  5
19DAC
330
747D
100
AcDbEntity
  8
想像線
 48
25.0
100
AcDbLine
 10
3934.669036246582
 20
9767.497424545869
 30
0.0
 11
4031.261618875487
 21
9793.379329056122
 31
0.0
  0
LINE
  5
19DAD
330
747D
100
AcDbEntity
  8
想像線
 48
25.0
100
AcDbLine
 10
4031.261618875487
 20
9793.379329056122
 30
0.0
 11
4031.261618875487
 21
9741.615520035617
 31
0.0
  0
LINE
  5
19DAE
330
747D
100
AcDbEntity
  8
想像線
 48
25.0
100
AcDbLine
 10
4434.669036246581
 20
9767.497424545869
 30
0.0
 11
3934.669036246582
 21
9767.497424545869
 31
0.0
  0
LINE
  5
19DAF
330
747D
100
AcDbEntity
  8
想像線
 48
25.0
100
AcDbLine
 10
4338.076453617672
 20
9793.379329056122
 30
0.0
 11
4338.076453617672
 21
9741.615520035617
 31
0.0
  0
LINE
  5
19DB0
330
747D
100
AcDbEntity
  8
想像線
 48
25.0
100
AcDbLine
 10
4434.669036246581
 20
9767.497424545869
 30
0.0
 11
4338.076453617672
 21
9741.615520035617
 31
0.0
  0
LINE
  5
1A132
330
747D
100
AcDbEntity
  8
部品1
100
AcDbLine
 10
9479.504927189088
 20
2004.963665626823
 30
0.0
 11
9086.507712980241
 21
1904.963665626823
 31
0.0
  0
DIMENSION
  5
1A5EA
330
747D
100
AcDbEntity
  8
寸法
100
AcDbDimension
  2
*D34
 10
6788.669036246666
 20
6161.893658188863
 30
0.0
 11
5473.669036246676
 21
6261.905469212485
 31
0.0
 70
    32
 71
     5
 42
2629.999999999982
  3
INABA_S40G
100
AcDbAlignedDimension
 13
4158.669036246685
 23
6982.49742454583
 33
0.0
 14
6788.669036246666
 24
6982.497424545956
 34
0.0
100
AcDbRotatedDimension
1001
ACAD
1000
DSTYLE
1002
{
1002
}
  0
DIMENSION
  5
1A5EB
330
747D
100
AcDbEntity
  8
寸法
 48
50.0
100
AcDbDimension
  2
*D33
 10
6733.669036246668
 20
6448.066653779737
 30
0.0
 11
7097.154317620905
 21
6448.066653779737
 31
0.0
 70
   160
 71
     5
 42
54.99999999999818
  3
INABA_S40G
100
AcDbAlignedDimension
 13
6788.669036246666
 23
6982.497424545993
 33
0.0
 14
6733.669036246668
 24
6982.497424545988
 34
0.0
100
AcDbRotatedDimension
1001
ACAD
1000
DSTYLE
1002
{
1002
}
  0
DIMENSION
  5
1A5EC
330
747D
100
AcDbEntity
  8
寸法
 48
50.0
100
AcDbDimension
  2
*D32
 10
6685.669036246666
 20
6448.066653779737
 30
0.0
 11
6574.706138597919
 21
6548.066653779738
 31
0.0
 70
   160
 71
     5
 42
48.00000000000181
  3
INABA_S40G
100
AcDbAlignedDimension
 13
6733.669036246668
 23
6982.497424545988
 33
0.0
 14
6685.669036246666
 24
7008.497424545902
 34
0.0
100
AcDbRotatedDimension
1001
ACAD
1000
DSTYLE
1002
{
1070
   279
1070
     2
1002
}
  0
DIMENSION
  5
1A5ED
330
747D
100
AcDbEntity
  8
寸法
 48
50.0
100
AcDbDimension
  2
*D31
 10
4261.669036246686
 20
6448.066653779737
 30
0.0
 11
5473.669036246676
 21
6548.078464803359
 31
0.0
 70
    32
  1
有効開口部間口 <>
 71
     5
 42
2423.999999999982
  3
INABA_S40G
100
AcDbAlignedDimension
 13
6685.669036246666
 23
7008.497424545902
 33
0.0
 14
4261.669036246686
 24
7008.497424545902
 34
0.0
100
AcDbRotatedDimension
1001
ACAD
1000
DSTYLE
1002
{
1070
    75
1070
     1
1070
   279
1070
     2
1002
}
  0
DIMENSION
  5
1A5EE
330
747D
100
AcDbEntity
  8
寸法
 48
50.0
100
AcDbDimension
  2
*D30
 10
4213.669036246681
 20
6448.066653779737
 30
0.0
 11
4374.571007246742
 21
6548.066653779738
 31
0.0
 70
   160
 71
     5
 42
48.00000000000363
  3
INABA_S40G
100
AcDbAlignedDimension
 13
4261.669036246686
 23
7008.497424545902
 33
0.0
 14
4213.669036246681
 24
6982.497424545901
 34
0.0
100
AcDbRotatedDimension
1001
ACAD
1000
DSTYLE
1002
{
1070
   279
1070
     2
1002
}
  0
DIMENSION
  5
1A5EF
330
747D
100
AcDbEntity
  8
寸法
 48
50.0
100
AcDbDimension
  2
*D29
 10
4158.669036246685
 20
6448.066653779737
 30
0.0
 11
3850.183754872447
 21
6448.066653779737
 31
0.0
 70
   160
 71
     5
 42
54.99999999999636
  3
INABA_S40G
100
AcDbAlignedDimension
 13
4213.669036246681
 23
6982.497424545901
 33
0.0
 14
4158.669036246685
 24
6982.497424545897
 34
0.0
100
AcDbRotatedDimension
1001
ACAD
1000
DSTYLE
1002
{
1002
}
  0
TEXT
  5
1A5F0
330
747D
100
AcDbEntity
  8
部品1
100
AcDbText
 10
5181.85331296151
 20
5798.149133041443
 30
0.0
 40
135.0
  1
平面図
  7
STYLE2
100
AcDbText
  0
LWPOLYLINE
  5
1A5F1
330
747D
100
AcDbEntity
  8
部品1
100
AcDbPolyline
 90
        4
 70
     1
 43
0.0
 10
5091.933703132472
 20
5991.042662259967
 10
5091.933703132472
 20
5751.150340714434
 10
5855.404369360911
 20
5751.150340714434
 10
5855.404369360911
 20
5991.042662259967
  0
LINE
  5
1A6A0
330
747D
100
AcDbEntity
  8
細線
100
AcDbLine
 10
4261.669036246682
 20
3964.963665626818
 30
0.0
 11
6685.669036246683
 21
3964.963665626818
 31
0.0
  0
LINE
  5
1A90D
330
747D
100
AcDbEntity
  8
破線
 48
5.0
100
AcDbLine
 10
4213.669036246685
 20
2004.963665626823
 30
0.0
 11
4213.669036246684
 21
1654.963665626823
 31
0.0
  0
LINE
  5
1A90E
330
747D
100
AcDbEntity
  8
破線
 48
5.0
100
AcDbLine
 10
4213.669036246685
 20
2004.963665626823
 30
0.0
 11
4213.669036246684
 21
1654.963665626823
 31
0.0
  0
LINE
  5
1A90F
330
747D
100
AcDbEntity
  8
破線
 48
5.0
100
AcDbLine
 10
4158.669036246685
 20
1904.963665626823
 30
0.0
 11
4158.669036246684
 21
1654.963665626823
 31
0.0
  0
LINE
  5
1A910
330
747D
100
AcDbEntity
  8
破線
 48
5.0
100
AcDbLine
 10
4213.669036246684
 20
1654.96366562683
 30
0.0
 11
4158.669036246684
 21
1654.96366562683
 31
0.0
  0
LINE
  5
1A911
330
747D
100
AcDbEntity
  8
破線
 48
5.0
100
AcDbLine
 10
4261.669036246684
 20
1754.963665626829
 30
0.0
 11
4213.669036246684
 21
1754.963665626829
 31
0.0
  0
LINE
  5
1A912
330
747D
100
AcDbEntity
  8
破線
 48
5.0
100
AcDbLine
 10
4261.669036246684
 20
1754.963665626829
 30
0.0
 11
4213.669036246684
 21
1754.963665626829
 31
0.0
  0
LINE
  5
1A913
330
747D
100
AcDbEntity
  8
破線
 48
5.0
100
AcDbLine
 10
4261.669036246686
 20
2004.963665626823
 30
0.0
 11
4261.669036246683
 21
1754.963665626829
 31
0.0
  0
LINE
  5
1A914
330
747D
100
AcDbEntity
  8
破線
 48
5.0
100
AcDbLine
 10
4261.669036246686
 20
2004.963665626823
 30
0.0
 11
4261.669036246683
 21
1754.963665626829
 31
0.0
  0
LINE
  5
1A915
330
747D
100
AcDbEntity
  8
破線
 48
5.0
100
AcDbLine
 10
6733.669036246684
 20
2004.963665626823
 30
0.0
 11
6733.669036246685
 21
1654.963665626823
 31
0.0
  0
LINE
  5
1A916
330
747D
100
AcDbEntity
  8
破線
 48
5.0
100
AcDbLine
 10
6788.669036246685
 20
1904.963665626823
 30
0.0
 11
6788.669036246685
 21
1654.963665626823
 31
0.0
  0
LINE
  5
1A917
330
747D
100
AcDbEntity
  8
破線
 48
5.0
100
AcDbLine
 10
6788.669036246684
 20
1654.963665626823
 30
0.0
 11
6733.669036246685
 21
1654.963665626823
 31
0.0
  0
LINE
  5
1A918
330
747D
100
AcDbEntity
  8
破線
 48
5.0
100
AcDbLine
 10
6685.669036246683
 20
2004.963665626823
 30
0.0
 11
6685.669036246686
 21
1754.963665626823
 31
0.0
  0
LINE
  5
1A919
330
747D
100
AcDbEntity
  8
破線
 48
5.0
100
AcDbLine
 10
6733.669036246687
 20
1754.963665626823
 30
0.0
 11
6685.669036246685
 21
1754.963665626823
 31
0.0
  0
LINE
  5
1A921
330
747D
100
AcDbEntity
  8
破線
 48
5.0
100
AcDbLine
 10
9479.504927189086
 20
1654.963665626823
 30
0.0
 11
9534.504927189082
 21
1654.963665626823
 31
0.0
  0
LINE
  5
1A922
330
747D
100
AcDbEntity
  8
破線
 48
5.0
100
AcDbLine
 10
9534.504927189086
 20
1904.963665626823
 30
0.0
 11
9534.504927189086
 21
1654.963665626823
 31
0.0
  0
LINE
  5
1A923
330
747D
100
AcDbEntity
  8
破線
 48
5.0
100
AcDbLine
 10
9479.504927189086
 20
1904.963665626823
 30
0.0
 11
9479.504927189086
 21
1654.963665626823
 31
0.0
  0
TEXT
  5
1A9B1
330
747D
100
AcDbEntity
  8
文字
 62
     7
 48
50.0
100
AcDbText
 10
13583.11819016569
 20
9400.013745883727
 30
0.0
 40
100.0
  1
シャッターカバー
 41
0.9
  7
STYLE1
100
AcDbText
  0
TEXT
  5
1A9B2
330
747D
100
AcDbEntity
  8
文字
 62
     7
 48
50.0
100
AcDbText
 10
13583.11819016569
 20
9570.013745883729
 30
0.0
 40
100.0
  1
シャッター
  7
STYLE1
100
AcDbText
  0
TEXT
  5
1A9B3
330
747D
100
AcDbEntity
  8
文字
 62
     7
 48
50.0
100
AcDbText
 10
15022.63965474515
 20
9570.013745883725
 30
0.0
 40
100.0
  1
Z08            0.5
  7
STYLE1
100
AcDbText
  0
TEXT
  5
1A9B4
330
747D
100
AcDbEntity
  8
文字
 62
     7
 48
50.0
100
AcDbText
 10
15022.63965474516
 20
9400.013745883725
 30
0.0
 40
100.0
  1
F12            0.7
  7
STYLE1
100
AcDbText
  0
TEXT
  5
1A9B5
330
747D
100
AcDbEntity
  8
文字
 62
     7
 48
50.0
100
AcDbText
 10
13583.11819016569
 20
9230.013745883727
 30
0.0
 40
100.0
  1
シャッターレール
  7
STYLE1
100
AcDbText
  0
TEXT
  5
1A9B6
330
747D
100
AcDbEntity
  8
文字
 62
     7
 48
50.0
100
AcDbText
 10
14850.83183167176
 20
9230.013745883725
 30
0.0
 40
100.0
  1
アルミニウム合金押出形材
  7
STYLE1
100
AcDbText
  0
ENDSEC
  0
SECTION
  2
OBJECTS
  0
DICTIONARY
  5
7471
330
0
100
AcDbDictionary
281
     1
  3
ACAD_COLOR
350
16850
  3
ACAD_GROUP
350
7472
  3
ACAD_LAYOUT
350
16851
  3
ACAD_MATERIAL
350
1684F
  3
ACAD_MLINESTYLE
350
7473
  3
ACAD_PLOTSETTINGS
350
16852
  3
ACAD_PLOTSTYLENAME
350
1684D
  3
ACDBHEADERROUNDTRIPXREC
350
1A9D8
  3
AcDbVariableDictionary
350
1A68A
  3
CONTENTDICTIONARY
350
E71C
  3
DRAWINGVARIABLESDICT
350
F3B9
  0
DICTIONARY
  5
16B21
330
7467
100
AcDbDictionary
280
     1
281
     1
  3
ACAD_LAYERSTATES
360
16B22
  0
DICTIONARY
  5
16850
102
{ACAD_REACTORS
330
7471
102
}
330
7471
100
AcDbDictionary
281
     1
  0
DICTIONARY
  5
7472
102
{ACAD_REACTORS
330
7471
102
}
330
7471
100
AcDbDictionary
281
     1
  0
DICTIONARY
  5
16851
102
{ACAD_REACTORS
330
7471
102
}
330
7471
100
AcDbDictionary
281
     1
  3
Model
350
16853
  3
レイアウト1
350
16854
  0
DICTIONARY
  5
1684F
102
{ACAD_REACTORS
330
7471
102
}
330
7471
100
AcDbDictionary
281
     1
  0
DICTIONARY
  5
7473
102
{ACAD_REACTORS
330
7471
102
}
330
7471
100
AcDbDictionary
281
     1
  3
STANDARD
350
7480
  0
DICTIONARY
  5
16852
102
{ACAD_REACTORS
330
7471
102
}
330
7471
100
AcDbDictionary
281
     1
  0
ACDBDICTIONARYWDFLT
  5
1684D
102
{ACAD_REACTORS
330
7471
102
}
330
7471
100
AcDbDictionary
281
     1
  3
Normal
350
1684E
100
AcDbDictionaryWithDefault
340
1684E
  0
DICTIONARY
  5
1A9D8
102
{ACAD_REACTORS
330
7471
102
}
330
7471
100
AcDbDictionary
281
     1
  3
COLORDICT
350
1A9DA
  3
MATERIALDICT
350
1A9D9
  0
DICTIONARY
  5
1A68A
102
{ACAD_REACTORS
330
7471
102
}
330
7471
100
AcDbDictionary
281
     1
  3
DIMASSOC
350
1A68B
  3
PROJECTNAME
350
1A68C
  0
DICTIONARY
  5
E71C
102
{ACAD_REACTORS
330
7471
102
}
330
7471
100
AcDbDictionary
281
     1
  0
DICTIONARY
  5
F3B9
102
{ACAD_REACTORS
330
7471
102
}
330
7471
100
AcDbDictionary
281
     1
1001
DRAWINGVARIABLESXDATA
1000
POLARMODE
1000
1
  0
DICTIONARY
  5
16B22
102
{ACAD_REACTORS
330
16B21
102
}
330
16B21
100
AcDbDictionary
281
     1
  0
LAYOUT
  5
16853
102
{ACAD_XDICTIONARY
360
1A9DB
102
}
102
{ACAD_REACTORS
330
16851
102
}
330
16851
100
AcDbPlotSettings
  1

  2
EPSON LP-8300
  4

  6

 40
0.0
 41
0.0
 42
0.0
 43
0.0
 44
0.0
 45
0.0
 46
0.0
 47
0.0
 48
0.0
 49
0.0
140
0.0
141
0.0
142
1.0
143
1.0
 70
  1712
 72
     0
 73
     0
 74
     0
  7
inaba.ctb
 75
     0
147
1.0
148
0.0
149
0.0
100
AcDbLayout
  1
Model
 70
     1
 71
     0
 10
0.0
 20
0.0
 11
12.0
 21
9.0
 12
0.0
 22
0.0
 32
0.0
 14
0.0
 24
0.0
 34
0.0
 15
0.0
 25
0.0
 35
0.0
146
0.0
 13
0.0
 23
0.0
 33
0.0
 16
1.0
 26
0.0
 36
0.0
 17
0.0
 27
1.0
 37
0.0
 76
     0
330
747D
  0
LAYOUT
  5
16854
102
{ACAD_XDICTIONARY
360
1A9DD
102
}
102
{ACAD_REACTORS
330
16851
102
}
330
16851
100
AcDbPlotSettings
  1

  2
EPSON LP-8300
  4

  6

 40
0.0
 41
0.0
 42
0.0
 43
0.0
 44
0.0
 45
0.0
 46
0.0
 47
0.0
 48
0.0
 49
0.0
140
0.0
141
0.0
142
1.0
143
1.0
 70
   688
 72
     0
 73
     0
 74
     5
  7
inaba.ctb
 75
    16
147
1.0
148
0.0
149
0.0
100
AcDbLayout
  1
レイアウト1
 70
     0
 71
     1
 10
0.0
 20
0.0
 11
420.0
 21
297.0
 12
0.0
 22
0.0
 32
0.0
 14
1.000000000000000E+20
 24
1.000000000000000E+20
 34
1.000000000000000E+20
 15
-1.000000000000000E+20
 25
-1.000000000000000E+20
 35
-1.000000000000000E+20
146
0.0
 13
0.0
 23
0.0
 33
0.0
 16
1.0
 26
0.0
 36
0.0
 17
0.0
 27
1.0
 37
0.0
 76
     0
330
747A
  0
MLINESTYLE
  5
7480
102
{ACAD_REACTORS
330
7473
102
}
330
7473
100
AcDbMlineStyle
  2
STANDARD
 70
     0
  3

 62
     0
 51
90.0
 52
90.0
 71
     2
 49
0.5
 62
   256
  6
BYLAYER
 49
-0.5
 62
   256
  6
BYLAYER
  0
ACDBPLACEHOLDER
  5
1684E
102
{ACAD_REACTORS
330
1684D
102
}
330
1684D
  0
XRECORD
  5
1A9DA
102
{ACAD_REACTORS
330
1A9D8
102
}
330
1A9D8
100
AcDbXrecord
280
     1
340
16850
  0
XRECORD
  5
1A9D9
102
{ACAD_REACTORS
330
1A9D8
102
}
330
1A9D8
100
AcDbXrecord
280
     1
340
1684F
  0
DICTIONARYVAR
  5
1A68B
102
{ACAD_REACTORS
330
1A68A
102
}
330
1A68A
100
DictionaryVariables
280
     0
  1
1
  0
DICTIONARYVAR
  5
1A68C
102
{ACAD_REACTORS
330
1A68A
102
}
330
1A68A
100
DictionaryVariables
280
     0
  1

  0
DICTIONARY
  5
1A9DB
330
16853
100
AcDbDictionary
280
     1
281
     1
  3
ACAD_XREC_ROUNDTRIP
360
1A9DC
  0
DICTIONARY
  5
1A9DD
330
16854
100
AcDbDictionary
280
     1
281
     1
  3
ACAD_XREC_ROUNDTRIP
360
1A9DE
  0
XRECORD
  5
1A9DC
102
{ACAD_REACTORS
330
1A9DB
102
}
330
1A9DB
100
AcDbXrecord
280
     1
102
SHADEPLOT
 70
     0
102
SHADEPLOTRESLEVEL
 70
     2
102
SHADEPLOTCUSTOMDPI
 70
   300
  0
XRECORD
  5
1A9DE
102
{ACAD_REACTORS
330
1A9DD
102
}
330
1A9DD
100
AcDbXrecord
280
     1
102
SHADEPLOT
 70
     0
102
SHADEPLOTRESLEVEL
 70
     2
102
SHADEPLOTCUSTOMDPI
 70
   300
  0
ENDSEC
  0
EOF
