  0
SECTION
  2
HEADER
  9
$ACADVER
  1
AC1015
  9
$ACADMAINTVER
 70
    20
  9
$DWGCODEPAGE
  3
ANSI_932
  9
$INSBASE
 10
0.0
 20
0.0
 30
0.0
  9
$EXTMIN
 10
139.196816621341
 20
-0.7250533989645192
 30
-0.0000000349181948
  9
$EXTMAX
 10
16308.32523385566
 20
11409.94112792278
 30
0.0000000814935746
  9
$LIMMIN
 10
0.0
 20
0.0
  9
$LIMMAX
 10
16800.0
 20
11880.0
  9
$ORTHOMODE
 70
     0
  9
$REGENMODE
 70
     1
  9
$FILLMODE
 70
     1
  9
$QTEXTMODE
 70
     0
  9
$MIRRTEXT
 70
     1
  9
$LTSCALE
 40
20.0
  9
$ATTMODE
 70
     1
  9
$TEXTSIZE
 40
100.0
  9
$TRACEWID
 40
1.0
  9
$TEXTSTYLE
  7
STYLE2
  9
$CLAYER
  8
部品1
  9
$CELTYPE
  6
BYLAYER
  9
$CECOLOR
 62
   256
  9
$CELTSCALE
 40
50.0
  9
$DISPSILH
 70
     0
  9
$DIMSCALE
 40
40.0
  9
$DIMASZ
 40
2.5
  9
$DIMEXO
 40
0.5
  9
$DIMDLI
 40
7.0
  9
$DIMRND
 40
0.0
  9
$DIMDLE
 40
0.0
  9
$DIMEXE
 40
1.5
  9
$DIMTP
 40
0.0
  9
$DIMTM
 40
0.0
  9
$DIMTXT
 40
3.0
  9
$DIMCEN
 40
0.0
  9
$DIMTSZ
 40
0.0
  9
$DIMTOL
 70
     0
  9
$DIMLIM
 70
     0
  9
$DIMTIH
 70
     0
  9
$DIMTOH
 70
     0
  9
$DIMSE1
 70
     0
  9
$DIMSE2
 70
     0
  9
$DIMTAD
 70
     3
  9
$DIMZIN
 70
     8
  9
$DIMBLK
  1

  9
$DIMASO
 70
     1
  9
$DIMSHO
 70
     1
  9
$DIMPOST
  1

  9
$DIMAPOST
  1

  9
$DIMALT
 70
     0
  9
$DIMALTD
 70
     2
  9
$DIMALTF
 40
0.0394
  9
$DIMLFAC
 40
1.0
  9
$DIMTOFL
 70
     1
  9
$DIMTVP
 40
0.0
  9
$DIMTIX
 70
     0
  9
$DIMSOXD
 70
     0
  9
$DIMSAH
 70
     1
  9
$DIMBLK1
  1
DOTSMALL
  9
$DIMBLK2
  1
DOTSMALL
  9
$DIMSTYLE
  2
INABA_S40G
  9
$DIMCLRD
 70
     0
  9
$DIMCLRE
 70
     0
  9
$DIMCLRT
 70
     7
  9
$DIMTFAC
 40
1.0
  9
$DIMGAP
 40
1.0
  9
$DIMJUST
 70
     0
  9
$DIMSD1
 70
     0
  9
$DIMSD2
 70
     0
  9
$DIMTOLJ
 70
     1
  9
$DIMTZIN
 70
     0
  9
$DIMALTZ
 70
     0
  9
$DIMALTTZ
 70
     0
  9
$DIMUPT
 70
     0
  9
$DIMDEC
 70
     1
  9
$DIMTDEC
 70
     1
  9
$DIMALTU
 70
     2
  9
$DIMALTTD
 70
     2
  9
$DIMTXSTY
  7
STYLE1
  9
$DIMAUNIT
 70
     0
  9
$DIMADEC
 70
     0
  9
$DIMALTRND
 40
0.0
  9
$DIMAZIN
 70
     0
  9
$DIMDSEP
 70
    46
  9
$DIMATFIT
 70
     3
  9
$DIMFRAC
 70
     0
  9
$DIMLDRBLK
  1

  9
$DIMLUNIT
 70
     2
  9
$DIMLWD
 70
    -2
  9
$DIMLWE
 70
    -2
  9
$DIMTMOVE
 70
     1
  9
$LUNITS
 70
     2
  9
$LUPREC
 70
     1
  9
$SKETCHINC
 40
1.0
  9
$FILLETRAD
 40
2.299999999999999
  9
$AUNITS
 70
     0
  9
$AUPREC
 70
     0
  9
$MENU
  1
acad
  9
$ELEVATION
 40
0.0
  9
$PELEVATION
 40
0.0
  9
$THICKNESS
 40
0.0
  9
$LIMCHECK
 70
     0
  9
$CHAMFERA
 40
3.0
  9
$CHAMFERB
 40
3.0
  9
$CHAMFERC
 40
0.0
  9
$CHAMFERD
 40
0.0
  9
$SKPOLY
 70
     0
  9
$TDCREATE
 40
2451368.612993866
  9
$TDUCREATE
 40
2451368.237993866
  9
$TDUPDATE
 40
2455552.737670347
  9
$TDUUPDATE
 40
2455552.362670347
  9
$TDINDWG
 40
1.6984120370
  9
$TDUSRTIMER
 40
1.6984120370
  9
$USRTIMER
 70
     1
  9
$ANGBASE
 50
0.0
  9
$ANGDIR
 70
     0
  9
$PDMODE
 70
     3
  9
$PDSIZE
 40
2.0
  9
$PLINEWID
 40
0.0
  9
$SPLFRAME
 70
     0
  9
$SPLINETYPE
 70
     6
  9
$SPLINESEGS
 70
     8
  9
$HANDSEED
  5
21790
  9
$SURFTAB1
 70
     6
  9
$SURFTAB2
 70
     6
  9
$SURFTYPE
 70
     6
  9
$SURFU
 70
     6
  9
$SURFV
 70
     6
  9
$UCSBASE
  2

  9
$UCSNAME
  2

  9
$UCSORG
 10
0.0
 20
0.0
 30
0.0
  9
$UCSXDIR
 10
1.0
 20
0.0
 30
0.0
  9
$UCSYDIR
 10
0.0
 20
1.0
 30
0.0
  9
$UCSORTHOREF
  2

  9
$UCSORTHOVIEW
 70
     0
  9
$UCSORGTOP
 10
0.0
 20
0.0
 30
0.0
  9
$UCSORGBOTTOM
 10
0.0
 20
0.0
 30
0.0
  9
$UCSORGLEFT
 10
0.0
 20
0.0
 30
0.0
  9
$UCSORGRIGHT
 10
0.0
 20
0.0
 30
0.0
  9
$UCSORGFRONT
 10
0.0
 20
0.0
 30
0.0
  9
$UCSORGBACK
 10
0.0
 20
0.0
 30
0.0
  9
$PUCSBASE
  2

  9
$PUCSNAME
  2

  9
$PUCSORG
 10
0.0
 20
0.0
 30
0.0
  9
$PUCSXDIR
 10
1.0
 20
0.0
 30
0.0
  9
$PUCSYDIR
 10
0.0
 20
1.0
 30
0.0
  9
$PUCSORTHOREF
  2

  9
$PUCSORTHOVIEW
 70
     0
  9
$PUCSORGTOP
 10
0.0
 20
0.0
 30
0.0
  9
$PUCSORGBOTTOM
 10
0.0
 20
0.0
 30
0.0
  9
$PUCSORGLEFT
 10
0.0
 20
0.0
 30
0.0
  9
$PUCSORGRIGHT
 10
0.0
 20
0.0
 30
0.0
  9
$PUCSORGFRONT
 10
0.0
 20
0.0
 30
0.0
  9
$PUCSORGBACK
 10
0.0
 20
0.0
 30
0.0
  9
$USERI1
 70
     0
  9
$USERI2
 70
     0
  9
$USERI3
 70
     0
  9
$USERI4
 70
     0
  9
$USERI5
 70
     0
  9
$USERR1
 40
0.0
  9
$USERR2
 40
0.0
  9
$USERR3
 40
0.0
  9
$USERR4
 40
0.0
  9
$USERR5
 40
0.0
  9
$WORLDVIEW
 70
     1
  9
$SHADEDGE
 70
     3
  9
$SHADEDIF
 70
    70
  9
$TILEMODE
 70
     1
  9
$MAXACTVP
 70
    16
  9
$PINSBASE
 10
0.0
 20
0.0
 30
0.0
  9
$PLIMCHECK
 70
     0
  9
$PEXTMIN
 10
1.000000000000000E+20
 20
1.000000000000000E+20
 30
1.000000000000000E+20
  9
$PEXTMAX
 10
-1.000000000000000E+20
 20
-1.000000000000000E+20
 30
-1.000000000000000E+20
  9
$PLIMMIN
 10
0.0
 20
0.0
  9
$PLIMMAX
 10
420.0
 20
297.0
  9
$UNITMODE
 70
     0
  9
$VISRETAIN
 70
     0
  9
$PLINEGEN
 70
     0
  9
$PSLTSCALE
 70
     0
  9
$TREEDEPTH
 70
  3020
  9
$CMLSTYLE
  2
STANDARD
  9
$CMLJUST
 70
     0
  9
$CMLSCALE
 40
1.0
  9
$PROXYGRAPHICS
 70
     1
  9
$MEASUREMENT
 70
     1
  9
$CELWEIGHT
370
    -1
  9
$ENDCAPS
280
     0
  9
$JOINSTYLE
280
     0
  9
$LWDISPLAY
290
     0
  9
$INSUNITS
 70
     0
  9
$HYPERLINKBASE
  1

  9
$STYLESHEET
  1
inaba.ctb
  9
$XEDIT
290
     1
  9
$CEPSNTYPE
380
     0
  9
$PSTYLEMODE
290
     1
  9
$FINGERPRINTGUID
  2
{3B57B35E-7D77-4BBF-81B7-6C583B9EB24C}
  9
$VERSIONGUID
  2
{1C42FEB2-CD3F-43B2-9772-F0E269BD1B14}
  9
$EXTNAMES
290
     1
  9
$PSVPSCALE
 40
0.0
  9
$OLESTARTUP
290
     0
  0
ENDSEC
  0
SECTION
  2
CLASSES
  0
CLASS
  1
ACDBDICTIONARYWDFLT
  2
AcDbDictionaryWithDefault
  3
ObjectDBX Classes
 90
        0
280
     0
281
     0
  0
CLASS
  1
DICTIONARYVAR
  2
AcDbDictionaryVar
  3
ObjectDBX Classes
 90
        0
280
     0
281
     0
  0
CLASS
  1
ACDBPLACEHOLDER
  2
AcDbPlaceHolder
  3
ObjectDBX Classes
 90
        0
280
     0
281
     0
  0
CLASS
  1
LAYOUT
  2
AcDbLayout
  3
ObjectDBX Classes
 90
        0
280
     0
281
     0
  0
ENDSEC
  0
SECTION
  2
TABLES
  0
TABLE
  2
VPORT
  5
746D
330
0
100
AcDbSymbolTable
 70
     3
  0
VPORT
  5
21788
330
746D
100
AcDbSymbolTableRecord
100
AcDbViewportTableRecord
  2
*Active
 70
     0
 10
0.0
 20
0.0
 11
1.0
 21
1.0
 12
8223.7610252385
 22
5704.608037261909
 13
0.0
 23
0.0
 14
10.0
 24
10.0
 15
10.0
 25
10.0
 16
0.0
 26
0.0
 36
1.0
 17
0.0
 27
0.0
 37
0.0
 40
11496.13933623801
 41
1.507499999999999
 42
50.0
 43
0.0
 44
0.0
 50
0.0
 51
0.0
 71
     0
 72
     0
 73
     1
 74
     0
 75
     0
 76
     0
 77
     0
 78
     0
281
     0
 65
     1
110
0.0
120
0.0
130
0.0
111
1.0
121
0.0
131
0.0
112
0.0
122
1.0
132
0.0
 79
     0
146
0.0
  0
ENDTAB
  0
TABLE
  2
LTYPE
  5
746A
330
0
100
AcDbSymbolTable
 70
     4
  0
LTYPE
  5
7477
330
746A
100
AcDbSymbolTableRecord
100
AcDbLinetypeTableRecord
  2
BYBLOCK
 70
     0
  3

 72
    65
 73
     0
 40
0.0
  0
LTYPE
  5
7478
330
746A
100
AcDbSymbolTableRecord
100
AcDbLinetypeTableRecord
  2
BYLAYER
 70
     0
  3

 72
    65
 73
     0
 40
0.0
  0
LTYPE
  5
7479
330
746A
100
AcDbSymbolTableRecord
100
AcDbLinetypeTableRecord
  2
CONTINUOUS
 70
     0
  3
Solid line
 72
    65
 73
     0
 40
0.0
  0
LTYPE
  5
7816
330
746A
100
AcDbSymbolTableRecord
100
AcDbLinetypeTableRecord
  2
CENTER
 70
     0
  3
____ _ ____ _ ____ _ ____ _ ____ _ ____ _ ____ 
 72
    65
 73
     4
 40
2.0
 49
1.25
 74
     0
 49
-0.25
 74
     0
 49
0.25
 74
     0
 49
-0.25
 74
     0
  0
LTYPE
  5
781A
330
746A
100
AcDbSymbolTableRecord
100
AcDbLinetypeTableRecord
  2
HIDDEN
 70
     0
  3
__ __ __ __ __ __ __ __ __ __ __ __ __ __ __ __
 72
    65
 73
     2
 40
0.375
 49
0.25
 74
     0
 49
-0.125
 74
     0
  0
LTYPE
  5
781B
330
746A
100
AcDbSymbolTableRecord
100
AcDbLinetypeTableRecord
  2
PHANTOM
 70
     0
  3
______  __  __  ______  __  __  ______  __  __ 
 72
    65
 73
     6
 40
2.5
 49
1.25
 74
     0
 49
-0.25
 74
     0
 49
0.25
 74
     0
 49
-0.25
 74
     0
 49
0.25
 74
     0
 49
-0.25
 74
     0
  0
ENDTAB
  0
TABLE
  2
LAYER
  5
7467
102
{ACAD_XDICTIONARY
360
21291
102
}
330
0
100
AcDbSymbolTable
 70
    13
  0
LAYER
  5
7474
330
7467
100
AcDbSymbolTableRecord
100
AcDbLayerTableRecord
  2
0
 70
     0
 62
     7
  6
CONTINUOUS
370
    -3
390
159AE
  0
LAYER
  5
DEB2
330
7467
100
AcDbSymbolTableRecord
100
AcDbLayerTableRecord
  2
センター
 70
     0
 62
     3
  6
CENTER
370
    -3
390
159AE
  0
LAYER
  5
DEB3
330
7467
100
AcDbSymbolTableRecord
100
AcDbLayerTableRecord
  2
寸法
 70
     0
 62
     4
  6
CONTINUOUS
370
    -3
390
159AE
  0
LAYER
  5
DEB4
330
7467
100
AcDbSymbolTableRecord
100
AcDbLayerTableRecord
  2
部品1
 70
     0
 62
     7
  6
CONTINUOUS
370
    -3
390
159AE
  0
LAYER
  5
DEB5
330
7467
100
AcDbSymbolTableRecord
100
AcDbLayerTableRecord
  2
補助
 70
     0
 62
    -1
  6
CONTINUOUS
370
    -3
390
159AE
  0
LAYER
  5
DEB6
330
7467
100
AcDbSymbolTableRecord
100
AcDbLayerTableRecord
  2
文字
 70
     0
 62
     7
  6
CONTINUOUS
370
    -3
390
159AE
  0
LAYER
  5
F255
330
7467
100
AcDbSymbolTableRecord
100
AcDbLayerTableRecord
  2
DEFPOINTS
 70
     0
 62
     7
  6
CONTINUOUS
290
     0
370
    -3
390
159AE
  0
LAYER
  5
10B54
330
7467
100
AcDbSymbolTableRecord
100
AcDbLayerTableRecord
  2
仕様書枠
 70
     0
 62
   230
  6
CONTINUOUS
370
    -3
390
159AE
  0
LAYER
  5
11729
330
7467
100
AcDbSymbolTableRecord
100
AcDbLayerTableRecord
  2
Ｇ．Ｌ
 70
     0
 62
    30
  6
CONTINUOUS
370
    -3
390
159AE
  0
LAYER
  5
1173F
330
7467
100
AcDbSymbolTableRecord
100
AcDbLayerTableRecord
  2
細線
 70
     0
 62
     5
  6
CONTINUOUS
370
    -3
390
159AE
  0
LAYER
  5
12CC4
330
7467
100
AcDbSymbolTableRecord
100
AcDbLayerTableRecord
  2
想像線
 70
     0
 62
     6
  6
PHANTOM
370
    -3
390
159AE
  0
LAYER
  5
142E2
330
7467
100
AcDbSymbolTableRecord
100
AcDbLayerTableRecord
  2
破線
 70
     0
 62
     2
  6
HIDDEN
370
    -3
390
159AE
  0
LAYER
  5
21290
330
7467
100
AcDbSymbolTableRecord
100
AcDbLayerTableRecord
  2
点線
 70
     0
 62
     2
  6
HIDDEN
370
    -3
390
159AE
  0
ENDTAB
  0
TABLE
  2
STYLE
  5
7468
330
0
100
AcDbSymbolTable
 70
     4
  0
STYLE
  5
7475
330
7468
100
AcDbSymbolTableRecord
100
AcDbTextStyleTableRecord
  2
STANDARD
 70
     0
 40
0.0
 41
1.0
 50
0.0
 71
     0
 42
4.0
  3
txt
  4
C:\AutoCAD LT\bigfont.shx
  0
STYLE
  5
F706
330
7468
100
AcDbSymbolTableRecord
100
AcDbTextStyleTableRecord
  2
STYLE1
 70
     0
 40
0.0
 41
1.0
 50
0.0
 71
     0
 42
100.0
  3
isocp.shx
  4
bigfont.shx
  0
STYLE
  5
103BF
330
7468
100
AcDbSymbolTableRecord
100
AcDbTextStyleTableRecord
  2
STYLE2
 70
     0
 40
0.0
 41
1.0
 50
0.0
 71
     0
 42
100.0
  3
MS PGothic.ttf
  4

1001
ACAD
1000
MS PGothic
1071
    32818
  0
STYLE
  5
214E3
330
7468
100
AcDbSymbolTableRecord
100
AcDbTextStyleTableRecord
  2
丸ゴシック
 70
     0
 40
0.0
 41
1.0
 50
0.0
 71
     0
 42
150.0
  3
HGRSMP.TTF
  4

1001
ACAD
1000
HG丸ｺﾞｼｯｸM-PRO
1071
    32818
  0
ENDTAB
  0
TABLE
  2
VIEW
  5
746B
330
0
100
AcDbSymbolTable
 70
     0
  0
ENDTAB
  0
TABLE
  2
UCS
  5
746C
330
0
100
AcDbSymbolTable
 70
     0
  0
ENDTAB
  0
TABLE
  2
APPID
  5
746E
330
0
100
AcDbSymbolTable
 70
     6
  0
APPID
  5
7476
330
746E
100
AcDbSymbolTableRecord
100
AcDbRegAppTableRecord
  2
ACAD
 70
     0
  0
APPID
  5
DEA9
330
746E
100
AcDbSymbolTableRecord
100
AcDbRegAppTableRecord
  2
CONTENTBLOCKICON
 70
     0
  0
APPID
  5
DEAA
330
746E
100
AcDbSymbolTableRecord
100
AcDbRegAppTableRecord
  2
CONTENTBLOCKDESCRIPTION
 70
     0
  0
APPID
  5
E71D
330
746E
100
AcDbSymbolTableRecord
100
AcDbRegAppTableRecord
  2
CONTENTTABDATA
 70
     0
  0
APPID
  5
E71E
330
746E
100
AcDbSymbolTableRecord
100
AcDbRegAppTableRecord
  2
CONTENTCURRENTTAB
 70
     0
  0
APPID
  5
F3BA
330
746E
100
AcDbSymbolTableRecord
100
AcDbRegAppTableRecord
  2
DRAWINGVARIABLESXDATA
 70
     0
  0
ENDTAB
  0
TABLE
  2
DIMSTYLE
  5
746F
330
0
100
AcDbSymbolTable
 70
     2
100
AcDbDimStyleTable
 71
     1
340
F71F
  0
DIMSTYLE
105
F71F
102
{ACAD_REACTORS
330
21356
330
2135A
330
2135B
330
2135C
330
21378
330
21379
330
2137A
102
}
330
746F
100
AcDbSymbolTableRecord
100
AcDbDimStyleTableRecord
  2
INABA_S40G
 70
     0
 40
40.0
 41
2.5
 42
0.5
 43
7.0
 44
1.5
 73
     0
 74
     0
 77
     3
 78
     8
140
3.0
141
0.0
143
0.0394
147
1.0
172
     1
173
     1
174
     1
178
     7
271
     1
288
     1
340
F706
341
F770
343
F770
344
F770
  0
DIMSTYLE
105
1C645
330
746F
100
AcDbSymbolTableRecord
100
AcDbDimStyleTableRecord
  2
INABA_S50G
 70
     0
 40
0.0
 41
125.0
 42
25.0
 43
7.0
 44
75.0
 73
     0
 74
     0
 77
     3
 78
     8
140
150.0
141
0.0
143
0.0394
147
25.0
172
     1
173
     1
174
     1
178
     7
271
     1
340
F706
341
F770
343
F770
344
F770
  0
ENDTAB
  0
TABLE
  2
BLOCK_RECORD
  5
7466
330
0
100
AcDbSymbolTable
 70
     9
  0
BLOCK_RECORD
  5
747D
330
7466
100
AcDbSymbolTableRecord
100
AcDbBlockTableRecord
  2
*MODEL_SPACE
340
159B3
  0
BLOCK_RECORD
  5
747A
330
7466
100
AcDbSymbolTableRecord
100
AcDbBlockTableRecord
  2
*PAPER_SPACE
340
159B4
  0
BLOCK_RECORD
  5
F770
330
7466
100
AcDbSymbolTableRecord
100
AcDbBlockTableRecord
  2
_DOTSMALL
340
0
102
{BLKREFS
331
21616
331
21724
331
21725
331
2172D
331
2172E
331
21736
331
21737
331
2173F
331
21740
331
2174A
331
2174B
331
21755
331
21756
331
2175E
331
2175F
102
}
  0
BLOCK_RECORD
  5
1C530
330
7466
100
AcDbSymbolTableRecord
100
AcDbBlockTableRecord
  2
_NONE
340
0
  0
BLOCK_RECORD
  5
21399
330
7466
100
AcDbSymbolTableRecord
100
AcDbBlockTableRecord
  2
*D2
340
0
  0
BLOCK_RECORD
  5
213C9
330
7466
100
AcDbSymbolTableRecord
100
AcDbBlockTableRecord
  2
*D3
340
0
  0
BLOCK_RECORD
  5
213D7
330
7466
100
AcDbSymbolTableRecord
100
AcDbBlockTableRecord
  2
*D4
340
0
  0
BLOCK_RECORD
  5
213E5
330
7466
100
AcDbSymbolTableRecord
100
AcDbBlockTableRecord
  2
*D5
340
0
  0
BLOCK_RECORD
  5
213F1
330
7466
100
AcDbSymbolTableRecord
100
AcDbBlockTableRecord
  2
*D6
340
0
  0
BLOCK_RECORD
  5
213FD
330
7466
100
AcDbSymbolTableRecord
100
AcDbBlockTableRecord
  2
*D7
340
0
  0
BLOCK_RECORD
  5
21409
330
7466
100
AcDbSymbolTableRecord
100
AcDbBlockTableRecord
  2
*D8
340
0
  0
ENDTAB
  0
ENDSEC
  0
SECTION
  2
BLOCKS
  0
BLOCK
  5
7489
330
747D
100
AcDbEntity
  8
0
100
AcDbBlockBegin
  2
*MODEL_SPACE
 70
     0
 10
0.0
 20
0.0
 30
0.0
  3
*MODEL_SPACE
  1

  0
ENDBLK
  5
748A
330
747D
100
AcDbEntity
  8
0
100
AcDbBlockEnd
  0
BLOCK
  5
7487
330
747A
100
AcDbEntity
 67
     1
  8
0
100
AcDbBlockBegin
  2
*PAPER_SPACE
 70
     0
 10
0.0
 20
0.0
 30
0.0
  3
*PAPER_SPACE
  1

  0
ENDBLK
  5
7488
330
747A
100
AcDbEntity
 67
     1
  8
0
100
AcDbBlockEnd
  0
BLOCK
  5
F771
330
F770
100
AcDbEntity
  8
0
 48
50.0
100
AcDbBlockBegin
  2
_DOTSMALL
 70
     0
 10
0.0
 20
0.0
 30
0.0
  3
_DOTSMALL
  1

  0
LWPOLYLINE
  5
F772
330
F770
100
AcDbEntity
  8
0
  6
ByBlock
 62
     0
 48
50.0
100
AcDbPolyline
 90
        2
 70
     1
 43
0.5
 10
-0.0625
 20
0.0
 42
1.0
 10
0.0625
 20
0.0
 42
1.0
  0
ENDBLK
  5
F776
330
F770
100
AcDbEntity
  8
0
 48
50.0
100
AcDbBlockEnd
  0
BLOCK
  5
1C531
330
1C530
100
AcDbEntity
  8
0
 48
50.0
100
AcDbBlockBegin
  2
_NONE
 70
     0
 10
0.0
 20
0.0
 30
0.0
  3
_NONE
  1

  0
CIRCLE
  5
1C532
330
1C530
100
AcDbEntity
  8
0
  6
ByBlock
 62
     0
 48
50.0
100
AcDbCircle
 10
0.0
 20
0.0
 30
0.0
 40
0.25
  0
ENDBLK
  5
1C533
330
1C530
100
AcDbEntity
  8
0
 48
50.0
100
AcDbBlockEnd
  0
BLOCK
  5
213A3
330
21399
100
AcDbEntity
  8
0
 48
50.0
100
AcDbBlockBegin
  2
*D2
 70
     1
 10
0.0
 20
0.0
 30
0.0
  3
*D2
  1

  0
LINE
  5
2175B
330
21399
100
AcDbEntity
  8
寸法
 62
     0
 48
50.0
370
    -2
100
AcDbLine
 10
6279.288663162398
 20
8747.645038133946
 30
0.0
 11
6279.288663162398
 21
9554.196663935966
 31
0.0
  0
LINE
  5
2175C
330
21399
100
AcDbEntity
  8
寸法
 62
     0
 48
50.0
370
    -2
100
AcDbLine
 10
8911.2886631624
 20
8747.645038133946
 30
0.0
 11
8911.2886631624
 21
9554.196663935966
 31
0.0
  0
LINE
  5
2175D
330
21399
100
AcDbEntity
  8
寸法
 62
     0
 48
50.0
370
    -2
100
AcDbLine
 10
6279.288663162398
 20
9494.196663935968
 30
0.0
 11
8911.2886631624
 21
9494.196663935968
 31
0.0
  0
INSERT
  5
2175E
330
21399
100
AcDbEntity
  8
寸法
 62
     0
 48
50.0
370
    -2
100
AcDbBlockReference
  2
_DOTSMALL
 10
6279.288663162398
 20
9494.196663935968
 30
0.0
 41
100.0
 42
100.0
 43
100.0
 50
180.0
  0
INSERT
  5
2175F
330
21399
100
AcDbEntity
  8
寸法
 62
     0
 48
50.0
370
    -2
100
AcDbBlockReference
  2
_DOTSMALL
 10
8911.2886631624
 20
9494.196663935968
 30
0.0
 41
100.0
 42
100.0
 43
100.0
  0
MTEXT
  5
21760
330
21399
100
AcDbEntity
  8
寸法
 62
     7
 48
50.0
100
AcDbMText
 10
7595.288663162398
 20
9594.208474959589
 30
0.0
 40
120.0
 41
0.0
 71
     5
 72
     1
  1
\A1;2632
  7
STYLE1
 73
     1
 44
1.0
1001
ACAD
1000
MTEXTBEGIN
1070
    73
1070
     1
1070
    44
1040
1.0
1070
    74
1070
     0
1000
MTEXTEND
  0
POINT
  5
21761
330
21399
100
AcDbEntity
  8
DEFPOINTS
 62
     0
 48
50.0
100
AcDbPoint
 10
6279.288663162398
 20
8727.645038133946
 30
0.0
  0
POINT
  5
21762
330
21399
100
AcDbEntity
  8
DEFPOINTS
 62
     0
 48
50.0
100
AcDbPoint
 10
8911.2886631624
 20
8727.645038133946
 30
0.0
  0
POINT
  5
21763
330
21399
100
AcDbEntity
  8
DEFPOINTS
 62
     0
 48
50.0
100
AcDbPoint
 10
8911.2886631624
 20
9494.196663935968
 30
0.0
  0
ENDBLK
  5
213A4
330
21399
100
AcDbEntity
  8
0
 48
50.0
100
AcDbBlockEnd
  0
BLOCK
  5
213D5
330
213C9
100
AcDbEntity
  8
0
 48
50.0
100
AcDbBlockBegin
  2
*D3
 70
     1
 10
0.0
 20
0.0
 30
0.0
  3
*D3
  1

  0
LINE
  5
21750
330
213C9
100
AcDbEntity
  8
寸法
 62
     0
 48
50.0
370
    -2
100
AcDbLine
 10
8911.2886631624
 20
8747.645038133946
 30
0.0
 11
8911.2886631624
 21
9554.196663935966
 31
0.0
  0
LINE
  5
21751
330
213C9
100
AcDbEntity
  8
寸法
 62
     0
 48
50.0
370
    -2
100
AcDbLine
 10
8961.288663162399
 20
8827.645038133949
 30
0.0
 11
8961.288663162399
 21
9554.196663935966
 31
0.0
  0
LINE
  5
21752
330
213C9
100
AcDbEntity
  8
寸法
 62
     0
 48
50.0
370
    -2
100
AcDbLine
 10
8911.2886631624
 20
9494.196663935968
 30
0.0
 11
8811.288663162399
 21
9494.196663935968
 31
0.0
  0
LINE
  5
21753
330
213C9
100
AcDbEntity
  8
寸法
 62
     0
 48
50.0
370
    -2
100
AcDbLine
 10
8961.288663162399
 20
9494.196663935968
 30
0.0
 11
9061.288663162399
 21
9494.196663935968
 31
0.0
  0
LINE
  5
21754
330
213C9
100
AcDbEntity
  8
寸法
 62
     0
 48
50.0
370
    -2
100
AcDbLine
 10
8911.2886631624
 20
9494.196663935968
 30
0.0
 11
8961.288663162399
 21
9494.196663935968
 31
0.0
  0
INSERT
  5
21755
330
213C9
100
AcDbEntity
  8
寸法
 62
     0
 48
50.0
370
    -2
100
AcDbBlockReference
  2
_DOTSMALL
 10
8911.2886631624
 20
9494.196663935968
 30
0.0
 41
100.0
 42
100.0
 43
100.0
  0
INSERT
  5
21756
330
213C9
100
AcDbEntity
  8
寸法
 62
     0
 48
50.0
370
    -2
100
AcDbBlockReference
  2
_DOTSMALL
 10
8961.288663162399
 20
9494.196663935968
 30
0.0
 41
100.0
 42
100.0
 43
100.0
 50
180.0
  0
MTEXT
  5
21757
330
213C9
100
AcDbEntity
  8
寸法
 62
     7
 48
50.0
100
AcDbMText
 10
8936.288663162399
 20
9594.196663935967
 30
0.0
 40
120.0
 41
0.0
 71
     5
 72
     1
  1
\A1;a
  7
STYLE1
 73
     1
 44
1.0
1001
ACAD
1000
MTEXTBEGIN
1070
    73
1070
     1
1070
    44
1040
1.0
1070
    74
1070
     0
1000
MTEXTEND
  0
POINT
  5
21758
330
213C9
100
AcDbEntity
  8
DEFPOINTS
 62
     0
 48
50.0
100
AcDbPoint
 10
8911.2886631624
 20
8727.645038133946
 30
0.0
  0
POINT
  5
21759
330
213C9
100
AcDbEntity
  8
DEFPOINTS
 62
     0
 48
50.0
100
AcDbPoint
 10
8961.288663162399
 20
8807.64503813395
 30
0.0
  0
POINT
  5
2175A
330
213C9
100
AcDbEntity
  8
DEFPOINTS
 62
     0
 48
50.0
100
AcDbPoint
 10
8961.288663162399
 20
9494.196663935968
 30
0.0
  0
ENDBLK
  5
213D6
330
213C9
100
AcDbEntity
  8
0
 48
50.0
100
AcDbBlockEnd
  0
BLOCK
  5
213E3
330
213D7
100
AcDbEntity
  8
0
 48
50.0
100
AcDbBlockBegin
  2
*D4
 70
     1
 10
0.0
 20
0.0
 30
0.0
  3
*D4
  1

  0
LINE
  5
21745
330
213D7
100
AcDbEntity
  8
寸法
 62
     0
 48
50.0
370
    -2
100
AcDbLine
 10
6229.288663162399
 20
8827.645038133946
 30
0.0
 11
6229.288663162399
 21
9554.196663935966
 31
0.0
  0
LINE
  5
21746
330
213D7
100
AcDbEntity
  8
寸法
 62
     0
 48
50.0
370
    -2
100
AcDbLine
 10
6279.288663162398
 20
8747.645038133946
 30
0.0
 11
6279.288663162398
 21
9554.196663935966
 31
0.0
  0
LINE
  5
21747
330
213D7
100
AcDbEntity
  8
寸法
 62
     0
 48
50.0
370
    -2
100
AcDbLine
 10
6229.288663162399
 20
9494.196663935968
 30
0.0
 11
6129.288663162398
 21
9494.196663935968
 31
0.0
  0
LINE
  5
21748
330
213D7
100
AcDbEntity
  8
寸法
 62
     0
 48
50.0
370
    -2
100
AcDbLine
 10
6279.288663162398
 20
9494.196663935968
 30
0.0
 11
6379.288663162398
 21
9494.196663935968
 31
0.0
  0
LINE
  5
21749
330
213D7
100
AcDbEntity
  8
寸法
 62
     0
 48
50.0
370
    -2
100
AcDbLine
 10
6229.288663162399
 20
9494.196663935968
 30
0.0
 11
6279.288663162398
 21
9494.196663935968
 31
0.0
  0
INSERT
  5
2174A
330
213D7
100
AcDbEntity
  8
寸法
 62
     0
 48
50.0
370
    -2
100
AcDbBlockReference
  2
_DOTSMALL
 10
6229.288663162399
 20
9494.196663935968
 30
0.0
 41
100.0
 42
100.0
 43
100.0
  0
INSERT
  5
2174B
330
213D7
100
AcDbEntity
  8
寸法
 62
     0
 48
50.0
370
    -2
100
AcDbBlockReference
  2
_DOTSMALL
 10
6279.288663162398
 20
9494.196663935968
 30
0.0
 41
100.0
 42
100.0
 43
100.0
 50
180.0
  0
MTEXT
  5
2174C
330
213D7
100
AcDbEntity
  8
寸法
 62
     7
 48
50.0
100
AcDbMText
 10
6254.288663162398
 20
9594.196663935967
 30
0.0
 40
120.0
 41
0.0
 71
     5
 72
     1
  1
\A1;a
  7
STYLE1
 73
     1
 44
1.0
1001
ACAD
1000
MTEXTBEGIN
1070
    73
1070
     1
1070
    44
1040
1.0
1070
    74
1070
     0
1000
MTEXTEND
  0
POINT
  5
2174D
330
213D7
100
AcDbEntity
  8
DEFPOINTS
 62
     0
 48
50.0
100
AcDbPoint
 10
6229.288663162399
 20
8807.645038133946
 30
0.0
  0
POINT
  5
2174E
330
213D7
100
AcDbEntity
  8
DEFPOINTS
 62
     0
 48
50.0
100
AcDbPoint
 10
6279.288663162398
 20
8727.645038133946
 30
0.0
  0
POINT
  5
2174F
330
213D7
100
AcDbEntity
  8
DEFPOINTS
 62
     0
 48
50.0
100
AcDbPoint
 10
6279.288663162398
 20
9494.196663935968
 30
0.0
  0
ENDBLK
  5
213E4
330
213D7
100
AcDbEntity
  8
0
 48
50.0
100
AcDbBlockEnd
  0
BLOCK
  5
213EF
330
213E5
100
AcDbEntity
  8
0
 48
50.0
100
AcDbBlockBegin
  2
*D5
 70
     1
 10
0.0
 20
0.0
 30
0.0
  3
*D5
  1

  0
LINE
  5
2173C
330
213E5
100
AcDbEntity
  8
寸法
 62
     0
 48
50.0
370
    -2
100
AcDbLine
 10
6279.288663162398
 20
8747.645038133946
 30
0.0
 11
6279.288663162398
 21
9554.196663935966
 31
0.0
  0
LINE
  5
2173D
330
213E5
100
AcDbEntity
  8
寸法
 62
     0
 48
50.0
370
    -2
100
AcDbLine
 10
8911.2886631624
 20
8747.645038133946
 30
0.0
 11
8911.2886631624
 21
9554.196663935966
 31
0.0
  0
LINE
  5
2173E
330
213E5
100
AcDbEntity
  8
寸法
 62
     0
 48
50.0
370
    -2
100
AcDbLine
 10
6279.288663162398
 20
9494.196663935968
 30
0.0
 11
8911.2886631624
 21
9494.196663935968
 31
0.0
  0
INSERT
  5
2173F
330
213E5
100
AcDbEntity
  8
寸法
 62
     0
 48
50.0
370
    -2
100
AcDbBlockReference
  2
_DOTSMALL
 10
6279.288663162398
 20
9494.196663935968
 30
0.0
 41
100.0
 42
100.0
 43
100.0
 50
180.0
  0
INSERT
  5
21740
330
213E5
100
AcDbEntity
  8
寸法
 62
     0
 48
50.0
370
    -2
100
AcDbBlockReference
  2
_DOTSMALL
 10
8911.2886631624
 20
9494.196663935968
 30
0.0
 41
100.0
 42
100.0
 43
100.0
  0
MTEXT
  5
21741
330
213E5
100
AcDbEntity
  8
寸法
 62
     7
 48
50.0
100
AcDbMText
 10
7595.288663162398
 20
9594.208474959589
 30
0.0
 40
120.0
 41
0.0
 71
     5
 72
     1
  1
\A1;2632
  7
STYLE1
 73
     1
 44
1.0
1001
ACAD
1000
MTEXTBEGIN
1070
    73
1070
     1
1070
    44
1040
1.0
1070
    74
1070
     0
1000
MTEXTEND
  0
POINT
  5
21742
330
213E5
100
AcDbEntity
  8
DEFPOINTS
 62
     0
 48
50.0
100
AcDbPoint
 10
6279.288663162398
 20
8727.645038133946
 30
0.0
  0
POINT
  5
21743
330
213E5
100
AcDbEntity
  8
DEFPOINTS
 62
     0
 48
50.0
100
AcDbPoint
 10
8911.2886631624
 20
8727.645038133946
 30
0.0
  0
POINT
  5
21744
330
213E5
100
AcDbEntity
  8
DEFPOINTS
 62
     0
 48
50.0
100
AcDbPoint
 10
8911.2886631624
 20
9494.196663935968
 30
0.0
  0
ENDBLK
  5
213F0
330
213E5
100
AcDbEntity
  8
0
 48
50.0
100
AcDbBlockEnd
  0
BLOCK
  5
213FB
330
213F1
100
AcDbEntity
  8
0
 48
50.0
100
AcDbBlockBegin
  2
*D6
 70
     1
 10
0.0
 20
0.0
 30
0.0
  3
*D6
  1

  0
LINE
  5
21733
330
213F1
100
AcDbEntity
  8
寸法
 62
     0
 48
50.0
370
    -2
100
AcDbLine
 10
6209.288663162399
 20
8807.645038133946
 30
0.0
 11
5778.576779713148
 21
8807.645038133946
 31
0.0
  0
LINE
  5
21734
330
213F1
100
AcDbEntity
  8
寸法
 62
     0
 48
50.0
370
    -2
100
AcDbLine
 10
6259.288663162399
 20
8727.645038133946
 30
0.0
 11
5778.576779713148
 21
8727.645038133946
 31
0.0
  0
LINE
  5
21735
330
213F1
100
AcDbEntity
  8
寸法
 62
     0
 48
50.0
370
    -2
100
AcDbLine
 10
5838.576779713148
 20
8807.645038133946
 30
0.0
 11
5838.576779713148
 21
8727.645038133946
 31
0.0
  0
INSERT
  5
21736
330
213F1
100
AcDbEntity
  8
寸法
 62
     0
 48
50.0
370
    -2
100
AcDbBlockReference
  2
_DOTSMALL
 10
5838.576779713148
 20
8807.645038133946
 30
0.0
 41
100.0
 42
100.0
 43
100.0
 50
90.0
  0
INSERT
  5
21737
330
213F1
100
AcDbEntity
  8
寸法
 62
     0
 48
50.0
370
    -2
100
AcDbBlockReference
  2
_DOTSMALL
 10
5838.576779713148
 20
8727.645038133946
 30
0.0
 41
100.0
 42
100.0
 43
100.0
 50
270.0
  0
MTEXT
  5
21738
330
213F1
100
AcDbEntity
  8
寸法
 62
     7
 48
50.0
100
AcDbMText
 10
5738.576779713148
 20
8767.645038133947
 30
0.0
 40
120.0
 41
0.0
 71
     5
 72
     1
  1
\A1;c
  7
STYLE1
 11
0.0000000000000001
 21
1.0
 31
0.0
 73
     1
 44
1.0
1001
ACAD
1000
MTEXTBEGIN
1070
    73
1070
     1
1070
    44
1040
1.0
1070
    74
1070
     0
1000
MTEXTEND
  0
POINT
  5
21739
330
213F1
100
AcDbEntity
  8
DEFPOINTS
 62
     0
 48
50.0
100
AcDbPoint
 10
6229.288663162399
 20
8807.645038133946
 30
0.0
  0
POINT
  5
2173A
330
213F1
100
AcDbEntity
  8
DEFPOINTS
 62
     0
 48
50.0
100
AcDbPoint
 10
6279.288663162398
 20
8727.645038133946
 30
0.0
  0
POINT
  5
2173B
330
213F1
100
AcDbEntity
  8
DEFPOINTS
 62
     0
 48
50.0
100
AcDbPoint
 10
5838.576779713148
 20
8727.645038133946
 30
0.0
  0
ENDBLK
  5
213FC
330
213F1
100
AcDbEntity
  8
0
 48
50.0
100
AcDbBlockEnd
  0
BLOCK
  5
21407
330
213FD
100
AcDbEntity
  8
0
 48
50.0
100
AcDbBlockBegin
  2
*D7
 70
     1
 10
0.0
 20
0.0
 30
0.0
  3
*D7
  1

  0
LINE
  5
2172A
330
213FD
100
AcDbEntity
  8
寸法
 62
     0
 48
50.0
370
    -2
100
AcDbLine
 10
6259.288663162399
 20
8727.645038133946
 30
0.0
 11
5778.576779713151
 21
8727.645038133946
 31
0.0
  0
LINE
  5
2172B
330
213FD
100
AcDbEntity
  8
寸法
 62
     0
 48
50.0
370
    -2
100
AcDbLine
 10
6239.288663162399
 20
6095.645038133945
 30
0.0
 11
5778.576779713151
 21
6095.645038133946
 31
0.0
  0
LINE
  5
2172C
330
213FD
100
AcDbEntity
  8
寸法
 62
     0
 48
50.0
370
    -2
100
AcDbLine
 10
5838.576779713152
 20
8727.645038133946
 30
0.0
 11
5838.576779713151
 21
6095.645038133946
 31
0.0
  0
INSERT
  5
2172D
330
213FD
100
AcDbEntity
  8
寸法
 62
     0
 48
50.0
370
    -2
100
AcDbBlockReference
  2
_DOTSMALL
 10
5838.576779713152
 20
8727.645038133946
 30
0.0
 41
100.0
 42
100.0
 43
100.0
 50
90.0
  0
INSERT
  5
2172E
330
213FD
100
AcDbEntity
  8
寸法
 62
     0
 48
50.0
370
    -2
100
AcDbBlockReference
  2
_DOTSMALL
 10
5838.576779713151
 20
6095.645038133946
 30
0.0
 41
100.0
 42
100.0
 43
100.0
 50
270.0
  0
MTEXT
  5
2172F
330
213FD
100
AcDbEntity
  8
寸法
 62
     7
 48
50.0
100
AcDbMText
 10
5738.564968689528
 20
7411.645038133946
 30
0.0
 40
120.0
 41
0.0
 71
     5
 72
     1
  1
\A1;2632
  7
STYLE1
 11
0.0000000000000001
 21
1.0
 31
0.0
 73
     1
 44
1.0
1001
ACAD
1000
MTEXTBEGIN
1070
    73
1070
     1
1070
    44
1040
1.0
1070
    74
1070
     0
1000
MTEXTEND
  0
POINT
  5
21730
330
213FD
100
AcDbEntity
  8
DEFPOINTS
 62
     0
 48
50.0
100
AcDbPoint
 10
6279.288663162398
 20
8727.645038133946
 30
0.0
  0
POINT
  5
21731
330
213FD
100
AcDbEntity
  8
DEFPOINTS
 62
     0
 48
50.0
100
AcDbPoint
 10
6259.2886631624
 20
6095.645038133945
 30
0.0
  0
POINT
  5
21732
330
213FD
100
AcDbEntity
  8
DEFPOINTS
 62
     0
 48
50.0
100
AcDbPoint
 10
5838.576779713151
 20
6095.645038133946
 30
0.0
  0
ENDBLK
  5
21408
330
213FD
100
AcDbEntity
  8
0
 48
50.0
100
AcDbBlockEnd
  0
BLOCK
  5
21415
330
21409
100
AcDbEntity
  8
0
 48
50.0
100
AcDbBlockBegin
  2
*D8
 70
     1
 10
0.0
 20
0.0
 30
0.0
  3
*D8
  1

  0
LINE
  5
2171F
330
21409
100
AcDbEntity
  8
寸法
 62
     0
 48
50.0
370
    -2
100
AcDbLine
 10
6259.2886631624
 20
6095.645038133945
 30
0.0
 11
5778.576779713149
 21
6095.645038133946
 31
0.0
  0
LINE
  5
21720
330
21409
100
AcDbEntity
  8
寸法
 62
     0
 48
50.0
370
    -2
100
AcDbLine
 10
6209.2886631624
 20
6035.645038133946
 30
0.0
 11
5778.576779713149
 21
6035.645038133946
 31
0.0
  0
LINE
  5
21721
330
21409
100
AcDbEntity
  8
寸法
 62
     0
 48
50.0
370
    -2
100
AcDbLine
 10
5838.576779713149
 20
6095.645038133946
 30
0.0
 11
5838.57677971315
 21
6195.645038133946
 31
0.0
  0
LINE
  5
21722
330
21409
100
AcDbEntity
  8
寸法
 62
     0
 48
50.0
370
    -2
100
AcDbLine
 10
5838.576779713149
 20
6035.645038133946
 30
0.0
 11
5838.576779713149
 21
5935.645038133946
 31
0.0
  0
LINE
  5
21723
330
21409
100
AcDbEntity
  8
寸法
 62
     0
 48
50.0
370
    -2
100
AcDbLine
 10
5838.576779713149
 20
6095.645038133946
 30
0.0
 11
5838.576779713149
 21
6035.645038133946
 31
0.0
  0
INSERT
  5
21724
330
21409
100
AcDbEntity
  8
寸法
 62
     0
 48
50.0
370
    -2
100
AcDbBlockReference
  2
_DOTSMALL
 10
5838.576779713149
 20
6095.645038133946
 30
0.0
 41
100.0
 42
100.0
 43
100.0
 50
270.0
  0
INSERT
  5
21725
330
21409
100
AcDbEntity
  8
寸法
 62
     0
 48
50.0
370
    -2
100
AcDbBlockReference
  2
_DOTSMALL
 10
5838.576779713149
 20
6035.645038133946
 30
0.0
 41
100.0
 42
100.0
 43
100.0
 50
90.0
  0
MTEXT
  5
21726
330
21409
100
AcDbEntity
  8
寸法
 62
     7
 48
50.0
100
AcDbMText
 10
5738.576779713149
 20
6065.645038133947
 30
0.0
 40
120.0
 41
0.0
 71
     5
 72
     1
  1
\A1;b
  7
STYLE1
 11
0.0000000000000001
 21
1.0
 31
0.0
 73
     1
 44
1.0
1001
ACAD
1000
MTEXTBEGIN
1070
    73
1070
     1
1070
    44
1040
1.0
1070
    74
1070
     0
1000
MTEXTEND
  0
POINT
  5
21727
330
21409
100
AcDbEntity
  8
DEFPOINTS
 62
     0
 48
50.0
100
AcDbPoint
 10
6279.2886631624
 20
6095.645038133945
 30
0.0
  0
POINT
  5
21728
330
21409
100
AcDbEntity
  8
DEFPOINTS
 62
     0
 48
50.0
100
AcDbPoint
 10
6229.2886631624
 20
6035.645038133946
 30
0.0
  0
POINT
  5
21729
330
21409
100
AcDbEntity
  8
DEFPOINTS
 62
     0
 48
50.0
100
AcDbPoint
 10
5838.576779713149
 20
6035.645038133946
 30
0.0
  0
ENDBLK
  5
21416
330
21409
100
AcDbEntity
  8
0
 48
50.0
100
AcDbBlockEnd
  0
ENDSEC
  0
SECTION
  2
ENTITIES
  0
LINE
  5
10B57
330
747D
100
AcDbEntity
  8
補助
  6
PHANTOM
 62
   230
 48
50.0
100
AcDbLine
 10
139.9999999999995
 20
11409.6
 30
0.0
 11
16307.2
 21
11409.6
 31
0.0
  0
LINE
  5
10B59
330
747D
100
AcDbEntity
  8
仕様書枠
  6
Continuous
 48
50.0
100
AcDbLine
 10
13107.2
 20
1200.0
 30
0.0
 11
13107.2
 21
-0.0000000000000729
 31
0.0
  0
LINE
  5
10B5C
330
747D
100
AcDbEntity
  8
仕様書枠
 48
50.0
100
AcDbLine
 10
16307.2
 20
1200.0
 30
0.0
 11
16307.2
 21
-0.0000000000000909
 31
0.0
  0
LINE
  5
10B5D
330
747D
100
AcDbEntity
  8
仕様書枠
 48
50.0
100
AcDbLine
 10
140.0
 20
0.0
 30
0.0
 11
16307.2
 21
-0.0000000000000909
 31
0.0
  0
LINE
  5
10B5E
330
747D
100
AcDbEntity
  8
補助
  6
PHANTOM
 62
   230
 48
50.0
100
AcDbLine
 10
16307.2
 20
11409.6
 30
0.0
 11
16307.2
 21
1200.0
 31
0.0
  0
LINE
  5
10B6C
330
747D
100
AcDbEntity
  8
仕様書枠
 48
50.0
100
AcDbLine
 10
13107.2
 20
1200.0
 30
0.0
 11
16307.2
 21
1200.0
 31
0.0
  0
LINE
  5
10B6D
330
747D
100
AcDbEntity
  8
補助
  6
PHANTOM
 62
   230
 48
50.0
100
AcDbLine
 10
13107.2
 20
11409.6
 30
0.0
 11
13107.2
 21
4800.0
 31
0.0
  0
LINE
  5
10B6F
330
747D
100
AcDbEntity
  8
補助
  6
PHANTOM
 62
   230
 48
50.0
100
AcDbLine
 10
13107.2
 20
4800.0
 30
0.0
 11
16307.2
 21
4800.0
 31
0.0
  0
LINE
  5
10B72
330
747D
100
AcDbEntity
  8
文字
 62
     7
 48
50.0
100
AcDbLine
 10
13187.2
 20
400.0
 30
0.0
 11
16227.2
 21
400.0
 31
0.0
  0
TEXT
  5
10B73
330
747D
100
AcDbEntity
  8
文字
 62
     7
 48
50.0
100
AcDbText
 10
13162.9790565769
 20
895.0906074299405
 30
0.0
 40
200.0
  1
基 礎 図
  7
STYLE2
100
AcDbText
  0
TEXT
  5
10B74
330
747D
100
AcDbEntity
  8
文字
 62
     7
 48
50.0
100
AcDbText
 10
13201.43669998441
 20
477.2740661031255
 30
0.0
 40
160.0
  1
機種名
  7
STYLE2
100
AcDbText
  0
TEXT
  5
10B79
330
747D
100
AcDbEntity
  8
文字
 62
     7
 48
50.0
100
AcDbText
 10
14524.131837222
 20
1031.557706291228
 30
0.0
 40
100.0
  1
NO.03      <縮尺> S=1/40
  7
STYLE2
100
AcDbText
  0
LINE
  5
10B7B
330
747D
100
AcDbEntity
  8
仕様書枠
 48
50.0
100
AcDbLine
 10
13107.2
 20
800.0
 30
0.0
 11
14251.2
 21
800.0
 31
0.0
  0
LINE
  5
10B88
330
747D
100
AcDbEntity
  8
仕様書枠
  6
Continuous
 48
50.0
100
AcDbLine
 10
14251.2
 20
1200.0
 30
0.0
 11
14251.2
 21
800.0
 31
0.0
  0
TEXT
  5
14DEF
330
747D
100
AcDbEntity
  8
文字
 62
     7
 48
50.0
100
AcDbText
 10
14641.2525855784
 20
871.1744590657925
 30
0.0
 40
100.0
  1
～一般型・多雪地型～
  7
STYLE2
100
AcDbText
  0
TEXT
  5
15A76
330
747D
100
AcDbEntity
  8
文字
 62
     7
 48
50.0
100
AcDbText
 10
14483.56764462811
 20
483.8967129911411
 30
0.0
 40
160.0
  1
ＮＸＮ－７０ＨＧ
  7
STYLE2
100
AcDbText
  0
TEXT
  5
1D002
330
747D
100
AcDbEntity
  8
文字
 62
     7
 48
50.0
100
AcDbText
 10
13188.16259899338
 20
246.7109242801889
 30
0.0
 40
80.0
  1
※寒冷地等は地域の実情に合わせた基礎にして下さい。
  7
STYLE2
100
AcDbText
  0
LINE
  5
2131B
330
747D
100
AcDbEntity
  8
部品1
 48
50.0
100
AcDbLine
 10
6282.288663162399
 20
6095.645038133944
 30
0.0
 11
8908.2886631624
 21
6095.645038133945
 31
0.0
  0
DIMENSION
  5
21356
330
747D
100
AcDbEntity
  8
寸法
 48
50.0
100
AcDbDimension
  2
*D2
 10
8911.2886631624
 20
9494.196663935968
 30
0.0
 11
7595.288663162398
 21
9494.196663935968
 31
0.0
 70
   160
 71
     5
 42
2632.0
  3
INABA_S40G
100
AcDbAlignedDimension
 13
6279.288663162398
 23
8727.645038133946
 33
0.0
 14
8911.2886631624
 24
8727.645038133946
 34
0.0
100
AcDbRotatedDimension
1001
ACAD
1000
DSTYLE
1002
{
1070
   174
1070
     0
1070
   272
1070
     1
1070
   288
1070
     0
1070
   341
1005
0
1002
}
  0
DIMENSION
  5
2135A
330
747D
100
AcDbEntity
  8
寸法
 48
50.0
100
AcDbDimension
  2
*D3
 10
8961.288663162399
 20
9494.196663935968
 30
0.0
 11
8936.288663162399
 21
9494.196663935968
 31
0.0
 70
   160
  1
a
 71
     5
 42
50.0
  3
INABA_S40G
100
AcDbAlignedDimension
 13
8911.2886631624
 23
8727.645038133946
 33
0.0
 14
8961.288663162399
 24
8807.64503813395
 34
0.0
100
AcDbRotatedDimension
1001
ACAD
1000
DSTYLE
1002
{
1070
   174
1070
     0
1070
   272
1070
     1
1070
   288
1070
     0
1070
   341
1005
0
1002
}
  0
DIMENSION
  5
2135B
330
747D
100
AcDbEntity
  8
寸法
 48
50.0
100
AcDbDimension
  2
*D4
 10
6279.288663162398
 20
9494.196663935968
 30
0.0
 11
6254.288663162398
 21
9494.196663935968
 31
0.0
 70
   160
  1
a
 71
     5
 42
50.0
  3
INABA_S40G
100
AcDbAlignedDimension
 13
6229.288663162399
 23
8807.645038133946
 33
0.0
 14
6279.288663162398
 24
8727.645038133946
 34
0.0
100
AcDbRotatedDimension
1001
ACAD
1000
DSTYLE
1002
{
1070
   174
1070
     0
1070
   272
1070
     1
1070
   288
1070
     0
1070
   341
1005
0
1002
}
  0
DIMENSION
  5
2135C
330
747D
100
AcDbEntity
  8
寸法
 48
50.0
100
AcDbDimension
  2
*D5
 10
8911.2886631624
 20
9494.196663935968
 30
0.0
 11
7595.288663162398
 21
9494.196663935968
 31
0.0
 70
   160
 71
     5
 42
2632.0
  3
INABA_S40G
100
AcDbAlignedDimension
 13
6279.288663162398
 23
8727.645038133946
 33
0.0
 14
8911.2886631624
 24
8727.645038133946
 34
0.0
100
AcDbRotatedDimension
1001
ACAD
1000
DSTYLE
1002
{
1070
   174
1070
     0
1070
   272
1070
     1
1070
   288
1070
     0
1070
   341
1005
0
1002
}
  0
TEXT
  5
2135E
330
747D
100
AcDbEntity
  8
部品1
 48
50.0
100
AcDbText
 10
7474.423874054213
 20
5893.178425940377
 30
0.0
 40
120.0
  1
扉面
  7
STYLE1
 72
     1
 11
7602.423874054213
 21
5877.178425940377
 31
0.0
100
AcDbText
 73
     1
  0
LINE
  5
2135F
330
747D
100
AcDbEntity
  8
部品1
 48
50.0
100
AcDbLine
 10
8911.2886631624
 20
6098.645038133946
 30
0.0
 11
8911.2886631624
 21
8724.645038133921
 31
0.0
  0
LINE
  5
21369
330
747D
100
AcDbEntity
  8
想像線
 48
10.0
100
AcDbLine
 10
8961.288663162392
 20
8804.645038133944
 30
0.0
 11
8961.288663162404
 21
6035.645038133946
 31
0.0
  0
LINE
  5
2136F
330
747D
100
AcDbEntity
  8
部品1
 48
50.0
100
AcDbLine
 10
6279.288663162398
 20
6098.645038133944
 30
0.0
 11
6279.288663162398
 21
8727.645038133946
 31
0.0
  0
LINE
  5
21371
330
747D
100
AcDbEntity
  8
部品1
 48
50.0
100
AcDbLine
 10
8908.2886631624
 20
8727.645038133921
 30
0.0
 11
6279.288663162398
 21
8727.645038133946
 31
0.0
  0
LINE
  5
21377
330
747D
100
AcDbEntity
  8
想像線
 48
10.0
100
AcDbLine
 10
6229.2886631624
 20
6038.645038133946
 30
0.0
 11
6229.288663162397
 21
8804.645038133946
 31
0.0
  0
DIMENSION
  5
21378
330
747D
100
AcDbEntity
  8
寸法
 48
50.0
100
AcDbDimension
  2
*D6
 10
5838.576779713148
 20
8727.645038133946
 30
0.0
 11
5838.576779713148
 21
8767.645038133947
 31
0.0
 70
   160
  1
c
 71
     5
 42
80.0
  3
INABA_S40G
100
AcDbAlignedDimension
 13
6229.288663162399
 23
8807.645038133946
 33
0.0
 14
6279.288663162398
 24
8727.645038133946
 34
0.0
 50
90.0
100
AcDbRotatedDimension
1001
ACAD
1000
DSTYLE
1002
{
1070
   174
1070
     0
1070
   272
1070
     1
1070
   288
1070
     0
1070
   341
1005
0
1002
}
  0
DIMENSION
  5
21379
330
747D
100
AcDbEntity
  8
寸法
 48
50.0
100
AcDbDimension
  2
*D7
 10
5838.576779713151
 20
6095.645038133946
 30
0.0
 11
5838.57677971315
 21
7411.645038133946
 31
0.0
 70
   160
 71
     5
 42
2632.0
  3
INABA_S40G
100
AcDbAlignedDimension
 13
6279.288663162398
 23
8727.645038133946
 33
0.0
 14
6259.2886631624
 24
6095.645038133945
 34
0.0
 50
90.0
100
AcDbRotatedDimension
1001
ACAD
1000
DSTYLE
1002
{
1070
   174
1070
     0
1070
   272
1070
     1
1070
   288
1070
     0
1070
   341
1005
0
1002
}
  0
DIMENSION
  5
2137A
330
747D
100
AcDbEntity
  8
寸法
 48
50.0
100
AcDbDimension
  2
*D8
 10
5838.576779713149
 20
6035.645038133946
 30
0.0
 11
5838.576779713148
 21
6065.645038133947
 31
0.0
 70
   160
  1
b
 71
     5
 42
60.0
  3
INABA_S40G
100
AcDbAlignedDimension
 13
6279.2886631624
 23
6095.645038133945
 33
0.0
 14
6229.2886631624
 24
6035.645038133946
 34
0.0
 50
90.0
100
AcDbRotatedDimension
1001
ACAD
1000
DSTYLE
1002
{
1070
   174
1070
     0
1070
   272
1070
     1
1070
   288
1070
     0
1070
   341
1005
0
1002
}
  0
LINE
  5
2137B
330
747D
100
AcDbEntity
  8
想像線
 48
10.0
100
AcDbLine
 10
6232.288663162397
 20
8807.645038133946
 30
0.0
 11
8958.288663162392
 21
8807.645038133944
 31
0.0
  0
LINE
  5
2137C
330
747D
100
AcDbEntity
  8
想像線
 48
10.0
100
AcDbLine
 10
8961.288663162404
 20
6035.645038133942
 30
0.0
 11
6232.288663162401
 21
6035.645038133946
 31
0.0
  0
LEADER
  5
2137D
330
747D
100
AcDbEntity
  8
寸法
 48
50.0
100
AcDbLeader
  3
INABA_S50G
 71
     0
 73
     0
 74
     0
 75
     1
 40
120.0
 41
672.0
 76
     3
 10
8810.8822677817
 20
6035.645038133946
 30
0.0
 10
8961.254735225615
 20
5655.627646174155
 30
0.0
 10
9086.254735225615
 20
5655.627646174155
 30
0.0
340
2137E
1001
ACAD
1000
DSTYLE
1002
{
1070
   341
1005
1C530
1070
    40
1040
1.0
1070
   343
1005
1C530
1070
   344
1005
1C530
1002
}
  0
MTEXT
  5
2137E
102
{ACAD_REACTORS
330
2137D
102
}
330
747D
100
AcDbEntity
  8
部品1
 62
     7
 48
50.0
100
AcDbMText
 10
9783.254735225616
 20
5740.627646174154
 30
0.0
 40
120.0
 41
0.0
 71
     6
 72
     1
  1
\A1;屋根の外寸
  7
STYLE1
 73
     1
 44
1.0
1001
ACAD
1000
MTEXTBEGIN
1070
    73
1070
     1
1070
    44
1040
1.0
1070
    74
1070
     0
1000
MTEXTEND
  0
TEXT
  5
2137F
330
747D
100
AcDbEntity
  8
部品1
 48
50.0
100
AcDbText
 10
8917.084645048847
 20
5528.959745974689
 30
0.0
 40
80.0
  1
※a,b,cは屋根の出幅です。
  7
STYLE1
100
AcDbText
  0
TEXT
  5
21380
330
747D
100
AcDbEntity
  8
部品1
 48
50.0
100
AcDbText
 10
9030.784885774796
 20
5395.403219888745
 30
0.0
 40
80.0
  1
(a=50,b=60,c=80)
  7
STYLE1
100
AcDbText
  0
LINE
  5
215C7
330
747D
100
AcDbEntity
  8
寸法
 48
50.0
100
AcDbLine
 10
6427.718947017321
 20
3407.706589613824
 30
0.0
 11
9483.312363566755
 21
3407.706589613824
 31
0.0
  0
TEXT
  5
215C8
330
747D
100
AcDbEntity
  8
部品1
 62
     7
100
AcDbText
 10
6447.718947017321
 20
3449.665352500422
 30
0.0
 40
120.0
  1
組立後、土台上面まで土間コンクリート打
  7
丸ゴシック
100
AcDbText
  0
LWPOLYLINE
  5
215C9
330
747D
100
AcDbEntity
  8
点線
 62
     7
 48
50.0
100
AcDbPolyline
 90
        4
 70
     1
 43
0.0
 10
6515.512214225449
 20
3316.26127051287
 10
9445.604670820936
 20
3316.26127051287
 10
9445.604670820936
 20
2777.37559219768
 10
6515.512214225449
 20
2777.37559219768
  0
TEXT
  5
215CA
330
747D
100
AcDbEntity
  8
文字
 62
     7
 48
50.0
100
AcDbText
 10
6550.705835712071
 20
2835.678039304504
 30
0.0
 40
120.0
  1
工事が必要になります。
  7
丸ゴシック
100
AcDbText
  0
TEXT
  5
215CB
330
747D
100
AcDbEntity
  8
文字
 62
     7
 48
50.0
100
AcDbText
 10
6550.705835712071
 20
2994.028554768421
 30
0.0
 40
120.0
  1
付属のアンカープレートによる転倒防止
  7
丸ゴシック
100
AcDbText
  0
TEXT
  5
215CC
330
747D
100
AcDbEntity
  8
文字
 62
     7
 48
50.0
100
AcDbText
 10
6550.705835712071
 20
3152.379070232339
 30
0.0
 40
120.0
  1
土台上面まで土間打ちをしない場合は、
  7
丸ゴシック
100
AcDbText
  0
LINE
  5
215CD
330
747D
100
AcDbEntity
  8
細線
 48
25.0
100
AcDbLine
 10
5835.802787233734
 20
2188.530086985439
 30
0.0
 11
5587.802787233708
 21
2436.53008698545
 31
0.0
  0
LINE
  5
215CE
330
747D
100
AcDbEntity
  8
細線
 48
25.0
100
AcDbLine
 10
5790.901506628399
 20
2188.530086985439
 30
0.0
 11
5542.901506628386
 21
2436.53008698545
 31
0.0
  0
LINE
  5
215CF
330
747D
100
AcDbEntity
  8
細線
 48
25.0
100
AcDbLine
 10
5746.00022602305
 20
2188.530086985439
 30
0.0
 11
5498.000226023044
 21
2436.53008698545
 31
0.0
  0
LINE
  5
215D0
330
747D
100
AcDbEntity
  8
部品1
 62
     7
 48
50.0
100
AcDbLine
 10
5491.457634753176
 20
2436.530086985442
 30
0.0
 11
7559.701445925593
 21
2436.530086985442
 31
0.0
  0
LINE
  5
215D1
330
747D
100
AcDbEntity
  8
部品1
 62
     7
 48
50.0
100
AcDbLine
 10
6074.308378938524
 20
1914.573211202327
 30
0.0
 11
7586.416056105536
 21
1914.573211202327
 31
0.0
  0
LINE
  5
215D2
330
747D
100
AcDbEntity
  8
部品1
 62
     7
 48
50.0
100
AcDbLine
 10
6173.719633908065
 20
1674.573211202327
 30
0.0
 11
7598.463665323045
 21
1674.573211202327
 31
0.0
  0
LINE
  5
215D3
330
747D
100
AcDbEntity
  8
細線
 48
25.0
100
AcDbLine
 10
5250.257634753185
 20
1962.195179347658
 30
0.0
 11
5476.592542390966
 21
2188.530086985438
 31
0.0
  0
LINE
  5
215D4
330
747D
100
AcDbEntity
  8
細線
 48
25.0
100
AcDbLine
 10
5250.257634753185
 20
2007.096459953008
 30
0.0
 11
5431.691261785616
 21
2188.530086985438
 31
0.0
  0
LINE
  5
215D5
330
747D
100
AcDbEntity
  8
細線
 48
25.0
100
AcDbLine
 10
5250.257634753185
 20
1647.886215110244
 30
0.0
 11
5790.901506628383
 21
2188.530086985439
 31
0.0
  0
LINE
  5
215D6
330
747D
100
AcDbEntity
  8
細線
 48
25.0
100
AcDbLine
 10
5250.257634753187
 20
1692.787495715589
 30
0.0
 11
5746.000226023036
 21
2188.530086985439
 31
0.0
  0
LINE
  5
215D7
330
747D
100
AcDbEntity
  8
部品1
 62
     7
 48
50.0
100
AcDbLine
 10
5250.257634753187
 20
1448.069870279039
 30
0.0
 11
5250.257634753187
 21
2188.530086985439
 31
0.0
  0
TEXT
  5
215D8
330
747D
100
AcDbEntity
  8
寸法
 62
     7
 48
50.0
100
AcDbText
 10
4301.470851096861
 20
1757.855034251209
 30
0.0
 40
120.0
  1
▽G.L
  7
丸ゴシック
100
AcDbText
  0
LINE
  5
215D9
330
747D
100
AcDbEntity
  8
Ｇ．Ｌ
 48
50.0
100
AcDbLine
 10
5250.257634753187
 20
1738.398780293874
 30
0.0
 11
4290.257634753187
 21
1738.398780293874
 31
0.0
  0
LINE
  5
215DA
330
747D
100
AcDbEntity
  8
部品1
 62
     7
 48
50.0
100
AcDbLine
 10
5607.805038015235
 20
1448.069870279037
 30
0.0
 11
5130.896686885724
 21
1448.069870279039
 31
0.0
  0
LINE
  5
215DB
330
747D
100
AcDbEntity
  8
部品1
 62
     7
 48
50.0
100
AcDbLine
 10
5130.896686885724
 20
1208.069870279038
 30
0.0
 11
5130.896686885724
 21
1448.069870279039
 31
0.0
  0
LINE
  5
215DC
330
747D
100
AcDbEntity
  8
細線
 48
25.0
100
AcDbLine
 10
5364.7502541594
 20
1448.069870279039
 30
0.0
 11
6105.210470865801
 21
2188.530086985439
 31
0.0
  0
LINE
  5
215DD
330
747D
100
AcDbEntity
  8
細線
 48
25.0
100
AcDbLine
 10
5409.651534764744
 20
1448.069870279038
 30
0.0
 11
6150.111751471146
 21
2188.530086985439
 31
0.0
  0
LINE
  5
215DE
330
747D
100
AcDbEntity
  8
細線
 48
25.0
100
AcDbLine
 10
5454.552815370094
 20
1448.069870279038
 30
0.0
 11
6195.013032076492
 21
2188.530086985439
 31
0.0
  0
LINE
  5
215DF
330
747D
100
AcDbEntity
  8
細線
 48
25.0
100
AcDbLine
 10
5250.257634753185
 20
1602.984934504893
 30
0.0
 11
5835.802787233734
 21
2188.530086985439
 31
0.0
  0
LWPOLYLINE
  5
215E0
330
747D
100
AcDbEntity
  8
部品1
 62
     7
100
AcDbPolyline
 90
        4
 70
     1
 43
0.0
 10
4095.872661766946
 20
3892.381333552427
 10
5079.451628268558
 20
3892.381333552427
 10
5079.451628268558
 20
3598.969846581189
 10
4095.872661766946
 20
3598.969846581189
  0
TEXT
  5
215E1
330
747D
100
AcDbEntity
  8
仕様書枠
 62
     7
 48
50.0
100
AcDbText
 10
4122.287908467017
 20
3669.137591724868
 30
0.0
 40
160.0
  1
基礎断面
  7
STYLE2
100
AcDbText
  0
LINE
  5
215E2
330
747D
100
AcDbEntity
  8
細線
 48
25.0
100
AcDbLine
 10
7272.643766604791
 20
2188.530086985439
 30
0.0
 11
7024.643766604794
 21
2436.530086985439
 31
0.0
  0
LINE
  5
215E3
330
747D
100
AcDbEntity
  8
細線
 48
25.0
100
AcDbLine
 10
7227.742485999456
 20
2188.530086985442
 30
0.0
 11
6979.742485999458
 21
2436.530086985442
 31
0.0
  0
LINE
  5
215E4
330
747D
100
AcDbEntity
  8
細線
 48
25.0
100
AcDbLine
 10
7182.841205394106
 20
2188.530086985439
 30
0.0
 11
6934.841205394106
 21
2436.530086985439
 31
0.0
  0
LINE
  5
215E5
330
747D
100
AcDbEntity
  8
部品1
 62
     7
 48
50.0
100
AcDbLine
 10
5250.257634753187
 20
2188.530086985439
 30
0.0
 11
5585.457634753184
 21
2188.530086985439
 31
0.0
  0
LINE
  5
215E6
330
747D
100
AcDbEntity
  8
部品1
 62
     7
 48
50.0
100
AcDbLine
 10
5395.05763475319
 20
2436.530086985442
 30
0.0
 11
5491.457634753176
 21
2436.530086985442
 31
0.0
  0
LINE
  5
215E7
330
747D
100
AcDbEntity
  8
部品1
 62
     7
 48
50.0
100
AcDbLine
 10
5395.057634753182
 20
2431.730086985439
 30
0.0
 11
5491.457634753189
 21
2431.730086985443
 31
0.0
  0
LINE
  5
215E8
330
747D
100
AcDbEntity
  8
部品1
 62
     7
 48
50.0
100
AcDbLine
 10
5270.257634753186
 20
2193.330086985441
 30
0.0
 11
5270.2576347532
 21
2354.7823602347
 31
0.0
  0
LINE
  5
215E9
330
747D
100
AcDbEntity
  8
部品1
 62
     7
 48
50.0
100
AcDbLine
 10
5275.057634753189
 20
2193.330086985449
 30
0.0
 11
5275.057634753197
 21
2354.782360234711
 31
0.0
  0
LINE
  5
215EA
330
747D
100
AcDbEntity
  8
細線
 48
25.0
100
AcDbLine
 10
5250.257634753187
 20
2051.997740558353
 30
0.0
 11
5386.789981180271
 21
2188.530086985438
 31
0.0
  0
LINE
  5
215EB
330
747D
100
AcDbEntity
  8
部品1
 62
     7
 48
50.0
100
AcDbLine
 10
5298.257634753187
 20
2188.530086985442
 30
0.0
 11
5275.057634753189
 21
2188.530086985442
 31
0.0
  0
ARC
  5
215EC
330
747D
100
AcDbEntity
  8
部品1
 62
     7
 48
50.0
100
AcDbCircle
 10
5275.057634753189
 20
2193.330086985441
 30
0.0
 40
4.8
100
AcDbArc
 50
180.0
 51
270.0
  0
LINE
  5
215ED
330
747D
100
AcDbEntity
  8
部品1
 62
     7
 48
50.0
100
AcDbLine
 10
5298.257634753187
 20
2193.330086985441
 30
0.0
 11
5275.057634753181
 21
2193.330086985445
 31
0.0
  0
LINE
  5
215EE
330
747D
100
AcDbEntity
  8
部品1
 62
     7
 48
50.0
100
AcDbLine
 10
5298.257634753187
 20
2193.330086985441
 30
0.0
 11
5298.257634753187
 21
2188.530086985442
 31
0.0
  0
LINE
  5
215EF
330
747D
100
AcDbEntity
  8
部品1
 62
     7
 48
50.0
100
AcDbLine
 10
5273.893463753033
 20
2359.439044235396
 30
0.0
 11
5294.257634753186
 21
2364.530086985442
 31
0.0
  0
ARC
  5
215F0
330
747D
100
AcDbEntity
  8
部品1
 62
     7
 48
50.0
100
AcDbCircle
 10
5275.057634753206
 20
2354.7823602347
 30
0.0
 40
4.8
100
AcDbArc
 50
104.0362434678506
 51
180.0
  0
ARC
  5
215F1
330
747D
100
AcDbEntity
  8
部品1
 62
     7
 48
50.0
100
AcDbCircle
 10
5294.257634753196
 20
2364.53008698545
 30
0.0
 40
4.8
100
AcDbArc
 50
284.0362434678507
 51
0.0
  0
LINE
  5
215F2
330
747D
100
AcDbEntity
  8
部品1
 62
     7
 48
50.0
100
AcDbLine
 10
5294.257634753196
 20
2364.530086985442
 30
0.0
 11
5294.257634753201
 21
2383.730086985439
 31
0.0
  0
LINE
  5
215F3
330
747D
100
AcDbEntity
  8
部品1
 62
     7
 48
50.0
100
AcDbLine
 10
5299.057634753204
 20
2388.530086985438
 30
0.0
 11
5384.257634753186
 21
2388.530086985442
 31
0.0
  0
ARC
  5
215F4
330
747D
100
AcDbEntity
  8
部品1
 62
     7
 48
50.0
100
AcDbCircle
 10
5299.057634753204
 20
2383.730086985439
 30
0.0
 40
4.8
100
AcDbArc
 50
90.0
 51
180.0
  0
ARC
  5
215F5
330
747D
100
AcDbEntity
  8
部品1
 62
     7
 48
50.0
100
AcDbCircle
 10
5384.257634753186
 20
2388.530086985442
 30
0.0
 40
4.8
100
AcDbArc
 50
270.0
 51
0.0
  0
LINE
  5
215F6
330
747D
100
AcDbEntity
  8
部品1
 62
     7
 48
50.0
100
AcDbLine
 10
5389.057634753189
 20
2412.530086985446
 30
0.0
 11
5390.257634753186
 21
2412.530086985442
 31
0.0
  0
LINE
  5
215F7
330
747D
100
AcDbEntity
  8
部品1
 62
     7
 48
50.0
100
AcDbLine
 10
5384.257634753186
 20
2388.530086985442
 30
0.0
 11
5384.257634753186
 21
2407.730086985446
 31
0.0
  0
ARC
  5
215F8
330
747D
100
AcDbEntity
  8
部品1
 62
     7
 48
50.0
100
AcDbCircle
 10
5389.057634753189
 20
2407.730086985446
 30
0.0
 40
4.8
100
AcDbArc
 50
90.0
 51
180.0
  0
ARC
  5
215F9
330
747D
100
AcDbEntity
  8
部品1
 62
     7
 48
50.0
100
AcDbCircle
 10
5390.257634753194
 20
2412.530086985438
 30
0.0
 40
4.8
100
AcDbArc
 50
270.0
 51
0.0
  0
LINE
  5
215FA
330
747D
100
AcDbEntity
  8
部品1
 62
     7
 48
50.0
100
AcDbLine
 10
5390.257634753186
 20
2412.530086985442
 30
0.0
 11
5390.257634753186
 21
2431.730086985443
 31
0.0
  0
ARC
  5
215FB
330
747D
100
AcDbEntity
  8
部品1
 62
     7
 48
50.0
100
AcDbCircle
 10
5395.05763475319
 20
2431.730086985443
 30
0.0
 40
4.8
100
AcDbArc
 50
90.0
 51
180.0
  0
LINE
  5
215FC
330
747D
100
AcDbEntity
  8
部品1
 62
     7
 48
50.0
100
AcDbLine
 10
5395.057634753197
 20
2412.530086985438
 30
0.0
 11
5395.057634753182
 21
2431.730086985443
 31
0.0
  0
LINE
  5
215FD
330
747D
100
AcDbEntity
  8
部品1
 62
     7
 48
50.0
100
AcDbLine
 10
5389.057634753189
 20
2388.530086985442
 30
0.0
 11
5389.057634753199
 21
2407.73008698544
 31
0.0
  0
LINE
  5
215FE
330
747D
100
AcDbEntity
  8
部品1
 62
     7
 48
50.0
100
AcDbLine
 10
5389.057634753199
 20
2407.730086985443
 30
0.0
 11
5390.257634753194
 21
2407.73008698544
 31
0.0
  0
LINE
  5
215FF
330
747D
100
AcDbEntity
  8
部品1
 62
     7
 48
50.0
100
AcDbLine
 10
5299.057634753197
 20
2383.730086985446
 30
0.0
 11
5384.257634753186
 21
2383.730086985443
 31
0.0
  0
LINE
  5
21600
330
747D
100
AcDbEntity
  8
部品1
 62
     7
 48
50.0
100
AcDbLine
 10
5299.057634753197
 20
2364.53008698545
 30
0.0
 11
5299.057634753189
 21
2383.730086985446
 31
0.0
  0
LINE
  5
21601
330
747D
100
AcDbEntity
  8
部品1
 62
     7
 48
50.0
100
AcDbLine
 10
5275.057634753197
 20
2354.782360234707
 30
0.0
 11
5295.421805753365
 21
2359.873402984753
 31
0.0
  0
LINE
  5
21602
330
747D
100
AcDbEntity
  8
部品1
 62
     7
 48
50.0
100
AcDbLine
 10
5590.257634753187
 20
2311.730086985443
 30
0.0
 11
5590.257634753187
 21
2193.330086985445
 31
0.0
  0
LINE
  5
21603
330
747D
100
AcDbEntity
  8
部品1
 62
     7
 48
50.0
100
AcDbLine
 10
5585.457634753184
 20
2311.730086985443
 30
0.0
 11
5585.457634753184
 21
2193.330086985445
 31
0.0
  0
LINE
  5
21604
330
747D
100
AcDbEntity
  8
部品1
 62
     7
 48
50.0
100
AcDbLine
 10
5585.457634753184
 20
2188.530086985446
 30
0.0
 11
5562.257634753187
 21
2188.530086985442
 31
0.0
  0
LINE
  5
21605
330
747D
100
AcDbEntity
  8
部品1
 62
     7
 48
50.0
100
AcDbLine
 10
5585.457634753177
 20
2193.330086985445
 30
0.0
 11
5562.257634753187
 21
2193.330086985441
 31
0.0
  0
LINE
  5
21606
330
747D
100
AcDbEntity
  8
部品1
 62
     7
 48
50.0
100
AcDbLine
 10
5562.257634753187
 20
2188.530086985442
 30
0.0
 11
5562.257634753187
 21
2193.330086985441
 31
0.0
  0
ARC
  5
21607
330
747D
100
AcDbEntity
  8
部品1
 62
     7
 48
50.0
100
AcDbCircle
 10
5585.457634753184
 20
2193.330086985445
 30
0.0
 40
4.8
100
AcDbArc
 50
270.0
 51
0.0
  0
LINE
  5
21608
330
747D
100
AcDbEntity
  8
部品1
 62
     7
 48
50.0
100
AcDbLine
 10
5496.257634753186
 20
2316.530086985442
 30
0.0
 11
5585.457634753184
 21
2316.530086985442
 31
0.0
  0
LINE
  5
21609
330
747D
100
AcDbEntity
  8
部品1
 62
     7
 48
50.0
100
AcDbLine
 10
5496.257634753186
 20
2311.730086985446
 30
0.0
 11
5585.457634753184
 21
2311.730086985443
 31
0.0
  0
LINE
  5
2160A
330
747D
100
AcDbEntity
  8
部品1
 62
     7
 48
50.0
100
AcDbLine
 10
5496.257634753179
 20
2431.730086985443
 30
0.0
 11
5496.257634753186
 21
2316.530086985442
 31
0.0
  0
ARC
  5
2160B
330
747D
100
AcDbEntity
  8
部品1
 62
     7
 48
50.0
100
AcDbCircle
 10
5491.457634753176
 20
2431.730086985443
 30
0.0
 40
4.8
100
AcDbArc
 50
0.0
 51
90.0
  0
ARC
  5
2160C
330
747D
100
AcDbEntity
  8
部品1
 62
     7
 48
50.0
100
AcDbCircle
 10
5496.257634753186
 20
2316.530086985446
 30
0.0
 40
4.8
100
AcDbArc
 50
180.0
 51
270.0
  0
LINE
  5
2160D
330
747D
100
AcDbEntity
  8
部品1
 62
     7
 48
50.0
100
AcDbLine
 10
5491.457634753176
 20
2431.730086985439
 30
0.0
 11
5491.457634753184
 21
2316.530086985446
 31
0.0
  0
ARC
  5
2160E
330
747D
100
AcDbEntity
  8
部品1
 62
     7
 48
50.0
100
AcDbCircle
 10
5585.457634753184
 20
2311.730086985443
 30
0.0
 40
4.8
100
AcDbArc
 50
0.0
 51
90.0
  0
LWPOLYLINE
  5
2160F
330
747D
100
AcDbEntity
  8
寸法
 48
50.0
100
AcDbPolyline
 90
        2
 70
     0
 43
0.0
 10
6015.020251891688
 20
2436.530086985442
 10
6427.718947017321
 20
3407.706589613824
  0
LINE
  5
21610
330
747D
100
AcDbEntity
  8
細線
 48
25.0
100
AcDbLine
 10
6554.223276919259
 20
2188.530086985439
 30
0.0
 11
6306.223276919263
 21
2436.530086985439
 31
0.0
  0
LINE
  5
21611
330
747D
100
AcDbEntity
  8
細線
 48
25.0
100
AcDbLine
 10
6509.321996313921
 20
2188.530086985439
 30
0.0
 11
6261.321996313924
 21
2436.530086985442
 31
0.0
  0
LINE
  5
21612
330
747D
100
AcDbEntity
  8
細線
 48
25.0
100
AcDbLine
 10
6464.420715708569
 20
2188.530086985439
 30
0.0
 11
6216.420715708565
 21
2436.530086985442
 31
0.0
  0
LINE
  5
21613
330
747D
100
AcDbEntity
  8
細線
 48
25.0
100
AcDbLine
 10
6913.433521762032
 20
2188.530086985439
 30
0.0
 11
6665.433521762031
 21
2436.530086985439
 31
0.0
  0
LINE
  5
21614
330
747D
100
AcDbEntity
  8
細線
 48
25.0
100
AcDbLine
 10
6868.532241156684
 20
2188.530086985439
 30
0.0
 11
6620.532241156681
 21
2436.530086985446
 31
0.0
  0
LINE
  5
21615
330
747D
100
AcDbEntity
  8
細線
 48
25.0
100
AcDbLine
 10
6823.630960551338
 20
2188.530086985439
 30
0.0
 11
6575.630960551338
 21
2436.530086985442
 31
0.0
  0
INSERT
  5
21616
330
747D
100
AcDbEntity
  8
寸法
 62
     7
 48
50.0
100
AcDbBlockReference
  2
_DOTSMALL
 10
6015.020251891688
 20
2436.530086985442
 30
0.0
 41
99.99999999999968
 42
100.0
 43
100.0
 50
246.9770724438177
  0
LINE
  5
21617
330
747D
100
AcDbEntity
  8
細線
 48
25.0
100
AcDbLine
 10
6195.013032076492
 20
2188.530086985439
 30
0.0
 11
5947.013032076476
 21
2436.530086985442
 31
0.0
  0
LINE
  5
21618
330
747D
100
AcDbEntity
  8
細線
 48
25.0
100
AcDbLine
 10
6150.111751471153
 20
2188.530086985439
 30
0.0
 11
5902.111751471155
 21
2436.530086985442
 31
0.0
  0
LINE
  5
21619
330
747D
100
AcDbEntity
  8
細線
 48
25.0
100
AcDbLine
 10
6105.210470865806
 20
2188.530086985439
 30
0.0
 11
5857.210470865805
 21
2436.530086985442
 31
0.0
  0
SPLINE
  5
2161A
330
747D
100
AcDbEntity
  8
部品1
 62
     7
 48
50.0
100
AcDbSpline
210
0.0
220
0.0
230
1.0
 70
     8
 71
     3
 72
    10
 73
     6
 74
     4
 42
0.0000000001
 43
0.0000000001
 44
0.0000000001
 40
0.0
 40
0.0
 40
0.0
 40
0.0
 40
400.0000000000016
 40
800.0000000000033
 40
1200.000000000004
 40
1200.000000000004
 40
1200.000000000004
 40
1200.000000000004
 10
7630.127369872051
 20
2511.101111958896
 30
0.0
 10
7519.016258760939
 20
2395.63105812097
 30
0.0
 10
7296.794036538715
 20
2164.690950445117
 30
0.0
 10
7763.460703205385
 20
1818.280788931341
 30
0.0
 10
7541.23848098316
 20
1587.340681255489
 30
0.0
 10
7430.12736987205
 20
1471.870627417564
 30
0.0
 11
7630.127369872051
 21
2511.101111958896
 31
0.0
 11
7430.12736987205
 21
2164.690950445118
 31
0.0
 11
7630.127369872051
 21
1818.280788931341
 31
0.0
 11
7430.12736987205
 21
1471.870627417564
 31
0.0
  0
LINE
  5
2161B
330
747D
100
AcDbEntity
  8
細線
 48
25.0
100
AcDbLine
 10
7448.350406094473
 20
2282.231131127833
 30
0.0
 11
7294.051450236864
 21
2436.530086985442
 31
0.0
  0
LINE
  5
2161C
330
747D
100
AcDbEntity
  8
細線
 48
25.0
100
AcDbLine
 10
7463.720107532603
 20
2311.762710295058
 30
0.0
 11
7338.952730842215
 21
2436.530086985446
 31
0.0
  0
LINE
  5
2161D
330
747D
100
AcDbEntity
  8
細線
 48
25.0
100
AcDbLine
 10
7481.079466508287
 20
2339.304631924704
 30
0.0
 11
7383.85401144755
 21
2436.530086985442
 31
0.0
  0
LINE
  5
2161E
330
747D
100
AcDbEntity
  8
細線
 48
25.0
100
AcDbLine
 10
6280.266401136158
 20
1914.573211202327
 30
0.0
 11
6554.223276919266
 21
2188.530086985438
 31
0.0
  0
LINE
  5
2161F
330
747D
100
AcDbEntity
  8
細線
 48
25.0
100
AcDbLine
 10
6235.365120530805
 20
1914.573211202327
 30
0.0
 11
6509.321996313916
 21
2188.530086985438
 31
0.0
  0
LINE
  5
21620
330
747D
100
AcDbEntity
  8
細線
 48
25.0
100
AcDbLine
 10
6190.463839925453
 20
1914.573211202327
 30
0.0
 11
6464.420715708566
 21
2188.530086985438
 31
0.0
  0
LINE
  5
21621
330
747D
100
AcDbEntity
  8
細線
 48
25.0
100
AcDbLine
 10
6549.674084768223
 20
1914.573211202327
 30
0.0
 11
6823.630960551334
 21
2188.530086985438
 31
0.0
  0
LINE
  5
21622
330
747D
100
AcDbEntity
  8
細線
 48
25.0
100
AcDbLine
 10
6594.575365373573
 20
1914.573211202327
 30
0.0
 11
6868.532241156684
 21
2188.530086985438
 31
0.0
  0
LINE
  5
21623
330
747D
100
AcDbEntity
  8
細線
 48
25.0
100
AcDbLine
 10
6639.476645978927
 20
1914.573211202327
 30
0.0
 11
6913.433521762036
 21
2188.530086985438
 31
0.0
  0
LINE
  5
21624
330
747D
100
AcDbEntity
  8
細線
 48
25.0
100
AcDbLine
 10
7357.897135664465
 20
1914.573211202327
 30
0.0
 11
7489.252520783795
 21
2045.928596321656
 31
0.0
  0
LINE
  5
21625
330
747D
100
AcDbEntity
  8
細線
 48
25.0
100
AcDbLine
 10
7312.995855059118
 20
1914.573211202327
 30
0.0
 11
7471.075389510581
 21
2072.652745653792
 31
0.0
  0
LINE
  5
21626
330
747D
100
AcDbEntity
  8
細線
 48
25.0
100
AcDbLine
 10
7268.094574453764
 20
1914.573211202328
 30
0.0
 11
7454.344482015968
 21
2100.82311876453
 31
0.0
  0
LINE
  5
21627
330
747D
100
AcDbEntity
  8
細線
 48
25.0
100
AcDbLine
 10
6908.884329610995
 20
1914.573211202327
 30
0.0
 11
7182.841205394105
 21
2188.530086985437
 31
0.0
  0
LINE
  5
21628
330
747D
100
AcDbEntity
  8
細線
 48
25.0
100
AcDbLine
 10
6953.785610216344
 20
1914.573211202327
 30
0.0
 11
7227.742485999455
 21
2188.530086985437
 31
0.0
  0
LINE
  5
21629
330
747D
100
AcDbEntity
  8
細線
 48
25.0
100
AcDbLine
 10
6998.686890821696
 20
1914.573211202327
 30
0.0
 11
7272.643766604805
 21
2188.530086985437
 31
0.0
  0
LINE
  5
2162A
330
747D
100
AcDbEntity
  8
点線
 48
30.0
100
AcDbLine
 10
5585.457634753184
 20
2188.530086985439
 30
0.0
 11
7427.390419141499
 21
2188.530086985439
 31
0.0
  0
LINE
  5
2162B
330
747D
100
AcDbEntity
  8
部品1
 62
     7
 48
50.0
100
AcDbLine
 10
5607.805038015235
 20
1448.069870279037
 30
0.0
 11
6074.308378938524
 21
1914.573211202327
 31
0.0
  0
LINE
  5
2162C
330
747D
100
AcDbEntity
  8
部品1
 62
     7
 48
50.0
100
AcDbLine
 10
5707.216292984778
 20
1208.069870279038
 30
0.0
 11
5130.896686885724
 21
1208.069870279038
 31
0.0
  0
LINE
  5
2162D
330
747D
100
AcDbEntity
  8
部品1
 62
     7
 48
50.0
100
AcDbLine
 10
5707.216292984778
 20
1208.069870279038
 30
0.0
 11
6173.719633908065
 21
1674.573211202327
 31
0.0
  0
LINE
  5
2162E
330
747D
100
AcDbEntity
  8
細線
 48
50.0
100
AcDbLine
 10
7535.62104489805
 20
1734.573211202327
 30
0.0
 11
7519.544093352187
 21
1674.573211202327
 31
0.0
  0
LINE
  5
2162F
330
747D
100
AcDbEntity
  8
細線
 48
50.0
100
AcDbLine
 10
7551.697996443919
 20
1674.573211202327
 30
0.0
 11
7487.390190260452
 21
1914.573211202327
 31
0.0
  0
LINE
  5
21630
330
747D
100
AcDbEntity
  8
細線
 48
50.0
100
AcDbLine
 10
6220.820295777262
 20
1734.573211202327
 30
0.0
 11
6204.743344231392
 21
1674.573211202327
 31
0.0
  0
LINE
  5
21631
330
747D
100
AcDbEntity
  8
細線
 48
50.0
100
AcDbLine
 10
6352.300370689343
 20
1734.573211202327
 30
0.0
 11
6336.223419143473
 21
1674.573211202327
 31
0.0
  0
LINE
  5
21632
330
747D
100
AcDbEntity
  8
細線
 48
50.0
100
AcDbLine
 10
6483.780445601417
 20
1734.573211202327
 30
0.0
 11
6467.70349405555
 21
1674.573211202327
 31
0.0
  0
LINE
  5
21633
330
747D
100
AcDbEntity
  8
細線
 48
50.0
100
AcDbLine
 10
6615.260520513493
 20
1734.573211202327
 30
0.0
 11
6599.183568967622
 21
1674.573211202327
 31
0.0
  0
LINE
  5
21634
330
747D
100
AcDbEntity
  8
細線
 48
50.0
100
AcDbLine
 10
6368.377322235207
 20
1674.573211202331
 30
0.0
 11
6304.069516051747
 21
1914.573211202327
 31
0.0
  0
LINE
  5
21635
330
747D
100
AcDbEntity
  8
細線
 48
50.0
100
AcDbLine
 10
6499.857397147287
 20
1674.573211202331
 30
0.0
 11
6435.549590963816
 21
1914.573211202331
 31
0.0
  0
LINE
  5
21636
330
747D
100
AcDbEntity
  8
細線
 48
50.0
100
AcDbLine
 10
6631.33747205936
 20
1674.573211202335
 30
0.0
 11
6567.029665875896
 21
1914.573211202327
 31
0.0
  0
LINE
  5
21637
330
747D
100
AcDbEntity
  8
細線
 48
50.0
100
AcDbLine
 10
6236.897247323126
 20
1674.573211202327
 30
0.0
 11
6172.589441139662
 21
1914.573211202327
 31
0.0
  0
LINE
  5
21638
330
747D
100
AcDbEntity
  8
細線
 48
50.0
100
AcDbLine
 10
6714.58669233384
 20
1854.573211202335
 30
0.0
 11
6730.663643879721
 21
1914.573211202331
 31
0.0
  0
LINE
  5
21639
330
747D
100
AcDbEntity
  8
細線
 48
50.0
100
AcDbLine
 10
6583.106617421759
 20
1854.573211202335
 30
0.0
 11
6599.183568967631
 21
1914.573211202331
 31
0.0
  0
LINE
  5
2163A
330
747D
100
AcDbEntity
  8
細線
 48
50.0
100
AcDbLine
 10
6451.626542509679
 20
1854.573211202338
 30
0.0
 11
6467.70349405556
 21
1914.573211202335
 31
0.0
  0
LINE
  5
2163B
330
747D
100
AcDbEntity
  8
細線
 48
50.0
100
AcDbLine
 10
6320.146467597606
 20
1854.573211202335
 30
0.0
 11
6336.22341914348
 21
1914.573211202331
 31
0.0
  0
LINE
  5
2163C
330
747D
100
AcDbEntity
  8
細線
 48
50.0
100
AcDbLine
 10
6188.666392685529
 20
1854.573211202336
 30
0.0
 11
6204.743344231399
 21
1914.573211202333
 31
0.0
  0
LINE
  5
2163D
330
747D
100
AcDbEntity
  8
細線
 48
50.0
100
AcDbLine
 10
6878.220670337663
 20
1734.573211202327
 30
0.0
 11
6862.143718791802
 21
1674.573211202327
 31
0.0
  0
LINE
  5
2163E
330
747D
100
AcDbEntity
  8
細線
 48
50.0
100
AcDbLine
 10
7009.700745249737
 20
1734.573211202327
 30
0.0
 11
6993.623793703874
 21
1674.573211202327
 31
0.0
  0
LINE
  5
2163F
330
747D
100
AcDbEntity
  8
細線
 48
50.0
100
AcDbLine
 10
7141.180820161813
 20
1734.573211202327
 30
0.0
 11
7125.103868615951
 21
1674.573211202327
 31
0.0
  0
LINE
  5
21640
330
747D
100
AcDbEntity
  8
細線
 48
50.0
100
AcDbLine
 10
7272.66089507389
 20
1734.573211202327
 30
0.0
 11
7256.583943528024
 21
1674.573211202327
 31
0.0
  0
LINE
  5
21641
330
747D
100
AcDbEntity
  8
細線
 48
50.0
100
AcDbLine
 10
7404.140969985966
 20
1734.573211202327
 30
0.0
 11
7388.0640184401
 21
1674.573211202327
 31
0.0
  0
LINE
  5
21642
330
747D
100
AcDbEntity
  8
細線
 48
50.0
100
AcDbLine
 10
7420.217921531834
 20
1674.573211202335
 30
0.0
 11
7355.910115348364
 21
1914.573211202327
 31
0.0
  0
LINE
  5
21643
330
747D
100
AcDbEntity
  8
細線
 48
50.0
100
AcDbLine
 10
7288.737846619757
 20
1674.573211202331
 30
0.0
 11
7224.430040436288
 21
1914.573211202331
 31
0.0
  0
LINE
  5
21644
330
747D
100
AcDbEntity
  8
細線
 48
50.0
100
AcDbLine
 10
7157.257771707683
 20
1674.573211202331
 30
0.0
 11
7092.949965524216
 21
1914.573211202327
 31
0.0
  0
LINE
  5
21645
330
747D
100
AcDbEntity
  8
細線
 48
50.0
100
AcDbLine
 10
6894.29762188353
 20
1674.573211202327
 30
0.0
 11
6829.989815700064
 21
1914.573211202327
 31
0.0
  0
LINE
  5
21646
330
747D
100
AcDbEntity
  8
細線
 48
50.0
100
AcDbLine
 10
7025.777696795609
 20
1674.573211202327
 30
0.0
 11
6961.469890612136
 21
1914.573211202327
 31
0.0
  0
LINE
  5
21647
330
747D
100
AcDbEntity
  8
細線
 48
50.0
100
AcDbLine
 10
7503.467141806317
 20
1854.573211202335
 30
0.0
 11
7519.544093352194
 21
1914.573211202331
 31
0.0
  0
LINE
  5
21648
330
747D
100
AcDbEntity
  8
細線
 48
50.0
100
AcDbLine
 10
7371.987066894232
 20
1854.573211202335
 30
0.0
 11
7388.064018440108
 21
1914.573211202331
 31
0.0
  0
LINE
  5
21649
330
747D
100
AcDbEntity
  8
細線
 48
50.0
100
AcDbLine
 10
7240.506991982157
 20
1854.573211202335
 30
0.0
 11
7256.583943528034
 21
1914.573211202331
 31
0.0
  0
LINE
  5
2164A
330
747D
100
AcDbEntity
  8
細線
 48
50.0
100
AcDbLine
 10
6977.546842158009
 20
1854.573211202335
 30
0.0
 11
6993.623793703881
 21
1914.573211202331
 31
0.0
  0
LINE
  5
2164B
330
747D
100
AcDbEntity
  8
細線
 48
50.0
100
AcDbLine
 10
6846.066767245929
 20
1854.573211202335
 30
0.0
 11
6862.143718791809
 21
1914.573211202331
 31
0.0
  0
LINE
  5
2164C
330
747D
100
AcDbEntity
  8
細線
 48
50.0
100
AcDbLine
 10
7109.026917070081
 20
1854.573211202335
 30
0.0
 11
7125.103868615951
 21
1914.573211202331
 31
0.0
  0
LINE
  5
2164D
330
747D
100
AcDbEntity
  8
細線
 48
50.0
100
AcDbLine
 10
6746.740595425575
 20
1734.573211202327
 30
0.0
 11
6730.663643879712
 21
1674.573211202327
 31
0.0
  0
LINE
  5
2164E
330
747D
100
AcDbEntity
  8
細線
 48
50.0
100
AcDbLine
 10
6762.81754697144
 20
1674.573211202327
 30
0.0
 11
6698.509740787976
 21
1914.573211202327
 31
0.0
  0
LINE
  5
2164F
330
747D
100
AcDbEntity
  8
細線
 48
50.0
100
AcDbLine
 10
6057.186317773441
 20
1854.573211202334
 30
0.0
 11
6072.880732648944
 21
1913.145564912746
 31
0.0
  0
LINE
  5
21650
330
747D
100
AcDbEntity
  8
細線
 48
50.0
100
AcDbLine
 10
5808.765983560297
 20
1309.619560854557
 30
0.0
 11
5737.039945786851
 21
1577.304778050653
 31
0.0
  0
LINE
  5
21651
330
747D
100
AcDbEntity
  8
細線
 48
50.0
100
AcDbLine
 10
5912.461049338108
 20
1413.314626632367
 30
0.0
 11
5840.735011564666
 21
1680.999843828468
 31
0.0
  0
LINE
  5
21652
330
747D
100
AcDbEntity
  8
細線
 48
50.0
100
AcDbLine
 10
6016.156115115927
 20
1517.009692410187
 30
0.0
 11
5944.430077342484
 21
1784.694909606285
 31
0.0
  0
LINE
  5
21653
330
747D
100
AcDbEntity
  8
細線
 48
50.0
100
AcDbLine
 10
6119.851180893745
 20
1620.704758188006
 30
0.0
 11
6048.125143120302
 21
1888.389975384102
 31
0.0
  0
LINE
  5
21654
330
747D
100
AcDbEntity
  8
細線
 48
50.0
100
AcDbLine
 10
6103.774229347882
 20
1680.704758188007
 30
0.0
 11
6075.928132439607
 21
1576.781709733868
 31
0.0
  0
LINE
  5
21655
330
747D
100
AcDbEntity
  8
細線
 48
50.0
100
AcDbLine
 10
6000.079163570064
 20
1577.009692410188
 30
0.0
 11
5972.233066661789
 21
1473.086643956049
 31
0.0
  0
LINE
  5
21656
330
747D
100
AcDbEntity
  8
細線
 48
50.0
100
AcDbLine
 10
5896.384097792244
 20
1473.314626632368
 30
0.0
 11
5868.538000883972
 21
1369.39157817823
 31
0.0
  0
LINE
  5
21657
330
747D
100
AcDbEntity
  8
細線
 48
50.0
100
AcDbLine
 10
5792.689032014426
 20
1369.619560854549
 30
0.0
 11
5764.842935106153
 21
1265.696512400411
 31
0.0
  0
LINE
  5
21658
330
747D
100
AcDbEntity
  8
細線
 48
50.0
100
AcDbLine
 10
5960.507028888351
 20
1724.694909606295
 30
0.0
 11
5988.353125796624
 21
1828.617958060425
 31
0.0
  0
LINE
  5
21659
330
747D
100
AcDbEntity
  8
細線
 48
50.0
100
AcDbLine
 10
5856.811963110533
 20
1620.999843828477
 30
0.0
 11
5884.658060018806
 21
1724.922892282607
 31
0.0
  0
LINE
  5
2165A
330
747D
100
AcDbEntity
  8
細線
 48
50.0
100
AcDbLine
 10
5753.116897332718
 20
1517.304778050663
 30
0.0
 11
5780.962994240992
 21
1621.227826504792
 31
0.0
  0
LINE
  5
2165B
330
747D
100
AcDbEntity
  8
細線
 48
50.0
100
AcDbLine
 10
5649.42183155491
 20
1413.609712272853
 30
0.0
 11
5677.267928463181
 21
1517.532760726983
 31
0.0
  0
LINE
  5
2165C
330
747D
100
AcDbEntity
  8
細線
 48
50.0
100
AcDbLine
 10
5688.993966236616
 20
1265.92449507674
 30
0.0
 11
5673.491866243661
 21
1208.069870279038
 31
0.0
  0
LINE
  5
2165D
330
747D
100
AcDbEntity
  8
細線
 48
50.0
100
AcDbLine
 10
5704.496066229573
 20
1208.069870279038
 30
0.0
 11
5633.34488000904
 21
1473.609712272844
 31
0.0
  0
LINE
  5
2165E
330
747D
100
AcDbEntity
  8
細線
 48
50.0
100
AcDbLine
 10
5179.725469687081
 20
1208.069870279038
 30
0.0
 11
5130.896686885724
 21
1390.301368565461
 31
0.0
  0
LINE
  5
2165F
330
747D
100
AcDbEntity
  8
細線
 48
50.0
100
AcDbLine
 10
5163.648518141213
 20
1268.069870279038
 30
0.0
 11
5147.57156659535
 21
1208.069870279038
 31
0.0
  0
LINE
  5
21660
330
747D
100
AcDbEntity
  8
細線
 48
50.0
100
AcDbLine
 10
5525.934839785721
 20
1388.069870279045
 30
0.0
 11
5542.011791331592
 21
1448.069870279041
 31
0.0
  0
LINE
  5
21661
330
747D
100
AcDbEntity
  8
細線
 48
50.0
100
AcDbLine
 10
5262.974689961567
 20
1388.069870279045
 30
0.0
 11
5279.051641507449
 21
1448.069870279041
 31
0.0
  0
LINE
  5
21662
330
747D
100
AcDbEntity
  8
細線
 48
50.0
100
AcDbLine
 10
5394.454764873648
 20
1388.069870279045
 30
0.0
 11
5410.531716419519
 21
1448.069870279041
 31
0.0
  0
LINE
  5
21663
330
747D
100
AcDbEntity
  8
細線
 48
50.0
100
AcDbLine
 10
5442.685619511248
 20
1208.069870279038
 30
0.0
 11
5378.377813327773
 21
1448.069870279037
 31
0.0
  0
LINE
  5
21664
330
747D
100
AcDbEntity
  8
細線
 48
50.0
100
AcDbLine
 10
5311.205544599168
 20
1208.069870279038
 30
0.0
 11
5246.897738415704
 21
1448.069870279037
 31
0.0
  0
LINE
  5
21665
330
747D
100
AcDbEntity
  8
細線
 48
50.0
100
AcDbLine
 10
5574.165694423322
 20
1208.069870279041
 30
0.0
 11
5509.857888239854
 21
1448.069870279037
 31
0.0
  0
LINE
  5
21666
330
747D
100
AcDbEntity
  8
細線
 48
50.0
100
AcDbLine
 10
5558.088742877451
 20
1268.069870279038
 30
0.0
 11
5542.011791331592
 21
1208.069870279038
 31
0.0
  0
LINE
  5
21667
330
747D
100
AcDbEntity
  8
細線
 48
50.0
100
AcDbLine
 10
5426.608667965375
 20
1268.069870279038
 30
0.0
 11
5410.531716419511
 21
1208.069870279038
 31
0.0
  0
LINE
  5
21668
330
747D
100
AcDbEntity
  8
細線
 48
50.0
100
AcDbLine
 10
5295.128593053301
 20
1268.069870279038
 30
0.0
 11
5279.051641507442
 21
1208.069870279038
 31
0.0
  0
LINE
  5
21669
330
747D
100
AcDbEntity
  8
細線
 48
50.0
100
AcDbLine
 10
5131.494615049479
 20
1388.069870279045
 30
0.0
 11
5147.571566595361
 21
1448.069870279041
 31
0.0
  0
LINE
  5
2166A
330
747D
100
AcDbEntity
  8
部品1
 62
     7
100
AcDbLine
 10
4095.872661766946
 20
3892.381333552427
 30
0.0
 11
9811.564659728771
 21
3892.381333552428
 31
0.0
  0
LINE
  5
2166B
330
747D
100
AcDbEntity
  8
部品1
 62
     7
100
AcDbLine
 10
9811.564659728771
 20
3892.381333552427
 30
0.0
 11
9811.564659728771
 21
679.3837788033888
 31
0.0
  0
LINE
  5
2166C
330
747D
100
AcDbEntity
  8
部品1
 62
     7
100
AcDbLine
 10
9811.564659728771
 20
679.3837788033888
 30
0.0
 11
4095.872661766946
 21
679.3837788033888
 31
0.0
  0
LINE
  5
2166D
330
747D
100
AcDbEntity
  8
部品1
 62
     7
100
AcDbLine
 10
4095.872661766946
 20
679.3837788033888
 30
0.0
 11
4095.872661766946
 21
3892.381333552427
 31
0.0
  0
LINE
  5
2171A
330
747D
100
AcDbEntity
  8
部品1
 48
50.0
100
AcDbLine
 10
8908.2886631624
 20
8727.645038133921
 30
0.0
 11
8911.2886631624
 21
8724.645038133921
 31
0.0
  0
LINE
  5
2171B
330
747D
100
AcDbEntity
  8
部品1
 48
50.0
100
AcDbLine
 10
8911.2886631624
 20
6098.645038133946
 30
0.0
 11
8908.2886631624
 21
6095.645038133945
 31
0.0
  0
LINE
  5
2171C
330
747D
100
AcDbEntity
  8
部品1
 48
50.0
100
AcDbLine
 10
6279.288663162398
 20
6098.645038133944
 30
0.0
 11
6282.288663162399
 21
6095.645038133944
 31
0.0
  0
LINE
  5
2171D
330
747D
100
AcDbEntity
  8
想像線
 48
10.0
100
AcDbLine
 10
6232.288663162397
 20
8807.645038133946
 30
0.0
 11
6229.288663162397
 21
8804.645038133946
 31
0.0
  0
LINE
  5
2171E
330
747D
100
AcDbEntity
  8
想像線
 48
10.0
100
AcDbLine
 10
8958.288663162392
 20
8807.645038133944
 30
0.0
 11
8961.288663162392
 21
8804.645038133944
 31
0.0
  0
ENDSEC
  0
SECTION
  2
OBJECTS
  0
DICTIONARY
  5
7471
330
0
100
AcDbDictionary
281
     1
  3
ACAD_COLOR
350
159B0
  3
ACAD_GROUP
350
7472
  3
ACAD_LAYOUT
350
159B1
  3
ACAD_MATERIAL
350
159AF
  3
ACAD_MLINESTYLE
350
7473
  3
ACAD_PLOTSETTINGS
350
159B2
  3
ACAD_PLOTSTYLENAME
350
159AD
  3
ACDBHEADERROUNDTRIPXREC
350
21789
  3
AcDbVariableDictionary
350
21785
  3
CONTENTDICTIONARY
350
E71C
  3
DRAWINGVARIABLESDICT
350
F3B9
  0
DICTIONARY
  5
21291
330
7467
100
AcDbDictionary
280
     1
281
     1
  3
ACAD_LAYERSTATES
360
21292
  0
DICTIONARY
  5
159B0
102
{ACAD_REACTORS
330
7471
102
}
330
7471
100
AcDbDictionary
281
     1
  0
DICTIONARY
  5
7472
102
{ACAD_REACTORS
330
7471
102
}
330
7471
100
AcDbDictionary
281
     1
  0
DICTIONARY
  5
159B1
102
{ACAD_REACTORS
330
7471
102
}
330
7471
100
AcDbDictionary
281
     1
  3
Model
350
159B3
  3
レイアウト1
350
159B4
  0
DICTIONARY
  5
159AF
102
{ACAD_REACTORS
330
7471
102
}
330
7471
100
AcDbDictionary
281
     1
  0
DICTIONARY
  5
7473
102
{ACAD_REACTORS
330
7471
102
}
330
7471
100
AcDbDictionary
281
     1
  3
STANDARD
350
7480
  0
DICTIONARY
  5
159B2
102
{ACAD_REACTORS
330
7471
102
}
330
7471
100
AcDbDictionary
281
     1
  0
ACDBDICTIONARYWDFLT
  5
159AD
102
{ACAD_REACTORS
330
7471
102
}
330
7471
100
AcDbDictionary
281
     1
  3
Normal
350
159AE
100
AcDbDictionaryWithDefault
340
159AE
  0
DICTIONARY
  5
21789
102
{ACAD_REACTORS
330
7471
102
}
330
7471
100
AcDbDictionary
281
     1
  3
COLORDICT
350
2178B
  3
MATERIALDICT
350
2178A
  0
DICTIONARY
  5
21785
102
{ACAD_REACTORS
330
7471
102
}
330
7471
100
AcDbDictionary
281
     1
  3
DIMASSOC
350
21786
  3
PROJECTNAME
350
21787
  0
DICTIONARY
  5
E71C
102
{ACAD_REACTORS
330
7471
102
}
330
7471
100
AcDbDictionary
281
     1
  0
DICTIONARY
  5
F3B9
102
{ACAD_REACTORS
330
7471
102
}
330
7471
100
AcDbDictionary
281
     1
1001
DRAWINGVARIABLESXDATA
1000
POLARMODE
1000
1
  0
DICTIONARY
  5
21292
102
{ACAD_REACTORS
330
21291
102
}
330
21291
100
AcDbDictionary
281
     1
  0
LAYOUT
  5
159B3
102
{ACAD_XDICTIONARY
360
2178C
102
}
102
{ACAD_REACTORS
330
159B1
102
}
330
159B1
100
AcDbPlotSettings
  1

  2
none_device
  4
Letter_(8.50_x_11.00_Inches)
  6

 40
6.349999904632568
 41
6.349999904632568
 42
6.350006103515625
 43
6.350006103515625
 44
215.8999938964844
 45
279.3999938964844
 46
0.0
 47
0.0
 48
0.0
 49
0.0
140
0.0
141
0.0
142
1.0
143
1.0
 70
 11952
 72
     1
 73
     1
 74
     0
  7

 75
     0
147
1.0
148
-4149.571981164617
149
65.56433826894044
100
AcDbLayout
  1
Model
 70
     1
 71
     0
 10
0.0
 20
0.0
 11
12.0
 21
9.0
 12
0.0
 22
0.0
 32
0.0
 14
0.0
 24
0.0
 34
0.0
 15
0.0
 25
0.0
 35
0.0
146
0.0
 13
0.0
 23
0.0
 33
0.0
 16
1.0
 26
0.0
 36
0.0
 17
0.0
 27
1.0
 37
0.0
 76
     0
330
747D
  0
LAYOUT
  5
159B4
102
{ACAD_XDICTIONARY
360
2178E
102
}
102
{ACAD_REACTORS
330
159B1
102
}
330
159B1
100
AcDbPlotSettings
  1

  2
自動 EPSON LP-8400FX (TATENO 上)
  4

  6

 40
0.0
 41
0.0
 42
0.0
 43
0.0
 44
0.0
 45
0.0
 46
0.0
 47
0.0
 48
0.0
 49
0.0
140
0.0
141
0.0
142
1.0
143
1.0
 70
   688
 72
     0
 73
     0
 74
     5
  7
inaba.ctb
 75
    16
147
1.0
148
0.0
149
0.0
100
AcDbLayout
  1
レイアウト1
 70
     0
 71
     1
 10
0.0
 20
0.0
 11
420.0
 21
297.0
 12
0.0
 22
0.0
 32
0.0
 14
1.000000000000000E+20
 24
1.000000000000000E+20
 34
1.000000000000000E+20
 15
-1.000000000000000E+20
 25
-1.000000000000000E+20
 35
-1.000000000000000E+20
146
0.0
 13
0.0
 23
0.0
 33
0.0
 16
1.0
 26
0.0
 36
0.0
 17
0.0
 27
1.0
 37
0.0
 76
     0
330
747A
  0
MLINESTYLE
  5
7480
102
{ACAD_REACTORS
330
7473
102
}
330
7473
100
AcDbMlineStyle
  2
STANDARD
 70
     0
  3

 62
     0
 51
90.0
 52
90.0
 71
     2
 49
0.5
 62
   256
  6
BYLAYER
 49
-0.5
 62
   256
  6
BYLAYER
  0
ACDBPLACEHOLDER
  5
159AE
102
{ACAD_REACTORS
330
159AD
102
}
330
159AD
  0
XRECORD
  5
2178B
102
{ACAD_REACTORS
330
21789
102
}
330
21789
100
AcDbXrecord
280
     1
340
159B0
  0
XRECORD
  5
2178A
102
{ACAD_REACTORS
330
21789
102
}
330
21789
100
AcDbXrecord
280
     1
340
159AF
  0
DICTIONARYVAR
  5
21786
102
{ACAD_REACTORS
330
21785
102
}
330
21785
100
DictionaryVariables
280
     0
  1
1
  0
DICTIONARYVAR
  5
21787
102
{ACAD_REACTORS
330
21785
102
}
330
21785
100
DictionaryVariables
280
     0
  1

  0
DICTIONARY
  5
2178C
330
159B3
100
AcDbDictionary
280
     1
281
     1
  3
ACAD_XREC_ROUNDTRIP
360
2178D
  0
DICTIONARY
  5
2178E
330
159B4
100
AcDbDictionary
280
     1
281
     1
  3
ACAD_XREC_ROUNDTRIP
360
2178F
  0
XRECORD
  5
2178D
102
{ACAD_REACTORS
330
2178C
102
}
330
2178C
100
AcDbXrecord
280
     1
102
SHADEPLOT
 70
     0
102
SHADEPLOTRESLEVEL
 70
     2
102
SHADEPLOTCUSTOMDPI
 70
   300
  0
XRECORD
  5
2178F
102
{ACAD_REACTORS
330
2178E
102
}
330
2178E
100
AcDbXrecord
280
     1
102
SHADEPLOT
 70
     0
102
SHADEPLOTRESLEVEL
 70
     2
102
SHADEPLOTCUSTOMDPI
 70
   300
  0
ENDSEC
  0
EOF
