  0
SECTION
  2
HEADER
  9
$ACADVER
  1
AC1015
  9
$ACADMAINTVER
 70
    20
  9
$DWGCODEPAGE
  3
ANSI_932
  9
$INSBASE
 10
0.0
 20
0.0
 30
0.0
  9
$EXTMIN
 10
139.196816621341
 20
-0.6704915526170226
 30
-0.0000000349181948
  9
$EXTMAX
 10
16308.32523385566
 20
11409.90742252995
 30
0.0000000814935746
  9
$LIMMIN
 10
0.0
 20
0.0
  9
$LIMMAX
 10
16800.0
 20
11880.0
  9
$ORTHOMODE
 70
     0
  9
$REGENMODE
 70
     1
  9
$FILLMODE
 70
     1
  9
$QTEXTMODE
 70
     0
  9
$MIRRTEXT
 70
     1
  9
$LTSCALE
 40
20.0
  9
$ATTMODE
 70
     1
  9
$TEXTSIZE
 40
100.0
  9
$TRACEWID
 40
1.0
  9
$TEXTSTYLE
  7
STYLE2
  9
$CLAYER
  8
寸法
  9
$CELTYPE
  6
BYLAYER
  9
$CECOLOR
 62
   256
  9
$CELTSCALE
 40
50.0
  9
$DISPSILH
 70
     0
  9
$DIMSCALE
 40
40.0
  9
$DIMASZ
 40
2.5
  9
$DIMEXO
 40
0.5
  9
$DIMDLI
 40
7.0
  9
$DIMRND
 40
0.0
  9
$DIMDLE
 40
0.0
  9
$DIMEXE
 40
1.5
  9
$DIMTP
 40
0.0
  9
$DIMTM
 40
0.0
  9
$DIMTXT
 40
3.0
  9
$DIMCEN
 40
0.0
  9
$DIMTSZ
 40
0.0
  9
$DIMTOL
 70
     0
  9
$DIMLIM
 70
     0
  9
$DIMTIH
 70
     0
  9
$DIMTOH
 70
     0
  9
$DIMSE1
 70
     0
  9
$DIMSE2
 70
     0
  9
$DIMTAD
 70
     3
  9
$DIMZIN
 70
     8
  9
$DIMBLK
  1

  9
$DIMASO
 70
     1
  9
$DIMSHO
 70
     1
  9
$DIMPOST
  1

  9
$DIMAPOST
  1

  9
$DIMALT
 70
     0
  9
$DIMALTD
 70
     2
  9
$DIMALTF
 40
0.0394
  9
$DIMLFAC
 40
1.0
  9
$DIMTOFL
 70
     1
  9
$DIMTVP
 40
0.0
  9
$DIMTIX
 70
     0
  9
$DIMSOXD
 70
     0
  9
$DIMSAH
 70
     1
  9
$DIMBLK1
  1
DOTSMALL
  9
$DIMBLK2
  1
DOTSMALL
  9
$DIMSTYLE
  2
INABA_S40G
  9
$DIMCLRD
 70
     0
  9
$DIMCLRE
 70
     0
  9
$DIMCLRT
 70
     7
  9
$DIMTFAC
 40
1.0
  9
$DIMGAP
 40
1.0
  9
$DIMJUST
 70
     0
  9
$DIMSD1
 70
     0
  9
$DIMSD2
 70
     0
  9
$DIMTOLJ
 70
     1
  9
$DIMTZIN
 70
     0
  9
$DIMALTZ
 70
     0
  9
$DIMALTTZ
 70
     0
  9
$DIMUPT
 70
     0
  9
$DIMDEC
 70
     1
  9
$DIMTDEC
 70
     1
  9
$DIMALTU
 70
     2
  9
$DIMALTTD
 70
     2
  9
$DIMTXSTY
  7
STYLE1
  9
$DIMAUNIT
 70
     0
  9
$DIMADEC
 70
     0
  9
$DIMALTRND
 40
0.0
  9
$DIMAZIN
 70
     0
  9
$DIMDSEP
 70
    46
  9
$DIMATFIT
 70
     3
  9
$DIMFRAC
 70
     0
  9
$DIMLDRBLK
  1

  9
$DIMLUNIT
 70
     2
  9
$DIMLWD
 70
    -2
  9
$DIMLWE
 70
    -2
  9
$DIMTMOVE
 70
     1
  9
$LUNITS
 70
     2
  9
$LUPREC
 70
     1
  9
$SKETCHINC
 40
1.0
  9
$FILLETRAD
 40
2.299999999999999
  9
$AUNITS
 70
     0
  9
$AUPREC
 70
     0
  9
$MENU
  1
acad
  9
$ELEVATION
 40
0.0
  9
$PELEVATION
 40
0.0
  9
$THICKNESS
 40
0.0
  9
$LIMCHECK
 70
     0
  9
$CHAMFERA
 40
3.0
  9
$CHAMFERB
 40
3.0
  9
$CHAMFERC
 40
0.0
  9
$CHAMFERD
 40
0.0
  9
$SKPOLY
 70
     0
  9
$TDCREATE
 40
2451368.612993866
  9
$TDUCREATE
 40
2451368.237993866
  9
$TDUPDATE
 40
2455552.735419375
  9
$TDUUPDATE
 40
2455552.360419375
  9
$TDINDWG
 40
1.6900836458
  9
$TDUSRTIMER
 40
1.6900836458
  9
$USRTIMER
 70
     1
  9
$ANGBASE
 50
0.0
  9
$ANGDIR
 70
     0
  9
$PDMODE
 70
     3
  9
$PDSIZE
 40
2.0
  9
$PLINEWID
 40
0.0
  9
$SPLFRAME
 70
     0
  9
$SPLINETYPE
 70
     6
  9
$SPLINESEGS
 70
     8
  9
$HANDSEED
  5
20251
  9
$SURFTAB1
 70
     6
  9
$SURFTAB2
 70
     6
  9
$SURFTYPE
 70
     6
  9
$SURFU
 70
     6
  9
$SURFV
 70
     6
  9
$UCSBASE
  2

  9
$UCSNAME
  2

  9
$UCSORG
 10
0.0
 20
0.0
 30
0.0
  9
$UCSXDIR
 10
1.0
 20
0.0
 30
0.0
  9
$UCSYDIR
 10
0.0
 20
1.0
 30
0.0
  9
$UCSORTHOREF
  2

  9
$UCSORTHOVIEW
 70
     0
  9
$UCSORGTOP
 10
0.0
 20
0.0
 30
0.0
  9
$UCSORGBOTTOM
 10
0.0
 20
0.0
 30
0.0
  9
$UCSORGLEFT
 10
0.0
 20
0.0
 30
0.0
  9
$UCSORGRIGHT
 10
0.0
 20
0.0
 30
0.0
  9
$UCSORGFRONT
 10
0.0
 20
0.0
 30
0.0
  9
$UCSORGBACK
 10
0.0
 20
0.0
 30
0.0
  9
$PUCSBASE
  2

  9
$PUCSNAME
  2

  9
$PUCSORG
 10
0.0
 20
0.0
 30
0.0
  9
$PUCSXDIR
 10
1.0
 20
0.0
 30
0.0
  9
$PUCSYDIR
 10
0.0
 20
1.0
 30
0.0
  9
$PUCSORTHOREF
  2

  9
$PUCSORTHOVIEW
 70
     0
  9
$PUCSORGTOP
 10
0.0
 20
0.0
 30
0.0
  9
$PUCSORGBOTTOM
 10
0.0
 20
0.0
 30
0.0
  9
$PUCSORGLEFT
 10
0.0
 20
0.0
 30
0.0
  9
$PUCSORGRIGHT
 10
0.0
 20
0.0
 30
0.0
  9
$PUCSORGFRONT
 10
0.0
 20
0.0
 30
0.0
  9
$PUCSORGBACK
 10
0.0
 20
0.0
 30
0.0
  9
$USERI1
 70
     0
  9
$USERI2
 70
     0
  9
$USERI3
 70
     0
  9
$USERI4
 70
     0
  9
$USERI5
 70
     0
  9
$USERR1
 40
0.0
  9
$USERR2
 40
0.0
  9
$USERR3
 40
0.0
  9
$USERR4
 40
0.0
  9
$USERR5
 40
0.0
  9
$WORLDVIEW
 70
     1
  9
$SHADEDGE
 70
     3
  9
$SHADEDIF
 70
    70
  9
$TILEMODE
 70
     1
  9
$MAXACTVP
 70
    16
  9
$PINSBASE
 10
0.0
 20
0.0
 30
0.0
  9
$PLIMCHECK
 70
     0
  9
$PEXTMIN
 10
1.000000000000000E+20
 20
1.000000000000000E+20
 30
1.000000000000000E+20
  9
$PEXTMAX
 10
-1.000000000000000E+20
 20
-1.000000000000000E+20
 30
-1.000000000000000E+20
  9
$PLIMMIN
 10
0.0
 20
0.0
  9
$PLIMMAX
 10
420.0
 20
297.0
  9
$UNITMODE
 70
     0
  9
$VISRETAIN
 70
     0
  9
$PLINEGEN
 70
     0
  9
$PSLTSCALE
 70
     0
  9
$TREEDEPTH
 70
  3020
  9
$CMLSTYLE
  2
STANDARD
  9
$CMLJUST
 70
     0
  9
$CMLSCALE
 40
1.0
  9
$PROXYGRAPHICS
 70
     1
  9
$MEASUREMENT
 70
     1
  9
$CELWEIGHT
370
    -1
  9
$ENDCAPS
280
     0
  9
$JOINSTYLE
280
     0
  9
$LWDISPLAY
290
     0
  9
$INSUNITS
 70
     0
  9
$HYPERLINKBASE
  1

  9
$STYLESHEET
  1
inaba.ctb
  9
$XEDIT
290
     1
  9
$CEPSNTYPE
380
     0
  9
$PSTYLEMODE
290
     1
  9
$FINGERPRINTGUID
  2
{3B57B35E-7D77-4BBF-81B7-6C583B9EB24C}
  9
$VERSIONGUID
  2
{726FE5D9-1FBA-4222-B4CD-FA578691C035}
  9
$EXTNAMES
290
     1
  9
$PSVPSCALE
 40
0.0
  9
$OLESTARTUP
290
     0
  0
ENDSEC
  0
SECTION
  2
CLASSES
  0
CLASS
  1
ACDBDICTIONARYWDFLT
  2
AcDbDictionaryWithDefault
  3
ObjectDBX Classes
 90
        0
280
     0
281
     0
  0
CLASS
  1
DICTIONARYVAR
  2
AcDbDictionaryVar
  3
ObjectDBX Classes
 90
        0
280
     0
281
     0
  0
CLASS
  1
ACDBPLACEHOLDER
  2
AcDbPlaceHolder
  3
ObjectDBX Classes
 90
        0
280
     0
281
     0
  0
CLASS
  1
LAYOUT
  2
AcDbLayout
  3
ObjectDBX Classes
 90
        0
280
     0
281
     0
  0
ENDSEC
  0
SECTION
  2
TABLES
  0
TABLE
  2
VPORT
  5
746D
330
0
100
AcDbSymbolTable
 70
     2
  0
VPORT
  5
20249
330
746D
100
AcDbSymbolTableRecord
100
AcDbViewportTableRecord
  2
*Active
 70
     0
 10
0.0
 20
0.0
 11
1.0
 21
1.0
 12
8223.761025238502
 22
5704.618465488666
 13
0.0
 23
0.0
 14
10.0
 24
10.0
 15
10.0
 25
10.0
 16
0.0
 26
0.0
 36
1.0
 17
0.0
 27
0.0
 37
0.0
 40
11496.05040782101
 41
1.5075
 42
50.0
 43
0.0
 44
0.0
 50
0.0
 51
0.0
 71
     0
 72
     0
 73
     1
 74
     0
 75
     0
 76
     0
 77
     0
 78
     0
281
     0
 65
     1
110
0.0
120
0.0
130
0.0
111
1.0
121
0.0
131
0.0
112
0.0
122
1.0
132
0.0
 79
     0
146
0.0
  0
ENDTAB
  0
TABLE
  2
LTYPE
  5
746A
330
0
100
AcDbSymbolTable
 70
     4
  0
LTYPE
  5
7477
330
746A
100
AcDbSymbolTableRecord
100
AcDbLinetypeTableRecord
  2
BYBLOCK
 70
     0
  3

 72
    65
 73
     0
 40
0.0
  0
LTYPE
  5
7478
330
746A
100
AcDbSymbolTableRecord
100
AcDbLinetypeTableRecord
  2
BYLAYER
 70
     0
  3

 72
    65
 73
     0
 40
0.0
  0
LTYPE
  5
7479
330
746A
100
AcDbSymbolTableRecord
100
AcDbLinetypeTableRecord
  2
CONTINUOUS
 70
     0
  3
Solid line
 72
    65
 73
     0
 40
0.0
  0
LTYPE
  5
7816
330
746A
100
AcDbSymbolTableRecord
100
AcDbLinetypeTableRecord
  2
CENTER
 70
     0
  3
____ _ ____ _ ____ _ ____ _ ____ _ ____ _ ____ 
 72
    65
 73
     4
 40
2.0
 49
1.25
 74
     0
 49
-0.25
 74
     0
 49
0.25
 74
     0
 49
-0.25
 74
     0
  0
LTYPE
  5
781A
330
746A
100
AcDbSymbolTableRecord
100
AcDbLinetypeTableRecord
  2
HIDDEN
 70
     0
  3
__ __ __ __ __ __ __ __ __ __ __ __ __ __ __ __
 72
    65
 73
     2
 40
0.375
 49
0.25
 74
     0
 49
-0.125
 74
     0
  0
LTYPE
  5
781B
330
746A
100
AcDbSymbolTableRecord
100
AcDbLinetypeTableRecord
  2
PHANTOM
 70
     0
  3
______  __  __  ______  __  __  ______  __  __ 
 72
    65
 73
     6
 40
2.5
 49
1.25
 74
     0
 49
-0.25
 74
     0
 49
0.25
 74
     0
 49
-0.25
 74
     0
 49
0.25
 74
     0
 49
-0.25
 74
     0
  0
ENDTAB
  0
TABLE
  2
LAYER
  5
7467
102
{ACAD_XDICTIONARY
360
1FF5A
102
}
330
0
100
AcDbSymbolTable
 70
    13
  0
LAYER
  5
7474
330
7467
100
AcDbSymbolTableRecord
100
AcDbLayerTableRecord
  2
0
 70
     0
 62
     7
  6
CONTINUOUS
370
    -3
390
159AE
  0
LAYER
  5
DEB2
330
7467
100
AcDbSymbolTableRecord
100
AcDbLayerTableRecord
  2
センター
 70
     0
 62
     3
  6
CENTER
370
    -3
390
159AE
  0
LAYER
  5
DEB3
330
7467
100
AcDbSymbolTableRecord
100
AcDbLayerTableRecord
  2
寸法
 70
     0
 62
     4
  6
CONTINUOUS
370
    -3
390
159AE
  0
LAYER
  5
DEB4
330
7467
100
AcDbSymbolTableRecord
100
AcDbLayerTableRecord
  2
部品1
 70
     0
 62
     7
  6
CONTINUOUS
370
    -3
390
159AE
  0
LAYER
  5
DEB5
330
7467
100
AcDbSymbolTableRecord
100
AcDbLayerTableRecord
  2
補助
 70
     0
 62
    -1
  6
CONTINUOUS
370
    -3
390
159AE
  0
LAYER
  5
DEB6
330
7467
100
AcDbSymbolTableRecord
100
AcDbLayerTableRecord
  2
文字
 70
     0
 62
     7
  6
CONTINUOUS
370
    -3
390
159AE
  0
LAYER
  5
F255
330
7467
100
AcDbSymbolTableRecord
100
AcDbLayerTableRecord
  2
DEFPOINTS
 70
     0
 62
     7
  6
CONTINUOUS
290
     0
370
    -3
390
159AE
  0
LAYER
  5
10B54
330
7467
100
AcDbSymbolTableRecord
100
AcDbLayerTableRecord
  2
仕様書枠
 70
     0
 62
   230
  6
CONTINUOUS
370
    -3
390
159AE
  0
LAYER
  5
11729
330
7467
100
AcDbSymbolTableRecord
100
AcDbLayerTableRecord
  2
Ｇ．Ｌ
 70
     0
 62
    30
  6
CONTINUOUS
370
    -3
390
159AE
  0
LAYER
  5
1173F
330
7467
100
AcDbSymbolTableRecord
100
AcDbLayerTableRecord
  2
細線
 70
     0
 62
     5
  6
CONTINUOUS
370
    -3
390
159AE
  0
LAYER
  5
12CC4
330
7467
100
AcDbSymbolTableRecord
100
AcDbLayerTableRecord
  2
想像線
 70
     0
 62
     6
  6
PHANTOM
370
    -3
390
159AE
  0
LAYER
  5
142E2
330
7467
100
AcDbSymbolTableRecord
100
AcDbLayerTableRecord
  2
破線
 70
     0
 62
     2
  6
HIDDEN
370
    -3
390
159AE
  0
LAYER
  5
1FBDB
330
7467
100
AcDbSymbolTableRecord
100
AcDbLayerTableRecord
  2
点線
 70
     0
 62
     2
  6
HIDDEN
370
    -3
390
159AE
  0
ENDTAB
  0
TABLE
  2
STYLE
  5
7468
330
0
100
AcDbSymbolTable
 70
     4
  0
STYLE
  5
7475
330
7468
100
AcDbSymbolTableRecord
100
AcDbTextStyleTableRecord
  2
STANDARD
 70
     0
 40
0.0
 41
1.0
 50
0.0
 71
     0
 42
4.0
  3
txt
  4
C:\AutoCAD LT\bigfont.shx
  0
STYLE
  5
F706
330
7468
100
AcDbSymbolTableRecord
100
AcDbTextStyleTableRecord
  2
STYLE1
 70
     0
 40
0.0
 41
1.0
 50
0.0
 71
     0
 42
100.0
  3
isocp.shx
  4
bigfont.shx
  0
STYLE
  5
103BF
330
7468
100
AcDbSymbolTableRecord
100
AcDbTextStyleTableRecord
  2
STYLE2
 70
     0
 40
0.0
 41
1.0
 50
0.0
 71
     0
 42
100.0
  3
MS PGothic.ttf
  4

1001
ACAD
1000
MS PGothic
1071
    32818
  0
STYLE
  5
1FBDC
330
7468
100
AcDbSymbolTableRecord
100
AcDbTextStyleTableRecord
  2
丸ゴシック
 70
     0
 40
0.0
 41
1.0
 50
0.0
 71
     0
 42
150.0
  3
HGRSMP.TTF
  4

1001
ACAD
1000
HG丸ｺﾞｼｯｸM-PRO
1071
    32818
  0
ENDTAB
  0
TABLE
  2
VIEW
  5
746B
330
0
100
AcDbSymbolTable
 70
     0
  0
ENDTAB
  0
TABLE
  2
UCS
  5
746C
330
0
100
AcDbSymbolTable
 70
     0
  0
ENDTAB
  0
TABLE
  2
APPID
  5
746E
330
0
100
AcDbSymbolTable
 70
     6
  0
APPID
  5
7476
330
746E
100
AcDbSymbolTableRecord
100
AcDbRegAppTableRecord
  2
ACAD
 70
     0
  0
APPID
  5
DEA9
330
746E
100
AcDbSymbolTableRecord
100
AcDbRegAppTableRecord
  2
CONTENTBLOCKICON
 70
     0
  0
APPID
  5
DEAA
330
746E
100
AcDbSymbolTableRecord
100
AcDbRegAppTableRecord
  2
CONTENTBLOCKDESCRIPTION
 70
     0
  0
APPID
  5
E71D
330
746E
100
AcDbSymbolTableRecord
100
AcDbRegAppTableRecord
  2
CONTENTTABDATA
 70
     0
  0
APPID
  5
E71E
330
746E
100
AcDbSymbolTableRecord
100
AcDbRegAppTableRecord
  2
CONTENTCURRENTTAB
 70
     0
  0
APPID
  5
F3BA
330
746E
100
AcDbSymbolTableRecord
100
AcDbRegAppTableRecord
  2
DRAWINGVARIABLESXDATA
 70
     0
  0
ENDTAB
  0
TABLE
  2
DIMSTYLE
  5
746F
330
0
100
AcDbSymbolTable
 70
     3
100
AcDbDimStyleTable
 71
     1
340
F71F
  0
DIMSTYLE
105
F71F
102
{ACAD_REACTORS
330
1FFF7
330
1FFF8
330
1FFF9
330
20021
330
20022
330
20023
102
}
330
746F
100
AcDbSymbolTableRecord
100
AcDbDimStyleTableRecord
  2
INABA_S40G
 70
     0
 40
40.0
 41
2.5
 42
0.5
 43
7.0
 44
1.5
 73
     0
 74
     0
 77
     3
 78
     8
140
3.0
141
0.0
143
0.0394
147
1.0
172
     1
173
     1
174
     1
178
     7
271
     1
288
     1
340
F706
341
F770
343
F770
344
F770
  0
DIMSTYLE
105
1C645
330
746F
100
AcDbSymbolTableRecord
100
AcDbDimStyleTableRecord
  2
INABA_S50G
 70
     0
 40
0.0
 41
125.0
 42
25.0
 43
7.0
 44
75.0
 73
     0
 74
     0
 77
     3
 78
     8
140
150.0
141
0.0
143
0.0394
147
25.0
172
     1
173
     1
174
     1
178
     7
271
     1
340
F706
341
F770
343
F770
344
F770
  0
DIMSTYLE
105
1FBDD
330
746F
100
AcDbSymbolTableRecord
100
AcDbDimStyleTableRecord
  2
INABA_S10G
 70
     0
 40
0.2
 41
625.0
 42
125.0
 43
7.0
 44
375.0
 73
     0
 74
     0
 77
     3
 78
     8
140
750.0
141
0.0
143
0.0394
144
0.2
147
125.0
172
     1
173
     1
174
     1
175
     1
178
     7
271
     1
340
F706
341
F770
343
F770
344
F770
  0
ENDTAB
  0
TABLE
  2
BLOCK_RECORD
  5
7466
330
0
100
AcDbSymbolTable
 70
     9
  0
BLOCK_RECORD
  5
747D
330
7466
100
AcDbSymbolTableRecord
100
AcDbBlockTableRecord
  2
*MODEL_SPACE
340
159B3
  0
BLOCK_RECORD
  5
747A
330
7466
100
AcDbSymbolTableRecord
100
AcDbBlockTableRecord
  2
*PAPER_SPACE
340
159B4
  0
BLOCK_RECORD
  5
F770
330
7466
100
AcDbSymbolTableRecord
100
AcDbBlockTableRecord
  2
_DOTSMALL
340
0
102
{BLKREFS
331
1FD3F
331
20168
331
20169
331
20171
331
20172
331
2017A
331
2017B
331
20183
331
20184
331
2018E
331
2018F
331
20199
331
2019A
102
}
  0
BLOCK_RECORD
  5
1C530
330
7466
100
AcDbSymbolTableRecord
100
AcDbBlockTableRecord
  2
_NONE
340
0
  0
BLOCK_RECORD
  5
1FB64
330
7466
100
AcDbSymbolTableRecord
100
AcDbBlockTableRecord
  2
A$C48057142
340
0
  0
BLOCK_RECORD
  5
20066
330
7466
100
AcDbSymbolTableRecord
100
AcDbBlockTableRecord
  2
*D3
340
0
  0
BLOCK_RECORD
  5
20074
330
7466
100
AcDbSymbolTableRecord
100
AcDbBlockTableRecord
  2
*D4
340
0
  0
BLOCK_RECORD
  5
20082
330
7466
100
AcDbSymbolTableRecord
100
AcDbBlockTableRecord
  2
*D5
340
0
  0
BLOCK_RECORD
  5
2008E
330
7466
100
AcDbSymbolTableRecord
100
AcDbBlockTableRecord
  2
*D6
340
0
  0
BLOCK_RECORD
  5
2009A
330
7466
100
AcDbSymbolTableRecord
100
AcDbBlockTableRecord
  2
*D7
340
0
  0
BLOCK_RECORD
  5
200A6
330
7466
100
AcDbSymbolTableRecord
100
AcDbBlockTableRecord
  2
*D8
340
0
  0
ENDTAB
  0
ENDSEC
  0
SECTION
  2
BLOCKS
  0
BLOCK
  5
7489
330
747D
100
AcDbEntity
  8
0
100
AcDbBlockBegin
  2
*MODEL_SPACE
 70
     0
 10
0.0
 20
0.0
 30
0.0
  3
*MODEL_SPACE
  1

  0
ENDBLK
  5
748A
330
747D
100
AcDbEntity
  8
0
100
AcDbBlockEnd
  0
BLOCK
  5
7487
330
747A
100
AcDbEntity
 67
     1
  8
0
100
AcDbBlockBegin
  2
*PAPER_SPACE
 70
     0
 10
0.0
 20
0.0
 30
0.0
  3
*PAPER_SPACE
  1

  0
ENDBLK
  5
7488
330
747A
100
AcDbEntity
 67
     1
  8
0
100
AcDbBlockEnd
  0
BLOCK
  5
F771
330
F770
100
AcDbEntity
  8
0
 48
50.0
100
AcDbBlockBegin
  2
_DOTSMALL
 70
     0
 10
0.0
 20
0.0
 30
0.0
  3
_DOTSMALL
  1

  0
LWPOLYLINE
  5
F772
330
F770
100
AcDbEntity
  8
0
  6
ByBlock
 62
     0
 48
50.0
100
AcDbPolyline
 90
        2
 70
     1
 43
0.5
 10
-0.0625
 20
0.0
 42
1.0
 10
0.0625
 20
0.0
 42
1.0
  0
ENDBLK
  5
F776
330
F770
100
AcDbEntity
  8
0
 48
50.0
100
AcDbBlockEnd
  0
BLOCK
  5
1C531
330
1C530
100
AcDbEntity
  8
0
 48
50.0
100
AcDbBlockBegin
  2
_NONE
 70
     0
 10
0.0
 20
0.0
 30
0.0
  3
_NONE
  1

  0
CIRCLE
  5
1C532
330
1C530
100
AcDbEntity
  8
0
  6
ByBlock
 62
     0
 48
50.0
100
AcDbCircle
 10
0.0
 20
0.0
 30
0.0
 40
0.25
  0
ENDBLK
  5
1C533
330
1C530
100
AcDbEntity
  8
0
 48
50.0
100
AcDbBlockEnd
  0
BLOCK
  5
1FB65
330
1FB64
100
AcDbEntity
  8
0
 48
50.0
100
AcDbBlockBegin
  2
A$C48057142
 70
     0
 10
0.0
 20
0.0
 30
0.0
  3
A$C48057142
  1

  0
MTEXT
  5
1FB66
330
1FB64
100
AcDbEntity
  8
文字
  6
ByBlock
 62
     7
 48
50.0
100
AcDbMText
 10
10.00001602817974
 20
400.000006265207
 30
0.0
 40
150.0
 41
0.0
 71
     1
 72
     1
  1
組立後、\P床コンクリート打
  7
STYLE1
 73
     1
 44
1.0
1001
ACAD
1000
MTEXTBEGIN
1070
    73
1070
     1
1070
    44
1040
1.0
1070
    74
1070
     0
1000
MTEXTEND
  0
ENDBLK
  5
1FB67
330
1FB64
100
AcDbEntity
  8
0
 48
50.0
100
AcDbBlockEnd
  0
BLOCK
  5
20072
330
20066
100
AcDbEntity
  8
0
 48
50.0
100
AcDbBlockBegin
  2
*D3
 70
     1
 10
0.0
 20
0.0
 30
0.0
  3
*D3
  1

  0
LINE
  5
20194
330
20066
100
AcDbEntity
  8
寸法
 62
     0
 48
50.0
370
    -2
100
AcDbLine
 10
8313.21653512375
 20
7942.825397041052
 30
0.0
 11
8313.21653512375
 21
8749.377022843074
 31
0.0
  0
LINE
  5
20195
330
20066
100
AcDbEntity
  8
寸法
 62
     0
 48
50.0
370
    -2
100
AcDbLine
 10
8363.216535123751
 20
8022.825397041055
 30
0.0
 11
8363.216535123751
 21
8749.377022843074
 31
0.0
  0
LINE
  5
20196
330
20066
100
AcDbEntity
  8
寸法
 62
     0
 48
50.0
370
    -2
100
AcDbLine
 10
8313.21653512375
 20
8689.377022843073
 30
0.0
 11
8213.21653512375
 21
8689.377022843073
 31
0.0
  0
LINE
  5
20197
330
20066
100
AcDbEntity
  8
寸法
 62
     0
 48
50.0
370
    -2
100
AcDbLine
 10
8363.216535123751
 20
8689.377022843073
 30
0.0
 11
8463.21653512375
 21
8689.377022843073
 31
0.0
  0
LINE
  5
20198
330
20066
100
AcDbEntity
  8
寸法
 62
     0
 48
50.0
370
    -2
100
AcDbLine
 10
8313.21653512375
 20
8689.377022843073
 30
0.0
 11
8363.216535123751
 21
8689.377022843073
 31
0.0
  0
INSERT
  5
20199
330
20066
100
AcDbEntity
  8
寸法
 62
     0
 48
50.0
370
    -2
100
AcDbBlockReference
  2
_DOTSMALL
 10
8313.21653512375
 20
8689.377022843073
 30
0.0
 41
100.0
 42
100.0
 43
100.0
  0
INSERT
  5
2019A
330
20066
100
AcDbEntity
  8
寸法
 62
     0
 48
50.0
370
    -2
100
AcDbBlockReference
  2
_DOTSMALL
 10
8363.216535123751
 20
8689.377022843073
 30
0.0
 41
100.0
 42
100.0
 43
100.0
 50
180.0
  0
MTEXT
  5
2019B
330
20066
100
AcDbEntity
  8
寸法
 62
     7
 48
50.0
100
AcDbMText
 10
8338.21653512375
 20
8789.377022843074
 30
0.0
 40
120.0
 41
0.0
 71
     5
 72
     1
  1
\A1;a
  7
STYLE1
 73
     1
 44
1.0
1001
ACAD
1000
MTEXTBEGIN
1070
    73
1070
     1
1070
    44
1040
1.0
1070
    74
1070
     0
1000
MTEXTEND
  0
POINT
  5
2019C
330
20066
100
AcDbEntity
  8
DEFPOINTS
 62
     0
 48
50.0
100
AcDbPoint
 10
8313.21653512375
 20
7922.825397041052
 30
0.0
  0
POINT
  5
2019D
330
20066
100
AcDbEntity
  8
DEFPOINTS
 62
     0
 48
50.0
100
AcDbPoint
 10
8363.216535123751
 20
8002.825397041055
 30
0.0
  0
POINT
  5
2019E
330
20066
100
AcDbEntity
  8
DEFPOINTS
 62
     0
 48
50.0
100
AcDbPoint
 10
8363.216535123751
 20
8689.377022843073
 30
0.0
  0
ENDBLK
  5
20073
330
20066
100
AcDbEntity
  8
0
 48
50.0
100
AcDbBlockEnd
  0
BLOCK
  5
20080
330
20074
100
AcDbEntity
  8
0
 48
50.0
100
AcDbBlockBegin
  2
*D4
 70
     1
 10
0.0
 20
0.0
 30
0.0
  3
*D4
  1

  0
LINE
  5
20189
330
20074
100
AcDbEntity
  8
寸法
 62
     0
 48
50.0
370
    -2
100
AcDbLine
 10
6051.216535123751
 20
8022.825397041051
 30
0.0
 11
6051.216535123751
 21
8749.377022843074
 31
0.0
  0
LINE
  5
2018A
330
20074
100
AcDbEntity
  8
寸法
 62
     0
 48
50.0
370
    -2
100
AcDbLine
 10
6101.216535123751
 20
7942.825397041052
 30
0.0
 11
6101.216535123751
 21
8749.377022843074
 31
0.0
  0
LINE
  5
2018B
330
20074
100
AcDbEntity
  8
寸法
 62
     0
 48
50.0
370
    -2
100
AcDbLine
 10
6051.216535123751
 20
8689.377022843073
 30
0.0
 11
5951.216535123752
 21
8689.377022843073
 31
0.0
  0
LINE
  5
2018C
330
20074
100
AcDbEntity
  8
寸法
 62
     0
 48
50.0
370
    -2
100
AcDbLine
 10
6101.216535123751
 20
8689.377022843073
 30
0.0
 11
6201.216535123752
 21
8689.377022843073
 31
0.0
  0
LINE
  5
2018D
330
20074
100
AcDbEntity
  8
寸法
 62
     0
 48
50.0
370
    -2
100
AcDbLine
 10
6051.216535123751
 20
8689.377022843073
 30
0.0
 11
6101.216535123751
 21
8689.377022843073
 31
0.0
  0
INSERT
  5
2018E
330
20074
100
AcDbEntity
  8
寸法
 62
     0
 48
50.0
370
    -2
100
AcDbBlockReference
  2
_DOTSMALL
 10
6051.216535123751
 20
8689.377022843073
 30
0.0
 41
100.0
 42
100.0
 43
100.0
  0
INSERT
  5
2018F
330
20074
100
AcDbEntity
  8
寸法
 62
     0
 48
50.0
370
    -2
100
AcDbBlockReference
  2
_DOTSMALL
 10
6101.216535123751
 20
8689.377022843073
 30
0.0
 41
100.0
 42
100.0
 43
100.0
 50
180.0
  0
MTEXT
  5
20190
330
20074
100
AcDbEntity
  8
寸法
 62
     7
 48
50.0
100
AcDbMText
 10
6076.216535123752
 20
8789.377022843074
 30
0.0
 40
120.0
 41
0.0
 71
     5
 72
     1
  1
\A1;a
  7
STYLE1
 73
     1
 44
1.0
1001
ACAD
1000
MTEXTBEGIN
1070
    73
1070
     1
1070
    44
1040
1.0
1070
    74
1070
     0
1000
MTEXTEND
  0
POINT
  5
20191
330
20074
100
AcDbEntity
  8
DEFPOINTS
 62
     0
 48
50.0
100
AcDbPoint
 10
6051.216535123751
 20
8002.825397041052
 30
0.0
  0
POINT
  5
20192
330
20074
100
AcDbEntity
  8
DEFPOINTS
 62
     0
 48
50.0
100
AcDbPoint
 10
6101.216535123751
 20
7922.825397041052
 30
0.0
  0
POINT
  5
20193
330
20074
100
AcDbEntity
  8
DEFPOINTS
 62
     0
 48
50.0
100
AcDbPoint
 10
6101.216535123751
 20
8689.377022843073
 30
0.0
  0
ENDBLK
  5
20081
330
20074
100
AcDbEntity
  8
0
 48
50.0
100
AcDbBlockEnd
  0
BLOCK
  5
2008C
330
20082
100
AcDbEntity
  8
0
 48
50.0
100
AcDbBlockBegin
  2
*D5
 70
     1
 10
0.0
 20
0.0
 30
0.0
  3
*D5
  1

  0
LINE
  5
20180
330
20082
100
AcDbEntity
  8
寸法
 62
     0
 48
50.0
370
    -2
100
AcDbLine
 10
6101.216535123751
 20
7942.825397041052
 30
0.0
 11
6101.216535123751
 21
8749.377022843074
 31
0.0
  0
LINE
  5
20181
330
20082
100
AcDbEntity
  8
寸法
 62
     0
 48
50.0
370
    -2
100
AcDbLine
 10
8313.21653512375
 20
7942.825397041052
 30
0.0
 11
8313.21653512375
 21
8749.377022843074
 31
0.0
  0
LINE
  5
20182
330
20082
100
AcDbEntity
  8
寸法
 62
     0
 48
50.0
370
    -2
100
AcDbLine
 10
6101.216535123751
 20
8689.377022843073
 30
0.0
 11
8313.21653512375
 21
8689.377022843073
 31
0.0
  0
INSERT
  5
20183
330
20082
100
AcDbEntity
  8
寸法
 62
     0
 48
50.0
370
    -2
100
AcDbBlockReference
  2
_DOTSMALL
 10
6101.216535123751
 20
8689.377022843073
 30
0.0
 41
100.0
 42
100.0
 43
100.0
 50
180.0
  0
INSERT
  5
20184
330
20082
100
AcDbEntity
  8
寸法
 62
     0
 48
50.0
370
    -2
100
AcDbBlockReference
  2
_DOTSMALL
 10
8313.21653512375
 20
8689.377022843073
 30
0.0
 41
100.0
 42
100.0
 43
100.0
  0
MTEXT
  5
20185
330
20082
100
AcDbEntity
  8
寸法
 62
     7
 48
50.0
100
AcDbMText
 10
7194.741005201031
 20
8789.388833866695
 30
0.0
 40
120.0
 41
0.0
 71
     5
 72
     1
  1
\A1;2212
  7
STYLE1
 73
     1
 44
1.0
1001
ACAD
1000
MTEXTBEGIN
1070
    73
1070
     1
1070
    44
1040
1.0
1070
    74
1070
     0
1000
MTEXTEND
  0
POINT
  5
20186
330
20082
100
AcDbEntity
  8
DEFPOINTS
 62
     0
 48
50.0
100
AcDbPoint
 10
6101.216535123751
 20
7922.825397041052
 30
0.0
  0
POINT
  5
20187
330
20082
100
AcDbEntity
  8
DEFPOINTS
 62
     0
 48
50.0
100
AcDbPoint
 10
8313.21653512375
 20
7922.825397041052
 30
0.0
  0
POINT
  5
20188
330
20082
100
AcDbEntity
  8
DEFPOINTS
 62
     0
 48
50.0
100
AcDbPoint
 10
8313.21653512375
 20
8689.377022843073
 30
0.0
  0
ENDBLK
  5
2008D
330
20082
100
AcDbEntity
  8
0
 48
50.0
100
AcDbBlockEnd
  0
BLOCK
  5
20098
330
2008E
100
AcDbEntity
  8
0
 48
50.0
100
AcDbBlockBegin
  2
*D6
 70
     1
 10
0.0
 20
0.0
 30
0.0
  3
*D6
  1

  0
LINE
  5
20177
330
2008E
100
AcDbEntity
  8
寸法
 62
     0
 48
50.0
370
    -2
100
AcDbLine
 10
6031.216535123751
 20
8002.82539704105
 30
0.0
 11
5600.5046516745
 21
8002.82539704105
 31
0.0
  0
LINE
  5
20178
330
2008E
100
AcDbEntity
  8
寸法
 62
     0
 48
50.0
370
    -2
100
AcDbLine
 10
6081.216535123751
 20
7922.825397041049
 30
0.0
 11
5600.5046516745
 21
7922.825397041049
 31
0.0
  0
LINE
  5
20179
330
2008E
100
AcDbEntity
  8
寸法
 62
     0
 48
50.0
370
    -2
100
AcDbLine
 10
5660.5046516745
 20
8002.82539704105
 30
0.0
 11
5660.5046516745
 21
7922.825397041049
 31
0.0
  0
INSERT
  5
2017A
330
2008E
100
AcDbEntity
  8
寸法
 62
     0
 48
50.0
370
    -2
100
AcDbBlockReference
  2
_DOTSMALL
 10
5660.5046516745
 20
8002.82539704105
 30
0.0
 41
100.0
 42
100.0
 43
100.0
 50
90.0
  0
INSERT
  5
2017B
330
2008E
100
AcDbEntity
  8
寸法
 62
     0
 48
50.0
370
    -2
100
AcDbBlockReference
  2
_DOTSMALL
 10
5660.5046516745
 20
7922.825397041049
 30
0.0
 41
100.0
 42
100.0
 43
100.0
 50
270.0
  0
MTEXT
  5
2017C
330
2008E
100
AcDbEntity
  8
寸法
 62
     7
 48
50.0
100
AcDbMText
 10
5560.5046516745
 20
7962.825397041051
 30
0.0
 40
120.0
 41
0.0
 71
     5
 72
     1
  1
\A1;c
  7
STYLE1
 11
0.0000000000000001
 21
1.0
 31
0.0
 73
     1
 44
1.0
1001
ACAD
1000
MTEXTBEGIN
1070
    73
1070
     1
1070
    44
1040
1.0
1070
    74
1070
     0
1000
MTEXTEND
  0
POINT
  5
2017D
330
2008E
100
AcDbEntity
  8
DEFPOINTS
 62
     0
 48
50.0
100
AcDbPoint
 10
6051.216535123751
 20
8002.82539704105
 30
0.0
  0
POINT
  5
2017E
330
2008E
100
AcDbEntity
  8
DEFPOINTS
 62
     0
 48
50.0
100
AcDbPoint
 10
6101.216535123751
 20
7922.825397041049
 30
0.0
  0
POINT
  5
2017F
330
2008E
100
AcDbEntity
  8
DEFPOINTS
 62
     0
 48
50.0
100
AcDbPoint
 10
5660.5046516745
 20
7922.825397041049
 30
0.0
  0
ENDBLK
  5
20099
330
2008E
100
AcDbEntity
  8
0
 48
50.0
100
AcDbBlockEnd
  0
BLOCK
  5
200A4
330
2009A
100
AcDbEntity
  8
0
 48
50.0
100
AcDbBlockBegin
  2
*D7
 70
     1
 10
0.0
 20
0.0
 30
0.0
  3
*D7
  1

  0
LINE
  5
2016E
330
2009A
100
AcDbEntity
  8
寸法
 62
     0
 48
50.0
370
    -2
100
AcDbLine
 10
6081.216535123751
 20
7922.825397041049
 30
0.0
 11
5600.5046516745
 21
7922.825397041049
 31
0.0
  0
LINE
  5
2016F
330
2009A
100
AcDbEntity
  8
寸法
 62
     0
 48
50.0
370
    -2
100
AcDbLine
 10
6081.216535123751
 20
6550.825397041049
 30
0.0
 11
5600.5046516745
 21
6550.825397041049
 31
0.0
  0
LINE
  5
20170
330
2009A
100
AcDbEntity
  8
寸法
 62
     0
 48
50.0
370
    -2
100
AcDbLine
 10
5660.5046516745
 20
7922.825397041049
 30
0.0
 11
5660.5046516745
 21
6550.825397041049
 31
0.0
  0
INSERT
  5
20171
330
2009A
100
AcDbEntity
  8
寸法
 62
     0
 48
50.0
370
    -2
100
AcDbBlockReference
  2
_DOTSMALL
 10
5660.5046516745
 20
7922.825397041049
 30
0.0
 41
100.0
 42
100.0
 43
100.0
 50
90.0
  0
INSERT
  5
20172
330
2009A
100
AcDbEntity
  8
寸法
 62
     0
 48
50.0
370
    -2
100
AcDbBlockReference
  2
_DOTSMALL
 10
5660.5046516745
 20
6550.825397041049
 30
0.0
 41
100.0
 42
100.0
 43
100.0
 50
270.0
  0
MTEXT
  5
20173
330
2009A
100
AcDbEntity
  8
寸法
 62
     7
 48
50.0
100
AcDbMText
 10
5560.492840650876
 20
7236.825397041051
 30
0.0
 40
120.0
 41
0.0
 71
     5
 72
     1
  1
\A1;1372
  7
STYLE1
 11
0.0000000000000001
 21
1.0
 31
0.0
 73
     1
 44
1.0
1001
ACAD
1000
MTEXTBEGIN
1070
    73
1070
     1
1070
    44
1040
1.0
1070
    74
1070
     0
1000
MTEXTEND
  0
POINT
  5
20174
330
2009A
100
AcDbEntity
  8
DEFPOINTS
 62
     0
 48
50.0
100
AcDbPoint
 10
6101.216535123751
 20
7922.825397041049
 30
0.0
  0
POINT
  5
20175
330
2009A
100
AcDbEntity
  8
DEFPOINTS
 62
     0
 48
50.0
100
AcDbPoint
 10
6101.216535123751
 20
6550.825397041049
 30
0.0
  0
POINT
  5
20176
330
2009A
100
AcDbEntity
  8
DEFPOINTS
 62
     0
 48
50.0
100
AcDbPoint
 10
5660.5046516745
 20
6550.825397041049
 30
0.0
  0
ENDBLK
  5
200A5
330
2009A
100
AcDbEntity
  8
0
 48
50.0
100
AcDbBlockEnd
  0
BLOCK
  5
200B2
330
200A6
100
AcDbEntity
  8
0
 48
50.0
100
AcDbBlockBegin
  2
*D8
 70
     1
 10
0.0
 20
0.0
 30
0.0
  3
*D8
  1

  0
LINE
  5
20163
330
200A6
100
AcDbEntity
  8
寸法
 62
     0
 48
50.0
370
    -2
100
AcDbLine
 10
6081.216535123751
 20
6550.825397041049
 30
0.0
 11
5600.504651674501
 21
6550.825397041049
 31
0.0
  0
LINE
  5
20164
330
200A6
100
AcDbEntity
  8
寸法
 62
     0
 48
50.0
370
    -2
100
AcDbLine
 10
6031.216535123751
 20
6490.825397041049
 30
0.0
 11
5600.504651674501
 21
6490.825397041049
 31
0.0
  0
LINE
  5
20165
330
200A6
100
AcDbEntity
  8
寸法
 62
     0
 48
50.0
370
    -2
100
AcDbLine
 10
5660.504651674501
 20
6550.825397041049
 30
0.0
 11
5660.504651674501
 21
6650.82539704105
 31
0.0
  0
LINE
  5
20166
330
200A6
100
AcDbEntity
  8
寸法
 62
     0
 48
50.0
370
    -2
100
AcDbLine
 10
5660.504651674501
 20
6490.825397041049
 30
0.0
 11
5660.504651674501
 21
6390.82539704105
 31
0.0
  0
LINE
  5
20167
330
200A6
100
AcDbEntity
  8
寸法
 62
     0
 48
50.0
370
    -2
100
AcDbLine
 10
5660.504651674501
 20
6550.825397041049
 30
0.0
 11
5660.504651674501
 21
6490.825397041049
 31
0.0
  0
INSERT
  5
20168
330
200A6
100
AcDbEntity
  8
寸法
 62
     0
 48
50.0
370
    -2
100
AcDbBlockReference
  2
_DOTSMALL
 10
5660.504651674501
 20
6550.825397041049
 30
0.0
 41
100.0
 42
100.0
 43
100.0
 50
270.0
  0
INSERT
  5
20169
330
200A6
100
AcDbEntity
  8
寸法
 62
     0
 48
50.0
370
    -2
100
AcDbBlockReference
  2
_DOTSMALL
 10
5660.504651674501
 20
6490.825397041049
 30
0.0
 41
100.0
 42
100.0
 43
100.0
 50
90.0
  0
MTEXT
  5
2016A
330
200A6
100
AcDbEntity
  8
寸法
 62
     7
 48
50.0
100
AcDbMText
 10
5560.5046516745
 20
6520.825397041051
 30
0.0
 40
120.0
 41
0.0
 71
     5
 72
     1
  1
\A1;b
  7
STYLE1
 11
0.0000000000000001
 21
1.0
 31
0.0
 73
     1
 44
1.0
1001
ACAD
1000
MTEXTBEGIN
1070
    73
1070
     1
1070
    44
1040
1.0
1070
    74
1070
     0
1000
MTEXTEND
  0
POINT
  5
2016B
330
200A6
100
AcDbEntity
  8
DEFPOINTS
 62
     0
 48
50.0
100
AcDbPoint
 10
6101.216535123751
 20
6550.825397041049
 30
0.0
  0
POINT
  5
2016C
330
200A6
100
AcDbEntity
  8
DEFPOINTS
 62
     0
 48
50.0
100
AcDbPoint
 10
6051.216535123751
 20
6490.825397041049
 30
0.0
  0
POINT
  5
2016D
330
200A6
100
AcDbEntity
  8
DEFPOINTS
 62
     0
 48
50.0
100
AcDbPoint
 10
5660.504651674501
 20
6490.825397041049
 30
0.0
  0
ENDBLK
  5
200B3
330
200A6
100
AcDbEntity
  8
0
 48
50.0
100
AcDbBlockEnd
  0
ENDSEC
  0
SECTION
  2
ENTITIES
  0
LINE
  5
10B57
330
747D
100
AcDbEntity
  8
補助
  6
PHANTOM
 62
   230
 48
50.0
100
AcDbLine
 10
139.9999999999995
 20
11409.6
 30
0.0
 11
16307.2
 21
11409.6
 31
0.0
  0
LINE
  5
10B59
330
747D
100
AcDbEntity
  8
仕様書枠
  6
Continuous
 48
50.0
100
AcDbLine
 10
13107.2
 20
1200.0
 30
0.0
 11
13107.2
 21
-0.0000000000000729
 31
0.0
  0
LINE
  5
10B5C
330
747D
100
AcDbEntity
  8
仕様書枠
 48
50.0
100
AcDbLine
 10
16307.2
 20
1200.0
 30
0.0
 11
16307.2
 21
-0.0000000000000909
 31
0.0
  0
LINE
  5
10B5D
330
747D
100
AcDbEntity
  8
仕様書枠
 48
50.0
100
AcDbLine
 10
140.0
 20
0.0
 30
0.0
 11
16307.2
 21
-0.0000000000000909
 31
0.0
  0
LINE
  5
10B5E
330
747D
100
AcDbEntity
  8
補助
  6
PHANTOM
 62
   230
 48
50.0
100
AcDbLine
 10
16307.2
 20
11409.6
 30
0.0
 11
16307.2
 21
1200.0
 31
0.0
  0
LINE
  5
10B6C
330
747D
100
AcDbEntity
  8
仕様書枠
 48
50.0
100
AcDbLine
 10
13107.2
 20
1200.0
 30
0.0
 11
16307.2
 21
1200.0
 31
0.0
  0
LINE
  5
10B6D
330
747D
100
AcDbEntity
  8
補助
  6
PHANTOM
 62
   230
 48
50.0
100
AcDbLine
 10
13107.2
 20
11409.6
 30
0.0
 11
13107.2
 21
4800.0
 31
0.0
  0
LINE
  5
10B6F
330
747D
100
AcDbEntity
  8
補助
  6
PHANTOM
 62
   230
 48
50.0
100
AcDbLine
 10
13107.2
 20
4800.0
 30
0.0
 11
16307.2
 21
4800.0
 31
0.0
  0
LINE
  5
10B72
330
747D
100
AcDbEntity
  8
文字
 62
     7
 48
50.0
100
AcDbLine
 10
13187.2
 20
400.0
 30
0.0
 11
16227.2
 21
400.0
 31
0.0
  0
TEXT
  5
10B73
330
747D
100
AcDbEntity
  8
文字
 62
     7
 48
50.0
100
AcDbText
 10
13162.9790565769
 20
895.0906074299405
 30
0.0
 40
200.0
  1
基 礎 図
  7
STYLE2
100
AcDbText
  0
TEXT
  5
10B74
330
747D
100
AcDbEntity
  8
文字
 62
     7
 48
50.0
100
AcDbText
 10
13201.43669998441
 20
477.2740661031255
 30
0.0
 40
160.0
  1
機種名
  7
STYLE2
100
AcDbText
  0
TEXT
  5
10B79
330
747D
100
AcDbEntity
  8
文字
 62
     7
 48
50.0
100
AcDbText
 10
14524.131837222
 20
1031.557706291228
 30
0.0
 40
100.0
  1
NO.01      <縮尺> S=1/40
  7
STYLE2
100
AcDbText
  0
LINE
  5
10B7B
330
747D
100
AcDbEntity
  8
仕様書枠
 48
50.0
100
AcDbLine
 10
13107.2
 20
800.0
 30
0.0
 11
14251.2
 21
800.0
 31
0.0
  0
LINE
  5
10B88
330
747D
100
AcDbEntity
  8
仕様書枠
  6
Continuous
 48
50.0
100
AcDbLine
 10
14251.2
 20
1200.0
 30
0.0
 11
14251.2
 21
800.0
 31
0.0
  0
TEXT
  5
14DEF
330
747D
100
AcDbEntity
  8
文字
 62
     7
 48
50.0
100
AcDbText
 10
14641.2525855784
 20
871.1744590657925
 30
0.0
 40
100.0
  1
～一般型・多雪地型～
  7
STYLE2
100
AcDbText
  0
TEXT
  5
15A76
330
747D
100
AcDbEntity
  8
文字
 62
     7
 48
50.0
100
AcDbText
 10
14448.51912655987
 20
483.8967129911411
 30
0.0
 40
160.0
  1
ＮＸＮ－３０ＳＧ
  7
STYLE2
100
AcDbText
  0
TEXT
  5
1D002
330
747D
100
AcDbEntity
  8
文字
 62
     7
 48
50.0
100
AcDbText
 10
13188.16259899338
 20
246.7109242801889
 30
0.0
 40
80.0
  1
※寒冷地等は地域の実情に合わせた基礎にして下さい。
  7
STYLE2
100
AcDbText
  0
LINE
  5
1FCB0
330
747D
100
AcDbEntity
  8
寸法
 48
50.0
100
AcDbLine
 10
6427.718947017321
 20
3407.706589613824
 30
0.0
 11
9483.312363566755
 21
3407.706589613824
 31
0.0
  0
TEXT
  5
1FCB1
330
747D
100
AcDbEntity
  8
部品1
 62
     7
100
AcDbText
 10
6447.718947017321
 20
3449.665352500422
 30
0.0
 40
120.0
  1
組立後、土台上面まで土間コンクリート打
  7
丸ゴシック
100
AcDbText
  0
LWPOLYLINE
  5
1FCB3
330
747D
100
AcDbEntity
  8
点線
 62
     7
 48
50.0
100
AcDbPolyline
 90
        4
 70
     1
 43
0.0
 10
6515.512214225449
 20
3316.26127051287
 10
9445.604670820936
 20
3316.26127051287
 10
9445.604670820936
 20
2777.37559219768
 10
6515.512214225449
 20
2777.37559219768
  0
TEXT
  5
1FCB4
330
747D
100
AcDbEntity
  8
文字
 62
     7
 48
50.0
100
AcDbText
 10
6550.705835712071
 20
2835.678039304504
 30
0.0
 40
120.0
  1
工事が必要になります。
  7
丸ゴシック
100
AcDbText
  0
TEXT
  5
1FCB5
330
747D
100
AcDbEntity
  8
文字
 62
     7
 48
50.0
100
AcDbText
 10
6550.705835712071
 20
2994.028554768421
 30
0.0
 40
120.0
  1
付属のアンカープレートによる転倒防止
  7
丸ゴシック
100
AcDbText
  0
TEXT
  5
1FCB6
330
747D
100
AcDbEntity
  8
文字
 62
     7
 48
50.0
100
AcDbText
 10
6550.705835712071
 20
3152.379070232339
 30
0.0
 40
120.0
  1
土台上面まで土間打ちをしない場合は、
  7
丸ゴシック
100
AcDbText
  0
LINE
  5
1FCB9
330
747D
100
AcDbEntity
  8
細線
 48
25.0
100
AcDbLine
 10
5835.802787233735
 20
2188.530086985439
 30
0.0
 11
5587.802787233707
 21
2436.53008698545
 31
0.0
  0
LINE
  5
1FCBA
330
747D
100
AcDbEntity
  8
細線
 48
25.0
100
AcDbLine
 10
5790.901506628399
 20
2188.530086985439
 30
0.0
 11
5542.901506628387
 21
2436.53008698545
 31
0.0
  0
LINE
  5
1FCBB
330
747D
100
AcDbEntity
  8
細線
 48
25.0
100
AcDbLine
 10
5746.000226023051
 20
2188.530086985439
 30
0.0
 11
5498.000226023042
 21
2436.53008698545
 31
0.0
  0
LINE
  5
1FCBC
330
747D
100
AcDbEntity
  8
部品1
 62
     7
 48
50.0
100
AcDbLine
 10
5491.457634753176
 20
2436.530086985442
 30
0.0
 11
7559.701445925593
 21
2436.530086985442
 31
0.0
  0
LINE
  5
1FCBD
330
747D
100
AcDbEntity
  8
部品1
 62
     7
 48
50.0
100
AcDbLine
 10
6074.308378938524
 20
1914.573211202327
 30
0.0
 11
7586.416056105537
 21
1914.573211202327
 31
0.0
  0
LINE
  5
1FCBE
330
747D
100
AcDbEntity
  8
部品1
 62
     7
 48
50.0
100
AcDbLine
 10
6173.719633908067
 20
1674.573211202327
 30
0.0
 11
7598.463665323044
 21
1674.573211202327
 31
0.0
  0
LINE
  5
1FCC3
330
747D
100
AcDbEntity
  8
細線
 48
25.0
100
AcDbLine
 10
5250.257634753185
 20
1962.195179347658
 30
0.0
 11
5476.592542390966
 21
2188.530086985438
 31
0.0
  0
LINE
  5
1FCC4
330
747D
100
AcDbEntity
  8
細線
 48
25.0
100
AcDbLine
 10
5250.257634753185
 20
2007.096459953008
 30
0.0
 11
5431.691261785616
 21
2188.530086985438
 31
0.0
  0
LINE
  5
1FCC5
330
747D
100
AcDbEntity
  8
細線
 48
25.0
100
AcDbLine
 10
5250.257634753185
 20
1647.886215110244
 30
0.0
 11
5790.901506628383
 21
2188.530086985439
 31
0.0
  0
LINE
  5
1FCC6
330
747D
100
AcDbEntity
  8
細線
 48
25.0
100
AcDbLine
 10
5250.257634753187
 20
1692.787495715589
 30
0.0
 11
5746.000226023035
 21
2188.530086985439
 31
0.0
  0
LINE
  5
1FCDD
330
747D
100
AcDbEntity
  8
部品1
 62
     7
 48
50.0
100
AcDbLine
 10
5250.257634753187
 20
1448.069870279039
 30
0.0
 11
5250.257634753187
 21
2188.530086985439
 31
0.0
  0
TEXT
  5
1FCDE
330
747D
100
AcDbEntity
  8
寸法
 62
     7
 48
50.0
100
AcDbText
 10
4301.470851096861
 20
1757.855034251209
 30
0.0
 40
120.0
  1
▽G.L
  7
丸ゴシック
100
AcDbText
  0
LINE
  5
1FCDF
330
747D
100
AcDbEntity
  8
Ｇ．Ｌ
 48
50.0
100
AcDbLine
 10
5250.257634753187
 20
1738.398780293874
 30
0.0
 11
4290.257634753187
 21
1738.398780293874
 31
0.0
  0
LINE
  5
1FCE4
330
747D
100
AcDbEntity
  8
部品1
 62
     7
 48
50.0
100
AcDbLine
 10
5607.805038015233
 20
1448.069870279037
 30
0.0
 11
5130.896686885724
 21
1448.069870279039
 31
0.0
  0
LINE
  5
1FCE5
330
747D
100
AcDbEntity
  8
部品1
 62
     7
 48
50.0
100
AcDbLine
 10
5130.896686885724
 20
1208.069870279038
 30
0.0
 11
5130.896686885724
 21
1448.069870279039
 31
0.0
  0
LINE
  5
1FCEC
330
747D
100
AcDbEntity
  8
細線
 48
25.0
100
AcDbLine
 10
5364.750254159401
 20
1448.069870279038
 30
0.0
 11
6105.210470865802
 21
2188.530086985439
 31
0.0
  0
LINE
  5
1FCEE
330
747D
100
AcDbEntity
  8
細線
 48
25.0
100
AcDbLine
 10
5409.651534764744
 20
1448.069870279038
 30
0.0
 11
6150.111751471146
 21
2188.530086985439
 31
0.0
  0
LINE
  5
1FCEF
330
747D
100
AcDbEntity
  8
細線
 48
25.0
100
AcDbLine
 10
5454.552815370094
 20
1448.069870279038
 30
0.0
 11
6195.013032076491
 21
2188.530086985439
 31
0.0
  0
LINE
  5
1FCF7
330
747D
100
AcDbEntity
  8
細線
 48
25.0
100
AcDbLine
 10
5250.257634753185
 20
1602.984934504893
 30
0.0
 11
5835.802787233732
 21
2188.530086985439
 31
0.0
  0
LWPOLYLINE
  5
1FD06
330
747D
100
AcDbEntity
  8
部品1
 62
     7
100
AcDbPolyline
 90
        4
 70
     1
 43
0.0
 10
4095.872661766946
 20
3892.381333552427
 10
5079.451628268558
 20
3892.381333552427
 10
5079.451628268558
 20
3598.969846581189
 10
4095.872661766946
 20
3598.969846581189
  0
TEXT
  5
1FD07
330
747D
100
AcDbEntity
  8
仕様書枠
 62
     7
 48
50.0
100
AcDbText
 10
4122.287908467017
 20
3669.137591724868
 30
0.0
 40
160.0
  1
基礎断面
  7
STYLE2
100
AcDbText
  0
LINE
  5
1FD08
330
747D
100
AcDbEntity
  8
細線
 48
25.0
100
AcDbLine
 10
7272.643766604791
 20
2188.530086985439
 30
0.0
 11
7024.643766604794
 21
2436.530086985439
 31
0.0
  0
LINE
  5
1FD09
330
747D
100
AcDbEntity
  8
細線
 48
25.0
100
AcDbLine
 10
7227.742485999456
 20
2188.530086985442
 30
0.0
 11
6979.742485999458
 21
2436.530086985442
 31
0.0
  0
LINE
  5
1FD0A
330
747D
100
AcDbEntity
  8
細線
 48
25.0
100
AcDbLine
 10
7182.841205394106
 20
2188.530086985439
 30
0.0
 11
6934.841205394106
 21
2436.530086985439
 31
0.0
  0
LINE
  5
1FD0D
330
747D
100
AcDbEntity
  8
部品1
 62
     7
 48
50.0
100
AcDbLine
 10
5250.257634753187
 20
2188.530086985439
 30
0.0
 11
5585.457634753184
 21
2188.530086985439
 31
0.0
  0
LINE
  5
1FD0E
330
747D
100
AcDbEntity
  8
部品1
 62
     7
 48
50.0
100
AcDbLine
 10
5395.05763475319
 20
2436.530086985442
 30
0.0
 11
5491.457634753176
 21
2436.530086985442
 31
0.0
  0
LINE
  5
1FD0F
330
747D
100
AcDbEntity
  8
部品1
 62
     7
 48
50.0
100
AcDbLine
 10
5395.057634753182
 20
2431.730086985439
 30
0.0
 11
5491.457634753189
 21
2431.730086985443
 31
0.0
  0
LINE
  5
1FD10
330
747D
100
AcDbEntity
  8
部品1
 62
     7
 48
50.0
100
AcDbLine
 10
5270.257634753186
 20
2193.330086985441
 30
0.0
 11
5270.2576347532
 21
2354.7823602347
 31
0.0
  0
LINE
  5
1FD11
330
747D
100
AcDbEntity
  8
部品1
 62
     7
 48
50.0
100
AcDbLine
 10
5275.057634753189
 20
2193.330086985449
 30
0.0
 11
5275.057634753197
 21
2354.782360234711
 31
0.0
  0
LINE
  5
1FD12
330
747D
100
AcDbEntity
  8
細線
 48
25.0
100
AcDbLine
 10
5250.257634753187
 20
2051.997740558353
 30
0.0
 11
5386.789981180271
 21
2188.530086985438
 31
0.0
  0
LINE
  5
1FD13
330
747D
100
AcDbEntity
  8
部品1
 62
     7
 48
50.0
100
AcDbLine
 10
5298.257634753187
 20
2188.530086985442
 30
0.0
 11
5275.057634753189
 21
2188.530086985442
 31
0.0
  0
ARC
  5
1FD14
330
747D
100
AcDbEntity
  8
部品1
 62
     7
 48
50.0
100
AcDbCircle
 10
5275.057634753189
 20
2193.330086985441
 30
0.0
 40
4.8
100
AcDbArc
 50
180.0
 51
270.0
  0
LINE
  5
1FD15
330
747D
100
AcDbEntity
  8
部品1
 62
     7
 48
50.0
100
AcDbLine
 10
5298.257634753187
 20
2193.330086985441
 30
0.0
 11
5275.057634753181
 21
2193.330086985445
 31
0.0
  0
LINE
  5
1FD16
330
747D
100
AcDbEntity
  8
部品1
 62
     7
 48
50.0
100
AcDbLine
 10
5298.257634753187
 20
2193.330086985441
 30
0.0
 11
5298.257634753187
 21
2188.530086985442
 31
0.0
  0
LINE
  5
1FD17
330
747D
100
AcDbEntity
  8
部品1
 62
     7
 48
50.0
100
AcDbLine
 10
5273.893463753033
 20
2359.439044235396
 30
0.0
 11
5294.257634753186
 21
2364.530086985442
 31
0.0
  0
ARC
  5
1FD18
330
747D
100
AcDbEntity
  8
部品1
 62
     7
 48
50.0
100
AcDbCircle
 10
5275.057634753206
 20
2354.7823602347
 30
0.0
 40
4.8
100
AcDbArc
 50
104.0362434678569
 51
180.0
  0
ARC
  5
1FD19
330
747D
100
AcDbEntity
  8
部品1
 62
     7
 48
50.0
100
AcDbCircle
 10
5294.257634753196
 20
2364.53008698545
 30
0.0
 40
4.8
100
AcDbArc
 50
284.036243467857
 51
0.0000000000260551
  0
LINE
  5
1FD1A
330
747D
100
AcDbEntity
  8
部品1
 62
     7
 48
50.0
100
AcDbLine
 10
5294.257634753196
 20
2364.530086985442
 30
0.0
 11
5294.257634753201
 21
2383.730086985439
 31
0.0
  0
LINE
  5
1FD1B
330
747D
100
AcDbEntity
  8
部品1
 62
     7
 48
50.0
100
AcDbLine
 10
5299.057634753204
 20
2388.530086985438
 30
0.0
 11
5384.257634753186
 21
2388.530086985442
 31
0.0
  0
ARC
  5
1FD1C
330
747D
100
AcDbEntity
  8
部品1
 62
     7
 48
50.0
100
AcDbCircle
 10
5299.057634753204
 20
2383.730086985439
 30
0.0
 40
4.8
100
AcDbArc
 50
90.0
 51
180.000000000026
  0
ARC
  5
1FD1D
330
747D
100
AcDbEntity
  8
部品1
 62
     7
 48
50.0
100
AcDbCircle
 10
5384.257634753186
 20
2388.530086985442
 30
0.0
 40
4.8
100
AcDbArc
 50
270.0
 51
0.0
  0
LINE
  5
1FD1E
330
747D
100
AcDbEntity
  8
部品1
 62
     7
 48
50.0
100
AcDbLine
 10
5389.057634753189
 20
2412.530086985446
 30
0.0
 11
5390.257634753186
 21
2412.530086985442
 31
0.0
  0
LINE
  5
1FD1F
330
747D
100
AcDbEntity
  8
部品1
 62
     7
 48
50.0
100
AcDbLine
 10
5384.257634753186
 20
2388.530086985442
 30
0.0
 11
5384.257634753186
 21
2407.730086985446
 31
0.0
  0
ARC
  5
1FD20
330
747D
100
AcDbEntity
  8
部品1
 62
     7
 48
50.0
100
AcDbCircle
 10
5389.057634753189
 20
2407.730086985446
 30
0.0
 40
4.8
100
AcDbArc
 50
90.0
 51
180.0
  0
ARC
  5
1FD21
330
747D
100
AcDbEntity
  8
部品1
 62
     7
 48
50.0
100
AcDbCircle
 10
5390.257634753194
 20
2412.530086985438
 30
0.0
 40
4.8
100
AcDbArc
 50
270.0
 51
0.0
  0
LINE
  5
1FD22
330
747D
100
AcDbEntity
  8
部品1
 62
     7
 48
50.0
100
AcDbLine
 10
5390.257634753186
 20
2412.530086985442
 30
0.0
 11
5390.257634753186
 21
2431.730086985443
 31
0.0
  0
ARC
  5
1FD23
330
747D
100
AcDbEntity
  8
部品1
 62
     7
 48
50.0
100
AcDbCircle
 10
5395.05763475319
 20
2431.730086985443
 30
0.0
 40
4.8
100
AcDbArc
 50
90.0
 51
180.0
  0
LINE
  5
1FD24
330
747D
100
AcDbEntity
  8
部品1
 62
     7
 48
50.0
100
AcDbLine
 10
5395.057634753197
 20
2412.530086985438
 30
0.0
 11
5395.057634753182
 21
2431.730086985443
 31
0.0
  0
LINE
  5
1FD25
330
747D
100
AcDbEntity
  8
部品1
 62
     7
 48
50.0
100
AcDbLine
 10
5389.057634753189
 20
2388.530086985442
 30
0.0
 11
5389.057634753199
 21
2407.73008698544
 31
0.0
  0
LINE
  5
1FD26
330
747D
100
AcDbEntity
  8
部品1
 62
     7
 48
50.0
100
AcDbLine
 10
5389.057634753199
 20
2407.730086985443
 30
0.0
 11
5390.257634753194
 21
2407.73008698544
 31
0.0
  0
LINE
  5
1FD27
330
747D
100
AcDbEntity
  8
部品1
 62
     7
 48
50.0
100
AcDbLine
 10
5299.057634753197
 20
2383.730086985446
 30
0.0
 11
5384.257634753186
 21
2383.730086985443
 31
0.0
  0
LINE
  5
1FD28
330
747D
100
AcDbEntity
  8
部品1
 62
     7
 48
50.0
100
AcDbLine
 10
5299.057634753197
 20
2364.53008698545
 30
0.0
 11
5299.057634753189
 21
2383.730086985446
 31
0.0
  0
LINE
  5
1FD29
330
747D
100
AcDbEntity
  8
部品1
 62
     7
 48
50.0
100
AcDbLine
 10
5275.057634753197
 20
2354.782360234707
 30
0.0
 11
5295.421805753365
 21
2359.873402984753
 31
0.0
  0
LINE
  5
1FD2A
330
747D
100
AcDbEntity
  8
部品1
 62
     7
 48
50.0
100
AcDbLine
 10
5590.257634753187
 20
2311.730086985443
 30
0.0
 11
5590.257634753187
 21
2193.330086985445
 31
0.0
  0
LINE
  5
1FD2B
330
747D
100
AcDbEntity
  8
部品1
 62
     7
 48
50.0
100
AcDbLine
 10
5585.457634753184
 20
2311.730086985443
 30
0.0
 11
5585.457634753184
 21
2193.330086985445
 31
0.0
  0
LINE
  5
1FD2C
330
747D
100
AcDbEntity
  8
部品1
 62
     7
 48
50.0
100
AcDbLine
 10
5585.457634753184
 20
2188.530086985446
 30
0.0
 11
5562.257634753187
 21
2188.530086985442
 31
0.0
  0
LINE
  5
1FD2D
330
747D
100
AcDbEntity
  8
部品1
 62
     7
 48
50.0
100
AcDbLine
 10
5585.457634753177
 20
2193.330086985445
 30
0.0
 11
5562.257634753187
 21
2193.330086985441
 31
0.0
  0
LINE
  5
1FD2E
330
747D
100
AcDbEntity
  8
部品1
 62
     7
 48
50.0
100
AcDbLine
 10
5562.257634753187
 20
2188.530086985442
 30
0.0
 11
5562.257634753187
 21
2193.330086985441
 31
0.0
  0
ARC
  5
1FD2F
330
747D
100
AcDbEntity
  8
部品1
 62
     7
 48
50.0
100
AcDbCircle
 10
5585.457634753184
 20
2193.330086985445
 30
0.0
 40
4.8
100
AcDbArc
 50
270.0
 51
0.0
  0
LINE
  5
1FD30
330
747D
100
AcDbEntity
  8
部品1
 62
     7
 48
50.0
100
AcDbLine
 10
5496.257634753186
 20
2316.530086985442
 30
0.0
 11
5585.457634753184
 21
2316.530086985442
 31
0.0
  0
LINE
  5
1FD31
330
747D
100
AcDbEntity
  8
部品1
 62
     7
 48
50.0
100
AcDbLine
 10
5496.257634753186
 20
2311.730086985446
 30
0.0
 11
5585.457634753184
 21
2311.730086985443
 31
0.0
  0
LINE
  5
1FD33
330
747D
100
AcDbEntity
  8
部品1
 62
     7
 48
50.0
100
AcDbLine
 10
5496.257634753179
 20
2431.730086985443
 30
0.0
 11
5496.257634753186
 21
2316.530086985442
 31
0.0
  0
ARC
  5
1FD34
330
747D
100
AcDbEntity
  8
部品1
 62
     7
 48
50.0
100
AcDbCircle
 10
5491.457634753176
 20
2431.730086985443
 30
0.0
 40
4.8
100
AcDbArc
 50
0.0
 51
90.0
  0
ARC
  5
1FD35
330
747D
100
AcDbEntity
  8
部品1
 62
     7
 48
50.0
100
AcDbCircle
 10
5496.257634753186
 20
2316.530086985446
 30
0.0
 40
4.8
100
AcDbArc
 50
180.0
 51
270.0
  0
LINE
  5
1FD36
330
747D
100
AcDbEntity
  8
部品1
 62
     7
 48
50.0
100
AcDbLine
 10
5491.457634753176
 20
2431.730086985439
 30
0.0
 11
5491.457634753184
 21
2316.530086985446
 31
0.0
  0
ARC
  5
1FD37
330
747D
100
AcDbEntity
  8
部品1
 62
     7
 48
50.0
100
AcDbCircle
 10
5585.457634753184
 20
2311.730086985443
 30
0.0
 40
4.8
100
AcDbArc
 50
0.0
 51
90.0
  0
LWPOLYLINE
  5
1FD38
330
747D
100
AcDbEntity
  8
寸法
 48
50.0
100
AcDbPolyline
 90
        2
 70
     0
 43
0.0
 10
6015.020251891688
 20
2436.530086985442
 10
6427.718947017321
 20
3407.706589613824
  0
LINE
  5
1FD39
330
747D
100
AcDbEntity
  8
細線
 48
25.0
100
AcDbLine
 10
6554.223276919259
 20
2188.530086985439
 30
0.0
 11
6306.223276919264
 21
2436.530086985439
 31
0.0
  0
LINE
  5
1FD3A
330
747D
100
AcDbEntity
  8
細線
 48
25.0
100
AcDbLine
 10
6509.321996313921
 20
2188.530086985439
 30
0.0
 11
6261.321996313923
 21
2436.530086985442
 31
0.0
  0
LINE
  5
1FD3B
330
747D
100
AcDbEntity
  8
細線
 48
25.0
100
AcDbLine
 10
6464.420715708569
 20
2188.530086985439
 30
0.0
 11
6216.420715708565
 21
2436.530086985442
 31
0.0
  0
LINE
  5
1FD3C
330
747D
100
AcDbEntity
  8
細線
 48
25.0
100
AcDbLine
 10
6913.433521762033
 20
2188.530086985439
 30
0.0
 11
6665.433521762031
 21
2436.530086985439
 31
0.0
  0
LINE
  5
1FD3D
330
747D
100
AcDbEntity
  8
細線
 48
25.0
100
AcDbLine
 10
6868.532241156684
 20
2188.530086985439
 30
0.0
 11
6620.532241156681
 21
2436.530086985446
 31
0.0
  0
LINE
  5
1FD3E
330
747D
100
AcDbEntity
  8
細線
 48
25.0
100
AcDbLine
 10
6823.630960551337
 20
2188.530086985439
 30
0.0
 11
6575.630960551338
 21
2436.530086985442
 31
0.0
  0
INSERT
  5
1FD3F
330
747D
100
AcDbEntity
  8
寸法
 62
     7
 48
50.0
100
AcDbBlockReference
  2
_DOTSMALL
 10
6015.020251891688
 20
2436.530086985442
 30
0.0
 41
100.0
 42
100.0
 43
100.0
 50
246.977072443817
  0
LINE
  5
1FD40
330
747D
100
AcDbEntity
  8
細線
 48
25.0
100
AcDbLine
 10
6195.013032076491
 20
2188.530086985439
 30
0.0
 11
5947.013032076476
 21
2436.530086985442
 31
0.0
  0
LINE
  5
1FD41
330
747D
100
AcDbEntity
  8
細線
 48
25.0
100
AcDbLine
 10
6150.111751471153
 20
2188.530086985439
 30
0.0
 11
5902.111751471154
 21
2436.530086985442
 31
0.0
  0
LINE
  5
1FD42
330
747D
100
AcDbEntity
  8
細線
 48
25.0
100
AcDbLine
 10
6105.210470865806
 20
2188.530086985439
 30
0.0
 11
5857.210470865804
 21
2436.530086985442
 31
0.0
  0
SPLINE
  5
1FD5A
330
747D
100
AcDbEntity
  8
部品1
 62
     7
 48
50.0
100
AcDbSpline
210
0.0
220
0.0
230
1.0
 70
     8
 71
     3
 72
    10
 73
     6
 74
     4
 42
0.0000000001
 43
0.0000000001
 44
0.0000000001
 40
0.0
 40
0.0
 40
0.0
 40
0.0
 40
400.0000000000016
 40
800.0000000000033
 40
1200.000000000004
 40
1200.000000000004
 40
1200.000000000004
 40
1200.000000000004
 10
7630.127369872051
 20
2511.101111958896
 30
0.0
 10
7519.016258760939
 20
2395.63105812097
 30
0.0
 10
7296.794036538715
 20
2164.690950445117
 30
0.0
 10
7763.460703205385
 20
1818.280788931341
 30
0.0
 10
7541.23848098316
 20
1587.340681255489
 30
0.0
 10
7430.12736987205
 20
1471.870627417564
 30
0.0
 11
7630.127369872051
 21
2511.101111958896
 31
0.0
 11
7430.12736987205
 21
2164.690950445118
 31
0.0
 11
7630.127369872051
 21
1818.280788931341
 31
0.0
 11
7430.12736987205
 21
1471.870627417564
 31
0.0
  0
DIMENSION
  5
1FFF7
330
747D
100
AcDbEntity
  8
寸法
 48
50.0
100
AcDbDimension
  2
*D3
 10
8363.216535123751
 20
8689.377022843073
 30
0.0
 11
8338.21653512375
 21
8689.377022843073
 31
0.0
 70
   160
  1
a
 71
     5
 42
50.0
  3
INABA_S40G
100
AcDbAlignedDimension
 13
8313.21653512375
 23
7922.825397041052
 33
0.0
 14
8363.216535123751
 24
8002.825397041055
 34
0.0
100
AcDbRotatedDimension
1001
ACAD
1000
DSTYLE
1002
{
1070
   174
1070
     0
1070
   272
1070
     1
1070
   288
1070
     0
1070
   341
1005
0
1002
}
  0
DIMENSION
  5
1FFF8
330
747D
100
AcDbEntity
  8
寸法
 48
50.0
100
AcDbDimension
  2
*D4
 10
6101.216535123751
 20
8689.377022843073
 30
0.0
 11
6076.216535123752
 21
8689.377022843073
 31
0.0
 70
   160
  1
a
 71
     5
 42
50.0
  3
INABA_S40G
100
AcDbAlignedDimension
 13
6051.216535123751
 23
8002.825397041052
 33
0.0
 14
6101.216535123751
 24
7922.825397041052
 34
0.0
100
AcDbRotatedDimension
1001
ACAD
1000
DSTYLE
1002
{
1070
   174
1070
     0
1070
   272
1070
     1
1070
   288
1070
     0
1070
   341
1005
0
1002
}
  0
DIMENSION
  5
1FFF9
330
747D
100
AcDbEntity
  8
寸法
 48
50.0
100
AcDbDimension
  2
*D5
 10
8313.21653512375
 20
8689.377022843073
 30
0.0
 11
7194.741005201031
 21
8689.377022843073
 31
0.0
 70
   160
 71
     5
 42
2212.0
  3
INABA_S40G
100
AcDbAlignedDimension
 13
6101.216535123751
 23
7922.825397041052
 33
0.0
 14
8313.21653512375
 24
7922.825397041052
 34
0.0
100
AcDbRotatedDimension
1001
ACAD
1000
DSTYLE
1002
{
1070
   174
1070
     0
1070
   272
1070
     1
1070
   288
1070
     0
1070
   341
1005
0
1002
}
  0
TEXT
  5
20002
330
747D
100
AcDbEntity
  8
部品1
 48
50.0
100
AcDbText
 10
7087.642152814865
 20
6332.358784847484
 30
0.0
 40
120.0
  1
扉面
  7
STYLE1
 72
     1
 11
7215.642152814865
 21
6316.358784847484
 31
0.0
100
AcDbText
 73
     1
  0
LINE
  5
20003
330
747D
100
AcDbEntity
  8
部品1
 48
50.0
100
AcDbLine
 10
8313.21653512375
 20
6550.825397041052
 30
0.0
 11
8313.21653512375
 21
7922.825397041052
 31
0.0
  0
LINE
  5
20007
330
747D
100
AcDbEntity
  8
部品1
 48
50.0
100
AcDbLine
 10
6101.216535123751
 20
7922.825397041032
 30
0.0
 11
8313.21653512375
 21
7922.825397041052
 31
0.0
  0
LINE
  5
2000D
330
747D
100
AcDbEntity
  8
想像線
 48
10.0
100
AcDbLine
 10
8363.216535123749
 20
7999.825397041056
 30
0.0
 11
8363.216535123754
 21
6490.825397041051
 31
0.0
  0
LINE
  5
20013
330
747D
100
AcDbEntity
  8
部品1
 48
50.0
100
AcDbLine
 10
6101.216535123751
 20
6550.825397041049
 30
0.0
 11
6101.216535123751
 21
7922.825397041049
 31
0.0
  0
LINE
  5
2001E
330
747D
100
AcDbEntity
  8
部品1
 48
50.0
100
AcDbLine
 10
6491.216535123751
 20
6550.825397041049
 30
0.0
 11
6101.216535123751
 21
6550.825397041049
 31
0.0
  0
LINE
  5
2001F
330
747D
100
AcDbEntity
  8
部品1
 48
50.0
100
AcDbLine
 10
8313.21653512375
 20
6550.825397041069
 30
0.0
 11
6101.216535123751
 21
6550.825397041049
 31
0.0
  0
LINE
  5
20020
330
747D
100
AcDbEntity
  8
想像線
 48
10.0
100
AcDbLine
 10
6051.216535123752
 20
6493.825397041051
 30
0.0
 11
6051.216535123751
 21
7999.825397041051
 31
0.0
  0
DIMENSION
  5
20021
330
747D
100
AcDbEntity
  8
寸法
 48
50.0
100
AcDbDimension
  2
*D6
 10
5660.5046516745
 20
7922.825397041049
 30
0.0
 11
5660.5046516745
 21
7962.825397041051
 31
0.0
 70
   160
  1
c
 71
     5
 42
80.0
  3
INABA_S40G
100
AcDbAlignedDimension
 13
6051.216535123751
 23
8002.82539704105
 33
0.0
 14
6101.216535123751
 24
7922.825397041049
 34
0.0
 50
90.0
100
AcDbRotatedDimension
1001
ACAD
1000
DSTYLE
1002
{
1070
   174
1070
     0
1070
   272
1070
     1
1070
   288
1070
     0
1070
   341
1005
0
1002
}
  0
DIMENSION
  5
20022
330
747D
100
AcDbEntity
  8
寸法
 48
50.0
100
AcDbDimension
  2
*D7
 10
5660.5046516745
 20
6550.825397041049
 30
0.0
 11
5560.492840650876
 21
7236.825397041051
 31
0.0
 70
    32
 71
     5
 42
1372.0
  3
INABA_S40G
100
AcDbAlignedDimension
 13
6101.216535123751
 23
7922.825397041049
 33
0.0
 14
6101.216535123751
 24
6550.825397041049
 34
0.0
 50
90.0
100
AcDbRotatedDimension
1001
ACAD
1000
DSTYLE
1002
{
1070
   174
1070
     0
1070
   272
1070
     1
1070
   288
1070
     0
1070
   341
1005
0
1002
}
  0
DIMENSION
  5
20023
330
747D
100
AcDbEntity
  8
寸法
 48
50.0
100
AcDbDimension
  2
*D8
 10
5660.504651674501
 20
6490.825397041049
 30
0.0
 11
5660.5046516745
 21
6520.825397041051
 31
0.0
 70
   160
  1
b
 71
     5
 42
60.0
  3
INABA_S40G
100
AcDbAlignedDimension
 13
6101.216535123751
 23
6550.825397041049
 33
0.0
 14
6051.216535123751
 24
6490.825397041049
 34
0.0
 50
90.0
100
AcDbRotatedDimension
1001
ACAD
1000
DSTYLE
1002
{
1070
   174
1070
     0
1070
   272
1070
     1
1070
   288
1070
     0
1070
   341
1005
0
1002
}
  0
LINE
  5
20024
330
747D
100
AcDbEntity
  8
想像線
 48
10.0
100
AcDbLine
 10
6054.21653512375
 20
8002.825397041052
 30
0.0
 11
8360.216535123749
 21
8002.825397041055
 31
0.0
  0
LINE
  5
20025
330
747D
100
AcDbEntity
  8
想像線
 48
10.0
100
AcDbLine
 10
8363.216535123751
 20
6490.825397041048
 30
0.0
 11
6054.216535123752
 21
6490.825397041051
 31
0.0
  0
LEADER
  5
20026
330
747D
100
AcDbEntity
  8
寸法
 48
50.0
100
AcDbLeader
  3
INABA_S50G
 71
     0
 73
     0
 74
     0
 75
     1
 40
120.0
 41
672.0
 76
     3
 10
8190.258104569107
 20
6490.825397041049
 30
0.0
 10
8438.495291173598
 20
6110.808005081259
 30
0.0
 10
8563.495291173598
 20
6110.808005081259
 30
0.0
340
20027
1001
ACAD
1000
DSTYLE
1002
{
1070
   341
1005
1C530
1070
    40
1040
1.0
1070
   343
1005
1C530
1070
   344
1005
1C530
1002
}
  0
MTEXT
  5
20027
102
{ACAD_REACTORS
330
20026
102
}
330
747D
100
AcDbEntity
  8
部品1
 62
     7
 48
50.0
100
AcDbMText
 10
9260.495291173597
 20
6195.808005081259
 30
0.0
 40
120.0
 41
0.0
 71
     6
 72
     1
  1
\A1;屋根の外寸
  7
STYLE1
 73
     1
 44
1.0
1001
ACAD
1000
MTEXTBEGIN
1070
    73
1070
     1
1070
    44
1040
1.0
1070
    74
1070
     0
1000
MTEXTEND
  0
TEXT
  5
20028
330
747D
100
AcDbEntity
  8
部品1
 48
50.0
100
AcDbText
 10
8394.32520099683
 20
5984.140104881793
 30
0.0
 40
80.0
  1
※a,b,cは屋根の出幅です。
  7
STYLE1
100
AcDbText
  0
TEXT
  5
20029
330
747D
100
AcDbEntity
  8
部品1
 48
50.0
100
AcDbText
 10
8508.025441722779
 20
5850.583578795849
 30
0.0
 40
80.0
  1
(a=50,b=60,c=80)
  7
STYLE1
100
AcDbText
  0
LINE
  5
2014D
330
747D
100
AcDbEntity
  8
細線
 48
25.0
100
AcDbLine
 10
7448.350406094473
 20
2282.231131127833
 30
0.0
 11
7294.051450236864
 21
2436.530086985442
 31
0.0
  0
LINE
  5
2014E
330
747D
100
AcDbEntity
  8
細線
 48
25.0
100
AcDbLine
 10
7463.720107532603
 20
2311.762710295058
 30
0.0
 11
7338.952730842215
 21
2436.530086985446
 31
0.0
  0
LINE
  5
2014F
330
747D
100
AcDbEntity
  8
細線
 48
25.0
100
AcDbLine
 10
7481.079466508287
 20
2339.304631924704
 30
0.0
 11
7383.85401144755
 21
2436.530086985442
 31
0.0
  0
LINE
  5
20153
330
747D
100
AcDbEntity
  8
細線
 48
25.0
100
AcDbLine
 10
6280.266401136158
 20
1914.573211202327
 30
0.0
 11
6554.223276919266
 21
2188.530086985438
 31
0.0
  0
LINE
  5
20154
330
747D
100
AcDbEntity
  8
細線
 48
25.0
100
AcDbLine
 10
6235.365120530805
 20
1914.573211202327
 30
0.0
 11
6509.321996313916
 21
2188.530086985438
 31
0.0
  0
LINE
  5
20155
330
747D
100
AcDbEntity
  8
細線
 48
25.0
100
AcDbLine
 10
6190.463839925453
 20
1914.573211202327
 30
0.0
 11
6464.420715708566
 21
2188.530086985438
 31
0.0
  0
LINE
  5
20156
330
747D
100
AcDbEntity
  8
細線
 48
25.0
100
AcDbLine
 10
6549.674084768223
 20
1914.573211202327
 30
0.0
 11
6823.630960551335
 21
2188.530086985438
 31
0.0
  0
LINE
  5
20157
330
747D
100
AcDbEntity
  8
細線
 48
25.0
100
AcDbLine
 10
6594.575365373575
 20
1914.573211202327
 30
0.0
 11
6868.532241156685
 21
2188.530086985438
 31
0.0
  0
LINE
  5
20158
330
747D
100
AcDbEntity
  8
細線
 48
25.0
100
AcDbLine
 10
6639.476645978927
 20
1914.573211202327
 30
0.0
 11
6913.433521762036
 21
2188.530086985438
 31
0.0
  0
LINE
  5
20159
330
747D
100
AcDbEntity
  8
細線
 48
25.0
100
AcDbLine
 10
7357.897135664465
 20
1914.573211202327
 30
0.0
 11
7489.252520783795
 21
2045.928596321656
 31
0.0
  0
LINE
  5
2015A
330
747D
100
AcDbEntity
  8
細線
 48
25.0
100
AcDbLine
 10
7312.99585505912
 20
1914.573211202327
 30
0.0
 11
7471.075389510581
 21
2072.652745653792
 31
0.0
  0
LINE
  5
2015B
330
747D
100
AcDbEntity
  8
細線
 48
25.0
100
AcDbLine
 10
7268.094574453765
 20
1914.573211202328
 30
0.0
 11
7454.344482015968
 21
2100.82311876453
 31
0.0
  0
LINE
  5
2015C
330
747D
100
AcDbEntity
  8
細線
 48
25.0
100
AcDbLine
 10
6908.884329610997
 20
1914.573211202327
 30
0.0
 11
7182.841205394105
 21
2188.530086985437
 31
0.0
  0
LINE
  5
2015D
330
747D
100
AcDbEntity
  8
細線
 48
25.0
100
AcDbLine
 10
6953.785610216344
 20
1914.573211202327
 30
0.0
 11
7227.742485999455
 21
2188.530086985437
 31
0.0
  0
LINE
  5
2015E
330
747D
100
AcDbEntity
  8
細線
 48
25.0
100
AcDbLine
 10
6998.686890821696
 20
1914.573211202327
 30
0.0
 11
7272.643766604805
 21
2188.530086985437
 31
0.0
  0
LINE
  5
2015F
330
747D
100
AcDbEntity
  8
点線
 48
30.0
100
AcDbLine
 10
5585.457634753184
 20
2188.530086985439
 30
0.0
 11
7427.390419141499
 21
2188.530086985439
 31
0.0
  0
LINE
  5
2019F
330
747D
100
AcDbEntity
  8
部品1
 62
     7
 48
50.0
100
AcDbLine
 10
5607.805038015233
 20
1448.069870279037
 30
0.0
 11
6074.308378938525
 21
1914.573211202327
 31
0.0
  0
LINE
  5
201A3
330
747D
100
AcDbEntity
  8
部品1
 62
     7
 48
50.0
100
AcDbLine
 10
5707.216292984778
 20
1208.069870279038
 30
0.0
 11
5130.896686885724
 21
1208.069870279038
 31
0.0
  0
LINE
  5
201A4
330
747D
100
AcDbEntity
  8
部品1
 62
     7
 48
50.0
100
AcDbLine
 10
5707.216292984778
 20
1208.069870279038
 30
0.0
 11
6173.719633908067
 21
1674.573211202327
 31
0.0
  0
LINE
  5
201CA
330
747D
100
AcDbEntity
  8
細線
 48
50.0
100
AcDbLine
 10
7535.62104489805
 20
1734.573211202327
 30
0.0
 11
7519.544093352187
 21
1674.573211202327
 31
0.0
  0
LINE
  5
201CF
330
747D
100
AcDbEntity
  8
細線
 48
50.0
100
AcDbLine
 10
7551.697996443919
 20
1674.573211202327
 30
0.0
 11
7487.390190260452
 21
1914.573211202327
 31
0.0
  0
LINE
  5
201D1
330
747D
100
AcDbEntity
  8
細線
 48
50.0
100
AcDbLine
 10
6220.820295777264
 20
1734.573211202327
 30
0.0
 11
6204.743344231392
 21
1674.573211202327
 31
0.0
  0
LINE
  5
201D2
330
747D
100
AcDbEntity
  8
細線
 48
50.0
100
AcDbLine
 10
6352.300370689344
 20
1734.573211202327
 30
0.0
 11
6336.223419143474
 21
1674.573211202327
 31
0.0
  0
LINE
  5
201D3
330
747D
100
AcDbEntity
  8
細線
 48
50.0
100
AcDbLine
 10
6483.780445601417
 20
1734.573211202327
 30
0.0
 11
6467.70349405555
 21
1674.573211202327
 31
0.0
  0
LINE
  5
201D4
330
747D
100
AcDbEntity
  8
細線
 48
50.0
100
AcDbLine
 10
6615.260520513494
 20
1734.573211202327
 30
0.0
 11
6599.183568967624
 21
1674.573211202327
 31
0.0
  0
LINE
  5
201D5
330
747D
100
AcDbEntity
  8
細線
 48
50.0
100
AcDbLine
 10
6368.377322235208
 20
1674.573211202331
 30
0.0
 11
6304.069516051747
 21
1914.573211202327
 31
0.0
  0
LINE
  5
201D6
330
747D
100
AcDbEntity
  8
細線
 48
50.0
100
AcDbLine
 10
6499.857397147287
 20
1674.573211202331
 30
0.0
 11
6435.549590963816
 21
1914.573211202331
 31
0.0
  0
LINE
  5
201D7
330
747D
100
AcDbEntity
  8
細線
 48
50.0
100
AcDbLine
 10
6631.337472059361
 20
1674.573211202335
 30
0.0
 11
6567.029665875897
 21
1914.573211202327
 31
0.0
  0
LINE
  5
201D8
330
747D
100
AcDbEntity
  8
細線
 48
50.0
100
AcDbLine
 10
6236.897247323128
 20
1674.573211202327
 30
0.0
 11
6172.589441139662
 21
1914.573211202327
 31
0.0
  0
LINE
  5
201D9
330
747D
100
AcDbEntity
  8
細線
 48
50.0
100
AcDbLine
 10
6714.58669233384
 20
1854.573211202335
 30
0.0
 11
6730.663643879721
 21
1914.573211202331
 31
0.0
  0
LINE
  5
201DA
330
747D
100
AcDbEntity
  8
細線
 48
50.0
100
AcDbLine
 10
6583.106617421761
 20
1854.573211202335
 30
0.0
 11
6599.183568967631
 21
1914.573211202331
 31
0.0
  0
LINE
  5
201DB
330
747D
100
AcDbEntity
  8
細線
 48
50.0
100
AcDbLine
 10
6451.62654250968
 20
1854.573211202338
 30
0.0
 11
6467.703494055561
 21
1914.573211202335
 31
0.0
  0
LINE
  5
201DC
330
747D
100
AcDbEntity
  8
細線
 48
50.0
100
AcDbLine
 10
6320.146467597607
 20
1854.573211202335
 30
0.0
 11
6336.223419143481
 21
1914.573211202331
 31
0.0
  0
LINE
  5
201DD
330
747D
100
AcDbEntity
  8
細線
 48
50.0
100
AcDbLine
 10
6188.666392685529
 20
1854.573211202336
 30
0.0
 11
6204.743344231401
 21
1914.573211202333
 31
0.0
  0
LINE
  5
201DE
330
747D
100
AcDbEntity
  8
細線
 48
50.0
100
AcDbLine
 10
6878.220670337663
 20
1734.573211202327
 30
0.0
 11
6862.143718791802
 21
1674.573211202327
 31
0.0
  0
LINE
  5
201DF
330
747D
100
AcDbEntity
  8
細線
 48
50.0
100
AcDbLine
 10
7009.700745249737
 20
1734.573211202327
 30
0.0
 11
6993.623793703874
 21
1674.573211202327
 31
0.0
  0
LINE
  5
201E0
330
747D
100
AcDbEntity
  8
細線
 48
50.0
100
AcDbLine
 10
7141.180820161813
 20
1734.573211202327
 30
0.0
 11
7125.103868615951
 21
1674.573211202327
 31
0.0
  0
LINE
  5
201E1
330
747D
100
AcDbEntity
  8
細線
 48
50.0
100
AcDbLine
 10
7272.66089507389
 20
1734.573211202327
 30
0.0
 11
7256.583943528024
 21
1674.573211202327
 31
0.0
  0
LINE
  5
201E2
330
747D
100
AcDbEntity
  8
細線
 48
50.0
100
AcDbLine
 10
7404.140969985966
 20
1734.573211202327
 30
0.0
 11
7388.0640184401
 21
1674.573211202327
 31
0.0
  0
LINE
  5
201E3
330
747D
100
AcDbEntity
  8
細線
 48
50.0
100
AcDbLine
 10
7420.217921531834
 20
1674.573211202335
 30
0.0
 11
7355.910115348364
 21
1914.573211202327
 31
0.0
  0
LINE
  5
201E4
330
747D
100
AcDbEntity
  8
細線
 48
50.0
100
AcDbLine
 10
7288.737846619757
 20
1674.573211202331
 30
0.0
 11
7224.430040436288
 21
1914.573211202331
 31
0.0
  0
LINE
  5
201E5
330
747D
100
AcDbEntity
  8
細線
 48
50.0
100
AcDbLine
 10
7157.257771707683
 20
1674.573211202331
 30
0.0
 11
7092.949965524216
 21
1914.573211202327
 31
0.0
  0
LINE
  5
201E6
330
747D
100
AcDbEntity
  8
細線
 48
50.0
100
AcDbLine
 10
6894.29762188353
 20
1674.573211202327
 30
0.0
 11
6829.989815700064
 21
1914.573211202327
 31
0.0
  0
LINE
  5
201E7
330
747D
100
AcDbEntity
  8
細線
 48
50.0
100
AcDbLine
 10
7025.777696795609
 20
1674.573211202327
 30
0.0
 11
6961.469890612136
 21
1914.573211202327
 31
0.0
  0
LINE
  5
201EA
330
747D
100
AcDbEntity
  8
細線
 48
50.0
100
AcDbLine
 10
7503.467141806317
 20
1854.573211202335
 30
0.0
 11
7519.544093352194
 21
1914.573211202331
 31
0.0
  0
LINE
  5
201EB
330
747D
100
AcDbEntity
  8
細線
 48
50.0
100
AcDbLine
 10
7371.987066894232
 20
1854.573211202335
 30
0.0
 11
7388.064018440108
 21
1914.573211202331
 31
0.0
  0
LINE
  5
201EC
330
747D
100
AcDbEntity
  8
細線
 48
50.0
100
AcDbLine
 10
7240.506991982157
 20
1854.573211202335
 30
0.0
 11
7256.583943528034
 21
1914.573211202331
 31
0.0
  0
LINE
  5
201ED
330
747D
100
AcDbEntity
  8
細線
 48
50.0
100
AcDbLine
 10
6977.546842158009
 20
1854.573211202335
 30
0.0
 11
6993.623793703881
 21
1914.573211202331
 31
0.0
  0
LINE
  5
201EE
330
747D
100
AcDbEntity
  8
細線
 48
50.0
100
AcDbLine
 10
6846.066767245929
 20
1854.573211202335
 30
0.0
 11
6862.143718791809
 21
1914.573211202331
 31
0.0
  0
LINE
  5
201EF
330
747D
100
AcDbEntity
  8
細線
 48
50.0
100
AcDbLine
 10
7109.026917070081
 20
1854.573211202335
 30
0.0
 11
7125.103868615951
 21
1914.573211202331
 31
0.0
  0
LINE
  5
201F1
330
747D
100
AcDbEntity
  8
細線
 48
50.0
100
AcDbLine
 10
6746.740595425575
 20
1734.573211202327
 30
0.0
 11
6730.663643879712
 21
1674.573211202327
 31
0.0
  0
LINE
  5
201F2
330
747D
100
AcDbEntity
  8
細線
 48
50.0
100
AcDbLine
 10
6762.81754697144
 20
1674.573211202327
 30
0.0
 11
6698.509740787978
 21
1914.573211202327
 31
0.0
  0
LINE
  5
201F9
330
747D
100
AcDbEntity
  8
細線
 48
50.0
100
AcDbLine
 10
6057.186317773441
 20
1854.573211202334
 30
0.0
 11
6072.880732648944
 21
1913.145564912746
 31
0.0
  0
LINE
  5
201FA
330
747D
100
AcDbEntity
  8
細線
 48
50.0
100
AcDbLine
 10
5808.765983560299
 20
1309.619560854557
 30
0.0
 11
5737.03994578685
 21
1577.304778050653
 31
0.0
  0
LINE
  5
201FC
330
747D
100
AcDbEntity
  8
細線
 48
50.0
100
AcDbLine
 10
5912.461049338108
 20
1413.314626632367
 30
0.0
 11
5840.735011564665
 21
1680.999843828468
 31
0.0
  0
LINE
  5
201FD
330
747D
100
AcDbEntity
  8
細線
 48
50.0
100
AcDbLine
 10
6016.156115115927
 20
1517.009692410187
 30
0.0
 11
5944.430077342483
 21
1784.694909606285
 31
0.0
  0
LINE
  5
201FE
330
747D
100
AcDbEntity
  8
細線
 48
50.0
100
AcDbLine
 10
6119.851180893745
 20
1620.704758188006
 30
0.0
 11
6048.125143120302
 21
1888.389975384102
 31
0.0
  0
LINE
  5
20211
330
747D
100
AcDbEntity
  8
細線
 48
50.0
100
AcDbLine
 10
6103.774229347882
 20
1680.704758188007
 30
0.0
 11
6075.928132439607
 21
1576.781709733868
 31
0.0
  0
LINE
  5
20212
330
747D
100
AcDbEntity
  8
細線
 48
50.0
100
AcDbLine
 10
6000.079163570064
 20
1577.009692410188
 30
0.0
 11
5972.233066661789
 21
1473.086643956049
 31
0.0
  0
LINE
  5
20213
330
747D
100
AcDbEntity
  8
細線
 48
50.0
100
AcDbLine
 10
5896.384097792244
 20
1473.314626632368
 30
0.0
 11
5868.53800088397
 21
1369.39157817823
 31
0.0
  0
LINE
  5
20214
330
747D
100
AcDbEntity
  8
細線
 48
50.0
100
AcDbLine
 10
5792.689032014426
 20
1369.619560854549
 30
0.0
 11
5764.842935106152
 21
1265.696512400411
 31
0.0
  0
LINE
  5
20215
330
747D
100
AcDbEntity
  8
細線
 48
50.0
100
AcDbLine
 10
5960.507028888351
 20
1724.694909606295
 30
0.0
 11
5988.353125796624
 21
1828.617958060425
 31
0.0
  0
LINE
  5
20216
330
747D
100
AcDbEntity
  8
細線
 48
50.0
100
AcDbLine
 10
5856.811963110533
 20
1620.999843828477
 30
0.0
 11
5884.658060018806
 21
1724.922892282607
 31
0.0
  0
LINE
  5
20217
330
747D
100
AcDbEntity
  8
細線
 48
50.0
100
AcDbLine
 10
5753.11689733272
 20
1517.304778050663
 30
0.0
 11
5780.962994240992
 21
1621.227826504792
 31
0.0
  0
LINE
  5
20218
330
747D
100
AcDbEntity
  8
細線
 48
50.0
100
AcDbLine
 10
5649.42183155491
 20
1413.609712272853
 30
0.0
 11
5677.267928463182
 21
1517.532760726983
 31
0.0
  0
LINE
  5
20219
330
747D
100
AcDbEntity
  8
細線
 48
50.0
100
AcDbLine
 10
5688.993966236616
 20
1265.92449507674
 30
0.0
 11
5673.491866243661
 21
1208.069870279038
 31
0.0
  0
LINE
  5
2021A
330
747D
100
AcDbEntity
  8
細線
 48
50.0
100
AcDbLine
 10
5704.496066229573
 20
1208.069870279038
 30
0.0
 11
5633.34488000904
 21
1473.609712272844
 31
0.0
  0
LINE
  5
2021F
330
747D
100
AcDbEntity
  8
細線
 48
50.0
100
AcDbLine
 10
5179.725469687079
 20
1208.069870279038
 30
0.0
 11
5130.896686885724
 21
1390.301368565461
 31
0.0
  0
LINE
  5
20220
330
747D
100
AcDbEntity
  8
細線
 48
50.0
100
AcDbLine
 10
5163.648518141215
 20
1268.069870279038
 30
0.0
 11
5147.571566595352
 21
1208.069870279038
 31
0.0
  0
LINE
  5
20221
330
747D
100
AcDbEntity
  8
細線
 48
50.0
100
AcDbLine
 10
5525.93483978572
 20
1388.069870279045
 30
0.0
 11
5542.01179133159
 21
1448.069870279041
 31
0.0
  0
LINE
  5
20222
330
747D
100
AcDbEntity
  8
細線
 48
50.0
100
AcDbLine
 10
5262.974689961568
 20
1388.069870279045
 30
0.0
 11
5279.051641507447
 21
1448.069870279041
 31
0.0
  0
LINE
  5
20223
330
747D
100
AcDbEntity
  8
細線
 48
50.0
100
AcDbLine
 10
5394.454764873647
 20
1388.069870279045
 30
0.0
 11
5410.531716419519
 21
1448.069870279041
 31
0.0
  0
LINE
  5
20224
330
747D
100
AcDbEntity
  8
細線
 48
50.0
100
AcDbLine
 10
5442.685619511248
 20
1208.069870279038
 30
0.0
 11
5378.377813327775
 21
1448.069870279037
 31
0.0
  0
LINE
  5
20225
330
747D
100
AcDbEntity
  8
細線
 48
50.0
100
AcDbLine
 10
5311.205544599169
 20
1208.069870279038
 30
0.0
 11
5246.897738415704
 21
1448.069870279037
 31
0.0
  0
LINE
  5
20226
330
747D
100
AcDbEntity
  8
細線
 48
50.0
100
AcDbLine
 10
5574.165694423321
 20
1208.069870279041
 30
0.0
 11
5509.857888239856
 21
1448.069870279037
 31
0.0
  0
LINE
  5
20227
330
747D
100
AcDbEntity
  8
細線
 48
50.0
100
AcDbLine
 10
5558.088742877452
 20
1268.069870279038
 30
0.0
 11
5542.01179133159
 21
1208.069870279038
 31
0.0
  0
LINE
  5
20228
330
747D
100
AcDbEntity
  8
細線
 48
50.0
100
AcDbLine
 10
5426.608667965375
 20
1268.069870279038
 30
0.0
 11
5410.531716419512
 21
1208.069870279038
 31
0.0
  0
LINE
  5
20229
330
747D
100
AcDbEntity
  8
細線
 48
50.0
100
AcDbLine
 10
5295.128593053302
 20
1268.069870279038
 30
0.0
 11
5279.05164150744
 21
1208.069870279038
 31
0.0
  0
LINE
  5
2022B
330
747D
100
AcDbEntity
  8
細線
 48
50.0
100
AcDbLine
 10
5131.494615049479
 20
1388.069870279045
 30
0.0
 11
5147.57156659536
 21
1448.069870279041
 31
0.0
  0
LINE
  5
2022E
330
747D
100
AcDbEntity
  8
部品1
 62
     7
100
AcDbLine
 10
4095.872661766946
 20
3892.381333552427
 30
0.0
 11
9811.564659728771
 21
3892.381333552428
 31
0.0
  0
LINE
  5
2022F
330
747D
100
AcDbEntity
  8
部品1
 62
     7
100
AcDbLine
 10
9811.564659728771
 20
3892.381333552427
 30
0.0
 11
9811.564659728771
 21
679.3837788033888
 31
0.0
  0
LINE
  5
20230
330
747D
100
AcDbEntity
  8
部品1
 62
     7
100
AcDbLine
 10
9811.564659728771
 20
679.3837788033888
 30
0.0
 11
4095.872661766946
 21
679.3837788033888
 31
0.0
  0
LINE
  5
20231
330
747D
100
AcDbEntity
  8
部品1
 62
     7
100
AcDbLine
 10
4095.872661766945
 20
679.3837788033888
 30
0.0
 11
4095.872661766946
 21
3892.381333552427
 31
0.0
  0
ENDSEC
  0
SECTION
  2
OBJECTS
  0
DICTIONARY
  5
7471
330
0
100
AcDbDictionary
281
     1
  3
ACAD_COLOR
350
159B0
  3
ACAD_GROUP
350
7472
  3
ACAD_LAYOUT
350
159B1
  3
ACAD_MATERIAL
350
159AF
  3
ACAD_MLINESTYLE
350
7473
  3
ACAD_PLOTSETTINGS
350
159B2
  3
ACAD_PLOTSTYLENAME
350
159AD
  3
ACDBHEADERROUNDTRIPXREC
350
2024A
  3
AcDbVariableDictionary
350
20246
  3
CONTENTDICTIONARY
350
E71C
  3
DRAWINGVARIABLESDICT
350
F3B9
  0
DICTIONARY
  5
1FF5A
330
7467
100
AcDbDictionary
280
     1
281
     1
  3
ACAD_LAYERSTATES
360
1FF5B
  0
DICTIONARY
  5
159B0
102
{ACAD_REACTORS
330
7471
102
}
330
7471
100
AcDbDictionary
281
     1
  0
DICTIONARY
  5
7472
102
{ACAD_REACTORS
330
7471
102
}
330
7471
100
AcDbDictionary
281
     1
  0
DICTIONARY
  5
159B1
102
{ACAD_REACTORS
330
7471
102
}
330
7471
100
AcDbDictionary
281
     1
  3
Model
350
159B3
  3
レイアウト1
350
159B4
  0
DICTIONARY
  5
159AF
102
{ACAD_REACTORS
330
7471
102
}
330
7471
100
AcDbDictionary
281
     1
  0
DICTIONARY
  5
7473
102
{ACAD_REACTORS
330
7471
102
}
330
7471
100
AcDbDictionary
281
     1
  3
STANDARD
350
7480
  0
DICTIONARY
  5
159B2
102
{ACAD_REACTORS
330
7471
102
}
330
7471
100
AcDbDictionary
281
     1
  0
ACDBDICTIONARYWDFLT
  5
159AD
102
{ACAD_REACTORS
330
7471
102
}
330
7471
100
AcDbDictionary
281
     1
  3
Normal
350
159AE
100
AcDbDictionaryWithDefault
340
159AE
  0
DICTIONARY
  5
2024A
102
{ACAD_REACTORS
330
7471
102
}
330
7471
100
AcDbDictionary
281
     1
  3
COLORDICT
350
2024C
  3
MATERIALDICT
350
2024B
  0
DICTIONARY
  5
20246
102
{ACAD_REACTORS
330
7471
102
}
330
7471
100
AcDbDictionary
281
     1
  3
DIMASSOC
350
20247
  3
PROJECTNAME
350
20248
  0
DICTIONARY
  5
E71C
102
{ACAD_REACTORS
330
7471
102
}
330
7471
100
AcDbDictionary
281
     1
  0
DICTIONARY
  5
F3B9
102
{ACAD_REACTORS
330
7471
102
}
330
7471
100
AcDbDictionary
281
     1
1001
DRAWINGVARIABLESXDATA
1000
POLARMODE
1000
1
  0
DICTIONARY
  5
1FF5B
102
{ACAD_REACTORS
330
1FF5A
102
}
330
1FF5A
100
AcDbDictionary
281
     1
  0
LAYOUT
  5
159B3
102
{ACAD_XDICTIONARY
360
2024D
102
}
102
{ACAD_REACTORS
330
159B1
102
}
330
159B1
100
AcDbPlotSettings
  1

  2
none_device
  4
Letter_(8.50_x_11.00_Inches)
  6

 40
6.349999904632568
 41
6.349999904632568
 42
6.350006103515625
 43
6.350006103515625
 44
215.8999938964844
 45
279.3999938964844
 46
0.0
 47
0.0
 48
0.0
 49
0.0
140
0.0
141
0.0
142
1.0
143
1.0
 70
 11952
 72
     1
 73
     1
 74
     0
  7

 75
     0
147
1.0
148
-4149.571981164617
149
65.56433826894044
100
AcDbLayout
  1
Model
 70
     1
 71
     0
 10
0.0
 20
0.0
 11
12.0
 21
9.0
 12
0.0
 22
0.0
 32
0.0
 14
0.0
 24
0.0
 34
0.0
 15
0.0
 25
0.0
 35
0.0
146
0.0
 13
0.0
 23
0.0
 33
0.0
 16
1.0
 26
0.0
 36
0.0
 17
0.0
 27
1.0
 37
0.0
 76
     0
330
747D
  0
LAYOUT
  5
159B4
102
{ACAD_XDICTIONARY
360
2024F
102
}
102
{ACAD_REACTORS
330
159B1
102
}
330
159B1
100
AcDbPlotSettings
  1

  2
自動 EPSON LP-8400FX (TATENO 上)
  4

  6

 40
0.0
 41
0.0
 42
0.0
 43
0.0
 44
0.0
 45
0.0
 46
0.0
 47
0.0
 48
0.0
 49
0.0
140
0.0
141
0.0
142
1.0
143
1.0
 70
   688
 72
     0
 73
     0
 74
     5
  7
inaba.ctb
 75
    16
147
1.0
148
0.0
149
0.0
100
AcDbLayout
  1
レイアウト1
 70
     0
 71
     1
 10
0.0
 20
0.0
 11
420.0
 21
297.0
 12
0.0
 22
0.0
 32
0.0
 14
1.000000000000000E+20
 24
1.000000000000000E+20
 34
1.000000000000000E+20
 15
-1.000000000000000E+20
 25
-1.000000000000000E+20
 35
-1.000000000000000E+20
146
0.0
 13
0.0
 23
0.0
 33
0.0
 16
1.0
 26
0.0
 36
0.0
 17
0.0
 27
1.0
 37
0.0
 76
     0
330
747A
  0
MLINESTYLE
  5
7480
102
{ACAD_REACTORS
330
7473
102
}
330
7473
100
AcDbMlineStyle
  2
STANDARD
 70
     0
  3

 62
     0
 51
90.0
 52
90.0
 71
     2
 49
0.5
 62
   256
  6
BYLAYER
 49
-0.5
 62
   256
  6
BYLAYER
  0
ACDBPLACEHOLDER
  5
159AE
102
{ACAD_REACTORS
330
159AD
102
}
330
159AD
  0
XRECORD
  5
2024C
102
{ACAD_REACTORS
330
2024A
102
}
330
2024A
100
AcDbXrecord
280
     1
340
159B0
  0
XRECORD
  5
2024B
102
{ACAD_REACTORS
330
2024A
102
}
330
2024A
100
AcDbXrecord
280
     1
340
159AF
  0
DICTIONARYVAR
  5
20247
102
{ACAD_REACTORS
330
20246
102
}
330
20246
100
DictionaryVariables
280
     0
  1
1
  0
DICTIONARYVAR
  5
20248
102
{ACAD_REACTORS
330
20246
102
}
330
20246
100
DictionaryVariables
280
     0
  1

  0
DICTIONARY
  5
2024D
330
159B3
100
AcDbDictionary
280
     1
281
     1
  3
ACAD_XREC_ROUNDTRIP
360
2024E
  0
DICTIONARY
  5
2024F
330
159B4
100
AcDbDictionary
280
     1
281
     1
  3
ACAD_XREC_ROUNDTRIP
360
20250
  0
XRECORD
  5
2024E
102
{ACAD_REACTORS
330
2024D
102
}
330
2024D
100
AcDbXrecord
280
     1
102
SHADEPLOT
 70
     0
102
SHADEPLOTRESLEVEL
 70
     2
102
SHADEPLOTCUSTOMDPI
 70
   300
  0
XRECORD
  5
20250
102
{ACAD_REACTORS
330
2024F
102
}
330
2024F
100
AcDbXrecord
280
     1
102
SHADEPLOT
 70
     0
102
SHADEPLOTRESLEVEL
 70
     2
102
SHADEPLOTCUSTOMDPI
 70
   300
  0
ENDSEC
  0
EOF
