  0
SECTION
  2
HEADER
  9
$ACADVER
  1
AC1015
  9
$ACADMAINTVER
 70
    20
  9
$DWGCODEPAGE
  3
ANSI_932
  9
$INSBASE
 10
0.0
 20
0.0
 30
0.0
  9
$EXTMIN
 10
139.196816621341
 20
-0.4782066265142931
 30
-0.0000000349181948
  9
$EXTMAX
 10
16308.32523385566
 20
11409.91503083089
 30
0.0000000814935746
  9
$LIMMIN
 10
0.0
 20
0.0
  9
$LIMMAX
 10
16800.0
 20
11880.0
  9
$ORTHOMODE
 70
     0
  9
$REGENMODE
 70
     1
  9
$FILLMODE
 70
     1
  9
$QTEXTMODE
 70
     0
  9
$MIRRTEXT
 70
     1
  9
$LTSCALE
 40
20.0
  9
$ATTMODE
 70
     1
  9
$TEXTSIZE
 40
100.0
  9
$TRACEWID
 40
1.0
  9
$TEXTSTYLE
  7
STYLE2
  9
$CLAYER
  8
部品1
  9
$CELTYPE
  6
BYLAYER
  9
$CECOLOR
 62
   256
  9
$CELTSCALE
 40
50.0
  9
$DISPSILH
 70
     0
  9
$DIMSCALE
 40
40.0
  9
$DIMASZ
 40
2.5
  9
$DIMEXO
 40
0.5
  9
$DIMDLI
 40
7.0
  9
$DIMRND
 40
0.0
  9
$DIMDLE
 40
0.0
  9
$DIMEXE
 40
1.5
  9
$DIMTP
 40
0.0
  9
$DIMTM
 40
0.0
  9
$DIMTXT
 40
3.0
  9
$DIMCEN
 40
0.0
  9
$DIMTSZ
 40
0.0
  9
$DIMTOL
 70
     0
  9
$DIMLIM
 70
     0
  9
$DIMTIH
 70
     0
  9
$DIMTOH
 70
     0
  9
$DIMSE1
 70
     0
  9
$DIMSE2
 70
     0
  9
$DIMTAD
 70
     3
  9
$DIMZIN
 70
     8
  9
$DIMBLK
  1

  9
$DIMASO
 70
     1
  9
$DIMSHO
 70
     1
  9
$DIMPOST
  1

  9
$DIMAPOST
  1

  9
$DIMALT
 70
     0
  9
$DIMALTD
 70
     2
  9
$DIMALTF
 40
0.0394
  9
$DIMLFAC
 40
1.0
  9
$DIMTOFL
 70
     1
  9
$DIMTVP
 40
0.0
  9
$DIMTIX
 70
     0
  9
$DIMSOXD
 70
     0
  9
$DIMSAH
 70
     1
  9
$DIMBLK1
  1
DOTSMALL
  9
$DIMBLK2
  1
DOTSMALL
  9
$DIMSTYLE
  2
INABA_S40G
  9
$DIMCLRD
 70
     0
  9
$DIMCLRE
 70
     0
  9
$DIMCLRT
 70
     7
  9
$DIMTFAC
 40
1.0
  9
$DIMGAP
 40
1.0
  9
$DIMJUST
 70
     0
  9
$DIMSD1
 70
     0
  9
$DIMSD2
 70
     0
  9
$DIMTOLJ
 70
     1
  9
$DIMTZIN
 70
     0
  9
$DIMALTZ
 70
     0
  9
$DIMALTTZ
 70
     0
  9
$DIMUPT
 70
     0
  9
$DIMDEC
 70
     1
  9
$DIMTDEC
 70
     1
  9
$DIMALTU
 70
     2
  9
$DIMALTTD
 70
     2
  9
$DIMTXSTY
  7
STYLE1
  9
$DIMAUNIT
 70
     0
  9
$DIMADEC
 70
     0
  9
$DIMALTRND
 40
0.0
  9
$DIMAZIN
 70
     0
  9
$DIMDSEP
 70
    46
  9
$DIMATFIT
 70
     3
  9
$DIMFRAC
 70
     0
  9
$DIMLDRBLK
  1

  9
$DIMLUNIT
 70
     2
  9
$DIMLWD
 70
    -2
  9
$DIMLWE
 70
    -2
  9
$DIMTMOVE
 70
     1
  9
$LUNITS
 70
     2
  9
$LUPREC
 70
     1
  9
$SKETCHINC
 40
1.0
  9
$FILLETRAD
 40
2.299999999999999
  9
$AUNITS
 70
     0
  9
$AUPREC
 70
     0
  9
$MENU
  1
acad
  9
$ELEVATION
 40
0.0
  9
$PELEVATION
 40
0.0
  9
$THICKNESS
 40
0.0
  9
$LIMCHECK
 70
     0
  9
$CHAMFERA
 40
3.0
  9
$CHAMFERB
 40
3.0
  9
$CHAMFERC
 40
0.0
  9
$CHAMFERD
 40
0.0
  9
$SKPOLY
 70
     0
  9
$TDCREATE
 40
2451368.612993866
  9
$TDUCREATE
 40
2451368.237993866
  9
$TDUPDATE
 40
2455552.737170498
  9
$TDUUPDATE
 40
2455552.362170498
  9
$TDINDWG
 40
1.7264612731
  9
$TDUSRTIMER
 40
1.7264612731
  9
$USRTIMER
 70
     1
  9
$ANGBASE
 50
0.0
  9
$ANGDIR
 70
     0
  9
$PDMODE
 70
     3
  9
$PDSIZE
 40
2.0
  9
$PLINEWID
 40
0.0
  9
$SPLFRAME
 70
     0
  9
$SPLINETYPE
 70
     6
  9
$SPLINESEGS
 70
     8
  9
$HANDSEED
  5
2504B
  9
$SURFTAB1
 70
     6
  9
$SURFTAB2
 70
     6
  9
$SURFTYPE
 70
     6
  9
$SURFU
 70
     6
  9
$SURFV
 70
     6
  9
$UCSBASE
  2

  9
$UCSNAME
  2

  9
$UCSORG
 10
0.0
 20
0.0
 30
0.0
  9
$UCSXDIR
 10
1.0
 20
0.0
 30
0.0
  9
$UCSYDIR
 10
0.0
 20
1.0
 30
0.0
  9
$UCSORTHOREF
  2

  9
$UCSORTHOVIEW
 70
     0
  9
$UCSORGTOP
 10
0.0
 20
0.0
 30
0.0
  9
$UCSORGBOTTOM
 10
0.0
 20
0.0
 30
0.0
  9
$UCSORGLEFT
 10
0.0
 20
0.0
 30
0.0
  9
$UCSORGRIGHT
 10
0.0
 20
0.0
 30
0.0
  9
$UCSORGFRONT
 10
0.0
 20
0.0
 30
0.0
  9
$UCSORGBACK
 10
0.0
 20
0.0
 30
0.0
  9
$PUCSBASE
  2

  9
$PUCSNAME
  2

  9
$PUCSORG
 10
0.0
 20
0.0
 30
0.0
  9
$PUCSXDIR
 10
1.0
 20
0.0
 30
0.0
  9
$PUCSYDIR
 10
0.0
 20
1.0
 30
0.0
  9
$PUCSORTHOREF
  2

  9
$PUCSORTHOVIEW
 70
     0
  9
$PUCSORGTOP
 10
0.0
 20
0.0
 30
0.0
  9
$PUCSORGBOTTOM
 10
0.0
 20
0.0
 30
0.0
  9
$PUCSORGLEFT
 10
0.0
 20
0.0
 30
0.0
  9
$PUCSORGRIGHT
 10
0.0
 20
0.0
 30
0.0
  9
$PUCSORGFRONT
 10
0.0
 20
0.0
 30
0.0
  9
$PUCSORGBACK
 10
0.0
 20
0.0
 30
0.0
  9
$USERI1
 70
     0
  9
$USERI2
 70
     0
  9
$USERI3
 70
     0
  9
$USERI4
 70
     0
  9
$USERI5
 70
     0
  9
$USERR1
 40
0.0
  9
$USERR2
 40
0.0
  9
$USERR3
 40
0.0
  9
$USERR4
 40
0.0
  9
$USERR5
 40
0.0
  9
$WORLDVIEW
 70
     1
  9
$SHADEDGE
 70
     3
  9
$SHADEDIF
 70
    70
  9
$TILEMODE
 70
     1
  9
$MAXACTVP
 70
    16
  9
$PINSBASE
 10
0.0
 20
0.0
 30
0.0
  9
$PLIMCHECK
 70
     0
  9
$PEXTMIN
 10
1.000000000000000E+20
 20
1.000000000000000E+20
 30
1.000000000000000E+20
  9
$PEXTMAX
 10
-1.000000000000000E+20
 20
-1.000000000000000E+20
 30
-1.000000000000000E+20
  9
$PLIMMIN
 10
0.0
 20
0.0
  9
$PLIMMAX
 10
420.0
 20
297.0
  9
$UNITMODE
 70
     0
  9
$VISRETAIN
 70
     0
  9
$PLINEGEN
 70
     0
  9
$PSLTSCALE
 70
     0
  9
$TREEDEPTH
 70
  3020
  9
$CMLSTYLE
  2
STANDARD
  9
$CMLJUST
 70
     0
  9
$CMLSCALE
 40
1.0
  9
$PROXYGRAPHICS
 70
     1
  9
$MEASUREMENT
 70
     1
  9
$CELWEIGHT
370
    -1
  9
$ENDCAPS
280
     0
  9
$JOINSTYLE
280
     0
  9
$LWDISPLAY
290
     0
  9
$INSUNITS
 70
     0
  9
$HYPERLINKBASE
  1

  9
$STYLESHEET
  1
inaba.ctb
  9
$XEDIT
290
     1
  9
$CEPSNTYPE
380
     0
  9
$PSTYLEMODE
290
     1
  9
$FINGERPRINTGUID
  2
{3B57B35E-7D77-4BBF-81B7-6C583B9EB24C}
  9
$VERSIONGUID
  2
{A0462DFA-D22B-4084-A46C-60BF89E64839}
  9
$EXTNAMES
290
     1
  9
$PSVPSCALE
 40
0.0
  9
$OLESTARTUP
290
     0
  0
ENDSEC
  0
SECTION
  2
CLASSES
  0
CLASS
  1
ACDBDICTIONARYWDFLT
  2
AcDbDictionaryWithDefault
  3
ObjectDBX Classes
 90
        0
280
     0
281
     0
  0
CLASS
  1
DICTIONARYVAR
  2
AcDbDictionaryVar
  3
ObjectDBX Classes
 90
        0
280
     0
281
     0
  0
CLASS
  1
ACDBPLACEHOLDER
  2
AcDbPlaceHolder
  3
ObjectDBX Classes
 90
        0
280
     0
281
     0
  0
CLASS
  1
LAYOUT
  2
AcDbLayout
  3
ObjectDBX Classes
 90
        0
280
     0
281
     0
  0
ENDSEC
  0
SECTION
  2
TABLES
  0
TABLE
  2
VPORT
  5
746D
330
0
100
AcDbSymbolTable
 70
     3
  0
VPORT
  5
25043
330
746D
100
AcDbSymbolTableRecord
100
AcDbViewportTableRecord
  2
*Active
 70
     0
 10
0.0
 20
0.0
 11
1.0
 21
1.0
 12
8223.761025238502
 22
5704.718412102188
 13
0.0
 23
0.0
 14
10.0
 24
10.0
 15
10.0
 25
10.0
 16
0.0
 26
0.0
 36
1.0
 17
0.0
 27
0.0
 37
0.0
 40
11495.86434785034
 41
1.5075
 42
50.0
 43
0.0
 44
0.0
 50
0.0
 51
0.0
 71
     0
 72
     0
 73
     1
 74
     0
 75
     0
 76
     0
 77
     0
 78
     0
281
     0
 65
     1
110
0.0
120
0.0
130
0.0
111
1.0
121
0.0
131
0.0
112
0.0
122
1.0
132
0.0
 79
     0
146
0.0
  0
ENDTAB
  0
TABLE
  2
LTYPE
  5
746A
330
0
100
AcDbSymbolTable
 70
     4
  0
LTYPE
  5
7477
330
746A
100
AcDbSymbolTableRecord
100
AcDbLinetypeTableRecord
  2
BYBLOCK
 70
     0
  3

 72
    65
 73
     0
 40
0.0
  0
LTYPE
  5
7478
330
746A
100
AcDbSymbolTableRecord
100
AcDbLinetypeTableRecord
  2
BYLAYER
 70
     0
  3

 72
    65
 73
     0
 40
0.0
  0
LTYPE
  5
7479
330
746A
100
AcDbSymbolTableRecord
100
AcDbLinetypeTableRecord
  2
CONTINUOUS
 70
     0
  3
Solid line
 72
    65
 73
     0
 40
0.0
  0
LTYPE
  5
7816
330
746A
100
AcDbSymbolTableRecord
100
AcDbLinetypeTableRecord
  2
CENTER
 70
     0
  3
____ _ ____ _ ____ _ ____ _ ____ _ ____ _ ____ 
 72
    65
 73
     4
 40
2.0
 49
1.25
 74
     0
 49
-0.25
 74
     0
 49
0.25
 74
     0
 49
-0.25
 74
     0
  0
LTYPE
  5
781A
330
746A
100
AcDbSymbolTableRecord
100
AcDbLinetypeTableRecord
  2
HIDDEN
 70
     0
  3
__ __ __ __ __ __ __ __ __ __ __ __ __ __ __ __
 72
    65
 73
     2
 40
0.375
 49
0.25
 74
     0
 49
-0.125
 74
     0
  0
LTYPE
  5
781B
330
746A
100
AcDbSymbolTableRecord
100
AcDbLinetypeTableRecord
  2
PHANTOM
 70
     0
  3
______  __  __  ______  __  __  ______  __  __ 
 72
    65
 73
     6
 40
2.5
 49
1.25
 74
     0
 49
-0.25
 74
     0
 49
0.25
 74
     0
 49
-0.25
 74
     0
 49
0.25
 74
     0
 49
-0.25
 74
     0
  0
ENDTAB
  0
TABLE
  2
LAYER
  5
7467
102
{ACAD_XDICTIONARY
360
21291
102
}
330
0
100
AcDbSymbolTable
 70
    13
  0
LAYER
  5
7474
330
7467
100
AcDbSymbolTableRecord
100
AcDbLayerTableRecord
  2
0
 70
     0
 62
     7
  6
CONTINUOUS
370
    -3
390
159AE
  0
LAYER
  5
DEB2
330
7467
100
AcDbSymbolTableRecord
100
AcDbLayerTableRecord
  2
センター
 70
     0
 62
     3
  6
CENTER
370
    -3
390
159AE
  0
LAYER
  5
DEB3
330
7467
100
AcDbSymbolTableRecord
100
AcDbLayerTableRecord
  2
寸法
 70
     0
 62
     4
  6
CONTINUOUS
370
    -3
390
159AE
  0
LAYER
  5
DEB4
330
7467
100
AcDbSymbolTableRecord
100
AcDbLayerTableRecord
  2
部品1
 70
     0
 62
     7
  6
CONTINUOUS
370
    -3
390
159AE
  0
LAYER
  5
DEB5
330
7467
100
AcDbSymbolTableRecord
100
AcDbLayerTableRecord
  2
補助
 70
     0
 62
    -1
  6
CONTINUOUS
370
    -3
390
159AE
  0
LAYER
  5
DEB6
330
7467
100
AcDbSymbolTableRecord
100
AcDbLayerTableRecord
  2
文字
 70
     0
 62
     7
  6
CONTINUOUS
370
    -3
390
159AE
  0
LAYER
  5
F255
330
7467
100
AcDbSymbolTableRecord
100
AcDbLayerTableRecord
  2
DEFPOINTS
 70
     0
 62
     7
  6
CONTINUOUS
290
     0
370
    -3
390
159AE
  0
LAYER
  5
10B54
330
7467
100
AcDbSymbolTableRecord
100
AcDbLayerTableRecord
  2
仕様書枠
 70
     0
 62
   230
  6
CONTINUOUS
370
    -3
390
159AE
  0
LAYER
  5
11729
330
7467
100
AcDbSymbolTableRecord
100
AcDbLayerTableRecord
  2
Ｇ．Ｌ
 70
     0
 62
    30
  6
CONTINUOUS
370
    -3
390
159AE
  0
LAYER
  5
1173F
330
7467
100
AcDbSymbolTableRecord
100
AcDbLayerTableRecord
  2
細線
 70
     0
 62
     5
  6
CONTINUOUS
370
    -3
390
159AE
  0
LAYER
  5
12CC4
330
7467
100
AcDbSymbolTableRecord
100
AcDbLayerTableRecord
  2
想像線
 70
     0
 62
     6
  6
PHANTOM
370
    -3
390
159AE
  0
LAYER
  5
142E2
330
7467
100
AcDbSymbolTableRecord
100
AcDbLayerTableRecord
  2
破線
 70
     0
 62
     2
  6
HIDDEN
370
    -3
390
159AE
  0
LAYER
  5
21290
330
7467
100
AcDbSymbolTableRecord
100
AcDbLayerTableRecord
  2
点線
 70
     0
 62
     2
  6
HIDDEN
370
    -3
390
159AE
  0
ENDTAB
  0
TABLE
  2
STYLE
  5
7468
330
0
100
AcDbSymbolTable
 70
     4
  0
STYLE
  5
7475
330
7468
100
AcDbSymbolTableRecord
100
AcDbTextStyleTableRecord
  2
STANDARD
 70
     0
 40
0.0
 41
1.0
 50
0.0
 71
     0
 42
4.0
  3
txt
  4
C:\AutoCAD LT\bigfont.shx
  0
STYLE
  5
F706
330
7468
100
AcDbSymbolTableRecord
100
AcDbTextStyleTableRecord
  2
STYLE1
 70
     0
 40
0.0
 41
1.0
 50
0.0
 71
     0
 42
100.0
  3
isocp.shx
  4
bigfont.shx
  0
STYLE
  5
103BF
330
7468
100
AcDbSymbolTableRecord
100
AcDbTextStyleTableRecord
  2
STYLE2
 70
     0
 40
0.0
 41
1.0
 50
0.0
 71
     0
 42
100.0
  3
MS PGothic.ttf
  4

1001
ACAD
1000
MS PGothic
1071
    32818
  0
STYLE
  5
214E3
330
7468
100
AcDbSymbolTableRecord
100
AcDbTextStyleTableRecord
  2
丸ゴシック
 70
     0
 40
0.0
 41
1.0
 50
0.0
 71
     0
 42
150.0
  3
HGRSMP.TTF
  4

1001
ACAD
1000
HG丸ｺﾞｼｯｸM-PRO
1071
    32818
  0
ENDTAB
  0
TABLE
  2
VIEW
  5
746B
330
0
100
AcDbSymbolTable
 70
     0
  0
ENDTAB
  0
TABLE
  2
UCS
  5
746C
330
0
100
AcDbSymbolTable
 70
     0
  0
ENDTAB
  0
TABLE
  2
APPID
  5
746E
330
0
100
AcDbSymbolTable
 70
     6
  0
APPID
  5
7476
330
746E
100
AcDbSymbolTableRecord
100
AcDbRegAppTableRecord
  2
ACAD
 70
     0
  0
APPID
  5
DEA9
330
746E
100
AcDbSymbolTableRecord
100
AcDbRegAppTableRecord
  2
CONTENTBLOCKICON
 70
     0
  0
APPID
  5
DEAA
330
746E
100
AcDbSymbolTableRecord
100
AcDbRegAppTableRecord
  2
CONTENTBLOCKDESCRIPTION
 70
     0
  0
APPID
  5
E71D
330
746E
100
AcDbSymbolTableRecord
100
AcDbRegAppTableRecord
  2
CONTENTTABDATA
 70
     0
  0
APPID
  5
E71E
330
746E
100
AcDbSymbolTableRecord
100
AcDbRegAppTableRecord
  2
CONTENTCURRENTTAB
 70
     0
  0
APPID
  5
F3BA
330
746E
100
AcDbSymbolTableRecord
100
AcDbRegAppTableRecord
  2
DRAWINGVARIABLESXDATA
 70
     0
  0
ENDTAB
  0
TABLE
  2
DIMSTYLE
  5
746F
330
0
100
AcDbSymbolTable
 70
     4
100
AcDbDimStyleTable
 71
     1
340
F71F
  0
DIMSTYLE
105
F71F
102
{ACAD_REACTORS
330
237A4
330
237A3
330
2360A
330
23609
330
234BB
330
234BA
330
2362D
330
23618
330
23612
330
237B9
330
237B8
330
237B2
330
237A9
330
237A8
330
237A7
330
234BC
330
237BE
330
237B1
330
237AC
330
237AE
330
237AD
330
235B1
330
236AC
330
235FC
330
235A4
330
2354C
330
234D8
330
234D7
330
234D9
330
23511
330
234E8
330
2353C
330
2353D
330
235F1
330
234C3
330
234BD
330
234C7
330
2364D
330
2364E
330
23651
330
23652
330
235CD
102
}
330
746F
100
AcDbSymbolTableRecord
100
AcDbDimStyleTableRecord
  2
INABA_S40G
 70
     0
 40
40.0
 41
2.5
 42
0.5
 43
7.0
 44
1.5
 73
     0
 74
     0
 77
     3
 78
     8
140
3.0
141
0.0
143
0.0394
147
1.0
172
     1
173
     1
174
     1
178
     7
271
     1
288
     1
340
F706
341
F770
343
F770
344
F770
  0
DIMSTYLE
105
1C645
330
746F
100
AcDbSymbolTableRecord
100
AcDbDimStyleTableRecord
  2
INABA_S50G
 70
     0
 40
0.0
 41
125.0
 42
25.0
 43
7.0
 44
75.0
 73
     0
 74
     0
 77
     3
 78
     8
140
150.0
141
0.0
143
0.0394
147
25.0
172
     1
173
     1
174
     1
178
     7
271
     1
340
F706
341
F770
343
F770
344
F770
  0
DIMSTYLE
105
2197E
330
746F
100
AcDbSymbolTableRecord
100
AcDbDimStyleTableRecord
  2
INABA_S50G詳細用
 70
     0
 40
0.0
 41
125.0
 42
25.0
 43
7.0
 44
35.0
 73
     0
 74
     0
 77
     3
 78
     8
140
150.0
141
0.0
143
0.0394
144
0.5
147
25.0
172
     1
173
     1
178
     7
271
     1
272
     1
340
F706
341
1C530
343
F770
344
F770
  0
DIMSTYLE
105
2197F
330
746F
100
AcDbSymbolTableRecord
100
AcDbDimStyleTableRecord
  2
INABA_S50G詳細S20用
 70
     0
 40
0.0
 41
125.0
 42
25.0
 43
7.0
 44
35.0
 73
     0
 74
     0
 77
     3
 78
     8
140
150.0
141
0.0
143
0.0394
144
0.4
147
25.0
172
     1
173
     1
178
     7
271
     1
272
     1
340
F706
341
1C530
343
F770
344
F770
  0
ENDTAB
  0
TABLE
  2
BLOCK_RECORD
  5
7466
330
0
100
AcDbSymbolTable
 70
    45
  0
BLOCK_RECORD
  5
747D
330
7466
100
AcDbSymbolTableRecord
100
AcDbBlockTableRecord
  2
*MODEL_SPACE
340
159B3
  0
BLOCK_RECORD
  5
747A
330
7466
100
AcDbSymbolTableRecord
100
AcDbBlockTableRecord
  2
*PAPER_SPACE
340
159B4
  0
BLOCK_RECORD
  5
F770
330
7466
100
AcDbSymbolTableRecord
100
AcDbBlockTableRecord
  2
_DOTSMALL
340
0
102
{BLKREFS
331
23F02
331
23F03
331
23F0F
331
23F10
331
23F19
331
23F1A
331
23F23
331
23F24
331
23F30
331
23F31
331
23F38
331
23F39
331
23F46
331
23F47
331
23F4F
331
23F50
331
23F5C
331
23F5D
331
23F64
331
23F65
331
23F6D
331
23F6E
331
23F7B
331
23F7C
331
23F86
331
23F87
331
23F90
331
23F91
331
23F99
331
23F9A
331
23FA2
331
23FA3
331
23FB0
331
23FB1
331
23FBB
331
23FBC
331
23FCC
331
23FCD
331
23FD5
331
23FD6
331
23FDF
331
23FE0
331
24D6D
331
24D6E
331
24D83
331
24D84
331
24DF6
331
24DF7
331
24E07
331
24E08
331
24E10
331
24E11
331
24E1A
331
24E1B
331
24E37
331
24E38
331
24E56
331
24E57
331
24E5E
331
24E5F
331
24E7A
331
24E7B
331
24E85
331
24E86
331
24E8F
331
24E90
331
24EAA
331
24EAB
331
24EB4
331
24EB5
331
24EBF
331
24EC0
331
24EC7
331
24EC8
331
24F09
331
24F0A
331
24F2D
331
24F2E
331
24F40
331
24F41
331
24F57
331
24F58
102
}
  0
BLOCK_RECORD
  5
1C530
330
7466
100
AcDbSymbolTableRecord
100
AcDbBlockTableRecord
  2
_NONE
340
0
  0
BLOCK_RECORD
  5
21836
330
7466
100
AcDbSymbolTableRecord
100
AcDbBlockTableRecord
  2
_Open
340
0
  0
BLOCK_RECORD
  5
22B45
330
7466
100
AcDbSymbolTableRecord
100
AcDbBlockTableRecord
  2
A$C48057142
340
0
  0
BLOCK_RECORD
  5
237C6
330
7466
100
AcDbSymbolTableRecord
100
AcDbBlockTableRecord
  2
*D4
340
0
  0
BLOCK_RECORD
  5
237D2
330
7466
100
AcDbSymbolTableRecord
100
AcDbBlockTableRecord
  2
*D5
340
0
  0
BLOCK_RECORD
  5
237DE
330
7466
100
AcDbSymbolTableRecord
100
AcDbBlockTableRecord
  2
*D6
340
0
  0
BLOCK_RECORD
  5
237EA
330
7466
100
AcDbSymbolTableRecord
100
AcDbBlockTableRecord
  2
*D7
340
0
  0
BLOCK_RECORD
  5
237F8
330
7466
100
AcDbSymbolTableRecord
100
AcDbBlockTableRecord
  2
*D8
340
0
  0
BLOCK_RECORD
  5
23804
330
7466
100
AcDbSymbolTableRecord
100
AcDbBlockTableRecord
  2
*D9
340
0
  0
BLOCK_RECORD
  5
23811
330
7466
100
AcDbSymbolTableRecord
100
AcDbBlockTableRecord
  2
*D10
340
0
  0
BLOCK_RECORD
  5
2381D
330
7466
100
AcDbSymbolTableRecord
100
AcDbBlockTableRecord
  2
*D11
340
0
  0
BLOCK_RECORD
  5
2382A
330
7466
100
AcDbSymbolTableRecord
100
AcDbBlockTableRecord
  2
*D12
340
0
  0
BLOCK_RECORD
  5
23836
330
7466
100
AcDbSymbolTableRecord
100
AcDbBlockTableRecord
  2
*D13
340
0
  0
BLOCK_RECORD
  5
23842
330
7466
100
AcDbSymbolTableRecord
100
AcDbBlockTableRecord
  2
*D14
340
0
  0
BLOCK_RECORD
  5
2384E
330
7466
100
AcDbSymbolTableRecord
100
AcDbBlockTableRecord
  2
*D15
340
0
  0
BLOCK_RECORD
  5
2385A
330
7466
100
AcDbSymbolTableRecord
100
AcDbBlockTableRecord
  2
*D16
340
0
  0
BLOCK_RECORD
  5
23867
330
7466
100
AcDbSymbolTableRecord
100
AcDbBlockTableRecord
  2
*D17
340
0
  0
BLOCK_RECORD
  5
23873
330
7466
100
AcDbSymbolTableRecord
100
AcDbBlockTableRecord
  2
*D18
340
0
  0
BLOCK_RECORD
  5
2387F
330
7466
100
AcDbSymbolTableRecord
100
AcDbBlockTableRecord
  2
*D19
340
0
  0
BLOCK_RECORD
  5
2388C
330
7466
100
AcDbSymbolTableRecord
100
AcDbBlockTableRecord
  2
*D20
340
0
  0
BLOCK_RECORD
  5
2389A
330
7466
100
AcDbSymbolTableRecord
100
AcDbBlockTableRecord
  2
*D21
340
0
  0
BLOCK_RECORD
  5
238A6
330
7466
100
AcDbSymbolTableRecord
100
AcDbBlockTableRecord
  2
*D22
340
0
  0
BLOCK_RECORD
  5
238B2
330
7466
100
AcDbSymbolTableRecord
100
AcDbBlockTableRecord
  2
*D23
340
0
  0
BLOCK_RECORD
  5
238C0
330
7466
100
AcDbSymbolTableRecord
100
AcDbBlockTableRecord
  2
*D24
340
0
  0
BLOCK_RECORD
  5
238CC
330
7466
100
AcDbSymbolTableRecord
100
AcDbBlockTableRecord
  2
*D25
340
0
  0
BLOCK_RECORD
  5
238DA
330
7466
100
AcDbSymbolTableRecord
100
AcDbBlockTableRecord
  2
*D26
340
0
  0
BLOCK_RECORD
  5
238E6
330
7466
100
AcDbSymbolTableRecord
100
AcDbBlockTableRecord
  2
*D27
340
0
  0
BLOCK_RECORD
  5
238F4
330
7466
100
AcDbSymbolTableRecord
100
AcDbBlockTableRecord
  2
*D28
340
0
  0
BLOCK_RECORD
  5
23901
330
7466
100
AcDbSymbolTableRecord
100
AcDbBlockTableRecord
  2
*D29
340
0
  0
BLOCK_RECORD
  5
2390E
330
7466
100
AcDbSymbolTableRecord
100
AcDbBlockTableRecord
  2
*D30
340
0
  0
BLOCK_RECORD
  5
2391B
330
7466
100
AcDbSymbolTableRecord
100
AcDbBlockTableRecord
  2
*D31
340
0
  0
BLOCK_RECORD
  5
23928
330
7466
100
AcDbSymbolTableRecord
100
AcDbBlockTableRecord
  2
*D32
340
0
  0
BLOCK_RECORD
  5
23934
330
7466
100
AcDbSymbolTableRecord
100
AcDbBlockTableRecord
  2
*D33
340
0
  0
BLOCK_RECORD
  5
23940
330
7466
100
AcDbSymbolTableRecord
100
AcDbBlockTableRecord
  2
*D34
340
0
  0
BLOCK_RECORD
  5
2394C
330
7466
100
AcDbSymbolTableRecord
100
AcDbBlockTableRecord
  2
*D35
340
0
  0
BLOCK_RECORD
  5
23959
330
7466
100
AcDbSymbolTableRecord
100
AcDbBlockTableRecord
  2
*D36
340
0
  0
BLOCK_RECORD
  5
23967
330
7466
100
AcDbSymbolTableRecord
100
AcDbBlockTableRecord
  2
*D37
340
0
  0
BLOCK_RECORD
  5
23973
330
7466
100
AcDbSymbolTableRecord
100
AcDbBlockTableRecord
  2
*D38
340
0
  0
BLOCK_RECORD
  5
2397F
330
7466
100
AcDbSymbolTableRecord
100
AcDbBlockTableRecord
  2
*D39
340
0
  0
BLOCK_RECORD
  5
2398D
330
7466
100
AcDbSymbolTableRecord
100
AcDbBlockTableRecord
  2
*D40
340
0
  0
BLOCK_RECORD
  5
2399A
330
7466
100
AcDbSymbolTableRecord
100
AcDbBlockTableRecord
  2
*D41
340
0
  0
BLOCK_RECORD
  5
239A7
330
7466
100
AcDbSymbolTableRecord
100
AcDbBlockTableRecord
  2
*D42
340
0
  0
BLOCK_RECORD
  5
239B4
330
7466
100
AcDbSymbolTableRecord
100
AcDbBlockTableRecord
  2
*D43
340
0
  0
BLOCK_RECORD
  5
239C2
330
7466
100
AcDbSymbolTableRecord
100
AcDbBlockTableRecord
  2
*D44
340
0
  0
ENDTAB
  0
ENDSEC
  0
SECTION
  2
BLOCKS
  0
BLOCK
  5
7489
330
747D
100
AcDbEntity
  8
0
100
AcDbBlockBegin
  2
*MODEL_SPACE
 70
     0
 10
0.0
 20
0.0
 30
0.0
  3
*MODEL_SPACE
  1

  0
ENDBLK
  5
748A
330
747D
100
AcDbEntity
  8
0
100
AcDbBlockEnd
  0
BLOCK
  5
7487
330
747A
100
AcDbEntity
 67
     1
  8
0
100
AcDbBlockBegin
  2
*PAPER_SPACE
 70
     0
 10
0.0
 20
0.0
 30
0.0
  3
*PAPER_SPACE
  1

  0
ENDBLK
  5
7488
330
747A
100
AcDbEntity
 67
     1
  8
0
100
AcDbBlockEnd
  0
BLOCK
  5
F771
330
F770
100
AcDbEntity
  8
0
 48
50.0
100
AcDbBlockBegin
  2
_DOTSMALL
 70
     0
 10
0.0
 20
0.0
 30
0.0
  3
_DOTSMALL
  1

  0
LWPOLYLINE
  5
F772
330
F770
100
AcDbEntity
  8
0
  6
ByBlock
 62
     0
 48
50.0
100
AcDbPolyline
 90
        2
 70
     1
 43
0.5
 10
-0.0625
 20
0.0
 42
1.0
 10
0.0625
 20
0.0
 42
1.0
  0
ENDBLK
  5
F776
330
F770
100
AcDbEntity
  8
0
 48
50.0
100
AcDbBlockEnd
  0
BLOCK
  5
1C531
330
1C530
100
AcDbEntity
  8
0
 48
50.0
100
AcDbBlockBegin
  2
_NONE
 70
     0
 10
0.0
 20
0.0
 30
0.0
  3
_NONE
  1

  0
CIRCLE
  5
1C532
330
1C530
100
AcDbEntity
  8
0
  6
ByBlock
 62
     0
 48
50.0
100
AcDbCircle
 10
0.0
 20
0.0
 30
0.0
 40
0.25
  0
ENDBLK
  5
1C533
330
1C530
100
AcDbEntity
  8
0
 48
50.0
100
AcDbBlockEnd
  0
BLOCK
  5
21837
330
21836
100
AcDbEntity
  8
0
 48
50.0
100
AcDbBlockBegin
  2
_Open
 70
     0
 10
0.0
 20
0.0
 30
0.0
  3
_Open
  1

  0
LINE
  5
21838
330
21836
100
AcDbEntity
  8
0
  6
ByBlock
 62
     0
370
    -2
100
AcDbLine
 10
-1.0
 20
0.1666666666666666
 30
0.0
 11
0.0
 21
0.0
 31
0.0
  0
LINE
  5
21839
330
21836
100
AcDbEntity
  8
0
  6
ByBlock
 62
     0
370
    -2
100
AcDbLine
 10
-1.0
 20
-0.1666666666666666
 30
0.0
 11
0.0
 21
0.0
 31
0.0
  0
LINE
  5
2183A
330
21836
100
AcDbEntity
  8
0
  6
ByBlock
 62
     0
370
    -2
100
AcDbLine
 10
0.0
 20
0.0
 30
0.0
 11
-1.0
 21
0.0
 31
0.0
  0
ENDBLK
  5
2183B
330
21836
100
AcDbEntity
  8
0
 48
50.0
100
AcDbBlockEnd
  0
BLOCK
  5
22B46
330
22B45
100
AcDbEntity
  8
0
 48
50.0
100
AcDbBlockBegin
  2
A$C48057142
 70
     0
 10
0.0
 20
0.0
 30
0.0
  3
A$C48057142
  1

  0
MTEXT
  5
22B47
330
22B45
100
AcDbEntity
  8
文字
  6
ByBlock
 62
     7
 48
50.0
100
AcDbMText
 10
10.00001602817974
 20
400.000006265207
 30
0.0
 40
150.0
 41
0.0
 71
     1
 72
     1
  1
組立後、\P床コンクリート打
  7
STYLE1
 73
     1
 44
1.0
1001
ACAD
1000
MTEXTBEGIN
1070
    73
1070
     1
1070
    44
1040
1.0
1070
    74
1070
     0
1000
MTEXTEND
  0
ENDBLK
  5
22B48
330
22B45
100
AcDbEntity
  8
0
 48
50.0
100
AcDbBlockEnd
  0
BLOCK
  5
237D0
330
237C6
100
AcDbEntity
  8
0
 48
50.0
100
AcDbBlockBegin
  2
*D4
 70
     1
 10
0.0
 20
0.0
 30
0.0
  3
*D4
  1

  0
LINE
  5
23FD2
330
237C6
100
AcDbEntity
  8
寸法
 62
     0
 48
50.0
370
    -2
100
AcDbLine
 10
8942.917420526706
 20
8780.503905649281
 30
0.0
 11
8942.917420526706
 21
9540.613565556052
 31
0.0
  0
LINE
  5
23FD3
330
237C6
100
AcDbEntity
  8
寸法
 62
     0
 48
50.0
370
    -2
100
AcDbLine
 10
6452.917420526891
 20
8780.503905649281
 30
0.0
 11
6452.917420526891
 21
9540.613565556052
 31
0.0
  0
LINE
  5
23FD4
330
237C6
100
AcDbEntity
  8
寸法
 62
     0
 48
50.0
370
    -2
100
AcDbLine
 10
8942.917420526706
 20
9480.613565556053
 30
0.0
 11
6452.917420526891
 21
9480.613565556053
 31
0.0
  0
INSERT
  5
23FD5
330
237C6
100
AcDbEntity
  8
寸法
 62
     0
 48
50.0
370
    -2
100
AcDbBlockReference
  2
_DOTSMALL
 10
8942.917420526706
 20
9480.613565556053
 30
0.0
 41
100.0
 42
100.0
 43
100.0
  0
INSERT
  5
23FD6
330
237C6
100
AcDbEntity
  8
寸法
 62
     0
 48
50.0
370
    -2
100
AcDbBlockReference
  2
_DOTSMALL
 10
6452.917420526891
 20
9480.613565556053
 30
0.0
 41
100.0
 42
100.0
 43
100.0
 50
180.0
  0
MTEXT
  5
23FD7
330
237C6
100
AcDbEntity
  8
寸法
 62
     7
 48
50.0
100
AcDbMText
 10
7697.917420526799
 20
9580.625376579673
 30
0.0
 40
120.0
 41
0.0
 71
     5
 72
     1
  1
\A1;2490
  7
STYLE1
 73
     1
 44
1.0
1001
ACAD
1000
MTEXTBEGIN
1070
    73
1070
     1
1070
    44
1040
1.0
1070
    74
1070
     0
1000
MTEXTEND
  0
POINT
  5
23FD8
330
237C6
100
AcDbEntity
  8
DEFPOINTS
 62
     0
 48
50.0
100
AcDbPoint
 10
8942.917420526706
 20
8760.503905649281
 30
0.0
  0
POINT
  5
23FD9
330
237C6
100
AcDbEntity
  8
DEFPOINTS
 62
     0
 48
50.0
100
AcDbPoint
 10
6452.917420526891
 20
8760.503905649281
 30
0.0
  0
POINT
  5
23FDA
330
237C6
100
AcDbEntity
  8
DEFPOINTS
 62
     0
 48
50.0
100
AcDbPoint
 10
6452.917420526891
 20
9480.613565556053
 30
0.0
  0
ENDBLK
  5
237D1
330
237C6
100
AcDbEntity
  8
0
 48
50.0
100
AcDbBlockEnd
  0
BLOCK
  5
237DC
330
237D2
100
AcDbEntity
  8
0
 48
50.0
100
AcDbBlockBegin
  2
*D5
 70
     1
 10
0.0
 20
0.0
 30
0.0
  3
*D5
  1

  0
LINE
  5
23FC9
330
237D2
100
AcDbEntity
  8
寸法
 62
     0
 48
50.0
370
    -2
100
AcDbLine
 10
6377.917420526706
 20
8780.503905649281
 30
0.0
 11
6377.917420526706
 21
9840.779765297414
 31
0.0
  0
LINE
  5
23FCA
330
237D2
100
AcDbEntity
  8
寸法
 62
     0
 48
50.0
370
    -2
100
AcDbLine
 10
9017.917420526705
 20
8780.503905649281
 30
0.0
 11
9017.917420526705
 21
9840.779765297414
 31
0.0
  0
LINE
  5
23FCB
330
237D2
100
AcDbEntity
  8
寸法
 62
     0
 48
50.0
370
    -2
100
AcDbLine
 10
6377.917420526706
 20
9780.779765297413
 30
0.0
 11
9017.917420526705
 21
9780.779765297413
 31
0.0
  0
INSERT
  5
23FCC
330
237D2
100
AcDbEntity
  8
寸法
 62
     0
 48
50.0
370
    -2
100
AcDbBlockReference
  2
_DOTSMALL
 10
6377.917420526706
 20
9780.779765297413
 30
0.0
 41
100.0
 42
100.0
 43
100.0
 50
180.0
  0
INSERT
  5
23FCD
330
237D2
100
AcDbEntity
  8
寸法
 62
     0
 48
50.0
370
    -2
100
AcDbBlockReference
  2
_DOTSMALL
 10
9017.917420526705
 20
9780.779765297413
 30
0.0
 41
100.0
 42
100.0
 43
100.0
  0
MTEXT
  5
23FCE
330
237D2
100
AcDbEntity
  8
寸法
 62
     7
 48
50.0
100
AcDbMText
 10
7697.917420526707
 20
9880.791576321035
 30
0.0
 40
120.0
 41
0.0
 71
     5
 72
     1
  1
\A1;2640
  7
STYLE1
 73
     1
 44
1.0
1001
ACAD
1000
MTEXTBEGIN
1070
    73
1070
     1
1070
    44
1040
1.0
1070
    74
1070
     0
1000
MTEXTEND
  0
POINT
  5
23FCF
330
237D2
100
AcDbEntity
  8
DEFPOINTS
 62
     0
 48
50.0
100
AcDbPoint
 10
6377.917420526706
 20
8760.503905649281
 30
0.0
  0
POINT
  5
23FD0
330
237D2
100
AcDbEntity
  8
DEFPOINTS
 62
     0
 48
50.0
100
AcDbPoint
 10
9017.917420526705
 20
8760.503905649281
 30
0.0
  0
POINT
  5
23FD1
330
237D2
100
AcDbEntity
  8
DEFPOINTS
 62
     0
 48
50.0
100
AcDbPoint
 10
9017.917420526705
 20
9780.779765297413
 30
0.0
  0
ENDBLK
  5
237DD
330
237D2
100
AcDbEntity
  8
0
 48
50.0
100
AcDbBlockEnd
  0
BLOCK
  5
237E8
330
237DE
100
AcDbEntity
  8
0
 48
50.0
100
AcDbBlockBegin
  2
*D6
 70
     1
 10
0.0
 20
0.0
 30
0.0
  3
*D6
  1

  0
LINE
  5
23FDB
330
237DE
100
AcDbEntity
  8
寸法
 62
     0
 48
50.0
370
    -2
100
AcDbLine
 10
6392.898788630275
 20
5762.254052452154
 30
0.0
 11
6758.700026039358
 21
5438.73135002
 31
0.0
  0
LINE
  5
23FDC
330
237DE
100
AcDbEntity
  8
寸法
 62
     0
 48
50.0
370
    -2
100
AcDbLine
 10
9032.898788630275
 20
8747.254052452154
 30
0.0
 11
9398.700026039358
 21
8423.73135002
 31
0.0
  0
LINE
  5
23FDD
330
237DE
100
AcDbEntity
  8
寸法
 62
     0
 48
50.0
370
    -2
100
AcDbLine
 10
6713.755921728652
 20
5478.480909611377
 30
0.0
 11
9353.755921728653
 21
8463.480909611377
 31
0.0
  0
MTEXT
  5
23FDE
330
237DE
100
AcDbEntity
  8
寸法
 62
     7
 48
50.0
100
AcDbMText
 10
7958.849081210812
 20
7037.230175597007
 30
0.0
 40
120.0
 41
0.0
 71
     5
 72
     1
  1
\A1;3984.9
  7
STYLE1
 11
0.6624926598562895
 21
0.7490684051784182
 31
0.0
 73
     1
 44
1.0
1001
ACAD
1000
MTEXTBEGIN
1070
    73
1070
     1
1070
    44
1040
1.0
1070
    74
1070
     0
1000
MTEXTEND
  0
INSERT
  5
23FDF
330
237DE
100
AcDbEntity
  8
寸法
 62
     0
 48
50.0
370
    -2
100
AcDbBlockReference
  2
_DOTSMALL
 10
6713.755921728652
 20
5478.480909611377
 30
0.0
 41
100.0
 42
100.0
 43
100.0
 50
228.5097445898385
  0
INSERT
  5
23FE0
330
237DE
100
AcDbEntity
  8
寸法
 62
     0
 48
50.0
370
    -2
100
AcDbBlockReference
  2
_DOTSMALL
 10
9353.755921728653
 20
8463.480909611377
 30
0.0
 41
100.0
 42
100.0
 43
100.0
 50
48.50974458983851
  0
POINT
  5
23FE1
330
237DE
100
AcDbEntity
  8
DEFPOINTS
 62
     0
 48
50.0
100
AcDbPoint
 10
6377.917420526706
 20
5775.50390564928
 30
0.0
  0
POINT
  5
23FE2
330
237DE
100
AcDbEntity
  8
DEFPOINTS
 62
     0
 48
50.0
100
AcDbPoint
 10
9017.917420526705
 20
8760.503905649278
 30
0.0
  0
POINT
  5
23FE3
330
237DE
100
AcDbEntity
  8
DEFPOINTS
 62
     0
 48
50.0
100
AcDbPoint
 10
9353.755921728653
 20
8463.480909611377
 30
0.0
  0
ENDBLK
  5
237E9
330
237DE
100
AcDbEntity
  8
0
 48
50.0
100
AcDbBlockEnd
  0
BLOCK
  5
237F6
330
237EA
100
AcDbEntity
  8
0
 48
50.0
100
AcDbBlockBegin
  2
*D7
 70
     1
 10
0.0
 20
0.0
 30
0.0
  3
*D7
  1

  0
LINE
  5
24E7F
330
237EA
100
AcDbEntity
  8
寸法
 62
     0
 48
50.0
370
    -2
100
AcDbLine
 10
8502.816262296468
 20
1196.776152254188
 30
0.0
 11
8066.703659368981
 21
1196.776152254188
 31
0.0
  0
LINE
  5
24E80
330
237EA
100
AcDbEntity
  8
寸法
 62
     0
 48
50.0
370
    -2
100
AcDbLine
 10
8486.469758997644
 20
1226.77615225419
 30
0.0
 11
8066.703659368981
 21
1226.77615225419
 31
0.0
  0
LINE
  5
24E81
330
237EA
100
AcDbEntity
  8
寸法
 62
     0
 48
50.0
370
    -2
100
AcDbLine
 10
8126.703659368981
 20
1196.776152254188
 30
0.0
 11
8126.703659368981
 21
1096.776152254189
 31
0.0
  0
LINE
  5
24E82
330
237EA
100
AcDbEntity
  8
寸法
 62
     0
 48
50.0
370
    -2
100
AcDbLine
 10
8126.703659368981
 20
1226.77615225419
 30
0.0
 11
8126.703659368981
 21
1326.776152254189
 31
0.0
  0
MTEXT
  5
24E83
330
237EA
100
AcDbEntity
  8
寸法
 62
     7
 48
50.0
100
AcDbMText
 10
8027.518140178312
 20
1301.854248010839
 30
0.0
 40
120.0
 41
0.0
 71
     5
 72
     1
  1
\A1;15
  7
STYLE1
 11
0.0000000000000001
 21
1.0
 31
0.0
 73
     1
 44
1.0
1001
ACAD
1000
MTEXTBEGIN
1070
    73
1070
     1
1070
    44
1040
1.0
1070
    74
1070
     0
1000
MTEXTEND
  0
LINE
  5
24E84
330
237EA
100
AcDbEntity
  8
寸法
 62
     0
 48
50.0
370
    -2
100
AcDbLine
 10
8126.703659368981
 20
1196.776152254188
 30
0.0
 11
8126.703659368981
 21
1226.77615225419
 31
0.0
  0
INSERT
  5
24E85
330
237EA
100
AcDbEntity
  8
寸法
 62
     0
 48
50.0
370
    -2
100
AcDbBlockReference
  2
_DOTSMALL
 10
8126.703659368981
 20
1196.776152254188
 30
0.0
 41
100.0
 42
100.0
 43
100.0
 50
90.0
  0
INSERT
  5
24E86
330
237EA
100
AcDbEntity
  8
寸法
 62
     0
 48
50.0
370
    -2
100
AcDbBlockReference
  2
_DOTSMALL
 10
8126.703659368981
 20
1226.77615225419
 30
0.0
 41
100.0
 42
100.0
 43
100.0
 50
270.0
  0
POINT
  5
24E87
330
237EA
100
AcDbEntity
  8
DEFPOINTS
 62
     0
 48
50.0
100
AcDbPoint
 10
8522.816262296469
 20
1196.776152254188
 30
0.0
  0
POINT
  5
24E88
330
237EA
100
AcDbEntity
  8
DEFPOINTS
 62
     0
 48
50.0
100
AcDbPoint
 10
8506.469758997644
 20
1226.77615225419
 30
0.0
  0
POINT
  5
24E89
330
237EA
100
AcDbEntity
  8
DEFPOINTS
 62
     0
 48
50.0
100
AcDbPoint
 10
8126.703659368981
 20
1226.77615225419
 30
0.0
  0
ENDBLK
  5
237F7
330
237EA
100
AcDbEntity
  8
0
 48
50.0
100
AcDbBlockEnd
  0
BLOCK
  5
23802
330
237F8
100
AcDbEntity
  8
0
 48
50.0
100
AcDbBlockBegin
  2
*D8
 70
     1
 10
0.0
 20
0.0
 30
0.0
  3
*D8
  1

  0
LINE
  5
24E76
330
237F8
100
AcDbEntity
  8
寸法
 62
     0
 48
50.0
370
    -2
100
AcDbLine
 10
8502.816262296468
 20
1196.776152254188
 30
0.0
 11
8066.728672780584
 21
1196.776152254188
 31
0.0
  0
LINE
  5
24E77
330
237F8
100
AcDbEntity
  8
寸法
 62
     0
 48
50.0
370
    -2
100
AcDbLine
 10
8501.469758997647
 20
1086.776152254189
 30
0.0
 11
8066.728672780584
 21
1086.776152254189
 31
0.0
  0
LINE
  5
24E78
330
237F8
100
AcDbEntity
  8
寸法
 62
     0
 48
50.0
370
    -2
100
AcDbLine
 10
8126.728672780584
 20
1196.776152254188
 30
0.0
 11
8126.728672780584
 21
1086.776152254189
 31
0.0
  0
MTEXT
  5
24E79
330
237F8
100
AcDbEntity
  8
寸法
 62
     7
 48
50.0
100
AcDbMText
 10
8023.781107450849
 20
1020.946827350853
 30
0.0
 40
120.0
 41
0.0
 71
     5
 72
     1
  1
\A1;55
  7
STYLE1
 11
0.0000000000000001
 21
1.0
 31
0.0
 73
     1
 44
1.0
1001
ACAD
1000
MTEXTBEGIN
1070
    73
1070
     1
1070
    44
1040
1.0
1070
    74
1070
     0
1000
MTEXTEND
  0
INSERT
  5
24E7A
330
237F8
100
AcDbEntity
  8
寸法
 62
     0
 48
50.0
370
    -2
100
AcDbBlockReference
  2
_DOTSMALL
 10
8126.728672780584
 20
1196.776152254188
 30
0.0
 41
100.0
 42
100.0
 43
100.0
 50
90.0
  0
INSERT
  5
24E7B
330
237F8
100
AcDbEntity
  8
寸法
 62
     0
 48
50.0
370
    -2
100
AcDbBlockReference
  2
_DOTSMALL
 10
8126.728672780584
 20
1086.776152254189
 30
0.0
 41
100.0
 42
100.0
 43
100.0
 50
270.0
  0
POINT
  5
24E7C
330
237F8
100
AcDbEntity
  8
DEFPOINTS
 62
     0
 48
50.0
100
AcDbPoint
 10
8522.816262296469
 20
1196.776152254188
 30
0.0
  0
POINT
  5
24E7D
330
237F8
100
AcDbEntity
  8
DEFPOINTS
 62
     0
 48
50.0
100
AcDbPoint
 10
8521.469758997646
 20
1086.776152254189
 30
0.0
  0
POINT
  5
24E7E
330
237F8
100
AcDbEntity
  8
DEFPOINTS
 62
     0
 48
50.0
100
AcDbPoint
 10
8126.728672780584
 20
1086.776152254189
 30
0.0
  0
ENDBLK
  5
23803
330
237F8
100
AcDbEntity
  8
0
 48
50.0
100
AcDbBlockEnd
  0
BLOCK
  5
2380F
330
23804
100
AcDbEntity
  8
0
 48
50.0
100
AcDbBlockBegin
  2
*D9
 70
     1
 10
0.0
 20
0.0
 30
0.0
  3
*D9
  1

  0
LINE
  5
24E8A
330
23804
100
AcDbEntity
  8
寸法
 62
     0
 48
50.0
370
    -2
100
AcDbLine
 10
8506.469758997644
 20
1511.776152254189
 30
0.0
 11
8506.469758997644
 21
1611.028589353475
 31
0.0
  0
LINE
  5
24E8B
330
23804
100
AcDbEntity
  8
寸法
 62
     0
 48
50.0
370
    -2
100
AcDbLine
 10
8706.469758997645
 20
1286.776152254191
 30
0.0
 11
8706.469758997645
 21
1611.028589353475
 31
0.0
  0
LINE
  5
24E8C
330
23804
100
AcDbEntity
  8
寸法
 62
     0
 48
50.0
370
    -2
100
AcDbLine
 10
8506.469758997644
 20
1551.028589353476
 30
0.0
 11
8706.469758997645
 21
1551.028589353476
 31
0.0
  0
LINE
  5
24E8D
330
23804
100
AcDbEntity
  8
寸法
 62
     0
 48
50.0
370
    -2
100
AcDbLine
 10
8100.363459785045
 20
1551.028589353476
 30
0.0
 11
8506.469758997644
 21
1551.028589353476
 31
0.0
  0
MTEXT
  5
24E8E
330
23804
100
AcDbEntity
  8
寸法
 62
     7
 48
50.0
100
AcDbMText
 10
8236.410703879533
 20
1651.028589353475
 30
0.0
 40
120.0
 41
0.0
 71
     5
 72
     1
  1
\A1;100
  7
STYLE1
 73
     1
 44
1.0
1001
ACAD
1000
MTEXTBEGIN
1070
    73
1070
     1
1070
    44
1040
1.0
1070
    74
1070
     0
1000
MTEXTEND
  0
INSERT
  5
24E8F
330
23804
100
AcDbEntity
  8
寸法
 62
     0
 48
50.0
370
    -2
100
AcDbBlockReference
  2
_DOTSMALL
 10
8506.469758997644
 20
1551.028589353476
 30
0.0
 41
100.0
 42
100.0
 43
100.0
 50
180.0
  0
INSERT
  5
24E90
330
23804
100
AcDbEntity
  8
寸法
 62
     0
 48
50.0
370
    -2
100
AcDbBlockReference
  2
_DOTSMALL
 10
8706.469758997645
 20
1551.028589353476
 30
0.0
 41
100.0
 42
100.0
 43
100.0
  0
POINT
  5
24E91
330
23804
100
AcDbEntity
  8
DEFPOINTS
 62
     0
 48
50.0
100
AcDbPoint
 10
8506.469758997644
 20
1491.776152254189
 30
0.0
  0
POINT
  5
24E92
330
23804
100
AcDbEntity
  8
DEFPOINTS
 62
     0
 48
50.0
100
AcDbPoint
 10
8706.469758997645
 20
1266.776152254191
 30
0.0
  0
POINT
  5
24E93
330
23804
100
AcDbEntity
  8
DEFPOINTS
 62
     0
 48
50.0
100
AcDbPoint
 10
8706.469758997645
 20
1551.028589353476
 30
0.0
  0
ENDBLK
  5
23810
330
23804
100
AcDbEntity
  8
0
 48
50.0
100
AcDbBlockEnd
  0
BLOCK
  5
2381B
330
23811
100
AcDbEntity
  8
0
 48
50.0
100
AcDbBlockBegin
  2
*D10
 70
     1
 10
0.0
 20
0.0
 30
0.0
  3
*D10
  1

  0
LINE
  5
24E33
330
23811
100
AcDbEntity
  8
寸法
 62
     0
 48
50.0
370
    -2
100
AcDbLine
 10
1838.050425329247
 20
2170.269006252838
 30
0.0
 11
1838.050425329247
 21
2530.125597326903
 31
0.0
  0
LINE
  5
24E34
330
23811
100
AcDbEntity
  8
寸法
 62
     0
 48
50.0
370
    -2
100
AcDbLine
 10
1598.050425329247
 20
2170.269006252838
 30
0.0
 11
1598.050425329247
 21
2530.125597326903
 31
0.0
  0
LINE
  5
24E35
330
23811
100
AcDbEntity
  8
寸法
 62
     0
 48
50.0
370
    -2
100
AcDbLine
 10
1838.050425329247
 20
2470.125597326903
 30
0.0
 11
1598.050425329247
 21
2470.125597326903
 31
0.0
  0
MTEXT
  5
24E36
330
23811
100
AcDbEntity
  8
寸法
 62
     7
 48
50.0
100
AcDbMText
 10
1718.050425329247
 20
2570.137408350526
 30
0.0
 40
120.0
 41
0.0
 71
     5
 72
     1
  1
\A1;120
  7
STYLE1
 73
     1
 44
1.0
1001
ACAD
1000
MTEXTBEGIN
1070
    73
1070
     1
1070
    44
1040
1.0
1070
    74
1070
     0
1000
MTEXTEND
  0
INSERT
  5
24E37
330
23811
100
AcDbEntity
  8
寸法
 62
     0
 48
50.0
370
    -2
100
AcDbBlockReference
  2
_DOTSMALL
 10
1838.050425329247
 20
2470.125597326903
 30
0.0
 41
100.0
 42
100.0
 43
100.0
  0
INSERT
  5
24E38
330
23811
100
AcDbEntity
  8
寸法
 62
     0
 48
50.0
370
    -2
100
AcDbBlockReference
  2
_DOTSMALL
 10
1598.050425329247
 20
2470.125597326903
 30
0.0
 41
100.0
 42
100.0
 43
100.0
 50
180.0
  0
POINT
  5
24E39
330
23811
100
AcDbEntity
  8
DEFPOINTS
 62
     0
 48
50.0
100
AcDbPoint
 10
1838.050425329247
 20
2150.269006252838
 30
0.0
  0
POINT
  5
24E3A
330
23811
100
AcDbEntity
  8
DEFPOINTS
 62
     0
 48
50.0
100
AcDbPoint
 10
1598.050425329247
 20
2150.269006252838
 30
0.0
  0
POINT
  5
24E3B
330
23811
100
AcDbEntity
  8
DEFPOINTS
 62
     0
 48
50.0
100
AcDbPoint
 10
1598.050425329247
 20
2470.125597326903
 30
0.0
  0
ENDBLK
  5
2381C
330
23811
100
AcDbEntity
  8
0
 48
50.0
100
AcDbBlockEnd
  0
BLOCK
  5
23828
330
2381D
100
AcDbEntity
  8
0
 48
50.0
100
AcDbBlockBegin
  2
*D11
 70
     1
 10
0.0
 20
0.0
 30
0.0
  3
*D11
  1

  0
LINE
  5
24DF1
330
2381D
100
AcDbEntity
  8
寸法
 62
     0
 48
50.0
370
    -2
100
AcDbLine
 10
1858.050425329247
 20
2150.269006252838
 30
0.0
 11
2116.85120878575
 21
2150.269006252838
 31
0.0
  0
LINE
  5
24DF2
330
2381D
100
AcDbEntity
  8
寸法
 62
     0
 48
50.0
370
    -2
100
AcDbLine
 10
1890.050425329247
 20
1950.269006252838
 30
0.0
 11
2116.85120878575
 21
1950.269006252838
 31
0.0
  0
LINE
  5
24DF3
330
2381D
100
AcDbEntity
  8
寸法
 62
     0
 48
50.0
370
    -2
100
AcDbLine
 10
2056.85120878575
 20
2150.269006252838
 30
0.0
 11
2056.85120878575
 21
1950.269006252838
 31
0.0
  0
LINE
  5
24DF4
330
2381D
100
AcDbEntity
  8
寸法
 62
     0
 48
50.0
370
    -2
100
AcDbLine
 10
2056.85120878575
 20
2907.375305465437
 30
0.0
 11
2056.85120878575
 21
2150.269006252838
 31
0.0
  0
MTEXT
  5
24DF5
330
2381D
100
AcDbEntity
  8
寸法
 62
     7
 48
50.0
100
AcDbMText
 10
1956.851208785749
 20
2615.328061370949
 30
0.0
 40
120.0
 41
0.0
 71
     5
 72
     1
  1
\A1;50～180
  7
STYLE1
 11
0.0000000000000001
 21
1.0
 31
0.0
 73
     1
 44
1.0
1001
ACAD
1000
MTEXTBEGIN
1070
    73
1070
     1
1070
    44
1040
1.0
1070
    74
1070
     0
1000
MTEXTEND
  0
INSERT
  5
24DF6
330
2381D
100
AcDbEntity
  8
寸法
 62
     0
 48
50.0
370
    -2
100
AcDbBlockReference
  2
_DOTSMALL
 10
2056.85120878575
 20
2150.269006252838
 30
0.0
 41
100.0
 42
100.0
 43
100.0
 50
90.0
  0
INSERT
  5
24DF7
330
2381D
100
AcDbEntity
  8
寸法
 62
     0
 48
50.0
370
    -2
100
AcDbBlockReference
  2
_DOTSMALL
 10
2056.85120878575
 20
1950.269006252838
 30
0.0
 41
100.0
 42
100.0
 43
100.0
 50
270.0
  0
POINT
  5
24DF8
330
2381D
100
AcDbEntity
  8
DEFPOINTS
 62
     0
 48
50.0
100
AcDbPoint
 10
1838.050425329247
 20
2150.269006252838
 30
0.0
  0
POINT
  5
24DF9
330
2381D
100
AcDbEntity
  8
DEFPOINTS
 62
     0
 48
50.0
100
AcDbPoint
 10
1870.050425329247
 20
1950.269006252838
 30
0.0
  0
POINT
  5
24DFA
330
2381D
100
AcDbEntity
  8
DEFPOINTS
 62
     0
 48
50.0
100
AcDbPoint
 10
2056.85120878575
 20
1950.269006252838
 30
0.0
  0
ENDBLK
  5
23829
330
2381D
100
AcDbEntity
  8
0
 48
50.0
100
AcDbBlockEnd
  0
BLOCK
  5
23834
330
2382A
100
AcDbEntity
  8
0
 48
50.0
100
AcDbBlockBegin
  2
*D12
 70
     1
 10
0.0
 20
0.0
 30
0.0
  3
*D12
  1

  0
LINE
  5
24E04
330
2382A
100
AcDbEntity
  8
寸法
 62
     0
 48
50.0
370
    -2
100
AcDbLine
 10
1578.050425329247
 20
2150.269006252838
 30
0.0
 11
551.2553638520659
 21
2150.269006252839
 31
0.0
  0
LINE
  5
24E05
330
2382A
100
AcDbEntity
  8
寸法
 62
     0
 48
50.0
370
    -2
100
AcDbLine
 10
1298.050425329247
 20
1070.269006252838
 30
0.0
 11
551.2553638520658
 21
1070.269006252838
 31
0.0
  0
LINE
  5
24E06
330
2382A
100
AcDbEntity
  8
寸法
 62
     0
 48
50.0
370
    -2
100
AcDbLine
 10
611.255363852066
 20
2150.269006252839
 30
0.0
 11
611.2553638520657
 21
1070.269006252838
 31
0.0
  0
INSERT
  5
24E07
330
2382A
100
AcDbEntity
  8
寸法
 62
     0
 48
50.0
370
    -2
100
AcDbBlockReference
  2
_DOTSMALL
 10
611.255363852066
 20
2150.269006252839
 30
0.0
 41
100.0
 42
100.0
 43
100.0
 50
90.0
  0
INSERT
  5
24E08
330
2382A
100
AcDbEntity
  8
寸法
 62
     0
 48
50.0
370
    -2
100
AcDbBlockReference
  2
_DOTSMALL
 10
611.2553638520657
 20
1070.269006252838
 30
0.0
 41
100.0
 42
100.0
 43
100.0
 50
270.0
  0
MTEXT
  5
24E09
330
2382A
100
AcDbEntity
  8
寸法
 62
     7
 48
50.0
100
AcDbMText
 10
511.2553638520656
 20
1610.269006252838
 30
0.0
 40
120.0
 41
0.0
 71
     5
 72
     1
  1
\A1;540
  7
STYLE1
 11
0.0000000000000001
 21
1.0
 31
0.0
 73
     1
 44
1.0
1001
ACAD
1000
MTEXTBEGIN
1070
    73
1070
     1
1070
    44
1040
1.0
1070
    74
1070
     0
1000
MTEXTEND
  0
POINT
  5
24E0A
330
2382A
100
AcDbEntity
  8
DEFPOINTS
 62
     0
 48
50.0
100
AcDbPoint
 10
1598.050425329247
 20
2150.269006252838
 30
0.0
  0
POINT
  5
24E0B
330
2382A
100
AcDbEntity
  8
DEFPOINTS
 62
     0
 48
50.0
100
AcDbPoint
 10
1318.050425329247
 20
1070.269006252838
 30
0.0
  0
POINT
  5
24E0C
330
2382A
100
AcDbEntity
  8
DEFPOINTS
 62
     0
 48
50.0
100
AcDbPoint
 10
611.2553638520657
 20
1070.269006252838
 30
0.0
  0
ENDBLK
  5
23835
330
2382A
100
AcDbEntity
  8
0
 48
50.0
100
AcDbBlockEnd
  0
BLOCK
  5
23840
330
23836
100
AcDbEntity
  8
0
 48
50.0
100
AcDbBlockBegin
  2
*D13
 70
     1
 10
0.0
 20
0.0
 30
0.0
  3
*D13
  1

  0
LINE
  5
24E0D
330
23836
100
AcDbEntity
  8
寸法
 62
     0
 48
50.0
370
    -2
100
AcDbLine
 10
1418.050425329247
 20
890.2690062528362
 30
0.0
 11
1418.050425329247
 21
630.5701666504728
 31
0.0
  0
LINE
  5
24E0E
330
23836
100
AcDbEntity
  8
寸法
 62
     0
 48
50.0
370
    -2
100
AcDbLine
 10
2018.050425329247
 20
890.2690062528373
 30
0.0
 11
2018.050425329247
 21
630.5701666504728
 31
0.0
  0
LINE
  5
24E0F
330
23836
100
AcDbEntity
  8
寸法
 62
     0
 48
50.0
370
    -2
100
AcDbLine
 10
1418.050425329247
 20
690.5701666504728
 30
0.0
 11
2018.050425329247
 21
690.5701666504728
 31
0.0
  0
INSERT
  5
24E10
330
23836
100
AcDbEntity
  8
寸法
 62
     0
 48
50.0
370
    -2
100
AcDbBlockReference
  2
_DOTSMALL
 10
1418.050425329247
 20
690.5701666504728
 30
0.0
 41
100.0
 42
100.0
 43
100.0
 50
180.0
  0
INSERT
  5
24E11
330
23836
100
AcDbEntity
  8
寸法
 62
     0
 48
50.0
370
    -2
100
AcDbBlockReference
  2
_DOTSMALL
 10
2018.050425329247
 20
690.5701666504728
 30
0.0
 41
100.0
 42
100.0
 43
100.0
  0
MTEXT
  5
24E12
330
23836
100
AcDbEntity
  8
寸法
 62
     7
 48
50.0
100
AcDbMText
 10
1718.050425329247
 20
790.5701666504728
 30
0.0
 40
120.0
 41
0.0
 71
     5
 72
     1
  1
\A1;300
  7
STYLE1
 73
     1
 44
1.0
1001
ACAD
1000
MTEXTBEGIN
1070
    73
1070
     1
1070
    44
1040
1.0
1070
    74
1070
     0
1000
MTEXTEND
  0
POINT
  5
24E13
330
23836
100
AcDbEntity
  8
DEFPOINTS
 62
     0
 48
50.0
100
AcDbPoint
 10
1418.050425329247
 20
910.2690062528363
 30
0.0
  0
POINT
  5
24E14
330
23836
100
AcDbEntity
  8
DEFPOINTS
 62
     0
 48
50.0
100
AcDbPoint
 10
2018.050425329247
 20
910.2690062528372
 30
0.0
  0
POINT
  5
24E15
330
23836
100
AcDbEntity
  8
DEFPOINTS
 62
     0
 48
50.0
100
AcDbPoint
 10
2018.050425329247
 20
690.5701666504728
 30
0.0
  0
ENDBLK
  5
23841
330
23836
100
AcDbEntity
  8
0
 48
50.0
100
AcDbBlockEnd
  0
BLOCK
  5
2384C
330
23842
100
AcDbEntity
  8
0
 48
50.0
100
AcDbBlockBegin
  2
*D14
 70
     1
 10
0.0
 20
0.0
 30
0.0
  3
*D14
  1

  0
LINE
  5
24E16
330
23842
100
AcDbEntity
  8
寸法
 62
     0
 48
50.0
370
    -2
100
AcDbLine
 10
2138.050425329248
 20
1070.269006252838
 30
0.0
 11
2549.04085980696
 21
1070.269006252838
 31
0.0
  0
LINE
  5
24E17
330
23842
100
AcDbEntity
  8
寸法
 62
     0
 48
50.0
370
    -2
100
AcDbLine
 10
2038.050425329247
 20
1370.269006252838
 30
0.0
 11
2549.04085980696
 21
1370.269006252838
 31
0.0
  0
LINE
  5
24E18
330
23842
100
AcDbEntity
  8
寸法
 62
     0
 48
50.0
370
    -2
100
AcDbLine
 10
2489.040859806959
 20
1070.269006252838
 30
0.0
 11
2489.040859806959
 21
1370.269006252838
 31
0.0
  0
MTEXT
  5
24E19
330
23842
100
AcDbEntity
  8
寸法
 62
     7
 48
50.0
100
AcDbMText
 10
2389.040859806959
 20
1220.269006252838
 30
0.0
 40
120.0
 41
0.0
 71
     5
 72
     1
  1
\A1;150
  7
STYLE1
 11
0.0000000000000001
 21
1.0
 31
0.0
 73
     1
 44
1.0
1001
ACAD
1000
MTEXTBEGIN
1070
    73
1070
     1
1070
    44
1040
1.0
1070
    74
1070
     0
1000
MTEXTEND
  0
INSERT
  5
24E1A
330
23842
100
AcDbEntity
  8
寸法
 62
     0
 48
50.0
370
    -2
100
AcDbBlockReference
  2
_DOTSMALL
 10
2489.040859806959
 20
1070.269006252838
 30
0.0
 41
100.0
 42
100.0
 43
100.0
 50
270.0
  0
INSERT
  5
24E1B
330
23842
100
AcDbEntity
  8
寸法
 62
     0
 48
50.0
370
    -2
100
AcDbBlockReference
  2
_DOTSMALL
 10
2489.040859806959
 20
1370.269006252838
 30
0.0
 41
100.0
 42
100.0
 43
100.0
 50
90.0
  0
POINT
  5
24E1C
330
23842
100
AcDbEntity
  8
DEFPOINTS
 62
     0
 48
50.0
100
AcDbPoint
 10
2118.050425329248
 20
1070.269006252838
 30
0.0
  0
POINT
  5
24E1D
330
23842
100
AcDbEntity
  8
DEFPOINTS
 62
     0
 48
50.0
100
AcDbPoint
 10
2018.050425329247
 20
1370.269006252838
 30
0.0
  0
POINT
  5
24E1E
330
23842
100
AcDbEntity
  8
DEFPOINTS
 62
     0
 48
50.0
100
AcDbPoint
 10
2489.040859806959
 20
1370.269006252838
 30
0.0
  0
ENDBLK
  5
2384D
330
23842
100
AcDbEntity
  8
0
 48
50.0
100
AcDbBlockEnd
  0
BLOCK
  5
23858
330
2384E
100
AcDbEntity
  8
0
 48
50.0
100
AcDbBlockBegin
  2
*D15
 70
     1
 10
0.0
 20
0.0
 30
0.0
  3
*D15
  1

  0
LINE
  5
24F51
330
2384E
100
AcDbEntity
  8
寸法
 62
     0
 48
50.0
370
    -2
100
AcDbLine
 10
4246.56822730139
 20
2210.576698560528
 30
0.0
 11
4859.484640453082
 21
2210.576698560528
 31
0.0
  0
LINE
  5
24F52
330
2384E
100
AcDbEntity
  8
寸法
 62
     0
 48
50.0
370
    -2
100
AcDbLine
 10
4313.6118018785
 20
2150.269006252836
 30
0.0
 11
4859.484640453082
 21
2150.269006252836
 31
0.0
  0
LINE
  5
24F53
330
2384E
100
AcDbEntity
  8
寸法
 62
     0
 48
50.0
370
    -2
100
AcDbLine
 10
4799.484640453082
 20
2210.576698560528
 30
0.0
 11
4799.484640453082
 21
2310.576698560528
 31
0.0
  0
LINE
  5
24F54
330
2384E
100
AcDbEntity
  8
寸法
 62
     0
 48
50.0
370
    -2
100
AcDbLine
 10
4799.484640453082
 20
2150.269006252836
 30
0.0
 11
4799.484640453082
 21
2050.269006252836
 31
0.0
  0
MTEXT
  5
24F55
330
2384E
100
AcDbEntity
  8
寸法
 62
     7
 48
50.0
100
AcDbMText
 10
4699.47282942946
 20
2571.004184771842
 30
0.0
 40
120.0
 41
0.0
 71
     5
 72
     1
  1
\A1;出20～25
  7
STYLE1
 11
0.0000000000000001
 21
1.0
 31
0.0
 73
     1
 44
1.0
1001
ACAD
1000
MTEXTBEGIN
1070
    73
1070
     1
1070
    44
1040
1.0
1070
    74
1070
     0
1000
MTEXTEND
  0
LINE
  5
24F56
330
2384E
100
AcDbEntity
  8
寸法
 62
     0
 48
50.0
370
    -2
100
AcDbLine
 10
4799.484640453082
 20
2210.576698560528
 30
0.0
 11
4799.484640453082
 21
2150.269006252836
 31
0.0
  0
INSERT
  5
24F57
330
2384E
100
AcDbEntity
  8
寸法
 62
     0
 48
50.0
370
    -2
100
AcDbBlockReference
  2
_DOTSMALL
 10
4799.484640453082
 20
2210.576698560528
 30
0.0
 41
100.0
 42
100.0
 43
100.0
 50
270.0
  0
INSERT
  5
24F58
330
2384E
100
AcDbEntity
  8
寸法
 62
     0
 48
50.0
370
    -2
100
AcDbBlockReference
  2
_DOTSMALL
 10
4799.484640453082
 20
2150.269006252836
 30
0.0
 41
100.0
 42
100.0
 43
100.0
 50
90.0
  0
POINT
  5
24F59
330
2384E
100
AcDbEntity
  8
DEFPOINTS
 62
     0
 48
50.0
100
AcDbPoint
 10
4226.56822730139
 20
2210.576698560528
 30
0.0
  0
POINT
  5
24F5A
330
2384E
100
AcDbEntity
  8
DEFPOINTS
 62
     0
 48
50.0
100
AcDbPoint
 10
4293.6118018785
 20
2150.269006252836
 30
0.0
  0
POINT
  5
24F5B
330
2384E
100
AcDbEntity
  8
DEFPOINTS
 62
     0
 48
50.0
100
AcDbPoint
 10
4799.484640453082
 20
2150.269006252836
 30
0.0
  0
ENDBLK
  5
23859
330
2384E
100
AcDbEntity
  8
0
 48
50.0
100
AcDbBlockEnd
  0
BLOCK
  5
23865
330
2385A
100
AcDbEntity
  8
0
 48
50.0
100
AcDbBlockBegin
  2
*D16
 70
     1
 10
0.0
 20
0.0
 30
0.0
  3
*D16
  1

  0
LINE
  5
24F3C
330
2385A
100
AcDbEntity
  8
寸法
 62
     0
 48
50.0
370
    -2
100
AcDbLine
 10
4293.611801878501
 20
2170.269006252837
 30
0.0
 11
4293.611801878501
 21
2480.726284377743
 31
0.0
  0
LINE
  5
24F3D
330
2385A
100
AcDbEntity
  8
寸法
 62
     0
 48
50.0
370
    -2
100
AcDbLine
 10
4213.06822730139
 20
2230.576698560528
 30
0.0
 11
4213.06822730139
 21
2480.726284377743
 31
0.0
  0
LINE
  5
24F3E
330
2385A
100
AcDbEntity
  8
寸法
 62
     0
 48
50.0
370
    -2
100
AcDbLine
 10
4213.06822730139
 20
2420.726284377743
 30
0.0
 11
4293.611801878501
 21
2420.726284377743
 31
0.0
  0
LINE
  5
24F3F
330
2385A
100
AcDbEntity
  8
寸法
 62
     0
 48
50.0
370
    -2
100
AcDbLine
 10
4293.611801878501
 20
2420.726284377743
 30
0.0
 11
4605.706290067479
 21
2420.726284377743
 31
0.0
  0
INSERT
  5
24F40
330
2385A
100
AcDbEntity
  8
寸法
 62
     0
 48
50.0
370
    -2
100
AcDbBlockReference
  2
_DOTSMALL
 10
4213.06822730139
 20
2420.726284377743
 30
0.0
 41
100.0
 42
100.0
 43
100.0
 50
180.0
  0
INSERT
  5
24F41
330
2385A
100
AcDbEntity
  8
寸法
 62
     0
 48
50.0
370
    -2
100
AcDbBlockReference
  2
_DOTSMALL
 10
4293.611801878501
 20
2420.726284377743
 30
0.0
 41
100.0
 42
100.0
 43
100.0
  0
MTEXT
  5
24F42
330
2385A
100
AcDbEntity
  8
寸法
 62
     7
 48
50.0
100
AcDbMText
 10
4499.659045972991
 20
2520.726284377742
 30
0.0
 40
120.0
 41
0.0
 71
     5
 72
     1
  1
\A1;50
  7
STYLE1
 73
     1
 44
1.0
1001
ACAD
1000
MTEXTBEGIN
1070
    73
1070
     1
1070
    44
1040
1.0
1070
    74
1070
     0
1000
MTEXTEND
  0
POINT
  5
24F43
330
2385A
100
AcDbEntity
  8
DEFPOINTS
 62
     0
 48
50.0
100
AcDbPoint
 10
4293.611801878501
 20
2150.269006252836
 30
0.0
  0
POINT
  5
24F44
330
2385A
100
AcDbEntity
  8
DEFPOINTS
 62
     0
 48
50.0
100
AcDbPoint
 10
4213.06822730139
 20
2210.576698560528
 30
0.0
  0
POINT
  5
24F45
330
2385A
100
AcDbEntity
  8
DEFPOINTS
 62
     0
 48
50.0
100
AcDbPoint
 10
4213.06822730139
 20
2420.726284377743
 30
0.0
  0
ENDBLK
  5
23866
330
2385A
100
AcDbEntity
  8
0
 48
50.0
100
AcDbBlockEnd
  0
BLOCK
  5
23871
330
23867
100
AcDbEntity
  8
0
 48
50.0
100
AcDbBlockBegin
  2
*D17
 70
     1
 10
0.0
 20
0.0
 30
0.0
  3
*D17
  1

  0
LINE
  5
24E5B
330
23867
100
AcDbEntity
  8
寸法
 62
     0
 48
50.0
370
    -2
100
AcDbLine
 10
5786.780709061463
 20
970.2690062528354
 30
0.0
 11
5786.780709061463
 21
629.2263976018675
 31
0.0
  0
LINE
  5
24E5C
330
23867
100
AcDbEntity
  8
寸法
 62
     0
 48
50.0
370
    -2
100
AcDbLine
 10
6486.780709061452
 20
970.2690062528381
 30
0.0
 11
6486.780709061452
 21
629.2263976018675
 31
0.0
  0
LINE
  5
24E5D
330
23867
100
AcDbEntity
  8
寸法
 62
     0
 48
50.0
370
    -2
100
AcDbLine
 10
5786.780709061463
 20
689.2263976018675
 30
0.0
 11
6486.780709061452
 21
689.2263976018675
 31
0.0
  0
INSERT
  5
24E5E
330
23867
100
AcDbEntity
  8
寸法
 62
     0
 48
50.0
370
    -2
100
AcDbBlockReference
  2
_DOTSMALL
 10
5786.780709061463
 20
689.2263976018675
 30
0.0
 41
100.0
 42
100.0
 43
100.0
 50
180.0
  0
INSERT
  5
24E5F
330
23867
100
AcDbEntity
  8
寸法
 62
     0
 48
50.0
370
    -2
100
AcDbBlockReference
  2
_DOTSMALL
 10
6486.780709061452
 20
689.2263976018675
 30
0.0
 41
100.0
 42
100.0
 43
100.0
  0
MTEXT
  5
24E60
330
23867
100
AcDbEntity
  8
寸法
 62
     7
 48
50.0
100
AcDbMText
 10
6136.780709061457
 20
789.2263976018676
 30
0.0
 40
120.0
 41
0.0
 71
     5
 72
     1
  1
\A1;\U+25A1350
  7
STYLE1
 73
     1
 44
1.0
1001
ACAD
1000
MTEXTBEGIN
1070
    73
1070
     1
1070
    44
1040
1.0
1070
    74
1070
     0
1000
MTEXTEND
  0
POINT
  5
24E61
330
23867
100
AcDbEntity
  8
DEFPOINTS
 62
     0
 48
50.0
100
AcDbPoint
 10
5786.780709061463
 20
990.2690062528353
 30
0.0
  0
POINT
  5
24E62
330
23867
100
AcDbEntity
  8
DEFPOINTS
 62
     0
 48
50.0
100
AcDbPoint
 10
6486.780709061452
 20
990.2690062528382
 30
0.0
  0
POINT
  5
24E63
330
23867
100
AcDbEntity
  8
DEFPOINTS
 62
     0
 48
50.0
100
AcDbPoint
 10
6486.780709061452
 20
689.2263976018675
 30
0.0
  0
ENDBLK
  5
23872
330
23867
100
AcDbEntity
  8
0
 48
50.0
100
AcDbBlockEnd
  0
BLOCK
  5
2387D
330
23873
100
AcDbEntity
  8
0
 48
50.0
100
AcDbBlockBegin
  2
*D18
 70
     1
 10
0.0
 20
0.0
 30
0.0
  3
*D18
  1

  0
LINE
  5
24E52
330
23873
100
AcDbEntity
  8
寸法
 62
     0
 48
50.0
370
    -2
100
AcDbLine
 10
5567.40889569605
 20
1750.269006252836
 30
0.0
 11
5353.641619195058
 21
1750.269006252836
 31
0.0
  0
LINE
  5
24E53
330
23873
100
AcDbEntity
  8
寸法
 62
     0
 48
50.0
370
    -2
100
AcDbLine
 10
5716.780709061457
 20
1150.269006252838
 30
0.0
 11
5353.641619195058
 21
1150.269006252838
 31
0.0
  0
LINE
  5
24E54
330
23873
100
AcDbEntity
  8
寸法
 62
     0
 48
50.0
370
    -2
100
AcDbLine
 10
5413.641619195058
 20
1750.269006252836
 30
0.0
 11
5413.641619195058
 21
1150.269006252838
 31
0.0
  0
MTEXT
  5
24E55
330
23873
100
AcDbEntity
  8
寸法
 62
     7
 48
50.0
100
AcDbMText
 10
5313.641619195057
 20
1450.269006252838
 30
0.0
 40
120.0
 41
0.0
 71
     5
 72
     1
  1
\A1;300
  7
STYLE1
 11
0.0000000000000001
 21
1.0
 31
0.0
 73
     1
 44
1.0
1001
ACAD
1000
MTEXTBEGIN
1070
    73
1070
     1
1070
    44
1040
1.0
1070
    74
1070
     0
1000
MTEXTEND
  0
INSERT
  5
24E56
330
23873
100
AcDbEntity
  8
寸法
 62
     0
 48
50.0
370
    -2
100
AcDbBlockReference
  2
_DOTSMALL
 10
5413.641619195058
 20
1750.269006252836
 30
0.0
 41
100.0
 42
100.0
 43
100.0
 50
90.0
  0
INSERT
  5
24E57
330
23873
100
AcDbEntity
  8
寸法
 62
     0
 48
50.0
370
    -2
100
AcDbBlockReference
  2
_DOTSMALL
 10
5413.641619195058
 20
1150.269006252838
 30
0.0
 41
100.0
 42
100.0
 43
100.0
 50
270.0
  0
POINT
  5
24E58
330
23873
100
AcDbEntity
  8
DEFPOINTS
 62
     0
 48
50.0
100
AcDbPoint
 10
5587.40889569605
 20
1750.269006252836
 30
0.0
  0
POINT
  5
24E59
330
23873
100
AcDbEntity
  8
DEFPOINTS
 62
     0
 48
50.0
100
AcDbPoint
 10
5736.780709061457
 20
1150.269006252838
 30
0.0
  0
POINT
  5
24E5A
330
23873
100
AcDbEntity
  8
DEFPOINTS
 62
     0
 48
50.0
100
AcDbPoint
 10
5413.641619195058
 20
1150.269006252838
 30
0.0
  0
ENDBLK
  5
2387E
330
23873
100
AcDbEntity
  8
0
 48
50.0
100
AcDbBlockEnd
  0
BLOCK
  5
2388A
330
2387F
100
AcDbEntity
  8
0
 48
50.0
100
AcDbBlockBegin
  2
*D19
 70
     1
 10
0.0
 20
0.0
 30
0.0
  3
*D19
  1

  0
LINE
  5
23F80
330
2387F
100
AcDbEntity
  8
寸法
 62
     0
 48
50.0
370
    -2
100
AcDbLine
 10
9017.917420526705
 20
8780.503905649279
 30
0.0
 11
9017.917420526705
 21
9540.613565556052
 31
0.0
  0
LINE
  5
23F81
330
2387F
100
AcDbEntity
  8
寸法
 62
     0
 48
50.0
370
    -2
100
AcDbLine
 10
8942.917420526706
 20
8780.503905649281
 30
0.0
 11
8942.917420526706
 21
9540.613565556052
 31
0.0
  0
LINE
  5
23F82
330
2387F
100
AcDbEntity
  8
寸法
 62
     0
 48
50.0
370
    -2
100
AcDbLine
 10
9017.917420526705
 20
9480.613565556053
 30
0.0
 11
9117.917420526707
 21
9480.613565556053
 31
0.0
  0
LINE
  5
23F83
330
2387F
100
AcDbEntity
  8
寸法
 62
     0
 48
50.0
370
    -2
100
AcDbLine
 10
8942.917420526706
 20
9480.613565556053
 30
0.0
 11
8842.917420526706
 21
9480.613565556053
 31
0.0
  0
MTEXT
  5
23F84
330
2387F
100
AcDbEntity
  8
寸法
 62
     7
 48
50.0
100
AcDbMText
 10
9257.917420526707
 20
9580.613565556053
 30
0.0
 40
120.0
 41
0.0
 71
     5
 72
     1
  1
\A1;75
  7
STYLE1
 73
     1
 44
1.0
1001
ACAD
1000
MTEXTBEGIN
1070
    73
1070
     1
1070
    44
1040
1.0
1070
    74
1070
     0
1000
MTEXTEND
  0
LINE
  5
23F85
330
2387F
100
AcDbEntity
  8
寸法
 62
     0
 48
50.0
370
    -2
100
AcDbLine
 10
9017.917420526705
 20
9480.613565556053
 30
0.0
 11
8942.917420526706
 21
9480.613565556053
 31
0.0
  0
INSERT
  5
23F86
330
2387F
100
AcDbEntity
  8
寸法
 62
     0
 48
50.0
370
    -2
100
AcDbBlockReference
  2
_DOTSMALL
 10
9017.917420526705
 20
9480.613565556053
 30
0.0
 41
100.0
 42
100.0
 43
100.0
 50
180.0
  0
INSERT
  5
23F87
330
2387F
100
AcDbEntity
  8
寸法
 62
     0
 48
50.0
370
    -2
100
AcDbBlockReference
  2
_DOTSMALL
 10
8942.917420526706
 20
9480.613565556053
 30
0.0
 41
100.0
 42
100.0
 43
100.0
  0
POINT
  5
23F88
330
2387F
100
AcDbEntity
  8
DEFPOINTS
 62
     0
 48
50.0
100
AcDbPoint
 10
9017.917420526705
 20
8760.503905649278
 30
0.0
  0
POINT
  5
23F89
330
2387F
100
AcDbEntity
  8
DEFPOINTS
 62
     0
 48
50.0
100
AcDbPoint
 10
8942.917420526706
 20
8760.503905649281
 30
0.0
  0
POINT
  5
23F8A
330
2387F
100
AcDbEntity
  8
DEFPOINTS
 62
     0
 48
50.0
100
AcDbPoint
 10
8942.917420526706
 20
9480.613565556053
 30
0.0
  0
ENDBLK
  5
2388B
330
2387F
100
AcDbEntity
  8
0
 48
50.0
100
AcDbBlockEnd
  0
BLOCK
  5
23898
330
2388C
100
AcDbEntity
  8
0
 48
50.0
100
AcDbBlockBegin
  2
*D20
 70
     1
 10
0.0
 20
0.0
 30
0.0
  3
*D20
  1

  0
LINE
  5
23F73
330
2388C
100
AcDbEntity
  8
寸法
 62
     0
 48
50.0
370
    -2
100
AcDbLine
 10
9017.917420526705
 20
8780.503905649281
 30
0.0
 11
9017.917420526705
 21
9840.779765297414
 31
0.0
  0
LINE
  5
23F74
330
2388C
100
AcDbEntity
  8
寸法
 62
     0
 48
50.0
370
    -2
100
AcDbLine
 10
9062.917420526707
 20
9633.059882340681
 30
0.0
 11
9062.917420526707
 21
9840.779765297414
 31
0.0
  0
LINE
  5
23F75
330
2388C
100
AcDbEntity
  8
寸法
 62
     0
 48
50.0
370
    -2
100
AcDbLine
 10
9017.917420526705
 20
9780.779765297413
 30
0.0
 11
8917.917420526705
 21
9780.779765297413
 31
0.0
  0
LINE
  5
23F76
330
2388C
100
AcDbEntity
  8
寸法
 62
     0
 48
50.0
370
    -2
100
AcDbLine
 10
9062.917420526707
 20
9780.779765297413
 30
0.0
 11
9162.917420526706
 21
9780.779765297413
 31
0.0
  0
LINE
  5
23F77
330
2388C
100
AcDbEntity
  8
寸法
 62
     0
 48
50.0
370
    -2
100
AcDbLine
 10
9436.81031823224
 20
9780.779765297413
 30
0.0
 11
9062.917420526707
 21
9780.779765297413
 31
0.0
  0
MTEXT
  5
23F78
330
2388C
100
AcDbEntity
  8
寸法
 62
     7
 48
50.0
100
AcDbMText
 10
9370.635697029781
 20
9880.779765297413
 30
0.0
 40
120.0
 41
0.0
 71
     5
 72
     1
  1
\A1;a
  7
STYLE1
 73
     1
 44
1.0
1001
ACAD
1000
MTEXTBEGIN
1070
    73
1070
     1
1070
    44
1040
1.0
1070
    74
1070
     0
1000
MTEXTEND
  0
LINE
  5
23F79
330
2388C
100
AcDbEntity
  8
寸法
 62
     0
 48
50.0
370
    -2
100
AcDbLine
 10
9017.917420526705
 20
9780.779765297413
 30
0.0
 11
9062.917420526707
 21
9780.779765297413
 31
0.0
  0
LINE
  5
23F7A
330
2388C
100
AcDbEntity
  8
寸法
 62
     0
 48
50.0
370
    -2
100
AcDbLine
 10
9017.917420526705
 20
9780.779765297413
 30
0.0
 11
9062.917420526707
 21
9780.779765297413
 31
0.0
  0
INSERT
  5
23F7B
330
2388C
100
AcDbEntity
  8
寸法
 62
     0
 48
50.0
370
    -2
100
AcDbBlockReference
  2
_DOTSMALL
 10
9017.917420526705
 20
9780.779765297413
 30
0.0
 41
100.0
 42
100.0
 43
100.0
  0
INSERT
  5
23F7C
330
2388C
100
AcDbEntity
  8
寸法
 62
     0
 48
50.0
370
    -2
100
AcDbBlockReference
  2
_DOTSMALL
 10
9062.917420526707
 20
9780.779765297413
 30
0.0
 41
100.0
 42
100.0
 43
100.0
 50
180.0
  0
POINT
  5
23F7D
330
2388C
100
AcDbEntity
  8
DEFPOINTS
 62
     0
 48
50.0
100
AcDbPoint
 10
9017.917420526705
 20
8760.503905649281
 30
0.0
  0
POINT
  5
23F7E
330
2388C
100
AcDbEntity
  8
DEFPOINTS
 62
     0
 48
50.0
100
AcDbPoint
 10
9062.917420526707
 20
9613.05988234068
 30
0.0
  0
POINT
  5
23F7F
330
2388C
100
AcDbEntity
  8
DEFPOINTS
 62
     0
 48
50.0
100
AcDbPoint
 10
9062.917420526707
 20
9780.779765297413
 30
0.0
  0
ENDBLK
  5
23899
330
2388C
100
AcDbEntity
  8
0
 48
50.0
100
AcDbBlockEnd
  0
BLOCK
  5
238A4
330
2389A
100
AcDbEntity
  8
0
 48
50.0
100
AcDbBlockBegin
  2
*D21
 70
     1
 10
0.0
 20
0.0
 30
0.0
  3
*D21
  1

  0
LINE
  5
23F6A
330
2389A
100
AcDbEntity
  8
寸法
 62
     0
 48
50.0
370
    -2
100
AcDbLine
 10
9037.917420526706
 20
5775.50390564928
 30
0.0
 11
9776.94962744372
 21
5775.50390564928
 31
0.0
  0
LINE
  5
23F6B
330
2389A
100
AcDbEntity
  8
寸法
 62
     0
 48
50.0
370
    -2
100
AcDbLine
 10
9012.917420526706
 20
8710.503905649281
 30
0.0
 11
9776.94962744372
 21
8710.503905649281
 31
0.0
  0
LINE
  5
23F6C
330
2389A
100
AcDbEntity
  8
寸法
 62
     0
 48
50.0
370
    -2
100
AcDbLine
 10
9716.949627443721
 20
5775.50390564928
 30
0.0
 11
9716.949627443721
 21
8710.503905649281
 31
0.0
  0
INSERT
  5
23F6D
330
2389A
100
AcDbEntity
  8
寸法
 62
     0
 48
50.0
370
    -2
100
AcDbBlockReference
  2
_DOTSMALL
 10
9716.949627443721
 20
5775.50390564928
 30
0.0
 41
100.0
 42
100.0
 43
100.0
 50
270.0
  0
INSERT
  5
23F6E
330
2389A
100
AcDbEntity
  8
寸法
 62
     0
 48
50.0
370
    -2
100
AcDbBlockReference
  2
_DOTSMALL
 10
9716.949627443721
 20
8710.503905649281
 30
0.0
 41
100.0
 42
100.0
 43
100.0
 50
90.0
  0
MTEXT
  5
23F6F
330
2389A
100
AcDbEntity
  8
寸法
 62
     7
 48
50.0
100
AcDbMText
 10
9616.937816420097
 20
7243.003905649281
 30
0.0
 40
120.0
 41
0.0
 71
     5
 72
     1
  1
\A1;2935
  7
STYLE1
 11
0.0000000000000001
 21
1.0
 31
0.0
 73
     1
 44
1.0
1001
ACAD
1000
MTEXTBEGIN
1070
    73
1070
     1
1070
    44
1040
1.0
1070
    74
1070
     0
1000
MTEXTEND
  0
POINT
  5
23F70
330
2389A
100
AcDbEntity
  8
DEFPOINTS
 62
     0
 48
50.0
100
AcDbPoint
 10
9017.917420526705
 20
5775.50390564928
 30
0.0
  0
POINT
  5
23F71
330
2389A
100
AcDbEntity
  8
DEFPOINTS
 62
     0
 48
50.0
100
AcDbPoint
 10
8992.917420526707
 20
8710.503905649281
 30
0.0
  0
POINT
  5
23F72
330
2389A
100
AcDbEntity
  8
DEFPOINTS
 62
     0
 48
50.0
100
AcDbPoint
 10
9716.949627443721
 20
8710.503905649281
 30
0.0
  0
ENDBLK
  5
238A5
330
2389A
100
AcDbEntity
  8
0
 48
50.0
100
AcDbBlockEnd
  0
BLOCK
  5
238B0
330
238A6
100
AcDbEntity
  8
0
 48
50.0
100
AcDbBlockBegin
  2
*D22
 70
     1
 10
0.0
 20
0.0
 30
0.0
  3
*D22
  1

  0
LINE
  5
23F61
330
238A6
100
AcDbEntity
  8
寸法
 62
     0
 48
50.0
370
    -2
100
AcDbLine
 10
9037.917420526706
 20
5775.50390564928
 30
0.0
 11
10070.05557105895
 21
5775.50390564928
 31
0.0
  0
LINE
  5
23F62
330
238A6
100
AcDbEntity
  8
寸法
 62
     0
 48
50.0
370
    -2
100
AcDbLine
 10
9037.917420526706
 20
8760.503905649278
 30
0.0
 11
10070.05557105895
 21
8760.503905649278
 31
0.0
  0
LINE
  5
23F63
330
238A6
100
AcDbEntity
  8
寸法
 62
     0
 48
50.0
370
    -2
100
AcDbLine
 10
10010.05557105895
 20
5775.50390564928
 30
0.0
 11
10010.05557105895
 21
8760.503905649278
 31
0.0
  0
INSERT
  5
23F64
330
238A6
100
AcDbEntity
  8
寸法
 62
     0
 48
50.0
370
    -2
100
AcDbBlockReference
  2
_DOTSMALL
 10
10010.05557105895
 20
5775.50390564928
 30
0.0
 41
100.0
 42
100.0
 43
100.0
 50
270.0
  0
INSERT
  5
23F65
330
238A6
100
AcDbEntity
  8
寸法
 62
     0
 48
50.0
370
    -2
100
AcDbBlockReference
  2
_DOTSMALL
 10
10010.05557105895
 20
8760.503905649278
 30
0.0
 41
100.0
 42
100.0
 43
100.0
 50
90.0
  0
MTEXT
  5
23F66
330
238A6
100
AcDbEntity
  8
寸法
 62
     7
 48
50.0
100
AcDbMText
 10
9910.043760035327
 20
7268.00390564928
 30
0.0
 40
120.0
 41
0.0
 71
     5
 72
     1
  1
\A1;2985
  7
STYLE1
 11
0.0000000000000001
 21
1.0
 31
0.0
 73
     1
 44
1.0
1001
ACAD
1000
MTEXTBEGIN
1070
    73
1070
     1
1070
    44
1040
1.0
1070
    74
1070
     0
1000
MTEXTEND
  0
POINT
  5
23F67
330
238A6
100
AcDbEntity
  8
DEFPOINTS
 62
     0
 48
50.0
100
AcDbPoint
 10
9017.917420526705
 20
5775.50390564928
 30
0.0
  0
POINT
  5
23F68
330
238A6
100
AcDbEntity
  8
DEFPOINTS
 62
     0
 48
50.0
100
AcDbPoint
 10
9017.917420526705
 20
8760.503905649278
 30
0.0
  0
POINT
  5
23F69
330
238A6
100
AcDbEntity
  8
DEFPOINTS
 62
     0
 48
50.0
100
AcDbPoint
 10
10010.05557105895
 20
8760.503905649278
 30
0.0
  0
ENDBLK
  5
238B1
330
238A6
100
AcDbEntity
  8
0
 48
50.0
100
AcDbBlockEnd
  0
BLOCK
  5
238BE
330
238B2
100
AcDbEntity
  8
0
 48
50.0
100
AcDbBlockBegin
  2
*D23
 70
     1
 10
0.0
 20
0.0
 30
0.0
  3
*D23
  1

  0
LINE
  5
23F54
330
238B2
100
AcDbEntity
  8
寸法
 62
     0
 48
50.0
370
    -2
100
AcDbLine
 10
9037.917420526706
 20
5775.50390564928
 30
0.0
 11
9776.949627443723
 21
5775.50390564928
 31
0.0
  0
LINE
  5
23F55
330
238B2
100
AcDbEntity
  8
寸法
 62
     0
 48
50.0
370
    -2
100
AcDbLine
 10
9183.915935278966
 20
5733.50390564928
 30
0.0
 11
9776.949627443723
 21
5733.50390564928
 31
0.0
  0
LINE
  5
23F56
330
238B2
100
AcDbEntity
  8
寸法
 62
     0
 48
50.0
370
    -2
100
AcDbLine
 10
9716.949627443723
 20
5775.50390564928
 30
0.0
 11
9716.949627443723
 21
5875.503905649281
 31
0.0
  0
LINE
  5
23F57
330
238B2
100
AcDbEntity
  8
寸法
 62
     0
 48
50.0
370
    -2
100
AcDbLine
 10
9716.949627443723
 20
5733.50390564928
 30
0.0
 11
9716.949627443723
 21
5633.503905649281
 31
0.0
  0
LINE
  5
23F58
330
238B2
100
AcDbEntity
  8
寸法
 62
     0
 48
50.0
370
    -2
100
AcDbLine
 10
9716.949627443723
 20
4904.145933208333
 30
0.0
 11
9716.949627443723
 21
5733.50390564928
 31
0.0
  0
MTEXT
  5
23F59
330
238B2
100
AcDbEntity
  8
寸法
 62
     7
 48
50.0
100
AcDbMText
 10
9616.937816420099
 20
5172.74947651542
 30
0.0
 40
120.0
 41
0.0
 71
     5
 72
     1
  1
\A1;柱芯42
  7
STYLE1
 11
0.0000000000000001
 21
1.0
 31
0.0
 73
     1
 44
1.0
1001
ACAD
1000
MTEXTBEGIN
1070
    73
1070
     1
1070
    44
1040
1.0
1070
    74
1070
     0
1000
MTEXTEND
  0
LINE
  5
23F5A
330
238B2
100
AcDbEntity
  8
寸法
 62
     0
 48
50.0
370
    -2
100
AcDbLine
 10
9716.949627443723
 20
5775.50390564928
 30
0.0
 11
9716.949627443723
 21
5733.50390564928
 31
0.0
  0
LINE
  5
23F5B
330
238B2
100
AcDbEntity
  8
寸法
 62
     0
 48
50.0
370
    -2
100
AcDbLine
 10
9716.949627443723
 20
5775.50390564928
 30
0.0
 11
9716.949627443723
 21
5733.50390564928
 31
0.0
  0
INSERT
  5
23F5C
330
238B2
100
AcDbEntity
  8
寸法
 62
     0
 48
50.0
370
    -2
100
AcDbBlockReference
  2
_DOTSMALL
 10
9716.949627443723
 20
5775.50390564928
 30
0.0
 41
100.0
 42
100.0
 43
100.0
 50
270.0
  0
INSERT
  5
23F5D
330
238B2
100
AcDbEntity
  8
寸法
 62
     0
 48
50.0
370
    -2
100
AcDbBlockReference
  2
_DOTSMALL
 10
9716.949627443723
 20
5733.50390564928
 30
0.0
 41
100.0
 42
100.0
 43
100.0
 50
90.0
  0
POINT
  5
23F5E
330
238B2
100
AcDbEntity
  8
DEFPOINTS
 62
     0
 48
50.0
100
AcDbPoint
 10
9017.917420526705
 20
5775.50390564928
 30
0.0
  0
POINT
  5
23F5F
330
238B2
100
AcDbEntity
  8
DEFPOINTS
 62
     0
 48
50.0
100
AcDbPoint
 10
9163.915935278966
 20
5733.50390564928
 30
0.0
  0
POINT
  5
23F60
330
238B2
100
AcDbEntity
  8
DEFPOINTS
 62
     0
 48
50.0
100
AcDbPoint
 10
9716.949627443723
 20
5733.50390564928
 30
0.0
  0
ENDBLK
  5
238BF
330
238B2
100
AcDbEntity
  8
0
 48
50.0
100
AcDbBlockEnd
  0
BLOCK
  5
238CA
330
238C0
100
AcDbEntity
  8
0
 48
50.0
100
AcDbBlockBegin
  2
*D24
 70
     1
 10
0.0
 20
0.0
 30
0.0
  3
*D24
  1

  0
LINE
  5
23F4B
330
238C0
100
AcDbEntity
  8
寸法
 62
     0
 48
50.0
370
    -2
100
AcDbLine
 10
8768.917420526706
 20
5559.00390564928
 30
0.0
 11
8405.278901341482
 21
5559.00390564928
 31
0.0
  0
LINE
  5
23F4C
330
238C0
100
AcDbEntity
  8
寸法
 62
     0
 48
50.0
370
    -2
100
AcDbLine
 10
8768.917420526706
 20
5909.003905649281
 30
0.0
 11
8405.278901341482
 21
5909.003905649281
 31
0.0
  0
LINE
  5
23F4D
330
238C0
100
AcDbEntity
  8
寸法
 62
     0
 48
50.0
370
    -2
100
AcDbLine
 10
8465.278901341482
 20
5559.00390564928
 30
0.0
 11
8465.278901341482
 21
5909.003905649281
 31
0.0
  0
MTEXT
  5
23F4E
330
238C0
100
AcDbEntity
  8
寸法
 62
     7
 48
50.0
100
AcDbMText
 10
8365.278901341481
 20
5753.769291081473
 30
0.0
 40
120.0
 41
0.0
 71
     5
 72
     1
  1
\A1;350
  7
STYLE1
 11
0.0000000000000001
 21
1.0
 31
0.0
 73
     1
 44
1.0
1001
ACAD
1000
MTEXTBEGIN
1070
    73
1070
     1
1070
    44
1040
1.0
1070
    74
1070
     0
1000
MTEXTEND
  0
INSERT
  5
23F4F
330
238C0
100
AcDbEntity
  8
寸法
 62
     0
 48
50.0
370
    -2
100
AcDbBlockReference
  2
_DOTSMALL
 10
8465.278901341482
 20
5559.00390564928
 30
0.0
 41
100.0
 42
100.0
 43
100.0
 50
270.0
  0
INSERT
  5
23F50
330
238C0
100
AcDbEntity
  8
寸法
 62
     0
 48
50.0
370
    -2
100
AcDbBlockReference
  2
_DOTSMALL
 10
8465.278901341482
 20
5909.003905649281
 30
0.0
 41
100.0
 42
100.0
 43
100.0
 50
90.0
  0
POINT
  5
23F51
330
238C0
100
AcDbEntity
  8
DEFPOINTS
 62
     0
 48
50.0
100
AcDbPoint
 10
8788.917420526706
 20
5559.00390564928
 30
0.0
  0
POINT
  5
23F52
330
238C0
100
AcDbEntity
  8
DEFPOINTS
 62
     0
 48
50.0
100
AcDbPoint
 10
8788.917420526706
 20
5909.003905649281
 30
0.0
  0
POINT
  5
23F53
330
238C0
100
AcDbEntity
  8
DEFPOINTS
 62
     0
 48
50.0
100
AcDbPoint
 10
8465.278901341482
 20
5909.003905649281
 30
0.0
  0
ENDBLK
  5
238CB
330
238C0
100
AcDbEntity
  8
0
 48
50.0
100
AcDbBlockEnd
  0
BLOCK
  5
238D8
330
238CC
100
AcDbEntity
  8
0
 48
50.0
100
AcDbBlockBegin
  2
*D25
 70
     1
 10
0.0
 20
0.0
 30
0.0
  3
*D25
  1

  0
LINE
  5
23F3E
330
238CC
100
AcDbEntity
  8
寸法
 62
     0
 48
50.0
370
    -2
100
AcDbLine
 10
8877.91742052671
 20
5805.503905649282
 30
0.0
 11
8611.752969305499
 21
5805.503905649282
 31
0.0
  0
LINE
  5
23F3F
330
238CC
100
AcDbEntity
  8
寸法
 62
     0
 48
50.0
370
    -2
100
AcDbLine
 10
8907.917420526706
 20
5775.50390564928
 30
0.0
 11
8611.752969305499
 21
5775.50390564928
 31
0.0
  0
LINE
  5
23F40
330
238CC
100
AcDbEntity
  8
寸法
 62
     0
 48
50.0
370
    -2
100
AcDbLine
 10
8671.752969305499
 20
5805.503905649282
 30
0.0
 11
8671.752969305499
 21
5905.503905649283
 31
0.0
  0
LINE
  5
23F41
330
238CC
100
AcDbEntity
  8
寸法
 62
     0
 48
50.0
370
    -2
100
AcDbLine
 10
8671.752969305499
 20
5775.50390564928
 30
0.0
 11
8671.752969305499
 21
5675.50390564928
 31
0.0
  0
LINE
  5
23F42
330
238CC
100
AcDbEntity
  8
寸法
 62
     0
 48
50.0
370
    -2
100
AcDbLine
 10
8671.752969305499
 20
5308.469456830381
 30
0.0
 11
8671.752969305499
 21
5775.50390564928
 31
0.0
  0
MTEXT
  5
23F43
330
238CC
100
AcDbEntity
  8
寸法
 62
     7
 48
50.0
100
AcDbMText
 10
8571.741158281875
 20
5416.040322972114
 30
0.0
 40
120.0
 41
0.0
 71
     5
 72
     1
  1
\A1;20
  7
STYLE1
 11
0.0000000000000001
 21
1.0
 31
0.0
 73
     1
 44
1.0
1001
ACAD
1000
MTEXTBEGIN
1070
    73
1070
     1
1070
    44
1040
1.0
1070
    74
1070
     0
1000
MTEXTEND
  0
LINE
  5
23F44
330
238CC
100
AcDbEntity
  8
寸法
 62
     0
 48
50.0
370
    -2
100
AcDbLine
 10
8671.752969305499
 20
5805.503905649282
 30
0.0
 11
8671.752969305499
 21
5775.50390564928
 31
0.0
  0
LINE
  5
23F45
330
238CC
100
AcDbEntity
  8
寸法
 62
     0
 48
50.0
370
    -2
100
AcDbLine
 10
8671.752969305499
 20
5805.503905649282
 30
0.0
 11
8671.752969305499
 21
5775.50390564928
 31
0.0
  0
INSERT
  5
23F46
330
238CC
100
AcDbEntity
  8
寸法
 62
     0
 48
50.0
370
    -2
100
AcDbBlockReference
  2
_DOTSMALL
 10
8671.752969305499
 20
5805.503905649282
 30
0.0
 41
100.0
 42
100.0
 43
100.0
 50
270.0
  0
INSERT
  5
23F47
330
238CC
100
AcDbEntity
  8
寸法
 62
     0
 48
50.0
370
    -2
100
AcDbBlockReference
  2
_DOTSMALL
 10
8671.752969305499
 20
5775.50390564928
 30
0.0
 41
100.0
 42
100.0
 43
100.0
 50
90.0
  0
POINT
  5
23F48
330
238CC
100
AcDbEntity
  8
DEFPOINTS
 62
     0
 48
50.0
100
AcDbPoint
 10
8897.917420526709
 20
5805.503905649282
 30
0.0
  0
POINT
  5
23F49
330
238CC
100
AcDbEntity
  8
DEFPOINTS
 62
     0
 48
50.0
100
AcDbPoint
 10
8927.917420526707
 20
5775.50390564928
 30
0.0
  0
POINT
  5
23F4A
330
238CC
100
AcDbEntity
  8
DEFPOINTS
 62
     0
 48
50.0
100
AcDbPoint
 10
8671.752969305499
 20
5775.50390564928
 30
0.0
  0
ENDBLK
  5
238D9
330
238CC
100
AcDbEntity
  8
0
 48
50.0
100
AcDbBlockEnd
  0
BLOCK
  5
238E4
330
238DA
100
AcDbEntity
  8
0
 48
50.0
100
AcDbBlockBegin
  2
*D26
 70
     1
 10
0.0
 20
0.0
 30
0.0
  3
*D26
  1

  0
LINE
  5
23F35
330
238DA
100
AcDbEntity
  8
寸法
 62
     0
 48
50.0
370
    -2
100
AcDbLine
 10
8788.917420526706
 20
5539.003905649281
 30
0.0
 11
8788.917420526706
 21
5222.276801730855
 31
0.0
  0
LINE
  5
23F36
330
238DA
100
AcDbEntity
  8
寸法
 62
     0
 48
50.0
370
    -2
100
AcDbLine
 10
9138.917420526707
 20
5539.003905649279
 30
0.0
 11
9138.917420526707
 21
5222.276801730855
 31
0.0
  0
LINE
  5
23F37
330
238DA
100
AcDbEntity
  8
寸法
 62
     0
 48
50.0
370
    -2
100
AcDbLine
 10
8788.917420526706
 20
5282.276801730855
 30
0.0
 11
9138.917420526707
 21
5282.276801730855
 31
0.0
  0
INSERT
  5
23F38
330
238DA
100
AcDbEntity
  8
寸法
 62
     0
 48
50.0
370
    -2
100
AcDbBlockReference
  2
_DOTSMALL
 10
8788.917420526706
 20
5282.276801730855
 30
0.0
 41
100.0
 42
100.0
 43
100.0
 50
180.0
  0
INSERT
  5
23F39
330
238DA
100
AcDbEntity
  8
寸法
 62
     0
 48
50.0
370
    -2
100
AcDbBlockReference
  2
_DOTSMALL
 10
9138.917420526707
 20
5282.276801730855
 30
0.0
 41
100.0
 42
100.0
 43
100.0
  0
MTEXT
  5
23F3A
330
238DA
100
AcDbEntity
  8
寸法
 62
     7
 48
50.0
100
AcDbMText
 10
8963.917420526707
 20
5382.276801730855
 30
0.0
 40
120.0
 41
0.0
 71
     5
 72
     1
  1
\A1;350
  7
STYLE1
 73
     1
 44
1.0
1001
ACAD
1000
MTEXTBEGIN
1070
    73
1070
     1
1070
    44
1040
1.0
1070
    74
1070
     0
1000
MTEXTEND
  0
POINT
  5
23F3B
330
238DA
100
AcDbEntity
  8
DEFPOINTS
 62
     0
 48
50.0
100
AcDbPoint
 10
8788.917420526706
 20
5559.00390564928
 30
0.0
  0
POINT
  5
23F3C
330
238DA
100
AcDbEntity
  8
DEFPOINTS
 62
     0
 48
50.0
100
AcDbPoint
 10
9138.917420526707
 20
5559.003905649279
 30
0.0
  0
POINT
  5
23F3D
330
238DA
100
AcDbEntity
  8
DEFPOINTS
 62
     0
 48
50.0
100
AcDbPoint
 10
9138.917420526707
 20
5282.276801730855
 30
0.0
  0
ENDBLK
  5
238E5
330
238DA
100
AcDbEntity
  8
0
 48
50.0
100
AcDbBlockEnd
  0
BLOCK
  5
238F2
330
238E6
100
AcDbEntity
  8
0
 48
50.0
100
AcDbBlockBegin
  2
*D27
 70
     1
 10
0.0
 20
0.0
 30
0.0
  3
*D27
  1

  0
LINE
  5
23F28
330
238E6
100
AcDbEntity
  8
寸法
 62
     0
 48
50.0
370
    -2
100
AcDbLine
 10
8897.917420526709
 20
5825.503905649282
 30
0.0
 11
8897.917420526709
 21
6192.515851998243
 31
0.0
  0
LINE
  5
23F29
330
238E6
100
AcDbEntity
  8
寸法
 62
     0
 48
50.0
370
    -2
100
AcDbLine
 10
8927.917420526707
 20
5825.503905649282
 30
0.0
 11
8927.917420526707
 21
6192.515851998243
 31
0.0
  0
LINE
  5
23F2A
330
238E6
100
AcDbEntity
  8
寸法
 62
     0
 48
50.0
370
    -2
100
AcDbLine
 10
8897.917420526709
 20
6132.515851998244
 30
0.0
 11
8797.91742052671
 21
6132.515851998244
 31
0.0
  0
LINE
  5
23F2B
330
238E6
100
AcDbEntity
  8
寸法
 62
     0
 48
50.0
370
    -2
100
AcDbLine
 10
8927.917420526707
 20
6132.515851998244
 30
0.0
 11
9027.917420526707
 21
6132.515851998244
 31
0.0
  0
LINE
  5
23F2C
330
238E6
100
AcDbEntity
  8
寸法
 62
     0
 48
50.0
370
    -2
100
AcDbLine
 10
8430.882971707811
 20
6132.515851998244
 30
0.0
 11
8897.917420526709
 21
6132.515851998244
 31
0.0
  0
MTEXT
  5
23F2D
330
238E6
100
AcDbEntity
  8
寸法
 62
     7
 48
50.0
100
AcDbMText
 10
8538.453837849543
 20
6232.527663021866
 30
0.0
 40
120.0
 41
0.0
 71
     5
 72
     1
  1
\A1;20
  7
STYLE1
 73
     1
 44
1.0
1001
ACAD
1000
MTEXTBEGIN
1070
    73
1070
     1
1070
    44
1040
1.0
1070
    74
1070
     0
1000
MTEXTEND
  0
LINE
  5
23F2E
330
238E6
100
AcDbEntity
  8
寸法
 62
     0
 48
50.0
370
    -2
100
AcDbLine
 10
8897.917420526709
 20
6132.515851998244
 30
0.0
 11
8927.917420526707
 21
6132.515851998244
 31
0.0
  0
LINE
  5
23F2F
330
238E6
100
AcDbEntity
  8
寸法
 62
     0
 48
50.0
370
    -2
100
AcDbLine
 10
8897.917420526709
 20
6132.515851998244
 30
0.0
 11
8927.917420526707
 21
6132.515851998244
 31
0.0
  0
INSERT
  5
23F30
330
238E6
100
AcDbEntity
  8
寸法
 62
     0
 48
50.0
370
    -2
100
AcDbBlockReference
  2
_DOTSMALL
 10
8897.917420526709
 20
6132.515851998244
 30
0.0
 41
100.0
 42
100.0
 43
100.0
  0
INSERT
  5
23F31
330
238E6
100
AcDbEntity
  8
寸法
 62
     0
 48
50.0
370
    -2
100
AcDbBlockReference
  2
_DOTSMALL
 10
8927.917420526707
 20
6132.515851998244
 30
0.0
 41
100.0
 42
100.0
 43
100.0
 50
180.0
  0
POINT
  5
23F32
330
238E6
100
AcDbEntity
  8
DEFPOINTS
 62
     0
 48
50.0
100
AcDbPoint
 10
8897.917420526709
 20
5805.503905649282
 30
0.0
  0
POINT
  5
23F33
330
238E6
100
AcDbEntity
  8
DEFPOINTS
 62
     0
 48
50.0
100
AcDbPoint
 10
8927.917420526707
 20
5805.503905649282
 30
0.0
  0
POINT
  5
23F34
330
238E6
100
AcDbEntity
  8
DEFPOINTS
 62
     0
 48
50.0
100
AcDbPoint
 10
8927.917420526707
 20
6132.515851998244
 30
0.0
  0
ENDBLK
  5
238F3
330
238E6
100
AcDbEntity
  8
0
 48
50.0
100
AcDbBlockEnd
  0
BLOCK
  5
238FF
330
238F4
100
AcDbEntity
  8
0
 48
50.0
100
AcDbBlockBegin
  2
*D28
 70
     1
 10
0.0
 20
0.0
 30
0.0
  3
*D28
  1

  0
LINE
  5
23F1E
330
238F4
100
AcDbEntity
  8
寸法
 62
     0
 48
50.0
370
    -2
100
AcDbLine
 10
8927.917420526707
 20
5825.503905649282
 30
0.0
 11
8927.917420526707
 21
6192.515851998243
 31
0.0
  0
LINE
  5
23F1F
330
238F4
100
AcDbEntity
  8
寸法
 62
     0
 48
50.0
370
    -2
100
AcDbLine
 10
9017.917420526705
 20
5795.50390564928
 30
0.0
 11
9017.917420526705
 21
6192.515851998243
 31
0.0
  0
LINE
  5
23F20
330
238F4
100
AcDbEntity
  8
寸法
 62
     0
 48
50.0
370
    -2
100
AcDbLine
 10
8927.917420526707
 20
6132.515851998244
 30
0.0
 11
9017.917420526705
 21
6132.515851998244
 31
0.0
  0
LINE
  5
23F21
330
238F4
100
AcDbEntity
  8
寸法
 62
     0
 48
50.0
370
    -2
100
AcDbLine
 10
9424.023719739308
 20
6132.515851998244
 30
0.0
 11
9017.917420526705
 21
6132.515851998244
 31
0.0
  0
MTEXT
  5
23F22
330
238F4
100
AcDbEntity
  8
寸法
 62
     7
 48
50.0
100
AcDbMText
 10
9287.976475644818
 20
6232.515851998243
 30
0.0
 40
120.0
 41
0.0
 71
     5
 72
     1
  1
\A1;100
  7
STYLE1
 73
     1
 44
1.0
1001
ACAD
1000
MTEXTBEGIN
1070
    73
1070
     1
1070
    44
1040
1.0
1070
    74
1070
     0
1000
MTEXTEND
  0
INSERT
  5
23F23
330
238F4
100
AcDbEntity
  8
寸法
 62
     0
 48
50.0
370
    -2
100
AcDbBlockReference
  2
_DOTSMALL
 10
8927.917420526707
 20
6132.515851998244
 30
0.0
 41
100.0
 42
100.0
 43
100.0
 50
180.0
  0
INSERT
  5
23F24
330
238F4
100
AcDbEntity
  8
寸法
 62
     0
 48
50.0
370
    -2
100
AcDbBlockReference
  2
_DOTSMALL
 10
9017.917420526705
 20
6132.515851998244
 30
0.0
 41
100.0
 42
100.0
 43
100.0
  0
POINT
  5
23F25
330
238F4
100
AcDbEntity
  8
DEFPOINTS
 62
     0
 48
50.0
100
AcDbPoint
 10
8927.917420526707
 20
5805.503905649282
 30
0.0
  0
POINT
  5
23F26
330
238F4
100
AcDbEntity
  8
DEFPOINTS
 62
     0
 48
50.0
100
AcDbPoint
 10
9017.917420526705
 20
5775.50390564928
 30
0.0
  0
POINT
  5
23F27
330
238F4
100
AcDbEntity
  8
DEFPOINTS
 62
     0
 48
50.0
100
AcDbPoint
 10
9017.917420526705
 20
6132.515851998244
 30
0.0
  0
ENDBLK
  5
23900
330
238F4
100
AcDbEntity
  8
0
 48
50.0
100
AcDbBlockEnd
  0
BLOCK
  5
2390C
330
23901
100
AcDbEntity
  8
0
 48
50.0
100
AcDbBlockBegin
  2
*D29
 70
     1
 10
0.0
 20
0.0
 30
0.0
  3
*D29
  1

  0
LINE
  5
23F14
330
23901
100
AcDbEntity
  8
寸法
 62
     0
 48
50.0
370
    -2
100
AcDbLine
 10
8897.917420526708
 20
6396.003905649281
 30
0.0
 11
8897.917420526708
 21
6463.339112965339
 31
0.0
  0
LINE
  5
23F15
330
23901
100
AcDbEntity
  8
寸法
 62
     0
 48
50.0
370
    -2
100
AcDbLine
 10
9017.917420526705
 20
6396.003905649281
 30
0.0
 11
9017.917420526705
 21
6463.339112965339
 31
0.0
  0
LINE
  5
23F16
330
23901
100
AcDbEntity
  8
寸法
 62
     0
 48
50.0
370
    -2
100
AcDbLine
 10
8897.917420526708
 20
6403.33911296534
 30
0.0
 11
9017.917420526705
 21
6403.33911296534
 31
0.0
  0
LINE
  5
23F17
330
23901
100
AcDbEntity
  8
寸法
 62
     0
 48
50.0
370
    -2
100
AcDbLine
 10
9424.023719739306
 20
6403.33911296534
 30
0.0
 11
9017.917420526705
 21
6403.33911296534
 31
0.0
  0
MTEXT
  5
23F18
330
23901
100
AcDbEntity
  8
寸法
 62
     7
 48
50.0
100
AcDbMText
 10
9287.976475644816
 20
6503.350923988961
 30
0.0
 40
120.0
 41
0.0
 71
     5
 72
     1
  1
\A1;120
  7
STYLE1
 73
     1
 44
1.0
1001
ACAD
1000
MTEXTBEGIN
1070
    73
1070
     1
1070
    44
1040
1.0
1070
    74
1070
     0
1000
MTEXTEND
  0
INSERT
  5
23F19
330
23901
100
AcDbEntity
  8
寸法
 62
     0
 48
50.0
370
    -2
100
AcDbBlockReference
  2
_DOTSMALL
 10
8897.917420526708
 20
6403.33911296534
 30
0.0
 41
100.0
 42
100.0
 43
100.0
 50
180.0
  0
INSERT
  5
23F1A
330
23901
100
AcDbEntity
  8
寸法
 62
     0
 48
50.0
370
    -2
100
AcDbBlockReference
  2
_DOTSMALL
 10
9017.917420526705
 20
6403.33911296534
 30
0.0
 41
100.0
 42
100.0
 43
100.0
  0
POINT
  5
23F1B
330
23901
100
AcDbEntity
  8
DEFPOINTS
 62
     0
 48
50.0
100
AcDbPoint
 10
8897.917420526708
 20
6376.00390564928
 30
0.0
  0
POINT
  5
23F1C
330
23901
100
AcDbEntity
  8
DEFPOINTS
 62
     0
 48
50.0
100
AcDbPoint
 10
9017.917420526705
 20
6376.00390564928
 30
0.0
  0
POINT
  5
23F1D
330
23901
100
AcDbEntity
  8
DEFPOINTS
 62
     0
 48
50.0
100
AcDbPoint
 10
9017.917420526705
 20
6403.33911296534
 30
0.0
  0
ENDBLK
  5
2390D
330
23901
100
AcDbEntity
  8
0
 48
50.0
100
AcDbBlockEnd
  0
BLOCK
  5
23919
330
2390E
100
AcDbEntity
  8
0
 48
50.0
100
AcDbBlockBegin
  2
*D30
 70
     1
 10
0.0
 20
0.0
 30
0.0
  3
*D30
  1

  0
LINE
  5
23F07
330
2390E
100
AcDbEntity
  8
寸法
 62
     0
 48
50.0
370
    -2
100
AcDbLine
 10
9037.917420526699
 20
8760.503905649281
 30
0.0
 11
9776.949627443723
 21
8760.503905649281
 31
0.0
  0
LINE
  5
23F08
330
2390E
100
AcDbEntity
  8
寸法
 62
     0
 48
50.0
370
    -2
100
AcDbLine
 10
9012.917420526706
 20
8710.503905649281
 30
0.0
 11
9776.949627443723
 21
8710.503905649281
 31
0.0
  0
LINE
  5
23F09
330
2390E
100
AcDbEntity
  8
寸法
 62
     0
 48
50.0
370
    -2
100
AcDbLine
 10
9716.949627443723
 20
8760.503905649281
 30
0.0
 11
9716.949627443723
 21
8860.503905649281
 31
0.0
  0
LINE
  5
23F0A
330
2390E
100
AcDbEntity
  8
寸法
 62
     0
 48
50.0
370
    -2
100
AcDbLine
 10
9716.949627443723
 20
8710.503905649281
 30
0.0
 11
9716.949627443723
 21
8610.503905649281
 31
0.0
  0
LINE
  5
23F0B
330
2390E
100
AcDbEntity
  8
寸法
 62
     0
 48
50.0
370
    -2
100
AcDbLine
 10
9716.949627443723
 20
9236.920660668902
 30
0.0
 11
9716.949627443723
 21
8760.503905649281
 31
0.0
  0
MTEXT
  5
23F0C
330
2390E
100
AcDbEntity
  8
寸法
 62
     7
 48
50.0
100
AcDbMText
 10
9616.949627443721
 20
9130.873416574415
 30
0.0
 40
120.0
 41
0.0
 71
     5
 72
     1
  1
\A1;50
  7
STYLE1
 11
0.0000000000000001
 21
1.0
 31
0.0
 73
     1
 44
1.0
1001
ACAD
1000
MTEXTBEGIN
1070
    73
1070
     1
1070
    44
1040
1.0
1070
    74
1070
     0
1000
MTEXTEND
  0
LINE
  5
23F0D
330
2390E
100
AcDbEntity
  8
寸法
 62
     0
 48
50.0
370
    -2
100
AcDbLine
 10
9716.949627443723
 20
8760.503905649281
 30
0.0
 11
9716.949627443723
 21
8710.503905649281
 31
0.0
  0
LINE
  5
23F0E
330
2390E
100
AcDbEntity
  8
寸法
 62
     0
 48
50.0
370
    -2
100
AcDbLine
 10
9716.949627443723
 20
8760.503905649281
 30
0.0
 11
9716.949627443723
 21
8710.503905649281
 31
0.0
  0
INSERT
  5
23F0F
330
2390E
100
AcDbEntity
  8
寸法
 62
     0
 48
50.0
370
    -2
100
AcDbBlockReference
  2
_DOTSMALL
 10
9716.949627443723
 20
8760.503905649281
 30
0.0
 41
100.0
 42
100.0
 43
100.0
 50
270.0
  0
INSERT
  5
23F10
330
2390E
100
AcDbEntity
  8
寸法
 62
     0
 48
50.0
370
    -2
100
AcDbBlockReference
  2
_DOTSMALL
 10
9716.949627443723
 20
8710.503905649281
 30
0.0
 41
100.0
 42
100.0
 43
100.0
 50
90.0
  0
POINT
  5
23F11
330
2390E
100
AcDbEntity
  8
DEFPOINTS
 62
     0
 48
50.0
100
AcDbPoint
 10
9017.917420526698
 20
8760.503905649281
 30
0.0
  0
POINT
  5
23F12
330
2390E
100
AcDbEntity
  8
DEFPOINTS
 62
     0
 48
50.0
100
AcDbPoint
 10
8992.917420526707
 20
8710.503905649281
 30
0.0
  0
POINT
  5
23F13
330
2390E
100
AcDbEntity
  8
DEFPOINTS
 62
     0
 48
50.0
100
AcDbPoint
 10
9716.949627443723
 20
8710.503905649281
 30
0.0
  0
ENDBLK
  5
2391A
330
2390E
100
AcDbEntity
  8
0
 48
50.0
100
AcDbBlockEnd
  0
BLOCK
  5
23926
330
2391B
100
AcDbEntity
  8
0
 48
50.0
100
AcDbBlockBegin
  2
*D31
 70
     1
 10
0.0
 20
0.0
 30
0.0
  3
*D31
  1

  0
LINE
  5
23EFD
330
2391B
100
AcDbEntity
  8
寸法
 62
     0
 48
50.0
370
    -2
100
AcDbLine
 10
8169.495670265927
 20
8640.503905649277
 30
0.0
 11
8102.16046294987
 21
8640.503905649277
 31
0.0
  0
LINE
  5
23EFE
330
2391B
100
AcDbEntity
  8
寸法
 62
     0
 48
50.0
370
    -2
100
AcDbLine
 10
8169.495670265927
 20
8760.503905649276
 30
0.0
 11
8102.16046294987
 21
8760.503905649276
 31
0.0
  0
LINE
  5
23EFF
330
2391B
100
AcDbEntity
  8
寸法
 62
     0
 48
50.0
370
    -2
100
AcDbLine
 10
8162.160462949868
 20
8640.503905649277
 30
0.0
 11
8162.160462949868
 21
8760.503905649276
 31
0.0
  0
LINE
  5
23F00
330
2391B
100
AcDbEntity
  8
寸法
 62
     0
 48
50.0
370
    -2
100
AcDbLine
 10
8162.160462949868
 20
9166.610204861875
 30
0.0
 11
8162.160462949868
 21
8760.503905649276
 31
0.0
  0
MTEXT
  5
23F01
330
2391B
100
AcDbEntity
  8
寸法
 62
     7
 48
50.0
100
AcDbMText
 10
8062.148651926246
 20
9030.562960767388
 30
0.0
 40
120.0
 41
0.0
 71
     5
 72
     1
  1
\A1;120
  7
STYLE1
 11
0.0000000000000001
 21
1.0
 31
0.0
 73
     1
 44
1.0
1001
ACAD
1000
MTEXTBEGIN
1070
    73
1070
     1
1070
    44
1040
1.0
1070
    74
1070
     0
1000
MTEXTEND
  0
INSERT
  5
23F02
330
2391B
100
AcDbEntity
  8
寸法
 62
     0
 48
50.0
370
    -2
100
AcDbBlockReference
  2
_DOTSMALL
 10
8162.160462949868
 20
8640.503905649277
 30
0.0
 41
100.0
 42
100.0
 43
100.0
 50
270.0
  0
INSERT
  5
23F03
330
2391B
100
AcDbEntity
  8
寸法
 62
     0
 48
50.0
370
    -2
100
AcDbBlockReference
  2
_DOTSMALL
 10
8162.160462949868
 20
8760.503905649276
 30
0.0
 41
100.0
 42
100.0
 43
100.0
 50
90.0
  0
POINT
  5
23F04
330
2391B
100
AcDbEntity
  8
DEFPOINTS
 62
     0
 48
50.0
100
AcDbPoint
 10
8189.495670265927
 20
8640.503905649277
 30
0.0
  0
POINT
  5
23F05
330
2391B
100
AcDbEntity
  8
DEFPOINTS
 62
     0
 48
50.0
100
AcDbPoint
 10
8189.495670265927
 20
8760.503905649276
 30
0.0
  0
POINT
  5
23F06
330
2391B
100
AcDbEntity
  8
DEFPOINTS
 62
     0
 48
50.0
100
AcDbPoint
 10
8162.160462949868
 20
8760.503905649276
 30
0.0
  0
ENDBLK
  5
23927
330
2391B
100
AcDbEntity
  8
0
 48
50.0
100
AcDbBlockEnd
  0
BLOCK
  5
23932
330
23928
100
AcDbEntity
  8
0
 48
50.0
100
AcDbBlockBegin
  2
*D32
 70
     1
 10
0.0
 20
0.0
 30
0.0
  3
*D32
  1

  0
LINE
  5
24D69
330
23928
100
AcDbEntity
  8
寸法
 62
     0
 48
50.0
370
    -2
100
AcDbLine
 10
6331.780709061454
 20
2150.269006252836
 30
0.0
 11
7571.803095126736
 21
2150.269006252836
 31
0.0
  0
LINE
  5
24D6A
330
23928
100
AcDbEntity
  8
寸法
 62
     0
 48
50.0
370
    -2
100
AcDbLine
 10
6211.780709061459
 20
1450.269006252838
 30
0.0
 11
7571.803095126735
 21
1450.269006252838
 31
0.0
  0
LINE
  5
24D6B
330
23928
100
AcDbEntity
  8
寸法
 62
     0
 48
50.0
370
    -2
100
AcDbLine
 10
7511.803095126737
 20
2150.269006252836
 30
0.0
 11
7511.803095126736
 21
1450.269006252838
 31
0.0
  0
MTEXT
  5
24D6C
330
23928
100
AcDbEntity
  8
寸法
 62
     7
 48
50.0
100
AcDbMText
 10
7300.20434793014
 20
1825.793248707035
 30
0.0
 40
120.0
 41
0.0
 71
     5
 72
     1
  1
\A1;基礎天ヨリ\P350
  7
STYLE1
 11
0.0000000000000001
 21
1.0
 31
0.0
 73
     1
 44
1.0
1001
ACAD
1000
MTEXTBEGIN
1070
    73
1070
     1
1070
    44
1040
1.0
1070
    74
1070
     0
1000
MTEXTEND
  0
INSERT
  5
24D6D
330
23928
100
AcDbEntity
  8
寸法
 62
     0
 48
50.0
370
    -2
100
AcDbBlockReference
  2
_DOTSMALL
 10
7511.803095126737
 20
2150.269006252836
 30
0.0
 41
100.0
 42
100.0
 43
100.0
 50
90.0
  0
INSERT
  5
24D6E
330
23928
100
AcDbEntity
  8
寸法
 62
     0
 48
50.0
370
    -2
100
AcDbBlockReference
  2
_DOTSMALL
 10
7511.803095126736
 20
1450.269006252838
 30
0.0
 41
100.0
 42
100.0
 43
100.0
 50
270.0
  0
POINT
  5
24D6F
330
23928
100
AcDbEntity
  8
DEFPOINTS
 62
     0
 48
50.0
100
AcDbPoint
 10
6311.780709061453
 20
2150.269006252836
 30
0.0
  0
POINT
  5
24D70
330
23928
100
AcDbEntity
  8
DEFPOINTS
 62
     0
 48
50.0
100
AcDbPoint
 10
6191.780709061458
 20
1450.269006252838
 30
0.0
  0
POINT
  5
24D71
330
23928
100
AcDbEntity
  8
DEFPOINTS
 62
     0
 48
50.0
100
AcDbPoint
 10
7511.803095126736
 20
1450.269006252838
 30
0.0
  0
ENDBLK
  5
23933
330
23928
100
AcDbEntity
  8
0
 48
50.0
100
AcDbBlockEnd
  0
BLOCK
  5
2393E
330
23934
100
AcDbEntity
  8
0
 48
50.0
100
AcDbBlockBegin
  2
*D33
 70
     1
 10
0.0
 20
0.0
 30
0.0
  3
*D33
  1

  0
LINE
  5
24EC4
330
23934
100
AcDbEntity
  8
寸法
 62
     0
 48
50.0
370
    -2
100
AcDbLine
 10
6331.780709061454
 20
2150.269006252836
 30
0.0
 11
7099.41220019066
 21
2150.269006252836
 31
0.0
  0
LINE
  5
24EC5
330
23934
100
AcDbEntity
  8
寸法
 62
     0
 48
50.0
370
    -2
100
AcDbLine
 10
6307.780709061459
 20
1650.269006252836
 30
0.0
 11
7099.41220019066
 21
1650.269006252836
 31
0.0
  0
LINE
  5
24EC6
330
23934
100
AcDbEntity
  8
寸法
 62
     0
 48
50.0
370
    -2
100
AcDbLine
 10
7039.41220019066
 20
2150.269006252836
 30
0.0
 11
7039.41220019066
 21
1650.269006252836
 31
0.0
  0
INSERT
  5
24EC7
330
23934
100
AcDbEntity
  8
寸法
 62
     0
 48
50.0
370
    -2
100
AcDbBlockReference
  2
_DOTSMALL
 10
7039.41220019066
 20
2150.269006252836
 30
0.0
 41
100.0
 42
100.0
 43
100.0
 50
90.0
  0
INSERT
  5
24EC8
330
23934
100
AcDbEntity
  8
寸法
 62
     0
 48
50.0
370
    -2
100
AcDbBlockReference
  2
_DOTSMALL
 10
7039.41220019066
 20
1650.269006252836
 30
0.0
 41
100.0
 42
100.0
 43
100.0
 50
270.0
  0
MTEXT
  5
24EC9
330
23934
100
AcDbEntity
  8
寸法
 62
     7
 48
50.0
100
AcDbMText
 10
6939.400389167038
 20
1900.269006252837
 30
0.0
 40
120.0
 41
0.0
 71
     5
 72
     1
  1
\A1;250
  7
STYLE1
 11
0.0000000000000001
 21
1.0
 31
0.0
 73
     1
 44
1.0
1001
ACAD
1000
MTEXTBEGIN
1070
    73
1070
     1
1070
    44
1040
1.0
1070
    74
1070
     0
1000
MTEXTEND
  0
POINT
  5
24ECA
330
23934
100
AcDbEntity
  8
DEFPOINTS
 62
     0
 48
50.0
100
AcDbPoint
 10
6311.780709061453
 20
2150.269006252836
 30
0.0
  0
POINT
  5
24ECB
330
23934
100
AcDbEntity
  8
DEFPOINTS
 62
     0
 48
50.0
100
AcDbPoint
 10
6287.780709061459
 20
1650.269006252836
 30
0.0
  0
POINT
  5
24ECC
330
23934
100
AcDbEntity
  8
DEFPOINTS
 62
     0
 48
50.0
100
AcDbPoint
 10
7039.41220019066
 20
1650.269006252836
 30
0.0
  0
ENDBLK
  5
2393F
330
23934
100
AcDbEntity
  8
0
 48
50.0
100
AcDbBlockEnd
  0
BLOCK
  5
2394A
330
23940
100
AcDbEntity
  8
0
 48
50.0
100
AcDbBlockBegin
  2
*D34
 70
     1
 10
0.0
 20
0.0
 30
0.0
  3
*D34
  1

  0
LINE
  5
24F2A
330
23940
100
AcDbEntity
  8
寸法
 62
     0
 48
50.0
370
    -2
100
AcDbLine
 10
8201.469758997649
 20
791.7761522541905
 30
0.0
 11
7826.553090048459
 21
791.7761522541906
 31
0.0
  0
LINE
  5
24F2B
330
23940
100
AcDbEntity
  8
寸法
 62
     0
 48
50.0
370
    -2
100
AcDbLine
 10
8201.469758997646
 20
1491.776152254189
 30
0.0
 11
7826.553090048459
 21
1491.776152254189
 31
0.0
  0
LINE
  5
24F2C
330
23940
100
AcDbEntity
  8
寸法
 62
     0
 48
50.0
370
    -2
100
AcDbLine
 10
7886.553090048458
 20
791.7761522541906
 30
0.0
 11
7886.553090048458
 21
1491.776152254189
 31
0.0
  0
INSERT
  5
24F2D
330
23940
100
AcDbEntity
  8
寸法
 62
     0
 48
50.0
370
    -2
100
AcDbBlockReference
  2
_DOTSMALL
 10
7886.553090048458
 20
791.7761522541906
 30
0.0
 41
100.0
 42
100.0
 43
100.0
 50
270.0
  0
INSERT
  5
24F2E
330
23940
100
AcDbEntity
  8
寸法
 62
     0
 48
50.0
370
    -2
100
AcDbBlockReference
  2
_DOTSMALL
 10
7886.553090048458
 20
1491.776152254189
 30
0.0
 41
100.0
 42
100.0
 43
100.0
 50
90.0
  0
MTEXT
  5
24F2F
330
23940
100
AcDbEntity
  8
寸法
 62
     7
 48
50.0
100
AcDbMText
 10
7786.553090048458
 20
1155.377721128876
 30
0.0
 40
120.0
 41
0.0
 71
     5
 72
     1
  1
\A1;\U+25A1350穴
  7
STYLE1
 11
0.0000000000000001
 21
1.0
 31
0.0
 73
     1
 44
1.0
1001
ACAD
1000
MTEXTBEGIN
1070
    73
1070
     1
1070
    44
1040
1.0
1070
    74
1070
     0
1000
MTEXTEND
  0
POINT
  5
24F30
330
23940
100
AcDbEntity
  8
DEFPOINTS
 62
     0
 48
50.0
100
AcDbPoint
 10
8221.469758997649
 20
791.7761522541905
 30
0.0
  0
POINT
  5
24F31
330
23940
100
AcDbEntity
  8
DEFPOINTS
 62
     0
 48
50.0
100
AcDbPoint
 10
8221.469758997647
 20
1491.776152254189
 30
0.0
  0
POINT
  5
24F32
330
23940
100
AcDbEntity
  8
DEFPOINTS
 62
     0
 48
50.0
100
AcDbPoint
 10
7886.553090048458
 20
1491.776152254189
 30
0.0
  0
ENDBLK
  5
2394B
330
23940
100
AcDbEntity
  8
0
 48
50.0
100
AcDbBlockEnd
  0
BLOCK
  5
23957
330
2394C
100
AcDbEntity
  8
0
 48
50.0
100
AcDbBlockBegin
  2
*D35
 70
     1
 10
0.0
 20
0.0
 30
0.0
  3
*D35
  1

  0
LINE
  5
23FB5
330
2394C
100
AcDbEntity
  8
寸法
 62
     0
 48
50.0
370
    -2
100
AcDbLine
 10
6452.917420526891
 20
8780.503905649281
 30
0.0
 11
6452.917420526891
 21
9540.613565556052
 31
0.0
  0
LINE
  5
23FB6
330
2394C
100
AcDbEntity
  8
寸法
 62
     0
 48
50.0
370
    -2
100
AcDbLine
 10
6377.917420526706
 20
8780.503905649281
 30
0.0
 11
6377.917420526706
 21
9540.613565556052
 31
0.0
  0
LINE
  5
23FB7
330
2394C
100
AcDbEntity
  8
寸法
 62
     0
 48
50.0
370
    -2
100
AcDbLine
 10
6452.917420526891
 20
9480.613565556053
 30
0.0
 11
6552.917420526892
 21
9480.613565556053
 31
0.0
  0
LINE
  5
23FB8
330
2394C
100
AcDbEntity
  8
寸法
 62
     0
 48
50.0
370
    -2
100
AcDbLine
 10
6377.917420526706
 20
9480.613565556053
 30
0.0
 11
6277.917420526706
 21
9480.613565556053
 31
0.0
  0
MTEXT
  5
23FB9
330
2394C
100
AcDbEntity
  8
寸法
 62
     7
 48
50.0
100
AcDbMText
 10
6137.917420526706
 20
9580.613565556053
 30
0.0
 40
120.0
 41
0.0
 71
     5
 72
     1
  1
\A1;75
  7
STYLE1
 73
     1
 44
1.0
1001
ACAD
1000
MTEXTBEGIN
1070
    73
1070
     1
1070
    44
1040
1.0
1070
    74
1070
     0
1000
MTEXTEND
  0
LINE
  5
23FBA
330
2394C
100
AcDbEntity
  8
寸法
 62
     0
 48
50.0
370
    -2
100
AcDbLine
 10
6452.917420526891
 20
9480.613565556053
 30
0.0
 11
6377.917420526706
 21
9480.613565556053
 31
0.0
  0
INSERT
  5
23FBB
330
2394C
100
AcDbEntity
  8
寸法
 62
     0
 48
50.0
370
    -2
100
AcDbBlockReference
  2
_DOTSMALL
 10
6452.917420526891
 20
9480.613565556053
 30
0.0
 41
100.0
 42
100.0
 43
100.0
 50
180.0
  0
INSERT
  5
23FBC
330
2394C
100
AcDbEntity
  8
寸法
 62
     0
 48
50.0
370
    -2
100
AcDbBlockReference
  2
_DOTSMALL
 10
6377.917420526706
 20
9480.613565556053
 30
0.0
 41
100.0
 42
100.0
 43
100.0
  0
POINT
  5
23FBD
330
2394C
100
AcDbEntity
  8
DEFPOINTS
 62
     0
 48
50.0
100
AcDbPoint
 10
6452.917420526891
 20
8760.503905649281
 30
0.0
  0
POINT
  5
23FBE
330
2394C
100
AcDbEntity
  8
DEFPOINTS
 62
     0
 48
50.0
100
AcDbPoint
 10
6377.917420526706
 20
8760.503905649281
 30
0.0
  0
POINT
  5
23FBF
330
2394C
100
AcDbEntity
  8
DEFPOINTS
 62
     0
 48
50.0
100
AcDbPoint
 10
6377.917420526706
 20
9480.613565556053
 30
0.0
  0
ENDBLK
  5
23958
330
2394C
100
AcDbEntity
  8
0
 48
50.0
100
AcDbBlockEnd
  0
BLOCK
  5
23965
330
23959
100
AcDbEntity
  8
0
 48
50.0
100
AcDbBlockBegin
  2
*D36
 70
     1
 10
0.0
 20
0.0
 30
0.0
  3
*D36
  1

  0
LINE
  5
23FA8
330
23959
100
AcDbEntity
  8
寸法
 62
     0
 48
50.0
370
    -2
100
AcDbLine
 10
6332.917420526706
 20
9633.059882340681
 30
0.0
 11
6332.917420526706
 21
9840.779765297414
 31
0.0
  0
LINE
  5
23FA9
330
23959
100
AcDbEntity
  8
寸法
 62
     0
 48
50.0
370
    -2
100
AcDbLine
 10
6377.917420526706
 20
8780.503905649281
 30
0.0
 11
6377.917420526706
 21
9840.779765297414
 31
0.0
  0
LINE
  5
23FAA
330
23959
100
AcDbEntity
  8
寸法
 62
     0
 48
50.0
370
    -2
100
AcDbLine
 10
6332.917420526706
 20
9780.779765297413
 30
0.0
 11
6232.917420526707
 21
9780.779765297413
 31
0.0
  0
LINE
  5
23FAB
330
23959
100
AcDbEntity
  8
寸法
 62
     0
 48
50.0
370
    -2
100
AcDbLine
 10
6377.917420526706
 20
9780.779765297413
 30
0.0
 11
6477.917420526707
 21
9780.779765297413
 31
0.0
  0
LINE
  5
23FAC
330
23959
100
AcDbEntity
  8
寸法
 62
     0
 48
50.0
370
    -2
100
AcDbLine
 10
5959.024522821174
 20
9780.779765297413
 30
0.0
 11
6332.917420526706
 21
9780.779765297413
 31
0.0
  0
MTEXT
  5
23FAD
330
23959
100
AcDbEntity
  8
寸法
 62
     7
 48
50.0
100
AcDbMText
 10
6025.199144023632
 20
9880.779765297413
 30
0.0
 40
120.0
 41
0.0
 71
     5
 72
     1
  1
\A1;a
  7
STYLE1
 73
     1
 44
1.0
1001
ACAD
1000
MTEXTBEGIN
1070
    73
1070
     1
1070
    44
1040
1.0
1070
    74
1070
     0
1000
MTEXTEND
  0
LINE
  5
23FAE
330
23959
100
AcDbEntity
  8
寸法
 62
     0
 48
50.0
370
    -2
100
AcDbLine
 10
6332.917420526706
 20
9780.779765297413
 30
0.0
 11
6377.917420526706
 21
9780.779765297413
 31
0.0
  0
LINE
  5
23FAF
330
23959
100
AcDbEntity
  8
寸法
 62
     0
 48
50.0
370
    -2
100
AcDbLine
 10
6332.917420526706
 20
9780.779765297413
 30
0.0
 11
6377.917420526706
 21
9780.779765297413
 31
0.0
  0
INSERT
  5
23FB0
330
23959
100
AcDbEntity
  8
寸法
 62
     0
 48
50.0
370
    -2
100
AcDbBlockReference
  2
_DOTSMALL
 10
6332.917420526706
 20
9780.779765297413
 30
0.0
 41
100.0
 42
100.0
 43
100.0
  0
INSERT
  5
23FB1
330
23959
100
AcDbEntity
  8
寸法
 62
     0
 48
50.0
370
    -2
100
AcDbBlockReference
  2
_DOTSMALL
 10
6377.917420526706
 20
9780.779765297413
 30
0.0
 41
100.0
 42
100.0
 43
100.0
 50
180.0
  0
POINT
  5
23FB2
330
23959
100
AcDbEntity
  8
DEFPOINTS
 62
     0
 48
50.0
100
AcDbPoint
 10
6332.917420526706
 20
9613.05988234068
 30
0.0
  0
POINT
  5
23FB3
330
23959
100
AcDbEntity
  8
DEFPOINTS
 62
     0
 48
50.0
100
AcDbPoint
 10
6377.917420526706
 20
8760.503905649281
 30
0.0
  0
POINT
  5
23FB4
330
23959
100
AcDbEntity
  8
DEFPOINTS
 62
     0
 48
50.0
100
AcDbPoint
 10
6377.917420526706
 20
9780.779765297413
 30
0.0
  0
ENDBLK
  5
23966
330
23959
100
AcDbEntity
  8
0
 48
50.0
100
AcDbBlockEnd
  0
BLOCK
  5
23971
330
23967
100
AcDbEntity
  8
0
 48
50.0
100
AcDbBlockBegin
  2
*D37
 70
     1
 10
0.0
 20
0.0
 30
0.0
  3
*D37
  1

  0
LINE
  5
23F9F
330
23967
100
AcDbEntity
  8
寸法
 62
     0
 48
50.0
370
    -2
100
AcDbLine
 10
6357.917420526707
 20
8760.503905649281
 30
0.0
 11
5510.806672150941
 21
8760.503905649281
 31
0.0
  0
LINE
  5
23FA0
330
23967
100
AcDbEntity
  8
寸法
 62
     0
 48
50.0
370
    -2
100
AcDbLine
 10
6357.91742052671
 20
5775.50390564928
 30
0.0
 11
5510.80667215094
 21
5775.503905649282
 31
0.0
  0
LINE
  5
23FA1
330
23967
100
AcDbEntity
  8
寸法
 62
     0
 48
50.0
370
    -2
100
AcDbLine
 10
5570.806672150941
 20
8760.503905649281
 30
0.0
 11
5570.80667215094
 21
5775.503905649282
 31
0.0
  0
INSERT
  5
23FA2
330
23967
100
AcDbEntity
  8
寸法
 62
     0
 48
50.0
370
    -2
100
AcDbBlockReference
  2
_DOTSMALL
 10
5570.806672150941
 20
8760.503905649281
 30
0.0
 41
100.0
 42
100.0
 43
100.0
 50
90.0
  0
INSERT
  5
23FA3
330
23967
100
AcDbEntity
  8
寸法
 62
     0
 48
50.0
370
    -2
100
AcDbBlockReference
  2
_DOTSMALL
 10
5570.80667215094
 20
5775.503905649282
 30
0.0
 41
100.0
 42
100.0
 43
100.0
 50
270.0
  0
MTEXT
  5
23FA4
330
23967
100
AcDbEntity
  8
寸法
 62
     7
 48
50.0
100
AcDbMText
 10
5470.794861127318
 20
7268.003905649283
 30
0.0
 40
120.0
 41
0.0
 71
     5
 72
     1
  1
\A1;2985
  7
STYLE1
 11
0.0000000000000001
 21
1.0
 31
0.0
 73
     1
 44
1.0
1001
ACAD
1000
MTEXTBEGIN
1070
    73
1070
     1
1070
    44
1040
1.0
1070
    74
1070
     0
1000
MTEXTEND
  0
POINT
  5
23FA5
330
23967
100
AcDbEntity
  8
DEFPOINTS
 62
     0
 48
50.0
100
AcDbPoint
 10
6377.917420526706
 20
8760.503905649281
 30
0.0
  0
POINT
  5
23FA6
330
23967
100
AcDbEntity
  8
DEFPOINTS
 62
     0
 48
50.0
100
AcDbPoint
 10
6377.91742052671
 20
5775.50390564928
 30
0.0
  0
POINT
  5
23FA7
330
23967
100
AcDbEntity
  8
DEFPOINTS
 62
     0
 48
50.0
100
AcDbPoint
 10
5570.80667215094
 20
5775.503905649282
 30
0.0
  0
ENDBLK
  5
23972
330
23967
100
AcDbEntity
  8
0
 48
50.0
100
AcDbBlockEnd
  0
BLOCK
  5
2397D
330
23973
100
AcDbEntity
  8
0
 48
50.0
100
AcDbBlockBegin
  2
*D38
 70
     1
 10
0.0
 20
0.0
 30
0.0
  3
*D38
  1

  0
LINE
  5
23F96
330
23973
100
AcDbEntity
  8
寸法
 62
     0
 48
50.0
370
    -2
100
AcDbLine
 10
6357.917420526707
 20
5775.50390564928
 30
0.0
 11
5510.806672150941
 21
5775.503905649282
 31
0.0
  0
LINE
  5
23F97
330
23973
100
AcDbEntity
  8
寸法
 62
     0
 48
50.0
370
    -2
100
AcDbLine
 10
6312.917420526706
 20
5645.503905649282
 30
0.0
 11
5510.806672150941
 21
5645.503905649284
 31
0.0
  0
LINE
  5
23F98
330
23973
100
AcDbEntity
  8
寸法
 62
     0
 48
50.0
370
    -2
100
AcDbLine
 10
5570.806672150941
 20
5775.503905649282
 30
0.0
 11
5570.806672150941
 21
5645.503905649284
 31
0.0
  0
INSERT
  5
23F99
330
23973
100
AcDbEntity
  8
寸法
 62
     0
 48
50.0
370
    -2
100
AcDbBlockReference
  2
_DOTSMALL
 10
5570.806672150941
 20
5775.503905649282
 30
0.0
 41
100.0
 42
100.0
 43
100.0
 50
90.0
  0
INSERT
  5
23F9A
330
23973
100
AcDbEntity
  8
寸法
 62
     0
 48
50.0
370
    -2
100
AcDbBlockReference
  2
_DOTSMALL
 10
5570.806672150941
 20
5645.503905649284
 30
0.0
 41
100.0
 42
100.0
 43
100.0
 50
270.0
  0
MTEXT
  5
23F9B
330
23973
100
AcDbEntity
  8
寸法
 62
     7
 48
50.0
100
AcDbMText
 10
5470.80667215094
 20
5705.237985835927
 30
0.0
 40
120.0
 41
0.0
 71
     5
 72
     1
  1
\A1;b
  7
STYLE1
 11
0.0000000000000001
 21
1.0
 31
0.0
 73
     1
 44
1.0
1001
ACAD
1000
MTEXTBEGIN
1070
    73
1070
     1
1070
    44
1040
1.0
1070
    74
1070
     0
1000
MTEXTEND
  0
POINT
  5
23F9C
330
23973
100
AcDbEntity
  8
DEFPOINTS
 62
     0
 48
50.0
100
AcDbPoint
 10
6377.917420526706
 20
5775.50390564928
 30
0.0
  0
POINT
  5
23F9D
330
23973
100
AcDbEntity
  8
DEFPOINTS
 62
     0
 48
50.0
100
AcDbPoint
 10
6332.917420526706
 20
5645.503905649282
 30
0.0
  0
POINT
  5
23F9E
330
23973
100
AcDbEntity
  8
DEFPOINTS
 62
     0
 48
50.0
100
AcDbPoint
 10
5570.806672150941
 20
5645.503905649284
 30
0.0
  0
ENDBLK
  5
2397E
330
23973
100
AcDbEntity
  8
0
 48
50.0
100
AcDbBlockEnd
  0
BLOCK
  5
2398B
330
2397F
100
AcDbEntity
  8
0
 48
50.0
100
AcDbBlockBegin
  2
*D39
 70
     1
 10
0.0
 20
0.0
 30
0.0
  3
*D39
  1

  0
LINE
  5
23F8B
330
2397F
100
AcDbEntity
  8
寸法
 62
     0
 48
50.0
370
    -2
100
AcDbLine
 10
6312.917420526706
 20
8835.503905649281
 30
0.0
 11
5510.806672150941
 21
8835.503905649281
 31
0.0
  0
LINE
  5
23F8C
330
2397F
100
AcDbEntity
  8
寸法
 62
     0
 48
50.0
370
    -2
100
AcDbLine
 10
6357.917420526707
 20
8760.503905649281
 30
0.0
 11
5510.806672150941
 21
8760.503905649281
 31
0.0
  0
LINE
  5
23F8D
330
2397F
100
AcDbEntity
  8
寸法
 62
     0
 48
50.0
370
    -2
100
AcDbLine
 10
5570.806672150941
 20
8835.503905649281
 30
0.0
 11
5570.806672150941
 21
8935.503905649282
 31
0.0
  0
LINE
  5
23F8E
330
2397F
100
AcDbEntity
  8
寸法
 62
     0
 48
50.0
370
    -2
100
AcDbLine
 10
5570.806672150941
 20
8760.503905649281
 30
0.0
 11
5570.806672150941
 21
8660.503905649282
 31
0.0
  0
LINE
  5
23F8F
330
2397F
100
AcDbEntity
  8
寸法
 62
     0
 48
50.0
370
    -2
100
AcDbLine
 10
5570.806672150941
 20
8835.503905649281
 30
0.0
 11
5570.806672150941
 21
8760.503905649281
 31
0.0
  0
INSERT
  5
23F90
330
2397F
100
AcDbEntity
  8
寸法
 62
     0
 48
50.0
370
    -2
100
AcDbBlockReference
  2
_DOTSMALL
 10
5570.806672150941
 20
8835.503905649281
 30
0.0
 41
100.0
 42
100.0
 43
100.0
 50
270.0
  0
INSERT
  5
23F91
330
2397F
100
AcDbEntity
  8
寸法
 62
     0
 48
50.0
370
    -2
100
AcDbBlockReference
  2
_DOTSMALL
 10
5570.806672150941
 20
8760.503905649281
 30
0.0
 41
100.0
 42
100.0
 43
100.0
 50
90.0
  0
MTEXT
  5
23F92
330
2397F
100
AcDbEntity
  8
寸法
 62
     7
 48
50.0
100
AcDbMText
 10
5470.80667215094
 20
8798.003905649283
 30
0.0
 40
120.0
 41
0.0
 71
     5
 72
     1
  1
\A1;c
  7
STYLE1
 11
0.0000000000000001
 21
1.0
 31
0.0
 73
     1
 44
1.0
1001
ACAD
1000
MTEXTBEGIN
1070
    73
1070
     1
1070
    44
1040
1.0
1070
    74
1070
     0
1000
MTEXTEND
  0
POINT
  5
23F93
330
2397F
100
AcDbEntity
  8
DEFPOINTS
 62
     0
 48
50.0
100
AcDbPoint
 10
6332.917420526706
 20
8835.503905649281
 30
0.0
  0
POINT
  5
23F94
330
2397F
100
AcDbEntity
  8
DEFPOINTS
 62
     0
 48
50.0
100
AcDbPoint
 10
6377.917420526706
 20
8760.503905649281
 30
0.0
  0
POINT
  5
23F95
330
2397F
100
AcDbEntity
  8
DEFPOINTS
 62
     0
 48
50.0
100
AcDbPoint
 10
5570.806672150941
 20
8760.503905649281
 30
0.0
  0
ENDBLK
  5
2398C
330
2397F
100
AcDbEntity
  8
0
 48
50.0
100
AcDbBlockEnd
  0
BLOCK
  5
23998
330
2398D
100
AcDbEntity
  8
0
 48
50.0
100
AcDbBlockBegin
  2
*D40
 70
     1
 10
0.0
 20
0.0
 30
0.0
  3
*D40
  1

  0
LINE
  5
24F04
330
2398D
100
AcDbEntity
  8
寸法
 62
     0
 48
50.0
370
    -2
100
AcDbLine
 10
8706.469758997645
 20
1286.776152254191
 30
0.0
 11
8706.469758997645
 21
1611.028589353475
 31
0.0
  0
LINE
  5
24F05
330
2398D
100
AcDbEntity
  8
寸法
 62
     0
 48
50.0
370
    -2
100
AcDbLine
 10
8746.469758997644
 20
1542.75003383125
 30
0.0
 11
8746.469758997644
 21
1611.028589353475
 31
0.0
  0
LINE
  5
24F06
330
2398D
100
AcDbEntity
  8
寸法
 62
     0
 48
50.0
370
    -2
100
AcDbLine
 10
8706.469758997645
 20
1551.028589353476
 30
0.0
 11
8606.469758997645
 21
1551.028589353476
 31
0.0
  0
LINE
  5
24F07
330
2398D
100
AcDbEntity
  8
寸法
 62
     0
 48
50.0
370
    -2
100
AcDbLine
 10
8746.469758997644
 20
1551.028589353476
 30
0.0
 11
9161.611491281108
 21
1551.028589353476
 31
0.0
  0
LINE
  5
24F08
330
2398D
100
AcDbEntity
  8
寸法
 62
     0
 48
50.0
370
    -2
100
AcDbLine
 10
8706.469758997645
 20
1551.028589353476
 30
0.0
 11
8746.469758997644
 21
1551.028589353476
 31
0.0
  0
INSERT
  5
24F09
330
2398D
100
AcDbEntity
  8
寸法
 62
     0
 48
50.0
370
    -2
100
AcDbBlockReference
  2
_DOTSMALL
 10
8706.469758997645
 20
1551.028589353476
 30
0.0
 41
100.0
 42
100.0
 43
100.0
  0
INSERT
  5
24F0A
330
2398D
100
AcDbEntity
  8
寸法
 62
     0
 48
50.0
370
    -2
100
AcDbBlockReference
  2
_DOTSMALL
 10
8746.469758997644
 20
1551.028589353476
 30
0.0
 41
100.0
 42
100.0
 43
100.0
 50
180.0
  0
MTEXT
  5
24F0B
330
2398D
100
AcDbEntity
  8
寸法
 62
     7
 48
50.0
100
AcDbMText
 10
9054.040625139377
 20
1651.040400377098
 30
0.0
 40
120.0
 41
0.0
 71
     5
 72
     1
  1
\A1;20
  7
STYLE1
 73
     1
 44
1.0
1001
ACAD
1000
MTEXTBEGIN
1070
    73
1070
     1
1070
    44
1040
1.0
1070
    74
1070
     0
1000
MTEXTEND
  0
POINT
  5
24F0C
330
2398D
100
AcDbEntity
  8
DEFPOINTS
 62
     0
 48
50.0
100
AcDbPoint
 10
8706.469758997645
 20
1266.776152254191
 30
0.0
  0
POINT
  5
24F0D
330
2398D
100
AcDbEntity
  8
DEFPOINTS
 62
     0
 48
50.0
100
AcDbPoint
 10
8746.469758997644
 20
1522.75003383125
 30
0.0
  0
POINT
  5
24F0E
330
2398D
100
AcDbEntity
  8
DEFPOINTS
 62
     0
 48
50.0
100
AcDbPoint
 10
8746.469758997644
 20
1551.028589353476
 30
0.0
  0
ENDBLK
  5
23999
330
2398D
100
AcDbEntity
  8
0
 48
50.0
100
AcDbBlockEnd
  0
BLOCK
  5
239A5
330
2399A
100
AcDbEntity
  8
0
 48
50.0
100
AcDbBlockBegin
  2
*D41
 70
     1
 10
0.0
 20
0.0
 30
0.0
  3
*D41
  1

  0
LINE
  5
24EA2
330
2399A
100
AcDbEntity
  8
寸法
 62
     0
 48
50.0
370
    -2
100
AcDbLine
 10
8766.469758997644
 20
1266.77615225419
 30
0.0
 11
9513.986741187022
 21
1266.77615225419
 31
0.0
  0
LINE
  5
24EA3
330
2399A
100
AcDbEntity
  8
寸法
 62
     0
 48
50.0
370
    -2
100
AcDbLine
 10
8726.469758997643
 20
1226.77615225419
 30
0.0
 11
9513.986741187022
 21
1226.77615225419
 31
0.0
  0
LINE
  5
24EA4
330
2399A
100
AcDbEntity
  8
寸法
 62
     0
 48
50.0
370
    -2
100
AcDbLine
 10
9453.986741187021
 20
1266.77615225419
 30
0.0
 11
9453.986741187021
 21
1366.776152254189
 31
0.0
  0
LINE
  5
24EA5
330
2399A
100
AcDbEntity
  8
寸法
 62
     0
 48
50.0
370
    -2
100
AcDbLine
 10
9453.986741187021
 20
1226.77615225419
 30
0.0
 11
9453.986741187021
 21
1126.776152254189
 31
0.0
  0
LINE
  5
24EA6
330
2399A
100
AcDbEntity
  8
寸法
 62
     0
 48
50.0
370
    -2
100
AcDbLine
 10
9453.986741187021
 20
1733.810601073087
 30
0.0
 11
9453.986741187021
 21
1266.77615225419
 31
0.0
  0
MTEXT
  5
24EA7
330
2399A
100
AcDbEntity
  8
寸法
 62
     7
 48
50.0
100
AcDbMText
 10
9353.974930163401
 20
1626.239734931356
 30
0.0
 40
120.0
 41
0.0
 71
     5
 72
     1
  1
\A1;20
  7
STYLE1
 11
0.0000000000000001
 21
1.0
 31
0.0
 73
     1
 44
1.0
1001
ACAD
1000
MTEXTBEGIN
1070
    73
1070
     1
1070
    44
1040
1.0
1070
    74
1070
     0
1000
MTEXTEND
  0
LINE
  5
24EA8
330
2399A
100
AcDbEntity
  8
寸法
 62
     0
 48
50.0
370
    -2
100
AcDbLine
 10
9453.986741187021
 20
1266.77615225419
 30
0.0
 11
9453.986741187021
 21
1226.77615225419
 31
0.0
  0
LINE
  5
24EA9
330
2399A
100
AcDbEntity
  8
寸法
 62
     0
 48
50.0
370
    -2
100
AcDbLine
 10
9453.986741187021
 20
1266.77615225419
 30
0.0
 11
9453.986741187021
 21
1226.77615225419
 31
0.0
  0
INSERT
  5
24EAA
330
2399A
100
AcDbEntity
  8
寸法
 62
     0
 48
50.0
370
    -2
100
AcDbBlockReference
  2
_DOTSMALL
 10
9453.986741187021
 20
1266.77615225419
 30
0.0
 41
100.0
 42
100.0
 43
100.0
 50
270.0
  0
INSERT
  5
24EAB
330
2399A
100
AcDbEntity
  8
寸法
 62
     0
 48
50.0
370
    -2
100
AcDbBlockReference
  2
_DOTSMALL
 10
9453.986741187021
 20
1226.77615225419
 30
0.0
 41
100.0
 42
100.0
 43
100.0
 50
90.0
  0
POINT
  5
24EAC
330
2399A
100
AcDbEntity
  8
DEFPOINTS
 62
     0
 48
50.0
100
AcDbPoint
 10
8746.469758997644
 20
1266.77615225419
 30
0.0
  0
POINT
  5
24EAD
330
2399A
100
AcDbEntity
  8
DEFPOINTS
 62
     0
 48
50.0
100
AcDbPoint
 10
8706.469758997645
 20
1226.77615225419
 30
0.0
  0
POINT
  5
24EAE
330
2399A
100
AcDbEntity
  8
DEFPOINTS
 62
     0
 48
50.0
100
AcDbPoint
 10
9453.986741187021
 20
1226.77615225419
 30
0.0
  0
ENDBLK
  5
239A6
330
2399A
100
AcDbEntity
  8
0
 48
50.0
100
AcDbBlockEnd
  0
BLOCK
  5
239B2
330
239A7
100
AcDbEntity
  8
0
 48
50.0
100
AcDbBlockBegin
  2
*D42
 70
     1
 10
0.0
 20
0.0
 30
0.0
  3
*D42
  1

  0
LINE
  5
24EAF
330
239A7
100
AcDbEntity
  8
寸法
 62
     0
 48
50.0
370
    -2
100
AcDbLine
 10
8516.469758997645
 20
1071.776152254188
 30
0.0
 11
8516.469758997645
 21
493.0949308416529
 31
0.0
  0
LINE
  5
24EB0
330
239A7
100
AcDbEntity
  8
寸法
 62
     0
 48
50.0
370
    -2
100
AcDbLine
 10
8626.469758997647
 20
1071.776152254189
 30
0.0
 11
8626.469758997647
 21
493.0949308416529
 31
0.0
  0
LINE
  5
24EB1
330
239A7
100
AcDbEntity
  8
寸法
 62
     0
 48
50.0
370
    -2
100
AcDbLine
 10
8516.469758997645
 20
553.094930841653
 30
0.0
 11
8626.469758997647
 21
553.094930841653
 31
0.0
  0
LINE
  5
24EB2
330
239A7
100
AcDbEntity
  8
寸法
 62
     0
 48
50.0
370
    -2
100
AcDbLine
 10
8982.455040371885
 20
553.094930841653
 30
0.0
 11
8626.469758997647
 21
553.094930841653
 31
0.0
  0
MTEXT
  5
24EB3
330
239A7
100
AcDbEntity
  8
寸法
 62
     7
 48
50.0
100
AcDbMText
 10
8873.969758997645
 20
653.094930841653
 30
0.0
 40
120.0
 41
0.0
 71
     5
 72
     1
  1
\A1;55
  7
STYLE1
 73
     1
 44
1.0
1001
ACAD
1000
MTEXTBEGIN
1070
    73
1070
     1
1070
    44
1040
1.0
1070
    74
1070
     0
1000
MTEXTEND
  0
INSERT
  5
24EB4
330
239A7
100
AcDbEntity
  8
寸法
 62
     0
 48
50.0
370
    -2
100
AcDbBlockReference
  2
_DOTSMALL
 10
8516.469758997645
 20
553.094930841653
 30
0.0
 41
100.0
 42
100.0
 43
100.0
 50
180.0
  0
INSERT
  5
24EB5
330
239A7
100
AcDbEntity
  8
寸法
 62
     0
 48
50.0
370
    -2
100
AcDbBlockReference
  2
_DOTSMALL
 10
8626.469758997647
 20
553.094930841653
 30
0.0
 41
100.0
 42
100.0
 43
100.0
  0
POINT
  5
24EB6
330
239A7
100
AcDbEntity
  8
DEFPOINTS
 62
     0
 48
50.0
100
AcDbPoint
 10
8516.469758997645
 20
1091.776152254189
 30
0.0
  0
POINT
  5
24EB7
330
239A7
100
AcDbEntity
  8
DEFPOINTS
 62
     0
 48
50.0
100
AcDbPoint
 10
8626.469758997647
 20
1091.77615225419
 30
0.0
  0
POINT
  5
24EB8
330
239A7
100
AcDbEntity
  8
DEFPOINTS
 62
     0
 48
50.0
100
AcDbPoint
 10
8626.469758997647
 20
553.094930841653
 30
0.0
  0
ENDBLK
  5
239B3
330
239A7
100
AcDbEntity
  8
0
 48
50.0
100
AcDbBlockEnd
  0
BLOCK
  5
239C0
330
239B4
100
AcDbEntity
  8
0
 48
50.0
100
AcDbBlockBegin
  2
*D43
 70
     1
 10
0.0
 20
0.0
 30
0.0
  3
*D43
  1

  0
LINE
  5
24EB9
330
239B4
100
AcDbEntity
  8
寸法
 62
     0
 48
50.0
370
    -2
100
AcDbLine
 10
8506.469758997644
 20
1206.776152254189
 30
0.0
 11
8506.469758997644
 21
493.0949308416529
 31
0.0
  0
LINE
  5
24EBA
330
239B4
100
AcDbEntity
  8
寸法
 62
     0
 48
50.0
370
    -2
100
AcDbLine
 10
8516.469758997645
 20
1071.776152254188
 30
0.0
 11
8516.469758997645
 21
493.0949308416529
 31
0.0
  0
LINE
  5
24EBB
330
239B4
100
AcDbEntity
  8
寸法
 62
     0
 48
50.0
370
    -2
100
AcDbLine
 10
8506.469758997644
 20
553.094930841653
 30
0.0
 11
8406.469758997644
 21
553.094930841653
 31
0.0
  0
LINE
  5
24EBC
330
239B4
100
AcDbEntity
  8
寸法
 62
     0
 48
50.0
370
    -2
100
AcDbLine
 10
8516.469758997645
 20
553.094930841653
 30
0.0
 11
8616.469758997645
 21
553.094930841653
 31
0.0
  0
MTEXT
  5
24EBD
330
239B4
100
AcDbEntity
  8
寸法
 62
     7
 48
50.0
100
AcDbMText
 10
8428.495787924694
 20
652.730216291653
 30
0.0
 40
120.0
 41
0.0
 71
     5
 72
     1
  1
\A1;5
  7
STYLE1
 73
     1
 44
1.0
1001
ACAD
1000
MTEXTBEGIN
1070
    73
1070
     1
1070
    44
1040
1.0
1070
    74
1070
     0
1000
MTEXTEND
  0
LINE
  5
24EBE
330
239B4
100
AcDbEntity
  8
寸法
 62
     0
 48
50.0
370
    -2
100
AcDbLine
 10
8506.469758997644
 20
553.094930841653
 30
0.0
 11
8516.469758997645
 21
553.094930841653
 31
0.0
  0
INSERT
  5
24EBF
330
239B4
100
AcDbEntity
  8
寸法
 62
     0
 48
50.0
370
    -2
100
AcDbBlockReference
  2
_DOTSMALL
 10
8506.469758997644
 20
553.094930841653
 30
0.0
 41
100.0
 42
100.0
 43
100.0
  0
INSERT
  5
24EC0
330
239B4
100
AcDbEntity
  8
寸法
 62
     0
 48
50.0
370
    -2
100
AcDbBlockReference
  2
_DOTSMALL
 10
8516.469758997645
 20
553.094930841653
 30
0.0
 41
100.0
 42
100.0
 43
100.0
 50
180.0
  0
POINT
  5
24EC1
330
239B4
100
AcDbEntity
  8
DEFPOINTS
 62
     0
 48
50.0
100
AcDbPoint
 10
8506.469758997644
 20
1226.77615225419
 30
0.0
  0
POINT
  5
24EC2
330
239B4
100
AcDbEntity
  8
DEFPOINTS
 62
     0
 48
50.0
100
AcDbPoint
 10
8516.469758997645
 20
1091.776152254189
 30
0.0
  0
POINT
  5
24EC3
330
239B4
100
AcDbEntity
  8
DEFPOINTS
 62
     0
 48
50.0
100
AcDbPoint
 10
8516.469758997645
 20
553.094930841653
 30
0.0
  0
ENDBLK
  5
239C1
330
239B4
100
AcDbEntity
  8
0
 48
50.0
100
AcDbBlockEnd
  0
BLOCK
  5
239CE
330
239C2
100
AcDbEntity
  8
0
 48
50.0
100
AcDbBlockBegin
  2
*D44
 70
     1
 10
0.0
 20
0.0
 30
0.0
  3
*D44
  1

  0
LINE
  5
24D7B
330
239C2
100
AcDbEntity
  8
寸法
 62
     0
 48
50.0
370
    -2
100
AcDbLine
 10
11191.60198585139
 20
1080.666591425339
 30
0.0
 11
11191.60198585139
 21
477.3800622050102
 31
0.0
  0
LINE
  5
24D7C
330
239C2
100
AcDbEntity
  8
寸法
 62
     0
 48
50.0
370
    -2
100
AcDbLine
 10
11151.6019858514
 20
1080.666591425339
 30
0.0
 11
11151.6019858514
 21
477.3800622050102
 31
0.0
  0
LINE
  5
24D7D
330
239C2
100
AcDbEntity
  8
寸法
 62
     0
 48
50.0
370
    -2
100
AcDbLine
 10
11191.60198585139
 20
537.3800622050103
 30
0.0
 11
11291.60198585139
 21
537.3800622050103
 31
0.0
  0
LINE
  5
24D7E
330
239C2
100
AcDbEntity
  8
寸法
 62
     0
 48
50.0
370
    -2
100
AcDbLine
 10
11151.6019858514
 20
537.3800622050103
 30
0.0
 11
11051.6019858514
 21
537.3800622050103
 31
0.0
  0
LINE
  5
24D7F
330
239C2
100
AcDbEntity
  8
寸法
 62
     0
 48
50.0
370
    -2
100
AcDbLine
 10
12485.45828506399
 20
537.3800622050103
 30
0.0
 11
11191.60198585139
 21
537.3800622050103
 31
0.0
  0
MTEXT
  5
24D80
330
239C2
100
AcDbEntity
  8
寸法
 62
     7
 48
50.0
100
AcDbMText
 10
12010.4110409695
 20
637.3918732286323
 30
0.0
 40
120.0
 41
0.0
 71
     5
 72
     1
  1
\A1;基礎面ヨリ20
  7
STYLE1
 73
     1
 44
1.0
1001
ACAD
1000
MTEXTBEGIN
1070
    73
1070
     1
1070
    44
1040
1.0
1070
    74
1070
     0
1000
MTEXTEND
  0
LINE
  5
24D81
330
239C2
100
AcDbEntity
  8
寸法
 62
     0
 48
50.0
370
    -2
100
AcDbLine
 10
11191.60198585139
 20
537.3800622050103
 30
0.0
 11
11151.6019858514
 21
537.3800622050103
 31
0.0
  0
LINE
  5
24D82
330
239C2
100
AcDbEntity
  8
寸法
 62
     0
 48
50.0
370
    -2
100
AcDbLine
 10
11191.60198585139
 20
537.3800622050103
 30
0.0
 11
11151.6019858514
 21
537.3800622050103
 31
0.0
  0
INSERT
  5
24D83
330
239C2
100
AcDbEntity
  8
寸法
 62
     0
 48
50.0
370
    -2
100
AcDbBlockReference
  2
_DOTSMALL
 10
11191.60198585139
 20
537.3800622050103
 30
0.0
 41
100.0
 42
100.0
 43
100.0
 50
180.0
  0
INSERT
  5
24D84
330
239C2
100
AcDbEntity
  8
寸法
 62
     0
 48
50.0
370
    -2
100
AcDbBlockReference
  2
_DOTSMALL
 10
11151.6019858514
 20
537.3800622050103
 30
0.0
 41
100.0
 42
100.0
 43
100.0
  0
POINT
  5
24D85
330
239C2
100
AcDbEntity
  8
DEFPOINTS
 62
     0
 48
50.0
100
AcDbPoint
 10
11191.60198585139
 20
1100.666591425339
 30
0.0
  0
POINT
  5
24D86
330
239C2
100
AcDbEntity
  8
DEFPOINTS
 62
     0
 48
50.0
100
AcDbPoint
 10
11151.6019858514
 20
1100.666591425339
 30
0.0
  0
POINT
  5
24D87
330
239C2
100
AcDbEntity
  8
DEFPOINTS
 62
     0
 48
50.0
100
AcDbPoint
 10
11151.6019858514
 20
537.3800622050103
 30
0.0
  0
ENDBLK
  5
239CF
330
239C2
100
AcDbEntity
  8
0
 48
50.0
100
AcDbBlockEnd
  0
ENDSEC
  0
SECTION
  2
ENTITIES
  0
LINE
  5
10B57
330
747D
100
AcDbEntity
  8
補助
  6
PHANTOM
 62
   230
 48
50.0
100
AcDbLine
 10
139.9999999999995
 20
11409.6
 30
0.0
 11
16307.2
 21
11409.6
 31
0.0
  0
LINE
  5
10B59
330
747D
100
AcDbEntity
  8
仕様書枠
  6
Continuous
 48
50.0
100
AcDbLine
 10
13107.2
 20
1200.0
 30
0.0
 11
13107.2
 21
-0.0000000000000729
 31
0.0
  0
LINE
  5
10B5C
330
747D
100
AcDbEntity
  8
仕様書枠
 48
50.0
100
AcDbLine
 10
16307.2
 20
1200.0
 30
0.0
 11
16307.2
 21
-0.0000000000000909
 31
0.0
  0
LINE
  5
10B5D
330
747D
100
AcDbEntity
  8
仕様書枠
 48
50.0
100
AcDbLine
 10
140.0
 20
0.0
 30
0.0
 11
16307.2
 21
-0.0000000000000909
 31
0.0
  0
LINE
  5
10B5E
330
747D
100
AcDbEntity
  8
補助
  6
PHANTOM
 62
   230
 48
50.0
100
AcDbLine
 10
16307.2
 20
11409.6
 30
0.0
 11
16307.2
 21
1200.0
 31
0.0
  0
LINE
  5
10B6C
330
747D
100
AcDbEntity
  8
仕様書枠
 48
50.0
100
AcDbLine
 10
13107.2
 20
1200.0
 30
0.0
 11
16307.2
 21
1200.0
 31
0.0
  0
LINE
  5
10B6D
330
747D
100
AcDbEntity
  8
補助
  6
PHANTOM
 62
   230
 48
50.0
100
AcDbLine
 10
13107.2
 20
11409.6
 30
0.0
 11
13107.2
 21
4800.0
 31
0.0
  0
LINE
  5
10B6F
330
747D
100
AcDbEntity
  8
補助
  6
PHANTOM
 62
   230
 48
50.0
100
AcDbLine
 10
13107.2
 20
4800.0
 30
0.0
 11
16307.2
 21
4800.0
 31
0.0
  0
LINE
  5
10B72
330
747D
100
AcDbEntity
  8
文字
 62
     7
 48
50.0
100
AcDbLine
 10
13187.2
 20
400.0
 30
0.0
 11
16227.2
 21
400.0
 31
0.0
  0
TEXT
  5
10B73
330
747D
100
AcDbEntity
  8
文字
 62
     7
 48
50.0
100
AcDbText
 10
13162.9790565769
 20
895.0906074299405
 30
0.0
 40
200.0
  1
基 礎 図
  7
STYLE2
100
AcDbText
  0
TEXT
  5
10B74
330
747D
100
AcDbEntity
  8
文字
 62
     7
 48
50.0
100
AcDbText
 10
13201.43669998441
 20
477.2740661031255
 30
0.0
 40
160.0
  1
機種名
  7
STYLE2
100
AcDbText
  0
TEXT
  5
10B79
330
747D
100
AcDbEntity
  8
文字
 62
     7
 48
50.0
100
AcDbText
 10
14524.131837222
 20
1031.557706291228
 30
0.0
 40
100.0
  1
NO.04      <縮尺> S=1/40
  7
STYLE2
100
AcDbText
  0
LINE
  5
10B7B
330
747D
100
AcDbEntity
  8
仕様書枠
 48
50.0
100
AcDbLine
 10
13107.2
 20
800.0
 30
0.0
 11
14251.2
 21
800.0
 31
0.0
  0
LINE
  5
10B88
330
747D
100
AcDbEntity
  8
仕様書枠
  6
Continuous
 48
50.0
100
AcDbLine
 10
14251.2
 20
1200.0
 30
0.0
 11
14251.2
 21
800.0
 31
0.0
  0
TEXT
  5
14DEF
330
747D
100
AcDbEntity
  8
文字
 62
     7
 48
50.0
100
AcDbText
 10
14641.2525855784
 20
871.1744590657925
 30
0.0
 40
100.0
  1
～一般型・多雪地型～
  7
STYLE2
100
AcDbText
  0
TEXT
  5
15A76
330
747D
100
AcDbEntity
  8
文字
 62
     7
 48
50.0
100
AcDbText
 10
14483.56764462811
 20
483.8967129911411
 30
0.0
 40
160.0
  1
ＦＸＮ－８０ＨＤＧ
  7
STYLE2
100
AcDbText
  0
TEXT
  5
1D002
330
747D
100
AcDbEntity
  8
文字
 62
     7
 48
50.0
100
AcDbText
 10
13188.16259899338
 20
246.7109242801889
 30
0.0
 40
80.0
  1
※寒冷地等は地域の実情に合わせた基礎にして下さい。
  7
STYLE2
100
AcDbText
  0
LINE
  5
234B8
330
747D
100
AcDbEntity
  8
部品1
 48
50.0
100
AcDbLine
 10
8897.917420526708
 20
8640.503905649278
 30
0.0
 11
6497.917420526707
 21
8640.503905649275
 31
0.0
  0
LINE
  5
234B9
330
747D
100
AcDbEntity
  8
部品1
 48
50.0
100
AcDbLine
 10
9017.917420526705
 20
8760.503905649281
 30
0.0
 11
6377.917420526706
 21
8760.503905649281
 31
0.0
  0
DIMENSION
  5
234BA
330
747D
100
AcDbEntity
  8
寸法
 48
50.0
100
AcDbDimension
  2
*D4
 10
6452.917420526891
 20
9480.613565556053
 30
0.0
 11
7697.917420526799
 21
9580.625376579673
 31
0.0
 70
    32
 71
     5
 42
2489.999999999815
  3
INABA_S40G
100
AcDbAlignedDimension
 13
8942.917420526706
 23
8760.503905649281
 33
0.0
 14
6452.917420526891
 24
8760.503905649281
 34
0.0
100
AcDbRotatedDimension
1001
ACAD
1000
DSTYLE
1002
{
1070
   174
1070
     0
1070
   272
1070
     1
1070
   279
1070
     1
1070
   288
1070
     0
1070
   341
1005
0
1002
}
  0
DIMENSION
  5
234BB
330
747D
100
AcDbEntity
  8
寸法
 48
50.0
100
AcDbDimension
  2
*D5
 10
9017.917420526705
 20
9780.779765297413
 30
0.0
 11
7697.917420526707
 21
9880.791576321035
 31
0.0
 70
    32
 71
     5
 42
2640.0
  3
INABA_S40G
100
AcDbAlignedDimension
 13
6377.917420526706
 23
8760.503905649281
 33
0.0
 14
9017.917420526705
 24
8760.503905649281
 34
0.0
100
AcDbRotatedDimension
1001
ACAD
1000
DSTYLE
1002
{
1070
   174
1070
     0
1070
   272
1070
     1
1070
   279
1070
     1
1070
   288
1070
     0
1070
   341
1005
0
1002
}
  0
DIMENSION
  5
234BC
330
747D
100
AcDbEntity
  8
寸法
 48
50.0
100
AcDbDimension
  2
*D6
 10
9353.755921728653
 20
8463.480909611377
 30
0.0
 11
8033.755921728653
 21
6970.980909611377
 31
0.0
 70
   161
 71
     5
 42
3984.949811478182
  3
INABA_S40G
100
AcDbAlignedDimension
 13
6377.917420526706
 23
5775.50390564928
 33
0.0
 14
9017.917420526705
 24
8760.503905649281
 34
0.0
1001
ACAD
1000
DSTYLE
1002
{
1070
   174
1070
     0
1070
   272
1070
     1
1070
   279
1070
     1
1070
   288
1070
     0
1070
   341
1005
0
1002
}
  0
DIMENSION
  5
234BD
330
747D
100
AcDbEntity
  8
寸法
 48
50.0
100
AcDbDimension
  2
*D7
 10
8126.703659368981
 20
1226.77615225419
 30
0.0
 11
8127.518140178311
 21
1301.854248010839
 31
0.0
 70
   160
  1
15
 71
     5
 42
30.00000000000091
  3
INABA_S40G
100
AcDbAlignedDimension
 13
8522.816262296469
 23
1196.776152254188
 33
0.0
 14
8506.469758997644
 24
1226.77615225419
 34
0.0
 50
90.0
100
AcDbRotatedDimension
1001
ACAD
1000
DSTYLE
1002
{
1070
   174
1070
     0
1070
   272
1070
     1
1070
   279
1070
     1
1070
   288
1070
     0
1070
   341
1005
0
1002
}
  0
MTEXT
  5
234BE
330
747D
100
AcDbEntity
  8
寸法
 48
50.0
100
AcDbMText
 10
6959.177075540678
 20
8241.536990527292
 30
0.0
 40
120.0
 41
1349.68
 71
     1
 72
     5
  1
\C7;床コンクリート打\P    コテ押エ
  7
STYLE1
 73
     1
 44
1.0
1001
ACAD
1000
MTEXTBEGIN
1070
    73
1070
     1
1070
    44
1040
1.0
1070
    74
1070
     0
1000
MTEXTEND
  0
LINE
  5
234BF
330
747D
100
AcDbEntity
  8
部品1
 48
50.0
100
AcDbLine
 10
8746.178783547005
 20
421.0919439444605
 30
0.0
 11
8384.567666144096
 21
421.0919439444605
 31
0.0
  0
LINE
  5
234C0
330
747D
100
AcDbEntity
  8
部品1
 48
50.0
100
AcDbLine
 10
8746.178783547005
 20
261.0919439444606
 30
0.0
 11
8384.567666144096
 21
261.0919439444606
 31
0.0
  0
LINE
  5
234C1
330
747D
100
AcDbEntity
  8
細線
 48
50.0
100
AcDbLine
 10
12960.95856623757
 20
108.6514452332685
 30
0.0
 11
221.2731725831254
 21
108.6514452332685
 31
0.0
  0
LINE
  5
234C2
330
747D
100
AcDbEntity
  8
細線
 48
50.0
100
AcDbLine
 10
7434.635950109161
 20
2965.935479658208
 30
0.0
 11
12960.95856623757
 21
2965.935479658208
 31
0.0
  0
DIMENSION
  5
234C3
330
747D
100
AcDbEntity
  8
寸法
 48
50.0
100
AcDbDimension
  2
*D8
 10
8126.728672780584
 20
1086.776152254189
 30
0.0
 11
8123.781107450851
 21
1020.946827350853
 31
0.0
 70
   160
  1
55
 71
     5
 42
110.0
  3
INABA_S40G
100
AcDbAlignedDimension
 13
8522.816262296469
 23
1196.776152254188
 33
0.0
 14
8521.469758997646
 24
1086.776152254189
 34
0.0
 50
90.0
100
AcDbRotatedDimension
1001
ACAD
1000
DSTYLE
1002
{
1070
   174
1070
     0
1070
   272
1070
     1
1070
   279
1070
     1
1070
   288
1070
     0
1070
   341
1005
0
1002
}
  0
LEADER
  5
234C4
330
747D
100
AcDbEntity
  8
寸法
 48
50.0
100
AcDbLeader
  3
INABA_S50G詳細用
 71
     0
 73
     0
 75
     1
 40
120.0
 41
407.9999999999998
 76
     3
 10
8549.846996170995
 20
1086.776152254189
 30
0.0
 10
8158.450331597812
 20
570.0181351039255
 30
0.0
 10
8033.450331597812
 20
570.0181351039255
 30
0.0
340
234C5
1001
ACAD
1000
DSTYLE
1002
{
1070
    40
1040
1.0
1070
    77
1070
     1
1002
}
  0
MTEXT
  5
234C5
102
{ACAD_REACTORS
330
234C4
102
}
330
747D
100
AcDbEntity
  8
寸法
 62
     7
 48
50.0
100
AcDbMText
 10
8008.450331597812
 20
595.0181351039255
 30
0.0
 40
120.0
 41
0.0
 71
     9
 72
     1
  1
\A1;柱前左
  7
STYLE1
 73
     1
 44
1.0
1001
ACAD
1000
MTEXTBEGIN
1070
    73
1070
     1
1070
    44
1040
1.0
1070
    74
1070
     0
1000
MTEXTEND
  0
LINE
  5
234C6
330
747D
100
AcDbEntity
  8
部品1
 48
50.0
100
AcDbLine
 10
8221.469758997647
 20
1491.776152254189
 30
0.0
 11
8506.469758997644
 21
1491.776152254189
 31
0.0
  0
DIMENSION
  5
234C7
330
747D
100
AcDbEntity
  8
寸法
 48
50.0
100
AcDbDimension
  2
*D9
 10
8706.469758997645
 20
1551.028589353476
 30
0.0
 11
8236.410703879533
 21
1551.028589353476
 31
0.0
 70
   160
  1
100
 71
     5
 42
200.0
  3
INABA_S40G
100
AcDbAlignedDimension
 13
8506.469758997644
 23
1491.776152254189
 33
0.0
 14
8706.469758997645
 24
1266.776152254191
 34
0.0
 50
180.0
100
AcDbRotatedDimension
1001
ACAD
1000
DSTYLE
1002
{
1070
   174
1070
     0
1070
   272
1070
     1
1070
   279
1070
     1
1070
   288
1070
     0
1070
   341
1005
0
1002
}
  0
LINE
  5
234C8
330
747D
100
AcDbEntity
  8
部品1
 48
50.0
100
AcDbLine
 10
8221.469758997649
 20
791.7761522541895
 30
0.0
 11
8921.469758997643
 21
791.7761522541914
 31
0.0
  0
TEXT
  5
234C9
330
747D
100
AcDbEntity
  8
部品1
 48
50.0
100
AcDbText
 10
7283.316871705171
 20
5030.6624969822
 30
0.0
 40
80.0
  1
(a=45,b=130,c=75)
  7
STYLE1
100
AcDbText
  0
TEXT
  5
234CA
330
747D
100
AcDbEntity
  8
部品1
 48
50.0
100
AcDbText
 10
7124.73786295087
 20
5137.507717850955
 30
0.0
 40
80.0
  1
※a,b,cは屋根の出幅です。
  7
STYLE1
100
AcDbText
  0
MTEXT
  5
234CB
102
{ACAD_REACTORS
330
234CC
102
}
330
747D
100
AcDbEntity
  8
部品1
 62
     7
 48
50.0
100
AcDbMText
 10
7945.760476772071
 20
5316.818404784029
 30
0.0
 40
120.0
 41
0.0
 71
     6
 72
     1
  1
\A1;屋根の外寸
  7
STYLE1
 73
     1
 44
1.0
1001
ACAD
1000
MTEXTBEGIN
1070
    73
1070
     1
1070
    44
1040
1.0
1070
    74
1070
     0
1000
MTEXTEND
  0
LEADER
  5
234CC
330
747D
100
AcDbEntity
  8
寸法
 48
50.0
100
AcDbLeader
  3
INABA_S50G
 71
     0
 73
     0
 74
     0
 75
     1
 40
120.0
 41
672.0
 76
     3
 10
6991.539692349277
 20
5645.366908180719
 30
0.0
 10
7123.760476772071
 20
5231.818404784029
 30
0.0
 10
7248.760476772071
 20
5231.818404784029
 30
0.0
340
234CB
1001
ACAD
1000
DSTYLE
1002
{
1070
   341
1005
1C530
1070
    40
1040
1.0
1070
   343
1005
1C530
1070
   344
1005
1C530
1002
}
  0
TEXT
  5
234CE
330
747D
100
AcDbEntity
  8
部品1
 48
50.0
100
AcDbText
 10
2911.712540215529
 20
2295.701663504158
 30
0.0
 40
120.0
  1
M10×160
  7
STYLE1
100
AcDbText
  0
MTEXT
  5
234CF
102
{ACAD_REACTORS
330
234D0
102
}
330
747D
100
AcDbEntity
  8
寸法
 62
     7
 48
50.0
100
AcDbMText
 10
2879.010387353359
 20
2474.582604699861
 30
0.0
 40
120.0
 41
0.0
 71
     7
 72
     1
  1
アンカーボルト
  7
STYLE1
 73
     1
 44
0.6800000000000001
1001
ACAD
1000
MTEXTBEGIN
1070
    73
1070
     1
1070
    44
1040
0.6800000000000001
1070
    74
1070
     0
1000
MTEXTEND
  0
LEADER
  5
234D0
330
747D
100
AcDbEntity
  8
寸法
 48
50.0
100
AcDbLeader
  3
INABA_S50G詳細用
 71
     0
 73
     0
 75
     1
 40
120.0
 41
994.3492424049171
 76
     3
 10
4212.010939399611
 20
2066.336986871191
 30
0.0
 10
4023.359629758276
 20
2449.582604699861
 30
0.0
 10
3898.359629758277
 20
2449.582604699861
 30
0.0
340
234CF
1001
ACAD
1000
DSTYLE
1002
{
1070
    40
1040
1.0
1070
    77
1070
     1
1002
}
  0
LINE
  5
234D1
330
747D
100
AcDbEntity
  8
細線
 48
50.0
100
AcDbLine
 10
221.2731725831254
 20
2965.935479658208
 30
0.0
 11
5747.595788711539
 21
2965.935479658208
 31
0.0
  0
MTEXT
  5
234D2
102
{ACAD_REACTORS
330
234D3
102
}
330
747D
100
AcDbEntity
  8
寸法
 62
     7
 48
50.0
100
AcDbMText
 10
2731.894643073849
 20
1351.16143967056
 30
0.0
 40
120.0
 41
0.0
 71
     7
 72
     1
  1
\A1;防湿シート
  7
STYLE1
 73
     1
 44
1.0
1001
ACAD
1000
MTEXTBEGIN
1070
    73
1070
     1
1070
    44
1040
1.0
1070
    74
1070
     0
1000
MTEXTEND
  0
LEADER
  5
234D3
330
747D
100
AcDbEntity
  8
寸法
 48
50.0
100
AcDbLeader
  3
INABA_S50G詳細用
 71
     0
 73
     0
 74
     0
 75
     1
 40
150.0
 41
872.9365530061468
 76
     3
 10
2501.674365370167
 20
1701.645256865575
 30
0.0
 10
2586.894643073849
 20
1331.16143967056
 30
0.0
 10
2711.894643073849
 20
1331.16143967056
 30
0.0
1001
ACAD
1000
DSTYLE
1002
{
1070
    40
1040
1.0
1070
    77
1070
     1
1002
}
  0
LINE
  5
234D4
330
747D
100
AcDbEntity
  8
細線
 48
50.0
100
AcDbLine
 10
221.2731725831254
 20
108.6514452332685
 30
0.0
 11
221.2731725831254
 21
2965.935479658208
 31
0.0
  0
LEADER
  5
234D5
330
747D
100
AcDbEntity
  8
寸法
 48
50.0
100
AcDbLeader
  3
INABA_S50G
 71
     0
 73
     0
 75
     1
 40
120.0
 41
702.0000000000001
 76
     3
 10
1718.050425329247
 20
2150.269006252838
 30
0.0
 10
1480.914887577206
 20
2396.936476285902
 30
0.0
 10
1355.914887577206
 20
2396.936476285902
 30
0.0
340
234D6
1001
ACAD
1000
DSTYLE
1002
{
1070
    40
1040
1.0
1070
    77
1070
     1
1070
   341
1005
1C530
1002
}
  0
MTEXT
  5
234D6
102
{ACAD_REACTORS
330
234D5
102
}
330
747D
100
AcDbEntity
  8
寸法
 62
     7
 48
50.0
100
AcDbMText
 10
1330.914887577206
 20
2421.936476285902
 30
0.0
 40
120.0
 41
0.0
 71
     9
 72
     1
  1
金コテ押エ
  7
STYLE1
 73
     1
 44
1.0
1001
ACAD
1000
MTEXTBEGIN
1070
    73
1070
     1
1070
    44
1040
1.0
1070
    74
1070
     0
1000
MTEXTEND
  0
DIMENSION
  5
234D7
330
747D
100
AcDbEntity
  8
寸法
 48
50.0
100
AcDbDimension
  2
*D10
 10
1598.050425329247
 20
2470.125597326903
 30
0.0
 11
1718.050425329247
 21
2470.125597326903
 31
0.0
 70
   160
  1
120
 71
     5
 42
240.0
  3
INABA_S40G
100
AcDbAlignedDimension
 13
1838.050425329247
 23
2150.269006252838
 33
0.0
 14
1598.050425329247
 24
2150.269006252838
 34
0.0
100
AcDbRotatedDimension
1001
ACAD
1000
DSTYLE
1002
{
1070
   174
1070
     0
1070
   272
1070
     1
1070
   279
1070
     1
1070
   288
1070
     0
1070
   341
1005
0
1002
}
  0
DIMENSION
  5
234D8
330
747D
100
AcDbEntity
  8
寸法
 48
50.0
100
AcDbDimension
  2
*D11
 10
2056.85120878575
 20
1950.269006252838
 30
0.0
 11
2056.851208785749
 21
2615.328061370949
 31
0.0
 70
   160
  1
50～180
 71
     5
 42
200.0
  3
INABA_S40G
100
AcDbAlignedDimension
 13
1838.050425329247
 23
2150.269006252838
 33
0.0
 14
1870.050425329247
 24
1950.269006252838
 34
0.0
 50
90.0
100
AcDbRotatedDimension
1001
ACAD
1000
DSTYLE
1002
{
1070
   174
1070
     0
1070
   272
1070
     1
1070
   279
1070
     1
1070
   288
1070
     0
1070
   341
1005
0
1002
}
  0
DIMENSION
  5
234D9
330
747D
100
AcDbEntity
  8
寸法
 48
50.0
100
AcDbDimension
  2
*D12
 10
611.2553638520657
 20
1070.269006252838
 30
0.0
 11
511.2553638520656
 21
1610.269006252838
 31
0.0
 70
    32
  1
540
 71
     5
 42
1080.0
  3
INABA_S40G
100
AcDbAlignedDimension
 13
1598.050425329247
 23
2150.269006252838
 33
0.0
 14
1318.050425329247
 24
1070.269006252838
 34
0.0
 50
90.0
100
AcDbRotatedDimension
1001
ACAD
1000
DSTYLE
1002
{
1070
   174
1070
     0
1070
   272
1070
     1
1070
   279
1070
     1
1070
   288
1070
     0
1070
   341
1005
0
1002
}
  0
LINE
  5
234DA
330
747D
100
AcDbEntity
  8
部品1
 48
50.0
100
AcDbLine
 10
2023.826638011842
 20
421.0919439444614
 30
0.0
 11
2023.826638011842
 21
261.0919439444615
 31
0.0
  0
LINE
  5
234DB
330
747D
100
AcDbEntity
  8
部品1
 48
50.0
100
AcDbLine
 10
1383.826638011842
 20
421.0919439444614
 30
0.0
 11
1383.826638011842
 21
261.0919439444615
 31
0.0
  0
TEXT
  5
234DC
330
747D
100
AcDbEntity
  8
部品1
 48
50.0
100
AcDbText
 10
1426.017139356058
 20
292.2997301491332
 30
0.0
 40
96.0
  1
基礎断面
  7
STYLE2
100
AcDbText
  0
LINE
  5
234DD
330
747D
100
AcDbEntity
  8
部品1
 48
50.0
100
AcDbLine
 10
2023.826638011842
 20
261.0919439444615
 30
0.0
 11
1383.826638011842
 21
261.0919439444615
 31
0.0
  0
TEXT
  5
234DE
330
747D
100
AcDbEntity
  8
寸法
 62
     7
 48
50.0
100
AcDbText
 10
1039.423101217657
 20
510.3543527992023
 30
0.0
 40
80.0
  1
基礎天は面取しないでください
  7
STYLE1
100
AcDbText
  0
LINE
  5
234DF
330
747D
100
AcDbEntity
  8
部品1
 48
50.0
100
AcDbLine
 10
2023.826638011842
 20
421.0919439444614
 30
0.0
 11
1383.826638011842
 21
421.0919439444614
 31
0.0
  0
LEADER
  5
234E0
330
747D
100
AcDbEntity
  8
寸法
 48
50.0
100
AcDbLeader
  3
INABA_S50G詳細用
 71
     0
 73
     0
 74
     0
 75
     1
 40
152.0863094478901
 41
261.2132034355964
 76
     3
 10
1718.050425329247
 20
1233.269006252838
 30
0.0
 10
2093.539770642912
 20
664.2716643027442
 30
0.0
 10
2218.539770642912
 20
664.2716643027442
 30
0.0
1001
ACAD
1000
DSTYLE
1002
{
1070
    40
1040
1.0
1070
    77
1070
     1
1002
}
  0
MTEXT
  5
234E1
102
{ACAD_REACTORS
330
234E0
102
}
330
747D
100
AcDbEntity
  8
寸法
 62
     7
 48
50.0
100
AcDbMText
 10
2238.539770642912
 20
684.2716643027443
 30
0.0
 40
120.0
 41
0.0
 71
     7
 72
     1
  1
\A1;D13
  7
STYLE1
 73
     1
 44
1.0
1001
ACAD
1000
MTEXTBEGIN
1070
    73
1070
     1
1070
    44
1040
1.0
1070
    74
1070
     0
1000
MTEXTEND
  0
LINE
  5
234E2
102
{ACAD_REACTORS
330
234E9
102
}
330
747D
100
AcDbEntity
  8
部品1
 48
50.0
100
AcDbLine
 10
1598.050425329246
 20
2150.269006252838
 30
0.0
 11
1838.050425329246
 21
2150.269006252838
 31
0.0
  0
LINE
  5
234E3
102
{ACAD_REACTORS
330
234E9
102
}
330
747D
100
AcDbEntity
  8
部品1
 48
50.0
100
AcDbLine
 10
1538.050425329245
 20
1220.269006252837
 30
0.0
 11
1898.05042532926
 21
1220.269006252839
 31
0.0
  0
LINE
  5
234E4
102
{ACAD_REACTORS
330
234E9
102
}
330
747D
100
AcDbEntity
  8
部品1
 48
50.0
100
AcDbLine
 10
1538.050425329245
 20
1200.269006252837
 30
0.0
 11
1898.050425329245
 21
1200.269006252837
 31
0.0
  0
LINE
  5
234E5
102
{ACAD_REACTORS
330
234E9
330
234E7
102
}
330
747D
100
AcDbEntity
  8
部品1
 48
50.0
100
AcDbLine
 10
2118.050425329246
 20
1070.269006252837
 30
0.0
 11
1318.050425329245
 21
1070.269006252837
 31
0.0
  0
LINE
  5
234E6
102
{ACAD_REACTORS
330
234E7
102
}
330
747D
100
AcDbEntity
  8
部品1
 48
50.0
100
AcDbLine
 10
2118.050425329246
 20
910.2690062528372
 30
0.0
 11
1318.050425329245
 21
910.2690062528363
 31
0.0
  0
HATCH
  5
234E7
330
747D
100
AcDbEntity
  8
細線
 48
50.0
100
AcDbHatch
 10
0.0
 20
0.0
 30
0.0
210
0.0
220
0.0
230
1.0
  2
LINE
 70
     0
 71
     1
 91
        1
 92
        7
 72
     0
 73
     1
 93
        4
 10
2118.050425329246
 20
910.2690062528372
 10
2118.050425329246
 20
1070.269006252837
 10
1318.050425329245
 20
1070.269006252837
 10
1318.050425329245
 20
910.2690062528363
 97
        4
330
234E5
330
234F2
330
234E6
330
23515
 75
     0
 76
     1
 52
75.0
 41
30.0
 77
     0
 78
     1
 53
75.0
 43
-12337.62488190723
 44
10825.03547565766
 45
-92.00443495403375
 46
24.6525140460151
 79
     0
 47
2.300206460912943
 98
        1
 10
1727.247478894405
 20
982.6960184331655
  0
DIMENSION
  5
234E8
330
747D
100
AcDbEntity
  8
寸法
 48
50.0
100
AcDbDimension
  2
*D13
 10
2018.050425329247
 20
690.5701666504728
 30
0.0
 11
1718.050425329247
 21
790.5701666504728
 31
0.0
 70
    32
  1
300
 71
     5
 42
600.0
  3
INABA_S40G
100
AcDbAlignedDimension
 13
1418.050425329247
 23
910.2690062528363
 33
0.0
 14
2018.050425329247
 24
910.2690062528372
 34
0.0
100
AcDbRotatedDimension
1001
ACAD
1000
DSTYLE
1002
{
1070
   174
1070
     0
1070
   272
1070
     1
1070
   279
1070
     1
1070
   288
1070
     0
1070
   341
1005
0
1002
}
  0
HATCH
  5
234E9
330
747D
100
AcDbEntity
  8
細線
 48
50.0
100
AcDbHatch
 10
0.0
 20
0.0
 30
0.0
210
0.0
220
0.0
230
1.0
  2
PLAST
 70
     0
 71
     1
 91
        2
 92
        7
 72
     0
 73
     1
 93
        8
 10
1838.050425329246
 20
2150.269006252838
 10
1598.050425329245
 20
2150.269006252838
 10
1598.050425329245
 20
1370.269006252837
 10
1418.050425329246
 20
1370.269006252837
 10
1418.050425329245
 20
1070.269006252837
 10
2018.050425329246
 20
1070.269006252837
 10
2018.050425329246
 20
1370.269006252837
 10
1838.050425329245
 20
1370.269006252837
 97
        8
330
234E2
330
23505
330
23506
330
234EC
330
234E5
330
23512
330
23525
330
23520
 92
       22
 72
     1
 73
     1
 93
       24
 10
1751.050425329238
 20
1220.269006252838
 42
0.0
 10
1878.050425329245
 20
1220.269006252839
 42
-2.414213562373366
 10
1888.050425329246
 20
1230.269006252837
 42
-0.4142135623730418
 10
1878.050425329245
 20
1220.269006252839
 42
0.0
 10
1898.050425329253
 20
1220.269006252839
 42
0.0
 10
1898.050425329246
 20
1200.269006252837
 42
0.0
 10
1538.050425329246
 20
1200.269006252837
 42
0.0
 10
1538.050425329245
 20
1220.269006252837
 42
0.0
 10
1558.050425329246
 20
1220.269006252837
 42
-2.414213562373133
 10
1568.050425329245
 20
1230.269006252837
 42
-0.4142135623730951
 10
1558.050425329246
 20
1220.269006252837
 42
0.0
 10
1685.050425329232
 20
1220.269006252838
 42
0.0
 10
1685.050425329223
 20
1313.269006252841
 42
0.0
 10
1705.050425329245
 20
1313.269006252839
 42
0.0
 10
1705.050425329253
 20
1233.269006252836
 42
-1.0
 10
1731.050425329238
 20
1233.269006252837
 42
0.0
 10
1731.050425329246
 20
2037.269006252837
 42
-1.0
 10
1705.050425329253
 20
2037.269006252838
 42
0.0
 10
1705.050425329246
 20
1957.269006252837
 42
0.0
 10
1685.050425329224
 20
1957.269006252836
 42
0.0
 10
1685.050425329231
 20
2038.269006252837
 42
-0.4142135623728287
 10
1717.050425329202
 20
2070.269006252837
 42
0.0
 10
1719.050425329253
 20
2070.269006252838
 42
-0.4142135623731014
 10
1751.050425329253
 20
2038.269006252837
 42
0.0
 97
       21
330
234FF
330
234E3
330
2351C
330
2351D
330
234E4
330
234FD
330
234FC
330
23500
330
234EB
330
23507
330
234EA
330
234FE
330
234EE
330
2350D
330
2350A
330
2350C
330
2350B
330
23510
330
2350E
330
2350F
330
234ED
 75
     0
 76
     1
 52
45.0
 41
30.0
 77
     0
 78
     3
 53
45.0
 43
-12337.62488190723
 44
10825.03547565766
 45
-134.7038418160373
 46
134.7038418160373
 79
     0
 53
45.0
 43
-12354.46286213423
 44
10841.87345588466
 45
-134.7038418160373
 46
134.7038418160373
 79
     0
 53
45.0
 43
-12371.30084236123
 44
10858.71143611167
 45
-134.7038418160373
 46
134.7038418160373
 79
     0
 47
4.554250812093354
 98
        2
 10
1779.180184900568
 20
1886.696807919139
 10
1779.180184900568
 20
1886.696807919139
  0
LINE
  5
234EA
102
{ACAD_REACTORS
330
234E9
102
}
330
747D
100
AcDbEntity
  8
部品1
 48
50.0
100
AcDbLine
 10
1705.050425329253
 20
1232.269006252841
 30
0.0
 11
1705.050425329245
 21
1313.269006252841
 31
0.0
  0
LINE
  5
234EB
102
{ACAD_REACTORS
330
234E9
102
}
330
747D
100
AcDbEntity
  8
部品1
 48
50.0
100
AcDbLine
 10
1685.050425329231
 20
1232.269006252841
 30
0.0
 11
1685.050425329224
 21
1313.269006252841
 31
0.0
  0
LINE
  5
234EC
102
{ACAD_REACTORS
330
234E9
102
}
330
747D
100
AcDbEntity
  8
部品1
 48
50.0
100
AcDbLine
 10
1418.050425329245
 20
1070.269006252837
 30
0.0
 11
1418.050425329245
 21
1370.269006252837
 31
0.0
  0
LINE
  5
234ED
102
{ACAD_REACTORS
330
234E9
102
}
330
747D
100
AcDbEntity
  8
部品1
 48
50.0
100
AcDbLine
 10
1751.050425329253
 20
2038.269006252837
 30
0.0
 11
1751.050425329238
 21
1232.269006252837
 31
0.0
  0
LINE
  5
234EE
102
{ACAD_REACTORS
330
234E9
102
}
330
747D
100
AcDbEntity
  8
部品1
 48
50.0
100
AcDbLine
 10
1731.050425329246
 20
2038.269006252837
 30
0.0
 11
1731.050425329238
 21
1232.269006252839
 31
0.0
  0
MTEXT
  5
234EF
102
{ACAD_REACTORS
330
234F0
102
}
330
747D
100
AcDbEntity
  8
寸法
 62
     7
 48
50.0
100
AcDbMText
 10
1193.16320544799
 20
784.6652964005643
 30
0.0
 40
120.0
 41
0.0
 71
     9
 72
     1
  1
D10
  7
STYLE1
 73
     1
 44
1.0
1001
ACAD
1000
MTEXTBEGIN
1070
    73
1070
     1
1070
    44
1040
1.0
1070
    74
1070
     0
1000
MTEXTEND
  0
LEADER
  5
234F0
330
747D
100
AcDbEntity
  8
寸法
 48
50.0
100
AcDbLeader
  3
INABA_S50G詳細用
 71
     0
 73
     0
 75
     1
 40
152.0863094478901
 41
255.1181102362205
 76
     3
 10
1558.050425329247
 20
1230.269006252838
 30
0.0
 10
1338.163205447991
 20
764.6652964005643
 30
0.0
 10
1213.163205447991
 20
764.6652964005643
 30
0.0
1001
ACAD
1000
DSTYLE
1002
{
1070
    40
1040
1.0
1070
    77
1070
     1
1002
}
  0
LINE
  5
234F1
330
747D
100
AcDbEntity
  8
細線
 48
50.0
100
AcDbLine
 10
1511.11371915102
 20
1050.269006252837
 30
0.0
 11
1505.754735302398
 21
1070.269006252837
 31
0.0
  0
LINE
  5
234F2
102
{ACAD_REACTORS
330
234E7
102
}
330
747D
100
AcDbEntity
  8
部品1
 48
50.0
100
AcDbLine
 10
1318.050425329245
 20
910.2690062528363
 30
0.0
 11
1318.050425329245
 21
1070.269006252837
 31
0.0
  0
LINE
  5
234F3
330
747D
100
AcDbEntity
  8
細線
 48
50.0
100
AcDbLine
 10
1412.503662966963
 20
1050.269006252837
 30
0.0
 11
1407.144679118341
 21
1070.269006252837
 31
0.0
  0
LINE
  5
234F4
330
747D
100
AcDbEntity
  8
細線
 48
50.0
100
AcDbLine
 10
1484.318799907916
 20
910.2690062528363
 30
0.0
 11
1478.959816059287
 21
930.2690062528444
 31
0.0
  0
LINE
  5
234F5
330
747D
100
AcDbEntity
  8
細線
 48
50.0
100
AcDbLine
 10
1385.708743723851
 20
910.2690062528363
 30
0.0
 11
1380.349759875229
 21
930.2690062528409
 31
0.0
  0
LINE
  5
234F6
330
747D
100
AcDbEntity
  8
細線
 48
50.0
100
AcDbLine
 10
1806.943887703201
 20
1050.26900625283
 30
0.0
 11
1801.584903854578
 21
1070.269006252836
 31
0.0
  0
LINE
  5
234F7
330
747D
100
AcDbEntity
  8
細線
 48
50.0
100
AcDbLine
 10
1708.333831519143
 20
1050.269006252833
 30
0.0
 11
1702.974847670517
 21
1070.269006252837
 31
0.0
  0
LINE
  5
234F8
330
747D
100
AcDbEntity
  8
細線
 48
50.0
100
AcDbLine
 10
1609.723775335082
 20
1050.269006252833
 30
0.0
 11
1604.364791486456
 21
1070.269006252837
 31
0.0
  0
LINE
  5
234F9
330
747D
100
AcDbEntity
  8
細線
 48
50.0
100
AcDbLine
 10
1582.928856091974
 20
910.2690062528337
 30
0.0
 11
1577.569872243351
 21
930.2690062528391
 31
0.0
  0
LINE
  5
234FA
330
747D
100
AcDbEntity
  8
細線
 48
50.0
100
AcDbLine
 10
1780.148968460095
 20
910.2690062528337
 30
0.0
 11
1774.789984611472
 21
930.2690062528391
 31
0.0
  0
LINE
  5
234FB
330
747D
100
AcDbEntity
  8
細線
 48
50.0
100
AcDbLine
 10
1681.538912276037
 20
910.2690062528337
 30
0.0
 11
1676.179928427409
 21
930.2690062528435
 31
0.0
  0
CIRCLE
  5
234FC
102
{ACAD_REACTORS
330
234E9
102
}
330
747D
100
AcDbEntity
  8
部品1
 48
50.0
100
AcDbCircle
 10
1558.050425329246
 20
1230.269006252837
 30
0.0
 40
10.0
  0
LINE
  5
234FD
102
{ACAD_REACTORS
330
234E9
102
}
330
747D
100
AcDbEntity
  8
部品1
 48
50.0
100
AcDbLine
 10
1538.050425329245
 20
1200.269006252837
 30
0.0
 11
1538.050425329245
 21
1220.269006252837
 31
0.0
  0
CIRCLE
  5
234FE
102
{ACAD_REACTORS
330
234E9
102
}
330
747D
100
AcDbEntity
  8
部品1
 48
50.0
100
AcDbCircle
 10
1718.050425329246
 20
1233.269006252837
 30
0.0
 40
13.0
  0
ARC
  5
234FF
102
{ACAD_REACTORS
330
234E9
102
}
330
747D
100
AcDbEntity
  8
部品1
 48
50.0
100
AcDbCircle
 10
1719.050425329253
 20
1232.269006252839
 30
0.0
 40
32.0
100
AcDbArc
 50
337.9756871629763
 51
0.0
  0
ARC
  5
23500
102
{ACAD_REACTORS
330
234E9
102
}
330
747D
100
AcDbEntity
  8
部品1
 48
50.0
100
AcDbCircle
 10
1717.050425329231
 20
1232.269006252841
 30
0.0
 40
32.0
100
AcDbArc
 50
180.0
 51
202.0243128370238
  0
MTEXT
  5
23501
102
{ACAD_REACTORS
330
23502
102
}
330
747D
100
AcDbEntity
  8
寸法
 62
     7
 48
50.0
100
AcDbMText
 10
1346.902528594803
 20
1485.391476176021
 30
0.0
 40
120.0
 41
0.0
 71
     9
 72
     1
  1
D10@300
  7
STYLE1
 73
     1
 44
1.0
1001
ACAD
1000
MTEXTBEGIN
1070
    73
1070
     1
1070
    44
1040
1.0
1070
    74
1070
     0
1000
MTEXTEND
  0
LEADER
  5
23502
330
747D
100
AcDbEntity
  8
寸法
 48
50.0
100
AcDbLeader
  3
INABA_S50G詳細用
 71
     0
 73
     0
 75
     1
 40
199.416260736239
 41
735.1181102362204
 76
     3
 10
1740.468351847756
 20
1664.537831656122
 30
0.0
 10
1491.902528594803
 20
1465.391476176021
 30
0.0
 10
1366.902528594803
 20
1465.391476176021
 30
0.0
1001
ACAD
1000
DSTYLE
1002
{
1070
    40
1040
1.0
1070
    77
1070
     1
1002
}
  0
LWPOLYLINE
  5
23503
330
747D
100
AcDbEntity
  8
部品1
 48
50.0
100
AcDbPolyline
 90
        2
 70
     0
 10
667.9882069497944
 20
1750.269006252838
 40
15.0
 41
15.0
 10
1598.050425329247
 20
1750.269006252838
 40
10.0
 41
10.0
  0
TEXT
  5
23504
330
747D
100
AcDbEntity
  8
寸法
 62
     7
 48
50.0
100
AcDbText
 10
709.7970905395778
 20
1765.704787718231
 30
0.0
 40
120.0
  1
▽G.L
  7
STYLE1
100
AcDbText
  0
LINE
  5
23505
102
{ACAD_REACTORS
330
234E9
102
}
330
747D
100
AcDbEntity
  8
部品1
 48
50.0
100
AcDbLine
 10
1598.050425329246
 20
1370.269006252837
 30
0.0
 11
1598.050425329246
 21
2150.269006252838
 31
0.0
  0
LINE
  5
23506
102
{ACAD_REACTORS
330
234E9
102
}
330
747D
100
AcDbEntity
  8
部品1
 48
50.0
100
AcDbLine
 10
1418.050425329245
 20
1370.269006252837
 30
0.0
 11
1598.050425329246
 21
1370.269006252837
 31
0.0
  0
LINE
  5
23507
102
{ACAD_REACTORS
330
234E9
102
}
330
747D
100
AcDbEntity
  8
部品1
 48
50.0
100
AcDbLine
 10
1685.050425329224
 20
1313.269006252841
 30
0.0
 11
1705.050425329253
 21
1313.269006252839
 31
0.0
  0
LEADER
  5
23508
330
747D
100
AcDbEntity
  8
寸法
 48
50.0
100
AcDbLeader
  3
INABA_S50G
 71
     0
 73
     0
 75
     1
 40
121.669047558312
 41
208.9705627484771
 76
     3
 10
1718.050425329247
 20
2037.269006252838
 30
0.0
 10
1540.373343824998
 20
2215.578484077132
 30
0.0
 10
1415.373343824998
 20
2215.578484077132
 30
0.0
340
23509
1001
ACAD
1000
DSTYLE
1002
{
1070
    40
1040
1.0
1070
    77
1070
     1
1070
   341
1005
1C530
1002
}
  0
MTEXT
  5
23509
102
{ACAD_REACTORS
330
23508
102
}
330
747D
100
AcDbEntity
  8
寸法
 62
     7
 48
50.0
100
AcDbMText
 10
1390.373343824998
 20
2240.578484077132
 30
0.0
 40
120.0
 41
0.0
 71
     9
 72
     1
  1
D13
  7
STYLE1
 73
     1
 44
1.0
1001
ACAD
1000
MTEXTBEGIN
1070
    73
1070
     1
1070
    44
1040
1.0
1070
    74
1070
     0
1000
MTEXTEND
  0
LINE
  5
2350A
102
{ACAD_REACTORS
330
234E9
102
}
330
747D
100
AcDbEntity
  8
部品1
 48
50.0
100
AcDbLine
 10
1705.050425329253
 20
2038.269006252837
 30
0.0
 11
1705.050425329245
 21
1957.269006252836
 31
0.0
  0
LINE
  5
2350B
102
{ACAD_REACTORS
330
234E9
102
}
330
747D
100
AcDbEntity
  8
部品1
 48
50.0
100
AcDbLine
 10
1685.050425329231
 20
2038.269006252837
 30
0.0
 11
1685.050425329224
 21
1957.269006252836
 31
0.0
  0
LINE
  5
2350C
102
{ACAD_REACTORS
330
234E9
102
}
330
747D
100
AcDbEntity
  8
部品1
 48
50.0
100
AcDbLine
 10
1685.050425329224
 20
1957.269006252836
 30
0.0
 11
1705.050425329253
 21
1957.269006252837
 31
0.0
  0
CIRCLE
  5
2350D
102
{ACAD_REACTORS
330
234E9
102
}
330
747D
100
AcDbEntity
  8
部品1
 48
50.0
100
AcDbCircle
 10
1718.050425329246
 20
2037.269006252838
 30
0.0
 40
13.0
  0
LINE
  5
2350E
102
{ACAD_REACTORS
330
234E9
102
}
330
747D
100
AcDbEntity
  8
部品1
 48
50.0
100
AcDbLine
 10
1717.050425329231
 20
2070.269006252837
 30
0.0
 11
1719.050425329253
 21
2070.269006252838
 31
0.0
  0
ARC
  5
2350F
102
{ACAD_REACTORS
330
234E9
102
}
330
747D
100
AcDbEntity
  8
部品1
 48
50.0
100
AcDbCircle
 10
1719.050425329253
 20
2038.269006252837
 30
0.0
 40
32.0
100
AcDbArc
 50
0.0
 51
90.0
  0
ARC
  5
23510
102
{ACAD_REACTORS
330
234E9
102
}
330
747D
100
AcDbEntity
  8
部品1
 48
50.0
100
AcDbCircle
 10
1717.050425329231
 20
2038.269006252837
 30
0.0
 40
32.0
100
AcDbArc
 50
90.0
 51
180.0
  0
DIMENSION
  5
23511
330
747D
100
AcDbEntity
  8
寸法
 48
50.0
100
AcDbDimension
  2
*D14
 10
2489.040859806959
 20
1370.269006252838
 30
0.0
 11
2489.040859806959
 21
1220.269006252838
 31
0.0
 70
   160
  1
150
 71
     5
 42
300.0
  3
INABA_S40G
100
AcDbAlignedDimension
 13
2118.050425329248
 23
1070.269006252838
 33
0.0
 14
2018.050425329247
 24
1370.269006252838
 34
0.0
 50
90.0
100
AcDbRotatedDimension
1001
ACAD
1000
DSTYLE
1002
{
1070
   174
1070
     0
1070
   272
1070
     1
1070
   279
1070
     1
1070
   288
1070
     0
1070
   341
1005
0
1002
}
  0
LINE
  5
23512
102
{ACAD_REACTORS
330
234E9
102
}
330
747D
100
AcDbEntity
  8
部品1
 48
50.0
100
AcDbLine
 10
2018.050425329246
 20
1370.269006252837
 30
0.0
 11
2018.050425329246
 21
1070.269006252837
 31
0.0
  0
MTEXT
  5
23513
102
{ACAD_REACTORS
330
23514
102
}
330
747D
100
AcDbEntity
  8
寸法
 62
     7
 48
50.0
100
AcDbMText
 10
2237.960162080186
 20
857.4493306576005
 30
0.0
 40
120.0
 41
0.0
 71
     7
 72
     1
  1
\A1;D10@300
  7
STYLE1
 73
     1
 44
1.0
1001
ACAD
1000
MTEXTBEGIN
1070
    73
1070
     1
1070
    44
1040
1.0
1070
    74
1070
     0
1000
MTEXTEND
  0
LEADER
  5
23514
330
747D
100
AcDbEntity
  8
寸法
 48
50.0
100
AcDbLeader
  3
INABA_S50G詳細用
 71
     0
 73
     0
 74
     0
 75
     1
 40
199.416260736239
 41
735.1181102362204
 76
     3
 10
1847.010185250145
 20
1210.016159991454
 30
0.0
 10
2092.960162080186
 20
837.4493306576004
 30
0.0
 10
2217.960162080186
 20
837.4493306576004
 30
0.0
1001
ACAD
1000
DSTYLE
1002
{
1070
    40
1040
1.0
1070
    77
1070
     1
1002
}
  0
LINE
  5
23515
102
{ACAD_REACTORS
330
234E7
102
}
330
747D
100
AcDbEntity
  8
部品1
 48
50.0
100
AcDbLine
 10
2118.050425329246
 20
1070.269006252837
 30
0.0
 11
2118.050425329246
 21
910.2690062528372
 31
0.0
  0
LINE
  5
23516
330
747D
100
AcDbEntity
  8
細線
 48
50.0
100
AcDbLine
 10
2102.774056255381
 20
1050.269006252832
 30
0.0
 11
2097.415072406759
 21
1070.269006252833
 31
0.0
  0
LINE
  5
23517
330
747D
100
AcDbEntity
  8
細線
 48
50.0
100
AcDbLine
 10
2004.164000071323
 20
1050.26900625283
 30
0.0
 11
1998.805016222699
 21
1070.269006252836
 31
0.0
  0
LINE
  5
23518
330
747D
100
AcDbEntity
  8
細線
 48
50.0
100
AcDbLine
 10
1905.553943887264
 20
1050.269006252833
 30
0.0
 11
1900.194960038641
 21
1070.269006252833
 31
0.0
  0
LINE
  5
23519
330
747D
100
AcDbEntity
  8
細線
 48
50.0
100
AcDbLine
 10
1977.369080828215
 20
910.2690062528337
 30
0.0
 11
1972.010096979589
 21
930.2690062528391
 31
0.0
  0
LINE
  5
2351A
330
747D
100
AcDbEntity
  8
細線
 48
50.0
100
AcDbLine
 10
1878.759024644154
 20
910.2690062528337
 30
0.0
 11
1873.400040795532
 21
930.2690062528435
 31
0.0
  0
LINE
  5
2351B
330
747D
100
AcDbEntity
  8
細線
 48
50.0
100
AcDbLine
 10
2075.979137012277
 20
910.2690062528337
 30
0.0
 11
2070.620153163651
 21
930.2690062528371
 31
0.0
  0
CIRCLE
  5
2351C
102
{ACAD_REACTORS
330
234E9
102
}
330
747D
100
AcDbEntity
  8
部品1
 48
50.0
100
AcDbCircle
 10
1878.050425329245
 20
1230.269006252837
 30
0.0
 40
10.0
  0
LINE
  5
2351D
102
{ACAD_REACTORS
330
234E9
102
}
330
747D
100
AcDbEntity
  8
部品1
 48
50.0
100
AcDbLine
 10
1898.050425329253
 20
1220.269006252837
 30
0.0
 11
1898.050425329245
 21
1200.269006252837
 31
0.0
  0
LWPOLYLINE
  5
2351E
330
747D
100
AcDbEntity
  8
部品1
 48
50.0
100
AcDbPolyline
 90
        4
 70
     0
 43
15.0
 10
1838.050425329247
 20
1693.269006252838
 10
2438.050425329248
 20
1693.269006252838
 42
0.1316524975873961
 10
2560.96243904083
 20
1726.203181066939
 42
-0.1896952380106286
 10
2746.415347409793
 20
1773.953841042367
 42
0.0000000000000023
  0
HATCH
  5
2351F
330
747D
100
AcDbEntity
  8
細線
 48
50.0
100
AcDbHatch
 10
0.0
 20
0.0
 30
0.0
210
0.0
220
0.0
230
1.0
  2
PLAST
 70
     0
 71
     0
 91
        1
 92
        7
 72
     0
 73
     1
 93
        4
 10
1838.050425329247
 20
1950.269006252836
 10
1838.050425329244
 20
1710.269006252838
 10
2457.786822335302
 20
1710.269006252836
 10
2457.786822335298
 20
1950.269006252838
 97
        0
 75
     0
 76
     1
 52
135.0
 41
30.0
 77
     0
 78
     3
 53
135.0
 43
-12337.62488190723
 44
10925.03547565766
 45
-134.7038418160373
 46
-134.7038418160373
 79
     0
 53
135.0
 43
-12354.46286213423
 44
10908.19749543066
 45
-134.7038418160373
 46
-134.7038418160373
 79
     0
 53
135.0
 43
-12371.30084236123
 44
10891.35951520365
 45
-134.7038418160373
 46
-134.7038418160373
 79
     0
 47
2.426480319498133
 98
        1
 10
2062.640339995963
 20
1848.439264219614
  0
LINE
  5
23520
102
{ACAD_REACTORS
330
234E9
102
}
330
747D
100
AcDbEntity
  8
部品1
 48
50.0
100
AcDbLine
 10
1838.050425329246
 20
2150.269006252838
 30
0.0
 11
1838.050425329246
 21
1370.269006252837
 31
0.0
  0
LINE
  5
23521
330
747D
100
AcDbEntity
  8
部品1
 48
50.0
100
AcDbLine
 10
1838.050425329246
 20
1710.269006252837
 30
0.0
 11
2457.7868223353
 21
1710.269006252837
 31
0.0
  0
LINE
  5
23522
330
747D
100
AcDbEntity
  8
部品1
 48
50.0
100
AcDbLine
 10
1838.050425329246
 20
1676.269006252837
 30
0.0
 11
2457.7868223353
 21
1676.269006252837
 31
0.0
  0
LINE
  5
23523
330
747D
100
AcDbEntity
  8
部品1
 48
50.0
100
AcDbLine
 10
1838.050425329246
 20
1556.269006252837
 30
0.0
 11
2457.7868223353
 21
1556.269006252837
 31
0.0
  0
HATCH
  5
23524
330
747D
100
AcDbEntity
  8
細線
 48
50.0
100
AcDbHatch
 10
0.0
 20
0.0
 30
0.0
210
0.0
220
0.0
230
1.0
  2
LINE
 70
     0
 71
     0
 91
        1
 92
        7
 72
     0
 73
     1
 93
        4
 10
2457.786822335302
 20
1556.269006252838
 10
2457.786822335302
 20
1676.269006252838
 10
1838.050425329247
 20
1676.269006252836
 10
1838.050425329247
 20
1556.269006252838
 97
        0
 75
     0
 76
     1
 52
75.0
 41
30.0
 77
     0
 78
     1
 53
75.0
 43
-12337.62488190723
 44
10925.03547565766
 45
-92.00443495403375
 46
24.6525140460151
 79
     0
 47
3.779414263666604
 98
        1
 10
1992.60925058425
 20
1593.690409919578
  0
LINE
  5
23525
102
{ACAD_REACTORS
330
234E9
102
}
330
747D
100
AcDbEntity
  8
部品1
 48
50.0
100
AcDbLine
 10
1838.050425329246
 20
1370.269006252837
 30
0.0
 11
2018.050425329246
 21
1370.269006252837
 31
0.0
  0
LINE
  5
23526
330
747D
100
AcDbEntity
  8
細線
 48
50.0
100
AcDbLine
 10
1926.44922752749
 20
1556.269006252837
 30
0.0
 11
1921.090243678864
 21
1576.269006252843
 31
0.0
  0
LINE
  5
23527
330
747D
100
AcDbEntity
  8
細線
 48
50.0
100
AcDbLine
 10
1843.916122889291
 20
1656.269006252837
 30
0.0
 11
1838.557139040669
 21
1676.269006252837
 31
0.0
  0
LINE
  5
23528
330
747D
100
AcDbEntity
  8
細線
 48
50.0
100
AcDbLine
 10
1942.526179073349
 20
1656.269006252833
 30
0.0
 11
1937.167195224727
 21
1676.269006252837
 31
0.0
  0
LINE
  5
23529
330
747D
100
AcDbEntity
  8
細線
 48
50.0
100
AcDbLine
 10
2123.66933989561
 20
1556.269006252837
 30
0.0
 11
2118.310356046986
 21
1576.269006252843
 31
0.0
  0
LINE
  5
2352A
330
747D
100
AcDbEntity
  8
細線
 48
50.0
100
AcDbLine
 10
2139.746291441472
 20
1656.26900625283
 30
0.0
 11
2134.387307592846
 21
1676.269006252836
 31
0.0
  0
LINE
  5
2352B
330
747D
100
AcDbEntity
  8
細線
 48
50.0
100
AcDbLine
 10
2025.059283711551
 20
1556.269006252837
 30
0.0
 11
2019.700299862925
 21
1576.269006252846
 31
0.0
  0
LINE
  5
2352C
330
747D
100
AcDbEntity
  8
細線
 48
50.0
100
AcDbLine
 10
2041.136235257411
 20
1656.269006252833
 30
0.0
 11
2035.777251408785
 21
1676.269006252837
 31
0.0
  0
LINE
  5
2352D
330
747D
100
AcDbEntity
  8
細線
 48
50.0
100
AcDbLine
 10
2222.27939607967
 20
1556.269006252837
 30
0.0
 11
2216.920412231046
 21
1576.269006252846
 31
0.0
  0
LINE
  5
2352E
330
747D
100
AcDbEntity
  8
細線
 48
50.0
100
AcDbLine
 10
2320.889452263728
 20
1556.269006252837
 30
0.0
 11
2315.530468415105
 21
1576.269006252843
 31
0.0
  0
LINE
  5
2352F
330
747D
100
AcDbEntity
  8
細線
 48
50.0
100
AcDbLine
 10
2238.356347625533
 20
1656.269006252833
 30
0.0
 11
2232.997363776911
 21
1676.269006252833
 31
0.0
  0
LINE
  5
23530
330
747D
100
AcDbEntity
  8
細線
 48
50.0
100
AcDbLine
 10
2419.499508447789
 20
1556.269006252837
 30
0.0
 11
2414.140524599163
 21
1576.269006252841
 31
0.0
  0
LINE
  5
23531
330
747D
100
AcDbEntity
  8
細線
 48
50.0
100
AcDbLine
 10
2336.966403809593
 20
1656.26900625283
 30
0.0
 11
2331.60741996097
 21
1676.269006252836
 31
0.0
  0
LINE
  5
23532
330
747D
100
AcDbEntity
  8
細線
 48
50.0
100
AcDbLine
 10
2435.576459993652
 20
1656.269006252832
 30
0.0
 11
2430.21747614503
 21
1676.269006252833
 31
0.0
  0
TEXT
  5
23533
330
747D
100
AcDbEntity
  8
寸法
 62
     7
 48
50.0
100
AcDbText
 10
2112.755449407599
 20
1967.009615865871
 30
0.0
 40
120.0
  1
▽F.L
  7
STYLE1
100
AcDbText
  0
LINE
  5
23534
330
747D
100
AcDbEntity
  8
部品1
 48
50.0
100
AcDbLine
 10
1838.050425329246
 20
1950.269006252837
 30
0.0
 11
2457.7868223353
 21
1950.269006252837
 31
0.0
  0
LINE
  5
23535
330
747D
100
AcDbEntity
  8
点線
 48
10.0
100
AcDbLine
 10
1958.050425329245
 20
1832.088189931154
 30
0.0
 11
2457.7868223353
 21
1832.088189931154
 31
0.0
  0
LINE
  5
23536
330
747D
100
AcDbEntity
  8
点線
 48
10.0
100
AcDbLine
 10
1958.050425329245
 20
1812.088189931154
 30
0.0
 11
2457.7868223353
 21
1812.088189931152
 31
0.0
  0
LINE
  5
23537
330
747D
100
AcDbEntity
  8
点線
 48
10.0
100
AcDbLine
 10
1958.050425329245
 20
1832.088189931154
 30
0.0
 11
1958.050425329245
 21
1812.088189931154
 31
0.0
  0
CIRCLE
  5
23538
330
747D
100
AcDbEntity
  8
点線
 48
10.0
100
AcDbCircle
 10
1982.99978774946
 20
1842.088189931152
 30
0.0
 40
10.0
  0
CIRCLE
  5
23539
330
747D
100
AcDbEntity
  8
点線
 48
10.0
100
AcDbCircle
 10
2182.99978774946
 20
1842.088189931152
 30
0.0
 40
10.0
  0
CIRCLE
  5
2353A
330
747D
100
AcDbEntity
  8
点線
 48
10.0
100
AcDbCircle
 10
2382.999787749461
 20
1842.088189931152
 30
0.0
 40
10.0
  0
LINE
  5
2353B
330
747D
100
AcDbEntity
  8
寸法
 48
50.0
100
AcDbLine
 10
4799.484640453082
 20
2210.576698560528
 30
0.0
 11
4799.484640453082
 21
2881.380481241728
 31
0.0
  0
DIMENSION
  5
2353C
330
747D
100
AcDbEntity
  8
寸法
 48
50.0
100
AcDbDimension
  2
*D15
 10
4799.484640453082
 20
2150.269006252836
 30
0.0
 11
4799.484640453082
 21
2571.004184771842
 31
0.0
 70
   160
  1
出20～25
 71
     5
 42
60.30769230769147
  3
INABA_S40G
100
AcDbAlignedDimension
 13
4226.56822730139
 23
2210.576698560528
 33
0.0
 14
4293.6118018785
 24
2150.269006252836
 34
0.0
 50
90.0
100
AcDbRotatedDimension
1001
ACAD
1000
DSTYLE
1002
{
1070
   174
1070
     0
1070
   272
1070
     1
1070
   279
1070
     1
1070
   288
1070
     0
1070
   341
1005
0
1002
}
  0
DIMENSION
  5
2353D
330
747D
100
AcDbEntity
  8
寸法
 48
50.0
100
AcDbDimension
  2
*D16
 10
4213.06822730139
 20
2420.726284377743
 30
0.0
 11
4499.659045972991
 21
2420.726284377743
 31
0.0
 70
   160
  1
50
 71
     5
 42
80.54357457711194
  3
INABA_S40G
100
AcDbAlignedDimension
 13
4293.611801878501
 23
2150.269006252836
 33
0.0
 14
4213.06822730139
 24
2210.576698560528
 34
0.0
100
AcDbRotatedDimension
1001
ACAD
1000
DSTYLE
1002
{
1070
   174
1070
     0
1070
   272
1070
     1
1070
   288
1070
     0
1070
   341
1005
0
1002
}
  0
LINE
  5
2353E
330
747D
100
AcDbEntity
  8
点線
 48
5.0
100
AcDbLine
 10
6081.780709061455
 20
2150.269006252836
 30
0.0
 11
6081.780709061455
 21
2235.269006252837
 31
0.0
  0
LINE
  5
2353F
330
747D
100
AcDbEntity
  8
点線
 48
5.0
100
AcDbLine
 10
6194.780709061455
 20
2274.269006252837
 30
0.0
 11
6194.780709061455
 21
2214.269006252836
 31
0.0
  0
LINE
  5
23540
102
{ACAD_REACTORS
330
235B2
102
}
330
747D
100
AcDbEntity
  8
部品1
 48
50.0
100
AcDbLine
 10
6287.780709061458
 20
1650.269006252836
 30
0.0
 11
6287.780709061453
 21
2692.971717442348
 31
0.0
  0
LINE
  5
23541
102
{ACAD_REACTORS
330
235B2
102
}
330
747D
100
AcDbEntity
  8
部品1
 48
50.0
100
AcDbLine
 10
6191.780709061458
 20
1450.269006252837
 30
0.0
 11
6191.780709061454
 21
2692.971717442348
 31
0.0
  0
LINE
  5
23542
102
{ACAD_REACTORS
330
235B2
102
}
330
747D
100
AcDbEntity
  8
部品1
 48
50.0
100
AcDbLine
 10
6081.780709061457
 20
1450.269006252837
 30
0.0
 11
6081.780709061454
 21
2692.971717442348
 31
0.0
  0
LINE
  5
23543
330
747D
100
AcDbEntity
  8
部品1
 48
50.0
100
AcDbLine
 10
6519.684174909361
 20
261.0919439444606
 30
0.0
 11
5719.684174909362
 21
261.0919439444606
 31
0.0
  0
LINE
  5
23544
330
747D
100
AcDbEntity
  8
部品1
 48
50.0
100
AcDbLine
 10
6519.684174909361
 20
421.0919439444605
 30
0.0
 11
5719.684174909362
 21
421.0919439444605
 31
0.0
  0
LEADER
  5
23545
330
747D
100
AcDbEntity
  8
寸法
 48
50.0
100
AcDbLeader
  3
INABA_S50G詳細用
 71
     0
 73
     0
 75
     1
 40
120.0
 41
550.0
 76
     3
 10
6000.177741358901
 20
1551.318042481609
 30
0.0
 10
5659.061595184535
 20
929.3103838816314
 30
0.0
 10
5534.061595184535
 20
929.3103838816314
 30
0.0
340
23546
1001
ACAD
1000
DSTYLE
1002
{
1070
    40
1040
1.0
1070
    77
1070
     1
1002
}
  0
MTEXT
  5
23546
102
{ACAD_REACTORS
330
23545
102
}
330
747D
100
AcDbEntity
  8
寸法
 62
     7
 48
50.0
100
AcDbMText
 10
5509.061595184536
 20
954.3103838816314
 30
0.0
 40
120.0
 41
0.0
 71
     9
 72
     1
  1
\A1;カンザシ
  7
STYLE1
 73
     1
 44
1.0
1001
ACAD
1000
MTEXTBEGIN
1070
    73
1070
     1
1070
    44
1040
1.0
1070
    74
1070
     0
1000
MTEXTEND
  0
TEXT
  5
23547
330
747D
100
AcDbEntity
  8
寸法
 62
     7
 48
50.0
100
AcDbText
 10
5603.004993388623
 20
1771.115925618804
 30
0.0
 40
120.0
  1
▽G.L
  7
STYLE1
100
AcDbText
  0
LWPOLYLINE
  5
23548
102
{ACAD_REACTORS
330
235B2
102
}
330
747D
100
AcDbEntity
  8
部品1
 48
50.0
100
AcDbPolyline
 90
        2
 70
     0
 10
5587.40889569605
 20
1750.269006252836
 40
15.0
 41
15.0
 10
6081.780709061458
 20
1750.269006252836
 40
10.0
 41
10.0
  0
HATCH
  5
23549
330
747D
100
AcDbEntity
  8
細線
 48
50.0
100
AcDbHatch
 10
0.0
 20
0.0
 30
0.0
210
0.0
220
0.0
230
1.0
  2
LINE
 70
     0
 71
     1
 91
        1
 92
        7
 72
     0
 73
     1
 93
        4
 10
6536.780709061457
 20
990.2690062528373
 10
6536.780709061457
 20
1150.269006252837
 10
5736.780709061456
 20
1150.269006252837
 10
5736.780709061457
 20
990.2690062528353
 97
        4
330
2354B
330
235A8
330
2354A
330
235C4
 75
     0
 76
     1
 52
75.0
 41
30.0
 77
     0
 78
     1
 53
75.0
 43
-7918.894598175018
 44
10905.03547565766
 45
-92.00443495403375
 46
24.6525140460151
 79
     0
 47
2.300206460912943
 98
        1
 10
6145.977762626615
 20
1062.696018433165
  0
LINE
  5
2354A
102
{ACAD_REACTORS
330
23549
102
}
330
747D
100
AcDbEntity
  8
部品1
 48
50.0
100
AcDbLine
 10
6536.780709061457
 20
990.2690062528373
 30
0.0
 11
5736.780709061457
 21
990.2690062528353
 31
0.0
  0
LINE
  5
2354B
102
{ACAD_REACTORS
330
23549
102
}
330
747D
100
AcDbEntity
  8
部品1
 48
50.0
100
AcDbLine
 10
6536.780709061457
 20
1150.269006252837
 30
0.0
 11
5736.780709061457
 21
1150.269006252837
 31
0.0
  0
DIMENSION
  5
2354C
330
747D
100
AcDbEntity
  8
寸法
 48
50.0
100
AcDbDimension
  2
*D17
 10
6486.780709061452
 20
689.2263976018675
 30
0.0
 11
6136.780709061457
 21
789.2263976018676
 31
0.0
 70
    32
  1
\U+25A1350
 71
     5
 42
699.999999999989
  3
INABA_S40G
100
AcDbAlignedDimension
 13
5786.780709061463
 23
990.2690062528353
 33
0.0
 14
6486.780709061452
 24
990.2690062528382
 34
0.0
100
AcDbRotatedDimension
1001
ACAD
1000
DSTYLE
1002
{
1070
   174
1070
     0
1070
   272
1070
     1
1070
   279
1070
     1
1070
   288
1070
     0
1070
   341
1005
0
1002
}
  0
TEXT
  5
2354D
330
747D
100
AcDbEntity
  8
部品1
 48
50.0
100
AcDbText
 10
3820.413017725801
 20
295.0842356769572
 30
0.0
 40
96.0
  1
Ａ－Ａ’断面
  7
STYLE2
100
AcDbText
  0
LINE
  5
2354E
330
747D
100
AcDbEntity
  8
部品1
 48
50.0
100
AcDbLine
 10
3758.810582587557
 20
421.0919439444605
 30
0.0
 11
3758.810582587557
 21
261.0919439444606
 31
0.0
  0
LINE
  5
2354F
330
747D
100
AcDbEntity
  8
部品1
 48
50.0
100
AcDbLine
 10
4558.810582587557
 20
421.0919439444605
 30
0.0
 11
4558.810582587557
 21
261.0919439444606
 31
0.0
  0
LINE
  5
23550
330
747D
100
AcDbEntity
  8
部品1
 48
50.0
100
AcDbLine
 10
5719.684174909362
 20
421.0919439444605
 30
0.0
 11
5719.684174909362
 21
261.0919439444606
 31
0.0
  0
LINE
  5
23551
330
747D
100
AcDbEntity
  8
部品1
 48
50.0
100
AcDbLine
 10
4558.810582587557
 20
261.0919439444606
 30
0.0
 11
3758.810582587557
 21
261.0919439444606
 31
0.0
  0
LWPOLYLINE
  5
23552
330
747D
100
AcDbEntity
  8
部品1
 48
50.0
100
AcDbPolyline
 90
        2
 70
     0
 10
4293.6118018785
 20
1850.269006252836
 40
15.0
 41
15.0
 10
4885.359996371217
 20
1850.269006252836
 40
10.0
 41
10.0
  0
LINE
  5
23553
330
747D
100
AcDbEntity
  8
部品1
 48
50.0
100
AcDbLine
 10
4293.6118018785
 20
1370.269006252836
 30
0.0
 11
4473.6118018785
 21
1370.269006252836
 31
0.0
  0
LINE
  5
23554
330
747D
100
AcDbEntity
  8
細線
 48
50.0
100
AcDbLine
 10
4463.293048864588
 20
1050.269006252829
 30
0.0
 11
4457.934065015961
 21
1070.269006252834
 31
0.0
  0
LINE
  5
23555
330
747D
100
AcDbEntity
  8
部品1
 48
50.0
100
AcDbLine
 10
4558.810582587557
 20
421.0919439444605
 30
0.0
 11
3758.810582587557
 21
421.0919439444605
 31
0.0
  0
TEXT
  5
23556
330
747D
100
AcDbEntity
  8
寸法
 62
     7
 48
50.0
100
AcDbText
 10
3674.53078239824
 20
727.4147292972929
 30
0.0
 40
120.0
  1
アンカーボルトは
  7
STYLE1
100
AcDbText
  0
LINE
  5
23557
330
747D
100
AcDbEntity
  8
部品1
 48
50.0
100
AcDbLine
 10
4573.6118018785
 20
910.2690062528363
 30
0.0
 11
3662.459937518696
 21
910.2690062528346
 31
0.0
  0
LINE
  5
23558
330
747D
100
AcDbEntity
  8
部品1
 48
50.0
100
AcDbLine
 10
4573.6118018785
 20
1070.269006252836
 30
0.0
 11
3662.459937518696
 21
1070.269006252836
 31
0.0
  0
HATCH
  5
23559
330
747D
100
AcDbEntity
  8
細線
 48
50.0
100
AcDbHatch
 10
0.0
 20
0.0
 30
0.0
210
0.0
220
0.0
230
1.0
  2
PLAST
 70
     0
 71
     0
 91
        2
 92
        7
 72
     1
 73
     1
 93
       39
 10
4140.611801878496
 20
1863.269006252836
 42
0.0
 10
4139.568227301389
 20
1863.269006252836
 42
0.0
 10
4139.568227301389
 20
1890.269006252836
 42
0.0
 10
4140.611801878494
 20
1890.269006252836
 42
0.0
 10
4140.611801878493
 20
2038.269006252837
 42
-0.4142135623730951
 10
4172.611801878493
 20
2070.269006252837
 42
0.0
 10
4174.611801878515
 20
2070.269006252834
 42
-0.2274254655226983
 10
4199.56822730139
 20
2058.298405397904
 42
0.0
 10
4199.56822730139
 20
2150.269006252836
 42
0.0
 10
3662.459937518697
 20
2150.269006252838
 42
0.0
 10
3662.459937518696
 20
1070.269006252836
 42
0.0
 10
4473.611801878498
 20
1070.269006252836
 42
0.0
 10
4473.611801878502
 20
1370.269006252836
 42
0.0
 10
4293.611801878501
 20
1370.269006252836
 42
0.0
 10
4293.611801878501
 20
2150.269006252836
 42
0.0
 10
4226.56822730139
 20
2150.269006252836
 42
0.0
 10
4226.56822730139
 20
1900.269006252836
 42
-0.4142135623730951
 10
4189.568227301389
 20
1863.269006252836
 42
0.0
 10
4160.6118018785
 20
1863.269006252836
 42
0.0
 10
4160.611801878507
 20
1233.269006252836
 42
-1.0
 10
4186.611801878493
 20
1233.269006252836
 42
0.0
 10
4186.6118018785
 20
1313.269006252839
 42
0.0
 10
4206.611801878522
 20
1313.26900625284
 42
0.0
 10
4206.611801878515
 20
1232.26900625284
 42
-0.0963961176293404
 10
4204.276595826897
 20
1220.269006252838
 42
0.0
 10
4333.611801878499
 20
1220.269006252836
 42
-0.4142135623730898
 10
4323.6118018785
 20
1230.269006252836
 42
-1.0
 10
4343.6118018785
 20
1230.269006252836
 42
-0.4142135623730898
 10
4333.611801878499
 20
1220.269006252836
 42
0.0
 10
4353.6118018785
 20
1220.269006252836
 42
0.0
 10
4353.6118018785
 20
1200.269006252836
 42
0.0
 10
3993.6118018785
 20
1200.269006252836
 42
0.0
 10
3993.611801878493
 20
1220.269006252839
 42
0.0
 10
4013.611801878499
 20
1220.269006252838
 42
-0.4142135623730472
 10
4003.6118018785
 20
1230.269006252836
 42
-1.0
 10
4023.6118018785
 20
1230.269006252836
 42
-0.4142135623730364
 10
4013.611801878499
 20
1220.269006252839
 42
0.0
 10
4142.94700793011
 20
1220.269006252838
 42
-0.0963961176292866
 10
4140.611801878507
 20
1232.269006252836
 42
0.0
 97
        0
 92
       23
 72
     1
 73
     1
 93
        7
 10
4199.568227301388
 20
1957.269006252836
 42
0.0
 10
4186.611801878497
 20
1957.269006252836
 42
0.0
 10
4186.611801878493
 20
2037.269006252838
 42
-1.0
 10
4160.6118018785
 20
2037.269006252836
 42
0.0
 10
4160.6118018785
 20
1890.269006252836
 42
0.0
 10
4189.568227301389
 20
1890.269006252836
 42
0.4142135623730951
 10
4199.56822730139
 20
1900.269006252836
 42
0.0
 97
        0
 75
     0
 76
     1
 52
45.0
 41
30.0
 77
     0
 78
     3
 53
45.0
 43
-2810.467401466059
 44
2855.545021340411
 45
-134.7038418160373
 46
134.7038418160373
 79
     0
 53
45.0
 43
-2827.305381693062
 44
2872.383001567417
 45
-134.7038418160373
 46
134.7038418160373
 79
     0
 53
45.0
 43
-2844.143361920069
 44
2889.220981794421
 45
-134.7038418160373
 46
134.7038418160373
 79
     0
 47
1.910103703933306
 98
        3
 10
-2810.467401466059
 20
2855.545021340411
 10
4022.138958869009
 20
1735.380469843967
 10
4175.00787442265
 20
1927.918924538285
  0
HATCH
  5
2355A
330
747D
100
AcDbEntity
  8
細線
 48
50.0
100
AcDbHatch
 10
0.0
 20
0.0
 30
0.0
210
0.0
220
0.0
230
1.0
  2
LINE
 70
     0
 71
     0
 91
        1
 92
        7
 72
     0
 73
     1
 93
        4
 10
3662.459937518696
 20
1070.269006252836
 10
3662.459937518699
 20
910.2690062528346
 10
4573.611801878498
 20
910.2690062528372
 10
4573.611801878496
 20
1070.269006252838
 97
        0
 75
     0
 76
     1
 52
75.0
 41
30.0
 77
     0
 78
     1
 53
75.0
 43
-4223.719925895042
 44
2855.545021340411
 45
-92.00443495403375
 46
24.6525140460151
 79
     0
 47
6.829112558776185
 98
        1
 10
3761.343066085505
 20
1014.84849691948
  0
LINE
  5
2355B
330
747D
100
AcDbEntity
  8
部品1
 48
50.0
100
AcDbLine
 10
4160.6118018785
 20
1863.269006252839
 30
0.0
 11
4160.611801878507
 21
1232.269006252839
 31
0.0
  0
LINE
  5
2355C
330
747D
100
AcDbEntity
  8
部品1
 48
50.0
100
AcDbLine
 10
4140.611801878494
 20
1863.269006252836
 30
0.0
 11
4140.611801878507
 21
1232.269006252836
 31
0.0
  0
LINE
  5
2355D
330
747D
100
AcDbEntity
  8
部品1
 48
50.0
100
AcDbLine
 10
4206.611801878515
 20
1232.26900625284
 30
0.0
 11
4206.611801878522
 21
1313.26900625284
 31
0.0
  0
LINE
  5
2355E
330
747D
100
AcDbEntity
  8
部品1
 48
50.0
100
AcDbLine
 10
4186.611801878493
 20
1232.26900625284
 30
0.0
 11
4186.6118018785
 21
1313.26900625284
 31
0.0
  0
LINE
  5
2355F
330
747D
100
AcDbEntity
  8
点線
 48
25.0
100
AcDbLine
 10
3873.611801878499
 20
1070.269006252836
 30
0.0
 11
3873.611801878499
 21
1370.269006252836
 31
0.0
  0
TEXT
  5
23560
330
747D
100
AcDbEntity
  8
寸法
 62
     7
 48
50.0
100
AcDbText
 10
3674.53078239824
 20
585.9245280965324
 30
0.0
 40
120.0
  1
M12でも可
  7
STYLE1
100
AcDbText
  0
LINE
  5
23561
330
747D
100
AcDbEntity
  8
細線
 48
50.0
100
AcDbLine
 10
3674.412599392105
 20
1050.269006252836
 30
0.0
 11
3669.053615543482
 21
1070.269006252836
 31
0.0
  0
LINE
  5
23562
330
747D
100
AcDbEntity
  8
細線
 48
50.0
100
AcDbLine
 10
3773.022655576162
 20
1050.269006252836
 30
0.0
 11
3767.66367172754
 21
1070.269006252836
 31
0.0
  0
LINE
  5
23563
330
747D
100
AcDbEntity
  8
点線
 48
25.0
100
AcDbLine
 10
3773.611801878498
 20
910.2690062528346
 30
0.0
 11
3773.611801878498
 21
1070.269006252836
 31
0.0
  0
LINE
  5
23564
330
747D
100
AcDbEntity
  8
細線
 48
50.0
100
AcDbLine
 10
3746.227736333058
 20
910.2690062528346
 30
0.0
 11
3740.868752484435
 21
930.26900625284
 31
0.0
  0
LINE
  5
23565
330
747D
100
AcDbEntity
  8
部品1
 48
50.0
100
AcDbLine
 10
4353.6118018785
 20
1220.269006252836
 30
0.0
 11
3993.611801878484
 21
1220.269006252839
 31
0.0
  0
LINE
  5
23566
330
747D
100
AcDbEntity
  8
部品1
 48
50.0
100
AcDbLine
 10
4353.6118018785
 20
1200.269006252836
 30
0.0
 11
3993.611801878498
 21
1200.269006252836
 31
0.0
  0
LINE
  5
23567
330
747D
100
AcDbEntity
  8
細線
 48
50.0
100
AcDbLine
 10
3970.242767944284
 20
1050.269006252836
 30
0.0
 11
3964.883784095663
 21
1070.269006252836
 31
0.0
  0
LINE
  5
23568
330
747D
100
AcDbEntity
  8
細線
 48
50.0
100
AcDbLine
 10
4068.852824128342
 20
1050.269006252833
 30
0.0
 11
4063.493840279719
 21
1070.269006252836
 31
0.0
  0
LINE
  5
23569
330
747D
100
AcDbEntity
  8
細線
 48
50.0
100
AcDbLine
 10
3871.632711760227
 20
1050.269006252836
 30
0.0
 11
3866.273727911604
 21
1070.269006252836
 31
0.0
  0
LINE
  5
2356A
330
747D
100
AcDbEntity
  8
細線
 48
50.0
100
AcDbLine
 10
3844.837792517115
 20
910.2690062528346
 30
0.0
 11
3839.478808668494
 21
930.26900625284
 31
0.0
  0
LINE
  5
2356B
330
747D
100
AcDbEntity
  8
細線
 48
50.0
100
AcDbLine
 10
3943.447848701179
 20
910.2690062528346
 30
0.0
 11
3938.088864852551
 21
930.2690062528435
 31
0.0
  0
LINE
  5
2356C
330
747D
100
AcDbEntity
  8
細線
 48
50.0
100
AcDbLine
 10
4042.057904885238
 20
910.2690062528326
 30
0.0
 11
4036.698921036613
 21
930.2690062528391
 31
0.0
  0
CIRCLE
  5
2356D
330
747D
100
AcDbEntity
  8
部品1
 48
50.0
100
AcDbCircle
 10
4013.611801878498
 20
1230.269006252836
 30
0.0
 40
10.0
  0
LINE
  5
2356E
330
747D
100
AcDbEntity
  8
部品1
 48
50.0
100
AcDbLine
 10
3993.611801878491
 20
1220.269006252836
 30
0.0
 11
3993.611801878498
 21
1200.269006252836
 31
0.0
  0
LINE
  5
2356F
330
747D
100
AcDbEntity
  8
細線
 48
50.0
100
AcDbLine
 10
4364.682992680523
 20
1050.269006252833
 30
0.0
 11
4359.324008831901
 21
1070.269006252833
 31
0.0
  0
LINE
  5
23570
330
747D
100
AcDbEntity
  8
細線
 48
50.0
100
AcDbLine
 10
4167.462880312405
 20
1050.269006252833
 30
0.0
 11
4162.103896463778
 21
1070.269006252836
 31
0.0
  0
LINE
  5
23571
330
747D
100
AcDbEntity
  8
細線
 48
50.0
100
AcDbLine
 10
4266.072936496466
 20
1050.269006252829
 30
0.0
 11
4260.71395264784
 21
1070.269006252834
 31
0.0
  0
LINE
  5
23572
330
747D
100
AcDbEntity
  8
細線
 48
50.0
100
AcDbLine
 10
4140.667961069297
 20
910.2690062528326
 30
0.0
 11
4135.308977220675
 21
930.2690062528418
 31
0.0
  0
LINE
  5
23573
330
747D
100
AcDbEntity
  8
細線
 48
50.0
100
AcDbLine
 10
4239.278017253357
 20
910.2690062528326
 30
0.0
 11
4233.919033404732
 21
930.2690062528391
 31
0.0
  0
LINE
  5
23574
330
747D
100
AcDbEntity
  8
細線
 48
50.0
100
AcDbLine
 10
4337.88807343742
 20
910.2690062528326
 30
0.0
 11
4332.529089588797
 21
930.2690062528418
 31
0.0
  0
LINE
  5
23575
330
747D
100
AcDbEntity
  8
細線
 48
50.0
100
AcDbLine
 10
4436.498129621477
 20
910.2690062528326
 30
0.0
 11
4431.139145772855
 21
930.2690062528391
 31
0.0
  0
CIRCLE
  5
23576
330
747D
100
AcDbEntity
  8
部品1
 48
50.0
100
AcDbCircle
 10
4173.611801878499
 20
1233.269006252836
 30
0.0
 40
13.0
  0
ARC
  5
23577
330
747D
100
AcDbEntity
  8
部品1
 48
50.0
100
AcDbCircle
 10
4172.611801878493
 20
1232.269006252839
 30
0.0
 40
32.0
100
AcDbArc
 50
180.0
 51
202.0243128370238
  0
ARC
  5
23578
330
747D
100
AcDbEntity
  8
部品1
 48
50.0
100
AcDbCircle
 10
4174.611801878515
 20
1232.26900625284
 30
0.0
 40
32.0
100
AcDbArc
 50
337.9756871629763
 51
0.0
  0
LINE
  5
23579
330
747D
100
AcDbEntity
  8
部品1
 48
50.0
100
AcDbLine
 10
4353.6118018785
 20
1200.269006252836
 30
0.0
 11
4353.6118018785
 21
1220.269006252836
 31
0.0
  0
CIRCLE
  5
2357A
330
747D
100
AcDbEntity
  8
部品1
 48
50.0
100
AcDbCircle
 10
4333.611801878499
 20
1230.269006252836
 30
0.0
 40
10.0
  0
LINE
  5
2357B
330
747D
100
AcDbEntity
  8
部品1
 48
50.0
100
AcDbLine
 10
3662.459937518696
 20
2150.269006252838
 30
0.0
 11
4293.6118018785
 21
2150.269006252836
 31
0.0
  0
LINE
  5
2357C
330
747D
100
AcDbEntity
  8
部品1
 48
50.0
100
AcDbLine
 10
4293.6118018785
 20
2150.269006252836
 30
0.0
 11
4293.6118018785
 21
1370.269006252836
 31
0.0
  0
LINE
  5
2357D
330
747D
100
AcDbEntity
  8
点線
 48
25.0
100
AcDbLine
 10
4053.611801878498
 20
1370.269006252836
 30
0.0
 11
4053.611801878498
 21
2150.269006252836
 31
0.0
  0
LINE
  5
2357E
330
747D
100
AcDbEntity
  8
点線
 48
25.0
100
AcDbLine
 10
3873.611801878499
 20
1370.269006252836
 30
0.0
 11
4053.611801878498
 21
1370.269006252836
 31
0.0
  0
LINE
  5
2357F
330
747D
100
AcDbEntity
  8
部品1
 48
50.0
100
AcDbLine
 10
4206.611801878522
 20
1313.26900625284
 30
0.0
 11
4186.611801878493
 21
1313.269006252839
 31
0.0
  0
ARC
  5
23580
330
747D
100
AcDbEntity
  8
部品1
 48
50.0
100
AcDbCircle
 10
4172.611801878493
 20
2038.269006252837
 30
0.0
 40
32.0
100
AcDbArc
 50
90.0
 51
180.0
  0
LINE
  5
23581
330
747D
100
AcDbEntity
  8
部品1
 48
50.0
100
AcDbLine
 10
4199.56822730139
 20
1900.269006252836
 30
0.0
 11
4199.56822730139
 21
2150.269006252836
 31
0.0
  0
LINE
  5
23582
330
747D
100
AcDbEntity
  8
部品1
 48
50.0
100
AcDbLine
 10
4226.56822730139
 20
1900.269006252836
 30
0.0
 11
4226.56822730139
 21
2150.269006252836
 31
0.0
  0
LINE
  5
23583
330
747D
100
AcDbEntity
  8
部品1
 48
50.0
100
AcDbLine
 10
4160.6118018785
 20
2038.269006252837
 30
0.0
 11
4160.6118018785
 21
1890.269006252839
 31
0.0
  0
LINE
  5
23584
330
747D
100
AcDbEntity
  8
部品1
 48
50.0
100
AcDbLine
 10
4140.611801878493
 20
2038.269006252837
 30
0.0
 11
4140.611801878494
 21
1890.269006252836
 31
0.0
  0
LINE
  5
23585
330
747D
100
AcDbEntity
  8
部品1
 48
50.0
100
AcDbLine
 10
4186.611801878493
 20
2038.269006252835
 30
0.0
 11
4186.6118018785
 21
1957.269006252834
 31
0.0
  0
LINE
  5
23586
330
747D
100
AcDbEntity
  8
部品1
 48
50.0
100
AcDbLine
 10
4139.568227301389
 20
1863.269006252836
 30
0.0
 11
4139.568227301389
 21
1890.269006252836
 31
0.0
  0
ARC
  5
23587
330
747D
100
AcDbEntity
  8
部品1
 48
50.0
100
AcDbCircle
 10
4189.568227301389
 20
1900.269006252836
 30
0.0
 40
37.0
100
AcDbArc
 50
270.0
 51
0.0
  0
LINE
  5
23588
330
747D
100
AcDbEntity
  8
部品1
 48
50.0
100
AcDbLine
 10
4189.568227301389
 20
1863.269006252836
 30
0.0
 11
4139.568227301389
 21
1863.269006252836
 31
0.0
  0
LINE
  5
23589
330
747D
100
AcDbEntity
  8
部品1
 48
50.0
100
AcDbLine
 10
4189.568227301389
 20
1890.269006252836
 30
0.0
 11
4139.568227301389
 21
1890.269006252836
 31
0.0
  0
ARC
  5
2358A
330
747D
100
AcDbEntity
  8
部品1
 48
50.0
100
AcDbCircle
 10
4189.568227301389
 20
1900.269006252836
 30
0.0
 40
10.0
100
AcDbArc
 50
270.0
 51
0.0
  0
LINE
  5
2358B
330
747D
100
AcDbEntity
  8
部品1
 48
50.0
100
AcDbLine
 10
4199.56822730139
 20
1957.269006252836
 30
0.0
 11
4186.611801878493
 21
1957.269006252836
 31
0.0
  0
LINE
  5
2358C
330
747D
100
AcDbEntity
  8
部品1
 48
50.0
100
AcDbLine
 10
4199.56822730139
 20
2210.576698560528
 30
0.0
 11
4226.56822730139
 21
2210.576698560528
 31
0.0
  0
LINE
  5
2358D
330
747D
100
AcDbEntity
  8
細線
 48
50.0
100
AcDbLine
 10
4230.56822730139
 20
2193.648495330255
 30
0.0
 11
4195.368227301385
 21
2184.216683756678
 31
0.0
  0
LINE
  5
2358E
330
747D
100
AcDbEntity
  8
部品1
100
AcDbLine
 10
4233.529765762929
 20
2176.115160098991
 30
0.0
 11
4192.606688839851
 21
2176.115160098991
 31
0.0
  0
ARC
  5
2358F
330
747D
100
AcDbEntity
  8
部品1
100
AcDbCircle
 10
4213.068227301382
 20
2140.266250550943
 30
0.0
 40
35.0848827120379
100
AcDbArc
 50
68.38687878204615
 51
111.6131212179538
  0
LINE
  5
23590
330
747D
100
AcDbEntity
  8
細線
 48
50.0
100
AcDbLine
 10
4230.56822730139
 20
2181.648495330255
 30
0.0
 11
4209.917539082993
 21
2176.115160098991
 31
0.0
  0
LINE
  5
23591
330
747D
100
AcDbEntity
  8
部品1
100
AcDbLine
 10
4200.145150378312
 20
2172.884390868222
 30
0.0
 11
4200.145150378312
 21
2154.576698560528
 31
0.0
  0
LINE
  5
23592
330
747D
100
AcDbEntity
  8
部品1
100
AcDbLine
 10
4236.760534993694
 20
2172.884390868222
 30
0.0
 11
4236.760534993694
 21
2154.576698560528
 31
0.0
  0
LINE
  5
23593
330
747D
100
AcDbEntity
  8
部品1
100
AcDbLine
 10
4225.99130422446
 20
2172.884390868223
 30
0.0
 11
4225.991304224463
 21
2154.576698560528
 31
0.0
  0
ARC
  5
23594
330
747D
100
AcDbEntity
  8
部品1
100
AcDbCircle
 10
4231.375919609077
 20
2167.829092957212
 30
0.0
 40
7.385805291860901
100
AcDbArc
 50
43.19325636893149
 51
136.8067436310685
  0
LINE
  5
23595
330
747D
100
AcDbEntity
  8
部品1
100
AcDbLine
 10
4236.760534993694
 20
2172.884390868222
 30
0.0
 11
4233.529765762929
 21
2176.115160098991
 31
0.0
  0
LINE
  5
23596
330
747D
100
AcDbEntity
  8
部品1
100
AcDbLine
 10
4241.068227301389
 20
2154.576698560528
 30
0.0
 11
4241.068227301389
 21
2150.269006252836
 31
0.0
  0
LINE
  5
23597
330
747D
100
AcDbEntity
  8
部品1
100
AcDbLine
 10
4185.06822730139
 20
2154.576698560528
 30
0.0
 11
4185.06822730139
 21
2150.269006252836
 31
0.0
  0
LINE
  5
23598
330
747D
100
AcDbEntity
  8
部品1
100
AcDbLine
 10
4189.375919609077
 20
2172.884390868223
 30
0.0
 11
4189.375919609077
 21
2154.576698560528
 31
0.0
  0
LINE
  5
23599
330
747D
100
AcDbEntity
  8
部品1
100
AcDbLine
 10
4236.760534993696
 20
2172.884390868223
 30
0.0
 11
4189.375919609077
 21
2172.884390868219
 31
0.0
  0
LINE
  5
2359A
330
747D
100
AcDbEntity
  8
部品1
100
AcDbLine
 10
4241.068227301389
 20
2154.576698560528
 30
0.0
 11
4185.06822730139
 21
2154.576698560528
 31
0.0
  0
ARC
  5
2359B
330
747D
100
AcDbEntity
  8
部品1
100
AcDbCircle
 10
4194.760534993695
 20
2167.829092957212
 30
0.0
 40
7.385805291860901
100
AcDbArc
 50
43.19325636893149
 51
136.8067436310685
  0
LINE
  5
2359C
330
747D
100
AcDbEntity
  8
部品1
100
AcDbLine
 10
4192.606688839851
 20
2176.115160098991
 30
0.0
 11
4189.375919609077
 21
2172.884390868223
 31
0.0
  0
LINE
  5
2359D
330
747D
100
AcDbEntity
  8
部品1
 48
50.0
100
AcDbLine
 10
4174.611801878515
 20
2070.269006252834
 30
0.0
 11
4172.611801878493
 21
2070.269006252837
 31
0.0
  0
ARC
  5
2359E
330
747D
100
AcDbEntity
  8
部品1
 48
50.0
100
AcDbCircle
 10
4174.611801878515
 20
2038.269006252835
 30
0.0
 40
32.0
100
AcDbArc
 50
38.74965111345967
 51
90.0
  0
CIRCLE
  5
2359F
330
747D
100
AcDbEntity
  8
部品1
 48
50.0
100
AcDbCircle
 10
4173.611801878499
 20
2037.269006252836
 30
0.0
 40
13.0
  0
LINE
  5
235A0
330
747D
100
AcDbEntity
  8
細線
 48
50.0
100
AcDbLine
 10
4230.56822730139
 20
2205.648495330251
 30
0.0
 11
4195.368227301385
 21
2196.216683756677
 31
0.0
  0
LINE
  5
235A1
330
747D
100
AcDbEntity
  8
部品1
 48
50.0
100
AcDbLine
 10
4199.568227301393
 20
2176.115160098991
 30
0.0
 11
4199.56822730139
 21
2210.576698560528
 31
0.0
  0
LINE
  5
235A2
330
747D
100
AcDbEntity
  8
部品1
 48
50.0
100
AcDbLine
 10
4226.568227301384
 20
2176.115160098991
 30
0.0
 11
4226.56822730139
 21
2210.576698560528
 31
0.0
  0
LINE
  5
235A3
330
747D
100
AcDbEntity
  8
部品1
 48
50.0
100
AcDbLine
 10
4473.6118018785
 20
1370.269006252836
 30
0.0
 11
4473.6118018785
 21
1070.269006252836
 31
0.0
  0
DIMENSION
  5
235A4
330
747D
100
AcDbEntity
  8
寸法
 48
50.0
100
AcDbDimension
  2
*D18
 10
5413.641619195058
 20
1150.269006252838
 30
0.0
 11
5413.641619195058
 21
1450.269006252838
 31
0.0
 70
   160
  1
300
 71
     5
 42
599.9999999999979
  3
INABA_S40G
100
AcDbAlignedDimension
 13
5587.40889569605
 23
1750.269006252836
 33
0.0
 14
5736.780709061457
 24
1150.269006252838
 34
0.0
 50
90.0
100
AcDbRotatedDimension
1001
ACAD
1000
DSTYLE
1002
{
1070
   174
1070
     0
1070
   272
1070
     1
1070
   279
1070
     1
1070
   288
1070
     0
1070
   341
1005
0
1002
}
  0
LINE
  5
235A5
330
747D
100
AcDbEntity
  8
細線
 48
50.0
100
AcDbLine
 10
4561.903105048646
 20
1050.269006252832
 30
0.0
 11
4556.544121200024
 21
1070.269006252833
 31
0.0
  0
LINE
  5
235A6
330
747D
100
AcDbEntity
  8
部品1
 48
50.0
100
AcDbLine
 10
4573.6118018785
 20
1070.269006252836
 30
0.0
 11
4573.6118018785
 21
910.2690062528363
 31
0.0
  0
LINE
  5
235A7
330
747D
100
AcDbEntity
  8
細線
 48
50.0
100
AcDbLine
 10
4535.108185805539
 20
910.2690062528326
 30
0.0
 11
4529.749201956913
 21
930.2690062528363
 31
0.0
  0
LINE
  5
235A8
102
{ACAD_REACTORS
330
23549
102
}
330
747D
100
AcDbEntity
  8
部品1
 48
50.0
100
AcDbLine
 10
5736.780709061457
 20
990.2690062528353
 30
0.0
 11
5736.780709061457
 21
1150.269006252837
 31
0.0
  0
TEXT
  5
235A9
330
747D
100
AcDbEntity
  8
寸法
 62
     7
 48
50.0
100
AcDbText
 10
4518.96248681498
 20
1871.068555655615
 30
0.0
 40
120.0
  1
▽G.L
  7
STYLE1
100
AcDbText
  0
LINE
  5
235AA
330
747D
100
AcDbEntity
  8
部品1
 48
50.0
100
AcDbLine
 10
8384.567666144096
 20
421.0919439444605
 30
0.0
 11
8384.567666144096
 21
261.0919439444606
 31
0.0
  0
LINE
  5
235AB
330
747D
100
AcDbEntity
  8
部品1
 48
50.0
100
AcDbLine
 10
6519.684174909361
 20
421.0919439444605
 30
0.0
 11
6519.684174909361
 21
261.0919439444606
 31
0.0
  0
TEXT
  5
235AC
330
747D
100
AcDbEntity
  8
部品1
 48
50.0
100
AcDbText
 10
5781.286610047602
 20
295.0842356769572
 30
0.0
 40
96.0
  1
Ｂ－Ｂ’断面
  7
STYLE2
100
AcDbText
  0
TEXT
  5
235AD
330
747D
100
AcDbEntity
  8
寸法
 62
     7
 48
50.0
100
AcDbText
 10
6632.630799457707
 20
1075.120820405909
 30
0.0
 40
120.0
  1
G.L-基礎天を
  7
STYLE1
100
AcDbText
  0
TEXT
  5
235AE
330
747D
100
AcDbEntity
  8
寸法
 62
     7
 48
50.0
100
AcDbText
 10
6632.630799457707
 20
751.0919263286905
 30
0.0
 40
120.0
  1
してください
  7
STYLE1
100
AcDbText
  0
TEXT
  5
235AF
330
747D
100
AcDbEntity
  8
寸法
 62
     7
 48
50.0
100
AcDbText
 10
6632.630799457707
 20
1233.867060242877
 30
0.0
 40
120.0
  1
柱前部は
  7
STYLE1
100
AcDbText
  0
TEXT
  5
235B0
330
747D
100
AcDbEntity
  8
寸法
 62
     7
 48
50.0
100
AcDbText
 10
6632.630799457707
 20
907.071322772912
 30
0.0
 40
120.0
  1
200mm以下と
  7
STYLE1
100
AcDbText
  0
DIMENSION
  5
235B1
330
747D
100
AcDbEntity
  8
寸法
 48
50.0
100
AcDbDimension
  2
*D32
 10
7511.803095126736
 20
1450.269006252838
 30
0.0
 11
7500.20434793014
 21
1825.793248707035
 31
0.0
 70
   160
  1
基礎天ヨリ\P350
 71
     5
 42
699.9999999999982
  3
INABA_S40G
100
AcDbAlignedDimension
 13
6311.780709061453
 23
2150.269006252836
 33
0.0
 14
6191.780709061458
 24
1450.269006252838
 34
0.0
 50
90.0
100
AcDbRotatedDimension
1001
ACAD
1000
DSTYLE
1002
{
1070
   174
1070
     0
1070
   272
1070
     1
1070
   279
1070
     1
1070
   288
1070
     0
1070
   341
1005
0
1002
}
  0
HATCH
  5
235B2
330
747D
100
AcDbEntity
  8
細線
 48
50.0
100
AcDbHatch
 10
0.0
 20
0.0
 30
0.0
210
0.0
220
0.0
230
1.0
  2
PLAST
 70
     0
 71
     1
 91
        1
 92
        7
 72
     0
 73
     1
 93
       19
 10
6081.780709061457
 20
1450.269006252835
 10
6081.780709061458
 20
1541.269006252837
 10
5936.780709061462
 20
1541.269006252834
 10
5936.780709061458
 20
1559.269006252834
 10
6081.780709061458
 20
1559.269006252834
 10
6081.780709061457
 20
1750.269006252836
 10
6032.851637694687
 20
1750.269006252836
 10
5786.780709061456
 20
1750.269006252836
 10
5786.780709061464
 20
1150.269006252835
 10
6486.780709061455
 20
1150.269006252839
 10
6486.780709061455
 20
1750.269006252836
 10
6287.780709061456
 20
1750.269006252837
 10
6287.780709061458
 20
1650.269006252836
 10
6191.780709061456
 20
1650.269006252839
 10
6191.780709061456
 20
1559.269006252836
 10
6336.780709061453
 20
1559.269006252839
 10
6336.780709061453
 20
1541.269006252839
 10
6191.780709061458
 20
1541.269006252835
 10
6191.780709061458
 20
1450.269006252839
 97
       17
330
235C8
330
23540
330
235D6
330
23541
330
235D5
330
235D7
330
235D4
330
235CF
330
23542
330
235D0
330
235D2
330
235D1
330
235D3
330
23548
330
235B4
330
235B5
330
235B3
 75
     0
 76
     1
 52
45.0
 41
30.0
 77
     0
 78
     3
 53
45.0
 43
8932.816831984412
 44
-1815.550206627229
 45
-134.7038418160373
 46
134.7038418160373
 79
     0
 53
45.0
 43
8915.978851757406
 44
-1798.712226400224
 45
-134.7038418160373
 46
134.7038418160373
 79
     0
 53
45.0
 43
8899.140871530404
 44
-1781.87424617322
 45
-134.7038418160373
 46
134.7038418160373
 79
     0
 47
2.647452413107734
 98
        1
 10
6057.165259686008
 20
1344.47453012796
  0
LINE
  5
235B3
102
{ACAD_REACTORS
330
235B2
102
}
330
747D
100
AcDbEntity
  8
部品1
 48
50.0
100
AcDbLine
 10
6486.780709061453
 20
1150.269006252839
 30
0.0
 11
6486.780709061455
 21
1750.269006252836
 31
0.0
  0
LINE
  5
235B4
102
{ACAD_REACTORS
330
235B2
102
}
330
747D
100
AcDbEntity
  8
部品1
 48
50.0
100
AcDbLine
 10
5786.780709061463
 20
1150.269006252835
 30
0.0
 11
5786.780709061456
 21
1750.269006252836
 31
0.0
  0
LINE
  5
235B5
102
{ACAD_REACTORS
330
235B2
102
}
330
747D
100
AcDbEntity
  8
部品1
 48
50.0
100
AcDbLine
 10
5786.780709061463
 20
1150.269006252835
 30
0.0
 11
6486.780709061453
 21
1150.269006252839
 31
0.0
  0
LINE
  5
235B6
330
747D
100
AcDbEntity
  8
細線
 48
50.0
100
AcDbLine
 10
5903.049083640127
 20
990.2690062528353
 30
0.0
 11
5897.690099791498
 21
1010.269006252844
 31
0.0
  0
LINE
  5
235B7
330
747D
100
AcDbEntity
  8
細線
 48
50.0
100
AcDbLine
 10
5804.439027456062
 20
990.2690062528353
 30
0.0
 11
5799.080043607441
 21
1010.26900625284
 31
0.0
  0
LINE
  5
235B8
330
747D
100
AcDbEntity
  8
細線
 48
50.0
100
AcDbLine
 10
6100.269196008243
 20
990.2690062528327
 30
0.0
 11
6094.910212159621
 21
1010.269006252842
 31
0.0
  0
LINE
  5
235B9
330
747D
100
AcDbEntity
  8
細線
 48
50.0
100
AcDbLine
 10
6001.659139824186
 20
990.2690062528327
 30
0.0
 11
5996.300155975561
 21
1010.269006252839
 31
0.0
  0
LINE
  5
235BA
330
747D
100
AcDbEntity
  8
細線
 48
50.0
100
AcDbLine
 10
5929.844002883232
 20
1130.269006252837
 30
0.0
 11
5924.48501903461
 21
1150.269006252837
 31
0.0
  0
LINE
  5
235BB
330
747D
100
AcDbEntity
  8
細線
 48
50.0
100
AcDbLine
 10
5831.233946699175
 20
1130.269006252837
 30
0.0
 11
5825.874962850551
 21
1150.269006252837
 31
0.0
  0
LINE
  5
235BC
330
747D
100
AcDbEntity
  8
細線
 48
50.0
100
AcDbLine
 10
6028.454059067289
 20
1130.269006252833
 30
0.0
 11
6023.095075218667
 21
1150.269006252837
 31
0.0
  0
LINE
  5
235BD
330
747D
100
AcDbEntity
  8
細線
 48
50.0
100
AcDbLine
 10
6198.879252192305
 20
990.2690062528327
 30
0.0
 11
6193.520268343679
 21
1010.269006252839
 31
0.0
  0
LINE
  5
235BE
330
747D
100
AcDbEntity
  8
細線
 48
50.0
100
AcDbLine
 10
6297.489308376365
 20
990.2690062528327
 30
0.0
 11
6292.130324527743
 21
1010.269006252842
 31
0.0
  0
LINE
  5
235BF
330
747D
100
AcDbEntity
  8
細線
 48
50.0
100
AcDbLine
 10
6396.099364560424
 20
990.2690062528327
 30
0.0
 11
6390.7403807118
 21
1010.269006252839
 31
0.0
  0
LINE
  5
235C0
330
747D
100
AcDbEntity
  8
細線
 48
50.0
100
AcDbLine
 10
6127.064115251353
 20
1130.269006252833
 30
0.0
 11
6121.705131402725
 21
1150.269006252837
 31
0.0
  0
LINE
  5
235C1
330
747D
100
AcDbEntity
  8
細線
 48
50.0
100
AcDbLine
 10
6225.674171435412
 20
1130.26900625283
 30
0.0
 11
6220.315187586788
 21
1150.269006252835
 31
0.0
  0
LINE
  5
235C2
330
747D
100
AcDbEntity
  8
細線
 48
50.0
100
AcDbLine
 10
6324.28422761947
 20
1130.269006252833
 30
0.0
 11
6318.925243770848
 21
1150.269006252832
 31
0.0
  0
LINE
  5
235C3
330
747D
100
AcDbEntity
  8
細線
 48
50.0
100
AcDbLine
 10
6422.894283803535
 20
1130.26900625283
 30
0.0
 11
6417.535299954909
 21
1150.269006252835
 31
0.0
  0
LINE
  5
235C4
102
{ACAD_REACTORS
330
23549
102
}
330
747D
100
AcDbEntity
  8
部品1
 48
50.0
100
AcDbLine
 10
6536.780709061457
 20
1150.269006252837
 30
0.0
 11
6536.780709061457
 21
990.2690062528373
 31
0.0
  0
LINE
  5
235C5
330
747D
100
AcDbEntity
  8
細線
 48
50.0
100
AcDbLine
 10
6494.709420744486
 20
990.2690062528327
 30
0.0
 11
6489.350436895858
 21
1010.269006252837
 31
0.0
  0
LINE
  5
235C6
330
747D
100
AcDbEntity
  8
細線
 48
50.0
100
AcDbLine
 10
6521.504339987592
 20
1130.269006252832
 30
0.0
 11
6516.14535613897
 21
1150.269006252832
 31
0.0
  0
HATCH
  5
235C7
330
747D
100
AcDbEntity
  8
細線
 48
50.0
100
AcDbHatch
 10
0.0
 20
0.0
 30
0.0
210
0.0
220
0.0
230
1.0
  2
PLAST
 70
     0
 71
     0
 91
        1
 92
        7
 72
     0
 73
     1
 93
        6
 10
6287.780709061458
 20
1950.26900625284
 10
6287.780709061459
 20
1750.269006252836
 10
6486.780709061457
 20
1750.269006252836
 10
6486.780709061457
 20
1710.269006252836
 10
6766.780709061452
 20
1710.269006252842
 10
6766.780709061452
 20
1950.26900625284
 97
        0
 75
     0
 76
     1
 52
135.0
 41
30.0
 77
     0
 78
     3
 53
135.0
 43
8932.816831984412
 44
-1815.550206627229
 45
-134.7038418160373
 46
-134.7038418160373
 79
     0
 53
135.0
 43
8915.978851757406
 44
-1832.388186854235
 45
-134.7038418160373
 46
-134.7038418160373
 79
     0
 53
135.0
 43
8899.140871530404
 44
-1849.226167081238
 45
-134.7038418160373
 46
-134.7038418160373
 79
     0
 47
6.775378687366009
 98
        1
 10
6576.320005212095
 20
1848.68053900566
  0
LINE
  5
235C8
102
{ACAD_REACTORS
330
235B2
102
}
330
747D
100
AcDbEntity
  8
部品1
 48
50.0
100
AcDbLine
 10
6287.780709061455
 20
1750.269006252837
 30
0.0
 11
6486.780709061455
 21
1750.269006252836
 31
0.0
  0
CIRCLE
  5
235C9
330
747D
100
AcDbEntity
  8
点線
 48
10.0
100
AcDbCircle
 10
6431.730071481672
 20
1842.088189931155
 30
0.0
 40
10.0
  0
LINE
  5
235CA
330
747D
100
AcDbEntity
  8
点線
 48
10.0
100
AcDbLine
 10
6407.780709061455
 20
1832.088189931156
 30
0.0
 11
6766.780709061453
 21
1832.088189931155
 31
0.0
  0
LINE
  5
235CB
330
747D
100
AcDbEntity
  8
点線
 48
10.0
100
AcDbLine
 10
6407.780709061455
 20
1812.088189931156
 30
0.0
 11
6766.780709061453
 21
1812.088189931154
 31
0.0
  0
LINE
  5
235CC
330
747D
100
AcDbEntity
  8
部品1
 48
50.0
100
AcDbLine
 10
6287.780709061455
 20
1950.26900625284
 30
0.0
 11
6766.780709061452
 21
1950.26900625284
 31
0.0
  0
DIMENSION
  5
235CD
330
747D
100
AcDbEntity
  8
寸法
 48
50.0
100
AcDbDimension
  2
*D33
 10
7039.41220019066
 20
1650.269006252836
 30
0.0
 11
6939.400389167038
 21
1900.269006252837
 31
0.0
 70
    32
  1
250
 71
     5
 42
500.0
  3
INABA_S40G
100
AcDbAlignedDimension
 13
6311.780709061453
 23
2150.269006252836
 33
0.0
 14
6287.780709061459
 24
1650.269006252836
 34
0.0
 50
90.0
100
AcDbRotatedDimension
1001
ACAD
1000
DSTYLE
1002
{
1070
   174
1070
     0
1070
   272
1070
     1
1070
   279
1070
     1
1070
   288
1070
     0
1070
   341
1005
0
1002
}
  0
LINE
  5
235CE
330
747D
100
AcDbEntity
  8
部品1
 48
50.0
100
AcDbLine
 10
6071.780709061451
 20
1750.269006252836
 30
0.0
 11
6071.780709061453
 21
2150.269006252836
 31
0.0
  0
LINE
  5
235CF
102
{ACAD_REACTORS
330
235B2
102
}
330
747D
100
AcDbEntity
  8
部品1
 48
50.0
100
AcDbLine
 10
6081.780709061457
 20
1450.269006252837
 30
0.0
 11
6191.780709061458
 21
1450.269006252839
 31
0.0
  0
LINE
  5
235D0
102
{ACAD_REACTORS
330
235B2
102
}
330
747D
100
AcDbEntity
  8
部品1
 48
50.0
100
AcDbLine
 10
5936.780709061457
 20
1541.269006252834
 30
0.0
 11
6081.780709061462
 21
1541.269006252836
 31
0.0
  0
LINE
  5
235D1
102
{ACAD_REACTORS
330
235B2
102
}
330
747D
100
AcDbEntity
  8
部品1
 48
50.0
100
AcDbLine
 10
5936.780709061457
 20
1559.269006252834
 30
0.0
 11
6081.780709061462
 21
1559.269006252834
 31
0.0
  0
LINE
  5
235D2
102
{ACAD_REACTORS
330
235B2
102
}
330
747D
100
AcDbEntity
  8
部品1
 48
50.0
100
AcDbLine
 10
5936.780709061462
 20
1541.269006252834
 30
0.0
 11
5936.780709061457
 21
1559.269006252834
 31
0.0
  0
LINE
  5
235D3
102
{ACAD_REACTORS
330
235B2
102
}
330
747D
100
AcDbEntity
  8
部品1
 48
50.0
100
AcDbLine
 10
6032.851637694687
 20
1750.269006252836
 30
0.0
 11
6081.780709061455
 21
1750.269006252836
 31
0.0
  0
LINE
  5
235D4
102
{ACAD_REACTORS
330
235B2
102
}
330
747D
100
AcDbEntity
  8
部品1
 48
50.0
100
AcDbLine
 10
6191.780709061458
 20
1541.269006252834
 30
0.0
 11
6336.780709061457
 21
1541.269006252839
 31
0.0
  0
LINE
  5
235D5
102
{ACAD_REACTORS
330
235B2
102
}
330
747D
100
AcDbEntity
  8
部品1
 48
50.0
100
AcDbLine
 10
6191.780709061458
 20
1559.269006252836
 30
0.0
 11
6336.780709061457
 21
1559.269006252839
 31
0.0
  0
LINE
  5
235D6
102
{ACAD_REACTORS
330
235B2
102
}
330
747D
100
AcDbEntity
  8
部品1
 48
50.0
100
AcDbLine
 10
6191.780709061454
 20
1650.269006252839
 30
0.0
 11
6287.780709061458
 21
1650.269006252836
 31
0.0
  0
LINE
  5
235D7
102
{ACAD_REACTORS
330
235B2
102
}
330
747D
100
AcDbEntity
  8
部品1
 48
50.0
100
AcDbLine
 10
6336.780709061454
 20
1541.269006252836
 30
0.0
 11
6336.780709061454
 21
1559.269006252836
 31
0.0
  0
LINE
  5
235D8
330
747D
100
AcDbEntity
  8
部品1
 48
50.0
100
AcDbLine
 10
6081.780709061455
 20
2160.269006252838
 30
0.0
 11
6052.780709061455
 21
2160.269006252836
 31
0.0
  0
LINE
  5
235D9
330
747D
100
AcDbEntity
  8
部品1
 48
50.0
100
AcDbLine
 10
6052.780709061455
 20
2130.269006252836
 30
0.0
 11
6052.780709061454
 21
2160.269006252836
 31
0.0
  0
LINE
  5
235DA
330
747D
100
AcDbEntity
  8
部品1
 48
50.0
100
AcDbLine
 10
6071.780709061453
 20
2150.269006252836
 30
0.0
 11
6081.780709061454
 21
2150.269006252839
 31
0.0
  0
LINE
  5
235DB
330
747D
100
AcDbEntity
  8
点線
 48
5.0
100
AcDbLine
 10
6097.780709061455
 20
2160.269006252838
 30
0.0
 11
6081.780709061455
 21
2160.269006252838
 31
0.0
  0
LINE
  5
235DC
330
747D
100
AcDbEntity
  8
部品1
 48
50.0
100
AcDbLine
 10
6311.780709061453
 20
2150.269006252836
 30
0.0
 11
6311.780709061451
 21
1950.26900625284
 31
0.0
  0
LINE
  5
235DD
330
747D
100
AcDbEntity
  8
点線
 48
10.0
100
AcDbLine
 10
6407.780709061455
 20
1832.088189931156
 30
0.0
 11
6407.780709061457
 21
1812.088189931155
 31
0.0
  0
LINE
  5
235DE
330
747D
100
AcDbEntity
  8
点線
 48
5.0
100
AcDbLine
 10
6194.780709061455
 20
2214.269006252836
 30
0.0
 11
6241.780709061455
 21
2214.269006252836
 31
0.0
  0
LINE
  5
235DF
330
747D
100
AcDbEntity
  8
点線
 48
5.0
100
AcDbLine
 10
6241.780709061455
 20
2214.269006252836
 30
0.0
 11
6241.780709061455
 21
2150.269006252836
 31
0.0
  0
LINE
  5
235E0
330
747D
100
AcDbEntity
  8
点線
 48
5.0
100
AcDbLine
 10
6241.780709061455
 20
2150.269006252836
 30
0.0
 11
6225.780709061456
 21
2150.269006252836
 31
0.0
  0
LINE
  5
235E1
330
747D
100
AcDbEntity
  8
部品1
 48
50.0
100
AcDbLine
 10
6287.780709061453
 20
2150.269006252836
 30
0.0
 11
6311.780709061453
 21
2150.269006252836
 31
0.0
  0
LINE
  5
235E2
330
747D
100
AcDbEntity
  8
部品1
 48
50.0
100
AcDbLine
 10
6486.780709061455
 20
1556.26900625284
 30
0.0
 11
6766.780709061452
 21
1556.26900625284
 31
0.0
  0
LINE
  5
235E3
330
747D
100
AcDbEntity
  8
部品1
 48
50.0
100
AcDbLine
 10
6486.780709061455
 20
1710.269006252836
 30
0.0
 11
6766.780709061452
 21
1710.269006252841
 31
0.0
  0
LINE
  5
235E4
330
747D
100
AcDbEntity
  8
部品1
 48
50.0
100
AcDbLine
 10
6486.780709061455
 20
1676.26900625284
 30
0.0
 11
6766.780709061452
 21
1676.26900625284
 31
0.0
  0
LWPOLYLINE
  5
235E5
330
747D
100
AcDbEntity
  8
部品1
 48
50.0
100
AcDbPolyline
 90
        3
 70
     0
 43
15.0
 10
6486.780709061459
 20
1693.26900625284
 10
6766.780709061457
 20
1693.26900625284
 42
-0.0003106600707159
 10
6766.780709061457
 20
1693.26900625284
 42
0.0022790066601718
  0
LINE
  5
235E6
330
747D
100
AcDbEntity
  8
細線
 48
50.0
100
AcDbLine
 10
6564.461543562444
 20
1556.269006252841
 30
0.0
 11
6596.615446654178
 21
1676.269006252837
 31
0.0
  0
LINE
  5
235E7
330
747D
100
AcDbEntity
  8
細線
 48
50.0
100
AcDbLine
 10
6492.646406621502
 20
1656.26900625284
 30
0.0
 11
6487.287422772879
 21
1676.26900625284
 31
0.0
  0
LINE
  5
235E8
330
747D
100
AcDbEntity
  8
細線
 48
50.0
100
AcDbLine
 10
6591.256462805559
 20
1656.269006252836
 30
0.0
 11
6585.897478956937
 21
1676.26900625284
 31
0.0
  0
LINE
  5
235E9
330
747D
100
AcDbEntity
  8
細線
 48
50.0
100
AcDbLine
 10
6575.179511259695
 20
1556.26900625284
 30
0.0
 11
6569.820527411069
 21
1576.269006252844
 31
0.0
  0
LINE
  5
235EA
330
747D
100
AcDbEntity
  8
細線
 48
50.0
100
AcDbLine
 10
6486.780709061452
 20
1634.377924936916
 30
0.0
 11
6498.005390470119
 21
1676.269006252837
 31
0.0
  0
LINE
  5
235EB
330
747D
100
AcDbEntity
  8
細線
 48
50.0
100
AcDbLine
 10
6689.866518989616
 20
1656.269006252836
 30
0.0
 11
6684.507535140994
 21
1676.26900625284
 31
0.0
  0
LINE
  5
235EC
330
747D
100
AcDbEntity
  8
細線
 48
50.0
100
AcDbLine
 10
6673.789567443757
 20
1556.26900625284
 30
0.0
 11
6668.430583595131
 21
1576.269006252848
 31
0.0
  0
LINE
  5
235ED
330
747D
100
AcDbEntity
  8
細線
 48
50.0
100
AcDbLine
 10
6663.071599746505
 20
1556.269006252841
 30
0.0
 11
6695.225502838238
 21
1676.269006252837
 31
0.0
  0
LINE
  5
235EE
330
747D
100
AcDbEntity
  8
細線
 48
50.0
100
AcDbLine
 10
6761.68165593057
 20
1556.26900625284
 30
0.0
 11
6766.780709061459
 21
1575.298931607793
 31
0.0
  0
TEXT
  5
235EF
330
747D
100
AcDbEntity
  8
寸法
 62
     7
 48
50.0
100
AcDbText
 10
6437.337877191365
 20
1968.99526749599
 30
0.0
 40
120.0
  1
▽F.L
  7
STYLE1
100
AcDbText
  0
CIRCLE
  5
235F0
330
747D
100
AcDbEntity
  8
点線
 48
10.0
100
AcDbCircle
 10
6631.730071481673
 20
1842.088189931154
 30
0.0
 40
10.0
  0
DIMENSION
  5
235F1
330
747D
100
AcDbEntity
  8
寸法
 48
50.0
100
AcDbDimension
  2
*D34
 10
7886.553090048458
 20
1491.776152254189
 30
0.0
 11
7886.553090048458
 21
1155.377721128876
 31
0.0
 70
   160
  1
\U+25A1350穴
 71
     5
 42
699.9999999999982
  3
INABA_S40G
100
AcDbAlignedDimension
 13
8221.469758997649
 23
791.7761522541905
 33
0.0
 14
8221.469758997647
 24
1491.776152254189
 34
0.0
 50
90.0
100
AcDbRotatedDimension
1001
ACAD
1000
DSTYLE
1002
{
1070
   174
1070
     0
1070
   272
1070
     1
1070
   288
1070
     0
1070
   341
1005
0
1002
}
  0
LINE
  5
235F2
330
747D
100
AcDbEntity
  8
部品1
 48
50.0
100
AcDbLine
 10
8221.469758997649
 20
791.7761522541895
 30
0.0
 11
8221.469758997647
 21
1491.776152254189
 31
0.0
  0
ARC
  5
235F3
330
747D
100
AcDbEntity
  8
細線
 48
50.0
100
AcDbCircle
 10
5827.595788711538
 20
2925.935479658208
 30
0.0
 40
80.0
100
AcDbArc
 50
180.0
 51
270.0
  0
ARC
  5
235F4
330
747D
100
AcDbEntity
  8
細線
 48
50.0
100
AcDbCircle
 10
5827.595788711538
 20
3005.935479658208
 30
0.0
 40
80.0
100
AcDbArc
 50
90.0
 51
180.0
  0
MTEXT
  5
235F5
102
{ACAD_REACTORS
330
235F6
102
}
330
747D
100
AcDbEntity
  8
寸法
 62
     7
 48
50.0
100
AcDbMText
 10
5942.322159675741
 20
2444.381463268197
 30
0.0
 40
120.0
 41
0.0
 71
     9
 72
     1
  1
柱前左
  7
STYLE1
 73
     1
 44
1.0
1001
ACAD
1000
MTEXTBEGIN
1070
    73
1070
     1
1070
    44
1040
1.0
1070
    74
1070
     0
1000
MTEXTEND
  0
LEADER
  5
235F6
330
747D
100
AcDbEntity
  8
寸法
 48
50.0
100
AcDbLeader
  3
INABA_S50G詳細用
 71
     0
 73
     0
 75
     1
 40
120.0
 41
407.9999999999998
 76
     3
 10
6116.280709061457
 20
2353.599841918576
 30
0.0
 10
6092.322159675742
 20
2419.381463268197
 30
0.0
 10
5967.322159675742
 20
2419.381463268197
 30
0.0
340
235F5
1001
ACAD
1000
DSTYLE
1002
{
1070
    40
1040
1.0
1070
    77
1070
     1
1002
}
  0
LINE
  5
235F7
330
747D
100
AcDbEntity
  8
細線
 48
50.0
100
AcDbLine
 10
5747.595788711539
 20
2925.935479658208
 30
0.0
 11
5747.595788711539
 21
3005.935479658208
 31
0.0
  0
TEXT
  5
235F8
330
747D
100
AcDbEntity
  8
文字
 62
     7
 48
50.0
100
AcDbText
 10
6900.280021561581
 20
2916.876289152489
 30
0.0
 40
100.0
  1
S=1/20
  7
STYLE2
100
AcDbText
  0
LINE
  5
235F9
330
747D
100
AcDbEntity
  8
細線
 48
50.0
100
AcDbLine
 10
7354.635950109162
 20
2845.935479658208
 30
0.0
 11
5827.595788711538
 21
2845.935479658208
 31
0.0
  0
LINE
  5
235FA
330
747D
100
AcDbEntity
  8
細線
 48
50.0
100
AcDbLine
 10
5827.595788711538
 20
3085.935479658208
 30
0.0
 11
7354.635950109162
 21
3085.935479658208
 31
0.0
  0
MTEXT
  5
235FB
102
{ACAD_REACTORS
330
235FC
102
}
330
747D
100
AcDbEntity
  8
寸法
 62
     7
 48
50.0
100
AcDbMText
 10
6436.047701821708
 20
2425.638155763547
 30
0.0
 40
120.0
 41
0.0
 71
     7
 72
     1
  1
\A1;シャッター\Pレール
  7
STYLE1
 73
     1
 44
0.6800000000000001
1001
ACAD
1000
MTEXTBEGIN
1070
    73
1070
     1
1070
    44
1040
0.6800000000000001
1070
    74
1070
     0
1000
MTEXTEND
  0
LEADER
  5
235FC
330
747D
100
AcDbEntity
  8
寸法
 48
50.0
100
AcDbLeader
  3
INABA_S40G
 71
     0
 73
     0
 74
     0
 75
     1
 40
256.0
 41
685.9999999999996
 76
     3
 10
6263.522114218677
 20
2260.883445575158
 30
0.0
 10
6296.047701821708
 20
2385.638155763547
 30
0.0
 10
6396.047701821708
 20
2385.638155763547
 30
0.0
340
235FB
1001
ACAD
1000
DSTYLE
1002
{
1070
   174
1070
     0
1070
   272
1070
     1
1070
   279
1070
     1
1070
   288
1070
     0
1070
   341
1005
0
1002
}
  0
TEXT
  5
235FD
330
747D
100
AcDbEntity
  8
部品1
 48
50.0
100
AcDbText
 10
5848.344863643217
 20
2911.022261471273
 30
0.0
 40
112.0
  1
基礎詳細図
  7
STYLE2
100
AcDbText
  0
LINE
  5
235FE
330
747D
100
AcDbEntity
  8
点線
 48
5.0
100
AcDbLine
 10
6093.780709061455
 20
2250.269006252837
 30
0.0
 11
6138.780709061455
 21
2250.269006252837
 31
0.0
  0
LINE
  5
235FF
330
747D
100
AcDbEntity
  8
点線
 48
5.0
100
AcDbLine
 10
6081.780709061455
 20
2235.269006252837
 30
0.0
 11
6093.780709061455
 21
2238.269006252837
 31
0.0
  0
LINE
  5
23600
330
747D
100
AcDbEntity
  8
点線
 48
5.0
100
AcDbLine
 10
6093.780709061455
 20
2238.269006252837
 30
0.0
 11
6093.780709061455
 21
2250.269006252837
 31
0.0
  0
LINE
  5
23601
330
747D
100
AcDbEntity
  8
点線
 48
5.0
100
AcDbLine
 10
6138.780709061455
 20
2250.269006252837
 30
0.0
 11
6138.780709061455
 21
2262.269006252837
 31
0.0
  0
LINE
  5
23602
330
747D
100
AcDbEntity
  8
点線
 48
5.0
100
AcDbLine
 10
6138.780709061455
 20
2262.269006252837
 30
0.0
 11
6141.780709061455
 21
2262.269006252837
 31
0.0
  0
LINE
  5
23603
330
747D
100
AcDbEntity
  8
点線
 48
5.0
100
AcDbLine
 10
6141.780709061455
 20
2262.269006252837
 30
0.0
 11
6141.780709061455
 21
2274.269006252837
 31
0.0
  0
LINE
  5
23604
330
747D
100
AcDbEntity
  8
点線
 48
5.0
100
AcDbLine
 10
6141.780709061455
 20
2274.269006252837
 30
0.0
 11
6194.780709061455
 21
2274.269006252837
 31
0.0
  0
ARC
  5
23605
330
747D
100
AcDbEntity
  8
細線
 48
50.0
100
AcDbCircle
 10
7354.635950109162
 20
3005.935479658208
 30
0.0
 40
80.0
100
AcDbArc
 50
0.0
 51
90.0
  0
ARC
  5
23606
330
747D
100
AcDbEntity
  8
細線
 48
50.0
100
AcDbCircle
 10
7354.635950109162
 20
2925.935479658208
 30
0.0
 40
80.0
100
AcDbArc
 50
270.0
 51
0.0
  0
LINE
  5
23607
330
747D
100
AcDbEntity
  8
細線
 48
50.0
100
AcDbLine
 10
7434.635950109161
 20
3005.935479658208
 30
0.0
 11
7434.635950109161
 21
2925.935479658208
 31
0.0
  0
LINE
  5
23608
330
747D
100
AcDbEntity
  8
細線
 48
50.0
100
AcDbLine
 10
7434.635950109161
 20
2925.935479658208
 30
0.0
 11
7434.635950109161
 21
2925.935479658208
 31
0.0
  0
DIMENSION
  5
23609
330
747D
100
AcDbEntity
  8
寸法
 48
50.0
100
AcDbDimension
  2
*D35
 10
6377.917420526706
 20
9480.613565556053
 30
0.0
 11
6137.917420526706
 21
9480.613565556053
 31
0.0
 70
   160
 71
     5
 42
75.00000000018554
  3
INABA_S40G
100
AcDbAlignedDimension
 13
6452.917420526891
 23
8760.503905649281
 33
0.0
 14
6377.917420526706
 24
8760.503905649281
 34
0.0
100
AcDbRotatedDimension
1001
ACAD
1000
DSTYLE
1002
{
1070
   174
1070
     0
1070
   272
1070
     1
1070
   279
1070
     1
1070
   288
1070
     0
1070
   341
1005
0
1002
}
  0
DIMENSION
  5
2360A
330
747D
100
AcDbEntity
  8
寸法
 48
50.0
100
AcDbDimension
  2
*D36
 10
6377.917420526706
 20
9780.779765297413
 30
0.0
 11
6025.199144023632
 21
9780.779765297413
 31
0.0
 70
   160
  1
a
 71
     5
 42
45.0
  3
INABA_S40G
100
AcDbAlignedDimension
 13
6332.917420526706
 23
9613.05988234068
 33
0.0
 14
6377.917420526706
 24
8760.503905649281
 34
0.0
100
AcDbRotatedDimension
1001
ACAD
1000
DSTYLE
1002
{
1070
   174
1070
     0
1070
   272
1070
     1
1070
   279
1070
     1
1070
   288
1070
     0
1070
   341
1005
0
1002
}
  0
MTEXT
  5
2360B
102
{ACAD_REACTORS
330
2360E
102
}
330
747D
100
AcDbEntity
  8
部品1
 62
     7
 48
50.0
100
AcDbMText
 10
5929.282167948046
 20
9135.784063094135
 30
0.0
 40
120.0
 41
0.0
 71
     6
 72
     1
  1
アンカーボルト芯(2ヶ所)
  7
STYLE1
 73
     1
 44
1.0
1001
ACAD
1000
MTEXTBEGIN
1070
    73
1070
     1
1070
    44
1040
1.0
1070
    74
1070
     0
1000
MTEXTEND
  0
LEADER
  5
2360C
330
747D
100
AcDbEntity
  8
寸法
 48
50.0
100
AcDbLeader
  3
INABA_S50G
 73
     0
 75
     1
 40
326.0000000000002
 41
1730.349242404918
 76
     3
 10
6369.628721185278
 20
5598.386179582909
 30
0.0
 10
6092.563240419615
 20
4977.875439798282
 30
0.0
 10
5967.563240419615
 20
4977.875439798282
 30
0.0
340
2360D
1001
ACAD
1000
DSTYLE
1002
{
1070
   341
1005
0
1070
    40
1040
1.0
1070
   343
1005
0
1070
   344
1005
0
1002
}
  0
MTEXT
  5
2360D
102
{ACAD_REACTORS
330
2360C
102
}
330
747D
100
AcDbEntity
  8
寸法
 62
     7
 48
50.0
100
AcDbMText
 10
5942.563240419615
 20
5165.875439798281
 30
0.0
 40
120.0
 41
0.0
 71
     6
 72
     1
  1
\A1;柱埋込用穴(深サ:300)\P組立後現場打コンクリート
  7
STYLE1
 73
     1
 44
1.0
1001
ACAD
1000
MTEXTBEGIN
1070
    73
1070
     1
1070
    44
1040
1.0
1070
    74
1070
     0
1000
MTEXTEND
  0
LEADER
  5
2360E
330
747D
100
AcDbEntity
  8
寸法
 48
50.0
100
AcDbLeader
  3
INABA_S50G
 71
     0
 73
     0
 75
     1
 40
132.0
 41
1601.952755905511
 76
     3
 10
6452.917420526891
 20
8710.503905649281
 30
0.0
 10
6079.282167948046
 20
9044.784063094136
 30
0.0
 10
5954.282167948046
 20
9044.784063094136
 30
0.0
340
2360B
1001
ACAD
1000
DSTYLE
1002
{
1070
   341
1005
1C530
1070
    40
1040
1.0
1070
   343
1005
1C530
1070
   344
1005
1C530
1002
}
  0
LINE
  5
2360F
330
747D
100
AcDbEntity
  8
部品1
 48
50.0
100
AcDbLine
 10
6497.917420526707
 20
5805.503905649282
 30
0.0
 11
6497.917420526707
 21
8640.503905649273
 31
0.0
  0
LINE
  5
23610
330
747D
100
AcDbEntity
  8
部品1
 48
50.0
100
AcDbLine
 10
6377.917420526706
 20
5775.50390564928
 30
0.0
 11
6377.917420526706
 21
8760.503905649281
 31
0.0
  0
LINE
  5
23611
330
747D
100
AcDbEntity
  8
想像線
 48
10.0
100
AcDbLine
 10
6332.917420526706
 20
5645.503905649282
 30
0.0
 11
6332.917420526706
 21
8835.503905649281
 31
0.0
  0
DIMENSION
  5
23612
330
747D
100
AcDbEntity
  8
寸法
 48
50.0
100
AcDbDimension
  2
*D37
 10
5570.80667215094
 20
5775.503905649282
 30
0.0
 11
5470.794861127318
 21
7268.003905649283
 31
0.0
 70
    32
 71
     5
 42
2985.0
  3
INABA_S40G
100
AcDbAlignedDimension
 13
6377.917420526706
 23
8760.503905649281
 33
0.0
 14
6377.91742052671
 24
5775.50390564928
 34
0.0
 50
90.0
100
AcDbRotatedDimension
1001
ACAD
1000
DSTYLE
1002
{
1070
   174
1070
     0
1070
   272
1070
     1
1070
   279
1070
     1
1070
   288
1070
     0
1070
   341
1005
0
1002
}
  0
LEADER
  5
23613
330
747D
100
AcDbEntity
  8
寸法
 48
50.0
100
AcDbLeader
  3
INABA_S50G
 76
     2
 10
7236.778536509565
 20
6743.518279854628
 30
0.0
 10
7236.778536509565
 20
7703.518279854629
 30
0.0
1001
ACAD
1000
DSTYLE
1002
{
1070
    40
1040
1.0
1070
   173
1070
     0
1070
   341
1005
21836
1070
   343
1005
0
1070
   344
1005
0
1002
}
  0
TEXT
  5
23614
330
747D
100
AcDbEntity
  8
文字
 48
50.0
100
AcDbText
 10
7184.851368089592
 20
6886.673927447289
 30
0.0
 40
120.0
  1
水勾配1/100
 50
90.0
  7
STYLE1
100
AcDbText
  0
LINE
  5
23615
330
747D
100
AcDbEntity
  8
部品1
 48
10.0
100
AcDbLine
 10
6377.917420526706
 20
5909.003905649282
 30
0.0
 11
6256.917420526707
 21
5909.003905649281
 31
0.0
  0
LINE
  5
23616
330
747D
100
AcDbEntity
  8
部品1
 48
10.0
100
AcDbLine
 10
6606.917420526706
 20
5559.00390564928
 30
0.0
 11
6256.917420526707
 21
5559.003905649279
 31
0.0
  0
LINE
  5
23617
330
747D
100
AcDbEntity
  8
センター
 48
8.0
100
AcDbLine
 10
6231.915935278967
 20
5733.50390564928
 30
0.0
 11
6631.91593527897
 21
5733.50390564928
 31
0.0
  0
DIMENSION
  5
23618
330
747D
100
AcDbEntity
  8
寸法
 48
50.0
100
AcDbDimension
  2
*D38
 10
5570.806672150941
 20
5645.503905649284
 30
0.0
 11
5570.80667215094
 21
5705.237985835927
 31
0.0
 70
   160
  1
b
 71
     5
 42
129.9999999999982
  3
INABA_S40G
100
AcDbAlignedDimension
 13
6377.917420526706
 23
5775.50390564928
 33
0.0
 14
6332.917420526706
 24
5645.503905649282
 34
0.0
 50
90.0
100
AcDbRotatedDimension
1001
ACAD
1000
DSTYLE
1002
{
1070
   174
1070
     0
1070
   272
1070
     1
1070
   288
1070
     0
1070
   341
1005
0
1002
}
  0
CIRCLE
  5
23619
330
747D
100
AcDbEntity
  8
想像線
 48
10.0
100
AcDbCircle
 10
6427.917420526707
 20
5771.503905649279
 30
0.0
 40
335.4121361059542
  0
LINE
  5
2361A
330
747D
100
AcDbEntity
  8
部品1
 48
10.0
100
AcDbLine
 10
6256.917420526707
 20
5559.003905649279
 30
0.0
 11
6256.917420526707
 21
5909.003905649281
 31
0.0
  0
LINE
  5
2361B
330
747D
100
AcDbEntity
  8
寸法
 48
50.0
100
AcDbLine
 10
6031.915935278966
 20
5733.50390564928
 30
0.0
 11
6031.915935278966
 21
6033.50390564928
 31
0.0
  0
LINE
  5
2361C
330
747D
100
AcDbEntity
  8
寸法
 48
50.0
100
AcDbLine
 10
6231.915935278967
 20
5733.50390564928
 30
0.0
 11
6031.915935278966
 21
5733.50390564928
 31
0.0
  0
MTEXT
  5
2361D
102
{ACAD_REACTORS
330
2361E
102
}
330
747D
100
AcDbEntity
  8
寸法
 62
     7
 48
50.0
100
AcDbMText
 10
6028.228573117345
 20
6323.784837696461
 30
0.0
 40
120.0
 41
0.0
 71
     6
 72
     1
  1
C部
  7
STYLE1
 73
     1
 44
1.0
1001
ACAD
1000
MTEXTBEGIN
1070
    73
1070
     1
1070
    44
1040
1.0
1070
    74
1070
     0
1000
MTEXTEND
  0
LEADER
  5
2361E
330
747D
100
AcDbEntity
  8
寸法
 48
50.0
100
AcDbLeader
  3
INABA_S50G
 71
     0
 73
     0
 75
     1
 40
120.0
 41
215.5918830920369
 76
     3
 10
6218.256716429232
 20
6033.312404755994
 30
0.0
 10
6172.905032912321
 20
6233.231526394046
 30
0.0
 10
6047.905032912321
 20
6233.231526394046
 30
0.0
340
2361D
213
-5.323540205023892
223
-5.553311302413931
233
0.0
1001
ACAD
1000
DSTYLE
1002
{
1070
    40
1040
1.0
1002
}
  0
LINE
  5
2361F
330
747D
100
AcDbEntity
  8
寸法
 48
50.0
100
AcDbLine
 10
5993.093078513588
 20
5888.615031705921
 30
0.0
 11
6093.093078513588
 21
5888.615031705921
 31
0.0
  0
LINE
  5
23620
330
747D
100
AcDbEntity
  8
寸法
 48
50.0
100
AcDbLine
 10
6031.915935278966
 20
6033.50390564928
 30
0.0
 11
5993.093078513588
 21
5888.615031705921
 31
0.0
  0
TEXT
  5
23621
330
747D
100
AcDbEntity
  8
文字
 48
50.0
100
AcDbText
 10
5982.039626041089
 20
6053.696264602894
 30
0.0
 40
120.0
  1
B
  7
STYLE1
100
AcDbText
  0
LINE
  5
23622
330
747D
100
AcDbEntity
  8
寸法
 48
50.0
100
AcDbLine
 10
6831.915935278967
 20
5733.50390564928
 30
0.0
 11
6831.915935278967
 21
6033.50390564928
 31
0.0
  0
LINE
  5
23623
330
747D
100
AcDbEntity
  8
部品1
 48
10.0
100
AcDbLine
 10
6606.917420526706
 20
5559.00390564928
 30
0.0
 11
6606.917420526706
 21
5909.003905649281
 31
0.0
  0
LINE
  5
23624
330
747D
100
AcDbEntity
  8
想像線
 48
10.0
100
AcDbLine
 10
7476.549058376675
 20
5645.503905649282
 30
0.0
 11
6332.917420526706
 21
5645.503905649282
 31
0.0
  0
LINE
  5
23625
330
747D
100
AcDbEntity
  8
寸法
 48
50.0
100
AcDbLine
 10
6831.915935278967
 20
5733.503905649282
 30
0.0
 11
6631.91593527897
 21
5733.50390564928
 31
0.0
  0
LINE
  5
23626
330
747D
100
AcDbEntity
  8
部品1
 48
50.0
100
AcDbLine
 10
6467.917420526706
 20
5805.503905649282
 30
0.0
 11
6497.917420526707
 21
5805.503905649282
 31
0.0
  0
LINE
  5
23627
330
747D
100
AcDbEntity
  8
部品1
 48
50.0
100
AcDbLine
 10
6377.917420526706
 20
5775.50390564928
 30
0.0
 11
6467.917420526706
 21
5775.50390564928
 31
0.0
  0
LINE
  5
23628
330
747D
100
AcDbEntity
  8
部品1
 48
50.0
100
AcDbLine
 10
6467.917420526706
 20
5775.503905649283
 30
0.0
 11
6467.917420526706
 21
5805.503905649282
 31
0.0
  0
LINE
  5
23629
330
747D
100
AcDbEntity
  8
部品1
 48
10.0
100
AcDbLine
 10
6606.917420526706
 20
5909.003905649281
 30
0.0
 11
6497.917420526707
 21
5909.003905649279
 31
0.0
  0
LINE
  5
2362A
330
747D
100
AcDbEntity
  8
寸法
 48
50.0
100
AcDbLine
 10
6793.093078513591
 20
5888.615031705921
 30
0.0
 11
6893.093078513591
 21
5888.615031705921
 31
0.0
  0
LINE
  5
2362B
330
747D
100
AcDbEntity
  8
寸法
 48
50.0
100
AcDbLine
 10
6831.915935278967
 20
6033.50390564928
 30
0.0
 11
6793.093078513591
 21
5888.615031705921
 31
0.0
  0
TEXT
  5
2362C
330
747D
100
AcDbEntity
  8
文字
 48
50.0
100
AcDbText
 10
6796.125570336707
 20
6053.696264602894
 30
0.0
 40
120.0
  1
B'
  7
STYLE1
100
AcDbText
  0
DIMENSION
  5
2362D
330
747D
100
AcDbEntity
  8
寸法
 48
50.0
100
AcDbDimension
  2
*D39
 10
5570.806672150941
 20
8760.503905649281
 30
0.0
 11
5570.80667215094
 21
8798.003905649283
 31
0.0
 70
   160
  1
c
 71
     5
 42
75.0
  3
INABA_S40G
100
AcDbAlignedDimension
 13
6332.917420526706
 23
8835.503905649281
 33
0.0
 14
6377.917420526706
 24
8760.503905649281
 34
0.0
 50
90.0
100
AcDbRotatedDimension
1001
ACAD
1000
DSTYLE
1002
{
1070
   174
1070
     0
1070
   272
1070
     1
1070
   288
1070
     0
1070
   341
1005
0
1002
}
  0
LINE
  5
2362E
330
747D
100
AcDbEntity
  8
想像線
 48
10.0
100
AcDbLine
 10
7487.917420526706
 20
8835.503905649282
 30
0.0
 11
6332.917420526706
 21
8835.503905649281
 31
0.0
  0
LINE
  5
2362F
330
747D
100
AcDbEntity
  8
センター
 48
2.0
100
AcDbLine
 10
6452.917420526891
 20
8760.503905649281
 30
0.0
 11
6452.917420526891
 21
8660.503905649282
 31
0.0
  0
LINE
  5
23630
330
747D
100
AcDbEntity
  8
センター
 48
2.0
100
AcDbLine
 10
6502.917420526891
 20
8710.503905649281
 30
0.0
 11
6402.917420526891
 21
8710.503905649281
 31
0.0
  0
LINE
  5
23637
330
747D
100
AcDbEntity
  8
細線
 48
50.0
100
AcDbLine
 10
12960.95856623757
 20
2965.935479658208
 30
0.0
 11
12960.95856623757
 21
108.6514452332685
 31
0.0
  0
HATCH
  5
23638
330
747D
100
AcDbEntity
  8
細線
 48
50.0
100
AcDbHatch
 10
0.0
 20
0.0
 30
0.0
210
0.0
220
0.0
230
1.0
  2
PLAST
 70
     0
 71
     0
 91
        1
 92
        7
 72
     0
 73
     1
 93
        9
 10
11191.6019858514
 20
1132.064031858637
 10
11191.6019858514
 20
1100.666591425339
 10
10981.60198585139
 20
1100.666591425339
 10
10290.76998160326
 20
1000.33402338658
 10
10252.87674903605
 20
965.6665914253418
 10
10252.87674903605
 20
776.1964872416265
 10
11007.42222935658
 20
885.782443417751
 10
12827.12812941934
 20
885.7824434177519
 10
12827.12812941934
 20
1154.411125166432
 97
        0
 75
     0
 76
     1
 52
135.0
 41
30.0
 77
     0
 78
     3
 53
135.0
 43
5806.234094327445
 44
-284.8829359569818
 45
-134.7038418160373
 46
-134.7038418160373
 79
     0
 53
135.0
 43
5789.396114100441
 44
-301.7209161839874
 45
-134.7038418160373
 46
-134.7038418160373
 79
     0
 53
135.0
 43
5772.558133873435
 44
-318.5588964109911
 45
-134.7038418160373
 46
-134.7038418160373
 79
     0
 47
3.18285661301141
 98
        1
 10
11657.16619376801
 20
1021.693572407746
  0
HATCH
  5
23639
330
747D
100
AcDbEntity
  8
細線
 48
50.0
100
AcDbHatch
 10
0.0
 20
0.0
 30
0.0
210
0.0
220
0.0
230
1.0
  2
LINE
 70
     0
 71
     0
 91
        1
 92
        7
 72
     0
 73
     1
 93
        8
 10
11007.42222935658
 20
851.7824434177509
 10
10252.87674903605
 20
742.1964872416265
 10
10102.87674903605
 20
742.1964872416265
 10
10102.87674903605
 20
622.2729974080557
 10
10253.40355376808
 20
622.2729974080557
 10
11007.42222935658
 20
731.7824434177509
 10
12827.12812941934
 20
731.7824434177509
 10
12827.12812941934
 20
851.7824434177519
 97
        0
 75
     0
 76
     1
 52
75.0
 41
30.0
 77
     0
 78
     1
 53
75.0
 43
5806.234094327445
 44
-284.8829359569818
 45
-92.00443495403375
 46
24.6525140460151
 79
     0
 47
4.464951060972777
 98
        1
 10
11590.77861785918
 20
794.7343992071083
  0
LINE
  5
2363A
330
747D
100
AcDbEntity
  8
部品1
 48
50.0
100
AcDbLine
 10
11007.42222935659
 20
851.7824434177509
 30
0.0
 11
12827.12812941934
 21
851.7824434177509
 31
0.0
  0
LWPOLYLINE
  5
2363B
330
747D
100
AcDbEntity
  8
部品1
 48
50.0
100
AcDbPolyline
 90
        5
 70
     0
 43
15.0
 10
12827.12812941934
 20
868.782443417751
 10
11007.42222935659
 20
868.782443417751
 10
10252.87674903605
 20
759.1964872416265
 10
10102.87674903605
 20
759.1964872416265
 42
-0.0003106600707159
 10
10102.87674903605
 20
759.1964872416265
 42
-3218.952463694237
  0
LINE
  5
2363C
330
747D
100
AcDbEntity
  8
部品1
 48
50.0
100
AcDbLine
 10
11007.42222935659
 20
731.7824434177509
 30
0.0
 11
12827.12812941934
 21
731.7824434177509
 31
0.0
  0
LINE
  5
2363D
330
747D
100
AcDbEntity
  8
部品1
 48
50.0
100
AcDbLine
 10
12121.79931623892
 20
421.0919439444596
 30
0.0
 11
10263.87645911256
 21
421.0919439444596
 31
0.0
  0
LINE
  5
2363E
330
747D
100
AcDbEntity
  8
部品1
 48
50.0
100
AcDbLine
 10
12121.79931623892
 20
261.0919439444597
 30
0.0
 11
10263.87645911256
 21
261.0919439444597
 31
0.0
  0
TEXT
  5
2363F
330
747D
100
AcDbEntity
  8
部品1
 48
50.0
100
AcDbText
 10
10294.33575904273
 20
298.3352829583118
 30
0.0
 40
96.0
  1
入口床面コンクリート仕上断面
  7
STYLE2
100
AcDbText
  0
LEADER
  5
23640
330
747D
100
AcDbEntity
  8
寸法
 48
50.0
100
AcDbLeader
  3
INABA_S50G詳細用
 71
     0
 73
     0
 75
     1
 40
120.0
 41
685.9999999999996
 76
     3
 10
11096.86598240041
 20
1428.728361952327
 30
0.0
 10
10969.99712523012
 20
1311.188401838172
 30
0.0
 10
10844.99712523012
 20
1311.188401838172
 30
0.0
340
23641
1001
ACAD
1000
DSTYLE
1002
{
1070
    40
1040
1.0
1070
    77
1070
     1
1002
}
  0
MTEXT
  5
23641
102
{ACAD_REACTORS
330
23640
102
}
330
747D
100
AcDbEntity
  8
寸法
 62
     7
 48
50.0
100
AcDbMText
 10
10819.99712523012
 20
1336.188401838172
 30
0.0
 40
120.0
 41
0.0
 71
     9
 72
     1
  1
\A1;シャッター
  7
STYLE1
 73
     1
 44
1.0
1001
ACAD
1000
MTEXTBEGIN
1070
    73
1070
     1
1070
    44
1040
1.0
1070
    74
1070
     0
1000
MTEXTEND
  0
LINE
  5
23642
330
747D
100
AcDbEntity
  8
部品1
 48
50.0
100
AcDbLine
 10
10981.60198585139
 20
1100.666591425339
 30
0.0
 11
11191.60198585139
 21
1100.666591425339
 31
0.0
  0
LINE
  5
23643
330
747D
100
AcDbEntity
  8
点線
 48
10.0
100
AcDbLine
 10
11138.67362098527
 20
980.6506113899759
 30
0.0
 11
10328.87852903186
 21
868.7461992084854
 31
0.0
  0
LINE
  5
23644
330
747D
100
AcDbEntity
  8
点線
 48
10.0
100
AcDbLine
 10
11137.29827035276
 20
1000.650611389978
 30
0.0
 11
10326.14077453505
 21
888.5579305895443
 31
0.0
  0
LINE
  5
23645
330
747D
100
AcDbEntity
  8
部品1
 48
50.0
100
AcDbLine
 10
11007.42222935659
 20
885.782443417751
 30
0.0
 11
12827.12812941934
 21
885.782443417751
 31
0.0
  0
LINE
  5
23646
330
747D
100
AcDbEntity
  8
部品1
 48
50.0
100
AcDbLine
 10
10263.87645911256
 20
421.0919439444596
 30
0.0
 11
10263.87645911256
 21
261.0919439444597
 31
0.0
  0
TEXT
  5
23647
330
747D
100
AcDbEntity
  8
部品1
 48
50.0
100
AcDbText
 10
8446.170101282335
 20
295.0842356769572
 30
0.0
 40
96.0
  1
Ｃ部
  7
STYLE2
100
AcDbText
  0
LINE
  5
23648
330
747D
100
AcDbEntity
  8
部品1
 48
50.0
100
AcDbLine
 10
8746.178783547005
 20
421.0919439444605
 30
0.0
 11
8746.178783547005
 21
261.0919439444606
 31
0.0
  0
MTEXT
  5
23649
102
{ACAD_REACTORS
330
2364A
102
}
330
747D
100
AcDbEntity
  8
寸法
 62
     7
 48
50.0
100
AcDbMText
 10
9042.500946826125
 20
789.169754461177
 30
0.0
 40
120.0
 41
0.0
 71
     7
 72
     1
  1
\A1;シャッター\Pレール
  7
STYLE1
 73
     1
 44
0.6800000000000001
1001
ACAD
1000
MTEXTBEGIN
1070
    73
1070
     1
1070
    44
1040
0.6800000000000001
1070
    74
1070
     0
1000
MTEXTEND
  0
LEADER
  5
2364A
330
747D
100
AcDbEntity
  8
寸法
 48
50.0
100
AcDbLeader
  3
INABA_S50G詳細用
 71
     0
 73
     0
 74
     0
 75
     1
 40
256.0
 41
685.9999999999996
 76
     3
 10
8675.689986608196
 20
1139.078992568972
 30
0.0
 10
8897.201362716371
 20
764.169754461177
 30
0.0
 10
9022.201362716371
 20
764.169754461177
 30
0.0
340
23649
213
4.700415890244767
223
0.0
233
0.0
1001
ACAD
1000
DSTYLE
1002
{
1070
    40
1040
1.0
1070
    77
1070
     1
1002
}
  0
HATCH
  5
2364B
330
747D
100
AcDbEntity
  8
細線
 48
50.0
100
AcDbHatch
 10
0.0
 20
0.0
 30
0.0
210
0.0
220
0.0
230
1.0
  2
PLAST
 70
     0
 71
     1
 91
        1
 92
        5
 93
        6
 72
     1
 10
8506.469758997644
 20
1226.77615225419
 11
8706.469758997641
 21
1226.77615225419
 72
     1
 10
8706.469758997641
 20
1226.77615225419
 11
8706.469758997645
 21
1266.77615225419
 72
     1
 10
8706.469758997645
 20
1266.77615225419
 11
8746.469758997644
 21
1266.776152254189
 72
     1
 10
8746.469758997644
 20
1266.776152254189
 11
8746.469758997646
 21
1873.491024507181
 72
     4
 94
        3
 73
     0
 74
     0
 95
       11
 96
        7
 40
86.69635969091462
 40
86.69635969091462
 40
86.69635969091462
 40
86.69635969091462
 40
142.4562004170196
 40
249.0971287921331
 40
365.1670311020028
 40
409.2041214600671
 40
409.2041214600671
 40
409.2041214600671
 40
409.2041214600671
 10
8746.469758997648
 20
1873.491024507182
 10
8732.317997437307
 20
1877.649654095016
 10
8691.496377589412
 20
1883.418512587052
 10
8624.744097012678
 20
1841.25758557307
 10
8558.00939449608
 20
1805.458876300747
 10
8517.601590298053
 20
1811.444098162711
 10
8506.469758997646
 20
1814.4740245387
 72
     1
 10
8506.469758997644
 20
1814.4740245387
 11
8506.469758997644
 21
1226.77615225419
 97
        6
330
2367E
330
2364F
330
23654
330
2365E
330
23653
330
23650
 75
     0
 76
     1
 52
45.0
 41
30.0
 77
     0
 78
     3
 53
45.0
 43
-1318.770551693593
 44
-335.0934552877216
 45
-134.7038418160373
 46
134.7038418160373
 79
     0
 53
45.0
 43
-1335.608531920596
 44
-318.2554750607169
 45
-134.7038418160373
 46
134.7038418160373
 79
     0
 53
45.0
 43
-1352.446512147602
 44
-301.4174948337122
 45
-134.7038418160373
 46
134.7038418160373
 79
     0
 47
1.850719366036337
 98
        1
 10
8593.735229924138
 20
1475.977710836823
  0
LINE
  5
2364C
330
747D
100
AcDbEntity
  8
部品1
 48
50.0
100
AcDbLine
 10
8921.469758997643
 20
791.7761522541914
 30
0.0
 11
8921.469758997647
 21
1491.776152254189
 31
0.0
  0
DIMENSION
  5
2364D
330
747D
100
AcDbEntity
  8
寸法
 48
50.0
100
AcDbDimension
  2
*D40
 10
8746.469758997644
 20
1551.028589353476
 30
0.0
 11
9054.040625139377
 21
1551.028589353476
 31
0.0
 70
   160
  1
20
 71
     5
 42
40.0
  3
INABA_S40G
100
AcDbAlignedDimension
 13
8706.469758997645
 23
1266.776152254191
 33
0.0
 14
8746.469758997644
 24
1522.75003383125
 34
0.0
 50
180.0
100
AcDbRotatedDimension
1001
ACAD
1000
DSTYLE
1002
{
1070
   174
1070
     0
1070
   272
1070
     1
1070
   288
1070
     0
1070
   341
1005
0
1002
}
  0
DIMENSION
  5
2364E
330
747D
100
AcDbEntity
  8
寸法
 48
50.0
100
AcDbDimension
  2
*D41
 10
9453.986741187021
 20
1226.77615225419
 30
0.0
 11
9453.986741187021
 21
1626.239734931356
 31
0.0
 70
   160
  1
20
 71
     5
 42
40.0
  3
INABA_S40G
100
AcDbAlignedDimension
 13
8746.469758997644
 23
1266.77615225419
 33
0.0
 14
8706.469758997645
 24
1226.77615225419
 34
0.0
 50
90.0
100
AcDbRotatedDimension
1001
ACAD
1000
DSTYLE
1002
{
1070
   174
1070
     0
1070
   272
1070
     1
1070
   279
1070
     1
1070
   288
1070
     0
1070
   341
1005
0
1002
}
  0
LINE
  5
2364F
102
{ACAD_REACTORS
330
2364B
102
}
330
747D
100
AcDbEntity
  8
部品1
 48
50.0
100
AcDbLine
 10
8506.469758997644
 20
1226.77615225419
 30
0.0
 11
8506.469758997644
 21
1814.4740245387
 31
0.0
  0
LINE
  5
23650
102
{ACAD_REACTORS
330
2364B
102
}
330
747D
100
AcDbEntity
  8
部品1
 48
50.0
100
AcDbLine
 10
8746.469758997644
 20
1266.77615225419
 30
0.0
 11
8746.469758997644
 21
1873.491024507181
 31
0.0
  0
DIMENSION
  5
23651
330
747D
100
AcDbEntity
  8
寸法
 48
50.0
100
AcDbDimension
  2
*D42
 10
8626.469758997647
 20
553.094930841653
 30
0.0
 11
8873.969758997645
 21
553.094930841653
 31
0.0
 70
   160
  1
55
 71
     5
 42
110.0
  3
INABA_S40G
100
AcDbAlignedDimension
 13
8516.469758997645
 23
1091.776152254189
 33
0.0
 14
8626.469758997647
 24
1091.77615225419
 34
0.0
 50
180.0
100
AcDbRotatedDimension
1001
ACAD
1000
DSTYLE
1002
{
1070
   174
1070
     0
1070
   272
1070
     1
1070
   279
1070
     1
1070
   288
1070
     0
1070
   341
1005
0
1002
}
  0
DIMENSION
  5
23652
330
747D
100
AcDbEntity
  8
寸法
 48
50.0
100
AcDbDimension
  2
*D43
 10
8516.469758997645
 20
553.094930841653
 30
0.0
 11
8428.495787924694
 21
552.730216291653
 31
0.0
 70
   160
  1
5
 71
     5
 42
10.00000000000182
  3
INABA_S40G
100
AcDbAlignedDimension
 13
8506.469758997644
 23
1226.77615225419
 33
0.0
 14
8516.469758997645
 24
1091.776152254189
 34
0.0
 50
180.0
100
AcDbRotatedDimension
1001
ACAD
1000
DSTYLE
1002
{
1070
   174
1070
     0
1070
   272
1070
     1
1070
   279
1070
     1
1070
   288
1070
     0
1070
   341
1005
0
1002
}
  0
LINE
  5
23653
102
{ACAD_REACTORS
330
2364B
102
}
330
747D
100
AcDbEntity
  8
部品1
 48
50.0
100
AcDbLine
 10
8706.469758997645
 20
1266.77615225419
 30
0.0
 11
8746.469758997644
 21
1266.77615225419
 31
0.0
  0
LINE
  5
23654
102
{ACAD_REACTORS
330
2364B
102
}
330
747D
100
AcDbEntity
  8
部品1
 48
50.0
100
AcDbLine
 10
8506.469758997644
 20
1226.77615225419
 30
0.0
 11
8706.469758997645
 21
1226.77615225419
 31
0.0
  0
LINE
  5
23655
330
747D
100
AcDbEntity
  8
部品1
 48
50.0
100
AcDbLine
 10
8521.469758997646
 20
1086.776152254189
 30
0.0
 11
8621.469758997644
 21
1086.776152254189
 31
0.0
  0
LINE
  5
23656
330
747D
100
AcDbEntity
  8
センター
 48
2.0
100
AcDbLine
 10
8603.637564874407
 20
1141.776152254189
 30
0.0
 11
8539.301953120881
 21
1141.776152254189
 31
0.0
  0
ARC
  5
23657
330
747D
100
AcDbEntity
  8
部品1
 48
50.0
100
AcDbCircle
 10
8521.469758997646
 20
1091.776152254189
 30
0.0
 40
5.0
100
AcDbArc
 50
180.0
 51
270.0
  0
ARC
  5
23658
330
747D
100
AcDbEntity
  8
部品1
 48
50.0
100
AcDbCircle
 10
8521.469758997646
 20
1191.776152254188
 30
0.0
 40
5.0
100
AcDbArc
 50
90.0
 51
180.0
  0
LINE
  5
23659
330
747D
100
AcDbEntity
  8
部品1
 48
50.0
100
AcDbLine
 10
8516.469758997645
 20
1191.776152254188
 30
0.0
 11
8516.469758997645
 21
1091.776152254189
 31
0.0
  0
LINE
  5
2365A
330
747D
100
AcDbEntity
  8
部品1
 48
50.0
100
AcDbLine
 10
8562.469758997643
 20
1196.776152254189
 30
0.0
 11
8521.469758997646
 21
1196.776152254188
 31
0.0
  0
LINE
  5
2365B
330
747D
100
AcDbEntity
  8
部品1
 48
50.0
100
AcDbLine
 10
8626.469758997643
 20
1210.7716454915
 30
0.0
 11
8626.469758997643
 21
1149.776152254186
 31
0.0
  0
ARC
  5
2365C
330
747D
100
AcDbEntity
  8
部品1
 48
50.0
100
AcDbCircle
 10
8621.469758997644
 20
1153.77615225419
 30
0.0
 40
5.0
100
AcDbArc
 50
0.0
 51
90.0
  0
ARC
  5
2365D
330
747D
100
AcDbEntity
  8
部品1
 48
50.0
100
AcDbCircle
 10
8621.469758997644
 20
1091.77615225419
 30
0.0
 40
5.0
100
AcDbArc
 50
270.0
 51
0.0
  0
LINE
  5
2365E
102
{ACAD_REACTORS
330
2364B
102
}
330
747D
100
AcDbEntity
  8
部品1
 48
50.0
100
AcDbLine
 10
8706.469758997645
 20
1226.77615225419
 30
0.0
 11
8706.469758997645
 21
1266.77615225419
 31
0.0
  0
ARC
  5
2365F
330
747D
100
AcDbEntity
  8
部品1
 48
50.0
100
AcDbCircle
 10
8716.469758997645
 20
1145.790302041338
 30
0.0
 40
6.0
100
AcDbArc
 50
271.2912009648964
 51
0.0
  0
LINE
  5
23660
330
747D
100
AcDbEntity
  8
部品1
 48
50.0
100
AcDbLine
 10
8716.469758997645
 20
1156.776152254189
 30
0.0
 11
8720.469758997644
 21
1156.776152254189
 31
0.0
  0
LINE
  5
23661
330
747D
100
AcDbEntity
  8
部品1
 48
50.0
100
AcDbLine
 10
8716.469758997645
 20
1156.776152254189
 30
0.0
 11
8720.469758997644
 21
1156.776152254189
 31
0.0
  0
LINE
  5
23662
330
747D
100
AcDbEntity
  8
部品1
 48
50.0
100
AcDbLine
 10
8716.469758997645
 20
1156.776152254189
 30
0.0
 11
8717.969758997645
 21
1156.776152254189
 31
0.0
  0
LINE
  5
23663
330
747D
100
AcDbEntity
  8
部品1
 48
50.0
100
AcDbLine
 10
8715.969758997628
 20
1156.776152254189
 30
0.0
 11
8720.469758997628
 21
1156.776152254189
 31
0.0
  0
LINE
  5
23664
330
747D
100
AcDbEntity
  8
部品1
 48
50.0
100
AcDbLine
 10
8722.469758997645
 20
1145.790302041341
 30
0.0
 11
8722.469758997645
 21
1154.776152254189
 31
0.0
  0
LINE
  5
23665
330
747D
100
AcDbEntity
  8
部品1
 48
50.0
100
AcDbLine
 10
8722.469758997645
 20
1145.790302041341
 30
0.0
 11
8722.469758997645
 21
1154.776152254189
 31
0.0
  0
LINE
  5
23666
330
747D
100
AcDbEntity
  8
部品1
 48
50.0
100
AcDbLine
 10
8722.469758997645
 20
1145.790302041341
 30
0.0
 11
8722.469758997645
 21
1154.776152254189
 31
0.0
  0
ARC
  5
23667
330
747D
100
AcDbEntity
  8
部品1
 48
50.0
100
AcDbCircle
 10
8720.469758997644
 20
1154.776152254186
 30
0.0
 40
2.0
100
AcDbArc
 50
0.0
 51
90.0
  0
ARC
  5
23668
330
747D
100
AcDbEntity
  8
部品1
 48
50.0
100
AcDbCircle
 10
8720.469758997644
 20
1154.776152254186
 30
0.0
 40
2.0
100
AcDbArc
 50
0.0
 51
90.0
  0
ARC
  5
23669
330
747D
100
AcDbEntity
  8
部品1
 48
50.0
100
AcDbCircle
 10
8626.469758997643
 20
5138.776152254184
 30
0.0
 40
4000.0
100
AcDbArc
 50
270.1497148883335
 51
271.2912009648964
  0
LINE
  5
2366A
330
747D
100
AcDbEntity
  8
部品1
 48
50.0
100
AcDbLine
 10
8626.469758997643
 20
1154.776152254189
 30
0.0
 11
8626.469758997643
 21
1149.776152254189
 31
0.0
  0
LINE
  5
2366B
330
747D
100
AcDbEntity
  8
部品1
 48
50.0
100
AcDbLine
 10
8631.205752831652
 20
1098.708194456898
 30
0.0
 11
8645.02504621487
 21
1134.984935911021
 31
0.0
  0
ARC
  5
2366C
330
747D
100
AcDbEntity
  8
部品1
 48
50.0
100
AcDbCircle
 10
8628.4022788897
 20
1099.776152254186
 30
0.0
 40
3.0
100
AcDbArc
 50
270.0
 51
339.1461180001402
  0
ARC
  5
2366D
330
747D
100
AcDbEntity
  8
部品1
 48
50.0
100
AcDbCircle
 10
8650.631994098777
 20
1132.849020316449
 30
0.0
 40
6.0
100
AcDbArc
 50
90.34558224883921
 51
159.1461180001402
  0
LINE
  5
2366E
330
747D
100
AcDbEntity
  8
部品1
 48
50.0
100
AcDbLine
 10
8626.469758997643
 20
1091.77615225419
 30
0.0
 11
8626.469758997643
 21
1153.77615225419
 31
0.0
  0
LINE
  5
2366F
330
747D
100
AcDbEntity
  8
部品1
 48
50.0
100
AcDbLine
 10
8626.469758997647
 20
1096.776152254189
 30
0.0
 11
8628.4022788897
 21
1096.776152254189
 31
0.0
  0
ARC
  5
23670
330
747D
100
AcDbEntity
  8
部品1
 48
50.0
100
AcDbCircle
 10
8637.469758997644
 20
1149.776152254186
 30
0.0
 40
11.0
100
AcDbArc
 50
180.0
 51
267.1447544771536
  0
LINE
  5
23671
330
747D
100
AcDbEntity
  8
部品1
 48
50.0
100
AcDbLine
 10
8622.469758997644
 20
1158.776152254189
 30
0.0
 11
8580.469758997644
 21
1158.776152254189
 31
0.0
  0
LINE
  5
23672
330
747D
100
AcDbEntity
  8
部品1
 48
50.0
100
AcDbLine
 10
8621.469758997644
 20
1158.77615225419
 30
0.0
 11
8580.469758997644
 21
1158.776152254189
 31
0.0
  0
LINE
  5
23673
330
747D
100
AcDbEntity
  8
部品1
 48
50.0
100
AcDbLine
 10
8626.469758997643
 20
1168.776152254189
 30
0.0
 11
8580.469758997644
 21
1168.776152254189
 31
0.0
  0
LINE
  5
23674
330
747D
100
AcDbEntity
  8
部品1
 48
50.0
100
AcDbLine
 10
8716.469758997645
 20
1198.776152254189
 30
0.0
 11
8720.469758997644
 21
1198.776152254189
 31
0.0
  0
LINE
  5
23675
330
747D
100
AcDbEntity
  8
部品1
 48
50.0
100
AcDbLine
 10
8715.969758997628
 20
1198.776152254189
 30
0.0
 11
8720.469758997628
 21
1198.776152254189
 31
0.0
  0
ARC
  5
23676
330
747D
100
AcDbEntity
  8
部品1
 48
50.0
100
AcDbCircle
 10
8716.469758997645
 20
1209.762002467027
 30
0.0
 40
6.0
100
AcDbArc
 50
0.0
 51
88.70879903510363
  0
LINE
  5
23677
330
747D
100
AcDbEntity
  8
部品1
 48
50.0
100
AcDbLine
 10
8722.469758997645
 20
1209.76200246703
 30
0.0
 11
8722.469758997645
 21
1200.776152254189
 31
0.0
  0
LINE
  5
23678
330
747D
100
AcDbEntity
  8
部品1
 48
50.0
100
AcDbLine
 10
8722.469758997645
 20
1209.76200246703
 30
0.0
 11
8722.469758997645
 21
1200.776152254189
 31
0.0
  0
ARC
  5
23679
330
747D
100
AcDbEntity
  8
部品1
 48
50.0
100
AcDbCircle
 10
8720.469758997644
 20
1200.776152254186
 30
0.0
 40
2.0
100
AcDbArc
 50
270.0
 51
0.0
  0
ARC
  5
2367A
330
747D
100
AcDbEntity
  8
部品1
 48
50.0
100
AcDbCircle
 10
8626.469758997641
 20
-2783.223847745816
 30
0.0
 40
4000.0
100
AcDbArc
 50
88.70879903510363
 51
89.91392718914937
  0
ARC
  5
2367B
330
747D
100
AcDbEntity
  8
部品1
 48
50.0
100
AcDbCircle
 10
8632.469758997643
 20
1210.7716454915
 30
0.0
 40
6.0
100
AcDbArc
 50
89.91392718914937
 51
180.0
  0
LINE
  5
2367C
330
747D
100
AcDbEntity
  8
センター
 48
2.0
100
AcDbLine
 10
8571.469758997643
 20
1109.608346377426
 30
0.0
 11
8571.469758997643
 21
1173.943958130952
 31
0.0
  0
LINE
  5
2367D
330
747D
100
AcDbEntity
  8
部品1
 48
50.0
100
AcDbLine
 10
8746.469758997644
 20
1491.776152254189
 30
0.0
 11
8921.469758997647
 21
1491.776152254189
 31
0.0
  0
SPLINE
  5
2367E
102
{ACAD_REACTORS
330
2364B
102
}
330
747D
100
AcDbEntity
  8
部品1
 48
50.0
100
AcDbSpline
210
0.0
220
0.0
230
1.0
 70
     8
 71
     3
 72
    11
 73
     7
 74
     5
 42
0.0000000001
 43
0.0000000001
 44
0.0000000001
 40
0.0
 40
0.0
 40
0.0
 40
0.0
 40
113.9649603336154
 40
199.2777030337053
 40
292.1336248816022
 40
397.542880220548
 40
397.542880220548
 40
397.542880220548
 40
397.542880220548
 10
8813.136425664312
 20
1843.563299799415
 30
0.0
 10
8776.441926867663
 20
1862.839086906269
 30
0.0
 10
8712.278385611098
 20
1896.544486948318
 30
0.0
 10
8624.744097012678
 20
1841.257585573069
 30
0.0
 10
8536.062580536691
 20
1793.685876905263
 30
0.0
 10
8473.21598417926
 20
1826.250212353201
 30
0.0
 10
8439.803092330977
 20
1843.563299799415
 30
0.0
 11
8813.136425664312
 21
1843.563299799415
 31
0.0
 11
8704.509124160898
 21
1878.032438923112
 31
0.0
 11
8626.469758997648
 21
1843.563299799415
 31
0.0
 11
8539.803092330977
 21
1810.229966466082
 31
0.0
 11
8439.803092330977
 21
1843.563299799415
 31
0.0
  0
LINE
  5
2367F
330
747D
100
AcDbEntity
  8
部品1
 48
50.0
100
AcDbLine
 10
11007.42222935658
 20
851.7824434177509
 30
0.0
 11
10252.87674903605
 21
742.1964872416265
 31
0.0
  0
LINE
  5
23680
330
747D
100
AcDbEntity
  8
部品1
 48
50.0
100
AcDbLine
 10
11007.42222935658
 20
731.7824434177509
 30
0.0
 11
10252.87674903605
 21
622.1964872416265
 31
0.0
  0
LINE
  5
23681
330
747D
100
AcDbEntity
  8
部品1
 48
50.0
100
AcDbLine
 10
11007.42222935658
 20
885.782443417751
 30
0.0
 11
10252.87674903605
 21
776.1964872416265
 31
0.0
  0
LINE
  5
23682
330
747D
100
AcDbEntity
  8
部品1
 48
50.0
100
AcDbLine
 10
10981.60198585139
 20
1100.666591425339
 30
0.0
 11
10290.76998160326
 21
1000.33402338658
 31
0.0
  0
LINE
  5
23683
330
747D
100
AcDbEntity
  8
部品1
 48
50.0
100
AcDbLine
 10
10252.87674903605
 20
965.6665914253407
 30
0.0
 11
10252.87674903605
 21
776.1964872416265
 31
0.0
  0
LINE
  5
23684
330
747D
100
AcDbEntity
  8
部品1
 48
50.0
100
AcDbLine
 10
10252.87674903605
 20
742.1964872416265
 30
0.0
 11
10102.87674903605
 21
742.1964872416265
 31
0.0
  0
LINE
  5
23685
330
747D
100
AcDbEntity
  8
部品1
 48
50.0
100
AcDbLine
 10
10253.40355376808
 20
622.2729974080557
 30
0.0
 11
10102.87674903605
 21
622.2729974080557
 31
0.0
  0
LINE
  5
23686
330
747D
100
AcDbEntity
  8
細線
 48
50.0
100
AcDbLine
 10
10201.6461215095
 20
622.2729974080521
 30
0.0
 11
10196.28713766087
 21
642.272997408062
 31
0.0
  0
LINE
  5
23687
330
747D
100
AcDbEntity
  8
細線
 48
50.0
100
AcDbLine
 10
10119.11301687129
 20
722.2729974080484
 30
0.0
 11
10113.75403302267
 21
742.2729974080548
 31
0.0
  0
LINE
  5
23688
330
747D
100
AcDbEntity
  8
部品1
 48
50.0
100
AcDbLine
 10
10102.87674903605
 20
742.1964872416265
 30
0.0
 11
10102.87674903605
 21
622.2729974080557
 31
0.0
  0
LINE
  5
23689
330
747D
100
AcDbEntity
  8
細線
 48
50.0
100
AcDbLine
 10
10302.15329527557
 20
629.3531366120805
 30
0.0
 11
10296.79431142695
 21
649.353136612086
 31
0.0
  0
LINE
  5
2368A
330
747D
100
AcDbEntity
  8
細線
 48
50.0
100
AcDbLine
 10
10318.66422987849
 20
730.9727834306122
 30
0.0
 11
10313.30524602986
 21
750.9727834306122
 31
0.0
  0
LINE
  5
2368B
330
747D
100
AcDbEntity
  8
細線
 48
50.0
100
AcDbLine
 10
10217.72307305535
 20
722.2729974080521
 30
0.0
 11
10212.36408920673
 21
742.2729974080521
 31
0.0
  0
TEXT
  5
2368C
330
747D
100
AcDbEntity
  8
寸法
 62
     7
 48
50.0
100
AcDbText
 10
9869.074398218973
 20
919.068179661046
 30
0.0
 40
120.0
  1
▽G.L
  7
STYLE1
100
AcDbText
  0
LWPOLYLINE
  5
2368D
330
747D
100
AcDbEntity
  8
部品1
 48
50.0
100
AcDbPolyline
 90
        2
 70
     0
 10
9875.063925863116
 20
900.6665914253389
 40
15.0
 41
15.0
 10
10252.87674903605
 20
900.6665914253389
 40
10.0
 41
10.0
  0
LINE
  5
2368E
330
747D
100
AcDbEntity
  8
点線
 48
10.0
100
AcDbLine
 10
10326.14077453505
 20
888.5579305895443
 30
0.0
 11
10328.87852903186
 21
868.7461992084854
 31
0.0
  0
LINE
  5
2368F
330
747D
100
AcDbEntity
  8
部品1
 48
50.0
100
AcDbLine
 10
10290.76998160326
 20
1000.33402338658
 30
0.0
 11
10252.87674903605
 21
965.6665914253407
 31
0.0
  0
LINE
  5
23690
330
747D
100
AcDbEntity
  8
細線
 48
50.0
100
AcDbLine
 10
10934.2815865489
 20
820.3815976490568
 30
0.0
 11
10928.92260270028
 21
840.3815976490568
 31
0.0
  0
LINE
  5
23691
330
747D
100
AcDbEntity
  8
細線
 48
50.0
100
AcDbLine
 10
10404.75618805397
 20
644.2546056484879
 30
0.0
 11
10399.39720420535
 21
664.2546056484925
 31
0.0
  0
LINE
  5
23692
330
747D
100
AcDbEntity
  8
細線
 48
50.0
100
AcDbLine
 10
10421.26712265689
 20
745.8742524670188
 30
0.0
 11
10415.90813880827
 21
765.8742524670188
 31
0.0
  0
LINE
  5
23693
330
747D
100
AcDbEntity
  8
細線
 48
50.0
100
AcDbLine
 10
10507.35908083238
 20
659.1560746848954
 30
0.0
 11
10502.00009698376
 21
679.1560746849008
 31
0.0
  0
LINE
  5
23694
330
747D
100
AcDbEntity
  8
細線
 48
50.0
100
AcDbLine
 10
10523.87001543529
 20
760.7757215034271
 30
0.0
 11
10518.51103158667
 21
780.7757215034271
 31
0.0
  0
LINE
  5
23695
330
747D
100
AcDbEntity
  8
細線
 48
50.0
100
AcDbLine
 10
10609.96197361078
 20
674.0575437213029
 30
0.0
 11
10604.60298976216
 21
694.0575437213083
 31
0.0
  0
LINE
  5
23696
330
747D
100
AcDbEntity
  8
細線
 48
50.0
100
AcDbLine
 10
10626.47290821369
 20
775.6771905398346
 30
0.0
 11
10621.11392436507
 21
795.6771905398345
 31
0.0
  0
LINE
  5
23697
330
747D
100
AcDbEntity
  8
細線
 48
50.0
100
AcDbLine
 10
10712.56486638919
 20
688.9590127577102
 30
0.0
 11
10707.20588254056
 21
708.9590127577158
 31
0.0
  0
LINE
  5
23698
330
747D
100
AcDbEntity
  8
細線
 48
50.0
100
AcDbLine
 10
10729.0758009921
 20
790.5786595762419
 30
0.0
 11
10723.71681714348
 21
810.578659576242
 31
0.0
  0
LINE
  5
23699
330
747D
100
AcDbEntity
  8
細線
 48
50.0
100
AcDbLine
 10
10815.16775916759
 20
703.8604817941177
 30
0.0
 11
10809.80877531897
 21
723.8604817941241
 31
0.0
  0
LINE
  5
2369A
330
747D
100
AcDbEntity
  8
細線
 48
50.0
100
AcDbLine
 10
10831.6786937705
 20
805.4801286126494
 30
0.0
 11
10826.31970992188
 21
825.4801286126493
 31
0.0
  0
LINE
  5
2369B
330
747D
100
AcDbEntity
  8
細線
 48
50.0
100
AcDbLine
 10
11019.86953860386
 20
731.78244341775
 30
0.0
 11
11014.51055475523
 21
751.7824434177582
 31
0.0
  0
LINE
  5
2369C
330
747D
100
AcDbEntity
  8
細線
 48
50.0
100
AcDbLine
 10
10917.77065194599
 20
718.761950830526
 30
0.0
 11
10912.41166809737
 21
738.7619508305306
 31
0.0
  0
CIRCLE
  5
2369D
330
747D
100
AcDbEntity
  8
点線
 48
10.0
100
AcDbCircle
 10
10404.33043828029
 20
869.0777605300036
 30
0.0
 40
10.0
  0
CIRCLE
  5
2369E
330
747D
100
AcDbEntity
  8
点線
 48
10.0
100
AcDbCircle
 10
10602.44775209087
 20
896.4553054981616
 30
0.0
 40
10.0
  0
CIRCLE
  5
2369F
330
747D
100
AcDbEntity
  8
点線
 48
10.0
100
AcDbCircle
 10
10800.56506590144
 20
923.8328504663186
 30
0.0
 40
10.0
  0
CIRCLE
  5
236A0
330
747D
100
AcDbEntity
  8
点線
 48
10.0
100
AcDbCircle
 10
10998.68237971201
 20
951.2103954344766
 30
0.0
 40
10.0
  0
LINE
  5
236A1
330
747D
100
AcDbEntity
  8
部品1
 48
50.0
100
AcDbLine
 10
12121.79931623892
 20
421.0919439444596
 30
0.0
 11
12121.79931623892
 21
261.0919439444597
 31
0.0
  0
HATCH
  5
236A3
330
747D
100
AcDbEntity
  8
細線
 48
50.0
100
AcDbHatch
 10
0.0
 20
0.0
 30
0.0
210
0.0
220
0.0
230
1.0
  2
AR-SAND
 70
     0
 71
     0
 91
        2
 92
        7
 72
     1
 73
     1
 93
       11
 10
12827.12812941934
 20
1300.666591425339
 42
0.0
 10
11151.60198585139
 20
1300.666591425339
 42
0.0
 10
11151.6019858514
 20
1116.38087582534
 42
0.0
 10
11165.8877014514
 20
1116.38087582534
 42
-0.4142135623731417
 10
11171.60198585139
 20
1110.666591425339
 42
-0.5239529462182031
 10
11163.8762733426
 20
1105.318021226937
 42
0.0
 10
11151.60198585139
 20
1107.549709861701
 42
0.0
 10
11151.6019858514
 20
1100.666591425339
 42
0.0
 10
11191.60198585139
 20
1100.666591425339
 42
0.0
 10
11191.60198585139
 20
1132.064031858637
 42
0.0
 10
12827.12812941934
 20
1154.411125166432
 42
0.0
 97
        0
 92
       23
 72
     1
 73
     1
 93
        5
 10
11165.8877014514
 20
1116.38087582534
 42
0.0
 10
11151.60198585139
 20
1116.38087582534
 42
0.0
 10
11151.60198585139
 20
1107.549709861702
 42
0.0
 10
11165.8877014514
 20
1104.952307025338
 42
0.4142135623731417
 10
11171.60198585139
 20
1110.666591425339
 42
0.4142135623731417
 97
        0
 75
     0
 76
     1
 52
0.0
 41
2.0
 77
     0
 78
     4
 53
37.5
 43
5806.234094327445
 44
-131.0227155489146
 45
-3.200062591968091
 46
97.88264746586847
 79
     6
 49
0.0
 49
-77.21600000000001
 49
0.0
 49
-86.36000000000001
 49
0.0
 49
-82.55
 53
7.5
 43
5806.234094327445
 44
-131.0227155489146
 45
89.90465662760053
 46
143.3650201136708
 79
     6
 49
0.0
 49
-41.656
 49
0.0
 49
-69.596
 49
0.0
 49
-26.67000000000001
 53
327.5
 43
5743.750094327444
 44
-131.0227155489146
 45
158.1984740482916
 46
0.2874369357091382
 79
     6
 49
0.0
 49
-25.4
 49
0.0
 49
-91.44
 49
0.0
 49
-119.38
 53
317.5
 43
5743.750094327444
 44
-131.0227155489146
 45
152.7112904944594
 46
44.58586465144324
 79
     6
 49
0.0
 49
-12.7
 49
0.0
 49
-59.94399999999999
 49
0.0
 49
-68.58
 47
0.1817197188422509
 98
        2
 10
11741.86361270402
 20
1264.298728620849
 10
11163.71604642181
 20
1112.209200079856
  0
MTEXT
  5
236A4
102
{ACAD_REACTORS
330
236A5
102
}
330
747D
100
AcDbEntity
  8
寸法
 62
     7
 48
50.0
100
AcDbMText
 10
11811.9661853828
 20
1393.720495097985
 30
0.0
 40
120.0
 41
0.0
 71
     7
 72
     1
  1
\A1;F.L 勾配{\H0.7x;\S1#100;}\P表面コテ押エ
  7
STYLE1
 73
     1
 44
1.0
1001
ACAD
1000
MTEXTBEGIN
1070
    73
1070
     1
1070
    44
1040
1.0
1070
    74
1070
     1
1000
MTEXTEND
  0
LEADER
  5
236A5
330
747D
100
AcDbEntity
  8
寸法
 48
50.0
100
AcDbLeader
  3
INABA_S50G詳細用
 71
     0
 73
     0
 74
     0
 75
     1
 40
320.0
 41
845.9999999999997
 76
     3
 10
11526.11783766751
 20
1136.634705939801
 30
0.0
 10
11661.9661853828
 20
1368.720495097985
 30
0.0
 10
11786.9661853828
 20
1368.720495097985
 30
0.0
340
236A4
1001
ACAD
1000
DSTYLE
1002
{
1070
    40
1040
1.0
1070
    77
1070
     1
1002
}
  0
LINE
  5
236A6
330
747D
100
AcDbEntity
  8
点線
 48
10.0
100
AcDbLine
 10
12827.12812941934
 20
1000.650611389977
 30
0.0
 11
11137.29827035276
 21
1000.650611389978
 31
0.0
  0
LINE
  5
236A7
330
747D
100
AcDbEntity
  8
点線
 48
10.0
100
AcDbLine
 10
12827.12812941934
 20
980.6506113899759
 30
0.0
 11
11138.67362098526
 21
980.6506113899759
 31
0.0
  0
LINE
  5
236A8
330
747D
100
AcDbEntity
  8
細線
 48
50.0
100
AcDbLine
 10
12827.12812941934
 20
1300.666591425339
 30
0.0
 11
11151.60198585139
 21
1300.666591425339
 31
0.0
  0
LINE
  5
236A9
330
747D
100
AcDbEntity
  8
部品1
 48
50.0
100
AcDbLine
 10
12827.12812941934
 20
1154.411125166431
 30
0.0
 11
11191.60198585139
 21
1132.064031858637
 31
0.0
  0
LINE
  5
236AA
330
747D
100
AcDbEntity
  8
細線
 48
50.0
100
AcDbLine
 10
11097.28020784125
 20
1295.586107544003
 30
0.0
 11
11096.45175695958
 21
1303.870616360649
 31
0.0
  0
LINE
  5
236AB
330
747D
100
AcDbEntity
  8
細線
 48
50.0
100
AcDbLine
 10
11151.6019858514
 20
1100.666591425339
 30
0.0
 11
11151.60198585139
 21
1300.666591425339
 31
0.0
  0
DIMENSION
  5
236AC
330
747D
100
AcDbEntity
  8
寸法
 48
50.0
100
AcDbDimension
  2
*D44
 10
11151.6019858514
 20
537.3800622050103
 30
0.0
 11
12010.4110409695
 21
537.3800622050103
 31
0.0
 70
   160
  1
基礎面ヨリ20
 71
     5
 42
39.99999999999636
  3
INABA_S40G
100
AcDbAlignedDimension
 13
11191.60198585139
 23
1100.666591425339
 33
0.0
 14
11151.6019858514
 24
1100.666591425339
 34
0.0
100
AcDbRotatedDimension
1001
ACAD
1000
DSTYLE
1002
{
1070
   174
1070
     0
1070
   272
1070
     1
1070
   279
1070
     1
1070
   288
1070
     0
1070
   341
1005
0
1002
}
  0
LINE
  5
236AD
330
747D
100
AcDbEntity
  8
細線
 48
50.0
100
AcDbLine
 10
11233.16660251784
 20
831.7824434177474
 30
0.0
 11
11227.80761866921
 21
851.7824434177509
 31
0.0
  0
LINE
  5
236AE
330
747D
100
AcDbEntity
  8
細線
 48
50.0
100
AcDbLine
 10
11035.94649014971
 20
831.7824434177509
 30
0.0
 11
11030.58750630109
 21
851.7824434177509
 31
0.0
  0
LINE
  5
236AF
330
747D
100
AcDbEntity
  8
細線
 48
50.0
100
AcDbLine
 10
11134.55654633377
 20
831.7824434177474
 30
0.0
 11
11129.19756248515
 21
851.7824434177509
 31
0.0
  0
LINE
  5
236B0
330
747D
100
AcDbEntity
  8
細線
 48
50.0
100
AcDbLine
 10
11430.38671488596
 20
831.7824434177509
 30
0.0
 11
11425.02773103734
 21
851.7824434177509
 31
0.0
  0
LINE
  5
236B1
330
747D
100
AcDbEntity
  8
細線
 48
50.0
100
AcDbLine
 10
11331.7766587019
 20
831.7824434177509
 30
0.0
 11
11326.41767485328
 21
851.7824434177509
 31
0.0
  0
LINE
  5
236B2
330
747D
100
AcDbEntity
  8
細線
 48
50.0
100
AcDbLine
 10
11627.60682725408
 20
831.7824434177474
 30
0.0
 11
11622.24784340545
 21
851.7824434177509
 31
0.0
  0
LINE
  5
236B3
330
747D
100
AcDbEntity
  8
細線
 48
50.0
100
AcDbLine
 10
11528.99677107001
 20
831.7824434177474
 30
0.0
 11
11523.63778722139
 21
851.7824434177509
 31
0.0
  0
LINE
  5
236B4
330
747D
100
AcDbEntity
  8
細線
 48
50.0
100
AcDbLine
 10
11118.47959478792
 20
731.7824434177473
 30
0.0
 11
11113.12061093929
 21
751.7824434177537
 31
0.0
  0
LINE
  5
236B5
330
747D
100
AcDbEntity
  8
細線
 48
50.0
100
AcDbLine
 10
11217.08965097197
 20
731.7824434177473
 30
0.0
 11
11211.73066712335
 21
751.7824434177573
 31
0.0
  0
LINE
  5
236B6
330
747D
100
AcDbEntity
  8
細線
 48
50.0
100
AcDbLine
 10
11315.69970715603
 20
731.78244341775
 30
0.0
 11
11310.34072330741
 21
751.7824434177546
 31
0.0
  0
LINE
  5
236B7
330
747D
100
AcDbEntity
  8
細線
 48
50.0
100
AcDbLine
 10
11512.91981952416
 20
731.7824434177473
 30
0.0
 11
11507.56083567553
 21
751.7824434177537
 31
0.0
  0
LINE
  5
236B8
330
747D
100
AcDbEntity
  8
細線
 48
50.0
100
AcDbLine
 10
11414.3097633401
 20
731.78244341775
 30
0.0
 11
11408.95077949147
 21
751.7824434177582
 31
0.0
  0
LINE
  5
236B9
330
747D
100
AcDbEntity
  8
細線
 48
50.0
100
AcDbLine
 10
11611.52987570822
 20
731.7824434177473
 30
0.0
 11
11606.17089185959
 21
751.7824434177573
 31
0.0
  0
CIRCLE
  5
236BA
330
747D
100
AcDbEntity
  8
点線
 48
10.0
100
AcDbCircle
 10
11196.79969352258
 20
978.5879404026346
 30
0.0
 40
10.0
  0
ARC
  5
236BB
330
747D
100
AcDbEntity
  8
細線
 48
50.0
100
AcDbCircle
 10
11107.70160499398
 20
1241.332638510803
 30
0.0
 40
5.0
100
AcDbArc
 50
31.91646367373018
 51
49.59559872602518
  0
ARC
  5
236BC
330
747D
100
AcDbEntity
  8
細線
 48
50.0
100
AcDbCircle
 10
11100.51510587779
 20
1260.581954976964
 30
0.0
 40
5.0
100
AcDbArc
 50
171.3533349444468
 51
229.5955987260252
  0
ARC
  5
236BD
330
747D
100
AcDbEntity
  8
細線
 48
50.0
100
AcDbCircle
 10
11092.27779953957
 20
1272.929363336405
 30
0.0
 40
5.0
100
AcDbArc
 50
351.3533349444468
 51
18.43494882290553
  0
ARC
  5
236BE
330
747D
100
AcDbEntity
  8
細線
 48
50.0
100
AcDbCircle
 10
11100.72460515801
 20
1279.211723082769
 30
0.0
 40
5.0
100
AcDbArc
 50
158.1985905136578
 51
198.4349488229055
  0
ARC
  5
236BF
330
747D
100
AcDbEntity
  8
細線
 48
50.0
100
AcDbCircle
 10
11092.01684029294
 20
1284.368134955752
 30
0.0
 40
5.0
100
AcDbArc
 50
338.1985905136578
 51
21.80140948634214
  0
ARC
  5
236C0
330
747D
100
AcDbEntity
  8
細線
 48
50.0
100
AcDbCircle
 10
11100.78716990721
 20
1289.36813495575
 30
0.0
 40
5.0
100
AcDbArc
 50
158.1985905136578
 51
201.8014094863421
  0
ARC
  5
236C1
330
747D
100
AcDbEntity
  8
細線
 48
50.0
100
AcDbCircle
 10
11092.3050218902
 20
1295.088588948898
 30
0.0
 40
5.0
100
AcDbArc
 50
338.1985905136578
 51
5.710593137530753
  0
LINE
  5
236C2
330
747D
100
AcDbEntity
  8
細線
 48
50.0
100
AcDbLine
 10
11097.02121602982
 20
1274.510502166488
 30
0.0
 11
11095.98118866776
 21
1277.630584252684
 31
0.0
  0
LINE
  5
236C3
330
747D
100
AcDbEntity
  8
細線
 48
50.0
100
AcDbLine
 10
11096.08222170359
 20
1281.068676464541
 30
0.0
 11
11096.65922374737
 21
1282.511181573981
 31
0.0
  0
LINE
  5
236C4
330
747D
100
AcDbEntity
  8
細線
 48
50.0
100
AcDbLine
 10
11096.65922374737
 20
1286.225088337522
 30
0.0
 11
11096.14478645278
 21
1287.511181573979
 31
0.0
  0
LINE
  5
236C5
330
747D
100
AcDbEntity
  8
細線
 48
50.0
100
AcDbLine
 10
11096.14478645278
 20
1291.225088337522
 30
0.0
 11
11096.94740534462
 21
1293.231635567127
 31
0.0
  0
LINE
  5
236C6
330
747D
100
AcDbEntity
  8
細線
 48
50.0
100
AcDbLine
 10
11095.57193456413
 20
1261.333657952752
 30
0.0
 11
11097.22097085323
 21
1272.177660360616
 31
0.0
  0
ARC
  5
236C7
330
747D
100
AcDbEntity
  8
細線
 48
50.0
100
AcDbCircle
 10
11121.29201489719
 20
1247.588387286092
 30
0.0
 40
1.0
100
AcDbArc
 50
32.97249425048676
 51
49.49171241452709
  0
ARC
  5
236C8
330
747D
100
AcDbEntity
  8
細線
 48
50.0
100
AcDbCircle
 10
11119.99289883528
 20
1246.067763250477
 30
0.0
 40
3.0
100
AcDbArc
 50
49.49171241452709
 51
163.5378536914189
  0
LINE
  5
236C9
330
747D
100
AcDbEntity
  8
細線
 48
50.0
100
AcDbLine
 10
11110.94249698412
 20
1245.140081105018
 30
0.0
 11
11097.27421388766
 21
1256.774512382748
 31
0.0
  0
ARC
  5
236CA
330
747D
100
AcDbEntity
  8
細線
 48
50.0
100
AcDbCircle
 10
11114.42929521247
 20
1241.865612749313
 30
0.0
 40
1.0
100
AcDbArc
 50
204.8344764792676
 51
226.676492758073
  0
ARC
  5
236CB
330
747D
100
AcDbEntity
  8
細線
 48
50.0
100
AcDbCircle
 10
11117.51682119456
 20
1245.139323687978
 30
0.0
 40
5.5
100
AcDbArc
 50
226.676492758073
 51
32.97249425048676
  0
LINE
  5
236CC
330
747D
100
AcDbEntity
  8
細線
 48
50.0
100
AcDbLine
 10
11111.9457040355
 20
1243.976049815497
 30
0.0
 11
11113.52177029436
 21
1241.445614507639
 31
0.0
  0
LINE
  5
236CD
330
747D
100
AcDbEntity
  8
細線
 48
50.0
100
AcDbLine
 10
11118.60199965139
 20
1112.952307025339
 30
0.0
 11
11168.60199965139
 21
1112.952307025339
 31
0.0
  0
LINE
  5
236CE
330
747D
100
AcDbEntity
  8
細線
 48
50.0
100
AcDbLine
 10
11104.60199965139
 20
1112.952307025339
 30
0.0
 11
11104.60199965139
 21
1104.952307025339
 31
0.0
  0
LINE
  5
236CF
330
747D
100
AcDbEntity
  8
細線
 48
50.0
100
AcDbLine
 10
11118.60199965139
 20
1112.952307025339
 30
0.0
 11
11118.60199965139
 21
1104.952307025339
 31
0.0
  0
LINE
  5
236D0
330
747D
100
AcDbEntity
  8
細線
 48
50.0
100
AcDbLine
 10
11118.60199965139
 20
1104.952307025339
 30
0.0
 11
11104.60199965139
 21
1104.952307025339
 31
0.0
  0
LINE
  5
236D1
330
747D
100
AcDbEntity
  8
細線
 48
50.0
100
AcDbLine
 10
11111.60199965139
 20
1118.952307025339
 30
0.0
 11
11111.60199965139
 21
1229.453753423783
 31
0.0
  0
LINE
  5
236D2
330
747D
100
AcDbEntity
  8
細線
 48
50.0
100
AcDbLine
 10
11168.60199965139
 20
1112.952307025339
 30
0.0
 11
11168.60199965139
 21
1104.952307025339
 31
0.0
  0
LINE
  5
236D3
330
747D
100
AcDbEntity
  8
細線
 48
50.0
100
AcDbLine
 10
11051.60199965139
 20
1115.952307025339
 30
0.0
 11
11071.60199965139
 21
1118.952307025339
 31
0.0
  0
LINE
  5
236D4
330
747D
100
AcDbEntity
  8
細線
 48
50.0
100
AcDbLine
 10
11171.60199965139
 20
1115.952307025339
 30
0.0
 11
11151.60199965139
 21
1118.952307025339
 31
0.0
  0
LINE
  5
236D5
330
747D
100
AcDbEntity
  8
細線
 48
50.0
100
AcDbLine
 10
11051.60199965139
 20
1104.952307025339
 30
0.0
 11
11054.60199965139
 21
1104.952307025339
 31
0.0
  0
LINE
  5
236D6
330
747D
100
AcDbEntity
  8
細線
 48
50.0
100
AcDbLine
 10
11171.60199965139
 20
1104.952307025339
 30
0.0
 11
11168.60199965139
 21
1104.952307025339
 31
0.0
  0
LINE
  5
236D7
330
747D
100
AcDbEntity
  8
細線
 48
50.0
100
AcDbLine
 10
11054.60199965139
 20
1112.952307025339
 30
0.0
 11
11104.60199965139
 21
1112.952307025339
 31
0.0
  0
LINE
  5
236D8
330
747D
100
AcDbEntity
  8
細線
 48
50.0
100
AcDbLine
 10
11054.60199965139
 20
1104.952307025339
 30
0.0
 11
11054.60199965139
 21
1112.952307025339
 31
0.0
  0
LINE
  5
236D9
330
747D
100
AcDbEntity
  8
細線
 48
50.0
100
AcDbLine
 10
11171.60199965139
 20
1115.952307025339
 30
0.0
 11
11171.60199965139
 21
1104.952307025339
 31
0.0
  0
LINE
  5
236DA
330
747D
100
AcDbEntity
  8
細線
 48
50.0
100
AcDbLine
 10
11071.60199965139
 20
1118.952307025339
 30
0.0
 11
11151.60199965139
 21
1118.952307025339
 31
0.0
  0
LINE
  5
236DB
330
747D
100
AcDbEntity
  8
細線
 48
50.0
100
AcDbLine
 10
11051.60199965139
 20
1104.952307025339
 30
0.0
 11
11051.60199965139
 21
1115.952307025339
 31
0.0
  0
ARC
  5
236DC
330
747D
100
AcDbEntity
  8
細線
 48
50.0
100
AcDbCircle
 10
11120.16939256767
 20
1243.180880425339
 30
0.0
 40
8.571426599999998
100
AcDbArc
 50
281.8791319700971
 51
159.0160211803571
  0
LINE
  5
236DD
330
747D
100
AcDbEntity
  8
細線
 48
50.0
100
AcDbLine
 10
11113.60393642369
 20
1232.179901847376
 30
0.0
 11
11121.93380173266
 21
1234.793019300015
 31
0.0
  0
ARC
  5
236DE
330
747D
100
AcDbEntity
  8
細線
 48
50.0
100
AcDbCircle
 10
11114.45914185139
 20
1229.453753423783
 30
0.0
 40
2.8571422
100
AcDbArc
 50
107.4168835437642
 51
180.0
  0
LINE
  5
236DF
330
747D
100
AcDbEntity
  8
部品1
 48
50.0
100
AcDbLine
 10
11191.60198585139
 20
1132.064031858637
 30
0.0
 11
11191.60198585139
 21
1100.666591425339
 31
0.0
  0
CIRCLE
  5
236E0
330
747D
100
AcDbEntity
  8
点線
 48
10.0
100
AcDbCircle
 10
11381.15679881208
 20
970.6506113899777
 30
0.0
 40
10.0
  0
CIRCLE
  5
236E1
330
747D
100
AcDbEntity
  8
点線
 48
10.0
100
AcDbCircle
 10
11581.15679881208
 20
970.6506113899777
 30
0.0
 40
10.0
  0
LINE
  5
236E2
330
747D
100
AcDbEntity
  8
細線
 48
50.0
100
AcDbLine
 10
12022.04705199032
 20
831.7824434177463
 30
0.0
 11
12016.6880681417
 21
851.7824434177473
 31
0.0
  0
LINE
  5
236E3
330
747D
100
AcDbEntity
  8
細線
 48
50.0
100
AcDbLine
 10
11923.43699580626
 20
831.7824434177436
 30
0.0
 11
11918.07801195763
 21
851.78244341775
 31
0.0
  0
LINE
  5
236E4
330
747D
100
AcDbEntity
  8
細線
 48
50.0
100
AcDbLine
 10
11824.8269396222
 20
831.7824434177474
 30
0.0
 11
11819.46795577357
 21
851.7824434177473
 31
0.0
  0
LINE
  5
236E5
330
747D
100
AcDbEntity
  8
細線
 48
50.0
100
AcDbLine
 10
11726.21688343814
 20
831.7824434177436
 30
0.0
 11
11720.85789958951
 21
851.78244341775
 31
0.0
  0
LINE
  5
236E6
330
747D
100
AcDbEntity
  8
細線
 48
50.0
100
AcDbLine
 10
12317.8772205425
 20
831.7824434177474
 30
0.0
 11
12312.51823669388
 21
851.7824434177509
 31
0.0
  0
LINE
  5
236E7
330
747D
100
AcDbEntity
  8
細線
 48
50.0
100
AcDbLine
 10
12120.65710817438
 20
831.7824434177509
 30
0.0
 11
12115.29812432576
 21
851.7824434177509
 31
0.0
  0
LINE
  5
236E8
330
747D
100
AcDbEntity
  8
細線
 48
50.0
100
AcDbLine
 10
12219.26716435844
 20
831.7824434177509
 30
0.0
 11
12213.90818050982
 21
851.7824434177509
 31
0.0
  0
LINE
  5
236E9
330
747D
100
AcDbEntity
  8
細線
 48
50.0
100
AcDbLine
 10
11808.74998807634
 20
731.7824434177473
 30
0.0
 11
11803.39100422771
 21
751.7824434177573
 31
0.0
  0
LINE
  5
236EA
330
747D
100
AcDbEntity
  8
細線
 48
50.0
100
AcDbLine
 10
11710.13993189228
 20
731.7824434177473
 30
0.0
 11
11704.78094804365
 21
751.7824434177537
 31
0.0
  0
LINE
  5
236EB
330
747D
100
AcDbEntity
  8
細線
 48
50.0
100
AcDbLine
 10
11907.3600442604
 20
731.7824434177473
 30
0.0
 11
11902.00106041177
 21
751.7824434177537
 31
0.0
  0
LINE
  5
236EC
330
747D
100
AcDbEntity
  8
細線
 48
50.0
100
AcDbLine
 10
12005.97010044446
 20
731.7824434177473
 30
0.0
 11
12000.61111659583
 21
751.782443417751
 31
0.0
  0
LINE
  5
236ED
330
747D
100
AcDbEntity
  8
細線
 48
50.0
100
AcDbLine
 10
12104.58015662852
 20
731.78244341775
 30
0.0
 11
12099.2211727799
 21
751.7824434177546
 31
0.0
  0
LINE
  5
236EE
330
747D
100
AcDbEntity
  8
細線
 48
50.0
100
AcDbLine
 10
12203.19021281258
 20
731.78244341775
 30
0.0
 11
12197.83122896395
 21
751.7824434177582
 31
0.0
  0
LINE
  5
236EF
330
747D
100
AcDbEntity
  8
細線
 48
50.0
100
AcDbLine
 10
12301.80026899664
 20
731.7824434177473
 30
0.0
 11
12296.44128514802
 21
751.7824434177537
 31
0.0
  0
CIRCLE
  5
236F0
330
747D
100
AcDbEntity
  8
点線
 48
10.0
100
AcDbCircle
 10
11781.15679881208
 20
970.6506113899777
 30
0.0
 40
10.0
  0
CIRCLE
  5
236F1
330
747D
100
AcDbEntity
  8
点線
 48
10.0
100
AcDbCircle
 10
11981.15679881208
 20
970.6506113899777
 30
0.0
 40
10.0
  0
CIRCLE
  5
236F2
330
747D
100
AcDbEntity
  8
点線
 48
10.0
100
AcDbCircle
 10
12181.15679881208
 20
970.6506113899777
 30
0.0
 40
10.0
  0
ARC
  5
236F3
330
747D
100
AcDbEntity
  8
細線
 48
50.0
100
AcDbCircle
 10
11119.99289883528
 20
1762.067763250476
 30
0.0
 40
3.0
100
AcDbArc
 50
49.49171241452709
 51
163.5378536914189
  0
ARC
  5
236F4
330
747D
100
AcDbEntity
  8
細線
 48
50.0
100
AcDbCircle
 10
11117.51682119456
 20
1761.139323687978
 30
0.0
 40
5.5
100
AcDbArc
 50
226.676492758073
 51
32.97249425048676
  0
LINE
  5
236F5
330
747D
100
AcDbEntity
  8
細線
 48
50.0
100
AcDbLine
 10
11110.94249698412
 20
1761.140081105017
 30
0.0
 11
11097.27421388766
 21
1772.774512382748
 31
0.0
  0
ARC
  5
236F6
330
747D
100
AcDbEntity
  8
細線
 48
50.0
100
AcDbCircle
 10
11118.61396704919
 20
1759.139323687978
 30
0.0
 40
7.5
100
AcDbArc
 50
0.0
 51
90.0
  0
ARC
  5
236F7
330
747D
100
AcDbEntity
  8
細線
 48
50.0
100
AcDbCircle
 10
11117.54254044919
 20
1762.139323687978
 30
0.0
 40
4.5
100
AcDbArc
 50
90.0
 51
236.3688917191486
  0
ARC
  5
236F8
330
747D
100
AcDbEntity
  8
細線
 48
50.0
100
AcDbCircle
 10
11092.27779953957
 20
1530.929363336404
 30
0.0
 40
5.0
100
AcDbArc
 50
351.3533349444468
 51
18.43494882290553
  0
ARC
  5
236F9
330
747D
100
AcDbEntity
  8
細線
 48
50.0
100
AcDbCircle
 10
11114.42929521247
 20
1499.865612749313
 30
0.0
 40
1.0
100
AcDbArc
 50
204.8344764792676
 51
226.676492758073
  0
ARC
  5
236FA
330
747D
100
AcDbEntity
  8
細線
 48
50.0
100
AcDbCircle
 10
11121.29201489719
 20
1505.588387286092
 30
0.0
 40
1.0
100
AcDbArc
 50
32.97249425048676
 51
49.49171241452709
  0
ARC
  5
236FB
330
747D
100
AcDbEntity
  8
細線
 48
50.0
100
AcDbCircle
 10
11117.51682119456
 20
1503.139323687978
 30
0.0
 40
5.5
100
AcDbArc
 50
226.676492758073
 51
32.97249425048676
  0
ARC
  5
236FC
330
747D
100
AcDbEntity
  8
細線
 48
50.0
100
AcDbCircle
 10
11119.99289883528
 20
1504.067763250477
 30
0.0
 40
3.0
100
AcDbArc
 50
49.49171241452709
 51
163.5378536914189
  0
LINE
  5
236FD
330
747D
100
AcDbEntity
  8
細線
 48
50.0
100
AcDbLine
 10
11095.57193456413
 20
1519.333657952752
 30
0.0
 11
11097.22097085323
 21
1530.177660360616
 31
0.0
  0
ARC
  5
236FE
330
747D
100
AcDbEntity
  8
細線
 48
50.0
100
AcDbCircle
 10
11100.51510587779
 20
1518.581954976964
 30
0.0
 40
5.0
100
AcDbArc
 50
171.3533349444468
 51
229.5955987260252
  0
ARC
  5
236FF
330
747D
100
AcDbEntity
  8
細線
 48
50.0
100
AcDbCircle
 10
11107.70160499398
 20
1499.332638510803
 30
0.0
 40
5.0
100
AcDbArc
 50
31.91646367373018
 51
49.59559872602518
  0
LINE
  5
23700
330
747D
100
AcDbEntity
  8
細線
 48
50.0
100
AcDbLine
 10
11111.9457040355
 20
1501.976049815497
 30
0.0
 11
11113.52177029436
 21
1499.445614507639
 31
0.0
  0
LINE
  5
23701
330
747D
100
AcDbEntity
  8
細線
 48
50.0
100
AcDbLine
 10
11110.94249698412
 20
1503.140081105018
 30
0.0
 11
11097.27421388766
 21
1514.774512382748
 31
0.0
  0
LINE
  5
23702
330
747D
100
AcDbEntity
  8
細線
 48
50.0
100
AcDbLine
 10
11118.61396704919
 20
1508.639323687978
 30
0.0
 11
11117.54254044919
 21
1508.639323687978
 31
0.0
  0
LINE
  5
23703
330
747D
100
AcDbEntity
  8
細線
 48
50.0
100
AcDbLine
 10
11118.61396704919
 20
1379.639323687978
 30
0.0
 11
11117.54254044919
 21
1379.639323687978
 31
0.0
  0
ARC
  5
23704
330
747D
100
AcDbEntity
  8
細線
 48
50.0
100
AcDbCircle
 10
11114.42929521247
 20
1370.865612749313
 30
0.0
 40
1.0
100
AcDbArc
 50
204.8344764792676
 51
226.676492758073
  0
ARC
  5
23705
330
747D
100
AcDbEntity
  8
細線
 48
50.0
100
AcDbCircle
 10
11121.29201489719
 20
1376.588387286092
 30
0.0
 40
1.0
100
AcDbArc
 50
32.97249425048676
 51
49.49171241452709
  0
ARC
  5
23706
330
747D
100
AcDbEntity
  8
細線
 48
50.0
100
AcDbCircle
 10
11117.51682119456
 20
1374.139323687978
 30
0.0
 40
5.5
100
AcDbArc
 50
226.676492758073
 51
32.97249425048676
  0
ARC
  5
23707
330
747D
100
AcDbEntity
  8
細線
 48
50.0
100
AcDbCircle
 10
11119.99289883528
 20
1375.067763250477
 30
0.0
 40
3.0
100
AcDbArc
 50
49.49171241452709
 51
163.5378536914189
  0
ARC
  5
23708
330
747D
100
AcDbEntity
  8
細線
 48
50.0
100
AcDbCircle
 10
11117.54254044919
 20
1504.139323687978
 30
0.0
 40
4.5
100
AcDbArc
 50
90.0
 51
236.3688917191486
  0
ARC
  5
23709
330
747D
100
AcDbEntity
  8
細線
 48
50.0
100
AcDbCircle
 10
11118.61396704919
 20
1501.139323687978
 30
0.0
 40
7.5
100
AcDbArc
 50
0.0
 51
90.0
  0
ARC
  5
2370A
330
747D
100
AcDbEntity
  8
細線
 48
50.0
100
AcDbCircle
 10
11118.11396704919
 20
1501.139323687978
 30
0.0
 40
8.0
100
AcDbArc
 50
284.9999999999944
 51
0.0
  0
LINE
  5
2370B
330
747D
100
AcDbEntity
  8
細線
 48
50.0
100
AcDbLine
 10
11095.57193456413
 20
1390.333657952752
 30
0.0
 11
11097.22097085323
 21
1401.177660360616
 31
0.0
  0
ARC
  5
2370C
330
747D
100
AcDbEntity
  8
細線
 48
50.0
100
AcDbCircle
 10
11100.51510587779
 20
1389.581954976964
 30
0.0
 40
5.0
100
AcDbArc
 50
171.3533349444468
 51
229.5955987260252
  0
LINE
  5
2370D
330
747D
100
AcDbEntity
  8
細線
 48
50.0
100
AcDbLine
 10
11095.56649095662
 20
1476.931514317716
 30
0.0
 11
11097.23015594241
 21
1465.544375503114
 31
0.0
  0
ARC
  5
2370E
330
747D
100
AcDbEntity
  8
細線
 48
50.0
100
AcDbCircle
 10
11100.51396704919
 20
1477.654342314916
 30
0.0
 40
5.0
100
AcDbArc
 50
127.8024896643428
 51
188.3121248301157
  0
LINE
  5
2370F
330
747D
100
AcDbEntity
  8
細線
 48
50.0
100
AcDbLine
 10
11097.02121602982
 20
1403.510502166488
 30
0.0
 11
11095.98118866776
 21
1406.630584252683
 31
0.0
  0
ARC
  5
23710
330
747D
100
AcDbEntity
  8
細線
 48
50.0
100
AcDbCircle
 10
11092.27779953957
 20
1401.929363336405
 30
0.0
 40
5.0
100
AcDbArc
 50
351.3533349444468
 51
18.43494882290553
  0
LINE
  5
23711
330
747D
100
AcDbEntity
  8
細線
 48
50.0
100
AcDbLine
 10
11096.08222170359
 20
1410.068676464542
 30
0.0
 11
11096.65922374737
 21
1411.511181573981
 31
0.0
  0
ARC
  5
23712
330
747D
100
AcDbEntity
  8
細線
 48
50.0
100
AcDbCircle
 10
11100.72460515801
 20
1408.211723082769
 30
0.0
 40
5.0
100
AcDbArc
 50
158.1985905136578
 51
198.4349488229055
  0
LINE
  5
23713
330
747D
100
AcDbEntity
  8
細線
 48
50.0
100
AcDbLine
 10
11096.65922374737
 20
1415.225088337522
 30
0.0
 11
11096.14478645278
 21
1416.511181573979
 31
0.0
  0
ARC
  5
23714
330
747D
100
AcDbEntity
  8
細線
 48
50.0
100
AcDbCircle
 10
11092.01684029294
 20
1413.368134955752
 30
0.0
 40
5.0
100
AcDbArc
 50
338.1985905136578
 51
21.80140948634214
  0
LINE
  5
23715
330
747D
100
AcDbEntity
  8
細線
 48
50.0
100
AcDbLine
 10
11096.14478645278
 20
1420.225088337522
 30
0.0
 11
11096.94740534462
 21
1422.231635567127
 31
0.0
  0
ARC
  5
23716
330
747D
100
AcDbEntity
  8
細線
 48
50.0
100
AcDbCircle
 10
11100.78716990721
 20
1418.36813495575
 30
0.0
 40
5.0
100
AcDbArc
 50
158.1985905136578
 51
201.8014094863421
  0
LINE
  5
23717
330
747D
100
AcDbEntity
  8
細線
 48
50.0
100
AcDbLine
 10
11097.28020784125
 20
1424.586107544003
 30
0.0
 11
11096.45175695958
 21
1432.870616360649
 31
0.0
  0
ARC
  5
23718
330
747D
100
AcDbEntity
  8
細線
 48
50.0
100
AcDbCircle
 10
11092.3050218902
 20
1424.088588948898
 30
0.0
 40
5.0
100
AcDbArc
 50
338.1985905136578
 51
5.710593137530753
  0
LINE
  5
23719
330
747D
100
AcDbEntity
  8
細線
 48
50.0
100
AcDbLine
 10
11097.28020784125
 20
1442.150162367497
 30
0.0
 11
11096.45175695958
 21
1433.865653550859
 31
0.0
  0
ARC
  5
2371A
330
747D
100
AcDbEntity
  8
細線
 48
50.0
100
AcDbCircle
 10
11101.42694291063
 20
1433.368134955754
 30
0.0
 40
5.0
100
AcDbArc
 50
174.2894068624692
 51
185.7105931375308
  0
LINE
  5
2371B
330
747D
100
AcDbEntity
  8
細線
 48
50.0
100
AcDbLine
 10
11096.14478645278
 20
1446.511181573979
 30
0.0
 11
11096.94740534462
 21
1444.504634344374
 31
0.0
  0
ARC
  5
2371C
330
747D
100
AcDbEntity
  8
細線
 48
50.0
100
AcDbCircle
 10
11092.3050218902
 20
1442.647680962602
 30
0.0
 40
5.0
100
AcDbArc
 50
354.2894068624692
 51
21.80140948634214
  0
LINE
  5
2371D
330
747D
100
AcDbEntity
  8
細線
 48
50.0
100
AcDbLine
 10
11096.65922374736
 20
1451.511181573982
 30
0.0
 11
11096.14478645278
 21
1450.22508833752
 31
0.0
  0
ARC
  5
2371E
330
747D
100
AcDbEntity
  8
細線
 48
50.0
100
AcDbCircle
 10
11100.7871699072
 20
1448.36813495575
 30
0.0
 40
5.0
100
AcDbArc
 50
158.1985905136578
 51
201.8014094863421
  0
LINE
  5
2371F
330
747D
100
AcDbEntity
  8
細線
 48
50.0
100
AcDbLine
 10
11096.08222170358
 20
1456.667593446962
 30
0.0
 11
11096.65922374736
 21
1455.225088337524
 31
0.0
  0
ARC
  5
23720
330
747D
100
AcDbEntity
  8
細線
 48
50.0
100
AcDbCircle
 10
11092.01684029293
 20
1453.368134955753
 30
0.0
 40
5.0
100
AcDbArc
 50
338.1985905136578
 51
21.80140948634214
  0
LINE
  5
23721
330
747D
100
AcDbEntity
  8
細線
 48
50.0
100
AcDbLine
 10
11097.0260963401
 20
1463.240408675831
 30
0.0
 11
11095.98118866776
 21
1460.105685658817
 31
0.0
  0
ARC
  5
23722
330
747D
100
AcDbEntity
  8
細線
 48
50.0
100
AcDbCircle
 10
11100.72460515801
 20
1458.524546828733
 30
0.0
 40
5.0
100
AcDbArc
 50
161.5650511770944
 51
201.8014094863421
  0
ARC
  5
23723
330
747D
100
AcDbEntity
  8
細線
 48
50.0
100
AcDbCircle
 10
11092.28267984984
 20
1464.821547505915
 30
0.0
 40
5.0
100
AcDbArc
 50
341.5650511770945
 51
8.312124830064131
  0
ARC
  5
23724
330
747D
100
AcDbEntity
  8
細線
 48
50.0
100
AcDbCircle
 10
11107.70160499398
 20
1370.332638510803
 30
0.0
 40
5.0
100
AcDbArc
 50
31.91646367373018
 51
49.59559872602518
  0
LINE
  5
23725
330
747D
100
AcDbEntity
  8
細線
 48
50.0
100
AcDbLine
 10
11111.9457040355
 20
1372.976049815497
 30
0.0
 11
11113.52177029436
 21
1370.445614507639
 31
0.0
  0
LINE
  5
23726
330
747D
100
AcDbEntity
  8
細線
 48
50.0
100
AcDbLine
 10
11110.94249698412
 20
1374.140081105018
 30
0.0
 11
11097.27421388766
 21
1385.774512382748
 31
0.0
  0
ARC
  5
23727
330
747D
100
AcDbEntity
  8
細線
 48
50.0
100
AcDbCircle
 10
11110.97179708802
 20
1485.766994669347
 30
0.0
 40
5.0
100
AcDbArc
 50
104.9999999999944
 51
127.8024896643428
  0
LINE
  5
23728
330
747D
100
AcDbEntity
  8
細線
 48
50.0
100
AcDbLine
 10
11107.90709015025
 20
1489.71763656473
 30
0.0
 11
11097.44926011141
 21
1481.604984210299
 31
0.0
  0
LINE
  5
23729
330
747D
100
AcDbEntity
  8
細線
 48
50.0
100
AcDbLine
 10
11120.18451941001
 20
1493.411917077666
 30
0.0
 11
11109.67770186251
 21
1490.596623800792
 31
0.0
  0
ARC
  5
2372A
330
747D
100
AcDbEntity
  8
細線
 48
50.0
100
AcDbCircle
 10
11110.97179708802
 20
1356.766994669348
 30
0.0
 40
5.0
100
AcDbArc
 50
104.9999999999944
 51
127.8024896643428
  0
ARC
  5
2372B
330
747D
100
AcDbEntity
  8
細線
 48
50.0
100
AcDbCircle
 10
11100.51396704919
 20
1348.654342314916
 30
0.0
 40
5.0
100
AcDbArc
 50
127.8024896643428
 51
188.3121248301157
  0
ARC
  5
2372C
330
747D
100
AcDbEntity
  8
細線
 48
50.0
100
AcDbCircle
 10
11101.42694291063
 20
1304.368134955754
 30
0.0
 40
5.0
100
AcDbArc
 50
174.2894068624692
 51
185.7105931375308
  0
ARC
  5
2372D
330
747D
100
AcDbEntity
  8
細線
 48
50.0
100
AcDbCircle
 10
11092.3050218902
 20
1313.647680962602
 30
0.0
 40
5.0
100
AcDbArc
 50
354.2894068624692
 51
21.80140948634214
  0
ARC
  5
2372E
330
747D
100
AcDbEntity
  8
細線
 48
50.0
100
AcDbCircle
 10
11100.7871699072
 20
1319.36813495575
 30
0.0
 40
5.0
100
AcDbArc
 50
158.1985905136578
 51
201.8014094863421
  0
ARC
  5
2372F
330
747D
100
AcDbEntity
  8
細線
 48
50.0
100
AcDbCircle
 10
11092.01684029293
 20
1324.368134955753
 30
0.0
 40
5.0
100
AcDbArc
 50
338.1985905136578
 51
21.80140948634214
  0
ARC
  5
23730
330
747D
100
AcDbEntity
  8
細線
 48
50.0
100
AcDbCircle
 10
11100.72460515801
 20
1329.524546828733
 30
0.0
 40
5.0
100
AcDbArc
 50
161.5650511770944
 51
201.8014094863421
  0
ARC
  5
23731
330
747D
100
AcDbEntity
  8
細線
 48
50.0
100
AcDbCircle
 10
11092.28267984984
 20
1335.821547505915
 30
0.0
 40
5.0
100
AcDbArc
 50
341.5650511770945
 51
8.312124830064131
  0
LINE
  5
23732
330
747D
100
AcDbEntity
  8
細線
 48
50.0
100
AcDbLine
 10
11097.28020784125
 20
1313.150162367497
 30
0.0
 11
11096.45175695958
 21
1304.865653550859
 31
0.0
  0
LINE
  5
23733
330
747D
100
AcDbEntity
  8
細線
 48
50.0
100
AcDbLine
 10
11096.14478645278
 20
1317.511181573979
 30
0.0
 11
11096.94740534462
 21
1315.504634344375
 31
0.0
  0
LINE
  5
23734
330
747D
100
AcDbEntity
  8
細線
 48
50.0
100
AcDbLine
 10
11096.65922374736
 20
1322.511181573982
 30
0.0
 11
11096.14478645278
 21
1321.22508833752
 31
0.0
  0
LINE
  5
23735
330
747D
100
AcDbEntity
  8
細線
 48
50.0
100
AcDbLine
 10
11096.08222170358
 20
1327.667593446962
 30
0.0
 11
11096.65922374736
 21
1326.225088337524
 31
0.0
  0
LINE
  5
23736
330
747D
100
AcDbEntity
  8
細線
 48
50.0
100
AcDbLine
 10
11097.0260963401
 20
1334.240408675831
 30
0.0
 11
11095.98118866776
 21
1331.105685658817
 31
0.0
  0
LINE
  5
23737
330
747D
100
AcDbEntity
  8
細線
 48
50.0
100
AcDbLine
 10
11095.56649095662
 20
1347.931514317716
 30
0.0
 11
11097.23015594241
 21
1336.544375503114
 31
0.0
  0
ARC
  5
23738
330
747D
100
AcDbEntity
  8
細線
 48
50.0
100
AcDbCircle
 10
11117.54254044919
 20
1375.139323687978
 30
0.0
 40
4.5
100
AcDbArc
 50
90.0
 51
236.3688917191486
  0
ARC
  5
23739
330
747D
100
AcDbEntity
  8
細線
 48
50.0
100
AcDbCircle
 10
11118.11396704919
 20
1372.139323687978
 30
0.0
 40
8.0
100
AcDbArc
 50
284.9999999999944
 51
0.0
  0
LINE
  5
2373A
330
747D
100
AcDbEntity
  8
細線
 48
50.0
100
AcDbLine
 10
11120.18451941001
 20
1364.411917077666
 30
0.0
 11
11109.67770186251
 21
1361.596623800792
 31
0.0
  0
LINE
  5
2373B
330
747D
100
AcDbEntity
  8
細線
 48
50.0
100
AcDbLine
 10
11107.90709015025
 20
1360.71763656473
 30
0.0
 11
11097.44926011141
 21
1352.604984210299
 31
0.0
  0
ARC
  5
2373C
330
747D
100
AcDbEntity
  8
細線
 48
50.0
100
AcDbCircle
 10
11118.61396704919
 20
1372.139323687978
 30
0.0
 40
7.5
100
AcDbArc
 50
0.0
 51
90.0
  0
ARC
  5
2373D
330
747D
100
AcDbEntity
  8
細線
 48
50.0
100
AcDbCircle
 10
11114.42929521247
 20
1757.865612749313
 30
0.0
 40
1.0
100
AcDbArc
 50
204.8344764792676
 51
226.676492758073
  0
LINE
  5
2373E
330
747D
100
AcDbEntity
  8
細線
 48
50.0
100
AcDbLine
 10
11111.9457040355
 20
1759.976049815496
 30
0.0
 11
11113.52177029436
 21
1757.445614507638
 31
0.0
  0
ARC
  5
2373F
330
747D
100
AcDbEntity
  8
細線
 48
50.0
100
AcDbCircle
 10
11107.70160499398
 20
1757.332638510803
 30
0.0
 40
5.0
100
AcDbArc
 50
31.91646367373018
 51
49.59559872602518
  0
LINE
  5
23740
330
747D
100
AcDbEntity
  8
細線
 48
50.0
100
AcDbLine
 10
11120.18451941001
 20
1751.411917077666
 30
0.0
 11
11109.67770186251
 21
1748.596623800792
 31
0.0
  0
LINE
  5
23741
330
747D
100
AcDbEntity
  8
細線
 48
50.0
100
AcDbLine
 10
11107.90709015025
 20
1747.71763656473
 30
0.0
 11
11097.44926011141
 21
1739.604984210299
 31
0.0
  0
ARC
  5
23742
330
747D
100
AcDbEntity
  8
細線
 48
50.0
100
AcDbCircle
 10
11110.97179708802
 20
1743.766994669348
 30
0.0
 40
5.0
100
AcDbArc
 50
104.9999999999944
 51
127.8024896643428
  0
ARC
  5
23743
330
747D
100
AcDbEntity
  8
細線
 48
50.0
100
AcDbCircle
 10
11092.28267984984
 20
1722.821547505914
 30
0.0
 40
5.0
100
AcDbArc
 50
341.5650511770945
 51
8.312124830064131
  0
ARC
  5
23744
330
747D
100
AcDbEntity
  8
細線
 48
50.0
100
AcDbCircle
 10
11100.72460515801
 20
1716.524546828732
 30
0.0
 40
5.0
100
AcDbArc
 50
161.5650511770944
 51
201.8014094863421
  0
LINE
  5
23745
330
747D
100
AcDbEntity
  8
細線
 48
50.0
100
AcDbLine
 10
11097.0260963401
 20
1721.240408675831
 30
0.0
 11
11095.98118866776
 21
1718.105685658817
 31
0.0
  0
ARC
  5
23746
330
747D
100
AcDbEntity
  8
細線
 48
50.0
100
AcDbCircle
 10
11092.01684029293
 20
1711.368134955753
 30
0.0
 40
5.0
100
AcDbArc
 50
338.1985905136578
 51
21.80140948634214
  0
LINE
  5
23747
330
747D
100
AcDbEntity
  8
細線
 48
50.0
100
AcDbLine
 10
11096.08222170358
 20
1714.667593446962
 30
0.0
 11
11096.65922374736
 21
1713.225088337524
 31
0.0
  0
ARC
  5
23748
330
747D
100
AcDbEntity
  8
細線
 48
50.0
100
AcDbCircle
 10
11100.7871699072
 20
1706.36813495575
 30
0.0
 40
5.0
100
AcDbArc
 50
158.1985905136578
 51
201.8014094863421
  0
LINE
  5
23749
330
747D
100
AcDbEntity
  8
細線
 48
50.0
100
AcDbLine
 10
11096.65922374736
 20
1709.511181573982
 30
0.0
 11
11096.14478645278
 21
1708.225088337519
 31
0.0
  0
ARC
  5
2374A
330
747D
100
AcDbEntity
  8
細線
 48
50.0
100
AcDbCircle
 10
11092.3050218902
 20
1700.647680962602
 30
0.0
 40
5.0
100
AcDbArc
 50
354.2894068624692
 51
21.80140948634214
  0
LINE
  5
2374B
330
747D
100
AcDbEntity
  8
細線
 48
50.0
100
AcDbLine
 10
11096.14478645278
 20
1704.511181573978
 30
0.0
 11
11096.94740534462
 21
1702.504634344373
 31
0.0
  0
ARC
  5
2374C
330
747D
100
AcDbEntity
  8
細線
 48
50.0
100
AcDbCircle
 10
11100.51396704919
 20
1735.654342314915
 30
0.0
 40
5.0
100
AcDbArc
 50
127.8024896643428
 51
188.3121248301157
  0
LINE
  5
2374D
330
747D
100
AcDbEntity
  8
細線
 48
50.0
100
AcDbLine
 10
11095.56649095662
 20
1734.931514317717
 30
0.0
 11
11097.23015594241
 21
1723.544375503114
 31
0.0
  0
ARC
  5
2374E
330
747D
100
AcDbEntity
  8
細線
 48
50.0
100
AcDbCircle
 10
11118.11396704919
 20
1759.139323687978
 30
0.0
 40
8.0
100
AcDbArc
 50
284.9999999999944
 51
0.0
  0
ARC
  5
2374F
330
747D
100
AcDbEntity
  8
細線
 48
50.0
100
AcDbCircle
 10
11117.54254044919
 20
1633.139323687978
 30
0.0
 40
4.5
100
AcDbArc
 50
90.0
 51
236.3688917191486
  0
ARC
  5
23750
330
747D
100
AcDbEntity
  8
細線
 48
50.0
100
AcDbCircle
 10
11118.61396704919
 20
1630.139323687978
 30
0.0
 40
7.5
100
AcDbArc
 50
0.0
 51
90.0
  0
ARC
  5
23751
330
747D
100
AcDbEntity
  8
細線
 48
50.0
100
AcDbCircle
 10
11118.11396704919
 20
1630.139323687978
 30
0.0
 40
8.0
100
AcDbArc
 50
284.9999999999944
 51
0.0
  0
LINE
  5
23752
330
747D
100
AcDbEntity
  8
細線
 48
50.0
100
AcDbLine
 10
11095.56649095662
 20
1605.931514317716
 30
0.0
 11
11097.23015594241
 21
1594.544375503114
 31
0.0
  0
ARC
  5
23753
330
747D
100
AcDbEntity
  8
細線
 48
50.0
100
AcDbCircle
 10
11100.51396704919
 20
1606.654342314915
 30
0.0
 40
5.0
100
AcDbArc
 50
127.8024896643428
 51
188.3121248301157
  0
LINE
  5
23754
330
747D
100
AcDbEntity
  8
細線
 48
50.0
100
AcDbLine
 10
11097.02121602982
 20
1532.510502166488
 30
0.0
 11
11095.98118866776
 21
1535.630584252684
 31
0.0
  0
LINE
  5
23755
330
747D
100
AcDbEntity
  8
細線
 48
50.0
100
AcDbLine
 10
11096.08222170359
 20
1539.06867646454
 30
0.0
 11
11096.65922374737
 21
1540.511181573981
 31
0.0
  0
ARC
  5
23756
330
747D
100
AcDbEntity
  8
細線
 48
50.0
100
AcDbCircle
 10
11100.72460515801
 20
1537.211723082769
 30
0.0
 40
5.0
100
AcDbArc
 50
158.1985905136578
 51
198.4349488229055
  0
LINE
  5
23757
330
747D
100
AcDbEntity
  8
細線
 48
50.0
100
AcDbLine
 10
11096.65922374737
 20
1544.225088337522
 30
0.0
 11
11096.14478645278
 21
1545.511181573979
 31
0.0
  0
ARC
  5
23758
330
747D
100
AcDbEntity
  8
細線
 48
50.0
100
AcDbCircle
 10
11092.01684029294
 20
1542.368134955752
 30
0.0
 40
5.0
100
AcDbArc
 50
338.1985905136578
 51
21.80140948634214
  0
LINE
  5
23759
330
747D
100
AcDbEntity
  8
細線
 48
50.0
100
AcDbLine
 10
11096.14478645278
 20
1549.225088337522
 30
0.0
 11
11096.94740534462
 21
1551.231635567127
 31
0.0
  0
ARC
  5
2375A
330
747D
100
AcDbEntity
  8
細線
 48
50.0
100
AcDbCircle
 10
11100.78716990721
 20
1547.36813495575
 30
0.0
 40
5.0
100
AcDbArc
 50
158.1985905136578
 51
201.8014094863421
  0
LINE
  5
2375B
330
747D
100
AcDbEntity
  8
細線
 48
50.0
100
AcDbLine
 10
11097.28020784125
 20
1553.586107544003
 30
0.0
 11
11096.45175695958
 21
1561.870616360649
 31
0.0
  0
ARC
  5
2375C
330
747D
100
AcDbEntity
  8
細線
 48
50.0
100
AcDbCircle
 10
11092.3050218902
 20
1553.088588948898
 30
0.0
 40
5.0
100
AcDbArc
 50
338.1985905136578
 51
5.710593137530753
  0
LINE
  5
2375D
330
747D
100
AcDbEntity
  8
細線
 48
50.0
100
AcDbLine
 10
11097.28020784125
 20
1571.150162367497
 30
0.0
 11
11096.45175695958
 21
1562.865653550859
 31
0.0
  0
ARC
  5
2375E
330
747D
100
AcDbEntity
  8
細線
 48
50.0
100
AcDbCircle
 10
11101.42694291063
 20
1562.368134955754
 30
0.0
 40
5.0
100
AcDbArc
 50
174.2894068624692
 51
185.7105931375308
  0
LINE
  5
2375F
330
747D
100
AcDbEntity
  8
細線
 48
50.0
100
AcDbLine
 10
11096.14478645278
 20
1575.511181573978
 30
0.0
 11
11096.94740534462
 21
1573.504634344374
 31
0.0
  0
ARC
  5
23760
330
747D
100
AcDbEntity
  8
細線
 48
50.0
100
AcDbCircle
 10
11092.3050218902
 20
1571.647680962602
 30
0.0
 40
5.0
100
AcDbArc
 50
354.2894068624692
 51
21.80140948634214
  0
LINE
  5
23761
330
747D
100
AcDbEntity
  8
細線
 48
50.0
100
AcDbLine
 10
11096.65922374736
 20
1580.511181573982
 30
0.0
 11
11096.14478645278
 21
1579.225088337519
 31
0.0
  0
ARC
  5
23762
330
747D
100
AcDbEntity
  8
細線
 48
50.0
100
AcDbCircle
 10
11100.7871699072
 20
1577.36813495575
 30
0.0
 40
5.0
100
AcDbArc
 50
158.1985905136578
 51
201.8014094863421
  0
LINE
  5
23763
330
747D
100
AcDbEntity
  8
細線
 48
50.0
100
AcDbLine
 10
11096.08222170358
 20
1585.667593446962
 30
0.0
 11
11096.65922374736
 21
1584.225088337524
 31
0.0
  0
ARC
  5
23764
330
747D
100
AcDbEntity
  8
細線
 48
50.0
100
AcDbCircle
 10
11092.01684029293
 20
1582.368134955752
 30
0.0
 40
5.0
100
AcDbArc
 50
338.1985905136578
 51
21.80140948634214
  0
LINE
  5
23765
330
747D
100
AcDbEntity
  8
細線
 48
50.0
100
AcDbLine
 10
11097.0260963401
 20
1592.240408675831
 30
0.0
 11
11095.98118866776
 21
1589.105685658817
 31
0.0
  0
ARC
  5
23766
330
747D
100
AcDbEntity
  8
細線
 48
50.0
100
AcDbCircle
 10
11100.72460515801
 20
1587.524546828733
 30
0.0
 40
5.0
100
AcDbArc
 50
161.5650511770944
 51
201.8014094863421
  0
ARC
  5
23767
330
747D
100
AcDbEntity
  8
細線
 48
50.0
100
AcDbCircle
 10
11092.28267984984
 20
1593.821547505915
 30
0.0
 40
5.0
100
AcDbArc
 50
341.5650511770945
 51
8.312124830064131
  0
ARC
  5
23768
330
747D
100
AcDbEntity
  8
細線
 48
50.0
100
AcDbCircle
 10
11110.97179708802
 20
1614.766994669347
 30
0.0
 40
5.0
100
AcDbArc
 50
104.9999999999944
 51
127.8024896643428
  0
LINE
  5
23769
330
747D
100
AcDbEntity
  8
細線
 48
50.0
100
AcDbLine
 10
11107.90709015025
 20
1618.71763656473
 30
0.0
 11
11097.44926011141
 21
1610.604984210299
 31
0.0
  0
LINE
  5
2376A
330
747D
100
AcDbEntity
  8
細線
 48
50.0
100
AcDbLine
 10
11120.18451941001
 20
1622.411917077666
 30
0.0
 11
11109.67770186251
 21
1619.596623800792
 31
0.0
  0
LINE
  5
2376B
330
747D
100
AcDbEntity
  8
細線
 48
50.0
100
AcDbLine
 10
11110.94249698412
 20
1632.140081105018
 30
0.0
 11
11097.27421388766
 21
1643.774512382748
 31
0.0
  0
LINE
  5
2376C
330
747D
100
AcDbEntity
  8
細線
 48
50.0
100
AcDbLine
 10
11111.9457040355
 20
1630.976049815496
 30
0.0
 11
11113.52177029436
 21
1628.445614507638
 31
0.0
  0
ARC
  5
2376D
330
747D
100
AcDbEntity
  8
細線
 48
50.0
100
AcDbCircle
 10
11107.70160499398
 20
1628.332638510803
 30
0.0
 40
5.0
100
AcDbArc
 50
31.91646367373018
 51
49.59559872602518
  0
ARC
  5
2376E
330
747D
100
AcDbEntity
  8
細線
 48
50.0
100
AcDbCircle
 10
11101.42694291063
 20
1691.368134955754
 30
0.0
 40
5.0
100
AcDbArc
 50
174.2894068624692
 51
185.7105931375308
  0
ARC
  5
2376F
330
747D
100
AcDbEntity
  8
細線
 48
50.0
100
AcDbCircle
 10
11092.3050218902
 20
1682.088588948898
 30
0.0
 40
5.0
100
AcDbArc
 50
338.1985905136578
 51
5.710593137530753
  0
LINE
  5
23770
330
747D
100
AcDbEntity
  8
細線
 48
50.0
100
AcDbLine
 10
11097.28020784125
 20
1682.586107544003
 30
0.0
 11
11096.45175695958
 21
1690.870616360649
 31
0.0
  0
ARC
  5
23771
330
747D
100
AcDbEntity
  8
細線
 48
50.0
100
AcDbCircle
 10
11100.78716990721
 20
1676.36813495575
 30
0.0
 40
5.0
100
AcDbArc
 50
158.1985905136578
 51
201.8014094863421
  0
LINE
  5
23772
330
747D
100
AcDbEntity
  8
細線
 48
50.0
100
AcDbLine
 10
11096.14478645278
 20
1678.225088337522
 30
0.0
 11
11096.94740534462
 21
1680.231635567127
 31
0.0
  0
ARC
  5
23773
330
747D
100
AcDbEntity
  8
細線
 48
50.0
100
AcDbCircle
 10
11092.01684029294
 20
1671.368134955752
 30
0.0
 40
5.0
100
AcDbArc
 50
338.1985905136578
 51
21.80140948634214
  0
LINE
  5
23774
330
747D
100
AcDbEntity
  8
細線
 48
50.0
100
AcDbLine
 10
11096.65922374737
 20
1673.225088337522
 30
0.0
 11
11096.14478645278
 21
1674.51118157398
 31
0.0
  0
ARC
  5
23775
330
747D
100
AcDbEntity
  8
細線
 48
50.0
100
AcDbCircle
 10
11100.72460515801
 20
1666.211723082769
 30
0.0
 40
5.0
100
AcDbArc
 50
158.1985905136578
 51
198.4349488229055
  0
LINE
  5
23776
330
747D
100
AcDbEntity
  8
細線
 48
50.0
100
AcDbLine
 10
11096.08222170359
 20
1668.068676464541
 30
0.0
 11
11096.65922374737
 21
1669.511181573981
 31
0.0
  0
ARC
  5
23777
330
747D
100
AcDbEntity
  8
細線
 48
50.0
100
AcDbCircle
 10
11092.27779953957
 20
1659.929363336405
 30
0.0
 40
5.0
100
AcDbArc
 50
351.3533349444468
 51
18.43494882290553
  0
LINE
  5
23778
330
747D
100
AcDbEntity
  8
細線
 48
50.0
100
AcDbLine
 10
11097.02121602982
 20
1661.510502166487
 30
0.0
 11
11095.98118866776
 21
1664.630584252683
 31
0.0
  0
ARC
  5
23779
330
747D
100
AcDbEntity
  8
細線
 48
50.0
100
AcDbCircle
 10
11100.51510587779
 20
1647.581954976964
 30
0.0
 40
5.0
100
AcDbArc
 50
171.3533349444468
 51
229.5955987260252
  0
LINE
  5
2377A
330
747D
100
AcDbEntity
  8
細線
 48
50.0
100
AcDbLine
 10
11095.57193456413
 20
1648.333657952753
 30
0.0
 11
11097.22097085323
 21
1659.177660360615
 31
0.0
  0
ARC
  5
2377B
330
747D
100
AcDbEntity
  8
細線
 48
50.0
100
AcDbCircle
 10
11119.99289883528
 20
1633.067763250476
 30
0.0
 40
3.0
100
AcDbArc
 50
49.49171241452709
 51
163.5378536914189
  0
ARC
  5
2377C
330
747D
100
AcDbEntity
  8
細線
 48
50.0
100
AcDbCircle
 10
11117.51682119456
 20
1632.139323687978
 30
0.0
 40
5.5
100
AcDbArc
 50
226.676492758073
 51
32.97249425048676
  0
ARC
  5
2377D
330
747D
100
AcDbEntity
  8
細線
 48
50.0
100
AcDbCircle
 10
11121.29201489719
 20
1634.588387286092
 30
0.0
 40
1.0
100
AcDbArc
 50
32.97249425048676
 51
49.49171241452709
  0
ARC
  5
2377E
330
747D
100
AcDbEntity
  8
細線
 48
50.0
100
AcDbCircle
 10
11114.42929521247
 20
1628.865612749313
 30
0.0
 40
1.0
100
AcDbArc
 50
204.8344764792676
 51
226.676492758073
  0
LINE
  5
2377F
330
747D
100
AcDbEntity
  8
細線
 48
50.0
100
AcDbLine
 10
11118.61396704919
 20
1637.639323687978
 30
0.0
 11
11117.54254044919
 21
1637.639323687978
 31
0.0
  0
LINE
  5
23780
330
747D
100
AcDbEntity
  8
細線
 48
50.0
100
AcDbLine
 10
11097.28020784125
 20
1700.150162367497
 30
0.0
 11
11096.45175695958
 21
1691.865653550859
 31
0.0
  0
ARC
  5
23781
330
747D
100
AcDbEntity
  8
細線
 48
50.0
100
AcDbCircle
 10
11121.29201489719
 20
1763.588387286092
 30
0.0
 40
1.0
100
AcDbArc
 50
32.97249425048676
 51
49.49171241452709
  0
ARC
  5
23782
330
747D
100
AcDbEntity
  8
細線
 48
50.0
100
AcDbCircle
 10
11092.27779953957
 20
1788.929363336405
 30
0.0
 40
5.0
100
AcDbArc
 50
351.3533349444468
 51
18.43494882290553
  0
ARC
  5
23783
330
747D
100
AcDbEntity
  8
細線
 48
50.0
100
AcDbCircle
 10
11100.51510587779
 20
1776.581954976964
 30
0.0
 40
5.0
100
AcDbArc
 50
171.3533349444468
 51
229.5955987260252
  0
LINE
  5
23784
330
747D
100
AcDbEntity
  8
細線
 48
50.0
100
AcDbLine
 10
11095.57193456413
 20
1777.333657952753
 30
0.0
 11
11097.22097085323
 21
1788.177660360615
 31
0.0
  0
ARC
  5
23785
330
747D
100
AcDbEntity
  8
細線
 48
50.0
100
AcDbCircle
 10
11101.42694291063
 20
1820.368134955754
 30
0.0
 40
5.0
100
AcDbArc
 50
174.2894068624692
 51
185.7105931375308
  0
LINE
  5
23786
330
747D
100
AcDbEntity
  8
細線
 48
50.0
100
AcDbLine
 10
11097.28020784125
 20
1829.150162367497
 30
0.0
 11
11096.45175695958
 21
1820.865653550859
 31
0.0
  0
ARC
  5
23787
330
747D
100
AcDbEntity
  8
細線
 48
50.0
100
AcDbCircle
 10
11092.3050218902
 20
1811.088588948898
 30
0.0
 40
5.0
100
AcDbArc
 50
338.1985905136578
 51
5.710593137530753
  0
LINE
  5
23788
330
747D
100
AcDbEntity
  8
細線
 48
50.0
100
AcDbLine
 10
11097.28020784125
 20
1811.586107544002
 30
0.0
 11
11096.45175695958
 21
1819.870616360649
 31
0.0
  0
ARC
  5
23789
330
747D
100
AcDbEntity
  8
細線
 48
50.0
100
AcDbCircle
 10
11100.78716990721
 20
1805.36813495575
 30
0.0
 40
5.0
100
AcDbArc
 50
158.1985905136578
 51
201.8014094863421
  0
LINE
  5
2378A
330
747D
100
AcDbEntity
  8
細線
 48
50.0
100
AcDbLine
 10
11096.14478645278
 20
1807.225088337522
 30
0.0
 11
11096.94740534462
 21
1809.231635567126
 31
0.0
  0
ARC
  5
2378B
330
747D
100
AcDbEntity
  8
細線
 48
50.0
100
AcDbCircle
 10
11092.01684029294
 20
1800.368134955752
 30
0.0
 40
5.0
100
AcDbArc
 50
338.1985905136578
 51
21.80140948634214
  0
LINE
  5
2378C
330
747D
100
AcDbEntity
  8
細線
 48
50.0
100
AcDbLine
 10
11096.65922374737
 20
1802.225088337522
 30
0.0
 11
11096.14478645278
 21
1803.51118157398
 31
0.0
  0
ARC
  5
2378D
330
747D
100
AcDbEntity
  8
細線
 48
50.0
100
AcDbCircle
 10
11100.72460515801
 20
1795.211723082769
 30
0.0
 40
5.0
100
AcDbArc
 50
158.1985905136578
 51
198.4349488229055
  0
LINE
  5
2378E
330
747D
100
AcDbEntity
  8
細線
 48
50.0
100
AcDbLine
 10
11096.08222170359
 20
1797.068676464542
 30
0.0
 11
11096.65922374737
 21
1798.51118157398
 31
0.0
  0
LINE
  5
2378F
330
747D
100
AcDbEntity
  8
細線
 48
50.0
100
AcDbLine
 10
11097.02121602982
 20
1790.510502166489
 30
0.0
 11
11095.98118866776
 21
1793.630584252683
 31
0.0
  0
LINE
  5
23790
330
747D
100
AcDbEntity
  8
細線
 48
50.0
100
AcDbLine
 10
11118.61396704919
 20
1766.639323687978
 30
0.0
 11
11117.54254044919
 21
1766.639323687978
 31
0.0
  0
LINE
  5
23791
330
747D
100
AcDbEntity
  8
細線
 48
50.0
100
AcDbLine
 10
12613.70738909468
 20
831.7824434177474
 30
0.0
 11
12608.34840524605
 21
851.7824434177473
 31
0.0
  0
LINE
  5
23792
330
747D
100
AcDbEntity
  8
細線
 48
50.0
100
AcDbLine
 10
12515.09733291062
 20
831.7824434177436
 30
0.0
 11
12509.738349062
 21
851.78244341775
 31
0.0
  0
LINE
  5
23793
330
747D
100
AcDbEntity
  8
細線
 48
50.0
100
AcDbLine
 10
12416.48727672656
 20
831.7824434177474
 30
0.0
 11
12411.12829287793
 21
851.7824434177509
 31
0.0
  0
LINE
  5
23794
330
747D
100
AcDbEntity
  8
細線
 48
50.0
100
AcDbLine
 10
12810.9275014628
 20
831.7824434177463
 30
0.0
 11
12805.56851761418
 21
851.7824434177473
 31
0.0
  0
LINE
  5
23795
330
747D
100
AcDbEntity
  8
細線
 48
50.0
100
AcDbLine
 10
12712.31744527874
 20
831.7824434177436
 30
0.0
 11
12706.95846143012
 21
851.78244341775
 31
0.0
  0
LINE
  5
23796
330
747D
100
AcDbEntity
  8
細線
 48
50.0
100
AcDbLine
 10
12400.4103251807
 20
731.7824434177473
 30
0.0
 11
12395.05134133207
 21
751.7824434177573
 31
0.0
  0
LINE
  5
23797
330
747D
100
AcDbEntity
  8
細線
 48
50.0
100
AcDbLine
 10
12499.02038136476
 20
731.7824434177473
 30
0.0
 11
12493.66139751613
 21
751.7824434177537
 31
0.0
  0
LINE
  5
23798
330
747D
100
AcDbEntity
  8
細線
 48
50.0
100
AcDbLine
 10
12597.63043754882
 20
731.7824434177473
 30
0.0
 11
12592.2714537002
 21
751.7824434177573
 31
0.0
  0
LINE
  5
23799
330
747D
100
AcDbEntity
  8
細線
 48
50.0
100
AcDbLine
 10
12794.85054991694
 20
731.7824434177473
 30
0.0
 11
12789.49156606832
 21
751.782443417751
 31
0.0
  0
LINE
  5
2379A
330
747D
100
AcDbEntity
  8
細線
 48
50.0
100
AcDbLine
 10
12696.24049373288
 20
731.7824434177473
 30
0.0
 11
12690.88150988426
 21
751.7824434177537
 31
0.0
  0
CIRCLE
  5
2379B
330
747D
100
AcDbEntity
  8
点線
 48
10.0
100
AcDbCircle
 10
12381.15679881208
 20
970.6506113899777
 30
0.0
 40
10.0
  0
CIRCLE
  5
2379C
330
747D
100
AcDbEntity
  8
点線
 48
10.0
100
AcDbCircle
 10
12581.15679881208
 20
970.6506113899777
 30
0.0
 40
10.0
  0
CIRCLE
  5
2379D
330
747D
100
AcDbEntity
  8
点線
 48
10.0
100
AcDbCircle
 10
12781.15679881208
 20
970.6506113899777
 30
0.0
 40
10.0
  0
DIMENSION
  5
237A3
330
747D
100
AcDbEntity
  8
寸法
 48
50.0
100
AcDbDimension
  2
*D19
 10
8942.917420526706
 20
9480.613565556053
 30
0.0
 11
9257.917420526707
 21
9480.613565556053
 31
0.0
 70
   160
 71
     5
 42
75.0
  3
INABA_S40G
100
AcDbAlignedDimension
 13
9017.917420526705
 23
8760.503905649278
 33
0.0
 14
8942.917420526706
 24
8760.503905649281
 34
0.0
100
AcDbRotatedDimension
1001
ACAD
1000
DSTYLE
1002
{
1070
   174
1070
     0
1070
   272
1070
     1
1070
   279
1070
     1
1070
   288
1070
     0
1070
   341
1005
0
1002
}
  0
DIMENSION
  5
237A4
330
747D
100
AcDbEntity
  8
寸法
 48
50.0
100
AcDbDimension
  2
*D20
 10
9062.917420526707
 20
9780.779765297413
 30
0.0
 11
9370.635697029781
 21
9780.779765297413
 31
0.0
 70
   160
  1
a
 71
     5
 42
45.0
  3
INABA_S40G
100
AcDbAlignedDimension
 13
9017.917420526705
 23
8760.503905649281
 33
0.0
 14
9062.917420526707
 24
9613.05988234068
 34
0.0
100
AcDbRotatedDimension
1001
ACAD
1000
DSTYLE
1002
{
1070
   174
1070
     0
1070
   272
1070
     1
1070
   279
1070
     1
1070
   288
1070
     0
1070
   341
1005
0
1002
}
  0
LINE
  5
237A5
330
747D
100
AcDbEntity
  8
部品1
 48
50.0
100
AcDbLine
 10
8897.917420526708
 20
5805.503905649282
 30
0.0
 11
8897.917420526708
 21
8640.503905649278
 31
0.0
  0
LINE
  5
237A6
330
747D
100
AcDbEntity
  8
部品1
 48
50.0
100
AcDbLine
 10
9017.917420526705
 20
5775.50390564928
 30
0.0
 11
9017.917420526705
 21
8760.503905649281
 31
0.0
  0
DIMENSION
  5
237A7
330
747D
100
AcDbEntity
  8
寸法
 48
50.0
100
AcDbDimension
  2
*D21
 10
9716.949627443721
 20
8710.503905649281
 30
0.0
 11
9616.937816420097
 21
7243.003905649281
 31
0.0
 70
    32
 71
     5
 42
2935.0
  3
INABA_S40G
100
AcDbAlignedDimension
 13
9017.917420526705
 23
5775.50390564928
 33
0.0
 14
8992.917420526707
 24
8710.503905649281
 34
0.0
 50
90.0
100
AcDbRotatedDimension
1001
ACAD
1000
DSTYLE
1002
{
1070
   174
1070
     0
1070
   272
1070
     1
1070
   279
1070
     1
1070
   288
1070
     0
1070
   341
1005
0
1002
}
  0
DIMENSION
  5
237A8
330
747D
100
AcDbEntity
  8
寸法
 48
50.0
100
AcDbDimension
  2
*D22
 10
10010.05557105895
 20
8760.503905649278
 30
0.0
 11
9910.043760035327
 21
7268.00390564928
 31
0.0
 70
    32
 71
     5
 42
2984.999999999999
  3
INABA_S40G
100
AcDbAlignedDimension
 13
9017.917420526705
 23
5775.50390564928
 33
0.0
 14
9017.917420526705
 24
8760.503905649278
 34
0.0
 50
90.0
100
AcDbRotatedDimension
1001
ACAD
1000
DSTYLE
1002
{
1070
   174
1070
     0
1070
   272
1070
     1
1070
   279
1070
     1
1070
   288
1070
     0
1070
   341
1005
0
1002
}
  0
DIMENSION
  5
237A9
330
747D
100
AcDbEntity
  8
寸法
 48
50.0
100
AcDbDimension
  2
*D23
 10
9716.949627443723
 20
5733.50390564928
 30
0.0
 11
9716.949627443721
 21
5172.74947651542
 31
0.0
 70
   160
  1
柱芯<>
 71
     5
 42
42.0
  3
INABA_S40G
100
AcDbAlignedDimension
 13
9017.917420526705
 23
5775.50390564928
 33
0.0
 14
9163.915935278966
 24
5733.50390564928
 34
0.0
 50
90.0
100
AcDbRotatedDimension
1001
ACAD
1000
DSTYLE
1002
{
1070
   174
1070
     0
1070
   272
1070
     1
1070
   279
1070
     1
1070
   288
1070
     0
1070
   341
1005
0
1002
}
  0
LINE
  5
237AA
330
747D
100
AcDbEntity
  8
部品1
 48
10.0
100
AcDbLine
 10
9138.917420526707
 20
5559.00390564928
 30
0.0
 11
9138.917420526707
 21
5909.003905649281
 31
0.0
  0
LINE
  5
237AB
330
747D
100
AcDbEntity
  8
部品1
 48
10.0
100
AcDbLine
 10
8788.917420526706
 20
5559.003905649279
 30
0.0
 11
8788.917420526706
 21
5909.003905649281
 31
0.0
  0
DIMENSION
  5
237AC
330
747D
100
AcDbEntity
  8
寸法
 48
50.0
100
AcDbDimension
  2
*D24
 10
8465.278901341482
 20
5909.003905649281
 30
0.0
 11
8465.278901341482
 21
5753.769291081473
 31
0.0
 70
   160
 71
     5
 42
350.0
  3
INABA_S40G
100
AcDbAlignedDimension
 13
8788.917420526706
 23
5559.00390564928
 33
0.0
 14
8788.917420526706
 24
5909.003905649281
 34
0.0
 50
90.0
100
AcDbRotatedDimension
1001
ACAD
1000
DSTYLE
1002
{
1070
   174
1070
     0
1070
   272
1070
     1
1070
   279
1070
     1
1070
   288
1070
     0
1070
   341
1005
0
1002
}
  0
DIMENSION
  5
237AD
330
747D
100
AcDbEntity
  8
寸法
 48
50.0
100
AcDbDimension
  2
*D25
 10
8671.752969305499
 20
5775.50390564928
 30
0.0
 11
8671.752969305499
 21
5416.040322972114
 31
0.0
 70
   160
  1
20
 71
     5
 42
30.00000000000182
  3
INABA_S40G
100
AcDbAlignedDimension
 13
8897.917420526709
 23
5805.503905649282
 33
0.0
 14
8927.917420526707
 24
5775.50390564928
 34
0.0
 50
270.0
100
AcDbRotatedDimension
1001
ACAD
1000
DSTYLE
1002
{
1070
   174
1070
     0
1070
   272
1070
     1
1070
   279
1070
     1
1070
   288
1070
     0
1070
   341
1005
0
1002
}
  0
DIMENSION
  5
237AE
330
747D
100
AcDbEntity
  8
寸法
 48
50.0
100
AcDbDimension
  2
*D26
 10
9138.917420526707
 20
5282.276801730855
 30
0.0
 11
8963.917420526707
 21
5382.276801730855
 31
0.0
 70
    32
 71
     5
 42
350.0
  3
INABA_S40G
100
AcDbAlignedDimension
 13
8788.917420526706
 23
5559.00390564928
 33
0.0
 14
9138.917420526707
 24
5559.003905649279
 34
0.0
 50
180.0
100
AcDbRotatedDimension
1001
ACAD
1000
DSTYLE
1002
{
1070
   174
1070
     0
1070
   272
1070
     1
1070
   279
1070
     1
1070
   288
1070
     0
1070
   341
1005
0
1002
}
  0
LINE
  5
237AF
330
747D
100
AcDbEntity
  8
センター
 48
8.0
100
AcDbLine
 10
8763.915935278966
 20
5733.50390564928
 30
0.0
 11
9163.915935278966
 21
5733.50390564928
 31
0.0
  0
LINE
  5
237B0
330
747D
100
AcDbEntity
  8
部品1
 48
10.0
100
AcDbLine
 10
9138.917420526707
 20
5559.00390564928
 30
0.0
 11
8788.917420526706
 21
5559.003905649279
 31
0.0
  0
DIMENSION
  5
237B1
330
747D
100
AcDbEntity
  8
寸法
 48
50.0
100
AcDbDimension
  2
*D27
 10
8927.917420526707
 20
6132.515851998244
 30
0.0
 11
8538.453837849543
 21
6132.515851998244
 31
0.0
 70
   160
  1
20
 71
     5
 42
29.99999999999636
  3
INABA_S40G
100
AcDbAlignedDimension
 13
8897.917420526709
 23
5805.503905649282
 33
0.0
 14
8927.917420526707
 24
5805.503905649282
 34
0.0
100
AcDbRotatedDimension
1001
ACAD
1000
DSTYLE
1002
{
1070
   174
1070
     0
1070
   272
1070
     1
1070
   279
1070
     1
1070
   288
1070
     0
1070
   341
1005
0
1002
}
  0
DIMENSION
  5
237B2
330
747D
100
AcDbEntity
  8
寸法
 48
50.0
100
AcDbDimension
  2
*D28
 10
9017.917420526705
 20
6132.515851998244
 30
0.0
 11
9287.976475644818
 21
6132.515851998244
 31
0.0
 70
   160
  1
100
 71
     5
 42
90.0
  3
INABA_S40G
100
AcDbAlignedDimension
 13
8927.917420526707
 23
5805.503905649282
 33
0.0
 14
9017.917420526705
 24
5775.50390564928
 34
0.0
100
AcDbRotatedDimension
1001
ACAD
1000
DSTYLE
1002
{
1070
   174
1070
     0
1070
   272
1070
     1
1070
   279
1070
     1
1070
   288
1070
     0
1070
   341
1005
0
1002
}
  0
LINE
  5
237B3
330
747D
100
AcDbEntity
  8
部品1
 48
50.0
100
AcDbLine
 10
8927.917420526707
 20
5775.503905649283
 30
0.0
 11
9017.917420526705
 21
5775.50390564928
 31
0.0
  0
LINE
  5
237B4
330
747D
100
AcDbEntity
  8
部品1
 48
10.0
100
AcDbLine
 10
8897.917420526708
 20
5909.003905649279
 30
0.0
 11
8788.917420526706
 21
5909.003905649281
 31
0.0
  0
LINE
  5
237B5
330
747D
100
AcDbEntity
  8
部品1
 48
50.0
100
AcDbLine
 10
8927.917420526707
 20
5775.503905649283
 30
0.0
 11
8927.917420526707
 21
5805.503905649282
 31
0.0
  0
LINE
  5
237B6
330
747D
100
AcDbEntity
  8
部品1
 48
50.0
100
AcDbLine
 10
8927.917420526707
 20
5805.503905649282
 30
0.0
 11
8897.917420526708
 21
5805.503905649282
 31
0.0
  0
LINE
  5
237B7
330
747D
100
AcDbEntity
  8
部品1
 48
10.0
100
AcDbLine
 10
9138.917420526707
 20
5909.003905649281
 30
0.0
 11
9017.917420526705
 21
5909.003905649281
 31
0.0
  0
DIMENSION
  5
237B8
330
747D
100
AcDbEntity
  8
寸法
 48
50.0
100
AcDbDimension
  2
*D29
 10
9017.917420526705
 20
6403.33911296534
 30
0.0
 11
9287.976475644816
 21
6403.33911296534
 31
0.0
 70
   160
 71
     5
 42
120.0
  3
INABA_S40G
100
AcDbAlignedDimension
 13
8897.917420526708
 23
6376.00390564928
 33
0.0
 14
9017.917420526705
 24
6376.00390564928
 34
0.0
100
AcDbRotatedDimension
1001
ACAD
1000
DSTYLE
1002
{
1070
   174
1070
     0
1070
   272
1070
     1
1070
   279
1070
     1
1070
   288
1070
     0
1070
   341
1005
0
1002
}
  0
DIMENSION
  5
237B9
330
747D
100
AcDbEntity
  8
寸法
 48
50.0
100
AcDbDimension
  2
*D30
 10
9716.949627443723
 20
8710.503905649281
 30
0.0
 11
9716.949627443721
 21
9130.873416574415
 31
0.0
 70
   160
 71
     5
 42
50.0
  3
INABA_S40G
100
AcDbAlignedDimension
 13
9017.917420526698
 23
8760.503905649281
 33
0.0
 14
8992.917420526707
 24
8710.503905649281
 34
0.0
 50
90.0
100
AcDbRotatedDimension
1001
ACAD
1000
DSTYLE
1002
{
1070
   174
1070
     0
1070
   272
1070
     1
1070
   279
1070
     1
1070
   288
1070
     0
1070
   341
1005
0
1002
}
  0
LINE
  5
237BA
330
747D
100
AcDbEntity
  8
寸法
 48
50.0
100
AcDbLine
 10
8942.917420526706
 20
9010.503905649281
 30
0.0
 11
8642.917420526705
 21
9010.503905649281
 31
0.0
  0
LINE
  5
237BB
330
747D
100
AcDbEntity
  8
寸法
 48
50.0
100
AcDbLine
 10
8642.917420526705
 20
9010.503905649281
 30
0.0
 11
8787.806294470067
 21
8971.681048883905
 31
0.0
  0
LINE
  5
237BC
330
747D
100
AcDbEntity
  8
寸法
 48
50.0
100
AcDbLine
 10
8642.917420526705
 20
8410.503905649282
 30
0.0
 11
8787.806294470067
 21
8371.681048883901
 31
0.0
  0
LINE
  5
237BD
330
747D
100
AcDbEntity
  8
寸法
 48
50.0
100
AcDbLine
 10
8942.917420526706
 20
8410.503905649282
 30
0.0
 11
8642.917420526705
 21
8410.503905649282
 31
0.0
  0
DIMENSION
  5
237BE
330
747D
100
AcDbEntity
  8
寸法
 48
50.0
100
AcDbDimension
  2
*D31
 10
8162.160462949868
 20
8760.503905649276
 30
0.0
 11
8162.160462949868
 21
9030.562960767388
 31
0.0
 70
   160
 71
     5
 42
119.9999999999981
  3
INABA_S40G
100
AcDbAlignedDimension
 13
8189.495670265927
 23
8640.503905649277
 33
0.0
 14
8189.495670265927
 24
8760.503905649276
 34
0.0
 50
90.0
100
AcDbRotatedDimension
1001
ACAD
1000
DSTYLE
1002
{
1070
   174
1070
     0
1070
   272
1070
     1
1070
   279
1070
     1
1070
   288
1070
     0
1070
   341
1005
0
1002
}
  0
TEXT
  5
237BF
330
747D
100
AcDbEntity
  8
文字
 48
50.0
100
AcDbText
 10
8619.04032810095
 20
8360.274602560156
 30
0.0
 40
120.0
  1
A
 50
90.0
  7
STYLE1
100
AcDbText
  0
TEXT
  5
237C0
330
747D
100
AcDbEntity
  8
文字
 48
50.0
100
AcDbText
 10
8619.04032810095
 20
8951.246119665288
 30
0.0
 40
120.0
  1
A'
 50
90.0
  7
STYLE1
100
AcDbText
  0
LINE
  5
237C1
330
747D
100
AcDbEntity
  8
センター
 48
2.0
100
AcDbLine
 10
8942.917420526706
 20
8760.503905649281
 30
0.0
 11
8942.917420526706
 21
8660.503905649282
 31
0.0
  0
LINE
  5
237C2
330
747D
100
AcDbEntity
  8
寸法
 48
50.0
100
AcDbLine
 10
8787.806294470067
 20
8371.681048883901
 30
0.0
 11
8787.806294470067
 21
8471.681048883901
 31
0.0
  0
LINE
  5
237C3
330
747D
100
AcDbEntity
  8
寸法
 48
50.0
100
AcDbLine
 10
8942.917420526706
 20
8641.421865129997
 30
0.0
 11
8942.917420526706
 21
8410.503905649282
 31
0.0
  0
LINE
  5
237C4
330
747D
100
AcDbEntity
  8
センター
 48
2.0
100
AcDbLine
 10
8892.917420526705
 20
8710.503905649281
 30
0.0
 11
8992.917420526707
 21
8710.503905649281
 31
0.0
  0
LINE
  5
237C5
330
747D
100
AcDbEntity
  8
寸法
 48
50.0
100
AcDbLine
 10
8787.806294470067
 20
8971.681048883905
 30
0.0
 11
8787.806294470067
 21
9071.681048883904
 31
0.0
  0
ENDSEC
  0
SECTION
  2
OBJECTS
  0
DICTIONARY
  5
7471
330
0
100
AcDbDictionary
281
     1
  3
ACAD_COLOR
350
159B0
  3
ACAD_GROUP
350
7472
  3
ACAD_LAYOUT
350
159B1
  3
ACAD_MATERIAL
350
159AF
  3
ACAD_MLINESTYLE
350
7473
  3
ACAD_PLOTSETTINGS
350
159B2
  3
ACAD_PLOTSTYLENAME
350
159AD
  3
ACDBHEADERROUNDTRIPXREC
350
25044
  3
AcDbVariableDictionary
350
25040
  3
CONTENTDICTIONARY
350
E71C
  3
DRAWINGVARIABLESDICT
350
F3B9
  0
DICTIONARY
  5
21291
330
7467
100
AcDbDictionary
280
     1
281
     1
  3
ACAD_LAYERSTATES
360
21292
  0
DICTIONARY
  5
159B0
102
{ACAD_REACTORS
330
7471
102
}
330
7471
100
AcDbDictionary
281
     1
  0
DICTIONARY
  5
7472
102
{ACAD_REACTORS
330
7471
102
}
330
7471
100
AcDbDictionary
281
     1
  0
DICTIONARY
  5
159B1
102
{ACAD_REACTORS
330
7471
102
}
330
7471
100
AcDbDictionary
281
     1
  3
Model
350
159B3
  3
レイアウト1
350
159B4
  0
DICTIONARY
  5
159AF
102
{ACAD_REACTORS
330
7471
102
}
330
7471
100
AcDbDictionary
281
     1
  0
DICTIONARY
  5
7473
102
{ACAD_REACTORS
330
7471
102
}
330
7471
100
AcDbDictionary
281
     1
  3
STANDARD
350
7480
  0
DICTIONARY
  5
159B2
102
{ACAD_REACTORS
330
7471
102
}
330
7471
100
AcDbDictionary
281
     1
  0
ACDBDICTIONARYWDFLT
  5
159AD
102
{ACAD_REACTORS
330
7471
102
}
330
7471
100
AcDbDictionary
281
     1
  3
Normal
350
159AE
100
AcDbDictionaryWithDefault
340
159AE
  0
DICTIONARY
  5
25044
102
{ACAD_REACTORS
330
7471
102
}
330
7471
100
AcDbDictionary
281
     1
  3
COLORDICT
350
25046
  3
MATERIALDICT
350
25045
  0
DICTIONARY
  5
25040
102
{ACAD_REACTORS
330
7471
102
}
330
7471
100
AcDbDictionary
281
     1
  3
DIMASSOC
350
25041
  3
PROJECTNAME
350
25042
  0
DICTIONARY
  5
E71C
102
{ACAD_REACTORS
330
7471
102
}
330
7471
100
AcDbDictionary
281
     1
  0
DICTIONARY
  5
F3B9
102
{ACAD_REACTORS
330
7471
102
}
330
7471
100
AcDbDictionary
281
     1
1001
DRAWINGVARIABLESXDATA
1000
POLARMODE
1000
1
  0
DICTIONARY
  5
21292
102
{ACAD_REACTORS
330
21291
102
}
330
21291
100
AcDbDictionary
281
     1
  0
LAYOUT
  5
159B3
102
{ACAD_XDICTIONARY
360
25047
102
}
102
{ACAD_REACTORS
330
159B1
102
}
330
159B1
100
AcDbPlotSettings
  1

  2
none_device
  4
Letter_(8.50_x_11.00_Inches)
  6

 40
6.349999904632568
 41
6.349999904632568
 42
6.350006103515625
 43
6.350006103515625
 44
215.8999938964844
 45
279.3999938964844
 46
0.0
 47
0.0
 48
0.0
 49
0.0
140
0.0
141
0.0
142
1.0
143
1.0
 70
 11952
 72
     1
 73
     1
 74
     0
  7

 75
     0
147
1.0
148
-4149.571981164617
149
65.56433826894044
100
AcDbLayout
  1
Model
 70
     1
 71
     0
 10
0.0
 20
0.0
 11
12.0
 21
9.0
 12
0.0
 22
0.0
 32
0.0
 14
0.0
 24
0.0
 34
0.0
 15
0.0
 25
0.0
 35
0.0
146
0.0
 13
0.0
 23
0.0
 33
0.0
 16
1.0
 26
0.0
 36
0.0
 17
0.0
 27
1.0
 37
0.0
 76
     0
330
747D
  0
LAYOUT
  5
159B4
102
{ACAD_XDICTIONARY
360
25049
102
}
102
{ACAD_REACTORS
330
159B1
102
}
330
159B1
100
AcDbPlotSettings
  1

  2
自動 EPSON LP-8400FX (TATENO 上)
  4

  6

 40
0.0
 41
0.0
 42
0.0
 43
0.0
 44
0.0
 45
0.0
 46
0.0
 47
0.0
 48
0.0
 49
0.0
140
0.0
141
0.0
142
1.0
143
1.0
 70
   688
 72
     0
 73
     0
 74
     5
  7
inaba.ctb
 75
    16
147
1.0
148
0.0
149
0.0
100
AcDbLayout
  1
レイアウト1
 70
     0
 71
     1
 10
0.0
 20
0.0
 11
420.0
 21
297.0
 12
0.0
 22
0.0
 32
0.0
 14
1.000000000000000E+20
 24
1.000000000000000E+20
 34
1.000000000000000E+20
 15
-1.000000000000000E+20
 25
-1.000000000000000E+20
 35
-1.000000000000000E+20
146
0.0
 13
0.0
 23
0.0
 33
0.0
 16
1.0
 26
0.0
 36
0.0
 17
0.0
 27
1.0
 37
0.0
 76
     0
330
747A
  0
MLINESTYLE
  5
7480
102
{ACAD_REACTORS
330
7473
102
}
330
7473
100
AcDbMlineStyle
  2
STANDARD
 70
     0
  3

 62
     0
 51
90.0
 52
90.0
 71
     2
 49
0.5
 62
   256
  6
BYLAYER
 49
-0.5
 62
   256
  6
BYLAYER
  0
ACDBPLACEHOLDER
  5
159AE
102
{ACAD_REACTORS
330
159AD
102
}
330
159AD
  0
XRECORD
  5
25046
102
{ACAD_REACTORS
330
25044
102
}
330
25044
100
AcDbXrecord
280
     1
340
159B0
  0
XRECORD
  5
25045
102
{ACAD_REACTORS
330
25044
102
}
330
25044
100
AcDbXrecord
280
     1
340
159AF
  0
DICTIONARYVAR
  5
25041
102
{ACAD_REACTORS
330
25040
102
}
330
25040
100
DictionaryVariables
280
     0
  1
1
  0
DICTIONARYVAR
  5
25042
102
{ACAD_REACTORS
330
25040
102
}
330
25040
100
DictionaryVariables
280
     0
  1

  0
DICTIONARY
  5
25047
330
159B3
100
AcDbDictionary
280
     1
281
     1
  3
ACAD_XREC_ROUNDTRIP
360
25048
  0
DICTIONARY
  5
25049
330
159B4
100
AcDbDictionary
280
     1
281
     1
  3
ACAD_XREC_ROUNDTRIP
360
2504A
  0
XRECORD
  5
25048
102
{ACAD_REACTORS
330
25047
102
}
330
25047
100
AcDbXrecord
280
     1
102
SHADEPLOT
 70
     0
102
SHADEPLOTRESLEVEL
 70
     2
102
SHADEPLOTCUSTOMDPI
 70
   300
  0
XRECORD
  5
2504A
102
{ACAD_REACTORS
330
25049
102
}
330
25049
100
AcDbXrecord
280
     1
102
SHADEPLOT
 70
     0
102
SHADEPLOTRESLEVEL
 70
     2
102
SHADEPLOTCUSTOMDPI
 70
   300
  0
ENDSEC
  0
EOF
