  0
SECTION
  2
HEADER
  9
$ACADVER
  1
AC1018
  9
$ACADMAINTVER
 70
     0
  9
$DWGCODEPAGE
  3
ANSI_932
  9
$INSBASE
 10
0.0
 20
0.0
 30
0.0
  9
$EXTMIN
 10
173.9960207766853
 20
-0.4531514603331744
 30
-0.0015258207003583
  9
$EXTMAX
 10
20385.40654231959
 20
14262.44433931126
 30
0.0000000349246037
  9
$LIMMIN
 10
0.0
 20
0.0
  9
$LIMMAX
 10
21000.0
 20
14850.0
  9
$ORTHOMODE
 70
     0
  9
$REGENMODE
 70
     1
  9
$FILLMODE
 70
     1
  9
$QTEXTMODE
 70
     0
  9
$MIRRTEXT
 70
     1
  9
$LTSCALE
 40
20.0
  9
$ATTMODE
 70
     1
  9
$TEXTSIZE
 40
150.0
  9
$TRACEWID
 40
1.0
  9
$TEXTSTYLE
  7
STYLE1
  9
$CLAYER
  8
寸法
  9
$CELTYPE
  6
BYLAYER
  9
$CECOLOR
 62
   256
  9
$CELTSCALE
 40
50.0
  9
$DISPSILH
 70
     0
  9
$DIMSCALE
 40
1.0
  9
$DIMASZ
 40
125.0
  9
$DIMEXO
 40
25.0
  9
$DIMDLI
 40
7.0
  9
$DIMRND
 40
0.0
  9
$DIMDLE
 40
0.0
  9
$DIMEXE
 40
75.0
  9
$DIMTP
 40
0.0
  9
$DIMTM
 40
0.0
  9
$DIMTXT
 40
150.0
  9
$DIMCEN
 40
0.0
  9
$DIMTSZ
 40
0.0
  9
$DIMTOL
 70
     0
  9
$DIMLIM
 70
     0
  9
$DIMTIH
 70
     0
  9
$DIMTOH
 70
     0
  9
$DIMSE1
 70
     0
  9
$DIMSE2
 70
     0
  9
$DIMTAD
 70
     3
  9
$DIMZIN
 70
     8
  9
$DIMBLK
  1

  9
$DIMASO
 70
     1
  9
$DIMSHO
 70
     1
  9
$DIMPOST
  1

  9
$DIMAPOST
  1

  9
$DIMALT
 70
     0
  9
$DIMALTD
 70
     2
  9
$DIMALTF
 40
0.0394
  9
$DIMLFAC
 40
1.0
  9
$DIMTOFL
 70
     1
  9
$DIMTVP
 40
0.0
  9
$DIMTIX
 70
     1
  9
$DIMSOXD
 70
     1
  9
$DIMSAH
 70
     1
  9
$DIMBLK1
  1
DOTSMALL
  9
$DIMBLK2
  1
DOTSMALL
  9
$DIMSTYLE
  2
INABA_S50G
  9
$DIMCLRD
 70
     0
  9
$DIMCLRE
 70
     0
  9
$DIMCLRT
 70
     7
  9
$DIMTFAC
 40
1.0
  9
$DIMGAP
 40
25.0
  9
$DIMJUST
 70
     0
  9
$DIMSD1
 70
     0
  9
$DIMSD2
 70
     0
  9
$DIMTOLJ
 70
     1
  9
$DIMTZIN
 70
     0
  9
$DIMALTZ
 70
     0
  9
$DIMALTTZ
 70
     0
  9
$DIMUPT
 70
     0
  9
$DIMDEC
 70
     1
  9
$DIMTDEC
 70
     4
  9
$DIMALTU
 70
     2
  9
$DIMALTTD
 70
     2
  9
$DIMTXSTY
  7
STYLE1
  9
$DIMAUNIT
 70
     0
  9
$DIMADEC
 70
     0
  9
$DIMALTRND
 40
0.0
  9
$DIMAZIN
 70
     0
  9
$DIMDSEP
 70
    46
  9
$DIMATFIT
 70
     3
  9
$DIMFRAC
 70
     0
  9
$DIMLDRBLK
  1
DOTSMALL
  9
$DIMLUNIT
 70
     2
  9
$DIMLWD
 70
    -2
  9
$DIMLWE
 70
    -2
  9
$DIMTMOVE
 70
     0
  9
$LUNITS
 70
     2
  9
$LUPREC
 70
     1
  9
$SKETCHINC
 40
1.0
  9
$FILLETRAD
 40
200.0
  9
$AUNITS
 70
     0
  9
$AUPREC
 70
     0
  9
$MENU
  1
acad
  9
$ELEVATION
 40
0.0
  9
$PELEVATION
 40
0.0
  9
$THICKNESS
 40
0.0
  9
$LIMCHECK
 70
     0
  9
$CHAMFERA
 40
0.0
  9
$CHAMFERB
 40
0.0
  9
$CHAMFERC
 40
30.0
  9
$CHAMFERD
 40
0.7853981633974483
  9
$SKPOLY
 70
     0
  9
$TDCREATE
 40
2450927.380327778
  9
$TDUCREATE
 40
2450927.005327778
  9
$TDUPDATE
 40
2454882.478142361
  9
$TDUUPDATE
 40
2454882.103142361
  9
$TDINDWG
 40
1.9828404051
  9
$TDUSRTIMER
 40
1.9828393171
  9
$USRTIMER
 70
     1
  9
$ANGBASE
 50
0.0
  9
$ANGDIR
 70
     0
  9
$PDMODE
 70
     3
  9
$PDSIZE
 40
2.0
  9
$PLINEWID
 40
0.0
  9
$SPLFRAME
 70
     0
  9
$SPLINETYPE
 70
     6
  9
$SPLINESEGS
 70
     8
  9
$HANDSEED
  5
1E5B0
  9
$SURFTAB1
 70
     6
  9
$SURFTAB2
 70
     6
  9
$SURFTYPE
 70
     6
  9
$SURFU
 70
     6
  9
$SURFV
 70
     6
  9
$UCSBASE
  2

  9
$UCSNAME
  2

  9
$UCSORG
 10
0.0
 20
0.0
 30
0.0
  9
$UCSXDIR
 10
1.0
 20
0.0
 30
0.0
  9
$UCSYDIR
 10
0.0
 20
1.0
 30
0.0
  9
$UCSORTHOREF
  2

  9
$UCSORTHOVIEW
 70
     0
  9
$UCSORGTOP
 10
0.0
 20
0.0
 30
0.0
  9
$UCSORGBOTTOM
 10
0.0
 20
0.0
 30
0.0
  9
$UCSORGLEFT
 10
0.0
 20
0.0
 30
0.0
  9
$UCSORGRIGHT
 10
0.0
 20
0.0
 30
0.0
  9
$UCSORGFRONT
 10
0.0
 20
0.0
 30
0.0
  9
$UCSORGBACK
 10
0.0
 20
0.0
 30
0.0
  9
$PUCSBASE
  2

  9
$PUCSNAME
  2

  9
$PUCSORG
 10
0.0
 20
0.0
 30
0.0
  9
$PUCSXDIR
 10
1.0
 20
0.0
 30
0.0
  9
$PUCSYDIR
 10
0.0
 20
1.0
 30
0.0
  9
$PUCSORTHOREF
  2

  9
$PUCSORTHOVIEW
 70
     0
  9
$PUCSORGTOP
 10
0.0
 20
0.0
 30
0.0
  9
$PUCSORGBOTTOM
 10
0.0
 20
0.0
 30
0.0
  9
$PUCSORGLEFT
 10
0.0
 20
0.0
 30
0.0
  9
$PUCSORGRIGHT
 10
0.0
 20
0.0
 30
0.0
  9
$PUCSORGFRONT
 10
0.0
 20
0.0
 30
0.0
  9
$PUCSORGBACK
 10
0.0
 20
0.0
 30
0.0
  9
$USERI1
 70
     0
  9
$USERI2
 70
     0
  9
$USERI3
 70
     0
  9
$USERI4
 70
     0
  9
$USERI5
 70
     0
  9
$USERR1
 40
0.0
  9
$USERR2
 40
0.0
  9
$USERR3
 40
0.0
  9
$USERR4
 40
0.0
  9
$USERR5
 40
0.0
  9
$WORLDVIEW
 70
     1
  9
$SHADEDGE
 70
     3
  9
$SHADEDIF
 70
    70
  9
$TILEMODE
 70
     1
  9
$MAXACTVP
 70
    16
  9
$PINSBASE
 10
0.0
 20
0.0
 30
0.0
  9
$PLIMCHECK
 70
     0
  9
$PEXTMIN
 10
1.000000000000000E+20
 20
1.000000000000000E+20
 30
1.000000000000000E+20
  9
$PEXTMAX
 10
-1.000000000000000E+20
 20
-1.000000000000000E+20
 30
-1.000000000000000E+20
  9
$PLIMMIN
 10
0.0
 20
0.0
  9
$PLIMMAX
 10
420.0
 20
297.0
  9
$UNITMODE
 70
     0
  9
$VISRETAIN
 70
     0
  9
$PLINEGEN
 70
     0
  9
$PSLTSCALE
 70
     0
  9
$TREEDEPTH
 70
  3020
  9
$CMLSTYLE
  2
STANDARD
  9
$CMLJUST
 70
     0
  9
$CMLSCALE
 40
1.0
  9
$PROXYGRAPHICS
 70
     1
  9
$MEASUREMENT
 70
     1
  9
$CELWEIGHT
370
    -1
  9
$ENDCAPS
280
     0
  9
$JOINSTYLE
280
     0
  9
$LWDISPLAY
290
     0
  9
$INSUNITS
 70
     0
  9
$HYPERLINKBASE
  1

  9
$STYLESHEET
  1

  9
$XEDIT
290
     1
  9
$CEPSNTYPE
380
     0
  9
$PSTYLEMODE
290
     1
  9
$FINGERPRINTGUID
  2
{3A4AED84-7EBA-410B-8392-E919531848B6}
  9
$VERSIONGUID
  2
{46721BEE-3FC4-43D5-A8D9-E18D9643637E}
  9
$EXTNAMES
290
     1
  9
$PSVPSCALE
 40
0.0
  9
$OLESTARTUP
290
     0
  9
$SORTENTS
280
    96
  9
$INDEXCTL
280
     0
  9
$HIDETEXT
280
     0
  9
$XCLIPFRAME
290
     0
  9
$HALOGAP
280
     0
  9
$OBSCOLOR
 70
   257
  9
$OBSLTYPE
280
     0
  9
$INTERSECTIONDISPLAY
280
     0
  9
$INTERSECTIONCOLOR
 70
   257
  9
$DIMASSOC
280
     1
  9
$PROJECTNAME
  1

  0
ENDSEC
  0
SECTION
  2
CLASSES
  0
CLASS
  1
DICTIONARYVAR
  2
AcDbDictionaryVar
  3
ObjectDBX Classes
 90
        0
 91
        1
280
     0
281
     0
  0
CLASS
  1
ACDBDICTIONARYWDFLT
  2
AcDbDictionaryWithDefault
  3
ObjectDBX Classes
 90
        0
 91
        1
280
     0
281
     0
  0
ENDSEC
  0
SECTION
  2
TABLES
  0
TABLE
  2
VPORT
  5
746D
330
0
100
AcDbSymbolTable
 70
     2
  0
VPORT
  5
1E5AF
330
746D
100
AcDbSymbolTableRecord
100
AcDbViewportTableRecord
  2
*Active
 70
     0
 10
0.0
 20
0.0
 11
1.0
 21
1.0
 12
10279.70128154813
 22
7130.995593925466
 13
0.0
 23
0.0
 14
10.0
 24
10.0
 15
10.0
 25
10.0
 16
0.0
 26
0.0
 36
1.0
 17
0.0
 27
0.0
 37
0.0
 40
17694.81119003843
 41
1.149397590361445
 42
50.0
 43
0.0
 44
0.0
 50
0.0
 51
0.0
 71
     0
 72
     0
 73
     1
 74
     0
 75
     0
 76
     0
 77
     0
 78
     0
281
     0
 65
     1
110
0.0
120
0.0
130
0.0
111
1.0
121
0.0
131
0.0
112
0.0
122
1.0
132
0.0
 79
     0
146
0.0
  0
ENDTAB
  0
TABLE
  2
LTYPE
  5
746A
330
0
100
AcDbSymbolTable
 70
     4
  0
LTYPE
  5
7477
330
746A
100
AcDbSymbolTableRecord
100
AcDbLinetypeTableRecord
  2
BYBLOCK
 70
     0
  3

 72
    65
 73
     0
 40
0.0
  0
LTYPE
  5
7478
330
746A
100
AcDbSymbolTableRecord
100
AcDbLinetypeTableRecord
  2
BYLAYER
 70
     0
  3

 72
    65
 73
     0
 40
0.0
  0
LTYPE
  5
7479
330
746A
100
AcDbSymbolTableRecord
100
AcDbLinetypeTableRecord
  2
CONTINUOUS
 70
     0
  3
Solid line
 72
    65
 73
     0
 40
0.0
  0
LTYPE
  5
7816
330
746A
100
AcDbSymbolTableRecord
100
AcDbLinetypeTableRecord
  2
CENTER
 70
     0
  3
____ _ ____ _ ____ _ ____ _ ____ _ ____ _ ____ 
 72
    65
 73
     4
 40
2.0
 49
1.25
 74
     0
 49
-0.25
 74
     0
 49
0.25
 74
     0
 49
-0.25
 74
     0
  0
LTYPE
  5
781B
330
746A
100
AcDbSymbolTableRecord
100
AcDbLinetypeTableRecord
  2
PHANTOM
 70
     0
  3
______  __  __  ______  __  __  ______  __  __ 
 72
    65
 73
     6
 40
2.5
 49
1.25
 74
     0
 49
-0.25
 74
     0
 49
0.25
 74
     0
 49
-0.25
 74
     0
 49
0.25
 74
     0
 49
-0.25
 74
     0
  0
LTYPE
  5
13F72
330
746A
100
AcDbSymbolTableRecord
100
AcDbLinetypeTableRecord
  2
HIDDEN
 70
     0
  3
__ __ __ __ __ __ __ __ __ __ __ __ __ __ __ __
 72
    65
 73
     2
 40
0.375
 49
0.25
 74
     0
 49
-0.125
 74
     0
  0
ENDTAB
  0
TABLE
  2
LAYER
  5
7467
330
0
100
AcDbSymbolTable
 70
    12
  0
LAYER
  5
7474
330
7467
100
AcDbSymbolTableRecord
100
AcDbLayerTableRecord
  2
0
 70
     0
 62
     7
  6
CONTINUOUS
370
    -3
390
1A1FA
  0
LAYER
  5
DEB2
330
7467
100
AcDbSymbolTableRecord
100
AcDbLayerTableRecord
  2
センター
 70
     0
 62
     3
  6
CENTER
370
    -3
390
1A1FA
  0
LAYER
  5
DEB3
330
7467
100
AcDbSymbolTableRecord
100
AcDbLayerTableRecord
  2
寸法
 70
     0
 62
     4
  6
CONTINUOUS
370
    -3
390
1A1FA
  0
LAYER
  5
DEB4
330
7467
100
AcDbSymbolTableRecord
100
AcDbLayerTableRecord
  2
部品1
 70
     0
 62
     7
  6
CONTINUOUS
370
    -3
390
1A1FA
  0
LAYER
  5
DEB5
330
7467
100
AcDbSymbolTableRecord
100
AcDbLayerTableRecord
  2
補助
 70
     0
 62
    -1
  6
CONTINUOUS
370
    -3
390
1A1FA
  0
LAYER
  5
DEB6
330
7467
100
AcDbSymbolTableRecord
100
AcDbLayerTableRecord
  2
文字
 70
     0
 62
     7
  6
CONTINUOUS
370
    -3
390
1A1FA
  0
LAYER
  5
F255
330
7467
100
AcDbSymbolTableRecord
100
AcDbLayerTableRecord
  2
DEFPOINTS
 70
     0
 62
     7
  6
CONTINUOUS
290
     0
370
    -3
390
1A1FA
  0
LAYER
  5
10B54
330
7467
100
AcDbSymbolTableRecord
100
AcDbLayerTableRecord
  2
仕様書枠
 70
     0
 62
   230
  6
CONTINUOUS
370
    -3
390
1A1FA
  0
LAYER
  5
13F73
330
7467
100
AcDbSymbolTableRecord
100
AcDbLayerTableRecord
  2
細線
 70
     0
 62
     5
  6
CONTINUOUS
370
    -3
390
1A1FA
  0
LAYER
  5
13F74
330
7467
100
AcDbSymbolTableRecord
100
AcDbLayerTableRecord
  2
点線
 70
     0
 62
     2
  6
HIDDEN
370
    -3
390
1A1FA
  0
LAYER
  5
1643F
330
7467
100
AcDbSymbolTableRecord
100
AcDbLayerTableRecord
  2
想像線
 70
     0
 62
     6
  6
PHANTOM
370
    -3
390
1A1FA
  0
LAYER
  5
18753
330
7467
100
AcDbSymbolTableRecord
100
AcDbLayerTableRecord
  2
Ｇ．Ｌ
 70
     0
 62
    30
  6
CONTINUOUS
370
    -3
390
1A1FA
  0
ENDTAB
  0
TABLE
  2
STYLE
  5
7468
330
0
100
AcDbSymbolTable
 70
     3
  0
STYLE
  5
7475
330
7468
100
AcDbSymbolTableRecord
100
AcDbTextStyleTableRecord
  2
STANDARD
 70
     0
 40
0.0
 41
1.0
 50
0.0
 71
     0
 42
4.0
  3
txt
  4
C:\AutoCAD LT\bigfont.shx
  0
STYLE
  5
F706
330
7468
100
AcDbSymbolTableRecord
100
AcDbTextStyleTableRecord
  2
STYLE1
 70
     0
 40
0.0
 41
1.0
 50
0.0
 71
     0
 42
150.0
  3
isocp.shx
  4
bigfont.shx
  0
STYLE
  5
103BF
330
7468
100
AcDbSymbolTableRecord
100
AcDbTextStyleTableRecord
  2
STYLE2
 70
     0
 40
0.0
 41
1.0
 50
0.0
 71
     0
 42
100.0
  3
MS PGothic.ttf
  4

1001
ACAD
1000
MS PGothic
1071
    32818
  0
ENDTAB
  0
TABLE
  2
VIEW
  5
746B
330
0
100
AcDbSymbolTable
 70
     0
  0
ENDTAB
  0
TABLE
  2
UCS
  5
746C
330
0
100
AcDbSymbolTable
 70
     0
  0
ENDTAB
  0
TABLE
  2
APPID
  5
746E
330
0
100
AcDbSymbolTable
 70
     6
  0
APPID
  5
7476
330
746E
100
AcDbSymbolTableRecord
100
AcDbRegAppTableRecord
  2
ACAD
 70
     0
  0
APPID
  5
DEA9
330
746E
100
AcDbSymbolTableRecord
100
AcDbRegAppTableRecord
  2
CONTENTBLOCKICON
 70
     0
  0
APPID
  5
DEAA
330
746E
100
AcDbSymbolTableRecord
100
AcDbRegAppTableRecord
  2
CONTENTBLOCKDESCRIPTION
 70
     0
  0
APPID
  5
E71D
330
746E
100
AcDbSymbolTableRecord
100
AcDbRegAppTableRecord
  2
CONTENTTABDATA
 70
     0
  0
APPID
  5
E71E
330
746E
100
AcDbSymbolTableRecord
100
AcDbRegAppTableRecord
  2
CONTENTCURRENTTAB
 70
     0
  0
APPID
  5
F3BA
330
746E
100
AcDbSymbolTableRecord
100
AcDbRegAppTableRecord
  2
DRAWINGVARIABLESXDATA
 70
     0
  0
ENDTAB
  0
TABLE
  2
DIMSTYLE
  5
746F
330
0
100
AcDbSymbolTable
 70
     2
100
AcDbDimStyleTable
 71
     0
  0
DIMSTYLE
105
7484
330
746F
100
AcDbSymbolTableRecord
100
AcDbDimStyleTableRecord
  2
JIS
 70
     0
 41
2.5
 42
1.0
 43
7.0
 44
1.0
 73
     0
 74
     0
 77
     1
 78
     8
140
2.5
141
0.0
143
0.0394
147
0.0
172
     1
174
     1
175
     1
340
7475
  0
DIMSTYLE
105
F71F
102
{ACAD_REACTORS
330
1DFFC
330
1DE0D
330
1DE16
330
1DE17
330
1DE1A
330
1DE1E
330
1DE20
330
1DE21
330
1DE22
330
1DE88
330
1DE89
330
1DE92
330
1DE9E
330
1DE9F
330
1DEA0
330
1DEA2
330
1E527
330
1E528
330
1E52B
330
1E535
102
}
330
746F
100
AcDbSymbolTableRecord
100
AcDbDimStyleTableRecord
  2
INABA_S50G
 70
     0
 41
125.0
 42
25.0
 43
7.0
 44
75.0
 73
     0
 74
     0
 77
     3
 78
     8
140
150.0
141
0.0
143
0.0394
147
25.0
172
     1
173
     1
174
     1
175
     1
178
     7
271
     1
340
F706
341
F770
343
F770
344
F770
  0
ENDTAB
  0
TABLE
  2
BLOCK_RECORD
  5
7466
330
0
100
AcDbSymbolTable
 70
    32
  0
BLOCK_RECORD
  5
747D
330
7466
100
AcDbSymbolTableRecord
100
AcDbBlockTableRecord
  2
*MODEL_SPACE
340
1A1FD
  0
BLOCK_RECORD
  5
747A
330
7466
100
AcDbSymbolTableRecord
100
AcDbBlockTableRecord
  2
*PAPER_SPACE
340
1A1FE
  0
BLOCK_RECORD
  5
F770
330
7466
100
AcDbSymbolTableRecord
100
AcDbBlockTableRecord
  2
_DOTSMALL
340
0
102
{BLKREFS
331
1E26E
331
1E26F
331
1E277
331
1E278
331
1E280
331
1E281
331
1E289
331
1E28A
331
1E292
331
1E293
331
1E29B
331
1E29C
331
1E2A5
331
1E2A6
331
1E2AF
331
1E2B0
331
1E2B9
331
1E2BA
331
1E2C2
331
1E2C3
331
1E2CC
331
1E2CD
331
1E2D4
331
1E2D5
331
1E2DD
331
1E2DE
331
1E2E5
331
1E2E6
331
1E2EE
331
1E2EF
331
1E2F6
331
1E2F7
331
1E2FF
331
1E300
331
1E308
331
1E309
331
1E311
331
1E312
331
1E31B
331
1E31C
331
1E324
331
1E325
331
1E32D
331
1E32E
331
1E343
331
1E344
331
1E368
331
1E369
331
1E34F
331
1E350
331
1E35C
331
1E35D
331
1E58D
331
1E58E
331
1E596
331
1E597
331
1E59F
331
1E5A0
331
1E5A9
331
1E5AA
102
}
  0
BLOCK_RECORD
  5
18892
330
7466
100
AcDbSymbolTableRecord
100
AcDbBlockTableRecord
  2
*D1
340
0
  0
BLOCK_RECORD
  5
1889E
330
7466
100
AcDbSymbolTableRecord
100
AcDbBlockTableRecord
  2
*D2
340
0
  0
BLOCK_RECORD
  5
188AA
330
7466
100
AcDbSymbolTableRecord
100
AcDbBlockTableRecord
  2
*D3
340
0
  0
BLOCK_RECORD
  5
188B7
330
7466
100
AcDbSymbolTableRecord
100
AcDbBlockTableRecord
  2
*D4
340
0
  0
BLOCK_RECORD
  5
188C3
330
7466
100
AcDbSymbolTableRecord
100
AcDbBlockTableRecord
  2
*D5
340
0
  0
BLOCK_RECORD
  5
188CF
330
7466
100
AcDbSymbolTableRecord
100
AcDbBlockTableRecord
  2
*D6
340
0
  0
BLOCK_RECORD
  5
1E003
330
7466
100
AcDbSymbolTableRecord
100
AcDbBlockTableRecord
  2
*D7
340
0
  0
BLOCK_RECORD
  5
1E010
330
7466
100
AcDbSymbolTableRecord
100
AcDbBlockTableRecord
  2
*D8
340
0
  0
BLOCK_RECORD
  5
1E01B
330
7466
100
AcDbSymbolTableRecord
100
AcDbBlockTableRecord
  2
*D9
340
0
  0
BLOCK_RECORD
  5
1E027
330
7466
100
AcDbSymbolTableRecord
100
AcDbBlockTableRecord
  2
*D10
340
0
  0
BLOCK_RECORD
  5
1E032
330
7466
100
AcDbSymbolTableRecord
100
AcDbBlockTableRecord
  2
*D11
340
0
  0
BLOCK_RECORD
  5
1E03E
330
7466
100
AcDbSymbolTableRecord
100
AcDbBlockTableRecord
  2
*D12
340
0
  0
BLOCK_RECORD
  5
1E049
330
7466
100
AcDbSymbolTableRecord
100
AcDbBlockTableRecord
  2
*D13
340
0
  0
BLOCK_RECORD
  5
1E056
330
7466
100
AcDbSymbolTableRecord
100
AcDbBlockTableRecord
  2
*D14
340
0
  0
BLOCK_RECORD
  5
1E062
330
7466
100
AcDbSymbolTableRecord
100
AcDbBlockTableRecord
  2
*D15
340
0
  0
BLOCK_RECORD
  5
1E06F
330
7466
100
AcDbSymbolTableRecord
100
AcDbBlockTableRecord
  2
*D16
340
0
  0
BLOCK_RECORD
  5
1E07C
330
7466
100
AcDbSymbolTableRecord
100
AcDbBlockTableRecord
  2
*D17
340
0
  0
BLOCK_RECORD
  5
1E089
330
7466
100
AcDbSymbolTableRecord
100
AcDbBlockTableRecord
  2
*D18
340
0
  0
BLOCK_RECORD
  5
1E095
330
7466
100
AcDbSymbolTableRecord
100
AcDbBlockTableRecord
  2
*D19
340
0
  0
BLOCK_RECORD
  5
1E0A1
330
7466
100
AcDbSymbolTableRecord
100
AcDbBlockTableRecord
  2
*D20
340
0
  0
BLOCK_RECORD
  5
1E0AD
330
7466
100
AcDbSymbolTableRecord
100
AcDbBlockTableRecord
  2
*D21
340
0
  0
BLOCK_RECORD
  5
1E0B9
330
7466
100
AcDbSymbolTableRecord
100
AcDbBlockTableRecord
  2
*D22
340
0
  0
BLOCK_RECORD
  5
1E33E
330
7466
100
AcDbSymbolTableRecord
100
AcDbBlockTableRecord
  2
*D23
340
0
  0
BLOCK_RECORD
  5
1E34A
330
7466
100
AcDbSymbolTableRecord
100
AcDbBlockTableRecord
  2
*D24
340
0
  0
BLOCK_RECORD
  5
1E356
330
7466
100
AcDbSymbolTableRecord
100
AcDbBlockTableRecord
  2
*D25
340
0
  0
BLOCK_RECORD
  5
1E363
330
7466
100
AcDbSymbolTableRecord
100
AcDbBlockTableRecord
  2
*D26
340
0
  0
BLOCK_RECORD
  5
1E559
330
7466
100
AcDbSymbolTableRecord
100
AcDbBlockTableRecord
  2
*D28
340
0
  0
BLOCK_RECORD
  5
1E565
330
7466
100
AcDbSymbolTableRecord
100
AcDbBlockTableRecord
  2
*D29
340
0
  0
BLOCK_RECORD
  5
1E571
330
7466
100
AcDbSymbolTableRecord
100
AcDbBlockTableRecord
  2
*D30
340
0
  0
BLOCK_RECORD
  5
1E57D
330
7466
100
AcDbSymbolTableRecord
100
AcDbBlockTableRecord
  2
*D31
340
0
  0
ENDTAB
  0
ENDSEC
  0
SECTION
  2
BLOCKS
  0
BLOCK
  5
7489
330
747D
100
AcDbEntity
  8
0
100
AcDbBlockBegin
  2
*MODEL_SPACE
 70
     0
 10
0.0
 20
0.0
 30
0.0
  3
*MODEL_SPACE
  1

  0
ENDBLK
  5
748A
330
747D
100
AcDbEntity
  8
0
100
AcDbBlockEnd
  0
BLOCK
  5
7487
330
747A
100
AcDbEntity
 67
     1
  8
0
100
AcDbBlockBegin
  2
*PAPER_SPACE
 70
     0
 10
0.0
 20
0.0
 30
0.0
  3
*PAPER_SPACE
  1

  0
ENDBLK
  5
7488
330
747A
100
AcDbEntity
 67
     1
  8
0
100
AcDbBlockEnd
  0
BLOCK
  5
F771
330
F770
100
AcDbEntity
  8
0
 48
50.0
100
AcDbBlockBegin
  2
_DOTSMALL
 70
     0
 10
0.0
 20
0.0
 30
0.0
  3
_DOTSMALL
  1

  0
LWPOLYLINE
  5
F772
330
F770
100
AcDbEntity
  8
0
  6
ByBlock
 62
     0
 48
50.0
100
AcDbPolyline
 90
        2
 70
     1
 43
0.5
 10
-0.0625
 20
0.0
 42
1.0
 10
0.0625
 20
0.0
 42
1.0
  0
ENDBLK
  5
F776
330
F770
100
AcDbEntity
  8
0
 48
50.0
100
AcDbBlockEnd
  0
BLOCK
  5
188DB
330
18892
100
AcDbEntity
  8
0
 48
50.0
100
AcDbBlockBegin
  2
*D1
 70
     1
 10
0.0
 20
0.0
 30
0.0
  3
*D1
  1

  0
LINE
  5
1E32A
330
18892
100
AcDbEntity
  8
寸法
 62
     0
 48
50.0
370
    -2
100
AcDbLine
 10
10621.47449085893
 20
2029.373661269834
 30
0.0
 11
10190.75447588975
 21
2029.373661269834
 31
0.0
  0
LINE
  5
1E32B
330
18892
100
AcDbEntity
  8
寸法
 62
     0
 48
50.0
370
    -2
100
AcDbLine
 10
10577.47449085893
 20
1459.373661269833
 30
0.0
 11
10190.75447588975
 21
1459.373661269833
 31
0.0
  0
LINE
  5
1E32C
330
18892
100
AcDbEntity
  8
寸法
 62
     0
 48
50.0
370
    -2
100
AcDbLine
 10
10265.75447588975
 20
2029.373661269834
 30
0.0
 11
10265.75447588975
 21
1459.373661269833
 31
0.0
  0
INSERT
  5
1E32D
330
18892
100
AcDbEntity
  8
寸法
 62
     0
 48
50.0
370
    -2
100
AcDbBlockReference
  2
_DOTSMALL
 10
10265.75447588975
 20
2029.373661269834
 30
0.0
 41
125.0
 42
125.0
 43
125.0
 50
90.0
  0
INSERT
  5
1E32E
330
18892
100
AcDbEntity
  8
寸法
 62
     0
 48
50.0
370
    -2
100
AcDbBlockReference
  2
_DOTSMALL
 10
10265.75447588975
 20
1459.373661269833
 30
0.0
 41
125.0
 42
125.0
 43
125.0
 50
270.0
  0
MTEXT
  5
1E32F
330
18892
100
AcDbEntity
  8
寸法
 62
     7
 48
50.0
100
AcDbMText
 10
10165.73971211022
 20
1744.373661269835
 30
0.0
 40
150.0
 41
0.0
 71
     5
 72
     1
  1
\A1;285
  7
STYLE1
 11
0.0000000000000001
 21
1.0
 31
0.0
 73
     1
 44
1.0
  0
POINT
  5
1E330
330
18892
100
AcDbEntity
  8
DEFPOINTS
 62
     0
 48
50.0
100
AcDbPoint
 10
10646.47449085893
 20
2029.373661269834
 30
0.0
  0
POINT
  5
1E331
330
18892
100
AcDbEntity
  8
DEFPOINTS
 62
     0
 48
50.0
100
AcDbPoint
 10
10602.47449085893
 20
1459.373661269833
 30
0.0
  0
POINT
  5
1E332
330
18892
100
AcDbEntity
  8
DEFPOINTS
 62
     0
 48
50.0
100
AcDbPoint
 10
10265.75447588975
 20
1459.373661269833
 30
0.0
  0
ENDBLK
  5
188E5
330
18892
100
AcDbEntity
  8
0
 48
50.0
100
AcDbBlockEnd
  0
BLOCK
  5
188E6
330
1889E
100
AcDbEntity
  8
0
 48
50.0
100
AcDbBlockBegin
  2
*D2
 70
     1
 10
0.0
 20
0.0
 30
0.0
  3
*D2
  1

  0
LINE
  5
1E321
330
1889E
100
AcDbEntity
  8
寸法
 62
     0
 48
50.0
370
    -2
100
AcDbLine
 10
10023.30215180335
 20
1749.373661269833
 30
0.0
 11
9908.343789282213
 21
1749.373661269833
 31
0.0
  0
LINE
  5
1E322
330
1889E
100
AcDbEntity
  8
寸法
 62
     0
 48
50.0
370
    -2
100
AcDbLine
 10
10433.47449085893
 20
1349.373661269834
 30
0.0
 11
9908.343789282213
 21
1349.373661269834
 31
0.0
  0
LINE
  5
1E323
330
1889E
100
AcDbEntity
  8
寸法
 62
     0
 48
50.0
370
    -2
100
AcDbLine
 10
9983.343789282216
 20
1749.373661269833
 30
0.0
 11
9983.343789282216
 21
1349.373661269834
 31
0.0
  0
INSERT
  5
1E324
330
1889E
100
AcDbEntity
  8
寸法
 62
     0
 48
50.0
370
    -2
100
AcDbBlockReference
  2
_DOTSMALL
 10
9983.343789282216
 20
1749.373661269833
 30
0.0
 41
125.0
 42
125.0
 43
125.0
 50
90.0
  0
INSERT
  5
1E325
330
1889E
100
AcDbEntity
  8
寸法
 62
     0
 48
50.0
370
    -2
100
AcDbBlockReference
  2
_DOTSMALL
 10
9983.343789282216
 20
1349.373661269834
 30
0.0
 41
125.0
 42
125.0
 43
125.0
 50
270.0
  0
MTEXT
  5
1E326
330
1889E
100
AcDbEntity
  8
寸法
 62
     7
 48
50.0
100
AcDbMText
 10
9883.329025502689
 20
1549.373661269835
 30
0.0
 40
150.0
 41
0.0
 71
     5
 72
     1
  1
\A1;200
  7
STYLE1
 11
0.0000000000000001
 21
1.0
 31
0.0
 73
     1
 44
1.0
  0
POINT
  5
1E327
330
1889E
100
AcDbEntity
  8
DEFPOINTS
 62
     0
 48
50.0
100
AcDbPoint
 10
10048.30215180335
 20
1749.373661269833
 30
0.0
  0
POINT
  5
1E328
330
1889E
100
AcDbEntity
  8
DEFPOINTS
 62
     0
 48
50.0
100
AcDbPoint
 10
10458.47449085893
 20
1349.373661269834
 30
0.0
  0
POINT
  5
1E329
330
1889E
100
AcDbEntity
  8
DEFPOINTS
 62
     0
 48
50.0
100
AcDbPoint
 10
9983.343789282216
 20
1349.373661269834
 30
0.0
  0
ENDBLK
  5
188F0
330
1889E
100
AcDbEntity
  8
0
 48
50.0
100
AcDbBlockEnd
  0
BLOCK
  5
188F1
330
188AA
100
AcDbEntity
  8
0
 48
50.0
100
AcDbBlockBegin
  2
*D3
 70
     1
 10
0.0
 20
0.0
 30
0.0
  3
*D3
  1

  0
LINE
  5
1E317
330
188AA
100
AcDbEntity
  8
寸法
 62
     0
 48
50.0
370
    -2
100
AcDbLine
 10
10240.75447588975
 20
1949.373661269834
 30
0.0
 11
9908.992508710598
 21
1949.373661269834
 31
0.0
  0
LINE
  5
1E318
330
188AA
100
AcDbEntity
  8
寸法
 62
     0
 48
50.0
370
    -2
100
AcDbLine
 10
10023.30215180335
 20
1749.373661269833
 30
0.0
 11
9908.992508710598
 21
1749.373661269833
 31
0.0
  0
LINE
  5
1E319
330
188AA
100
AcDbEntity
  8
寸法
 62
     0
 48
50.0
370
    -2
100
AcDbLine
 10
9983.992508710601
 20
1749.373661269833
 30
0.0
 11
9983.992508710601
 21
1949.373661269834
 31
0.0
  0
LINE
  5
1E31A
330
188AA
100
AcDbEntity
  8
寸法
 62
     0
 48
50.0
370
    -2
100
AcDbLine
 10
9983.992508710601
 20
1949.373661269834
 30
0.0
 11
9983.992508710601
 21
2381.396299065108
 31
0.0
  0
INSERT
  5
1E31B
330
188AA
100
AcDbEntity
  8
寸法
 62
     0
 48
50.0
370
    -2
100
AcDbBlockReference
  2
_DOTSMALL
 10
9983.992508710601
 20
1749.373661269833
 30
0.0
 41
125.0
 42
125.0
 43
125.0
 50
270.0
  0
INSERT
  5
1E31C
330
188AA
100
AcDbEntity
  8
寸法
 62
     0
 48
50.0
370
    -2
100
AcDbBlockReference
  2
_DOTSMALL
 10
9983.992508710601
 20
1949.373661269834
 30
0.0
 41
125.0
 42
125.0
 43
125.0
 50
90.0
  0
MTEXT
  5
1E31D
330
188AA
100
AcDbEntity
  8
寸法
 62
     7
 48
50.0
100
AcDbMText
 10
9883.992508710598
 20
2236.337243947
 30
0.0
 40
150.0
 41
0.0
 71
     5
 72
     1
  1
\A1;100
  7
STYLE1
 11
0.0000000000000001
 21
1.0
 31
0.0
 73
     1
 44
1.0
  0
POINT
  5
1E31E
330
188AA
100
AcDbEntity
  8
DEFPOINTS
 62
     0
 48
50.0
100
AcDbPoint
 10
10265.75447588975
 20
1949.373661269834
 30
0.0
  0
POINT
  5
1E31F
330
188AA
100
AcDbEntity
  8
DEFPOINTS
 62
     0
 48
50.0
100
AcDbPoint
 10
10048.30215180335
 20
1749.373661269833
 30
0.0
  0
POINT
  5
1E320
330
188AA
100
AcDbEntity
  8
DEFPOINTS
 62
     0
 48
50.0
100
AcDbPoint
 10
9983.992508710601
 20
1749.373661269833
 30
0.0
  0
ENDBLK
  5
188FC
330
188AA
100
AcDbEntity
  8
0
 48
50.0
100
AcDbBlockEnd
  0
BLOCK
  5
188FD
330
188B7
100
AcDbEntity
  8
0
 48
50.0
100
AcDbBlockBegin
  2
*D4
 70
     1
 10
0.0
 20
0.0
 30
0.0
  3
*D4
  1

  0
LINE
  5
1E30E
330
188B7
100
AcDbEntity
  8
寸法
 62
     0
 48
50.0
370
    -2
100
AcDbLine
 10
12489.69235086196
 20
1324.373661269834
 30
0.0
 11
12489.69235086196
 21
947.8906957845302
 31
0.0
  0
LINE
  5
1E30F
330
188B7
100
AcDbEntity
  8
寸法
 62
     0
 48
50.0
370
    -2
100
AcDbLine
 10
12089.69235086196
 20
1324.373661269834
 30
0.0
 11
12089.69235086196
 21
947.8906957845302
 31
0.0
  0
LINE
  5
1E310
330
188B7
100
AcDbEntity
  8
寸法
 62
     0
 48
50.0
370
    -2
100
AcDbLine
 10
12489.69235086196
 20
1022.89069578453
 30
0.0
 11
12089.69235086196
 21
1022.89069578453
 31
0.0
  0
INSERT
  5
1E311
330
188B7
100
AcDbEntity
  8
寸法
 62
     0
 48
50.0
370
    -2
100
AcDbBlockReference
  2
_DOTSMALL
 10
12489.69235086196
 20
1022.89069578453
 30
0.0
 41
125.0
 42
125.0
 43
125.0
  0
INSERT
  5
1E312
330
188B7
100
AcDbEntity
  8
寸法
 62
     0
 48
50.0
370
    -2
100
AcDbBlockReference
  2
_DOTSMALL
 10
12089.69235086196
 20
1022.89069578453
 30
0.0
 41
125.0
 42
125.0
 43
125.0
 50
180.0
  0
MTEXT
  5
1E313
330
188B7
100
AcDbEntity
  8
寸法
 62
     7
 48
50.0
100
AcDbMText
 10
12289.69235086196
 20
1122.905459564057
 30
0.0
 40
150.0
 41
0.0
 71
     5
 72
     1
  1
\A1;200
  7
STYLE1
 73
     1
 44
1.0
  0
POINT
  5
1E314
330
188B7
100
AcDbEntity
  8
DEFPOINTS
 62
     0
 48
50.0
100
AcDbPoint
 10
12489.69235086196
 20
1349.373661269834
 30
0.0
  0
POINT
  5
1E315
330
188B7
100
AcDbEntity
  8
DEFPOINTS
 62
     0
 48
50.0
100
AcDbPoint
 10
12089.69235086196
 20
1349.373661269834
 30
0.0
  0
POINT
  5
1E316
330
188B7
100
AcDbEntity
  8
DEFPOINTS
 62
     0
 48
50.0
100
AcDbPoint
 10
12089.69235086196
 20
1022.89069578453
 30
0.0
  0
ENDBLK
  5
18907
330
188B7
100
AcDbEntity
  8
0
 48
50.0
100
AcDbBlockEnd
  0
BLOCK
  5
18908
330
188C3
100
AcDbEntity
  8
0
 48
50.0
100
AcDbBlockBegin
  2
*D5
 70
     1
 10
0.0
 20
0.0
 30
0.0
  3
*D5
  1

  0
LINE
  5
1E305
330
188C3
100
AcDbEntity
  8
寸法
 62
     0
 48
50.0
370
    -2
100
AcDbLine
 10
10858.47449085893
 20
1324.373661269834
 30
0.0
 11
10858.47449085893
 21
947.8906957845302
 31
0.0
  0
LINE
  5
1E306
330
188C3
100
AcDbEntity
  8
寸法
 62
     0
 48
50.0
370
    -2
100
AcDbLine
 10
10458.47449085893
 20
1324.373661269834
 30
0.0
 11
10458.47449085893
 21
947.8906957845302
 31
0.0
  0
LINE
  5
1E307
330
188C3
100
AcDbEntity
  8
寸法
 62
     0
 48
50.0
370
    -2
100
AcDbLine
 10
10858.47449085893
 20
1022.89069578453
 30
0.0
 11
10458.47449085893
 21
1022.89069578453
 31
0.0
  0
INSERT
  5
1E308
330
188C3
100
AcDbEntity
  8
寸法
 62
     0
 48
50.0
370
    -2
100
AcDbBlockReference
  2
_DOTSMALL
 10
10858.47449085893
 20
1022.89069578453
 30
0.0
 41
125.0
 42
125.0
 43
125.0
  0
INSERT
  5
1E309
330
188C3
100
AcDbEntity
  8
寸法
 62
     0
 48
50.0
370
    -2
100
AcDbBlockReference
  2
_DOTSMALL
 10
10458.47449085893
 20
1022.89069578453
 30
0.0
 41
125.0
 42
125.0
 43
125.0
 50
180.0
  0
MTEXT
  5
1E30A
330
188C3
100
AcDbEntity
  8
寸法
 62
     7
 48
50.0
100
AcDbMText
 10
10658.47449085893
 20
1122.905459564057
 30
0.0
 40
150.0
 41
0.0
 71
     5
 72
     1
  1
\A1;200
  7
STYLE1
 73
     1
 44
1.0
  0
POINT
  5
1E30B
330
188C3
100
AcDbEntity
  8
DEFPOINTS
 62
     0
 48
50.0
100
AcDbPoint
 10
10858.47449085893
 20
1349.373661269834
 30
0.0
  0
POINT
  5
1E30C
330
188C3
100
AcDbEntity
  8
DEFPOINTS
 62
     0
 48
50.0
100
AcDbPoint
 10
10458.47449085893
 20
1349.373661269834
 30
0.0
  0
POINT
  5
1E30D
330
188C3
100
AcDbEntity
  8
DEFPOINTS
 62
     0
 48
50.0
100
AcDbPoint
 10
10458.47449085893
 20
1022.89069578453
 30
0.0
  0
ENDBLK
  5
18912
330
188C3
100
AcDbEntity
  8
0
 48
50.0
100
AcDbBlockEnd
  0
BLOCK
  5
18913
330
188CF
100
AcDbEntity
  8
0
 48
50.0
100
AcDbBlockBegin
  2
*D6
 70
     1
 10
0.0
 20
0.0
 30
0.0
  3
*D6
  1

  0
LINE
  5
1E2FC
330
188CF
100
AcDbEntity
  8
寸法
 62
     0
 48
50.0
370
    -2
100
AcDbLine
 10
11654.52001180637
 20
1749.373661269833
 30
0.0
 11
11539.56164928524
 21
1749.373661269833
 31
0.0
  0
LINE
  5
1E2FD
330
188CF
100
AcDbEntity
  8
寸法
 62
     0
 48
50.0
370
    -2
100
AcDbLine
 10
12064.69235086196
 20
1349.373661269834
 30
0.0
 11
11539.56164928524
 21
1349.373661269834
 31
0.0
  0
LINE
  5
1E2FE
330
188CF
100
AcDbEntity
  8
寸法
 62
     0
 48
50.0
370
    -2
100
AcDbLine
 10
11614.56164928524
 20
1749.373661269833
 30
0.0
 11
11614.56164928524
 21
1349.373661269834
 31
0.0
  0
INSERT
  5
1E2FF
330
188CF
100
AcDbEntity
  8
寸法
 62
     0
 48
50.0
370
    -2
100
AcDbBlockReference
  2
_DOTSMALL
 10
11614.56164928524
 20
1749.373661269833
 30
0.0
 41
125.0
 42
125.0
 43
125.0
 50
90.0
  0
INSERT
  5
1E300
330
188CF
100
AcDbEntity
  8
寸法
 62
     0
 48
50.0
370
    -2
100
AcDbBlockReference
  2
_DOTSMALL
 10
11614.56164928524
 20
1349.373661269834
 30
0.0
 41
125.0
 42
125.0
 43
125.0
 50
270.0
  0
MTEXT
  5
1E301
330
188CF
100
AcDbEntity
  8
寸法
 62
     7
 48
50.0
100
AcDbMText
 10
11514.54688550571
 20
1549.373661269835
 30
0.0
 40
150.0
 41
0.0
 71
     5
 72
     1
  1
\A1;200
  7
STYLE1
 11
0.0000000000000001
 21
1.0
 31
0.0
 73
     1
 44
1.0
  0
POINT
  5
1E302
330
188CF
100
AcDbEntity
  8
DEFPOINTS
 62
     0
 48
50.0
100
AcDbPoint
 10
11679.52001180637
 20
1749.373661269833
 30
0.0
  0
POINT
  5
1E303
330
188CF
100
AcDbEntity
  8
DEFPOINTS
 62
     0
 48
50.0
100
AcDbPoint
 10
12089.69235086196
 20
1349.373661269834
 30
0.0
  0
POINT
  5
1E304
330
188CF
100
AcDbEntity
  8
DEFPOINTS
 62
     0
 48
50.0
100
AcDbPoint
 10
11614.56164928524
 20
1349.373661269834
 30
0.0
  0
ENDBLK
  5
1891D
330
188CF
100
AcDbEntity
  8
0
 48
50.0
100
AcDbBlockEnd
  0
BLOCK
  5
1E00E
330
1E003
100
AcDbEntity
  8
0
 48
50.0
100
AcDbBlockBegin
  2
*D7
 70
     1
 10
0.0
 20
0.0
 30
0.0
  3
*D7
  1

  0
LINE
  5
1E26A
330
1E003
100
AcDbEntity
  8
寸法
 62
     0
 48
50.0
370
    -2
100
AcDbLine
 10
11680.49999999998
 20
7701.955177899434
 30
0.0
 11
12790.5
 21
7701.955177899434
 31
0.0
  0
LINE
  5
1E26B
330
1E003
100
AcDbEntity
  8
寸法
 62
     0
 48
50.0
370
    -2
100
AcDbLine
 10
11590.5
 20
7796.955177899414
 30
0.0
 11
12790.5
 21
7796.955177899414
 31
0.0
  0
LINE
  5
1E26C
330
1E003
100
AcDbEntity
  8
寸法
 62
     0
 48
50.0
370
    -2
100
AcDbLine
 10
12715.50000000001
 20
7701.955177899434
 30
0.0
 11
12715.50000000001
 21
7796.955177899414
 31
0.0
  0
LINE
  5
1E26D
330
1E003
100
AcDbEntity
  8
寸法
 62
     0
 48
50.0
370
    -2
100
AcDbLine
 10
12715.50000000001
 20
7796.955177899414
 30
0.0
 11
12715.50000000001
 21
8257.361217237344
 31
0.0
  0
INSERT
  5
1E26E
330
1E003
100
AcDbEntity
  8
寸法
 62
     0
 48
50.0
370
    -2
100
AcDbBlockReference
  2
_DOTSMALL
 10
12715.50000000001
 20
7701.955177899434
 30
0.0
 41
125.0
 42
125.0
 43
125.0
 50
270.0
  0
INSERT
  5
1E26F
330
1E003
100
AcDbEntity
  8
寸法
 62
     0
 48
50.0
370
    -2
100
AcDbBlockReference
  2
_DOTSMALL
 10
12715.50000000001
 20
7796.955177899414
 30
0.0
 41
125.0
 42
125.0
 43
125.0
 50
90.0
  0
MTEXT
  5
1E270
330
1E003
100
AcDbEntity
  8
寸法
 62
     7
 48
50.0
100
AcDbMText
 10
12607.96374807353
 20
8089.658197568384
 30
0.0
 40
150.0
 41
0.0
 71
     5
 72
     1
  1
\A1;(95)
  7
STYLE1
 11
0.0000000000000001
 21
1.0
 31
0.0
 73
     1
 44
1.0
  0
POINT
  5
1E271
330
1E003
100
AcDbEntity
  8
DEFPOINTS
 62
     0
 48
50.0
100
AcDbPoint
 10
11655.49999999998
 20
7701.955177899434
 30
0.0
  0
POINT
  5
1E272
330
1E003
100
AcDbEntity
  8
DEFPOINTS
 62
     0
 48
50.0
100
AcDbPoint
 10
11565.5
 20
7796.955177899414
 30
0.0
  0
POINT
  5
1E273
330
1E003
100
AcDbEntity
  8
DEFPOINTS
 62
     0
 48
50.0
100
AcDbPoint
 10
12715.50000000001
 20
7796.955177899414
 30
0.0
  0
ENDBLK
  5
1E00F
330
1E003
100
AcDbEntity
  8
0
 48
50.0
100
AcDbBlockEnd
  0
BLOCK
  5
1E019
330
1E010
100
AcDbEntity
  8
0
 48
50.0
100
AcDbBlockBegin
  2
*D8
 70
     1
 10
0.0
 20
0.0
 30
0.0
  3
*D8
  1

  0
LINE
  5
1E2F4
330
1E010
100
AcDbEntity
  8
寸法
 62
     0
 48
50.0
370
    -2
100
AcDbLine
 10
8878.500000000009
 20
6399.955177899423
 30
0.0
 11
8218.499999999989
 21
6399.955177899423
 31
0.0
  0
LINE
  5
1E2F5
330
1E010
100
AcDbEntity
  8
寸法
 62
     0
 48
50.0
370
    -2
100
AcDbLine
 10
8293.499999999989
 20
6905.955177899406
 30
0.0
 11
8293.499999999989
 21
6399.955177899423
 31
0.0
  0
INSERT
  5
1E2F6
330
1E010
100
AcDbEntity
  8
寸法
 62
     0
 48
50.0
370
    -2
100
AcDbBlockReference
  2
_DOTSMALL
 10
8293.499999999989
 20
6905.955177899406
 30
0.0
 41
125.0
 42
125.0
 43
125.0
 50
90.0
  0
INSERT
  5
1E2F7
330
1E010
100
AcDbEntity
  8
寸法
 62
     0
 48
50.0
370
    -2
100
AcDbBlockReference
  2
_DOTSMALL
 10
8293.499999999989
 20
6399.955177899423
 30
0.0
 41
125.0
 42
125.0
 43
125.0
 50
270.0
  0
MTEXT
  5
1E2F8
330
1E010
100
AcDbEntity
  8
寸法
 62
     7
 48
50.0
100
AcDbMText
 10
8193.499999999987
 20
6652.955177899413
 30
0.0
 40
150.0
 41
0.0
 71
     5
 72
     1
  1
\A1;506
  7
STYLE1
 11
0.0000000000000001
 21
1.0
 31
0.0
 73
     1
 44
1.0
  0
POINT
  5
1E2F9
330
1E010
100
AcDbEntity
  8
DEFPOINTS
 62
     0
 48
50.0
100
AcDbPoint
 10
9540.500000000008
 20
6905.955177899406
 30
0.0
  0
POINT
  5
1E2FA
330
1E010
100
AcDbEntity
  8
DEFPOINTS
 62
     0
 48
50.0
100
AcDbPoint
 10
8903.500000000009
 20
6399.955177899423
 30
0.0
  0
POINT
  5
1E2FB
330
1E010
100
AcDbEntity
  8
DEFPOINTS
 62
     0
 48
50.0
100
AcDbPoint
 10
8293.499999999989
 20
6399.955177899423
 30
0.0
  0
ENDBLK
  5
1E01A
330
1E010
100
AcDbEntity
  8
0
 48
50.0
100
AcDbBlockEnd
  0
BLOCK
  5
1E025
330
1E01B
100
AcDbEntity
  8
0
 48
50.0
100
AcDbBlockBegin
  2
*D9
 70
     1
 10
0.0
 20
0.0
 30
0.0
  3
*D9
  1

  0
LINE
  5
1E2EB
330
1E01B
100
AcDbEntity
  8
寸法
 62
     0
 48
50.0
370
    -2
100
AcDbLine
 10
11680.49999999998
 20
6399.955177899423
 30
0.0
 11
12790.5
 21
6399.955177899423
 31
0.0
  0
LINE
  5
1E2EC
330
1E01B
100
AcDbEntity
  8
寸法
 62
     0
 48
50.0
370
    -2
100
AcDbLine
 10
11680.49999999998
 20
7701.955177899434
 30
0.0
 11
12790.5
 21
7701.955177899434
 31
0.0
  0
LINE
  5
1E2ED
330
1E01B
100
AcDbEntity
  8
寸法
 62
     0
 48
50.0
370
    -2
100
AcDbLine
 10
12715.5
 20
6399.955177899423
 30
0.0
 11
12715.5
 21
7701.955177899434
 31
0.0
  0
INSERT
  5
1E2EE
330
1E01B
100
AcDbEntity
  8
寸法
 62
     0
 48
50.0
370
    -2
100
AcDbBlockReference
  2
_DOTSMALL
 10
12715.5
 20
6399.955177899423
 30
0.0
 41
125.0
 42
125.0
 43
125.0
 50
270.0
  0
INSERT
  5
1E2EF
330
1E01B
100
AcDbEntity
  8
寸法
 62
     0
 48
50.0
370
    -2
100
AcDbBlockReference
  2
_DOTSMALL
 10
12715.5
 20
7701.955177899434
 30
0.0
 41
125.0
 42
125.0
 43
125.0
 50
90.0
  0
MTEXT
  5
1E2F0
330
1E01B
100
AcDbEntity
  8
寸法
 62
     7
 48
50.0
100
AcDbMText
 10
12615.48523622047
 20
7050.955177899431
 30
0.0
 40
150.0
 41
0.0
 71
     5
 72
     1
  1
\A1;1302
  7
STYLE1
 11
0.0000000000000001
 21
1.0
 31
0.0
 73
     1
 44
1.0
  0
POINT
  5
1E2F1
330
1E01B
100
AcDbEntity
  8
DEFPOINTS
 62
     0
 48
50.0
100
AcDbPoint
 10
11655.49999999998
 20
6399.955177899423
 30
0.0
  0
POINT
  5
1E2F2
330
1E01B
100
AcDbEntity
  8
DEFPOINTS
 62
     0
 48
50.0
100
AcDbPoint
 10
11655.49999999998
 20
7701.955177899434
 30
0.0
  0
POINT
  5
1E2F3
330
1E01B
100
AcDbEntity
  8
DEFPOINTS
 62
     0
 48
50.0
100
AcDbPoint
 10
12715.5
 20
7701.955177899434
 30
0.0
  0
ENDBLK
  5
1E026
330
1E01B
100
AcDbEntity
  8
0
 48
50.0
100
AcDbBlockEnd
  0
BLOCK
  5
1E030
330
1E027
100
AcDbEntity
  8
0
 48
50.0
100
AcDbBlockBegin
  2
*D10
 70
     1
 10
0.0
 20
0.0
 30
0.0
  3
*D10
  1

  0
LINE
  5
1E2E3
330
1E027
100
AcDbEntity
  8
寸法
 62
     0
 48
50.0
370
    -2
100
AcDbLine
 10
11680.49999999998
 20
6399.955177899423
 30
0.0
 11
12440.49999999998
 21
6399.955177899423
 31
0.0
  0
LINE
  5
1E2E4
330
1E027
100
AcDbEntity
  8
寸法
 62
     0
 48
50.0
370
    -2
100
AcDbLine
 10
12365.49999999998
 20
7050.955177899424
 30
0.0
 11
12365.49999999998
 21
6399.955177899423
 31
0.0
  0
INSERT
  5
1E2E5
330
1E027
100
AcDbEntity
  8
寸法
 62
     0
 48
50.0
370
    -2
100
AcDbBlockReference
  2
_DOTSMALL
 10
12365.49999999998
 20
7050.955177899424
 30
0.0
 41
125.0
 42
125.0
 43
125.0
 50
90.0
  0
INSERT
  5
1E2E6
330
1E027
100
AcDbEntity
  8
寸法
 62
     0
 48
50.0
370
    -2
100
AcDbBlockReference
  2
_DOTSMALL
 10
12365.49999999998
 20
6399.955177899423
 30
0.0
 41
125.0
 42
125.0
 43
125.0
 50
270.0
  0
MTEXT
  5
1E2E7
330
1E027
100
AcDbEntity
  8
寸法
 62
     7
 48
50.0
100
AcDbMText
 10
12265.49999999998
 20
6725.455177899424
 30
0.0
 40
150.0
 41
0.0
 71
     5
 72
     1
  1
\A1;651
  7
STYLE1
 11
0.0000000000000001
 21
1.0
 31
0.0
 73
     1
 44
1.0
  0
POINT
  5
1E2E8
330
1E027
100
AcDbEntity
  8
DEFPOINTS
 62
     0
 48
50.0
100
AcDbPoint
 10
10424.49999999998
 20
7050.955177899424
 30
0.0
  0
POINT
  5
1E2E9
330
1E027
100
AcDbEntity
  8
DEFPOINTS
 62
     0
 48
50.0
100
AcDbPoint
 10
11655.49999999998
 20
6399.955177899423
 30
0.0
  0
POINT
  5
1E2EA
330
1E027
100
AcDbEntity
  8
DEFPOINTS
 62
     0
 48
50.0
100
AcDbPoint
 10
12365.49999999998
 20
6399.955177899423
 30
0.0
  0
ENDBLK
  5
1E031
330
1E027
100
AcDbEntity
  8
0
 48
50.0
100
AcDbBlockEnd
  0
BLOCK
  5
1E03C
330
1E032
100
AcDbEntity
  8
0
 48
50.0
100
AcDbBlockBegin
  2
*D11
 70
     1
 10
0.0
 20
0.0
 30
0.0
  3
*D11
  1

  0
LINE
  5
1E2DA
330
1E032
100
AcDbEntity
  8
寸法
 62
     0
 48
50.0
370
    -2
100
AcDbLine
 10
9048.499999999988
 20
6229.955177899434
 30
0.0
 11
9048.499999999988
 21
5389.955177899437
 31
0.0
  0
LINE
  5
1E2DB
330
1E032
100
AcDbEntity
  8
寸法
 62
     0
 48
50.0
370
    -2
100
AcDbLine
 10
11510.49999999999
 20
6229.955177899434
 30
0.0
 11
11510.49999999999
 21
5389.955177899437
 31
0.0
  0
LINE
  5
1E2DC
330
1E032
100
AcDbEntity
  8
寸法
 62
     0
 48
50.0
370
    -2
100
AcDbLine
 10
9048.499999999988
 20
5464.955177899437
 30
0.0
 11
11510.49999999999
 21
5464.955177899437
 31
0.0
  0
INSERT
  5
1E2DD
330
1E032
100
AcDbEntity
  8
寸法
 62
     0
 48
50.0
370
    -2
100
AcDbBlockReference
  2
_DOTSMALL
 10
9048.499999999988
 20
5464.955177899437
 30
0.0
 41
125.0
 42
125.0
 43
125.0
 50
180.0
  0
INSERT
  5
1E2DE
330
1E032
100
AcDbEntity
  8
寸法
 62
     0
 48
50.0
370
    -2
100
AcDbBlockReference
  2
_DOTSMALL
 10
11510.49999999999
 20
5464.955177899437
 30
0.0
 41
125.0
 42
125.0
 43
125.0
  0
MTEXT
  5
1E2DF
330
1E032
100
AcDbEntity
  8
寸法
 62
     7
 48
50.0
100
AcDbMText
 10
10279.49999999999
 20
5564.969941678963
 30
0.0
 40
150.0
 41
0.0
 71
     5
 72
     1
  1
\A1;2462
  7
STYLE1
 73
     1
 44
1.0
  0
POINT
  5
1E2E0
330
1E032
100
AcDbEntity
  8
DEFPOINTS
 62
     0
 48
50.0
100
AcDbPoint
 10
9048.499999999988
 20
6254.955177899433
 30
0.0
  0
POINT
  5
1E2E1
330
1E032
100
AcDbEntity
  8
DEFPOINTS
 62
     0
 48
50.0
100
AcDbPoint
 10
11510.49999999999
 20
6254.955177899433
 30
0.0
  0
POINT
  5
1E2E2
330
1E032
100
AcDbEntity
  8
DEFPOINTS
 62
     0
 48
50.0
100
AcDbPoint
 10
11510.49999999999
 20
5464.955177899437
 30
0.0
  0
ENDBLK
  5
1E03D
330
1E032
100
AcDbEntity
  8
0
 48
50.0
100
AcDbBlockEnd
  0
BLOCK
  5
1E047
330
1E03E
100
AcDbEntity
  8
0
 48
50.0
100
AcDbBlockBegin
  2
*D12
 70
     1
 10
0.0
 20
0.0
 30
0.0
  3
*D12
  1

  0
LINE
  5
1E2D2
330
1E03E
100
AcDbEntity
  8
寸法
 62
     0
 48
50.0
370
    -2
100
AcDbLine
 10
11510.49999999999
 20
6229.955177899434
 30
0.0
 11
11510.49999999999
 21
5789.955177899423
 31
0.0
  0
LINE
  5
1E2D3
330
1E03E
100
AcDbEntity
  8
寸法
 62
     0
 48
50.0
370
    -2
100
AcDbLine
 10
10279.49999999999
 20
5864.955177899423
 30
0.0
 11
11510.49999999999
 21
5864.955177899423
 31
0.0
  0
INSERT
  5
1E2D4
330
1E03E
100
AcDbEntity
  8
寸法
 62
     0
 48
50.0
370
    -2
100
AcDbBlockReference
  2
_DOTSMALL
 10
10279.49999999999
 20
5864.955177899423
 30
0.0
 41
125.0
 42
125.0
 43
125.0
 50
180.0
  0
INSERT
  5
1E2D5
330
1E03E
100
AcDbEntity
  8
寸法
 62
     0
 48
50.0
370
    -2
100
AcDbBlockReference
  2
_DOTSMALL
 10
11510.49999999999
 20
5864.955177899423
 30
0.0
 41
125.0
 42
125.0
 43
125.0
  0
MTEXT
  5
1E2D6
330
1E03E
100
AcDbEntity
  8
寸法
 62
     7
 48
50.0
100
AcDbMText
 10
10894.99999999999
 20
5964.96994167895
 30
0.0
 40
150.0
 41
0.0
 71
     5
 72
     1
  1
\A1;1231
  7
STYLE1
 73
     1
 44
1.0
  0
POINT
  5
1E2D7
330
1E03E
100
AcDbEntity
  8
DEFPOINTS
 62
     0
 48
50.0
100
AcDbPoint
 10
10279.49999999999
 20
6334.955177899434
 30
0.0
  0
POINT
  5
1E2D8
330
1E03E
100
AcDbEntity
  8
DEFPOINTS
 62
     0
 48
50.0
100
AcDbPoint
 10
11510.49999999999
 20
6254.955177899433
 30
0.0
  0
POINT
  5
1E2D9
330
1E03E
100
AcDbEntity
  8
DEFPOINTS
 62
     0
 48
50.0
100
AcDbPoint
 10
11510.49999999999
 20
5864.955177899423
 30
0.0
  0
ENDBLK
  5
1E048
330
1E03E
100
AcDbEntity
  8
0
 48
50.0
100
AcDbBlockEnd
  0
BLOCK
  5
1E054
330
1E049
100
AcDbEntity
  8
0
 48
50.0
100
AcDbBlockBegin
  2
*D13
 70
     1
 10
0.0
 20
0.0
 30
0.0
  3
*D13
  1

  0
LINE
  5
1E2C8
330
1E049
100
AcDbEntity
  8
寸法
 62
     0
 48
50.0
370
    -2
100
AcDbLine
 10
8878.500000000009
 20
6399.955177899423
 30
0.0
 11
8218.499999999991
 21
6399.955177899423
 31
0.0
  0
LINE
  5
1E2C9
330
1E049
100
AcDbEntity
  8
寸法
 62
     0
 48
50.0
370
    -2
100
AcDbLine
 10
10154.49999999998
 20
6334.955177899434
 30
0.0
 11
8218.499999999991
 21
6334.955177899434
 31
0.0
  0
LINE
  5
1E2CA
330
1E049
100
AcDbEntity
  8
寸法
 62
     0
 48
50.0
370
    -2
100
AcDbLine
 10
8293.499999999992
 20
6399.955177899423
 30
0.0
 11
8293.499999999992
 21
6334.955177899434
 31
0.0
  0
LINE
  5
1E2CB
330
1E049
100
AcDbEntity
  8
寸法
 62
     0
 48
50.0
370
    -2
100
AcDbLine
 10
8293.499999999992
 20
6334.955177899434
 30
0.0
 11
8293.499999999992
 21
5426.241974463827
 31
0.0
  0
INSERT
  5
1E2CC
330
1E049
100
AcDbEntity
  8
寸法
 62
     0
 48
50.0
370
    -2
100
AcDbBlockReference
  2
_DOTSMALL
 10
8293.499999999992
 20
6399.955177899423
 30
0.0
 41
125.0
 42
125.0
 43
125.0
 50
90.0
  0
INSERT
  5
1E2CD
330
1E049
100
AcDbEntity
  8
寸法
 62
     0
 48
50.0
370
    -2
100
AcDbBlockReference
  2
_DOTSMALL
 10
8293.499999999992
 20
6334.955177899434
 30
0.0
 41
125.0
 42
125.0
 43
125.0
 50
270.0
  0
MTEXT
  5
1E2CE
330
1E049
100
AcDbEntity
  8
寸法
 62
     7
 48
50.0
100
AcDbMText
 10
8193.499999999989
 20
5818.098576181626
 30
0.0
 40
150.0
 41
0.0
 71
     5
 72
     1
  1
\A1;扉の出65
  7
STYLE1
 11
0.0000000000000001
 21
1.0
 31
0.0
 73
     1
 44
1.0
  0
POINT
  5
1E2CF
330
1E049
100
AcDbEntity
  8
DEFPOINTS
 62
     0
 48
50.0
100
AcDbPoint
 10
8903.500000000009
 20
6399.955177899423
 30
0.0
  0
POINT
  5
1E2D0
330
1E049
100
AcDbEntity
  8
DEFPOINTS
 62
     0
 48
50.0
100
AcDbPoint
 10
10179.49999999999
 20
6334.955177899434
 30
0.0
  0
POINT
  5
1E2D1
330
1E049
100
AcDbEntity
  8
DEFPOINTS
 62
     0
 48
50.0
100
AcDbPoint
 10
8293.499999999992
 20
6334.955177899434
 30
0.0
  0
ENDBLK
  5
1E055
330
1E049
100
AcDbEntity
  8
0
 48
50.0
100
AcDbBlockEnd
  0
BLOCK
  5
1E060
330
1E056
100
AcDbEntity
  8
0
 48
50.0
100
AcDbBlockBegin
  2
*D14
 70
     1
 10
0.0
 20
0.0
 30
0.0
  3
*D14
  1

  0
LINE
  5
1E2BF
330
1E056
100
AcDbEntity
  8
寸法
 62
     0
 48
50.0
370
    -2
100
AcDbLine
 10
9048.499999999988
 20
6229.955177899434
 30
0.0
 11
9048.499999999988
 21
5789.955177899423
 31
0.0
  0
LINE
  5
1E2C0
330
1E056
100
AcDbEntity
  8
寸法
 62
     0
 48
50.0
370
    -2
100
AcDbLine
 10
10279.49999999999
 20
6309.955177899434
 30
0.0
 11
10279.49999999999
 21
5789.955177899423
 31
0.0
  0
LINE
  5
1E2C1
330
1E056
100
AcDbEntity
  8
寸法
 62
     0
 48
50.0
370
    -2
100
AcDbLine
 10
9048.499999999988
 20
5864.955177899423
 30
0.0
 11
10279.49999999999
 21
5864.955177899423
 31
0.0
  0
INSERT
  5
1E2C2
330
1E056
100
AcDbEntity
  8
寸法
 62
     0
 48
50.0
370
    -2
100
AcDbBlockReference
  2
_DOTSMALL
 10
9048.499999999988
 20
5864.955177899423
 30
0.0
 41
125.0
 42
125.0
 43
125.0
 50
180.0
  0
INSERT
  5
1E2C3
330
1E056
100
AcDbEntity
  8
寸法
 62
     0
 48
50.0
370
    -2
100
AcDbBlockReference
  2
_DOTSMALL
 10
10279.49999999999
 20
5864.955177899423
 30
0.0
 41
125.0
 42
125.0
 43
125.0
  0
MTEXT
  5
1E2C4
330
1E056
100
AcDbEntity
  8
寸法
 62
     7
 48
50.0
100
AcDbMText
 10
9663.999999999987
 20
5964.96994167895
 30
0.0
 40
150.0
 41
0.0
 71
     5
 72
     1
  1
\A1;1231
  7
STYLE1
 73
     1
 44
1.0
  0
POINT
  5
1E2C5
330
1E056
100
AcDbEntity
  8
DEFPOINTS
 62
     0
 48
50.0
100
AcDbPoint
 10
9048.499999999988
 20
6254.955177899433
 30
0.0
  0
POINT
  5
1E2C6
330
1E056
100
AcDbEntity
  8
DEFPOINTS
 62
     0
 48
50.0
100
AcDbPoint
 10
10279.49999999999
 20
6334.955177899434
 30
0.0
  0
POINT
  5
1E2C7
330
1E056
100
AcDbEntity
  8
DEFPOINTS
 62
     0
 48
50.0
100
AcDbPoint
 10
10279.49999999999
 20
5864.955177899423
 30
0.0
  0
ENDBLK
  5
1E061
330
1E056
100
AcDbEntity
  8
0
 48
50.0
100
AcDbBlockEnd
  0
BLOCK
  5
1E06D
330
1E062
100
AcDbEntity
  8
0
 48
50.0
100
AcDbBlockBegin
  2
*D15
 70
     1
 10
0.0
 20
0.0
 30
0.0
  3
*D15
  1

  0
LINE
  5
1E2B5
330
1E062
100
AcDbEntity
  8
寸法
 62
     0
 48
50.0
370
    -2
100
AcDbLine
 10
8993.499999999988
 20
6239.955177899423
 30
0.0
 11
8993.499999999988
 21
5389.955177899437
 31
0.0
  0
LINE
  5
1E2B6
330
1E062
100
AcDbEntity
  8
寸法
 62
     0
 48
50.0
370
    -2
100
AcDbLine
 10
9048.499999999988
 20
6229.955177899434
 30
0.0
 11
9048.499999999988
 21
5389.955177899437
 31
0.0
  0
LINE
  5
1E2B7
330
1E062
100
AcDbEntity
  8
寸法
 62
     0
 48
50.0
370
    -2
100
AcDbLine
 10
9048.499999999988
 20
5464.955177899437
 30
0.0
 11
8993.499999999988
 21
5464.955177899437
 31
0.0
  0
LINE
  5
1E2B8
330
1E062
100
AcDbEntity
  8
寸法
 62
     0
 48
50.0
370
    -2
100
AcDbLine
 10
8993.499999999988
 20
5464.955177899437
 30
0.0
 11
8533.61811023621
 21
5464.955177899437
 31
0.0
  0
INSERT
  5
1E2B9
330
1E062
100
AcDbEntity
  8
寸法
 62
     0
 48
50.0
370
    -2
100
AcDbBlockReference
  2
_DOTSMALL
 10
9048.499999999988
 20
5464.955177899437
 30
0.0
 41
125.0
 42
125.0
 43
125.0
  0
INSERT
  5
1E2BA
330
1E062
100
AcDbEntity
  8
寸法
 62
     0
 48
50.0
370
    -2
100
AcDbBlockReference
  2
_DOTSMALL
 10
8993.499999999988
 20
5464.955177899437
 30
0.0
 41
125.0
 42
125.0
 43
125.0
 50
180.0
  0
MTEXT
  5
1E2BB
330
1E062
100
AcDbEntity
  8
寸法
 62
     7
 48
50.0
100
AcDbMText
 10
8701.059055118099
 20
5572.455177899435
 30
0.0
 40
150.0
 41
0.0
 71
     5
 72
     1
  1
\A1;(55)
  7
STYLE1
 73
     1
 44
1.0
  0
POINT
  5
1E2BC
330
1E062
100
AcDbEntity
  8
DEFPOINTS
 62
     0
 48
50.0
100
AcDbPoint
 10
8993.499999999988
 20
6264.955177899423
 30
0.0
  0
POINT
  5
1E2BD
330
1E062
100
AcDbEntity
  8
DEFPOINTS
 62
     0
 48
50.0
100
AcDbPoint
 10
9048.499999999988
 20
6254.955177899433
 30
0.0
  0
POINT
  5
1E2BE
330
1E062
100
AcDbEntity
  8
DEFPOINTS
 62
     0
 48
50.0
100
AcDbPoint
 10
9048.499999999988
 20
5464.955177899437
 30
0.0
  0
ENDBLK
  5
1E06E
330
1E062
100
AcDbEntity
  8
0
 48
50.0
100
AcDbBlockEnd
  0
BLOCK
  5
1E07A
330
1E06F
100
AcDbEntity
  8
0
 48
50.0
100
AcDbBlockBegin
  2
*D16
 70
     1
 10
0.0
 20
0.0
 30
0.0
  3
*D16
  1

  0
LINE
  5
1E2AB
330
1E06F
100
AcDbEntity
  8
寸法
 62
     0
 48
50.0
370
    -2
100
AcDbLine
 10
11510.49999999999
 20
6229.955177899434
 30
0.0
 11
11510.49999999999
 21
5389.955177899437
 31
0.0
  0
LINE
  5
1E2AC
330
1E06F
100
AcDbEntity
  8
寸法
 62
     0
 48
50.0
370
    -2
100
AcDbLine
 10
11565.5
 20
6239.955177899423
 30
0.0
 11
11565.5
 21
5389.955177899437
 31
0.0
  0
LINE
  5
1E2AD
330
1E06F
100
AcDbEntity
  8
寸法
 62
     0
 48
50.0
370
    -2
100
AcDbLine
 10
11510.49999999999
 20
5464.955177899437
 30
0.0
 11
11565.5
 21
5464.955177899437
 31
0.0
  0
LINE
  5
1E2AE
330
1E06F
100
AcDbEntity
  8
寸法
 62
     0
 48
50.0
370
    -2
100
AcDbLine
 10
11565.5
 20
5464.955177899437
 30
0.0
 11
12025.38188976378
 21
5464.955177899437
 31
0.0
  0
INSERT
  5
1E2AF
330
1E06F
100
AcDbEntity
  8
寸法
 62
     0
 48
50.0
370
    -2
100
AcDbBlockReference
  2
_DOTSMALL
 10
11510.49999999999
 20
5464.955177899437
 30
0.0
 41
125.0
 42
125.0
 43
125.0
 50
180.0
  0
INSERT
  5
1E2B0
330
1E06F
100
AcDbEntity
  8
寸法
 62
     0
 48
50.0
370
    -2
100
AcDbBlockReference
  2
_DOTSMALL
 10
11565.5
 20
5464.955177899437
 30
0.0
 41
125.0
 42
125.0
 43
125.0
  0
MTEXT
  5
1E2B1
330
1E06F
100
AcDbEntity
  8
寸法
 62
     7
 48
50.0
100
AcDbMText
 10
11857.94094488189
 20
5572.455177899435
 30
0.0
 40
150.0
 41
0.0
 71
     5
 72
     1
  1
\A1;(55)
  7
STYLE1
 73
     1
 44
1.0
  0
POINT
  5
1E2B2
330
1E06F
100
AcDbEntity
  8
DEFPOINTS
 62
     0
 48
50.0
100
AcDbPoint
 10
11510.49999999999
 20
6254.955177899433
 30
0.0
  0
POINT
  5
1E2B3
330
1E06F
100
AcDbEntity
  8
DEFPOINTS
 62
     0
 48
50.0
100
AcDbPoint
 10
11565.5
 20
6264.955177899423
 30
0.0
  0
POINT
  5
1E2B4
330
1E06F
100
AcDbEntity
  8
DEFPOINTS
 62
     0
 48
50.0
100
AcDbPoint
 10
11565.5
 20
5464.955177899437
 30
0.0
  0
ENDBLK
  5
1E07B
330
1E06F
100
AcDbEntity
  8
0
 48
50.0
100
AcDbBlockEnd
  0
BLOCK
  5
1E087
330
1E07C
100
AcDbEntity
  8
0
 48
50.0
100
AcDbBlockBegin
  2
*D17
 70
     1
 10
0.0
 20
0.0
 30
0.0
  3
*D17
  1

  0
LINE
  5
1E2A1
330
1E07C
100
AcDbEntity
  8
寸法
 62
     0
 48
50.0
370
    -2
100
AcDbLine
 10
11680.49999999998
 20
6399.955177899423
 30
0.0
 11
12790.5
 21
6399.955177899423
 31
0.0
  0
LINE
  5
1E2A2
330
1E07C
100
AcDbEntity
  8
寸法
 62
     0
 48
50.0
370
    -2
100
AcDbLine
 10
11590.5
 20
6264.955177899423
 30
0.0
 11
12790.5
 21
6264.955177899423
 31
0.0
  0
LINE
  5
1E2A3
330
1E07C
100
AcDbEntity
  8
寸法
 62
     0
 48
50.0
370
    -2
100
AcDbLine
 10
12715.50000000001
 20
6399.955177899423
 30
0.0
 11
12715.50000000001
 21
6264.955177899423
 31
0.0
  0
LINE
  5
1E2A4
330
1E07C
100
AcDbEntity
  8
寸法
 62
     0
 48
50.0
370
    -2
100
AcDbLine
 10
12715.50000000001
 20
6264.955177899423
 30
0.0
 11
12715.50000000001
 21
5730.073288135642
 31
0.0
  0
INSERT
  5
1E2A5
330
1E07C
100
AcDbEntity
  8
寸法
 62
     0
 48
50.0
370
    -2
100
AcDbBlockReference
  2
_DOTSMALL
 10
12715.50000000001
 20
6399.955177899423
 30
0.0
 41
125.0
 42
125.0
 43
125.0
 50
90.0
  0
INSERT
  5
1E2A6
330
1E07C
100
AcDbEntity
  8
寸法
 62
     0
 48
50.0
370
    -2
100
AcDbBlockReference
  2
_DOTSMALL
 10
12715.50000000001
 20
6264.955177899423
 30
0.0
 41
125.0
 42
125.0
 43
125.0
 50
270.0
  0
MTEXT
  5
1E2A7
330
1E07C
100
AcDbEntity
  8
寸法
 62
     7
 48
50.0
100
AcDbMText
 10
12608.0
 20
5935.014233017533
 30
0.0
 40
150.0
 41
0.0
 71
     5
 72
     1
  1
\A1;(135)
  7
STYLE1
 11
0.0000000000000001
 21
1.0
 31
0.0
 73
     1
 44
1.0
  0
POINT
  5
1E2A8
330
1E07C
100
AcDbEntity
  8
DEFPOINTS
 62
     0
 48
50.0
100
AcDbPoint
 10
11655.49999999998
 20
6399.955177899423
 30
0.0
  0
POINT
  5
1E2A9
330
1E07C
100
AcDbEntity
  8
DEFPOINTS
 62
     0
 48
50.0
100
AcDbPoint
 10
11565.5
 20
6264.955177899423
 30
0.0
  0
POINT
  5
1E2AA
330
1E07C
100
AcDbEntity
  8
DEFPOINTS
 62
     0
 48
50.0
100
AcDbPoint
 10
12715.50000000001
 20
6264.955177899423
 30
0.0
  0
ENDBLK
  5
1E088
330
1E07C
100
AcDbEntity
  8
0
 48
50.0
100
AcDbBlockEnd
  0
BLOCK
  5
1E093
330
1E089
100
AcDbEntity
  8
0
 48
50.0
100
AcDbBlockBegin
  2
*D18
 70
     1
 10
0.0
 20
0.0
 30
0.0
  3
*D18
  1

  0
LINE
  5
1E298
330
1E089
100
AcDbEntity
  8
寸法
 62
     0
 48
50.0
370
    -2
100
AcDbLine
 10
11680.49999999998
 20
7701.955177899434
 30
0.0
 11
12440.49999999998
 21
7701.955177899434
 31
0.0
  0
LINE
  5
1E299
330
1E089
100
AcDbEntity
  8
寸法
 62
     0
 48
50.0
370
    -2
100
AcDbLine
 10
10449.49999999998
 20
7050.955177899424
 30
0.0
 11
12440.49999999998
 21
7050.955177899424
 31
0.0
  0
LINE
  5
1E29A
330
1E089
100
AcDbEntity
  8
寸法
 62
     0
 48
50.0
370
    -2
100
AcDbLine
 10
12365.49999999998
 20
7701.955177899434
 30
0.0
 11
12365.49999999998
 21
7050.955177899424
 31
0.0
  0
INSERT
  5
1E29B
330
1E089
100
AcDbEntity
  8
寸法
 62
     0
 48
50.0
370
    -2
100
AcDbBlockReference
  2
_DOTSMALL
 10
12365.49999999998
 20
7701.955177899434
 30
0.0
 41
125.0
 42
125.0
 43
125.0
 50
90.0
  0
INSERT
  5
1E29C
330
1E089
100
AcDbEntity
  8
寸法
 62
     0
 48
50.0
370
    -2
100
AcDbBlockReference
  2
_DOTSMALL
 10
12365.49999999998
 20
7050.955177899424
 30
0.0
 41
125.0
 42
125.0
 43
125.0
 50
270.0
  0
MTEXT
  5
1E29D
330
1E089
100
AcDbEntity
  8
寸法
 62
     7
 48
50.0
100
AcDbMText
 10
12265.49999999998
 20
7376.45517789943
 30
0.0
 40
150.0
 41
0.0
 71
     5
 72
     1
  1
\A1;651
  7
STYLE1
 11
0.0000000000000001
 21
1.0
 31
0.0
 73
     1
 44
1.0
  0
POINT
  5
1E29E
330
1E089
100
AcDbEntity
  8
DEFPOINTS
 62
     0
 48
50.0
100
AcDbPoint
 10
11655.49999999998
 20
7701.955177899434
 30
0.0
  0
POINT
  5
1E29F
330
1E089
100
AcDbEntity
  8
DEFPOINTS
 62
     0
 48
50.0
100
AcDbPoint
 10
10424.49999999998
 20
7050.955177899424
 30
0.0
  0
POINT
  5
1E2A0
330
1E089
100
AcDbEntity
  8
DEFPOINTS
 62
     0
 48
50.0
100
AcDbPoint
 10
12365.49999999998
 20
7050.955177899424
 30
0.0
  0
ENDBLK
  5
1E094
330
1E089
100
AcDbEntity
  8
0
 48
50.0
100
AcDbBlockEnd
  0
BLOCK
  5
1E09F
330
1E095
100
AcDbEntity
  8
0
 48
50.0
100
AcDbBlockBegin
  2
*D19
 70
     1
 10
0.0
 20
0.0
 30
0.0
  3
*D19
  1

  0
LINE
  5
1E28F
330
1E095
100
AcDbEntity
  8
寸法
 62
     0
 48
50.0
370
    -2
100
AcDbLine
 10
9148.50000000001
 20
7826.955177899423
 30
0.0
 11
9148.50000000001
 21
8171.955177899423
 31
0.0
  0
LINE
  5
1E290
330
1E095
100
AcDbEntity
  8
寸法
 62
     0
 48
50.0
370
    -2
100
AcDbLine
 10
8948.499999999986
 20
7826.955177899423
 30
0.0
 11
8948.499999999986
 21
8171.955177899423
 31
0.0
  0
LINE
  5
1E291
330
1E095
100
AcDbEntity
  8
寸法
 62
     0
 48
50.0
370
    -2
100
AcDbLine
 10
9148.50000000001
 20
8096.955177899422
 30
0.0
 11
8948.499999999986
 21
8096.955177899422
 31
0.0
  0
INSERT
  5
1E292
330
1E095
100
AcDbEntity
  8
寸法
 62
     0
 48
50.0
370
    -2
100
AcDbBlockReference
  2
_DOTSMALL
 10
9148.50000000001
 20
8096.955177899422
 30
0.0
 41
125.0
 42
125.0
 43
125.0
  0
INSERT
  5
1E293
330
1E095
100
AcDbEntity
  8
寸法
 62
     0
 48
50.0
370
    -2
100
AcDbBlockReference
  2
_DOTSMALL
 10
8948.499999999986
 20
8096.955177899422
 30
0.0
 41
125.0
 42
125.0
 43
125.0
 50
180.0
  0
MTEXT
  5
1E294
330
1E095
100
AcDbEntity
  8
寸法
 62
     7
 48
50.0
100
AcDbMText
 10
9048.5
 20
8196.969941678949
 30
0.0
 40
150.0
 41
0.0
 71
     5
 72
     1
  1
\A1;200
  7
STYLE1
 73
     1
 44
1.0
  0
POINT
  5
1E295
330
1E095
100
AcDbEntity
  8
DEFPOINTS
 62
     0
 48
50.0
100
AcDbPoint
 10
9148.50000000001
 20
7801.955177899422
 30
0.0
  0
POINT
  5
1E296
330
1E095
100
AcDbEntity
  8
DEFPOINTS
 62
     0
 48
50.0
100
AcDbPoint
 10
8948.499999999986
 20
7801.955177899422
 30
0.0
  0
POINT
  5
1E297
330
1E095
100
AcDbEntity
  8
DEFPOINTS
 62
     0
 48
50.0
100
AcDbPoint
 10
8948.499999999986
 20
8096.955177899422
 30
0.0
  0
ENDBLK
  5
1E0A0
330
1E095
100
AcDbEntity
  8
0
 48
50.0
100
AcDbBlockEnd
  0
BLOCK
  5
1E0AB
330
1E0A1
100
AcDbEntity
  8
0
 48
50.0
100
AcDbBlockBegin
  2
*D20
 70
     1
 10
0.0
 20
0.0
 30
0.0
  3
*D20
  1

  0
LINE
  5
1E286
330
1E0A1
100
AcDbEntity
  8
寸法
 62
     0
 48
50.0
370
    -2
100
AcDbLine
 10
8462.813993709337
 20
7701.955177899434
 30
0.0
 11
8218.499999999989
 21
7701.955177899434
 31
0.0
  0
LINE
  5
1E287
330
1E0A1
100
AcDbEntity
  8
寸法
 62
     0
 48
50.0
370
    -2
100
AcDbLine
 10
9515.500000000008
 20
7340.955177899414
 30
0.0
 11
8218.499999999989
 21
7340.955177899414
 31
0.0
  0
LINE
  5
1E288
330
1E0A1
100
AcDbEntity
  8
寸法
 62
     0
 48
50.0
370
    -2
100
AcDbLine
 10
8293.499999999989
 20
7701.955177899434
 30
0.0
 11
8293.499999999989
 21
7340.955177899414
 31
0.0
  0
INSERT
  5
1E289
330
1E0A1
100
AcDbEntity
  8
寸法
 62
     0
 48
50.0
370
    -2
100
AcDbBlockReference
  2
_DOTSMALL
 10
8293.499999999989
 20
7701.955177899434
 30
0.0
 41
125.0
 42
125.0
 43
125.0
 50
90.0
  0
INSERT
  5
1E28A
330
1E0A1
100
AcDbEntity
  8
寸法
 62
     0
 48
50.0
370
    -2
100
AcDbBlockReference
  2
_DOTSMALL
 10
8293.499999999989
 20
7340.955177899414
 30
0.0
 41
125.0
 42
125.0
 43
125.0
 50
270.0
  0
MTEXT
  5
1E28B
330
1E0A1
100
AcDbEntity
  8
寸法
 62
     7
 48
50.0
100
AcDbMText
 10
8193.499999999987
 20
7521.455177899425
 30
0.0
 40
150.0
 41
0.0
 71
     5
 72
     1
  1
\A1;361
  7
STYLE1
 11
0.0000000000000001
 21
1.0
 31
0.0
 73
     1
 44
1.0
  0
POINT
  5
1E28C
330
1E0A1
100
AcDbEntity
  8
DEFPOINTS
 62
     0
 48
50.0
100
AcDbPoint
 10
8487.813993709336
 20
7701.955177899434
 30
0.0
  0
POINT
  5
1E28D
330
1E0A1
100
AcDbEntity
  8
DEFPOINTS
 62
     0
 48
50.0
100
AcDbPoint
 10
9540.500000000008
 20
7340.955177899414
 30
0.0
  0
POINT
  5
1E28E
330
1E0A1
100
AcDbEntity
  8
DEFPOINTS
 62
     0
 48
50.0
100
AcDbPoint
 10
8293.499999999989
 20
7340.955177899414
 30
0.0
  0
ENDBLK
  5
1E0AC
330
1E0A1
100
AcDbEntity
  8
0
 48
50.0
100
AcDbBlockEnd
  0
BLOCK
  5
1E0B7
330
1E0AD
100
AcDbEntity
  8
0
 48
50.0
100
AcDbBlockBegin
  2
*D21
 70
     1
 10
0.0
 20
0.0
 30
0.0
  3
*D21
  1

  0
LINE
  5
1E27D
330
1E0AD
100
AcDbEntity
  8
寸法
 62
     0
 48
50.0
370
    -2
100
AcDbLine
 10
9515.500000000008
 20
7340.955177899414
 30
0.0
 11
8218.499999999989
 21
7340.955177899414
 31
0.0
  0
LINE
  5
1E27E
330
1E0AD
100
AcDbEntity
  8
寸法
 62
     0
 48
50.0
370
    -2
100
AcDbLine
 10
9515.500000000008
 20
6905.955177899406
 30
0.0
 11
8218.499999999989
 21
6905.955177899406
 31
0.0
  0
LINE
  5
1E27F
330
1E0AD
100
AcDbEntity
  8
寸法
 62
     0
 48
50.0
370
    -2
100
AcDbLine
 10
8293.499999999989
 20
7340.955177899414
 30
0.0
 11
8293.499999999989
 21
6905.955177899406
 31
0.0
  0
INSERT
  5
1E280
330
1E0AD
100
AcDbEntity
  8
寸法
 62
     0
 48
50.0
370
    -2
100
AcDbBlockReference
  2
_DOTSMALL
 10
8293.499999999989
 20
7340.955177899414
 30
0.0
 41
125.0
 42
125.0
 43
125.0
 50
90.0
  0
INSERT
  5
1E281
330
1E0AD
100
AcDbEntity
  8
寸法
 62
     0
 48
50.0
370
    -2
100
AcDbBlockReference
  2
_DOTSMALL
 10
8293.499999999989
 20
6905.955177899406
 30
0.0
 41
125.0
 42
125.0
 43
125.0
 50
270.0
  0
MTEXT
  5
1E282
330
1E0AD
100
AcDbEntity
  8
寸法
 62
     7
 48
50.0
100
AcDbMText
 10
8193.499999999987
 20
7123.455177899408
 30
0.0
 40
150.0
 41
0.0
 71
     5
 72
     1
  1
\A1;435
  7
STYLE1
 11
0.0000000000000001
 21
1.0
 31
0.0
 73
     1
 44
1.0
  0
POINT
  5
1E283
330
1E0AD
100
AcDbEntity
  8
DEFPOINTS
 62
     0
 48
50.0
100
AcDbPoint
 10
9540.500000000008
 20
7340.955177899414
 30
0.0
  0
POINT
  5
1E284
330
1E0AD
100
AcDbEntity
  8
DEFPOINTS
 62
     0
 48
50.0
100
AcDbPoint
 10
9540.500000000008
 20
6905.955177899406
 30
0.0
  0
POINT
  5
1E285
330
1E0AD
100
AcDbEntity
  8
DEFPOINTS
 62
     0
 48
50.0
100
AcDbPoint
 10
8293.499999999989
 20
6905.955177899406
 30
0.0
  0
ENDBLK
  5
1E0B8
330
1E0AD
100
AcDbEntity
  8
0
 48
50.0
100
AcDbBlockEnd
  0
BLOCK
  5
1E0C3
330
1E0B9
100
AcDbEntity
  8
0
 48
50.0
100
AcDbBlockBegin
  2
*D22
 70
     1
 10
0.0
 20
0.0
 30
0.0
  3
*D22
  1

  0
LINE
  5
1E274
330
1E0B9
100
AcDbEntity
  8
寸法
 62
     0
 48
50.0
370
    -2
100
AcDbLine
 10
8923.499999999988
 20
7801.955177899422
 30
0.0
 11
8618.499999999992
 21
7801.955177899422
 31
0.0
  0
LINE
  5
1E275
330
1E0B9
100
AcDbEntity
  8
寸法
 62
     0
 48
50.0
370
    -2
100
AcDbLine
 10
8923.499999999988
 20
7601.955177899434
 30
0.0
 11
8618.499999999992
 21
7601.955177899434
 31
0.0
  0
LINE
  5
1E276
330
1E0B9
100
AcDbEntity
  8
寸法
 62
     0
 48
50.0
370
    -2
100
AcDbLine
 10
8693.499999999991
 20
7801.955177899422
 30
0.0
 11
8693.499999999991
 21
7601.955177899434
 31
0.0
  0
INSERT
  5
1E277
330
1E0B9
100
AcDbEntity
  8
寸法
 62
     0
 48
50.0
370
    -2
100
AcDbBlockReference
  2
_DOTSMALL
 10
8693.499999999991
 20
7801.955177899422
 30
0.0
 41
125.0
 42
125.0
 43
125.0
 50
90.0
  0
INSERT
  5
1E278
330
1E0B9
100
AcDbEntity
  8
寸法
 62
     0
 48
50.0
370
    -2
100
AcDbBlockReference
  2
_DOTSMALL
 10
8693.499999999991
 20
7601.955177899434
 30
0.0
 41
125.0
 42
125.0
 43
125.0
 50
270.0
  0
MTEXT
  5
1E279
330
1E0B9
100
AcDbEntity
  8
寸法
 62
     7
 48
50.0
100
AcDbMText
 10
8593.485236220463
 20
7701.95517789943
 30
0.0
 40
150.0
 41
0.0
 71
     5
 72
     1
  1
\A1;200
  7
STYLE1
 11
0.0000000000000001
 21
1.0
 31
0.0
 73
     1
 44
1.0
  0
POINT
  5
1E27A
330
1E0B9
100
AcDbEntity
  8
DEFPOINTS
 62
     0
 48
50.0
100
AcDbPoint
 10
8948.499999999986
 20
7801.955177899422
 30
0.0
  0
POINT
  5
1E27B
330
1E0B9
100
AcDbEntity
  8
DEFPOINTS
 62
     0
 48
50.0
100
AcDbPoint
 10
8948.499999999986
 20
7601.955177899434
 30
0.0
  0
POINT
  5
1E27C
330
1E0B9
100
AcDbEntity
  8
DEFPOINTS
 62
     0
 48
50.0
100
AcDbPoint
 10
8693.499999999991
 20
7601.955177899434
 30
0.0
  0
ENDBLK
  5
1E0C4
330
1E0B9
100
AcDbEntity
  8
0
 48
50.0
100
AcDbBlockEnd
  0
BLOCK
  5
1E33F
330
1E33E
100
AcDbEntity
  8
0
 48
50.0
100
AcDbBlockBegin
  2
*D23
 70
     1
 10
0.0
 20
0.0
 30
0.0
  3
*D23
  1

  0
LINE
  5
1E340
330
1E33E
100
AcDbEntity
  8
寸法
 62
     0
 48
50.0
370
    -2
100
AcDbLine
 10
12134.39291868346
 20
2029.373661269834
 30
0.0
 11
11703.67290371428
 21
2029.373661269834
 31
0.0
  0
LINE
  5
1E341
330
1E33E
100
AcDbEntity
  8
寸法
 62
     0
 48
50.0
370
    -2
100
AcDbLine
 10
12090.39291868346
 20
1459.373661269833
 30
0.0
 11
11703.67290371428
 21
1459.373661269833
 31
0.0
  0
LINE
  5
1E342
330
1E33E
100
AcDbEntity
  8
寸法
 62
     0
 48
50.0
370
    -2
100
AcDbLine
 10
11778.67290371428
 20
2029.373661269834
 30
0.0
 11
11778.67290371428
 21
1459.373661269833
 31
0.0
  0
INSERT
  5
1E343
330
1E33E
100
AcDbEntity
  8
寸法
 62
     0
 48
50.0
370
    -2
100
AcDbBlockReference
  2
_DOTSMALL
 10
11778.67290371428
 20
2029.373661269834
 30
0.0
 41
125.0
 42
125.0
 43
125.0
 50
90.0
  0
INSERT
  5
1E344
330
1E33E
100
AcDbEntity
  8
寸法
 62
     0
 48
50.0
370
    -2
100
AcDbBlockReference
  2
_DOTSMALL
 10
11778.67290371428
 20
1459.373661269833
 30
0.0
 41
125.0
 42
125.0
 43
125.0
 50
270.0
  0
MTEXT
  5
1E345
330
1E33E
100
AcDbEntity
  8
寸法
 62
     7
 48
50.0
100
AcDbMText
 10
11678.65813993475
 20
1744.373661269835
 30
0.0
 40
150.0
 41
0.0
 71
     5
 72
     1
  1
\A1;285
  7
STYLE1
 11
0.0000000000000001
 21
1.0
 31
0.0
 73
     1
 44
1.0
  0
POINT
  5
1E346
330
1E33E
100
AcDbEntity
  8
DEFPOINTS
 62
     0
 48
50.0
100
AcDbPoint
 10
12159.39291868346
 20
2029.373661269834
 30
0.0
  0
POINT
  5
1E347
330
1E33E
100
AcDbEntity
  8
DEFPOINTS
 62
     0
 48
50.0
100
AcDbPoint
 10
12115.39291868346
 20
1459.373661269833
 30
0.0
  0
POINT
  5
1E348
330
1E33E
100
AcDbEntity
  8
DEFPOINTS
 62
     0
 48
50.0
100
AcDbPoint
 10
11778.67290371428
 20
1459.373661269833
 30
0.0
  0
ENDBLK
  5
1E349
330
1E33E
100
AcDbEntity
  8
0
 48
50.0
100
AcDbBlockEnd
  0
BLOCK
  5
1E34B
330
1E34A
100
AcDbEntity
  8
0
 48
50.0
100
AcDbBlockBegin
  2
*D24
 70
     1
 10
0.0
 20
0.0
 30
0.0
  3
*D24
  1

  0
LINE
  5
1E34C
330
1E34A
100
AcDbEntity
  8
寸法
 62
     0
 48
50.0
370
    -2
100
AcDbLine
 10
11536.22057962788
 20
1749.373661269833
 30
0.0
 11
11421.26221710674
 21
1749.373661269833
 31
0.0
  0
LINE
  5
1E34D
330
1E34A
100
AcDbEntity
  8
寸法
 62
     0
 48
50.0
370
    -2
100
AcDbLine
 10
11946.39291868346
 20
1349.373661269834
 30
0.0
 11
11421.26221710674
 21
1349.373661269834
 31
0.0
  0
LINE
  5
1E34E
330
1E34A
100
AcDbEntity
  8
寸法
 62
     0
 48
50.0
370
    -2
100
AcDbLine
 10
11496.26221710674
 20
1749.373661269833
 30
0.0
 11
11496.26221710674
 21
1349.373661269834
 31
0.0
  0
INSERT
  5
1E34F
330
1E34A
100
AcDbEntity
  8
寸法
 62
     0
 48
50.0
370
    -2
100
AcDbBlockReference
  2
_DOTSMALL
 10
11496.26221710674
 20
1749.373661269833
 30
0.0
 41
125.0
 42
125.0
 43
125.0
 50
90.0
  0
INSERT
  5
1E350
330
1E34A
100
AcDbEntity
  8
寸法
 62
     0
 48
50.0
370
    -2
100
AcDbBlockReference
  2
_DOTSMALL
 10
11496.26221710674
 20
1349.373661269834
 30
0.0
 41
125.0
 42
125.0
 43
125.0
 50
270.0
  0
MTEXT
  5
1E351
330
1E34A
100
AcDbEntity
  8
寸法
 62
     7
 48
50.0
100
AcDbMText
 10
11396.24745332722
 20
1549.373661269835
 30
0.0
 40
150.0
 41
0.0
 71
     5
 72
     1
  1
\A1;200
  7
STYLE1
 11
0.0000000000000001
 21
1.0
 31
0.0
 73
     1
 44
1.0
  0
POINT
  5
1E352
330
1E34A
100
AcDbEntity
  8
DEFPOINTS
 62
     0
 48
50.0
100
AcDbPoint
 10
11561.22057962788
 20
1749.373661269833
 30
0.0
  0
POINT
  5
1E353
330
1E34A
100
AcDbEntity
  8
DEFPOINTS
 62
     0
 48
50.0
100
AcDbPoint
 10
11971.39291868346
 20
1349.373661269834
 30
0.0
  0
POINT
  5
1E354
330
1E34A
100
AcDbEntity
  8
DEFPOINTS
 62
     0
 48
50.0
100
AcDbPoint
 10
11496.26221710674
 20
1349.373661269834
 30
0.0
  0
ENDBLK
  5
1E355
330
1E34A
100
AcDbEntity
  8
0
 48
50.0
100
AcDbBlockEnd
  0
BLOCK
  5
1E357
330
1E356
100
AcDbEntity
  8
0
 48
50.0
100
AcDbBlockBegin
  2
*D25
 70
     1
 10
0.0
 20
0.0
 30
0.0
  3
*D25
  1

  0
LINE
  5
1E358
330
1E356
100
AcDbEntity
  8
寸法
 62
     0
 48
50.0
370
    -2
100
AcDbLine
 10
11753.67290371428
 20
1949.373661269834
 30
0.0
 11
11421.91093653513
 21
1949.373661269834
 31
0.0
  0
LINE
  5
1E359
330
1E356
100
AcDbEntity
  8
寸法
 62
     0
 48
50.0
370
    -2
100
AcDbLine
 10
11536.22057962788
 20
1749.373661269833
 30
0.0
 11
11421.91093653513
 21
1749.373661269833
 31
0.0
  0
LINE
  5
1E35A
330
1E356
100
AcDbEntity
  8
寸法
 62
     0
 48
50.0
370
    -2
100
AcDbLine
 10
11496.91093653513
 20
1749.373661269833
 30
0.0
 11
11496.91093653513
 21
1949.373661269834
 31
0.0
  0
LINE
  5
1E35B
330
1E356
100
AcDbEntity
  8
寸法
 62
     0
 48
50.0
370
    -2
100
AcDbLine
 10
11496.91093653513
 20
1949.373661269834
 30
0.0
 11
11496.91093653513
 21
2381.396299065108
 31
0.0
  0
INSERT
  5
1E35C
330
1E356
100
AcDbEntity
  8
寸法
 62
     0
 48
50.0
370
    -2
100
AcDbBlockReference
  2
_DOTSMALL
 10
11496.91093653513
 20
1749.373661269833
 30
0.0
 41
125.0
 42
125.0
 43
125.0
 50
270.0
  0
INSERT
  5
1E35D
330
1E356
100
AcDbEntity
  8
寸法
 62
     0
 48
50.0
370
    -2
100
AcDbBlockReference
  2
_DOTSMALL
 10
11496.91093653513
 20
1949.373661269834
 30
0.0
 41
125.0
 42
125.0
 43
125.0
 50
90.0
  0
MTEXT
  5
1E35E
330
1E356
100
AcDbEntity
  8
寸法
 62
     7
 48
50.0
100
AcDbMText
 10
11396.91093653513
 20
2236.337243947
 30
0.0
 40
150.0
 41
0.0
 71
     5
 72
     1
  1
\A1;100
  7
STYLE1
 11
0.0000000000000001
 21
1.0
 31
0.0
 73
     1
 44
1.0
  0
POINT
  5
1E35F
330
1E356
100
AcDbEntity
  8
DEFPOINTS
 62
     0
 48
50.0
100
AcDbPoint
 10
11778.67290371428
 20
1949.373661269834
 30
0.0
  0
POINT
  5
1E360
330
1E356
100
AcDbEntity
  8
DEFPOINTS
 62
     0
 48
50.0
100
AcDbPoint
 10
11561.22057962788
 20
1749.373661269833
 30
0.0
  0
POINT
  5
1E361
330
1E356
100
AcDbEntity
  8
DEFPOINTS
 62
     0
 48
50.0
100
AcDbPoint
 10
11496.91093653513
 20
1749.373661269833
 30
0.0
  0
ENDBLK
  5
1E362
330
1E356
100
AcDbEntity
  8
0
 48
50.0
100
AcDbBlockEnd
  0
BLOCK
  5
1E364
330
1E363
100
AcDbEntity
  8
0
 48
50.0
100
AcDbBlockBegin
  2
*D26
 70
     1
 10
0.0
 20
0.0
 30
0.0
  3
*D26
  1

  0
LINE
  5
1E365
330
1E363
100
AcDbEntity
  8
寸法
 62
     0
 48
50.0
370
    -2
100
AcDbLine
 10
12371.39291868346
 20
1324.373661269834
 30
0.0
 11
12371.39291868346
 21
947.89069578453
 31
0.0
  0
LINE
  5
1E366
330
1E363
100
AcDbEntity
  8
寸法
 62
     0
 48
50.0
370
    -2
100
AcDbLine
 10
11971.39291868346
 20
1324.373661269834
 30
0.0
 11
11971.39291868346
 21
947.89069578453
 31
0.0
  0
LINE
  5
1E367
330
1E363
100
AcDbEntity
  8
寸法
 62
     0
 48
50.0
370
    -2
100
AcDbLine
 10
12371.39291868346
 20
1022.89069578453
 30
0.0
 11
11971.39291868346
 21
1022.89069578453
 31
0.0
  0
INSERT
  5
1E368
330
1E363
100
AcDbEntity
  8
寸法
 62
     0
 48
50.0
370
    -2
100
AcDbBlockReference
  2
_DOTSMALL
 10
12371.39291868346
 20
1022.89069578453
 30
0.0
 41
125.0
 42
125.0
 43
125.0
  0
INSERT
  5
1E369
330
1E363
100
AcDbEntity
  8
寸法
 62
     0
 48
50.0
370
    -2
100
AcDbBlockReference
  2
_DOTSMALL
 10
11971.39291868346
 20
1022.89069578453
 30
0.0
 41
125.0
 42
125.0
 43
125.0
 50
180.0
  0
MTEXT
  5
1E36A
330
1E363
100
AcDbEntity
  8
寸法
 62
     7
 48
50.0
100
AcDbMText
 10
12171.39291868346
 20
1122.905459564057
 30
0.0
 40
150.0
 41
0.0
 71
     5
 72
     1
  1
\A1;200
  7
STYLE1
 73
     1
 44
1.0
  0
POINT
  5
1E36B
330
1E363
100
AcDbEntity
  8
DEFPOINTS
 62
     0
 48
50.0
100
AcDbPoint
 10
12371.39291868346
 20
1349.373661269834
 30
0.0
  0
POINT
  5
1E36C
330
1E363
100
AcDbEntity
  8
DEFPOINTS
 62
     0
 48
50.0
100
AcDbPoint
 10
11971.39291868346
 20
1349.373661269834
 30
0.0
  0
POINT
  5
1E36D
330
1E363
100
AcDbEntity
  8
DEFPOINTS
 62
     0
 48
50.0
100
AcDbPoint
 10
11971.39291868346
 20
1022.89069578453
 30
0.0
  0
ENDBLK
  5
1E36E
330
1E363
100
AcDbEntity
  8
0
 48
50.0
100
AcDbBlockEnd
  0
BLOCK
  5
1E563
330
1E559
100
AcDbEntity
  8
0
 48
50.0
100
AcDbBlockBegin
  2
*D28
 70
     1
 10
0.0
 20
0.0
 30
0.0
  3
*D28
  1

  0
LINE
  5
1E58A
330
1E559
100
AcDbEntity
  8
寸法
 62
     0
 48
50.0
370
    -2
100
AcDbLine
 10
12134.39291868346
 20
2029.373661269834
 30
0.0
 11
11703.67290371428
 21
2029.373661269834
 31
0.0
  0
LINE
  5
1E58B
330
1E559
100
AcDbEntity
  8
寸法
 62
     0
 48
50.0
370
    -2
100
AcDbLine
 10
12090.39291868346
 20
1459.373661269833
 30
0.0
 11
11703.67290371428
 21
1459.373661269833
 31
0.0
  0
LINE
  5
1E58C
330
1E559
100
AcDbEntity
  8
寸法
 62
     0
 48
50.0
370
    -2
100
AcDbLine
 10
11778.67290371428
 20
2029.373661269834
 30
0.0
 11
11778.67290371428
 21
1459.373661269833
 31
0.0
  0
INSERT
  5
1E58D
330
1E559
100
AcDbEntity
  8
寸法
 62
     0
 48
50.0
370
    -2
100
AcDbBlockReference
  2
_DOTSMALL
 10
11778.67290371428
 20
2029.373661269834
 30
0.0
 41
125.0
 42
125.0
 43
125.0
 50
90.0
  0
INSERT
  5
1E58E
330
1E559
100
AcDbEntity
  8
寸法
 62
     0
 48
50.0
370
    -2
100
AcDbBlockReference
  2
_DOTSMALL
 10
11778.67290371428
 20
1459.373661269833
 30
0.0
 41
125.0
 42
125.0
 43
125.0
 50
270.0
  0
MTEXT
  5
1E58F
330
1E559
100
AcDbEntity
  8
寸法
 62
     7
 48
50.0
100
AcDbMText
 10
11678.65813993475
 20
1744.373661269835
 30
0.0
 40
150.0
 41
0.0
 71
     5
 72
     1
  1
\A1;285
  7
STYLE1
 11
0.0000000000000001
 21
1.0
 31
0.0
 73
     1
 44
1.0
  0
POINT
  5
1E590
330
1E559
100
AcDbEntity
  8
DEFPOINTS
 62
     0
 48
50.0
100
AcDbPoint
 10
12159.39291868346
 20
2029.373661269834
 30
0.0
  0
POINT
  5
1E591
330
1E559
100
AcDbEntity
  8
DEFPOINTS
 62
     0
 48
50.0
100
AcDbPoint
 10
12115.39291868346
 20
1459.373661269833
 30
0.0
  0
POINT
  5
1E592
330
1E559
100
AcDbEntity
  8
DEFPOINTS
 62
     0
 48
50.0
100
AcDbPoint
 10
11778.67290371428
 20
1459.373661269833
 30
0.0
  0
ENDBLK
  5
1E564
330
1E559
100
AcDbEntity
  8
0
 48
50.0
100
AcDbBlockEnd
  0
BLOCK
  5
1E56F
330
1E565
100
AcDbEntity
  8
0
 48
50.0
100
AcDbBlockBegin
  2
*D29
 70
     1
 10
0.0
 20
0.0
 30
0.0
  3
*D29
  1

  0
LINE
  5
1E593
330
1E565
100
AcDbEntity
  8
寸法
 62
     0
 48
50.0
370
    -2
100
AcDbLine
 10
12371.39291868346
 20
1324.373661269834
 30
0.0
 11
12371.39291868346
 21
947.89069578453
 31
0.0
  0
LINE
  5
1E594
330
1E565
100
AcDbEntity
  8
寸法
 62
     0
 48
50.0
370
    -2
100
AcDbLine
 10
11971.39291868346
 20
1324.373661269834
 30
0.0
 11
11971.39291868346
 21
947.89069578453
 31
0.0
  0
LINE
  5
1E595
330
1E565
100
AcDbEntity
  8
寸法
 62
     0
 48
50.0
370
    -2
100
AcDbLine
 10
12371.39291868346
 20
1022.89069578453
 30
0.0
 11
11971.39291868346
 21
1022.89069578453
 31
0.0
  0
INSERT
  5
1E596
330
1E565
100
AcDbEntity
  8
寸法
 62
     0
 48
50.0
370
    -2
100
AcDbBlockReference
  2
_DOTSMALL
 10
12371.39291868346
 20
1022.89069578453
 30
0.0
 41
125.0
 42
125.0
 43
125.0
  0
INSERT
  5
1E597
330
1E565
100
AcDbEntity
  8
寸法
 62
     0
 48
50.0
370
    -2
100
AcDbBlockReference
  2
_DOTSMALL
 10
11971.39291868346
 20
1022.89069578453
 30
0.0
 41
125.0
 42
125.0
 43
125.0
 50
180.0
  0
MTEXT
  5
1E598
330
1E565
100
AcDbEntity
  8
寸法
 62
     7
 48
50.0
100
AcDbMText
 10
12171.39291868346
 20
1122.905459564057
 30
0.0
 40
150.0
 41
0.0
 71
     5
 72
     1
  1
\A1;200
  7
STYLE1
 73
     1
 44
1.0
  0
POINT
  5
1E599
330
1E565
100
AcDbEntity
  8
DEFPOINTS
 62
     0
 48
50.0
100
AcDbPoint
 10
12371.39291868346
 20
1349.373661269834
 30
0.0
  0
POINT
  5
1E59A
330
1E565
100
AcDbEntity
  8
DEFPOINTS
 62
     0
 48
50.0
100
AcDbPoint
 10
11971.39291868346
 20
1349.373661269834
 30
0.0
  0
POINT
  5
1E59B
330
1E565
100
AcDbEntity
  8
DEFPOINTS
 62
     0
 48
50.0
100
AcDbPoint
 10
11971.39291868346
 20
1022.89069578453
 30
0.0
  0
ENDBLK
  5
1E570
330
1E565
100
AcDbEntity
  8
0
 48
50.0
100
AcDbBlockEnd
  0
BLOCK
  5
1E57B
330
1E571
100
AcDbEntity
  8
0
 48
50.0
100
AcDbBlockBegin
  2
*D30
 70
     1
 10
0.0
 20
0.0
 30
0.0
  3
*D30
  1

  0
LINE
  5
1E59C
330
1E571
100
AcDbEntity
  8
寸法
 62
     0
 48
50.0
370
    -2
100
AcDbLine
 10
11536.22057962788
 20
1749.373661269833
 30
0.0
 11
11421.26221710674
 21
1749.373661269833
 31
0.0
  0
LINE
  5
1E59D
330
1E571
100
AcDbEntity
  8
寸法
 62
     0
 48
50.0
370
    -2
100
AcDbLine
 10
11946.39291868346
 20
1349.373661269834
 30
0.0
 11
11421.26221710674
 21
1349.373661269834
 31
0.0
  0
LINE
  5
1E59E
330
1E571
100
AcDbEntity
  8
寸法
 62
     0
 48
50.0
370
    -2
100
AcDbLine
 10
11496.26221710674
 20
1749.373661269833
 30
0.0
 11
11496.26221710674
 21
1349.373661269834
 31
0.0
  0
INSERT
  5
1E59F
330
1E571
100
AcDbEntity
  8
寸法
 62
     0
 48
50.0
370
    -2
100
AcDbBlockReference
  2
_DOTSMALL
 10
11496.26221710674
 20
1749.373661269833
 30
0.0
 41
125.0
 42
125.0
 43
125.0
 50
90.0
  0
INSERT
  5
1E5A0
330
1E571
100
AcDbEntity
  8
寸法
 62
     0
 48
50.0
370
    -2
100
AcDbBlockReference
  2
_DOTSMALL
 10
11496.26221710674
 20
1349.373661269834
 30
0.0
 41
125.0
 42
125.0
 43
125.0
 50
270.0
  0
MTEXT
  5
1E5A1
330
1E571
100
AcDbEntity
  8
寸法
 62
     7
 48
50.0
100
AcDbMText
 10
11396.24745332722
 20
1549.373661269835
 30
0.0
 40
150.0
 41
0.0
 71
     5
 72
     1
  1
\A1;200
  7
STYLE1
 11
0.0000000000000001
 21
1.0
 31
0.0
 73
     1
 44
1.0
  0
POINT
  5
1E5A2
330
1E571
100
AcDbEntity
  8
DEFPOINTS
 62
     0
 48
50.0
100
AcDbPoint
 10
11561.22057962788
 20
1749.373661269833
 30
0.0
  0
POINT
  5
1E5A3
330
1E571
100
AcDbEntity
  8
DEFPOINTS
 62
     0
 48
50.0
100
AcDbPoint
 10
11971.39291868346
 20
1349.373661269834
 30
0.0
  0
POINT
  5
1E5A4
330
1E571
100
AcDbEntity
  8
DEFPOINTS
 62
     0
 48
50.0
100
AcDbPoint
 10
11496.26221710674
 20
1349.373661269834
 30
0.0
  0
ENDBLK
  5
1E57C
330
1E571
100
AcDbEntity
  8
0
 48
50.0
100
AcDbBlockEnd
  0
BLOCK
  5
1E588
330
1E57D
100
AcDbEntity
  8
0
 48
50.0
100
AcDbBlockBegin
  2
*D31
 70
     1
 10
0.0
 20
0.0
 30
0.0
  3
*D31
  1

  0
LINE
  5
1E5A5
330
1E57D
100
AcDbEntity
  8
寸法
 62
     0
 48
50.0
370
    -2
100
AcDbLine
 10
11753.67290371428
 20
1949.373661269834
 30
0.0
 11
11421.91093653513
 21
1949.373661269834
 31
0.0
  0
LINE
  5
1E5A6
330
1E57D
100
AcDbEntity
  8
寸法
 62
     0
 48
50.0
370
    -2
100
AcDbLine
 10
11536.22057962788
 20
1749.373661269833
 30
0.0
 11
11421.91093653513
 21
1749.373661269833
 31
0.0
  0
LINE
  5
1E5A7
330
1E57D
100
AcDbEntity
  8
寸法
 62
     0
 48
50.0
370
    -2
100
AcDbLine
 10
11496.91093653513
 20
1749.373661269833
 30
0.0
 11
11496.91093653513
 21
1949.373661269834
 31
0.0
  0
LINE
  5
1E5A8
330
1E57D
100
AcDbEntity
  8
寸法
 62
     0
 48
50.0
370
    -2
100
AcDbLine
 10
11496.91093653513
 20
1949.373661269834
 30
0.0
 11
11496.91093653513
 21
2381.396299065108
 31
0.0
  0
INSERT
  5
1E5A9
330
1E57D
100
AcDbEntity
  8
寸法
 62
     0
 48
50.0
370
    -2
100
AcDbBlockReference
  2
_DOTSMALL
 10
11496.91093653513
 20
1749.373661269833
 30
0.0
 41
125.0
 42
125.0
 43
125.0
 50
270.0
  0
INSERT
  5
1E5AA
330
1E57D
100
AcDbEntity
  8
寸法
 62
     0
 48
50.0
370
    -2
100
AcDbBlockReference
  2
_DOTSMALL
 10
11496.91093653513
 20
1949.373661269834
 30
0.0
 41
125.0
 42
125.0
 43
125.0
 50
90.0
  0
MTEXT
  5
1E5AB
330
1E57D
100
AcDbEntity
  8
寸法
 62
     7
 48
50.0
100
AcDbMText
 10
11396.91093653513
 20
2236.337243947
 30
0.0
 40
150.0
 41
0.0
 71
     5
 72
     1
  1
\A1;100
  7
STYLE1
 11
0.0000000000000001
 21
1.0
 31
0.0
 73
     1
 44
1.0
  0
POINT
  5
1E5AC
330
1E57D
100
AcDbEntity
  8
DEFPOINTS
 62
     0
 48
50.0
100
AcDbPoint
 10
11778.67290371428
 20
1949.373661269834
 30
0.0
  0
POINT
  5
1E5AD
330
1E57D
100
AcDbEntity
  8
DEFPOINTS
 62
     0
 48
50.0
100
AcDbPoint
 10
11561.22057962788
 20
1749.373661269833
 30
0.0
  0
POINT
  5
1E5AE
330
1E57D
100
AcDbEntity
  8
DEFPOINTS
 62
     0
 48
50.0
100
AcDbPoint
 10
11496.91093653513
 20
1749.373661269833
 30
0.0
  0
ENDBLK
  5
1E589
330
1E57D
100
AcDbEntity
  8
0
 48
50.0
100
AcDbBlockEnd
  0
ENDSEC
  0
SECTION
  2
ENTITIES
  0
LINE
  5
10B56
330
747D
100
AcDbEntity
  8
補助
  6
PHANTOM
 62
     7
 48
50.0
100
AcDbLine
 10
175.0
 20
0.0
 30
0.0
 11
174.9999999999993
 21
14262.0
 31
0.0
  0
LINE
  5
10B57
330
747D
100
AcDbEntity
  8
補助
  6
PHANTOM
 62
     7
 48
50.0
100
AcDbLine
 10
174.9999999999993
 20
14262.0
 30
0.0
 11
20384.0
 21
14262.0
 31
0.0
  0
LINE
  5
10B59
330
747D
100
AcDbEntity
  8
仕様書枠
  6
Continuous
 62
     7
 48
50.0
100
AcDbLine
 10
16384.0
 20
1500.0
 30
0.0
 11
16384.0
 21
-0.0000000000000912
 31
0.0
  0
LINE
  5
10B5C
330
747D
100
AcDbEntity
  8
仕様書枠
 62
     7
 48
50.0
100
AcDbLine
 10
20384.0
 20
1500.0
 30
0.0
 11
20384.0
 21
-0.0000000000001137
 31
0.0
  0
LINE
  5
10B5D
330
747D
100
AcDbEntity
  8
仕様書枠
 62
     7
 48
50.0
100
AcDbLine
 10
175.0
 20
0.0
 30
0.0
 11
20384.0
 21
-0.0000000000001137
 31
0.0
  0
LINE
  5
10B5E
330
747D
100
AcDbEntity
  8
補助
  6
PHANTOM
 62
     7
 48
50.0
100
AcDbLine
 10
20384.0
 20
14262.0
 30
0.0
 11
20384.0
 21
1500.0
 31
0.0
  0
LINE
  5
10B6C
330
747D
100
AcDbEntity
  8
仕様書枠
 62
     7
 48
50.0
100
AcDbLine
 10
16384.0
 20
1500.0
 30
0.0
 11
20384.0
 21
1500.0
 31
0.0
  0
TEXT
  5
10B73
330
747D
100
AcDbEntity
  8
仕様書枠
 62
     7
 48
50.0
100
AcDbText
 10
16453.72382072112
 20
1118.863259287425
 30
0.0
 40
250.0
  1
基 礎 図
  7
STYLE2
100
AcDbText
  0
LINE
  5
10B7B
330
747D
100
AcDbEntity
  8
仕様書枠
 62
     7
 48
50.0
100
AcDbLine
 10
16384.0
 20
1000.0
 30
0.0
 11
17814.0
 21
1000.0
 31
0.0
  0
LINE
  5
10B88
330
747D
100
AcDbEntity
  8
仕様書枠
  6
Continuous
 62
     7
 48
50.0
100
AcDbLine
 10
17814.0
 20
1500.0
 30
0.0
 11
17814.0
 21
1000.0
 31
0.0
  0
TEXT
  5
1893F
330
747D
100
AcDbEntity
  8
文字
 62
     7
 48
50.0
100
AcDbText
 10
16511.7566802715
 20
202.8024588414045
 30
0.0
 40
100.0
  1
※寒冷地等は、地域の実情に合わせた基礎にしてください。
  7
STYLE2
100
AcDbText
  0
LINE
  5
18940
330
747D
100
AcDbEntity
  8
仕様書枠
 62
     7
 48
50.0
100
AcDbLine
 10
16484.0
 20
500.0
 30
0.0
 11
20284.0
 21
500.0
 31
0.0
  0
TEXT
  5
1A1F2
330
747D
100
AcDbEntity
  8
文字
 62
     7
 48
50.0
100
AcDbText
 10
18851.17639418858
 20
1289.447132864035
 30
0.0
 40
125.0
  1
<縮尺> S=1/50
  7
STYLE2
100
AcDbText
  0
TEXT
  5
1A1F3
330
747D
100
AcDbEntity
  8
文字
 62
     7
 48
50.0
100
AcDbText
 10
17947.84348957211
 20
604.8708912389265
 30
0.0
 40
225.0
  1
ＳＭＫ－３２Ｓ
  7
STYLE2
100
AcDbText
  0
TEXT
  5
1A1F4
330
747D
100
AcDbEntity
  8
文字
 62
     7
 48
50.0
100
AcDbText
 10
16501.79587498051
 20
596.5925826289065
 30
0.0
 40
200.0
  1
機種名
  7
STYLE2
100
AcDbText
  0
DIMENSION
  5
1DE0D
330
747D
100
AcDbEntity
  8
寸法
 62
     7
 48
50.0
100
AcDbDimension
  2
*D8
 10
8293.499999999989
 20
6399.955177899423
 30
0.0
 11
8193.499999999987
 21
6652.955177899413
 31
0.0
 70
    32
 71
     5
 42
505.9999999999818
  3
INABA_S50G
100
AcDbAlignedDimension
 13
9540.500000000008
 23
6905.955177899406
 33
0.0
 14
8903.500000000009
 24
6399.955177899423
 34
0.0
 50
90.0
100
AcDbRotatedDimension
1001
ACAD
1000
DSTYLE
1002
{
1070
   287
1070
     4
1070
    75
1070
     1
1070
   279
1070
     1
1002
}
  0
LINE
  5
1DE0E
330
747D
100
AcDbEntity
  8
細線
 62
     7
 48
10.0
100
AcDbLine
 10
10973.5
 20
7105.955177899407
 30
0.0
 11
10973.5
 21
6705.955177899404
 31
0.0
  0
LINE
  5
1DE0F
330
747D
100
AcDbEntity
  8
センター
 62
     7
 48
5.0
100
AcDbLine
 10
10873.5
 20
7050.955177899405
 30
0.0
 11
10873.5
 21
6760.955177899413
 31
0.0
  0
LINE
  5
1DE10
330
747D
100
AcDbEntity
  8
細線
 62
     7
 48
10.0
100
AcDbLine
 10
10773.5
 20
6705.955177899404
 30
0.0
 11
10773.5
 21
7105.955177899407
 31
0.0
  0
LINE
  5
1DE11
330
747D
100
AcDbEntity
  8
細線
 62
     7
 48
10.0
100
AcDbLine
 10
9785.500000000009
 20
7105.955177899407
 30
0.0
 11
9785.500000000009
 21
6705.955177899404
 31
0.0
  0
LINE
  5
1DE12
330
747D
100
AcDbEntity
  8
センター
 62
     7
 48
5.0
100
AcDbLine
 10
9685.500000000009
 20
7050.955177899405
 30
0.0
 11
9685.500000000009
 21
6760.955177899413
 31
0.0
  0
LINE
  5
1DE13
330
747D
100
AcDbEntity
  8
細線
 62
     7
 48
10.0
100
AcDbLine
 10
9585.500000000008
 20
6705.955177899404
 30
0.0
 11
9585.500000000008
 21
7105.955177899407
 31
0.0
  0
LINE
  5
1DE14
330
747D
100
AcDbEntity
  8
想像線
 62
     7
 48
20.0
100
AcDbLine
 10
8993.499999999988
 20
7796.955177899423
 30
0.0
 11
8993.499999999988
 21
6264.955177899423
 31
0.0
  0
LINE
  5
1DE15
330
747D
100
AcDbEntity
  8
想像線
 62
     7
 48
20.0
100
AcDbLine
 10
11565.5
 20
6264.955177899423
 30
0.0
 11
11565.5
 21
7796.955177899414
 31
0.0
  0
DIMENSION
  5
1DE16
330
747D
100
AcDbEntity
  8
寸法
 62
     7
 48
50.0
100
AcDbDimension
  2
*D9
 10
12715.5
 20
7701.955177899434
 30
0.0
 11
12615.48523622047
 21
7050.955177899431
 31
0.0
 70
    32
 71
     5
 42
1302.000000000011
  3
INABA_S50G
100
AcDbAlignedDimension
 13
11655.49999999998
 23
6399.955177899423
 33
0.0
 14
11655.49999999998
 24
7701.955177899434
 34
0.0
 50
90.0
100
AcDbRotatedDimension
  0
DIMENSION
  5
1DE17
330
747D
100
AcDbEntity
  8
寸法
 62
     7
 48
50.0
100
AcDbDimension
  2
*D10
 10
12365.49999999998
 20
6399.955177899423
 30
0.0
 11
12265.49999999998
 21
6725.455177899424
 31
0.0
 70
    32
 71
     5
 42
651.0
  3
INABA_S50G
100
AcDbAlignedDimension
 13
10424.49999999998
 23
7050.955177899424
 33
0.0
 14
11655.49999999998
 24
6399.955177899423
 34
0.0
 50
90.0
100
AcDbRotatedDimension
1001
ACAD
1000
DSTYLE
1002
{
1070
   287
1070
     4
1070
    75
1070
     1
1070
   279
1070
     1
1002
}
  0
MTEXT
  5
1DE18
102
{ACAD_REACTORS
330
1DE4C
102
}
330
747D
100
AcDbEntity
  8
細線
 62
     7
 48
50.0
100
AcDbMText
 10
10469.2534945176
 20
6842.569075062613
 30
0.0
 40
150.0
 41
0.0
 71
     4
 72
     5
  1
\A1;C.B
  7
STYLE1
 73
     1
 44
1.0
1001
ACAD
1000
MTEXTBEGIN
1070
    73
1070
     1
1070
    44
1040
1.0
1070
    74
1070
     0
1000
MTEXTEND
  0
LINE
  5
1DE19
330
747D
100
AcDbEntity
  8
想像線
 62
     7
 48
20.0
100
AcDbLine
 10
8993.499999999988
 20
6264.955177899423
 30
0.0
 11
11565.5
 21
6264.955177899423
 31
0.0
  0
DIMENSION
  5
1DE1A
330
747D
100
AcDbEntity
  8
寸法
 62
     7
 48
50.0
100
AcDbDimension
  2
*D11
 10
11510.49999999999
 20
5464.955177899437
 30
0.0
 11
10279.49999999999
 21
5564.969941678963
 31
0.0
 70
    32
 71
     5
 42
2462.0
  3
INABA_S50G
100
AcDbAlignedDimension
 13
9048.499999999988
 23
6254.955177899433
 33
0.0
 14
11510.49999999999
 24
6254.955177899433
 34
0.0
100
AcDbRotatedDimension
  0
LINE
  5
1DE1B
330
747D
100
AcDbEntity
  8
部品1
 62
     7
 48
50.0
100
AcDbLine
 10
11110.49999999998
 20
6399.955177899423
 30
0.0
 11
11510.49999999999
 21
6399.955177899423
 31
0.0
  0
LINE
  5
1DE1C
330
747D
100
AcDbEntity
  8
部品1
 62
     7
 48
50.0
100
AcDbLine
 10
11110.49999999998
 20
6599.955177899435
 30
0.0
 11
11510.49999999999
 21
6599.955177899435
 31
0.0
  0
LINE
  5
1DE1D
330
747D
100
AcDbEntity
  8
センター
 62
     7
 48
5.0
100
AcDbLine
 10
11655.49999999998
 20
6399.955177899423
 30
0.0
 11
11365.5
 21
6399.955177899423
 31
0.0
  0
DIMENSION
  5
1DE1E
330
747D
100
AcDbEntity
  8
寸法
 62
     7
 48
50.0
100
AcDbDimension
  2
*D12
 10
11510.49999999999
 20
5864.955177899423
 30
0.0
 11
10894.99999999999
 21
5964.96994167895
 31
0.0
 70
    32
 71
     5
 42
1231.0
  3
INABA_S50G
100
AcDbAlignedDimension
 13
10279.49999999999
 23
6334.955177899434
 33
0.0
 14
11510.49999999999
 24
6254.955177899433
 34
0.0
100
AcDbRotatedDimension
1001
ACAD
1000
DSTYLE
1002
{
1070
   287
1070
     4
1070
    75
1070
     1
1070
   279
1070
     1
1002
}
  0
LINE
  5
1DE1F
330
747D
100
AcDbEntity
  8
細線
 62
     7
 48
10.0
100
AcDbLine
 10
9785.500000000009
 20
6705.955177899404
 30
0.0
 11
9585.500000000008
 21
6705.955177899404
 31
0.0
  0
DIMENSION
  5
1DE20
330
747D
100
AcDbEntity
  8
寸法
 62
     7
 48
50.0
100
AcDbDimension
  2
*D13
 10
8293.499999999992
 20
6334.955177899434
 30
0.0
 11
8293.499999999989
 21
5818.098576181626
 31
0.0
 70
   160
  1
扉の出<>
 71
     5
 42
64.99999999998909
  3
INABA_S50G
100
AcDbAlignedDimension
 13
8903.500000000009
 23
6399.955177899423
 33
0.0
 14
10179.49999999999
 24
6334.955177899434
 34
0.0
 50
90.0
100
AcDbRotatedDimension
  0
DIMENSION
  5
1DE21
330
747D
100
AcDbEntity
  8
寸法
 62
     7
 48
50.0
100
AcDbDimension
  2
*D14
 10
10279.49999999999
 20
5864.955177899423
 30
0.0
 11
9663.999999999987
 21
5964.96994167895
 31
0.0
 70
    32
 71
     5
 42
1231.0
  3
INABA_S50G
100
AcDbAlignedDimension
 13
9048.499999999988
 23
6254.955177899433
 33
0.0
 14
10279.49999999999
 24
6334.955177899434
 34
0.0
100
AcDbRotatedDimension
  0
DIMENSION
  5
1DE22
330
747D
100
AcDbEntity
  8
寸法
 62
     7
 48
50.0
100
AcDbDimension
  2
*D15
 10
9048.499999999988
 20
5464.955177899437
 30
0.0
 11
8701.059055118099
 21
5464.955177899437
 31
0.0
 70
   160
  1
(<>)
 71
     5
 42
55.0
  3
INABA_S50G
100
AcDbAlignedDimension
 13
8993.499999999988
 23
6264.955177899423
 33
0.0
 14
9048.499999999988
 24
6254.955177899433
 34
0.0
100
AcDbRotatedDimension
  0
LINE
  5
1DE23
330
747D
100
AcDbEntity
  8
センター
 62
     7
 48
5.0
100
AcDbLine
 10
9193.499999999987
 20
6399.955177899423
 30
0.0
 11
8903.500000000009
 21
6399.955177899423
 31
0.0
  0
LINE
  5
1DE24
330
747D
100
AcDbEntity
  8
センター
 62
     7
 48
5.0
100
AcDbLine
 10
9048.499999999988
 20
6544.955177899423
 30
0.0
 11
9048.499999999988
 21
6254.955177899433
 31
0.0
  0
LINE
  5
1DE25
330
747D
100
AcDbEntity
  8
部品1
 62
     7
 48
50.0
100
AcDbLine
 10
9048.499999999988
 20
6599.955177899435
 30
0.0
 11
9448.500000000009
 21
6599.955177899435
 31
0.0
  0
LINE
  5
1DE26
330
747D
100
AcDbEntity
  8
部品1
 62
     7
 48
50.0
100
AcDbLine
 10
9048.499999999988
 20
6399.955177899423
 30
0.0
 11
9448.500000000009
 21
6399.955177899423
 31
0.0
  0
LINE
  5
1DE27
330
747D
100
AcDbEntity
  8
部品1
 62
     7
 48
50.0
100
AcDbLine
 10
9048.499999999988
 20
6599.955177899435
 30
0.0
 11
9048.499999999988
 21
6399.955177899423
 31
0.0
  0
LINE
  5
1DE28
330
747D
100
AcDbEntity
  8
点線
 62
     7
 48
10.0
100
AcDbLine
 10
9148.50000000001
 20
6499.955177899413
 30
0.0
 11
8948.499999999986
 21
6499.955177899413
 31
0.0
  0
LINE
  5
1DE29
330
747D
100
AcDbEntity
  8
点線
 62
     7
 48
10.0
100
AcDbLine
 10
9148.50000000001
 20
6299.955177899414
 30
0.0
 11
8948.499999999986
 21
6299.955177899414
 31
0.0
  0
LINE
  5
1DE2A
330
747D
100
AcDbEntity
  8
点線
 62
     7
 48
10.0
100
AcDbLine
 10
8948.499999999986
 20
6299.955177899414
 30
0.0
 11
8948.499999999986
 21
6499.955177899413
 31
0.0
  0
LINE
  5
1DE2B
330
747D
100
AcDbEntity
  8
点線
 62
     7
 48
10.0
100
AcDbLine
 10
9148.50000000001
 20
6299.955177899414
 30
0.0
 11
9148.50000000001
 21
6499.955177899413
 31
0.0
  0
LINE
  5
1DE2C
330
747D
100
AcDbEntity
  8
部品1
 62
     7
 48
50.0
100
AcDbLine
 10
9448.500000000009
 20
6599.955177899435
 30
0.0
 11
9448.500000000009
 21
6399.955177899423
 31
0.0
  0
LINE
  5
1DE2D
330
747D
100
AcDbEntity
  8
部品1
 62
     7
 48
50.0
100
AcDbLine
 10
9712.233877007641
 20
6726.492691867304
 30
0.0
 11
9712.233877007641
 21
6726.492691867304
 31
0.0
  0
LINE
  5
1DE2E
330
747D
100
AcDbEntity
  8
部品1
 62
     7
 48
50.0
100
AcDbLine
 10
9688.421377007641
 20
6726.492691867304
 30
0.0
 11
9688.421377007641
 21
6726.492691867304
 31
0.0
  0
LINE
  5
1DE2F
330
747D
100
AcDbEntity
  8
部品1
 62
     7
 48
50.0
100
AcDbLine
 10
9664.608877007641
 20
6726.492691867304
 30
0.0
 11
9664.608877007641
 21
6726.492691867304
 31
0.0
  0
LINE
  5
1DE30
330
747D
100
AcDbEntity
  8
部品1
 62
     7
 48
50.0
100
AcDbLine
 10
9640.796377007641
 20
6726.492691867304
 30
0.0
 11
9640.796377007641
 21
6726.492691867304
 31
0.0
  0
LINE
  5
1DE31
330
747D
100
AcDbEntity
  8
部品1
 62
     7
 48
50.0
100
AcDbLine
 10
9616.983877007641
 20
6726.492691867304
 30
0.0
 11
9616.983877007641
 21
6726.492691867304
 31
0.0
  0
LINE
  5
1DE32
330
747D
100
AcDbEntity
  8
部品1
 62
     7
 48
50.0
100
AcDbLine
 10
9593.17137700764
 20
6726.492691867304
 30
0.0
 11
9593.17137700764
 21
6726.492691867304
 31
0.0
  0
LINE
  5
1DE33
330
747D
100
AcDbEntity
  8
部品1
 62
     7
 48
50.0
100
AcDbLine
 10
9724.140127007638
 20
6750.305191867305
 30
0.0
 11
9724.140127007638
 21
6750.305191867305
 31
0.0
  0
LINE
  5
1DE34
330
747D
100
AcDbEntity
  8
部品1
 62
     7
 48
50.0
100
AcDbLine
 10
9700.327627007638
 20
6750.305191867305
 30
0.0
 11
9700.327627007638
 21
6750.305191867305
 31
0.0
  0
LINE
  5
1DE35
330
747D
100
AcDbEntity
  8
部品1
 62
     7
 48
50.0
100
AcDbLine
 10
9676.51512700764
 20
6750.305191867305
 30
0.0
 11
9676.51512700764
 21
6750.305191867305
 31
0.0
  0
LINE
  5
1DE36
330
747D
100
AcDbEntity
  8
部品1
 62
     7
 48
50.0
100
AcDbLine
 10
9652.702627007641
 20
6750.305191867305
 30
0.0
 11
9652.702627007641
 21
6750.305191867305
 31
0.0
  0
LINE
  5
1DE37
330
747D
100
AcDbEntity
  8
部品1
 62
     7
 48
50.0
100
AcDbLine
 10
9628.890127007641
 20
6750.305191867305
 30
0.0
 11
9628.890127007641
 21
6750.305191867305
 31
0.0
  0
LINE
  5
1DE38
330
747D
100
AcDbEntity
  8
部品1
 62
     7
 48
50.0
100
AcDbLine
 10
9605.077627007638
 20
6750.305191867305
 30
0.0
 11
9605.077627007638
 21
6750.305191867305
 31
0.0
  0
LINE
  5
1DE39
330
747D
100
AcDbEntity
  8
部品1
 62
     7
 48
50.0
100
AcDbLine
 10
9712.233877007641
 20
6774.117691867305
 30
0.0
 11
9712.233877007641
 21
6774.117691867305
 31
0.0
  0
LINE
  5
1DE3A
330
747D
100
AcDbEntity
  8
部品1
 62
     7
 48
50.0
100
AcDbLine
 10
9688.421377007641
 20
6774.117691867305
 30
0.0
 11
9688.421377007641
 21
6774.117691867305
 31
0.0
  0
LINE
  5
1DE3B
330
747D
100
AcDbEntity
  8
部品1
 62
     7
 48
50.0
100
AcDbLine
 10
9664.608877007641
 20
6774.117691867305
 30
0.0
 11
9664.608877007641
 21
6774.117691867305
 31
0.0
  0
LINE
  5
1DE3C
330
747D
100
AcDbEntity
  8
部品1
 62
     7
 48
50.0
100
AcDbLine
 10
9640.796377007641
 20
6774.117691867305
 30
0.0
 11
9640.796377007641
 21
6774.117691867305
 31
0.0
  0
LINE
  5
1DE3D
330
747D
100
AcDbEntity
  8
部品1
 62
     7
 48
50.0
100
AcDbLine
 10
9616.983877007641
 20
6774.117691867305
 30
0.0
 11
9616.983877007641
 21
6774.117691867305
 31
0.0
  0
LINE
  5
1DE3E
330
747D
100
AcDbEntity
  8
部品1
 62
     7
 48
50.0
100
AcDbLine
 10
9593.17137700764
 20
6774.117691867305
 30
0.0
 11
9593.17137700764
 21
6774.117691867305
 31
0.0
  0
LINE
  5
1DE3F
330
747D
100
AcDbEntity
  8
部品1
 62
     7
 48
50.0
100
AcDbLine
 10
9724.140127007638
 20
6797.930191867305
 30
0.0
 11
9724.140127007638
 21
6797.930191867305
 31
0.0
  0
LINE
  5
1DE40
330
747D
100
AcDbEntity
  8
部品1
 62
     7
 48
50.0
100
AcDbLine
 10
9700.327627007638
 20
6797.930191867305
 30
0.0
 11
9700.327627007638
 21
6797.930191867305
 31
0.0
  0
LINE
  5
1DE41
330
747D
100
AcDbEntity
  8
部品1
 62
     7
 48
50.0
100
AcDbLine
 10
9676.51512700764
 20
6797.930191867305
 30
0.0
 11
9676.51512700764
 21
6797.930191867305
 31
0.0
  0
LINE
  5
1DE42
330
747D
100
AcDbEntity
  8
部品1
 62
     7
 48
50.0
100
AcDbLine
 10
9652.702627007641
 20
6797.930191867305
 30
0.0
 11
9652.702627007641
 21
6797.930191867305
 31
0.0
  0
LINE
  5
1DE43
330
747D
100
AcDbEntity
  8
部品1
 62
     7
 48
50.0
100
AcDbLine
 10
9628.890127007641
 20
6797.930191867305
 30
0.0
 11
9628.890127007641
 21
6797.930191867305
 31
0.0
  0
LINE
  5
1DE44
330
747D
100
AcDbEntity
  8
部品1
 62
     7
 48
50.0
100
AcDbLine
 10
9605.077627007638
 20
6797.930191867305
 30
0.0
 11
9605.077627007638
 21
6797.930191867305
 31
0.0
  0
LINE
  5
1DE45
330
747D
100
AcDbEntity
  8
部品1
 62
     7
 48
50.0
100
AcDbLine
 10
9712.233877007641
 20
6821.742691867304
 30
0.0
 11
9712.233877007641
 21
6821.742691867304
 31
0.0
  0
LINE
  5
1DE46
330
747D
100
AcDbEntity
  8
部品1
 62
     7
 48
50.0
100
AcDbLine
 10
9688.421377007641
 20
6821.742691867304
 30
0.0
 11
9688.421377007641
 21
6821.742691867304
 31
0.0
  0
LINE
  5
1DE47
330
747D
100
AcDbEntity
  8
部品1
 62
     7
 48
50.0
100
AcDbLine
 10
9664.608877007641
 20
6821.742691867304
 30
0.0
 11
9664.608877007641
 21
6821.742691867304
 31
0.0
  0
LINE
  5
1DE48
330
747D
100
AcDbEntity
  8
部品1
 62
     7
 48
50.0
100
AcDbLine
 10
9640.796377007641
 20
6821.742691867304
 30
0.0
 11
9640.796377007641
 21
6821.742691867304
 31
0.0
  0
LINE
  5
1DE49
330
747D
100
AcDbEntity
  8
部品1
 62
     7
 48
50.0
100
AcDbLine
 10
9616.983877007641
 20
6821.742691867304
 30
0.0
 11
9616.983877007641
 21
6821.742691867304
 31
0.0
  0
LINE
  5
1DE4A
330
747D
100
AcDbEntity
  8
部品1
 62
     7
 48
50.0
100
AcDbLine
 10
9593.17137700764
 20
6821.742691867304
 30
0.0
 11
9593.17137700764
 21
6821.742691867304
 31
0.0
  0
LEADER
  5
1DE4C
330
747D
100
AcDbEntity
  8
寸法
 62
     7
 48
50.0
100
AcDbLeader
  3
INABA_S50G
 71
     0
 73
     0
 74
     0
 75
     1
 40
150.0
 41
231.9898538650462
 76
     3
 10
10231.13984298921
 20
6534.955177899433
 30
0.0
 10
10319.2534945176
 20
6742.569075062615
 30
0.0
 10
10444.2534945176
 20
6742.569075062615
 30
0.0
340
1DE18
1001
ACAD
1000
DSTYLE
1002
{
1070
     6
1000
DOTSMALL
1002
}
1000
LEANOF
1010
0.0
1020
0.0
1030
0.0
  0
LINE
  5
1DE4D
330
747D
100
AcDbEntity
  8
部品1
 62
     7
 48
50.0
100
AcDbLine
 10
10179.49999999999
 20
6334.955177899434
 30
0.0
 11
10579.5
 21
6334.955177899434
 31
0.0
  0
LINE
  5
1DE4E
330
747D
100
AcDbEntity
  8
部品1
 62
     7
 48
50.0
100
AcDbLine
 10
10179.49999999999
 20
6534.955177899433
 30
0.0
 11
10579.5
 21
6534.955177899433
 31
0.0
  0
LINE
  5
1DE4F
330
747D
100
AcDbEntity
  8
部品1
 62
     7
 48
50.0
100
AcDbLine
 10
9783.671377007641
 20
6726.492691867304
 30
0.0
 11
9783.671377007641
 21
6726.492691867304
 31
0.0
  0
LINE
  5
1DE50
330
747D
100
AcDbEntity
  8
部品1
 62
     7
 48
50.0
100
AcDbLine
 10
9759.858877007641
 20
6726.492691867304
 30
0.0
 11
9759.858877007641
 21
6726.492691867304
 31
0.0
  0
LINE
  5
1DE51
330
747D
100
AcDbEntity
  8
部品1
 62
     7
 48
50.0
100
AcDbLine
 10
9736.046377007641
 20
6726.492691867304
 30
0.0
 11
9736.046377007641
 21
6726.492691867304
 31
0.0
  0
LINE
  5
1DE52
330
747D
100
AcDbEntity
  8
部品1
 62
     7
 48
50.0
100
AcDbLine
 10
9771.76512700764
 20
6750.305191867305
 30
0.0
 11
9771.76512700764
 21
6750.305191867305
 31
0.0
  0
LINE
  5
1DE53
330
747D
100
AcDbEntity
  8
部品1
 62
     7
 48
50.0
100
AcDbLine
 10
9747.952627007641
 20
6750.305191867305
 30
0.0
 11
9747.952627007641
 21
6750.305191867305
 31
0.0
  0
LINE
  5
1DE54
330
747D
100
AcDbEntity
  8
部品1
 62
     7
 48
50.0
100
AcDbLine
 10
9783.671377007641
 20
6774.117691867305
 30
0.0
 11
9783.671377007641
 21
6774.117691867305
 31
0.0
  0
LINE
  5
1DE55
330
747D
100
AcDbEntity
  8
部品1
 62
     7
 48
50.0
100
AcDbLine
 10
9759.858877007641
 20
6774.117691867305
 30
0.0
 11
9759.858877007641
 21
6774.117691867305
 31
0.0
  0
LINE
  5
1DE56
330
747D
100
AcDbEntity
  8
部品1
 62
     7
 48
50.0
100
AcDbLine
 10
9736.046377007641
 20
6774.117691867305
 30
0.0
 11
9736.046377007641
 21
6774.117691867305
 31
0.0
  0
LINE
  5
1DE57
330
747D
100
AcDbEntity
  8
部品1
 62
     7
 48
50.0
100
AcDbLine
 10
9771.76512700764
 20
6797.930191867305
 30
0.0
 11
9771.76512700764
 21
6797.930191867305
 31
0.0
  0
LINE
  5
1DE58
330
747D
100
AcDbEntity
  8
部品1
 62
     7
 48
50.0
100
AcDbLine
 10
9747.952627007641
 20
6797.930191867305
 30
0.0
 11
9747.952627007641
 21
6797.930191867305
 31
0.0
  0
LINE
  5
1DE59
330
747D
100
AcDbEntity
  8
部品1
 62
     7
 48
50.0
100
AcDbLine
 10
9783.671377007641
 20
6821.742691867304
 30
0.0
 11
9783.671377007641
 21
6821.742691867304
 31
0.0
  0
LINE
  5
1DE5A
330
747D
100
AcDbEntity
  8
部品1
 62
     7
 48
50.0
100
AcDbLine
 10
9759.858877007641
 20
6821.742691867304
 30
0.0
 11
9759.858877007641
 21
6821.742691867304
 31
0.0
  0
LINE
  5
1DE5B
330
747D
100
AcDbEntity
  8
部品1
 62
     7
 48
50.0
100
AcDbLine
 10
9736.046377007641
 20
6821.742691867304
 30
0.0
 11
9736.046377007641
 21
6821.742691867304
 31
0.0
  0
LINE
  5
1DE5C
330
747D
100
AcDbEntity
  8
部品1
 62
     7
 48
50.0
100
AcDbLine
 10
10179.49999999999
 20
6334.955177899434
 30
0.0
 11
10179.49999999999
 21
6534.955177899433
 31
0.0
  0
LINE
  5
1DE5D
330
747D
100
AcDbEntity
  8
細線
 62
     7
 48
10.0
100
AcDbLine
 10
10973.5
 20
6705.955177899404
 30
0.0
 11
10773.5
 21
6705.955177899404
 31
0.0
  0
LINE
  5
1DE5E
330
747D
100
AcDbEntity
  8
部品1
 62
     7
 48
50.0
100
AcDbLine
 10
10579.5
 20
6334.955177899434
 30
0.0
 11
10579.5
 21
6534.955177899433
 31
0.0
  0
LINE
  5
1DE5F
330
747D
100
AcDbEntity
  8
部品1
 62
     7
 48
50.0
100
AcDbLine
 10
10950.48387700763
 20
6726.492691867304
 30
0.0
 11
10950.48387700763
 21
6726.492691867304
 31
0.0
  0
LINE
  5
1DE60
330
747D
100
AcDbEntity
  8
部品1
 62
     7
 48
50.0
100
AcDbLine
 10
10926.67137700763
 20
6726.492691867304
 30
0.0
 11
10926.67137700763
 21
6726.492691867304
 31
0.0
  0
LINE
  5
1DE61
330
747D
100
AcDbEntity
  8
部品1
 62
     7
 48
50.0
100
AcDbLine
 10
10902.85887700763
 20
6726.492691867304
 30
0.0
 11
10902.85887700763
 21
6726.492691867304
 31
0.0
  0
LINE
  5
1DE62
330
747D
100
AcDbEntity
  8
部品1
 62
     7
 48
50.0
100
AcDbLine
 10
10879.04637700763
 20
6726.492691867304
 30
0.0
 11
10879.04637700763
 21
6726.492691867304
 31
0.0
  0
LINE
  5
1DE63
330
747D
100
AcDbEntity
  8
部品1
 62
     7
 48
50.0
100
AcDbLine
 10
10855.23387700763
 20
6726.492691867304
 30
0.0
 11
10855.23387700763
 21
6726.492691867304
 31
0.0
  0
LINE
  5
1DE64
330
747D
100
AcDbEntity
  8
部品1
 62
     7
 48
50.0
100
AcDbLine
 10
10831.42137700763
 20
6726.492691867304
 30
0.0
 11
10831.42137700763
 21
6726.492691867304
 31
0.0
  0
LINE
  5
1DE65
330
747D
100
AcDbEntity
  8
部品1
 62
     7
 48
50.0
100
AcDbLine
 10
10807.60887700763
 20
6726.492691867304
 30
0.0
 11
10807.60887700763
 21
6726.492691867304
 31
0.0
  0
LINE
  5
1DE66
330
747D
100
AcDbEntity
  8
部品1
 62
     7
 48
50.0
100
AcDbLine
 10
10783.79637700763
 20
6726.492691867304
 30
0.0
 11
10783.79637700763
 21
6726.492691867304
 31
0.0
  0
LINE
  5
1DE67
330
747D
100
AcDbEntity
  8
部品1
 62
     7
 48
50.0
100
AcDbLine
 10
10962.39012700763
 20
6750.305191867305
 30
0.0
 11
10962.39012700763
 21
6750.305191867305
 31
0.0
  0
LINE
  5
1DE68
330
747D
100
AcDbEntity
  8
部品1
 62
     7
 48
50.0
100
AcDbLine
 10
10938.57762700763
 20
6750.305191867305
 30
0.0
 11
10938.57762700763
 21
6750.305191867305
 31
0.0
  0
LINE
  5
1DE69
330
747D
100
AcDbEntity
  8
部品1
 62
     7
 48
50.0
100
AcDbLine
 10
10914.76512700763
 20
6750.305191867305
 30
0.0
 11
10914.76512700763
 21
6750.305191867305
 31
0.0
  0
LINE
  5
1DE6A
330
747D
100
AcDbEntity
  8
部品1
 62
     7
 48
50.0
100
AcDbLine
 10
10890.95262700763
 20
6750.305191867305
 30
0.0
 11
10890.95262700763
 21
6750.305191867305
 31
0.0
  0
LINE
  5
1DE6B
330
747D
100
AcDbEntity
  8
部品1
 62
     7
 48
50.0
100
AcDbLine
 10
10867.14012700763
 20
6750.305191867305
 30
0.0
 11
10867.14012700763
 21
6750.305191867305
 31
0.0
  0
LINE
  5
1DE6C
330
747D
100
AcDbEntity
  8
部品1
 62
     7
 48
50.0
100
AcDbLine
 10
10843.32762700763
 20
6750.305191867305
 30
0.0
 11
10843.32762700763
 21
6750.305191867305
 31
0.0
  0
LINE
  5
1DE6D
330
747D
100
AcDbEntity
  8
部品1
 62
     7
 48
50.0
100
AcDbLine
 10
10819.51512700763
 20
6750.305191867305
 30
0.0
 11
10819.51512700763
 21
6750.305191867305
 31
0.0
  0
LINE
  5
1DE6E
330
747D
100
AcDbEntity
  8
部品1
 62
     7
 48
50.0
100
AcDbLine
 10
10795.70262700763
 20
6750.305191867305
 30
0.0
 11
10795.70262700763
 21
6750.305191867305
 31
0.0
  0
LINE
  5
1DE6F
330
747D
100
AcDbEntity
  8
部品1
 62
     7
 48
50.0
100
AcDbLine
 10
10950.48387700763
 20
6774.117691867305
 30
0.0
 11
10950.48387700763
 21
6774.117691867305
 31
0.0
  0
LINE
  5
1DE70
330
747D
100
AcDbEntity
  8
部品1
 62
     7
 48
50.0
100
AcDbLine
 10
10926.67137700763
 20
6774.117691867305
 30
0.0
 11
10926.67137700763
 21
6774.117691867305
 31
0.0
  0
LINE
  5
1DE71
330
747D
100
AcDbEntity
  8
部品1
 62
     7
 48
50.0
100
AcDbLine
 10
10902.85887700763
 20
6774.117691867305
 30
0.0
 11
10902.85887700763
 21
6774.117691867305
 31
0.0
  0
LINE
  5
1DE72
330
747D
100
AcDbEntity
  8
部品1
 62
     7
 48
50.0
100
AcDbLine
 10
10879.04637700763
 20
6774.117691867305
 30
0.0
 11
10879.04637700763
 21
6774.117691867305
 31
0.0
  0
LINE
  5
1DE73
330
747D
100
AcDbEntity
  8
部品1
 62
     7
 48
50.0
100
AcDbLine
 10
10855.23387700763
 20
6774.117691867305
 30
0.0
 11
10855.23387700763
 21
6774.117691867305
 31
0.0
  0
LINE
  5
1DE74
330
747D
100
AcDbEntity
  8
部品1
 62
     7
 48
50.0
100
AcDbLine
 10
10831.42137700763
 20
6774.117691867305
 30
0.0
 11
10831.42137700763
 21
6774.117691867305
 31
0.0
  0
LINE
  5
1DE75
330
747D
100
AcDbEntity
  8
部品1
 62
     7
 48
50.0
100
AcDbLine
 10
10807.60887700763
 20
6774.117691867305
 30
0.0
 11
10807.60887700763
 21
6774.117691867305
 31
0.0
  0
LINE
  5
1DE76
330
747D
100
AcDbEntity
  8
部品1
 62
     7
 48
50.0
100
AcDbLine
 10
10783.79637700763
 20
6774.117691867305
 30
0.0
 11
10783.79637700763
 21
6774.117691867305
 31
0.0
  0
LINE
  5
1DE77
330
747D
100
AcDbEntity
  8
部品1
 62
     7
 48
50.0
100
AcDbLine
 10
10962.39012700763
 20
6797.930191867305
 30
0.0
 11
10962.39012700763
 21
6797.930191867305
 31
0.0
  0
LINE
  5
1DE78
330
747D
100
AcDbEntity
  8
部品1
 62
     7
 48
50.0
100
AcDbLine
 10
10938.57762700763
 20
6797.930191867305
 30
0.0
 11
10938.57762700763
 21
6797.930191867305
 31
0.0
  0
LINE
  5
1DE79
330
747D
100
AcDbEntity
  8
部品1
 62
     7
 48
50.0
100
AcDbLine
 10
10914.76512700763
 20
6797.930191867305
 30
0.0
 11
10914.76512700763
 21
6797.930191867305
 31
0.0
  0
LINE
  5
1DE7A
330
747D
100
AcDbEntity
  8
部品1
 62
     7
 48
50.0
100
AcDbLine
 10
10890.95262700763
 20
6797.930191867305
 30
0.0
 11
10890.95262700763
 21
6797.930191867305
 31
0.0
  0
LINE
  5
1DE7B
330
747D
100
AcDbEntity
  8
部品1
 62
     7
 48
50.0
100
AcDbLine
 10
10867.14012700763
 20
6797.930191867305
 30
0.0
 11
10867.14012700763
 21
6797.930191867305
 31
0.0
  0
LINE
  5
1DE7C
330
747D
100
AcDbEntity
  8
部品1
 62
     7
 48
50.0
100
AcDbLine
 10
10843.32762700763
 20
6797.930191867305
 30
0.0
 11
10843.32762700763
 21
6797.930191867305
 31
0.0
  0
LINE
  5
1DE7D
330
747D
100
AcDbEntity
  8
部品1
 62
     7
 48
50.0
100
AcDbLine
 10
10819.51512700763
 20
6797.930191867305
 30
0.0
 11
10819.51512700763
 21
6797.930191867305
 31
0.0
  0
LINE
  5
1DE7E
330
747D
100
AcDbEntity
  8
部品1
 62
     7
 48
50.0
100
AcDbLine
 10
10795.70262700763
 20
6797.930191867305
 30
0.0
 11
10795.70262700763
 21
6797.930191867305
 31
0.0
  0
LINE
  5
1DE7F
330
747D
100
AcDbEntity
  8
部品1
 62
     7
 48
50.0
100
AcDbLine
 10
10950.48387700763
 20
6821.742691867304
 30
0.0
 11
10950.48387700763
 21
6821.742691867304
 31
0.0
  0
LINE
  5
1DE80
330
747D
100
AcDbEntity
  8
部品1
 62
     7
 48
50.0
100
AcDbLine
 10
10926.67137700763
 20
6821.742691867304
 30
0.0
 11
10926.67137700763
 21
6821.742691867304
 31
0.0
  0
LINE
  5
1DE81
330
747D
100
AcDbEntity
  8
部品1
 62
     7
 48
50.0
100
AcDbLine
 10
10902.85887700763
 20
6821.742691867304
 30
0.0
 11
10902.85887700763
 21
6821.742691867304
 31
0.0
  0
LINE
  5
1DE82
330
747D
100
AcDbEntity
  8
部品1
 62
     7
 48
50.0
100
AcDbLine
 10
10879.04637700763
 20
6821.742691867304
 30
0.0
 11
10879.04637700763
 21
6821.742691867304
 31
0.0
  0
LINE
  5
1DE83
330
747D
100
AcDbEntity
  8
部品1
 62
     7
 48
50.0
100
AcDbLine
 10
10855.23387700763
 20
6821.742691867304
 30
0.0
 11
10855.23387700763
 21
6821.742691867304
 31
0.0
  0
LINE
  5
1DE84
330
747D
100
AcDbEntity
  8
部品1
 62
     7
 48
50.0
100
AcDbLine
 10
10831.42137700763
 20
6821.742691867304
 30
0.0
 11
10831.42137700763
 21
6821.742691867304
 31
0.0
  0
LINE
  5
1DE85
330
747D
100
AcDbEntity
  8
部品1
 62
     7
 48
50.0
100
AcDbLine
 10
10807.60887700763
 20
6821.742691867304
 30
0.0
 11
10807.60887700763
 21
6821.742691867304
 31
0.0
  0
LINE
  5
1DE86
330
747D
100
AcDbEntity
  8
部品1
 62
     7
 48
50.0
100
AcDbLine
 10
10783.79637700763
 20
6821.742691867304
 30
0.0
 11
10783.79637700763
 21
6821.742691867304
 31
0.0
  0
LINE
  5
1DE87
330
747D
100
AcDbEntity
  8
部品1
 62
     7
 48
50.0
100
AcDbLine
 10
11110.49999999998
 20
6399.955177899423
 30
0.0
 11
11110.49999999998
 21
6599.955177899435
 31
0.0
  0
DIMENSION
  5
1DE88
330
747D
100
AcDbEntity
  8
寸法
 62
     7
 48
50.0
100
AcDbDimension
  2
*D16
 10
11565.5
 20
5464.955177899437
 30
0.0
 11
11857.94094488189
 21
5464.955177899437
 31
0.0
 70
   160
  1
(<>)
 71
     5
 42
55.00000000001818
  3
INABA_S50G
100
AcDbAlignedDimension
 13
11510.49999999999
 23
6254.955177899433
 33
0.0
 14
11565.5
 24
6264.955177899423
 34
0.0
100
AcDbRotatedDimension
  0
DIMENSION
  5
1DE89
330
747D
100
AcDbEntity
  8
寸法
 62
     7
 48
50.0
100
AcDbDimension
  2
*D17
 10
12715.50000000001
 20
6264.955177899423
 30
0.0
 11
12715.5
 21
5935.014233017533
 31
0.0
 70
   160
  1
(<>)
 71
     5
 42
135.0
  3
INABA_S50G
100
AcDbAlignedDimension
 13
11655.49999999998
 23
6399.955177899423
 33
0.0
 14
11565.5
 24
6264.955177899423
 34
0.0
 50
90.0
100
AcDbRotatedDimension
  0
LINE
  5
1DE8A
330
747D
100
AcDbEntity
  8
センター
 62
     7
 48
5.0
100
AcDbLine
 10
11510.49999999999
 20
6544.955177899423
 30
0.0
 11
11510.49999999999
 21
6254.955177899433
 31
0.0
  0
LINE
  5
1DE8B
330
747D
100
AcDbEntity
  8
部品1
 62
     7
 48
50.0
100
AcDbLine
 10
11510.49999999999
 20
6399.955177899423
 30
0.0
 11
11510.49999999999
 21
6599.955177899435
 31
0.0
  0
LINE
  5
1DE8C
330
747D
100
AcDbEntity
  8
点線
 62
     7
 48
10.0
100
AcDbLine
 10
11410.49999999999
 20
6299.955177899414
 30
0.0
 11
11610.49999999999
 21
6299.955177899414
 31
0.0
  0
LINE
  5
1DE8D
330
747D
100
AcDbEntity
  8
点線
 62
     7
 48
10.0
100
AcDbLine
 10
11410.49999999999
 20
6499.955177899413
 30
0.0
 11
11610.49999999999
 21
6499.955177899413
 31
0.0
  0
LINE
  5
1DE8E
330
747D
100
AcDbEntity
  8
点線
 62
     7
 48
10.0
100
AcDbLine
 10
11410.49999999999
 20
6299.955177899414
 30
0.0
 11
11410.49999999999
 21
6499.955177899413
 31
0.0
  0
LINE
  5
1DE8F
330
747D
100
AcDbEntity
  8
点線
 62
     7
 48
10.0
100
AcDbLine
 10
11610.49999999999
 20
6299.955177899414
 30
0.0
 11
11610.49999999999
 21
6499.955177899413
 31
0.0
  0
MTEXT
  5
1DE90
102
{ACAD_REACTORS
330
1DE91
102
}
330
747D
100
AcDbEntity
  8
部品1
 62
     7
 48
50.0
100
AcDbMText
 10
11484.15206936181
 20
8098.728998074674
 30
0.0
 40
150.0
 41
0.0
 71
     6
 72
     5
  1
\A1;屋根の外寸
  7
STYLE1
 73
     1
 44
1.0
1001
ACAD
1000
MTEXTBEGIN
1070
    73
1070
     1
1070
    44
1040
1.0
1070
    74
1070
     0
1000
MTEXTEND
  0
LEADER
  5
1DE91
330
747D
100
AcDbEntity
  8
寸法
 62
     7
 48
50.0
100
AcDbLeader
  3
INABA_S50G
 73
     0
 74
     0
 75
     1
 40
150.0
 41
840.0
 76
     3
 10
10279.49999999999
 20
7796.955177899423
 30
0.0
 10
10494.15206936181
 20
7998.728998074675
 30
0.0
 10
10619.15206936181
 20
7998.728998074675
 30
0.0
340
1DE90
1001
ACAD
1000
DSTYLE
1002
{
1070
     6
1000

1070
    40
1040
1.0
1070
   341
1005
0
1070
   343
1005
0
1070
   344
1005
0
1002
}
1000
LEANOF
1010
0.0
1020
0.0
1030
0.0
  0
DIMENSION
  5
1DE92
330
747D
100
AcDbEntity
  8
寸法
 62
     7
 48
50.0
100
AcDbDimension
  2
*D18
 10
12365.49999999998
 20
7050.955177899424
 30
0.0
 11
12265.49999999998
 21
7376.45517789943
 31
0.0
 70
    32
 71
     5
 42
651.0000000000109
  3
INABA_S50G
100
AcDbAlignedDimension
 13
11655.49999999998
 23
7701.955177899434
 33
0.0
 14
10424.49999999998
 24
7050.955177899424
 34
0.0
 50
90.0
100
AcDbRotatedDimension
  0
LINE
  5
1DE93
330
747D
100
AcDbEntity
  8
想像線
 62
     7
 48
20.0
100
AcDbLine
 10
11565.5
 20
7796.955177899414
 30
0.0
 11
8993.499999999988
 21
7796.955177899423
 31
0.0
  0
LINE
  5
1DE94
330
747D
100
AcDbEntity
  8
部品1
 62
     7
 48
50.0
100
AcDbLine
 10
11510.49999999999
 20
7501.955177899434
 30
0.0
 11
11110.49999999998
 21
7501.955177899434
 31
0.0
  0
LINE
  5
1DE95
330
747D
100
AcDbEntity
  8
部品1
 62
     7
 48
50.0
100
AcDbLine
 10
11510.49999999999
 20
7701.955177899434
 30
0.0
 11
11110.49999999998
 21
7701.955177899434
 31
0.0
  0
LINE
  5
1DE96
330
747D
100
AcDbEntity
  8
センター
 62
     7
 48
5.0
100
AcDbLine
 10
11655.49999999998
 20
7701.955177899434
 30
0.0
 11
11365.5
 21
7701.955177899434
 31
0.0
  0
LINE
  5
1DE97
330
747D
100
AcDbEntity
  8
細線
 62
     7
 48
10.0
100
AcDbLine
 10
9585.500000000008
 20
7440.955177899414
 30
0.0
 11
9785.500000000009
 21
7440.955177899414
 31
0.0
  0
LINE
  5
1DE98
330
747D
100
AcDbEntity
  8
センター
 62
     7
 48
5.0
100
AcDbLine
 10
9830.500000000009
 20
7340.955177899414
 30
0.0
 11
9540.500000000008
 21
7340.955177899414
 31
0.0
  0
LINE
  5
1DE99
330
747D
100
AcDbEntity
  8
細線
 62
     7
 48
10.0
100
AcDbLine
 10
9785.500000000009
 20
7240.955177899414
 30
0.0
 11
9585.500000000008
 21
7240.955177899414
 31
0.0
  0
LINE
  5
1DE9A
330
747D
100
AcDbEntity
  8
センター
 62
     7
 48
5.0
100
AcDbLine
 10
9540.500000000008
 20
6905.955177899406
 30
0.0
 11
9830.500000000009
 21
6905.955177899406
 31
0.0
  0
LINE
  5
1DE9B
330
747D
100
AcDbEntity
  8
細線
 62
     7
 48
10.0
100
AcDbLine
 10
9585.500000000008
 20
7105.955177899407
 30
0.0
 11
9785.500000000009
 21
7105.955177899407
 31
0.0
  0
MTEXT
  5
1DE9C
102
{ACAD_REACTORS
330
1DE9D
102
}
330
747D
100
AcDbEntity
  8
細線
 62
     7
 48
50.0
100
AcDbMText
 10
9678.057947897
 20
8523.481252862245
 30
0.0
 40
150.0
 41
0.0
 71
     4
 72
     5
  1
\A1;組立後\P現場打コンクリート
  7
STYLE1
 73
     1
 44
1.0
1001
ACAD
1000
MTEXTBEGIN
1070
    73
1070
     1
1070
    44
1040
1.0
1070
    74
1070
     0
1000
MTEXTEND
  0
LEADER
  5
1DE9D
330
747D
100
AcDbEntity
  8
寸法
 62
     7
 48
50.0
100
AcDbLeader
  3
INABA_S50G
 71
     0
 73
     0
 74
     0
 75
     1
 40
400.0
 41
1602.936553006147
 76
     3
 10
9098.554223318741
 20
7751.966894634247
 30
0.0
 10
9528.057947897
 20
8298.481252862243
 30
0.0
 10
9653.057947897
 20
8298.481252862243
 30
0.0
340
1DE9C
1001
ACAD
1000
DSTYLE
1002
{
1070
     6
1000
DOTSMALL
1002
}
1000
LEANOF
1010
0.0
1020
0.0
1030
0.0
  0
DIMENSION
  5
1DE9E
330
747D
100
AcDbEntity
  8
寸法
 62
     7
 48
50.0
100
AcDbDimension
  2
*D19
 10
8948.499999999986
 20
8096.955177899422
 30
0.0
 11
9048.5
 21
8096.955177899422
 31
0.0
 70
   160
 71
     5
 42
200.00000000002
  3
INABA_S50G
100
AcDbAlignedDimension
 13
9148.50000000001
 23
7801.955177899422
 33
0.0
 14
8948.499999999986
 24
7801.955177899422
 34
0.0
100
AcDbRotatedDimension
  0
DIMENSION
  5
1DE9F
330
747D
100
AcDbEntity
  8
寸法
 62
     7
 48
50.0
100
AcDbDimension
  2
*D20
 10
8293.499999999989
 20
7340.955177899414
 30
0.0
 11
8193.499999999987
 21
7521.455177899425
 31
0.0
 70
    32
 71
     5
 42
361.00000000002
  3
INABA_S50G
100
AcDbAlignedDimension
 13
8487.813993709336
 23
7701.955177899434
 33
0.0
 14
9540.500000000008
 24
7340.955177899414
 34
0.0
 50
90.0
100
AcDbRotatedDimension
  0
DIMENSION
  5
1DEA0
330
747D
100
AcDbEntity
  8
寸法
 62
     7
 48
50.0
100
AcDbDimension
  2
*D21
 10
8293.499999999989
 20
6905.955177899406
 30
0.0
 11
8193.499999999987
 21
7123.455177899408
 31
0.0
 70
    32
 71
     5
 42
435.0000000000092
  3
INABA_S50G
100
AcDbAlignedDimension
 13
9540.500000000008
 23
7340.955177899414
 33
0.0
 14
9540.500000000008
 24
6905.955177899406
 34
0.0
 50
90.0
100
AcDbRotatedDimension
  0
LINE
  5
1DEA1
330
747D
100
AcDbEntity
  8
センター
 62
     7
 48
5.0
100
AcDbLine
 10
9193.499999999987
 20
7701.955177899434
 30
0.0
 11
8903.500000000009
 21
7701.955177899434
 31
0.0
  0
DIMENSION
  5
1DEA2
330
747D
100
AcDbEntity
  8
寸法
 62
     7
 48
50.0
100
AcDbDimension
  2
*D22
 10
8693.499999999991
 20
7601.955177899434
 30
0.0
 11
8693.499999999989
 21
7701.95517789943
 31
0.0
 70
   160
 71
     5
 42
199.999999999989
  3
INABA_S50G
100
AcDbAlignedDimension
 13
8948.499999999986
 23
7801.955177899422
 33
0.0
 14
8948.499999999986
 24
7601.955177899434
 34
0.0
 50
90.0
100
AcDbRotatedDimension
  0
LINE
  5
1DEA3
330
747D
100
AcDbEntity
  8
センター
 62
     7
 48
5.0
100
AcDbLine
 10
9685.500000000009
 20
7485.955177899414
 30
0.0
 11
9685.500000000009
 21
7195.955177899405
 31
0.0
  0
LINE
  5
1DEA4
330
747D
100
AcDbEntity
  8
細線
 62
     7
 48
10.0
100
AcDbLine
 10
9585.500000000008
 20
7240.955177899414
 30
0.0
 11
9585.500000000008
 21
7440.955177899414
 31
0.0
  0
LINE
  5
1DEA5
330
747D
100
AcDbEntity
  8
部品1
 62
     7
 48
50.0
100
AcDbLine
 10
9724.140127007638
 20
6845.555191867305
 30
0.0
 11
9724.140127007638
 21
6845.555191867305
 31
0.0
  0
LINE
  5
1DEA6
330
747D
100
AcDbEntity
  8
部品1
 62
     7
 48
50.0
100
AcDbLine
 10
9700.327627007638
 20
6845.555191867305
 30
0.0
 11
9700.327627007638
 21
6845.555191867305
 31
0.0
  0
LINE
  5
1DEA7
330
747D
100
AcDbEntity
  8
部品1
 62
     7
 48
50.0
100
AcDbLine
 10
9676.51512700764
 20
6845.555191867305
 30
0.0
 11
9676.51512700764
 21
6845.555191867305
 31
0.0
  0
LINE
  5
1DEA8
330
747D
100
AcDbEntity
  8
部品1
 62
     7
 48
50.0
100
AcDbLine
 10
9652.702627007641
 20
6845.555191867305
 30
0.0
 11
9652.702627007641
 21
6845.555191867305
 31
0.0
  0
LINE
  5
1DEA9
330
747D
100
AcDbEntity
  8
部品1
 62
     7
 48
50.0
100
AcDbLine
 10
9628.890127007641
 20
6845.555191867305
 30
0.0
 11
9628.890127007641
 21
6845.555191867305
 31
0.0
  0
LINE
  5
1DEAA
330
747D
100
AcDbEntity
  8
部品1
 62
     7
 48
50.0
100
AcDbLine
 10
9605.077627007638
 20
6845.555191867305
 30
0.0
 11
9605.077627007638
 21
6845.555191867305
 31
0.0
  0
LINE
  5
1DEAB
330
747D
100
AcDbEntity
  8
部品1
 62
     7
 48
50.0
100
AcDbLine
 10
9712.233877007641
 20
6869.367691867305
 30
0.0
 11
9712.233877007641
 21
6869.367691867305
 31
0.0
  0
LINE
  5
1DEAC
330
747D
100
AcDbEntity
  8
部品1
 62
     7
 48
50.0
100
AcDbLine
 10
9688.421377007641
 20
6869.367691867305
 30
0.0
 11
9688.421377007641
 21
6869.367691867305
 31
0.0
  0
LINE
  5
1DEAD
330
747D
100
AcDbEntity
  8
部品1
 62
     7
 48
50.0
100
AcDbLine
 10
9664.608877007641
 20
6869.367691867305
 30
0.0
 11
9664.608877007641
 21
6869.367691867305
 31
0.0
  0
LINE
  5
1DEAE
330
747D
100
AcDbEntity
  8
部品1
 62
     7
 48
50.0
100
AcDbLine
 10
9640.796377007641
 20
6869.367691867305
 30
0.0
 11
9640.796377007641
 21
6869.367691867305
 31
0.0
  0
LINE
  5
1DEAF
330
747D
100
AcDbEntity
  8
部品1
 62
     7
 48
50.0
100
AcDbLine
 10
9616.983877007641
 20
6869.367691867305
 30
0.0
 11
9616.983877007641
 21
6869.367691867305
 31
0.0
  0
LINE
  5
1DEB0
330
747D
100
AcDbEntity
  8
部品1
 62
     7
 48
50.0
100
AcDbLine
 10
9593.17137700764
 20
6869.367691867305
 30
0.0
 11
9593.17137700764
 21
6869.367691867305
 31
0.0
  0
LINE
  5
1DEB1
330
747D
100
AcDbEntity
  8
部品1
 62
     7
 48
50.0
100
AcDbLine
 10
9724.140127007638
 20
6893.180191867305
 30
0.0
 11
9724.140127007638
 21
6893.180191867305
 31
0.0
  0
LINE
  5
1DEB2
330
747D
100
AcDbEntity
  8
部品1
 62
     7
 48
50.0
100
AcDbLine
 10
9700.327627007638
 20
6893.180191867305
 30
0.0
 11
9700.327627007638
 21
6893.180191867305
 31
0.0
  0
LINE
  5
1DEB3
330
747D
100
AcDbEntity
  8
部品1
 62
     7
 48
50.0
100
AcDbLine
 10
9676.51512700764
 20
6893.180191867305
 30
0.0
 11
9676.51512700764
 21
6893.180191867305
 31
0.0
  0
LINE
  5
1DEB4
330
747D
100
AcDbEntity
  8
部品1
 62
     7
 48
50.0
100
AcDbLine
 10
9652.702627007641
 20
6893.180191867305
 30
0.0
 11
9652.702627007641
 21
6893.180191867305
 31
0.0
  0
LINE
  5
1DEB5
330
747D
100
AcDbEntity
  8
部品1
 62
     7
 48
50.0
100
AcDbLine
 10
9628.890127007641
 20
6893.180191867305
 30
0.0
 11
9628.890127007641
 21
6893.180191867305
 31
0.0
  0
LINE
  5
1DEB6
330
747D
100
AcDbEntity
  8
部品1
 62
     7
 48
50.0
100
AcDbLine
 10
9605.077627007638
 20
6893.180191867305
 30
0.0
 11
9605.077627007638
 21
6893.180191867305
 31
0.0
  0
LINE
  5
1DEB7
330
747D
100
AcDbEntity
  8
部品1
 62
     7
 48
50.0
100
AcDbLine
 10
9712.233877007641
 20
6916.992691867304
 30
0.0
 11
9712.233877007641
 21
6916.992691867304
 31
0.0
  0
LINE
  5
1DEB8
330
747D
100
AcDbEntity
  8
部品1
 62
     7
 48
50.0
100
AcDbLine
 10
9688.421377007641
 20
6916.992691867304
 30
0.0
 11
9688.421377007641
 21
6916.992691867304
 31
0.0
  0
LINE
  5
1DEB9
330
747D
100
AcDbEntity
  8
部品1
 62
     7
 48
50.0
100
AcDbLine
 10
9664.608877007641
 20
6916.992691867304
 30
0.0
 11
9664.608877007641
 21
6916.992691867304
 31
0.0
  0
LINE
  5
1DEBA
330
747D
100
AcDbEntity
  8
部品1
 62
     7
 48
50.0
100
AcDbLine
 10
9640.796377007641
 20
6916.992691867304
 30
0.0
 11
9640.796377007641
 21
6916.992691867304
 31
0.0
  0
LINE
  5
1DEBB
330
747D
100
AcDbEntity
  8
部品1
 62
     7
 48
50.0
100
AcDbLine
 10
9616.983877007641
 20
6916.992691867304
 30
0.0
 11
9616.983877007641
 21
6916.992691867304
 31
0.0
  0
LINE
  5
1DEBC
330
747D
100
AcDbEntity
  8
部品1
 62
     7
 48
50.0
100
AcDbLine
 10
9593.17137700764
 20
6916.992691867304
 30
0.0
 11
9593.17137700764
 21
6916.992691867304
 31
0.0
  0
LINE
  5
1DEBD
330
747D
100
AcDbEntity
  8
部品1
 62
     7
 48
50.0
100
AcDbLine
 10
9724.140127007638
 20
6940.805191867305
 30
0.0
 11
9724.140127007638
 21
6940.805191867305
 31
0.0
  0
LINE
  5
1DEBE
330
747D
100
AcDbEntity
  8
部品1
 62
     7
 48
50.0
100
AcDbLine
 10
9700.327627007638
 20
6940.805191867305
 30
0.0
 11
9700.327627007638
 21
6940.805191867305
 31
0.0
  0
LINE
  5
1DEBF
330
747D
100
AcDbEntity
  8
部品1
 62
     7
 48
50.0
100
AcDbLine
 10
9676.51512700764
 20
6940.805191867305
 30
0.0
 11
9676.51512700764
 21
6940.805191867305
 31
0.0
  0
LINE
  5
1DEC0
330
747D
100
AcDbEntity
  8
部品1
 62
     7
 48
50.0
100
AcDbLine
 10
9652.702627007641
 20
6940.805191867305
 30
0.0
 11
9652.702627007641
 21
6940.805191867305
 31
0.0
  0
LINE
  5
1DEC1
330
747D
100
AcDbEntity
  8
部品1
 62
     7
 48
50.0
100
AcDbLine
 10
9628.890127007641
 20
6940.805191867305
 30
0.0
 11
9628.890127007641
 21
6940.805191867305
 31
0.0
  0
LINE
  5
1DEC2
330
747D
100
AcDbEntity
  8
部品1
 62
     7
 48
50.0
100
AcDbLine
 10
9605.077627007638
 20
6940.805191867305
 30
0.0
 11
9605.077627007638
 21
6940.805191867305
 31
0.0
  0
LINE
  5
1DEC3
330
747D
100
AcDbEntity
  8
部品1
 62
     7
 48
50.0
100
AcDbLine
 10
9712.233877007641
 20
6964.617691867305
 30
0.0
 11
9712.233877007641
 21
6964.617691867305
 31
0.0
  0
LINE
  5
1DEC4
330
747D
100
AcDbEntity
  8
部品1
 62
     7
 48
50.0
100
AcDbLine
 10
9688.421377007641
 20
6964.617691867305
 30
0.0
 11
9688.421377007641
 21
6964.617691867305
 31
0.0
  0
LINE
  5
1DEC5
330
747D
100
AcDbEntity
  8
部品1
 62
     7
 48
50.0
100
AcDbLine
 10
9664.608877007641
 20
6964.617691867305
 30
0.0
 11
9664.608877007641
 21
6964.617691867305
 31
0.0
  0
LINE
  5
1DEC6
330
747D
100
AcDbEntity
  8
部品1
 62
     7
 48
50.0
100
AcDbLine
 10
9640.796377007641
 20
6964.617691867305
 30
0.0
 11
9640.796377007641
 21
6964.617691867305
 31
0.0
  0
LINE
  5
1DEC7
330
747D
100
AcDbEntity
  8
部品1
 62
     7
 48
50.0
100
AcDbLine
 10
9616.983877007641
 20
6964.617691867305
 30
0.0
 11
9616.983877007641
 21
6964.617691867305
 31
0.0
  0
LINE
  5
1DEC8
330
747D
100
AcDbEntity
  8
部品1
 62
     7
 48
50.0
100
AcDbLine
 10
9593.17137700764
 20
6964.617691867305
 30
0.0
 11
9593.17137700764
 21
6964.617691867305
 31
0.0
  0
LINE
  5
1DEC9
330
747D
100
AcDbEntity
  8
部品1
 62
     7
 48
50.0
100
AcDbLine
 10
9724.140127007638
 20
6988.430191867305
 30
0.0
 11
9724.140127007638
 21
6988.430191867305
 31
0.0
  0
LINE
  5
1DECA
330
747D
100
AcDbEntity
  8
部品1
 62
     7
 48
50.0
100
AcDbLine
 10
9700.327627007638
 20
6988.430191867305
 30
0.0
 11
9700.327627007638
 21
6988.430191867305
 31
0.0
  0
LINE
  5
1DECB
330
747D
100
AcDbEntity
  8
部品1
 62
     7
 48
50.0
100
AcDbLine
 10
9676.51512700764
 20
6988.430191867305
 30
0.0
 11
9676.51512700764
 21
6988.430191867305
 31
0.0
  0
LINE
  5
1DECC
330
747D
100
AcDbEntity
  8
部品1
 62
     7
 48
50.0
100
AcDbLine
 10
9652.702627007641
 20
6988.430191867305
 30
0.0
 11
9652.702627007641
 21
6988.430191867305
 31
0.0
  0
LINE
  5
1DECD
330
747D
100
AcDbEntity
  8
部品1
 62
     7
 48
50.0
100
AcDbLine
 10
9628.890127007641
 20
6988.430191867305
 30
0.0
 11
9628.890127007641
 21
6988.430191867305
 31
0.0
  0
LINE
  5
1DECE
330
747D
100
AcDbEntity
  8
部品1
 62
     7
 48
50.0
100
AcDbLine
 10
9605.077627007638
 20
6988.430191867305
 30
0.0
 11
9605.077627007638
 21
6988.430191867305
 31
0.0
  0
LINE
  5
1DECF
330
747D
100
AcDbEntity
  8
部品1
 62
     7
 48
50.0
100
AcDbLine
 10
9712.233877007641
 20
7012.242691867304
 30
0.0
 11
9712.233877007641
 21
7012.242691867304
 31
0.0
  0
LINE
  5
1DED0
330
747D
100
AcDbEntity
  8
部品1
 62
     7
 48
50.0
100
AcDbLine
 10
9688.421377007641
 20
7012.242691867304
 30
0.0
 11
9688.421377007641
 21
7012.242691867304
 31
0.0
  0
LINE
  5
1DED1
330
747D
100
AcDbEntity
  8
部品1
 62
     7
 48
50.0
100
AcDbLine
 10
9664.608877007641
 20
7012.242691867304
 30
0.0
 11
9664.608877007641
 21
7012.242691867304
 31
0.0
  0
LINE
  5
1DED2
330
747D
100
AcDbEntity
  8
部品1
 62
     7
 48
50.0
100
AcDbLine
 10
9640.796377007641
 20
7012.242691867304
 30
0.0
 11
9640.796377007641
 21
7012.242691867304
 31
0.0
  0
LINE
  5
1DED3
330
747D
100
AcDbEntity
  8
部品1
 62
     7
 48
50.0
100
AcDbLine
 10
9616.983877007641
 20
7012.242691867304
 30
0.0
 11
9616.983877007641
 21
7012.242691867304
 31
0.0
  0
LINE
  5
1DED4
330
747D
100
AcDbEntity
  8
部品1
 62
     7
 48
50.0
100
AcDbLine
 10
9593.17137700764
 20
7012.242691867304
 30
0.0
 11
9593.17137700764
 21
7012.242691867304
 31
0.0
  0
LINE
  5
1DED5
330
747D
100
AcDbEntity
  8
部品1
 62
     7
 48
50.0
100
AcDbLine
 10
9724.140127007638
 20
7036.055191867305
 30
0.0
 11
9724.140127007638
 21
7036.055191867305
 31
0.0
  0
LINE
  5
1DED6
330
747D
100
AcDbEntity
  8
部品1
 62
     7
 48
50.0
100
AcDbLine
 10
9700.327627007638
 20
7036.055191867305
 30
0.0
 11
9700.327627007638
 21
7036.055191867305
 31
0.0
  0
LINE
  5
1DED7
330
747D
100
AcDbEntity
  8
部品1
 62
     7
 48
50.0
100
AcDbLine
 10
9676.51512700764
 20
7036.055191867305
 30
0.0
 11
9676.51512700764
 21
7036.055191867305
 31
0.0
  0
LINE
  5
1DED8
330
747D
100
AcDbEntity
  8
部品1
 62
     7
 48
50.0
100
AcDbLine
 10
9652.702627007641
 20
7036.055191867305
 30
0.0
 11
9652.702627007641
 21
7036.055191867305
 31
0.0
  0
LINE
  5
1DED9
330
747D
100
AcDbEntity
  8
部品1
 62
     7
 48
50.0
100
AcDbLine
 10
9628.890127007641
 20
7036.055191867305
 30
0.0
 11
9628.890127007641
 21
7036.055191867305
 31
0.0
  0
LINE
  5
1DEDA
330
747D
100
AcDbEntity
  8
部品1
 62
     7
 48
50.0
100
AcDbLine
 10
9605.077627007638
 20
7036.055191867305
 30
0.0
 11
9605.077627007638
 21
7036.055191867305
 31
0.0
  0
LINE
  5
1DEDB
330
747D
100
AcDbEntity
  8
部品1
 62
     7
 48
50.0
100
AcDbLine
 10
9712.233877007641
 20
7059.867691867305
 30
0.0
 11
9712.233877007641
 21
7059.867691867305
 31
0.0
  0
LINE
  5
1DEDC
330
747D
100
AcDbEntity
  8
部品1
 62
     7
 48
50.0
100
AcDbLine
 10
9688.421377007641
 20
7059.867691867305
 30
0.0
 11
9688.421377007641
 21
7059.867691867305
 31
0.0
  0
LINE
  5
1DEDD
330
747D
100
AcDbEntity
  8
部品1
 62
     7
 48
50.0
100
AcDbLine
 10
9664.608877007641
 20
7059.867691867305
 30
0.0
 11
9664.608877007641
 21
7059.867691867305
 31
0.0
  0
LINE
  5
1DEDE
330
747D
100
AcDbEntity
  8
部品1
 62
     7
 48
50.0
100
AcDbLine
 10
9640.796377007641
 20
7059.867691867305
 30
0.0
 11
9640.796377007641
 21
7059.867691867305
 31
0.0
  0
LINE
  5
1DEDF
330
747D
100
AcDbEntity
  8
部品1
 62
     7
 48
50.0
100
AcDbLine
 10
9616.983877007641
 20
7059.867691867305
 30
0.0
 11
9616.983877007641
 21
7059.867691867305
 31
0.0
  0
LINE
  5
1DEE0
330
747D
100
AcDbEntity
  8
部品1
 62
     7
 48
50.0
100
AcDbLine
 10
9593.17137700764
 20
7059.867691867305
 30
0.0
 11
9593.17137700764
 21
7059.867691867305
 31
0.0
  0
LINE
  5
1DEE1
330
747D
100
AcDbEntity
  8
部品1
 62
     7
 48
50.0
100
AcDbLine
 10
9724.140127007638
 20
7083.680191867305
 30
0.0
 11
9724.140127007638
 21
7083.680191867305
 31
0.0
  0
LINE
  5
1DEE2
330
747D
100
AcDbEntity
  8
部品1
 62
     7
 48
50.0
100
AcDbLine
 10
9700.327627007638
 20
7083.680191867305
 30
0.0
 11
9700.327627007638
 21
7083.680191867305
 31
0.0
  0
LINE
  5
1DEE3
330
747D
100
AcDbEntity
  8
部品1
 62
     7
 48
50.0
100
AcDbLine
 10
9676.51512700764
 20
7083.680191867305
 30
0.0
 11
9676.51512700764
 21
7083.680191867305
 31
0.0
  0
LINE
  5
1DEE4
330
747D
100
AcDbEntity
  8
部品1
 62
     7
 48
50.0
100
AcDbLine
 10
9652.702627007641
 20
7083.680191867305
 30
0.0
 11
9652.702627007641
 21
7083.680191867305
 31
0.0
  0
LINE
  5
1DEE5
330
747D
100
AcDbEntity
  8
部品1
 62
     7
 48
50.0
100
AcDbLine
 10
9628.890127007641
 20
7083.680191867305
 30
0.0
 11
9628.890127007641
 21
7083.680191867305
 31
0.0
  0
LINE
  5
1DEE6
330
747D
100
AcDbEntity
  8
部品1
 62
     7
 48
50.0
100
AcDbLine
 10
9605.077627007638
 20
7083.680191867305
 30
0.0
 11
9605.077627007638
 21
7083.680191867305
 31
0.0
  0
LINE
  5
1DEE7
330
747D
100
AcDbEntity
  8
部品1
 62
     7
 48
50.0
100
AcDbLine
 10
9712.233877007641
 20
7250.367691867305
 30
0.0
 11
9712.233877007641
 21
7250.367691867305
 31
0.0
  0
LINE
  5
1DEE8
330
747D
100
AcDbEntity
  8
部品1
 62
     7
 48
50.0
100
AcDbLine
 10
9688.421377007641
 20
7250.367691867305
 30
0.0
 11
9688.421377007641
 21
7250.367691867305
 31
0.0
  0
LINE
  5
1DEE9
330
747D
100
AcDbEntity
  8
部品1
 62
     7
 48
50.0
100
AcDbLine
 10
9664.608877007641
 20
7250.367691867305
 30
0.0
 11
9664.608877007641
 21
7250.367691867305
 31
0.0
  0
LINE
  5
1DEEA
330
747D
100
AcDbEntity
  8
部品1
 62
     7
 48
50.0
100
AcDbLine
 10
9640.796377007641
 20
7250.367691867305
 30
0.0
 11
9640.796377007641
 21
7250.367691867305
 31
0.0
  0
LINE
  5
1DEEB
330
747D
100
AcDbEntity
  8
部品1
 62
     7
 48
50.0
100
AcDbLine
 10
9616.983877007641
 20
7250.367691867305
 30
0.0
 11
9616.983877007641
 21
7250.367691867305
 31
0.0
  0
LINE
  5
1DEEC
330
747D
100
AcDbEntity
  8
部品1
 62
     7
 48
50.0
100
AcDbLine
 10
9593.17137700764
 20
7250.367691867305
 30
0.0
 11
9593.17137700764
 21
7250.367691867305
 31
0.0
  0
LINE
  5
1DEED
330
747D
100
AcDbEntity
  8
部品1
 62
     7
 48
50.0
100
AcDbLine
 10
9724.140127007638
 20
7274.180191867305
 30
0.0
 11
9724.140127007638
 21
7274.180191867305
 31
0.0
  0
LINE
  5
1DEEE
330
747D
100
AcDbEntity
  8
部品1
 62
     7
 48
50.0
100
AcDbLine
 10
9700.327627007638
 20
7274.180191867305
 30
0.0
 11
9700.327627007638
 21
7274.180191867305
 31
0.0
  0
LINE
  5
1DEEF
330
747D
100
AcDbEntity
  8
部品1
 62
     7
 48
50.0
100
AcDbLine
 10
9676.51512700764
 20
7274.180191867305
 30
0.0
 11
9676.51512700764
 21
7274.180191867305
 31
0.0
  0
LINE
  5
1DEF0
330
747D
100
AcDbEntity
  8
部品1
 62
     7
 48
50.0
100
AcDbLine
 10
9652.702627007641
 20
7274.180191867305
 30
0.0
 11
9652.702627007641
 21
7274.180191867305
 31
0.0
  0
LINE
  5
1DEF1
330
747D
100
AcDbEntity
  8
部品1
 62
     7
 48
50.0
100
AcDbLine
 10
9628.890127007641
 20
7274.180191867305
 30
0.0
 11
9628.890127007641
 21
7274.180191867305
 31
0.0
  0
LINE
  5
1DEF2
330
747D
100
AcDbEntity
  8
部品1
 62
     7
 48
50.0
100
AcDbLine
 10
9605.077627007638
 20
7274.180191867305
 30
0.0
 11
9605.077627007638
 21
7274.180191867305
 31
0.0
  0
LINE
  5
1DEF3
330
747D
100
AcDbEntity
  8
部品1
 62
     7
 48
50.0
100
AcDbLine
 10
9712.233877007641
 20
7297.992691867304
 30
0.0
 11
9712.233877007641
 21
7297.992691867304
 31
0.0
  0
LINE
  5
1DEF4
330
747D
100
AcDbEntity
  8
部品1
 62
     7
 48
50.0
100
AcDbLine
 10
9688.421377007641
 20
7297.992691867304
 30
0.0
 11
9688.421377007641
 21
7297.992691867304
 31
0.0
  0
LINE
  5
1DEF5
330
747D
100
AcDbEntity
  8
部品1
 62
     7
 48
50.0
100
AcDbLine
 10
9664.608877007641
 20
7297.992691867304
 30
0.0
 11
9664.608877007641
 21
7297.992691867304
 31
0.0
  0
LINE
  5
1DEF6
330
747D
100
AcDbEntity
  8
部品1
 62
     7
 48
50.0
100
AcDbLine
 10
9640.796377007641
 20
7297.992691867304
 30
0.0
 11
9640.796377007641
 21
7297.992691867304
 31
0.0
  0
LINE
  5
1DEF7
330
747D
100
AcDbEntity
  8
部品1
 62
     7
 48
50.0
100
AcDbLine
 10
9616.983877007641
 20
7297.992691867304
 30
0.0
 11
9616.983877007641
 21
7297.992691867304
 31
0.0
  0
LINE
  5
1DEF8
330
747D
100
AcDbEntity
  8
部品1
 62
     7
 48
50.0
100
AcDbLine
 10
9593.17137700764
 20
7297.992691867304
 30
0.0
 11
9593.17137700764
 21
7297.992691867304
 31
0.0
  0
LINE
  5
1DEF9
330
747D
100
AcDbEntity
  8
部品1
 62
     7
 48
50.0
100
AcDbLine
 10
9724.140127007638
 20
7321.805191867304
 30
0.0
 11
9724.140127007638
 21
7321.805191867304
 31
0.0
  0
LINE
  5
1DEFA
330
747D
100
AcDbEntity
  8
部品1
 62
     7
 48
50.0
100
AcDbLine
 10
9700.327627007638
 20
7321.805191867304
 30
0.0
 11
9700.327627007638
 21
7321.805191867304
 31
0.0
  0
LINE
  5
1DEFB
330
747D
100
AcDbEntity
  8
部品1
 62
     7
 48
50.0
100
AcDbLine
 10
9676.51512700764
 20
7321.805191867304
 30
0.0
 11
9676.51512700764
 21
7321.805191867304
 31
0.0
  0
LINE
  5
1DEFC
330
747D
100
AcDbEntity
  8
部品1
 62
     7
 48
50.0
100
AcDbLine
 10
9652.702627007641
 20
7321.805191867304
 30
0.0
 11
9652.702627007641
 21
7321.805191867304
 31
0.0
  0
LINE
  5
1DEFD
330
747D
100
AcDbEntity
  8
部品1
 62
     7
 48
50.0
100
AcDbLine
 10
9628.890127007641
 20
7321.805191867304
 30
0.0
 11
9628.890127007641
 21
7321.805191867304
 31
0.0
  0
LINE
  5
1DEFE
330
747D
100
AcDbEntity
  8
部品1
 62
     7
 48
50.0
100
AcDbLine
 10
9605.077627007638
 20
7321.805191867304
 30
0.0
 11
9605.077627007638
 21
7321.805191867304
 31
0.0
  0
LINE
  5
1DEFF
330
747D
100
AcDbEntity
  8
部品1
 62
     7
 48
50.0
100
AcDbLine
 10
9712.233877007641
 20
7345.617691867305
 30
0.0
 11
9712.233877007641
 21
7345.617691867305
 31
0.0
  0
LINE
  5
1DF00
330
747D
100
AcDbEntity
  8
部品1
 62
     7
 48
50.0
100
AcDbLine
 10
9688.421377007641
 20
7345.617691867305
 30
0.0
 11
9688.421377007641
 21
7345.617691867305
 31
0.0
  0
LINE
  5
1DF01
330
747D
100
AcDbEntity
  8
部品1
 62
     7
 48
50.0
100
AcDbLine
 10
9664.608877007641
 20
7345.617691867305
 30
0.0
 11
9664.608877007641
 21
7345.617691867305
 31
0.0
  0
LINE
  5
1DF02
330
747D
100
AcDbEntity
  8
部品1
 62
     7
 48
50.0
100
AcDbLine
 10
9640.796377007641
 20
7345.617691867305
 30
0.0
 11
9640.796377007641
 21
7345.617691867305
 31
0.0
  0
LINE
  5
1DF03
330
747D
100
AcDbEntity
  8
部品1
 62
     7
 48
50.0
100
AcDbLine
 10
9616.983877007641
 20
7345.617691867305
 30
0.0
 11
9616.983877007641
 21
7345.617691867305
 31
0.0
  0
LINE
  5
1DF04
330
747D
100
AcDbEntity
  8
部品1
 62
     7
 48
50.0
100
AcDbLine
 10
9593.17137700764
 20
7345.617691867305
 30
0.0
 11
9593.17137700764
 21
7345.617691867305
 31
0.0
  0
LINE
  5
1DF05
330
747D
100
AcDbEntity
  8
部品1
 62
     7
 48
50.0
100
AcDbLine
 10
9724.140127007638
 20
7369.430191867305
 30
0.0
 11
9724.140127007638
 21
7369.430191867305
 31
0.0
  0
LINE
  5
1DF06
330
747D
100
AcDbEntity
  8
部品1
 62
     7
 48
50.0
100
AcDbLine
 10
9700.327627007638
 20
7369.430191867305
 30
0.0
 11
9700.327627007638
 21
7369.430191867305
 31
0.0
  0
LINE
  5
1DF07
330
747D
100
AcDbEntity
  8
部品1
 62
     7
 48
50.0
100
AcDbLine
 10
9676.51512700764
 20
7369.430191867305
 30
0.0
 11
9676.51512700764
 21
7369.430191867305
 31
0.0
  0
LINE
  5
1DF08
330
747D
100
AcDbEntity
  8
部品1
 62
     7
 48
50.0
100
AcDbLine
 10
9652.702627007641
 20
7369.430191867305
 30
0.0
 11
9652.702627007641
 21
7369.430191867305
 31
0.0
  0
LINE
  5
1DF09
330
747D
100
AcDbEntity
  8
部品1
 62
     7
 48
50.0
100
AcDbLine
 10
9628.890127007641
 20
7369.430191867305
 30
0.0
 11
9628.890127007641
 21
7369.430191867305
 31
0.0
  0
LINE
  5
1DF0A
330
747D
100
AcDbEntity
  8
部品1
 62
     7
 48
50.0
100
AcDbLine
 10
9605.077627007638
 20
7369.430191867305
 30
0.0
 11
9605.077627007638
 21
7369.430191867305
 31
0.0
  0
LINE
  5
1DF0B
330
747D
100
AcDbEntity
  8
部品1
 62
     7
 48
50.0
100
AcDbLine
 10
9712.233877007641
 20
7393.242691867304
 30
0.0
 11
9712.233877007641
 21
7393.242691867304
 31
0.0
  0
LINE
  5
1DF0C
330
747D
100
AcDbEntity
  8
部品1
 62
     7
 48
50.0
100
AcDbLine
 10
9688.421377007641
 20
7393.242691867304
 30
0.0
 11
9688.421377007641
 21
7393.242691867304
 31
0.0
  0
LINE
  5
1DF0D
330
747D
100
AcDbEntity
  8
部品1
 62
     7
 48
50.0
100
AcDbLine
 10
9664.608877007641
 20
7393.242691867304
 30
0.0
 11
9664.608877007641
 21
7393.242691867304
 31
0.0
  0
LINE
  5
1DF0E
330
747D
100
AcDbEntity
  8
部品1
 62
     7
 48
50.0
100
AcDbLine
 10
9640.796377007641
 20
7393.242691867304
 30
0.0
 11
9640.796377007641
 21
7393.242691867304
 31
0.0
  0
LINE
  5
1DF0F
330
747D
100
AcDbEntity
  8
部品1
 62
     7
 48
50.0
100
AcDbLine
 10
9616.983877007641
 20
7393.242691867304
 30
0.0
 11
9616.983877007641
 21
7393.242691867304
 31
0.0
  0
LINE
  5
1DF10
330
747D
100
AcDbEntity
  8
部品1
 62
     7
 48
50.0
100
AcDbLine
 10
9593.17137700764
 20
7393.242691867304
 30
0.0
 11
9593.17137700764
 21
7393.242691867304
 31
0.0
  0
LINE
  5
1DF11
330
747D
100
AcDbEntity
  8
部品1
 62
     7
 48
50.0
100
AcDbLine
 10
9724.140127007638
 20
7417.055191867304
 30
0.0
 11
9724.140127007638
 21
7417.055191867304
 31
0.0
  0
LINE
  5
1DF12
330
747D
100
AcDbEntity
  8
部品1
 62
     7
 48
50.0
100
AcDbLine
 10
9700.327627007638
 20
7417.055191867304
 30
0.0
 11
9700.327627007638
 21
7417.055191867304
 31
0.0
  0
LINE
  5
1DF13
330
747D
100
AcDbEntity
  8
部品1
 62
     7
 48
50.0
100
AcDbLine
 10
9676.51512700764
 20
7417.055191867304
 30
0.0
 11
9676.51512700764
 21
7417.055191867304
 31
0.0
  0
LINE
  5
1DF14
330
747D
100
AcDbEntity
  8
部品1
 62
     7
 48
50.0
100
AcDbLine
 10
9652.702627007641
 20
7417.055191867304
 30
0.0
 11
9652.702627007641
 21
7417.055191867304
 31
0.0
  0
LINE
  5
1DF15
330
747D
100
AcDbEntity
  8
部品1
 62
     7
 48
50.0
100
AcDbLine
 10
9628.890127007641
 20
7417.055191867304
 30
0.0
 11
9628.890127007641
 21
7417.055191867304
 31
0.0
  0
LINE
  5
1DF16
330
747D
100
AcDbEntity
  8
部品1
 62
     7
 48
50.0
100
AcDbLine
 10
9605.077627007638
 20
7417.055191867304
 30
0.0
 11
9605.077627007638
 21
7417.055191867304
 31
0.0
  0
LINE
  5
1DF17
330
747D
100
AcDbEntity
  8
部品1
 62
     7
 48
50.0
100
AcDbLine
 10
9448.500000000009
 20
7701.955177899434
 30
0.0
 11
9048.499999999988
 21
7701.955177899434
 31
0.0
  0
LINE
  5
1DF18
330
747D
100
AcDbEntity
  8
部品1
 62
     7
 48
50.0
100
AcDbLine
 10
9448.500000000009
 20
7501.955177899434
 30
0.0
 11
9048.499999999988
 21
7501.955177899434
 31
0.0
  0
LINE
  5
1DF19
330
747D
100
AcDbEntity
  8
点線
 62
     7
 48
10.0
100
AcDbLine
 10
8948.499999999986
 20
7801.955177899422
 30
0.0
 11
8948.499999999986
 21
7601.955177899434
 31
0.0
  0
LINE
  5
1DF1A
330
747D
100
AcDbEntity
  8
点線
 62
     7
 48
10.0
100
AcDbLine
 10
9148.50000000001
 20
7801.955177899422
 30
0.0
 11
9148.50000000001
 21
7601.955177899434
 31
0.0
  0
LINE
  5
1DF1B
330
747D
100
AcDbEntity
  8
センター
 62
     7
 48
5.0
100
AcDbLine
 10
9048.499999999988
 20
7846.955177899435
 30
0.0
 11
9048.499999999988
 21
7556.955177899422
 31
0.0
  0
LINE
  5
1DF1C
330
747D
100
AcDbEntity
  8
点線
 62
     7
 48
10.0
100
AcDbLine
 10
9148.50000000001
 20
7601.955177899434
 30
0.0
 11
8948.499999999986
 21
7601.955177899434
 31
0.0
  0
LINE
  5
1DF1D
330
747D
100
AcDbEntity
  8
部品1
 62
     7
 48
50.0
100
AcDbLine
 10
9048.499999999988
 20
7701.955177899434
 30
0.0
 11
9048.499999999988
 21
7501.955177899434
 31
0.0
  0
LINE
  5
1DF1E
330
747D
100
AcDbEntity
  8
点線
 62
     7
 48
10.0
100
AcDbLine
 10
9148.50000000001
 20
7801.955177899422
 30
0.0
 11
8948.499999999986
 21
7801.955177899422
 31
0.0
  0
LINE
  5
1DF1F
330
747D
100
AcDbEntity
  8
部品1
 62
     7
 48
50.0
100
AcDbLine
 10
9448.500000000009
 20
7701.955177899434
 30
0.0
 11
9448.500000000009
 21
7501.955177899434
 31
0.0
  0
LINE
  5
1DF20
330
747D
100
AcDbEntity
  8
細線
 62
     7
 48
10.0
100
AcDbLine
 10
9785.500000000009
 20
7440.955177899414
 30
0.0
 11
9785.500000000009
 21
7240.955177899414
 31
0.0
  0
LINE
  5
1DF21
330
747D
100
AcDbEntity
  8
センター
 62
     7
 48
5.0
100
AcDbLine
 10
10424.49999999998
 20
7050.955177899424
 30
0.0
 11
10134.5
 21
7050.955177899424
 31
0.0
  0
LINE
  5
1DF22
330
747D
100
AcDbEntity
  8
部品1
 62
     7
 48
50.0
100
AcDbLine
 10
9771.76512700764
 20
6845.555191867305
 30
0.0
 11
9771.76512700764
 21
6845.555191867305
 31
0.0
  0
LINE
  5
1DF23
330
747D
100
AcDbEntity
  8
部品1
 62
     7
 48
50.0
100
AcDbLine
 10
9747.952627007641
 20
6845.555191867305
 30
0.0
 11
9747.952627007641
 21
6845.555191867305
 31
0.0
  0
LINE
  5
1DF24
330
747D
100
AcDbEntity
  8
部品1
 62
     7
 48
50.0
100
AcDbLine
 10
9783.671377007641
 20
6869.367691867305
 30
0.0
 11
9783.671377007641
 21
6869.367691867305
 31
0.0
  0
LINE
  5
1DF25
330
747D
100
AcDbEntity
  8
部品1
 62
     7
 48
50.0
100
AcDbLine
 10
9759.858877007641
 20
6869.367691867305
 30
0.0
 11
9759.858877007641
 21
6869.367691867305
 31
0.0
  0
LINE
  5
1DF26
330
747D
100
AcDbEntity
  8
部品1
 62
     7
 48
50.0
100
AcDbLine
 10
9736.046377007641
 20
6869.367691867305
 30
0.0
 11
9736.046377007641
 21
6869.367691867305
 31
0.0
  0
LINE
  5
1DF27
330
747D
100
AcDbEntity
  8
部品1
 62
     7
 48
50.0
100
AcDbLine
 10
9771.76512700764
 20
6893.180191867305
 30
0.0
 11
9771.76512700764
 21
6893.180191867305
 31
0.0
  0
LINE
  5
1DF28
330
747D
100
AcDbEntity
  8
部品1
 62
     7
 48
50.0
100
AcDbLine
 10
9747.952627007641
 20
6893.180191867305
 30
0.0
 11
9747.952627007641
 21
6893.180191867305
 31
0.0
  0
LINE
  5
1DF29
330
747D
100
AcDbEntity
  8
部品1
 62
     7
 48
50.0
100
AcDbLine
 10
9783.671377007641
 20
6916.992691867304
 30
0.0
 11
9783.671377007641
 21
6916.992691867304
 31
0.0
  0
LINE
  5
1DF2A
330
747D
100
AcDbEntity
  8
部品1
 62
     7
 48
50.0
100
AcDbLine
 10
9759.858877007641
 20
6916.992691867304
 30
0.0
 11
9759.858877007641
 21
6916.992691867304
 31
0.0
  0
LINE
  5
1DF2B
330
747D
100
AcDbEntity
  8
部品1
 62
     7
 48
50.0
100
AcDbLine
 10
9736.046377007641
 20
6916.992691867304
 30
0.0
 11
9736.046377007641
 21
6916.992691867304
 31
0.0
  0
LINE
  5
1DF2C
330
747D
100
AcDbEntity
  8
部品1
 62
     7
 48
50.0
100
AcDbLine
 10
9771.76512700764
 20
6940.805191867305
 30
0.0
 11
9771.76512700764
 21
6940.805191867305
 31
0.0
  0
LINE
  5
1DF2D
330
747D
100
AcDbEntity
  8
部品1
 62
     7
 48
50.0
100
AcDbLine
 10
9747.952627007641
 20
6940.805191867305
 30
0.0
 11
9747.952627007641
 21
6940.805191867305
 31
0.0
  0
LINE
  5
1DF2E
330
747D
100
AcDbEntity
  8
部品1
 62
     7
 48
50.0
100
AcDbLine
 10
9783.671377007641
 20
6964.617691867305
 30
0.0
 11
9783.671377007641
 21
6964.617691867305
 31
0.0
  0
LINE
  5
1DF2F
330
747D
100
AcDbEntity
  8
部品1
 62
     7
 48
50.0
100
AcDbLine
 10
9759.858877007641
 20
6964.617691867305
 30
0.0
 11
9759.858877007641
 21
6964.617691867305
 31
0.0
  0
LINE
  5
1DF30
330
747D
100
AcDbEntity
  8
部品1
 62
     7
 48
50.0
100
AcDbLine
 10
9736.046377007641
 20
6964.617691867305
 30
0.0
 11
9736.046377007641
 21
6964.617691867305
 31
0.0
  0
LINE
  5
1DF31
330
747D
100
AcDbEntity
  8
部品1
 62
     7
 48
50.0
100
AcDbLine
 10
9771.76512700764
 20
6988.430191867305
 30
0.0
 11
9771.76512700764
 21
6988.430191867305
 31
0.0
  0
LINE
  5
1DF32
330
747D
100
AcDbEntity
  8
部品1
 62
     7
 48
50.0
100
AcDbLine
 10
9747.952627007641
 20
6988.430191867305
 30
0.0
 11
9747.952627007641
 21
6988.430191867305
 31
0.0
  0
LINE
  5
1DF33
330
747D
100
AcDbEntity
  8
部品1
 62
     7
 48
50.0
100
AcDbLine
 10
9783.671377007641
 20
7012.242691867304
 30
0.0
 11
9783.671377007641
 21
7012.242691867304
 31
0.0
  0
LINE
  5
1DF34
330
747D
100
AcDbEntity
  8
部品1
 62
     7
 48
50.0
100
AcDbLine
 10
9759.858877007641
 20
7012.242691867304
 30
0.0
 11
9759.858877007641
 21
7012.242691867304
 31
0.0
  0
LINE
  5
1DF35
330
747D
100
AcDbEntity
  8
部品1
 62
     7
 48
50.0
100
AcDbLine
 10
9736.046377007641
 20
7012.242691867304
 30
0.0
 11
9736.046377007641
 21
7012.242691867304
 31
0.0
  0
LINE
  5
1DF36
330
747D
100
AcDbEntity
  8
部品1
 62
     7
 48
50.0
100
AcDbLine
 10
9771.76512700764
 20
7036.055191867305
 30
0.0
 11
9771.76512700764
 21
7036.055191867305
 31
0.0
  0
LINE
  5
1DF37
330
747D
100
AcDbEntity
  8
部品1
 62
     7
 48
50.0
100
AcDbLine
 10
9747.952627007641
 20
7036.055191867305
 30
0.0
 11
9747.952627007641
 21
7036.055191867305
 31
0.0
  0
LINE
  5
1DF38
330
747D
100
AcDbEntity
  8
部品1
 62
     7
 48
50.0
100
AcDbLine
 10
9783.671377007641
 20
7059.867691867305
 30
0.0
 11
9783.671377007641
 21
7059.867691867305
 31
0.0
  0
LINE
  5
1DF39
330
747D
100
AcDbEntity
  8
部品1
 62
     7
 48
50.0
100
AcDbLine
 10
9759.858877007641
 20
7059.867691867305
 30
0.0
 11
9759.858877007641
 21
7059.867691867305
 31
0.0
  0
LINE
  5
1DF3A
330
747D
100
AcDbEntity
  8
部品1
 62
     7
 48
50.0
100
AcDbLine
 10
9736.046377007641
 20
7059.867691867305
 30
0.0
 11
9736.046377007641
 21
7059.867691867305
 31
0.0
  0
LINE
  5
1DF3B
330
747D
100
AcDbEntity
  8
部品1
 62
     7
 48
50.0
100
AcDbLine
 10
9771.76512700764
 20
7083.680191867305
 30
0.0
 11
9771.76512700764
 21
7083.680191867305
 31
0.0
  0
LINE
  5
1DF3C
330
747D
100
AcDbEntity
  8
部品1
 62
     7
 48
50.0
100
AcDbLine
 10
9747.952627007641
 20
7083.680191867305
 30
0.0
 11
9747.952627007641
 21
7083.680191867305
 31
0.0
  0
LINE
  5
1DF3D
330
747D
100
AcDbEntity
  8
部品1
 62
     7
 48
50.0
100
AcDbLine
 10
9783.671377007641
 20
7250.367691867305
 30
0.0
 11
9783.671377007641
 21
7250.367691867305
 31
0.0
  0
LINE
  5
1DF3E
330
747D
100
AcDbEntity
  8
部品1
 62
     7
 48
50.0
100
AcDbLine
 10
9759.858877007641
 20
7250.367691867305
 30
0.0
 11
9759.858877007641
 21
7250.367691867305
 31
0.0
  0
LINE
  5
1DF3F
330
747D
100
AcDbEntity
  8
部品1
 62
     7
 48
50.0
100
AcDbLine
 10
9736.046377007641
 20
7250.367691867305
 30
0.0
 11
9736.046377007641
 21
7250.367691867305
 31
0.0
  0
LINE
  5
1DF40
330
747D
100
AcDbEntity
  8
部品1
 62
     7
 48
50.0
100
AcDbLine
 10
9771.76512700764
 20
7274.180191867305
 30
0.0
 11
9771.76512700764
 21
7274.180191867305
 31
0.0
  0
LINE
  5
1DF41
330
747D
100
AcDbEntity
  8
部品1
 62
     7
 48
50.0
100
AcDbLine
 10
9747.952627007641
 20
7274.180191867305
 30
0.0
 11
9747.952627007641
 21
7274.180191867305
 31
0.0
  0
LINE
  5
1DF42
330
747D
100
AcDbEntity
  8
部品1
 62
     7
 48
50.0
100
AcDbLine
 10
9783.671377007641
 20
7297.992691867304
 30
0.0
 11
9783.671377007641
 21
7297.992691867304
 31
0.0
  0
LINE
  5
1DF43
330
747D
100
AcDbEntity
  8
部品1
 62
     7
 48
50.0
100
AcDbLine
 10
9759.858877007641
 20
7297.992691867304
 30
0.0
 11
9759.858877007641
 21
7297.992691867304
 31
0.0
  0
LINE
  5
1DF44
330
747D
100
AcDbEntity
  8
部品1
 62
     7
 48
50.0
100
AcDbLine
 10
9736.046377007641
 20
7297.992691867304
 30
0.0
 11
9736.046377007641
 21
7297.992691867304
 31
0.0
  0
LINE
  5
1DF45
330
747D
100
AcDbEntity
  8
部品1
 62
     7
 48
50.0
100
AcDbLine
 10
9771.76512700764
 20
7321.805191867304
 30
0.0
 11
9771.76512700764
 21
7321.805191867304
 31
0.0
  0
LINE
  5
1DF46
330
747D
100
AcDbEntity
  8
部品1
 62
     7
 48
50.0
100
AcDbLine
 10
9747.952627007641
 20
7321.805191867304
 30
0.0
 11
9747.952627007641
 21
7321.805191867304
 31
0.0
  0
LINE
  5
1DF47
330
747D
100
AcDbEntity
  8
部品1
 62
     7
 48
50.0
100
AcDbLine
 10
9783.671377007641
 20
7345.617691867305
 30
0.0
 11
9783.671377007641
 21
7345.617691867305
 31
0.0
  0
LINE
  5
1DF48
330
747D
100
AcDbEntity
  8
部品1
 62
     7
 48
50.0
100
AcDbLine
 10
9759.858877007641
 20
7345.617691867305
 30
0.0
 11
9759.858877007641
 21
7345.617691867305
 31
0.0
  0
LINE
  5
1DF49
330
747D
100
AcDbEntity
  8
部品1
 62
     7
 48
50.0
100
AcDbLine
 10
9736.046377007641
 20
7345.617691867305
 30
0.0
 11
9736.046377007641
 21
7345.617691867305
 31
0.0
  0
LINE
  5
1DF4A
330
747D
100
AcDbEntity
  8
部品1
 62
     7
 48
50.0
100
AcDbLine
 10
9771.76512700764
 20
7369.430191867305
 30
0.0
 11
9771.76512700764
 21
7369.430191867305
 31
0.0
  0
LINE
  5
1DF4B
330
747D
100
AcDbEntity
  8
部品1
 62
     7
 48
50.0
100
AcDbLine
 10
9747.952627007641
 20
7369.430191867305
 30
0.0
 11
9747.952627007641
 21
7369.430191867305
 31
0.0
  0
LINE
  5
1DF4C
330
747D
100
AcDbEntity
  8
部品1
 62
     7
 48
50.0
100
AcDbLine
 10
9783.671377007641
 20
7393.242691867304
 30
0.0
 11
9783.671377007641
 21
7393.242691867304
 31
0.0
  0
LINE
  5
1DF4D
330
747D
100
AcDbEntity
  8
部品1
 62
     7
 48
50.0
100
AcDbLine
 10
9759.858877007641
 20
7393.242691867304
 30
0.0
 11
9759.858877007641
 21
7393.242691867304
 31
0.0
  0
LINE
  5
1DF4E
330
747D
100
AcDbEntity
  8
部品1
 62
     7
 48
50.0
100
AcDbLine
 10
9736.046377007641
 20
7393.242691867304
 30
0.0
 11
9736.046377007641
 21
7393.242691867304
 31
0.0
  0
LINE
  5
1DF4F
330
747D
100
AcDbEntity
  8
部品1
 62
     7
 48
50.0
100
AcDbLine
 10
9771.76512700764
 20
7417.055191867304
 30
0.0
 11
9771.76512700764
 21
7417.055191867304
 31
0.0
  0
LINE
  5
1DF50
330
747D
100
AcDbEntity
  8
部品1
 62
     7
 48
50.0
100
AcDbLine
 10
9747.952627007641
 20
7417.055191867304
 30
0.0
 11
9747.952627007641
 21
7417.055191867304
 31
0.0
  0
LINE
  5
1DF51
330
747D
100
AcDbEntity
  8
部品1
 62
     7
 48
50.0
100
AcDbLine
 10
10379.49999999999
 20
7150.955177899423
 30
0.0
 11
10379.49999999999
 21
6950.955177899423
 31
0.0
  0
LINE
  5
1DF52
330
747D
100
AcDbEntity
  8
センター
 62
     7
 48
5.0
100
AcDbLine
 10
10279.49999999999
 20
7195.955177899422
 30
0.0
 11
10279.49999999999
 21
6905.955177899423
 31
0.0
  0
LINE
  5
1DF53
330
747D
100
AcDbEntity
  8
部品1
 62
     7
 48
50.0
100
AcDbLine
 10
10179.49999999999
 20
6950.955177899423
 30
0.0
 11
10179.49999999999
 21
7150.955177899423
 31
0.0
  0
LINE
  5
1DF54
330
747D
100
AcDbEntity
  8
部品1
 62
     7
 48
50.0
100
AcDbLine
 10
10379.49999999999
 20
6950.955177899423
 30
0.0
 11
10179.49999999999
 21
6950.955177899423
 31
0.0
  0
LINE
  5
1DF55
330
747D
100
AcDbEntity
  8
部品1
 62
     7
 48
50.0
100
AcDbLine
 10
10179.49999999999
 20
7150.955177899423
 30
0.0
 11
10379.49999999999
 21
7150.955177899423
 31
0.0
  0
LINE
  5
1DF56
330
747D
100
AcDbEntity
  8
細線
 62
     7
 48
10.0
100
AcDbLine
 10
9783.671377007641
 20
7440.867691867305
 30
0.0
 11
9783.671377007641
 21
7440.867691867305
 31
0.0
  0
LINE
  5
1DF57
330
747D
100
AcDbEntity
  8
部品1
 62
     7
 48
50.0
100
AcDbLine
 10
10379.49999999999
 20
7501.955177899434
 30
0.0
 11
10179.49999999999
 21
7501.955177899434
 31
0.0
  0
LINE
  5
1DF58
330
747D
100
AcDbEntity
  8
部品1
 62
     7
 48
50.0
100
AcDbLine
 10
10179.49999999999
 20
7701.955177899434
 30
0.0
 11
10379.49999999999
 21
7701.955177899434
 31
0.0
  0
LINE
  5
1DF59
330
747D
100
AcDbEntity
  8
部品1
 62
     7
 48
50.0
100
AcDbLine
 10
10179.49999999999
 20
7501.955177899434
 30
0.0
 11
10179.49999999999
 21
7701.955177899434
 31
0.0
  0
LINE
  5
1DF5A
330
747D
100
AcDbEntity
  8
部品1
 62
     7
 48
50.0
100
AcDbLine
 10
10379.49999999999
 20
7701.955177899434
 30
0.0
 11
10379.49999999999
 21
7501.955177899434
 31
0.0
  0
LINE
  5
1DF5B
330
747D
100
AcDbEntity
  8
細線
 62
     7
 48
10.0
100
AcDbLine
 10
10973.5
 20
7440.955177899414
 30
0.0
 11
10973.5
 21
7240.955177899414
 31
0.0
  0
LINE
  5
1DF5C
330
747D
100
AcDbEntity
  8
センター
 62
     7
 48
5.0
100
AcDbLine
 10
10873.5
 20
7485.955177899414
 30
0.0
 11
10873.5
 21
7195.955177899394
 31
0.0
  0
LINE
  5
1DF5D
330
747D
100
AcDbEntity
  8
細線
 62
     7
 48
10.0
100
AcDbLine
 10
10773.5
 20
7240.955177899414
 30
0.0
 11
10773.5
 21
7440.955177899414
 31
0.0
  0
LINE
  5
1DF5E
330
747D
100
AcDbEntity
  8
センター
 62
     7
 48
5.0
100
AcDbLine
 10
11018.5
 20
7340.955177899414
 30
0.0
 11
10728.5
 21
7340.955177899414
 31
0.0
  0
LINE
  5
1DF5F
330
747D
100
AcDbEntity
  8
細線
 62
     7
 48
10.0
100
AcDbLine
 10
10973.5
 20
7240.955177899414
 30
0.0
 11
10773.5
 21
7240.955177899414
 31
0.0
  0
LINE
  5
1DF60
330
747D
100
AcDbEntity
  8
センター
 62
     7
 48
5.0
100
AcDbLine
 10
10728.5
 20
6905.955177899406
 30
0.0
 11
11018.5
 21
6905.955177899406
 31
0.0
  0
LINE
  5
1DF61
330
747D
100
AcDbEntity
  8
細線
 62
     7
 48
10.0
100
AcDbLine
 10
10773.5
 20
7105.955177899407
 30
0.0
 11
10973.5
 21
7105.955177899407
 31
0.0
  0
LINE
  5
1DF62
330
747D
100
AcDbEntity
  8
部品1
 62
     7
 48
50.0
100
AcDbLine
 10
10962.39012700763
 20
6845.555191867305
 30
0.0
 11
10962.39012700763
 21
6845.555191867305
 31
0.0
  0
LINE
  5
1DF63
330
747D
100
AcDbEntity
  8
部品1
 62
     7
 48
50.0
100
AcDbLine
 10
10938.57762700763
 20
6845.555191867305
 30
0.0
 11
10938.57762700763
 21
6845.555191867305
 31
0.0
  0
LINE
  5
1DF64
330
747D
100
AcDbEntity
  8
部品1
 62
     7
 48
50.0
100
AcDbLine
 10
10914.76512700763
 20
6845.555191867305
 30
0.0
 11
10914.76512700763
 21
6845.555191867305
 31
0.0
  0
LINE
  5
1DF65
330
747D
100
AcDbEntity
  8
部品1
 62
     7
 48
50.0
100
AcDbLine
 10
10890.95262700763
 20
6845.555191867305
 30
0.0
 11
10890.95262700763
 21
6845.555191867305
 31
0.0
  0
LINE
  5
1DF66
330
747D
100
AcDbEntity
  8
部品1
 62
     7
 48
50.0
100
AcDbLine
 10
10867.14012700763
 20
6845.555191867305
 30
0.0
 11
10867.14012700763
 21
6845.555191867305
 31
0.0
  0
LINE
  5
1DF67
330
747D
100
AcDbEntity
  8
部品1
 62
     7
 48
50.0
100
AcDbLine
 10
10843.32762700763
 20
6845.555191867305
 30
0.0
 11
10843.32762700763
 21
6845.555191867305
 31
0.0
  0
LINE
  5
1DF68
330
747D
100
AcDbEntity
  8
部品1
 62
     7
 48
50.0
100
AcDbLine
 10
10819.51512700763
 20
6845.555191867305
 30
0.0
 11
10819.51512700763
 21
6845.555191867305
 31
0.0
  0
LINE
  5
1DF69
330
747D
100
AcDbEntity
  8
部品1
 62
     7
 48
50.0
100
AcDbLine
 10
10795.70262700763
 20
6845.555191867305
 30
0.0
 11
10795.70262700763
 21
6845.555191867305
 31
0.0
  0
LINE
  5
1DF6A
330
747D
100
AcDbEntity
  8
部品1
 62
     7
 48
50.0
100
AcDbLine
 10
10950.48387700763
 20
6869.367691867305
 30
0.0
 11
10950.48387700763
 21
6869.367691867305
 31
0.0
  0
LINE
  5
1DF6B
330
747D
100
AcDbEntity
  8
部品1
 62
     7
 48
50.0
100
AcDbLine
 10
10926.67137700763
 20
6869.367691867305
 30
0.0
 11
10926.67137700763
 21
6869.367691867305
 31
0.0
  0
LINE
  5
1DF6C
330
747D
100
AcDbEntity
  8
部品1
 62
     7
 48
50.0
100
AcDbLine
 10
10902.85887700763
 20
6869.367691867305
 30
0.0
 11
10902.85887700763
 21
6869.367691867305
 31
0.0
  0
LINE
  5
1DF6D
330
747D
100
AcDbEntity
  8
部品1
 62
     7
 48
50.0
100
AcDbLine
 10
10879.04637700763
 20
6869.367691867305
 30
0.0
 11
10879.04637700763
 21
6869.367691867305
 31
0.0
  0
LINE
  5
1DF6E
330
747D
100
AcDbEntity
  8
部品1
 62
     7
 48
50.0
100
AcDbLine
 10
10855.23387700763
 20
6869.367691867305
 30
0.0
 11
10855.23387700763
 21
6869.367691867305
 31
0.0
  0
LINE
  5
1DF6F
330
747D
100
AcDbEntity
  8
部品1
 62
     7
 48
50.0
100
AcDbLine
 10
10831.42137700763
 20
6869.367691867305
 30
0.0
 11
10831.42137700763
 21
6869.367691867305
 31
0.0
  0
LINE
  5
1DF70
330
747D
100
AcDbEntity
  8
部品1
 62
     7
 48
50.0
100
AcDbLine
 10
10807.60887700763
 20
6869.367691867305
 30
0.0
 11
10807.60887700763
 21
6869.367691867305
 31
0.0
  0
LINE
  5
1DF71
330
747D
100
AcDbEntity
  8
部品1
 62
     7
 48
50.0
100
AcDbLine
 10
10783.79637700763
 20
6869.367691867305
 30
0.0
 11
10783.79637700763
 21
6869.367691867305
 31
0.0
  0
LINE
  5
1DF72
330
747D
100
AcDbEntity
  8
部品1
 62
     7
 48
50.0
100
AcDbLine
 10
10962.39012700763
 20
6893.180191867305
 30
0.0
 11
10962.39012700763
 21
6893.180191867305
 31
0.0
  0
LINE
  5
1DF73
330
747D
100
AcDbEntity
  8
部品1
 62
     7
 48
50.0
100
AcDbLine
 10
10938.57762700763
 20
6893.180191867305
 30
0.0
 11
10938.57762700763
 21
6893.180191867305
 31
0.0
  0
LINE
  5
1DF74
330
747D
100
AcDbEntity
  8
部品1
 62
     7
 48
50.0
100
AcDbLine
 10
10914.76512700763
 20
6893.180191867305
 30
0.0
 11
10914.76512700763
 21
6893.180191867305
 31
0.0
  0
LINE
  5
1DF75
330
747D
100
AcDbEntity
  8
部品1
 62
     7
 48
50.0
100
AcDbLine
 10
10890.95262700763
 20
6893.180191867305
 30
0.0
 11
10890.95262700763
 21
6893.180191867305
 31
0.0
  0
LINE
  5
1DF76
330
747D
100
AcDbEntity
  8
部品1
 62
     7
 48
50.0
100
AcDbLine
 10
10867.14012700763
 20
6893.180191867305
 30
0.0
 11
10867.14012700763
 21
6893.180191867305
 31
0.0
  0
LINE
  5
1DF77
330
747D
100
AcDbEntity
  8
部品1
 62
     7
 48
50.0
100
AcDbLine
 10
10843.32762700763
 20
6893.180191867305
 30
0.0
 11
10843.32762700763
 21
6893.180191867305
 31
0.0
  0
LINE
  5
1DF78
330
747D
100
AcDbEntity
  8
部品1
 62
     7
 48
50.0
100
AcDbLine
 10
10819.51512700763
 20
6893.180191867305
 30
0.0
 11
10819.51512700763
 21
6893.180191867305
 31
0.0
  0
LINE
  5
1DF79
330
747D
100
AcDbEntity
  8
部品1
 62
     7
 48
50.0
100
AcDbLine
 10
10795.70262700763
 20
6893.180191867305
 30
0.0
 11
10795.70262700763
 21
6893.180191867305
 31
0.0
  0
LINE
  5
1DF7A
330
747D
100
AcDbEntity
  8
部品1
 62
     7
 48
50.0
100
AcDbLine
 10
10950.48387700763
 20
6916.992691867304
 30
0.0
 11
10950.48387700763
 21
6916.992691867304
 31
0.0
  0
LINE
  5
1DF7B
330
747D
100
AcDbEntity
  8
部品1
 62
     7
 48
50.0
100
AcDbLine
 10
10926.67137700763
 20
6916.992691867304
 30
0.0
 11
10926.67137700763
 21
6916.992691867304
 31
0.0
  0
LINE
  5
1DF7C
330
747D
100
AcDbEntity
  8
部品1
 62
     7
 48
50.0
100
AcDbLine
 10
10902.85887700763
 20
6916.992691867304
 30
0.0
 11
10902.85887700763
 21
6916.992691867304
 31
0.0
  0
LINE
  5
1DF7D
330
747D
100
AcDbEntity
  8
部品1
 62
     7
 48
50.0
100
AcDbLine
 10
10879.04637700763
 20
6916.992691867304
 30
0.0
 11
10879.04637700763
 21
6916.992691867304
 31
0.0
  0
LINE
  5
1DF7E
330
747D
100
AcDbEntity
  8
部品1
 62
     7
 48
50.0
100
AcDbLine
 10
10855.23387700763
 20
6916.992691867304
 30
0.0
 11
10855.23387700763
 21
6916.992691867304
 31
0.0
  0
LINE
  5
1DF7F
330
747D
100
AcDbEntity
  8
部品1
 62
     7
 48
50.0
100
AcDbLine
 10
10831.42137700763
 20
6916.992691867304
 30
0.0
 11
10831.42137700763
 21
6916.992691867304
 31
0.0
  0
LINE
  5
1DF80
330
747D
100
AcDbEntity
  8
部品1
 62
     7
 48
50.0
100
AcDbLine
 10
10807.60887700763
 20
6916.992691867304
 30
0.0
 11
10807.60887700763
 21
6916.992691867304
 31
0.0
  0
LINE
  5
1DF81
330
747D
100
AcDbEntity
  8
部品1
 62
     7
 48
50.0
100
AcDbLine
 10
10783.79637700763
 20
6916.992691867304
 30
0.0
 11
10783.79637700763
 21
6916.992691867304
 31
0.0
  0
LINE
  5
1DF82
330
747D
100
AcDbEntity
  8
部品1
 62
     7
 48
50.0
100
AcDbLine
 10
10962.39012700763
 20
6940.805191867305
 30
0.0
 11
10962.39012700763
 21
6940.805191867305
 31
0.0
  0
LINE
  5
1DF83
330
747D
100
AcDbEntity
  8
部品1
 62
     7
 48
50.0
100
AcDbLine
 10
10938.57762700763
 20
6940.805191867305
 30
0.0
 11
10938.57762700763
 21
6940.805191867305
 31
0.0
  0
LINE
  5
1DF84
330
747D
100
AcDbEntity
  8
部品1
 62
     7
 48
50.0
100
AcDbLine
 10
10914.76512700763
 20
6940.805191867305
 30
0.0
 11
10914.76512700763
 21
6940.805191867305
 31
0.0
  0
LINE
  5
1DF85
330
747D
100
AcDbEntity
  8
部品1
 62
     7
 48
50.0
100
AcDbLine
 10
10890.95262700763
 20
6940.805191867305
 30
0.0
 11
10890.95262700763
 21
6940.805191867305
 31
0.0
  0
LINE
  5
1DF86
330
747D
100
AcDbEntity
  8
部品1
 62
     7
 48
50.0
100
AcDbLine
 10
10867.14012700763
 20
6940.805191867305
 30
0.0
 11
10867.14012700763
 21
6940.805191867305
 31
0.0
  0
LINE
  5
1DF87
330
747D
100
AcDbEntity
  8
部品1
 62
     7
 48
50.0
100
AcDbLine
 10
10843.32762700763
 20
6940.805191867305
 30
0.0
 11
10843.32762700763
 21
6940.805191867305
 31
0.0
  0
LINE
  5
1DF88
330
747D
100
AcDbEntity
  8
部品1
 62
     7
 48
50.0
100
AcDbLine
 10
10819.51512700763
 20
6940.805191867305
 30
0.0
 11
10819.51512700763
 21
6940.805191867305
 31
0.0
  0
LINE
  5
1DF89
330
747D
100
AcDbEntity
  8
部品1
 62
     7
 48
50.0
100
AcDbLine
 10
10795.70262700763
 20
6940.805191867305
 30
0.0
 11
10795.70262700763
 21
6940.805191867305
 31
0.0
  0
LINE
  5
1DF8A
330
747D
100
AcDbEntity
  8
部品1
 62
     7
 48
50.0
100
AcDbLine
 10
10950.48387700763
 20
6964.617691867305
 30
0.0
 11
10950.48387700763
 21
6964.617691867305
 31
0.0
  0
LINE
  5
1DF8B
330
747D
100
AcDbEntity
  8
部品1
 62
     7
 48
50.0
100
AcDbLine
 10
10926.67137700763
 20
6964.617691867305
 30
0.0
 11
10926.67137700763
 21
6964.617691867305
 31
0.0
  0
LINE
  5
1DF8C
330
747D
100
AcDbEntity
  8
部品1
 62
     7
 48
50.0
100
AcDbLine
 10
10902.85887700763
 20
6964.617691867305
 30
0.0
 11
10902.85887700763
 21
6964.617691867305
 31
0.0
  0
LINE
  5
1DF8D
330
747D
100
AcDbEntity
  8
部品1
 62
     7
 48
50.0
100
AcDbLine
 10
10879.04637700763
 20
6964.617691867305
 30
0.0
 11
10879.04637700763
 21
6964.617691867305
 31
0.0
  0
LINE
  5
1DF8E
330
747D
100
AcDbEntity
  8
部品1
 62
     7
 48
50.0
100
AcDbLine
 10
10855.23387700763
 20
6964.617691867305
 30
0.0
 11
10855.23387700763
 21
6964.617691867305
 31
0.0
  0
LINE
  5
1DF8F
330
747D
100
AcDbEntity
  8
部品1
 62
     7
 48
50.0
100
AcDbLine
 10
10831.42137700763
 20
6964.617691867305
 30
0.0
 11
10831.42137700763
 21
6964.617691867305
 31
0.0
  0
LINE
  5
1DF90
330
747D
100
AcDbEntity
  8
部品1
 62
     7
 48
50.0
100
AcDbLine
 10
10807.60887700763
 20
6964.617691867305
 30
0.0
 11
10807.60887700763
 21
6964.617691867305
 31
0.0
  0
LINE
  5
1DF91
330
747D
100
AcDbEntity
  8
部品1
 62
     7
 48
50.0
100
AcDbLine
 10
10783.79637700763
 20
6964.617691867305
 30
0.0
 11
10783.79637700763
 21
6964.617691867305
 31
0.0
  0
LINE
  5
1DF92
330
747D
100
AcDbEntity
  8
部品1
 62
     7
 48
50.0
100
AcDbLine
 10
10962.39012700763
 20
6988.430191867305
 30
0.0
 11
10962.39012700763
 21
6988.430191867305
 31
0.0
  0
LINE
  5
1DF93
330
747D
100
AcDbEntity
  8
部品1
 62
     7
 48
50.0
100
AcDbLine
 10
10938.57762700763
 20
6988.430191867305
 30
0.0
 11
10938.57762700763
 21
6988.430191867305
 31
0.0
  0
LINE
  5
1DF94
330
747D
100
AcDbEntity
  8
部品1
 62
     7
 48
50.0
100
AcDbLine
 10
10914.76512700763
 20
6988.430191867305
 30
0.0
 11
10914.76512700763
 21
6988.430191867305
 31
0.0
  0
LINE
  5
1DF95
330
747D
100
AcDbEntity
  8
部品1
 62
     7
 48
50.0
100
AcDbLine
 10
10890.95262700763
 20
6988.430191867305
 30
0.0
 11
10890.95262700763
 21
6988.430191867305
 31
0.0
  0
LINE
  5
1DF96
330
747D
100
AcDbEntity
  8
部品1
 62
     7
 48
50.0
100
AcDbLine
 10
10867.14012700763
 20
6988.430191867305
 30
0.0
 11
10867.14012700763
 21
6988.430191867305
 31
0.0
  0
LINE
  5
1DF97
330
747D
100
AcDbEntity
  8
部品1
 62
     7
 48
50.0
100
AcDbLine
 10
10843.32762700763
 20
6988.430191867305
 30
0.0
 11
10843.32762700763
 21
6988.430191867305
 31
0.0
  0
LINE
  5
1DF98
330
747D
100
AcDbEntity
  8
部品1
 62
     7
 48
50.0
100
AcDbLine
 10
10819.51512700763
 20
6988.430191867305
 30
0.0
 11
10819.51512700763
 21
6988.430191867305
 31
0.0
  0
LINE
  5
1DF99
330
747D
100
AcDbEntity
  8
部品1
 62
     7
 48
50.0
100
AcDbLine
 10
10795.70262700763
 20
6988.430191867305
 30
0.0
 11
10795.70262700763
 21
6988.430191867305
 31
0.0
  0
LINE
  5
1DF9A
330
747D
100
AcDbEntity
  8
部品1
 62
     7
 48
50.0
100
AcDbLine
 10
10950.48387700763
 20
7012.242691867304
 30
0.0
 11
10950.48387700763
 21
7012.242691867304
 31
0.0
  0
LINE
  5
1DF9B
330
747D
100
AcDbEntity
  8
部品1
 62
     7
 48
50.0
100
AcDbLine
 10
10926.67137700763
 20
7012.242691867304
 30
0.0
 11
10926.67137700763
 21
7012.242691867304
 31
0.0
  0
LINE
  5
1DF9C
330
747D
100
AcDbEntity
  8
部品1
 62
     7
 48
50.0
100
AcDbLine
 10
10902.85887700763
 20
7012.242691867304
 30
0.0
 11
10902.85887700763
 21
7012.242691867304
 31
0.0
  0
LINE
  5
1DF9D
330
747D
100
AcDbEntity
  8
部品1
 62
     7
 48
50.0
100
AcDbLine
 10
10879.04637700763
 20
7012.242691867304
 30
0.0
 11
10879.04637700763
 21
7012.242691867304
 31
0.0
  0
LINE
  5
1DF9E
330
747D
100
AcDbEntity
  8
部品1
 62
     7
 48
50.0
100
AcDbLine
 10
10855.23387700763
 20
7012.242691867304
 30
0.0
 11
10855.23387700763
 21
7012.242691867304
 31
0.0
  0
LINE
  5
1DF9F
330
747D
100
AcDbEntity
  8
部品1
 62
     7
 48
50.0
100
AcDbLine
 10
10831.42137700763
 20
7012.242691867304
 30
0.0
 11
10831.42137700763
 21
7012.242691867304
 31
0.0
  0
LINE
  5
1DFA0
330
747D
100
AcDbEntity
  8
部品1
 62
     7
 48
50.0
100
AcDbLine
 10
10807.60887700763
 20
7012.242691867304
 30
0.0
 11
10807.60887700763
 21
7012.242691867304
 31
0.0
  0
LINE
  5
1DFA1
330
747D
100
AcDbEntity
  8
部品1
 62
     7
 48
50.0
100
AcDbLine
 10
10783.79637700763
 20
7012.242691867304
 30
0.0
 11
10783.79637700763
 21
7012.242691867304
 31
0.0
  0
LINE
  5
1DFA2
330
747D
100
AcDbEntity
  8
部品1
 62
     7
 48
50.0
100
AcDbLine
 10
10962.39012700763
 20
7036.055191867305
 30
0.0
 11
10962.39012700763
 21
7036.055191867305
 31
0.0
  0
LINE
  5
1DFA3
330
747D
100
AcDbEntity
  8
部品1
 62
     7
 48
50.0
100
AcDbLine
 10
10938.57762700763
 20
7036.055191867305
 30
0.0
 11
10938.57762700763
 21
7036.055191867305
 31
0.0
  0
LINE
  5
1DFA4
330
747D
100
AcDbEntity
  8
部品1
 62
     7
 48
50.0
100
AcDbLine
 10
10914.76512700763
 20
7036.055191867305
 30
0.0
 11
10914.76512700763
 21
7036.055191867305
 31
0.0
  0
LINE
  5
1DFA5
330
747D
100
AcDbEntity
  8
部品1
 62
     7
 48
50.0
100
AcDbLine
 10
10890.95262700763
 20
7036.055191867305
 30
0.0
 11
10890.95262700763
 21
7036.055191867305
 31
0.0
  0
LINE
  5
1DFA6
330
747D
100
AcDbEntity
  8
部品1
 62
     7
 48
50.0
100
AcDbLine
 10
10867.14012700763
 20
7036.055191867305
 30
0.0
 11
10867.14012700763
 21
7036.055191867305
 31
0.0
  0
LINE
  5
1DFA7
330
747D
100
AcDbEntity
  8
部品1
 62
     7
 48
50.0
100
AcDbLine
 10
10843.32762700763
 20
7036.055191867305
 30
0.0
 11
10843.32762700763
 21
7036.055191867305
 31
0.0
  0
LINE
  5
1DFA8
330
747D
100
AcDbEntity
  8
部品1
 62
     7
 48
50.0
100
AcDbLine
 10
10819.51512700763
 20
7036.055191867305
 30
0.0
 11
10819.51512700763
 21
7036.055191867305
 31
0.0
  0
LINE
  5
1DFA9
330
747D
100
AcDbEntity
  8
部品1
 62
     7
 48
50.0
100
AcDbLine
 10
10795.70262700763
 20
7036.055191867305
 30
0.0
 11
10795.70262700763
 21
7036.055191867305
 31
0.0
  0
LINE
  5
1DFAA
330
747D
100
AcDbEntity
  8
部品1
 62
     7
 48
50.0
100
AcDbLine
 10
10950.48387700763
 20
7059.867691867305
 30
0.0
 11
10950.48387700763
 21
7059.867691867305
 31
0.0
  0
LINE
  5
1DFAB
330
747D
100
AcDbEntity
  8
部品1
 62
     7
 48
50.0
100
AcDbLine
 10
10926.67137700763
 20
7059.867691867305
 30
0.0
 11
10926.67137700763
 21
7059.867691867305
 31
0.0
  0
LINE
  5
1DFAC
330
747D
100
AcDbEntity
  8
部品1
 62
     7
 48
50.0
100
AcDbLine
 10
10902.85887700763
 20
7059.867691867305
 30
0.0
 11
10902.85887700763
 21
7059.867691867305
 31
0.0
  0
LINE
  5
1DFAD
330
747D
100
AcDbEntity
  8
部品1
 62
     7
 48
50.0
100
AcDbLine
 10
10879.04637700763
 20
7059.867691867305
 30
0.0
 11
10879.04637700763
 21
7059.867691867305
 31
0.0
  0
LINE
  5
1DFAE
330
747D
100
AcDbEntity
  8
部品1
 62
     7
 48
50.0
100
AcDbLine
 10
10855.23387700763
 20
7059.867691867305
 30
0.0
 11
10855.23387700763
 21
7059.867691867305
 31
0.0
  0
LINE
  5
1DFAF
330
747D
100
AcDbEntity
  8
部品1
 62
     7
 48
50.0
100
AcDbLine
 10
10831.42137700763
 20
7059.867691867305
 30
0.0
 11
10831.42137700763
 21
7059.867691867305
 31
0.0
  0
LINE
  5
1DFB0
330
747D
100
AcDbEntity
  8
部品1
 62
     7
 48
50.0
100
AcDbLine
 10
10807.60887700763
 20
7059.867691867305
 30
0.0
 11
10807.60887700763
 21
7059.867691867305
 31
0.0
  0
LINE
  5
1DFB1
330
747D
100
AcDbEntity
  8
部品1
 62
     7
 48
50.0
100
AcDbLine
 10
10783.79637700763
 20
7059.867691867305
 30
0.0
 11
10783.79637700763
 21
7059.867691867305
 31
0.0
  0
LINE
  5
1DFB2
330
747D
100
AcDbEntity
  8
部品1
 62
     7
 48
50.0
100
AcDbLine
 10
10962.39012700763
 20
7083.680191867305
 30
0.0
 11
10962.39012700763
 21
7083.680191867305
 31
0.0
  0
LINE
  5
1DFB3
330
747D
100
AcDbEntity
  8
部品1
 62
     7
 48
50.0
100
AcDbLine
 10
10938.57762700763
 20
7083.680191867305
 30
0.0
 11
10938.57762700763
 21
7083.680191867305
 31
0.0
  0
LINE
  5
1DFB4
330
747D
100
AcDbEntity
  8
部品1
 62
     7
 48
50.0
100
AcDbLine
 10
10914.76512700763
 20
7083.680191867305
 30
0.0
 11
10914.76512700763
 21
7083.680191867305
 31
0.0
  0
LINE
  5
1DFB5
330
747D
100
AcDbEntity
  8
部品1
 62
     7
 48
50.0
100
AcDbLine
 10
10890.95262700763
 20
7083.680191867305
 30
0.0
 11
10890.95262700763
 21
7083.680191867305
 31
0.0
  0
LINE
  5
1DFB6
330
747D
100
AcDbEntity
  8
部品1
 62
     7
 48
50.0
100
AcDbLine
 10
10867.14012700763
 20
7083.680191867305
 30
0.0
 11
10867.14012700763
 21
7083.680191867305
 31
0.0
  0
LINE
  5
1DFB7
330
747D
100
AcDbEntity
  8
部品1
 62
     7
 48
50.0
100
AcDbLine
 10
10843.32762700763
 20
7083.680191867305
 30
0.0
 11
10843.32762700763
 21
7083.680191867305
 31
0.0
  0
LINE
  5
1DFB8
330
747D
100
AcDbEntity
  8
部品1
 62
     7
 48
50.0
100
AcDbLine
 10
10819.51512700763
 20
7083.680191867305
 30
0.0
 11
10819.51512700763
 21
7083.680191867305
 31
0.0
  0
LINE
  5
1DFB9
330
747D
100
AcDbEntity
  8
部品1
 62
     7
 48
50.0
100
AcDbLine
 10
10795.70262700763
 20
7083.680191867305
 30
0.0
 11
10795.70262700763
 21
7083.680191867305
 31
0.0
  0
LINE
  5
1DFBA
330
747D
100
AcDbEntity
  8
部品1
 62
     7
 48
50.0
100
AcDbLine
 10
10855.23387700763
 20
7250.367691867305
 30
0.0
 11
10855.23387700763
 21
7250.367691867305
 31
0.0
  0
LINE
  5
1DFBB
330
747D
100
AcDbEntity
  8
部品1
 62
     7
 48
50.0
100
AcDbLine
 10
10831.42137700763
 20
7250.367691867305
 30
0.0
 11
10831.42137700763
 21
7250.367691867305
 31
0.0
  0
LINE
  5
1DFBC
330
747D
100
AcDbEntity
  8
部品1
 62
     7
 48
50.0
100
AcDbLine
 10
10807.60887700763
 20
7250.367691867305
 30
0.0
 11
10807.60887700763
 21
7250.367691867305
 31
0.0
  0
LINE
  5
1DFBD
330
747D
100
AcDbEntity
  8
部品1
 62
     7
 48
50.0
100
AcDbLine
 10
10783.79637700763
 20
7250.367691867305
 30
0.0
 11
10783.79637700763
 21
7250.367691867305
 31
0.0
  0
LINE
  5
1DFBE
330
747D
100
AcDbEntity
  8
部品1
 62
     7
 48
50.0
100
AcDbLine
 10
10950.48387700763
 20
7250.367691867305
 30
0.0
 11
10950.48387700763
 21
7250.367691867305
 31
0.0
  0
LINE
  5
1DFBF
330
747D
100
AcDbEntity
  8
部品1
 62
     7
 48
50.0
100
AcDbLine
 10
10926.67137700763
 20
7250.367691867305
 30
0.0
 11
10926.67137700763
 21
7250.367691867305
 31
0.0
  0
LINE
  5
1DFC0
330
747D
100
AcDbEntity
  8
部品1
 62
     7
 48
50.0
100
AcDbLine
 10
10902.85887700763
 20
7250.367691867305
 30
0.0
 11
10902.85887700763
 21
7250.367691867305
 31
0.0
  0
LINE
  5
1DFC1
330
747D
100
AcDbEntity
  8
部品1
 62
     7
 48
50.0
100
AcDbLine
 10
10879.04637700763
 20
7250.367691867305
 30
0.0
 11
10879.04637700763
 21
7250.367691867305
 31
0.0
  0
LINE
  5
1DFC2
330
747D
100
AcDbEntity
  8
部品1
 62
     7
 48
50.0
100
AcDbLine
 10
10867.14012700763
 20
7274.180191867305
 30
0.0
 11
10867.14012700763
 21
7274.180191867305
 31
0.0
  0
LINE
  5
1DFC3
330
747D
100
AcDbEntity
  8
部品1
 62
     7
 48
50.0
100
AcDbLine
 10
10843.32762700763
 20
7274.180191867305
 30
0.0
 11
10843.32762700763
 21
7274.180191867305
 31
0.0
  0
LINE
  5
1DFC4
330
747D
100
AcDbEntity
  8
部品1
 62
     7
 48
50.0
100
AcDbLine
 10
10819.51512700763
 20
7274.180191867305
 30
0.0
 11
10819.51512700763
 21
7274.180191867305
 31
0.0
  0
LINE
  5
1DFC5
330
747D
100
AcDbEntity
  8
部品1
 62
     7
 48
50.0
100
AcDbLine
 10
10795.70262700763
 20
7274.180191867305
 30
0.0
 11
10795.70262700763
 21
7274.180191867305
 31
0.0
  0
LINE
  5
1DFC6
330
747D
100
AcDbEntity
  8
部品1
 62
     7
 48
50.0
100
AcDbLine
 10
10962.39012700763
 20
7274.180191867305
 30
0.0
 11
10962.39012700763
 21
7274.180191867305
 31
0.0
  0
LINE
  5
1DFC7
330
747D
100
AcDbEntity
  8
部品1
 62
     7
 48
50.0
100
AcDbLine
 10
10938.57762700763
 20
7274.180191867305
 30
0.0
 11
10938.57762700763
 21
7274.180191867305
 31
0.0
  0
LINE
  5
1DFC8
330
747D
100
AcDbEntity
  8
部品1
 62
     7
 48
50.0
100
AcDbLine
 10
10914.76512700763
 20
7274.180191867305
 30
0.0
 11
10914.76512700763
 21
7274.180191867305
 31
0.0
  0
LINE
  5
1DFC9
330
747D
100
AcDbEntity
  8
部品1
 62
     7
 48
50.0
100
AcDbLine
 10
10890.95262700763
 20
7274.180191867305
 30
0.0
 11
10890.95262700763
 21
7274.180191867305
 31
0.0
  0
LINE
  5
1DFCA
330
747D
100
AcDbEntity
  8
部品1
 62
     7
 48
50.0
100
AcDbLine
 10
10855.23387700763
 20
7297.992691867304
 30
0.0
 11
10855.23387700763
 21
7297.992691867304
 31
0.0
  0
LINE
  5
1DFCB
330
747D
100
AcDbEntity
  8
部品1
 62
     7
 48
50.0
100
AcDbLine
 10
10831.42137700763
 20
7297.992691867304
 30
0.0
 11
10831.42137700763
 21
7297.992691867304
 31
0.0
  0
LINE
  5
1DFCC
330
747D
100
AcDbEntity
  8
部品1
 62
     7
 48
50.0
100
AcDbLine
 10
10807.60887700763
 20
7297.992691867304
 30
0.0
 11
10807.60887700763
 21
7297.992691867304
 31
0.0
  0
LINE
  5
1DFCD
330
747D
100
AcDbEntity
  8
部品1
 62
     7
 48
50.0
100
AcDbLine
 10
10783.79637700763
 20
7297.992691867304
 30
0.0
 11
10783.79637700763
 21
7297.992691867304
 31
0.0
  0
LINE
  5
1DFCE
330
747D
100
AcDbEntity
  8
部品1
 62
     7
 48
50.0
100
AcDbLine
 10
10950.48387700763
 20
7297.992691867304
 30
0.0
 11
10950.48387700763
 21
7297.992691867304
 31
0.0
  0
LINE
  5
1DFCF
330
747D
100
AcDbEntity
  8
部品1
 62
     7
 48
50.0
100
AcDbLine
 10
10926.67137700763
 20
7297.992691867304
 30
0.0
 11
10926.67137700763
 21
7297.992691867304
 31
0.0
  0
LINE
  5
1DFD0
330
747D
100
AcDbEntity
  8
部品1
 62
     7
 48
50.0
100
AcDbLine
 10
10902.85887700763
 20
7297.992691867304
 30
0.0
 11
10902.85887700763
 21
7297.992691867304
 31
0.0
  0
LINE
  5
1DFD1
330
747D
100
AcDbEntity
  8
部品1
 62
     7
 48
50.0
100
AcDbLine
 10
10879.04637700763
 20
7297.992691867304
 30
0.0
 11
10879.04637700763
 21
7297.992691867304
 31
0.0
  0
LINE
  5
1DFD2
330
747D
100
AcDbEntity
  8
部品1
 62
     7
 48
50.0
100
AcDbLine
 10
10867.14012700763
 20
7321.805191867304
 30
0.0
 11
10867.14012700763
 21
7321.805191867304
 31
0.0
  0
LINE
  5
1DFD3
330
747D
100
AcDbEntity
  8
部品1
 62
     7
 48
50.0
100
AcDbLine
 10
10843.32762700763
 20
7321.805191867304
 30
0.0
 11
10843.32762700763
 21
7321.805191867304
 31
0.0
  0
LINE
  5
1DFD4
330
747D
100
AcDbEntity
  8
部品1
 62
     7
 48
50.0
100
AcDbLine
 10
10819.51512700763
 20
7321.805191867304
 30
0.0
 11
10819.51512700763
 21
7321.805191867304
 31
0.0
  0
LINE
  5
1DFD5
330
747D
100
AcDbEntity
  8
部品1
 62
     7
 48
50.0
100
AcDbLine
 10
10795.70262700763
 20
7321.805191867304
 30
0.0
 11
10795.70262700763
 21
7321.805191867304
 31
0.0
  0
LINE
  5
1DFD6
330
747D
100
AcDbEntity
  8
部品1
 62
     7
 48
50.0
100
AcDbLine
 10
10962.39012700763
 20
7321.805191867304
 30
0.0
 11
10962.39012700763
 21
7321.805191867304
 31
0.0
  0
LINE
  5
1DFD7
330
747D
100
AcDbEntity
  8
部品1
 62
     7
 48
50.0
100
AcDbLine
 10
10938.57762700763
 20
7321.805191867304
 30
0.0
 11
10938.57762700763
 21
7321.805191867304
 31
0.0
  0
LINE
  5
1DFD8
330
747D
100
AcDbEntity
  8
部品1
 62
     7
 48
50.0
100
AcDbLine
 10
10914.76512700763
 20
7321.805191867304
 30
0.0
 11
10914.76512700763
 21
7321.805191867304
 31
0.0
  0
LINE
  5
1DFD9
330
747D
100
AcDbEntity
  8
部品1
 62
     7
 48
50.0
100
AcDbLine
 10
10890.95262700763
 20
7321.805191867304
 30
0.0
 11
10890.95262700763
 21
7321.805191867304
 31
0.0
  0
LINE
  5
1DFDA
330
747D
100
AcDbEntity
  8
部品1
 62
     7
 48
50.0
100
AcDbLine
 10
10855.23387700763
 20
7345.617691867305
 30
0.0
 11
10855.23387700763
 21
7345.617691867305
 31
0.0
  0
LINE
  5
1DFDB
330
747D
100
AcDbEntity
  8
部品1
 62
     7
 48
50.0
100
AcDbLine
 10
10831.42137700763
 20
7345.617691867305
 30
0.0
 11
10831.42137700763
 21
7345.617691867305
 31
0.0
  0
LINE
  5
1DFDC
330
747D
100
AcDbEntity
  8
部品1
 62
     7
 48
50.0
100
AcDbLine
 10
10807.60887700763
 20
7345.617691867305
 30
0.0
 11
10807.60887700763
 21
7345.617691867305
 31
0.0
  0
LINE
  5
1DFDD
330
747D
100
AcDbEntity
  8
部品1
 62
     7
 48
50.0
100
AcDbLine
 10
10783.79637700763
 20
7345.617691867305
 30
0.0
 11
10783.79637700763
 21
7345.617691867305
 31
0.0
  0
LINE
  5
1DFDE
330
747D
100
AcDbEntity
  8
部品1
 62
     7
 48
50.0
100
AcDbLine
 10
10950.48387700763
 20
7345.617691867305
 30
0.0
 11
10950.48387700763
 21
7345.617691867305
 31
0.0
  0
LINE
  5
1DFDF
330
747D
100
AcDbEntity
  8
部品1
 62
     7
 48
50.0
100
AcDbLine
 10
10926.67137700763
 20
7345.617691867305
 30
0.0
 11
10926.67137700763
 21
7345.617691867305
 31
0.0
  0
LINE
  5
1DFE0
330
747D
100
AcDbEntity
  8
部品1
 62
     7
 48
50.0
100
AcDbLine
 10
10902.85887700763
 20
7345.617691867305
 30
0.0
 11
10902.85887700763
 21
7345.617691867305
 31
0.0
  0
LINE
  5
1DFE1
330
747D
100
AcDbEntity
  8
部品1
 62
     7
 48
50.0
100
AcDbLine
 10
10879.04637700763
 20
7345.617691867305
 30
0.0
 11
10879.04637700763
 21
7345.617691867305
 31
0.0
  0
LINE
  5
1DFE2
330
747D
100
AcDbEntity
  8
部品1
 62
     7
 48
50.0
100
AcDbLine
 10
10867.14012700763
 20
7369.430191867305
 30
0.0
 11
10867.14012700763
 21
7369.430191867305
 31
0.0
  0
LINE
  5
1DFE3
330
747D
100
AcDbEntity
  8
部品1
 62
     7
 48
50.0
100
AcDbLine
 10
10843.32762700763
 20
7369.430191867305
 30
0.0
 11
10843.32762700763
 21
7369.430191867305
 31
0.0
  0
LINE
  5
1DFE4
330
747D
100
AcDbEntity
  8
部品1
 62
     7
 48
50.0
100
AcDbLine
 10
10819.51512700763
 20
7369.430191867305
 30
0.0
 11
10819.51512700763
 21
7369.430191867305
 31
0.0
  0
LINE
  5
1DFE5
330
747D
100
AcDbEntity
  8
部品1
 62
     7
 48
50.0
100
AcDbLine
 10
10795.70262700763
 20
7369.430191867305
 30
0.0
 11
10795.70262700763
 21
7369.430191867305
 31
0.0
  0
LINE
  5
1DFE6
330
747D
100
AcDbEntity
  8
部品1
 62
     7
 48
50.0
100
AcDbLine
 10
10962.39012700763
 20
7369.430191867305
 30
0.0
 11
10962.39012700763
 21
7369.430191867305
 31
0.0
  0
LINE
  5
1DFE7
330
747D
100
AcDbEntity
  8
部品1
 62
     7
 48
50.0
100
AcDbLine
 10
10938.57762700763
 20
7369.430191867305
 30
0.0
 11
10938.57762700763
 21
7369.430191867305
 31
0.0
  0
LINE
  5
1DFE8
330
747D
100
AcDbEntity
  8
部品1
 62
     7
 48
50.0
100
AcDbLine
 10
10914.76512700763
 20
7369.430191867305
 30
0.0
 11
10914.76512700763
 21
7369.430191867305
 31
0.0
  0
LINE
  5
1DFE9
330
747D
100
AcDbEntity
  8
部品1
 62
     7
 48
50.0
100
AcDbLine
 10
10890.95262700763
 20
7369.430191867305
 30
0.0
 11
10890.95262700763
 21
7369.430191867305
 31
0.0
  0
LINE
  5
1DFEA
330
747D
100
AcDbEntity
  8
部品1
 62
     7
 48
50.0
100
AcDbLine
 10
10855.23387700763
 20
7393.242691867304
 30
0.0
 11
10855.23387700763
 21
7393.242691867304
 31
0.0
  0
LINE
  5
1DFEB
330
747D
100
AcDbEntity
  8
部品1
 62
     7
 48
50.0
100
AcDbLine
 10
10831.42137700763
 20
7393.242691867304
 30
0.0
 11
10831.42137700763
 21
7393.242691867304
 31
0.0
  0
LINE
  5
1DFEC
330
747D
100
AcDbEntity
  8
部品1
 62
     7
 48
50.0
100
AcDbLine
 10
10807.60887700763
 20
7393.242691867304
 30
0.0
 11
10807.60887700763
 21
7393.242691867304
 31
0.0
  0
LINE
  5
1DFED
330
747D
100
AcDbEntity
  8
部品1
 62
     7
 48
50.0
100
AcDbLine
 10
10783.79637700763
 20
7393.242691867304
 30
0.0
 11
10783.79637700763
 21
7393.242691867304
 31
0.0
  0
LINE
  5
1DFEE
330
747D
100
AcDbEntity
  8
部品1
 62
     7
 48
50.0
100
AcDbLine
 10
10950.48387700763
 20
7393.242691867304
 30
0.0
 11
10950.48387700763
 21
7393.242691867304
 31
0.0
  0
LINE
  5
1DFEF
330
747D
100
AcDbEntity
  8
部品1
 62
     7
 48
50.0
100
AcDbLine
 10
10926.67137700763
 20
7393.242691867304
 30
0.0
 11
10926.67137700763
 21
7393.242691867304
 31
0.0
  0
LINE
  5
1DFF0
330
747D
100
AcDbEntity
  8
部品1
 62
     7
 48
50.0
100
AcDbLine
 10
10902.85887700763
 20
7393.242691867304
 30
0.0
 11
10902.85887700763
 21
7393.242691867304
 31
0.0
  0
LINE
  5
1DFF1
330
747D
100
AcDbEntity
  8
部品1
 62
     7
 48
50.0
100
AcDbLine
 10
10879.04637700763
 20
7393.242691867304
 30
0.0
 11
10879.04637700763
 21
7393.242691867304
 31
0.0
  0
LINE
  5
1DFF2
330
747D
100
AcDbEntity
  8
部品1
 62
     7
 48
50.0
100
AcDbLine
 10
10867.14012700763
 20
7417.055191867304
 30
0.0
 11
10867.14012700763
 21
7417.055191867304
 31
0.0
  0
LINE
  5
1DFF3
330
747D
100
AcDbEntity
  8
部品1
 62
     7
 48
50.0
100
AcDbLine
 10
10843.32762700763
 20
7417.055191867304
 30
0.0
 11
10843.32762700763
 21
7417.055191867304
 31
0.0
  0
LINE
  5
1DFF4
330
747D
100
AcDbEntity
  8
部品1
 62
     7
 48
50.0
100
AcDbLine
 10
10819.51512700763
 20
7417.055191867304
 30
0.0
 11
10819.51512700763
 21
7417.055191867304
 31
0.0
  0
LINE
  5
1DFF5
330
747D
100
AcDbEntity
  8
部品1
 62
     7
 48
50.0
100
AcDbLine
 10
10795.70262700763
 20
7417.055191867304
 30
0.0
 11
10795.70262700763
 21
7417.055191867304
 31
0.0
  0
LINE
  5
1DFF6
330
747D
100
AcDbEntity
  8
部品1
 62
     7
 48
50.0
100
AcDbLine
 10
10962.39012700763
 20
7417.055191867304
 30
0.0
 11
10962.39012700763
 21
7417.055191867304
 31
0.0
  0
LINE
  5
1DFF7
330
747D
100
AcDbEntity
  8
部品1
 62
     7
 48
50.0
100
AcDbLine
 10
10938.57762700763
 20
7417.055191867304
 30
0.0
 11
10938.57762700763
 21
7417.055191867304
 31
0.0
  0
LINE
  5
1DFF8
330
747D
100
AcDbEntity
  8
部品1
 62
     7
 48
50.0
100
AcDbLine
 10
10914.76512700763
 20
7417.055191867304
 30
0.0
 11
10914.76512700763
 21
7417.055191867304
 31
0.0
  0
LINE
  5
1DFF9
330
747D
100
AcDbEntity
  8
部品1
 62
     7
 48
50.0
100
AcDbLine
 10
10890.95262700763
 20
7417.055191867304
 30
0.0
 11
10890.95262700763
 21
7417.055191867304
 31
0.0
  0
LINE
  5
1DFFA
330
747D
100
AcDbEntity
  8
細線
 62
     7
 48
10.0
100
AcDbLine
 10
10773.5
 20
7440.955177899414
 30
0.0
 11
10973.5
 21
7440.955177899414
 31
0.0
  0
LINE
  5
1DFFB
330
747D
100
AcDbEntity
  8
部品1
 62
     7
 48
50.0
100
AcDbLine
 10
11110.49999999998
 20
7501.955177899434
 30
0.0
 11
11110.49999999998
 21
7701.955177899434
 31
0.0
  0
DIMENSION
  5
1DFFC
330
747D
100
AcDbEntity
  8
寸法
 62
     7
 48
50.0
100
AcDbDimension
  2
*D7
 10
12715.50000000001
 20
7796.955177899414
 30
0.0
 11
12715.5
 21
8089.658197568384
 31
0.0
 70
   160
  1
(<>)
 71
     5
 42
94.99999999997999
  3
INABA_S50G
100
AcDbAlignedDimension
 13
11655.49999999998
 23
7701.955177899434
 33
0.0
 14
11565.5
 24
7796.955177899414
 34
0.0
 50
90.0
100
AcDbRotatedDimension
  0
LINE
  5
1DFFD
330
747D
100
AcDbEntity
  8
センター
 62
     7
 48
5.0
100
AcDbLine
 10
11510.49999999999
 20
7846.955177899435
 30
0.0
 11
11510.49999999999
 21
7556.955177899422
 31
0.0
  0
LINE
  5
1DFFE
330
747D
100
AcDbEntity
  8
点線
 62
     7
 48
10.0
100
AcDbLine
 10
11610.49999999999
 20
7801.955177899422
 30
0.0
 11
11610.49999999999
 21
7601.955177899434
 31
0.0
  0
LINE
  5
1DFFF
330
747D
100
AcDbEntity
  8
点線
 62
     7
 48
10.0
100
AcDbLine
 10
11410.49999999999
 20
7801.955177899422
 30
0.0
 11
11410.49999999999
 21
7601.955177899434
 31
0.0
  0
LINE
  5
1E000
330
747D
100
AcDbEntity
  8
点線
 62
     7
 48
10.0
100
AcDbLine
 10
11410.49999999999
 20
7601.955177899434
 30
0.0
 11
11610.49999999999
 21
7601.955177899434
 31
0.0
  0
LINE
  5
1E001
330
747D
100
AcDbEntity
  8
部品1
 62
     7
 48
50.0
100
AcDbLine
 10
11510.49999999999
 20
7501.955177899434
 30
0.0
 11
11510.49999999999
 21
7701.955177899434
 31
0.0
  0
LINE
  5
1E002
330
747D
100
AcDbEntity
  8
点線
 62
     7
 48
10.0
100
AcDbLine
 10
11410.49999999999
 20
7801.955177899422
 30
0.0
 11
11610.49999999999
 21
7801.955177899422
 31
0.0
  0
LINE
  5
1E466
330
747D
100
AcDbEntity
  8
Ｇ．Ｌ
 62
     7
100
AcDbLine
 10
9249.236229035593
 20
1749.373661269833
 30
0.0
 11
10617.77461316698
 21
1749.373661269833
 31
0.0
  0
TEXT
  5
1E467
330
747D
100
AcDbEntity
  8
部品1
 62
     7
100
AcDbText
 10
10293.5807622491
 20
1772.170171482105
 30
0.0
 40
150.0
  1
G.L
  7
STYLE1
100
AcDbText
  0
LINE
  5
1E468
330
747D
100
AcDbEntity
  8
部品1
 62
     7
100
AcDbLine
 10
8792.418427824532
 20
3299.999999999999
 30
0.0
 11
12792.41842782453
 21
3299.999999999999
 31
0.0
  0
LINE
  5
1E469
330
747D
100
AcDbEntity
  8
部品1
 62
     7
100
AcDbLine
 10
12792.41842782453
 20
3000.0
 30
0.0
 11
8792.418427824532
 21
2999.999999999999
 31
0.0
  0
LINE
  5
1E46A
330
747D
100
AcDbEntity
  8
部品1
 62
     7
100
AcDbLine
 10
8792.418427824532
 20
600.0
 30
0.0
 11
12792.41842782453
 21
600.0
 31
0.0
  0
LINE
  5
1E46B
330
747D
100
AcDbEntity
  8
部品1
 62
     7
100
AcDbLine
 10
8792.418427824532
 20
3299.999999999999
 30
0.0
 11
8792.418427824532
 21
600.0
 31
0.0
  0
TEXT
  5
1E46C
330
747D
100
AcDbEntity
  8
文字
 62
     7
 48
50.0
100
AcDbText
 10
4920.38977576022
 20
864.5205740729707
 30
0.0
 40
150.0
  1
重量物を入れる場合（根太部ブロック追加）
  7
STYLE1
100
AcDbText
  0
LINE
  5
1E46D
330
747D
100
AcDbEntity
  8
寸法
 62
     7
 48
50.0
100
AcDbLine
 10
8498.975097264189
 20
800.0000129302206
 30
0.0
 11
4394.414120747471
 21
800.0000129302206
 31
0.0
  0
TEXT
  5
1E46E
330
747D
100
AcDbEntity
  8
文字
 62
     7
 48
50.0
100
AcDbText
 10
4413.656703010583
 20
1344.146100785952
 30
0.0
 40
150.0
  1
（　）内寸法は屋根の出幅です。
  7
STYLE1
100
AcDbText
  0
LINE
  5
1E46F
330
747D
100
AcDbEntity
  8
寸法
 62
     7
 48
50.0
100
AcDbLine
 10
7132.076727602889
 20
1279.625539643202
 30
0.0
 11
4394.414120747471
 21
1279.625539643202
 31
0.0
  0
LINE
  5
1E470
330
747D
100
AcDbEntity
  8
細線
 62
     7
 48
10.0
100
AcDbLine
 10
4454.094974518101
 20
884.0351489051936
 30
0.0
 11
4854.094974518101
 21
884.0351489051936
 31
0.0
  0
LINE
  5
1E471
330
747D
100
AcDbEntity
  8
細線
 62
     7
 48
10.0
100
AcDbLine
 10
4454.094974518101
 20
1084.035148905193
 30
0.0
 11
4854.094974518101
 21
1084.035148905193
 31
0.0
  0
LINE
  5
1E472
330
747D
100
AcDbEntity
  8
細線
 62
     7
 48
10.0
100
AcDbLine
 10
4454.094974518101
 20
884.0351489051936
 30
0.0
 11
4454.094974518101
 21
1084.035148905193
 31
0.0
  0
LINE
  5
1E473
330
747D
100
AcDbEntity
  8
部品1
 62
     7
 48
50.0
100
AcDbLine
 10
4475.132865439054
 20
1023.9375
 30
0.0
 11
4475.132865439054
 21
1023.9375
 31
0.0
  0
LINE
  5
1E474
330
747D
100
AcDbEntity
  8
部品1
 62
     7
 48
50.0
100
AcDbLine
 10
4498.945365439054
 20
1023.9375
 30
0.0
 11
4498.945365439054
 21
1023.9375
 31
0.0
  0
LINE
  5
1E475
330
747D
100
AcDbEntity
  8
部品1
 62
     7
 48
50.0
100
AcDbLine
 10
4522.757865439055
 20
1023.9375
 30
0.0
 11
4522.757865439055
 21
1023.9375
 31
0.0
  0
LINE
  5
1E476
330
747D
100
AcDbEntity
  8
部品1
 62
     7
 48
50.0
100
AcDbLine
 10
4546.570365439055
 20
1023.9375
 30
0.0
 11
4546.570365439055
 21
1023.9375
 31
0.0
  0
LINE
  5
1E477
330
747D
100
AcDbEntity
  8
部品1
 62
     7
 48
50.0
100
AcDbLine
 10
4463.226615439054
 20
1000.125
 30
0.0
 11
4463.226615439054
 21
1000.125
 31
0.0
  0
LINE
  5
1E478
330
747D
100
AcDbEntity
  8
部品1
 62
     7
 48
50.0
100
AcDbLine
 10
4487.039115439054
 20
1000.125
 30
0.0
 11
4487.039115439054
 21
1000.125
 31
0.0
  0
LINE
  5
1E479
330
747D
100
AcDbEntity
  8
部品1
 62
     7
 48
50.0
100
AcDbLine
 10
4510.851615439054
 20
1000.125
 30
0.0
 11
4510.851615439054
 21
1000.125
 31
0.0
  0
LINE
  5
1E47A
330
747D
100
AcDbEntity
  8
部品1
 62
     7
 48
50.0
100
AcDbLine
 10
4534.664115439055
 20
1000.125
 30
0.0
 11
4534.664115439055
 21
1000.125
 31
0.0
  0
LINE
  5
1E47B
330
747D
100
AcDbEntity
  8
部品1
 62
     7
 48
50.0
100
AcDbLine
 10
4475.132865439054
 20
976.3125
 30
0.0
 11
4475.132865439054
 21
976.3125
 31
0.0
  0
LINE
  5
1E47C
330
747D
100
AcDbEntity
  8
部品1
 62
     7
 48
50.0
100
AcDbLine
 10
4498.945365439054
 20
976.3125
 30
0.0
 11
4498.945365439054
 21
976.3125
 31
0.0
  0
LINE
  5
1E47D
330
747D
100
AcDbEntity
  8
部品1
 62
     7
 48
50.0
100
AcDbLine
 10
4522.757865439055
 20
976.3125
 30
0.0
 11
4522.757865439055
 21
976.3125
 31
0.0
  0
LINE
  5
1E47E
330
747D
100
AcDbEntity
  8
部品1
 62
     7
 48
50.0
100
AcDbLine
 10
4546.570365439055
 20
976.3125
 30
0.0
 11
4546.570365439055
 21
976.3125
 31
0.0
  0
LINE
  5
1E47F
330
747D
100
AcDbEntity
  8
部品1
 62
     7
 48
50.0
100
AcDbLine
 10
4463.226615439054
 20
952.5
 30
0.0
 11
4463.226615439054
 21
952.5
 31
0.0
  0
LINE
  5
1E480
330
747D
100
AcDbEntity
  8
部品1
 62
     7
 48
50.0
100
AcDbLine
 10
4487.039115439054
 20
952.5
 30
0.0
 11
4487.039115439054
 21
952.5
 31
0.0
  0
LINE
  5
1E481
330
747D
100
AcDbEntity
  8
部品1
 62
     7
 48
50.0
100
AcDbLine
 10
4510.851615439054
 20
952.5
 30
0.0
 11
4510.851615439054
 21
952.5
 31
0.0
  0
LINE
  5
1E482
330
747D
100
AcDbEntity
  8
部品1
 62
     7
 48
50.0
100
AcDbLine
 10
4534.664115439055
 20
952.5
 30
0.0
 11
4534.664115439055
 21
952.5
 31
0.0
  0
LINE
  5
1E483
330
747D
100
AcDbEntity
  8
部品1
 62
     7
 48
50.0
100
AcDbLine
 10
4475.132865439054
 20
928.6875
 30
0.0
 11
4475.132865439054
 21
928.6875
 31
0.0
  0
LINE
  5
1E484
330
747D
100
AcDbEntity
  8
部品1
 62
     7
 48
50.0
100
AcDbLine
 10
4498.945365439054
 20
928.6875
 30
0.0
 11
4498.945365439054
 21
928.6875
 31
0.0
  0
LINE
  5
1E485
330
747D
100
AcDbEntity
  8
部品1
 62
     7
 48
50.0
100
AcDbLine
 10
4522.757865439055
 20
928.6875
 30
0.0
 11
4522.757865439055
 21
928.6875
 31
0.0
  0
LINE
  5
1E486
330
747D
100
AcDbEntity
  8
部品1
 62
     7
 48
50.0
100
AcDbLine
 10
4546.570365439055
 20
928.6875
 30
0.0
 11
4546.570365439055
 21
928.6875
 31
0.0
  0
LINE
  5
1E487
330
747D
100
AcDbEntity
  8
部品1
 62
     7
 48
50.0
100
AcDbLine
 10
4463.226615439054
 20
904.875
 30
0.0
 11
4463.226615439054
 21
904.875
 31
0.0
  0
LINE
  5
1E488
330
747D
100
AcDbEntity
  8
部品1
 62
     7
 48
50.0
100
AcDbLine
 10
4487.039115439054
 20
904.875
 30
0.0
 11
4487.039115439054
 21
904.875
 31
0.0
  0
LINE
  5
1E489
330
747D
100
AcDbEntity
  8
部品1
 62
     7
 48
50.0
100
AcDbLine
 10
4510.851615439054
 20
904.875
 30
0.0
 11
4510.851615439054
 21
904.875
 31
0.0
  0
LINE
  5
1E48A
330
747D
100
AcDbEntity
  8
部品1
 62
     7
 48
50.0
100
AcDbLine
 10
4534.664115439055
 20
904.875
 30
0.0
 11
4534.664115439055
 21
904.875
 31
0.0
  0
LINE
  5
1E48B
330
747D
100
AcDbEntity
  8
部品1
 62
     7
 48
50.0
100
AcDbLine
 10
4641.820365439055
 20
1023.9375
 30
0.0
 11
4641.820365439055
 21
1023.9375
 31
0.0
  0
LINE
  5
1E48C
330
747D
100
AcDbEntity
  8
部品1
 62
     7
 48
50.0
100
AcDbLine
 10
4665.632865439055
 20
1023.9375
 30
0.0
 11
4665.632865439055
 21
1023.9375
 31
0.0
  0
LINE
  5
1E48D
330
747D
100
AcDbEntity
  8
部品1
 62
     7
 48
50.0
100
AcDbLine
 10
4689.445365439055
 20
1023.9375
 30
0.0
 11
4689.445365439055
 21
1023.9375
 31
0.0
  0
LINE
  5
1E48E
330
747D
100
AcDbEntity
  8
部品1
 62
     7
 48
50.0
100
AcDbLine
 10
4713.257865439055
 20
1023.9375
 30
0.0
 11
4713.257865439055
 21
1023.9375
 31
0.0
  0
LINE
  5
1E48F
330
747D
100
AcDbEntity
  8
部品1
 62
     7
 48
50.0
100
AcDbLine
 10
4737.070365439055
 20
1023.9375
 30
0.0
 11
4737.070365439055
 21
1023.9375
 31
0.0
  0
LINE
  5
1E490
330
747D
100
AcDbEntity
  8
部品1
 62
     7
 48
50.0
100
AcDbLine
 10
4653.726615439054
 20
1000.125
 30
0.0
 11
4653.726615439054
 21
1000.125
 31
0.0
  0
LINE
  5
1E491
330
747D
100
AcDbEntity
  8
部品1
 62
     7
 48
50.0
100
AcDbLine
 10
4677.539115439055
 20
1000.125
 30
0.0
 11
4677.539115439055
 21
1000.125
 31
0.0
  0
LINE
  5
1E492
330
747D
100
AcDbEntity
  8
部品1
 62
     7
 48
50.0
100
AcDbLine
 10
4701.351615439054
 20
1000.125
 30
0.0
 11
4701.351615439054
 21
1000.125
 31
0.0
  0
LINE
  5
1E493
330
747D
100
AcDbEntity
  8
部品1
 62
     7
 48
50.0
100
AcDbLine
 10
4725.164115439055
 20
1000.125
 30
0.0
 11
4725.164115439055
 21
1000.125
 31
0.0
  0
LINE
  5
1E494
330
747D
100
AcDbEntity
  8
部品1
 62
     7
 48
50.0
100
AcDbLine
 10
4748.976615439054
 20
1000.125
 30
0.0
 11
4748.976615439054
 21
1000.125
 31
0.0
  0
LINE
  5
1E495
330
747D
100
AcDbEntity
  8
部品1
 62
     7
 48
50.0
100
AcDbLine
 10
4641.820365439055
 20
976.3125
 30
0.0
 11
4641.820365439055
 21
976.3125
 31
0.0
  0
LINE
  5
1E496
330
747D
100
AcDbEntity
  8
部品1
 62
     7
 48
50.0
100
AcDbLine
 10
4665.632865439055
 20
976.3125
 30
0.0
 11
4665.632865439055
 21
976.3125
 31
0.0
  0
LINE
  5
1E497
330
747D
100
AcDbEntity
  8
部品1
 62
     7
 48
50.0
100
AcDbLine
 10
4689.445365439055
 20
976.3125
 30
0.0
 11
4689.445365439055
 21
976.3125
 31
0.0
  0
LINE
  5
1E498
330
747D
100
AcDbEntity
  8
部品1
 62
     7
 48
50.0
100
AcDbLine
 10
4713.257865439055
 20
976.3125
 30
0.0
 11
4713.257865439055
 21
976.3125
 31
0.0
  0
LINE
  5
1E499
330
747D
100
AcDbEntity
  8
部品1
 62
     7
 48
50.0
100
AcDbLine
 10
4737.070365439055
 20
976.3125
 30
0.0
 11
4737.070365439055
 21
976.3125
 31
0.0
  0
LINE
  5
1E49A
330
747D
100
AcDbEntity
  8
部品1
 62
     7
 48
50.0
100
AcDbLine
 10
4653.726615439054
 20
952.5
 30
0.0
 11
4653.726615439054
 21
952.5
 31
0.0
  0
LINE
  5
1E49B
330
747D
100
AcDbEntity
  8
部品1
 62
     7
 48
50.0
100
AcDbLine
 10
4677.539115439055
 20
952.5
 30
0.0
 11
4677.539115439055
 21
952.5
 31
0.0
  0
LINE
  5
1E49C
330
747D
100
AcDbEntity
  8
部品1
 62
     7
 48
50.0
100
AcDbLine
 10
4701.351615439054
 20
952.5
 30
0.0
 11
4701.351615439054
 21
952.5
 31
0.0
  0
LINE
  5
1E49D
330
747D
100
AcDbEntity
  8
部品1
 62
     7
 48
50.0
100
AcDbLine
 10
4725.164115439055
 20
952.5
 30
0.0
 11
4725.164115439055
 21
952.5
 31
0.0
  0
LINE
  5
1E49E
330
747D
100
AcDbEntity
  8
部品1
 62
     7
 48
50.0
100
AcDbLine
 10
4748.976615439054
 20
952.5
 30
0.0
 11
4748.976615439054
 21
952.5
 31
0.0
  0
LINE
  5
1E49F
330
747D
100
AcDbEntity
  8
部品1
 62
     7
 48
50.0
100
AcDbLine
 10
4641.820365439055
 20
928.6875
 30
0.0
 11
4641.820365439055
 21
928.6875
 31
0.0
  0
LINE
  5
1E4A0
330
747D
100
AcDbEntity
  8
部品1
 62
     7
 48
50.0
100
AcDbLine
 10
4665.632865439055
 20
928.6875
 30
0.0
 11
4665.632865439055
 21
928.6875
 31
0.0
  0
LINE
  5
1E4A1
330
747D
100
AcDbEntity
  8
部品1
 62
     7
 48
50.0
100
AcDbLine
 10
4689.445365439055
 20
928.6875
 30
0.0
 11
4689.445365439055
 21
928.6875
 31
0.0
  0
LINE
  5
1E4A2
330
747D
100
AcDbEntity
  8
部品1
 62
     7
 48
50.0
100
AcDbLine
 10
4713.257865439055
 20
928.6875
 30
0.0
 11
4713.257865439055
 21
928.6875
 31
0.0
  0
LINE
  5
1E4A3
330
747D
100
AcDbEntity
  8
部品1
 62
     7
 48
50.0
100
AcDbLine
 10
4737.070365439055
 20
928.6875
 30
0.0
 11
4737.070365439055
 21
928.6875
 31
0.0
  0
LINE
  5
1E4A4
330
747D
100
AcDbEntity
  8
部品1
 62
     7
 48
50.0
100
AcDbLine
 10
4653.726615439054
 20
904.875
 30
0.0
 11
4653.726615439054
 21
904.875
 31
0.0
  0
LINE
  5
1E4A5
330
747D
100
AcDbEntity
  8
部品1
 62
     7
 48
50.0
100
AcDbLine
 10
4677.539115439055
 20
904.875
 30
0.0
 11
4677.539115439055
 21
904.875
 31
0.0
  0
LINE
  5
1E4A6
330
747D
100
AcDbEntity
  8
部品1
 62
     7
 48
50.0
100
AcDbLine
 10
4701.351615439054
 20
904.875
 30
0.0
 11
4701.351615439054
 21
904.875
 31
0.0
  0
LINE
  5
1E4A7
330
747D
100
AcDbEntity
  8
部品1
 62
     7
 48
50.0
100
AcDbLine
 10
4725.164115439055
 20
904.875
 30
0.0
 11
4725.164115439055
 21
904.875
 31
0.0
  0
LINE
  5
1E4A8
330
747D
100
AcDbEntity
  8
部品1
 62
     7
 48
50.0
100
AcDbLine
 10
4748.976615439054
 20
904.875
 30
0.0
 11
4748.976615439054
 21
904.875
 31
0.0
  0
LINE
  5
1E4A9
330
747D
100
AcDbEntity
  8
部品1
 62
     7
 48
50.0
100
AcDbLine
 10
4570.382865439055
 20
1023.9375
 30
0.0
 11
4570.382865439055
 21
1023.9375
 31
0.0
  0
LINE
  5
1E4AA
330
747D
100
AcDbEntity
  8
部品1
 62
     7
 48
50.0
100
AcDbLine
 10
4594.195365439055
 20
1023.9375
 30
0.0
 11
4594.195365439055
 21
1023.9375
 31
0.0
  0
LINE
  5
1E4AB
330
747D
100
AcDbEntity
  8
部品1
 62
     7
 48
50.0
100
AcDbLine
 10
4618.007865439055
 20
1023.9375
 30
0.0
 11
4618.007865439055
 21
1023.9375
 31
0.0
  0
LINE
  5
1E4AC
330
747D
100
AcDbEntity
  8
部品1
 62
     7
 48
50.0
100
AcDbLine
 10
4558.476615439054
 20
1000.125
 30
0.0
 11
4558.476615439054
 21
1000.125
 31
0.0
  0
LINE
  5
1E4AD
330
747D
100
AcDbEntity
  8
部品1
 62
     7
 48
50.0
100
AcDbLine
 10
4582.289115439055
 20
1000.125
 30
0.0
 11
4582.289115439055
 21
1000.125
 31
0.0
  0
LINE
  5
1E4AE
330
747D
100
AcDbEntity
  8
部品1
 62
     7
 48
50.0
100
AcDbLine
 10
4606.101615439054
 20
1000.125
 30
0.0
 11
4606.101615439054
 21
1000.125
 31
0.0
  0
LINE
  5
1E4AF
330
747D
100
AcDbEntity
  8
部品1
 62
     7
 48
50.0
100
AcDbLine
 10
4629.914115439055
 20
1000.125
 30
0.0
 11
4629.914115439055
 21
1000.125
 31
0.0
  0
LINE
  5
1E4B0
330
747D
100
AcDbEntity
  8
部品1
 62
     7
 48
50.0
100
AcDbLine
 10
4570.382865439055
 20
976.3125
 30
0.0
 11
4570.382865439055
 21
976.3125
 31
0.0
  0
LINE
  5
1E4B1
330
747D
100
AcDbEntity
  8
部品1
 62
     7
 48
50.0
100
AcDbLine
 10
4594.195365439055
 20
976.3125
 30
0.0
 11
4594.195365439055
 21
976.3125
 31
0.0
  0
LINE
  5
1E4B2
330
747D
100
AcDbEntity
  8
部品1
 62
     7
 48
50.0
100
AcDbLine
 10
4618.007865439055
 20
976.3125
 30
0.0
 11
4618.007865439055
 21
976.3125
 31
0.0
  0
LINE
  5
1E4B3
330
747D
100
AcDbEntity
  8
部品1
 62
     7
 48
50.0
100
AcDbLine
 10
4558.476615439054
 20
952.5
 30
0.0
 11
4558.476615439054
 21
952.5
 31
0.0
  0
LINE
  5
1E4B4
330
747D
100
AcDbEntity
  8
部品1
 62
     7
 48
50.0
100
AcDbLine
 10
4582.289115439055
 20
952.5
 30
0.0
 11
4582.289115439055
 21
952.5
 31
0.0
  0
LINE
  5
1E4B5
330
747D
100
AcDbEntity
  8
部品1
 62
     7
 48
50.0
100
AcDbLine
 10
4606.101615439054
 20
952.5
 30
0.0
 11
4606.101615439054
 21
952.5
 31
0.0
  0
LINE
  5
1E4B6
330
747D
100
AcDbEntity
  8
部品1
 62
     7
 48
50.0
100
AcDbLine
 10
4629.914115439055
 20
952.5
 30
0.0
 11
4629.914115439055
 21
952.5
 31
0.0
  0
LINE
  5
1E4B7
330
747D
100
AcDbEntity
  8
部品1
 62
     7
 48
50.0
100
AcDbLine
 10
4570.382865439055
 20
928.6875
 30
0.0
 11
4570.382865439055
 21
928.6875
 31
0.0
  0
LINE
  5
1E4B8
330
747D
100
AcDbEntity
  8
部品1
 62
     7
 48
50.0
100
AcDbLine
 10
4594.195365439055
 20
928.6875
 30
0.0
 11
4594.195365439055
 21
928.6875
 31
0.0
  0
LINE
  5
1E4B9
330
747D
100
AcDbEntity
  8
部品1
 62
     7
 48
50.0
100
AcDbLine
 10
4618.007865439055
 20
928.6875
 30
0.0
 11
4618.007865439055
 21
928.6875
 31
0.0
  0
LINE
  5
1E4BA
330
747D
100
AcDbEntity
  8
部品1
 62
     7
 48
50.0
100
AcDbLine
 10
4558.476615439054
 20
904.875
 30
0.0
 11
4558.476615439054
 21
904.875
 31
0.0
  0
LINE
  5
1E4BB
330
747D
100
AcDbEntity
  8
部品1
 62
     7
 48
50.0
100
AcDbLine
 10
4582.289115439055
 20
904.875
 30
0.0
 11
4582.289115439055
 21
904.875
 31
0.0
  0
LINE
  5
1E4BC
330
747D
100
AcDbEntity
  8
部品1
 62
     7
 48
50.0
100
AcDbLine
 10
4606.101615439054
 20
904.875
 30
0.0
 11
4606.101615439054
 21
904.875
 31
0.0
  0
LINE
  5
1E4BD
330
747D
100
AcDbEntity
  8
部品1
 62
     7
 48
50.0
100
AcDbLine
 10
4629.914115439055
 20
904.875
 30
0.0
 11
4629.914115439055
 21
904.875
 31
0.0
  0
LINE
  5
1E4BE
330
747D
100
AcDbEntity
  8
部品1
 62
     7
 48
50.0
100
AcDbLine
 10
4475.132865439054
 20
1071.5625
 30
0.0
 11
4475.132865439054
 21
1071.5625
 31
0.0
  0
LINE
  5
1E4BF
330
747D
100
AcDbEntity
  8
部品1
 62
     7
 48
50.0
100
AcDbLine
 10
4498.945365439054
 20
1071.5625
 30
0.0
 11
4498.945365439054
 21
1071.5625
 31
0.0
  0
LINE
  5
1E4C0
330
747D
100
AcDbEntity
  8
部品1
 62
     7
 48
50.0
100
AcDbLine
 10
4522.757865439055
 20
1071.5625
 30
0.0
 11
4522.757865439055
 21
1071.5625
 31
0.0
  0
LINE
  5
1E4C1
330
747D
100
AcDbEntity
  8
部品1
 62
     7
 48
50.0
100
AcDbLine
 10
4546.570365439055
 20
1071.5625
 30
0.0
 11
4546.570365439055
 21
1071.5625
 31
0.0
  0
LINE
  5
1E4C2
330
747D
100
AcDbEntity
  8
部品1
 62
     7
 48
50.0
100
AcDbLine
 10
4463.226615439054
 20
1047.75
 30
0.0
 11
4463.226615439054
 21
1047.75
 31
0.0
  0
LINE
  5
1E4C3
330
747D
100
AcDbEntity
  8
部品1
 62
     7
 48
50.0
100
AcDbLine
 10
4487.039115439054
 20
1047.75
 30
0.0
 11
4487.039115439054
 21
1047.75
 31
0.0
  0
LINE
  5
1E4C4
330
747D
100
AcDbEntity
  8
部品1
 62
     7
 48
50.0
100
AcDbLine
 10
4510.851615439054
 20
1047.75
 30
0.0
 11
4510.851615439054
 21
1047.75
 31
0.0
  0
LINE
  5
1E4C5
330
747D
100
AcDbEntity
  8
部品1
 62
     7
 48
50.0
100
AcDbLine
 10
4534.664115439055
 20
1047.75
 30
0.0
 11
4534.664115439055
 21
1047.75
 31
0.0
  0
LINE
  5
1E4C6
330
747D
100
AcDbEntity
  8
部品1
 62
     7
 48
50.0
100
AcDbLine
 10
4641.820365439055
 20
1071.5625
 30
0.0
 11
4641.820365439055
 21
1071.5625
 31
0.0
  0
LINE
  5
1E4C7
330
747D
100
AcDbEntity
  8
部品1
 62
     7
 48
50.0
100
AcDbLine
 10
4665.632865439055
 20
1071.5625
 30
0.0
 11
4665.632865439055
 21
1071.5625
 31
0.0
  0
LINE
  5
1E4C8
330
747D
100
AcDbEntity
  8
部品1
 62
     7
 48
50.0
100
AcDbLine
 10
4689.445365439055
 20
1071.5625
 30
0.0
 11
4689.445365439055
 21
1071.5625
 31
0.0
  0
LINE
  5
1E4C9
330
747D
100
AcDbEntity
  8
部品1
 62
     7
 48
50.0
100
AcDbLine
 10
4713.257865439055
 20
1071.5625
 30
0.0
 11
4713.257865439055
 21
1071.5625
 31
0.0
  0
LINE
  5
1E4CA
330
747D
100
AcDbEntity
  8
部品1
 62
     7
 48
50.0
100
AcDbLine
 10
4737.070365439055
 20
1071.5625
 30
0.0
 11
4737.070365439055
 21
1071.5625
 31
0.0
  0
LINE
  5
1E4CB
330
747D
100
AcDbEntity
  8
部品1
 62
     7
 48
50.0
100
AcDbLine
 10
4653.726615439054
 20
1047.75
 30
0.0
 11
4653.726615439054
 21
1047.75
 31
0.0
  0
LINE
  5
1E4CC
330
747D
100
AcDbEntity
  8
部品1
 62
     7
 48
50.0
100
AcDbLine
 10
4677.539115439055
 20
1047.75
 30
0.0
 11
4677.539115439055
 21
1047.75
 31
0.0
  0
LINE
  5
1E4CD
330
747D
100
AcDbEntity
  8
部品1
 62
     7
 48
50.0
100
AcDbLine
 10
4701.351615439054
 20
1047.75
 30
0.0
 11
4701.351615439054
 21
1047.75
 31
0.0
  0
LINE
  5
1E4CE
330
747D
100
AcDbEntity
  8
部品1
 62
     7
 48
50.0
100
AcDbLine
 10
4725.164115439055
 20
1047.75
 30
0.0
 11
4725.164115439055
 21
1047.75
 31
0.0
  0
LINE
  5
1E4CF
330
747D
100
AcDbEntity
  8
部品1
 62
     7
 48
50.0
100
AcDbLine
 10
4748.976615439054
 20
1047.75
 30
0.0
 11
4748.976615439054
 21
1047.75
 31
0.0
  0
LINE
  5
1E4D0
330
747D
100
AcDbEntity
  8
部品1
 62
     7
 48
50.0
100
AcDbLine
 10
4570.382865439055
 20
1071.5625
 30
0.0
 11
4570.382865439055
 21
1071.5625
 31
0.0
  0
LINE
  5
1E4D1
330
747D
100
AcDbEntity
  8
部品1
 62
     7
 48
50.0
100
AcDbLine
 10
4594.195365439055
 20
1071.5625
 30
0.0
 11
4594.195365439055
 21
1071.5625
 31
0.0
  0
LINE
  5
1E4D2
330
747D
100
AcDbEntity
  8
部品1
 62
     7
 48
50.0
100
AcDbLine
 10
4618.007865439055
 20
1071.5625
 30
0.0
 11
4618.007865439055
 21
1071.5625
 31
0.0
  0
LINE
  5
1E4D3
330
747D
100
AcDbEntity
  8
部品1
 62
     7
 48
50.0
100
AcDbLine
 10
4558.476615439054
 20
1047.75
 30
0.0
 11
4558.476615439054
 21
1047.75
 31
0.0
  0
LINE
  5
1E4D4
330
747D
100
AcDbEntity
  8
部品1
 62
     7
 48
50.0
100
AcDbLine
 10
4582.289115439055
 20
1047.75
 30
0.0
 11
4582.289115439055
 21
1047.75
 31
0.0
  0
LINE
  5
1E4D5
330
747D
100
AcDbEntity
  8
部品1
 62
     7
 48
50.0
100
AcDbLine
 10
4606.101615439054
 20
1047.75
 30
0.0
 11
4606.101615439054
 21
1047.75
 31
0.0
  0
LINE
  5
1E4D6
330
747D
100
AcDbEntity
  8
部品1
 62
     7
 48
50.0
100
AcDbLine
 10
4629.914115439055
 20
1047.75
 30
0.0
 11
4629.914115439055
 21
1047.75
 31
0.0
  0
LINE
  5
1E4D7
330
747D
100
AcDbEntity
  8
細線
 62
     7
 48
10.0
100
AcDbLine
 10
4854.094974518101
 20
1084.035148905193
 30
0.0
 11
4854.094974518101
 21
884.0351489051936
 31
0.0
  0
LINE
  5
1E4D8
330
747D
100
AcDbEntity
  8
部品1
 62
     7
 48
50.0
100
AcDbLine
 10
4844.226615439055
 20
1000.125
 30
0.0
 11
4844.226615439055
 21
1000.125
 31
0.0
  0
LINE
  5
1E4D9
330
747D
100
AcDbEntity
  8
部品1
 62
     7
 48
50.0
100
AcDbLine
 10
4844.226615439055
 20
952.5
 30
0.0
 11
4844.226615439055
 21
952.5
 31
0.0
  0
LINE
  5
1E4DA
330
747D
100
AcDbEntity
  8
部品1
 62
     7
 48
50.0
100
AcDbLine
 10
4844.226615439055
 20
904.875
 30
0.0
 11
4844.226615439055
 21
904.875
 31
0.0
  0
LINE
  5
1E4DB
330
747D
100
AcDbEntity
  8
部品1
 62
     7
 48
50.0
100
AcDbLine
 10
4760.882865439054
 20
1023.9375
 30
0.0
 11
4760.882865439054
 21
1023.9375
 31
0.0
  0
LINE
  5
1E4DC
330
747D
100
AcDbEntity
  8
部品1
 62
     7
 48
50.0
100
AcDbLine
 10
4784.695365439055
 20
1023.9375
 30
0.0
 11
4784.695365439055
 21
1023.9375
 31
0.0
  0
LINE
  5
1E4DD
330
747D
100
AcDbEntity
  8
部品1
 62
     7
 48
50.0
100
AcDbLine
 10
4808.507865439054
 20
1023.9375
 30
0.0
 11
4808.507865439054
 21
1023.9375
 31
0.0
  0
LINE
  5
1E4DE
330
747D
100
AcDbEntity
  8
部品1
 62
     7
 48
50.0
100
AcDbLine
 10
4832.320365439055
 20
1023.9375
 30
0.0
 11
4832.320365439055
 21
1023.9375
 31
0.0
  0
LINE
  5
1E4DF
330
747D
100
AcDbEntity
  8
部品1
 62
     7
 48
50.0
100
AcDbLine
 10
4772.789115439055
 20
1000.125
 30
0.0
 11
4772.789115439055
 21
1000.125
 31
0.0
  0
LINE
  5
1E4E0
330
747D
100
AcDbEntity
  8
部品1
 62
     7
 48
50.0
100
AcDbLine
 10
4796.601615439054
 20
1000.125
 30
0.0
 11
4796.601615439054
 21
1000.125
 31
0.0
  0
LINE
  5
1E4E1
330
747D
100
AcDbEntity
  8
部品1
 62
     7
 48
50.0
100
AcDbLine
 10
4820.414115439055
 20
1000.125
 30
0.0
 11
4820.414115439055
 21
1000.125
 31
0.0
  0
LINE
  5
1E4E2
330
747D
100
AcDbEntity
  8
部品1
 62
     7
 48
50.0
100
AcDbLine
 10
4760.882865439054
 20
976.3125
 30
0.0
 11
4760.882865439054
 21
976.3125
 31
0.0
  0
LINE
  5
1E4E3
330
747D
100
AcDbEntity
  8
部品1
 62
     7
 48
50.0
100
AcDbLine
 10
4784.695365439055
 20
976.3125
 30
0.0
 11
4784.695365439055
 21
976.3125
 31
0.0
  0
LINE
  5
1E4E4
330
747D
100
AcDbEntity
  8
部品1
 62
     7
 48
50.0
100
AcDbLine
 10
4808.507865439054
 20
976.3125
 30
0.0
 11
4808.507865439054
 21
976.3125
 31
0.0
  0
LINE
  5
1E4E5
330
747D
100
AcDbEntity
  8
部品1
 62
     7
 48
50.0
100
AcDbLine
 10
4832.320365439055
 20
976.3125
 30
0.0
 11
4832.320365439055
 21
976.3125
 31
0.0
  0
LINE
  5
1E4E6
330
747D
100
AcDbEntity
  8
部品1
 62
     7
 48
50.0
100
AcDbLine
 10
4772.789115439055
 20
952.5
 30
0.0
 11
4772.789115439055
 21
952.5
 31
0.0
  0
LINE
  5
1E4E7
330
747D
100
AcDbEntity
  8
部品1
 62
     7
 48
50.0
100
AcDbLine
 10
4796.601615439054
 20
952.5
 30
0.0
 11
4796.601615439054
 21
952.5
 31
0.0
  0
LINE
  5
1E4E8
330
747D
100
AcDbEntity
  8
部品1
 62
     7
 48
50.0
100
AcDbLine
 10
4820.414115439055
 20
952.5
 30
0.0
 11
4820.414115439055
 21
952.5
 31
0.0
  0
LINE
  5
1E4E9
330
747D
100
AcDbEntity
  8
部品1
 62
     7
 48
50.0
100
AcDbLine
 10
4760.882865439054
 20
928.6875
 30
0.0
 11
4760.882865439054
 21
928.6875
 31
0.0
  0
LINE
  5
1E4EA
330
747D
100
AcDbEntity
  8
部品1
 62
     7
 48
50.0
100
AcDbLine
 10
4784.695365439055
 20
928.6875
 30
0.0
 11
4784.695365439055
 21
928.6875
 31
0.0
  0
LINE
  5
1E4EB
330
747D
100
AcDbEntity
  8
部品1
 62
     7
 48
50.0
100
AcDbLine
 10
4808.507865439054
 20
928.6875
 30
0.0
 11
4808.507865439054
 21
928.6875
 31
0.0
  0
LINE
  5
1E4EC
330
747D
100
AcDbEntity
  8
部品1
 62
     7
 48
50.0
100
AcDbLine
 10
4832.320365439055
 20
928.6875
 30
0.0
 11
4832.320365439055
 21
928.6875
 31
0.0
  0
LINE
  5
1E4ED
330
747D
100
AcDbEntity
  8
部品1
 62
     7
 48
50.0
100
AcDbLine
 10
4772.789115439055
 20
904.875
 30
0.0
 11
4772.789115439055
 21
904.875
 31
0.0
  0
LINE
  5
1E4EE
330
747D
100
AcDbEntity
  8
部品1
 62
     7
 48
50.0
100
AcDbLine
 10
4796.601615439054
 20
904.875
 30
0.0
 11
4796.601615439054
 21
904.875
 31
0.0
  0
LINE
  5
1E4EF
330
747D
100
AcDbEntity
  8
部品1
 62
     7
 48
50.0
100
AcDbLine
 10
4820.414115439055
 20
904.875
 30
0.0
 11
4820.414115439055
 21
904.875
 31
0.0
  0
LINE
  5
1E4F0
330
747D
100
AcDbEntity
  8
部品1
 62
     7
 48
50.0
100
AcDbLine
 10
4844.226615439055
 20
1047.75
 30
0.0
 11
4844.226615439055
 21
1047.75
 31
0.0
  0
LINE
  5
1E4F1
330
747D
100
AcDbEntity
  8
部品1
 62
     7
 48
50.0
100
AcDbLine
 10
4760.882865439054
 20
1071.5625
 30
0.0
 11
4760.882865439054
 21
1071.5625
 31
0.0
  0
LINE
  5
1E4F2
330
747D
100
AcDbEntity
  8
部品1
 62
     7
 48
50.0
100
AcDbLine
 10
4784.695365439055
 20
1071.5625
 30
0.0
 11
4784.695365439055
 21
1071.5625
 31
0.0
  0
LINE
  5
1E4F3
330
747D
100
AcDbEntity
  8
部品1
 62
     7
 48
50.0
100
AcDbLine
 10
4808.507865439054
 20
1071.5625
 30
0.0
 11
4808.507865439054
 21
1071.5625
 31
0.0
  0
LINE
  5
1E4F4
330
747D
100
AcDbEntity
  8
部品1
 62
     7
 48
50.0
100
AcDbLine
 10
4832.320365439055
 20
1071.5625
 30
0.0
 11
4832.320365439055
 21
1071.5625
 31
0.0
  0
LINE
  5
1E4F5
330
747D
100
AcDbEntity
  8
部品1
 62
     7
 48
50.0
100
AcDbLine
 10
4772.789115439055
 20
1047.75
 30
0.0
 11
4772.789115439055
 21
1047.75
 31
0.0
  0
LINE
  5
1E4F6
330
747D
100
AcDbEntity
  8
部品1
 62
     7
 48
50.0
100
AcDbLine
 10
4796.601615439054
 20
1047.75
 30
0.0
 11
4796.601615439054
 21
1047.75
 31
0.0
  0
LINE
  5
1E4F7
330
747D
100
AcDbEntity
  8
部品1
 62
     7
 48
50.0
100
AcDbLine
 10
4820.414115439055
 20
1047.75
 30
0.0
 11
4820.414115439055
 21
1047.75
 31
0.0
  0
LINE
  5
1E4F8
330
747D
100
AcDbEntity
  8
細線
 62
     7
100
AcDbLine
 10
9549.236229035594
 20
1649.37366126983
 30
0.0
 11
9602.826067521816
 21
1449.373661269826
 31
0.0
  0
LINE
  5
1E4F9
330
747D
100
AcDbEntity
  8
部品1
 62
     7
100
AcDbLine
 10
9449.236229035593
 20
1449.37366126983
 30
0.0
 11
9449.236229035593
 21
1749.373661269833
 31
0.0
  0
LINE
  5
1E4FA
330
747D
100
AcDbEntity
  8
細線
 62
     7
100
AcDbLine
 10
9449.236229035593
 20
1649.37366126983
 30
0.0
 11
9502.826067521818
 21
1449.373661269826
 31
0.0
  0
LINE
  5
1E4FB
330
747D
100
AcDbEntity
  8
細線
 62
     7
100
AcDbLine
 10
9576.031148278705
 20
1649.37366126983
 30
0.0
 11
9562.633688657149
 21
1599.373661269829
 31
0.0
  0
LINE
  5
1E4FC
330
747D
100
AcDbEntity
  8
細線
 62
     7
100
AcDbLine
 10
9476.031148278705
 20
1649.37366126983
 30
0.0
 11
9462.633688657152
 21
1599.373661269829
 31
0.0
  0
LINE
  5
1E4FD
330
747D
100
AcDbEntity
  8
細線
 62
     7
100
AcDbLine
 10
9949.236229035593
 20
1649.373661269833
 30
0.0
 11
10002.82606752181
 21
1449.373661269832
 31
0.0
  0
LINE
  5
1E4FE
330
747D
100
AcDbEntity
  8
細線
 62
     7
100
AcDbLine
 10
9849.236229035597
 20
1649.373661269833
 30
0.0
 11
9902.826067521814
 21
1449.37366126983
 31
0.0
  0
LINE
  5
1E4FF
330
747D
100
AcDbEntity
  8
細線
 62
     7
100
AcDbLine
 10
9749.236229035593
 20
1649.373661269833
 30
0.0
 11
9802.82606752182
 21
1449.37366126983
 31
0.0
  0
LINE
  5
1E500
330
747D
100
AcDbEntity
  8
細線
 62
     7
100
AcDbLine
 10
9649.236229035594
 20
1649.373661269833
 30
0.0
 11
9702.826067521815
 21
1449.37366126983
 31
0.0
  0
LINE
  5
1E501
330
747D
100
AcDbEntity
  8
細線
 62
     7
100
AcDbLine
 10
9776.031148278704
 20
1649.373661269833
 30
0.0
 11
9762.63368865715
 21
1599.373661269833
 31
0.0
  0
LINE
  5
1E502
330
747D
100
AcDbEntity
  8
細線
 62
     7
100
AcDbLine
 10
9676.031148278706
 20
1649.373661269833
 30
0.0
 11
9662.633688657148
 21
1599.373661269833
 31
0.0
  0
LINE
  5
1E503
330
747D
100
AcDbEntity
  8
細線
 62
     7
100
AcDbLine
 10
9976.031148278707
 20
1649.373661269833
 30
0.0
 11
9962.633688657149
 21
1599.373661269833
 31
0.0
  0
LINE
  5
1E504
330
747D
100
AcDbEntity
  8
細線
 62
     7
100
AcDbLine
 10
9876.031148278705
 20
1649.373661269833
 30
0.0
 11
9862.633688657147
 21
1599.373661269833
 31
0.0
  0
LINE
  5
1E505
330
747D
100
AcDbEntity
  8
部品1
 62
     7
100
AcDbLine
 10
10049.23622903559
 20
1749.373661269833
 30
0.0
 11
10049.23622903559
 21
1449.373661269832
 31
0.0
  0
LINE
  5
1E506
330
747D
100
AcDbEntity
  8
細線
 62
     7
100
AcDbLine
 10
9689.428607900261
 20
1499.373661269833
 30
0.0
 11
9676.031148278706
 21
1449.373661269832
 31
0.0
  0
LINE
  5
1E507
330
747D
100
AcDbEntity
  8
部品1
 62
     7
100
AcDbLine
 10
9449.236229035593
 20
1449.37366126983
 30
0.0
 11
10049.23622903559
 21
1449.373661269832
 31
0.0
  0
LINE
  5
1E508
330
747D
100
AcDbEntity
  8
細線
 62
     7
100
AcDbLine
 10
9589.428607900259
 20
1499.37366126983
 30
0.0
 11
9576.031148278705
 21
1449.37366126983
 31
0.0
  0
LINE
  5
1E509
330
747D
100
AcDbEntity
  8
細線
 62
     7
100
AcDbLine
 10
9489.42860790026
 20
1499.37366126983
 30
0.0
 11
9476.031148278705
 21
1449.37366126983
 31
0.0
  0
LINE
  5
1E50A
330
747D
100
AcDbEntity
  8
細線
 62
     7
100
AcDbLine
 10
9889.428607900262
 20
1499.373661269833
 30
0.0
 11
9876.031148278705
 21
1449.373661269832
 31
0.0
  0
LINE
  5
1E50B
330
747D
100
AcDbEntity
  8
細線
 62
     7
100
AcDbLine
 10
9789.42860790026
 20
1499.373661269833
 30
0.0
 11
9776.031148278704
 21
1449.373661269832
 31
0.0
  0
LINE
  5
1E50C
330
747D
100
AcDbEntity
  8
細線
 62
     7
100
AcDbLine
 10
9989.42860790026
 20
1499.373661269833
 30
0.0
 11
9976.031148278707
 21
1449.373661269832
 31
0.0
  0
LINE
  5
1E50D
330
747D
100
AcDbEntity
  8
部品1
 62
     7
100
AcDbLine
 10
9449.236229035593
 20
1649.37366126983
 30
0.0
 11
10049.23622903559
 21
1649.373661269833
 31
0.0
  0
LINE
  5
1E50E
330
747D
100
AcDbEntity
  8
細線
 62
     7
100
AcDbLine
 10
9711.430673766246
 20
1749.373661269833
 30
0.0
 11
9549.236229035592
 21
1911.568106000485
 31
0.0
  0
LINE
  5
1E50F
330
747D
100
AcDbEntity
  8
部品1
 62
     7
100
AcDbLine
 10
9549.236229035594
 20
1949.373661269833
 30
0.0
 11
9949.236229035593
 21
1949.373661269833
 31
0.0
  0
LINE
  5
1E510
330
747D
100
AcDbEntity
  8
部品1
 62
     7
100
AcDbLine
 10
9549.236229035594
 20
1749.373661269833
 30
0.0
 11
9549.236229035594
 21
1949.373661269833
 31
0.0
  0
LINE
  5
1E511
330
747D
100
AcDbEntity
  8
細線
 62
     7
100
AcDbLine
 10
9576.417529991084
 20
1649.373661269831
 30
0.0
 11
9676.417529991082
 21
1749.373661269833
 31
0.0
  0
LINE
  5
1E512
330
747D
100
AcDbEntity
  8
細線
 62
     7
100
AcDbLine
 10
9669.004266895056
 20
1749.373661269833
 30
0.0
 11
9549.236229035594
 21
1869.141699129293
 31
0.0
  0
LINE
  5
1E513
330
747D
100
AcDbEntity
  8
細線
 62
     7
100
AcDbLine
 10
9548.133258743623
 20
1649.373661269833
 30
0.0
 11
9648.133258743619
 21
1749.373661269833
 31
0.0
  0
LINE
  5
1E514
330
747D
100
AcDbEntity
  8
細線
 62
     7
100
AcDbLine
 10
9519.848987496159
 20
1649.37366126983
 30
0.0
 11
9619.848987496158
 21
1749.373661269833
 31
0.0
  0
MTEXT
  5
1E515
102
{ACAD_REACTORS
330
1E516
102
}
330
747D
100
AcDbEntity
  8
寸法
 62
     7
 48
50.0
100
AcDbMText
 10
9978.158987327649
 20
2270.806562121256
 30
0.0
 40
150.0
 41
1.0
 71
     4
 72
     1
  1
\A1;C.B
  7
STYLE1
 73
     1
 44
1.0
  0
LEADER
  5
1E516
330
747D
100
AcDbEntity
  8
寸法
 62
     7
 48
50.0
100
AcDbLeader
  3
INABA_S50G
 73
     0
 74
     0
 75
     1
 40
150.0
 41
231.9898538650463
 76
     3
 10
9749.236229035595
 20
1949.373661269833
 30
0.0
 10
9828.158987327649
 20
2170.806562121256
 30
0.0
 10
9953.158987327649
 20
2170.806562121256
 30
0.0
340
1E515
1001
ACAD
1000
DSTYLE
1002
{
1070
    40
1040
1.0
1002
}
  0
LINE
  5
1E517
330
747D
100
AcDbEntity
  8
部品1
 62
     7
100
AcDbLine
 10
9949.236229035593
 20
1949.373661269833
 30
0.0
 11
9949.236229035593
 21
1749.373661269833
 31
0.0
  0
LINE
  5
1E518
330
747D
100
AcDbEntity
  8
細線
 62
     7
100
AcDbLine
 10
9895.278436874749
 20
1749.373661269833
 30
0.0
 11
9695.278436874751
 21
1949.373661269833
 31
0.0
  0
LINE
  5
1E519
330
747D
100
AcDbEntity
  8
細線
 62
     7
100
AcDbLine
 10
9937.704843745946
 20
1749.373661269833
 30
0.0
 11
9737.704843745945
 21
1949.373661269833
 31
0.0
  0
LINE
  5
1E51A
330
747D
100
AcDbEntity
  8
細線
 62
     7
100
AcDbLine
 10
9819.848987496159
 20
1649.373661269832
 30
0.0
 11
9919.848987496159
 21
1749.373661269833
 31
0.0
  0
LINE
  5
1E51B
330
747D
100
AcDbEntity
  8
細線
 62
     7
100
AcDbLine
 10
9848.133258743622
 20
1649.373661269833
 30
0.0
 11
9948.133258743617
 21
1749.373661269833
 31
0.0
  0
LINE
  5
1E51C
330
747D
100
AcDbEntity
  8
細線
 62
     7
100
AcDbLine
 10
9876.41752999108
 20
1649.373661269832
 30
0.0
 11
9976.417529991081
 21
1749.373661269833
 31
0.0
  0
LINE
  5
1E51D
330
747D
100
AcDbEntity
  8
文字
 62
     7
 48
50.0
100
AcDbLine
 10
10199.04748849817
 20
1750.309528320741
 30
0.0
 11
10272.97801269095
 21
1878.360952452848
 31
0.0
  0
LINE
  5
1E51E
330
747D
100
AcDbEntity
  8
文字
 62
     7
 48
50.0
100
AcDbLine
 10
10272.97801269095
 20
1878.360952452848
 30
0.0
 11
10125.11696430538
 21
1878.360952452848
 31
0.0
  0
LINE
  5
1E51F
330
747D
100
AcDbEntity
  8
文字
 62
     7
 48
50.0
100
AcDbLine
 10
10125.11696430538
 20
1878.360952452848
 30
0.0
 11
10199.04748849817
 21
1750.309528320742
 31
0.0
  0
TEXT
  5
1E520
330
747D
100
AcDbEntity
  8
部品1
 62
     7
100
AcDbText
 10
9374.418454080537
 20
3075.560085060715
 30
0.0
 40
150.0
  1
基礎詳細
  7
STYLE2
100
AcDbText
  0
LINE
  5
1E521
330
747D
100
AcDbEntity
  8
部品1
 62
     7
100
AcDbLine
 10
12792.41842782453
 20
600.0
 30
0.0
 11
12792.41842782453
 21
3299.999999999999
 31
0.0
  0
LINE
  5
1E522
330
747D
100
AcDbEntity
  8
部品1
 62
     7
100
AcDbLine
 10
10792.41842782453
 20
3299.999999999999
 30
0.0
 11
10792.41842782453
 21
600.0
 31
0.0
  0
LINE
  5
1E523
330
747D
100
AcDbEntity
  8
部品1
 62
     7
 48
10.0
100
AcDbLine
 10
12159.39291868346
 20
1459.373661269833
 30
0.0
 11
12115.39291868346
 21
1459.373661269833
 31
0.0
  0
LINE
  5
1E524
330
747D
100
AcDbEntity
  8
部品1
 62
     7
 48
10.0
100
AcDbLine
 10
12159.39291868346
 20
1475.373661269834
 30
0.0
 11
12115.39291868346
 21
1475.373661269834
 31
0.0
  0
LINE
  5
1E525
330
747D
100
AcDbEntity
  8
細線
  6
HIDDEN
 62
     7
 48
10.0
100
AcDbLine
 10
12123.76726058689
 20
1349.373661269835
 30
0.0
 11
12371.39291868346
 21
1596.999319366418
 31
0.0
  0
LINE
  5
1E526
330
747D
100
AcDbEntity
  8
細線
  6
HIDDEN
 62
     7
 48
10.0
100
AcDbLine
 10
12095.48298933942
 20
1349.373661269834
 30
0.0
 11
12371.39291868346
 21
1625.283590613878
 31
0.0
  0
DIMENSION
  5
1E527
330
747D
100
AcDbEntity
  8
寸法
 62
     7
 48
50.0
100
AcDbDimension
  2
*D28
 10
11778.67290371428
 20
1459.373661269833
 30
0.0
 11
11678.65813993475
 21
1744.373661269835
 31
0.0
 70
    32
  1
285
 71
     5
 42
570.0000000000009
  3
INABA_S50G
100
AcDbAlignedDimension
 13
12159.39291868346
 23
2029.373661269834
 33
0.0
 14
12115.39291868346
 24
1459.373661269833
 34
0.0
 50
90.0
100
AcDbRotatedDimension
  0
DIMENSION
  5
1E528
330
747D
100
AcDbEntity
  8
寸法
 62
     7
 48
50.0
100
AcDbDimension
  2
*D29
 10
11971.39291868346
 20
1022.89069578453
 30
0.0
 11
12171.39291868346
 21
1122.905459564057
 31
0.0
 70
    32
  1
200
 71
     5
 42
400.0
  3
INABA_S50G
100
AcDbAlignedDimension
 13
12371.39291868346
 23
1349.373661269834
 33
0.0
 14
11971.39291868346
 24
1349.373661269834
 34
0.0
100
AcDbRotatedDimension
  0
LINE
  5
1E529
330
747D
100
AcDbEntity
  8
細線
  6
HIDDEN
 62
     7
 48
10.0
100
AcDbLine
 10
11971.39291868346
 20
1349.373661269834
 30
0.0
 11
12371.39291868346
 21
1349.373661269834
 31
0.0
  0
LINE
  5
1E52A
330
747D
100
AcDbEntity
  8
Ｇ．Ｌ
 62
     7
100
AcDbLine
 10
11802.01519945007
 20
1749.373661269833
 30
0.0
 11
12159.39291868346
 21
1749.373661269833
 31
0.0
  0
DIMENSION
  5
1E52B
330
747D
100
AcDbEntity
  8
寸法
 62
     7
 48
50.0
100
AcDbDimension
  2
*D30
 10
11496.26221710674
 20
1349.373661269834
 30
0.0
 11
11496.26221710674
 21
1549.373661269835
 31
0.0
 70
   160
  1
200
 71
     5
 42
399.9999999999989
  3
INABA_S50G
100
AcDbAlignedDimension
 13
11561.22057962788
 23
1749.373661269833
 33
0.0
 14
11971.39291868346
 24
1349.373661269834
 34
0.0
 50
90.0
100
AcDbRotatedDimension
1001
ACAD
1000
DSTYLE
1002
{
1070
    40
1040
1.0
1002
}
  0
LINE
  5
1E52C
330
747D
100
AcDbEntity
  8
細線
  6
HIDDEN
 62
     7
 48
10.0
100
AcDbLine
 10
11971.39291868346
 20
1349.373661269834
 30
0.0
 11
11971.39291868346
 21
1749.373661269833
 31
0.0
  0
LINE
  5
1E52D
330
747D
100
AcDbEntity
  8
細線
  6
HIDDEN
 62
     7
 48
10.0
100
AcDbLine
 10
11971.39291868346
 20
1623.657708219241
 30
0.0
 11
12097.10887173405
 21
1749.373661269833
 31
0.0
  0
LINE
  5
1E52E
330
747D
100
AcDbEntity
  8
細線
  6
HIDDEN
 62
     7
 48
10.0
100
AcDbLine
 10
11971.39291868346
 20
1595.373436971778
 30
0.0
 11
12125.3931429815
 21
1749.373661269833
 31
0.0
  0
LINE
  5
1E52F
330
747D
100
AcDbEntity
  8
部品1
 62
     7
 48
10.0
100
AcDbLine
 10
12115.39291868346
 20
1459.373661269833
 30
0.0
 11
12115.39291868346
 21
1475.373661269834
 31
0.0
  0
LINE
  5
1E530
330
747D
100
AcDbEntity
  8
Ｇ．Ｌ
 62
     7
100
AcDbLine
 10
10862.63196514754
 20
1749.373661269833
 30
0.0
 11
11561.22057962788
 21
1749.373661269833
 31
0.0
  0
LINE
  5
1E531
330
747D
100
AcDbEntity
  8
文字
 62
     7
 48
50.0
100
AcDbLine
 10
10894.93918877682
 20
1877.425085401941
 30
0.0
 11
10968.86971296961
 21
1749.373661269833
 31
0.0
  0
LINE
  5
1E532
330
747D
100
AcDbEntity
  8
文字
 62
     7
 48
50.0
100
AcDbLine
 10
11042.8002371624
 20
1877.425085401941
 30
0.0
 11
10894.93918877682
 21
1877.425085401941
 31
0.0
  0
TEXT
  5
1E533
330
747D
100
AcDbEntity
  8
部品1
 62
     7
100
AcDbText
 10
11063.40298672054
 20
1771.234304431198
 30
0.0
 40
150.0
  1
G.L
  7
STYLE1
100
AcDbText
  0
LINE
  5
1E534
330
747D
100
AcDbEntity
  8
文字
 62
     7
 48
50.0
100
AcDbLine
 10
10968.86971296961
 20
1749.373661269833
 30
0.0
 11
11042.8002371624
 21
1877.425085401941
 31
0.0
  0
DIMENSION
  5
1E535
330
747D
100
AcDbEntity
  8
寸法
 62
     7
 48
50.0
100
AcDbDimension
  2
*D31
 10
11496.91093653513
 20
1749.373661269833
 30
0.0
 11
11496.91093653513
 21
2236.337243947
 31
0.0
 70
   160
  1
100
 71
     5
 42
200.0000000000011
  3
INABA_S50G
100
AcDbAlignedDimension
 13
11778.67290371428
 23
1949.373661269834
 33
0.0
 14
11561.22057962788
 24
1749.373661269833
 34
0.0
 50
90.0
100
AcDbRotatedDimension
  0
LINE
  5
1E536
330
747D
100
AcDbEntity
  8
細線
  6
HIDDEN
 62
     7
 48
10.0
100
AcDbLine
 10
11971.39291868346
 20
1651.941979466702
 30
0.0
 11
12068.82460048659
 21
1749.373661269833
 31
0.0
  0
LINE
  5
1E537
330
747D
100
AcDbEntity
  8
寸法
 62
     7
 48
50.0
100
AcDbLine
 10
11795.42058817862
 20
1949.373661269834
 30
0.0
 11
12136.21794591976
 21
1949.373661269834
 31
0.0
  0
LINE
  5
1E538
330
747D
100
AcDbEntity
  8
部品1
 62
     7
 48
10.0
100
AcDbLine
 10
12175.39291868346
 20
1475.373661269834
 30
0.0
 11
12175.39291868346
 21
2029.373661269834
 31
0.0
  0
LINE
  5
1E539
330
747D
100
AcDbEntity
  8
部品1
 62
     7
 48
10.0
100
AcDbLine
 10
12159.39291868346
 20
2029.373661269834
 30
0.0
 11
12159.39291868346
 21
1475.373661269834
 31
0.0
  0
LINE
  5
1E53A
330
747D
100
AcDbEntity
  8
細線
  6
HIDDEN
 62
     7
 48
10.0
100
AcDbLine
 10
12371.39291868346
 20
1349.373661269834
 30
0.0
 11
12371.39291868346
 21
1749.373661269833
 31
0.0
  0
LINE
  5
1E53B
330
747D
100
AcDbEntity
  8
細線
  6
HIDDEN
 62
     7
 48
10.0
100
AcDbLine
 10
12152.05153183435
 20
1349.373661269835
 30
0.0
 11
12371.39291868346
 21
1568.715048118956
 31
0.0
  0
ARC
  5
1E53C
330
747D
100
AcDbEntity
  8
部品1
 62
     7
 48
10.0
100
AcDbCircle
 10
12159.39291868346
 20
1475.373661269834
 30
0.0
 40
16.0
100
AcDbArc
 50
270.0
 51
0.0
  0
LINE
  5
1E53D
330
747D
100
AcDbEntity
  8
部品1
 62
     7
 48
10.0
100
AcDbLine
 10
12335.39291868346
 20
2063.373661269833
 30
0.0
 11
12335.39291868346
 21
2683.152017438573
 31
0.0
  0
LINE
  5
1E53E
330
747D
100
AcDbEntity
  8
部品1
 62
     7
 48
10.0
100
AcDbLine
 10
12319.39291868346
 20
2047.373661269833
 30
0.0
 11
12319.39291868346
 21
2683.152017438573
 31
0.0
  0
LINE
  5
1E53F
330
747D
100
AcDbEntity
  8
部品1
 62
     7
 48
10.0
100
AcDbLine
 10
12303.39291868346
 20
1949.373661269834
 30
0.0
 11
12303.39291868346
 21
2683.152017438573
 31
0.0
  0
LINE
  5
1E540
330
747D
100
AcDbEntity
  8
部品1
 62
     7
 48
10.0
100
AcDbLine
 10
12175.39291868346
 20
1949.373661269834
 30
0.0
 11
12175.39291868346
 21
2683.152017438573
 31
0.0
  0
LINE
  5
1E541
330
747D
100
AcDbEntity
  8
部品1
 62
     7
 48
10.0
100
AcDbLine
 10
12303.39291868346
 20
2047.373661269833
 30
0.0
 11
12690.73056603674
 21
2047.373661269833
 31
0.0
  0
LINE
  5
1E542
330
747D
100
AcDbEntity
  8
部品1
 62
     7
 48
10.0
100
AcDbLine
 10
12319.39291868346
 20
2063.373661269833
 30
0.0
 11
12690.73056603674
 21
2063.373661269833
 31
0.0
  0
LINE
  5
1E543
330
747D
100
AcDbEntity
  8
部品1
 62
     7
 48
10.0
100
AcDbLine
 10
12175.39291868346
 20
1949.373661269834
 30
0.0
 11
12690.73056603674
 21
1949.373661269834
 31
0.0
  0
LINE
  5
1E544
330
747D
100
AcDbEntity
  8
部品1
 62
     7
 48
10.0
100
AcDbLine
 10
12175.39291868346
 20
1949.373661269834
 30
0.0
 11
12575.39291868346
 21
1949.373661269834
 31
0.0
  0
LINE
  5
1E545
330
747D
100
AcDbEntity
  8
細線
 62
     7
100
AcDbLine
 10
12563.86153339381
 20
1749.373661269834
 30
0.0
 11
12363.86153339381
 21
1949.373661269834
 31
0.0
  0
LINE
  5
1E546
330
747D
100
AcDbEntity
  8
Ｇ．Ｌ
 62
     7
100
AcDbLine
 10
12175.39291868346
 20
1749.373661269833
 30
0.0
 11
12689.16290152045
 21
1749.373661269833
 31
0.0
  0
LINE
  5
1E547
330
747D
100
AcDbEntity
  8
部品1
 62
     7
 48
10.0
100
AcDbLine
 10
12175.39291868346
 20
1749.373661269833
 30
0.0
 11
12175.39291868346
 21
1949.373661269834
 31
0.0
  0
LINE
  5
1E548
330
747D
100
AcDbEntity
  8
細線
 62
     7
100
AcDbLine
 10
12521.43512652261
 20
1749.373661269833
 30
0.0
 11
12321.43512652261
 21
1949.373661269834
 31
0.0
  0
LINE
  5
1E549
330
747D
100
AcDbEntity
  8
細線
 62
     7
100
AcDbLine
 10
12337.58736341411
 20
1749.373661269833
 30
0.0
 11
12175.39291868346
 21
1911.568106000486
 31
0.0
  0
LINE
  5
1E54A
330
747D
100
AcDbEntity
  8
細線
 62
     7
100
AcDbLine
 10
12295.16095654292
 20
1749.373661269833
 30
0.0
 11
12175.39291868346
 21
1869.141699129294
 31
0.0
  0
CIRCLE
  5
1E54B
330
747D
100
AcDbEntity
  8
細線
 62
     7
100
AcDbCircle
 10
12281.39291868346
 20
1999.373661269833
 30
0.0
 40
16.0
  0
CIRCLE
  5
1E54C
330
747D
100
AcDbEntity
  8
細線
 62
     7
100
AcDbCircle
 10
12235.39291868346
 20
1999.373661269833
 30
0.0
 40
16.0
  0
LINE
  5
1E54D
330
747D
100
AcDbEntity
  8
細線
 62
     7
100
AcDbLine
 10
12153.39291868346
 20
1983.373661269834
 30
0.0
 11
12153.39291868346
 21
2015.373661269833
 31
0.0
  0
LINE
  5
1E54E
330
747D
100
AcDbEntity
  8
細線
 62
     7
100
AcDbLine
 10
12159.39291868346
 20
1983.373661269834
 30
0.0
 11
12159.39291868346
 21
2015.373661269833
 31
0.0
  0
LINE
  5
1E54F
330
747D
100
AcDbEntity
  8
細線
 62
     7
100
AcDbLine
 10
12159.39291868346
 20
1983.373661269834
 30
0.0
 11
12153.39291868346
 21
1983.373661269834
 31
0.0
  0
LINE
  5
1E550
330
747D
100
AcDbEntity
  8
細線
 62
     7
100
AcDbLine
 10
12159.39291868346
 20
2015.373661269833
 30
0.0
 11
12153.39291868346
 21
2015.373661269833
 31
0.0
  0
ARC
  5
1E551
330
747D
100
AcDbEntity
  8
細線
 62
     7
100
AcDbCircle
 10
12152.39291868346
 20
1992.373661269834
 30
0.0
 40
7.0
100
AcDbArc
 50
180.0
 51
270.0
  0
ARC
  5
1E552
330
747D
100
AcDbEntity
  8
細線
 62
     7
100
AcDbCircle
 10
12152.39291868346
 20
2006.373661269833
 30
0.0
 40
7.0
100
AcDbArc
 50
90.0
 51
180.0
  0
LINE
  5
1E553
330
747D
100
AcDbEntity
  8
細線
 62
     7
100
AcDbLine
 10
12153.39291868346
 20
1985.373661269834
 30
0.0
 11
12152.39291868346
 21
1985.373661269834
 31
0.0
  0
LINE
  5
1E554
330
747D
100
AcDbEntity
  8
細線
 62
     7
100
AcDbLine
 10
12153.39291868346
 20
2013.373661269834
 30
0.0
 11
12152.39291868346
 21
2013.373661269834
 31
0.0
  0
LINE
  5
1E555
330
747D
100
AcDbEntity
  8
細線
 62
     7
100
AcDbLine
 10
12145.39291868346
 20
1992.373661269834
 30
0.0
 11
12145.39291868346
 21
2006.373661269833
 31
0.0
  0
LINE
  5
1E556
330
747D
100
AcDbEntity
  8
部品1
 62
     7
 48
10.0
100
AcDbLine
 10
12175.39291868346
 20
2029.373661269834
 30
0.0
 11
12159.39291868346
 21
2029.373661269834
 31
0.0
  0
LINE
  5
1E557
330
747D
100
AcDbEntity
  8
部品1
 62
     7
 48
10.0
100
AcDbLine
 10
12575.39291868346
 20
1949.373661269834
 30
0.0
 11
12575.39291868346
 21
1749.373661269833
 31
0.0
  0
TEXT
  5
1E558
330
747D
100
AcDbEntity
  8
部品1
 62
     7
100
AcDbText
 10
11028.92355353962
 20
3076.227094002039
 30
0.0
 40
150.0
  1
アンカー部詳細
  7
STYLE2
100
AcDbText
  0
ENDSEC
  0
SECTION
  2
OBJECTS
  0
DICTIONARY
  5
7471
330
0
100
AcDbDictionary
281
     1
  3
ACAD_COLOR
350
1E33A
  3
ACAD_GROUP
350
7472
  3
ACAD_LAYOUT
350
1A1FB
  3
ACAD_MATERIAL
350
1E339
  3
ACAD_MLINESTYLE
350
7473
  3
ACAD_PLOTSETTINGS
350
1A1FC
  3
ACAD_PLOTSTYLENAME
350
1A1F9
  3
ACDBVARIABLEDICTIONARY
350
1152B
  3
CONTENTDICTIONARY
350
E71C
  3
DRAWINGVARIABLESDICT
350
F3B9
  0
DICTIONARY
  5
1E33A
102
{ACAD_REACTORS
330
7471
102
}
330
7471
100
AcDbDictionary
281
     1
  0
DICTIONARY
  5
7472
102
{ACAD_REACTORS
330
7471
102
}
330
7471
100
AcDbDictionary
281
     1
  0
DICTIONARY
  5
1A1FB
102
{ACAD_REACTORS
330
7471
102
}
330
7471
100
AcDbDictionary
281
     1
  3
Model
350
1A1FD
  3
ﾚｲｱｳﾄ1
350
1A1FE
  0
DICTIONARY
  5
1E339
102
{ACAD_REACTORS
330
7471
102
}
330
7471
100
AcDbDictionary
281
     1
  0
DICTIONARY
  5
7473
102
{ACAD_REACTORS
330
7471
102
}
330
7471
100
AcDbDictionary
281
     1
  3
STANDARD
350
7480
  0
DICTIONARY
  5
1A1FC
102
{ACAD_REACTORS
330
7471
102
}
330
7471
100
AcDbDictionary
281
     1
  0
ACDBDICTIONARYWDFLT
  5
1A1F9
102
{ACAD_REACTORS
330
7471
102
}
330
7471
100
AcDbDictionary
281
     1
  3
Normal
350
1A1FA
100
AcDbDictionaryWithDefault
340
1A1FA
  0
DICTIONARY
  5
1152B
102
{ACAD_REACTORS
330
7471
102
}
330
7471
100
AcDbDictionary
281
     1
  3
SORTENTS
350
1152C
  0
DICTIONARY
  5
E71C
102
{ACAD_REACTORS
330
7471
102
}
330
7471
100
AcDbDictionary
281
     1
  0
DICTIONARY
  5
F3B9
102
{ACAD_REACTORS
330
7471
102
}
330
7471
100
AcDbDictionary
281
     1
1001
DRAWINGVARIABLESXDATA
1000
POLARMODE
1000
1
  0
LAYOUT
  5
1A1FD
102
{ACAD_REACTORS
330
1A1FB
102
}
330
1A1FB
100
AcDbPlotSettings
  1

  2
\\NKZ-SERVER\EPSON LP-9000
  4

  6

 40
0.0
 41
0.0
 42
0.0
 43
0.0
 44
0.0
 45
0.0
 46
0.0
 47
0.0
 48
0.0
 49
0.0
140
0.0
141
0.0
142
1.0
143
1.0
 70
  1712
 72
     0
 73
     0
 74
     0
  7

 75
     0
147
1.0
 76
     0
 77
     2
 78
   300
148
0.0
149
0.0
100
AcDbLayout
  1
Model
 70
     1
 71
     0
 10
0.0
 20
0.0
 11
12.0
 21
9.0
 12
0.0
 22
0.0
 32
0.0
 14
0.0
 24
0.0
 34
0.0
 15
0.0
 25
0.0
 35
0.0
146
0.0
 13
0.0
 23
0.0
 33
0.0
 16
1.0
 26
0.0
 36
0.0
 17
0.0
 27
1.0
 37
0.0
 76
     0
330
747D
  0
LAYOUT
  5
1A1FE
102
{ACAD_REACTORS
330
1A1FB
102
}
330
1A1FB
100
AcDbPlotSettings
  1

  2
\\NKZ-SERVER\EPSON LP-9000
  4

  6

 40
0.0
 41
0.0
 42
0.0
 43
0.0
 44
0.0
 45
0.0
 46
0.0
 47
0.0
 48
0.0
 49
0.0
140
0.0
141
0.0
142
1.0
143
1.0
 70
   688
 72
     0
 73
     0
 74
     5
  7

 75
    16
147
1.0
 76
     0
 77
     2
 78
   300
148
0.0
149
0.0
100
AcDbLayout
  1
ﾚｲｱｳﾄ1
 70
     0
 71
     1
 10
0.0
 20
0.0
 11
420.0
 21
297.0
 12
0.0
 22
0.0
 32
0.0
 14
1.000000000000000E+20
 24
1.000000000000000E+20
 34
1.000000000000000E+20
 15
-1.000000000000000E+20
 25
-1.000000000000000E+20
 35
-1.000000000000000E+20
146
0.0
 13
0.0
 23
0.0
 33
0.0
 16
1.0
 26
0.0
 36
0.0
 17
0.0
 27
1.0
 37
0.0
 76
     0
330
747A
  0
MLINESTYLE
  5
7480
102
{ACAD_REACTORS
330
7473
102
}
330
7473
100
AcDbMlineStyle
  2
STANDARD
 70
     0
  3

 62
     0
 51
90.0
 52
90.0
 71
     2
 49
0.5
 62
   256
  6
BYLAYER
 49
-0.5
 62
   256
  6
BYLAYER
  0
ACDBPLACEHOLDER
  5
1A1FA
102
{ACAD_REACTORS
330
1A1F9
102
}
330
1A1F9
  0
DICTIONARYVAR
  5
1152C
102
{ACAD_REACTORS
330
1152B
102
}
330
1152B
100
DictionaryVariables
280
     0
  1
96
  0
ENDSEC
  0
EOF
