  0
SECTION
  2
HEADER
  9
$ACADVER
  1
AC1015
  9
$ACADMAINTVER
 70
    20
  9
$DWGCODEPAGE
  3
ANSI_932
  9
$INSBASE
 10
0.0
 20
0.0
 30
0.0
  9
$EXTMIN
 10
174.9999999999993
 20
-0.0000000000001137
 30
0.0
  9
$EXTMAX
 10
20384.0
 20
14262.0
 30
0.0
  9
$LIMMIN
 10
0.0
 20
0.0
  9
$LIMMAX
 10
21000.0
 20
14850.0
  9
$ORTHOMODE
 70
     0
  9
$REGENMODE
 70
     1
  9
$FILLMODE
 70
     1
  9
$QTEXTMODE
 70
     0
  9
$MIRRTEXT
 70
     1
  9
$LTSCALE
 40
20.0
  9
$ATTMODE
 70
     1
  9
$TEXTSIZE
 40
150.0
  9
$TRACEWID
 40
1.0
  9
$TEXTSTYLE
  7
STYLE1
  9
$CLAYER
  8
寸法
  9
$CELTYPE
  6
BYLAYER
  9
$CECOLOR
 62
   256
  9
$CELTSCALE
 40
50.0
  9
$DISPSILH
 70
     0
  9
$DIMSCALE
 40
1.0
  9
$DIMASZ
 40
125.0
  9
$DIMEXO
 40
25.0
  9
$DIMDLI
 40
7.0
  9
$DIMRND
 40
0.0
  9
$DIMDLE
 40
0.0
  9
$DIMEXE
 40
75.0
  9
$DIMTP
 40
0.0
  9
$DIMTM
 40
0.0
  9
$DIMTXT
 40
150.0
  9
$DIMCEN
 40
0.0
  9
$DIMTSZ
 40
0.0
  9
$DIMTOL
 70
     0
  9
$DIMLIM
 70
     0
  9
$DIMTIH
 70
     0
  9
$DIMTOH
 70
     0
  9
$DIMSE1
 70
     0
  9
$DIMSE2
 70
     0
  9
$DIMTAD
 70
     3
  9
$DIMZIN
 70
     8
  9
$DIMBLK
  1

  9
$DIMASO
 70
     1
  9
$DIMSHO
 70
     1
  9
$DIMPOST
  1

  9
$DIMAPOST
  1

  9
$DIMALT
 70
     0
  9
$DIMALTD
 70
     2
  9
$DIMALTF
 40
0.0394
  9
$DIMLFAC
 40
1.0
  9
$DIMTOFL
 70
     1
  9
$DIMTVP
 40
0.0
  9
$DIMTIX
 70
     1
  9
$DIMSOXD
 70
     0
  9
$DIMSAH
 70
     1
  9
$DIMBLK1
  1
DOTSMALL
  9
$DIMBLK2
  1
DOTSMALL
  9
$DIMSTYLE
  2
INABA_S50G
  9
$DIMCLRD
 70
     0
  9
$DIMCLRE
 70
     0
  9
$DIMCLRT
 70
     7
  9
$DIMTFAC
 40
1.0
  9
$DIMGAP
 40
25.0
  9
$DIMJUST
 70
     0
  9
$DIMSD1
 70
     0
  9
$DIMSD2
 70
     0
  9
$DIMTOLJ
 70
     1
  9
$DIMTZIN
 70
     0
  9
$DIMALTZ
 70
     0
  9
$DIMALTTZ
 70
     0
  9
$DIMUPT
 70
     0
  9
$DIMDEC
 70
     1
  9
$DIMTDEC
 70
     4
  9
$DIMALTU
 70
     2
  9
$DIMALTTD
 70
     2
  9
$DIMTXSTY
  7
STYLE1
  9
$DIMAUNIT
 70
     0
  9
$DIMADEC
 70
     0
  9
$DIMALTRND
 40
0.0
  9
$DIMAZIN
 70
     0
  9
$DIMDSEP
 70
    46
  9
$DIMATFIT
 70
     3
  9
$DIMFRAC
 70
     0
  9
$DIMLDRBLK
  1

  9
$DIMLUNIT
 70
     2
  9
$DIMLWD
 70
    -2
  9
$DIMLWE
 70
    -2
  9
$DIMTMOVE
 70
     0
  9
$LUNITS
 70
     2
  9
$LUPREC
 70
     1
  9
$SKETCHINC
 40
1.0
  9
$FILLETRAD
 40
200.0
  9
$AUNITS
 70
     0
  9
$AUPREC
 70
     0
  9
$MENU
  1
acad
  9
$ELEVATION
 40
0.0
  9
$PELEVATION
 40
0.0
  9
$THICKNESS
 40
0.0
  9
$LIMCHECK
 70
     0
  9
$CHAMFERA
 40
0.0
  9
$CHAMFERB
 40
0.0
  9
$CHAMFERC
 40
30.0
  9
$CHAMFERD
 40
0.7853981633974483
  9
$SKPOLY
 70
     0
  9
$TDCREATE
 40
2450927.380327778
  9
$TDUCREATE
 40
2450927.005327778
  9
$TDUPDATE
 40
2455827.765833472
  9
$TDUUPDATE
 40
2455827.390833472
  9
$TDINDWG
 40
2.0802918287
  9
$TDUSRTIMER
 40
2.0802918287
  9
$USRTIMER
 70
     1
  9
$ANGBASE
 50
0.0
  9
$ANGDIR
 70
     0
  9
$PDMODE
 70
     3
  9
$PDSIZE
 40
2.0
  9
$PLINEWID
 40
0.0
  9
$SPLFRAME
 70
     0
  9
$SPLINETYPE
 70
     6
  9
$SPLINESEGS
 70
     8
  9
$HANDSEED
  5
217E0
  9
$SURFTAB1
 70
     6
  9
$SURFTAB2
 70
     6
  9
$SURFTYPE
 70
     6
  9
$SURFU
 70
     6
  9
$SURFV
 70
     6
  9
$UCSBASE
  2

  9
$UCSNAME
  2

  9
$UCSORG
 10
0.0
 20
0.0
 30
0.0
  9
$UCSXDIR
 10
1.0
 20
0.0
 30
0.0
  9
$UCSYDIR
 10
0.0
 20
1.0
 30
0.0
  9
$UCSORTHOREF
  2

  9
$UCSORTHOVIEW
 70
     0
  9
$UCSORGTOP
 10
0.0
 20
0.0
 30
0.0
  9
$UCSORGBOTTOM
 10
0.0
 20
0.0
 30
0.0
  9
$UCSORGLEFT
 10
0.0
 20
0.0
 30
0.0
  9
$UCSORGRIGHT
 10
0.0
 20
0.0
 30
0.0
  9
$UCSORGFRONT
 10
0.0
 20
0.0
 30
0.0
  9
$UCSORGBACK
 10
0.0
 20
0.0
 30
0.0
  9
$PUCSBASE
  2

  9
$PUCSNAME
  2

  9
$PUCSORG
 10
0.0
 20
0.0
 30
0.0
  9
$PUCSXDIR
 10
1.0
 20
0.0
 30
0.0
  9
$PUCSYDIR
 10
0.0
 20
1.0
 30
0.0
  9
$PUCSORTHOREF
  2

  9
$PUCSORTHOVIEW
 70
     0
  9
$PUCSORGTOP
 10
0.0
 20
0.0
 30
0.0
  9
$PUCSORGBOTTOM
 10
0.0
 20
0.0
 30
0.0
  9
$PUCSORGLEFT
 10
0.0
 20
0.0
 30
0.0
  9
$PUCSORGRIGHT
 10
0.0
 20
0.0
 30
0.0
  9
$PUCSORGFRONT
 10
0.0
 20
0.0
 30
0.0
  9
$PUCSORGBACK
 10
0.0
 20
0.0
 30
0.0
  9
$USERI1
 70
     0
  9
$USERI2
 70
     0
  9
$USERI3
 70
     0
  9
$USERI4
 70
     0
  9
$USERI5
 70
     0
  9
$USERR1
 40
0.0
  9
$USERR2
 40
0.0
  9
$USERR3
 40
0.0
  9
$USERR4
 40
0.0
  9
$USERR5
 40
0.0
  9
$WORLDVIEW
 70
     1
  9
$SHADEDGE
 70
     3
  9
$SHADEDIF
 70
    70
  9
$TILEMODE
 70
     1
  9
$MAXACTVP
 70
    16
  9
$PINSBASE
 10
0.0
 20
0.0
 30
0.0
  9
$PLIMCHECK
 70
     0
  9
$PEXTMIN
 10
1.000000000000000E+20
 20
1.000000000000000E+20
 30
1.000000000000000E+20
  9
$PEXTMAX
 10
-1.000000000000000E+20
 20
-1.000000000000000E+20
 30
-1.000000000000000E+20
  9
$PLIMMIN
 10
0.0
 20
0.0
  9
$PLIMMAX
 10
420.0
 20
297.0
  9
$UNITMODE
 70
     0
  9
$VISRETAIN
 70
     0
  9
$PLINEGEN
 70
     0
  9
$PSLTSCALE
 70
     0
  9
$TREEDEPTH
 70
  3020
  9
$CMLSTYLE
  2
STANDARD
  9
$CMLJUST
 70
     0
  9
$CMLSCALE
 40
1.0
  9
$PROXYGRAPHICS
 70
     1
  9
$MEASUREMENT
 70
     1
  9
$CELWEIGHT
370
    -1
  9
$ENDCAPS
280
     0
  9
$JOINSTYLE
280
     0
  9
$LWDISPLAY
290
     0
  9
$INSUNITS
 70
     0
  9
$HYPERLINKBASE
  1

  9
$STYLESHEET
  1
inaba.ctb
  9
$XEDIT
290
     1
  9
$CEPSNTYPE
380
     0
  9
$PSTYLEMODE
290
     1
  9
$FINGERPRINTGUID
  2
{74532B36-5348-46EA-9D22-48862D6E68B8}
  9
$VERSIONGUID
  2
{320AB69B-8C24-4B5E-A0C1-681568513807}
  9
$EXTNAMES
290
     1
  9
$PSVPSCALE
 40
0.0
  9
$OLESTARTUP
290
     0
  0
ENDSEC
  0
SECTION
  2
CLASSES
  0
CLASS
  1
DICTIONARYVAR
  2
AcDbDictionaryVar
  3
ObjectDBX Classes
 90
        0
280
     0
281
     0
  0
CLASS
  1
ACDBDICTIONARYWDFLT
  2
AcDbDictionaryWithDefault
  3
ObjectDBX Classes
 90
        0
280
     0
281
     0
  0
CLASS
  1
ACDBPLACEHOLDER
  2
AcDbPlaceHolder
  3
ObjectDBX Classes
 90
        0
280
     0
281
     0
  0
CLASS
  1
LAYOUT
  2
AcDbLayout
  3
ObjectDBX Classes
 90
        0
280
     0
281
     0
  0
ENDSEC
  0
SECTION
  2
TABLES
  0
TABLE
  2
VPORT
  5
746D
330
0
100
AcDbSymbolTable
 70
     2
  0
VPORT
  5
217D8
330
746D
100
AcDbSymbolTableRecord
100
AcDbViewportTableRecord
  2
*Active
 70
     0
 10
0.0
 20
0.0
 11
1.0
 21
1.0
 12
10279.70128154813
 22
7130.877879560587
 13
0.0
 23
0.0
 14
10.0
 24
10.0
 15
10.0
 25
10.0
 16
0.0
 26
0.0
 36
1.0
 17
0.0
 27
0.0
 37
0.0
 40
14368.63742821595
 41
1.522222222222221
 42
50.0
 43
0.0
 44
0.0
 50
0.0
 51
0.0
 71
     0
 72
     0
 73
     1
 74
     0
 75
     1
 76
     0
 77
     0
 78
     0
281
     0
 65
     1
110
0.0
120
0.0
130
0.0
111
1.0
121
0.0
131
0.0
112
0.0
122
1.0
132
0.0
 79
     0
146
0.0
  0
ENDTAB
  0
TABLE
  2
LTYPE
  5
746A
330
0
100
AcDbSymbolTable
 70
     4
  0
LTYPE
  5
7477
330
746A
100
AcDbSymbolTableRecord
100
AcDbLinetypeTableRecord
  2
BYBLOCK
 70
     0
  3

 72
    65
 73
     0
 40
0.0
  0
LTYPE
  5
7478
330
746A
100
AcDbSymbolTableRecord
100
AcDbLinetypeTableRecord
  2
BYLAYER
 70
     0
  3

 72
    65
 73
     0
 40
0.0
  0
LTYPE
  5
7479
330
746A
100
AcDbSymbolTableRecord
100
AcDbLinetypeTableRecord
  2
CONTINUOUS
 70
     0
  3
Solid line
 72
    65
 73
     0
 40
0.0
  0
LTYPE
  5
7816
330
746A
100
AcDbSymbolTableRecord
100
AcDbLinetypeTableRecord
  2
CENTER
 70
     0
  3
____ _ ____ _ ____ _ ____ _ ____ _ ____ _ ____ 
 72
    65
 73
     4
 40
2.0
 49
1.25
 74
     0
 49
-0.25
 74
     0
 49
0.25
 74
     0
 49
-0.25
 74
     0
  0
LTYPE
  5
781B
330
746A
100
AcDbSymbolTableRecord
100
AcDbLinetypeTableRecord
  2
PHANTOM
 70
     0
  3
______  __  __  ______  __  __  ______  __  __ 
 72
    65
 73
     6
 40
2.5
 49
1.25
 74
     0
 49
-0.25
 74
     0
 49
0.25
 74
     0
 49
-0.25
 74
     0
 49
0.25
 74
     0
 49
-0.25
 74
     0
  0
LTYPE
  5
13F72
330
746A
100
AcDbSymbolTableRecord
100
AcDbLinetypeTableRecord
  2
HIDDEN
 70
     0
  3
__ __ __ __ __ __ __ __ __ __ __ __ __ __ __ __
 72
    65
 73
     2
 40
0.375
 49
0.25
 74
     0
 49
-0.125
 74
     0
  0
ENDTAB
  0
TABLE
  2
LAYER
  5
7467
102
{ACAD_XDICTIONARY
360
21171
102
}
330
0
100
AcDbSymbolTable
 70
    12
  0
LAYER
  5
7474
330
7467
100
AcDbSymbolTableRecord
100
AcDbLayerTableRecord
  2
0
 70
     0
 62
     7
  6
CONTINUOUS
370
    -3
390
1E714
  0
LAYER
  5
DEB2
330
7467
100
AcDbSymbolTableRecord
100
AcDbLayerTableRecord
  2
センター
 70
     0
 62
     3
  6
CENTER
370
    -3
390
1E714
  0
LAYER
  5
DEB3
330
7467
100
AcDbSymbolTableRecord
100
AcDbLayerTableRecord
  2
寸法
 70
     0
 62
     4
  6
CONTINUOUS
370
    -3
390
1E714
  0
LAYER
  5
DEB4
330
7467
100
AcDbSymbolTableRecord
100
AcDbLayerTableRecord
  2
部品1
 70
     0
 62
     7
  6
CONTINUOUS
370
    -3
390
1E714
  0
LAYER
  5
DEB5
330
7467
100
AcDbSymbolTableRecord
100
AcDbLayerTableRecord
  2
補助
 70
     0
 62
    -1
  6
CONTINUOUS
370
    -3
390
1E714
  0
LAYER
  5
DEB6
330
7467
100
AcDbSymbolTableRecord
100
AcDbLayerTableRecord
  2
文字
 70
     0
 62
     7
  6
CONTINUOUS
370
    -3
390
1E714
  0
LAYER
  5
F255
330
7467
100
AcDbSymbolTableRecord
100
AcDbLayerTableRecord
  2
DEFPOINTS
 70
     0
 62
     7
  6
CONTINUOUS
290
     0
370
    -3
390
1E714
  0
LAYER
  5
10B54
330
7467
100
AcDbSymbolTableRecord
100
AcDbLayerTableRecord
  2
仕様書枠
 70
     0
 62
   230
  6
CONTINUOUS
370
    -3
390
1E714
  0
LAYER
  5
13F73
330
7467
100
AcDbSymbolTableRecord
100
AcDbLayerTableRecord
  2
細線
 70
     0
 62
     5
  6
CONTINUOUS
370
    -3
390
1E714
  0
LAYER
  5
13F74
330
7467
100
AcDbSymbolTableRecord
100
AcDbLayerTableRecord
  2
点線
 70
     0
 62
     2
  6
HIDDEN
370
    -3
390
1E714
  0
LAYER
  5
1643F
330
7467
100
AcDbSymbolTableRecord
100
AcDbLayerTableRecord
  2
想像線
 70
     0
 62
     6
  6
PHANTOM
370
    -3
390
1E714
  0
LAYER
  5
18753
330
7467
100
AcDbSymbolTableRecord
100
AcDbLayerTableRecord
  2
Ｇ．Ｌ
 70
     0
 62
    30
  6
CONTINUOUS
370
    -3
390
1E714
  0
ENDTAB
  0
TABLE
  2
STYLE
  5
7468
330
0
100
AcDbSymbolTable
 70
     3
  0
STYLE
  5
7475
330
7468
100
AcDbSymbolTableRecord
100
AcDbTextStyleTableRecord
  2
STANDARD
 70
     0
 40
0.0
 41
1.0
 50
0.0
 71
     0
 42
4.0
  3
txt
  4
C:\AutoCAD LT\bigfont.shx
  0
STYLE
  5
F706
330
7468
100
AcDbSymbolTableRecord
100
AcDbTextStyleTableRecord
  2
STYLE1
 70
     0
 40
0.0
 41
1.0
 50
0.0
 71
     0
 42
150.0
  3
isocp.shx
  4
bigfont.shx
  0
STYLE
  5
103BF
330
7468
100
AcDbSymbolTableRecord
100
AcDbTextStyleTableRecord
  2
STYLE2
 70
     0
 40
0.0
 41
1.0
 50
0.0
 71
     0
 42
100.0
  3
MS PGothic.ttf
  4

1001
ACAD
1000
MS PGothic
1071
    32818
  0
ENDTAB
  0
TABLE
  2
VIEW
  5
746B
330
0
100
AcDbSymbolTable
 70
     0
  0
ENDTAB
  0
TABLE
  2
UCS
  5
746C
330
0
100
AcDbSymbolTable
 70
     0
  0
ENDTAB
  0
TABLE
  2
APPID
  5
746E
330
0
100
AcDbSymbolTable
 70
     6
  0
APPID
  5
7476
330
746E
100
AcDbSymbolTableRecord
100
AcDbRegAppTableRecord
  2
ACAD
 70
     0
  0
APPID
  5
DEA9
330
746E
100
AcDbSymbolTableRecord
100
AcDbRegAppTableRecord
  2
CONTENTBLOCKICON
 70
     0
  0
APPID
  5
DEAA
330
746E
100
AcDbSymbolTableRecord
100
AcDbRegAppTableRecord
  2
CONTENTBLOCKDESCRIPTION
 70
     0
  0
APPID
  5
E71D
330
746E
100
AcDbSymbolTableRecord
100
AcDbRegAppTableRecord
  2
CONTENTTABDATA
 70
     0
  0
APPID
  5
E71E
330
746E
100
AcDbSymbolTableRecord
100
AcDbRegAppTableRecord
  2
CONTENTCURRENTTAB
 70
     0
  0
APPID
  5
F3BA
330
746E
100
AcDbSymbolTableRecord
100
AcDbRegAppTableRecord
  2
DRAWINGVARIABLESXDATA
 70
     0
  0
ENDTAB
  0
TABLE
  2
DIMSTYLE
  5
746F
330
0
100
AcDbSymbolTable
 70
     2
100
AcDbDimStyleTable
 71
     1
340
F71F
  0
DIMSTYLE
105
F71F
102
{ACAD_REACTORS
330
1D674
330
1CEE4
330
1CF0B
330
1D3D0
330
1D3D3
330
1D3D1
330
1D3C3
330
1CF02
330
1CF04
330
1CF03
330
1CEE6
330
1CF06
330
1CF05
330
1CEE5
330
1CF15
330
1D3C4
330
1CEEE
330
1CEED
330
1D3BD
330
1D3BB
330
1D3BC
330
1D249
330
1D7A7
330
1D7A6
330
1D3C5
330
1CF07
330
1DA30
330
1E858
330
1E885
330
1E89D
330
1E8C0
330
1FBD0
330
1FBDD
330
217AB
102
}
330
746F
100
AcDbSymbolTableRecord
100
AcDbDimStyleTableRecord
  2
INABA_S50G
 70
     0
 41
125.0
 42
25.0
 43
7.0
 44
75.0
 73
     0
 74
     0
 77
     3
 78
     8
140
150.0
141
0.0
143
0.0394
147
25.0
172
     1
173
     1
174
     1
178
     7
271
     1
340
F706
341
F770
343
F770
344
F770
  0
DIMSTYLE
105
1DC8E
102
{ACAD_REACTORS
330
21416
330
21417
330
2141A
330
2141B
330
2142A
330
2142D
330
21430
102
}
330
746F
100
AcDbSymbolTableRecord
100
AcDbDimStyleTableRecord
  2
INABA_S50GUP
 70
     0
 41
125.0
 42
25.0
 43
7.0
 44
75.0
 73
     0
 74
     0
 77
     3
 78
     8
140
150.0
141
0.0
143
0.0394
147
25.0
172
     1
173
     1
174
     1
178
     7
271
     1
340
F706
341
F770
343
F770
344
F770
  0
ENDTAB
  0
TABLE
  2
BLOCK_RECORD
  5
7466
330
0
100
AcDbSymbolTable
 70
    42
  0
BLOCK_RECORD
  5
747D
330
7466
100
AcDbSymbolTableRecord
100
AcDbBlockTableRecord
  2
*MODEL_SPACE
340
1E719
  0
BLOCK_RECORD
  5
747A
330
7466
100
AcDbSymbolTableRecord
100
AcDbBlockTableRecord
  2
*PAPER_SPACE
340
1E71A
  0
BLOCK_RECORD
  5
F770
330
7466
100
AcDbSymbolTableRecord
100
AcDbBlockTableRecord
  2
_DOTSMALL
340
0
102
{BLKREFS
331
2019B
331
2019C
331
201A4
331
201A5
331
201AC
331
201AD
331
201B5
331
201B6
331
201BE
331
201BF
331
201C7
331
201C8
331
201D0
331
201D1
331
201D8
331
201D9
331
201FE
331
201FF
331
20207
331
20208
331
20210
331
20211
331
20219
331
2021A
331
20222
331
20223
331
2022B
331
2022C
331
20234
331
20235
331
2023D
331
2023E
331
20246
331
20247
331
2024F
331
20250
331
20257
331
20258
331
20274
331
20275
331
2027E
331
2027F
331
20288
331
20289
331
20292
331
20293
331
2029C
331
2029D
331
202A6
331
202A7
331
202B0
331
202B1
331
202B9
331
202BA
331
202C3
331
202C4
331
216DE
331
216DF
331
216E8
331
216E9
331
216F1
331
216F2
331
216FB
331
216FC
331
21704
331
21705
331
2170D
331
2170E
331
21716
331
21717
331
2175A
331
2175B
331
2176C
331
2176D
331
21775
331
21776
331
2177F
331
21780
331
21789
331
2178A
331
217B0
331
217B1
102
}
  0
BLOCK_RECORD
  5
1D7A9
330
7466
100
AcDbSymbolTableRecord
100
AcDbBlockTableRecord
  2
*D1
340
0
  0
BLOCK_RECORD
  5
1D7B5
330
7466
100
AcDbSymbolTableRecord
100
AcDbBlockTableRecord
  2
*D2
340
0
  0
BLOCK_RECORD
  5
1D7C1
330
7466
100
AcDbSymbolTableRecord
100
AcDbBlockTableRecord
  2
*D3
340
0
  0
BLOCK_RECORD
  5
1D7D8
330
7466
100
AcDbSymbolTableRecord
100
AcDbBlockTableRecord
  2
*D4
340
0
  0
BLOCK_RECORD
  5
1D7E4
330
7466
100
AcDbSymbolTableRecord
100
AcDbBlockTableRecord
  2
*D5
340
0
  0
BLOCK_RECORD
  5
1D7F0
330
7466
100
AcDbSymbolTableRecord
100
AcDbBlockTableRecord
  2
*D6
340
0
  0
BLOCK_RECORD
  5
1D7FC
330
7466
100
AcDbSymbolTableRecord
100
AcDbBlockTableRecord
  2
*D7
340
0
  0
BLOCK_RECORD
  5
1D815
330
7466
100
AcDbSymbolTableRecord
100
AcDbBlockTableRecord
  2
*D8
340
0
  0
BLOCK_RECORD
  5
1D820
330
7466
100
AcDbSymbolTableRecord
100
AcDbBlockTableRecord
  2
*D9
340
0
  0
BLOCK_RECORD
  5
1D82C
330
7466
100
AcDbSymbolTableRecord
100
AcDbBlockTableRecord
  2
*D10
340
0
  0
BLOCK_RECORD
  5
1D838
330
7466
100
AcDbSymbolTableRecord
100
AcDbBlockTableRecord
  2
*D11
340
0
  0
BLOCK_RECORD
  5
1D844
330
7466
100
AcDbSymbolTableRecord
100
AcDbBlockTableRecord
  2
*D12
340
0
  0
BLOCK_RECORD
  5
1D851
330
7466
100
AcDbSymbolTableRecord
100
AcDbBlockTableRecord
  2
*D13
340
0
  0
BLOCK_RECORD
  5
1D85E
330
7466
100
AcDbSymbolTableRecord
100
AcDbBlockTableRecord
  2
*D14
340
0
  0
BLOCK_RECORD
  5
1D86A
330
7466
100
AcDbSymbolTableRecord
100
AcDbBlockTableRecord
  2
*D15
340
0
  0
BLOCK_RECORD
  5
1D876
330
7466
100
AcDbSymbolTableRecord
100
AcDbBlockTableRecord
  2
*D16
340
0
  0
BLOCK_RECORD
  5
1D882
330
7466
100
AcDbSymbolTableRecord
100
AcDbBlockTableRecord
  2
*D17
340
0
  0
BLOCK_RECORD
  5
1D88E
330
7466
100
AcDbSymbolTableRecord
100
AcDbBlockTableRecord
  2
*D18
340
0
  0
BLOCK_RECORD
  5
1D899
330
7466
100
AcDbSymbolTableRecord
100
AcDbBlockTableRecord
  2
*D19
340
0
  0
BLOCK_RECORD
  5
1D8A6
330
7466
100
AcDbSymbolTableRecord
100
AcDbBlockTableRecord
  2
*D20
340
0
  0
BLOCK_RECORD
  5
1D8B3
330
7466
100
AcDbSymbolTableRecord
100
AcDbBlockTableRecord
  2
*D21
340
0
  0
BLOCK_RECORD
  5
1D8C0
330
7466
100
AcDbSymbolTableRecord
100
AcDbBlockTableRecord
  2
*D22
340
0
  0
BLOCK_RECORD
  5
1D8CD
330
7466
100
AcDbSymbolTableRecord
100
AcDbBlockTableRecord
  2
*D23
340
0
  0
BLOCK_RECORD
  5
1D8DA
330
7466
100
AcDbSymbolTableRecord
100
AcDbBlockTableRecord
  2
*D24
340
0
  0
BLOCK_RECORD
  5
1D8E7
330
7466
100
AcDbSymbolTableRecord
100
AcDbBlockTableRecord
  2
*D25
340
0
  0
BLOCK_RECORD
  5
1D8F3
330
7466
100
AcDbSymbolTableRecord
100
AcDbBlockTableRecord
  2
*D26
340
0
  0
BLOCK_RECORD
  5
1DA31
330
7466
100
AcDbSymbolTableRecord
100
AcDbBlockTableRecord
  2
*D27
340
0
  0
BLOCK_RECORD
  5
1E859
330
7466
100
AcDbSymbolTableRecord
100
AcDbBlockTableRecord
  2
*D28
340
0
  0
BLOCK_RECORD
  5
1E886
330
7466
100
AcDbSymbolTableRecord
100
AcDbBlockTableRecord
  2
*D29
340
0
  0
BLOCK_RECORD
  5
1E89E
330
7466
100
AcDbSymbolTableRecord
100
AcDbBlockTableRecord
  2
*D30
340
0
  0
BLOCK_RECORD
  5
1E8C1
330
7466
100
AcDbSymbolTableRecord
100
AcDbBlockTableRecord
  2
*D31
340
0
  0
BLOCK_RECORD
  5
1FBD1
330
7466
100
AcDbSymbolTableRecord
100
AcDbBlockTableRecord
  2
*D32
340
0
  0
BLOCK_RECORD
  5
1FBDE
330
7466
100
AcDbSymbolTableRecord
100
AcDbBlockTableRecord
  2
*D33
340
0
  0
BLOCK_RECORD
  5
21685
330
7466
100
AcDbSymbolTableRecord
100
AcDbBlockTableRecord
  2
*D34
340
0
  0
BLOCK_RECORD
  5
21691
330
7466
100
AcDbSymbolTableRecord
100
AcDbBlockTableRecord
  2
*D35
340
0
  0
BLOCK_RECORD
  5
2169E
330
7466
100
AcDbSymbolTableRecord
100
AcDbBlockTableRecord
  2
*D36
340
0
  0
BLOCK_RECORD
  5
216AA
330
7466
100
AcDbSymbolTableRecord
100
AcDbBlockTableRecord
  2
*D37
340
0
  0
BLOCK_RECORD
  5
216B7
330
7466
100
AcDbSymbolTableRecord
100
AcDbBlockTableRecord
  2
*D38
340
0
  0
BLOCK_RECORD
  5
216C3
330
7466
100
AcDbSymbolTableRecord
100
AcDbBlockTableRecord
  2
*D39
340
0
  0
BLOCK_RECORD
  5
216CF
330
7466
100
AcDbSymbolTableRecord
100
AcDbBlockTableRecord
  2
*D40
340
0
  0
BLOCK_RECORD
  5
217AC
330
7466
100
AcDbSymbolTableRecord
100
AcDbBlockTableRecord
  2
*D41
340
0
  0
ENDTAB
  0
ENDSEC
  0
SECTION
  2
BLOCKS
  0
BLOCK
  5
7489
330
747D
100
AcDbEntity
  8
0
100
AcDbBlockBegin
  2
*MODEL_SPACE
 70
     0
 10
0.0
 20
0.0
 30
0.0
  3
*MODEL_SPACE
  1

  0
ENDBLK
  5
748A
330
747D
100
AcDbEntity
  8
0
100
AcDbBlockEnd
  0
BLOCK
  5
7487
330
747A
100
AcDbEntity
 67
     1
  8
0
100
AcDbBlockBegin
  2
*PAPER_SPACE
 70
     0
 10
0.0
 20
0.0
 30
0.0
  3
*PAPER_SPACE
  1

  0
ENDBLK
  5
7488
330
747A
100
AcDbEntity
 67
     1
  8
0
100
AcDbBlockEnd
  0
BLOCK
  5
F771
330
F770
100
AcDbEntity
  8
0
 48
50.0
100
AcDbBlockBegin
  2
_DOTSMALL
 70
     0
 10
0.0
 20
0.0
 30
0.0
  3
_DOTSMALL
  1

  0
LWPOLYLINE
  5
F772
330
F770
100
AcDbEntity
  8
0
  6
ByBlock
 62
     0
 48
50.0
100
AcDbPolyline
 90
        2
 70
     1
 43
0.5
 10
-0.0625
 20
0.0
 42
1.0
 10
0.0625
 20
0.0
 42
1.0
  0
ENDBLK
  5
F776
330
F770
100
AcDbEntity
  8
0
 48
50.0
100
AcDbBlockEnd
  0
BLOCK
  5
1DA95
330
1D7A9
100
AcDbEntity
  8
0
 48
50.0
100
AcDbBlockBegin
  2
*D1
 70
     1
 10
0.0
 20
0.0
 30
0.0
  3
*D1
  1

  0
LINE
  5
202B6
330
1D7A9
100
AcDbEntity
  8
寸法
 62
     0
 48
50.0
370
    -2
100
AcDbLine
 10
11509.5
 20
9783.810165560842
 30
0.0
 11
11509.5
 21
11121.07331529102
 31
0.0
  0
LINE
  5
202B7
330
1D7A9
100
AcDbEntity
  8
寸法
 62
     0
 48
50.0
370
    -2
100
AcDbLine
 10
12744.5
 20
10438.81016556084
 30
0.0
 11
12744.5
 21
11121.07331529102
 31
0.0
  0
LINE
  5
202B8
330
1D7A9
100
AcDbEntity
  8
寸法
 62
     0
 48
50.0
370
    -2
100
AcDbLine
 10
11509.5
 20
11046.07331529102
 30
0.0
 11
12744.5
 21
11046.07331529102
 31
0.0
  0
INSERT
  5
202B9
330
1D7A9
100
AcDbEntity
  8
寸法
 62
     0
 48
50.0
370
    -2
100
AcDbBlockReference
  2
_DOTSMALL
 10
11509.5
 20
11046.07331529102
 30
0.0
 41
125.0
 42
125.0
 43
125.0
 50
180.0
  0
INSERT
  5
202BA
330
1D7A9
100
AcDbEntity
  8
寸法
 62
     0
 48
50.0
370
    -2
100
AcDbBlockReference
  2
_DOTSMALL
 10
12744.5
 20
11046.07331529102
 30
0.0
 41
125.0
 42
125.0
 43
125.0
  0
MTEXT
  5
202BB
330
1D7A9
100
AcDbEntity
  8
寸法
 62
     7
 48
50.0
100
AcDbMText
 10
12127.0
 20
11146.08807907054
 30
0.0
 40
150.0
 41
0.0
 71
     5
 72
     1
  1
\A1;1235
  7
STYLE1
 73
     1
 44
1.0
1001
ACAD
1000
MTEXTBEGIN
1070
    73
1070
     1
1070
    44
1040
1.0
1070
    74
1070
     0
1000
MTEXTEND
  0
POINT
  5
202BC
330
1D7A9
100
AcDbEntity
  8
DEFPOINTS
 62
     0
 48
50.0
100
AcDbPoint
 10
11509.5
 20
9758.810165560841
 30
0.0
  0
POINT
  5
202BD
330
1D7A9
100
AcDbEntity
  8
DEFPOINTS
 62
     0
 48
50.0
100
AcDbPoint
 10
12744.5
 20
10413.81016556084
 30
0.0
  0
POINT
  5
202BE
330
1D7A9
100
AcDbEntity
  8
DEFPOINTS
 62
     0
 48
50.0
100
AcDbPoint
 10
12744.5
 20
11046.07331529102
 30
0.0
  0
ENDBLK
  5
1DA9F
330
1D7A9
100
AcDbEntity
  8
0
 48
50.0
100
AcDbBlockEnd
  0
BLOCK
  5
1DAA0
330
1D7B5
100
AcDbEntity
  8
0
 48
50.0
100
AcDbBlockBegin
  2
*D2
 70
     1
 10
0.0
 20
0.0
 30
0.0
  3
*D2
  1

  0
LINE
  5
201B2
330
1D7B5
100
AcDbEntity
  8
寸法
 62
     0
 48
50.0
370
    -2
100
AcDbLine
 10
7827.652926416972
 20
7342.549861549144
 30
0.0
 11
8025.219655339677
 21
7023.204296438018
 31
0.0
  0
LINE
  5
201B3
330
1D7B5
100
AcDbEntity
  8
寸法
 62
     0
 48
50.0
370
    -2
100
AcDbLine
 10
12757.65292641697
 20
10392.54986154914
 30
0.0
 11
12955.21965533967
 21
10073.20429643802
 31
0.0
  0
LINE
  5
201B4
330
1D7B5
100
AcDbEntity
  8
寸法
 62
     0
 48
50.0
370
    -2
100
AcDbLine
 10
7985.760876088761
 20
7086.985208473105
 30
0.0
 11
12915.76087608876
 21
10136.9852084731
 31
0.0
  0
INSERT
  5
201B5
330
1D7B5
100
AcDbEntity
  8
寸法
 62
     0
 48
50.0
370
    -2
100
AcDbBlockReference
  2
_DOTSMALL
 10
7985.760876088761
 20
7086.985208473105
 30
0.0
 41
125.0
 42
125.0
 43
125.0
 50
211.7434734419793
  0
INSERT
  5
201B6
330
1D7B5
100
AcDbEntity
  8
寸法
 62
     0
 48
50.0
370
    -2
100
AcDbBlockReference
  2
_DOTSMALL
 10
12915.76087608876
 20
10136.9852084731
 30
0.0
 41
125.0
 42
125.0
 43
125.0
 50
31.7434734419793
  0
MTEXT
  5
201B7
330
1D7B5
100
AcDbEntity
  8
寸法
 62
     7
 48
50.0
100
AcDbMText
 10
10105.57372258795
 20
8516.081319407909
 30
0.0
 40
150.0
 41
0.0
 71
     5
 72
     1
  1
\A1;5797.2
  7
STYLE1
 11
0.8504121604678255
 21
0.5261170566788778
 31
0.0
 73
     1
 44
1.0
1001
ACAD
1000
MTEXTBEGIN
1070
    73
1070
     1
1070
    44
1040
1.0
1070
    74
1070
     0
1000
MTEXTEND
  0
POINT
  5
201B8
330
1D7B5
100
AcDbEntity
  8
DEFPOINTS
 62
     0
 48
50.0
100
AcDbPoint
 10
7814.499999999999
 20
7363.810165560841
 30
0.0
  0
POINT
  5
201B9
330
1D7B5
100
AcDbEntity
  8
DEFPOINTS
 62
     0
 48
50.0
100
AcDbPoint
 10
12744.5
 20
10413.81016556084
 30
0.0
  0
POINT
  5
201BA
330
1D7B5
100
AcDbEntity
  8
DEFPOINTS
 62
     0
 48
50.0
100
AcDbPoint
 10
12915.76087608876
 20
10136.9852084731
 30
0.0
  0
ENDBLK
  5
1DAAA
330
1D7B5
100
AcDbEntity
  8
0
 48
50.0
100
AcDbBlockEnd
  0
BLOCK
  5
1D7C2
330
1D7C1
100
AcDbEntity
  8
0
 48
50.0
100
AcDbBlockBegin
  2
*D3
 70
     1
 10
0.0
 20
0.0
 30
0.0
  3
*D3
  1

  0
LINE
  5
21769
330
1D7C1
100
AcDbEntity
  8
寸法
 62
     0
 48
50.0
370
    -2
100
AcDbLine
 10
7814.499999999999
 20
7273.81016556084
 30
0.0
 11
7814.499999999999
 21
6357.810165560841
 31
0.0
  0
LINE
  5
2176A
330
1D7C1
100
AcDbEntity
  8
寸法
 62
     0
 48
50.0
370
    -2
100
AcDbLine
 10
12744.5
 20
7270.81016556084
 30
0.0
 11
12744.5
 21
6357.810165560841
 31
0.0
  0
LINE
  5
2176B
330
1D7C1
100
AcDbEntity
  8
寸法
 62
     0
 48
50.0
370
    -2
100
AcDbLine
 10
7814.499999999999
 20
6432.810165560841
 30
0.0
 11
12744.5
 21
6432.810165560841
 31
0.0
  0
INSERT
  5
2176C
330
1D7C1
100
AcDbEntity
  8
寸法
 62
     0
 48
50.0
370
    -2
100
AcDbBlockReference
  2
_DOTSMALL
 10
7814.499999999999
 20
6432.810165560841
 30
0.0
 41
125.0
 42
125.0
 43
125.0
 50
180.0
  0
INSERT
  5
2176D
330
1D7C1
100
AcDbEntity
  8
寸法
 62
     0
 48
50.0
370
    -2
100
AcDbBlockReference
  2
_DOTSMALL
 10
12744.5
 20
6432.810165560841
 30
0.0
 41
125.0
 42
125.0
 43
125.0
  0
MTEXT
  5
2176E
330
1D7C1
100
AcDbEntity
  8
寸法
 62
     7
 48
50.0
100
AcDbMText
 10
10279.5
 20
6532.810165560841
 30
0.0
 40
150.0
 41
0.0
 71
     5
 72
     1
  1
\A1;4930
  7
STYLE1
 73
     1
 44
1.0
1001
ACAD
1000
MTEXTBEGIN
1070
    73
1070
     1
1070
    44
1040
1.0
1070
    74
1070
     0
1000
MTEXTEND
  0
POINT
  5
2176F
330
1D7C1
100
AcDbEntity
  8
DEFPOINTS
 62
     0
 48
50.0
100
AcDbPoint
 10
7814.499999999999
 20
7298.810165560841
 30
0.0
  0
POINT
  5
21770
330
1D7C1
100
AcDbEntity
  8
DEFPOINTS
 62
     0
 48
50.0
100
AcDbPoint
 10
12744.5
 20
7295.81016556084
 30
0.0
  0
POINT
  5
21771
330
1D7C1
100
AcDbEntity
  8
DEFPOINTS
 62
     0
 48
50.0
100
AcDbPoint
 10
12744.5
 20
6432.810165560841
 30
0.0
  0
ENDBLK
  5
1D7CC
330
1D7C1
100
AcDbEntity
  8
0
 48
50.0
100
AcDbBlockEnd
  0
BLOCK
  5
1DA74
330
1D7D8
100
AcDbEntity
  8
0
 48
50.0
100
AcDbBlockBegin
  2
*D4
 70
     1
 10
0.0
 20
0.0
 30
0.0
  3
*D4
  1

  0
LINE
  5
20231
330
1D7D8
100
AcDbEntity
  8
寸法
 62
     0
 48
50.0
370
    -2
100
AcDbLine
 10
10279.5
 20
10518.81016556084
 30
0.0
 11
10279.5
 21
11121.07331529102
 31
0.0
  0
LINE
  5
20232
330
1D7D8
100
AcDbEntity
  8
寸法
 62
     0
 48
50.0
370
    -2
100
AcDbLine
 10
9049.5
 20
9783.810165560842
 30
0.0
 11
9049.5
 21
11121.07331529102
 31
0.0
  0
LINE
  5
20233
330
1D7D8
100
AcDbEntity
  8
寸法
 62
     0
 48
50.0
370
    -2
100
AcDbLine
 10
10279.5
 20
11046.07331529102
 30
0.0
 11
9049.5
 21
11046.07331529102
 31
0.0
  0
INSERT
  5
20234
330
1D7D8
100
AcDbEntity
  8
寸法
 62
     0
 48
50.0
370
    -2
100
AcDbBlockReference
  2
_DOTSMALL
 10
10279.5
 20
11046.07331529102
 30
0.0
 41
125.0
 42
125.0
 43
125.0
  0
INSERT
  5
20235
330
1D7D8
100
AcDbEntity
  8
寸法
 62
     0
 48
50.0
370
    -2
100
AcDbBlockReference
  2
_DOTSMALL
 10
9049.5
 20
11046.07331529102
 30
0.0
 41
125.0
 42
125.0
 43
125.0
 50
180.0
  0
MTEXT
  5
20236
330
1D7D8
100
AcDbEntity
  8
寸法
 62
     7
 48
50.0
100
AcDbMText
 10
9664.5
 20
11146.08807907054
 30
0.0
 40
150.0
 41
0.0
 71
     5
 72
     1
  1
\A1;1230
  7
STYLE1
 73
     1
 44
1.0
1001
ACAD
1000
MTEXTBEGIN
1070
    73
1070
     1
1070
    44
1040
1.0
1070
    74
1070
     0
1000
MTEXTEND
  0
POINT
  5
20237
330
1D7D8
100
AcDbEntity
  8
DEFPOINTS
 62
     0
 48
50.0
100
AcDbPoint
 10
10279.5
 20
10493.81016556084
 30
0.0
  0
POINT
  5
20238
330
1D7D8
100
AcDbEntity
  8
DEFPOINTS
 62
     0
 48
50.0
100
AcDbPoint
 10
9049.5
 20
9758.810165560841
 30
0.0
  0
POINT
  5
20239
330
1D7D8
100
AcDbEntity
  8
DEFPOINTS
 62
     0
 48
50.0
100
AcDbPoint
 10
9049.5
 20
11046.07331529102
 30
0.0
  0
ENDBLK
  5
1DA7E
330
1D7D8
100
AcDbEntity
  8
0
 48
50.0
100
AcDbBlockEnd
  0
BLOCK
  5
1DA7F
330
1D7E4
100
AcDbEntity
  8
0
 48
50.0
100
AcDbBlockBegin
  2
*D5
 70
     1
 10
0.0
 20
0.0
 30
0.0
  3
*D5
  1

  0
LINE
  5
20228
330
1D7E4
100
AcDbEntity
  8
寸法
 62
     0
 48
50.0
370
    -2
100
AcDbLine
 10
7814.499999999999
 20
10438.81016556084
 30
0.0
 11
7814.499999999999
 21
11121.07331529102
 31
0.0
  0
LINE
  5
20229
330
1D7E4
100
AcDbEntity
  8
寸法
 62
     0
 48
50.0
370
    -2
100
AcDbLine
 10
9049.5
 20
9783.810165560842
 30
0.0
 11
9049.5
 21
11121.07331529102
 31
0.0
  0
LINE
  5
2022A
330
1D7E4
100
AcDbEntity
  8
寸法
 62
     0
 48
50.0
370
    -2
100
AcDbLine
 10
7814.499999999999
 20
11046.07331529102
 30
0.0
 11
9049.5
 21
11046.07331529102
 31
0.0
  0
INSERT
  5
2022B
330
1D7E4
100
AcDbEntity
  8
寸法
 62
     0
 48
50.0
370
    -2
100
AcDbBlockReference
  2
_DOTSMALL
 10
7814.499999999999
 20
11046.07331529102
 30
0.0
 41
125.0
 42
125.0
 43
125.0
 50
180.0
  0
INSERT
  5
2022C
330
1D7E4
100
AcDbEntity
  8
寸法
 62
     0
 48
50.0
370
    -2
100
AcDbBlockReference
  2
_DOTSMALL
 10
9049.5
 20
11046.07331529102
 30
0.0
 41
125.0
 42
125.0
 43
125.0
  0
MTEXT
  5
2022D
330
1D7E4
100
AcDbEntity
  8
寸法
 62
     7
 48
50.0
100
AcDbMText
 10
8432.0
 20
11146.08807907054
 30
0.0
 40
150.0
 41
0.0
 71
     5
 72
     1
  1
\A1;1235
  7
STYLE1
 73
     1
 44
1.0
1001
ACAD
1000
MTEXTBEGIN
1070
    73
1070
     1
1070
    44
1040
1.0
1070
    74
1070
     0
1000
MTEXTEND
  0
POINT
  5
2022E
330
1D7E4
100
AcDbEntity
  8
DEFPOINTS
 62
     0
 48
50.0
100
AcDbPoint
 10
7814.499999999999
 20
10413.81016556084
 30
0.0
  0
POINT
  5
2022F
330
1D7E4
100
AcDbEntity
  8
DEFPOINTS
 62
     0
 48
50.0
100
AcDbPoint
 10
9049.5
 20
9758.810165560841
 30
0.0
  0
POINT
  5
20230
330
1D7E4
100
AcDbEntity
  8
DEFPOINTS
 62
     0
 48
50.0
100
AcDbPoint
 10
9049.5
 20
11046.07331529102
 30
0.0
  0
ENDBLK
  5
1DA89
330
1D7E4
100
AcDbEntity
  8
0
 48
50.0
100
AcDbBlockEnd
  0
BLOCK
  5
1DA53
330
1D7F0
100
AcDbEntity
  8
0
 48
50.0
100
AcDbBlockBegin
  2
*D6
 70
     1
 10
0.0
 20
0.0
 30
0.0
  3
*D6
  1

  0
LINE
  5
2023A
330
1D7F0
100
AcDbEntity
  8
寸法
 62
     0
 48
50.0
370
    -2
100
AcDbLine
 10
9438.190419647026
 20
10413.81016556084
 30
0.0
 11
9304.979884441221
 21
10413.81016556084
 31
0.0
  0
LINE
  5
2023B
330
1D7F0
100
AcDbEntity
  8
寸法
 62
     0
 48
50.0
370
    -2
100
AcDbLine
 10
9219.500000000001
 20
9613.810165560842
 30
0.0
 11
9454.979884441222
 21
9613.810165560842
 31
0.0
  0
LINE
  5
2023C
330
1D7F0
100
AcDbEntity
  8
寸法
 62
     0
 48
50.0
370
    -2
100
AcDbLine
 10
9379.979884441222
 20
10413.81016556084
 30
0.0
 11
9379.979884441222
 21
9613.810165560842
 31
0.0
  0
INSERT
  5
2023D
330
1D7F0
100
AcDbEntity
  8
寸法
 62
     0
 48
50.0
370
    -2
100
AcDbBlockReference
  2
_DOTSMALL
 10
9379.979884441222
 20
10413.81016556084
 30
0.0
 41
125.0
 42
125.0
 43
125.0
 50
90.0
  0
INSERT
  5
2023E
330
1D7F0
100
AcDbEntity
  8
寸法
 62
     0
 48
50.0
370
    -2
100
AcDbBlockReference
  2
_DOTSMALL
 10
9379.979884441222
 20
9613.810165560842
 30
0.0
 41
125.0
 42
125.0
 43
125.0
 50
270.0
  0
MTEXT
  5
2023F
330
1D7F0
100
AcDbEntity
  8
寸法
 62
     7
 48
50.0
100
AcDbMText
 10
9279.979884441219
 20
10013.81016556084
 30
0.0
 40
150.0
 41
0.0
 71
     5
 72
     1
  1
\A1;800
  7
STYLE1
 11
0.0000000000000001
 21
1.0
 31
0.0
 73
     1
 44
1.0
1001
ACAD
1000
MTEXTBEGIN
1070
    73
1070
     1
1070
    44
1040
1.0
1070
    74
1070
     0
1000
MTEXTEND
  0
POINT
  5
20240
330
1D7F0
100
AcDbEntity
  8
DEFPOINTS
 62
     0
 48
50.0
100
AcDbPoint
 10
9463.190419647027
 20
10413.81016556084
 30
0.0
  0
POINT
  5
20241
330
1D7F0
100
AcDbEntity
  8
DEFPOINTS
 62
     0
 48
50.0
100
AcDbPoint
 10
9194.500000000003
 20
9613.810165560842
 30
0.0
  0
POINT
  5
20242
330
1D7F0
100
AcDbEntity
  8
DEFPOINTS
 62
     0
 48
50.0
100
AcDbPoint
 10
9379.979884441222
 20
9613.810165560842
 30
0.0
  0
ENDBLK
  5
1DA5D
330
1D7F0
100
AcDbEntity
  8
0
 48
50.0
100
AcDbBlockEnd
  0
BLOCK
  5
1E6F5
330
1D7FC
100
AcDbEntity
  8
0
 48
50.0
100
AcDbBlockBegin
  2
*D7
 70
     1
 10
0.0
 20
0.0
 30
0.0
  3
*D7
  1

  0
LINE
  5
20216
330
1D7FC
100
AcDbEntity
  8
寸法
 62
     0
 48
50.0
370
    -2
100
AcDbLine
 10
8267.0
 20
9903.810165560841
 30
0.0
 11
6988.500000000001
 21
9903.810165560841
 31
0.0
  0
LINE
  5
20217
330
1D7FC
100
AcDbEntity
  8
寸法
 62
     0
 48
50.0
370
    -2
100
AcDbLine
 10
8267.0
 20
9323.810165560841
 30
0.0
 11
6988.500000000001
 21
9323.810165560841
 31
0.0
  0
LINE
  5
20218
330
1D7FC
100
AcDbEntity
  8
寸法
 62
     0
 48
50.0
370
    -2
100
AcDbLine
 10
7063.500000000001
 20
9903.810165560841
 30
0.0
 11
7063.500000000001
 21
9323.810165560841
 31
0.0
  0
INSERT
  5
20219
330
1D7FC
100
AcDbEntity
  8
寸法
 62
     0
 48
50.0
370
    -2
100
AcDbBlockReference
  2
_DOTSMALL
 10
7063.500000000001
 20
9903.810165560841
 30
0.0
 41
125.0
 42
125.0
 43
125.0
 50
90.0
  0
INSERT
  5
2021A
330
1D7FC
100
AcDbEntity
  8
寸法
 62
     0
 48
50.0
370
    -2
100
AcDbBlockReference
  2
_DOTSMALL
 10
7063.500000000001
 20
9323.810165560841
 30
0.0
 41
125.0
 42
125.0
 43
125.0
 50
270.0
  0
MTEXT
  5
2021B
330
1D7FC
100
AcDbEntity
  8
寸法
 62
     7
 48
50.0
100
AcDbMText
 10
6963.499999999999
 20
9613.810165560842
 30
0.0
 40
150.0
 41
0.0
 71
     5
 72
     1
  1
\A1;580
  7
STYLE1
 11
0.0000000000000001
 21
1.0
 31
0.0
 73
     1
 44
1.0
1001
ACAD
1000
MTEXTBEGIN
1070
    73
1070
     1
1070
    44
1040
1.0
1070
    74
1070
     0
1000
MTEXTEND
  0
POINT
  5
2021C
330
1D7FC
100
AcDbEntity
  8
DEFPOINTS
 62
     0
 48
50.0
100
AcDbPoint
 10
8292.0
 20
9903.810165560841
 30
0.0
  0
POINT
  5
2021D
330
1D7FC
100
AcDbEntity
  8
DEFPOINTS
 62
     0
 48
50.0
100
AcDbPoint
 10
8292.0
 20
9323.810165560841
 30
0.0
  0
POINT
  5
2021E
330
1D7FC
100
AcDbEntity
  8
DEFPOINTS
 62
     0
 48
50.0
100
AcDbPoint
 10
7063.500000000001
 20
9323.810165560841
 30
0.0
  0
ENDBLK
  5
1E6FF
330
1D7FC
100
AcDbEntity
  8
0
 48
50.0
100
AcDbBlockEnd
  0
BLOCK
  5
1E6A9
330
1D815
100
AcDbEntity
  8
0
 48
50.0
100
AcDbBlockBegin
  2
*D8
 70
     1
 10
0.0
 20
0.0
 30
0.0
  3
*D8
  1

  0
LINE
  5
201D6
330
1D815
100
AcDbEntity
  8
寸法
 62
     0
 48
50.0
370
    -2
100
AcDbLine
 10
7789.5
 20
7363.810165560841
 30
0.0
 11
6988.500000000001
 21
7363.810165560841
 31
0.0
  0
LINE
  5
201D7
330
1D815
100
AcDbEntity
  8
寸法
 62
     0
 48
50.0
370
    -2
100
AcDbLine
 10
7063.500000000001
 20
7873.81016556084
 30
0.0
 11
7063.500000000001
 21
7363.810165560841
 31
0.0
  0
INSERT
  5
201D8
330
1D815
100
AcDbEntity
  8
寸法
 62
     0
 48
50.0
370
    -2
100
AcDbBlockReference
  2
_DOTSMALL
 10
7063.500000000001
 20
7873.81016556084
 30
0.0
 41
125.0
 42
125.0
 43
125.0
 50
90.0
  0
INSERT
  5
201D9
330
1D815
100
AcDbEntity
  8
寸法
 62
     0
 48
50.0
370
    -2
100
AcDbBlockReference
  2
_DOTSMALL
 10
7063.500000000001
 20
7363.810165560841
 30
0.0
 41
125.0
 42
125.0
 43
125.0
 50
270.0
  0
MTEXT
  5
201DA
330
1D815
100
AcDbEntity
  8
寸法
 62
     7
 48
50.0
100
AcDbMText
 10
6963.499999999999
 20
7618.810165560842
 30
0.0
 40
150.0
 41
0.0
 71
     5
 72
     1
  1
\A1;510
  7
STYLE1
 11
0.0000000000000001
 21
1.0
 31
0.0
 73
     1
 44
1.0
1001
ACAD
1000
MTEXTBEGIN
1070
    73
1070
     1
1070
    44
1040
1.0
1070
    74
1070
     0
1000
MTEXTEND
  0
POINT
  5
201DB
330
1D815
100
AcDbEntity
  8
DEFPOINTS
 62
     0
 48
50.0
100
AcDbPoint
 10
8292.0
 20
7873.81016556084
 30
0.0
  0
POINT
  5
201DC
330
1D815
100
AcDbEntity
  8
DEFPOINTS
 62
     0
 48
50.0
100
AcDbPoint
 10
7814.499999999999
 20
7363.810165560841
 30
0.0
  0
POINT
  5
201DD
330
1D815
100
AcDbEntity
  8
DEFPOINTS
 62
     0
 48
50.0
100
AcDbPoint
 10
7063.500000000001
 20
7363.810165560841
 30
0.0
  0
ENDBLK
  5
1E6B2
330
1D815
100
AcDbEntity
  8
0
 48
50.0
100
AcDbBlockEnd
  0
BLOCK
  5
1E6C9
330
1D820
100
AcDbEntity
  8
0
 48
50.0
100
AcDbBlockBegin
  2
*D9
 70
     1
 10
0.0
 20
0.0
 30
0.0
  3
*D9
  1

  0
LINE
  5
201BB
330
1D820
100
AcDbEntity
  8
寸法
 62
     0
 48
50.0
370
    -2
100
AcDbLine
 10
8267.0
 20
8888.81016556084
 30
0.0
 11
6988.500000000001
 21
8888.81016556084
 31
0.0
  0
LINE
  5
201BC
330
1D820
100
AcDbEntity
  8
寸法
 62
     0
 48
50.0
370
    -2
100
AcDbLine
 10
8267.0
 20
8453.810165560842
 30
0.0
 11
6988.500000000001
 21
8453.810165560842
 31
0.0
  0
LINE
  5
201BD
330
1D820
100
AcDbEntity
  8
寸法
 62
     0
 48
50.0
370
    -2
100
AcDbLine
 10
7063.500000000001
 20
8888.81016556084
 30
0.0
 11
7063.500000000001
 21
8453.810165560842
 31
0.0
  0
INSERT
  5
201BE
330
1D820
100
AcDbEntity
  8
寸法
 62
     0
 48
50.0
370
    -2
100
AcDbBlockReference
  2
_DOTSMALL
 10
7063.500000000001
 20
8888.81016556084
 30
0.0
 41
125.0
 42
125.0
 43
125.0
 50
90.0
  0
INSERT
  5
201BF
330
1D820
100
AcDbEntity
  8
寸法
 62
     0
 48
50.0
370
    -2
100
AcDbBlockReference
  2
_DOTSMALL
 10
7063.500000000001
 20
8453.810165560842
 30
0.0
 41
125.0
 42
125.0
 43
125.0
 50
270.0
  0
MTEXT
  5
201C0
330
1D820
100
AcDbEntity
  8
寸法
 62
     7
 48
50.0
100
AcDbMText
 10
6963.499999999999
 20
8671.310165560843
 30
0.0
 40
150.0
 41
0.0
 71
     5
 72
     1
  1
\A1;435
  7
STYLE1
 11
0.0000000000000001
 21
1.0
 31
0.0
 73
     1
 44
1.0
1001
ACAD
1000
MTEXTBEGIN
1070
    73
1070
     1
1070
    44
1040
1.0
1070
    74
1070
     0
1000
MTEXTEND
  0
POINT
  5
201C1
330
1D820
100
AcDbEntity
  8
DEFPOINTS
 62
     0
 48
50.0
100
AcDbPoint
 10
8292.0
 20
8888.81016556084
 30
0.0
  0
POINT
  5
201C2
330
1D820
100
AcDbEntity
  8
DEFPOINTS
 62
     0
 48
50.0
100
AcDbPoint
 10
8292.0
 20
8453.810165560842
 30
0.0
  0
POINT
  5
201C3
330
1D820
100
AcDbEntity
  8
DEFPOINTS
 62
     0
 48
50.0
100
AcDbPoint
 10
7063.500000000001
 20
8453.810165560842
 30
0.0
  0
ENDBLK
  5
1E6D3
330
1D820
100
AcDbEntity
  8
0
 48
50.0
100
AcDbBlockEnd
  0
BLOCK
  5
1E6B3
330
1D82C
100
AcDbEntity
  8
0
 48
50.0
100
AcDbBlockBegin
  2
*D10
 70
     1
 10
0.0
 20
0.0
 30
0.0
  3
*D10
  1

  0
LINE
  5
201CD
330
1D82C
100
AcDbEntity
  8
寸法
 62
     0
 48
50.0
370
    -2
100
AcDbLine
 10
8267.0
 20
7873.81016556084
 30
0.0
 11
6988.500000000001
 21
7873.81016556084
 31
0.0
  0
LINE
  5
201CE
330
1D82C
100
AcDbEntity
  8
寸法
 62
     0
 48
50.0
370
    -2
100
AcDbLine
 10
8267.0
 20
8453.810165560842
 30
0.0
 11
6988.500000000001
 21
8453.810165560842
 31
0.0
  0
LINE
  5
201CF
330
1D82C
100
AcDbEntity
  8
寸法
 62
     0
 48
50.0
370
    -2
100
AcDbLine
 10
7063.500000000001
 20
7873.81016556084
 30
0.0
 11
7063.500000000001
 21
8453.810165560842
 31
0.0
  0
INSERT
  5
201D0
330
1D82C
100
AcDbEntity
  8
寸法
 62
     0
 48
50.0
370
    -2
100
AcDbBlockReference
  2
_DOTSMALL
 10
7063.500000000001
 20
7873.81016556084
 30
0.0
 41
125.0
 42
125.0
 43
125.0
 50
270.0
  0
INSERT
  5
201D1
330
1D82C
100
AcDbEntity
  8
寸法
 62
     0
 48
50.0
370
    -2
100
AcDbBlockReference
  2
_DOTSMALL
 10
7063.500000000001
 20
8453.810165560842
 30
0.0
 41
125.0
 42
125.0
 43
125.0
 50
90.0
  0
MTEXT
  5
201D2
330
1D82C
100
AcDbEntity
  8
寸法
 62
     7
 48
50.0
100
AcDbMText
 10
6963.499999999999
 20
8163.810165560843
 30
0.0
 40
150.0
 41
0.0
 71
     5
 72
     1
  1
\A1;580
  7
STYLE1
 11
0.0000000000000001
 21
1.0
 31
0.0
 73
     1
 44
1.0
1001
ACAD
1000
MTEXTBEGIN
1070
    73
1070
     1
1070
    44
1040
1.0
1070
    74
1070
     0
1000
MTEXTEND
  0
POINT
  5
201D3
330
1D82C
100
AcDbEntity
  8
DEFPOINTS
 62
     0
 48
50.0
100
AcDbPoint
 10
8292.0
 20
7873.81016556084
 30
0.0
  0
POINT
  5
201D4
330
1D82C
100
AcDbEntity
  8
DEFPOINTS
 62
     0
 48
50.0
100
AcDbPoint
 10
8292.0
 20
8453.810165560842
 30
0.0
  0
POINT
  5
201D5
330
1D82C
100
AcDbEntity
  8
DEFPOINTS
 62
     0
 48
50.0
100
AcDbPoint
 10
7063.500000000001
 20
8453.810165560842
 30
0.0
  0
ENDBLK
  5
1E6BD
330
1D82C
100
AcDbEntity
  8
0
 48
50.0
100
AcDbBlockEnd
  0
BLOCK
  5
1E6DF
330
1D838
100
AcDbEntity
  8
0
 48
50.0
100
AcDbBlockBegin
  2
*D11
 70
     1
 10
0.0
 20
0.0
 30
0.0
  3
*D11
  1

  0
LINE
  5
2021F
330
1D838
100
AcDbEntity
  8
寸法
 62
     0
 48
50.0
370
    -2
100
AcDbLine
 10
8267.0
 20
9323.810165560841
 30
0.0
 11
6988.500000000001
 21
9323.810165560841
 31
0.0
  0
LINE
  5
20220
330
1D838
100
AcDbEntity
  8
寸法
 62
     0
 48
50.0
370
    -2
100
AcDbLine
 10
8267.0
 20
8888.81016556084
 30
0.0
 11
6988.500000000001
 21
8888.81016556084
 31
0.0
  0
LINE
  5
20221
330
1D838
100
AcDbEntity
  8
寸法
 62
     0
 48
50.0
370
    -2
100
AcDbLine
 10
7063.500000000001
 20
9323.810165560841
 30
0.0
 11
7063.500000000001
 21
8888.81016556084
 31
0.0
  0
INSERT
  5
20222
330
1D838
100
AcDbEntity
  8
寸法
 62
     0
 48
50.0
370
    -2
100
AcDbBlockReference
  2
_DOTSMALL
 10
7063.500000000001
 20
9323.810165560841
 30
0.0
 41
125.0
 42
125.0
 43
125.0
 50
90.0
  0
INSERT
  5
20223
330
1D838
100
AcDbEntity
  8
寸法
 62
     0
 48
50.0
370
    -2
100
AcDbBlockReference
  2
_DOTSMALL
 10
7063.500000000001
 20
8888.81016556084
 30
0.0
 41
125.0
 42
125.0
 43
125.0
 50
270.0
  0
MTEXT
  5
20224
330
1D838
100
AcDbEntity
  8
寸法
 62
     7
 48
50.0
100
AcDbMText
 10
6963.499999999999
 20
9106.310165560842
 30
0.0
 40
150.0
 41
0.0
 71
     5
 72
     1
  1
\A1;435
  7
STYLE1
 11
0.0000000000000001
 21
1.0
 31
0.0
 73
     1
 44
1.0
1001
ACAD
1000
MTEXTBEGIN
1070
    73
1070
     1
1070
    44
1040
1.0
1070
    74
1070
     0
1000
MTEXTEND
  0
POINT
  5
20225
330
1D838
100
AcDbEntity
  8
DEFPOINTS
 62
     0
 48
50.0
100
AcDbPoint
 10
8292.0
 20
9323.810165560841
 30
0.0
  0
POINT
  5
20226
330
1D838
100
AcDbEntity
  8
DEFPOINTS
 62
     0
 48
50.0
100
AcDbPoint
 10
8292.0
 20
8888.81016556084
 30
0.0
  0
POINT
  5
20227
330
1D838
100
AcDbEntity
  8
DEFPOINTS
 62
     0
 48
50.0
100
AcDbPoint
 10
7063.500000000001
 20
8888.81016556084
 30
0.0
  0
ENDBLK
  5
1E6E9
330
1D838
100
AcDbEntity
  8
0
 48
50.0
100
AcDbBlockEnd
  0
BLOCK
  5
1D845
330
1D844
100
AcDbEntity
  8
0
 48
50.0
100
AcDbBlockBegin
  2
*D12
 70
     1
 10
0.0
 20
0.0
 30
0.0
  3
*D12
  1

  0
LINE
  5
2177B
330
1D844
100
AcDbEntity
  8
寸法
 62
     0
 48
50.0
370
    -2
100
AcDbLine
 10
7764.499999999999
 20
6719.343109315912
 30
0.0
 11
7764.499999999999
 21
6357.810165560841
 31
0.0
  0
LINE
  5
2177C
330
1D844
100
AcDbEntity
  8
寸法
 62
     0
 48
50.0
370
    -2
100
AcDbLine
 10
7814.499999999999
 20
7273.81016556084
 30
0.0
 11
7814.499999999999
 21
6357.810165560841
 31
0.0
  0
LINE
  5
2177D
330
1D844
100
AcDbEntity
  8
寸法
 62
     0
 48
50.0
370
    -2
100
AcDbLine
 10
7814.499999999999
 20
6432.810165560841
 30
0.0
 11
7764.499999999999
 21
6432.810165560841
 31
0.0
  0
LINE
  5
2177E
330
1D844
100
AcDbEntity
  8
寸法
 62
     0
 48
50.0
370
    -2
100
AcDbLine
 10
7764.499999999999
 20
6432.810165560841
 30
0.0
 11
7303.618110236219
 21
6432.810165560841
 31
0.0
  0
INSERT
  5
2177F
330
1D844
100
AcDbEntity
  8
寸法
 62
     0
 48
50.0
370
    -2
100
AcDbBlockReference
  2
_DOTSMALL
 10
7814.499999999999
 20
6432.810165560841
 30
0.0
 41
125.0
 42
125.0
 43
125.0
  0
INSERT
  5
21780
330
1D844
100
AcDbEntity
  8
寸法
 62
     0
 48
50.0
370
    -2
100
AcDbBlockReference
  2
_DOTSMALL
 10
7764.499999999999
 20
6432.810165560841
 30
0.0
 41
125.0
 42
125.0
 43
125.0
 50
180.0
  0
MTEXT
  5
21781
330
1D844
100
AcDbEntity
  8
寸法
 62
     7
 48
50.0
100
AcDbMText
 10
7471.059055118108
 20
6540.310165560841
 30
0.0
 40
150.0
 41
0.0
 71
     5
 72
     1
  1
\A1;(50)
  7
STYLE1
 73
     1
 44
1.0
1001
ACAD
1000
MTEXTBEGIN
1070
    73
1070
     1
1070
    44
1040
1.0
1070
    74
1070
     0
1000
MTEXTEND
  0
POINT
  5
21782
330
1D844
100
AcDbEntity
  8
DEFPOINTS
 62
     0
 48
50.0
100
AcDbPoint
 10
7764.499999999999
 20
6744.343109315912
 30
0.0
  0
POINT
  5
21783
330
1D844
100
AcDbEntity
  8
DEFPOINTS
 62
     0
 48
50.0
100
AcDbPoint
 10
7814.499999999999
 20
7298.810165560841
 30
0.0
  0
POINT
  5
21784
330
1D844
100
AcDbEntity
  8
DEFPOINTS
 62
     0
 48
50.0
100
AcDbPoint
 10
7814.499999999999
 20
6432.810165560841
 30
0.0
  0
ENDBLK
  5
1D850
330
1D844
100
AcDbEntity
  8
0
 48
50.0
100
AcDbBlockEnd
  0
BLOCK
  5
1D852
330
1D851
100
AcDbEntity
  8
0
 48
50.0
100
AcDbBlockBegin
  2
*D13
 70
     1
 10
0.0
 20
0.0
 30
0.0
  3
*D13
  1

  0
LINE
  5
21785
330
1D851
100
AcDbEntity
  8
寸法
 62
     0
 48
50.0
370
    -2
100
AcDbLine
 10
7814.499999999999
 20
7273.81016556084
 30
0.0
 11
7814.499999999999
 21
6669.343109315912
 31
0.0
  0
LINE
  5
21786
330
1D851
100
AcDbEntity
  8
寸法
 62
     0
 48
50.0
370
    -2
100
AcDbLine
 10
7879.5
 20
7258.810165560841
 30
0.0
 11
7879.5
 21
6669.343109315912
 31
0.0
  0
LINE
  5
21787
330
1D851
100
AcDbEntity
  8
寸法
 62
     0
 48
50.0
370
    -2
100
AcDbLine
 10
7879.5
 20
6744.343109315912
 30
0.0
 11
7814.499999999999
 21
6744.343109315912
 31
0.0
  0
LINE
  5
21788
330
1D851
100
AcDbEntity
  8
寸法
 62
     0
 48
50.0
370
    -2
100
AcDbLine
 10
7814.499999999999
 20
6744.343109315912
 30
0.0
 11
7459.310418611647
 21
6744.343109315912
 31
0.0
  0
INSERT
  5
21789
330
1D851
100
AcDbEntity
  8
寸法
 62
     0
 48
50.0
370
    -2
100
AcDbBlockReference
  2
_DOTSMALL
 10
7879.5
 20
6744.343109315912
 30
0.0
 41
125.0
 42
125.0
 43
125.0
  0
INSERT
  5
2178A
330
1D851
100
AcDbEntity
  8
寸法
 62
     0
 48
50.0
370
    -2
100
AcDbBlockReference
  2
_DOTSMALL
 10
7814.499999999999
 20
6744.343109315912
 30
0.0
 41
125.0
 42
125.0
 43
125.0
 50
180.0
  0
MTEXT
  5
2178B
330
1D851
100
AcDbEntity
  8
寸法
 62
     7
 48
50.0
100
AcDbMText
 10
7574.405209305824
 20
6844.343109315912
 30
0.0
 40
150.0
 41
0.0
 71
     5
 72
     1
  1
\A1;65
  7
STYLE1
 73
     1
 44
1.0
1001
ACAD
1000
MTEXTBEGIN
1070
    73
1070
     1
1070
    44
1040
1.0
1070
    74
1070
     0
1000
MTEXTEND
  0
POINT
  5
2178C
330
1D851
100
AcDbEntity
  8
DEFPOINTS
 62
     0
 48
50.0
100
AcDbPoint
 10
7814.499999999999
 20
7298.810165560841
 30
0.0
  0
POINT
  5
2178D
330
1D851
100
AcDbEntity
  8
DEFPOINTS
 62
     0
 48
50.0
100
AcDbPoint
 10
7879.5
 20
7283.810165560841
 30
0.0
  0
POINT
  5
2178E
330
1D851
100
AcDbEntity
  8
DEFPOINTS
 62
     0
 48
50.0
100
AcDbPoint
 10
7879.5
 20
6744.343109315912
 30
0.0
  0
ENDBLK
  5
1D85D
330
1D851
100
AcDbEntity
  8
0
 48
50.0
100
AcDbBlockEnd
  0
BLOCK
  5
1DA69
330
1D85E
100
AcDbEntity
  8
0
 48
50.0
100
AcDbBlockBegin
  2
*D14
 70
     1
 10
0.0
 20
0.0
 30
0.0
  3
*D14
  1

  0
LINE
  5
201C4
330
1D85E
100
AcDbEntity
  8
寸法
 62
     0
 48
50.0
370
    -2
100
AcDbLine
 10
9219.500000000001
 20
8888.81016556084
 30
0.0
 11
9454.979884441222
 21
8888.81016556084
 31
0.0
  0
LINE
  5
201C5
330
1D85E
100
AcDbEntity
  8
寸法
 62
     0
 48
50.0
370
    -2
100
AcDbLine
 10
9219.500000000001
 20
8163.810165560841
 30
0.0
 11
9454.979884441222
 21
8163.810165560841
 31
0.0
  0
LINE
  5
201C6
330
1D85E
100
AcDbEntity
  8
寸法
 62
     0
 48
50.0
370
    -2
100
AcDbLine
 10
9379.979884441222
 20
8888.81016556084
 30
0.0
 11
9379.979884441222
 21
8163.810165560841
 31
0.0
  0
INSERT
  5
201C7
330
1D85E
100
AcDbEntity
  8
寸法
 62
     0
 48
50.0
370
    -2
100
AcDbBlockReference
  2
_DOTSMALL
 10
9379.979884441222
 20
8888.81016556084
 30
0.0
 41
125.0
 42
125.0
 43
125.0
 50
90.0
  0
INSERT
  5
201C8
330
1D85E
100
AcDbEntity
  8
寸法
 62
     0
 48
50.0
370
    -2
100
AcDbBlockReference
  2
_DOTSMALL
 10
9379.979884441222
 20
8163.810165560841
 30
0.0
 41
125.0
 42
125.0
 43
125.0
 50
270.0
  0
MTEXT
  5
201C9
330
1D85E
100
AcDbEntity
  8
寸法
 62
     7
 48
50.0
100
AcDbMText
 10
9279.965120661692
 20
8526.310165560841
 30
0.0
 40
150.0
 41
0.0
 71
     5
 72
     1
  1
\A1;725
  7
STYLE1
 11
0.0000000000000001
 21
1.0
 31
0.0
 73
     1
 44
1.0
1001
ACAD
1000
MTEXTBEGIN
1070
    73
1070
     1
1070
    44
1040
1.0
1070
    74
1070
     0
1000
MTEXTEND
  0
POINT
  5
201CA
330
1D85E
100
AcDbEntity
  8
DEFPOINTS
 62
     0
 48
50.0
100
AcDbPoint
 10
9194.500000000001
 20
8888.81016556084
 30
0.0
  0
POINT
  5
201CB
330
1D85E
100
AcDbEntity
  8
DEFPOINTS
 62
     0
 48
50.0
100
AcDbPoint
 10
9194.500000000001
 20
8163.810165560841
 30
0.0
  0
POINT
  5
201CC
330
1D85E
100
AcDbEntity
  8
DEFPOINTS
 62
     0
 48
50.0
100
AcDbPoint
 10
9379.979884441222
 20
8163.810165560841
 30
0.0
  0
ENDBLK
  5
1DA73
330
1D85E
100
AcDbEntity
  8
0
 48
50.0
100
AcDbBlockEnd
  0
BLOCK
  5
1DAB6
330
1D86A
100
AcDbEntity
  8
0
 48
50.0
100
AcDbBlockBegin
  2
*D15
 70
     1
 10
0.0
 20
0.0
 30
0.0
  3
*D15
  1

  0
LINE
  5
20204
330
1D86A
100
AcDbEntity
  8
寸法
 62
     0
 48
50.0
370
    -2
100
AcDbLine
 10
9219.500000000001
 20
8163.810165560841
 30
0.0
 11
9454.979884441224
 21
8163.810165560841
 31
0.0
  0
LINE
  5
20205
330
1D86A
100
AcDbEntity
  8
寸法
 62
     0
 48
50.0
370
    -2
100
AcDbLine
 10
9404.979884441223
 20
7363.810165560841
 30
0.0
 11
9454.979884441224
 21
7363.810165560841
 31
0.0
  0
LINE
  5
20206
330
1D86A
100
AcDbEntity
  8
寸法
 62
     0
 48
50.0
370
    -2
100
AcDbLine
 10
9379.979884441224
 20
8163.810165560841
 30
0.0
 11
9379.979884441224
 21
7363.810165560841
 31
0.0
  0
INSERT
  5
20207
330
1D86A
100
AcDbEntity
  8
寸法
 62
     0
 48
50.0
370
    -2
100
AcDbBlockReference
  2
_DOTSMALL
 10
9379.979884441224
 20
8163.810165560841
 30
0.0
 41
125.0
 42
125.0
 43
125.0
 50
90.0
  0
INSERT
  5
20208
330
1D86A
100
AcDbEntity
  8
寸法
 62
     0
 48
50.0
370
    -2
100
AcDbBlockReference
  2
_DOTSMALL
 10
9379.979884441224
 20
7363.810165560841
 30
0.0
 41
125.0
 42
125.0
 43
125.0
 50
270.0
  0
MTEXT
  5
20209
330
1D86A
100
AcDbEntity
  8
寸法
 62
     7
 48
50.0
100
AcDbMText
 10
9279.979884441223
 20
7682.221287469693
 30
0.0
 40
150.0
 41
0.0
 71
     5
 72
     1
  1
\A1;800
  7
STYLE1
 11
0.0000000000000001
 21
1.0
 31
0.0
 73
     1
 44
1.0
1001
ACAD
1000
MTEXTBEGIN
1070
    73
1070
     1
1070
    44
1040
1.0
1070
    74
1070
     0
1000
MTEXTEND
  0
POINT
  5
2020A
330
1D86A
100
AcDbEntity
  8
DEFPOINTS
 62
     0
 48
50.0
100
AcDbPoint
 10
9194.500000000003
 20
8163.810165560841
 30
0.0
  0
POINT
  5
2020B
330
1D86A
100
AcDbEntity
  8
DEFPOINTS
 62
     0
 48
50.0
100
AcDbPoint
 10
9379.979884441222
 20
7363.810165560841
 30
0.0
  0
POINT
  5
2020C
330
1D86A
100
AcDbEntity
  8
DEFPOINTS
 62
     0
 48
50.0
100
AcDbPoint
 10
9379.979884441224
 20
7363.810165560841
 30
0.0
  0
ENDBLK
  5
1DAC0
330
1D86A
100
AcDbEntity
  8
0
 48
50.0
100
AcDbBlockEnd
  0
BLOCK
  5
1E700
330
1D876
100
AcDbEntity
  8
0
 48
50.0
100
AcDbBlockBegin
  2
*D16
 70
     1
 10
0.0
 20
0.0
 30
0.0
  3
*D16
  1

  0
LINE
  5
2020D
330
1D876
100
AcDbEntity
  8
寸法
 62
     0
 48
50.0
370
    -2
100
AcDbLine
 10
7789.5
 20
10413.81016556084
 30
0.0
 11
6988.500000000001
 21
10413.81016556084
 31
0.0
  0
LINE
  5
2020E
330
1D876
100
AcDbEntity
  8
寸法
 62
     0
 48
50.0
370
    -2
100
AcDbLine
 10
8267.0
 20
9903.810165560841
 30
0.0
 11
6988.500000000001
 21
9903.810165560841
 31
0.0
  0
LINE
  5
2020F
330
1D876
100
AcDbEntity
  8
寸法
 62
     0
 48
50.0
370
    -2
100
AcDbLine
 10
7063.500000000001
 20
10413.81016556084
 30
0.0
 11
7063.500000000001
 21
9903.810165560841
 31
0.0
  0
INSERT
  5
20210
330
1D876
100
AcDbEntity
  8
寸法
 62
     0
 48
50.0
370
    -2
100
AcDbBlockReference
  2
_DOTSMALL
 10
7063.500000000001
 20
10413.81016556084
 30
0.0
 41
125.0
 42
125.0
 43
125.0
 50
90.0
  0
INSERT
  5
20211
330
1D876
100
AcDbEntity
  8
寸法
 62
     0
 48
50.0
370
    -2
100
AcDbBlockReference
  2
_DOTSMALL
 10
7063.500000000001
 20
9903.810165560841
 30
0.0
 41
125.0
 42
125.0
 43
125.0
 50
270.0
  0
MTEXT
  5
20212
330
1D876
100
AcDbEntity
  8
寸法
 62
     7
 48
50.0
100
AcDbMText
 10
6963.499999999999
 20
10158.81016556084
 30
0.0
 40
150.0
 41
0.0
 71
     5
 72
     1
  1
\A1;510
  7
STYLE1
 11
0.0000000000000001
 21
1.0
 31
0.0
 73
     1
 44
1.0
1001
ACAD
1000
MTEXTBEGIN
1070
    73
1070
     1
1070
    44
1040
1.0
1070
    74
1070
     0
1000
MTEXTEND
  0
POINT
  5
20213
330
1D876
100
AcDbEntity
  8
DEFPOINTS
 62
     0
 48
50.0
100
AcDbPoint
 10
7814.499999999999
 20
10413.81016556084
 30
0.0
  0
POINT
  5
20214
330
1D876
100
AcDbEntity
  8
DEFPOINTS
 62
     0
 48
50.0
100
AcDbPoint
 10
8292.0
 20
9903.810165560841
 30
0.0
  0
POINT
  5
20215
330
1D876
100
AcDbEntity
  8
DEFPOINTS
 62
     0
 48
50.0
100
AcDbPoint
 10
7063.500000000001
 20
9903.810165560841
 30
0.0
  0
ENDBLK
  5
1E70A
330
1D876
100
AcDbEntity
  8
0
 48
50.0
100
AcDbBlockEnd
  0
BLOCK
  5
1D975
330
1D882
100
AcDbEntity
  8
0
 48
50.0
100
AcDbBlockBegin
  2
*D17
 70
     1
 10
0.0
 20
0.0
 30
0.0
  3
*D17
  1

  0
LINE
  5
2024C
330
1D882
100
AcDbEntity
  8
寸法
 62
     0
 48
50.0
370
    -2
100
AcDbLine
 10
12769.5
 20
7363.810165560841
 30
0.0
 11
13670.5
 21
7363.810165560841
 31
0.0
  0
LINE
  5
2024D
330
1D882
100
AcDbEntity
  8
寸法
 62
     0
 48
50.0
370
    -2
100
AcDbLine
 10
12769.5
 20
10413.81016556084
 30
0.0
 11
13670.5
 21
10413.81016556084
 31
0.0
  0
LINE
  5
2024E
330
1D882
100
AcDbEntity
  8
寸法
 62
     0
 48
50.0
370
    -2
100
AcDbLine
 10
13595.5
 20
7363.810165560841
 30
0.0
 11
13595.5
 21
10413.81016556084
 31
0.0
  0
INSERT
  5
2024F
330
1D882
100
AcDbEntity
  8
寸法
 62
     0
 48
50.0
370
    -2
100
AcDbBlockReference
  2
_DOTSMALL
 10
13595.5
 20
7363.810165560841
 30
0.0
 41
125.0
 42
125.0
 43
125.0
 50
270.0
  0
INSERT
  5
20250
330
1D882
100
AcDbEntity
  8
寸法
 62
     0
 48
50.0
370
    -2
100
AcDbBlockReference
  2
_DOTSMALL
 10
13595.5
 20
10413.81016556084
 30
0.0
 41
125.0
 42
125.0
 43
125.0
 50
90.0
  0
MTEXT
  5
20251
330
1D882
100
AcDbEntity
  8
寸法
 62
     7
 48
50.0
100
AcDbMText
 10
13495.5
 20
8888.810165560846
 30
0.0
 40
150.0
 41
0.0
 71
     5
 72
     1
  1
\A1;3050
  7
STYLE1
 11
0.0000000000000001
 21
1.0
 31
0.0
 73
     1
 44
1.0
1001
ACAD
1000
MTEXTBEGIN
1070
    73
1070
     1
1070
    44
1040
1.0
1070
    74
1070
     0
1000
MTEXTEND
  0
POINT
  5
20252
330
1D882
100
AcDbEntity
  8
DEFPOINTS
 62
     0
 48
50.0
100
AcDbPoint
 10
12744.5
 20
7363.810165560841
 30
0.0
  0
POINT
  5
20253
330
1D882
100
AcDbEntity
  8
DEFPOINTS
 62
     0
 48
50.0
100
AcDbPoint
 10
12744.5
 20
10413.81016556084
 30
0.0
  0
POINT
  5
20254
330
1D882
100
AcDbEntity
  8
DEFPOINTS
 62
     0
 48
50.0
100
AcDbPoint
 10
13595.5
 20
10413.81016556084
 30
0.0
  0
ENDBLK
  5
1D97F
330
1D882
100
AcDbEntity
  8
0
 48
50.0
100
AcDbBlockEnd
  0
BLOCK
  5
1D96B
330
1D88E
100
AcDbEntity
  8
0
 48
50.0
100
AcDbBlockBegin
  2
*D18
 70
     1
 10
0.0
 20
0.0
 30
0.0
  3
*D18
  1

  0
LINE
  5
20255
330
1D88E
100
AcDbEntity
  8
寸法
 62
     0
 48
50.0
370
    -2
100
AcDbLine
 10
12849.5
 20
7428.810165560841
 30
0.0
 11
13349.56822416407
 21
7428.810165560841
 31
0.0
  0
LINE
  5
20256
330
1D88E
100
AcDbEntity
  8
寸法
 62
     0
 48
50.0
370
    -2
100
AcDbLine
 10
13274.56822416407
 20
10348.81016556084
 30
0.0
 11
13274.56822416407
 21
7428.810165560841
 31
0.0
  0
INSERT
  5
20257
330
1D88E
100
AcDbEntity
  8
寸法
 62
     0
 48
50.0
370
    -2
100
AcDbBlockReference
  2
_DOTSMALL
 10
13274.56822416407
 20
10348.81016556084
 30
0.0
 41
125.0
 42
125.0
 43
125.0
 50
90.0
  0
INSERT
  5
20258
330
1D88E
100
AcDbEntity
  8
寸法
 62
     0
 48
50.0
370
    -2
100
AcDbBlockReference
  2
_DOTSMALL
 10
13274.56822416407
 20
7428.810165560841
 30
0.0
 41
125.0
 42
125.0
 43
125.0
 50
270.0
  0
MTEXT
  5
20259
330
1D88E
100
AcDbEntity
  8
寸法
 62
     7
 48
50.0
100
AcDbMText
 10
13174.51720845806
 20
8888.810165560846
 30
0.0
 40
150.0
 41
0.0
 71
     5
 72
     1
  1
\A1;2920
  7
STYLE1
 11
0.0000000000000001
 21
1.0
 31
0.0
 73
     1
 44
1.0
1001
ACAD
1000
MTEXTBEGIN
1070
    73
1070
     1
1070
    44
1040
1.0
1070
    74
1070
     0
1000
MTEXTEND
  0
POINT
  5
2025A
330
1D88E
100
AcDbEntity
  8
DEFPOINTS
 62
     0
 48
50.0
100
AcDbPoint
 10
12824.5
 20
10348.81016556084
 30
0.0
  0
POINT
  5
2025B
330
1D88E
100
AcDbEntity
  8
DEFPOINTS
 62
     0
 48
50.0
100
AcDbPoint
 10
12824.5
 20
7428.810165560841
 30
0.0
  0
POINT
  5
2025C
330
1D88E
100
AcDbEntity
  8
DEFPOINTS
 62
     0
 48
50.0
100
AcDbPoint
 10
13274.56822416407
 20
7428.810165560841
 30
0.0
  0
ENDBLK
  5
1D974
330
1D88E
100
AcDbEntity
  8
0
 48
50.0
100
AcDbBlockEnd
  0
BLOCK
  5
1D89A
330
1D899
100
AcDbEntity
  8
0
 48
50.0
100
AcDbBlockBegin
  2
*D19
 70
     1
 10
0.0
 20
0.0
 30
0.0
  3
*D19
  1

  0
LINE
  5
20270
330
1D899
100
AcDbEntity
  8
寸法
 62
     0
 48
50.0
370
    -2
100
AcDbLine
 10
12849.5
 20
7428.810165560841
 30
0.0
 11
13349.56822416407
 21
7428.810165560841
 31
0.0
  0
LINE
  5
20271
330
1D899
100
AcDbEntity
  8
寸法
 62
     0
 48
50.0
370
    -2
100
AcDbLine
 10
12769.5
 20
7363.810165560841
 30
0.0
 11
13349.56822416407
 21
7363.810165560841
 31
0.0
  0
LINE
  5
20272
330
1D899
100
AcDbEntity
  8
寸法
 62
     0
 48
50.0
370
    -2
100
AcDbLine
 10
13274.56822416407
 20
7428.810165560841
 30
0.0
 11
13274.56822416407
 21
7363.810165560841
 31
0.0
  0
LINE
  5
20273
330
1D899
100
AcDbEntity
  8
寸法
 62
     0
 48
50.0
370
    -2
100
AcDbLine
 10
13274.56822416407
 20
7363.810165560841
 30
0.0
 11
13274.56822416407
 21
7008.620584172487
 31
0.0
  0
INSERT
  5
20274
330
1D899
100
AcDbEntity
  8
寸法
 62
     0
 48
50.0
370
    -2
100
AcDbBlockReference
  2
_DOTSMALL
 10
13274.56822416407
 20
7428.810165560841
 30
0.0
 41
125.0
 42
125.0
 43
125.0
 50
90.0
  0
INSERT
  5
20275
330
1D899
100
AcDbEntity
  8
寸法
 62
     0
 48
50.0
370
    -2
100
AcDbBlockReference
  2
_DOTSMALL
 10
13274.56822416407
 20
7363.810165560841
 30
0.0
 41
125.0
 42
125.0
 43
125.0
 50
270.0
  0
MTEXT
  5
20276
330
1D899
100
AcDbEntity
  8
寸法
 62
     7
 48
50.0
100
AcDbMText
 10
13174.56822416407
 20
7123.715374866664
 30
0.0
 40
150.0
 41
0.0
 71
     5
 72
     1
  1
\A1;65
  7
STYLE1
 11
0.0000000000000001
 21
1.0
 31
0.0
 73
     1
 44
1.0
1001
ACAD
1000
MTEXTBEGIN
1070
    73
1070
     1
1070
    44
1040
1.0
1070
    74
1070
     0
1000
MTEXTEND
  0
POINT
  5
20277
330
1D899
100
AcDbEntity
  8
DEFPOINTS
 62
     0
 48
50.0
100
AcDbPoint
 10
12824.5
 20
7428.810165560841
 30
0.0
  0
POINT
  5
20278
330
1D899
100
AcDbEntity
  8
DEFPOINTS
 62
     0
 48
50.0
100
AcDbPoint
 10
12744.5
 20
7363.810165560841
 30
0.0
  0
POINT
  5
20279
330
1D899
100
AcDbEntity
  8
DEFPOINTS
 62
     0
 48
50.0
100
AcDbPoint
 10
13274.56822416407
 20
7363.810165560841
 30
0.0
  0
ENDBLK
  5
1D8A5
330
1D899
100
AcDbEntity
  8
0
 48
50.0
100
AcDbBlockEnd
  0
BLOCK
  5
1D8A7
330
1D8A6
100
AcDbEntity
  8
0
 48
50.0
100
AcDbBlockBegin
  2
*D20
 70
     1
 10
0.0
 20
0.0
 30
0.0
  3
*D20
  1

  0
LINE
  5
2027A
330
1D8A6
100
AcDbEntity
  8
寸法
 62
     0
 48
50.0
370
    -2
100
AcDbLine
 10
12769.5
 20
7363.810165560841
 30
0.0
 11
13670.5
 21
7363.810165560841
 31
0.0
  0
LINE
  5
2027B
330
1D8A6
100
AcDbEntity
  8
寸法
 62
     0
 48
50.0
370
    -2
100
AcDbLine
 10
13299.56822416407
 20
7233.810165560841
 30
0.0
 11
13670.5
 21
7233.810165560841
 31
0.0
  0
LINE
  5
2027C
330
1D8A6
100
AcDbEntity
  8
寸法
 62
     0
 48
50.0
370
    -2
100
AcDbLine
 10
13595.5
 20
7363.810165560841
 30
0.0
 11
13595.5
 21
7233.810165560841
 31
0.0
  0
LINE
  5
2027D
330
1D8A6
100
AcDbEntity
  8
寸法
 62
     0
 48
50.0
370
    -2
100
AcDbLine
 10
13595.5
 20
7233.810165560841
 30
0.0
 11
13595.5
 21
6697.92827579706
 31
0.0
  0
INSERT
  5
2027E
330
1D8A6
100
AcDbEntity
  8
寸法
 62
     0
 48
50.0
370
    -2
100
AcDbBlockReference
  2
_DOTSMALL
 10
13595.5
 20
7363.810165560841
 30
0.0
 41
125.0
 42
125.0
 43
125.0
 50
90.0
  0
INSERT
  5
2027F
330
1D8A6
100
AcDbEntity
  8
寸法
 62
     0
 48
50.0
370
    -2
100
AcDbBlockReference
  2
_DOTSMALL
 10
13595.5
 20
7233.810165560841
 30
0.0
 41
125.0
 42
125.0
 43
125.0
 50
270.0
  0
MTEXT
  5
20280
330
1D8A6
100
AcDbEntity
  8
寸法
 62
     7
 48
50.0
100
AcDbMText
 10
13488.0
 20
6902.869220678953
 30
0.0
 40
150.0
 41
0.0
 71
     5
 72
     1
  1
\A1;(130)
  7
STYLE1
 11
0.0000000000000001
 21
1.0
 31
0.0
 73
     1
 44
1.0
1001
ACAD
1000
MTEXTBEGIN
1070
    73
1070
     1
1070
    44
1040
1.0
1070
    74
1070
     0
1000
MTEXTEND
  0
POINT
  5
20281
330
1D8A6
100
AcDbEntity
  8
DEFPOINTS
 62
     0
 48
50.0
100
AcDbPoint
 10
12744.5
 20
7363.810165560841
 30
0.0
  0
POINT
  5
20282
330
1D8A6
100
AcDbEntity
  8
DEFPOINTS
 62
     0
 48
50.0
100
AcDbPoint
 10
13274.56822416407
 20
7233.810165560841
 30
0.0
  0
POINT
  5
20283
330
1D8A6
100
AcDbEntity
  8
DEFPOINTS
 62
     0
 48
50.0
100
AcDbPoint
 10
13595.5
 20
7233.810165560841
 30
0.0
  0
ENDBLK
  5
1D8B2
330
1D8A6
100
AcDbEntity
  8
0
 48
50.0
100
AcDbBlockEnd
  0
BLOCK
  5
1D8B4
330
1D8B3
100
AcDbEntity
  8
0
 48
50.0
100
AcDbBlockBegin
  2
*D21
 70
     1
 10
0.0
 20
0.0
 30
0.0
  3
*D21
  1

  0
LINE
  5
2028E
330
1D8B3
100
AcDbEntity
  8
寸法
 62
     0
 48
50.0
370
    -2
100
AcDbLine
 10
12679.5
 20
7258.810165560841
 30
0.0
 11
12679.5
 21
6669.343109315912
 31
0.0
  0
LINE
  5
2028F
330
1D8B3
100
AcDbEntity
  8
寸法
 62
     0
 48
50.0
370
    -2
100
AcDbLine
 10
12744.5
 20
7270.810165560843
 30
0.0
 11
12744.5
 21
6669.343109315912
 31
0.0
  0
LINE
  5
20290
330
1D8B3
100
AcDbEntity
  8
寸法
 62
     0
 48
50.0
370
    -2
100
AcDbLine
 10
12679.5
 20
6744.343109315912
 30
0.0
 11
12744.5
 21
6744.343109315912
 31
0.0
  0
LINE
  5
20291
330
1D8B3
100
AcDbEntity
  8
寸法
 62
     0
 48
50.0
370
    -2
100
AcDbLine
 10
12744.5
 20
6744.343109315912
 30
0.0
 11
13099.68958138835
 21
6744.343109315912
 31
0.0
  0
INSERT
  5
20292
330
1D8B3
100
AcDbEntity
  8
寸法
 62
     0
 48
50.0
370
    -2
100
AcDbBlockReference
  2
_DOTSMALL
 10
12679.5
 20
6744.343109315912
 30
0.0
 41
125.0
 42
125.0
 43
125.0
 50
180.0
  0
INSERT
  5
20293
330
1D8B3
100
AcDbEntity
  8
寸法
 62
     0
 48
50.0
370
    -2
100
AcDbBlockReference
  2
_DOTSMALL
 10
12744.5
 20
6744.343109315912
 30
0.0
 41
125.0
 42
125.0
 43
125.0
  0
MTEXT
  5
20294
330
1D8B3
100
AcDbEntity
  8
寸法
 62
     7
 48
50.0
100
AcDbMText
 10
12984.59479069417
 20
6844.343109315912
 30
0.0
 40
150.0
 41
0.0
 71
     5
 72
     1
  1
\A1;65
  7
STYLE1
 73
     1
 44
1.0
1001
ACAD
1000
MTEXTBEGIN
1070
    73
1070
     1
1070
    44
1040
1.0
1070
    74
1070
     0
1000
MTEXTEND
  0
POINT
  5
20295
330
1D8B3
100
AcDbEntity
  8
DEFPOINTS
 62
     0
 48
50.0
100
AcDbPoint
 10
12679.5
 20
7283.810165560841
 30
0.0
  0
POINT
  5
20296
330
1D8B3
100
AcDbEntity
  8
DEFPOINTS
 62
     0
 48
50.0
100
AcDbPoint
 10
12744.5
 20
7295.810165560843
 30
0.0
  0
POINT
  5
20297
330
1D8B3
100
AcDbEntity
  8
DEFPOINTS
 62
     0
 48
50.0
100
AcDbPoint
 10
12744.5
 20
6744.343109315912
 30
0.0
  0
ENDBLK
  5
1D8BF
330
1D8B3
100
AcDbEntity
  8
0
 48
50.0
100
AcDbBlockEnd
  0
BLOCK
  5
1D8C1
330
1D8C0
100
AcDbEntity
  8
0
 48
50.0
100
AcDbBlockBegin
  2
*D22
 70
     1
 10
0.0
 20
0.0
 30
0.0
  3
*D22
  1

  0
LINE
  5
20284
330
1D8C0
100
AcDbEntity
  8
寸法
 62
     0
 48
50.0
370
    -2
100
AcDbLine
 10
12744.5
 20
7270.81016556084
 30
0.0
 11
12744.5
 21
6357.810165560841
 31
0.0
  0
LINE
  5
20285
330
1D8C0
100
AcDbEntity
  8
寸法
 62
     0
 48
50.0
370
    -2
100
AcDbLine
 10
12794.5
 20
6719.343109315912
 30
0.0
 11
12794.5
 21
6357.810165560841
 31
0.0
  0
LINE
  5
20286
330
1D8C0
100
AcDbEntity
  8
寸法
 62
     0
 48
50.0
370
    -2
100
AcDbLine
 10
12744.5
 20
6432.810165560841
 30
0.0
 11
12794.5
 21
6432.810165560841
 31
0.0
  0
LINE
  5
20287
330
1D8C0
100
AcDbEntity
  8
寸法
 62
     0
 48
50.0
370
    -2
100
AcDbLine
 10
12794.5
 20
6432.810165560841
 30
0.0
 11
13254.38188976378
 21
6432.810165560841
 31
0.0
  0
INSERT
  5
20288
330
1D8C0
100
AcDbEntity
  8
寸法
 62
     0
 48
50.0
370
    -2
100
AcDbBlockReference
  2
_DOTSMALL
 10
12744.5
 20
6432.810165560841
 30
0.0
 41
125.0
 42
125.0
 43
125.0
 50
180.0
  0
INSERT
  5
20289
330
1D8C0
100
AcDbEntity
  8
寸法
 62
     0
 48
50.0
370
    -2
100
AcDbBlockReference
  2
_DOTSMALL
 10
12794.5
 20
6432.810165560841
 30
0.0
 41
125.0
 42
125.0
 43
125.0
  0
MTEXT
  5
2028A
330
1D8C0
100
AcDbEntity
  8
寸法
 62
     7
 48
50.0
100
AcDbMText
 10
13086.94094488189
 20
6540.310165560841
 30
0.0
 40
150.0
 41
0.0
 71
     5
 72
     1
  1
\A1;(50)
  7
STYLE1
 73
     1
 44
1.0
1001
ACAD
1000
MTEXTBEGIN
1070
    73
1070
     1
1070
    44
1040
1.0
1070
    74
1070
     0
1000
MTEXTEND
  0
POINT
  5
2028B
330
1D8C0
100
AcDbEntity
  8
DEFPOINTS
 62
     0
 48
50.0
100
AcDbPoint
 10
12744.5
 20
7295.81016556084
 30
0.0
  0
POINT
  5
2028C
330
1D8C0
100
AcDbEntity
  8
DEFPOINTS
 62
     0
 48
50.0
100
AcDbPoint
 10
12794.5
 20
6744.343109315912
 30
0.0
  0
POINT
  5
2028D
330
1D8C0
100
AcDbEntity
  8
DEFPOINTS
 62
     0
 48
50.0
100
AcDbPoint
 10
12794.5
 20
6432.810165560841
 30
0.0
  0
ENDBLK
  5
1D8CC
330
1D8C0
100
AcDbEntity
  8
0
 48
50.0
100
AcDbBlockEnd
  0
BLOCK
  5
1D8CE
330
1D8CD
100
AcDbEntity
  8
0
 48
50.0
100
AcDbBlockBegin
  2
*D23
 70
     1
 10
0.0
 20
0.0
 30
0.0
  3
*D23
  1

  0
LINE
  5
202AC
330
1D8CD
100
AcDbEntity
  8
寸法
 62
     0
 48
50.0
370
    -2
100
AcDbLine
 10
12769.5
 20
10413.81016556084
 30
0.0
 11
13670.5
 21
10413.81016556084
 31
0.0
  0
LINE
  5
202AD
330
1D8CD
100
AcDbEntity
  8
寸法
 62
     0
 48
50.0
370
    -2
100
AcDbLine
 10
13299.56822416407
 20
10503.81016556084
 30
0.0
 11
13670.5
 21
10503.81016556084
 31
0.0
  0
LINE
  5
202AE
330
1D8CD
100
AcDbEntity
  8
寸法
 62
     0
 48
50.0
370
    -2
100
AcDbLine
 10
13595.5
 20
10413.81016556084
 30
0.0
 11
13595.5
 21
10503.81016556084
 31
0.0
  0
LINE
  5
202AF
330
1D8CD
100
AcDbEntity
  8
寸法
 62
     0
 48
50.0
370
    -2
100
AcDbLine
 10
13595.5
 20
10503.81016556084
 30
0.0
 11
13595.5
 21
10965.21620489875
 31
0.0
  0
INSERT
  5
202B0
330
1D8CD
100
AcDbEntity
  8
寸法
 62
     0
 48
50.0
370
    -2
100
AcDbBlockReference
  2
_DOTSMALL
 10
13595.5
 20
10413.81016556084
 30
0.0
 41
125.0
 42
125.0
 43
125.0
 50
270.0
  0
INSERT
  5
202B1
330
1D8CD
100
AcDbEntity
  8
寸法
 62
     0
 48
50.0
370
    -2
100
AcDbBlockReference
  2
_DOTSMALL
 10
13595.5
 20
10503.81016556084
 30
0.0
 41
125.0
 42
125.0
 43
125.0
 50
90.0
  0
MTEXT
  5
202B2
330
1D8CD
100
AcDbEntity
  8
寸法
 62
     7
 48
50.0
100
AcDbMText
 10
13487.96374807352
 20
10797.5131852298
 30
0.0
 40
150.0
 41
0.0
 71
     5
 72
     1
  1
\A1;(90)
  7
STYLE1
 11
0.0000000000000001
 21
1.0
 31
0.0
 73
     1
 44
1.0
1001
ACAD
1000
MTEXTBEGIN
1070
    73
1070
     1
1070
    44
1040
1.0
1070
    74
1070
     0
1000
MTEXTEND
  0
POINT
  5
202B3
330
1D8CD
100
AcDbEntity
  8
DEFPOINTS
 62
     0
 48
50.0
100
AcDbPoint
 10
12744.5
 20
10413.81016556084
 30
0.0
  0
POINT
  5
202B4
330
1D8CD
100
AcDbEntity
  8
DEFPOINTS
 62
     0
 48
50.0
100
AcDbPoint
 10
13274.56822416407
 20
10503.81016556084
 30
0.0
  0
POINT
  5
202B5
330
1D8CD
100
AcDbEntity
  8
DEFPOINTS
 62
     0
 48
50.0
100
AcDbPoint
 10
13595.5
 20
10503.81016556084
 30
0.0
  0
ENDBLK
  5
1D8D9
330
1D8CD
100
AcDbEntity
  8
0
 48
50.0
100
AcDbBlockEnd
  0
BLOCK
  5
1D8DB
330
1D8DA
100
AcDbEntity
  8
0
 48
50.0
100
AcDbBlockBegin
  2
*D24
 70
     1
 10
0.0
 20
0.0
 30
0.0
  3
*D24
  1

  0
LINE
  5
202BF
330
1D8DA
100
AcDbEntity
  8
寸法
 62
     0
 48
50.0
370
    -2
100
AcDbLine
 10
12769.5
 20
10413.81016556084
 30
0.0
 11
13349.56822416407
 21
10413.81016556084
 31
0.0
  0
LINE
  5
202C0
330
1D8DA
100
AcDbEntity
  8
寸法
 62
     0
 48
50.0
370
    -2
100
AcDbLine
 10
12849.5
 20
10348.81016556084
 30
0.0
 11
13349.56822416407
 21
10348.81016556084
 31
0.0
  0
LINE
  5
202C1
330
1D8DA
100
AcDbEntity
  8
寸法
 62
     0
 48
50.0
370
    -2
100
AcDbLine
 10
13274.56822416407
 20
10348.81016556084
 30
0.0
 11
13274.56822416407
 21
10413.81016556084
 31
0.0
  0
LINE
  5
202C2
330
1D8DA
100
AcDbEntity
  8
寸法
 62
     0
 48
50.0
370
    -2
100
AcDbLine
 10
13274.56822416407
 20
10413.81016556084
 30
0.0
 11
13274.56822416407
 21
10768.99974694919
 31
0.0
  0
INSERT
  5
202C3
330
1D8DA
100
AcDbEntity
  8
寸法
 62
     0
 48
50.0
370
    -2
100
AcDbBlockReference
  2
_DOTSMALL
 10
13274.56822416407
 20
10348.81016556084
 30
0.0
 41
125.0
 42
125.0
 43
125.0
 50
270.0
  0
INSERT
  5
202C4
330
1D8DA
100
AcDbEntity
  8
寸法
 62
     0
 48
50.0
370
    -2
100
AcDbBlockReference
  2
_DOTSMALL
 10
13274.56822416407
 20
10413.81016556084
 30
0.0
 41
125.0
 42
125.0
 43
125.0
 50
90.0
  0
MTEXT
  5
202C5
330
1D8DA
100
AcDbEntity
  8
寸法
 62
     7
 48
50.0
100
AcDbMText
 10
13174.56822416407
 20
10653.90495625502
 30
0.0
 40
150.0
 41
0.0
 71
     5
 72
     1
  1
\A1;65
  7
STYLE1
 11
0.0000000000000001
 21
1.0
 31
0.0
 73
     1
 44
1.0
1001
ACAD
1000
MTEXTBEGIN
1070
    73
1070
     1
1070
    44
1040
1.0
1070
    74
1070
     0
1000
MTEXTEND
  0
POINT
  5
202C6
330
1D8DA
100
AcDbEntity
  8
DEFPOINTS
 62
     0
 48
50.0
100
AcDbPoint
 10
12744.5
 20
10413.81016556084
 30
0.0
  0
POINT
  5
202C7
330
1D8DA
100
AcDbEntity
  8
DEFPOINTS
 62
     0
 48
50.0
100
AcDbPoint
 10
12824.5
 20
10348.81016556084
 30
0.0
  0
POINT
  5
202C8
330
1D8DA
100
AcDbEntity
  8
DEFPOINTS
 62
     0
 48
50.0
100
AcDbPoint
 10
13274.56822416407
 20
10348.81016556084
 30
0.0
  0
ENDBLK
  5
1D8E6
330
1D8DA
100
AcDbEntity
  8
0
 48
50.0
100
AcDbBlockEnd
  0
BLOCK
  5
1DA8A
330
1D8E7
100
AcDbEntity
  8
0
 48
50.0
100
AcDbBlockBegin
  2
*D25
 70
     1
 10
0.0
 20
0.0
 30
0.0
  3
*D25
  1

  0
LINE
  5
201A1
330
1D8E7
100
AcDbEntity
  8
寸法
 62
     0
 48
50.0
370
    -2
100
AcDbLine
 10
11509.5
 20
9783.810165560842
 30
0.0
 11
11509.5
 21
11121.07331529102
 31
0.0
  0
LINE
  5
201A2
330
1D8E7
100
AcDbEntity
  8
寸法
 62
     0
 48
50.0
370
    -2
100
AcDbLine
 10
10279.5
 20
10518.81016556084
 30
0.0
 11
10279.5
 21
11121.07331529102
 31
0.0
  0
LINE
  5
201A3
330
1D8E7
100
AcDbEntity
  8
寸法
 62
     0
 48
50.0
370
    -2
100
AcDbLine
 10
11509.5
 20
11046.07331529102
 30
0.0
 11
10279.5
 21
11046.07331529102
 31
0.0
  0
INSERT
  5
201A4
330
1D8E7
100
AcDbEntity
  8
寸法
 62
     0
 48
50.0
370
    -2
100
AcDbBlockReference
  2
_DOTSMALL
 10
11509.5
 20
11046.07331529102
 30
0.0
 41
125.0
 42
125.0
 43
125.0
  0
INSERT
  5
201A5
330
1D8E7
100
AcDbEntity
  8
寸法
 62
     0
 48
50.0
370
    -2
100
AcDbBlockReference
  2
_DOTSMALL
 10
10279.5
 20
11046.07331529102
 30
0.0
 41
125.0
 42
125.0
 43
125.0
 50
180.0
  0
MTEXT
  5
201A6
330
1D8E7
100
AcDbEntity
  8
寸法
 62
     7
 48
50.0
100
AcDbMText
 10
10894.5
 20
11146.08807907054
 30
0.0
 40
150.0
 41
0.0
 71
     5
 72
     1
  1
\A1;1230
  7
STYLE1
 73
     1
 44
1.0
1001
ACAD
1000
MTEXTBEGIN
1070
    73
1070
     1
1070
    44
1040
1.0
1070
    74
1070
     0
1000
MTEXTEND
  0
POINT
  5
201A7
330
1D8E7
100
AcDbEntity
  8
DEFPOINTS
 62
     0
 48
50.0
100
AcDbPoint
 10
11509.5
 20
9758.810165560841
 30
0.0
  0
POINT
  5
201A8
330
1D8E7
100
AcDbEntity
  8
DEFPOINTS
 62
     0
 48
50.0
100
AcDbPoint
 10
10279.5
 20
10493.81016556084
 30
0.0
  0
POINT
  5
201A9
330
1D8E7
100
AcDbEntity
  8
DEFPOINTS
 62
     0
 48
50.0
100
AcDbPoint
 10
10279.5
 20
11046.07331529102
 30
0.0
  0
ENDBLK
  5
1DA94
330
1D8E7
100
AcDbEntity
  8
0
 48
50.0
100
AcDbBlockEnd
  0
BLOCK
  5
1D8F4
330
1D8F3
100
AcDbEntity
  8
0
 48
50.0
100
AcDbBlockBegin
  2
*D26
 70
     1
 10
0.0
 20
0.0
 30
0.0
  3
*D26
  1

  0
LINE
  5
201AA
330
1D8F3
100
AcDbEntity
  8
寸法
 62
     0
 48
50.0
370
    -2
100
AcDbLine
 10
12679.5
 20
7258.810165560841
 30
0.0
 11
12679.5
 21
6669.343109315912
 31
0.0
  0
LINE
  5
201AB
330
1D8F3
100
AcDbEntity
  8
寸法
 62
     0
 48
50.0
370
    -2
100
AcDbLine
 10
10279.5
 20
6744.343109315912
 30
0.0
 11
12679.5
 21
6744.343109315912
 31
0.0
  0
INSERT
  5
201AC
330
1D8F3
100
AcDbEntity
  8
寸法
 62
     0
 48
50.0
370
    -2
100
AcDbBlockReference
  2
_DOTSMALL
 10
10279.5
 20
6744.343109315912
 30
0.0
 41
125.0
 42
125.0
 43
125.0
 50
180.0
  0
INSERT
  5
201AD
330
1D8F3
100
AcDbEntity
  8
寸法
 62
     0
 48
50.0
370
    -2
100
AcDbBlockReference
  2
_DOTSMALL
 10
12679.5
 20
6744.343109315912
 30
0.0
 41
125.0
 42
125.0
 43
125.0
  0
MTEXT
  5
201AE
330
1D8F3
100
AcDbEntity
  8
寸法
 62
     7
 48
50.0
100
AcDbMText
 10
11479.5
 20
6844.357873095439
 30
0.0
 40
150.0
 41
0.0
 71
     5
 72
     1
  1
\A1;2400
  7
STYLE1
 73
     1
 44
1.0
1001
ACAD
1000
MTEXTBEGIN
1070
    73
1070
     1
1070
    44
1040
1.0
1070
    74
1070
     0
1000
MTEXTEND
  0
POINT
  5
201AF
330
1D8F3
100
AcDbEntity
  8
DEFPOINTS
 62
     0
 48
50.0
100
AcDbPoint
 10
10279.5
 20
7283.810165560841
 30
0.0
  0
POINT
  5
201B0
330
1D8F3
100
AcDbEntity
  8
DEFPOINTS
 62
     0
 48
50.0
100
AcDbPoint
 10
12679.5
 20
7283.810165560841
 30
0.0
  0
POINT
  5
201B1
330
1D8F3
100
AcDbEntity
  8
DEFPOINTS
 62
     0
 48
50.0
100
AcDbPoint
 10
12679.5
 20
6744.343109315912
 30
0.0
  0
ENDBLK
  5
1D8FD
330
1D8F3
100
AcDbEntity
  8
0
 48
50.0
100
AcDbBlockEnd
  0
BLOCK
  5
1DA48
330
1DA31
100
AcDbEntity
  8
0
 48
50.0
100
AcDbBlockBegin
  2
*D27
 70
     1
 10
0.0
 20
0.0
 30
0.0
  3
*D27
  1

  0
LINE
  5
20243
330
1DA31
100
AcDbEntity
  8
寸法
 62
     0
 48
50.0
370
    -2
100
AcDbLine
 10
9219.500000000001
 20
9613.810165560842
 30
0.0
 11
9454.979884441222
 21
9613.810165560842
 31
0.0
  0
LINE
  5
20244
330
1DA31
100
AcDbEntity
  8
寸法
 62
     0
 48
50.0
370
    -2
100
AcDbLine
 10
9219.500000000001
 20
8888.81016556084
 30
0.0
 11
9454.979884441222
 21
8888.81016556084
 31
0.0
  0
LINE
  5
20245
330
1DA31
100
AcDbEntity
  8
寸法
 62
     0
 48
50.0
370
    -2
100
AcDbLine
 10
9379.979884441222
 20
9613.810165560842
 30
0.0
 11
9379.979884441222
 21
8888.81016556084
 31
0.0
  0
INSERT
  5
20246
330
1DA31
100
AcDbEntity
  8
寸法
 62
     0
 48
50.0
370
    -2
100
AcDbBlockReference
  2
_DOTSMALL
 10
9379.979884441222
 20
9613.810165560842
 30
0.0
 41
125.0
 42
125.0
 43
125.0
 50
90.0
  0
INSERT
  5
20247
330
1DA31
100
AcDbEntity
  8
寸法
 62
     0
 48
50.0
370
    -2
100
AcDbBlockReference
  2
_DOTSMALL
 10
9379.979884441222
 20
8888.81016556084
 30
0.0
 41
125.0
 42
125.0
 43
125.0
 50
270.0
  0
MTEXT
  5
20248
330
1DA31
100
AcDbEntity
  8
寸法
 62
     7
 48
50.0
100
AcDbMText
 10
9279.965120661692
 20
9251.310165560843
 30
0.0
 40
150.0
 41
0.0
 71
     5
 72
     1
  1
\A1;725
  7
STYLE1
 11
0.0000000000000001
 21
1.0
 31
0.0
 73
     1
 44
1.0
1001
ACAD
1000
MTEXTBEGIN
1070
    73
1070
     1
1070
    44
1040
1.0
1070
    74
1070
     0
1000
MTEXTEND
  0
POINT
  5
20249
330
1DA31
100
AcDbEntity
  8
DEFPOINTS
 62
     0
 48
50.0
100
AcDbPoint
 10
9194.500000000001
 20
9613.810165560842
 30
0.0
  0
POINT
  5
2024A
330
1DA31
100
AcDbEntity
  8
DEFPOINTS
 62
     0
 48
50.0
100
AcDbPoint
 10
9194.500000000001
 20
8888.81016556084
 30
0.0
  0
POINT
  5
2024B
330
1DA31
100
AcDbEntity
  8
DEFPOINTS
 62
     0
 48
50.0
100
AcDbPoint
 10
9379.979884441222
 20
8888.81016556084
 30
0.0
  0
ENDBLK
  5
1DA52
330
1DA31
100
AcDbEntity
  8
0
 48
50.0
100
AcDbBlockEnd
  0
BLOCK
  5
1E865
330
1E859
100
AcDbEntity
  8
0
 48
50.0
100
AcDbBlockBegin
  2
*D28
 70
     1
 10
0.0
 20
0.0
 30
0.0
  3
*D28
  1

  0
LINE
  5
20197
330
1E859
100
AcDbEntity
  8
寸法
 62
     0
 48
50.0
370
    -2
100
AcDbLine
 10
10825.55297658857
 20
7483.810165560841
 30
0.0
 11
10527.98231144971
 21
7483.810165560841
 31
0.0
  0
LINE
  5
20198
330
1E859
100
AcDbEntity
  8
寸法
 62
     0
 48
50.0
370
    -2
100
AcDbLine
 10
10825.55297658857
 20
7363.810165560842
 30
0.0
 11
10527.98231144971
 21
7363.810165560842
 31
0.0
  0
LINE
  5
20199
330
1E859
100
AcDbEntity
  8
寸法
 62
     0
 48
50.0
370
    -2
100
AcDbLine
 10
10602.98231144971
 20
7483.810165560841
 30
0.0
 11
10602.98231144971
 21
7363.810165560842
 31
0.0
  0
LINE
  5
2019A
330
1E859
100
AcDbEntity
  8
寸法
 62
     0
 48
50.0
370
    -2
100
AcDbLine
 10
10602.98231144971
 20
7363.810165560842
 30
0.0
 11
10602.98231144971
 21
6928.338510208899
 31
0.0
  0
INSERT
  5
2019B
330
1E859
100
AcDbEntity
  8
寸法
 62
     0
 48
50.0
370
    -2
100
AcDbBlockReference
  2
_DOTSMALL
 10
10602.98231144971
 20
7483.810165560841
 30
0.0
 41
125.0
 42
125.0
 43
125.0
 50
90.0
  0
INSERT
  5
2019C
330
1E859
100
AcDbEntity
  8
寸法
 62
     0
 48
50.0
370
    -2
100
AcDbBlockReference
  2
_DOTSMALL
 10
10602.98231144971
 20
7363.810165560842
 30
0.0
 41
125.0
 42
125.0
 43
125.0
 50
270.0
  0
MTEXT
  5
2019D
330
1E859
100
AcDbEntity
  8
寸法
 62
     7
 48
50.0
100
AcDbMText
 10
10502.96754767019
 20
7073.39756532701
 30
0.0
 40
150.0
 41
0.0
 71
     5
 72
     1
  1
\A1;120
  7
STYLE1
 11
0.0000000000000001
 21
1.0
 31
0.0
 73
     1
 44
1.0
1001
ACAD
1000
MTEXTBEGIN
1070
    73
1070
     1
1070
    44
1040
1.0
1070
    74
1070
     0
1000
MTEXTEND
  0
POINT
  5
2019E
330
1E859
100
AcDbEntity
  8
DEFPOINTS
 62
     0
 48
50.0
100
AcDbPoint
 10
10850.55297658857
 20
7483.810165560841
 30
0.0
  0
POINT
  5
2019F
330
1E859
100
AcDbEntity
  8
DEFPOINTS
 62
     0
 48
50.0
100
AcDbPoint
 10
10850.55297658857
 20
7363.810165560842
 30
0.0
  0
POINT
  5
201A0
330
1E859
100
AcDbEntity
  8
DEFPOINTS
 62
     0
 48
50.0
100
AcDbPoint
 10
10602.98231144971
 20
7363.810165560842
 30
0.0
  0
ENDBLK
  5
1E866
330
1E859
100
AcDbEntity
  8
0
 48
50.0
100
AcDbBlockEnd
  0
BLOCK
  5
1E891
330
1E886
100
AcDbEntity
  8
0
 48
50.0
100
AcDbBlockBegin
  2
*D29
 70
     1
 10
0.0
 20
0.0
 30
0.0
  3
*D29
  1

  0
LINE
  5
202A2
330
1E886
100
AcDbEntity
  8
寸法
 62
     0
 48
50.0
370
    -2
100
AcDbLine
 10
11131.32244800185
 20
10293.81016556084
 30
0.0
 11
10833.75178286299
 21
10293.81016556084
 31
0.0
  0
LINE
  5
202A3
330
1E886
100
AcDbEntity
  8
寸法
 62
     0
 48
50.0
370
    -2
100
AcDbLine
 10
11131.32244800185
 20
10413.81016556084
 30
0.0
 11
10833.75178286299
 21
10413.81016556084
 31
0.0
  0
LINE
  5
202A4
330
1E886
100
AcDbEntity
  8
寸法
 62
     0
 48
50.0
370
    -2
100
AcDbLine
 10
10908.75178286299
 20
10293.81016556084
 30
0.0
 11
10908.75178286299
 21
10413.81016556084
 31
0.0
  0
LINE
  5
202A5
330
1E886
100
AcDbEntity
  8
寸法
 62
     0
 48
50.0
370
    -2
100
AcDbLine
 10
10908.75178286299
 20
10413.81016556084
 30
0.0
 11
10908.75178286299
 21
10849.28182091278
 31
0.0
  0
INSERT
  5
202A6
330
1E886
100
AcDbEntity
  8
寸法
 62
     0
 48
50.0
370
    -2
100
AcDbBlockReference
  2
_DOTSMALL
 10
10908.75178286299
 20
10293.81016556084
 30
0.0
 41
125.0
 42
125.0
 43
125.0
 50
270.0
  0
INSERT
  5
202A7
330
1E886
100
AcDbEntity
  8
寸法
 62
     0
 48
50.0
370
    -2
100
AcDbBlockReference
  2
_DOTSMALL
 10
10908.75178286299
 20
10413.81016556084
 30
0.0
 41
125.0
 42
125.0
 43
125.0
 50
90.0
  0
MTEXT
  5
202A8
330
1E886
100
AcDbEntity
  8
寸法
 62
     7
 48
50.0
100
AcDbMText
 10
10808.73701908347
 20
10704.22276579467
 30
0.0
 40
150.0
 41
0.0
 71
     5
 72
     1
  1
\A1;120
  7
STYLE1
 11
0.0000000000000001
 21
1.0
 31
0.0
 73
     1
 44
1.0
1001
ACAD
1000
MTEXTBEGIN
1070
    73
1070
     1
1070
    44
1040
1.0
1070
    74
1070
     0
1000
MTEXTEND
  0
POINT
  5
202A9
330
1E886
100
AcDbEntity
  8
DEFPOINTS
 62
     0
 48
50.0
100
AcDbPoint
 10
11156.32244800185
 20
10293.81016556084
 30
0.0
  0
POINT
  5
202AA
330
1E886
100
AcDbEntity
  8
DEFPOINTS
 62
     0
 48
50.0
100
AcDbPoint
 10
11156.32244800185
 20
10413.81016556084
 30
0.0
  0
POINT
  5
202AB
330
1E886
100
AcDbEntity
  8
DEFPOINTS
 62
     0
 48
50.0
100
AcDbPoint
 10
10908.75178286299
 20
10413.81016556084
 30
0.0
  0
ENDBLK
  5
1E892
330
1E886
100
AcDbEntity
  8
0
 48
50.0
100
AcDbBlockEnd
  0
BLOCK
  5
1E8AA
330
1E89E
100
AcDbEntity
  8
0
 48
50.0
100
AcDbBlockBegin
  2
*D30
 70
     1
 10
0.0
 20
0.0
 30
0.0
  3
*D30
  1

  0
LINE
  5
20298
330
1E89E
100
AcDbEntity
  8
寸法
 62
     0
 48
50.0
370
    -2
100
AcDbLine
 10
12624.5
 20
8227.387715066521
 30
0.0
 11
12624.5
 21
8059.933790297678
 31
0.0
  0
LINE
  5
20299
330
1E89E
100
AcDbEntity
  8
寸法
 62
     0
 48
50.0
370
    -2
100
AcDbLine
 10
12744.5
 20
8227.387715066521
 30
0.0
 11
12744.5
 21
8059.933790297678
 31
0.0
  0
LINE
  5
2029A
330
1E89E
100
AcDbEntity
  8
寸法
 62
     0
 48
50.0
370
    -2
100
AcDbLine
 10
12624.5
 20
8134.933790297678
 30
0.0
 11
12744.5
 21
8134.933790297678
 31
0.0
  0
LINE
  5
2029B
330
1E89E
100
AcDbEntity
  8
寸法
 62
     0
 48
50.0
370
    -2
100
AcDbLine
 10
12744.5
 20
8134.933790297678
 30
0.0
 11
13159.61811023622
 21
8134.933790297678
 31
0.0
  0
INSERT
  5
2029C
330
1E89E
100
AcDbEntity
  8
寸法
 62
     0
 48
50.0
370
    -2
100
AcDbBlockReference
  2
_DOTSMALL
 10
12624.5
 20
8134.933790297678
 30
0.0
 41
125.0
 42
125.0
 43
125.0
 50
180.0
  0
INSERT
  5
2029D
330
1E89E
100
AcDbEntity
  8
寸法
 62
     0
 48
50.0
370
    -2
100
AcDbBlockReference
  2
_DOTSMALL
 10
12744.5
 20
8134.933790297678
 30
0.0
 41
125.0
 42
125.0
 43
125.0
  0
MTEXT
  5
2029E
330
1E89E
100
AcDbEntity
  8
寸法
 62
     7
 48
50.0
100
AcDbMText
 10
13014.55905511811
 20
8234.948554077206
 30
0.0
 40
150.0
 41
0.0
 71
     5
 72
     1
  1
\A1;120
  7
STYLE1
 73
     1
 44
1.0
1001
ACAD
1000
MTEXTBEGIN
1070
    73
1070
     1
1070
    44
1040
1.0
1070
    74
1070
     0
1000
MTEXTEND
  0
POINT
  5
2029F
330
1E89E
100
AcDbEntity
  8
DEFPOINTS
 62
     0
 48
50.0
100
AcDbPoint
 10
12624.5
 20
8252.387715066522
 30
0.0
  0
POINT
  5
202A0
330
1E89E
100
AcDbEntity
  8
DEFPOINTS
 62
     0
 48
50.0
100
AcDbPoint
 10
12744.5
 20
8252.387715066522
 30
0.0
  0
POINT
  5
202A1
330
1E89E
100
AcDbEntity
  8
DEFPOINTS
 62
     0
 48
50.0
100
AcDbPoint
 10
12744.5
 20
8134.933790297678
 30
0.0
  0
ENDBLK
  5
1E8AB
330
1E89E
100
AcDbEntity
  8
0
 48
50.0
100
AcDbBlockEnd
  0
BLOCK
  5
1E8CC
330
1E8C1
100
AcDbEntity
  8
0
 48
50.0
100
AcDbBlockBegin
  2
*D31
 70
     1
 10
0.0
 20
0.0
 30
0.0
  3
*D31
  1

  0
LINE
  5
201FA
330
1E8C1
100
AcDbEntity
  8
寸法
 62
     0
 48
50.0
370
    -2
100
AcDbLine
 10
7934.500000000004
 20
8227.387715066521
 30
0.0
 11
7934.500000000004
 21
8059.933790297678
 31
0.0
  0
LINE
  5
201FB
330
1E8C1
100
AcDbEntity
  8
寸法
 62
     0
 48
50.0
370
    -2
100
AcDbLine
 10
7814.500000000004
 20
8227.387715066521
 30
0.0
 11
7814.500000000004
 21
8059.933790297678
 31
0.0
  0
LINE
  5
201FC
330
1E8C1
100
AcDbEntity
  8
寸法
 62
     0
 48
50.0
370
    -2
100
AcDbLine
 10
7934.500000000004
 20
8134.933790297678
 30
0.0
 11
7814.500000000004
 21
8134.933790297678
 31
0.0
  0
LINE
  5
201FD
330
1E8C1
100
AcDbEntity
  8
寸法
 62
     0
 48
50.0
370
    -2
100
AcDbLine
 10
7814.500000000004
 20
8134.933790297678
 30
0.0
 11
7399.381889763784
 21
8134.933790297678
 31
0.0
  0
INSERT
  5
201FE
330
1E8C1
100
AcDbEntity
  8
寸法
 62
     0
 48
50.0
370
    -2
100
AcDbBlockReference
  2
_DOTSMALL
 10
7934.500000000004
 20
8134.933790297678
 30
0.0
 41
125.0
 42
125.0
 43
125.0
  0
INSERT
  5
201FF
330
1E8C1
100
AcDbEntity
  8
寸法
 62
     0
 48
50.0
370
    -2
100
AcDbBlockReference
  2
_DOTSMALL
 10
7814.500000000004
 20
8134.933790297678
 30
0.0
 41
125.0
 42
125.0
 43
125.0
 50
180.0
  0
MTEXT
  5
20200
330
1E8C1
100
AcDbEntity
  8
寸法
 62
     7
 48
50.0
100
AcDbMText
 10
7544.440944881893
 20
8234.948554077206
 30
0.0
 40
150.0
 41
0.0
 71
     5
 72
     1
  1
\A1;120
  7
STYLE1
 73
     1
 44
1.0
1001
ACAD
1000
MTEXTBEGIN
1070
    73
1070
     1
1070
    44
1040
1.0
1070
    74
1070
     0
1000
MTEXTEND
  0
POINT
  5
20201
330
1E8C1
100
AcDbEntity
  8
DEFPOINTS
 62
     0
 48
50.0
100
AcDbPoint
 10
7934.500000000004
 20
8252.387715066522
 30
0.0
  0
POINT
  5
20202
330
1E8C1
100
AcDbEntity
  8
DEFPOINTS
 62
     0
 48
50.0
100
AcDbPoint
 10
7814.500000000004
 20
8252.387715066522
 30
0.0
  0
POINT
  5
20203
330
1E8C1
100
AcDbEntity
  8
DEFPOINTS
 62
     0
 48
50.0
100
AcDbPoint
 10
7814.500000000004
 20
8134.933790297678
 30
0.0
  0
ENDBLK
  5
1E8CD
330
1E8C1
100
AcDbEntity
  8
0
 48
50.0
100
AcDbBlockEnd
  0
BLOCK
  5
1FBDB
330
1FBD1
100
AcDbEntity
  8
0
 48
50.0
100
AcDbBlockBegin
  2
*D32
 70
     1
 10
0.0
 20
0.0
 30
0.0
  3
*D32
  1

  0
LINE
  5
21772
330
1FBD1
100
AcDbEntity
  8
寸法
 62
     0
 48
50.0
370
    -2
100
AcDbLine
 10
9635.5
 20
7273.810165560845
 30
0.0
 11
9635.5
 21
6938.830959799048
 31
0.0
  0
LINE
  5
21773
330
1FBD1
100
AcDbEntity
  8
寸法
 62
     0
 48
50.0
370
    -2
100
AcDbLine
 10
7814.499999999999
 20
7273.81016556084
 30
0.0
 11
7814.499999999999
 21
6938.830959799048
 31
0.0
  0
LINE
  5
21774
330
1FBD1
100
AcDbEntity
  8
寸法
 62
     0
 48
50.0
370
    -2
100
AcDbLine
 10
9635.5
 20
7013.830959799048
 30
0.0
 11
7814.499999999999
 21
7013.830959799048
 31
0.0
  0
INSERT
  5
21775
330
1FBD1
100
AcDbEntity
  8
寸法
 62
     0
 48
50.0
370
    -2
100
AcDbBlockReference
  2
_DOTSMALL
 10
9635.5
 20
7013.830959799048
 30
0.0
 41
125.0
 42
125.0
 43
125.0
  0
INSERT
  5
21776
330
1FBD1
100
AcDbEntity
  8
寸法
 62
     0
 48
50.0
370
    -2
100
AcDbBlockReference
  2
_DOTSMALL
 10
7814.499999999999
 20
7013.830959799048
 30
0.0
 41
125.0
 42
125.0
 43
125.0
 50
180.0
  0
MTEXT
  5
21777
330
1FBD1
100
AcDbEntity
  8
寸法
 62
     7
 48
50.0
100
AcDbMText
 10
8725.0
 20
7113.845723578575
 30
0.0
 40
150.0
 41
0.0
 71
     5
 72
     1
  1
\A1;1821
  7
STYLE1
 73
     1
 44
1.0
1001
ACAD
1000
MTEXTBEGIN
1070
    73
1070
     1
1070
    44
1040
1.0
1070
    74
1070
     0
1000
MTEXTEND
  0
POINT
  5
21778
330
1FBD1
100
AcDbEntity
  8
DEFPOINTS
 62
     0
 48
50.0
100
AcDbPoint
 10
9635.5
 20
7298.810165560844
 30
0.0
  0
POINT
  5
21779
330
1FBD1
100
AcDbEntity
  8
DEFPOINTS
 62
     0
 48
50.0
100
AcDbPoint
 10
7814.499999999999
 20
7298.810165560841
 30
0.0
  0
POINT
  5
2177A
330
1FBD1
100
AcDbEntity
  8
DEFPOINTS
 62
     0
 48
50.0
100
AcDbPoint
 10
7814.499999999999
 20
7013.830959799048
 30
0.0
  0
ENDBLK
  5
1FBDC
330
1FBD1
100
AcDbEntity
  8
0
 48
50.0
100
AcDbBlockEnd
  0
BLOCK
  5
1FBEA
330
1FBDE
100
AcDbEntity
  8
0
 48
50.0
100
AcDbBlockBegin
  2
*D33
 70
     1
 10
0.0
 20
0.0
 30
0.0
  3
*D33
  1

  0
LINE
  5
21756
330
1FBDE
100
AcDbEntity
  8
寸法
 62
     0
 48
50.0
370
    -2
100
AcDbLine
 10
9660.5
 20
7298.810165560841
 30
0.0
 11
10037.8733771494
 21
7298.810165560841
 31
0.0
  0
LINE
  5
21757
330
1FBDE
100
AcDbEntity
  8
寸法
 62
     0
 48
50.0
370
    -2
100
AcDbLine
 10
9696.982400027074
 20
7483.810165560837
 30
0.0
 11
10037.8733771494
 21
7483.810165560837
 31
0.0
  0
LINE
  5
21758
330
1FBDE
100
AcDbEntity
  8
寸法
 62
     0
 48
50.0
370
    -2
100
AcDbLine
 10
9962.873377149403
 20
7298.810165560841
 30
0.0
 11
9962.873377149403
 21
7483.810165560837
 31
0.0
  0
LINE
  5
21759
330
1FBDE
100
AcDbEntity
  8
寸法
 62
     0
 48
50.0
370
    -2
100
AcDbLine
 10
9962.873377149403
 20
7483.810165560837
 30
0.0
 11
9962.873377149403
 21
7905.023368996433
 31
0.0
  0
INSERT
  5
2175A
330
1FBDE
100
AcDbEntity
  8
寸法
 62
     0
 48
50.0
370
    -2
100
AcDbBlockReference
  2
_DOTSMALL
 10
9962.873377149403
 20
7298.810165560841
 30
0.0
 41
125.0
 42
125.0
 43
125.0
 50
270.0
  0
INSERT
  5
2175B
330
1FBDE
100
AcDbEntity
  8
寸法
 62
     0
 48
50.0
370
    -2
100
AcDbBlockReference
  2
_DOTSMALL
 10
9962.873377149403
 20
7483.810165560837
 30
0.0
 41
125.0
 42
125.0
 43
125.0
 50
90.0
  0
MTEXT
  5
2175C
330
1FBDE
100
AcDbEntity
  8
寸法
 62
     7
 48
50.0
100
AcDbMText
 10
9862.873377149401
 20
7756.916767278636
 30
0.0
 40
150.0
 41
0.0
 71
     5
 72
     1
  1
\A1;185
  7
STYLE1
 11
0.0000000000000001
 21
1.0
 31
0.0
 73
     1
 44
1.0
1001
ACAD
1000
MTEXTBEGIN
1070
    73
1070
     1
1070
    44
1040
1.0
1070
    74
1070
     0
1000
MTEXTEND
  0
POINT
  5
2175D
330
1FBDE
100
AcDbEntity
  8
DEFPOINTS
 62
     0
 48
50.0
100
AcDbPoint
 10
9635.5
 20
7298.810165560841
 30
0.0
  0
POINT
  5
2175E
330
1FBDE
100
AcDbEntity
  8
DEFPOINTS
 62
     0
 48
50.0
100
AcDbPoint
 10
9671.982400027076
 20
7483.810165560837
 30
0.0
  0
POINT
  5
2175F
330
1FBDE
100
AcDbEntity
  8
DEFPOINTS
 62
     0
 48
50.0
100
AcDbPoint
 10
9962.873377149403
 20
7483.810165560837
 30
0.0
  0
ENDBLK
  5
1FBEB
330
1FBDE
100
AcDbEntity
  8
0
 48
50.0
100
AcDbBlockEnd
  0
BLOCK
  5
2168F
330
21685
100
AcDbEntity
  8
0
 48
50.0
100
AcDbBlockBegin
  2
*D34
 70
     1
 10
0.0
 20
0.0
 30
0.0
  3
*D34
  1

  0
LINE
  5
216DB
330
21685
100
AcDbEntity
  8
寸法
 62
     0
 48
50.0
370
    -2
100
AcDbLine
 10
10060.3162825181
 20
2909.757827521344
 30
0.0
 11
10060.3162825181
 21
3319.531625932805
 31
0.0
  0
LINE
  5
216DC
330
21685
100
AcDbEntity
  8
寸法
 62
     0
 48
50.0
370
    -2
100
AcDbLine
 10
10250.93166713349
 20
2910.834750598267
 30
0.0
 11
10250.93166713349
 21
3319.531625932805
 31
0.0
  0
LINE
  5
216DD
330
21685
100
AcDbEntity
  8
寸法
 62
     0
 48
50.0
370
    -2
100
AcDbLine
 10
10060.3162825181
 20
3244.531625932804
 30
0.0
 11
10250.93166713349
 21
3244.531625932804
 31
0.0
  0
INSERT
  5
216DE
330
21685
100
AcDbEntity
  8
寸法
 62
     0
 48
50.0
370
    -2
100
AcDbBlockReference
  2
_DOTSMALL
 10
10060.3162825181
 20
3244.531625932804
 30
0.0
 41
125.0
 42
125.0
 43
125.0
 50
180.0
  0
INSERT
  5
216DF
330
21685
100
AcDbEntity
  8
寸法
 62
     0
 48
50.0
370
    -2
100
AcDbBlockReference
  2
_DOTSMALL
 10
10250.93166713349
 20
3244.531625932804
 30
0.0
 41
125.0
 42
125.0
 43
125.0
  0
MTEXT
  5
216E0
330
21685
100
AcDbEntity
  8
寸法
 62
     7
 48
50.0
100
AcDbMText
 10
10155.6239748258
 20
3319.531625932805
 30
0.0
 40
100.0
 41
0.0
 71
     5
 72
     1
  1
\A1;88.5
  7
STYLE1
 73
     1
 44
1.0
1001
ACAD
1000
MTEXTBEGIN
1070
    73
1070
     1
1070
    44
1040
1.0
1070
    74
1070
     0
1000
MTEXTEND
  0
POINT
  5
216E1
330
21685
100
AcDbEntity
  8
DEFPOINTS
 62
     0
 48
50.0
100
AcDbPoint
 10
10060.3162825181
 20
2884.757827521344
 30
0.0
  0
POINT
  5
216E2
330
21685
100
AcDbEntity
  8
DEFPOINTS
 62
     0
 48
50.0
100
AcDbPoint
 10
10250.93166713349
 20
2885.834750598267
 30
0.0
  0
POINT
  5
216E3
330
21685
100
AcDbEntity
  8
DEFPOINTS
 62
     0
 48
50.0
100
AcDbPoint
 10
10250.93166713349
 20
3244.531625932804
 30
0.0
  0
ENDBLK
  5
21690
330
21685
100
AcDbEntity
  8
0
 48
50.0
100
AcDbBlockEnd
  0
BLOCK
  5
2169C
330
21691
100
AcDbEntity
  8
0
 48
50.0
100
AcDbBlockBegin
  2
*D35
 70
     1
 10
0.0
 20
0.0
 30
0.0
  3
*D35
  1

  0
LINE
  5
216E4
330
21691
100
AcDbEntity
  8
寸法
 62
     0
 48
50.0
370
    -2
100
AcDbLine
 10
10049.54705174887
 20
2804.219365982883
 30
0.0
 11
10049.54705174887
 21
3097.95270788083
 31
0.0
  0
LINE
  5
216E5
330
21691
100
AcDbEntity
  8
寸法
 62
     0
 48
50.0
370
    -2
100
AcDbLine
 10
10193.04705174887
 20
2864.527058290574
 30
0.0
 11
10193.04705174887
 21
3097.95270788083
 31
0.0
  0
LINE
  5
216E6
330
21691
100
AcDbEntity
  8
寸法
 62
     0
 48
50.0
370
    -2
100
AcDbLine
 10
10193.04705174887
 20
3022.95270788083
 30
0.0
 11
10049.54705174887
 21
3022.95270788083
 31
0.0
  0
LINE
  5
216E7
330
21691
100
AcDbEntity
  8
寸法
 62
     0
 48
50.0
370
    -2
100
AcDbLine
 10
10049.54705174887
 20
3022.95270788083
 30
0.0
 11
9754.42066415664
 21
3022.95270788083
 31
0.0
  0
INSERT
  5
216E8
330
21691
100
AcDbEntity
  8
寸法
 62
     0
 48
50.0
370
    -2
100
AcDbBlockReference
  2
_DOTSMALL
 10
10193.04705174887
 20
3022.95270788083
 30
0.0
 41
125.0
 42
125.0
 43
125.0
  0
INSERT
  5
216E9
330
21691
100
AcDbEntity
  8
寸法
 62
     0
 48
50.0
370
    -2
100
AcDbBlockReference
  2
_DOTSMALL
 10
10049.54705174887
 20
3022.95270788083
 30
0.0
 41
125.0
 42
125.0
 43
125.0
 50
180.0
  0
MTEXT
  5
216EA
330
21691
100
AcDbEntity
  8
寸法
 62
     7
 48
50.0
100
AcDbMText
 10
9839.483857952757
 20
3097.95270788083
 30
0.0
 40
100.0
 41
0.0
 71
     5
 72
     1
  1
\A1;65
  7
STYLE1
 73
     1
 44
1.0
1001
ACAD
1000
MTEXTBEGIN
1070
    73
1070
     1
1070
    44
1040
1.0
1070
    74
1070
     0
1000
MTEXTEND
  0
POINT
  5
216EB
330
21691
100
AcDbEntity
  8
DEFPOINTS
 62
     0
 48
50.0
100
AcDbPoint
 10
10049.54705174887
 20
2779.219365982882
 30
0.0
  0
POINT
  5
216EC
330
21691
100
AcDbEntity
  8
DEFPOINTS
 62
     0
 48
50.0
100
AcDbPoint
 10
10193.04705174887
 20
2839.527058290574
 30
0.0
  0
POINT
  5
216ED
330
21691
100
AcDbEntity
  8
DEFPOINTS
 62
     0
 48
50.0
100
AcDbPoint
 10
10193.04705174887
 20
3022.95270788083
 30
0.0
  0
ENDBLK
  5
2169D
330
21691
100
AcDbEntity
  8
0
 48
50.0
100
AcDbBlockEnd
  0
BLOCK
  5
216A8
330
2169E
100
AcDbEntity
  8
0
 48
50.0
100
AcDbBlockBegin
  2
*D36
 70
     1
 10
0.0
 20
0.0
 30
0.0
  3
*D36
  1

  0
LINE
  5
216EE
330
2169E
100
AcDbEntity
  8
寸法
 62
     0
 48
50.0
370
    -2
100
AcDbLine
 10
7242.123148224464
 20
2728.689646218094
 30
0.0
 11
7242.123148224464
 21
3178.689646218094
 31
0.0
  0
LINE
  5
216EF
330
2169E
100
AcDbEntity
  8
寸法
 62
     0
 48
50.0
370
    -2
100
AcDbLine
 10
7002.123148224464
 20
2728.689646218094
 30
0.0
 11
7002.123148224464
 21
3178.689646218094
 31
0.0
  0
LINE
  5
216F0
330
2169E
100
AcDbEntity
  8
寸法
 62
     0
 48
50.0
370
    -2
100
AcDbLine
 10
7242.123148224464
 20
3103.689646218094
 30
0.0
 11
7002.123148224464
 21
3103.689646218094
 31
0.0
  0
INSERT
  5
216F1
330
2169E
100
AcDbEntity
  8
寸法
 62
     0
 48
50.0
370
    -2
100
AcDbBlockReference
  2
_DOTSMALL
 10
7242.123148224464
 20
3103.689646218094
 30
0.0
 41
125.0
 42
125.0
 43
125.0
  0
INSERT
  5
216F2
330
2169E
100
AcDbEntity
  8
寸法
 62
     0
 48
50.0
370
    -2
100
AcDbBlockReference
  2
_DOTSMALL
 10
7002.123148224464
 20
3103.689646218094
 30
0.0
 41
125.0
 42
125.0
 43
125.0
 50
180.0
  0
MTEXT
  5
216F3
330
2169E
100
AcDbEntity
  8
寸法
 62
     7
 48
50.0
100
AcDbMText
 10
7122.123148224464
 20
3262.032822071113
 30
0.0
 40
100.0
 41
0.0
 71
     5
 72
     1
  1
\A1;120\P185
  7
STYLE1
 73
     1
 44
1.0
1001
ACAD
1000
MTEXTBEGIN
1070
    73
1070
     1
1070
    44
1040
1.0
1070
    74
1070
     0
1000
MTEXTEND
  0
POINT
  5
216F4
330
2169E
100
AcDbEntity
  8
DEFPOINTS
 62
     0
 48
50.0
100
AcDbPoint
 10
7242.123148224464
 20
2703.689646218094
 30
0.0
  0
POINT
  5
216F5
330
2169E
100
AcDbEntity
  8
DEFPOINTS
 62
     0
 48
50.0
100
AcDbPoint
 10
7002.123148224464
 20
2703.689646218094
 30
0.0
  0
POINT
  5
216F6
330
2169E
100
AcDbEntity
  8
DEFPOINTS
 62
     0
 48
50.0
100
AcDbPoint
 10
7002.123148224464
 20
3103.689646218094
 30
0.0
  0
ENDBLK
  5
216A9
330
2169E
100
AcDbEntity
  8
0
 48
50.0
100
AcDbBlockEnd
  0
BLOCK
  5
216B5
330
216AA
100
AcDbEntity
  8
0
 48
50.0
100
AcDbBlockBegin
  2
*D37
 70
     1
 10
0.0
 20
0.0
 30
0.0
  3
*D37
  1

  0
LINE
  5
216F7
330
216AA
100
AcDbEntity
  8
寸法
 62
     0
 48
50.0
370
    -2
100
AcDbLine
 10
10154.54705174887
 20
2839.527058290574
 30
0.0
 11
9433.161753828203
 21
2839.527058290574
 31
0.0
  0
LINE
  5
216F8
330
216AA
100
AcDbEntity
  8
寸法
 62
     0
 48
50.0
370
    -2
100
AcDbLine
 10
10024.54705174887
 20
2779.219365982882
 30
0.0
 11
9433.161753828203
 21
2779.219365982882
 31
0.0
  0
LINE
  5
216F9
330
216AA
100
AcDbEntity
  8
寸法
 62
     0
 48
50.0
370
    -2
100
AcDbLine
 10
9508.161753828202
 20
2779.219365982882
 30
0.0
 11
9508.161753828202
 21
2839.527058290574
 31
0.0
  0
LINE
  5
216FA
330
216AA
100
AcDbEntity
  8
寸法
 62
     0
 48
50.0
370
    -2
100
AcDbLine
 10
9508.161753828202
 20
2839.527058290574
 30
0.0
 11
9508.161753828202
 21
3252.939131781389
 31
0.0
  0
INSERT
  5
216FB
330
216AA
100
AcDbEntity
  8
寸法
 62
     0
 48
50.0
370
    -2
100
AcDbBlockReference
  2
_DOTSMALL
 10
9508.161753828202
 20
2779.219365982882
 30
0.0
 41
125.0
 42
125.0
 43
125.0
 50
270.0
  0
INSERT
  5
216FC
330
216AA
100
AcDbEntity
  8
寸法
 62
     0
 48
50.0
370
    -2
100
AcDbBlockReference
  2
_DOTSMALL
 10
9508.161753828202
 20
2839.527058290574
 30
0.0
 41
125.0
 42
125.0
 43
125.0
 50
90.0
  0
MTEXT
  5
216FD
330
216AA
100
AcDbEntity
  8
寸法
 62
     7
 48
50.0
100
AcDbMText
 10
9433.161753828203
 20
3108.733095035984
 30
0.0
 40
100.0
 41
0.0
 71
     5
 72
     1
  1
\A1;出30
  7
STYLE1
 11
0.0000000000000001
 21
1.0
 31
0.0
 73
     1
 44
1.0
1001
ACAD
1000
MTEXTBEGIN
1070
    73
1070
     1
1070
    44
1040
1.0
1070
    74
1070
     0
1000
MTEXTEND
  0
POINT
  5
216FE
330
216AA
100
AcDbEntity
  8
DEFPOINTS
 62
     0
 48
50.0
100
AcDbPoint
 10
10179.54705174887
 20
2839.527058290574
 30
0.0
  0
POINT
  5
216FF
330
216AA
100
AcDbEntity
  8
DEFPOINTS
 62
     0
 48
50.0
100
AcDbPoint
 10
10049.54705174887
 20
2779.219365982882
 30
0.0
  0
POINT
  5
21700
330
216AA
100
AcDbEntity
  8
DEFPOINTS
 62
     0
 48
50.0
100
AcDbPoint
 10
9508.161753828202
 20
2779.219365982882
 30
0.0
  0
ENDBLK
  5
216B6
330
216AA
100
AcDbEntity
  8
0
 48
50.0
100
AcDbBlockEnd
  0
BLOCK
  5
216C1
330
216B7
100
AcDbEntity
  8
0
 48
50.0
100
AcDbBlockBegin
  2
*D38
 70
     1
 10
0.0
 20
0.0
 30
0.0
  3
*D38
  1

  0
LINE
  5
21701
330
216B7
100
AcDbEntity
  8
寸法
 62
     0
 48
50.0
370
    -2
100
AcDbLine
 10
6977.123148224464
 20
2703.689646218094
 30
0.0
 11
6072.65378042531
 21
2703.689646218094
 31
0.0
  0
LINE
  5
21702
330
216B7
100
AcDbEntity
  8
寸法
 62
     0
 48
50.0
370
    -2
100
AcDbLine
 10
6717.123148224465
 20
1623.689646218094
 30
0.0
 11
6072.653780425309
 21
1623.689646218094
 31
0.0
  0
LINE
  5
21703
330
216B7
100
AcDbEntity
  8
寸法
 62
     0
 48
50.0
370
    -2
100
AcDbLine
 10
6147.65378042531
 20
2703.689646218094
 30
0.0
 11
6147.653780425308
 21
1623.689646218094
 31
0.0
  0
INSERT
  5
21704
330
216B7
100
AcDbEntity
  8
寸法
 62
     0
 48
50.0
370
    -2
100
AcDbBlockReference
  2
_DOTSMALL
 10
6147.65378042531
 20
2703.689646218094
 30
0.0
 41
125.0
 42
125.0
 43
125.0
 50
90.0
  0
INSERT
  5
21705
330
216B7
100
AcDbEntity
  8
寸法
 62
     0
 48
50.0
370
    -2
100
AcDbBlockReference
  2
_DOTSMALL
 10
6147.653780425308
 20
1623.689646218094
 30
0.0
 41
125.0
 42
125.0
 43
125.0
 50
270.0
  0
MTEXT
  5
21706
330
216B7
100
AcDbEntity
  8
寸法
 62
     7
 48
50.0
100
AcDbMText
 10
6072.653780425309
 20
2200.484582815804
 30
0.0
 40
100.0
 41
0.0
 71
     5
 72
     1
  1
\A1;540
  7
STYLE1
 11
0.0000000000000001
 21
1.0
 31
0.0
 73
     1
 44
1.0
1001
ACAD
1000
MTEXTBEGIN
1070
    73
1070
     1
1070
    44
1040
1.0
1070
    74
1070
     0
1000
MTEXTEND
  0
POINT
  5
21707
330
216B7
100
AcDbEntity
  8
DEFPOINTS
 62
     0
 48
50.0
100
AcDbPoint
 10
7002.123148224464
 20
2703.689646218094
 30
0.0
  0
POINT
  5
21708
330
216B7
100
AcDbEntity
  8
DEFPOINTS
 62
     0
 48
50.0
100
AcDbPoint
 10
6742.123148224465
 20
1623.689646218094
 30
0.0
  0
POINT
  5
21709
330
216B7
100
AcDbEntity
  8
DEFPOINTS
 62
     0
 48
50.0
100
AcDbPoint
 10
6147.653780425308
 20
1623.689646218094
 30
0.0
  0
ENDBLK
  5
216C2
330
216B7
100
AcDbEntity
  8
0
 48
50.0
100
AcDbBlockEnd
  0
BLOCK
  5
216CD
330
216C3
100
AcDbEntity
  8
0
 48
50.0
100
AcDbBlockBegin
  2
*D39
 70
     1
 10
0.0
 20
0.0
 30
0.0
  3
*D39
  1

  0
LINE
  5
2170A
330
216C3
100
AcDbEntity
  8
寸法
 62
     0
 48
50.0
370
    -2
100
AcDbLine
 10
6822.123148224463
 20
1438.689646218094
 30
0.0
 11
6822.123148224463
 21
1089.73753976216
 31
0.0
  0
LINE
  5
2170B
330
216C3
100
AcDbEntity
  8
寸法
 62
     0
 48
50.0
370
    -2
100
AcDbLine
 10
7422.123148224464
 20
1438.689646218094
 30
0.0
 11
7422.123148224464
 21
1089.73753976216
 31
0.0
  0
LINE
  5
2170C
330
216C3
100
AcDbEntity
  8
寸法
 62
     0
 48
50.0
370
    -2
100
AcDbLine
 10
6822.123148224463
 20
1164.73753976216
 30
0.0
 11
7422.123148224464
 21
1164.73753976216
 31
0.0
  0
INSERT
  5
2170D
330
216C3
100
AcDbEntity
  8
寸法
 62
     0
 48
50.0
370
    -2
100
AcDbBlockReference
  2
_DOTSMALL
 10
6822.123148224463
 20
1164.73753976216
 30
0.0
 41
125.0
 42
125.0
 43
125.0
 50
180.0
  0
INSERT
  5
2170E
330
216C3
100
AcDbEntity
  8
寸法
 62
     0
 48
50.0
370
    -2
100
AcDbBlockReference
  2
_DOTSMALL
 10
7422.123148224464
 20
1164.73753976216
 30
0.0
 41
125.0
 42
125.0
 43
125.0
  0
MTEXT
  5
2170F
330
216C3
100
AcDbEntity
  8
寸法
 62
     7
 48
50.0
100
AcDbMText
 10
7122.123148224464
 20
1239.73753976216
 30
0.0
 40
100.0
 41
0.0
 71
     5
 72
     1
  1
\A1;300
  7
STYLE1
 73
     1
 44
1.0
1001
ACAD
1000
MTEXTBEGIN
1070
    73
1070
     1
1070
    44
1040
1.0
1070
    74
1070
     0
1000
MTEXTEND
  0
POINT
  5
21710
330
216C3
100
AcDbEntity
  8
DEFPOINTS
 62
     0
 48
50.0
100
AcDbPoint
 10
6822.123148224463
 20
1463.689646218094
 30
0.0
  0
POINT
  5
21711
330
216C3
100
AcDbEntity
  8
DEFPOINTS
 62
     0
 48
50.0
100
AcDbPoint
 10
7422.123148224464
 20
1463.689646218094
 30
0.0
  0
POINT
  5
21712
330
216C3
100
AcDbEntity
  8
DEFPOINTS
 62
     0
 48
50.0
100
AcDbPoint
 10
7422.123148224464
 20
1164.73753976216
 30
0.0
  0
ENDBLK
  5
216CE
330
216C3
100
AcDbEntity
  8
0
 48
50.0
100
AcDbBlockEnd
  0
BLOCK
  5
216D9
330
216CF
100
AcDbEntity
  8
0
 48
50.0
100
AcDbBlockBegin
  2
*D40
 70
     1
 10
0.0
 20
0.0
 30
0.0
  3
*D40
  1

  0
LINE
  5
21713
330
216CF
100
AcDbEntity
  8
寸法
 62
     0
 48
50.0
370
    -2
100
AcDbLine
 10
6817.123148224464
 20
1923.689646218094
 30
0.0
 11
6303.852803892855
 21
1923.689646218094
 31
0.0
  0
LINE
  5
21714
330
216CF
100
AcDbEntity
  8
寸法
 62
     0
 48
50.0
370
    -2
100
AcDbLine
 10
6717.123148224465
 20
1623.689646218094
 30
0.0
 11
6303.852803892855
 21
1623.689646218094
 31
0.0
  0
LINE
  5
21715
330
216CF
100
AcDbEntity
  8
寸法
 62
     0
 48
50.0
370
    -2
100
AcDbLine
 10
6378.852803892855
 20
1923.689646218094
 30
0.0
 11
6378.852803892855
 21
1623.689646218094
 31
0.0
  0
INSERT
  5
21716
330
216CF
100
AcDbEntity
  8
寸法
 62
     0
 48
50.0
370
    -2
100
AcDbBlockReference
  2
_DOTSMALL
 10
6378.852803892855
 20
1923.689646218094
 30
0.0
 41
125.0
 42
125.0
 43
125.0
 50
90.0
  0
INSERT
  5
21717
330
216CF
100
AcDbEntity
  8
寸法
 62
     0
 48
50.0
370
    -2
100
AcDbBlockReference
  2
_DOTSMALL
 10
6378.852803892855
 20
1623.689646218094
 30
0.0
 41
125.0
 42
125.0
 43
125.0
 50
270.0
  0
MTEXT
  5
21718
330
216CF
100
AcDbEntity
  8
寸法
 62
     7
 48
50.0
100
AcDbMText
 10
6303.852803892855
 20
1798.016240610237
 30
0.0
 40
100.0
 41
0.0
 71
     5
 72
     1
  1
\A1;150
  7
STYLE1
 11
0.0000000000000001
 21
1.0
 31
0.0
 73
     1
 44
1.0
1001
ACAD
1000
MTEXTBEGIN
1070
    73
1070
     1
1070
    44
1040
1.0
1070
    74
1070
     0
1000
MTEXTEND
  0
POINT
  5
21719
330
216CF
100
AcDbEntity
  8
DEFPOINTS
 62
     0
 48
50.0
100
AcDbPoint
 10
6842.123148224463
 20
1923.689646218094
 30
0.0
  0
POINT
  5
2171A
330
216CF
100
AcDbEntity
  8
DEFPOINTS
 62
     0
 48
50.0
100
AcDbPoint
 10
6742.123148224465
 20
1623.689646218094
 30
0.0
  0
POINT
  5
2171B
330
216CF
100
AcDbEntity
  8
DEFPOINTS
 62
     0
 48
50.0
100
AcDbPoint
 10
6378.852803892855
 20
1623.689646218094
 30
0.0
  0
ENDBLK
  5
216DA
330
216CF
100
AcDbEntity
  8
0
 48
50.0
100
AcDbBlockEnd
  0
BLOCK
  5
217B6
330
217AC
100
AcDbEntity
  8
0
 48
50.0
100
AcDbBlockBegin
  2
*D41
 70
     1
 10
0.0
 20
0.0
 30
0.0
  3
*D41
  1

  0
LINE
  5
217AD
330
217AC
100
AcDbEntity
  8
寸法
 62
     0
 48
50.0
370
    -2
100
AcDbLine
 10
7879.5
 20
7258.810165560841
 30
0.0
 11
7879.5
 21
6669.343109315912
 31
0.0
  0
LINE
  5
217AE
330
217AC
100
AcDbEntity
  8
寸法
 62
     0
 48
50.0
370
    -2
100
AcDbLine
 10
10279.5
 20
7258.810165560841
 30
0.0
 11
10279.5
 21
6669.343109315912
 31
0.0
  0
LINE
  5
217AF
330
217AC
100
AcDbEntity
  8
寸法
 62
     0
 48
50.0
370
    -2
100
AcDbLine
 10
7879.5
 20
6744.343109315912
 30
0.0
 11
10279.5
 21
6744.343109315912
 31
0.0
  0
INSERT
  5
217B0
330
217AC
100
AcDbEntity
  8
寸法
 62
     0
 48
50.0
370
    -2
100
AcDbBlockReference
  2
_DOTSMALL
 10
7879.5
 20
6744.343109315912
 30
0.0
 41
125.0
 42
125.0
 43
125.0
 50
180.0
  0
INSERT
  5
217B1
330
217AC
100
AcDbEntity
  8
寸法
 62
     0
 48
50.0
370
    -2
100
AcDbBlockReference
  2
_DOTSMALL
 10
10279.5
 20
6744.343109315912
 30
0.0
 41
125.0
 42
125.0
 43
125.0
  0
MTEXT
  5
217B2
330
217AC
100
AcDbEntity
  8
寸法
 62
     7
 48
50.0
100
AcDbMText
 10
9079.500000000001
 20
6844.357873095439
 30
0.0
 40
150.0
 41
0.0
 71
     5
 72
     1
  1
\A1;2400
  7
STYLE1
 73
     1
 44
1.0
1001
ACAD
1000
MTEXTBEGIN
1070
    73
1070
     1
1070
    44
1040
1.0
1070
    74
1070
     0
1000
MTEXTEND
  0
POINT
  5
217B3
330
217AC
100
AcDbEntity
  8
DEFPOINTS
 62
     0
 48
50.0
100
AcDbPoint
 10
7879.5
 20
7283.810165560841
 30
0.0
  0
POINT
  5
217B4
330
217AC
100
AcDbEntity
  8
DEFPOINTS
 62
     0
 48
50.0
100
AcDbPoint
 10
10279.5
 20
7283.810165560841
 30
0.0
  0
POINT
  5
217B5
330
217AC
100
AcDbEntity
  8
DEFPOINTS
 62
     0
 48
50.0
100
AcDbPoint
 10
10279.5
 20
6744.343109315912
 30
0.0
  0
ENDBLK
  5
217B7
330
217AC
100
AcDbEntity
  8
0
 48
50.0
100
AcDbBlockEnd
  0
ENDSEC
  0
SECTION
  2
ENTITIES
  0
LINE
  5
10B56
330
747D
100
AcDbEntity
  8
補助
  6
PHANTOM
 62
   230
 48
50.0
100
AcDbLine
 10
175.0
 20
0.0
 30
0.0
 11
174.9999999999993
 21
14262.0
 31
0.0
  0
LINE
  5
10B57
330
747D
100
AcDbEntity
  8
補助
  6
PHANTOM
 62
   230
 48
50.0
100
AcDbLine
 10
174.9999999999993
 20
14262.0
 30
0.0
 11
20384.0
 21
14262.0
 31
0.0
  0
LINE
  5
10B59
330
747D
100
AcDbEntity
  8
仕様書枠
  6
Continuous
 48
50.0
100
AcDbLine
 10
16384.0
 20
1500.0
 30
0.0
 11
16384.0
 21
-0.0000000000000912
 31
0.0
  0
LINE
  5
10B5C
330
747D
100
AcDbEntity
  8
仕様書枠
 48
50.0
100
AcDbLine
 10
20384.0
 20
1500.0
 30
0.0
 11
20384.0
 21
-0.0000000000001137
 31
0.0
  0
LINE
  5
10B5D
330
747D
100
AcDbEntity
  8
仕様書枠
 48
50.0
100
AcDbLine
 10
175.0
 20
0.0
 30
0.0
 11
20384.0
 21
-0.0000000000001137
 31
0.0
  0
LINE
  5
10B5E
330
747D
100
AcDbEntity
  8
補助
  6
PHANTOM
 62
   230
 48
50.0
100
AcDbLine
 10
20384.0
 20
14262.0
 30
0.0
 11
20384.0
 21
1500.0
 31
0.0
  0
LINE
  5
10B6C
330
747D
100
AcDbEntity
  8
仕様書枠
 48
50.0
100
AcDbLine
 10
16384.0
 20
1500.0
 30
0.0
 11
20384.0
 21
1500.0
 31
0.0
  0
TEXT
  5
10B73
330
747D
100
AcDbEntity
  8
仕様書枠
 62
     7
 48
50.0
100
AcDbText
 10
16453.72382072112
 20
1118.863259287425
 30
0.0
 40
250.0
  1
基 礎 図
  7
STYLE2
100
AcDbText
  0
LINE
  5
10B7B
330
747D
100
AcDbEntity
  8
仕様書枠
 48
50.0
100
AcDbLine
 10
16384.0
 20
1000.0
 30
0.0
 11
17814.0
 21
1000.0
 31
0.0
  0
LINE
  5
10B88
330
747D
100
AcDbEntity
  8
仕様書枠
  6
Continuous
 48
50.0
100
AcDbLine
 10
17814.0
 20
1500.0
 30
0.0
 11
17814.0
 21
1000.0
 31
0.0
  0
LINE
  5
18940
330
747D
100
AcDbEntity
  8
仕様書枠
 62
     7
 48
50.0
100
AcDbLine
 10
16484.0
 20
500.0
 30
0.0
 11
20284.0
 21
500.0
 31
0.0
  0
TEXT
  5
1CB51
330
747D
100
AcDbEntity
  8
文字
 62
     7
 48
50.0
100
AcDbText
 10
16511.75668531126
 20
99.7578908648793
 30
0.0
 40
100.0
  1
※布基礎には換気口を設けてください。
  7
STYLE2
100
AcDbText
  0
TEXT
  5
1CB52
330
747D
100
AcDbEntity
  8
文字
 62
     7
 48
50.0
100
AcDbText
 10
16511.75668531126
 20
270.5931184260626
 30
0.0
 40
100.0
  1
※寒冷地等は、地域の実情に合わせた基礎にしてください。
  7
STYLE2
100
AcDbText
  0
MTEXT
  5
1CCE7
102
{ACAD_REACTORS
330
1CCE8
102
}
330
747D
100
AcDbEntity
  8
細線
 62
     7
 48
50.0
100
AcDbMText
 10
13121.45644736147
 20
11198.31540194053
 30
0.0
 40
150.0
 41
0.0
 71
     4
 72
     1
  1
\A1;アンカーボルト芯
  7
STYLE1
 73
     1
 44
1.0
1001
ACAD
1000
MTEXTBEGIN
1070
    73
1070
     1
1070
    44
1040
1.0
1070
    74
1070
     0
1000
MTEXTEND
  0
LEADER
  5
1CCE8
330
747D
100
AcDbEntity
  8
寸法
 48
50.0
100
AcDbLeader
  3
INABA_S50G
 71
     0
 73
     0
 74
     0
 75
     1
 40
150.0
 41
1417.499999999999
 76
     3
 10
12679.5
 20
10348.81016556084
 30
0.0
 10
12971.45644736148
 20
11098.31540194053
 30
0.0
 10
13096.45644736147
 20
11098.31540194053
 30
0.0
340
1CCE7
  0
MTEXT
  5
1CCE9
102
{ACAD_REACTORS
330
1CCEA
102
}
330
747D
100
AcDbEntity
  8
部品1
 62
     7
 48
50.0
100
AcDbMText
 10
12683.91237739051
 20
10825.42616178971
 30
0.0
 40
150.0
 41
0.0
 71
     6
 72
     1
  1
\A1;屋根の外寸
  7
STYLE1
 73
     1
 44
1.0
1001
ACAD
1000
MTEXTBEGIN
1070
    73
1070
     1
1070
    44
1040
1.0
1070
    74
1070
     0
1000
MTEXTEND
  0
LEADER
  5
1CCEA
330
747D
100
AcDbEntity
  8
寸法
 48
50.0
100
AcDbLeader
  3
INABA_S50G
 73
     0
 74
     0
 75
     1
 40
150.0
 41
840.0
 76
     3
 10
11575.50923970849
 20
10503.81016556084
 30
0.0
 10
11693.91237739051
 20
10725.42616178971
 30
0.0
 10
11818.91237739051
 20
10725.42616178971
 30
0.0
340
1CCE9
1001
ACAD
1000
DSTYLE
1002
{
1070
   341
1005
0
1070
    40
1040
1.0
1070
   343
1005
0
1070
   344
1005
0
1002
}
  0
MTEXT
  5
1CCEB
102
{ACAD_REACTORS
330
1CCEC
102
}
330
747D
100
AcDbEntity
  8
部品1
 62
     7
 48
50.0
100
AcDbMText
 10
8765.707386187202
 20
10791.33091529958
 30
0.0
 40
150.0
 41
0.0
 71
     6
 72
     1
  1
\A1;床下換気口
  7
STYLE1
 73
     1
 44
1.0
1001
ACAD
1000
MTEXTBEGIN
1070
    73
1070
     1
1070
    44
1040
1.0
1070
    74
1070
     0
1000
MTEXTEND
  0
LEADER
  5
1CCEC
330
747D
100
AcDbEntity
  8
寸法
 48
50.0
100
AcDbLeader
  3
INABA_S50G
 73
     0
 75
     1
 40
150.0
 41
900.0000000000001
 76
     3
 10
9017.8592048369
 20
10413.81016556084
 30
0.0
 10
8915.707386187202
 20
10691.33091529958
 30
0.0
 10
8790.707386187202
 20
10691.33091529958
 30
0.0
340
1CCEB
1001
ACAD
1000
DSTYLE
1002
{
1070
   341
1005
0
1070
    40
1040
1.0
1070
   343
1005
0
1070
   344
1005
0
1002
}
  0
DIMENSION
  5
1CEE4
330
747D
100
AcDbEntity
  8
寸法
 48
50.0
100
AcDbDimension
  2
*D2
 10
12915.76087608876
 20
10136.9852084731
 30
0.0
 11
10158.21226848893
 21
8430.996718984365
 31
0.0
 70
   161
 71
     5
 42
5797.188973976956
  3
INABA_S50G
100
AcDbAlignedDimension
 13
7814.499999999999
 23
7363.810165560841
 33
0.0
 14
12744.5
 24
10413.81016556084
 34
0.0
  0
DIMENSION
  5
1CEE5
330
747D
100
AcDbEntity
  8
寸法
 48
50.0
100
AcDbDimension
  2
*D14
 10
9379.979884441222
 20
8163.810165560841
 30
0.0
 11
9279.965120661692
 21
8526.310165560841
 31
0.0
 70
    32
 71
     5
 42
725.0
  3
INABA_S50G
100
AcDbAlignedDimension
 13
9194.500000000001
 23
8888.81016556084
 33
0.0
 14
9194.500000000001
 24
8163.810165560841
 34
0.0
 50
90.0
100
AcDbRotatedDimension
  0
DIMENSION
  5
1CEE6
330
747D
100
AcDbEntity
  8
寸法
 48
50.0
100
AcDbDimension
  2
*D11
 10
7063.500000000001
 20
8888.81016556084
 30
0.0
 11
6963.499999999999
 21
9106.310165560842
 31
0.0
 70
    32
 71
     5
 42
435.0
  3
INABA_S50G
100
AcDbAlignedDimension
 13
8292.0
 23
9323.810165560841
 33
0.0
 14
8292.0
 24
8888.81016556084
 34
0.0
 50
90.0
100
AcDbRotatedDimension
  0
LINE
  5
1CEEA
330
747D
100
AcDbEntity
  8
部品1
 48
50.0
100
AcDbLine
 10
7814.499999999999
 20
10413.81016556084
 30
0.0
 11
7814.500000000001
 21
7298.810165560841
 31
0.0
  0
LINE
  5
1CEEB
330
747D
100
AcDbEntity
  8
想像線
 48
20.0
100
AcDbLine
 10
7764.499999999999
 20
10503.81016556084
 30
0.0
 11
7764.499999999999
 21
7233.810165560841
 31
0.0
  0
LINE
  5
1CEEC
330
747D
100
AcDbEntity
  8
部品1
 48
50.0
100
AcDbLine
 10
7934.499999999999
 20
10293.81016556084
 30
0.0
 11
7934.499999999999
 21
7483.810165560841
 31
0.0
  0
DIMENSION
  5
1CEED
330
747D
100
AcDbEntity
  8
寸法
 48
50.0
100
AcDbDimension
  2
*D18
 10
13274.56822416407
 20
7428.810165560841
 30
0.0
 11
13174.51720845806
 21
8888.810165560846
 31
0.0
 70
    32
 71
     5
 42
2920.000000000001
  3
INABA_S50G
100
AcDbAlignedDimension
 13
12824.5
 23
10348.81016556084
 33
0.0
 14
12824.5
 24
7428.810165560841
 34
0.0
 50
90.0
100
AcDbRotatedDimension
1001
ACAD
1000
DSTYLE
1002
{
1070
    75
1070
     1
1070
   279
1070
     1
1002
}
  0
DIMENSION
  5
1CEEE
330
747D
100
AcDbEntity
  8
寸法
 48
50.0
100
AcDbDimension
  2
*D17
 10
13595.5
 20
10413.81016556084
 30
0.0
 11
13495.5
 21
8888.810165560846
 31
0.0
 70
    32
 71
     5
 42
3050.000000000001
  3
INABA_S50G
100
AcDbAlignedDimension
 13
12744.5
 23
7363.810165560841
 33
0.0
 14
12744.5
 24
10413.81016556084
 34
0.0
 50
90.0
100
AcDbRotatedDimension
  0
LINE
  5
1CEEF
330
747D
100
AcDbEntity
  8
部品1
 48
50.0
100
AcDbLine
 10
12624.5
 20
7483.810165560841
 30
0.0
 11
12624.5
 21
10293.81016556084
 31
0.0
  0
LINE
  5
1CEF0
330
747D
100
AcDbEntity
  8
想像線
 48
20.0
100
AcDbLine
 10
12794.5
 20
7233.810165560841
 30
0.0
 11
12794.5
 21
10503.81016556084
 31
0.0
  0
LINE
  5
1CEF1
330
747D
100
AcDbEntity
  8
部品1
 48
50.0
100
AcDbLine
 10
12744.5
 20
7295.81016556084
 30
0.0
 11
12744.5
 21
10413.81016556084
 31
0.0
  0
DIMENSION
  5
1CF02
330
747D
100
AcDbEntity
  8
寸法
 48
50.0
100
AcDbDimension
  2
*D8
 10
7063.500000000001
 20
7363.810165560841
 30
0.0
 11
6963.499999999999
 21
7618.810165560842
 31
0.0
 70
    32
 71
     5
 42
510.0
  3
INABA_S50G
100
AcDbAlignedDimension
 13
8292.0
 23
7873.81016556084
 33
0.0
 14
7814.499999999999
 24
7363.810165560841
 34
0.0
 50
90.0
100
AcDbRotatedDimension
1001
ACAD
1000
DSTYLE
1002
{
1070
    75
1070
     1
1070
   279
1070
     1
1002
}
  0
DIMENSION
  5
1CF03
330
747D
100
AcDbEntity
  8
寸法
 48
50.0
100
AcDbDimension
  2
*D10
 10
7063.500000000001
 20
8453.810165560842
 30
0.0
 11
6963.499999999999
 21
8163.810165560843
 31
0.0
 70
    32
 71
     5
 42
580.0
  3
INABA_S50G
100
AcDbAlignedDimension
 13
8292.0
 23
7873.81016556084
 33
0.0
 14
8292.0
 24
8453.810165560842
 34
0.0
 50
90.0
100
AcDbRotatedDimension
  0
DIMENSION
  5
1CF04
330
747D
100
AcDbEntity
  8
寸法
 48
50.0
100
AcDbDimension
  2
*D9
 10
7063.500000000001
 20
8453.810165560842
 30
0.0
 11
6963.499999999999
 21
8671.310165560843
 31
0.0
 70
    32
 71
     5
 42
435.0
  3
INABA_S50G
100
AcDbAlignedDimension
 13
8292.0
 23
8888.81016556084
 33
0.0
 14
8292.0
 24
8453.810165560842
 34
0.0
 50
90.0
100
AcDbRotatedDimension
  0
DIMENSION
  5
1CF05
330
747D
100
AcDbEntity
  8
寸法
 48
50.0
100
AcDbDimension
  2
*D13
 10
7879.5
 20
6744.343109315912
 30
0.0
 11
7574.405209305824
 21
6744.343109315912
 31
0.0
 70
   160
 71
     5
 42
65.0
  3
INABA_S50G
100
AcDbAlignedDimension
 13
7814.499999999999
 23
7298.810165560841
 33
0.0
 14
7879.5
 24
7283.810165560841
 34
0.0
100
AcDbRotatedDimension
  0
DIMENSION
  5
1CF06
330
747D
100
AcDbEntity
  8
寸法
 48
50.0
100
AcDbDimension
  2
*D12
 10
7814.499999999999
 20
6432.810165560841
 30
0.0
 11
7471.059055118108
 21
6432.810165560841
 31
0.0
 70
   160
  1
(<>)
 71
     5
 42
50.0
  3
INABA_S50G
100
AcDbAlignedDimension
 13
7764.499999999999
 23
6744.343109315912
 33
0.0
 14
7814.499999999999
 24
7298.810165560841
 34
0.0
100
AcDbRotatedDimension
  0
DIMENSION
  5
1CF07
330
747D
100
AcDbEntity
  8
寸法
 48
50.0
100
AcDbDimension
  2
*D26
 10
12679.5
 20
6744.343109315912
 30
0.0
 11
11479.5
 21
6844.357873095439
 31
0.0
 70
    32
 71
     5
 42
2400.0
  3
INABA_S50G
100
AcDbAlignedDimension
 13
10279.5
 23
7283.810165560841
 33
0.0
 14
12679.5
 24
7283.810165560841
 34
0.0
100
AcDbRotatedDimension
1001
ACAD
1000
DSTYLE
1002
{
1070
    75
1070
     1
1070
   279
1070
     1
1002
}
  0
LINE
  5
1CF09
330
747D
100
AcDbEntity
  8
部品1
 48
50.0
100
AcDbLine
 10
7934.499999999999
 20
7483.810165560841
 30
0.0
 11
12624.5
 21
7483.810165560837
 31
0.0
  0
LINE
  5
1CF0A
330
747D
100
AcDbEntity
  8
想像線
 48
20.0
100
AcDbLine
 10
7764.499999999999
 20
7233.810165560841
 30
0.0
 11
12794.5
 21
7233.810165560841
 31
0.0
  0
DIMENSION
  5
1CF0B
330
747D
100
AcDbEntity
  8
寸法
 48
50.0
100
AcDbDimension
  2
*D3
 10
12744.5
 20
6432.810165560841
 30
0.0
 11
10279.5
 21
6532.810165560841
 31
0.0
 70
    32
 71
     5
 42
4930.0
  3
INABA_S50G
100
AcDbAlignedDimension
 13
7814.499999999999
 23
7298.810165560841
 33
0.0
 14
12744.5
 24
7295.81016556084
 34
0.0
100
AcDbRotatedDimension
  0
DIMENSION
  5
1CF15
330
747D
100
AcDbEntity
  8
寸法
 48
50.0
100
AcDbDimension
  2
*D15
 10
9379.979884441224
 20
7363.810165560841
 30
0.0
 11
9379.979884441222
 21
7682.221287469693
 31
0.0
 70
   160
 71
     5
 42
800.0
  3
INABA_S50G
100
AcDbAlignedDimension
 13
9194.500000000003
 23
8163.810165560841
 33
0.0
 14
9379.979884441222
 24
7363.810165560841
 34
0.0
 50
90.0
100
AcDbRotatedDimension
1001
ACAD
1000
DSTYLE
1002
{
1002
}
  0
LINE
  5
1CF18
330
747D
100
AcDbEntity
  8
センター
 48
5.0
100
AcDbLine
 10
7879.5
 20
7283.810165560841
 30
0.0
 11
7879.5
 21
7573.81016556084
 31
0.0
  0
LINE
  5
1CF1A
330
747D
100
AcDbEntity
  8
センター
 48
5.0
100
AcDbLine
 10
8024.500000000001
 20
7428.810165560841
 30
0.0
 11
7734.5
 21
7428.810165560841
 31
0.0
  0
LINE
  5
1CF1C
330
747D
100
AcDbEntity
  8
細線
 48
50.0
100
AcDbLine
 10
11537.27899544201
 20
7363.81016556086
 30
0.0
 11
11657.27899544201
 21
7483.810165560861
 31
0.0
  0
LINE
  5
1CF1D
330
747D
100
AcDbEntity
  8
細線
 48
50.0
100
AcDbLine
 10
11582.18027604735
 20
7363.81016556086
 30
0.0
 11
11659.5
 21
7441.129889513515
 31
0.0
  0
LINE
  5
1CF1E
330
747D
100
AcDbEntity
  8
細線
 48
50.0
100
AcDbLine
 10
11492.37771483666
 20
7363.81016556086
 30
0.0
 11
11609.5
 21
7480.9324507242
 31
0.0
  0
LINE
  5
1CF1F
330
747D
100
AcDbEntity
  8
細線
 48
50.0
100
AcDbLine
 10
11447.47643423132
 20
7363.81016556086
 30
0.0
 11
11567.47643423132
 21
7483.810165560861
 31
0.0
  0
LINE
  5
1CF21
330
747D
100
AcDbEntity
  8
細線
 48
50.0
100
AcDbLine
 10
11359.5
 20
7410.53757314564
 30
0.0
 11
11432.7725924153
 21
7483.810165560862
 31
0.0
  0
LINE
  5
1CF23
330
747D
100
AcDbEntity
  8
細線
 48
50.0
100
AcDbLine
 10
11359.5
 20
7365.636292540234
 30
0.0
 11
11477.67387302063
 21
7483.810165560864
 31
0.0
  0
LINE
  5
1CF24
330
747D
100
AcDbEntity
  8
細線
 48
50.0
100
AcDbLine
 10
11402.57515362598
 20
7363.810165560865
 30
0.0
 11
11522.57515362597
 21
7483.810165560862
 31
0.0
  0
LINE
  5
1D04E
330
747D
100
AcDbEntity
  8
センター
 48
5.0
100
AcDbLine
 10
10279.5
 20
7283.810165560841
 30
0.0
 11
10279.5
 21
7573.81016556084
 31
0.0
  0
LINE
  5
1D04F
330
747D
100
AcDbEntity
  8
センター
 48
5.0
100
AcDbLine
 10
10134.5
 20
7428.810165560841
 30
0.0
 11
10424.5
 21
7428.810165560841
 31
0.0
  0
DIMENSION
  5
1D249
330
747D
100
AcDbEntity
  8
寸法
 48
50.0
100
AcDbDimension
  2
*D22
 10
12794.5
 20
6432.810165560841
 30
0.0
 11
13086.94094488189
 21
6432.810165560841
 31
0.0
 70
   160
  1
(<>)
 71
     5
 42
50.0
  3
INABA_S50G
100
AcDbAlignedDimension
 13
12744.5
 23
7295.81016556084
 33
0.0
 14
12794.5
 24
6744.343109315912
 34
0.0
100
AcDbRotatedDimension
  0
LINE
  5
1D24A
330
747D
100
AcDbEntity
  8
センター
 48
5.0
100
AcDbLine
 10
12534.5
 20
7428.810165560841
 30
0.0
 11
12824.5
 21
7428.810165560841
 31
0.0
  0
LINE
  5
1D24B
330
747D
100
AcDbEntity
  8
細線
 48
50.0
100
AcDbLine
 10
8899.500000000001
 20
7320.735011934889
 30
0.0
 11
9062.575153625973
 21
7483.810165560861
 31
0.0
  0
LINE
  5
1D24C
330
747D
100
AcDbEntity
  8
細線
 48
50.0
100
AcDbLine
 10
8899.500000000001
 20
7365.636292540234
 30
0.0
 11
9017.673873020632
 21
7483.810165560862
 31
0.0
  0
LINE
  5
1D24D
330
747D
100
AcDbEntity
  8
部品1
 48
50.0
100
AcDbLine
 10
11359.5
 20
7363.810165560842
 30
0.0
 11
11359.5
 21
7483.810165560839
 31
0.0
  0
LINE
  5
1D24E
330
747D
100
AcDbEntity
  8
細線
 48
50.0
100
AcDbLine
 10
8899.500000000001
 20
7410.537573145636
 30
0.0
 11
8972.772592415303
 21
7483.810165560861
 31
0.0
  0
LINE
  5
1D24F
330
747D
100
AcDbEntity
  8
部品1
 48
50.0
100
AcDbLine
 10
11659.5
 20
7363.810165560841
 30
0.0
 11
11659.5
 21
7483.810165560838
 31
0.0
  0
LINE
  5
1D250
330
747D
100
AcDbEntity
  8
細線
 48
50.0
100
AcDbLine
 10
8922.476434231304
 20
7298.810165560841
 30
0.0
 11
9107.476434231317
 21
7483.810165560861
 31
0.0
  0
LINE
  5
1D251
330
747D
100
AcDbEntity
  8
細線
 48
50.0
100
AcDbLine
 10
8967.377714836651
 20
7298.810165560843
 30
0.0
 11
9149.500000000001
 21
7480.932450724201
 31
0.0
  0
LINE
  5
1D252
330
747D
100
AcDbEntity
  8
細線
 48
50.0
100
AcDbLine
 10
9057.180276047347
 20
7298.810165560843
 30
0.0
 11
9199.500000000002
 21
7441.129889513515
 31
0.0
  0
LINE
  5
1D253
330
747D
100
AcDbEntity
  8
細線
 48
50.0
100
AcDbLine
 10
9012.278995441992
 20
7298.810165560841
 30
0.0
 11
9197.278995442012
 21
7483.810165560862
 31
0.0
  0
LINE
  5
1D3BA
330
747D
100
AcDbEntity
  8
センター
 48
5.0
100
AcDbLine
 10
12679.5
 20
7283.810165560841
 30
0.0
 11
12679.5
 21
7573.81016556084
 31
0.0
  0
DIMENSION
  5
1D3BB
330
747D
100
AcDbEntity
  8
寸法
 48
50.0
100
AcDbDimension
  2
*D20
 10
13595.5
 20
7233.810165560841
 30
0.0
 11
13595.5
 21
6902.869220678953
 31
0.0
 70
   160
  1
(<>)
 71
     5
 42
130.0
  3
INABA_S50G
100
AcDbAlignedDimension
 13
12744.5
 23
7363.810165560841
 33
0.0
 14
13274.56822416407
 24
7233.810165560841
 34
0.0
 50
90.0
100
AcDbRotatedDimension
  0
DIMENSION
  5
1D3BC
330
747D
100
AcDbEntity
  8
寸法
 48
50.0
100
AcDbDimension
  2
*D21
 10
12744.5
 20
6744.343109315912
 30
0.0
 11
12984.59479069417
 21
6744.343109315912
 31
0.0
 70
   160
 71
     5
 42
65.0
  3
INABA_S50G
100
AcDbAlignedDimension
 13
12679.5
 23
7283.810165560841
 33
0.0
 14
12744.5
 24
7295.810165560843
 34
0.0
100
AcDbRotatedDimension
1001
ACAD
1000
DSTYLE
1002
{
1002
}
  0
DIMENSION
  5
1D3BD
330
747D
100
AcDbEntity
  8
寸法
 48
50.0
100
AcDbDimension
  2
*D19
 10
13274.56822416407
 20
7363.810165560841
 30
0.0
 11
13274.56822416407
 21
7123.715374866664
 31
0.0
 70
   160
 71
     5
 42
65.0
  3
INABA_S50G
100
AcDbAlignedDimension
 13
12824.5
 23
7428.810165560841
 33
0.0
 14
12744.5
 24
7363.810165560841
 34
0.0
 50
90.0
100
AcDbRotatedDimension
1001
ACAD
1000
DSTYLE
1002
{
1002
}
  0
DIMENSION
  5
1D3C3
330
747D
100
AcDbEntity
  8
寸法
 48
50.0
100
AcDbDimension
  2
*D7
 10
7063.500000000001
 20
9323.810165560841
 30
0.0
 11
6963.499999999999
 21
9613.810165560842
 31
0.0
 70
    32
 71
     5
 42
580.0
  3
INABA_S50G
100
AcDbAlignedDimension
 13
8292.0
 23
9903.810165560841
 33
0.0
 14
8292.0
 24
9323.810165560841
 34
0.0
 50
90.0
100
AcDbRotatedDimension
  0
DIMENSION
  5
1D3C4
330
747D
100
AcDbEntity
  8
寸法
 48
50.0
100
AcDbDimension
  2
*D16
 10
7063.500000000001
 20
9903.810165560841
 30
0.0
 11
6963.499999999999
 21
10158.81016556084
 31
0.0
 70
    32
 71
     5
 42
510.0
  3
INABA_S50G
100
AcDbAlignedDimension
 13
7814.499999999999
 23
10413.81016556084
 33
0.0
 14
8292.0
 24
9903.810165560841
 34
0.0
 50
90.0
100
AcDbRotatedDimension
  0
DIMENSION
  5
1D3C5
330
747D
100
AcDbEntity
  8
寸法
 48
50.0
100
AcDbDimension
  2
*D25
 10
10279.5
 20
11046.07331529102
 30
0.0
 11
10894.5
 21
11146.08807907054
 31
0.0
 70
    32
 71
     5
 42
1230.0
  3
INABA_S50G
100
AcDbAlignedDimension
 13
11509.5
 23
9758.810165560841
 33
0.0
 14
10279.5
 24
10493.81016556084
 34
0.0
100
AcDbRotatedDimension
1001
ACAD
1000
DSTYLE
1002
{
1070
   279
1070
     2
1002
}
  0
LINE
  5
1D3C6
330
747D
100
AcDbEntity
  8
部品1
 48
50.0
100
AcDbLine
 10
12624.5
 20
10293.81016556084
 30
0.0
 11
7934.499999999999
 21
10293.81016556084
 31
0.0
  0
LINE
  5
1D3C7
330
747D
100
AcDbEntity
  8
想像線
 48
20.0
100
AcDbLine
 10
12794.5
 20
10503.81016556084
 30
0.0
 11
7764.499999999999
 21
10503.81016556084
 31
0.0
  0
LINE
  5
1D3C8
330
747D
100
AcDbEntity
  8
部品1
 48
50.0
100
AcDbLine
 10
12744.5
 20
10413.81016556084
 30
0.0
 11
7814.499999999999
 21
10413.81016556084
 31
0.0
  0
DIMENSION
  5
1D3D0
330
747D
100
AcDbEntity
  8
寸法
 48
50.0
100
AcDbDimension
  2
*D4
 10
9049.5
 20
11046.07331529102
 30
0.0
 11
9664.5
 21
11146.08807907054
 31
0.0
 70
    32
 71
     5
 42
1230.0
  3
INABA_S50G
100
AcDbAlignedDimension
 13
10279.5
 23
10493.81016556084
 33
0.0
 14
9049.5
 24
9758.810165560841
 34
0.0
100
AcDbRotatedDimension
1001
ACAD
1000
DSTYLE
1002
{
1070
   279
1070
     2
1002
}
  0
DIMENSION
  5
1D3D1
330
747D
100
AcDbEntity
  8
寸法
 48
50.0
100
AcDbDimension
  2
*D6
 10
9379.979884441222
 20
9613.810165560842
 30
0.0
 11
9279.979884441219
 21
10013.81016556084
 31
0.0
 70
    32
 71
     5
 42
800.0
  3
INABA_S50G
100
AcDbAlignedDimension
 13
9463.190419647027
 23
10413.81016556084
 33
0.0
 14
9194.500000000003
 24
9613.810165560842
 34
0.0
 50
90.0
100
AcDbRotatedDimension
  0
DIMENSION
  5
1D3D3
330
747D
100
AcDbEntity
  8
寸法
 48
50.0
100
AcDbDimension
  2
*D5
 10
9049.5
 20
11046.07331529102
 30
0.0
 11
8432.0
 21
11146.08807907054
 31
0.0
 70
    32
 71
     5
 42
1235.0
  3
INABA_S50G
100
AcDbAlignedDimension
 13
7814.499999999999
 23
10413.81016556084
 33
0.0
 14
9049.5
 24
9758.810165560841
 34
0.0
100
AcDbRotatedDimension
  0
LINE
  5
1D3D4
330
747D
100
AcDbEntity
  8
センター
 48
5.0
100
AcDbLine
 10
7879.5
 20
10493.81016556084
 30
0.0
 11
7879.5
 21
10203.81016556084
 31
0.0
  0
LINE
  5
1D454
330
747D
100
AcDbEntity
  8
センター
 48
5.0
100
AcDbLine
 10
8024.500000000001
 20
10348.81016556084
 30
0.0
 11
7734.5
 21
10348.81016556084
 31
0.0
  0
LINE
  5
1D4D1
330
747D
100
AcDbEntity
  8
センター
 48
5.0
100
AcDbLine
 10
10279.5
 20
10493.81016556084
 30
0.0
 11
10279.5
 21
10203.81016556084
 31
0.0
  0
LINE
  5
1D4D2
330
747D
100
AcDbEntity
  8
センター
 48
5.0
100
AcDbLine
 10
10134.5
 20
10348.81016556084
 30
0.0
 11
10424.5
 21
10348.81016556084
 31
0.0
  0
MTEXT
  5
1D5C1
102
{ACAD_REACTORS
330
1D5C2
102
}
330
747D
100
AcDbEntity
  8
細線
 62
     7
 48
50.0
100
AcDbMText
 10
10499.86900602194
 20
9896.98788027794
 30
0.0
 40
150.0
 41
0.0
 71
     4
 72
     1
  1
\A1;C.B
  7
STYLE1
 73
     1
 44
1.0
1001
ACAD
1000
MTEXTBEGIN
1070
    73
1070
     1
1070
    44
1040
1.0
1070
    74
1070
     0
1000
MTEXTEND
  0
LEADER
  5
1D5C2
330
747D
100
AcDbEntity
  8
寸法
 48
50.0
100
AcDbLeader
  3
INABA_S50G
 71
     0
 73
     0
 74
     0
 75
     1
 40
150.0
 41
231.9898538650463
 76
     3
 10
10320.81766964646
 20
9676.088433628434
 30
0.0
 10
10349.86900602194
 20
9796.98788027794
 30
0.0
 10
10474.86900602194
 20
9796.98788027794
 30
0.0
340
1D5C1
  0
DIMENSION
  5
1D674
330
747D
100
AcDbEntity
  8
寸法
 48
50.0
100
AcDbDimension
  2
*D1
 10
12744.5
 20
11046.07331529102
 30
0.0
 11
12127.0
 21
11146.08807907054
 31
0.0
 70
    32
 71
     5
 42
1235.0
  3
INABA_S50G
100
AcDbAlignedDimension
 13
11509.5
 23
9758.810165560841
 33
0.0
 14
12744.5
 24
10413.81016556084
 34
0.0
100
AcDbRotatedDimension
  0
LINE
  5
1D675
330
747D
100
AcDbEntity
  8
センター
 48
5.0
100
AcDbLine
 10
12534.5
 20
10348.81016556084
 30
0.0
 11
12824.5
 21
10348.81016556084
 31
0.0
  0
LINE
  5
1D7A5
330
747D
100
AcDbEntity
  8
センター
 48
5.0
100
AcDbLine
 10
12679.5
 20
10493.81016556084
 30
0.0
 11
12679.5
 21
10203.81016556084
 31
0.0
  0
DIMENSION
  5
1D7A6
330
747D
100
AcDbEntity
  8
寸法
 48
50.0
100
AcDbDimension
  2
*D24
 10
13274.56822416407
 20
10348.81016556084
 30
0.0
 11
13274.56822416407
 21
10653.90495625502
 31
0.0
 70
   160
 71
     5
 42
65.0
  3
INABA_S50G
100
AcDbAlignedDimension
 13
12744.5
 23
10413.81016556084
 33
0.0
 14
12824.5
 24
10348.81016556084
 34
0.0
 50
90.0
100
AcDbRotatedDimension
  0
DIMENSION
  5
1D7A7
330
747D
100
AcDbEntity
  8
寸法
 48
50.0
100
AcDbDimension
  2
*D23
 10
13595.5
 20
10503.81016556084
 30
0.0
 11
13595.5
 21
10797.5131852298
 31
0.0
 70
   160
  1
(<>)
 71
     5
 42
89.99999999999635
  3
INABA_S50G
100
AcDbAlignedDimension
 13
12744.5
 23
10413.81016556084
 33
0.0
 14
13274.56822416407
 24
10503.81016556084
 34
0.0
 50
90.0
100
AcDbRotatedDimension
  0
DIMENSION
  5
1DA30
330
747D
100
AcDbEntity
  8
寸法
 48
50.0
100
AcDbDimension
  2
*D27
 10
9379.979884441222
 20
8888.81016556084
 30
0.0
 11
9279.965120661692
 21
9251.310165560843
 31
0.0
 70
    32
 71
     5
 42
725.0
  3
INABA_S50G
100
AcDbAlignedDimension
 13
9194.500000000001
 23
9613.810165560842
 33
0.0
 14
9194.500000000001
 24
8888.81016556084
 34
0.0
 50
90.0
100
AcDbRotatedDimension
  0
LINE
  5
1E5DD
330
747D
100
AcDbEntity
  8
センター
 48
5.0
100
AcDbLine
 10
8292.0
 20
7873.81016556084
 30
0.0
 11
8582.0
 21
7873.81016556084
 31
0.0
  0
LINE
  5
1E5DE
330
747D
100
AcDbEntity
  8
センター
 48
5.0
100
AcDbLine
 10
8437.0
 20
8018.810165560841
 30
0.0
 11
8437.0
 21
7728.810165560841
 31
0.0
  0
LINE
  5
1E5E3
330
747D
100
AcDbEntity
  8
センター
 48
5.0
100
AcDbLine
 10
8437.0
 20
9468.81016556084
 30
0.0
 11
8437.0
 21
9178.810165560841
 31
0.0
  0
LINE
  5
1E5E4
330
747D
100
AcDbEntity
  8
センター
 48
5.0
100
AcDbLine
 10
8437.0
 20
9033.810165560842
 30
0.0
 11
8437.0
 21
8743.810165560841
 31
0.0
  0
LINE
  5
1E5E7
330
747D
100
AcDbEntity
  8
センター
 48
5.0
100
AcDbLine
 10
8292.0
 20
8453.810165560842
 30
0.0
 11
8582.0
 21
8453.810165560842
 31
0.0
  0
LINE
  5
1E5E9
330
747D
100
AcDbEntity
  8
センター
 48
5.0
100
AcDbLine
 10
8437.0
 20
8598.810165560839
 30
0.0
 11
8437.0
 21
8308.81016556084
 31
0.0
  0
LINE
  5
1E5EE
330
747D
100
AcDbEntity
  8
センター
 48
5.0
100
AcDbLine
 10
8582.0
 20
8888.81016556084
 30
0.0
 11
8292.0
 21
8888.81016556084
 31
0.0
  0
LINE
  5
1E5EF
330
747D
100
AcDbEntity
  8
センター
 48
5.0
100
AcDbLine
 10
8292.0
 20
9323.810165560841
 30
0.0
 11
8582.0
 21
9323.810165560841
 31
0.0
  0
LINE
  5
1E5F4
330
747D
100
AcDbEntity
  8
センター
 48
5.0
100
AcDbLine
 10
8437.0
 20
10048.81016556084
 30
0.0
 11
8437.0
 21
9758.810165560841
 31
0.0
  0
LINE
  5
1E5F7
330
747D
100
AcDbEntity
  8
センター
 48
5.0
100
AcDbLine
 10
8292.0
 20
9903.810165560841
 30
0.0
 11
8582.0
 21
9903.810165560841
 31
0.0
  0
LINE
  5
1E5F9
330
747D
100
AcDbEntity
  8
センター
 48
5.0
100
AcDbLine
 10
9049.5
 20
8308.81016556084
 30
0.0
 11
9049.5
 21
8018.810165560841
 31
0.0
  0
LINE
  5
1E5FC
330
747D
100
AcDbEntity
  8
センター
 48
5.0
100
AcDbLine
 10
9194.500000000001
 20
8163.810165560841
 30
0.0
 11
8904.5
 21
8163.810165560841
 31
0.0
  0
LINE
  5
1E5FF
330
747D
100
AcDbEntity
  8
センター
 48
5.0
100
AcDbLine
 10
9049.5
 20
9033.810165560842
 30
0.0
 11
9049.5
 21
8743.810165560841
 31
0.0
  0
LINE
  5
1E600
330
747D
100
AcDbEntity
  8
センター
 48
5.0
100
AcDbLine
 10
9194.500000000001
 20
8888.81016556084
 30
0.0
 11
8904.5
 21
8888.81016556084
 31
0.0
  0
LINE
  5
1E605
330
747D
100
AcDbEntity
  8
センター
 48
5.0
100
AcDbLine
 10
9049.5
 20
9758.810165560841
 30
0.0
 11
9049.5
 21
9468.81016556084
 31
0.0
  0
LINE
  5
1E608
330
747D
100
AcDbEntity
  8
センター
 48
5.0
100
AcDbLine
 10
9194.500000000001
 20
9613.810165560842
 30
0.0
 11
8904.5
 21
9613.810165560842
 31
0.0
  0
LINE
  5
1E60B
330
747D
100
AcDbEntity
  8
センター
 48
5.0
100
AcDbLine
 10
9474.5
 20
7873.810165560851
 30
0.0
 11
9764.499999999999
 21
7873.810165560851
 31
0.0
  0
LINE
  5
1E60C
330
747D
100
AcDbEntity
  8
センター
 48
5.0
100
AcDbLine
 10
9619.500000000002
 20
8018.810165560852
 30
0.0
 11
9619.500000000002
 21
7728.810165560851
 31
0.0
  0
LINE
  5
1E613
330
747D
100
AcDbEntity
  8
センター
 48
5.0
100
AcDbLine
 10
9619.500000000002
 20
9468.810165560851
 30
0.0
 11
9619.500000000002
 21
9178.810165560852
 31
0.0
  0
LINE
  5
1E614
330
747D
100
AcDbEntity
  8
センター
 48
5.0
100
AcDbLine
 10
9764.499999999999
 20
8888.810165560853
 30
0.0
 11
9474.5
 21
8888.810165560853
 31
0.0
  0
LINE
  5
1E616
330
747D
100
AcDbEntity
  8
センター
 48
5.0
100
AcDbLine
 10
9474.5
 20
9323.810165560852
 30
0.0
 11
9764.499999999999
 21
9323.810165560852
 31
0.0
  0
LINE
  5
1E618
330
747D
100
AcDbEntity
  8
センター
 48
5.0
100
AcDbLine
 10
9474.5
 20
8453.810165560851
 30
0.0
 11
9764.499999999999
 21
8453.810165560851
 31
0.0
  0
LINE
  5
1E619
330
747D
100
AcDbEntity
  8
センター
 48
5.0
100
AcDbLine
 10
9619.500000000002
 20
9033.810165560851
 30
0.0
 11
9619.500000000002
 21
8743.810165560851
 31
0.0
  0
LINE
  5
1E61B
330
747D
100
AcDbEntity
  8
センター
 48
5.0
100
AcDbLine
 10
9619.500000000002
 20
8598.810165560852
 30
0.0
 11
9619.500000000002
 21
8308.810165560851
 31
0.0
  0
LINE
  5
1E622
330
747D
100
AcDbEntity
  8
センター
 48
5.0
100
AcDbLine
 10
9474.5
 20
9903.810165560852
 30
0.0
 11
9764.499999999999
 21
9903.810165560852
 31
0.0
  0
LINE
  5
1E625
330
747D
100
AcDbEntity
  8
センター
 48
5.0
100
AcDbLine
 10
9619.500000000002
 20
10048.81016556085
 30
0.0
 11
9619.500000000002
 21
9758.810165560852
 31
0.0
  0
LINE
  5
1E629
330
747D
100
AcDbEntity
  8
センター
 48
5.0
100
AcDbLine
 10
10279.5
 20
8308.81016556084
 30
0.0
 11
10279.5
 21
8018.810165560841
 31
0.0
  0
LINE
  5
1E62D
330
747D
100
AcDbEntity
  8
センター
 48
5.0
100
AcDbLine
 10
10424.5
 20
8163.810165560841
 30
0.0
 11
10134.5
 21
8163.810165560841
 31
0.0
  0
LINE
  5
1E62F
330
747D
100
AcDbEntity
  8
センター
 48
5.0
100
AcDbLine
 10
10279.5
 20
9033.810165560842
 30
0.0
 11
10279.5
 21
8743.810165560841
 31
0.0
  0
LINE
  5
1E633
330
747D
100
AcDbEntity
  8
センター
 48
5.0
100
AcDbLine
 10
10424.5
 20
8888.81016556084
 30
0.0
 11
10134.5
 21
8888.81016556084
 31
0.0
  0
LINE
  5
1E638
330
747D
100
AcDbEntity
  8
センター
 48
5.0
100
AcDbLine
 10
10279.5
 20
9758.810165560841
 30
0.0
 11
10279.5
 21
9468.81016556084
 31
0.0
  0
LINE
  5
1E639
330
747D
100
AcDbEntity
  8
センター
 48
5.0
100
AcDbLine
 10
10424.5
 20
9613.810165560842
 30
0.0
 11
10134.5
 21
9613.810165560842
 31
0.0
  0
LINE
  5
1E63B
330
747D
100
AcDbEntity
  8
センター
 48
5.0
100
AcDbLine
 10
11509.5
 20
8308.81016556084
 30
0.0
 11
11509.5
 21
8018.810165560841
 31
0.0
  0
LINE
  5
1E63E
330
747D
100
AcDbEntity
  8
センター
 48
5.0
100
AcDbLine
 10
12267.0
 20
7873.81016556084
 30
0.0
 11
11977.0
 21
7873.81016556084
 31
0.0
  0
LINE
  5
1E641
330
747D
100
AcDbEntity
  8
センター
 48
5.0
100
AcDbLine
 10
11084.5
 20
7873.810165560851
 30
0.0
 11
10794.5
 21
7873.810165560851
 31
0.0
  0
LINE
  5
1E643
330
747D
100
AcDbEntity
  8
センター
 48
5.0
100
AcDbLine
 10
10939.5
 20
8018.810165560852
 30
0.0
 11
10939.5
 21
7728.810165560851
 31
0.0
  0
LINE
  5
1E646
330
747D
100
AcDbEntity
  8
センター
 48
5.0
100
AcDbLine
 10
11364.5
 20
8163.810165560841
 30
0.0
 11
11654.5
 21
8163.810165560841
 31
0.0
  0
LINE
  5
1E64A
330
747D
100
AcDbEntity
  8
センター
 48
5.0
100
AcDbLine
 10
12122.0
 20
8018.810165560841
 30
0.0
 11
12122.0
 21
7728.810165560841
 31
0.0
  0
LINE
  5
1E650
330
747D
100
AcDbEntity
  8
センター
 48
5.0
100
AcDbLine
 10
12267.0
 20
9903.810165560841
 30
0.0
 11
11977.0
 21
9903.810165560841
 31
0.0
  0
LINE
  5
1E656
330
747D
100
AcDbEntity
  8
センター
 48
5.0
100
AcDbLine
 10
12267.0
 20
8453.810165560842
 30
0.0
 11
11977.0
 21
8453.810165560842
 31
0.0
  0
LINE
  5
1E657
330
747D
100
AcDbEntity
  8
センター
 48
5.0
100
AcDbLine
 10
11977.0
 20
8888.81016556084
 30
0.0
 11
12267.0
 21
8888.81016556084
 31
0.0
  0
LINE
  5
1E658
330
747D
100
AcDbEntity
  8
センター
 48
5.0
100
AcDbLine
 10
12267.0
 20
9323.810165560841
 30
0.0
 11
11977.0
 21
9323.810165560841
 31
0.0
  0
LINE
  5
1E65A
330
747D
100
AcDbEntity
  8
センター
 48
5.0
100
AcDbLine
 10
12122.0
 20
9468.81016556084
 30
0.0
 11
12122.0
 21
9178.810165560841
 31
0.0
  0
LINE
  5
1E65D
330
747D
100
AcDbEntity
  8
センター
 48
5.0
100
AcDbLine
 10
10939.5
 20
9468.810165560851
 30
0.0
 11
10939.5
 21
9178.810165560852
 31
0.0
  0
LINE
  5
1E65E
330
747D
100
AcDbEntity
  8
センター
 48
5.0
100
AcDbLine
 10
10939.5
 20
9033.810165560851
 30
0.0
 11
10939.5
 21
8743.810165560851
 31
0.0
  0
LINE
  5
1E661
330
747D
100
AcDbEntity
  8
センター
 48
5.0
100
AcDbLine
 10
11084.5
 20
8453.810165560851
 30
0.0
 11
10794.5
 21
8453.810165560851
 31
0.0
  0
LINE
  5
1E664
330
747D
100
AcDbEntity
  8
センター
 48
5.0
100
AcDbLine
 10
10939.5
 20
8598.810165560852
 30
0.0
 11
10939.5
 21
8308.810165560851
 31
0.0
  0
LINE
  5
1E665
330
747D
100
AcDbEntity
  8
センター
 48
5.0
100
AcDbLine
 10
11084.5
 20
9323.810165560852
 30
0.0
 11
10794.5
 21
9323.810165560852
 31
0.0
  0
LINE
  5
1E667
330
747D
100
AcDbEntity
  8
センター
 48
5.0
100
AcDbLine
 10
10794.5
 20
8888.810165560853
 30
0.0
 11
11084.5
 21
8888.810165560853
 31
0.0
  0
LINE
  5
1E66C
330
747D
100
AcDbEntity
  8
センター
 48
5.0
100
AcDbLine
 10
12122.0
 20
9033.810165560842
 30
0.0
 11
12122.0
 21
8743.810165560841
 31
0.0
  0
LINE
  5
1E66D
330
747D
100
AcDbEntity
  8
センター
 48
5.0
100
AcDbLine
 10
11509.5
 20
9033.810165560842
 30
0.0
 11
11509.5
 21
8743.810165560841
 31
0.0
  0
LINE
  5
1E66E
330
747D
100
AcDbEntity
  8
センター
 48
5.0
100
AcDbLine
 10
12122.0
 20
8598.810165560839
 30
0.0
 11
12122.0
 21
8308.81016556084
 31
0.0
  0
LINE
  5
1E671
330
747D
100
AcDbEntity
  8
センター
 48
5.0
100
AcDbLine
 10
11364.5
 20
8888.81016556084
 30
0.0
 11
11654.5
 21
8888.81016556084
 31
0.0
  0
LINE
  5
1E678
330
747D
100
AcDbEntity
  8
センター
 48
5.0
100
AcDbLine
 10
10939.5
 20
10048.81016556085
 30
0.0
 11
10939.5
 21
9758.810165560852
 31
0.0
  0
LINE
  5
1E679
330
747D
100
AcDbEntity
  8
センター
 48
5.0
100
AcDbLine
 10
11084.5
 20
9903.810165560852
 30
0.0
 11
10794.5
 21
9903.810165560852
 31
0.0
  0
LINE
  5
1E67E
330
747D
100
AcDbEntity
  8
センター
 48
5.0
100
AcDbLine
 10
12122.0
 20
10048.81016556084
 30
0.0
 11
12122.0
 21
9758.810165560841
 31
0.0
  0
LINE
  5
1E67F
330
747D
100
AcDbEntity
  8
センター
 48
5.0
100
AcDbLine
 10
11509.5
 20
9758.810165560841
 30
0.0
 11
11509.5
 21
9468.81016556084
 31
0.0
  0
LINE
  5
1E681
330
747D
100
AcDbEntity
  8
センター
 48
5.0
100
AcDbLine
 10
11364.5
 20
9613.810165560842
 30
0.0
 11
11654.5
 21
9613.810165560842
 31
0.0
  0
DIMENSION
  5
1E858
330
747D
100
AcDbEntity
  8
寸法
 48
50.0
100
AcDbDimension
  2
*D28
 10
10602.98231144971
 20
7363.810165560842
 30
0.0
 11
10602.98231144971
 21
7073.39756532701
 31
0.0
 70
   160
 71
     5
 42
119.9999999999991
  3
INABA_S50G
100
AcDbAlignedDimension
 13
10850.55297658857
 23
7483.810165560841
 33
0.0
 14
10850.55297658857
 24
7363.810165560842
 34
0.0
 50
90.0
100
AcDbRotatedDimension
1001
ACAD
1000
DSTYLE
1002
{
1070
   341
1005
0
1002
}
  0
DIMENSION
  5
1E885
330
747D
100
AcDbEntity
  8
寸法
 48
50.0
100
AcDbDimension
  2
*D29
 10
10908.75178286299
 20
10413.81016556084
 30
0.0
 11
10908.75178286299
 21
10704.22276579467
 31
0.0
 70
   160
 71
     5
 42
120.0
  3
INABA_S50G
100
AcDbAlignedDimension
 13
11156.32244800185
 23
10293.81016556084
 33
0.0
 14
11156.32244800185
 24
10413.81016556084
 34
0.0
 50
270.0
100
AcDbRotatedDimension
1001
ACAD
1000
DSTYLE
1002
{
1070
   341
1005
0
1002
}
  0
DIMENSION
  5
1E89D
330
747D
100
AcDbEntity
  8
寸法
 48
50.0
100
AcDbDimension
  2
*D30
 10
12744.5
 20
8134.933790297678
 30
0.0
 11
13014.55905511811
 21
8134.933790297678
 31
0.0
 70
   160
 71
     5
 42
120.0
  3
INABA_S50G
100
AcDbAlignedDimension
 13
12624.5
 23
8252.387715066522
 33
0.0
 14
12744.5
 24
8252.387715066522
 34
0.0
100
AcDbRotatedDimension
1001
ACAD
1000
DSTYLE
1002
{
1070
   341
1005
0
1002
}
  0
DIMENSION
  5
1E8C0
330
747D
100
AcDbEntity
  8
寸法
 48
50.0
100
AcDbDimension
  2
*D31
 10
7814.500000000004
 20
8134.933790297678
 30
0.0
 11
7544.440944881893
 21
8134.933790297678
 31
0.0
 70
   160
 71
     5
 42
120.0
  3
INABA_S50G
100
AcDbAlignedDimension
 13
7934.500000000004
 23
8252.387715066522
 33
0.0
 14
7814.500000000004
 24
8252.387715066522
 34
0.0
 50
180.0
100
AcDbRotatedDimension
1001
ACAD
1000
DSTYLE
1002
{
1070
   341
1005
0
1002
}
  0
LINE
  5
1FBA0
330
747D
100
AcDbEntity
  8
部品1
 48
50.0
100
AcDbLine
 10
9635.5
 20
7298.810165560841
 30
0.0
 11
7814.499999999999
 21
7298.810165560841
 31
0.0
  0
LINE
  5
1FBA1
330
747D
100
AcDbEntity
  8
部品1
 48
50.0
100
AcDbLine
 10
9635.5
 20
7298.810165560843
 30
0.0
 11
9635.5
 21
7363.810165560842
 31
0.0
  0
LINE
  5
1FBAF
330
747D
100
AcDbEntity
  8
細線
 48
50.0
100
AcDbLine
 10
8899.500000000001
 20
7455.438853750917
 30
0.0
 11
8927.871311809978
 21
7483.810165560861
 31
0.0
  0
LINE
  5
1FBB0
330
747D
100
AcDbEntity
  8
細線
 48
50.0
100
AcDbLine
 10
9102.081556652683
 20
7298.810165560841
 30
0.0
 11
9199.500000000002
 21
7396.22860890816
 31
0.0
  0
LINE
  5
1FBB1
330
747D
100
AcDbEntity
  8
細線
 48
50.0
100
AcDbLine
 10
9146.98283725804
 20
7298.810165560841
 30
0.0
 11
9199.500000000004
 21
7351.32732830281
 31
0.0
  0
DIMENSION
  5
1FBD0
330
747D
100
AcDbEntity
  8
寸法
 48
50.0
100
AcDbDimension
  2
*D32
 10
7814.499999999999
 20
7013.830959799048
 30
0.0
 11
8725.0
 21
7113.845723578575
 31
0.0
 70
    32
 71
     5
 42
1821.0
  3
INABA_S50G
100
AcDbAlignedDimension
 13
9635.5
 23
7298.810165560844
 33
0.0
 14
7814.499999999999
 24
7298.810165560841
 34
0.0
100
AcDbRotatedDimension
1001
ACAD
1000
DSTYLE
1002
{
1070
   341
1005
0
1002
}
  0
DIMENSION
  5
1FBDD
330
747D
100
AcDbEntity
  8
寸法
 48
50.0
100
AcDbDimension
  2
*D33
 10
9962.873377149403
 20
7483.810165560837
 30
0.0
 11
9962.873377149401
 21
7756.916767278636
 31
0.0
 70
   160
 71
     5
 42
184.9999999999954
  3
INABA_S50G
100
AcDbAlignedDimension
 13
9635.5
 23
7298.810165560841
 33
0.0
 14
9671.982400027076
 24
7483.810165560837
 34
0.0
 50
90.0
100
AcDbRotatedDimension
1001
ACAD
1000
DSTYLE
1002
{
1070
   341
1005
0
1002
}
  0
LINE
  5
1FC15
330
747D
100
AcDbEntity
  8
部品1
 48
50.0
100
AcDbLine
 10
8899.499999999999
 20
7298.810165560841
 30
0.0
 11
8899.500000000001
 21
7483.810165560841
 31
0.0
  0
LINE
  5
1FC16
330
747D
100
AcDbEntity
  8
部品1
 48
50.0
100
AcDbLine
 10
9199.499999999998
 20
7298.810165560841
 30
0.0
 11
9199.5
 21
7483.810165560841
 31
0.0
  0
LINE
  5
1FC17
330
747D
100
AcDbEntity
  8
細線
 48
50.0
100
AcDbLine
 10
11627.08155665269
 20
7363.810165560855
 30
0.0
 11
11659.5
 21
7396.228608908161
 31
0.0
  0
LINE
  5
1FC18
330
747D
100
AcDbEntity
  8
細線
 48
50.0
100
AcDbLine
 10
11359.5
 20
7455.438853750914
 30
0.0
 11
11387.87131180998
 21
7483.810165560862
 31
0.0
  0
LINE
  5
1FC19
330
747D
100
AcDbEntity
  8
細線
 48
50.0
100
AcDbLine
 10
8987.476434231316
 20
10293.81016556083
 30
0.0
 11
9107.476434231321
 21
10413.81016556084
 31
0.0
  0
LINE
  5
1FC1A
330
747D
100
AcDbEntity
  8
細線
 48
50.0
100
AcDbLine
 10
9032.377714836664
 20
10293.81016556083
 30
0.0
 11
9149.500000000001
 21
10410.93245072418
 31
0.0
  0
LINE
  5
1FC1B
330
747D
100
AcDbEntity
  8
細線
 48
50.0
100
AcDbLine
 10
8899.500000000001
 20
10385.43885375089
 30
0.0
 11
8927.87131180998
 21
10413.81016556084
 31
0.0
  0
LINE
  5
1FC1C
330
747D
100
AcDbEntity
  8
細線
 48
50.0
100
AcDbLine
 10
8899.500000000001
 20
10295.63629254021
 30
0.0
 11
9017.673873020632
 21
10413.81016556084
 31
0.0
  0
LINE
  5
1FC1D
330
747D
100
AcDbEntity
  8
細線
 48
50.0
100
AcDbLine
 10
8942.575153625979
 20
10293.81016556084
 30
0.0
 11
9062.575153625973
 21
10413.81016556084
 31
0.0
  0
LINE
  5
1FC1E
330
747D
100
AcDbEntity
  8
細線
 48
50.0
100
AcDbLine
 10
8899.500000000001
 20
10340.53757314562
 30
0.0
 11
8972.772592415307
 21
10413.81016556084
 31
0.0
  0
LINE
  5
1FC1F
330
747D
100
AcDbEntity
  8
部品1
 48
50.0
100
AcDbLine
 10
8899.500000000001
 20
10293.81016556084
 30
0.0
 11
8899.500000000001
 21
10413.81016556084
 31
0.0
  0
LINE
  5
1FC20
330
747D
100
AcDbEntity
  8
細線
 48
50.0
100
AcDbLine
 10
9167.081556652696
 20
10293.81016556083
 30
0.0
 11
9199.5
 21
10326.22860890814
 31
0.0
  0
LINE
  5
1FC21
330
747D
100
AcDbEntity
  8
細線
 48
50.0
100
AcDbLine
 10
9077.278995442007
 20
10293.81016556083
 30
0.0
 11
9197.27899544201
 21
10413.81016556084
 31
0.0
  0
LINE
  5
1FC22
330
747D
100
AcDbEntity
  8
細線
 48
50.0
100
AcDbLine
 10
9122.180276047355
 20
10293.81016556083
 30
0.0
 11
9199.5
 21
10371.12988951349
 31
0.0
  0
LINE
  5
1FC23
330
747D
100
AcDbEntity
  8
部品1
 48
50.0
100
AcDbLine
 10
9199.5
 20
10293.81016556084
 30
0.0
 11
9199.5
 21
10413.81016556084
 31
0.0
  0
LINE
  5
1FC24
330
747D
100
AcDbEntity
  8
細線
 48
50.0
100
AcDbLine
 10
11492.37771483666
 20
10293.81016556083
 30
0.0
 11
11609.5
 21
10410.93245072418
 31
0.0
  0
LINE
  5
1FC25
330
747D
100
AcDbEntity
  8
細線
 48
50.0
100
AcDbLine
 10
11447.47643423132
 20
10293.81016556083
 30
0.0
 11
11567.47643423132
 21
10413.81016556084
 31
0.0
  0
LINE
  5
1FC26
330
747D
100
AcDbEntity
  8
部品1
 48
50.0
100
AcDbLine
 10
11359.5
 20
10293.81016556084
 30
0.0
 11
11359.5
 21
10413.81016556084
 31
0.0
  0
LINE
  5
1FC27
330
747D
100
AcDbEntity
  8
細線
 48
50.0
100
AcDbLine
 10
11359.5
 20
10340.53757314562
 30
0.0
 11
11432.7725924153
 21
10413.81016556084
 31
0.0
  0
LINE
  5
1FC28
330
747D
100
AcDbEntity
  8
細線
 48
50.0
100
AcDbLine
 10
11402.57515362598
 20
10293.81016556084
 30
0.0
 11
11522.57515362597
 21
10413.81016556084
 31
0.0
  0
LINE
  5
1FC29
330
747D
100
AcDbEntity
  8
細線
 48
50.0
100
AcDbLine
 10
11359.5
 20
10295.63629254021
 30
0.0
 11
11477.67387302063
 21
10413.81016556084
 31
0.0
  0
LINE
  5
1FC2A
330
747D
100
AcDbEntity
  8
細線
 48
50.0
100
AcDbLine
 10
11359.5
 20
10385.43885375089
 30
0.0
 11
11387.87131180998
 21
10413.81016556084
 31
0.0
  0
LINE
  5
1FC2B
330
747D
100
AcDbEntity
  8
部品1
 48
50.0
100
AcDbLine
 10
11659.5
 20
10293.81016556084
 30
0.0
 11
11659.5
 21
10413.81016556084
 31
0.0
  0
LINE
  5
1FC2C
330
747D
100
AcDbEntity
  8
細線
 48
50.0
100
AcDbLine
 10
11582.18027604735
 20
10293.81016556083
 30
0.0
 11
11659.5
 21
10371.12988951349
 31
0.0
  0
LINE
  5
1FC2D
330
747D
100
AcDbEntity
  8
細線
 48
50.0
100
AcDbLine
 10
11537.27899544201
 20
10293.81016556083
 30
0.0
 11
11657.27899544201
 21
10413.81016556084
 31
0.0
  0
LINE
  5
1FC2E
330
747D
100
AcDbEntity
  8
細線
 48
50.0
100
AcDbLine
 10
11627.08155665269
 20
10293.81016556083
 30
0.0
 11
11659.5
 21
10326.22860890814
 31
0.0
  0
LINE
  5
20178
330
747D
100
AcDbEntity
  8
部品1
 48
50.0
100
AcDbLine
 10
7814.499999999999
 20
8738.81016556084
 30
0.0
 11
7934.499999999999
 21
8738.81016556084
 31
0.0
  0
LINE
  5
20179
330
747D
100
AcDbEntity
  8
細線
 48
50.0
100
AcDbLine
 10
7814.499999999992
 20
8950.833731329522
 30
0.0
 11
7934.499999999999
 21
8830.833731329519
 31
0.0
  0
LINE
  5
2017A
330
747D
100
AcDbEntity
  8
細線
 48
50.0
100
AcDbLine
 10
7814.499999999992
 20
8905.932450724177
 30
0.0
 11
7931.622285163335
 21
8788.810165560841
 31
0.0
  0
LINE
  5
2017B
330
747D
100
AcDbEntity
  8
細線
 48
50.0
100
AcDbLine
 10
7906.128688190053
 20
9038.810165560841
 30
0.0
 11
7934.499999999999
 21
9010.43885375086
 31
0.0
  0
LINE
  5
2017C
330
747D
100
AcDbEntity
  8
部品1
 48
50.0
100
AcDbLine
 10
7814.499999999999
 20
9038.810165560841
 30
0.0
 11
7934.499999999999
 21
9038.810165560841
 31
0.0
  0
LINE
  5
2017D
330
747D
100
AcDbEntity
  8
細線
 48
50.0
100
AcDbLine
 10
7816.326126979373
 20
9038.810165560841
 30
0.0
 11
7934.499999999999
 21
8920.63629254021
 31
0.0
  0
LINE
  5
2017E
330
747D
100
AcDbEntity
  8
細線
 48
50.0
100
AcDbLine
 10
7814.499999999999
 20
8995.735011934863
 30
0.0
 11
7934.499999999999
 21
8875.735011934869
 31
0.0
  0
LINE
  5
2017F
330
747D
100
AcDbEntity
  8
細線
 48
50.0
100
AcDbLine
 10
7861.227407584775
 20
9038.810165560841
 30
0.0
 11
7934.499999999999
 21
8965.537573145535
 31
0.0
  0
LINE
  5
20180
330
747D
100
AcDbEntity
  8
細線
 48
50.0
100
AcDbLine
 10
7814.499999999992
 20
8861.031170118833
 30
0.0
 11
7934.499999999999
 21
8741.031170118834
 31
0.0
  0
LINE
  5
20181
330
747D
100
AcDbEntity
  8
細線
 48
50.0
100
AcDbLine
 10
7814.499999999992
 20
8771.228608908145
 30
0.0
 11
7846.918443347298
 21
8738.81016556084
 31
0.0
  0
LINE
  5
20182
330
747D
100
AcDbEntity
  8
細線
 48
50.0
100
AcDbLine
 10
7814.499999999992
 20
8816.129889513486
 30
0.0
 11
7891.819723952649
 21
8738.81016556084
 31
0.0
  0
LINE
  5
20183
330
747D
100
AcDbEntity
  8
細線
 48
50.0
100
AcDbLine
 10
12624.49999999999
 20
8816.129889513486
 30
0.0
 11
12701.81972395265
 21
8738.81016556084
 31
0.0
  0
LINE
  5
20184
330
747D
100
AcDbEntity
  8
細線
 48
50.0
100
AcDbLine
 10
12624.49999999999
 20
8771.228608908145
 30
0.0
 11
12656.9184433473
 21
8738.81016556084
 31
0.0
  0
LINE
  5
20185
330
747D
100
AcDbEntity
  8
細線
 48
50.0
100
AcDbLine
 10
12624.49999999999
 20
8861.031170118833
 30
0.0
 11
12744.5
 21
8741.031170118834
 31
0.0
  0
LINE
  5
20186
330
747D
100
AcDbEntity
  8
部品1
 48
50.0
100
AcDbLine
 10
12624.5
 20
8738.81016556084
 30
0.0
 11
12744.5
 21
8738.81016556084
 31
0.0
  0
LINE
  5
20187
330
747D
100
AcDbEntity
  8
細線
 48
50.0
100
AcDbLine
 10
12624.5
 20
8995.735011934863
 30
0.0
 11
12744.5
 21
8875.735011934869
 31
0.0
  0
LINE
  5
20188
330
747D
100
AcDbEntity
  8
細線
 48
50.0
100
AcDbLine
 10
12626.32612697937
 20
9038.810165560841
 30
0.0
 11
12744.5
 21
8920.63629254021
 31
0.0
  0
LINE
  5
20189
330
747D
100
AcDbEntity
  8
部品1
 48
50.0
100
AcDbLine
 10
12624.5
 20
9038.810165560841
 30
0.0
 11
12744.5
 21
9038.810165560841
 31
0.0
  0
LINE
  5
2018A
330
747D
100
AcDbEntity
  8
細線
 48
50.0
100
AcDbLine
 10
12624.49999999999
 20
8905.932450724177
 30
0.0
 11
12741.62228516334
 21
8788.810165560841
 31
0.0
  0
LINE
  5
2018B
330
747D
100
AcDbEntity
  8
細線
 48
50.0
100
AcDbLine
 10
12624.49999999999
 20
8950.833731329522
 30
0.0
 11
12744.5
 21
8830.833731329519
 31
0.0
  0
LINE
  5
2018C
330
747D
100
AcDbEntity
  8
細線
 48
50.0
100
AcDbLine
 10
12671.22740758477
 20
9038.810165560841
 30
0.0
 11
12744.5
 21
8965.537573145535
 31
0.0
  0
LINE
  5
2018D
330
747D
100
AcDbEntity
  8
細線
 48
50.0
100
AcDbLine
 10
12716.12868819005
 20
9038.810165560841
 30
0.0
 11
12744.5
 21
9010.43885375086
 31
0.0
  0
TEXT
  5
20DED
330
747D
100
AcDbEntity
  8
寸法
 48
50.0
100
AcDbText
 10
8289.669994747761
 20
7090.750845072964
 30
0.0
 40
120.0
  1
扉面
  7
STYLE1
100
AcDbText
  0
LINE
  5
20DF3
330
747D
100
AcDbEntity
  8
想像線
 48
10.0
100
AcDbLine
 10
9199.5
 20
7363.810165560845
 30
0.0
 11
9635.5
 21
7363.810165560844
 31
0.0
  0
LINE
  5
20ED8
330
747D
100
AcDbEntity
  8
想像線
 48
10.0
100
AcDbLine
 10
7814.499999999999
 20
7363.810165560842
 30
0.0
 11
8899.500000000001
 21
7363.810165560842
 31
0.0
  0
LINE
  5
210F2
330
747D
100
AcDbEntity
  8
部品1
 48
50.0
100
AcDbLine
 10
9635.499999999996
 20
7363.810165560844
 30
0.0
 11
12744.5
 21
7363.810165560841
 31
0.0
  0
TEXT
  5
213FE
330
747D
100
AcDbEntity
  8
部品1
 48
50.0
100
AcDbText
 10
9584.049641300905
 20
3562.992111533291
 30
0.0
 40
112.0
  1
基礎詳細図
  7
STYLE2
100
AcDbText
  0
LINE
  5
213FF
330
747D
100
AcDbEntity
  8
細線
 48
50.0
100
AcDbLine
 10
10412.59014491716
 20
3497.905329720225
 30
0.0
 11
9563.30056636923
 21
3497.905329720225
 31
0.0
  0
LINE
  5
21400
330
747D
100
AcDbEntity
  8
細線
 48
50.0
100
AcDbLine
 10
10412.59014491716
 20
3737.905329720225
 30
0.0
 11
9563.30056636923
 21
3737.905329720225
 31
0.0
  0
ARC
  5
21401
330
747D
100
AcDbEntity
  8
部品1
100
AcDbCircle
 10
10193.04705174887
 20
2769.21661028099
 30
0.0
 40
35.0848827120379
100
AcDbArc
 50
68.38687878208739
 51
111.6131212179126
  0
LINE
  5
21402
330
747D
100
AcDbEntity
  8
部品1
100
AcDbLine
 10
10080.77782097964
 20
2783.527058290574
 30
0.0
 11
10247.70089790272
 21
2783.527058290574
 31
0.0
  0
LINE
  5
21403
330
747D
100
AcDbEntity
  8
細線
100
AcDbLine
 10
10164.12390430165
 20
2745.571314995787
 30
0.0
 11
10219.85389294008
 21
2747.209059693176
 31
0.0
  0
LINE
  5
21404
330
747D
100
AcDbEntity
  8
部品1
100
AcDbLine
 10
10169.35474405656
 20
2801.834750598269
 30
0.0
 11
10216.73935944118
 21
2801.834750598266
 31
0.0
  0
LINE
  5
21405
330
747D
100
AcDbEntity
  8
部品1
100
AcDbLine
 10
10172.58551328733
 20
2805.065519829037
 30
0.0
 11
10213.50859021041
 21
2805.065519829037
 31
0.0
  0
LINE
  5
21406
330
747D
100
AcDbEntity
  8
部品1
100
AcDbLine
 10
10165.04705174887
 20
2783.527058290574
 30
0.0
 11
10221.04705174887
 21
2783.527058290574
 31
0.0
  0
LINE
  5
21407
330
747D
100
AcDbEntity
  8
部品1
 48
50.0
100
AcDbLine
 10
10206.54705174887
 20
2839.527058290574
 30
0.0
 11
10179.54705174887
 21
2839.527058290574
 31
0.0
  0
LINE
  5
21408
330
747D
100
AcDbEntity
  8
部品1
100
AcDbLine
 10
10179.08551328734
 20
2900.911673675191
 30
0.0
 11
10209.23935944118
 21
2900.911673675191
 31
0.0
  0
LINE
  5
21409
330
747D
100
AcDbEntity
  8
細線
 48
50.0
100
AcDbLine
 10
10175.54705174887
 20
2822.598855060302
 30
0.0
 11
10210.74705174887
 21
2813.167043486725
 31
0.0
  0
LINE
  5
2140A
330
747D
100
AcDbEntity
  8
細線
 48
50.0
100
AcDbLine
 10
10175.54705174887
 20
2834.598855060298
 30
0.0
 11
10210.74705174887
 21
2825.167043486723
 31
0.0
  0
ARC
  5
2140B
330
747D
100
AcDbEntity
  8
部品1
 48
50.0
100
AcDbCircle
 10
10169.54705174887
 20
2529.219365982882
 30
0.0
 40
37.0
100
AcDbArc
 50
270.0
 51
0.0
  0
LINE
  5
2140C
330
747D
100
AcDbEntity
  8
部品1
 48
50.0
100
AcDbLine
 10
10049.54705174887
 20
2779.219365982882
 30
0.0
 11
10289.54705174887
 21
2779.219365982882
 31
0.0
  0
LINE
  5
2140D
330
747D
100
AcDbEntity
  8
部品1
 48
50.0
100
AcDbLine
 10
9939.547051748876
 20
1819.219365982883
 30
0.0
 11
10399.54705174887
 21
1819.219365982883
 31
0.0
  0
LINE
  5
2140E
330
747D
100
AcDbEntity
  8
部品1
 48
50.0
100
AcDbLine
 10
9939.547051748876
 20
1839.219365982883
 30
0.0
 11
10399.54705174887
 21
1839.219365982883
 31
0.0
  0
LINE
  5
2140F
330
747D
100
AcDbEntity
  8
部品1
 48
50.0
100
AcDbLine
 10
10569.54705174887
 20
1539.219365982883
 30
0.0
 11
9769.547051748876
 21
1539.219365982883
 31
0.0
  0
LINE
  5
21410
330
747D
100
AcDbEntity
  8
部品1
 48
50.0
100
AcDbLine
 10
10569.54705174887
 20
1699.219365982883
 30
0.0
 11
9769.547051748876
 21
1699.219365982883
 31
0.0
  0
LINE
  5
21411
330
747D
100
AcDbEntity
  8
部品1
 48
50.0
100
AcDbLine
 10
10614.15761801409
 20
1011.811601579708
 30
0.0
 11
9573.387845835856
 21
1011.811601579708
 31
0.0
  0
LINE
  5
21412
330
747D
100
AcDbEntity
  8
部品1
 48
50.0
100
AcDbLine
 10
10614.15761801409
 20
851.8116015797076
 30
0.0
 11
9573.387845835856
 21
851.8116015797076
 31
0.0
  0
TEXT
  5
21413
330
747D
100
AcDbEntity
  8
部品1
 48
50.0
100
AcDbText
 10
9634.990280974097
 20
885.8038933122044
 30
0.0
 40
96.0
  1
アンカー部詳細
  7
STYLE2
100
AcDbText
  0
LINE
  5
21414
330
747D
100
AcDbEntity
  8
細線
 48
50.0
100
AcDbLine
 10
10196.1280263563
 20
1699.219365982883
 30
0.0
 11
10316.1280263563
 21
1819.219365982883
 31
0.0
  0
LINE
  5
21415
330
747D
100
AcDbEntity
  8
細線
 48
50.0
100
AcDbLine
 10
10162.45206590229
 20
1699.219365982883
 30
0.0
 11
10282.45206590229
 21
1819.219365982883
 31
0.0
  0
DIMENSION
  5
21416
330
747D
100
AcDbEntity
  8
寸法
 48
50.0
100
AcDbDimension
  2
*D34
 10
10250.93166713349
 20
3244.531625932804
 30
0.0
 11
10155.6239748258
 21
3244.531625932804
 31
0.0
 70
   160
  1
88.5
 71
     5
 42
190.6153846153847
  3
INABA_S50GUP
100
AcDbAlignedDimension
 13
10060.3162825181
 23
2884.757827521344
 33
0.0
 14
10250.93166713349
 24
2885.834750598267
 34
0.0
100
AcDbRotatedDimension
1001
ACAD
1000
DSTYLE
1002
{
1070
   140
1040
100.0
1002
}
  0
DIMENSION
  5
21417
330
747D
100
AcDbEntity
  8
寸法
 48
50.0
100
AcDbDimension
  2
*D35
 10
10193.04705174887
 20
3022.95270788083
 30
0.0
 11
9839.483857952757
 21
3022.95270788083
 31
0.0
 70
   160
  1
65
 71
     5
 42
143.5
  3
INABA_S50GUP
100
AcDbAlignedDimension
 13
10049.54705174887
 23
2779.219365982882
 33
0.0
 14
10193.04705174887
 24
2839.527058290574
 34
0.0
100
AcDbRotatedDimension
1001
ACAD
1000
DSTYLE
1002
{
1070
   140
1040
100.0
1002
}
  0
LINE
  5
21418
330
747D
100
AcDbEntity
  8
細線
 48
50.0
100
AcDbLine
 10
5926.657016996698
 20
712.2436564794661
 30
0.0
 11
14049.2336942897
 21
712.2436564794675
 31
0.0
  0
LINE
  5
21419
330
747D
100
AcDbEntity
  8
細線
 48
50.0
100
AcDbLine
 10
5926.657016996698
 20
3617.905329720225
 30
0.0
 11
5926.657016996698
 21
712.2436564794656
 31
0.0
  0
DIMENSION
  5
2141A
330
747D
100
AcDbEntity
  8
寸法
 48
50.0
100
AcDbDimension
  2
*D36
 10
7002.123148224464
 20
3103.689646218094
 30
0.0
 11
7122.123148224464
 21
3103.689646218094
 31
0.0
 70
   160
  1
120\P185
 71
     5
 42
240.0
  3
INABA_S50GUP
100
AcDbAlignedDimension
 13
7242.123148224464
 23
2703.689646218094
 33
0.0
 14
7002.123148224464
 24
2703.689646218094
 34
0.0
100
AcDbRotatedDimension
1001
ACAD
1000
DSTYLE
1002
{
1070
   140
1040
100.0
1002
}
  0
DIMENSION
  5
2141B
330
747D
100
AcDbEntity
  8
寸法
 48
50.0
100
AcDbDimension
  2
*D37
 10
9508.161753828202
 20
2779.219365982882
 30
0.0
 11
9508.161753828202
 21
3108.733095035984
 31
0.0
 70
   160
  1
出30
 71
     5
 42
60.30769230769147
  3
INABA_S50GUP
100
AcDbAlignedDimension
 13
10179.54705174887
 23
2839.527058290574
 33
0.0
 14
10049.54705174887
 24
2779.219365982882
 34
0.0
 50
90.0
100
AcDbRotatedDimension
1001
ACAD
1000
DSTYLE
1002
{
1070
   140
1040
100.0
1002
}
  0
LEADER
  5
2141C
330
747D
100
AcDbEntity
  8
寸法
 48
50.0
100
AcDbLeader
  3
INABA_S50G
 71
     0
 73
     0
 40
101.39087296526
 41
174.1421356237309
 76
     2
 10
7122.123148224464
 20
2529.007682960901
 30
0.0
 10
6887.540553820786
 20
2472.665225085722
 30
0.0
340
2141D
  0
MTEXT
  5
2141D
102
{ACAD_REACTORS
330
2141C
102
}
330
747D
100
AcDbEntity
  8
寸法
 62
     7
 48
50.0
100
AcDbMText
 10
6862.540553820785
 20
2548.360661568351
 30
0.0
 40
100.0
 41
0.0
 71
     6
 72
     1
  1
D13
  7
STYLE1
 73
     1
 44
1.0
1001
ACAD
1000
MTEXTBEGIN
1070
    73
1070
     1
1070
    44
1040
1.0
1070
    74
1070
     0
1000
MTEXTEND
  0
LINE
  5
2141E
330
747D
100
AcDbEntity
  8
細線
 48
50.0
100
AcDbLine
 10
6822.123148224466
 20
1802.248078420808
 30
0.0
 11
6943.564716021748
 21
1923.689646218094
 31
0.0
  0
LINE
  5
2141F
330
747D
100
AcDbEntity
  8
部品1
 48
50.0
100
AcDbLine
 10
6892.123148224462
 20
1763.689646218094
 30
0.0
 11
7352.123148224461
 21
1763.689646218094
 31
0.0
  0
LINE
  5
21420
330
747D
100
AcDbEntity
  8
部品1
 48
50.0
100
AcDbLine
 10
6822.123148224462
 20
1923.689646218094
 30
0.0
 11
7002.123148224462
 21
1923.689646218094
 31
0.0
  0
LEADER
  5
21421
330
747D
100
AcDbEntity
  8
寸法
 48
50.0
100
AcDbLeader
  3
INABA_S50G
 71
     0
 73
     0
 75
     1
 40
132.9441738241594
 41
490.0787401574802
 76
     3
 10
7140.680943762473
 20
2401.348664589497
 30
0.0
 10
6917.410313262459
 20
2130.131612057025
 30
0.0
 10
6792.410313262459
 20
2130.131612057025
 30
0.0
340
21422
213
-20.50276907354419
223
30.78492082892717
233
0.0
  0
MTEXT
  5
21422
102
{ACAD_REACTORS
330
21421
102
}
330
747D
100
AcDbEntity
  8
寸法
 62
     7
 48
50.0
100
AcDbMText
 10
6787.913082336003
 20
2190.818778140178
 30
0.0
 40
100.0
 41
0.0
 71
     6
 72
     1
  1
\A1;D10@300
  7
STYLE1
 73
     1
 44
1.0
1001
ACAD
1000
MTEXTBEGIN
1070
    73
1070
     1
1070
    44
1040
1.0
1070
    74
1070
     0
1000
MTEXTEND
  0
LINE
  5
21423
330
747D
100
AcDbEntity
  8
Ｇ．Ｌ
 48
50.0
100
AcDbLine
 10
6484.448270933267
 20
2303.689646218094
 30
0.0
 11
7002.123148224462
 21
2303.689646218094
 31
0.0
  0
LEADER
  5
21424
330
747D
100
AcDbEntity
  8
寸法
 48
50.0
100
AcDbLeader
  3
INABA_S50G
 71
     0
 73
     0
 75
     1
 40
100.0
 41
585.0000000000001
 76
     3
 10
7102.123148224464
 20
2703.689646218094
 30
0.0
 10
7069.735891827471
 20
2894.334921220647
 30
0.0
 10
6944.735891827471
 20
2894.334921220647
 30
0.0
340
21425
  0
MTEXT
  5
21425
102
{ACAD_REACTORS
330
21424
102
}
330
747D
100
AcDbEntity
  8
寸法
 62
     7
 48
50.0
100
AcDbMText
 10
6919.735891827471
 20
2969.334921220647
 30
0.0
 40
100.0
 41
0.0
 71
     6
 72
     1
  1
\A1;金コテ押エ
  7
STYLE1
 73
     1
 44
1.0
1001
ACAD
1000
MTEXTBEGIN
1070
    73
1070
     1
1070
    44
1040
1.0
1070
    74
1070
     0
1000
MTEXTEND
  0
LINE
  5
21426
330
747D
100
AcDbEntity
  8
細線
 48
50.0
100
AcDbLine
 10
6845.620478745805
 20
1623.689646218094
 30
0.0
 11
6965.620478745805
 21
1743.689646218094
 31
0.0
  0
LINE
  5
21427
330
747D
100
AcDbEntity
  8
部品1
 48
50.0
100
AcDbLine
 10
6892.123148224462
 20
1743.689646218094
 30
0.0
 11
7352.123148224461
 21
1743.689646218094
 31
0.0
  0
LINE
  5
21428
330
747D
100
AcDbEntity
  8
細線
 48
50.0
100
AcDbLine
 10
6912.972399653823
 20
1623.689646218094
 30
0.0
 11
7032.972399653823
 21
1743.689646218094
 31
0.0
  0
LINE
  5
21429
330
747D
100
AcDbEntity
  8
細線
 48
50.0
100
AcDbLine
 10
6879.296439199818
 20
1623.689646218094
 30
0.0
 11
6999.296439199817
 21
1743.689646218094
 31
0.0
  0
DIMENSION
  5
2142A
330
747D
100
AcDbEntity
  8
寸法
 48
50.0
100
AcDbDimension
  2
*D38
 10
6147.653780425308
 20
1623.689646218094
 30
0.0
 11
6147.653780425308
 21
2200.484582815804
 31
0.0
 70
   160
  1
540
 71
     5
 42
1080.0
  3
INABA_S50GUP
100
AcDbAlignedDimension
 13
7002.123148224464
 23
2703.689646218094
 33
0.0
 14
6742.123148224465
 24
1623.689646218094
 34
0.0
 50
90.0
100
AcDbRotatedDimension
1001
ACAD
1000
DSTYLE
1002
{
1070
   140
1040
100.0
1002
}
  0
LEADER
  5
2142B
330
747D
100
AcDbEntity
  8
寸法
 48
50.0
100
AcDbLeader
  3
INABA_S50G
 71
     0
 73
     0
 75
     1
 40
101.39087296526
 41
170.0787401574803
 76
     3
 10
6961.868772371899
 20
1773.689646218094
 30
0.0
 10
6724.972486695754
 20
1428.715956431328
 30
0.0
 10
6599.972486695754
 20
1428.715956431328
 30
0.0
340
2142C
  0
MTEXT
  5
2142C
102
{ACAD_REACTORS
330
2142B
102
}
330
747D
100
AcDbEntity
  8
寸法
 62
     7
 48
50.0
100
AcDbMText
 10
6574.972486695753
 20
1504.411392913958
 30
0.0
 40
100.0
 41
0.0
 71
     6
 72
     1
  1
D10
  7
STYLE1
 73
     1
 44
1.0
1001
ACAD
1000
MTEXTBEGIN
1070
    73
1070
     1
1070
    44
1040
1.0
1070
    74
1070
     0
1000
MTEXTEND
  0
DIMENSION
  5
2142D
330
747D
100
AcDbEntity
  8
寸法
 48
50.0
100
AcDbDimension
  2
*D39
 10
7422.123148224464
 20
1164.73753976216
 30
0.0
 11
7122.123148224464
 21
1164.73753976216
 31
0.0
 70
   160
  1
300
 71
     5
 42
600.0
  3
INABA_S50GUP
100
AcDbAlignedDimension
 13
6822.123148224463
 23
1463.689646218094
 33
0.0
 14
7422.123148224464
 24
1463.689646218094
 34
0.0
100
AcDbRotatedDimension
1001
ACAD
1000
DSTYLE
1002
{
1070
   140
1040
100.0
1002
}
  0
LINE
  5
2142E
330
747D
100
AcDbEntity
  8
部品1
 48
50.0
100
AcDbLine
 10
7522.123148224462
 20
1623.689646218094
 30
0.0
 11
6722.123148224461
 21
1623.689646218094
 31
0.0
  0
LINE
  5
2142F
330
747D
100
AcDbEntity
  8
部品1
 48
50.0
100
AcDbLine
 10
7522.123148224462
 20
1463.689646218094
 30
0.0
 11
6722.123148224461
 21
1463.689646218094
 31
0.0
  0
DIMENSION
  5
21430
330
747D
100
AcDbEntity
  8
寸法
 48
50.0
100
AcDbDimension
  2
*D40
 10
6378.852803892855
 20
1623.689646218094
 30
0.0
 11
6378.852803892855
 21
1798.016240610237
 31
0.0
 70
   160
  1
150
 71
     5
 42
300.0
  3
INABA_S50GUP
100
AcDbAlignedDimension
 13
6842.123148224463
 23
1923.689646218094
 33
0.0
 14
6742.123148224465
 24
1623.689646218094
 34
0.0
 50
90.0
100
AcDbRotatedDimension
1001
ACAD
1000
DSTYLE
1002
{
1070
   140
1040
100.0
1002
}
  0
LINE
  5
21431
330
747D
100
AcDbEntity
  8
部品1
 48
50.0
100
AcDbLine
 10
6822.123148224462
 20
1623.689646218094
 30
0.0
 11
6822.123148224462
 21
1923.689646218094
 31
0.0
  0
LINE
  5
21432
330
747D
100
AcDbEntity
  8
細線
 48
50.0
100
AcDbLine
 10
6888.994329140958
 20
1593.689646218094
 30
0.0
 11
6880.955853368025
 21
1623.689646218094
 31
0.0
  0
LINE
  5
21433
330
747D
100
AcDbEntity
  8
細線
 48
50.0
100
AcDbLine
 10
6790.384272956896
 20
1593.689646218094
 30
0.0
 11
6782.345797183963
 21
1623.689646218094
 31
0.0
  0
LINE
  5
21434
330
747D
100
AcDbEntity
  8
細線
 48
50.0
100
AcDbLine
 10
6755.550877940848
 20
1463.689646218094
 30
0.0
 11
6798.42274872983
 21
1623.689646218094
 31
0.0
  0
LINE
  5
21435
330
747D
100
AcDbEntity
  8
細線
 48
50.0
100
AcDbLine
 10
6763.589353713786
 20
1493.689646218094
 30
0.0
 11
6771.627829486719
 21
1463.689646218094
 31
0.0
  0
LINE
  5
21436
330
747D
100
AcDbEntity
  8
部品1
 48
50.0
100
AcDbLine
 10
6722.123148224461
 20
1463.689646218094
 30
0.0
 11
6722.123148224461
 21
1623.689646218094
 31
0.0
  0
LINE
  5
21437
330
747D
100
AcDbEntity
  8
細線
 48
50.0
100
AcDbLine
 10
6862.199409897846
 20
1493.689646218094
 30
0.0
 11
6870.237885670779
 21
1463.689646218094
 31
0.0
  0
LINE
  5
21438
330
747D
100
AcDbEntity
  8
細線
 48
50.0
100
AcDbLine
 10
6854.16093412491
 20
1463.689646218094
 30
0.0
 11
6897.032804913891
 21
1623.689646218094
 31
0.0
  0
LINE
  5
21439
330
747D
100
AcDbEntity
  8
細線
 48
50.0
100
AcDbLine
 10
6822.123148224462
 20
1869.599999328829
 30
0.0
 11
6876.21279511373
 21
1923.689646218094
 31
0.0
  0
LINE
  5
2143A
330
747D
100
AcDbEntity
  8
細線
 48
50.0
100
AcDbLine
 10
6822.123148224462
 20
1835.924038874819
 30
0.0
 11
6909.888755567743
 21
1923.689646218094
 31
0.0
  0
LINE
  5
2143B
330
747D
100
AcDbEntity
  8
部品1
 48
50.0
100
AcDbLine
 10
6892.123148224462
 20
1743.689646218094
 30
0.0
 11
6892.123148224462
 21
1763.689646218094
 31
0.0
  0
TEXT
  5
2143C
330
747D
100
AcDbEntity
  8
部品1
 48
50.0
100
AcDbText
 10
6632.796537507641
 20
2313.055473120805
 30
0.0
 40
100.0
  1
G.L
  7
STYLE1
100
AcDbText
  0
LINE
  5
2143D
330
747D
100
AcDbEntity
  8
部品1
 48
50.0
100
AcDbLine
 10
6630.705182137645
 20
2387.159771066517
 30
0.0
 11
6582.513683087116
 21
2303.689646218094
 31
0.0
  0
LINE
  5
2143E
330
747D
100
AcDbEntity
  8
部品1
 48
50.0
100
AcDbLine
 10
6534.322184036589
 20
2387.159771066517
 30
0.0
 11
6630.705182137645
 21
2387.159771066517
 31
0.0
  0
LINE
  5
2143F
330
747D
100
AcDbEntity
  8
部品1
 48
50.0
100
AcDbLine
 10
6534.322184036589
 20
2387.159771066517
 30
0.0
 11
6582.513683087116
 21
2303.689646218094
 31
0.0
  0
LINE
  5
21440
330
747D
100
AcDbEntity
  8
細線
100
AcDbLine
 10
8468.804361743694
 20
2403.689646218095
 30
0.0
 11
8768.804361743693
 21
2703.689646218094
 31
0.0
  0
LINE
  5
21441
330
747D
100
AcDbEntity
  8
細線
100
AcDbLine
 10
8428.804361743694
 20
2403.689646218095
 30
0.0
 11
8728.804361743693
 21
2703.689646218094
 31
0.0
  0
LEADER
  5
21442
330
747D
100
AcDbEntity
  8
寸法
 48
50.0
100
AcDbLeader
  3
INABA_S50G
 71
     0
 73
     0
 74
     0
 75
     1
 40
100.0
 41
154.6599025766975
 76
     3
 10
8506.810729333281
 20
2638.997376804494
 30
0.0
 10
8561.092279817401
 20
2863.037264914229
 30
0.0
 10
8686.092279817401
 20
2863.037264914229
 30
0.0
340
21443
  0
MTEXT
  5
21443
102
{ACAD_REACTORS
330
21442
102
}
330
747D
100
AcDbEntity
  8
寸法
 62
     7
 48
50.0
100
AcDbMText
 10
8711.092279817401
 20
2938.037264914229
 30
0.0
 40
100.0
 41
0.0
 71
     4
 72
     1
  1
C.B
  7
STYLE1
 73
     1
 44
1.0
1001
ACAD
1000
MTEXTBEGIN
1070
    73
1070
     1
1070
    44
1040
1.0
1070
    74
1070
     0
1000
MTEXTEND
  0
LINE
  5
21444
330
747D
100
AcDbEntity
  8
細線
 48
50.0
100
AcDbLine
 10
8559.353468947072
 20
2223.689646218095
 30
0.0
 11
8551.314993174139
 21
2253.689646218095
 31
0.0
  0
LINE
  5
21445
330
747D
100
AcDbEntity
  8
細線
 48
50.0
100
AcDbLine
 10
8524.520073931027
 20
2093.689646218095
 30
0.0
 11
8567.391944720009
 21
2253.689646218095
 31
0.0
  0
LINE
  5
21446
330
747D
100
AcDbEntity
  8
部品1
 48
50.0
100
AcDbLine
 10
8843.991767422267
 20
2703.689646218094
 30
0.0
 11
8063.991767422267
 21
2703.689646218094
 31
0.0
  0
LINE
  5
21447
330
747D
100
AcDbEntity
  8
部品1
100
AcDbLine
 10
7818.291821103438
 20
2093.689646218098
 30
0.0
 11
9089.691713741096
 21
2093.689646218098
 31
0.0
  0
LINE
  5
21448
330
747D
100
AcDbEntity
  8
部品1
100
AcDbLine
 10
7818.291821103438
 20
2253.689646218095
 30
0.0
 11
9089.691713741096
 21
2253.689646218095
 31
0.0
  0
LINE
  5
21449
330
747D
100
AcDbEntity
  8
Ｇ．Ｌ
 48
50.0
100
AcDbLine
 10
7242.123148224462
 20
2403.689646218094
 30
0.0
 11
9270.232107836534
 21
2403.689646218095
 31
0.0
  0
LINE
  5
2144A
330
747D
100
AcDbEntity
  8
細線
 48
50.0
100
AcDbLine
 10
7152.12314822447
 20
1896.516355242746
 30
0.0
 11
7242.123148224462
 21
1986.51635524274
 31
0.0
  0
LINE
  5
2144B
330
747D
100
AcDbEntity
  8
細線
 48
50.0
100
AcDbLine
 10
7152.12314822447
 20
1930.192315696755
 30
0.0
 11
7242.123148224462
 21
2020.19231569675
 31
0.0
  0
LINE
  5
2144C
330
747D
100
AcDbEntity
  8
部品1
 48
50.0
100
AcDbLine
 10
7002.123148224462
 20
1923.689646218094
 30
0.0
 11
7002.123148224462
 21
2703.689646218094
 31
0.0
  0
LINE
  5
2144D
330
747D
100
AcDbEntity
  8
部品1
 48
50.0
100
AcDbLine
 10
7242.123148224462
 20
2703.689646218094
 30
0.0
 11
7242.123148224462
 21
1923.689646218094
 31
0.0
  0
LINE
  5
2144E
330
747D
100
AcDbEntity
  8
部品1
 48
50.0
100
AcDbLine
 10
7132.12314822447
 20
1773.689646218094
 30
0.0
 11
7132.123148224462
 21
2529.007682960901
 31
0.0
  0
LINE
  5
2144F
330
747D
100
AcDbEntity
  8
部品1
 48
50.0
100
AcDbLine
 10
7152.12314822447
 20
1773.689646218094
 30
0.0
 11
7152.123148224461
 21
2529.007682960901
 31
0.0
  0
LEADER
  5
21450
330
747D
100
AcDbEntity
  8
寸法
 48
50.0
100
AcDbLeader
  3
INABA_S50G
 71
     0
 73
     0
 74
     0
 75
     1
 40
101.39087296526
 41
170.0787401574803
 76
     3
 10
7282.123148224463
 20
1773.689646218094
 30
0.0
 10
7336.404698708583
 20
1997.034097845199
 30
0.0
 10
7461.404698708583
 20
1997.034097845199
 30
0.0
340
21451
  0
MTEXT
  5
21451
102
{ACAD_REACTORS
330
21450
102
}
330
747D
100
AcDbEntity
  8
寸法
 62
     7
 48
50.0
100
AcDbMText
 10
7486.404698708582
 20
2072.729534327829
 30
0.0
 40
100.0
 41
0.0
 71
     4
 72
     1
  1
D10
  7
STYLE1
 73
     1
 44
1.0
1001
ACAD
1000
MTEXTBEGIN
1070
    73
1070
     1
1070
    44
1040
1.0
1070
    74
1070
     0
1000
MTEXTEND
  0
TEXT
  5
21452
330
747D
100
AcDbEntity
  8
部品1
 48
50.0
100
AcDbText
 10
7291.259229421932
 20
883.0193877843795
 30
0.0
 40
96.0
  1
基礎断面
  7
STYLE2
100
AcDbText
  0
LINE
  5
21453
330
747D
100
AcDbEntity
  8
部品1
 48
50.0
100
AcDbLine
 10
7889.068728077717
 20
1011.811601579708
 30
0.0
 11
7249.068728077716
 21
1011.811601579708
 31
0.0
  0
LINE
  5
21454
330
747D
100
AcDbEntity
  8
部品1
 48
50.0
100
AcDbLine
 10
7889.068728077717
 20
851.8116015797076
 30
0.0
 11
7249.068728077716
 21
851.8116015797076
 31
0.0
  0
MTEXT
  5
21455
102
{ACAD_REACTORS
330
21456
102
}
330
747D
100
AcDbEntity
  8
寸法
 62
     7
 48
50.0
100
AcDbMText
 10
7630.110114383541
 20
1610.081506750806
 30
0.0
 40
100.0
 41
0.0
 71
     4
 72
     1
  1
\A1;D10@300
  7
STYLE1
 73
     1
 44
1.0
1001
ACAD
1000
MTEXTBEGIN
1070
    73
1070
     1
1070
    44
1040
1.0
1070
    74
1070
     0
1000
MTEXTEND
  0
LEADER
  5
21456
330
747D
100
AcDbEntity
  8
寸法
 48
50.0
100
AcDbLeader
  3
INABA_S50G
 71
     0
 73
     0
 74
     0
 75
     1
 40
132.9441738241594
 41
490.0787401574802
 76
     3
 10
7326.117079376963
 20
1754.975253448187
 30
0.0
 10
7480.110114383541
 20
1518.609419838727
 30
0.0
 10
7605.110114383541
 20
1518.609419838727
 30
0.0
340
21455
  0
MTEXT
  5
21457
102
{ACAD_REACTORS
330
21458
102
}
330
747D
100
AcDbEntity
  8
寸法
 62
     7
 48
50.0
100
AcDbMText
 10
7555.526488580763
 20
1381.481256820325
 30
0.0
 40
100.0
 41
0.0
 71
     4
 72
     1
  1
D13
  7
STYLE1
 73
     1
 44
1.0
1001
ACAD
1000
MTEXTBEGIN
1070
    73
1070
     1
1070
    44
1040
1.0
1070
    74
1070
     0
1000
MTEXTEND
  0
LEADER
  5
21458
330
747D
100
AcDbEntity
  8
寸法
 48
50.0
100
AcDbLeader
  3
INABA_S50G
 71
     0
 73
     0
 74
     0
 75
     1
 40
101.39087296526
 41
174.1421356237309
 76
     3
 10
7122.123148224464
 20
1773.689646218094
 30
0.0
 10
7405.526488580763
 20
1305.785820337695
 30
0.0
 10
7530.526488580763
 20
1305.785820337695
 30
0.0
340
21457
  0
LINE
  5
21459
330
747D
100
AcDbEntity
  8
部品1
 48
50.0
100
AcDbLine
 10
7249.068728077716
 20
1011.811601579708
 30
0.0
 11
7249.068728077716
 21
851.8116015797076
 31
0.0
  0
LINE
  5
2145A
330
747D
100
AcDbEntity
  8
部品1
 48
50.0
100
AcDbLine
 10
7242.123148224462
 20
1923.689646218094
 30
0.0
 11
7422.123148224462
 21
1923.689646218094
 31
0.0
  0
LINE
  5
2145B
330
747D
100
AcDbEntity
  8
細線
 48
50.0
100
AcDbLine
 10
7322.380083285901
 20
1763.689646218094
 30
0.0
 11
7422.123148224462
 21
1863.432711156655
 31
0.0
  0
LINE
  5
2145C
330
747D
100
AcDbEntity
  8
細線
 48
50.0
100
AcDbLine
 10
7288.704122831892
 20
1763.689646218094
 30
0.0
 11
7422.123148224462
 21
1897.108671610667
 31
0.0
  0
LINE
  5
2145D
330
747D
100
AcDbEntity
  8
細線
 48
50.0
100
AcDbLine
 10
7255.028162377875
 20
1763.689646218094
 30
0.0
 11
7415.028162377883
 21
1923.689646218094
 31
0.0
  0
LINE
  5
2145E
330
747D
100
AcDbEntity
  8
細線
 48
50.0
100
AcDbLine
 10
7148.704122831893
 20
1623.689646218094
 30
0.0
 11
7268.704122831891
 21
1743.689646218094
 31
0.0
  0
LINE
  5
2145F
330
747D
100
AcDbEntity
  8
細線
 48
50.0
100
AcDbLine
 10
7115.028162377879
 20
1623.689646218094
 30
0.0
 11
7235.028162377879
 21
1743.689646218094
 31
0.0
  0
LINE
  5
21460
330
747D
100
AcDbEntity
  8
細線
 48
50.0
100
AcDbLine
 10
7182.380083285898
 20
1623.689646218094
 30
0.0
 11
7302.381193092326
 21
1743.690756024518
 31
0.0
  0
LINE
  5
21461
330
747D
100
AcDbEntity
  8
細線
 48
50.0
100
AcDbLine
 10
7086.214441509081
 20
1593.689646218094
 30
0.0
 11
7078.175965736147
 21
1623.689646218094
 31
0.0
  0
LINE
  5
21462
330
747D
100
AcDbEntity
  8
細線
 48
50.0
100
AcDbLine
 10
7059.419522265969
 20
1493.689646218094
 30
0.0
 11
7067.457998038903
 21
1463.689646218094
 31
0.0
  0
LINE
  5
21463
330
747D
100
AcDbEntity
  8
細線
 48
50.0
100
AcDbLine
 10
7051.381046493031
 20
1463.689646218094
 30
0.0
 11
7094.25291728201
 21
1623.689646218094
 31
0.0
  0
LINE
  5
21464
330
747D
100
AcDbEntity
  8
細線
 48
50.0
100
AcDbLine
 10
6987.60438532502
 20
1593.689646218094
 30
0.0
 11
6979.565909552086
 21
1623.689646218094
 31
0.0
  0
LINE
  5
21465
330
747D
100
AcDbEntity
  8
細線
 48
50.0
100
AcDbLine
 10
6960.809466081908
 20
1493.689646218094
 30
0.0
 11
6968.847941854841
 21
1463.689646218094
 31
0.0
  0
LINE
  5
21466
330
747D
100
AcDbEntity
  8
細線
 48
50.0
100
AcDbLine
 10
6952.770990308971
 20
1463.689646218094
 30
0.0
 11
6995.642861097953
 21
1623.689646218094
 31
0.0
  0
LINE
  5
21467
330
747D
100
AcDbEntity
  8
細線
 48
50.0
100
AcDbLine
 10
7283.434553877203
 20
1593.689646218094
 30
0.0
 11
7275.396078104269
 21
1623.689646218094
 31
0.0
  0
LINE
  5
21468
330
747D
100
AcDbEntity
  8
細線
 48
50.0
100
AcDbLine
 10
7184.824497693142
 20
1593.689646218094
 30
0.0
 11
7176.786021920209
 21
1623.689646218094
 31
0.0
  0
LINE
  5
21469
330
747D
100
AcDbEntity
  8
細線
 48
50.0
100
AcDbLine
 10
7149.991102677093
 20
1463.689646218094
 30
0.0
 11
7192.862973466072
 21
1623.689646218094
 31
0.0
  0
LINE
  5
2146A
330
747D
100
AcDbEntity
  8
細線
 48
50.0
100
AcDbLine
 10
7158.029578450026
 20
1493.689646218094
 30
0.0
 11
7166.06805422296
 21
1463.689646218094
 31
0.0
  0
LINE
  5
2146B
330
747D
100
AcDbEntity
  8
細線
 48
50.0
100
AcDbLine
 10
7256.639634634088
 20
1493.689646218094
 30
0.0
 11
7264.678110407022
 21
1463.689646218094
 31
0.0
  0
LINE
  5
2146C
330
747D
100
AcDbEntity
  8
細線
 48
50.0
100
AcDbLine
 10
7248.601158861155
 20
1463.689646218094
 30
0.0
 11
7291.473029650133
 21
1623.689646218094
 31
0.0
  0
CIRCLE
  5
2146D
330
747D
100
AcDbEntity
  8
部品1
 48
50.0
100
AcDbCircle
 10
7122.123148224462
 20
1773.689646218094
 30
0.0
 40
10.0
  0
LINE
  5
2146E
330
747D
100
AcDbEntity
  8
細線
 48
50.0
100
AcDbLine
 10
7112.123148224466
 20
1822.840394788732
 30
0.0
 11
7132.12314822447
 21
1842.840394788735
 31
0.0
  0
LINE
  5
2146F
330
747D
100
AcDbEntity
  8
細線
 48
50.0
100
AcDbLine
 10
7101.955457571221
 20
1846.348664589497
 30
0.0
 11
7132.12314822447
 21
1876.516355242744
 31
0.0
  0
LINE
  5
21470
330
747D
100
AcDbEntity
  8
細線
 48
50.0
100
AcDbLine
 10
6985.620478745805
 20
1763.689646218094
 30
0.0
 11
7132.123148224462
 21
1910.192315696753
 31
0.0
  0
LINE
  5
21471
330
747D
100
AcDbEntity
  8
部品1
 48
50.0
100
AcDbLine
 10
7112.123148224462
 20
1846.348664589497
 30
0.0
 11
7112.123148224462
 21
1773.689646218094
 31
0.0
  0
LINE
  5
21472
330
747D
100
AcDbEntity
  8
細線
 48
50.0
100
AcDbLine
 10
7052.972399653824
 20
1763.689646218094
 30
0.0
 11
7092.123148224462
 21
1802.840394788731
 31
0.0
  0
LINE
  5
21473
330
747D
100
AcDbEntity
  8
部品1
 48
50.0
100
AcDbLine
 10
7092.123148224462
 20
1846.348664589497
 30
0.0
 11
7092.123148224462
 21
1773.689646218094
 31
0.0
  0
LINE
  5
21474
330
747D
100
AcDbEntity
  8
細線
 48
50.0
100
AcDbLine
 10
7019.296439199817
 20
1763.689646218094
 30
0.0
 11
7092.123148224462
 21
1836.516355242742
 31
0.0
  0
ARC
  5
21475
330
747D
100
AcDbEntity
  8
部品1
 48
50.0
100
AcDbCircle
 10
7122.123148224462
 20
1773.689646218094
 30
0.0
 40
30.0
100
AcDbArc
 50
180.0
 51
199.4712206344835
  0
LINE
  5
21476
330
747D
100
AcDbEntity
  8
部品1
 48
50.0
100
AcDbLine
 10
7112.123148224462
 20
1846.348664589497
 30
0.0
 11
7092.123148224462
 21
1846.348664589497
 31
0.0
  0
CIRCLE
  5
21477
330
747D
100
AcDbEntity
  8
部品1
 48
50.0
100
AcDbCircle
 10
6962.123148224462
 20
1773.689646218094
 30
0.0
 40
10.0
  0
CIRCLE
  5
21478
330
747D
100
AcDbEntity
  8
部品1
 48
50.0
100
AcDbCircle
 10
7282.123148224463
 20
1773.689646218094
 30
0.0
 40
10.0
  0
ARC
  5
21479
330
747D
100
AcDbEntity
  8
部品1
 48
50.0
100
AcDbCircle
 10
7122.123148224462
 20
1773.689646218094
 30
0.0
 40
30.0
100
AcDbArc
 50
340.5287793655164
 51
0.0
  0
LINE
  5
2147A
330
747D
100
AcDbEntity
  8
細線
 48
50.0
100
AcDbLine
 10
7152.12314822447
 20
1862.840394788734
 30
0.0
 11
7242.123148224462
 21
1952.840394788731
 31
0.0
  0
LINE
  5
2147B
330
747D
100
AcDbEntity
  8
部品1
 48
50.0
100
AcDbLine
 10
7422.123148224462
 20
1923.689646218094
 30
0.0
 11
7422.123148224462
 21
1623.689646218094
 31
0.0
  0
LINE
  5
2147C
330
747D
100
AcDbEntity
  8
細線
 48
50.0
100
AcDbLine
 10
7418.111806463968
 20
1623.689646218094
 30
0.0
 11
7422.123148224462
 21
1627.700987978591
 31
0.0
  0
LINE
  5
2147D
330
747D
100
AcDbEntity
  8
細線
 48
50.0
100
AcDbLine
 10
7480.654666245325
 20
1593.689646218094
 30
0.0
 11
7472.616190472392
 21
1623.689646218094
 31
0.0
  0
LINE
  5
2147E
330
747D
100
AcDbEntity
  8
細線
 48
50.0
100
AcDbLine
 10
7453.859747002211
 20
1493.689646218094
 30
0.0
 11
7461.898222775144
 21
1463.689646218094
 31
0.0
  0
LINE
  5
2147F
330
747D
100
AcDbEntity
  8
部品1
 48
50.0
100
AcDbLine
 10
7522.123148224462
 20
1463.689646218094
 30
0.0
 11
7522.123148224462
 21
1623.689646218094
 31
0.0
  0
LINE
  5
21480
330
747D
100
AcDbEntity
  8
細線
 48
50.0
100
AcDbLine
 10
7445.821271229277
 20
1463.689646218094
 30
0.0
 11
7488.693142018256
 21
1623.689646218094
 31
0.0
  0
LINE
  5
21481
330
747D
100
AcDbEntity
  8
細線
 48
50.0
100
AcDbLine
 10
7382.044610061264
 20
1593.689646218094
 30
0.0
 11
7374.006134288331
 21
1623.689646218094
 31
0.0
  0
LINE
  5
21482
330
747D
100
AcDbEntity
  8
細線
 48
50.0
100
AcDbLine
 10
7355.249690818149
 20
1493.689646218094
 30
0.0
 11
7363.288166591082
 21
1463.689646218094
 31
0.0
  0
LINE
  5
21483
330
747D
100
AcDbEntity
  8
細線
 48
50.0
100
AcDbLine
 10
7347.211215045216
 20
1463.689646218094
 30
0.0
 11
7390.083085834195
 21
1623.689646218094
 31
0.0
  0
LINE
  5
21484
330
747D
100
AcDbEntity
  8
細線
 48
50.0
100
AcDbLine
 10
7384.435846009954
 20
1623.689646218094
 30
0.0
 11
7422.123148224462
 21
1661.376948432599
 31
0.0
  0
LINE
  5
21485
330
747D
100
AcDbEntity
  8
部品1
 48
50.0
100
AcDbLine
 10
7352.123148224461
 20
1743.689646218094
 30
0.0
 11
7352.123148224461
 21
1763.689646218094
 31
0.0
  0
LINE
  5
21486
330
747D
100
AcDbEntity
  8
部品1
 48
50.0
100
AcDbLine
 10
7889.068728077717
 20
1011.811601579708
 30
0.0
 11
7889.068728077717
 21
851.8116015797076
 31
0.0
  0
ARC
  5
21487
330
747D
100
AcDbEntity
  8
部品1
 48
50.0
100
AcDbCircle
 10
7122.123148224462
 20
2529.007682960901
 30
0.0
 40
30.0
100
AcDbArc
 50
0.0
 51
180.0
  0
LINE
  5
21488
330
747D
100
AcDbEntity
  8
細線
 48
50.0
100
AcDbLine
 10
7152.123148224461
 20
2501.655762052882
 30
0.0
 11
7242.123148224462
 21
2591.655762052882
 31
0.0
  0
LINE
  5
21489
330
747D
100
AcDbEntity
  8
細線
 48
50.0
100
AcDbLine
 10
7151.564032306946
 20
2534.77260658937
 30
0.0
 11
7242.123148224462
 21
2625.331722506891
 31
0.0
  0
LINE
  5
2148A
330
747D
100
AcDbEntity
  8
細線
 48
50.0
100
AcDbLine
 10
7152.123148224466
 20
2165.924038874817
 30
0.0
 11
7242.123148224462
 21
2255.924038874813
 31
0.0
  0
LINE
  5
2148B
330
747D
100
AcDbEntity
  8
細線
 48
50.0
100
AcDbLine
 10
7152.123148224466
 20
2199.599999328829
 30
0.0
 11
7242.123148224462
 21
2289.599999328828
 31
0.0
  0
LINE
  5
2148C
330
747D
100
AcDbEntity
  8
細線
 48
50.0
100
AcDbLine
 10
7002.123148224462
 20
2049.599999328826
 30
0.0
 11
7132.123148224462
 21
2179.599999328827
 31
0.0
  0
LINE
  5
2148D
330
747D
100
AcDbEntity
  8
細線
 48
50.0
100
AcDbLine
 10
7002.123148224462
 20
1982.248078420807
 30
0.0
 11
7132.12314822447
 21
2112.248078420809
 31
0.0
  0
LINE
  5
2148E
330
747D
100
AcDbEntity
  8
細線
 48
50.0
100
AcDbLine
 10
7002.123148224462
 20
2015.924038874817
 30
0.0
 11
7132.123148224465
 21
2145.924038874815
 31
0.0
  0
LINE
  5
2148F
330
747D
100
AcDbEntity
  8
細線
 48
50.0
100
AcDbLine
 10
7152.12314822447
 20
2132.248078420809
 30
0.0
 11
7242.123148224462
 21
2222.248078420806
 31
0.0
  0
CIRCLE
  5
21490
330
747D
100
AcDbEntity
  8
部品1
 48
50.0
100
AcDbCircle
 10
7122.123148224462
 20
2529.007682960901
 30
0.0
 40
10.0
  0
LINE
  5
21491
330
747D
100
AcDbEntity
  8
細線
 48
50.0
100
AcDbLine
 10
7112.123148224466
 20
2461.655762052882
 30
0.0
 11
7132.123148224462
 21
2481.655762052882
 31
0.0
  0
LINE
  5
21492
330
747D
100
AcDbEntity
  8
細線
 48
50.0
100
AcDbLine
 10
7112.123148224462
 20
2495.331722506892
 30
0.0
 11
7132.123148224462
 21
2515.331722506891
 31
0.0
  0
LINE
  5
21493
330
747D
100
AcDbEntity
  8
部品1
 48
50.0
100
AcDbLine
 10
7112.123148224462
 20
2456.348664589497
 30
0.0
 11
7112.123148224462
 21
2529.007682960901
 31
0.0
  0
LINE
  5
21494
330
747D
100
AcDbEntity
  8
部品1
 48
50.0
100
AcDbLine
 10
7092.123148224462
 20
2456.348664589499
 30
0.0
 11
7092.123148224462
 21
2529.007682960902
 31
0.0
  0
LINE
  5
21495
330
747D
100
AcDbEntity
  8
部品1
 48
50.0
100
AcDbLine
 10
7112.123148224462
 20
2456.348664589497
 30
0.0
 11
7092.123148224462
 21
2456.348664589499
 31
0.0
  0
LINE
  5
21496
330
747D
100
AcDbEntity
  8
細線
 48
50.0
100
AcDbLine
 10
7002.123148224462
 20
2385.331722506891
 30
0.0
 11
7092.123148224462
 21
2475.331722506891
 31
0.0
  0
LINE
  5
21497
330
747D
100
AcDbEntity
  8
細線
 48
50.0
100
AcDbLine
 10
7002.123148224462
 20
2419.007682960901
 30
0.0
 11
7092.123148224462
 21
2509.007682960901
 31
0.0
  0
LINE
  5
21498
330
747D
100
AcDbEntity
  8
細線
 48
50.0
100
AcDbLine
 10
7002.123148224462
 20
2351.655762052882
 30
0.0
 11
7106.816050761081
 21
2456.348664589497
 31
0.0
  0
LINE
  5
21499
330
747D
100
AcDbEntity
  8
細線
100
AcDbLine
 10
7116.700000777237
 20
2670.041595230998
 30
0.0
 11
7172.429989415672
 21
2671.679339928387
 31
0.0
  0
LINE
  5
2149A
330
747D
100
AcDbEntity
  8
部品1
 48
50.0
100
AcDbLine
 10
7002.123148224462
 20
2703.689646218094
 30
0.0
 11
7242.123148224462
 21
2703.689646218094
 31
0.0
  0
LINE
  5
2149B
330
747D
100
AcDbEntity
  8
細線
 48
50.0
100
AcDbLine
 10
7002.123148224462
 20
2654.739406138966
 30
0.0
 11
7016.846661035772
 21
2669.462918950272
 31
0.0
  0
LINE
  5
2149C
330
747D
100
AcDbEntity
  8
細線
100
AcDbLine
 10
7002.123148224462
 20
2673.317027862133
 30
0.0
 11
7039.661471730491
 21
2663.490786732382
 31
0.0
  0
LINE
  5
2149D
330
747D
100
AcDbEntity
  8
細線
100
AcDbLine
 10
7039.661471730491
 20
2663.490786732382
 30
0.0
 11
7075.722046477924
 21
2663.490786732382
 31
0.0
  0
LINE
  5
2149E
330
747D
100
AcDbEntity
  8
細線
100
AcDbLine
 10
7075.722046477924
 20
2663.490786732382
 30
0.0
 11
7116.700000777237
 21
2670.041595230998
 31
0.0
  0
LINE
  5
2149F
330
747D
100
AcDbEntity
  8
細線
 48
50.0
100
AcDbLine
 10
7002.123148224462
 20
2621.063445684957
 30
0.0
 11
7044.550489271888
 21
2663.490786732382
 31
0.0
  0
LINE
  5
214A0
330
747D
100
AcDbEntity
  8
細線
100
AcDbLine
 10
7201.934058093899
 20
2670.041595230998
 30
0.0
 11
7242.123148224462
 21
2661.853042034995
 31
0.0
  0
LINE
  5
214A1
330
747D
100
AcDbEntity
  8
細線
100
AcDbLine
 10
7172.429989415672
 20
2671.679339928387
 30
0.0
 11
7201.934058093899
 21
2670.041595230998
 31
0.0
  0
LINE
  5
214A2
330
747D
100
AcDbEntity
  8
細線
 48
50.0
100
AcDbLine
 10
7137.738676352558
 20
2554.623211088989
 30
0.0
 11
7242.123148224462
 21
2659.007682960901
 31
0.0
  0
LINE
  5
214A3
330
747D
100
AcDbEntity
  8
部品1
 48
50.0
100
AcDbLine
 10
8063.991767422267
 20
2703.689646218094
 30
0.0
 11
8063.991767422267
 21
2403.689646218095
 31
0.0
  0
LINE
  5
214A4
330
747D
100
AcDbEntity
  8
細線
100
AcDbLine
 10
8148.804361743694
 20
2403.689646218095
 30
0.0
 11
8448.804361743693
 21
2703.689646218094
 31
0.0
  0
LINE
  5
214A5
330
747D
100
AcDbEntity
  8
細線
100
AcDbLine
 10
8108.804361743692
 20
2403.689646218094
 30
0.0
 11
8408.804361743692
 21
2703.689646218094
 31
0.0
  0
LINE
  5
214A6
330
747D
100
AcDbEntity
  8
細線
 48
50.0
100
AcDbLine
 10
8130.079849194785
 20
2093.689646218095
 30
0.0
 11
8172.951719983769
 21
2253.689646218095
 31
0.0
  0
LINE
  5
214A7
330
747D
100
AcDbEntity
  8
細線
 48
50.0
100
AcDbLine
 10
8138.118324967718
 20
2123.689646218095
 30
0.0
 11
8146.156800740653
 21
2093.689646218095
 31
0.0
  0
LINE
  5
214A8
330
747D
100
AcDbEntity
  8
細線
100
AcDbLine
 10
8170.732491891106
 20
2253.689646218095
 30
0.0
 11
8020.732491891097
 21
2403.689646218094
 31
0.0
  0
LINE
  5
214A9
330
747D
100
AcDbEntity
  8
細線
 48
50.0
100
AcDbLine
 10
8066.303188026774
 20
2223.689646218095
 30
0.0
 11
8058.264712253841
 21
2253.689646218095
 31
0.0
  0
LINE
  5
214AA
330
747D
100
AcDbEntity
  8
細線
 48
50.0
100
AcDbLine
 10
8031.469793010728
 20
2093.689646218095
 30
0.0
 11
8074.341663799707
 21
2253.689646218095
 31
0.0
  0
LINE
  5
214AB
330
747D
100
AcDbEntity
  8
細線
 48
50.0
100
AcDbLine
 10
7967.693131842709
 20
2223.689646218095
 30
0.0
 11
7959.654656069776
 21
2253.689646218095
 31
0.0
  0
LINE
  5
214AC
330
747D
100
AcDbEntity
  8
細線
 48
50.0
100
AcDbLine
 10
7869.08307565865
 20
2223.689646218095
 30
0.0
 11
7861.044599885717
 21
2253.689646218095
 31
0.0
  0
LINE
  5
214AD
330
747D
100
AcDbEntity
  8
細線
 48
50.0
100
AcDbLine
 10
7932.859736826664
 20
2093.689646218095
 30
0.0
 11
7975.731607615642
 21
2253.689646218095
 31
0.0
  0
LINE
  5
214AE
330
747D
100
AcDbEntity
  8
部品1
100
AcDbLine
 10
7818.291821103438
 20
2253.689646218095
 30
0.0
 11
7818.291821103438
 21
2093.689646218098
 31
0.0
  0
LINE
  5
214AF
330
747D
100
AcDbEntity
  8
細線
 48
50.0
100
AcDbLine
 10
7834.249680642606
 20
2093.689646218095
 30
0.0
 11
7877.121551431584
 21
2253.689646218095
 31
0.0
  0
LINE
  5
214B0
330
747D
100
AcDbEntity
  8
細線
 48
50.0
100
AcDbLine
 10
7842.28815641554
 20
2123.689646218095
 30
0.0
 11
7850.326632188473
 21
2093.689646218095
 31
0.0
  0
LINE
  5
214B1
330
747D
100
AcDbEntity
  8
細線
 48
50.0
100
AcDbLine
 10
8039.508268783661
 20
2123.689646218095
 30
0.0
 11
8047.546744556596
 21
2093.689646218095
 31
0.0
  0
LINE
  5
214B2
330
747D
100
AcDbEntity
  8
細線
 48
50.0
100
AcDbLine
 10
7940.898212599598
 20
2123.689646218095
 30
0.0
 11
7948.936688372531
 21
2093.689646218095
 31
0.0
  0
LINE
  5
214B3
330
747D
100
AcDbEntity
  8
部品1
100
AcDbLine
 10
7918.291821103437
 20
2403.689646218095
 30
0.0
 11
7918.291821103439
 21
2253.689646218095
 31
0.0
  0
LINE
  5
214B4
330
747D
100
AcDbEntity
  8
細線
100
AcDbLine
 10
8090.732491891088
 20
2253.689646218095
 30
0.0
 11
7940.732491891082
 21
2403.689646218095
 31
0.0
  0
LINE
  5
214B5
330
747D
100
AcDbEntity
  8
細線
100
AcDbLine
 10
8130.7324918911
 20
2253.689646218095
 30
0.0
 11
7980.732491891102
 21
2403.689646218095
 31
0.0
  0
LINE
  5
214B6
330
747D
100
AcDbEntity
  8
細線
 48
50.0
100
AcDbLine
 10
8460.743412763012
 20
2223.689646218095
 30
0.0
 11
8452.704936990079
 21
2253.689646218095
 31
0.0
  0
LINE
  5
214B7
330
747D
100
AcDbEntity
  8
細線
 48
50.0
100
AcDbLine
 10
8425.910017746966
 20
2093.689646218095
 30
0.0
 11
8468.781888535945
 21
2253.689646218095
 31
0.0
  0
LINE
  5
214B8
330
747D
100
AcDbEntity
  8
細線
 48
50.0
100
AcDbLine
 10
8362.133356578954
 20
2223.689646218095
 30
0.0
 11
8354.094880806021
 21
2253.689646218095
 31
0.0
  0
LINE
  5
214B9
330
747D
100
AcDbEntity
  8
細線
 48
50.0
100
AcDbLine
 10
8263.523300394897
 20
2223.689646218095
 30
0.0
 11
8255.484824621964
 21
2253.689646218095
 31
0.0
  0
LINE
  5
214BA
330
747D
100
AcDbEntity
  8
細線
 48
50.0
100
AcDbLine
 10
8228.689905378848
 20
2093.689646218095
 30
0.0
 11
8271.56177616783
 21
2253.689646218095
 31
0.0
  0
LINE
  5
214BB
330
747D
100
AcDbEntity
  8
細線
 48
50.0
100
AcDbLine
 10
8327.299961562909
 20
2093.689646218095
 30
0.0
 11
8370.171832351887
 21
2253.689646218095
 31
0.0
  0
LINE
  5
214BC
330
747D
100
AcDbEntity
  8
細線
 48
50.0
100
AcDbLine
 10
8164.913244210831
 20
2223.689646218095
 30
0.0
 11
8156.874768437898
 21
2253.689646218095
 31
0.0
  0
LINE
  5
214BD
330
747D
100
AcDbEntity
  8
細線
 48
50.0
100
AcDbLine
 10
8335.338437335842
 20
2123.689646218095
 30
0.0
 11
8343.376913108775
 21
2093.689646218095
 31
0.0
  0
LINE
  5
214BE
330
747D
100
AcDbEntity
  8
細線
 48
50.0
100
AcDbLine
 10
8236.728381151785
 20
2123.689646218095
 30
0.0
 11
8244.766856924718
 21
2093.689646218095
 31
0.0
  0
LINE
  5
214BF
330
747D
100
AcDbEntity
  8
細線
 48
50.0
100
AcDbLine
 10
8433.948493519899
 20
2123.689646218095
 30
0.0
 11
8441.986969292832
 21
2093.689646218095
 31
0.0
  0
LINE
  5
214C0
330
747D
100
AcDbEntity
  8
細線
 48
50.0
100
AcDbLine
 10
8532.558549703962
 20
2123.689646218095
 30
0.0
 11
8540.597025476895
 21
2093.689646218095
 31
0.0
  0
LINE
  5
214C1
330
747D
100
AcDbEntity
  8
細線
100
AcDbLine
 10
8490.732491891106
 20
2253.689646218095
 30
0.0
 11
8340.732491891094
 21
2403.689646218095
 31
0.0
  0
LINE
  5
214C2
330
747D
100
AcDbEntity
  8
細線
100
AcDbLine
 10
8450.732491891104
 20
2253.689646218095
 30
0.0
 11
8300.732491891089
 21
2403.689646218095
 31
0.0
  0
LINE
  5
214C3
330
747D
100
AcDbEntity
  8
細線
100
AcDbLine
 10
8410.732491891089
 20
2253.689646218095
 30
0.0
 11
8260.732491891088
 21
2403.689646218095
 31
0.0
  0
LINE
  5
214C4
330
747D
100
AcDbEntity
  8
細線
100
AcDbLine
 10
8063.991767422267
 20
2678.87705189667
 30
0.0
 11
8088.804361743692
 21
2703.689646218094
 31
0.0
  0
LINE
  5
214C5
330
747D
100
AcDbEntity
  8
細線
100
AcDbLine
 10
8063.991767422267
 20
2638.877051896671
 30
0.0
 11
8128.804361743693
 21
2703.689646218094
 31
0.0
  0
LINE
  5
214C6
330
747D
100
AcDbEntity
  8
細線
 48
50.0
100
AcDbLine
 10
9869.547051748876
 20
1911.453758639607
 30
0.0
 11
9957.312659092156
 21
1999.219365982883
 31
0.0
  0
LINE
  5
214C7
330
747D
100
AcDbEntity
  8
細線
 48
50.0
100
AcDbLine
 10
9869.547051748881
 20
1877.777798185597
 30
0.0
 11
9990.988619546163
 21
1999.219365982883
 31
0.0
  0
LINE
  5
214C8
330
747D
100
AcDbEntity
  8
細線
 48
50.0
100
AcDbLine
 10
9869.547051748876
 20
1945.129719093617
 30
0.0
 11
9923.636698638144
 21
1999.219365982883
 31
0.0
  0
LINE
  5
214C9
330
747D
100
AcDbEntity
  8
細線
 48
50.0
100
AcDbLine
 10
10033.04438227022
 20
1839.219365982883
 30
0.0
 11
10179.54705174887
 21
1985.722035461542
 31
0.0
  0
LINE
  5
214CA
330
747D
100
AcDbEntity
  8
部品1
 48
50.0
100
AcDbLine
 10
10179.54705174888
 20
1849.219365982883
 30
0.0
 11
10179.54705174887
 21
2493.596339721769
 31
0.0
  0
LINE
  5
214CB
330
747D
100
AcDbEntity
  8
部品1
 48
50.0
100
AcDbLine
 10
9869.547051748876
 20
1699.219365982883
 30
0.0
 11
9869.547051748876
 21
1999.219365982883
 31
0.0
  0
LINE
  5
214CC
330
747D
100
AcDbEntity
  8
部品1
 48
50.0
100
AcDbLine
 10
9573.387845835856
 20
1011.811601579708
 30
0.0
 11
9573.387845835856
 21
851.8116015797076
 31
0.0
  0
LINE
  5
214CD
330
747D
100
AcDbEntity
  8
部品1
 48
50.0
100
AcDbLine
 10
9769.547051748876
 20
1539.219365982883
 30
0.0
 11
9769.547051748876
 21
1699.219365982883
 31
0.0
  0
LINE
  5
214CE
330
747D
100
AcDbEntity
  8
細線
 48
50.0
100
AcDbLine
 10
10098.80495001744
 20
1539.219365982883
 30
0.0
 11
10141.67682080642
 21
1699.219365982883
 31
0.0
  0
LINE
  5
214CF
330
747D
100
AcDbEntity
  8
細線
 48
50.0
100
AcDbLine
 10
10133.63834503349
 20
1669.219365982883
 30
0.0
 11
10125.59986926056
 21
1699.219365982883
 31
0.0
  0
LINE
  5
214D0
330
747D
100
AcDbEntity
  8
細線
 48
50.0
100
AcDbLine
 10
10000.19489383338
 20
1539.219365982883
 30
0.0
 11
10043.06676462236
 21
1699.219365982883
 31
0.0
  0
LINE
  5
214D1
330
747D
100
AcDbEntity
  8
細線
 48
50.0
100
AcDbLine
 10
9901.584837649323
 20
1539.219365982883
 30
0.0
 11
9944.456708438305
 21
1699.219365982883
 31
0.0
  0
LINE
  5
214D2
330
747D
100
AcDbEntity
  8
細線
 48
50.0
100
AcDbLine
 10
10035.02828884943
 20
1669.219365982883
 30
0.0
 11
10026.9898130765
 21
1699.219365982883
 31
0.0
  0
LINE
  5
214D3
330
747D
100
AcDbEntity
  8
細線
 48
50.0
100
AcDbLine
 10
9936.418232665372
 20
1669.219365982883
 30
0.0
 11
9928.379756892439
 21
1699.219365982883
 31
0.0
  0
LINE
  5
214D4
330
747D
100
AcDbEntity
  8
細線
 48
50.0
100
AcDbLine
 10
9802.974781465263
 20
1539.219365982883
 30
0.0
 11
9845.846652254245
 21
1699.219365982883
 31
0.0
  0
LINE
  5
214D5
330
747D
100
AcDbEntity
  8
細線
 48
50.0
100
AcDbLine
 10
9837.80817648131
 20
1669.219365982883
 30
0.0
 11
9829.769700708377
 21
1699.219365982883
 31
0.0
  0
LINE
  5
214D6
330
747D
100
AcDbEntity
  8
細線
 48
50.0
100
AcDbLine
 10
9909.62331342226
 20
1569.219365982883
 30
0.0
 11
9917.661789195193
 21
1539.219365982883
 31
0.0
  0
LINE
  5
214D7
330
747D
100
AcDbEntity
  8
細線
 48
50.0
100
AcDbLine
 10
9811.013257238199
 20
1569.219365982883
 30
0.0
 11
9819.051733011134
 21
1539.219365982883
 31
0.0
  0
LINE
  5
214D8
330
747D
100
AcDbEntity
  8
細線
 48
50.0
100
AcDbLine
 10
10106.84342579038
 20
1569.219365982883
 30
0.0
 11
10114.88190156331
 21
1539.219365982883
 31
0.0
  0
LINE
  5
214D9
330
747D
100
AcDbEntity
  8
細線
 48
50.0
100
AcDbLine
 10
10008.23336960632
 20
1569.219365982883
 30
0.0
 11
10016.27184537925
 21
1539.219365982883
 31
0.0
  0
LINE
  5
214DA
330
747D
100
AcDbEntity
  8
細線
 48
50.0
100
AcDbLine
 10
9960.396303178237
 20
1699.219365982883
 30
0.0
 11
10080.39630317824
 21
1819.219365982883
 31
0.0
  0
LINE
  5
214DB
330
747D
100
AcDbEntity
  8
細線
 48
50.0
100
AcDbLine
 10
9926.72034272423
 20
1699.219365982883
 30
0.0
 11
10046.72034272423
 21
1819.219365982883
 31
0.0
  0
LINE
  5
214DC
330
747D
100
AcDbEntity
  8
細線
 48
50.0
100
AcDbLine
 10
9893.044382270218
 20
1699.219365982883
 30
0.0
 11
10013.04438227022
 21
1819.219365982883
 31
0.0
  0
LINE
  5
214DD
330
747D
100
AcDbEntity
  8
部品1
 48
50.0
100
AcDbLine
 10
9939.547051748876
 20
1819.219365982883
 30
0.0
 11
9939.547051748876
 21
1839.219365982883
 31
0.0
  0
LINE
  5
214DE
330
747D
100
AcDbEntity
  8
細線
 48
50.0
100
AcDbLine
 10
10149.37936109563
 20
1921.878384354286
 30
0.0
 11
10179.54705174888
 21
1952.046075007532
 31
0.0
  0
LINE
  5
214DF
330
747D
100
AcDbEntity
  8
部品1
 48
50.0
100
AcDbLine
 10
10159.54705174887
 20
1921.878384354286
 30
0.0
 11
10139.54705174887
 21
1921.878384354286
 31
0.0
  0
ARC
  5
214E0
330
747D
100
AcDbEntity
  8
部品1
 48
50.0
100
AcDbCircle
 10
10169.54705174887
 20
1849.219365982883
 30
0.0
 40
30.0
100
AcDbArc
 50
180.0
 51
199.4712206344835
  0
LINE
  5
214E1
330
747D
100
AcDbEntity
  8
細線
 48
50.0
100
AcDbLine
 10
10100.39630317823
 20
1839.219365982883
 30
0.0
 11
10139.54705174887
 21
1878.37011455352
 31
0.0
  0
LINE
  5
214E2
330
747D
100
AcDbEntity
  8
細線
 48
50.0
100
AcDbLine
 10
10066.72034272423
 20
1839.219365982883
 30
0.0
 11
10139.54705174887
 21
1912.046075007531
 31
0.0
  0
LINE
  5
214E3
330
747D
100
AcDbEntity
  8
部品1
 48
50.0
100
AcDbLine
 10
10139.54705174887
 20
1921.878384354286
 30
0.0
 11
10139.54705174887
 21
1849.219365982883
 31
0.0
  0
LINE
  5
214E4
330
747D
100
AcDbEntity
  8
部品1
 48
50.0
100
AcDbLine
 10
10159.54705174887
 20
1921.878384354286
 30
0.0
 11
10159.54705174887
 21
1849.219365982883
 31
0.0
  0
CIRCLE
  5
214E5
330
747D
100
AcDbEntity
  8
部品1
 48
50.0
100
AcDbCircle
 10
10169.54705174887
 20
1849.219365982883
 30
0.0
 40
10.0
  0
LINE
  5
214E6
330
747D
100
AcDbEntity
  8
細線
 48
50.0
100
AcDbLine
 10
10159.54705174888
 20
1898.370114553521
 30
0.0
 11
10179.54705174888
 21
1918.370114553523
 31
0.0
  0
CIRCLE
  5
214E7
330
747D
100
AcDbEntity
  8
部品1
 48
50.0
100
AcDbCircle
 10
10009.54705174887
 20
1849.219365982883
 30
0.0
 40
10.0
  0
LINE
  5
214E8
330
747D
100
AcDbEntity
  8
部品1
 48
50.0
100
AcDbLine
 10
8843.991767422267
 20
2403.689646218095
 30
0.0
 11
8843.991767422267
 21
2703.689646218094
 31
0.0
  0
LINE
  5
214E9
330
747D
100
AcDbEntity
  8
細線
100
AcDbLine
 10
8989.691713741096
 20
2354.730424368092
 30
0.0
 11
8940.732491891091
 21
2403.689646218095
 31
0.0
  0
LINE
  5
214EA
330
747D
100
AcDbEntity
  8
細線
100
AcDbLine
 10
8989.691713741098
 20
2314.730424368082
 30
0.0
 11
8900.732491891092
 21
2403.689646218095
 31
0.0
  0
LINE
  5
214EB
330
747D
100
AcDbEntity
  8
細線
 48
50.0
100
AcDbLine
 10
8855.183637499257
 20
2223.689646218095
 30
0.0
 11
8847.145161726322
 21
2253.689646218095
 31
0.0
  0
LINE
  5
214EC
330
747D
100
AcDbEntity
  8
細線
 48
50.0
100
AcDbLine
 10
8918.96029866727
 20
2093.689646218095
 30
0.0
 11
8961.832169456249
 21
2253.689646218095
 31
0.0
  0
LINE
  5
214ED
330
747D
100
AcDbEntity
  8
細線
 48
50.0
100
AcDbLine
 10
8953.793693683318
 20
2223.689646218095
 30
0.0
 11
8945.755217910384
 21
2253.689646218095
 31
0.0
  0
LINE
  5
214EE
330
747D
100
AcDbEntity
  8
細線
 48
50.0
100
AcDbLine
 10
8756.573581315194
 20
2223.689646218095
 30
0.0
 11
8748.535105542261
 21
2253.689646218095
 31
0.0
  0
LINE
  5
214EF
330
747D
100
AcDbEntity
  8
細線
 48
50.0
100
AcDbLine
 10
8657.963525131135
 20
2223.689646218095
 30
0.0
 11
8649.9250493582
 21
2253.689646218095
 31
0.0
  0
LINE
  5
214F0
330
747D
100
AcDbEntity
  8
細線
 48
50.0
100
AcDbLine
 10
8721.740186299147
 20
2093.689646218095
 30
0.0
 11
8764.612057088125
 21
2253.689646218095
 31
0.0
  0
LINE
  5
214F1
330
747D
100
AcDbEntity
  8
細線
 48
50.0
100
AcDbLine
 10
8820.350242483208
 20
2093.689646218095
 30
0.0
 11
8863.222113272186
 21
2253.689646218095
 31
0.0
  0
LINE
  5
214F2
330
747D
100
AcDbEntity
  8
細線
 48
50.0
100
AcDbLine
 10
8623.130130115089
 20
2093.689646218095
 30
0.0
 11
8666.002000904068
 21
2253.689646218095
 31
0.0
  0
LINE
  5
214F3
330
747D
100
AcDbEntity
  8
細線
 48
50.0
100
AcDbLine
 10
8631.168605888023
 20
2123.689646218095
 30
0.0
 11
8639.207081660956
 21
2093.689646218095
 31
0.0
  0
LINE
  5
214F4
330
747D
100
AcDbEntity
  8
細線
 48
50.0
100
AcDbLine
 10
8729.778662072083
 20
2123.689646218095
 30
0.0
 11
8737.817137845018
 21
2093.689646218095
 31
0.0
  0
LINE
  5
214F5
330
747D
100
AcDbEntity
  8
細線
 48
50.0
100
AcDbLine
 10
8926.998774440203
 20
2123.689646218095
 30
0.0
 11
8935.037250213136
 21
2093.689646218095
 31
0.0
  0
LINE
  5
214F6
330
747D
100
AcDbEntity
  8
細線
 48
50.0
100
AcDbLine
 10
8828.388718256141
 20
2123.689646218095
 30
0.0
 11
8836.427194029075
 21
2093.689646218095
 31
0.0
  0
LINE
  5
214F7
330
747D
100
AcDbEntity
  8
細線
100
AcDbLine
 10
8748.804361743694
 20
2403.689646218095
 30
0.0
 11
8843.991767422267
 21
2498.877051896667
 31
0.0
  0
LINE
  5
214F8
330
747D
100
AcDbEntity
  8
細線
100
AcDbLine
 10
8770.732491891099
 20
2253.689646218095
 30
0.0
 11
8620.732491891093
 21
2403.689646218095
 31
0.0
  0
LINE
  5
214F9
330
747D
100
AcDbEntity
  8
細線
100
AcDbLine
 10
8810.7324918911
 20
2253.689646218095
 30
0.0
 11
8660.732491891106
 21
2403.689646218095
 31
0.0
  0
LINE
  5
214FA
330
747D
100
AcDbEntity
  8
細線
100
AcDbLine
 10
8730.732491891084
 20
2253.689646218095
 30
0.0
 11
8580.732491891096
 21
2403.689646218095
 31
0.0
  0
LINE
  5
214FB
330
747D
100
AcDbEntity
  8
細線
100
AcDbLine
 10
8788.804361743691
 20
2403.689646218095
 30
0.0
 11
8843.991767422267
 21
2458.877051896672
 31
0.0
  0
LINE
  5
214FC
330
747D
100
AcDbEntity
  8
細線
 48
50.0
100
AcDbLine
 10
9052.403749867378
 20
2223.689646218095
 30
0.0
 11
9044.365274094445
 21
2253.689646218095
 31
0.0
  0
LINE
  5
214FD
330
747D
100
AcDbEntity
  8
部品1
100
AcDbLine
 10
9089.691713741096
 20
2253.689646218095
 30
0.0
 11
9089.691713741096
 21
2093.689646218098
 31
0.0
  0
LINE
  5
214FE
330
747D
100
AcDbEntity
  8
細線
 48
50.0
100
AcDbLine
 10
9017.570354851329
 20
2093.689646218095
 30
0.0
 11
9060.442225640313
 21
2253.689646218095
 31
0.0
  0
LINE
  5
214FF
330
747D
100
AcDbEntity
  8
細線
 48
50.0
100
AcDbLine
 10
9025.608830624262
 20
2123.689646218095
 30
0.0
 11
9033.647306397197
 21
2093.689646218095
 31
0.0
  0
LINE
  5
21500
330
747D
100
AcDbEntity
  8
細線
100
AcDbLine
 10
8989.691713741096
 20
2394.730424368102
 30
0.0
 11
8980.732491891103
 21
2403.689646218095
 31
0.0
  0
LINE
  5
21501
330
747D
100
AcDbEntity
  8
部品1
100
AcDbLine
 10
8989.691713741096
 20
2403.689646218095
 30
0.0
 11
8989.691713741096
 21
2253.689646218095
 31
0.0
  0
LINE
  5
21502
330
747D
100
AcDbEntity
  8
部品1
 48
50.0
100
AcDbLine
 10
10179.54705174887
 20
2529.219365982882
 30
0.0
 11
10179.54705174887
 21
2604.53740272569
 31
0.0
  0
LINE
  5
21503
330
747D
100
AcDbEntity
  8
部品1
 48
50.0
100
AcDbLine
 10
10179.54705174887
 20
2529.219365982882
 30
0.0
 11
10179.54705174887
 21
2604.53740272569
 31
0.0
  0
LINE
  5
21504
330
747D
100
AcDbEntity
  8
部品1
 48
50.0
100
AcDbLine
 10
10159.54705174887
 20
2531.878384354286
 30
0.0
 11
10159.54705174887
 21
2604.53740272569
 31
0.0
  0
LINE
  5
21505
330
747D
100
AcDbEntity
  8
部品1
 48
50.0
100
AcDbLine
 10
10139.54705174887
 20
2531.878384354288
 30
0.0
 11
10139.54705174887
 21
2604.537402725692
 31
0.0
  0
LINE
  5
21506
330
747D
100
AcDbEntity
  8
細線
 48
50.0
100
AcDbLine
 10
10159.54705174888
 20
2537.185481817671
 30
0.0
 11
10179.54705174887
 21
2557.185481817671
 31
0.0
  0
LINE
  5
21507
330
747D
100
AcDbEntity
  8
細線
 48
50.0
100
AcDbLine
 10
10049.54705174887
 20
2494.537402725689
 30
0.0
 11
10139.54705174887
 21
2584.53740272569
 31
0.0
  0
LINE
  5
21508
330
747D
100
AcDbEntity
  8
細線
 48
50.0
100
AcDbLine
 10
10049.54705174887
 20
2460.86144227168
 30
0.0
 11
10139.54705174887
 21
2550.86144227168
 31
0.0
  0
LINE
  5
21509
330
747D
100
AcDbEntity
  8
部品1
 48
50.0
100
AcDbLine
 10
10179.54705174887
 20
2529.219365982882
 30
0.0
 11
10179.54705174887
 21
2779.219365982882
 31
0.0
  0
LINE
  5
2150A
330
747D
100
AcDbEntity
  8
部品1
 48
50.0
100
AcDbLine
 10
10049.54705174887
 20
1999.219365982883
 30
0.0
 11
10049.54705174887
 21
2779.219365982882
 31
0.0
  0
TEXT
  5
2150B
330
747D
100
AcDbEntity
  8
部品1
 48
50.0
100
AcDbText
 10
9691.717953858898
 20
2312.421300023512
 30
0.0
 40
100.0
  1
G.L
  7
STYLE1
100
AcDbText
  0
LINE
  5
2150C
330
747D
100
AcDbEntity
  8
Ｇ．Ｌ
 48
50.0
100
AcDbLine
 10
9531.87217445768
 20
2303.055473120805
 30
0.0
 11
10049.54705174887
 21
2303.055473120805
 31
0.0
  0
LINE
  5
2150D
330
747D
100
AcDbEntity
  8
部品1
 48
50.0
100
AcDbLine
 10
9593.243600387843
 20
2386.525597969225
 30
0.0
 11
9689.626598488899
 21
2386.525597969225
 31
0.0
  0
LINE
  5
2150E
330
747D
100
AcDbEntity
  8
部品1
 48
50.0
100
AcDbLine
 10
9689.626598488899
 20
2386.525597969225
 30
0.0
 11
9641.435099438371
 21
2303.055473120801
 31
0.0
  0
LINE
  5
2150F
330
747D
100
AcDbEntity
  8
部品1
 48
50.0
100
AcDbLine
 10
9593.243600387843
 20
2386.525597969225
 30
0.0
 11
9641.435099438371
 21
2303.055473120801
 31
0.0
  0
LINE
  5
21510
330
747D
100
AcDbEntity
  8
細線
 48
50.0
100
AcDbLine
 10
10049.54705174887
 20
2125.129719093615
 30
0.0
 11
10179.54705174887
 21
2255.129719093616
 31
0.0
  0
LINE
  5
21511
330
747D
100
AcDbEntity
  8
部品1
 48
50.0
100
AcDbLine
 10
9869.547051748876
 20
1999.219365982883
 30
0.0
 11
10049.54705174887
 21
1999.219365982883
 31
0.0
  0
LINE
  5
21512
330
747D
100
AcDbEntity
  8
細線
 48
50.0
100
AcDbLine
 10
10049.54705174887
 20
2057.777798185596
 30
0.0
 11
10179.54705174888
 21
2187.777798185598
 31
0.0
  0
LINE
  5
21513
330
747D
100
AcDbEntity
  8
細線
 48
50.0
100
AcDbLine
 10
10049.54705174887
 20
2091.453758639605
 30
0.0
 11
10179.54705174888
 21
2221.453758639604
 31
0.0
  0
LINE
  5
21514
330
747D
100
AcDbEntity
  8
細線
 48
50.0
100
AcDbLine
 10
10141.58093591409
 20
2519.219365982883
 30
0.0
 11
10154.23995428549
 21
2531.878384354286
 31
0.0
  0
ARC
  5
21515
330
747D
100
AcDbEntity
  8
部品1
 48
50.0
100
AcDbCircle
 10
10169.54705174887
 20
2529.219365982882
 30
0.0
 40
10.0
100
AcDbArc
 50
270.0
 51
0.0
  0
LINE
  5
21516
330
747D
100
AcDbEntity
  8
部品1
 48
50.0
100
AcDbLine
 10
10169.54705174887
 20
2492.219365982883
 30
0.0
 11
10119.54705174887
 21
2492.219365982883
 31
0.0
  0
LINE
  5
21517
330
747D
100
AcDbEntity
  8
部品1
 48
50.0
100
AcDbLine
 10
10169.54705174887
 20
2519.219365982883
 30
0.0
 11
10119.54705174887
 21
2519.219365982883
 31
0.0
  0
LINE
  5
21518
330
747D
100
AcDbEntity
  8
部品1
 48
50.0
100
AcDbLine
 10
10119.54705174887
 20
2492.219365982883
 30
0.0
 11
10119.54705174887
 21
2519.219365982883
 31
0.0
  0
LINE
  5
21519
330
747D
100
AcDbEntity
  8
部品1
 48
50.0
100
AcDbLine
 10
10159.54705174887
 20
2531.878384354286
 30
0.0
 11
10139.54705174887
 21
2531.878384354288
 31
0.0
  0
LINE
  5
2151A
330
747D
100
AcDbEntity
  8
細線
 48
50.0
100
AcDbLine
 10
10049.54705174887
 20
2427.185481817671
 30
0.0
 11
10119.54705174887
 21
2497.185481817671
 31
0.0
  0
LINE
  5
2151B
330
747D
100
AcDbEntity
  8
部品1
 48
50.0
100
AcDbLine
 10
10179.54705174887
 20
2805.065519829037
 30
0.0
 11
10179.54705174887
 21
2839.527058290574
 31
0.0
  0
LINE
  5
2151C
330
747D
100
AcDbEntity
  8
部品1
100
AcDbLine
 10
10060.3162825181
 20
2782.450135213653
 30
0.0
 11
10060.3162825181
 21
2884.757827521344
 31
0.0
  0
LINE
  5
2151D
330
747D
100
AcDbEntity
  8
部品1
100
AcDbLine
 10
10180.1239748258
 20
2801.834750598269
 30
0.0
 11
10180.1239748258
 21
2783.527058290574
 31
0.0
  0
LINE
  5
2151E
330
747D
100
AcDbEntity
  8
部品1
100
AcDbLine
 10
10080.77782097964
 20
2786.757827521344
 30
0.0
 11
10080.77782097964
 21
2783.527058290574
 31
0.0
  0
LINE
  5
2151F
330
747D
100
AcDbEntity
  8
部品1
100
AcDbLine
 10
10165.04705174887
 20
2783.527058290574
 30
0.0
 11
10165.04705174887
 21
2779.219365982882
 31
0.0
  0
LINE
  5
21520
330
747D
100
AcDbEntity
  8
部品1
100
AcDbLine
 10
10169.35474405656
 20
2801.834750598267
 30
0.0
 11
10172.58551328733
 21
2805.065519829037
 31
0.0
  0
LINE
  5
21521
330
747D
100
AcDbEntity
  8
部品1
100
AcDbLine
 10
10169.35474405656
 20
2801.834750598267
 30
0.0
 11
10169.35474405656
 21
2783.527058290574
 31
0.0
  0
LINE
  5
21522
330
747D
100
AcDbEntity
  8
細線
100
AcDbLine
 10
10087.0853752549
 20
2739.020506497171
 30
0.0
 11
10123.14595000234
 21
2739.020506497171
 31
0.0
  0
LINE
  5
21523
330
747D
100
AcDbEntity
  8
細線
100
AcDbLine
 10
10123.14595000234
 20
2739.020506497171
 30
0.0
 11
10164.12390430165
 21
2745.571314995787
 31
0.0
  0
ARC
  5
21524
330
747D
100
AcDbEntity
  8
部品1
100
AcDbCircle
 10
10174.73935944118
 20
2796.779452687259
 30
0.0
 40
7.3858052918609
100
AcDbArc
 50
43.1932563689624
 51
136.8067436310376
  0
LINE
  5
21525
330
747D
100
AcDbEntity
  8
細線
 48
50.0
100
AcDbLine
 10
10175.54705174887
 20
2810.598855060298
 30
0.0
 11
10196.19773996725
 21
2805.065519829037
 31
0.0
  0
LINE
  5
21526
330
747D
100
AcDbEntity
  8
細線
 48
50.0
100
AcDbLine
 10
10049.54705174887
 20
2730.269125903755
 30
0.0
 11
10064.27056456018
 21
2744.992638715061
 31
0.0
  0
LINE
  5
21527
330
747D
100
AcDbEntity
  8
部品1
100
AcDbLine
 10
10063.54705174887
 20
2786.757827521344
 30
0.0
 11
10063.54705174887
 21
2805.970504298646
 31
0.0
  0
LINE
  5
21528
330
747D
100
AcDbEntity
  8
部品1
100
AcDbLine
 10
10077.54705174887
 20
2782.450135213653
 30
0.0
 11
10060.3162825181
 21
2782.450135213653
 31
0.0
  0
LINE
  5
21529
330
747D
100
AcDbEntity
  8
細線
 48
50.0
100
AcDbLine
 10
10049.54705174887
 20
2696.593165449745
 30
0.0
 11
10091.9743927963
 21
2739.020506497171
 31
0.0
  0
LINE
  5
2152A
330
747D
100
AcDbEntity
  8
細線
100
AcDbLine
 10
10049.54705174887
 20
2748.846747626922
 30
0.0
 11
10087.0853752549
 21
2739.020506497171
 31
0.0
  0
LINE
  5
2152B
330
747D
100
AcDbEntity
  8
部品1
100
AcDbLine
 10
10080.77782097964
 20
2786.757827521344
 30
0.0
 11
10063.54705174887
 21
2786.757827521344
 31
0.0
  0
LINE
  5
2152C
330
747D
100
AcDbEntity
  8
細線
 48
50.0
100
AcDbLine
 10
10159.54705174887
 20
2570.86144227168
 30
0.0
 11
10179.54705174887
 21
2590.86144227168
 31
0.0
  0
CIRCLE
  5
2152D
330
747D
100
AcDbEntity
  8
部品1
 48
50.0
100
AcDbCircle
 10
10169.54705174887
 20
2604.53740272569
 30
0.0
 40
10.0
  0
ARC
  5
2152E
330
747D
100
AcDbEntity
  8
部品1
 48
50.0
100
AcDbCircle
 10
10169.54705174887
 20
2604.53740272569
 30
0.0
 40
30.0
100
AcDbArc
 50
70.52877936552873
 51
180.0
  0
LINE
  5
2152F
330
747D
100
AcDbEntity
  8
部品1
100
AcDbLine
 10
10146.77782097964
 20
2926.757827521344
 30
0.0
 11
10179.08551328734
 21
2926.757827521344
 31
0.0
  0
LINE
  5
21530
330
747D
100
AcDbEntity
  8
部品1
100
AcDbLine
 10
10073.23935944118
 20
2900.911673675191
 30
0.0
 11
10146.77782097964
 21
2900.911673675191
 31
0.0
  0
LINE
  5
21531
330
747D
100
AcDbEntity
  8
部品1
100
AcDbLine
 10
10073.23935944118
 20
2887.988596752114
 30
0.0
 11
10073.23935944118
 21
2900.911673675191
 31
0.0
  0
LINE
  5
21532
330
747D
100
AcDbEntity
  8
部品1
100
AcDbLine
 10
10060.3162825181
 20
2884.757827521344
 30
0.0
 11
10073.23935944118
 21
2887.988596752114
 31
0.0
  0
LINE
  5
21533
330
747D
100
AcDbEntity
  8
部品1
100
AcDbLine
 10
10179.08551328734
 20
2926.757827521344
 30
0.0
 11
10179.08551328734
 21
2900.911673675191
 31
0.0
  0
LINE
  5
21534
330
747D
100
AcDbEntity
  8
部品1
100
AcDbLine
 10
10146.77782097964
 20
2900.911673675191
 30
0.0
 11
10146.77782097964
 21
2926.757827521344
 31
0.0
  0
LINE
  5
21535
330
747D
100
AcDbEntity
  8
細線
 48
50.0
100
AcDbLine
 10
5926.657016996698
 20
3617.905329720225
 30
0.0
 11
9483.300566369228
 21
3617.905329720225
 31
0.0
  0
ARC
  5
21536
330
747D
100
AcDbEntity
  8
細線
 48
50.0
100
AcDbCircle
 10
9563.30056636923
 20
3657.905329720224
 30
0.0
 40
80.0
100
AcDbArc
 50
90.0
 51
180.0
  0
LINE
  5
21537
330
747D
100
AcDbEntity
  8
細線
 48
50.0
100
AcDbLine
 10
9483.300566369228
 20
3577.905329720225
 30
0.0
 11
9483.300566369228
 21
3657.905329720224
 31
0.0
  0
ARC
  5
21538
330
747D
100
AcDbEntity
  8
細線
 48
50.0
100
AcDbCircle
 10
9563.30056636923
 20
3577.905329720225
 30
0.0
 40
80.0
100
AcDbArc
 50
180.0
 51
270.0
  0
LINE
  5
21539
330
747D
100
AcDbEntity
  8
細線
 48
50.0
100
AcDbLine
 10
14049.23369428969
 20
3617.905329720225
 30
0.0
 11
14049.23369428969
 21
712.2436564794675
 31
0.0
  0
MTEXT
  5
2153A
102
{ACAD_REACTORS
330
2153B
102
}
330
747D
100
AcDbEntity
  8
寸法
 62
     7
 48
50.0
100
AcDbMText
 10
13370.28721354403
 20
2274.450846712427
 30
0.0
 40
100.0
 41
0.0
 71
     4
 72
     1
  1
防湿シート
  7
STYLE1
 73
     1
 44
1.0
1001
ACAD
1000
MTEXTBEGIN
1070
    73
1070
     1
1070
    44
1040
1.0
1070
    74
1070
     0
1000
MTEXTEND
  0
LEADER
  5
2153B
330
747D
100
AcDbEntity
  8
寸法
 48
50.0
100
AcDbLeader
  3
INABA_S50G
 71
     0
 73
     0
 74
     0
 75
     1
 40
100.0
 41
581.9577020040977
 76
     3
 10
13072.5870480794
 20
2356.014558942572
 30
0.0
 10
13220.28721354403
 20
2199.450846712427
 30
0.0
 10
13345.28721354403
 20
2199.450846712427
 30
0.0
340
2153A
  0
LINE
  5
2153C
330
747D
100
AcDbEntity
  8
Ｇ．Ｌ
 48
50.0
100
AcDbLine
 10
11630.53477242848
 20
2303.055473120806
 30
0.0
 11
12148.20964971968
 21
2303.055473120806
 31
0.0
  0
TEXT
  5
2153D
330
747D
100
AcDbEntity
  8
部品1
 48
50.0
100
AcDbText
 10
11790.3805518297
 20
2312.421300023513
 30
0.0
 40
100.0
  1
G.L
  7
STYLE1
100
AcDbText
  0
LINE
  5
2153E
330
747D
100
AcDbEntity
  8
部品1
 48
50.0
100
AcDbLine
 10
13225.18727394529
 20
1011.811601579708
 30
0.0
 11
11833.87400494768
 21
1011.811601579708
 31
0.0
  0
LINE
  5
2153F
330
747D
100
AcDbEntity
  8
部品1
 48
50.0
100
AcDbLine
 10
13225.18727394529
 20
851.8116015797076
 30
0.0
 11
11833.87400494768
 21
851.8116015797076
 31
0.0
  0
LINE
  5
21540
330
747D
100
AcDbEntity
  8
細線
 48
50.0
100
AcDbLine
 10
10302.45206590229
 20
1839.219365982883
 30
0.0
 11
10462.45206590229
 21
1999.219365982883
 31
0.0
  0
LINE
  5
21541
330
747D
100
AcDbEntity
  8
細線
 48
50.0
100
AcDbLine
 10
10336.1280263563
 20
1839.219365982883
 30
0.0
 11
10469.54705174887
 21
1972.638391375456
 31
0.0
  0
LINE
  5
21542
330
747D
100
AcDbEntity
  8
細線
 48
50.0
100
AcDbLine
 10
10199.54705174888
 20
1938.370114553523
 30
0.0
 11
10289.54705174887
 21
2028.37011455352
 31
0.0
  0
LINE
  5
21543
330
747D
100
AcDbEntity
  8
部品1
 48
50.0
100
AcDbLine
 10
10199.54705174888
 20
1849.219365982883
 30
0.0
 11
10199.54705174887
 21
2507.562958155174
 31
0.0
  0
LINE
  5
21544
330
747D
100
AcDbEntity
  8
部品1
 48
50.0
100
AcDbLine
 10
10469.54705174887
 20
1999.219365982883
 30
0.0
 11
10469.54705174887
 21
1699.219365982883
 31
0.0
  0
LINE
  5
21545
330
747D
100
AcDbEntity
  8
部品1
 48
50.0
100
AcDbLine
 10
10614.15761801409
 20
1011.811601579708
 30
0.0
 11
10614.15761801409
 21
851.8116015797076
 31
0.0
  0
LINE
  5
21546
330
747D
100
AcDbEntity
  8
細線
 48
50.0
100
AcDbLine
 10
10493.24517475369
 20
1539.219365982883
 30
0.0
 11
10536.11704554267
 21
1699.219365982883
 31
0.0
  0
LINE
  5
21547
330
747D
100
AcDbEntity
  8
部品1
 48
50.0
100
AcDbLine
 10
10569.54705174887
 20
1539.219365982883
 30
0.0
 11
10569.54705174887
 21
1699.219365982883
 31
0.0
  0
LINE
  5
21548
330
747D
100
AcDbEntity
  8
細線
 48
50.0
100
AcDbLine
 10
10528.07856976974
 20
1669.219365982883
 30
0.0
 11
10520.0400939968
 21
1699.219365982883
 31
0.0
  0
LINE
  5
21549
330
747D
100
AcDbEntity
  8
細線
 48
50.0
100
AcDbLine
 10
10394.63511856963
 20
1539.219365982883
 30
0.0
 11
10437.50698935861
 21
1699.219365982883
 31
0.0
  0
LINE
  5
2154A
330
747D
100
AcDbEntity
  8
細線
 48
50.0
100
AcDbLine
 10
10296.02506238556
 20
1539.219365982883
 30
0.0
 11
10338.89693317454
 21
1699.219365982883
 31
0.0
  0
LINE
  5
2154B
330
747D
100
AcDbEntity
  8
細線
 48
50.0
100
AcDbLine
 10
10429.46851358568
 20
1669.219365982883
 30
0.0
 11
10421.43003781274
 21
1699.219365982883
 31
0.0
  0
LINE
  5
2154C
330
747D
100
AcDbEntity
  8
細線
 48
50.0
100
AcDbLine
 10
10330.85845740161
 20
1669.219365982883
 30
0.0
 11
10322.81998162868
 21
1699.219365982883
 31
0.0
  0
LINE
  5
2154D
330
747D
100
AcDbEntity
  8
細線
 48
50.0
100
AcDbLine
 10
10197.4150062015
 20
1539.219365982883
 30
0.0
 11
10240.28687699048
 21
1699.219365982883
 31
0.0
  0
LINE
  5
2154E
330
747D
100
AcDbEntity
  8
細線
 48
50.0
100
AcDbLine
 10
10232.24840121755
 20
1669.219365982883
 30
0.0
 11
10224.20992544462
 21
1699.219365982883
 31
0.0
  0
LINE
  5
2154F
330
747D
100
AcDbEntity
  8
細線
 48
50.0
100
AcDbLine
 10
10304.0635381585
 20
1569.219365982883
 30
0.0
 11
10312.10201393143
 21
1539.219365982883
 31
0.0
  0
LINE
  5
21550
330
747D
100
AcDbEntity
  8
細線
 48
50.0
100
AcDbLine
 10
10205.45348197444
 20
1569.219365982883
 30
0.0
 11
10213.49195774737
 21
1539.219365982883
 31
0.0
  0
LINE
  5
21551
330
747D
100
AcDbEntity
  8
細線
 48
50.0
100
AcDbLine
 10
10501.28365052662
 20
1569.219365982883
 30
0.0
 11
10509.32212629956
 21
1539.219365982883
 31
0.0
  0
LINE
  5
21552
330
747D
100
AcDbEntity
  8
細線
 48
50.0
100
AcDbLine
 10
10402.67359434256
 20
1569.219365982883
 30
0.0
 11
10410.71207011549
 21
1539.219365982883
 31
0.0
  0
LINE
  5
21553
330
747D
100
AcDbEntity
  8
細線
 48
50.0
100
AcDbLine
 10
10369.80398681031
 20
1839.219365982883
 30
0.0
 11
10469.54705174887
 21
1938.962430921444
 31
0.0
  0
LINE
  5
21554
330
747D
100
AcDbEntity
  8
部品1
 48
50.0
100
AcDbLine
 10
10399.54705174887
 20
1819.219365982883
 30
0.0
 11
10399.54705174887
 21
1839.219365982883
 31
0.0
  0
CIRCLE
  5
21555
330
747D
100
AcDbEntity
  8
部品1
 48
50.0
100
AcDbCircle
 10
10329.54705174887
 20
1849.219365982883
 30
0.0
 40
10.0
  0
ARC
  5
21556
330
747D
100
AcDbEntity
  8
部品1
 48
50.0
100
AcDbCircle
 10
10169.54705174887
 20
1849.219365982883
 30
0.0
 40
30.0
100
AcDbArc
 50
340.5287793655164
 51
0.0
  0
LINE
  5
21557
330
747D
100
AcDbEntity
  8
細線
 48
50.0
100
AcDbLine
 10
10229.80398681031
 20
1699.219365982883
 30
0.0
 11
10349.80509661674
 21
1819.220475789307
 31
0.0
  0
LINE
  5
21558
330
747D
100
AcDbEntity
  8
細線
 48
50.0
100
AcDbLine
 10
10431.85974953437
 20
1699.219365982883
 30
0.0
 11
10469.54705174887
 21
1736.906668197388
 31
0.0
  0
LINE
  5
21559
330
747D
100
AcDbEntity
  8
細線
 48
50.0
100
AcDbLine
 10
10465.53570998838
 20
1699.219365982883
 30
0.0
 11
10469.54705174887
 21
1703.23070774338
 31
0.0
  0
LINE
  5
2155A
330
747D
100
AcDbEntity
  8
部品1
 48
50.0
100
AcDbLine
 10
11833.87400494768
 20
1011.811601579708
 30
0.0
 11
11833.87400494768
 21
851.8116015797076
 31
0.0
  0
LEADER
  5
2155B
330
747D
100
AcDbEntity
  8
寸法
 48
50.0
100
AcDbLeader
  3
INABA_S50G
 71
     0
 73
     0
 74
     0
 75
     1
 40
100.0
 41
828.6243686707642
 76
     3
 10
10206.54705174887
 20
2679.219365982883
 30
0.0
 10
10354.24721721349
 20
2522.655653752738
 30
0.0
 10
10479.24721721349
 20
2522.655653752738
 30
0.0
340
2155C
  0
MTEXT
  5
2155C
102
{ACAD_REACTORS
330
2155B
102
}
330
747D
100
AcDbEntity
  8
寸法
 62
     7
 48
50.0
100
AcDbMText
 10
10504.24721721349
 20
2597.655653752738
 30
0.0
 40
100.0
 41
0.0
 71
     4
 72
     1
  1
アンカーボルト
  7
STYLE1
 73
     1
 44
1.0
1001
ACAD
1000
MTEXTBEGIN
1070
    73
1070
     1
1070
    44
1040
1.0
1070
    74
1070
     0
1000
MTEXTEND
  0
TEXT
  5
2155D
330
747D
100
AcDbEntity
  8
部品1
 48
50.0
100
AcDbText
 10
10493.73834145647
 20
2397.213890555535
 30
0.0
 40
100.0
  1
M12×200(市販品)
  7
STYLE1
100
AcDbText
  0
LINE
  5
2155E
330
747D
100
AcDbEntity
  8
部品1
 48
50.0
100
AcDbLine
 10
10206.54705174887
 20
2529.219365982882
 30
0.0
 11
10206.54705174887
 21
2779.219365982882
 31
0.0
  0
LINE
  5
2155F
330
747D
100
AcDbEntity
  8
部品1
 48
50.0
100
AcDbLine
 10
10289.54705174887
 20
2779.219365982882
 30
0.0
 11
10289.54705174887
 21
1999.219365982883
 31
0.0
  0
LINE
  5
21560
330
747D
100
AcDbEntity
  8
Ｇ．Ｌ
 48
50.0
100
AcDbLine
 10
10289.54705174887
 20
2303.055473120805
 30
0.0
 11
10807.22192904007
 21
2303.055473120805
 31
0.0
  0
LINE
  5
21561
330
747D
100
AcDbEntity
  8
細線
 48
50.0
100
AcDbLine
 10
10199.54705174888
 20
2207.777798185598
 30
0.0
 11
10289.54705174887
 21
2297.777798185594
 31
0.0
  0
LINE
  5
21562
330
747D
100
AcDbEntity
  8
細線
 48
50.0
100
AcDbLine
 10
10199.54705174888
 20
2241.453758639606
 30
0.0
 11
10289.54705174887
 21
2331.453758639602
 31
0.0
  0
LINE
  5
21563
330
747D
100
AcDbEntity
  8
部品1
 48
50.0
100
AcDbLine
 10
10289.54705174887
 20
1999.219365982883
 30
0.0
 11
10469.54705174887
 21
1999.219365982883
 31
0.0
  0
LINE
  5
21564
330
747D
100
AcDbEntity
  8
細線
 48
50.0
100
AcDbLine
 10
10199.54705174888
 20
1972.046075007534
 30
0.0
 11
10289.54705174887
 21
2062.046075007529
 31
0.0
  0
LINE
  5
21565
330
747D
100
AcDbEntity
  8
細線
 48
50.0
100
AcDbLine
 10
10199.54705174888
 20
2005.722035461544
 30
0.0
 11
10289.54705174887
 21
2095.722035461538
 31
0.0
  0
LINE
  5
21566
330
747D
100
AcDbEntity
  8
細線
 48
50.0
100
AcDbLine
 10
10199.54705174888
 20
2275.129719093618
 30
0.0
 11
10289.54705174887
 21
2365.129719093617
 31
0.0
  0
LINE
  5
21567
330
747D
100
AcDbEntity
  8
部品1
100
AcDbLine
 10
10250.93166713349
 20
2885.834750598267
 30
0.0
 11
10250.93166713349
 21
2782.450135213653
 31
0.0
  0
LINE
  5
21568
330
747D
100
AcDbEntity
  8
部品1
 48
50.0
100
AcDbLine
 10
10206.54705174887
 20
2805.065519829037
 30
0.0
 11
10206.54705174887
 21
2839.527058290574
 31
0.0
  0
LINE
  5
21569
330
747D
100
AcDbEntity
  8
部品1
100
AcDbLine
 10
10250.93166713349
 20
2782.450135213653
 30
0.0
 11
10268.16243636426
 21
2782.450135213653
 31
0.0
  0
LINE
  5
2156A
330
747D
100
AcDbEntity
  8
細線
100
AcDbLine
 10
10219.85389294008
 20
2747.209059693176
 30
0.0
 11
10249.35796161831
 21
2745.571314995787
 31
0.0
  0
LINE
  5
2156B
330
747D
100
AcDbEntity
  8
部品1
100
AcDbLine
 10
10247.70089790272
 20
2805.970504298646
 30
0.0
 11
10247.70089790272
 21
2783.527058290574
 31
0.0
  0
LINE
  5
2156C
330
747D
100
AcDbEntity
  8
部品1
100
AcDbLine
 10
10221.04705174887
 20
2783.527058290574
 30
0.0
 11
10221.04705174887
 21
2779.219365982882
 31
0.0
  0
LINE
  5
2156D
330
747D
100
AcDbEntity
  8
部品1
100
AcDbLine
 10
10213.50859021041
 20
2805.065519829037
 30
0.0
 11
10216.73935944118
 21
2801.834750598269
 31
0.0
  0
LINE
  5
2156E
330
747D
100
AcDbEntity
  8
部品1
100
AcDbLine
 10
10216.73935944118
 20
2801.834750598269
 30
0.0
 11
10216.73935944118
 21
2783.527058290574
 31
0.0
  0
LINE
  5
2156F
330
747D
100
AcDbEntity
  8
部品1
100
AcDbLine
 10
10205.97012867194
 20
2801.834750598267
 30
0.0
 11
10205.97012867194
 21
2783.527058290574
 31
0.0
  0
ARC
  5
21570
330
747D
100
AcDbEntity
  8
部品1
100
AcDbCircle
 10
10211.35474405656
 20
2796.779452687259
 30
0.0
 40
7.3858052918609
100
AcDbArc
 50
43.1932563689624
 51
136.8067436310376
  0
LINE
  5
21571
330
747D
100
AcDbEntity
  8
細線
 48
50.0
100
AcDbLine
 10
10206.54705174887
 20
2617.861442271674
 30
0.0
 11
10289.54705174887
 21
2700.86144227168
 31
0.0
  0
LINE
  5
21572
330
747D
100
AcDbEntity
  8
細線
 48
50.0
100
AcDbLine
 10
10206.54705174887
 20
2651.537402725685
 30
0.0
 11
10289.54705174887
 21
2734.53740272569
 31
0.0
  0
LINE
  5
21573
330
747D
100
AcDbEntity
  8
細線
 48
50.0
100
AcDbLine
 10
10206.54705174887
 20
2584.185481817671
 30
0.0
 11
10289.54705174887
 21
2667.185481817671
 31
0.0
  0
LINE
  5
21574
330
747D
100
AcDbEntity
  8
細線
100
AcDbLine
 10
10249.35796161831
 20
2745.571314995787
 30
0.0
 11
10289.54705174887
 21
2737.382761799783
 31
0.0
  0
LINE
  5
21575
330
747D
100
AcDbEntity
  8
部品1
100
AcDbLine
 10
10209.23935944118
 20
2900.911673675191
 30
0.0
 11
10209.23935944118
 21
2885.834750598267
 31
0.0
  0
LINE
  5
21576
330
747D
100
AcDbEntity
  8
部品1
100
AcDbLine
 10
10209.23935944118
 20
2885.834750598267
 30
0.0
 11
10250.93166713349
 21
2885.834750598267
 31
0.0
  0
LINE
  5
21577
330
747D
100
AcDbEntity
  8
部品1
 48
50.0
100
AcDbLine
 10
11691.90619835865
 20
2386.525597969226
 30
0.0
 11
11788.2891964597
 21
2386.525597969226
 31
0.0
  0
LINE
  5
21578
330
747D
100
AcDbEntity
  8
部品1
 48
50.0
100
AcDbLine
 10
11691.90619835865
 20
2386.525597969226
 30
0.0
 11
11740.09769740917
 21
2303.055473120802
 31
0.0
  0
LINE
  5
21579
330
747D
100
AcDbEntity
  8
部品1
 48
50.0
100
AcDbLine
 10
11788.2891964597
 20
2386.525597969226
 30
0.0
 11
11740.09769740917
 21
2303.055473120802
 31
0.0
  0
LINE
  5
2157A
330
747D
100
AcDbEntity
  8
細線
 48
50.0
100
AcDbLine
 10
12434.79062432711
 20
1839.219365982884
 30
0.0
 11
12568.20964971968
 21
1972.638391375457
 31
0.0
  0
LINE
  5
2157B
330
747D
100
AcDbEntity
  8
細線
 48
50.0
100
AcDbLine
 10
12401.11466387309
 20
1839.219365982884
 30
0.0
 11
12561.1146638731
 21
1999.219365982883
 31
0.0
  0
LINE
  5
2157C
330
747D
100
AcDbEntity
  8
部品1
 48
50.0
100
AcDbLine
 10
12568.20964971968
 20
1999.219365982883
 30
0.0
 11
12568.20964971968
 21
1699.219365982883
 31
0.0
  0
LINE
  5
2157D
330
747D
100
AcDbEntity
  8
細線
 48
50.0
100
AcDbLine
 10
12131.70698024102
 20
1839.219365982884
 30
0.0
 11
12278.20964971968
 21
1985.722035461543
 31
0.0
  0
LINE
  5
2157E
330
747D
100
AcDbEntity
  8
細線
 48
50.0
100
AcDbLine
 10
11968.20964971968
 20
1911.453758639608
 30
0.0
 11
12055.97525706296
 21
1999.219365982883
 31
0.0
  0
LINE
  5
2157F
330
747D
100
AcDbEntity
  8
細線
 48
50.0
100
AcDbLine
 10
11968.20964971968
 20
1877.777798185598
 30
0.0
 11
12089.65121751697
 21
1999.219365982883
 31
0.0
  0
LINE
  5
21580
330
747D
100
AcDbEntity
  8
細線
 48
50.0
100
AcDbLine
 10
11968.20964971968
 20
1945.129719093618
 30
0.0
 11
12022.29929660895
 21
1999.219365982883
 31
0.0
  0
LINE
  5
21581
330
747D
100
AcDbEntity
  8
部品1
 48
50.0
100
AcDbLine
 10
12278.20964971968
 20
1849.219365982883
 30
0.0
 11
12278.20964971968
 21
2604.537402725691
 31
0.0
  0
LINE
  5
21582
330
747D
100
AcDbEntity
  8
部品1
 48
50.0
100
AcDbLine
 10
12298.20964971968
 20
1849.219365982883
 30
0.0
 11
12298.20964971968
 21
2604.537402725691
 31
0.0
  0
LINE
  5
21583
330
747D
100
AcDbEntity
  8
部品1
 48
50.0
100
AcDbLine
 10
11968.20964971968
 20
1699.219365982883
 30
0.0
 11
11968.20964971968
 21
1999.219365982883
 31
0.0
  0
LINE
  5
21584
330
747D
100
AcDbEntity
  8
細線
 48
50.0
100
AcDbLine
 10
12298.20964971968
 20
1938.370114553524
 30
0.0
 11
12388.20964971968
 21
2028.370114553521
 31
0.0
  0
LINE
  5
21585
330
747D
100
AcDbEntity
  8
部品1
 48
50.0
100
AcDbLine
 10
12668.20964971968
 20
1699.219365982883
 30
0.0
 11
11868.20964971968
 21
1699.219365982883
 31
0.0
  0
LINE
  5
21586
330
747D
100
AcDbEntity
  8
部品1
 48
50.0
100
AcDbLine
 10
12668.20964971968
 20
1539.219365982883
 30
0.0
 11
11868.20964971968
 21
1539.219365982883
 31
0.0
  0
TEXT
  5
21587
330
747D
100
AcDbEntity
  8
部品1
 48
50.0
100
AcDbText
 10
11894.02007649585
 20
889.0549405935608
 30
0.0
 40
96.0
  1
床下湿気防止用基礎
  7
STYLE2
100
AcDbText
  0
LINE
  5
21588
330
747D
100
AcDbEntity
  8
部品1
 48
50.0
100
AcDbLine
 10
12258.20964971968
 20
1921.878384354287
 30
0.0
 11
12238.20964971968
 21
1921.878384354287
 31
0.0
  0
LINE
  5
21589
330
747D
100
AcDbEntity
  8
部品1
 48
50.0
100
AcDbLine
 10
12038.20964971968
 20
1839.219365982884
 30
0.0
 11
12498.20964971968
 21
1839.219365982884
 31
0.0
  0
LINE
  5
2158A
330
747D
100
AcDbEntity
  8
部品1
 48
50.0
100
AcDbLine
 10
12038.20964971968
 20
1819.219365982883
 30
0.0
 11
12498.20964971968
 21
1819.219365982883
 31
0.0
  0
LINE
  5
2158B
330
747D
100
AcDbEntity
  8
細線
 48
50.0
100
AcDbLine
 10
12197.46754798825
 20
1539.219365982883
 30
0.0
 11
12240.33941877723
 21
1699.219365982883
 31
0.0
  0
LINE
  5
2158C
330
747D
100
AcDbEntity
  8
細線
 48
50.0
100
AcDbLine
 10
12133.69088682024
 20
1669.219365982883
 30
0.0
 11
12125.6524110473
 21
1699.219365982883
 31
0.0
  0
LINE
  5
2158D
330
747D
100
AcDbEntity
  8
細線
 48
50.0
100
AcDbLine
 10
12232.3009430043
 20
1669.219365982883
 30
0.0
 11
12224.26246723136
 21
1699.219365982883
 31
0.0
  0
LINE
  5
2158E
330
747D
100
AcDbEntity
  8
細線
 48
50.0
100
AcDbLine
 10
12000.24743562013
 20
1539.219365982883
 30
0.0
 11
12043.11930640911
 21
1699.219365982883
 31
0.0
  0
LINE
  5
2158F
330
747D
100
AcDbEntity
  8
細線
 48
50.0
100
AcDbLine
 10
12035.08083063617
 20
1669.219365982883
 30
0.0
 11
12027.04235486324
 21
1699.219365982883
 31
0.0
  0
LINE
  5
21590
330
747D
100
AcDbEntity
  8
細線
 48
50.0
100
AcDbLine
 10
11936.47077445211
 20
1669.219365982883
 30
0.0
 11
11928.43229867918
 21
1699.219365982883
 31
0.0
  0
LINE
  5
21591
330
747D
100
AcDbEntity
  8
細線
 48
50.0
100
AcDbLine
 10
12098.85749180419
 20
1539.219365982883
 30
0.0
 11
12141.72936259317
 21
1699.219365982883
 31
0.0
  0
LINE
  5
21592
330
747D
100
AcDbEntity
  8
部品1
 48
50.0
100
AcDbLine
 10
11868.20964971968
 20
1539.219365982883
 30
0.0
 11
11868.20964971968
 21
1699.219365982883
 31
0.0
  0
LINE
  5
21593
330
747D
100
AcDbEntity
  8
細線
 48
50.0
100
AcDbLine
 10
11901.63737943606
 20
1539.219365982883
 30
0.0
 11
11944.50925022505
 21
1699.219365982883
 31
0.0
  0
LINE
  5
21594
330
747D
100
AcDbEntity
  8
細線
 48
50.0
100
AcDbLine
 10
12008.28591139306
 20
1569.219365982883
 30
0.0
 11
12016.32438716599
 21
1539.219365982883
 31
0.0
  0
LINE
  5
21595
330
747D
100
AcDbEntity
  8
細線
 48
50.0
100
AcDbLine
 10
11909.675855209
 20
1569.219365982883
 30
0.0
 11
11917.71433098193
 21
1539.219365982883
 31
0.0
  0
LINE
  5
21596
330
747D
100
AcDbEntity
  8
細線
 48
50.0
100
AcDbLine
 10
12205.50602376119
 20
1569.219365982883
 30
0.0
 11
12213.54449953412
 21
1539.219365982883
 31
0.0
  0
LINE
  5
21597
330
747D
100
AcDbEntity
  8
細線
 48
50.0
100
AcDbLine
 10
12106.89596757712
 20
1569.219365982883
 30
0.0
 11
12114.93444335006
 21
1539.219365982883
 31
0.0
  0
LINE
  5
21598
330
747D
100
AcDbEntity
  8
細線
 48
50.0
100
AcDbLine
 10
12025.38294069503
 20
1699.219365982883
 30
0.0
 11
12145.38294069503
 21
1819.219365982883
 31
0.0
  0
LINE
  5
21599
330
747D
100
AcDbEntity
  8
細線
 48
50.0
100
AcDbLine
 10
11991.70698024102
 20
1699.219365982883
 30
0.0
 11
12111.70698024102
 21
1819.219365982883
 31
0.0
  0
LINE
  5
2159A
330
747D
100
AcDbEntity
  8
部品1
 48
50.0
100
AcDbLine
 10
12038.20964971968
 20
1819.219365982883
 30
0.0
 11
12038.20964971968
 21
1839.219365982884
 31
0.0
  0
ARC
  5
2159B
330
747D
100
AcDbEntity
  8
部品1
 48
50.0
100
AcDbCircle
 10
12268.20964971968
 20
1849.219365982883
 30
0.0
 40
30.0
100
AcDbArc
 50
180.0
 51
199.4712206344835
  0
LINE
  5
2159C
330
747D
100
AcDbEntity
  8
部品1
 48
50.0
100
AcDbLine
 10
12238.20964971968
 20
1921.878384354287
 30
0.0
 11
12238.20964971968
 21
1849.219365982883
 31
0.0
  0
LINE
  5
2159D
330
747D
100
AcDbEntity
  8
細線
 48
50.0
100
AcDbLine
 10
12165.38294069503
 20
1839.219365982884
 30
0.0
 11
12238.20964971968
 21
1912.046075007532
 31
0.0
  0
LINE
  5
2159E
330
747D
100
AcDbEntity
  8
細線
 48
50.0
100
AcDbLine
 10
12199.05890114904
 20
1839.219365982884
 30
0.0
 11
12238.20964971968
 21
1878.37011455352
 31
0.0
  0
CIRCLE
  5
2159F
330
747D
100
AcDbEntity
  8
部品1
 48
50.0
100
AcDbCircle
 10
12108.20964971968
 20
1849.219365982883
 30
0.0
 40
10.0
  0
LINE
  5
215A0
330
747D
100
AcDbEntity
  8
細線
 48
50.0
100
AcDbLine
 10
12059.05890114904
 20
1699.219365982883
 30
0.0
 11
12179.05890114904
 21
1819.219365982883
 31
0.0
  0
LINE
  5
215A1
330
747D
100
AcDbEntity
  8
細線
 48
50.0
100
AcDbLine
 10
12591.90777272449
 20
1539.219365982883
 30
0.0
 11
12634.77964351347
 21
1699.219365982883
 31
0.0
  0
LINE
  5
215A2
330
747D
100
AcDbEntity
  8
細線
 48
50.0
100
AcDbLine
 10
12626.74116774054
 20
1669.219365982883
 30
0.0
 11
12618.70269196761
 21
1699.219365982883
 31
0.0
  0
LINE
  5
215A3
330
747D
100
AcDbEntity
  8
細線
 48
50.0
100
AcDbLine
 10
12394.68766035637
 20
1539.219365982883
 30
0.0
 11
12437.55953114535
 21
1699.219365982883
 31
0.0
  0
LINE
  5
215A4
330
747D
100
AcDbEntity
  8
細線
 48
50.0
100
AcDbLine
 10
12330.91099918836
 20
1669.219365982883
 30
0.0
 11
12322.87252341542
 21
1699.219365982883
 31
0.0
  0
LINE
  5
215A5
330
747D
100
AcDbEntity
  8
細線
 48
50.0
100
AcDbLine
 10
12429.52105537242
 20
1669.219365982883
 30
0.0
 11
12421.48257959948
 21
1699.219365982883
 31
0.0
  0
LINE
  5
215A6
330
747D
100
AcDbEntity
  8
細線
 48
50.0
100
AcDbLine
 10
12528.13111155648
 20
1669.219365982883
 30
0.0
 11
12520.09263578355
 21
1699.219365982883
 31
0.0
  0
LINE
  5
215A7
330
747D
100
AcDbEntity
  8
細線
 48
50.0
100
AcDbLine
 10
12493.29771654043
 20
1539.219365982883
 30
0.0
 11
12536.16958732941
 21
1699.219365982883
 31
0.0
  0
LINE
  5
215A8
330
747D
100
AcDbEntity
  8
細線
 48
50.0
100
AcDbLine
 10
12296.07760417231
 20
1539.219365982883
 30
0.0
 11
12338.94947496129
 21
1699.219365982883
 31
0.0
  0
LINE
  5
215A9
330
747D
100
AcDbEntity
  8
細線
 48
50.0
100
AcDbLine
 10
12402.7261361293
 20
1569.219365982883
 30
0.0
 11
12410.76461190224
 21
1539.219365982883
 31
0.0
  0
LINE
  5
215AA
330
747D
100
AcDbEntity
  8
細線
 48
50.0
100
AcDbLine
 10
12304.11607994524
 20
1569.219365982883
 30
0.0
 11
12312.15455571817
 21
1539.219365982883
 31
0.0
  0
LINE
  5
215AB
330
747D
100
AcDbEntity
  8
細線
 48
50.0
100
AcDbLine
 10
12599.94624849743
 20
1569.219365982883
 30
0.0
 11
12607.98472427036
 21
1539.219365982883
 31
0.0
  0
LINE
  5
215AC
330
747D
100
AcDbEntity
  8
細線
 48
50.0
100
AcDbLine
 10
12501.33619231337
 20
1569.219365982883
 30
0.0
 11
12509.3746680863
 21
1539.219365982883
 31
0.0
  0
CIRCLE
  5
215AD
330
747D
100
AcDbEntity
  8
部品1
 48
50.0
100
AcDbCircle
 10
12428.20964971968
 20
1849.219365982883
 30
0.0
 40
10.0
  0
LINE
  5
215AE
330
747D
100
AcDbEntity
  8
細線
 48
50.0
100
AcDbLine
 10
12328.46658478111
 20
1699.219365982883
 30
0.0
 11
12448.46769458754
 21
1819.220475789308
 31
0.0
  0
LINE
  5
215AF
330
747D
100
AcDbEntity
  8
細線
 48
50.0
100
AcDbLine
 10
12248.04195906644
 20
1921.878384354287
 30
0.0
 11
12278.20964971968
 21
1952.046075007533
 31
0.0
  0
LINE
  5
215B0
330
747D
100
AcDbEntity
  8
細線
 48
50.0
100
AcDbLine
 10
12258.20964971968
 20
1898.370114553522
 30
0.0
 11
12278.20964971968
 21
1918.370114553524
 31
0.0
  0
CIRCLE
  5
215B1
330
747D
100
AcDbEntity
  8
部品1
 48
50.0
100
AcDbCircle
 10
12268.20964971968
 20
1849.219365982883
 30
0.0
 40
10.0
  0
ARC
  5
215B2
330
747D
100
AcDbEntity
  8
部品1
 48
50.0
100
AcDbCircle
 10
12268.20964971968
 20
1849.219365982883
 30
0.0
 40
30.0
100
AcDbArc
 50
340.5287793655164
 51
0.0
  0
LINE
  5
215B3
330
747D
100
AcDbEntity
  8
部品1
 48
50.0
100
AcDbLine
 10
12258.20964971968
 20
1921.878384354287
 30
0.0
 11
12258.20964971968
 21
1849.219365982883
 31
0.0
  0
LINE
  5
215B4
330
747D
100
AcDbEntity
  8
細線
 48
50.0
100
AcDbLine
 10
12261.1146638731
 20
1699.219365982883
 30
0.0
 11
12381.1146638731
 21
1819.219365982883
 31
0.0
  0
LINE
  5
215B5
330
747D
100
AcDbEntity
  8
細線
 48
50.0
100
AcDbLine
 10
12294.79062432711
 20
1699.219365982883
 30
0.0
 11
12414.79062432711
 21
1819.219365982883
 31
0.0
  0
LINE
  5
215B6
330
747D
100
AcDbEntity
  8
部品1
 48
50.0
100
AcDbLine
 10
12498.20964971968
 20
1819.219365982883
 30
0.0
 11
12498.20964971968
 21
1839.219365982884
 31
0.0
  0
LINE
  5
215B7
330
747D
100
AcDbEntity
  8
細線
 48
50.0
100
AcDbLine
 10
12468.46658478112
 20
1839.219365982884
 30
0.0
 11
12568.20964971968
 21
1938.962430921445
 31
0.0
  0
LINE
  5
215B8
330
747D
100
AcDbEntity
  8
細線
 48
50.0
100
AcDbLine
 10
12530.52234750517
 20
1699.219365982883
 30
0.0
 11
12568.20964971968
 21
1736.906668197389
 31
0.0
  0
LINE
  5
215B9
330
747D
100
AcDbEntity
  8
細線
 48
50.0
100
AcDbLine
 10
12564.19830795918
 20
1699.219365982883
 30
0.0
 11
12568.20964971968
 21
1703.23070774338
 31
0.0
  0
LINE
  5
215BA
330
747D
100
AcDbEntity
  8
部品1
 48
50.0
100
AcDbLine
 10
13225.18727394529
 20
1011.811601579708
 30
0.0
 11
13225.18727394529
 21
851.8116015797076
 31
0.0
  0
LINE
  5
215BB
330
747D
100
AcDbEntity
  8
部品1
 48
50.0
100
AcDbLine
 10
12668.20964971968
 20
1539.219365982883
 30
0.0
 11
12668.20964971968
 21
1699.219365982883
 31
0.0
  0
LINE
  5
215BC
330
747D
100
AcDbEntity
  8
部品1
 48
50.0
100
AcDbLine
 10
12388.20964971968
 20
2553.055473120806
 30
0.0
 11
12905.88452701087
 21
2553.055473120806
 31
0.0
  0
LINE
  5
215BD
330
747D
100
AcDbEntity
  8
細線
 48
50.0
100
AcDbLine
 10
12618.85749180419
 20
2123.055473120806
 30
0.0
 11
12661.72936259317
 21
2283.055473120806
 31
0.0
  0
LINE
  5
215BE
330
747D
100
AcDbEntity
  8
部品1
 48
50.0
100
AcDbLine
 10
12388.20964971968
 20
2303.055473120806
 30
0.0
 11
12905.88452701087
 21
2303.055473120806
 31
0.0
  0
LINE
  5
215BF
330
747D
100
AcDbEntity
  8
部品1
 48
50.0
100
AcDbLine
 10
12388.20964971968
 20
2323.055473120806
 30
0.0
 11
12905.88452701087
 21
2323.055473120806
 31
0.0
  0
LINE
  5
215C0
330
747D
100
AcDbEntity
  8
部品1
 48
50.0
100
AcDbLine
 10
12388.20964971968
 20
2283.055473120806
 30
0.0
 11
12905.88452701087
 21
2283.055473120806
 31
0.0
  0
LINE
  5
215C1
330
747D
100
AcDbEntity
  8
部品1
 48
50.0
100
AcDbLine
 10
12389.29448006298
 20
2123.055473120806
 30
0.0
 11
12905.88452701087
 21
2123.055473120806
 31
0.0
  0
HATCH
  5
215C2
330
747D
100
AcDbEntity
  8
寸法
 62
     5
 48
50.0
100
AcDbHatch
 10
0.0
 20
0.0
 30
0.0
210
0.0
220
0.0
230
1.0
  2
PLAST
 70
     0
 71
     0
 91
        1
 92
        7
 72
     0
 73
     1
 93
        4
 10
12905.88452701087
 20
2553.055473120805
 10
12388.20964971968
 20
2553.055473120806
 10
12388.20964971968
 20
2323.055473120806
 10
12905.88452701087
 20
2323.055473120807
 97
        0
 75
     0
 76
     1
 52
315.0
 41
25.0
 77
     0
 78
     3
 53
315.0
 43
-599.1573140309374
 44
-3039.571624356524
 45
112.2532015133644
 46
112.2532015133644
 79
     0
 53
315.0
 43
-585.1256638417671
 44
-3025.539974167354
 45
112.2532015133644
 46
112.2532015133644
 79
     0
 53
315.0
 43
-571.094013652596
 44
-3011.508323978183
 45
112.2532015133644
 46
112.2532015133644
 79
     0
 47
1.387886003246494
 98
        1
 10
12616.76018054564
 20
2489.741060158178
  0
LWPOLYLINE
  5
215C3
330
747D
100
AcDbEntity
  8
部品1
 48
50.0
100
AcDbPolyline
 90
        4
 70
     0
 43
15.0
 10
12388.20964971968
 20
2303.055473120806
 10
12905.88452701087
 20
2303.055473120806
 42
0.1559987191059798
 10
13072.5870480794
 20
2356.014558942572
 42
-0.1900569176366468
 10
13271.50886331792
 20
2386.995742386518
  0
LINE
  5
215C4
330
747D
100
AcDbEntity
  8
部品1
 48
50.0
100
AcDbLine
 10
12388.20964971968
 20
2779.219365982884
 30
0.0
 11
12388.20964971968
 21
1999.219365982883
 31
0.0
  0
LINE
  5
215C5
330
747D
100
AcDbEntity
  8
細線
 48
50.0
100
AcDbLine
 10
12148.20964971968
 20
2494.53740272569
 30
0.0
 11
12238.20964971968
 21
2584.53740272569
 31
0.0
  0
LINE
  5
215C6
330
747D
100
AcDbEntity
  8
細線
 48
50.0
100
AcDbLine
 10
12148.20964971968
 20
2460.861442271681
 30
0.0
 11
12238.20964971968
 21
2550.861442271681
 31
0.0
  0
LINE
  5
215C7
330
747D
100
AcDbEntity
  8
部品1
 48
50.0
100
AcDbLine
 10
12238.20964971968
 20
2531.878384354289
 30
0.0
 11
12238.20964971968
 21
2604.537402725692
 31
0.0
  0
LINE
  5
215C8
330
747D
100
AcDbEntity
  8
部品1
 48
50.0
100
AcDbLine
 10
12258.20964971968
 20
2531.878384354287
 30
0.0
 11
12258.20964971968
 21
2604.537402725691
 31
0.0
  0
LINE
  5
215C9
330
747D
100
AcDbEntity
  8
細線
 48
50.0
100
AcDbLine
 10
12258.20964971968
 20
2537.185481817672
 30
0.0
 11
12278.20964971968
 21
2557.185481817672
 31
0.0
  0
LINE
  5
215CA
330
747D
100
AcDbEntity
  8
部品1
 48
50.0
100
AcDbLine
 10
12148.20964971968
 20
1999.219365982883
 30
0.0
 11
12148.20964971968
 21
2779.219365982884
 31
0.0
  0
LINE
  5
215CB
330
747D
100
AcDbEntity
  8
細線
 48
50.0
100
AcDbLine
 10
12148.20964971968
 20
2427.185481817672
 30
0.0
 11
12252.9025522563
 21
2531.878384354287
 31
0.0
  0
LINE
  5
215CC
330
747D
100
AcDbEntity
  8
部品1
 48
50.0
100
AcDbLine
 10
12258.20964971968
 20
2531.878384354287
 30
0.0
 11
12238.20964971968
 21
2531.878384354289
 31
0.0
  0
LINE
  5
215CD
330
747D
100
AcDbEntity
  8
細線
 48
50.0
100
AcDbLine
 10
12148.20964971968
 20
2125.129719093616
 30
0.0
 11
12278.20964971968
 21
2255.129719093616
 31
0.0
  0
LINE
  5
215CE
330
747D
100
AcDbEntity
  8
細線
 48
50.0
100
AcDbLine
 10
12148.20964971968
 20
2091.453758639607
 30
0.0
 11
12278.20964971968
 21
2221.453758639604
 31
0.0
  0
LINE
  5
215CF
330
747D
100
AcDbEntity
  8
細線
 48
50.0
100
AcDbLine
 10
12148.20964971968
 20
2057.777798185597
 30
0.0
 11
12278.20964971968
 21
2187.777798185599
 31
0.0
  0
LINE
  5
215D0
330
747D
100
AcDbEntity
  8
部品1
 48
50.0
100
AcDbLine
 10
11968.20964971968
 20
1999.219365982883
 30
0.0
 11
12148.20964971968
 21
1999.219365982883
 31
0.0
  0
LINE
  5
215D1
330
747D
100
AcDbEntity
  8
細線
 48
50.0
100
AcDbLine
 10
12421.63737943606
 20
2123.055473120806
 30
0.0
 11
12464.50925022505
 21
2283.055473120806
 31
0.0
  0
LINE
  5
215D2
330
747D
100
AcDbEntity
  8
細線
 48
50.0
100
AcDbLine
 10
12520.24743562013
 20
2123.055473120806
 30
0.0
 11
12563.11930640911
 21
2283.055473120806
 31
0.0
  0
LINE
  5
215D3
330
747D
100
AcDbEntity
  8
細線
 48
50.0
100
AcDbLine
 10
12298.20964971968
 20
2207.777798185599
 30
0.0
 11
12388.20964971968
 21
2297.777798185595
 31
0.0
  0
LINE
  5
215D4
330
747D
100
AcDbEntity
  8
細線
 48
50.0
100
AcDbLine
 10
12298.20964971968
 20
2241.453758639607
 30
0.0
 11
12388.20964971968
 21
2331.453758639603
 31
0.0
  0
LINE
  5
215D5
330
747D
100
AcDbEntity
  8
部品1
 48
50.0
100
AcDbLine
 10
12388.20964971968
 20
1999.219365982883
 30
0.0
 11
12568.20964971968
 21
1999.219365982883
 31
0.0
  0
LINE
  5
215D6
330
747D
100
AcDbEntity
  8
細線
 48
50.0
100
AcDbLine
 10
12429.675855209
 20
2153.055473120806
 30
0.0
 11
12437.71433098193
 21
2123.055473120806
 31
0.0
  0
LINE
  5
215D7
330
747D
100
AcDbEntity
  8
細線
 48
50.0
100
AcDbLine
 10
12298.20964971968
 20
1972.046075007535
 30
0.0
 11
12388.20964971968
 21
2062.04607500753
 31
0.0
  0
LINE
  5
215D8
330
747D
100
AcDbEntity
  8
細線
 48
50.0
100
AcDbLine
 10
12298.20964971968
 20
2005.722035461545
 30
0.0
 11
12388.20964971968
 21
2095.722035461539
 31
0.0
  0
LINE
  5
215D9
330
747D
100
AcDbEntity
  8
細線
 48
50.0
100
AcDbLine
 10
12528.28591139306
 20
2153.055473120806
 30
0.0
 11
12536.324387166
 21
2123.055473120806
 31
0.0
  0
LINE
  5
215DA
330
747D
100
AcDbEntity
  8
細線
 48
50.0
100
AcDbLine
 10
12626.89596757712
 20
2153.055473120806
 30
0.0
 11
12634.93444335006
 21
2123.055473120806
 31
0.0
  0
LINE
  5
215DB
330
747D
100
AcDbEntity
  8
細線
 48
50.0
100
AcDbLine
 10
12456.47077445211
 20
2253.055473120806
 30
0.0
 11
12448.43229867918
 21
2283.055473120806
 31
0.0
  0
LINE
  5
215DC
330
747D
100
AcDbEntity
  8
細線
 48
50.0
100
AcDbLine
 10
12298.20964971968
 20
2275.129719093619
 30
0.0
 11
12388.20964971968
 21
2365.129719093618
 31
0.0
  0
LINE
  5
215DD
330
747D
100
AcDbEntity
  8
細線
 48
50.0
100
AcDbLine
 10
12653.69088682023
 20
2253.055473120806
 30
0.0
 11
12645.6524110473
 21
2283.055473120806
 31
0.0
  0
LINE
  5
215DE
330
747D
100
AcDbEntity
  8
細線
 48
50.0
100
AcDbLine
 10
12555.08083063617
 20
2253.055473120806
 30
0.0
 11
12547.04235486324
 21
2283.055473120806
 31
0.0
  0
LINE
  5
215DF
330
747D
100
AcDbEntity
  8
細線
100
AcDbLine
 10
12221.80854797314
 20
2739.020506497172
 30
0.0
 11
12262.78650227245
 21
2745.571314995788
 31
0.0
  0
ARC
  5
215E0
330
747D
100
AcDbEntity
  8
部品1
 48
50.0
100
AcDbCircle
 10
12268.20964971968
 20
2604.537402725691
 30
0.0
 40
30.0
100
AcDbArc
 50
0.0
 51
180.0
  0
LINE
  5
215E1
330
747D
100
AcDbEntity
  8
部品1
 48
50.0
100
AcDbLine
 10
12148.20964971968
 20
2779.219365982884
 30
0.0
 11
12388.20964971968
 21
2779.219365982884
 31
0.0
  0
LINE
  5
215E2
330
747D
100
AcDbEntity
  8
細線
 48
50.0
100
AcDbLine
 10
12148.20964971968
 20
2696.593165449746
 30
0.0
 11
12190.6369907671
 21
2739.020506497172
 31
0.0
  0
LINE
  5
215E3
330
747D
100
AcDbEntity
  8
細線
100
AcDbLine
 10
12185.74797322571
 20
2739.020506497172
 30
0.0
 11
12221.80854797314
 21
2739.020506497172
 31
0.0
  0
LINE
  5
215E4
330
747D
100
AcDbEntity
  8
細線
100
AcDbLine
 10
12148.20964971968
 20
2748.846747626922
 30
0.0
 11
12185.74797322571
 21
2739.020506497172
 31
0.0
  0
LINE
  5
215E5
330
747D
100
AcDbEntity
  8
細線
 48
50.0
100
AcDbLine
 10
12148.20964971968
 20
2730.269125903756
 30
0.0
 11
12162.93316253099
 21
2744.992638715062
 31
0.0
  0
LINE
  5
215E6
330
747D
100
AcDbEntity
  8
細線
100
AcDbLine
 10
12348.02055958911
 20
2745.571314995788
 30
0.0
 11
12388.20964971968
 21
2737.382761799784
 31
0.0
  0
LINE
  5
215E7
330
747D
100
AcDbEntity
  8
細線
100
AcDbLine
 10
12262.78650227245
 20
2745.571314995788
 30
0.0
 11
12318.51649091089
 21
2747.209059693177
 31
0.0
  0
LINE
  5
215E8
330
747D
100
AcDbEntity
  8
細線
 48
50.0
100
AcDbLine
 10
12258.20964971968
 20
2570.861442271681
 30
0.0
 11
12278.20964971968
 21
2590.861442271681
 31
0.0
  0
CIRCLE
  5
215E9
330
747D
100
AcDbEntity
  8
部品1
 48
50.0
100
AcDbCircle
 10
12268.20964971968
 20
2604.537402725691
 30
0.0
 40
10.0
  0
LINE
  5
215EA
330
747D
100
AcDbEntity
  8
細線
 48
50.0
100
AcDbLine
 10
12298.20964971968
 20
2577.185481817672
 30
0.0
 11
12388.20964971968
 21
2667.185481817672
 31
0.0
  0
LINE
  5
215EB
330
747D
100
AcDbEntity
  8
細線
 48
50.0
100
AcDbLine
 10
12283.82517784777
 20
2630.152930853779
 30
0.0
 11
12388.20964971968
 21
2734.537402725691
 31
0.0
  0
LINE
  5
215EC
330
747D
100
AcDbEntity
  8
細線
 48
50.0
100
AcDbLine
 10
12297.65053380216
 20
2610.302326354159
 30
0.0
 11
12388.20964971968
 21
2700.861442271681
 31
0.0
  0
LINE
  5
215ED
330
747D
100
AcDbEntity
  8
細線
100
AcDbLine
 10
12318.51649091089
 20
2747.209059693177
 30
0.0
 11
12348.02055958911
 21
2745.571314995788
 31
0.0
  0
LINE
  5
215EE
330
747D
100
AcDbEntity
  8
細線
 48
50.0
100
AcDbLine
 10
12816.07760417231
 20
2123.055473120806
 30
0.0
 11
12858.94947496129
 21
2283.055473120806
 31
0.0
  0
LINE
  5
215EF
330
747D
100
AcDbEntity
  8
細線
 48
50.0
100
AcDbLine
 10
12717.46754798825
 20
2123.055473120806
 30
0.0
 11
12760.33941877723
 21
2283.055473120806
 31
0.0
  0
LINE
  5
215F0
330
747D
100
AcDbEntity
  8
細線
 48
50.0
100
AcDbLine
 10
12824.11607994524
 20
2153.055473120806
 30
0.0
 11
12832.15455571818
 21
2123.055473120806
 31
0.0
  0
LINE
  5
215F1
330
747D
100
AcDbEntity
  8
細線
 48
50.0
100
AcDbLine
 10
12725.50602376119
 20
2153.055473120806
 30
0.0
 11
12733.54449953412
 21
2123.055473120806
 31
0.0
  0
LINE
  5
215F2
330
747D
100
AcDbEntity
  8
細線
 48
50.0
100
AcDbLine
 10
12752.3009430043
 20
2253.055473120806
 30
0.0
 11
12744.26246723136
 21
2283.055473120806
 31
0.0
  0
LINE
  5
215F3
330
747D
100
AcDbEntity
  8
細線
 48
50.0
100
AcDbLine
 10
12850.91099918836
 20
2253.055473120806
 30
0.0
 11
12842.87252341542
 21
2283.055473120806
 31
0.0
  0
TEXT
  5
215F4
330
747D
100
AcDbEntity
  8
文字
 62
     7
 48
50.0
100
AcDbText
 10
11071.05194804929
 20
3859.711001377831
 30
0.0
 40
120.0
  1
重量物を入れる場合（根太部ブロック追加）
  7
STYLE1
100
AcDbText
  0
LINE
  5
215F5
330
747D
100
AcDbEntity
  8
細線
 48
50.0
100
AcDbLine
 10
10492.59014491716
 20
3617.905329720224
 30
0.0
 11
14049.23369428969
 21
3617.905329720225
 31
0.0
  0
LINE
  5
215F6
330
747D
100
AcDbEntity
  8
部品1
100
AcDbLine
 10
13948.64345389861
 20
3754.683239780646
 30
0.0
 11
10534.22242138712
 21
3754.683239780645
 31
0.0
  0
LINE
  5
215F7
330
747D
100
AcDbEntity
  8
部品1
100
AcDbLine
 10
12776.78947768667
 20
4112.585470597653
 30
0.0
 11
10566.8380802225
 21
4112.585470597653
 31
0.0
  0
TEXT
  5
215F8
330
747D
100
AcDbEntity
  8
文字
 62
     7
 48
50.0
100
AcDbText
 10
10586.08066248562
 20
4177.106031740403
 30
0.0
 40
120.0
  1
（　）内寸法は屋根の出幅です。
  7
STYLE1
100
AcDbText
  0
ARC
  5
215F9
330
747D
100
AcDbEntity
  8
細線
 48
50.0
100
AcDbCircle
 10
10412.59014491716
 20
3657.905329720224
 30
0.0
 40
80.0
100
AcDbArc
 50
0.0
 51
90.0
  0
LINE
  5
215FA
330
747D
100
AcDbEntity
  8
細線
 48
50.0
100
AcDbLine
 10
10492.59014491716
 20
3577.905329720225
 30
0.0
 11
10492.59014491716
 21
3577.905329720225
 31
0.0
  0
LINE
  5
215FB
330
747D
100
AcDbEntity
  8
細線
 48
50.0
100
AcDbLine
 10
10492.59014491716
 20
3657.905329720224
 30
0.0
 11
10492.59014491716
 21
3577.905329720225
 31
0.0
  0
ARC
  5
215FC
330
747D
100
AcDbEntity
  8
細線
 48
50.0
100
AcDbCircle
 10
10412.59014491716
 20
3577.905329720225
 30
0.0
 40
80.0
100
AcDbArc
 50
270.0
 51
0.0
  0
LINE
  5
215FD
330
747D
100
AcDbEntity
  8
細線
 48
10.0
100
AcDbLine
 10
10593.90327515775
 20
4038.718375755618
 30
0.0
 11
10993.90327515775
 21
4038.718375755618
 31
0.0
  0
LINE
  5
215FE
330
747D
100
AcDbEntity
  8
細線
 48
10.0
100
AcDbLine
 10
10593.90327515775
 20
3838.718375755619
 30
0.0
 11
10993.90327515775
 21
3838.718375755619
 31
0.0
  0
LINE
  5
215FF
330
747D
100
AcDbEntity
  8
細線
 48
10.0
100
AcDbLine
 10
10593.90327515775
 20
3838.718375755619
 30
0.0
 11
10593.90327515775
 21
4038.718375755618
 31
0.0
  0
LINE
  5
21600
330
747D
100
AcDbEntity
  8
部品1
 48
50.0
100
AcDbLine
 10
10602.7849160787
 20
3859.558226850425
 30
0.0
 11
10602.7849160787
 21
3859.558226850425
 31
0.0
  0
LINE
  5
21601
330
747D
100
AcDbEntity
  8
部品1
 48
50.0
100
AcDbLine
 10
10602.7849160787
 20
3907.183226850425
 30
0.0
 11
10602.7849160787
 21
3907.183226850425
 31
0.0
  0
LINE
  5
21602
330
747D
100
AcDbEntity
  8
部品1
 48
50.0
100
AcDbLine
 10
10602.7849160787
 20
3954.808226850425
 30
0.0
 11
10602.7849160787
 21
3954.808226850425
 31
0.0
  0
LINE
  5
21603
330
747D
100
AcDbEntity
  8
部品1
 48
50.0
100
AcDbLine
 10
10602.7849160787
 20
4002.433226850425
 30
0.0
 11
10602.7849160787
 21
4002.433226850425
 31
0.0
  0
LINE
  5
21604
330
747D
100
AcDbEntity
  8
細線
 48
10.0
100
AcDbLine
 10
10993.90327515775
 20
4038.718375755618
 30
0.0
 11
10993.90327515775
 21
3838.718375755619
 31
0.0
  0
LINE
  5
21605
330
747D
100
AcDbEntity
  8
部品1
 48
50.0
100
AcDbLine
 10
10793.2849160787
 20
3859.558226850425
 30
0.0
 11
10793.2849160787
 21
3859.558226850425
 31
0.0
  0
LINE
  5
21606
330
747D
100
AcDbEntity
  8
部品1
 48
50.0
100
AcDbLine
 10
10769.4724160787
 20
3859.558226850425
 30
0.0
 11
10769.4724160787
 21
3859.558226850425
 31
0.0
  0
LINE
  5
21607
330
747D
100
AcDbEntity
  8
部品1
 48
50.0
100
AcDbLine
 10
10745.6599160787
 20
3859.558226850425
 30
0.0
 11
10745.6599160787
 21
3859.558226850425
 31
0.0
  0
LINE
  5
21608
330
747D
100
AcDbEntity
  8
部品1
 48
50.0
100
AcDbLine
 10
10721.8474160787
 20
3859.558226850425
 30
0.0
 11
10721.8474160787
 21
3859.558226850425
 31
0.0
  0
LINE
  5
21609
330
747D
100
AcDbEntity
  8
部品1
 48
50.0
100
AcDbLine
 10
10698.0349160787
 20
3859.558226850425
 30
0.0
 11
10698.0349160787
 21
3859.558226850425
 31
0.0
  0
LINE
  5
2160A
330
747D
100
AcDbEntity
  8
部品1
 48
50.0
100
AcDbLine
 10
10805.1911660787
 20
3883.370726850425
 30
0.0
 11
10805.1911660787
 21
3883.370726850425
 31
0.0
  0
LINE
  5
2160B
330
747D
100
AcDbEntity
  8
部品1
 48
50.0
100
AcDbLine
 10
10781.3786660787
 20
3883.370726850425
 30
0.0
 11
10781.3786660787
 21
3883.370726850425
 31
0.0
  0
LINE
  5
2160C
330
747D
100
AcDbEntity
  8
部品1
 48
50.0
100
AcDbLine
 10
10757.5661660787
 20
3883.370726850425
 30
0.0
 11
10757.5661660787
 21
3883.370726850425
 31
0.0
  0
LINE
  5
2160D
330
747D
100
AcDbEntity
  8
部品1
 48
50.0
100
AcDbLine
 10
10733.7536660787
 20
3883.370726850425
 30
0.0
 11
10733.7536660787
 21
3883.370726850425
 31
0.0
  0
LINE
  5
2160E
330
747D
100
AcDbEntity
  8
部品1
 48
50.0
100
AcDbLine
 10
10709.9411660787
 20
3883.370726850425
 30
0.0
 11
10709.9411660787
 21
3883.370726850425
 31
0.0
  0
LINE
  5
2160F
330
747D
100
AcDbEntity
  8
部品1
 48
50.0
100
AcDbLine
 10
10686.1286660787
 20
3883.370726850425
 30
0.0
 11
10686.1286660787
 21
3883.370726850425
 31
0.0
  0
LINE
  5
21610
330
747D
100
AcDbEntity
  8
部品1
 48
50.0
100
AcDbLine
 10
10793.2849160787
 20
3907.183226850425
 30
0.0
 11
10793.2849160787
 21
3907.183226850425
 31
0.0
  0
LINE
  5
21611
330
747D
100
AcDbEntity
  8
部品1
 48
50.0
100
AcDbLine
 10
10769.4724160787
 20
3907.183226850425
 30
0.0
 11
10769.4724160787
 21
3907.183226850425
 31
0.0
  0
LINE
  5
21612
330
747D
100
AcDbEntity
  8
部品1
 48
50.0
100
AcDbLine
 10
10745.6599160787
 20
3907.183226850425
 30
0.0
 11
10745.6599160787
 21
3907.183226850425
 31
0.0
  0
LINE
  5
21613
330
747D
100
AcDbEntity
  8
部品1
 48
50.0
100
AcDbLine
 10
10721.8474160787
 20
3907.183226850425
 30
0.0
 11
10721.8474160787
 21
3907.183226850425
 31
0.0
  0
LINE
  5
21614
330
747D
100
AcDbEntity
  8
部品1
 48
50.0
100
AcDbLine
 10
10698.0349160787
 20
3907.183226850425
 30
0.0
 11
10698.0349160787
 21
3907.183226850425
 31
0.0
  0
LINE
  5
21615
330
747D
100
AcDbEntity
  8
部品1
 48
50.0
100
AcDbLine
 10
10805.1911660787
 20
3930.995726850425
 30
0.0
 11
10805.1911660787
 21
3930.995726850425
 31
0.0
  0
LINE
  5
21616
330
747D
100
AcDbEntity
  8
部品1
 48
50.0
100
AcDbLine
 10
10781.3786660787
 20
3930.995726850425
 30
0.0
 11
10781.3786660787
 21
3930.995726850425
 31
0.0
  0
LINE
  5
21617
330
747D
100
AcDbEntity
  8
部品1
 48
50.0
100
AcDbLine
 10
10757.5661660787
 20
3930.995726850425
 30
0.0
 11
10757.5661660787
 21
3930.995726850425
 31
0.0
  0
LINE
  5
21618
330
747D
100
AcDbEntity
  8
部品1
 48
50.0
100
AcDbLine
 10
10733.7536660787
 20
3930.995726850425
 30
0.0
 11
10733.7536660787
 21
3930.995726850425
 31
0.0
  0
LINE
  5
21619
330
747D
100
AcDbEntity
  8
部品1
 48
50.0
100
AcDbLine
 10
10709.9411660787
 20
3930.995726850425
 30
0.0
 11
10709.9411660787
 21
3930.995726850425
 31
0.0
  0
LINE
  5
2161A
330
747D
100
AcDbEntity
  8
部品1
 48
50.0
100
AcDbLine
 10
10686.1286660787
 20
3930.995726850425
 30
0.0
 11
10686.1286660787
 21
3930.995726850425
 31
0.0
  0
LINE
  5
2161B
330
747D
100
AcDbEntity
  8
部品1
 48
50.0
100
AcDbLine
 10
10793.2849160787
 20
3954.808226850425
 30
0.0
 11
10793.2849160787
 21
3954.808226850425
 31
0.0
  0
LINE
  5
2161C
330
747D
100
AcDbEntity
  8
部品1
 48
50.0
100
AcDbLine
 10
10769.4724160787
 20
3954.808226850425
 30
0.0
 11
10769.4724160787
 21
3954.808226850425
 31
0.0
  0
LINE
  5
2161D
330
747D
100
AcDbEntity
  8
部品1
 48
50.0
100
AcDbLine
 10
10745.6599160787
 20
3954.808226850425
 30
0.0
 11
10745.6599160787
 21
3954.808226850425
 31
0.0
  0
LINE
  5
2161E
330
747D
100
AcDbEntity
  8
部品1
 48
50.0
100
AcDbLine
 10
10721.8474160787
 20
3954.808226850425
 30
0.0
 11
10721.8474160787
 21
3954.808226850425
 31
0.0
  0
LINE
  5
2161F
330
747D
100
AcDbEntity
  8
部品1
 48
50.0
100
AcDbLine
 10
10698.0349160787
 20
3954.808226850425
 30
0.0
 11
10698.0349160787
 21
3954.808226850425
 31
0.0
  0
LINE
  5
21620
330
747D
100
AcDbEntity
  8
部品1
 48
50.0
100
AcDbLine
 10
10805.1911660787
 20
3978.620726850425
 30
0.0
 11
10805.1911660787
 21
3978.620726850425
 31
0.0
  0
LINE
  5
21621
330
747D
100
AcDbEntity
  8
部品1
 48
50.0
100
AcDbLine
 10
10781.3786660787
 20
3978.620726850425
 30
0.0
 11
10781.3786660787
 21
3978.620726850425
 31
0.0
  0
LINE
  5
21622
330
747D
100
AcDbEntity
  8
部品1
 48
50.0
100
AcDbLine
 10
10757.5661660787
 20
3978.620726850425
 30
0.0
 11
10757.5661660787
 21
3978.620726850425
 31
0.0
  0
LINE
  5
21623
330
747D
100
AcDbEntity
  8
部品1
 48
50.0
100
AcDbLine
 10
10733.7536660787
 20
3978.620726850425
 30
0.0
 11
10733.7536660787
 21
3978.620726850425
 31
0.0
  0
LINE
  5
21624
330
747D
100
AcDbEntity
  8
部品1
 48
50.0
100
AcDbLine
 10
10709.9411660787
 20
3978.620726850425
 30
0.0
 11
10709.9411660787
 21
3978.620726850425
 31
0.0
  0
LINE
  5
21625
330
747D
100
AcDbEntity
  8
部品1
 48
50.0
100
AcDbLine
 10
10686.1286660787
 20
3978.620726850425
 30
0.0
 11
10686.1286660787
 21
3978.620726850425
 31
0.0
  0
LINE
  5
21626
330
747D
100
AcDbEntity
  8
部品1
 48
50.0
100
AcDbLine
 10
10674.2224160787
 20
3859.558226850425
 30
0.0
 11
10674.2224160787
 21
3859.558226850425
 31
0.0
  0
LINE
  5
21627
330
747D
100
AcDbEntity
  8
部品1
 48
50.0
100
AcDbLine
 10
10650.4099160787
 20
3859.558226850425
 30
0.0
 11
10650.4099160787
 21
3859.558226850425
 31
0.0
  0
LINE
  5
21628
330
747D
100
AcDbEntity
  8
部品1
 48
50.0
100
AcDbLine
 10
10626.5974160787
 20
3859.558226850425
 30
0.0
 11
10626.5974160787
 21
3859.558226850425
 31
0.0
  0
LINE
  5
21629
330
747D
100
AcDbEntity
  8
部品1
 48
50.0
100
AcDbLine
 10
10662.3161660787
 20
3883.370726850425
 30
0.0
 11
10662.3161660787
 21
3883.370726850425
 31
0.0
  0
LINE
  5
2162A
330
747D
100
AcDbEntity
  8
部品1
 48
50.0
100
AcDbLine
 10
10638.5036660787
 20
3883.370726850425
 30
0.0
 11
10638.5036660787
 21
3883.370726850425
 31
0.0
  0
LINE
  5
2162B
330
747D
100
AcDbEntity
  8
部品1
 48
50.0
100
AcDbLine
 10
10614.6911660787
 20
3883.370726850425
 30
0.0
 11
10614.6911660787
 21
3883.370726850425
 31
0.0
  0
LINE
  5
2162C
330
747D
100
AcDbEntity
  8
部品1
 48
50.0
100
AcDbLine
 10
10674.2224160787
 20
3907.183226850425
 30
0.0
 11
10674.2224160787
 21
3907.183226850425
 31
0.0
  0
LINE
  5
2162D
330
747D
100
AcDbEntity
  8
部品1
 48
50.0
100
AcDbLine
 10
10650.4099160787
 20
3907.183226850425
 30
0.0
 11
10650.4099160787
 21
3907.183226850425
 31
0.0
  0
LINE
  5
2162E
330
747D
100
AcDbEntity
  8
部品1
 48
50.0
100
AcDbLine
 10
10626.5974160787
 20
3907.183226850425
 30
0.0
 11
10626.5974160787
 21
3907.183226850425
 31
0.0
  0
LINE
  5
2162F
330
747D
100
AcDbEntity
  8
部品1
 48
50.0
100
AcDbLine
 10
10662.3161660787
 20
3930.995726850425
 30
0.0
 11
10662.3161660787
 21
3930.995726850425
 31
0.0
  0
LINE
  5
21630
330
747D
100
AcDbEntity
  8
部品1
 48
50.0
100
AcDbLine
 10
10638.5036660787
 20
3930.995726850425
 30
0.0
 11
10638.5036660787
 21
3930.995726850425
 31
0.0
  0
LINE
  5
21631
330
747D
100
AcDbEntity
  8
部品1
 48
50.0
100
AcDbLine
 10
10614.6911660787
 20
3930.995726850425
 30
0.0
 11
10614.6911660787
 21
3930.995726850425
 31
0.0
  0
LINE
  5
21632
330
747D
100
AcDbEntity
  8
部品1
 48
50.0
100
AcDbLine
 10
10674.2224160787
 20
3954.808226850425
 30
0.0
 11
10674.2224160787
 21
3954.808226850425
 31
0.0
  0
LINE
  5
21633
330
747D
100
AcDbEntity
  8
部品1
 48
50.0
100
AcDbLine
 10
10650.4099160787
 20
3954.808226850425
 30
0.0
 11
10650.4099160787
 21
3954.808226850425
 31
0.0
  0
LINE
  5
21634
330
747D
100
AcDbEntity
  8
部品1
 48
50.0
100
AcDbLine
 10
10626.5974160787
 20
3954.808226850425
 30
0.0
 11
10626.5974160787
 21
3954.808226850425
 31
0.0
  0
LINE
  5
21635
330
747D
100
AcDbEntity
  8
部品1
 48
50.0
100
AcDbLine
 10
10662.3161660787
 20
3978.620726850425
 30
0.0
 11
10662.3161660787
 21
3978.620726850425
 31
0.0
  0
LINE
  5
21636
330
747D
100
AcDbEntity
  8
部品1
 48
50.0
100
AcDbLine
 10
10638.5036660787
 20
3978.620726850425
 30
0.0
 11
10638.5036660787
 21
3978.620726850425
 31
0.0
  0
LINE
  5
21637
330
747D
100
AcDbEntity
  8
部品1
 48
50.0
100
AcDbLine
 10
10614.6911660787
 20
3978.620726850425
 30
0.0
 11
10614.6911660787
 21
3978.620726850425
 31
0.0
  0
LINE
  5
21638
330
747D
100
AcDbEntity
  8
部品1
 48
50.0
100
AcDbLine
 10
10983.7849160787
 20
3859.558226850425
 30
0.0
 11
10983.7849160787
 21
3859.558226850425
 31
0.0
  0
LINE
  5
21639
330
747D
100
AcDbEntity
  8
部品1
 48
50.0
100
AcDbLine
 10
10959.9724160787
 20
3859.558226850425
 30
0.0
 11
10959.9724160787
 21
3859.558226850425
 31
0.0
  0
LINE
  5
2163A
330
747D
100
AcDbEntity
  8
部品1
 48
50.0
100
AcDbLine
 10
10936.1599160787
 20
3859.558226850425
 30
0.0
 11
10936.1599160787
 21
3859.558226850425
 31
0.0
  0
LINE
  5
2163B
330
747D
100
AcDbEntity
  8
部品1
 48
50.0
100
AcDbLine
 10
10912.3474160787
 20
3859.558226850425
 30
0.0
 11
10912.3474160787
 21
3859.558226850425
 31
0.0
  0
LINE
  5
2163C
330
747D
100
AcDbEntity
  8
部品1
 48
50.0
100
AcDbLine
 10
10888.5349160787
 20
3859.558226850425
 30
0.0
 11
10888.5349160787
 21
3859.558226850425
 31
0.0
  0
LINE
  5
2163D
330
747D
100
AcDbEntity
  8
部品1
 48
50.0
100
AcDbLine
 10
10971.8786660787
 20
3883.370726850425
 30
0.0
 11
10971.8786660787
 21
3883.370726850425
 31
0.0
  0
LINE
  5
2163E
330
747D
100
AcDbEntity
  8
部品1
 48
50.0
100
AcDbLine
 10
10948.0661660787
 20
3883.370726850425
 30
0.0
 11
10948.0661660787
 21
3883.370726850425
 31
0.0
  0
LINE
  5
2163F
330
747D
100
AcDbEntity
  8
部品1
 48
50.0
100
AcDbLine
 10
10924.2536660787
 20
3883.370726850425
 30
0.0
 11
10924.2536660787
 21
3883.370726850425
 31
0.0
  0
LINE
  5
21640
330
747D
100
AcDbEntity
  8
部品1
 48
50.0
100
AcDbLine
 10
10900.4411660787
 20
3883.370726850425
 30
0.0
 11
10900.4411660787
 21
3883.370726850425
 31
0.0
  0
LINE
  5
21641
330
747D
100
AcDbEntity
  8
部品1
 48
50.0
100
AcDbLine
 10
10983.7849160787
 20
3907.183226850425
 30
0.0
 11
10983.7849160787
 21
3907.183226850425
 31
0.0
  0
LINE
  5
21642
330
747D
100
AcDbEntity
  8
部品1
 48
50.0
100
AcDbLine
 10
10959.9724160787
 20
3907.183226850425
 30
0.0
 11
10959.9724160787
 21
3907.183226850425
 31
0.0
  0
LINE
  5
21643
330
747D
100
AcDbEntity
  8
部品1
 48
50.0
100
AcDbLine
 10
10936.1599160787
 20
3907.183226850425
 30
0.0
 11
10936.1599160787
 21
3907.183226850425
 31
0.0
  0
LINE
  5
21644
330
747D
100
AcDbEntity
  8
部品1
 48
50.0
100
AcDbLine
 10
10912.3474160787
 20
3907.183226850425
 30
0.0
 11
10912.3474160787
 21
3907.183226850425
 31
0.0
  0
LINE
  5
21645
330
747D
100
AcDbEntity
  8
部品1
 48
50.0
100
AcDbLine
 10
10888.5349160787
 20
3907.183226850425
 30
0.0
 11
10888.5349160787
 21
3907.183226850425
 31
0.0
  0
LINE
  5
21646
330
747D
100
AcDbEntity
  8
部品1
 48
50.0
100
AcDbLine
 10
10971.8786660787
 20
3930.995726850425
 30
0.0
 11
10971.8786660787
 21
3930.995726850425
 31
0.0
  0
LINE
  5
21647
330
747D
100
AcDbEntity
  8
部品1
 48
50.0
100
AcDbLine
 10
10948.0661660787
 20
3930.995726850425
 30
0.0
 11
10948.0661660787
 21
3930.995726850425
 31
0.0
  0
LINE
  5
21648
330
747D
100
AcDbEntity
  8
部品1
 48
50.0
100
AcDbLine
 10
10924.2536660787
 20
3930.995726850425
 30
0.0
 11
10924.2536660787
 21
3930.995726850425
 31
0.0
  0
LINE
  5
21649
330
747D
100
AcDbEntity
  8
部品1
 48
50.0
100
AcDbLine
 10
10900.4411660787
 20
3930.995726850425
 30
0.0
 11
10900.4411660787
 21
3930.995726850425
 31
0.0
  0
LINE
  5
2164A
330
747D
100
AcDbEntity
  8
部品1
 48
50.0
100
AcDbLine
 10
10983.7849160787
 20
3954.808226850425
 30
0.0
 11
10983.7849160787
 21
3954.808226850425
 31
0.0
  0
LINE
  5
2164B
330
747D
100
AcDbEntity
  8
部品1
 48
50.0
100
AcDbLine
 10
10959.9724160787
 20
3954.808226850425
 30
0.0
 11
10959.9724160787
 21
3954.808226850425
 31
0.0
  0
LINE
  5
2164C
330
747D
100
AcDbEntity
  8
部品1
 48
50.0
100
AcDbLine
 10
10936.1599160787
 20
3954.808226850425
 30
0.0
 11
10936.1599160787
 21
3954.808226850425
 31
0.0
  0
LINE
  5
2164D
330
747D
100
AcDbEntity
  8
部品1
 48
50.0
100
AcDbLine
 10
10912.3474160787
 20
3954.808226850425
 30
0.0
 11
10912.3474160787
 21
3954.808226850425
 31
0.0
  0
LINE
  5
2164E
330
747D
100
AcDbEntity
  8
部品1
 48
50.0
100
AcDbLine
 10
10888.5349160787
 20
3954.808226850425
 30
0.0
 11
10888.5349160787
 21
3954.808226850425
 31
0.0
  0
LINE
  5
2164F
330
747D
100
AcDbEntity
  8
部品1
 48
50.0
100
AcDbLine
 10
10971.8786660787
 20
3978.620726850425
 30
0.0
 11
10971.8786660787
 21
3978.620726850425
 31
0.0
  0
LINE
  5
21650
330
747D
100
AcDbEntity
  8
部品1
 48
50.0
100
AcDbLine
 10
10948.0661660787
 20
3978.620726850425
 30
0.0
 11
10948.0661660787
 21
3978.620726850425
 31
0.0
  0
LINE
  5
21651
330
747D
100
AcDbEntity
  8
部品1
 48
50.0
100
AcDbLine
 10
10924.2536660787
 20
3978.620726850425
 30
0.0
 11
10924.2536660787
 21
3978.620726850425
 31
0.0
  0
LINE
  5
21652
330
747D
100
AcDbEntity
  8
部品1
 48
50.0
100
AcDbLine
 10
10900.4411660787
 20
3978.620726850425
 30
0.0
 11
10900.4411660787
 21
3978.620726850425
 31
0.0
  0
LINE
  5
21653
330
747D
100
AcDbEntity
  8
部品1
 48
50.0
100
AcDbLine
 10
10864.7224160787
 20
3859.558226850425
 30
0.0
 11
10864.7224160787
 21
3859.558226850425
 31
0.0
  0
LINE
  5
21654
330
747D
100
AcDbEntity
  8
部品1
 48
50.0
100
AcDbLine
 10
10840.9099160787
 20
3859.558226850425
 30
0.0
 11
10840.9099160787
 21
3859.558226850425
 31
0.0
  0
LINE
  5
21655
330
747D
100
AcDbEntity
  8
部品1
 48
50.0
100
AcDbLine
 10
10817.0974160787
 20
3859.558226850425
 30
0.0
 11
10817.0974160787
 21
3859.558226850425
 31
0.0
  0
LINE
  5
21656
330
747D
100
AcDbEntity
  8
部品1
 48
50.0
100
AcDbLine
 10
10876.6286660787
 20
3883.370726850425
 30
0.0
 11
10876.6286660787
 21
3883.370726850425
 31
0.0
  0
LINE
  5
21657
330
747D
100
AcDbEntity
  8
部品1
 48
50.0
100
AcDbLine
 10
10852.8161660787
 20
3883.370726850425
 30
0.0
 11
10852.8161660787
 21
3883.370726850425
 31
0.0
  0
LINE
  5
21658
330
747D
100
AcDbEntity
  8
部品1
 48
50.0
100
AcDbLine
 10
10829.0036660787
 20
3883.370726850425
 30
0.0
 11
10829.0036660787
 21
3883.370726850425
 31
0.0
  0
LINE
  5
21659
330
747D
100
AcDbEntity
  8
部品1
 48
50.0
100
AcDbLine
 10
10864.7224160787
 20
3907.183226850425
 30
0.0
 11
10864.7224160787
 21
3907.183226850425
 31
0.0
  0
LINE
  5
2165A
330
747D
100
AcDbEntity
  8
部品1
 48
50.0
100
AcDbLine
 10
10840.9099160787
 20
3907.183226850425
 30
0.0
 11
10840.9099160787
 21
3907.183226850425
 31
0.0
  0
LINE
  5
2165B
330
747D
100
AcDbEntity
  8
部品1
 48
50.0
100
AcDbLine
 10
10817.0974160787
 20
3907.183226850425
 30
0.0
 11
10817.0974160787
 21
3907.183226850425
 31
0.0
  0
LINE
  5
2165C
330
747D
100
AcDbEntity
  8
部品1
 48
50.0
100
AcDbLine
 10
10876.6286660787
 20
3930.995726850425
 30
0.0
 11
10876.6286660787
 21
3930.995726850425
 31
0.0
  0
LINE
  5
2165D
330
747D
100
AcDbEntity
  8
部品1
 48
50.0
100
AcDbLine
 10
10852.8161660787
 20
3930.995726850425
 30
0.0
 11
10852.8161660787
 21
3930.995726850425
 31
0.0
  0
LINE
  5
2165E
330
747D
100
AcDbEntity
  8
部品1
 48
50.0
100
AcDbLine
 10
10829.0036660787
 20
3930.995726850425
 30
0.0
 11
10829.0036660787
 21
3930.995726850425
 31
0.0
  0
LINE
  5
2165F
330
747D
100
AcDbEntity
  8
部品1
 48
50.0
100
AcDbLine
 10
10864.7224160787
 20
3954.808226850425
 30
0.0
 11
10864.7224160787
 21
3954.808226850425
 31
0.0
  0
LINE
  5
21660
330
747D
100
AcDbEntity
  8
部品1
 48
50.0
100
AcDbLine
 10
10840.9099160787
 20
3954.808226850425
 30
0.0
 11
10840.9099160787
 21
3954.808226850425
 31
0.0
  0
LINE
  5
21661
330
747D
100
AcDbEntity
  8
部品1
 48
50.0
100
AcDbLine
 10
10817.0974160787
 20
3954.808226850425
 30
0.0
 11
10817.0974160787
 21
3954.808226850425
 31
0.0
  0
LINE
  5
21662
330
747D
100
AcDbEntity
  8
部品1
 48
50.0
100
AcDbLine
 10
10876.6286660787
 20
3978.620726850425
 30
0.0
 11
10876.6286660787
 21
3978.620726850425
 31
0.0
  0
LINE
  5
21663
330
747D
100
AcDbEntity
  8
部品1
 48
50.0
100
AcDbLine
 10
10852.8161660787
 20
3978.620726850425
 30
0.0
 11
10852.8161660787
 21
3978.620726850425
 31
0.0
  0
LINE
  5
21664
330
747D
100
AcDbEntity
  8
部品1
 48
50.0
100
AcDbLine
 10
10829.0036660787
 20
3978.620726850425
 30
0.0
 11
10829.0036660787
 21
3978.620726850425
 31
0.0
  0
LINE
  5
21665
330
747D
100
AcDbEntity
  8
部品1
 48
50.0
100
AcDbLine
 10
10793.2849160787
 20
4002.433226850425
 30
0.0
 11
10793.2849160787
 21
4002.433226850425
 31
0.0
  0
LINE
  5
21666
330
747D
100
AcDbEntity
  8
部品1
 48
50.0
100
AcDbLine
 10
10769.4724160787
 20
4002.433226850425
 30
0.0
 11
10769.4724160787
 21
4002.433226850425
 31
0.0
  0
LINE
  5
21667
330
747D
100
AcDbEntity
  8
部品1
 48
50.0
100
AcDbLine
 10
10745.6599160787
 20
4002.433226850425
 30
0.0
 11
10745.6599160787
 21
4002.433226850425
 31
0.0
  0
LINE
  5
21668
330
747D
100
AcDbEntity
  8
部品1
 48
50.0
100
AcDbLine
 10
10721.8474160787
 20
4002.433226850425
 30
0.0
 11
10721.8474160787
 21
4002.433226850425
 31
0.0
  0
LINE
  5
21669
330
747D
100
AcDbEntity
  8
部品1
 48
50.0
100
AcDbLine
 10
10698.0349160787
 20
4002.433226850425
 30
0.0
 11
10698.0349160787
 21
4002.433226850425
 31
0.0
  0
LINE
  5
2166A
330
747D
100
AcDbEntity
  8
部品1
 48
50.0
100
AcDbLine
 10
10805.1911660787
 20
4026.245726850425
 30
0.0
 11
10805.1911660787
 21
4026.245726850425
 31
0.0
  0
LINE
  5
2166B
330
747D
100
AcDbEntity
  8
部品1
 48
50.0
100
AcDbLine
 10
10781.3786660787
 20
4026.245726850425
 30
0.0
 11
10781.3786660787
 21
4026.245726850425
 31
0.0
  0
LINE
  5
2166C
330
747D
100
AcDbEntity
  8
部品1
 48
50.0
100
AcDbLine
 10
10757.5661660787
 20
4026.245726850425
 30
0.0
 11
10757.5661660787
 21
4026.245726850425
 31
0.0
  0
LINE
  5
2166D
330
747D
100
AcDbEntity
  8
部品1
 48
50.0
100
AcDbLine
 10
10733.7536660787
 20
4026.245726850425
 30
0.0
 11
10733.7536660787
 21
4026.245726850425
 31
0.0
  0
LINE
  5
2166E
330
747D
100
AcDbEntity
  8
部品1
 48
50.0
100
AcDbLine
 10
10709.9411660787
 20
4026.245726850425
 30
0.0
 11
10709.9411660787
 21
4026.245726850425
 31
0.0
  0
LINE
  5
2166F
330
747D
100
AcDbEntity
  8
部品1
 48
50.0
100
AcDbLine
 10
10686.1286660787
 20
4026.245726850425
 30
0.0
 11
10686.1286660787
 21
4026.245726850425
 31
0.0
  0
LINE
  5
21670
330
747D
100
AcDbEntity
  8
部品1
 48
50.0
100
AcDbLine
 10
10674.2224160787
 20
4002.433226850425
 30
0.0
 11
10674.2224160787
 21
4002.433226850425
 31
0.0
  0
LINE
  5
21671
330
747D
100
AcDbEntity
  8
部品1
 48
50.0
100
AcDbLine
 10
10650.4099160787
 20
4002.433226850425
 30
0.0
 11
10650.4099160787
 21
4002.433226850425
 31
0.0
  0
LINE
  5
21672
330
747D
100
AcDbEntity
  8
部品1
 48
50.0
100
AcDbLine
 10
10626.5974160787
 20
4002.433226850425
 30
0.0
 11
10626.5974160787
 21
4002.433226850425
 31
0.0
  0
LINE
  5
21673
330
747D
100
AcDbEntity
  8
部品1
 48
50.0
100
AcDbLine
 10
10662.3161660787
 20
4026.245726850425
 30
0.0
 11
10662.3161660787
 21
4026.245726850425
 31
0.0
  0
LINE
  5
21674
330
747D
100
AcDbEntity
  8
部品1
 48
50.0
100
AcDbLine
 10
10638.5036660787
 20
4026.245726850425
 30
0.0
 11
10638.5036660787
 21
4026.245726850425
 31
0.0
  0
LINE
  5
21675
330
747D
100
AcDbEntity
  8
部品1
 48
50.0
100
AcDbLine
 10
10614.6911660787
 20
4026.245726850425
 30
0.0
 11
10614.6911660787
 21
4026.245726850425
 31
0.0
  0
LINE
  5
21676
330
747D
100
AcDbEntity
  8
部品1
 48
50.0
100
AcDbLine
 10
10983.7849160787
 20
4002.433226850425
 30
0.0
 11
10983.7849160787
 21
4002.433226850425
 31
0.0
  0
LINE
  5
21677
330
747D
100
AcDbEntity
  8
部品1
 48
50.0
100
AcDbLine
 10
10959.9724160787
 20
4002.433226850425
 30
0.0
 11
10959.9724160787
 21
4002.433226850425
 31
0.0
  0
LINE
  5
21678
330
747D
100
AcDbEntity
  8
部品1
 48
50.0
100
AcDbLine
 10
10936.1599160787
 20
4002.433226850425
 30
0.0
 11
10936.1599160787
 21
4002.433226850425
 31
0.0
  0
LINE
  5
21679
330
747D
100
AcDbEntity
  8
部品1
 48
50.0
100
AcDbLine
 10
10912.3474160787
 20
4002.433226850425
 30
0.0
 11
10912.3474160787
 21
4002.433226850425
 31
0.0
  0
LINE
  5
2167A
330
747D
100
AcDbEntity
  8
部品1
 48
50.0
100
AcDbLine
 10
10888.5349160787
 20
4002.433226850425
 30
0.0
 11
10888.5349160787
 21
4002.433226850425
 31
0.0
  0
LINE
  5
2167B
330
747D
100
AcDbEntity
  8
部品1
 48
50.0
100
AcDbLine
 10
10971.8786660787
 20
4026.245726850425
 30
0.0
 11
10971.8786660787
 21
4026.245726850425
 31
0.0
  0
LINE
  5
2167C
330
747D
100
AcDbEntity
  8
部品1
 48
50.0
100
AcDbLine
 10
10948.0661660787
 20
4026.245726850425
 30
0.0
 11
10948.0661660787
 21
4026.245726850425
 31
0.0
  0
LINE
  5
2167D
330
747D
100
AcDbEntity
  8
部品1
 48
50.0
100
AcDbLine
 10
10924.2536660787
 20
4026.245726850425
 30
0.0
 11
10924.2536660787
 21
4026.245726850425
 31
0.0
  0
LINE
  5
2167E
330
747D
100
AcDbEntity
  8
部品1
 48
50.0
100
AcDbLine
 10
10900.4411660787
 20
4026.245726850425
 30
0.0
 11
10900.4411660787
 21
4026.245726850425
 31
0.0
  0
LINE
  5
2167F
330
747D
100
AcDbEntity
  8
部品1
 48
50.0
100
AcDbLine
 10
10864.7224160787
 20
4002.433226850425
 30
0.0
 11
10864.7224160787
 21
4002.433226850425
 31
0.0
  0
LINE
  5
21680
330
747D
100
AcDbEntity
  8
部品1
 48
50.0
100
AcDbLine
 10
10840.9099160787
 20
4002.433226850425
 30
0.0
 11
10840.9099160787
 21
4002.433226850425
 31
0.0
  0
LINE
  5
21681
330
747D
100
AcDbEntity
  8
部品1
 48
50.0
100
AcDbLine
 10
10817.0974160787
 20
4002.433226850425
 30
0.0
 11
10817.0974160787
 21
4002.433226850425
 31
0.0
  0
LINE
  5
21682
330
747D
100
AcDbEntity
  8
部品1
 48
50.0
100
AcDbLine
 10
10876.6286660787
 20
4026.245726850425
 30
0.0
 11
10876.6286660787
 21
4026.245726850425
 31
0.0
  0
LINE
  5
21683
330
747D
100
AcDbEntity
  8
部品1
 48
50.0
100
AcDbLine
 10
10852.8161660787
 20
4026.245726850425
 30
0.0
 11
10852.8161660787
 21
4026.245726850425
 31
0.0
  0
LINE
  5
21684
330
747D
100
AcDbEntity
  8
部品1
 48
50.0
100
AcDbLine
 10
10829.0036660787
 20
4026.245726850425
 30
0.0
 11
10829.0036660787
 21
4026.245726850425
 31
0.0
  0
LWPOLYLINE
  5
2171C
330
747D
100
AcDbEntity
  8
細線
 48
50.0
100
AcDbPolyline
 90
        4
 70
     1
 43
0.0
 10
8337.0
 20
9703.810165560842
 10
8537.0
 20
9703.810165560842
 10
8537.0
 20
10103.81016556084
 10
8337.0
 20
10103.81016556084
  0
LWPOLYLINE
  5
2171D
330
747D
100
AcDbEntity
  8
細線
 48
50.0
100
AcDbPolyline
 90
        4
 70
     1
 43
0.0
 10
8337.0
 20
9123.81016556084
 10
8537.0
 20
9123.81016556084
 10
8537.0
 20
9523.81016556084
 10
8337.0
 20
9523.81016556084
  0
LWPOLYLINE
  5
2171E
330
747D
100
AcDbEntity
  8
細線
 48
50.0
100
AcDbPolyline
 90
        4
 70
     1
 43
0.0
 10
8337.0
 20
8253.810165560841
 10
8537.0
 20
8253.810165560841
 10
8537.0
 20
8653.810165560841
 10
8337.0
 20
8653.810165560841
  0
LWPOLYLINE
  5
2171F
330
747D
100
AcDbEntity
  8
細線
 48
50.0
100
AcDbPolyline
 90
        4
 70
     1
 43
0.0
 10
8337.0
 20
7673.810165560841
 10
8537.0
 20
7673.810165560841
 10
8537.0
 20
8073.810165560841
 10
8337.0
 20
8073.810165560841
  0
LWPOLYLINE
  5
21720
330
747D
100
AcDbEntity
  8
部品1
 48
50.0
100
AcDbPolyline
 90
        4
 70
     1
 43
0.0
 10
10479.5
 20
9513.81016556084
 10
10479.5
 20
9713.810165560841
 10
10079.5
 20
9713.810165560841
 10
10079.5
 20
9513.81016556084
  0
LWPOLYLINE
  5
21721
330
747D
100
AcDbEntity
  8
部品1
 48
50.0
100
AcDbPolyline
 90
        4
 70
     1
 43
0.0
 10
10479.5
 20
8788.810165560841
 10
10479.5
 20
8988.81016556084
 10
10079.5
 20
8988.81016556084
 10
10079.5
 20
8788.810165560841
  0
LWPOLYLINE
  5
21722
330
747D
100
AcDbEntity
  8
部品1
 48
50.0
100
AcDbPolyline
 90
        4
 70
     1
 43
0.0
 10
10479.5
 20
8063.810165560841
 10
10479.5
 20
8263.81016556084
 10
10079.5
 20
8263.81016556084
 10
10079.5
 20
8063.810165560841
  0
LWPOLYLINE
  5
21723
330
747D
100
AcDbEntity
  8
部品1
 48
50.0
100
AcDbPolyline
 90
        4
 70
     1
 43
0.0
 10
8949.5
 20
9513.81016556084
 10
9149.500000000001
 20
9513.81016556084
 10
9149.500000000001
 20
9713.810165560841
 10
8949.5
 20
9713.810165560841
  0
LWPOLYLINE
  5
21724
330
747D
100
AcDbEntity
  8
部品1
 48
50.0
100
AcDbPolyline
 90
        4
 70
     1
 43
0.0
 10
8949.5
 20
8788.810165560841
 10
9149.500000000001
 20
8788.810165560841
 10
9149.500000000001
 20
8988.81016556084
 10
8949.5
 20
8988.81016556084
  0
LWPOLYLINE
  5
21725
330
747D
100
AcDbEntity
  8
部品1
 48
50.0
100
AcDbPolyline
 90
        4
 70
     1
 43
0.0
 10
8949.5
 20
8063.810165560841
 10
9149.500000000001
 20
8063.810165560841
 10
9149.500000000001
 20
8263.81016556084
 10
8949.5
 20
8263.81016556084
  0
LWPOLYLINE
  5
21726
330
747D
100
AcDbEntity
  8
部品1
 48
50.0
100
AcDbPolyline
 90
        4
 70
     1
 43
0.0
 10
11409.5
 20
8063.810165560841
 10
11609.5
 20
8063.810165560841
 10
11609.5
 20
8263.81016556084
 10
11409.5
 20
8263.81016556084
  0
LWPOLYLINE
  5
21727
330
747D
100
AcDbEntity
  8
部品1
 48
50.0
100
AcDbPolyline
 90
        4
 70
     1
 43
0.0
 10
11409.5
 20
8788.810165560841
 10
11609.5
 20
8788.810165560841
 10
11609.5
 20
8988.81016556084
 10
11409.5
 20
8988.81016556084
  0
LWPOLYLINE
  5
21728
330
747D
100
AcDbEntity
  8
部品1
 48
50.0
100
AcDbPolyline
 90
        4
 70
     1
 43
0.0
 10
11409.5
 20
9513.81016556084
 10
11609.5
 20
9513.81016556084
 10
11609.5
 20
9713.810165560841
 10
11409.5
 20
9713.810165560841
  0
LWPOLYLINE
  5
21729
330
747D
100
AcDbEntity
  8
細線
 48
50.0
100
AcDbPolyline
 90
        4
 70
     1
 43
0.0
 10
8337.0
 20
8788.810165560841
 10
8537.0
 20
8788.810165560841
 10
8537.0
 20
8988.81016556084
 10
8337.0
 20
8988.81016556084
  0
HATCH
  5
2172A
330
747D
100
AcDbEntity
  8
部品1
 48
50.0
100
AcDbHatch
 10
0.0
 20
0.0
 30
0.0
210
0.0
220
0.0
230
1.0
  2
DOTS
 70
     0
 71
     0
 91
        5
 92
        1
 93
        4
 72
     1
 10
8337.0
 20
9703.810165560842
 11
8537.0
 21
9703.810165560842
 72
     1
 10
8537.0
 20
9703.810165560842
 11
8537.0
 21
10103.81016556084
 72
     1
 10
8537.0
 20
10103.81016556084
 11
8337.0
 21
10103.81016556084
 72
     1
 10
8337.0
 20
10103.81016556084
 11
8337.0
 21
9703.810165560842
 97
        0
 92
        1
 93
        4
 72
     1
 10
8337.0
 20
9123.81016556084
 11
8537.0
 21
9123.81016556084
 72
     1
 10
8537.0
 20
9123.81016556084
 11
8537.0
 21
9523.81016556084
 72
     1
 10
8537.0
 20
9523.81016556084
 11
8337.0
 21
9523.81016556084
 72
     1
 10
8337.0
 20
9523.81016556084
 11
8337.0
 21
9123.81016556084
 97
        0
 92
        1
 93
        4
 72
     1
 10
8337.0
 20
8788.810165560841
 11
8537.0
 21
8788.810165560841
 72
     1
 10
8537.0
 20
8788.810165560841
 11
8537.0
 21
8988.81016556084
 72
     1
 10
8537.0
 20
8988.81016556084
 11
8337.0
 21
8988.81016556084
 72
     1
 10
8337.0
 20
8988.81016556084
 11
8337.0
 21
8788.810165560841
 97
        0
 92
        1
 93
        4
 72
     1
 10
8337.0
 20
8253.810165560841
 11
8537.0
 21
8253.810165560841
 72
     1
 10
8537.0
 20
8253.810165560841
 11
8537.0
 21
8653.810165560841
 72
     1
 10
8537.0
 20
8653.810165560841
 11
8337.0
 21
8653.810165560841
 72
     1
 10
8337.0
 20
8653.810165560841
 11
8337.0
 21
8253.810165560841
 97
        0
 92
        1
 93
        4
 72
     1
 10
8337.0
 20
7673.810165560841
 11
8537.0
 21
7673.810165560841
 72
     1
 10
8537.0
 20
7673.810165560841
 11
8537.0
 21
8073.810165560841
 72
     1
 10
8537.0
 20
8073.810165560841
 11
8337.0
 21
8073.810165560841
 72
     1
 10
8337.0
 20
8073.810165560841
 11
8337.0
 21
7673.810165560841
 97
        0
 75
     0
 76
     1
 52
0.0
 41
15.0
 77
     0
 78
     1
 53
0.0
 43
0.0
 44
0.0
 45
11.90625
 46
23.8125
 79
     2
 49
0.0
 49
-23.8125
 98
        1
 10
0.0
 20
0.0
  0
HATCH
  5
2172B
330
747D
100
AcDbEntity
  8
部品1
 48
50.0
100
AcDbHatch
 10
0.0
 20
0.0
 30
0.0
210
0.0
220
0.0
230
1.0
  2
DOTS
 70
     0
 71
     0
 91
        5
 92
        1
 93
        4
 72
     1
 10
9519.5
 20
9703.810165560852
 11
9719.500000000001
 21
9703.810165560852
 72
     1
 10
9719.500000000001
 20
9703.810165560852
 11
9719.500000000001
 21
10103.81016556085
 72
     1
 10
9719.500000000001
 20
10103.81016556085
 11
9519.5
 21
10103.81016556085
 72
     1
 10
9519.5
 20
10103.81016556085
 11
9519.5
 21
9703.810165560852
 97
        0
 92
        1
 93
        4
 72
     1
 10
9519.5
 20
9123.810165560852
 11
9719.500000000001
 21
9123.810165560852
 72
     1
 10
9719.500000000001
 20
9123.810165560852
 11
9719.500000000001
 21
9523.810165560851
 72
     1
 10
9719.500000000001
 20
9523.810165560851
 11
9519.5
 21
9523.810165560851
 72
     1
 10
9519.5
 20
9523.810165560851
 11
9519.5
 21
9123.810165560852
 97
        0
 92
        1
 93
        4
 72
     1
 10
9519.5
 20
8788.810165560851
 11
9719.500000000001
 21
8788.810165560851
 72
     1
 10
9719.500000000001
 20
8788.810165560851
 11
9719.500000000001
 21
8988.810165560852
 72
     1
 10
9719.500000000001
 20
8988.810165560852
 11
9519.5
 21
8988.810165560852
 72
     1
 10
9519.5
 20
8988.810165560852
 11
9519.5
 21
8788.810165560851
 97
        0
 92
        1
 93
        4
 72
     1
 10
9519.5
 20
8253.810165560851
 11
9719.500000000001
 21
8253.810165560851
 72
     1
 10
9719.500000000001
 20
8253.810165560851
 11
9719.500000000001
 21
8653.810165560852
 72
     1
 10
9719.500000000001
 20
8653.810165560852
 11
9519.5
 21
8653.810165560852
 72
     1
 10
9519.5
 20
8653.810165560852
 11
9519.5
 21
8253.810165560851
 97
        0
 92
        1
 93
        4
 72
     1
 10
9519.5
 20
7673.810165560851
 11
9719.500000000001
 21
7673.810165560851
 72
     1
 10
9719.500000000001
 20
7673.810165560851
 11
9719.500000000001
 21
8073.810165560852
 72
     1
 10
9719.500000000001
 20
8073.810165560852
 11
9519.5
 21
8073.810165560852
 72
     1
 10
9519.5
 20
8073.810165560852
 11
9519.5
 21
7673.810165560851
 97
        0
 75
     0
 76
     1
 52
0.0
 41
15.0
 77
     0
 78
     1
 53
0.0
 43
1182.5
 44
0.0000000000109139
 45
11.90625
 46
23.8125
 79
     2
 49
0.0
 49
-23.8125
 98
        1
 10
1182.5
 20
0.0000000000109139
  0
LWPOLYLINE
  5
2172C
330
747D
100
AcDbEntity
  8
細線
 48
50.0
100
AcDbPolyline
 90
        4
 70
     1
 43
0.0
 10
9519.5
 20
9703.810165560852
 10
9719.500000000001
 20
9703.810165560852
 10
9719.500000000001
 20
10103.81016556085
 10
9519.5
 20
10103.81016556085
  0
LWPOLYLINE
  5
2172D
330
747D
100
AcDbEntity
  8
細線
 48
50.0
100
AcDbPolyline
 90
        4
 70
     1
 43
0.0
 10
9519.5
 20
9123.810165560852
 10
9719.500000000001
 20
9123.810165560852
 10
9719.500000000001
 20
9523.810165560851
 10
9519.5
 20
9523.810165560851
  0
LWPOLYLINE
  5
2172E
330
747D
100
AcDbEntity
  8
細線
 48
50.0
100
AcDbPolyline
 90
        4
 70
     1
 43
0.0
 10
9519.5
 20
8788.810165560851
 10
9719.500000000001
 20
8788.810165560851
 10
9719.500000000001
 20
8988.810165560852
 10
9519.5
 20
8988.810165560852
  0
LWPOLYLINE
  5
2172F
330
747D
100
AcDbEntity
  8
細線
 48
50.0
100
AcDbPolyline
 90
        4
 70
     1
 43
0.0
 10
9519.5
 20
8253.810165560851
 10
9719.500000000001
 20
8253.810165560851
 10
9719.500000000001
 20
8653.810165560852
 10
9519.5
 20
8653.810165560852
  0
LWPOLYLINE
  5
21730
330
747D
100
AcDbEntity
  8
細線
 48
50.0
100
AcDbPolyline
 90
        4
 70
     1
 43
0.0
 10
9519.5
 20
7673.810165560851
 10
9719.500000000001
 20
7673.810165560851
 10
9719.500000000001
 20
8073.810165560852
 10
9519.5
 20
8073.810165560852
  0
HATCH
  5
21731
330
747D
100
AcDbEntity
  8
部品1
 48
50.0
100
AcDbHatch
 10
0.0
 20
0.0
 30
0.0
210
0.0
220
0.0
230
1.0
  2
DOTS
 70
     0
 71
     0
 91
        5
 92
        1
 93
        4
 72
     1
 10
10839.5
 20
9703.810165560852
 11
11039.5
 21
9703.810165560852
 72
     1
 10
11039.5
 20
9703.810165560852
 11
11039.5
 21
10103.81016556085
 72
     1
 10
11039.5
 20
10103.81016556085
 11
10839.5
 21
10103.81016556085
 72
     1
 10
10839.5
 20
10103.81016556085
 11
10839.5
 21
9703.810165560852
 97
        0
 92
        1
 93
        4
 72
     1
 10
10839.5
 20
9123.810165560852
 11
11039.5
 21
9123.810165560852
 72
     1
 10
11039.5
 20
9123.810165560852
 11
11039.5
 21
9523.810165560851
 72
     1
 10
11039.5
 20
9523.810165560851
 11
10839.5
 21
9523.810165560851
 72
     1
 10
10839.5
 20
9523.810165560851
 11
10839.5
 21
9123.810165560852
 97
        0
 92
        1
 93
        4
 72
     1
 10
10839.5
 20
8788.810165560851
 11
11039.5
 21
8788.810165560851
 72
     1
 10
11039.5
 20
8788.810165560851
 11
11039.5
 21
8988.810165560852
 72
     1
 10
11039.5
 20
8988.810165560852
 11
10839.5
 21
8988.810165560852
 72
     1
 10
10839.5
 20
8988.810165560852
 11
10839.5
 21
8788.810165560851
 97
        0
 92
        1
 93
        4
 72
     1
 10
10839.5
 20
8253.810165560851
 11
11039.5
 21
8253.810165560851
 72
     1
 10
11039.5
 20
8253.810165560851
 11
11039.5
 21
8653.810165560852
 72
     1
 10
11039.5
 20
8653.810165560852
 11
10839.5
 21
8653.810165560852
 72
     1
 10
10839.5
 20
8653.810165560852
 11
10839.5
 21
8253.810165560851
 97
        0
 92
        1
 93
        4
 72
     1
 10
10839.5
 20
7673.810165560851
 11
11039.5
 21
7673.810165560851
 72
     1
 10
11039.5
 20
7673.810165560851
 11
11039.5
 21
8073.810165560852
 72
     1
 10
11039.5
 20
8073.810165560852
 11
10839.5
 21
8073.810165560852
 72
     1
 10
10839.5
 20
8073.810165560852
 11
10839.5
 21
7673.810165560851
 97
        0
 75
     0
 76
     1
 52
0.0
 41
15.0
 77
     0
 78
     1
 53
0.0
 43
2502.5
 44
0.0000000000109139
 45
11.90625
 46
23.8125
 79
     2
 49
0.0
 49
-23.8125
 98
        1
 10
2502.5
 20
0.0000000000109139
  0
LWPOLYLINE
  5
21732
330
747D
100
AcDbEntity
  8
細線
 48
50.0
100
AcDbPolyline
 90
        4
 70
     1
 43
0.0
 10
10839.5
 20
9703.810165560852
 10
11039.5
 20
9703.810165560852
 10
11039.5
 20
10103.81016556085
 10
10839.5
 20
10103.81016556085
  0
LWPOLYLINE
  5
21733
330
747D
100
AcDbEntity
  8
細線
 48
50.0
100
AcDbPolyline
 90
        4
 70
     1
 43
0.0
 10
10839.5
 20
9123.810165560852
 10
11039.5
 20
9123.810165560852
 10
11039.5
 20
9523.810165560851
 10
10839.5
 20
9523.810165560851
  0
LWPOLYLINE
  5
21734
330
747D
100
AcDbEntity
  8
細線
 48
50.0
100
AcDbPolyline
 90
        4
 70
     1
 43
0.0
 10
10839.5
 20
8788.810165560851
 10
11039.5
 20
8788.810165560851
 10
11039.5
 20
8988.810165560852
 10
10839.5
 20
8988.810165560852
  0
LWPOLYLINE
  5
21735
330
747D
100
AcDbEntity
  8
細線
 48
50.0
100
AcDbPolyline
 90
        4
 70
     1
 43
0.0
 10
10839.5
 20
8253.810165560851
 10
11039.5
 20
8253.810165560851
 10
11039.5
 20
8653.810165560852
 10
10839.5
 20
8653.810165560852
  0
LWPOLYLINE
  5
21736
330
747D
100
AcDbEntity
  8
細線
 48
50.0
100
AcDbPolyline
 90
        4
 70
     1
 43
0.0
 10
10839.5
 20
7673.810165560851
 10
11039.5
 20
7673.810165560851
 10
11039.5
 20
8073.810165560852
 10
10839.5
 20
8073.810165560852
  0
HATCH
  5
21737
330
747D
100
AcDbEntity
  8
部品1
 48
50.0
100
AcDbHatch
 10
0.0
 20
0.0
 30
0.0
210
0.0
220
0.0
230
1.0
  2
DOTS
 70
     0
 71
     0
 91
        5
 92
        1
 93
        4
 72
     1
 10
12022.0
 20
9703.810165560842
 11
12222.0
 21
9703.810165560842
 72
     1
 10
12222.0
 20
9703.810165560842
 11
12222.0
 21
10103.81016556084
 72
     1
 10
12222.0
 20
10103.81016556084
 11
12022.0
 21
10103.81016556084
 72
     1
 10
12022.0
 20
10103.81016556084
 11
12022.0
 21
9703.810165560842
 97
        0
 92
        1
 93
        4
 72
     1
 10
12022.0
 20
9123.81016556084
 11
12222.0
 21
9123.81016556084
 72
     1
 10
12222.0
 20
9123.81016556084
 11
12222.0
 21
9523.81016556084
 72
     1
 10
12222.0
 20
9523.81016556084
 11
12022.0
 21
9523.81016556084
 72
     1
 10
12022.0
 20
9523.81016556084
 11
12022.0
 21
9123.81016556084
 97
        0
 92
        1
 93
        4
 72
     1
 10
12022.0
 20
8788.810165560841
 11
12222.0
 21
8788.810165560841
 72
     1
 10
12222.0
 20
8788.810165560841
 11
12222.0
 21
8988.81016556084
 72
     1
 10
12222.0
 20
8988.81016556084
 11
12022.0
 21
8988.81016556084
 72
     1
 10
12022.0
 20
8988.81016556084
 11
12022.0
 21
8788.810165560841
 97
        0
 92
        1
 93
        4
 72
     1
 10
12022.0
 20
8253.810165560841
 11
12222.0
 21
8253.810165560841
 72
     1
 10
12222.0
 20
8253.810165560841
 11
12222.0
 21
8653.810165560841
 72
     1
 10
12222.0
 20
8653.810165560841
 11
12022.0
 21
8653.810165560841
 72
     1
 10
12022.0
 20
8653.810165560841
 11
12022.0
 21
8253.810165560841
 97
        0
 92
        1
 93
        4
 72
     1
 10
12022.0
 20
7673.810165560841
 11
12222.0
 21
7673.810165560841
 72
     1
 10
12222.0
 20
7673.810165560841
 11
12222.0
 21
8073.810165560841
 72
     1
 10
12222.0
 20
8073.810165560841
 11
12022.0
 21
8073.810165560841
 72
     1
 10
12022.0
 20
8073.810165560841
 11
12022.0
 21
7673.810165560841
 97
        0
 75
     0
 76
     1
 52
0.0
 41
15.0
 77
     0
 78
     1
 53
0.0
 43
3685.0
 44
0.0
 45
11.90625
 46
23.8125
 79
     2
 49
0.0
 49
-23.8125
 98
        1
 10
3685.0
 20
0.0
  0
LWPOLYLINE
  5
21738
330
747D
100
AcDbEntity
  8
細線
 48
50.0
100
AcDbPolyline
 90
        4
 70
     1
 43
0.0
 10
12022.0
 20
9703.810165560842
 10
12222.0
 20
9703.810165560842
 10
12222.0
 20
10103.81016556084
 10
12022.0
 20
10103.81016556084
  0
LWPOLYLINE
  5
21739
330
747D
100
AcDbEntity
  8
細線
 48
50.0
100
AcDbPolyline
 90
        4
 70
     1
 43
0.0
 10
12022.0
 20
9123.81016556084
 10
12222.0
 20
9123.81016556084
 10
12222.0
 20
9523.81016556084
 10
12022.0
 20
9523.81016556084
  0
LWPOLYLINE
  5
2173A
330
747D
100
AcDbEntity
  8
細線
 48
50.0
100
AcDbPolyline
 90
        4
 70
     1
 43
0.0
 10
12022.0
 20
8788.810165560841
 10
12222.0
 20
8788.810165560841
 10
12222.0
 20
8988.81016556084
 10
12022.0
 20
8988.81016556084
  0
LWPOLYLINE
  5
2173B
330
747D
100
AcDbEntity
  8
細線
 48
50.0
100
AcDbPolyline
 90
        4
 70
     1
 43
0.0
 10
12022.0
 20
8253.810165560841
 10
12222.0
 20
8253.810165560841
 10
12222.0
 20
8653.810165560841
 10
12022.0
 20
8653.810165560841
  0
LWPOLYLINE
  5
2173C
330
747D
100
AcDbEntity
  8
細線
 48
50.0
100
AcDbPolyline
 90
        4
 70
     1
 43
0.0
 10
12022.0
 20
7673.810165560841
 10
12222.0
 20
7673.810165560841
 10
12222.0
 20
8073.810165560841
 10
12022.0
 20
8073.810165560841
  0
HATCH
  5
217AA
330
747D
100
AcDbEntity
  8
寸法
 48
50.0
100
AcDbHatch
 10
0.0
 20
0.0
 30
0.0
210
0.0
220
0.0
230
1.0
  2
DOTS
 70
     0
 71
     0
 91
        3
 92
        7
 72
     0
 73
     1
 93
        4
 10
8899.499999999999
 20
7363.810165560842
 10
7879.499999999999
 20
7363.810165560844
 10
7879.499999999999
 20
7298.810165560841
 10
8899.499999999999
 20
7298.810165560841
 97
        0
 92
        7
 72
     0
 73
     1
 93
        4
 10
9635.499999999996
 20
7363.810165560844
 10
9199.499999999998
 20
7363.810165560844
 10
9199.5
 20
7298.810165560843
 10
9635.5
 20
7298.810165560841
 97
        0
 92
        7
 72
     0
 73
     1
 93
        4
 10
7879.499999999999
 20
7363.810165560842
 10
7814.499999999999
 20
7363.810165560842
 10
7814.500000000001
 20
7298.810165560841
 10
7879.500000000001
 20
7298.810165560841
 97
        0
 75
     0
 76
     1
 52
0.0
 41
9.0
 77
     0
 78
     1
 53
0.0
 43
0.0
 44
0.0
 45
7.143749999999999
 46
14.2875
 79
     2
 49
0.0
 49
-14.2875
 47
7.551108156222936
 98
        3
 10
8706.005037935058
 20
7322.099184166818
 10
9440.492718122085
 20
7329.590783824413
 10
7853.051835256666
 20
7349.043593946849
  0
DIMENSION
  5
217AB
330
747D
100
AcDbEntity
  8
寸法
 48
50.0
100
AcDbDimension
  2
*D41
 10
10279.5
 20
6744.343109315912
 30
0.0
 11
9079.500000000001
 21
6844.357873095439
 31
0.0
 70
    32
 71
     5
 42
2400.0
  3
INABA_S50G
100
AcDbAlignedDimension
 13
7879.5
 23
7283.810165560841
 33
0.0
 14
10279.5
 24
7283.810165560841
 34
0.0
100
AcDbRotatedDimension
1001
ACAD
1000
DSTYLE
1002
{
1070
   341
1005
0
1002
}
  0
TEXT
  5
217C9
330
747D
100
AcDbEntity
  8
文字
 62
     7
 48
50.0
100
AcDbText
 10
16501.79587498052
 20
596.5925826289066
 30
0.0
 40
200.0
  1
機種名
  7
STYLE2
100
AcDbText
  0
TEXT
  5
217CA
330
747D
100
AcDbEntity
  8
仕様書枠
 62
     7
 48
50.0
100
AcDbText
 10
18108.75008258934
 20
604.8708912389265
 30
0.0
 40
200.0
  1
ＳＭＫ-１５０H
  7
STYLE2
100
AcDbText
  0
TEXT
  5
217CB
330
747D
100
AcDbEntity
  8
文字
 62
     7
 48
50.0
100
AcDbText
 10
19045.16136805958
 20
1262.784376775191
 30
0.0
 40
125.0
  1
 <縮尺> S=1/50
  7
STYLE2
100
AcDbText
  0
ENDSEC
  0
SECTION
  2
OBJECTS
  0
DICTIONARY
  5
7471
330
0
100
AcDbDictionary
281
     1
  3
ACAD_COLOR
350
1E716
  3
ACAD_GROUP
350
7472
  3
ACAD_LAYOUT
350
1E717
  3
ACAD_MATERIAL
350
1E715
  3
ACAD_MLINESTYLE
350
7473
  3
ACAD_PLOTSETTINGS
350
1E718
  3
ACAD_PLOTSTYLENAME
350
1E713
  3
ACDBHEADERROUNDTRIPXREC
350
217D9
  3
ACDBVARIABLEDICTIONARY
350
1152B
  3
CONTENTDICTIONARY
350
E71C
  3
DRAWINGVARIABLESDICT
350
F3B9
  0
DICTIONARY
  5
21171
330
7467
100
AcDbDictionary
280
     1
281
     1
  3
ACAD_LAYERSTATES
360
21172
  0
DICTIONARY
  5
1E716
102
{ACAD_REACTORS
330
7471
102
}
330
7471
100
AcDbDictionary
281
     1
  0
DICTIONARY
  5
7472
102
{ACAD_REACTORS
330
7471
102
}
330
7471
100
AcDbDictionary
281
     1
  0
DICTIONARY
  5
1E717
102
{ACAD_REACTORS
330
7471
102
}
330
7471
100
AcDbDictionary
281
     1
  3
Model
350
1E719
  3
レイアウト1
350
1E71A
  0
DICTIONARY
  5
1E715
102
{ACAD_REACTORS
330
7471
102
}
330
7471
100
AcDbDictionary
281
     1
  0
DICTIONARY
  5
7473
102
{ACAD_REACTORS
330
7471
102
}
330
7471
100
AcDbDictionary
281
     1
  3
STANDARD
350
7480
  0
DICTIONARY
  5
1E718
102
{ACAD_REACTORS
330
7471
102
}
330
7471
100
AcDbDictionary
281
     1
  0
ACDBDICTIONARYWDFLT
  5
1E713
102
{ACAD_REACTORS
330
7471
102
}
330
7471
100
AcDbDictionary
281
     1
  3
Normal
350
1E714
100
AcDbDictionaryWithDefault
340
1E714
  0
DICTIONARY
  5
217D9
102
{ACAD_REACTORS
330
7471
102
}
330
7471
100
AcDbDictionary
281
     1
  3
COLORDICT
350
217DB
  3
MATERIALDICT
350
217DA
  0
DICTIONARY
  5
1152B
102
{ACAD_REACTORS
330
7471
102
}
330
7471
100
AcDbDictionary
281
     1
  3
DIMASSOC
350
217D6
  3
PROJECTNAME
350
217D7
  3
SORTENTS
350
1152C
  0
DICTIONARY
  5
E71C
102
{ACAD_REACTORS
330
7471
102
}
330
7471
100
AcDbDictionary
281
     1
  0
DICTIONARY
  5
F3B9
102
{ACAD_REACTORS
330
7471
102
}
330
7471
100
AcDbDictionary
281
     1
1001
DRAWINGVARIABLESXDATA
1000
POLARMODE
1000
1
  0
DICTIONARY
  5
21172
102
{ACAD_REACTORS
330
21171
102
}
330
21171
100
AcDbDictionary
281
     1
  0
LAYOUT
  5
1E719
102
{ACAD_XDICTIONARY
360
217DC
102
}
102
{ACAD_REACTORS
330
1E717
102
}
330
1E717
100
AcDbPlotSettings
  1

  2
クセロPDF
  4
A3
  6

 40
3.174999952316284
 41
3.174999952316284
 42
3.17498779296875
 43
3.17498779296875
 44
419.9466552734374
 45
296.9259948730469
 46
0.0
 47
0.0
 48
0.0
 49
0.0
140
0.0
141
0.0
142
1.0
143
50.0
 70
 11952
 72
     1
 73
     0
 74
     2
  7
inaba.ctb
 75
    25
147
0.02
148
0.0
149
0.0
100
AcDbLayout
  1
Model
 70
     1
 71
     0
 10
0.0
 20
0.0
 11
12.0
 21
9.0
 12
0.0
 22
0.0
 32
0.0
 14
0.0
 24
0.0
 34
0.0
 15
0.0
 25
0.0
 35
0.0
146
0.0
 13
0.0
 23
0.0
 33
0.0
 16
1.0
 26
0.0
 36
0.0
 17
0.0
 27
1.0
 37
0.0
 76
     0
330
747D
  0
LAYOUT
  5
1E71A
102
{ACAD_XDICTIONARY
360
217DE
102
}
102
{ACAD_REACTORS
330
1E717
102
}
330
1E717
100
AcDbPlotSettings
  1

  2
EPSON LP-8300
  4

  6

 40
0.0
 41
0.0
 42
0.0
 43
0.0
 44
0.0
 45
0.0
 46
0.0
 47
0.0
 48
0.0
 49
0.0
140
0.0
141
0.0
142
1.0
143
1.0
 70
   688
 72
     0
 73
     0
 74
     5
  7
ACA3.ctb
 75
    16
147
1.0
148
0.0
149
0.0
100
AcDbLayout
  1
レイアウト1
 70
     0
 71
     1
 10
0.0
 20
0.0
 11
420.0
 21
297.0
 12
0.0
 22
0.0
 32
0.0
 14
1.000000000000000E+20
 24
1.000000000000000E+20
 34
1.000000000000000E+20
 15
-1.000000000000000E+20
 25
-1.000000000000000E+20
 35
-1.000000000000000E+20
146
0.0
 13
0.0
 23
0.0
 33
0.0
 16
1.0
 26
0.0
 36
0.0
 17
0.0
 27
1.0
 37
0.0
 76
     0
330
747A
  0
MLINESTYLE
  5
7480
102
{ACAD_REACTORS
330
7473
102
}
330
7473
100
AcDbMlineStyle
  2
STANDARD
 70
     0
  3

 62
     0
 51
90.0
 52
90.0
 71
     2
 49
0.5
 62
   256
  6
BYLAYER
 49
-0.5
 62
   256
  6
BYLAYER
  0
ACDBPLACEHOLDER
  5
1E714
102
{ACAD_REACTORS
330
1E713
102
}
330
1E713
  0
XRECORD
  5
217DB
102
{ACAD_REACTORS
330
217D9
102
}
330
217D9
100
AcDbXrecord
280
     1
340
1E716
  0
XRECORD
  5
217DA
102
{ACAD_REACTORS
330
217D9
102
}
330
217D9
100
AcDbXrecord
280
     1
340
1E715
  0
DICTIONARYVAR
  5
217D6
102
{ACAD_REACTORS
330
1152B
102
}
330
1152B
100
DictionaryVariables
280
     0
  1
1
  0
DICTIONARYVAR
  5
217D7
102
{ACAD_REACTORS
330
1152B
102
}
330
1152B
100
DictionaryVariables
280
     0
  1

  0
DICTIONARYVAR
  5
1152C
102
{ACAD_REACTORS
330
1152B
102
}
330
1152B
100
DictionaryVariables
280
     0
  1
96
  0
DICTIONARY
  5
217DC
330
1E719
100
AcDbDictionary
280
     1
281
     1
  3
ACAD_XREC_ROUNDTRIP
360
217DD
  0
DICTIONARY
  5
217DE
330
1E71A
100
AcDbDictionary
280
     1
281
     1
  3
ACAD_XREC_ROUNDTRIP
360
217DF
  0
XRECORD
  5
217DD
102
{ACAD_REACTORS
330
217DC
102
}
330
217DC
100
AcDbXrecord
280
     1
102
SHADEPLOT
 70
     0
102
SHADEPLOTRESLEVEL
 70
     2
102
SHADEPLOTCUSTOMDPI
 70
   150
  0
XRECORD
  5
217DF
102
{ACAD_REACTORS
330
217DE
102
}
330
217DE
100
AcDbXrecord
280
     1
102
SHADEPLOT
 70
     0
102
SHADEPLOTRESLEVEL
 70
     2
102
SHADEPLOTCUSTOMDPI
 70
   300
  0
ENDSEC
  0
EOF
