  0
SECTION
  2
HEADER
  9
$ACADVER
  1
AC1015
  9
$ACADMAINTVER
 70
    20
  9
$DWGCODEPAGE
  3
ANSI_932
  9
$INSBASE
 10
0.0
 20
0.0
 30
0.0
  9
$EXTMIN
 10
174.9999999999993
 20
-0.0000000000001137
 30
0.0
  9
$EXTMAX
 10
20384.0
 20
14262.0
 30
0.0
  9
$LIMMIN
 10
0.0
 20
0.0
  9
$LIMMAX
 10
21000.0
 20
14850.0
  9
$ORTHOMODE
 70
     0
  9
$REGENMODE
 70
     1
  9
$FILLMODE
 70
     1
  9
$QTEXTMODE
 70
     0
  9
$MIRRTEXT
 70
     1
  9
$LTSCALE
 40
20.0
  9
$ATTMODE
 70
     1
  9
$TEXTSIZE
 40
150.0
  9
$TRACEWID
 40
1.0
  9
$TEXTSTYLE
  7
STYLE1
  9
$CLAYER
  8
部品1
  9
$CELTYPE
  6
BYLAYER
  9
$CECOLOR
 62
   256
  9
$CELTSCALE
 40
50.0
  9
$DISPSILH
 70
     0
  9
$DIMSCALE
 40
1.0
  9
$DIMASZ
 40
125.0
  9
$DIMEXO
 40
25.0
  9
$DIMDLI
 40
7.0
  9
$DIMRND
 40
0.0
  9
$DIMDLE
 40
0.0
  9
$DIMEXE
 40
75.0
  9
$DIMTP
 40
0.0
  9
$DIMTM
 40
0.0
  9
$DIMTXT
 40
150.0
  9
$DIMCEN
 40
0.0
  9
$DIMTSZ
 40
0.0
  9
$DIMTOL
 70
     0
  9
$DIMLIM
 70
     0
  9
$DIMTIH
 70
     0
  9
$DIMTOH
 70
     0
  9
$DIMSE1
 70
     0
  9
$DIMSE2
 70
     0
  9
$DIMTAD
 70
     3
  9
$DIMZIN
 70
     8
  9
$DIMBLK
  1

  9
$DIMASO
 70
     1
  9
$DIMSHO
 70
     1
  9
$DIMPOST
  1

  9
$DIMAPOST
  1

  9
$DIMALT
 70
     0
  9
$DIMALTD
 70
     2
  9
$DIMALTF
 40
0.0394
  9
$DIMLFAC
 40
1.0
  9
$DIMTOFL
 70
     1
  9
$DIMTVP
 40
0.0
  9
$DIMTIX
 70
     1
  9
$DIMSOXD
 70
     0
  9
$DIMSAH
 70
     1
  9
$DIMBLK1
  1
DOTSMALL
  9
$DIMBLK2
  1
DOTSMALL
  9
$DIMSTYLE
  2
INABA_S50G
  9
$DIMCLRD
 70
     0
  9
$DIMCLRE
 70
     0
  9
$DIMCLRT
 70
     7
  9
$DIMTFAC
 40
1.0
  9
$DIMGAP
 40
25.0
  9
$DIMJUST
 70
     0
  9
$DIMSD1
 70
     0
  9
$DIMSD2
 70
     0
  9
$DIMTOLJ
 70
     1
  9
$DIMTZIN
 70
     0
  9
$DIMALTZ
 70
     0
  9
$DIMALTTZ
 70
     0
  9
$DIMUPT
 70
     0
  9
$DIMDEC
 70
     1
  9
$DIMTDEC
 70
     4
  9
$DIMALTU
 70
     2
  9
$DIMALTTD
 70
     2
  9
$DIMTXSTY
  7
STYLE1
  9
$DIMAUNIT
 70
     0
  9
$DIMADEC
 70
     0
  9
$DIMALTRND
 40
0.0
  9
$DIMAZIN
 70
     0
  9
$DIMDSEP
 70
    46
  9
$DIMATFIT
 70
     3
  9
$DIMFRAC
 70
     0
  9
$DIMLDRBLK
  1

  9
$DIMLUNIT
 70
     2
  9
$DIMLWD
 70
    -2
  9
$DIMLWE
 70
    -2
  9
$DIMTMOVE
 70
     0
  9
$LUNITS
 70
     2
  9
$LUPREC
 70
     1
  9
$SKETCHINC
 40
1.0
  9
$FILLETRAD
 40
200.0
  9
$AUNITS
 70
     0
  9
$AUPREC
 70
     0
  9
$MENU
  1
acad
  9
$ELEVATION
 40
0.0
  9
$PELEVATION
 40
0.0
  9
$THICKNESS
 40
0.0
  9
$LIMCHECK
 70
     0
  9
$CHAMFERA
 40
0.0
  9
$CHAMFERB
 40
0.0
  9
$CHAMFERC
 40
30.0
  9
$CHAMFERD
 40
0.7853981633974483
  9
$SKPOLY
 70
     0
  9
$TDCREATE
 40
2450927.380327778
  9
$TDUCREATE
 40
2450927.005327778
  9
$TDUPDATE
 40
2455827.765802546
  9
$TDUUPDATE
 40
2455827.390802546
  9
$TDINDWG
 40
2.3397173148
  9
$TDUSRTIMER
 40
2.3397173148
  9
$USRTIMER
 70
     1
  9
$ANGBASE
 50
0.0
  9
$ANGDIR
 70
     0
  9
$PDMODE
 70
     3
  9
$PDSIZE
 40
2.0
  9
$PLINEWID
 40
0.0
  9
$SPLFRAME
 70
     0
  9
$SPLINETYPE
 70
     6
  9
$SPLINESEGS
 70
     8
  9
$HANDSEED
  5
27DFA
  9
$SURFTAB1
 70
     6
  9
$SURFTAB2
 70
     6
  9
$SURFTYPE
 70
     6
  9
$SURFU
 70
     6
  9
$SURFV
 70
     6
  9
$UCSBASE
  2

  9
$UCSNAME
  2

  9
$UCSORG
 10
0.0
 20
0.0
 30
0.0
  9
$UCSXDIR
 10
1.0
 20
0.0
 30
0.0
  9
$UCSYDIR
 10
0.0
 20
1.0
 30
0.0
  9
$UCSORTHOREF
  2

  9
$UCSORTHOVIEW
 70
     0
  9
$UCSORGTOP
 10
0.0
 20
0.0
 30
0.0
  9
$UCSORGBOTTOM
 10
0.0
 20
0.0
 30
0.0
  9
$UCSORGLEFT
 10
0.0
 20
0.0
 30
0.0
  9
$UCSORGRIGHT
 10
0.0
 20
0.0
 30
0.0
  9
$UCSORGFRONT
 10
0.0
 20
0.0
 30
0.0
  9
$UCSORGBACK
 10
0.0
 20
0.0
 30
0.0
  9
$PUCSBASE
  2

  9
$PUCSNAME
  2

  9
$PUCSORG
 10
0.0
 20
0.0
 30
0.0
  9
$PUCSXDIR
 10
1.0
 20
0.0
 30
0.0
  9
$PUCSYDIR
 10
0.0
 20
1.0
 30
0.0
  9
$PUCSORTHOREF
  2

  9
$PUCSORTHOVIEW
 70
     0
  9
$PUCSORGTOP
 10
0.0
 20
0.0
 30
0.0
  9
$PUCSORGBOTTOM
 10
0.0
 20
0.0
 30
0.0
  9
$PUCSORGLEFT
 10
0.0
 20
0.0
 30
0.0
  9
$PUCSORGRIGHT
 10
0.0
 20
0.0
 30
0.0
  9
$PUCSORGFRONT
 10
0.0
 20
0.0
 30
0.0
  9
$PUCSORGBACK
 10
0.0
 20
0.0
 30
0.0
  9
$USERI1
 70
     0
  9
$USERI2
 70
     0
  9
$USERI3
 70
     0
  9
$USERI4
 70
     0
  9
$USERI5
 70
     0
  9
$USERR1
 40
0.0
  9
$USERR2
 40
0.0
  9
$USERR3
 40
0.0
  9
$USERR4
 40
0.0
  9
$USERR5
 40
0.0
  9
$WORLDVIEW
 70
     1
  9
$SHADEDGE
 70
     3
  9
$SHADEDIF
 70
    70
  9
$TILEMODE
 70
     1
  9
$MAXACTVP
 70
    16
  9
$PINSBASE
 10
0.0
 20
0.0
 30
0.0
  9
$PLIMCHECK
 70
     0
  9
$PEXTMIN
 10
1.000000000000000E+20
 20
1.000000000000000E+20
 30
1.000000000000000E+20
  9
$PEXTMAX
 10
-1.000000000000000E+20
 20
-1.000000000000000E+20
 30
-1.000000000000000E+20
  9
$PLIMMIN
 10
0.0
 20
0.0
  9
$PLIMMAX
 10
420.0
 20
297.0
  9
$UNITMODE
 70
     0
  9
$VISRETAIN
 70
     0
  9
$PLINEGEN
 70
     0
  9
$PSLTSCALE
 70
     0
  9
$TREEDEPTH
 70
  3020
  9
$CMLSTYLE
  2
STANDARD
  9
$CMLJUST
 70
     0
  9
$CMLSCALE
 40
1.0
  9
$PROXYGRAPHICS
 70
     1
  9
$MEASUREMENT
 70
     1
  9
$CELWEIGHT
370
    -1
  9
$ENDCAPS
280
     0
  9
$JOINSTYLE
280
     0
  9
$LWDISPLAY
290
     0
  9
$INSUNITS
 70
     0
  9
$HYPERLINKBASE
  1

  9
$STYLESHEET
  1
inaba.ctb
  9
$XEDIT
290
     1
  9
$CEPSNTYPE
380
     0
  9
$PSTYLEMODE
290
     1
  9
$FINGERPRINTGUID
  2
{4F247491-34FD-4C97-9207-CCAFDD7610AA}
  9
$VERSIONGUID
  2
{F57A469B-08E5-4B24-BBE0-EF56E50F3977}
  9
$EXTNAMES
290
     1
  9
$PSVPSCALE
 40
0.0
  9
$OLESTARTUP
290
     0
  0
ENDSEC
  0
SECTION
  2
CLASSES
  0
CLASS
  1
DICTIONARYVAR
  2
AcDbDictionaryVar
  3
ObjectDBX Classes
 90
        0
280
     0
281
     0
  0
CLASS
  1
ACDBDICTIONARYWDFLT
  2
AcDbDictionaryWithDefault
  3
ObjectDBX Classes
 90
        0
280
     0
281
     0
  0
CLASS
  1
ACDBPLACEHOLDER
  2
AcDbPlaceHolder
  3
ObjectDBX Classes
 90
        0
280
     0
281
     0
  0
CLASS
  1
LAYOUT
  2
AcDbLayout
  3
ObjectDBX Classes
 90
        0
280
     0
281
     0
  0
ENDSEC
  0
SECTION
  2
TABLES
  0
TABLE
  2
VPORT
  5
746D
330
0
100
AcDbSymbolTable
 70
     2
  0
VPORT
  5
27DF2
330
746D
100
AcDbSymbolTableRecord
100
AcDbViewportTableRecord
  2
*Active
 70
     0
 10
0.0
 20
0.0
 11
1.0
 21
1.0
 12
10279.70128154814
 22
7130.834598543808
 13
0.0
 23
0.0
 14
10.0
 24
10.0
 15
10.0
 25
10.0
 16
0.0
 26
0.0
 36
1.0
 17
0.0
 27
0.0
 37
0.0
 40
14368.7179929781
 41
1.522222222222222
 42
50.0
 43
0.0
 44
0.0
 50
0.0
 51
0.0
 71
     0
 72
     0
 73
     1
 74
     0
 75
     0
 76
     0
 77
     0
 78
     0
281
     0
 65
     1
110
0.0
120
0.0
130
0.0
111
1.0
121
0.0
131
0.0
112
0.0
122
1.0
132
0.0
 79
     0
146
0.0
  0
ENDTAB
  0
TABLE
  2
LTYPE
  5
746A
330
0
100
AcDbSymbolTable
 70
     4
  0
LTYPE
  5
7477
330
746A
100
AcDbSymbolTableRecord
100
AcDbLinetypeTableRecord
  2
BYBLOCK
 70
     0
  3

 72
    65
 73
     0
 40
0.0
  0
LTYPE
  5
7478
330
746A
100
AcDbSymbolTableRecord
100
AcDbLinetypeTableRecord
  2
BYLAYER
 70
     0
  3

 72
    65
 73
     0
 40
0.0
  0
LTYPE
  5
7479
330
746A
100
AcDbSymbolTableRecord
100
AcDbLinetypeTableRecord
  2
CONTINUOUS
 70
     0
  3
Solid line
 72
    65
 73
     0
 40
0.0
  0
LTYPE
  5
7816
330
746A
100
AcDbSymbolTableRecord
100
AcDbLinetypeTableRecord
  2
CENTER
 70
     0
  3
____ _ ____ _ ____ _ ____ _ ____ _ ____ _ ____ 
 72
    65
 73
     4
 40
2.0
 49
1.25
 74
     0
 49
-0.25
 74
     0
 49
0.25
 74
     0
 49
-0.25
 74
     0
  0
LTYPE
  5
781B
330
746A
100
AcDbSymbolTableRecord
100
AcDbLinetypeTableRecord
  2
PHANTOM
 70
     0
  3
______  __  __  ______  __  __  ______  __  __ 
 72
    65
 73
     6
 40
2.5
 49
1.25
 74
     0
 49
-0.25
 74
     0
 49
0.25
 74
     0
 49
-0.25
 74
     0
 49
0.25
 74
     0
 49
-0.25
 74
     0
  0
LTYPE
  5
13F72
330
746A
100
AcDbSymbolTableRecord
100
AcDbLinetypeTableRecord
  2
HIDDEN
 70
     0
  3
__ __ __ __ __ __ __ __ __ __ __ __ __ __ __ __
 72
    65
 73
     2
 40
0.375
 49
0.25
 74
     0
 49
-0.125
 74
     0
  0
ENDTAB
  0
TABLE
  2
LAYER
  5
7467
102
{ACAD_XDICTIONARY
360
2233A
102
}
330
0
100
AcDbSymbolTable
 70
    12
  0
LAYER
  5
7474
330
7467
100
AcDbSymbolTableRecord
100
AcDbLayerTableRecord
  2
0
 70
     0
 62
     7
  6
CONTINUOUS
370
    -3
390
1DAF3
  0
LAYER
  5
DEB2
330
7467
100
AcDbSymbolTableRecord
100
AcDbLayerTableRecord
  2
センター
 70
     0
 62
     3
  6
CENTER
370
    -3
390
1DAF3
  0
LAYER
  5
DEB3
330
7467
100
AcDbSymbolTableRecord
100
AcDbLayerTableRecord
  2
寸法
 70
     0
 62
     4
  6
CONTINUOUS
370
    -3
390
1DAF3
  0
LAYER
  5
DEB4
330
7467
100
AcDbSymbolTableRecord
100
AcDbLayerTableRecord
  2
部品1
 70
     0
 62
     7
  6
CONTINUOUS
370
    -3
390
1DAF3
  0
LAYER
  5
DEB5
330
7467
100
AcDbSymbolTableRecord
100
AcDbLayerTableRecord
  2
補助
 70
     0
 62
    -1
  6
CONTINUOUS
370
    -3
390
1DAF3
  0
LAYER
  5
DEB6
330
7467
100
AcDbSymbolTableRecord
100
AcDbLayerTableRecord
  2
文字
 70
     0
 62
     7
  6
CONTINUOUS
370
    -3
390
1DAF3
  0
LAYER
  5
F255
330
7467
100
AcDbSymbolTableRecord
100
AcDbLayerTableRecord
  2
DEFPOINTS
 70
     0
 62
     7
  6
CONTINUOUS
290
     0
370
    -3
390
1DAF3
  0
LAYER
  5
10B54
330
7467
100
AcDbSymbolTableRecord
100
AcDbLayerTableRecord
  2
仕様書枠
 70
     0
 62
   230
  6
CONTINUOUS
370
    -3
390
1DAF3
  0
LAYER
  5
13F73
330
7467
100
AcDbSymbolTableRecord
100
AcDbLayerTableRecord
  2
細線
 70
     0
 62
     5
  6
CONTINUOUS
370
    -3
390
1DAF3
  0
LAYER
  5
13F74
330
7467
100
AcDbSymbolTableRecord
100
AcDbLayerTableRecord
  2
点線
 70
     0
 62
     2
  6
HIDDEN
370
    -3
390
1DAF3
  0
LAYER
  5
1643F
330
7467
100
AcDbSymbolTableRecord
100
AcDbLayerTableRecord
  2
想像線
 70
     0
 62
     6
  6
PHANTOM
370
    -3
390
1DAF3
  0
LAYER
  5
18753
330
7467
100
AcDbSymbolTableRecord
100
AcDbLayerTableRecord
  2
Ｇ．Ｌ
 70
     0
 62
    30
  6
CONTINUOUS
370
    -3
390
1DAF3
  0
ENDTAB
  0
TABLE
  2
STYLE
  5
7468
330
0
100
AcDbSymbolTable
 70
     3
  0
STYLE
  5
7475
330
7468
100
AcDbSymbolTableRecord
100
AcDbTextStyleTableRecord
  2
STANDARD
 70
     0
 40
0.0
 41
1.0
 50
0.0
 71
     0
 42
4.0
  3
txt
  4
C:\AutoCAD LT\bigfont.shx
  0
STYLE
  5
F706
330
7468
100
AcDbSymbolTableRecord
100
AcDbTextStyleTableRecord
  2
STYLE1
 70
     0
 40
0.0
 41
1.0
 50
0.0
 71
     0
 42
150.0
  3
isocp.shx
  4
bigfont.shx
  0
STYLE
  5
103BF
330
7468
100
AcDbSymbolTableRecord
100
AcDbTextStyleTableRecord
  2
STYLE2
 70
     0
 40
0.0
 41
1.0
 50
0.0
 71
     0
 42
100.0
  3
MS PGothic.ttf
  4

1001
ACAD
1000
MS PGothic
1071
    32818
  0
ENDTAB
  0
TABLE
  2
VIEW
  5
746B
330
0
100
AcDbSymbolTable
 70
     0
  0
ENDTAB
  0
TABLE
  2
UCS
  5
746C
330
0
100
AcDbSymbolTable
 70
     0
  0
ENDTAB
  0
TABLE
  2
APPID
  5
746E
330
0
100
AcDbSymbolTable
 70
     6
  0
APPID
  5
7476
330
746E
100
AcDbSymbolTableRecord
100
AcDbRegAppTableRecord
  2
ACAD
 70
     0
  0
APPID
  5
DEA9
330
746E
100
AcDbSymbolTableRecord
100
AcDbRegAppTableRecord
  2
CONTENTBLOCKICON
 70
     0
  0
APPID
  5
DEAA
330
746E
100
AcDbSymbolTableRecord
100
AcDbRegAppTableRecord
  2
CONTENTBLOCKDESCRIPTION
 70
     0
  0
APPID
  5
E71D
330
746E
100
AcDbSymbolTableRecord
100
AcDbRegAppTableRecord
  2
CONTENTTABDATA
 70
     0
  0
APPID
  5
E71E
330
746E
100
AcDbSymbolTableRecord
100
AcDbRegAppTableRecord
  2
CONTENTCURRENTTAB
 70
     0
  0
APPID
  5
F3BA
330
746E
100
AcDbSymbolTableRecord
100
AcDbRegAppTableRecord
  2
DRAWINGVARIABLESXDATA
 70
     0
  0
ENDTAB
  0
TABLE
  2
DIMSTYLE
  5
746F
330
0
100
AcDbSymbolTable
 70
     4
100
AcDbDimStyleTable
 71
     1
340
F71F
  0
DIMSTYLE
105
7484
330
746F
100
AcDbSymbolTableRecord
100
AcDbDimStyleTableRecord
  2
JIS
 70
     0
 41
2.5
 42
1.0
 43
7.0
 44
1.0
 73
     0
 74
     0
 77
     1
 78
     8
140
2.5
141
0.0
143
0.0394
147
0.0
172
     1
174
     1
175
     1
340
7475
  0
DIMSTYLE
105
F71F
102
{ACAD_REACTORS
330
23215
330
23357
330
23359
330
2335A
330
2335B
330
2340E
330
2340F
330
23410
330
23411
330
23412
330
23413
330
235E9
330
235FB
330
237DC
330
237DD
330
23886
330
23887
330
23888
330
23889
330
238A0
330
238A1
330
23B10
330
23BFE
330
23C42
330
23207
330
23208
330
2320C
330
2320D
330
23211
330
25AEC
330
26B47
330
26BBF
330
27741
102
}
330
746F
100
AcDbSymbolTableRecord
100
AcDbDimStyleTableRecord
  2
INABA_S50G
 70
     0
 41
125.0
 42
25.0
 43
7.0
 44
75.0
 73
     0
 74
     0
 77
     3
 78
     8
140
150.0
141
0.0
143
0.0394
147
25.0
172
     1
173
     1
174
     1
178
     7
271
     1
340
F706
341
F770
343
F770
344
F770
  0
DIMSTYLE
105
1FFDB
102
{ACAD_REACTORS
330
27A7F
330
27A80
330
27A83
330
27A84
330
27A93
330
27A96
330
27A99
102
}
330
746F
100
AcDbSymbolTableRecord
100
AcDbDimStyleTableRecord
  2
INABA_S50GUP
 70
     0
 41
125.0
 42
25.0
 43
7.0
 44
75.0
 73
     0
 74
     0
 77
     3
 78
     8
140
150.0
141
0.0
143
0.0394
147
25.0
172
     1
173
     1
174
     1
178
     7
271
     1
340
F706
341
F770
343
F770
344
F770
  0
DIMSTYLE
105
22339
330
746F
100
AcDbSymbolTableRecord
100
AcDbDimStyleTableRecord
  2
INABA_S40G
 70
     0
 40
40.0
 41
2.5
 42
0.5
 43
7.0
 44
1.5
 73
     0
 74
     0
 77
     3
 78
     8
140
3.0
141
0.0
143
0.0394
147
1.0
172
     1
173
     1
174
     1
178
     7
271
     1
340
F706
341
F770
343
F770
344
F770
  0
ENDTAB
  0
TABLE
  2
BLOCK_RECORD
  5
7466
330
0
100
AcDbSymbolTable
 70
    41
  0
BLOCK_RECORD
  5
747D
330
7466
100
AcDbSymbolTableRecord
100
AcDbBlockTableRecord
  2
*MODEL_SPACE
340
1DAF8
  0
BLOCK_RECORD
  5
747A
330
7466
100
AcDbSymbolTableRecord
100
AcDbBlockTableRecord
  2
*PAPER_SPACE
340
1DAF9
  0
BLOCK_RECORD
  5
F770
330
7466
100
AcDbSymbolTableRecord
100
AcDbBlockTableRecord
  2
_DOTSMALL
340
0
102
{BLKREFS
331
23F4F
331
23F50
331
23F60
331
23F61
331
23FCD
331
23FCE
331
23FD7
331
23FD8
331
23FE0
331
23FE1
331
23FEA
331
23FEB
331
23FF4
331
23FF5
331
23FFE
331
23FFF
331
24012
331
24013
331
24024
331
24025
331
2402D
331
2402E
331
2403F
331
24040
331
26C06
331
26C07
331
26C0E
331
26C0F
331
26C18
331
26C19
331
26C23
331
26C24
331
26C82
331
26C83
331
26C8B
331
26C8C
331
26C94
331
26C95
331
26C9D
331
26C9E
331
26CA6
331
26CA7
331
274F2
331
274F3
331
27579
331
2757A
331
27582
331
27583
331
2758B
331
2758C
331
27731
331
27732
331
2773B
331
2773C
331
27750
331
27751
331
27759
331
2775A
331
27762
331
27763
331
2776D
331
2776E
331
27777
331
27778
331
27D47
331
27D48
331
27D51
331
27D52
331
27D5A
331
27D5B
331
27D64
331
27D65
331
27D6D
331
27D6E
331
27D76
331
27D77
331
27D7F
331
27D80
331
27DAE
331
27DAF
102
}
  0
BLOCK_RECORD
  5
23C5A
330
7466
100
AcDbSymbolTableRecord
100
AcDbBlockTableRecord
  2
*D1
340
0
  0
BLOCK_RECORD
  5
23CA7
330
7466
100
AcDbSymbolTableRecord
100
AcDbBlockTableRecord
  2
*D2
340
0
  0
BLOCK_RECORD
  5
23CB2
330
7466
100
AcDbSymbolTableRecord
100
AcDbBlockTableRecord
  2
*D3
340
0
  0
BLOCK_RECORD
  5
23CBD
330
7466
100
AcDbSymbolTableRecord
100
AcDbBlockTableRecord
  2
*D4
340
0
  0
BLOCK_RECORD
  5
23CCA
330
7466
100
AcDbSymbolTableRecord
100
AcDbBlockTableRecord
  2
*D5
340
0
  0
BLOCK_RECORD
  5
23CD7
330
7466
100
AcDbSymbolTableRecord
100
AcDbBlockTableRecord
  2
*D6
340
0
  0
BLOCK_RECORD
  5
23CE3
330
7466
100
AcDbSymbolTableRecord
100
AcDbBlockTableRecord
  2
*D7
340
0
  0
BLOCK_RECORD
  5
23CEF
330
7466
100
AcDbSymbolTableRecord
100
AcDbBlockTableRecord
  2
*D8
340
0
  0
BLOCK_RECORD
  5
23CFB
330
7466
100
AcDbSymbolTableRecord
100
AcDbBlockTableRecord
  2
*D9
340
0
  0
BLOCK_RECORD
  5
23D07
330
7466
100
AcDbSymbolTableRecord
100
AcDbBlockTableRecord
  2
*D10
340
0
  0
BLOCK_RECORD
  5
23D13
330
7466
100
AcDbSymbolTableRecord
100
AcDbBlockTableRecord
  2
*D11
340
0
  0
BLOCK_RECORD
  5
23D1F
330
7466
100
AcDbSymbolTableRecord
100
AcDbBlockTableRecord
  2
*D12
340
0
  0
BLOCK_RECORD
  5
23D2B
330
7466
100
AcDbSymbolTableRecord
100
AcDbBlockTableRecord
  2
*D13
340
0
  0
BLOCK_RECORD
  5
23D37
330
7466
100
AcDbSymbolTableRecord
100
AcDbBlockTableRecord
  2
*D14
340
0
  0
BLOCK_RECORD
  5
23D43
330
7466
100
AcDbSymbolTableRecord
100
AcDbBlockTableRecord
  2
*D15
340
0
  0
BLOCK_RECORD
  5
23D4E
330
7466
100
AcDbSymbolTableRecord
100
AcDbBlockTableRecord
  2
*D16
340
0
  0
BLOCK_RECORD
  5
23D5B
330
7466
100
AcDbSymbolTableRecord
100
AcDbBlockTableRecord
  2
*D17
340
0
  0
BLOCK_RECORD
  5
23D68
330
7466
100
AcDbSymbolTableRecord
100
AcDbBlockTableRecord
  2
*D18
340
0
  0
BLOCK_RECORD
  5
23D75
330
7466
100
AcDbSymbolTableRecord
100
AcDbBlockTableRecord
  2
*D19
340
0
  0
BLOCK_RECORD
  5
23D82
330
7466
100
AcDbSymbolTableRecord
100
AcDbBlockTableRecord
  2
*D20
340
0
  0
BLOCK_RECORD
  5
23D8F
330
7466
100
AcDbSymbolTableRecord
100
AcDbBlockTableRecord
  2
*D21
340
0
  0
BLOCK_RECORD
  5
23D9B
330
7466
100
AcDbSymbolTableRecord
100
AcDbBlockTableRecord
  2
*D22
340
0
  0
BLOCK_RECORD
  5
23DA8
330
7466
100
AcDbSymbolTableRecord
100
AcDbBlockTableRecord
  2
*D23
340
0
  0
BLOCK_RECORD
  5
23DB5
330
7466
100
AcDbSymbolTableRecord
100
AcDbBlockTableRecord
  2
*D24
340
0
  0
BLOCK_RECORD
  5
23DC2
330
7466
100
AcDbSymbolTableRecord
100
AcDbBlockTableRecord
  2
*D25
340
0
  0
BLOCK_RECORD
  5
23DCE
330
7466
100
AcDbSymbolTableRecord
100
AcDbBlockTableRecord
  2
*D26
340
0
  0
BLOCK_RECORD
  5
23DDA
330
7466
100
AcDbSymbolTableRecord
100
AcDbBlockTableRecord
  2
*D27
340
0
  0
BLOCK_RECORD
  5
23DE5
330
7466
100
AcDbSymbolTableRecord
100
AcDbBlockTableRecord
  2
*D28
340
0
  0
BLOCK_RECORD
  5
23DF1
330
7466
100
AcDbSymbolTableRecord
100
AcDbBlockTableRecord
  2
*D29
340
0
  0
BLOCK_RECORD
  5
25AED
330
7466
100
AcDbSymbolTableRecord
100
AcDbBlockTableRecord
  2
*D30
340
0
  0
BLOCK_RECORD
  5
26B48
330
7466
100
AcDbSymbolTableRecord
100
AcDbBlockTableRecord
  2
*D31
340
0
  0
BLOCK_RECORD
  5
26BC0
330
7466
100
AcDbSymbolTableRecord
100
AcDbBlockTableRecord
  2
*D32
340
0
  0
BLOCK_RECORD
  5
27742
330
7466
100
AcDbSymbolTableRecord
100
AcDbBlockTableRecord
  2
*D33
340
0
  0
BLOCK_RECORD
  5
27CEE
330
7466
100
AcDbSymbolTableRecord
100
AcDbBlockTableRecord
  2
*D34
340
0
  0
BLOCK_RECORD
  5
27CFA
330
7466
100
AcDbSymbolTableRecord
100
AcDbBlockTableRecord
  2
*D35
340
0
  0
BLOCK_RECORD
  5
27D07
330
7466
100
AcDbSymbolTableRecord
100
AcDbBlockTableRecord
  2
*D36
340
0
  0
BLOCK_RECORD
  5
27D13
330
7466
100
AcDbSymbolTableRecord
100
AcDbBlockTableRecord
  2
*D37
340
0
  0
BLOCK_RECORD
  5
27D20
330
7466
100
AcDbSymbolTableRecord
100
AcDbBlockTableRecord
  2
*D38
340
0
  0
BLOCK_RECORD
  5
27D2C
330
7466
100
AcDbSymbolTableRecord
100
AcDbBlockTableRecord
  2
*D39
340
0
  0
BLOCK_RECORD
  5
27D38
330
7466
100
AcDbSymbolTableRecord
100
AcDbBlockTableRecord
  2
*D40
340
0
  0
ENDTAB
  0
ENDSEC
  0
SECTION
  2
BLOCKS
  0
BLOCK
  5
7489
330
747D
100
AcDbEntity
  8
0
100
AcDbBlockBegin
  2
*MODEL_SPACE
 70
     0
 10
0.0
 20
0.0
 30
0.0
  3
*MODEL_SPACE
  1

  0
ENDBLK
  5
748A
330
747D
100
AcDbEntity
  8
0
100
AcDbBlockEnd
  0
BLOCK
  5
7487
330
747A
100
AcDbEntity
 67
     1
  8
0
100
AcDbBlockBegin
  2
*PAPER_SPACE
 70
     0
 10
0.0
 20
0.0
 30
0.0
  3
*PAPER_SPACE
  1

  0
ENDBLK
  5
7488
330
747A
100
AcDbEntity
 67
     1
  8
0
100
AcDbBlockEnd
  0
BLOCK
  5
F771
330
F770
100
AcDbEntity
  8
0
 48
50.0
100
AcDbBlockBegin
  2
_DOTSMALL
 70
     0
 10
0.0
 20
0.0
 30
0.0
  3
_DOTSMALL
  1

  0
LWPOLYLINE
  5
F772
330
F770
100
AcDbEntity
  8
0
  6
ByBlock
 62
     0
 48
50.0
100
AcDbPolyline
 90
        2
 70
     1
 43
0.5
 10
-0.0625
 20
0.0
 42
1.0
 10
0.0625
 20
0.0
 42
1.0
  0
ENDBLK
  5
F776
330
F770
100
AcDbEntity
  8
0
 48
50.0
100
AcDbBlockEnd
  0
BLOCK
  5
23C64
330
23C5A
100
AcDbEntity
  8
0
 48
50.0
100
AcDbBlockBegin
  2
*D1
 70
     1
 10
0.0
 20
0.0
 30
0.0
  3
*D1
  1

  0
LINE
  5
27588
330
23C5A
100
AcDbEntity
  8
寸法
 62
     0
 48
50.0
370
    -2
100
AcDbLine
 10
12138.53572949696
 20
8403.463459601569
 30
0.0
 11
12374.01561393818
 21
8403.463459601567
 31
0.0
  0
LINE
  5
27589
330
23C5A
100
AcDbEntity
  8
寸法
 62
     0
 48
50.0
370
    -2
100
AcDbLine
 10
12138.53572949696
 20
7603.463459601569
 30
0.0
 11
12374.01561393818
 21
7603.463459601569
 31
0.0
  0
LINE
  5
2758A
330
23C5A
100
AcDbEntity
  8
寸法
 62
     0
 48
50.0
370
    -2
100
AcDbLine
 10
12299.01561393818
 20
8403.463459601567
 30
0.0
 11
12299.01561393818
 21
7603.463459601569
 31
0.0
  0
INSERT
  5
2758B
330
23C5A
100
AcDbEntity
  8
寸法
 62
     0
 48
50.0
370
    -2
100
AcDbBlockReference
  2
_DOTSMALL
 10
12299.01561393818
 20
8403.463459601567
 30
0.0
 41
125.0
 42
125.0
 43
125.0
 50
90.0
  0
INSERT
  5
2758C
330
23C5A
100
AcDbEntity
  8
寸法
 62
     0
 48
50.0
370
    -2
100
AcDbBlockReference
  2
_DOTSMALL
 10
12299.01561393818
 20
7603.463459601569
 30
0.0
 41
125.0
 42
125.0
 43
125.0
 50
270.0
  0
MTEXT
  5
2758D
330
23C5A
100
AcDbEntity
  8
寸法
 62
     7
 48
50.0
100
AcDbMText
 10
12199.01561393818
 20
8092.241460370717
 30
0.0
 40
150.0
 41
0.0
 71
     5
 72
     1
  1
\A1;800
  7
STYLE1
 11
0.0000000000000001
 21
1.0
 31
0.0
 73
     1
 44
1.0
1001
ACAD
1000
MTEXTBEGIN
1070
    73
1070
     1
1070
    44
1040
1.0
1070
    74
1070
     0
1000
MTEXTEND
  0
POINT
  5
2758E
330
23C5A
100
AcDbEntity
  8
DEFPOINTS
 62
     0
 48
50.0
100
AcDbPoint
 10
12113.53572949696
 20
8403.463459601569
 30
0.0
  0
POINT
  5
2758F
330
23C5A
100
AcDbEntity
  8
DEFPOINTS
 62
     0
 48
50.0
100
AcDbPoint
 10
12113.53572949696
 20
7603.463459601569
 30
0.0
  0
POINT
  5
27590
330
23C5A
100
AcDbEntity
  8
DEFPOINTS
 62
     0
 48
50.0
100
AcDbPoint
 10
12299.01561393818
 20
7603.463459601569
 30
0.0
  0
ENDBLK
  5
23C65
330
23C5A
100
AcDbEntity
  8
0
 48
50.0
100
AcDbBlockEnd
  0
BLOCK
  5
23CB0
330
23CA7
100
AcDbEntity
  8
0
 48
50.0
100
AcDbBlockBegin
  2
*D2
 70
     1
 10
0.0
 20
0.0
 30
0.0
  3
*D2
  1

  0
LINE
  5
2774E
330
23CA7
100
AcDbEntity
  8
寸法
 62
     0
 48
50.0
370
    -2
100
AcDbLine
 10
8248.535729496966
 20
7603.463459601569
 30
0.0
 11
7035.507166455471
 21
7603.463459601569
 31
0.0
  0
LINE
  5
2774F
330
23CA7
100
AcDbEntity
  8
寸法
 62
     0
 48
50.0
370
    -2
100
AcDbLine
 10
7110.507166455471
 20
7968.463459601569
 30
0.0
 11
7110.507166455471
 21
7603.463459601569
 31
0.0
  0
INSERT
  5
27750
330
23CA7
100
AcDbEntity
  8
寸法
 62
     0
 48
50.0
370
    -2
100
AcDbBlockReference
  2
_DOTSMALL
 10
7110.507166455471
 20
7968.463459601569
 30
0.0
 41
125.0
 42
125.0
 43
125.0
 50
90.0
  0
INSERT
  5
27751
330
23CA7
100
AcDbEntity
  8
寸法
 62
     0
 48
50.0
370
    -2
100
AcDbBlockReference
  2
_DOTSMALL
 10
7110.507166455471
 20
7603.463459601569
 30
0.0
 41
125.0
 42
125.0
 43
125.0
 50
270.0
  0
MTEXT
  5
27752
330
23CA7
100
AcDbEntity
  8
寸法
 62
     7
 48
50.0
100
AcDbMText
 10
7010.50716645547
 20
7785.963459601571
 30
0.0
 40
150.0
 41
0.0
 71
     5
 72
     1
  1
\A1;365
  7
STYLE1
 11
0.0000000000000001
 21
1.0
 31
0.0
 73
     1
 44
1.0
1001
ACAD
1000
MTEXTBEGIN
1070
    73
1070
     1
1070
    44
1040
1.0
1070
    74
1070
     0
1000
MTEXTEND
  0
POINT
  5
27753
330
23CA7
100
AcDbEntity
  8
DEFPOINTS
 62
     0
 48
50.0
100
AcDbPoint
 10
8798.035729496968
 20
7968.463459601569
 30
0.0
  0
POINT
  5
27754
330
23CA7
100
AcDbEntity
  8
DEFPOINTS
 62
     0
 48
50.0
100
AcDbPoint
 10
8273.535729496966
 20
7603.463459601569
 30
0.0
  0
POINT
  5
27755
330
23CA7
100
AcDbEntity
  8
DEFPOINTS
 62
     0
 48
50.0
100
AcDbPoint
 10
7110.507166455471
 20
7603.463459601569
 30
0.0
  0
ENDBLK
  5
23CB1
330
23CA7
100
AcDbEntity
  8
0
 48
50.0
100
AcDbBlockEnd
  0
BLOCK
  5
23CBB
330
23CB2
100
AcDbEntity
  8
0
 48
50.0
100
AcDbBlockBegin
  2
*D3
 70
     1
 10
0.0
 20
0.0
 30
0.0
  3
*D3
  1

  0
LINE
  5
26C0C
330
23CB2
100
AcDbEntity
  8
寸法
 62
     0
 48
50.0
370
    -2
100
AcDbLine
 10
10738.53572949696
 20
7498.46345960157
 30
0.0
 11
10738.53572949696
 21
6543.425082402864
 31
0.0
  0
LINE
  5
26C0D
330
23CB2
100
AcDbEntity
  8
寸法
 62
     0
 48
50.0
370
    -2
100
AcDbLine
 10
8338.535729496966
 20
6618.425082402864
 30
0.0
 11
10738.53572949696
 21
6618.425082402864
 31
0.0
  0
INSERT
  5
26C0E
330
23CB2
100
AcDbEntity
  8
寸法
 62
     0
 48
50.0
370
    -2
100
AcDbBlockReference
  2
_DOTSMALL
 10
8338.535729496966
 20
6618.425082402864
 30
0.0
 41
125.0
 42
125.0
 43
125.0
 50
180.0
  0
INSERT
  5
26C0F
330
23CB2
100
AcDbEntity
  8
寸法
 62
     0
 48
50.0
370
    -2
100
AcDbBlockReference
  2
_DOTSMALL
 10
10738.53572949696
 20
6618.425082402864
 30
0.0
 41
125.0
 42
125.0
 43
125.0
  0
MTEXT
  5
26C10
330
23CB2
100
AcDbEntity
  8
寸法
 62
     7
 48
50.0
100
AcDbMText
 10
9538.535729496965
 20
6718.439846182391
 30
0.0
 40
150.0
 41
0.0
 71
     5
 72
     1
  1
\A1;2400
  7
STYLE1
 73
     1
 44
1.0
1001
ACAD
1000
MTEXTBEGIN
1070
    73
1070
     1
1070
    44
1040
1.0
1070
    74
1070
     0
1000
MTEXTEND
  0
POINT
  5
26C11
330
23CB2
100
AcDbEntity
  8
DEFPOINTS
 62
     0
 48
50.0
100
AcDbPoint
 10
8338.535729496966
 20
7523.463459601569
 30
0.0
  0
POINT
  5
26C12
330
23CB2
100
AcDbEntity
  8
DEFPOINTS
 62
     0
 48
50.0
100
AcDbPoint
 10
10738.53572949696
 20
7523.463459601569
 30
0.0
  0
POINT
  5
26C13
330
23CB2
100
AcDbEntity
  8
DEFPOINTS
 62
     0
 48
50.0
100
AcDbPoint
 10
10738.53572949696
 20
6618.425082402864
 30
0.0
  0
ENDBLK
  5
23CBC
330
23CB2
100
AcDbEntity
  8
0
 48
50.0
100
AcDbBlockEnd
  0
BLOCK
  5
23CC8
330
23CBD
100
AcDbEntity
  8
0
 48
50.0
100
AcDbBlockBegin
  2
*D4
 70
     1
 10
0.0
 20
0.0
 30
0.0
  3
*D4
  1

  0
LINE
  5
27773
330
23CBD
100
AcDbEntity
  8
寸法
 62
     0
 48
50.0
370
    -2
100
AcDbLine
 10
8223.535729496965
 20
6593.425082402863
 30
0.0
 11
8223.535729496965
 21
6254.129667075569
 31
0.0
  0
LINE
  5
27774
330
23CBD
100
AcDbEntity
  8
寸法
 62
     0
 48
50.0
370
    -2
100
AcDbLine
 10
8273.535729496966
 20
7578.463459601569
 30
0.0
 11
8273.535729496966
 21
6254.129667075569
 31
0.0
  0
LINE
  5
27775
330
23CBD
100
AcDbEntity
  8
寸法
 62
     0
 48
50.0
370
    -2
100
AcDbLine
 10
8273.535729496966
 20
6329.129667075569
 30
0.0
 11
8223.535729496965
 21
6329.129667075569
 31
0.0
  0
LINE
  5
27776
330
23CBD
100
AcDbEntity
  8
寸法
 62
     0
 48
50.0
370
    -2
100
AcDbLine
 10
8223.535729496965
 20
6329.129667075569
 30
0.0
 11
7762.653839733184
 21
6329.129667075569
 31
0.0
  0
INSERT
  5
27777
330
23CBD
100
AcDbEntity
  8
寸法
 62
     0
 48
50.0
370
    -2
100
AcDbBlockReference
  2
_DOTSMALL
 10
8273.535729496966
 20
6329.129667075569
 30
0.0
 41
125.0
 42
125.0
 43
125.0
  0
INSERT
  5
27778
330
23CBD
100
AcDbEntity
  8
寸法
 62
     0
 48
50.0
370
    -2
100
AcDbBlockReference
  2
_DOTSMALL
 10
8223.535729496965
 20
6329.129667075569
 30
0.0
 41
125.0
 42
125.0
 43
125.0
 50
180.0
  0
MTEXT
  5
27779
330
23CBD
100
AcDbEntity
  8
寸法
 62
     7
 48
50.0
100
AcDbMText
 10
7930.094784615073
 20
6436.629667075568
 30
0.0
 40
150.0
 41
0.0
 71
     5
 72
     1
  1
\A1;(50)
  7
STYLE1
 73
     1
 44
1.0
1001
ACAD
1000
MTEXTBEGIN
1070
    73
1070
     1
1070
    44
1040
1.0
1070
    74
1070
     0
1000
MTEXTEND
  0
POINT
  5
2777A
330
23CBD
100
AcDbEntity
  8
DEFPOINTS
 62
     0
 48
50.0
100
AcDbPoint
 10
8223.535729496965
 20
6618.425082402864
 30
0.0
  0
POINT
  5
2777B
330
23CBD
100
AcDbEntity
  8
DEFPOINTS
 62
     0
 48
50.0
100
AcDbPoint
 10
8273.535729496966
 20
7603.463459601569
 30
0.0
  0
POINT
  5
2777C
330
23CBD
100
AcDbEntity
  8
DEFPOINTS
 62
     0
 48
50.0
100
AcDbPoint
 10
8273.535729496966
 20
6329.129667075569
 30
0.0
  0
ENDBLK
  5
23CC9
330
23CBD
100
AcDbEntity
  8
0
 48
50.0
100
AcDbBlockEnd
  0
BLOCK
  5
23CD5
330
23CCA
100
AcDbEntity
  8
0
 48
50.0
100
AcDbBlockBegin
  2
*D5
 70
     1
 10
0.0
 20
0.0
 30
0.0
  3
*D5
  1

  0
LINE
  5
26C1F
330
23CCA
100
AcDbEntity
  8
寸法
 62
     0
 48
50.0
370
    -2
100
AcDbLine
 10
8273.535729496966
 20
7578.463459601569
 30
0.0
 11
8273.535729496966
 21
6543.425082402864
 31
0.0
  0
LINE
  5
26C20
330
23CCA
100
AcDbEntity
  8
寸法
 62
     0
 48
50.0
370
    -2
100
AcDbLine
 10
8338.535729496966
 20
7498.46345960157
 30
0.0
 11
8338.535729496966
 21
6543.425082402864
 31
0.0
  0
LINE
  5
26C21
330
23CCA
100
AcDbEntity
  8
寸法
 62
     0
 48
50.0
370
    -2
100
AcDbLine
 10
8338.535729496966
 20
6618.425082402864
 30
0.0
 11
8273.535729496966
 21
6618.425082402864
 31
0.0
  0
LINE
  5
26C22
330
23CCA
100
AcDbEntity
  8
寸法
 62
     0
 48
50.0
370
    -2
100
AcDbLine
 10
8273.535729496966
 20
6618.425082402864
 30
0.0
 11
7910.533648108614
 21
6618.425082402864
 31
0.0
  0
INSERT
  5
26C23
330
23CCA
100
AcDbEntity
  8
寸法
 62
     0
 48
50.0
370
    -2
100
AcDbBlockReference
  2
_DOTSMALL
 10
8338.535729496966
 20
6618.425082402864
 30
0.0
 41
125.0
 42
125.0
 43
125.0
  0
INSERT
  5
26C24
330
23CCA
100
AcDbEntity
  8
寸法
 62
     0
 48
50.0
370
    -2
100
AcDbBlockReference
  2
_DOTSMALL
 10
8273.535729496966
 20
6618.425082402864
 30
0.0
 41
125.0
 42
125.0
 43
125.0
 50
180.0
  0
MTEXT
  5
26C25
330
23CCA
100
AcDbEntity
  8
寸法
 62
     7
 48
50.0
100
AcDbMText
 10
8025.628438802788
 20
6718.425082402863
 30
0.0
 40
150.0
 41
0.0
 71
     5
 72
     1
  1
\A1;65
  7
STYLE1
 73
     1
 44
1.0
1001
ACAD
1000
MTEXTBEGIN
1070
    73
1070
     1
1070
    44
1040
1.0
1070
    74
1070
     0
1000
MTEXTEND
  0
POINT
  5
26C26
330
23CCA
100
AcDbEntity
  8
DEFPOINTS
 62
     0
 48
50.0
100
AcDbPoint
 10
8273.535729496966
 20
7603.463459601569
 30
0.0
  0
POINT
  5
26C27
330
23CCA
100
AcDbEntity
  8
DEFPOINTS
 62
     0
 48
50.0
100
AcDbPoint
 10
8338.535729496966
 20
7523.463459601569
 30
0.0
  0
POINT
  5
26C28
330
23CCA
100
AcDbEntity
  8
DEFPOINTS
 62
     0
 48
50.0
100
AcDbPoint
 10
8338.535729496966
 20
6618.425082402864
 30
0.0
  0
ENDBLK
  5
23CD6
330
23CCA
100
AcDbEntity
  8
0
 48
50.0
100
AcDbBlockEnd
  0
BLOCK
  5
23CE1
330
23CD7
100
AcDbEntity
  8
0
 48
50.0
100
AcDbBlockBegin
  2
*D6
 70
     1
 10
0.0
 20
0.0
 30
0.0
  3
*D6
  1

  0
LINE
  5
26C88
330
23CD7
100
AcDbEntity
  8
寸法
 62
     0
 48
50.0
370
    -2
100
AcDbLine
 10
8248.535729496966
 20
10073.46345960157
 30
0.0
 11
7035.507166455471
 21
10073.46345960157
 31
0.0
  0
LINE
  5
26C89
330
23CD7
100
AcDbEntity
  8
寸法
 62
     0
 48
50.0
370
    -2
100
AcDbLine
 10
8773.035729496967
 20
9708.463459601572
 30
0.0
 11
7035.507166455471
 21
9708.463459601572
 31
0.0
  0
LINE
  5
26C8A
330
23CD7
100
AcDbEntity
  8
寸法
 62
     0
 48
50.0
370
    -2
100
AcDbLine
 10
7110.507166455471
 20
10073.46345960157
 30
0.0
 11
7110.507166455471
 21
9708.463459601572
 31
0.0
  0
INSERT
  5
26C8B
330
23CD7
100
AcDbEntity
  8
寸法
 62
     0
 48
50.0
370
    -2
100
AcDbBlockReference
  2
_DOTSMALL
 10
7110.507166455471
 20
10073.46345960157
 30
0.0
 41
125.0
 42
125.0
 43
125.0
 50
90.0
  0
INSERT
  5
26C8C
330
23CD7
100
AcDbEntity
  8
寸法
 62
     0
 48
50.0
370
    -2
100
AcDbBlockReference
  2
_DOTSMALL
 10
7110.507166455471
 20
9708.463459601572
 30
0.0
 41
125.0
 42
125.0
 43
125.0
 50
270.0
  0
MTEXT
  5
26C8D
330
23CD7
100
AcDbEntity
  8
寸法
 62
     7
 48
50.0
100
AcDbMText
 10
7010.50716645547
 20
9890.963459601573
 30
0.0
 40
150.0
 41
0.0
 71
     5
 72
     1
  1
\A1;365
  7
STYLE1
 11
0.0000000000000001
 21
1.0
 31
0.0
 73
     1
 44
1.0
1001
ACAD
1000
MTEXTBEGIN
1070
    73
1070
     1
1070
    44
1040
1.0
1070
    74
1070
     0
1000
MTEXTEND
  0
POINT
  5
26C8E
330
23CD7
100
AcDbEntity
  8
DEFPOINTS
 62
     0
 48
50.0
100
AcDbPoint
 10
8273.535729496966
 20
10073.46345960157
 30
0.0
  0
POINT
  5
26C8F
330
23CD7
100
AcDbEntity
  8
DEFPOINTS
 62
     0
 48
50.0
100
AcDbPoint
 10
8798.035729496968
 20
9708.463459601572
 30
0.0
  0
POINT
  5
26C90
330
23CD7
100
AcDbEntity
  8
DEFPOINTS
 62
     0
 48
50.0
100
AcDbPoint
 10
7110.507166455471
 20
9708.463459601572
 30
0.0
  0
ENDBLK
  5
23CE2
330
23CD7
100
AcDbEntity
  8
0
 48
50.0
100
AcDbBlockEnd
  0
BLOCK
  5
23CED
330
23CE3
100
AcDbEntity
  8
0
 48
50.0
100
AcDbBlockBegin
  2
*D7
 70
     1
 10
0.0
 20
0.0
 30
0.0
  3
*D7
  1

  0
LINE
  5
26C7F
330
23CE3
100
AcDbEntity
  8
寸法
 62
     0
 48
50.0
370
    -2
100
AcDbLine
 10
8773.035729496967
 20
9708.463459601572
 30
0.0
 11
7035.507166455471
 21
9708.463459601572
 31
0.0
  0
LINE
  5
26C80
330
23CE3
100
AcDbEntity
  8
寸法
 62
     0
 48
50.0
370
    -2
100
AcDbLine
 10
8773.035729496966
 20
9273.46345960157
 30
0.0
 11
7035.507166455471
 21
9273.46345960157
 31
0.0
  0
LINE
  5
26C81
330
23CE3
100
AcDbEntity
  8
寸法
 62
     0
 48
50.0
370
    -2
100
AcDbLine
 10
7110.507166455471
 20
9708.463459601572
 30
0.0
 11
7110.507166455471
 21
9273.46345960157
 31
0.0
  0
INSERT
  5
26C82
330
23CE3
100
AcDbEntity
  8
寸法
 62
     0
 48
50.0
370
    -2
100
AcDbBlockReference
  2
_DOTSMALL
 10
7110.507166455471
 20
9708.463459601572
 30
0.0
 41
125.0
 42
125.0
 43
125.0
 50
90.0
  0
INSERT
  5
26C83
330
23CE3
100
AcDbEntity
  8
寸法
 62
     0
 48
50.0
370
    -2
100
AcDbBlockReference
  2
_DOTSMALL
 10
7110.507166455471
 20
9273.46345960157
 30
0.0
 41
125.0
 42
125.0
 43
125.0
 50
270.0
  0
MTEXT
  5
26C84
330
23CE3
100
AcDbEntity
  8
寸法
 62
     7
 48
50.0
100
AcDbMText
 10
7010.50716645547
 20
9490.963459601573
 30
0.0
 40
150.0
 41
0.0
 71
     5
 72
     1
  1
\A1;435
  7
STYLE1
 11
0.0000000000000001
 21
1.0
 31
0.0
 73
     1
 44
1.0
1001
ACAD
1000
MTEXTBEGIN
1070
    73
1070
     1
1070
    44
1040
1.0
1070
    74
1070
     0
1000
MTEXTEND
  0
POINT
  5
26C85
330
23CE3
100
AcDbEntity
  8
DEFPOINTS
 62
     0
 48
50.0
100
AcDbPoint
 10
8798.035729496968
 20
9708.463459601572
 30
0.0
  0
POINT
  5
26C86
330
23CE3
100
AcDbEntity
  8
DEFPOINTS
 62
     0
 48
50.0
100
AcDbPoint
 10
8798.035729496964
 20
9273.46345960157
 30
0.0
  0
POINT
  5
26C87
330
23CE3
100
AcDbEntity
  8
DEFPOINTS
 62
     0
 48
50.0
100
AcDbPoint
 10
7110.507166455471
 20
9273.46345960157
 30
0.0
  0
ENDBLK
  5
23CEE
330
23CE3
100
AcDbEntity
  8
0
 48
50.0
100
AcDbBlockEnd
  0
BLOCK
  5
23CF9
330
23CEF
100
AcDbEntity
  8
0
 48
50.0
100
AcDbBlockBegin
  2
*D8
 70
     1
 10
0.0
 20
0.0
 30
0.0
  3
*D8
  1

  0
LINE
  5
26C9A
330
23CEF
100
AcDbEntity
  8
寸法
 62
     0
 48
50.0
370
    -2
100
AcDbLine
 10
8773.035729496966
 20
8838.463459601571
 30
0.0
 11
7035.507166455471
 21
8838.463459601571
 31
0.0
  0
LINE
  5
26C9B
330
23CEF
100
AcDbEntity
  8
寸法
 62
     0
 48
50.0
370
    -2
100
AcDbLine
 10
8773.035729496966
 20
8403.463459601573
 30
0.0
 11
7035.507166455471
 21
8403.463459601573
 31
0.0
  0
LINE
  5
26C9C
330
23CEF
100
AcDbEntity
  8
寸法
 62
     0
 48
50.0
370
    -2
100
AcDbLine
 10
7110.507166455471
 20
8838.463459601571
 30
0.0
 11
7110.507166455471
 21
8403.463459601573
 31
0.0
  0
INSERT
  5
26C9D
330
23CEF
100
AcDbEntity
  8
寸法
 62
     0
 48
50.0
370
    -2
100
AcDbBlockReference
  2
_DOTSMALL
 10
7110.507166455471
 20
8838.463459601571
 30
0.0
 41
125.0
 42
125.0
 43
125.0
 50
90.0
  0
INSERT
  5
26C9E
330
23CEF
100
AcDbEntity
  8
寸法
 62
     0
 48
50.0
370
    -2
100
AcDbBlockReference
  2
_DOTSMALL
 10
7110.507166455471
 20
8403.463459601573
 30
0.0
 41
125.0
 42
125.0
 43
125.0
 50
270.0
  0
MTEXT
  5
26C9F
330
23CEF
100
AcDbEntity
  8
寸法
 62
     7
 48
50.0
100
AcDbMText
 10
7010.50716645547
 20
8620.963459601574
 30
0.0
 40
150.0
 41
0.0
 71
     5
 72
     1
  1
\A1;435
  7
STYLE1
 11
0.0000000000000001
 21
1.0
 31
0.0
 73
     1
 44
1.0
1001
ACAD
1000
MTEXTBEGIN
1070
    73
1070
     1
1070
    44
1040
1.0
1070
    74
1070
     0
1000
MTEXTEND
  0
POINT
  5
26CA0
330
23CEF
100
AcDbEntity
  8
DEFPOINTS
 62
     0
 48
50.0
100
AcDbPoint
 10
8798.035729496964
 20
8838.463459601571
 30
0.0
  0
POINT
  5
26CA1
330
23CEF
100
AcDbEntity
  8
DEFPOINTS
 62
     0
 48
50.0
100
AcDbPoint
 10
8798.035729496964
 20
8403.463459601573
 30
0.0
  0
POINT
  5
26CA2
330
23CEF
100
AcDbEntity
  8
DEFPOINTS
 62
     0
 48
50.0
100
AcDbPoint
 10
7110.507166455471
 20
8403.463459601573
 30
0.0
  0
ENDBLK
  5
23CFA
330
23CEF
100
AcDbEntity
  8
0
 48
50.0
100
AcDbBlockEnd
  0
BLOCK
  5
23D05
330
23CFB
100
AcDbEntity
  8
0
 48
50.0
100
AcDbBlockBegin
  2
*D9
 70
     1
 10
0.0
 20
0.0
 30
0.0
  3
*D9
  1

  0
LINE
  5
26C91
330
23CFB
100
AcDbEntity
  8
寸法
 62
     0
 48
50.0
370
    -2
100
AcDbLine
 10
8773.035729496966
 20
9273.46345960157
 30
0.0
 11
7035.507166455471
 21
9273.46345960157
 31
0.0
  0
LINE
  5
26C92
330
23CFB
100
AcDbEntity
  8
寸法
 62
     0
 48
50.0
370
    -2
100
AcDbLine
 10
8773.035729496966
 20
8838.463459601571
 30
0.0
 11
7035.507166455471
 21
8838.463459601571
 31
0.0
  0
LINE
  5
26C93
330
23CFB
100
AcDbEntity
  8
寸法
 62
     0
 48
50.0
370
    -2
100
AcDbLine
 10
7110.507166455471
 20
9273.46345960157
 30
0.0
 11
7110.507166455471
 21
8838.463459601571
 31
0.0
  0
INSERT
  5
26C94
330
23CFB
100
AcDbEntity
  8
寸法
 62
     0
 48
50.0
370
    -2
100
AcDbBlockReference
  2
_DOTSMALL
 10
7110.507166455471
 20
9273.46345960157
 30
0.0
 41
125.0
 42
125.0
 43
125.0
 50
90.0
  0
INSERT
  5
26C95
330
23CFB
100
AcDbEntity
  8
寸法
 62
     0
 48
50.0
370
    -2
100
AcDbBlockReference
  2
_DOTSMALL
 10
7110.507166455471
 20
8838.463459601571
 30
0.0
 41
125.0
 42
125.0
 43
125.0
 50
270.0
  0
MTEXT
  5
26C96
330
23CFB
100
AcDbEntity
  8
寸法
 62
     7
 48
50.0
100
AcDbMText
 10
7010.50716645547
 20
9055.963459601573
 30
0.0
 40
150.0
 41
0.0
 71
     5
 72
     1
  1
\A1;435
  7
STYLE1
 11
0.0000000000000001
 21
1.0
 31
0.0
 73
     1
 44
1.0
1001
ACAD
1000
MTEXTBEGIN
1070
    73
1070
     1
1070
    44
1040
1.0
1070
    74
1070
     0
1000
MTEXTEND
  0
POINT
  5
26C97
330
23CFB
100
AcDbEntity
  8
DEFPOINTS
 62
     0
 48
50.0
100
AcDbPoint
 10
8798.035729496964
 20
9273.46345960157
 30
0.0
  0
POINT
  5
26C98
330
23CFB
100
AcDbEntity
  8
DEFPOINTS
 62
     0
 48
50.0
100
AcDbPoint
 10
8798.035729496964
 20
8838.463459601571
 30
0.0
  0
POINT
  5
26C99
330
23CFB
100
AcDbEntity
  8
DEFPOINTS
 62
     0
 48
50.0
100
AcDbPoint
 10
7110.507166455471
 20
8838.463459601571
 30
0.0
  0
ENDBLK
  5
23D06
330
23CFB
100
AcDbEntity
  8
0
 48
50.0
100
AcDbBlockEnd
  0
BLOCK
  5
23D11
330
23D07
100
AcDbEntity
  8
0
 48
50.0
100
AcDbBlockBegin
  2
*D10
 70
     1
 10
0.0
 20
0.0
 30
0.0
  3
*D10
  1

  0
LINE
  5
23F5D
330
23D07
100
AcDbEntity
  8
寸法
 62
     0
 48
50.0
370
    -2
100
AcDbLine
 10
8273.535729496966
 20
10098.46345960157
 30
0.0
 11
8273.535729496966
 21
10780.72660933175
 31
0.0
  0
LINE
  5
23F5E
330
23D07
100
AcDbEntity
  8
寸法
 62
     0
 48
50.0
370
    -2
100
AcDbLine
 10
9508.535729496966
 20
9443.463459601572
 30
0.0
 11
9508.535729496966
 21
10780.72660933175
 31
0.0
  0
LINE
  5
23F5F
330
23D07
100
AcDbEntity
  8
寸法
 62
     0
 48
50.0
370
    -2
100
AcDbLine
 10
8273.535729496966
 20
10705.72660933175
 30
0.0
 11
9508.535729496966
 21
10705.72660933175
 31
0.0
  0
INSERT
  5
23F60
330
23D07
100
AcDbEntity
  8
寸法
 62
     0
 48
50.0
370
    -2
100
AcDbBlockReference
  2
_DOTSMALL
 10
8273.535729496966
 20
10705.72660933175
 30
0.0
 41
125.0
 42
125.0
 43
125.0
 50
180.0
  0
INSERT
  5
23F61
330
23D07
100
AcDbEntity
  8
寸法
 62
     0
 48
50.0
370
    -2
100
AcDbBlockReference
  2
_DOTSMALL
 10
9508.535729496966
 20
10705.72660933175
 30
0.0
 41
125.0
 42
125.0
 43
125.0
  0
MTEXT
  5
23F62
330
23D07
100
AcDbEntity
  8
寸法
 62
     7
 48
50.0
100
AcDbMText
 10
8891.035729496966
 20
10805.74137311127
 30
0.0
 40
150.0
 41
0.0
 71
     5
 72
     1
  1
\A1;1235
  7
STYLE1
 73
     1
 44
1.0
1001
ACAD
1000
MTEXTBEGIN
1070
    73
1070
     1
1070
    44
1040
1.0
1070
    74
1070
     0
1000
MTEXTEND
  0
POINT
  5
23F63
330
23D07
100
AcDbEntity
  8
DEFPOINTS
 62
     0
 48
50.0
100
AcDbPoint
 10
8273.535729496966
 20
10073.46345960157
 30
0.0
  0
POINT
  5
23F64
330
23D07
100
AcDbEntity
  8
DEFPOINTS
 62
     0
 48
50.0
100
AcDbPoint
 10
9508.535729496966
 20
9418.463459601571
 30
0.0
  0
POINT
  5
23F65
330
23D07
100
AcDbEntity
  8
DEFPOINTS
 62
     0
 48
50.0
100
AcDbPoint
 10
9508.535729496966
 20
10705.72660933175
 30
0.0
  0
ENDBLK
  5
23D12
330
23D07
100
AcDbEntity
  8
0
 48
50.0
100
AcDbBlockEnd
  0
BLOCK
  5
23D1D
330
23D13
100
AcDbEntity
  8
0
 48
50.0
100
AcDbBlockBegin
  2
*D11
 70
     1
 10
0.0
 20
0.0
 30
0.0
  3
*D11
  1

  0
LINE
  5
23F4C
330
23D13
100
AcDbEntity
  8
寸法
 62
     0
 48
50.0
370
    -2
100
AcDbLine
 10
10738.53572949696
 20
10178.46345960157
 30
0.0
 11
10738.53572949696
 21
10780.72660933175
 31
0.0
  0
LINE
  5
23F4D
330
23D13
100
AcDbEntity
  8
寸法
 62
     0
 48
50.0
370
    -2
100
AcDbLine
 10
9508.535729496966
 20
9443.463459601572
 30
0.0
 11
9508.535729496966
 21
10780.72660933175
 31
0.0
  0
LINE
  5
23F4E
330
23D13
100
AcDbEntity
  8
寸法
 62
     0
 48
50.0
370
    -2
100
AcDbLine
 10
10738.53572949696
 20
10705.72660933175
 30
0.0
 11
9508.535729496966
 21
10705.72660933175
 31
0.0
  0
INSERT
  5
23F4F
330
23D13
100
AcDbEntity
  8
寸法
 62
     0
 48
50.0
370
    -2
100
AcDbBlockReference
  2
_DOTSMALL
 10
10738.53572949696
 20
10705.72660933175
 30
0.0
 41
125.0
 42
125.0
 43
125.0
  0
INSERT
  5
23F50
330
23D13
100
AcDbEntity
  8
寸法
 62
     0
 48
50.0
370
    -2
100
AcDbBlockReference
  2
_DOTSMALL
 10
9508.535729496966
 20
10705.72660933175
 30
0.0
 41
125.0
 42
125.0
 43
125.0
 50
180.0
  0
MTEXT
  5
23F51
330
23D13
100
AcDbEntity
  8
寸法
 62
     7
 48
50.0
100
AcDbMText
 10
10123.53572949696
 20
10805.74137311127
 30
0.0
 40
150.0
 41
0.0
 71
     5
 72
     1
  1
\A1;1230
  7
STYLE1
 73
     1
 44
1.0
1001
ACAD
1000
MTEXTBEGIN
1070
    73
1070
     1
1070
    44
1040
1.0
1070
    74
1070
     0
1000
MTEXTEND
  0
POINT
  5
23F52
330
23D13
100
AcDbEntity
  8
DEFPOINTS
 62
     0
 48
50.0
100
AcDbPoint
 10
10738.53572949696
 20
10153.46345960157
 30
0.0
  0
POINT
  5
23F53
330
23D13
100
AcDbEntity
  8
DEFPOINTS
 62
     0
 48
50.0
100
AcDbPoint
 10
9508.535729496966
 20
9418.463459601571
 30
0.0
  0
POINT
  5
23F54
330
23D13
100
AcDbEntity
  8
DEFPOINTS
 62
     0
 48
50.0
100
AcDbPoint
 10
9508.535729496966
 20
10705.72660933175
 30
0.0
  0
ENDBLK
  5
23D1E
330
23D13
100
AcDbEntity
  8
0
 48
50.0
100
AcDbBlockEnd
  0
BLOCK
  5
23D29
330
23D1F
100
AcDbEntity
  8
0
 48
50.0
100
AcDbBlockBegin
  2
*D12
 70
     1
 10
0.0
 20
0.0
 30
0.0
  3
*D12
  1

  0
LINE
  5
27576
330
23D1F
100
AcDbEntity
  8
寸法
 62
     0
 48
50.0
370
    -2
100
AcDbLine
 10
12357.22614914399
 20
10073.46345960157
 30
0.0
 11
12224.01561393818
 21
10073.46345960157
 31
0.0
  0
LINE
  5
27577
330
23D1F
100
AcDbEntity
  8
寸法
 62
     0
 48
50.0
370
    -2
100
AcDbLine
 10
12138.53572949696
 20
9273.46345960157
 30
0.0
 11
12374.01561393818
 21
9273.463459601568
 31
0.0
  0
LINE
  5
27578
330
23D1F
100
AcDbEntity
  8
寸法
 62
     0
 48
50.0
370
    -2
100
AcDbLine
 10
12299.01561393818
 20
10073.46345960157
 30
0.0
 11
12299.01561393818
 21
9273.463459601568
 31
0.0
  0
INSERT
  5
27579
330
23D1F
100
AcDbEntity
  8
寸法
 62
     0
 48
50.0
370
    -2
100
AcDbBlockReference
  2
_DOTSMALL
 10
12299.01561393818
 20
10073.46345960157
 30
0.0
 41
125.0
 42
125.0
 43
125.0
 50
90.0
  0
INSERT
  5
2757A
330
23D1F
100
AcDbEntity
  8
寸法
 62
     0
 48
50.0
370
    -2
100
AcDbBlockReference
  2
_DOTSMALL
 10
12299.01561393818
 20
9273.463459601568
 30
0.0
 41
125.0
 42
125.0
 43
125.0
 50
270.0
  0
MTEXT
  5
2757B
330
23D1F
100
AcDbEntity
  8
寸法
 62
     7
 48
50.0
100
AcDbMText
 10
12199.01561393818
 20
9673.46345960157
 30
0.0
 40
150.0
 41
0.0
 71
     5
 72
     1
  1
\A1;800
  7
STYLE1
 11
0.0000000000000001
 21
1.0
 31
0.0
 73
     1
 44
1.0
1001
ACAD
1000
MTEXTBEGIN
1070
    73
1070
     1
1070
    44
1040
1.0
1070
    74
1070
     0
1000
MTEXTEND
  0
POINT
  5
2757C
330
23D1F
100
AcDbEntity
  8
DEFPOINTS
 62
     0
 48
50.0
100
AcDbPoint
 10
12382.22614914399
 20
10073.46345960157
 30
0.0
  0
POINT
  5
2757D
330
23D1F
100
AcDbEntity
  8
DEFPOINTS
 62
     0
 48
50.0
100
AcDbPoint
 10
12113.53572949696
 20
9273.46345960157
 30
0.0
  0
POINT
  5
2757E
330
23D1F
100
AcDbEntity
  8
DEFPOINTS
 62
     0
 48
50.0
100
AcDbPoint
 10
12299.01561393818
 20
9273.463459601568
 30
0.0
  0
ENDBLK
  5
23D2A
330
23D1F
100
AcDbEntity
  8
0
 48
50.0
100
AcDbBlockEnd
  0
BLOCK
  5
23D35
330
23D2B
100
AcDbEntity
  8
0
 48
50.0
100
AcDbBlockBegin
  2
*D13
 70
     1
 10
0.0
 20
0.0
 30
0.0
  3
*D13
  1

  0
LINE
  5
2757F
330
23D2B
100
AcDbEntity
  8
寸法
 62
     0
 48
50.0
370
    -2
100
AcDbLine
 10
12138.53572949696
 20
9273.46345960157
 30
0.0
 11
12374.01561393818
 21
9273.463459601568
 31
0.0
  0
LINE
  5
27580
330
23D2B
100
AcDbEntity
  8
寸法
 62
     0
 48
50.0
370
    -2
100
AcDbLine
 10
12138.53572949696
 20
8403.463459601569
 30
0.0
 11
12374.01561393818
 21
8403.463459601567
 31
0.0
  0
LINE
  5
27581
330
23D2B
100
AcDbEntity
  8
寸法
 62
     0
 48
50.0
370
    -2
100
AcDbLine
 10
12299.01561393818
 20
9273.463459601568
 30
0.0
 11
12299.01561393818
 21
8403.463459601567
 31
0.0
  0
INSERT
  5
27582
330
23D2B
100
AcDbEntity
  8
寸法
 62
     0
 48
50.0
370
    -2
100
AcDbBlockReference
  2
_DOTSMALL
 10
12299.01561393818
 20
9273.463459601568
 30
0.0
 41
125.0
 42
125.0
 43
125.0
 50
90.0
  0
INSERT
  5
27583
330
23D2B
100
AcDbEntity
  8
寸法
 62
     0
 48
50.0
370
    -2
100
AcDbBlockReference
  2
_DOTSMALL
 10
12299.01561393818
 20
8403.463459601567
 30
0.0
 41
125.0
 42
125.0
 43
125.0
 50
270.0
  0
MTEXT
  5
27584
330
23D2B
100
AcDbEntity
  8
寸法
 62
     7
 48
50.0
100
AcDbMText
 10
12199.01561393818
 20
8838.463459601571
 30
0.0
 40
150.0
 41
0.0
 71
     5
 72
     1
  1
\A1;870
  7
STYLE1
 11
0.0000000000000001
 21
1.0
 31
0.0
 73
     1
 44
1.0
1001
ACAD
1000
MTEXTBEGIN
1070
    73
1070
     1
1070
    44
1040
1.0
1070
    74
1070
     0
1000
MTEXTEND
  0
POINT
  5
27585
330
23D2B
100
AcDbEntity
  8
DEFPOINTS
 62
     0
 48
50.0
100
AcDbPoint
 10
12113.53572949696
 20
9273.46345960157
 30
0.0
  0
POINT
  5
27586
330
23D2B
100
AcDbEntity
  8
DEFPOINTS
 62
     0
 48
50.0
100
AcDbPoint
 10
12113.53572949696
 20
8403.463459601569
 30
0.0
  0
POINT
  5
27587
330
23D2B
100
AcDbEntity
  8
DEFPOINTS
 62
     0
 48
50.0
100
AcDbPoint
 10
12299.01561393818
 20
8403.463459601567
 30
0.0
  0
ENDBLK
  5
23D36
330
23D2B
100
AcDbEntity
  8
0
 48
50.0
100
AcDbBlockEnd
  0
BLOCK
  5
23D41
330
23D37
100
AcDbEntity
  8
0
 48
50.0
100
AcDbBlockBegin
  2
*D14
 70
     1
 10
0.0
 20
0.0
 30
0.0
  3
*D14
  1

  0
LINE
  5
2402A
330
23D37
100
AcDbEntity
  8
寸法
 62
     0
 48
50.0
370
    -2
100
AcDbLine
 10
13228.53572949696
 20
7603.463459601569
 30
0.0
 11
14129.53572949696
 21
7603.463459601569
 31
0.0
  0
LINE
  5
2402B
330
23D37
100
AcDbEntity
  8
寸法
 62
     0
 48
50.0
370
    -2
100
AcDbLine
 10
13228.53572949696
 20
10073.46345960157
 30
0.0
 11
14129.53572949696
 21
10073.46345960157
 31
0.0
  0
LINE
  5
2402C
330
23D37
100
AcDbEntity
  8
寸法
 62
     0
 48
50.0
370
    -2
100
AcDbLine
 10
14054.53572949696
 20
7603.463459601569
 30
0.0
 11
14054.53572949696
 21
10073.46345960157
 31
0.0
  0
INSERT
  5
2402D
330
23D37
100
AcDbEntity
  8
寸法
 62
     0
 48
50.0
370
    -2
100
AcDbBlockReference
  2
_DOTSMALL
 10
14054.53572949696
 20
7603.463459601569
 30
0.0
 41
125.0
 42
125.0
 43
125.0
 50
270.0
  0
INSERT
  5
2402E
330
23D37
100
AcDbEntity
  8
寸法
 62
     0
 48
50.0
370
    -2
100
AcDbBlockReference
  2
_DOTSMALL
 10
14054.53572949696
 20
10073.46345960157
 30
0.0
 41
125.0
 42
125.0
 43
125.0
 50
90.0
  0
MTEXT
  5
2402F
330
23D37
100
AcDbEntity
  8
寸法
 62
     7
 48
50.0
100
AcDbMText
 10
13954.52096571743
 20
8838.463459601573
 30
0.0
 40
150.0
 41
0.0
 71
     5
 72
     1
  1
\A1;2470
  7
STYLE1
 11
0.0000000000000001
 21
1.0
 31
0.0
 73
     1
 44
1.0
1001
ACAD
1000
MTEXTBEGIN
1070
    73
1070
     1
1070
    44
1040
1.0
1070
    74
1070
     0
1000
MTEXTEND
  0
POINT
  5
24030
330
23D37
100
AcDbEntity
  8
DEFPOINTS
 62
     0
 48
50.0
100
AcDbPoint
 10
13203.53572949696
 20
7603.463459601569
 30
0.0
  0
POINT
  5
24031
330
23D37
100
AcDbEntity
  8
DEFPOINTS
 62
     0
 48
50.0
100
AcDbPoint
 10
13203.53572949696
 20
10073.46345960157
 30
0.0
  0
POINT
  5
24032
330
23D37
100
AcDbEntity
  8
DEFPOINTS
 62
     0
 48
50.0
100
AcDbPoint
 10
14054.53572949696
 20
10073.46345960157
 30
0.0
  0
ENDBLK
  5
23D42
330
23D37
100
AcDbEntity
  8
0
 48
50.0
100
AcDbBlockEnd
  0
BLOCK
  5
23D4C
330
23D43
100
AcDbEntity
  8
0
 48
50.0
100
AcDbBlockBegin
  2
*D15
 70
     1
 10
0.0
 20
0.0
 30
0.0
  3
*D15
  1

  0
LINE
  5
24022
330
23D43
100
AcDbEntity
  8
寸法
 62
     0
 48
50.0
370
    -2
100
AcDbLine
 10
13308.53572949696
 20
7668.46345960157
 30
0.0
 11
13808.60395366103
 21
7668.46345960157
 31
0.0
  0
LINE
  5
24023
330
23D43
100
AcDbEntity
  8
寸法
 62
     0
 48
50.0
370
    -2
100
AcDbLine
 10
13733.60395366103
 20
10008.46345960157
 30
0.0
 11
13733.60395366103
 21
7668.46345960157
 31
0.0
  0
INSERT
  5
24024
330
23D43
100
AcDbEntity
  8
寸法
 62
     0
 48
50.0
370
    -2
100
AcDbBlockReference
  2
_DOTSMALL
 10
13733.60395366103
 20
10008.46345960157
 30
0.0
 41
125.0
 42
125.0
 43
125.0
 50
90.0
  0
INSERT
  5
24025
330
23D43
100
AcDbEntity
  8
寸法
 62
     0
 48
50.0
370
    -2
100
AcDbBlockReference
  2
_DOTSMALL
 10
13733.60395366103
 20
7668.46345960157
 30
0.0
 41
125.0
 42
125.0
 43
125.0
 50
270.0
  0
MTEXT
  5
24026
330
23D43
100
AcDbEntity
  8
寸法
 62
     7
 48
50.0
100
AcDbMText
 10
13633.5891898815
 20
8838.463459601573
 30
0.0
 40
150.0
 41
0.0
 71
     5
 72
     1
  1
\A1;2340
  7
STYLE1
 11
0.0000000000000001
 21
1.0
 31
0.0
 73
     1
 44
1.0
1001
ACAD
1000
MTEXTBEGIN
1070
    73
1070
     1
1070
    44
1040
1.0
1070
    74
1070
     0
1000
MTEXTEND
  0
POINT
  5
24027
330
23D43
100
AcDbEntity
  8
DEFPOINTS
 62
     0
 48
50.0
100
AcDbPoint
 10
13283.53572949696
 20
10008.46345960157
 30
0.0
  0
POINT
  5
24028
330
23D43
100
AcDbEntity
  8
DEFPOINTS
 62
     0
 48
50.0
100
AcDbPoint
 10
13283.53572949696
 20
7668.46345960157
 30
0.0
  0
POINT
  5
24029
330
23D43
100
AcDbEntity
  8
DEFPOINTS
 62
     0
 48
50.0
100
AcDbPoint
 10
13733.60395366103
 20
7668.46345960157
 30
0.0
  0
ENDBLK
  5
23D4D
330
23D43
100
AcDbEntity
  8
0
 48
50.0
100
AcDbBlockEnd
  0
BLOCK
  5
23D59
330
23D4E
100
AcDbEntity
  8
0
 48
50.0
100
AcDbBlockBegin
  2
*D16
 70
     1
 10
0.0
 20
0.0
 30
0.0
  3
*D16
  1

  0
LINE
  5
26C14
330
23D4E
100
AcDbEntity
  8
寸法
 62
     0
 48
50.0
370
    -2
100
AcDbLine
 10
13138.53572949696
 20
7498.46345960157
 30
0.0
 11
13138.53572949696
 21
6543.425082402864
 31
0.0
  0
LINE
  5
26C15
330
23D4E
100
AcDbEntity
  8
寸法
 62
     0
 48
50.0
370
    -2
100
AcDbLine
 10
13203.53572949696
 20
7513.463459601583
 30
0.0
 11
13203.53572949696
 21
6543.425082402864
 31
0.0
  0
LINE
  5
26C16
330
23D4E
100
AcDbEntity
  8
寸法
 62
     0
 48
50.0
370
    -2
100
AcDbLine
 10
13138.53572949696
 20
6618.425082402864
 30
0.0
 11
13203.53572949696
 21
6618.425082402864
 31
0.0
  0
LINE
  5
26C17
330
23D4E
100
AcDbEntity
  8
寸法
 62
     0
 48
50.0
370
    -2
100
AcDbLine
 10
13203.53572949696
 20
6618.425082402864
 30
0.0
 11
13558.72531088532
 21
6618.425082402864
 31
0.0
  0
INSERT
  5
26C18
330
23D4E
100
AcDbEntity
  8
寸法
 62
     0
 48
50.0
370
    -2
100
AcDbBlockReference
  2
_DOTSMALL
 10
13138.53572949696
 20
6618.425082402864
 30
0.0
 41
125.0
 42
125.0
 43
125.0
 50
180.0
  0
INSERT
  5
26C19
330
23D4E
100
AcDbEntity
  8
寸法
 62
     0
 48
50.0
370
    -2
100
AcDbBlockReference
  2
_DOTSMALL
 10
13203.53572949696
 20
6618.425082402864
 30
0.0
 41
125.0
 42
125.0
 43
125.0
  0
MTEXT
  5
26C1A
330
23D4E
100
AcDbEntity
  8
寸法
 62
     7
 48
50.0
100
AcDbMText
 10
13443.63052019114
 20
6718.425082402863
 30
0.0
 40
150.0
 41
0.0
 71
     5
 72
     1
  1
\A1;65
  7
STYLE1
 73
     1
 44
1.0
1001
ACAD
1000
MTEXTBEGIN
1070
    73
1070
     1
1070
    44
1040
1.0
1070
    74
1070
     0
1000
MTEXTEND
  0
POINT
  5
26C1B
330
23D4E
100
AcDbEntity
  8
DEFPOINTS
 62
     0
 48
50.0
100
AcDbPoint
 10
13138.53572949696
 20
7523.463459601569
 30
0.0
  0
POINT
  5
26C1C
330
23D4E
100
AcDbEntity
  8
DEFPOINTS
 62
     0
 48
50.0
100
AcDbPoint
 10
13203.53572949696
 20
7538.463459601583
 30
0.0
  0
POINT
  5
26C1D
330
23D4E
100
AcDbEntity
  8
DEFPOINTS
 62
     0
 48
50.0
100
AcDbPoint
 10
13203.53572949696
 20
6618.425082402864
 30
0.0
  0
ENDBLK
  5
23D5A
330
23D4E
100
AcDbEntity
  8
0
 48
50.0
100
AcDbBlockEnd
  0
BLOCK
  5
23D66
330
23D5B
100
AcDbEntity
  8
0
 48
50.0
100
AcDbBlockBegin
  2
*D17
 70
     1
 10
0.0
 20
0.0
 30
0.0
  3
*D17
  1

  0
LINE
  5
2400E
330
23D5B
100
AcDbEntity
  8
寸法
 62
     0
 48
50.0
370
    -2
100
AcDbLine
 10
13228.53572949696
 20
7603.463459601569
 30
0.0
 11
14129.53572949696
 21
7603.463459601569
 31
0.0
  0
LINE
  5
2400F
330
23D5B
100
AcDbEntity
  8
寸法
 62
     0
 48
50.0
370
    -2
100
AcDbLine
 10
13758.60395366103
 20
7473.463459601569
 30
0.0
 11
14129.53572949696
 21
7473.463459601569
 31
0.0
  0
LINE
  5
24010
330
23D5B
100
AcDbEntity
  8
寸法
 62
     0
 48
50.0
370
    -2
100
AcDbLine
 10
14054.53572949697
 20
7603.463459601569
 30
0.0
 11
14054.53572949697
 21
7473.463459601569
 31
0.0
  0
LINE
  5
24011
330
23D5B
100
AcDbEntity
  8
寸法
 62
     0
 48
50.0
370
    -2
100
AcDbLine
 10
14054.53572949697
 20
7473.463459601569
 30
0.0
 11
14054.53572949697
 21
6937.58156983779
 31
0.0
  0
INSERT
  5
24012
330
23D5B
100
AcDbEntity
  8
寸法
 62
     0
 48
50.0
370
    -2
100
AcDbBlockReference
  2
_DOTSMALL
 10
14054.53572949697
 20
7603.463459601569
 30
0.0
 41
125.0
 42
125.0
 43
125.0
 50
90.0
  0
INSERT
  5
24013
330
23D5B
100
AcDbEntity
  8
寸法
 62
     0
 48
50.0
370
    -2
100
AcDbBlockReference
  2
_DOTSMALL
 10
14054.53572949697
 20
7473.463459601569
 30
0.0
 41
125.0
 42
125.0
 43
125.0
 50
270.0
  0
MTEXT
  5
24014
330
23D5B
100
AcDbEntity
  8
寸法
 62
     7
 48
50.0
100
AcDbMText
 10
13947.03572949696
 20
7142.522514719681
 30
0.0
 40
150.0
 41
0.0
 71
     5
 72
     1
  1
\A1;(130)
  7
STYLE1
 11
0.0000000000000001
 21
1.0
 31
0.0
 73
     1
 44
1.0
1001
ACAD
1000
MTEXTBEGIN
1070
    73
1070
     1
1070
    44
1040
1.0
1070
    74
1070
     0
1000
MTEXTEND
  0
POINT
  5
24015
330
23D5B
100
AcDbEntity
  8
DEFPOINTS
 62
     0
 48
50.0
100
AcDbPoint
 10
13203.53572949696
 20
7603.463459601569
 30
0.0
  0
POINT
  5
24016
330
23D5B
100
AcDbEntity
  8
DEFPOINTS
 62
     0
 48
50.0
100
AcDbPoint
 10
13733.60395366103
 20
7473.463459601569
 30
0.0
  0
POINT
  5
24017
330
23D5B
100
AcDbEntity
  8
DEFPOINTS
 62
     0
 48
50.0
100
AcDbPoint
 10
14054.53572949697
 20
7473.463459601569
 30
0.0
  0
ENDBLK
  5
23D67
330
23D5B
100
AcDbEntity
  8
0
 48
50.0
100
AcDbBlockEnd
  0
BLOCK
  5
23D73
330
23D68
100
AcDbEntity
  8
0
 48
50.0
100
AcDbBlockBegin
  2
*D18
 70
     1
 10
0.0
 20
0.0
 30
0.0
  3
*D18
  1

  0
LINE
  5
27768
330
23D68
100
AcDbEntity
  8
寸法
 62
     0
 48
50.0
370
    -2
100
AcDbLine
 10
13203.53572949696
 20
7513.463459601578
 30
0.0
 11
13203.53572949696
 21
6254.129667075569
 31
0.0
  0
LINE
  5
27769
330
23D68
100
AcDbEntity
  8
寸法
 62
     0
 48
50.0
370
    -2
100
AcDbLine
 10
13253.53572949696
 20
6593.425082402863
 30
0.0
 11
13253.53572949696
 21
6254.129667075569
 31
0.0
  0
LINE
  5
2776A
330
23D68
100
AcDbEntity
  8
寸法
 62
     0
 48
50.0
370
    -2
100
AcDbLine
 10
13203.53572949696
 20
6329.129667075569
 30
0.0
 11
13078.53572949696
 21
6329.129667075569
 31
0.0
  0
LINE
  5
2776B
330
23D68
100
AcDbEntity
  8
寸法
 62
     0
 48
50.0
370
    -2
100
AcDbLine
 10
13253.53572949696
 20
6329.129667075569
 30
0.0
 11
13838.41761926074
 21
6329.129667075569
 31
0.0
  0
LINE
  5
2776C
330
23D68
100
AcDbEntity
  8
寸法
 62
     0
 48
50.0
370
    -2
100
AcDbLine
 10
13203.53572949696
 20
6329.129667075569
 30
0.0
 11
13253.53572949696
 21
6329.129667075569
 31
0.0
  0
INSERT
  5
2776D
330
23D68
100
AcDbEntity
  8
寸法
 62
     0
 48
50.0
370
    -2
100
AcDbBlockReference
  2
_DOTSMALL
 10
13203.53572949696
 20
6329.129667075569
 30
0.0
 41
125.0
 42
125.0
 43
125.0
  0
INSERT
  5
2776E
330
23D68
100
AcDbEntity
  8
寸法
 62
     0
 48
50.0
370
    -2
100
AcDbBlockReference
  2
_DOTSMALL
 10
13253.53572949696
 20
6329.129667075569
 30
0.0
 41
125.0
 42
125.0
 43
125.0
 50
180.0
  0
MTEXT
  5
2776F
330
23D68
100
AcDbEntity
  8
寸法
 62
     7
 48
50.0
100
AcDbMText
 10
13670.97667437885
 20
6436.629667075568
 30
0.0
 40
150.0
 41
0.0
 71
     5
 72
     1
  1
\A1;(50)
  7
STYLE1
 73
     1
 44
1.0
1001
ACAD
1000
MTEXTBEGIN
1070
    73
1070
     1
1070
    44
1040
1.0
1070
    74
1070
     0
1000
MTEXTEND
  0
POINT
  5
27770
330
23D68
100
AcDbEntity
  8
DEFPOINTS
 62
     0
 48
50.0
100
AcDbPoint
 10
13203.53572949696
 20
7538.463459601579
 30
0.0
  0
POINT
  5
27771
330
23D68
100
AcDbEntity
  8
DEFPOINTS
 62
     0
 48
50.0
100
AcDbPoint
 10
13253.53572949696
 20
6618.425082402864
 30
0.0
  0
POINT
  5
27772
330
23D68
100
AcDbEntity
  8
DEFPOINTS
 62
     0
 48
50.0
100
AcDbPoint
 10
13253.53572949696
 20
6329.129667075569
 30
0.0
  0
ENDBLK
  5
23D74
330
23D68
100
AcDbEntity
  8
0
 48
50.0
100
AcDbBlockEnd
  0
BLOCK
  5
23D80
330
23D75
100
AcDbEntity
  8
0
 48
50.0
100
AcDbBlockBegin
  2
*D19
 70
     1
 10
0.0
 20
0.0
 30
0.0
  3
*D19
  1

  0
LINE
  5
23FFA
330
23D75
100
AcDbEntity
  8
寸法
 62
     0
 48
50.0
370
    -2
100
AcDbLine
 10
13308.53572949696
 20
7668.46345960157
 30
0.0
 11
13808.60395366103
 21
7668.46345960157
 31
0.0
  0
LINE
  5
23FFB
330
23D75
100
AcDbEntity
  8
寸法
 62
     0
 48
50.0
370
    -2
100
AcDbLine
 10
13228.53572949696
 20
7603.463459601569
 30
0.0
 11
13808.60395366103
 21
7603.463459601569
 31
0.0
  0
LINE
  5
23FFC
330
23D75
100
AcDbEntity
  8
寸法
 62
     0
 48
50.0
370
    -2
100
AcDbLine
 10
13733.60395366103
 20
7668.46345960157
 30
0.0
 11
13733.60395366103
 21
7603.463459601569
 31
0.0
  0
LINE
  5
23FFD
330
23D75
100
AcDbEntity
  8
寸法
 62
     0
 48
50.0
370
    -2
100
AcDbLine
 10
13733.60395366103
 20
7603.463459601569
 30
0.0
 11
13733.60395366103
 21
7248.273878213216
 31
0.0
  0
INSERT
  5
23FFE
330
23D75
100
AcDbEntity
  8
寸法
 62
     0
 48
50.0
370
    -2
100
AcDbBlockReference
  2
_DOTSMALL
 10
13733.60395366103
 20
7668.46345960157
 30
0.0
 41
125.0
 42
125.0
 43
125.0
 50
90.0
  0
INSERT
  5
23FFF
330
23D75
100
AcDbEntity
  8
寸法
 62
     0
 48
50.0
370
    -2
100
AcDbBlockReference
  2
_DOTSMALL
 10
13733.60395366103
 20
7603.463459601569
 30
0.0
 41
125.0
 42
125.0
 43
125.0
 50
270.0
  0
MTEXT
  5
24000
330
23D75
100
AcDbEntity
  8
寸法
 62
     7
 48
50.0
100
AcDbMText
 10
13633.60395366103
 20
7363.368668907392
 30
0.0
 40
150.0
 41
0.0
 71
     5
 72
     1
  1
\A1;65
  7
STYLE1
 11
0.0000000000000001
 21
1.0
 31
0.0
 73
     1
 44
1.0
1001
ACAD
1000
MTEXTBEGIN
1070
    73
1070
     1
1070
    44
1040
1.0
1070
    74
1070
     0
1000
MTEXTEND
  0
POINT
  5
24001
330
23D75
100
AcDbEntity
  8
DEFPOINTS
 62
     0
 48
50.0
100
AcDbPoint
 10
13283.53572949696
 20
7668.46345960157
 30
0.0
  0
POINT
  5
24002
330
23D75
100
AcDbEntity
  8
DEFPOINTS
 62
     0
 48
50.0
100
AcDbPoint
 10
13203.53572949696
 20
7603.463459601569
 30
0.0
  0
POINT
  5
24003
330
23D75
100
AcDbEntity
  8
DEFPOINTS
 62
     0
 48
50.0
100
AcDbPoint
 10
13733.60395366103
 20
7603.463459601569
 30
0.0
  0
ENDBLK
  5
23D81
330
23D75
100
AcDbEntity
  8
0
 48
50.0
100
AcDbBlockEnd
  0
BLOCK
  5
23D8D
330
23D82
100
AcDbEntity
  8
0
 48
50.0
100
AcDbBlockBegin
  2
*D20
 70
     1
 10
0.0
 20
0.0
 30
0.0
  3
*D20
  1

  0
LINE
  5
23FD3
330
23D82
100
AcDbEntity
  8
寸法
 62
     0
 48
50.0
370
    -2
100
AcDbLine
 10
13228.53572949696
 20
10073.46345960157
 30
0.0
 11
14129.53572949696
 21
10073.46345960157
 31
0.0
  0
LINE
  5
23FD4
330
23D82
100
AcDbEntity
  8
寸法
 62
     0
 48
50.0
370
    -2
100
AcDbLine
 10
13758.60395366103
 20
10163.46345960156
 30
0.0
 11
14129.53572949696
 21
10163.46345960156
 31
0.0
  0
LINE
  5
23FD5
330
23D82
100
AcDbEntity
  8
寸法
 62
     0
 48
50.0
370
    -2
100
AcDbLine
 10
14054.53572949697
 20
10073.46345960157
 30
0.0
 11
14054.53572949697
 21
10163.46345960156
 31
0.0
  0
LINE
  5
23FD6
330
23D82
100
AcDbEntity
  8
寸法
 62
     0
 48
50.0
370
    -2
100
AcDbLine
 10
14054.53572949697
 20
10163.46345960156
 30
0.0
 11
14054.53572949697
 21
10624.86949893948
 31
0.0
  0
INSERT
  5
23FD7
330
23D82
100
AcDbEntity
  8
寸法
 62
     0
 48
50.0
370
    -2
100
AcDbBlockReference
  2
_DOTSMALL
 10
14054.53572949697
 20
10073.46345960157
 30
0.0
 41
125.0
 42
125.0
 43
125.0
 50
270.0
  0
INSERT
  5
23FD8
330
23D82
100
AcDbEntity
  8
寸法
 62
     0
 48
50.0
370
    -2
100
AcDbBlockReference
  2
_DOTSMALL
 10
14054.53572949697
 20
10163.46345960156
 30
0.0
 41
125.0
 42
125.0
 43
125.0
 50
90.0
  0
MTEXT
  5
23FD9
330
23D82
100
AcDbEntity
  8
寸法
 62
     7
 48
50.0
100
AcDbMText
 10
13946.99947757049
 20
10457.16647927053
 30
0.0
 40
150.0
 41
0.0
 71
     5
 72
     1
  1
\A1;(90)
  7
STYLE1
 11
0.0000000000000001
 21
1.0
 31
0.0
 73
     1
 44
1.0
1001
ACAD
1000
MTEXTBEGIN
1070
    73
1070
     1
1070
    44
1040
1.0
1070
    74
1070
     0
1000
MTEXTEND
  0
POINT
  5
23FDA
330
23D82
100
AcDbEntity
  8
DEFPOINTS
 62
     0
 48
50.0
100
AcDbPoint
 10
13203.53572949696
 20
10073.46345960157
 30
0.0
  0
POINT
  5
23FDB
330
23D82
100
AcDbEntity
  8
DEFPOINTS
 62
     0
 48
50.0
100
AcDbPoint
 10
13733.60395366103
 20
10163.46345960156
 30
0.0
  0
POINT
  5
23FDC
330
23D82
100
AcDbEntity
  8
DEFPOINTS
 62
     0
 48
50.0
100
AcDbPoint
 10
14054.53572949697
 20
10163.46345960156
 30
0.0
  0
ENDBLK
  5
23D8E
330
23D82
100
AcDbEntity
  8
0
 48
50.0
100
AcDbBlockEnd
  0
BLOCK
  5
23D99
330
23D8F
100
AcDbEntity
  8
0
 48
50.0
100
AcDbBlockBegin
  2
*D21
 70
     1
 10
0.0
 20
0.0
 30
0.0
  3
*D21
  1

  0
LINE
  5
23FCA
330
23D8F
100
AcDbEntity
  8
寸法
 62
     0
 48
50.0
370
    -2
100
AcDbLine
 10
11968.53572949696
 20
9443.46345960157
 30
0.0
 11
11968.53572949696
 21
10780.72660933175
 31
0.0
  0
LINE
  5
23FCB
330
23D8F
100
AcDbEntity
  8
寸法
 62
     0
 48
50.0
370
    -2
100
AcDbLine
 10
13203.53572949696
 20
10098.46345960157
 30
0.0
 11
13203.53572949696
 21
10780.72660933175
 31
0.0
  0
LINE
  5
23FCC
330
23D8F
100
AcDbEntity
  8
寸法
 62
     0
 48
50.0
370
    -2
100
AcDbLine
 10
11968.53572949696
 20
10705.72660933175
 30
0.0
 11
13203.53572949696
 21
10705.72660933175
 31
0.0
  0
INSERT
  5
23FCD
330
23D8F
100
AcDbEntity
  8
寸法
 62
     0
 48
50.0
370
    -2
100
AcDbBlockReference
  2
_DOTSMALL
 10
11968.53572949696
 20
10705.72660933175
 30
0.0
 41
125.0
 42
125.0
 43
125.0
 50
180.0
  0
INSERT
  5
23FCE
330
23D8F
100
AcDbEntity
  8
寸法
 62
     0
 48
50.0
370
    -2
100
AcDbBlockReference
  2
_DOTSMALL
 10
13203.53572949696
 20
10705.72660933175
 30
0.0
 41
125.0
 42
125.0
 43
125.0
  0
MTEXT
  5
23FCF
330
23D8F
100
AcDbEntity
  8
寸法
 62
     7
 48
50.0
100
AcDbMText
 10
12586.03572949696
 20
10805.74137311127
 30
0.0
 40
150.0
 41
0.0
 71
     5
 72
     1
  1
\A1;1235
  7
STYLE1
 73
     1
 44
1.0
1001
ACAD
1000
MTEXTBEGIN
1070
    73
1070
     1
1070
    44
1040
1.0
1070
    74
1070
     0
1000
MTEXTEND
  0
POINT
  5
23FD0
330
23D8F
100
AcDbEntity
  8
DEFPOINTS
 62
     0
 48
50.0
100
AcDbPoint
 10
11968.53572949696
 20
9418.46345960157
 30
0.0
  0
POINT
  5
23FD1
330
23D8F
100
AcDbEntity
  8
DEFPOINTS
 62
     0
 48
50.0
100
AcDbPoint
 10
13203.53572949696
 20
10073.46345960157
 30
0.0
  0
POINT
  5
23FD2
330
23D8F
100
AcDbEntity
  8
DEFPOINTS
 62
     0
 48
50.0
100
AcDbPoint
 10
13203.53572949696
 20
10705.72660933175
 30
0.0
  0
ENDBLK
  5
23D9A
330
23D8F
100
AcDbEntity
  8
0
 48
50.0
100
AcDbBlockEnd
  0
BLOCK
  5
23DA6
330
23D9B
100
AcDbEntity
  8
0
 48
50.0
100
AcDbBlockBegin
  2
*D22
 70
     1
 10
0.0
 20
0.0
 30
0.0
  3
*D22
  1

  0
LINE
  5
2403B
330
23D9B
100
AcDbEntity
  8
寸法
 62
     0
 48
50.0
370
    -2
100
AcDbLine
 10
11843.53572949696
 20
9953.463459601573
 30
0.0
 11
11633.46781453294
 21
9953.463459601573
 31
0.0
  0
LINE
  5
2403C
330
23D9B
100
AcDbEntity
  8
寸法
 62
     0
 48
50.0
370
    -2
100
AcDbLine
 10
11843.53572949696
 20
10073.46345960157
 30
0.0
 11
11633.46781453294
 21
10073.46345960157
 31
0.0
  0
LINE
  5
2403D
330
23D9B
100
AcDbEntity
  8
寸法
 62
     0
 48
50.0
370
    -2
100
AcDbLine
 10
11708.46781453294
 20
9953.463459601573
 30
0.0
 11
11708.46781453294
 21
10073.46345960157
 31
0.0
  0
LINE
  5
2403E
330
23D9B
100
AcDbEntity
  8
寸法
 62
     0
 48
50.0
370
    -2
100
AcDbLine
 10
11708.46781453294
 20
10073.46345960157
 30
0.0
 11
11708.46781453294
 21
10488.58156983779
 31
0.0
  0
INSERT
  5
2403F
330
23D9B
100
AcDbEntity
  8
寸法
 62
     0
 48
50.0
370
    -2
100
AcDbBlockReference
  2
_DOTSMALL
 10
11708.46781453294
 20
9953.463459601573
 30
0.0
 41
125.0
 42
125.0
 43
125.0
 50
270.0
  0
INSERT
  5
24040
330
23D9B
100
AcDbEntity
  8
寸法
 62
     0
 48
50.0
370
    -2
100
AcDbBlockReference
  2
_DOTSMALL
 10
11708.46781453294
 20
10073.46345960157
 30
0.0
 41
125.0
 42
125.0
 43
125.0
 50
90.0
  0
MTEXT
  5
24041
330
23D9B
100
AcDbEntity
  8
寸法
 62
     7
 48
50.0
100
AcDbMText
 10
11608.45305075341
 20
10343.52251471968
 30
0.0
 40
150.0
 41
0.0
 71
     5
 72
     1
  1
\A1;120
  7
STYLE1
 11
0.0000000000000001
 21
1.0
 31
0.0
 73
     1
 44
1.0
1001
ACAD
1000
MTEXTBEGIN
1070
    73
1070
     1
1070
    44
1040
1.0
1070
    74
1070
     0
1000
MTEXTEND
  0
POINT
  5
24042
330
23D9B
100
AcDbEntity
  8
DEFPOINTS
 62
     0
 48
50.0
100
AcDbPoint
 10
11868.53572949696
 20
9953.463459601573
 30
0.0
  0
POINT
  5
24043
330
23D9B
100
AcDbEntity
  8
DEFPOINTS
 62
     0
 48
50.0
100
AcDbPoint
 10
11868.53572949696
 20
10073.46345960157
 30
0.0
  0
POINT
  5
24044
330
23D9B
100
AcDbEntity
  8
DEFPOINTS
 62
     0
 48
50.0
100
AcDbPoint
 10
11708.46781453294
 20
10073.46345960157
 30
0.0
  0
ENDBLK
  5
23DA7
330
23D9B
100
AcDbEntity
  8
0
 48
50.0
100
AcDbBlockEnd
  0
BLOCK
  5
23DB3
330
23DA8
100
AcDbEntity
  8
0
 48
50.0
100
AcDbBlockBegin
  2
*D23
 70
     1
 10
0.0
 20
0.0
 30
0.0
  3
*D23
  1

  0
LINE
  5
23FF0
330
23DA8
100
AcDbEntity
  8
寸法
 62
     0
 48
50.0
370
    -2
100
AcDbLine
 10
13083.53572949696
 20
8963.46345960157
 30
0.0
 11
13083.53572949696
 21
9397.827624803683
 31
0.0
  0
LINE
  5
23FF1
330
23DA8
100
AcDbEntity
  8
寸法
 62
     0
 48
50.0
370
    -2
100
AcDbLine
 10
13203.53572949696
 20
8963.46345960157
 30
0.0
 11
13203.53572949696
 21
9397.827624803683
 31
0.0
  0
LINE
  5
23FF2
330
23DA8
100
AcDbEntity
  8
寸法
 62
     0
 48
50.0
370
    -2
100
AcDbLine
 10
13083.53572949696
 20
9322.827624803684
 30
0.0
 11
13203.53572949696
 21
9322.827624803684
 31
0.0
  0
LINE
  5
23FF3
330
23DA8
100
AcDbEntity
  8
寸法
 62
     0
 48
50.0
370
    -2
100
AcDbLine
 10
13203.53572949696
 20
9322.827624803684
 30
0.0
 11
13618.65383973318
 21
9322.827624803684
 31
0.0
  0
INSERT
  5
23FF4
330
23DA8
100
AcDbEntity
  8
寸法
 62
     0
 48
50.0
370
    -2
100
AcDbBlockReference
  2
_DOTSMALL
 10
13083.53572949696
 20
9322.827624803684
 30
0.0
 41
125.0
 42
125.0
 43
125.0
 50
180.0
  0
INSERT
  5
23FF5
330
23DA8
100
AcDbEntity
  8
寸法
 62
     0
 48
50.0
370
    -2
100
AcDbBlockReference
  2
_DOTSMALL
 10
13203.53572949696
 20
9322.827624803684
 30
0.0
 41
125.0
 42
125.0
 43
125.0
  0
MTEXT
  5
23FF6
330
23DA8
100
AcDbEntity
  8
寸法
 62
     7
 48
50.0
100
AcDbMText
 10
13473.59478461507
 20
9422.842388583211
 30
0.0
 40
150.0
 41
0.0
 71
     5
 72
     1
  1
\A1;120
  7
STYLE1
 73
     1
 44
1.0
1001
ACAD
1000
MTEXTBEGIN
1070
    73
1070
     1
1070
    44
1040
1.0
1070
    74
1070
     0
1000
MTEXTEND
  0
POINT
  5
23FF7
330
23DA8
100
AcDbEntity
  8
DEFPOINTS
 62
     0
 48
50.0
100
AcDbPoint
 10
13083.53572949696
 20
8938.463459601569
 30
0.0
  0
POINT
  5
23FF8
330
23DA8
100
AcDbEntity
  8
DEFPOINTS
 62
     0
 48
50.0
100
AcDbPoint
 10
13203.53572949696
 20
8938.463459601569
 30
0.0
  0
POINT
  5
23FF9
330
23DA8
100
AcDbEntity
  8
DEFPOINTS
 62
     0
 48
50.0
100
AcDbPoint
 10
13203.53572949696
 20
9322.827624803684
 30
0.0
  0
ENDBLK
  5
23DB4
330
23DA8
100
AcDbEntity
  8
0
 48
50.0
100
AcDbBlockEnd
  0
BLOCK
  5
23DC0
330
23DB5
100
AcDbEntity
  8
0
 48
50.0
100
AcDbBlockBegin
  2
*D24
 70
     1
 10
0.0
 20
0.0
 30
0.0
  3
*D24
  1

  0
LINE
  5
23FE6
330
23DB5
100
AcDbEntity
  8
寸法
 62
     0
 48
50.0
370
    -2
100
AcDbLine
 10
13228.53572949696
 20
10073.46345960157
 30
0.0
 11
13808.60395366103
 21
10073.46345960157
 31
0.0
  0
LINE
  5
23FE7
330
23DB5
100
AcDbEntity
  8
寸法
 62
     0
 48
50.0
370
    -2
100
AcDbLine
 10
13308.53572949696
 20
10008.46345960157
 30
0.0
 11
13808.60395366103
 21
10008.46345960157
 31
0.0
  0
LINE
  5
23FE8
330
23DB5
100
AcDbEntity
  8
寸法
 62
     0
 48
50.0
370
    -2
100
AcDbLine
 10
13733.60395366103
 20
10008.46345960157
 30
0.0
 11
13733.60395366103
 21
10073.46345960157
 31
0.0
  0
LINE
  5
23FE9
330
23DB5
100
AcDbEntity
  8
寸法
 62
     0
 48
50.0
370
    -2
100
AcDbLine
 10
13733.60395366103
 20
10073.46345960157
 30
0.0
 11
13733.60395366103
 21
10428.65304098992
 31
0.0
  0
INSERT
  5
23FEA
330
23DB5
100
AcDbEntity
  8
寸法
 62
     0
 48
50.0
370
    -2
100
AcDbBlockReference
  2
_DOTSMALL
 10
13733.60395366103
 20
10008.46345960157
 30
0.0
 41
125.0
 42
125.0
 43
125.0
 50
270.0
  0
INSERT
  5
23FEB
330
23DB5
100
AcDbEntity
  8
寸法
 62
     0
 48
50.0
370
    -2
100
AcDbBlockReference
  2
_DOTSMALL
 10
13733.60395366103
 20
10073.46345960157
 30
0.0
 41
125.0
 42
125.0
 43
125.0
 50
90.0
  0
MTEXT
  5
23FEC
330
23DB5
100
AcDbEntity
  8
寸法
 62
     7
 48
50.0
100
AcDbMText
 10
13633.60395366103
 20
10313.55825029575
 30
0.0
 40
150.0
 41
0.0
 71
     5
 72
     1
  1
\A1;65
  7
STYLE1
 11
0.0000000000000001
 21
1.0
 31
0.0
 73
     1
 44
1.0
1001
ACAD
1000
MTEXTBEGIN
1070
    73
1070
     1
1070
    44
1040
1.0
1070
    74
1070
     0
1000
MTEXTEND
  0
POINT
  5
23FED
330
23DB5
100
AcDbEntity
  8
DEFPOINTS
 62
     0
 48
50.0
100
AcDbPoint
 10
13203.53572949696
 20
10073.46345960157
 30
0.0
  0
POINT
  5
23FEE
330
23DB5
100
AcDbEntity
  8
DEFPOINTS
 62
     0
 48
50.0
100
AcDbPoint
 10
13283.53572949696
 20
10008.46345960157
 30
0.0
  0
POINT
  5
23FEF
330
23DB5
100
AcDbEntity
  8
DEFPOINTS
 62
     0
 48
50.0
100
AcDbPoint
 10
13733.60395366103
 20
10008.46345960157
 30
0.0
  0
ENDBLK
  5
23DC1
330
23DB5
100
AcDbEntity
  8
0
 48
50.0
100
AcDbBlockEnd
  0
BLOCK
  5
23DCC
330
23DC2
100
AcDbEntity
  8
0
 48
50.0
100
AcDbBlockBegin
  2
*D25
 70
     1
 10
0.0
 20
0.0
 30
0.0
  3
*D25
  1

  0
LINE
  5
23FDD
330
23DC2
100
AcDbEntity
  8
寸法
 62
     0
 48
50.0
370
    -2
100
AcDbLine
 10
11968.53572949696
 20
9443.46345960157
 30
0.0
 11
11968.53572949696
 21
10780.72660933175
 31
0.0
  0
LINE
  5
23FDE
330
23DC2
100
AcDbEntity
  8
寸法
 62
     0
 48
50.0
370
    -2
100
AcDbLine
 10
10738.53572949696
 20
10178.46345960157
 30
0.0
 11
10738.53572949696
 21
10780.72660933175
 31
0.0
  0
LINE
  5
23FDF
330
23DC2
100
AcDbEntity
  8
寸法
 62
     0
 48
50.0
370
    -2
100
AcDbLine
 10
11968.53572949696
 20
10705.72660933175
 30
0.0
 11
10738.53572949696
 21
10705.72660933175
 31
0.0
  0
INSERT
  5
23FE0
330
23DC2
100
AcDbEntity
  8
寸法
 62
     0
 48
50.0
370
    -2
100
AcDbBlockReference
  2
_DOTSMALL
 10
11968.53572949696
 20
10705.72660933175
 30
0.0
 41
125.0
 42
125.0
 43
125.0
  0
INSERT
  5
23FE1
330
23DC2
100
AcDbEntity
  8
寸法
 62
     0
 48
50.0
370
    -2
100
AcDbBlockReference
  2
_DOTSMALL
 10
10738.53572949696
 20
10705.72660933175
 30
0.0
 41
125.0
 42
125.0
 43
125.0
 50
180.0
  0
MTEXT
  5
23FE2
330
23DC2
100
AcDbEntity
  8
寸法
 62
     7
 48
50.0
100
AcDbMText
 10
11353.53572949696
 20
10805.74137311127
 30
0.0
 40
150.0
 41
0.0
 71
     5
 72
     1
  1
\A1;1230
  7
STYLE1
 73
     1
 44
1.0
1001
ACAD
1000
MTEXTBEGIN
1070
    73
1070
     1
1070
    44
1040
1.0
1070
    74
1070
     0
1000
MTEXTEND
  0
POINT
  5
23FE3
330
23DC2
100
AcDbEntity
  8
DEFPOINTS
 62
     0
 48
50.0
100
AcDbPoint
 10
11968.53572949696
 20
9418.46345960157
 30
0.0
  0
POINT
  5
23FE4
330
23DC2
100
AcDbEntity
  8
DEFPOINTS
 62
     0
 48
50.0
100
AcDbPoint
 10
10738.53572949696
 20
10153.46345960157
 30
0.0
  0
POINT
  5
23FE5
330
23DC2
100
AcDbEntity
  8
DEFPOINTS
 62
     0
 48
50.0
100
AcDbPoint
 10
10738.53572949696
 20
10705.72660933175
 30
0.0
  0
ENDBLK
  5
23DCD
330
23DC2
100
AcDbEntity
  8
0
 48
50.0
100
AcDbBlockEnd
  0
BLOCK
  5
23DD8
330
23DCE
100
AcDbEntity
  8
0
 48
50.0
100
AcDbBlockBegin
  2
*D26
 70
     1
 10
0.0
 20
0.0
 30
0.0
  3
*D26
  1

  0
LINE
  5
274EF
330
23DCE
100
AcDbEntity
  8
寸法
 62
     0
 48
50.0
370
    -2
100
AcDbLine
 10
8273.535729496966
 20
7578.463459601569
 30
0.0
 11
8273.535729496966
 21
6254.129667075569
 31
0.0
  0
LINE
  5
274F0
330
23DCE
100
AcDbEntity
  8
寸法
 62
     0
 48
50.0
370
    -2
100
AcDbLine
 10
13203.53572949696
 20
7578.463459601566
 30
0.0
 11
13203.53572949696
 21
6254.129667075569
 31
0.0
  0
LINE
  5
274F1
330
23DCE
100
AcDbEntity
  8
寸法
 62
     0
 48
50.0
370
    -2
100
AcDbLine
 10
8273.535729496966
 20
6329.129667075569
 30
0.0
 11
13203.53572949696
 21
6329.129667075569
 31
0.0
  0
INSERT
  5
274F2
330
23DCE
100
AcDbEntity
  8
寸法
 62
     0
 48
50.0
370
    -2
100
AcDbBlockReference
  2
_DOTSMALL
 10
8273.535729496966
 20
6329.129667075569
 30
0.0
 41
125.0
 42
125.0
 43
125.0
 50
180.0
  0
INSERT
  5
274F3
330
23DCE
100
AcDbEntity
  8
寸法
 62
     0
 48
50.0
370
    -2
100
AcDbBlockReference
  2
_DOTSMALL
 10
13203.53572949696
 20
6329.129667075569
 30
0.0
 41
125.0
 42
125.0
 43
125.0
  0
MTEXT
  5
274F4
330
23DCE
100
AcDbEntity
  8
寸法
 62
     7
 48
50.0
100
AcDbMText
 10
10738.53572949696
 20
6429.12966707557
 30
0.0
 40
150.0
 41
0.0
 71
     5
 72
     1
  1
\A1;4930
  7
STYLE1
 73
     1
 44
1.0
1001
ACAD
1000
MTEXTBEGIN
1070
    73
1070
     1
1070
    44
1040
1.0
1070
    74
1070
     0
1000
MTEXTEND
  0
POINT
  5
274F5
330
23DCE
100
AcDbEntity
  8
DEFPOINTS
 62
     0
 48
50.0
100
AcDbPoint
 10
8273.535729496966
 20
7603.463459601569
 30
0.0
  0
POINT
  5
274F6
330
23DCE
100
AcDbEntity
  8
DEFPOINTS
 62
     0
 48
50.0
100
AcDbPoint
 10
13203.53572949696
 20
7603.463459601567
 30
0.0
  0
POINT
  5
274F7
330
23DCE
100
AcDbEntity
  8
DEFPOINTS
 62
     0
 48
50.0
100
AcDbPoint
 10
13203.53572949696
 20
6329.129667075569
 30
0.0
  0
ENDBLK
  5
23DD9
330
23DCE
100
AcDbEntity
  8
0
 48
50.0
100
AcDbBlockEnd
  0
BLOCK
  5
23DE3
330
23DDA
100
AcDbEntity
  8
0
 48
50.0
100
AcDbBlockBegin
  2
*D27
 70
     1
 10
0.0
 20
0.0
 30
0.0
  3
*D27
  1

  0
LINE
  5
26C04
330
23DDA
100
AcDbEntity
  8
寸法
 62
     0
 48
50.0
370
    -2
100
AcDbLine
 10
13138.53572949696
 20
7498.46345960157
 30
0.0
 11
13138.53572949696
 21
6543.425082402864
 31
0.0
  0
LINE
  5
26C05
330
23DDA
100
AcDbEntity
  8
寸法
 62
     0
 48
50.0
370
    -2
100
AcDbLine
 10
10738.53572949696
 20
6618.425082402864
 30
0.0
 11
13138.53572949696
 21
6618.425082402864
 31
0.0
  0
INSERT
  5
26C06
330
23DDA
100
AcDbEntity
  8
寸法
 62
     0
 48
50.0
370
    -2
100
AcDbBlockReference
  2
_DOTSMALL
 10
10738.53572949696
 20
6618.425082402864
 30
0.0
 41
125.0
 42
125.0
 43
125.0
 50
180.0
  0
INSERT
  5
26C07
330
23DDA
100
AcDbEntity
  8
寸法
 62
     0
 48
50.0
370
    -2
100
AcDbBlockReference
  2
_DOTSMALL
 10
13138.53572949696
 20
6618.425082402864
 30
0.0
 41
125.0
 42
125.0
 43
125.0
  0
MTEXT
  5
26C08
330
23DDA
100
AcDbEntity
  8
寸法
 62
     7
 48
50.0
100
AcDbMText
 10
11938.53572949696
 20
6718.439846182391
 30
0.0
 40
150.0
 41
0.0
 71
     5
 72
     1
  1
\A1;2400
  7
STYLE1
 73
     1
 44
1.0
1001
ACAD
1000
MTEXTBEGIN
1070
    73
1070
     1
1070
    44
1040
1.0
1070
    74
1070
     0
1000
MTEXTEND
  0
POINT
  5
26C09
330
23DDA
100
AcDbEntity
  8
DEFPOINTS
 62
     0
 48
50.0
100
AcDbPoint
 10
10738.53572949696
 20
7523.463459601569
 30
0.0
  0
POINT
  5
26C0A
330
23DDA
100
AcDbEntity
  8
DEFPOINTS
 62
     0
 48
50.0
100
AcDbPoint
 10
13138.53572949696
 20
7523.463459601569
 30
0.0
  0
POINT
  5
26C0B
330
23DDA
100
AcDbEntity
  8
DEFPOINTS
 62
     0
 48
50.0
100
AcDbPoint
 10
13138.53572949696
 20
6618.425082402864
 30
0.0
  0
ENDBLK
  5
23DE4
330
23DDA
100
AcDbEntity
  8
0
 48
50.0
100
AcDbBlockEnd
  0
BLOCK
  5
23DEF
330
23DE5
100
AcDbEntity
  8
0
 48
50.0
100
AcDbBlockBegin
  2
*D28
 70
     1
 10
0.0
 20
0.0
 30
0.0
  3
*D28
  1

  0
LINE
  5
27DAB
330
23DE5
100
AcDbEntity
  8
寸法
 62
     0
 48
50.0
370
    -2
100
AcDbLine
 10
8284.734200883757
 20
7581.111854768824
 30
0.0
 11
8401.01920951337
 21
7349.012627018218
 31
0.0
  0
LINE
  5
27DAC
330
23DE5
100
AcDbEntity
  8
寸法
 62
     0
 48
50.0
370
    -2
100
AcDbLine
 10
13214.73420088375
 20
10051.11185476882
 30
0.0
 11
13331.01920951337
 21
9819.012627018221
 31
0.0
  0
LINE
  5
27DAD
330
23DE5
100
AcDbEntity
  8
寸法
 62
     0
 48
50.0
370
    -2
100
AcDbLine
 10
8367.423795352996
 20
7416.067441516457
 30
0.0
 11
13297.42379535299
 21
9886.067441516459
 31
0.0
  0
INSERT
  5
27DAE
330
23DE5
100
AcDbEntity
  8
寸法
 62
     0
 48
50.0
370
    -2
100
AcDbBlockReference
  2
_DOTSMALL
 10
8367.423795352996
 20
7416.067441516457
 30
0.0
 41
125.0
 42
125.0
 43
125.0
 50
206.6115197634127
  0
INSERT
  5
27DAF
330
23DE5
100
AcDbEntity
  8
寸法
 62
     0
 48
50.0
370
    -2
100
AcDbBlockReference
  2
_DOTSMALL
 10
13297.42379535299
 20
9886.067441516459
 30
0.0
 41
125.0
 42
125.0
 43
125.0
 50
26.61151976341265
  0
MTEXT
  5
27DB0
330
23DE5
100
AcDbEntity
  8
寸法
 62
     7
 48
50.0
100
AcDbMText
 10
10903.6816585022
 20
8798.617434737913
 30
0.0
 40
150.0
 41
0.0
 71
     5
 72
     1
  1
\A1;5514.1
  7
STYLE1
 11
0.8940641933098222
 21
0.4479388554716558
 31
0.0
 73
     1
 44
1.0
1001
ACAD
1000
MTEXTBEGIN
1070
    73
1070
     1
1070
    44
1040
1.0
1070
    74
1070
     0
1000
MTEXTEND
  0
POINT
  5
27DB1
330
23DE5
100
AcDbEntity
  8
DEFPOINTS
 62
     0
 48
50.0
100
AcDbPoint
 10
8273.535729496966
 20
7603.463459601569
 30
0.0
  0
POINT
  5
27DB2
330
23DE5
100
AcDbEntity
  8
DEFPOINTS
 62
     0
 48
50.0
100
AcDbPoint
 10
13203.53572949696
 20
10073.46345960157
 30
0.0
  0
POINT
  5
27DB3
330
23DE5
100
AcDbEntity
  8
DEFPOINTS
 62
     0
 48
50.0
100
AcDbPoint
 10
13297.42379535299
 20
9886.067441516459
 30
0.0
  0
ENDBLK
  5
23DF0
330
23DE5
100
AcDbEntity
  8
0
 48
50.0
100
AcDbBlockEnd
  0
BLOCK
  5
23DFB
330
23DF1
100
AcDbEntity
  8
0
 48
50.0
100
AcDbBlockBegin
  2
*D29
 70
     1
 10
0.0
 20
0.0
 30
0.0
  3
*D29
  1

  0
LINE
  5
26CA3
330
23DF1
100
AcDbEntity
  8
寸法
 62
     0
 48
50.0
370
    -2
100
AcDbLine
 10
8773.035729496967
 20
7968.463459601569
 30
0.0
 11
7035.507166455471
 21
7968.463459601569
 31
0.0
  0
LINE
  5
26CA4
330
23DF1
100
AcDbEntity
  8
寸法
 62
     0
 48
50.0
370
    -2
100
AcDbLine
 10
8773.035729496966
 20
8403.463459601573
 30
0.0
 11
7035.507166455471
 21
8403.463459601573
 31
0.0
  0
LINE
  5
26CA5
330
23DF1
100
AcDbEntity
  8
寸法
 62
     0
 48
50.0
370
    -2
100
AcDbLine
 10
7110.507166455471
 20
7968.463459601569
 30
0.0
 11
7110.507166455471
 21
8403.463459601573
 31
0.0
  0
INSERT
  5
26CA6
330
23DF1
100
AcDbEntity
  8
寸法
 62
     0
 48
50.0
370
    -2
100
AcDbBlockReference
  2
_DOTSMALL
 10
7110.507166455471
 20
7968.463459601569
 30
0.0
 41
125.0
 42
125.0
 43
125.0
 50
270.0
  0
INSERT
  5
26CA7
330
23DF1
100
AcDbEntity
  8
寸法
 62
     0
 48
50.0
370
    -2
100
AcDbBlockReference
  2
_DOTSMALL
 10
7110.507166455471
 20
8403.463459601573
 30
0.0
 41
125.0
 42
125.0
 43
125.0
 50
90.0
  0
MTEXT
  5
26CA8
330
23DF1
100
AcDbEntity
  8
寸法
 62
     7
 48
50.0
100
AcDbMText
 10
7010.50716645547
 20
8185.963459601573
 30
0.0
 40
150.0
 41
0.0
 71
     5
 72
     1
  1
\A1;435
  7
STYLE1
 11
0.0000000000000001
 21
1.0
 31
0.0
 73
     1
 44
1.0
1001
ACAD
1000
MTEXTBEGIN
1070
    73
1070
     1
1070
    44
1040
1.0
1070
    74
1070
     0
1000
MTEXTEND
  0
POINT
  5
26CA9
330
23DF1
100
AcDbEntity
  8
DEFPOINTS
 62
     0
 48
50.0
100
AcDbPoint
 10
8798.035729496968
 20
7968.463459601569
 30
0.0
  0
POINT
  5
26CAA
330
23DF1
100
AcDbEntity
  8
DEFPOINTS
 62
     0
 48
50.0
100
AcDbPoint
 10
8798.035729496964
 20
8403.463459601573
 30
0.0
  0
POINT
  5
26CAB
330
23DF1
100
AcDbEntity
  8
DEFPOINTS
 62
     0
 48
50.0
100
AcDbPoint
 10
7110.507166455471
 20
8403.463459601573
 30
0.0
  0
ENDBLK
  5
23DFC
330
23DF1
100
AcDbEntity
  8
0
 48
50.0
100
AcDbBlockEnd
  0
BLOCK
  5
25AF9
330
25AED
100
AcDbEntity
  8
0
 48
50.0
100
AcDbBlockBegin
  2
*D30
 70
     1
 10
0.0
 20
0.0
 30
0.0
  3
*D30
  1

  0
LINE
  5
2772D
330
25AED
100
AcDbEntity
  8
寸法
 62
     0
 48
50.0
370
    -2
100
AcDbLine
 10
10700.53572949696
 20
7603.463459601569
 30
0.0
 11
11151.82406921408
 21
7603.463459601569
 31
0.0
  0
LINE
  5
2772E
330
25AED
100
AcDbEntity
  8
寸法
 62
     0
 48
50.0
370
    -2
100
AcDbLine
 10
10700.53572949696
 20
7538.463459601574
 30
0.0
 11
11151.82406921408
 21
7538.463459601574
 31
0.0
  0
LINE
  5
2772F
330
25AED
100
AcDbEntity
  8
寸法
 62
     0
 48
50.0
370
    -2
100
AcDbLine
 10
11076.82406921408
 20
7603.463459601569
 30
0.0
 11
11076.82406921408
 21
7538.463459601574
 31
0.0
  0
LINE
  5
27730
330
25AED
100
AcDbEntity
  8
寸法
 62
     0
 48
50.0
370
    -2
100
AcDbLine
 10
11076.82406921408
 20
7538.463459601574
 30
0.0
 11
11076.82406921408
 21
6629.750256165973
 31
0.0
  0
INSERT
  5
27731
330
25AED
100
AcDbEntity
  8
寸法
 62
     0
 48
50.0
370
    -2
100
AcDbBlockReference
  2
_DOTSMALL
 10
11076.82406921408
 20
7603.463459601569
 30
0.0
 41
125.0
 42
125.0
 43
125.0
 50
90.0
  0
INSERT
  5
27732
330
25AED
100
AcDbEntity
  8
寸法
 62
     0
 48
50.0
370
    -2
100
AcDbBlockReference
  2
_DOTSMALL
 10
11076.82406921408
 20
7538.463459601574
 30
0.0
 41
125.0
 42
125.0
 43
125.0
 50
270.0
  0
MTEXT
  5
27733
330
25AED
100
AcDbEntity
  8
寸法
 62
     7
 48
50.0
100
AcDbMText
 10
10976.82406921408
 20
7021.606857883772
 30
0.0
 40
150.0
 41
0.0
 71
     5
 72
     1
  1
\A1;扉の出65
  7
STYLE1
 11
0.0000000000000001
 21
1.0
 31
0.0
 73
     1
 44
1.0
1001
ACAD
1000
MTEXTBEGIN
1070
    73
1070
     1
1070
    44
1040
1.0
1070
    74
1070
     0
1000
MTEXTEND
  0
POINT
  5
27734
330
25AED
100
AcDbEntity
  8
DEFPOINTS
 62
     0
 48
50.0
100
AcDbPoint
 10
10675.53572949696
 20
7603.463459601569
 30
0.0
  0
POINT
  5
27735
330
25AED
100
AcDbEntity
  8
DEFPOINTS
 62
     0
 48
50.0
100
AcDbPoint
 10
10675.53572949696
 20
7538.463459601574
 30
0.0
  0
POINT
  5
27736
330
25AED
100
AcDbEntity
  8
DEFPOINTS
 62
     0
 48
50.0
100
AcDbPoint
 10
11076.82406921408
 20
7538.463459601574
 30
0.0
  0
ENDBLK
  5
25AFA
330
25AED
100
AcDbEntity
  8
0
 48
50.0
100
AcDbBlockEnd
  0
BLOCK
  5
26B54
330
26B48
100
AcDbEntity
  8
0
 48
50.0
100
AcDbBlockBegin
  2
*D31
 70
     1
 10
0.0
 20
0.0
 30
0.0
  3
*D31
  1

  0
LINE
  5
27737
330
26B48
100
AcDbEntity
  8
寸法
 62
     0
 48
50.0
370
    -2
100
AcDbLine
 10
9335.067047363002
 20
7723.463459601568
 30
0.0
 11
9113.981422390834
 21
7723.463459601568
 31
0.0
  0
LINE
  5
27738
330
26B48
100
AcDbEntity
  8
寸法
 62
     0
 48
50.0
370
    -2
100
AcDbLine
 10
9335.067047363002
 20
7538.46345960157
 30
0.0
 11
9113.981422390834
 21
7538.46345960157
 31
0.0
  0
LINE
  5
27739
330
26B48
100
AcDbEntity
  8
寸法
 62
     0
 48
50.0
370
    -2
100
AcDbLine
 10
9188.981422390833
 20
7723.463459601568
 30
0.0
 11
9188.981422390833
 21
7538.46345960157
 31
0.0
  0
LINE
  5
2773A
330
26B48
100
AcDbEntity
  8
寸法
 62
     0
 48
50.0
370
    -2
100
AcDbLine
 10
9188.981422390833
 20
7538.46345960157
 30
0.0
 11
9188.981422390833
 21
7117.250256165974
 31
0.0
  0
INSERT
  5
2773B
330
26B48
100
AcDbEntity
  8
寸法
 62
     0
 48
50.0
370
    -2
100
AcDbBlockReference
  2
_DOTSMALL
 10
9188.981422390833
 20
7723.463459601568
 30
0.0
 41
125.0
 42
125.0
 43
125.0
 50
90.0
  0
INSERT
  5
2773C
330
26B48
100
AcDbEntity
  8
寸法
 62
     0
 48
50.0
370
    -2
100
AcDbBlockReference
  2
_DOTSMALL
 10
9188.981422390833
 20
7538.46345960157
 30
0.0
 41
125.0
 42
125.0
 43
125.0
 50
270.0
  0
MTEXT
  5
2773D
330
26B48
100
AcDbEntity
  8
寸法
 62
     7
 48
50.0
100
AcDbMText
 10
9088.98142239083
 20
7265.356857883773
 30
0.0
 40
150.0
 41
0.0
 71
     5
 72
     1
  1
\A1;185
  7
STYLE1
 11
0.0000000000000001
 21
1.0
 31
0.0
 73
     1
 44
1.0
1001
ACAD
1000
MTEXTBEGIN
1070
    73
1070
     1
1070
    44
1040
1.0
1070
    74
1070
     0
1000
MTEXTEND
  0
POINT
  5
2773E
330
26B48
100
AcDbEntity
  8
DEFPOINTS
 62
     0
 48
50.0
100
AcDbPoint
 10
9360.067047363001
 20
7723.463459601568
 30
0.0
  0
POINT
  5
2773F
330
26B48
100
AcDbEntity
  8
DEFPOINTS
 62
     0
 48
50.0
100
AcDbPoint
 10
9360.067047363001
 20
7538.46345960157
 30
0.0
  0
POINT
  5
27740
330
26B48
100
AcDbEntity
  8
DEFPOINTS
 62
     0
 48
50.0
100
AcDbPoint
 10
9188.981422390833
 20
7538.46345960157
 30
0.0
  0
ENDBLK
  5
26B55
330
26B48
100
AcDbEntity
  8
0
 48
50.0
100
AcDbBlockEnd
  0
BLOCK
  5
26BCA
330
26BC0
100
AcDbEntity
  8
0
 48
50.0
100
AcDbBlockBegin
  2
*D32
 70
     1
 10
0.0
 20
0.0
 30
0.0
  3
*D32
  1

  0
LINE
  5
27756
330
26BC0
100
AcDbEntity
  8
寸法
 62
     0
 48
50.0
370
    -2
100
AcDbLine
 10
10675.53572949696
 20
7513.463459601574
 30
0.0
 11
10675.53572949696
 21
6895.193094611451
 31
0.0
  0
LINE
  5
27757
330
26BC0
100
AcDbEntity
  8
寸法
 62
     0
 48
50.0
370
    -2
100
AcDbLine
 10
8922.535729496965
 20
7513.463459601578
 30
0.0
 11
8922.535729496965
 21
6895.193094611451
 31
0.0
  0
LINE
  5
27758
330
26BC0
100
AcDbEntity
  8
寸法
 62
     0
 48
50.0
370
    -2
100
AcDbLine
 10
10675.53572949696
 20
6970.193094611452
 30
0.0
 11
8922.535729496965
 21
6970.193094611452
 31
0.0
  0
INSERT
  5
27759
330
26BC0
100
AcDbEntity
  8
寸法
 62
     0
 48
50.0
370
    -2
100
AcDbBlockReference
  2
_DOTSMALL
 10
10675.53572949696
 20
6970.193094611452
 30
0.0
 41
125.0
 42
125.0
 43
125.0
  0
INSERT
  5
2775A
330
26BC0
100
AcDbEntity
  8
寸法
 62
     0
 48
50.0
370
    -2
100
AcDbBlockReference
  2
_DOTSMALL
 10
8922.535729496965
 20
6970.193094611452
 30
0.0
 41
125.0
 42
125.0
 43
125.0
 50
180.0
  0
MTEXT
  5
2775B
330
26BC0
100
AcDbEntity
  8
寸法
 62
     7
 48
50.0
100
AcDbMText
 10
9799.035729496964
 20
7070.193094611451
 30
0.0
 40
150.0
 41
0.0
 71
     5
 72
     1
  1
\A1;1753
  7
STYLE1
 73
     1
 44
1.0
1001
ACAD
1000
MTEXTBEGIN
1070
    73
1070
     1
1070
    44
1040
1.0
1070
    74
1070
     0
1000
MTEXTEND
  0
POINT
  5
2775C
330
26BC0
100
AcDbEntity
  8
DEFPOINTS
 62
     0
 48
50.0
100
AcDbPoint
 10
10675.53572949696
 20
7538.463459601574
 30
0.0
  0
POINT
  5
2775D
330
26BC0
100
AcDbEntity
  8
DEFPOINTS
 62
     0
 48
50.0
100
AcDbPoint
 10
8922.535729496965
 20
7538.463459601579
 30
0.0
  0
POINT
  5
2775E
330
26BC0
100
AcDbEntity
  8
DEFPOINTS
 62
     0
 48
50.0
100
AcDbPoint
 10
8922.535729496965
 20
6970.193094611452
 30
0.0
  0
ENDBLK
  5
26BCB
330
26BC0
100
AcDbEntity
  8
0
 48
50.0
100
AcDbBlockEnd
  0
BLOCK
  5
2774C
330
27742
100
AcDbEntity
  8
0
 48
50.0
100
AcDbBlockBegin
  2
*D33
 70
     1
 10
0.0
 20
0.0
 30
0.0
  3
*D33
  1

  0
LINE
  5
2775F
330
27742
100
AcDbEntity
  8
寸法
 62
     0
 48
50.0
370
    -2
100
AcDbLine
 10
8273.535729496966
 20
7578.463459601569
 30
0.0
 11
8273.535729496966
 21
6895.193094611451
 31
0.0
  0
LINE
  5
27760
330
27742
100
AcDbEntity
  8
寸法
 62
     0
 48
50.0
370
    -2
100
AcDbLine
 10
8922.535729496964
 20
7513.463459601564
 30
0.0
 11
8922.535729496964
 21
6895.193094611451
 31
0.0
  0
LINE
  5
27761
330
27742
100
AcDbEntity
  8
寸法
 62
     0
 48
50.0
370
    -2
100
AcDbLine
 10
8273.535729496966
 20
6970.193094611452
 30
0.0
 11
8922.535729496964
 21
6970.193094611452
 31
0.0
  0
INSERT
  5
27762
330
27742
100
AcDbEntity
  8
寸法
 62
     0
 48
50.0
370
    -2
100
AcDbBlockReference
  2
_DOTSMALL
 10
8273.535729496966
 20
6970.193094611452
 30
0.0
 41
125.0
 42
125.0
 43
125.0
 50
180.0
  0
INSERT
  5
27763
330
27742
100
AcDbEntity
  8
寸法
 62
     0
 48
50.0
370
    -2
100
AcDbBlockReference
  2
_DOTSMALL
 10
8922.535729496964
 20
6970.193094611452
 30
0.0
 41
125.0
 42
125.0
 43
125.0
  0
MTEXT
  5
27764
330
27742
100
AcDbEntity
  8
寸法
 62
     7
 48
50.0
100
AcDbMText
 10
8598.035729496965
 20
7070.193094611451
 30
0.0
 40
150.0
 41
0.0
 71
     5
 72
     1
  1
\A1;649
  7
STYLE1
 73
     1
 44
1.0
1001
ACAD
1000
MTEXTBEGIN
1070
    73
1070
     1
1070
    44
1040
1.0
1070
    74
1070
     0
1000
MTEXTEND
  0
POINT
  5
27765
330
27742
100
AcDbEntity
  8
DEFPOINTS
 62
     0
 48
50.0
100
AcDbPoint
 10
8273.535729496966
 20
7603.463459601569
 30
0.0
  0
POINT
  5
27766
330
27742
100
AcDbEntity
  8
DEFPOINTS
 62
     0
 48
50.0
100
AcDbPoint
 10
8922.535729496964
 20
7538.463459601564
 30
0.0
  0
POINT
  5
27767
330
27742
100
AcDbEntity
  8
DEFPOINTS
 62
     0
 48
50.0
100
AcDbPoint
 10
8922.535729496964
 20
6970.193094611452
 30
0.0
  0
ENDBLK
  5
2774D
330
27742
100
AcDbEntity
  8
0
 48
50.0
100
AcDbBlockEnd
  0
BLOCK
  5
27CF8
330
27CEE
100
AcDbEntity
  8
0
 48
50.0
100
AcDbBlockBegin
  2
*D34
 70
     1
 10
0.0
 20
0.0
 30
0.0
  3
*D34
  1

  0
LINE
  5
27D44
330
27CEE
100
AcDbEntity
  8
寸法
 62
     0
 48
50.0
370
    -2
100
AcDbLine
 10
10062.13011163164
 20
3053.957887759292
 30
0.0
 11
10062.13011163164
 21
3463.731686170753
 31
0.0
  0
LINE
  5
27D45
330
27CEE
100
AcDbEntity
  8
寸法
 62
     0
 48
50.0
370
    -2
100
AcDbLine
 10
10252.74549624703
 20
3055.034810836216
 30
0.0
 11
10252.74549624703
 21
3463.731686170753
 31
0.0
  0
LINE
  5
27D46
330
27CEE
100
AcDbEntity
  8
寸法
 62
     0
 48
50.0
370
    -2
100
AcDbLine
 10
10062.13011163164
 20
3388.731686170753
 30
0.0
 11
10252.74549624703
 21
3388.731686170753
 31
0.0
  0
INSERT
  5
27D47
330
27CEE
100
AcDbEntity
  8
寸法
 62
     0
 48
50.0
370
    -2
100
AcDbBlockReference
  2
_DOTSMALL
 10
10062.13011163164
 20
3388.731686170753
 30
0.0
 41
125.0
 42
125.0
 43
125.0
 50
180.0
  0
INSERT
  5
27D48
330
27CEE
100
AcDbEntity
  8
寸法
 62
     0
 48
50.0
370
    -2
100
AcDbBlockReference
  2
_DOTSMALL
 10
10252.74549624703
 20
3388.731686170753
 30
0.0
 41
125.0
 42
125.0
 43
125.0
  0
MTEXT
  5
27D49
330
27CEE
100
AcDbEntity
  8
寸法
 62
     7
 48
50.0
100
AcDbMText
 10
10157.43780393933
 20
3463.731686170753
 30
0.0
 40
100.0
 41
0.0
 71
     5
 72
     1
  1
\A1;88.5
  7
STYLE1
 73
     1
 44
1.0
1001
ACAD
1000
MTEXTBEGIN
1070
    73
1070
     1
1070
    44
1040
1.0
1070
    74
1070
     0
1000
MTEXTEND
  0
POINT
  5
27D4A
330
27CEE
100
AcDbEntity
  8
DEFPOINTS
 62
     0
 48
50.0
100
AcDbPoint
 10
10062.13011163164
 20
3028.957887759292
 30
0.0
  0
POINT
  5
27D4B
330
27CEE
100
AcDbEntity
  8
DEFPOINTS
 62
     0
 48
50.0
100
AcDbPoint
 10
10252.74549624703
 20
3030.034810836216
 30
0.0
  0
POINT
  5
27D4C
330
27CEE
100
AcDbEntity
  8
DEFPOINTS
 62
     0
 48
50.0
100
AcDbPoint
 10
10252.74549624703
 20
3388.731686170753
 30
0.0
  0
ENDBLK
  5
27CF9
330
27CEE
100
AcDbEntity
  8
0
 48
50.0
100
AcDbBlockEnd
  0
BLOCK
  5
27D05
330
27CFA
100
AcDbEntity
  8
0
 48
50.0
100
AcDbBlockBegin
  2
*D35
 70
     1
 10
0.0
 20
0.0
 30
0.0
  3
*D35
  1

  0
LINE
  5
27D4D
330
27CFA
100
AcDbEntity
  8
寸法
 62
     0
 48
50.0
370
    -2
100
AcDbLine
 10
10051.36088086241
 20
2948.419426220831
 30
0.0
 11
10051.36088086241
 21
3242.152768118778
 31
0.0
  0
LINE
  5
27D4E
330
27CFA
100
AcDbEntity
  8
寸法
 62
     0
 48
50.0
370
    -2
100
AcDbLine
 10
10194.86088086241
 20
3008.727118528523
 30
0.0
 11
10194.86088086241
 21
3242.152768118778
 31
0.0
  0
LINE
  5
27D4F
330
27CFA
100
AcDbEntity
  8
寸法
 62
     0
 48
50.0
370
    -2
100
AcDbLine
 10
10194.86088086241
 20
3167.152768118778
 30
0.0
 11
10051.36088086241
 21
3167.152768118778
 31
0.0
  0
LINE
  5
27D50
330
27CFA
100
AcDbEntity
  8
寸法
 62
     0
 48
50.0
370
    -2
100
AcDbLine
 10
10051.36088086241
 20
3167.152768118778
 30
0.0
 11
9756.234493270181
 21
3167.152768118778
 31
0.0
  0
INSERT
  5
27D51
330
27CFA
100
AcDbEntity
  8
寸法
 62
     0
 48
50.0
370
    -2
100
AcDbBlockReference
  2
_DOTSMALL
 10
10194.86088086241
 20
3167.152768118778
 30
0.0
 41
125.0
 42
125.0
 43
125.0
  0
INSERT
  5
27D52
330
27CFA
100
AcDbEntity
  8
寸法
 62
     0
 48
50.0
370
    -2
100
AcDbBlockReference
  2
_DOTSMALL
 10
10051.36088086241
 20
3167.152768118778
 30
0.0
 41
125.0
 42
125.0
 43
125.0
 50
180.0
  0
MTEXT
  5
27D53
330
27CFA
100
AcDbEntity
  8
寸法
 62
     7
 48
50.0
100
AcDbMText
 10
9841.297687066298
 20
3242.152768118778
 30
0.0
 40
100.0
 41
0.0
 71
     5
 72
     1
  1
\A1;65
  7
STYLE1
 73
     1
 44
1.0
1001
ACAD
1000
MTEXTBEGIN
1070
    73
1070
     1
1070
    44
1040
1.0
1070
    74
1070
     0
1000
MTEXTEND
  0
POINT
  5
27D54
330
27CFA
100
AcDbEntity
  8
DEFPOINTS
 62
     0
 48
50.0
100
AcDbPoint
 10
10051.36088086241
 20
2923.419426220831
 30
0.0
  0
POINT
  5
27D55
330
27CFA
100
AcDbEntity
  8
DEFPOINTS
 62
     0
 48
50.0
100
AcDbPoint
 10
10194.86088086241
 20
2983.727118528523
 30
0.0
  0
POINT
  5
27D56
330
27CFA
100
AcDbEntity
  8
DEFPOINTS
 62
     0
 48
50.0
100
AcDbPoint
 10
10194.86088086241
 20
3167.152768118778
 30
0.0
  0
ENDBLK
  5
27D06
330
27CFA
100
AcDbEntity
  8
0
 48
50.0
100
AcDbBlockEnd
  0
BLOCK
  5
27D11
330
27D07
100
AcDbEntity
  8
0
 48
50.0
100
AcDbBlockBegin
  2
*D36
 70
     1
 10
0.0
 20
0.0
 30
0.0
  3
*D36
  1

  0
LINE
  5
27D57
330
27D07
100
AcDbEntity
  8
寸法
 62
     0
 48
50.0
370
    -2
100
AcDbLine
 10
7243.936977338004
 20
2872.889706456043
 30
0.0
 11
7243.936977338004
 21
3322.889706456043
 31
0.0
  0
LINE
  5
27D58
330
27D07
100
AcDbEntity
  8
寸法
 62
     0
 48
50.0
370
    -2
100
AcDbLine
 10
7003.936977338004
 20
2872.889706456043
 30
0.0
 11
7003.936977338004
 21
3322.889706456043
 31
0.0
  0
LINE
  5
27D59
330
27D07
100
AcDbEntity
  8
寸法
 62
     0
 48
50.0
370
    -2
100
AcDbLine
 10
7243.936977338004
 20
3247.889706456043
 30
0.0
 11
7003.936977338004
 21
3247.889706456043
 31
0.0
  0
INSERT
  5
27D5A
330
27D07
100
AcDbEntity
  8
寸法
 62
     0
 48
50.0
370
    -2
100
AcDbBlockReference
  2
_DOTSMALL
 10
7243.936977338004
 20
3247.889706456043
 30
0.0
 41
125.0
 42
125.0
 43
125.0
  0
INSERT
  5
27D5B
330
27D07
100
AcDbEntity
  8
寸法
 62
     0
 48
50.0
370
    -2
100
AcDbBlockReference
  2
_DOTSMALL
 10
7003.936977338004
 20
3247.889706456043
 30
0.0
 41
125.0
 42
125.0
 43
125.0
 50
180.0
  0
MTEXT
  5
27D5C
330
27D07
100
AcDbEntity
  8
寸法
 62
     7
 48
50.0
100
AcDbMText
 10
7123.936977338004
 20
3406.232882309061
 30
0.0
 40
100.0
 41
0.0
 71
     5
 72
     1
  1
\A1;120\P185
  7
STYLE1
 73
     1
 44
1.0
1001
ACAD
1000
MTEXTBEGIN
1070
    73
1070
     1
1070
    44
1040
1.0
1070
    74
1070
     0
1000
MTEXTEND
  0
POINT
  5
27D5D
330
27D07
100
AcDbEntity
  8
DEFPOINTS
 62
     0
 48
50.0
100
AcDbPoint
 10
7243.936977338004
 20
2847.889706456042
 30
0.0
  0
POINT
  5
27D5E
330
27D07
100
AcDbEntity
  8
DEFPOINTS
 62
     0
 48
50.0
100
AcDbPoint
 10
7003.936977338004
 20
2847.889706456042
 30
0.0
  0
POINT
  5
27D5F
330
27D07
100
AcDbEntity
  8
DEFPOINTS
 62
     0
 48
50.0
100
AcDbPoint
 10
7003.936977338004
 20
3247.889706456043
 30
0.0
  0
ENDBLK
  5
27D12
330
27D07
100
AcDbEntity
  8
0
 48
50.0
100
AcDbBlockEnd
  0
BLOCK
  5
27D1E
330
27D13
100
AcDbEntity
  8
0
 48
50.0
100
AcDbBlockBegin
  2
*D37
 70
     1
 10
0.0
 20
0.0
 30
0.0
  3
*D37
  1

  0
LINE
  5
27D60
330
27D13
100
AcDbEntity
  8
寸法
 62
     0
 48
50.0
370
    -2
100
AcDbLine
 10
10156.36088086241
 20
2983.727118528523
 30
0.0
 11
9434.975582941744
 21
2983.727118528523
 31
0.0
  0
LINE
  5
27D61
330
27D13
100
AcDbEntity
  8
寸法
 62
     0
 48
50.0
370
    -2
100
AcDbLine
 10
10026.36088086241
 20
2923.419426220831
 30
0.0
 11
9434.975582941744
 21
2923.419426220831
 31
0.0
  0
LINE
  5
27D62
330
27D13
100
AcDbEntity
  8
寸法
 62
     0
 48
50.0
370
    -2
100
AcDbLine
 10
9509.975582941743
 20
2923.419426220831
 30
0.0
 11
9509.975582941743
 21
2983.727118528523
 31
0.0
  0
LINE
  5
27D63
330
27D13
100
AcDbEntity
  8
寸法
 62
     0
 48
50.0
370
    -2
100
AcDbLine
 10
9509.975582941743
 20
2983.727118528523
 30
0.0
 11
9509.975582941743
 21
3397.139192019338
 31
0.0
  0
INSERT
  5
27D64
330
27D13
100
AcDbEntity
  8
寸法
 62
     0
 48
50.0
370
    -2
100
AcDbBlockReference
  2
_DOTSMALL
 10
9509.975582941743
 20
2923.419426220831
 30
0.0
 41
125.0
 42
125.0
 43
125.0
 50
270.0
  0
INSERT
  5
27D65
330
27D13
100
AcDbEntity
  8
寸法
 62
     0
 48
50.0
370
    -2
100
AcDbBlockReference
  2
_DOTSMALL
 10
9509.975582941743
 20
2983.727118528523
 30
0.0
 41
125.0
 42
125.0
 43
125.0
 50
90.0
  0
MTEXT
  5
27D66
330
27D13
100
AcDbEntity
  8
寸法
 62
     7
 48
50.0
100
AcDbMText
 10
9434.975582941744
 20
3252.933155273932
 30
0.0
 40
100.0
 41
0.0
 71
     5
 72
     1
  1
\A1;出30
  7
STYLE1
 11
0.0000000000000001
 21
1.0
 31
0.0
 73
     1
 44
1.0
1001
ACAD
1000
MTEXTBEGIN
1070
    73
1070
     1
1070
    44
1040
1.0
1070
    74
1070
     0
1000
MTEXTEND
  0
POINT
  5
27D67
330
27D13
100
AcDbEntity
  8
DEFPOINTS
 62
     0
 48
50.0
100
AcDbPoint
 10
10181.36088086241
 20
2983.727118528523
 30
0.0
  0
POINT
  5
27D68
330
27D13
100
AcDbEntity
  8
DEFPOINTS
 62
     0
 48
50.0
100
AcDbPoint
 10
10051.36088086241
 20
2923.419426220831
 30
0.0
  0
POINT
  5
27D69
330
27D13
100
AcDbEntity
  8
DEFPOINTS
 62
     0
 48
50.0
100
AcDbPoint
 10
9509.975582941743
 20
2923.419426220831
 30
0.0
  0
ENDBLK
  5
27D1F
330
27D13
100
AcDbEntity
  8
0
 48
50.0
100
AcDbBlockEnd
  0
BLOCK
  5
27D2A
330
27D20
100
AcDbEntity
  8
0
 48
50.0
100
AcDbBlockBegin
  2
*D38
 70
     1
 10
0.0
 20
0.0
 30
0.0
  3
*D38
  1

  0
LINE
  5
27D6A
330
27D20
100
AcDbEntity
  8
寸法
 62
     0
 48
50.0
370
    -2
100
AcDbLine
 10
6978.936977338005
 20
2847.889706456042
 30
0.0
 11
6074.467609538849
 21
2847.889706456042
 31
0.0
  0
LINE
  5
27D6B
330
27D20
100
AcDbEntity
  8
寸法
 62
     0
 48
50.0
370
    -2
100
AcDbLine
 10
6718.936977338005
 20
1767.889706456042
 30
0.0
 11
6074.467609538849
 21
1767.889706456043
 31
0.0
  0
LINE
  5
27D6C
330
27D20
100
AcDbEntity
  8
寸法
 62
     0
 48
50.0
370
    -2
100
AcDbLine
 10
6149.46760953885
 20
2847.889706456042
 30
0.0
 11
6149.467609538849
 21
1767.889706456043
 31
0.0
  0
INSERT
  5
27D6D
330
27D20
100
AcDbEntity
  8
寸法
 62
     0
 48
50.0
370
    -2
100
AcDbBlockReference
  2
_DOTSMALL
 10
6149.46760953885
 20
2847.889706456042
 30
0.0
 41
125.0
 42
125.0
 43
125.0
 50
90.0
  0
INSERT
  5
27D6E
330
27D20
100
AcDbEntity
  8
寸法
 62
     0
 48
50.0
370
    -2
100
AcDbBlockReference
  2
_DOTSMALL
 10
6149.467609538849
 20
1767.889706456043
 30
0.0
 41
125.0
 42
125.0
 43
125.0
 50
270.0
  0
MTEXT
  5
27D6F
330
27D20
100
AcDbEntity
  8
寸法
 62
     7
 48
50.0
100
AcDbMText
 10
6074.467609538849
 20
2344.684643053753
 30
0.0
 40
100.0
 41
0.0
 71
     5
 72
     1
  1
\A1;540
  7
STYLE1
 11
0.0000000000000001
 21
1.0
 31
0.0
 73
     1
 44
1.0
1001
ACAD
1000
MTEXTBEGIN
1070
    73
1070
     1
1070
    44
1040
1.0
1070
    74
1070
     0
1000
MTEXTEND
  0
POINT
  5
27D70
330
27D20
100
AcDbEntity
  8
DEFPOINTS
 62
     0
 48
50.0
100
AcDbPoint
 10
7003.936977338004
 20
2847.889706456042
 30
0.0
  0
POINT
  5
27D71
330
27D20
100
AcDbEntity
  8
DEFPOINTS
 62
     0
 48
50.0
100
AcDbPoint
 10
6743.936977338005
 20
1767.889706456042
 30
0.0
  0
POINT
  5
27D72
330
27D20
100
AcDbEntity
  8
DEFPOINTS
 62
     0
 48
50.0
100
AcDbPoint
 10
6149.467609538849
 20
1767.889706456043
 30
0.0
  0
ENDBLK
  5
27D2B
330
27D20
100
AcDbEntity
  8
0
 48
50.0
100
AcDbBlockEnd
  0
BLOCK
  5
27D36
330
27D2C
100
AcDbEntity
  8
0
 48
50.0
100
AcDbBlockBegin
  2
*D39
 70
     1
 10
0.0
 20
0.0
 30
0.0
  3
*D39
  1

  0
LINE
  5
27D73
330
27D2C
100
AcDbEntity
  8
寸法
 62
     0
 48
50.0
370
    -2
100
AcDbLine
 10
6823.936977338004
 20
1582.889706456042
 30
0.0
 11
6823.936977338004
 21
1233.937600000108
 31
0.0
  0
LINE
  5
27D74
330
27D2C
100
AcDbEntity
  8
寸法
 62
     0
 48
50.0
370
    -2
100
AcDbLine
 10
7423.936977338005
 20
1582.889706456042
 30
0.0
 11
7423.936977338005
 21
1233.937600000108
 31
0.0
  0
LINE
  5
27D75
330
27D2C
100
AcDbEntity
  8
寸法
 62
     0
 48
50.0
370
    -2
100
AcDbLine
 10
6823.936977338004
 20
1308.937600000108
 30
0.0
 11
7423.936977338005
 21
1308.937600000108
 31
0.0
  0
INSERT
  5
27D76
330
27D2C
100
AcDbEntity
  8
寸法
 62
     0
 48
50.0
370
    -2
100
AcDbBlockReference
  2
_DOTSMALL
 10
6823.936977338004
 20
1308.937600000108
 30
0.0
 41
125.0
 42
125.0
 43
125.0
 50
180.0
  0
INSERT
  5
27D77
330
27D2C
100
AcDbEntity
  8
寸法
 62
     0
 48
50.0
370
    -2
100
AcDbBlockReference
  2
_DOTSMALL
 10
7423.936977338005
 20
1308.937600000108
 30
0.0
 41
125.0
 42
125.0
 43
125.0
  0
MTEXT
  5
27D78
330
27D2C
100
AcDbEntity
  8
寸法
 62
     7
 48
50.0
100
AcDbMText
 10
7123.936977338004
 20
1383.937600000108
 30
0.0
 40
100.0
 41
0.0
 71
     5
 72
     1
  1
\A1;300
  7
STYLE1
 73
     1
 44
1.0
1001
ACAD
1000
MTEXTBEGIN
1070
    73
1070
     1
1070
    44
1040
1.0
1070
    74
1070
     0
1000
MTEXTEND
  0
POINT
  5
27D79
330
27D2C
100
AcDbEntity
  8
DEFPOINTS
 62
     0
 48
50.0
100
AcDbPoint
 10
6823.936977338004
 20
1607.889706456042
 30
0.0
  0
POINT
  5
27D7A
330
27D2C
100
AcDbEntity
  8
DEFPOINTS
 62
     0
 48
50.0
100
AcDbPoint
 10
7423.936977338005
 20
1607.889706456042
 30
0.0
  0
POINT
  5
27D7B
330
27D2C
100
AcDbEntity
  8
DEFPOINTS
 62
     0
 48
50.0
100
AcDbPoint
 10
7423.936977338005
 20
1308.937600000108
 30
0.0
  0
ENDBLK
  5
27D37
330
27D2C
100
AcDbEntity
  8
0
 48
50.0
100
AcDbBlockEnd
  0
BLOCK
  5
27D42
330
27D38
100
AcDbEntity
  8
0
 48
50.0
100
AcDbBlockBegin
  2
*D40
 70
     1
 10
0.0
 20
0.0
 30
0.0
  3
*D40
  1

  0
LINE
  5
27D7C
330
27D38
100
AcDbEntity
  8
寸法
 62
     0
 48
50.0
370
    -2
100
AcDbLine
 10
6818.936977338004
 20
2067.889706456043
 30
0.0
 11
6305.666633006396
 21
2067.889706456043
 31
0.0
  0
LINE
  5
27D7D
330
27D38
100
AcDbEntity
  8
寸法
 62
     0
 48
50.0
370
    -2
100
AcDbLine
 10
6718.936977338005
 20
1767.889706456042
 30
0.0
 11
6305.666633006396
 21
1767.889706456043
 31
0.0
  0
LINE
  5
27D7E
330
27D38
100
AcDbEntity
  8
寸法
 62
     0
 48
50.0
370
    -2
100
AcDbLine
 10
6380.666633006396
 20
2067.889706456043
 30
0.0
 11
6380.666633006395
 21
1767.889706456043
 31
0.0
  0
INSERT
  5
27D7F
330
27D38
100
AcDbEntity
  8
寸法
 62
     0
 48
50.0
370
    -2
100
AcDbBlockReference
  2
_DOTSMALL
 10
6380.666633006396
 20
2067.889706456043
 30
0.0
 41
125.0
 42
125.0
 43
125.0
 50
90.0
  0
INSERT
  5
27D80
330
27D38
100
AcDbEntity
  8
寸法
 62
     0
 48
50.0
370
    -2
100
AcDbBlockReference
  2
_DOTSMALL
 10
6380.666633006395
 20
1767.889706456043
 30
0.0
 41
125.0
 42
125.0
 43
125.0
 50
270.0
  0
MTEXT
  5
27D81
330
27D38
100
AcDbEntity
  8
寸法
 62
     7
 48
50.0
100
AcDbMText
 10
6305.666633006396
 20
1942.216300848185
 30
0.0
 40
100.0
 41
0.0
 71
     5
 72
     1
  1
\A1;150
  7
STYLE1
 11
0.0000000000000001
 21
1.0
 31
0.0
 73
     1
 44
1.0
1001
ACAD
1000
MTEXTBEGIN
1070
    73
1070
     1
1070
    44
1040
1.0
1070
    74
1070
     0
1000
MTEXTEND
  0
POINT
  5
27D82
330
27D38
100
AcDbEntity
  8
DEFPOINTS
 62
     0
 48
50.0
100
AcDbPoint
 10
6843.936977338003
 20
2067.889706456043
 30
0.0
  0
POINT
  5
27D83
330
27D38
100
AcDbEntity
  8
DEFPOINTS
 62
     0
 48
50.0
100
AcDbPoint
 10
6743.936977338005
 20
1767.889706456042
 30
0.0
  0
POINT
  5
27D84
330
27D38
100
AcDbEntity
  8
DEFPOINTS
 62
     0
 48
50.0
100
AcDbPoint
 10
6380.666633006395
 20
1767.889706456043
 30
0.0
  0
ENDBLK
  5
27D43
330
27D38
100
AcDbEntity
  8
0
 48
50.0
100
AcDbBlockEnd
  0
ENDSEC
  0
SECTION
  2
ENTITIES
  0
LINE
  5
10B56
330
747D
100
AcDbEntity
  8
補助
  6
PHANTOM
 62
   230
 48
50.0
100
AcDbLine
 10
175.0
 20
0.0
 30
0.0
 11
174.9999999999993
 21
14262.0
 31
0.0
  0
LINE
  5
10B57
330
747D
100
AcDbEntity
  8
補助
  6
PHANTOM
 62
   230
 48
50.0
100
AcDbLine
 10
174.9999999999993
 20
14262.0
 30
0.0
 11
20384.0
 21
14262.0
 31
0.0
  0
LINE
  5
10B59
330
747D
100
AcDbEntity
  8
仕様書枠
  6
Continuous
 48
50.0
100
AcDbLine
 10
16384.0
 20
1500.0
 30
0.0
 11
16384.0
 21
-0.0000000000000912
 31
0.0
  0
LINE
  5
10B5C
330
747D
100
AcDbEntity
  8
仕様書枠
 48
50.0
100
AcDbLine
 10
20384.0
 20
1500.0
 30
0.0
 11
20384.0
 21
-0.0000000000001137
 31
0.0
  0
LINE
  5
10B5D
330
747D
100
AcDbEntity
  8
仕様書枠
 48
50.0
100
AcDbLine
 10
175.0
 20
0.0
 30
0.0
 11
20384.0
 21
-0.0000000000001137
 31
0.0
  0
LINE
  5
10B5E
330
747D
100
AcDbEntity
  8
補助
  6
PHANTOM
 62
   230
 48
50.0
100
AcDbLine
 10
20384.0
 20
14262.0
 30
0.0
 11
20384.0
 21
1500.0
 31
0.0
  0
LINE
  5
10B6C
330
747D
100
AcDbEntity
  8
仕様書枠
 48
50.0
100
AcDbLine
 10
16384.0
 20
1500.0
 30
0.0
 11
20384.0
 21
1500.0
 31
0.0
  0
TEXT
  5
10B73
330
747D
100
AcDbEntity
  8
仕様書枠
 62
     7
 48
50.0
100
AcDbText
 10
16453.72382072112
 20
1118.863259287425
 30
0.0
 40
250.0
  1
基 礎 図
  7
STYLE2
100
AcDbText
  0
LINE
  5
10B7B
330
747D
100
AcDbEntity
  8
仕様書枠
 48
50.0
100
AcDbLine
 10
16384.0
 20
1000.0
 30
0.0
 11
17814.0
 21
1000.0
 31
0.0
  0
LINE
  5
10B88
330
747D
100
AcDbEntity
  8
仕様書枠
  6
Continuous
 48
50.0
100
AcDbLine
 10
17814.0
 20
1500.0
 30
0.0
 11
17814.0
 21
1000.0
 31
0.0
  0
LINE
  5
18940
330
747D
100
AcDbEntity
  8
仕様書枠
 62
     7
 48
50.0
100
AcDbLine
 10
16484.0
 20
500.0
 30
0.0
 11
20284.0
 21
500.0
 31
0.0
  0
TEXT
  5
1CB51
330
747D
100
AcDbEntity
  8
文字
 62
     7
 48
50.0
100
AcDbText
 10
16511.75668531126
 20
99.7578908648793
 30
0.0
 40
100.0
  1
※布基礎には換気口を設けてください。
  7
STYLE2
100
AcDbText
  0
TEXT
  5
1CB52
330
747D
100
AcDbEntity
  8
文字
 62
     7
 48
50.0
100
AcDbText
 10
16511.75668531126
 20
270.5931184260626
 30
0.0
 40
100.0
  1
※寒冷地等は、地域の実情に合わせた基礎にしてください。
  7
STYLE2
100
AcDbText
  0
TEXT
  5
1DAE9
330
747D
100
AcDbEntity
  8
文字
 62
     7
 48
50.0
100
AcDbText
 10
16501.79587498052
 20
596.5925826289066
 30
0.0
 40
200.0
  1
機種名
  7
STYLE2
100
AcDbText
  0
TEXT
  5
1DAEB
330
747D
100
AcDbEntity
  8
仕様書枠
 62
     7
 48
50.0
100
AcDbText
 10
18108.75008258934
 20
604.8708912389265
 30
0.0
 40
200.0
  1
ＳＭＫ-１２０H
  7
STYLE2
100
AcDbText
  0
TEXT
  5
1DAED
330
747D
100
AcDbEntity
  8
文字
 62
     7
 48
50.0
100
AcDbText
 10
19045.16136805958
 20
1262.784376775191
 30
0.0
 40
125.0
  1
 <縮尺> S=1/50
  7
STYLE2
100
AcDbText
  0
LEADER
  5
23202
330
747D
100
AcDbEntity
  8
寸法
 48
50.0
100
AcDbLeader
  3
INABA_S50G
 71
     0
 73
     0
 74
     0
 75
     1
 40
150.0
 41
231.9898538650463
 76
     3
 10
10779.85339914342
 20
9335.741727669162
 30
0.0
 10
10808.90473551891
 20
9456.641174318669
 30
0.0
 10
10933.90473551891
 20
9456.641174318669
 30
0.0
340
23203
  0
MTEXT
  5
23203
102
{ACAD_REACTORS
330
23202
102
}
330
747D
100
AcDbEntity
  8
細線
 62
     7
 48
50.0
100
AcDbMText
 10
10958.90473551891
 20
9556.641174318668
 30
0.0
 40
150.0
 41
0.0
 71
     4
 72
     1
  1
\A1;C.B
  7
STYLE1
 73
     1
 44
1.0
1001
ACAD
1000
MTEXTBEGIN
1070
    73
1070
     1
1070
    44
1040
1.0
1070
    74
1070
     0
1000
MTEXTEND
  0
LINE
  5
23204
330
747D
100
AcDbEntity
  8
部品1
 48
50.0
100
AcDbLine
 10
13203.53572949696
 20
10073.46345960157
 30
0.0
 11
8273.535729496966
 21
10073.46345960157
 31
0.0
  0
LINE
  5
23205
330
747D
100
AcDbEntity
  8
想像線
 48
20.0
100
AcDbLine
 10
13253.53572949696
 20
10163.46345960156
 30
0.0
 11
8223.535729496965
 21
10163.46345960157
 31
0.0
  0
LINE
  5
23206
330
747D
100
AcDbEntity
  8
部品1
 48
50.0
100
AcDbLine
 10
13083.53572949696
 20
9953.463459601575
 30
0.0
 11
8393.535729496965
 21
9953.463459601575
 31
0.0
  0
DIMENSION
  5
23207
330
747D
100
AcDbEntity
  8
寸法
 48
50.0
100
AcDbDimension
  2
*D25
 10
10738.53572949696
 20
10705.72660933175
 30
0.0
 11
11353.53572949696
 21
10805.74137311127
 31
0.0
 70
    32
 71
     5
 42
1230.0
  3
INABA_S50G
100
AcDbAlignedDimension
 13
11968.53572949696
 23
9418.46345960157
 33
0.0
 14
10738.53572949696
 24
10153.46345960157
 34
0.0
100
AcDbRotatedDimension
1001
ACAD
1000
DSTYLE
1002
{
1070
   279
1070
     2
1002
}
  0
DIMENSION
  5
23208
330
747D
100
AcDbEntity
  8
寸法
 48
50.0
100
AcDbDimension
  2
*D26
 10
13203.53572949696
 20
6329.129667075569
 30
0.0
 11
10738.53572949696
 21
6429.12966707557
 31
0.0
 70
    32
 71
     5
 42
4930.0
  3
INABA_S50G
100
AcDbAlignedDimension
 13
8273.535729496966
 23
7603.463459601569
 33
0.0
 14
13203.53572949696
 24
7603.463459601567
 34
0.0
100
AcDbRotatedDimension
  0
LINE
  5
23209
330
747D
100
AcDbEntity
  8
想像線
 48
20.0
100
AcDbLine
 10
8223.535729496965
 20
7473.463459601569
 30
0.0
 11
13253.53572949696
 21
7473.463459601569
 31
0.0
  0
LINE
  5
2320A
330
747D
100
AcDbEntity
  8
部品1
 48
50.0
100
AcDbLine
 10
8393.535729496965
 20
7723.463459601569
 30
0.0
 11
13083.53572949696
 21
7723.463459601567
 31
0.0
  0
LINE
  5
2320B
330
747D
100
AcDbEntity
  8
部品1
 48
50.0
100
AcDbLine
 10
8273.535729496966
 20
7603.463459601569
 30
0.0
 11
8922.535729496967
 21
7603.463459601567
 31
0.0
  0
DIMENSION
  5
2320C
330
747D
100
AcDbEntity
  8
寸法
 48
50.0
100
AcDbDimension
  2
*D27
 10
13138.53572949696
 20
6618.425082402864
 30
0.0
 11
11938.53572949696
 21
6718.439846182391
 31
0.0
 70
    32
 71
     5
 42
2400.0
  3
INABA_S50G
100
AcDbAlignedDimension
 13
10738.53572949696
 23
7523.463459601569
 33
0.0
 14
13138.53572949696
 24
7523.463459601569
 34
0.0
100
AcDbRotatedDimension
1001
ACAD
1000
DSTYLE
1002
{
1070
    75
1070
     1
1070
   279
1070
     1
1002
}
  0
DIMENSION
  5
2320D
330
747D
100
AcDbEntity
  8
寸法
 48
50.0
100
AcDbDimension
  2
*D28
 10
13297.42379535299
 20
9886.067441516459
 30
0.0
 11
10948.47554404936
 21
8709.21101540693
 31
0.0
 70
   161
 71
     5
 42
5514.145446032415
  3
INABA_S50G
100
AcDbAlignedDimension
 13
8273.535729496966
 23
7603.463459601569
 33
0.0
 14
13203.53572949696
 24
10073.46345960157
 34
0.0
  0
DIMENSION
  5
23211
330
747D
100
AcDbEntity
  8
寸法
 48
50.0
100
AcDbDimension
  2
*D29
 10
7110.507166455471
 20
8403.463459601573
 30
0.0
 11
7010.50716645547
 21
8185.963459601573
 31
0.0
 70
    32
 71
     5
 42
435.0000000000009
  3
INABA_S50G
100
AcDbAlignedDimension
 13
8798.035729496968
 23
7968.463459601569
 33
0.0
 14
8798.035729496964
 24
8403.463459601573
 34
0.0
 50
90.0
100
AcDbRotatedDimension
  0
LINE
  5
23212
330
747D
100
AcDbEntity
  8
部品1
 48
50.0
100
AcDbLine
 10
8393.535729496965
 20
9953.463459601575
 30
0.0
 11
8393.535729496965
 21
7723.463459601571
 31
0.0
  0
LINE
  5
23213
330
747D
100
AcDbEntity
  8
想像線
 48
20.0
100
AcDbLine
 10
8223.535729496965
 20
10163.46345960157
 30
0.0
 11
8223.535729496965
 21
7473.463459601569
 31
0.0
  0
LINE
  5
23214
330
747D
100
AcDbEntity
  8
部品1
 48
50.0
100
AcDbLine
 10
8273.535729496966
 20
10073.46345960157
 30
0.0
 11
8273.535729496959
 21
7603.463459601569
 31
0.0
  0
DIMENSION
  5
23215
330
747D
100
AcDbEntity
  8
寸法
 48
50.0
100
AcDbDimension
  2
*D1
 10
12299.01561393818
 20
7603.463459601569
 30
0.0
 11
12299.01561393818
 21
8092.241460370717
 31
0.0
 70
   160
 71
     5
 42
799.9999999999991
  3
INABA_S50G
100
AcDbAlignedDimension
 13
12113.53572949696
 23
8403.463459601569
 33
0.0
 14
12113.53572949696
 24
7603.463459601569
 34
0.0
 50
90.0
100
AcDbRotatedDimension
  0
DIMENSION
  5
23357
330
747D
100
AcDbEntity
  8
寸法
 48
50.0
100
AcDbDimension
  2
*D2
 10
7110.507166455471
 20
7603.463459601569
 30
0.0
 11
7010.50716645547
 21
7785.963459601571
 31
0.0
 70
    32
 71
     5
 42
365.0000000000009
  3
INABA_S50G
100
AcDbAlignedDimension
 13
8798.035729496968
 23
7968.463459601569
 33
0.0
 14
8273.535729496966
 24
7603.463459601569
 34
0.0
 50
90.0
100
AcDbRotatedDimension
1001
ACAD
1000
DSTYLE
1002
{
1070
    75
1070
     1
1070
   279
1070
     1
1002
}
  0
DIMENSION
  5
23359
330
747D
100
AcDbEntity
  8
寸法
 48
50.0
100
AcDbDimension
  2
*D3
 10
10738.53572949696
 20
6618.425082402864
 30
0.0
 11
9538.535729496965
 21
6718.439846182391
 31
0.0
 70
    32
 71
     5
 42
2400.0
  3
INABA_S50G
100
AcDbAlignedDimension
 13
8338.535729496966
 23
7523.463459601569
 33
0.0
 14
10738.53572949696
 24
7523.463459601569
 34
0.0
100
AcDbRotatedDimension
1001
ACAD
1000
DSTYLE
1002
{
1070
    75
1070
     1
1070
   279
1070
     1
1002
}
  0
DIMENSION
  5
2335A
330
747D
100
AcDbEntity
  8
寸法
 48
50.0
100
AcDbDimension
  2
*D4
 10
8273.535729496966
 20
6329.129667075569
 30
0.0
 11
7930.094784615073
 21
6329.129667075569
 31
0.0
 70
   160
  1
(<>)
 71
     5
 42
50.0
  3
INABA_S50G
100
AcDbAlignedDimension
 13
8223.535729496965
 23
6618.425082402864
 33
0.0
 14
8273.535729496966
 24
7603.463459601569
 34
0.0
100
AcDbRotatedDimension
  0
DIMENSION
  5
2335B
330
747D
100
AcDbEntity
  8
寸法
 48
50.0
100
AcDbDimension
  2
*D5
 10
8338.535729496966
 20
6618.425082402864
 30
0.0
 11
8025.628438802788
 21
6618.425082402864
 31
0.0
 70
   160
 71
     5
 42
65.0
  3
INABA_S50G
100
AcDbAlignedDimension
 13
8273.535729496966
 23
7603.463459601569
 33
0.0
 14
8338.535729496966
 24
7523.463459601569
 34
0.0
100
AcDbRotatedDimension
  0
LINE
  5
2335C
330
747D
100
AcDbEntity
  8
センター
 48
5.0
100
AcDbLine
 10
8338.535729496966
 20
7523.463459601569
 30
0.0
 11
8338.535729496966
 21
7813.46345960157
 31
0.0
  0
LINE
  5
2335D
330
747D
100
AcDbEntity
  8
センター
 48
5.0
100
AcDbLine
 10
8483.535729496965
 20
7668.46345960157
 30
0.0
 11
8193.535729496964
 21
7668.46345960157
 31
0.0
  0
LINE
  5
2335E
330
747D
100
AcDbEntity
  8
センター
 48
5.0
100
AcDbLine
 10
9088.035729496967
 20
7968.463459601569
 30
0.0
 11
8798.035729496968
 21
7968.463459601569
 31
0.0
  0
LINE
  5
2337E
330
747D
100
AcDbEntity
  8
センター
 48
5.0
100
AcDbLine
 10
8943.035729496967
 20
8113.46345960157
 30
0.0
 11
8943.035729496967
 21
7823.463459601571
 31
0.0
  0
LINE
  5
233B3
330
747D
100
AcDbEntity
  8
細線
 48
50.0
100
AcDbLine
 10
9408.535729496966
 20
7565.487025370249
 30
0.0
 11
9566.512163728287
 21
7723.463459601568
 31
0.0
  0
LINE
  5
233B4
330
747D
100
AcDbEntity
  8
細線
 48
50.0
100
AcDbLine
 10
9426.413444333636
 20
7538.46345960157
 30
0.0
 11
9608.535729496965
 21
7720.585744764905
 31
0.0
  0
LINE
  5
233B5
330
747D
100
AcDbEntity
  8
細線
 48
50.0
100
AcDbLine
 10
9408.53572949697
 20
7610.388305975599
 30
0.0
 11
9521.610883122942
 21
7723.463459601571
 31
0.0
  0
LINE
  5
233B6
330
747D
100
AcDbEntity
  8
細線
 48
50.0
100
AcDbLine
 10
9408.535729496966
 20
7655.289586580939
 30
0.0
 11
9476.709602517596
 21
7723.463459601569
 31
0.0
  0
LINE
  5
233B7
330
747D
100
AcDbEntity
  8
部品1
 48
50.0
100
AcDbLine
 10
9408.535729496966
 20
7538.463459601567
 30
0.0
 11
9408.535729496966
 21
7723.463459601569
 31
0.0
  0
LINE
  5
233B8
330
747D
100
AcDbEntity
  8
細線
 48
50.0
100
AcDbLine
 10
9408.535729496966
 20
7700.190867186289
 30
0.0
 11
9431.808321912271
 21
7723.463459601569
 31
0.0
  0
LINE
  5
233B9
330
747D
100
AcDbEntity
  8
部品1
 48
50.0
100
AcDbLine
 10
9608.535729496963
 20
7538.463459601569
 30
0.0
 11
9608.535729496965
 21
7723.463459601569
 31
0.0
  0
LINE
  5
233BA
330
747D
100
AcDbEntity
  8
細線
 48
50.0
100
AcDbLine
 10
9516.216005544331
 20
7538.46345960157
 30
0.0
 11
9608.535729496965
 21
7630.783183554214
 31
0.0
  0
LINE
  5
233BB
330
747D
100
AcDbEntity
  8
細線
 48
50.0
100
AcDbLine
 10
9471.314724938979
 20
7538.46345960157
 30
0.0
 11
9608.535729496965
 21
7675.684464159558
 31
0.0
  0
LINE
  5
233FD
330
747D
100
AcDbEntity
  8
センター
 48
5.0
100
AcDbLine
 10
10738.53572949696
 20
7523.463459601569
 30
0.0
 11
10738.53572949696
 21
7813.46345960157
 31
0.0
  0
LINE
  5
2340D
330
747D
100
AcDbEntity
  8
センター
 48
5.0
100
AcDbLine
 10
10593.53572949696
 20
7668.46345960157
 30
0.0
 11
10883.53572949696
 21
7668.46345960157
 31
0.0
  0
DIMENSION
  5
2340E
330
747D
100
AcDbEntity
  8
寸法
 48
50.0
100
AcDbDimension
  2
*D6
 10
7110.507166455471
 20
9708.463459601572
 30
0.0
 11
7010.50716645547
 21
9890.963459601573
 31
0.0
 70
    32
 71
     5
 42
365.0
  3
INABA_S50G
100
AcDbAlignedDimension
 13
8273.535729496966
 23
10073.46345960157
 33
0.0
 14
8798.035729496968
 24
9708.463459601572
 34
0.0
 50
90.0
100
AcDbRotatedDimension
  0
DIMENSION
  5
2340F
330
747D
100
AcDbEntity
  8
寸法
 48
50.0
100
AcDbDimension
  2
*D7
 10
7110.507166455471
 20
9273.46345960157
 30
0.0
 11
7010.50716645547
 21
9490.963459601573
 31
0.0
 70
    32
 71
     5
 42
435.0
  3
INABA_S50G
100
AcDbAlignedDimension
 13
8798.035729496968
 23
9708.463459601572
 33
0.0
 14
8798.035729496964
 24
9273.46345960157
 34
0.0
 50
90.0
100
AcDbRotatedDimension
  0
DIMENSION
  5
23410
330
747D
100
AcDbEntity
  8
寸法
 48
50.0
100
AcDbDimension
  2
*D8
 10
7110.507166455471
 20
8403.463459601573
 30
0.0
 11
7010.50716645547
 21
8620.963459601574
 31
0.0
 70
    32
 71
     5
 42
435.0
  3
INABA_S50G
100
AcDbAlignedDimension
 13
8798.035729496964
 23
8838.463459601571
 33
0.0
 14
8798.035729496964
 24
8403.463459601573
 34
0.0
 50
90.0
100
AcDbRotatedDimension
  0
DIMENSION
  5
23411
330
747D
100
AcDbEntity
  8
寸法
 48
50.0
100
AcDbDimension
  2
*D9
 10
7110.507166455471
 20
8838.463459601571
 30
0.0
 11
7010.50716645547
 21
9055.963459601573
 31
0.0
 70
    32
 71
     5
 42
435.0
  3
INABA_S50G
100
AcDbAlignedDimension
 13
8798.035729496964
 23
9273.46345960157
 33
0.0
 14
8798.035729496964
 24
8838.463459601571
 34
0.0
 50
90.0
100
AcDbRotatedDimension
  0
DIMENSION
  5
23412
330
747D
100
AcDbEntity
  8
寸法
 48
50.0
100
AcDbDimension
  2
*D10
 10
9508.535729496966
 20
10705.72660933175
 30
0.0
 11
8891.035729496966
 21
10805.74137311127
 31
0.0
 70
    32
 71
     5
 42
1235.0
  3
INABA_S50G
100
AcDbAlignedDimension
 13
8273.535729496966
 23
10073.46345960157
 33
0.0
 14
9508.535729496966
 24
9418.463459601571
 34
0.0
100
AcDbRotatedDimension
  0
DIMENSION
  5
23413
330
747D
100
AcDbEntity
  8
寸法
 48
50.0
100
AcDbDimension
  2
*D11
 10
9508.535729496966
 20
10705.72660933175
 30
0.0
 11
10123.53572949696
 21
10805.74137311127
 31
0.0
 70
    32
 71
     5
 42
1230.0
  3
INABA_S50G
100
AcDbAlignedDimension
 13
10738.53572949696
 23
10153.46345960157
 33
0.0
 14
9508.535729496966
 24
9418.463459601571
 34
0.0
100
AcDbRotatedDimension
1001
ACAD
1000
DSTYLE
1002
{
1070
   279
1070
     2
1002
}
  0
MTEXT
  5
23414
102
{ACAD_REACTORS
330
23415
102
}
330
747D
100
AcDbEntity
  8
部品1
 62
     7
 48
50.0
100
AcDbMText
 10
9224.743115684168
 20
10450.98420934031
 30
0.0
 40
150.0
 41
0.0
 71
     6
 72
     1
  1
\A1;床下換気口
  7
STYLE1
 73
     1
 44
1.0
1001
ACAD
1000
MTEXTBEGIN
1070
    73
1070
     1
1070
    44
1040
1.0
1070
    74
1070
     0
1000
MTEXTEND
  0
LEADER
  5
23415
330
747D
100
AcDbEntity
  8
寸法
 48
50.0
100
AcDbLeader
  3
INABA_S50G
 73
     0
 75
     1
 40
150.0
 41
900.0000000000001
 76
     3
 10
9476.894934333865
 20
10073.46345960157
 30
0.0
 10
9374.743115684166
 20
10350.98420934031
 30
0.0
 10
9249.743115684166
 20
10350.98420934031
 30
0.0
340
23414
1001
ACAD
1000
DSTYLE
1002
{
1070
   341
1005
0
1070
    40
1040
1.0
1070
   343
1005
0
1070
   344
1005
0
1002
}
  0
LINE
  5
23416
330
747D
100
AcDbEntity
  8
センター
 48
5.0
100
AcDbLine
 10
8943.035729496966
 20
9128.463459601569
 30
0.0
 11
8943.035729496966
 21
9418.46345960157
 31
0.0
  0
LINE
  5
23419
330
747D
100
AcDbEntity
  8
細線
 48
50.0
100
AcDbLine
 10
8323.451862494014
 20
8738.46345960157
 30
0.0
 11
8393.535729496965
 21
8808.547326604521
 31
0.0
  0
LINE
  5
2341A
330
747D
100
AcDbEntity
  8
細線
 48
50.0
100
AcDbLine
 10
8278.550581888667
 20
8738.46345960157
 30
0.0
 11
8393.535729496965
 21
8853.44860720987
 31
0.0
  0
LINE
  5
2341B
330
747D
100
AcDbEntity
  8
細線
 48
50.0
100
AcDbLine
 10
8368.35314309936
 20
8738.46345960157
 30
0.0
 11
8393.535729496965
 21
8763.646045999193
 31
0.0
  0
LINE
  5
2341C
330
747D
100
AcDbEntity
  8
部品1
 48
50.0
100
AcDbLine
 10
8393.535729496965
 20
8738.46345960157
 30
0.0
 11
8273.535729496961
 21
8738.46345960157
 31
0.0
  0
LINE
  5
2341D
330
747D
100
AcDbEntity
  8
部品1
 48
50.0
100
AcDbLine
 10
8393.535729496965
 20
8938.463459601569
 30
0.0
 11
8273.535729496961
 21
8938.463459601569
 31
0.0
  0
LINE
  5
2341E
330
747D
100
AcDbEntity
  8
細線
 48
50.0
100
AcDbLine
 10
8273.535729496961
 20
8778.349887815208
 30
0.0
 11
8393.535729496965
 21
8898.349887815218
 31
0.0
  0
LINE
  5
2341F
330
747D
100
AcDbEntity
  8
細線
 48
50.0
100
AcDbLine
 10
8273.535729496961
 20
8868.152449025904
 30
0.0
 11
8343.846740072629
 21
8938.463459601569
 31
0.0
  0
LINE
  5
23420
330
747D
100
AcDbEntity
  8
細線
 48
50.0
100
AcDbLine
 10
8273.535729496961
 20
8913.053729631247
 30
0.0
 11
8298.945459467287
 21
8938.463459601573
 31
0.0
  0
LINE
  5
23421
330
747D
100
AcDbEntity
  8
細線
 48
50.0
100
AcDbLine
 10
8273.535729496961
 20
8823.251168420553
 30
0.0
 11
8388.748020677978
 21
8938.463459601569
 31
0.0
  0
LINE
  5
23422
330
747D
100
AcDbEntity
  8
センター
 48
5.0
100
AcDbLine
 10
8943.035729496966
 20
8983.463459601569
 30
0.0
 11
8943.035729496966
 21
8693.463459601572
 31
0.0
  0
LINE
  5
23428
330
747D
100
AcDbEntity
  8
センター
 48
5.0
100
AcDbLine
 10
8798.035729496964
 20
8403.463459601567
 30
0.0
 11
9088.035729496965
 21
8403.463459601567
 31
0.0
  0
LINE
  5
23460
330
747D
100
AcDbEntity
  8
センター
 48
5.0
100
AcDbLine
 10
8943.035729496966
 20
8548.463459601569
 30
0.0
 11
8943.035729496966
 21
8258.463459601568
 31
0.0
  0
LINE
  5
234C4
330
747D
100
AcDbEntity
  8
センター
 48
5.0
100
AcDbLine
 10
8798.035729496964
 20
9273.46345960157
 30
0.0
 11
9088.035729496965
 21
9273.46345960157
 31
0.0
  0
LINE
  5
234C7
330
747D
100
AcDbEntity
  8
センター
 48
5.0
100
AcDbLine
 10
9088.035729496965
 20
8838.463459601571
 30
0.0
 11
8798.035729496964
 21
8838.463459601571
 31
0.0
  0
LINE
  5
2356A
330
747D
100
AcDbEntity
  8
センター
 48
5.0
100
AcDbLine
 10
8338.535729496966
 20
10153.46345960157
 30
0.0
 11
8338.535729496966
 21
9863.463459601572
 31
0.0
  0
LINE
  5
2356B
330
747D
100
AcDbEntity
  8
センター
 48
5.0
100
AcDbLine
 10
8483.535729496965
 20
10008.46345960157
 30
0.0
 11
8193.535729496964
 21
10008.46345960157
 31
0.0
  0
LINE
  5
2356C
330
747D
100
AcDbEntity
  8
細線
 48
10.0
100
AcDbLine
 10
8893.03572949697
 20
9808.463459601572
 30
0.0
 11
8993.03572949697
 21
9808.463459601568
 31
0.0
  0
LINE
  5
2356D
330
747D
100
AcDbEntity
  8
細線
 48
10.0
100
AcDbLine
 10
8993.03572949697
 20
9608.463459601573
 30
0.0
 11
8893.03572949697
 21
9608.463459601573
 31
0.0
  0
LINE
  5
2356E
330
747D
100
AcDbEntity
  8
センター
 48
5.0
100
AcDbLine
 10
9088.035729496967
 20
9708.463459601572
 30
0.0
 11
8798.035729496968
 21
9708.463459601572
 31
0.0
  0
LINE
  5
2359B
330
747D
100
AcDbEntity
  8
センター
 48
5.0
100
AcDbLine
 10
8943.035729496967
 20
9853.463459601572
 30
0.0
 11
8943.035729496967
 21
9563.463459601571
 31
0.0
  0
DIMENSION
  5
235E9
330
747D
100
AcDbEntity
  8
寸法
 48
50.0
100
AcDbDimension
  2
*D12
 10
12299.01561393818
 20
9273.463459601568
 30
0.0
 11
12199.01561393818
 21
9673.46345960157
 31
0.0
 70
    32
 71
     5
 42
800.0000000000017
  3
INABA_S50G
100
AcDbAlignedDimension
 13
12382.22614914399
 23
10073.46345960157
 33
0.0
 14
12113.53572949696
 24
9273.46345960157
 34
0.0
 50
90.0
100
AcDbRotatedDimension
  0
LINE
  5
235ED
330
747D
100
AcDbEntity
  8
センター
 48
5.0
100
AcDbLine
 10
10738.53572949696
 20
9418.46345960157
 30
0.0
 11
10738.53572949696
 21
9128.463459601569
 31
0.0
  0
LINE
  5
235F1
330
747D
100
AcDbEntity
  8
センター
 48
5.0
100
AcDbLine
 10
9508.535729496966
 20
9418.463459601571
 30
0.0
 11
9508.535729496966
 21
9128.463459601572
 31
0.0
  0
DIMENSION
  5
235FB
330
747D
100
AcDbEntity
  8
寸法
 48
50.0
100
AcDbDimension
  2
*D13
 10
12299.01561393818
 20
8403.463459601567
 30
0.0
 11
12199.01561393818
 21
8838.463459601571
 31
0.0
 70
    32
 71
     5
 42
870.0
  3
INABA_S50G
100
AcDbAlignedDimension
 13
12113.53572949696
 23
9273.46345960157
 33
0.0
 14
12113.53572949696
 24
8403.463459601569
 34
0.0
 50
90.0
100
AcDbRotatedDimension
  0
LINE
  5
235FF
330
747D
100
AcDbEntity
  8
センター
 48
5.0
100
AcDbLine
 10
9508.535729496966
 20
8548.46345960157
 30
0.0
 11
9508.535729496966
 21
8258.463459601571
 31
0.0
  0
LINE
  5
23601
330
747D
100
AcDbEntity
  8
センター
 48
5.0
100
AcDbLine
 10
9653.535729496965
 20
8403.463459601573
 30
0.0
 11
9363.535729496964
 21
8403.463459601573
 31
0.0
  0
LINE
  5
23685
330
747D
100
AcDbEntity
  8
センター
 48
5.0
100
AcDbLine
 10
9653.535729496965
 20
9273.46345960157
 30
0.0
 11
9363.535729496964
 21
9273.46345960157
 31
0.0
  0
LINE
  5
2372D
330
747D
100
AcDbEntity
  8
センター
 48
5.0
100
AcDbLine
 10
10738.53572949696
 20
8548.46345960157
 30
0.0
 11
10738.53572949696
 21
8258.463459601571
 31
0.0
  0
LINE
  5
2372E
330
747D
100
AcDbEntity
  8
センター
 48
5.0
100
AcDbLine
 10
10883.53572949696
 20
8403.463459601573
 30
0.0
 11
10593.53572949696
 21
8403.463459601573
 31
0.0
  0
LINE
  5
2374C
330
747D
100
AcDbEntity
  8
センター
 48
5.0
100
AcDbLine
 10
10883.53572949696
 20
9273.46345960157
 30
0.0
 11
10593.53572949696
 21
9273.46345960157
 31
0.0
  0
LINE
  5
237B6
330
747D
100
AcDbEntity
  8
細線
 48
50.0
100
AcDbLine
 10
9426.512163728288
 20
9953.463459601573
 30
0.0
 11
9546.512163728284
 21
10073.46345960157
 31
0.0
  0
LINE
  5
237B7
330
747D
100
AcDbEntity
  8
細線
 48
50.0
100
AcDbLine
 10
9516.314724938983
 20
9953.463459601575
 30
0.0
 11
9608.535729496965
 21
10045.68446415956
 31
0.0
  0
LINE
  5
237B8
330
747D
100
AcDbEntity
  8
細線
 48
50.0
100
AcDbLine
 10
9471.413444333638
 20
9953.463459601575
 30
0.0
 11
9591.41344433363
 21
10073.46345960157
 31
0.0
  0
LINE
  5
237B9
330
747D
100
AcDbEntity
  8
細線
 48
50.0
100
AcDbLine
 10
9408.53572949697
 20
9980.388305975601
 30
0.0
 11
9501.610883122941
 21
10073.46345960157
 31
0.0
  0
LINE
  5
237BA
330
747D
100
AcDbEntity
  8
細線
 48
50.0
100
AcDbLine
 10
9408.535729496966
 20
10025.28958658094
 30
0.0
 11
9456.709602517593
 21
10073.46345960157
 31
0.0
  0
LINE
  5
237BB
330
747D
100
AcDbEntity
  8
部品1
 48
50.0
100
AcDbLine
 10
9408.535729496966
 20
9953.463459601573
 30
0.0
 11
9408.535729496966
 21
10073.46345960157
 31
0.0
  0
LINE
  5
237BC
330
747D
100
AcDbEntity
  8
細線
 48
50.0
100
AcDbLine
 10
9408.535729496966
 20
10070.19086718629
 30
0.0
 11
9411.808321912245
 21
10073.46345960157
 31
0.0
  0
LINE
  5
237BD
330
747D
100
AcDbEntity
  8
細線
 48
50.0
100
AcDbLine
 10
9561.216005544329
 20
9953.463459601573
 30
0.0
 11
9608.535729496965
 21
10000.78318355421
 31
0.0
  0
LINE
  5
237BE
330
747D
100
AcDbEntity
  8
部品1
 48
50.0
100
AcDbLine
 10
9608.535729496965
 20
9953.463459601573
 30
0.0
 11
9608.535729496965
 21
10073.46345960157
 31
0.0
  0
LINE
  5
237BF
330
747D
100
AcDbEntity
  8
センター
 48
5.0
100
AcDbLine
 10
10738.53572949696
 20
10153.46345960157
 30
0.0
 11
10738.53572949696
 21
9863.463459601572
 31
0.0
  0
LINE
  5
237D8
330
747D
100
AcDbEntity
  8
センター
 48
5.0
100
AcDbLine
 10
10593.53572949696
 20
10008.46345960157
 30
0.0
 11
10883.53572949696
 21
10008.46345960157
 31
0.0
  0
LINE
  5
237D9
330
747D
100
AcDbEntity
  8
部品1
 48
50.0
100
AcDbLine
 10
13203.53572949696
 20
7603.463459601567
 30
0.0
 11
13203.53572949696
 21
10073.46345960157
 31
0.0
  0
LINE
  5
237DA
330
747D
100
AcDbEntity
  8
想像線
 48
20.0
100
AcDbLine
 10
13253.53572949696
 20
7473.463459601569
 30
0.0
 11
13253.53572949696
 21
10163.46345960156
 31
0.0
  0
LINE
  5
237DB
330
747D
100
AcDbEntity
  8
部品1
 48
50.0
100
AcDbLine
 10
13083.53572949696
 20
7723.463459601567
 30
0.0
 11
13083.53572949696
 21
9953.463459601575
 31
0.0
  0
DIMENSION
  5
237DC
330
747D
100
AcDbEntity
  8
寸法
 48
50.0
100
AcDbDimension
  2
*D14
 10
14054.53572949696
 20
10073.46345960157
 30
0.0
 11
13954.52096571743
 21
8838.463459601573
 31
0.0
 70
    32
 71
     5
 42
2470.000000000003
  3
INABA_S50G
100
AcDbAlignedDimension
 13
13203.53572949696
 23
7603.463459601569
 33
0.0
 14
13203.53572949696
 24
10073.46345960157
 34
0.0
 50
90.0
100
AcDbRotatedDimension
  0
DIMENSION
  5
237DD
330
747D
100
AcDbEntity
  8
寸法
 48
50.0
100
AcDbDimension
  2
*D15
 10
13733.60395366103
 20
7668.46345960157
 30
0.0
 11
13633.5891898815
 21
8838.463459601573
 31
0.0
 70
    32
 71
     5
 42
2340.000000000003
  3
INABA_S50G
100
AcDbAlignedDimension
 13
13283.53572949696
 23
10008.46345960157
 33
0.0
 14
13283.53572949696
 24
7668.46345960157
 34
0.0
 50
90.0
100
AcDbRotatedDimension
1001
ACAD
1000
DSTYLE
1002
{
1070
    75
1070
     1
1070
   279
1070
     1
1002
}
  0
LINE
  5
23804
330
747D
100
AcDbEntity
  8
センター
 48
5.0
100
AcDbLine
 10
11403.53572949696
 20
8113.46345960157
 30
0.0
 11
11403.53572949696
 21
7823.463459601571
 31
0.0
  0
LINE
  5
2383C
330
747D
100
AcDbEntity
  8
細線
 48
50.0
100
AcDbLine
 10
11951.41344433363
 20
7603.463459601569
 30
0.0
 11
12068.53572949696
 21
7720.585744764908
 31
0.0
  0
LINE
  5
2383D
330
747D
100
AcDbEntity
  8
細線
 48
50.0
100
AcDbLine
 10
11906.51216372828
 20
7603.463459601569
 30
0.0
 11
12026.51216372828
 21
7723.463459601567
 31
0.0
  0
LINE
  5
2383E
330
747D
100
AcDbEntity
  8
細線
 48
50.0
100
AcDbLine
 10
11868.53572949696
 20
7700.190867186289
 30
0.0
 11
11891.80832191227
 21
7723.463459601568
 31
0.0
  0
LINE
  5
2383F
330
747D
100
AcDbEntity
  8
部品1
 48
50.0
100
AcDbLine
 10
11868.53572949696
 20
7603.463459601569
 30
0.0
 11
11868.53572949696
 21
7723.463459601567
 31
0.0
  0
LINE
  5
23840
330
747D
100
AcDbEntity
  8
細線
 48
50.0
100
AcDbLine
 10
11868.53572949696
 20
7655.289586580939
 30
0.0
 11
11936.70960251759
 21
7723.463459601568
 31
0.0
  0
LINE
  5
23841
330
747D
100
AcDbEntity
  8
細線
 48
50.0
100
AcDbLine
 10
11868.53572949697
 20
7610.388305975599
 30
0.0
 11
11981.61088312294
 21
7723.463459601569
 31
0.0
  0
LINE
  5
23842
330
747D
100
AcDbEntity
  8
細線
 48
50.0
100
AcDbLine
 10
11996.31472493897
 20
7603.463459601569
 30
0.0
 11
12068.53572949696
 21
7675.684464159558
 31
0.0
  0
LINE
  5
23843
330
747D
100
AcDbEntity
  8
細線
 48
50.0
100
AcDbLine
 10
12041.21600554432
 20
7603.463459601567
 30
0.0
 11
12068.53572949696
 21
7630.783183554214
 31
0.0
  0
DIMENSION
  5
23886
330
747D
100
AcDbEntity
  8
寸法
 48
50.0
100
AcDbDimension
  2
*D16
 10
13203.53572949696
 20
6618.425082402864
 30
0.0
 11
13443.63052019114
 21
6618.425082402864
 31
0.0
 70
   160
 71
     5
 42
65.00000000000182
  3
INABA_S50G
100
AcDbAlignedDimension
 13
13138.53572949696
 23
7523.463459601569
 33
0.0
 14
13203.53572949696
 24
7538.463459601583
 34
0.0
100
AcDbRotatedDimension
1001
ACAD
1000
DSTYLE
1002
{
1002
}
  0
DIMENSION
  5
23887
330
747D
100
AcDbEntity
  8
寸法
 48
50.0
100
AcDbDimension
  2
*D17
 10
14054.53572949697
 20
7473.463459601569
 30
0.0
 11
14054.53572949696
 21
7142.522514719681
 31
0.0
 70
   160
  1
(<>)
 71
     5
 42
130.0
  3
INABA_S50G
100
AcDbAlignedDimension
 13
13203.53572949696
 23
7603.463459601569
 33
0.0
 14
13733.60395366103
 24
7473.463459601569
 34
0.0
 50
90.0
100
AcDbRotatedDimension
  0
DIMENSION
  5
23888
330
747D
100
AcDbEntity
  8
寸法
 48
50.0
100
AcDbDimension
  2
*D18
 10
13253.53572949696
 20
6329.129667075569
 30
0.0
 11
13670.97667437885
 21
6329.129667075569
 31
0.0
 70
   160
  1
(<>)
 71
     5
 42
49.99999999999818
  3
INABA_S50G
100
AcDbAlignedDimension
 13
13203.53572949696
 23
7538.463459601579
 33
0.0
 14
13253.53572949696
 24
6618.425082402864
 34
0.0
100
AcDbRotatedDimension
  0
DIMENSION
  5
23889
330
747D
100
AcDbEntity
  8
寸法
 48
50.0
100
AcDbDimension
  2
*D19
 10
13733.60395366103
 20
7603.463459601569
 30
0.0
 11
13733.60395366103
 21
7363.368668907392
 31
0.0
 70
   160
 71
     5
 42
65.0
  3
INABA_S50G
100
AcDbAlignedDimension
 13
13283.53572949696
 23
7668.46345960157
 33
0.0
 14
13203.53572949696
 24
7603.463459601569
 34
0.0
 50
90.0
100
AcDbRotatedDimension
1001
ACAD
1000
DSTYLE
1002
{
1002
}
  0
LINE
  5
2388A
330
747D
100
AcDbEntity
  8
センター
 48
5.0
100
AcDbLine
 10
13138.53572949696
 20
7523.463459601569
 30
0.0
 11
13138.53572949696
 21
7813.46345960157
 31
0.0
  0
LINE
  5
2388B
330
747D
100
AcDbEntity
  8
センター
 48
5.0
100
AcDbLine
 10
12993.53572949696
 20
7668.46345960157
 30
0.0
 11
13283.53572949696
 21
7668.46345960157
 31
0.0
  0
LEADER
  5
2389E
330
747D
100
AcDbEntity
  8
寸法
 48
50.0
100
AcDbLeader
  3
INABA_S50G
 71
     0
 73
     0
 74
     0
 75
     1
 40
150.0
 41
1417.499999999999
 76
     3
 10
13138.53572949696
 20
10008.46345960157
 30
0.0
 10
13430.49217685844
 20
10757.96869598126
 30
0.0
 10
13555.49217685844
 20
10757.96869598126
 30
0.0
340
2389F
  0
MTEXT
  5
2389F
102
{ACAD_REACTORS
330
2389E
102
}
330
747D
100
AcDbEntity
  8
細線
 62
     7
 48
50.0
100
AcDbMText
 10
13580.49217685844
 20
10857.96869598126
 30
0.0
 40
150.0
 41
0.0
 71
     4
 72
     1
  1
\A1;アンカーボルト芯
  7
STYLE1
 73
     1
 44
1.0
1001
ACAD
1000
MTEXTBEGIN
1070
    73
1070
     1
1070
    44
1040
1.0
1070
    74
1070
     0
1000
MTEXTEND
  0
DIMENSION
  5
238A0
330
747D
100
AcDbEntity
  8
寸法
 48
50.0
100
AcDbDimension
  2
*D20
 10
14054.53572949697
 20
10163.46345960156
 30
0.0
 11
14054.53572949696
 21
10457.16647927053
 31
0.0
 70
   160
  1
(<>)
 71
     5
 42
89.99999999999635
  3
INABA_S50G
100
AcDbAlignedDimension
 13
13203.53572949696
 23
10073.46345960157
 33
0.0
 14
13733.60395366103
 24
10163.46345960156
 34
0.0
 50
90.0
100
AcDbRotatedDimension
  0
DIMENSION
  5
238A1
330
747D
100
AcDbEntity
  8
寸法
 48
50.0
100
AcDbDimension
  2
*D21
 10
13203.53572949696
 20
10705.72660933175
 30
0.0
 11
12586.03572949696
 21
10805.74137311127
 31
0.0
 70
    32
 71
     5
 42
1235.0
  3
INABA_S50G
100
AcDbAlignedDimension
 13
11968.53572949696
 23
9418.46345960157
 33
0.0
 14
13203.53572949696
 24
10073.46345960157
 34
0.0
100
AcDbRotatedDimension
  0
MTEXT
  5
238A2
102
{ACAD_REACTORS
330
238A6
102
}
330
747D
100
AcDbEntity
  8
部品1
 62
     7
 48
50.0
100
AcDbMText
 10
13142.94810688748
 20
10485.07945583044
 30
0.0
 40
150.0
 41
0.0
 71
     6
 72
     1
  1
\A1;屋根の外寸
  7
STYLE1
 73
     1
 44
1.0
1001
ACAD
1000
MTEXTBEGIN
1070
    73
1070
     1
1070
    44
1040
1.0
1070
    74
1070
     0
1000
MTEXTEND
  0
LEADER
  5
238A6
330
747D
100
AcDbEntity
  8
寸法
 48
50.0
100
AcDbLeader
  3
INABA_S50G
 73
     0
 74
     0
 75
     1
 40
150.0
 41
840.0
 76
     3
 10
12034.54496920545
 20
10163.46345960157
 30
0.0
 10
12152.94810688748
 20
10385.07945583044
 30
0.0
 10
12277.94810688748
 20
10385.07945583044
 30
0.0
340
238A2
1001
ACAD
1000
DSTYLE
1002
{
1070
   341
1005
0
1070
    40
1040
1.0
1070
   343
1005
0
1070
   344
1005
0
1002
}
  0
LINE
  5
238B5
330
747D
100
AcDbEntity
  8
センター
 48
5.0
100
AcDbLine
 10
11968.53572949696
 20
9418.46345960157
 30
0.0
 11
11968.53572949696
 21
9128.463459601569
 31
0.0
  0
LINE
  5
23A04
330
747D
100
AcDbEntity
  8
センター
 48
5.0
100
AcDbLine
 10
11968.53572949696
 20
8548.463459601569
 30
0.0
 11
11968.53572949696
 21
8258.46345960157
 31
0.0
  0
LINE
  5
23A07
330
747D
100
AcDbEntity
  8
センター
 48
5.0
100
AcDbLine
 10
12113.53572949696
 20
8403.463459601569
 30
0.0
 11
11823.53572949696
 21
8403.463459601569
 31
0.0
  0
LINE
  5
23A89
330
747D
100
AcDbEntity
  8
センター
 48
5.0
100
AcDbLine
 10
12113.53572949696
 20
9273.46345960157
 30
0.0
 11
11823.53572949696
 21
9273.46345960157
 31
0.0
  0
DIMENSION
  5
23B10
330
747D
100
AcDbEntity
  8
寸法
 48
50.0
100
AcDbDimension
  2
*D22
 10
11708.46781453294
 20
10073.46345960157
 30
0.0
 11
11708.46781453293
 21
10343.52251471968
 31
0.0
 70
   160
 71
     5
 42
119.9999999999981
  3
INABA_S50G
100
AcDbAlignedDimension
 13
11868.53572949696
 23
9953.463459601573
 33
0.0
 14
11868.53572949696
 24
10073.46345960157
 34
0.0
 50
90.0
100
AcDbRotatedDimension
1001
ACAD
1000
DSTYLE
1002
{
1070
   341
1005
0
1002
}
  0
LINE
  5
23BF5
330
747D
100
AcDbEntity
  8
細線
 48
50.0
100
AcDbLine
 10
11931.41344433363
 20
9953.463459601575
 30
0.0
 11
12051.41344433363
 21
10073.46345960157
 31
0.0
  0
LINE
  5
23BF6
330
747D
100
AcDbEntity
  8
細線
 48
50.0
100
AcDbLine
 10
11976.31472493898
 20
9953.463459601575
 30
0.0
 11
12068.53572949696
 21
10045.68446415956
 31
0.0
  0
LINE
  5
23BF7
330
747D
100
AcDbEntity
  8
細線
 48
50.0
100
AcDbLine
 10
11886.51216372829
 20
9953.463459601573
 30
0.0
 11
12006.51216372828
 21
10073.46345960157
 31
0.0
  0
LINE
  5
23BF8
330
747D
100
AcDbEntity
  8
細線
 48
50.0
100
AcDbLine
 10
11868.53572949696
 20
10070.19086718629
 30
0.0
 11
11871.80832191224
 21
10073.46345960157
 31
0.0
  0
LINE
  5
23BF9
330
747D
100
AcDbEntity
  8
部品1
 48
50.0
100
AcDbLine
 10
11868.53572949696
 20
9953.463459601573
 30
0.0
 11
11868.53572949696
 21
10073.46345960157
 31
0.0
  0
LINE
  5
23BFA
330
747D
100
AcDbEntity
  8
細線
 48
50.0
100
AcDbLine
 10
11868.53572949696
 20
10025.28958658094
 30
0.0
 11
11916.70960251759
 21
10073.46345960157
 31
0.0
  0
LINE
  5
23BFB
330
747D
100
AcDbEntity
  8
細線
 48
50.0
100
AcDbLine
 10
11868.53572949697
 20
9980.388305975601
 30
0.0
 11
11961.61088312294
 21
10073.46345960157
 31
0.0
  0
LINE
  5
23BFC
330
747D
100
AcDbEntity
  8
部品1
 48
50.0
100
AcDbLine
 10
12068.53572949696
 20
9953.463459601573
 30
0.0
 11
12068.53572949696
 21
10073.46345960157
 31
0.0
  0
LINE
  5
23BFD
330
747D
100
AcDbEntity
  8
細線
 48
50.0
100
AcDbLine
 10
12021.21600554433
 20
9953.463459601573
 30
0.0
 11
12068.53572949696
 21
10000.78318355421
 31
0.0
  0
DIMENSION
  5
23BFE
330
747D
100
AcDbEntity
  8
寸法
 48
50.0
100
AcDbDimension
  2
*D23
 10
13203.53572949696
 20
9322.827624803684
 30
0.0
 11
13473.59478461507
 21
9322.827624803684
 31
0.0
 70
   160
 71
     5
 42
120.0000000000018
  3
INABA_S50G
100
AcDbAlignedDimension
 13
13083.53572949696
 23
8938.463459601569
 33
0.0
 14
13203.53572949696
 24
8938.463459601569
 34
0.0
100
AcDbRotatedDimension
1001
ACAD
1000
DSTYLE
1002
{
1070
   341
1005
0
1002
}
  0
LINE
  5
23C00
330
747D
100
AcDbEntity
  8
細線
 48
50.0
100
AcDbLine
 10
13108.55058188866
 20
8738.46345960157
 30
0.0
 11
13203.53572949696
 21
8833.448607209868
 31
0.0
  0
LINE
  5
23C01
330
747D
100
AcDbEntity
  8
細線
 48
50.0
100
AcDbLine
 10
13153.45186249401
 20
8738.46345960157
 30
0.0
 11
13203.53572949696
 21
8788.54732660452
 31
0.0
  0
LINE
  5
23C02
330
747D
100
AcDbEntity
  8
細線
 48
50.0
100
AcDbLine
 10
13083.53572949696
 20
8758.349887815208
 30
0.0
 11
13203.53572949696
 21
8878.349887815215
 31
0.0
  0
LINE
  5
23C1F
330
747D
100
AcDbEntity
  8
部品1
 48
50.0
100
AcDbLine
 10
13203.53572949696
 20
8738.46345960157
 30
0.0
 11
13083.53572949696
 21
8738.463459601566
 31
0.0
  0
LINE
  5
23C20
330
747D
100
AcDbEntity
  8
細線
 48
50.0
100
AcDbLine
 10
13198.35314309936
 20
8738.46345960157
 30
0.0
 11
13203.53572949696
 21
8743.646045999177
 31
0.0
  0
LINE
  5
23C3E
330
747D
100
AcDbEntity
  8
部品1
 48
50.0
100
AcDbLine
 10
13203.53572949696
 20
8938.463459601569
 30
0.0
 11
13083.53572949696
 21
8938.463459601569
 31
0.0
  0
LINE
  5
23C3F
330
747D
100
AcDbEntity
  8
細線
 48
50.0
100
AcDbLine
 10
13083.53572949696
 20
8848.152449025908
 30
0.0
 11
13173.84674007263
 21
8938.463459601569
 31
0.0
  0
LINE
  5
23C40
330
747D
100
AcDbEntity
  8
細線
 48
50.0
100
AcDbLine
 10
13083.53572949696
 20
8893.053729631244
 30
0.0
 11
13128.94545946728
 21
8938.463459601573
 31
0.0
  0
LINE
  5
23C41
330
747D
100
AcDbEntity
  8
細線
 48
50.0
100
AcDbLine
 10
13083.53572949696
 20
8803.251168420556
 30
0.0
 11
13203.53572949696
 21
8923.251168420559
 31
0.0
  0
DIMENSION
  5
23C42
330
747D
100
AcDbEntity
  8
寸法
 48
50.0
100
AcDbDimension
  2
*D24
 10
13733.60395366103
 20
10008.46345960157
 30
0.0
 11
13733.60395366103
 21
10313.55825029575
 31
0.0
 70
   160
 71
     5
 42
65.0
  3
INABA_S50G
100
AcDbAlignedDimension
 13
13203.53572949696
 23
10073.46345960157
 33
0.0
 14
13283.53572949696
 24
10008.46345960157
 34
0.0
 50
90.0
100
AcDbRotatedDimension
  0
LINE
  5
23C43
330
747D
100
AcDbEntity
  8
センター
 48
5.0
100
AcDbLine
 10
13138.53572949696
 20
10153.46345960157
 30
0.0
 11
13138.53572949696
 21
9863.463459601572
 31
0.0
  0
LINE
  5
23C59
330
747D
100
AcDbEntity
  8
センター
 48
5.0
100
AcDbLine
 10
12993.53572949696
 20
10008.46345960157
 30
0.0
 11
13283.53572949696
 21
10008.46345960157
 31
0.0
  0
LINE
  5
25911
330
747D
100
AcDbEntity
  8
部品1
 48
50.0
100
AcDbLine
 10
8922.535729496964
 20
7538.463459601564
 30
0.0
 11
10675.53572949696
 21
7538.463459601574
 31
0.0
  0
DIMENSION
  5
25AEC
330
747D
100
AcDbEntity
  8
寸法
 48
50.0
100
AcDbDimension
  2
*D30
 10
11076.82406921408
 20
7538.463459601574
 30
0.0
 11
11076.82406921408
 21
7021.606857883772
 31
0.0
 70
   160
  1
扉の出<>
 71
     5
 42
64.99999999999545
  3
INABA_S50G
100
AcDbAlignedDimension
 13
10675.53572949696
 23
7603.463459601569
 33
0.0
 14
10675.53572949696
 24
7538.463459601574
 34
0.0
 50
90.0
100
AcDbRotatedDimension
1001
ACAD
1000
DSTYLE
1002
{
1070
   341
1005
0
1002
}
  0
LINE
  5
269B7
330
747D
100
AcDbEntity
  8
部品1
 48
50.0
100
AcDbLine
 10
8922.535729496965
 20
7603.463459601569
 30
0.0
 11
8922.535729496965
 21
7538.46345960157
 31
0.0
  0
LINE
  5
26B26
330
747D
100
AcDbEntity
  8
細線
 48
50.0
100
AcDbLine
 10
12041.21600554431
 20
7603.463459601569
 30
0.0
 11
12068.53572949697
 21
7630.783183554221
 31
0.0
  0
DIMENSION
  5
26B47
330
747D
100
AcDbEntity
  8
寸法
 48
50.0
100
AcDbDimension
  2
*D31
 10
9188.981422390833
 20
7538.46345960157
 30
0.0
 11
9188.981422390829
 21
7265.356857883773
 31
0.0
 70
   160
 71
     5
 42
184.9999999999972
  3
INABA_S50G
100
AcDbAlignedDimension
 13
9360.067047363001
 23
7723.463459601568
 33
0.0
 14
9360.067047363001
 24
7538.46345960157
 34
0.0
 50
90.0
100
AcDbRotatedDimension
1001
ACAD
1000
DSTYLE
1002
{
1070
   341
1005
0
1002
}
  0
DIMENSION
  5
26BBF
330
747D
100
AcDbEntity
  8
寸法
 48
50.0
100
AcDbDimension
  2
*D32
 10
8922.535729496965
 20
6970.193094611452
 30
0.0
 11
9799.035729496964
 21
7070.193094611451
 31
0.0
 70
    32
 71
     5
 42
1752.999999999996
  3
INABA_S50G
100
AcDbAlignedDimension
 13
10675.53572949696
 23
7538.463459601574
 33
0.0
 14
8922.535729496965
 24
7538.463459601579
 34
0.0
100
AcDbRotatedDimension
1001
ACAD
1000
DSTYLE
1002
{
1070
   341
1005
0
1002
}
  0
LINE
  5
26E07
330
747D
100
AcDbEntity
  8
センター
 48
5.0
100
AcDbLine
 10
10073.53572949696
 20
9853.463459601572
 30
0.0
 11
10073.53572949696
 21
9563.463459601571
 31
0.0
  0
LINE
  5
26E08
330
747D
100
AcDbEntity
  8
センター
 48
5.0
100
AcDbLine
 10
10218.53572949696
 20
9708.463459601572
 30
0.0
 11
9928.535729496967
 21
9708.463459601572
 31
0.0
  0
LINE
  5
26E09
330
747D
100
AcDbEntity
  8
センター
 48
5.0
100
AcDbLine
 10
10218.53572949696
 20
8838.463459601571
 30
0.0
 11
9928.535729496966
 21
8838.463459601571
 31
0.0
  0
LINE
  5
26E0A
330
747D
100
AcDbEntity
  8
センター
 48
5.0
100
AcDbLine
 10
9928.535729496966
 20
9273.46345960157
 30
0.0
 11
10218.53572949696
 21
9273.46345960157
 31
0.0
  0
LINE
  5
26E0B
330
747D
100
AcDbEntity
  8
センター
 48
5.0
100
AcDbLine
 10
9928.535729496966
 20
8403.463459601567
 30
0.0
 11
10218.53572949696
 21
8403.463459601567
 31
0.0
  0
LINE
  5
26E0C
330
747D
100
AcDbEntity
  8
センター
 48
5.0
100
AcDbLine
 10
10218.53572949696
 20
7968.463459601569
 30
0.0
 11
9928.535729496967
 21
7968.463459601569
 31
0.0
  0
LINE
  5
26E11
330
747D
100
AcDbEntity
  8
センター
 48
5.0
100
AcDbLine
 10
10073.53572949696
 20
8113.46345960157
 30
0.0
 11
10073.53572949696
 21
7823.463459601571
 31
0.0
  0
LINE
  5
26E2E
330
747D
100
AcDbEntity
  8
センター
 48
5.0
100
AcDbLine
 10
10073.53572949696
 20
8548.463459601569
 30
0.0
 11
10073.53572949696
 21
8258.463459601568
 31
0.0
  0
LINE
  5
26E88
330
747D
100
AcDbEntity
  8
センター
 48
5.0
100
AcDbLine
 10
10073.53572949696
 20
9128.463459601569
 30
0.0
 11
10073.53572949696
 21
9418.46345960157
 31
0.0
  0
LINE
  5
26E8B
330
747D
100
AcDbEntity
  8
センター
 48
5.0
100
AcDbLine
 10
10073.53572949696
 20
8983.463459601569
 30
0.0
 11
10073.53572949696
 21
8693.463459601572
 31
0.0
  0
LINE
  5
2705F
330
747D
100
AcDbEntity
  8
センター
 48
5.0
100
AcDbLine
 10
11403.53572949696
 20
9853.463459601572
 30
0.0
 11
11403.53572949696
 21
9563.463459601571
 31
0.0
  0
LINE
  5
27060
330
747D
100
AcDbEntity
  8
センター
 48
5.0
100
AcDbLine
 10
11548.53572949696
 20
9708.463459601572
 30
0.0
 11
11258.53572949697
 21
9708.463459601572
 31
0.0
  0
LINE
  5
27061
330
747D
100
AcDbEntity
  8
センター
 48
5.0
100
AcDbLine
 10
11548.53572949696
 20
8838.463459601571
 30
0.0
 11
11258.53572949696
 21
8838.463459601571
 31
0.0
  0
LINE
  5
27062
330
747D
100
AcDbEntity
  8
センター
 48
5.0
100
AcDbLine
 10
11258.53572949696
 20
9273.46345960157
 30
0.0
 11
11548.53572949696
 21
9273.46345960157
 31
0.0
  0
LINE
  5
27063
330
747D
100
AcDbEntity
  8
センター
 48
5.0
100
AcDbLine
 10
11258.53572949696
 20
8403.463459601567
 30
0.0
 11
11548.53572949696
 21
8403.463459601567
 31
0.0
  0
LINE
  5
27064
330
747D
100
AcDbEntity
  8
センター
 48
5.0
100
AcDbLine
 10
11548.53572949696
 20
7968.463459601569
 30
0.0
 11
11258.53572949697
 21
7968.463459601569
 31
0.0
  0
LINE
  5
27069
330
747D
100
AcDbEntity
  8
センター
 48
5.0
100
AcDbLine
 10
11403.53572949696
 20
8113.46345960157
 30
0.0
 11
11403.53572949696
 21
7823.463459601571
 31
0.0
  0
LINE
  5
27086
330
747D
100
AcDbEntity
  8
センター
 48
5.0
100
AcDbLine
 10
11403.53572949696
 20
8548.463459601569
 30
0.0
 11
11403.53572949696
 21
8258.463459601568
 31
0.0
  0
LINE
  5
270E0
330
747D
100
AcDbEntity
  8
センター
 48
5.0
100
AcDbLine
 10
11403.53572949696
 20
9128.463459601569
 30
0.0
 11
11403.53572949696
 21
9418.46345960157
 31
0.0
  0
LINE
  5
270E3
330
747D
100
AcDbEntity
  8
センター
 48
5.0
100
AcDbLine
 10
11403.53572949696
 20
8983.463459601569
 30
0.0
 11
11403.53572949696
 21
8693.463459601572
 31
0.0
  0
LINE
  5
272B7
330
747D
100
AcDbEntity
  8
センター
 48
5.0
100
AcDbLine
 10
12534.03572949697
 20
9853.463459601572
 30
0.0
 11
12534.03572949697
 21
9563.463459601571
 31
0.0
  0
LINE
  5
272B8
330
747D
100
AcDbEntity
  8
センター
 48
5.0
100
AcDbLine
 10
12679.03572949697
 20
9708.463459601572
 30
0.0
 11
12389.03572949697
 21
9708.463459601572
 31
0.0
  0
LINE
  5
272B9
330
747D
100
AcDbEntity
  8
センター
 48
5.0
100
AcDbLine
 10
12679.03572949696
 20
8838.463459601571
 30
0.0
 11
12389.03572949696
 21
8838.463459601571
 31
0.0
  0
LINE
  5
272BA
330
747D
100
AcDbEntity
  8
センター
 48
5.0
100
AcDbLine
 10
12389.03572949696
 20
9273.46345960157
 30
0.0
 11
12679.03572949696
 21
9273.46345960157
 31
0.0
  0
LINE
  5
272BB
330
747D
100
AcDbEntity
  8
センター
 48
5.0
100
AcDbLine
 10
12389.03572949696
 20
8403.463459601567
 30
0.0
 11
12679.03572949696
 21
8403.463459601567
 31
0.0
  0
LINE
  5
272BC
330
747D
100
AcDbEntity
  8
センター
 48
5.0
100
AcDbLine
 10
12679.03572949697
 20
7968.463459601569
 30
0.0
 11
12389.03572949697
 21
7968.463459601569
 31
0.0
  0
LINE
  5
272C1
330
747D
100
AcDbEntity
  8
センター
 48
5.0
100
AcDbLine
 10
12534.03572949697
 20
8113.46345960157
 30
0.0
 11
12534.03572949697
 21
7823.463459601571
 31
0.0
  0
LINE
  5
272DE
330
747D
100
AcDbEntity
  8
センター
 48
5.0
100
AcDbLine
 10
12534.03572949696
 20
8548.463459601569
 30
0.0
 11
12534.03572949696
 21
8258.463459601568
 31
0.0
  0
LINE
  5
27338
330
747D
100
AcDbEntity
  8
センター
 48
5.0
100
AcDbLine
 10
12534.03572949696
 20
9128.463459601569
 30
0.0
 11
12534.03572949696
 21
9418.46345960157
 31
0.0
  0
LINE
  5
2733B
330
747D
100
AcDbEntity
  8
センター
 48
5.0
100
AcDbLine
 10
12534.03572949696
 20
8983.463459601569
 30
0.0
 11
12534.03572949696
 21
8693.463459601572
 31
0.0
  0
LINE
  5
273B4
330
747D
100
AcDbEntity
  8
細線
 48
10.0
100
AcDbLine
 10
12584.03572949697
 20
9473.463459601569
 30
0.0
 11
12484.03572949696
 21
9473.463459601569
 31
0.0
  0
LINE
  5
27417
330
747D
100
AcDbEntity
  8
部品1
 48
50.0
100
AcDbLine
 10
10675.53572949696
 20
7538.463459601574
 30
0.0
 11
10675.53572949696
 21
7603.46345960157
 31
0.0
  0
LINE
  5
274E5
330
747D
100
AcDbEntity
  8
部品1
 48
50.0
100
AcDbLine
 10
10675.53572949696
 20
7603.463459601569
 30
0.0
 11
13203.53572949696
 21
7603.463459601569
 31
0.0
  0
LINE
  5
27575
330
747D
100
AcDbEntity
  8
部品1
 48
50.0
100
AcDbLine
 10
12068.53572949696
 20
7603.463459601569
 30
0.0
 11
12068.53572949696
 21
7723.463459601567
 31
0.0
  0
DIMENSION
  5
27741
330
747D
100
AcDbEntity
  8
寸法
 48
50.0
100
AcDbDimension
  2
*D33
 10
8922.535729496964
 20
6970.193094611452
 30
0.0
 11
8598.035729496965
 21
7070.193094611451
 31
0.0
 70
    32
 71
     5
 42
648.9999999999981
  3
INABA_S50G
100
AcDbAlignedDimension
 13
8273.535729496966
 23
7603.463459601569
 33
0.0
 14
8922.535729496964
 24
7538.463459601564
 34
0.0
100
AcDbRotatedDimension
1001
ACAD
1000
DSTYLE
1002
{
1070
   341
1005
0
1002
}
  0
TEXT
  5
27A67
330
747D
100
AcDbEntity
  8
部品1
 48
50.0
100
AcDbText
 10
9585.863470414444
 20
3707.192171771239
 30
0.0
 40
112.0
  1
基礎詳細図
  7
STYLE2
100
AcDbText
  0
LINE
  5
27A68
330
747D
100
AcDbEntity
  8
細線
 48
50.0
100
AcDbLine
 10
10414.4039740307
 20
3642.105389958173
 30
0.0
 11
9565.114395482771
 21
3642.105389958173
 31
0.0
  0
LINE
  5
27A69
330
747D
100
AcDbEntity
  8
細線
 48
50.0
100
AcDbLine
 10
10414.4039740307
 20
3882.105389958173
 30
0.0
 11
9565.114395482771
 21
3882.105389958173
 31
0.0
  0
ARC
  5
27A6A
330
747D
100
AcDbEntity
  8
部品1
100
AcDbCircle
 10
10194.86088086241
 20
2913.416670518938
 30
0.0
 40
35.0848827120379
100
AcDbArc
 50
68.38687878208739
 51
111.6131212179126
  0
LINE
  5
27A6B
330
747D
100
AcDbEntity
  8
部品1
100
AcDbLine
 10
10082.59165009318
 20
2927.727118528523
 30
0.0
 11
10249.51472701626
 21
2927.727118528523
 31
0.0
  0
LINE
  5
27A6C
330
747D
100
AcDbEntity
  8
細線
100
AcDbLine
 10
10165.93773341519
 20
2889.771375233735
 30
0.0
 11
10221.66772205362
 21
2891.409119931124
 31
0.0
  0
LINE
  5
27A6D
330
747D
100
AcDbEntity
  8
部品1
100
AcDbLine
 10
10171.1685731701
 20
2946.034810836218
 30
0.0
 11
10218.55318855472
 21
2946.034810836214
 31
0.0
  0
LINE
  5
27A6E
330
747D
100
AcDbEntity
  8
部品1
100
AcDbLine
 10
10174.39934240087
 20
2949.265580066986
 30
0.0
 11
10215.32241932395
 21
2949.265580066986
 31
0.0
  0
LINE
  5
27A6F
330
747D
100
AcDbEntity
  8
部品1
100
AcDbLine
 10
10166.86088086241
 20
2927.727118528523
 30
0.0
 11
10222.86088086241
 21
2927.727118528523
 31
0.0
  0
LINE
  5
27A70
330
747D
100
AcDbEntity
  8
部品1
 48
50.0
100
AcDbLine
 10
10208.36088086241
 20
2983.727118528523
 30
0.0
 11
10181.36088086241
 21
2983.727118528523
 31
0.0
  0
LINE
  5
27A71
330
747D
100
AcDbEntity
  8
部品1
100
AcDbLine
 10
10180.89934240087
 20
3045.11173391314
 30
0.0
 11
10211.05318855472
 21
3045.11173391314
 31
0.0
  0
LINE
  5
27A72
330
747D
100
AcDbEntity
  8
細線
 48
50.0
100
AcDbLine
 10
10177.36088086241
 20
2966.79891529825
 30
0.0
 11
10212.56088086241
 21
2957.367103724673
 31
0.0
  0
LINE
  5
27A73
330
747D
100
AcDbEntity
  8
細線
 48
50.0
100
AcDbLine
 10
10177.36088086241
 20
2978.798915298247
 30
0.0
 11
10212.56088086241
 21
2969.367103724671
 31
0.0
  0
ARC
  5
27A74
330
747D
100
AcDbEntity
  8
部品1
 48
50.0
100
AcDbCircle
 10
10171.36088086241
 20
2673.419426220831
 30
0.0
 40
37.0
100
AcDbArc
 50
270.0
 51
0.0
  0
LINE
  5
27A75
330
747D
100
AcDbEntity
  8
部品1
 48
50.0
100
AcDbLine
 10
10051.36088086241
 20
2923.419426220831
 30
0.0
 11
10291.36088086241
 21
2923.419426220831
 31
0.0
  0
LINE
  5
27A76
330
747D
100
AcDbEntity
  8
部品1
 48
50.0
100
AcDbLine
 10
9941.360880862417
 20
1963.419426220831
 30
0.0
 11
10401.36088086241
 21
1963.419426220831
 31
0.0
  0
LINE
  5
27A77
330
747D
100
AcDbEntity
  8
部品1
 48
50.0
100
AcDbLine
 10
9941.360880862417
 20
1983.419426220831
 30
0.0
 11
10401.36088086241
 21
1983.419426220831
 31
0.0
  0
LINE
  5
27A78
330
747D
100
AcDbEntity
  8
部品1
 48
50.0
100
AcDbLine
 10
10571.36088086241
 20
1683.419426220831
 30
0.0
 11
9771.360880862417
 21
1683.419426220831
 31
0.0
  0
LINE
  5
27A79
330
747D
100
AcDbEntity
  8
部品1
 48
50.0
100
AcDbLine
 10
10571.36088086241
 20
1843.419426220831
 30
0.0
 11
9771.360880862417
 21
1843.419426220831
 31
0.0
  0
LINE
  5
27A7A
330
747D
100
AcDbEntity
  8
部品1
 48
50.0
100
AcDbLine
 10
10615.97144712763
 20
1156.011661817656
 30
0.0
 11
9575.201674949395
 21
1156.011661817656
 31
0.0
  0
LINE
  5
27A7B
330
747D
100
AcDbEntity
  8
部品1
 48
50.0
100
AcDbLine
 10
10615.97144712763
 20
996.0116618176561
 30
0.0
 11
9575.201674949395
 21
996.0116618176561
 31
0.0
  0
TEXT
  5
27A7C
330
747D
100
AcDbEntity
  8
部品1
 48
50.0
100
AcDbText
 10
9636.804110087638
 20
1030.003953550153
 30
0.0
 40
96.0
  1
アンカー部詳細
  7
STYLE2
100
AcDbText
  0
LINE
  5
27A7D
330
747D
100
AcDbEntity
  8
細線
 48
50.0
100
AcDbLine
 10
10197.94185546984
 20
1843.419426220831
 30
0.0
 11
10317.94185546984
 21
1963.419426220831
 31
0.0
  0
LINE
  5
27A7E
330
747D
100
AcDbEntity
  8
細線
 48
50.0
100
AcDbLine
 10
10164.26589501583
 20
1843.419426220831
 30
0.0
 11
10284.26589501583
 21
1963.419426220831
 31
0.0
  0
DIMENSION
  5
27A7F
330
747D
100
AcDbEntity
  8
寸法
 48
50.0
100
AcDbDimension
  2
*D34
 10
10252.74549624703
 20
3388.731686170753
 30
0.0
 11
10157.43780393933
 21
3388.731686170753
 31
0.0
 70
   160
  1
88.5
 71
     5
 42
190.6153846153847
  3
INABA_S50GUP
100
AcDbAlignedDimension
 13
10062.13011163164
 23
3028.957887759292
 33
0.0
 14
10252.74549624703
 24
3030.034810836216
 34
0.0
100
AcDbRotatedDimension
1001
ACAD
1000
DSTYLE
1002
{
1070
   140
1040
100.0
1002
}
  0
DIMENSION
  5
27A80
330
747D
100
AcDbEntity
  8
寸法
 48
50.0
100
AcDbDimension
  2
*D35
 10
10194.86088086241
 20
3167.152768118778
 30
0.0
 11
9841.297687066298
 21
3167.152768118778
 31
0.0
 70
   160
  1
65
 71
     5
 42
143.5
  3
INABA_S50GUP
100
AcDbAlignedDimension
 13
10051.36088086241
 23
2923.419426220831
 33
0.0
 14
10194.86088086241
 24
2983.727118528523
 34
0.0
100
AcDbRotatedDimension
1001
ACAD
1000
DSTYLE
1002
{
1070
   140
1040
100.0
1002
}
  0
LINE
  5
27A81
330
747D
100
AcDbEntity
  8
細線
 48
50.0
100
AcDbLine
 10
5928.470846110238
 20
856.4437167174146
 30
0.0
 11
14051.04752340323
 21
856.443716717416
 31
0.0
  0
LINE
  5
27A82
330
747D
100
AcDbEntity
  8
細線
 48
50.0
100
AcDbLine
 10
5928.470846110238
 20
3762.105389958173
 30
0.0
 11
5928.470846110238
 21
856.4437167174142
 31
0.0
  0
DIMENSION
  5
27A83
330
747D
100
AcDbEntity
  8
寸法
 48
50.0
100
AcDbDimension
  2
*D36
 10
7003.936977338004
 20
3247.889706456043
 30
0.0
 11
7123.936977338004
 21
3247.889706456043
 31
0.0
 70
   160
  1
120\P185
 71
     5
 42
240.0
  3
INABA_S50GUP
100
AcDbAlignedDimension
 13
7243.936977338004
 23
2847.889706456042
 33
0.0
 14
7003.936977338004
 24
2847.889706456042
 34
0.0
100
AcDbRotatedDimension
1001
ACAD
1000
DSTYLE
1002
{
1070
   140
1040
100.0
1002
}
  0
DIMENSION
  5
27A84
330
747D
100
AcDbEntity
  8
寸法
 48
50.0
100
AcDbDimension
  2
*D37
 10
9509.975582941743
 20
2923.419426220831
 30
0.0
 11
9509.975582941743
 21
3252.933155273932
 31
0.0
 70
   160
  1
出30
 71
     5
 42
60.30769230769147
  3
INABA_S50GUP
100
AcDbAlignedDimension
 13
10181.36088086241
 23
2983.727118528523
 33
0.0
 14
10051.36088086241
 24
2923.419426220831
 34
0.0
 50
90.0
100
AcDbRotatedDimension
1001
ACAD
1000
DSTYLE
1002
{
1070
   140
1040
100.0
1002
}
  0
LEADER
  5
27A85
330
747D
100
AcDbEntity
  8
寸法
 48
50.0
100
AcDbLeader
  3
INABA_S50G
 71
     0
 73
     0
 40
101.39087296526
 41
174.1421356237309
 76
     2
 10
7123.936977338004
 20
2673.20774319885
 30
0.0
 10
6889.354382934326
 20
2616.86528532367
 30
0.0
340
27A86
  0
MTEXT
  5
27A86
102
{ACAD_REACTORS
330
27A85
102
}
330
747D
100
AcDbEntity
  8
寸法
 62
     7
 48
50.0
100
AcDbMText
 10
6864.354382934326
 20
2692.5607218063
 30
0.0
 40
100.0
 41
0.0
 71
     6
 72
     1
  1
D13
  7
STYLE1
 73
     1
 44
1.0
1001
ACAD
1000
MTEXTBEGIN
1070
    73
1070
     1
1070
    44
1040
1.0
1070
    74
1070
     0
1000
MTEXTEND
  0
LINE
  5
27A87
330
747D
100
AcDbEntity
  8
細線
 48
50.0
100
AcDbLine
 10
6823.936977338006
 20
1946.448138658757
 30
0.0
 11
6945.378545135288
 21
2067.889706456043
 31
0.0
  0
LINE
  5
27A88
330
747D
100
AcDbEntity
  8
部品1
 48
50.0
100
AcDbLine
 10
6893.936977338002
 20
1907.889706456042
 30
0.0
 11
7353.936977338001
 21
1907.889706456042
 31
0.0
  0
LINE
  5
27A89
330
747D
100
AcDbEntity
  8
部品1
 48
50.0
100
AcDbLine
 10
6823.936977338002
 20
2067.889706456043
 30
0.0
 11
7003.936977338002
 21
2067.889706456043
 31
0.0
  0
LEADER
  5
27A8A
330
747D
100
AcDbEntity
  8
寸法
 48
50.0
100
AcDbLeader
  3
INABA_S50G
 71
     0
 73
     0
 75
     1
 40
132.9441738241594
 41
490.0787401574802
 76
     3
 10
7142.494772876013
 20
2545.548724827446
 30
0.0
 10
6919.224142375999
 20
2274.331672294974
 30
0.0
 10
6794.224142375999
 20
2274.331672294974
 30
0.0
340
27A8B
213
-20.50276907354419
223
30.78492082892717
233
0.0
  0
MTEXT
  5
27A8B
102
{ACAD_REACTORS
330
27A8A
102
}
330
747D
100
AcDbEntity
  8
寸法
 62
     7
 48
50.0
100
AcDbMText
 10
6789.726911449543
 20
2335.018838378126
 30
0.0
 40
100.0
 41
0.0
 71
     6
 72
     1
  1
\A1;D10@300
  7
STYLE1
 73
     1
 44
1.0
1001
ACAD
1000
MTEXTBEGIN
1070
    73
1070
     1
1070
    44
1040
1.0
1070
    74
1070
     0
1000
MTEXTEND
  0
LINE
  5
27A8C
330
747D
100
AcDbEntity
  8
Ｇ．Ｌ
 48
50.0
100
AcDbLine
 10
6486.262100046807
 20
2447.889706456042
 30
0.0
 11
7003.936977338002
 21
2447.889706456042
 31
0.0
  0
LEADER
  5
27A8D
330
747D
100
AcDbEntity
  8
寸法
 48
50.0
100
AcDbLeader
  3
INABA_S50G
 71
     0
 73
     0
 75
     1
 40
100.0
 41
585.0000000000001
 76
     3
 10
7103.936977338005
 20
2847.889706456042
 30
0.0
 10
7071.549720941011
 20
3038.534981458596
 30
0.0
 10
6946.549720941011
 20
3038.534981458596
 30
0.0
340
27A8E
  0
MTEXT
  5
27A8E
102
{ACAD_REACTORS
330
27A8D
102
}
330
747D
100
AcDbEntity
  8
寸法
 62
     7
 48
50.0
100
AcDbMText
 10
6921.549720941012
 20
3113.534981458596
 30
0.0
 40
100.0
 41
0.0
 71
     6
 72
     1
  1
\A1;金コテ押エ
  7
STYLE1
 73
     1
 44
1.0
1001
ACAD
1000
MTEXTBEGIN
1070
    73
1070
     1
1070
    44
1040
1.0
1070
    74
1070
     0
1000
MTEXTEND
  0
LINE
  5
27A8F
330
747D
100
AcDbEntity
  8
細線
 48
50.0
100
AcDbLine
 10
6847.434307859344
 20
1767.889706456042
 30
0.0
 11
6967.434307859345
 21
1887.889706456042
 31
0.0
  0
LINE
  5
27A90
330
747D
100
AcDbEntity
  8
部品1
 48
50.0
100
AcDbLine
 10
6893.936977338002
 20
1887.889706456042
 30
0.0
 11
7353.936977338001
 21
1887.889706456042
 31
0.0
  0
LINE
  5
27A91
330
747D
100
AcDbEntity
  8
細線
 48
50.0
100
AcDbLine
 10
6914.786228767363
 20
1767.889706456042
 30
0.0
 11
7034.786228767363
 21
1887.889706456042
 31
0.0
  0
LINE
  5
27A92
330
747D
100
AcDbEntity
  8
細線
 48
50.0
100
AcDbLine
 10
6881.110268313358
 20
1767.889706456042
 30
0.0
 11
7001.110268313357
 21
1887.889706456042
 31
0.0
  0
DIMENSION
  5
27A93
330
747D
100
AcDbEntity
  8
寸法
 48
50.0
100
AcDbDimension
  2
*D38
 10
6149.467609538849
 20
1767.889706456043
 30
0.0
 11
6149.467609538849
 21
2344.684643053753
 31
0.0
 70
   160
  1
540
 71
     5
 42
1080.0
  3
INABA_S50GUP
100
AcDbAlignedDimension
 13
7003.936977338004
 23
2847.889706456042
 33
0.0
 14
6743.936977338005
 24
1767.889706456042
 34
0.0
 50
90.0
100
AcDbRotatedDimension
1001
ACAD
1000
DSTYLE
1002
{
1070
   140
1040
100.0
1002
}
  0
LEADER
  5
27A94
330
747D
100
AcDbEntity
  8
寸法
 48
50.0
100
AcDbLeader
  3
INABA_S50G
 71
     0
 73
     0
 75
     1
 40
101.39087296526
 41
170.0787401574803
 76
     3
 10
6963.682601485439
 20
1917.889706456042
 30
0.0
 10
6726.786315809293
 20
1572.916016669277
 30
0.0
 10
6601.786315809293
 20
1572.916016669277
 30
0.0
340
27A95
  0
MTEXT
  5
27A95
102
{ACAD_REACTORS
330
27A94
102
}
330
747D
100
AcDbEntity
  8
寸法
 62
     7
 48
50.0
100
AcDbMText
 10
6576.786315809293
 20
1648.611453151907
 30
0.0
 40
100.0
 41
0.0
 71
     6
 72
     1
  1
D10
  7
STYLE1
 73
     1
 44
1.0
1001
ACAD
1000
MTEXTBEGIN
1070
    73
1070
     1
1070
    44
1040
1.0
1070
    74
1070
     0
1000
MTEXTEND
  0
DIMENSION
  5
27A96
330
747D
100
AcDbEntity
  8
寸法
 48
50.0
100
AcDbDimension
  2
*D39
 10
7423.936977338005
 20
1308.937600000108
 30
0.0
 11
7123.936977338004
 21
1308.937600000108
 31
0.0
 70
   160
  1
300
 71
     5
 42
600.0
  3
INABA_S50GUP
100
AcDbAlignedDimension
 13
6823.936977338004
 23
1607.889706456042
 33
0.0
 14
7423.936977338005
 24
1607.889706456042
 34
0.0
100
AcDbRotatedDimension
1001
ACAD
1000
DSTYLE
1002
{
1070
   140
1040
100.0
1002
}
  0
LINE
  5
27A97
330
747D
100
AcDbEntity
  8
部品1
 48
50.0
100
AcDbLine
 10
7523.936977338002
 20
1767.889706456042
 30
0.0
 11
6723.936977338002
 21
1767.889706456042
 31
0.0
  0
LINE
  5
27A98
330
747D
100
AcDbEntity
  8
部品1
 48
50.0
100
AcDbLine
 10
7523.936977338002
 20
1607.889706456042
 30
0.0
 11
6723.936977338002
 21
1607.889706456042
 31
0.0
  0
DIMENSION
  5
27A99
330
747D
100
AcDbEntity
  8
寸法
 48
50.0
100
AcDbDimension
  2
*D40
 10
6380.666633006395
 20
1767.889706456043
 30
0.0
 11
6380.666633006395
 21
1942.216300848185
 31
0.0
 70
   160
  1
150
 71
     5
 42
299.9999999999998
  3
INABA_S50GUP
100
AcDbAlignedDimension
 13
6843.936977338003
 23
2067.889706456043
 33
0.0
 14
6743.936977338005
 24
1767.889706456042
 34
0.0
 50
90.0
100
AcDbRotatedDimension
1001
ACAD
1000
DSTYLE
1002
{
1070
   140
1040
100.0
1002
}
  0
LINE
  5
27A9A
330
747D
100
AcDbEntity
  8
部品1
 48
50.0
100
AcDbLine
 10
6823.936977338002
 20
1767.889706456042
 30
0.0
 11
6823.936977338002
 21
2067.889706456043
 31
0.0
  0
LINE
  5
27A9B
330
747D
100
AcDbEntity
  8
細線
 48
50.0
100
AcDbLine
 10
6890.808158254498
 20
1737.889706456042
 30
0.0
 11
6882.769682481565
 21
1767.889706456042
 31
0.0
  0
LINE
  5
27A9C
330
747D
100
AcDbEntity
  8
細線
 48
50.0
100
AcDbLine
 10
6792.198102070436
 20
1737.889706456042
 30
0.0
 11
6784.159626297503
 21
1767.889706456042
 31
0.0
  0
LINE
  5
27A9D
330
747D
100
AcDbEntity
  8
細線
 48
50.0
100
AcDbLine
 10
6757.364707054389
 20
1607.889706456042
 30
0.0
 11
6800.23657784337
 21
1767.889706456042
 31
0.0
  0
LINE
  5
27A9E
330
747D
100
AcDbEntity
  8
細線
 48
50.0
100
AcDbLine
 10
6765.403182827326
 20
1637.889706456042
 30
0.0
 11
6773.441658600259
 21
1607.889706456042
 31
0.0
  0
LINE
  5
27A9F
330
747D
100
AcDbEntity
  8
部品1
 48
50.0
100
AcDbLine
 10
6723.936977338002
 20
1607.889706456042
 30
0.0
 11
6723.936977338002
 21
1767.889706456042
 31
0.0
  0
LINE
  5
27AA0
330
747D
100
AcDbEntity
  8
細線
 48
50.0
100
AcDbLine
 10
6864.013239011386
 20
1637.889706456042
 30
0.0
 11
6872.051714784321
 21
1607.889706456042
 31
0.0
  0
LINE
  5
27AA1
330
747D
100
AcDbEntity
  8
細線
 48
50.0
100
AcDbLine
 10
6855.97476323845
 20
1607.889706456042
 30
0.0
 11
6898.846634027432
 21
1767.889706456042
 31
0.0
  0
LINE
  5
27AA2
330
747D
100
AcDbEntity
  8
細線
 48
50.0
100
AcDbLine
 10
6823.936977338002
 20
2013.800059566777
 30
0.0
 11
6878.02662422727
 21
2067.889706456043
 31
0.0
  0
LINE
  5
27AA3
330
747D
100
AcDbEntity
  8
細線
 48
50.0
100
AcDbLine
 10
6823.936977338002
 20
1980.124099112767
 30
0.0
 11
6911.702584681283
 21
2067.889706456043
 31
0.0
  0
LINE
  5
27AA4
330
747D
100
AcDbEntity
  8
部品1
 48
50.0
100
AcDbLine
 10
6893.936977338002
 20
1887.889706456042
 30
0.0
 11
6893.936977338002
 21
1907.889706456042
 31
0.0
  0
TEXT
  5
27AA5
330
747D
100
AcDbEntity
  8
部品1
 48
50.0
100
AcDbText
 10
6634.610366621181
 20
2457.255533358754
 30
0.0
 40
100.0
  1
G.L
  7
STYLE1
100
AcDbText
  0
LINE
  5
27AA6
330
747D
100
AcDbEntity
  8
部品1
 48
50.0
100
AcDbLine
 10
6632.519011251185
 20
2531.359831304466
 30
0.0
 11
6584.327512200656
 21
2447.889706456042
 31
0.0
  0
LINE
  5
27AA7
330
747D
100
AcDbEntity
  8
部品1
 48
50.0
100
AcDbLine
 10
6536.136013150128
 20
2531.359831304466
 30
0.0
 11
6632.519011251185
 21
2531.359831304466
 31
0.0
  0
LINE
  5
27AA8
330
747D
100
AcDbEntity
  8
部品1
 48
50.0
100
AcDbLine
 10
6536.136013150128
 20
2531.359831304466
 30
0.0
 11
6584.327512200656
 21
2447.889706456042
 31
0.0
  0
LINE
  5
27AA9
330
747D
100
AcDbEntity
  8
細線
100
AcDbLine
 10
8470.618190857235
 20
2547.889706456043
 30
0.0
 11
8770.618190857232
 21
2847.889706456042
 31
0.0
  0
LINE
  5
27AAA
330
747D
100
AcDbEntity
  8
細線
100
AcDbLine
 10
8430.618190857234
 20
2547.889706456043
 30
0.0
 11
8730.618190857233
 21
2847.889706456042
 31
0.0
  0
LEADER
  5
27AAB
330
747D
100
AcDbEntity
  8
寸法
 48
50.0
100
AcDbLeader
  3
INABA_S50G
 71
     0
 73
     0
 74
     0
 75
     1
 40
100.0
 41
154.6599025766975
 76
     3
 10
8508.624558446822
 20
2783.197437042443
 30
0.0
 10
8562.906108930942
 20
3007.237325152178
 30
0.0
 10
8687.906108930942
 20
3007.237325152178
 30
0.0
340
27AAC
  0
MTEXT
  5
27AAC
102
{ACAD_REACTORS
330
27AAB
102
}
330
747D
100
AcDbEntity
  8
寸法
 62
     7
 48
50.0
100
AcDbMText
 10
8712.906108930942
 20
3082.237325152178
 30
0.0
 40
100.0
 41
0.0
 71
     4
 72
     1
  1
C.B
  7
STYLE1
 73
     1
 44
1.0
1001
ACAD
1000
MTEXTBEGIN
1070
    73
1070
     1
1070
    44
1040
1.0
1070
    74
1070
     0
1000
MTEXTEND
  0
LINE
  5
27AAD
330
747D
100
AcDbEntity
  8
細線
 48
50.0
100
AcDbLine
 10
8561.167298060613
 20
2367.889706456043
 30
0.0
 11
8553.12882228768
 21
2397.889706456044
 31
0.0
  0
LINE
  5
27AAE
330
747D
100
AcDbEntity
  8
細線
 48
50.0
100
AcDbLine
 10
8526.333903044568
 20
2237.889706456043
 30
0.0
 11
8569.20577383355
 21
2397.889706456044
 31
0.0
  0
LINE
  5
27AAF
330
747D
100
AcDbEntity
  8
部品1
 48
50.0
100
AcDbLine
 10
8845.805596535807
 20
2847.889706456042
 30
0.0
 11
8065.805596535808
 21
2847.889706456042
 31
0.0
  0
LINE
  5
27AB0
330
747D
100
AcDbEntity
  8
部品1
100
AcDbLine
 10
7820.105650216977
 20
2237.889706456047
 30
0.0
 11
9091.505542854637
 21
2237.889706456047
 31
0.0
  0
LINE
  5
27AB1
330
747D
100
AcDbEntity
  8
部品1
100
AcDbLine
 10
7820.105650216977
 20
2397.889706456044
 30
0.0
 11
9091.505542854637
 21
2397.889706456044
 31
0.0
  0
LINE
  5
27AB2
330
747D
100
AcDbEntity
  8
Ｇ．Ｌ
 48
50.0
100
AcDbLine
 10
7243.936977338002
 20
2547.889706456043
 30
0.0
 11
9272.045936950075
 21
2547.889706456043
 31
0.0
  0
LINE
  5
27AB3
330
747D
100
AcDbEntity
  8
細線
 48
50.0
100
AcDbLine
 10
7153.93697733801
 20
2040.716415480694
 30
0.0
 11
7243.936977338002
 21
2130.716415480689
 31
0.0
  0
LINE
  5
27AB4
330
747D
100
AcDbEntity
  8
細線
 48
50.0
100
AcDbLine
 10
7153.93697733801
 20
2074.392375934704
 30
0.0
 11
7243.936977338002
 21
2164.392375934698
 31
0.0
  0
LINE
  5
27AB5
330
747D
100
AcDbEntity
  8
部品1
 48
50.0
100
AcDbLine
 10
7003.936977338002
 20
2067.889706456043
 30
0.0
 11
7003.936977338002
 21
2847.889706456042
 31
0.0
  0
LINE
  5
27AB6
330
747D
100
AcDbEntity
  8
部品1
 48
50.0
100
AcDbLine
 10
7243.936977338002
 20
2847.889706456042
 30
0.0
 11
7243.936977338002
 21
2067.889706456043
 31
0.0
  0
LINE
  5
27AB7
330
747D
100
AcDbEntity
  8
部品1
 48
50.0
100
AcDbLine
 10
7133.936977338009
 20
1917.889706456042
 30
0.0
 11
7133.936977338002
 21
2673.20774319885
 31
0.0
  0
LINE
  5
27AB8
330
747D
100
AcDbEntity
  8
部品1
 48
50.0
100
AcDbLine
 10
7153.93697733801
 20
1917.889706456042
 30
0.0
 11
7153.936977338002
 21
2673.20774319885
 31
0.0
  0
LEADER
  5
27AB9
330
747D
100
AcDbEntity
  8
寸法
 48
50.0
100
AcDbLeader
  3
INABA_S50G
 71
     0
 73
     0
 74
     0
 75
     1
 40
101.39087296526
 41
170.0787401574803
 76
     3
 10
7283.936977338003
 20
1917.889706456042
 30
0.0
 10
7338.218527822123
 20
2141.234158083148
 30
0.0
 10
7463.218527822123
 20
2141.234158083148
 30
0.0
340
27ABA
  0
MTEXT
  5
27ABA
102
{ACAD_REACTORS
330
27AB9
102
}
330
747D
100
AcDbEntity
  8
寸法
 62
     7
 48
50.0
100
AcDbMText
 10
7488.218527822123
 20
2216.929594565778
 30
0.0
 40
100.0
 41
0.0
 71
     4
 72
     1
  1
D10
  7
STYLE1
 73
     1
 44
1.0
1001
ACAD
1000
MTEXTBEGIN
1070
    73
1070
     1
1070
    44
1040
1.0
1070
    74
1070
     0
1000
MTEXTEND
  0
TEXT
  5
27ABB
330
747D
100
AcDbEntity
  8
部品1
 48
50.0
100
AcDbText
 10
7293.073058535473
 20
1027.219448022328
 30
0.0
 40
96.0
  1
基礎断面
  7
STYLE2
100
AcDbText
  0
LINE
  5
27ABC
330
747D
100
AcDbEntity
  8
部品1
 48
50.0
100
AcDbLine
 10
7890.882557191257
 20
1156.011661817656
 30
0.0
 11
7250.882557191257
 21
1156.011661817656
 31
0.0
  0
LINE
  5
27ABD
330
747D
100
AcDbEntity
  8
部品1
 48
50.0
100
AcDbLine
 10
7890.882557191257
 20
996.0116618176561
 30
0.0
 11
7250.882557191257
 21
996.0116618176561
 31
0.0
  0
MTEXT
  5
27ABE
102
{ACAD_REACTORS
330
27ABF
102
}
330
747D
100
AcDbEntity
  8
寸法
 62
     7
 48
50.0
100
AcDbMText
 10
7631.923943497081
 20
1754.281566988755
 30
0.0
 40
100.0
 41
0.0
 71
     4
 72
     1
  1
\A1;D10@300
  7
STYLE1
 73
     1
 44
1.0
1001
ACAD
1000
MTEXTBEGIN
1070
    73
1070
     1
1070
    44
1040
1.0
1070
    74
1070
     0
1000
MTEXTEND
  0
LEADER
  5
27ABF
330
747D
100
AcDbEntity
  8
寸法
 48
50.0
100
AcDbLeader
  3
INABA_S50G
 71
     0
 73
     0
 74
     0
 75
     1
 40
132.9441738241594
 41
490.0787401574802
 76
     3
 10
7327.930908490504
 20
1899.175313686135
 30
0.0
 10
7481.923943497081
 20
1662.809480076675
 30
0.0
 10
7606.923943497081
 20
1662.809480076675
 30
0.0
340
27ABE
  0
MTEXT
  5
27AC0
102
{ACAD_REACTORS
330
27AC1
102
}
330
747D
100
AcDbEntity
  8
寸法
 62
     7
 48
50.0
100
AcDbMText
 10
7557.340317694303
 20
1525.681317058273
 30
0.0
 40
100.0
 41
0.0
 71
     4
 72
     1
  1
D13
  7
STYLE1
 73
     1
 44
1.0
1001
ACAD
1000
MTEXTBEGIN
1070
    73
1070
     1
1070
    44
1040
1.0
1070
    74
1070
     0
1000
MTEXTEND
  0
LEADER
  5
27AC1
330
747D
100
AcDbEntity
  8
寸法
 48
50.0
100
AcDbLeader
  3
INABA_S50G
 71
     0
 73
     0
 74
     0
 75
     1
 40
101.39087296526
 41
174.1421356237309
 76
     3
 10
7123.936977338004
 20
1917.889706456042
 30
0.0
 10
7407.340317694303
 20
1449.985880575643
 30
0.0
 10
7532.340317694303
 20
1449.985880575643
 30
0.0
340
27AC0
  0
LINE
  5
27AC2
330
747D
100
AcDbEntity
  8
部品1
 48
50.0
100
AcDbLine
 10
7250.882557191257
 20
1156.011661817656
 30
0.0
 11
7250.882557191257
 21
996.0116618176561
 31
0.0
  0
LINE
  5
27AC3
330
747D
100
AcDbEntity
  8
部品1
 48
50.0
100
AcDbLine
 10
7243.936977338002
 20
2067.889706456043
 30
0.0
 11
7423.936977338001
 21
2067.889706456043
 31
0.0
  0
LINE
  5
27AC4
330
747D
100
AcDbEntity
  8
細線
 48
50.0
100
AcDbLine
 10
7324.193912399441
 20
1907.889706456042
 30
0.0
 11
7423.936977338001
 21
2007.632771394604
 31
0.0
  0
LINE
  5
27AC5
330
747D
100
AcDbEntity
  8
細線
 48
50.0
100
AcDbLine
 10
7290.517951945432
 20
1907.889706456042
 30
0.0
 11
7423.936977338001
 21
2041.308731848616
 31
0.0
  0
LINE
  5
27AC6
330
747D
100
AcDbEntity
  8
細線
 48
50.0
100
AcDbLine
 10
7256.841991491416
 20
1907.889706456042
 30
0.0
 11
7416.841991491422
 21
2067.889706456043
 31
0.0
  0
LINE
  5
27AC7
330
747D
100
AcDbEntity
  8
細線
 48
50.0
100
AcDbLine
 10
7150.517951945433
 20
1767.889706456042
 30
0.0
 11
7270.517951945432
 21
1887.889706456042
 31
0.0
  0
LINE
  5
27AC8
330
747D
100
AcDbEntity
  8
細線
 48
50.0
100
AcDbLine
 10
7116.841991491419
 20
1767.889706456042
 30
0.0
 11
7236.84199149142
 21
1887.889706456042
 31
0.0
  0
LINE
  5
27AC9
330
747D
100
AcDbEntity
  8
細線
 48
50.0
100
AcDbLine
 10
7184.193912399438
 20
1767.889706456042
 30
0.0
 11
7304.195022205866
 21
1887.890816262466
 31
0.0
  0
LINE
  5
27ACA
330
747D
100
AcDbEntity
  8
細線
 48
50.0
100
AcDbLine
 10
7088.028270622621
 20
1737.889706456042
 30
0.0
 11
7079.989794849687
 21
1767.889706456042
 31
0.0
  0
LINE
  5
27ACB
330
747D
100
AcDbEntity
  8
細線
 48
50.0
100
AcDbLine
 10
7061.23335137951
 20
1637.889706456042
 30
0.0
 11
7069.271827152443
 21
1607.889706456042
 31
0.0
  0
LINE
  5
27ACC
330
747D
100
AcDbEntity
  8
細線
 48
50.0
100
AcDbLine
 10
7053.194875606571
 20
1607.889706456042
 30
0.0
 11
7096.06674639555
 21
1767.889706456042
 31
0.0
  0
LINE
  5
27ACD
330
747D
100
AcDbEntity
  8
細線
 48
50.0
100
AcDbLine
 10
6989.418214438559
 20
1737.889706456042
 30
0.0
 11
6981.379738665626
 21
1767.889706456042
 31
0.0
  0
LINE
  5
27ACE
330
747D
100
AcDbEntity
  8
細線
 48
50.0
100
AcDbLine
 10
6962.623295195448
 20
1637.889706456042
 30
0.0
 11
6970.661770968381
 21
1607.889706456042
 31
0.0
  0
LINE
  5
27ACF
330
747D
100
AcDbEntity
  8
細線
 48
50.0
100
AcDbLine
 10
6954.584819422511
 20
1607.889706456042
 30
0.0
 11
6997.456690211492
 21
1767.889706456042
 31
0.0
  0
LINE
  5
27AD0
330
747D
100
AcDbEntity
  8
細線
 48
50.0
100
AcDbLine
 10
7285.248382990743
 20
1737.889706456042
 30
0.0
 11
7277.209907217809
 21
1767.889706456042
 31
0.0
  0
LINE
  5
27AD1
330
747D
100
AcDbEntity
  8
細線
 48
50.0
100
AcDbLine
 10
7186.638326806683
 20
1737.889706456042
 30
0.0
 11
7178.599851033749
 21
1767.889706456042
 31
0.0
  0
LINE
  5
27AD2
330
747D
100
AcDbEntity
  8
細線
 48
50.0
100
AcDbLine
 10
7151.804931790633
 20
1607.889706456042
 30
0.0
 11
7194.676802579611
 21
1767.889706456042
 31
0.0
  0
LINE
  5
27AD3
330
747D
100
AcDbEntity
  8
細線
 48
50.0
100
AcDbLine
 10
7159.843407563567
 20
1637.889706456042
 30
0.0
 11
7167.8818833365
 21
1607.889706456042
 31
0.0
  0
LINE
  5
27AD4
330
747D
100
AcDbEntity
  8
細線
 48
50.0
100
AcDbLine
 10
7258.453463747628
 20
1637.889706456042
 30
0.0
 11
7266.491939520562
 21
1607.889706456042
 31
0.0
  0
LINE
  5
27AD5
330
747D
100
AcDbEntity
  8
細線
 48
50.0
100
AcDbLine
 10
7250.414987974695
 20
1607.889706456042
 30
0.0
 11
7293.286858763673
 21
1767.889706456042
 31
0.0
  0
CIRCLE
  5
27AD6
330
747D
100
AcDbEntity
  8
部品1
 48
50.0
100
AcDbCircle
 10
7123.936977338002
 20
1917.889706456042
 30
0.0
 40
10.0
  0
LINE
  5
27AD7
330
747D
100
AcDbEntity
  8
細線
 48
50.0
100
AcDbLine
 10
7113.936977338005
 20
1967.040455026681
 30
0.0
 11
7133.936977338009
 21
1987.040455026683
 31
0.0
  0
LINE
  5
27AD8
330
747D
100
AcDbEntity
  8
細線
 48
50.0
100
AcDbLine
 10
7103.769286684761
 20
1990.548724827446
 30
0.0
 11
7133.936977338009
 21
2020.716415480693
 31
0.0
  0
LINE
  5
27AD9
330
747D
100
AcDbEntity
  8
細線
 48
50.0
100
AcDbLine
 10
6987.434307859345
 20
1907.889706456042
 30
0.0
 11
7133.936977338002
 21
2054.392375934702
 31
0.0
  0
LINE
  5
27ADA
330
747D
100
AcDbEntity
  8
部品1
 48
50.0
100
AcDbLine
 10
7113.936977338003
 20
1990.548724827446
 30
0.0
 11
7113.936977338003
 21
1917.889706456042
 31
0.0
  0
LINE
  5
27ADB
330
747D
100
AcDbEntity
  8
細線
 48
50.0
100
AcDbLine
 10
7054.786228767364
 20
1907.889706456042
 30
0.0
 11
7093.936977338002
 21
1947.040455026679
 31
0.0
  0
LINE
  5
27ADC
330
747D
100
AcDbEntity
  8
部品1
 48
50.0
100
AcDbLine
 10
7093.936977338002
 20
1990.548724827446
 30
0.0
 11
7093.936977338002
 21
1917.889706456042
 31
0.0
  0
LINE
  5
27ADD
330
747D
100
AcDbEntity
  8
細線
 48
50.0
100
AcDbLine
 10
7021.110268313357
 20
1907.889706456042
 30
0.0
 11
7093.936977338002
 21
1980.71641548069
 31
0.0
  0
ARC
  5
27ADE
330
747D
100
AcDbEntity
  8
部品1
 48
50.0
100
AcDbCircle
 10
7123.936977338002
 20
1917.889706456042
 30
0.0
 40
30.0
100
AcDbArc
 50
180.0
 51
199.4712206344835
  0
LINE
  5
27ADF
330
747D
100
AcDbEntity
  8
部品1
 48
50.0
100
AcDbLine
 10
7113.936977338003
 20
1990.548724827446
 30
0.0
 11
7093.936977338002
 21
1990.548724827446
 31
0.0
  0
CIRCLE
  5
27AE0
330
747D
100
AcDbEntity
  8
部品1
 48
50.0
100
AcDbCircle
 10
6963.936977338002
 20
1917.889706456042
 30
0.0
 40
10.0
  0
CIRCLE
  5
27AE1
330
747D
100
AcDbEntity
  8
部品1
 48
50.0
100
AcDbCircle
 10
7283.936977338003
 20
1917.889706456042
 30
0.0
 40
10.0
  0
ARC
  5
27AE2
330
747D
100
AcDbEntity
  8
部品1
 48
50.0
100
AcDbCircle
 10
7123.936977338002
 20
1917.889706456042
 30
0.0
 40
30.0
100
AcDbArc
 50
340.5287793655164
 51
0.0
  0
LINE
  5
27AE3
330
747D
100
AcDbEntity
  8
細線
 48
50.0
100
AcDbLine
 10
7153.93697733801
 20
2007.040455026683
 30
0.0
 11
7243.936977338002
 21
2097.04045502668
 31
0.0
  0
LINE
  5
27AE4
330
747D
100
AcDbEntity
  8
部品1
 48
50.0
100
AcDbLine
 10
7423.936977338001
 20
2067.889706456043
 30
0.0
 11
7423.936977338001
 21
1767.889706456042
 31
0.0
  0
LINE
  5
27AE5
330
747D
100
AcDbEntity
  8
細線
 48
50.0
100
AcDbLine
 10
7419.925635577508
 20
1767.889706456042
 30
0.0
 11
7423.936977338001
 21
1771.901048216539
 31
0.0
  0
LINE
  5
27AE6
330
747D
100
AcDbEntity
  8
細線
 48
50.0
100
AcDbLine
 10
7482.468495358865
 20
1737.889706456042
 30
0.0
 11
7474.430019585932
 21
1767.889706456042
 31
0.0
  0
LINE
  5
27AE7
330
747D
100
AcDbEntity
  8
細線
 48
50.0
100
AcDbLine
 10
7455.673576115751
 20
1637.889706456042
 30
0.0
 11
7463.712051888684
 21
1607.889706456042
 31
0.0
  0
LINE
  5
27AE8
330
747D
100
AcDbEntity
  8
部品1
 48
50.0
100
AcDbLine
 10
7523.936977338002
 20
1607.889706456042
 30
0.0
 11
7523.936977338002
 21
1767.889706456042
 31
0.0
  0
LINE
  5
27AE9
330
747D
100
AcDbEntity
  8
細線
 48
50.0
100
AcDbLine
 10
7447.635100342818
 20
1607.889706456042
 30
0.0
 11
7490.506971131797
 21
1767.889706456042
 31
0.0
  0
LINE
  5
27AEA
330
747D
100
AcDbEntity
  8
細線
 48
50.0
100
AcDbLine
 10
7383.858439174804
 20
1737.889706456042
 30
0.0
 11
7375.819963401871
 21
1767.889706456042
 31
0.0
  0
LINE
  5
27AEB
330
747D
100
AcDbEntity
  8
細線
 48
50.0
100
AcDbLine
 10
7357.063519931689
 20
1637.889706456042
 30
0.0
 11
7365.101995704623
 21
1607.889706456042
 31
0.0
  0
LINE
  5
27AEC
330
747D
100
AcDbEntity
  8
細線
 48
50.0
100
AcDbLine
 10
7349.025044158756
 20
1607.889706456042
 30
0.0
 11
7391.896914947735
 21
1767.889706456042
 31
0.0
  0
LINE
  5
27AED
330
747D
100
AcDbEntity
  8
細線
 48
50.0
100
AcDbLine
 10
7386.249675123494
 20
1767.889706456042
 30
0.0
 11
7423.936977338001
 21
1805.577008670548
 31
0.0
  0
LINE
  5
27AEE
330
747D
100
AcDbEntity
  8
部品1
 48
50.0
100
AcDbLine
 10
7353.936977338001
 20
1887.889706456042
 30
0.0
 11
7353.936977338001
 21
1907.889706456042
 31
0.0
  0
LINE
  5
27AEF
330
747D
100
AcDbEntity
  8
部品1
 48
50.0
100
AcDbLine
 10
7890.882557191257
 20
1156.011661817656
 30
0.0
 11
7890.882557191257
 21
996.0116618176561
 31
0.0
  0
ARC
  5
27AF0
330
747D
100
AcDbEntity
  8
部品1
 48
50.0
100
AcDbCircle
 10
7123.936977338002
 20
2673.20774319885
 30
0.0
 40
30.0
100
AcDbArc
 50
0.0
 51
180.0
  0
LINE
  5
27AF1
330
747D
100
AcDbEntity
  8
細線
 48
50.0
100
AcDbLine
 10
7153.936977338002
 20
2645.855822290831
 30
0.0
 11
7243.936977338002
 21
2735.85582229083
 31
0.0
  0
LINE
  5
27AF2
330
747D
100
AcDbEntity
  8
細線
 48
50.0
100
AcDbLine
 10
7153.377861420486
 20
2678.972666827318
 30
0.0
 11
7243.936977338002
 21
2769.53178274484
 31
0.0
  0
LINE
  5
27AF3
330
747D
100
AcDbEntity
  8
細線
 48
50.0
100
AcDbLine
 10
7153.936977338005
 20
2310.124099112766
 30
0.0
 11
7243.936977338002
 21
2400.124099112762
 31
0.0
  0
LINE
  5
27AF4
330
747D
100
AcDbEntity
  8
細線
 48
50.0
100
AcDbLine
 10
7153.936977338005
 20
2343.800059566778
 30
0.0
 11
7243.936977338002
 21
2433.800059566777
 31
0.0
  0
LINE
  5
27AF5
330
747D
100
AcDbEntity
  8
細線
 48
50.0
100
AcDbLine
 10
7003.936977338002
 20
2193.800059566775
 30
0.0
 11
7133.936977338002
 21
2323.800059566775
 31
0.0
  0
LINE
  5
27AF6
330
747D
100
AcDbEntity
  8
細線
 48
50.0
100
AcDbLine
 10
7003.936977338002
 20
2126.448138658756
 30
0.0
 11
7133.936977338009
 21
2256.448138658758
 31
0.0
  0
LINE
  5
27AF7
330
747D
100
AcDbEntity
  8
細線
 48
50.0
100
AcDbLine
 10
7003.936977338002
 20
2160.124099112765
 30
0.0
 11
7133.936977338006
 21
2290.124099112763
 31
0.0
  0
LINE
  5
27AF8
330
747D
100
AcDbEntity
  8
細線
 48
50.0
100
AcDbLine
 10
7153.93697733801
 20
2276.448138658758
 30
0.0
 11
7243.936977338002
 21
2366.448138658754
 31
0.0
  0
CIRCLE
  5
27AF9
330
747D
100
AcDbEntity
  8
部品1
 48
50.0
100
AcDbCircle
 10
7123.936977338002
 20
2673.20774319885
 30
0.0
 40
10.0
  0
LINE
  5
27AFA
330
747D
100
AcDbEntity
  8
細線
 48
50.0
100
AcDbLine
 10
7113.936977338005
 20
2605.855822290831
 30
0.0
 11
7133.936977338002
 21
2625.855822290831
 31
0.0
  0
LINE
  5
27AFB
330
747D
100
AcDbEntity
  8
細線
 48
50.0
100
AcDbLine
 10
7113.936977338003
 20
2639.53178274484
 30
0.0
 11
7133.936977338002
 21
2659.53178274484
 31
0.0
  0
LINE
  5
27AFC
330
747D
100
AcDbEntity
  8
部品1
 48
50.0
100
AcDbLine
 10
7113.936977338003
 20
2600.548724827446
 30
0.0
 11
7113.936977338003
 21
2673.20774319885
 31
0.0
  0
LINE
  5
27AFD
330
747D
100
AcDbEntity
  8
部品1
 48
50.0
100
AcDbLine
 10
7093.936977338002
 20
2600.548724827448
 30
0.0
 11
7093.936977338002
 21
2673.207743198851
 31
0.0
  0
LINE
  5
27AFE
330
747D
100
AcDbEntity
  8
部品1
 48
50.0
100
AcDbLine
 10
7113.936977338003
 20
2600.548724827446
 30
0.0
 11
7093.936977338002
 21
2600.548724827448
 31
0.0
  0
LINE
  5
27AFF
330
747D
100
AcDbEntity
  8
細線
 48
50.0
100
AcDbLine
 10
7003.936977338002
 20
2529.53178274484
 30
0.0
 11
7093.936977338002
 21
2619.53178274484
 31
0.0
  0
LINE
  5
27B00
330
747D
100
AcDbEntity
  8
細線
 48
50.0
100
AcDbLine
 10
7003.936977338002
 20
2563.207743198849
 30
0.0
 11
7093.936977338002
 21
2653.207743198849
 31
0.0
  0
LINE
  5
27B01
330
747D
100
AcDbEntity
  8
細線
 48
50.0
100
AcDbLine
 10
7003.936977338002
 20
2495.855822290831
 30
0.0
 11
7108.629879874621
 21
2600.548724827446
 31
0.0
  0
LINE
  5
27B02
330
747D
100
AcDbEntity
  8
細線
100
AcDbLine
 10
7118.513829890777
 20
2814.241655468946
 30
0.0
 11
7174.243818529213
 21
2815.879400166336
 31
0.0
  0
LINE
  5
27B03
330
747D
100
AcDbEntity
  8
部品1
 48
50.0
100
AcDbLine
 10
7003.936977338002
 20
2847.889706456042
 30
0.0
 11
7243.936977338002
 21
2847.889706456042
 31
0.0
  0
LINE
  5
27B04
330
747D
100
AcDbEntity
  8
細線
 48
50.0
100
AcDbLine
 10
7003.936977338002
 20
2798.939466376915
 30
0.0
 11
7018.660490149312
 21
2813.662979188221
 31
0.0
  0
LINE
  5
27B05
330
747D
100
AcDbEntity
  8
細線
100
AcDbLine
 10
7003.936977338002
 20
2817.517088100082
 30
0.0
 11
7041.475300844031
 21
2807.690846970331
 31
0.0
  0
LINE
  5
27B06
330
747D
100
AcDbEntity
  8
細線
100
AcDbLine
 10
7041.475300844031
 20
2807.690846970331
 30
0.0
 11
7077.535875591464
 21
2807.690846970331
 31
0.0
  0
LINE
  5
27B07
330
747D
100
AcDbEntity
  8
細線
100
AcDbLine
 10
7077.535875591464
 20
2807.690846970331
 30
0.0
 11
7118.513829890777
 21
2814.241655468946
 31
0.0
  0
LINE
  5
27B08
330
747D
100
AcDbEntity
  8
細線
 48
50.0
100
AcDbLine
 10
7003.936977338002
 20
2765.263505922905
 30
0.0
 11
7046.364318385428
 21
2807.690846970331
 31
0.0
  0
LINE
  5
27B09
330
747D
100
AcDbEntity
  8
細線
100
AcDbLine
 10
7203.747887207438
 20
2814.241655468946
 30
0.0
 11
7243.936977338002
 21
2806.053102272943
 31
0.0
  0
LINE
  5
27B0A
330
747D
100
AcDbEntity
  8
細線
100
AcDbLine
 10
7174.243818529213
 20
2815.879400166336
 30
0.0
 11
7203.747887207438
 21
2814.241655468946
 31
0.0
  0
LINE
  5
27B0B
330
747D
100
AcDbEntity
  8
細線
 48
50.0
100
AcDbLine
 10
7139.552505466098
 20
2698.823271326937
 30
0.0
 11
7243.936977338002
 21
2803.207743198849
 31
0.0
  0
LINE
  5
27B0C
330
747D
100
AcDbEntity
  8
部品1
 48
50.0
100
AcDbLine
 10
8065.805596535808
 20
2847.889706456042
 30
0.0
 11
8065.805596535808
 21
2547.889706456043
 31
0.0
  0
LINE
  5
27B0D
330
747D
100
AcDbEntity
  8
細線
100
AcDbLine
 10
8150.618190857235
 20
2547.889706456043
 30
0.0
 11
8450.618190857232
 21
2847.889706456042
 31
0.0
  0
LINE
  5
27B0E
330
747D
100
AcDbEntity
  8
細線
100
AcDbLine
 10
8110.618190857232
 20
2547.889706456043
 30
0.0
 11
8410.618190857233
 21
2847.889706456042
 31
0.0
  0
LINE
  5
27B0F
330
747D
100
AcDbEntity
  8
細線
 48
50.0
100
AcDbLine
 10
8131.893678308326
 20
2237.889706456043
 30
0.0
 11
8174.765549097308
 21
2397.889706456044
 31
0.0
  0
LINE
  5
27B10
330
747D
100
AcDbEntity
  8
細線
 48
50.0
100
AcDbLine
 10
8139.932154081259
 20
2267.889706456044
 30
0.0
 11
8147.970629854192
 21
2237.889706456043
 31
0.0
  0
LINE
  5
27B11
330
747D
100
AcDbEntity
  8
細線
100
AcDbLine
 10
8172.546321004647
 20
2397.889706456044
 30
0.0
 11
8022.546321004638
 21
2547.889706456043
 31
0.0
  0
LINE
  5
27B12
330
747D
100
AcDbEntity
  8
細線
 48
50.0
100
AcDbLine
 10
8068.117017140314
 20
2367.889706456043
 30
0.0
 11
8060.07854136738
 21
2397.889706456044
 31
0.0
  0
LINE
  5
27B13
330
747D
100
AcDbEntity
  8
細線
 48
50.0
100
AcDbLine
 10
8033.283622124269
 20
2237.889706456043
 30
0.0
 11
8076.155492913247
 21
2397.889706456044
 31
0.0
  0
LINE
  5
27B14
330
747D
100
AcDbEntity
  8
細線
 48
50.0
100
AcDbLine
 10
7969.506960956249
 20
2367.889706456043
 30
0.0
 11
7961.468485183316
 21
2397.889706456044
 31
0.0
  0
LINE
  5
27B15
330
747D
100
AcDbEntity
  8
細線
 48
50.0
100
AcDbLine
 10
7870.896904772191
 20
2367.889706456043
 30
0.0
 11
7862.858428999257
 21
2397.889706456044
 31
0.0
  0
LINE
  5
27B16
330
747D
100
AcDbEntity
  8
細線
 48
50.0
100
AcDbLine
 10
7934.673565940205
 20
2237.889706456043
 30
0.0
 11
7977.545436729183
 21
2397.889706456044
 31
0.0
  0
LINE
  5
27B17
330
747D
100
AcDbEntity
  8
部品1
100
AcDbLine
 10
7820.105650216977
 20
2397.889706456044
 30
0.0
 11
7820.105650216977
 21
2237.889706456047
 31
0.0
  0
LINE
  5
27B18
330
747D
100
AcDbEntity
  8
細線
 48
50.0
100
AcDbLine
 10
7836.063509756147
 20
2237.889706456043
 30
0.0
 11
7878.935380545124
 21
2397.889706456044
 31
0.0
  0
LINE
  5
27B19
330
747D
100
AcDbEntity
  8
細線
 48
50.0
100
AcDbLine
 10
7844.10198552908
 20
2267.889706456044
 30
0.0
 11
7852.140461302013
 21
2237.889706456043
 31
0.0
  0
LINE
  5
27B1A
330
747D
100
AcDbEntity
  8
細線
 48
50.0
100
AcDbLine
 10
8041.322097897202
 20
2267.889706456044
 30
0.0
 11
8049.360573670135
 21
2237.889706456043
 31
0.0
  0
LINE
  5
27B1B
330
747D
100
AcDbEntity
  8
細線
 48
50.0
100
AcDbLine
 10
7942.712041713138
 20
2267.889706456044
 30
0.0
 11
7950.750517486071
 21
2237.889706456043
 31
0.0
  0
LINE
  5
27B1C
330
747D
100
AcDbEntity
  8
部品1
100
AcDbLine
 10
7920.105650216978
 20
2547.889706456043
 30
0.0
 11
7920.105650216979
 21
2397.889706456044
 31
0.0
  0
LINE
  5
27B1D
330
747D
100
AcDbEntity
  8
細線
100
AcDbLine
 10
8092.546321004629
 20
2397.889706456044
 30
0.0
 11
7942.546321004622
 21
2547.889706456043
 31
0.0
  0
LINE
  5
27B1E
330
747D
100
AcDbEntity
  8
細線
100
AcDbLine
 10
8132.546321004641
 20
2397.889706456044
 30
0.0
 11
7982.546321004642
 21
2547.889706456043
 31
0.0
  0
LINE
  5
27B1F
330
747D
100
AcDbEntity
  8
細線
 48
50.0
100
AcDbLine
 10
8462.557241876551
 20
2367.889706456043
 30
0.0
 11
8454.518766103618
 21
2397.889706456044
 31
0.0
  0
LINE
  5
27B20
330
747D
100
AcDbEntity
  8
細線
 48
50.0
100
AcDbLine
 10
8427.723846860507
 20
2237.889706456043
 30
0.0
 11
8470.595717649485
 21
2397.889706456044
 31
0.0
  0
LINE
  5
27B21
330
747D
100
AcDbEntity
  8
細線
 48
50.0
100
AcDbLine
 10
8363.947185692493
 20
2367.889706456043
 30
0.0
 11
8355.90870991956
 21
2397.889706456044
 31
0.0
  0
LINE
  5
27B22
330
747D
100
AcDbEntity
  8
細線
 48
50.0
100
AcDbLine
 10
8265.337129508436
 20
2367.889706456043
 30
0.0
 11
8257.298653735503
 21
2397.889706456044
 31
0.0
  0
LINE
  5
27B23
330
747D
100
AcDbEntity
  8
細線
 48
50.0
100
AcDbLine
 10
8230.503734492387
 20
2237.889706456043
 30
0.0
 11
8273.375605281371
 21
2397.889706456044
 31
0.0
  0
LINE
  5
27B24
330
747D
100
AcDbEntity
  8
細線
 48
50.0
100
AcDbLine
 10
8329.11379067645
 20
2237.889706456043
 30
0.0
 11
8371.985661465428
 21
2397.889706456044
 31
0.0
  0
LINE
  5
27B25
330
747D
100
AcDbEntity
  8
細線
 48
50.0
100
AcDbLine
 10
8166.727073324372
 20
2367.889706456043
 30
0.0
 11
8158.688597551437
 21
2397.889706456044
 31
0.0
  0
LINE
  5
27B26
330
747D
100
AcDbEntity
  8
細線
 48
50.0
100
AcDbLine
 10
8337.152266449383
 20
2267.889706456044
 30
0.0
 11
8345.190742222316
 21
2237.889706456043
 31
0.0
  0
LINE
  5
27B27
330
747D
100
AcDbEntity
  8
細線
 48
50.0
100
AcDbLine
 10
8238.542210265325
 20
2267.889706456044
 30
0.0
 11
8246.580686038258
 21
2237.889706456043
 31
0.0
  0
LINE
  5
27B28
330
747D
100
AcDbEntity
  8
細線
 48
50.0
100
AcDbLine
 10
8435.76232263344
 20
2267.889706456044
 30
0.0
 11
8443.800798406373
 21
2237.889706456043
 31
0.0
  0
LINE
  5
27B29
330
747D
100
AcDbEntity
  8
細線
 48
50.0
100
AcDbLine
 10
8534.372378817501
 20
2267.889706456044
 30
0.0
 11
8542.410854590434
 21
2237.889706456043
 31
0.0
  0
LINE
  5
27B2A
330
747D
100
AcDbEntity
  8
細線
100
AcDbLine
 10
8492.546321004645
 20
2397.889706456044
 30
0.0
 11
8342.546321004633
 21
2547.889706456043
 31
0.0
  0
LINE
  5
27B2B
330
747D
100
AcDbEntity
  8
細線
100
AcDbLine
 10
8452.546321004644
 20
2397.889706456044
 30
0.0
 11
8302.54632100463
 21
2547.889706456043
 31
0.0
  0
LINE
  5
27B2C
330
747D
100
AcDbEntity
  8
細線
100
AcDbLine
 10
8412.546321004629
 20
2397.889706456044
 30
0.0
 11
8262.546321004629
 21
2547.889706456043
 31
0.0
  0
LINE
  5
27B2D
330
747D
100
AcDbEntity
  8
細線
100
AcDbLine
 10
8065.805596535808
 20
2823.077112134619
 30
0.0
 11
8090.618190857233
 21
2847.889706456042
 31
0.0
  0
LINE
  5
27B2E
330
747D
100
AcDbEntity
  8
細線
100
AcDbLine
 10
8065.805596535808
 20
2783.077112134619
 30
0.0
 11
8130.618190857232
 21
2847.889706456042
 31
0.0
  0
LINE
  5
27B2F
330
747D
100
AcDbEntity
  8
細線
 48
50.0
100
AcDbLine
 10
9871.360880862416
 20
2055.653818877556
 30
0.0
 11
9959.126488205697
 21
2143.419426220831
 31
0.0
  0
LINE
  5
27B30
330
747D
100
AcDbEntity
  8
細線
 48
50.0
100
AcDbLine
 10
9871.36088086242
 20
2021.977858423546
 30
0.0
 11
9992.802448659702
 21
2143.419426220831
 31
0.0
  0
LINE
  5
27B31
330
747D
100
AcDbEntity
  8
細線
 48
50.0
100
AcDbLine
 10
9871.360880862416
 20
2089.329779331566
 30
0.0
 11
9925.450527751685
 21
2143.419426220831
 31
0.0
  0
LINE
  5
27B32
330
747D
100
AcDbEntity
  8
細線
 48
50.0
100
AcDbLine
 10
10034.85821138376
 20
1983.419426220831
 30
0.0
 11
10181.36088086241
 21
2129.922095699491
 31
0.0
  0
LINE
  5
27B33
330
747D
100
AcDbEntity
  8
部品1
 48
50.0
100
AcDbLine
 10
10181.36088086242
 20
1993.419426220831
 30
0.0
 11
10181.36088086241
 21
2637.796399959718
 31
0.0
  0
LINE
  5
27B34
330
747D
100
AcDbEntity
  8
部品1
 48
50.0
100
AcDbLine
 10
9871.360880862416
 20
1843.419426220831
 30
0.0
 11
9871.360880862416
 21
2143.419426220831
 31
0.0
  0
LINE
  5
27B35
330
747D
100
AcDbEntity
  8
部品1
 48
50.0
100
AcDbLine
 10
9575.201674949395
 20
1156.011661817656
 30
0.0
 11
9575.201674949395
 21
996.0116618176561
 31
0.0
  0
LINE
  5
27B36
330
747D
100
AcDbEntity
  8
部品1
 48
50.0
100
AcDbLine
 10
9771.360880862417
 20
1683.419426220831
 30
0.0
 11
9771.360880862417
 21
1843.419426220831
 31
0.0
  0
LINE
  5
27B37
330
747D
100
AcDbEntity
  8
細線
 48
50.0
100
AcDbLine
 10
10100.61877913098
 20
1683.419426220831
 30
0.0
 11
10143.49064991996
 21
1843.419426220831
 31
0.0
  0
LINE
  5
27B38
330
747D
100
AcDbEntity
  8
細線
 48
50.0
100
AcDbLine
 10
10135.45217414703
 20
1813.419426220831
 30
0.0
 11
10127.4136983741
 21
1843.419426220831
 31
0.0
  0
LINE
  5
27B39
330
747D
100
AcDbEntity
  8
細線
 48
50.0
100
AcDbLine
 10
10002.00872294692
 20
1683.419426220831
 30
0.0
 11
10044.8805937359
 21
1843.419426220831
 31
0.0
  0
LINE
  5
27B3A
330
747D
100
AcDbEntity
  8
細線
 48
50.0
100
AcDbLine
 10
9903.398666762864
 20
1683.419426220831
 30
0.0
 11
9946.270537551846
 21
1843.419426220831
 31
0.0
  0
LINE
  5
27B3B
330
747D
100
AcDbEntity
  8
細線
 48
50.0
100
AcDbLine
 10
10036.84211796297
 20
1813.419426220831
 30
0.0
 11
10028.80364219004
 21
1843.419426220831
 31
0.0
  0
LINE
  5
27B3C
330
747D
100
AcDbEntity
  8
細線
 48
50.0
100
AcDbLine
 10
9938.232061778911
 20
1813.419426220831
 30
0.0
 11
9930.193586005978
 21
1843.419426220831
 31
0.0
  0
LINE
  5
27B3D
330
747D
100
AcDbEntity
  8
細線
 48
50.0
100
AcDbLine
 10
9804.788610578803
 20
1683.419426220831
 30
0.0
 11
9847.660481367784
 21
1843.419426220831
 31
0.0
  0
LINE
  5
27B3E
330
747D
100
AcDbEntity
  8
細線
 48
50.0
100
AcDbLine
 10
9839.622005594851
 20
1813.419426220831
 30
0.0
 11
9831.583529821918
 21
1843.419426220831
 31
0.0
  0
LINE
  5
27B3F
330
747D
100
AcDbEntity
  8
細線
 48
50.0
100
AcDbLine
 10
9911.437142535801
 20
1713.419426220831
 30
0.0
 11
9919.475618308734
 21
1683.419426220831
 31
0.0
  0
LINE
  5
27B40
330
747D
100
AcDbEntity
  8
細線
 48
50.0
100
AcDbLine
 10
9812.82708635174
 20
1713.419426220831
 30
0.0
 11
9820.865562124673
 21
1683.419426220831
 31
0.0
  0
LINE
  5
27B41
330
747D
100
AcDbEntity
  8
細線
 48
50.0
100
AcDbLine
 10
10108.65725490392
 20
1713.419426220831
 30
0.0
 11
10116.69573067685
 21
1683.419426220831
 31
0.0
  0
LINE
  5
27B42
330
747D
100
AcDbEntity
  8
細線
 48
50.0
100
AcDbLine
 10
10010.04719871986
 20
1713.419426220831
 30
0.0
 11
10018.08567449279
 21
1683.419426220831
 31
0.0
  0
LINE
  5
27B43
330
747D
100
AcDbEntity
  8
細線
 48
50.0
100
AcDbLine
 10
9962.210132291778
 20
1843.419426220831
 30
0.0
 11
10082.21013229178
 21
1963.419426220831
 31
0.0
  0
LINE
  5
27B44
330
747D
100
AcDbEntity
  8
細線
 48
50.0
100
AcDbLine
 10
9928.534171837771
 20
1843.419426220831
 30
0.0
 11
10048.53417183777
 21
1963.419426220831
 31
0.0
  0
LINE
  5
27B45
330
747D
100
AcDbEntity
  8
細線
 48
50.0
100
AcDbLine
 10
9894.858211383759
 20
1843.419426220831
 30
0.0
 11
10014.85821138376
 21
1963.419426220831
 31
0.0
  0
LINE
  5
27B46
330
747D
100
AcDbEntity
  8
部品1
 48
50.0
100
AcDbLine
 10
9941.360880862417
 20
1963.419426220831
 30
0.0
 11
9941.360880862417
 21
1983.419426220831
 31
0.0
  0
LINE
  5
27B47
330
747D
100
AcDbEntity
  8
細線
 48
50.0
100
AcDbLine
 10
10151.19319020917
 20
2066.078444592235
 30
0.0
 11
10181.36088086242
 21
2096.246135245481
 31
0.0
  0
LINE
  5
27B48
330
747D
100
AcDbEntity
  8
部品1
 48
50.0
100
AcDbLine
 10
10161.36088086241
 20
2066.078444592235
 30
0.0
 11
10141.36088086241
 21
2066.078444592235
 31
0.0
  0
ARC
  5
27B49
330
747D
100
AcDbEntity
  8
部品1
 48
50.0
100
AcDbCircle
 10
10171.36088086241
 20
1993.419426220831
 30
0.0
 40
30.0
100
AcDbArc
 50
180.0
 51
199.4712206344835
  0
LINE
  5
27B4A
330
747D
100
AcDbEntity
  8
細線
 48
50.0
100
AcDbLine
 10
10102.21013229178
 20
1983.419426220831
 30
0.0
 11
10141.36088086241
 21
2022.570174791468
 31
0.0
  0
LINE
  5
27B4B
330
747D
100
AcDbEntity
  8
細線
 48
50.0
100
AcDbLine
 10
10068.53417183777
 20
1983.419426220831
 30
0.0
 11
10141.36088086241
 21
2056.246135245479
 31
0.0
  0
LINE
  5
27B4C
330
747D
100
AcDbEntity
  8
部品1
 48
50.0
100
AcDbLine
 10
10141.36088086241
 20
2066.078444592235
 30
0.0
 11
10141.36088086241
 21
1993.419426220831
 31
0.0
  0
LINE
  5
27B4D
330
747D
100
AcDbEntity
  8
部品1
 48
50.0
100
AcDbLine
 10
10161.36088086241
 20
2066.078444592235
 30
0.0
 11
10161.36088086241
 21
1993.419426220831
 31
0.0
  0
CIRCLE
  5
27B4E
330
747D
100
AcDbEntity
  8
部品1
 48
50.0
100
AcDbCircle
 10
10171.36088086241
 20
1993.419426220831
 30
0.0
 40
10.0
  0
LINE
  5
27B4F
330
747D
100
AcDbEntity
  8
細線
 48
50.0
100
AcDbLine
 10
10161.36088086242
 20
2042.57017479147
 30
0.0
 11
10181.36088086242
 21
2062.570174791472
 31
0.0
  0
CIRCLE
  5
27B50
330
747D
100
AcDbEntity
  8
部品1
 48
50.0
100
AcDbCircle
 10
10011.36088086241
 20
1993.419426220831
 30
0.0
 40
10.0
  0
LINE
  5
27B51
330
747D
100
AcDbEntity
  8
部品1
 48
50.0
100
AcDbLine
 10
8845.805596535807
 20
2547.889706456043
 30
0.0
 11
8845.805596535807
 21
2847.889706456042
 31
0.0
  0
LINE
  5
27B52
330
747D
100
AcDbEntity
  8
細線
100
AcDbLine
 10
8991.505542854637
 20
2498.930484606041
 30
0.0
 11
8942.546321004632
 21
2547.889706456043
 31
0.0
  0
LINE
  5
27B53
330
747D
100
AcDbEntity
  8
細線
100
AcDbLine
 10
8991.505542854637
 20
2458.93048460603
 30
0.0
 11
8902.546321004633
 21
2547.889706456043
 31
0.0
  0
LINE
  5
27B54
330
747D
100
AcDbEntity
  8
細線
 48
50.0
100
AcDbLine
 10
8856.997466612796
 20
2367.889706456043
 30
0.0
 11
8848.958990839863
 21
2397.889706456044
 31
0.0
  0
LINE
  5
27B55
330
747D
100
AcDbEntity
  8
細線
 48
50.0
100
AcDbLine
 10
8920.774127780809
 20
2237.889706456043
 30
0.0
 11
8963.645998569788
 21
2397.889706456044
 31
0.0
  0
LINE
  5
27B56
330
747D
100
AcDbEntity
  8
細線
 48
50.0
100
AcDbLine
 10
8955.607522796858
 20
2367.889706456043
 30
0.0
 11
8947.569047023923
 21
2397.889706456044
 31
0.0
  0
LINE
  5
27B57
330
747D
100
AcDbEntity
  8
細線
 48
50.0
100
AcDbLine
 10
8758.387410428735
 20
2367.889706456043
 30
0.0
 11
8750.348934655802
 21
2397.889706456044
 31
0.0
  0
LINE
  5
27B58
330
747D
100
AcDbEntity
  8
細線
 48
50.0
100
AcDbLine
 10
8659.777354244674
 20
2367.889706456043
 30
0.0
 11
8651.738878471741
 21
2397.889706456044
 31
0.0
  0
LINE
  5
27B59
330
747D
100
AcDbEntity
  8
細線
 48
50.0
100
AcDbLine
 10
8723.554015412686
 20
2237.889706456043
 30
0.0
 11
8766.425886201664
 21
2397.889706456044
 31
0.0
  0
LINE
  5
27B5A
330
747D
100
AcDbEntity
  8
細線
 48
50.0
100
AcDbLine
 10
8822.164071596748
 20
2237.889706456043
 30
0.0
 11
8865.035942385727
 21
2397.889706456044
 31
0.0
  0
LINE
  5
27B5B
330
747D
100
AcDbEntity
  8
細線
 48
50.0
100
AcDbLine
 10
8624.943959228628
 20
2237.889706456043
 30
0.0
 11
8667.815830017607
 21
2397.889706456044
 31
0.0
  0
LINE
  5
27B5C
330
747D
100
AcDbEntity
  8
細線
 48
50.0
100
AcDbLine
 10
8632.982435001563
 20
2267.889706456044
 30
0.0
 11
8641.020910774496
 21
2237.889706456043
 31
0.0
  0
LINE
  5
27B5D
330
747D
100
AcDbEntity
  8
細線
 48
50.0
100
AcDbLine
 10
8731.592491185624
 20
2267.889706456044
 30
0.0
 11
8739.630966958557
 21
2237.889706456043
 31
0.0
  0
LINE
  5
27B5E
330
747D
100
AcDbEntity
  8
細線
 48
50.0
100
AcDbLine
 10
8928.812603553742
 20
2267.889706456044
 30
0.0
 11
8936.851079326677
 21
2237.889706456043
 31
0.0
  0
LINE
  5
27B5F
330
747D
100
AcDbEntity
  8
細線
 48
50.0
100
AcDbLine
 10
8830.202547369681
 20
2267.889706456044
 30
0.0
 11
8838.241023142614
 21
2237.889706456043
 31
0.0
  0
LINE
  5
27B60
330
747D
100
AcDbEntity
  8
細線
100
AcDbLine
 10
8750.618190857235
 20
2547.889706456043
 30
0.0
 11
8845.805596535807
 21
2643.077112134615
 31
0.0
  0
LINE
  5
27B61
330
747D
100
AcDbEntity
  8
細線
100
AcDbLine
 10
8772.546321004638
 20
2397.889706456044
 30
0.0
 11
8622.546321004632
 21
2547.889706456043
 31
0.0
  0
LINE
  5
27B62
330
747D
100
AcDbEntity
  8
細線
100
AcDbLine
 10
8812.54632100464
 20
2397.889706456044
 30
0.0
 11
8662.546321004645
 21
2547.889706456043
 31
0.0
  0
LINE
  5
27B63
330
747D
100
AcDbEntity
  8
細線
100
AcDbLine
 10
8732.546321004624
 20
2397.889706456044
 30
0.0
 11
8582.546321004635
 21
2547.889706456043
 31
0.0
  0
LINE
  5
27B64
330
747D
100
AcDbEntity
  8
細線
100
AcDbLine
 10
8790.618190857232
 20
2547.889706456043
 30
0.0
 11
8845.805596535807
 21
2603.077112134621
 31
0.0
  0
LINE
  5
27B65
330
747D
100
AcDbEntity
  8
細線
 48
50.0
100
AcDbLine
 10
9054.217578980919
 20
2367.889706456043
 30
0.0
 11
9046.179103207986
 21
2397.889706456044
 31
0.0
  0
LINE
  5
27B66
330
747D
100
AcDbEntity
  8
部品1
100
AcDbLine
 10
9091.505542854637
 20
2397.889706456044
 30
0.0
 11
9091.505542854637
 21
2237.889706456047
 31
0.0
  0
LINE
  5
27B67
330
747D
100
AcDbEntity
  8
細線
 48
50.0
100
AcDbLine
 10
9019.38418396487
 20
2237.889706456043
 30
0.0
 11
9062.256054753852
 21
2397.889706456044
 31
0.0
  0
LINE
  5
27B68
330
747D
100
AcDbEntity
  8
細線
 48
50.0
100
AcDbLine
 10
9027.422659737805
 20
2267.889706456044
 30
0.0
 11
9035.461135510738
 21
2237.889706456043
 31
0.0
  0
LINE
  5
27B69
330
747D
100
AcDbEntity
  8
細線
100
AcDbLine
 10
8991.505542854637
 20
2538.93048460605
 30
0.0
 11
8982.546321004644
 21
2547.889706456043
 31
0.0
  0
LINE
  5
27B6A
330
747D
100
AcDbEntity
  8
部品1
100
AcDbLine
 10
8991.505542854637
 20
2547.889706456043
 30
0.0
 11
8991.505542854637
 21
2397.889706456044
 31
0.0
  0
LINE
  5
27B6B
330
747D
100
AcDbEntity
  8
部品1
 48
50.0
100
AcDbLine
 10
10181.36088086241
 20
2673.419426220831
 30
0.0
 11
10181.36088086241
 21
2748.737462963638
 31
0.0
  0
LINE
  5
27B6C
330
747D
100
AcDbEntity
  8
部品1
 48
50.0
100
AcDbLine
 10
10181.36088086241
 20
2673.419426220831
 30
0.0
 11
10181.36088086241
 21
2748.737462963638
 31
0.0
  0
LINE
  5
27B6D
330
747D
100
AcDbEntity
  8
部品1
 48
50.0
100
AcDbLine
 10
10161.36088086241
 20
2676.078444592235
 30
0.0
 11
10161.36088086241
 21
2748.737462963638
 31
0.0
  0
LINE
  5
27B6E
330
747D
100
AcDbEntity
  8
部品1
 48
50.0
100
AcDbLine
 10
10141.36088086241
 20
2676.078444592237
 30
0.0
 11
10141.36088086241
 21
2748.73746296364
 31
0.0
  0
LINE
  5
27B6F
330
747D
100
AcDbEntity
  8
細線
 48
50.0
100
AcDbLine
 10
10161.36088086242
 20
2681.38554205562
 30
0.0
 11
10181.36088086241
 21
2701.38554205562
 31
0.0
  0
LINE
  5
27B70
330
747D
100
AcDbEntity
  8
細線
 48
50.0
100
AcDbLine
 10
10051.36088086241
 20
2638.737462963638
 30
0.0
 11
10141.36088086241
 21
2728.737462963638
 31
0.0
  0
LINE
  5
27B71
330
747D
100
AcDbEntity
  8
細線
 48
50.0
100
AcDbLine
 10
10051.36088086241
 20
2605.061502509629
 30
0.0
 11
10141.36088086241
 21
2695.061502509629
 31
0.0
  0
LINE
  5
27B72
330
747D
100
AcDbEntity
  8
部品1
 48
50.0
100
AcDbLine
 10
10181.36088086241
 20
2673.419426220831
 30
0.0
 11
10181.36088086241
 21
2923.419426220831
 31
0.0
  0
LINE
  5
27B73
330
747D
100
AcDbEntity
  8
部品1
 48
50.0
100
AcDbLine
 10
10051.36088086241
 20
2143.419426220831
 30
0.0
 11
10051.36088086241
 21
2923.419426220831
 31
0.0
  0
TEXT
  5
27B74
330
747D
100
AcDbEntity
  8
部品1
 48
50.0
100
AcDbText
 10
9693.531782972437
 20
2456.621360261461
 30
0.0
 40
100.0
  1
G.L
  7
STYLE1
100
AcDbText
  0
LINE
  5
27B75
330
747D
100
AcDbEntity
  8
Ｇ．Ｌ
 48
50.0
100
AcDbLine
 10
9533.68600357122
 20
2447.255533358754
 30
0.0
 11
10051.36088086241
 21
2447.255533358754
 31
0.0
  0
LINE
  5
27B76
330
747D
100
AcDbEntity
  8
部品1
 48
50.0
100
AcDbLine
 10
9595.057429501384
 20
2530.725658207173
 30
0.0
 11
9691.44042760244
 21
2530.725658207173
 31
0.0
  0
LINE
  5
27B77
330
747D
100
AcDbEntity
  8
部品1
 48
50.0
100
AcDbLine
 10
9691.44042760244
 20
2530.725658207173
 30
0.0
 11
9643.248928551912
 21
2447.25553335875
 31
0.0
  0
LINE
  5
27B78
330
747D
100
AcDbEntity
  8
部品1
 48
50.0
100
AcDbLine
 10
9595.057429501384
 20
2530.725658207173
 30
0.0
 11
9643.248928551912
 21
2447.25553335875
 31
0.0
  0
LINE
  5
27B79
330
747D
100
AcDbEntity
  8
細線
 48
50.0
100
AcDbLine
 10
10051.36088086241
 20
2269.329779331563
 30
0.0
 11
10181.36088086241
 21
2399.329779331564
 31
0.0
  0
LINE
  5
27B7A
330
747D
100
AcDbEntity
  8
部品1
 48
50.0
100
AcDbLine
 10
9871.360880862416
 20
2143.419426220831
 30
0.0
 11
10051.36088086241
 21
2143.419426220831
 31
0.0
  0
LINE
  5
27B7B
330
747D
100
AcDbEntity
  8
細線
 48
50.0
100
AcDbLine
 10
10051.36088086241
 20
2201.977858423544
 30
0.0
 11
10181.36088086242
 21
2331.977858423547
 31
0.0
  0
LINE
  5
27B7C
330
747D
100
AcDbEntity
  8
細線
 48
50.0
100
AcDbLine
 10
10051.36088086241
 20
2235.653818877554
 30
0.0
 11
10181.36088086242
 21
2365.653818877552
 31
0.0
  0
LINE
  5
27B7D
330
747D
100
AcDbEntity
  8
細線
 48
50.0
100
AcDbLine
 10
10143.39476502763
 20
2663.419426220831
 30
0.0
 11
10156.05378339903
 21
2676.078444592235
 31
0.0
  0
ARC
  5
27B7E
330
747D
100
AcDbEntity
  8
部品1
 48
50.0
100
AcDbCircle
 10
10171.36088086241
 20
2673.419426220831
 30
0.0
 40
10.0
100
AcDbArc
 50
270.0
 51
0.0
  0
LINE
  5
27B7F
330
747D
100
AcDbEntity
  8
部品1
 48
50.0
100
AcDbLine
 10
10171.36088086241
 20
2636.419426220831
 30
0.0
 11
10121.36088086241
 21
2636.419426220831
 31
0.0
  0
LINE
  5
27B80
330
747D
100
AcDbEntity
  8
部品1
 48
50.0
100
AcDbLine
 10
10171.36088086241
 20
2663.419426220831
 30
0.0
 11
10121.36088086241
 21
2663.419426220831
 31
0.0
  0
LINE
  5
27B81
330
747D
100
AcDbEntity
  8
部品1
 48
50.0
100
AcDbLine
 10
10121.36088086241
 20
2636.419426220831
 30
0.0
 11
10121.36088086241
 21
2663.419426220831
 31
0.0
  0
LINE
  5
27B82
330
747D
100
AcDbEntity
  8
部品1
 48
50.0
100
AcDbLine
 10
10161.36088086241
 20
2676.078444592235
 30
0.0
 11
10141.36088086241
 21
2676.078444592237
 31
0.0
  0
LINE
  5
27B83
330
747D
100
AcDbEntity
  8
細線
 48
50.0
100
AcDbLine
 10
10051.36088086241
 20
2571.385542055619
 30
0.0
 11
10121.36088086241
 21
2641.38554205562
 31
0.0
  0
LINE
  5
27B84
330
747D
100
AcDbEntity
  8
部品1
 48
50.0
100
AcDbLine
 10
10181.36088086241
 20
2949.265580066986
 30
0.0
 11
10181.36088086241
 21
2983.727118528523
 31
0.0
  0
LINE
  5
27B85
330
747D
100
AcDbEntity
  8
部品1
100
AcDbLine
 10
10062.13011163164
 20
2926.650195451601
 30
0.0
 11
10062.13011163164
 21
3028.957887759292
 31
0.0
  0
LINE
  5
27B86
330
747D
100
AcDbEntity
  8
部品1
100
AcDbLine
 10
10181.93780393934
 20
2946.034810836218
 30
0.0
 11
10181.93780393934
 21
2927.727118528523
 31
0.0
  0
LINE
  5
27B87
330
747D
100
AcDbEntity
  8
部品1
100
AcDbLine
 10
10082.59165009318
 20
2930.957887759293
 30
0.0
 11
10082.59165009318
 21
2927.727118528523
 31
0.0
  0
LINE
  5
27B88
330
747D
100
AcDbEntity
  8
部品1
100
AcDbLine
 10
10166.86088086241
 20
2927.727118528523
 30
0.0
 11
10166.86088086241
 21
2923.419426220831
 31
0.0
  0
LINE
  5
27B89
330
747D
100
AcDbEntity
  8
部品1
100
AcDbLine
 10
10171.1685731701
 20
2946.034810836216
 30
0.0
 11
10174.39934240087
 21
2949.265580066986
 31
0.0
  0
LINE
  5
27B8A
330
747D
100
AcDbEntity
  8
部品1
100
AcDbLine
 10
10171.1685731701
 20
2946.034810836216
 30
0.0
 11
10171.1685731701
 21
2927.727118528523
 31
0.0
  0
LINE
  5
27B8B
330
747D
100
AcDbEntity
  8
細線
100
AcDbLine
 10
10088.89920436844
 20
2883.220566735119
 30
0.0
 11
10124.95977911588
 21
2883.220566735119
 31
0.0
  0
LINE
  5
27B8C
330
747D
100
AcDbEntity
  8
細線
100
AcDbLine
 10
10124.95977911588
 20
2883.220566735119
 30
0.0
 11
10165.93773341519
 21
2889.771375233735
 31
0.0
  0
ARC
  5
27B8D
330
747D
100
AcDbEntity
  8
部品1
100
AcDbCircle
 10
10176.55318855472
 20
2940.979512925207
 30
0.0
 40
7.3858052918609
100
AcDbArc
 50
43.1932563689624
 51
136.8067436310376
  0
LINE
  5
27B8E
330
747D
100
AcDbEntity
  8
細線
 48
50.0
100
AcDbLine
 10
10177.36088086241
 20
2954.798915298246
 30
0.0
 11
10198.01156908079
 21
2949.265580066986
 31
0.0
  0
LINE
  5
27B8F
330
747D
100
AcDbEntity
  8
細線
 48
50.0
100
AcDbLine
 10
10051.36088086241
 20
2874.469186141703
 30
0.0
 11
10066.08439367372
 21
2889.19269895301
 31
0.0
  0
LINE
  5
27B90
330
747D
100
AcDbEntity
  8
部品1
100
AcDbLine
 10
10065.36088086241
 20
2930.957887759293
 30
0.0
 11
10065.36088086241
 21
2950.170564536595
 31
0.0
  0
LINE
  5
27B91
330
747D
100
AcDbEntity
  8
部品1
100
AcDbLine
 10
10079.36088086241
 20
2926.650195451601
 30
0.0
 11
10062.13011163164
 21
2926.650195451601
 31
0.0
  0
LINE
  5
27B92
330
747D
100
AcDbEntity
  8
細線
 48
50.0
100
AcDbLine
 10
10051.36088086241
 20
2840.793225687694
 30
0.0
 11
10093.78822190984
 21
2883.220566735119
 31
0.0
  0
LINE
  5
27B93
330
747D
100
AcDbEntity
  8
細線
100
AcDbLine
 10
10051.36088086241
 20
2893.04680786487
 30
0.0
 11
10088.89920436844
 21
2883.220566735119
 31
0.0
  0
LINE
  5
27B94
330
747D
100
AcDbEntity
  8
部品1
100
AcDbLine
 10
10082.59165009318
 20
2930.957887759293
 30
0.0
 11
10065.36088086241
 21
2930.957887759293
 31
0.0
  0
LINE
  5
27B95
330
747D
100
AcDbEntity
  8
細線
 48
50.0
100
AcDbLine
 10
10161.36088086241
 20
2715.061502509629
 30
0.0
 11
10181.36088086241
 21
2735.061502509628
 31
0.0
  0
CIRCLE
  5
27B96
330
747D
100
AcDbEntity
  8
部品1
 48
50.0
100
AcDbCircle
 10
10171.36088086241
 20
2748.737462963638
 30
0.0
 40
10.0
  0
ARC
  5
27B97
330
747D
100
AcDbEntity
  8
部品1
 48
50.0
100
AcDbCircle
 10
10171.36088086241
 20
2748.737462963638
 30
0.0
 40
30.0
100
AcDbArc
 50
70.52877936552873
 51
180.0
  0
LINE
  5
27B98
330
747D
100
AcDbEntity
  8
部品1
100
AcDbLine
 10
10148.59165009318
 20
3070.957887759292
 30
0.0
 11
10180.89934240087
 21
3070.957887759292
 31
0.0
  0
LINE
  5
27B99
330
747D
100
AcDbEntity
  8
部品1
100
AcDbLine
 10
10075.05318855472
 20
3045.11173391314
 30
0.0
 11
10148.59165009318
 21
3045.11173391314
 31
0.0
  0
LINE
  5
27B9A
330
747D
100
AcDbEntity
  8
部品1
100
AcDbLine
 10
10075.05318855472
 20
3032.188656990062
 30
0.0
 11
10075.05318855472
 21
3045.11173391314
 31
0.0
  0
LINE
  5
27B9B
330
747D
100
AcDbEntity
  8
部品1
100
AcDbLine
 10
10062.13011163164
 20
3028.957887759292
 30
0.0
 11
10075.05318855472
 21
3032.188656990062
 31
0.0
  0
LINE
  5
27B9C
330
747D
100
AcDbEntity
  8
部品1
100
AcDbLine
 10
10180.89934240087
 20
3070.957887759292
 30
0.0
 11
10180.89934240087
 21
3045.11173391314
 31
0.0
  0
LINE
  5
27B9D
330
747D
100
AcDbEntity
  8
部品1
100
AcDbLine
 10
10148.59165009318
 20
3045.11173391314
 30
0.0
 11
10148.59165009318
 21
3070.957887759292
 31
0.0
  0
LINE
  5
27B9E
330
747D
100
AcDbEntity
  8
細線
 48
50.0
100
AcDbLine
 10
5928.470846110238
 20
3762.105389958173
 30
0.0
 11
9485.114395482769
 21
3762.105389958173
 31
0.0
  0
ARC
  5
27B9F
330
747D
100
AcDbEntity
  8
細線
 48
50.0
100
AcDbCircle
 10
9565.114395482771
 20
3802.105389958173
 30
0.0
 40
80.0
100
AcDbArc
 50
90.0
 51
180.0
  0
LINE
  5
27BA0
330
747D
100
AcDbEntity
  8
細線
 48
50.0
100
AcDbLine
 10
9485.114395482769
 20
3722.105389958173
 30
0.0
 11
9485.114395482769
 21
3802.105389958173
 31
0.0
  0
ARC
  5
27BA1
330
747D
100
AcDbEntity
  8
細線
 48
50.0
100
AcDbCircle
 10
9565.114395482771
 20
3722.105389958173
 30
0.0
 40
80.0
100
AcDbArc
 50
180.0
 51
270.0
  0
LINE
  5
27BA2
330
747D
100
AcDbEntity
  8
細線
 48
50.0
100
AcDbLine
 10
14051.04752340323
 20
3762.105389958173
 30
0.0
 11
14051.04752340323
 21
856.443716717416
 31
0.0
  0
MTEXT
  5
27BA3
102
{ACAD_REACTORS
330
27BA4
102
}
330
747D
100
AcDbEntity
  8
寸法
 62
     7
 48
50.0
100
AcDbMText
 10
13372.10104265757
 20
2418.650906950376
 30
0.0
 40
100.0
 41
0.0
 71
     4
 72
     1
  1
防湿シート
  7
STYLE1
 73
     1
 44
1.0
1001
ACAD
1000
MTEXTBEGIN
1070
    73
1070
     1
1070
    44
1040
1.0
1070
    74
1070
     0
1000
MTEXTEND
  0
LEADER
  5
27BA4
330
747D
100
AcDbEntity
  8
寸法
 48
50.0
100
AcDbLeader
  3
INABA_S50G
 71
     0
 73
     0
 74
     0
 75
     1
 40
100.0
 41
581.9577020040977
 76
     3
 10
13074.40087719295
 20
2500.214619180521
 30
0.0
 10
13222.10104265757
 20
2343.650906950375
 30
0.0
 10
13347.10104265757
 20
2343.650906950375
 30
0.0
340
27BA3
  0
LINE
  5
27BA5
330
747D
100
AcDbEntity
  8
Ｇ．Ｌ
 48
50.0
100
AcDbLine
 10
11632.34860154202
 20
2447.255533358755
 30
0.0
 11
12150.02347883322
 21
2447.255533358755
 31
0.0
  0
TEXT
  5
27BA6
330
747D
100
AcDbEntity
  8
部品1
 48
50.0
100
AcDbText
 10
11792.19438094324
 20
2456.621360261462
 30
0.0
 40
100.0
  1
G.L
  7
STYLE1
100
AcDbText
  0
LINE
  5
27BA7
330
747D
100
AcDbEntity
  8
部品1
 48
50.0
100
AcDbLine
 10
13227.00110305883
 20
1156.011661817656
 30
0.0
 11
11835.68783406122
 21
1156.011661817656
 31
0.0
  0
LINE
  5
27BA8
330
747D
100
AcDbEntity
  8
部品1
 48
50.0
100
AcDbLine
 10
13227.00110305883
 20
996.0116618176561
 30
0.0
 11
11835.68783406122
 21
996.0116618176561
 31
0.0
  0
LINE
  5
27BA9
330
747D
100
AcDbEntity
  8
細線
 48
50.0
100
AcDbLine
 10
10304.26589501583
 20
1983.419426220831
 30
0.0
 11
10464.26589501583
 21
2143.419426220831
 31
0.0
  0
LINE
  5
27BAA
330
747D
100
AcDbEntity
  8
細線
 48
50.0
100
AcDbLine
 10
10337.94185546984
 20
1983.419426220831
 30
0.0
 11
10471.36088086241
 21
2116.838451613405
 31
0.0
  0
LINE
  5
27BAB
330
747D
100
AcDbEntity
  8
細線
 48
50.0
100
AcDbLine
 10
10201.36088086242
 20
2082.570174791472
 30
0.0
 11
10291.36088086241
 21
2172.570174791468
 31
0.0
  0
LINE
  5
27BAC
330
747D
100
AcDbEntity
  8
部品1
 48
50.0
100
AcDbLine
 10
10201.36088086242
 20
1993.419426220831
 30
0.0
 11
10201.36088086241
 21
2651.763018393122
 31
0.0
  0
LINE
  5
27BAD
330
747D
100
AcDbEntity
  8
部品1
 48
50.0
100
AcDbLine
 10
10471.36088086241
 20
2143.419426220831
 30
0.0
 11
10471.36088086241
 21
1843.419426220831
 31
0.0
  0
LINE
  5
27BAE
330
747D
100
AcDbEntity
  8
部品1
 48
50.0
100
AcDbLine
 10
10615.97144712763
 20
1156.011661817656
 30
0.0
 11
10615.97144712763
 21
996.0116618176561
 31
0.0
  0
LINE
  5
27BAF
330
747D
100
AcDbEntity
  8
細線
 48
50.0
100
AcDbLine
 10
10495.05900386723
 20
1683.419426220831
 30
0.0
 11
10537.93087465621
 21
1843.419426220831
 31
0.0
  0
LINE
  5
27BB0
330
747D
100
AcDbEntity
  8
部品1
 48
50.0
100
AcDbLine
 10
10571.36088086241
 20
1683.419426220831
 30
0.0
 11
10571.36088086241
 21
1843.419426220831
 31
0.0
  0
LINE
  5
27BB1
330
747D
100
AcDbEntity
  8
細線
 48
50.0
100
AcDbLine
 10
10529.89239888328
 20
1813.419426220831
 30
0.0
 11
10521.85392311034
 21
1843.419426220831
 31
0.0
  0
LINE
  5
27BB2
330
747D
100
AcDbEntity
  8
細線
 48
50.0
100
AcDbLine
 10
10396.44894768317
 20
1683.419426220831
 30
0.0
 11
10439.32081847215
 21
1843.419426220831
 31
0.0
  0
LINE
  5
27BB3
330
747D
100
AcDbEntity
  8
細線
 48
50.0
100
AcDbLine
 10
10297.83889149911
 20
1683.419426220831
 30
0.0
 11
10340.71076228809
 21
1843.419426220831
 31
0.0
  0
LINE
  5
27BB4
330
747D
100
AcDbEntity
  8
細線
 48
50.0
100
AcDbLine
 10
10431.28234269922
 20
1813.419426220831
 30
0.0
 11
10423.24386692628
 21
1843.419426220831
 31
0.0
  0
LINE
  5
27BB5
330
747D
100
AcDbEntity
  8
細線
 48
50.0
100
AcDbLine
 10
10332.67228651515
 20
1813.419426220831
 30
0.0
 11
10324.63381074222
 21
1843.419426220831
 31
0.0
  0
LINE
  5
27BB6
330
747D
100
AcDbEntity
  8
細線
 48
50.0
100
AcDbLine
 10
10199.22883531505
 20
1683.419426220831
 30
0.0
 11
10242.10070610402
 21
1843.419426220831
 31
0.0
  0
LINE
  5
27BB7
330
747D
100
AcDbEntity
  8
細線
 48
50.0
100
AcDbLine
 10
10234.06223033109
 20
1813.419426220831
 30
0.0
 11
10226.02375455816
 21
1843.419426220831
 31
0.0
  0
LINE
  5
27BB8
330
747D
100
AcDbEntity
  8
細線
 48
50.0
100
AcDbLine
 10
10305.87736727204
 20
1713.419426220831
 30
0.0
 11
10313.91584304497
 21
1683.419426220831
 31
0.0
  0
LINE
  5
27BB9
330
747D
100
AcDbEntity
  8
細線
 48
50.0
100
AcDbLine
 10
10207.26731108798
 20
1713.419426220831
 30
0.0
 11
10215.30578686091
 21
1683.419426220831
 31
0.0
  0
LINE
  5
27BBA
330
747D
100
AcDbEntity
  8
細線
 48
50.0
100
AcDbLine
 10
10503.09747964016
 20
1713.419426220831
 30
0.0
 11
10511.1359554131
 21
1683.419426220831
 31
0.0
  0
LINE
  5
27BBB
330
747D
100
AcDbEntity
  8
細線
 48
50.0
100
AcDbLine
 10
10404.4874234561
 20
1713.419426220831
 30
0.0
 11
10412.52589922903
 21
1683.419426220831
 31
0.0
  0
LINE
  5
27BBC
330
747D
100
AcDbEntity
  8
細線
 48
50.0
100
AcDbLine
 10
10371.61781592385
 20
1983.419426220831
 30
0.0
 11
10471.36088086241
 21
2083.162491159393
 31
0.0
  0
LINE
  5
27BBD
330
747D
100
AcDbEntity
  8
部品1
 48
50.0
100
AcDbLine
 10
10401.36088086241
 20
1963.419426220831
 30
0.0
 11
10401.36088086241
 21
1983.419426220831
 31
0.0
  0
CIRCLE
  5
27BBE
330
747D
100
AcDbEntity
  8
部品1
 48
50.0
100
AcDbCircle
 10
10331.36088086241
 20
1993.419426220831
 30
0.0
 40
10.0
  0
ARC
  5
27BBF
330
747D
100
AcDbEntity
  8
部品1
 48
50.0
100
AcDbCircle
 10
10171.36088086241
 20
1993.419426220831
 30
0.0
 40
30.0
100
AcDbArc
 50
340.5287793655164
 51
0.0
  0
LINE
  5
27BC0
330
747D
100
AcDbEntity
  8
細線
 48
50.0
100
AcDbLine
 10
10231.61781592385
 20
1843.419426220831
 30
0.0
 11
10351.61892573028
 21
1963.420536027255
 31
0.0
  0
LINE
  5
27BC1
330
747D
100
AcDbEntity
  8
細線
 48
50.0
100
AcDbLine
 10
10433.67357864791
 20
1843.419426220831
 30
0.0
 11
10471.36088086241
 21
1881.106728435337
 31
0.0
  0
LINE
  5
27BC2
330
747D
100
AcDbEntity
  8
細線
 48
50.0
100
AcDbLine
 10
10467.34953910192
 20
1843.419426220831
 30
0.0
 11
10471.36088086241
 21
1847.430767981328
 31
0.0
  0
LINE
  5
27BC3
330
747D
100
AcDbEntity
  8
部品1
 48
50.0
100
AcDbLine
 10
11835.68783406122
 20
1156.011661817656
 30
0.0
 11
11835.68783406122
 21
996.0116618176561
 31
0.0
  0
LEADER
  5
27BC4
330
747D
100
AcDbEntity
  8
寸法
 48
50.0
100
AcDbLeader
  3
INABA_S50G
 71
     0
 73
     0
 74
     0
 75
     1
 40
100.0
 41
828.6243686707642
 76
     3
 10
10208.36088086241
 20
2823.419426220831
 30
0.0
 10
10356.06104632703
 20
2666.855713990686
 30
0.0
 10
10481.06104632703
 20
2666.855713990686
 30
0.0
340
27BC5
  0
MTEXT
  5
27BC5
102
{ACAD_REACTORS
330
27BC4
102
}
330
747D
100
AcDbEntity
  8
寸法
 62
     7
 48
50.0
100
AcDbMText
 10
10506.06104632703
 20
2741.855713990686
 30
0.0
 40
100.0
 41
0.0
 71
     4
 72
     1
  1
アンカーボルト
  7
STYLE1
 73
     1
 44
1.0
1001
ACAD
1000
MTEXTBEGIN
1070
    73
1070
     1
1070
    44
1040
1.0
1070
    74
1070
     0
1000
MTEXTEND
  0
TEXT
  5
27BC6
330
747D
100
AcDbEntity
  8
部品1
 48
50.0
100
AcDbText
 10
10495.55217057001
 20
2541.413950793483
 30
0.0
 40
100.0
  1
M12×200(市販品)
  7
STYLE1
100
AcDbText
  0
LINE
  5
27BC7
330
747D
100
AcDbEntity
  8
部品1
 48
50.0
100
AcDbLine
 10
10208.36088086241
 20
2673.419426220831
 30
0.0
 11
10208.36088086241
 21
2923.419426220831
 31
0.0
  0
LINE
  5
27BC8
330
747D
100
AcDbEntity
  8
部品1
 48
50.0
100
AcDbLine
 10
10291.36088086241
 20
2923.419426220831
 30
0.0
 11
10291.36088086241
 21
2143.419426220831
 31
0.0
  0
LINE
  5
27BC9
330
747D
100
AcDbEntity
  8
Ｇ．Ｌ
 48
50.0
100
AcDbLine
 10
10291.36088086241
 20
2447.255533358754
 30
0.0
 11
10809.03575815361
 21
2447.255533358754
 31
0.0
  0
LINE
  5
27BCA
330
747D
100
AcDbEntity
  8
細線
 48
50.0
100
AcDbLine
 10
10201.36088086242
 20
2351.977858423547
 30
0.0
 11
10291.36088086241
 21
2441.977858423543
 31
0.0
  0
LINE
  5
27BCB
330
747D
100
AcDbEntity
  8
細線
 48
50.0
100
AcDbLine
 10
10201.36088086242
 20
2385.653818877554
 30
0.0
 11
10291.36088086241
 21
2475.65381887755
 31
0.0
  0
LINE
  5
27BCC
330
747D
100
AcDbEntity
  8
部品1
 48
50.0
100
AcDbLine
 10
10291.36088086241
 20
2143.419426220831
 30
0.0
 11
10471.36088086241
 21
2143.419426220831
 31
0.0
  0
LINE
  5
27BCD
330
747D
100
AcDbEntity
  8
細線
 48
50.0
100
AcDbLine
 10
10201.36088086242
 20
2116.246135245483
 30
0.0
 11
10291.36088086241
 21
2206.246135245478
 31
0.0
  0
LINE
  5
27BCE
330
747D
100
AcDbEntity
  8
細線
 48
50.0
100
AcDbLine
 10
10201.36088086242
 20
2149.922095699492
 30
0.0
 11
10291.36088086241
 21
2239.922095699487
 31
0.0
  0
LINE
  5
27BCF
330
747D
100
AcDbEntity
  8
細線
 48
50.0
100
AcDbLine
 10
10201.36088086242
 20
2419.329779331566
 30
0.0
 11
10291.36088086241
 21
2509.329779331566
 31
0.0
  0
LINE
  5
27BD0
330
747D
100
AcDbEntity
  8
部品1
100
AcDbLine
 10
10252.74549624703
 20
3030.034810836216
 30
0.0
 11
10252.74549624703
 21
2926.650195451601
 31
0.0
  0
LINE
  5
27BD1
330
747D
100
AcDbEntity
  8
部品1
 48
50.0
100
AcDbLine
 10
10208.36088086241
 20
2949.265580066986
 30
0.0
 11
10208.36088086241
 21
2983.727118528523
 31
0.0
  0
LINE
  5
27BD2
330
747D
100
AcDbEntity
  8
部品1
100
AcDbLine
 10
10252.74549624703
 20
2926.650195451601
 30
0.0
 11
10269.9762654778
 21
2926.650195451601
 31
0.0
  0
LINE
  5
27BD3
330
747D
100
AcDbEntity
  8
細線
100
AcDbLine
 10
10221.66772205362
 20
2891.409119931124
 30
0.0
 11
10251.17179073185
 21
2889.771375233735
 31
0.0
  0
LINE
  5
27BD4
330
747D
100
AcDbEntity
  8
部品1
100
AcDbLine
 10
10249.51472701626
 20
2950.170564536595
 30
0.0
 11
10249.51472701626
 21
2927.727118528523
 31
0.0
  0
LINE
  5
27BD5
330
747D
100
AcDbEntity
  8
部品1
100
AcDbLine
 10
10222.86088086241
 20
2927.727118528523
 30
0.0
 11
10222.86088086241
 21
2923.419426220831
 31
0.0
  0
LINE
  5
27BD6
330
747D
100
AcDbEntity
  8
部品1
100
AcDbLine
 10
10215.32241932395
 20
2949.265580066986
 30
0.0
 11
10218.55318855472
 21
2946.034810836218
 31
0.0
  0
LINE
  5
27BD7
330
747D
100
AcDbEntity
  8
部品1
100
AcDbLine
 10
10218.55318855472
 20
2946.034810836218
 30
0.0
 11
10218.55318855472
 21
2927.727118528523
 31
0.0
  0
LINE
  5
27BD8
330
747D
100
AcDbEntity
  8
部品1
100
AcDbLine
 10
10207.78395778549
 20
2946.034810836216
 30
0.0
 11
10207.78395778549
 21
2927.727118528523
 31
0.0
  0
ARC
  5
27BD9
330
747D
100
AcDbEntity
  8
部品1
100
AcDbCircle
 10
10213.1685731701
 20
2940.979512925207
 30
0.0
 40
7.3858052918609
100
AcDbArc
 50
43.1932563689624
 51
136.8067436310376
  0
LINE
  5
27BDA
330
747D
100
AcDbEntity
  8
細線
 48
50.0
100
AcDbLine
 10
10208.36088086241
 20
2762.061502509622
 30
0.0
 11
10291.36088086241
 21
2845.061502509629
 31
0.0
  0
LINE
  5
27BDB
330
747D
100
AcDbEntity
  8
細線
 48
50.0
100
AcDbLine
 10
10208.36088086241
 20
2795.737462963634
 30
0.0
 11
10291.36088086241
 21
2878.737462963638
 31
0.0
  0
LINE
  5
27BDC
330
747D
100
AcDbEntity
  8
細線
 48
50.0
100
AcDbLine
 10
10208.36088086241
 20
2728.385542055619
 30
0.0
 11
10291.36088086241
 21
2811.385542055619
 31
0.0
  0
LINE
  5
27BDD
330
747D
100
AcDbEntity
  8
細線
100
AcDbLine
 10
10251.17179073185
 20
2889.771375233735
 30
0.0
 11
10291.36088086241
 21
2881.582822037732
 31
0.0
  0
LINE
  5
27BDE
330
747D
100
AcDbEntity
  8
部品1
100
AcDbLine
 10
10211.05318855472
 20
3045.11173391314
 30
0.0
 11
10211.05318855472
 21
3030.034810836216
 31
0.0
  0
LINE
  5
27BDF
330
747D
100
AcDbEntity
  8
部品1
100
AcDbLine
 10
10211.05318855472
 20
3030.034810836216
 30
0.0
 11
10252.74549624703
 21
3030.034810836216
 31
0.0
  0
LINE
  5
27BE0
330
747D
100
AcDbEntity
  8
部品1
 48
50.0
100
AcDbLine
 10
11693.72002747218
 20
2530.725658207174
 30
0.0
 11
11790.10302557324
 21
2530.725658207174
 31
0.0
  0
LINE
  5
27BE1
330
747D
100
AcDbEntity
  8
部品1
 48
50.0
100
AcDbLine
 10
11693.72002747218
 20
2530.725658207174
 30
0.0
 11
11741.91152652271
 21
2447.255533358751
 31
0.0
  0
LINE
  5
27BE2
330
747D
100
AcDbEntity
  8
部品1
 48
50.0
100
AcDbLine
 10
11790.10302557324
 20
2530.725658207174
 30
0.0
 11
11741.91152652271
 21
2447.255533358751
 31
0.0
  0
LINE
  5
27BE3
330
747D
100
AcDbEntity
  8
細線
 48
50.0
100
AcDbLine
 10
12436.60445344065
 20
1983.419426220832
 30
0.0
 11
12570.02347883322
 21
2116.838451613406
 31
0.0
  0
LINE
  5
27BE4
330
747D
100
AcDbEntity
  8
細線
 48
50.0
100
AcDbLine
 10
12402.92849298663
 20
1983.419426220832
 30
0.0
 11
12562.92849298664
 21
2143.419426220832
 31
0.0
  0
LINE
  5
27BE5
330
747D
100
AcDbEntity
  8
部品1
 48
50.0
100
AcDbLine
 10
12570.02347883322
 20
2143.419426220832
 30
0.0
 11
12570.02347883322
 21
1843.419426220832
 31
0.0
  0
LINE
  5
27BE6
330
747D
100
AcDbEntity
  8
細線
 48
50.0
100
AcDbLine
 10
12133.52080935456
 20
1983.419426220832
 30
0.0
 11
12280.02347883322
 21
2129.922095699491
 31
0.0
  0
LINE
  5
27BE7
330
747D
100
AcDbEntity
  8
細線
 48
50.0
100
AcDbLine
 10
11970.02347883322
 20
2055.653818877557
 30
0.0
 11
12057.7890861765
 21
2143.419426220832
 31
0.0
  0
LINE
  5
27BE8
330
747D
100
AcDbEntity
  8
細線
 48
50.0
100
AcDbLine
 10
11970.02347883322
 20
2021.977858423547
 30
0.0
 11
12091.4650466305
 21
2143.419426220832
 31
0.0
  0
LINE
  5
27BE9
330
747D
100
AcDbEntity
  8
細線
 48
50.0
100
AcDbLine
 10
11970.02347883322
 20
2089.329779331567
 30
0.0
 11
12024.11312572249
 21
2143.419426220832
 31
0.0
  0
LINE
  5
27BEA
330
747D
100
AcDbEntity
  8
部品1
 48
50.0
100
AcDbLine
 10
12280.02347883323
 20
1993.419426220832
 30
0.0
 11
12280.02347883322
 21
2748.737462963639
 31
0.0
  0
LINE
  5
27BEB
330
747D
100
AcDbEntity
  8
部品1
 48
50.0
100
AcDbLine
 10
12300.02347883323
 20
1993.419426220832
 30
0.0
 11
12300.02347883322
 21
2748.737462963639
 31
0.0
  0
LINE
  5
27BEC
330
747D
100
AcDbEntity
  8
部品1
 48
50.0
100
AcDbLine
 10
11970.02347883322
 20
1843.419426220832
 30
0.0
 11
11970.02347883322
 21
2143.419426220832
 31
0.0
  0
LINE
  5
27BED
330
747D
100
AcDbEntity
  8
細線
 48
50.0
100
AcDbLine
 10
12300.02347883323
 20
2082.570174791473
 30
0.0
 11
12390.02347883322
 21
2172.570174791469
 31
0.0
  0
LINE
  5
27BEE
330
747D
100
AcDbEntity
  8
部品1
 48
50.0
100
AcDbLine
 10
12670.02347883322
 20
1843.419426220832
 30
0.0
 11
11870.02347883322
 21
1843.419426220832
 31
0.0
  0
LINE
  5
27BEF
330
747D
100
AcDbEntity
  8
部品1
 48
50.0
100
AcDbLine
 10
12670.02347883322
 20
1683.419426220832
 30
0.0
 11
11870.02347883322
 21
1683.419426220832
 31
0.0
  0
TEXT
  5
27BF0
330
747D
100
AcDbEntity
  8
部品1
 48
50.0
100
AcDbText
 10
11895.83390560939
 20
1033.255000831509
 30
0.0
 40
96.0
  1
床下湿気防止用基礎
  7
STYLE2
100
AcDbText
  0
LINE
  5
27BF1
330
747D
100
AcDbEntity
  8
部品1
 48
50.0
100
AcDbLine
 10
12260.02347883322
 20
2066.078444592235
 30
0.0
 11
12240.02347883322
 21
2066.078444592235
 31
0.0
  0
LINE
  5
27BF2
330
747D
100
AcDbEntity
  8
部品1
 48
50.0
100
AcDbLine
 10
12040.02347883322
 20
1983.419426220832
 30
0.0
 11
12500.02347883322
 21
1983.419426220832
 31
0.0
  0
LINE
  5
27BF3
330
747D
100
AcDbEntity
  8
部品1
 48
50.0
100
AcDbLine
 10
12040.02347883322
 20
1963.419426220832
 30
0.0
 11
12500.02347883322
 21
1963.419426220832
 31
0.0
  0
LINE
  5
27BF4
330
747D
100
AcDbEntity
  8
細線
 48
50.0
100
AcDbLine
 10
12199.28137710179
 20
1683.419426220832
 30
0.0
 11
12242.15324789077
 21
1843.419426220832
 31
0.0
  0
LINE
  5
27BF5
330
747D
100
AcDbEntity
  8
細線
 48
50.0
100
AcDbLine
 10
12135.50471593378
 20
1813.419426220832
 30
0.0
 11
12127.46624016084
 21
1843.419426220832
 31
0.0
  0
LINE
  5
27BF6
330
747D
100
AcDbEntity
  8
細線
 48
50.0
100
AcDbLine
 10
12234.11477211784
 20
1813.419426220832
 30
0.0
 11
12226.0762963449
 21
1843.419426220832
 31
0.0
  0
LINE
  5
27BF7
330
747D
100
AcDbEntity
  8
細線
 48
50.0
100
AcDbLine
 10
12002.06126473366
 20
1683.419426220832
 30
0.0
 11
12044.93313552265
 21
1843.419426220832
 31
0.0
  0
LINE
  5
27BF8
330
747D
100
AcDbEntity
  8
細線
 48
50.0
100
AcDbLine
 10
12036.89465974971
 20
1813.419426220832
 30
0.0
 11
12028.85618397678
 21
1843.419426220832
 31
0.0
  0
LINE
  5
27BF9
330
747D
100
AcDbEntity
  8
細線
 48
50.0
100
AcDbLine
 10
11938.28460356565
 20
1813.419426220832
 30
0.0
 11
11930.24612779272
 21
1843.419426220832
 31
0.0
  0
LINE
  5
27BFA
330
747D
100
AcDbEntity
  8
細線
 48
50.0
100
AcDbLine
 10
12100.67132091773
 20
1683.419426220832
 30
0.0
 11
12143.54319170671
 21
1843.419426220832
 31
0.0
  0
LINE
  5
27BFB
330
747D
100
AcDbEntity
  8
部品1
 48
50.0
100
AcDbLine
 10
11870.02347883322
 20
1683.419426220832
 30
0.0
 11
11870.02347883322
 21
1843.419426220832
 31
0.0
  0
LINE
  5
27BFC
330
747D
100
AcDbEntity
  8
細線
 48
50.0
100
AcDbLine
 10
11903.4512085496
 20
1683.419426220832
 30
0.0
 11
11946.32307933859
 21
1843.419426220832
 31
0.0
  0
LINE
  5
27BFD
330
747D
100
AcDbEntity
  8
細線
 48
50.0
100
AcDbLine
 10
12010.0997405066
 20
1713.419426220832
 30
0.0
 11
12018.13821627954
 21
1683.419426220832
 31
0.0
  0
LINE
  5
27BFE
330
747D
100
AcDbEntity
  8
細線
 48
50.0
100
AcDbLine
 10
11911.48968432254
 20
1713.419426220832
 30
0.0
 11
11919.52816009548
 21
1683.419426220832
 31
0.0
  0
LINE
  5
27BFF
330
747D
100
AcDbEntity
  8
細線
 48
50.0
100
AcDbLine
 10
12207.31985287472
 20
1713.419426220832
 30
0.0
 11
12215.35832864766
 21
1683.419426220832
 31
0.0
  0
LINE
  5
27C00
330
747D
100
AcDbEntity
  8
細線
 48
50.0
100
AcDbLine
 10
12108.70979669066
 20
1713.419426220832
 30
0.0
 11
12116.7482724636
 21
1683.419426220832
 31
0.0
  0
LINE
  5
27C01
330
747D
100
AcDbEntity
  8
細線
 48
50.0
100
AcDbLine
 10
12027.19676980857
 20
1843.419426220832
 30
0.0
 11
12147.19676980857
 21
1963.419426220832
 31
0.0
  0
LINE
  5
27C02
330
747D
100
AcDbEntity
  8
細線
 48
50.0
100
AcDbLine
 10
11993.52080935456
 20
1843.419426220832
 30
0.0
 11
12113.52080935456
 21
1963.419426220832
 31
0.0
  0
LINE
  5
27C03
330
747D
100
AcDbEntity
  8
部品1
 48
50.0
100
AcDbLine
 10
12040.02347883322
 20
1963.419426220832
 30
0.0
 11
12040.02347883322
 21
1983.419426220832
 31
0.0
  0
ARC
  5
27C04
330
747D
100
AcDbEntity
  8
部品1
 48
50.0
100
AcDbCircle
 10
12270.02347883322
 20
1993.419426220832
 30
0.0
 40
30.0
100
AcDbArc
 50
180.0
 51
199.4712206344835
  0
LINE
  5
27C05
330
747D
100
AcDbEntity
  8
部品1
 48
50.0
100
AcDbLine
 10
12240.02347883322
 20
2066.078444592235
 30
0.0
 11
12240.02347883322
 21
1993.419426220832
 31
0.0
  0
LINE
  5
27C06
330
747D
100
AcDbEntity
  8
細線
 48
50.0
100
AcDbLine
 10
12167.19676980857
 20
1983.419426220832
 30
0.0
 11
12240.02347883322
 21
2056.24613524548
 31
0.0
  0
LINE
  5
27C07
330
747D
100
AcDbEntity
  8
細線
 48
50.0
100
AcDbLine
 10
12200.87273026258
 20
1983.419426220832
 30
0.0
 11
12240.02347883322
 21
2022.570174791469
 31
0.0
  0
CIRCLE
  5
27C08
330
747D
100
AcDbEntity
  8
部品1
 48
50.0
100
AcDbCircle
 10
12110.02347883322
 20
1993.419426220832
 30
0.0
 40
10.0
  0
LINE
  5
27C09
330
747D
100
AcDbEntity
  8
細線
 48
50.0
100
AcDbLine
 10
12060.87273026258
 20
1843.419426220832
 30
0.0
 11
12180.87273026258
 21
1963.419426220832
 31
0.0
  0
LINE
  5
27C0A
330
747D
100
AcDbEntity
  8
細線
 48
50.0
100
AcDbLine
 10
12593.72160183803
 20
1683.419426220832
 30
0.0
 11
12636.59347262701
 21
1843.419426220832
 31
0.0
  0
LINE
  5
27C0B
330
747D
100
AcDbEntity
  8
細線
 48
50.0
100
AcDbLine
 10
12628.55499685408
 20
1813.419426220832
 30
0.0
 11
12620.51652108115
 21
1843.419426220832
 31
0.0
  0
LINE
  5
27C0C
330
747D
100
AcDbEntity
  8
細線
 48
50.0
100
AcDbLine
 10
12396.50148946991
 20
1683.419426220832
 30
0.0
 11
12439.37336025889
 21
1843.419426220832
 31
0.0
  0
LINE
  5
27C0D
330
747D
100
AcDbEntity
  8
細線
 48
50.0
100
AcDbLine
 10
12332.7248283019
 20
1813.419426220832
 30
0.0
 11
12324.68635252896
 21
1843.419426220832
 31
0.0
  0
LINE
  5
27C0E
330
747D
100
AcDbEntity
  8
細線
 48
50.0
100
AcDbLine
 10
12431.33488448596
 20
1813.419426220832
 30
0.0
 11
12423.29640871303
 21
1843.419426220832
 31
0.0
  0
LINE
  5
27C0F
330
747D
100
AcDbEntity
  8
細線
 48
50.0
100
AcDbLine
 10
12529.94494067002
 20
1813.419426220832
 30
0.0
 11
12521.90646489709
 21
1843.419426220832
 31
0.0
  0
LINE
  5
27C10
330
747D
100
AcDbEntity
  8
細線
 48
50.0
100
AcDbLine
 10
12495.11154565397
 20
1683.419426220832
 30
0.0
 11
12537.98341644295
 21
1843.419426220832
 31
0.0
  0
LINE
  5
27C11
330
747D
100
AcDbEntity
  8
細線
 48
50.0
100
AcDbLine
 10
12297.89143328585
 20
1683.419426220832
 30
0.0
 11
12340.76330407483
 21
1843.419426220832
 31
0.0
  0
LINE
  5
27C12
330
747D
100
AcDbEntity
  8
細線
 48
50.0
100
AcDbLine
 10
12404.53996524284
 20
1713.419426220832
 30
0.0
 11
12412.57844101578
 21
1683.419426220832
 31
0.0
  0
LINE
  5
27C13
330
747D
100
AcDbEntity
  8
細線
 48
50.0
100
AcDbLine
 10
12305.92990905878
 20
1713.419426220832
 30
0.0
 11
12313.96838483172
 21
1683.419426220832
 31
0.0
  0
LINE
  5
27C14
330
747D
100
AcDbEntity
  8
細線
 48
50.0
100
AcDbLine
 10
12601.76007761097
 20
1713.419426220832
 30
0.0
 11
12609.7985533839
 21
1683.419426220832
 31
0.0
  0
LINE
  5
27C15
330
747D
100
AcDbEntity
  8
細線
 48
50.0
100
AcDbLine
 10
12503.1500214269
 20
1713.419426220832
 30
0.0
 11
12511.18849719984
 21
1683.419426220832
 31
0.0
  0
CIRCLE
  5
27C16
330
747D
100
AcDbEntity
  8
部品1
 48
50.0
100
AcDbCircle
 10
12430.02347883322
 20
1993.419426220832
 30
0.0
 40
10.0
  0
LINE
  5
27C17
330
747D
100
AcDbEntity
  8
細線
 48
50.0
100
AcDbLine
 10
12330.28041389465
 20
1843.419426220832
 30
0.0
 11
12450.28152370108
 21
1963.420536027256
 31
0.0
  0
LINE
  5
27C18
330
747D
100
AcDbEntity
  8
細線
 48
50.0
100
AcDbLine
 10
12249.85578817998
 20
2066.078444592235
 30
0.0
 11
12280.02347883323
 21
2096.246135245482
 31
0.0
  0
LINE
  5
27C19
330
747D
100
AcDbEntity
  8
細線
 48
50.0
100
AcDbLine
 10
12260.02347883322
 20
2042.570174791471
 30
0.0
 11
12280.02347883323
 21
2062.570174791473
 31
0.0
  0
CIRCLE
  5
27C1A
330
747D
100
AcDbEntity
  8
部品1
 48
50.0
100
AcDbCircle
 10
12270.02347883322
 20
1993.419426220832
 30
0.0
 40
10.0
  0
ARC
  5
27C1B
330
747D
100
AcDbEntity
  8
部品1
 48
50.0
100
AcDbCircle
 10
12270.02347883322
 20
1993.419426220832
 30
0.0
 40
30.0
100
AcDbArc
 50
340.5287793655164
 51
0.0
  0
LINE
  5
27C1C
330
747D
100
AcDbEntity
  8
部品1
 48
50.0
100
AcDbLine
 10
12260.02347883322
 20
2066.078444592235
 30
0.0
 11
12260.02347883322
 21
1993.419426220832
 31
0.0
  0
LINE
  5
27C1D
330
747D
100
AcDbEntity
  8
細線
 48
50.0
100
AcDbLine
 10
12262.92849298664
 20
1843.419426220832
 30
0.0
 11
12382.92849298664
 21
1963.419426220832
 31
0.0
  0
LINE
  5
27C1E
330
747D
100
AcDbEntity
  8
細線
 48
50.0
100
AcDbLine
 10
12296.60445344065
 20
1843.419426220832
 30
0.0
 11
12416.60445344065
 21
1963.419426220832
 31
0.0
  0
LINE
  5
27C1F
330
747D
100
AcDbEntity
  8
部品1
 48
50.0
100
AcDbLine
 10
12500.02347883322
 20
1963.419426220832
 30
0.0
 11
12500.02347883322
 21
1983.419426220832
 31
0.0
  0
LINE
  5
27C20
330
747D
100
AcDbEntity
  8
細線
 48
50.0
100
AcDbLine
 10
12470.28041389466
 20
1983.419426220832
 30
0.0
 11
12570.02347883322
 21
2083.162491159393
 31
0.0
  0
LINE
  5
27C21
330
747D
100
AcDbEntity
  8
細線
 48
50.0
100
AcDbLine
 10
12532.33617661871
 20
1843.419426220832
 30
0.0
 11
12570.02347883322
 21
1881.106728435337
 31
0.0
  0
LINE
  5
27C22
330
747D
100
AcDbEntity
  8
細線
 48
50.0
100
AcDbLine
 10
12566.01213707272
 20
1843.419426220832
 30
0.0
 11
12570.02347883322
 21
1847.430767981329
 31
0.0
  0
LINE
  5
27C23
330
747D
100
AcDbEntity
  8
部品1
 48
50.0
100
AcDbLine
 10
13227.00110305883
 20
1156.011661817656
 30
0.0
 11
13227.00110305883
 21
996.0116618176561
 31
0.0
  0
LINE
  5
27C24
330
747D
100
AcDbEntity
  8
部品1
 48
50.0
100
AcDbLine
 10
12670.02347883322
 20
1683.419426220832
 30
0.0
 11
12670.02347883322
 21
1843.419426220832
 31
0.0
  0
LINE
  5
27C25
330
747D
100
AcDbEntity
  8
部品1
 48
50.0
100
AcDbLine
 10
12390.02347883322
 20
2697.255533358755
 30
0.0
 11
12907.69835612441
 21
2697.255533358755
 31
0.0
  0
LINE
  5
27C26
330
747D
100
AcDbEntity
  8
細線
 48
50.0
100
AcDbLine
 10
12620.67132091773
 20
2267.255533358754
 30
0.0
 11
12663.54319170671
 21
2427.255533358755
 31
0.0
  0
LINE
  5
27C27
330
747D
100
AcDbEntity
  8
部品1
 48
50.0
100
AcDbLine
 10
12390.02347883322
 20
2447.255533358755
 30
0.0
 11
12907.69835612441
 21
2447.255533358755
 31
0.0
  0
LINE
  5
27C28
330
747D
100
AcDbEntity
  8
部品1
 48
50.0
100
AcDbLine
 10
12390.02347883322
 20
2467.255533358754
 30
0.0
 11
12907.69835612441
 21
2467.255533358754
 31
0.0
  0
LINE
  5
27C29
330
747D
100
AcDbEntity
  8
部品1
 48
50.0
100
AcDbLine
 10
12390.02347883322
 20
2427.255533358755
 30
0.0
 11
12907.69835612441
 21
2427.255533358755
 31
0.0
  0
LINE
  5
27C2A
330
747D
100
AcDbEntity
  8
部品1
 48
50.0
100
AcDbLine
 10
12391.10830917652
 20
2267.255533358754
 30
0.0
 11
12907.69835612441
 21
2267.255533358754
 31
0.0
  0
HATCH
  5
27C2B
330
747D
100
AcDbEntity
  8
寸法
 62
     5
 48
50.0
100
AcDbHatch
 10
0.0
 20
0.0
 30
0.0
210
0.0
220
0.0
230
1.0
  2
PLAST
 70
     0
 71
     0
 91
        1
 92
        7
 72
     0
 73
     1
 93
        4
 10
12907.69835612441
 20
2697.255533358754
 10
12390.02347883322
 20
2697.255533358755
 10
12390.02347883322
 20
2467.255533358754
 10
12907.69835612441
 20
2467.255533358756
 97
        0
 75
     0
 76
     1
 52
315.0
 41
25.0
 77
     0
 78
     3
 53
315.0
 43
-597.3434849173973
 44
-2895.371564118576
 45
112.2532015133644
 46
112.2532015133644
 79
     0
 53
315.0
 43
-583.311834728227
 44
-2881.339913929405
 45
112.2532015133644
 46
112.2532015133644
 79
     0
 53
315.0
 43
-569.2801845390558
 44
-2867.308263740234
 45
112.2532015133644
 46
112.2532015133644
 79
     0
 47
1.387886003246494
 98
        1
 10
12618.57400965918
 20
2633.941120396126
  0
LWPOLYLINE
  5
27C2C
330
747D
100
AcDbEntity
  8
部品1
 48
50.0
100
AcDbPolyline
 90
        4
 70
     0
 43
15.0
 10
12390.02347883322
 20
2447.255533358755
 10
12907.69835612441
 20
2447.255533358755
 42
0.1559987191059798
 10
13074.40087719295
 20
2500.214619180521
 42
-0.1900569176366468
 10
13273.32269243146
 20
2531.195802624467
  0
LINE
  5
27C2D
330
747D
100
AcDbEntity
  8
部品1
 48
50.0
100
AcDbLine
 10
12390.02347883322
 20
2923.419426220832
 30
0.0
 11
12390.02347883322
 21
2143.419426220832
 31
0.0
  0
LINE
  5
27C2E
330
747D
100
AcDbEntity
  8
細線
 48
50.0
100
AcDbLine
 10
12150.02347883322
 20
2638.737462963639
 30
0.0
 11
12240.02347883322
 21
2728.737462963639
 31
0.0
  0
LINE
  5
27C2F
330
747D
100
AcDbEntity
  8
細線
 48
50.0
100
AcDbLine
 10
12150.02347883322
 20
2605.061502509629
 30
0.0
 11
12240.02347883322
 21
2695.061502509629
 31
0.0
  0
LINE
  5
27C30
330
747D
100
AcDbEntity
  8
部品1
 48
50.0
100
AcDbLine
 10
12240.02347883322
 20
2676.078444592237
 30
0.0
 11
12240.02347883322
 21
2748.737462963641
 31
0.0
  0
LINE
  5
27C31
330
747D
100
AcDbEntity
  8
部品1
 48
50.0
100
AcDbLine
 10
12260.02347883322
 20
2676.078444592235
 30
0.0
 11
12260.02347883322
 21
2748.737462963639
 31
0.0
  0
LINE
  5
27C32
330
747D
100
AcDbEntity
  8
細線
 48
50.0
100
AcDbLine
 10
12260.02347883322
 20
2681.38554205562
 30
0.0
 11
12280.02347883322
 21
2701.38554205562
 31
0.0
  0
LINE
  5
27C33
330
747D
100
AcDbEntity
  8
部品1
 48
50.0
100
AcDbLine
 10
12150.02347883322
 20
2143.419426220832
 30
0.0
 11
12150.02347883322
 21
2923.419426220832
 31
0.0
  0
LINE
  5
27C34
330
747D
100
AcDbEntity
  8
細線
 48
50.0
100
AcDbLine
 10
12150.02347883322
 20
2571.38554205562
 30
0.0
 11
12254.71638136984
 21
2676.078444592235
 31
0.0
  0
LINE
  5
27C35
330
747D
100
AcDbEntity
  8
部品1
 48
50.0
100
AcDbLine
 10
12260.02347883322
 20
2676.078444592235
 30
0.0
 11
12240.02347883322
 21
2676.078444592237
 31
0.0
  0
LINE
  5
27C36
330
747D
100
AcDbEntity
  8
細線
 48
50.0
100
AcDbLine
 10
12150.02347883322
 20
2269.329779331564
 30
0.0
 11
12280.02347883322
 21
2399.329779331565
 31
0.0
  0
LINE
  5
27C37
330
747D
100
AcDbEntity
  8
細線
 48
50.0
100
AcDbLine
 10
12150.02347883322
 20
2235.653818877555
 30
0.0
 11
12280.02347883322
 21
2365.653818877553
 31
0.0
  0
LINE
  5
27C38
330
747D
100
AcDbEntity
  8
細線
 48
50.0
100
AcDbLine
 10
12150.02347883322
 20
2201.977858423546
 30
0.0
 11
12280.02347883323
 21
2331.977858423547
 31
0.0
  0
LINE
  5
27C39
330
747D
100
AcDbEntity
  8
部品1
 48
50.0
100
AcDbLine
 10
11970.02347883322
 20
2143.419426220832
 30
0.0
 11
12150.02347883322
 21
2143.419426220832
 31
0.0
  0
LINE
  5
27C3A
330
747D
100
AcDbEntity
  8
細線
 48
50.0
100
AcDbLine
 10
12423.4512085496
 20
2267.255533358754
 30
0.0
 11
12466.32307933859
 21
2427.255533358755
 31
0.0
  0
LINE
  5
27C3B
330
747D
100
AcDbEntity
  8
細線
 48
50.0
100
AcDbLine
 10
12522.06126473367
 20
2267.255533358754
 30
0.0
 11
12564.93313552265
 21
2427.255533358755
 31
0.0
  0
LINE
  5
27C3C
330
747D
100
AcDbEntity
  8
細線
 48
50.0
100
AcDbLine
 10
12300.02347883323
 20
2351.977858423548
 30
0.0
 11
12390.02347883322
 21
2441.977858423544
 31
0.0
  0
LINE
  5
27C3D
330
747D
100
AcDbEntity
  8
細線
 48
50.0
100
AcDbLine
 10
12300.02347883322
 20
2385.653818877555
 30
0.0
 11
12390.02347883322
 21
2475.653818877551
 31
0.0
  0
LINE
  5
27C3E
330
747D
100
AcDbEntity
  8
部品1
 48
50.0
100
AcDbLine
 10
12390.02347883322
 20
2143.419426220832
 30
0.0
 11
12570.02347883322
 21
2143.419426220832
 31
0.0
  0
LINE
  5
27C3F
330
747D
100
AcDbEntity
  8
細線
 48
50.0
100
AcDbLine
 10
12431.48968432254
 20
2297.255533358754
 30
0.0
 11
12439.52816009547
 21
2267.255533358754
 31
0.0
  0
LINE
  5
27C40
330
747D
100
AcDbEntity
  8
細線
 48
50.0
100
AcDbLine
 10
12300.02347883323
 20
2116.246135245484
 30
0.0
 11
12390.02347883322
 21
2206.246135245478
 31
0.0
  0
LINE
  5
27C41
330
747D
100
AcDbEntity
  8
細線
 48
50.0
100
AcDbLine
 10
12300.02347883323
 20
2149.922095699493
 30
0.0
 11
12390.02347883322
 21
2239.922095699488
 31
0.0
  0
LINE
  5
27C42
330
747D
100
AcDbEntity
  8
細線
 48
50.0
100
AcDbLine
 10
12530.0997405066
 20
2297.255533358754
 30
0.0
 11
12538.13821627954
 21
2267.255533358754
 31
0.0
  0
LINE
  5
27C43
330
747D
100
AcDbEntity
  8
細線
 48
50.0
100
AcDbLine
 10
12628.70979669066
 20
2297.255533358754
 30
0.0
 11
12636.7482724636
 21
2267.255533358754
 31
0.0
  0
LINE
  5
27C44
330
747D
100
AcDbEntity
  8
細線
 48
50.0
100
AcDbLine
 10
12458.28460356565
 20
2397.255533358754
 30
0.0
 11
12450.24612779272
 21
2427.255533358755
 31
0.0
  0
LINE
  5
27C45
330
747D
100
AcDbEntity
  8
細線
 48
50.0
100
AcDbLine
 10
12300.02347883322
 20
2419.329779331567
 30
0.0
 11
12390.02347883322
 21
2509.329779331566
 31
0.0
  0
LINE
  5
27C46
330
747D
100
AcDbEntity
  8
細線
 48
50.0
100
AcDbLine
 10
12655.50471593378
 20
2397.255533358754
 30
0.0
 11
12647.46624016084
 21
2427.255533358755
 31
0.0
  0
LINE
  5
27C47
330
747D
100
AcDbEntity
  8
細線
 48
50.0
100
AcDbLine
 10
12556.89465974971
 20
2397.255533358754
 30
0.0
 11
12548.85618397678
 21
2427.255533358755
 31
0.0
  0
LINE
  5
27C48
330
747D
100
AcDbEntity
  8
細線
100
AcDbLine
 10
12223.62237708668
 20
2883.22056673512
 30
0.0
 11
12264.60033138599
 21
2889.771375233736
 31
0.0
  0
ARC
  5
27C49
330
747D
100
AcDbEntity
  8
部品1
 48
50.0
100
AcDbCircle
 10
12270.02347883322
 20
2748.737462963639
 30
0.0
 40
30.0
100
AcDbArc
 50
0.0
 51
180.0
  0
LINE
  5
27C4A
330
747D
100
AcDbEntity
  8
部品1
 48
50.0
100
AcDbLine
 10
12150.02347883322
 20
2923.419426220832
 30
0.0
 11
12390.02347883322
 21
2923.419426220832
 31
0.0
  0
LINE
  5
27C4B
330
747D
100
AcDbEntity
  8
細線
 48
50.0
100
AcDbLine
 10
12150.02347883322
 20
2840.793225687695
 30
0.0
 11
12192.45081988064
 21
2883.22056673512
 31
0.0
  0
LINE
  5
27C4C
330
747D
100
AcDbEntity
  8
細線
100
AcDbLine
 10
12187.56180233925
 20
2883.22056673512
 30
0.0
 11
12223.62237708668
 21
2883.22056673512
 31
0.0
  0
LINE
  5
27C4D
330
747D
100
AcDbEntity
  8
細線
100
AcDbLine
 10
12150.02347883322
 20
2893.046807864871
 30
0.0
 11
12187.56180233925
 21
2883.22056673512
 31
0.0
  0
LINE
  5
27C4E
330
747D
100
AcDbEntity
  8
細線
 48
50.0
100
AcDbLine
 10
12150.02347883322
 20
2874.469186141704
 30
0.0
 11
12164.74699164453
 21
2889.19269895301
 31
0.0
  0
LINE
  5
27C4F
330
747D
100
AcDbEntity
  8
細線
100
AcDbLine
 10
12349.83438870265
 20
2889.771375233736
 30
0.0
 11
12390.02347883322
 21
2881.582822037733
 31
0.0
  0
LINE
  5
27C50
330
747D
100
AcDbEntity
  8
細線
100
AcDbLine
 10
12264.60033138599
 20
2889.771375233736
 30
0.0
 11
12320.33032002443
 21
2891.409119931125
 31
0.0
  0
LINE
  5
27C51
330
747D
100
AcDbEntity
  8
細線
 48
50.0
100
AcDbLine
 10
12260.02347883322
 20
2715.06150250963
 30
0.0
 11
12280.02347883322
 21
2735.06150250963
 31
0.0
  0
CIRCLE
  5
27C52
330
747D
100
AcDbEntity
  8
部品1
 48
50.0
100
AcDbCircle
 10
12270.02347883322
 20
2748.737462963639
 30
0.0
 40
10.0
  0
LINE
  5
27C53
330
747D
100
AcDbEntity
  8
細線
 48
50.0
100
AcDbLine
 10
12300.02347883322
 20
2721.38554205562
 30
0.0
 11
12390.02347883322
 21
2811.38554205562
 31
0.0
  0
LINE
  5
27C54
330
747D
100
AcDbEntity
  8
細線
 48
50.0
100
AcDbLine
 10
12285.63900696131
 20
2774.352991091727
 30
0.0
 11
12390.02347883322
 21
2878.737462963639
 31
0.0
  0
LINE
  5
27C55
330
747D
100
AcDbEntity
  8
細線
 48
50.0
100
AcDbLine
 10
12299.4643629157
 20
2754.502386592108
 30
0.0
 11
12390.02347883322
 21
2845.06150250963
 31
0.0
  0
LINE
  5
27C56
330
747D
100
AcDbEntity
  8
細線
100
AcDbLine
 10
12320.33032002443
 20
2891.409119931125
 30
0.0
 11
12349.83438870265
 21
2889.771375233736
 31
0.0
  0
LINE
  5
27C57
330
747D
100
AcDbEntity
  8
細線
 48
50.0
100
AcDbLine
 10
12817.89143328585
 20
2267.255533358754
 30
0.0
 11
12860.76330407483
 21
2427.255533358755
 31
0.0
  0
LINE
  5
27C58
330
747D
100
AcDbEntity
  8
細線
 48
50.0
100
AcDbLine
 10
12719.28137710179
 20
2267.255533358754
 30
0.0
 11
12762.15324789077
 21
2427.255533358755
 31
0.0
  0
LINE
  5
27C59
330
747D
100
AcDbEntity
  8
細線
 48
50.0
100
AcDbLine
 10
12825.92990905878
 20
2297.255533358754
 30
0.0
 11
12833.96838483171
 21
2267.255533358754
 31
0.0
  0
LINE
  5
27C5A
330
747D
100
AcDbEntity
  8
細線
 48
50.0
100
AcDbLine
 10
12727.31985287472
 20
2297.255533358754
 30
0.0
 11
12735.35832864766
 21
2267.255533358754
 31
0.0
  0
LINE
  5
27C5B
330
747D
100
AcDbEntity
  8
細線
 48
50.0
100
AcDbLine
 10
12754.11477211784
 20
2397.255533358754
 30
0.0
 11
12746.0762963449
 21
2427.255533358755
 31
0.0
  0
LINE
  5
27C5C
330
747D
100
AcDbEntity
  8
細線
 48
50.0
100
AcDbLine
 10
12852.7248283019
 20
2397.255533358754
 30
0.0
 11
12844.68635252896
 21
2427.255533358755
 31
0.0
  0
TEXT
  5
27C5D
330
747D
100
AcDbEntity
  8
文字
 62
     7
 48
50.0
100
AcDbText
 10
11072.86577716283
 20
4003.91106161578
 30
0.0
 40
120.0
  1
重量物を入れる場合（根太部ブロック追加）
  7
STYLE1
100
AcDbText
  0
LINE
  5
27C5E
330
747D
100
AcDbEntity
  8
細線
 48
50.0
100
AcDbLine
 10
10494.4039740307
 20
3762.105389958172
 30
0.0
 11
14051.04752340323
 21
3762.105389958173
 31
0.0
  0
LINE
  5
27C5F
330
747D
100
AcDbEntity
  8
部品1
100
AcDbLine
 10
13950.45728301215
 20
3898.883300018595
 30
0.0
 11
10536.03625050066
 21
3898.883300018594
 31
0.0
  0
LINE
  5
27C60
330
747D
100
AcDbEntity
  8
部品1
100
AcDbLine
 10
12778.60330680021
 20
4256.785530835601
 30
0.0
 11
10568.65190933605
 21
4256.785530835601
 31
0.0
  0
TEXT
  5
27C61
330
747D
100
AcDbEntity
  8
文字
 62
     7
 48
50.0
100
AcDbText
 10
10587.89449159916
 20
4321.306091978351
 30
0.0
 40
120.0
  1
（　）内寸法は屋根の出幅です。
  7
STYLE1
100
AcDbText
  0
ARC
  5
27C62
330
747D
100
AcDbEntity
  8
細線
 48
50.0
100
AcDbCircle
 10
10414.4039740307
 20
3802.105389958173
 30
0.0
 40
80.0
100
AcDbArc
 50
0.0
 51
90.0
  0
LINE
  5
27C63
330
747D
100
AcDbEntity
  8
細線
 48
50.0
100
AcDbLine
 10
10494.4039740307
 20
3722.105389958173
 30
0.0
 11
10494.4039740307
 21
3722.105389958173
 31
0.0
  0
LINE
  5
27C64
330
747D
100
AcDbEntity
  8
細線
 48
50.0
100
AcDbLine
 10
10494.4039740307
 20
3802.105389958173
 30
0.0
 11
10494.4039740307
 21
3722.105389958173
 31
0.0
  0
ARC
  5
27C65
330
747D
100
AcDbEntity
  8
細線
 48
50.0
100
AcDbCircle
 10
10414.4039740307
 20
3722.105389958173
 30
0.0
 40
80.0
100
AcDbArc
 50
270.0
 51
0.0
  0
LINE
  5
27C66
330
747D
100
AcDbEntity
  8
細線
 48
10.0
100
AcDbLine
 10
10595.71710427129
 20
4182.918435993567
 30
0.0
 11
10995.71710427129
 21
4182.918435993567
 31
0.0
  0
LINE
  5
27C67
330
747D
100
AcDbEntity
  8
細線
 48
10.0
100
AcDbLine
 10
10595.71710427129
 20
3982.918435993568
 30
0.0
 11
10995.71710427129
 21
3982.918435993568
 31
0.0
  0
LINE
  5
27C68
330
747D
100
AcDbEntity
  8
細線
 48
10.0
100
AcDbLine
 10
10595.71710427129
 20
3982.918435993568
 30
0.0
 11
10595.71710427129
 21
4182.918435993567
 31
0.0
  0
LINE
  5
27C69
330
747D
100
AcDbEntity
  8
部品1
 48
50.0
100
AcDbLine
 10
10604.59874519224
 20
4003.758287088373
 30
0.0
 11
10604.59874519224
 21
4003.758287088373
 31
0.0
  0
LINE
  5
27C6A
330
747D
100
AcDbEntity
  8
部品1
 48
50.0
100
AcDbLine
 10
10604.59874519224
 20
4051.383287088373
 30
0.0
 11
10604.59874519224
 21
4051.383287088373
 31
0.0
  0
LINE
  5
27C6B
330
747D
100
AcDbEntity
  8
部品1
 48
50.0
100
AcDbLine
 10
10604.59874519224
 20
4099.008287088373
 30
0.0
 11
10604.59874519224
 21
4099.008287088373
 31
0.0
  0
LINE
  5
27C6C
330
747D
100
AcDbEntity
  8
部品1
 48
50.0
100
AcDbLine
 10
10604.59874519224
 20
4146.633287088373
 30
0.0
 11
10604.59874519224
 21
4146.633287088373
 31
0.0
  0
LINE
  5
27C6D
330
747D
100
AcDbEntity
  8
細線
 48
10.0
100
AcDbLine
 10
10995.71710427129
 20
4182.918435993567
 30
0.0
 11
10995.71710427129
 21
3982.918435993568
 31
0.0
  0
LINE
  5
27C6E
330
747D
100
AcDbEntity
  8
部品1
 48
50.0
100
AcDbLine
 10
10795.09874519224
 20
4003.758287088373
 30
0.0
 11
10795.09874519224
 21
4003.758287088373
 31
0.0
  0
LINE
  5
27C6F
330
747D
100
AcDbEntity
  8
部品1
 48
50.0
100
AcDbLine
 10
10771.28624519224
 20
4003.758287088373
 30
0.0
 11
10771.28624519224
 21
4003.758287088373
 31
0.0
  0
LINE
  5
27C70
330
747D
100
AcDbEntity
  8
部品1
 48
50.0
100
AcDbLine
 10
10747.47374519224
 20
4003.758287088373
 30
0.0
 11
10747.47374519224
 21
4003.758287088373
 31
0.0
  0
LINE
  5
27C71
330
747D
100
AcDbEntity
  8
部品1
 48
50.0
100
AcDbLine
 10
10723.66124519224
 20
4003.758287088373
 30
0.0
 11
10723.66124519224
 21
4003.758287088373
 31
0.0
  0
LINE
  5
27C72
330
747D
100
AcDbEntity
  8
部品1
 48
50.0
100
AcDbLine
 10
10699.84874519224
 20
4003.758287088373
 30
0.0
 11
10699.84874519224
 21
4003.758287088373
 31
0.0
  0
LINE
  5
27C73
330
747D
100
AcDbEntity
  8
部品1
 48
50.0
100
AcDbLine
 10
10807.00499519224
 20
4027.570787088373
 30
0.0
 11
10807.00499519224
 21
4027.570787088373
 31
0.0
  0
LINE
  5
27C74
330
747D
100
AcDbEntity
  8
部品1
 48
50.0
100
AcDbLine
 10
10783.19249519224
 20
4027.570787088373
 30
0.0
 11
10783.19249519224
 21
4027.570787088373
 31
0.0
  0
LINE
  5
27C75
330
747D
100
AcDbEntity
  8
部品1
 48
50.0
100
AcDbLine
 10
10759.37999519224
 20
4027.570787088373
 30
0.0
 11
10759.37999519224
 21
4027.570787088373
 31
0.0
  0
LINE
  5
27C76
330
747D
100
AcDbEntity
  8
部品1
 48
50.0
100
AcDbLine
 10
10735.56749519224
 20
4027.570787088373
 30
0.0
 11
10735.56749519224
 21
4027.570787088373
 31
0.0
  0
LINE
  5
27C77
330
747D
100
AcDbEntity
  8
部品1
 48
50.0
100
AcDbLine
 10
10711.75499519224
 20
4027.570787088373
 30
0.0
 11
10711.75499519224
 21
4027.570787088373
 31
0.0
  0
LINE
  5
27C78
330
747D
100
AcDbEntity
  8
部品1
 48
50.0
100
AcDbLine
 10
10687.94249519224
 20
4027.570787088373
 30
0.0
 11
10687.94249519224
 21
4027.570787088373
 31
0.0
  0
LINE
  5
27C79
330
747D
100
AcDbEntity
  8
部品1
 48
50.0
100
AcDbLine
 10
10795.09874519224
 20
4051.383287088373
 30
0.0
 11
10795.09874519224
 21
4051.383287088373
 31
0.0
  0
LINE
  5
27C7A
330
747D
100
AcDbEntity
  8
部品1
 48
50.0
100
AcDbLine
 10
10771.28624519224
 20
4051.383287088373
 30
0.0
 11
10771.28624519224
 21
4051.383287088373
 31
0.0
  0
LINE
  5
27C7B
330
747D
100
AcDbEntity
  8
部品1
 48
50.0
100
AcDbLine
 10
10747.47374519224
 20
4051.383287088373
 30
0.0
 11
10747.47374519224
 21
4051.383287088373
 31
0.0
  0
LINE
  5
27C7C
330
747D
100
AcDbEntity
  8
部品1
 48
50.0
100
AcDbLine
 10
10723.66124519224
 20
4051.383287088373
 30
0.0
 11
10723.66124519224
 21
4051.383287088373
 31
0.0
  0
LINE
  5
27C7D
330
747D
100
AcDbEntity
  8
部品1
 48
50.0
100
AcDbLine
 10
10699.84874519224
 20
4051.383287088373
 30
0.0
 11
10699.84874519224
 21
4051.383287088373
 31
0.0
  0
LINE
  5
27C7E
330
747D
100
AcDbEntity
  8
部品1
 48
50.0
100
AcDbLine
 10
10807.00499519224
 20
4075.195787088373
 30
0.0
 11
10807.00499519224
 21
4075.195787088373
 31
0.0
  0
LINE
  5
27C7F
330
747D
100
AcDbEntity
  8
部品1
 48
50.0
100
AcDbLine
 10
10783.19249519224
 20
4075.195787088373
 30
0.0
 11
10783.19249519224
 21
4075.195787088373
 31
0.0
  0
LINE
  5
27C80
330
747D
100
AcDbEntity
  8
部品1
 48
50.0
100
AcDbLine
 10
10759.37999519224
 20
4075.195787088373
 30
0.0
 11
10759.37999519224
 21
4075.195787088373
 31
0.0
  0
LINE
  5
27C81
330
747D
100
AcDbEntity
  8
部品1
 48
50.0
100
AcDbLine
 10
10735.56749519224
 20
4075.195787088373
 30
0.0
 11
10735.56749519224
 21
4075.195787088373
 31
0.0
  0
LINE
  5
27C82
330
747D
100
AcDbEntity
  8
部品1
 48
50.0
100
AcDbLine
 10
10711.75499519224
 20
4075.195787088373
 30
0.0
 11
10711.75499519224
 21
4075.195787088373
 31
0.0
  0
LINE
  5
27C83
330
747D
100
AcDbEntity
  8
部品1
 48
50.0
100
AcDbLine
 10
10687.94249519224
 20
4075.195787088373
 30
0.0
 11
10687.94249519224
 21
4075.195787088373
 31
0.0
  0
LINE
  5
27C84
330
747D
100
AcDbEntity
  8
部品1
 48
50.0
100
AcDbLine
 10
10795.09874519224
 20
4099.008287088373
 30
0.0
 11
10795.09874519224
 21
4099.008287088373
 31
0.0
  0
LINE
  5
27C85
330
747D
100
AcDbEntity
  8
部品1
 48
50.0
100
AcDbLine
 10
10771.28624519224
 20
4099.008287088373
 30
0.0
 11
10771.28624519224
 21
4099.008287088373
 31
0.0
  0
LINE
  5
27C86
330
747D
100
AcDbEntity
  8
部品1
 48
50.0
100
AcDbLine
 10
10747.47374519224
 20
4099.008287088373
 30
0.0
 11
10747.47374519224
 21
4099.008287088373
 31
0.0
  0
LINE
  5
27C87
330
747D
100
AcDbEntity
  8
部品1
 48
50.0
100
AcDbLine
 10
10723.66124519224
 20
4099.008287088373
 30
0.0
 11
10723.66124519224
 21
4099.008287088373
 31
0.0
  0
LINE
  5
27C88
330
747D
100
AcDbEntity
  8
部品1
 48
50.0
100
AcDbLine
 10
10699.84874519224
 20
4099.008287088373
 30
0.0
 11
10699.84874519224
 21
4099.008287088373
 31
0.0
  0
LINE
  5
27C89
330
747D
100
AcDbEntity
  8
部品1
 48
50.0
100
AcDbLine
 10
10807.00499519224
 20
4122.820787088373
 30
0.0
 11
10807.00499519224
 21
4122.820787088373
 31
0.0
  0
LINE
  5
27C8A
330
747D
100
AcDbEntity
  8
部品1
 48
50.0
100
AcDbLine
 10
10783.19249519224
 20
4122.820787088373
 30
0.0
 11
10783.19249519224
 21
4122.820787088373
 31
0.0
  0
LINE
  5
27C8B
330
747D
100
AcDbEntity
  8
部品1
 48
50.0
100
AcDbLine
 10
10759.37999519224
 20
4122.820787088373
 30
0.0
 11
10759.37999519224
 21
4122.820787088373
 31
0.0
  0
LINE
  5
27C8C
330
747D
100
AcDbEntity
  8
部品1
 48
50.0
100
AcDbLine
 10
10735.56749519224
 20
4122.820787088373
 30
0.0
 11
10735.56749519224
 21
4122.820787088373
 31
0.0
  0
LINE
  5
27C8D
330
747D
100
AcDbEntity
  8
部品1
 48
50.0
100
AcDbLine
 10
10711.75499519224
 20
4122.820787088373
 30
0.0
 11
10711.75499519224
 21
4122.820787088373
 31
0.0
  0
LINE
  5
27C8E
330
747D
100
AcDbEntity
  8
部品1
 48
50.0
100
AcDbLine
 10
10687.94249519224
 20
4122.820787088373
 30
0.0
 11
10687.94249519224
 21
4122.820787088373
 31
0.0
  0
LINE
  5
27C8F
330
747D
100
AcDbEntity
  8
部品1
 48
50.0
100
AcDbLine
 10
10676.03624519224
 20
4003.758287088373
 30
0.0
 11
10676.03624519224
 21
4003.758287088373
 31
0.0
  0
LINE
  5
27C90
330
747D
100
AcDbEntity
  8
部品1
 48
50.0
100
AcDbLine
 10
10652.22374519224
 20
4003.758287088373
 30
0.0
 11
10652.22374519224
 21
4003.758287088373
 31
0.0
  0
LINE
  5
27C91
330
747D
100
AcDbEntity
  8
部品1
 48
50.0
100
AcDbLine
 10
10628.41124519224
 20
4003.758287088373
 30
0.0
 11
10628.41124519224
 21
4003.758287088373
 31
0.0
  0
LINE
  5
27C92
330
747D
100
AcDbEntity
  8
部品1
 48
50.0
100
AcDbLine
 10
10664.12999519224
 20
4027.570787088373
 30
0.0
 11
10664.12999519224
 21
4027.570787088373
 31
0.0
  0
LINE
  5
27C93
330
747D
100
AcDbEntity
  8
部品1
 48
50.0
100
AcDbLine
 10
10640.31749519224
 20
4027.570787088373
 30
0.0
 11
10640.31749519224
 21
4027.570787088373
 31
0.0
  0
LINE
  5
27C94
330
747D
100
AcDbEntity
  8
部品1
 48
50.0
100
AcDbLine
 10
10616.50499519224
 20
4027.570787088373
 30
0.0
 11
10616.50499519224
 21
4027.570787088373
 31
0.0
  0
LINE
  5
27C95
330
747D
100
AcDbEntity
  8
部品1
 48
50.0
100
AcDbLine
 10
10676.03624519224
 20
4051.383287088373
 30
0.0
 11
10676.03624519224
 21
4051.383287088373
 31
0.0
  0
LINE
  5
27C96
330
747D
100
AcDbEntity
  8
部品1
 48
50.0
100
AcDbLine
 10
10652.22374519224
 20
4051.383287088373
 30
0.0
 11
10652.22374519224
 21
4051.383287088373
 31
0.0
  0
LINE
  5
27C97
330
747D
100
AcDbEntity
  8
部品1
 48
50.0
100
AcDbLine
 10
10628.41124519224
 20
4051.383287088373
 30
0.0
 11
10628.41124519224
 21
4051.383287088373
 31
0.0
  0
LINE
  5
27C98
330
747D
100
AcDbEntity
  8
部品1
 48
50.0
100
AcDbLine
 10
10664.12999519224
 20
4075.195787088373
 30
0.0
 11
10664.12999519224
 21
4075.195787088373
 31
0.0
  0
LINE
  5
27C99
330
747D
100
AcDbEntity
  8
部品1
 48
50.0
100
AcDbLine
 10
10640.31749519224
 20
4075.195787088373
 30
0.0
 11
10640.31749519224
 21
4075.195787088373
 31
0.0
  0
LINE
  5
27C9A
330
747D
100
AcDbEntity
  8
部品1
 48
50.0
100
AcDbLine
 10
10616.50499519224
 20
4075.195787088373
 30
0.0
 11
10616.50499519224
 21
4075.195787088373
 31
0.0
  0
LINE
  5
27C9B
330
747D
100
AcDbEntity
  8
部品1
 48
50.0
100
AcDbLine
 10
10676.03624519224
 20
4099.008287088373
 30
0.0
 11
10676.03624519224
 21
4099.008287088373
 31
0.0
  0
LINE
  5
27C9C
330
747D
100
AcDbEntity
  8
部品1
 48
50.0
100
AcDbLine
 10
10652.22374519224
 20
4099.008287088373
 30
0.0
 11
10652.22374519224
 21
4099.008287088373
 31
0.0
  0
LINE
  5
27C9D
330
747D
100
AcDbEntity
  8
部品1
 48
50.0
100
AcDbLine
 10
10628.41124519224
 20
4099.008287088373
 30
0.0
 11
10628.41124519224
 21
4099.008287088373
 31
0.0
  0
LINE
  5
27C9E
330
747D
100
AcDbEntity
  8
部品1
 48
50.0
100
AcDbLine
 10
10664.12999519224
 20
4122.820787088373
 30
0.0
 11
10664.12999519224
 21
4122.820787088373
 31
0.0
  0
LINE
  5
27C9F
330
747D
100
AcDbEntity
  8
部品1
 48
50.0
100
AcDbLine
 10
10640.31749519224
 20
4122.820787088373
 30
0.0
 11
10640.31749519224
 21
4122.820787088373
 31
0.0
  0
LINE
  5
27CA0
330
747D
100
AcDbEntity
  8
部品1
 48
50.0
100
AcDbLine
 10
10616.50499519224
 20
4122.820787088373
 30
0.0
 11
10616.50499519224
 21
4122.820787088373
 31
0.0
  0
LINE
  5
27CA1
330
747D
100
AcDbEntity
  8
部品1
 48
50.0
100
AcDbLine
 10
10985.59874519224
 20
4003.758287088373
 30
0.0
 11
10985.59874519224
 21
4003.758287088373
 31
0.0
  0
LINE
  5
27CA2
330
747D
100
AcDbEntity
  8
部品1
 48
50.0
100
AcDbLine
 10
10961.78624519224
 20
4003.758287088373
 30
0.0
 11
10961.78624519224
 21
4003.758287088373
 31
0.0
  0
LINE
  5
27CA3
330
747D
100
AcDbEntity
  8
部品1
 48
50.0
100
AcDbLine
 10
10937.97374519224
 20
4003.758287088373
 30
0.0
 11
10937.97374519224
 21
4003.758287088373
 31
0.0
  0
LINE
  5
27CA4
330
747D
100
AcDbEntity
  8
部品1
 48
50.0
100
AcDbLine
 10
10914.16124519224
 20
4003.758287088373
 30
0.0
 11
10914.16124519224
 21
4003.758287088373
 31
0.0
  0
LINE
  5
27CA5
330
747D
100
AcDbEntity
  8
部品1
 48
50.0
100
AcDbLine
 10
10890.34874519224
 20
4003.758287088373
 30
0.0
 11
10890.34874519224
 21
4003.758287088373
 31
0.0
  0
LINE
  5
27CA6
330
747D
100
AcDbEntity
  8
部品1
 48
50.0
100
AcDbLine
 10
10973.69249519224
 20
4027.570787088373
 30
0.0
 11
10973.69249519224
 21
4027.570787088373
 31
0.0
  0
LINE
  5
27CA7
330
747D
100
AcDbEntity
  8
部品1
 48
50.0
100
AcDbLine
 10
10949.87999519224
 20
4027.570787088373
 30
0.0
 11
10949.87999519224
 21
4027.570787088373
 31
0.0
  0
LINE
  5
27CA8
330
747D
100
AcDbEntity
  8
部品1
 48
50.0
100
AcDbLine
 10
10926.06749519224
 20
4027.570787088373
 30
0.0
 11
10926.06749519224
 21
4027.570787088373
 31
0.0
  0
LINE
  5
27CA9
330
747D
100
AcDbEntity
  8
部品1
 48
50.0
100
AcDbLine
 10
10902.25499519224
 20
4027.570787088373
 30
0.0
 11
10902.25499519224
 21
4027.570787088373
 31
0.0
  0
LINE
  5
27CAA
330
747D
100
AcDbEntity
  8
部品1
 48
50.0
100
AcDbLine
 10
10985.59874519224
 20
4051.383287088373
 30
0.0
 11
10985.59874519224
 21
4051.383287088373
 31
0.0
  0
LINE
  5
27CAB
330
747D
100
AcDbEntity
  8
部品1
 48
50.0
100
AcDbLine
 10
10961.78624519224
 20
4051.383287088373
 30
0.0
 11
10961.78624519224
 21
4051.383287088373
 31
0.0
  0
LINE
  5
27CAC
330
747D
100
AcDbEntity
  8
部品1
 48
50.0
100
AcDbLine
 10
10937.97374519224
 20
4051.383287088373
 30
0.0
 11
10937.97374519224
 21
4051.383287088373
 31
0.0
  0
LINE
  5
27CAD
330
747D
100
AcDbEntity
  8
部品1
 48
50.0
100
AcDbLine
 10
10914.16124519224
 20
4051.383287088373
 30
0.0
 11
10914.16124519224
 21
4051.383287088373
 31
0.0
  0
LINE
  5
27CAE
330
747D
100
AcDbEntity
  8
部品1
 48
50.0
100
AcDbLine
 10
10890.34874519224
 20
4051.383287088373
 30
0.0
 11
10890.34874519224
 21
4051.383287088373
 31
0.0
  0
LINE
  5
27CAF
330
747D
100
AcDbEntity
  8
部品1
 48
50.0
100
AcDbLine
 10
10973.69249519224
 20
4075.195787088373
 30
0.0
 11
10973.69249519224
 21
4075.195787088373
 31
0.0
  0
LINE
  5
27CB0
330
747D
100
AcDbEntity
  8
部品1
 48
50.0
100
AcDbLine
 10
10949.87999519224
 20
4075.195787088373
 30
0.0
 11
10949.87999519224
 21
4075.195787088373
 31
0.0
  0
LINE
  5
27CB1
330
747D
100
AcDbEntity
  8
部品1
 48
50.0
100
AcDbLine
 10
10926.06749519224
 20
4075.195787088373
 30
0.0
 11
10926.06749519224
 21
4075.195787088373
 31
0.0
  0
LINE
  5
27CB2
330
747D
100
AcDbEntity
  8
部品1
 48
50.0
100
AcDbLine
 10
10902.25499519224
 20
4075.195787088373
 30
0.0
 11
10902.25499519224
 21
4075.195787088373
 31
0.0
  0
LINE
  5
27CB3
330
747D
100
AcDbEntity
  8
部品1
 48
50.0
100
AcDbLine
 10
10985.59874519224
 20
4099.008287088373
 30
0.0
 11
10985.59874519224
 21
4099.008287088373
 31
0.0
  0
LINE
  5
27CB4
330
747D
100
AcDbEntity
  8
部品1
 48
50.0
100
AcDbLine
 10
10961.78624519224
 20
4099.008287088373
 30
0.0
 11
10961.78624519224
 21
4099.008287088373
 31
0.0
  0
LINE
  5
27CB5
330
747D
100
AcDbEntity
  8
部品1
 48
50.0
100
AcDbLine
 10
10937.97374519224
 20
4099.008287088373
 30
0.0
 11
10937.97374519224
 21
4099.008287088373
 31
0.0
  0
LINE
  5
27CB6
330
747D
100
AcDbEntity
  8
部品1
 48
50.0
100
AcDbLine
 10
10914.16124519224
 20
4099.008287088373
 30
0.0
 11
10914.16124519224
 21
4099.008287088373
 31
0.0
  0
LINE
  5
27CB7
330
747D
100
AcDbEntity
  8
部品1
 48
50.0
100
AcDbLine
 10
10890.34874519224
 20
4099.008287088373
 30
0.0
 11
10890.34874519224
 21
4099.008287088373
 31
0.0
  0
LINE
  5
27CB8
330
747D
100
AcDbEntity
  8
部品1
 48
50.0
100
AcDbLine
 10
10973.69249519224
 20
4122.820787088373
 30
0.0
 11
10973.69249519224
 21
4122.820787088373
 31
0.0
  0
LINE
  5
27CB9
330
747D
100
AcDbEntity
  8
部品1
 48
50.0
100
AcDbLine
 10
10949.87999519224
 20
4122.820787088373
 30
0.0
 11
10949.87999519224
 21
4122.820787088373
 31
0.0
  0
LINE
  5
27CBA
330
747D
100
AcDbEntity
  8
部品1
 48
50.0
100
AcDbLine
 10
10926.06749519224
 20
4122.820787088373
 30
0.0
 11
10926.06749519224
 21
4122.820787088373
 31
0.0
  0
LINE
  5
27CBB
330
747D
100
AcDbEntity
  8
部品1
 48
50.0
100
AcDbLine
 10
10902.25499519224
 20
4122.820787088373
 30
0.0
 11
10902.25499519224
 21
4122.820787088373
 31
0.0
  0
LINE
  5
27CBC
330
747D
100
AcDbEntity
  8
部品1
 48
50.0
100
AcDbLine
 10
10866.53624519224
 20
4003.758287088373
 30
0.0
 11
10866.53624519224
 21
4003.758287088373
 31
0.0
  0
LINE
  5
27CBD
330
747D
100
AcDbEntity
  8
部品1
 48
50.0
100
AcDbLine
 10
10842.72374519224
 20
4003.758287088373
 30
0.0
 11
10842.72374519224
 21
4003.758287088373
 31
0.0
  0
LINE
  5
27CBE
330
747D
100
AcDbEntity
  8
部品1
 48
50.0
100
AcDbLine
 10
10818.91124519224
 20
4003.758287088373
 30
0.0
 11
10818.91124519224
 21
4003.758287088373
 31
0.0
  0
LINE
  5
27CBF
330
747D
100
AcDbEntity
  8
部品1
 48
50.0
100
AcDbLine
 10
10878.44249519224
 20
4027.570787088373
 30
0.0
 11
10878.44249519224
 21
4027.570787088373
 31
0.0
  0
LINE
  5
27CC0
330
747D
100
AcDbEntity
  8
部品1
 48
50.0
100
AcDbLine
 10
10854.62999519224
 20
4027.570787088373
 30
0.0
 11
10854.62999519224
 21
4027.570787088373
 31
0.0
  0
LINE
  5
27CC1
330
747D
100
AcDbEntity
  8
部品1
 48
50.0
100
AcDbLine
 10
10830.81749519224
 20
4027.570787088373
 30
0.0
 11
10830.81749519224
 21
4027.570787088373
 31
0.0
  0
LINE
  5
27CC2
330
747D
100
AcDbEntity
  8
部品1
 48
50.0
100
AcDbLine
 10
10866.53624519224
 20
4051.383287088373
 30
0.0
 11
10866.53624519224
 21
4051.383287088373
 31
0.0
  0
LINE
  5
27CC3
330
747D
100
AcDbEntity
  8
部品1
 48
50.0
100
AcDbLine
 10
10842.72374519224
 20
4051.383287088373
 30
0.0
 11
10842.72374519224
 21
4051.383287088373
 31
0.0
  0
LINE
  5
27CC4
330
747D
100
AcDbEntity
  8
部品1
 48
50.0
100
AcDbLine
 10
10818.91124519224
 20
4051.383287088373
 30
0.0
 11
10818.91124519224
 21
4051.383287088373
 31
0.0
  0
LINE
  5
27CC5
330
747D
100
AcDbEntity
  8
部品1
 48
50.0
100
AcDbLine
 10
10878.44249519224
 20
4075.195787088373
 30
0.0
 11
10878.44249519224
 21
4075.195787088373
 31
0.0
  0
LINE
  5
27CC6
330
747D
100
AcDbEntity
  8
部品1
 48
50.0
100
AcDbLine
 10
10854.62999519224
 20
4075.195787088373
 30
0.0
 11
10854.62999519224
 21
4075.195787088373
 31
0.0
  0
LINE
  5
27CC7
330
747D
100
AcDbEntity
  8
部品1
 48
50.0
100
AcDbLine
 10
10830.81749519224
 20
4075.195787088373
 30
0.0
 11
10830.81749519224
 21
4075.195787088373
 31
0.0
  0
LINE
  5
27CC8
330
747D
100
AcDbEntity
  8
部品1
 48
50.0
100
AcDbLine
 10
10866.53624519224
 20
4099.008287088373
 30
0.0
 11
10866.53624519224
 21
4099.008287088373
 31
0.0
  0
LINE
  5
27CC9
330
747D
100
AcDbEntity
  8
部品1
 48
50.0
100
AcDbLine
 10
10842.72374519224
 20
4099.008287088373
 30
0.0
 11
10842.72374519224
 21
4099.008287088373
 31
0.0
  0
LINE
  5
27CCA
330
747D
100
AcDbEntity
  8
部品1
 48
50.0
100
AcDbLine
 10
10818.91124519224
 20
4099.008287088373
 30
0.0
 11
10818.91124519224
 21
4099.008287088373
 31
0.0
  0
LINE
  5
27CCB
330
747D
100
AcDbEntity
  8
部品1
 48
50.0
100
AcDbLine
 10
10878.44249519224
 20
4122.820787088373
 30
0.0
 11
10878.44249519224
 21
4122.820787088373
 31
0.0
  0
LINE
  5
27CCC
330
747D
100
AcDbEntity
  8
部品1
 48
50.0
100
AcDbLine
 10
10854.62999519224
 20
4122.820787088373
 30
0.0
 11
10854.62999519224
 21
4122.820787088373
 31
0.0
  0
LINE
  5
27CCD
330
747D
100
AcDbEntity
  8
部品1
 48
50.0
100
AcDbLine
 10
10830.81749519224
 20
4122.820787088373
 30
0.0
 11
10830.81749519224
 21
4122.820787088373
 31
0.0
  0
LINE
  5
27CCE
330
747D
100
AcDbEntity
  8
部品1
 48
50.0
100
AcDbLine
 10
10795.09874519224
 20
4146.633287088373
 30
0.0
 11
10795.09874519224
 21
4146.633287088373
 31
0.0
  0
LINE
  5
27CCF
330
747D
100
AcDbEntity
  8
部品1
 48
50.0
100
AcDbLine
 10
10771.28624519224
 20
4146.633287088373
 30
0.0
 11
10771.28624519224
 21
4146.633287088373
 31
0.0
  0
LINE
  5
27CD0
330
747D
100
AcDbEntity
  8
部品1
 48
50.0
100
AcDbLine
 10
10747.47374519224
 20
4146.633287088373
 30
0.0
 11
10747.47374519224
 21
4146.633287088373
 31
0.0
  0
LINE
  5
27CD1
330
747D
100
AcDbEntity
  8
部品1
 48
50.0
100
AcDbLine
 10
10723.66124519224
 20
4146.633287088373
 30
0.0
 11
10723.66124519224
 21
4146.633287088373
 31
0.0
  0
LINE
  5
27CD2
330
747D
100
AcDbEntity
  8
部品1
 48
50.0
100
AcDbLine
 10
10699.84874519224
 20
4146.633287088373
 30
0.0
 11
10699.84874519224
 21
4146.633287088373
 31
0.0
  0
LINE
  5
27CD3
330
747D
100
AcDbEntity
  8
部品1
 48
50.0
100
AcDbLine
 10
10807.00499519224
 20
4170.445787088373
 30
0.0
 11
10807.00499519224
 21
4170.445787088373
 31
0.0
  0
LINE
  5
27CD4
330
747D
100
AcDbEntity
  8
部品1
 48
50.0
100
AcDbLine
 10
10783.19249519224
 20
4170.445787088373
 30
0.0
 11
10783.19249519224
 21
4170.445787088373
 31
0.0
  0
LINE
  5
27CD5
330
747D
100
AcDbEntity
  8
部品1
 48
50.0
100
AcDbLine
 10
10759.37999519224
 20
4170.445787088373
 30
0.0
 11
10759.37999519224
 21
4170.445787088373
 31
0.0
  0
LINE
  5
27CD6
330
747D
100
AcDbEntity
  8
部品1
 48
50.0
100
AcDbLine
 10
10735.56749519224
 20
4170.445787088373
 30
0.0
 11
10735.56749519224
 21
4170.445787088373
 31
0.0
  0
LINE
  5
27CD7
330
747D
100
AcDbEntity
  8
部品1
 48
50.0
100
AcDbLine
 10
10711.75499519224
 20
4170.445787088373
 30
0.0
 11
10711.75499519224
 21
4170.445787088373
 31
0.0
  0
LINE
  5
27CD8
330
747D
100
AcDbEntity
  8
部品1
 48
50.0
100
AcDbLine
 10
10687.94249519224
 20
4170.445787088373
 30
0.0
 11
10687.94249519224
 21
4170.445787088373
 31
0.0
  0
LINE
  5
27CD9
330
747D
100
AcDbEntity
  8
部品1
 48
50.0
100
AcDbLine
 10
10676.03624519224
 20
4146.633287088373
 30
0.0
 11
10676.03624519224
 21
4146.633287088373
 31
0.0
  0
LINE
  5
27CDA
330
747D
100
AcDbEntity
  8
部品1
 48
50.0
100
AcDbLine
 10
10652.22374519224
 20
4146.633287088373
 30
0.0
 11
10652.22374519224
 21
4146.633287088373
 31
0.0
  0
LINE
  5
27CDB
330
747D
100
AcDbEntity
  8
部品1
 48
50.0
100
AcDbLine
 10
10628.41124519224
 20
4146.633287088373
 30
0.0
 11
10628.41124519224
 21
4146.633287088373
 31
0.0
  0
LINE
  5
27CDC
330
747D
100
AcDbEntity
  8
部品1
 48
50.0
100
AcDbLine
 10
10664.12999519224
 20
4170.445787088373
 30
0.0
 11
10664.12999519224
 21
4170.445787088373
 31
0.0
  0
LINE
  5
27CDD
330
747D
100
AcDbEntity
  8
部品1
 48
50.0
100
AcDbLine
 10
10640.31749519224
 20
4170.445787088373
 30
0.0
 11
10640.31749519224
 21
4170.445787088373
 31
0.0
  0
LINE
  5
27CDE
330
747D
100
AcDbEntity
  8
部品1
 48
50.0
100
AcDbLine
 10
10616.50499519224
 20
4170.445787088373
 30
0.0
 11
10616.50499519224
 21
4170.445787088373
 31
0.0
  0
LINE
  5
27CDF
330
747D
100
AcDbEntity
  8
部品1
 48
50.0
100
AcDbLine
 10
10985.59874519224
 20
4146.633287088373
 30
0.0
 11
10985.59874519224
 21
4146.633287088373
 31
0.0
  0
LINE
  5
27CE0
330
747D
100
AcDbEntity
  8
部品1
 48
50.0
100
AcDbLine
 10
10961.78624519224
 20
4146.633287088373
 30
0.0
 11
10961.78624519224
 21
4146.633287088373
 31
0.0
  0
LINE
  5
27CE1
330
747D
100
AcDbEntity
  8
部品1
 48
50.0
100
AcDbLine
 10
10937.97374519224
 20
4146.633287088373
 30
0.0
 11
10937.97374519224
 21
4146.633287088373
 31
0.0
  0
LINE
  5
27CE2
330
747D
100
AcDbEntity
  8
部品1
 48
50.0
100
AcDbLine
 10
10914.16124519224
 20
4146.633287088373
 30
0.0
 11
10914.16124519224
 21
4146.633287088373
 31
0.0
  0
LINE
  5
27CE3
330
747D
100
AcDbEntity
  8
部品1
 48
50.0
100
AcDbLine
 10
10890.34874519224
 20
4146.633287088373
 30
0.0
 11
10890.34874519224
 21
4146.633287088373
 31
0.0
  0
LINE
  5
27CE4
330
747D
100
AcDbEntity
  8
部品1
 48
50.0
100
AcDbLine
 10
10973.69249519224
 20
4170.445787088373
 30
0.0
 11
10973.69249519224
 21
4170.445787088373
 31
0.0
  0
LINE
  5
27CE5
330
747D
100
AcDbEntity
  8
部品1
 48
50.0
100
AcDbLine
 10
10949.87999519224
 20
4170.445787088373
 30
0.0
 11
10949.87999519224
 21
4170.445787088373
 31
0.0
  0
LINE
  5
27CE6
330
747D
100
AcDbEntity
  8
部品1
 48
50.0
100
AcDbLine
 10
10926.06749519224
 20
4170.445787088373
 30
0.0
 11
10926.06749519224
 21
4170.445787088373
 31
0.0
  0
LINE
  5
27CE7
330
747D
100
AcDbEntity
  8
部品1
 48
50.0
100
AcDbLine
 10
10902.25499519224
 20
4170.445787088373
 30
0.0
 11
10902.25499519224
 21
4170.445787088373
 31
0.0
  0
LINE
  5
27CE8
330
747D
100
AcDbEntity
  8
部品1
 48
50.0
100
AcDbLine
 10
10866.53624519224
 20
4146.633287088373
 30
0.0
 11
10866.53624519224
 21
4146.633287088373
 31
0.0
  0
LINE
  5
27CE9
330
747D
100
AcDbEntity
  8
部品1
 48
50.0
100
AcDbLine
 10
10842.72374519224
 20
4146.633287088373
 30
0.0
 11
10842.72374519224
 21
4146.633287088373
 31
0.0
  0
LINE
  5
27CEA
330
747D
100
AcDbEntity
  8
部品1
 48
50.0
100
AcDbLine
 10
10818.91124519224
 20
4146.633287088373
 30
0.0
 11
10818.91124519224
 21
4146.633287088373
 31
0.0
  0
LINE
  5
27CEB
330
747D
100
AcDbEntity
  8
部品1
 48
50.0
100
AcDbLine
 10
10878.44249519224
 20
4170.445787088373
 30
0.0
 11
10878.44249519224
 21
4170.445787088373
 31
0.0
  0
LINE
  5
27CEC
330
747D
100
AcDbEntity
  8
部品1
 48
50.0
100
AcDbLine
 10
10854.62999519224
 20
4170.445787088373
 30
0.0
 11
10854.62999519224
 21
4170.445787088373
 31
0.0
  0
LINE
  5
27CED
330
747D
100
AcDbEntity
  8
部品1
 48
50.0
100
AcDbLine
 10
10830.81749519224
 20
4170.445787088373
 30
0.0
 11
10830.81749519224
 21
4170.445787088373
 31
0.0
  0
LWPOLYLINE
  5
27D86
330
747D
100
AcDbEntity
  8
細線
 48
50.0
100
AcDbPolyline
 90
        4
 70
     1
 43
0.0
 10
8843.035729496969
 20
9073.463459601569
 10
9043.035729496969
 20
9073.463459601569
 10
9043.035729496969
 20
9473.463459601569
 10
8843.035729496969
 20
9473.463459601569
  0
LWPOLYLINE
  5
27D88
330
747D
100
AcDbEntity
  8
細線
 48
50.0
100
AcDbPolyline
 90
        4
 70
     1
 43
0.0
 10
9973.535729496969
 20
9073.463459601569
 10
10173.53572949697
 20
9073.463459601569
 10
10173.53572949697
 20
9473.463459601569
 10
9973.535729496969
 20
9473.463459601569
  0
LWPOLYLINE
  5
27D89
330
747D
100
AcDbEntity
  8
細線
 48
50.0
100
AcDbPolyline
 90
        4
 70
     1
 43
0.0
 10
9973.535729496969
 20
8203.463459601568
 10
10173.53572949697
 20
8203.463459601568
 10
10173.53572949697
 20
8603.463459601568
 10
9973.535729496969
 20
8603.463459601568
  0
LWPOLYLINE
  5
27D8A
330
747D
100
AcDbEntity
  8
細線
 48
50.0
100
AcDbPolyline
 90
        4
 70
     1
 43
0.0
 10
8843.035729496969
 20
8203.463459601568
 10
9043.035729496969
 20
8203.463459601568
 10
9043.035729496969
 20
8603.463459601568
 10
8843.035729496969
 20
8603.463459601568
  0
LWPOLYLINE
  5
27D8B
330
747D
100
AcDbEntity
  8
細線
 48
50.0
100
AcDbPolyline
 90
        4
 70
     1
 43
0.0
 10
11303.53572949697
 20
9073.463459601569
 10
11503.53572949697
 20
9073.463459601569
 10
11503.53572949697
 20
9473.463459601569
 10
11303.53572949697
 20
9473.463459601569
  0
LWPOLYLINE
  5
27D8C
330
747D
100
AcDbEntity
  8
細線
 48
50.0
100
AcDbPolyline
 90
        4
 70
     1
 43
0.0
 10
11303.53572949697
 20
8203.463459601568
 10
11503.53572949697
 20
8203.463459601568
 10
11503.53572949697
 20
8603.463459601568
 10
11303.53572949697
 20
8603.463459601568
  0
LWPOLYLINE
  5
27D8D
330
747D
100
AcDbEntity
  8
細線
 48
50.0
100
AcDbPolyline
 90
        4
 70
     1
 43
0.0
 10
12434.03572949697
 20
8203.463459601568
 10
12634.03572949697
 20
8203.463459601568
 10
12634.03572949697
 20
8603.463459601568
 10
12434.03572949697
 20
8603.463459601568
  0
LWPOLYLINE
  5
27D8E
330
747D
100
AcDbEntity
  8
細線
 48
50.0
100
AcDbPolyline
 90
        4
 70
     1
 43
0.0
 10
12434.03572949697
 20
9073.463459601569
 10
12634.03572949697
 20
9073.463459601569
 10
12634.03572949697
 20
9473.463459601569
 10
12434.03572949697
 20
9473.463459601569
  0
LWPOLYLINE
  5
27D90
330
747D
100
AcDbEntity
  8
細線
 48
50.0
100
AcDbPolyline
 90
        4
 70
     1
 43
0.0
 10
12434.03572949697
 20
7868.46345960157
 10
12634.03572949697
 20
7868.46345960157
 10
12634.03572949697
 20
8068.46345960157
 10
12434.03572949697
 20
8068.46345960157
  0
LWPOLYLINE
  5
27D91
330
747D
100
AcDbEntity
  8
細線
 48
50.0
100
AcDbPolyline
 90
        4
 70
     1
 43
0.0
 10
12434.03572949696
 20
8738.463459601572
 10
12634.03572949696
 20
8738.463459601572
 10
12634.03572949696
 20
8938.463459601571
 10
12434.03572949696
 20
8938.463459601571
  0
LWPOLYLINE
  5
27D92
330
747D
100
AcDbEntity
  8
細線
 48
50.0
100
AcDbPolyline
 90
        4
 70
     1
 43
0.0
 10
12434.03572949697
 20
9608.463459601573
 10
12634.03572949697
 20
9608.463459601573
 10
12634.03572949697
 20
9808.463459601572
 10
12434.03572949697
 20
9808.463459601572
  0
LWPOLYLINE
  5
27D93
330
747D
100
AcDbEntity
  8
細線
 48
50.0
100
AcDbPolyline
 90
        4
 70
     1
 43
0.0
 10
11303.53572949697
 20
9608.463459601573
 10
11503.53572949697
 20
9608.463459601573
 10
11503.53572949697
 20
9808.463459601572
 10
11303.53572949697
 20
9808.463459601572
  0
LWPOLYLINE
  5
27D94
330
747D
100
AcDbEntity
  8
細線
 48
50.0
100
AcDbPolyline
 90
        4
 70
     1
 43
0.0
 10
11303.53572949697
 20
7868.46345960157
 10
11503.53572949697
 20
7868.46345960157
 10
11503.53572949697
 20
8068.46345960157
 10
11303.53572949697
 20
8068.46345960157
  0
LWPOLYLINE
  5
27D95
330
747D
100
AcDbEntity
  8
細線
 48
50.0
100
AcDbPolyline
 90
        4
 70
     1
 43
0.0
 10
11303.53572949697
 20
8738.463459601572
 10
11503.53572949697
 20
8738.463459601572
 10
11503.53572949697
 20
8938.463459601571
 10
11303.53572949697
 20
8938.463459601571
  0
LWPOLYLINE
  5
27D96
330
747D
100
AcDbEntity
  8
細線
 48
50.0
100
AcDbPolyline
 90
        4
 70
     1
 43
0.0
 10
9973.535729496969
 20
8738.463459601572
 10
10173.53572949697
 20
8738.463459601572
 10
10173.53572949697
 20
8938.463459601571
 10
9973.535729496969
 20
8938.463459601571
  0
LWPOLYLINE
  5
27D97
330
747D
100
AcDbEntity
  8
細線
 48
50.0
100
AcDbPolyline
 90
        4
 70
     1
 43
0.0
 10
9973.535729496969
 20
9608.463459601573
 10
10173.53572949697
 20
9608.463459601573
 10
10173.53572949697
 20
9808.463459601572
 10
9973.535729496969
 20
9808.463459601572
  0
LWPOLYLINE
  5
27D98
330
747D
100
AcDbEntity
  8
細線
 48
50.0
100
AcDbPolyline
 90
        4
 70
     1
 43
0.0
 10
9973.535729496967
 20
7868.46345960157
 10
10173.53572949696
 20
7868.46345960157
 10
10173.53572949696
 20
8068.46345960157
 10
9973.535729496967
 20
8068.46345960157
  0
LWPOLYLINE
  5
27D99
330
747D
100
AcDbEntity
  8
細線
 48
50.0
100
AcDbPolyline
 90
        4
 70
     1
 43
0.0
 10
8843.035729496966
 20
7868.46345960157
 10
9043.035729496967
 20
7868.46345960157
 10
9043.035729496967
 20
8068.46345960157
 10
8843.035729496966
 20
8068.46345960157
  0
LWPOLYLINE
  5
27D9A
330
747D
100
AcDbEntity
  8
細線
 48
50.0
100
AcDbPolyline
 90
        4
 70
     1
 43
0.0
 10
8843.035729496966
 20
8738.463459601572
 10
9043.035729496965
 20
8738.463459601572
 10
9043.035729496965
 20
8938.463459601571
 10
8843.035729496966
 20
8938.463459601571
  0
LWPOLYLINE
  5
27D9B
330
747D
100
AcDbEntity
  8
細線
 48
50.0
100
AcDbPolyline
 90
        4
 70
     1
 43
0.0
 10
8843.035729496969
 20
9608.463459601573
 10
9043.035729496969
 20
9608.463459601573
 10
9043.035729496969
 20
9808.463459601572
 10
8843.035729496969
 20
9808.463459601572
  0
LWPOLYLINE
  5
27D9C
330
747D
100
AcDbEntity
  8
部品1
 48
50.0
100
AcDbPolyline
 90
        4
 70
     1
 43
0.0
 10
10938.53572949696
 20
8303.463459601571
 10
10938.53572949696
 20
8503.463459601572
 10
10538.53572949696
 20
8503.463459601572
 10
10538.53572949696
 20
8303.463459601571
  0
LWPOLYLINE
  5
27D9D
330
747D
100
AcDbEntity
  8
部品1
 48
50.0
100
AcDbPolyline
 90
        4
 70
     1
 43
0.0
 10
10938.53572949696
 20
9173.463459601569
 10
10938.53572949696
 20
9373.463459601568
 10
10538.53572949696
 20
9373.463459601568
 10
10538.53572949696
 20
9173.463459601569
  0
LWPOLYLINE
  5
27D9E
330
747D
100
AcDbEntity
  8
部品1
 48
50.0
100
AcDbPolyline
 90
        4
 70
     1
 43
0.0
 10
11868.53572949696
 20
8303.463459601569
 10
12068.53572949696
 20
8303.463459601569
 10
12068.53572949696
 20
8503.463459601569
 10
11868.53572949696
 20
8503.463459601569
  0
LWPOLYLINE
  5
27D9F
330
747D
100
AcDbEntity
  8
部品1
 48
50.0
100
AcDbPolyline
 90
        4
 70
     1
 43
0.0
 10
11868.53572949696
 20
9173.463459601569
 10
12068.53572949696
 20
9173.463459601569
 10
12068.53572949696
 20
9373.46345960157
 10
11868.53572949696
 20
9373.46345960157
  0
LWPOLYLINE
  5
27DA0
330
747D
100
AcDbEntity
  8
部品1
 48
50.0
100
AcDbPolyline
 90
        4
 70
     1
 43
0.0
 10
9408.535729496966
 20
9173.46345960157
 10
9608.535729496965
 20
9173.46345960157
 10
9608.535729496965
 20
9373.463459601572
 10
9408.535729496966
 20
9373.463459601572
  0
LWPOLYLINE
  5
27DA1
330
747D
100
AcDbEntity
  8
部品1
 48
50.0
100
AcDbPolyline
 90
        4
 70
     1
 43
0.0
 10
9408.535729496966
 20
8303.463459601571
 10
9608.535729496965
 20
8303.463459601571
 10
9608.535729496965
 20
8503.463459601572
 10
9408.535729496966
 20
8503.463459601572
  0
HATCH
  5
27DB5
330
747D
100
AcDbEntity
  8
部品1
 48
50.0
100
AcDbHatch
 10
0.0
 20
0.0
 30
0.0
210
0.0
220
0.0
230
1.0
  2
DOTS
 70
     0
 71
     0
 91
       21
 92
        1
 93
        4
 72
     1
 10
8843.035729496969
 20
9608.463459601573
 11
9043.035729496969
 21
9608.463459601573
 72
     1
 10
9043.035729496969
 20
9608.463459601573
 11
9043.035729496969
 21
9808.463459601572
 72
     1
 10
9043.035729496969
 20
9808.463459601572
 11
8843.035729496969
 21
9808.463459601572
 72
     1
 10
8843.035729496969
 20
9808.463459601572
 11
8843.035729496969
 21
9608.463459601573
 97
        0
 92
        1
 93
        4
 72
     1
 10
8843.035729496969
 20
9073.463459601569
 11
9043.035729496969
 21
9073.463459601569
 72
     1
 10
9043.035729496969
 20
9073.463459601569
 11
9043.035729496969
 21
9473.463459601569
 72
     1
 10
9043.035729496969
 20
9473.463459601569
 11
8843.035729496969
 21
9473.463459601569
 72
     1
 10
8843.035729496969
 20
9473.463459601569
 11
8843.035729496969
 21
9073.463459601569
 97
        0
 92
        1
 93
        4
 72
     1
 10
8843.035729496966
 20
8738.463459601572
 11
9043.035729496965
 21
8738.463459601572
 72
     1
 10
9043.035729496965
 20
8738.463459601572
 11
9043.035729496965
 21
8938.463459601571
 72
     1
 10
9043.035729496965
 20
8938.463459601571
 11
8843.035729496966
 21
8938.463459601571
 72
     1
 10
8843.035729496966
 20
8938.463459601571
 11
8843.035729496966
 21
8738.463459601572
 97
        0
 92
        1
 93
        4
 72
     1
 10
8843.035729496969
 20
8203.463459601568
 11
9043.035729496969
 21
8203.463459601568
 72
     1
 10
9043.035729496969
 20
8203.463459601568
 11
9043.035729496969
 21
8603.463459601568
 72
     1
 10
9043.035729496969
 20
8603.463459601568
 11
8843.035729496969
 21
8603.463459601568
 72
     1
 10
8843.035729496969
 20
8603.463459601568
 11
8843.035729496969
 21
8203.463459601568
 97
        0
 92
        1
 93
        4
 72
     1
 10
8843.035729496966
 20
7868.46345960157
 11
9043.035729496967
 21
7868.46345960157
 72
     1
 10
9043.035729496967
 20
7868.46345960157
 11
9043.035729496967
 21
8068.46345960157
 72
     1
 10
9043.035729496967
 20
8068.46345960157
 11
8843.035729496966
 21
8068.46345960157
 72
     1
 10
8843.035729496966
 20
8068.46345960157
 11
8843.035729496966
 21
7868.46345960157
 97
        0
 92
        1
 93
        4
 72
     1
 10
9973.535729496967
 20
7868.46345960157
 11
10173.53572949696
 21
7868.46345960157
 72
     1
 10
10173.53572949696
 20
7868.46345960157
 11
10173.53572949696
 21
8068.46345960157
 72
     1
 10
10173.53572949696
 20
8068.46345960157
 11
9973.535729496967
 21
8068.46345960157
 72
     1
 10
9973.535729496967
 20
8068.46345960157
 11
9973.535729496967
 21
7868.46345960157
 97
        0
 92
        1
 93
        4
 72
     1
 10
9973.535729496969
 20
8203.463459601568
 11
10173.53572949697
 21
8203.463459601568
 72
     1
 10
10173.53572949697
 20
8203.463459601568
 11
10173.53572949697
 21
8603.463459601568
 72
     1
 10
10173.53572949697
 20
8603.463459601568
 11
9973.535729496969
 21
8603.463459601568
 72
     1
 10
9973.535729496969
 20
8603.463459601568
 11
9973.535729496969
 21
8203.463459601568
 97
        0
 92
        1
 93
        4
 72
     1
 10
9973.535729496969
 20
8738.463459601572
 11
10173.53572949697
 21
8738.463459601572
 72
     1
 10
10173.53572949697
 20
8738.463459601572
 11
10173.53572949697
 21
8938.463459601571
 72
     1
 10
10173.53572949697
 20
8938.463459601571
 11
9973.535729496969
 21
8938.463459601571
 72
     1
 10
9973.535729496969
 20
8938.463459601571
 11
9973.535729496969
 21
8738.463459601572
 97
        0
 92
        1
 93
        4
 72
     1
 10
9973.535729496969
 20
9073.463459601569
 11
10173.53572949697
 21
9073.463459601569
 72
     1
 10
10173.53572949697
 20
9073.463459601569
 11
10173.53572949697
 21
9473.463459601569
 72
     1
 10
10173.53572949697
 20
9473.463459601569
 11
9973.535729496969
 21
9473.463459601569
 72
     1
 10
9973.535729496969
 20
9473.463459601569
 11
9973.535729496969
 21
9073.463459601569
 97
        0
 92
        1
 93
        4
 72
     1
 10
9973.535729496969
 20
9608.463459601573
 11
10173.53572949697
 21
9608.463459601573
 72
     1
 10
10173.53572949697
 20
9608.463459601573
 11
10173.53572949697
 21
9808.463459601572
 72
     1
 10
10173.53572949697
 20
9808.463459601572
 11
9973.535729496969
 21
9808.463459601572
 72
     1
 10
9973.535729496969
 20
9808.463459601572
 11
9973.535729496969
 21
9608.463459601573
 97
        0
 92
        1
 93
        4
 72
     1
 10
11303.53572949697
 20
9608.463459601573
 11
11503.53572949697
 21
9608.463459601573
 72
     1
 10
11503.53572949697
 20
9608.463459601573
 11
11503.53572949697
 21
9808.463459601572
 72
     1
 10
11503.53572949697
 20
9808.463459601572
 11
11303.53572949697
 21
9808.463459601572
 72
     1
 10
11303.53572949697
 20
9808.463459601572
 11
11303.53572949697
 21
9608.463459601573
 97
        0
 92
        1
 93
        4
 72
     1
 10
11303.53572949697
 20
9073.463459601569
 11
11503.53572949697
 21
9073.463459601569
 72
     1
 10
11503.53572949697
 20
9073.463459601569
 11
11503.53572949697
 21
9473.463459601569
 72
     1
 10
11503.53572949697
 20
9473.463459601569
 11
11303.53572949697
 21
9473.463459601569
 72
     1
 10
11303.53572949697
 20
9473.463459601569
 11
11303.53572949697
 21
9073.463459601569
 97
        0
 92
        1
 93
        4
 72
     1
 10
11303.53572949697
 20
8738.463459601572
 11
11503.53572949697
 21
8738.463459601572
 72
     1
 10
11503.53572949697
 20
8738.463459601572
 11
11503.53572949697
 21
8938.463459601571
 72
     1
 10
11503.53572949697
 20
8938.463459601571
 11
11303.53572949697
 21
8938.463459601571
 72
     1
 10
11303.53572949697
 20
8938.463459601571
 11
11303.53572949697
 21
8738.463459601572
 97
        0
 92
        1
 93
        4
 72
     1
 10
11303.53572949697
 20
8203.463459601568
 11
11503.53572949697
 21
8203.463459601568
 72
     1
 10
11503.53572949697
 20
8203.463459601568
 11
11503.53572949697
 21
8603.463459601568
 72
     1
 10
11503.53572949697
 20
8603.463459601568
 11
11303.53572949697
 21
8603.463459601568
 72
     1
 10
11303.53572949697
 20
8603.463459601568
 11
11303.53572949697
 21
8203.463459601568
 97
        0
 92
        1
 93
        4
 72
     1
 10
11303.53572949697
 20
7868.46345960157
 11
11503.53572949697
 21
7868.46345960157
 72
     1
 10
11503.53572949697
 20
7868.46345960157
 11
11503.53572949697
 21
8068.46345960157
 72
     1
 10
11503.53572949697
 20
8068.46345960157
 11
11303.53572949697
 21
8068.46345960157
 72
     1
 10
11303.53572949697
 20
8068.46345960157
 11
11303.53572949697
 21
7868.46345960157
 97
        0
 92
        1
 93
        4
 72
     1
 10
12434.03572949697
 20
7868.46345960157
 11
12634.03572949697
 21
7868.46345960157
 72
     1
 10
12634.03572949697
 20
7868.46345960157
 11
12634.03572949697
 21
8068.46345960157
 72
     1
 10
12634.03572949697
 20
8068.46345960157
 11
12434.03572949697
 21
8068.46345960157
 72
     1
 10
12434.03572949697
 20
8068.46345960157
 11
12434.03572949697
 21
7868.46345960157
 97
        0
 92
        1
 93
        4
 72
     1
 10
12434.03572949697
 20
8203.463459601568
 11
12634.03572949697
 21
8203.463459601568
 72
     1
 10
12634.03572949697
 20
8203.463459601568
 11
12634.03572949697
 21
8603.463459601568
 72
     1
 10
12634.03572949697
 20
8603.463459601568
 11
12434.03572949697
 21
8603.463459601568
 72
     1
 10
12434.03572949697
 20
8603.463459601568
 11
12434.03572949697
 21
8203.463459601568
 97
        0
 92
        1
 93
        4
 72
     1
 10
12434.03572949696
 20
8738.463459601572
 11
12634.03572949696
 21
8738.463459601572
 72
     1
 10
12634.03572949696
 20
8738.463459601572
 11
12634.03572949696
 21
8938.463459601571
 72
     1
 10
12634.03572949696
 20
8938.463459601571
 11
12434.03572949696
 21
8938.463459601571
 72
     1
 10
12434.03572949696
 20
8938.463459601571
 11
12434.03572949696
 21
8738.463459601572
 97
        0
 92
        1
 93
        4
 72
     1
 10
12434.03572949697
 20
9073.463459601569
 11
12634.03572949697
 21
9073.463459601569
 72
     1
 10
12634.03572949697
 20
9073.463459601569
 11
12634.03572949697
 21
9473.463459601569
 72
     1
 10
12634.03572949697
 20
9473.463459601569
 11
12434.03572949697
 21
9473.463459601569
 72
     1
 10
12434.03572949697
 20
9473.463459601569
 11
12434.03572949697
 21
9073.463459601569
 97
        0
 92
        1
 93
        4
 72
     1
 10
12434.03572949697
 20
9608.463459601573
 11
12634.03572949697
 21
9608.463459601573
 72
     1
 10
12634.03572949697
 20
9608.463459601573
 11
12634.03572949697
 21
9808.463459601572
 72
     1
 10
12634.03572949697
 20
9808.463459601572
 11
12434.03572949697
 21
9808.463459601572
 72
     1
 10
12434.03572949697
 20
9808.463459601572
 11
12434.03572949697
 21
9608.463459601573
 97
        0
 92
       48
 93
        1
 72
     1
 10
8993.03572949697
 20
9608.463459601573
 11
8893.03572949697
 21
9608.463459601573
 97
        0
 75
     0
 76
     1
 52
0.0
 41
20.0
 77
     0
 78
     1
 53
0.0
 43
0.0
 44
0.0
 45
15.875
 46
31.75
 79
     2
 49
0.0
 49
-31.75
 98
        1
 10
0.0
 20
0.0
  0
LINE
  5
27DB6
330
747D
100
AcDbEntity
  8
想像線
 48
20.0
100
AcDbLine
 10
8922.535729496965
 20
7603.463459601569
 30
0.0
 11
9408.535729496966
 21
7603.463459601572
 31
0.0
  0
LINE
  5
27DB7
330
747D
100
AcDbEntity
  8
細線
 48
50.0
100
AcDbLine
 10
9561.117286149684
 20
7538.46345960157
 30
0.0
 11
9608.535729496963
 21
7585.881902948855
 31
0.0
  0
LINE
  5
27DB8
330
747D
100
AcDbEntity
  8
想像線
 48
20.0
100
AcDbLine
 10
9608.535729496963
 20
7603.463459601569
 30
0.0
 11
10675.53572949696
 21
7603.463459601569
 31
0.0
  0
HATCH
  5
27DDC
330
747D
100
AcDbEntity
  8
寸法
 48
50.0
100
AcDbHatch
 10
0.0
 20
0.0
 30
0.0
210
0.0
220
0.0
230
1.0
  2
DOTS
 70
     0
 71
     0
 91
        2
 92
        7
 72
     0
 73
     1
 93
        4
 10
10675.53572949696
 20
7603.463459601569
 10
9608.535729496963
 20
7603.463459601569
 10
9608.535729496963
 20
7538.463459601567
 10
10675.53572949696
 20
7538.463459601574
 97
        0
 92
        7
 72
     0
 73
     1
 93
        4
 10
9408.535729496966
 20
7603.46345960157
 10
8922.535729496965
 20
7603.463459601569
 10
8922.535729496965
 20
7538.463459601564
 10
9408.535729496966
 20
7538.463459601569
 97
        0
 75
     0
 76
     1
 52
0.0
 41
10.0
 77
     0
 78
     1
 53
0.0
 43
0.0
 44
0.0
 45
7.9375
 46
15.875
 79
     2
 49
0.0
 49
-15.875
 47
5.66461192581564
 98
        2
 10
9807.881792050284
 20
7579.347840114671
 10
9116.506675842867
 20
7579.347840114671
  0
ENDSEC
  0
SECTION
  2
OBJECTS
  0
DICTIONARY
  5
7471
330
0
100
AcDbDictionary
281
     1
  3
ACAD_COLOR
350
1DAF5
  3
ACAD_GROUP
350
7472
  3
ACAD_LAYOUT
350
1DAF6
  3
ACAD_MATERIAL
350
1DAF4
  3
ACAD_MLINESTYLE
350
7473
  3
ACAD_PLOTSETTINGS
350
1DAF7
  3
ACAD_PLOTSTYLENAME
350
1DAF2
  3
ACDBHEADERROUNDTRIPXREC
350
27DF3
  3
ACDBVARIABLEDICTIONARY
350
1152B
  3
CONTENTDICTIONARY
350
E71C
  3
DRAWINGVARIABLESDICT
350
F3B9
  0
DICTIONARY
  5
2233A
330
7467
100
AcDbDictionary
280
     1
281
     1
  3
ACAD_LAYERSTATES
360
2233B
  0
DICTIONARY
  5
1DAF5
102
{ACAD_REACTORS
330
7471
102
}
330
7471
100
AcDbDictionary
281
     1
  0
DICTIONARY
  5
7472
102
{ACAD_REACTORS
330
7471
102
}
330
7471
100
AcDbDictionary
281
     1
  3
*A1
350
24FBF
  3
*A2
350
260C6
  3
*A3
350
269B6
  3
*A4
350
27723
  0
DICTIONARY
  5
1DAF6
102
{ACAD_REACTORS
330
7471
102
}
330
7471
100
AcDbDictionary
281
     1
  3
Model
350
1DAF8
  3
レイアウト1
350
1DAF9
  0
DICTIONARY
  5
1DAF4
102
{ACAD_REACTORS
330
7471
102
}
330
7471
100
AcDbDictionary
281
     1
  0
DICTIONARY
  5
7473
102
{ACAD_REACTORS
330
7471
102
}
330
7471
100
AcDbDictionary
281
     1
  3
STANDARD
350
7480
  0
DICTIONARY
  5
1DAF7
102
{ACAD_REACTORS
330
7471
102
}
330
7471
100
AcDbDictionary
281
     1
  0
ACDBDICTIONARYWDFLT
  5
1DAF2
102
{ACAD_REACTORS
330
7471
102
}
330
7471
100
AcDbDictionary
281
     1
  3
Normal
350
1DAF3
100
AcDbDictionaryWithDefault
340
1DAF3
  0
DICTIONARY
  5
27DF3
102
{ACAD_REACTORS
330
7471
102
}
330
7471
100
AcDbDictionary
281
     1
  3
COLORDICT
350
27DF5
  3
MATERIALDICT
350
27DF4
  0
DICTIONARY
  5
1152B
102
{ACAD_REACTORS
330
7471
102
}
330
7471
100
AcDbDictionary
281
     1
  3
DIMASSOC
350
27DF0
  3
PROJECTNAME
350
27DF1
  3
SORTENTS
350
1152C
  0
DICTIONARY
  5
E71C
102
{ACAD_REACTORS
330
7471
102
}
330
7471
100
AcDbDictionary
281
     1
  0
DICTIONARY
  5
F3B9
102
{ACAD_REACTORS
330
7471
102
}
330
7471
100
AcDbDictionary
281
     1
1001
DRAWINGVARIABLESXDATA
1000
POLARMODE
1000
1
  0
DICTIONARY
  5
2233B
102
{ACAD_REACTORS
330
2233A
102
}
330
2233A
100
AcDbDictionary
281
     1
  0
GROUP
  5
24FBF
102
{ACAD_REACTORS
330
7472
102
}
330
7472
100
AcDbGroup
300

 70
     1
 71
     1
  0
GROUP
  5
260C6
102
{ACAD_REACTORS
330
7472
102
}
330
7472
100
AcDbGroup
300

 70
     1
 71
     1
  0
GROUP
  5
269B6
102
{ACAD_REACTORS
330
7472
102
}
330
7472
100
AcDbGroup
300

 70
     1
 71
     1
  0
GROUP
  5
27723
102
{ACAD_REACTORS
330
7472
102
}
330
7472
100
AcDbGroup
300

 70
     1
 71
     1
  0
LAYOUT
  5
1DAF8
102
{ACAD_XDICTIONARY
360
27DF6
102
}
102
{ACAD_REACTORS
330
1DAF6
102
}
330
1DAF6
100
AcDbPlotSettings
  1

  2
クセロPDF
  4
A3
  6

 40
3.174999952316284
 41
3.174999952316284
 42
3.17498779296875
 43
3.17498779296875
 44
419.9466552734374
 45
296.9259948730469
 46
0.0
 47
0.0
 48
0.0
 49
0.0
140
0.0
141
0.0
142
1.0
143
50.0
 70
 11952
 72
     1
 73
     0
 74
     2
  7
inaba.ctb
 75
    25
147
0.02
148
0.0
149
0.0
100
AcDbLayout
  1
Model
 70
     1
 71
     0
 10
0.0
 20
0.0
 11
12.0
 21
9.0
 12
0.0
 22
0.0
 32
0.0
 14
0.0
 24
0.0
 34
0.0
 15
0.0
 25
0.0
 35
0.0
146
0.0
 13
0.0
 23
0.0
 33
0.0
 16
1.0
 26
0.0
 36
0.0
 17
0.0
 27
1.0
 37
0.0
 76
     0
330
747D
  0
LAYOUT
  5
1DAF9
102
{ACAD_XDICTIONARY
360
27DF8
102
}
102
{ACAD_REACTORS
330
1DAF6
102
}
330
1DAF6
100
AcDbPlotSettings
  1

  2
EPSON LP-8300
  4

  6

 40
0.0
 41
0.0
 42
0.0
 43
0.0
 44
0.0
 45
0.0
 46
0.0
 47
0.0
 48
0.0
 49
0.0
140
0.0
141
0.0
142
1.0
143
1.0
 70
   688
 72
     0
 73
     0
 74
     5
  7
inaba.ctb
 75
    16
147
1.0
148
0.0
149
0.0
100
AcDbLayout
  1
レイアウト1
 70
     0
 71
     1
 10
0.0
 20
0.0
 11
420.0
 21
297.0
 12
0.0
 22
0.0
 32
0.0
 14
1.000000000000000E+20
 24
1.000000000000000E+20
 34
1.000000000000000E+20
 15
-1.000000000000000E+20
 25
-1.000000000000000E+20
 35
-1.000000000000000E+20
146
0.0
 13
0.0
 23
0.0
 33
0.0
 16
1.0
 26
0.0
 36
0.0
 17
0.0
 27
1.0
 37
0.0
 76
     0
330
747A
  0
MLINESTYLE
  5
7480
102
{ACAD_REACTORS
330
7473
102
}
330
7473
100
AcDbMlineStyle
  2
STANDARD
 70
     0
  3

 62
     0
 51
90.0
 52
90.0
 71
     2
 49
0.5
 62
   256
  6
BYLAYER
 49
-0.5
 62
   256
  6
BYLAYER
  0
ACDBPLACEHOLDER
  5
1DAF3
102
{ACAD_REACTORS
330
1DAF2
102
}
330
1DAF2
  0
XRECORD
  5
27DF5
102
{ACAD_REACTORS
330
27DF3
102
}
330
27DF3
100
AcDbXrecord
280
     1
340
1DAF5
  0
XRECORD
  5
27DF4
102
{ACAD_REACTORS
330
27DF3
102
}
330
27DF3
100
AcDbXrecord
280
     1
340
1DAF4
  0
DICTIONARYVAR
  5
27DF0
102
{ACAD_REACTORS
330
1152B
102
}
330
1152B
100
DictionaryVariables
280
     0
  1
1
  0
DICTIONARYVAR
  5
27DF1
102
{ACAD_REACTORS
330
1152B
102
}
330
1152B
100
DictionaryVariables
280
     0
  1

  0
DICTIONARYVAR
  5
1152C
102
{ACAD_REACTORS
330
1152B
102
}
330
1152B
100
DictionaryVariables
280
     0
  1
96
  0
DICTIONARY
  5
27DF6
330
1DAF8
100
AcDbDictionary
280
     1
281
     1
  3
ACAD_XREC_ROUNDTRIP
360
27DF7
  0
DICTIONARY
  5
27DF8
330
1DAF9
100
AcDbDictionary
280
     1
281
     1
  3
ACAD_XREC_ROUNDTRIP
360
27DF9
  0
XRECORD
  5
27DF7
102
{ACAD_REACTORS
330
27DF6
102
}
330
27DF6
100
AcDbXrecord
280
     1
102
SHADEPLOT
 70
     0
102
SHADEPLOTRESLEVEL
 70
     2
102
SHADEPLOTCUSTOMDPI
 70
   150
  0
XRECORD
  5
27DF9
102
{ACAD_REACTORS
330
27DF8
102
}
330
27DF8
100
AcDbXrecord
280
     1
102
SHADEPLOT
 70
     0
102
SHADEPLOTRESLEVEL
 70
     2
102
SHADEPLOTCUSTOMDPI
 70
   300
  0
ENDSEC
  0
EOF
