  0
SECTION
  2
HEADER
  9
$ACADVER
  1
AC1015
  9
$ACADMAINTVER
 70
     6
  9
$DWGCODEPAGE
  3
ANSI_932
  9
$INSBASE
 10
0.0
 20
0.0
 30
0.0
  9
$EXTMIN
 10
174.9999999999993
 20
-0.0000000000001137
 30
0.0
  9
$EXTMAX
 10
20384.0
 20
14262.0
 30
0.0
  9
$LIMMIN
 10
0.0
 20
0.0
  9
$LIMMAX
 10
21000.0
 20
14850.0
  9
$ORTHOMODE
 70
     0
  9
$REGENMODE
 70
     1
  9
$FILLMODE
 70
     1
  9
$QTEXTMODE
 70
     0
  9
$MIRRTEXT
 70
     1
  9
$LTSCALE
 40
20.0
  9
$ATTMODE
 70
     1
  9
$TEXTSIZE
 40
4.0
  9
$TRACEWID
 40
1.0
  9
$TEXTSTYLE
  7
STYLE1
  9
$CLAYER
  8
寸法
  9
$CELTYPE
  6
BYLAYER
  9
$CECOLOR
 62
   256
  9
$CELTSCALE
 40
50.0
  9
$DISPSILH
 70
     0
  9
$DIMSCALE
 40
1.0
  9
$DIMASZ
 40
125.0
  9
$DIMEXO
 40
25.0
  9
$DIMDLI
 40
7.0
  9
$DIMRND
 40
0.0
  9
$DIMDLE
 40
0.0
  9
$DIMEXE
 40
75.0
  9
$DIMTP
 40
0.0
  9
$DIMTM
 40
0.0
  9
$DIMTXT
 40
150.0
  9
$DIMCEN
 40
0.0
  9
$DIMTSZ
 40
0.0
  9
$DIMTOL
 70
     0
  9
$DIMLIM
 70
     0
  9
$DIMTIH
 70
     0
  9
$DIMTOH
 70
     0
  9
$DIMSE1
 70
     1
  9
$DIMSE2
 70
     0
  9
$DIMTAD
 70
     3
  9
$DIMZIN
 70
     8
  9
$DIMBLK
  1

  9
$DIMASO
 70
     1
  9
$DIMSHO
 70
     1
  9
$DIMPOST
  1

  9
$DIMAPOST
  1

  9
$DIMALT
 70
     0
  9
$DIMALTD
 70
     2
  9
$DIMALTF
 40
0.0394
  9
$DIMLFAC
 40
1.0
  9
$DIMTOFL
 70
     1
  9
$DIMTVP
 40
0.0
  9
$DIMTIX
 70
     1
  9
$DIMSOXD
 70
     0
  9
$DIMSAH
 70
     1
  9
$DIMBLK1
  1
DOTSMALL
  9
$DIMBLK2
  1
DOTSMALL
  9
$DIMSTYLE
  2
INABA_S50G
  9
$DIMCLRD
 70
     0
  9
$DIMCLRE
 70
     0
  9
$DIMCLRT
 70
     7
  9
$DIMTFAC
 40
1.0
  9
$DIMGAP
 40
25.0
  9
$DIMJUST
 70
     0
  9
$DIMSD1
 70
     0
  9
$DIMSD2
 70
     0
  9
$DIMTOLJ
 70
     1
  9
$DIMTZIN
 70
     0
  9
$DIMALTZ
 70
     0
  9
$DIMALTTZ
 70
     0
  9
$DIMUPT
 70
     0
  9
$DIMDEC
 70
     1
  9
$DIMTDEC
 70
     4
  9
$DIMALTU
 70
     2
  9
$DIMALTTD
 70
     2
  9
$DIMTXSTY
  7
STYLE1
  9
$DIMAUNIT
 70
     0
  9
$DIMADEC
 70
     0
  9
$DIMALTRND
 40
0.0
  9
$DIMAZIN
 70
     0
  9
$DIMDSEP
 70
    46
  9
$DIMATFIT
 70
     3
  9
$DIMFRAC
 70
     0
  9
$DIMLDRBLK
  1
DOTSMALL
  9
$DIMLUNIT
 70
     2
  9
$DIMLWD
 70
    -2
  9
$DIMLWE
 70
    -2
  9
$DIMTMOVE
 70
     1
  9
$LUNITS
 70
     2
  9
$LUPREC
 70
     1
  9
$SKETCHINC
 40
1.0
  9
$FILLETRAD
 40
3.0
  9
$AUNITS
 70
     0
  9
$AUPREC
 70
     0
  9
$MENU
  1
acad
  9
$ELEVATION
 40
0.0
  9
$PELEVATION
 40
0.0
  9
$THICKNESS
 40
0.0
  9
$LIMCHECK
 70
     0
  9
$CHAMFERA
 40
0.0
  9
$CHAMFERB
 40
0.0
  9
$CHAMFERC
 40
0.0
  9
$CHAMFERD
 40
0.0
  9
$SKPOLY
 70
     0
  9
$TDCREATE
 40
2452335.452219212
  9
$TDUCREATE
 40
2452335.077219213
  9
$TDUPDATE
 40
2452595.551628587
  9
$TDUUPDATE
 40
2452595.176628587
  9
$TDINDWG
 40
1.3708559028
  9
$TDUSRTIMER
 40
1.3708559028
  9
$USRTIMER
 70
     1
  9
$ANGBASE
 50
0.0
  9
$ANGDIR
 70
     0
  9
$PDMODE
 70
     3
  9
$PDSIZE
 40
2.0
  9
$PLINEWID
 40
0.0
  9
$SPLFRAME
 70
     0
  9
$SPLINETYPE
 70
     6
  9
$SPLINESEGS
 70
     8
  9
$HANDSEED
  5
1CFE1
  9
$SURFTAB1
 70
     6
  9
$SURFTAB2
 70
     6
  9
$SURFTYPE
 70
     6
  9
$SURFU
 70
     6
  9
$SURFV
 70
     6
  9
$UCSBASE
  2

  9
$UCSNAME
  2

  9
$UCSORG
 10
0.0
 20
0.0
 30
0.0
  9
$UCSXDIR
 10
1.0
 20
0.0
 30
0.0
  9
$UCSYDIR
 10
0.0
 20
1.0
 30
0.0
  9
$UCSORTHOREF
  2

  9
$UCSORTHOVIEW
 70
     0
  9
$UCSORGTOP
 10
0.0
 20
0.0
 30
0.0
  9
$UCSORGBOTTOM
 10
0.0
 20
0.0
 30
0.0
  9
$UCSORGLEFT
 10
0.0
 20
0.0
 30
0.0
  9
$UCSORGRIGHT
 10
0.0
 20
0.0
 30
0.0
  9
$UCSORGFRONT
 10
0.0
 20
0.0
 30
0.0
  9
$UCSORGBACK
 10
0.0
 20
0.0
 30
0.0
  9
$PUCSBASE
  2

  9
$PUCSNAME
  2

  9
$PUCSORG
 10
0.0
 20
0.0
 30
0.0
  9
$PUCSXDIR
 10
1.0
 20
0.0
 30
0.0
  9
$PUCSYDIR
 10
0.0
 20
1.0
 30
0.0
  9
$PUCSORTHOREF
  2

  9
$PUCSORTHOVIEW
 70
     0
  9
$PUCSORGTOP
 10
0.0
 20
0.0
 30
0.0
  9
$PUCSORGBOTTOM
 10
0.0
 20
0.0
 30
0.0
  9
$PUCSORGLEFT
 10
0.0
 20
0.0
 30
0.0
  9
$PUCSORGRIGHT
 10
0.0
 20
0.0
 30
0.0
  9
$PUCSORGFRONT
 10
0.0
 20
0.0
 30
0.0
  9
$PUCSORGBACK
 10
0.0
 20
0.0
 30
0.0
  9
$USERI1
 70
     0
  9
$USERI2
 70
     0
  9
$USERI3
 70
     0
  9
$USERI4
 70
     0
  9
$USERI5
 70
     0
  9
$USERR1
 40
0.0
  9
$USERR2
 40
0.0
  9
$USERR3
 40
0.0
  9
$USERR4
 40
0.0
  9
$USERR5
 40
0.0
  9
$WORLDVIEW
 70
     1
  9
$SHADEDGE
 70
     3
  9
$SHADEDIF
 70
    70
  9
$TILEMODE
 70
     1
  9
$MAXACTVP
 70
    16
  9
$PINSBASE
 10
0.0
 20
0.0
 30
0.0
  9
$PLIMCHECK
 70
     0
  9
$PEXTMIN
 10
1.000000000000000E+20
 20
1.000000000000000E+20
 30
1.000000000000000E+20
  9
$PEXTMAX
 10
-1.000000000000000E+20
 20
-1.000000000000000E+20
 30
-1.000000000000000E+20
  9
$PLIMMIN
 10
0.0
 20
0.0
  9
$PLIMMAX
 10
420.0
 20
297.0
  9
$UNITMODE
 70
     0
  9
$VISRETAIN
 70
     0
  9
$PLINEGEN
 70
     0
  9
$PSLTSCALE
 70
     0
  9
$TREEDEPTH
 70
  3020
  9
$CMLSTYLE
  2
STANDARD
  9
$CMLJUST
 70
     0
  9
$CMLSCALE
 40
1.0
  9
$PROXYGRAPHICS
 70
     1
  9
$MEASUREMENT
 70
     1
  9
$CELWEIGHT
370
    -1
  9
$ENDCAPS
280
     0
  9
$JOINSTYLE
280
     0
  9
$LWDISPLAY
290
     0
  9
$INSUNITS
 70
     0
  9
$HYPERLINKBASE
  1

  9
$STYLESHEET
  1

  9
$XEDIT
290
     1
  9
$CEPSNTYPE
380
     0
  9
$PSTYLEMODE
290
     1
  9
$FINGERPRINTGUID
  2
{697DFE3A-F946-11D6-AF94-00909916878D}
  9
$VERSIONGUID
  2
{697DFE3C-F946-11D6-AF94-00909916878D}
  9
$EXTNAMES
290
     1
  9
$PSVPSCALE
 40
0.0
  9
$OLESTARTUP
290
     0
  0
ENDSEC
  0
SECTION
  2
CLASSES
  0
CLASS
  1
OLE2FRAME
  2
AcDbOle2Frame
  3
AutoCAD 2000
 90
    32768
280
     0
281
     1
  0
CLASS
  1
LWPOLYLINE
  2
AcDbPolyline
  3
AutoCAD 2000
 90
    32768
280
     0
281
     1
  0
CLASS
  1
HATCH
  2
AcDbHatch
  3
AutoCAD 2000
 90
    32768
280
     0
281
     1
  0
CLASS
  1
DICTIONARYVAR
  2
AcDbDictionaryVar
  3
AutoCAD 2000
 90
        0
280
     0
281
     0
  0
CLASS
  1
ACDBDICTIONARYWDFLT
  2
AcDbDictionaryWithDefault
  3
AutoCAD 2000
 90
        0
280
     0
281
     0
  0
CLASS
  1
ACDBPLACEHOLDER
  2
AcDbPlaceHolder
  3
AutoCAD 2000
 90
        0
280
     0
281
     0
  0
CLASS
  1
LAYOUT
  2
AcDbLayout
  3
AutoCAD 2000
 90
        0
280
     0
281
     0
  0
CLASS
  1
LONG_TRANSACTION
  2
AcDbLongTransaction
  3
AutoCAD 2000
 90
    32768
280
     0
281
     0
  0
CLASS
  1
LWPOLYLINE
  2
AcDbPolyline
  3
AutoCAD 2000
 90
    32768
280
     0
281
     1
  0
CLASS
  1
HATCH
  2
AcDbHatch
  3
AutoCAD 2000
 90
    32768
280
     0
281
     1
  0
CLASS
  1
XRECORD
  2
AcDbXrecord
  3
AutoCAD 2000
 90
    32768
280
     0
281
     0
  0
ENDSEC
  0
SECTION
  2
TABLES
  0
TABLE
  2
VPORT
  5
746D
330
0
100
AcDbSymbolTable
 70
     2
  0
VPORT
  5
1CFBF
330
746D
100
AcDbSymbolTableRecord
100
AcDbViewportTableRecord
  2
*Active
 70
     0
 10
0.0
 20
0.0
 11
1.0
 21
1.0
 12
10500.0
 22
8286.123436339119
 13
0.0
 23
0.0
 14
10.0
 24
10.0
 15
10.0
 25
10.0
 16
0.0
 26
0.0
 36
1.0
 17
0.0
 27
0.0
 37
0.0
 40
16748.20763317997
 41
1.902010050251256
 42
50.0
 43
0.0
 44
0.0
 50
0.0
 51
0.0
 71
     0
 72
     0
 73
     1
 74
     0
 75
     0
 76
     0
 77
     0
 78
     0
281
     0
 65
     1
110
0.0
120
0.0
130
0.0
111
1.0
121
0.0
131
0.0
112
0.0
122
1.0
132
0.0
 79
     0
146
0.0
  0
ENDTAB
  0
TABLE
  2
LTYPE
  5
746A
330
0
100
AcDbSymbolTable
 70
     4
  0
LTYPE
  5
7477
330
746A
100
AcDbSymbolTableRecord
100
AcDbLinetypeTableRecord
  2
BYBLOCK
 70
     0
  3

 72
    65
 73
     0
 40
0.0
  0
LTYPE
  5
7478
330
746A
100
AcDbSymbolTableRecord
100
AcDbLinetypeTableRecord
  2
BYLAYER
 70
     0
  3

 72
    65
 73
     0
 40
0.0
  0
LTYPE
  5
7479
330
746A
100
AcDbSymbolTableRecord
100
AcDbLinetypeTableRecord
  2
CONTINUOUS
 70
     0
  3
Solid line
 72
    65
 73
     0
 40
0.0
  0
LTYPE
  5
7816
330
746A
100
AcDbSymbolTableRecord
100
AcDbLinetypeTableRecord
  2
CENTER
 70
     0
  3
____ _ ____ _ ____ _ ____ _ ____ _ ____ _ ____ 
 72
    65
 73
     4
 40
2.0
 49
1.25
 74
     0
 49
-0.25
 74
     0
 49
0.25
 74
     0
 49
-0.25
 74
     0
  0
LTYPE
  5
781A
330
746A
100
AcDbSymbolTableRecord
100
AcDbLinetypeTableRecord
  2
HIDDEN
 70
     0
  3
__ __ __ __ __ __ __ __ __ __ __ __ __ __ __ __
 72
    65
 73
     2
 40
0.375
 49
0.25
 74
     0
 49
-0.125
 74
     0
  0
LTYPE
  5
781B
330
746A
100
AcDbSymbolTableRecord
100
AcDbLinetypeTableRecord
  2
PHANTOM
 70
     0
  3
______  __  __  ______  __  __  ______  __  __ 
 72
    65
 73
     6
 40
2.5
 49
1.25
 74
     0
 49
-0.25
 74
     0
 49
0.25
 74
     0
 49
-0.25
 74
     0
 49
0.25
 74
     0
 49
-0.25
 74
     0
  0
ENDTAB
  0
TABLE
  2
LAYER
  5
7467
330
0
100
AcDbSymbolTable
 70
    12
  0
LAYER
  5
7474
330
7467
100
AcDbSymbolTableRecord
100
AcDbLayerTableRecord
  2
0
 70
     0
 62
     7
  6
CONTINUOUS
370
    -3
390
1CF36
  0
LAYER
  5
DEB2
330
7467
100
AcDbSymbolTableRecord
100
AcDbLayerTableRecord
  2
センター
 70
     0
 62
     3
  6
CENTER
370
    -3
390
1CF36
  0
LAYER
  5
DEB3
330
7467
100
AcDbSymbolTableRecord
100
AcDbLayerTableRecord
  2
寸法
 70
     0
 62
     4
  6
CONTINUOUS
370
    -3
390
1CF36
  0
LAYER
  5
DEB4
330
7467
100
AcDbSymbolTableRecord
100
AcDbLayerTableRecord
  2
部品1
 70
     0
 62
     7
  6
CONTINUOUS
370
    -3
390
1CF36
  0
LAYER
  5
DEB5
330
7467
100
AcDbSymbolTableRecord
100
AcDbLayerTableRecord
  2
補助
 70
     0
 62
    -1
  6
CONTINUOUS
370
    -3
390
1CF36
  0
LAYER
  5
DEB6
330
7467
100
AcDbSymbolTableRecord
100
AcDbLayerTableRecord
  2
文字
 70
     0
 62
     7
  6
CONTINUOUS
370
    -3
390
1CF36
  0
LAYER
  5
F255
330
7467
100
AcDbSymbolTableRecord
100
AcDbLayerTableRecord
  2
DEFPOINTS
 70
     0
 62
     7
  6
CONTINUOUS
290
     0
370
    -3
390
1CF36
  0
LAYER
  5
10B54
330
7467
100
AcDbSymbolTableRecord
100
AcDbLayerTableRecord
  2
仕様書枠
 70
     0
 62
   230
  6
CONTINUOUS
370
    -3
390
1CF36
  0
LAYER
  5
11729
330
7467
100
AcDbSymbolTableRecord
100
AcDbLayerTableRecord
  2
Ｇ．Ｌ
 70
     0
 62
    30
  6
CONTINUOUS
370
    -3
390
1CF36
  0
LAYER
  5
1173F
330
7467
100
AcDbSymbolTableRecord
100
AcDbLayerTableRecord
  2
細線
 70
     0
 62
     5
  6
CONTINUOUS
370
    -3
390
1CF36
  0
LAYER
  5
15A90
330
7467
100
AcDbSymbolTableRecord
100
AcDbLayerTableRecord
  2
想像線
 70
     0
 62
     6
  6
PHANTOM
370
    -3
390
1CF36
  0
LAYER
  5
188E2
330
7467
100
AcDbSymbolTableRecord
100
AcDbLayerTableRecord
  2
破線
 70
     0
 62
     2
  6
HIDDEN
370
    -3
390
1CF36
  0
ENDTAB
  0
TABLE
  2
STYLE
  5
7468
330
0
100
AcDbSymbolTable
 70
     3
  0
STYLE
  5
7475
330
7468
100
AcDbSymbolTableRecord
100
AcDbTextStyleTableRecord
  2
STANDARD
 70
     0
 40
0.0
 41
1.0
 50
0.0
 71
     0
 42
4.0
  3
txt
  4
C:\AutoCAD LT\bigfont.shx
  0
STYLE
  5
F706
330
7468
100
AcDbSymbolTableRecord
100
AcDbTextStyleTableRecord
  2
STYLE1
 70
     0
 40
0.0
 41
1.0
 50
0.0
 71
     0
 42
4.0
  3
isocp.shx
  4
bigfont.shx
  0
STYLE
  5
103BF
330
7468
100
AcDbSymbolTableRecord
100
AcDbTextStyleTableRecord
  2
STYLE2
 70
     0
 40
0.0
 41
1.0
 50
0.0
 71
     0
 42
100.0
  3
MS PGothic.ttf
  4

1001
ACAD
1000
MS PGothic
1071
    32818
  0
ENDTAB
  0
TABLE
  2
VIEW
  5
746B
330
0
100
AcDbSymbolTable
 70
     0
  0
ENDTAB
  0
TABLE
  2
UCS
  5
746C
330
0
100
AcDbSymbolTable
 70
     0
  0
ENDTAB
  0
TABLE
  2
APPID
  5
746E
330
0
100
AcDbSymbolTable
 70
     6
  0
APPID
  5
7476
330
746E
100
AcDbSymbolTableRecord
100
AcDbRegAppTableRecord
  2
ACAD
 70
     0
  0
APPID
  5
DEA9
330
746E
100
AcDbSymbolTableRecord
100
AcDbRegAppTableRecord
  2
CONTENTBLOCKICON
 70
     0
  0
APPID
  5
DEAA
330
746E
100
AcDbSymbolTableRecord
100
AcDbRegAppTableRecord
  2
CONTENTBLOCKDESCRIPTION
 70
     0
  0
APPID
  5
E71D
330
746E
100
AcDbSymbolTableRecord
100
AcDbRegAppTableRecord
  2
CONTENTTABDATA
 70
     0
  0
APPID
  5
E71E
330
746E
100
AcDbSymbolTableRecord
100
AcDbRegAppTableRecord
  2
CONTENTCURRENTTAB
 70
     0
  0
APPID
  5
F3BA
330
746E
100
AcDbSymbolTableRecord
100
AcDbRegAppTableRecord
  2
DRAWINGVARIABLESXDATA
 70
     0
  0
ENDTAB
  0
TABLE
  2
DIMSTYLE
  5
746F
330
0
100
AcDbSymbolTable
 70
     2
100
AcDbDimStyleTable
 71
     0
  0
DIMSTYLE
105
7484
330
746F
100
AcDbSymbolTableRecord
100
AcDbDimStyleTableRecord
  2
JIS
 70
     0
 41
2.5
 42
1.0
 43
7.0
 44
1.0
 73
     0
 74
     0
 77
     1
 78
     8
140
2.5
141
0.0
143
0.0394
147
0.0
172
     1
174
     1
175
     1
340
7475
  0
DIMSTYLE
105
F71F
102
{ACAD_REACTORS
330
1852D
330
1852B
330
1852F
330
1852C
330
1852E
330
185AE
330
185B1
330
185B4
330
185AD
330
185AF
330
185B3
330
1868C
330
186AF
330
1852A
330
1AE97
330
1AEA6
330
1AEA7
330
1AEE4
330
1AF1A
330
1C150
330
1C19B
330
1C199
330
1C19A
330
1C198
330
1C1CC
330
1C1FF
330
1C3A0
330
1C3A1
330
1C3AC
330
1C3AD
330
1C3B2
330
1C3B5
330
1C3B7
330
1C3C8
330
1C3DA
330
1C412
330
1C627
330
1CCD0
330
1CCD4
330
1CCD7
330
1CCDB
330
1CCF2
330
1CCF3
330
1CD83
330
1CD8A
330
1CD8B
330
1CD8E
330
1CD8F
102
}
330
746F
100
AcDbSymbolTableRecord
100
AcDbDimStyleTableRecord
  2
INABA_S50G
 70
     0
 41
125.0
 42
25.0
 43
7.0
 44
75.0
 73
     0
 74
     0
 77
     3
 78
     8
140
150.0
141
0.0
143
0.0394
147
25.0
172
     1
173
     1
174
     1
178
     7
271
     1
340
F706
341
F770
343
F770
344
F770
  0
ENDTAB
  0
TABLE
  2
BLOCK_RECORD
  5
7466
330
0
100
AcDbSymbolTable
 70
    54
  0
BLOCK_RECORD
  5
747D
102
{ACAD_XDICTIONARY
360
1CF67
102
}
330
7466
100
AcDbSymbolTableRecord
100
AcDbBlockTableRecord
  2
*MODEL_SPACE
340
1CF39
  0
BLOCK_RECORD
  5
747A
102
{ACAD_XDICTIONARY
360
1CF65
102
}
330
7466
100
AcDbSymbolTableRecord
100
AcDbBlockTableRecord
  2
*PAPER_SPACE
340
1CF3A
  0
BLOCK_RECORD
  5
F770
330
7466
100
AcDbSymbolTableRecord
100
AcDbBlockTableRecord
  2
_DOTSMALL
340
0
102
{BLKREFS
331
18581
331
18582
331
1C665
331
1C666
331
18599
331
1859A
331
1A4EB
331
1A4EC
331
1C65A
331
1C65B
331
1A4D4
331
1A4D5
331
18629
331
1862A
331
1CF77
331
1CF78
331
1865B
331
1865C
331
1861D
331
1861E
331
1CF6F
331
1CF70
331
1864F
331
18650
331
1C23B
331
1C23C
331
1C644
331
1C645
331
1AF87
331
1AF88
331
1B290
331
1B291
331
1CF7F
331
1CF80
331
1AFA8
331
1AFA9
331
1AFCA
331
1AFCB
331
1B826
331
1B827
331
1C16B
331
1C16C
331
1CF8F
331
1CF90
331
1CF87
331
1CF88
331
1C1B8
331
1C1B9
331
1C1C4
331
1C1C5
331
1C1F8
331
1C1F9
331
1C22F
331
1C230
331
1C5E3
331
1C5E4
331
1C588
331
1C589
331
1C57C
331
1C57D
331
1CF97
331
1CF98
331
1CF9F
331
1CFA0
331
1C605
331
1C606
331
1C611
331
1C612
331
1C5C0
331
1C5C1
331
1C5D7
331
1C5D8
331
1C5EF
331
1C5F0
331
1C62F
331
1C630
331
1C693
331
1C694
331
1CEB3
331
1CEB4
331
1CEBF
331
1CEC0
331
1CFA7
331
1CFA8
331
1CED4
331
1CED5
331
1CEDF
331
1CEE0
331
1CEEA
331
1CEEB
331
1CEF5
331
1CEF6
331
1CF00
331
1CF01
331
1CFAF
331
1CFB0
331
1CF16
331
1CF17
331
1CF21
331
1CF22
102
}
  0
BLOCK_RECORD
  5
18530
330
7466
100
AcDbSymbolTableRecord
100
AcDbBlockTableRecord
  2
*D1
340
0
  0
BLOCK_RECORD
  5
1853D
330
7466
100
AcDbSymbolTableRecord
100
AcDbBlockTableRecord
  2
*D2
340
0
  0
BLOCK_RECORD
  5
18549
330
7466
100
AcDbSymbolTableRecord
100
AcDbBlockTableRecord
  2
*D3
340
0
  0
BLOCK_RECORD
  5
18556
330
7466
100
AcDbSymbolTableRecord
100
AcDbBlockTableRecord
  2
*D4
340
0
  0
BLOCK_RECORD
  5
18563
330
7466
100
AcDbSymbolTableRecord
100
AcDbBlockTableRecord
  2
*D5
340
0
  0
BLOCK_RECORD
  5
1856F
330
7466
100
AcDbSymbolTableRecord
100
AcDbBlockTableRecord
  2
*D6
340
0
  0
BLOCK_RECORD
  5
185B5
330
7466
100
AcDbSymbolTableRecord
100
AcDbBlockTableRecord
  2
*D7
340
0
  0
BLOCK_RECORD
  5
185C2
330
7466
100
AcDbSymbolTableRecord
100
AcDbBlockTableRecord
  2
*D8
340
0
  0
BLOCK_RECORD
  5
185E5
330
7466
100
AcDbSymbolTableRecord
100
AcDbBlockTableRecord
  2
*D9
340
0
  0
BLOCK_RECORD
  5
185F2
330
7466
100
AcDbSymbolTableRecord
100
AcDbBlockTableRecord
  2
*D10
340
0
  0
BLOCK_RECORD
  5
185FF
330
7466
100
AcDbSymbolTableRecord
100
AcDbBlockTableRecord
  2
*D11
340
0
  0
BLOCK_RECORD
  5
1860A
330
7466
100
AcDbSymbolTableRecord
100
AcDbBlockTableRecord
  2
*D12
340
0
  0
BLOCK_RECORD
  5
1868D
330
7466
100
AcDbSymbolTableRecord
100
AcDbBlockTableRecord
  2
*D13
340
0
  0
BLOCK_RECORD
  5
186B0
330
7466
100
AcDbSymbolTableRecord
100
AcDbBlockTableRecord
  2
*D14
340
0
  0
BLOCK_RECORD
  5
1AF2C
330
7466
100
AcDbSymbolTableRecord
100
AcDbBlockTableRecord
  2
*D15
340
0
  0
BLOCK_RECORD
  5
1AF39
330
7466
100
AcDbSymbolTableRecord
100
AcDbBlockTableRecord
  2
*D16
340
0
  0
BLOCK_RECORD
  5
1AF45
330
7466
100
AcDbSymbolTableRecord
100
AcDbBlockTableRecord
  2
*D17
340
0
  0
BLOCK_RECORD
  5
1AF50
330
7466
100
AcDbSymbolTableRecord
100
AcDbBlockTableRecord
  2
*D18
340
0
  0
BLOCK_RECORD
  5
1AF75
330
7466
100
AcDbSymbolTableRecord
100
AcDbBlockTableRecord
  2
*D19
340
0
  0
BLOCK_RECORD
  5
1B821
330
7466
100
AcDbSymbolTableRecord
100
AcDbBlockTableRecord
  2
*D20
340
0
  0
BLOCK_RECORD
  5
1B82E
330
7466
100
AcDbSymbolTableRecord
100
AcDbBlockTableRecord
  2
A$C019569EB
340
0
102
{BLKREFS
331
1C109
102
}
  0
BLOCK_RECORD
  5
1C165
330
7466
100
AcDbSymbolTableRecord
100
AcDbBlockTableRecord
  2
*D22
340
0
  0
BLOCK_RECORD
  5
1C19C
330
7466
100
AcDbSymbolTableRecord
100
AcDbBlockTableRecord
  2
*D23
340
0
  0
BLOCK_RECORD
  5
1C1A7
330
7466
100
AcDbSymbolTableRecord
100
AcDbBlockTableRecord
  2
*D24
340
0
  0
BLOCK_RECORD
  5
1C1B2
330
7466
100
AcDbSymbolTableRecord
100
AcDbBlockTableRecord
  2
*D25
340
0
  0
BLOCK_RECORD
  5
1C1BF
330
7466
100
AcDbSymbolTableRecord
100
AcDbBlockTableRecord
  2
*D26
340
0
  0
BLOCK_RECORD
  5
1C1F3
330
7466
100
AcDbSymbolTableRecord
100
AcDbBlockTableRecord
  2
*D27
340
0
  0
BLOCK_RECORD
  5
1C214
330
7466
100
AcDbSymbolTableRecord
100
AcDbBlockTableRecord
  2
*D28
340
0
  0
BLOCK_RECORD
  5
1C452
330
7466
100
AcDbSymbolTableRecord
100
AcDbBlockTableRecord
  2
*D29
340
0
  0
BLOCK_RECORD
  5
1C45F
330
7466
100
AcDbSymbolTableRecord
100
AcDbBlockTableRecord
  2
*D30
340
0
  0
BLOCK_RECORD
  5
1C46C
330
7466
100
AcDbSymbolTableRecord
100
AcDbBlockTableRecord
  2
*D31
340
0
  0
BLOCK_RECORD
  5
1C478
330
7466
100
AcDbSymbolTableRecord
100
AcDbBlockTableRecord
  2
*D32
340
0
  0
BLOCK_RECORD
  5
1C48F
330
7466
100
AcDbSymbolTableRecord
100
AcDbBlockTableRecord
  2
*D33
340
0
  0
BLOCK_RECORD
  5
1C49A
330
7466
100
AcDbSymbolTableRecord
100
AcDbBlockTableRecord
  2
*D34
340
0
  0
BLOCK_RECORD
  5
1C4A6
330
7466
100
AcDbSymbolTableRecord
100
AcDbBlockTableRecord
  2
*D35
340
0
  0
BLOCK_RECORD
  5
1C4C0
330
7466
100
AcDbSymbolTableRecord
100
AcDbBlockTableRecord
  2
*D36
340
0
  0
BLOCK_RECORD
  5
1C4CD
330
7466
100
AcDbSymbolTableRecord
100
AcDbBlockTableRecord
  2
*D37
340
0
  0
BLOCK_RECORD
  5
1C4D9
330
7466
100
AcDbSymbolTableRecord
100
AcDbBlockTableRecord
  2
*D38
340
0
  0
BLOCK_RECORD
  5
1C62A
330
7466
100
AcDbSymbolTableRecord
100
AcDbBlockTableRecord
  2
*D39
340
0
  0
BLOCK_RECORD
  5
1C68E
330
7466
100
AcDbSymbolTableRecord
100
AcDbBlockTableRecord
  2
*D40
340
0
  0
BLOCK_RECORD
  5
1C69B
330
7466
100
AcDbSymbolTableRecord
100
AcDbBlockTableRecord
  2
A$C356B7D95
340
0
102
{BLKREFS
331
1C718
102
}
  0
BLOCK_RECORD
  5
1C717
330
7466
100
AcDbSymbolTableRecord
100
AcDbBlockTableRecord
  2
A$C5FCD7CC6
340
0
102
{BLKREFS
331
1CCCF
102
}
  0
BLOCK_RECORD
  5
1CE29
330
7466
100
AcDbSymbolTableRecord
100
AcDbBlockTableRecord
  2
*D43
340
0
  0
BLOCK_RECORD
  5
1CE36
330
7466
100
AcDbSymbolTableRecord
100
AcDbBlockTableRecord
  2
*D44
340
0
  0
BLOCK_RECORD
  5
1CE43
330
7466
100
AcDbSymbolTableRecord
100
AcDbBlockTableRecord
  2
*D45
340
0
  0
BLOCK_RECORD
  5
1CE4E
330
7466
100
AcDbSymbolTableRecord
100
AcDbBlockTableRecord
  2
*D46
340
0
  0
BLOCK_RECORD
  5
1CE5A
330
7466
100
AcDbSymbolTableRecord
100
AcDbBlockTableRecord
  2
*D47
340
0
  0
BLOCK_RECORD
  5
1CE66
330
7466
100
AcDbSymbolTableRecord
100
AcDbBlockTableRecord
  2
*D48
340
0
  0
BLOCK_RECORD
  5
1CE72
330
7466
100
AcDbSymbolTableRecord
100
AcDbBlockTableRecord
  2
*D49
340
0
  0
BLOCK_RECORD
  5
1CE7E
330
7466
100
AcDbSymbolTableRecord
100
AcDbBlockTableRecord
  2
*D50
340
0
  0
BLOCK_RECORD
  5
1CE8A
330
7466
100
AcDbSymbolTableRecord
100
AcDbBlockTableRecord
  2
*D51
340
0
  0
BLOCK_RECORD
  5
1CE95
330
7466
100
AcDbSymbolTableRecord
100
AcDbBlockTableRecord
  2
*D52
340
0
  0
BLOCK_RECORD
  5
1CEA2
330
7466
100
AcDbSymbolTableRecord
100
AcDbBlockTableRecord
  2
*D53
340
0
  0
ENDTAB
  0
ENDSEC
  0
SECTION
  2
BLOCKS
  0
BLOCK
  5
7489
330
747D
100
AcDbEntity
  8
0
100
AcDbBlockBegin
  2
*MODEL_SPACE
 70
     0
 10
0.0
 20
0.0
 30
0.0
  3
*MODEL_SPACE
  1

  0
ENDBLK
  5
748A
330
747D
100
AcDbEntity
  8
0
100
AcDbBlockEnd
  0
BLOCK
  5
7487
330
747A
100
AcDbEntity
 67
     1
  8
0
100
AcDbBlockBegin
  2
*PAPER_SPACE
 70
     0
 10
0.0
 20
0.0
 30
0.0
  3
*PAPER_SPACE
  1

  0
ENDBLK
  5
7488
330
747A
100
AcDbEntity
 67
     1
  8
0
100
AcDbBlockEnd
  0
BLOCK
  5
F771
330
F770
100
AcDbEntity
  8
0
 48
50.0
100
AcDbBlockBegin
  2
_DOTSMALL
 70
     0
 10
0.0
 20
0.0
 30
0.0
  3
_DOTSMALL
  1

  0
LWPOLYLINE
  5
F772
330
F770
100
AcDbEntity
  8
0
  6
ByBlock
 62
     0
 48
50.0
100
AcDbPolyline
 90
        2
 70
     1
 43
0.5
 10
-0.0625
 20
0.0
 42
1.0
 10
0.0625
 20
0.0
 42
1.0
  0
ENDBLK
  5
F776
330
F770
100
AcDbEntity
  8
0
 48
50.0
100
AcDbBlockEnd
  0
BLOCK
  5
1857C
330
18530
100
AcDbEntity
  8
0
 48
50.0
100
AcDbBlockBegin
  2
*D1
 70
     1
 10
0.0
 20
0.0
 30
0.0
  3
*D1
  1

  0
LINE
  5
1857D
330
18530
100
AcDbEntity
  8
0
  6
ByBlock
 62
     0
 48
50.0
100
AcDbLine
 10
16722.46242649134
 20
9602.681515694126
 30
0.0
 11
17593.79817887432
 21
9602.681515694126
 31
0.0
  0
LINE
  5
1857E
330
18530
100
AcDbEntity
  8
0
  6
ByBlock
 62
     0
 48
50.0
100
AcDbLine
 10
16732.46242649134
 20
9672.681515694129
 30
0.0
 11
17593.79817887432
 21
9672.681515694129
 31
0.0
  0
LINE
  5
1857F
330
18530
100
AcDbEntity
  8
0
  6
ByBlock
 62
     0
 48
50.0
100
AcDbLine
 10
17518.79817887432
 20
9672.681515694129
 30
0.0
 11
17518.79817887432
 21
9602.681515694126
 31
0.0
  0
LINE
  5
18580
330
18530
100
AcDbEntity
  8
0
  6
ByBlock
 62
     0
 48
50.0
100
AcDbLine
 10
17518.79817887432
 20
9602.681515694126
 30
0.0
 11
17518.79817887432
 21
9262.563405457903
 31
0.0
  0
INSERT
  5
18581
330
18530
100
AcDbEntity
  8
0
  6
ByBlock
 62
     0
 48
50.0
100
AcDbBlockReference
  2
_DOTSMALL
 10
17518.79817887432
 20
9672.681515694129
 30
0.0
 41
125.0
 42
125.0
 43
125.0
 50
90.0
  0
INSERT
  5
18582
330
18530
100
AcDbEntity
  8
0
  6
ByBlock
 62
     0
 48
50.0
100
AcDbBlockReference
  2
_DOTSMALL
 10
17518.79817887432
 20
9602.681515694126
 30
0.0
 41
125.0
 42
125.0
 43
125.0
 50
270.0
  0
MTEXT
  5
18583
330
18530
100
AcDbEntity
  8
0
  6
ByBlock
 62
     7
 48
50.0
100
AcDbMText
 10
17418.79817887432
 20
9370.122460576014
 30
0.0
 40
150.0
 41
0.0
 71
     5
 72
     1
  1
\A1;70
  7
STYLE1
 11
0.0000000000000001
 21
1.0
 31
0.0
 73
     1
 44
1.0
  0
POINT
  5
18584
330
18530
100
AcDbEntity
  8
DEFPOINTS
  6
ByBlock
 62
     0
 48
50.0
100
AcDbPoint
 10
16697.46242649134
 20
9602.681515694126
 30
0.0
  0
POINT
  5
18585
330
18530
100
AcDbEntity
  8
DEFPOINTS
  6
ByBlock
 62
     0
 48
50.0
100
AcDbPoint
 10
16707.46242649134
 20
9672.681515694129
 30
0.0
  0
POINT
  5
18586
330
18530
100
AcDbEntity
  8
DEFPOINTS
  6
ByBlock
 62
     0
 48
50.0
100
AcDbPoint
 10
17518.79817887432
 20
9672.681515694129
 30
0.0
  0
ENDBLK
  5
18587
330
18530
100
AcDbEntity
  8
0
 48
50.0
100
AcDbBlockEnd
  0
BLOCK
  5
1C661
330
1853D
100
AcDbEntity
  8
0
 48
50.0
100
AcDbBlockBegin
  2
*D2
 70
     1
 10
0.0
 20
0.0
 30
0.0
  3
*D2
  1

  0
LINE
  5
1C662
330
1853D
100
AcDbEntity
  8
0
  6
ByBlock
 62
     0
 48
50.0
100
AcDbLine
 10
14267.82958141817
 20
9298.736797361931
 30
0.0
 11
15129.16533380114
 21
9298.736797361931
 31
0.0
  0
LINE
  5
1C663
330
1853D
100
AcDbEntity
  8
0
  6
ByBlock
 62
     0
 48
50.0
100
AcDbLine
 10
14267.82958141817
 20
11038.73679736193
 30
0.0
 11
15129.16533380114
 21
11038.73679736192
 31
0.0
  0
LINE
  5
1C664
330
1853D
100
AcDbEntity
  8
0
  6
ByBlock
 62
     0
 48
50.0
100
AcDbLine
 10
15054.16533380114
 20
9298.736797361931
 30
0.0
 11
15054.16533380114
 21
11038.73679736192
 31
0.0
  0
INSERT
  5
1C665
330
1853D
100
AcDbEntity
  8
0
  6
ByBlock
 62
     0
 48
50.0
100
AcDbBlockReference
  2
_DOTSMALL
 10
15054.16533380114
 20
9298.736797361931
 30
0.0
 41
125.0
 42
125.0
 43
125.0
 50
270.0
  0
INSERT
  5
1C666
330
1853D
100
AcDbEntity
  8
0
  6
ByBlock
 62
     0
 48
50.0
100
AcDbBlockReference
  2
_DOTSMALL
 10
15054.16533380114
 20
11038.73679736192
 30
0.0
 41
125.0
 42
125.0
 43
125.0
 50
90.0
  0
MTEXT
  5
1C667
330
1853D
100
AcDbEntity
  8
0
  6
ByBlock
 62
     7
 48
50.0
100
AcDbMText
 10
14954.16533380114
 20
10168.73679736193
 30
0.0
 40
150.0
 41
0.0
 71
     5
 72
     1
  1
\A1;3x580=1740
  7
STYLE1
 11
0.0000000000000001
 21
1.0
 31
0.0
 73
     1
 44
1.0
  0
POINT
  5
1C668
330
1853D
100
AcDbEntity
  8
DEFPOINTS
  6
ByBlock
 62
     0
 48
50.0
100
AcDbPoint
 10
14242.82958141817
 20
9298.736797361931
 30
0.0
  0
POINT
  5
1C669
330
1853D
100
AcDbEntity
  8
DEFPOINTS
  6
ByBlock
 62
     0
 48
50.0
100
AcDbPoint
 10
14242.82958141817
 20
11038.73679736193
 30
0.0
  0
POINT
  5
1C66A
330
1853D
100
AcDbEntity
  8
DEFPOINTS
  6
ByBlock
 62
     0
 48
50.0
100
AcDbPoint
 10
15054.16533380114
 20
11038.73679736192
 30
0.0
  0
ENDBLK
  5
1C66B
330
1853D
100
AcDbEntity
  8
0
 48
50.0
100
AcDbBlockEnd
  0
BLOCK
  5
18594
330
18549
100
AcDbEntity
  8
0
 48
50.0
100
AcDbBlockBegin
  2
*D3
 70
     1
 10
0.0
 20
0.0
 30
0.0
  3
*D3
  1

  0
LINE
  5
18595
330
18549
100
AcDbEntity
  8
0
  6
ByBlock
 62
     0
 48
50.0
100
AcDbLine
 10
16732.46242649134
 20
12572.68151569412
 30
0.0
 11
17593.79817887431
 21
12572.68151569412
 31
0.0
  0
LINE
  5
18596
330
18549
100
AcDbEntity
  8
0
  6
ByBlock
 62
     0
 48
50.0
100
AcDbLine
 10
16722.46242649134
 20
12642.68151569412
 30
0.0
 11
17593.79817887431
 21
12642.68151569412
 31
0.0
  0
LINE
  5
18597
330
18549
100
AcDbEntity
  8
0
  6
ByBlock
 62
     0
 48
50.0
100
AcDbLine
 10
17518.79817887431
 20
12572.68151569412
 30
0.0
 11
17518.79817887431
 21
12642.68151569412
 31
0.0
  0
LINE
  5
18598
330
18549
100
AcDbEntity
  8
0
  6
ByBlock
 62
     0
 48
50.0
100
AcDbLine
 10
17518.79817887431
 20
12642.68151569412
 30
0.0
 11
17518.79817887431
 21
12982.79962593034
 31
0.0
  0
INSERT
  5
18599
330
18549
100
AcDbEntity
  8
0
  6
ByBlock
 62
     0
 48
50.0
100
AcDbBlockReference
  2
_DOTSMALL
 10
17518.79817887431
 20
12572.68151569412
 30
0.0
 41
125.0
 42
125.0
 43
125.0
 50
270.0
  0
INSERT
  5
1859A
330
18549
100
AcDbEntity
  8
0
  6
ByBlock
 62
     0
 48
50.0
100
AcDbBlockReference
  2
_DOTSMALL
 10
17518.79817887431
 20
12642.68151569412
 30
0.0
 41
125.0
 42
125.0
 43
125.0
 50
90.0
  0
MTEXT
  5
1859B
330
18549
100
AcDbEntity
  8
0
  6
ByBlock
 62
     7
 48
50.0
100
AcDbMText
 10
17418.79817887431
 20
12875.24057081223
 30
0.0
 40
150.0
 41
0.0
 71
     5
 72
     1
  1
\A1;70
  7
STYLE1
 11
0.0000000000000001
 21
1.0
 31
0.0
 73
     1
 44
1.0
  0
POINT
  5
1859C
330
18549
100
AcDbEntity
  8
DEFPOINTS
  6
ByBlock
 62
     0
 48
50.0
100
AcDbPoint
 10
16707.46242649134
 20
12572.68151569412
 30
0.0
  0
POINT
  5
1859D
330
18549
100
AcDbEntity
  8
DEFPOINTS
  6
ByBlock
 62
     0
 48
50.0
100
AcDbPoint
 10
16697.46242649134
 20
12642.68151569412
 30
0.0
  0
POINT
  5
1859E
330
18549
100
AcDbEntity
  8
DEFPOINTS
  6
ByBlock
 62
     0
 48
50.0
100
AcDbPoint
 10
17518.79817887431
 20
12642.68151569412
 30
0.0
  0
ENDBLK
  5
1859F
330
18549
100
AcDbEntity
  8
0
 48
50.0
100
AcDbBlockEnd
  0
BLOCK
  5
1A4E6
330
18556
100
AcDbEntity
  8
0
 48
50.0
100
AcDbBlockBegin
  2
*D4
 70
     1
 10
0.0
 20
0.0
 30
0.0
  3
*D4
  1

  0
LINE
  5
1A4E7
330
18556
100
AcDbEntity
  8
0
  6
ByBlock
 62
     0
 48
50.0
100
AcDbLine
 10
8477.829581418175
 20
9228.736797361971
 30
0.0
 11
9651.969337719759
 21
9228.736797361971
 31
0.0
  0
LINE
  5
1A4E8
330
18556
100
AcDbEntity
  8
0
  6
ByBlock
 62
     0
 48
50.0
100
AcDbLine
 10
9299.165333801147
 20
9278.736797361975
 30
0.0
 11
9651.969337719759
 21
9278.736797361975
 31
0.0
  0
LINE
  5
1A4E9
330
18556
100
AcDbEntity
  8
0
  6
ByBlock
 62
     0
 48
50.0
100
AcDbLine
 10
9576.969337719758
 20
9278.736797361975
 30
0.0
 11
9576.969337719758
 21
9228.736797361971
 31
0.0
  0
LINE
  5
1A4EA
330
18556
100
AcDbEntity
  8
0
  6
ByBlock
 62
     0
 48
50.0
100
AcDbLine
 10
9576.969337719758
 20
9228.736797361971
 30
0.0
 11
9576.969337719758
 21
8884.130498149373
 31
0.0
  0
INSERT
  5
1A4EB
330
18556
100
AcDbEntity
  8
0
  6
ByBlock
 62
     0
 48
50.0
100
AcDbBlockReference
  2
_DOTSMALL
 10
9576.969337719758
 20
9278.736797361975
 30
0.0
 41
125.0
 42
125.0
 43
125.0
 50
90.0
  0
INSERT
  5
1A4EC
330
18556
100
AcDbEntity
  8
0
  6
ByBlock
 62
     0
 48
50.0
100
AcDbBlockReference
  2
_DOTSMALL
 10
9576.969337719758
 20
9228.736797361971
 30
0.0
 41
125.0
 42
125.0
 43
125.0
 50
270.0
  0
MTEXT
  5
1A4ED
330
18556
100
AcDbEntity
  8
0
  6
ByBlock
 62
     7
 48
50.0
100
AcDbMText
 10
9476.969337719758
 20
8991.689553267482
 30
0.0
 40
150.0
 41
0.0
 71
     5
 72
     1
  1
\A1;50
  7
STYLE1
 11
0.0000000000000001
 21
1.0
 31
0.0
 73
     1
 44
1.0
  0
POINT
  5
1A4EE
330
18556
100
AcDbEntity
  8
DEFPOINTS
  6
ByBlock
 62
     0
 48
50.0
100
AcDbPoint
 10
8452.829581418177
 20
9228.736797361971
 30
0.0
  0
POINT
  5
1A4EF
330
18556
100
AcDbEntity
  8
DEFPOINTS
  6
ByBlock
 62
     0
 48
50.0
100
AcDbPoint
 10
9274.165333801148
 20
9278.736797361975
 30
0.0
  0
POINT
  5
1A4F0
330
18556
100
AcDbEntity
  8
DEFPOINTS
  6
ByBlock
 62
     0
 48
50.0
100
AcDbPoint
 10
9576.969337719758
 20
9278.736797361975
 30
0.0
  0
ENDBLK
  5
1A4F1
330
18556
100
AcDbEntity
  8
0
 48
50.0
100
AcDbBlockEnd
  0
BLOCK
  5
1C656
330
18563
100
AcDbEntity
  8
0
 48
50.0
100
AcDbBlockBegin
  2
*D5
 70
     1
 10
0.0
 20
0.0
 30
0.0
  3
*D5
  1

  0
LINE
  5
1C657
330
18563
100
AcDbEntity
  8
0
  6
ByBlock
 62
     0
 48
50.0
100
AcDbLine
 10
15079.16533380114
 20
9278.736797361931
 30
0.0
 11
15431.96933771975
 21
9278.736797361931
 31
0.0
  0
LINE
  5
1C658
330
18563
100
AcDbEntity
  8
0
  6
ByBlock
 62
     0
 48
50.0
100
AcDbLine
 10
15079.16533380114
 20
11058.73679736193
 30
0.0
 11
15431.96933771975
 21
11058.73679736193
 31
0.0
  0
LINE
  5
1C659
330
18563
100
AcDbEntity
  8
0
  6
ByBlock
 62
     0
 48
50.0
100
AcDbLine
 10
15356.96933771975
 20
9278.736797361931
 30
0.0
 11
15356.96933771975
 21
11058.73679736193
 31
0.0
  0
INSERT
  5
1C65A
330
18563
100
AcDbEntity
  8
0
  6
ByBlock
 62
     0
 48
50.0
100
AcDbBlockReference
  2
_DOTSMALL
 10
15356.96933771975
 20
9278.736797361931
 30
0.0
 41
125.0
 42
125.0
 43
125.0
 50
270.0
  0
INSERT
  5
1C65B
330
18563
100
AcDbEntity
  8
0
  6
ByBlock
 62
     0
 48
50.0
100
AcDbBlockReference
  2
_DOTSMALL
 10
15356.96933771975
 20
11058.73679736193
 30
0.0
 41
125.0
 42
125.0
 43
125.0
 50
90.0
  0
MTEXT
  5
1C65C
330
18563
100
AcDbEntity
  8
0
  6
ByBlock
 62
     7
 48
50.0
100
AcDbMText
 10
15256.96933771975
 20
10168.73679736193
 30
0.0
 40
150.0
 41
0.0
 71
     5
 72
     1
  1
\A1;内部寸法 1780
  7
STYLE1
 11
0.0000000000000001
 21
1.0
 31
0.0
 73
     1
 44
1.0
  0
POINT
  5
1C65D
330
18563
100
AcDbEntity
  8
DEFPOINTS
  6
ByBlock
 62
     0
 48
50.0
100
AcDbPoint
 10
15054.16533380114
 20
9278.736797361931
 30
0.0
  0
POINT
  5
1C65E
330
18563
100
AcDbEntity
  8
DEFPOINTS
  6
ByBlock
 62
     0
 48
50.0
100
AcDbPoint
 10
15054.16533380114
 20
11058.73679736193
 30
0.0
  0
POINT
  5
1C65F
330
18563
100
AcDbEntity
  8
DEFPOINTS
  6
ByBlock
 62
     0
 48
50.0
100
AcDbPoint
 10
15356.96933771975
 20
11058.73679736193
 30
0.0
  0
ENDBLK
  5
1C660
330
18563
100
AcDbEntity
  8
0
 48
50.0
100
AcDbBlockEnd
  0
BLOCK
  5
1A4CE
330
1856F
100
AcDbEntity
  8
0
 48
50.0
100
AcDbBlockBegin
  2
*D6
 70
     1
 10
0.0
 20
0.0
 30
0.0
  3
*D6
  1

  0
LINE
  5
1A4CF
330
1856F
100
AcDbEntity
  8
0
  6
ByBlock
 62
     0
 48
50.0
100
AcDbLine
 10
9299.165333801145
 20
12218.73679736197
 30
0.0
 11
9651.969337719755
 21
12218.73679736197
 31
0.0
  0
LINE
  5
1A4D0
330
1856F
100
AcDbEntity
  8
0
  6
ByBlock
 62
     0
 48
50.0
100
AcDbLine
 10
8477.829581418173
 20
12268.73679736197
 30
0.0
 11
9651.969337719755
 21
12268.73679736197
 31
0.0
  0
LINE
  5
1A4D1
330
1856F
100
AcDbEntity
  8
0
  6
ByBlock
 62
     0
 48
50.0
100
AcDbLine
 10
9576.969337719754
 20
12218.73679736197
 30
0.0
 11
9576.969337719754
 21
12093.73679736197
 31
0.0
  0
LINE
  5
1A4D2
330
1856F
100
AcDbEntity
  8
0
  6
ByBlock
 62
     0
 48
50.0
100
AcDbLine
 10
9576.969337719754
 20
12268.73679736197
 30
0.0
 11
9576.969337719754
 21
12733.85490759819
 31
0.0
  0
LINE
  5
1A4D3
330
1856F
100
AcDbEntity
  8
0
  6
ByBlock
 62
     0
 48
50.0
100
AcDbLine
 10
9576.969337719754
 20
12218.73679736197
 30
0.0
 11
9576.969337719754
 21
12268.73679736197
 31
0.0
  0
INSERT
  5
1A4D4
330
1856F
100
AcDbEntity
  8
0
  6
ByBlock
 62
     0
 48
50.0
100
AcDbBlockReference
  2
_DOTSMALL
 10
9576.969337719754
 20
12218.73679736197
 30
0.0
 41
125.0
 42
125.0
 43
125.0
 50
90.0
  0
INSERT
  5
1A4D5
330
1856F
100
AcDbEntity
  8
0
  6
ByBlock
 62
     0
 48
50.0
100
AcDbBlockReference
  2
_DOTSMALL
 10
9576.969337719754
 20
12268.73679736197
 30
0.0
 41
125.0
 42
125.0
 43
125.0
 50
270.0
  0
MTEXT
  5
1A4D6
330
1856F
100
AcDbEntity
  8
0
  6
ByBlock
 62
     7
 48
50.0
100
AcDbMText
 10
9476.969337719754
 20
12626.29585248008
 30
0.0
 40
150.0
 41
0.0
 71
     5
 72
     1
  1
\A1;50
  7
STYLE1
 11
0.0000000000000001
 21
1.0
 31
0.0
 73
     1
 44
1.0
  0
POINT
  5
1A4D7
330
1856F
100
AcDbEntity
  8
DEFPOINTS
  6
ByBlock
 62
     0
 48
50.0
100
AcDbPoint
 10
9274.165333801144
 20
12218.73679736197
 30
0.0
  0
POINT
  5
1A4D8
330
1856F
100
AcDbEntity
  8
DEFPOINTS
  6
ByBlock
 62
     0
 48
50.0
100
AcDbPoint
 10
8452.829581418173
 20
12268.73679736197
 30
0.0
  0
POINT
  5
1A4D9
330
1856F
100
AcDbEntity
  8
DEFPOINTS
  6
ByBlock
 62
     0
 48
50.0
100
AcDbPoint
 10
9576.969337719754
 20
12268.73679736197
 30
0.0
  0
ENDBLK
  5
1A4DA
330
1856F
100
AcDbEntity
  8
0
 48
50.0
100
AcDbBlockEnd
  0
BLOCK
  5
18624
330
185B5
100
AcDbEntity
  8
0
 48
50.0
100
AcDbBlockBegin
  2
*D7
 70
     1
 10
0.0
 20
0.0
 30
0.0
  3
*D7
  1

  0
LINE
  5
18625
330
185B5
100
AcDbEntity
  8
0
  6
ByBlock
 62
     0
 48
50.0
100
AcDbLine
 10
11787.46242649134
 20
12657.68151569412
 30
0.0
 11
11787.46242649134
 21
13127.71350056477
 31
0.0
  0
LINE
  5
18626
330
185B5
100
AcDbEntity
  8
0
  6
ByBlock
 62
     0
 48
50.0
100
AcDbLine
 10
11857.46242649134
 20
12667.68151569412
 30
0.0
 11
11857.46242649134
 21
13127.71350056477
 31
0.0
  0
LINE
  5
18627
330
185B5
100
AcDbEntity
  8
0
  6
ByBlock
 62
     0
 48
50.0
100
AcDbLine
 10
11857.46242649134
 20
13052.71350056477
 30
0.0
 11
11787.46242649134
 21
13052.71350056477
 31
0.0
  0
LINE
  5
18628
330
185B5
100
AcDbEntity
  8
0
  6
ByBlock
 62
     0
 48
50.0
100
AcDbLine
 10
11787.46242649134
 20
13052.71350056477
 30
0.0
 11
11437.34431625512
 21
13052.71350056477
 31
0.0
  0
INSERT
  5
18629
330
185B5
100
AcDbEntity
  8
0
  6
ByBlock
 62
     0
 48
50.0
100
AcDbBlockReference
  2
_DOTSMALL
 10
11857.46242649134
 20
13052.71350056477
 30
0.0
 41
125.0
 42
125.0
 43
125.0
  0
INSERT
  5
1862A
330
185B5
100
AcDbEntity
  8
0
  6
ByBlock
 62
     0
 48
50.0
100
AcDbBlockReference
  2
_DOTSMALL
 10
11787.46242649134
 20
13052.71350056477
 30
0.0
 41
125.0
 42
125.0
 43
125.0
 50
180.0
  0
MTEXT
  5
1862B
330
185B5
100
AcDbEntity
  8
0
  6
ByBlock
 62
     7
 48
50.0
100
AcDbMText
 10
11544.90337137323
 20
13152.71350056477
 30
0.0
 40
150.0
 41
0.0
 71
     5
 72
     1
  1
\A1;70
  7
STYLE1
 73
     1
 44
1.0
  0
POINT
  5
1862C
330
185B5
100
AcDbEntity
  8
DEFPOINTS
  6
ByBlock
 62
     0
 48
50.0
100
AcDbPoint
 10
11787.46242649134
 20
12632.68151569412
 30
0.0
  0
POINT
  5
1862D
330
185B5
100
AcDbEntity
  8
DEFPOINTS
  6
ByBlock
 62
     0
 48
50.0
100
AcDbPoint
 10
11857.46242649134
 20
12642.68151569412
 30
0.0
  0
POINT
  5
1862E
330
185B5
100
AcDbEntity
  8
DEFPOINTS
  6
ByBlock
 62
     0
 48
50.0
100
AcDbPoint
 10
11857.46242649134
 20
13052.71350056477
 30
0.0
  0
ENDBLK
  5
1862F
330
185B5
100
AcDbEntity
  8
0
 48
50.0
100
AcDbBlockEnd
  0
BLOCK
  5
1B2F1
330
185C2
100
AcDbEntity
  8
0
 48
50.0
100
AcDbBlockBegin
  2
*D8
 70
     1
 10
0.0
 20
0.0
 30
0.0
  3
*D8
  1

  0
LINE
  5
1CF75
330
185C2
100
AcDbEntity
  8
寸法
 62
     0
 48
50.0
100
AcDbLine
 10
14172.82958141817
 20
11133.73679736193
 30
0.0
 11
14172.82958141817
 21
11593.76878223257
 31
0.0
  0
LINE
  5
1CF76
330
185C2
100
AcDbEntity
  8
寸法
 62
     0
 48
50.0
100
AcDbLine
 10
12432.82958141817
 20
11518.76878223258
 30
0.0
 11
14172.82958141817
 21
11518.76878223258
 31
0.0
  0
INSERT
  5
1CF77
330
185C2
100
AcDbEntity
  8
寸法
 62
     0
 48
50.0
100
AcDbBlockReference
  2
_DOTSMALL
 10
12432.82958141817
 20
11518.76878223258
 30
0.0
 41
125.0
 42
125.0
 43
125.0
 50
180.0
  0
INSERT
  5
1CF78
330
185C2
100
AcDbEntity
  8
寸法
 62
     0
 48
50.0
100
AcDbBlockReference
  2
_DOTSMALL
 10
14172.82958141817
 20
11518.76878223258
 30
0.0
 41
125.0
 42
125.0
 43
125.0
  0
MTEXT
  5
1CF79
330
185C2
100
AcDbEntity
  8
寸法
 62
     7
 48
50.0
100
AcDbMText
 10
13302.82958141817
 20
11618.76878223258
 30
0.0
 40
150.0
 41
0.0
 71
     5
 72
     1
  1
\A1;3x580=1740
  7
STYLE1
 73
     1
 44
1.0
  0
POINT
  5
1CF7A
330
185C2
100
AcDbEntity
  8
DEFPOINTS
 62
     0
 48
50.0
100
AcDbPoint
 10
12432.82958141817
 20
11108.73679736192
 30
0.0
  0
POINT
  5
1CF7B
330
185C2
100
AcDbEntity
  8
DEFPOINTS
 62
     0
 48
50.0
100
AcDbPoint
 10
14172.82958141817
 20
11108.73679736193
 30
0.0
  0
POINT
  5
1CF7C
330
185C2
100
AcDbEntity
  8
DEFPOINTS
 62
     0
 48
50.0
100
AcDbPoint
 10
14172.82958141817
 20
11518.76878223258
 30
0.0
  0
ENDBLK
  5
1B2FA
330
185C2
100
AcDbEntity
  8
0
 48
50.0
100
AcDbBlockEnd
  0
BLOCK
  5
18656
330
185E5
100
AcDbEntity
  8
0
 48
50.0
100
AcDbBlockBegin
  2
*D9
 70
     1
 10
0.0
 20
0.0
 30
0.0
  3
*D9
  1

  0
LINE
  5
18657
330
185E5
100
AcDbEntity
  8
0
  6
ByBlock
 62
     0
 48
50.0
100
AcDbLine
 10
16637.46242649134
 20
12667.68151569412
 30
0.0
 11
16637.46242649134
 21
13127.71350056477
 31
0.0
  0
LINE
  5
18658
330
185E5
100
AcDbEntity
  8
0
  6
ByBlock
 62
     0
 48
50.0
100
AcDbLine
 10
16707.46242649134
 20
12657.68151569412
 30
0.0
 11
16707.46242649134
 21
13127.71350056477
 31
0.0
  0
LINE
  5
18659
330
185E5
100
AcDbEntity
  8
0
  6
ByBlock
 62
     0
 48
50.0
100
AcDbLine
 10
16637.46242649134
 20
13052.71350056477
 30
0.0
 11
16707.46242649134
 21
13052.71350056477
 31
0.0
  0
LINE
  5
1865A
330
185E5
100
AcDbEntity
  8
0
  6
ByBlock
 62
     0
 48
50.0
100
AcDbLine
 10
16707.46242649134
 20
13052.71350056477
 30
0.0
 11
17077.58053672756
 21
13052.71350056477
 31
0.0
  0
INSERT
  5
1865B
330
185E5
100
AcDbEntity
  8
0
  6
ByBlock
 62
     0
 48
50.0
100
AcDbBlockReference
  2
_DOTSMALL
 10
16637.46242649134
 20
13052.71350056477
 30
0.0
 41
125.0
 42
125.0
 43
125.0
 50
180.0
  0
INSERT
  5
1865C
330
185E5
100
AcDbEntity
  8
0
  6
ByBlock
 62
     0
 48
50.0
100
AcDbBlockReference
  2
_DOTSMALL
 10
16707.46242649134
 20
13052.71350056477
 30
0.0
 41
125.0
 42
125.0
 43
125.0
  0
MTEXT
  5
1865D
330
185E5
100
AcDbEntity
  8
0
  6
ByBlock
 62
     7
 48
50.0
100
AcDbMText
 10
16970.02148160945
 20
13152.71350056477
 30
0.0
 40
150.0
 41
0.0
 71
     5
 72
     1
  1
\A1;70
  7
STYLE1
 73
     1
 44
1.0
  0
POINT
  5
1865E
330
185E5
100
AcDbEntity
  8
DEFPOINTS
  6
ByBlock
 62
     0
 48
50.0
100
AcDbPoint
 10
16637.46242649134
 20
12642.68151569412
 30
0.0
  0
POINT
  5
1865F
330
185E5
100
AcDbEntity
  8
DEFPOINTS
  6
ByBlock
 62
     0
 48
50.0
100
AcDbPoint
 10
16707.46242649134
 20
12632.68151569412
 30
0.0
  0
POINT
  5
18660
330
185E5
100
AcDbEntity
  8
DEFPOINTS
  6
ByBlock
 62
     0
 48
50.0
100
AcDbPoint
 10
16707.46242649134
 20
13052.71350056477
 30
0.0
  0
ENDBLK
  5
18661
330
185E5
100
AcDbEntity
  8
0
 48
50.0
100
AcDbBlockEnd
  0
BLOCK
  5
18617
330
185F2
100
AcDbEntity
  8
0
 48
50.0
100
AcDbBlockBegin
  2
*D10
 70
     1
 10
0.0
 20
0.0
 30
0.0
  3
*D10
  1

  0
LINE
  5
18618
330
185F2
100
AcDbEntity
  8
0
  6
ByBlock
 62
     0
 48
50.0
100
AcDbLine
 10
11787.46242649134
 20
12657.68151569412
 30
0.0
 11
11787.46242649134
 21
13426.45988446553
 31
0.0
  0
LINE
  5
18619
330
185F2
100
AcDbEntity
  8
0
  6
ByBlock
 62
     0
 48
50.0
100
AcDbLine
 10
11837.46242649134
 20
13077.71350056477
 30
0.0
 11
11837.46242649134
 21
13426.45988446553
 31
0.0
  0
LINE
  5
1861A
330
185F2
100
AcDbEntity
  8
0
  6
ByBlock
 62
     0
 48
50.0
100
AcDbLine
 10
11837.46242649134
 20
13351.45988446553
 30
0.0
 11
11962.46242649134
 21
13351.45988446553
 31
0.0
  0
LINE
  5
1861B
330
185F2
100
AcDbEntity
  8
0
  6
ByBlock
 62
     0
 48
50.0
100
AcDbLine
 10
11787.46242649134
 20
13351.45988446553
 30
0.0
 11
11322.34431625512
 21
13351.45988446553
 31
0.0
  0
LINE
  5
1861C
330
185F2
100
AcDbEntity
  8
0
  6
ByBlock
 62
     0
 48
50.0
100
AcDbLine
 10
11837.46242649134
 20
13351.45988446553
 30
0.0
 11
11787.46242649134
 21
13351.45988446553
 31
0.0
  0
INSERT
  5
1861D
330
185F2
100
AcDbEntity
  8
0
  6
ByBlock
 62
     0
 48
50.0
100
AcDbBlockReference
  2
_DOTSMALL
 10
11837.46242649134
 20
13351.45988446553
 30
0.0
 41
125.0
 42
125.0
 43
125.0
 50
180.0
  0
INSERT
  5
1861E
330
185F2
100
AcDbEntity
  8
0
  6
ByBlock
 62
     0
 48
50.0
100
AcDbBlockReference
  2
_DOTSMALL
 10
11787.46242649134
 20
13351.45988446553
 30
0.0
 41
125.0
 42
125.0
 43
125.0
  0
MTEXT
  5
1861F
330
185F2
100
AcDbEntity
  8
0
  6
ByBlock
 62
     7
 48
50.0
100
AcDbMText
 10
11429.90337137323
 20
13451.45988446553
 30
0.0
 40
150.0
 41
0.0
 71
     5
 72
     1
  1
\A1;50
  7
STYLE1
 73
     1
 44
1.0
  0
POINT
  5
18620
330
185F2
100
AcDbEntity
  8
DEFPOINTS
  6
ByBlock
 62
     0
 48
50.0
100
AcDbPoint
 10
11787.46242649134
 20
12632.68151569412
 30
0.0
  0
POINT
  5
18621
330
185F2
100
AcDbEntity
  8
DEFPOINTS
  6
ByBlock
 62
     0
 48
50.0
100
AcDbPoint
 10
11837.46242649134
 20
13052.71350056477
 30
0.0
  0
POINT
  5
18622
330
185F2
100
AcDbEntity
  8
DEFPOINTS
  6
ByBlock
 62
     0
 48
50.0
100
AcDbPoint
 10
11837.46242649134
 20
13351.45988446553
 30
0.0
  0
ENDBLK
  5
18623
330
185F2
100
AcDbEntity
  8
0
 48
50.0
100
AcDbBlockEnd
  0
BLOCK
  5
1C636
330
185FF
100
AcDbEntity
  8
0
 48
50.0
100
AcDbBlockBegin
  2
*D11
 70
     1
 10
0.0
 20
0.0
 30
0.0
  3
*D11
  1

  0
LINE
  5
1CF6D
330
185FF
100
AcDbEntity
  8
寸法
 62
     0
 48
50.0
100
AcDbLine
 10
14192.82958141817
 20
11543.76878223258
 30
0.0
 11
14192.82958141817
 21
11892.51516613334
 31
0.0
  0
LINE
  5
1CF6E
330
185FF
100
AcDbEntity
  8
寸法
 62
     0
 48
50.0
100
AcDbLine
 10
12412.82958141816
 20
11817.51516613334
 30
0.0
 11
14192.82958141817
 21
11817.51516613334
 31
0.0
  0
INSERT
  5
1CF6F
330
185FF
100
AcDbEntity
  8
寸法
 62
     0
 48
50.0
100
AcDbBlockReference
  2
_DOTSMALL
 10
12412.82958141816
 20
11817.51516613334
 30
0.0
 41
125.0
 42
125.0
 43
125.0
 50
180.0
  0
INSERT
  5
1CF70
330
185FF
100
AcDbEntity
  8
寸法
 62
     0
 48
50.0
100
AcDbBlockReference
  2
_DOTSMALL
 10
14192.82958141817
 20
11817.51516613334
 30
0.0
 41
125.0
 42
125.0
 43
125.0
  0
MTEXT
  5
1CF71
330
185FF
100
AcDbEntity
  8
寸法
 62
     7
 48
50.0
100
AcDbMText
 10
13302.82958141817
 20
11917.51516613334
 30
0.0
 40
150.0
 41
0.0
 71
     5
 72
     1
  1
\A1;内部寸法 1780
  7
STYLE1
 73
     1
 44
1.0
  0
POINT
  5
1CF72
330
185FF
100
AcDbEntity
  8
DEFPOINTS
 62
     0
 48
50.0
100
AcDbPoint
 10
12412.82958141816
 20
11518.76878223258
 30
0.0
  0
POINT
  5
1CF73
330
185FF
100
AcDbEntity
  8
DEFPOINTS
 62
     0
 48
50.0
100
AcDbPoint
 10
14192.82958141817
 20
11518.76878223258
 30
0.0
  0
POINT
  5
1CF74
330
185FF
100
AcDbEntity
  8
DEFPOINTS
 62
     0
 48
50.0
100
AcDbPoint
 10
14192.82958141817
 20
11817.51516613334
 30
0.0
  0
ENDBLK
  5
1C63F
330
185FF
100
AcDbEntity
  8
0
 48
50.0
100
AcDbBlockEnd
  0
BLOCK
  5
18649
330
1860A
100
AcDbEntity
  8
0
 48
50.0
100
AcDbBlockBegin
  2
*D12
 70
     1
 10
0.0
 20
0.0
 30
0.0
  3
*D12
  1

  0
LINE
  5
1864A
330
1860A
100
AcDbEntity
  8
0
  6
ByBlock
 62
     0
 48
50.0
100
AcDbLine
 10
16657.46242649135
 20
13077.71350056477
 30
0.0
 11
16657.46242649135
 21
13426.45988446553
 31
0.0
  0
LINE
  5
1864B
330
1860A
100
AcDbEntity
  8
0
  6
ByBlock
 62
     0
 48
50.0
100
AcDbLine
 10
16707.46242649134
 20
12657.68151569412
 30
0.0
 11
16707.46242649134
 21
13426.45988446553
 31
0.0
  0
LINE
  5
1864C
330
1860A
100
AcDbEntity
  8
0
  6
ByBlock
 62
     0
 48
50.0
100
AcDbLine
 10
16657.46242649135
 20
13351.45988446553
 30
0.0
 11
16532.46242649135
 21
13351.45988446553
 31
0.0
  0
LINE
  5
1864D
330
1860A
100
AcDbEntity
  8
0
  6
ByBlock
 62
     0
 48
50.0
100
AcDbLine
 10
16707.46242649134
 20
13351.45988446553
 30
0.0
 11
17172.58053672756
 21
13351.45988446553
 31
0.0
  0
LINE
  5
1864E
330
1860A
100
AcDbEntity
  8
0
  6
ByBlock
 62
     0
 48
50.0
100
AcDbLine
 10
16657.46242649135
 20
13351.45988446553
 30
0.0
 11
16707.46242649134
 21
13351.45988446553
 31
0.0
  0
INSERT
  5
1864F
330
1860A
100
AcDbEntity
  8
0
  6
ByBlock
 62
     0
 48
50.0
100
AcDbBlockReference
  2
_DOTSMALL
 10
16657.46242649135
 20
13351.45988446553
 30
0.0
 41
125.0
 42
125.0
 43
125.0
  0
INSERT
  5
18650
330
1860A
100
AcDbEntity
  8
0
  6
ByBlock
 62
     0
 48
50.0
100
AcDbBlockReference
  2
_DOTSMALL
 10
16707.46242649134
 20
13351.45988446553
 30
0.0
 41
125.0
 42
125.0
 43
125.0
 50
180.0
  0
MTEXT
  5
18651
330
1860A
100
AcDbEntity
  8
0
  6
ByBlock
 62
     7
 48
50.0
100
AcDbMText
 10
17065.02148160945
 20
13451.45988446553
 30
0.0
 40
150.0
 41
0.0
 71
     5
 72
     1
  1
\A1;50
  7
STYLE1
 73
     1
 44
1.0
  0
POINT
  5
18652
330
1860A
100
AcDbEntity
  8
DEFPOINTS
  6
ByBlock
 62
     0
 48
50.0
100
AcDbPoint
 10
16657.46242649135
 20
13052.71350056477
 30
0.0
  0
POINT
  5
18653
330
1860A
100
AcDbEntity
  8
DEFPOINTS
  6
ByBlock
 62
     0
 48
50.0
100
AcDbPoint
 10
16707.46242649134
 20
12632.68151569412
 30
0.0
  0
POINT
  5
18654
330
1860A
100
AcDbEntity
  8
DEFPOINTS
  6
ByBlock
 62
     0
 48
50.0
100
AcDbPoint
 10
16707.46242649134
 20
13351.45988446553
 30
0.0
  0
ENDBLK
  5
18655
330
1860A
100
AcDbEntity
  8
0
 48
50.0
100
AcDbBlockEnd
  0
BLOCK
  5
1C237
330
1868D
100
AcDbEntity
  8
0
 48
50.0
100
AcDbBlockBegin
  2
*D13
 70
     1
 10
0.0
 20
0.0
 30
0.0
  3
*D13
  1

  0
LINE
  5
1C238
330
1868D
100
AcDbEntity
  8
0
  6
ByBlock
 62
     0
 48
50.0
100
AcDbLine
 10
12362.82958141816
 20
9213.736797361928
 30
0.0
 11
12362.82958141816
 21
8361.498920305797
 31
0.0
  0
LINE
  5
1C239
330
1868D
100
AcDbEntity
  8
0
  6
ByBlock
 62
     0
 48
50.0
100
AcDbLine
 10
14242.82958141817
 20
9213.73679736193
 30
0.0
 11
14242.82958141817
 21
8361.498920305797
 31
0.0
  0
LINE
  5
1C23A
330
1868D
100
AcDbEntity
  8
0
  6
ByBlock
 62
     0
 48
50.0
100
AcDbLine
 10
12362.82958141816
 20
8436.498920305798
 30
0.0
 11
14242.82958141817
 21
8436.498920305798
 31
0.0
  0
INSERT
  5
1C23B
330
1868D
100
AcDbEntity
  8
0
  6
ByBlock
 62
     0
 48
50.0
100
AcDbBlockReference
  2
_DOTSMALL
 10
12362.82958141816
 20
8436.498920305798
 30
0.0
 41
125.0
 42
125.0
 43
125.0
 50
180.0
  0
INSERT
  5
1C23C
330
1868D
100
AcDbEntity
  8
0
  6
ByBlock
 62
     0
 48
50.0
100
AcDbBlockReference
  2
_DOTSMALL
 10
14242.82958141817
 20
8436.498920305798
 30
0.0
 41
125.0
 42
125.0
 43
125.0
  0
MTEXT
  5
1C23D
330
1868D
100
AcDbEntity
  8
0
  6
ByBlock
 62
     7
 48
50.0
100
AcDbMText
 10
13302.82958141817
 20
8536.498920305797
 30
0.0
 40
150.0
 41
0.0
 71
     5
 72
     1
  1
\A1;1880
  7
STYLE1
 73
     1
 44
1.0
  0
POINT
  5
1C23E
330
1868D
100
AcDbEntity
  8
DEFPOINTS
  6
ByBlock
 62
     0
 48
50.0
100
AcDbPoint
 10
12362.82958141816
 20
9238.736797361928
 30
0.0
  0
POINT
  5
1C23F
330
1868D
100
AcDbEntity
  8
DEFPOINTS
  6
ByBlock
 62
     0
 48
50.0
100
AcDbPoint
 10
14242.82958141817
 20
9238.736797361928
 30
0.0
  0
POINT
  5
1C240
330
1868D
100
AcDbEntity
  8
DEFPOINTS
  6
ByBlock
 62
     0
 48
50.0
100
AcDbPoint
 10
14242.82958141817
 20
8436.498920305798
 30
0.0
  0
ENDBLK
  5
1C241
330
1868D
100
AcDbEntity
  8
0
 48
50.0
100
AcDbBlockEnd
  0
BLOCK
  5
1C640
330
186B0
100
AcDbEntity
  8
0
 48
50.0
100
AcDbBlockBegin
  2
*D14
 70
     1
 10
0.0
 20
0.0
 30
0.0
  3
*D14
  1

  0
LINE
  5
1C641
330
186B0
100
AcDbEntity
  8
0
  6
ByBlock
 62
     0
 48
50.0
100
AcDbLine
 10
12347.82958141817
 20
11108.73679736192
 30
0.0
 11
11521.1986016385
 21
11108.73679736192
 31
0.0
  0
LINE
  5
1C642
330
186B0
100
AcDbEntity
  8
0
  6
ByBlock
 62
     0
 48
50.0
100
AcDbLine
 10
12347.82958141817
 20
9228.736797361928
 30
0.0
 11
11521.1986016385
 21
9228.736797361928
 31
0.0
  0
LINE
  5
1C643
330
186B0
100
AcDbEntity
  8
0
  6
ByBlock
 62
     0
 48
50.0
100
AcDbLine
 10
11596.1986016385
 20
11108.73679736192
 30
0.0
 11
11596.1986016385
 21
9228.736797361928
 31
0.0
  0
INSERT
  5
1C644
330
186B0
100
AcDbEntity
  8
0
  6
ByBlock
 62
     0
 48
50.0
100
AcDbBlockReference
  2
_DOTSMALL
 10
11596.1986016385
 20
11108.73679736192
 30
0.0
 41
125.0
 42
125.0
 43
125.0
 50
90.0
  0
INSERT
  5
1C645
330
186B0
100
AcDbEntity
  8
0
  6
ByBlock
 62
     0
 48
50.0
100
AcDbBlockReference
  2
_DOTSMALL
 10
11596.1986016385
 20
9228.736797361928
 30
0.0
 41
125.0
 42
125.0
 43
125.0
 50
270.0
  0
MTEXT
  5
1C646
330
186B0
100
AcDbEntity
  8
0
  6
ByBlock
 62
     7
 48
50.0
100
AcDbMText
 10
11496.1986016385
 20
10168.73679736193
 30
0.0
 40
150.0
 41
0.0
 71
     5
 72
     1
  1
\A1;1880
  7
STYLE1
 11
0.0000000000000001
 21
1.0
 31
0.0
 73
     1
 44
1.0
  0
POINT
  5
1C647
330
186B0
100
AcDbEntity
  8
DEFPOINTS
  6
ByBlock
 62
     0
 48
50.0
100
AcDbPoint
 10
12372.82958141816
 20
11108.73679736192
 30
0.0
  0
POINT
  5
1C648
330
186B0
100
AcDbEntity
  8
DEFPOINTS
  6
ByBlock
 62
     0
 48
50.0
100
AcDbPoint
 10
12372.82958141816
 20
9228.736797361928
 30
0.0
  0
POINT
  5
1C649
330
186B0
100
AcDbEntity
  8
DEFPOINTS
  6
ByBlock
 62
     0
 48
50.0
100
AcDbPoint
 10
11596.1986016385
 20
9228.736797361928
 30
0.0
  0
ENDBLK
  5
1C64A
330
186B0
100
AcDbEntity
  8
0
 48
50.0
100
AcDbBlockEnd
  0
BLOCK
  5
1AF82
330
1AF2C
100
AcDbEntity
  8
0
 48
50.0
100
AcDbBlockBegin
  2
*D15
 70
     1
 10
0.0
 20
0.0
 30
0.0
  3
*D15
  1

  0
LINE
  5
1AF83
330
1AF2C
100
AcDbEntity
  8
0
  6
ByBlock
 62
     0
 48
50.0
100
AcDbLine
 10
273.7989405287262
 20
1475.528226376841
 30
0.0
 11
273.7989405287262
 21
1097.887084092173
 31
0.0
  0
LINE
  5
1AF84
330
1AF2C
100
AcDbEntity
  8
0
  6
ByBlock
 62
     0
 48
50.0
100
AcDbLine
 10
73.79894052872441
 20
1475.528226376841
 30
0.0
 11
73.79894052872439
 21
1097.887084092173
 31
0.0
  0
LINE
  5
1AF85
330
1AF2C
100
AcDbEntity
  8
0
  6
ByBlock
 62
     0
 48
50.0
100
AcDbLine
 10
273.7989405287262
 20
1172.887084092173
 30
0.0
 11
73.7989405287244
 21
1172.887084092173
 31
0.0
  0
LINE
  5
1AF86
330
1AF2C
100
AcDbEntity
  8
0
  6
ByBlock
 62
     0
 48
50.0
100
AcDbLine
 10
73.7989405287244
 20
1172.887084092173
 30
0.0
 11
-375.1282248256064
 21
1172.887084092173
 31
0.0
  0
INSERT
  5
1AF87
330
1AF2C
100
AcDbEntity
  8
0
  6
ByBlock
 62
     0
 48
50.0
100
AcDbBlockReference
  2
_DOTSMALL
 10
273.7989405287262
 20
1172.887084092173
 30
0.0
 41
125.0
 42
125.0
 43
125.0
  0
INSERT
  5
1AF88
330
1AF2C
100
AcDbEntity
  8
0
  6
ByBlock
 62
     0
 48
50.0
100
AcDbBlockReference
  2
_DOTSMALL
 10
73.7989405287244
 20
1172.887084092173
 30
0.0
 41
125.0
 42
125.0
 43
125.0
 50
180.0
  0
MTEXT
  5
1AF89
330
1AF2C
100
AcDbEntity
  8
0
  6
ByBlock
 62
     7
 48
50.0
100
AcDbMText
 10
-213.164642148441
 20
1272.901847871701
 30
0.0
 40
150.0
 41
0.0
 71
     5
 72
     1
  1
\A1;200
  7
STYLE1
 73
     1
 44
1.0
  0
POINT
  5
1AF8A
330
1AF2C
100
AcDbEntity
  8
DEFPOINTS
  6
ByBlock
 62
     0
 48
50.0
100
AcDbPoint
 10
273.7989405287262
 20
1500.528226376841
 30
0.0
  0
POINT
  5
1AF8B
330
1AF2C
100
AcDbEntity
  8
DEFPOINTS
  6
ByBlock
 62
     0
 48
50.0
100
AcDbPoint
 10
73.79894052872441
 20
1500.528226376841
 30
0.0
  0
POINT
  5
1AF8C
330
1AF2C
100
AcDbEntity
  8
DEFPOINTS
  6
ByBlock
 62
     0
 48
50.0
100
AcDbPoint
 10
73.7989405287244
 20
1172.887084092173
 30
0.0
  0
ENDBLK
  5
1AF8D
330
1AF2C
100
AcDbEntity
  8
0
 48
50.0
100
AcDbBlockEnd
  0
BLOCK
  5
1B28C
330
1AF39
100
AcDbEntity
  8
0
 48
50.0
100
AcDbBlockBegin
  2
*D16
 70
     1
 10
0.0
 20
0.0
 30
0.0
  3
*D16
  1

  0
LINE
  5
1B28D
330
1AF39
100
AcDbEntity
  8
0
  6
ByBlock
 62
     0
 48
50.0
100
AcDbLine
 10
5947.829577048348
 20
5534.000002624809
 30
0.0
 11
5947.829577048348
 21
6581.068854554546
 31
0.0
  0
LINE
  5
1B28E
330
1AF39
100
AcDbEntity
  8
0
  6
ByBlock
 62
     0
 48
50.0
100
AcDbLine
 10
7937.829581418177
 20
5534.000002624809
 30
0.0
 11
7937.829581418177
 21
6581.068854554546
 31
0.0
  0
LINE
  5
1B28F
330
1AF39
100
AcDbEntity
  8
0
  6
ByBlock
 62
     0
 48
50.0
100
AcDbLine
 10
5947.829577048348
 20
6506.068854554546
 30
0.0
 11
7937.829581418177
 21
6506.068854554546
 31
0.0
  0
INSERT
  5
1B290
330
1AF39
100
AcDbEntity
  8
0
  6
ByBlock
 62
     0
 48
50.0
100
AcDbBlockReference
  2
_DOTSMALL
 10
5947.829577048348
 20
6506.068854554546
 30
0.0
 41
125.0
 42
125.0
 43
125.0
 50
180.0
  0
INSERT
  5
1B291
330
1AF39
100
AcDbEntity
  8
0
  6
ByBlock
 62
     0
 48
50.0
100
AcDbBlockReference
  2
_DOTSMALL
 10
7937.829581418177
 20
6506.068854554546
 30
0.0
 41
125.0
 42
125.0
 43
125.0
  0
MTEXT
  5
1B292
330
1AF39
100
AcDbEntity
  8
0
  6
ByBlock
 62
     7
 48
50.0
100
AcDbMText
 10
6942.829579233261
 20
6606.068854554546
 30
0.0
 40
150.0
 41
0.0
 71
     5
 72
     1
  1
\A1;1990
  7
STYLE1
 73
     1
 44
1.0
  0
POINT
  5
1B293
330
1AF39
100
AcDbEntity
  8
DEFPOINTS
  6
ByBlock
 62
     0
 48
50.0
100
AcDbPoint
 10
5947.829577048348
 20
5509.000002624809
 30
0.0
  0
POINT
  5
1B294
330
1AF39
100
AcDbEntity
  8
DEFPOINTS
  6
ByBlock
 62
     0
 48
50.0
100
AcDbPoint
 10
7937.829581418177
 20
5509.000002624809
 30
0.0
  0
POINT
  5
1B295
330
1AF39
100
AcDbEntity
  8
DEFPOINTS
  6
ByBlock
 62
     0
 48
50.0
100
AcDbPoint
 10
7937.829581418177
 20
6506.068854554546
 30
0.0
  0
ENDBLK
  5
1B296
330
1AF39
100
AcDbEntity
  8
0
 48
50.0
100
AcDbBlockEnd
  0
BLOCK
  5
1B282
330
1AF45
100
AcDbEntity
  8
0
 48
50.0
100
AcDbBlockBegin
  2
*D17
 70
     1
 10
0.0
 20
0.0
 30
0.0
  3
*D17
  1

  0
LINE
  5
1CF7D
330
1AF45
100
AcDbEntity
  8
寸法
 62
     0
 48
50.0
100
AcDbLine
 10
14242.82958141817
 20
5570.000000008403
 30
0.0
 11
14242.82958141817
 21
6313.281130716478
 31
0.0
  0
LINE
  5
1CF7E
330
1AF45
100
AcDbEntity
  8
寸法
 62
     0
 48
50.0
100
AcDbLine
 10
12362.82958141817
 20
6238.281130716478
 30
0.0
 11
14242.82958141817
 21
6238.281130716478
 31
0.0
  0
INSERT
  5
1CF7F
330
1AF45
100
AcDbEntity
  8
寸法
 62
     0
 48
50.0
100
AcDbBlockReference
  2
_DOTSMALL
 10
12362.82958141817
 20
6238.281130716478
 30
0.0
 41
125.0
 42
125.0
 43
125.0
 50
180.0
  0
INSERT
  5
1CF80
330
1AF45
100
AcDbEntity
  8
寸法
 62
     0
 48
50.0
100
AcDbBlockReference
  2
_DOTSMALL
 10
14242.82958141817
 20
6238.281130716478
 30
0.0
 41
125.0
 42
125.0
 43
125.0
  0
MTEXT
  5
1CF81
330
1AF45
100
AcDbEntity
  8
寸法
 62
     7
 48
50.0
100
AcDbMText
 10
13302.82958141817
 20
6338.281130716477
 30
0.0
 40
150.0
 41
0.0
 71
     5
 72
     1
  1
\A1;柱外寸法 1880
  7
STYLE1
 73
     1
 44
1.0
  0
POINT
  5
1CF82
330
1AF45
100
AcDbEntity
  8
DEFPOINTS
 62
     0
 48
50.0
100
AcDbPoint
 10
12362.82958141817
 20
5545.000000008424
 30
0.0
  0
POINT
  5
1CF83
330
1AF45
100
AcDbEntity
  8
DEFPOINTS
 62
     0
 48
50.0
100
AcDbPoint
 10
14242.82958141817
 20
5545.000000008403
 30
0.0
  0
POINT
  5
1CF84
330
1AF45
100
AcDbEntity
  8
DEFPOINTS
 62
     0
 48
50.0
100
AcDbPoint
 10
14242.82958141817
 20
6238.281130716478
 30
0.0
  0
ENDBLK
  5
1B28B
330
1AF45
100
AcDbEntity
  8
0
 48
50.0
100
AcDbBlockEnd
  0
BLOCK
  5
1AFA3
330
1AF50
100
AcDbEntity
  8
0
 48
50.0
100
AcDbBlockBegin
  2
*D18
 70
     1
 10
0.0
 20
0.0
 30
0.0
  3
*D18
  1

  0
LINE
  5
1AFA4
330
1AF50
100
AcDbEntity
  8
0
  6
ByBlock
 62
     0
 48
50.0
100
AcDbLine
 10
-2341.201063841101
 20
4264.52822900165
 30
0.0
 11
-2341.201063841101
 21
5043.809357093363
 31
0.0
  0
LINE
  5
1AFA5
330
1AF50
100
AcDbEntity
  8
0
  6
ByBlock
 62
     0
 48
50.0
100
AcDbLine
 10
-2286.201059471273
 20
4300.528226385309
 30
0.0
 11
-2286.201059471273
 21
5043.809357093363
 31
0.0
  0
LINE
  5
1AFA6
330
1AF50
100
AcDbEntity
  8
0
  6
ByBlock
 62
     0
 48
50.0
100
AcDbLine
 10
-2286.201059471273
 20
4968.809357093363
 30
0.0
 11
-2341.201063841101
 21
4968.809357093363
 31
0.0
  0
LINE
  5
1AFA7
330
1AF50
100
AcDbEntity
  8
0
  6
ByBlock
 62
     0
 48
50.0
100
AcDbLine
 10
-2341.201063841101
 20
4968.809357093363
 30
0.0
 11
-2776.866716307184
 21
4968.809357093363
 31
0.0
  0
INSERT
  5
1AFA8
330
1AF50
100
AcDbEntity
  8
0
  6
ByBlock
 62
     0
 48
50.0
100
AcDbBlockReference
  2
_DOTSMALL
 10
-2286.201059471273
 20
4968.809357093363
 30
0.0
 41
125.0
 42
125.0
 43
125.0
  0
INSERT
  5
1AFA9
330
1AF50
100
AcDbEntity
  8
0
  6
ByBlock
 62
     0
 48
50.0
100
AcDbBlockReference
  2
_DOTSMALL
 10
-2341.201063841101
 20
4968.809357093363
 30
0.0
 41
125.0
 42
125.0
 43
125.0
 50
180.0
  0
MTEXT
  5
1AFAA
330
1AF50
100
AcDbEntity
  8
0
  6
ByBlock
 62
     7
 48
50.0
100
AcDbMText
 10
-2666.260114589386
 20
5068.809357093363
 30
0.0
 40
150.0
 41
0.0
 71
     5
 72
     1
  1
\A1;55
  7
STYLE1
 73
     1
 44
1.0
  0
POINT
  5
1AFAB
330
1AF50
100
AcDbEntity
  8
DEFPOINTS
  6
ByBlock
 62
     0
 48
50.0
100
AcDbPoint
 10
-2341.201063841101
 20
4239.528229001651
 30
0.0
  0
POINT
  5
1AFAC
330
1AF50
100
AcDbEntity
  8
DEFPOINTS
  6
ByBlock
 62
     0
 48
50.0
100
AcDbPoint
 10
-2286.201059471273
 20
4275.52822638531
 30
0.0
  0
POINT
  5
1AFAD
330
1AF50
100
AcDbEntity
  8
DEFPOINTS
  6
ByBlock
 62
     0
 48
50.0
100
AcDbPoint
 10
-2286.201059471273
 20
4968.809357093363
 30
0.0
  0
ENDBLK
  5
1AFAE
330
1AF50
100
AcDbEntity
  8
0
 48
50.0
100
AcDbBlockEnd
  0
BLOCK
  5
1AFC5
330
1AF75
100
AcDbEntity
  8
0
 48
50.0
100
AcDbBlockBegin
  2
*D19
 70
     1
 10
0.0
 20
0.0
 30
0.0
  3
*D19
  1

  0
LINE
  5
1AFC6
330
1AF75
100
AcDbEntity
  8
0
  6
ByBlock
 62
     0
 48
50.0
100
AcDbLine
 10
173.7989405287244
 20
4300.528226385288
 30
0.0
 11
173.7989405287244
 21
5043.809357093363
 31
0.0
  0
LINE
  5
1AFC7
330
1AF75
100
AcDbEntity
  8
0
  6
ByBlock
 62
     0
 48
50.0
100
AcDbLine
 10
228.798940528728
 20
4264.52822900165
 30
0.0
 11
228.7989405287281
 21
5043.809357093363
 31
0.0
  0
LINE
  5
1AFC8
330
1AF75
100
AcDbEntity
  8
0
  6
ByBlock
 62
     0
 48
50.0
100
AcDbLine
 10
173.7989405287244
 20
4968.809357093363
 30
0.0
 11
228.7989405287281
 21
4968.809357093363
 31
0.0
  0
LINE
  5
1AFC9
330
1AF75
100
AcDbEntity
  8
0
  6
ByBlock
 62
     0
 48
50.0
100
AcDbLine
 10
228.7989405287281
 20
4968.809357093363
 30
0.0
 11
654.4645973646366
 21
4968.809357093363
 31
0.0
  0
INSERT
  5
1AFCA
330
1AF75
100
AcDbEntity
  8
0
  6
ByBlock
 62
     0
 48
50.0
100
AcDbBlockReference
  2
_DOTSMALL
 10
173.7989405287244
 20
4968.809357093363
 30
0.0
 41
125.0
 42
125.0
 43
125.0
 50
180.0
  0
INSERT
  5
1AFCB
330
1AF75
100
AcDbEntity
  8
0
  6
ByBlock
 62
     0
 48
50.0
100
AcDbBlockReference
  2
_DOTSMALL
 10
228.7989405287281
 20
4968.809357093363
 30
0.0
 41
125.0
 42
125.0
 43
125.0
  0
MTEXT
  5
1AFCC
330
1AF75
100
AcDbEntity
  8
0
  6
ByBlock
 62
     7
 48
50.0
100
AcDbMText
 10
543.8579956468384
 20
5068.809357093363
 30
0.0
 40
150.0
 41
0.0
 71
     5
 72
     1
  1
\A1;55
  7
STYLE1
 73
     1
 44
1.0
  0
POINT
  5
1AFCD
330
1AF75
100
AcDbEntity
  8
DEFPOINTS
  6
ByBlock
 62
     0
 48
50.0
100
AcDbPoint
 10
173.7989405287244
 20
4275.528226385287
 30
0.0
  0
POINT
  5
1AFCE
330
1AF75
100
AcDbEntity
  8
DEFPOINTS
  6
ByBlock
 62
     0
 48
50.0
100
AcDbPoint
 10
228.798940528728
 20
4239.528229001651
 30
0.0
  0
POINT
  5
1AFCF
330
1AF75
100
AcDbEntity
  8
DEFPOINTS
  6
ByBlock
 62
     0
 48
50.0
100
AcDbPoint
 10
228.7989405287281
 20
4968.809357093363
 30
0.0
  0
ENDBLK
  5
1AFD0
330
1AF75
100
AcDbEntity
  8
0
 48
50.0
100
AcDbBlockEnd
  0
BLOCK
  5
1B82C
330
1B821
100
AcDbEntity
  8
0
 48
50.0
100
AcDbBlockBegin
  2
*D20
 70
     1
 10
0.0
 20
0.0
 30
0.0
  3
*D20
  1

  0
LINE
  5
1B822
330
1B821
100
AcDbEntity
  8
0
  6
ByBlock
 62
     0
 48
50.0
100
AcDbLine
 10
9844.700675670623
 20
6240.518507324279
 30
0.0
 11
10513.89790290454
 21
6240.518507324279
 31
0.0
  0
LINE
  5
1B823
330
1B821
100
AcDbEntity
  8
0
  6
ByBlock
 62
     0
 48
50.0
100
AcDbLine
 10
9844.700675670623
 20
6125.518507324279
 30
0.0
 11
10513.89790290454
 21
6125.518507324279
 31
0.0
  0
LINE
  5
1B824
330
1B821
100
AcDbEntity
  8
0
  6
ByBlock
 62
     0
 48
50.0
100
AcDbLine
 10
10438.89790290454
 20
6125.518507324279
 30
0.0
 11
10438.89790290454
 21
6240.518507324279
 31
0.0
  0
LINE
  5
1B825
330
1B821
100
AcDbEntity
  8
0
  6
ByBlock
 62
     0
 48
50.0
100
AcDbLine
 10
10438.89790290454
 20
6240.518507324279
 30
0.0
 11
10438.89790290454
 21
6631.731710759876
 31
0.0
  0
INSERT
  5
1B826
330
1B821
100
AcDbEntity
  8
0
  6
ByBlock
 62
     0
 48
50.0
100
AcDbBlockReference
  2
_DOTSMALL
 10
10438.89790290454
 20
6125.518507324279
 30
0.0
 41
125.0
 42
125.0
 43
125.0
 50
270.0
  0
INSERT
  5
1B827
330
1B821
100
AcDbEntity
  8
0
  6
ByBlock
 62
     0
 48
50.0
100
AcDbBlockReference
  2
_DOTSMALL
 10
10438.89790290454
 20
6240.518507324279
 30
0.0
 41
125.0
 42
125.0
 43
125.0
 50
90.0
  0
MTEXT
  5
1B828
330
1B821
100
AcDbEntity
  8
0
  6
ByBlock
 62
     7
 48
50.0
100
AcDbMText
 10
10338.89790290454
 20
6498.625109042078
 30
0.0
 40
150.0
 41
0.0
 71
     5
 72
     1
  1
\A1;115
  7
STYLE1
 11
0.0000000000000001
 21
1.0
 31
0.0
 73
     1
 44
1.0
  0
POINT
  5
1B829
330
1B821
100
AcDbEntity
  8
DEFPOINTS
  6
ByBlock
 62
     0
 48
50.0
100
AcDbPoint
 10
9819.700675670624
 20
6240.518507324279
 30
0.0
  0
POINT
  5
1B82A
330
1B821
100
AcDbEntity
  8
DEFPOINTS
  6
ByBlock
 62
     0
 48
50.0
100
AcDbPoint
 10
9819.700675670624
 20
6125.518507324279
 30
0.0
  0
POINT
  5
1B82B
330
1B821
100
AcDbEntity
  8
DEFPOINTS
  6
ByBlock
 62
     0
 48
50.0
100
AcDbPoint
 10
10438.89790290454
 20
6125.518507324279
 30
0.0
  0
ENDBLK
  5
1B82D
330
1B821
100
AcDbEntity
  8
0
 48
50.0
100
AcDbBlockEnd
  0
BLOCK
  5
1B830
330
1B82E
100
AcDbEntity
  8
0
 48
50.0
100
AcDbBlockBegin
  2
A$C019569EB
 70
     0
 10
0.0
 20
0.0
 30
0.0
  3
A$C019569EB
  1

  0
DIMENSION
  5
1B82F
330
1B82E
100
AcDbEntity
  8
寸法
 48
50.0
100
AcDbDimension
  2
*D20
 10
619.1972245496908
 20
15.62500544841896
 30
0.0
 11
619.1972245496908
 21
388.7316071662171
 31
0.0
 12
-9819.70067835485
 22
-6109.89350187586
 32
0.0
 70
   128
 71
     5
 42
-1.0
  3
INABA_S50G
100
AcDbAlignedDimension
 13
-0.0000026842262741
 23
130.6250054484189
 33
0.0
 14
-0.0000026842262741
 24
15.62500544841896
 34
0.0
 50
90.0
100
AcDbRotatedDimension
  0
ENDBLK
  5
1B831
330
1B82E
100
AcDbEntity
  8
0
 48
50.0
100
AcDbBlockEnd
  0
BLOCK
  5
1C166
330
1C165
100
AcDbEntity
  8
0
 48
50.0
100
AcDbBlockBegin
  2
*D22
 70
     1
 10
0.0
 20
0.0
 30
0.0
  3
*D22
  1

  0
LINE
  5
1C167
330
1C165
100
AcDbEntity
  8
0
  6
ByBlock
 62
     0
 48
50.0
100
AcDbLine
 10
17172.10411557581
 20
16151.23332302179
 30
0.0
 11
17172.10411557581
 21
15801.92455225818
 31
0.0
  0
LINE
  5
1C168
330
1C165
100
AcDbEntity
  8
0
  6
ByBlock
 62
     0
 48
50.0
100
AcDbLine
 10
17122.10411557581
 20
16286.23332302179
 30
0.0
 11
17122.10411557581
 21
15801.92455225818
 31
0.0
  0
LINE
  5
1C169
330
1C165
100
AcDbEntity
  8
0
  6
ByBlock
 62
     0
 48
50.0
100
AcDbLine
 10
17172.10411557581
 20
15876.92455225818
 30
0.0
 11
17122.10411557581
 21
15876.92455225818
 31
0.0
  0
LINE
  5
1C16A
330
1C165
100
AcDbEntity
  8
0
  6
ByBlock
 62
     0
 48
50.0
100
AcDbLine
 10
17122.10411557581
 20
15876.92455225818
 30
0.0
 11
16781.98600533959
 21
15876.92455225818
 31
0.0
  0
INSERT
  5
1C16B
330
1C165
100
AcDbEntity
  8
0
  6
ByBlock
 62
     0
 48
50.0
100
AcDbBlockReference
  2
_DOTSMALL
 10
17172.10411557581
 20
15876.92455225818
 30
0.0
 41
125.0
 42
125.0
 43
125.0
  0
INSERT
  5
1C16C
330
1C165
100
AcDbEntity
  8
0
  6
ByBlock
 62
     0
 48
50.0
100
AcDbBlockReference
  2
_DOTSMALL
 10
17122.10411557581
 20
15876.92455225818
 30
0.0
 41
125.0
 42
125.0
 43
125.0
 50
180.0
  0
MTEXT
  5
1C16D
330
1C165
100
AcDbEntity
  8
0
  6
ByBlock
 62
     7
 48
50.0
100
AcDbMText
 10
16889.5450604577
 20
15976.92455225818
 30
0.0
 40
150.0
 41
0.0
 71
     5
 72
     1
  1
\A1;50
  7
STYLE1
 73
     1
 44
1.0
  0
POINT
  5
1C16E
330
1C165
100
AcDbEntity
  8
DEFPOINTS
  6
ByBlock
 62
     0
 48
50.0
100
AcDbPoint
 10
17172.10411557581
 20
16176.23332302179
 30
0.0
  0
POINT
  5
1C16F
330
1C165
100
AcDbEntity
  8
DEFPOINTS
  6
ByBlock
 62
     0
 48
50.0
100
AcDbPoint
 10
17122.10411557581
 20
16311.23332302179
 30
0.0
  0
POINT
  5
1C170
330
1C165
100
AcDbEntity
  8
DEFPOINTS
  6
ByBlock
 62
     0
 48
50.0
100
AcDbPoint
 10
17122.10411557581
 20
15876.92455225818
 30
0.0
  0
ENDBLK
  5
1C171
330
1C165
100
AcDbEntity
  8
0
 48
50.0
100
AcDbBlockEnd
  0
BLOCK
  5
1C19D
330
1C19C
100
AcDbEntity
  8
0
 48
50.0
100
AcDbBlockBegin
  2
*D23
 70
     1
 10
0.0
 20
0.0
 30
0.0
  3
*D23
  1

  0
LINE
  5
1CF8D
330
1C19C
100
AcDbEntity
  8
寸法
 62
     0
 48
50.0
100
AcDbLine
 10
14197.82958141817
 20
5129.999999999956
 30
0.0
 11
14963.93453324972
 21
5129.999999999956
 31
0.0
  0
LINE
  5
1CF8E
330
1C19C
100
AcDbEntity
  8
寸法
 62
     0
 48
50.0
100
AcDbLine
 10
14888.93453324972
 20
4059.999999999956
 30
0.0
 11
14888.93453324972
 21
5129.999999999956
 31
0.0
  0
INSERT
  5
1CF8F
330
1C19C
100
AcDbEntity
  8
寸法
 62
     0
 48
50.0
100
AcDbBlockReference
  2
_DOTSMALL
 10
14888.93453324972
 20
4059.999999999956
 30
0.0
 41
125.0
 42
125.0
 43
125.0
 50
270.0
  0
INSERT
  5
1CF90
330
1C19C
100
AcDbEntity
  8
寸法
 62
     0
 48
50.0
100
AcDbBlockReference
  2
_DOTSMALL
 10
14888.93453324972
 20
5129.999999999956
 30
0.0
 41
125.0
 42
125.0
 43
125.0
 50
90.0
  0
MTEXT
  5
1CF91
330
1C19C
100
AcDbEntity
  8
寸法
 62
     7
 48
50.0
100
AcDbMText
 10
14788.93453324972
 20
4594.999999999958
 30
0.0
 40
150.0
 41
0.0
 71
     5
 72
     1
  1
\A1;1070
  7
STYLE1
 11
0.0000000000000001
 21
1.0
 31
0.0
 73
     1
 44
1.0
  0
POINT
  5
1CF92
330
1C19C
100
AcDbEntity
  8
DEFPOINTS
 62
     0
 48
50.0
100
AcDbPoint
 10
14172.82958141817
 20
4059.999999999956
 30
0.0
  0
POINT
  5
1CF93
330
1C19C
100
AcDbEntity
  8
DEFPOINTS
 62
     0
 48
50.0
100
AcDbPoint
 10
14172.82958141817
 20
5129.999999999956
 30
0.0
  0
POINT
  5
1CF94
330
1C19C
100
AcDbEntity
  8
DEFPOINTS
 62
     0
 48
50.0
100
AcDbPoint
 10
14888.93453324972
 20
5129.999999999956
 30
0.0
  0
ENDBLK
  5
1C1A6
330
1C19C
100
AcDbEntity
  8
0
 48
50.0
100
AcDbBlockEnd
  0
BLOCK
  5
1C67C
330
1C1A7
100
AcDbEntity
  8
0
 48
50.0
100
AcDbBlockBegin
  2
*D24
 70
     1
 10
0.0
 20
0.0
 30
0.0
  3
*D24
  1

  0
LINE
  5
1CF85
330
1C1A7
100
AcDbEntity
  8
寸法
 62
     0
 48
50.0
100
AcDbLine
 10
14267.82958141817
 20
5301.999999999956
 30
0.0
 11
15317.97132422847
 21
5301.999999999956
 31
0.0
  0
LINE
  5
1CF86
330
1C1A7
100
AcDbEntity
  8
寸法
 62
     0
 48
50.0
100
AcDbLine
 10
15242.97132422847
 20
3341.999999999956
 30
0.0
 11
15242.97132422847
 21
5301.999999999956
 31
0.0
  0
INSERT
  5
1CF87
330
1C1A7
100
AcDbEntity
  8
寸法
 62
     0
 48
50.0
100
AcDbBlockReference
  2
_DOTSMALL
 10
15242.97132422847
 20
3341.999999999956
 30
0.0
 41
125.0
 42
125.0
 43
125.0
 50
270.0
  0
INSERT
  5
1CF88
330
1C1A7
100
AcDbEntity
  8
寸法
 62
     0
 48
50.0
100
AcDbBlockReference
  2
_DOTSMALL
 10
15242.97132422847
 20
5301.999999999956
 30
0.0
 41
125.0
 42
125.0
 43
125.0
 50
90.0
  0
MTEXT
  5
1CF89
330
1C1A7
100
AcDbEntity
  8
寸法
 62
     7
 48
50.0
100
AcDbMText
 10
15142.97132422847
 20
4321.999999999958
 30
0.0
 40
150.0
 41
0.0
 71
     5
 72
     1
  1
\A1;内高 1960
  7
STYLE1
 11
0.0000000000000001
 21
1.0
 31
0.0
 73
     1
 44
1.0
  0
POINT
  5
1CF8A
330
1C1A7
100
AcDbEntity
  8
DEFPOINTS
 62
     0
 48
50.0
100
AcDbPoint
 10
14242.82958141817
 20
3341.999999999956
 30
0.0
  0
POINT
  5
1CF8B
330
1C1A7
100
AcDbEntity
  8
DEFPOINTS
 62
     0
 48
50.0
100
AcDbPoint
 10
14242.82958141817
 20
5301.999999999956
 30
0.0
  0
POINT
  5
1CF8C
330
1C1A7
100
AcDbEntity
  8
DEFPOINTS
 62
     0
 48
50.0
100
AcDbPoint
 10
15242.97132422847
 20
5301.999999999956
 30
0.0
  0
ENDBLK
  5
1C685
330
1C1A7
100
AcDbEntity
  8
0
 48
50.0
100
AcDbBlockEnd
  0
BLOCK
  5
1C1B3
330
1C1B2
100
AcDbEntity
  8
0
 48
50.0
100
AcDbBlockBegin
  2
*D25
 70
     1
 10
0.0
 20
0.0
 30
0.0
  3
*D25
  1

  0
LINE
  5
1C1B4
330
1C1B2
100
AcDbEntity
  8
0
  6
ByBlock
 62
     0
 48
50.0
100
AcDbLine
 10
18497.10411557581
 20
16311.23332302179
 30
0.0
 11
19547.24585838611
 21
16311.23332302179
 31
0.0
  0
LINE
  5
1C1B5
330
1C1B2
100
AcDbEntity
  8
0
  6
ByBlock
 62
     0
 48
50.0
100
AcDbLine
 10
18497.10411557581
 20
16378.23332302179
 30
0.0
 11
19547.24585838611
 21
16378.23332302179
 31
0.0
  0
LINE
  5
1C1B6
330
1C1B2
100
AcDbEntity
  8
0
  6
ByBlock
 62
     0
 48
50.0
100
AcDbLine
 10
19472.24585838611
 20
16378.23332302179
 30
0.0
 11
19472.24585838611
 21
16311.23332302179
 31
0.0
  0
LINE
  5
1C1B7
330
1C1B2
100
AcDbEntity
  8
0
  6
ByBlock
 62
     0
 48
50.0
100
AcDbLine
 10
19472.24585838611
 20
16311.23332302179
 30
0.0
 11
19472.24585838611
 21
15902.94273153291
 31
0.0
  0
INSERT
  5
1C1B8
330
1C1B2
100
AcDbEntity
  8
0
  6
ByBlock
 62
     0
 48
50.0
100
AcDbBlockReference
  2
_DOTSMALL
 10
19472.24585838611
 20
16378.23332302179
 30
0.0
 41
125.0
 42
125.0
 43
125.0
 50
90.0
  0
INSERT
  5
1C1B9
330
1C1B2
100
AcDbEntity
  8
0
  6
ByBlock
 62
     0
 48
50.0
100
AcDbBlockReference
  2
_DOTSMALL
 10
19472.24585838611
 20
16311.23332302179
 30
0.0
 41
125.0
 42
125.0
 43
125.0
 50
270.0
  0
MTEXT
  5
1C1BA
330
1C1B2
100
AcDbEntity
  8
0
  6
ByBlock
 62
     7
 48
50.0
100
AcDbMText
 10
19372.24585838611
 20
16014.93092050929
 30
0.0
 40
150.0
 41
0.0
 71
     5
 72
     1
  1
\A1;67
  7
STYLE1
 11
0.0000000000000001
 21
1.0
 31
0.0
 73
     1
 44
1.0
  0
POINT
  5
1C1BB
330
1C1B2
100
AcDbEntity
  8
DEFPOINTS
  6
ByBlock
 62
     0
 48
50.0
100
AcDbPoint
 10
18472.10411557581
 20
16311.23332302179
 30
0.0
  0
POINT
  5
1C1BC
330
1C1B2
100
AcDbEntity
  8
DEFPOINTS
  6
ByBlock
 62
     0
 48
50.0
100
AcDbPoint
 10
18472.10411557581
 20
16378.23332302179
 30
0.0
  0
POINT
  5
1C1BD
330
1C1B2
100
AcDbEntity
  8
DEFPOINTS
  6
ByBlock
 62
     0
 48
50.0
100
AcDbPoint
 10
19472.24585838611
 20
16378.23332302179
 30
0.0
  0
ENDBLK
  5
1C1BE
330
1C1B2
100
AcDbEntity
  8
0
 48
50.0
100
AcDbBlockEnd
  0
BLOCK
  5
1C1C0
330
1C1BF
100
AcDbEntity
  8
0
 48
50.0
100
AcDbBlockBegin
  2
*D26
 70
     1
 10
0.0
 20
0.0
 30
0.0
  3
*D26
  1

  0
LINE
  5
1C1C1
330
1C1BF
100
AcDbEntity
  8
0
  6
ByBlock
 62
     0
 48
50.0
100
AcDbLine
 10
18497.10411557581
 20
16311.23332302179
 30
0.0
 11
19193.20906740736
 21
16311.23332302179
 31
0.0
  0
LINE
  5
1C1C2
330
1C1BF
100
AcDbEntity
  8
0
  6
ByBlock
 62
     0
 48
50.0
100
AcDbLine
 10
18427.10411557581
 20
17096.23332302179
 30
0.0
 11
19193.20906740736
 21
17096.23332302179
 31
0.0
  0
LINE
  5
1C1C3
330
1C1BF
100
AcDbEntity
  8
0
  6
ByBlock
 62
     0
 48
50.0
100
AcDbLine
 10
19118.20906740737
 20
16311.23332302179
 30
0.0
 11
19118.20906740737
 21
17096.23332302179
 31
0.0
  0
INSERT
  5
1C1C4
330
1C1BF
100
AcDbEntity
  8
0
  6
ByBlock
 62
     0
 48
50.0
100
AcDbBlockReference
  2
_DOTSMALL
 10
19118.20906740737
 20
16311.23332302179
 30
0.0
 41
125.0
 42
125.0
 43
125.0
 50
270.0
  0
INSERT
  5
1C1C5
330
1C1BF
100
AcDbEntity
  8
0
  6
ByBlock
 62
     0
 48
50.0
100
AcDbBlockReference
  2
_DOTSMALL
 10
19118.20906740737
 20
17096.23332302179
 30
0.0
 41
125.0
 42
125.0
 43
125.0
 50
90.0
  0
MTEXT
  5
1C1C6
330
1C1BF
100
AcDbEntity
  8
0
  6
ByBlock
 62
     7
 48
50.0
100
AcDbMText
 10
19018.20906740736
 20
16703.73332302179
 30
0.0
 40
150.0
 41
0.0
 71
     5
 72
     1
  1
\A1;785
  7
STYLE1
 11
0.0000000000000001
 21
1.0
 31
0.0
 73
     1
 44
1.0
  0
POINT
  5
1C1C7
330
1C1BF
100
AcDbEntity
  8
DEFPOINTS
  6
ByBlock
 62
     0
 48
50.0
100
AcDbPoint
 10
18472.10411557581
 20
16311.23332302179
 30
0.0
  0
POINT
  5
1C1C8
330
1C1BF
100
AcDbEntity
  8
DEFPOINTS
  6
ByBlock
 62
     0
 48
50.0
100
AcDbPoint
 10
18402.10411557581
 20
17096.23332302179
 30
0.0
  0
POINT
  5
1C1C9
330
1C1BF
100
AcDbEntity
  8
DEFPOINTS
  6
ByBlock
 62
     0
 48
50.0
100
AcDbPoint
 10
19118.20906740737
 20
17096.23332302179
 30
0.0
  0
ENDBLK
  5
1C1CA
330
1C1BF
100
AcDbEntity
  8
0
 48
50.0
100
AcDbBlockEnd
  0
BLOCK
  5
1C1F4
330
1C1F3
100
AcDbEntity
  8
0
 48
50.0
100
AcDbBlockBegin
  2
*D27
 70
     1
 10
0.0
 20
0.0
 30
0.0
  3
*D27
  1

  0
LINE
  5
1C1F5
330
1C1F3
100
AcDbEntity
  8
0
  6
ByBlock
 62
     0
 48
50.0
100
AcDbLine
 10
17097.10411557581
 20
23500.97012038376
 30
0.0
 11
16612.66042970321
 21
23500.97012038376
 31
0.0
  0
LINE
  5
1C1F6
330
1C1F3
100
AcDbEntity
  8
0
  6
ByBlock
 62
     0
 48
50.0
100
AcDbLine
 10
17097.10411557581
 20
22698.97012038376
 30
0.0
 11
16612.66042970321
 21
22698.97012038376
 31
0.0
  0
LINE
  5
1C1F7
330
1C1F3
100
AcDbEntity
  8
0
  6
ByBlock
 62
     0
 48
50.0
100
AcDbLine
 10
16687.66042970321
 20
23500.97012038376
 30
0.0
 11
16687.66042970321
 21
22698.97012038376
 31
0.0
  0
INSERT
  5
1C1F8
330
1C1F3
100
AcDbEntity
  8
0
  6
ByBlock
 62
     0
 48
50.0
100
AcDbBlockReference
  2
_DOTSMALL
 10
16687.66042970321
 20
23500.97012038376
 30
0.0
 41
125.0
 42
125.0
 43
125.0
 50
90.0
  0
INSERT
  5
1C1F9
330
1C1F3
100
AcDbEntity
  8
0
  6
ByBlock
 62
     0
 48
50.0
100
AcDbBlockReference
  2
_DOTSMALL
 10
16687.66042970321
 20
22698.97012038376
 30
0.0
 41
125.0
 42
125.0
 43
125.0
 50
270.0
  0
MTEXT
  5
1C1FA
330
1C1F3
100
AcDbEntity
  8
0
  6
ByBlock
 62
     7
 48
50.0
100
AcDbMText
 10
16587.64566592368
 20
23099.97012038376
 30
0.0
 40
150.0
 41
0.0
 71
     5
 72
     1
  1
\A1;802
  7
STYLE1
 11
0.0000000000000001
 21
1.0
 31
0.0
 73
     1
 44
1.0
  0
POINT
  5
1C1FB
330
1C1F3
100
AcDbEntity
  8
DEFPOINTS
  6
ByBlock
 62
     0
 48
50.0
100
AcDbPoint
 10
17122.10411557581
 20
23500.97012038376
 30
0.0
  0
POINT
  5
1C1FC
330
1C1F3
100
AcDbEntity
  8
DEFPOINTS
  6
ByBlock
 62
     0
 48
50.0
100
AcDbPoint
 10
17122.10411557581
 20
22698.97012038376
 30
0.0
  0
POINT
  5
1C1FD
330
1C1F3
100
AcDbEntity
  8
DEFPOINTS
  6
ByBlock
 62
     0
 48
50.0
100
AcDbPoint
 10
16687.66042970321
 20
22698.97012038376
 30
0.0
  0
ENDBLK
  5
1C1FE
330
1C1F3
100
AcDbEntity
  8
0
 48
50.0
100
AcDbBlockEnd
  0
BLOCK
  5
1C22B
330
1C214
100
AcDbEntity
  8
0
 48
50.0
100
AcDbBlockBegin
  2
*D28
 70
     1
 10
0.0
 20
0.0
 30
0.0
  3
*D28
  1

  0
LINE
  5
1C22C
330
1C214
100
AcDbEntity
  8
0
  6
ByBlock
 62
     0
 48
50.0
100
AcDbLine
 10
12426.82958141817
 20
9203.73679736191
 30
0.0
 11
12426.82958141817
 21
8669.293111489313
 31
0.0
  0
LINE
  5
1C22D
330
1C214
100
AcDbEntity
  8
0
  6
ByBlock
 62
     0
 48
50.0
100
AcDbLine
 10
14178.82958141817
 20
9203.73679736191
 30
0.0
 11
14178.82958141817
 21
8669.293111489313
 31
0.0
  0
LINE
  5
1C22E
330
1C214
100
AcDbEntity
  8
0
  6
ByBlock
 62
     0
 48
50.0
100
AcDbLine
 10
12426.82958141817
 20
8744.293111489312
 30
0.0
 11
14178.82958141817
 21
8744.293111489312
 31
0.0
  0
INSERT
  5
1C22F
330
1C214
100
AcDbEntity
  8
0
  6
ByBlock
 62
     0
 48
50.0
100
AcDbBlockReference
  2
_DOTSMALL
 10
12426.82958141817
 20
8744.293111489312
 30
0.0
 41
125.0
 42
125.0
 43
125.0
 50
180.0
  0
INSERT
  5
1C230
330
1C214
100
AcDbEntity
  8
0
  6
ByBlock
 62
     0
 48
50.0
100
AcDbBlockReference
  2
_DOTSMALL
 10
14178.82958141817
 20
8744.293111489312
 30
0.0
 41
125.0
 42
125.0
 43
125.0
  0
MTEXT
  5
1C231
330
1C214
100
AcDbEntity
  8
0
  6
ByBlock
 62
     7
 48
50.0
100
AcDbMText
 10
13302.82958141817
 20
8844.307875268839
 30
0.0
 40
150.0
 41
0.0
 71
     5
 72
     1
  1
\A1;1752
  7
STYLE1
 73
     1
 44
1.0
  0
POINT
  5
1C232
330
1C214
100
AcDbEntity
  8
DEFPOINTS
  6
ByBlock
 62
     0
 48
50.0
100
AcDbPoint
 10
12426.82958141817
 20
9228.736797361909
 30
0.0
  0
POINT
  5
1C233
330
1C214
100
AcDbEntity
  8
DEFPOINTS
  6
ByBlock
 62
     0
 48
50.0
100
AcDbPoint
 10
14178.82958141817
 20
9228.736797361909
 30
0.0
  0
POINT
  5
1C234
330
1C214
100
AcDbEntity
  8
DEFPOINTS
  6
ByBlock
 62
     0
 48
50.0
100
AcDbPoint
 10
14178.82958141817
 20
8744.293111489312
 30
0.0
  0
ENDBLK
  5
1C235
330
1C214
100
AcDbEntity
  8
0
 48
50.0
100
AcDbBlockEnd
  0
BLOCK
  5
1C5DE
330
1C452
100
AcDbEntity
  8
0
 48
50.0
100
AcDbBlockBegin
  2
*D29
 70
     1
 10
0.0
 20
0.0
 30
0.0
  3
*D29
  1

  0
LINE
  5
1C5DF
330
1C452
100
AcDbEntity
  8
0
  6
ByBlock
 62
     0
 48
50.0
100
AcDbLine
 10
5287.144931785811
 20
-6001.165194089646
 30
0.0
 11
4838.809796791931
 21
-6001.165194089646
 31
0.0
  0
LINE
  5
1C5E0
330
1C452
100
AcDbEntity
  8
0
  6
ByBlock
 62
     0
 48
50.0
100
AcDbLine
 10
5287.144931785809
 20
-5801.165194089648
 30
0.0
 11
4838.809796791931
 21
-5801.165194089648
 31
0.0
  0
LINE
  5
1C5E1
330
1C452
100
AcDbEntity
  8
0
  6
ByBlock
 62
     0
 48
50.0
100
AcDbLine
 10
4913.809796791931
 20
-5801.165194089648
 30
0.0
 11
4913.809796791931
 21
-6001.165194089646
 31
0.0
  0
LINE
  5
1C5E2
330
1C452
100
AcDbEntity
  8
0
  6
ByBlock
 62
     0
 48
50.0
100
AcDbLine
 10
4913.809796791931
 20
-6001.165194089646
 30
0.0
 11
4913.809796791931
 21
-6450.092359443977
 31
0.0
  0
INSERT
  5
1C5E3
330
1C452
100
AcDbEntity
  8
0
  6
ByBlock
 62
     0
 48
50.0
100
AcDbBlockReference
  2
_DOTSMALL
 10
4913.809796791931
 20
-5801.165194089648
 30
0.0
 41
125.0
 42
125.0
 43
125.0
 50
90.0
  0
INSERT
  5
1C5E4
330
1C452
100
AcDbEntity
  8
0
  6
ByBlock
 62
     0
 48
50.0
100
AcDbBlockReference
  2
_DOTSMALL
 10
4913.809796791931
 20
-6001.165194089646
 30
0.0
 41
125.0
 42
125.0
 43
125.0
 50
270.0
  0
MTEXT
  5
1C5E5
330
1C452
100
AcDbEntity
  8
0
  6
ByBlock
 62
     7
 48
50.0
100
AcDbMText
 10
4813.795033012404
 20
-6288.128776766812
 30
0.0
 40
150.0
 41
0.0
 71
     5
 72
     1
  1
\A1;200
  7
STYLE1
 11
0.0000000000000001
 21
1.0
 31
0.0
 73
     1
 44
1.0
  0
POINT
  5
1C5E6
330
1C452
100
AcDbEntity
  8
DEFPOINTS
  6
ByBlock
 62
     0
 48
50.0
100
AcDbPoint
 10
5312.144931785812
 20
-6001.165194089646
 30
0.0
  0
POINT
  5
1C5E7
330
1C452
100
AcDbEntity
  8
DEFPOINTS
  6
ByBlock
 62
     0
 48
50.0
100
AcDbPoint
 10
5312.144931785809
 20
-5801.165194089648
 30
0.0
  0
POINT
  5
1C5E8
330
1C452
100
AcDbEntity
  8
DEFPOINTS
  6
ByBlock
 62
     0
 48
50.0
100
AcDbPoint
 10
4913.809796791931
 20
-5801.165194089648
 30
0.0
  0
ENDBLK
  5
1C5E9
330
1C452
100
AcDbEntity
  8
0
 48
50.0
100
AcDbBlockEnd
  0
BLOCK
  5
1C583
330
1C45F
100
AcDbEntity
  8
0
 48
50.0
100
AcDbBlockBegin
  2
*D30
 70
     1
 10
0.0
 20
0.0
 30
0.0
  3
*D30
  1

  0
LINE
  5
1C584
330
1C45F
100
AcDbEntity
  8
0
  6
ByBlock
 62
     0
 48
50.0
100
AcDbLine
 10
5312.144931785809
 20
-6026.165194089646
 30
0.0
 11
5312.144931785809
 21
-6362.212523390023
 31
0.0
  0
LINE
  5
1C585
330
1C45F
100
AcDbEntity
  8
0
  6
ByBlock
 62
     0
 48
50.0
100
AcDbLine
 10
5512.144931785812
 20
-6026.165194089646
 30
0.0
 11
5512.144931785812
 21
-6362.212523390023
 31
0.0
  0
LINE
  5
1C586
330
1C45F
100
AcDbEntity
  8
0
  6
ByBlock
 62
     0
 48
50.0
100
AcDbLine
 10
5312.144931785809
 20
-6287.212523390023
 30
0.0
 11
5512.144931785812
 21
-6287.212523390023
 31
0.0
  0
LINE
  5
1C587
330
1C45F
100
AcDbEntity
  8
0
  6
ByBlock
 62
     0
 48
50.0
100
AcDbLine
 10
5512.144931785812
 20
-6287.212523390023
 30
0.0
 11
5961.072097140142
 21
-6287.212523390023
 31
0.0
  0
INSERT
  5
1C588
330
1C45F
100
AcDbEntity
  8
0
  6
ByBlock
 62
     0
 48
50.0
100
AcDbBlockReference
  2
_DOTSMALL
 10
5312.144931785809
 20
-6287.212523390023
 30
0.0
 41
125.0
 42
125.0
 43
125.0
 50
180.0
  0
INSERT
  5
1C589
330
1C45F
100
AcDbEntity
  8
0
  6
ByBlock
 62
     0
 48
50.0
100
AcDbBlockReference
  2
_DOTSMALL
 10
5512.144931785812
 20
-6287.212523390023
 30
0.0
 41
125.0
 42
125.0
 43
125.0
  0
MTEXT
  5
1C58A
330
1C45F
100
AcDbEntity
  8
0
  6
ByBlock
 62
     7
 48
50.0
100
AcDbMText
 10
5799.108514462977
 20
-6187.197759610495
 30
0.0
 40
150.0
 41
0.0
 71
     5
 72
     1
  1
\A1;200
  7
STYLE1
 73
     1
 44
1.0
  0
POINT
  5
1C58B
330
1C45F
100
AcDbEntity
  8
DEFPOINTS
  6
ByBlock
 62
     0
 48
50.0
100
AcDbPoint
 10
5312.144931785809
 20
-6001.165194089646
 30
0.0
  0
POINT
  5
1C58C
330
1C45F
100
AcDbEntity
  8
DEFPOINTS
  6
ByBlock
 62
     0
 48
50.0
100
AcDbPoint
 10
5512.144931785812
 20
-6001.165194089646
 30
0.0
  0
POINT
  5
1C58D
330
1C45F
100
AcDbEntity
  8
DEFPOINTS
  6
ByBlock
 62
     0
 48
50.0
100
AcDbPoint
 10
5512.144931785812
 20
-6287.212523390023
 30
0.0
  0
ENDBLK
  5
1C58E
330
1C45F
100
AcDbEntity
  8
0
 48
50.0
100
AcDbBlockEnd
  0
BLOCK
  5
1C578
330
1C46C
100
AcDbEntity
  8
0
 48
50.0
100
AcDbBlockBegin
  2
*D31
 70
     1
 10
0.0
 20
0.0
 30
0.0
  3
*D31
  1

  0
LINE
  5
1C579
330
1C46C
100
AcDbEntity
  8
0
  6
ByBlock
 62
     0
 48
50.0
100
AcDbLine
 10
7385.644931785809
 20
-3371.165194089648
 30
0.0
 11
7385.644931785809
 21
-2360.096339535102
 31
0.0
  0
LINE
  5
1C57A
330
1C46C
100
AcDbEntity
  8
0
  6
ByBlock
 62
     0
 48
50.0
100
AcDbLine
 10
5275.64493178581
 20
-3431.165194089648
 30
0.0
 11
5275.64493178581
 21
-2360.096339535102
 31
0.0
  0
LINE
  5
1C57B
330
1C46C
100
AcDbEntity
  8
0
  6
ByBlock
 62
     0
 48
50.0
100
AcDbLine
 10
7385.644931785809
 20
-2435.096339535102
 30
0.0
 11
5275.64493178581
 21
-2435.096339535102
 31
0.0
  0
INSERT
  5
1C57C
330
1C46C
100
AcDbEntity
  8
0
  6
ByBlock
 62
     0
 48
50.0
100
AcDbBlockReference
  2
_DOTSMALL
 10
7385.644931785809
 20
-2435.096339535102
 30
0.0
 41
125.0
 42
125.0
 43
125.0
  0
INSERT
  5
1C57D
330
1C46C
100
AcDbEntity
  8
0
  6
ByBlock
 62
     0
 48
50.0
100
AcDbBlockReference
  2
_DOTSMALL
 10
5275.64493178581
 20
-2435.096339535102
 30
0.0
 41
125.0
 42
125.0
 43
125.0
 50
180.0
  0
MTEXT
  5
1C57E
330
1C46C
100
AcDbEntity
  8
0
  6
ByBlock
 62
     7
 48
50.0
100
AcDbMText
 10
6330.644931785809
 20
-2335.081575755574
 30
0.0
 40
150.0
 41
0.0
 71
     5
 72
     1
  1
\A1;2110
  7
STYLE1
 73
     1
 44
1.0
  0
POINT
  5
1C57F
330
1C46C
100
AcDbEntity
  8
DEFPOINTS
  6
ByBlock
 62
     0
 48
50.0
100
AcDbPoint
 10
7385.644931785809
 20
-3396.165194089648
 30
0.0
  0
POINT
  5
1C580
330
1C46C
100
AcDbEntity
  8
DEFPOINTS
  6
ByBlock
 62
     0
 48
50.0
100
AcDbPoint
 10
5275.64493178581
 20
-3456.165194089648
 30
0.0
  0
POINT
  5
1C581
330
1C46C
100
AcDbEntity
  8
DEFPOINTS
  6
ByBlock
 62
     0
 48
50.0
100
AcDbPoint
 10
5275.64493178581
 20
-2435.096339535102
 30
0.0
  0
ENDBLK
  5
1C582
330
1C46C
100
AcDbEntity
  8
0
 48
50.0
100
AcDbBlockEnd
  0
BLOCK
  5
1C56E
330
1C478
100
AcDbEntity
  8
0
 48
50.0
100
AcDbBlockBegin
  2
*D32
 70
     1
 10
0.0
 20
0.0
 30
0.0
  3
*D32
  1

  0
LINE
  5
1CF95
330
1C478
100
AcDbEntity
  8
寸法
 62
     0
 48
50.0
100
AcDbLine
 10
5692.829581418173
 20
5513.337018226841
 30
0.0
 11
5692.829581418173
 21
6313.281130716521
 31
0.0
  0
LINE
  5
1CF96
330
1C478
100
AcDbEntity
  8
寸法
 62
     0
 48
50.0
100
AcDbLine
 10
7572.829581418176
 20
6238.281130716521
 30
0.0
 11
5692.829581418173
 21
6238.281130716521
 31
0.0
  0
INSERT
  5
1CF97
330
1C478
100
AcDbEntity
  8
寸法
 62
     0
 48
50.0
100
AcDbBlockReference
  2
_DOTSMALL
 10
7572.829581418176
 20
6238.281130716521
 30
0.0
 41
125.0
 42
125.0
 43
125.0
  0
INSERT
  5
1CF98
330
1C478
100
AcDbEntity
  8
寸法
 62
     0
 48
50.0
100
AcDbBlockReference
  2
_DOTSMALL
 10
5692.829581418173
 20
6238.281130716521
 30
0.0
 41
125.0
 42
125.0
 43
125.0
 50
180.0
  0
MTEXT
  5
1CF99
330
1C478
100
AcDbEntity
  8
寸法
 62
     7
 48
50.0
100
AcDbMText
 10
6632.829581418175
 20
6338.281130716521
 30
0.0
 40
150.0
 41
0.0
 71
     5
 72
     1
  1
\A1;柱外寸法 1880
  7
STYLE1
 73
     1
 44
1.0
  0
POINT
  5
1CF9A
330
1C478
100
AcDbEntity
  8
DEFPOINTS
 62
     0
 48
50.0
100
AcDbPoint
 10
7572.829581418176
 20
5541.484603453081
 30
0.0
  0
POINT
  5
1CF9B
330
1C478
100
AcDbEntity
  8
DEFPOINTS
 62
     0
 48
50.0
100
AcDbPoint
 10
5692.829581418173
 20
5488.33701822684
 30
0.0
  0
POINT
  5
1CF9C
330
1C478
100
AcDbEntity
  8
DEFPOINTS
 62
     0
 48
50.0
100
AcDbPoint
 10
5692.829581418173
 20
6238.281130716521
 30
0.0
  0
ENDBLK
  5
1C577
330
1C478
100
AcDbEntity
  8
0
 48
50.0
100
AcDbBlockEnd
  0
BLOCK
  5
1C5F7
330
1C48F
100
AcDbEntity
  8
0
 48
50.0
100
AcDbBlockBegin
  2
*D33
 70
     1
 10
0.0
 20
0.0
 30
0.0
  3
*D33
  1

  0
LINE
  5
1CF9D
330
1C48F
100
AcDbEntity
  8
寸法
 62
     0
 48
50.0
100
AcDbLine
 10
7597.829581418173
 20
5275.0
 30
0.0
 11
8373.949297310764
 21
5275.0
 31
0.0
  0
LINE
  5
1CF9E
330
1C48F
100
AcDbEntity
  8
寸法
 62
     0
 48
50.0
100
AcDbLine
 10
8298.949297310761
 20
3330.0
 30
0.0
 11
8298.949297310763
 21
5275.0
 31
0.0
  0
INSERT
  5
1CF9F
330
1C48F
100
AcDbEntity
  8
寸法
 62
     0
 48
50.0
100
AcDbBlockReference
  2
_DOTSMALL
 10
8298.949297310761
 20
3330.0
 30
0.0
 41
125.0
 42
125.0
 43
125.0
 50
270.0
  0
INSERT
  5
1CFA0
330
1C48F
100
AcDbEntity
  8
寸法
 62
     0
 48
50.0
100
AcDbBlockReference
  2
_DOTSMALL
 10
8298.949297310763
 20
5275.0
 30
0.0
 41
125.0
 42
125.0
 43
125.0
 50
90.0
  0
MTEXT
  5
1CFA1
330
1C48F
100
AcDbEntity
  8
寸法
 62
     7
 48
50.0
100
AcDbMText
 10
8198.949297310761
 20
4302.500000000001
 30
0.0
 40
150.0
 41
0.0
 71
     5
 72
     1
  1
\A1;1945
  7
STYLE1
 11
0.0000000000000001
 21
1.0
 31
0.0
 73
     1
 44
1.0
  0
POINT
  5
1CFA2
330
1C48F
100
AcDbEntity
  8
DEFPOINTS
 62
     0
 48
50.0
100
AcDbPoint
 10
7572.829581418173
 20
3330.0
 30
0.0
  0
POINT
  5
1CFA3
330
1C48F
100
AcDbEntity
  8
DEFPOINTS
 62
     0
 48
50.0
100
AcDbPoint
 10
7572.829581418173
 20
5275.0
 30
0.0
  0
POINT
  5
1CFA4
330
1C48F
100
AcDbEntity
  8
DEFPOINTS
 62
     0
 48
50.0
100
AcDbPoint
 10
8298.949297310763
 20
5275.0
 30
0.0
  0
ENDBLK
  5
1C600
330
1C48F
100
AcDbEntity
  8
0
 48
50.0
100
AcDbBlockEnd
  0
BLOCK
  5
1C601
330
1C49A
100
AcDbEntity
  8
0
 48
50.0
100
AcDbBlockBegin
  2
*D34
 70
     1
 10
0.0
 20
0.0
 30
0.0
  3
*D34
  1

  0
LINE
  5
1C602
330
1C49A
100
AcDbEntity
  8
0
  6
ByBlock
 62
     0
 48
50.0
100
AcDbLine
 10
7732.829581418176
 20
5545.0
 30
0.0
 11
8681.995501716562
 21
5545.0
 31
0.0
  0
LINE
  5
1C603
330
1C49A
100
AcDbEntity
  8
0
  6
ByBlock
 62
     0
 48
50.0
100
AcDbLine
 10
7597.829581418173
 20
3275.0
 30
0.0
 11
8681.995501716562
 21
3275.0
 31
0.0
  0
LINE
  5
1C604
330
1C49A
100
AcDbEntity
  8
0
  6
ByBlock
 62
     0
 48
50.0
100
AcDbLine
 10
8606.995501716562
 20
5545.0
 30
0.0
 11
8606.995501716562
 21
3275.0
 31
0.0
  0
INSERT
  5
1C605
330
1C49A
100
AcDbEntity
  8
0
  6
ByBlock
 62
     0
 48
50.0
100
AcDbBlockReference
  2
_DOTSMALL
 10
8606.995501716562
 20
5545.0
 30
0.0
 41
125.0
 42
125.0
 43
125.0
 50
90.0
  0
INSERT
  5
1C606
330
1C49A
100
AcDbEntity
  8
0
  6
ByBlock
 62
     0
 48
50.0
100
AcDbBlockReference
  2
_DOTSMALL
 10
8606.995501716562
 20
3275.0
 30
0.0
 41
125.0
 42
125.0
 43
125.0
 50
270.0
  0
MTEXT
  5
1C607
330
1C49A
100
AcDbEntity
  8
0
  6
ByBlock
 62
     7
 48
50.0
100
AcDbMText
 10
8506.980737937036
 20
4410.0
 30
0.0
 40
150.0
 41
0.0
 71
     5
 72
     1
  1
\A1;2270
  7
STYLE1
 11
0.0000000000000001
 21
1.0
 31
0.0
 73
     1
 44
1.0
  0
POINT
  5
1C608
330
1C49A
100
AcDbEntity
  8
DEFPOINTS
  6
ByBlock
 62
     0
 48
50.0
100
AcDbPoint
 10
7707.829581418176
 20
5545.0
 30
0.0
  0
POINT
  5
1C609
330
1C49A
100
AcDbEntity
  8
DEFPOINTS
  6
ByBlock
 62
     0
 48
50.0
100
AcDbPoint
 10
7572.829581418173
 20
3275.0
 30
0.0
  0
POINT
  5
1C60A
330
1C49A
100
AcDbEntity
  8
DEFPOINTS
  6
ByBlock
 62
     0
 48
50.0
100
AcDbPoint
 10
8606.995501716562
 20
3275.0
 30
0.0
  0
ENDBLK
  5
1C60B
330
1C49A
100
AcDbEntity
  8
0
 48
50.0
100
AcDbBlockEnd
  0
BLOCK
  5
1C60C
330
1C4A6
100
AcDbEntity
  8
0
 48
50.0
100
AcDbBlockBegin
  2
*D35
 70
     1
 10
0.0
 20
0.0
 30
0.0
  3
*D35
  1

  0
LINE
  5
1C60D
330
1C4A6
100
AcDbEntity
  8
0
  6
ByBlock
 62
     0
 48
50.0
100
AcDbLine
 10
7597.829581418173
 20
3275.0
 30
0.0
 11
8373.949297310764
 21
3275.0
 31
0.0
  0
LINE
  5
1C60E
330
1C4A6
100
AcDbEntity
  8
0
  6
ByBlock
 62
     0
 48
50.0
100
AcDbLine
 10
7597.829581418173
 20
3330.0
 30
0.0
 11
8373.949297310764
 21
3330.0
 31
0.0
  0
LINE
  5
1C60F
330
1C4A6
100
AcDbEntity
  8
0
  6
ByBlock
 62
     0
 48
50.0
100
AcDbLine
 10
8298.949297310763
 20
3330.0
 30
0.0
 11
8298.949297310763
 21
3275.0
 31
0.0
  0
LINE
  5
1C610
330
1C4A6
100
AcDbEntity
  8
0
  6
ByBlock
 62
     0
 48
50.0
100
AcDbLine
 10
8298.949297310763
 20
3275.0
 30
0.0
 11
8298.949297310763
 21
2853.813892459668
 31
0.0
  0
INSERT
  5
1C611
330
1C4A6
100
AcDbEntity
  8
0
  6
ByBlock
 62
     0
 48
50.0
100
AcDbBlockReference
  2
_DOTSMALL
 10
8298.949297310763
 20
3330.0
 30
0.0
 41
125.0
 42
125.0
 43
125.0
 50
90.0
  0
INSERT
  5
1C612
330
1C4A6
100
AcDbEntity
  8
0
  6
ByBlock
 62
     0
 48
50.0
100
AcDbBlockReference
  2
_DOTSMALL
 10
8298.949297310763
 20
3275.0
 30
0.0
 41
125.0
 42
125.0
 43
125.0
 50
270.0
  0
MTEXT
  5
1C613
330
1C4A6
100
AcDbEntity
  8
0
  6
ByBlock
 62
     7
 48
50.0
100
AcDbMText
 10
8198.949297310763
 20
2964.420494177466
 30
0.0
 40
150.0
 41
0.0
 71
     5
 72
     1
  1
\A1;55
  7
STYLE1
 11
0.0000000000000001
 21
1.0
 31
0.0
 73
     1
 44
1.0
  0
POINT
  5
1C614
330
1C4A6
100
AcDbEntity
  8
DEFPOINTS
  6
ByBlock
 62
     0
 48
50.0
100
AcDbPoint
 10
7572.829581418173
 20
3275.0
 30
0.0
  0
POINT
  5
1C615
330
1C4A6
100
AcDbEntity
  8
DEFPOINTS
  6
ByBlock
 62
     0
 48
50.0
100
AcDbPoint
 10
7572.829581418173
 20
3330.0
 30
0.0
  0
POINT
  5
1C616
330
1C4A6
100
AcDbEntity
  8
DEFPOINTS
  6
ByBlock
 62
     0
 48
50.0
100
AcDbPoint
 10
8298.949297310763
 20
3330.0
 30
0.0
  0
ENDBLK
  5
1C617
330
1C4A6
100
AcDbEntity
  8
0
 48
50.0
100
AcDbBlockEnd
  0
BLOCK
  5
1C5BB
330
1C4C0
100
AcDbEntity
  8
0
 48
50.0
100
AcDbBlockBegin
  2
*D36
 70
     1
 10
0.0
 20
0.0
 30
0.0
  3
*D36
  1

  0
LINE
  5
1C5BC
330
1C4C0
100
AcDbEntity
  8
0
  6
ByBlock
 62
     0
 48
50.0
100
AcDbLine
 10
7385.644931785812
 20
-3371.165194089648
 30
0.0
 11
7385.644931785812
 21
-2627.884063373127
 31
0.0
  0
LINE
  5
1C5BD
330
1C4C0
100
AcDbEntity
  8
0
  6
ByBlock
 62
     0
 48
50.0
100
AcDbLine
 10
7250.644931785811
 20
-3374.680590636566
 30
0.0
 11
7250.644931785811
 21
-2627.884063373127
 31
0.0
  0
LINE
  5
1C5BE
330
1C4C0
100
AcDbEntity
  8
0
  6
ByBlock
 62
     0
 48
50.0
100
AcDbLine
 10
7250.644931785811
 20
-2702.884063373127
 30
0.0
 11
7385.644931785812
 21
-2702.884063373127
 31
0.0
  0
LINE
  5
1C5BF
330
1C4C0
100
AcDbEntity
  8
0
  6
ByBlock
 62
     0
 48
50.0
100
AcDbLine
 10
7385.644931785812
 20
-2702.884063373127
 30
0.0
 11
7806.858135221408
 21
-2702.884063373127
 31
0.0
  0
INSERT
  5
1C5C0
330
1C4C0
100
AcDbEntity
  8
0
  6
ByBlock
 62
     0
 48
50.0
100
AcDbBlockReference
  2
_DOTSMALL
 10
7250.644931785811
 20
-2702.884063373127
 30
0.0
 41
125.0
 42
125.0
 43
125.0
 50
180.0
  0
INSERT
  5
1C5C1
330
1C4C0
100
AcDbEntity
  8
0
  6
ByBlock
 62
     0
 48
50.0
100
AcDbBlockReference
  2
_DOTSMALL
 10
7385.644931785812
 20
-2702.884063373127
 30
0.0
 41
125.0
 42
125.0
 43
125.0
  0
MTEXT
  5
1C5C2
330
1C4C0
100
AcDbEntity
  8
0
  6
ByBlock
 62
     7
 48
50.0
100
AcDbMText
 10
7658.75153350361
 20
-2602.884063373127
 30
0.0
 40
150.0
 41
0.0
 71
     5
 72
     1
  1
\A1;135
  7
STYLE1
 73
     1
 44
1.0
  0
POINT
  5
1C5C3
330
1C4C0
100
AcDbEntity
  8
DEFPOINTS
  6
ByBlock
 62
     0
 48
50.0
100
AcDbPoint
 10
7385.644931785812
 20
-3396.165194089648
 30
0.0
  0
POINT
  5
1C5C4
330
1C4C0
100
AcDbEntity
  8
DEFPOINTS
  6
ByBlock
 62
     0
 48
50.0
100
AcDbPoint
 10
7250.644931785811
 20
-3399.680590636566
 30
0.0
  0
POINT
  5
1C5C5
330
1C4C0
100
AcDbEntity
  8
DEFPOINTS
  6
ByBlock
 62
     0
 48
50.0
100
AcDbPoint
 10
7250.644931785811
 20
-2702.884063373127
 30
0.0
  0
ENDBLK
  5
1C5C6
330
1C4C0
100
AcDbEntity
  8
0
 48
50.0
100
AcDbBlockEnd
  0
BLOCK
  5
1C5D3
330
1C4CD
100
AcDbEntity
  8
0
 48
50.0
100
AcDbBlockBegin
  2
*D37
 70
     1
 10
0.0
 20
0.0
 30
0.0
  3
*D37
  1

  0
LINE
  5
1C5D4
330
1C4CD
100
AcDbEntity
  8
0
  6
ByBlock
 62
     0
 48
50.0
100
AcDbLine
 10
5345.644931785809
 20
-5666.165194089648
 30
0.0
 11
4636.154178364392
 21
-5666.165194089648
 31
0.0
  0
LINE
  5
1C5D5
330
1C4CD
100
AcDbEntity
  8
0
  6
ByBlock
 62
     0
 48
50.0
100
AcDbLine
 10
5250.64493178581
 20
-3456.165194089648
 30
0.0
 11
4636.154178364392
 21
-3456.165194089648
 31
0.0
  0
LINE
  5
1C5D6
330
1C4CD
100
AcDbEntity
  8
0
  6
ByBlock
 62
     0
 48
50.0
100
AcDbLine
 10
4711.154178364391
 20
-5666.165194089648
 30
0.0
 11
4711.154178364391
 21
-3456.165194089648
 31
0.0
  0
INSERT
  5
1C5D7
330
1C4CD
100
AcDbEntity
  8
0
  6
ByBlock
 62
     0
 48
50.0
100
AcDbBlockReference
  2
_DOTSMALL
 10
4711.154178364391
 20
-5666.165194089648
 30
0.0
 41
125.0
 42
125.0
 43
125.0
 50
270.0
  0
INSERT
  5
1C5D8
330
1C4CD
100
AcDbEntity
  8
0
  6
ByBlock
 62
     0
 48
50.0
100
AcDbBlockReference
  2
_DOTSMALL
 10
4711.154178364391
 20
-3456.165194089648
 30
0.0
 41
125.0
 42
125.0
 43
125.0
 50
90.0
  0
MTEXT
  5
1C5D9
330
1C4CD
100
AcDbEntity
  8
0
  6
ByBlock
 62
     7
 48
50.0
100
AcDbMText
 10
4611.139414584864
 20
-4561.165194089648
 30
0.0
 40
150.0
 41
0.0
 71
     5
 72
     1
  1
\A1;2210
  7
STYLE1
 11
0.0000000000000001
 21
1.0
 31
0.0
 73
     1
 44
1.0
  0
POINT
  5
1C5DA
330
1C4CD
100
AcDbEntity
  8
DEFPOINTS
  6
ByBlock
 62
     0
 48
50.0
100
AcDbPoint
 10
5370.644931785809
 20
-5666.165194089648
 30
0.0
  0
POINT
  5
1C5DB
330
1C4CD
100
AcDbEntity
  8
DEFPOINTS
  6
ByBlock
 62
     0
 48
50.0
100
AcDbPoint
 10
5275.64493178581
 20
-3456.165194089648
 30
0.0
  0
POINT
  5
1C5DC
330
1C4CD
100
AcDbEntity
  8
DEFPOINTS
  6
ByBlock
 62
     0
 48
50.0
100
AcDbPoint
 10
4711.154178364391
 20
-3456.165194089648
 30
0.0
  0
ENDBLK
  5
1C5DD
330
1C4CD
100
AcDbEntity
  8
0
 48
50.0
100
AcDbBlockEnd
  0
BLOCK
  5
1C5EA
330
1C4D9
100
AcDbEntity
  8
0
 48
50.0
100
AcDbBlockBegin
  2
*D38
 70
     1
 10
0.0
 20
0.0
 30
0.0
  3
*D38
  1

  0
LINE
  5
1C5EB
330
1C4D9
100
AcDbEntity
  8
0
  6
ByBlock
 62
     0
 48
50.0
100
AcDbLine
 10
5370.644931785809
 20
-3427.828175862807
 30
0.0
 11
5370.644931785809
 21
-2627.884063373127
 31
0.0
  0
LINE
  5
1C5EC
330
1C4D9
100
AcDbEntity
  8
0
  6
ByBlock
 62
     0
 48
50.0
100
AcDbLine
 10
5275.64493178581
 20
-3431.165194089648
 30
0.0
 11
5275.64493178581
 21
-2627.884063373127
 31
0.0
  0
LINE
  5
1C5ED
330
1C4D9
100
AcDbEntity
  8
0
  6
ByBlock
 62
     0
 48
50.0
100
AcDbLine
 10
5370.644931785809
 20
-2702.884063373127
 30
0.0
 11
5275.64493178581
 21
-2702.884063373127
 31
0.0
  0
LINE
  5
1C5EE
330
1C4D9
100
AcDbEntity
  8
0
  6
ByBlock
 62
     0
 48
50.0
100
AcDbLine
 10
5275.64493178581
 20
-2702.884063373127
 30
0.0
 11
4829.372673232104
 21
-2702.884063373127
 31
0.0
  0
INSERT
  5
1C5EF
330
1C4D9
100
AcDbEntity
  8
0
  6
ByBlock
 62
     0
 48
50.0
100
AcDbBlockReference
  2
_DOTSMALL
 10
5370.644931785809
 20
-2702.884063373127
 30
0.0
 41
125.0
 42
125.0
 43
125.0
  0
INSERT
  5
1C5F0
330
1C4D9
100
AcDbEntity
  8
0
  6
ByBlock
 62
     0
 48
50.0
100
AcDbBlockReference
  2
_DOTSMALL
 10
5275.64493178581
 20
-2702.884063373127
 30
0.0
 41
125.0
 42
125.0
 43
125.0
 50
180.0
  0
MTEXT
  5
1C5F1
330
1C4D9
100
AcDbEntity
  8
0
  6
ByBlock
 62
     7
 48
50.0
100
AcDbMText
 10
4943.085876667701
 20
-2602.884063373127
 30
0.0
 40
150.0
 41
0.0
 71
     5
 72
     1
  1
\A1;95
  7
STYLE1
 73
     1
 44
1.0
  0
POINT
  5
1C5F2
330
1C4D9
100
AcDbEntity
  8
DEFPOINTS
  6
ByBlock
 62
     0
 48
50.0
100
AcDbPoint
 10
5370.644931785809
 20
-3452.828175862807
 30
0.0
  0
POINT
  5
1C5F3
330
1C4D9
100
AcDbEntity
  8
DEFPOINTS
  6
ByBlock
 62
     0
 48
50.0
100
AcDbPoint
 10
5275.64493178581
 20
-3456.165194089648
 30
0.0
  0
POINT
  5
1C5F4
330
1C4D9
100
AcDbEntity
  8
DEFPOINTS
  6
ByBlock
 62
     0
 48
50.0
100
AcDbPoint
 10
5275.64493178581
 20
-2702.884063373127
 30
0.0
  0
ENDBLK
  5
1C5F5
330
1C4D9
100
AcDbEntity
  8
0
 48
50.0
100
AcDbBlockEnd
  0
BLOCK
  5
1C62B
330
1C62A
100
AcDbEntity
  8
0
 48
50.0
100
AcDbBlockBegin
  2
*D39
 70
     1
 10
0.0
 20
0.0
 30
0.0
  3
*D39
  1

  0
LINE
  5
1C62C
330
1C62A
100
AcDbEntity
  8
0
  6
ByBlock
 62
     0
 48
50.0
100
AcDbLine
 10
275.4645587597142
 20
3274.999999999956
 30
0.0
 11
-122.4654014634371
 21
3274.999999999956
 31
0.0
  0
LINE
  5
1C62D
330
1C62A
100
AcDbEntity
  8
0
  6
ByBlock
 62
     0
 48
50.0
100
AcDbLine
 10
345.4645587597142
 20
5169.999999999956
 30
0.0
 11
-122.465401463437
 21
5169.999999999956
 31
0.0
  0
LINE
  5
1C62E
330
1C62A
100
AcDbEntity
  8
0
  6
ByBlock
 62
     0
 48
50.0
100
AcDbLine
 10
-47.46540146343717
 20
3274.999999999956
 30
0.0
 11
-47.46540146343704
 21
5169.999999999956
 31
0.0
  0
INSERT
  5
1C62F
330
1C62A
100
AcDbEntity
  8
0
  6
ByBlock
 62
     0
 48
50.0
100
AcDbBlockReference
  2
_DOTSMALL
 10
-47.46540146343717
 20
3274.999999999956
 30
0.0
 41
125.0
 42
125.0
 43
125.0
 50
270.0
  0
INSERT
  5
1C630
330
1C62A
100
AcDbEntity
  8
0
  6
ByBlock
 62
     0
 48
50.0
100
AcDbBlockReference
  2
_DOTSMALL
 10
-47.46540146343704
 20
5169.999999999956
 30
0.0
 41
125.0
 42
125.0
 43
125.0
 50
90.0
  0
MTEXT
  5
1C631
330
1C62A
100
AcDbEntity
  8
0
  6
ByBlock
 62
     7
 48
50.0
100
AcDbMText
 10
-147.4654014634371
 20
4222.499999999956
 30
0.0
 40
150.0
 41
0.0
 71
     5
 72
     1
  1
\A1;1895
  7
STYLE1
 11
0.0000000000000001
 21
1.0
 31
0.0
 73
     1
 44
1.0
  0
POINT
  5
1C632
330
1C62A
100
AcDbEntity
  8
DEFPOINTS
  6
ByBlock
 62
     0
 48
50.0
100
AcDbPoint
 10
300.4645587597142
 20
3274.999999999956
 30
0.0
  0
POINT
  5
1C633
330
1C62A
100
AcDbEntity
  8
DEFPOINTS
  6
ByBlock
 62
     0
 48
50.0
100
AcDbPoint
 10
370.4645587597142
 20
5169.999999999956
 30
0.0
  0
POINT
  5
1C634
330
1C62A
100
AcDbEntity
  8
DEFPOINTS
  6
ByBlock
 62
     0
 48
50.0
100
AcDbPoint
 10
-47.46540146343704
 20
5169.999999999956
 30
0.0
  0
ENDBLK
  5
1C635
330
1C62A
100
AcDbEntity
  8
0
 48
50.0
100
AcDbBlockEnd
  0
BLOCK
  5
1C699
330
1C68E
100
AcDbEntity
  8
0
 48
50.0
100
AcDbBlockBegin
  2
*D40
 70
     1
 10
0.0
 20
0.0
 30
0.0
  3
*D40
  1

  0
LINE
  5
1C68F
330
1C68E
100
AcDbEntity
  8
0
  6
ByBlock
 62
     0
 48
50.0
100
AcDbLine
 10
44405.89788991325
 20
19731.25355823898
 30
0.0
 11
45075.0910977055
 21
19731.25355823898
 31
0.0
  0
LINE
  5
1C690
330
1C68E
100
AcDbEntity
  8
0
  6
ByBlock
 62
     0
 48
50.0
100
AcDbLine
 10
44405.89788991326
 20
19846.25355823898
 30
0.0
 11
45075.0910977055
 21
19846.25355823898
 31
0.0
  0
LINE
  5
1C691
330
1C68E
100
AcDbEntity
  8
0
  6
ByBlock
 62
     0
 48
50.0
100
AcDbLine
 10
45000.0910977055
 20
19731.25355823898
 30
0.0
 11
45000.0910977055
 21
19846.25355823898
 31
0.0
  0
LINE
  5
1C692
330
1C68E
100
AcDbEntity
  8
0
  6
ByBlock
 62
     0
 48
50.0
100
AcDbLine
 10
45000.0910977055
 20
19846.25355823898
 30
0.0
 11
45000.0910977055
 21
20237.46676167458
 31
0.0
  0
INSERT
  5
1C693
330
1C68E
100
AcDbEntity
  8
0
  6
ByBlock
 62
     0
 48
50.0
100
AcDbBlockReference
  2
_DOTSMALL
 10
45000.0910977055
 20
19731.25355823898
 30
0.0
 41
125.0
 42
125.0
 43
125.0
 50
270.0
  0
INSERT
  5
1C694
330
1C68E
100
AcDbEntity
  8
0
  6
ByBlock
 62
     0
 48
50.0
100
AcDbBlockReference
  2
_DOTSMALL
 10
45000.0910977055
 20
19846.25355823898
 30
0.0
 41
125.0
 42
125.0
 43
125.0
 50
90.0
  0
MTEXT
  5
1C695
330
1C68E
100
AcDbEntity
  8
0
  6
ByBlock
 62
     7
 48
50.0
100
AcDbMText
 10
44900.0910977055
 20
20104.36015995679
 30
0.0
 40
150.0
 41
0.0
 71
     5
 72
     1
  1
\A1;115
  7
STYLE1
 11
0.0000000000000001
 21
1.0
 31
0.0
 73
     1
 44
1.0
  0
POINT
  5
1C696
330
1C68E
100
AcDbEntity
  8
DEFPOINTS
  6
ByBlock
 62
     0
 48
50.0
100
AcDbPoint
 10
44380.89788991326
 20
19731.25355823898
 30
0.0
  0
POINT
  5
1C697
330
1C68E
100
AcDbEntity
  8
DEFPOINTS
  6
ByBlock
 62
     0
 48
50.0
100
AcDbPoint
 10
44380.89788991326
 20
19846.25355823898
 30
0.0
  0
POINT
  5
1C698
330
1C68E
100
AcDbEntity
  8
DEFPOINTS
  6
ByBlock
 62
     0
 48
50.0
100
AcDbPoint
 10
45000.0910977055
 20
19846.25355823898
 30
0.0
  0
ENDBLK
  5
1C69A
330
1C68E
100
AcDbEntity
  8
0
 48
50.0
100
AcDbBlockEnd
  0
BLOCK
  5
1C69D
330
1C69B
100
AcDbEntity
  8
0
 48
50.0
100
AcDbBlockBegin
  2
A$C356B7D95
 70
     0
 10
0.0
 20
0.0
 30
0.0
  3
A$C356B7D95
  1

  0
DIMENSION
  5
1C69C
330
1C69B
100
AcDbEntity
  8
寸法
 48
50.0
100
AcDbDimension
  2
*D40
 10
619.1932440042291
 20
130.6249900073708
 30
0.0
 11
619.1932440042291
 21
388.7315917251762
 31
0.0
 12
-44380.89785370127
 22
-19715.62856823161
 32
0.0
 70
   128
 71
     5
 42
-1.0
  3
INABA_S50G
100
AcDbAlignedDimension
 13
0.0000362119826605
 23
15.62499000737079
 33
0.0
 14
0.0000362119899364
 24
130.6249900073708
 34
0.0
 50
269.9999999999997
100
AcDbRotatedDimension
  0
ENDBLK
  5
1C69E
330
1C69B
100
AcDbEntity
  8
0
 48
50.0
100
AcDbBlockEnd
  0
BLOCK
  5
1C719
330
1C717
100
AcDbEntity
  8
0
 48
50.0
100
AcDbBlockBegin
  2
A$C5FCD7CC6
 70
     0
 10
0.0
 20
0.0
 30
0.0
  3
A$C5FCD7CC6
  1

  0
INSERT
  5
1C718
330
1C717
100
AcDbEntity
  8
部品1
 48
50.0
100
AcDbBlockReference
  2
A$C356B7D95
 10
5.140650254201318
 20
-15.61293116059096
 30
0.0
 50
2.255436934929261
  0
ENDBLK
  5
1C71A
330
1C717
100
AcDbEntity
  8
0
 48
50.0
100
AcDbBlockEnd
  0
BLOCK
  5
1CEAE
330
1CE29
100
AcDbEntity
  8
0
 48
50.0
100
AcDbBlockBegin
  2
*D43
 70
     1
 10
0.0
 20
0.0
 30
0.0
  3
*D43
  1

  0
LINE
  5
1CEAF
330
1CE29
100
AcDbEntity
  8
0
  6
ByBlock
 62
     0
 48
50.0
100
AcDbLine
 10
5592.19221578836
 20
13818.21447388478
 30
0.0
 11
5592.19221578836
 21
14561.49560460131
 31
0.0
  0
LINE
  5
1CEB0
330
1CE29
100
AcDbEntity
  8
0
  6
ByBlock
 62
     0
 48
50.0
100
AcDbLine
 10
5457.19221578836
 20
13815.77496579591
 30
0.0
 11
5457.19221578836
 21
14561.49560460131
 31
0.0
  0
LINE
  5
1CEB1
330
1CE29
100
AcDbEntity
  8
0
  6
ByBlock
 62
     0
 48
50.0
100
AcDbLine
 10
5457.19221578836
 20
14486.49560460131
 30
0.0
 11
5592.19221578836
 21
14486.49560460131
 31
0.0
  0
LINE
  5
1CEB2
330
1CE29
100
AcDbEntity
  8
0
  6
ByBlock
 62
     0
 48
50.0
100
AcDbLine
 10
5592.19221578836
 20
14486.49560460131
 30
0.0
 11
6022.857872624275
 21
14486.49560460131
 31
0.0
  0
INSERT
  5
1CEB3
330
1CE29
100
AcDbEntity
  8
0
  6
ByBlock
 62
     0
 48
50.0
100
AcDbBlockReference
  2
_DOTSMALL
 10
5457.19221578836
 20
14486.49560460131
 30
0.0
 41
125.0
 42
125.0
 43
125.0
 50
180.0
  0
INSERT
  5
1CEB4
330
1CE29
100
AcDbEntity
  8
0
  6
ByBlock
 62
     0
 48
50.0
100
AcDbBlockReference
  2
_DOTSMALL
 10
5592.19221578836
 20
14486.49560460131
 30
0.0
 41
125.0
 42
125.0
 43
125.0
  0
MTEXT
  5
1CEB5
330
1CE29
100
AcDbEntity
  8
0
  6
ByBlock
 62
     7
 48
50.0
100
AcDbMText
 10
5874.751270906475
 20
14586.49560460131
 30
0.0
 40
150.0
 41
0.0
 71
     5
 72
     1
  1
\A1;135
  7
STYLE1
 73
     1
 44
1.0
  0
POINT
  5
1CEB6
330
1CE29
100
AcDbEntity
  8
DEFPOINTS
  6
ByBlock
 62
     0
 48
50.0
100
AcDbPoint
 10
5592.19221578836
 20
13793.21447388478
 30
0.0
  0
POINT
  5
1CEB7
330
1CE29
100
AcDbEntity
  8
DEFPOINTS
  6
ByBlock
 62
     0
 48
50.0
100
AcDbPoint
 10
5457.19221578836
 20
13790.77496579591
 30
0.0
  0
POINT
  5
1CEB8
330
1CE29
100
AcDbEntity
  8
DEFPOINTS
  6
ByBlock
 62
     0
 48
50.0
100
AcDbPoint
 10
5457.19221578836
 20
14486.49560460131
 30
0.0
  0
ENDBLK
  5
1CEB9
330
1CE29
100
AcDbEntity
  8
0
 48
50.0
100
AcDbBlockEnd
  0
BLOCK
  5
1CEBA
330
1CE36
100
AcDbEntity
  8
0
 48
50.0
100
AcDbBlockBegin
  2
*D44
 70
     1
 10
0.0
 20
0.0
 30
0.0
  3
*D44
  1

  0
LINE
  5
1CEBB
330
1CE36
100
AcDbEntity
  8
0
  6
ByBlock
 62
     0
 48
50.0
100
AcDbLine
 10
3577.19221578836
 20
13760.84085772042
 30
0.0
 11
3577.19221578836
 21
14561.4956046013
 31
0.0
  0
LINE
  5
1CEBC
330
1CE36
100
AcDbEntity
  8
0
  6
ByBlock
 62
     0
 48
50.0
100
AcDbLine
 10
3482.19221578836
 20
13758.21447388478
 30
0.0
 11
3482.19221578836
 21
14561.4956046013
 31
0.0
  0
LINE
  5
1CEBD
330
1CE36
100
AcDbEntity
  8
0
  6
ByBlock
 62
     0
 48
50.0
100
AcDbLine
 10
3577.19221578836
 20
14486.4956046013
 30
0.0
 11
3482.19221578836
 21
14486.4956046013
 31
0.0
  0
LINE
  5
1CEBE
330
1CE36
100
AcDbEntity
  8
0
  6
ByBlock
 62
     0
 48
50.0
100
AcDbLine
 10
3482.19221578836
 20
14486.4956046013
 30
0.0
 11
3035.919957234655
 21
14486.4956046013
 31
0.0
  0
INSERT
  5
1CEBF
330
1CE36
100
AcDbEntity
  8
0
  6
ByBlock
 62
     0
 48
50.0
100
AcDbBlockReference
  2
_DOTSMALL
 10
3577.19221578836
 20
14486.4956046013
 30
0.0
 41
125.0
 42
125.0
 43
125.0
  0
INSERT
  5
1CEC0
330
1CE36
100
AcDbEntity
  8
0
  6
ByBlock
 62
     0
 48
50.0
100
AcDbBlockReference
  2
_DOTSMALL
 10
3482.19221578836
 20
14486.4956046013
 30
0.0
 41
125.0
 42
125.0
 43
125.0
 50
180.0
  0
MTEXT
  5
1CEC1
330
1CE36
100
AcDbEntity
  8
0
  6
ByBlock
 62
     7
 48
50.0
100
AcDbMText
 10
3149.633160670251
 20
14586.4956046013
 30
0.0
 40
150.0
 41
0.0
 71
     5
 72
     1
  1
\A1;95
  7
STYLE1
 73
     1
 44
1.0
  0
POINT
  5
1CEC2
330
1CE36
100
AcDbEntity
  8
DEFPOINTS
  6
ByBlock
 62
     0
 48
50.0
100
AcDbPoint
 10
3577.19221578836
 20
13735.84085772042
 30
0.0
  0
POINT
  5
1CEC3
330
1CE36
100
AcDbEntity
  8
DEFPOINTS
  6
ByBlock
 62
     0
 48
50.0
100
AcDbPoint
 10
3482.19221578836
 20
13733.21447388478
 30
0.0
  0
POINT
  5
1CEC4
330
1CE36
100
AcDbEntity
  8
DEFPOINTS
  6
ByBlock
 62
     0
 48
50.0
100
AcDbPoint
 10
3482.19221578836
 20
14486.4956046013
 30
0.0
  0
ENDBLK
  5
1CEC5
330
1CE36
100
AcDbEntity
  8
0
 48
50.0
100
AcDbBlockEnd
  0
BLOCK
  5
1CEC6
330
1CE43
100
AcDbEntity
  8
0
 48
50.0
100
AcDbBlockBegin
  2
*D45
 70
     1
 10
0.0
 20
0.0
 30
0.0
  3
*D45
  1

  0
LINE
  5
1CFA5
330
1CE43
100
AcDbEntity
  8
寸法
 62
     0
 48
50.0
100
AcDbLine
 10
5692.829581418176
 20
11601.36318119755
 30
0.0
 11
5692.829581418176
 21
12402.01792807844
 31
0.0
  0
LINE
  5
1CFA6
330
1CE43
100
AcDbEntity
  8
寸法
 62
     0
 48
50.0
100
AcDbLine
 10
7572.829581418176
 20
12327.01792807844
 30
0.0
 11
5692.829581418176
 21
12327.01792807844
 31
0.0
  0
INSERT
  5
1CFA7
330
1CE43
100
AcDbEntity
  8
寸法
 62
     0
 48
50.0
100
AcDbBlockReference
  2
_DOTSMALL
 10
7572.829581418176
 20
12327.01792807844
 30
0.0
 41
125.0
 42
125.0
 43
125.0
  0
INSERT
  5
1CFA8
330
1CE43
100
AcDbEntity
  8
寸法
 62
     0
 48
50.0
100
AcDbBlockReference
  2
_DOTSMALL
 10
5692.829581418176
 20
12327.01792807844
 30
0.0
 41
125.0
 42
125.0
 43
125.0
 50
180.0
  0
MTEXT
  5
1CFA9
330
1CE43
100
AcDbEntity
  8
寸法
 62
     7
 48
50.0
100
AcDbMText
 10
6632.829581418175
 20
12427.01792807844
 30
0.0
 40
150.0
 41
0.0
 71
     5
 72
     1
  1
\A1;柱外寸法 1880
  7
STYLE1
 73
     1
 44
1.0
  0
POINT
  5
1CFAA
330
1CE43
100
AcDbEntity
  8
DEFPOINTS
 62
     0
 48
50.0
100
AcDbPoint
 10
7572.829581418176
 20
11588.73679736192
 30
0.0
  0
POINT
  5
1CFAB
330
1CE43
100
AcDbEntity
  8
DEFPOINTS
 62
     0
 48
50.0
100
AcDbPoint
 10
5692.829581418176
 20
11576.36318119755
 30
0.0
  0
POINT
  5
1CFAC
330
1CE43
100
AcDbEntity
  8
DEFPOINTS
 62
     0
 48
50.0
100
AcDbPoint
 10
5692.829581418176
 20
12327.01792807844
 30
0.0
  0
ENDBLK
  5
1CECF
330
1CE43
100
AcDbEntity
  8
0
 48
50.0
100
AcDbBlockEnd
  0
BLOCK
  5
1CED0
330
1CE4E
100
AcDbEntity
  8
0
 48
50.0
100
AcDbBlockBegin
  2
*D46
 70
     1
 10
0.0
 20
0.0
 30
0.0
  3
*D46
  1

  0
LINE
  5
1CED1
330
1CE4E
100
AcDbEntity
  8
0
  6
ByBlock
 62
     0
 48
50.0
100
AcDbLine
 10
5592.19221578836
 20
13818.21447388478
 30
0.0
 11
5592.19221578836
 21
14877.65137539296
 31
0.0
  0
LINE
  5
1CED2
330
1CE4E
100
AcDbEntity
  8
0
  6
ByBlock
 62
     0
 48
50.0
100
AcDbLine
 10
3482.19221578836
 20
13758.21447388478
 30
0.0
 11
3482.19221578836
 21
14877.65137539296
 31
0.0
  0
LINE
  5
1CED3
330
1CE4E
100
AcDbEntity
  8
0
  6
ByBlock
 62
     0
 48
50.0
100
AcDbLine
 10
5592.19221578836
 20
14802.65137539296
 30
0.0
 11
3482.19221578836
 21
14802.65137539296
 31
0.0
  0
INSERT
  5
1CED4
330
1CE4E
100
AcDbEntity
  8
0
  6
ByBlock
 62
     0
 48
50.0
100
AcDbBlockReference
  2
_DOTSMALL
 10
5592.19221578836
 20
14802.65137539296
 30
0.0
 41
125.0
 42
125.0
 43
125.0
  0
INSERT
  5
1CED5
330
1CE4E
100
AcDbEntity
  8
0
  6
ByBlock
 62
     0
 48
50.0
100
AcDbBlockReference
  2
_DOTSMALL
 10
3482.19221578836
 20
14802.65137539296
 30
0.0
 41
125.0
 42
125.0
 43
125.0
 50
180.0
  0
MTEXT
  5
1CED6
330
1CE4E
100
AcDbEntity
  8
0
  6
ByBlock
 62
     7
 48
50.0
100
AcDbMText
 10
4537.19221578836
 20
14902.66613917249
 30
0.0
 40
150.0
 41
0.0
 71
     5
 72
     1
  1
\A1;2110
  7
STYLE1
 73
     1
 44
1.0
  0
POINT
  5
1CED7
330
1CE4E
100
AcDbEntity
  8
DEFPOINTS
  6
ByBlock
 62
     0
 48
50.0
100
AcDbPoint
 10
5592.19221578836
 20
13793.21447388478
 30
0.0
  0
POINT
  5
1CED8
330
1CE4E
100
AcDbEntity
  8
DEFPOINTS
  6
ByBlock
 62
     0
 48
50.0
100
AcDbPoint
 10
3482.19221578836
 20
13733.21447388478
 30
0.0
  0
POINT
  5
1CED9
330
1CE4E
100
AcDbEntity
  8
DEFPOINTS
  6
ByBlock
 62
     0
 48
50.0
100
AcDbPoint
 10
3482.19221578836
 20
14802.65137539296
 30
0.0
  0
ENDBLK
  5
1CEDA
330
1CE4E
100
AcDbEntity
  8
0
 48
50.0
100
AcDbBlockEnd
  0
BLOCK
  5
1CEDB
330
1CE5A
100
AcDbEntity
  8
0
 48
50.0
100
AcDbBlockBegin
  2
*D47
 70
     1
 10
0.0
 20
0.0
 30
0.0
  3
*D47
  1

  0
LINE
  5
1CEDC
330
1CE5A
100
AcDbEntity
  8
0
  6
ByBlock
 62
     0
 48
50.0
100
AcDbLine
 10
3552.19221578836
 20
11523.21447388479
 30
0.0
 11
1877.950151458367
 21
11523.21447388479
 31
0.0
  0
LINE
  5
1CEDD
330
1CE5A
100
AcDbEntity
  8
0
  6
ByBlock
 62
     0
 48
50.0
100
AcDbLine
 10
3457.19221578836
 20
13733.21447388478
 30
0.0
 11
1877.950151458368
 21
13733.21447388478
 31
0.0
  0
LINE
  5
1CEDE
330
1CE5A
100
AcDbEntity
  8
0
  6
ByBlock
 62
     0
 48
50.0
100
AcDbLine
 10
1952.950151458368
 20
11523.21447388479
 30
0.0
 11
1952.950151458368
 21
13733.21447388478
 31
0.0
  0
INSERT
  5
1CEDF
330
1CE5A
100
AcDbEntity
  8
0
  6
ByBlock
 62
     0
 48
50.0
100
AcDbBlockReference
  2
_DOTSMALL
 10
1952.950151458368
 20
11523.21447388479
 30
0.0
 41
125.0
 42
125.0
 43
125.0
 50
270.0
  0
INSERT
  5
1CEE0
330
1CE5A
100
AcDbEntity
  8
0
  6
ByBlock
 62
     0
 48
50.0
100
AcDbBlockReference
  2
_DOTSMALL
 10
1952.950151458368
 20
13733.21447388478
 30
0.0
 41
125.0
 42
125.0
 43
125.0
 50
90.0
  0
MTEXT
  5
1CEE1
330
1CE5A
100
AcDbEntity
  8
0
  6
ByBlock
 62
     7
 48
50.0
100
AcDbMText
 10
1852.93538767884
 20
12628.21447388478
 30
0.0
 40
150.0
 41
0.0
 71
     5
 72
     1
  1
\A1;2210
  7
STYLE1
 11
0.0000000000000001
 21
1.0
 31
0.0
 73
     1
 44
1.0
  0
POINT
  5
1CEE2
330
1CE5A
100
AcDbEntity
  8
DEFPOINTS
  6
ByBlock
 62
     0
 48
50.0
100
AcDbPoint
 10
3577.19221578836
 20
11523.21447388479
 30
0.0
  0
POINT
  5
1CEE3
330
1CE5A
100
AcDbEntity
  8
DEFPOINTS
  6
ByBlock
 62
     0
 48
50.0
100
AcDbPoint
 10
3482.19221578836
 20
13733.21447388478
 30
0.0
  0
POINT
  5
1CEE4
330
1CE5A
100
AcDbEntity
  8
DEFPOINTS
  6
ByBlock
 62
     0
 48
50.0
100
AcDbPoint
 10
1952.950151458368
 20
13733.21447388478
 30
0.0
  0
ENDBLK
  5
1CEE5
330
1CE5A
100
AcDbEntity
  8
0
 48
50.0
100
AcDbBlockEnd
  0
BLOCK
  5
1CEE6
330
1CE66
100
AcDbEntity
  8
0
 48
50.0
100
AcDbBlockBegin
  2
*D48
 70
     1
 10
0.0
 20
0.0
 30
0.0
  3
*D48
  1

  0
LINE
  5
1CEE7
330
1CE66
100
AcDbEntity
  8
0
  6
ByBlock
 62
     0
 48
50.0
100
AcDbLine
 10
3587.69221578836
 20
11590.21447388479
 30
0.0
 11
2190.911880546758
 21
11590.21447388479
 31
0.0
  0
LINE
  5
1CEE8
330
1CE66
100
AcDbEntity
  8
0
  6
ByBlock
 62
     0
 48
50.0
100
AcDbLine
 10
3552.19221578836
 20
13550.21447388478
 30
0.0
 11
2190.911880546758
 21
13550.21447388478
 31
0.0
  0
LINE
  5
1CEE9
330
1CE66
100
AcDbEntity
  8
0
  6
ByBlock
 62
     0
 48
50.0
100
AcDbLine
 10
2265.911880546759
 20
11590.21447388479
 30
0.0
 11
2265.911880546759
 21
13550.21447388478
 31
0.0
  0
INSERT
  5
1CEEA
330
1CE66
100
AcDbEntity
  8
0
  6
ByBlock
 62
     0
 48
50.0
100
AcDbBlockReference
  2
_DOTSMALL
 10
2265.911880546759
 20
11590.21447388479
 30
0.0
 41
125.0
 42
125.0
 43
125.0
 50
270.0
  0
INSERT
  5
1CEEB
330
1CE66
100
AcDbEntity
  8
0
  6
ByBlock
 62
     0
 48
50.0
100
AcDbBlockReference
  2
_DOTSMALL
 10
2265.911880546759
 20
13550.21447388478
 30
0.0
 41
125.0
 42
125.0
 43
125.0
 50
90.0
  0
MTEXT
  5
1CEEC
330
1CE66
100
AcDbEntity
  8
0
  6
ByBlock
 62
     7
 48
50.0
100
AcDbMText
 10
2165.911880546758
 20
12570.21447388478
 30
0.0
 40
150.0
 41
0.0
 71
     5
 72
     1
  1
\A1;内高 1960
  7
STYLE1
 11
0.0000000000000001
 21
1.0
 31
0.0
 73
     1
 44
1.0
  0
POINT
  5
1CEED
330
1CE66
100
AcDbEntity
  8
DEFPOINTS
  6
ByBlock
 62
     0
 48
50.0
100
AcDbPoint
 10
3612.69221578836
 20
11590.21447388479
 30
0.0
  0
POINT
  5
1CEEE
330
1CE66
100
AcDbEntity
  8
DEFPOINTS
  6
ByBlock
 62
     0
 48
50.0
100
AcDbPoint
 10
3577.19221578836
 20
13550.21447388478
 30
0.0
  0
POINT
  5
1CEEF
330
1CE66
100
AcDbEntity
  8
DEFPOINTS
  6
ByBlock
 62
     0
 48
50.0
100
AcDbPoint
 10
2265.911880546759
 20
13550.21447388478
 30
0.0
  0
ENDBLK
  5
1CEF0
330
1CE66
100
AcDbEntity
  8
0
 48
50.0
100
AcDbBlockEnd
  0
BLOCK
  5
1CEF1
330
1CE72
100
AcDbEntity
  8
0
 48
50.0
100
AcDbBlockBegin
  2
*D49
 70
     1
 10
0.0
 20
0.0
 30
0.0
  3
*D49
  1

  0
LINE
  5
1CEF2
330
1CE72
100
AcDbEntity
  8
0
  6
ByBlock
 62
     0
 48
50.0
100
AcDbLine
 10
5617.192215788367
 20
13793.21447388478
 30
0.0
 11
7416.852655773539
 21
13793.21447388478
 31
0.0
  0
LINE
  5
1CEF3
330
1CE72
100
AcDbEntity
  8
0
  6
ByBlock
 62
     0
 48
50.0
100
AcDbLine
 10
5482.19221578836
 20
11523.21447388479
 30
0.0
 11
7416.852655773539
 21
11523.21447388479
 31
0.0
  0
LINE
  5
1CEF4
330
1CE72
100
AcDbEntity
  8
0
  6
ByBlock
 62
     0
 48
50.0
100
AcDbLine
 10
7341.852655773539
 20
13793.21447388478
 30
0.0
 11
7341.852655773539
 21
11523.21447388479
 31
0.0
  0
INSERT
  5
1CEF5
330
1CE72
100
AcDbEntity
  8
0
  6
ByBlock
 62
     0
 48
50.0
100
AcDbBlockReference
  2
_DOTSMALL
 10
7341.852655773539
 20
13793.21447388478
 30
0.0
 41
125.0
 42
125.0
 43
125.0
 50
90.0
  0
INSERT
  5
1CEF6
330
1CE72
100
AcDbEntity
  8
0
  6
ByBlock
 62
     0
 48
50.0
100
AcDbBlockReference
  2
_DOTSMALL
 10
7341.852655773539
 20
11523.21447388479
 30
0.0
 41
125.0
 42
125.0
 43
125.0
 50
270.0
  0
MTEXT
  5
1CEF7
330
1CE72
100
AcDbEntity
  8
0
  6
ByBlock
 62
     7
 48
50.0
100
AcDbMText
 10
7241.837891994011
 20
12658.21447388479
 30
0.0
 40
150.0
 41
0.0
 71
     5
 72
     1
  1
\A1;2270
  7
STYLE1
 11
0.0000000000000001
 21
1.0
 31
0.0
 73
     1
 44
1.0
  0
POINT
  5
1CEF8
330
1CE72
100
AcDbEntity
  8
DEFPOINTS
  6
ByBlock
 62
     0
 48
50.0
100
AcDbPoint
 10
5592.192215788367
 20
13793.21447388478
 30
0.0
  0
POINT
  5
1CEF9
330
1CE72
100
AcDbEntity
  8
DEFPOINTS
  6
ByBlock
 62
     0
 48
50.0
100
AcDbPoint
 10
5457.19221578836
 20
11523.21447388479
 30
0.0
  0
POINT
  5
1CEFA
330
1CE72
100
AcDbEntity
  8
DEFPOINTS
  6
ByBlock
 62
     0
 48
50.0
100
AcDbPoint
 10
7341.852655773539
 20
11523.21447388479
 30
0.0
  0
ENDBLK
  5
1CEFB
330
1CE72
100
AcDbEntity
  8
0
 48
50.0
100
AcDbBlockEnd
  0
BLOCK
  5
1CEFC
330
1CE7E
100
AcDbEntity
  8
0
 48
50.0
100
AcDbBlockBegin
  2
*D50
 70
     1
 10
0.0
 20
0.0
 30
0.0
  3
*D50
  1

  0
LINE
  5
1CEFD
330
1CE7E
100
AcDbEntity
  8
0
  6
ByBlock
 62
     0
 48
50.0
100
AcDbLine
 10
5482.19221578836
 20
13523.21447388479
 30
0.0
 11
7082.597990609079
 21
13523.21447388479
 31
0.0
  0
LINE
  5
1CEFE
330
1CE7E
100
AcDbEntity
  8
0
  6
ByBlock
 62
     0
 48
50.0
100
AcDbLine
 10
6700.395989463977
 20
11578.21447388478
 30
0.0
 11
7082.597990609079
 21
11578.21447388478
 31
0.0
  0
LINE
  5
1CEFF
330
1CE7E
100
AcDbEntity
  8
0
  6
ByBlock
 62
     0
 48
50.0
100
AcDbLine
 10
7007.597990609079
 20
13523.21447388479
 30
0.0
 11
7007.597990609079
 21
11578.21447388478
 31
0.0
  0
INSERT
  5
1CF00
330
1CE7E
100
AcDbEntity
  8
0
  6
ByBlock
 62
     0
 48
50.0
100
AcDbBlockReference
  2
_DOTSMALL
 10
7007.597990609079
 20
13523.21447388479
 30
0.0
 41
125.0
 42
125.0
 43
125.0
 50
90.0
  0
INSERT
  5
1CF01
330
1CE7E
100
AcDbEntity
  8
0
  6
ByBlock
 62
     0
 48
50.0
100
AcDbBlockReference
  2
_DOTSMALL
 10
7007.597990609079
 20
11578.21447388478
 30
0.0
 41
125.0
 42
125.0
 43
125.0
 50
270.0
  0
MTEXT
  5
1CF02
330
1CE7E
100
AcDbEntity
  8
0
  6
ByBlock
 62
     7
 48
50.0
100
AcDbMText
 10
6907.59799060908
 20
12550.71447388478
 30
0.0
 40
150.0
 41
0.0
 71
     5
 72
     1
  1
\A1;1945
  7
STYLE1
 11
0.0000000000000001
 21
1.0
 31
0.0
 73
     1
 44
1.0
  0
POINT
  5
1CF03
330
1CE7E
100
AcDbEntity
  8
DEFPOINTS
  6
ByBlock
 62
     0
 48
50.0
100
AcDbPoint
 10
5457.19221578836
 20
13523.21447388479
 30
0.0
  0
POINT
  5
1CF04
330
1CE7E
100
AcDbEntity
  8
DEFPOINTS
  6
ByBlock
 62
     0
 48
50.0
100
AcDbPoint
 10
6675.395989463978
 20
11578.21447388478
 30
0.0
  0
POINT
  5
1CF05
330
1CE7E
100
AcDbEntity
  8
DEFPOINTS
  6
ByBlock
 62
     0
 48
50.0
100
AcDbPoint
 10
7007.597990609079
 20
11578.21447388478
 30
0.0
  0
ENDBLK
  5
1CF06
330
1CE7E
100
AcDbEntity
  8
0
 48
50.0
100
AcDbBlockEnd
  0
BLOCK
  5
1CF07
330
1CE8A
100
AcDbEntity
  8
0
 48
50.0
100
AcDbBlockBegin
  2
*D51
 70
     1
 10
0.0
 20
0.0
 30
0.0
  3
*D51
  1

  0
LINE
  5
1CFAD
330
1CE8A
100
AcDbEntity
  8
寸法
 62
     0
 48
50.0
100
AcDbLine
 10
7597.829581418169
 20
11218.73679736192
 30
0.0
 11
8866.033355093794
 21
11218.73679736192
 31
0.0
  0
LINE
  5
1CFAE
330
1CE8A
100
AcDbEntity
  8
寸法
 62
     0
 48
50.0
100
AcDbLine
 10
8791.033355093793
 20
10148.73679736192
 30
0.0
 11
8791.033355093793
 21
11218.73679736192
 31
0.0
  0
INSERT
  5
1CFAF
330
1CE8A
100
AcDbEntity
  8
寸法
 62
     0
 48
50.0
100
AcDbBlockReference
  2
_DOTSMALL
 10
8791.033355093793
 20
10148.73679736192
 30
0.0
 41
125.0
 42
125.0
 43
125.0
 50
270.0
  0
INSERT
  5
1CFB0
330
1CE8A
100
AcDbEntity
  8
寸法
 62
     0
 48
50.0
100
AcDbBlockReference
  2
_DOTSMALL
 10
8791.033355093793
 20
11218.73679736192
 30
0.0
 41
125.0
 42
125.0
 43
125.0
 50
90.0
  0
MTEXT
  5
1CFB1
330
1CE8A
100
AcDbEntity
  8
寸法
 62
     7
 48
50.0
100
AcDbMText
 10
8691.033355093791
 20
10683.73679736192
 30
0.0
 40
150.0
 41
0.0
 71
     5
 72
     1
  1
\A1;1070
  7
STYLE1
 11
0.0000000000000001
 21
1.0
 31
0.0
 73
     1
 44
1.0
  0
POINT
  5
1CFB2
330
1CE8A
100
AcDbEntity
  8
DEFPOINTS
 62
     0
 48
50.0
100
AcDbPoint
 10
7572.829581418176
 20
10148.73679736192
 30
0.0
  0
POINT
  5
1CFB3
330
1CE8A
100
AcDbEntity
  8
DEFPOINTS
 62
     0
 48
50.0
100
AcDbPoint
 10
7572.829581418169
 20
11218.73679736192
 30
0.0
  0
POINT
  5
1CFB4
330
1CE8A
100
AcDbEntity
  8
DEFPOINTS
 62
     0
 48
50.0
100
AcDbPoint
 10
8791.033355093793
 20
11218.73679736192
 30
0.0
  0
ENDBLK
  5
1CF10
330
1CE8A
100
AcDbEntity
  8
0
 48
50.0
100
AcDbBlockEnd
  0
BLOCK
  5
1CF11
330
1CE95
100
AcDbEntity
  8
0
 48
50.0
100
AcDbBlockBegin
  2
*D52
 70
     1
 10
0.0
 20
0.0
 30
0.0
  3
*D52
  1

  0
LINE
  5
1CF12
330
1CE95
100
AcDbEntity
  8
0
  6
ByBlock
 62
     0
 48
50.0
100
AcDbLine
 10
6700.395989463977
 20
11578.21447388478
 30
0.0
 11
7082.597990609079
 21
11578.21447388478
 31
0.0
  0
LINE
  5
1CF13
330
1CE95
100
AcDbEntity
  8
0
  6
ByBlock
 62
     0
 48
50.0
100
AcDbLine
 10
5482.19221578836
 20
11523.21447388479
 30
0.0
 11
7082.597990609079
 21
11523.21447388479
 31
0.0
  0
LINE
  5
1CF14
330
1CE95
100
AcDbEntity
  8
0
  6
ByBlock
 62
     0
 48
50.0
100
AcDbLine
 10
7007.597990609079
 20
11578.21447388478
 30
0.0
 11
7007.597990609079
 21
11523.21447388479
 31
0.0
  0
LINE
  5
1CF15
330
1CE95
100
AcDbEntity
  8
0
  6
ByBlock
 62
     0
 48
50.0
100
AcDbLine
 10
7007.597990609079
 20
11523.21447388479
 30
0.0
 11
7007.597990609079
 21
11157.54332323274
 31
0.0
  0
INSERT
  5
1CF16
330
1CE95
100
AcDbEntity
  8
0
  6
ByBlock
 62
     0
 48
50.0
100
AcDbBlockReference
  2
_DOTSMALL
 10
7007.597990609079
 20
11578.21447388478
 30
0.0
 41
125.0
 42
125.0
 43
125.0
 50
90.0
  0
INSERT
  5
1CF17
330
1CE95
100
AcDbEntity
  8
0
  6
ByBlock
 62
     0
 48
50.0
100
AcDbBlockReference
  2
_DOTSMALL
 10
7007.597990609079
 20
11523.21447388479
 30
0.0
 41
125.0
 42
125.0
 43
125.0
 50
270.0
  0
MTEXT
  5
1CF18
330
1CE95
100
AcDbEntity
  8
0
  6
ByBlock
 62
     7
 48
50.0
100
AcDbMText
 10
6907.59799060908
 20
11268.14992495054
 30
0.0
 40
150.0
 41
0.0
 71
     5
 72
     1
  1
\A1;55
  7
STYLE1
 11
0.0000000000000001
 21
1.0
 31
0.0
 73
     1
 44
1.0
  0
POINT
  5
1CF19
330
1CE95
100
AcDbEntity
  8
DEFPOINTS
  6
ByBlock
 62
     0
 48
50.0
100
AcDbPoint
 10
6675.395989463978
 20
11578.21447388478
 30
0.0
  0
POINT
  5
1CF1A
330
1CE95
100
AcDbEntity
  8
DEFPOINTS
  6
ByBlock
 62
     0
 48
50.0
100
AcDbPoint
 10
5457.19221578836
 20
11523.21447388479
 30
0.0
  0
POINT
  5
1CF1B
330
1CE95
100
AcDbEntity
  8
DEFPOINTS
  6
ByBlock
 62
     0
 48
50.0
100
AcDbPoint
 10
7007.597990609079
 20
11523.21447388479
 30
0.0
  0
ENDBLK
  5
1CF1C
330
1CE95
100
AcDbEntity
  8
0
 48
50.0
100
AcDbBlockEnd
  0
BLOCK
  5
1CF1D
330
1CEA2
100
AcDbEntity
  8
0
 48
50.0
100
AcDbBlockBegin
  2
*D53
 70
     1
 10
0.0
 20
0.0
 30
0.0
  3
*D53
  1

  0
LINE
  5
1CF1E
330
1CEA2
100
AcDbEntity
  8
0
  6
ByBlock
 62
     0
 48
50.0
100
AcDbLine
 10
5482.19221578836
 20
11523.21447388479
 30
0.0
 11
6750.395989463978
 21
11523.21447388479
 31
0.0
  0
LINE
  5
1CF1F
330
1CEA2
100
AcDbEntity
  8
0
  6
ByBlock
 62
     0
 48
50.0
100
AcDbLine
 10
5482.19221578836
 20
12308.21447388478
 30
0.0
 11
6750.395989463978
 21
12308.21447388478
 31
0.0
  0
LINE
  5
1CF20
330
1CEA2
100
AcDbEntity
  8
0
  6
ByBlock
 62
     0
 48
50.0
100
AcDbLine
 10
6675.395989463978
 20
11523.21447388479
 30
0.0
 11
6675.395989463978
 21
12308.21447388478
 31
0.0
  0
INSERT
  5
1CF21
330
1CEA2
100
AcDbEntity
  8
0
  6
ByBlock
 62
     0
 48
50.0
100
AcDbBlockReference
  2
_DOTSMALL
 10
6675.395989463978
 20
11523.21447388479
 30
0.0
 41
125.0
 42
125.0
 43
125.0
 50
270.0
  0
INSERT
  5
1CF22
330
1CEA2
100
AcDbEntity
  8
0
  6
ByBlock
 62
     0
 48
50.0
100
AcDbBlockReference
  2
_DOTSMALL
 10
6675.395989463978
 20
12308.21447388478
 30
0.0
 41
125.0
 42
125.0
 43
125.0
 50
90.0
  0
MTEXT
  5
1CF23
330
1CEA2
100
AcDbEntity
  8
0
  6
ByBlock
 62
     7
 48
50.0
100
AcDbMText
 10
6575.395989463977
 20
11915.71447388478
 30
0.0
 40
150.0
 41
0.0
 71
     5
 72
     1
  1
\A1;785
  7
STYLE1
 11
0.0000000000000001
 21
1.0
 31
0.0
 73
     1
 44
1.0
  0
POINT
  5
1CF24
330
1CEA2
100
AcDbEntity
  8
DEFPOINTS
  6
ByBlock
 62
     0
 48
50.0
100
AcDbPoint
 10
5457.19221578836
 20
11523.21447388479
 30
0.0
  0
POINT
  5
1CF25
330
1CEA2
100
AcDbEntity
  8
DEFPOINTS
  6
ByBlock
 62
     0
 48
50.0
100
AcDbPoint
 10
5457.19221578836
 20
12308.21447388478
 30
0.0
  0
POINT
  5
1CF26
330
1CEA2
100
AcDbEntity
  8
DEFPOINTS
  6
ByBlock
 62
     0
 48
50.0
100
AcDbPoint
 10
6675.395989463978
 20
12308.21447388478
 30
0.0
  0
ENDBLK
  5
1CF27
330
1CEA2
100
AcDbEntity
  8
0
 48
50.0
100
AcDbBlockEnd
  0
ENDSEC
  0
SECTION
  2
ENTITIES
  0
LINE
  5
10B56
330
747D
100
AcDbEntity
  8
補助
  6
PHANTOM
 62
   230
 48
50.0
100
AcDbLine
 10
175.0
 20
0.0
 30
0.0
 11
174.9999999999993
 21
14262.0
 31
0.0
  0
LINE
  5
10B57
330
747D
100
AcDbEntity
  8
補助
  6
PHANTOM
 62
   230
 48
50.0
100
AcDbLine
 10
174.9999999999993
 20
14262.0
 30
0.0
 11
20384.0
 21
14262.0
 31
0.0
  0
LINE
  5
10B59
330
747D
100
AcDbEntity
  8
仕様書枠
  6
Continuous
 48
50.0
100
AcDbLine
 10
16384.0
 20
1500.0
 30
0.0
 11
16384.0
 21
0.0
 31
0.0
  0
LINE
  5
10B5C
330
747D
100
AcDbEntity
  8
仕様書枠
 48
50.0
100
AcDbLine
 10
20384.0
 20
1500.0
 30
0.0
 11
20384.0
 21
0.0
 31
0.0
  0
LINE
  5
10B5D
330
747D
100
AcDbEntity
  8
仕様書枠
 48
50.0
100
AcDbLine
 10
175.0
 20
0.0
 30
0.0
 11
20384.0
 21
-0.0000000000001137
 31
0.0
  0
LINE
  5
10B5E
330
747D
100
AcDbEntity
  8
補助
  6
PHANTOM
 62
   230
 48
50.0
100
AcDbLine
 10
20384.0
 20
14262.0
 30
0.0
 11
20384.0
 21
1500.0
 31
0.0
  0
LINE
  5
10B6C
330
747D
100
AcDbEntity
  8
仕様書枠
 48
50.0
100
AcDbLine
 10
16384.0
 20
1500.0
 30
0.0
 11
20384.0
 21
1500.0
 31
0.0
  0
LINE
  5
10B6D
330
747D
100
AcDbEntity
  8
補助
  6
PHANTOM
 62
   230
 48
50.0
100
AcDbLine
 10
16384.0
 20
14262.0
 30
0.0
 11
16384.0
 21
6000.0
 31
0.0
  0
LINE
  5
10B6F
330
747D
100
AcDbEntity
  8
補助
  6
PHANTOM
 62
   230
 48
50.0
100
AcDbLine
 10
16384.0
 20
6000.0
 30
0.0
 11
20384.0
 21
6000.0
 31
0.0
  0
LINE
  5
10B72
330
747D
100
AcDbEntity
  8
文字
 62
     7
 48
50.0
100
AcDbLine
 10
16484.0
 20
500.0
 30
0.0
 11
20284.0
 21
500.0
 31
0.0
  0
TEXT
  5
10B73
330
747D
100
AcDbEntity
  8
文字
 62
     7
 48
50.0
100
AcDbText
 10
16453.72382072112
 20
1118.863259287425
 30
0.0
 40
250.0
  1
外 形 図
  7
STYLE2
100
AcDbText
  0
TEXT
  5
10B74
330
747D
100
AcDbEntity
  8
文字
 62
     7
 48
50.0
100
AcDbText
 10
16501.79587498051
 20
596.5925826289068
 30
0.0
 40
200.0
  1
機種名
  7
STYLE2
100
AcDbText
  0
LINE
  5
10B7B
330
747D
100
AcDbEntity
  8
仕様書枠
 48
50.0
100
AcDbLine
 10
16384.0
 20
1000.0
 30
0.0
 11
17814.0
 21
1000.0
 31
0.0
  0
LINE
  5
10B88
330
747D
100
AcDbEntity
  8
仕様書枠
  6
Continuous
 48
50.0
100
AcDbLine
 10
17814.0
 20
1500.0
 30
0.0
 11
17814.0
 21
1000.0
 31
0.0
  0
LINE
  5
15D7D
330
747D
100
AcDbEntity
  8
Ｇ．Ｌ
 48
50.0
100
AcDbLine
 10
4234.693732604354
 20
3140.0
 30
0.0
 11
15524.30626739564
 21
3140.0
 31
0.0
  0
TEXT
  5
16C68
330
747D
100
AcDbEntity
  8
仕様書枠
 62
     7
 48
50.0
100
AcDbText
 10
4243.500522708389
 20
3170.736447636176
 30
0.0
 40
125.0
  1
▽G.L
  7
STYLE2
100
AcDbText
  0
TEXT
  5
16C77
330
747D
100
AcDbEntity
  8
部品1
100
AcDbText
 10
12816.76353994973
 20
7399.483321044049
 30
0.0
 40
225.0
  1
平面図
  7
STYLE2
100
AcDbText
  0
TEXT
  5
16C79
330
747D
100
AcDbEntity
  8
部品1
100
AcDbText
 10
12820.77113403965
 20
2207.118297897927
 30
0.0
 40
225.0
  1
正面図
  7
STYLE2
100
AcDbText
  0
LINE
  5
17269
330
747D
100
AcDbEntity
  8
部品1
100
AcDbLine
 10
12666.6040262278
 20
7709.831477053234
 30
0.0
 11
12666.6040262278
 21
7310.010941144013
 31
0.0
  0
LINE
  5
1726A
330
747D
100
AcDbEntity
  8
部品1
100
AcDbLine
 10
12666.6040262278
 20
7310.010941144013
 30
0.0
 11
13939.05513660853
 21
7310.010941144013
 31
0.0
  0
LINE
  5
1726B
330
747D
100
AcDbEntity
  8
部品1
100
AcDbLine
 10
13939.05513660853
 20
7310.010941144013
 30
0.0
 11
13939.05513660853
 21
7709.831477053234
 31
0.0
  0
LINE
  5
1726C
330
747D
100
AcDbEntity
  8
部品1
100
AcDbLine
 10
13939.05513660853
 20
7709.831477053234
 30
0.0
 11
12666.6040262278
 21
7709.831477053234
 31
0.0
  0
LINE
  5
1726E
330
747D
100
AcDbEntity
  8
部品1
100
AcDbLine
 10
12666.6040262278
 20
2526.882077830512
 30
0.0
 11
12666.6040262278
 21
2127.061541921292
 31
0.0
  0
LINE
  5
1726F
330
747D
100
AcDbEntity
  8
部品1
100
AcDbLine
 10
12666.6040262278
 20
2127.061541921292
 30
0.0
 11
13939.05513660853
 21
2127.061541921292
 31
0.0
  0
LINE
  5
17270
330
747D
100
AcDbEntity
  8
部品1
100
AcDbLine
 10
13939.05513660853
 20
2127.061541921292
 30
0.0
 11
13939.05513660853
 21
2526.882077830512
 31
0.0
  0
LINE
  5
17271
330
747D
100
AcDbEntity
  8
部品1
100
AcDbLine
 10
13939.05513660853
 20
2526.882077830512
 30
0.0
 11
12666.6040262278
 21
2526.882077830512
 31
0.0
  0
LINE
  5
1837B
330
747D
100
AcDbEntity
  8
部品1
 48
50.0
100
AcDbLine
 10
12362.82958141816
 20
11098.73679736192
 30
0.0
 11
12362.82958141816
 21
11038.73679736192
 31
0.0
  0
LINE
  5
1837C
330
747D
100
AcDbEntity
  8
部品1
 48
50.0
100
AcDbLine
 10
12372.82958141816
 20
9228.736797361928
 30
0.0
 11
12432.82958141817
 21
9228.736797361909
 31
0.0
  0
LINE
  5
1837D
330
747D
100
AcDbEntity
  8
部品1
 48
50.0
100
AcDbLine
 10
14242.82958141817
 20
9238.736797361928
 30
0.0
 11
14242.82958141817
 21
11098.73679736192
 31
0.0
  0
LINE
  5
1837E
330
747D
100
AcDbEntity
  8
部品1
 48
50.0
100
AcDbLine
 10
14232.82958141817
 20
11108.73679736192
 30
0.0
 11
12372.82958141816
 21
11108.73679736192
 31
0.0
  0
ARC
  5
1837F
330
747D
100
AcDbEntity
  8
部品1
 48
50.0
100
AcDbCircle
 10
14232.82958141817
 20
11098.73679736192
 30
0.0
 40
10.0
100
AcDbArc
 50
0.0
 51
90.0
  0
ARC
  5
18380
330
747D
100
AcDbEntity
  8
部品1
 48
50.0
100
AcDbCircle
 10
14232.82958141817
 20
9238.736797361928
 30
0.0
 40
10.0
100
AcDbArc
 50
270.0
 51
0.0
  0
ARC
  5
18381
330
747D
100
AcDbEntity
  8
部品1
 48
50.0
100
AcDbCircle
 10
12372.82958141816
 20
9238.736797361928
 30
0.0
 40
10.0
100
AcDbArc
 50
180.0
 51
270.0
  0
ARC
  5
18382
330
747D
100
AcDbEntity
  8
部品1
 48
50.0
100
AcDbCircle
 10
12372.82958141816
 20
11098.73679736192
 30
0.0
 40
10.0
100
AcDbArc
 50
90.0
 51
180.0
  0
LINE
  5
18383
330
747D
100
AcDbEntity
  8
部品1
 48
50.0
100
AcDbLine
 10
14192.82958141817
 20
11058.73679736192
 30
0.0
 11
12412.82958141817
 21
11058.73679736193
 31
0.0
  0
LINE
  5
18384
330
747D
100
AcDbEntity
  8
部品1
 48
50.0
100
AcDbLine
 10
12412.82958141817
 20
11058.73679736192
 30
0.0
 11
12412.82958141816
 21
11020.73679736192
 31
0.0
  0
LINE
  5
18385
330
747D
100
AcDbEntity
  8
部品1
 48
50.0
100
AcDbLine
 10
12412.82958141816
 20
9278.736797361927
 30
0.0
 11
12450.82958141816
 21
9278.736797361927
 31
0.0
  0
LINE
  5
18386
330
747D
100
AcDbEntity
  8
部品1
 48
50.0
100
AcDbLine
 10
14192.82958141817
 20
9278.736797361927
 30
0.0
 11
14192.82958141817
 21
11058.73679736193
 31
0.0
  0
LINE
  5
18387
330
747D
100
AcDbEntity
  8
部品1
 48
50.0
100
AcDbLine
 10
14207.82958141817
 20
11073.73679736193
 30
0.0
 11
12397.82958141816
 21
11073.73679736192
 31
0.0
  0
LINE
  5
18388
330
747D
100
AcDbEntity
  8
部品1
 48
50.0
100
AcDbLine
 10
12397.82958141816
 20
9263.736797361927
 30
0.0
 11
12450.82958141816
 21
9263.736797361927
 31
0.0
  0
LINE
  5
18389
330
747D
100
AcDbEntity
  8
部品1
 48
50.0
100
AcDbLine
 10
12397.82958141816
 20
11073.73679736192
 30
0.0
 11
12397.82958141816
 21
11020.73679736192
 31
0.0
  0
LINE
  5
1838A
330
747D
100
AcDbEntity
  8
部品1
 48
50.0
100
AcDbLine
 10
14207.82958141817
 20
9263.736797361927
 30
0.0
 11
14207.82958141817
 21
11073.73679736193
 31
0.0
  0
LINE
  5
1838B
330
747D
100
AcDbEntity
  8
部品1
 48
50.0
100
AcDbLine
 10
14172.82958141817
 20
11073.73679736193
 30
0.0
 11
14172.82958141817
 21
11108.73679736193
 31
0.0
  0
LINE
  5
1838C
330
747D
100
AcDbEntity
  8
部品1
 48
50.0
100
AcDbLine
 10
14242.82958141817
 20
11038.73679736193
 30
0.0
 11
14207.82958141817
 21
11038.73679736192
 31
0.0
  0
LINE
  5
1838D
330
747D
100
AcDbEntity
  8
部品1
 48
50.0
100
AcDbLine
 10
14154.82958141817
 20
11073.73679736193
 30
0.0
 11
14154.82958141817
 21
11058.73679736192
 31
0.0
  0
LINE
  5
1838E
330
747D
100
AcDbEntity
  8
部品1
 48
50.0
100
AcDbLine
 10
14190.82958141817
 20
11073.73679736193
 30
0.0
 11
14190.82958141817
 21
11058.73679736192
 31
0.0
  0
LINE
  5
1838F
330
747D
100
AcDbEntity
  8
部品1
 48
50.0
100
AcDbLine
 10
14207.82958141817
 20
11020.73679736192
 30
0.0
 11
14192.82958141817
 21
11020.73679736192
 31
0.0
  0
LINE
  5
18390
330
747D
100
AcDbEntity
  8
部品1
 48
50.0
100
AcDbLine
 10
14207.82958141817
 20
11056.73679736192
 30
0.0
 11
14192.82958141817
 21
11056.73679736192
 31
0.0
  0
LINE
  5
18397
330
747D
100
AcDbEntity
  8
部品1
 48
50.0
100
AcDbLine
 10
14242.82958141817
 20
10458.73679736193
 30
0.0
 11
14207.82958141817
 21
10458.73679736192
 31
0.0
  0
LINE
  5
18398
330
747D
100
AcDbEntity
  8
部品1
 48
50.0
100
AcDbLine
 10
14207.82958141817
 20
10440.73679736192
 30
0.0
 11
14192.82958141817
 21
10440.73679736192
 31
0.0
  0
LINE
  5
18399
330
747D
100
AcDbEntity
  8
部品1
 48
50.0
100
AcDbLine
 10
14207.82958141817
 20
10476.73679736192
 30
0.0
 11
14192.82958141817
 21
10476.73679736192
 31
0.0
  0
LINE
  5
1839D
330
747D
100
AcDbEntity
  8
部品1
 48
50.0
100
AcDbLine
 10
14207.82958141817
 20
9316.736797361926
 30
0.0
 11
14192.82958141817
 21
9316.736797361926
 31
0.0
  0
LINE
  5
1839E
330
747D
100
AcDbEntity
  8
部品1
 48
50.0
100
AcDbLine
 10
14207.82958141817
 20
9280.736797361926
 30
0.0
 11
14192.82958141817
 21
9280.736797361926
 31
0.0
  0
LINE
  5
1839F
330
747D
100
AcDbEntity
  8
部品1
 48
50.0
100
AcDbLine
 10
14242.82958141817
 20
9298.736797361931
 30
0.0
 11
14207.82958141817
 21
9298.736797361931
 31
0.0
  0
LINE
  5
183AF
330
747D
100
AcDbEntity
  8
部品1
 48
50.0
100
AcDbLine
 10
13610.82958141816
 20
11073.73679736223
 30
0.0
 11
13610.82958141816
 21
11058.73679736222
 31
0.0
  0
LINE
  5
183B0
330
747D
100
AcDbEntity
  8
部品1
 48
50.0
100
AcDbLine
 10
13592.82958141816
 20
11073.73679736223
 30
0.0
 11
13592.82958141817
 21
11108.73679736223
 31
0.0
  0
LINE
  5
183B1
330
747D
100
AcDbEntity
  8
部品1
 48
50.0
100
AcDbLine
 10
13574.82958141816
 20
11073.73679736223
 30
0.0
 11
13574.82958141816
 21
11058.73679736222
 31
0.0
  0
LINE
  5
183B2
330
747D
100
AcDbEntity
  8
部品1
 48
50.0
100
AcDbLine
 10
13030.82958141816
 20
11073.73679736229
 30
0.0
 11
13030.82958141816
 21
11058.73679736229
 31
0.0
  0
LINE
  5
183B3
330
747D
100
AcDbEntity
  8
部品1
 48
50.0
100
AcDbLine
 10
13012.82958141816
 20
11073.73679736229
 30
0.0
 11
13012.82958141817
 21
11108.73679736229
 31
0.0
  0
LINE
  5
183B4
330
747D
100
AcDbEntity
  8
部品1
 48
50.0
100
AcDbLine
 10
12994.82958141816
 20
11073.73679736229
 30
0.0
 11
12994.82958141816
 21
11058.73679736229
 31
0.0
  0
LINE
  5
183B5
330
747D
100
AcDbEntity
  8
部品1
 48
50.0
100
AcDbLine
 10
12450.82958141816
 20
11073.73679736192
 30
0.0
 11
12450.82958141816
 21
11058.73679736192
 31
0.0
  0
LINE
  5
183B6
330
747D
100
AcDbEntity
  8
部品1
 48
50.0
100
AcDbLine
 10
12432.82958141816
 20
11073.73679736192
 30
0.0
 11
12432.82958141817
 21
11108.73679736192
 31
0.0
  0
LINE
  5
183B7
330
747D
100
AcDbEntity
  8
部品1
 48
50.0
100
AcDbLine
 10
12414.82958141816
 20
11073.73679736192
 30
0.0
 11
12414.82958141816
 21
11058.73679736192
 31
0.0
  0
LINE
  5
183D1
330
747D
100
AcDbEntity
  8
部品1
 48
50.0
100
AcDbLine
 10
12397.82958141817
 20
10266.73679736192
 30
0.0
 11
12412.82958141817
 21
10266.73679736192
 31
0.0
  0
LINE
  5
183D2
330
747D
100
AcDbEntity
  8
部品1
 48
50.0
100
AcDbLine
 10
12397.82958141817
 20
10230.73679736192
 30
0.0
 11
12412.82958141817
 21
10230.73679736192
 31
0.0
  0
LINE
  5
183D3
330
747D
100
AcDbEntity
  8
部品1
 48
50.0
100
AcDbLine
 10
12362.82958141817
 20
10248.73679736193
 30
0.0
 11
12397.82958141817
 21
10248.73679736193
 31
0.0
  0
LINE
  5
183DD
330
747D
100
AcDbEntity
  8
部品1
 48
50.0
100
AcDbLine
 10
12397.82958141816
 20
11056.73679736192
 30
0.0
 11
12412.82958141816
 21
11056.73679736192
 31
0.0
  0
LINE
  5
183DE
330
747D
100
AcDbEntity
  8
部品1
 48
50.0
100
AcDbLine
 10
12397.82958141816
 20
11020.73679736192
 30
0.0
 11
12412.82958141816
 21
11020.73679736192
 31
0.0
  0
LINE
  5
183DF
330
747D
100
AcDbEntity
  8
部品1
 48
50.0
100
AcDbLine
 10
12362.82958141816
 20
11038.73679736193
 30
0.0
 11
12397.82958141816
 21
11038.73679736192
 31
0.0
  0
LINE
  5
183E0
330
747D
100
AcDbEntity
  8
部品1
 48
50.0
100
AcDbLine
 10
12362.82958141817
 20
9298.736797361931
 30
0.0
 11
12397.82958141817
 21
9298.736797361931
 31
0.0
  0
LINE
  5
183E1
330
747D
100
AcDbEntity
  8
部品1
 48
50.0
100
AcDbLine
 10
12397.82958141817
 20
9280.736797361926
 30
0.0
 11
12412.82958141817
 21
9280.736797361926
 31
0.0
  0
LINE
  5
183E2
330
747D
100
AcDbEntity
  8
部品1
 48
50.0
100
AcDbLine
 10
12397.82958141817
 20
9316.736797361926
 30
0.0
 11
12412.82958141817
 21
9316.736797361926
 31
0.0
  0
LINE
  5
183E3
330
747D
100
AcDbEntity
  8
部品1
 48
50.0
100
AcDbLine
 10
12414.82958141816
 20
9263.736797361932
 30
0.0
 11
12414.82958141816
 21
9278.736797361931
 31
0.0
  0
LINE
  5
183E4
330
747D
100
AcDbEntity
  8
部品1
 48
50.0
100
AcDbLine
 10
12450.82958141816
 20
9263.736797361932
 30
0.0
 11
12450.82958141816
 21
9278.736797361931
 31
0.0
  0
LINE
  5
183E5
330
747D
100
AcDbEntity
  8
部品1
 48
50.0
100
AcDbLine
 10
12432.82958141816
 20
9263.736797361932
 30
0.0
 11
12432.82958141817
 21
9228.73679736193
 31
0.0
  0
LINE
  5
183FE
330
747D
100
AcDbEntity
  8
部品1
 48
50.0
100
AcDbLine
 10
14172.82958141817
 20
9263.736797361929
 30
0.0
 11
14172.82958141817
 21
9228.736797361928
 31
0.0
  0
LINE
  5
183FF
330
747D
100
AcDbEntity
  8
部品1
 48
50.0
100
AcDbLine
 10
14154.82958141817
 20
9263.736797361929
 30
0.0
 11
14154.82958141817
 21
9278.736797361929
 31
0.0
  0
LINE
  5
18400
330
747D
100
AcDbEntity
  8
部品1
 48
50.0
100
AcDbLine
 10
14190.82958141817
 20
9263.736797361929
 30
0.0
 11
14190.82958141817
 21
9278.736797361929
 31
0.0
  0
LINE
  5
18401
330
747D
100
AcDbEntity
  8
細線
 48
50.0
100
AcDbLine
 10
14183.82958141817
 20
11049.73679736192
 30
0.0
 11
14183.82958141817
 21
9278.736797361931
 31
0.0
  0
LINE
  5
18402
330
747D
100
AcDbEntity
  8
細線
 48
50.0
100
AcDbLine
 10
14192.82958141817
 20
11049.73679736193
 30
0.0
 11
12421.82958141817
 21
11049.73679736193
 31
0.0
  0
LINE
  5
18403
330
747D
100
AcDbEntity
  8
細線
 48
50.0
100
AcDbLine
 10
12412.82958141816
 20
9287.736797361928
 30
0.0
 11
12432.82958141817
 21
9287.736797361928
 31
0.0
  0
LINE
  5
18404
330
747D
100
AcDbEntity
  8
細線
 48
50.0
100
AcDbLine
 10
12421.82958141816
 20
10230.73679736192
 30
0.0
 11
12421.82958141816
 21
9287.736797361928
 31
0.0
  0
DIMENSION
  5
1852A
330
747D
100
AcDbEntity
  8
寸法
 48
50.0
100
AcDbDimension
  2
*D5
 10
15356.96933771975
 20
11058.73679736193
 30
0.0
 11
15256.96933771975
 21
10168.73679736193
 31
0.0
 70
    32
  1
内部寸法 <>
 71
     5
 42
-1.0
  3
INABA_S50G
100
AcDbAlignedDimension
 13
15054.16533380114
 23
9278.736797361931
 33
0.0
 14
15054.16533380114
 24
11058.73679736193
 34
0.0
 50
90.0
100
AcDbRotatedDimension
1001
ACAD
1000
DSTYLE
1002
{
1002
}
  0
DIMENSION
  5
1852B
330
747D
100
AcDbEntity
  8
寸法
 48
50.0
100
AcDbDimension
  2
*D2
 10
15054.16533380114
 20
11038.73679736192
 30
0.0
 11
14954.16533380114
 21
10168.73679736193
 31
0.0
 70
    32
  1
3x580=<>
 71
     5
 42
-1.0
  3
INABA_S50G
100
AcDbAlignedDimension
 13
14242.82958141817
 23
9298.736797361931
 33
0.0
 14
14242.82958141817
 24
11038.73679736193
 34
0.0
 50
90.0
100
AcDbRotatedDimension
1001
ACAD
1000
DSTYLE
1002
{
1002
}
  0
DIMENSION
  5
1852C
330
747D
100
AcDbEntity
  8
寸法
 48
50.0
100
AcDbDimension
  2
*D4
 10
15356.96933771975
 20
9278.736797361931
 30
0.0
 11
15356.96933771975
 21
8991.689553267439
 31
0.0
 12
5779.999999999998
 22
-0.0000000000436557
 32
0.0
 70
   160
 71
     5
 42
-1.0
  3
INABA_S50G
100
AcDbAlignedDimension
 13
14232.82958141817
 23
9228.736797361928
 33
0.0
 14
15054.16533380114
 24
9278.736797361931
 34
0.0
 50
90.0
100
AcDbRotatedDimension
  0
DIMENSION
  5
1852D
330
747D
100
AcDbEntity
  8
寸法
 48
50.0
100
AcDbDimension
  2
*D1
 10
15054.16533380114
 20
9298.736797361931
 30
0.0
 11
15054.16533380114
 21
8996.177742243817
 31
0.0
 12
-2464.632845073174
 22
-373.9447183321972
 32
0.0
 70
   160
 71
     5
 42
-1.0
  3
INABA_S50G
100
AcDbAlignedDimension
 13
14232.82958141817
 23
9228.736797361928
 33
0.0
 14
14242.82958141817
 24
9298.736797361931
 34
0.0
 50
90.0
100
AcDbRotatedDimension
  0
DIMENSION
  5
1852E
330
747D
100
AcDbEntity
  8
寸法
 48
50.0
100
AcDbDimension
  2
*D6
 10
15356.96933771975
 20
11108.73679736192
 30
0.0
 11
15356.96933771975
 21
11466.29585248003
 31
0.0
 12
5779.999999999998
 22
-1160.000000000043
 32
0.0
 70
   160
 71
     5
 42
-1.0
  3
INABA_S50G
100
AcDbAlignedDimension
 13
15054.16533380114
 23
11058.73679736193
 33
0.0
 14
14232.82958141817
 24
11108.73679736192
 34
0.0
 50
90.0
100
AcDbRotatedDimension
1001
ACAD
1000
DSTYLE
1002
{
1002
}
  0
DIMENSION
  5
1852F
330
747D
100
AcDbEntity
  8
寸法
 48
50.0
100
AcDbDimension
  2
*D3
 10
15054.16533380114
 20
11108.73679736192
 30
0.0
 11
15054.16533380114
 21
11341.29585248004
 31
0.0
 12
-2464.632845073174
 22
-1533.944718332197
 32
0.0
 70
   160
 71
     5
 42
-1.0
  3
INABA_S50G
100
AcDbAlignedDimension
 13
14242.82958141817
 23
11038.73679736193
 33
0.0
 14
14232.82958141817
 24
11108.73679736192
 34
0.0
 50
90.0
100
AcDbRotatedDimension
1001
ACAD
1000
DSTYLE
1002
{
1002
}
  0
DIMENSION
  5
185AD
330
747D
100
AcDbEntity
  8
寸法
 48
50.0
100
AcDbDimension
  2
*D10
 10
12412.82958141816
 20
11817.51516613334
 30
0.0
 11
12005.27052630006
 21
11817.51516613334
 31
0.0
 12
575.3671549268256
 22
-1533.944718332197
 32
0.0
 70
   160
 71
     5
 42
-1.0
  3
INABA_S50G
100
AcDbAlignedDimension
 13
12362.82958141816
 23
11098.73679736192
 33
0.0
 14
12412.82958141816
 24
11518.76878223258
 34
0.0
100
AcDbRotatedDimension
  0
DIMENSION
  5
185AE
330
747D
100
AcDbEntity
  8
寸法
 48
50.0
100
AcDbDimension
  2
*D7
 10
12432.82958141817
 20
11518.76878223258
 30
0.0
 11
12120.27052630005
 21
11518.76878223258
 31
0.0
 12
575.3671549268256
 22
-1533.944718332197
 32
0.0
 70
   160
 71
     5
 42
-1.0
  3
INABA_S50G
100
AcDbAlignedDimension
 13
12362.82958141816
 23
11098.73679736192
 33
0.0
 14
12432.82958141817
 24
11108.73679736192
 34
0.0
100
AcDbRotatedDimension
  0
DIMENSION
  5
185AF
330
747D
100
AcDbEntity
  8
寸法
 48
50.0
100
AcDbDimension
  2
*D11
 10
14192.82958141817
 20
11817.51516613334
 30
0.0
 11
13302.82958141817
 21
11917.51516613334
 31
0.0
 70
    32
  1
内部寸法 <>
 71
     5
 42
-1.0
  3
INABA_S50G
100
AcDbAlignedDimension
 13
12412.82958141816
 23
11518.76878223258
 33
0.0
 14
14192.82958141817
 24
11518.76878223258
 34
0.0
100
AcDbRotatedDimension
1001
ACAD
1000
DSTYLE
1002
{
1070
   287
1070
     4
1070
    75
1070
     1
1070
   279
1070
     1
1002
}
  0
DIMENSION
  5
185B1
330
747D
100
AcDbEntity
  8
寸法
 48
50.0
100
AcDbDimension
  2
*D8
 10
14172.82958141817
 20
11518.76878223258
 30
0.0
 11
13302.82958141817
 21
11618.76878223258
 31
0.0
 70
    32
  1
3x580=<>
 71
     5
 42
-1.0
  3
INABA_S50G
100
AcDbAlignedDimension
 13
12432.82958141817
 23
11108.73679736192
 33
0.0
 14
14172.82958141817
 24
11108.73679736193
 34
0.0
100
AcDbRotatedDimension
1001
ACAD
1000
DSTYLE
1002
{
1070
   287
1070
     4
1070
    75
1070
     1
1070
   279
1070
     1
1002
}
  0
DIMENSION
  5
185B3
330
747D
100
AcDbEntity
  8
寸法
 48
50.0
100
AcDbDimension
  2
*D12
 10
14242.82958141817
 20
11817.51516613334
 30
0.0
 11
14600.38863653628
 21
11817.51516613334
 31
0.0
 12
-2464.632845073174
 22
-1533.944718332197
 32
0.0
 70
   160
 71
     5
 42
-1.0
  3
INABA_S50G
100
AcDbAlignedDimension
 13
14192.82958141817
 23
11518.76878223258
 33
0.0
 14
14242.82958141817
 24
11098.73679736192
 34
0.0
100
AcDbRotatedDimension
1001
ACAD
1000
DSTYLE
1002
{
1002
}
  0
DIMENSION
  5
185B4
330
747D
100
AcDbEntity
  8
寸法
 48
50.0
100
AcDbDimension
  2
*D9
 10
14242.82958141817
 20
11518.76878223258
 30
0.0
 11
14505.38863653628
 21
11518.76878223258
 31
0.0
 12
-2464.632845073174
 22
-1533.944718332197
 32
0.0
 70
   160
 71
     5
 42
-1.0
  3
INABA_S50G
100
AcDbAlignedDimension
 13
14172.82958141817
 23
11108.73679736193
 33
0.0
 14
14242.82958141817
 24
11098.73679736192
 34
0.0
100
AcDbRotatedDimension
1001
ACAD
1000
DSTYLE
1002
{
1002
}
  0
DIMENSION
  5
1868C
330
747D
100
AcDbEntity
  8
寸法
 48
50.0
100
AcDbDimension
  2
*D13
 10
14242.82958141817
 20
8436.498920305798
 30
0.0
 11
13302.82958141817
 21
8536.498920305797
 31
0.0
 70
    32
 71
     5
 42
-1.0
  3
INABA_S50G
100
AcDbAlignedDimension
 13
12362.82958141816
 23
9238.736797361928
 33
0.0
 14
14242.82958141817
 24
9238.736797361928
 34
0.0
100
AcDbRotatedDimension
  0
DIMENSION
  5
186AF
330
747D
100
AcDbEntity
  8
寸法
 48
50.0
100
AcDbDimension
  2
*D14
 10
11596.1986016385
 20
9228.736797361928
 30
0.0
 11
11496.1986016385
 21
10168.73679736193
 31
0.0
 70
    32
 71
     5
 42
-1.0
  3
INABA_S50G
100
AcDbAlignedDimension
 13
12372.82958141816
 23
11108.73679736192
 33
0.0
 14
12372.82958141816
 24
9228.736797361928
 34
0.0
 50
90.0
100
AcDbRotatedDimension
  0
LINE
  5
186ED
330
747D
100
AcDbEntity
  8
部品1
 48
50.0
100
AcDbLine
 10
14172.82958141816
 20
9228.736797361928
 30
0.0
 11
14232.82958141817
 21
9228.73679736193
 31
0.0
  0
LINE
  5
186EE
330
747D
100
AcDbEntity
  8
部品1
 48
50.0
100
AcDbLine
 10
14154.82958141816
 20
9263.736797361927
 30
0.0
 11
14207.82958141817
 21
9263.736797361929
 31
0.0
  0
LINE
  5
186EF
330
747D
100
AcDbEntity
  8
部品1
 48
50.0
100
AcDbLine
 10
14154.82958141816
 20
9278.736797361927
 30
0.0
 11
14192.82958141817
 21
9278.736797361927
 31
0.0
  0
LINE
  5
186FE
330
747D
100
AcDbEntity
  8
細線
 48
50.0
100
AcDbLine
 10
14172.82958141816
 20
9287.736797361928
 30
0.0
 11
14183.82958141817
 21
9287.736797361928
 31
0.0
  0
TEXT
  5
1A95B
330
747D
100
AcDbEntity
  8
文字
 62
     7
 48
50.0
100
AcDbText
 10
17902.30092041603
 20
604.8708912389265
 30
0.0
 40
200.0
  1
ＳＭＫ－３６ＳＧＭ
  7
STYLE2
100
AcDbText
  0
TEXT
  5
1A95C
330
747D
100
AcDbEntity
  8
文字
 62
     7
 48
50.0
100
AcDbText
 10
18386.04187925632
 20
1047.815908841148
 30
0.0
 40
125.0
  1
～一般型･多雪地型～
  7
STYLE2
100
AcDbText
  0
TEXT
  5
1A95D
330
747D
100
AcDbEntity
  8
文字
 62
     7
 48
50.0
100
AcDbText
 10
18155.16479652749
 20
1289.447132864035
 30
0.0
 40
125.0
  1
NO.19     <縮尺> S=1/50
  7
STYLE2
100
AcDbText
  0
TEXT
  5
1A95E
330
747D
100
AcDbEntity
  8
文字
 62
     7
 48
50.0
100
AcDbText
 10
16511.7566802715
 20
270.5931259273529
 30
0.0
 40
100.0
  1
○ドア部有効開口寸法：677×1760 (mm)
  7
STYLE2
100
AcDbText
  0
TEXT
  5
1A95F
330
747D
100
AcDbEntity
  8
文字
 62
     7
 48
50.0
100
AcDbText
 10
16511.7566802715
 20
99.75789836616968
 30
0.0
 40
100.0
  1
○床面積：3.53㎡(1.07坪)
  7
STYLE2
100
AcDbText
  0
DIMENSION
  5
1AE97
330
747D
100
AcDbEntity
  8
寸法
 48
50.0
100
AcDbDimension
  2
*D15
 10
14142.82958141817
 20
2612.358857715287
 30
0.0
 11
13855.865998741
 21
2612.358857715287
 31
0.0
 12
14069.03064088944
 22
1439.471773623114
 32
0.0
 70
   160
 71
     5
 42
-1.0
  3
INABA_S50G
100
AcDbAlignedDimension
 13
14342.82958141817
 23
2939.999999999955
 33
0.0
 14
14142.82958141817
 24
2939.999999999955
 34
0.0
100
AcDbRotatedDimension
  0
LINE
  5
1AEA2
330
747D
100
AcDbEntity
  8
部品1
100
AcDbLine
 10
14273.51364187628
 20
5410.000001569515
 30
0.0
 11
12332.14551659023
 21
5410.000001569525
 31
0.0
  0
LINE
  5
1AEA3
330
747D
100
AcDbEntity
  8
細線
100
AcDbLine
 10
14291.3247257556
 20
5431.045828186454
 30
0.0
 11
12314.33443271091
 21
5431.045828186461
 31
0.0
  0
LINE
  5
1AEA4
330
747D
100
AcDbEntity
  8
部品1
100
AcDbLine
 10
14268.39741695869
 20
5545.000000008402
 30
0.0
 11
12337.26174179908
 21
5545.000000008424
 31
0.0
  0
LINE
  5
1AEA5
330
747D
100
AcDbEntity
  8
細線
100
AcDbLine
 10
14282.32958141817
 20
5524.500002624767
 30
0.0
 11
12325.42971296713
 21
5524.500002624774
 31
0.0
  0
DIMENSION
  5
1AEA6
330
747D
100
AcDbEntity
  8
寸法
 48
50.0
100
AcDbDimension
  2
*D16
 10
14297.82958141817
 20
6506.068854554502
 30
0.0
 11
13012.82957923326
 21
6606.068854554502
 31
0.0
 12
6359.999999999998
 22
-0.0000000000436557
 32
0.0
 70
    32
 71
     5
 42
-1.0
  3
INABA_S50G
100
AcDbAlignedDimension
 13
12307.82957704834
 23
5509.000002624765
 33
0.0
 14
14297.82958141817
 24
5509.000002624765
 34
0.0
100
AcDbRotatedDimension
  0
DIMENSION
  5
1AEA7
330
747D
100
AcDbEntity
  8
寸法
 48
50.0
100
AcDbDimension
  2
*D17
 10
14242.82958141817
 20
6238.281130716478
 30
0.0
 11
13302.82958141817
 21
6338.281130716477
 31
0.0
 70
    32
  1
柱外寸法 <>
 71
     5
 42
-1.0
  3
INABA_S50G
100
AcDbAlignedDimension
 13
12362.82958141817
 23
5545.000000008424
 33
0.0
 14
14242.82958141817
 24
5545.000000008403
 34
0.0
100
AcDbRotatedDimension
1001
ACAD
1000
DSTYLE
1002
{
1070
   287
1070
     4
1070
    75
1070
     1
1070
   279
1070
     1
1002
}
  0
LINE
  5
1AEAF
330
747D
100
AcDbEntity
  8
部品1
 48
50.0
100
AcDbLine
 10
14242.82958141817
 20
5274.999999999956
 30
0.0
 11
12362.82958141817
 21
5274.999999999956
 31
0.0
  0
LINE
  5
1AEB0
330
747D
100
AcDbEntity
  8
部品1
 48
50.0
100
AcDbLine
 10
12362.82958141817
 20
3274.999999999956
 30
0.0
 11
14242.82958141817
 21
3274.999999999956
 31
0.0
  0
LINE
  5
1AEB4
330
747D
100
AcDbEntity
  8
部品1
 48
50.0
100
AcDbLine
 10
12432.82958141817
 20
5274.999999999956
 30
0.0
 11
12432.82958141817
 21
3274.999999999956
 31
0.0
  0
LINE
  5
1AEB5
330
747D
100
AcDbEntity
  8
部品1
 48
50.0
100
AcDbLine
 10
12362.82958141817
 20
5410.000001569525
 30
0.0
 11
12362.82958141817
 21
3139.999999999956
 31
0.0
  0
LINE
  5
1AEB8
330
747D
100
AcDbEntity
  8
破線
 48
5.0
100
AcDbLine
 10
12262.82958141817
 20
3139.999999999956
 30
0.0
 11
12262.82958141817
 21
2939.999999999955
 31
0.0
  0
LINE
  5
1AEB9
330
747D
100
AcDbEntity
  8
破線
 48
5.0
100
AcDbLine
 10
12462.82958141817
 20
3139.999999999956
 30
0.0
 11
12462.82958141817
 21
2939.999999999955
 31
0.0
  0
LINE
  5
1AEBA
330
747D
100
AcDbEntity
  8
破線
 48
5.0
100
AcDbLine
 10
12357.82958141817
 20
3139.999999999956
 30
0.0
 11
12357.82958141817
 21
3029.999999999956
 31
0.0
  0
LINE
  5
1AEBB
330
747D
100
AcDbEntity
  8
破線
 48
5.0
100
AcDbLine
 10
12262.82958141817
 20
2939.999999999955
 30
0.0
 11
12462.82958141817
 21
2939.999999999955
 31
0.0
  0
LINE
  5
1AEBC
330
747D
100
AcDbEntity
  8
破線
 48
5.0
100
AcDbLine
 10
12337.82958141817
 20
3029.999999999956
 30
0.0
 11
12357.82958141817
 21
3029.999999999956
 31
0.0
  0
LINE
  5
1AEBD
330
747D
100
AcDbEntity
  8
部品1
100
AcDbLine
 10
12357.82958141817
 20
3314.999999999956
 30
0.0
 11
12357.82958141817
 21
3139.999999999956
 31
0.0
  0
LINE
  5
1AEBF
330
747D
100
AcDbEntity
  8
部品1
 48
50.0
100
AcDbLine
 10
12762.82958141817
 20
3274.999999999956
 30
0.0
 11
12762.82958141817
 21
3139.999999999956
 31
0.0
  0
LINE
  5
1AEC1
330
747D
100
AcDbEntity
  8
部品1
 48
50.0
100
AcDbLine
 10
13202.82958141817
 20
3274.999999999956
 30
0.0
 11
13202.82958141817
 21
3139.999999999956
 31
0.0
  0
LINE
  5
1AEC2
330
747D
100
AcDbEntity
  8
部品1
 48
50.0
100
AcDbLine
 10
13402.82958141817
 20
3274.999999999956
 30
0.0
 11
13402.82958141817
 21
3139.999999999956
 31
0.0
  0
DIMENSION
  5
1AEE4
330
747D
100
AcDbEntity
  8
寸法
 48
50.0
100
AcDbDimension
  2
*D18
 10
12362.82958141817
 20
6238.281130716478
 30
0.0
 11
11982.77052630006
 21
6238.281130716478
 31
0.0
 12
14649.03064088944
 22
1269.471773623114
 32
0.0
 70
   160
 71
     5
 42
-1.0
  3
INABA_S50G
100
AcDbAlignedDimension
 13
12307.82957704834
 23
5509.000002624765
 33
0.0
 14
12362.82958141817
 24
5545.000000008424
 34
0.0
100
AcDbRotatedDimension
  0
LINE
  5
1AEE5
330
747D
100
AcDbEntity
  8
細線
 48
50.0
100
AcDbLine
 10
12345.82958170943
 20
5410.000001569515
 30
0.0
 11
12345.82958170943
 21
5544.999999999956
 31
0.0
  0
ARC
  5
1AEE6
330
747D
100
AcDbEntity
  8
部品1
100
AcDbCircle
 10
12323.32957704834
 20
5509.000002624765
 30
0.0
 40
15.5
100
AcDbArc
 50
90.00000000000033
 51
183.979378091838
  0
LINE
  5
1AEE7
330
747D
100
AcDbEntity
  8
部品1
100
AcDbLine
 10
12307.86694611599
 20
5507.924342525087
 30
0.0
 11
12313.13732580002
 21
5432.162551275509
 31
0.0
  0
ARC
  5
1AEE8
330
747D
100
AcDbEntity
  8
部品1
100
AcDbCircle
 10
12314.33443271091
 20
5432.245828186451
 30
0.0
 40
1.199999999999999
100
AcDbArc
 50
183.979378091838
 51
270.0000000000002
  0
ARC
  5
1AEE9
330
747D
100
AcDbEntity
  8
部品1
100
AcDbCircle
 10
12313.8882537151
 20
5428.572828826077
 30
0.0
 40
2.5
100
AcDbArc
 50
3.979378091802891
 51
83.07390809407314
  0
LINE
  5
1AEEA
330
747D
100
AcDbEntity
  8
部品1
100
AcDbLine
 10
12316.38222644612
 20
5428.74632239054
 30
0.0
 11
12316.68288565789
 21
5424.424341469837
 31
0.0
  0
ARC
  5
1AEEB
330
747D
100
AcDbEntity
  8
部品1
100
AcDbCircle
 10
12332.14551659023
 20
5425.500001569517
 30
0.0
 40
15.5
100
AcDbArc
 50
183.9793780918396
 51
270.0
  0
LINE
  5
1AEEC
330
747D
100
AcDbEntity
  8
部品1
 48
50.0
100
AcDbLine
 10
12323.32957704834
 20
5524.500002624765
 30
0.0
 11
12325.42971296713
 21
5524.500002624774
 31
0.0
  0
LINE
  5
1AEED
330
747D
100
AcDbEntity
  8
部品1
100
AcDbLine
 10
12326.8155322222
 20
5525.425977370744
 30
0.0
 11
12334.02840639604
 21
5542.839392276238
 31
0.0
  0
ARC
  5
1AEEE
330
747D
100
AcDbEntity
  8
部品1
100
AcDbCircle
 10
12325.42971296713
 20
5526.000002624767
 30
0.0
 40
1.5
100
AcDbArc
 50
270.0000000000002
 51
337.4999956391484
  0
ARC
  5
1AEEF
330
747D
100
AcDbEntity
  8
部品1
100
AcDbCircle
 10
12337.26198465789
 20
5541.500000016849
 30
0.0
 40
3.5
100
AcDbArc
 50
90.0
 51
157.4999956391549
  0
LINE
  5
1AEF0
330
747D
100
AcDbEntity
  8
細線
 48
50.0
100
AcDbLine
 10
13438.82958141817
 20
5405.500036981794
 30
0.0
 11
13166.82958141817
 21
5405.500036981794
 31
0.0
  0
LINE
  5
1AEF1
330
747D
100
AcDbEntity
  8
細線
 48
50.0
100
AcDbLine
 10
13181.82958141817
 20
5330.500036981794
 30
0.0
 11
13423.82958141817
 21
5330.500036981794
 31
0.0
  0
LINE
  5
1AEF2
330
747D
100
AcDbEntity
  8
細線
 48
50.0
100
AcDbLine
 10
13181.82958141817
 20
5345.499999999956
 30
0.0
 11
13423.82958141817
 21
5345.499999999956
 31
0.0
  0
LINE
  5
1AEF3
330
747D
100
AcDbEntity
  8
細線
 48
50.0
100
AcDbLine
 10
13181.82958141817
 20
5360.500036981793
 30
0.0
 11
13423.82958141817
 21
5360.500036981793
 31
0.0
  0
LINE
  5
1AEF4
330
747D
100
AcDbEntity
  8
細線
 48
50.0
100
AcDbLine
 10
13181.82958141817
 20
5390.499999999956
 30
0.0
 11
13423.82958141817
 21
5390.499999999954
 31
0.0
  0
LINE
  5
1AEF5
330
747D
100
AcDbEntity
  8
細線
 48
50.0
100
AcDbLine
 10
13181.82958141817
 20
5375.499999999956
 30
0.0
 11
13423.82958141817
 21
5375.499999999956
 31
0.0
  0
LINE
  5
1AEF6
330
747D
100
AcDbEntity
  8
細線
 48
50.0
100
AcDbLine
 10
13438.82958141817
 20
5308.499999999956
 30
0.0
 11
13166.82958141817
 21
5308.499999999956
 31
0.0
  0
LINE
  5
1AEF7
330
747D
100
AcDbEntity
  8
細線
 48
50.0
100
AcDbLine
 10
13423.82958141817
 20
5319.499999999957
 30
0.0
 11
13181.82958141817
 21
5319.499999999957
 31
0.0
  0
ARC
  5
1AEF8
330
747D
100
AcDbEntity
  8
細線
 48
50.0
100
AcDbCircle
 10
13166.82958141817
 20
5318.499999999956
 30
0.0
 40
10.0
100
AcDbArc
 50
180.0
 51
270.0
  0
LINE
  5
1AEF9
330
747D
100
AcDbEntity
  8
細線
 48
50.0
100
AcDbLine
 10
13181.82958141817
 20
5308.499999999956
 30
0.0
 11
13181.82958141817
 21
5308.999999999956
 31
0.0
  0
ARC
  5
1AEFA
330
747D
100
AcDbEntity
  8
細線
 48
50.0
100
AcDbCircle
 10
13166.82958141817
 20
5395.500036981793
 30
0.0
 40
10.0
100
AcDbArc
 50
90.0
 51
180.0
  0
LINE
  5
1AEFB
330
747D
100
AcDbEntity
  8
細線
 48
50.0
100
AcDbLine
 10
13181.82958141817
 20
5405.500036981794
 30
0.0
 11
13181.82958141817
 21
5308.499999999956
 31
0.0
  0
LINE
  5
1AEFC
330
747D
100
AcDbEntity
  8
細線
 48
50.0
100
AcDbLine
 10
13156.82958141817
 20
5395.500036981793
 30
0.0
 11
13156.82958141817
 21
5318.499999999956
 31
0.0
  0
LINE
  5
1AEFD
330
747D
100
AcDbEntity
  8
部品1
 48
50.0
100
AcDbLine
 10
14172.82958141817
 20
5274.999999999956
 30
0.0
 11
14172.82958141817
 21
3274.999999999956
 31
0.0
  0
LINE
  5
1AEFE
330
747D
100
AcDbEntity
  8
細線
 48
50.0
100
AcDbLine
 10
13262.82958141817
 20
5319.499999999957
 30
0.0
 11
13262.82958141817
 21
5390.499999999956
 31
0.0
  0
LINE
  5
1AEFF
330
747D
100
AcDbEntity
  8
細線
 48
50.0
100
AcDbLine
 10
13342.82958141817
 20
5319.499999999957
 30
0.0
 11
13342.82958141817
 21
5390.499999999956
 31
0.0
  0
ARC
  5
1AF00
330
747D
100
AcDbEntity
  8
細線
 48
50.0
100
AcDbCircle
 10
13438.82958141817
 20
5318.499999999956
 30
0.0
 40
10.0
100
AcDbArc
 50
270.0
 51
359.9999999999998
  0
LINE
  5
1AF01
330
747D
100
AcDbEntity
  8
細線
 48
50.0
100
AcDbLine
 10
13423.82958141817
 20
5308.499999999956
 30
0.0
 11
13423.82958141817
 21
5308.999999999956
 31
0.0
  0
ARC
  5
1AF02
330
747D
100
AcDbEntity
  8
細線
 48
50.0
100
AcDbCircle
 10
13438.82958141817
 20
5395.500036981793
 30
0.0
 40
10.0
100
AcDbArc
 50
359.9999999999998
 51
90.0
  0
LINE
  5
1AF03
330
747D
100
AcDbEntity
  8
細線
 48
50.0
100
AcDbLine
 10
13423.82958141817
 20
5405.500036981794
 30
0.0
 11
13423.82958141817
 21
5308.499999999956
 31
0.0
  0
LINE
  5
1AF04
330
747D
100
AcDbEntity
  8
細線
 48
50.0
100
AcDbLine
 10
13448.82958141817
 20
5395.500036981793
 30
0.0
 11
13448.82958141817
 21
5318.499999999956
 31
0.0
  0
LINE
  5
1AF0F
330
747D
100
AcDbEntity
  8
部品1
 48
50.0
100
AcDbLine
 10
14242.82958141817
 20
5410.000001569515
 30
0.0
 11
14242.82958141817
 21
3139.999999999956
 31
0.0
  0
LINE
  5
1AF11
330
747D
100
AcDbEntity
  8
部品1
 48
50.0
100
AcDbLine
 10
13842.82958141817
 20
3274.999999999956
 30
0.0
 11
13842.82958141817
 21
3139.999999999956
 31
0.0
  0
LINE
  5
1AF12
330
747D
100
AcDbEntity
  8
破線
 48
5.0
100
AcDbLine
 10
14247.82958141817
 20
3139.999999999956
 30
0.0
 11
14247.82958141817
 21
3029.999999999956
 31
0.0
  0
LINE
  5
1AF13
330
747D
100
AcDbEntity
  8
破線
 48
5.0
100
AcDbLine
 10
14142.82958141817
 20
3139.999999999956
 30
0.0
 11
14142.82958141817
 21
2939.999999999955
 31
0.0
  0
LINE
  5
1AF14
330
747D
100
AcDbEntity
  8
破線
 48
5.0
100
AcDbLine
 10
14342.82958141817
 20
3139.999999999956
 30
0.0
 11
14342.82958141817
 21
2939.999999999955
 31
0.0
  0
LINE
  5
1AF15
330
747D
100
AcDbEntity
  8
破線
 48
5.0
100
AcDbLine
 10
14342.82958141817
 20
2939.999999999955
 30
0.0
 11
14142.82958141817
 21
2939.999999999955
 31
0.0
  0
LINE
  5
1AF16
330
747D
100
AcDbEntity
  8
破線
 48
5.0
100
AcDbLine
 10
14267.82958141817
 20
3029.999999999956
 30
0.0
 11
14247.82958141817
 21
3029.999999999956
 31
0.0
  0
LINE
  5
1AF19
330
747D
100
AcDbEntity
  8
部品1
100
AcDbLine
 10
14247.82958141817
 20
3314.999999999956
 30
0.0
 11
14247.82958141817
 21
3139.999999999956
 31
0.0
  0
DIMENSION
  5
1AF1A
330
747D
100
AcDbEntity
  8
寸法
 48
50.0
100
AcDbDimension
  2
*D19
 10
14297.82958141817
 20
6238.281130716478
 30
0.0
 11
14612.88863653628
 21
6238.281130716478
 31
0.0
 12
14069.03064088944
 22
1269.471773623114
 32
0.0
 70
   160
 71
     5
 42
-1.0
  3
INABA_S50G
100
AcDbAlignedDimension
 13
14242.82958141817
 23
5545.000000008402
 33
0.0
 14
14297.82958141817
 24
5509.000002624765
 34
0.0
100
AcDbRotatedDimension
1001
ACAD
1000
DSTYLE
1002
{
1002
}
  0
LINE
  5
1AF1B
330
747D
100
AcDbEntity
  8
細線
 48
50.0
100
AcDbLine
 10
14259.82957704834
 20
5410.000001569515
 30
0.0
 11
14259.82957704834
 21
5544.999999999956
 31
0.0
  0
ARC
  5
1AF1C
330
747D
100
AcDbEntity
  8
部品1
100
AcDbCircle
 10
14282.32958141817
 20
5509.000002624765
 30
0.0
 40
15.5
100
AcDbArc
 50
356.0206219081619
 51
89.99999999999968
  0
LINE
  5
1AF24
330
747D
100
AcDbEntity
  8
部品1
100
AcDbLine
 10
14297.79221235052
 20
5507.924342525087
 30
0.0
 11
14292.5218326665
 21
5432.162551275509
 31
0.0
  0
ARC
  5
1AF25
330
747D
100
AcDbEntity
  8
部品1
100
AcDbCircle
 10
14291.77090475142
 20
5428.572828826077
 30
0.0
 40
2.5
100
AcDbArc
 50
96.92609190592689
 51
176.0206219081971
  0
ARC
  5
1AF26
330
747D
100
AcDbEntity
  8
部品1
100
AcDbCircle
 10
14291.3247257556
 20
5432.245828186451
 30
0.0
 40
1.199999999999999
100
AcDbArc
 50
269.9999999999997
 51
356.0206219081619
  0
ARC
  5
1AF27
330
747D
100
AcDbEntity
  8
部品1
100
AcDbCircle
 10
14273.51364187628
 20
5425.500001569517
 30
0.0
 40
15.5
100
AcDbArc
 50
270.0
 51
356.0206219081603
  0
LINE
  5
1AF28
330
747D
100
AcDbEntity
  8
部品1
100
AcDbLine
 10
14289.27693202039
 20
5428.74632239054
 30
0.0
 11
14288.97627280863
 21
5424.424341469837
 31
0.0
  0
ARC
  5
1AF29
330
747D
100
AcDbEntity
  8
部品1
100
AcDbCircle
 10
14280.22944549938
 20
5526.000002624767
 30
0.0
 40
1.5
100
AcDbArc
 50
202.5000043608516
 51
269.9999999999997
  0
ARC
  5
1AF2A
330
747D
100
AcDbEntity
  8
部品1
100
AcDbCircle
 10
14268.39717380862
 20
5541.500000016849
 30
0.0
 40
3.5
100
AcDbArc
 50
22.50000436084501
 51
90.0
  0
LINE
  5
1AF2B
330
747D
100
AcDbEntity
  8
部品1
100
AcDbLine
 10
14278.84362624431
 20
5525.425977370744
 30
0.0
 11
14271.63075207047
 21
5542.839392276238
 31
0.0
  0
LINE
  5
1B230
330
747D
100
AcDbEntity
  8
細線
 48
50.0
100
AcDbLine
 10
13015.32958141816
 20
9292.236797361928
 30
0.0
 11
13015.32958141816
 21
11049.73679736193
 31
0.0
  0
LINE
  5
1B231
330
747D
100
AcDbEntity
  8
細線
 48
50.0
100
AcDbLine
 10
13595.32958141816
 20
9287.736797361928
 30
0.0
 11
13595.32958141816
 21
11049.73679736193
 31
0.0
  0
LINE
  5
1BF3F
330
747D
100
AcDbEntity
  8
部品1
100
AcDbLine
 10
6016.604026227807
 20
2526.882077830556
 30
0.0
 11
7289.05513660854
 21
2526.882077830556
 31
0.0
  0
LINE
  5
1BF40
330
747D
100
AcDbEntity
  8
部品1
100
AcDbLine
 10
7289.05513660854
 20
2127.061541921335
 30
0.0
 11
6016.604026227807
 21
2127.061541921335
 31
0.0
  0
LINE
  5
1BF42
330
747D
100
AcDbEntity
  8
部品1
100
AcDbLine
 10
7289.05513660854
 20
2526.882077830556
 30
0.0
 11
7289.05513660854
 21
2127.061541921335
 31
0.0
  0
LINE
  5
1BF43
330
747D
100
AcDbEntity
  8
部品1
100
AcDbLine
 10
6016.604026227807
 20
2127.061541921335
 30
0.0
 11
6016.604026227807
 21
2526.882077830556
 31
0.0
  0
TEXT
  5
1C108
330
747D
100
AcDbEntity
  8
部品1
100
AcDbText
 10
6158.260621706904
 20
2217.126724790948
 30
0.0
 40
225.0
  1
側面図
  7
STYLE2
100
AcDbText
  0
INSERT
  5
1C109
330
747D
100
AcDbEntity
  8
寸法
 48
50.0
100
AcDbBlockReference
  2
A$C019569EB
 10
7687.206986333153
 20
5396.540160476436
 30
0.0
 50
1.423961033388455
  0
LINE
  5
1C10C
330
747D
100
AcDbEntity
  8
部品1
 48
50.0
100
AcDbLine
 10
12432.82958141817
 20
3329.999999999956
 30
0.0
 11
14172.82958141816
 21
3329.999999999956
 31
0.0
  0
LINE
  5
1C12E
330
747D
100
AcDbEntity
  8
部品1
 48
50.0
100
AcDbLine
 10
12362.82958141816
 20
10248.73679736193
 30
0.0
 11
12362.82958141816
 21
9238.736797361928
 31
0.0
  0
LINE
  5
1C12F
330
747D
100
AcDbEntity
  8
部品1
 48
50.0
100
AcDbLine
 10
12397.82958141816
 20
10266.73679736192
 30
0.0
 11
12397.82958141816
 21
9263.736797361927
 31
0.0
  0
LINE
  5
1C130
330
747D
100
AcDbEntity
  8
部品1
 48
50.0
100
AcDbLine
 10
12412.82958141816
 20
10266.73679736192
 30
0.0
 11
12412.82958141816
 21
9278.736797361927
 31
0.0
  0
LINE
  5
1C14E
330
747D
100
AcDbEntity
  8
部品1
 62
     2
 48
50.0
100
AcDbLine
 10
12312.82958141817
 20
3274.999999999956
 30
0.0
 11
12312.82958141817
 21
5163.999999999957
 31
0.0
  0
LINE
  5
1C14F
330
747D
100
AcDbEntity
  8
部品1
 62
     2
 48
50.0
100
AcDbLine
 10
12312.82958141817
 20
5163.999999999957
 30
0.0
 11
12362.82958141816
 21
5169.999999999956
 31
0.0
  0
DIMENSION
  5
1C150
330
747D
100
AcDbEntity
  8
寸法
 48
50.0
100
AcDbDimension
  2
*D22
 10
12312.82958141817
 20
2840.691229236341
 30
0.0
 11
12080.27052630006
 21
2840.691229236341
 31
0.0
 12
-4809.274534157644
 22
-13036.23332302183
 32
0.0
 70
   160
 71
     5
 42
-1.0
  3
INABA_S50G
100
AcDbAlignedDimension
 13
12362.82958141817
 23
3139.999999999956
 33
0.0
 14
12312.82958141817
 24
3274.999999999956
 34
0.0
100
AcDbRotatedDimension
  0
LINE
  5
1C151
330
747D
100
AcDbEntity
  8
部品1
 62
     2
 48
50.0
100
AcDbLine
 10
12362.82958141817
 20
3274.999999999956
 30
0.0
 11
12312.82958141817
 21
3274.999999999956
 31
0.0
  0
LINE
  5
1C152
330
747D
100
AcDbEntity
  8
部品1
 62
     2
 48
50.0
100
AcDbLine
 10
13314.82958141817
 20
5082.499999999956
 30
0.0
 11
13314.82958141817
 21
4102.999999999957
 31
0.0
  0
LINE
  5
1C153
330
747D
100
AcDbEntity
  8
部品1
 62
     2
 48
50.0
100
AcDbLine
 10
14113.82958141817
 20
5082.499999999956
 30
0.0
 11
14113.82958141816
 21
4102.999999999957
 31
0.0
  0
LINE
  5
1C154
330
747D
100
AcDbEntity
  8
部品1
 62
     2
 48
50.0
100
AcDbLine
 10
14140.82958141817
 20
5082.499999999956
 30
0.0
 11
14140.82958141817
 21
4059.999999999956
 31
0.0
  0
LINE
  5
1C155
330
747D
100
AcDbEntity
  8
部品1
 62
     2
 48
50.0
100
AcDbLine
 10
13314.82958141817
 20
4145.999999999957
 30
0.0
 11
14113.82958141816
 21
4145.999999999957
 31
0.0
  0
LINE
  5
1C156
330
747D
100
AcDbEntity
  8
部品1
 62
     2
 48
50.0
100
AcDbLine
 10
13290.82958141817
 20
4102.999999999957
 30
0.0
 11
14140.82958141817
 21
4102.999999999957
 31
0.0
  0
LINE
  5
1C157
330
747D
100
AcDbEntity
  8
部品1
 62
     2
 48
50.0
100
AcDbLine
 10
12464.82958141817
 20
4091.999999999956
 30
0.0
 11
14140.82958141817
 21
4091.999999999956
 31
0.0
  0
LINE
  5
1C158
330
747D
100
AcDbEntity
  8
部品1
 62
     2
 48
50.0
100
AcDbLine
 10
12432.82958141817
 20
4059.999999999956
 30
0.0
 11
14172.82958141817
 21
4059.999999999956
 31
0.0
  0
LINE
  5
1C159
330
747D
100
AcDbEntity
  8
部品1
 62
     2
 48
50.0
100
AcDbLine
 10
13314.82958141817
 20
5052.499999999956
 30
0.0
 11
14113.82958141817
 21
5052.499999999956
 31
0.0
  0
LINE
  5
1C15A
330
747D
100
AcDbEntity
  8
部品1
 62
     2
 48
50.0
100
AcDbLine
 10
12432.82958141817
 20
5082.499999999956
 30
0.0
 11
14172.82958141817
 21
5082.499999999956
 31
0.0
  0
LINE
  5
1C15B
330
747D
100
AcDbEntity
  8
部品1
 62
     2
 48
50.0
100
AcDbLine
 10
12432.82958141817
 20
5129.999999999956
 30
0.0
 11
14172.82958141817
 21
5129.999999999956
 31
0.0
  0
LINE
  5
1C15C
330
747D
100
AcDbEntity
  8
部品1
 62
     2
 48
50.0
100
AcDbLine
 10
12432.82958141817
 20
5111.999999999956
 30
0.0
 11
14172.82958141817
 21
5111.999999999956
 31
0.0
  0
LINE
  5
1C15D
330
747D
100
AcDbEntity
  8
部品1
 62
     2
 48
50.0
100
AcDbLine
 10
13290.82958141817
 20
5082.499999999956
 30
0.0
 11
13290.82958141817
 21
4102.999999999957
 31
0.0
  0
LINE
  5
1C15E
330
747D
100
AcDbEntity
  8
部品1
 62
     2
 48
50.0
100
AcDbLine
 10
12491.82958141817
 20
5082.499999999956
 30
0.0
 11
12491.82958141817
 21
4111.999999999956
 31
0.0
  0
LINE
  5
1C15F
330
747D
100
AcDbEntity
  8
部品1
 62
     2
 48
50.0
100
AcDbLine
 10
12464.82958141817
 20
5082.499999999956
 30
0.0
 11
12464.82958141817
 21
4059.999999999956
 31
0.0
  0
LINE
  5
1C160
330
747D
100
AcDbEntity
  8
部品1
 62
     2
 48
50.0
100
AcDbLine
 10
12491.82958141817
 20
5052.499999999956
 30
0.0
 11
13290.82958141817
 21
5052.499999999956
 31
0.0
  0
LINE
  5
1C161
330
747D
100
AcDbEntity
  8
部品1
 62
     2
 48
50.0
100
AcDbLine
 10
12489.82958141817
 20
4111.999999999956
 30
0.0
 11
13290.82958141817
 21
4111.999999999956
 31
0.0
  0
LINE
  5
1C162
330
747D
100
AcDbEntity
  8
部品1
 62
     2
 48
50.0
100
AcDbLine
 10
12491.82958141817
 20
4145.999999999957
 30
0.0
 11
13290.82958141817
 21
4145.999999999957
 31
0.0
  0
LINE
  5
1C163
330
747D
100
AcDbEntity
  8
部品1
 62
     2
 48
50.0
100
AcDbLine
 10
12489.82958141817
 20
4111.999999999956
 30
0.0
 11
12488.32958141817
 21
4091.999999999956
 31
0.0
  0
LINE
  5
1C164
330
747D
100
AcDbEntity
  8
部品1
 62
     2
 48
50.0
100
AcDbLine
 10
12464.82958141817
 20
4102.999999999957
 30
0.0
 11
12489.15458141817
 21
4102.999999999957
 31
0.0
  0
LINE
  5
1C172
330
747D
100
AcDbEntity
  8
部品1
 48
50.0
100
AcDbLine
 10
13592.82958141817
 20
4059.999999999956
 30
0.0
 11
13592.82958141817
 21
3329.999999999955
 31
0.0
  0
LINE
  5
1C173
330
747D
100
AcDbEntity
  8
部品1
 48
50.0
100
AcDbLine
 10
13012.82958141817
 20
4059.999999999956
 30
0.0
 11
13012.82958141817
 21
3329.999999999955
 31
0.0
  0
DIMENSION
  5
1C198
330
747D
100
AcDbEntity
  8
寸法
 48
50.0
100
AcDbDimension
  2
*D26
 10
14888.93453324972
 20
4059.999999999956
 30
0.0
 11
14788.93453324972
 21
3667.499999999956
 31
0.0
 12
-4229.274534157642
 22
-13036.23332302183
 32
0.0
 70
    32
 71
     5
 42
-1.0
  3
INABA_S50G
100
AcDbAlignedDimension
 13
14242.82958141817
 23
3274.999999999956
 33
0.0
 14
14172.82958141817
 24
4059.999999999956
 34
0.0
 50
90.0
100
AcDbRotatedDimension
  0
DIMENSION
  5
1C199
330
747D
100
AcDbEntity
  8
寸法
 48
50.0
100
AcDbDimension
  2
*D24
 10
15242.97132422847
 20
5301.999999999956
 30
0.0
 11
15142.97132422847
 21
4321.999999999958
 31
0.0
 70
    32
  1
内高 <>
 71
     5
 42
-1.0
  3
INABA_S50G
100
AcDbAlignedDimension
 13
14242.82958141817
 23
3341.999999999956
 33
0.0
 14
14242.82958141817
 24
5301.999999999956
 34
0.0
 50
90.0
100
AcDbRotatedDimension
1001
ACAD
1000
DSTYLE
1002
{
1070
   287
1070
     4
1070
    75
1070
     1
1070
   279
1070
     1
1002
}
  0
DIMENSION
  5
1C19A
330
747D
100
AcDbEntity
  8
寸法
 48
50.0
100
AcDbDimension
  2
*D25
 10
15242.97132422847
 20
3341.999999999956
 30
0.0
 11
15242.97132422847
 21
2978.697597487451
 31
0.0
 12
-4229.274534157642
 22
-13036.23332302183
 32
0.0
 70
   160
 71
     5
 42
-1.0
  3
INABA_S50G
100
AcDbAlignedDimension
 13
14242.82958141817
 23
3274.999999999956
 33
0.0
 14
14242.82958141817
 24
3341.999999999956
 34
0.0
 50
90.0
100
AcDbRotatedDimension
  0
DIMENSION
  5
1C19B
330
747D
100
AcDbEntity
  8
寸法
 48
50.0
100
AcDbDimension
  2
*D23
 10
14888.93453324972
 20
5129.999999999956
 30
0.0
 11
14788.93453324972
 21
4594.999999999958
 31
0.0
 70
    32
 71
     5
 42
-1.0
  3
INABA_S50G
100
AcDbAlignedDimension
 13
14172.82958141817
 23
4059.999999999956
 33
0.0
 14
14172.82958141817
 24
5129.999999999956
 34
0.0
 50
90.0
100
AcDbRotatedDimension
1001
ACAD
1000
DSTYLE
1002
{
1070
   287
1070
     4
1070
    75
1070
     1
1070
   279
1070
     1
1002
}
  0
DIMENSION
  5
1C1CC
330
747D
100
AcDbEntity
  8
寸法
 48
50.0
100
AcDbDimension
  2
*D27
 10
11878.38589554556
 20
10242.73679736192
 30
0.0
 11
11778.37113176604
 21
10063.73679736192
 31
0.0
 12
-4809.274534157644
 22
-12456.23332302183
 32
0.0
 70
    32
 71
     5
 42
-1.0
  3
INABA_S50G
100
AcDbAlignedDimension
 13
12312.82958141816
 23
11044.73679736192
 33
0.0
 14
12312.82958141816
 24
10242.73679736192
 34
0.0
 50
270.0
100
AcDbRotatedDimension
  0
LINE
  5
1C1CD
330
747D
100
AcDbEntity
  8
部品1
 62
     2
100
AcDbLine
 10
12312.82958141816
 20
10279.23679736192
 30
0.0
 11
12312.82958141816
 21
10939.23679736193
 31
0.0
  0
LINE
  5
1C1CE
330
747D
100
AcDbEntity
  8
部品1
 62
     2
100
AcDbLine
 10
12319.32958141817
 20
10275.23679736192
 30
0.0
 11
12319.32958141817
 21
11011.23679736192
 31
0.0
  0
LINE
  5
1C1CF
330
747D
100
AcDbEntity
  8
部品1
 62
     2
100
AcDbLine
 10
12350.82958141817
 20
10271.23679736192
 30
0.0
 11
12350.82958141817
 21
11011.23679736192
 31
0.0
  0
LINE
  5
1C1D0
330
747D
100
AcDbEntity
  8
部品1
 62
     2
100
AcDbLine
 10
12285.32958141815
 20
10863.23679736191
 30
0.0
 11
12285.32958141815
 21
10939.23679736193
 31
0.0
  0
LINE
  5
1C1D1
330
747D
100
AcDbEntity
  8
部品1
 62
     2
100
AcDbLine
 10
12269.32958141816
 20
10945.23679736189
 30
0.0
 11
12269.32958141816
 21
10863.23679736191
 31
0.0
  0
ARC
  5
1C1D2
330
747D
100
AcDbEntity
  8
部品1
 62
     2
100
AcDbCircle
 10
12277.32958141816
 20
10863.23679736191
 30
0.0
 40
8.0
100
AcDbArc
 50
180.0
 51
0.0
  0
LINE
  5
1C1D3
330
747D
100
AcDbEntity
  8
部品1
 62
     2
100
AcDbLine
 10
12319.32958141817
 20
11011.23679736192
 30
0.0
 11
12350.82958141817
 21
11011.23679736192
 31
0.0
  0
LINE
  5
1C1D4
330
747D
100
AcDbEntity
  8
部品1
 62
     2
100
AcDbLine
 10
12350.82958141817
 20
11003.73679736192
 30
0.0
 11
12428.32958141816
 21
11003.73679736192
 31
0.0
  0
LINE
  5
1C1D5
330
747D
100
AcDbEntity
  8
部品1
 62
     2
100
AcDbLine
 10
12350.82958141817
 20
10939.23679736193
 30
0.0
 11
12384.82958141818
 21
10939.23679736193
 31
0.0
  0
LINE
  5
1C1D6
330
747D
100
AcDbEntity
  8
部品1
 62
     2
100
AcDbLine
 10
12350.82958141817
 20
10955.23679736192
 30
0.0
 11
12390.82958141813
 21
10955.23679736192
 31
0.0
  0
ARC
  5
1C1D7
330
747D
100
AcDbEntity
  8
部品1
 62
     2
100
AcDbCircle
 10
12279.32958141811
 20
10945.23679736189
 30
0.0
 40
10.0
100
AcDbArc
 50
89.99999999999998
 51
180.0
  0
LINE
  5
1C1D8
330
747D
100
AcDbEntity
  8
部品1
 62
     2
100
AcDbLine
 10
12312.82958141816
 20
10955.23679736192
 30
0.0
 11
12312.82958141816
 21
11044.73679736192
 31
0.0
  0
LINE
  5
1C1D9
330
747D
100
AcDbEntity
  8
部品1
 62
     2
100
AcDbLine
 10
12319.32958141817
 20
10939.23679736193
 30
0.0
 11
12285.32958141815
 21
10939.23679736193
 31
0.0
  0
LINE
  5
1C1DA
330
747D
100
AcDbEntity
  8
部品1
 62
     2
100
AcDbLine
 10
12319.32958141817
 20
10955.23679736192
 30
0.0
 11
12279.32958141811
 21
10955.23679736192
 31
0.0
  0
LINE
  5
1C1DB
330
747D
100
AcDbEntity
  8
部品1
 62
     2
100
AcDbLine
 10
12312.82958141816
 20
11016.23679736192
 30
0.0
 11
12362.82958141816
 21
11016.23679736192
 31
0.0
  0
LINE
  5
1C1DC
330
747D
100
AcDbEntity
  8
部品1
 62
     2
100
AcDbLine
 10
12312.82958141816
 20
11044.73679736192
 30
0.0
 11
12362.82958141816
 21
11044.73679736192
 31
0.0
  0
LINE
  5
1C1DD
330
747D
100
AcDbEntity
  8
部品1
 62
     2
100
AcDbLine
 10
12387.82958141817
 20
10856.99179936352
 30
0.0
 11
12387.82958141817
 21
10283.73679736192
 31
0.0
  0
LINE
  5
1C1DE
330
747D
100
AcDbEntity
  8
部品1
 62
     2
100
AcDbLine
 10
12428.32958141816
 20
11003.73679736192
 30
0.0
 11
12428.32958141816
 21
10283.73679736192
 31
0.0
  0
LINE
  5
1C1DF
330
747D
100
AcDbEntity
  8
部品1
 62
     2
100
AcDbLine
 10
12413.32958141816
 20
11003.73679736192
 30
0.0
 11
12413.32958141816
 21
10283.73679736192
 31
0.0
  0
LINE
  5
1C1E0
330
747D
100
AcDbEntity
  8
部品1
 62
     2
100
AcDbLine
 10
12400.82958141816
 20
10945.23679736189
 30
0.0
 11
12400.82958141816
 21
10863.23679736191
 31
0.0
  0
LINE
  5
1C1E1
330
747D
100
AcDbEntity
  8
部品1
 62
     2
100
AcDbLine
 10
12384.82958141818
 20
10863.23679736191
 30
0.0
 11
12384.82958141818
 21
10939.23679736193
 31
0.0
  0
ARC
  5
1C1E2
330
747D
100
AcDbEntity
  8
部品1
 62
     2
100
AcDbCircle
 10
12392.82958141817
 20
10863.23679736191
 30
0.0
 40
8.0
100
AcDbArc
 50
180.0
 51
0.0
  0
ARC
  5
1C1E3
330
747D
100
AcDbEntity
  8
部品1
 62
     2
100
AcDbCircle
 10
12390.82958141813
 20
10945.23679736189
 30
0.0
 40
10.0
100
AcDbArc
 50
0.0
 51
89.99999999999998
  0
LINE
  5
1C1E4
330
747D
100
AcDbEntity
  8
部品1
 62
     2
100
AcDbLine
 10
12387.82958141817
 20
11003.73679736192
 30
0.0
 11
12387.82958141817
 21
10955.23679736192
 31
0.0
  0
LINE
  5
1C1E5
330
747D
100
AcDbEntity
  8
部品1
 62
     2
100
AcDbLine
 10
12421.82958141816
 20
11056.73679736192
 30
0.0
 11
12421.82958141816
 21
11003.73679736192
 31
0.0
  0
LINE
  5
1C1E6
330
747D
100
AcDbEntity
  8
部品1
 62
     2
100
AcDbLine
 10
12362.82958141816
 20
11044.73679736192
 30
0.0
 11
12362.82958141816
 21
11003.73679736192
 31
0.0
  0
LINE
  5
1C1E7
330
747D
100
AcDbEntity
  8
部品1
 62
     2
100
AcDbLine
 10
12412.82958141816
 20
11056.73679736192
 30
0.0
 11
12421.82958141816
 21
11056.73679736192
 31
0.0
  0
LINE
  5
1C1E8
330
747D
100
AcDbEntity
  8
部品1
 62
     2
100
AcDbLine
 10
12350.82958141817
 20
10283.73679736192
 30
0.0
 11
12428.32958141816
 21
10283.73679736192
 31
0.0
  0
LINE
  5
1C1E9
330
747D
100
AcDbEntity
  8
部品1
 62
     2
100
AcDbLine
 10
12312.82958141816
 20
10242.73679736192
 30
0.0
 11
12312.82958141816
 21
10271.23679736192
 31
0.0
  0
CIRCLE
  5
1C1EA
330
747D
100
AcDbEntity
  8
部品1
 62
     2
100
AcDbCircle
 10
12300.32958141817
 20
10275.23679736192
 30
0.0
 40
9.099999999999999
  0
LINE
  5
1C1EB
330
747D
100
AcDbEntity
  8
部品1
 62
     2
100
AcDbLine
 10
12312.82958141816
 20
10242.73679736192
 30
0.0
 11
12362.82958141816
 21
10242.73679736192
 31
0.0
  0
LINE
  5
1C1EC
330
747D
100
AcDbEntity
  8
部品1
 62
     2
100
AcDbLine
 10
12312.82958141816
 20
10271.23679736192
 30
0.0
 11
12362.82958141816
 21
10271.23679736192
 31
0.0
  0
LINE
  5
1C1ED
330
747D
100
AcDbEntity
  8
部品1
 62
     2
100
AcDbLine
 10
12309.42958141816
 20
10275.23679736192
 30
0.0
 11
12350.82958141817
 21
10275.23679736192
 31
0.0
  0
LINE
  5
1C1EE
330
747D
100
AcDbEntity
  8
部品1
 62
     2
100
AcDbLine
 10
12308.50331985293
 20
10279.23679736192
 30
0.0
 11
12319.32958141817
 21
10279.23679736192
 31
0.0
  0
LINE
  5
1C1EF
330
747D
100
AcDbEntity
  8
部品1
 62
     2
100
AcDbLine
 10
12308.50331985293
 20
10271.23679736192
 30
0.0
 11
12350.82958141817
 21
10271.23679736192
 31
0.0
  0
LINE
  5
1C1F0
330
747D
100
AcDbEntity
  8
部品1
 62
     2
100
AcDbLine
 10
12362.82958141816
 20
10283.73679736192
 30
0.0
 11
12362.82958141816
 21
10242.73679736192
 31
0.0
  0
LINE
  5
1C1F1
330
747D
100
AcDbEntity
  8
部品1
 62
     2
100
AcDbLine
 10
12421.82958141816
 20
10230.73679736192
 30
0.0
 11
12421.82958141816
 21
10283.73679736192
 31
0.0
  0
LINE
  5
1C1F2
330
747D
100
AcDbEntity
  8
部品1
 62
     2
100
AcDbLine
 10
12412.82958141816
 20
10230.73679736192
 30
0.0
 11
12421.82958141816
 21
10230.73679736192
 31
0.0
  0
DIMENSION
  5
1C1FF
330
747D
100
AcDbEntity
  8
寸法
 48
50.0
100
AcDbDimension
  2
*D28
 10
14178.82958141817
 20
8744.293111489312
 30
0.0
 11
13302.82958141817
 21
8844.307875268839
 31
0.0
 70
    32
 71
     5
 42
-1.0
  3
INABA_S50G
100
AcDbAlignedDimension
 13
12426.82958141817
 23
9228.736797361909
 33
0.0
 14
14178.82958141817
 24
9228.736797361909
 34
0.0
100
AcDbRotatedDimension
  0
LINE
  5
1C200
330
747D
100
AcDbEntity
  8
部品1
 62
     2
 48
50.0
100
AcDbLine
 10
13308.82958141817
 20
9240.236797361909
 30
0.0
 11
14119.82958141817
 21
9240.236797361909
 31
0.0
  0
LINE
  5
1C201
330
747D
100
AcDbEntity
  8
部品1
 62
     2
 48
50.0
100
AcDbLine
 10
13290.82958141817
 20
9251.73679736191
 30
0.0
 11
14140.82958141817
 21
9251.73679736191
 31
0.0
  0
LINE
  5
1C202
330
747D
100
AcDbEntity
  8
部品1
 62
     2
 48
50.0
100
AcDbLine
 10
14140.82958141817
 20
9289.736797361909
 30
0.0
 11
12464.82958141817
 21
9289.736797361909
 31
0.0
  0
LINE
  5
1C203
330
747D
100
AcDbEntity
  8
部品1
 62
     2
 48
50.0
100
AcDbLine
 10
12432.82958141817
 20
9228.736797361909
 30
0.0
 11
14172.82958141817
 21
9228.736797361909
 31
0.0
  0
LINE
  5
1C204
330
747D
100
AcDbEntity
  8
部品1
 62
     2
 48
50.0
100
AcDbLine
 10
14172.82958141817
 20
9290.736797361908
 30
0.0
 11
12432.82958141817
 21
9290.736797361908
 31
0.0
  0
LINE
  5
1C205
330
747D
100
AcDbEntity
  8
部品1
 62
     2
 48
50.0
100
AcDbLine
 10
14154.82958141817
 20
9278.73679736191
 30
0.0
 11
14140.82958141817
 21
9278.73679736191
 31
0.0
  0
LINE
  5
1C206
330
747D
100
AcDbEntity
  8
部品1
 62
     2
 48
50.0
100
AcDbLine
 10
14113.82958141817
 20
9228.736797361909
 30
0.0
 11
14113.82958141817
 21
9251.73679736191
 31
0.0
  0
LINE
  5
1C207
330
747D
100
AcDbEntity
  8
部品1
 62
     2
 48
50.0
100
AcDbLine
 10
14140.82958141817
 20
9228.736797361909
 30
0.0
 11
14140.82958141817
 21
9289.736797361909
 31
0.0
  0
LINE
  5
1C208
330
747D
100
AcDbEntity
  8
部品1
 62
     2
 48
50.0
100
AcDbLine
 10
14172.82958141817
 20
9278.73679736191
 30
0.0
 11
14172.82958141817
 21
9290.736797361908
 31
0.0
  0
LINE
  5
1C209
330
747D
100
AcDbEntity
  8
部品1
 62
     2
 48
50.0
100
AcDbLine
 10
13290.82958141817
 20
9262.036797361899
 30
0.0
 11
13290.82958141817
 21
9285.036797361897
 31
0.0
  0
LINE
  5
1C20A
330
747D
100
AcDbEntity
  8
部品1
 62
     2
 48
50.0
100
AcDbLine
 10
13314.82958141817
 20
9262.036797361913
 30
0.0
 11
13314.82958141817
 21
9285.036797361897
 31
0.0
  0
LINE
  5
1C20B
330
747D
100
AcDbEntity
  8
部品1
 62
     2
 48
50.0
100
AcDbLine
 10
13314.82958141817
 20
9228.736797361909
 30
0.0
 11
13314.82958141817
 21
9251.73679736191
 31
0.0
  0
LINE
  5
1C20C
330
747D
100
AcDbEntity
  8
部品1
 62
     2
 48
50.0
100
AcDbLine
 10
13290.82958141817
 20
9228.736797361909
 30
0.0
 11
13290.82958141817
 21
9251.73679736191
 31
0.0
  0
LINE
  5
1C20D
330
747D
100
AcDbEntity
  8
部品1
 62
     2
 48
50.0
100
AcDbLine
 10
12485.82958141817
 20
9273.536797361911
 30
0.0
 11
13296.82958141817
 21
9273.536797361911
 31
0.0
  0
LINE
  5
1C20E
330
747D
100
AcDbEntity
  8
部品1
 62
     2
 48
50.0
100
AcDbLine
 10
12464.82958141817
 20
9285.036797361913
 30
0.0
 11
13314.82958141817
 21
9285.036797361913
 31
0.0
  0
LINE
  5
1C20F
330
747D
100
AcDbEntity
  8
部品1
 62
     2
 48
50.0
100
AcDbLine
 10
12464.82958141817
 20
9262.036797361913
 30
0.0
 11
13314.82958141817
 21
9262.036797361913
 31
0.0
  0
LINE
  5
1C210
330
747D
100
AcDbEntity
  8
部品1
 62
     2
 48
50.0
100
AcDbLine
 10
12464.82958141817
 20
9278.73679736191
 30
0.0
 11
12450.82958141817
 21
9278.73679736191
 31
0.0
  0
LINE
  5
1C211
330
747D
100
AcDbEntity
  8
部品1
 62
     2
 48
50.0
100
AcDbLine
 10
12491.82958141817
 20
9262.036797361913
 30
0.0
 11
12491.82958141817
 21
9285.036797361913
 31
0.0
  0
LINE
  5
1C212
330
747D
100
AcDbEntity
  8
部品1
 62
     2
 48
50.0
100
AcDbLine
 10
12464.82958141817
 20
9228.736797361909
 30
0.0
 11
12464.82958141817
 21
9289.736797361909
 31
0.0
  0
LINE
  5
1C213
330
747D
100
AcDbEntity
  8
部品1
 62
     2
 48
50.0
100
AcDbLine
 10
12432.82958141817
 20
9278.73679736191
 30
0.0
 11
12432.82958141817
 21
9290.736797361908
 31
0.0
  0
DIMENSION
  5
1C3A0
330
747D
100
AcDbEntity
  8
寸法
 48
50.0
100
AcDbDimension
  2
*D29
 10
5235.994446424296
 20
3140.0
 30
0.0
 11
5235.994446424296
 21
2653.036417322836
 31
0.0
 12
322.1846496323641
 22
8941.165194089647
 32
0.0
 70
   160
 71
     5
 42
-1.0
  3
INABA_S50G
100
AcDbAlignedDimension
 13
5634.329581418175
 23
2940.000000000002
 33
0.0
 14
5634.329581418174
 24
3140.0
 34
0.0
 50
270.0
100
AcDbRotatedDimension
  0
DIMENSION
  5
1C3A1
330
747D
100
AcDbEntity
  8
寸法
 48
50.0
100
AcDbDimension
  2
*D30
 10
5834.329581418176
 20
2653.952670699625
 30
0.0
 11
6121.293164095341
 21
2653.952670699625
 31
0.0
 12
322.1846496323641
 22
8941.165194089647
 32
0.0
 70
   160
 71
     5
 42
-1.0
  3
INABA_S50G
100
AcDbAlignedDimension
 13
5634.329581418174
 23
2940.000000000002
 33
0.0
 14
5834.329581418176
 24
2940.000000000002
 34
0.0
100
AcDbRotatedDimension
  0
LINE
  5
1C3A7
330
747D
100
AcDbEntity
  8
部品1
 48
50.0
100
AcDbLine
 10
7510.329581418176
 20
3275.0
 30
0.0
 11
5755.329581418173
 21
3275.0
 31
0.0
  0
LINE
  5
1C3A8
330
747D
100
AcDbEntity
  8
細線
 48
50.0
100
AcDbLine
 10
5607.269963592652
 20
5380.746404000587
 30
0.0
 11
7704.195393715983
 21
5432.315572311723
 31
0.0
  0
LINE
  5
1C3A9
330
747D
100
AcDbEntity
  8
部品1
 48
50.0
100
AcDbLine
 10
5625.540699733718
 20
5360.921243435219
 30
0.0
 11
7686.818698356841
 21
5412.160340619768
 31
0.0
  0
LINE
  5
1C3AA
330
747D
100
AcDbEntity
  8
細線
 48
50.0
100
AcDbLine
 10
5615.92149199076
 20
5476.025833613869
 30
0.0
 11
7689.638533824347
 21
5526.929326860823
 31
0.0
  0
LINE
  5
1C3AB
330
747D
100
AcDbEntity
  8
部品1
 48
50.0
100
AcDbLine
 10
7678.313373122108
 20
5544.466629415619
 30
0.0
 11
5623.15655022303
 21
5486.367362182471
 31
0.0
  0
DIMENSION
  5
1C3AC
330
747D
100
AcDbEntity
  8
寸法
 48
50.0
100
AcDbDimension
  2
*D31
 10
5597.829581418174
 20
6506.068854554546
 30
0.0
 11
6652.829581418174
 21
6606.083618334072
 31
0.0
 12
322.1846496323641
 22
8941.165194089647
 32
0.0
 70
    32
 71
     5
 42
-1.0
  3
INABA_S50G
100
AcDbAlignedDimension
 13
7707.829581418174
 23
5545.0
 33
0.0
 14
5597.829581418174
 24
5485.0
 34
0.0
100
AcDbRotatedDimension
  0
DIMENSION
  5
1C3AD
330
747D
100
AcDbEntity
  8
寸法
 48
50.0
100
AcDbDimension
  2
*D32
 10
5692.829581418173
 20
6238.281130716521
 30
0.0
 11
6632.829581418175
 21
6338.281130716521
 31
0.0
 70
    32
  1
柱外寸法 <>
 71
     5
 42
-1.0
  3
INABA_S50G
100
AcDbAlignedDimension
 13
7572.829581418176
 23
5541.484603453081
 33
0.0
 14
5692.829581418173
 24
5488.33701822684
 34
0.0
100
AcDbRotatedDimension
1001
ACAD
1000
DSTYLE
1002
{
1070
   287
1070
     4
1070
    75
1070
     1
1070
   279
1070
     1
1002
}
  0
LINE
  5
1C3AE
330
747D
100
AcDbEntity
  8
部品1
 48
50.0
100
AcDbLine
 10
7572.829581418173
 20
5275.0
 30
0.0
 11
5692.829581418172
 21
5275.0
 31
0.0
  0
LINE
  5
1C3AF
330
747D
100
AcDbEntity
  8
部品1
 48
50.0
100
AcDbLine
 10
7502.829581418175
 20
3330.0
 30
0.0
 11
6552.829581418173
 21
3330.0
 31
0.0
  0
LINE
  5
1C3B0
330
747D
100
AcDbEntity
  8
部品1
 48
50.0
100
AcDbLine
 10
6922.829581418174
 20
5275.0
 30
0.0
 11
6922.829581418174
 21
3330.0
 31
0.0
  0
DIMENSION
  5
1C3B2
330
747D
100
AcDbEntity
  8
寸法
 48
50.0
100
AcDbDimension
  2
*D33
 10
8298.949297310763
 20
5275.0
 30
0.0
 11
8198.949297310761
 21
4302.500000000001
 31
0.0
 70
    32
 71
     5
 42
-1.0
  3
INABA_S50G
100
AcDbAlignedDimension
 13
7572.829581418173
 23
3330.0
 33
0.0
 14
7572.829581418173
 24
5275.0
 34
0.0
 50
270.0
100
AcDbRotatedDimension
1001
ACAD
1000
DSTYLE
1002
{
1070
   287
1070
     4
1070
    75
1070
     1
1070
   279
1070
     1
1002
}
  0
LINE
  5
1C3B4
330
747D
100
AcDbEntity
  8
部品1
 48
50.0
100
AcDbLine
 10
7572.829581418178
 20
5409.326807518119
 30
0.0
 11
7572.829581418173
 21
3140.0
 31
0.0
  0
DIMENSION
  5
1C3B5
330
747D
100
AcDbEntity
  8
寸法
 48
50.0
100
AcDbDimension
  2
*D34
 10
8606.995501716562
 20
3275.0
 30
0.0
 11
8506.980737937036
 21
4410.0
 31
0.0
 70
    32
 71
     5
 42
-1.0
  3
INABA_S50G
100
AcDbAlignedDimension
 13
7707.829581418176
 23
5545.0
 33
0.0
 14
7572.829581418173
 24
3275.0
 34
0.0
 50
270.0
100
AcDbRotatedDimension
  0
LINE
  5
1C3B6
330
747D
100
AcDbEntity
  8
部品1
 48
50.0
100
AcDbLine
 10
7502.829581418175
 20
5275.0
 30
0.0
 11
7502.829581418175
 21
3275.0
 31
0.0
  0
DIMENSION
  5
1C3B7
330
747D
100
AcDbEntity
  8
寸法
 48
50.0
100
AcDbDimension
  2
*D35
 10
8298.949297310763
 20
3330.0
 30
0.0
 11
8298.949297310763
 21
2964.420494177466
 31
0.0
 70
   160
 71
     5
 42
-1.0
  3
INABA_S50G
100
AcDbAlignedDimension
 13
7572.829581418173
 23
3275.0
 33
0.0
 14
7572.829581418173
 24
3330.0
 34
0.0
 50
270.0
100
AcDbRotatedDimension
  0
LINE
  5
1C3B8
330
747D
100
AcDbEntity
  8
部品1
 48
50.0
100
AcDbLine
 10
7572.829581418173
 20
3275.0
 30
0.0
 11
7552.329581418177
 21
3275.0
 31
0.0
  0
LINE
  5
1C3B9
330
747D
100
AcDbEntity
  8
破線
 48
5.0
100
AcDbLine
 10
7431.329581418173
 20
2940.000000000002
 30
0.0
 11
7631.329581418174
 21
2940.000000000002
 31
0.0
  0
LINE
  5
1C3BA
330
747D
100
AcDbEntity
  8
破線
 48
5.0
100
AcDbLine
 10
7631.329581418173
 20
3140.000000000004
 30
0.0
 11
7631.329581418173
 21
2940.000000000002
 31
0.0
  0
LINE
  5
1C3BD
330
747D
100
AcDbEntity
  8
破線
 48
5.0
100
AcDbLine
 10
7552.329581418174
 20
3140.0
 30
0.0
 11
7552.329581418172
 21
3030.0
 31
0.0
  0
LINE
  5
1C3BE
330
747D
100
AcDbEntity
  8
破線
 48
5.0
100
AcDbLine
 10
7510.329581418173
 20
3140.0
 30
0.0
 11
7510.329581418172
 21
3030.0
 31
0.0
  0
LINE
  5
1C3BF
330
747D
100
AcDbEntity
  8
破線
 48
5.0
100
AcDbLine
 10
7431.329581418173
 20
3140.000000000004
 30
0.0
 11
7431.329581418173
 21
2940.000000000002
 31
0.0
  0
LINE
  5
1C3C0
330
747D
100
AcDbEntity
  8
破線
 48
5.0
100
AcDbLine
 10
7552.329581418172
 20
3030.0
 30
0.0
 11
7510.329581418172
 21
3030.0
 31
0.0
  0
ARC
  5
1C3C1
330
747D
100
AcDbEntity
  8
部品1
 48
50.0
100
AcDbCircle
 10
7515.329581418176
 20
3310.0
 30
0.0
 40
5.0
100
AcDbArc
 50
90.0
 51
180.0000000000006
  0
LINE
  5
1C3C2
330
747D
100
AcDbEntity
  8
部品1
 48
50.0
100
AcDbLine
 10
7510.329581418176
 20
3310.0
 30
0.0
 11
7510.329581418173
 21
3140.0
 31
0.0
  0
LINE
  5
1C3C3
330
747D
100
AcDbEntity
  8
部品1
 48
50.0
100
AcDbLine
 10
7372.829581418172
 20
3275.0
 30
0.0
 11
7372.829581418173
 21
3140.0
 31
0.0
  0
ARC
  5
1C3C4
330
747D
100
AcDbEntity
  8
部品1
 48
50.0
100
AcDbCircle
 10
7547.329581418174
 20
3310.000000000001
 30
0.0
 40
5.0
100
AcDbArc
 50
0.0000000000006177
 51
90.0
  0
LINE
  5
1C3C5
330
747D
100
AcDbEntity
  8
部品1
 48
50.0
100
AcDbLine
 10
7552.329581418174
 20
3310.000000000001
 30
0.0
 11
7552.329581418174
 21
3140.0
 31
0.0
  0
LINE
  5
1C3C6
330
747D
100
AcDbEntity
  8
部品1
 48
50.0
100
AcDbLine
 10
7547.329581418174
 20
3315.000000000002
 30
0.0
 11
7515.329581418176
 21
3315.0
 31
0.0
  0
DIMENSION
  5
1C3C8
330
747D
100
AcDbEntity
  8
寸法
 48
50.0
100
AcDbDimension
  2
*D36
 10
7572.829581418176
 20
6238.281130716521
 30
0.0
 11
7980.936183135973
 21
6238.281130716521
 31
0.0
 12
322.1846496323641
 22
8941.165194089647
 32
0.0
 70
   160
 71
     5
 42
-1.0
  3
INABA_S50G
100
AcDbAlignedDimension
 13
7707.829581418176
 23
5545.0
 33
0.0
 14
7572.829581418176
 24
5541.484603453081
 34
0.0
100
AcDbRotatedDimension
  0
ARC
  5
1C3CA
330
747D
100
AcDbEntity
  8
部品1
100
AcDbCircle
 10
7689.614924528777
 20
5528.429141049702
 30
0.0
 40
1.5
100
AcDbArc
 50
204.5961819643761
 51
270.9018459011026
  0
LINE
  5
1C3CB
330
747D
100
AcDbEntity
  8
部品1
 48
50.0
100
AcDbLine
 10
7689.638533824347
 20
5526.929326860823
 30
0.0
 11
7691.826151637433
 21
5526.963763203625
 31
0.0
  0
ARC
  5
1C3CC
330
747D
100
AcDbEntity
  8
部品1
 48
50.0
100
AcDbCircle
 10
7678.376609304374
 20
5540.967200721498
 30
0.0
 40
3.5
100
AcDbArc
 50
24.59618196436618
 51
91.03524671598787
  0
LINE
  5
1C3CD
330
747D
100
AcDbEntity
  8
部品1
100
AcDbLine
 10
7688.251028758497
 20
5527.804810746245
 30
0.0
 11
7681.559032768359
 21
5542.423971429562
 31
0.0
  0
ARC
  5
1C3CE
330
747D
100
AcDbEntity
  8
部品1
100
AcDbCircle
 10
7686.572179567502
 20
5427.658380124383
 30
0.0
 40
15.5
100
AcDbArc
 50
270.9112955958145
 51
358.1167995116315
  0
ARC
  5
1C3CF
330
747D
100
AcDbEntity
  8
部品1
100
AcDbCircle
 10
7704.654231278201
 20
5429.858039383868
 30
0.0
 40
2.5
100
AcDbArc
 50
99.02226950947451
 51
178.1167995116955
  0
ARC
  5
1C3D0
330
747D
100
AcDbEntity
  8
部品1
100
AcDbCircle
 10
7704.074003404611
 20
5433.512260998977
 30
0.0
 40
1.199999999999999
100
AcDbArc
 50
279.0222695094722
 51
358.1167995116895
  0
LINE
  5
1C3D1
330
747D
100
AcDbEntity
  8
部品1
100
AcDbLine
 10
7702.155581542445
 20
5429.940194712308
 30
0.0
 11
7702.063807929206
 21
5427.149017088035
 31
0.0
  0
LINE
  5
1C3D2
330
747D
100
AcDbEntity
  8
部品1
100
AcDbLine
 10
7707.821209779879
 20
5510.962577858223
 30
0.0
 11
7705.273355277777
 21
5433.472826441324
 31
0.0
  0
LINE
  5
1C3D3
330
747D
100
AcDbEntity
  8
細線
 48
50.0
100
AcDbLine
 10
7669.232849440395
 20
5544.266424339621
 30
0.0
 11
7673.534207577515
 21
5411.902630028745
 31
0.0
  0
ARC
  5
1C3D4
330
747D
100
AcDbEntity
  8
部品1
100
AcDbCircle
 10
7692.329581418174
 20
5511.471940894553
 30
0.0
 40
15.5
100
AcDbArc
 50
358.1167995116895
 51
91.86125648319634
  0
LINE
  5
1C3D5
330
747D
100
AcDbEntity
  8
部品1
 48
50.0
100
AcDbLine
 10
5692.829581418176
 20
5362.593905516885
 30
0.0
 11
5692.829581418173
 21
3140.0
 31
0.0
  0
LINE
  5
1C3D6
330
747D
100
AcDbEntity
  8
細線
 48
5.0
100
AcDbLine
 10
5653.829581418174
 20
5232.0
 30
0.0
 11
5653.829581418179
 21
4307.5
 31
0.0
  0
LINE
  5
1C3D7
330
747D
100
AcDbEntity
  8
細線
 48
5.0
100
AcDbLine
 10
5666.829581418173
 20
5232.0
 30
0.0
 11
5666.82958141818
 21
4307.5
 31
0.0
  0
LINE
  5
1C3D8
330
747D
100
AcDbEntity
  8
細線
 48
5.0
100
AcDbLine
 10
5629.829581418174
 20
5232.0
 30
0.0
 11
5629.829581418182
 21
4307.5
 31
0.0
  0
LINE
  5
1C3D9
330
747D
100
AcDbEntity
  8
細線
 48
5.0
100
AcDbLine
 10
5616.829581418174
 20
5232.0
 30
0.0
 11
5616.82958141818
 21
4307.500000000001
 31
0.0
  0
DIMENSION
  5
1C3DA
330
747D
100
AcDbEntity
  8
寸法
 48
50.0
100
AcDbDimension
  2
*D37
 10
5033.338827996756
 20
5485.0
 30
0.0
 11
4933.324064217228
 21
4380.0
 31
0.0
 12
322.1846496323641
 22
8941.165194089647
 32
0.0
 70
    32
 71
     5
 42
-1.0
  3
INABA_S50G
100
AcDbAlignedDimension
 13
5692.829581418173
 23
3275.0
 33
0.0
 14
5597.829581418174
 24
5485.0
 34
0.0
 50
270.0
100
AcDbRotatedDimension
  0
LINE
  5
1C3DB
330
747D
100
AcDbEntity
  8
部品1
 48
50.0
100
AcDbLine
 10
5762.829581418175
 20
5275.0
 30
0.0
 11
5762.829581418174
 21
3275.0
 31
0.0
  0
LINE
  5
1C3DD
330
747D
100
AcDbEntity
  8
細線
 48
5.0
100
AcDbLine
 10
5666.82958141818
 20
4287.5
 30
0.0
 11
5666.829581418184
 21
3363.0
 31
0.0
  0
LINE
  5
1C3DE
330
747D
100
AcDbEntity
  8
細線
 48
5.0
100
AcDbLine
 10
5653.829581418179
 20
4287.5
 30
0.0
 11
5653.829581418185
 21
3363.0
 31
0.0
  0
LINE
  5
1C3DF
330
747D
100
AcDbEntity
  8
細線
 48
5.0
100
AcDbLine
 10
5629.829581418182
 20
4287.5
 30
0.0
 11
5629.829581418187
 21
3363.0
 31
0.0
  0
LINE
  5
1C3E0
330
747D
100
AcDbEntity
  8
細線
 48
5.0
100
AcDbLine
 10
5616.82958141818
 20
4287.5
 30
0.0
 11
5616.829581418184
 21
3363.0
 31
0.0
  0
LINE
  5
1C3E1
330
747D
100
AcDbEntity
  8
部品1
 48
50.0
100
AcDbLine
 10
6532.829581418174
 20
3275.0
 30
0.0
 11
6532.829581418174
 21
3140.0
 31
0.0
  0
LINE
  5
1C3E2
330
747D
100
AcDbEntity
  8
部品1
 48
50.0
100
AcDbLine
 10
6732.829581418174
 20
3275.0
 30
0.0
 11
6732.829581418174
 21
3140.0
 31
0.0
  0
LINE
  5
1C3E3
330
747D
100
AcDbEntity
  8
破線
 48
5.0
100
AcDbLine
 10
5634.329581418175
 20
3140.000000000004
 30
0.0
 11
5634.329581418175
 21
2940.000000000002
 31
0.0
  0
LINE
  5
1C3E4
330
747D
100
AcDbEntity
  8
破線
 48
5.0
100
AcDbLine
 10
5713.329581418173
 20
3140.0
 30
0.0
 11
5713.329581418175
 21
3030.0
 31
0.0
  0
LINE
  5
1C3E5
330
747D
100
AcDbEntity
  8
破線
 48
5.0
100
AcDbLine
 10
5755.329581418173
 20
3140.0
 30
0.0
 11
5755.329581418176
 21
3030.0
 31
0.0
  0
LINE
  5
1C3E6
330
747D
100
AcDbEntity
  8
破線
 48
5.0
100
AcDbLine
 10
5834.329581418176
 20
3140.000000000004
 30
0.0
 11
5834.329581418176
 21
2940.000000000002
 31
0.0
  0
LINE
  5
1C3E7
330
747D
100
AcDbEntity
  8
破線
 48
5.0
100
AcDbLine
 10
5834.329581418176
 20
2940.000000000002
 30
0.0
 11
5634.329581418174
 21
2940.000000000002
 31
0.0
  0
LINE
  5
1C3E8
330
747D
100
AcDbEntity
  8
破線
 48
5.0
100
AcDbLine
 10
5713.329581418175
 20
3030.0
 30
0.0
 11
5755.329581418176
 21
3030.0
 31
0.0
  0
LINE
  5
1C3E9
330
747D
100
AcDbEntity
  8
部品1
 48
50.0
100
AcDbLine
 10
5713.329581418173
 20
3275.0
 30
0.0
 11
5692.829581418173
 21
3275.0
 31
0.0
  0
ARC
  5
1C3EA
330
747D
100
AcDbEntity
  8
部品1
 48
50.0
100
AcDbCircle
 10
5750.329581418172
 20
3310.0
 30
0.0
 40
5.0
100
AcDbArc
 50
359.9999999999993
 51
90.0
  0
LINE
  5
1C3EB
330
747D
100
AcDbEntity
  8
部品1
 48
50.0
100
AcDbLine
 10
5718.329581418174
 20
3315.000000000002
 30
0.0
 11
5750.329581418172
 21
3315.0
 31
0.0
  0
ARC
  5
1C3EC
330
747D
100
AcDbEntity
  8
部品1
 48
50.0
100
AcDbCircle
 10
5718.329581418174
 20
3310.000000000001
 30
0.0
 40
5.0
100
AcDbArc
 50
90.0
 51
179.9999999999993
  0
LINE
  5
1C3ED
330
747D
100
AcDbEntity
  8
部品1
 48
50.0
100
AcDbLine
 10
5755.329581418172
 20
3310.0
 30
0.0
 11
5755.329581418173
 21
3140.0
 31
0.0
  0
LINE
  5
1C3EE
330
747D
100
AcDbEntity
  8
部品1
 48
50.0
100
AcDbLine
 10
5713.329581418173
 20
3310.000000000001
 30
0.0
 11
5713.329581418173
 21
3140.0
 31
0.0
  0
LINE
  5
1C3EF
330
747D
100
AcDbEntity
  8
部品1
 48
50.0
100
AcDbLine
 10
5892.829581418176
 20
3275.0
 30
0.0
 11
5892.829581418173
 21
3140.0
 31
0.0
  0
LINE
  5
1C3F0
330
747D
100
AcDbEntity
  8
細線
 48
5.0
100
AcDbLine
 10
5671.613616867364
 20
3343.0
 30
0.0
 11
5615.629581418173
 21
3342.999999999998
 31
0.0
  0
LINE
  5
1C3F1
330
747D
100
AcDbEntity
  8
細線
 48
5.0
100
AcDbLine
 10
5615.629581418176
 20
3343.0
 30
0.0
 11
5615.629581418173
 21
3363.0
 31
0.0
  0
LINE
  5
1C3F2
330
747D
100
AcDbEntity
  8
細線
 48
5.0
100
AcDbLine
 10
5668.029581418176
 20
3343.0
 30
0.0
 11
5668.029581418178
 21
3363.0
 31
0.0
  0
LINE
  5
1C3F3
330
747D
100
AcDbEntity
  8
細線
 48
5.0
100
AcDbLine
 10
5615.029581418184
 20
3270.0
 30
0.0
 11
5632.329581418183
 21
3270.0
 31
0.0
  0
LINE
  5
1C3F4
330
747D
100
AcDbEntity
  8
細線
 48
5.0
100
AcDbLine
 10
5666.829581418184
 20
3343.0
 30
0.0
 11
5666.829581418183
 21
3270.0
 31
0.0
  0
LINE
  5
1C3F5
330
747D
100
AcDbEntity
  8
細線
 48
5.0
100
AcDbLine
 10
5629.829581418185
 20
3343.0
 30
0.0
 11
5629.829581418182
 21
3270.0
 31
0.0
  0
LINE
  5
1C3F6
330
747D
100
AcDbEntity
  8
細線
 48
5.0
100
AcDbLine
 10
5653.829581418185
 20
3343.0
 30
0.0
 11
5653.829581418182
 21
3270.0
 31
0.0
  0
ARC
  5
1C3F7
330
747D
100
AcDbEntity
  8
細線
 48
5.0
100
AcDbCircle
 10
5632.329581418183
 20
3269.5
 30
0.0
 40
0.5
100
AcDbArc
 50
359.9999999999998
 51
90.0
  0
LINE
  5
1C3F8
330
747D
100
AcDbEntity
  8
細線
 48
5.0
100
AcDbLine
 10
5632.329581418183
 20
3270.0
 30
0.0
 11
5651.329581418183
 21
3270.0
 31
0.0
  0
LINE
  5
1C3F9
330
747D
100
AcDbEntity
  8
細線
 48
5.0
100
AcDbLine
 10
5650.829581418182
 20
3269.5
 30
0.0
 11
5650.829581418182
 21
3219.550400232094
 31
0.0
  0
LINE
  5
1C3FA
330
747D
100
AcDbEntity
  8
細線
 48
5.0
100
AcDbLine
 10
5669.129581418186
 20
3269.5
 30
0.0
 11
5669.129581418186
 21
3226.09258006886
 31
0.0
  0
LINE
  5
1C3FB
330
747D
100
AcDbEntity
  8
細線
 48
5.0
100
AcDbLine
 10
5651.329581418183
 20
3270.0
 30
0.0
 11
5668.629581418186
 21
3270.0
 31
0.0
  0
ARC
  5
1C3FC
330
747D
100
AcDbEntity
  8
細線
 48
5.0
100
AcDbCircle
 10
5668.629581418186
 20
3269.5
 30
0.0
 40
0.5
100
AcDbArc
 50
359.9999999999999
 51
90.0
  0
ARC
  5
1C3FD
330
747D
100
AcDbEntity
  8
細線
 48
5.0
100
AcDbCircle
 10
5651.329581418183
 20
3269.5
 30
0.0
 40
0.5
100
AcDbArc
 50
90.0
 51
180.0000000000001
  0
LINE
  5
1C3FE
330
747D
100
AcDbEntity
  8
細線
 48
5.0
100
AcDbLine
 10
5616.829581418184
 20
3343.0
 30
0.0
 11
5616.829581418183
 21
3270.0
 31
0.0
  0
LINE
  5
1C3FF
330
747D
100
AcDbEntity
  8
細線
 48
5.0
100
AcDbLine
 10
5614.529581418183
 20
3269.5
 30
0.0
 11
5614.529581418183
 21
3249.0
 31
0.0
  0
LINE
  5
1C400
330
747D
100
AcDbEntity
  8
細線
 48
5.0
100
AcDbLine
 10
5614.529581418183
 20
3249.0
 30
0.0
 11
5590.80813216239
 21
3244.817268474697
 31
0.0
  0
LINE
  5
1C401
330
747D
100
AcDbEntity
  8
細線
 48
5.0
100
AcDbLine
 10
5614.529581418183
 20
3249.0
 30
0.0
 11
5619.27017666849
 21
3222.114748342766
 31
0.0
  0
ARC
  5
1C402
330
747D
100
AcDbEntity
  8
細線
 48
5.0
100
AcDbCircle
 10
5590.981780340058
 20
3243.832460721685
 30
0.0
 40
1.0
100
AcDbArc
 50
100.0000000000001
 51
184.7677271218682
  0
ARC
  5
1C403
330
747D
100
AcDbEntity
  8
細線
 48
5.0
100
AcDbCircle
 10
5615.029581418184
 20
3269.5
 30
0.0
 40
0.5
100
AcDbArc
 50
90.0
 51
179.9999999999998
  0
LINE
  5
1C404
330
747D
100
AcDbEntity
  8
細線
 48
5.0
100
AcDbLine
 10
5646.570176668493
 20
3199.207328411627
 30
0.0
 11
5595.545651618274
 21
3190.210327967439
 31
0.0
  0
ARC
  5
1C405
330
747D
100
AcDbEntity
  8
細線
 48
5.0
100
AcDbCircle
 10
5595.372003440609
 20
3191.195135720452
 30
0.0
 40
1.0
100
AcDbArc
 50
184.7677271218682
 51
280.0
  0
LINE
  5
1C406
330
747D
100
AcDbEntity
  8
細線
 48
5.0
100
AcDbLine
 10
5632.829581418183
 20
3269.5
 30
0.0
 11
5632.829581418183
 21
3216.376514579342
 31
0.0
  0
LINE
  5
1C407
330
747D
100
AcDbEntity
  8
細線
 48
5.0
100
AcDbLine
 10
5589.98524050584
 20
3243.74934418412
 30
0.0
 11
5594.375463606392
 21
3191.112019182886
 31
0.0
  0
LINE
  5
1C408
330
747D
100
AcDbEntity
  8
細線
 48
5.0
100
AcDbLine
 10
5692.829581418177
 20
3363.0
 30
0.0
 11
5615.629581418173
 21
3363.0
 31
0.0
  0
LINE
  5
1C409
330
747D
100
AcDbEntity
  8
細線
 48
5.0
100
AcDbLine
 10
5692.829581418173
 20
3323.6
 30
0.0
 11
5673.702390655738
 21
3342.153375039561
 31
0.0
  0
ARC
  5
1C40A
330
747D
100
AcDbEntity
  8
細線
 48
5.0
100
AcDbCircle
 10
5671.613616867364
 20
3340.0
 30
0.0
 40
3.0
100
AcDbArc
 50
45.87245712290256
 51
90.0000000000009
  0
ARC
  5
1C40B
330
747D
100
AcDbEntity
  8
細線
 48
5.0
100
AcDbCircle
 10
5641.829581418183
 20
3226.09258006886
 30
0.0
 40
27.3
100
AcDbArc
 50
280.0
 51
359.9999999999999
  0
LINE
  5
1C40C
330
747D
100
AcDbEntity
  8
細線
 48
5.0
100
AcDbLine
 10
5668.02958141818
 20
4307.5
 30
0.0
 11
5668.02958141818
 21
4287.5
 31
0.0
  0
LINE
  5
1C40D
330
747D
100
AcDbEntity
  8
細線
 48
5.0
100
AcDbLine
 10
5615.629581418173
 20
4307.5
 30
0.0
 11
5615.629581418171
 21
4287.5
 31
0.0
  0
LINE
  5
1C40E
330
747D
100
AcDbEntity
  8
細線
 48
5.0
100
AcDbLine
 10
5668.02958141818
 20
4287.5
 30
0.0
 11
5615.629581418171
 21
4287.5
 31
0.0
  0
LINE
  5
1C40F
330
747D
100
AcDbEntity
  8
細線
 48
5.0
100
AcDbLine
 10
5668.029581418181
 20
4307.5
 30
0.0
 11
5615.629581418171
 21
4307.500000000001
 31
0.0
  0
LINE
  5
1C410
330
747D
100
AcDbEntity
  8
細線
 48
5.0
100
AcDbLine
 10
5668.029581418181
 20
4287.5
 30
0.0
 11
5692.829581418177
 21
4267.5
 31
0.0
  0
LINE
  5
1C411
330
747D
100
AcDbEntity
  8
細線
 48
5.0
100
AcDbLine
 10
5668.029581418181
 20
4307.5
 30
0.0
 11
5692.829581418177
 21
4327.499999999999
 31
0.0
  0
DIMENSION
  5
1C412
330
747D
100
AcDbEntity
  8
寸法
 48
50.0
100
AcDbDimension
  2
*D38
 10
5597.829581418174
 20
6238.281130716521
 30
0.0
 11
5265.270526300065
 21
6238.281130716521
 31
0.0
 12
322.1846496323641
 22
8941.165194089647
 32
0.0
 70
   160
 71
     5
 42
-1.0
  3
INABA_S50G
100
AcDbAlignedDimension
 13
5692.829581418173
 23
5488.33701822684
 33
0.0
 14
5597.829581418174
 24
5485.0
 34
0.0
100
AcDbRotatedDimension
1001
ACAD
1000
DSTYLE
1002
{
1002
}
  0
LINE
  5
1C413
330
747D
100
AcDbEntity
  8
細線
 48
50.0
100
AcDbLine
 10
5635.186545102818
 20
5486.707450043188
 30
0.0
 11
5639.263069890313
 21
5361.262353105303
 31
0.0
  0
LINE
  5
1C414
330
747D
100
AcDbEntity
  8
部品1
100
AcDbLine
 10
5597.916287634872
 20
5458.848097685026
 30
0.0
 11
5606.114720265149
 21
5381.821266955434
 31
0.0
  0
LINE
  5
1C415
330
747D
100
AcDbEntity
  8
細線
 48
5.0
100
AcDbLine
 10
5668.029581418174
 20
5252.0
 30
0.0
 11
5668.029581418176
 21
5232.0
 31
0.0
  0
LINE
  5
1C416
330
747D
100
AcDbEntity
  8
細線
 48
5.0
100
AcDbLine
 10
5615.629581418173
 20
5252.0
 30
0.0
 11
5615.629581418171
 21
5232.0
 31
0.0
  0
LINE
  5
1C417
330
747D
100
AcDbEntity
  8
細線
 48
5.0
100
AcDbLine
 10
5671.613616867363
 20
5252.0
 30
0.0
 11
5615.629581418171
 21
5252.0
 31
0.0
  0
ARC
  5
1C418
330
747D
100
AcDbEntity
  8
部品1
100
AcDbCircle
 10
5625.294180944379
 20
5376.419282939831
 30
0.0
 40
15.5
100
AcDbArc
 50
186.0754638750791
 51
270.9112955958145
  0
ARC
  5
1C419
330
747D
100
AcDbEntity
  8
部品1
 48
50.0
100
AcDbCircle
 10
5606.99644140326
 20
5378.261411925771
 30
0.0
 40
2.5
100
AcDbArc
 50
6.075463875091184
 51
85.16999387739907
  0
ARC
  5
1C41A
330
747D
100
AcDbEntity
  8
部品1
 48
50.0
100
AcDbCircle
 10
5607.307980296043
 20
5381.948272855596
 30
0.0
 40
1.199999999999999
100
AcDbArc
 50
186.0754638750989
 51
265.1699938773959
  0
LINE
  5
1C41B
330
747D
100
AcDbEntity
  8
部品1
100
AcDbLine
 10
5609.482399800953
 20
5378.52600755111
 30
0.0
 11
5609.881238878696
 21
5374.778790062708
 31
0.0
  0
LINE
  5
1C41C
330
747D
100
AcDbEntity
  8
細線
 48
5.0
100
AcDbLine
 10
5609.329581418173
 20
5319.809238873037
 30
0.0
 11
5609.329581418173
 21
5307.555305525544
 31
0.0
  0
ARC
  5
1C41D
330
747D
100
AcDbEntity
  8
細線
 48
5.0
100
AcDbCircle
 10
5621.829581418174
 20
5320.809238873036
 30
0.0
 40
10.0
100
AcDbArc
 50
180.0
 51
270.0
  0
ARC
  5
1C41E
330
747D
100
AcDbEntity
  8
細線
 48
5.0
100
AcDbCircle
 10
5635.829581418174
 20
5290.809238873037
 30
0.0
 40
3.0
100
AcDbArc
 50
90.0
 51
180.0
  0
LINE
  5
1C41F
330
747D
100
AcDbEntity
  8
細線
 48
5.0
100
AcDbLine
 10
5668.629581418176
 20
5286.809238873036
 30
0.0
 11
5615.029581418178
 21
5286.809238873036
 31
0.0
  0
LINE
  5
1C420
330
747D
100
AcDbEntity
  8
細線
 48
5.0
100
AcDbLine
 10
5661.829581418174
 20
5310.809238873037
 30
0.0
 11
5621.829581418174
 21
5310.809238873037
 31
0.0
  0
LINE
  5
1C421
330
747D
100
AcDbEntity
  8
細線
 48
5.0
100
AcDbLine
 10
5669.129581418177
 20
5300.809238873037
 30
0.0
 11
5669.129581418177
 21
5287.309238873036
 31
0.0
  0
LINE
  5
1C422
330
747D
100
AcDbEntity
  8
細線
 48
5.0
100
AcDbLine
 10
5666.82958141818
 20
5286.809238873036
 30
0.0
 11
5666.829581418173
 21
5252.0
 31
0.0
  0
ARC
  5
1C423
330
747D
100
AcDbEntity
  8
細線
 48
5.0
100
AcDbCircle
 10
5668.629581418176
 20
5287.309238873036
 30
0.0
 40
0.5
100
AcDbArc
 50
270.0
 51
0.000000000000007
  0
ARC
  5
1C424
330
747D
100
AcDbEntity
  8
細線
 48
5.0
100
AcDbCircle
 10
5647.829581418174
 20
5290.809238873037
 30
0.0
 40
3.0
100
AcDbArc
 50
0.000000000000007
 51
90.0
  0
LINE
  5
1C425
330
747D
100
AcDbEntity
  8
細線
 48
5.0
100
AcDbLine
 10
5653.829581418174
 20
5286.809238873036
 30
0.0
 11
5653.829581418174
 21
5252.0
 31
0.0
  0
LINE
  5
1C426
330
747D
100
AcDbEntity
  8
細線
 48
5.0
100
AcDbLine
 10
5650.829581418173
 20
5290.809238873037
 30
0.0
 11
5650.829581418173
 21
5286.809238873036
 31
0.0
  0
LINE
  5
1C427
330
747D
100
AcDbEntity
  8
細線
 48
5.0
100
AcDbLine
 10
5647.829581418174
 20
5293.809238873037
 30
0.0
 11
5635.829581418174
 21
5293.809238873037
 31
0.0
  0
LINE
  5
1C428
330
747D
100
AcDbEntity
  8
細線
 48
5.0
100
AcDbLine
 10
5632.829581418174
 20
5290.809238873037
 30
0.0
 11
5632.829581418174
 21
5286.809238873036
 31
0.0
  0
LINE
  5
1C429
330
747D
100
AcDbEntity
  8
細線
 48
5.0
100
AcDbLine
 10
5614.529581418178
 20
5300.809238873037
 30
0.0
 11
5614.529581418178
 21
5287.309238873036
 31
0.0
  0
LINE
  5
1C42A
330
747D
100
AcDbEntity
  8
細線
 48
5.0
100
AcDbLine
 10
5629.829581418178
 20
5286.809238873036
 30
0.0
 11
5629.829581418174
 21
5252.0
 31
0.0
  0
LINE
  5
1C42B
330
747D
100
AcDbEntity
  8
細線
 48
5.0
100
AcDbLine
 10
5616.829581418172
 20
5286.809238873036
 30
0.0
 11
5616.829581418174
 21
5252.0
 31
0.0
  0
ARC
  5
1C42C
330
747D
100
AcDbEntity
  8
細線
 48
5.0
100
AcDbCircle
 10
5615.029581418178
 20
5287.309238873036
 30
0.0
 40
0.5
100
AcDbArc
 50
180.0
 51
270.0
  0
ARC
  5
1C42D
330
747D
100
AcDbEntity
  8
細線
 48
5.0
100
AcDbCircle
 10
5611.329581418174
 20
5307.555305525544
 30
0.0
 40
2.0
100
AcDbArc
 50
180.0
 51
220.9143832200251
  0
LINE
  5
1C42E
330
747D
100
AcDbEntity
  8
細線
 48
5.0
100
AcDbLine
 10
5614.529581418178
 20
5300.809238873037
 30
0.0
 11
5609.818203252595
 21
5306.245444448709
 31
0.0
  0
LINE
  5
1C42F
330
747D
100
AcDbEntity
  8
細線
 48
5.0
100
AcDbLine
 10
5643.129581418176
 20
5330.509238873037
 30
0.0
 11
5623.529581418178
 21
5330.509238873037
 31
0.0
  0
ARC
  5
1C430
330
747D
100
AcDbEntity
  8
細線
 48
5.0
100
AcDbCircle
 10
5643.129581418176
 20
5350.509238873037
 30
0.0
 40
20.0
100
AcDbArc
 50
270.0
 51
359.9999999999999
  0
LINE
  5
1C431
330
747D
100
AcDbEntity
  8
細線
 48
5.0
100
AcDbLine
 10
5671.829581418177
 20
5362.071889058359
 30
0.0
 11
5671.829581418173
 21
5320.809238873036
 31
0.0
  0
LINE
  5
1C432
330
747D
100
AcDbEntity
  8
細線
 48
5.0
100
AcDbLine
 10
5671.829581418173
 20
5359.809238873037
 30
0.0
 11
5671.829581418173
 21
5332.809238873037
 31
0.0
  0
LINE
  5
1C433
330
747D
100
AcDbEntity
  8
細線
 48
5.0
100
AcDbLine
 10
5672.329581418174
 20
5320.809238873036
 30
0.0
 11
5672.329581418174
 21
5320.809238873036
 31
0.0
  0
LINE
  5
1C434
330
747D
100
AcDbEntity
  8
細線
 48
5.0
100
AcDbLine
 10
5673.329581418173
 20
5320.809238873036
 30
0.0
 11
5671.829581418173
 21
5320.809238873036
 31
0.0
  0
LINE
  5
1C435
330
747D
100
AcDbEntity
  8
細線
 48
5.0
100
AcDbLine
 10
5611.829581418174
 20
5320.809238873036
 30
0.0
 11
5611.829581418174
 21
5345.809238873036
 31
0.0
  0
LINE
  5
1C436
330
747D
100
AcDbEntity
  8
細線
 48
5.0
100
AcDbLine
 10
5618.529581418179
 20
5335.509238873037
 30
0.0
 11
5616.829581418177
 21
5335.509238873037
 31
0.0
  0
ARC
  5
1C437
330
747D
100
AcDbEntity
  8
細線
 48
5.0
100
AcDbCircle
 10
5623.529581418178
 20
5333.009238873037
 30
0.0
 40
2.5
100
AcDbArc
 50
180.0
 51
270.0
  0
ARC
  5
1C438
330
747D
100
AcDbEntity
  8
細線
 48
5.0
100
AcDbCircle
 10
5618.529581418179
 20
5333.009238873037
 30
0.0
 40
2.5
100
AcDbArc
 50
0.000000000000007
 51
90.0
  0
LINE
  5
1C439
330
747D
100
AcDbEntity
  8
細線
 48
5.0
100
AcDbLine
 10
5621.029581418178
 20
5333.009238873037
 30
0.0
 11
5621.029581418178
 21
5333.009238873037
 31
0.0
  0
ARC
  5
1C43A
330
747D
100
AcDbEntity
  8
細線
 48
5.0
100
AcDbCircle
 10
5610.329581418174
 20
5319.809238873037
 30
0.0
 40
1.0
100
AcDbArc
 50
90.0
 51
180.0
  0
LINE
  5
1C43B
330
747D
100
AcDbEntity
  8
細線
 48
5.0
100
AcDbLine
 10
5611.329581418174
 20
5320.809238873036
 30
0.0
 11
5611.329581418174
 21
5320.809238873036
 31
0.0
  0
LINE
  5
1C43C
330
747D
100
AcDbEntity
  8
細線
 48
5.0
100
AcDbLine
 10
5616.829581418177
 20
5345.809238873036
 30
0.0
 11
5616.829581418177
 21
5345.809238873036
 31
0.0
  0
LINE
  5
1C43D
330
747D
100
AcDbEntity
  8
細線
 48
5.0
100
AcDbLine
 10
5616.829581418177
 20
5335.509238873037
 30
0.0
 11
5616.829581418177
 21
5345.809238873036
 31
0.0
  0
LINE
  5
1C43E
330
747D
100
AcDbEntity
  8
細線
 48
5.0
100
AcDbLine
 10
5611.829581418174
 20
5320.809238873036
 30
0.0
 11
5610.329581418174
 21
5320.809238873036
 31
0.0
  0
LINE
  5
1C43F
330
747D
100
AcDbEntity
  8
細線
 48
5.0
100
AcDbLine
 10
5663.129581418175
 20
5361.85562509697
 30
0.0
 11
5663.129581418177
 21
5350.509238873037
 31
0.0
  0
LINE
  5
1C440
330
747D
100
AcDbEntity
  8
細線
 48
5.0
100
AcDbLine
 10
5616.829581418177
 20
5345.809238873036
 30
0.0
 11
5611.82958141817
 21
5345.809238873036
 31
0.0
  0
LINE
  5
1C441
330
747D
100
AcDbEntity
  8
細線
 48
5.0
100
AcDbLine
 10
5692.829581418173
 20
5305.0
 30
0.0
 11
5675.829581418174
 21
5305.0
 31
0.0
  0
LINE
  5
1C442
330
747D
100
AcDbEntity
  8
細線
 48
5.0
100
AcDbLine
 10
5674.329581418174
 20
5319.809238873037
 30
0.0
 11
5674.329581418174
 21
5307.555305525544
 31
0.0
  0
ARC
  5
1C443
330
747D
100
AcDbEntity
  8
細線
 48
5.0
100
AcDbCircle
 10
5672.329581418174
 20
5307.555305525544
 30
0.0
 40
2.0
100
AcDbArc
 50
319.085616779975
 51
0.0000000000000579
  0
LINE
  5
1C444
330
747D
100
AcDbEntity
  8
部品1
100
AcDbLine
 10
5692.829581418173
 20
5315.0
 30
0.0
 11
5692.829581418173
 21
5275.0
 31
0.0
  0
ARC
  5
1C445
330
747D
100
AcDbEntity
  8
細線
 48
5.0
100
AcDbCircle
 10
5671.613616867363
 20
5255.0
 30
0.0
 40
3.0
100
AcDbArc
 50
269.999999999999
 51
314.1275428770974
  0
LINE
  5
1C446
330
747D
100
AcDbEntity
  8
細線
 48
5.0
100
AcDbLine
 10
5692.829581418176
 20
5232.0
 30
0.0
 11
5615.629581418171
 21
5232.0
 31
0.0
  0
LINE
  5
1C447
330
747D
100
AcDbEntity
  8
細線
 48
5.0
100
AcDbLine
 10
5692.829581418172
 20
5271.400000000001
 30
0.0
 11
5673.702390655736
 21
5252.846624960439
 31
0.0
  0
ARC
  5
1C448
330
747D
100
AcDbEntity
  8
細線
 48
5.0
100
AcDbCircle
 10
5675.829581418174
 20
5308.0
 30
0.0
 40
3.0
100
AcDbArc
 50
222.3153150487441
 51
270.0
  0
LINE
  5
1C449
330
747D
100
AcDbEntity
  8
細線
 48
5.0
100
AcDbLine
 10
5692.829581418173
 20
5360.0
 30
0.0
 11
5671.829581418172
 21
5360.0
 31
0.0
  0
ARC
  5
1C44A
330
747D
100
AcDbEntity
  8
細線
 48
5.0
100
AcDbCircle
 10
5661.829581418174
 20
5320.809238873036
 30
0.0
 40
10.0
100
AcDbArc
 50
270.0
 51
0.000000000000007
  0
LINE
  5
1C44B
330
747D
100
AcDbEntity
  8
細線
 48
5.0
100
AcDbLine
 10
5669.129581418177
 20
5300.809238873037
 30
0.0
 11
5673.840959583756
 21
5306.245444448709
 31
0.0
  0
ARC
  5
1C44C
330
747D
100
AcDbEntity
  8
細線
 48
5.0
100
AcDbCircle
 10
5673.329581418173
 20
5319.809238873037
 30
0.0
 40
1.0
100
AcDbArc
 50
0.000000000000007
 51
90.0
  0
LINE
  5
1C44D
330
747D
100
AcDbEntity
  8
部品1
 48
50.0
100
AcDbLine
 10
5615.92149199076
 20
5476.025833613869
 30
0.0
 11
5612.826151637425
 21
5475.977108374543
 31
0.0
  0
ARC
  5
1C44E
330
747D
100
AcDbEntity
  8
部品1
100
AcDbCircle
 10
5615.897882695189
 20
5477.525647802748
 30
0.0
 40
1.5
100
AcDbArc
 50
270.9018459011011
 51
339.5960814224101
  0
ARC
  5
1C44F
330
747D
100
AcDbEntity
  8
部品1
100
AcDbCircle
 10
5623.219786405295
 20
5482.867933488349
 30
0.0
 40
3.5
100
AcDbArc
 50
91.03524671598787
 51
159.5960814224235
  0
ARC
  5
1C450
330
747D
100
AcDbEntity
  8
部品1
100
AcDbCircle
 10
5613.329581418174
 20
5460.485286065472
 30
0.0
 40
15.5
100
AcDbArc
 50
91.86125648319634
 51
186.0754638750989
  0
LINE
  5
1C451
330
747D
100
AcDbEntity
  8
部品1
100
AcDbLine
 10
5617.323376691625
 20
5477.055403573377
 30
0.0
 11
5619.939382888232
 21
5484.088160010451
 31
0.0
  0
LINE
  5
1C618
330
747D
100
AcDbEntity
  8
部品1
 62
     2
 48
50.0
100
AcDbLine
 10
6552.829581418173
 20
5169.999999999951
 30
0.0
 11
5762.829581418174
 21
5169.999999999951
 31
0.0
  0
LINE
  5
1C619
330
747D
100
AcDbEntity
  8
部品1
 62
     2
 48
50.0
100
AcDbLine
 10
6552.829581418173
 20
5141.999999999951
 30
0.0
 11
5762.829581418174
 21
5141.999999999951
 31
0.0
  0
LINE
  5
1C61A
330
747D
100
AcDbEntity
  8
部品1
 62
     2
 48
50.0
100
AcDbLine
 10
6526.329581418173
 20
5138.999999999951
 30
0.0
 11
5790.329581418173
 21
5138.999999999951
 31
0.0
  0
LINE
  5
1C61B
330
747D
100
AcDbEntity
  8
部品1
 62
     2
 48
50.0
100
AcDbLine
 10
5790.329581418173
 20
5141.999999999951
 30
0.0
 11
5790.329581418173
 21
3274.999999999951
 31
0.0
  0
ARC
  5
1C61C
330
747D
100
AcDbEntity
  8
部品1
 62
     2
 48
50.0
100
AcDbCircle
 10
5854.329581418173
 20
4268.999999999951
 30
0.0
 40
20.0
100
AcDbArc
 50
23.57817800000002
 51
336.4218220000001
  0
CIRCLE
  5
1C61D
330
747D
100
AcDbEntity
  8
部品1
 62
     2
 48
50.0
100
AcDbCircle
 10
5854.329581418173
 20
4485.499999999951
 30
0.0
 40
20.0
  0
CIRCLE
  5
1C61E
330
747D
100
AcDbEntity
  8
部品1
 62
     2
 48
50.0
100
AcDbCircle
 10
5854.329581418173
 20
4333.999999999951
 30
0.0
 40
20.0
  0
ARC
  5
1C61F
330
747D
100
AcDbEntity
  8
部品1
 62
     2
 48
50.0
100
AcDbCircle
 10
5946.32958141818
 20
4268.999999999951
 30
0.0
 40
8.0
100
AcDbArc
 50
270.0
 51
90.0
  0
CIRCLE
  5
1C620
330
747D
100
AcDbEntity
  8
部品1
 62
     2
 48
50.0
100
AcDbCircle
 10
5854.329581418173
 20
4485.499999999951
 30
0.0
 40
10.0
  0
CIRCLE
  5
1C621
330
747D
100
AcDbEntity
  8
部品1
 62
     2
 48
50.0
100
AcDbCircle
 10
5854.329581418173
 20
4333.999999999951
 30
0.0
 40
10.0
  0
ARC
  5
1C622
330
747D
100
AcDbEntity
  8
部品1
 62
     2
 48
50.0
100
AcDbCircle
 10
5854.329581418173
 20
4268.999999999951
 30
0.0
 40
8.0
100
AcDbArc
 50
90.0
 51
270.0
  0
LINE
  5
1C623
330
747D
100
AcDbEntity
  8
部品1
 62
     2
 48
50.0
100
AcDbLine
 10
5946.32958141818
 20
4260.999999999958
 30
0.0
 11
5854.329581418173
 21
4260.999999999958
 31
0.0
  0
LINE
  5
1C624
330
747D
100
AcDbEntity
  8
部品1
 62
     2
 48
50.0
100
AcDbLine
 10
5854.329581418173
 20
4276.999999999943
 30
0.0
 11
5946.32958141818
 21
4276.999999999943
 31
0.0
  0
LINE
  5
1C625
330
747D
100
AcDbEntity
  8
部品1
 48
50.0
100
AcDbLine
 10
6552.829581418174
 20
5274.999999999951
 30
0.0
 11
6552.829581418173
 21
3274.999999999951
 31
0.0
  0
LINE
  5
1C626
330
747D
100
AcDbEntity
  8
部品1
 62
     2
 48
50.0
100
AcDbLine
 10
6526.329581418173
 20
5141.999999999951
 30
0.0
 11
6526.329581418173
 21
3274.999999999951
 31
0.0
  0
DIMENSION
  5
1C627
330
747D
100
AcDbEntity
  8
寸法
 48
50.0
100
AcDbDimension
  2
*D39
 10
5344.899621195022
 20
5169.999999999951
 30
0.0
 11
5244.899621195021
 21
4222.499999999951
 31
0.0
 12
5392.365022658458
 22
-0.0000000000050022
 32
0.0
 70
    32
 71
     5
 42
-1.0
  3
INABA_S50G
100
AcDbAlignedDimension
 13
5692.829581418173
 23
3274.999999999951
 33
0.0
 14
5762.829581418174
 24
5169.999999999951
 34
0.0
 50
90.0
100
AcDbRotatedDimension
  0
LINE
  5
1C628
330
747D
100
AcDbEntity
  8
部品1
 62
     2
 48
50.0
100
AcDbLine
 10
5790.329581418173
 20
3317.999999999951
 30
0.0
 11
6526.329581418173
 21
3317.999999999951
 31
0.0
  0
LINE
  5
1C629
330
747D
100
AcDbEntity
  8
部品1
 62
     2
 48
50.0
100
AcDbLine
 10
5790.329581418173
 20
3308.999999999951
 30
0.0
 11
6526.329581418173
 21
3308.999999999951
 31
0.0
  0
LINE
  5
1C66C
330
747D
100
AcDbEntity
  8
部品1
 48
50.0
100
AcDbLine
 10
12397.82958141817
 20
9896.736797361926
 30
0.0
 11
12412.82958141817
 21
9896.736797361926
 31
0.0
  0
LINE
  5
1C66D
330
747D
100
AcDbEntity
  8
部品1
 48
50.0
100
AcDbLine
 10
12397.82958141817
 20
9860.736797361926
 30
0.0
 11
12412.82958141817
 21
9860.736797361926
 31
0.0
  0
LINE
  5
1C66E
330
747D
100
AcDbEntity
  8
部品1
 48
50.0
100
AcDbLine
 10
12362.82958141817
 20
9878.736797361931
 30
0.0
 11
12397.82958141817
 21
9878.736797361931
 31
0.0
  0
LINE
  5
1C66F
330
747D
100
AcDbEntity
  8
部品1
 48
50.0
100
AcDbLine
 10
14242.82958141817
 20
9878.736797361931
 30
0.0
 11
14207.82958141817
 21
9878.736797361931
 31
0.0
  0
LINE
  5
1C670
330
747D
100
AcDbEntity
  8
部品1
 48
50.0
100
AcDbLine
 10
14207.82958141817
 20
9860.736797361926
 30
0.0
 11
14192.82958141817
 21
9860.736797361926
 31
0.0
  0
LINE
  5
1C671
330
747D
100
AcDbEntity
  8
部品1
 48
50.0
100
AcDbLine
 10
14207.82958141817
 20
9896.736797361926
 30
0.0
 11
14192.82958141817
 21
9896.736797361926
 31
0.0
  0
INSERT
  5
1CCCF
330
747D
100
AcDbEntity
  8
部品1
 48
50.0
100
AcDbBlockReference
  2
A$C5FCD7CC6
 10
7682.293191979282
 20
11500.94604722332
 30
0.0
 50
359.3813630597402
  0
DIMENSION
  5
1CCD0
330
747D
100
AcDbEntity
  8
寸法
 48
50.0
100
AcDbDimension
  2
*D43
 10
7572.829581418176
 20
12327.01792807845
 30
0.0
 11
7990.388636536292
 21
12327.01792807845
 31
0.0
 12
2115.637365629815
 22
-2159.477676522861
 32
0.0
 70
   160
 71
     5
 42
-1.0
  3
INABA_S50G
100
AcDbAlignedDimension
 13
7707.829581418176
 23
11633.73679736192
 33
0.0
 14
7572.829581418176
 24
11631.29728927304
 34
0.0
100
AcDbRotatedDimension
  0
MTEXT
  5
1CCD1
102
{ACAD_REACTORS
330
1CCD2
102
}
330
747D
100
AcDbEntity
  8
寸法
 62
     7
 48
50.0
100
AcDbMText
 10
7955.640527615017
 20
12174.04804154394
 30
0.0
 40
150.0
 41
0.0
 71
     4
 72
     1
  1
\A1;鼻隠シ前
  7
STYLE1
 73
     1
 44
1.0
  0
LEADER
  5
1CCD2
330
747D
100
AcDbEntity
  8
寸法
 48
50.0
100
AcDbLeader
  3
INABA_S50G
 71
     0
 73
     0
 74
     0
 75
     1
 40
150.0
 41
697.5
 76
     3
 10
7706.960128916936
 20
11573.51069687733
 30
0.0
 10
7805.640527615017
 20
12074.04804154394
 30
0.0
 10
7930.640527615017
 20
12074.04804154394
 30
0.0
340
1CCD1
1001
ACAD
1000
DSTYLE
1002
{
1070
     6
1000
DOTSMALL
1002
}
  0
MTEXT
  5
1CCD3
102
{ACAD_REACTORS
330
1CD41
102
}
330
747D
100
AcDbEntity
  8
寸法
 62
     7
 48
50.0
100
AcDbMText
 10
6054.658491557252
 20
11805.29159607865
 30
0.0
 40
150.0
 41
0.0
 71
     6
 72
     1
  1
\A1;妻板
  7
STYLE1
 73
     1
 44
1.0
  0
DIMENSION
  5
1CCD4
330
747D
100
AcDbEntity
  8
寸法
 48
50.0
100
AcDbDimension
  2
*D44
 10
5597.829581418175
 20
12327.01792807844
 30
0.0
 11
5265.270526300067
 21
12327.01792807844
 31
0.0
 12
2115.637365629815
 22
-2159.477676522861
 32
0.0
 70
   160
 71
     5
 42
-1.0
  3
INABA_S50G
100
AcDbAlignedDimension
 13
5692.829581418176
 23
11576.36318119755
 33
0.0
 14
5597.829581418175
 24
11573.73679736192
 34
0.0
100
AcDbRotatedDimension
1001
ACAD
1000
DSTYLE
1002
{
1002
}
  0
MTEXT
  5
1CCD5
102
{ACAD_REACTORS
330
1CCD6
102
}
330
747D
100
AcDbEntity
  8
寸法
 62
     7
 48
50.0
100
AcDbMText
 10
5247.416291219705
 20
11900.91283849599
 30
0.0
 40
150.0
 41
0.0
 71
     6
 72
     1
  1
\A1;鼻隠シ後
  7
STYLE1
 73
     1
 44
1.0
  0
LEADER
  5
1CCD6
330
747D
100
AcDbEntity
  8
寸法
 48
50.0
100
AcDbLeader
  3
INABA_S50G
 71
     0
 73
     0
 75
     1
 40
150.0
 41
719.9999999999995
 76
     3
 10
5601.637200176599
 20
11559.39745668354
 30
0.0
 10
5397.416291219706
 20
11800.91283849599
 30
0.0
 10
5272.416291219706
 20
11800.91283849599
 30
0.0
340
1CCD5
1001
ACAD
1000
DSTYLE
1002
{
1070
     6
1000
DOTSMALL
1002
}
  0
DIMENSION
  5
1CCD7
330
747D
100
AcDbEntity
  8
寸法
 48
50.0
100
AcDbDimension
  2
*D45
 10
5692.829581418176
 20
12327.01792807844
 30
0.0
 11
6632.829581418175
 21
12427.01792807844
 31
0.0
 70
    32
  1
柱外寸法 <>
 71
     5
 42
-1.0
  3
INABA_S50G
100
AcDbAlignedDimension
 13
7572.829581418176
 23
11588.73679736192
 33
0.0
 14
5692.829581418176
 24
11576.36318119755
 34
0.0
100
AcDbRotatedDimension
1001
ACAD
1000
DSTYLE
1002
{
1070
   287
1070
     4
1070
    75
1070
     1
1070
   279
1070
     1
1002
}
  0
MTEXT
  5
1CCD8
102
{ACAD_REACTORS
330
1CCD9
102
}
330
747D
100
AcDbEntity
  8
部品1
 62
     7
 48
50.0
100
AcDbMText
 10
7141.658676662394
 20
12029.0405129501
 30
0.0
 40
150.0
 41
0.0
 71
     6
 72
     1
  1
\A1;屋根パネル
  7
STYLE1
 73
     1
 44
1.0
  0
LEADER
  5
1CCD9
330
747D
100
AcDbEntity
  8
寸法
 48
50.0
100
AcDbLeader
  3
INABA_S50G
 71
     0
 73
     0
 75
     1
 40
150.0
 41
900.0
 76
     3
 10
7423.781098438514
 20
11600.03473650936
 30
0.0
 10
7291.658676662393
 20
11929.0405129501
 30
0.0
 10
7166.658676662393
 20
11929.0405129501
 30
0.0
340
1CCD8
1001
ACAD
1000
DSTYLE
1002
{
1070
     6
1000
DOTSMALL
1002
}
  0
MTEXT
  5
1CCDA
102
{ACAD_REACTORS
330
1CCEC
102
}
330
747D
100
AcDbEntity
  8
寸法
 62
     7
 48
50.0
100
AcDbMText
 10
6596.744357697417
 20
11811.40987824753
 30
0.0
 40
150.0
 41
0.0
 71
     4
 72
     1
  1
\A1;母屋中
  7
STYLE1
 73
     1
 44
1.0
  0
DIMENSION
  5
1CCDB
330
747D
100
AcDbEntity
  8
寸法
 48
50.0
100
AcDbDimension
  2
*D46
 10
5597.829581418175
 20
12643.1736988701
 30
0.0
 11
6652.829581418176
 21
12743.18846264963
 31
0.0
 12
2115.637365629815
 22
-2159.477676522861
 32
0.0
 70
    32
 71
     5
 42
-1.0
  3
INABA_S50G
100
AcDbAlignedDimension
 13
7707.829581418176
 23
11633.73679736192
 33
0.0
 14
5597.829581418175
 24
11573.73679736192
 34
0.0
100
AcDbRotatedDimension
  0
LINE
  5
1CCDC
330
747D
100
AcDbEntity
  8
Ｇ．Ｌ
 48
50.0
100
AcDbLine
 10
9616.654074750144
 20
9228.736797361928
 30
0.0
 11
3908.887401127779
 21
9228.736797361928
 31
0.0
  0
LINE
  5
1CCDD
330
747D
100
AcDbEntity
  8
部品1
 48
50.0
100
AcDbLine
 10
7572.829581418176
 20
9363.736797361928
 30
0.0
 11
5692.829581418176
 21
9363.736797361928
 31
0.0
  0
LINE
  5
1CCDE
330
747D
100
AcDbEntity
  8
部品1
 48
50.0
100
AcDbLine
 10
7522.329581418175
 20
9470.736797361928
 30
0.0
 11
5743.329581418175
 21
9470.736797361928
 31
0.0
  0
LINE
  5
1CCDF
330
747D
100
AcDbEntity
  8
細線
 48
50.0
100
AcDbLine
 10
5743.329581418175
 20
9418.736797361928
 30
0.0
 11
7522.329581418175
 21
9418.736797361928
 31
0.0
  0
LINE
  5
1CCE0
330
747D
100
AcDbEntity
  8
細線
 48
50.0
100
AcDbLine
 10
7522.329581418175
 20
9430.736797361928
 30
0.0
 11
5743.329581418175
 21
9430.736797361928
 31
0.0
  0
TEXT
  5
1CCE1
330
747D
100
AcDbEntity
  8
部品1
100
AcDbText
 10
6136.219245308072
 20
7401.485013130733
 30
0.0
 40
225.0
  1
断面図
  7
STYLE2
100
AcDbText
  0
LINE
  5
1CCE2
330
747D
100
AcDbEntity
  8
部品1
100
AcDbLine
 10
7269.055136608542
 20
7709.831477053232
 30
0.0
 11
5996.60402622781
 21
7709.831477053232
 31
0.0
  0
LINE
  5
1CCE3
330
747D
100
AcDbEntity
  8
部品1
100
AcDbLine
 10
5996.60402622781
 20
7310.010941144016
 30
0.0
 11
7269.055136608542
 21
7310.010941144016
 31
0.0
  0
MTEXT
  5
1CCE4
102
{ACAD_REACTORS
330
1CCE5
102
}
330
747D
100
AcDbEntity
  8
部品1
 62
     7
 48
50.0
100
AcDbMText
 10
6981.063726069703
 20
8716.282041753688
 30
0.0
 40
150.0
 41
0.0
 71
     4
 72
     1
  1
\A1;根太
  7
STYLE1
 73
     1
 44
1.0
  0
LEADER
  5
1CCE5
330
747D
100
AcDbEntity
  8
寸法
 48
50.0
100
AcDbLeader
  3
INABA_S50G
 71
     0
 73
     0
 74
     0
 75
     1
 40
150.0
 41
330.0
 76
     3
 10
6652.829581418176
 20
9382.720225286986
 30
0.0
 10
6831.063726069704
 20
8616.282041753688
 30
0.0
 10
6956.063726069704
 20
8616.282041753688
 30
0.0
340
1CCE4
1001
ACAD
1000
DSTYLE
1002
{
1070
     6
1000
DOTSMALL
1002
}
  0
LINE
  5
1CCE6
330
747D
100
AcDbEntity
  8
細線
 48
50.0
100
AcDbLine
 10
7507.829581418175
 20
11393.73679736192
 30
0.0
 11
5757.829581418183
 21
11393.73679736192
 31
0.0
  0
LINE
  5
1CCE7
330
747D
100
AcDbEntity
  8
部品1
 48
50.0
100
AcDbLine
 10
7522.329581418175
 20
11367.5946617382
 30
0.0
 11
5743.329581418175
 21
11367.5946617382
 31
0.0
  0
LINE
  5
1CCE8
330
747D
100
AcDbEntity
  8
細線
 48
50.0
100
AcDbLine
 10
7507.829581418175
 20
11413.73679736192
 30
0.0
 11
5757.829581418183
 21
11413.73679736192
 31
0.0
  0
LINE
  5
1CCE9
330
747D
100
AcDbEntity
  8
部品1
 48
50.0
100
AcDbLine
 10
7678.313373122115
 20
11633.20342677754
 30
0.0
 11
5623.156550223036
 21
11575.10415954439
 31
0.0
  0
LINE
  5
1CCEA
330
747D
100
AcDbEntity
  8
細線
 48
50.0
100
AcDbLine
 10
7680.332704868276
 20
11600.02980182689
 30
0.0
 11
5646.349321381683
 21
11494.87046700394
 31
0.0
  0
LINE
  5
1CCEB
330
747D
100
AcDbEntity
  8
細線
 48
50.0
100
AcDbLine
 10
7679.196796110925
 20
11622.00045751341
 30
0.0
 11
5645.213412624324
 21
11516.84112269045
 31
0.0
  0
LEADER
  5
1CCEC
330
747D
100
AcDbEntity
  8
寸法
 48
50.0
100
AcDbLeader
  3
INABA_S50G
 71
     0
 73
     0
 74
     0
 75
     1
 40
150.0
 41
540.0000000000002
 76
     3
 10
6367.829581418176
 20
11442.38073961981
 30
0.0
 10
6446.744357697418
 20
11711.40987824753
 30
0.0
 10
6571.744357697418
 20
11711.40987824753
 30
0.0
340
1CCDA
1001
ACAD
1000
DSTYLE
1002
{
1070
     6
1000
DOTSMALL
1002
}
  0
MTEXT
  5
1CCED
102
{ACAD_REACTORS
330
1CCEE
102
}
330
747D
100
AcDbEntity
  8
寸法
 62
     7
 48
50.0
100
AcDbMText
 10
7003.774992040757
 20
11192.92239508252
 30
0.0
 40
150.0
 41
0.0
 71
     4
 72
     1
  1
\A1;天井
  7
STYLE1
 73
     1
 44
1.0
  0
LEADER
  5
1CCEE
330
747D
100
AcDbEntity
  8
寸法
 48
50.0
100
AcDbLeader
  3
INABA_S50G
 71
     0
 73
     0
 74
     0
 75
     1
 40
150.0
 41
359.9999999999999
 76
     3
 10
6720.88235790289
 20
11403.41424305308
 30
0.0
 10
6853.774992040758
 20
11092.92239508252
 30
0.0
 10
6978.774992040758
 20
11092.92239508252
 30
0.0
340
1CCED
1001
ACAD
1000
DSTYLE
1002
{
1070
     6
1000
DOTSMALL
1002
}
  0
MTEXT
  5
1CCEF
102
{ACAD_REACTORS
330
1CCF0
102
}
330
747D
100
AcDbEntity
  8
部品1
 62
     7
 48
50.0
100
AcDbMText
 10
5895.709884325892
 20
8716.282041753681
 30
0.0
 40
150.0
 41
0.0
 71
     6
 72
     1
  1
\A1;土台中央
  7
STYLE1
 73
     1
 44
1.0
  0
LEADER
  5
1CCF0
330
747D
100
AcDbEntity
  8
寸法
 48
50.0
100
AcDbLeader
  3
INABA_S50G
 71
     0
 73
     0
 75
     1
 40
150.0
 41
720.0000000000003
 76
     3
 10
6124.827510860093
 20
9382.720225286979
 30
0.0
 10
6045.709884325892
 20
8616.282041753681
 30
0.0
 10
5920.709884325892
 20
8616.282041753681
 30
0.0
340
1CCEF
1001
ACAD
1000
DSTYLE
1002
{
1070
     6
1000
DOTSMALL
1002
}
  0
LINE
  5
1CCF1
330
747D
100
AcDbEntity
  8
部品1
100
AcDbLine
 10
5996.60402622781
 20
7709.831477053232
 30
0.0
 11
5996.60402622781
 21
7310.010941144016
 31
0.0
  0
DIMENSION
  5
1CCF2
330
747D
100
AcDbEntity
  8
寸法
 48
50.0
100
AcDbDimension
  2
*D47
 10
4068.587517088183
 20
11573.73679736192
 30
0.0
 11
3968.572753308655
 21
10468.73679736192
 31
0.0
 12
2115.637365629815
 22
-2159.477676522861
 32
0.0
 70
    32
 71
     5
 42
-1.0
  3
INABA_S50G
100
AcDbAlignedDimension
 13
5692.829581418176
 23
9363.736797361928
 33
0.0
 14
5597.829581418175
 24
11573.73679736192
 34
0.0
 50
270.0
100
AcDbRotatedDimension
  0
DIMENSION
  5
1CCF3
330
747D
100
AcDbEntity
  8
寸法
 48
50.0
100
AcDbDimension
  2
*D48
 10
4381.549246176574
 20
11390.73679736192
 30
0.0
 11
4281.549246176574
 21
10410.73679736192
 31
0.0
 12
2115.637365629815
 22
-2159.477676522861
 32
0.0
 70
    32
  1
内高 <>
 71
     5
 42
-1.0
  3
INABA_S50G
100
AcDbAlignedDimension
 13
5728.329581418176
 23
9430.736797361928
 33
0.0
 14
5692.829581418176
 24
11390.73679736192
 34
0.0
 50
270.0
100
AcDbRotatedDimension
  0
MTEXT
  5
1CCF4
102
{ACAD_REACTORS
330
1CCF5
102
}
330
747D
100
AcDbEntity
  8
寸法
 62
     7
 48
50.0
100
AcDbMText
 10
5443.436727685729
 20
10508.2825284004
 30
0.0
 40
150.0
 41
0.0
 71
     6
 72
     1
  1
\A1;壁パネル
  7
STYLE1
 73
     1
 44
1.0
  0
LEADER
  5
1CCF5
330
747D
100
AcDbEntity
  8
寸法
 48
50.0
100
AcDbLeader
  3
INABA_S50G
 71
     0
 73
     0
 75
     1
 40
150.0
 41
719.9999999999999
 76
     3
 10
5711.297871013986
 20
10204.29303103481
 30
0.0
 10
5593.436727685729
 20
10408.2825284004
 30
0.0
 10
5468.436727685729
 20
10408.2825284004
 30
0.0
340
1CCF4
1001
ACAD
1000
DSTYLE
1002
{
1070
     6
1000
DOTSMALL
1002
}
  0
LINE
  5
1CCF6
330
747D
100
AcDbEntity
  8
部品1
 48
50.0
100
AcDbLine
 10
5692.829581418176
 20
11473.73679736192
 30
0.0
 11
5692.829581418176
 21
9418.736797361928
 31
0.0
  0
LINE
  5
1CCF7
330
747D
100
AcDbEntity
  8
細線
 48
50.0
100
AcDbLine
 10
5727.829581418176
 20
11378.73679736192
 30
0.0
 11
5727.829581418176
 21
9418.736797361928
 31
0.0
  0
LINE
  5
1CCF8
330
747D
100
AcDbEntity
  8
部品1
 48
50.0
100
AcDbLine
 10
5743.329581418175
 20
11378.73679736192
 30
0.0
 11
5743.329581418175
 21
9430.736797361928
 31
0.0
  0
LINE
  5
1CCF9
330
747D
100
AcDbEntity
  8
部品1
 48
50.0
100
AcDbLine
 10
5779.329581418176
 20
11367.5946617382
 30
0.0
 11
5779.329581418176
 21
9470.736797361928
 31
0.0
  0
LINE
  5
1CCFA
330
747D
100
AcDbEntity
  8
部品1
 48
50.0
100
AcDbLine
 10
6324.829581418176
 20
11063.08847168107
 30
0.0
 11
6324.829581418176
 21
9470.736797361928
 31
0.0
  0
LINE
  5
1CCFB
330
747D
100
AcDbEntity
  8
部品1
 48
50.0
100
AcDbLine
 10
6360.829581418176
 20
11063.08847168107
 30
0.0
 11
6360.829581418176
 21
9470.736797361928
 31
0.0
  0
MTEXT
  5
1CCFC
102
{ACAD_REACTORS
330
1CCFD
102
}
330
747D
100
AcDbEntity
  8
寸法
 62
     7
 48
50.0
100
AcDbMText
 10
5465.808550308865
 20
10099.22034129155
 30
0.0
 40
150.0
 41
0.0
 71
     6
 72
     1
  1
\A1;内壁
  7
STYLE1
 73
     1
 44
1.0
  0
LEADER
  5
1CCFD
330
747D
100
AcDbEntity
  8
寸法
 48
50.0
100
AcDbLeader
  3
INABA_S50G
 71
     0
 73
     0
 75
     1
 40
150.0
 41
320.0
 76
     3
 10
5736.262048626456
 20
9795.230843925967
 30
0.0
 10
5615.808550308865
 20
9999.22034129155
 30
0.0
 10
5490.808550308865
 20
9999.22034129155
 30
0.0
340
1CCFC
1001
ACAD
1000
DSTYLE
1002
{
1070
     6
1000
DOTSMALL
1002
}
  0
MTEXT
  5
1CCFE
102
{ACAD_REACTORS
330
1CCFF
102
}
330
747D
100
AcDbEntity
  8
寸法
 62
     7
 48
50.0
100
AcDbMText
 10
5358.442711368493
 20
9692.226294727511
 30
0.0
 40
150.0
 41
0.0
 71
     6
 72
     1
  1
\A1;土台前後
  7
STYLE1
 73
     1
 44
1.0
  0
LEADER
  5
1CCFF
330
747D
100
AcDbEntity
  8
寸法
 48
50.0
100
AcDbLeader
  3
INABA_S50G
 71
     0
 73
     0
 75
     1
 40
150.0
 41
719.9999999999995
 76
     3
 10
5692.829581418169
 20
9388.236797361928
 30
0.0
 10
5508.442711368495
 20
9592.22629472751
 30
0.0
 10
5383.442711368495
 20
9592.22629472751
 30
0.0
340
1CCFE
1001
ACAD
1000
DSTYLE
1002
{
1070
     6
1000
DOTSMALL
1002
}
  0
MTEXT
  5
1CD00
102
{ACAD_REACTORS
330
1CD01
102
}
330
747D
100
AcDbEntity
  8
部品1
 62
     7
 48
50.0
100
AcDbMText
 10
6402.605247336068
 20
9656.775787169815
 30
0.0
 40
150.0
 41
0.0
 71
     4
 72
     1
  1
\A1;床板
  7
STYLE1
 73
     1
 44
1.0
  0
LEADER
  5
1CD01
330
747D
100
AcDbEntity
  8
寸法
 48
50.0
100
AcDbLeader
  3
INABA_S50G
 71
     0
 73
     0
 74
     0
 75
     1
 40
150.0
 41
319.9999999999999
 76
     3
 10
6216.697078994002
 20
9425.668860537934
 30
0.0
 10
6252.605247336068
 20
9556.775787169815
 30
0.0
 10
6377.605247336068
 20
9556.775787169815
 30
0.0
340
1CD00
1001
ACAD
1000
DSTYLE
1002
{
1070
     6
1000
DOTSMALL
1002
}
  0
LINE
  5
1CD02
330
747D
100
AcDbEntity
  8
部品1
 48
50.0
100
AcDbLine
 10
5752.329581418183
 20
9470.736797361928
 30
0.0
 11
5752.329581418183
 21
9430.736797361928
 31
0.0
  0
LINE
  5
1CD03
330
747D
100
AcDbEntity
  8
細線
 48
50.0
100
AcDbLine
 10
5780.12002962912
 20
9028.736797361927
 30
0.0
 11
5623.829581418175
 21
9185.02724557288
 31
0.0
  0
LINE
  5
1CD04
330
747D
100
AcDbEntity
  8
細線
 48
50.0
100
AcDbLine
 10
5753.603525334626
 20
9028.736797361927
 30
0.0
 11
5623.829581418175
 21
9158.510741278385
 31
0.0
  0
LINE
  5
1CD05
330
747D
100
AcDbEntity
  8
細線
 48
50.0
100
AcDbLine
 10
5727.087021040126
 20
9028.736797361927
 30
0.0
 11
5623.829581418175
 21
9131.994236983883
 31
0.0
  0
LINE
  5
1CD06
330
747D
100
AcDbEntity
  8
部品1
 48
50.0
100
AcDbLine
 10
5823.829581418175
 20
9028.736797361927
 30
0.0
 11
5623.829581418175
 21
9028.736797361927
 31
0.0
  0
LINE
  5
1CD07
330
747D
100
AcDbEntity
  8
部品1
 48
50.0
100
AcDbLine
 10
5623.829581418175
 20
9028.736797361927
 30
0.0
 11
5623.829581418175
 21
9228.736797361928
 31
0.0
  0
LINE
  5
1CD08
330
747D
100
AcDbEntity
  8
部品1
 48
50.0
100
AcDbLine
 10
5692.829581418176
 20
9412.736797361928
 30
0.0
 11
5692.829581418176
 21
9363.736797361928
 31
0.0
  0
LINE
  5
1CD09
330
747D
100
AcDbEntity
  8
部品1
 48
50.0
100
AcDbLine
 10
5698.829581418175
 20
9412.736797361928
 30
0.0
 11
5698.829581418175
 21
9418.736797361928
 31
0.0
  0
LINE
  5
1CD0A
330
747D
100
AcDbEntity
  8
部品1
 48
50.0
100
AcDbLine
 10
5692.829581418176
 20
9412.736797361928
 30
0.0
 11
5698.829581418175
 21
9412.736797361928
 31
0.0
  0
LINE
  5
1CD0B
330
747D
100
AcDbEntity
  8
破線
 48
3.0
100
AcDbLine
 10
5702.829581418176
 20
9228.736797361928
 30
0.0
 11
5702.829581418176
 21
9122.736797361929
 31
0.0
  0
LINE
  5
1CD0C
330
747D
100
AcDbEntity
  8
部品1
 48
50.0
100
AcDbLine
 10
5692.829581418176
 20
9363.736797361928
 30
0.0
 11
5692.829581418176
 21
9228.736797361928
 31
0.0
  0
LINE
  5
1CD0D
330
747D
100
AcDbEntity
  8
部品1
 48
50.0
100
AcDbLine
 10
5757.329581418176
 20
9411.736797361928
 30
0.0
 11
5781.329581418176
 21
9411.736797361928
 31
0.0
  0
LINE
  5
1CD0E
330
747D
100
AcDbEntity
  8
部品1
 48
50.0
100
AcDbLine
 10
5781.329581418176
 20
9411.736797361928
 30
0.0
 11
5781.329581418176
 21
9363.736797361928
 31
0.0
  0
LINE
  5
1CD0F
330
747D
100
AcDbEntity
  8
部品1
 48
50.0
100
AcDbLine
 10
5752.329581418183
 20
9430.736797361928
 30
0.0
 11
5743.329581418175
 21
9430.736797361928
 31
0.0
  0
LINE
  5
1CD10
330
747D
100
AcDbEntity
  8
部品1
 48
50.0
100
AcDbLine
 10
5757.329581418176
 20
9418.736797361928
 30
0.0
 11
5743.329581418175
 21
9418.736797361928
 31
0.0
  0
LINE
  5
1CD11
330
747D
100
AcDbEntity
  8
部品1
 48
50.0
100
AcDbLine
 10
5757.329581418176
 20
9418.736797361928
 30
0.0
 11
5757.329581418176
 21
9411.736797361928
 31
0.0
  0
LINE
  5
1CD12
330
747D
100
AcDbEntity
  8
部品1
 48
50.0
100
AcDbLine
 10
5728.329581418176
 20
9418.736797361928
 30
0.0
 11
5728.329581418176
 21
9430.736797361928
 31
0.0
  0
LINE
  5
1CD13
330
747D
100
AcDbEntity
  8
部品1
 48
50.0
100
AcDbLine
 10
5728.329581418176
 20
9430.736797361928
 30
0.0
 11
5743.329581418175
 21
9430.736797361928
 31
0.0
  0
LINE
  5
1CD14
330
747D
100
AcDbEntity
  8
部品1
 48
50.0
100
AcDbLine
 10
5743.329581418175
 20
9430.736797361928
 30
0.0
 11
5743.329581418175
 21
9418.736797361928
 31
0.0
  0
LINE
  5
1CD15
330
747D
100
AcDbEntity
  8
部品1
 48
50.0
100
AcDbLine
 10
6038.829581418183
 20
9418.736797361928
 30
0.0
 11
6032.829581418183
 21
9418.736797361928
 31
0.0
  0
LINE
  5
1CD16
330
747D
100
AcDbEntity
  8
部品1
 48
50.0
100
AcDbLine
 10
6072.829581418183
 20
9418.736797361928
 30
0.0
 11
6066.829581418183
 21
9418.736797361928
 31
0.0
  0
LINE
  5
1CD17
330
747D
100
AcDbEntity
  8
部品1
 48
50.0
100
AcDbLine
 10
6066.829581418183
 20
9412.736797361928
 30
0.0
 11
6038.829581418183
 21
9412.736797361928
 31
0.0
  0
LINE
  5
1CD18
330
747D
100
AcDbEntity
  8
部品1
 48
50.0
100
AcDbLine
 10
6038.829581418183
 20
9418.736797361928
 30
0.0
 11
6038.829581418183
 21
9412.736797361928
 31
0.0
  0
LINE
  5
1CD19
330
747D
100
AcDbEntity
  8
部品1
 48
50.0
100
AcDbLine
 10
6066.829581418183
 20
9412.736797361928
 30
0.0
 11
6066.829581418183
 21
9418.736797361928
 31
0.0
  0
LINE
  5
1CD1A
330
747D
100
AcDbEntity
  8
部品1
 48
50.0
100
AcDbLine
 10
6032.829581418183
 20
9418.736797361928
 30
0.0
 11
6032.829581418183
 21
9363.736797361928
 31
0.0
  0
LINE
  5
1CD1B
330
747D
100
AcDbEntity
  8
部品1
 48
50.0
100
AcDbLine
 10
6072.829581418183
 20
9363.736797361928
 30
0.0
 11
6072.829581418183
 21
9418.736797361928
 31
0.0
  0
LINE
  5
1CD1C
330
747D
100
AcDbEntity
  8
破線
 48
3.0
100
AcDbLine
 10
5744.829581418176
 20
9228.736797361928
 30
0.0
 11
5744.829581418176
 21
9122.736797361929
 31
0.0
  0
LINE
  5
1CD1D
330
747D
100
AcDbEntity
  8
部品1
 48
50.0
100
AcDbLine
 10
5823.829581418175
 20
9228.736797361928
 30
0.0
 11
5823.829581418175
 21
9028.736797361927
 31
0.0
  0
LINE
  5
1CD1E
330
747D
100
AcDbEntity
  8
細線
 48
50.0
100
AcDbLine
 10
5823.829581418175
 20
9135.02724557288
 30
0.0
 11
5730.120029629112
 21
9228.736797361928
 31
0.0
  0
LINE
  5
1CD1F
330
747D
100
AcDbEntity
  8
部品1
 48
50.0
100
AcDbLine
 10
5892.829581418176
 20
9363.736797361928
 30
0.0
 11
5892.829581418176
 21
9228.736797361928
 31
0.0
  0
LINE
  5
1CD20
330
747D
100
AcDbEntity
  8
細線
 48
50.0
100
AcDbLine
 10
5769.039133207232
 20
9228.736797361928
 30
0.0
 11
5892.829581418176
 21
9352.527245572872
 31
0.0
  0
LINE
  5
1CD21
330
747D
100
AcDbEntity
  8
細線
 48
50.0
100
AcDbLine
 10
5795.555637501725
 20
9228.736797361928
 30
0.0
 11
5892.829581418176
 21
9326.010741278386
 31
0.0
  0
LINE
  5
1CD22
330
747D
100
AcDbEntity
  8
部品1
 48
50.0
100
AcDbLine
 10
5692.829581418176
 20
9418.736797361928
 30
0.0
 11
5728.329581418176
 21
9418.736797361928
 31
0.0
  0
LINE
  5
1CD23
330
747D
100
AcDbEntity
  8
細線
 48
50.0
100
AcDbLine
 10
5823.829581418168
 20
9081.994236983884
 30
0.0
 11
5677.087021040147
 21
9228.736797361928
 31
0.0
  0
LINE
  5
1CD24
330
747D
100
AcDbEntity
  8
細線
 48
50.0
100
AcDbLine
 10
5823.829581418175
 20
9108.510741278385
 30
0.0
 11
5703.603525334641
 21
9228.736797361928
 31
0.0
  0
LINE
  5
1CD25
330
747D
100
AcDbEntity
  8
破線
 48
3.0
100
AcDbLine
 10
5744.829581418176
 20
9122.736797361929
 30
0.0
 11
5702.829581418176
 21
9122.736797361929
 31
0.0
  0
LINE
  5
1CD26
330
747D
100
AcDbEntity
  8
細線
 48
50.0
100
AcDbLine
 10
5692.829581418176
 20
9276.010741278378
 30
0.0
 11
5780.555637501717
 21
9363.736797361928
 31
0.0
  0
LINE
  5
1CD27
330
747D
100
AcDbEntity
  8
細線
 48
50.0
100
AcDbLine
 10
5692.829581418176
 20
9302.527245572873
 30
0.0
 11
5754.039133207232
 21
9363.736797361928
 31
0.0
  0
LINE
  5
1CD28
330
747D
100
AcDbEntity
  8
部品1
 48
50.0
100
AcDbLine
 10
6328.829581418183
 20
9418.736797361928
 30
0.0
 11
6322.829581418183
 21
9418.736797361928
 31
0.0
  0
LINE
  5
1CD29
330
747D
100
AcDbEntity
  8
部品1
 48
50.0
100
AcDbLine
 10
6328.829581418183
 20
9418.736797361928
 30
0.0
 11
6328.829581418183
 21
9412.736797361928
 31
0.0
  0
LINE
  5
1CD2A
330
747D
100
AcDbEntity
  8
部品1
 48
50.0
100
AcDbLine
 10
6322.829581418183
 20
9418.736797361928
 30
0.0
 11
6322.829581418183
 21
9363.736797361928
 31
0.0
  0
LINE
  5
1CD2B
330
747D
100
AcDbEntity
  8
部品1
 48
50.0
100
AcDbLine
 10
6362.829581418183
 20
9418.736797361928
 30
0.0
 11
6356.829581418183
 21
9418.736797361928
 31
0.0
  0
LINE
  5
1CD2C
330
747D
100
AcDbEntity
  8
部品1
 48
50.0
100
AcDbLine
 10
6356.829581418183
 20
9412.736797361928
 30
0.0
 11
6356.829581418183
 21
9418.736797361928
 31
0.0
  0
LINE
  5
1CD2D
330
747D
100
AcDbEntity
  8
部品1
 48
50.0
100
AcDbLine
 10
6362.829581418183
 20
9363.736797361928
 30
0.0
 11
6362.829581418183
 21
9418.736797361928
 31
0.0
  0
LINE
  5
1CD2E
330
747D
100
AcDbEntity
  8
部品1
 48
50.0
100
AcDbLine
 10
6612.829581418175
 20
9418.736797361928
 30
0.0
 11
6612.829581418175
 21
9363.736797361928
 31
0.0
  0
LINE
  5
1CD2F
330
747D
100
AcDbEntity
  8
部品1
 48
50.0
100
AcDbLine
 10
6618.829581418175
 20
9418.736797361928
 30
0.0
 11
6618.829581418175
 21
9412.736797361928
 31
0.0
  0
LINE
  5
1CD30
330
747D
100
AcDbEntity
  8
部品1
 48
50.0
100
AcDbLine
 10
6618.829581418175
 20
9418.736797361928
 30
0.0
 11
6612.829581418175
 21
9418.736797361928
 31
0.0
  0
LINE
  5
1CD31
330
747D
100
AcDbEntity
  8
部品1
 48
50.0
100
AcDbLine
 10
6652.829581418176
 20
9363.736797361928
 30
0.0
 11
6652.829581418176
 21
9418.736797361928
 31
0.0
  0
LINE
  5
1CD32
330
747D
100
AcDbEntity
  8
部品1
 48
50.0
100
AcDbLine
 10
6646.829581418176
 20
9412.736797361928
 30
0.0
 11
6646.829581418176
 21
9418.736797361928
 31
0.0
  0
LINE
  5
1CD33
330
747D
100
AcDbEntity
  8
部品1
 48
50.0
100
AcDbLine
 10
6652.829581418176
 20
9418.736797361928
 30
0.0
 11
6646.829581418176
 21
9418.736797361928
 31
0.0
  0
LINE
  5
1CD34
330
747D
100
AcDbEntity
  8
部品1
 48
50.0
100
AcDbLine
 10
6646.829581418176
 20
9412.736797361928
 30
0.0
 11
6618.829581418175
 21
9412.736797361928
 31
0.0
  0
LINE
  5
1CD35
330
747D
100
AcDbEntity
  8
部品1
 48
50.0
100
AcDbLine
 10
6732.829581418176
 20
9363.736797361928
 30
0.0
 11
6732.829581418176
 21
9228.736797361928
 31
0.0
  0
LINE
  5
1CD36
330
747D
100
AcDbEntity
  8
部品1
 48
50.0
100
AcDbLine
 10
6532.829581418176
 20
9363.736797361928
 30
0.0
 11
6532.829581418176
 21
9228.736797361928
 31
0.0
  0
LINE
  5
1CD37
330
747D
100
AcDbEntity
  8
細線
 48
50.0
100
AcDbLine
 10
6609.039133207232
 20
9228.736797361928
 30
0.0
 11
6732.829581418176
 21
9352.527245572872
 31
0.0
  0
LINE
  5
1CD38
330
747D
100
AcDbEntity
  8
細線
 48
50.0
100
AcDbLine
 10
6635.555637501724
 20
9228.736797361928
 30
0.0
 11
6732.829581418176
 21
9326.010741278386
 31
0.0
  0
LINE
  5
1CD39
330
747D
100
AcDbEntity
  8
細線
 48
50.0
100
AcDbLine
 10
6532.829581418176
 20
9276.010741278378
 30
0.0
 11
6620.555637501718
 21
9363.736797361928
 31
0.0
  0
LINE
  5
1CD3A
330
747D
100
AcDbEntity
  8
細線
 48
50.0
100
AcDbLine
 10
6532.829581418176
 20
9302.527245572873
 30
0.0
 11
6594.039133207231
 21
9363.736797361928
 31
0.0
  0
LINE
  5
1CD3B
330
747D
100
AcDbEntity
  8
部品1
 48
50.0
100
AcDbLine
 10
6356.829581418183
 20
9412.736797361928
 30
0.0
 11
6328.829581418183
 21
9412.736797361928
 31
0.0
  0
LINE
  5
1CD3C
330
747D
100
AcDbEntity
  8
部品1
 48
50.0
100
AcDbLine
 10
5743.329581418183
 20
9470.736797361928
 30
0.0
 11
5752.329581418183
 21
9470.736797361928
 31
0.0
  0
MTEXT
  5
1CD3D
102
{ACAD_REACTORS
330
1CD3E
102
}
330
747D
100
AcDbEntity
  8
寸法
 62
     7
 48
50.0
100
AcDbMText
 10
5263.134357941918
 20
11038.88356008286
 30
0.0
 40
150.0
 41
0.0
 71
     6
 72
     1
  1
\A1;桁後
  7
STYLE1
 73
     1
 44
1.0
  0
LEADER
  5
1CD3E
330
747D
100
AcDbEntity
  8
寸法
 48
50.0
100
AcDbLeader
  3
INABA_S50G
 71
     0
 73
     0
 75
     1
 40
150.0
 41
360.0000000000001
 76
     3
 10
5692.829581418169
 20
11432.20658912726
 30
0.0
 10
5413.134357941918
 20
10938.88356008286
 30
0.0
 10
5288.134357941918
 20
10938.88356008286
 30
0.0
340
1CD3D
1001
ACAD
1000
DSTYLE
1002
{
1070
     6
1000
DOTSMALL
1002
}
  0
MTEXT
  5
1CD3F
102
{ACAD_REACTORS
330
1CD40
102
}
330
747D
100
AcDbEntity
  8
寸法
 62
     7
 48
50.0
100
AcDbMText
 10
5300.044594101978
 20
11247.92104541545
 30
0.0
 40
150.0
 41
0.0
 71
     6
 72
     1
  1
\A1;雨樋
  7
STYLE1
 73
     1
 44
1.0
  0
LEADER
  5
1CD40
330
747D
100
AcDbEntity
  8
寸法
 48
50.0
100
AcDbLeader
  3
INABA_S50G
 71
     0
 73
     0
 75
     1
 40
150.0
 41
360.0
 76
     3
 10
5611.829581418168
 20
11409.54603623496
 30
0.0
 10
5450.044594101978
 20
11147.92104541545
 30
0.0
 10
5325.044594101978
 20
11147.92104541545
 30
0.0
340
1CD3F
1001
ACAD
1000
DSTYLE
1002
{
1070
     6
1000
DOTSMALL
1002
}
  0
LEADER
  5
1CD41
330
747D
100
AcDbEntity
  8
寸法
 48
50.0
100
AcDbLeader
  3
INABA_S50G
 71
     0
 73
     0
 75
     1
 40
150.0
 41
319.9999999999998
 76
     3
 10
6249.151879789089
 20
11581.89466159483
 30
0.0
 10
6204.658491557252
 20
11705.29159607865
 30
0.0
 10
6079.658491557252
 20
11705.29159607865
 30
0.0
340
1CCD3
1001
ACAD
1000
DSTYLE
1002
{
1070
     6
1000
DOTSMALL
1002
}
  0
MTEXT
  5
1CD42
102
{ACAD_REACTORS
330
1CD43
102
}
330
747D
100
AcDbEntity
  8
寸法
 62
     7
 48
50.0
100
AcDbMText
 10
6045.826863646906
 20
11192.92239508252
 30
0.0
 40
150.0
 41
0.0
 71
     4
 72
     1
  1
\A1;回リ縁
  7
STYLE1
 73
     1
 44
1.0
  0
LEADER
  5
1CD43
330
747D
100
AcDbEntity
  8
寸法
 48
50.0
100
AcDbLeader
  3
INABA_S50G
 71
     0
 73
     0
 74
     0
 75
     1
 40
150.0
 41
530.0000000000001
 76
     3
 10
5756.486435667669
 20
11380.57994311244
 30
0.0
 10
5895.826863646906
 20
11092.92239508252
 30
0.0
 10
6020.826863646906
 20
11092.92239508252
 30
0.0
340
1CD42
1001
ACAD
1000
DSTYLE
1002
{
1070
     6
1000
DOTSMALL
1002
}
  0
LINE
  5
1CD44
330
747D
100
AcDbEntity
  8
部品1
 48
50.0
100
AcDbLine
 10
5687.829581418183
 20
11493.73679736192
 30
0.0
 11
5721.329581418183
 21
11493.73679736192
 31
0.0
  0
LINE
  5
1CD45
330
747D
100
AcDbEntity
  8
部品1
 48
50.0
100
AcDbLine
 10
5692.829581418183
 20
11378.73679736192
 30
0.0
 11
5742.829581418183
 21
11378.73679736192
 31
0.0
  0
LINE
  5
1CD46
330
747D
100
AcDbEntity
  8
部品1
 48
50.0
100
AcDbLine
 10
5721.329581418183
 20
11478.73679736192
 30
0.0
 11
5744.829581418184
 21
11478.73679736192
 31
0.0
  0
LINE
  5
1CD47
330
747D
100
AcDbEntity
  8
部品1
 48
50.0
100
AcDbLine
 10
5721.329581418183
 20
11493.73679736192
 30
0.0
 11
5721.329581418183
 21
11478.73679736192
 31
0.0
  0
LINE
  5
1CD48
330
747D
100
AcDbEntity
  8
部品1
 48
50.0
100
AcDbLine
 10
5742.829581418183
 20
11378.73679736192
 30
0.0
 11
5757.829581418183
 21
11393.73679736192
 31
0.0
  0
LINE
  5
1CD49
330
747D
100
AcDbEntity
  8
部品1
100
AcDbLine
 10
5746.329581418184
 20
11367.5946617382
 30
0.0
 11
5753.65800854293
 21
11374.92308887178
 31
0.0
  0
LINE
  5
1CD4A
330
747D
100
AcDbEntity
  8
部品1
 48
50.0
100
AcDbLine
 10
5742.829581418183
 20
11378.73679736192
 30
0.0
 11
5743.329581418183
 21
11378.73679736192
 31
0.0
  0
LINE
  5
1CD4B
330
747D
100
AcDbEntity
  8
部品1
100
AcDbLine
 10
5746.329581418184
 20
11367.5946617382
 30
0.0
 11
5743.329581418183
 21
11367.5946617382
 31
0.0
  0
LINE
  5
1CD4C
330
747D
100
AcDbEntity
  8
部品1
 48
50.0
100
AcDbLine
 10
5757.829581418183
 20
11393.73679736192
 30
0.0
 11
5757.829581418183
 21
11413.73679736192
 31
0.0
  0
LINE
  5
1CD4D
330
747D
100
AcDbEntity
  8
部品1
100
AcDbLine
 10
5767.471717041916
 20
11389.73679736192
 30
0.0
 11
5766.471717041916
 21
11389.73679736192
 31
0.0
  0
LINE
  5
1CD4E
330
747D
100
AcDbEntity
  8
部品1
100
AcDbLine
 10
5767.471717041916
 20
11388.73679736192
 30
0.0
 11
5767.471717041916
 21
11389.73679736192
 31
0.0
  0
LINE
  5
1CD4F
330
747D
100
AcDbEntity
  8
部品1
100
AcDbLine
 10
5766.471717041916
 20
11389.73679736192
 30
0.0
 11
5766.471717041916
 21
11393.73679736192
 31
0.0
  0
LINE
  5
1CD50
330
747D
100
AcDbEntity
  8
部品1
100
AcDbLine
 10
5760.021969573608
 20
11384.11547701836
 30
0.0
 11
5760.729076354793
 21
11383.40837023718
 31
0.0
  0
LINE
  5
1CD51
330
747D
100
AcDbEntity
  8
部品1
100
AcDbLine
 10
5762.143289917169
 20
11383.40837023718
 30
0.0
 11
5767.471717041916
 21
11388.73679736192
 31
0.0
  0
ARC
  5
1CD52
330
747D
100
AcDbEntity
  8
部品1
100
AcDbCircle
 10
5761.436183135977
 20
11384.11547701836
 30
0.0
 40
1.0
100
AcDbArc
 50
225.0
 51
315.0
  0
LINE
  5
1CD53
330
747D
100
AcDbEntity
  8
部品1
100
AcDbLine
 10
5752.950901761745
 20
11377.0444092065
 30
0.0
 11
5760.021969573608
 21
11384.11547701836
 31
0.0
  0
LINE
  5
1CD54
330
747D
100
AcDbEntity
  8
部品1
100
AcDbLine
 10
5753.658087601557
 20
11376.33722336669
 30
0.0
 11
5752.950901761745
 21
11377.0444092065
 31
0.0
  0
ARC
  5
1CD55
330
747D
100
AcDbEntity
  8
部品1
100
AcDbCircle
 10
5752.950901761745
 20
11375.63019565296
 30
0.0
 40
1.0
100
AcDbArc
 50
314.9999999999995
 51
44.99999999999886
  0
LINE
  5
1CD56
330
747D
100
AcDbEntity
  8
部品1
 48
50.0
100
AcDbLine
 10
5766.471717041916
 20
11393.73679736192
 30
0.0
 11
5757.829581418183
 21
11393.73679736192
 31
0.0
  0
LINE
  5
1CD57
330
747D
100
AcDbEntity
  8
部品1
 48
50.0
100
AcDbLine
 10
5757.829581418183
 20
11413.73679736192
 30
0.0
 11
5779.829581418183
 21
11413.73679736192
 31
0.0
  0
LINE
  5
1CD58
330
747D
100
AcDbEntity
  8
部品1
 48
50.0
100
AcDbLine
 10
5757.829581418183
 20
11413.73679736192
 30
0.0
 11
5779.829581418183
 21
11413.73679736192
 31
0.0
  0
LINE
  5
1CD59
330
747D
100
AcDbEntity
  8
細線
 48
50.0
100
AcDbLine
 10
5742.048722760576
 20
11483.79686886597
 30
0.0
 11
5722.075399409208
 21
11482.76422454111
 31
0.0
  0
LINE
  5
1CD5A
330
747D
100
AcDbEntity
  8
細線
 48
50.0
100
AcDbLine
 10
5721.249283949312
 20
11498.7428832222
 30
0.0
 11
5722.075399409208
 21
11482.76422454111
 31
0.0
  0
LINE
  5
1CD5B
330
747D
100
AcDbEntity
  8
細線
 48
50.0
100
AcDbLine
 10
5741.222607300681
 20
11499.77552754708
 30
0.0
 11
5742.048722760576
 21
11483.79686886598
 31
0.0
  0
LINE
  5
1CD5C
330
747D
100
AcDbEntity
  8
部品1
 48
50.0
100
AcDbLine
 10
5654.263373546723
 20
11518.15851852404
 30
0.0
 11
5670.260761862714
 21
11518.44759821439
 31
0.0
  0
LINE
  5
1CD5D
330
747D
100
AcDbEntity
  8
部品1
100
AcDbLine
 10
5671.829581418176
 20
11448.54603623495
 30
0.0
 11
5671.829581418176
 21
11421.54603623495
 31
0.0
  0
LINE
  5
1CD5E
330
747D
100
AcDbEntity
  8
部品1
100
AcDbLine
 10
5671.829581418183
 20
11450.39433257581
 30
0.0
 11
5671.829581418176
 21
11409.54603623495
 31
0.0
  0
ARC
  5
1CD5F
330
747D
100
AcDbEntity
  8
部品1
100
AcDbCircle
 10
5661.829581418175
 20
11409.54603623495
 30
0.0
 40
10.0
100
AcDbArc
 50
270.0
 51
0.000000000000007
  0
LINE
  5
1CD60
330
747D
100
AcDbEntity
  8
部品1
 48
50.0
100
AcDbLine
 10
5687.829581418183
 20
11493.73679736192
 30
0.0
 11
5687.829581418183
 21
11473.73679736192
 31
0.0
  0
LINE
  5
1CD61
330
747D
100
AcDbEntity
  8
部品1
 48
50.0
100
AcDbLine
 10
5687.829581418183
 20
11473.73679736192
 30
0.0
 11
5692.829581418183
 21
11473.73679736192
 31
0.0
  0
LINE
  5
1CD62
330
747D
100
AcDbEntity
  8
部品1
100
AcDbLine
 10
5692.829581418176
 20
11403.73679736192
 30
0.0
 11
5692.829581418176
 21
11363.73679736192
 31
0.0
  0
LINE
  5
1CD63
330
747D
100
AcDbEntity
  8
部品1
 48
50.0
100
AcDbLine
 10
5598.706740792948
 20
11540.1583411735
 30
0.0
 11
5624.852555169105
 21
11540.63080728951
 31
0.0
  0
ARC
  5
1CD64
330
747D
100
AcDbEntity
  8
部品1
100
AcDbCircle
 10
5621.829581418175
 20
11409.54603623495
 30
0.0
 40
10.0
100
AcDbArc
 50
180.0
 51
270.0
  0
LINE
  5
1CD65
330
747D
100
AcDbEntity
  8
部品1
100
AcDbLine
 10
5611.829581418176
 20
11409.54603623495
 30
0.0
 11
5611.829581418176
 21
11434.54603623495
 31
0.0
  0
LINE
  5
1CD66
330
747D
100
AcDbEntity
  8
部品1
100
AcDbLine
 10
5609.482399800959
 20
11467.26280491303
 30
0.0
 11
5609.881238878704
 21
11463.51558742462
 31
0.0
  0
ARC
  5
1CD67
330
747D
100
AcDbEntity
  8
部品1
 48
50.0
100
AcDbCircle
 10
5607.307980296049
 20
11470.68507021751
 30
0.0
 40
1.199999999999999
100
AcDbArc
 50
186.0754638750989
 51
265.1699938773959
  0
ARC
  5
1CD68
330
747D
100
AcDbEntity
  8
部品1
 48
50.0
100
AcDbCircle
 10
5606.996441403264
 20
11466.99820928769
 30
0.0
 40
2.5
100
AcDbArc
 50
6.075463875091184
 51
85.16999387739907
  0
ARC
  5
1CD69
330
747D
100
AcDbEntity
  8
部品1
100
AcDbCircle
 10
5625.294180944386
 20
11465.15608030175
 30
0.0
 40
15.5
100
AcDbArc
 50
186.0754638750791
 51
270.9112955958145
  0
LINE
  5
1CD6A
330
747D
100
AcDbEntity
  8
部品1
100
AcDbLine
 10
5597.916287634877
 20
11547.58489504694
 30
0.0
 11
5606.114720265154
 21
11470.55806431735
 31
0.0
  0
LINE
  5
1CD6B
330
747D
100
AcDbEntity
  8
部品1
100
AcDbLine
 10
5617.32337669163
 20
11565.7922009353
 30
0.0
 11
5619.939382888238
 21
11572.82495737237
 31
0.0
  0
ARC
  5
1CD6C
330
747D
100
AcDbEntity
  8
部品1
100
AcDbCircle
 10
5613.329581418176
 20
11549.22208342739
 30
0.0
 40
15.5
100
AcDbArc
 50
91.86125648319634
 51
186.0754638750989
  0
ARC
  5
1CD6D
330
747D
100
AcDbEntity
  8
部品1
100
AcDbCircle
 10
5623.2197864053
 20
11571.60473085027
 30
0.0
 40
3.5
100
AcDbArc
 50
91.03524671598787
 51
159.5960814224235
  0
ARC
  5
1CD6E
330
747D
100
AcDbEntity
  8
部品1
100
AcDbCircle
 10
5615.897882695192
 20
11566.26244516467
 30
0.0
 40
1.5
100
AcDbArc
 50
270.9018459011011
 51
339.5960814224101
  0
LINE
  5
1CD6F
330
747D
100
AcDbEntity
  8
部品1
 48
50.0
100
AcDbLine
 10
5615.921491990768
 20
11564.76263097579
 30
0.0
 11
5612.826151637432
 21
11564.71390573647
 31
0.0
  0
LINE
  5
1CD70
330
747D
100
AcDbEntity
  8
部品1
100
AcDbLine
 10
5625.540699733726
 20
11449.65804079714
 30
0.0
 11
5634.539561381562
 21
11449.80118073934
 31
0.0
  0
LINE
  5
1CD71
330
747D
100
AcDbEntity
  8
細線
 48
50.0
100
AcDbLine
 10
5645.213412624324
 20
11516.84112269045
 30
0.0
 11
5646.349321381683
 21
11494.87046700394
 31
0.0
  0
LINE
  5
1CD72
330
747D
100
AcDbEntity
  8
細線
 48
50.0
100
AcDbLine
 10
5634.539561381562
 20
11449.80118073934
 30
0.0
 11
5692.829581418176
 21
11450.72836802427
 31
0.0
  0
LINE
  5
1CD73
330
747D
100
AcDbEntity
  8
部品1
100
AcDbLine
 10
5661.829581418175
 20
11399.54603623495
 30
0.0
 11
5621.829581418175
 21
11399.54603623495
 31
0.0
  0
LINE
  5
1CD74
330
747D
100
AcDbEntity
  8
部品1
 48
50.0
100
AcDbLine
 10
5624.852555169105
 20
11540.63080728951
 30
0.0
 11
5654.263373546723
 21
11518.15851852404
 31
0.0
  0
LINE
  5
1CD75
330
747D
100
AcDbEntity
  8
部品1
 48
50.0
100
AcDbLine
 10
6367.829581418176
 20
11526.73679736192
 30
0.0
 11
6337.829581418175
 21
11525.23679736192
 31
0.0
  0
LINE
  5
1CD76
330
747D
100
AcDbEntity
  8
部品1
 48
50.0
100
AcDbLine
 10
6317.829581418176
 20
11413.73679736192
 30
0.0
 11
6367.829581418176
 21
11413.73679736192
 31
0.0
  0
LINE
  5
1CD77
330
747D
100
AcDbEntity
  8
部品1
 48
50.0
100
AcDbLine
 10
6360.829581418176
 20
11367.5946617382
 30
0.0
 11
6360.829581418176
 21
11284.72281612384
 31
0.0
  0
LINE
  5
1CD78
330
747D
100
AcDbEntity
  8
部品1
 48
50.0
100
AcDbLine
 10
6367.829581418176
 20
11413.73679736192
 30
0.0
 11
6367.829581418176
 21
11526.73679736192
 31
0.0
  0
LINE
  5
1CD79
330
747D
100
AcDbEntity
  8
部品1
 48
50.0
100
AcDbLine
 10
6324.829581418176
 20
11367.5946617382
 30
0.0
 11
6324.829581418176
 21
11284.72281612384
 31
0.0
  0
LINE
  5
1CD7A
330
747D
100
AcDbEntity
  8
部品1
 48
50.0
100
AcDbLine
 10
6317.829581418176
 20
11425.73679736192
 30
0.0
 11
6317.829581418176
 21
11413.73679736192
 31
0.0
  0
LINE
  5
1CD7B
330
747D
100
AcDbEntity
  8
部品1
 48
50.0
100
AcDbLine
 10
6337.829581418175
 20
11514.23679736192
 30
0.0
 11
6317.829581418176
 21
11513.23679736192
 31
0.0
  0
LINE
  5
1CD7C
330
747D
100
AcDbEntity
  8
部品1
 48
50.0
100
AcDbLine
 10
6337.829581418175
 20
11525.23679736192
 30
0.0
 11
6337.829581418175
 21
11514.23679736192
 31
0.0
  0
LINE
  5
1CD7D
330
747D
100
AcDbEntity
  8
細線
 48
50.0
100
AcDbLine
 10
6336.527509788226
 20
11530.55349164977
 30
0.0
 11
6337.353625248113
 21
11514.57483296867
 31
0.0
  0
LINE
  5
1CD7E
330
747D
100
AcDbEntity
  8
細線
 48
50.0
100
AcDbLine
 10
6316.554186436849
 20
11529.5208473249
 30
0.0
 11
6317.380301896744
 21
11513.5421886438
 31
0.0
  0
LINE
  5
1CD7F
330
747D
100
AcDbEntity
  8
細線
 48
50.0
100
AcDbLine
 10
6337.353625248113
 20
11514.57483296867
 30
0.0
 11
6317.380301896751
 21
11513.5421886438
 31
0.0
  0
MTEXT
  5
1CD80
102
{ACAD_REACTORS
330
1CD81
102
}
330
747D
100
AcDbEntity
  8
部品1
 62
     7
 48
50.0
100
AcDbMText
 10
7633.228562898562
 20
8716.282041753688
 30
0.0
 40
150.0
 41
0.0
 71
     4
 72
     1
  1
\A1;ジョイントカバー
  7
STYLE1
 73
     1
 44
1.0
  0
LEADER
  5
1CD81
330
747D
100
AcDbEntity
  8
寸法
 48
50.0
100
AcDbLeader
  3
INABA_S50G
 71
     0
 73
     0
 74
     0
 75
     1
 40
150.0
 41
1397.5
 76
     3
 10
6929.657560436236
 20
9547.434887568462
 30
0.0
 10
7483.228562898561
 20
8616.282041753688
 30
0.0
 10
7608.228562898561
 20
8616.282041753688
 30
0.0
340
1CD80
1001
ACAD
1000
DSTYLE
1002
{
1070
     6
1000
DOTSMALL
1002
}
  0
LINE
  5
1CD82
330
747D
100
AcDbEntity
  8
部品1
100
AcDbLine
 10
7269.055136608542
 20
7310.010941144016
 30
0.0
 11
7269.055136608542
 21
7709.831477053232
 31
0.0
  0
DIMENSION
  5
1CD83
330
747D
100
AcDbEntity
  8
寸法
 48
50.0
100
AcDbDimension
  2
*D49
 10
9457.490021403355
 20
9363.736797361928
 30
0.0
 11
9357.475257623828
 21
10498.73679736192
 31
0.0
 12
2115.637365629815
 22
-2159.477676522861
 32
0.0
 70
    32
 71
     5
 42
-1.0
  3
INABA_S50G
100
AcDbAlignedDimension
 13
7707.829581418183
 23
11633.73679736192
 33
0.0
 14
7572.829581418176
 24
9363.736797361928
 34
0.0
 50
270.0
100
AcDbRotatedDimension
  0
MTEXT
  5
1CD84
102
{ACAD_REACTORS
330
1CDC2
102
}
330
747D
100
AcDbEntity
  8
寸法
 62
     7
 48
50.0
100
AcDbMText
 10
7331.391372236786
 20
10202.5518772182
 30
0.0
 40
150.0
 41
0.0
 71
     6
 72
     1
  1
\A1;額縁
  7
STYLE1
 73
     1
 44
1.0
  0
LINE
  5
1CD85
330
747D
100
AcDbEntity
  8
細線
 48
50.0
100
AcDbLine
 10
7516.079581418161
 20
10191.73679736194
 30
0.0
 11
7516.079581418168
 21
11179.23679736193
 31
0.0
  0
LINE
  5
1CD86
330
747D
100
AcDbEntity
  8
細線
 48
50.0
100
AcDbLine
 10
7540.579581418154
 20
10191.73679736194
 30
0.0
 11
7540.579581418197
 21
11179.23679736193
 31
0.0
  0
LINE
  5
1CD87
330
747D
100
AcDbEntity
  8
細線
 48
50.0
100
AcDbLine
 10
7550.129581418179
 20
10191.73679736192
 30
0.0
 11
7550.129581418186
 21
11179.23679736191
 31
0.0
  0
LINE
  5
1CD88
330
747D
100
AcDbEntity
  8
細線
 48
50.0
100
AcDbLine
 10
7573.129581418172
 20
10191.73679736192
 30
0.0
 11
7573.129581418214
 21
11179.23679736191
 31
0.0
  0
LINE
  5
1CD89
330
747D
100
AcDbEntity
  8
部品1
 48
50.0
100
AcDbLine
 10
7486.329581418175
 20
11367.5946617382
 30
0.0
 11
7486.329581418175
 21
9470.736797361928
 31
0.0
  0
DIMENSION
  5
1CD8A
330
747D
100
AcDbEntity
  8
寸法
 48
50.0
100
AcDbDimension
  2
*D50
 10
9123.235356238897
 20
9418.736797361928
 30
0.0
 11
9023.235356238897
 21
10391.23679736192
 31
0.0
 12
2115.637365629815
 22
-2159.477676522861
 32
0.0
 70
    32
 71
     5
 42
-1.0
  3
INABA_S50G
100
AcDbAlignedDimension
 13
7572.829581418176
 23
11363.73679736192
 33
0.0
 14
8791.033355093793
 24
9418.736797361928
 34
0.0
 50
270.0
100
AcDbRotatedDimension
  0
DIMENSION
  5
1CD8B
330
747D
100
AcDbEntity
  8
寸法
 48
50.0
100
AcDbDimension
  2
*D51
 10
8791.033355093793
 20
11218.73679736192
 30
0.0
 11
8691.033355093791
 21
10683.73679736192
 31
0.0
 70
    32
 71
     5
 42
-1.0
  3
INABA_S50G
100
AcDbAlignedDimension
 13
7572.829581418176
 23
10148.73679736192
 33
0.0
 14
7572.829581418169
 24
11218.73679736192
 34
0.0
 50
90.0
100
AcDbRotatedDimension
1001
ACAD
1000
DSTYLE
1002
{
1070
   287
1070
     4
1070
    75
1070
     1
1070
   279
1070
     1
1002
}
  0
LINE
  5
1CD8C
330
747D
100
AcDbEntity
  8
部品1
 48
50.0
100
AcDbLine
 10
6940.829581418175
 20
11367.5946617382
 30
0.0
 11
6940.829581418175
 21
9470.736797361928
 31
0.0
  0
LINE
  5
1CD8D
330
747D
100
AcDbEntity
  8
部品1
 48
50.0
100
AcDbLine
 10
6904.829581418176
 20
11367.5946617382
 30
0.0
 11
6904.829581418176
 21
9470.736797361928
 31
0.0
  0
DIMENSION
  5
1CD8E
330
747D
100
AcDbEntity
  8
寸法
 48
50.0
100
AcDbDimension
  2
*D52
 10
9123.235356238897
 20
9363.736797361928
 30
0.0
 11
9123.235356238897
 21
9108.672248427685
 31
0.0
 12
2115.637365629815
 22
-2159.477676522861
 32
0.0
 70
   160
 71
     5
 42
-1.0
  3
INABA_S50G
100
AcDbAlignedDimension
 13
8791.033355093793
 23
9418.736797361928
 33
0.0
 14
7572.829581418176
 24
9363.736797361928
 34
0.0
 50
270.0
100
AcDbRotatedDimension
  0
DIMENSION
  5
1CD8F
330
747D
100
AcDbEntity
  8
寸法
 48
50.0
100
AcDbDimension
  2
*D53
 10
8791.033355093793
 20
10148.73679736192
 30
0.0
 11
8691.033355093793
 21
9756.236797361928
 31
0.0
 12
2115.637365629815
 22
-2159.477676522861
 32
0.0
 70
    32
 71
     5
 42
-1.0
  3
INABA_S50G
100
AcDbAlignedDimension
 13
7572.829581418176
 23
9363.736797361928
 33
0.0
 14
7572.829581418176
 24
10148.73679736192
 34
0.0
 50
90.0
100
AcDbRotatedDimension
  0
LINE
  5
1CD90
330
747D
100
AcDbEntity
  8
部品1
 48
50.0
100
AcDbLine
 10
7572.829581418176
 20
10148.73679736192
 30
0.0
 11
7572.829581418176
 21
9418.736797361928
 31
0.0
  0
LINE
  5
1CD91
330
747D
100
AcDbEntity
  8
細線
 48
50.0
100
AcDbLine
 10
7537.829581418169
 20
10148.73679736192
 30
0.0
 11
7537.829581418176
 21
9418.736797361928
 31
0.0
  0
LINE
  5
1CD92
330
747D
100
AcDbEntity
  8
部品1
 48
50.0
100
AcDbLine
 10
7522.329581418168
 20
10148.73679736192
 30
0.0
 11
7522.329581418175
 21
9430.736797361928
 31
0.0
  0
LINE
  5
1CD93
330
747D
100
AcDbEntity
  8
部品1
 48
50.0
100
AcDbLine
 10
7513.329581418176
 20
9470.736797361928
 30
0.0
 11
7513.329581418176
 21
9430.736797361928
 31
0.0
  0
MTEXT
  5
1CD94
102
{ACAD_REACTORS
330
1CD95
102
}
330
747D
100
AcDbEntity
  8
寸法
 62
     7
 48
50.0
100
AcDbMText
 10
7300.133267264121
 20
9701.080712269252
 30
0.0
 40
150.0
 41
0.0
 71
     6
 72
     1
  1
\A1;巾木
  7
STYLE1
 73
     1
 44
1.0
  0
LEADER
  5
1CD95
330
747D
100
AcDbEntity
  8
寸法
 48
50.0
100
AcDbLeader
  3
INABA_S50G
 71
     0
 73
     0
 75
     1
 40
150.0
 41
310.0
 76
     3
 10
7513.329581418168
 20
9455.070269982718
 30
0.0
 10
7450.133267264121
 20
9601.080712269251
 30
0.0
 10
7325.133267264121
 20
9601.080712269251
 30
0.0
340
1CD94
1001
ACAD
1000
DSTYLE
1002
{
1070
     6
1000
DOTSMALL
1002
}
  0
LINE
  5
1CD96
330
747D
100
AcDbEntity
  8
細線
 48
50.0
100
AcDbLine
 10
7571.603525334626
 20
9028.736797361927
 30
0.0
 11
7441.829581418176
 21
9158.510741278385
 31
0.0
  0
LINE
  5
1CD97
330
747D
100
AcDbEntity
  8
細線
 48
50.0
100
AcDbLine
 10
7598.120029629121
 20
9028.736797361927
 30
0.0
 11
7441.829581418176
 21
9185.02724557288
 31
0.0
  0
LINE
  5
1CD98
330
747D
100
AcDbEntity
  8
細線
 48
50.0
100
AcDbLine
 10
7449.039133207232
 20
9228.736797361928
 30
0.0
 11
7572.829581418176
 21
9352.527245572872
 31
0.0
  0
LINE
  5
1CD99
330
747D
100
AcDbEntity
  8
部品1
 48
50.0
100
AcDbLine
 10
7641.829581418176
 20
9028.736797361927
 30
0.0
 11
7441.829581418176
 21
9028.736797361927
 31
0.0
  0
LINE
  5
1CD9A
330
747D
100
AcDbEntity
  8
細線
 48
50.0
100
AcDbLine
 10
7545.087021040124
 20
9028.736797361927
 30
0.0
 11
7441.829581418176
 21
9131.994236983883
 31
0.0
  0
LINE
  5
1CD9B
330
747D
100
AcDbEntity
  8
部品1
 48
50.0
100
AcDbLine
 10
6936.829581418177
 20
9412.736797361928
 30
0.0
 11
6908.829581418176
 21
9412.736797361928
 31
0.0
  0
LINE
  5
1CD9C
330
747D
100
AcDbEntity
  8
部品1
 48
50.0
100
AcDbLine
 10
6902.829581418176
 20
9418.736797361928
 30
0.0
 11
6902.829581418176
 21
9363.736797361928
 31
0.0
  0
LINE
  5
1CD9D
330
747D
100
AcDbEntity
  8
部品1
 48
50.0
100
AcDbLine
 10
6908.829581418176
 20
9418.736797361928
 30
0.0
 11
6908.829581418176
 21
9412.736797361928
 31
0.0
  0
LINE
  5
1CD9E
330
747D
100
AcDbEntity
  8
部品1
 48
50.0
100
AcDbLine
 10
6908.829581418176
 20
9418.736797361928
 30
0.0
 11
6902.829581418176
 21
9418.736797361928
 31
0.0
  0
LINE
  5
1CD9F
330
747D
100
AcDbEntity
  8
部品1
 48
50.0
100
AcDbLine
 10
6942.829581418175
 20
9363.736797361928
 30
0.0
 11
6942.829581418175
 21
9418.736797361928
 31
0.0
  0
LINE
  5
1CDA0
330
747D
100
AcDbEntity
  8
部品1
 48
50.0
100
AcDbLine
 10
6942.829581418175
 20
9418.736797361928
 30
0.0
 11
6936.829581418177
 21
9418.736797361928
 31
0.0
  0
LINE
  5
1CDA1
330
747D
100
AcDbEntity
  8
部品1
 48
50.0
100
AcDbLine
 10
6936.829581418177
 20
9412.736797361928
 30
0.0
 11
6936.829581418177
 21
9418.736797361928
 31
0.0
  0
LINE
  5
1CDA2
330
747D
100
AcDbEntity
  8
部品1
 48
50.0
100
AcDbLine
 10
7198.829581418175
 20
9418.736797361928
 30
0.0
 11
7192.829581418175
 21
9418.736797361928
 31
0.0
  0
LINE
  5
1CDA3
330
747D
100
AcDbEntity
  8
部品1
 48
50.0
100
AcDbLine
 10
7232.829581418176
 20
9418.736797361928
 30
0.0
 11
7226.829581418176
 21
9418.736797361928
 31
0.0
  0
LINE
  5
1CDA4
330
747D
100
AcDbEntity
  8
部品1
 48
50.0
100
AcDbLine
 10
7226.829581418176
 20
9412.736797361928
 30
0.0
 11
7198.829581418175
 21
9412.736797361928
 31
0.0
  0
LINE
  5
1CDA5
330
747D
100
AcDbEntity
  8
部品1
 48
50.0
100
AcDbLine
 10
7198.829581418175
 20
9418.736797361928
 30
0.0
 11
7198.829581418175
 21
9412.736797361928
 31
0.0
  0
LINE
  5
1CDA6
330
747D
100
AcDbEntity
  8
部品1
 48
50.0
100
AcDbLine
 10
7226.829581418176
 20
9412.736797361928
 30
0.0
 11
7226.829581418176
 21
9418.736797361928
 31
0.0
  0
LINE
  5
1CDA7
330
747D
100
AcDbEntity
  8
部品1
 48
50.0
100
AcDbLine
 10
7192.829581418175
 20
9418.736797361928
 30
0.0
 11
7192.829581418175
 21
9363.736797361928
 31
0.0
  0
LINE
  5
1CDA8
330
747D
100
AcDbEntity
  8
部品1
 48
50.0
100
AcDbLine
 10
7232.829581418176
 20
9363.736797361928
 30
0.0
 11
7232.829581418176
 21
9418.736797361928
 31
0.0
  0
LINE
  5
1CDA9
330
747D
100
AcDbEntity
  8
部品1
 48
50.0
100
AcDbLine
 10
7441.829581418176
 20
9028.736797361927
 30
0.0
 11
7441.829581418176
 21
9228.736797361928
 31
0.0
  0
LINE
  5
1CDAA
330
747D
100
AcDbEntity
  8
細線
 48
50.0
100
AcDbLine
 10
7372.829581418177
 20
9276.010741278378
 30
0.0
 11
7460.555637501717
 21
9363.736797361928
 31
0.0
  0
LINE
  5
1CDAB
330
747D
100
AcDbEntity
  8
細線
 48
50.0
100
AcDbLine
 10
7372.829581418177
 20
9302.527245572873
 30
0.0
 11
7434.039133207232
 21
9363.736797361928
 31
0.0
  0
LINE
  5
1CDAC
330
747D
100
AcDbEntity
  8
部品1
 48
50.0
100
AcDbLine
 10
7372.829581418177
 20
9363.736797361928
 30
0.0
 11
7372.829581418177
 21
9228.736797361928
 31
0.0
  0
LINE
  5
1CDAD
330
747D
100
AcDbEntity
  8
部品1
 48
50.0
100
AcDbLine
 10
7572.829581418176
 20
9418.736797361928
 30
0.0
 11
7537.329581418176
 21
9418.736797361928
 31
0.0
  0
LINE
  5
1CDAE
330
747D
100
AcDbEntity
  8
破線
 48
3.0
100
AcDbLine
 10
7562.829581418175
 20
9122.736797361929
 30
0.0
 11
7520.829581418175
 21
9122.736797361929
 31
0.0
  0
LINE
  5
1CDAF
330
747D
100
AcDbEntity
  8
細線
 48
50.0
100
AcDbLine
 10
7475.555637501725
 20
9228.736797361928
 30
0.0
 11
7572.829581418176
 21
9326.010741278386
 31
0.0
  0
LINE
  5
1CDB0
330
747D
100
AcDbEntity
  8
細線
 48
50.0
100
AcDbLine
 10
7641.829581418176
 20
9108.510741278385
 30
0.0
 11
7521.60352533464
 21
9228.736797361928
 31
0.0
  0
LINE
  5
1CDB1
330
747D
100
AcDbEntity
  8
細線
 48
50.0
100
AcDbLine
 10
7641.829581418176
 20
9135.02724557288
 30
0.0
 11
7548.120029629114
 21
9228.736797361928
 31
0.0
  0
LINE
  5
1CDB2
330
747D
100
AcDbEntity
  8
細線
 48
50.0
100
AcDbLine
 10
7641.829581418169
 20
9081.994236983884
 30
0.0
 11
7495.087021040148
 21
9228.736797361928
 31
0.0
  0
LINE
  5
1CDB3
330
747D
100
AcDbEntity
  8
部品1
 48
50.0
100
AcDbLine
 10
7537.329581418176
 20
9418.736797361928
 30
0.0
 11
7537.329581418176
 21
9430.736797361928
 31
0.0
  0
LINE
  5
1CDB4
330
747D
100
AcDbEntity
  8
部品1
 48
50.0
100
AcDbLine
 10
7537.329581418176
 20
9430.736797361928
 30
0.0
 11
7522.329581418175
 21
9430.736797361928
 31
0.0
  0
LINE
  5
1CDB5
330
747D
100
AcDbEntity
  8
部品1
 48
50.0
100
AcDbLine
 10
7522.329581418175
 20
9430.736797361928
 30
0.0
 11
7522.329581418175
 21
9418.736797361928
 31
0.0
  0
LINE
  5
1CDB6
330
747D
100
AcDbEntity
  8
部品1
 48
50.0
100
AcDbLine
 10
7522.329581418175
 20
9418.736797361928
 30
0.0
 11
7508.329581418175
 21
9418.736797361928
 31
0.0
  0
LINE
  5
1CDB7
330
747D
100
AcDbEntity
  8
部品1
 48
50.0
100
AcDbLine
 10
7508.329581418175
 20
9418.736797361928
 30
0.0
 11
7508.329581418175
 21
9411.736797361928
 31
0.0
  0
LINE
  5
1CDB8
330
747D
100
AcDbEntity
  8
部品1
 48
50.0
100
AcDbLine
 10
7508.329581418175
 20
9411.736797361928
 30
0.0
 11
7484.329581418176
 21
9411.736797361928
 31
0.0
  0
LINE
  5
1CDB9
330
747D
100
AcDbEntity
  8
部品1
 48
50.0
100
AcDbLine
 10
7484.329581418176
 20
9411.736797361928
 30
0.0
 11
7484.329581418176
 21
9363.736797361928
 31
0.0
  0
LINE
  5
1CDBA
330
747D
100
AcDbEntity
  8
部品1
 48
50.0
100
AcDbLine
 10
7513.329581418176
 20
9430.736797361928
 30
0.0
 11
7522.329581418175
 21
9430.736797361928
 31
0.0
  0
LINE
  5
1CDBB
330
747D
100
AcDbEntity
  8
破線
 48
3.0
100
AcDbLine
 10
7520.829581418175
 20
9228.736797361928
 30
0.0
 11
7520.829581418175
 21
9122.736797361929
 31
0.0
  0
LINE
  5
1CDBC
330
747D
100
AcDbEntity
  8
部品1
 48
50.0
100
AcDbLine
 10
7572.829581418176
 20
9412.736797361928
 30
0.0
 11
7566.829581418176
 21
9412.736797361928
 31
0.0
  0
LINE
  5
1CDBD
330
747D
100
AcDbEntity
  8
部品1
 48
50.0
100
AcDbLine
 10
7566.829581418176
 20
9412.736797361928
 30
0.0
 11
7566.829581418176
 21
9418.736797361928
 31
0.0
  0
LINE
  5
1CDBE
330
747D
100
AcDbEntity
  8
部品1
 48
50.0
100
AcDbLine
 10
7572.829581418176
 20
9412.736797361928
 30
0.0
 11
7572.829581418176
 21
9363.736797361928
 31
0.0
  0
LINE
  5
1CDBF
330
747D
100
AcDbEntity
  8
破線
 48
3.0
100
AcDbLine
 10
7562.829581418175
 20
9228.736797361928
 30
0.0
 11
7562.829581418175
 21
9122.736797361929
 31
0.0
  0
LINE
  5
1CDC0
330
747D
100
AcDbEntity
  8
部品1
 48
50.0
100
AcDbLine
 10
7572.829581418176
 20
9363.736797361928
 30
0.0
 11
7572.829581418176
 21
9228.736797361928
 31
0.0
  0
LINE
  5
1CDC1
330
747D
100
AcDbEntity
  8
部品1
 48
50.0
100
AcDbLine
 10
7641.829581418176
 20
9228.736797361928
 30
0.0
 11
7641.829581418176
 21
9028.736797361927
 31
0.0
  0
LEADER
  5
1CDC2
330
747D
100
AcDbEntity
  8
寸法
 48
50.0
100
AcDbLeader
  3
INABA_S50G
 71
     0
 73
     0
 75
     1
 40
150.0
 41
360.0
 76
     3
 10
7513.329581418176
 20
10156.36369594979
 30
0.0
 10
7481.391372236785
 20
10102.55187721819
 30
0.0
 10
7356.391372236785
 20
10102.55187721819
 30
0.0
340
1CD84
1001
ACAD
1000
DSTYLE
1002
{
1070
     6
1000
DOTSMALL
1002
}
  0
LINE
  5
1CDC3
330
747D
100
AcDbEntity
  8
細線
 48
50.0
100
AcDbLine
 10
7581.329581418183
 20
10162.73679736192
 30
0.0
 11
7581.329581418183
 21
10159.73679736192
 31
0.0
  0
LINE
  5
1CDC4
330
747D
100
AcDbEntity
  8
細線
 48
50.0
100
AcDbLine
 10
7581.329581418168
 20
10171.63679736192
 30
0.0
 11
7581.329581418183
 21
10180.73679736192
 31
0.0
  0
LINE
  5
1CDC5
330
747D
100
AcDbEntity
  8
細線
 48
50.0
100
AcDbLine
 10
7540.579581418154
 20
10191.73679736194
 30
0.0
 11
7516.079581418161
 21
10191.73679736194
 31
0.0
  0
LINE
  5
1CDC6
330
747D
100
AcDbEntity
  8
細線
 48
50.0
100
AcDbLine
 10
7573.129581418172
 20
10191.73679736192
 30
0.0
 11
7550.129581418179
 21
10191.73679736192
 31
0.0
  0
LINE
  5
1CDC7
330
747D
100
AcDbEntity
  8
細線
 48
50.0
100
AcDbLine
 10
7522.329581418175
 20
10136.73679736192
 30
0.0
 11
7510.329581418176
 21
10136.73679736192
 31
0.0
  0
LINE
  5
1CDC8
330
747D
100
AcDbEntity
  8
細線
 48
50.0
100
AcDbLine
 10
7510.329581418176
 20
10136.73679736192
 30
0.0
 11
7510.329581418176
 21
10172.73679736192
 31
0.0
  0
LINE
  5
1CDC9
330
747D
100
AcDbEntity
  8
細線
 48
50.0
100
AcDbLine
 10
7577.129581418178
 20
10144.23679736192
 30
0.0
 11
7572.829581418176
 21
10144.23679736192
 31
0.0
  0
LINE
  5
1CDCA
330
747D
100
AcDbEntity
  8
細線
 48
50.0
100
AcDbLine
 10
7577.129581418185
 20
10162.73679736192
 30
0.0
 11
7577.129581418185
 21
10144.23679736192
 31
0.0
  0
LINE
  5
1CDCB
330
747D
100
AcDbEntity
  8
細線
 48
50.0
100
AcDbLine
 10
7572.829581418183
 20
10180.73679736192
 30
0.0
 11
7572.829581418183
 21
10162.73679736192
 31
0.0
  0
LINE
  5
1CDCC
330
747D
100
AcDbEntity
  8
細線
 48
50.0
100
AcDbLine
 10
7541.029581418172
 20
10181.73679736192
 30
0.0
 11
7572.829581418183
 21
10180.73679736192
 31
0.0
  0
LINE
  5
1CDCD
330
747D
100
AcDbEntity
  8
細線
 48
50.0
100
AcDbLine
 10
7541.029581418172
 20
10184.23679736192
 30
0.0
 11
7541.029581418181
 21
10148.73679736192
 31
0.0
  0
LINE
  5
1CDCE
330
747D
100
AcDbEntity
  8
細線
 48
50.0
100
AcDbLine
 10
7561.629581418171
 20
10181.08899861978
 30
0.0
 11
7561.629581418178
 21
10201.73679736192
 31
0.0
  0
LINE
  5
1CDCF
330
747D
100
AcDbEntity
  8
細線
 48
50.0
100
AcDbLine
 10
7528.329581418168
 20
10184.66440678954
 30
0.0
 11
7528.329581418176
 21
10201.73679736192
 31
0.0
  0
LINE
  5
1CDD0
330
747D
100
AcDbEntity
  8
細線
 48
50.0
100
AcDbLine
 10
7511.329581418175
 20
10185.23679736192
 30
0.0
 11
7541.029581418172
 21
10184.23679736192
 31
0.0
  0
LINE
  5
1CDD1
330
747D
100
AcDbEntity
  8
細線
 48
50.0
100
AcDbLine
 10
7511.329581418175
 20
10172.73679736192
 30
0.0
 11
7511.329581418175
 21
10200.73679736192
 31
0.0
  0
LINE
  5
1CDD2
330
747D
100
AcDbEntity
  8
細線
 48
50.0
100
AcDbLine
 10
7522.329581418175
 20
10172.73679736192
 30
0.0
 11
7510.329581418176
 21
10172.73679736192
 31
0.0
  0
LINE
  5
1CDD3
330
747D
100
AcDbEntity
  8
細線
 48
50.0
100
AcDbLine
 10
7522.329581418175
 20
10136.73679736192
 30
0.0
 11
7522.329581418175
 21
10172.73679736192
 31
0.0
  0
LINE
  5
1CDD4
330
747D
100
AcDbEntity
  8
細線
 48
50.0
100
AcDbLine
 10
7572.829581418176
 20
10148.73679736192
 30
0.0
 11
7522.329581418175
 21
10148.73679736192
 31
0.0
  0
LINE
  5
1CDD5
330
747D
100
AcDbEntity
  8
細線
 48
50.0
100
AcDbLine
 10
7581.329581418183
 20
10162.73679736192
 30
0.0
 11
7541.029581418172
 21
10162.73679736192
 31
0.0
  0
LINE
  5
1CDD6
330
747D
100
AcDbEntity
  8
細線
 48
50.0
100
AcDbLine
 10
7572.829581418183
 20
10171.63679736192
 30
0.0
 11
7581.329581418168
 21
10171.63679736192
 31
0.0
  0
LINE
  5
1CDD7
330
747D
100
AcDbEntity
  8
部品1
 48
50.0
100
AcDbLine
 10
7522.329581418175
 20
9470.736797361928
 30
0.0
 11
7513.329581418176
 21
9470.736797361928
 31
0.0
  0
MTEXT
  5
1CDD8
102
{ACAD_REACTORS
330
1CDDA
102
}
330
747D
100
AcDbEntity
  8
寸法
 62
     7
 48
50.0
100
AcDbMText
 10
7938.97877427427
 20
11097.85083762996
 30
0.0
 40
150.0
 41
0.0
 71
     4
 72
     1
  1
\A1;桁前
  7
STYLE1
 73
     1
 44
1.0
  0
MTEXT
  5
1CDD9
102
{ACAD_REACTORS
330
1CDDB
102
}
330
747D
100
AcDbEntity
  8
寸法
 62
     7
 48
50.0
100
AcDbMText
 10
7865.143168490205
 20
10535.24827682972
 30
0.0
 40
150.0
 41
0.0
 71
     4
 72
     1
  1
\A1;ガラス窓
  7
STYLE1
 73
     1
 44
1.0
  0
LEADER
  5
1CDDA
330
747D
100
AcDbEntity
  8
寸法
 48
50.0
100
AcDbLeader
  3
INABA_S50G
 71
     0
 73
     0
 74
     0
 75
     1
 40
150.0
 41
337.5
 76
     3
 10
7572.829581418176
 20
11430.44622311194
 30
0.0
 10
7788.978774274269
 20
10997.85083762996
 30
0.0
 10
7913.978774274269
 20
10997.85083762996
 30
0.0
340
1CDD8
1001
ACAD
1000
DSTYLE
1002
{
1070
     6
1000
DOTSMALL
1002
}
  0
LEADER
  5
1CDDB
330
747D
100
AcDbEntity
  8
寸法
 48
50.0
100
AcDbLeader
  3
INABA_S50G
 71
     0
 73
     0
 74
     0
 75
     1
 40
150.0
 41
709.9999999999998
 76
     3
 10
7565.193960732795
 20
10722.90582485964
 30
0.0
 10
7715.143168490205
 20
10435.24827682972
 30
0.0
 10
7840.143168490205
 20
10435.24827682972
 30
0.0
340
1CDD9
1001
ACAD
1000
DSTYLE
1002
{
1070
     6
1000
DOTSMALL
1002
}
  0
LINE
  5
1CDDC
330
747D
100
AcDbEntity
  8
細線
 48
50.0
100
AcDbLine
 10
7528.329581418161
 20
11147.23679736192
 30
0.0
 11
7528.329581418176
 21
10228.73679736192
 31
0.0
  0
LINE
  5
1CDDD
330
747D
100
AcDbEntity
  8
細線
 48
50.0
100
AcDbLine
 10
7561.629581418178
 20
11147.23679736192
 30
0.0
 11
7561.629581418194
 21
10228.73679736192
 31
0.0
  0
LINE
  5
1CDDE
330
747D
100
AcDbEntity
  8
細線
 48
50.0
100
AcDbLine
 10
7540.579581418183
 20
10234.73679736194
 30
0.0
 11
7516.079581418161
 21
10234.73679736194
 31
0.0
  0
LINE
  5
1CDDF
330
747D
100
AcDbEntity
  8
細線
 48
50.0
100
AcDbLine
 10
7573.1295814182
 20
10234.73679736193
 30
0.0
 11
7550.129581418179
 21
10234.73679736192
 31
0.0
  0
LINE
  5
1CDE0
330
747D
100
AcDbEntity
  8
部品1
 48
50.0
100
AcDbLine
 10
6947.829581418176
 20
11413.73679736192
 30
0.0
 11
6947.829581418176
 21
11556.73679736192
 31
0.0
  0
LINE
  5
1CDE1
330
747D
100
AcDbEntity
  8
部品1
 48
50.0
100
AcDbLine
 10
6897.829581418176
 20
11425.73679736192
 30
0.0
 11
6897.829581418176
 21
11413.73679736192
 31
0.0
  0
LINE
  5
1CDE2
330
747D
100
AcDbEntity
  8
部品1
 48
50.0
100
AcDbLine
 10
6917.829581418175
 20
11544.23679736192
 30
0.0
 11
6897.829581418176
 21
11543.23679736192
 31
0.0
  0
LINE
  5
1CDE3
330
747D
100
AcDbEntity
  8
部品1
 48
50.0
100
AcDbLine
 10
6917.829581418175
 20
11555.23679736192
 30
0.0
 11
6917.829581418175
 21
11544.23679736192
 31
0.0
  0
LINE
  5
1CDE4
330
747D
100
AcDbEntity
  8
細線
 48
50.0
100
AcDbLine
 10
6917.378935371845
 20
11544.56282416284
 30
0.0
 11
6897.405612020484
 21
11543.53017983797
 31
0.0
  0
LINE
  5
1CDE5
330
747D
100
AcDbEntity
  8
細線
 48
50.0
100
AcDbLine
 10
6916.552819911951
 20
11560.54148284394
 30
0.0
 11
6917.378935371845
 21
11544.56282416284
 31
0.0
  0
LINE
  5
1CDE6
330
747D
100
AcDbEntity
  8
細線
 48
50.0
100
AcDbLine
 10
6896.579496560588
 20
11559.50883851907
 30
0.0
 11
6897.405612020484
 21
11543.53017983798
 31
0.0
  0
LINE
  5
1CDE7
330
747D
100
AcDbEntity
  8
部品1
 48
50.0
100
AcDbLine
 10
6947.829581418176
 20
11556.73679736192
 30
0.0
 11
6917.829581418175
 21
11555.23679736192
 31
0.0
  0
LINE
  5
1CDE8
330
747D
100
AcDbEntity
  8
部品1
 48
50.0
100
AcDbLine
 10
6897.829581418176
 20
11413.73679736192
 30
0.0
 11
6947.829581418176
 21
11413.73679736192
 31
0.0
  0
LINE
  5
1CDE9
330
747D
100
AcDbEntity
  8
細線
 48
50.0
100
AcDbLine
 10
7581.329581418168
 20
11172.23679736192
 30
0.0
 11
7581.329581418168
 21
11198.73679736192
 31
0.0
  0
LINE
  5
1CDEA
330
747D
100
AcDbEntity
  8
部品1
 48
50.0
100
AcDbLine
 10
7572.829581418176
 20
11588.73679736192
 30
0.0
 11
7572.829581418176
 21
11200.62568625081
 31
0.0
  0
LINE
  5
1CDEB
330
747D
100
AcDbEntity
  8
部品1
 48
50.0
100
AcDbLine
 10
7522.329581418175
 20
11378.73679736192
 30
0.0
 11
7522.329581418175
 21
11238.73679736193
 31
0.0
  0
LINE
  5
1CDEC
330
747D
100
AcDbEntity
  8
細線
 48
50.0
100
AcDbLine
 10
7537.829581418176
 20
11378.73679736192
 30
0.0
 11
7537.829581418183
 21
11218.73679736192
 31
0.0
  0
LINE
  5
1CDED
330
747D
100
AcDbEntity
  8
細線
 48
50.0
100
AcDbLine
 10
7510.329581418169
 20
11210.73679736192
 30
0.0
 11
7510.329581418169
 21
11246.73679736192
 31
0.0
  0
LINE
  5
1CDEE
330
747D
100
AcDbEntity
  8
細線
 48
50.0
100
AcDbLine
 10
7522.329581418168
 20
11210.73679736192
 30
0.0
 11
7510.329581418169
 21
11210.73679736192
 31
0.0
  0
LINE
  5
1CDEF
330
747D
100
AcDbEntity
  8
細線
 48
50.0
100
AcDbLine
 10
7522.329581418168
 20
11246.73679736192
 30
0.0
 11
7510.329581418169
 21
11246.73679736192
 31
0.0
  0
LINE
  5
1CDF0
330
747D
100
AcDbEntity
  8
細線
 48
50.0
100
AcDbLine
 10
7572.829581418169
 20
11218.73679736192
 30
0.0
 11
7537.829581418183
 21
11218.73679736192
 31
0.0
  0
LINE
  5
1CDF1
330
747D
100
AcDbEntity
  8
細線
 48
50.0
100
AcDbLine
 10
7522.329581418175
 20
11238.73679736192
 30
0.0
 11
7537.829581418176
 21
11238.73679736192
 31
0.0
  0
LINE
  5
1CDF2
330
747D
100
AcDbEntity
  8
細線
 48
50.0
100
AcDbLine
 10
7522.329581418168
 20
11210.73679736192
 30
0.0
 11
7522.329581418161
 21
11246.73679736192
 31
0.0
  0
LINE
  5
1CDF3
330
747D
100
AcDbEntity
  8
細線
 48
50.0
100
AcDbLine
 10
7511.329581418168
 20
11210.73679736192
 30
0.0
 11
7511.329581418168
 21
11173.23679736192
 31
0.0
  0
LINE
  5
1CDF4
330
747D
100
AcDbEntity
  8
細線
 48
50.0
100
AcDbLine
 10
7511.329581418168
 20
11173.23679736192
 30
0.0
 11
7511.329581418168
 21
11198.23679736192
 31
0.0
  0
LINE
  5
1CDF5
330
747D
100
AcDbEntity
  8
細線
 48
50.0
100
AcDbLine
 10
7511.329581418168
 20
11198.23679736192
 30
0.0
 11
7561.629581418171
 21
11198.23679736192
 31
0.0
  0
LINE
  5
1CDF6
330
747D
100
AcDbEntity
  8
細線
 48
50.0
100
AcDbLine
 10
7528.329581418168
 20
11171.23679736192
 30
0.0
 11
7528.329581418168
 21
11198.23679736192
 31
0.0
  0
LINE
  5
1CDF7
330
747D
100
AcDbEntity
  8
細線
 48
50.0
100
AcDbLine
 10
7561.629581418171
 20
11171.23679736192
 30
0.0
 11
7561.629581418171
 21
11200.73679736192
 31
0.0
  0
LINE
  5
1CDF8
330
747D
100
AcDbEntity
  8
細線
 48
50.0
100
AcDbLine
 10
7572.329581418168
 20
11200.73679736192
 30
0.0
 11
7572.329581418168
 21
11218.23679736192
 31
0.0
  0
LINE
  5
1CDF9
330
747D
100
AcDbEntity
  8
細線
 48
50.0
100
AcDbLine
 10
7537.329581418169
 20
11198.23679736192
 30
0.0
 11
7537.329581418169
 21
11238.73679736192
 31
0.0
  0
LINE
  5
1CDFA
330
747D
100
AcDbEntity
  8
細線
 48
50.0
100
AcDbLine
 10
7572.329581418168
 20
11200.73679736192
 30
0.0
 11
7561.629581418164
 21
11200.73679736192
 31
0.0
  0
LINE
  5
1CDFB
330
747D
100
AcDbEntity
  8
細線
 48
50.0
100
AcDbLine
 10
7573.129581418207
 20
11179.23679736192
 30
0.0
 11
7550.129581418179
 21
11179.23679736193
 31
0.0
  0
LINE
  5
1CDFC
330
747D
100
AcDbEntity
  8
細線
 48
50.0
100
AcDbLine
 10
7573.129581418179
 20
11141.23679736192
 30
0.0
 11
7550.129581418179
 21
11141.23679736192
 31
0.0
  0
LINE
  5
1CDFD
330
747D
100
AcDbEntity
  8
細線
 48
50.0
100
AcDbLine
 10
7540.579581418154
 20
11141.23679736192
 30
0.0
 11
7516.079581418161
 21
11141.23679736192
 31
0.0
  0
LINE
  5
1CDFE
330
747D
100
AcDbEntity
  8
細線
 48
50.0
100
AcDbLine
 10
7540.57958141819
 20
11179.23679736193
 30
0.0
 11
7516.079581418161
 21
11179.23679736192
 31
0.0
  0
LINE
  5
1CDFF
330
747D
100
AcDbEntity
  8
細線
 48
50.0
100
AcDbLine
 10
7581.329581418168
 20
11198.73679736192
 30
0.0
 11
7572.329581418168
 21
11200.73679736192
 31
0.0
  0
LINE
  5
1CE00
330
747D
100
AcDbEntity
  8
細線
 48
50.0
100
AcDbLine
 10
7572.829581418183
 20
11499.08397580094
 30
0.0
 11
7677.819836709007
 21
11500.75399803949
 31
0.0
  0
LINE
  5
1CE01
330
747D
100
AcDbEntity
  8
部品1
 48
50.0
100
AcDbLine
 10
7572.758011447082
 20
11503.58340662485
 30
0.0
 11
7674.748646188628
 21
11505.20571554934
 31
0.0
  0
ARC
  5
1CE02
330
747D
100
AcDbEntity
  8
部品1
100
AcDbCircle
 10
7692.329581418175
 20
11600.20873825648
 30
0.0
 40
15.5
100
AcDbArc
 50
358.1167995116895
 51
91.86125648319634
  0
ARC
  5
1CE03
330
747D
100
AcDbEntity
  8
部品1
100
AcDbCircle
 10
7686.572179567504
 20
11516.3951774863
 30
0.0
 40
15.5
100
AcDbArc
 50
270.9112955958145
 51
358.1167995116315
  0
ARC
  5
1CE04
330
747D
100
AcDbEntity
  8
部品1
100
AcDbCircle
 10
7704.654231278204
 20
11518.59483674579
 30
0.0
 40
2.5
100
AcDbArc
 50
99.02226950947451
 51
178.1167995116955
  0
ARC
  5
1CE05
330
747D
100
AcDbEntity
  8
部品1
100
AcDbCircle
 10
7704.074003404617
 20
11522.24905836089
 30
0.0
 40
1.199999999999999
100
AcDbArc
 50
279.0222695094722
 51
358.1167995116895
  0
LINE
  5
1CE06
330
747D
100
AcDbEntity
  8
部品1
100
AcDbLine
 10
7702.15558154245
 20
11518.67699207423
 30
0.0
 11
7702.06380792921
 21
11515.88581444995
 31
0.0
  0
LINE
  5
1CE07
330
747D
100
AcDbEntity
  8
部品1
100
AcDbLine
 10
7707.821209779881
 20
11599.69937522014
 30
0.0
 11
7705.273355277778
 21
11522.20962380324
 31
0.0
  0
ARC
  5
1CE08
330
747D
100
AcDbEntity
  8
部品1
100
AcDbCircle
 10
7689.61492452878
 20
11617.16593841162
 30
0.0
 40
1.5
100
AcDbArc
 50
204.5961819643761
 51
270.9018459011026
  0
LINE
  5
1CE09
330
747D
100
AcDbEntity
  8
部品1
 48
50.0
100
AcDbLine
 10
7689.638533824356
 20
11615.66612422274
 30
0.0
 11
7691.826151637433
 21
11615.70056056554
 31
0.0
  0
ARC
  5
1CE0A
330
747D
100
AcDbEntity
  8
部品1
 48
50.0
100
AcDbCircle
 10
7678.376609304381
 20
11629.70399808342
 30
0.0
 40
3.5
100
AcDbArc
 50
24.59618196436618
 51
91.03524671598787
  0
LINE
  5
1CE0B
330
747D
100
AcDbEntity
  8
部品1
100
AcDbLine
 10
7688.251028758502
 20
11616.54160810816
 30
0.0
 11
7681.559032768359
 21
11631.16076879148
 31
0.0
  0
LINE
  5
1CE0C
330
747D
100
AcDbEntity
  8
部品1
 48
50.0
100
AcDbLine
 10
7677.819836709007
 20
11500.75399803949
 30
0.0
 11
7677.795980051974
 21
11502.25380831413
 31
0.0
  0
ARC
  5
1CE0D
330
747D
100
AcDbEntity
  8
部品1
 48
50.0
100
AcDbCircle
 10
7674.796359502694
 20
11502.20609500006
 30
0.0
 40
3.0
100
AcDbArc
 50
0.9112955958087358
 51
90.91129559581467
  0
LINE
  5
1CE0E
330
747D
100
AcDbEntity
  8
部品1
 48
50.0
100
AcDbLine
 10
7677.819836709007
 20
11500.75399803949
 30
0.0
 11
7686.818698356844
 21
11500.89713798169
 31
0.0
  0
LINE
  5
1CE0F
330
747D
100
AcDbEntity
  8
部品1
 48
50.0
100
AcDbLine
 10
7630.613200803766
 20
11632.34146413894
 30
0.0
 11
7620.863607692212
 21
11603.9699038336
 31
0.0
  0
LINE
  5
1CE10
330
747D
100
AcDbEntity
  8
細線
 48
50.0
100
AcDbLine
 10
7679.196796110925
 20
11622.00045751341
 30
0.0
 11
7680.332704868276
 21
11600.02980182689
 31
0.0
  0
LINE
  5
1CE11
330
747D
100
AcDbEntity
  8
部品1
 48
50.0
100
AcDbLine
 10
7507.829581418175
 20
11413.73679736192
 30
0.0
 11
7485.829581418176
 21
11413.73679736192
 31
0.0
  0
LINE
  5
1CE12
330
747D
100
AcDbEntity
  8
部品1
 48
50.0
100
AcDbLine
 10
7499.187445794449
 20
11393.73679736192
 30
0.0
 11
7507.829581418175
 21
11393.73679736192
 31
0.0
  0
LINE
  5
1CE13
330
747D
100
AcDbEntity
  8
部品1
 48
50.0
100
AcDbLine
 10
7522.829581418176
 20
11378.73679736192
 30
0.0
 11
7522.329581418175
 21
11378.73679736192
 31
0.0
  0
LINE
  5
1CE14
330
747D
100
AcDbEntity
  8
部品1
 48
50.0
100
AcDbLine
 10
7507.829581418175
 20
11413.73679736192
 30
0.0
 11
7485.829581418176
 21
11413.73679736192
 31
0.0
  0
LINE
  5
1CE15
330
747D
100
AcDbEntity
  8
部品1
 48
50.0
100
AcDbLine
 10
7507.829581418175
 20
11393.73679736192
 30
0.0
 11
7507.829581418175
 21
11413.73679736192
 31
0.0
  0
LINE
  5
1CE16
330
747D
100
AcDbEntity
  8
部品1
 48
50.0
100
AcDbLine
 10
7522.829581418176
 20
11378.73679736192
 30
0.0
 11
7507.829581418175
 21
11393.73679736192
 31
0.0
  0
LINE
  5
1CE17
330
747D
100
AcDbEntity
  8
部品1
100
AcDbLine
 10
7498.187445794449
 20
11389.73679736192
 30
0.0
 11
7499.187445794449
 21
11389.73679736192
 31
0.0
  0
LINE
  5
1CE18
330
747D
100
AcDbEntity
  8
部品1
100
AcDbLine
 10
7498.187445794449
 20
11388.73679736192
 30
0.0
 11
7498.187445794449
 21
11389.73679736192
 31
0.0
  0
LINE
  5
1CE19
330
747D
100
AcDbEntity
  8
部品1
100
AcDbLine
 10
7499.187445794449
 20
11389.73679736192
 30
0.0
 11
7499.187445794449
 21
11393.73679736192
 31
0.0
  0
LINE
  5
1CE1A
330
747D
100
AcDbEntity
  8
部品1
100
AcDbLine
 10
7505.637193262751
 20
11384.11547701836
 30
0.0
 11
7504.930086481566
 21
11383.40837023718
 31
0.0
  0
LINE
  5
1CE1B
330
747D
100
AcDbEntity
  8
部品1
100
AcDbLine
 10
7503.515872919189
 20
11383.40837023718
 30
0.0
 11
7498.187445794449
 21
11388.73679736192
 31
0.0
  0
ARC
  5
1CE1C
330
747D
100
AcDbEntity
  8
部品1
100
AcDbCircle
 10
7504.222979700381
 20
11384.11547701836
 30
0.0
 40
1.0
100
AcDbArc
 50
225.0
 51
315.0
  0
LINE
  5
1CE1D
330
747D
100
AcDbEntity
  8
部品1
100
AcDbLine
 10
7512.708261074614
 20
11377.0444092065
 30
0.0
 11
7505.637193262751
 21
11384.11547701836
 31
0.0
  0
LINE
  5
1CE1E
330
747D
100
AcDbEntity
  8
部品1
100
AcDbLine
 10
7512.001075234802
 20
11376.33722336669
 30
0.0
 11
7512.708261074614
 21
11377.0444092065
 31
0.0
  0
ARC
  5
1CE1F
330
747D
100
AcDbEntity
  8
部品1
100
AcDbCircle
 10
7512.708261074614
 20
11375.63019565296
 30
0.0
 40
1.0
100
AcDbArc
 50
135.0000000000011
 51
225.0000000000003
  0
LINE
  5
1CE20
330
747D
100
AcDbEntity
  8
部品1
100
AcDbLine
 10
7519.329581418175
 20
11367.5946617382
 30
0.0
 11
7522.329581418175
 21
11367.5946617382
 31
0.0
  0
LINE
  5
1CE21
330
747D
100
AcDbEntity
  8
部品1
100
AcDbLine
 10
7519.329581418175
 20
11367.5946617382
 30
0.0
 11
7512.001154293429
 21
11374.92308887178
 31
0.0
  0
LINE
  5
1CE22
330
747D
100
AcDbEntity
  8
部品1
 48
50.0
100
AcDbLine
 10
7544.329581418175
 20
11573.73679736192
 30
0.0
 11
7521.829581418176
 21
11573.73679736192
 31
0.0
  0
LINE
  5
1CE23
330
747D
100
AcDbEntity
  8
部品1
 48
50.0
100
AcDbLine
 10
7544.329581418175
 20
11588.73679736192
 30
0.0
 11
7544.329581418175
 21
11573.73679736192
 31
0.0
  0
LINE
  5
1CE24
330
747D
100
AcDbEntity
  8
細線
 48
50.0
100
AcDbLine
 10
7542.516773743838
 20
11592.90455598531
 30
0.0
 11
7543.342889203732
 21
11576.92589730421
 31
0.0
  0
LINE
  5
1CE25
330
747D
100
AcDbEntity
  8
細線
 48
50.0
100
AcDbLine
 10
7522.543450392468
 20
11591.87191166044
 30
0.0
 11
7523.369565852364
 21
11575.89325297934
 31
0.0
  0
LINE
  5
1CE26
330
747D
100
AcDbEntity
  8
細線
 48
50.0
100
AcDbLine
 10
7543.342889203732
 20
11576.92589730421
 30
0.0
 11
7523.369565852364
 21
11575.89325297934
 31
0.0
  0
LINE
  5
1CE27
330
747D
100
AcDbEntity
  8
部品1
 48
50.0
100
AcDbLine
 10
7572.829581418176
 20
11378.73679736192
 30
0.0
 11
7522.829581418176
 21
11378.73679736192
 31
0.0
  0
LINE
  5
1CE28
330
747D
100
AcDbEntity
  8
部品1
 48
50.0
100
AcDbLine
 10
7572.829581418176
 20
11588.73679736192
 30
0.0
 11
7544.329581418175
 21
11588.73679736192
 31
0.0
  0
ENDSEC
  0
SECTION
  2
OBJECTS
  0
DICTIONARY
  5
7471
330
0
100
AcDbDictionary
281
     1
  3
ACAD_GROUP
350
7472
  3
ACAD_LAYOUT
350
1CF37
  3
ACAD_MLINESTYLE
350
7473
  3
ACAD_PLOTSETTINGS
350
1CF38
  3
ACAD_PLOTSTYLENAME
350
1CF35
  3
ACDBHEADERROUNDTRIPXREC
350
1CFC0
  3
ACDBVARIABLEDICTIONARY
350
123D8
  3
CONTENTDICTIONARY
350
E71C
  3
DRAWINGVARIABLESDICT
350
F3B9
  0
DICTIONARY
  5
1CF67
330
747D
100
AcDbDictionary
280
     1
281
     1
  3
ACAD_LAYOUTSELFREF
360
1CF68
  0
DICTIONARY
  5
1CF65
330
747A
100
AcDbDictionary
280
     1
281
     1
  3
ACAD_LAYOUTSELFREF
360
1CF66
  0
DICTIONARY
  5
7472
102
{ACAD_REACTORS
330
7471
102
}
330
7471
100
AcDbDictionary
281
     1
  0
DICTIONARY
  5
1CF37
102
{ACAD_REACTORS
330
7471
102
}
330
7471
100
AcDbDictionary
281
     1
  3
Model
350
1CF39
  3
ﾚｲｱｳﾄ1
350
1CF3A
  0
DICTIONARY
  5
7473
102
{ACAD_REACTORS
330
7471
102
}
330
7471
100
AcDbDictionary
281
     1
  3
STANDARD
350
7480
  0
DICTIONARY
  5
1CF38
102
{ACAD_REACTORS
330
7471
102
}
330
7471
100
AcDbDictionary
281
     1
  0
ACDBDICTIONARYWDFLT
  5
1CF35
102
{ACAD_REACTORS
330
7471
102
}
330
7471
100
AcDbDictionary
281
     1
  3
Normal
350
1CF36
100
AcDbDictionaryWithDefault
340
1CF36
  0
DICTIONARY
  5
1CFC0
102
{ACAD_REACTORS
330
7471
102
}
330
7471
100
AcDbDictionary
281
     1
  3
CEPSNTYPE
350
1CFCA
  3
DIMSTYLEDATA
350
1CFCE
  3
FINGERPRINTGUID
350
1CFCB
  3
HYPERLINKBASE
350
1CFC3
  3
INSUNITS
350
1CFC9
  3
LAYOUTDICT
350
1CFC5
  3
LWETCUNION
350
1CFC8
  3
PLOTSETDICT
350
1CFC6
  3
PLOTSTYLNAMDICT
350
1CFC7
  3
PSVPSCALE
350
1CFCD
  3
PUCSBASE
350
1CFD1
  3
PUCSORGBACK
350
1CFD7
  3
PUCSORGBOTTOM
350
1CFD3
  3
PUCSORGFRONT
350
1CFD6
  3
PUCSORGLEFT
350
1CFD4
  3
PUCSORGRIGHT
350
1CFD5
  3
PUCSORGTOP
350
1CFD2
  3
PUCSORTHOREF
350
1CFCF
  3
PUCSORTHOVIEW
350
1CFD0
  3
STYLESHEET
350
1CFC4
  3
TSTACKALIGN
350
1CFC1
  3
TSTACKSIZE
350
1CFC2
  3
UCSBASE
350
1CFDA
  3
UCSORGBACK
350
1CFE0
  3
UCSORGBOTTOM
350
1CFDC
  3
UCSORGFRONT
350
1CFDF
  3
UCSORGLEFT
350
1CFDD
  3
UCSORGRIGHT
350
1CFDE
  3
UCSORGTOP
350
1CFDB
  3
UCSORTHOREF
350
1CFD8
  3
UCSORTHOVIEW
350
1CFD9
  3
VERSIONGUID
350
1CFCC
  0
DICTIONARY
  5
123D8
102
{ACAD_REACTORS
330
7471
102
}
330
7471
100
AcDbDictionary
281
     1
  3
DIMASSOC
350
1CFB7
  3
SORTENTS
350
123D9
  0
DICTIONARY
  5
E71C
102
{ACAD_REACTORS
330
7471
102
}
330
7471
100
AcDbDictionary
281
     1
  0
DICTIONARY
  5
F3B9
102
{ACAD_REACTORS
330
7471
102
}
330
7471
100
AcDbDictionary
281
     1
1001
DRAWINGVARIABLESXDATA
1000
POLARMODE
1000
1
  0
XRECORD
  5
1CF68
102
{ACAD_REACTORS
330
1CF67
102
}
330
1CF67
100
AcDbXrecord
280
     1
340
747D
  0
XRECORD
  5
1CF66
102
{ACAD_REACTORS
330
1CF65
102
}
330
1CF65
100
AcDbXrecord
280
     1
340
747A
  0
LAYOUT
  5
1CF39
102
{ACAD_REACTORS
330
1CF37
102
}
330
1CF37
100
AcDbPlotSettings
  1

  2
Canon LBP-730
  4

  6

 40
0.0
 41
0.0
 42
0.0
 43
0.0
 44
0.0
 45
0.0
 46
0.0
 47
0.0
 48
0.0
 49
0.0
140
0.0
141
0.0
142
1.0
143
1.0
 70
  1712
 72
     0
 73
     0
 74
     0
  7

 75
     0
147
1.0
148
0.0
149
0.0
100
AcDbLayout
  1
Model
 70
     1
 71
     0
 10
0.0
 20
0.0
 11
12.0
 21
9.0
 12
0.0
 22
0.0
 32
0.0
 14
0.0
 24
0.0
 34
0.0
 15
0.0
 25
0.0
 35
0.0
146
0.0
 13
0.0
 23
0.0
 33
0.0
 16
1.0
 26
0.0
 36
0.0
 17
0.0
 27
1.0
 37
0.0
 76
     0
330
747D
  0
LAYOUT
  5
1CF3A
102
{ACAD_REACTORS
330
1CF37
102
}
330
1CF37
100
AcDbPlotSettings
  1

  2
Canon LBP-730
  4

  6

 40
0.0
 41
0.0
 42
0.0
 43
0.0
 44
0.0
 45
0.0
 46
0.0
 47
0.0
 48
0.0
 49
0.0
140
0.0
141
0.0
142
1.0
143
1.0
 70
   688
 72
     0
 73
     0
 74
     5
  7

 75
    16
147
1.0
148
0.0
149
0.0
100
AcDbLayout
  1
ﾚｲｱｳﾄ1
 70
     0
 71
     1
 10
0.0
 20
0.0
 11
420.0
 21
297.0
 12
0.0
 22
0.0
 32
0.0
 14
1.000000000000000E+20
 24
1.000000000000000E+20
 34
1.000000000000000E+20
 15
-1.000000000000000E+20
 25
-1.000000000000000E+20
 35
-1.000000000000000E+20
146
0.0
 13
0.0
 23
0.0
 33
0.0
 16
1.0
 26
0.0
 36
0.0
 17
0.0
 27
1.0
 37
0.0
 76
     0
330
747A
  0
MLINESTYLE
  5
7480
102
{ACAD_REACTORS
330
7473
102
}
330
7473
100
AcDbMlineStyle
  2
STANDARD
 70
     0
  3

 62
     0
 51
90.0
 52
90.0
 71
     2
 49
0.5
 62
   256
  6
BYLAYER
 49
-0.5
 62
   256
  6
BYLAYER
  0
ACDBPLACEHOLDER
  5
1CF36
102
{ACAD_REACTORS
330
1CF35
102
}
330
1CF35
  0
XRECORD
  5
1CFCA
102
{ACAD_REACTORS
330
1CFC0
102
}
330
1CFC0
100
AcDbXrecord
280
     1
 90
        0
  0
XRECORD
  5
1CFCE
102
{ACAD_REACTORS
330
1CFC0
102
}
330
1CFC0
100
AcDbXrecord
280
     1
1000
DSTYLE
1002
{
1070
   279
 70
     1
1070
   341
340
F770
1070
   343
340
F770
1070
   344
340
F770
1002
}
  0
XRECORD
  5
1CFCB
102
{ACAD_REACTORS
330
1CFC0
102
}
330
1CFC0
100
AcDbXrecord
280
     1
  1
{697DFE3A-F946-11D6-AF94-00909916878D}
  0
XRECORD
  5
1CFC3
102
{ACAD_REACTORS
330
1CFC0
102
}
330
1CFC0
100
AcDbXrecord
280
     1
  1

  0
XRECORD
  5
1CFC9
102
{ACAD_REACTORS
330
1CFC0
102
}
330
1CFC0
100
AcDbXrecord
280
     1
 90
        0
  0
XRECORD
  5
1CFC5
102
{ACAD_REACTORS
330
1CFC0
102
}
330
1CFC0
100
AcDbXrecord
280
     1
340
1CF37
  0
XRECORD
  5
1CFC8
102
{ACAD_REACTORS
330
1CFC0
102
}
330
1CFC0
100
AcDbXrecord
280
     1
 90
    14877
  0
XRECORD
  5
1CFC6
102
{ACAD_REACTORS
330
1CFC0
102
}
330
1CFC0
100
AcDbXrecord
280
     1
340
1CF38
  0
XRECORD
  5
1CFC7
102
{ACAD_REACTORS
330
1CFC0
102
}
330
1CFC0
100
AcDbXrecord
280
     1
340
1CF35
  0
XRECORD
  5
1CFCD
102
{ACAD_REACTORS
330
1CFC0
102
}
330
1CFC0
100
AcDbXrecord
280
     1
 40
0.0
  0
XRECORD
  5
1CFD1
102
{ACAD_REACTORS
330
1CFC0
102
}
330
1CFC0
100
AcDbXrecord
280
     1
340
0
  0
XRECORD
  5
1CFD7
102
{ACAD_REACTORS
330
1CFC0
102
}
330
1CFC0
100
AcDbXrecord
280
     1
 10
0.0
 20
0.0
 30
0.0
  0
XRECORD
  5
1CFD3
102
{ACAD_REACTORS
330
1CFC0
102
}
330
1CFC0
100
AcDbXrecord
280
     1
 10
0.0
 20
0.0
 30
0.0
  0
XRECORD
  5
1CFD6
102
{ACAD_REACTORS
330
1CFC0
102
}
330
1CFC0
100
AcDbXrecord
280
     1
 10
0.0
 20
0.0
 30
0.0
  0
XRECORD
  5
1CFD4
102
{ACAD_REACTORS
330
1CFC0
102
}
330
1CFC0
100
AcDbXrecord
280
     1
 10
0.0
 20
0.0
 30
0.0
  0
XRECORD
  5
1CFD5
102
{ACAD_REACTORS
330
1CFC0
102
}
330
1CFC0
100
AcDbXrecord
280
     1
 10
0.0
 20
0.0
 30
0.0
  0
XRECORD
  5
1CFD2
102
{ACAD_REACTORS
330
1CFC0
102
}
330
1CFC0
100
AcDbXrecord
280
     1
 10
0.0
 20
0.0
 30
0.0
  0
XRECORD
  5
1CFCF
102
{ACAD_REACTORS
330
1CFC0
102
}
330
1CFC0
100
AcDbXrecord
280
     1
340
0
  0
XRECORD
  5
1CFD0
102
{ACAD_REACTORS
330
1CFC0
102
}
330
1CFC0
100
AcDbXrecord
280
     1
 70
     0
  0
XRECORD
  5
1CFC4
102
{ACAD_REACTORS
330
1CFC0
102
}
330
1CFC0
100
AcDbXrecord
280
     1
  1

  0
XRECORD
  5
1CFC1
102
{ACAD_REACTORS
330
1CFC0
102
}
330
1CFC0
100
AcDbXrecord
280
     1
 90
        1
  0
XRECORD
  5
1CFC2
102
{ACAD_REACTORS
330
1CFC0
102
}
330
1CFC0
100
AcDbXrecord
280
     1
 90
       70
  0
XRECORD
  5
1CFDA
102
{ACAD_REACTORS
330
1CFC0
102
}
330
1CFC0
100
AcDbXrecord
280
     1
340
0
  0
XRECORD
  5
1CFE0
102
{ACAD_REACTORS
330
1CFC0
102
}
330
1CFC0
100
AcDbXrecord
280
     1
 10
0.0
 20
0.0
 30
0.0
  0
XRECORD
  5
1CFDC
102
{ACAD_REACTORS
330
1CFC0
102
}
330
1CFC0
100
AcDbXrecord
280
     1
 10
0.0
 20
0.0
 30
0.0
  0
XRECORD
  5
1CFDF
102
{ACAD_REACTORS
330
1CFC0
102
}
330
1CFC0
100
AcDbXrecord
280
     1
 10
0.0
 20
0.0
 30
0.0
  0
XRECORD
  5
1CFDD
102
{ACAD_REACTORS
330
1CFC0
102
}
330
1CFC0
100
AcDbXrecord
280
     1
 10
0.0
 20
0.0
 30
0.0
  0
XRECORD
  5
1CFDE
102
{ACAD_REACTORS
330
1CFC0
102
}
330
1CFC0
100
AcDbXrecord
280
     1
 10
0.0
 20
0.0
 30
0.0
  0
XRECORD
  5
1CFDB
102
{ACAD_REACTORS
330
1CFC0
102
}
330
1CFC0
100
AcDbXrecord
280
     1
 10
0.0
 20
0.0
 30
0.0
  0
XRECORD
  5
1CFD8
102
{ACAD_REACTORS
330
1CFC0
102
}
330
1CFC0
100
AcDbXrecord
280
     1
340
0
  0
XRECORD
  5
1CFD9
102
{ACAD_REACTORS
330
1CFC0
102
}
330
1CFC0
100
AcDbXrecord
280
     1
 70
     0
  0
XRECORD
  5
1CFCC
102
{ACAD_REACTORS
330
1CFC0
102
}
330
1CFC0
100
AcDbXrecord
280
     1
  1
{697DFE3C-F946-11D6-AF94-00909916878D}
  0
DICTIONARYVAR
  5
1CFB7
102
{ACAD_REACTORS
330
123D8
102
}
330
123D8
100
DictionaryVariables
280
     0
  1
1
  0
DICTIONARYVAR
  5
123D9
102
{ACAD_REACTORS
330
123D8
102
}
330
123D8
100
DictionaryVariables
280
     0
  1
96
  0
ENDSEC
  0
EOF
