  0
SECTION
  2
HEADER
  9
$ACADVER
  1
AC1015
  9
$ACADMAINTVER
 70
     6
  9
$DWGCODEPAGE
  3
ANSI_932
  9
$INSBASE
 10
0.0
 20
0.0
 30
0.0
  9
$EXTMIN
 10
174.9999999999993
 20
-0.0000000000001137
 30
0.0
  9
$EXTMAX
 10
20384.0
 20
14262.0
 30
0.0
  9
$LIMMIN
 10
0.0
 20
0.0
  9
$LIMMAX
 10
21000.0
 20
14850.0
  9
$ORTHOMODE
 70
     0
  9
$REGENMODE
 70
     1
  9
$FILLMODE
 70
     1
  9
$QTEXTMODE
 70
     0
  9
$MIRRTEXT
 70
     1
  9
$LTSCALE
 40
20.0
  9
$ATTMODE
 70
     1
  9
$TEXTSIZE
 40
4.0
  9
$TRACEWID
 40
1.0
  9
$TEXTSTYLE
  7
STYLE1
  9
$CLAYER
  8
寸法
  9
$CELTYPE
  6
BYLAYER
  9
$CECOLOR
 62
   256
  9
$CELTSCALE
 40
50.0
  9
$DISPSILH
 70
     0
  9
$DIMSCALE
 40
1.0
  9
$DIMASZ
 40
125.0
  9
$DIMEXO
 40
25.0
  9
$DIMDLI
 40
7.0
  9
$DIMRND
 40
0.0
  9
$DIMDLE
 40
0.0
  9
$DIMEXE
 40
75.0
  9
$DIMTP
 40
0.0
  9
$DIMTM
 40
0.0
  9
$DIMTXT
 40
150.0
  9
$DIMCEN
 40
0.0
  9
$DIMTSZ
 40
0.0
  9
$DIMTOL
 70
     0
  9
$DIMLIM
 70
     0
  9
$DIMTIH
 70
     0
  9
$DIMTOH
 70
     0
  9
$DIMSE1
 70
     0
  9
$DIMSE2
 70
     0
  9
$DIMTAD
 70
     3
  9
$DIMZIN
 70
     8
  9
$DIMBLK
  1

  9
$DIMASO
 70
     1
  9
$DIMSHO
 70
     1
  9
$DIMPOST
  1

  9
$DIMAPOST
  1

  9
$DIMALT
 70
     0
  9
$DIMALTD
 70
     2
  9
$DIMALTF
 40
0.0394
  9
$DIMLFAC
 40
1.0
  9
$DIMTOFL
 70
     1
  9
$DIMTVP
 40
0.0
  9
$DIMTIX
 70
     1
  9
$DIMSOXD
 70
     0
  9
$DIMSAH
 70
     1
  9
$DIMBLK1
  1
DOTSMALL
  9
$DIMBLK2
  1
DOTSMALL
  9
$DIMSTYLE
  2
INABA_S50G
  9
$DIMCLRD
 70
     0
  9
$DIMCLRE
 70
     0
  9
$DIMCLRT
 70
     7
  9
$DIMTFAC
 40
1.0
  9
$DIMGAP
 40
25.0
  9
$DIMJUST
 70
     0
  9
$DIMSD1
 70
     0
  9
$DIMSD2
 70
     0
  9
$DIMTOLJ
 70
     1
  9
$DIMTZIN
 70
     0
  9
$DIMALTZ
 70
     0
  9
$DIMALTTZ
 70
     0
  9
$DIMUPT
 70
     0
  9
$DIMDEC
 70
     1
  9
$DIMTDEC
 70
     4
  9
$DIMALTU
 70
     2
  9
$DIMALTTD
 70
     2
  9
$DIMTXSTY
  7
STYLE1
  9
$DIMAUNIT
 70
     0
  9
$DIMADEC
 70
     0
  9
$DIMALTRND
 40
0.0
  9
$DIMAZIN
 70
     0
  9
$DIMDSEP
 70
    46
  9
$DIMATFIT
 70
     3
  9
$DIMFRAC
 70
     0
  9
$DIMLDRBLK
  1
DOTSMALL
  9
$DIMLUNIT
 70
     2
  9
$DIMLWD
 70
    -2
  9
$DIMLWE
 70
    -2
  9
$DIMTMOVE
 70
     0
  9
$LUNITS
 70
     2
  9
$LUPREC
 70
     1
  9
$SKETCHINC
 40
1.0
  9
$FILLETRAD
 40
3.0
  9
$AUNITS
 70
     0
  9
$AUPREC
 70
     0
  9
$MENU
  1
acad
  9
$ELEVATION
 40
0.0
  9
$PELEVATION
 40
0.0
  9
$THICKNESS
 40
0.0
  9
$LIMCHECK
 70
     0
  9
$CHAMFERA
 40
0.0
  9
$CHAMFERB
 40
0.0
  9
$CHAMFERC
 40
0.0
  9
$CHAMFERD
 40
0.0
  9
$SKPOLY
 70
     0
  9
$TDCREATE
 40
2452335.452219212
  9
$TDUCREATE
 40
2452335.077219213
  9
$TDUPDATE
 40
2452595.551851735
  9
$TDUUPDATE
 40
2452595.176851736
  9
$TDINDWG
 40
1.3877252315
  9
$TDUSRTIMER
 40
1.3877252315
  9
$USRTIMER
 70
     1
  9
$ANGBASE
 50
0.0
  9
$ANGDIR
 70
     0
  9
$PDMODE
 70
     3
  9
$PDSIZE
 40
2.0
  9
$PLINEWID
 40
0.0
  9
$SPLFRAME
 70
     0
  9
$SPLINETYPE
 70
     6
  9
$SPLINESEGS
 70
     8
  9
$HANDSEED
  5
1D007
  9
$SURFTAB1
 70
     6
  9
$SURFTAB2
 70
     6
  9
$SURFTYPE
 70
     6
  9
$SURFU
 70
     6
  9
$SURFV
 70
     6
  9
$UCSBASE
  2

  9
$UCSNAME
  2

  9
$UCSORG
 10
0.0
 20
0.0
 30
0.0
  9
$UCSXDIR
 10
1.0
 20
0.0
 30
0.0
  9
$UCSYDIR
 10
0.0
 20
1.0
 30
0.0
  9
$UCSORTHOREF
  2

  9
$UCSORTHOVIEW
 70
     0
  9
$UCSORGTOP
 10
0.0
 20
0.0
 30
0.0
  9
$UCSORGBOTTOM
 10
0.0
 20
0.0
 30
0.0
  9
$UCSORGLEFT
 10
0.0
 20
0.0
 30
0.0
  9
$UCSORGRIGHT
 10
0.0
 20
0.0
 30
0.0
  9
$UCSORGFRONT
 10
0.0
 20
0.0
 30
0.0
  9
$UCSORGBACK
 10
0.0
 20
0.0
 30
0.0
  9
$PUCSBASE
  2

  9
$PUCSNAME
  2

  9
$PUCSORG
 10
0.0
 20
0.0
 30
0.0
  9
$PUCSXDIR
 10
1.0
 20
0.0
 30
0.0
  9
$PUCSYDIR
 10
0.0
 20
1.0
 30
0.0
  9
$PUCSORTHOREF
  2

  9
$PUCSORTHOVIEW
 70
     0
  9
$PUCSORGTOP
 10
0.0
 20
0.0
 30
0.0
  9
$PUCSORGBOTTOM
 10
0.0
 20
0.0
 30
0.0
  9
$PUCSORGLEFT
 10
0.0
 20
0.0
 30
0.0
  9
$PUCSORGRIGHT
 10
0.0
 20
0.0
 30
0.0
  9
$PUCSORGFRONT
 10
0.0
 20
0.0
 30
0.0
  9
$PUCSORGBACK
 10
0.0
 20
0.0
 30
0.0
  9
$USERI1
 70
     0
  9
$USERI2
 70
     0
  9
$USERI3
 70
     0
  9
$USERI4
 70
     0
  9
$USERI5
 70
     0
  9
$USERR1
 40
0.0
  9
$USERR2
 40
0.0
  9
$USERR3
 40
0.0
  9
$USERR4
 40
0.0
  9
$USERR5
 40
0.0
  9
$WORLDVIEW
 70
     1
  9
$SHADEDGE
 70
     3
  9
$SHADEDIF
 70
    70
  9
$TILEMODE
 70
     1
  9
$MAXACTVP
 70
    16
  9
$PINSBASE
 10
0.0
 20
0.0
 30
0.0
  9
$PLIMCHECK
 70
     0
  9
$PEXTMIN
 10
1.000000000000000E+20
 20
1.000000000000000E+20
 30
1.000000000000000E+20
  9
$PEXTMAX
 10
-1.000000000000000E+20
 20
-1.000000000000000E+20
 30
-1.000000000000000E+20
  9
$PLIMMIN
 10
0.0
 20
0.0
  9
$PLIMMAX
 10
420.0
 20
297.0
  9
$UNITMODE
 70
     0
  9
$VISRETAIN
 70
     0
  9
$PLINEGEN
 70
     0
  9
$PSLTSCALE
 70
     0
  9
$TREEDEPTH
 70
  3020
  9
$CMLSTYLE
  2
STANDARD
  9
$CMLJUST
 70
     0
  9
$CMLSCALE
 40
1.0
  9
$PROXYGRAPHICS
 70
     1
  9
$MEASUREMENT
 70
     1
  9
$CELWEIGHT
370
    -1
  9
$ENDCAPS
280
     0
  9
$JOINSTYLE
280
     0
  9
$LWDISPLAY
290
     0
  9
$INSUNITS
 70
     0
  9
$HYPERLINKBASE
  1

  9
$STYLESHEET
  1

  9
$XEDIT
290
     1
  9
$CEPSNTYPE
380
     0
  9
$PSTYLEMODE
290
     1
  9
$FINGERPRINTGUID
  2
{697DFE3D-F946-11D6-AF94-00909916878D}
  9
$VERSIONGUID
  2
{697DFE3F-F946-11D6-AF94-00909916878D}
  9
$EXTNAMES
290
     1
  9
$PSVPSCALE
 40
0.0
  9
$OLESTARTUP
290
     0
  0
ENDSEC
  0
SECTION
  2
CLASSES
  0
CLASS
  1
OLE2FRAME
  2
AcDbOle2Frame
  3
AutoCAD 2000
 90
    32768
280
     0
281
     1
  0
CLASS
  1
LWPOLYLINE
  2
AcDbPolyline
  3
AutoCAD 2000
 90
    32768
280
     0
281
     1
  0
CLASS
  1
HATCH
  2
AcDbHatch
  3
AutoCAD 2000
 90
    32768
280
     0
281
     1
  0
CLASS
  1
DICTIONARYVAR
  2
AcDbDictionaryVar
  3
AutoCAD 2000
 90
        0
280
     0
281
     0
  0
CLASS
  1
ACDBDICTIONARYWDFLT
  2
AcDbDictionaryWithDefault
  3
AutoCAD 2000
 90
        0
280
     0
281
     0
  0
CLASS
  1
ACDBPLACEHOLDER
  2
AcDbPlaceHolder
  3
AutoCAD 2000
 90
        0
280
     0
281
     0
  0
CLASS
  1
LAYOUT
  2
AcDbLayout
  3
AutoCAD 2000
 90
        0
280
     0
281
     0
  0
CLASS
  1
LONG_TRANSACTION
  2
AcDbLongTransaction
  3
AutoCAD 2000
 90
    32768
280
     0
281
     0
  0
CLASS
  1
LWPOLYLINE
  2
AcDbPolyline
  3
AutoCAD 2000
 90
    32768
280
     0
281
     1
  0
CLASS
  1
HATCH
  2
AcDbHatch
  3
AutoCAD 2000
 90
    32768
280
     0
281
     1
  0
CLASS
  1
XRECORD
  2
AcDbXrecord
  3
AutoCAD 2000
 90
    32768
280
     0
281
     0
  0
ENDSEC
  0
SECTION
  2
TABLES
  0
TABLE
  2
VPORT
  5
746D
330
0
100
AcDbSymbolTable
 70
     2
  0
VPORT
  5
1CFE5
330
746D
100
AcDbSymbolTableRecord
100
AcDbViewportTableRecord
  2
*Active
 70
     0
 10
0.0
 20
0.0
 11
1.0
 21
1.0
 12
10500.0
 22
8286.123436339119
 13
0.0
 23
0.0
 14
10.0
 24
10.0
 15
10.0
 25
10.0
 16
0.0
 26
0.0
 36
1.0
 17
0.0
 27
0.0
 37
0.0
 40
16748.20763317997
 41
1.902010050251256
 42
50.0
 43
0.0
 44
0.0
 50
0.0
 51
0.0
 71
     0
 72
     0
 73
     1
 74
     0
 75
     0
 76
     0
 77
     0
 78
     0
281
     0
 65
     1
110
0.0
120
0.0
130
0.0
111
1.0
121
0.0
131
0.0
112
0.0
122
1.0
132
0.0
 79
     0
146
0.0
  0
ENDTAB
  0
TABLE
  2
LTYPE
  5
746A
330
0
100
AcDbSymbolTable
 70
     4
  0
LTYPE
  5
7477
330
746A
100
AcDbSymbolTableRecord
100
AcDbLinetypeTableRecord
  2
BYBLOCK
 70
     0
  3

 72
    65
 73
     0
 40
0.0
  0
LTYPE
  5
7478
330
746A
100
AcDbSymbolTableRecord
100
AcDbLinetypeTableRecord
  2
BYLAYER
 70
     0
  3

 72
    65
 73
     0
 40
0.0
  0
LTYPE
  5
7479
330
746A
100
AcDbSymbolTableRecord
100
AcDbLinetypeTableRecord
  2
CONTINUOUS
 70
     0
  3
Solid line
 72
    65
 73
     0
 40
0.0
  0
LTYPE
  5
7816
330
746A
100
AcDbSymbolTableRecord
100
AcDbLinetypeTableRecord
  2
CENTER
 70
     0
  3
____ _ ____ _ ____ _ ____ _ ____ _ ____ _ ____ 
 72
    65
 73
     4
 40
2.0
 49
1.25
 74
     0
 49
-0.25
 74
     0
 49
0.25
 74
     0
 49
-0.25
 74
     0
  0
LTYPE
  5
781A
330
746A
100
AcDbSymbolTableRecord
100
AcDbLinetypeTableRecord
  2
HIDDEN
 70
     0
  3
__ __ __ __ __ __ __ __ __ __ __ __ __ __ __ __
 72
    65
 73
     2
 40
0.375
 49
0.25
 74
     0
 49
-0.125
 74
     0
  0
LTYPE
  5
781B
330
746A
100
AcDbSymbolTableRecord
100
AcDbLinetypeTableRecord
  2
PHANTOM
 70
     0
  3
______  __  __  ______  __  __  ______  __  __ 
 72
    65
 73
     6
 40
2.5
 49
1.25
 74
     0
 49
-0.25
 74
     0
 49
0.25
 74
     0
 49
-0.25
 74
     0
 49
0.25
 74
     0
 49
-0.25
 74
     0
  0
ENDTAB
  0
TABLE
  2
LAYER
  5
7467
330
0
100
AcDbSymbolTable
 70
    12
  0
LAYER
  5
7474
330
7467
100
AcDbSymbolTableRecord
100
AcDbLayerTableRecord
  2
0
 70
     0
 62
     7
  6
CONTINUOUS
370
    -3
390
1CF5C
  0
LAYER
  5
DEB2
330
7467
100
AcDbSymbolTableRecord
100
AcDbLayerTableRecord
  2
センター
 70
     0
 62
     3
  6
CENTER
370
    -3
390
1CF5C
  0
LAYER
  5
DEB3
330
7467
100
AcDbSymbolTableRecord
100
AcDbLayerTableRecord
  2
寸法
 70
     0
 62
     4
  6
CONTINUOUS
370
    -3
390
1CF5C
  0
LAYER
  5
DEB4
330
7467
100
AcDbSymbolTableRecord
100
AcDbLayerTableRecord
  2
部品1
 70
     0
 62
     7
  6
CONTINUOUS
370
    -3
390
1CF5C
  0
LAYER
  5
DEB5
330
7467
100
AcDbSymbolTableRecord
100
AcDbLayerTableRecord
  2
補助
 70
     0
 62
    -1
  6
CONTINUOUS
370
    -3
390
1CF5C
  0
LAYER
  5
DEB6
330
7467
100
AcDbSymbolTableRecord
100
AcDbLayerTableRecord
  2
文字
 70
     0
 62
     7
  6
CONTINUOUS
370
    -3
390
1CF5C
  0
LAYER
  5
F255
330
7467
100
AcDbSymbolTableRecord
100
AcDbLayerTableRecord
  2
DEFPOINTS
 70
     0
 62
     7
  6
CONTINUOUS
290
     0
370
    -3
390
1CF5C
  0
LAYER
  5
10B54
330
7467
100
AcDbSymbolTableRecord
100
AcDbLayerTableRecord
  2
仕様書枠
 70
     0
 62
   230
  6
CONTINUOUS
370
    -3
390
1CF5C
  0
LAYER
  5
11729
330
7467
100
AcDbSymbolTableRecord
100
AcDbLayerTableRecord
  2
Ｇ．Ｌ
 70
     0
 62
    30
  6
CONTINUOUS
370
    -3
390
1CF5C
  0
LAYER
  5
1173F
330
7467
100
AcDbSymbolTableRecord
100
AcDbLayerTableRecord
  2
細線
 70
     0
 62
     5
  6
CONTINUOUS
370
    -3
390
1CF5C
  0
LAYER
  5
15A90
330
7467
100
AcDbSymbolTableRecord
100
AcDbLayerTableRecord
  2
想像線
 70
     0
 62
     6
  6
PHANTOM
370
    -3
390
1CF5C
  0
LAYER
  5
188E2
330
7467
100
AcDbSymbolTableRecord
100
AcDbLayerTableRecord
  2
破線
 70
     0
 62
     2
  6
HIDDEN
370
    -3
390
1CF5C
  0
ENDTAB
  0
TABLE
  2
STYLE
  5
7468
330
0
100
AcDbSymbolTable
 70
     3
  0
STYLE
  5
7475
330
7468
100
AcDbSymbolTableRecord
100
AcDbTextStyleTableRecord
  2
STANDARD
 70
     0
 40
0.0
 41
1.0
 50
0.0
 71
     0
 42
4.0
  3
txt
  4
C:\AutoCAD LT\bigfont.shx
  0
STYLE
  5
F706
330
7468
100
AcDbSymbolTableRecord
100
AcDbTextStyleTableRecord
  2
STYLE1
 70
     0
 40
0.0
 41
1.0
 50
0.0
 71
     0
 42
4.0
  3
isocp.shx
  4
bigfont.shx
  0
STYLE
  5
103BF
330
7468
100
AcDbSymbolTableRecord
100
AcDbTextStyleTableRecord
  2
STYLE2
 70
     0
 40
0.0
 41
1.0
 50
0.0
 71
     0
 42
100.0
  3
MS PGothic.ttf
  4

1001
ACAD
1000
MS PGothic
1071
    32818
  0
ENDTAB
  0
TABLE
  2
VIEW
  5
746B
330
0
100
AcDbSymbolTable
 70
     0
  0
ENDTAB
  0
TABLE
  2
UCS
  5
746C
330
0
100
AcDbSymbolTable
 70
     0
  0
ENDTAB
  0
TABLE
  2
APPID
  5
746E
330
0
100
AcDbSymbolTable
 70
     6
  0
APPID
  5
7476
330
746E
100
AcDbSymbolTableRecord
100
AcDbRegAppTableRecord
  2
ACAD
 70
     0
  0
APPID
  5
DEA9
330
746E
100
AcDbSymbolTableRecord
100
AcDbRegAppTableRecord
  2
CONTENTBLOCKICON
 70
     0
  0
APPID
  5
DEAA
330
746E
100
AcDbSymbolTableRecord
100
AcDbRegAppTableRecord
  2
CONTENTBLOCKDESCRIPTION
 70
     0
  0
APPID
  5
E71D
330
746E
100
AcDbSymbolTableRecord
100
AcDbRegAppTableRecord
  2
CONTENTTABDATA
 70
     0
  0
APPID
  5
E71E
330
746E
100
AcDbSymbolTableRecord
100
AcDbRegAppTableRecord
  2
CONTENTCURRENTTAB
 70
     0
  0
APPID
  5
F3BA
330
746E
100
AcDbSymbolTableRecord
100
AcDbRegAppTableRecord
  2
DRAWINGVARIABLESXDATA
 70
     0
  0
ENDTAB
  0
TABLE
  2
DIMSTYLE
  5
746F
330
0
100
AcDbSymbolTable
 70
     2
100
AcDbDimStyleTable
 71
     0
  0
DIMSTYLE
105
7484
330
746F
100
AcDbSymbolTableRecord
100
AcDbDimStyleTableRecord
  2
JIS
 70
     0
 41
2.5
 42
1.0
 43
7.0
 44
1.0
 73
     0
 74
     0
 77
     1
 78
     8
140
2.5
141
0.0
143
0.0394
147
0.0
172
     1
174
     1
175
     1
340
7475
  0
DIMSTYLE
105
F71F
102
{ACAD_REACTORS
330
1852D
330
1852B
330
1852F
330
1852C
330
1852E
330
185AE
330
185B1
330
185B4
330
185AD
330
185AF
330
185B3
330
1868C
330
186AF
330
1852A
330
1BF3E
330
1BF3D
330
1BF47
330
1BF46
330
1BF51
330
1BF4E
330
1BF53
330
1BF63
330
1BF73
330
1BFAC
330
1C136
330
1C1CC
330
1C1FF
330
1C8C1
330
1C836
330
1C835
330
1C834
330
1C833
330
1C934
330
1C935
330
1C932
330
1C933
330
1CAE2
330
1CCE2
330
1CCE3
330
1CCEB
330
1CCEC
330
1CCF2
330
1CCF3
330
1CCF8
330
1CCF9
330
1CCFE
330
1CD0C
330
1CD0D
102
}
330
746F
100
AcDbSymbolTableRecord
100
AcDbDimStyleTableRecord
  2
INABA_S50G
 70
     0
 41
125.0
 42
25.0
 43
7.0
 44
75.0
 73
     0
 74
     0
 77
     3
 78
     8
140
150.0
141
0.0
143
0.0394
147
25.0
172
     1
173
     1
174
     1
178
     7
271
     1
340
F706
341
F770
343
F770
344
F770
  0
ENDTAB
  0
TABLE
  2
BLOCK_RECORD
  5
7466
330
0
100
AcDbSymbolTable
 70
    54
  0
BLOCK_RECORD
  5
747D
102
{ACAD_XDICTIONARY
360
1CF8D
102
}
330
7466
100
AcDbSymbolTableRecord
100
AcDbBlockTableRecord
  2
*MODEL_SPACE
340
1CF5F
  0
BLOCK_RECORD
  5
747A
102
{ACAD_XDICTIONARY
360
1CF8B
102
}
330
7466
100
AcDbSymbolTableRecord
100
AcDbBlockTableRecord
  2
*PAPER_SPACE
340
1CF60
  0
BLOCK_RECORD
  5
F770
330
7466
100
AcDbSymbolTableRecord
100
AcDbBlockTableRecord
  2
_DOTSMALL
340
0
102
{BLKREFS
331
18581
331
18582
331
1B652
331
1B653
331
18599
331
1859A
331
1A4EB
331
1A4EC
331
1B65F
331
1B660
331
1A4D4
331
1A4D5
331
18629
331
1862A
331
1CF9D
331
1CF9E
331
1865B
331
1865C
331
1861D
331
1861E
331
1CF95
331
1CF96
331
1864F
331
18650
331
1C97E
331
1C97F
331
1B647
331
1B648
331
1B826
331
1B827
331
1C085
331
1C086
331
1C091
331
1C092
331
1C09C
331
1C09D
331
1CFA5
331
1CFA6
331
1CFAD
331
1CFAE
331
1C11B
331
1C11C
331
1C127
331
1C128
331
1C0DE
331
1C0DF
331
1C0F5
331
1C0F6
331
1C101
331
1C102
331
1C147
331
1C148
331
1C1F8
331
1C1F9
331
1C99D
331
1C99E
331
1C8C8
331
1C8C9
331
1C8D4
331
1C8D5
331
1CFB5
331
1CFB6
331
1C8EC
331
1C8ED
331
1C911
331
1C912
331
1C950
331
1C951
331
1CFC5
331
1CFC6
331
1CF33
331
1CF34
331
1CFBD
331
1CFBE
331
1CAEA
331
1CAEB
331
1CB0A
331
1CB0B
331
1CFCD
331
1CFCE
331
1CEA2
331
1CEA3
331
1CEAE
331
1CEAF
331
1CEBA
331
1CEBB
331
1CEC5
331
1CEC6
331
1CED0
331
1CED1
331
1CFD5
331
1CFD6
331
1CEE5
331
1CEE6
331
1CEF1
331
1CEF2
331
1CEFC
331
1CEFD
331
1CF07
331
1CF08
102
}
  0
BLOCK_RECORD
  5
18530
330
7466
100
AcDbSymbolTableRecord
100
AcDbBlockTableRecord
  2
*D1
340
0
  0
BLOCK_RECORD
  5
1853D
330
7466
100
AcDbSymbolTableRecord
100
AcDbBlockTableRecord
  2
*D2
340
0
  0
BLOCK_RECORD
  5
18549
330
7466
100
AcDbSymbolTableRecord
100
AcDbBlockTableRecord
  2
*D3
340
0
  0
BLOCK_RECORD
  5
18556
330
7466
100
AcDbSymbolTableRecord
100
AcDbBlockTableRecord
  2
*D4
340
0
  0
BLOCK_RECORD
  5
18563
330
7466
100
AcDbSymbolTableRecord
100
AcDbBlockTableRecord
  2
*D5
340
0
  0
BLOCK_RECORD
  5
1856F
330
7466
100
AcDbSymbolTableRecord
100
AcDbBlockTableRecord
  2
*D6
340
0
  0
BLOCK_RECORD
  5
185B5
330
7466
100
AcDbSymbolTableRecord
100
AcDbBlockTableRecord
  2
*D7
340
0
  0
BLOCK_RECORD
  5
185C2
330
7466
100
AcDbSymbolTableRecord
100
AcDbBlockTableRecord
  2
*D8
340
0
  0
BLOCK_RECORD
  5
185E5
330
7466
100
AcDbSymbolTableRecord
100
AcDbBlockTableRecord
  2
*D9
340
0
  0
BLOCK_RECORD
  5
185F2
330
7466
100
AcDbSymbolTableRecord
100
AcDbBlockTableRecord
  2
*D10
340
0
  0
BLOCK_RECORD
  5
185FF
330
7466
100
AcDbSymbolTableRecord
100
AcDbBlockTableRecord
  2
*D11
340
0
  0
BLOCK_RECORD
  5
1860A
330
7466
100
AcDbSymbolTableRecord
100
AcDbBlockTableRecord
  2
*D12
340
0
  0
BLOCK_RECORD
  5
1868D
330
7466
100
AcDbSymbolTableRecord
100
AcDbBlockTableRecord
  2
*D13
340
0
  0
BLOCK_RECORD
  5
186B0
330
7466
100
AcDbSymbolTableRecord
100
AcDbBlockTableRecord
  2
*D14
340
0
  0
BLOCK_RECORD
  5
1B821
330
7466
100
AcDbSymbolTableRecord
100
AcDbBlockTableRecord
  2
*D15
340
0
  0
BLOCK_RECORD
  5
1B82E
330
7466
100
AcDbSymbolTableRecord
100
AcDbBlockTableRecord
  2
A$C019569EB
340
0
102
{BLKREFS
331
1C109
102
}
  0
BLOCK_RECORD
  5
1BFEC
330
7466
100
AcDbSymbolTableRecord
100
AcDbBlockTableRecord
  2
*D17
340
0
  0
BLOCK_RECORD
  5
1BFF9
330
7466
100
AcDbSymbolTableRecord
100
AcDbBlockTableRecord
  2
*D18
340
0
  0
BLOCK_RECORD
  5
1C006
330
7466
100
AcDbSymbolTableRecord
100
AcDbBlockTableRecord
  2
*D19
340
0
  0
BLOCK_RECORD
  5
1C012
330
7466
100
AcDbSymbolTableRecord
100
AcDbBlockTableRecord
  2
*D20
340
0
  0
BLOCK_RECORD
  5
1C029
330
7466
100
AcDbSymbolTableRecord
100
AcDbBlockTableRecord
  2
*D21
340
0
  0
BLOCK_RECORD
  5
1C034
330
7466
100
AcDbSymbolTableRecord
100
AcDbBlockTableRecord
  2
*D22
340
0
  0
BLOCK_RECORD
  5
1C040
330
7466
100
AcDbSymbolTableRecord
100
AcDbBlockTableRecord
  2
*D23
340
0
  0
BLOCK_RECORD
  5
1C04D
330
7466
100
AcDbSymbolTableRecord
100
AcDbBlockTableRecord
  2
*D24
340
0
  0
BLOCK_RECORD
  5
1C067
330
7466
100
AcDbSymbolTableRecord
100
AcDbBlockTableRecord
  2
*D25
340
0
  0
BLOCK_RECORD
  5
1C073
330
7466
100
AcDbSymbolTableRecord
100
AcDbBlockTableRecord
  2
*D26
340
0
  0
BLOCK_RECORD
  5
1C142
330
7466
100
AcDbSymbolTableRecord
100
AcDbBlockTableRecord
  2
*D27
340
0
  0
BLOCK_RECORD
  5
1C1F3
330
7466
100
AcDbSymbolTableRecord
100
AcDbBlockTableRecord
  2
*D28
340
0
  0
BLOCK_RECORD
  5
1C214
330
7466
100
AcDbSymbolTableRecord
100
AcDbBlockTableRecord
  2
*D29
340
0
  0
BLOCK_RECORD
  5
1C8C2
330
7466
100
AcDbSymbolTableRecord
100
AcDbBlockTableRecord
  2
*D30
340
0
  0
BLOCK_RECORD
  5
1C8CF
330
7466
100
AcDbSymbolTableRecord
100
AcDbBlockTableRecord
  2
*D31
340
0
  0
BLOCK_RECORD
  5
1C8DB
330
7466
100
AcDbSymbolTableRecord
100
AcDbBlockTableRecord
  2
*D32
340
0
  0
BLOCK_RECORD
  5
1C8E6
330
7466
100
AcDbSymbolTableRecord
100
AcDbBlockTableRecord
  2
*D33
340
0
  0
BLOCK_RECORD
  5
1C90B
330
7466
100
AcDbSymbolTableRecord
100
AcDbBlockTableRecord
  2
*D34
340
0
  0
BLOCK_RECORD
  5
1C94B
330
7466
100
AcDbSymbolTableRecord
100
AcDbBlockTableRecord
  2
*D35
340
0
  0
BLOCK_RECORD
  5
1C957
330
7466
100
AcDbSymbolTableRecord
100
AcDbBlockTableRecord
  2
*D36
340
0
  0
BLOCK_RECORD
  5
1C962
330
7466
100
AcDbSymbolTableRecord
100
AcDbBlockTableRecord
  2
*D37
340
0
  0
BLOCK_RECORD
  5
1C96F
330
7466
100
AcDbSymbolTableRecord
100
AcDbBlockTableRecord
  2
*D38
340
0
  0
BLOCK_RECORD
  5
1CAE4
330
7466
100
AcDbSymbolTableRecord
100
AcDbBlockTableRecord
  2
*D39
340
0
  0
BLOCK_RECORD
  5
1CB05
330
7466
100
AcDbSymbolTableRecord
100
AcDbBlockTableRecord
  2
*D40
340
0
  0
BLOCK_RECORD
  5
1CB12
330
7466
100
AcDbSymbolTableRecord
100
AcDbBlockTableRecord
  2
A$C356B7D95
340
0
102
{BLKREFS
331
1CDFA
102
}
  0
BLOCK_RECORD
  5
1CB16
330
7466
100
AcDbSymbolTableRecord
100
AcDbBlockTableRecord
  2
A$C1453373C
340
0
102
{BLKREFS
331
1CCF6
102
}
  0
BLOCK_RECORD
  5
1CE0F
330
7466
100
AcDbSymbolTableRecord
100
AcDbBlockTableRecord
  2
*D43
340
0
  0
BLOCK_RECORD
  5
1CE1A
330
7466
100
AcDbSymbolTableRecord
100
AcDbBlockTableRecord
  2
*D44
340
0
  0
BLOCK_RECORD
  5
1CE26
330
7466
100
AcDbSymbolTableRecord
100
AcDbBlockTableRecord
  2
*D45
340
0
  0
BLOCK_RECORD
  5
1CE33
330
7466
100
AcDbSymbolTableRecord
100
AcDbBlockTableRecord
  2
*D46
340
0
  0
BLOCK_RECORD
  5
1CE40
330
7466
100
AcDbSymbolTableRecord
100
AcDbBlockTableRecord
  2
*D47
340
0
  0
BLOCK_RECORD
  5
1CE4C
330
7466
100
AcDbSymbolTableRecord
100
AcDbBlockTableRecord
  2
*D48
340
0
  0
BLOCK_RECORD
  5
1CE58
330
7466
100
AcDbSymbolTableRecord
100
AcDbBlockTableRecord
  2
*D49
340
0
  0
BLOCK_RECORD
  5
1CE63
330
7466
100
AcDbSymbolTableRecord
100
AcDbBlockTableRecord
  2
*D50
340
0
  0
BLOCK_RECORD
  5
1CE6F
330
7466
100
AcDbSymbolTableRecord
100
AcDbBlockTableRecord
  2
*D51
340
0
  0
BLOCK_RECORD
  5
1CE7C
330
7466
100
AcDbSymbolTableRecord
100
AcDbBlockTableRecord
  2
*D52
340
0
  0
BLOCK_RECORD
  5
1CE88
330
7466
100
AcDbSymbolTableRecord
100
AcDbBlockTableRecord
  2
*D53
340
0
  0
ENDTAB
  0
ENDSEC
  0
SECTION
  2
BLOCKS
  0
BLOCK
  5
7489
330
747D
100
AcDbEntity
  8
0
100
AcDbBlockBegin
  2
*MODEL_SPACE
 70
     0
 10
0.0
 20
0.0
 30
0.0
  3
*MODEL_SPACE
  1

  0
ENDBLK
  5
748A
330
747D
100
AcDbEntity
  8
0
100
AcDbBlockEnd
  0
BLOCK
  5
7487
330
747A
100
AcDbEntity
 67
     1
  8
0
100
AcDbBlockBegin
  2
*PAPER_SPACE
 70
     0
 10
0.0
 20
0.0
 30
0.0
  3
*PAPER_SPACE
  1

  0
ENDBLK
  5
7488
330
747A
100
AcDbEntity
 67
     1
  8
0
100
AcDbBlockEnd
  0
BLOCK
  5
F771
330
F770
100
AcDbEntity
  8
0
 48
50.0
100
AcDbBlockBegin
  2
_DOTSMALL
 70
     0
 10
0.0
 20
0.0
 30
0.0
  3
_DOTSMALL
  1

  0
LWPOLYLINE
  5
F772
330
F770
100
AcDbEntity
  8
0
  6
ByBlock
 62
     0
 48
50.0
100
AcDbPolyline
 90
        2
 70
     1
 43
0.5
 10
-0.0625
 20
0.0
 42
1.0
 10
0.0625
 20
0.0
 42
1.0
  0
ENDBLK
  5
F776
330
F770
100
AcDbEntity
  8
0
 48
50.0
100
AcDbBlockEnd
  0
BLOCK
  5
1857C
330
18530
100
AcDbEntity
  8
0
 48
50.0
100
AcDbBlockBegin
  2
*D1
 70
     1
 10
0.0
 20
0.0
 30
0.0
  3
*D1
  1

  0
LINE
  5
1857D
330
18530
100
AcDbEntity
  8
0
  6
ByBlock
 62
     0
 48
50.0
100
AcDbLine
 10
16722.46242649134
 20
9602.681515694126
 30
0.0
 11
17593.79817887432
 21
9602.681515694126
 31
0.0
  0
LINE
  5
1857E
330
18530
100
AcDbEntity
  8
0
  6
ByBlock
 62
     0
 48
50.0
100
AcDbLine
 10
16732.46242649134
 20
9672.681515694129
 30
0.0
 11
17593.79817887432
 21
9672.681515694129
 31
0.0
  0
LINE
  5
1857F
330
18530
100
AcDbEntity
  8
0
  6
ByBlock
 62
     0
 48
50.0
100
AcDbLine
 10
17518.79817887432
 20
9672.681515694129
 30
0.0
 11
17518.79817887432
 21
9602.681515694126
 31
0.0
  0
LINE
  5
18580
330
18530
100
AcDbEntity
  8
0
  6
ByBlock
 62
     0
 48
50.0
100
AcDbLine
 10
17518.79817887432
 20
9602.681515694126
 30
0.0
 11
17518.79817887432
 21
9262.563405457903
 31
0.0
  0
INSERT
  5
18581
330
18530
100
AcDbEntity
  8
0
  6
ByBlock
 62
     0
 48
50.0
100
AcDbBlockReference
  2
_DOTSMALL
 10
17518.79817887432
 20
9672.681515694129
 30
0.0
 41
125.0
 42
125.0
 43
125.0
 50
90.0
  0
INSERT
  5
18582
330
18530
100
AcDbEntity
  8
0
  6
ByBlock
 62
     0
 48
50.0
100
AcDbBlockReference
  2
_DOTSMALL
 10
17518.79817887432
 20
9602.681515694126
 30
0.0
 41
125.0
 42
125.0
 43
125.0
 50
270.0
  0
MTEXT
  5
18583
330
18530
100
AcDbEntity
  8
0
  6
ByBlock
 62
     7
 48
50.0
100
AcDbMText
 10
17418.79817887432
 20
9370.122460576014
 30
0.0
 40
150.0
 41
0.0
 71
     5
 72
     1
  1
\A1;70
  7
STYLE1
 11
0.0000000000000001
 21
1.0
 31
0.0
 73
     1
 44
1.0
  0
POINT
  5
18584
330
18530
100
AcDbEntity
  8
DEFPOINTS
  6
ByBlock
 62
     0
 48
50.0
100
AcDbPoint
 10
16697.46242649134
 20
9602.681515694126
 30
0.0
  0
POINT
  5
18585
330
18530
100
AcDbEntity
  8
DEFPOINTS
  6
ByBlock
 62
     0
 48
50.0
100
AcDbPoint
 10
16707.46242649134
 20
9672.681515694129
 30
0.0
  0
POINT
  5
18586
330
18530
100
AcDbEntity
  8
DEFPOINTS
  6
ByBlock
 62
     0
 48
50.0
100
AcDbPoint
 10
17518.79817887432
 20
9672.681515694129
 30
0.0
  0
ENDBLK
  5
18587
330
18530
100
AcDbEntity
  8
0
 48
50.0
100
AcDbBlockEnd
  0
BLOCK
  5
1B64E
330
1853D
100
AcDbEntity
  8
0
 48
50.0
100
AcDbBlockBegin
  2
*D2
 70
     1
 10
0.0
 20
0.0
 30
0.0
  3
*D2
  1

  0
LINE
  5
1B64F
330
1853D
100
AcDbEntity
  8
0
  6
ByBlock
 62
     0
 48
50.0
100
AcDbLine
 10
8197.829581418176
 20
9298.736797361975
 30
0.0
 11
9059.165333801145
 21
9298.736797361975
 31
0.0
  0
LINE
  5
1B650
330
1853D
100
AcDbEntity
  8
0
  6
ByBlock
 62
     0
 48
50.0
100
AcDbLine
 10
8197.829581418176
 20
10458.73679736197
 30
0.0
 11
9059.165333801145
 21
10458.73679736197
 31
0.0
  0
LINE
  5
1B651
330
1853D
100
AcDbEntity
  8
0
  6
ByBlock
 62
     0
 48
50.0
100
AcDbLine
 10
8984.165333801144
 20
9298.736797361975
 30
0.0
 11
8984.165333801144
 21
10458.73679736197
 31
0.0
  0
INSERT
  5
1B652
330
1853D
100
AcDbEntity
  8
0
  6
ByBlock
 62
     0
 48
50.0
100
AcDbBlockReference
  2
_DOTSMALL
 10
8984.165333801144
 20
9298.736797361975
 30
0.0
 41
125.0
 42
125.0
 43
125.0
 50
270.0
  0
INSERT
  5
1B653
330
1853D
100
AcDbEntity
  8
0
  6
ByBlock
 62
     0
 48
50.0
100
AcDbBlockReference
  2
_DOTSMALL
 10
8984.165333801144
 20
10458.73679736197
 30
0.0
 41
125.0
 42
125.0
 43
125.0
 50
90.0
  0
MTEXT
  5
1B654
330
1853D
100
AcDbEntity
  8
0
  6
ByBlock
 62
     7
 48
50.0
100
AcDbMText
 10
8884.150570021617
 20
9878.736797361975
 30
0.0
 40
150.0
 41
0.0
 71
     5
 72
     1
  1
\A1;2x580=1160
  7
STYLE1
 11
0.0000000000000001
 21
1.0
 31
0.0
 73
     1
 44
1.0
  0
POINT
  5
1B655
330
1853D
100
AcDbEntity
  8
DEFPOINTS
  6
ByBlock
 62
     0
 48
50.0
100
AcDbPoint
 10
8172.829581418175
 20
9298.736797361975
 30
0.0
  0
POINT
  5
1B656
330
1853D
100
AcDbEntity
  8
DEFPOINTS
  6
ByBlock
 62
     0
 48
50.0
100
AcDbPoint
 10
8172.829581418175
 20
10458.73679736197
 30
0.0
  0
POINT
  5
1B657
330
1853D
100
AcDbEntity
  8
DEFPOINTS
  6
ByBlock
 62
     0
 48
50.0
100
AcDbPoint
 10
8984.165333801144
 20
10458.73679736197
 30
0.0
  0
ENDBLK
  5
1B658
330
1853D
100
AcDbEntity
  8
0
 48
50.0
100
AcDbBlockEnd
  0
BLOCK
  5
18594
330
18549
100
AcDbEntity
  8
0
 48
50.0
100
AcDbBlockBegin
  2
*D3
 70
     1
 10
0.0
 20
0.0
 30
0.0
  3
*D3
  1

  0
LINE
  5
18595
330
18549
100
AcDbEntity
  8
0
  6
ByBlock
 62
     0
 48
50.0
100
AcDbLine
 10
16732.46242649134
 20
12572.68151569412
 30
0.0
 11
17593.79817887431
 21
12572.68151569412
 31
0.0
  0
LINE
  5
18596
330
18549
100
AcDbEntity
  8
0
  6
ByBlock
 62
     0
 48
50.0
100
AcDbLine
 10
16722.46242649134
 20
12642.68151569412
 30
0.0
 11
17593.79817887431
 21
12642.68151569412
 31
0.0
  0
LINE
  5
18597
330
18549
100
AcDbEntity
  8
0
  6
ByBlock
 62
     0
 48
50.0
100
AcDbLine
 10
17518.79817887431
 20
12572.68151569412
 30
0.0
 11
17518.79817887431
 21
12642.68151569412
 31
0.0
  0
LINE
  5
18598
330
18549
100
AcDbEntity
  8
0
  6
ByBlock
 62
     0
 48
50.0
100
AcDbLine
 10
17518.79817887431
 20
12642.68151569412
 30
0.0
 11
17518.79817887431
 21
12982.79962593034
 31
0.0
  0
INSERT
  5
18599
330
18549
100
AcDbEntity
  8
0
  6
ByBlock
 62
     0
 48
50.0
100
AcDbBlockReference
  2
_DOTSMALL
 10
17518.79817887431
 20
12572.68151569412
 30
0.0
 41
125.0
 42
125.0
 43
125.0
 50
270.0
  0
INSERT
  5
1859A
330
18549
100
AcDbEntity
  8
0
  6
ByBlock
 62
     0
 48
50.0
100
AcDbBlockReference
  2
_DOTSMALL
 10
17518.79817887431
 20
12642.68151569412
 30
0.0
 41
125.0
 42
125.0
 43
125.0
 50
90.0
  0
MTEXT
  5
1859B
330
18549
100
AcDbEntity
  8
0
  6
ByBlock
 62
     7
 48
50.0
100
AcDbMText
 10
17418.79817887431
 20
12875.24057081223
 30
0.0
 40
150.0
 41
0.0
 71
     5
 72
     1
  1
\A1;70
  7
STYLE1
 11
0.0000000000000001
 21
1.0
 31
0.0
 73
     1
 44
1.0
  0
POINT
  5
1859C
330
18549
100
AcDbEntity
  8
DEFPOINTS
  6
ByBlock
 62
     0
 48
50.0
100
AcDbPoint
 10
16707.46242649134
 20
12572.68151569412
 30
0.0
  0
POINT
  5
1859D
330
18549
100
AcDbEntity
  8
DEFPOINTS
  6
ByBlock
 62
     0
 48
50.0
100
AcDbPoint
 10
16697.46242649134
 20
12642.68151569412
 30
0.0
  0
POINT
  5
1859E
330
18549
100
AcDbEntity
  8
DEFPOINTS
  6
ByBlock
 62
     0
 48
50.0
100
AcDbPoint
 10
17518.79817887431
 20
12642.68151569412
 30
0.0
  0
ENDBLK
  5
1859F
330
18549
100
AcDbEntity
  8
0
 48
50.0
100
AcDbBlockEnd
  0
BLOCK
  5
1A4E6
330
18556
100
AcDbEntity
  8
0
 48
50.0
100
AcDbBlockBegin
  2
*D4
 70
     1
 10
0.0
 20
0.0
 30
0.0
  3
*D4
  1

  0
LINE
  5
1A4E7
330
18556
100
AcDbEntity
  8
0
  6
ByBlock
 62
     0
 48
50.0
100
AcDbLine
 10
8477.829581418175
 20
9228.736797361971
 30
0.0
 11
9651.969337719759
 21
9228.736797361971
 31
0.0
  0
LINE
  5
1A4E8
330
18556
100
AcDbEntity
  8
0
  6
ByBlock
 62
     0
 48
50.0
100
AcDbLine
 10
9299.165333801147
 20
9278.736797361975
 30
0.0
 11
9651.969337719759
 21
9278.736797361975
 31
0.0
  0
LINE
  5
1A4E9
330
18556
100
AcDbEntity
  8
0
  6
ByBlock
 62
     0
 48
50.0
100
AcDbLine
 10
9576.969337719758
 20
9278.736797361975
 30
0.0
 11
9576.969337719758
 21
9228.736797361971
 31
0.0
  0
LINE
  5
1A4EA
330
18556
100
AcDbEntity
  8
0
  6
ByBlock
 62
     0
 48
50.0
100
AcDbLine
 10
9576.969337719758
 20
9228.736797361971
 30
0.0
 11
9576.969337719758
 21
8884.130498149373
 31
0.0
  0
INSERT
  5
1A4EB
330
18556
100
AcDbEntity
  8
0
  6
ByBlock
 62
     0
 48
50.0
100
AcDbBlockReference
  2
_DOTSMALL
 10
9576.969337719758
 20
9278.736797361975
 30
0.0
 41
125.0
 42
125.0
 43
125.0
 50
90.0
  0
INSERT
  5
1A4EC
330
18556
100
AcDbEntity
  8
0
  6
ByBlock
 62
     0
 48
50.0
100
AcDbBlockReference
  2
_DOTSMALL
 10
9576.969337719758
 20
9228.736797361971
 30
0.0
 41
125.0
 42
125.0
 43
125.0
 50
270.0
  0
MTEXT
  5
1A4ED
330
18556
100
AcDbEntity
  8
0
  6
ByBlock
 62
     7
 48
50.0
100
AcDbMText
 10
9476.969337719758
 20
8991.689553267482
 30
0.0
 40
150.0
 41
0.0
 71
     5
 72
     1
  1
\A1;50
  7
STYLE1
 11
0.0000000000000001
 21
1.0
 31
0.0
 73
     1
 44
1.0
  0
POINT
  5
1A4EE
330
18556
100
AcDbEntity
  8
DEFPOINTS
  6
ByBlock
 62
     0
 48
50.0
100
AcDbPoint
 10
8452.829581418177
 20
9228.736797361971
 30
0.0
  0
POINT
  5
1A4EF
330
18556
100
AcDbEntity
  8
DEFPOINTS
  6
ByBlock
 62
     0
 48
50.0
100
AcDbPoint
 10
9274.165333801148
 20
9278.736797361975
 30
0.0
  0
POINT
  5
1A4F0
330
18556
100
AcDbEntity
  8
DEFPOINTS
  6
ByBlock
 62
     0
 48
50.0
100
AcDbPoint
 10
9576.969337719758
 20
9278.736797361975
 30
0.0
  0
ENDBLK
  5
1A4F1
330
18556
100
AcDbEntity
  8
0
 48
50.0
100
AcDbBlockEnd
  0
BLOCK
  5
1B659
330
18563
100
AcDbEntity
  8
0
 48
50.0
100
AcDbBlockBegin
  2
*D5
 70
     1
 10
0.0
 20
0.0
 30
0.0
  3
*D5
  1

  0
LINE
  5
1B65A
330
18563
100
AcDbEntity
  8
0
  6
ByBlock
 62
     0
 48
50.0
100
AcDbLine
 10
9009.165333801147
 20
9278.736797361975
 30
0.0
 11
9361.969337719754
 21
9278.736797361975
 31
0.0
  0
LINE
  5
1B65B
330
18563
100
AcDbEntity
  8
0
  6
ByBlock
 62
     0
 48
50.0
100
AcDbLine
 10
9009.165333801144
 20
10478.73679736197
 30
0.0
 11
9361.969337719754
 21
10478.73679736197
 31
0.0
  0
LINE
  5
1B65C
330
18563
100
AcDbEntity
  8
0
  6
ByBlock
 62
     0
 48
50.0
100
AcDbLine
 10
9286.969337719753
 20
9278.736797361975
 30
0.0
 11
9286.969337719753
 21
9153.736797361975
 31
0.0
  0
LINE
  5
1B65D
330
18563
100
AcDbEntity
  8
0
  6
ByBlock
 62
     0
 48
50.0
100
AcDbLine
 10
9286.969337719753
 20
10478.73679736197
 30
0.0
 11
9286.969337719753
 21
10603.73679736197
 31
0.0
  0
LINE
  5
1B65E
330
18563
100
AcDbEntity
  8
0
  6
ByBlock
 62
     0
 48
50.0
100
AcDbLine
 10
9286.969337719753
 20
9278.736797361975
 30
0.0
 11
9286.969337719753
 21
10478.73679736197
 31
0.0
  0
INSERT
  5
1B65F
330
18563
100
AcDbEntity
  8
0
  6
ByBlock
 62
     0
 48
50.0
100
AcDbBlockReference
  2
_DOTSMALL
 10
9286.969337719753
 20
9278.736797361975
 30
0.0
 41
125.0
 42
125.0
 43
125.0
 50
90.0
  0
INSERT
  5
1B660
330
18563
100
AcDbEntity
  8
0
  6
ByBlock
 62
     0
 48
50.0
100
AcDbBlockReference
  2
_DOTSMALL
 10
9286.969337719753
 20
10478.73679736197
 30
0.0
 41
125.0
 42
125.0
 43
125.0
 50
270.0
  0
MTEXT
  5
1B661
330
18563
100
AcDbEntity
  8
0
  6
ByBlock
 62
     7
 48
50.0
100
AcDbMText
 10
9186.954573940225
 20
9878.736797361975
 30
0.0
 40
150.0
 41
0.0
 71
     5
 72
     1
  1
\A1;内部寸法 1200
  7
STYLE1
 11
0.0000000000000001
 21
1.0
 31
0.0
 73
     1
 44
1.0
  0
POINT
  5
1B662
330
18563
100
AcDbEntity
  8
DEFPOINTS
  6
ByBlock
 62
     0
 48
50.0
100
AcDbPoint
 10
8984.165333801149
 20
9278.736797361975
 30
0.0
  0
POINT
  5
1B663
330
18563
100
AcDbEntity
  8
DEFPOINTS
  6
ByBlock
 62
     0
 48
50.0
100
AcDbPoint
 10
8984.165333801144
 20
10478.73679736197
 30
0.0
  0
POINT
  5
1B664
330
18563
100
AcDbEntity
  8
DEFPOINTS
  6
ByBlock
 62
     0
 48
50.0
100
AcDbPoint
 10
9286.969337719753
 20
10478.73679736197
 30
0.0
  0
ENDBLK
  5
1B665
330
18563
100
AcDbEntity
  8
0
 48
50.0
100
AcDbBlockEnd
  0
BLOCK
  5
1A4CE
330
1856F
100
AcDbEntity
  8
0
 48
50.0
100
AcDbBlockBegin
  2
*D6
 70
     1
 10
0.0
 20
0.0
 30
0.0
  3
*D6
  1

  0
LINE
  5
1A4CF
330
1856F
100
AcDbEntity
  8
0
  6
ByBlock
 62
     0
 48
50.0
100
AcDbLine
 10
9299.165333801145
 20
12218.73679736197
 30
0.0
 11
9651.969337719755
 21
12218.73679736197
 31
0.0
  0
LINE
  5
1A4D0
330
1856F
100
AcDbEntity
  8
0
  6
ByBlock
 62
     0
 48
50.0
100
AcDbLine
 10
8477.829581418173
 20
12268.73679736197
 30
0.0
 11
9651.969337719755
 21
12268.73679736197
 31
0.0
  0
LINE
  5
1A4D1
330
1856F
100
AcDbEntity
  8
0
  6
ByBlock
 62
     0
 48
50.0
100
AcDbLine
 10
9576.969337719754
 20
12218.73679736197
 30
0.0
 11
9576.969337719754
 21
12093.73679736197
 31
0.0
  0
LINE
  5
1A4D2
330
1856F
100
AcDbEntity
  8
0
  6
ByBlock
 62
     0
 48
50.0
100
AcDbLine
 10
9576.969337719754
 20
12268.73679736197
 30
0.0
 11
9576.969337719754
 21
12733.85490759819
 31
0.0
  0
LINE
  5
1A4D3
330
1856F
100
AcDbEntity
  8
0
  6
ByBlock
 62
     0
 48
50.0
100
AcDbLine
 10
9576.969337719754
 20
12218.73679736197
 30
0.0
 11
9576.969337719754
 21
12268.73679736197
 31
0.0
  0
INSERT
  5
1A4D4
330
1856F
100
AcDbEntity
  8
0
  6
ByBlock
 62
     0
 48
50.0
100
AcDbBlockReference
  2
_DOTSMALL
 10
9576.969337719754
 20
12218.73679736197
 30
0.0
 41
125.0
 42
125.0
 43
125.0
 50
90.0
  0
INSERT
  5
1A4D5
330
1856F
100
AcDbEntity
  8
0
  6
ByBlock
 62
     0
 48
50.0
100
AcDbBlockReference
  2
_DOTSMALL
 10
9576.969337719754
 20
12268.73679736197
 30
0.0
 41
125.0
 42
125.0
 43
125.0
 50
270.0
  0
MTEXT
  5
1A4D6
330
1856F
100
AcDbEntity
  8
0
  6
ByBlock
 62
     7
 48
50.0
100
AcDbMText
 10
9476.969337719754
 20
12626.29585248008
 30
0.0
 40
150.0
 41
0.0
 71
     5
 72
     1
  1
\A1;50
  7
STYLE1
 11
0.0000000000000001
 21
1.0
 31
0.0
 73
     1
 44
1.0
  0
POINT
  5
1A4D7
330
1856F
100
AcDbEntity
  8
DEFPOINTS
  6
ByBlock
 62
     0
 48
50.0
100
AcDbPoint
 10
9274.165333801144
 20
12218.73679736197
 30
0.0
  0
POINT
  5
1A4D8
330
1856F
100
AcDbEntity
  8
DEFPOINTS
  6
ByBlock
 62
     0
 48
50.0
100
AcDbPoint
 10
8452.829581418173
 20
12268.73679736197
 30
0.0
  0
POINT
  5
1A4D9
330
1856F
100
AcDbEntity
  8
DEFPOINTS
  6
ByBlock
 62
     0
 48
50.0
100
AcDbPoint
 10
9576.969337719754
 20
12268.73679736197
 30
0.0
  0
ENDBLK
  5
1A4DA
330
1856F
100
AcDbEntity
  8
0
 48
50.0
100
AcDbBlockEnd
  0
BLOCK
  5
18624
330
185B5
100
AcDbEntity
  8
0
 48
50.0
100
AcDbBlockBegin
  2
*D7
 70
     1
 10
0.0
 20
0.0
 30
0.0
  3
*D7
  1

  0
LINE
  5
18625
330
185B5
100
AcDbEntity
  8
0
  6
ByBlock
 62
     0
 48
50.0
100
AcDbLine
 10
11787.46242649134
 20
12657.68151569412
 30
0.0
 11
11787.46242649134
 21
13127.71350056477
 31
0.0
  0
LINE
  5
18626
330
185B5
100
AcDbEntity
  8
0
  6
ByBlock
 62
     0
 48
50.0
100
AcDbLine
 10
11857.46242649134
 20
12667.68151569412
 30
0.0
 11
11857.46242649134
 21
13127.71350056477
 31
0.0
  0
LINE
  5
18627
330
185B5
100
AcDbEntity
  8
0
  6
ByBlock
 62
     0
 48
50.0
100
AcDbLine
 10
11857.46242649134
 20
13052.71350056477
 30
0.0
 11
11787.46242649134
 21
13052.71350056477
 31
0.0
  0
LINE
  5
18628
330
185B5
100
AcDbEntity
  8
0
  6
ByBlock
 62
     0
 48
50.0
100
AcDbLine
 10
11787.46242649134
 20
13052.71350056477
 30
0.0
 11
11437.34431625512
 21
13052.71350056477
 31
0.0
  0
INSERT
  5
18629
330
185B5
100
AcDbEntity
  8
0
  6
ByBlock
 62
     0
 48
50.0
100
AcDbBlockReference
  2
_DOTSMALL
 10
11857.46242649134
 20
13052.71350056477
 30
0.0
 41
125.0
 42
125.0
 43
125.0
  0
INSERT
  5
1862A
330
185B5
100
AcDbEntity
  8
0
  6
ByBlock
 62
     0
 48
50.0
100
AcDbBlockReference
  2
_DOTSMALL
 10
11787.46242649134
 20
13052.71350056477
 30
0.0
 41
125.0
 42
125.0
 43
125.0
 50
180.0
  0
MTEXT
  5
1862B
330
185B5
100
AcDbEntity
  8
0
  6
ByBlock
 62
     7
 48
50.0
100
AcDbMText
 10
11544.90337137323
 20
13152.71350056477
 30
0.0
 40
150.0
 41
0.0
 71
     5
 72
     1
  1
\A1;70
  7
STYLE1
 73
     1
 44
1.0
  0
POINT
  5
1862C
330
185B5
100
AcDbEntity
  8
DEFPOINTS
  6
ByBlock
 62
     0
 48
50.0
100
AcDbPoint
 10
11787.46242649134
 20
12632.68151569412
 30
0.0
  0
POINT
  5
1862D
330
185B5
100
AcDbEntity
  8
DEFPOINTS
  6
ByBlock
 62
     0
 48
50.0
100
AcDbPoint
 10
11857.46242649134
 20
12642.68151569412
 30
0.0
  0
POINT
  5
1862E
330
185B5
100
AcDbEntity
  8
DEFPOINTS
  6
ByBlock
 62
     0
 48
50.0
100
AcDbPoint
 10
11857.46242649134
 20
13052.71350056477
 30
0.0
  0
ENDBLK
  5
1862F
330
185B5
100
AcDbEntity
  8
0
 48
50.0
100
AcDbBlockEnd
  0
BLOCK
  5
1C9A4
330
185C2
100
AcDbEntity
  8
0
 48
50.0
100
AcDbBlockBegin
  2
*D8
 70
     1
 10
0.0
 20
0.0
 30
0.0
  3
*D8
  1

  0
LINE
  5
1CF9B
330
185C2
100
AcDbEntity
  8
寸法
 62
     0
 48
50.0
100
AcDbLine
 10
14462.82958141817
 20
10553.73679736193
 30
0.0
 11
14462.82958141817
 21
11013.76878223258
 31
0.0
  0
LINE
  5
1CF9C
330
185C2
100
AcDbEntity
  8
寸法
 62
     0
 48
50.0
100
AcDbLine
 10
12142.82958141817
 20
10938.76878223257
 30
0.0
 11
14462.82958141817
 21
10938.76878223257
 31
0.0
  0
INSERT
  5
1CF9D
330
185C2
100
AcDbEntity
  8
寸法
 62
     0
 48
50.0
100
AcDbBlockReference
  2
_DOTSMALL
 10
12142.82958141817
 20
10938.76878223257
 30
0.0
 41
125.0
 42
125.0
 43
125.0
 50
180.0
  0
INSERT
  5
1CF9E
330
185C2
100
AcDbEntity
  8
寸法
 62
     0
 48
50.0
100
AcDbBlockReference
  2
_DOTSMALL
 10
14462.82958141817
 20
10938.76878223257
 30
0.0
 41
125.0
 42
125.0
 43
125.0
  0
MTEXT
  5
1CF9F
330
185C2
100
AcDbEntity
  8
寸法
 62
     7
 48
50.0
100
AcDbMText
 10
13302.82958141817
 20
11038.7835460121
 30
0.0
 40
150.0
 41
0.0
 71
     5
 72
     1
  1
\A1;4x580=2320
  7
STYLE1
 73
     1
 44
1.0
  0
POINT
  5
1CFA0
330
185C2
100
AcDbEntity
  8
DEFPOINTS
 62
     0
 48
50.0
100
AcDbPoint
 10
12142.82958141817
 20
10528.73679736193
 30
0.0
  0
POINT
  5
1CFA1
330
185C2
100
AcDbEntity
  8
DEFPOINTS
 62
     0
 48
50.0
100
AcDbPoint
 10
14462.82958141817
 20
10528.73679736193
 30
0.0
  0
POINT
  5
1CFA2
330
185C2
100
AcDbEntity
  8
DEFPOINTS
 62
     0
 48
50.0
100
AcDbPoint
 10
14462.82958141817
 20
10938.76878223257
 30
0.0
  0
ENDBLK
  5
1C9AD
330
185C2
100
AcDbEntity
  8
0
 48
50.0
100
AcDbBlockEnd
  0
BLOCK
  5
18656
330
185E5
100
AcDbEntity
  8
0
 48
50.0
100
AcDbBlockBegin
  2
*D9
 70
     1
 10
0.0
 20
0.0
 30
0.0
  3
*D9
  1

  0
LINE
  5
18657
330
185E5
100
AcDbEntity
  8
0
  6
ByBlock
 62
     0
 48
50.0
100
AcDbLine
 10
16637.46242649134
 20
12667.68151569412
 30
0.0
 11
16637.46242649134
 21
13127.71350056477
 31
0.0
  0
LINE
  5
18658
330
185E5
100
AcDbEntity
  8
0
  6
ByBlock
 62
     0
 48
50.0
100
AcDbLine
 10
16707.46242649134
 20
12657.68151569412
 30
0.0
 11
16707.46242649134
 21
13127.71350056477
 31
0.0
  0
LINE
  5
18659
330
185E5
100
AcDbEntity
  8
0
  6
ByBlock
 62
     0
 48
50.0
100
AcDbLine
 10
16637.46242649134
 20
13052.71350056477
 30
0.0
 11
16707.46242649134
 21
13052.71350056477
 31
0.0
  0
LINE
  5
1865A
330
185E5
100
AcDbEntity
  8
0
  6
ByBlock
 62
     0
 48
50.0
100
AcDbLine
 10
16707.46242649134
 20
13052.71350056477
 30
0.0
 11
17077.58053672756
 21
13052.71350056477
 31
0.0
  0
INSERT
  5
1865B
330
185E5
100
AcDbEntity
  8
0
  6
ByBlock
 62
     0
 48
50.0
100
AcDbBlockReference
  2
_DOTSMALL
 10
16637.46242649134
 20
13052.71350056477
 30
0.0
 41
125.0
 42
125.0
 43
125.0
 50
180.0
  0
INSERT
  5
1865C
330
185E5
100
AcDbEntity
  8
0
  6
ByBlock
 62
     0
 48
50.0
100
AcDbBlockReference
  2
_DOTSMALL
 10
16707.46242649134
 20
13052.71350056477
 30
0.0
 41
125.0
 42
125.0
 43
125.0
  0
MTEXT
  5
1865D
330
185E5
100
AcDbEntity
  8
0
  6
ByBlock
 62
     7
 48
50.0
100
AcDbMText
 10
16970.02148160945
 20
13152.71350056477
 30
0.0
 40
150.0
 41
0.0
 71
     5
 72
     1
  1
\A1;70
  7
STYLE1
 73
     1
 44
1.0
  0
POINT
  5
1865E
330
185E5
100
AcDbEntity
  8
DEFPOINTS
  6
ByBlock
 62
     0
 48
50.0
100
AcDbPoint
 10
16637.46242649134
 20
12642.68151569412
 30
0.0
  0
POINT
  5
1865F
330
185E5
100
AcDbEntity
  8
DEFPOINTS
  6
ByBlock
 62
     0
 48
50.0
100
AcDbPoint
 10
16707.46242649134
 20
12632.68151569412
 30
0.0
  0
POINT
  5
18660
330
185E5
100
AcDbEntity
  8
DEFPOINTS
  6
ByBlock
 62
     0
 48
50.0
100
AcDbPoint
 10
16707.46242649134
 20
13052.71350056477
 30
0.0
  0
ENDBLK
  5
18661
330
185E5
100
AcDbEntity
  8
0
 48
50.0
100
AcDbBlockEnd
  0
BLOCK
  5
18617
330
185F2
100
AcDbEntity
  8
0
 48
50.0
100
AcDbBlockBegin
  2
*D10
 70
     1
 10
0.0
 20
0.0
 30
0.0
  3
*D10
  1

  0
LINE
  5
18618
330
185F2
100
AcDbEntity
  8
0
  6
ByBlock
 62
     0
 48
50.0
100
AcDbLine
 10
11787.46242649134
 20
12657.68151569412
 30
0.0
 11
11787.46242649134
 21
13426.45988446553
 31
0.0
  0
LINE
  5
18619
330
185F2
100
AcDbEntity
  8
0
  6
ByBlock
 62
     0
 48
50.0
100
AcDbLine
 10
11837.46242649134
 20
13077.71350056477
 30
0.0
 11
11837.46242649134
 21
13426.45988446553
 31
0.0
  0
LINE
  5
1861A
330
185F2
100
AcDbEntity
  8
0
  6
ByBlock
 62
     0
 48
50.0
100
AcDbLine
 10
11837.46242649134
 20
13351.45988446553
 30
0.0
 11
11962.46242649134
 21
13351.45988446553
 31
0.0
  0
LINE
  5
1861B
330
185F2
100
AcDbEntity
  8
0
  6
ByBlock
 62
     0
 48
50.0
100
AcDbLine
 10
11787.46242649134
 20
13351.45988446553
 30
0.0
 11
11322.34431625512
 21
13351.45988446553
 31
0.0
  0
LINE
  5
1861C
330
185F2
100
AcDbEntity
  8
0
  6
ByBlock
 62
     0
 48
50.0
100
AcDbLine
 10
11837.46242649134
 20
13351.45988446553
 30
0.0
 11
11787.46242649134
 21
13351.45988446553
 31
0.0
  0
INSERT
  5
1861D
330
185F2
100
AcDbEntity
  8
0
  6
ByBlock
 62
     0
 48
50.0
100
AcDbBlockReference
  2
_DOTSMALL
 10
11837.46242649134
 20
13351.45988446553
 30
0.0
 41
125.0
 42
125.0
 43
125.0
 50
180.0
  0
INSERT
  5
1861E
330
185F2
100
AcDbEntity
  8
0
  6
ByBlock
 62
     0
 48
50.0
100
AcDbBlockReference
  2
_DOTSMALL
 10
11787.46242649134
 20
13351.45988446553
 30
0.0
 41
125.0
 42
125.0
 43
125.0
  0
MTEXT
  5
1861F
330
185F2
100
AcDbEntity
  8
0
  6
ByBlock
 62
     7
 48
50.0
100
AcDbMText
 10
11429.90337137323
 20
13451.45988446553
 30
0.0
 40
150.0
 41
0.0
 71
     5
 72
     1
  1
\A1;50
  7
STYLE1
 73
     1
 44
1.0
  0
POINT
  5
18620
330
185F2
100
AcDbEntity
  8
DEFPOINTS
  6
ByBlock
 62
     0
 48
50.0
100
AcDbPoint
 10
11787.46242649134
 20
12632.68151569412
 30
0.0
  0
POINT
  5
18621
330
185F2
100
AcDbEntity
  8
DEFPOINTS
  6
ByBlock
 62
     0
 48
50.0
100
AcDbPoint
 10
11837.46242649134
 20
13052.71350056477
 30
0.0
  0
POINT
  5
18622
330
185F2
100
AcDbEntity
  8
DEFPOINTS
  6
ByBlock
 62
     0
 48
50.0
100
AcDbPoint
 10
11837.46242649134
 20
13351.45988446553
 30
0.0
  0
ENDBLK
  5
18623
330
185F2
100
AcDbEntity
  8
0
 48
50.0
100
AcDbBlockEnd
  0
BLOCK
  5
1C98F
330
185FF
100
AcDbEntity
  8
0
 48
50.0
100
AcDbBlockBegin
  2
*D11
 70
     1
 10
0.0
 20
0.0
 30
0.0
  3
*D11
  1

  0
LINE
  5
1CF93
330
185FF
100
AcDbEntity
  8
寸法
 62
     0
 48
50.0
100
AcDbLine
 10
14482.82958141817
 20
10963.76878223258
 30
0.0
 11
14482.82958141817
 21
11312.51516613334
 31
0.0
  0
LINE
  5
1CF94
330
185FF
100
AcDbEntity
  8
寸法
 62
     0
 48
50.0
100
AcDbLine
 10
12122.82958141816
 20
11237.51516613334
 30
0.0
 11
14482.82958141817
 21
11237.51516613334
 31
0.0
  0
INSERT
  5
1CF95
330
185FF
100
AcDbEntity
  8
寸法
 62
     0
 48
50.0
100
AcDbBlockReference
  2
_DOTSMALL
 10
12122.82958141816
 20
11237.51516613334
 30
0.0
 41
125.0
 42
125.0
 43
125.0
 50
180.0
  0
INSERT
  5
1CF96
330
185FF
100
AcDbEntity
  8
寸法
 62
     0
 48
50.0
100
AcDbBlockReference
  2
_DOTSMALL
 10
14482.82958141817
 20
11237.51516613334
 30
0.0
 41
125.0
 42
125.0
 43
125.0
  0
MTEXT
  5
1CF97
330
185FF
100
AcDbEntity
  8
寸法
 62
     7
 48
50.0
100
AcDbMText
 10
13302.82958141817
 20
11337.52992991286
 30
0.0
 40
150.0
 41
0.0
 71
     5
 72
     1
  1
\A1;内部寸法 2360
  7
STYLE1
 73
     1
 44
1.0
  0
POINT
  5
1CF98
330
185FF
100
AcDbEntity
  8
DEFPOINTS
 62
     0
 48
50.0
100
AcDbPoint
 10
12122.82958141816
 20
10938.76878223257
 30
0.0
  0
POINT
  5
1CF99
330
185FF
100
AcDbEntity
  8
DEFPOINTS
 62
     0
 48
50.0
100
AcDbPoint
 10
14482.82958141817
 20
10938.76878223258
 30
0.0
  0
POINT
  5
1CF9A
330
185FF
100
AcDbEntity
  8
DEFPOINTS
 62
     0
 48
50.0
100
AcDbPoint
 10
14482.82958141817
 20
11237.51516613334
 30
0.0
  0
ENDBLK
  5
1C998
330
185FF
100
AcDbEntity
  8
0
 48
50.0
100
AcDbBlockEnd
  0
BLOCK
  5
18649
330
1860A
100
AcDbEntity
  8
0
 48
50.0
100
AcDbBlockBegin
  2
*D12
 70
     1
 10
0.0
 20
0.0
 30
0.0
  3
*D12
  1

  0
LINE
  5
1864A
330
1860A
100
AcDbEntity
  8
0
  6
ByBlock
 62
     0
 48
50.0
100
AcDbLine
 10
16657.46242649135
 20
13077.71350056477
 30
0.0
 11
16657.46242649135
 21
13426.45988446553
 31
0.0
  0
LINE
  5
1864B
330
1860A
100
AcDbEntity
  8
0
  6
ByBlock
 62
     0
 48
50.0
100
AcDbLine
 10
16707.46242649134
 20
12657.68151569412
 30
0.0
 11
16707.46242649134
 21
13426.45988446553
 31
0.0
  0
LINE
  5
1864C
330
1860A
100
AcDbEntity
  8
0
  6
ByBlock
 62
     0
 48
50.0
100
AcDbLine
 10
16657.46242649135
 20
13351.45988446553
 30
0.0
 11
16532.46242649135
 21
13351.45988446553
 31
0.0
  0
LINE
  5
1864D
330
1860A
100
AcDbEntity
  8
0
  6
ByBlock
 62
     0
 48
50.0
100
AcDbLine
 10
16707.46242649134
 20
13351.45988446553
 30
0.0
 11
17172.58053672756
 21
13351.45988446553
 31
0.0
  0
LINE
  5
1864E
330
1860A
100
AcDbEntity
  8
0
  6
ByBlock
 62
     0
 48
50.0
100
AcDbLine
 10
16657.46242649135
 20
13351.45988446553
 30
0.0
 11
16707.46242649134
 21
13351.45988446553
 31
0.0
  0
INSERT
  5
1864F
330
1860A
100
AcDbEntity
  8
0
  6
ByBlock
 62
     0
 48
50.0
100
AcDbBlockReference
  2
_DOTSMALL
 10
16657.46242649135
 20
13351.45988446553
 30
0.0
 41
125.0
 42
125.0
 43
125.0
  0
INSERT
  5
18650
330
1860A
100
AcDbEntity
  8
0
  6
ByBlock
 62
     0
 48
50.0
100
AcDbBlockReference
  2
_DOTSMALL
 10
16707.46242649134
 20
13351.45988446553
 30
0.0
 41
125.0
 42
125.0
 43
125.0
 50
180.0
  0
MTEXT
  5
18651
330
1860A
100
AcDbEntity
  8
0
  6
ByBlock
 62
     7
 48
50.0
100
AcDbMText
 10
17065.02148160945
 20
13451.45988446553
 30
0.0
 40
150.0
 41
0.0
 71
     5
 72
     1
  1
\A1;50
  7
STYLE1
 73
     1
 44
1.0
  0
POINT
  5
18652
330
1860A
100
AcDbEntity
  8
DEFPOINTS
  6
ByBlock
 62
     0
 48
50.0
100
AcDbPoint
 10
16657.46242649135
 20
13052.71350056477
 30
0.0
  0
POINT
  5
18653
330
1860A
100
AcDbEntity
  8
DEFPOINTS
  6
ByBlock
 62
     0
 48
50.0
100
AcDbPoint
 10
16707.46242649134
 20
12632.68151569412
 30
0.0
  0
POINT
  5
18654
330
1860A
100
AcDbEntity
  8
DEFPOINTS
  6
ByBlock
 62
     0
 48
50.0
100
AcDbPoint
 10
16707.46242649134
 20
13351.45988446553
 30
0.0
  0
ENDBLK
  5
18655
330
1860A
100
AcDbEntity
  8
0
 48
50.0
100
AcDbBlockEnd
  0
BLOCK
  5
1C97A
330
1868D
100
AcDbEntity
  8
0
 48
50.0
100
AcDbBlockBegin
  2
*D13
 70
     1
 10
0.0
 20
0.0
 30
0.0
  3
*D13
  1

  0
LINE
  5
1C97B
330
1868D
100
AcDbEntity
  8
0
  6
ByBlock
 62
     0
 48
50.0
100
AcDbLine
 10
11782.82958141817
 20
9213.736797361928
 30
0.0
 11
11782.82958141817
 21
8361.498920305797
 31
0.0
  0
LINE
  5
1C97C
330
1868D
100
AcDbEntity
  8
0
  6
ByBlock
 62
     0
 48
50.0
100
AcDbLine
 10
14242.82958141817
 20
9213.73679736193
 30
0.0
 11
14242.82958141817
 21
8361.498920305797
 31
0.0
  0
LINE
  5
1C97D
330
1868D
100
AcDbEntity
  8
0
  6
ByBlock
 62
     0
 48
50.0
100
AcDbLine
 10
11782.82958141817
 20
8436.498920305798
 30
0.0
 11
14242.82958141817
 21
8436.498920305798
 31
0.0
  0
INSERT
  5
1C97E
330
1868D
100
AcDbEntity
  8
0
  6
ByBlock
 62
     0
 48
50.0
100
AcDbBlockReference
  2
_DOTSMALL
 10
11782.82958141817
 20
8436.498920305798
 30
0.0
 41
125.0
 42
125.0
 43
125.0
 50
180.0
  0
INSERT
  5
1C97F
330
1868D
100
AcDbEntity
  8
0
  6
ByBlock
 62
     0
 48
50.0
100
AcDbBlockReference
  2
_DOTSMALL
 10
14242.82958141817
 20
8436.498920305798
 30
0.0
 41
125.0
 42
125.0
 43
125.0
  0
MTEXT
  5
1C980
330
1868D
100
AcDbEntity
  8
0
  6
ByBlock
 62
     7
 48
50.0
100
AcDbMText
 10
13012.82958141817
 20
8536.513684085326
 30
0.0
 40
150.0
 41
0.0
 71
     5
 72
     1
  1
\A1;2460
  7
STYLE1
 73
     1
 44
1.0
  0
POINT
  5
1C981
330
1868D
100
AcDbEntity
  8
DEFPOINTS
  6
ByBlock
 62
     0
 48
50.0
100
AcDbPoint
 10
11782.82958141817
 20
9238.736797361928
 30
0.0
  0
POINT
  5
1C982
330
1868D
100
AcDbEntity
  8
DEFPOINTS
  6
ByBlock
 62
     0
 48
50.0
100
AcDbPoint
 10
14242.82958141817
 20
9238.736797361928
 30
0.0
  0
POINT
  5
1C983
330
1868D
100
AcDbEntity
  8
DEFPOINTS
  6
ByBlock
 62
     0
 48
50.0
100
AcDbPoint
 10
14242.82958141817
 20
8436.498920305798
 30
0.0
  0
ENDBLK
  5
1C984
330
1868D
100
AcDbEntity
  8
0
 48
50.0
100
AcDbBlockEnd
  0
BLOCK
  5
1B643
330
186B0
100
AcDbEntity
  8
0
 48
50.0
100
AcDbBlockBegin
  2
*D14
 70
     1
 10
0.0
 20
0.0
 30
0.0
  3
*D14
  1

  0
LINE
  5
1B644
330
186B0
100
AcDbEntity
  8
0
  6
ByBlock
 62
     0
 48
50.0
100
AcDbLine
 10
6277.829581418171
 20
10528.73679736197
 30
0.0
 11
5451.198601638504
 21
10528.73679736197
 31
0.0
  0
LINE
  5
1B645
330
186B0
100
AcDbEntity
  8
0
  6
ByBlock
 62
     0
 48
50.0
100
AcDbLine
 10
6277.829581418171
 20
9228.736797361971
 30
0.0
 11
5451.198601638504
 21
9228.736797361971
 31
0.0
  0
LINE
  5
1B646
330
186B0
100
AcDbEntity
  8
0
  6
ByBlock
 62
     0
 48
50.0
100
AcDbLine
 10
5526.198601638504
 20
10528.73679736197
 30
0.0
 11
5526.198601638504
 21
9228.736797361971
 31
0.0
  0
INSERT
  5
1B647
330
186B0
100
AcDbEntity
  8
0
  6
ByBlock
 62
     0
 48
50.0
100
AcDbBlockReference
  2
_DOTSMALL
 10
5526.198601638504
 20
10528.73679736197
 30
0.0
 41
125.0
 42
125.0
 43
125.0
 50
90.0
  0
INSERT
  5
1B648
330
186B0
100
AcDbEntity
  8
0
  6
ByBlock
 62
     0
 48
50.0
100
AcDbBlockReference
  2
_DOTSMALL
 10
5526.198601638504
 20
9228.736797361971
 30
0.0
 41
125.0
 42
125.0
 43
125.0
 50
270.0
  0
MTEXT
  5
1B649
330
186B0
100
AcDbEntity
  8
0
  6
ByBlock
 62
     7
 48
50.0
100
AcDbMText
 10
5426.198601638503
 20
9878.736797361973
 30
0.0
 40
150.0
 41
0.0
 71
     5
 72
     1
  1
\A1;1300
  7
STYLE1
 11
0.0000000000000001
 21
1.0
 31
0.0
 73
     1
 44
1.0
  0
POINT
  5
1B64A
330
186B0
100
AcDbEntity
  8
DEFPOINTS
  6
ByBlock
 62
     0
 48
50.0
100
AcDbPoint
 10
6302.829581418171
 20
10528.73679736197
 30
0.0
  0
POINT
  5
1B64B
330
186B0
100
AcDbEntity
  8
DEFPOINTS
  6
ByBlock
 62
     0
 48
50.0
100
AcDbPoint
 10
6302.829581418171
 20
9228.736797361971
 30
0.0
  0
POINT
  5
1B64C
330
186B0
100
AcDbEntity
  8
DEFPOINTS
  6
ByBlock
 62
     0
 48
50.0
100
AcDbPoint
 10
5526.198601638504
 20
9228.736797361971
 30
0.0
  0
ENDBLK
  5
1B64D
330
186B0
100
AcDbEntity
  8
0
 48
50.0
100
AcDbBlockEnd
  0
BLOCK
  5
1B82C
330
1B821
100
AcDbEntity
  8
0
 48
50.0
100
AcDbBlockBegin
  2
*D15
 70
     1
 10
0.0
 20
0.0
 30
0.0
  3
*D15
  1

  0
LINE
  5
1B822
330
1B821
100
AcDbEntity
  8
0
  6
ByBlock
 62
     0
 48
50.0
100
AcDbLine
 10
9844.700675670623
 20
6240.518507324279
 30
0.0
 11
10513.89790290454
 21
6240.518507324279
 31
0.0
  0
LINE
  5
1B823
330
1B821
100
AcDbEntity
  8
0
  6
ByBlock
 62
     0
 48
50.0
100
AcDbLine
 10
9844.700675670623
 20
6125.518507324279
 30
0.0
 11
10513.89790290454
 21
6125.518507324279
 31
0.0
  0
LINE
  5
1B824
330
1B821
100
AcDbEntity
  8
0
  6
ByBlock
 62
     0
 48
50.0
100
AcDbLine
 10
10438.89790290454
 20
6125.518507324279
 30
0.0
 11
10438.89790290454
 21
6240.518507324279
 31
0.0
  0
LINE
  5
1B825
330
1B821
100
AcDbEntity
  8
0
  6
ByBlock
 62
     0
 48
50.0
100
AcDbLine
 10
10438.89790290454
 20
6240.518507324279
 30
0.0
 11
10438.89790290454
 21
6631.731710759876
 31
0.0
  0
INSERT
  5
1B826
330
1B821
100
AcDbEntity
  8
0
  6
ByBlock
 62
     0
 48
50.0
100
AcDbBlockReference
  2
_DOTSMALL
 10
10438.89790290454
 20
6125.518507324279
 30
0.0
 41
125.0
 42
125.0
 43
125.0
 50
270.0
  0
INSERT
  5
1B827
330
1B821
100
AcDbEntity
  8
0
  6
ByBlock
 62
     0
 48
50.0
100
AcDbBlockReference
  2
_DOTSMALL
 10
10438.89790290454
 20
6240.518507324279
 30
0.0
 41
125.0
 42
125.0
 43
125.0
 50
90.0
  0
MTEXT
  5
1B828
330
1B821
100
AcDbEntity
  8
0
  6
ByBlock
 62
     7
 48
50.0
100
AcDbMText
 10
10338.89790290454
 20
6498.625109042078
 30
0.0
 40
150.0
 41
0.0
 71
     5
 72
     1
  1
\A1;115
  7
STYLE1
 11
0.0000000000000001
 21
1.0
 31
0.0
 73
     1
 44
1.0
  0
POINT
  5
1B829
330
1B821
100
AcDbEntity
  8
DEFPOINTS
  6
ByBlock
 62
     0
 48
50.0
100
AcDbPoint
 10
9819.700675670624
 20
6240.518507324279
 30
0.0
  0
POINT
  5
1B82A
330
1B821
100
AcDbEntity
  8
DEFPOINTS
  6
ByBlock
 62
     0
 48
50.0
100
AcDbPoint
 10
9819.700675670624
 20
6125.518507324279
 30
0.0
  0
POINT
  5
1B82B
330
1B821
100
AcDbEntity
  8
DEFPOINTS
  6
ByBlock
 62
     0
 48
50.0
100
AcDbPoint
 10
10438.89790290454
 20
6125.518507324279
 30
0.0
  0
ENDBLK
  5
1B82D
330
1B821
100
AcDbEntity
  8
0
 48
50.0
100
AcDbBlockEnd
  0
BLOCK
  5
1B830
330
1B82E
100
AcDbEntity
  8
0
 48
50.0
100
AcDbBlockBegin
  2
A$C019569EB
 70
     0
 10
0.0
 20
0.0
 30
0.0
  3
A$C019569EB
  1

  0
DIMENSION
  5
1B82F
330
1B82E
100
AcDbEntity
  8
寸法
 48
50.0
100
AcDbDimension
  2
*D15
 10
619.1972245496908
 20
15.62500544841896
 30
0.0
 11
619.1972245496908
 21
388.7316071662171
 31
0.0
 12
-9819.70067835485
 22
-6109.89350187586
 32
0.0
 70
   128
 71
     5
 42
-1.0
  3
INABA_S50G
100
AcDbAlignedDimension
 13
-0.0000026842262741
 23
130.6250054484189
 33
0.0
 14
-0.0000026842262741
 24
15.62500544841896
 34
0.0
 50
90.0
100
AcDbRotatedDimension
  0
ENDBLK
  5
1B831
330
1B82E
100
AcDbEntity
  8
0
 48
50.0
100
AcDbBlockEnd
  0
BLOCK
  5
1C080
330
1BFEC
100
AcDbEntity
  8
0
 48
50.0
100
AcDbBlockBegin
  2
*D17
 70
     1
 10
0.0
 20
0.0
 30
0.0
  3
*D17
  1

  0
LINE
  5
1C081
330
1BFEC
100
AcDbEntity
  8
0
  6
ByBlock
 62
     0
 48
50.0
100
AcDbLine
 10
-150.6704185818234
 20
2940.000000000002
 30
0.0
 11
-599.0055535757036
 21
2940.000000000002
 31
0.0
  0
LINE
  5
1C082
330
1BFEC
100
AcDbEntity
  8
0
  6
ByBlock
 62
     0
 48
50.0
100
AcDbLine
 10
-150.6704185818252
 20
3140.0
 30
0.0
 11
-599.0055535757036
 21
3140.0
 31
0.0
  0
LINE
  5
1C083
330
1BFEC
100
AcDbEntity
  8
0
  6
ByBlock
 62
     0
 48
50.0
100
AcDbLine
 10
-524.0055535757035
 20
3140.0
 30
0.0
 11
-524.0055535757035
 21
2940.000000000002
 31
0.0
  0
LINE
  5
1C084
330
1BFEC
100
AcDbEntity
  8
0
  6
ByBlock
 62
     0
 48
50.0
100
AcDbLine
 10
-524.0055535757035
 20
2940.000000000002
 30
0.0
 11
-524.0055535757037
 21
2491.072834645671
 31
0.0
  0
INSERT
  5
1C085
330
1BFEC
100
AcDbEntity
  8
0
  6
ByBlock
 62
     0
 48
50.0
100
AcDbBlockReference
  2
_DOTSMALL
 10
-524.0055535757035
 20
3140.0
 30
0.0
 41
125.0
 42
125.0
 43
125.0
 50
90.0
  0
INSERT
  5
1C086
330
1BFEC
100
AcDbEntity
  8
0
  6
ByBlock
 62
     0
 48
50.0
100
AcDbBlockReference
  2
_DOTSMALL
 10
-524.0055535757035
 20
2940.000000000002
 30
0.0
 41
125.0
 42
125.0
 43
125.0
 50
270.0
  0
MTEXT
  5
1C087
330
1BFEC
100
AcDbEntity
  8
0
  6
ByBlock
 62
     7
 48
50.0
100
AcDbMText
 10
-624.0203173552313
 20
2653.036417322836
 30
0.0
 40
150.0
 41
0.0
 71
     5
 72
     1
  1
\A1;200
  7
STYLE1
 11
0.0000000000000001
 21
1.0
 31
0.0
 73
     1
 44
1.0
  0
POINT
  5
1C088
330
1BFEC
100
AcDbEntity
  8
DEFPOINTS
  6
ByBlock
 62
     0
 48
50.0
100
AcDbPoint
 10
-125.6704185818234
 20
2940.000000000002
 30
0.0
  0
POINT
  5
1C089
330
1BFEC
100
AcDbEntity
  8
DEFPOINTS
  6
ByBlock
 62
     0
 48
50.0
100
AcDbPoint
 10
-125.6704185818252
 20
3140.0
 30
0.0
  0
POINT
  5
1C08A
330
1BFEC
100
AcDbEntity
  8
DEFPOINTS
  6
ByBlock
 62
     0
 48
50.0
100
AcDbPoint
 10
-524.0055535757035
 20
3140.0
 30
0.0
  0
ENDBLK
  5
1C08B
330
1BFEC
100
AcDbEntity
  8
0
 48
50.0
100
AcDbBlockEnd
  0
BLOCK
  5
1C08C
330
1BFF9
100
AcDbEntity
  8
0
 48
50.0
100
AcDbBlockBegin
  2
*D18
 70
     1
 10
0.0
 20
0.0
 30
0.0
  3
*D18
  1

  0
LINE
  5
1C08D
330
1BFF9
100
AcDbEntity
  8
0
  6
ByBlock
 62
     0
 48
50.0
100
AcDbLine
 10
-125.6704185818252
 20
2915.000000000002
 30
0.0
 11
-125.6704185818253
 21
2578.952670699626
 31
0.0
  0
LINE
  5
1C08E
330
1BFF9
100
AcDbEntity
  8
0
  6
ByBlock
 62
     0
 48
50.0
100
AcDbLine
 10
74.32958141817653
 20
2915.000000000002
 30
0.0
 11
74.3295814181765
 21
2578.952670699626
 31
0.0
  0
LINE
  5
1C08F
330
1BFF9
100
AcDbEntity
  8
0
  6
ByBlock
 62
     0
 48
50.0
100
AcDbLine
 10
-125.6704185818253
 20
2653.952670699625
 30
0.0
 11
74.32958141817652
 21
2653.952670699625
 31
0.0
  0
LINE
  5
1C090
330
1BFF9
100
AcDbEntity
  8
0
  6
ByBlock
 62
     0
 48
50.0
100
AcDbLine
 10
74.32958141817652
 20
2653.952670699625
 30
0.0
 11
523.2567467725073
 21
2653.952670699625
 31
0.0
  0
INSERT
  5
1C091
330
1BFF9
100
AcDbEntity
  8
0
  6
ByBlock
 62
     0
 48
50.0
100
AcDbBlockReference
  2
_DOTSMALL
 10
-125.6704185818253
 20
2653.952670699625
 30
0.0
 41
125.0
 42
125.0
 43
125.0
 50
180.0
  0
INSERT
  5
1C092
330
1BFF9
100
AcDbEntity
  8
0
  6
ByBlock
 62
     0
 48
50.0
100
AcDbBlockReference
  2
_DOTSMALL
 10
74.32958141817652
 20
2653.952670699625
 30
0.0
 41
125.0
 42
125.0
 43
125.0
  0
MTEXT
  5
1C093
330
1BFF9
100
AcDbEntity
  8
0
  6
ByBlock
 62
     7
 48
50.0
100
AcDbMText
 10
361.2931640953419
 20
2753.967434479153
 30
0.0
 40
150.0
 41
0.0
 71
     5
 72
     1
  1
\A1;200
  7
STYLE1
 73
     1
 44
1.0
  0
POINT
  5
1C094
330
1BFF9
100
AcDbEntity
  8
DEFPOINTS
  6
ByBlock
 62
     0
 48
50.0
100
AcDbPoint
 10
-125.6704185818252
 20
2940.000000000002
 30
0.0
  0
POINT
  5
1C095
330
1BFF9
100
AcDbEntity
  8
DEFPOINTS
  6
ByBlock
 62
     0
 48
50.0
100
AcDbPoint
 10
74.32958141817653
 20
2940.000000000002
 30
0.0
  0
POINT
  5
1C096
330
1BFF9
100
AcDbEntity
  8
DEFPOINTS
  6
ByBlock
 62
     0
 48
50.0
100
AcDbPoint
 10
74.32958141817652
 20
2653.952670699625
 30
0.0
  0
ENDBLK
  5
1C097
330
1BFF9
100
AcDbEntity
  8
0
 48
50.0
100
AcDbBlockEnd
  0
BLOCK
  5
1C098
330
1C006
100
AcDbEntity
  8
0
 48
50.0
100
AcDbBlockBegin
  2
*D19
 70
     1
 10
0.0
 20
0.0
 30
0.0
  3
*D19
  1

  0
LINE
  5
1C099
330
1C006
100
AcDbEntity
  8
0
  6
ByBlock
 62
     0
 48
50.0
100
AcDbLine
 10
1367.829581418174
 20
5570.0
 30
0.0
 11
1367.829581418174
 21
6581.068854554546
 31
0.0
  0
LINE
  5
1C09A
330
1C006
100
AcDbEntity
  8
0
  6
ByBlock
 62
     0
 48
50.0
100
AcDbLine
 10
-162.1704185818252
 20
5510.0
 30
0.0
 11
-162.1704185818252
 21
6581.068854554546
 31
0.0
  0
LINE
  5
1C09B
330
1C006
100
AcDbEntity
  8
0
  6
ByBlock
 62
     0
 48
50.0
100
AcDbLine
 10
1367.829581418174
 20
6506.068854554546
 30
0.0
 11
-162.1704185818252
 21
6506.068854554546
 31
0.0
  0
INSERT
  5
1C09C
330
1C006
100
AcDbEntity
  8
0
  6
ByBlock
 62
     0
 48
50.0
100
AcDbBlockReference
  2
_DOTSMALL
 10
1367.829581418174
 20
6506.068854554546
 30
0.0
 41
125.0
 42
125.0
 43
125.0
  0
INSERT
  5
1C09D
330
1C006
100
AcDbEntity
  8
0
  6
ByBlock
 62
     0
 48
50.0
100
AcDbBlockReference
  2
_DOTSMALL
 10
-162.1704185818252
 20
6506.068854554546
 30
0.0
 41
125.0
 42
125.0
 43
125.0
 50
180.0
  0
MTEXT
  5
1C09E
330
1C006
100
AcDbEntity
  8
0
  6
ByBlock
 62
     7
 48
50.0
100
AcDbMText
 10
602.8295814181746
 20
6606.068854554546
 30
0.0
 40
150.0
 41
0.0
 71
     5
 72
     1
  1
\A1;1530
  7
STYLE1
 73
     1
 44
1.0
  0
POINT
  5
1C09F
330
1C006
100
AcDbEntity
  8
DEFPOINTS
  6
ByBlock
 62
     0
 48
50.0
100
AcDbPoint
 10
1367.829581418174
 20
5545.0
 30
0.0
  0
POINT
  5
1C0A0
330
1C006
100
AcDbEntity
  8
DEFPOINTS
  6
ByBlock
 62
     0
 48
50.0
100
AcDbPoint
 10
-162.1704185818252
 20
5485.0
 30
0.0
  0
POINT
  5
1C0A1
330
1C006
100
AcDbEntity
  8
DEFPOINTS
  6
ByBlock
 62
     0
 48
50.0
100
AcDbPoint
 10
-162.1704185818252
 20
6506.068854554546
 30
0.0
  0
ENDBLK
  5
1C0A2
330
1C006
100
AcDbEntity
  8
0
 48
50.0
100
AcDbBlockEnd
  0
BLOCK
  5
1C0A3
330
1C012
100
AcDbEntity
  8
0
 48
50.0
100
AcDbBlockBegin
  2
*D20
 70
     1
 10
0.0
 20
0.0
 30
0.0
  3
*D20
  1

  0
LINE
  5
1CFA3
330
1C012
100
AcDbEntity
  8
寸法
 62
     0
 48
50.0
100
AcDbLine
 10
6002.829581418173
 20
5513.337018226797
 30
0.0
 11
6002.829581418173
 21
6313.281130716478
 31
0.0
  0
LINE
  5
1CFA4
330
1C012
100
AcDbEntity
  8
寸法
 62
     0
 48
50.0
100
AcDbLine
 10
7302.829581418174
 20
6238.281130716478
 30
0.0
 11
6002.829581418173
 21
6238.281130716478
 31
0.0
  0
INSERT
  5
1CFA5
330
1C012
100
AcDbEntity
  8
寸法
 62
     0
 48
50.0
100
AcDbBlockReference
  2
_DOTSMALL
 10
7302.829581418174
 20
6238.281130716478
 30
0.0
 41
125.0
 42
125.0
 43
125.0
  0
INSERT
  5
1CFA6
330
1C012
100
AcDbEntity
  8
寸法
 62
     0
 48
50.0
100
AcDbBlockReference
  2
_DOTSMALL
 10
6002.829581418173
 20
6238.281130716478
 30
0.0
 41
125.0
 42
125.0
 43
125.0
 50
180.0
  0
MTEXT
  5
1CFA7
330
1C012
100
AcDbEntity
  8
寸法
 62
     7
 48
50.0
100
AcDbMText
 10
6652.829581418174
 20
6338.281130716477
 30
0.0
 40
150.0
 41
0.0
 71
     5
 72
     1
  1
\A1;柱外寸法 1300
  7
STYLE1
 73
     1
 44
1.0
  0
POINT
  5
1CFA8
330
1C012
100
AcDbEntity
  8
DEFPOINTS
 62
     0
 48
50.0
100
AcDbPoint
 10
7302.829581418174
 20
5541.484603453039
 30
0.0
  0
POINT
  5
1CFA9
330
1C012
100
AcDbEntity
  8
DEFPOINTS
 62
     0
 48
50.0
100
AcDbPoint
 10
6002.829581418173
 20
5488.337018226797
 30
0.0
  0
POINT
  5
1CFAA
330
1C012
100
AcDbEntity
  8
DEFPOINTS
 62
     0
 48
50.0
100
AcDbPoint
 10
6002.829581418173
 20
6238.281130716478
 30
0.0
  0
ENDBLK
  5
1C0AC
330
1C012
100
AcDbEntity
  8
0
 48
50.0
100
AcDbBlockEnd
  0
BLOCK
  5
1C10D
330
1C029
100
AcDbEntity
  8
0
 48
50.0
100
AcDbBlockBegin
  2
*D21
 70
     1
 10
0.0
 20
0.0
 30
0.0
  3
*D21
  1

  0
LINE
  5
1CFAB
330
1C029
100
AcDbEntity
  8
寸法
 62
     0
 48
50.0
100
AcDbLine
 10
7327.829581418173
 20
5274.999999999956
 30
0.0
 11
8103.949297310762
 21
5274.999999999956
 31
0.0
  0
LINE
  5
1CFAC
330
1C029
100
AcDbEntity
  8
寸法
 62
     0
 48
50.0
100
AcDbLine
 10
8028.949297310763
 20
3329.999999999956
 30
0.0
 11
8028.949297310763
 21
5274.999999999956
 31
0.0
  0
INSERT
  5
1CFAD
330
1C029
100
AcDbEntity
  8
寸法
 62
     0
 48
50.0
100
AcDbBlockReference
  2
_DOTSMALL
 10
8028.949297310763
 20
3329.999999999956
 30
0.0
 41
125.0
 42
125.0
 43
125.0
 50
270.0
  0
INSERT
  5
1CFAE
330
1C029
100
AcDbEntity
  8
寸法
 62
     0
 48
50.0
100
AcDbBlockReference
  2
_DOTSMALL
 10
8028.949297310763
 20
5274.999999999956
 30
0.0
 41
125.0
 42
125.0
 43
125.0
 50
90.0
  0
MTEXT
  5
1CFAF
330
1C029
100
AcDbEntity
  8
寸法
 62
     7
 48
50.0
100
AcDbMText
 10
7928.949297310762
 20
4302.499999999957
 30
0.0
 40
150.0
 41
0.0
 71
     5
 72
     1
  1
\A1;1945
  7
STYLE1
 11
0.0000000000000001
 21
1.0
 31
0.0
 73
     1
 44
1.0
  0
POINT
  5
1CFB0
330
1C029
100
AcDbEntity
  8
DEFPOINTS
 62
     0
 48
50.0
100
AcDbPoint
 10
7302.829581418173
 20
3329.999999999956
 30
0.0
  0
POINT
  5
1CFB1
330
1C029
100
AcDbEntity
  8
DEFPOINTS
 62
     0
 48
50.0
100
AcDbPoint
 10
7302.829581418173
 20
5274.999999999956
 30
0.0
  0
POINT
  5
1CFB2
330
1C029
100
AcDbEntity
  8
DEFPOINTS
 62
     0
 48
50.0
100
AcDbPoint
 10
8028.949297310763
 20
5274.999999999956
 30
0.0
  0
ENDBLK
  5
1C116
330
1C029
100
AcDbEntity
  8
0
 48
50.0
100
AcDbBlockEnd
  0
BLOCK
  5
1C117
330
1C034
100
AcDbEntity
  8
0
 48
50.0
100
AcDbBlockBegin
  2
*D22
 70
     1
 10
0.0
 20
0.0
 30
0.0
  3
*D22
  1

  0
LINE
  5
1C118
330
1C034
100
AcDbEntity
  8
0
  6
ByBlock
 62
     0
 48
50.0
100
AcDbLine
 10
7462.829581418175
 20
5544.999999999956
 30
0.0
 11
8411.995501716564
 21
5544.999999999956
 31
0.0
  0
LINE
  5
1C119
330
1C034
100
AcDbEntity
  8
0
  6
ByBlock
 62
     0
 48
50.0
100
AcDbLine
 10
7327.829581418173
 20
3274.999999999956
 30
0.0
 11
8411.995501716564
 21
3274.999999999956
 31
0.0
  0
LINE
  5
1C11A
330
1C034
100
AcDbEntity
  8
0
  6
ByBlock
 62
     0
 48
50.0
100
AcDbLine
 10
8336.995501716563
 20
5544.999999999956
 30
0.0
 11
8336.995501716563
 21
3274.999999999956
 31
0.0
  0
INSERT
  5
1C11B
330
1C034
100
AcDbEntity
  8
0
  6
ByBlock
 62
     0
 48
50.0
100
AcDbBlockReference
  2
_DOTSMALL
 10
8336.995501716563
 20
5544.999999999956
 30
0.0
 41
125.0
 42
125.0
 43
125.0
 50
90.0
  0
INSERT
  5
1C11C
330
1C034
100
AcDbEntity
  8
0
  6
ByBlock
 62
     0
 48
50.0
100
AcDbBlockReference
  2
_DOTSMALL
 10
8336.995501716563
 20
3274.999999999956
 30
0.0
 41
125.0
 42
125.0
 43
125.0
 50
270.0
  0
MTEXT
  5
1C11D
330
1C034
100
AcDbEntity
  8
0
  6
ByBlock
 62
     7
 48
50.0
100
AcDbMText
 10
8236.980737937036
 20
4409.999999999956
 30
0.0
 40
150.0
 41
0.0
 71
     5
 72
     1
  1
\A1;2270
  7
STYLE1
 11
0.0000000000000001
 21
1.0
 31
0.0
 73
     1
 44
1.0
  0
POINT
  5
1C11E
330
1C034
100
AcDbEntity
  8
DEFPOINTS
  6
ByBlock
 62
     0
 48
50.0
100
AcDbPoint
 10
7437.829581418175
 20
5544.999999999956
 30
0.0
  0
POINT
  5
1C11F
330
1C034
100
AcDbEntity
  8
DEFPOINTS
  6
ByBlock
 62
     0
 48
50.0
100
AcDbPoint
 10
7302.829581418173
 20
3274.999999999956
 30
0.0
  0
POINT
  5
1C120
330
1C034
100
AcDbEntity
  8
DEFPOINTS
  6
ByBlock
 62
     0
 48
50.0
100
AcDbPoint
 10
8336.995501716563
 20
3274.999999999956
 30
0.0
  0
ENDBLK
  5
1C121
330
1C034
100
AcDbEntity
  8
0
 48
50.0
100
AcDbBlockEnd
  0
BLOCK
  5
1C122
330
1C040
100
AcDbEntity
  8
0
 48
50.0
100
AcDbBlockBegin
  2
*D23
 70
     1
 10
0.0
 20
0.0
 30
0.0
  3
*D23
  1

  0
LINE
  5
1C123
330
1C040
100
AcDbEntity
  8
0
  6
ByBlock
 62
     0
 48
50.0
100
AcDbLine
 10
7327.829581418173
 20
3274.999999999956
 30
0.0
 11
8103.949297310762
 21
3274.999999999956
 31
0.0
  0
LINE
  5
1C124
330
1C040
100
AcDbEntity
  8
0
  6
ByBlock
 62
     0
 48
50.0
100
AcDbLine
 10
7327.829581418173
 20
3329.999999999956
 30
0.0
 11
8103.949297310762
 21
3329.999999999956
 31
0.0
  0
LINE
  5
1C125
330
1C040
100
AcDbEntity
  8
0
  6
ByBlock
 62
     0
 48
50.0
100
AcDbLine
 10
8028.949297310763
 20
3329.999999999956
 30
0.0
 11
8028.949297310763
 21
3274.999999999956
 31
0.0
  0
LINE
  5
1C126
330
1C040
100
AcDbEntity
  8
0
  6
ByBlock
 62
     0
 48
50.0
100
AcDbLine
 10
8028.949297310763
 20
3274.999999999956
 30
0.0
 11
8028.949297310763
 21
2853.813892459624
 31
0.0
  0
INSERT
  5
1C127
330
1C040
100
AcDbEntity
  8
0
  6
ByBlock
 62
     0
 48
50.0
100
AcDbBlockReference
  2
_DOTSMALL
 10
8028.949297310763
 20
3329.999999999956
 30
0.0
 41
125.0
 42
125.0
 43
125.0
 50
90.0
  0
INSERT
  5
1C128
330
1C040
100
AcDbEntity
  8
0
  6
ByBlock
 62
     0
 48
50.0
100
AcDbBlockReference
  2
_DOTSMALL
 10
8028.949297310763
 20
3274.999999999956
 30
0.0
 41
125.0
 42
125.0
 43
125.0
 50
270.0
  0
MTEXT
  5
1C129
330
1C040
100
AcDbEntity
  8
0
  6
ByBlock
 62
     7
 48
50.0
100
AcDbMText
 10
7928.949297310762
 20
2964.420494177422
 30
0.0
 40
150.0
 41
0.0
 71
     5
 72
     1
  1
\A1;55
  7
STYLE1
 11
0.0000000000000001
 21
1.0
 31
0.0
 73
     1
 44
1.0
  0
POINT
  5
1C12A
330
1C040
100
AcDbEntity
  8
DEFPOINTS
  6
ByBlock
 62
     0
 48
50.0
100
AcDbPoint
 10
7302.829581418173
 20
3274.999999999956
 30
0.0
  0
POINT
  5
1C12B
330
1C040
100
AcDbEntity
  8
DEFPOINTS
  6
ByBlock
 62
     0
 48
50.0
100
AcDbPoint
 10
7302.829581418173
 20
3329.999999999956
 30
0.0
  0
POINT
  5
1C12C
330
1C040
100
AcDbEntity
  8
DEFPOINTS
  6
ByBlock
 62
     0
 48
50.0
100
AcDbPoint
 10
8028.949297310763
 20
3329.999999999956
 30
0.0
  0
ENDBLK
  5
1C12D
330
1C040
100
AcDbEntity
  8
0
 48
50.0
100
AcDbBlockEnd
  0
BLOCK
  5
1C0D9
330
1C04D
100
AcDbEntity
  8
0
 48
50.0
100
AcDbBlockBegin
  2
*D24
 70
     1
 10
0.0
 20
0.0
 30
0.0
  3
*D24
  1

  0
LINE
  5
1C0DA
330
1C04D
100
AcDbEntity
  8
0
  6
ByBlock
 62
     0
 48
50.0
100
AcDbLine
 10
1367.829581418176
 20
5570.0
 30
0.0
 11
1367.829581418176
 21
6313.281130716521
 31
0.0
  0
LINE
  5
1C0DB
330
1C04D
100
AcDbEntity
  8
0
  6
ByBlock
 62
     0
 48
50.0
100
AcDbLine
 10
1232.829581418176
 20
5566.484603453082
 30
0.0
 11
1232.829581418176
 21
6313.281130716521
 31
0.0
  0
LINE
  5
1C0DC
330
1C04D
100
AcDbEntity
  8
0
  6
ByBlock
 62
     0
 48
50.0
100
AcDbLine
 10
1232.829581418176
 20
6238.281130716521
 30
0.0
 11
1367.829581418176
 21
6238.281130716521
 31
0.0
  0
LINE
  5
1C0DD
330
1C04D
100
AcDbEntity
  8
0
  6
ByBlock
 62
     0
 48
50.0
100
AcDbLine
 10
1367.829581418176
 20
6238.281130716521
 30
0.0
 11
1789.042784853773
 21
6238.281130716521
 31
0.0
  0
INSERT
  5
1C0DE
330
1C04D
100
AcDbEntity
  8
0
  6
ByBlock
 62
     0
 48
50.0
100
AcDbBlockReference
  2
_DOTSMALL
 10
1232.829581418176
 20
6238.281130716521
 30
0.0
 41
125.0
 42
125.0
 43
125.0
 50
180.0
  0
INSERT
  5
1C0DF
330
1C04D
100
AcDbEntity
  8
0
  6
ByBlock
 62
     0
 48
50.0
100
AcDbBlockReference
  2
_DOTSMALL
 10
1367.829581418176
 20
6238.281130716521
 30
0.0
 41
125.0
 42
125.0
 43
125.0
  0
MTEXT
  5
1C0E0
330
1C04D
100
AcDbEntity
  8
0
  6
ByBlock
 62
     7
 48
50.0
100
AcDbMText
 10
1640.936183135974
 20
6338.281130716521
 30
0.0
 40
150.0
 41
0.0
 71
     5
 72
     1
  1
\A1;135
  7
STYLE1
 73
     1
 44
1.0
  0
POINT
  5
1C0E1
330
1C04D
100
AcDbEntity
  8
DEFPOINTS
  6
ByBlock
 62
     0
 48
50.0
100
AcDbPoint
 10
1367.829581418176
 20
5545.0
 30
0.0
  0
POINT
  5
1C0E2
330
1C04D
100
AcDbEntity
  8
DEFPOINTS
  6
ByBlock
 62
     0
 48
50.0
100
AcDbPoint
 10
1232.829581418176
 20
5541.484603453081
 30
0.0
  0
POINT
  5
1C0E3
330
1C04D
100
AcDbEntity
  8
DEFPOINTS
  6
ByBlock
 62
     0
 48
50.0
100
AcDbPoint
 10
1232.829581418176
 20
6238.281130716521
 30
0.0
  0
ENDBLK
  5
1C0E4
330
1C04D
100
AcDbEntity
  8
0
 48
50.0
100
AcDbBlockEnd
  0
BLOCK
  5
1C0F1
330
1C067
100
AcDbEntity
  8
0
 48
50.0
100
AcDbBlockBegin
  2
*D25
 70
     1
 10
0.0
 20
0.0
 30
0.0
  3
*D25
  1

  0
LINE
  5
1C0F2
330
1C067
100
AcDbEntity
  8
0
  6
ByBlock
 62
     0
 48
50.0
100
AcDbLine
 10
-92.17041858182529
 20
3275.0
 30
0.0
 11
-801.6611720032434
 21
3275.0
 31
0.0
  0
LINE
  5
1C0F3
330
1C067
100
AcDbEntity
  8
0
  6
ByBlock
 62
     0
 48
50.0
100
AcDbLine
 10
-187.1704185818252
 20
5485.0
 30
0.0
 11
-801.6611720032432
 21
5485.0
 31
0.0
  0
LINE
  5
1C0F4
330
1C067
100
AcDbEntity
  8
0
  6
ByBlock
 62
     0
 48
50.0
100
AcDbLine
 10
-726.6611720032434
 20
3275.0
 30
0.0
 11
-726.6611720032433
 21
5485.0
 31
0.0
  0
INSERT
  5
1C0F5
330
1C067
100
AcDbEntity
  8
0
  6
ByBlock
 62
     0
 48
50.0
100
AcDbBlockReference
  2
_DOTSMALL
 10
-726.6611720032434
 20
3275.0
 30
0.0
 41
125.0
 42
125.0
 43
125.0
 50
270.0
  0
INSERT
  5
1C0F6
330
1C067
100
AcDbEntity
  8
0
  6
ByBlock
 62
     0
 48
50.0
100
AcDbBlockReference
  2
_DOTSMALL
 10
-726.6611720032433
 20
5485.0
 30
0.0
 41
125.0
 42
125.0
 43
125.0
 50
90.0
  0
MTEXT
  5
1C0F7
330
1C067
100
AcDbEntity
  8
0
  6
ByBlock
 62
     7
 48
50.0
100
AcDbMText
 10
-826.675935782771
 20
4380.0
 30
0.0
 40
150.0
 41
0.0
 71
     5
 72
     1
  1
\A1;2210
  7
STYLE1
 11
0.0000000000000001
 21
1.0
 31
0.0
 73
     1
 44
1.0
  0
POINT
  5
1C0F8
330
1C067
100
AcDbEntity
  8
DEFPOINTS
  6
ByBlock
 62
     0
 48
50.0
100
AcDbPoint
 10
-67.17041858182529
 20
3275.0
 30
0.0
  0
POINT
  5
1C0F9
330
1C067
100
AcDbEntity
  8
DEFPOINTS
  6
ByBlock
 62
     0
 48
50.0
100
AcDbPoint
 10
-162.1704185818252
 20
5485.0
 30
0.0
  0
POINT
  5
1C0FA
330
1C067
100
AcDbEntity
  8
DEFPOINTS
  6
ByBlock
 62
     0
 48
50.0
100
AcDbPoint
 10
-726.6611720032433
 20
5485.0
 30
0.0
  0
ENDBLK
  5
1C0FB
330
1C067
100
AcDbEntity
  8
0
 48
50.0
100
AcDbBlockEnd
  0
BLOCK
  5
1C0FC
330
1C073
100
AcDbEntity
  8
0
 48
50.0
100
AcDbBlockBegin
  2
*D26
 70
     1
 10
0.0
 20
0.0
 30
0.0
  3
*D26
  1

  0
LINE
  5
1C0FD
330
1C073
100
AcDbEntity
  8
0
  6
ByBlock
 62
     0
 48
50.0
100
AcDbLine
 10
-67.17041858182529
 20
5513.337018226841
 30
0.0
 11
-67.17041858182523
 21
6313.281130716521
 31
0.0
  0
LINE
  5
1C0FE
330
1C073
100
AcDbEntity
  8
0
  6
ByBlock
 62
     0
 48
50.0
100
AcDbLine
 10
-162.1704185818252
 20
5510.0
 30
0.0
 11
-162.1704185818252
 21
6313.281130716521
 31
0.0
  0
LINE
  5
1C0FF
330
1C073
100
AcDbEntity
  8
0
  6
ByBlock
 62
     0
 48
50.0
100
AcDbLine
 10
-67.17041858182525
 20
6238.281130716521
 30
0.0
 11
-162.1704185818252
 21
6238.281130716521
 31
0.0
  0
LINE
  5
1C100
330
1C073
100
AcDbEntity
  8
0
  6
ByBlock
 62
     0
 48
50.0
100
AcDbLine
 10
-162.1704185818252
 20
6238.281130716521
 30
0.0
 11
-608.4426771355301
 21
6238.281130716521
 31
0.0
  0
INSERT
  5
1C101
330
1C073
100
AcDbEntity
  8
0
  6
ByBlock
 62
     0
 48
50.0
100
AcDbBlockReference
  2
_DOTSMALL
 10
-67.17041858182525
 20
6238.281130716521
 30
0.0
 41
125.0
 42
125.0
 43
125.0
  0
INSERT
  5
1C102
330
1C073
100
AcDbEntity
  8
0
  6
ByBlock
 62
     0
 48
50.0
100
AcDbBlockReference
  2
_DOTSMALL
 10
-162.1704185818252
 20
6238.281130716521
 30
0.0
 41
125.0
 42
125.0
 43
125.0
 50
180.0
  0
MTEXT
  5
1C103
330
1C073
100
AcDbEntity
  8
0
  6
ByBlock
 62
     7
 48
50.0
100
AcDbMText
 10
-494.7294736999338
 20
6338.281130716521
 30
0.0
 40
150.0
 41
0.0
 71
     5
 72
     1
  1
\A1;95
  7
STYLE1
 73
     1
 44
1.0
  0
POINT
  5
1C104
330
1C073
100
AcDbEntity
  8
DEFPOINTS
  6
ByBlock
 62
     0
 48
50.0
100
AcDbPoint
 10
-67.17041858182529
 20
5488.33701822684
 30
0.0
  0
POINT
  5
1C105
330
1C073
100
AcDbEntity
  8
DEFPOINTS
  6
ByBlock
 62
     0
 48
50.0
100
AcDbPoint
 10
-162.1704185818252
 20
5485.0
 30
0.0
  0
POINT
  5
1C106
330
1C073
100
AcDbEntity
  8
DEFPOINTS
  6
ByBlock
 62
     0
 48
50.0
100
AcDbPoint
 10
-162.1704185818252
 20
6238.281130716521
 30
0.0
  0
ENDBLK
  5
1C107
330
1C073
100
AcDbEntity
  8
0
 48
50.0
100
AcDbBlockEnd
  0
BLOCK
  5
1C143
330
1C142
100
AcDbEntity
  8
0
 48
50.0
100
AcDbBlockBegin
  2
*D27
 70
     1
 10
0.0
 20
0.0
 30
0.0
  3
*D27
  1

  0
LINE
  5
1C144
330
1C142
100
AcDbEntity
  8
0
  6
ByBlock
 62
     0
 48
50.0
100
AcDbLine
 10
10497.10411557581
 20
16311.23332302179
 30
0.0
 11
10099.17415535266
 21
16311.23332302179
 31
0.0
  0
LINE
  5
1C145
330
1C142
100
AcDbEntity
  8
0
  6
ByBlock
 62
     0
 48
50.0
100
AcDbLine
 10
10567.10411557581
 20
18206.23332302179
 30
0.0
 11
10099.17415535266
 21
18206.23332302179
 31
0.0
  0
LINE
  5
1C146
330
1C142
100
AcDbEntity
  8
0
  6
ByBlock
 62
     0
 48
50.0
100
AcDbLine
 10
10174.17415535266
 20
16311.23332302179
 30
0.0
 11
10174.17415535266
 21
18206.23332302179
 31
0.0
  0
INSERT
  5
1C147
330
1C142
100
AcDbEntity
  8
0
  6
ByBlock
 62
     0
 48
50.0
100
AcDbBlockReference
  2
_DOTSMALL
 10
10174.17415535266
 20
16311.23332302179
 30
0.0
 41
125.0
 42
125.0
 43
125.0
 50
270.0
  0
INSERT
  5
1C148
330
1C142
100
AcDbEntity
  8
0
  6
ByBlock
 62
     0
 48
50.0
100
AcDbBlockReference
  2
_DOTSMALL
 10
10174.17415535266
 20
18206.23332302179
 30
0.0
 41
125.0
 42
125.0
 43
125.0
 50
90.0
  0
MTEXT
  5
1C149
330
1C142
100
AcDbEntity
  8
0
  6
ByBlock
 62
     7
 48
50.0
100
AcDbMText
 10
10074.17415535266
 20
17258.73332302179
 30
0.0
 40
150.0
 41
0.0
 71
     5
 72
     1
  1
\A1;1895
  7
STYLE1
 11
0.0000000000000001
 21
1.0
 31
0.0
 73
     1
 44
1.0
  0
POINT
  5
1C14A
330
1C142
100
AcDbEntity
  8
DEFPOINTS
  6
ByBlock
 62
     0
 48
50.0
100
AcDbPoint
 10
10522.10411557581
 20
16311.23332302179
 30
0.0
  0
POINT
  5
1C14B
330
1C142
100
AcDbEntity
  8
DEFPOINTS
  6
ByBlock
 62
     0
 48
50.0
100
AcDbPoint
 10
10592.10411557581
 20
18206.23332302179
 30
0.0
  0
POINT
  5
1C14C
330
1C142
100
AcDbEntity
  8
DEFPOINTS
  6
ByBlock
 62
     0
 48
50.0
100
AcDbPoint
 10
10174.17415535266
 20
18206.23332302179
 30
0.0
  0
ENDBLK
  5
1C14D
330
1C142
100
AcDbEntity
  8
0
 48
50.0
100
AcDbBlockEnd
  0
BLOCK
  5
1C1F4
330
1C1F3
100
AcDbEntity
  8
0
 48
50.0
100
AcDbBlockBegin
  2
*D28
 70
     1
 10
0.0
 20
0.0
 30
0.0
  3
*D28
  1

  0
LINE
  5
1C1F5
330
1C1F3
100
AcDbEntity
  8
0
  6
ByBlock
 62
     0
 48
50.0
100
AcDbLine
 10
17097.10411557581
 20
23500.97012038376
 30
0.0
 11
16612.66042970321
 21
23500.97012038376
 31
0.0
  0
LINE
  5
1C1F6
330
1C1F3
100
AcDbEntity
  8
0
  6
ByBlock
 62
     0
 48
50.0
100
AcDbLine
 10
17097.10411557581
 20
22698.97012038376
 30
0.0
 11
16612.66042970321
 21
22698.97012038376
 31
0.0
  0
LINE
  5
1C1F7
330
1C1F3
100
AcDbEntity
  8
0
  6
ByBlock
 62
     0
 48
50.0
100
AcDbLine
 10
16687.66042970321
 20
23500.97012038376
 30
0.0
 11
16687.66042970321
 21
22698.97012038376
 31
0.0
  0
INSERT
  5
1C1F8
330
1C1F3
100
AcDbEntity
  8
0
  6
ByBlock
 62
     0
 48
50.0
100
AcDbBlockReference
  2
_DOTSMALL
 10
16687.66042970321
 20
23500.97012038376
 30
0.0
 41
125.0
 42
125.0
 43
125.0
 50
90.0
  0
INSERT
  5
1C1F9
330
1C1F3
100
AcDbEntity
  8
0
  6
ByBlock
 62
     0
 48
50.0
100
AcDbBlockReference
  2
_DOTSMALL
 10
16687.66042970321
 20
22698.97012038376
 30
0.0
 41
125.0
 42
125.0
 43
125.0
 50
270.0
  0
MTEXT
  5
1C1FA
330
1C1F3
100
AcDbEntity
  8
0
  6
ByBlock
 62
     7
 48
50.0
100
AcDbMText
 10
16587.64566592368
 20
23099.97012038376
 30
0.0
 40
150.0
 41
0.0
 71
     5
 72
     1
  1
\A1;802
  7
STYLE1
 11
0.0000000000000001
 21
1.0
 31
0.0
 73
     1
 44
1.0
  0
POINT
  5
1C1FB
330
1C1F3
100
AcDbEntity
  8
DEFPOINTS
  6
ByBlock
 62
     0
 48
50.0
100
AcDbPoint
 10
17122.10411557581
 20
23500.97012038376
 30
0.0
  0
POINT
  5
1C1FC
330
1C1F3
100
AcDbEntity
  8
DEFPOINTS
  6
ByBlock
 62
     0
 48
50.0
100
AcDbPoint
 10
17122.10411557581
 20
22698.97012038376
 30
0.0
  0
POINT
  5
1C1FD
330
1C1F3
100
AcDbEntity
  8
DEFPOINTS
  6
ByBlock
 62
     0
 48
50.0
100
AcDbPoint
 10
16687.66042970321
 20
22698.97012038376
 30
0.0
  0
ENDBLK
  5
1C1FE
330
1C1F3
100
AcDbEntity
  8
0
 48
50.0
100
AcDbBlockEnd
  0
BLOCK
  5
1C999
330
1C214
100
AcDbEntity
  8
0
 48
50.0
100
AcDbBlockBegin
  2
*D29
 70
     1
 10
0.0
 20
0.0
 30
0.0
  3
*D29
  1

  0
LINE
  5
1C99A
330
1C214
100
AcDbEntity
  8
0
  6
ByBlock
 62
     0
 48
50.0
100
AcDbLine
 10
11846.82958141817
 20
9203.73679736191
 30
0.0
 11
11846.82958141817
 21
8669.293111489313
 31
0.0
  0
LINE
  5
1C99B
330
1C214
100
AcDbEntity
  8
0
  6
ByBlock
 62
     0
 48
50.0
100
AcDbLine
 10
14178.82958141817
 20
9203.73679736191
 30
0.0
 11
14178.82958141817
 21
8669.293111489313
 31
0.0
  0
LINE
  5
1C99C
330
1C214
100
AcDbEntity
  8
0
  6
ByBlock
 62
     0
 48
50.0
100
AcDbLine
 10
11846.82958141817
 20
8744.293111489312
 30
0.0
 11
14178.82958141817
 21
8744.293111489312
 31
0.0
  0
INSERT
  5
1C99D
330
1C214
100
AcDbEntity
  8
0
  6
ByBlock
 62
     0
 48
50.0
100
AcDbBlockReference
  2
_DOTSMALL
 10
11846.82958141817
 20
8744.293111489312
 30
0.0
 41
125.0
 42
125.0
 43
125.0
 50
180.0
  0
INSERT
  5
1C99E
330
1C214
100
AcDbEntity
  8
0
  6
ByBlock
 62
     0
 48
50.0
100
AcDbBlockReference
  2
_DOTSMALL
 10
14178.82958141817
 20
8744.293111489312
 30
0.0
 41
125.0
 42
125.0
 43
125.0
  0
MTEXT
  5
1C99F
330
1C214
100
AcDbEntity
  8
0
  6
ByBlock
 62
     7
 48
50.0
100
AcDbMText
 10
13012.82958141817
 20
8844.307875268839
 30
0.0
 40
150.0
 41
0.0
 71
     5
 72
     1
  1
\A1;2332
  7
STYLE1
 73
     1
 44
1.0
  0
POINT
  5
1C9A0
330
1C214
100
AcDbEntity
  8
DEFPOINTS
  6
ByBlock
 62
     0
 48
50.0
100
AcDbPoint
 10
11846.82958141817
 20
9228.736797361909
 30
0.0
  0
POINT
  5
1C9A1
330
1C214
100
AcDbEntity
  8
DEFPOINTS
  6
ByBlock
 62
     0
 48
50.0
100
AcDbPoint
 10
14178.82958141817
 20
9228.736797361909
 30
0.0
  0
POINT
  5
1C9A2
330
1C214
100
AcDbEntity
  8
DEFPOINTS
  6
ByBlock
 62
     0
 48
50.0
100
AcDbPoint
 10
14178.82958141817
 20
8744.293111489312
 30
0.0
  0
ENDBLK
  5
1C9A3
330
1C214
100
AcDbEntity
  8
0
 48
50.0
100
AcDbBlockEnd
  0
BLOCK
  5
1C8C3
330
1C8C2
100
AcDbEntity
  8
0
 48
50.0
100
AcDbBlockBegin
  2
*D30
 70
     1
 10
0.0
 20
0.0
 30
0.0
  3
*D30
  1

  0
LINE
  5
1C8C4
330
1C8C2
100
AcDbEntity
  8
0
  6
ByBlock
 62
     0
 48
50.0
100
AcDbLine
 10
21842.04355569053
 20
3945.720159777916
 30
0.0
 11
21842.04355569053
 21
3568.079017493248
 31
0.0
  0
LINE
  5
1C8C5
330
1C8C2
100
AcDbEntity
  8
0
  6
ByBlock
 62
     0
 48
50.0
100
AcDbLine
 10
21642.04355569052
 20
3945.720159777916
 30
0.0
 11
21642.04355569052
 21
3568.079017493248
 31
0.0
  0
LINE
  5
1C8C6
330
1C8C2
100
AcDbEntity
  8
0
  6
ByBlock
 62
     0
 48
50.0
100
AcDbLine
 10
21842.04355569053
 20
3643.079017493248
 30
0.0
 11
21642.04355569052
 21
3643.079017493248
 31
0.0
  0
LINE
  5
1C8C7
330
1C8C2
100
AcDbEntity
  8
0
  6
ByBlock
 62
     0
 48
50.0
100
AcDbLine
 10
21642.04355569052
 20
3643.079017493248
 30
0.0
 11
21193.11639033619
 21
3643.079017493248
 31
0.0
  0
INSERT
  5
1C8C8
330
1C8C2
100
AcDbEntity
  8
0
  6
ByBlock
 62
     0
 48
50.0
100
AcDbBlockReference
  2
_DOTSMALL
 10
21842.04355569053
 20
3643.079017493248
 30
0.0
 41
125.0
 42
125.0
 43
125.0
  0
INSERT
  5
1C8C9
330
1C8C2
100
AcDbEntity
  8
0
  6
ByBlock
 62
     0
 48
50.0
100
AcDbBlockReference
  2
_DOTSMALL
 10
21642.04355569052
 20
3643.079017493248
 30
0.0
 41
125.0
 42
125.0
 43
125.0
 50
180.0
  0
MTEXT
  5
1C8CA
330
1C8C2
100
AcDbEntity
  8
0
  6
ByBlock
 62
     7
 48
50.0
100
AcDbMText
 10
21355.07997301335
 20
3743.093781272775
 30
0.0
 40
150.0
 41
0.0
 71
     5
 72
     1
  1
\A1;200
  7
STYLE1
 73
     1
 44
1.0
  0
POINT
  5
1C8CB
330
1C8C2
100
AcDbEntity
  8
DEFPOINTS
  6
ByBlock
 62
     0
 48
50.0
100
AcDbPoint
 10
21842.04355569053
 20
3970.720159777916
 30
0.0
  0
POINT
  5
1C8CC
330
1C8C2
100
AcDbEntity
  8
DEFPOINTS
  6
ByBlock
 62
     0
 48
50.0
100
AcDbPoint
 10
21642.04355569052
 20
3970.720159777916
 30
0.0
  0
POINT
  5
1C8CD
330
1C8C2
100
AcDbEntity
  8
DEFPOINTS
  6
ByBlock
 62
     0
 48
50.0
100
AcDbPoint
 10
21642.04355569052
 20
3643.079017493248
 30
0.0
  0
ENDBLK
  5
1C8CE
330
1C8C2
100
AcDbEntity
  8
0
 48
50.0
100
AcDbBlockEnd
  0
BLOCK
  5
1C8D0
330
1C8CF
100
AcDbEntity
  8
0
 48
50.0
100
AcDbBlockBegin
  2
*D31
 70
     1
 10
0.0
 20
0.0
 30
0.0
  3
*D31
  1

  0
LINE
  5
1C8D1
330
1C8CF
100
AcDbEntity
  8
0
  6
ByBlock
 62
     0
 48
50.0
100
AcDbLine
 10
19227.04355132069
 20
6564.720162402726
 30
0.0
 11
19227.04355132069
 21
7611.789014332463
 31
0.0
  0
LINE
  5
1C8D2
330
1C8CF
100
AcDbEntity
  8
0
  6
ByBlock
 62
     0
 48
50.0
100
AcDbLine
 10
21797.04355569052
 20
6564.720162402726
 30
0.0
 11
21797.04355569052
 21
7611.789014332463
 31
0.0
  0
LINE
  5
1C8D3
330
1C8CF
100
AcDbEntity
  8
0
  6
ByBlock
 62
     0
 48
50.0
100
AcDbLine
 10
19227.04355132069
 20
7536.789014332462
 30
0.0
 11
21797.04355569052
 21
7536.789014332462
 31
0.0
  0
INSERT
  5
1C8D4
330
1C8CF
100
AcDbEntity
  8
0
  6
ByBlock
 62
     0
 48
50.0
100
AcDbBlockReference
  2
_DOTSMALL
 10
19227.04355132069
 20
7536.789014332462
 30
0.0
 41
125.0
 42
125.0
 43
125.0
 50
180.0
  0
INSERT
  5
1C8D5
330
1C8CF
100
AcDbEntity
  8
0
  6
ByBlock
 62
     0
 48
50.0
100
AcDbBlockReference
  2
_DOTSMALL
 10
21797.04355569052
 20
7536.789014332462
 30
0.0
 41
125.0
 42
125.0
 43
125.0
  0
MTEXT
  5
1C8D6
330
1C8CF
100
AcDbEntity
  8
0
  6
ByBlock
 62
     7
 48
50.0
100
AcDbMText
 10
20512.04355350561
 20
7636.803778111989
 30
0.0
 40
150.0
 41
0.0
 71
     5
 72
     1
  1
\A1;2570
  7
STYLE1
 73
     1
 44
1.0
  0
POINT
  5
1C8D7
330
1C8CF
100
AcDbEntity
  8
DEFPOINTS
  6
ByBlock
 62
     0
 48
50.0
100
AcDbPoint
 10
19227.04355132069
 20
6539.720162402726
 30
0.0
  0
POINT
  5
1C8D8
330
1C8CF
100
AcDbEntity
  8
DEFPOINTS
  6
ByBlock
 62
     0
 48
50.0
100
AcDbPoint
 10
21797.04355569052
 20
6539.720162402726
 30
0.0
  0
POINT
  5
1C8D9
330
1C8CF
100
AcDbEntity
  8
DEFPOINTS
  6
ByBlock
 62
     0
 48
50.0
100
AcDbPoint
 10
21797.04355569052
 20
7536.789014332462
 30
0.0
  0
ENDBLK
  5
1C8DA
330
1C8CF
100
AcDbEntity
  8
0
 48
50.0
100
AcDbBlockEnd
  0
BLOCK
  5
1C8DC
330
1C8DB
100
AcDbEntity
  8
0
 48
50.0
100
AcDbBlockBegin
  2
*D32
 70
     1
 10
0.0
 20
0.0
 30
0.0
  3
*D32
  1

  0
LINE
  5
1CFB3
330
1C8DB
100
AcDbEntity
  8
寸法
 62
     0
 48
50.0
100
AcDbLine
 10
14532.82958360308
 20
5570.000000008445
 30
0.0
 11
14532.82958360308
 21
6313.281130716521
 31
0.0
  0
LINE
  5
1CFB4
330
1C8DB
100
AcDbEntity
  8
寸法
 62
     0
 48
50.0
100
AcDbLine
 10
12072.82958360308
 20
6238.281130716521
 30
0.0
 11
14532.82958360308
 21
6238.281130716521
 31
0.0
  0
INSERT
  5
1CFB5
330
1C8DB
100
AcDbEntity
  8
寸法
 62
     0
 48
50.0
100
AcDbBlockReference
  2
_DOTSMALL
 10
12072.82958360308
 20
6238.281130716521
 30
0.0
 41
125.0
 42
125.0
 43
125.0
 50
180.0
  0
INSERT
  5
1CFB6
330
1C8DB
100
AcDbEntity
  8
寸法
 62
     0
 48
50.0
100
AcDbBlockReference
  2
_DOTSMALL
 10
14532.82958360308
 20
6238.281130716521
 30
0.0
 41
125.0
 42
125.0
 43
125.0
  0
MTEXT
  5
1CFB7
330
1C8DB
100
AcDbEntity
  8
寸法
 62
     7
 48
50.0
100
AcDbMText
 10
13302.82958360308
 20
6338.295894496049
 30
0.0
 40
150.0
 41
0.0
 71
     5
 72
     1
  1
\A1;柱外寸法 2460
  7
STYLE1
 73
     1
 44
1.0
  0
POINT
  5
1CFB8
330
1C8DB
100
AcDbEntity
  8
DEFPOINTS
 62
     0
 48
50.0
100
AcDbPoint
 10
12072.82958360308
 20
5545.000000008467
 30
0.0
  0
POINT
  5
1CFB9
330
1C8DB
100
AcDbEntity
  8
DEFPOINTS
 62
     0
 48
50.0
100
AcDbPoint
 10
14532.82958360308
 20
5545.000000008446
 30
0.0
  0
POINT
  5
1CFBA
330
1C8DB
100
AcDbEntity
  8
DEFPOINTS
 62
     0
 48
50.0
100
AcDbPoint
 10
14532.82958360308
 20
6238.281130716521
 30
0.0
  0
ENDBLK
  5
1C8E5
330
1C8DB
100
AcDbEntity
  8
0
 48
50.0
100
AcDbBlockEnd
  0
BLOCK
  5
1C8E7
330
1C8E6
100
AcDbEntity
  8
0
 48
50.0
100
AcDbBlockBegin
  2
*D33
 70
     1
 10
0.0
 20
0.0
 30
0.0
  3
*D33
  1

  0
LINE
  5
1C8E8
330
1C8E6
100
AcDbEntity
  8
0
  6
ByBlock
 62
     0
 48
50.0
100
AcDbLine
 10
19227.04355132069
 20
6564.720162402726
 30
0.0
 11
19227.04355132069
 21
7344.001290494438
 31
0.0
  0
LINE
  5
1C8E9
330
1C8E6
100
AcDbEntity
  8
0
  6
ByBlock
 62
     0
 48
50.0
100
AcDbLine
 10
19282.04355569052
 20
6600.720159786384
 30
0.0
 11
19282.04355569052
 21
7344.001290494438
 31
0.0
  0
LINE
  5
1C8EA
330
1C8E6
100
AcDbEntity
  8
0
  6
ByBlock
 62
     0
 48
50.0
100
AcDbLine
 10
19282.04355569052
 20
7269.001290494438
 30
0.0
 11
19227.04355132069
 21
7269.001290494438
 31
0.0
  0
LINE
  5
1C8EB
330
1C8E6
100
AcDbEntity
  8
0
  6
ByBlock
 62
     0
 48
50.0
100
AcDbLine
 10
19227.04355132069
 20
7269.001290494438
 30
0.0
 11
18791.37789885461
 21
7269.001290494438
 31
0.0
  0
INSERT
  5
1C8EC
330
1C8E6
100
AcDbEntity
  8
0
  6
ByBlock
 62
     0
 48
50.0
100
AcDbBlockReference
  2
_DOTSMALL
 10
19282.04355569052
 20
7269.001290494438
 30
0.0
 41
125.0
 42
125.0
 43
125.0
  0
INSERT
  5
1C8ED
330
1C8E6
100
AcDbEntity
  8
0
  6
ByBlock
 62
     0
 48
50.0
100
AcDbBlockReference
  2
_DOTSMALL
 10
19227.04355132069
 20
7269.001290494438
 30
0.0
 41
125.0
 42
125.0
 43
125.0
 50
180.0
  0
MTEXT
  5
1C8EE
330
1C8E6
100
AcDbEntity
  8
0
  6
ByBlock
 62
     7
 48
50.0
100
AcDbMText
 10
18901.98450057241
 20
7369.001290494438
 30
0.0
 40
150.0
 41
0.0
 71
     5
 72
     1
  1
\A1;55
  7
STYLE1
 73
     1
 44
1.0
  0
POINT
  5
1C8EF
330
1C8E6
100
AcDbEntity
  8
DEFPOINTS
  6
ByBlock
 62
     0
 48
50.0
100
AcDbPoint
 10
19227.04355132069
 20
6539.720162402726
 30
0.0
  0
POINT
  5
1C8F0
330
1C8E6
100
AcDbEntity
  8
DEFPOINTS
  6
ByBlock
 62
     0
 48
50.0
100
AcDbPoint
 10
19282.04355569052
 20
6575.720159786384
 30
0.0
  0
POINT
  5
1C8F1
330
1C8E6
100
AcDbEntity
  8
DEFPOINTS
  6
ByBlock
 62
     0
 48
50.0
100
AcDbPoint
 10
19282.04355569052
 20
7269.001290494438
 30
0.0
  0
ENDBLK
  5
1C8F2
330
1C8E6
100
AcDbEntity
  8
0
 48
50.0
100
AcDbBlockEnd
  0
BLOCK
  5
1C90C
330
1C90B
100
AcDbEntity
  8
0
 48
50.0
100
AcDbBlockBegin
  2
*D34
 70
     1
 10
0.0
 20
0.0
 30
0.0
  3
*D34
  1

  0
LINE
  5
1C90D
330
1C90B
100
AcDbEntity
  8
0
  6
ByBlock
 62
     0
 48
50.0
100
AcDbLine
 10
21742.04355569052
 20
6600.720159786362
 30
0.0
 11
21742.04355569052
 21
7344.001290494438
 31
0.0
  0
LINE
  5
1C90E
330
1C90B
100
AcDbEntity
  8
0
  6
ByBlock
 62
     0
 48
50.0
100
AcDbLine
 10
21797.04355569052
 20
6564.720162402726
 30
0.0
 11
21797.04355569052
 21
7344.001290494438
 31
0.0
  0
LINE
  5
1C90F
330
1C90B
100
AcDbEntity
  8
0
  6
ByBlock
 62
     0
 48
50.0
100
AcDbLine
 10
21742.04355569052
 20
7269.001290494438
 30
0.0
 11
21797.04355569052
 21
7269.001290494438
 31
0.0
  0
LINE
  5
1C910
330
1C90B
100
AcDbEntity
  8
0
  6
ByBlock
 62
     0
 48
50.0
100
AcDbLine
 10
21797.04355569052
 20
7269.001290494438
 30
0.0
 11
22222.70921252643
 21
7269.001290494438
 31
0.0
  0
INSERT
  5
1C911
330
1C90B
100
AcDbEntity
  8
0
  6
ByBlock
 62
     0
 48
50.0
100
AcDbBlockReference
  2
_DOTSMALL
 10
21742.04355569052
 20
7269.001290494438
 30
0.0
 41
125.0
 42
125.0
 43
125.0
 50
180.0
  0
INSERT
  5
1C912
330
1C90B
100
AcDbEntity
  8
0
  6
ByBlock
 62
     0
 48
50.0
100
AcDbBlockReference
  2
_DOTSMALL
 10
21797.04355569052
 20
7269.001290494438
 30
0.0
 41
125.0
 42
125.0
 43
125.0
  0
MTEXT
  5
1C913
330
1C90B
100
AcDbEntity
  8
0
  6
ByBlock
 62
     7
 48
50.0
100
AcDbMText
 10
22112.10261080863
 20
7369.001290494438
 30
0.0
 40
150.0
 41
0.0
 71
     5
 72
     1
  1
\A1;55
  7
STYLE1
 73
     1
 44
1.0
  0
POINT
  5
1C914
330
1C90B
100
AcDbEntity
  8
DEFPOINTS
  6
ByBlock
 62
     0
 48
50.0
100
AcDbPoint
 10
21742.04355569052
 20
6575.720159786363
 30
0.0
  0
POINT
  5
1C915
330
1C90B
100
AcDbEntity
  8
DEFPOINTS
  6
ByBlock
 62
     0
 48
50.0
100
AcDbPoint
 10
21797.04355569052
 20
6539.720162402726
 30
0.0
  0
POINT
  5
1C916
330
1C90B
100
AcDbEntity
  8
DEFPOINTS
  6
ByBlock
 62
     0
 48
50.0
100
AcDbPoint
 10
21797.04355569052
 20
7269.001290494438
 30
0.0
  0
ENDBLK
  5
1C917
330
1C90B
100
AcDbEntity
  8
0
 48
50.0
100
AcDbBlockEnd
  0
BLOCK
  5
1C94C
330
1C94B
100
AcDbEntity
  8
0
 48
50.0
100
AcDbBlockBegin
  2
*D35
 70
     1
 10
0.0
 20
0.0
 30
0.0
  3
*D35
  1

  0
LINE
  5
1C94D
330
1C94B
100
AcDbEntity
  8
0
  6
ByBlock
 62
     0
 48
50.0
100
AcDbLine
 10
34222.10331536156
 20
3274.999999999956
 30
0.0
 11
34918.2082671931
 21
3274.999999999956
 31
0.0
  0
LINE
  5
1C94E
330
1C94B
100
AcDbEntity
  8
0
  6
ByBlock
 62
     0
 48
50.0
100
AcDbLine
 10
34152.10331536155
 20
4059.999999999956
 30
0.0
 11
34918.2082671931
 21
4059.999999999956
 31
0.0
  0
LINE
  5
1C94F
330
1C94B
100
AcDbEntity
  8
0
  6
ByBlock
 62
     0
 48
50.0
100
AcDbLine
 10
34843.2082671931
 20
3274.999999999956
 30
0.0
 11
34843.2082671931
 21
4059.999999999956
 31
0.0
  0
INSERT
  5
1C950
330
1C94B
100
AcDbEntity
  8
0
  6
ByBlock
 62
     0
 48
50.0
100
AcDbBlockReference
  2
_DOTSMALL
 10
34843.2082671931
 20
3274.999999999956
 30
0.0
 41
125.0
 42
125.0
 43
125.0
 50
270.0
  0
INSERT
  5
1C951
330
1C94B
100
AcDbEntity
  8
0
  6
ByBlock
 62
     0
 48
50.0
100
AcDbBlockReference
  2
_DOTSMALL
 10
34843.2082671931
 20
4059.999999999956
 30
0.0
 41
125.0
 42
125.0
 43
125.0
 50
90.0
  0
MTEXT
  5
1C952
330
1C94B
100
AcDbEntity
  8
0
  6
ByBlock
 62
     7
 48
50.0
100
AcDbMText
 10
34743.2082671931
 20
3667.499999999956
 30
0.0
 40
150.0
 41
0.0
 71
     5
 72
     1
  1
\A1;785
  7
STYLE1
 11
0.0000000000000001
 21
1.0
 31
0.0
 73
     1
 44
1.0
  0
POINT
  5
1C953
330
1C94B
100
AcDbEntity
  8
DEFPOINTS
  6
ByBlock
 62
     0
 48
50.0
100
AcDbPoint
 10
34197.10331536155
 20
3274.999999999956
 30
0.0
  0
POINT
  5
1C954
330
1C94B
100
AcDbEntity
  8
DEFPOINTS
  6
ByBlock
 62
     0
 48
50.0
100
AcDbPoint
 10
34127.10331536155
 20
4059.999999999956
 30
0.0
  0
POINT
  5
1C955
330
1C94B
100
AcDbEntity
  8
DEFPOINTS
  6
ByBlock
 62
     0
 48
50.0
100
AcDbPoint
 10
34843.2082671931
 20
4059.999999999956
 30
0.0
  0
ENDBLK
  5
1C956
330
1C94B
100
AcDbEntity
  8
0
 48
50.0
100
AcDbBlockEnd
  0
BLOCK
  5
1C958
330
1C957
100
AcDbEntity
  8
0
 48
50.0
100
AcDbBlockBegin
  2
*D36
 70
     1
 10
0.0
 20
0.0
 30
0.0
  3
*D36
  1

  0
LINE
  5
1CFC3
330
1C957
100
AcDbEntity
  8
寸法
 62
     0
 48
50.0
100
AcDbLine
 10
14557.82958360308
 20
5302.0
 30
0.0
 11
15607.97132641338
 21
5302.0
 31
0.0
  0
LINE
  5
1CFC4
330
1C957
100
AcDbEntity
  8
寸法
 62
     0
 48
50.0
100
AcDbLine
 10
15532.97132641338
 20
3341.999999999999
 30
0.0
 11
15532.97132641338
 21
5302.0
 31
0.0
  0
INSERT
  5
1CFC5
330
1C957
100
AcDbEntity
  8
寸法
 62
     0
 48
50.0
100
AcDbBlockReference
  2
_DOTSMALL
 10
15532.97132641338
 20
3341.999999999999
 30
0.0
 41
125.0
 42
125.0
 43
125.0
 50
270.0
  0
INSERT
  5
1CFC6
330
1C957
100
AcDbEntity
  8
寸法
 62
     0
 48
50.0
100
AcDbBlockReference
  2
_DOTSMALL
 10
15532.97132641338
 20
5302.0
 30
0.0
 41
125.0
 42
125.0
 43
125.0
 50
90.0
  0
MTEXT
  5
1CFC7
330
1C957
100
AcDbEntity
  8
寸法
 62
     7
 48
50.0
100
AcDbMText
 10
15432.97132641338
 20
4322.000000000002
 30
0.0
 40
150.0
 41
0.0
 71
     5
 72
     1
  1
\A1;内高 1960
  7
STYLE1
 11
0.0000000000000001
 21
1.0
 31
0.0
 73
     1
 44
1.0
  0
POINT
  5
1CFC8
330
1C957
100
AcDbEntity
  8
DEFPOINTS
 62
     0
 48
50.0
100
AcDbPoint
 10
14532.82958360308
 20
3341.999999999999
 30
0.0
  0
POINT
  5
1CFC9
330
1C957
100
AcDbEntity
  8
DEFPOINTS
 62
     0
 48
50.0
100
AcDbPoint
 10
14532.82958360308
 20
5302.0
 30
0.0
  0
POINT
  5
1CFCA
330
1C957
100
AcDbEntity
  8
DEFPOINTS
 62
     0
 48
50.0
100
AcDbPoint
 10
15532.97132641338
 20
5302.0
 30
0.0
  0
ENDBLK
  5
1C961
330
1C957
100
AcDbEntity
  8
0
 48
50.0
100
AcDbBlockEnd
  0
BLOCK
  5
1CF2E
330
1C962
100
AcDbEntity
  8
0
 48
50.0
100
AcDbBlockBegin
  2
*D37
 70
     1
 10
0.0
 20
0.0
 30
0.0
  3
*D37
  1

  0
LINE
  5
1CF2F
330
1C962
100
AcDbEntity
  8
0
  6
ByBlock
 62
     0
 48
50.0
100
AcDbLine
 10
14557.82958360308
 20
3274.999999999999
 30
0.0
 11
15607.97132641338
 21
3274.999999999999
 31
0.0
  0
LINE
  5
1CF30
330
1C962
100
AcDbEntity
  8
0
  6
ByBlock
 62
     0
 48
50.0
100
AcDbLine
 10
14557.82958360308
 20
3341.999999999999
 30
0.0
 11
15607.97132641338
 21
3341.999999999999
 31
0.0
  0
LINE
  5
1CF31
330
1C962
100
AcDbEntity
  8
0
  6
ByBlock
 62
     0
 48
50.0
100
AcDbLine
 10
15532.97132641338
 20
3341.999999999999
 30
0.0
 11
15532.97132641338
 21
3274.999999999999
 31
0.0
  0
LINE
  5
1CF32
330
1C962
100
AcDbEntity
  8
0
  6
ByBlock
 62
     0
 48
50.0
100
AcDbLine
 10
15532.97132641338
 20
3274.999999999999
 30
0.0
 11
15532.97132641338
 21
2866.709408511116
 31
0.0
  0
INSERT
  5
1CF33
330
1C962
100
AcDbEntity
  8
0
  6
ByBlock
 62
     0
 48
50.0
100
AcDbBlockReference
  2
_DOTSMALL
 10
15532.97132641338
 20
3341.999999999999
 30
0.0
 41
125.0
 42
125.0
 43
125.0
 50
90.0
  0
INSERT
  5
1CF34
330
1C962
100
AcDbEntity
  8
0
  6
ByBlock
 62
     0
 48
50.0
100
AcDbBlockReference
  2
_DOTSMALL
 10
15532.97132641338
 20
3274.999999999999
 30
0.0
 41
125.0
 42
125.0
 43
125.0
 50
270.0
  0
MTEXT
  5
1CF35
330
1C962
100
AcDbEntity
  8
0
  6
ByBlock
 62
     7
 48
50.0
100
AcDbMText
 10
15432.97132641338
 20
2978.697597487494
 30
0.0
 40
150.0
 41
0.0
 71
     5
 72
     1
  1
\A1;67
  7
STYLE1
 11
0.0000000000000001
 21
1.0
 31
0.0
 73
     1
 44
1.0
  0
POINT
  5
1CF36
330
1C962
100
AcDbEntity
  8
DEFPOINTS
  6
ByBlock
 62
     0
 48
50.0
100
AcDbPoint
 10
14532.82958360308
 20
3274.999999999999
 30
0.0
  0
POINT
  5
1CF37
330
1C962
100
AcDbEntity
  8
DEFPOINTS
  6
ByBlock
 62
     0
 48
50.0
100
AcDbPoint
 10
14532.82958360308
 20
3341.999999999999
 30
0.0
  0
POINT
  5
1CF38
330
1C962
100
AcDbEntity
  8
DEFPOINTS
  6
ByBlock
 62
     0
 48
50.0
100
AcDbPoint
 10
15532.97132641338
 20
3341.999999999999
 30
0.0
  0
ENDBLK
  5
1CF39
330
1C962
100
AcDbEntity
  8
0
 48
50.0
100
AcDbBlockEnd
  0
BLOCK
  5
1C970
330
1C96F
100
AcDbEntity
  8
0
 48
50.0
100
AcDbBlockBegin
  2
*D38
 70
     1
 10
0.0
 20
0.0
 30
0.0
  3
*D38
  1

  0
LINE
  5
1CFBB
330
1C96F
100
AcDbEntity
  8
寸法
 62
     0
 48
50.0
100
AcDbLine
 10
14487.82958360308
 20
5130.0
 30
0.0
 11
15253.93453543463
 21
5130.0
 31
0.0
  0
LINE
  5
1CFBC
330
1C96F
100
AcDbEntity
  8
寸法
 62
     0
 48
50.0
100
AcDbLine
 10
15178.93453543463
 20
4059.999999999999
 30
0.0
 11
15178.93453543463
 21
5130.0
 31
0.0
  0
INSERT
  5
1CFBD
330
1C96F
100
AcDbEntity
  8
寸法
 62
     0
 48
50.0
100
AcDbBlockReference
  2
_DOTSMALL
 10
15178.93453543463
 20
4059.999999999999
 30
0.0
 41
125.0
 42
125.0
 43
125.0
 50
270.0
  0
INSERT
  5
1CFBE
330
1C96F
100
AcDbEntity
  8
寸法
 62
     0
 48
50.0
100
AcDbBlockReference
  2
_DOTSMALL
 10
15178.93453543463
 20
5130.0
 30
0.0
 41
125.0
 42
125.0
 43
125.0
 50
90.0
  0
MTEXT
  5
1CFBF
330
1C96F
100
AcDbEntity
  8
寸法
 62
     7
 48
50.0
100
AcDbMText
 10
15078.93453543463
 20
4595.000000000003
 30
0.0
 40
150.0
 41
0.0
 71
     5
 72
     1
  1
\A1;1070
  7
STYLE1
 11
0.0000000000000001
 21
1.0
 31
0.0
 73
     1
 44
1.0
  0
POINT
  5
1CFC0
330
1C96F
100
AcDbEntity
  8
DEFPOINTS
 62
     0
 48
50.0
100
AcDbPoint
 10
14462.82958360308
 20
4059.999999999999
 30
0.0
  0
POINT
  5
1CFC1
330
1C96F
100
AcDbEntity
  8
DEFPOINTS
 62
     0
 48
50.0
100
AcDbPoint
 10
14462.82958360308
 20
5130.0
 30
0.0
  0
POINT
  5
1CFC2
330
1C96F
100
AcDbEntity
  8
DEFPOINTS
 62
     0
 48
50.0
100
AcDbPoint
 10
15178.93453543463
 20
5130.0
 30
0.0
  0
ENDBLK
  5
1C979
330
1C96F
100
AcDbEntity
  8
0
 48
50.0
100
AcDbBlockEnd
  0
BLOCK
  5
1CAE5
330
1CAE4
100
AcDbEntity
  8
0
 48
50.0
100
AcDbBlockBegin
  2
*D39
 70
     1
 10
0.0
 20
0.0
 30
0.0
  3
*D39
  1

  0
LINE
  5
1CAE6
330
1CAE4
100
AcDbEntity
  8
0
  6
ByBlock
 62
     0
 48
50.0
100
AcDbLine
 10
7774.012478670174
 20
-5304.224493870407
 30
0.0
 11
7774.012478670174
 21
-5653.533264634021
 31
0.0
  0
LINE
  5
1CAE7
330
1CAE4
100
AcDbEntity
  8
0
  6
ByBlock
 62
     0
 48
50.0
100
AcDbLine
 10
7724.012478670174
 20
-5169.224493870406
 30
0.0
 11
7724.012478670174
 21
-5653.533264634021
 31
0.0
  0
LINE
  5
1CAE8
330
1CAE4
100
AcDbEntity
  8
0
  6
ByBlock
 62
     0
 48
50.0
100
AcDbLine
 10
7774.012478670174
 20
-5578.533264634021
 30
0.0
 11
7724.012478670174
 21
-5578.533264634021
 31
0.0
  0
LINE
  5
1CAE9
330
1CAE4
100
AcDbEntity
  8
0
  6
ByBlock
 62
     0
 48
50.0
100
AcDbLine
 10
7724.012478670174
 20
-5578.533264634021
 30
0.0
 11
7383.894368433953
 21
-5578.533264634021
 31
0.0
  0
INSERT
  5
1CAEA
330
1CAE4
100
AcDbEntity
  8
0
  6
ByBlock
 62
     0
 48
50.0
100
AcDbBlockReference
  2
_DOTSMALL
 10
7774.012478670174
 20
-5578.533264634021
 30
0.0
 41
125.0
 42
125.0
 43
125.0
  0
INSERT
  5
1CAEB
330
1CAE4
100
AcDbEntity
  8
0
  6
ByBlock
 62
     0
 48
50.0
100
AcDbBlockReference
  2
_DOTSMALL
 10
7724.012478670174
 20
-5578.533264634021
 30
0.0
 41
125.0
 42
125.0
 43
125.0
 50
180.0
  0
MTEXT
  5
1CAEC
330
1CAE4
100
AcDbEntity
  8
0
  6
ByBlock
 62
     7
 48
50.0
100
AcDbMText
 10
7491.453423552062
 20
-5478.533264634021
 30
0.0
 40
150.0
 41
0.0
 71
     5
 72
     1
  1
\A1;50
  7
STYLE1
 73
     1
 44
1.0
  0
POINT
  5
1CAED
330
1CAE4
100
AcDbEntity
  8
DEFPOINTS
  6
ByBlock
 62
     0
 48
50.0
100
AcDbPoint
 10
7774.012478670174
 20
-5279.224493870406
 30
0.0
  0
POINT
  5
1CAEE
330
1CAE4
100
AcDbEntity
  8
DEFPOINTS
  6
ByBlock
 62
     0
 48
50.0
100
AcDbPoint
 10
7724.012478670174
 20
-5144.224493870407
 30
0.0
  0
POINT
  5
1CAEF
330
1CAE4
100
AcDbEntity
  8
DEFPOINTS
  6
ByBlock
 62
     0
 48
50.0
100
AcDbPoint
 10
7724.012478670174
 20
-5578.533264634021
 30
0.0
  0
ENDBLK
  5
1CAF0
330
1CAE4
100
AcDbEntity
  8
0
 48
50.0
100
AcDbBlockEnd
  0
BLOCK
  5
1CB10
330
1CB05
100
AcDbEntity
  8
0
 48
50.0
100
AcDbBlockBegin
  2
*D40
 70
     1
 10
0.0
 20
0.0
 30
0.0
  3
*D40
  1

  0
LINE
  5
1CB06
330
1CB05
100
AcDbEntity
  8
0
  6
ByBlock
 62
     0
 48
50.0
100
AcDbLine
 10
44405.89788991325
 20
19731.25355823898
 30
0.0
 11
45075.0910977055
 21
19731.25355823898
 31
0.0
  0
LINE
  5
1CB07
330
1CB05
100
AcDbEntity
  8
0
  6
ByBlock
 62
     0
 48
50.0
100
AcDbLine
 10
44405.89788991326
 20
19846.25355823898
 30
0.0
 11
45075.0910977055
 21
19846.25355823898
 31
0.0
  0
LINE
  5
1CB08
330
1CB05
100
AcDbEntity
  8
0
  6
ByBlock
 62
     0
 48
50.0
100
AcDbLine
 10
45000.0910977055
 20
19731.25355823898
 30
0.0
 11
45000.0910977055
 21
19846.25355823898
 31
0.0
  0
LINE
  5
1CB09
330
1CB05
100
AcDbEntity
  8
0
  6
ByBlock
 62
     0
 48
50.0
100
AcDbLine
 10
45000.0910977055
 20
19846.25355823898
 30
0.0
 11
45000.0910977055
 21
20237.46676167458
 31
0.0
  0
INSERT
  5
1CB0A
330
1CB05
100
AcDbEntity
  8
0
  6
ByBlock
 62
     0
 48
50.0
100
AcDbBlockReference
  2
_DOTSMALL
 10
45000.0910977055
 20
19731.25355823898
 30
0.0
 41
125.0
 42
125.0
 43
125.0
 50
270.0
  0
INSERT
  5
1CB0B
330
1CB05
100
AcDbEntity
  8
0
  6
ByBlock
 62
     0
 48
50.0
100
AcDbBlockReference
  2
_DOTSMALL
 10
45000.0910977055
 20
19846.25355823898
 30
0.0
 41
125.0
 42
125.0
 43
125.0
 50
90.0
  0
MTEXT
  5
1CB0C
330
1CB05
100
AcDbEntity
  8
0
  6
ByBlock
 62
     7
 48
50.0
100
AcDbMText
 10
44900.0910977055
 20
20104.36015995679
 30
0.0
 40
150.0
 41
0.0
 71
     5
 72
     1
  1
\A1;115
  7
STYLE1
 11
0.0000000000000001
 21
1.0
 31
0.0
 73
     1
 44
1.0
  0
POINT
  5
1CB0D
330
1CB05
100
AcDbEntity
  8
DEFPOINTS
  6
ByBlock
 62
     0
 48
50.0
100
AcDbPoint
 10
44380.89788991326
 20
19731.25355823898
 30
0.0
  0
POINT
  5
1CB0E
330
1CB05
100
AcDbEntity
  8
DEFPOINTS
  6
ByBlock
 62
     0
 48
50.0
100
AcDbPoint
 10
44380.89788991326
 20
19846.25355823898
 30
0.0
  0
POINT
  5
1CB0F
330
1CB05
100
AcDbEntity
  8
DEFPOINTS
  6
ByBlock
 62
     0
 48
50.0
100
AcDbPoint
 10
45000.0910977055
 20
19846.25355823898
 30
0.0
  0
ENDBLK
  5
1CB11
330
1CB05
100
AcDbEntity
  8
0
 48
50.0
100
AcDbBlockEnd
  0
BLOCK
  5
1CB14
330
1CB12
100
AcDbEntity
  8
0
 48
50.0
100
AcDbBlockBegin
  2
A$C356B7D95
 70
     0
 10
0.0
 20
0.0
 30
0.0
  3
A$C356B7D95
  1

  0
DIMENSION
  5
1CB13
330
1CB12
100
AcDbEntity
  8
寸法
 48
50.0
100
AcDbDimension
  2
*D40
 10
619.1932440042291
 20
130.6249900073708
 30
0.0
 11
619.1932440042291
 21
388.7315917251762
 31
0.0
 12
-44380.89785370127
 22
-19715.62856823161
 32
0.0
 70
   128
 71
     5
 42
-1.0
  3
INABA_S50G
100
AcDbAlignedDimension
 13
0.0000362119826605
 23
15.62499000737079
 33
0.0
 14
0.0000362119899364
 24
130.6249900073708
 34
0.0
 50
269.9999999999997
100
AcDbRotatedDimension
  0
ENDBLK
  5
1CB15
330
1CB12
100
AcDbEntity
  8
0
 48
50.0
100
AcDbBlockEnd
  0
BLOCK
  5
1CB24
330
1CB16
100
AcDbEntity
  8
0
 48
50.0
100
AcDbBlockBegin
  2
A$C1453373C
 70
     0
 10
0.0
 20
0.0
 30
0.0
  3
A$C1453373C
  1

  0
LINE
  5
1CB17
330
1CB16
100
AcDbEntity
  8
細線
 48
50.0
100
AcDbLine
 10
0.0000320991093758
 20
38.00000861102308
 30
0.0
 11
1457.400032099118
 21
38.00000861102671
 31
0.0
  0
LINE
  5
1CB18
330
1CB16
100
AcDbEntity
  8
細線
 48
50.0
100
AcDbLine
 10
0.0000320991093758
 20
16.00000861102307
 30
0.0
 11
1457.40003209911
 21
16.00000861102671
 31
0.0
  0
LINE
  5
1CB19
330
1CB16
100
AcDbEntity
  8
細線
 48
50.0
100
AcDbLine
 10
0.0000320991093758
 20
38.00000861102308
 30
0.0
 11
0.0000320991093758
 21
16.00000861102307
 31
0.0
  0
LINE
  5
1CB1A
330
1CB16
100
AcDbEntity
  8
細線
 48
50.0
100
AcDbLine
 10
138.000032099102
 20
16.00000861102671
 30
0.0
 11
138.0000320991166
 21
0.0000086110267148
 31
0.0
  0
LINE
  5
1CB1B
330
1CB16
100
AcDbEntity
  8
細線
 48
50.0
100
AcDbLine
 10
158.000032099102
 20
16.00000861102671
 30
0.0
 11
158.0000320991166
 21
0.0000086110267148
 31
0.0
  0
LINE
  5
1CB1C
330
1CB16
100
AcDbEntity
  8
細線
 48
50.0
100
AcDbLine
 10
138.0000320991166
 20
0.0000086110267148
 30
0.0
 11
158.0000320991166
 21
0.0000086110230768
 31
0.0
  0
LINE
  5
1CB1D
330
1CB16
100
AcDbEntity
  8
細線
 48
50.0
100
AcDbLine
 10
765.7000320991137
 20
16.00000861103035
 30
0.0
 11
765.7000320991137
 21
0.0000086110267148
 31
0.0
  0
LINE
  5
1CB1E
330
1CB16
100
AcDbEntity
  8
細線
 48
50.0
100
AcDbLine
 10
785.7000320991065
 20
16.00000861102671
 30
0.0
 11
785.7000320990992
 21
0.0000086110303528
 31
0.0
  0
LINE
  5
1CB1F
330
1CB16
100
AcDbEntity
  8
細線
 48
50.0
100
AcDbLine
 10
765.7000320991137
 20
0.0000086110230768
 30
0.0
 11
785.7000320990992
 21
0.0000086110230768
 31
0.0
  0
LINE
  5
1CB20
330
1CB16
100
AcDbEntity
  8
細線
 48
50.0
100
AcDbLine
 10
1362.40003209911
 20
0.0000086110230768
 30
0.0
 11
1382.400032099118
 21
0.0000086110230768
 31
0.0
  0
LINE
  5
1CB21
330
1CB16
100
AcDbEntity
  8
細線
 48
50.0
100
AcDbLine
 10
1362.400032099103
 20
16.00000861102671
 30
0.0
 11
1362.40003209911
 21
0.0000086110267148
 31
0.0
  0
LINE
  5
1CB22
330
1CB16
100
AcDbEntity
  8
細線
 48
50.0
100
AcDbLine
 10
1382.40003209911
 20
16.00000861102307
 30
0.0
 11
1382.400032099118
 21
0.0000086110267148
 31
0.0
  0
LINE
  5
1CB23
330
1CB16
100
AcDbEntity
  8
細線
 48
50.0
100
AcDbLine
 10
1457.400032099118
 20
38.00000861102671
 30
0.0
 11
1457.40003209911
 21
16.00000861102671
 31
0.0
  0
ENDBLK
  5
1CB25
330
1CB16
100
AcDbEntity
  8
0
 48
50.0
100
AcDbBlockEnd
  0
BLOCK
  5
1CE94
330
1CE0F
100
AcDbEntity
  8
0
 48
50.0
100
AcDbBlockBegin
  2
*D43
 70
     1
 10
0.0
 20
0.0
 30
0.0
  3
*D43
  1

  0
LINE
  5
1CFCB
330
1CE0F
100
AcDbEntity
  8
寸法
 62
     0
 48
50.0
100
AcDbLine
 10
7327.829581418168
 20
11218.73679736192
 30
0.0
 11
8596.033355093792
 21
11218.73679736192
 31
0.0
  0
LINE
  5
1CFCC
330
1CE0F
100
AcDbEntity
  8
寸法
 62
     0
 48
50.0
100
AcDbLine
 10
8521.033355093791
 20
10148.73679736192
 30
0.0
 11
8521.033355093791
 21
11218.73679736192
 31
0.0
  0
INSERT
  5
1CFCD
330
1CE0F
100
AcDbEntity
  8
寸法
 62
     0
 48
50.0
100
AcDbBlockReference
  2
_DOTSMALL
 10
8521.033355093791
 20
10148.73679736192
 30
0.0
 41
125.0
 42
125.0
 43
125.0
 50
270.0
  0
INSERT
  5
1CFCE
330
1CE0F
100
AcDbEntity
  8
寸法
 62
     0
 48
50.0
100
AcDbBlockReference
  2
_DOTSMALL
 10
8521.033355093791
 20
11218.73679736192
 30
0.0
 41
125.0
 42
125.0
 43
125.0
 50
90.0
  0
MTEXT
  5
1CFCF
330
1CE0F
100
AcDbEntity
  8
寸法
 62
     7
 48
50.0
100
AcDbMText
 10
8421.03335509379
 20
10683.73679736192
 30
0.0
 40
150.0
 41
0.0
 71
     5
 72
     1
  1
\A1;1070
  7
STYLE1
 11
0.0000000000000001
 21
1.0
 31
0.0
 73
     1
 44
1.0
  0
POINT
  5
1CFD0
330
1CE0F
100
AcDbEntity
  8
DEFPOINTS
 62
     0
 48
50.0
100
AcDbPoint
 10
7302.829581418174
 20
10148.73679736192
 30
0.0
  0
POINT
  5
1CFD1
330
1CE0F
100
AcDbEntity
  8
DEFPOINTS
 62
     0
 48
50.0
100
AcDbPoint
 10
7302.829581418167
 20
11218.73679736192
 30
0.0
  0
POINT
  5
1CFD2
330
1CE0F
100
AcDbEntity
  8
DEFPOINTS
 62
     0
 48
50.0
100
AcDbPoint
 10
8521.033355093791
 20
11218.73679736192
 30
0.0
  0
ENDBLK
  5
1CE9D
330
1CE0F
100
AcDbEntity
  8
0
 48
50.0
100
AcDbBlockEnd
  0
BLOCK
  5
1CE9E
330
1CE1A
100
AcDbEntity
  8
0
 48
50.0
100
AcDbBlockBegin
  2
*D44
 70
     1
 10
0.0
 20
0.0
 30
0.0
  3
*D44
  1

  0
LINE
  5
1CE9F
330
1CE1A
100
AcDbEntity
  8
0
  6
ByBlock
 62
     0
 48
50.0
100
AcDbLine
 10
7327.829581418175
 20
9363.736797361928
 30
0.0
 11
8596.033355093792
 21
9363.736797361928
 31
0.0
  0
LINE
  5
1CEA0
330
1CE1A
100
AcDbEntity
  8
0
  6
ByBlock
 62
     0
 48
50.0
100
AcDbLine
 10
7327.829581418175
 20
10148.73679736192
 30
0.0
 11
8596.033355093792
 21
10148.73679736192
 31
0.0
  0
LINE
  5
1CEA1
330
1CE1A
100
AcDbEntity
  8
0
  6
ByBlock
 62
     0
 48
50.0
100
AcDbLine
 10
8521.033355093791
 20
9363.736797361928
 30
0.0
 11
8521.033355093791
 21
10148.73679736192
 31
0.0
  0
INSERT
  5
1CEA2
330
1CE1A
100
AcDbEntity
  8
0
  6
ByBlock
 62
     0
 48
50.0
100
AcDbBlockReference
  2
_DOTSMALL
 10
8521.033355093791
 20
9363.736797361928
 30
0.0
 41
125.0
 42
125.0
 43
125.0
 50
270.0
  0
INSERT
  5
1CEA3
330
1CE1A
100
AcDbEntity
  8
0
  6
ByBlock
 62
     0
 48
50.0
100
AcDbBlockReference
  2
_DOTSMALL
 10
8521.033355093791
 20
10148.73679736192
 30
0.0
 41
125.0
 42
125.0
 43
125.0
 50
90.0
  0
MTEXT
  5
1CEA4
330
1CE1A
100
AcDbEntity
  8
0
  6
ByBlock
 62
     7
 48
50.0
100
AcDbMText
 10
8421.033355093792
 20
9756.236797361928
 30
0.0
 40
150.0
 41
0.0
 71
     5
 72
     1
  1
\A1;785
  7
STYLE1
 11
0.0000000000000001
 21
1.0
 31
0.0
 73
     1
 44
1.0
  0
POINT
  5
1CEA5
330
1CE1A
100
AcDbEntity
  8
DEFPOINTS
  6
ByBlock
 62
     0
 48
50.0
100
AcDbPoint
 10
7302.829581418174
 20
9363.736797361928
 30
0.0
  0
POINT
  5
1CEA6
330
1CE1A
100
AcDbEntity
  8
DEFPOINTS
  6
ByBlock
 62
     0
 48
50.0
100
AcDbPoint
 10
7302.829581418174
 20
10148.73679736192
 30
0.0
  0
POINT
  5
1CEA7
330
1CE1A
100
AcDbEntity
  8
DEFPOINTS
  6
ByBlock
 62
     0
 48
50.0
100
AcDbPoint
 10
8521.033355093791
 20
10148.73679736192
 30
0.0
  0
ENDBLK
  5
1CEA8
330
1CE1A
100
AcDbEntity
  8
0
 48
50.0
100
AcDbBlockEnd
  0
BLOCK
  5
1CEA9
330
1CE26
100
AcDbEntity
  8
0
 48
50.0
100
AcDbBlockBegin
  2
*D45
 70
     1
 10
0.0
 20
0.0
 30
0.0
  3
*D45
  1

  0
LINE
  5
1CEAA
330
1CE26
100
AcDbEntity
  8
0
  6
ByBlock
 62
     0
 48
50.0
100
AcDbLine
 10
7437.829581418175
 20
11658.73679736192
 30
0.0
 11
7437.829581418175
 21
12402.01792807845
 31
0.0
  0
LINE
  5
1CEAB
330
1CE26
100
AcDbEntity
  8
0
  6
ByBlock
 62
     0
 48
50.0
100
AcDbLine
 10
7302.829581418174
 20
11656.29728927304
 30
0.0
 11
7302.829581418174
 21
12402.01792807845
 31
0.0
  0
LINE
  5
1CEAC
330
1CE26
100
AcDbEntity
  8
0
  6
ByBlock
 62
     0
 48
50.0
100
AcDbLine
 10
7302.829581418174
 20
12327.01792807845
 30
0.0
 11
7437.829581418175
 21
12327.01792807845
 31
0.0
  0
LINE
  5
1CEAD
330
1CE26
100
AcDbEntity
  8
0
  6
ByBlock
 62
     0
 48
50.0
100
AcDbLine
 10
7437.829581418175
 20
12327.01792807845
 30
0.0
 11
7868.495238254088
 21
12327.01792807845
 31
0.0
  0
INSERT
  5
1CEAE
330
1CE26
100
AcDbEntity
  8
0
  6
ByBlock
 62
     0
 48
50.0
100
AcDbBlockReference
  2
_DOTSMALL
 10
7302.829581418174
 20
12327.01792807845
 30
0.0
 41
125.0
 42
125.0
 43
125.0
 50
180.0
  0
INSERT
  5
1CEAF
330
1CE26
100
AcDbEntity
  8
0
  6
ByBlock
 62
     0
 48
50.0
100
AcDbBlockReference
  2
_DOTSMALL
 10
7437.829581418175
 20
12327.01792807845
 30
0.0
 41
125.0
 42
125.0
 43
125.0
  0
MTEXT
  5
1CEB0
330
1CE26
100
AcDbEntity
  8
0
  6
ByBlock
 62
     7
 48
50.0
100
AcDbMText
 10
7720.388636536291
 20
12427.01792807845
 30
0.0
 40
150.0
 41
0.0
 71
     5
 72
     1
  1
\A1;135
  7
STYLE1
 73
     1
 44
1.0
  0
POINT
  5
1CEB1
330
1CE26
100
AcDbEntity
  8
DEFPOINTS
  6
ByBlock
 62
     0
 48
50.0
100
AcDbPoint
 10
7437.829581418175
 20
11633.73679736192
 30
0.0
  0
POINT
  5
1CEB2
330
1CE26
100
AcDbEntity
  8
DEFPOINTS
  6
ByBlock
 62
     0
 48
50.0
100
AcDbPoint
 10
7302.829581418174
 20
11631.29728927304
 30
0.0
  0
POINT
  5
1CEB3
330
1CE26
100
AcDbEntity
  8
DEFPOINTS
  6
ByBlock
 62
     0
 48
50.0
100
AcDbPoint
 10
7302.829581418174
 20
12327.01792807845
 30
0.0
  0
ENDBLK
  5
1CEB4
330
1CE26
100
AcDbEntity
  8
0
 48
50.0
100
AcDbBlockEnd
  0
BLOCK
  5
1CEB5
330
1CE33
100
AcDbEntity
  8
0
 48
50.0
100
AcDbBlockBegin
  2
*D46
 70
     1
 10
0.0
 20
0.0
 30
0.0
  3
*D46
  1

  0
LINE
  5
1CEB6
330
1CE33
100
AcDbEntity
  8
0
  6
ByBlock
 62
     0
 48
50.0
100
AcDbLine
 10
8546.033355093799
 20
9418.736797361928
 30
0.0
 11
8928.235356238895
 21
9418.736797361928
 31
0.0
  0
LINE
  5
1CEB7
330
1CE33
100
AcDbEntity
  8
0
  6
ByBlock
 62
     0
 48
50.0
100
AcDbLine
 10
7327.829581418175
 20
9363.736797361928
 30
0.0
 11
8928.235356238895
 21
9363.736797361928
 31
0.0
  0
LINE
  5
1CEB8
330
1CE33
100
AcDbEntity
  8
0
  6
ByBlock
 62
     0
 48
50.0
100
AcDbLine
 10
8853.235356238895
 20
9418.736797361928
 30
0.0
 11
8853.235356238895
 21
9363.736797361928
 31
0.0
  0
LINE
  5
1CEB9
330
1CE33
100
AcDbEntity
  8
0
  6
ByBlock
 62
     0
 48
50.0
100
AcDbLine
 10
8853.235356238895
 20
9363.736797361928
 30
0.0
 11
8853.235356238895
 21
8998.065646709887
 31
0.0
  0
INSERT
  5
1CEBA
330
1CE33
100
AcDbEntity
  8
0
  6
ByBlock
 62
     0
 48
50.0
100
AcDbBlockReference
  2
_DOTSMALL
 10
8853.235356238895
 20
9418.736797361928
 30
0.0
 41
125.0
 42
125.0
 43
125.0
 50
90.0
  0
INSERT
  5
1CEBB
330
1CE33
100
AcDbEntity
  8
0
  6
ByBlock
 62
     0
 48
50.0
100
AcDbBlockReference
  2
_DOTSMALL
 10
8853.235356238895
 20
9363.736797361928
 30
0.0
 41
125.0
 42
125.0
 43
125.0
 50
270.0
  0
MTEXT
  5
1CEBC
330
1CE33
100
AcDbEntity
  8
0
  6
ByBlock
 62
     7
 48
50.0
100
AcDbMText
 10
8753.235356238894
 20
9108.672248427685
 30
0.0
 40
150.0
 41
0.0
 71
     5
 72
     1
  1
\A1;55
  7
STYLE1
 11
0.0000000000000001
 21
1.0
 31
0.0
 73
     1
 44
1.0
  0
POINT
  5
1CEBD
330
1CE33
100
AcDbEntity
  8
DEFPOINTS
  6
ByBlock
 62
     0
 48
50.0
100
AcDbPoint
 10
8521.033355093798
 20
9418.736797361928
 30
0.0
  0
POINT
  5
1CEBE
330
1CE33
100
AcDbEntity
  8
DEFPOINTS
  6
ByBlock
 62
     0
 48
50.0
100
AcDbPoint
 10
7302.829581418174
 20
9363.736797361928
 30
0.0
  0
POINT
  5
1CEBF
330
1CE33
100
AcDbEntity
  8
DEFPOINTS
  6
ByBlock
 62
     0
 48
50.0
100
AcDbPoint
 10
8853.235356238895
 20
9363.736797361928
 30
0.0
  0
ENDBLK
  5
1CEC0
330
1CE33
100
AcDbEntity
  8
0
 48
50.0
100
AcDbBlockEnd
  0
BLOCK
  5
1CEC1
330
1CE40
100
AcDbEntity
  8
0
 48
50.0
100
AcDbBlockBegin
  2
*D47
 70
     1
 10
0.0
 20
0.0
 30
0.0
  3
*D47
  1

  0
LINE
  5
1CEC2
330
1CE40
100
AcDbEntity
  8
0
  6
ByBlock
 62
     0
 48
50.0
100
AcDbLine
 10
7462.829581418183
 20
11633.73679736192
 30
0.0
 11
9262.490021403353
 21
11633.73679736192
 31
0.0
  0
LINE
  5
1CEC3
330
1CE40
100
AcDbEntity
  8
0
  6
ByBlock
 62
     0
 48
50.0
100
AcDbLine
 10
7327.829581418175
 20
9363.736797361928
 30
0.0
 11
9262.490021403353
 21
9363.736797361928
 31
0.0
  0
LINE
  5
1CEC4
330
1CE40
100
AcDbEntity
  8
0
  6
ByBlock
 62
     0
 48
50.0
100
AcDbLine
 10
9187.490021403354
 20
11633.73679736192
 30
0.0
 11
9187.490021403354
 21
9363.736797361928
 31
0.0
  0
INSERT
  5
1CEC5
330
1CE40
100
AcDbEntity
  8
0
  6
ByBlock
 62
     0
 48
50.0
100
AcDbBlockReference
  2
_DOTSMALL
 10
9187.490021403354
 20
11633.73679736192
 30
0.0
 41
125.0
 42
125.0
 43
125.0
 50
90.0
  0
INSERT
  5
1CEC6
330
1CE40
100
AcDbEntity
  8
0
  6
ByBlock
 62
     0
 48
50.0
100
AcDbBlockReference
  2
_DOTSMALL
 10
9187.490021403354
 20
9363.736797361928
 30
0.0
 41
125.0
 42
125.0
 43
125.0
 50
270.0
  0
MTEXT
  5
1CEC7
330
1CE40
100
AcDbEntity
  8
0
  6
ByBlock
 62
     7
 48
50.0
100
AcDbMText
 10
9087.475257623827
 20
10498.73679736192
 30
0.0
 40
150.0
 41
0.0
 71
     5
 72
     1
  1
\A1;2270
  7
STYLE1
 11
0.0000000000000001
 21
1.0
 31
0.0
 73
     1
 44
1.0
  0
POINT
  5
1CEC8
330
1CE40
100
AcDbEntity
  8
DEFPOINTS
  6
ByBlock
 62
     0
 48
50.0
100
AcDbPoint
 10
7437.829581418182
 20
11633.73679736192
 30
0.0
  0
POINT
  5
1CEC9
330
1CE40
100
AcDbEntity
  8
DEFPOINTS
  6
ByBlock
 62
     0
 48
50.0
100
AcDbPoint
 10
7302.829581418174
 20
9363.736797361928
 30
0.0
  0
POINT
  5
1CECA
330
1CE40
100
AcDbEntity
  8
DEFPOINTS
  6
ByBlock
 62
     0
 48
50.0
100
AcDbPoint
 10
9187.490021403354
 20
9363.736797361928
 30
0.0
  0
ENDBLK
  5
1CECB
330
1CE40
100
AcDbEntity
  8
0
 48
50.0
100
AcDbBlockEnd
  0
BLOCK
  5
1CECC
330
1CE4C
100
AcDbEntity
  8
0
 48
50.0
100
AcDbBlockBegin
  2
*D48
 70
     1
 10
0.0
 20
0.0
 30
0.0
  3
*D48
  1

  0
LINE
  5
1CECD
330
1CE4C
100
AcDbEntity
  8
0
  6
ByBlock
 62
     0
 48
50.0
100
AcDbLine
 10
7327.829581418175
 20
11363.73679736192
 30
0.0
 11
8928.235356238895
 21
11363.73679736192
 31
0.0
  0
LINE
  5
1CECE
330
1CE4C
100
AcDbEntity
  8
0
  6
ByBlock
 62
     0
 48
50.0
100
AcDbLine
 10
8546.033355093799
 20
9418.736797361928
 30
0.0
 11
8928.235356238895
 21
9418.736797361928
 31
0.0
  0
LINE
  5
1CECF
330
1CE4C
100
AcDbEntity
  8
0
  6
ByBlock
 62
     0
 48
50.0
100
AcDbLine
 10
8853.235356238895
 20
11363.73679736192
 30
0.0
 11
8853.235356238895
 21
9418.736797361928
 31
0.0
  0
INSERT
  5
1CED0
330
1CE4C
100
AcDbEntity
  8
0
  6
ByBlock
 62
     0
 48
50.0
100
AcDbBlockReference
  2
_DOTSMALL
 10
8853.235356238895
 20
11363.73679736192
 30
0.0
 41
125.0
 42
125.0
 43
125.0
 50
90.0
  0
INSERT
  5
1CED1
330
1CE4C
100
AcDbEntity
  8
0
  6
ByBlock
 62
     0
 48
50.0
100
AcDbBlockReference
  2
_DOTSMALL
 10
8853.235356238895
 20
9418.736797361928
 30
0.0
 41
125.0
 42
125.0
 43
125.0
 50
270.0
  0
MTEXT
  5
1CED2
330
1CE4C
100
AcDbEntity
  8
0
  6
ByBlock
 62
     7
 48
50.0
100
AcDbMText
 10
8753.235356238894
 20
10391.23679736192
 30
0.0
 40
150.0
 41
0.0
 71
     5
 72
     1
  1
\A1;1945
  7
STYLE1
 11
0.0000000000000001
 21
1.0
 31
0.0
 73
     1
 44
1.0
  0
POINT
  5
1CED3
330
1CE4C
100
AcDbEntity
  8
DEFPOINTS
  6
ByBlock
 62
     0
 48
50.0
100
AcDbPoint
 10
7302.829581418174
 20
11363.73679736192
 30
0.0
  0
POINT
  5
1CED4
330
1CE4C
100
AcDbEntity
  8
DEFPOINTS
  6
ByBlock
 62
     0
 48
50.0
100
AcDbPoint
 10
8521.033355093798
 20
9418.736797361928
 30
0.0
  0
POINT
  5
1CED5
330
1CE4C
100
AcDbEntity
  8
DEFPOINTS
  6
ByBlock
 62
     0
 48
50.0
100
AcDbPoint
 10
8853.235356238895
 20
9418.736797361928
 30
0.0
  0
ENDBLK
  5
1CED6
330
1CE4C
100
AcDbEntity
  8
0
 48
50.0
100
AcDbBlockEnd
  0
BLOCK
  5
1CED7
330
1CE58
100
AcDbEntity
  8
0
 48
50.0
100
AcDbBlockBegin
  2
*D49
 70
     1
 10
0.0
 20
0.0
 30
0.0
  3
*D49
  1

  0
LINE
  5
1CFD3
330
1CE58
100
AcDbEntity
  8
寸法
 62
     0
 48
50.0
100
AcDbLine
 10
6002.829581418175
 20
11601.36318119755
 30
0.0
 11
6002.829581418175
 21
12402.01792807844
 31
0.0
  0
LINE
  5
1CFD4
330
1CE58
100
AcDbEntity
  8
寸法
 62
     0
 48
50.0
100
AcDbLine
 10
7302.829581418174
 20
12327.01792807844
 30
0.0
 11
6002.829581418175
 21
12327.01792807844
 31
0.0
  0
INSERT
  5
1CFD5
330
1CE58
100
AcDbEntity
  8
寸法
 62
     0
 48
50.0
100
AcDbBlockReference
  2
_DOTSMALL
 10
7302.829581418174
 20
12327.01792807844
 30
0.0
 41
125.0
 42
125.0
 43
125.0
  0
INSERT
  5
1CFD6
330
1CE58
100
AcDbEntity
  8
寸法
 62
     0
 48
50.0
100
AcDbBlockReference
  2
_DOTSMALL
 10
6002.829581418175
 20
12327.01792807844
 30
0.0
 41
125.0
 42
125.0
 43
125.0
 50
180.0
  0
MTEXT
  5
1CFD7
330
1CE58
100
AcDbEntity
  8
寸法
 62
     7
 48
50.0
100
AcDbMText
 10
6652.829581418174
 20
12427.01792807844
 30
0.0
 40
150.0
 41
0.0
 71
     5
 72
     1
  1
\A1;柱外寸法 1300
  7
STYLE1
 73
     1
 44
1.0
  0
POINT
  5
1CFD8
330
1CE58
100
AcDbEntity
  8
DEFPOINTS
 62
     0
 48
50.0
100
AcDbPoint
 10
7302.829581418174
 20
11588.73679736192
 30
0.0
  0
POINT
  5
1CFD9
330
1CE58
100
AcDbEntity
  8
DEFPOINTS
 62
     0
 48
50.0
100
AcDbPoint
 10
6002.829581418175
 20
11576.36318119755
 30
0.0
  0
POINT
  5
1CFDA
330
1CE58
100
AcDbEntity
  8
DEFPOINTS
 62
     0
 48
50.0
100
AcDbPoint
 10
6002.829581418175
 20
12327.01792807844
 30
0.0
  0
ENDBLK
  5
1CEE0
330
1CE58
100
AcDbEntity
  8
0
 48
50.0
100
AcDbBlockEnd
  0
BLOCK
  5
1CEE1
330
1CE63
100
AcDbEntity
  8
0
 48
50.0
100
AcDbBlockBegin
  2
*D50
 70
     1
 10
0.0
 20
0.0
 30
0.0
  3
*D50
  1

  0
LINE
  5
1CEE2
330
1CE63
100
AcDbEntity
  8
0
  6
ByBlock
 62
     0
 48
50.0
100
AcDbLine
 10
7437.829581418175
 20
11658.73679736192
 30
0.0
 11
7437.829581418175
 21
12718.1736988701
 31
0.0
  0
LINE
  5
1CEE3
330
1CE63
100
AcDbEntity
  8
0
  6
ByBlock
 62
     0
 48
50.0
100
AcDbLine
 10
5907.829581418175
 20
11598.73679736192
 30
0.0
 11
5907.829581418175
 21
12718.1736988701
 31
0.0
  0
LINE
  5
1CEE4
330
1CE63
100
AcDbEntity
  8
0
  6
ByBlock
 62
     0
 48
50.0
100
AcDbLine
 10
7437.829581418175
 20
12643.1736988701
 30
0.0
 11
5907.829581418175
 21
12643.1736988701
 31
0.0
  0
INSERT
  5
1CEE5
330
1CE63
100
AcDbEntity
  8
0
  6
ByBlock
 62
     0
 48
50.0
100
AcDbBlockReference
  2
_DOTSMALL
 10
7437.829581418175
 20
12643.1736988701
 30
0.0
 41
125.0
 42
125.0
 43
125.0
  0
INSERT
  5
1CEE6
330
1CE63
100
AcDbEntity
  8
0
  6
ByBlock
 62
     0
 48
50.0
100
AcDbBlockReference
  2
_DOTSMALL
 10
5907.829581418175
 20
12643.1736988701
 30
0.0
 41
125.0
 42
125.0
 43
125.0
 50
180.0
  0
MTEXT
  5
1CEE7
330
1CE63
100
AcDbEntity
  8
0
  6
ByBlock
 62
     7
 48
50.0
100
AcDbMText
 10
6672.829581418175
 20
12743.1736988701
 30
0.0
 40
150.0
 41
0.0
 71
     5
 72
     1
  1
\A1;1530
  7
STYLE1
 73
     1
 44
1.0
  0
POINT
  5
1CEE8
330
1CE63
100
AcDbEntity
  8
DEFPOINTS
  6
ByBlock
 62
     0
 48
50.0
100
AcDbPoint
 10
7437.829581418175
 20
11633.73679736192
 30
0.0
  0
POINT
  5
1CEE9
330
1CE63
100
AcDbEntity
  8
DEFPOINTS
  6
ByBlock
 62
     0
 48
50.0
100
AcDbPoint
 10
5907.829581418175
 20
11573.73679736192
 30
0.0
  0
POINT
  5
1CEEA
330
1CE63
100
AcDbEntity
  8
DEFPOINTS
  6
ByBlock
 62
     0
 48
50.0
100
AcDbPoint
 10
5907.829581418175
 20
12643.1736988701
 30
0.0
  0
ENDBLK
  5
1CEEB
330
1CE63
100
AcDbEntity
  8
0
 48
50.0
100
AcDbBlockEnd
  0
BLOCK
  5
1CEEC
330
1CE6F
100
AcDbEntity
  8
0
 48
50.0
100
AcDbBlockBegin
  2
*D51
 70
     1
 10
0.0
 20
0.0
 30
0.0
  3
*D51
  1

  0
LINE
  5
1CEED
330
1CE6F
100
AcDbEntity
  8
0
  6
ByBlock
 62
     0
 48
50.0
100
AcDbLine
 10
6002.829581418175
 20
11601.36318119755
 30
0.0
 11
6002.829581418175
 21
12402.01792807844
 31
0.0
  0
LINE
  5
1CEEE
330
1CE6F
100
AcDbEntity
  8
0
  6
ByBlock
 62
     0
 48
50.0
100
AcDbLine
 10
5907.829581418175
 20
11598.73679736192
 30
0.0
 11
5907.829581418175
 21
12402.01792807844
 31
0.0
  0
LINE
  5
1CEEF
330
1CE6F
100
AcDbEntity
  8
0
  6
ByBlock
 62
     0
 48
50.0
100
AcDbLine
 10
6002.829581418175
 20
12327.01792807844
 30
0.0
 11
5907.829581418175
 21
12327.01792807844
 31
0.0
  0
LINE
  5
1CEF0
330
1CE6F
100
AcDbEntity
  8
0
  6
ByBlock
 62
     0
 48
50.0
100
AcDbLine
 10
5907.829581418175
 20
12327.01792807844
 30
0.0
 11
5461.55732286447
 21
12327.01792807844
 31
0.0
  0
INSERT
  5
1CEF1
330
1CE6F
100
AcDbEntity
  8
0
  6
ByBlock
 62
     0
 48
50.0
100
AcDbBlockReference
  2
_DOTSMALL
 10
6002.829581418175
 20
12327.01792807844
 30
0.0
 41
125.0
 42
125.0
 43
125.0
  0
INSERT
  5
1CEF2
330
1CE6F
100
AcDbEntity
  8
0
  6
ByBlock
 62
     0
 48
50.0
100
AcDbBlockReference
  2
_DOTSMALL
 10
5907.829581418175
 20
12327.01792807844
 30
0.0
 41
125.0
 42
125.0
 43
125.0
 50
180.0
  0
MTEXT
  5
1CEF3
330
1CE6F
100
AcDbEntity
  8
0
  6
ByBlock
 62
     7
 48
50.0
100
AcDbMText
 10
5575.270526300066
 20
12427.01792807844
 30
0.0
 40
150.0
 41
0.0
 71
     5
 72
     1
  1
\A1;95
  7
STYLE1
 73
     1
 44
1.0
  0
POINT
  5
1CEF4
330
1CE6F
100
AcDbEntity
  8
DEFPOINTS
  6
ByBlock
 62
     0
 48
50.0
100
AcDbPoint
 10
6002.829581418175
 20
11576.36318119755
 30
0.0
  0
POINT
  5
1CEF5
330
1CE6F
100
AcDbEntity
  8
DEFPOINTS
  6
ByBlock
 62
     0
 48
50.0
100
AcDbPoint
 10
5907.829581418175
 20
11573.73679736192
 30
0.0
  0
POINT
  5
1CEF6
330
1CE6F
100
AcDbEntity
  8
DEFPOINTS
  6
ByBlock
 62
     0
 48
50.0
100
AcDbPoint
 10
5907.829581418175
 20
12327.01792807844
 30
0.0
  0
ENDBLK
  5
1CEF7
330
1CE6F
100
AcDbEntity
  8
0
 48
50.0
100
AcDbBlockEnd
  0
BLOCK
  5
1CEF8
330
1CE7C
100
AcDbEntity
  8
0
 48
50.0
100
AcDbBlockBegin
  2
*D52
 70
     1
 10
0.0
 20
0.0
 30
0.0
  3
*D52
  1

  0
LINE
  5
1CEF9
330
1CE7C
100
AcDbEntity
  8
0
  6
ByBlock
 62
     0
 48
50.0
100
AcDbLine
 10
5977.829581418174
 20
9363.736797361928
 30
0.0
 11
4303.587517088183
 21
9363.736797361928
 31
0.0
  0
LINE
  5
1CEFA
330
1CE7C
100
AcDbEntity
  8
0
  6
ByBlock
 62
     0
 48
50.0
100
AcDbLine
 10
5882.829581418175
 20
11573.73679736192
 30
0.0
 11
4303.587517088183
 21
11573.73679736192
 31
0.0
  0
LINE
  5
1CEFB
330
1CE7C
100
AcDbEntity
  8
0
  6
ByBlock
 62
     0
 48
50.0
100
AcDbLine
 10
4378.587517088183
 20
9363.736797361928
 30
0.0
 11
4378.587517088183
 21
11573.73679736192
 31
0.0
  0
INSERT
  5
1CEFC
330
1CE7C
100
AcDbEntity
  8
0
  6
ByBlock
 62
     0
 48
50.0
100
AcDbBlockReference
  2
_DOTSMALL
 10
4378.587517088183
 20
9363.736797361928
 30
0.0
 41
125.0
 42
125.0
 43
125.0
 50
270.0
  0
INSERT
  5
1CEFD
330
1CE7C
100
AcDbEntity
  8
0
  6
ByBlock
 62
     0
 48
50.0
100
AcDbBlockReference
  2
_DOTSMALL
 10
4378.587517088183
 20
11573.73679736192
 30
0.0
 41
125.0
 42
125.0
 43
125.0
 50
90.0
  0
MTEXT
  5
1CEFE
330
1CE7C
100
AcDbEntity
  8
0
  6
ByBlock
 62
     7
 48
50.0
100
AcDbMText
 10
4278.572753308655
 20
10468.73679736192
 30
0.0
 40
150.0
 41
0.0
 71
     5
 72
     1
  1
\A1;2210
  7
STYLE1
 11
0.0000000000000001
 21
1.0
 31
0.0
 73
     1
 44
1.0
  0
POINT
  5
1CEFF
330
1CE7C
100
AcDbEntity
  8
DEFPOINTS
  6
ByBlock
 62
     0
 48
50.0
100
AcDbPoint
 10
6002.829581418175
 20
9363.736797361928
 30
0.0
  0
POINT
  5
1CF00
330
1CE7C
100
AcDbEntity
  8
DEFPOINTS
  6
ByBlock
 62
     0
 48
50.0
100
AcDbPoint
 10
5907.829581418175
 20
11573.73679736192
 30
0.0
  0
POINT
  5
1CF01
330
1CE7C
100
AcDbEntity
  8
DEFPOINTS
  6
ByBlock
 62
     0
 48
50.0
100
AcDbPoint
 10
4378.587517088183
 20
11573.73679736192
 30
0.0
  0
ENDBLK
  5
1CF02
330
1CE7C
100
AcDbEntity
  8
0
 48
50.0
100
AcDbBlockEnd
  0
BLOCK
  5
1CF03
330
1CE88
100
AcDbEntity
  8
0
 48
50.0
100
AcDbBlockBegin
  2
*D53
 70
     1
 10
0.0
 20
0.0
 30
0.0
  3
*D53
  1

  0
LINE
  5
1CF04
330
1CE88
100
AcDbEntity
  8
0
  6
ByBlock
 62
     0
 48
50.0
100
AcDbLine
 10
6013.329581418175
 20
9430.736797361928
 30
0.0
 11
4616.549246176574
 21
9430.736797361928
 31
0.0
  0
LINE
  5
1CF05
330
1CE88
100
AcDbEntity
  8
0
  6
ByBlock
 62
     0
 48
50.0
100
AcDbLine
 10
5977.829581418174
 20
11390.73679736192
 30
0.0
 11
4616.549246176574
 21
11390.73679736192
 31
0.0
  0
LINE
  5
1CF06
330
1CE88
100
AcDbEntity
  8
0
  6
ByBlock
 62
     0
 48
50.0
100
AcDbLine
 10
4691.549246176573
 20
9430.736797361928
 30
0.0
 11
4691.549246176573
 21
11390.73679736192
 31
0.0
  0
INSERT
  5
1CF07
330
1CE88
100
AcDbEntity
  8
0
  6
ByBlock
 62
     0
 48
50.0
100
AcDbBlockReference
  2
_DOTSMALL
 10
4691.549246176573
 20
9430.736797361928
 30
0.0
 41
125.0
 42
125.0
 43
125.0
 50
270.0
  0
INSERT
  5
1CF08
330
1CE88
100
AcDbEntity
  8
0
  6
ByBlock
 62
     0
 48
50.0
100
AcDbBlockReference
  2
_DOTSMALL
 10
4691.549246176573
 20
11390.73679736192
 30
0.0
 41
125.0
 42
125.0
 43
125.0
 50
90.0
  0
MTEXT
  5
1CF09
330
1CE88
100
AcDbEntity
  8
0
  6
ByBlock
 62
     7
 48
50.0
100
AcDbMText
 10
4591.549246176573
 20
10410.73679736192
 30
0.0
 40
150.0
 41
0.0
 71
     5
 72
     1
  1
\A1;内高 1960
  7
STYLE1
 11
0.0000000000000001
 21
1.0
 31
0.0
 73
     1
 44
1.0
  0
POINT
  5
1CF0A
330
1CE88
100
AcDbEntity
  8
DEFPOINTS
  6
ByBlock
 62
     0
 48
50.0
100
AcDbPoint
 10
6038.329581418174
 20
9430.736797361928
 30
0.0
  0
POINT
  5
1CF0B
330
1CE88
100
AcDbEntity
  8
DEFPOINTS
  6
ByBlock
 62
     0
 48
50.0
100
AcDbPoint
 10
6002.829581418175
 20
11390.73679736192
 30
0.0
  0
POINT
  5
1CF0C
330
1CE88
100
AcDbEntity
  8
DEFPOINTS
  6
ByBlock
 62
     0
 48
50.0
100
AcDbPoint
 10
4691.549246176573
 20
11390.73679736192
 30
0.0
  0
ENDBLK
  5
1CF0D
330
1CE88
100
AcDbEntity
  8
0
 48
50.0
100
AcDbBlockEnd
  0
ENDSEC
  0
SECTION
  2
ENTITIES
  0
LINE
  5
10B56
330
747D
100
AcDbEntity
  8
補助
  6
PHANTOM
 62
   230
 48
50.0
100
AcDbLine
 10
175.0
 20
0.0
 30
0.0
 11
174.9999999999993
 21
14262.0
 31
0.0
  0
LINE
  5
10B57
330
747D
100
AcDbEntity
  8
補助
  6
PHANTOM
 62
   230
 48
50.0
100
AcDbLine
 10
174.9999999999993
 20
14262.0
 30
0.0
 11
20384.0
 21
14262.0
 31
0.0
  0
LINE
  5
10B59
330
747D
100
AcDbEntity
  8
仕様書枠
  6
Continuous
 48
50.0
100
AcDbLine
 10
16384.0
 20
1500.0
 30
0.0
 11
16384.0
 21
0.0
 31
0.0
  0
LINE
  5
10B5C
330
747D
100
AcDbEntity
  8
仕様書枠
 48
50.0
100
AcDbLine
 10
20384.0
 20
1500.0
 30
0.0
 11
20384.0
 21
0.0
 31
0.0
  0
LINE
  5
10B5D
330
747D
100
AcDbEntity
  8
仕様書枠
 48
50.0
100
AcDbLine
 10
175.0
 20
0.0
 30
0.0
 11
20384.0
 21
-0.0000000000001137
 31
0.0
  0
LINE
  5
10B5E
330
747D
100
AcDbEntity
  8
補助
  6
PHANTOM
 62
   230
 48
50.0
100
AcDbLine
 10
20384.0
 20
14262.0
 30
0.0
 11
20384.0
 21
1500.0
 31
0.0
  0
LINE
  5
10B6C
330
747D
100
AcDbEntity
  8
仕様書枠
 48
50.0
100
AcDbLine
 10
16384.0
 20
1500.0
 30
0.0
 11
20384.0
 21
1500.0
 31
0.0
  0
LINE
  5
10B6D
330
747D
100
AcDbEntity
  8
補助
  6
PHANTOM
 62
   230
 48
50.0
100
AcDbLine
 10
16384.0
 20
14262.0
 30
0.0
 11
16384.0
 21
6000.0
 31
0.0
  0
LINE
  5
10B6F
330
747D
100
AcDbEntity
  8
補助
  6
PHANTOM
 62
   230
 48
50.0
100
AcDbLine
 10
16384.0
 20
6000.0
 30
0.0
 11
20384.0
 21
6000.0
 31
0.0
  0
LINE
  5
10B72
330
747D
100
AcDbEntity
  8
文字
 62
     7
 48
50.0
100
AcDbLine
 10
16484.0
 20
500.0
 30
0.0
 11
20284.0
 21
500.0
 31
0.0
  0
TEXT
  5
10B73
330
747D
100
AcDbEntity
  8
文字
 62
     7
 48
50.0
100
AcDbText
 10
16453.72382072112
 20
1118.863259287425
 30
0.0
 40
250.0
  1
外 形 図
  7
STYLE2
100
AcDbText
  0
TEXT
  5
10B74
330
747D
100
AcDbEntity
  8
文字
 62
     7
 48
50.0
100
AcDbText
 10
16501.79587498051
 20
596.5925826289068
 30
0.0
 40
200.0
  1
機種名
  7
STYLE2
100
AcDbText
  0
LINE
  5
10B7B
330
747D
100
AcDbEntity
  8
仕様書枠
 48
50.0
100
AcDbLine
 10
16384.0
 20
1000.0
 30
0.0
 11
17814.0
 21
1000.0
 31
0.0
  0
LINE
  5
10B88
330
747D
100
AcDbEntity
  8
仕様書枠
  6
Continuous
 48
50.0
100
AcDbLine
 10
17814.0
 20
1500.0
 30
0.0
 11
17814.0
 21
1000.0
 31
0.0
  0
LINE
  5
15D7D
330
747D
100
AcDbEntity
  8
Ｇ．Ｌ
 48
50.0
100
AcDbLine
 10
4524.693732604355
 20
3140.0
 30
0.0
 11
15814.30626739564
 21
3140.0
 31
0.0
  0
TEXT
  5
16C68
330
747D
100
AcDbEntity
  8
仕様書枠
 62
     7
 48
50.0
100
AcDbText
 10
4533.500522708389
 20
3170.736447636176
 30
0.0
 40
125.0
  1
▽G.L
  7
STYLE2
100
AcDbText
  0
TEXT
  5
16C77
330
747D
100
AcDbEntity
  8
部品1
100
AcDbText
 10
12813.72928948241
 20
7397.037437527437
 30
0.0
 40
225.0
  1
平面図
  7
STYLE2
100
AcDbText
  0
TEXT
  5
16C79
330
747D
100
AcDbEntity
  8
部品1
100
AcDbText
 10
12822.91311053928
 20
2210.513531745833
 30
0.0
 40
225.0
  1
正面図
  7
STYLE2
100
AcDbText
  0
LINE
  5
17269
330
747D
100
AcDbEntity
  8
部品1
100
AcDbLine
 10
12666.6040262278
 20
7709.831477053234
 30
0.0
 11
12666.6040262278
 21
7310.010941144013
 31
0.0
  0
LINE
  5
1726A
330
747D
100
AcDbEntity
  8
部品1
100
AcDbLine
 10
12666.6040262278
 20
7310.010941144013
 30
0.0
 11
13939.05513660853
 21
7310.010941144013
 31
0.0
  0
LINE
  5
1726B
330
747D
100
AcDbEntity
  8
部品1
100
AcDbLine
 10
13939.05513660853
 20
7310.010941144013
 30
0.0
 11
13939.05513660853
 21
7709.831477053234
 31
0.0
  0
LINE
  5
1726C
330
747D
100
AcDbEntity
  8
部品1
100
AcDbLine
 10
13939.05513660853
 20
7709.831477053234
 30
0.0
 11
12666.6040262278
 21
7709.831477053234
 31
0.0
  0
LINE
  5
1726E
330
747D
100
AcDbEntity
  8
部品1
100
AcDbLine
 10
12666.6040262278
 20
2526.882077830512
 30
0.0
 11
12666.6040262278
 21
2127.061541921292
 31
0.0
  0
LINE
  5
1726F
330
747D
100
AcDbEntity
  8
部品1
100
AcDbLine
 10
12666.6040262278
 20
2127.061541921292
 30
0.0
 11
13939.05513660853
 21
2127.061541921292
 31
0.0
  0
LINE
  5
17270
330
747D
100
AcDbEntity
  8
部品1
100
AcDbLine
 10
13939.05513660853
 20
2127.061541921292
 30
0.0
 11
13939.05513660853
 21
2526.882077830512
 31
0.0
  0
LINE
  5
17271
330
747D
100
AcDbEntity
  8
部品1
100
AcDbLine
 10
13939.05513660853
 20
2526.882077830512
 30
0.0
 11
12666.6040262278
 21
2526.882077830512
 31
0.0
  0
LINE
  5
1837B
330
747D
100
AcDbEntity
  8
部品1
 48
50.0
100
AcDbLine
 10
12072.82958141816
 20
10518.73679736192
 30
0.0
 11
12072.82958141816
 21
10458.73679736192
 31
0.0
  0
LINE
  5
1837C
330
747D
100
AcDbEntity
  8
部品1
 48
50.0
100
AcDbLine
 10
12082.82958141817
 20
9228.736797361928
 30
0.0
 11
12142.82958141817
 21
9228.736797361909
 31
0.0
  0
LINE
  5
1837D
330
747D
100
AcDbEntity
  8
部品1
 48
50.0
100
AcDbLine
 10
14532.82958141817
 20
9238.736797361928
 30
0.0
 11
14532.82958141817
 21
10518.73679736192
 31
0.0
  0
LINE
  5
1837E
330
747D
100
AcDbEntity
  8
部品1
 48
50.0
100
AcDbLine
 10
14522.82958141817
 20
10528.73679736193
 30
0.0
 11
12082.82958141817
 21
10528.73679736193
 31
0.0
  0
ARC
  5
1837F
330
747D
100
AcDbEntity
  8
部品1
 48
50.0
100
AcDbCircle
 10
14522.82958141817
 20
10518.73679736192
 30
0.0
 40
10.0
100
AcDbArc
 50
0.0
 51
90.0
  0
ARC
  5
18380
330
747D
100
AcDbEntity
  8
部品1
 48
50.0
100
AcDbCircle
 10
14522.82958141817
 20
9238.736797361928
 30
0.0
 40
10.0
100
AcDbArc
 50
270.0
 51
0.0
  0
ARC
  5
18381
330
747D
100
AcDbEntity
  8
部品1
 48
50.0
100
AcDbCircle
 10
12082.82958141817
 20
9238.736797361928
 30
0.0
 40
10.0
100
AcDbArc
 50
180.0
 51
270.0
  0
ARC
  5
18382
330
747D
100
AcDbEntity
  8
部品1
 48
50.0
100
AcDbCircle
 10
12082.82958141817
 20
10518.73679736192
 30
0.0
 40
10.0
100
AcDbArc
 50
90.0
 51
180.0
  0
LINE
  5
18383
330
747D
100
AcDbEntity
  8
部品1
 48
50.0
100
AcDbLine
 10
14482.82958141817
 20
10478.73679736192
 30
0.0
 11
12122.82958141817
 21
10478.73679736193
 31
0.0
  0
LINE
  5
18384
330
747D
100
AcDbEntity
  8
部品1
 48
50.0
100
AcDbLine
 10
12122.82958141817
 20
10478.73679736192
 30
0.0
 11
12122.82958141817
 21
10440.73679736192
 31
0.0
  0
LINE
  5
18385
330
747D
100
AcDbEntity
  8
部品1
 48
50.0
100
AcDbLine
 10
12122.82958141816
 20
9278.736797361927
 30
0.0
 11
12160.82958141816
 21
9278.736797361927
 31
0.0
  0
LINE
  5
18386
330
747D
100
AcDbEntity
  8
部品1
 48
50.0
100
AcDbLine
 10
14482.82958141817
 20
9278.736797361927
 30
0.0
 11
14482.82958141817
 21
10478.73679736193
 31
0.0
  0
LINE
  5
18387
330
747D
100
AcDbEntity
  8
部品1
 48
50.0
100
AcDbLine
 10
14497.82958141817
 20
10493.73679736192
 30
0.0
 11
12107.82958141817
 21
10493.73679736192
 31
0.0
  0
LINE
  5
18388
330
747D
100
AcDbEntity
  8
部品1
 48
50.0
100
AcDbLine
 10
12107.82958141817
 20
9263.736797361927
 30
0.0
 11
12160.82958141816
 21
9263.736797361927
 31
0.0
  0
LINE
  5
18389
330
747D
100
AcDbEntity
  8
部品1
 48
50.0
100
AcDbLine
 10
12107.82958141817
 20
10493.73679736192
 30
0.0
 11
12107.82958141817
 21
10440.73679736192
 31
0.0
  0
LINE
  5
1838A
330
747D
100
AcDbEntity
  8
部品1
 48
50.0
100
AcDbLine
 10
14497.82958141817
 20
9263.736797361927
 30
0.0
 11
14497.82958141817
 21
10493.73679736193
 31
0.0
  0
LINE
  5
1838B
330
747D
100
AcDbEntity
  8
部品1
 48
50.0
100
AcDbLine
 10
14462.82958141817
 20
10493.73679736192
 30
0.0
 11
14462.82958141817
 21
10528.73679736193
 31
0.0
  0
LINE
  5
1838C
330
747D
100
AcDbEntity
  8
部品1
 48
50.0
100
AcDbLine
 10
14532.82958141817
 20
10458.73679736193
 30
0.0
 11
14497.82958141817
 21
10458.73679736192
 31
0.0
  0
LINE
  5
1838D
330
747D
100
AcDbEntity
  8
部品1
 48
50.0
100
AcDbLine
 10
14444.82958141817
 20
10493.73679736192
 30
0.0
 11
14444.82958141817
 21
10478.73679736192
 31
0.0
  0
LINE
  5
1838E
330
747D
100
AcDbEntity
  8
部品1
 48
50.0
100
AcDbLine
 10
14480.82958141817
 20
10493.73679736192
 30
0.0
 11
14480.82958141817
 21
10478.73679736192
 31
0.0
  0
LINE
  5
1838F
330
747D
100
AcDbEntity
  8
部品1
 48
50.0
100
AcDbLine
 10
14497.82958141817
 20
10440.73679736192
 30
0.0
 11
14482.82958141817
 21
10440.73679736192
 31
0.0
  0
LINE
  5
18390
330
747D
100
AcDbEntity
  8
部品1
 48
50.0
100
AcDbLine
 10
14497.82958141817
 20
10476.73679736192
 30
0.0
 11
14482.82958141817
 21
10476.73679736192
 31
0.0
  0
LINE
  5
18397
330
747D
100
AcDbEntity
  8
部品1
 48
50.0
100
AcDbLine
 10
14532.82958141817
 20
9878.736797361931
 30
0.0
 11
14497.82958141817
 21
9878.736797361931
 31
0.0
  0
LINE
  5
18398
330
747D
100
AcDbEntity
  8
部品1
 48
50.0
100
AcDbLine
 10
14497.82958141817
 20
9860.736797361926
 30
0.0
 11
14482.82958141817
 21
9860.736797361926
 31
0.0
  0
LINE
  5
18399
330
747D
100
AcDbEntity
  8
部品1
 48
50.0
100
AcDbLine
 10
14497.82958141817
 20
9896.736797361926
 30
0.0
 11
14482.82958141817
 21
9896.736797361926
 31
0.0
  0
LINE
  5
1839D
330
747D
100
AcDbEntity
  8
部品1
 48
50.0
100
AcDbLine
 10
14497.82958141817
 20
9316.736797361926
 30
0.0
 11
14482.82958141817
 21
9316.736797361926
 31
0.0
  0
LINE
  5
1839E
330
747D
100
AcDbEntity
  8
部品1
 48
50.0
100
AcDbLine
 10
14497.82958141817
 20
9280.736797361926
 30
0.0
 11
14482.82958141817
 21
9280.736797361926
 31
0.0
  0
LINE
  5
1839F
330
747D
100
AcDbEntity
  8
部品1
 48
50.0
100
AcDbLine
 10
14532.82958141817
 20
9298.736797361931
 30
0.0
 11
14497.82958141817
 21
9298.736797361931
 31
0.0
  0
LINE
  5
183AF
330
747D
100
AcDbEntity
  8
部品1
 48
50.0
100
AcDbLine
 10
13900.82958141816
 20
10493.73679736222
 30
0.0
 11
13900.82958141816
 21
10478.73679736222
 31
0.0
  0
LINE
  5
183B0
330
747D
100
AcDbEntity
  8
部品1
 48
50.0
100
AcDbLine
 10
13882.82958141816
 20
10493.73679736222
 30
0.0
 11
13882.82958141817
 21
10528.73679736223
 31
0.0
  0
LINE
  5
183B1
330
747D
100
AcDbEntity
  8
部品1
 48
50.0
100
AcDbLine
 10
13864.82958141816
 20
10493.73679736222
 30
0.0
 11
13864.82958141816
 21
10478.73679736222
 31
0.0
  0
LINE
  5
183B2
330
747D
100
AcDbEntity
  8
部品1
 48
50.0
100
AcDbLine
 10
13320.82958141816
 20
10493.73679736229
 30
0.0
 11
13320.82958141816
 21
10478.73679736229
 31
0.0
  0
LINE
  5
183B3
330
747D
100
AcDbEntity
  8
部品1
 48
50.0
100
AcDbLine
 10
13302.82958141816
 20
10493.73679736229
 30
0.0
 11
13302.82958141817
 21
10528.73679736229
 31
0.0
  0
LINE
  5
183B4
330
747D
100
AcDbEntity
  8
部品1
 48
50.0
100
AcDbLine
 10
13284.82958141816
 20
10493.73679736229
 30
0.0
 11
13284.82958141816
 21
10478.73679736229
 31
0.0
  0
LINE
  5
183B5
330
747D
100
AcDbEntity
  8
部品1
 48
50.0
100
AcDbLine
 10
12160.82958141816
 20
10493.73679736192
 30
0.0
 11
12160.82958141816
 21
10478.73679736192
 31
0.0
  0
LINE
  5
183B6
330
747D
100
AcDbEntity
  8
部品1
 48
50.0
100
AcDbLine
 10
12142.82958141816
 20
10493.73679736192
 30
0.0
 11
12142.82958141817
 21
10528.73679736193
 31
0.0
  0
LINE
  5
183B7
330
747D
100
AcDbEntity
  8
部品1
 48
50.0
100
AcDbLine
 10
12124.82958141816
 20
10493.73679736192
 30
0.0
 11
12124.82958141816
 21
10478.73679736192
 31
0.0
  0
LINE
  5
183D1
330
747D
100
AcDbEntity
  8
部品1
 48
50.0
100
AcDbLine
 10
12107.82958141817
 20
9686.736797361925
 30
0.0
 11
12122.82958141817
 21
9686.736797361925
 31
0.0
  0
LINE
  5
183D2
330
747D
100
AcDbEntity
  8
部品1
 48
50.0
100
AcDbLine
 10
12107.82958141817
 20
9650.736797361926
 30
0.0
 11
12122.82958141817
 21
9650.736797361926
 31
0.0
  0
LINE
  5
183D3
330
747D
100
AcDbEntity
  8
部品1
 48
50.0
100
AcDbLine
 10
12072.82958141817
 20
9668.736797361932
 30
0.0
 11
12107.82958141817
 21
9668.73679736193
 31
0.0
  0
LINE
  5
183DD
330
747D
100
AcDbEntity
  8
部品1
 48
50.0
100
AcDbLine
 10
12107.82958141817
 20
10476.73679736192
 30
0.0
 11
12122.82958141817
 21
10476.73679736192
 31
0.0
  0
LINE
  5
183DE
330
747D
100
AcDbEntity
  8
部品1
 48
50.0
100
AcDbLine
 10
12107.82958141817
 20
10440.73679736192
 30
0.0
 11
12122.82958141817
 21
10440.73679736192
 31
0.0
  0
LINE
  5
183DF
330
747D
100
AcDbEntity
  8
部品1
 48
50.0
100
AcDbLine
 10
12072.82958141816
 20
10458.73679736193
 30
0.0
 11
12107.82958141817
 21
10458.73679736192
 31
0.0
  0
LINE
  5
183E0
330
747D
100
AcDbEntity
  8
部品1
 48
50.0
100
AcDbLine
 10
12072.82958141817
 20
9298.736797361931
 30
0.0
 11
12107.82958141817
 21
9298.736797361931
 31
0.0
  0
LINE
  5
183E1
330
747D
100
AcDbEntity
  8
部品1
 48
50.0
100
AcDbLine
 10
12107.82958141817
 20
9280.736797361926
 30
0.0
 11
12122.82958141817
 21
9280.736797361926
 31
0.0
  0
LINE
  5
183E2
330
747D
100
AcDbEntity
  8
部品1
 48
50.0
100
AcDbLine
 10
12107.82958141817
 20
9316.736797361926
 30
0.0
 11
12122.82958141817
 21
9316.736797361926
 31
0.0
  0
LINE
  5
183E3
330
747D
100
AcDbEntity
  8
部品1
 48
50.0
100
AcDbLine
 10
12124.82958141816
 20
9263.736797361932
 30
0.0
 11
12124.82958141816
 21
9278.736797361931
 31
0.0
  0
LINE
  5
183E4
330
747D
100
AcDbEntity
  8
部品1
 48
50.0
100
AcDbLine
 10
12160.82958141816
 20
9263.736797361932
 30
0.0
 11
12160.82958141816
 21
9278.736797361931
 31
0.0
  0
LINE
  5
183E5
330
747D
100
AcDbEntity
  8
部品1
 48
50.0
100
AcDbLine
 10
12142.82958141816
 20
9263.736797361932
 30
0.0
 11
12142.82958141817
 21
9228.73679736193
 31
0.0
  0
LINE
  5
183FE
330
747D
100
AcDbEntity
  8
部品1
 48
50.0
100
AcDbLine
 10
14462.82958141817
 20
9263.736797361929
 30
0.0
 11
14462.82958141817
 21
9228.736797361928
 31
0.0
  0
LINE
  5
183FF
330
747D
100
AcDbEntity
  8
部品1
 48
50.0
100
AcDbLine
 10
14444.82958141817
 20
9263.736797361929
 30
0.0
 11
14444.82958141817
 21
9278.736797361929
 31
0.0
  0
LINE
  5
18400
330
747D
100
AcDbEntity
  8
部品1
 48
50.0
100
AcDbLine
 10
14480.82958141817
 20
9263.736797361929
 30
0.0
 11
14480.82958141817
 21
9278.736797361929
 31
0.0
  0
LINE
  5
18401
330
747D
100
AcDbEntity
  8
細線
 48
50.0
100
AcDbLine
 10
14473.82958141817
 20
10469.73679736192
 30
0.0
 11
14473.82958141817
 21
9278.736797361931
 31
0.0
  0
LINE
  5
18402
330
747D
100
AcDbEntity
  8
細線
 48
50.0
100
AcDbLine
 10
14482.82958141817
 20
10469.73679736193
 30
0.0
 11
12131.82958141817
 21
10469.73679736193
 31
0.0
  0
LINE
  5
18403
330
747D
100
AcDbEntity
  8
細線
 48
50.0
100
AcDbLine
 10
12122.82958141816
 20
9287.736797361928
 30
0.0
 11
12142.82958141817
 21
9287.736797361928
 31
0.0
  0
LINE
  5
18404
330
747D
100
AcDbEntity
  8
細線
 48
50.0
100
AcDbLine
 10
12131.82958141816
 20
9650.736797361926
 30
0.0
 11
12131.82958141816
 21
9287.736797361928
 31
0.0
  0
DIMENSION
  5
1852A
330
747D
100
AcDbEntity
  8
寸法
 48
50.0
100
AcDbDimension
  2
*D5
 10
15646.96933771975
 20
10478.73679736193
 30
0.0
 11
15546.95457394022
 21
9878.736797361931
 31
0.0
 12
6359.999999999998
 22
-0.0000000000436557
 32
0.0
 70
    32
  1
内部寸法 <>
 71
     5
 42
-1.0
  3
INABA_S50G
100
AcDbAlignedDimension
 13
15344.16533380114
 23
9278.736797361931
 33
0.0
 14
15344.16533380114
 24
10478.73679736193
 34
0.0
 50
90.0
100
AcDbRotatedDimension
1001
ACAD
1000
DSTYLE
1002
{
1002
}
  0
DIMENSION
  5
1852B
330
747D
100
AcDbEntity
  8
寸法
 48
50.0
100
AcDbDimension
  2
*D2
 10
15344.16533380114
 20
10458.73679736193
 30
0.0
 11
15244.15057002161
 21
9878.736797361931
 31
0.0
 12
6359.999999999998
 22
-0.0000000000436557
 32
0.0
 70
    32
  1
2x580=<>
 71
     5
 42
-1.0
  3
INABA_S50G
100
AcDbAlignedDimension
 13
14532.82958141817
 23
9298.736797361931
 33
0.0
 14
14532.82958141817
 24
10458.73679736193
 34
0.0
 50
90.0
100
AcDbRotatedDimension
1001
ACAD
1000
DSTYLE
1002
{
1002
}
  0
DIMENSION
  5
1852C
330
747D
100
AcDbEntity
  8
寸法
 48
50.0
100
AcDbDimension
  2
*D4
 10
15646.96933771975
 20
9278.736797361931
 30
0.0
 11
15646.96933771975
 21
8991.689553267439
 31
0.0
 12
6069.999999999998
 22
-0.0000000000436557
 32
0.0
 70
   160
 71
     5
 42
-1.0
  3
INABA_S50G
100
AcDbAlignedDimension
 13
14522.82958141817
 23
9228.736797361928
 33
0.0
 14
15344.16533380114
 24
9278.736797361931
 34
0.0
 50
90.0
100
AcDbRotatedDimension
  0
DIMENSION
  5
1852D
330
747D
100
AcDbEntity
  8
寸法
 48
50.0
100
AcDbDimension
  2
*D1
 10
15344.16533380114
 20
9298.736797361931
 30
0.0
 11
15344.16533380114
 21
8996.177742243817
 31
0.0
 12
-2174.632845073174
 22
-373.9447183321972
 32
0.0
 70
   160
 71
     5
 42
-1.0
  3
INABA_S50G
100
AcDbAlignedDimension
 13
14522.82958141817
 23
9228.736797361928
 33
0.0
 14
14532.82958141817
 24
9298.736797361931
 34
0.0
 50
90.0
100
AcDbRotatedDimension
  0
DIMENSION
  5
1852E
330
747D
100
AcDbEntity
  8
寸法
 48
50.0
100
AcDbDimension
  2
*D6
 10
15646.96933771975
 20
10528.73679736193
 30
0.0
 11
15646.96933771975
 21
10886.29585248004
 31
0.0
 12
6069.999999999998
 22
-1740.000000000043
 32
0.0
 70
   160
 71
     5
 42
-1.0
  3
INABA_S50G
100
AcDbAlignedDimension
 13
15344.16533380114
 23
10478.73679736193
 33
0.0
 14
14522.82958141817
 24
10528.73679736193
 34
0.0
 50
90.0
100
AcDbRotatedDimension
1001
ACAD
1000
DSTYLE
1002
{
1002
}
  0
DIMENSION
  5
1852F
330
747D
100
AcDbEntity
  8
寸法
 48
50.0
100
AcDbDimension
  2
*D3
 10
15344.16533380114
 20
10528.73679736193
 30
0.0
 11
15344.16533380114
 21
10761.29585248003
 31
0.0
 12
-2174.632845073174
 22
-2113.944718332197
 32
0.0
 70
   160
 71
     5
 42
-1.0
  3
INABA_S50G
100
AcDbAlignedDimension
 13
14532.82958141817
 23
10458.73679736193
 33
0.0
 14
14522.82958141817
 24
10528.73679736193
 34
0.0
 50
90.0
100
AcDbRotatedDimension
1001
ACAD
1000
DSTYLE
1002
{
1002
}
  0
DIMENSION
  5
185AD
330
747D
100
AcDbEntity
  8
寸法
 48
50.0
100
AcDbDimension
  2
*D10
 10
12122.82958141816
 20
11237.51516613334
 30
0.0
 11
11715.27052630005
 21
11237.51516613334
 31
0.0
 12
285.3671549268256
 22
-2113.944718332197
 32
0.0
 70
   160
 71
     5
 42
-1.0
  3
INABA_S50G
100
AcDbAlignedDimension
 13
12072.82958141816
 23
10518.73679736192
 33
0.0
 14
12122.82958141816
 24
10938.76878223257
 34
0.0
100
AcDbRotatedDimension
  0
DIMENSION
  5
185AE
330
747D
100
AcDbEntity
  8
寸法
 48
50.0
100
AcDbDimension
  2
*D7
 10
12142.82958141817
 20
10938.76878223257
 30
0.0
 11
11830.27052630005
 21
10938.76878223257
 31
0.0
 12
285.3671549268256
 22
-2113.944718332197
 32
0.0
 70
   160
 71
     5
 42
-1.0
  3
INABA_S50G
100
AcDbAlignedDimension
 13
12072.82958141816
 23
10518.73679736192
 33
0.0
 14
12142.82958141817
 24
10528.73679736193
 34
0.0
100
AcDbRotatedDimension
  0
DIMENSION
  5
185AF
330
747D
100
AcDbEntity
  8
寸法
 48
50.0
100
AcDbDimension
  2
*D11
 10
14482.82958141817
 20
11237.51516613334
 30
0.0
 11
13302.82958141817
 21
11337.52992991286
 31
0.0
 70
    32
  1
内部寸法 <>
 71
     5
 42
-1.0
  3
INABA_S50G
100
AcDbAlignedDimension
 13
12122.82958141816
 23
10938.76878223257
 33
0.0
 14
14482.82958141817
 24
10938.76878223258
 34
0.0
100
AcDbRotatedDimension
1001
ACAD
1000
DSTYLE
1002
{
1070
   287
1070
     4
1070
    75
1070
     1
1070
   279
1070
     1
1002
}
  0
DIMENSION
  5
185B1
330
747D
100
AcDbEntity
  8
寸法
 48
50.0
100
AcDbDimension
  2
*D8
 10
14462.82958141817
 20
10938.76878223257
 30
0.0
 11
13302.82958141817
 21
11038.7835460121
 31
0.0
 70
    32
  1
4x580=<>
 71
     5
 42
-1.0
  3
INABA_S50G
100
AcDbAlignedDimension
 13
12142.82958141817
 23
10528.73679736193
 33
0.0
 14
14462.82958141817
 24
10528.73679736193
 34
0.0
100
AcDbRotatedDimension
1001
ACAD
1000
DSTYLE
1002
{
1070
   287
1070
     4
1070
    75
1070
     1
1070
   279
1070
     1
1002
}
  0
DIMENSION
  5
185B3
330
747D
100
AcDbEntity
  8
寸法
 48
50.0
100
AcDbDimension
  2
*D12
 10
14532.82958141817
 20
11237.51516613334
 30
0.0
 11
14890.38863653628
 21
11237.51516613334
 31
0.0
 12
-2174.632845073174
 22
-2113.944718332197
 32
0.0
 70
   160
 71
     5
 42
-1.0
  3
INABA_S50G
100
AcDbAlignedDimension
 13
14482.82958141817
 23
10938.76878223258
 33
0.0
 14
14532.82958141817
 24
10518.73679736192
 34
0.0
100
AcDbRotatedDimension
1001
ACAD
1000
DSTYLE
1002
{
1002
}
  0
DIMENSION
  5
185B4
330
747D
100
AcDbEntity
  8
寸法
 48
50.0
100
AcDbDimension
  2
*D9
 10
14532.82958141817
 20
10938.76878223257
 30
0.0
 11
14795.38863653628
 21
10938.76878223257
 31
0.0
 12
-2174.632845073174
 22
-2113.944718332197
 32
0.0
 70
   160
 71
     5
 42
-1.0
  3
INABA_S50G
100
AcDbAlignedDimension
 13
14462.82958141817
 23
10528.73679736193
 33
0.0
 14
14532.82958141817
 24
10518.73679736192
 34
0.0
100
AcDbRotatedDimension
1001
ACAD
1000
DSTYLE
1002
{
1002
}
  0
DIMENSION
  5
1868C
330
747D
100
AcDbEntity
  8
寸法
 48
50.0
100
AcDbDimension
  2
*D13
 10
14532.82958141817
 20
8436.498920305798
 30
0.0
 11
13302.82958141817
 21
8536.513684085326
 31
0.0
 12
290.0
 22
0.0
 32
0.0
 70
    32
 71
     5
 42
-1.0
  3
INABA_S50G
100
AcDbAlignedDimension
 13
12072.82958141816
 23
9238.736797361928
 33
0.0
 14
14532.82958141817
 24
9238.736797361928
 34
0.0
100
AcDbRotatedDimension
  0
DIMENSION
  5
186AF
330
747D
100
AcDbEntity
  8
寸法
 48
50.0
100
AcDbDimension
  2
*D14
 10
11306.1986016385
 20
9228.736797361928
 30
0.0
 11
11786.1986016385
 21
9878.736797361931
 31
0.0
 12
5779.999999999998
 22
-0.0000000000436557
 32
0.0
 70
    32
 71
     5
 42
-1.0
  3
INABA_S50G
100
AcDbAlignedDimension
 13
12082.82958141817
 23
10528.73679736193
 33
0.0
 14
12082.82958141817
 24
9228.736797361928
 34
0.0
 50
90.0
100
AcDbRotatedDimension
  0
LINE
  5
186ED
330
747D
100
AcDbEntity
  8
部品1
 48
50.0
100
AcDbLine
 10
14462.82958141816
 20
9228.736797361928
 30
0.0
 11
14522.82958141817
 21
9228.73679736193
 31
0.0
  0
LINE
  5
186EE
330
747D
100
AcDbEntity
  8
部品1
 48
50.0
100
AcDbLine
 10
14444.82958141816
 20
9263.736797361927
 30
0.0
 11
14497.82958141817
 21
9263.736797361929
 31
0.0
  0
LINE
  5
186EF
330
747D
100
AcDbEntity
  8
部品1
 48
50.0
100
AcDbLine
 10
14444.82958141816
 20
9278.736797361927
 30
0.0
 11
14482.82958141817
 21
9278.736797361927
 31
0.0
  0
LINE
  5
186FE
330
747D
100
AcDbEntity
  8
細線
 48
50.0
100
AcDbLine
 10
14462.82958141817
 20
9287.736797361928
 30
0.0
 11
14473.82958141817
 21
9287.736797361928
 31
0.0
  0
TEXT
  5
1A95B
330
747D
100
AcDbEntity
  8
文字
 62
     7
 48
50.0
100
AcDbText
 10
17902.30092041603
 20
604.8708912389265
 30
0.0
 40
200.0
  1
ＳＭＫ－３２ＳＧＭ
  7
STYLE2
100
AcDbText
  0
TEXT
  5
1A95C
330
747D
100
AcDbEntity
  8
文字
 62
     7
 48
50.0
100
AcDbText
 10
18386.04187925632
 20
1047.815908841148
 30
0.0
 40
125.0
  1
～一般型･多雪地型～
  7
STYLE2
100
AcDbText
  0
TEXT
  5
1A95D
330
747D
100
AcDbEntity
  8
文字
 62
     7
 48
50.0
100
AcDbText
 10
18155.16479652749
 20
1289.447132864035
 30
0.0
 40
125.0
  1
NO.20     <縮尺> S=1/50
  7
STYLE2
100
AcDbText
  0
TEXT
  5
1A95E
330
747D
100
AcDbEntity
  8
文字
 62
     7
 48
50.0
100
AcDbText
 10
16511.7566802715
 20
270.5931259273529
 30
0.0
 40
100.0
  1
○ドア部有効開口寸法：677×1760 (mm)
  7
STYLE2
100
AcDbText
  0
TEXT
  5
1A95F
330
747D
100
AcDbEntity
  8
文字
 62
     7
 48
50.0
100
AcDbText
 10
16511.7566802715
 20
99.75789836616968
 30
0.0
 40
100.0
  1
○床面積：3.20㎡(0.97坪)
  7
STYLE2
100
AcDbText
  0
DIMENSION
  5
1BF3D
330
747D
100
AcDbEntity
  8
寸法
 48
50.0
100
AcDbDimension
  2
*D18
 10
6144.329581418174
 20
2653.952670699582
 30
0.0
 11
6431.293164095341
 21
2653.952670699582
 31
0.0
 12
6069.999999999998
 22
-0.0000000000436557
 32
0.0
 70
   160
 71
     5
 42
-1.0
  3
INABA_S50G
100
AcDbAlignedDimension
 13
5944.329581418173
 23
2939.999999999958
 33
0.0
 14
6144.329581418174
 24
2939.999999999958
 34
0.0
100
AcDbRotatedDimension
  0
DIMENSION
  5
1BF3E
330
747D
100
AcDbEntity
  8
寸法
 48
50.0
100
AcDbDimension
  2
*D17
 10
5545.994446424295
 20
3139.999999999956
 30
0.0
 11
5545.994446424295
 21
2653.036417322792
 31
0.0
 12
6069.999999999998
 22
-0.0000000000436557
 32
0.0
 70
   160
 71
     5
 42
-1.0
  3
INABA_S50G
100
AcDbAlignedDimension
 13
5944.329581418174
 23
2939.999999999958
 33
0.0
 14
5944.329581418173
 24
3139.999999999956
 34
0.0
 50
270.0
100
AcDbRotatedDimension
  0
LINE
  5
1BF3F
330
747D
100
AcDbEntity
  8
部品1
100
AcDbLine
 10
6016.604026227807
 20
2526.882077830556
 30
0.0
 11
7289.05513660854
 21
2526.882077830556
 31
0.0
  0
LINE
  5
1BF40
330
747D
100
AcDbEntity
  8
部品1
100
AcDbLine
 10
7289.05513660854
 20
2127.061541921335
 30
0.0
 11
6016.604026227807
 21
2127.061541921335
 31
0.0
  0
LINE
  5
1BF42
330
747D
100
AcDbEntity
  8
部品1
100
AcDbLine
 10
7289.05513660854
 20
2526.882077830556
 30
0.0
 11
7289.05513660854
 21
2127.061541921335
 31
0.0
  0
LINE
  5
1BF43
330
747D
100
AcDbEntity
  8
部品1
100
AcDbLine
 10
6016.604026227807
 20
2127.061541921335
 30
0.0
 11
6016.604026227807
 21
2526.882077830556
 31
0.0
  0
LINE
  5
1BF44
330
747D
100
AcDbEntity
  8
部品1
 48
50.0
100
AcDbLine
 10
7232.829581418172
 20
3329.999999999956
 30
0.0
 11
6862.829581418171
 21
3329.999999999956
 31
0.0
  0
LINE
  5
1BF45
330
747D
100
AcDbEntity
  8
部品1
 48
50.0
100
AcDbLine
 10
7302.829581418173
 20
5274.999999999956
 30
0.0
 11
6002.829581418171
 21
5274.999999999956
 31
0.0
  0
DIMENSION
  5
1BF46
330
747D
100
AcDbEntity
  8
寸法
 48
50.0
100
AcDbDimension
  2
*D20
 10
6002.829581418173
 20
6238.281130716478
 30
0.0
 11
6652.829581418174
 21
6338.281130716477
 31
0.0
 70
    32
  1
柱外寸法 <>
 71
     5
 42
-1.0
  3
INABA_S50G
100
AcDbAlignedDimension
 13
7302.829581418174
 23
5541.484603453039
 33
0.0
 14
6002.829581418173
 24
5488.337018226797
 34
0.0
100
AcDbRotatedDimension
1001
ACAD
1000
DSTYLE
1002
{
1070
   287
1070
     4
1070
    75
1070
     1
1070
   279
1070
     1
1002
}
  0
DIMENSION
  5
1BF47
330
747D
100
AcDbEntity
  8
寸法
 48
50.0
100
AcDbDimension
  2
*D19
 10
5907.829581418173
 20
6506.068854554502
 30
0.0
 11
6672.829581418174
 21
6606.068854554502
 31
0.0
 12
6069.999999999998
 22
-0.0000000000436557
 32
0.0
 70
    32
 71
     5
 42
-1.0
  3
INABA_S50G
100
AcDbAlignedDimension
 13
7437.829581418172
 23
5544.999999999956
 33
0.0
 14
5907.829581418173
 24
5484.999999999956
 34
0.0
100
AcDbRotatedDimension
  0
LINE
  5
1BF48
330
747D
100
AcDbEntity
  8
部品1
 48
50.0
100
AcDbLine
 10
7408.313373122108
 20
5544.466629415576
 30
0.0
 11
5933.15655022303
 21
5486.367362182427
 31
0.0
  0
LINE
  5
1BF49
330
747D
100
AcDbEntity
  8
細線
 48
50.0
100
AcDbLine
 10
5925.921491990759
 20
5476.025833613825
 30
0.0
 11
7419.638533824347
 21
5526.92932686078
 31
0.0
  0
LINE
  5
1BF4A
330
747D
100
AcDbEntity
  8
部品1
 48
50.0
100
AcDbLine
 10
5935.540699733717
 20
5360.921243435176
 30
0.0
 11
7416.818698356839
 21
5412.160340619724
 31
0.0
  0
LINE
  5
1BF4B
330
747D
100
AcDbEntity
  8
細線
 48
50.0
100
AcDbLine
 10
5917.269963592652
 20
5380.746404000543
 30
0.0
 11
7434.195393715981
 21
5432.315572311679
 31
0.0
  0
LINE
  5
1BF4C
330
747D
100
AcDbEntity
  8
部品1
 48
50.0
100
AcDbLine
 10
7240.329581418174
 20
3274.999999999956
 30
0.0
 11
6065.329581418173
 21
3274.999999999956
 31
0.0
  0
LINE
  5
1BF4D
330
747D
100
AcDbEntity
  8
部品1
 48
50.0
100
AcDbLine
 10
7232.829581418172
 20
5274.999999999956
 30
0.0
 11
7232.829581418172
 21
3274.999999999956
 31
0.0
  0
DIMENSION
  5
1BF4E
330
747D
100
AcDbEntity
  8
寸法
 48
50.0
100
AcDbDimension
  2
*D22
 10
8336.995501716563
 20
3274.999999999956
 30
0.0
 11
8236.980737937036
 21
4409.999999999956
 31
0.0
 70
    32
 71
     5
 42
-1.0
  3
INABA_S50G
100
AcDbAlignedDimension
 13
7437.829581418175
 23
5544.999999999956
 33
0.0
 14
7302.829581418173
 24
3274.999999999956
 34
0.0
 50
270.0
100
AcDbRotatedDimension
  0
LINE
  5
1BF4F
330
747D
100
AcDbEntity
  8
部品1
 48
50.0
100
AcDbLine
 10
7302.829581418176
 20
5408.217326920587
 30
0.0
 11
7302.829581418173
 21
3139.999999999956
 31
0.0
  0
DIMENSION
  5
1BF51
330
747D
100
AcDbEntity
  8
寸法
 48
50.0
100
AcDbDimension
  2
*D21
 10
8028.949297310763
 20
5274.999999999956
 30
0.0
 11
7928.949297310762
 21
4302.499999999957
 31
0.0
 70
    32
 71
     5
 42
-1.0
  3
INABA_S50G
100
AcDbAlignedDimension
 13
7302.829581418173
 23
3329.999999999956
 33
0.0
 14
7302.829581418173
 24
5274.999999999956
 34
0.0
 50
270.0
100
AcDbRotatedDimension
1001
ACAD
1000
DSTYLE
1002
{
1070
   287
1070
     4
1070
    75
1070
     1
1070
   279
1070
     1
1002
}
  0
DIMENSION
  5
1BF53
330
747D
100
AcDbEntity
  8
寸法
 48
50.0
100
AcDbDimension
  2
*D23
 10
8028.949297310763
 20
3329.999999999956
 30
0.0
 11
8028.949297310763
 21
2964.420494177422
 31
0.0
 70
   160
 71
     5
 42
-1.0
  3
INABA_S50G
100
AcDbAlignedDimension
 13
7302.829581418173
 23
3274.999999999956
 33
0.0
 14
7302.829581418173
 24
3329.999999999956
 34
0.0
 50
270.0
100
AcDbRotatedDimension
  0
LINE
  5
1BF54
330
747D
100
AcDbEntity
  8
破線
 48
5.0
100
AcDbLine
 10
7161.329581418171
 20
2939.999999999958
 30
0.0
 11
7361.329581418172
 21
2939.999999999958
 31
0.0
  0
LINE
  5
1BF55
330
747D
100
AcDbEntity
  8
破線
 48
5.0
100
AcDbLine
 10
7361.329581418171
 20
3139.99999999996
 30
0.0
 11
7361.329581418171
 21
2939.999999999958
 31
0.0
  0
LINE
  5
1BF56
330
747D
100
AcDbEntity
  8
破線
 48
5.0
100
AcDbLine
 10
7240.329581418173
 20
3139.999999999956
 30
0.0
 11
7240.329581418172
 21
3029.999999999956
 31
0.0
  0
LINE
  5
1BF57
330
747D
100
AcDbEntity
  8
破線
 48
5.0
100
AcDbLine
 10
7282.329581418173
 20
3139.999999999956
 30
0.0
 11
7282.329581418172
 21
3029.999999999956
 31
0.0
  0
LINE
  5
1BF58
330
747D
100
AcDbEntity
  8
破線
 48
5.0
100
AcDbLine
 10
7282.329581418172
 20
3029.999999999956
 30
0.0
 11
7240.329581418172
 21
3029.999999999956
 31
0.0
  0
LINE
  5
1BF5B
330
747D
100
AcDbEntity
  8
部品1
 48
50.0
100
AcDbLine
 10
7277.329581418173
 20
3314.999999999958
 30
0.0
 11
7245.329581418174
 21
3314.999999999956
 31
0.0
  0
LINE
  5
1BF5C
330
747D
100
AcDbEntity
  8
部品1
 48
50.0
100
AcDbLine
 10
7302.829581418173
 20
3274.999999999956
 30
0.0
 11
7282.329581418174
 21
3274.999999999956
 31
0.0
  0
LINE
  5
1BF5D
330
747D
100
AcDbEntity
  8
部品1
 48
50.0
100
AcDbLine
 10
7282.329581418173
 20
3309.999999999958
 30
0.0
 11
7282.329581418173
 21
3139.999999999956
 31
0.0
  0
ARC
  5
1BF5E
330
747D
100
AcDbEntity
  8
部品1
 48
50.0
100
AcDbCircle
 10
7277.329581418173
 20
3309.999999999958
 30
0.0
 40
5.0
100
AcDbArc
 50
0.0000000000006177
 51
90.0
  0
LINE
  5
1BF5F
330
747D
100
AcDbEntity
  8
部品1
 48
50.0
100
AcDbLine
 10
7240.329581418174
 20
3309.999999999956
 30
0.0
 11
7240.329581418173
 21
3139.999999999956
 31
0.0
  0
ARC
  5
1BF60
330
747D
100
AcDbEntity
  8
部品1
 48
50.0
100
AcDbCircle
 10
7245.329581418174
 20
3309.999999999956
 30
0.0
 40
5.0
100
AcDbArc
 50
90.0
 51
180.0000000000006
  0
LINE
  5
1BF61
330
747D
100
AcDbEntity
  8
破線
 48
5.0
100
AcDbLine
 10
7161.329581418171
 20
3139.99999999996
 30
0.0
 11
7161.329581418171
 21
2939.999999999958
 31
0.0
  0
LINE
  5
1BF62
330
747D
100
AcDbEntity
  8
部品1
 48
50.0
100
AcDbLine
 10
7102.829581418172
 20
3274.999999999956
 30
0.0
 11
7102.829581418173
 21
3139.999999999956
 31
0.0
  0
DIMENSION
  5
1BF63
330
747D
100
AcDbEntity
  8
寸法
 48
50.0
100
AcDbDimension
  2
*D24
 10
7302.829581418174
 20
6238.281130716478
 30
0.0
 11
7710.936183135974
 21
6238.281130716478
 31
0.0
 12
6069.999999999998
 22
-0.0000000000436557
 32
0.0
 70
   160
 71
     5
 42
-1.0
  3
INABA_S50G
100
AcDbAlignedDimension
 13
7437.829581418175
 23
5544.999999999956
 33
0.0
 14
7302.829581418174
 24
5541.484603453039
 34
0.0
100
AcDbRotatedDimension
  0
ARC
  5
1BF66
330
747D
100
AcDbEntity
  8
部品1
100
AcDbCircle
 10
7422.329581418172
 20
5511.471940894509
 30
0.0
 40
15.5
100
AcDbArc
 50
358.1167995116895
 51
91.86125648319634
  0
LINE
  5
1BF67
330
747D
100
AcDbEntity
  8
細線
 48
50.0
100
AcDbLine
 10
7399.237958909627
 20
5544.109192899405
 30
0.0
 11
7403.54075849558
 21
5411.701041520167
 31
0.0
  0
LINE
  5
1BF68
330
747D
100
AcDbEntity
  8
部品1
100
AcDbLine
 10
7437.82120977988
 20
5510.96257785818
 30
0.0
 11
7435.273355277775
 21
5433.472826441281
 31
0.0
  0
LINE
  5
1BF69
330
747D
100
AcDbEntity
  8
部品1
100
AcDbLine
 10
7432.155581542443
 20
5429.940194712265
 30
0.0
 11
7432.063807929205
 21
5427.149017087991
 31
0.0
  0
ARC
  5
1BF6A
330
747D
100
AcDbEntity
  8
部品1
100
AcDbCircle
 10
7434.07400340461
 20
5433.512260998934
 30
0.0
 40
1.199999999999999
100
AcDbArc
 50
279.0222695094722
 51
358.1167995116895
  0
ARC
  5
1BF6B
330
747D
100
AcDbEntity
  8
部品1
100
AcDbCircle
 10
7434.654231278201
 20
5429.858039383823
 30
0.0
 40
2.5
100
AcDbArc
 50
99.02226950947451
 51
178.1167995116955
  0
ARC
  5
1BF6C
330
747D
100
AcDbEntity
  8
部品1
100
AcDbCircle
 10
7416.572179567499
 20
5427.65838012434
 30
0.0
 40
15.5
100
AcDbArc
 50
270.9112955958145
 51
358.1167995116315
  0
LINE
  5
1BF6D
330
747D
100
AcDbEntity
  8
部品1
100
AcDbLine
 10
7418.251028758496
 20
5527.804810746202
 30
0.0
 11
7411.559032768359
 21
5542.423971429518
 31
0.0
  0
ARC
  5
1BF6E
330
747D
100
AcDbEntity
  8
部品1
 48
50.0
100
AcDbCircle
 10
7408.376609304372
 20
5540.967200721453
 30
0.0
 40
3.5
100
AcDbArc
 50
24.59618196436618
 51
91.03524671598787
  0
LINE
  5
1BF6F
330
747D
100
AcDbEntity
  8
部品1
 48
50.0
100
AcDbLine
 10
7419.638533824347
 20
5526.92932686078
 30
0.0
 11
7421.826151637431
 21
5526.963763203581
 31
0.0
  0
ARC
  5
1BF70
330
747D
100
AcDbEntity
  8
部品1
100
AcDbCircle
 10
7419.614924528776
 20
5528.429141049659
 30
0.0
 40
1.5
100
AcDbArc
 50
204.5961819643761
 51
270.9018459011026
  0
LINE
  5
1BF71
330
747D
100
AcDbEntity
  8
部品1
 48
50.0
100
AcDbLine
 10
6862.829581418172
 20
5274.999999999956
 30
0.0
 11
6862.829581418172
 21
3274.999999999956
 31
0.0
  0
LINE
  5
1BF72
330
747D
100
AcDbEntity
  8
部品1
 48
50.0
100
AcDbLine
 10
6072.829581418175
 20
5274.999999999956
 30
0.0
 11
6072.829581418172
 21
3274.999999999956
 31
0.0
  0
DIMENSION
  5
1BF73
330
747D
100
AcDbEntity
  8
寸法
 48
50.0
100
AcDbDimension
  2
*D25
 10
5343.338827996755
 20
5484.999999999956
 30
0.0
 11
5243.324064217227
 21
4379.999999999956
 31
0.0
 12
6069.999999999998
 22
-0.0000000000436557
 32
0.0
 70
    32
 71
     5
 42
-1.0
  3
INABA_S50G
100
AcDbAlignedDimension
 13
6002.829581418173
 23
3274.999999999956
 33
0.0
 14
5907.829581418173
 24
5484.999999999956
 34
0.0
 50
270.0
100
AcDbRotatedDimension
  0
LINE
  5
1BF74
330
747D
100
AcDbEntity
  8
細線
 48
5.0
100
AcDbLine
 10
5926.829581418172
 20
5231.999999999956
 30
0.0
 11
5926.829581418179
 21
4307.499999999958
 31
0.0
  0
LINE
  5
1BF75
330
747D
100
AcDbEntity
  8
細線
 48
5.0
100
AcDbLine
 10
5939.829581418173
 20
5231.999999999956
 30
0.0
 11
5939.82958141818
 21
4307.499999999956
 31
0.0
  0
LINE
  5
1BF76
330
747D
100
AcDbEntity
  8
細線
 48
5.0
100
AcDbLine
 10
5976.829581418172
 20
5231.999999999956
 30
0.0
 11
5976.829581418178
 21
4307.499999999956
 31
0.0
  0
LINE
  5
1BF77
330
747D
100
AcDbEntity
  8
細線
 48
5.0
100
AcDbLine
 10
5963.829581418173
 20
5231.999999999956
 30
0.0
 11
5963.829581418178
 21
4307.499999999956
 31
0.0
  0
LINE
  5
1BF78
330
747D
100
AcDbEntity
  8
部品1
 48
50.0
100
AcDbLine
 10
6002.829581418175
 20
5363.248842678043
 30
0.0
 11
6002.829581418173
 21
3139.999999999956
 31
0.0
  0
LINE
  5
1BF79
330
747D
100
AcDbEntity
  8
細線
 48
5.0
100
AcDbLine
 10
5926.829581418179
 20
4287.499999999957
 30
0.0
 11
5926.829581418184
 21
3362.999999999956
 31
0.0
  0
LINE
  5
1BF7A
330
747D
100
AcDbEntity
  8
細線
 48
5.0
100
AcDbLine
 10
5939.82958141818
 20
4287.499999999957
 30
0.0
 11
5939.829581418186
 21
3362.999999999956
 31
0.0
  0
LINE
  5
1BF7B
330
747D
100
AcDbEntity
  8
細線
 48
5.0
100
AcDbLine
 10
5963.829581418178
 20
4287.499999999957
 30
0.0
 11
5963.829581418184
 21
3362.999999999956
 31
0.0
  0
LINE
  5
1BF7C
330
747D
100
AcDbEntity
  8
細線
 48
5.0
100
AcDbLine
 10
5976.829581418178
 20
4287.499999999957
 30
0.0
 11
5976.829581418184
 21
3362.999999999956
 31
0.0
  0
LINE
  5
1BF7D
330
747D
100
AcDbEntity
  8
細線
 48
5.0
100
AcDbLine
 10
6002.829581418176
 20
3362.999999999956
 30
0.0
 11
5925.629581418172
 21
3362.999999999956
 31
0.0
  0
LINE
  5
1BF7E
330
747D
100
AcDbEntity
  8
細線
 48
5.0
100
AcDbLine
 10
5956.570176668492
 20
3199.207328411583
 30
0.0
 11
5905.545651618273
 21
3190.210327967395
 31
0.0
  0
LINE
  5
1BF7F
330
747D
100
AcDbEntity
  8
細線
 48
5.0
100
AcDbLine
 10
5925.029581418183
 20
3269.999999999956
 30
0.0
 11
5942.329581418182
 21
3269.999999999956
 31
0.0
  0
LINE
  5
1BF80
330
747D
100
AcDbEntity
  8
細線
 48
5.0
100
AcDbLine
 10
5981.613616867363
 20
3342.999999999956
 30
0.0
 11
5925.629581418172
 21
3342.999999999954
 31
0.0
  0
LINE
  5
1BF81
330
747D
100
AcDbEntity
  8
破線
 48
5.0
100
AcDbLine
 10
6144.329581418174
 20
3139.99999999996
 30
0.0
 11
6144.329581418174
 21
2939.999999999958
 31
0.0
  0
LINE
  5
1BF82
330
747D
100
AcDbEntity
  8
破線
 48
5.0
100
AcDbLine
 10
6065.329581418173
 20
3139.999999999956
 30
0.0
 11
6065.329581418175
 21
3029.999999999956
 31
0.0
  0
LINE
  5
1BF83
330
747D
100
AcDbEntity
  8
破線
 48
5.0
100
AcDbLine
 10
6023.329581418173
 20
3139.999999999956
 30
0.0
 11
6023.329581418175
 21
3029.999999999956
 31
0.0
  0
LINE
  5
1BF84
330
747D
100
AcDbEntity
  8
破線
 48
5.0
100
AcDbLine
 10
5944.329581418174
 20
3139.99999999996
 30
0.0
 11
5944.329581418174
 21
2939.999999999958
 31
0.0
  0
LINE
  5
1BF85
330
747D
100
AcDbEntity
  8
破線
 48
5.0
100
AcDbLine
 10
6144.329581418174
 20
2939.999999999958
 30
0.0
 11
5944.329581418173
 21
2939.999999999958
 31
0.0
  0
LINE
  5
1BF86
330
747D
100
AcDbEntity
  8
破線
 48
5.0
100
AcDbLine
 10
6023.329581418175
 20
3029.999999999956
 30
0.0
 11
6065.329581418175
 21
3029.999999999956
 31
0.0
  0
LINE
  5
1BF87
330
747D
100
AcDbEntity
  8
部品1
 48
50.0
100
AcDbLine
 10
6202.829581418175
 20
3274.999999999956
 30
0.0
 11
6202.829581418173
 21
3139.999999999956
 31
0.0
  0
ARC
  5
1BF88
330
747D
100
AcDbEntity
  8
細線
 48
5.0
100
AcDbCircle
 10
5951.829581418182
 20
3226.092580068816
 30
0.0
 40
27.3
100
AcDbArc
 50
280.0
 51
359.9999999999999
  0
ARC
  5
1BF89
330
747D
100
AcDbEntity
  8
細線
 48
5.0
100
AcDbCircle
 10
5981.613616867363
 20
3339.999999999956
 30
0.0
 40
3.0
100
AcDbArc
 50
45.87245712290256
 51
90.0000000000009
  0
LINE
  5
1BF8A
330
747D
100
AcDbEntity
  8
細線
 48
5.0
100
AcDbLine
 10
6002.829581418173
 20
3323.599999999957
 30
0.0
 11
5983.702390655737
 21
3342.153375039517
 31
0.0
  0
LINE
  5
1BF8B
330
747D
100
AcDbEntity
  8
部品1
 48
50.0
100
AcDbLine
 10
6023.329581418173
 20
3309.999999999958
 30
0.0
 11
6023.329581418173
 21
3139.999999999956
 31
0.0
  0
LINE
  5
1BF8C
330
747D
100
AcDbEntity
  8
部品1
 48
50.0
100
AcDbLine
 10
6065.329581418171
 20
3309.999999999956
 30
0.0
 11
6065.329581418173
 21
3139.999999999956
 31
0.0
  0
ARC
  5
1BF8D
330
747D
100
AcDbEntity
  8
部品1
 48
50.0
100
AcDbCircle
 10
6028.329581418173
 20
3309.999999999958
 30
0.0
 40
5.0
100
AcDbArc
 50
90.0
 51
179.9999999999993
  0
LINE
  5
1BF8E
330
747D
100
AcDbEntity
  8
部品1
 48
50.0
100
AcDbLine
 10
6028.329581418173
 20
3314.999999999958
 30
0.0
 11
6060.329581418171
 21
3314.999999999956
 31
0.0
  0
ARC
  5
1BF8F
330
747D
100
AcDbEntity
  8
部品1
 48
50.0
100
AcDbCircle
 10
6060.329581418171
 20
3309.999999999956
 30
0.0
 40
5.0
100
AcDbArc
 50
359.9999999999993
 51
90.0
  0
LINE
  5
1BF90
330
747D
100
AcDbEntity
  8
部品1
 48
50.0
100
AcDbLine
 10
6023.329581418173
 20
3274.999999999956
 30
0.0
 11
6002.829581418173
 21
3274.999999999956
 31
0.0
  0
LINE
  5
1BF91
330
747D
100
AcDbEntity
  8
細線
 48
5.0
100
AcDbLine
 10
5942.829581418182
 20
3269.499999999956
 30
0.0
 11
5942.829581418182
 21
3216.376514579298
 31
0.0
  0
ARC
  5
1BF92
330
747D
100
AcDbEntity
  8
細線
 48
5.0
100
AcDbCircle
 10
5961.329581418182
 20
3269.499999999956
 30
0.0
 40
0.5
100
AcDbArc
 50
90.0
 51
180.0000000000001
  0
ARC
  5
1BF93
330
747D
100
AcDbEntity
  8
細線
 48
5.0
100
AcDbCircle
 10
5978.629581418185
 20
3269.499999999956
 30
0.0
 40
0.5
100
AcDbArc
 50
359.9999999999999
 51
90.0
  0
LINE
  5
1BF94
330
747D
100
AcDbEntity
  8
細線
 48
5.0
100
AcDbLine
 10
5961.329581418182
 20
3269.999999999956
 30
0.0
 11
5978.629581418185
 21
3269.999999999956
 31
0.0
  0
LINE
  5
1BF95
330
747D
100
AcDbEntity
  8
細線
 48
5.0
100
AcDbLine
 10
5979.129581418185
 20
3269.499999999956
 30
0.0
 11
5979.129581418185
 21
3226.092580068816
 31
0.0
  0
LINE
  5
1BF96
330
747D
100
AcDbEntity
  8
細線
 48
5.0
100
AcDbLine
 10
5960.829581418182
 20
3269.499999999956
 30
0.0
 11
5960.829581418182
 21
3219.55040023205
 31
0.0
  0
LINE
  5
1BF97
330
747D
100
AcDbEntity
  8
細線
 48
5.0
100
AcDbLine
 10
5942.329581418182
 20
3269.999999999956
 30
0.0
 11
5961.329581418182
 21
3269.999999999956
 31
0.0
  0
ARC
  5
1BF98
330
747D
100
AcDbEntity
  8
細線
 48
5.0
100
AcDbCircle
 10
5942.329581418182
 20
3269.499999999956
 30
0.0
 40
0.5
100
AcDbArc
 50
359.9999999999998
 51
90.0
  0
LINE
  5
1BF99
330
747D
100
AcDbEntity
  8
細線
 48
5.0
100
AcDbLine
 10
5963.829581418184
 20
3342.999999999956
 30
0.0
 11
5963.829581418182
 21
3269.999999999956
 31
0.0
  0
LINE
  5
1BF9A
330
747D
100
AcDbEntity
  8
細線
 48
5.0
100
AcDbLine
 10
5939.829581418184
 20
3342.999999999956
 30
0.0
 11
5939.829581418182
 21
3269.999999999956
 31
0.0
  0
LINE
  5
1BF9B
330
747D
100
AcDbEntity
  8
細線
 48
5.0
100
AcDbLine
 10
5976.829581418184
 20
3342.999999999956
 30
0.0
 11
5976.829581418182
 21
3269.999999999956
 31
0.0
  0
LINE
  5
1BF9C
330
747D
100
AcDbEntity
  8
細線
 48
5.0
100
AcDbLine
 10
5978.029581418176
 20
3342.999999999956
 30
0.0
 11
5978.029581418177
 21
3362.999999999956
 31
0.0
  0
LINE
  5
1BF9D
330
747D
100
AcDbEntity
  8
細線
 48
5.0
100
AcDbLine
 10
5899.985240505839
 20
3243.749344184076
 30
0.0
 11
5904.375463606392
 21
3191.112019182843
 31
0.0
  0
ARC
  5
1BF9E
330
747D
100
AcDbEntity
  8
細線
 48
5.0
100
AcDbCircle
 10
5905.372003440609
 20
3191.195135720409
 30
0.0
 40
1.0
100
AcDbArc
 50
184.7677271218682
 51
280.0
  0
ARC
  5
1BF9F
330
747D
100
AcDbEntity
  8
細線
 48
5.0
100
AcDbCircle
 10
5925.029581418183
 20
3269.499999999956
 30
0.0
 40
0.5
100
AcDbArc
 50
90.0
 51
179.9999999999998
  0
ARC
  5
1BFA0
330
747D
100
AcDbEntity
  8
細線
 48
5.0
100
AcDbCircle
 10
5900.981780340057
 20
3243.832460721641
 30
0.0
 40
1.0
100
AcDbArc
 50
100.0000000000001
 51
184.7677271218682
  0
LINE
  5
1BFA1
330
747D
100
AcDbEntity
  8
細線
 48
5.0
100
AcDbLine
 10
5924.529581418183
 20
3248.999999999956
 30
0.0
 11
5929.27017666849
 21
3222.114748342723
 31
0.0
  0
LINE
  5
1BFA2
330
747D
100
AcDbEntity
  8
細線
 48
5.0
100
AcDbLine
 10
5924.529581418183
 20
3248.999999999956
 30
0.0
 11
5900.808132162389
 21
3244.817268474653
 31
0.0
  0
LINE
  5
1BFA3
330
747D
100
AcDbEntity
  8
細線
 48
5.0
100
AcDbLine
 10
5924.529581418183
 20
3269.499999999956
 30
0.0
 11
5924.529581418183
 21
3248.999999999956
 31
0.0
  0
LINE
  5
1BFA4
330
747D
100
AcDbEntity
  8
細線
 48
5.0
100
AcDbLine
 10
5926.829581418184
 20
3342.999999999956
 30
0.0
 11
5926.829581418182
 21
3269.999999999956
 31
0.0
  0
LINE
  5
1BFA5
330
747D
100
AcDbEntity
  8
細線
 48
5.0
100
AcDbLine
 10
5925.629581418174
 20
3342.999999999956
 30
0.0
 11
5925.629581418172
 21
3362.999999999956
 31
0.0
  0
LINE
  5
1BFA6
330
747D
100
AcDbEntity
  8
細線
 48
5.0
100
AcDbLine
 10
5978.029581418181
 20
4307.499999999956
 30
0.0
 11
5925.629581418171
 21
4307.499999999958
 31
0.0
  0
LINE
  5
1BFA7
330
747D
100
AcDbEntity
  8
細線
 48
5.0
100
AcDbLine
 10
5978.029581418179
 20
4287.499999999957
 30
0.0
 11
5925.629581418171
 21
4287.499999999957
 31
0.0
  0
LINE
  5
1BFA8
330
747D
100
AcDbEntity
  8
細線
 48
5.0
100
AcDbLine
 10
5978.029581418181
 20
4307.499999999956
 30
0.0
 11
6002.829581418176
 21
4327.499999999957
 31
0.0
  0
LINE
  5
1BFA9
330
747D
100
AcDbEntity
  8
細線
 48
5.0
100
AcDbLine
 10
5978.029581418181
 20
4287.499999999957
 30
0.0
 11
6002.829581418176
 21
4267.499999999956
 31
0.0
  0
LINE
  5
1BFAA
330
747D
100
AcDbEntity
  8
細線
 48
5.0
100
AcDbLine
 10
5978.029581418179
 20
4307.499999999956
 30
0.0
 11
5978.029581418179
 21
4287.499999999957
 31
0.0
  0
LINE
  5
1BFAB
330
747D
100
AcDbEntity
  8
細線
 48
5.0
100
AcDbLine
 10
5925.629581418172
 20
4307.499999999956
 30
0.0
 11
5925.629581418171
 21
4287.499999999957
 31
0.0
  0
DIMENSION
  5
1BFAC
330
747D
100
AcDbEntity
  8
寸法
 48
50.0
100
AcDbDimension
  2
*D26
 10
5907.829581418173
 20
6238.281130716478
 30
0.0
 11
5575.270526300064
 21
6238.281130716478
 31
0.0
 12
6069.999999999998
 22
-0.0000000000436557
 32
0.0
 70
   160
 71
     5
 42
-1.0
  3
INABA_S50G
100
AcDbAlignedDimension
 13
6002.829581418173
 23
5488.337018226797
 33
0.0
 14
5907.829581418173
 24
5484.999999999956
 34
0.0
100
AcDbRotatedDimension
1001
ACAD
1000
DSTYLE
1002
{
1002
}
  0
LINE
  5
1BFAD
330
747D
100
AcDbEntity
  8
細線
 48
5.0
100
AcDbLine
 10
6002.829581418175
 20
5231.999999999956
 30
0.0
 11
5925.629581418171
 21
5231.999999999956
 31
0.0
  0
LINE
  5
1BFAE
330
747D
100
AcDbEntity
  8
細線
 48
5.0
100
AcDbLine
 10
5953.129581418176
 20
5330.509238872994
 30
0.0
 11
5933.529581418177
 21
5330.509238872994
 31
0.0
  0
LINE
  5
1BFAF
330
747D
100
AcDbEntity
  8
細線
 48
5.0
100
AcDbLine
 10
5971.829581418173
 20
5310.809238872993
 30
0.0
 11
5931.829581418173
 21
5310.809238872993
 31
0.0
  0
LINE
  5
1BFB0
330
747D
100
AcDbEntity
  8
細線
 48
5.0
100
AcDbLine
 10
5978.629581418175
 20
5286.809238872993
 30
0.0
 11
5925.029581418177
 21
5286.809238872993
 31
0.0
  0
ARC
  5
1BFB1
330
747D
100
AcDbEntity
  8
部品1
100
AcDbCircle
 10
5935.294180944378
 20
5376.419282939787
 30
0.0
 40
15.5
100
AcDbArc
 50
186.0754638750791
 51
270.9112955958145
  0
LINE
  5
1BFB2
330
747D
100
AcDbEntity
  8
細線
 48
5.0
100
AcDbLine
 10
5981.613616867362
 20
5251.999999999956
 30
0.0
 11
5925.629581418171
 21
5251.999999999956
 31
0.0
  0
LINE
  5
1BFB3
330
747D
100
AcDbEntity
  8
細線
 48
50.0
100
AcDbLine
 10
5945.182205381527
 20
5486.840994369774
 30
0.0
 11
5949.258734442764
 21
5361.395765917986
 31
0.0
  0
ARC
  5
1BFB4
330
747D
100
AcDbEntity
  8
細線
 48
5.0
100
AcDbCircle
 10
5983.329581418173
 20
5319.809238872993
 30
0.0
 40
1.0
100
AcDbArc
 50
0.000000000000007
 51
90.0
  0
LINE
  5
1BFB5
330
747D
100
AcDbEntity
  8
細線
 48
5.0
100
AcDbLine
 10
5979.129581418176
 20
5300.809238872993
 30
0.0
 11
5983.840959583755
 21
5306.245444448665
 31
0.0
  0
ARC
  5
1BFB6
330
747D
100
AcDbEntity
  8
細線
 48
5.0
100
AcDbCircle
 10
5971.829581418173
 20
5320.809238872993
 30
0.0
 40
10.0
100
AcDbArc
 50
270.0
 51
0.000000000000007
  0
LINE
  5
1BFB7
330
747D
100
AcDbEntity
  8
細線
 48
5.0
100
AcDbLine
 10
6002.829581418173
 20
5359.999999999956
 30
0.0
 11
5981.829581418171
 21
5359.999999999956
 31
0.0
  0
ARC
  5
1BFB8
330
747D
100
AcDbEntity
  8
細線
 48
5.0
100
AcDbCircle
 10
5985.829581418173
 20
5307.999999999957
 30
0.0
 40
3.0
100
AcDbArc
 50
222.3153150487441
 51
270.0
  0
LINE
  5
1BFB9
330
747D
100
AcDbEntity
  8
細線
 48
5.0
100
AcDbLine
 10
6002.829581418171
 20
5271.399999999958
 30
0.0
 11
5983.702390655736
 21
5252.846624960395
 31
0.0
  0
ARC
  5
1BFBA
330
747D
100
AcDbEntity
  8
細線
 48
5.0
100
AcDbCircle
 10
5981.613616867362
 20
5254.999999999956
 30
0.0
 40
3.0
100
AcDbArc
 50
269.999999999999
 51
314.1275428770974
  0
LINE
  5
1BFBB
330
747D
100
AcDbEntity
  8
部品1
100
AcDbLine
 10
6002.829581418173
 20
5314.999999999956
 30
0.0
 11
6002.829581418173
 21
5274.999999999956
 31
0.0
  0
ARC
  5
1BFBC
330
747D
100
AcDbEntity
  8
細線
 48
5.0
100
AcDbCircle
 10
5982.329581418174
 20
5307.5553055255
 30
0.0
 40
2.0
100
AcDbArc
 50
319.085616779975
 51
0.0000000000000579
  0
LINE
  5
1BFBD
330
747D
100
AcDbEntity
  8
細線
 48
5.0
100
AcDbLine
 10
5984.329581418172
 20
5319.809238872993
 30
0.0
 11
5984.329581418172
 21
5307.5553055255
 31
0.0
  0
LINE
  5
1BFBE
330
747D
100
AcDbEntity
  8
細線
 48
5.0
100
AcDbLine
 10
6002.829581418173
 20
5304.999999999957
 30
0.0
 11
5985.829581418173
 21
5304.999999999957
 31
0.0
  0
LINE
  5
1BFBF
330
747D
100
AcDbEntity
  8
細線
 48
5.0
100
AcDbLine
 10
5973.129581418177
 20
5362.221485768809
 30
0.0
 11
5973.129581418175
 21
5350.509238872994
 31
0.0
  0
LINE
  5
1BFC0
330
747D
100
AcDbEntity
  8
細線
 48
5.0
100
AcDbLine
 10
5983.329581418173
 20
5320.809238872993
 30
0.0
 11
5981.829581418173
 21
5320.809238872993
 31
0.0
  0
LINE
  5
1BFC1
330
747D
100
AcDbEntity
  8
細線
 48
5.0
100
AcDbLine
 10
5982.329581418174
 20
5320.809238872993
 30
0.0
 11
5982.329581418174
 21
5320.809238872993
 31
0.0
  0
LINE
  5
1BFC2
330
747D
100
AcDbEntity
  8
細線
 48
5.0
100
AcDbLine
 10
5981.829581418173
 20
5359.809238872993
 30
0.0
 11
5981.829581418173
 21
5332.809238872993
 31
0.0
  0
LINE
  5
1BFC3
330
747D
100
AcDbEntity
  8
細線
 48
5.0
100
AcDbLine
 10
5981.829581418173
 20
5362.522428701817
 30
0.0
 11
5981.829581418173
 21
5320.809238872993
 31
0.0
  0
ARC
  5
1BFC4
330
747D
100
AcDbEntity
  8
細線
 48
5.0
100
AcDbCircle
 10
5953.129581418176
 20
5350.509238872994
 30
0.0
 40
20.0
100
AcDbArc
 50
270.0
 51
359.9999999999999
  0
LINE
  5
1BFC5
330
747D
100
AcDbEntity
  8
細線
 48
5.0
100
AcDbLine
 10
5939.829581418177
 20
5286.809238872993
 30
0.0
 11
5939.829581418173
 21
5251.999999999956
 31
0.0
  0
LINE
  5
1BFC6
330
747D
100
AcDbEntity
  8
細線
 48
5.0
100
AcDbLine
 10
5942.829581418173
 20
5290.809238872992
 30
0.0
 11
5942.829581418173
 21
5286.809238872993
 31
0.0
  0
LINE
  5
1BFC7
330
747D
100
AcDbEntity
  8
細線
 48
5.0
100
AcDbLine
 10
5957.829581418173
 20
5293.809238872992
 30
0.0
 11
5945.829581418173
 21
5293.809238872992
 31
0.0
  0
LINE
  5
1BFC8
330
747D
100
AcDbEntity
  8
細線
 48
5.0
100
AcDbLine
 10
5960.829581418173
 20
5290.809238872992
 30
0.0
 11
5960.829581418173
 21
5286.809238872993
 31
0.0
  0
LINE
  5
1BFC9
330
747D
100
AcDbEntity
  8
細線
 48
5.0
100
AcDbLine
 10
5963.829581418173
 20
5286.809238872993
 30
0.0
 11
5963.829581418173
 21
5251.999999999956
 31
0.0
  0
ARC
  5
1BFCA
330
747D
100
AcDbEntity
  8
細線
 48
5.0
100
AcDbCircle
 10
5957.829581418173
 20
5290.809238872992
 30
0.0
 40
3.0
100
AcDbArc
 50
0.000000000000007
 51
90.0
  0
ARC
  5
1BFCB
330
747D
100
AcDbEntity
  8
細線
 48
5.0
100
AcDbCircle
 10
5978.629581418175
 20
5287.309238872992
 30
0.0
 40
0.5
100
AcDbArc
 50
270.0
 51
0.000000000000007
  0
LINE
  5
1BFCC
330
747D
100
AcDbEntity
  8
細線
 48
5.0
100
AcDbLine
 10
5976.829581418178
 20
5286.809238872993
 30
0.0
 11
5976.829581418172
 21
5251.999999999956
 31
0.0
  0
LINE
  5
1BFCD
330
747D
100
AcDbEntity
  8
細線
 48
5.0
100
AcDbLine
 10
5979.129581418176
 20
5300.809238872993
 30
0.0
 11
5979.129581418176
 21
5287.309238872992
 31
0.0
  0
ARC
  5
1BFCE
330
747D
100
AcDbEntity
  8
細線
 48
5.0
100
AcDbCircle
 10
5945.829581418173
 20
5290.809238872992
 30
0.0
 40
3.0
100
AcDbArc
 50
90.0
 51
180.0
  0
LINE
  5
1BFCF
330
747D
100
AcDbEntity
  8
細線
 48
5.0
100
AcDbLine
 10
5978.029581418173
 20
5251.999999999956
 30
0.0
 11
5978.029581418176
 21
5231.999999999956
 31
0.0
  0
LINE
  5
1BFD0
330
747D
100
AcDbEntity
  8
部品1
100
AcDbLine
 10
5907.916287634871
 20
5458.848097684982
 30
0.0
 11
5916.114720265149
 21
5381.821266955391
 31
0.0
  0
LINE
  5
1BFD1
330
747D
100
AcDbEntity
  8
細線
 48
5.0
100
AcDbLine
 10
5926.829581418177
 20
5345.809238872993
 30
0.0
 11
5921.829581418169
 21
5345.809238872993
 31
0.0
  0
LINE
  5
1BFD2
330
747D
100
AcDbEntity
  8
細線
 48
5.0
100
AcDbLine
 10
5921.829581418172
 20
5320.809238872993
 30
0.0
 11
5920.329581418172
 21
5320.809238872993
 31
0.0
  0
LINE
  5
1BFD3
330
747D
100
AcDbEntity
  8
細線
 48
5.0
100
AcDbLine
 10
5926.829581418177
 20
5335.509238872994
 30
0.0
 11
5926.829581418177
 21
5345.809238872993
 31
0.0
  0
LINE
  5
1BFD4
330
747D
100
AcDbEntity
  8
細線
 48
5.0
100
AcDbLine
 10
5926.829581418177
 20
5345.809238872993
 30
0.0
 11
5926.829581418177
 21
5345.809238872993
 31
0.0
  0
LINE
  5
1BFD5
330
747D
100
AcDbEntity
  8
細線
 48
5.0
100
AcDbLine
 10
5921.329581418173
 20
5320.809238872993
 30
0.0
 11
5921.329581418173
 21
5320.809238872993
 31
0.0
  0
ARC
  5
1BFD6
330
747D
100
AcDbEntity
  8
細線
 48
5.0
100
AcDbCircle
 10
5920.329581418172
 20
5319.809238872993
 30
0.0
 40
1.0
100
AcDbArc
 50
90.0
 51
180.0
  0
LINE
  5
1BFD7
330
747D
100
AcDbEntity
  8
細線
 48
5.0
100
AcDbLine
 10
5931.029581418177
 20
5333.009238872993
 30
0.0
 11
5931.029581418177
 21
5333.009238872993
 31
0.0
  0
ARC
  5
1BFD8
330
747D
100
AcDbEntity
  8
細線
 48
5.0
100
AcDbCircle
 10
5928.529581418177
 20
5333.009238872993
 30
0.0
 40
2.5
100
AcDbArc
 50
0.000000000000007
 51
90.0
  0
ARC
  5
1BFD9
330
747D
100
AcDbEntity
  8
細線
 48
5.0
100
AcDbCircle
 10
5933.529581418177
 20
5333.009238872993
 30
0.0
 40
2.5
100
AcDbArc
 50
180.0
 51
270.0
  0
LINE
  5
1BFDA
330
747D
100
AcDbEntity
  8
細線
 48
5.0
100
AcDbLine
 10
5928.529581418177
 20
5335.509238872994
 30
0.0
 11
5926.829581418177
 21
5335.509238872994
 31
0.0
  0
LINE
  5
1BFDB
330
747D
100
AcDbEntity
  8
細線
 48
5.0
100
AcDbLine
 10
5921.829581418172
 20
5320.809238872993
 30
0.0
 11
5921.829581418172
 21
5345.809238872993
 31
0.0
  0
LINE
  5
1BFDC
330
747D
100
AcDbEntity
  8
細線
 48
5.0
100
AcDbLine
 10
5924.529581418177
 20
5300.809238872993
 30
0.0
 11
5919.818203252595
 21
5306.245444448665
 31
0.0
  0
ARC
  5
1BFDD
330
747D
100
AcDbEntity
  8
細線
 48
5.0
100
AcDbCircle
 10
5921.329581418173
 20
5307.5553055255
 30
0.0
 40
2.0
100
AcDbArc
 50
180.0
 51
220.9143832200251
  0
ARC
  5
1BFDE
330
747D
100
AcDbEntity
  8
細線
 48
5.0
100
AcDbCircle
 10
5925.029581418177
 20
5287.309238872992
 30
0.0
 40
0.5
100
AcDbArc
 50
180.0
 51
270.0
  0
LINE
  5
1BFDF
330
747D
100
AcDbEntity
  8
細線
 48
5.0
100
AcDbLine
 10
5926.829581418171
 20
5286.809238872993
 30
0.0
 11
5926.829581418172
 21
5251.999999999956
 31
0.0
  0
LINE
  5
1BFE0
330
747D
100
AcDbEntity
  8
細線
 48
5.0
100
AcDbLine
 10
5924.529581418177
 20
5300.809238872993
 30
0.0
 11
5924.529581418177
 21
5287.309238872992
 31
0.0
  0
ARC
  5
1BFE1
330
747D
100
AcDbEntity
  8
細線
 48
5.0
100
AcDbCircle
 10
5931.829581418173
 20
5320.809238872993
 30
0.0
 40
10.0
100
AcDbArc
 50
180.0
 51
270.0
  0
LINE
  5
1BFE2
330
747D
100
AcDbEntity
  8
細線
 48
5.0
100
AcDbLine
 10
5919.329581418173
 20
5319.809238872993
 30
0.0
 11
5919.329581418173
 21
5307.5553055255
 31
0.0
  0
LINE
  5
1BFE3
330
747D
100
AcDbEntity
  8
部品1
100
AcDbLine
 10
5919.482399800952
 20
5378.526007551067
 30
0.0
 11
5919.881238878695
 21
5374.778790062665
 31
0.0
  0
ARC
  5
1BFE4
330
747D
100
AcDbEntity
  8
部品1
 48
50.0
100
AcDbCircle
 10
5917.307980296042
 20
5381.948272855552
 30
0.0
 40
1.199999999999999
100
AcDbArc
 50
186.0754638750989
 51
265.1699938773959
  0
ARC
  5
1BFE5
330
747D
100
AcDbEntity
  8
部品1
 48
50.0
100
AcDbCircle
 10
5916.996441403258
 20
5378.261411925727
 30
0.0
 40
2.5
100
AcDbArc
 50
6.075463875091184
 51
85.16999387739907
  0
LINE
  5
1BFE6
330
747D
100
AcDbEntity
  8
細線
 48
5.0
100
AcDbLine
 10
5925.629581418172
 20
5251.999999999956
 30
0.0
 11
5925.629581418171
 21
5231.999999999956
 31
0.0
  0
LINE
  5
1BFE7
330
747D
100
AcDbEntity
  8
部品1
100
AcDbLine
 10
5927.323376691624
 20
5477.055403573333
 30
0.0
 11
5929.939382888232
 21
5484.088160010408
 31
0.0
  0
ARC
  5
1BFE8
330
747D
100
AcDbEntity
  8
部品1
100
AcDbCircle
 10
5923.329581418173
 20
5460.485286065428
 30
0.0
 40
15.5
100
AcDbArc
 50
91.86125648319634
 51
186.0754638750989
  0
ARC
  5
1BFE9
330
747D
100
AcDbEntity
  8
部品1
100
AcDbCircle
 10
5933.219786405294
 20
5482.867933488305
 30
0.0
 40
3.5
100
AcDbArc
 50
91.03524671598787
 51
159.5960814224235
  0
ARC
  5
1BFEA
330
747D
100
AcDbEntity
  8
部品1
100
AcDbCircle
 10
5925.897882695188
 20
5477.525647802703
 30
0.0
 40
1.5
100
AcDbArc
 50
270.9018459011011
 51
339.5960814224101
  0
LINE
  5
1BFEB
330
747D
100
AcDbEntity
  8
部品1
 48
50.0
100
AcDbLine
 10
5925.921491990759
 20
5476.025833613825
 30
0.0
 11
5922.826151637424
 21
5475.9771083745
 31
0.0
  0
TEXT
  5
1C108
330
747D
100
AcDbEntity
  8
部品1
100
AcDbText
 10
6167.713480488782
 20
2213.571611865162
 30
0.0
 40
225.0
  1
側面図
  7
STYLE2
100
AcDbText
  0
INSERT
  5
1C109
330
747D
100
AcDbEntity
  8
寸法
 48
50.0
100
AcDbBlockReference
  2
A$C019569EB
 10
7417.433617422701
 20
5396.547439870486
 30
0.0
 50
2.255436934929031
  0
LINE
  5
1C12E
330
747D
100
AcDbEntity
  8
部品1
 48
50.0
100
AcDbLine
 10
12072.82958141816
 20
9668.73679736193
 30
0.0
 11
12072.82958141816
 21
9238.736797361928
 31
0.0
  0
LINE
  5
1C12F
330
747D
100
AcDbEntity
  8
部品1
 48
50.0
100
AcDbLine
 10
12107.82958141817
 20
9686.736797361929
 30
0.0
 11
12107.82958141817
 21
9263.736797361927
 31
0.0
  0
LINE
  5
1C130
330
747D
100
AcDbEntity
  8
部品1
 48
50.0
100
AcDbLine
 10
12122.82958141816
 20
9686.736797361923
 30
0.0
 11
12122.82958141816
 21
9278.736797361927
 31
0.0
  0
LINE
  5
1C131
330
747D
100
AcDbEntity
  8
部品1
 62
     2
 48
50.0
100
AcDbLine
 10
6100.329581418172
 20
5141.999999999956
 30
0.0
 11
6100.329581418172
 21
3274.999999999956
 31
0.0
  0
LINE
  5
1C132
330
747D
100
AcDbEntity
  8
部品1
 62
     2
 48
50.0
100
AcDbLine
 10
6836.329581418173
 20
5141.999999999956
 30
0.0
 11
6836.329581418173
 21
3274.999999999956
 31
0.0
  0
LINE
  5
1C133
330
747D
100
AcDbEntity
  8
部品1
 62
     2
 48
50.0
100
AcDbLine
 10
6862.829581418172
 20
5169.999999999956
 30
0.0
 11
6072.829581418172
 21
5169.999999999956
 31
0.0
  0
LINE
  5
1C134
330
747D
100
AcDbEntity
  8
部品1
 62
     2
 48
50.0
100
AcDbLine
 10
6862.829581418172
 20
5141.999999999956
 30
0.0
 11
6072.829581418172
 21
5141.999999999956
 31
0.0
  0
LINE
  5
1C135
330
747D
100
AcDbEntity
  8
部品1
 62
     2
 48
50.0
100
AcDbLine
 10
6836.329581418173
 20
5138.999999999956
 30
0.0
 11
6100.329581418172
 21
5138.999999999956
 31
0.0
  0
DIMENSION
  5
1C136
330
747D
100
AcDbEntity
  8
寸法
 48
50.0
100
AcDbDimension
  2
*D27
 10
5654.899621195021
 20
5169.999999999956
 30
0.0
 11
5554.899621195021
 21
4222.499999999956
 31
0.0
 12
-4519.274534157645
 22
-13036.23332302183
 32
0.0
 70
    32
 71
     5
 42
-1.0
  3
INABA_S50G
100
AcDbAlignedDimension
 13
6002.829581418172
 23
3274.999999999956
 33
0.0
 14
6072.829581418172
 24
5169.999999999956
 34
0.0
 50
90.0
100
AcDbRotatedDimension
  0
ARC
  5
1C137
330
747D
100
AcDbEntity
  8
部品1
 62
     2
 48
50.0
100
AcDbCircle
 10
6164.329581418172
 20
4268.999999999956
 30
0.0
 40
20.0
100
AcDbArc
 50
23.57817800000002
 51
336.4218220000001
  0
LINE
  5
1C138
330
747D
100
AcDbEntity
  8
部品1
 62
     2
 48
50.0
100
AcDbLine
 10
6256.329581418179
 20
4260.999999999963
 30
0.0
 11
6164.329581418172
 21
4260.999999999963
 31
0.0
  0
LINE
  5
1C139
330
747D
100
AcDbEntity
  8
部品1
 62
     2
 48
50.0
100
AcDbLine
 10
6164.329581418172
 20
4276.999999999949
 30
0.0
 11
6256.329581418179
 21
4276.999999999949
 31
0.0
  0
CIRCLE
  5
1C13A
330
747D
100
AcDbEntity
  8
部品1
 62
     2
 48
50.0
100
AcDbCircle
 10
6164.329581418172
 20
4485.499999999956
 30
0.0
 40
20.0
  0
CIRCLE
  5
1C13B
330
747D
100
AcDbEntity
  8
部品1
 62
     2
 48
50.0
100
AcDbCircle
 10
6164.329581418172
 20
4485.499999999956
 30
0.0
 40
10.0
  0
CIRCLE
  5
1C13C
330
747D
100
AcDbEntity
  8
部品1
 62
     2
 48
50.0
100
AcDbCircle
 10
6164.329581418172
 20
4333.999999999956
 30
0.0
 40
10.0
  0
CIRCLE
  5
1C13D
330
747D
100
AcDbEntity
  8
部品1
 62
     2
 48
50.0
100
AcDbCircle
 10
6164.329581418172
 20
4333.999999999956
 30
0.0
 40
20.0
  0
ARC
  5
1C13E
330
747D
100
AcDbEntity
  8
部品1
 62
     2
 48
50.0
100
AcDbCircle
 10
6164.329581418172
 20
4268.999999999956
 30
0.0
 40
8.0
100
AcDbArc
 50
90.0
 51
270.0
  0
ARC
  5
1C13F
330
747D
100
AcDbEntity
  8
部品1
 62
     2
 48
50.0
100
AcDbCircle
 10
6256.329581418179
 20
4268.999999999956
 30
0.0
 40
8.0
100
AcDbArc
 50
270.0
 51
90.0
  0
LINE
  5
1C140
330
747D
100
AcDbEntity
  8
部品1
 62
     2
 48
50.0
100
AcDbLine
 10
6100.329581418172
 20
3317.999999999956
 30
0.0
 11
6836.329581418173
 21
3317.999999999956
 31
0.0
  0
LINE
  5
1C141
330
747D
100
AcDbEntity
  8
部品1
 62
     2
 48
50.0
100
AcDbLine
 10
6100.329581418172
 20
3308.999999999956
 30
0.0
 11
6836.329581418173
 21
3308.999999999956
 31
0.0
  0
DIMENSION
  5
1C1CC
330
747D
100
AcDbEntity
  8
寸法
 48
50.0
100
AcDbDimension
  2
*D28
 10
11588.38589554556
 20
9662.736797361926
 30
0.0
 11
12068.37113176604
 21
10063.73679736192
 31
0.0
 12
-5099.274534157644
 22
-13036.23332302183
 32
0.0
 70
    32
 71
     5
 42
-1.0
  3
INABA_S50G
100
AcDbAlignedDimension
 13
12022.82958141817
 23
10464.73679736192
 33
0.0
 14
12022.82958141817
 24
9662.736797361926
 34
0.0
 50
270.0
100
AcDbRotatedDimension
  0
LINE
  5
1C1CD
330
747D
100
AcDbEntity
  8
部品1
 62
     2
100
AcDbLine
 10
12022.82958141817
 20
9699.236797361926
 30
0.0
 11
12022.82958141817
 21
10359.23679736194
 31
0.0
  0
LINE
  5
1C1CE
330
747D
100
AcDbEntity
  8
部品1
 62
     2
100
AcDbLine
 10
12029.32958141816
 20
9695.236797361927
 30
0.0
 11
12029.32958141816
 21
10431.23679736192
 31
0.0
  0
LINE
  5
1C1CF
330
747D
100
AcDbEntity
  8
部品1
 62
     2
100
AcDbLine
 10
12060.82958141816
 20
9691.236797361925
 30
0.0
 11
12060.82958141816
 21
10431.23679736192
 31
0.0
  0
LINE
  5
1C1D0
330
747D
100
AcDbEntity
  8
部品1
 62
     2
100
AcDbLine
 10
11995.32958141815
 20
10283.23679736191
 30
0.0
 11
11995.32958141815
 21
10359.23679736194
 31
0.0
  0
LINE
  5
1C1D1
330
747D
100
AcDbEntity
  8
部品1
 62
     2
100
AcDbLine
 10
11979.32958141817
 20
10365.23679736188
 30
0.0
 11
11979.32958141817
 21
10283.23679736191
 31
0.0
  0
ARC
  5
1C1D2
330
747D
100
AcDbEntity
  8
部品1
 62
     2
100
AcDbCircle
 10
11987.32958141816
 20
10283.23679736191
 30
0.0
 40
8.0
100
AcDbArc
 50
180.0
 51
0.0
  0
LINE
  5
1C1D3
330
747D
100
AcDbEntity
  8
部品1
 62
     2
100
AcDbLine
 10
12029.32958141816
 20
10431.23679736192
 30
0.0
 11
12060.82958141816
 21
10431.23679736192
 31
0.0
  0
LINE
  5
1C1D4
330
747D
100
AcDbEntity
  8
部品1
 62
     2
100
AcDbLine
 10
12060.82958141816
 20
10423.73679736192
 30
0.0
 11
12138.32958141817
 21
10423.73679736192
 31
0.0
  0
LINE
  5
1C1D5
330
747D
100
AcDbEntity
  8
部品1
 62
     2
100
AcDbLine
 10
12060.82958141816
 20
10359.23679736194
 30
0.0
 11
12094.82958141818
 21
10359.23679736194
 31
0.0
  0
LINE
  5
1C1D6
330
747D
100
AcDbEntity
  8
部品1
 62
     2
100
AcDbLine
 10
12060.82958141816
 20
10375.23679736192
 30
0.0
 11
12100.82958141813
 21
10375.23679736192
 31
0.0
  0
ARC
  5
1C1D7
330
747D
100
AcDbEntity
  8
部品1
 62
     2
100
AcDbCircle
 10
11989.32958141811
 20
10365.23679736188
 30
0.0
 40
10.0
100
AcDbArc
 50
89.99999999999998
 51
180.0
  0
LINE
  5
1C1D8
330
747D
100
AcDbEntity
  8
部品1
 62
     2
100
AcDbLine
 10
12022.82958141817
 20
10375.23679736192
 30
0.0
 11
12022.82958141817
 21
10464.73679736192
 31
0.0
  0
LINE
  5
1C1D9
330
747D
100
AcDbEntity
  8
部品1
 62
     2
100
AcDbLine
 10
12029.32958141816
 20
10359.23679736194
 30
0.0
 11
11995.32958141815
 21
10359.23679736194
 31
0.0
  0
LINE
  5
1C1DA
330
747D
100
AcDbEntity
  8
部品1
 62
     2
100
AcDbLine
 10
12029.32958141816
 20
10375.23679736192
 30
0.0
 11
11989.32958141811
 21
10375.23679736192
 31
0.0
  0
LINE
  5
1C1DB
330
747D
100
AcDbEntity
  8
部品1
 62
     2
100
AcDbLine
 10
12022.82958141817
 20
10436.23679736192
 30
0.0
 11
12072.82958141816
 21
10436.23679736192
 31
0.0
  0
LINE
  5
1C1DC
330
747D
100
AcDbEntity
  8
部品1
 62
     2
100
AcDbLine
 10
12022.82958141817
 20
10464.73679736192
 30
0.0
 11
12072.82958141816
 21
10464.73679736192
 31
0.0
  0
LINE
  5
1C1DD
330
747D
100
AcDbEntity
  8
部品1
 62
     2
100
AcDbLine
 10
12097.82958141816
 20
10276.99179936352
 30
0.0
 11
12097.82958141816
 21
9703.736797361926
 31
0.0
  0
LINE
  5
1C1DE
330
747D
100
AcDbEntity
  8
部品1
 62
     2
100
AcDbLine
 10
12138.32958141817
 20
10423.73679736192
 30
0.0
 11
12138.32958141817
 21
9703.736797361926
 31
0.0
  0
LINE
  5
1C1DF
330
747D
100
AcDbEntity
  8
部品1
 62
     2
100
AcDbLine
 10
12123.32958141816
 20
10423.73679736192
 30
0.0
 11
12123.32958141816
 21
9703.736797361926
 31
0.0
  0
LINE
  5
1C1E0
330
747D
100
AcDbEntity
  8
部品1
 62
     2
100
AcDbLine
 10
12110.82958141816
 20
10365.23679736188
 30
0.0
 11
12110.82958141816
 21
10283.23679736191
 31
0.0
  0
LINE
  5
1C1E1
330
747D
100
AcDbEntity
  8
部品1
 62
     2
100
AcDbLine
 10
12094.82958141818
 20
10283.23679736191
 30
0.0
 11
12094.82958141818
 21
10359.23679736194
 31
0.0
  0
ARC
  5
1C1E2
330
747D
100
AcDbEntity
  8
部品1
 62
     2
100
AcDbCircle
 10
12102.82958141817
 20
10283.23679736191
 30
0.0
 40
8.0
100
AcDbArc
 50
180.0
 51
0.0
  0
ARC
  5
1C1E3
330
747D
100
AcDbEntity
  8
部品1
 62
     2
100
AcDbCircle
 10
12100.82958141813
 20
10365.23679736188
 30
0.0
 40
10.0
100
AcDbArc
 50
0.0
 51
89.99999999999998
  0
LINE
  5
1C1E4
330
747D
100
AcDbEntity
  8
部品1
 62
     2
100
AcDbLine
 10
12097.82958141816
 20
10423.73679736192
 30
0.0
 11
12097.82958141816
 21
10375.23679736192
 31
0.0
  0
LINE
  5
1C1E5
330
747D
100
AcDbEntity
  8
部品1
 62
     2
100
AcDbLine
 10
12131.82958141816
 20
10476.73679736192
 30
0.0
 11
12131.82958141816
 21
10423.73679736192
 31
0.0
  0
LINE
  5
1C1E6
330
747D
100
AcDbEntity
  8
部品1
 62
     2
100
AcDbLine
 10
12072.82958141816
 20
10464.73679736192
 30
0.0
 11
12072.82958141816
 21
10423.73679736192
 31
0.0
  0
LINE
  5
1C1E7
330
747D
100
AcDbEntity
  8
部品1
 62
     2
100
AcDbLine
 10
12122.82958141817
 20
10476.73679736192
 30
0.0
 11
12131.82958141816
 21
10476.73679736192
 31
0.0
  0
LINE
  5
1C1E8
330
747D
100
AcDbEntity
  8
部品1
 62
     2
100
AcDbLine
 10
12060.82958141816
 20
9703.736797361926
 30
0.0
 11
12138.32958141817
 21
9703.736797361926
 31
0.0
  0
LINE
  5
1C1E9
330
747D
100
AcDbEntity
  8
部品1
 62
     2
100
AcDbLine
 10
12022.82958141817
 20
9662.736797361926
 30
0.0
 11
12022.82958141817
 21
9691.236797361925
 31
0.0
  0
CIRCLE
  5
1C1EA
330
747D
100
AcDbEntity
  8
部品1
 62
     2
100
AcDbCircle
 10
12010.32958141816
 20
9695.236797361927
 30
0.0
 40
9.099999999999999
  0
LINE
  5
1C1EB
330
747D
100
AcDbEntity
  8
部品1
 62
     2
100
AcDbLine
 10
12022.82958141817
 20
9662.736797361926
 30
0.0
 11
12072.82958141816
 21
9662.736797361926
 31
0.0
  0
LINE
  5
1C1EC
330
747D
100
AcDbEntity
  8
部品1
 62
     2
100
AcDbLine
 10
12022.82958141817
 20
9691.236797361925
 30
0.0
 11
12072.82958141816
 21
9691.236797361925
 31
0.0
  0
LINE
  5
1C1ED
330
747D
100
AcDbEntity
  8
部品1
 62
     2
100
AcDbLine
 10
12019.42958141816
 20
9695.236797361927
 30
0.0
 11
12060.82958141816
 21
9695.236797361927
 31
0.0
  0
LINE
  5
1C1EE
330
747D
100
AcDbEntity
  8
部品1
 62
     2
100
AcDbLine
 10
12018.50331985293
 20
9699.236797361926
 30
0.0
 11
12029.32958141816
 21
9699.236797361926
 31
0.0
  0
LINE
  5
1C1EF
330
747D
100
AcDbEntity
  8
部品1
 62
     2
100
AcDbLine
 10
12018.50331985293
 20
9691.236797361925
 30
0.0
 11
12060.82958141816
 21
9691.236797361925
 31
0.0
  0
LINE
  5
1C1F0
330
747D
100
AcDbEntity
  8
部品1
 62
     2
100
AcDbLine
 10
12072.82958141816
 20
9703.736797361926
 30
0.0
 11
12072.82958141816
 21
9662.736797361926
 31
0.0
  0
LINE
  5
1C1F1
330
747D
100
AcDbEntity
  8
部品1
 62
     2
100
AcDbLine
 10
12131.82958141816
 20
9650.736797361926
 30
0.0
 11
12131.82958141816
 21
9703.736797361926
 31
0.0
  0
LINE
  5
1C1F2
330
747D
100
AcDbEntity
  8
部品1
 62
     2
100
AcDbLine
 10
12122.82958141817
 20
9650.736797361926
 30
0.0
 11
12131.82958141816
 21
9650.736797361926
 31
0.0
  0
DIMENSION
  5
1C1FF
330
747D
100
AcDbEntity
  8
寸法
 48
50.0
100
AcDbDimension
  2
*D29
 10
14468.82958141817
 20
8744.293111489312
 30
0.0
 11
13302.82958141817
 21
8844.307875268839
 31
0.0
 12
290.0
 22
0.0
 32
0.0
 70
    32
 71
     5
 42
-1.0
  3
INABA_S50G
100
AcDbAlignedDimension
 13
12136.82958141817
 23
9228.736797361909
 33
0.0
 14
14468.82958141817
 24
9228.736797361909
 34
0.0
100
AcDbRotatedDimension
  0
LINE
  5
1C200
330
747D
100
AcDbEntity
  8
部品1
 62
     2
 48
50.0
100
AcDbLine
 10
13875.82958141817
 20
9240.236797361909
 30
0.0
 11
14409.82958141817
 21
9240.236797361909
 31
0.0
  0
LINE
  5
1C201
330
747D
100
AcDbEntity
  8
部品1
 62
     2
 48
50.0
100
AcDbLine
 10
13857.82958141817
 20
9251.73679736191
 30
0.0
 11
14430.82958141817
 21
9251.73679736191
 31
0.0
  0
LINE
  5
1C202
330
747D
100
AcDbEntity
  8
部品1
 62
     2
 48
50.0
100
AcDbLine
 10
14430.82958141817
 20
9289.736797361909
 30
0.0
 11
12174.82958141817
 21
9289.736797361909
 31
0.0
  0
LINE
  5
1C203
330
747D
100
AcDbEntity
  8
部品1
 62
     2
 48
50.0
100
AcDbLine
 10
12142.82958141817
 20
9228.736797361909
 30
0.0
 11
14462.82958141817
 21
9228.736797361909
 31
0.0
  0
LINE
  5
1C204
330
747D
100
AcDbEntity
  8
部品1
 62
     2
 48
50.0
100
AcDbLine
 10
14462.82958141817
 20
9290.736797361908
 30
0.0
 11
12142.82958141817
 21
9290.736797361908
 31
0.0
  0
LINE
  5
1C205
330
747D
100
AcDbEntity
  8
部品1
 62
     2
 48
50.0
100
AcDbLine
 10
14444.82958141817
 20
9278.73679736191
 30
0.0
 11
14430.82958141817
 21
9278.73679736191
 31
0.0
  0
LINE
  5
1C206
330
747D
100
AcDbEntity
  8
部品1
 62
     2
 48
50.0
100
AcDbLine
 10
14403.82958141817
 20
9228.736797361909
 30
0.0
 11
14403.82958141817
 21
9251.73679736191
 31
0.0
  0
LINE
  5
1C207
330
747D
100
AcDbEntity
  8
部品1
 62
     2
 48
50.0
100
AcDbLine
 10
14430.82958141817
 20
9228.736797361909
 30
0.0
 11
14430.82958141817
 21
9289.736797361909
 31
0.0
  0
LINE
  5
1C208
330
747D
100
AcDbEntity
  8
部品1
 62
     2
 48
50.0
100
AcDbLine
 10
14462.82958141817
 20
9278.73679736191
 30
0.0
 11
14462.82958141817
 21
9290.736797361908
 31
0.0
  0
LINE
  5
1C209
330
747D
100
AcDbEntity
  8
部品1
 62
     2
 48
50.0
100
AcDbLine
 10
13857.82958141817
 20
9262.036797361899
 30
0.0
 11
13857.82958141817
 21
9285.036797361897
 31
0.0
  0
LINE
  5
1C20A
330
747D
100
AcDbEntity
  8
部品1
 62
     2
 48
50.0
100
AcDbLine
 10
13881.82958141817
 20
9262.036797361913
 30
0.0
 11
13881.82958141817
 21
9285.036797361897
 31
0.0
  0
LINE
  5
1C20B
330
747D
100
AcDbEntity
  8
部品1
 62
     2
 48
50.0
100
AcDbLine
 10
13881.82958141817
 20
9228.736797361909
 30
0.0
 11
13881.82958141817
 21
9251.73679736191
 31
0.0
  0
LINE
  5
1C20C
330
747D
100
AcDbEntity
  8
部品1
 62
     2
 48
50.0
100
AcDbLine
 10
13857.82958141817
 20
9228.736797361909
 30
0.0
 11
13857.82958141817
 21
9251.73679736191
 31
0.0
  0
LINE
  5
1C20D
330
747D
100
AcDbEntity
  8
部品1
 62
     2
 48
50.0
100
AcDbLine
 10
13329.82958141817
 20
9273.536797361911
 30
0.0
 11
13863.82958141817
 21
9273.536797361911
 31
0.0
  0
LINE
  5
1C20E
330
747D
100
AcDbEntity
  8
部品1
 62
     2
 48
50.0
100
AcDbLine
 10
12723.82958141817
 20
9285.036797361913
 30
0.0
 11
13881.82958141817
 21
9285.036797361913
 31
0.0
  0
LINE
  5
1C20F
330
747D
100
AcDbEntity
  8
部品1
 62
     2
 48
50.0
100
AcDbLine
 10
12723.82958141817
 20
9262.036797361913
 30
0.0
 11
13881.82958141817
 21
9262.036797361913
 31
0.0
  0
LINE
  5
1C210
330
747D
100
AcDbEntity
  8
部品1
 62
     2
 48
50.0
100
AcDbLine
 10
12174.82958141817
 20
9278.73679736191
 30
0.0
 11
12160.82958141817
 21
9278.73679736191
 31
0.0
  0
LINE
  5
1C211
330
747D
100
AcDbEntity
  8
部品1
 62
     2
 48
50.0
100
AcDbLine
 10
13335.82958141817
 20
9262.036797361913
 30
0.0
 11
13335.82958141817
 21
9285.036797361913
 31
0.0
  0
LINE
  5
1C212
330
747D
100
AcDbEntity
  8
部品1
 62
     2
 48
50.0
100
AcDbLine
 10
12174.82958141817
 20
9228.736797361909
 30
0.0
 11
12174.82958141817
 21
9289.736797361909
 31
0.0
  0
LINE
  5
1C213
330
747D
100
AcDbEntity
  8
部品1
 62
     2
 48
50.0
100
AcDbLine
 10
12142.82958141817
 20
9278.73679736191
 30
0.0
 11
12142.82958141817
 21
9290.736797361908
 31
0.0
  0
DIMENSION
  5
1C833
330
747D
100
AcDbEntity
  8
寸法
 48
50.0
100
AcDbDimension
  2
*D34
 10
14587.82958360308
 20
6238.281130716521
 30
0.0
 11
14902.88863872119
 21
6238.281130716521
 31
0.0
 12
-7209.213972087439
 22
-1030.720159777917
 32
0.0
 70
   160
 71
     5
 42
-1.0
  3
INABA_S50G
100
AcDbAlignedDimension
 13
14532.82958360308
 23
5545.000000008446
 33
0.0
 14
14587.82958360308
 24
5509.000002624809
 34
0.0
100
AcDbRotatedDimension
1001
ACAD
1000
DSTYLE
1002
{
1002
}
  0
DIMENSION
  5
1C834
330
747D
100
AcDbEntity
  8
寸法
 48
50.0
100
AcDbDimension
  2
*D33
 10
12072.82958360308
 20
6238.281130716521
 30
0.0
 11
11692.77052848497
 21
6238.281130716521
 31
0.0
 12
-7209.213972087439
 22
-1030.720159777917
 32
0.0
 70
   160
 71
     5
 42
-1.0
  3
INABA_S50G
100
AcDbAlignedDimension
 13
12017.82957923325
 23
5509.000002624809
 33
0.0
 14
12072.82958360308
 24
5545.000000008467
 34
0.0
100
AcDbRotatedDimension
  0
DIMENSION
  5
1C835
330
747D
100
AcDbEntity
  8
寸法
 48
50.0
100
AcDbDimension
  2
*D32
 10
14532.82958360308
 20
6238.281130716521
 30
0.0
 11
13302.82958360308
 21
6338.295894496049
 31
0.0
 70
    32
  1
柱外寸法 <>
 71
     5
 42
-1.0
  3
INABA_S50G
100
AcDbAlignedDimension
 13
12072.82958360308
 23
5545.000000008467
 33
0.0
 14
14532.82958360308
 24
5545.000000008446
 34
0.0
100
AcDbRotatedDimension
1001
ACAD
1000
DSTYLE
1002
{
1070
   287
1070
     4
1070
    75
1070
     1
1070
   279
1070
     1
1002
}
  0
DIMENSION
  5
1C836
330
747D
100
AcDbEntity
  8
寸法
 48
50.0
100
AcDbDimension
  2
*D31
 10
14587.82958360308
 20
6506.068854554546
 30
0.0
 11
13302.82958141817
 21
6606.083618334072
 31
0.0
 12
-7209.213972087439
 22
-1030.720159777917
 32
0.0
 70
    32
 71
     5
 42
-1.0
  3
INABA_S50G
100
AcDbAlignedDimension
 13
12017.82957923325
 23
5509.000002624809
 33
0.0
 14
14587.82958360308
 24
5509.000002624809
 34
0.0
100
AcDbRotatedDimension
  0
LINE
  5
1C838
330
747D
100
AcDbEntity
  8
部品1
 48
50.0
100
AcDbLine
 10
12072.82958360308
 20
3274.999999999999
 30
0.0
 11
14532.82958360308
 21
3274.999999999999
 31
0.0
  0
LINE
  5
1C83A
330
747D
100
AcDbEntity
  8
部品1
 48
50.0
100
AcDbLine
 10
14532.82958360308
 20
5275.0
 30
0.0
 11
12072.82958360308
 21
5275.0
 31
0.0
  0
LINE
  5
1C83B
330
747D
100
AcDbEntity
  8
細線
100
AcDbLine
 10
14572.32958360308
 20
5524.500002624811
 30
0.0
 11
12035.42971515204
 21
5524.500002624819
 31
0.0
  0
LINE
  5
1C83C
330
747D
100
AcDbEntity
  8
部品1
100
AcDbLine
 10
14558.39741914361
 20
5545.000000008446
 30
0.0
 11
12047.26174398399
 21
5545.000000008467
 31
0.0
  0
LINE
  5
1C83D
330
747D
100
AcDbEntity
  8
細線
100
AcDbLine
 10
14581.32472794052
 20
5431.045828186498
 30
0.0
 11
12024.33443489582
 21
5431.045828186505
 31
0.0
  0
LINE
  5
1C83E
330
747D
100
AcDbEntity
  8
部品1
100
AcDbLine
 10
14563.51364406119
 20
5410.000001569558
 30
0.0
 11
12042.14551877514
 21
5410.000001569567
 31
0.0
  0
LINE
  5
1C841
330
747D
100
AcDbEntity
  8
部品1
 48
50.0
100
AcDbLine
 10
12072.82958360308
 20
5410.000001569567
 30
0.0
 11
12072.82958360308
 21
3139.999999999999
 31
0.0
  0
LINE
  5
1C842
330
747D
100
AcDbEntity
  8
部品1
 48
50.0
100
AcDbLine
 10
12142.82958360308
 20
5275.0
 30
0.0
 11
12142.82958360308
 21
3274.999999999999
 31
0.0
  0
LINE
  5
1C845
330
747D
100
AcDbEntity
  8
部品1
 48
50.0
100
AcDbLine
 10
12142.82958360308
 20
3330.000000000001
 30
0.0
 11
14462.82958360308
 21
3330.000000000001
 31
0.0
  0
LINE
  5
1C846
330
747D
100
AcDbEntity
  8
部品1
100
AcDbLine
 10
12067.82958360308
 20
3314.999999999999
 30
0.0
 11
12067.82958360308
 21
3139.999999999999
 31
0.0
  0
LINE
  5
1C847
330
747D
100
AcDbEntity
  8
破線
 48
5.0
100
AcDbLine
 10
11972.82958360308
 20
2939.999999999999
 30
0.0
 11
12172.82958360308
 21
2939.999999999999
 31
0.0
  0
LINE
  5
1C848
330
747D
100
AcDbEntity
  8
破線
 48
5.0
100
AcDbLine
 10
12067.82958360308
 20
3139.999999999999
 30
0.0
 11
12067.82958360308
 21
3029.999999999999
 31
0.0
  0
LINE
  5
1C849
330
747D
100
AcDbEntity
  8
破線
 48
5.0
100
AcDbLine
 10
11972.82958360308
 20
3139.999999999999
 30
0.0
 11
11972.82958360308
 21
2939.999999999999
 31
0.0
  0
LINE
  5
1C84A
330
747D
100
AcDbEntity
  8
破線
 48
5.0
100
AcDbLine
 10
12047.82958360308
 20
3029.999999999999
 30
0.0
 11
12067.82958360308
 21
3029.999999999999
 31
0.0
  0
LINE
  5
1C84B
330
747D
100
AcDbEntity
  8
破線
 48
5.0
100
AcDbLine
 10
12172.82958360308
 20
3139.999999999999
 30
0.0
 11
12172.82958360308
 21
2939.999999999999
 31
0.0
  0
LINE
  5
1C84C
330
747D
100
AcDbEntity
  8
部品1
 48
50.0
100
AcDbLine
 10
12472.82958360308
 20
3274.999999999999
 30
0.0
 11
12472.82958360308
 21
3139.999999999999
 31
0.0
  0
LINE
  5
1C84E
330
747D
100
AcDbEntity
  8
部品1
 48
50.0
100
AcDbLine
 10
12722.82958360308
 20
4059.999999999999
 30
0.0
 11
12722.82958360308
 21
3330.000000000001
 31
0.0
  0
LINE
  5
1C870
330
747D
100
AcDbEntity
  8
細線
 48
50.0
100
AcDbLine
 10
12055.82958389434
 20
5410.000001569558
 30
0.0
 11
12055.82958389434
 21
5545.0
 31
0.0
  0
ARC
  5
1C871
330
747D
100
AcDbEntity
  8
部品1
100
AcDbCircle
 10
12033.32957923325
 20
5509.000002624809
 30
0.0
 40
15.5
100
AcDbArc
 50
90.00000000000033
 51
183.979378091838
  0
ARC
  5
1C872
330
747D
100
AcDbEntity
  8
部品1
100
AcDbCircle
 10
12023.88825590001
 20
5428.572828826122
 30
0.0
 40
2.5
100
AcDbArc
 50
3.979378091802891
 51
83.07390809407314
  0
ARC
  5
1C873
330
747D
100
AcDbEntity
  8
部品1
100
AcDbCircle
 10
12042.14551877514
 20
5425.50000156956
 30
0.0
 40
15.5
100
AcDbArc
 50
183.9793780918396
 51
270.0
  0
LINE
  5
1C874
330
747D
100
AcDbEntity
  8
部品1
100
AcDbLine
 10
12026.38222863103
 20
5428.746322390583
 30
0.0
 11
12026.6828878428
 21
5424.424341469881
 31
0.0
  0
ARC
  5
1C875
330
747D
100
AcDbEntity
  8
部品1
100
AcDbCircle
 10
12024.33443489582
 20
5432.245828186495
 30
0.0
 40
1.199999999999999
100
AcDbArc
 50
183.979378091838
 51
270.0000000000002
  0
LINE
  5
1C876
330
747D
100
AcDbEntity
  8
部品1
100
AcDbLine
 10
12017.86694830091
 20
5507.92434252513
 30
0.0
 11
12023.13732798493
 21
5432.162551275553
 31
0.0
  0
ARC
  5
1C877
330
747D
100
AcDbEntity
  8
部品1
100
AcDbCircle
 10
12047.2619868428
 20
5541.500000016893
 30
0.0
 40
3.5
100
AcDbArc
 50
90.0
 51
157.4999956391549
  0
ARC
  5
1C878
330
747D
100
AcDbEntity
  8
部品1
100
AcDbCircle
 10
12035.42971515204
 20
5526.000002624811
 30
0.0
 40
1.5
100
AcDbArc
 50
270.0000000000002
 51
337.4999956391484
  0
LINE
  5
1C879
330
747D
100
AcDbEntity
  8
部品1
100
AcDbLine
 10
12036.81553440712
 20
5525.425977370787
 30
0.0
 11
12044.02840858096
 21
5542.839392276281
 31
0.0
  0
LINE
  5
1C87A
330
747D
100
AcDbEntity
  8
部品1
 48
50.0
100
AcDbLine
 10
12033.32957923325
 20
5524.500002624809
 30
0.0
 11
12035.42971515204
 21
5524.500002624819
 31
0.0
  0
LINE
  5
1C87B
330
747D
100
AcDbEntity
  8
細線
 48
50.0
100
AcDbLine
 10
12858.82958360308
 20
5405.500036981838
 30
0.0
 11
12586.82958360308
 21
5405.500036981838
 31
0.0
  0
LINE
  5
1C87C
330
747D
100
AcDbEntity
  8
細線
 48
50.0
100
AcDbLine
 10
12843.82958360308
 20
5319.5
 30
0.0
 11
12601.82958360308
 21
5319.5
 31
0.0
  0
LINE
  5
1C87D
330
747D
100
AcDbEntity
  8
細線
 48
50.0
100
AcDbLine
 10
12858.82958360308
 20
5308.5
 30
0.0
 11
12586.82958360308
 21
5308.5
 31
0.0
  0
LINE
  5
1C87E
330
747D
100
AcDbEntity
  8
細線
 48
50.0
100
AcDbLine
 10
12601.82958360308
 20
5375.5
 30
0.0
 11
12843.82958360308
 21
5375.5
 31
0.0
  0
LINE
  5
1C87F
330
747D
100
AcDbEntity
  8
細線
 48
50.0
100
AcDbLine
 10
12601.82958360308
 20
5390.5
 30
0.0
 11
12843.82958360308
 21
5390.499999999998
 31
0.0
  0
LINE
  5
1C880
330
747D
100
AcDbEntity
  8
細線
 48
50.0
100
AcDbLine
 10
12601.82958360308
 20
5360.500036981837
 30
0.0
 11
12843.82958360308
 21
5360.500036981837
 31
0.0
  0
LINE
  5
1C881
330
747D
100
AcDbEntity
  8
細線
 48
50.0
100
AcDbLine
 10
12601.82958360308
 20
5345.5
 30
0.0
 11
12843.82958360308
 21
5345.5
 31
0.0
  0
LINE
  5
1C882
330
747D
100
AcDbEntity
  8
細線
 48
50.0
100
AcDbLine
 10
12601.82958360308
 20
5330.500036981837
 30
0.0
 11
12843.82958360308
 21
5330.500036981837
 31
0.0
  0
ARC
  5
1C883
330
747D
100
AcDbEntity
  8
細線
 48
50.0
100
AcDbCircle
 10
12586.82958360308
 20
5395.500036981837
 30
0.0
 40
10.0
100
AcDbArc
 50
90.0
 51
180.0
  0
LINE
  5
1C884
330
747D
100
AcDbEntity
  8
細線
 48
50.0
100
AcDbLine
 10
12682.82958360308
 20
5319.5
 30
0.0
 11
12682.82958360308
 21
5390.5
 31
0.0
  0
LINE
  5
1C885
330
747D
100
AcDbEntity
  8
細線
 48
50.0
100
AcDbLine
 10
12601.82958360308
 20
5308.5
 30
0.0
 11
12601.82958360308
 21
5309.0
 31
0.0
  0
ARC
  5
1C886
330
747D
100
AcDbEntity
  8
細線
 48
50.0
100
AcDbCircle
 10
12586.82958360308
 20
5318.5
 30
0.0
 40
10.0
100
AcDbArc
 50
180.0
 51
270.0
  0
LINE
  5
1C887
330
747D
100
AcDbEntity
  8
細線
 48
50.0
100
AcDbLine
 10
12576.82958360308
 20
5395.500036981837
 30
0.0
 11
12576.82958360308
 21
5318.5
 31
0.0
  0
LINE
  5
1C888
330
747D
100
AcDbEntity
  8
細線
 48
50.0
100
AcDbLine
 10
12601.82958360308
 20
5405.500036981838
 30
0.0
 11
12601.82958360308
 21
5308.5
 31
0.0
  0
ARC
  5
1C889
330
747D
100
AcDbEntity
  8
細線
 48
50.0
100
AcDbCircle
 10
12858.82958360308
 20
5395.500036981837
 30
0.0
 40
10.0
100
AcDbArc
 50
359.9999999999998
 51
90.0
  0
LINE
  5
1C88A
330
747D
100
AcDbEntity
  8
細線
 48
50.0
100
AcDbLine
 10
12843.82958360308
 20
5308.5
 30
0.0
 11
12843.82958360308
 21
5309.0
 31
0.0
  0
ARC
  5
1C88B
330
747D
100
AcDbEntity
  8
細線
 48
50.0
100
AcDbCircle
 10
12858.82958360308
 20
5318.5
 30
0.0
 40
10.0
100
AcDbArc
 50
270.0
 51
359.9999999999998
  0
LINE
  5
1C88C
330
747D
100
AcDbEntity
  8
細線
 48
50.0
100
AcDbLine
 10
12762.82958360308
 20
5319.5
 30
0.0
 11
12762.82958360308
 21
5390.5
 31
0.0
  0
LINE
  5
1C88D
330
747D
100
AcDbEntity
  8
細線
 48
50.0
100
AcDbLine
 10
12868.82958360308
 20
5395.500036981837
 30
0.0
 11
12868.82958360308
 21
5318.5
 31
0.0
  0
LINE
  5
1C88E
330
747D
100
AcDbEntity
  8
細線
 48
50.0
100
AcDbLine
 10
12843.82958360308
 20
5405.500036981838
 30
0.0
 11
12843.82958360308
 21
5308.5
 31
0.0
  0
LINE
  5
1C88F
330
747D
100
AcDbEntity
  8
部品1
 48
50.0
100
AcDbLine
 10
14532.82958360308
 20
5410.000001569558
 30
0.0
 11
14532.82958360308
 21
3139.999999999999
 31
0.0
  0
LINE
  5
1C897
330
747D
100
AcDbEntity
  8
部品1
 48
50.0
100
AcDbLine
 10
13202.82958360308
 20
3274.999999999999
 30
0.0
 11
13202.82958360308
 21
3139.999999999999
 31
0.0
  0
LINE
  5
1C898
330
747D
100
AcDbEntity
  8
部品1
 48
50.0
100
AcDbLine
 10
13402.82958360308
 20
3274.999999999999
 30
0.0
 11
13402.82958360308
 21
3139.999999999999
 31
0.0
  0
LINE
  5
1C899
330
747D
100
AcDbEntity
  8
部品1
 48
50.0
100
AcDbLine
 10
14132.82958360308
 20
3274.999999999999
 30
0.0
 11
14132.82958360308
 21
3139.999999999999
 31
0.0
  0
LINE
  5
1C89A
330
747D
100
AcDbEntity
  8
部品1
100
AcDbLine
 10
14537.82958360308
 20
3314.999999999999
 30
0.0
 11
14537.82958360308
 21
3139.999999999999
 31
0.0
  0
LINE
  5
1C89B
330
747D
100
AcDbEntity
  8
破線
 48
5.0
100
AcDbLine
 10
14632.82958360308
 20
2939.999999999999
 30
0.0
 11
14432.82958360308
 21
2939.999999999999
 31
0.0
  0
LINE
  5
1C89C
330
747D
100
AcDbEntity
  8
破線
 48
5.0
100
AcDbLine
 10
14557.82958360308
 20
3029.999999999999
 30
0.0
 11
14537.82958360308
 21
3029.999999999999
 31
0.0
  0
LINE
  5
1C89D
330
747D
100
AcDbEntity
  8
破線
 48
5.0
100
AcDbLine
 10
14537.82958360308
 20
3139.999999999999
 30
0.0
 11
14537.82958360308
 21
3029.999999999999
 31
0.0
  0
LINE
  5
1C89E
330
747D
100
AcDbEntity
  8
破線
 48
5.0
100
AcDbLine
 10
14432.82958360308
 20
3139.999999999999
 30
0.0
 11
14432.82958360308
 21
2939.999999999999
 31
0.0
  0
LINE
  5
1C89F
330
747D
100
AcDbEntity
  8
破線
 48
5.0
100
AcDbLine
 10
14632.82958360308
 20
3139.999999999999
 30
0.0
 11
14632.82958360308
 21
2939.999999999999
 31
0.0
  0
LINE
  5
1C8A2
330
747D
100
AcDbEntity
  8
部品1
 48
50.0
100
AcDbLine
 10
14462.82958360308
 20
5275.0
 30
0.0
 11
14462.82958360308
 21
3274.999999999999
 31
0.0
  0
LINE
  5
1C8A3
330
747D
100
AcDbEntity
  8
細線
 48
50.0
100
AcDbLine
 10
14018.82958360308
 20
5405.500036981838
 30
0.0
 11
13746.82958360308
 21
5405.500036981838
 31
0.0
  0
LINE
  5
1C8A4
330
747D
100
AcDbEntity
  8
細線
 48
50.0
100
AcDbLine
 10
13761.82958360308
 20
5330.500036981837
 30
0.0
 11
14003.82958360308
 21
5330.500036981837
 31
0.0
  0
LINE
  5
1C8A5
330
747D
100
AcDbEntity
  8
細線
 48
50.0
100
AcDbLine
 10
13761.82958360308
 20
5345.5
 30
0.0
 11
14003.82958360308
 21
5345.5
 31
0.0
  0
LINE
  5
1C8A6
330
747D
100
AcDbEntity
  8
細線
 48
50.0
100
AcDbLine
 10
13761.82958360308
 20
5360.500036981837
 30
0.0
 11
14003.82958360308
 21
5360.500036981837
 31
0.0
  0
LINE
  5
1C8A7
330
747D
100
AcDbEntity
  8
細線
 48
50.0
100
AcDbLine
 10
13761.82958360308
 20
5390.5
 30
0.0
 11
14003.82958360308
 21
5390.499999999998
 31
0.0
  0
LINE
  5
1C8A8
330
747D
100
AcDbEntity
  8
細線
 48
50.0
100
AcDbLine
 10
13761.82958360308
 20
5375.5
 30
0.0
 11
14003.82958360308
 21
5375.5
 31
0.0
  0
LINE
  5
1C8A9
330
747D
100
AcDbEntity
  8
細線
 48
50.0
100
AcDbLine
 10
14018.82958360308
 20
5308.5
 30
0.0
 11
13746.82958360308
 21
5308.5
 31
0.0
  0
LINE
  5
1C8AA
330
747D
100
AcDbEntity
  8
細線
 48
50.0
100
AcDbLine
 10
14003.82958360308
 20
5319.5
 30
0.0
 11
13761.82958360308
 21
5319.5
 31
0.0
  0
ARC
  5
1C8AB
330
747D
100
AcDbEntity
  8
細線
 48
50.0
100
AcDbCircle
 10
13746.82958360308
 20
5395.500036981837
 30
0.0
 40
10.0
100
AcDbArc
 50
90.0
 51
180.0
  0
ARC
  5
1C8AC
330
747D
100
AcDbEntity
  8
細線
 48
50.0
100
AcDbCircle
 10
13746.82958360308
 20
5318.5
 30
0.0
 40
10.0
100
AcDbArc
 50
180.0
 51
270.0
  0
LINE
  5
1C8AD
330
747D
100
AcDbEntity
  8
細線
 48
50.0
100
AcDbLine
 10
13736.82958360308
 20
5395.500036981837
 30
0.0
 11
13736.82958360308
 21
5318.5
 31
0.0
  0
LINE
  5
1C8AE
330
747D
100
AcDbEntity
  8
細線
 48
50.0
100
AcDbLine
 10
13922.82958360308
 20
5319.5
 30
0.0
 11
13922.82958360308
 21
5390.5
 31
0.0
  0
LINE
  5
1C8AF
330
747D
100
AcDbEntity
  8
細線
 48
50.0
100
AcDbLine
 10
13761.82958360308
 20
5308.5
 30
0.0
 11
13761.82958360308
 21
5309.0
 31
0.0
  0
LINE
  5
1C8B0
330
747D
100
AcDbEntity
  8
細線
 48
50.0
100
AcDbLine
 10
13842.82958360308
 20
5319.5
 30
0.0
 11
13842.82958360308
 21
5390.5
 31
0.0
  0
LINE
  5
1C8B1
330
747D
100
AcDbEntity
  8
細線
 48
50.0
100
AcDbLine
 10
13761.82958360308
 20
5405.500036981838
 30
0.0
 11
13761.82958360308
 21
5308.5
 31
0.0
  0
ARC
  5
1C8B2
330
747D
100
AcDbEntity
  8
細線
 48
50.0
100
AcDbCircle
 10
14018.82958360308
 20
5395.500036981837
 30
0.0
 40
10.0
100
AcDbArc
 50
359.9999999999998
 51
90.0
  0
ARC
  5
1C8B3
330
747D
100
AcDbEntity
  8
細線
 48
50.0
100
AcDbCircle
 10
14018.82958360308
 20
5318.5
 30
0.0
 40
10.0
100
AcDbArc
 50
270.0
 51
359.9999999999998
  0
LINE
  5
1C8B4
330
747D
100
AcDbEntity
  8
細線
 48
50.0
100
AcDbLine
 10
14003.82958360308
 20
5308.5
 30
0.0
 11
14003.82958360308
 21
5309.0
 31
0.0
  0
LINE
  5
1C8B5
330
747D
100
AcDbEntity
  8
細線
 48
50.0
100
AcDbLine
 10
14003.82958360308
 20
5405.500036981838
 30
0.0
 11
14003.82958360308
 21
5308.5
 31
0.0
  0
LINE
  5
1C8B6
330
747D
100
AcDbEntity
  8
細線
 48
50.0
100
AcDbLine
 10
14028.82958360308
 20
5395.500036981837
 30
0.0
 11
14028.82958360308
 21
5318.5
 31
0.0
  0
LINE
  5
1C8B7
330
747D
100
AcDbEntity
  8
細線
 48
50.0
100
AcDbLine
 10
14549.82957923326
 20
5410.000001569558
 30
0.0
 11
14549.82957923326
 21
5545.0
 31
0.0
  0
ARC
  5
1C8B8
330
747D
100
AcDbEntity
  8
部品1
100
AcDbCircle
 10
14572.32958360308
 20
5509.000002624809
 30
0.0
 40
15.5
100
AcDbArc
 50
356.0206219081619
 51
89.99999999999968
  0
ARC
  5
1C8B9
330
747D
100
AcDbEntity
  8
部品1
100
AcDbCircle
 10
14563.51364406119
 20
5425.50000156956
 30
0.0
 40
15.5
100
AcDbArc
 50
270.0
 51
356.0206219081603
  0
ARC
  5
1C8BA
330
747D
100
AcDbEntity
  8
部品1
100
AcDbCircle
 10
14581.77090693633
 20
5428.572828826122
 30
0.0
 40
2.5
100
AcDbArc
 50
96.92609190592689
 51
176.0206219081971
  0
LINE
  5
1C8BB
330
747D
100
AcDbEntity
  8
部品1
100
AcDbLine
 10
14579.2769342053
 20
5428.746322390583
 30
0.0
 11
14578.97627499354
 21
5424.424341469881
 31
0.0
  0
ARC
  5
1C8BC
330
747D
100
AcDbEntity
  8
部品1
100
AcDbCircle
 10
14581.32472794052
 20
5432.245828186495
 30
0.0
 40
1.199999999999999
100
AcDbArc
 50
269.9999999999997
 51
356.0206219081619
  0
LINE
  5
1C8BD
330
747D
100
AcDbEntity
  8
部品1
100
AcDbLine
 10
14587.79221453543
 20
5507.92434252513
 30
0.0
 11
14582.52183485141
 21
5432.162551275553
 31
0.0
  0
ARC
  5
1C8BE
330
747D
100
AcDbEntity
  8
部品1
100
AcDbCircle
 10
14570.2294476843
 20
5526.000002624811
 30
0.0
 40
1.5
100
AcDbArc
 50
202.5000043608516
 51
269.9999999999997
  0
LINE
  5
1C8BF
330
747D
100
AcDbEntity
  8
部品1
100
AcDbLine
 10
14568.84362842922
 20
5525.425977370787
 30
0.0
 11
14561.63075425538
 21
5542.839392276281
 31
0.0
  0
ARC
  5
1C8C0
330
747D
100
AcDbEntity
  8
部品1
100
AcDbCircle
 10
14558.39717599354
 20
5541.500000016893
 30
0.0
 40
3.5
100
AcDbArc
 50
22.50000436084501
 51
90.0
  0
DIMENSION
  5
1C8C1
330
747D
100
AcDbEntity
  8
寸法
 48
50.0
100
AcDbDimension
  2
*D30
 10
14432.82958360308
 20
2612.358857715331
 30
0.0
 11
14145.86600092591
 21
2612.358857715331
 31
0.0
 12
-7209.213972087439
 22
-1030.720159777917
 32
0.0
 70
   160
 71
     5
 42
-1.0
  3
INABA_S50G
100
AcDbAlignedDimension
 13
14632.82958360308
 23
2939.999999999999
 33
0.0
 14
14432.82958360308
 24
2939.999999999999
 34
0.0
100
AcDbRotatedDimension
  0
DIMENSION
  5
1C932
330
747D
100
AcDbEntity
  8
寸法
 48
50.0
100
AcDbDimension
  2
*D37
 10
15532.97132641338
 20
3341.999999999999
 30
0.0
 11
15532.97132641338
 21
2978.697597487494
 31
0.0
 70
   160
 71
     5
 42
-1.0
  3
INABA_S50G
100
AcDbAlignedDimension
 13
14532.82958360308
 23
3274.999999999999
 33
0.0
 14
14532.82958360308
 24
3341.999999999999
 34
0.0
 50
90.0
100
AcDbRotatedDimension
  0
DIMENSION
  5
1C933
330
747D
100
AcDbEntity
  8
寸法
 48
50.0
100
AcDbDimension
  2
*D38
 10
15178.93453543463
 20
5130.0
 30
0.0
 11
15078.93453543463
 21
4595.000000000003
 31
0.0
 70
    32
 71
     5
 42
-1.0
  3
INABA_S50G
100
AcDbAlignedDimension
 13
14462.82958360308
 23
4059.999999999999
 33
0.0
 14
14462.82958360308
 24
5130.0
 34
0.0
 50
90.0
100
AcDbRotatedDimension
1001
ACAD
1000
DSTYLE
1002
{
1070
   287
1070
     4
1070
    75
1070
     1
1070
   279
1070
     1
1002
}
  0
DIMENSION
  5
1C934
330
747D
100
AcDbEntity
  8
寸法
 48
50.0
100
AcDbDimension
  2
*D35
 10
15178.93453543463
 20
4059.999999999999
 30
0.0
 11
15078.93453543463
 21
3667.499999999999
 31
0.0
 12
-19664.27373175847
 22
0.000000000043201
 32
0.0
 70
    32
 71
     5
 42
-1.0
  3
INABA_S50G
100
AcDbAlignedDimension
 13
14532.82958360308
 23
3274.999999999999
 33
0.0
 14
14462.82958360308
 24
4059.999999999999
 34
0.0
 50
90.0
100
AcDbRotatedDimension
  0
DIMENSION
  5
1C935
330
747D
100
AcDbEntity
  8
寸法
 48
50.0
100
AcDbDimension
  2
*D36
 10
15532.97132641338
 20
5302.0
 30
0.0
 11
15432.97132641338
 21
4322.000000000002
 31
0.0
 70
    32
  1
内高 <>
 71
     5
 42
-1.0
  3
INABA_S50G
100
AcDbAlignedDimension
 13
14532.82958360308
 23
3341.999999999999
 33
0.0
 14
14532.82958360308
 24
5302.0
 34
0.0
 50
90.0
100
AcDbRotatedDimension
1001
ACAD
1000
DSTYLE
1002
{
1070
   287
1070
     4
1070
    75
1070
     1
1070
   279
1070
     1
1002
}
  0
LINE
  5
1C936
330
747D
100
AcDbEntity
  8
部品1
 62
     2
 48
50.0
100
AcDbLine
 10
12174.82958360308
 20
5082.5
 30
0.0
 11
12174.82958360308
 21
4059.999999999999
 31
0.0
  0
LINE
  5
1C937
330
747D
100
AcDbEntity
  8
部品1
 62
     2
 48
50.0
100
AcDbLine
 10
12201.82958360308
 20
5082.5
 30
0.0
 11
12201.82958360308
 21
4103.0
 31
0.0
  0
LINE
  5
1C938
330
747D
100
AcDbEntity
  8
部品1
 62
     2
 48
50.0
100
AcDbLine
 10
13857.82958141817
 20
5082.5
 30
0.0
 11
13857.82958141817
 21
4103.0
 31
0.0
  0
LINE
  5
1C939
330
747D
100
AcDbEntity
  8
部品1
 62
     2
 48
50.0
100
AcDbLine
 10
14430.82958360308
 20
5082.5
 30
0.0
 11
14430.82958360308
 21
4059.999999999999
 31
0.0
  0
LINE
  5
1C93A
330
747D
100
AcDbEntity
  8
部品1
 62
     2
 48
50.0
100
AcDbLine
 10
14403.82958360308
 20
5082.5
 30
0.0
 11
14403.82958360308
 21
4103.0
 31
0.0
  0
LINE
  5
1C93B
330
747D
100
AcDbEntity
  8
部品1
 62
     2
 48
50.0
100
AcDbLine
 10
13881.82958141817
 20
5082.5
 30
0.0
 11
13881.82958141817
 21
4103.0
 31
0.0
  0
LINE
  5
1C93C
330
747D
100
AcDbEntity
  8
部品1
 62
     2
 48
50.0
100
AcDbLine
 10
12201.82958360308
 20
4146.0
 30
0.0
 11
12723.82958170944
 21
4146.0
 31
0.0
  0
LINE
  5
1C93D
330
747D
100
AcDbEntity
  8
部品1
 62
     2
 48
50.0
100
AcDbLine
 10
12747.82958170944
 20
4112.0
 30
0.0
 11
13857.82958141816
 21
4112.0
 31
0.0
  0
LINE
  5
1C93E
330
747D
100
AcDbEntity
  8
部品1
 62
     2
 48
50.0
100
AcDbLine
 10
12142.82958360308
 20
4059.999999999999
 30
0.0
 11
14462.82958360308
 21
4059.999999999999
 31
0.0
  0
LINE
  5
1C93F
330
747D
100
AcDbEntity
  8
部品1
 62
     2
 48
50.0
100
AcDbLine
 10
12174.82958360308
 20
4091.999999999999
 30
0.0
 11
14430.82958360308
 21
4091.999999999999
 31
0.0
  0
LINE
  5
1C940
330
747D
100
AcDbEntity
  8
部品1
 62
     2
 48
50.0
100
AcDbLine
 10
12174.82958360308
 20
4103.0
 30
0.0
 11
12199.15458360308
 21
4103.0
 31
0.0
  0
LINE
  5
1C942
330
747D
100
AcDbEntity
  8
部品1
 62
     2
 48
50.0
100
AcDbLine
 10
13857.82958141816
 20
4103.0
 30
0.0
 11
14430.82958360308
 21
4103.0
 31
0.0
  0
LINE
  5
1C943
330
747D
100
AcDbEntity
  8
部品1
 62
     2
 48
50.0
100
AcDbLine
 10
13881.82958141816
 20
4146.0
 30
0.0
 11
14403.82958360308
 21
4146.0
 31
0.0
  0
LINE
  5
1C944
330
747D
100
AcDbEntity
  8
部品1
 62
     2
 48
50.0
100
AcDbLine
 10
12201.82958360308
 20
5052.5
 30
0.0
 11
12723.82958170944
 21
5052.5
 31
0.0
  0
LINE
  5
1C945
330
747D
100
AcDbEntity
  8
部品1
 62
     2
 48
50.0
100
AcDbLine
 10
12142.82958360308
 20
5112.0
 30
0.0
 11
14462.82958360308
 21
5112.0
 31
0.0
  0
LINE
  5
1C946
330
747D
100
AcDbEntity
  8
部品1
 62
     2
 48
50.0
100
AcDbLine
 10
12142.82958360308
 20
5130.0
 30
0.0
 11
14462.82958360308
 21
5130.0
 31
0.0
  0
LINE
  5
1C947
330
747D
100
AcDbEntity
  8
部品1
 62
     2
 48
50.0
100
AcDbLine
 10
12142.82958360308
 20
5082.5
 30
0.0
 11
14462.82958360308
 21
5082.5
 31
0.0
  0
LINE
  5
1C948
330
747D
100
AcDbEntity
  8
部品1
 62
     2
 48
50.0
100
AcDbLine
 10
13881.82958141816
 20
5052.5
 30
0.0
 11
14403.82958360308
 21
5052.5
 31
0.0
  0
LINE
  5
1C949
330
747D
100
AcDbEntity
  8
部品1
 48
50.0
100
AcDbLine
 10
13302.82958360308
 20
4059.999999999999
 30
0.0
 11
13302.82958360308
 21
3330.0
 31
0.0
  0
LINE
  5
1C94A
330
747D
100
AcDbEntity
  8
部品1
 48
50.0
100
AcDbLine
 10
13882.82958360308
 20
4059.999999999999
 30
0.0
 11
13882.82958360308
 21
3330.0
 31
0.0
  0
LINE
  5
1C9AE
330
747D
100
AcDbEntity
  8
細線
 48
50.0
100
AcDbLine
 10
14188.82958141816
 20
9290.736797361908
 30
0.0
 11
14188.82958141816
 21
10469.73679736193
 31
0.0
  0
LINE
  5
1C9AF
330
747D
100
AcDbEntity
  8
細線
 48
50.0
100
AcDbLine
 10
13608.82958141816
 20
9290.736797361908
 30
0.0
 11
13608.82958141816
 21
10469.73679736193
 31
0.0
  0
LINE
  5
1C9B0
330
747D
100
AcDbEntity
  8
細線
 48
50.0
100
AcDbLine
 10
12448.82958141816
 20
9290.736797361908
 30
0.0
 11
12448.82958141816
 21
10469.73679736193
 31
0.0
  0
LINE
  5
1C9B1
330
747D
100
AcDbEntity
  8
細線
 48
50.0
100
AcDbLine
 10
13028.82958141816
 20
9290.736797361908
 30
0.0
 11
13028.82958141815
 21
10469.73679736193
 31
0.0
  0
LINE
  5
1C9DC
330
747D
100
AcDbEntity
  8
部品1
 62
     2
 48
50.0
100
AcDbLine
 10
13308.82958141817
 20
9262.036797361913
 30
0.0
 11
13308.82958141817
 21
9285.036797361897
 31
0.0
  0
LINE
  5
1C9DD
330
747D
100
AcDbEntity
  8
部品1
 62
     2
 48
50.0
100
AcDbLine
 10
13296.82958141817
 20
9262.036797361913
 30
0.0
 11
13296.82958141817
 21
9285.036797361897
 31
0.0
  0
LINE
  5
1C9DF
330
747D
100
AcDbEntity
  8
部品1
 62
     2
 48
50.0
100
AcDbLine
 10
13275.82958141817
 20
9273.536797361911
 30
0.0
 11
12741.82958141817
 21
9273.536797361911
 31
0.0
  0
LINE
  5
1C9E2
330
747D
100
AcDbEntity
  8
部品1
 62
     2
 48
50.0
100
AcDbLine
 10
13269.82958141817
 20
9262.036797361913
 30
0.0
 11
13269.82958141817
 21
9285.036797361913
 31
0.0
  0
LINE
  5
1C9E3
330
747D
100
AcDbEntity
  8
部品1
 62
     2
 48
50.0
100
AcDbLine
 10
12747.82958141817
 20
9262.036797361899
 30
0.0
 11
12747.82958141817
 21
9285.036797361897
 31
0.0
  0
LINE
  5
1C9E4
330
747D
100
AcDbEntity
  8
部品1
 62
     2
 48
50.0
100
AcDbLine
 10
12723.82958141817
 20
9262.036797361913
 30
0.0
 11
12723.82958141817
 21
9285.036797361897
 31
0.0
  0
LINE
  5
1C9E5
330
747D
100
AcDbEntity
  8
部品1
 62
     2
 48
50.0
100
AcDbLine
 10
12729.82958141817
 20
9240.236797361909
 30
0.0
 11
12195.82958141817
 21
9240.236797361909
 31
0.0
  0
LINE
  5
1C9E6
330
747D
100
AcDbEntity
  8
部品1
 62
     2
 48
50.0
100
AcDbLine
 10
12747.82958141817
 20
9251.73679736191
 30
0.0
 11
12174.82958141817
 21
9251.73679736191
 31
0.0
  0
LINE
  5
1C9E7
330
747D
100
AcDbEntity
  8
部品1
 62
     2
 48
50.0
100
AcDbLine
 10
12723.82958141817
 20
9228.736797361909
 30
0.0
 11
12723.82958141817
 21
9251.73679736191
 31
0.0
  0
LINE
  5
1C9E8
330
747D
100
AcDbEntity
  8
部品1
 62
     2
 48
50.0
100
AcDbLine
 10
12747.82958141817
 20
9228.736797361909
 30
0.0
 11
12747.82958141817
 21
9251.73679736191
 31
0.0
  0
LINE
  5
1C9E9
330
747D
100
AcDbEntity
  8
部品1
 62
     2
 48
50.0
100
AcDbLine
 10
12201.82958141817
 20
9228.736797361909
 30
0.0
 11
12201.82958141817
 21
9251.73679736191
 31
0.0
  0
LINE
  5
1C9ED
330
747D
100
AcDbEntity
  8
部品1
 62
     2
 48
50.0
100
AcDbLine
 10
13335.82958141817
 20
5082.5
 30
0.0
 11
13335.82958141817
 21
4112.0
 31
0.0
  0
LINE
  5
1C9EE
330
747D
100
AcDbEntity
  8
部品1
 62
     2
 48
50.0
100
AcDbLine
 10
13335.82958141817
 20
5052.5
 30
0.0
 11
13857.82958141817
 21
5052.5
 31
0.0
  0
LINE
  5
1C9EF
330
747D
100
AcDbEntity
  8
部品1
 62
     2
 48
50.0
100
AcDbLine
 10
13335.82958141817
 20
4146.0
 30
0.0
 11
13857.82958141817
 21
4146.0
 31
0.0
  0
LINE
  5
1C9F0
330
747D
100
AcDbEntity
  8
部品1
 62
     2
 48
50.0
100
AcDbLine
 10
13296.82958141817
 20
5082.5
 30
0.0
 11
13296.82958141817
 21
4112.0
 31
0.0
  0
LINE
  5
1C9F1
330
747D
100
AcDbEntity
  8
部品1
 62
     2
 48
50.0
100
AcDbLine
 10
13269.82958141817
 20
5082.5
 30
0.0
 11
13269.82958141817
 21
4112.0
 31
0.0
  0
LINE
  5
1C9F2
330
747D
100
AcDbEntity
  8
部品1
 62
     2
 48
50.0
100
AcDbLine
 10
12747.82958170944
 20
5082.5
 30
0.0
 11
12747.82958170944
 21
4103.0
 31
0.0
  0
LINE
  5
1C9F3
330
747D
100
AcDbEntity
  8
部品1
 62
     2
 48
50.0
100
AcDbLine
 10
12723.82958170943
 20
5082.5
 30
0.0
 11
12723.82958170943
 21
4103.0
 31
0.0
  0
LINE
  5
1C9F4
330
747D
100
AcDbEntity
  8
部品1
 62
     2
 48
50.0
100
AcDbLine
 10
12747.82958170944
 20
5052.5
 30
0.0
 11
13269.82958141816
 21
5052.499999999999
 31
0.0
  0
LINE
  5
1C9F5
330
747D
100
AcDbEntity
  8
部品1
 62
     2
 48
50.0
100
AcDbLine
 10
12747.82958170944
 20
4146.0
 30
0.0
 11
13269.82958141816
 21
4145.999999999999
 31
0.0
  0
LINE
  5
1C9F6
330
747D
100
AcDbEntity
  8
部品1
 62
     2
 48
50.0
100
AcDbLine
 10
12174.82957952452
 20
4103.0
 30
0.0
 11
12747.82958170944
 21
4103.0
 31
0.0
  0
LINE
  5
1C9FA
330
747D
100
AcDbEntity
  8
部品1
 62
     2
 48
50.0
100
AcDbLine
 10
13308.82958141817
 20
5082.5
 30
0.0
 11
13308.82958141817
 21
4112.0
 31
0.0
  0
LINE
  5
1CAE0
330
747D
100
AcDbEntity
  8
部品1
 62
     2
 48
50.0
100
AcDbLine
 10
12022.82958360308
 20
3275.0
 30
0.0
 11
12022.82958360308
 21
5164.0
 31
0.0
  0
LINE
  5
1CAE1
330
747D
100
AcDbEntity
  8
部品1
 62
     2
 48
50.0
100
AcDbLine
 10
12022.82958360308
 20
5164.0
 30
0.0
 11
12072.82958360308
 21
5170.0
 31
0.0
  0
DIMENSION
  5
1CAE2
330
747D
100
AcDbEntity
  8
寸法
 48
50.0
100
AcDbDimension
  2
*D39
 10
12022.82958360308
 20
2840.691229236385
 30
0.0
 11
11790.27052848497
 21
2840.691229236385
 31
0.0
 12
4298.817104932914
 22
8419.224493870407
 32
0.0
 70
   160
 71
     5
 42
-1.0
  3
INABA_S50G
100
AcDbAlignedDimension
 13
12072.82958360308
 23
3140.0
 33
0.0
 14
12022.82958360308
 24
3275.0
 34
0.0
100
AcDbRotatedDimension
  0
LINE
  5
1CAE3
330
747D
100
AcDbEntity
  8
部品1
 62
     2
 48
50.0
100
AcDbLine
 10
12072.82958360308
 20
3275.0
 30
0.0
 11
12022.82958360308
 21
3275.0
 31
0.0
  0
LINE
  5
1CAFA
330
747D
100
AcDbEntity
  8
部品1
 48
50.0
100
AcDbLine
 10
12704.82958141816
 20
10493.73679736229
 30
0.0
 11
12704.82958141816
 21
10478.73679736229
 31
0.0
  0
LINE
  5
1CAFB
330
747D
100
AcDbEntity
  8
部品1
 48
50.0
100
AcDbLine
 10
12722.82958141816
 20
10493.73679736229
 30
0.0
 11
12722.82958141817
 21
10528.73679736229
 31
0.0
  0
LINE
  5
1CAFC
330
747D
100
AcDbEntity
  8
部品1
 48
50.0
100
AcDbLine
 10
12740.82958141816
 20
10493.73679736229
 30
0.0
 11
12740.82958141816
 21
10478.73679736229
 31
0.0
  0
MTEXT
  5
1CCE0
102
{ACAD_REACTORS
330
1CCE1
102
}
330
747D
100
AcDbEntity
  8
寸法
 62
     7
 48
50.0
100
AcDbMText
 10
7595.143168490203
 20
10535.24827682972
 30
0.0
 40
150.0
 41
0.0
 71
     4
 72
     1
  1
\A1;ガラス窓
  7
STYLE1
 73
     1
 44
1.0
  0
LEADER
  5
1CCE1
330
747D
100
AcDbEntity
  8
寸法
 48
50.0
100
AcDbLeader
  3
INABA_S50G
 71
     0
 73
     0
 74
     0
 75
     1
 40
150.0
 41
709.9999999999998
 76
     3
 10
7295.193960732793
 20
10722.90582485964
 30
0.0
 10
7445.143168490203
 20
10435.24827682972
 30
0.0
 10
7570.143168490203
 20
10435.24827682972
 30
0.0
340
1CCE0
1001
ACAD
1000
DSTYLE
1002
{
1070
     6
1000
DOTSMALL
1002
}
  0
DIMENSION
  5
1CCE2
330
747D
100
AcDbEntity
  8
寸法
 48
50.0
100
AcDbDimension
  2
*D43
 10
8521.033355093791
 20
11218.73679736192
 30
0.0
 11
8421.03335509379
 21
10683.73679736192
 31
0.0
 70
    32
 71
     5
 42
-1.0
  3
INABA_S50G
100
AcDbAlignedDimension
 13
7302.829581418174
 23
10148.73679736192
 33
0.0
 14
7302.829581418167
 24
11218.73679736192
 34
0.0
 50
90.0
100
AcDbRotatedDimension
1001
ACAD
1000
DSTYLE
1002
{
1070
   287
1070
     4
1070
    75
1070
     1
1070
   279
1070
     1
1002
}
  0
DIMENSION
  5
1CCE3
330
747D
100
AcDbEntity
  8
寸法
 48
50.0
100
AcDbDimension
  2
*D44
 10
8521.033355093791
 20
10148.73679736192
 30
0.0
 11
8421.033355093792
 21
9756.236797361928
 31
0.0
 70
    32
 71
     5
 42
-1.0
  3
INABA_S50G
100
AcDbAlignedDimension
 13
7302.829581418174
 23
9363.736797361928
 33
0.0
 14
7302.829581418174
 24
10148.73679736192
 34
0.0
 50
90.0
100
AcDbRotatedDimension
  0
LINE
  5
1CCE4
330
747D
100
AcDbEntity
  8
細線
 48
50.0
100
AcDbLine
 10
7311.329581418168
 20
11198.73679736192
 30
0.0
 11
7302.329581418168
 21
11200.73679736192
 31
0.0
  0
LINE
  5
1CCE5
330
747D
100
AcDbEntity
  8
細線
 48
50.0
100
AcDbLine
 10
7311.329581418182
 20
10162.73679736192
 30
0.0
 11
7271.029581418172
 21
10162.73679736192
 31
0.0
  0
LINE
  5
1CCE6
330
747D
100
AcDbEntity
  8
細線
 48
50.0
100
AcDbLine
 10
7302.829581418182
 20
10171.63679736192
 30
0.0
 11
7311.329581418168
 21
10171.63679736192
 31
0.0
  0
LINE
  5
1CCE7
330
747D
100
AcDbEntity
  8
部品1
 48
50.0
100
AcDbLine
 10
7302.758011447082
 20
11503.58340662485
 30
0.0
 11
7404.748646188628
 21
11505.20571554934
 31
0.0
  0
LINE
  5
1CCE8
330
747D
100
AcDbEntity
  8
細線
 48
50.0
100
AcDbLine
 10
7302.829581418182
 20
11499.08397580094
 30
0.0
 11
7407.819836709006
 21
11500.75399803949
 31
0.0
  0
MTEXT
  5
1CCE9
102
{ACAD_REACTORS
330
1CCEA
102
}
330
747D
100
AcDbEntity
  8
寸法
 62
     7
 48
50.0
100
AcDbMText
 10
7668.978774274268
 20
11097.85083762996
 30
0.0
 40
150.0
 41
0.0
 71
     4
 72
     1
  1
\A1;桁前
  7
STYLE1
 73
     1
 44
1.0
  0
LEADER
  5
1CCEA
330
747D
100
AcDbEntity
  8
寸法
 48
50.0
100
AcDbLeader
  3
INABA_S50G
 71
     0
 73
     0
 74
     0
 75
     1
 40
150.0
 41
337.5
 76
     3
 10
7302.829581418174
 20
11430.44622311194
 30
0.0
 10
7518.978774274268
 20
10997.85083762996
 30
0.0
 10
7643.978774274268
 20
10997.85083762996
 30
0.0
340
1CCE9
1001
ACAD
1000
DSTYLE
1002
{
1070
     6
1000
DOTSMALL
1002
}
  0
DIMENSION
  5
1CCEB
330
747D
100
AcDbEntity
  8
寸法
 48
50.0
100
AcDbDimension
  2
*D45
 10
7302.829581418174
 20
12327.01792807845
 30
0.0
 11
7720.388636536291
 21
12327.01792807845
 31
0.0
 70
   160
 71
     5
 42
-1.0
  3
INABA_S50G
100
AcDbAlignedDimension
 13
7437.829581418175
 23
11633.73679736192
 33
0.0
 14
7302.829581418174
 24
11631.29728927304
 34
0.0
100
AcDbRotatedDimension
  0
DIMENSION
  5
1CCEC
330
747D
100
AcDbEntity
  8
寸法
 48
50.0
100
AcDbDimension
  2
*D46
 10
8853.235356238895
 20
9363.736797361928
 30
0.0
 11
8853.235356238895
 21
9108.672248427685
 31
0.0
 70
   160
 71
     5
 42
-1.0
  3
INABA_S50G
100
AcDbAlignedDimension
 13
8521.033355093798
 23
9418.736797361928
 33
0.0
 14
7302.829581418174
 24
9363.736797361928
 34
0.0
 50
270.0
100
AcDbRotatedDimension
  0
LINE
  5
1CCED
330
747D
100
AcDbEntity
  8
部品1
 48
50.0
100
AcDbLine
 10
7371.829581418174
 20
9028.736797361927
 30
0.0
 11
7171.829581418174
 21
9028.736797361927
 31
0.0
  0
LINE
  5
1CCEE
330
747D
100
AcDbEntity
  8
細線
 48
50.0
100
AcDbLine
 10
7371.829581418174
 20
9108.510741278385
 30
0.0
 11
7251.60352533464
 21
9228.736797361928
 31
0.0
  0
LINE
  5
1CCEF
330
747D
100
AcDbEntity
  8
細線
 48
50.0
100
AcDbLine
 10
7371.829581418174
 20
9135.02724557288
 30
0.0
 11
7278.120029629111
 21
9228.736797361928
 31
0.0
  0
LINE
  5
1CCF0
330
747D
100
AcDbEntity
  8
細線
 48
50.0
100
AcDbLine
 10
7371.829581418167
 20
9081.994236983884
 30
0.0
 11
7225.087021040145
 21
9228.736797361928
 31
0.0
  0
LINE
  5
1CCF1
330
747D
100
AcDbEntity
  8
細線
 48
50.0
100
AcDbLine
 10
7328.120029629118
 20
9028.736797361927
 30
0.0
 11
7171.829581418174
 21
9185.02724557288
 31
0.0
  0
DIMENSION
  5
1CCF2
330
747D
100
AcDbEntity
  8
寸法
 48
50.0
100
AcDbDimension
  2
*D47
 10
9187.490021403354
 20
9363.736797361928
 30
0.0
 11
9087.475257623827
 21
10498.73679736192
 31
0.0
 70
    32
 71
     5
 42
-1.0
  3
INABA_S50G
100
AcDbAlignedDimension
 13
7437.829581418182
 23
11633.73679736192
 33
0.0
 14
7302.829581418174
 24
9363.736797361928
 34
0.0
 50
270.0
100
AcDbRotatedDimension
  0
DIMENSION
  5
1CCF3
330
747D
100
AcDbEntity
  8
寸法
 48
50.0
100
AcDbDimension
  2
*D48
 10
8853.235356238895
 20
9418.736797361928
 30
0.0
 11
8753.235356238894
 21
10391.23679736192
 31
0.0
 70
    32
 71
     5
 42
-1.0
  3
INABA_S50G
100
AcDbAlignedDimension
 13
7302.829581418174
 23
11363.73679736192
 33
0.0
 14
8521.033355093798
 24
9418.736797361928
 34
0.0
 50
270.0
100
AcDbRotatedDimension
  0
MTEXT
  5
1CCF4
102
{ACAD_REACTORS
330
1CCF5
102
}
330
747D
100
AcDbEntity
  8
部品1
 62
     7
 48
50.0
100
AcDbMText
 10
7358.217536951079
 20
8716.282041753688
 30
0.0
 40
150.0
 41
0.0
 71
     4
 72
     1
  1
\A1;ジョイントカバー
  7
STYLE1
 73
     1
 44
1.0
  0
LEADER
  5
1CCF5
330
747D
100
AcDbEntity
  8
寸法
 48
50.0
100
AcDbLeader
  3
INABA_S50G
 71
     0
 73
     0
 74
     0
 75
     1
 40
150.0
 41
1397.5
 76
     3
 10
6654.646534488754
 20
9547.434887568462
 30
0.0
 10
7208.217536951079
 20
8616.282041753688
 30
0.0
 10
7333.217536951079
 20
8616.282041753688
 30
0.0
340
1CCF4
1001
ACAD
1000
DSTYLE
1002
{
1070
     6
1000
DOTSMALL
1002
}
  0
INSERT
  5
1CCF6
330
747D
100
AcDbEntity
  8
部品1
 48
50.0
100
AcDbBlockReference
  2
A$C1453373C
 10
7411.235406458797
 20
11589.42243460039
 30
0.0
 41
-1.0
 50
4.391595288747645
  0
LINE
  5
1CCF7
330
747D
100
AcDbEntity
  8
部品1
 48
50.0
100
AcDbLine
 10
7408.313373122116
 20
11633.20342677754
 30
0.0
 11
5933.156550223035
 21
11575.10415954439
 31
0.0
  0
DIMENSION
  5
1CCF8
330
747D
100
AcDbEntity
  8
寸法
 48
50.0
100
AcDbDimension
  2
*D49
 10
6002.829581418175
 20
12327.01792807844
 30
0.0
 11
6652.829581418174
 21
12427.01792807844
 31
0.0
 70
    32
  1
柱外寸法 <>
 71
     5
 42
-1.0
  3
INABA_S50G
100
AcDbAlignedDimension
 13
7302.829581418174
 23
11588.73679736192
 33
0.0
 14
6002.829581418175
 24
11576.36318119755
 34
0.0
100
AcDbRotatedDimension
1001
ACAD
1000
DSTYLE
1002
{
1070
   287
1070
     4
1070
    75
1070
     1
1070
   279
1070
     1
1002
}
  0
DIMENSION
  5
1CCF9
330
747D
100
AcDbEntity
  8
寸法
 48
50.0
100
AcDbDimension
  2
*D50
 10
5907.829581418175
 20
12643.1736988701
 30
0.0
 11
6672.829581418175
 21
12743.1736988701
 31
0.0
 70
    32
 71
     5
 42
-1.0
  3
INABA_S50G
100
AcDbAlignedDimension
 13
7437.829581418175
 23
11633.73679736192
 33
0.0
 14
5907.829581418175
 24
11573.73679736192
 34
0.0
100
AcDbRotatedDimension
  0
LINE
  5
1CCFA
330
747D
100
AcDbEntity
  8
Ｇ．Ｌ
 48
50.0
100
AcDbLine
 10
9346.665069391674
 20
9228.736797361928
 30
0.0
 11
4218.887401127778
 21
9228.736797361928
 31
0.0
  0
MTEXT
  5
1CCFB
102
{ACAD_REACTORS
330
1CDB8
102
}
330
747D
100
AcDbEntity
  8
寸法
 62
     7
 48
50.0
100
AcDbMText
 10
6373.493652724222
 20
11769.97550872411
 30
0.0
 40
150.0
 41
0.0
 71
     6
 72
     1
  1
\A1;妻板
  7
STYLE1
 73
     1
 44
1.0
  0
MTEXT
  5
1CCFC
102
{ACAD_REACTORS
330
1CCFD
102
}
330
747D
100
AcDbEntity
  8
寸法
 62
     7
 48
50.0
100
AcDbMText
 10
5257.416291219712
 20
11900.91283849599
 30
0.0
 40
150.0
 41
0.0
 71
     6
 72
     1
  1
\A1;鼻隠シ後
  7
STYLE1
 73
     1
 44
1.0
  0
LEADER
  5
1CCFD
330
747D
100
AcDbEntity
  8
寸法
 48
50.0
100
AcDbLeader
  3
INABA_S50G
 71
     0
 73
     0
 75
     1
 40
150.0
 41
719.9999999999995
 76
     3
 10
5911.637200176605
 20
11559.39745668354
 30
0.0
 10
5407.416291219711
 20
11800.91283849599
 30
0.0
 10
5282.416291219711
 20
11800.91283849599
 30
0.0
340
1CCFC
1001
ACAD
1000
DSTYLE
1002
{
1070
     6
1000
DOTSMALL
1002
}
  0
DIMENSION
  5
1CCFE
330
747D
100
AcDbEntity
  8
寸法
 48
50.0
100
AcDbDimension
  2
*D51
 10
5907.829581418175
 20
12327.01792807844
 30
0.0
 11
5575.270526300066
 21
12327.01792807844
 31
0.0
 70
   160
 71
     5
 42
-1.0
  3
INABA_S50G
100
AcDbAlignedDimension
 13
6002.829581418175
 23
11576.36318119755
 33
0.0
 14
5907.829581418175
 24
11573.73679736192
 34
0.0
100
AcDbRotatedDimension
1001
ACAD
1000
DSTYLE
1002
{
1002
}
  0
MTEXT
  5
1CCFF
102
{ACAD_REACTORS
330
1CD00
102
}
330
747D
100
AcDbEntity
  8
寸法
 62
     7
 48
50.0
100
AcDbMText
 10
6769.979632766428
 20
11982.91803361001
 30
0.0
 40
150.0
 41
0.0
 71
     6
 72
     1
  1
\A1;母屋中
  7
STYLE1
 73
     1
 44
1.0
  0
LEADER
  5
1CD00
330
747D
100
AcDbEntity
  8
寸法
 48
50.0
100
AcDbLeader
  3
INABA_S50G
 71
     0
 73
     0
 75
     1
 40
150.0
 41
540.0000000000002
 76
     3
 10
6677.829581418174
 20
11463.48679736192
 30
0.0
 10
6919.979632766429
 20
11882.91803361001
 30
0.0
 10
6794.979632766429
 20
11882.91803361001
 30
0.0
340
1CCFF
1001
ACAD
1000
DSTYLE
1002
{
1070
     6
1000
DOTSMALL
1002
}
  0
MTEXT
  5
1CD01
102
{ACAD_REACTORS
330
1CD02
102
}
330
747D
100
AcDbEntity
  8
部品1
 62
     7
 48
50.0
100
AcDbMText
 10
6957.020731453178
 20
12211.7317447396
 30
0.0
 40
150.0
 41
0.0
 71
     6
 72
     1
  1
\A1;屋根パネル
  7
STYLE1
 73
     1
 44
1.0
  0
LEADER
  5
1CD02
330
747D
100
AcDbEntity
  8
寸法
 48
50.0
100
AcDbLeader
  3
INABA_S50G
 71
     0
 73
     0
 75
     1
 40
150.0
 41
900.0
 76
     3
 10
7222.281674353062
 20
11600.03473650936
 30
0.0
 10
7107.020731453179
 20
12111.7317447396
 30
0.0
 10
6982.020731453179
 20
12111.7317447396
 30
0.0
340
1CD01
1001
ACAD
1000
DSTYLE
1002
{
1070
     6
1000
DOTSMALL
1002
}
  0
MTEXT
  5
1CD03
102
{ACAD_REACTORS
330
1CD04
102
}
330
747D
100
AcDbEntity
  8
部品1
 62
     7
 48
50.0
100
AcDbMText
 10
6711.063726069709
 20
8716.282041753688
 30
0.0
 40
150.0
 41
0.0
 71
     4
 72
     1
  1
\A1;根太
  7
STYLE1
 73
     1
 44
1.0
  0
LEADER
  5
1CD04
330
747D
100
AcDbEntity
  8
寸法
 48
50.0
100
AcDbLeader
  3
INABA_S50G
 71
     0
 73
     0
 74
     0
 75
     1
 40
150.0
 41
330.0
 76
     3
 10
6382.829581418182
 20
9382.720225286986
 30
0.0
 10
6561.063726069709
 20
8616.282041753688
 30
0.0
 10
6686.063726069709
 20
8616.282041753688
 30
0.0
340
1CD03
1001
ACAD
1000
DSTYLE
1002
{
1070
     6
1000
DOTSMALL
1002
}
  0
MTEXT
  5
1CD05
102
{ACAD_REACTORS
330
1CD06
102
}
330
747D
100
AcDbEntity
  8
部品1
 62
     7
 48
50.0
100
AcDbMText
 10
6069.090608568846
 20
8716.282041753681
 30
0.0
 40
150.0
 41
0.0
 71
     6
 72
     1
  1
\A1;土台中央
  7
STYLE1
 73
     1
 44
1.0
  0
LEADER
  5
1CD06
330
747D
100
AcDbEntity
  8
寸法
 48
50.0
100
AcDbLeader
  3
INABA_S50G
 71
     0
 73
     0
 75
     1
 40
150.0
 41
720.0000000000003
 76
     3
 10
6298.208235103046
 20
9382.720225286979
 30
0.0
 10
6219.090608568846
 20
8616.282041753681
 30
0.0
 10
6094.090608568846
 20
8616.282041753681
 30
0.0
340
1CD05
1001
ACAD
1000
DSTYLE
1002
{
1070
     6
1000
DOTSMALL
1002
}
  0
LINE
  5
1CD07
330
747D
100
AcDbEntity
  8
部品1
100
AcDbLine
 10
7289.05513660854
 20
7709.831477053232
 30
0.0
 11
6016.60402622781
 21
7709.831477053232
 31
0.0
  0
LINE
  5
1CD08
330
747D
100
AcDbEntity
  8
部品1
100
AcDbLine
 10
6016.60402622781
 20
7310.010941144016
 30
0.0
 11
7289.05513660854
 21
7310.010941144016
 31
0.0
  0
LINE
  5
1CD09
330
747D
100
AcDbEntity
  8
部品1
100
AcDbLine
 10
6016.60402622781
 20
7709.831477053232
 30
0.0
 11
6016.60402622781
 21
7310.010941144016
 31
0.0
  0
TEXT
  5
1CD0A
330
747D
100
AcDbEntity
  8
部品1
100
AcDbText
 10
6179.958551528769
 20
7390.921243748748
 30
0.0
 40
225.0
  1
断面図
  7
STYLE2
100
AcDbText
  0
LINE
  5
1CD0B
330
747D
100
AcDbEntity
  8
部品1
100
AcDbLine
 10
7289.05513660854
 20
7310.010941144016
 30
0.0
 11
7289.05513660854
 21
7709.831477053232
 31
0.0
  0
DIMENSION
  5
1CD0C
330
747D
100
AcDbEntity
  8
寸法
 48
50.0
100
AcDbDimension
  2
*D52
 10
4378.587517088183
 20
11573.73679736192
 30
0.0
 11
4278.572753308655
 21
10468.73679736192
 31
0.0
 70
    32
 71
     5
 42
-1.0
  3
INABA_S50G
100
AcDbAlignedDimension
 13
6002.829581418175
 23
9363.736797361928
 33
0.0
 14
5907.829581418175
 24
11573.73679736192
 34
0.0
 50
270.0
100
AcDbRotatedDimension
  0
DIMENSION
  5
1CD0D
330
747D
100
AcDbEntity
  8
寸法
 48
50.0
100
AcDbDimension
  2
*D53
 10
4691.549246176573
 20
11390.73679736192
 30
0.0
 11
4591.549246176573
 21
10410.73679736192
 31
0.0
 70
    32
  1
内高 <>
 71
     5
 42
-1.0
  3
INABA_S50G
100
AcDbAlignedDimension
 13
6038.329581418174
 23
9430.736797361928
 33
0.0
 14
6002.829581418175
 24
11390.73679736192
 34
0.0
 50
270.0
100
AcDbRotatedDimension
  0
MTEXT
  5
1CD0E
102
{ACAD_REACTORS
330
1CD79
102
}
330
747D
100
AcDbEntity
  8
寸法
 62
     7
 48
50.0
100
AcDbMText
 10
7061.391372236785
 20
10202.5518772182
 30
0.0
 40
150.0
 41
0.0
 71
     6
 72
     1
  1
\A1;額縁
  7
STYLE1
 73
     1
 44
1.0
  0
LINE
  5
1CD0F
330
747D
100
AcDbEntity
  8
細線
 48
50.0
100
AcDbLine
 10
7246.079581418161
 20
10191.73679736194
 30
0.0
 11
7246.079581418168
 21
11179.23679736193
 31
0.0
  0
LINE
  5
1CD10
330
747D
100
AcDbEntity
  8
細線
 48
50.0
100
AcDbLine
 10
7270.579581418153
 20
10191.73679736194
 30
0.0
 11
7270.579581418196
 21
11179.23679736193
 31
0.0
  0
LINE
  5
1CD11
330
747D
100
AcDbEntity
  8
細線
 48
50.0
100
AcDbLine
 10
7280.129581418179
 20
10191.73679736192
 30
0.0
 11
7280.129581418186
 21
11179.23679736191
 31
0.0
  0
LINE
  5
1CD12
330
747D
100
AcDbEntity
  8
細線
 48
50.0
100
AcDbLine
 10
7303.12958141817
 20
10191.73679736192
 30
0.0
 11
7303.129581418215
 21
11179.23679736191
 31
0.0
  0
LINE
  5
1CD13
330
747D
100
AcDbEntity
  8
部品1
 48
50.0
100
AcDbLine
 10
7216.329581418175
 20
11367.5946617382
 30
0.0
 11
7216.329581418175
 21
9470.736797361928
 31
0.0
  0
MTEXT
  5
1CD14
102
{ACAD_REACTORS
330
1CD15
102
}
330
747D
100
AcDbEntity
  8
寸法
 62
     7
 48
50.0
100
AcDbMText
 10
5753.436727685736
 20
10508.2825284004
 30
0.0
 40
150.0
 41
0.0
 71
     6
 72
     1
  1
\A1;壁パネル
  7
STYLE1
 73
     1
 44
1.0
  0
LEADER
  5
1CD15
330
747D
100
AcDbEntity
  8
寸法
 48
50.0
100
AcDbLeader
  3
INABA_S50G
 71
     0
 73
     0
 75
     1
 40
150.0
 41
719.9999999999999
 76
     3
 10
6021.297871013992
 20
10204.29303103481
 30
0.0
 10
5903.436727685736
 20
10408.2825284004
 30
0.0
 10
5778.436727685736
 20
10408.2825284004
 30
0.0
340
1CD14
1001
ACAD
1000
DSTYLE
1002
{
1070
     6
1000
DOTSMALL
1002
}
  0
LINE
  5
1CD16
330
747D
100
AcDbEntity
  8
部品1
 48
50.0
100
AcDbLine
 10
6002.829581418175
 20
11473.73679736192
 30
0.0
 11
6002.829581418175
 21
9418.736797361928
 31
0.0
  0
LINE
  5
1CD17
330
747D
100
AcDbEntity
  8
部品1
 48
50.0
100
AcDbLine
 10
6670.829581418175
 20
11063.08847168107
 30
0.0
 11
6670.829581418175
 21
9470.736797361928
 31
0.0
  0
LINE
  5
1CD18
330
747D
100
AcDbEntity
  8
部品1
 48
50.0
100
AcDbLine
 10
6634.829581418175
 20
11063.08847168107
 30
0.0
 11
6634.829581418175
 21
9470.736797361928
 31
0.0
  0
LINE
  5
1CD19
330
747D
100
AcDbEntity
  8
部品1
 48
50.0
100
AcDbLine
 10
6089.329581418175
 20
11367.5946617382
 30
0.0
 11
6089.329581418175
 21
9470.736797361928
 31
0.0
  0
LINE
  5
1CD1A
330
747D
100
AcDbEntity
  8
部品1
 48
50.0
100
AcDbLine
 10
6053.329581418175
 20
11378.73679736192
 30
0.0
 11
6053.329581418175
 21
9430.736797361928
 31
0.0
  0
LINE
  5
1CD1B
330
747D
100
AcDbEntity
  8
細線
 48
50.0
100
AcDbLine
 10
6037.829581418175
 20
11378.73679736192
 30
0.0
 11
6037.829581418175
 21
9418.736797361928
 31
0.0
  0
MTEXT
  5
1CD1C
102
{ACAD_REACTORS
330
1CD1D
102
}
330
747D
100
AcDbEntity
  8
寸法
 62
     7
 48
50.0
100
AcDbMText
 10
5775.808550308871
 20
10099.22034129155
 30
0.0
 40
150.0
 41
0.0
 71
     6
 72
     1
  1
\A1;内壁
  7
STYLE1
 73
     1
 44
1.0
  0
LEADER
  5
1CD1D
330
747D
100
AcDbEntity
  8
寸法
 48
50.0
100
AcDbLeader
  3
INABA_S50G
 71
     0
 73
     0
 75
     1
 40
150.0
 41
320.0
 76
     3
 10
6046.262048626463
 20
9795.230843925967
 30
0.0
 10
5925.808550308872
 20
9999.22034129155
 30
0.0
 10
5800.808550308872
 20
9999.22034129155
 30
0.0
340
1CD1C
1001
ACAD
1000
DSTYLE
1002
{
1070
     6
1000
DOTSMALL
1002
}
  0
LINE
  5
1CD1E
330
747D
100
AcDbEntity
  8
部品1
 48
50.0
100
AcDbLine
 10
6002.829581418175
 20
9418.736797361928
 30
0.0
 11
6038.329581418174
 21
9418.736797361928
 31
0.0
  0
LINE
  5
1CD1F
330
747D
100
AcDbEntity
  8
細線
 48
50.0
100
AcDbLine
 10
6002.829581418175
 20
9276.010741278385
 30
0.0
 11
6090.555637501717
 21
9363.736797361928
 31
0.0
  0
LINE
  5
1CD20
330
747D
100
AcDbEntity
  8
細線
 48
50.0
100
AcDbLine
 10
6002.829581418175
 20
9302.52724557288
 30
0.0
 11
6064.039133207231
 21
9363.736797361928
 31
0.0
  0
LINE
  5
1CD21
330
747D
100
AcDbEntity
  8
破線
 48
3.0
100
AcDbLine
 10
6054.829581418175
 20
9122.736797361929
 30
0.0
 11
6012.829581418174
 21
9122.736797361929
 31
0.0
  0
LINE
  5
1CD22
330
747D
100
AcDbEntity
  8
細線
 48
50.0
100
AcDbLine
 10
6063.603525334626
 20
9028.736797361927
 30
0.0
 11
5933.829581418175
 21
9158.510741278385
 31
0.0
  0
LINE
  5
1CD23
330
747D
100
AcDbEntity
  8
細線
 48
50.0
100
AcDbLine
 10
6037.087021040124
 20
9028.736797361927
 30
0.0
 11
5933.829581418175
 21
9131.994236983883
 31
0.0
  0
LINE
  5
1CD24
330
747D
100
AcDbEntity
  8
部品1
 48
50.0
100
AcDbLine
 10
6133.829581418175
 20
9028.736797361927
 30
0.0
 11
5933.829581418175
 21
9028.736797361927
 31
0.0
  0
LINE
  5
1CD25
330
747D
100
AcDbEntity
  8
細線
 48
50.0
100
AcDbLine
 10
6090.120029629119
 20
9028.736797361927
 30
0.0
 11
5933.829581418175
 21
9185.02724557288
 31
0.0
  0
LINE
  5
1CD26
330
747D
100
AcDbEntity
  8
細線
 48
50.0
100
AcDbLine
 10
6133.829581418168
 20
9081.994236983884
 30
0.0
 11
5987.087021040146
 21
9228.736797361928
 31
0.0
  0
LINE
  5
1CD27
330
747D
100
AcDbEntity
  8
細線
 48
50.0
100
AcDbLine
 10
6133.829581418175
 20
9108.510741278385
 30
0.0
 11
6013.60352533464
 21
9228.736797361928
 31
0.0
  0
LINE
  5
1CD28
330
747D
100
AcDbEntity
  8
部品1
 48
50.0
100
AcDbLine
 10
7302.829581418174
 20
9363.736797361928
 30
0.0
 11
6002.829581418175
 21
9363.736797361928
 31
0.0
  0
MTEXT
  5
1CD29
102
{ACAD_REACTORS
330
1CD2A
102
}
330
747D
100
AcDbEntity
  8
寸法
 62
     7
 48
50.0
100
AcDbMText
 10
5668.442711368499
 20
9692.226294727511
 30
0.0
 40
150.0
 41
0.0
 71
     6
 72
     1
  1
\A1;土台前後
  7
STYLE1
 73
     1
 44
1.0
  0
LEADER
  5
1CD2A
330
747D
100
AcDbEntity
  8
寸法
 48
50.0
100
AcDbLeader
  3
INABA_S50G
 71
     0
 73
     0
 75
     1
 40
150.0
 41
719.9999999999995
 76
     3
 10
6002.829581418175
 20
9388.236797361928
 30
0.0
 10
5818.4427113685
 20
9592.22629472751
 30
0.0
 10
5693.4427113685
 20
9592.22629472751
 30
0.0
340
1CD29
1001
ACAD
1000
DSTYLE
1002
{
1070
     6
1000
DOTSMALL
1002
}
  0
LINE
  5
1CD2B
330
747D
100
AcDbEntity
  8
部品1
 48
50.0
100
AcDbLine
 10
6002.829581418175
 20
9363.736797361928
 30
0.0
 11
6002.829581418175
 21
9228.736797361928
 31
0.0
  0
LINE
  5
1CD2C
330
747D
100
AcDbEntity
  8
部品1
 48
50.0
100
AcDbLine
 10
6002.829581418175
 20
9412.736797361928
 30
0.0
 11
6002.829581418175
 21
9363.736797361928
 31
0.0
  0
LINE
  5
1CD2D
330
747D
100
AcDbEntity
  8
部品1
 48
50.0
100
AcDbLine
 10
6008.829581418175
 20
9412.736797361928
 30
0.0
 11
6008.829581418175
 21
9418.736797361928
 31
0.0
  0
LINE
  5
1CD2E
330
747D
100
AcDbEntity
  8
部品1
 48
50.0
100
AcDbLine
 10
6002.829581418175
 20
9412.736797361928
 30
0.0
 11
6008.829581418175
 21
9412.736797361928
 31
0.0
  0
LINE
  5
1CD2F
330
747D
100
AcDbEntity
  8
部品1
 48
50.0
100
AcDbLine
 10
5933.829581418175
 20
9028.736797361927
 30
0.0
 11
5933.829581418175
 21
9228.736797361928
 31
0.0
  0
LINE
  5
1CD30
330
747D
100
AcDbEntity
  8
破線
 48
3.0
100
AcDbLine
 10
6012.829581418174
 20
9228.736797361928
 30
0.0
 11
6012.829581418174
 21
9122.736797361929
 31
0.0
  0
LINE
  5
1CD31
330
747D
100
AcDbEntity
  8
部品1
 48
50.0
100
AcDbLine
 10
7302.829581418174
 20
10148.73679736192
 30
0.0
 11
7302.829581418174
 21
9418.736797361928
 31
0.0
  0
LINE
  5
1CD32
330
747D
100
AcDbEntity
  8
細線
 48
50.0
100
AcDbLine
 10
7267.829581418168
 20
10148.73679736192
 30
0.0
 11
7267.829581418175
 21
9418.736797361928
 31
0.0
  0
LINE
  5
1CD33
330
747D
100
AcDbEntity
  8
部品1
 48
50.0
100
AcDbLine
 10
7252.329581418168
 20
10148.73679736192
 30
0.0
 11
7252.329581418175
 21
9430.736797361928
 31
0.0
  0
LINE
  5
1CD34
330
747D
100
AcDbEntity
  8
部品1
 48
50.0
100
AcDbLine
 10
7243.329581418175
 20
9470.736797361928
 30
0.0
 11
7243.329581418175
 21
9430.736797361928
 31
0.0
  0
LINE
  5
1CD35
330
747D
100
AcDbEntity
  8
部品1
 48
50.0
100
AcDbLine
 10
6062.329581418183
 20
9470.736797361928
 30
0.0
 11
6062.329581418183
 21
9430.736797361928
 31
0.0
  0
MTEXT
  5
1CD36
102
{ACAD_REACTORS
330
1CD37
102
}
330
747D
100
AcDbEntity
  8
部品1
 62
     7
 48
50.0
100
AcDbMText
 10
6276.830712539659
 20
9656.775787169822
 30
0.0
 40
150.0
 41
0.0
 71
     4
 72
     1
  1
\A1;床板
  7
STYLE1
 73
     1
 44
1.0
  0
LEADER
  5
1CD37
330
747D
100
AcDbEntity
  8
寸法
 48
50.0
100
AcDbLeader
  3
INABA_S50G
 71
     0
 73
     0
 74
     0
 75
     1
 40
150.0
 41
319.9999999999999
 76
     3
 10
6181.847390148735
 20
9425.668860537934
 30
0.0
 10
6126.830712539659
 20
9556.775787169822
 30
0.0
 10
6251.830712539659
 20
9556.775787169822
 30
0.0
340
1CD36
1001
ACAD
1000
DSTYLE
1002
{
1070
     6
1000
DOTSMALL
1002
}
  0
MTEXT
  5
1CD38
102
{ACAD_REACTORS
330
1CD39
102
}
330
747D
100
AcDbEntity
  8
寸法
 62
     7
 48
50.0
100
AcDbMText
 10
7030.133267264128
 20
9701.080712269252
 30
0.0
 40
150.0
 41
0.0
 71
     6
 72
     1
  1
\A1;巾木
  7
STYLE1
 73
     1
 44
1.0
  0
LEADER
  5
1CD39
330
747D
100
AcDbEntity
  8
寸法
 48
50.0
100
AcDbLeader
  3
INABA_S50G
 71
     0
 73
     0
 75
     1
 40
150.0
 41
310.0
 76
     3
 10
7243.329581418175
 20
9455.070269982718
 30
0.0
 10
7180.133267264128
 20
9601.080712269251
 30
0.0
 10
7055.133267264128
 20
9601.080712269251
 30
0.0
340
1CD38
1001
ACAD
1000
DSTYLE
1002
{
1070
     6
1000
DOTSMALL
1002
}
  0
LINE
  5
1CD3A
330
747D
100
AcDbEntity
  8
部品1
 48
50.0
100
AcDbLine
 10
6672.829581418182
 20
9418.736797361928
 30
0.0
 11
6666.829581418181
 21
9418.736797361928
 31
0.0
  0
LINE
  5
1CD3B
330
747D
100
AcDbEntity
  8
細線
 48
50.0
100
AcDbLine
 10
6053.329581418175
 20
9418.736797361928
 30
0.0
 11
7252.329581418175
 21
9418.736797361928
 31
0.0
  0
LINE
  5
1CD3C
330
747D
100
AcDbEntity
  8
細線
 48
50.0
100
AcDbLine
 10
7252.329581418175
 20
9430.736797361928
 30
0.0
 11
6053.329581418175
 21
9430.736797361928
 31
0.0
  0
LINE
  5
1CD3D
330
747D
100
AcDbEntity
  8
部品1
 48
50.0
100
AcDbLine
 10
6638.829581418182
 20
9418.736797361928
 30
0.0
 11
6632.829581418182
 21
9418.736797361928
 31
0.0
  0
LINE
  5
1CD3E
330
747D
100
AcDbEntity
  8
部品1
 48
50.0
100
AcDbLine
 10
6666.829581418181
 20
9412.736797361928
 30
0.0
 11
6638.829581418182
 21
9412.736797361928
 31
0.0
  0
LINE
  5
1CD3F
330
747D
100
AcDbEntity
  8
部品1
 48
50.0
100
AcDbLine
 10
6638.829581418182
 20
9418.736797361928
 30
0.0
 11
6638.829581418182
 21
9412.736797361928
 31
0.0
  0
LINE
  5
1CD40
330
747D
100
AcDbEntity
  8
部品1
 48
50.0
100
AcDbLine
 10
6666.829581418181
 20
9412.736797361928
 30
0.0
 11
6666.829581418181
 21
9418.736797361928
 31
0.0
  0
LINE
  5
1CD41
330
747D
100
AcDbEntity
  8
部品1
 48
50.0
100
AcDbLine
 10
6632.829581418182
 20
9418.736797361928
 30
0.0
 11
6632.829581418182
 21
9363.736797361928
 31
0.0
  0
LINE
  5
1CD42
330
747D
100
AcDbEntity
  8
部品1
 48
50.0
100
AcDbLine
 10
6202.829581418175
 20
9363.736797361928
 30
0.0
 11
6202.829581418175
 21
9228.736797361928
 31
0.0
  0
LINE
  5
1CD43
330
747D
100
AcDbEntity
  8
細線
 48
50.0
100
AcDbLine
 10
6079.03913320723
 20
9228.736797361928
 30
0.0
 11
6202.829581418175
 21
9352.527245572879
 31
0.0
  0
LINE
  5
1CD44
330
747D
100
AcDbEntity
  8
細線
 48
50.0
100
AcDbLine
 10
6105.555637501724
 20
9228.736797361928
 30
0.0
 11
6202.829581418175
 21
9326.010741278386
 31
0.0
  0
LINE
  5
1CD45
330
747D
100
AcDbEntity
  8
部品1
 48
50.0
100
AcDbLine
 10
6067.329581418174
 20
9411.736797361928
 30
0.0
 11
6091.329581418175
 21
9411.736797361928
 31
0.0
  0
LINE
  5
1CD46
330
747D
100
AcDbEntity
  8
部品1
 48
50.0
100
AcDbLine
 10
6091.329581418175
 20
9411.736797361928
 30
0.0
 11
6091.329581418175
 21
9363.736797361928
 31
0.0
  0
LINE
  5
1CD47
330
747D
100
AcDbEntity
  8
部品1
 48
50.0
100
AcDbLine
 10
6062.329581418183
 20
9430.736797361928
 30
0.0
 11
6053.329581418175
 21
9430.736797361928
 31
0.0
  0
LINE
  5
1CD48
330
747D
100
AcDbEntity
  8
部品1
 48
50.0
100
AcDbLine
 10
6067.329581418174
 20
9418.736797361928
 30
0.0
 11
6053.329581418175
 21
9418.736797361928
 31
0.0
  0
LINE
  5
1CD49
330
747D
100
AcDbEntity
  8
部品1
 48
50.0
100
AcDbLine
 10
6067.329581418174
 20
9418.736797361928
 30
0.0
 11
6067.329581418174
 21
9411.736797361928
 31
0.0
  0
LINE
  5
1CD4A
330
747D
100
AcDbEntity
  8
部品1
 48
50.0
100
AcDbLine
 10
6038.329581418174
 20
9418.736797361928
 30
0.0
 11
6038.329581418174
 21
9430.736797361928
 31
0.0
  0
LINE
  5
1CD4B
330
747D
100
AcDbEntity
  8
部品1
 48
50.0
100
AcDbLine
 10
6038.329581418174
 20
9430.736797361928
 30
0.0
 11
6053.329581418175
 21
9430.736797361928
 31
0.0
  0
LINE
  5
1CD4C
330
747D
100
AcDbEntity
  8
部品1
 48
50.0
100
AcDbLine
 10
6053.329581418175
 20
9430.736797361928
 30
0.0
 11
6053.329581418175
 21
9418.736797361928
 31
0.0
  0
LINE
  5
1CD4D
330
747D
100
AcDbEntity
  8
部品1
 48
50.0
100
AcDbLine
 10
6348.829581418182
 20
9418.736797361928
 30
0.0
 11
6342.829581418182
 21
9418.736797361928
 31
0.0
  0
LINE
  5
1CD4E
330
747D
100
AcDbEntity
  8
部品1
 48
50.0
100
AcDbLine
 10
6382.829581418182
 20
9418.736797361928
 30
0.0
 11
6376.829581418181
 21
9418.736797361928
 31
0.0
  0
LINE
  5
1CD4F
330
747D
100
AcDbEntity
  8
部品1
 48
50.0
100
AcDbLine
 10
6376.829581418181
 20
9412.736797361928
 30
0.0
 11
6348.829581418182
 21
9412.736797361928
 31
0.0
  0
LINE
  5
1CD50
330
747D
100
AcDbEntity
  8
部品1
 48
50.0
100
AcDbLine
 10
6348.829581418182
 20
9418.736797361928
 30
0.0
 11
6348.829581418182
 21
9412.736797361928
 31
0.0
  0
LINE
  5
1CD51
330
747D
100
AcDbEntity
  8
部品1
 48
50.0
100
AcDbLine
 10
6376.829581418181
 20
9412.736797361928
 30
0.0
 11
6376.829581418181
 21
9418.736797361928
 31
0.0
  0
LINE
  5
1CD52
330
747D
100
AcDbEntity
  8
部品1
 48
50.0
100
AcDbLine
 10
6342.829581418182
 20
9418.736797361928
 30
0.0
 11
6342.829581418182
 21
9363.736797361928
 31
0.0
  0
LINE
  5
1CD53
330
747D
100
AcDbEntity
  8
部品1
 48
50.0
100
AcDbLine
 10
6382.829581418182
 20
9363.736797361928
 30
0.0
 11
6382.829581418182
 21
9418.736797361928
 31
0.0
  0
LINE
  5
1CD54
330
747D
100
AcDbEntity
  8
破線
 48
3.0
100
AcDbLine
 10
6054.829581418175
 20
9228.736797361928
 30
0.0
 11
6054.829581418175
 21
9122.736797361929
 31
0.0
  0
LINE
  5
1CD55
330
747D
100
AcDbEntity
  8
部品1
 48
50.0
100
AcDbLine
 10
6133.829581418175
 20
9228.736797361928
 30
0.0
 11
6133.829581418175
 21
9028.736797361927
 31
0.0
  0
LINE
  5
1CD56
330
747D
100
AcDbEntity
  8
細線
 48
50.0
100
AcDbLine
 10
6133.829581418175
 20
9135.02724557288
 30
0.0
 11
6040.120029629111
 21
9228.736797361928
 31
0.0
  0
LINE
  5
1CD57
330
747D
100
AcDbEntity
  8
部品1
 48
50.0
100
AcDbLine
 10
7102.829581418174
 20
9363.736797361928
 30
0.0
 11
7102.829581418174
 21
9228.736797361928
 31
0.0
  0
LINE
  5
1CD58
330
747D
100
AcDbEntity
  8
細線
 48
50.0
100
AcDbLine
 10
7205.555637501724
 20
9228.736797361928
 30
0.0
 11
7302.829581418174
 21
9326.010741278386
 31
0.0
  0
LINE
  5
1CD59
330
747D
100
AcDbEntity
  8
細線
 48
50.0
100
AcDbLine
 10
7179.03913320723
 20
9228.736797361928
 30
0.0
 11
7302.829581418174
 21
9352.527245572879
 31
0.0
  0
LINE
  5
1CD5A
330
747D
100
AcDbEntity
  8
部品1
 48
50.0
100
AcDbLine
 10
7302.829581418174
 20
9363.736797361928
 30
0.0
 11
7302.829581418174
 21
9228.736797361928
 31
0.0
  0
LINE
  5
1CD5B
330
747D
100
AcDbEntity
  8
部品1
 48
50.0
100
AcDbLine
 10
7302.829581418174
 20
9418.736797361928
 30
0.0
 11
7267.329581418174
 21
9418.736797361928
 31
0.0
  0
LINE
  5
1CD5C
330
747D
100
AcDbEntity
  8
部品1
 48
50.0
100
AcDbLine
 10
7267.329581418174
 20
9430.736797361928
 30
0.0
 11
7252.329581418175
 21
9430.736797361928
 31
0.0
  0
LINE
  5
1CD5D
330
747D
100
AcDbEntity
  8
部品1
 48
50.0
100
AcDbLine
 10
7267.329581418174
 20
9418.736797361928
 30
0.0
 11
7267.329581418174
 21
9430.736797361928
 31
0.0
  0
LINE
  5
1CD5E
330
747D
100
AcDbEntity
  8
部品1
 48
50.0
100
AcDbLine
 10
7252.329581418175
 20
9430.736797361928
 30
0.0
 11
7252.329581418175
 21
9418.736797361928
 31
0.0
  0
LINE
  5
1CD5F
330
747D
100
AcDbEntity
  8
部品1
 48
50.0
100
AcDbLine
 10
7252.329581418175
 20
9418.736797361928
 30
0.0
 11
7238.329581418175
 21
9418.736797361928
 31
0.0
  0
LINE
  5
1CD60
330
747D
100
AcDbEntity
  8
部品1
 48
50.0
100
AcDbLine
 10
7238.329581418175
 20
9418.736797361928
 30
0.0
 11
7238.329581418175
 21
9411.736797361928
 31
0.0
  0
LINE
  5
1CD61
330
747D
100
AcDbEntity
  8
部品1
 48
50.0
100
AcDbLine
 10
7238.329581418175
 20
9411.736797361928
 30
0.0
 11
7214.329581418176
 21
9411.736797361928
 31
0.0
  0
LINE
  5
1CD62
330
747D
100
AcDbEntity
  8
部品1
 48
50.0
100
AcDbLine
 10
7214.329581418176
 20
9411.736797361928
 30
0.0
 11
7214.329581418176
 21
9363.736797361928
 31
0.0
  0
LINE
  5
1CD63
330
747D
100
AcDbEntity
  8
部品1
 48
50.0
100
AcDbLine
 10
7243.329581418175
 20
9430.736797361928
 30
0.0
 11
7252.329581418175
 21
9430.736797361928
 31
0.0
  0
LINE
  5
1CD64
330
747D
100
AcDbEntity
  8
細線
 48
50.0
100
AcDbLine
 10
7102.829581418174
 20
9276.010741278385
 30
0.0
 11
7190.555637501717
 21
9363.736797361928
 31
0.0
  0
LINE
  5
1CD65
330
747D
100
AcDbEntity
  8
細線
 48
50.0
100
AcDbLine
 10
7102.829581418174
 20
9302.52724557288
 30
0.0
 11
7164.039133207231
 21
9363.736797361928
 31
0.0
  0
LINE
  5
1CD66
330
747D
100
AcDbEntity
  8
部品1
 48
50.0
100
AcDbLine
 10
7302.829581418174
 20
9412.736797361928
 30
0.0
 11
7296.829581418174
 21
9412.736797361928
 31
0.0
  0
LINE
  5
1CD67
330
747D
100
AcDbEntity
  8
部品1
 48
50.0
100
AcDbLine
 10
7296.829581418174
 20
9412.736797361928
 30
0.0
 11
7296.829581418174
 21
9418.736797361928
 31
0.0
  0
LINE
  5
1CD68
330
747D
100
AcDbEntity
  8
部品1
 48
50.0
100
AcDbLine
 10
7302.829581418174
 20
9412.736797361928
 30
0.0
 11
7302.829581418174
 21
9363.736797361928
 31
0.0
  0
LINE
  5
1CD69
330
747D
100
AcDbEntity
  8
破線
 48
3.0
100
AcDbLine
 10
7292.829581418175
 20
9122.736797361929
 30
0.0
 11
7250.829581418175
 21
9122.736797361929
 31
0.0
  0
LINE
  5
1CD6A
330
747D
100
AcDbEntity
  8
細線
 48
50.0
100
AcDbLine
 10
7301.603525334626
 20
9028.736797361927
 30
0.0
 11
7171.829581418174
 21
9158.510741278385
 31
0.0
  0
LINE
  5
1CD6B
330
747D
100
AcDbEntity
  8
細線
 48
50.0
100
AcDbLine
 10
7275.087021040125
 20
9028.736797361927
 30
0.0
 11
7171.829581418174
 21
9131.994236983883
 31
0.0
  0
LINE
  5
1CD6C
330
747D
100
AcDbEntity
  8
破線
 48
3.0
100
AcDbLine
 10
7250.829581418175
 20
9228.736797361928
 30
0.0
 11
7250.829581418175
 21
9122.736797361929
 31
0.0
  0
LINE
  5
1CD6D
330
747D
100
AcDbEntity
  8
部品1
 48
50.0
100
AcDbLine
 10
7171.829581418174
 20
9028.736797361927
 30
0.0
 11
7171.829581418174
 21
9228.736797361928
 31
0.0
  0
LINE
  5
1CD6E
330
747D
100
AcDbEntity
  8
破線
 48
3.0
100
AcDbLine
 10
7292.829581418175
 20
9228.736797361928
 30
0.0
 11
7292.829581418175
 21
9122.736797361929
 31
0.0
  0
LINE
  5
1CD6F
330
747D
100
AcDbEntity
  8
部品1
 48
50.0
100
AcDbLine
 10
6672.829581418182
 20
9363.736797361928
 30
0.0
 11
6672.829581418182
 21
9418.736797361928
 31
0.0
  0
LINE
  5
1CD70
330
747D
100
AcDbEntity
  8
部品1
 48
50.0
100
AcDbLine
 10
6962.829581418183
 20
9363.736797361928
 30
0.0
 11
6962.829581418183
 21
9418.736797361928
 31
0.0
  0
LINE
  5
1CD71
330
747D
100
AcDbEntity
  8
部品1
 48
50.0
100
AcDbLine
 10
6922.829581418182
 20
9418.736797361928
 30
0.0
 11
6922.829581418182
 21
9363.736797361928
 31
0.0
  0
LINE
  5
1CD72
330
747D
100
AcDbEntity
  8
部品1
 48
50.0
100
AcDbLine
 10
6956.829581418182
 20
9412.736797361928
 30
0.0
 11
6956.829581418182
 21
9418.736797361928
 31
0.0
  0
LINE
  5
1CD73
330
747D
100
AcDbEntity
  8
部品1
 48
50.0
100
AcDbLine
 10
6928.829581418182
 20
9418.736797361928
 30
0.0
 11
6928.829581418182
 21
9412.736797361928
 31
0.0
  0
LINE
  5
1CD74
330
747D
100
AcDbEntity
  8
部品1
 48
50.0
100
AcDbLine
 10
6956.829581418182
 20
9412.736797361928
 30
0.0
 11
6928.829581418182
 21
9412.736797361928
 31
0.0
  0
LINE
  5
1CD75
330
747D
100
AcDbEntity
  8
部品1
 48
50.0
100
AcDbLine
 10
6962.829581418183
 20
9418.736797361928
 30
0.0
 11
6956.829581418182
 21
9418.736797361928
 31
0.0
  0
LINE
  5
1CD76
330
747D
100
AcDbEntity
  8
部品1
 48
50.0
100
AcDbLine
 10
6928.829581418182
 20
9418.736797361928
 30
0.0
 11
6922.829581418182
 21
9418.736797361928
 31
0.0
  0
LINE
  5
1CD77
330
747D
100
AcDbEntity
  8
部品1
 48
50.0
100
AcDbLine
 10
7252.329581418175
 20
9470.736797361928
 30
0.0
 11
6053.329581418175
 21
9470.736797361928
 31
0.0
  0
LINE
  5
1CD78
330
747D
100
AcDbEntity
  8
部品1
 48
50.0
100
AcDbLine
 10
6053.329581418182
 20
9470.736797361928
 30
0.0
 11
6062.329581418183
 21
9470.736797361928
 31
0.0
  0
LEADER
  5
1CD79
330
747D
100
AcDbEntity
  8
寸法
 48
50.0
100
AcDbLeader
  3
INABA_S50G
 71
     0
 73
     0
 75
     1
 40
150.0
 41
360.0
 76
     3
 10
7243.329581418175
 20
10156.36369594979
 30
0.0
 10
7211.391372236786
 20
10102.55187721819
 30
0.0
 10
7086.391372236786
 20
10102.55187721819
 30
0.0
340
1CD0E
1001
ACAD
1000
DSTYLE
1002
{
1070
     6
1000
DOTSMALL
1002
}
  0
LINE
  5
1CD7A
330
747D
100
AcDbEntity
  8
細線
 48
50.0
100
AcDbLine
 10
7270.579581418153
 20
10191.73679736194
 30
0.0
 11
7246.079581418161
 21
10191.73679736194
 31
0.0
  0
LINE
  5
1CD7B
330
747D
100
AcDbEntity
  8
細線
 48
50.0
100
AcDbLine
 10
7303.12958141817
 20
10191.73679736192
 30
0.0
 11
7280.129581418179
 21
10191.73679736192
 31
0.0
  0
LINE
  5
1CD7C
330
747D
100
AcDbEntity
  8
細線
 48
50.0
100
AcDbLine
 10
7252.329581418175
 20
10136.73679736192
 30
0.0
 11
7240.329581418174
 21
10136.73679736192
 31
0.0
  0
LINE
  5
1CD7D
330
747D
100
AcDbEntity
  8
細線
 48
50.0
100
AcDbLine
 10
7240.329581418174
 20
10136.73679736192
 30
0.0
 11
7240.329581418174
 21
10172.73679736192
 31
0.0
  0
LINE
  5
1CD7E
330
747D
100
AcDbEntity
  8
細線
 48
50.0
100
AcDbLine
 10
7307.129581418178
 20
10144.23679736192
 30
0.0
 11
7302.829581418174
 21
10144.23679736192
 31
0.0
  0
LINE
  5
1CD7F
330
747D
100
AcDbEntity
  8
細線
 48
50.0
100
AcDbLine
 10
7307.129581418185
 20
10162.73679736192
 30
0.0
 11
7307.129581418185
 21
10144.23679736192
 31
0.0
  0
LINE
  5
1CD80
330
747D
100
AcDbEntity
  8
細線
 48
50.0
100
AcDbLine
 10
7302.829581418182
 20
10180.73679736192
 30
0.0
 11
7302.829581418182
 21
10162.73679736192
 31
0.0
  0
LINE
  5
1CD81
330
747D
100
AcDbEntity
  8
細線
 48
50.0
100
AcDbLine
 10
7271.029581418172
 20
10181.73679736192
 30
0.0
 11
7302.829581418182
 21
10180.73679736192
 31
0.0
  0
LINE
  5
1CD82
330
747D
100
AcDbEntity
  8
細線
 48
50.0
100
AcDbLine
 10
7271.029581418172
 20
10184.23679736192
 30
0.0
 11
7271.029581418179
 21
10148.73679736192
 31
0.0
  0
LINE
  5
1CD83
330
747D
100
AcDbEntity
  8
細線
 48
50.0
100
AcDbLine
 10
7291.62958141817
 20
10181.08899861978
 30
0.0
 11
7291.629581418177
 21
10201.73679736192
 31
0.0
  0
LINE
  5
1CD84
330
747D
100
AcDbEntity
  8
細線
 48
50.0
100
AcDbLine
 10
7258.329581418168
 20
10184.66440678954
 30
0.0
 11
7258.329581418175
 21
10201.73679736192
 31
0.0
  0
LINE
  5
1CD85
330
747D
100
AcDbEntity
  8
細線
 48
50.0
100
AcDbLine
 10
7241.329581418175
 20
10185.23679736192
 30
0.0
 11
7271.029581418172
 21
10184.23679736192
 31
0.0
  0
LINE
  5
1CD86
330
747D
100
AcDbEntity
  8
細線
 48
50.0
100
AcDbLine
 10
7241.329581418175
 20
10172.73679736192
 30
0.0
 11
7241.329581418175
 21
10200.73679736192
 31
0.0
  0
LINE
  5
1CD87
330
747D
100
AcDbEntity
  8
細線
 48
50.0
100
AcDbLine
 10
7252.329581418175
 20
10172.73679736192
 30
0.0
 11
7240.329581418174
 21
10172.73679736192
 31
0.0
  0
LINE
  5
1CD88
330
747D
100
AcDbEntity
  8
細線
 48
50.0
100
AcDbLine
 10
7252.329581418175
 20
10136.73679736192
 30
0.0
 11
7252.329581418175
 21
10172.73679736192
 31
0.0
  0
LINE
  5
1CD89
330
747D
100
AcDbEntity
  8
細線
 48
50.0
100
AcDbLine
 10
7302.829581418174
 20
10148.73679736192
 30
0.0
 11
7252.329581418175
 21
10148.73679736192
 31
0.0
  0
LINE
  5
1CD8A
330
747D
100
AcDbEntity
  8
部品1
 48
50.0
100
AcDbLine
 10
7252.329581418175
 20
9470.736797361928
 30
0.0
 11
7243.329581418175
 21
9470.736797361928
 31
0.0
  0
LINE
  5
1CD8B
330
747D
100
AcDbEntity
  8
部品1
 48
50.0
100
AcDbLine
 10
6002.829581418183
 20
11378.73679736192
 30
0.0
 11
6052.829581418182
 21
11378.73679736192
 31
0.0
  0
LINE
  5
1CD8C
330
747D
100
AcDbEntity
  8
部品1
 48
50.0
100
AcDbLine
 10
6031.329581418182
 20
11478.73679736192
 30
0.0
 11
6054.829581418182
 21
11478.73679736192
 31
0.0
  0
MTEXT
  5
1CD8D
102
{ACAD_REACTORS
330
1CD8E
102
}
330
747D
100
AcDbEntity
  8
寸法
 62
     7
 48
50.0
100
AcDbMText
 10
5671.002738745976
 20
10799.02604376325
 30
0.0
 40
150.0
 41
0.0
 71
     6
 72
     1
  1
\A1;天井
  7
STYLE1
 73
     1
 44
1.0
  0
LEADER
  5
1CD8E
330
747D
100
AcDbEntity
  8
寸法
 48
50.0
100
AcDbLeader
  3
INABA_S50G
 71
     0
 73
     0
 75
     1
 40
150.0
 41
359.9999999999999
 76
     3
 10
6153.497901733431
 20
11403.41424305308
 30
0.0
 10
5821.002738745976
 20
10699.02604376325
 30
0.0
 10
5696.002738745976
 20
10699.02604376325
 30
0.0
340
1CD8D
1001
ACAD
1000
DSTYLE
1002
{
1070
     6
1000
DOTSMALL
1002
}
  0
MTEXT
  5
1CD8F
102
{ACAD_REACTORS
330
1CD90
102
}
330
747D
100
AcDbEntity
  8
寸法
 62
     7
 48
50.0
100
AcDbMText
 10
5573.134357941924
 20
11038.88356008286
 30
0.0
 40
150.0
 41
0.0
 71
     6
 72
     1
  1
\A1;桁後
  7
STYLE1
 73
     1
 44
1.0
  0
LEADER
  5
1CD90
330
747D
100
AcDbEntity
  8
寸法
 48
50.0
100
AcDbLeader
  3
INABA_S50G
 71
     0
 73
     0
 75
     1
 40
150.0
 41
360.0000000000001
 76
     3
 10
6002.829581418175
 20
11432.20658912726
 30
0.0
 10
5723.134357941924
 20
10938.88356008286
 30
0.0
 10
5598.134357941924
 20
10938.88356008286
 30
0.0
340
1CD8F
1001
ACAD
1000
DSTYLE
1002
{
1070
     6
1000
DOTSMALL
1002
}
  0
MTEXT
  5
1CD91
102
{ACAD_REACTORS
330
1CD92
102
}
330
747D
100
AcDbEntity
  8
寸法
 62
     7
 48
50.0
100
AcDbMText
 10
5610.044594101984
 20
11247.92104541545
 30
0.0
 40
150.0
 41
0.0
 71
     6
 72
     1
  1
\A1;雨樋
  7
STYLE1
 73
     1
 44
1.0
  0
LEADER
  5
1CD92
330
747D
100
AcDbEntity
  8
寸法
 48
50.0
100
AcDbLeader
  3
INABA_S50G
 71
     0
 73
     0
 75
     1
 40
150.0
 41
360.0
 76
     3
 10
5921.829581418175
 20
11409.54603623496
 30
0.0
 10
5760.044594101984
 20
11147.92104541545
 30
0.0
 10
5635.044594101984
 20
11147.92104541545
 30
0.0
340
1CD91
1001
ACAD
1000
DSTYLE
1002
{
1070
     6
1000
DOTSMALL
1002
}
  0
LINE
  5
1CD93
330
747D
100
AcDbEntity
  8
部品1
100
AcDbLine
 10
5921.829581418175
 20
11409.54603623496
 30
0.0
 11
5921.829581418175
 21
11434.54603623496
 31
0.0
  0
LINE
  5
1CD94
330
747D
100
AcDbEntity
  8
部品1
100
AcDbLine
 10
5981.829581418182
 20
11450.39433257581
 30
0.0
 11
5981.829581418175
 21
11409.54603623496
 31
0.0
  0
LINE
  5
1CD95
330
747D
100
AcDbEntity
  8
部品1
100
AcDbLine
 10
5971.829581418175
 20
11399.54603623496
 30
0.0
 11
5931.829581418174
 21
11399.54603623496
 31
0.0
  0
ARC
  5
1CD96
330
747D
100
AcDbEntity
  8
部品1
100
AcDbCircle
 10
5971.829581418175
 20
11409.54603623496
 30
0.0
 40
10.0
100
AcDbArc
 50
270.0
 51
0.000000000000007
  0
ARC
  5
1CD97
330
747D
100
AcDbEntity
  8
部品1
100
AcDbCircle
 10
5931.829581418174
 20
11409.54603623496
 30
0.0
 40
10.0
100
AcDbArc
 50
180.0
 51
270.0
  0
LINE
  5
1CD98
330
747D
100
AcDbEntity
  8
部品1
100
AcDbLine
 10
6002.829581418175
 20
11403.73679736192
 30
0.0
 11
6002.829581418175
 21
11363.73679736192
 31
0.0
  0
LINE
  5
1CD99
330
747D
100
AcDbEntity
  8
部品1
100
AcDbLine
 10
5935.540699733724
 20
11449.65804079714
 30
0.0
 11
5944.539561381562
 21
11449.80118073934
 31
0.0
  0
LINE
  5
1CD9A
330
747D
100
AcDbEntity
  8
部品1
 48
50.0
100
AcDbLine
 10
5925.921491990767
 20
11564.76263097579
 30
0.0
 11
5922.826151637432
 21
11564.71390573647
 31
0.0
  0
ARC
  5
1CD9B
330
747D
100
AcDbEntity
  8
部品1
100
AcDbCircle
 10
5925.897882695192
 20
11566.26244516467
 30
0.0
 40
1.5
100
AcDbArc
 50
270.9018459011011
 51
339.5960814224101
  0
ARC
  5
1CD9C
330
747D
100
AcDbEntity
  8
部品1
100
AcDbCircle
 10
5923.329581418175
 20
11549.22208342739
 30
0.0
 40
15.5
100
AcDbArc
 50
91.86125648319634
 51
186.0754638750989
  0
LINE
  5
1CD9D
330
747D
100
AcDbEntity
  8
部品1
100
AcDbLine
 10
5927.323376691629
 20
11565.7922009353
 30
0.0
 11
5929.939382888236
 21
11572.82495737237
 31
0.0
  0
LINE
  5
1CD9E
330
747D
100
AcDbEntity
  8
部品1
100
AcDbLine
 10
5907.916287634876
 20
11547.58489504694
 30
0.0
 11
5916.114720265153
 21
11470.55806431735
 31
0.0
  0
ARC
  5
1CD9F
330
747D
100
AcDbEntity
  8
部品1
100
AcDbCircle
 10
5935.294180944385
 20
11465.15608030175
 30
0.0
 40
15.5
100
AcDbArc
 50
186.0754638750791
 51
270.9112955958145
  0
ARC
  5
1CDA0
330
747D
100
AcDbEntity
  8
部品1
 48
50.0
100
AcDbCircle
 10
5916.996441403264
 20
11466.99820928769
 30
0.0
 40
2.5
100
AcDbArc
 50
6.075463875091184
 51
85.16999387739907
  0
ARC
  5
1CDA1
330
747D
100
AcDbEntity
  8
部品1
 48
50.0
100
AcDbCircle
 10
5917.307980296047
 20
11470.68507021752
 30
0.0
 40
1.199999999999999
100
AcDbArc
 50
186.0754638750989
 51
265.1699938773959
  0
LINE
  5
1CDA2
330
747D
100
AcDbEntity
  8
部品1
100
AcDbLine
 10
5919.482399800958
 20
11467.26280491303
 30
0.0
 11
5919.881238878702
 21
11463.51558742462
 31
0.0
  0
LINE
  5
1CDA3
330
747D
100
AcDbEntity
  8
部品1
100
AcDbLine
 10
5981.829581418175
 20
11448.54603623496
 30
0.0
 11
5981.829581418175
 21
11421.54603623496
 31
0.0
  0
LINE
  5
1CDA4
330
747D
100
AcDbEntity
  8
部品1
 48
50.0
100
AcDbLine
 10
5908.706740792948
 20
11540.1583411735
 30
0.0
 11
5934.852555169104
 21
11540.63080728951
 31
0.0
  0
LINE
  5
1CDA5
330
747D
100
AcDbEntity
  8
部品1
 48
50.0
100
AcDbLine
 10
5934.852555169104
 20
11540.63080728951
 30
0.0
 11
5964.263373546723
 21
11518.15851852404
 31
0.0
  0
LINE
  5
1CDA6
330
747D
100
AcDbEntity
  8
部品1
 48
50.0
100
AcDbLine
 10
5964.263373546723
 20
11518.15851852404
 30
0.0
 11
5980.260761862713
 21
11518.44759821439
 31
0.0
  0
LINE
  5
1CDA7
330
747D
100
AcDbEntity
  8
部品1
 48
50.0
100
AcDbLine
 10
5997.829581418182
 20
11473.73679736192
 30
0.0
 11
6002.829581418183
 21
11473.73679736192
 31
0.0
  0
LINE
  5
1CDA8
330
747D
100
AcDbEntity
  8
部品1
 48
50.0
100
AcDbLine
 10
5997.829581418182
 20
11493.73679736192
 30
0.0
 11
6031.329581418182
 21
11493.73679736192
 31
0.0
  0
LINE
  5
1CDA9
330
747D
100
AcDbEntity
  8
部品1
 48
50.0
100
AcDbLine
 10
6031.329581418182
 20
11493.73679736192
 30
0.0
 11
6031.329581418182
 21
11478.73679736192
 31
0.0
  0
LINE
  5
1CDAA
330
747D
100
AcDbEntity
  8
部品1
 48
50.0
100
AcDbLine
 10
5997.829581418182
 20
11493.73679736192
 30
0.0
 11
5997.829581418182
 21
11473.73679736192
 31
0.0
  0
LINE
  5
1CDAB
330
747D
100
AcDbEntity
  8
細線
 48
50.0
100
AcDbLine
 10
5944.539561381562
 20
11449.80118073934
 30
0.0
 11
6002.829581418175
 21
11450.72836802427
 31
0.0
  0
ARC
  5
1CDAC
330
747D
100
AcDbEntity
  8
部品1
100
AcDbCircle
 10
5933.2197864053
 20
11571.60473085027
 30
0.0
 40
3.5
100
AcDbArc
 50
91.03524671598787
 51
159.5960814224235
  0
LINE
  5
1CDAD
330
747D
100
AcDbEntity
  8
細線
 48
50.0
100
AcDbLine
 10
7258.329581418159
 20
11147.23679736192
 30
0.0
 11
7258.329581418175
 21
10228.73679736192
 31
0.0
  0
LINE
  5
1CDAE
330
747D
100
AcDbEntity
  8
細線
 48
50.0
100
AcDbLine
 10
7291.629581418177
 20
11147.23679736192
 30
0.0
 11
7291.629581418192
 21
10228.73679736192
 31
0.0
  0
LINE
  5
1CDAF
330
747D
100
AcDbEntity
  8
細線
 48
50.0
100
AcDbLine
 10
7270.579581418182
 20
10234.73679736194
 30
0.0
 11
7246.079581418161
 21
10234.73679736194
 31
0.0
  0
LINE
  5
1CDB0
330
747D
100
AcDbEntity
  8
細線
 48
50.0
100
AcDbLine
 10
7303.1295814182
 20
10234.73679736193
 30
0.0
 11
7280.129581418179
 21
10234.73679736192
 31
0.0
  0
LINE
  5
1CDB1
330
747D
100
AcDbEntity
  8
部品1
 48
50.0
100
AcDbLine
 10
6627.829581418175
 20
11413.73679736192
 30
0.0
 11
6677.829581418174
 21
11413.73679736192
 31
0.0
  0
LINE
  5
1CDB2
330
747D
100
AcDbEntity
  8
部品1
 48
50.0
100
AcDbLine
 10
6677.829581418174
 20
11542.73679736192
 30
0.0
 11
6647.829581418175
 21
11541.23679736192
 31
0.0
  0
MTEXT
  5
1CDB3
102
{ACAD_REACTORS
330
1CDB4
102
}
330
747D
100
AcDbEntity
  8
寸法
 62
     7
 48
50.0
100
AcDbMText
 10
6355.826863646913
 20
11192.92239508252
 30
0.0
 40
150.0
 41
0.0
 71
     4
 72
     1
  1
\A1;回リ縁
  7
STYLE1
 73
     1
 44
1.0
  0
LEADER
  5
1CDB4
330
747D
100
AcDbEntity
  8
寸法
 48
50.0
100
AcDbLeader
  3
INABA_S50G
 71
     0
 73
     0
 74
     0
 75
     1
 40
150.0
 41
530.0000000000001
 76
     3
 10
6066.486435667675
 20
11380.57994311244
 30
0.0
 10
6205.826863646913
 20
11092.92239508252
 30
0.0
 10
6330.826863646913
 20
11092.92239508252
 30
0.0
340
1CDB3
1001
ACAD
1000
DSTYLE
1002
{
1070
     6
1000
DOTSMALL
1002
}
  0
LINE
  5
1CDB5
330
747D
100
AcDbEntity
  8
細線
 48
50.0
100
AcDbLine
 10
7237.829581418175
 20
11413.73679736192
 30
0.0
 11
6067.829581418182
 21
11413.73679736192
 31
0.0
  0
LINE
  5
1CDB6
330
747D
100
AcDbEntity
  8
部品1
 48
50.0
100
AcDbLine
 10
7252.329581418175
 20
11367.5946617382
 30
0.0
 11
6053.329581418175
 21
11367.5946617382
 31
0.0
  0
LINE
  5
1CDB7
330
747D
100
AcDbEntity
  8
細線
 48
50.0
100
AcDbLine
 10
7237.829581418175
 20
11393.73679736192
 30
0.0
 11
6067.829581418182
 21
11393.73679736192
 31
0.0
  0
LEADER
  5
1CDB8
330
747D
100
AcDbEntity
  8
寸法
 48
50.0
100
AcDbLeader
  3
INABA_S50G
 71
     0
 73
     0
 75
     1
 40
150.0
 41
319.9999999999998
 76
     3
 10
6559.151879789095
 20
11581.89466159483
 30
0.0
 10
6523.493652724223
 20
11669.97550872411
 30
0.0
 10
6398.493652724223
 20
11669.97550872411
 30
0.0
340
1CCFB
1001
ACAD
1000
DSTYLE
1002
{
1070
     6
1000
DOTSMALL
1002
}
  0
LINE
  5
1CDB9
330
747D
100
AcDbEntity
  8
部品1
 48
50.0
100
AcDbLine
 10
6627.829581418175
 20
11425.73679736192
 30
0.0
 11
6627.829581418175
 21
11413.73679736192
 31
0.0
  0
LINE
  5
1CDBA
330
747D
100
AcDbEntity
  8
部品1
 48
50.0
100
AcDbLine
 10
6634.829581418175
 20
11367.5946617382
 30
0.0
 11
6634.829581418175
 21
11284.72281612384
 31
0.0
  0
LINE
  5
1CDBB
330
747D
100
AcDbEntity
  8
部品1
 48
50.0
100
AcDbLine
 10
6647.829581418175
 20
11541.23679736192
 30
0.0
 11
6647.829581418175
 21
11530.23679736192
 31
0.0
  0
LINE
  5
1CDBC
330
747D
100
AcDbEntity
  8
部品1
 48
50.0
100
AcDbLine
 10
6647.829581418175
 20
11530.23679736192
 30
0.0
 11
6627.829581418175
 21
11529.23679736192
 31
0.0
  0
LINE
  5
1CDBD
330
747D
100
AcDbEntity
  8
部品1
 48
50.0
100
AcDbLine
 10
6067.829581418182
 20
11413.73679736192
 30
0.0
 11
6089.829581418182
 21
11413.73679736192
 31
0.0
  0
LINE
  5
1CDBE
330
747D
100
AcDbEntity
  8
部品1
 48
50.0
100
AcDbLine
 10
6067.829581418182
 20
11413.73679736192
 30
0.0
 11
6089.829581418182
 21
11413.73679736192
 31
0.0
  0
LINE
  5
1CDBF
330
747D
100
AcDbEntity
  8
部品1
 48
50.0
100
AcDbLine
 10
6076.471717041915
 20
11393.73679736192
 30
0.0
 11
6067.829581418182
 21
11393.73679736192
 31
0.0
  0
ARC
  5
1CDC0
330
747D
100
AcDbEntity
  8
部品1
100
AcDbCircle
 10
6062.950901761744
 20
11375.63019565297
 30
0.0
 40
1.0
100
AcDbArc
 50
314.9999999999995
 51
44.99999999999886
  0
LINE
  5
1CDC1
330
747D
100
AcDbEntity
  8
部品1
100
AcDbLine
 10
6063.658087601556
 20
11376.33722336669
 30
0.0
 11
6062.950901761744
 21
11377.0444092065
 31
0.0
  0
LINE
  5
1CDC2
330
747D
100
AcDbEntity
  8
部品1
100
AcDbLine
 10
6062.950901761744
 20
11377.0444092065
 30
0.0
 11
6070.021969573606
 21
11384.11547701837
 31
0.0
  0
ARC
  5
1CDC3
330
747D
100
AcDbEntity
  8
部品1
100
AcDbCircle
 10
6071.436183135976
 20
11384.11547701837
 30
0.0
 40
1.0
100
AcDbArc
 50
225.0
 51
315.0
  0
LINE
  5
1CDC4
330
747D
100
AcDbEntity
  8
部品1
100
AcDbLine
 10
6072.143289917169
 20
11383.40837023718
 30
0.0
 11
6077.471717041915
 21
11388.73679736192
 31
0.0
  0
LINE
  5
1CDC5
330
747D
100
AcDbEntity
  8
部品1
100
AcDbLine
 10
6070.021969573606
 20
11384.11547701837
 30
0.0
 11
6070.729076354791
 21
11383.40837023718
 31
0.0
  0
LINE
  5
1CDC6
330
747D
100
AcDbEntity
  8
部品1
100
AcDbLine
 10
6076.471717041915
 20
11389.73679736192
 30
0.0
 11
6076.471717041915
 21
11393.73679736192
 31
0.0
  0
LINE
  5
1CDC7
330
747D
100
AcDbEntity
  8
部品1
100
AcDbLine
 10
6077.471717041915
 20
11388.73679736192
 30
0.0
 11
6077.471717041915
 21
11389.73679736192
 31
0.0
  0
LINE
  5
1CDC8
330
747D
100
AcDbEntity
  8
部品1
100
AcDbLine
 10
6077.471717041915
 20
11389.73679736192
 30
0.0
 11
6076.471717041915
 21
11389.73679736192
 31
0.0
  0
LINE
  5
1CDC9
330
747D
100
AcDbEntity
  8
部品1
 48
50.0
100
AcDbLine
 10
6067.829581418182
 20
11393.73679736192
 30
0.0
 11
6067.829581418182
 21
11413.73679736192
 31
0.0
  0
LINE
  5
1CDCA
330
747D
100
AcDbEntity
  8
部品1
100
AcDbLine
 10
6056.329581418182
 20
11367.5946617382
 30
0.0
 11
6053.329581418182
 21
11367.5946617382
 31
0.0
  0
LINE
  5
1CDCB
330
747D
100
AcDbEntity
  8
部品1
 48
50.0
100
AcDbLine
 10
6052.829581418182
 20
11378.73679736192
 30
0.0
 11
6053.329581418182
 21
11378.73679736192
 31
0.0
  0
LINE
  5
1CDCC
330
747D
100
AcDbEntity
  8
部品1
100
AcDbLine
 10
6056.329581418182
 20
11367.5946617382
 30
0.0
 11
6063.658008542929
 21
11374.92308887178
 31
0.0
  0
LINE
  5
1CDCD
330
747D
100
AcDbEntity
  8
部品1
 48
50.0
100
AcDbLine
 10
6052.829581418182
 20
11378.73679736192
 30
0.0
 11
6067.829581418182
 21
11393.73679736192
 31
0.0
  0
LINE
  5
1CDCE
330
747D
100
AcDbEntity
  8
細線
 48
50.0
100
AcDbLine
 10
7270.579581418189
 20
11179.23679736193
 30
0.0
 11
7246.079581418161
 21
11179.23679736192
 31
0.0
  0
LINE
  5
1CDCF
330
747D
100
AcDbEntity
  8
細線
 48
50.0
100
AcDbLine
 10
7270.579581418153
 20
11141.23679736192
 30
0.0
 11
7246.079581418161
 21
11141.23679736192
 31
0.0
  0
LINE
  5
1CDD0
330
747D
100
AcDbEntity
  8
細線
 48
50.0
100
AcDbLine
 10
7303.129581418177
 20
11141.23679736192
 30
0.0
 11
7280.129581418179
 21
11141.23679736192
 31
0.0
  0
LINE
  5
1CDD1
330
747D
100
AcDbEntity
  8
細線
 48
50.0
100
AcDbLine
 10
7303.129581418208
 20
11179.23679736192
 30
0.0
 11
7280.129581418179
 21
11179.23679736193
 31
0.0
  0
LINE
  5
1CDD2
330
747D
100
AcDbEntity
  8
細線
 48
50.0
100
AcDbLine
 10
7302.329581418168
 20
11200.73679736192
 30
0.0
 11
7291.629581418163
 21
11200.73679736192
 31
0.0
  0
LINE
  5
1CDD3
330
747D
100
AcDbEntity
  8
細線
 48
50.0
100
AcDbLine
 10
7267.329581418167
 20
11198.23679736192
 30
0.0
 11
7267.329581418167
 21
11238.73679736192
 31
0.0
  0
LINE
  5
1CDD4
330
747D
100
AcDbEntity
  8
細線
 48
50.0
100
AcDbLine
 10
7302.329581418168
 20
11200.73679736192
 30
0.0
 11
7302.329581418168
 21
11218.23679736192
 31
0.0
  0
LINE
  5
1CDD5
330
747D
100
AcDbEntity
  8
細線
 48
50.0
100
AcDbLine
 10
7291.62958141817
 20
11171.23679736192
 30
0.0
 11
7291.62958141817
 21
11200.73679736192
 31
0.0
  0
LINE
  5
1CDD6
330
747D
100
AcDbEntity
  8
細線
 48
50.0
100
AcDbLine
 10
7258.329581418168
 20
11171.23679736192
 30
0.0
 11
7258.329581418168
 21
11198.23679736192
 31
0.0
  0
LINE
  5
1CDD7
330
747D
100
AcDbEntity
  8
細線
 48
50.0
100
AcDbLine
 10
7241.329581418168
 20
11198.23679736192
 30
0.0
 11
7291.62958141817
 21
11198.23679736192
 31
0.0
  0
LINE
  5
1CDD8
330
747D
100
AcDbEntity
  8
細線
 48
50.0
100
AcDbLine
 10
7241.329581418168
 20
11173.23679736192
 30
0.0
 11
7241.329581418168
 21
11198.23679736192
 31
0.0
  0
LINE
  5
1CDD9
330
747D
100
AcDbEntity
  8
細線
 48
50.0
100
AcDbLine
 10
7241.329581418168
 20
11210.73679736192
 30
0.0
 11
7241.329581418168
 21
11173.23679736192
 31
0.0
  0
LINE
  5
1CDDA
330
747D
100
AcDbEntity
  8
細線
 48
50.0
100
AcDbLine
 10
7252.329581418168
 20
11210.73679736192
 30
0.0
 11
7252.329581418161
 21
11246.73679736192
 31
0.0
  0
LINE
  5
1CDDB
330
747D
100
AcDbEntity
  8
細線
 48
50.0
100
AcDbLine
 10
7252.329581418175
 20
11238.73679736192
 30
0.0
 11
7267.829581418175
 21
11238.73679736192
 31
0.0
  0
LINE
  5
1CDDC
330
747D
100
AcDbEntity
  8
細線
 48
50.0
100
AcDbLine
 10
7302.829581418167
 20
11218.73679736192
 30
0.0
 11
7267.829581418182
 21
11218.73679736192
 31
0.0
  0
LINE
  5
1CDDD
330
747D
100
AcDbEntity
  8
細線
 48
50.0
100
AcDbLine
 10
7252.329581418168
 20
11246.73679736192
 30
0.0
 11
7240.329581418167
 21
11246.73679736192
 31
0.0
  0
LINE
  5
1CDDE
330
747D
100
AcDbEntity
  8
細線
 48
50.0
100
AcDbLine
 10
7252.329581418168
 20
11210.73679736192
 30
0.0
 11
7240.329581418167
 21
11210.73679736192
 31
0.0
  0
LINE
  5
1CDDF
330
747D
100
AcDbEntity
  8
細線
 48
50.0
100
AcDbLine
 10
7240.329581418167
 20
11210.73679736192
 30
0.0
 11
7240.329581418167
 21
11246.73679736192
 31
0.0
  0
LINE
  5
1CDE0
330
747D
100
AcDbEntity
  8
部品1
 48
50.0
100
AcDbLine
 10
7302.829581418174
 20
11588.73679736192
 30
0.0
 11
7274.329581418175
 21
11588.73679736192
 31
0.0
  0
LINE
  5
1CDE1
330
747D
100
AcDbEntity
  8
部品1
 48
50.0
100
AcDbLine
 10
7274.329581418175
 20
11573.73679736192
 30
0.0
 11
7251.829581418175
 21
11573.73679736192
 31
0.0
  0
LINE
  5
1CDE2
330
747D
100
AcDbEntity
  8
部品1
 48
50.0
100
AcDbLine
 10
7274.329581418175
 20
11588.73679736192
 30
0.0
 11
7274.329581418175
 21
11573.73679736192
 31
0.0
  0
LINE
  5
1CDE3
330
747D
100
AcDbEntity
  8
部品1
 48
50.0
100
AcDbLine
 10
7302.829581418174
 20
11378.73679736192
 30
0.0
 11
7252.829581418175
 21
11378.73679736192
 31
0.0
  0
LINE
  5
1CDE4
330
747D
100
AcDbEntity
  8
部品1
100
AcDbLine
 10
7249.329581418175
 20
11367.5946617382
 30
0.0
 11
7242.001154293427
 21
11374.92308887178
 31
0.0
  0
LINE
  5
1CDE5
330
747D
100
AcDbEntity
  8
部品1
100
AcDbLine
 10
7249.329581418175
 20
11367.5946617382
 30
0.0
 11
7252.329581418175
 21
11367.5946617382
 31
0.0
  0
ARC
  5
1CDE6
330
747D
100
AcDbEntity
  8
部品1
100
AcDbCircle
 10
7242.708261074612
 20
11375.63019565297
 30
0.0
 40
1.0
100
AcDbArc
 50
135.0000000000011
 51
225.0000000000003
  0
LINE
  5
1CDE7
330
747D
100
AcDbEntity
  8
部品1
100
AcDbLine
 10
7242.0010752348
 20
11376.33722336669
 30
0.0
 11
7242.708261074612
 21
11377.0444092065
 31
0.0
  0
LINE
  5
1CDE8
330
747D
100
AcDbEntity
  8
部品1
100
AcDbLine
 10
7242.708261074612
 20
11377.0444092065
 30
0.0
 11
7235.63719326275
 21
11384.11547701837
 31
0.0
  0
ARC
  5
1CDE9
330
747D
100
AcDbEntity
  8
部品1
100
AcDbCircle
 10
7234.222979700381
 20
11384.11547701837
 30
0.0
 40
1.0
100
AcDbArc
 50
225.0
 51
315.0
  0
LINE
  5
1CDEA
330
747D
100
AcDbEntity
  8
部品1
100
AcDbLine
 10
7233.515872919189
 20
11383.40837023718
 30
0.0
 11
7228.187445794448
 21
11388.73679736192
 31
0.0
  0
LINE
  5
1CDEB
330
747D
100
AcDbEntity
  8
部品1
100
AcDbLine
 10
7235.63719326275
 20
11384.11547701837
 30
0.0
 11
7234.930086481565
 21
11383.40837023718
 31
0.0
  0
LINE
  5
1CDEC
330
747D
100
AcDbEntity
  8
部品1
100
AcDbLine
 10
7229.187445794448
 20
11389.73679736192
 30
0.0
 11
7229.187445794448
 21
11393.73679736192
 31
0.0
  0
LINE
  5
1CDED
330
747D
100
AcDbEntity
  8
部品1
100
AcDbLine
 10
7228.187445794448
 20
11388.73679736192
 30
0.0
 11
7228.187445794448
 21
11389.73679736192
 31
0.0
  0
LINE
  5
1CDEE
330
747D
100
AcDbEntity
  8
部品1
100
AcDbLine
 10
7228.187445794448
 20
11389.73679736192
 30
0.0
 11
7229.187445794448
 21
11389.73679736192
 31
0.0
  0
LINE
  5
1CDEF
330
747D
100
AcDbEntity
  8
部品1
 48
50.0
100
AcDbLine
 10
7252.829581418175
 20
11378.73679736192
 30
0.0
 11
7237.829581418175
 21
11393.73679736192
 31
0.0
  0
LINE
  5
1CDF0
330
747D
100
AcDbEntity
  8
部品1
 48
50.0
100
AcDbLine
 10
7237.829581418175
 20
11393.73679736192
 30
0.0
 11
7237.829581418175
 21
11413.73679736192
 31
0.0
  0
LINE
  5
1CDF1
330
747D
100
AcDbEntity
  8
部品1
 48
50.0
100
AcDbLine
 10
7237.829581418175
 20
11413.73679736192
 30
0.0
 11
7215.829581418176
 21
11413.73679736192
 31
0.0
  0
LINE
  5
1CDF2
330
747D
100
AcDbEntity
  8
部品1
 48
50.0
100
AcDbLine
 10
7252.829581418175
 20
11378.73679736192
 30
0.0
 11
7252.329581418175
 21
11378.73679736192
 31
0.0
  0
LINE
  5
1CDF3
330
747D
100
AcDbEntity
  8
部品1
 48
50.0
100
AcDbLine
 10
7229.187445794448
 20
11393.73679736192
 30
0.0
 11
7237.829581418175
 21
11393.73679736192
 31
0.0
  0
LINE
  5
1CDF4
330
747D
100
AcDbEntity
  8
部品1
 48
50.0
100
AcDbLine
 10
7237.829581418175
 20
11413.73679736192
 30
0.0
 11
7215.829581418176
 21
11413.73679736192
 31
0.0
  0
LINE
  5
1CDF5
330
747D
100
AcDbEntity
  8
細線
 48
50.0
100
AcDbLine
 10
7267.829581418175
 20
11378.73679736192
 30
0.0
 11
7267.829581418182
 21
11218.73679736192
 31
0.0
  0
LINE
  5
1CDF6
330
747D
100
AcDbEntity
  8
部品1
 48
50.0
100
AcDbLine
 10
7252.329581418175
 20
11378.73679736192
 30
0.0
 11
7252.329581418175
 21
11238.73679736193
 31
0.0
  0
LINE
  5
1CDF7
330
747D
100
AcDbEntity
  8
部品1
 48
50.0
100
AcDbLine
 10
7302.829581418174
 20
11588.73679736192
 30
0.0
 11
7302.829581418174
 21
11200.62568625081
 31
0.0
  0
LINE
  5
1CDF8
330
747D
100
AcDbEntity
  8
部品1
 48
50.0
100
AcDbLine
 10
6677.829581418174
 20
11413.73679736192
 30
0.0
 11
6677.829581418174
 21
11542.73679736192
 31
0.0
  0
LINE
  5
1CDF9
330
747D
100
AcDbEntity
  8
部品1
 48
50.0
100
AcDbLine
 10
6670.829581418175
 20
11367.5946617382
 30
0.0
 11
6670.829581418175
 21
11284.72281612384
 31
0.0
  0
INSERT
  5
1CDFA
330
747D
100
AcDbEntity
  8
部品1
 48
50.0
100
AcDbBlockReference
  2
A$C356B7D95
 10
7417.433577949012
 20
11485.2842511308
 30
0.0
 50
2.255436934929261
  0
MTEXT
  5
1CDFB
102
{ACAD_REACTORS
330
1CDFC
102
}
330
747D
100
AcDbEntity
  8
寸法
 62
     7
 48
50.0
100
AcDbMText
 10
7685.640527615017
 20
12174.04804154394
 30
0.0
 40
150.0
 41
0.0
 71
     4
 72
     1
  1
\A1;鼻隠シ前
  7
STYLE1
 73
     1
 44
1.0
  0
LEADER
  5
1CDFC
330
747D
100
AcDbEntity
  8
寸法
 48
50.0
100
AcDbLeader
  3
INABA_S50G
 71
     0
 73
     0
 74
     0
 75
     1
 40
150.0
 41
697.5
 76
     3
 10
7436.960128916935
 20
11573.51069687733
 30
0.0
 10
7535.640527615017
 20
12074.04804154394
 30
0.0
 10
7660.640527615017
 20
12074.04804154394
 30
0.0
340
1CDFB
1001
ACAD
1000
DSTYLE
1002
{
1070
     6
1000
DOTSMALL
1002
}
  0
LINE
  5
1CDFD
330
747D
100
AcDbEntity
  8
部品1
 48
50.0
100
AcDbLine
 10
7371.829581418174
 20
9228.736797361928
 30
0.0
 11
7371.829581418174
 21
9028.736797361927
 31
0.0
  0
LINE
  5
1CDFE
330
747D
100
AcDbEntity
  8
細線
 48
50.0
100
AcDbLine
 10
7311.329581418182
 20
10162.73679736192
 30
0.0
 11
7311.329581418182
 21
10159.73679736192
 31
0.0
  0
LINE
  5
1CDFF
330
747D
100
AcDbEntity
  8
細線
 48
50.0
100
AcDbLine
 10
7311.329581418168
 20
10171.63679736192
 30
0.0
 11
7311.329581418182
 21
10180.73679736192
 31
0.0
  0
LINE
  5
1CE00
330
747D
100
AcDbEntity
  8
細線
 48
50.0
100
AcDbLine
 10
7311.329581418168
 20
11172.23679736192
 30
0.0
 11
7311.329581418168
 21
11198.73679736192
 31
0.0
  0
LINE
  5
1CE01
330
747D
100
AcDbEntity
  8
部品1
100
AcDbLine
 10
7418.251028758501
 20
11616.54160810817
 30
0.0
 11
7411.559032768359
 21
11631.16076879149
 31
0.0
  0
ARC
  5
1CE02
330
747D
100
AcDbEntity
  8
部品1
 48
50.0
100
AcDbCircle
 10
7408.376609304379
 20
11629.70399808342
 30
0.0
 40
3.5
100
AcDbArc
 50
24.59618196436618
 51
91.03524671598787
  0
ARC
  5
1CE03
330
747D
100
AcDbEntity
  8
部品1
100
AcDbCircle
 10
7419.614924528779
 20
11617.16593841163
 30
0.0
 40
1.5
100
AcDbArc
 50
204.5961819643761
 51
270.9018459011026
  0
LINE
  5
1CE04
330
747D
100
AcDbEntity
  8
部品1
 48
50.0
100
AcDbLine
 10
7360.259023458418
 20
11631.31079918739
 30
0.0
 11
7350.86360769221
 21
11603.96990383361
 31
0.0
  0
ARC
  5
1CE05
330
747D
100
AcDbEntity
  8
部品1
100
AcDbCircle
 10
7422.329581418175
 20
11600.20873825648
 30
0.0
 40
15.5
100
AcDbArc
 50
358.1167995116895
 51
91.86125648319634
  0
LINE
  5
1CE06
330
747D
100
AcDbEntity
  8
部品1
 48
50.0
100
AcDbLine
 10
7419.638533824354
 20
11615.66612422275
 30
0.0
 11
7421.826151637431
 21
11615.70056056555
 31
0.0
  0
LINE
  5
1CE07
330
747D
100
AcDbEntity
  8
部品1
 48
50.0
100
AcDbLine
 10
7407.819836709006
 20
11500.75399803949
 30
0.0
 11
7416.818698356843
 21
11500.89713798169
 31
0.0
  0
ARC
  5
1CE08
330
747D
100
AcDbEntity
  8
部品1
 48
50.0
100
AcDbCircle
 10
7404.796359502694
 20
11502.20609500006
 30
0.0
 40
3.0
100
AcDbArc
 50
0.9112955958087358
 51
90.91129559581467
  0
LINE
  5
1CE09
330
747D
100
AcDbEntity
  8
部品1
 48
50.0
100
AcDbLine
 10
7407.819836709006
 20
11500.75399803949
 30
0.0
 11
7407.795980051973
 21
11502.25380831413
 31
0.0
  0
LINE
  5
1CE0A
330
747D
100
AcDbEntity
  8
部品1
100
AcDbLine
 10
7432.155581542449
 20
11518.67699207423
 30
0.0
 11
7432.06380792921
 21
11515.88581444995
 31
0.0
  0
ARC
  5
1CE0B
330
747D
100
AcDbEntity
  8
部品1
100
AcDbCircle
 10
7434.074003404616
 20
11522.24905836089
 30
0.0
 40
1.199999999999999
100
AcDbArc
 50
279.0222695094722
 51
358.1167995116895
  0
ARC
  5
1CE0C
330
747D
100
AcDbEntity
  8
部品1
100
AcDbCircle
 10
7434.654231278202
 20
11518.59483674579
 30
0.0
 40
2.5
100
AcDbArc
 50
99.02226950947451
 51
178.1167995116955
  0
ARC
  5
1CE0D
330
747D
100
AcDbEntity
  8
部品1
100
AcDbCircle
 10
7416.572179567504
 20
11516.39517748631
 30
0.0
 40
15.5
100
AcDbArc
 50
270.9112955958145
 51
358.1167995116315
  0
LINE
  5
1CE0E
330
747D
100
AcDbEntity
  8
部品1
100
AcDbLine
 10
7437.821209779881
 20
11599.69937522014
 30
0.0
 11
7435.273355277778
 21
11522.20962380324
 31
0.0
  0
ENDSEC
  0
SECTION
  2
OBJECTS
  0
DICTIONARY
  5
7471
330
0
100
AcDbDictionary
281
     1
  3
ACAD_GROUP
350
7472
  3
ACAD_LAYOUT
350
1CF5D
  3
ACAD_MLINESTYLE
350
7473
  3
ACAD_PLOTSETTINGS
350
1CF5E
  3
ACAD_PLOTSTYLENAME
350
1CF5B
  3
ACDBHEADERROUNDTRIPXREC
350
1CFE6
  3
ACDBVARIABLEDICTIONARY
350
123D8
  3
CONTENTDICTIONARY
350
E71C
  3
DRAWINGVARIABLESDICT
350
F3B9
  0
DICTIONARY
  5
1CF8D
330
747D
100
AcDbDictionary
280
     1
281
     1
  3
ACAD_LAYOUTSELFREF
360
1CF8E
  0
DICTIONARY
  5
1CF8B
330
747A
100
AcDbDictionary
280
     1
281
     1
  3
ACAD_LAYOUTSELFREF
360
1CF8C
  0
DICTIONARY
  5
7472
102
{ACAD_REACTORS
330
7471
102
}
330
7471
100
AcDbDictionary
281
     1
  0
DICTIONARY
  5
1CF5D
102
{ACAD_REACTORS
330
7471
102
}
330
7471
100
AcDbDictionary
281
     1
  3
Model
350
1CF5F
  3
ﾚｲｱｳﾄ1
350
1CF60
  0
DICTIONARY
  5
7473
102
{ACAD_REACTORS
330
7471
102
}
330
7471
100
AcDbDictionary
281
     1
  3
STANDARD
350
7480
  0
DICTIONARY
  5
1CF5E
102
{ACAD_REACTORS
330
7471
102
}
330
7471
100
AcDbDictionary
281
     1
  0
ACDBDICTIONARYWDFLT
  5
1CF5B
102
{ACAD_REACTORS
330
7471
102
}
330
7471
100
AcDbDictionary
281
     1
  3
Normal
350
1CF5C
100
AcDbDictionaryWithDefault
340
1CF5C
  0
DICTIONARY
  5
1CFE6
102
{ACAD_REACTORS
330
7471
102
}
330
7471
100
AcDbDictionary
281
     1
  3
CEPSNTYPE
350
1CFF0
  3
DIMSTYLEDATA
350
1CFF4
  3
FINGERPRINTGUID
350
1CFF1
  3
HYPERLINKBASE
350
1CFE9
  3
INSUNITS
350
1CFEF
  3
LAYOUTDICT
350
1CFEB
  3
LWETCUNION
350
1CFEE
  3
PLOTSETDICT
350
1CFEC
  3
PLOTSTYLNAMDICT
350
1CFED
  3
PSVPSCALE
350
1CFF3
  3
PUCSBASE
350
1CFF7
  3
PUCSORGBACK
350
1CFFD
  3
PUCSORGBOTTOM
350
1CFF9
  3
PUCSORGFRONT
350
1CFFC
  3
PUCSORGLEFT
350
1CFFA
  3
PUCSORGRIGHT
350
1CFFB
  3
PUCSORGTOP
350
1CFF8
  3
PUCSORTHOREF
350
1CFF5
  3
PUCSORTHOVIEW
350
1CFF6
  3
STYLESHEET
350
1CFEA
  3
TSTACKALIGN
350
1CFE7
  3
TSTACKSIZE
350
1CFE8
  3
UCSBASE
350
1D000
  3
UCSORGBACK
350
1D006
  3
UCSORGBOTTOM
350
1D002
  3
UCSORGFRONT
350
1D005
  3
UCSORGLEFT
350
1D003
  3
UCSORGRIGHT
350
1D004
  3
UCSORGTOP
350
1D001
  3
UCSORTHOREF
350
1CFFE
  3
UCSORTHOVIEW
350
1CFFF
  3
VERSIONGUID
350
1CFF2
  0
DICTIONARY
  5
123D8
102
{ACAD_REACTORS
330
7471
102
}
330
7471
100
AcDbDictionary
281
     1
  3
DIMASSOC
350
1CFDD
  3
SORTENTS
350
123D9
  0
DICTIONARY
  5
E71C
102
{ACAD_REACTORS
330
7471
102
}
330
7471
100
AcDbDictionary
281
     1
  0
DICTIONARY
  5
F3B9
102
{ACAD_REACTORS
330
7471
102
}
330
7471
100
AcDbDictionary
281
     1
1001
DRAWINGVARIABLESXDATA
1000
POLARMODE
1000
1
  0
XRECORD
  5
1CF8E
102
{ACAD_REACTORS
330
1CF8D
102
}
330
1CF8D
100
AcDbXrecord
280
     1
340
747D
  0
XRECORD
  5
1CF8C
102
{ACAD_REACTORS
330
1CF8B
102
}
330
1CF8B
100
AcDbXrecord
280
     1
340
747A
  0
LAYOUT
  5
1CF5F
102
{ACAD_REACTORS
330
1CF5D
102
}
330
1CF5D
100
AcDbPlotSettings
  1

  2
Canon LBP-730
  4

  6

 40
0.0
 41
0.0
 42
0.0
 43
0.0
 44
0.0
 45
0.0
 46
0.0
 47
0.0
 48
0.0
 49
0.0
140
0.0
141
0.0
142
1.0
143
1.0
 70
  1712
 72
     0
 73
     0
 74
     0
  7

 75
     0
147
1.0
148
0.0
149
0.0
100
AcDbLayout
  1
Model
 70
     1
 71
     0
 10
0.0
 20
0.0
 11
12.0
 21
9.0
 12
0.0
 22
0.0
 32
0.0
 14
0.0
 24
0.0
 34
0.0
 15
0.0
 25
0.0
 35
0.0
146
0.0
 13
0.0
 23
0.0
 33
0.0
 16
1.0
 26
0.0
 36
0.0
 17
0.0
 27
1.0
 37
0.0
 76
     0
330
747D
  0
LAYOUT
  5
1CF60
102
{ACAD_REACTORS
330
1CF5D
102
}
330
1CF5D
100
AcDbPlotSettings
  1

  2
Canon LBP-730
  4

  6

 40
0.0
 41
0.0
 42
0.0
 43
0.0
 44
0.0
 45
0.0
 46
0.0
 47
0.0
 48
0.0
 49
0.0
140
0.0
141
0.0
142
1.0
143
1.0
 70
   688
 72
     0
 73
     0
 74
     5
  7

 75
    16
147
1.0
148
0.0
149
0.0
100
AcDbLayout
  1
ﾚｲｱｳﾄ1
 70
     0
 71
     1
 10
0.0
 20
0.0
 11
420.0
 21
297.0
 12
0.0
 22
0.0
 32
0.0
 14
1.000000000000000E+20
 24
1.000000000000000E+20
 34
1.000000000000000E+20
 15
-1.000000000000000E+20
 25
-1.000000000000000E+20
 35
-1.000000000000000E+20
146
0.0
 13
0.0
 23
0.0
 33
0.0
 16
1.0
 26
0.0
 36
0.0
 17
0.0
 27
1.0
 37
0.0
 76
     0
330
747A
  0
MLINESTYLE
  5
7480
102
{ACAD_REACTORS
330
7473
102
}
330
7473
100
AcDbMlineStyle
  2
STANDARD
 70
     0
  3

 62
     0
 51
90.0
 52
90.0
 71
     2
 49
0.5
 62
   256
  6
BYLAYER
 49
-0.5
 62
   256
  6
BYLAYER
  0
ACDBPLACEHOLDER
  5
1CF5C
102
{ACAD_REACTORS
330
1CF5B
102
}
330
1CF5B
  0
XRECORD
  5
1CFF0
102
{ACAD_REACTORS
330
1CFE6
102
}
330
1CFE6
100
AcDbXrecord
280
     1
 90
        0
  0
XRECORD
  5
1CFF4
102
{ACAD_REACTORS
330
1CFE6
102
}
330
1CFE6
100
AcDbXrecord
280
     1
1000
DSTYLE
1002
{
1070
   341
340
F770
1070
   343
340
F770
1070
   344
340
F770
1002
}
  0
XRECORD
  5
1CFF1
102
{ACAD_REACTORS
330
1CFE6
102
}
330
1CFE6
100
AcDbXrecord
280
     1
  1
{697DFE3D-F946-11D6-AF94-00909916878D}
  0
XRECORD
  5
1CFE9
102
{ACAD_REACTORS
330
1CFE6
102
}
330
1CFE6
100
AcDbXrecord
280
     1
  1

  0
XRECORD
  5
1CFEF
102
{ACAD_REACTORS
330
1CFE6
102
}
330
1CFE6
100
AcDbXrecord
280
     1
 90
        0
  0
XRECORD
  5
1CFEB
102
{ACAD_REACTORS
330
1CFE6
102
}
330
1CFE6
100
AcDbXrecord
280
     1
340
1CF5D
  0
XRECORD
  5
1CFEE
102
{ACAD_REACTORS
330
1CFE6
102
}
330
1CFE6
100
AcDbXrecord
280
     1
 90
    14877
  0
XRECORD
  5
1CFEC
102
{ACAD_REACTORS
330
1CFE6
102
}
330
1CFE6
100
AcDbXrecord
280
     1
340
1CF5E
  0
XRECORD
  5
1CFED
102
{ACAD_REACTORS
330
1CFE6
102
}
330
1CFE6
100
AcDbXrecord
280
     1
340
1CF5B
  0
XRECORD
  5
1CFF3
102
{ACAD_REACTORS
330
1CFE6
102
}
330
1CFE6
100
AcDbXrecord
280
     1
 40
0.0
  0
XRECORD
  5
1CFF7
102
{ACAD_REACTORS
330
1CFE6
102
}
330
1CFE6
100
AcDbXrecord
280
     1
340
0
  0
XRECORD
  5
1CFFD
102
{ACAD_REACTORS
330
1CFE6
102
}
330
1CFE6
100
AcDbXrecord
280
     1
 10
0.0
 20
0.0
 30
0.0
  0
XRECORD
  5
1CFF9
102
{ACAD_REACTORS
330
1CFE6
102
}
330
1CFE6
100
AcDbXrecord
280
     1
 10
0.0
 20
0.0
 30
0.0
  0
XRECORD
  5
1CFFC
102
{ACAD_REACTORS
330
1CFE6
102
}
330
1CFE6
100
AcDbXrecord
280
     1
 10
0.0
 20
0.0
 30
0.0
  0
XRECORD
  5
1CFFA
102
{ACAD_REACTORS
330
1CFE6
102
}
330
1CFE6
100
AcDbXrecord
280
     1
 10
0.0
 20
0.0
 30
0.0
  0
XRECORD
  5
1CFFB
102
{ACAD_REACTORS
330
1CFE6
102
}
330
1CFE6
100
AcDbXrecord
280
     1
 10
0.0
 20
0.0
 30
0.0
  0
XRECORD
  5
1CFF8
102
{ACAD_REACTORS
330
1CFE6
102
}
330
1CFE6
100
AcDbXrecord
280
     1
 10
0.0
 20
0.0
 30
0.0
  0
XRECORD
  5
1CFF5
102
{ACAD_REACTORS
330
1CFE6
102
}
330
1CFE6
100
AcDbXrecord
280
     1
340
0
  0
XRECORD
  5
1CFF6
102
{ACAD_REACTORS
330
1CFE6
102
}
330
1CFE6
100
AcDbXrecord
280
     1
 70
     0
  0
XRECORD
  5
1CFEA
102
{ACAD_REACTORS
330
1CFE6
102
}
330
1CFE6
100
AcDbXrecord
280
     1
  1

  0
XRECORD
  5
1CFE7
102
{ACAD_REACTORS
330
1CFE6
102
}
330
1CFE6
100
AcDbXrecord
280
     1
 90
        1
  0
XRECORD
  5
1CFE8
102
{ACAD_REACTORS
330
1CFE6
102
}
330
1CFE6
100
AcDbXrecord
280
     1
 90
       70
  0
XRECORD
  5
1D000
102
{ACAD_REACTORS
330
1CFE6
102
}
330
1CFE6
100
AcDbXrecord
280
     1
340
0
  0
XRECORD
  5
1D006
102
{ACAD_REACTORS
330
1CFE6
102
}
330
1CFE6
100
AcDbXrecord
280
     1
 10
0.0
 20
0.0
 30
0.0
  0
XRECORD
  5
1D002
102
{ACAD_REACTORS
330
1CFE6
102
}
330
1CFE6
100
AcDbXrecord
280
     1
 10
0.0
 20
0.0
 30
0.0
  0
XRECORD
  5
1D005
102
{ACAD_REACTORS
330
1CFE6
102
}
330
1CFE6
100
AcDbXrecord
280
     1
 10
0.0
 20
0.0
 30
0.0
  0
XRECORD
  5
1D003
102
{ACAD_REACTORS
330
1CFE6
102
}
330
1CFE6
100
AcDbXrecord
280
     1
 10
0.0
 20
0.0
 30
0.0
  0
XRECORD
  5
1D004
102
{ACAD_REACTORS
330
1CFE6
102
}
330
1CFE6
100
AcDbXrecord
280
     1
 10
0.0
 20
0.0
 30
0.0
  0
XRECORD
  5
1D001
102
{ACAD_REACTORS
330
1CFE6
102
}
330
1CFE6
100
AcDbXrecord
280
     1
 10
0.0
 20
0.0
 30
0.0
  0
XRECORD
  5
1CFFE
102
{ACAD_REACTORS
330
1CFE6
102
}
330
1CFE6
100
AcDbXrecord
280
     1
340
0
  0
XRECORD
  5
1CFFF
102
{ACAD_REACTORS
330
1CFE6
102
}
330
1CFE6
100
AcDbXrecord
280
     1
 70
     0
  0
XRECORD
  5
1CFF2
102
{ACAD_REACTORS
330
1CFE6
102
}
330
1CFE6
100
AcDbXrecord
280
     1
  1
{697DFE3F-F946-11D6-AF94-00909916878D}
  0
DICTIONARYVAR
  5
1CFDD
102
{ACAD_REACTORS
330
123D8
102
}
330
123D8
100
DictionaryVariables
280
     0
  1
1
  0
DICTIONARYVAR
  5
123D9
102
{ACAD_REACTORS
330
123D8
102
}
330
123D8
100
DictionaryVariables
280
     0
  1
96
  0
ENDSEC
  0
EOF
