  0
SECTION
  2
HEADER
  9
$ACADVER
  1
AC1015
  9
$ACADMAINTVER
 70
     6
  9
$DWGCODEPAGE
  3
ANSI_932
  9
$INSBASE
 10
0.0
 20
0.0
 30
0.0
  9
$EXTMIN
 10
174.9999999999993
 20
-0.0000000000001137
 30
0.0
  9
$EXTMAX
 10
20384.0
 20
14262.0
 30
0.0
  9
$LIMMIN
 10
0.0
 20
0.0
  9
$LIMMAX
 10
21000.0
 20
14850.0
  9
$ORTHOMODE
 70
     0
  9
$REGENMODE
 70
     1
  9
$FILLMODE
 70
     1
  9
$QTEXTMODE
 70
     0
  9
$MIRRTEXT
 70
     1
  9
$LTSCALE
 40
20.0
  9
$ATTMODE
 70
     1
  9
$TEXTSIZE
 40
4.0
  9
$TRACEWID
 40
1.0
  9
$TEXTSTYLE
  7
STYLE1
  9
$CLAYER
  8
寸法
  9
$CELTYPE
  6
BYLAYER
  9
$CECOLOR
 62
   256
  9
$CELTSCALE
 40
50.0
  9
$DISPSILH
 70
     0
  9
$DIMSCALE
 40
1.0
  9
$DIMASZ
 40
125.0
  9
$DIMEXO
 40
25.0
  9
$DIMDLI
 40
7.0
  9
$DIMRND
 40
0.0
  9
$DIMDLE
 40
0.0
  9
$DIMEXE
 40
75.0
  9
$DIMTP
 40
0.0
  9
$DIMTM
 40
0.0
  9
$DIMTXT
 40
150.0
  9
$DIMCEN
 40
0.0
  9
$DIMTSZ
 40
0.0
  9
$DIMTOL
 70
     0
  9
$DIMLIM
 70
     0
  9
$DIMTIH
 70
     0
  9
$DIMTOH
 70
     0
  9
$DIMSE1
 70
     0
  9
$DIMSE2
 70
     0
  9
$DIMTAD
 70
     3
  9
$DIMZIN
 70
     8
  9
$DIMBLK
  1

  9
$DIMASO
 70
     1
  9
$DIMSHO
 70
     1
  9
$DIMPOST
  1

  9
$DIMAPOST
  1

  9
$DIMALT
 70
     0
  9
$DIMALTD
 70
     2
  9
$DIMALTF
 40
0.0394
  9
$DIMLFAC
 40
1.0
  9
$DIMTOFL
 70
     1
  9
$DIMTVP
 40
0.0
  9
$DIMTIX
 70
     1
  9
$DIMSOXD
 70
     0
  9
$DIMSAH
 70
     1
  9
$DIMBLK1
  1
DOTSMALL
  9
$DIMBLK2
  1
DOTSMALL
  9
$DIMSTYLE
  2
INABA_S50G
  9
$DIMCLRD
 70
     0
  9
$DIMCLRE
 70
     0
  9
$DIMCLRT
 70
     7
  9
$DIMTFAC
 40
1.0
  9
$DIMGAP
 40
25.0
  9
$DIMJUST
 70
     0
  9
$DIMSD1
 70
     0
  9
$DIMSD2
 70
     0
  9
$DIMTOLJ
 70
     1
  9
$DIMTZIN
 70
     0
  9
$DIMALTZ
 70
     0
  9
$DIMALTTZ
 70
     0
  9
$DIMUPT
 70
     0
  9
$DIMDEC
 70
     1
  9
$DIMTDEC
 70
     4
  9
$DIMALTU
 70
     2
  9
$DIMALTTD
 70
     2
  9
$DIMTXSTY
  7
STYLE1
  9
$DIMAUNIT
 70
     0
  9
$DIMADEC
 70
     0
  9
$DIMALTRND
 40
0.0
  9
$DIMAZIN
 70
     0
  9
$DIMDSEP
 70
    46
  9
$DIMATFIT
 70
     3
  9
$DIMFRAC
 70
     0
  9
$DIMLDRBLK
  1
DOTSMALL
  9
$DIMLUNIT
 70
     2
  9
$DIMLWD
 70
    -2
  9
$DIMLWE
 70
    -2
  9
$DIMTMOVE
 70
     0
  9
$LUNITS
 70
     2
  9
$LUPREC
 70
     1
  9
$SKETCHINC
 40
1.0
  9
$FILLETRAD
 40
3.0
  9
$AUNITS
 70
     0
  9
$AUPREC
 70
     0
  9
$MENU
  1
acad
  9
$ELEVATION
 40
0.0
  9
$PELEVATION
 40
0.0
  9
$THICKNESS
 40
0.0
  9
$LIMCHECK
 70
     0
  9
$CHAMFERA
 40
0.0
  9
$CHAMFERB
 40
0.0
  9
$CHAMFERC
 40
0.0
  9
$CHAMFERD
 40
0.0
  9
$SKPOLY
 70
     0
  9
$TDCREATE
 40
2452335.452219212
  9
$TDUCREATE
 40
2452335.077219213
  9
$TDUPDATE
 40
2452595.497856365
  9
$TDUUPDATE
 40
2452595.122856365
  9
$TDINDWG
 40
1.3430211806
  9
$TDUSRTIMER
 40
1.3430211806
  9
$USRTIMER
 70
     1
  9
$ANGBASE
 50
0.0
  9
$ANGDIR
 70
     0
  9
$PDMODE
 70
     3
  9
$PDSIZE
 40
2.0
  9
$PLINEWID
 40
0.0
  9
$SPLFRAME
 70
     0
  9
$SPLINETYPE
 70
     6
  9
$SPLINESEGS
 70
     8
  9
$HANDSEED
  5
1BB4D
  9
$SURFTAB1
 70
     6
  9
$SURFTAB2
 70
     6
  9
$SURFTYPE
 70
     6
  9
$SURFU
 70
     6
  9
$SURFV
 70
     6
  9
$UCSBASE
  2

  9
$UCSNAME
  2

  9
$UCSORG
 10
0.0
 20
0.0
 30
0.0
  9
$UCSXDIR
 10
1.0
 20
0.0
 30
0.0
  9
$UCSYDIR
 10
0.0
 20
1.0
 30
0.0
  9
$UCSORTHOREF
  2

  9
$UCSORTHOVIEW
 70
     0
  9
$UCSORGTOP
 10
0.0
 20
0.0
 30
0.0
  9
$UCSORGBOTTOM
 10
0.0
 20
0.0
 30
0.0
  9
$UCSORGLEFT
 10
0.0
 20
0.0
 30
0.0
  9
$UCSORGRIGHT
 10
0.0
 20
0.0
 30
0.0
  9
$UCSORGFRONT
 10
0.0
 20
0.0
 30
0.0
  9
$UCSORGBACK
 10
0.0
 20
0.0
 30
0.0
  9
$PUCSBASE
  2

  9
$PUCSNAME
  2

  9
$PUCSORG
 10
0.0
 20
0.0
 30
0.0
  9
$PUCSXDIR
 10
1.0
 20
0.0
 30
0.0
  9
$PUCSYDIR
 10
0.0
 20
1.0
 30
0.0
  9
$PUCSORTHOREF
  2

  9
$PUCSORTHOVIEW
 70
     0
  9
$PUCSORGTOP
 10
0.0
 20
0.0
 30
0.0
  9
$PUCSORGBOTTOM
 10
0.0
 20
0.0
 30
0.0
  9
$PUCSORGLEFT
 10
0.0
 20
0.0
 30
0.0
  9
$PUCSORGRIGHT
 10
0.0
 20
0.0
 30
0.0
  9
$PUCSORGFRONT
 10
0.0
 20
0.0
 30
0.0
  9
$PUCSORGBACK
 10
0.0
 20
0.0
 30
0.0
  9
$USERI1
 70
     0
  9
$USERI2
 70
     0
  9
$USERI3
 70
     0
  9
$USERI4
 70
     0
  9
$USERI5
 70
     0
  9
$USERR1
 40
0.0
  9
$USERR2
 40
0.0
  9
$USERR3
 40
0.0
  9
$USERR4
 40
0.0
  9
$USERR5
 40
0.0
  9
$WORLDVIEW
 70
     1
  9
$SHADEDGE
 70
     3
  9
$SHADEDIF
 70
    70
  9
$TILEMODE
 70
     1
  9
$MAXACTVP
 70
    16
  9
$PINSBASE
 10
0.0
 20
0.0
 30
0.0
  9
$PLIMCHECK
 70
     0
  9
$PEXTMIN
 10
1.000000000000000E+20
 20
1.000000000000000E+20
 30
1.000000000000000E+20
  9
$PEXTMAX
 10
-1.000000000000000E+20
 20
-1.000000000000000E+20
 30
-1.000000000000000E+20
  9
$PLIMMIN
 10
0.0
 20
0.0
  9
$PLIMMAX
 10
420.0
 20
297.0
  9
$UNITMODE
 70
     0
  9
$VISRETAIN
 70
     0
  9
$PLINEGEN
 70
     0
  9
$PSLTSCALE
 70
     0
  9
$TREEDEPTH
 70
  3020
  9
$CMLSTYLE
  2
STANDARD
  9
$CMLJUST
 70
     0
  9
$CMLSCALE
 40
1.0
  9
$PROXYGRAPHICS
 70
     1
  9
$MEASUREMENT
 70
     1
  9
$CELWEIGHT
370
    -1
  9
$ENDCAPS
280
     0
  9
$JOINSTYLE
280
     0
  9
$LWDISPLAY
290
     0
  9
$INSUNITS
 70
     0
  9
$HYPERLINKBASE
  1

  9
$STYLESHEET
  1

  9
$XEDIT
290
     1
  9
$CEPSNTYPE
380
     0
  9
$PSTYLEMODE
290
     1
  9
$FINGERPRINTGUID
  2
{697DFF94-F946-11D6-AF94-00909916878D}
  9
$VERSIONGUID
  2
{697DFF96-F946-11D6-AF94-00909916878D}
  9
$EXTNAMES
290
     1
  9
$PSVPSCALE
 40
0.0
  9
$OLESTARTUP
290
     0
  0
ENDSEC
  0
SECTION
  2
CLASSES
  0
CLASS
  1
OLE2FRAME
  2
AcDbOle2Frame
  3
AutoCAD 2000
 90
    32768
280
     0
281
     1
  0
CLASS
  1
LWPOLYLINE
  2
AcDbPolyline
  3
AutoCAD 2000
 90
    32768
280
     0
281
     1
  0
CLASS
  1
HATCH
  2
AcDbHatch
  3
AutoCAD 2000
 90
    32768
280
     0
281
     1
  0
CLASS
  1
DICTIONARYVAR
  2
AcDbDictionaryVar
  3
AutoCAD 2000
 90
        0
280
     0
281
     0
  0
CLASS
  1
ACDBDICTIONARYWDFLT
  2
AcDbDictionaryWithDefault
  3
AutoCAD 2000
 90
        0
280
     0
281
     0
  0
CLASS
  1
ACDBPLACEHOLDER
  2
AcDbPlaceHolder
  3
AutoCAD 2000
 90
        0
280
     0
281
     0
  0
CLASS
  1
LAYOUT
  2
AcDbLayout
  3
AutoCAD 2000
 90
        0
280
     0
281
     0
  0
CLASS
  1
LONG_TRANSACTION
  2
AcDbLongTransaction
  3
AutoCAD 2000
 90
    32768
280
     0
281
     0
  0
CLASS
  1
LWPOLYLINE
  2
AcDbPolyline
  3
AutoCAD 2000
 90
    32768
280
     0
281
     1
  0
CLASS
  1
HATCH
  2
AcDbHatch
  3
AutoCAD 2000
 90
    32768
280
     0
281
     1
  0
CLASS
  1
XRECORD
  2
AcDbXrecord
  3
AutoCAD 2000
 90
    32768
280
     0
281
     0
  0
ENDSEC
  0
SECTION
  2
TABLES
  0
TABLE
  2
VPORT
  5
746D
330
0
100
AcDbSymbolTable
 70
     2
  0
VPORT
  5
1BB2B
330
746D
100
AcDbSymbolTableRecord
100
AcDbViewportTableRecord
  2
*Active
 70
     0
 10
0.0
 20
0.0
 11
1.0
 21
1.0
 12
10500.0
 22
7424.773424269833
 13
0.0
 23
0.0
 14
10.0
 24
10.0
 15
10.0
 25
10.0
 16
0.0
 26
0.0
 36
1.0
 17
0.0
 27
0.0
 37
0.0
 40
15025.50760904139
 41
2.12007874015748
 42
50.0
 43
0.0
 44
0.0
 50
0.0
 51
0.0
 71
     0
 72
     0
 73
     1
 74
     0
 75
     0
 76
     0
 77
     0
 78
     0
281
     0
 65
     1
110
0.0
120
0.0
130
0.0
111
1.0
121
0.0
131
0.0
112
0.0
122
1.0
132
0.0
 79
     0
146
0.0
  0
ENDTAB
  0
TABLE
  2
LTYPE
  5
746A
330
0
100
AcDbSymbolTable
 70
     4
  0
LTYPE
  5
7477
330
746A
100
AcDbSymbolTableRecord
100
AcDbLinetypeTableRecord
  2
BYBLOCK
 70
     0
  3

 72
    65
 73
     0
 40
0.0
  0
LTYPE
  5
7478
330
746A
100
AcDbSymbolTableRecord
100
AcDbLinetypeTableRecord
  2
BYLAYER
 70
     0
  3

 72
    65
 73
     0
 40
0.0
  0
LTYPE
  5
7479
330
746A
100
AcDbSymbolTableRecord
100
AcDbLinetypeTableRecord
  2
CONTINUOUS
 70
     0
  3
Solid line
 72
    65
 73
     0
 40
0.0
  0
LTYPE
  5
7816
330
746A
100
AcDbSymbolTableRecord
100
AcDbLinetypeTableRecord
  2
CENTER
 70
     0
  3
____ _ ____ _ ____ _ ____ _ ____ _ ____ _ ____ 
 72
    65
 73
     4
 40
2.0
 49
1.25
 74
     0
 49
-0.25
 74
     0
 49
0.25
 74
     0
 49
-0.25
 74
     0
  0
LTYPE
  5
781A
330
746A
100
AcDbSymbolTableRecord
100
AcDbLinetypeTableRecord
  2
HIDDEN
 70
     0
  3
__ __ __ __ __ __ __ __ __ __ __ __ __ __ __ __
 72
    65
 73
     2
 40
0.375
 49
0.25
 74
     0
 49
-0.125
 74
     0
  0
LTYPE
  5
781B
330
746A
100
AcDbSymbolTableRecord
100
AcDbLinetypeTableRecord
  2
PHANTOM
 70
     0
  3
______  __  __  ______  __  __  ______  __  __ 
 72
    65
 73
     6
 40
2.5
 49
1.25
 74
     0
 49
-0.25
 74
     0
 49
0.25
 74
     0
 49
-0.25
 74
     0
 49
0.25
 74
     0
 49
-0.25
 74
     0
  0
ENDTAB
  0
TABLE
  2
LAYER
  5
7467
330
0
100
AcDbSymbolTable
 70
    12
  0
LAYER
  5
7474
330
7467
100
AcDbSymbolTableRecord
100
AcDbLayerTableRecord
  2
0
 70
     0
 62
     7
  6
CONTINUOUS
370
    -3
390
1BAB2
  0
LAYER
  5
DEB2
330
7467
100
AcDbSymbolTableRecord
100
AcDbLayerTableRecord
  2
センター
 70
     0
 62
     3
  6
CENTER
370
    -3
390
1BAB2
  0
LAYER
  5
DEB3
330
7467
100
AcDbSymbolTableRecord
100
AcDbLayerTableRecord
  2
寸法
 70
     0
 62
     4
  6
CONTINUOUS
370
    -3
390
1BAB2
  0
LAYER
  5
DEB4
330
7467
100
AcDbSymbolTableRecord
100
AcDbLayerTableRecord
  2
部品1
 70
     0
 62
     7
  6
CONTINUOUS
370
    -3
390
1BAB2
  0
LAYER
  5
DEB5
330
7467
100
AcDbSymbolTableRecord
100
AcDbLayerTableRecord
  2
補助
 70
     0
 62
    -1
  6
CONTINUOUS
370
    -3
390
1BAB2
  0
LAYER
  5
DEB6
330
7467
100
AcDbSymbolTableRecord
100
AcDbLayerTableRecord
  2
文字
 70
     0
 62
     7
  6
CONTINUOUS
370
    -3
390
1BAB2
  0
LAYER
  5
F255
330
7467
100
AcDbSymbolTableRecord
100
AcDbLayerTableRecord
  2
DEFPOINTS
 70
     0
 62
     7
  6
CONTINUOUS
290
     0
370
    -3
390
1BAB2
  0
LAYER
  5
10B54
330
7467
100
AcDbSymbolTableRecord
100
AcDbLayerTableRecord
  2
仕様書枠
 70
     0
 62
   230
  6
CONTINUOUS
370
    -3
390
1BAB2
  0
LAYER
  5
11729
330
7467
100
AcDbSymbolTableRecord
100
AcDbLayerTableRecord
  2
Ｇ．Ｌ
 70
     0
 62
    30
  6
CONTINUOUS
370
    -3
390
1BAB2
  0
LAYER
  5
1173F
330
7467
100
AcDbSymbolTableRecord
100
AcDbLayerTableRecord
  2
細線
 70
     0
 62
     5
  6
CONTINUOUS
370
    -3
390
1BAB2
  0
LAYER
  5
15A90
330
7467
100
AcDbSymbolTableRecord
100
AcDbLayerTableRecord
  2
想像線
 70
     0
 62
     6
  6
PHANTOM
370
    -3
390
1BAB2
  0
LAYER
  5
188E2
330
7467
100
AcDbSymbolTableRecord
100
AcDbLayerTableRecord
  2
破線
 70
     0
 62
     2
  6
HIDDEN
370
    -3
390
1BAB2
  0
ENDTAB
  0
TABLE
  2
STYLE
  5
7468
330
0
100
AcDbSymbolTable
 70
     3
  0
STYLE
  5
7475
330
7468
100
AcDbSymbolTableRecord
100
AcDbTextStyleTableRecord
  2
STANDARD
 70
     0
 40
0.0
 41
1.0
 50
0.0
 71
     0
 42
4.0
  3
txt
  4
C:\AutoCAD LT\bigfont.shx
  0
STYLE
  5
F706
330
7468
100
AcDbSymbolTableRecord
100
AcDbTextStyleTableRecord
  2
STYLE1
 70
     0
 40
0.0
 41
1.0
 50
0.0
 71
     0
 42
4.0
  3
isocp.shx
  4
bigfont.shx
  0
STYLE
  5
103BF
330
7468
100
AcDbSymbolTableRecord
100
AcDbTextStyleTableRecord
  2
STYLE2
 70
     0
 40
0.0
 41
1.0
 50
0.0
 71
     0
 42
100.0
  3
MS PGothic.ttf
  4

1001
ACAD
1000
MS PGothic
1071
    32818
  0
ENDTAB
  0
TABLE
  2
VIEW
  5
746B
330
0
100
AcDbSymbolTable
 70
     0
  0
ENDTAB
  0
TABLE
  2
UCS
  5
746C
330
0
100
AcDbSymbolTable
 70
     0
  0
ENDTAB
  0
TABLE
  2
APPID
  5
746E
330
0
100
AcDbSymbolTable
 70
     6
  0
APPID
  5
7476
330
746E
100
AcDbSymbolTableRecord
100
AcDbRegAppTableRecord
  2
ACAD
 70
     0
  0
APPID
  5
DEA9
330
746E
100
AcDbSymbolTableRecord
100
AcDbRegAppTableRecord
  2
CONTENTBLOCKICON
 70
     0
  0
APPID
  5
DEAA
330
746E
100
AcDbSymbolTableRecord
100
AcDbRegAppTableRecord
  2
CONTENTBLOCKDESCRIPTION
 70
     0
  0
APPID
  5
E71D
330
746E
100
AcDbSymbolTableRecord
100
AcDbRegAppTableRecord
  2
CONTENTTABDATA
 70
     0
  0
APPID
  5
E71E
330
746E
100
AcDbSymbolTableRecord
100
AcDbRegAppTableRecord
  2
CONTENTCURRENTTAB
 70
     0
  0
APPID
  5
F3BA
330
746E
100
AcDbSymbolTableRecord
100
AcDbRegAppTableRecord
  2
DRAWINGVARIABLESXDATA
 70
     0
  0
ENDTAB
  0
TABLE
  2
DIMSTYLE
  5
746F
330
0
100
AcDbSymbolTable
 70
     2
100
AcDbDimStyleTable
 71
     0
  0
DIMSTYLE
105
7484
330
746F
100
AcDbSymbolTableRecord
100
AcDbDimStyleTableRecord
  2
JIS
 70
     0
 41
2.5
 42
1.0
 43
7.0
 44
1.0
 73
     0
 74
     0
 77
     1
 78
     8
140
2.5
141
0.0
143
0.0394
147
0.0
172
     1
174
     1
175
     1
340
7475
  0
DIMSTYLE
105
F71F
102
{ACAD_REACTORS
330
1852D
330
1852B
330
1852F
330
1852C
330
1852E
330
185AE
330
185B1
330
185B4
330
185AD
330
185AF
330
185B3
330
1868C
330
186AF
330
18778
330
1A2E5
330
1852A
330
1AE97
330
1AEA6
330
1AEA7
330
1AEE4
330
1AF0E
330
1AF10
330
1AF1A
330
1B46C
330
1B46D
330
1B478
330
1B479
330
1B47C
330
1B47D
330
1B480
330
1B482
330
1B492
330
1B493
330
1B4A5
330
1B4DB
330
1B866
330
1B867
330
1B869
330
1B87E
330
1B87F
330
1B880
330
1B889
330
1B88B
330
1B892
330
1B923
330
1B926
102
}
330
746F
100
AcDbSymbolTableRecord
100
AcDbDimStyleTableRecord
  2
INABA_S50G
 70
     0
 41
125.0
 42
25.0
 43
7.0
 44
75.0
 73
     0
 74
     0
 77
     3
 78
     8
140
150.0
141
0.0
143
0.0394
147
25.0
172
     1
173
     1
174
     1
178
     7
271
     1
340
F706
341
F770
343
F770
344
F770
  0
ENDTAB
  0
TABLE
  2
BLOCK_RECORD
  5
7466
330
0
100
AcDbSymbolTable
 70
    47
  0
BLOCK_RECORD
  5
747D
102
{ACAD_XDICTIONARY
360
1BAE3
102
}
330
7466
100
AcDbSymbolTableRecord
100
AcDbBlockTableRecord
  2
*MODEL_SPACE
340
1BAB5
  0
BLOCK_RECORD
  5
747A
102
{ACAD_XDICTIONARY
360
1BAE1
102
}
330
7466
100
AcDbSymbolTableRecord
100
AcDbBlockTableRecord
  2
*PAPER_SPACE
340
1BAB6
  0
BLOCK_RECORD
  5
F770
330
7466
100
AcDbSymbolTableRecord
100
AcDbBlockTableRecord
  2
_DOTSMALL
340
0
102
{BLKREFS
331
18581
331
18582
331
1B652
331
1B653
331
18599
331
1859A
331
1A4EB
331
1A4EC
331
1B65F
331
1B660
331
1A4D4
331
1A4D5
331
18629
331
1862A
331
1BAF3
331
1BAF4
331
1865B
331
1865C
331
1861D
331
1861E
331
1BAEB
331
1BAEC
331
1864F
331
18650
331
1B2D6
331
1B2D7
331
1B647
331
1B648
331
1A498
331
1A499
331
1A8A7
331
1A8A8
331
1AF87
331
1AF88
331
1B290
331
1B291
331
1BAFB
331
1BAFC
331
1AFA8
331
1AFA9
331
1BB03
331
1BB04
331
1AFBE
331
1AFBF
331
1AFCA
331
1AFCB
331
1B5B4
331
1B5B5
331
1B5C0
331
1B5C1
331
1B5CB
331
1B5CC
331
1BB0B
331
1BB0C
331
1B5E0
331
1B5E1
331
1BB13
331
1BB14
331
1B5F5
331
1B5F6
331
1B601
331
1B602
331
1B60D
331
1B60E
331
1B674
331
1B675
331
1B624
331
1B625
331
1B630
331
1B631
331
1BA2F
331
1BA30
331
1BA3A
331
1BA3B
331
1BB1B
331
1BB1C
331
1BA4F
331
1BA50
331
1BA5A
331
1BA5B
331
1BA65
331
1BA66
331
1BA70
331
1BA71
331
1BA7B
331
1BA7C
331
1BA87
331
1BA88
331
1BA93
331
1BA94
331
1BA9F
331
1BAA0
102
}
  0
BLOCK_RECORD
  5
18530
330
7466
100
AcDbSymbolTableRecord
100
AcDbBlockTableRecord
  2
*D1
340
0
  0
BLOCK_RECORD
  5
1853D
330
7466
100
AcDbSymbolTableRecord
100
AcDbBlockTableRecord
  2
*D2
340
0
  0
BLOCK_RECORD
  5
18549
330
7466
100
AcDbSymbolTableRecord
100
AcDbBlockTableRecord
  2
*D3
340
0
  0
BLOCK_RECORD
  5
18556
330
7466
100
AcDbSymbolTableRecord
100
AcDbBlockTableRecord
  2
*D4
340
0
  0
BLOCK_RECORD
  5
18563
330
7466
100
AcDbSymbolTableRecord
100
AcDbBlockTableRecord
  2
*D5
340
0
  0
BLOCK_RECORD
  5
1856F
330
7466
100
AcDbSymbolTableRecord
100
AcDbBlockTableRecord
  2
*D6
340
0
  0
BLOCK_RECORD
  5
185B5
330
7466
100
AcDbSymbolTableRecord
100
AcDbBlockTableRecord
  2
*D7
340
0
  0
BLOCK_RECORD
  5
185C2
330
7466
100
AcDbSymbolTableRecord
100
AcDbBlockTableRecord
  2
*D8
340
0
  0
BLOCK_RECORD
  5
185E5
330
7466
100
AcDbSymbolTableRecord
100
AcDbBlockTableRecord
  2
*D9
340
0
  0
BLOCK_RECORD
  5
185F2
330
7466
100
AcDbSymbolTableRecord
100
AcDbBlockTableRecord
  2
*D10
340
0
  0
BLOCK_RECORD
  5
185FF
330
7466
100
AcDbSymbolTableRecord
100
AcDbBlockTableRecord
  2
*D11
340
0
  0
BLOCK_RECORD
  5
1860A
330
7466
100
AcDbSymbolTableRecord
100
AcDbBlockTableRecord
  2
*D12
340
0
  0
BLOCK_RECORD
  5
1868D
330
7466
100
AcDbSymbolTableRecord
100
AcDbBlockTableRecord
  2
*D13
340
0
  0
BLOCK_RECORD
  5
186B0
330
7466
100
AcDbSymbolTableRecord
100
AcDbBlockTableRecord
  2
*D14
340
0
  0
BLOCK_RECORD
  5
1876C
330
7466
100
AcDbSymbolTableRecord
100
AcDbBlockTableRecord
  2
*D15
340
0
  0
BLOCK_RECORD
  5
1A2D7
330
7466
100
AcDbSymbolTableRecord
100
AcDbBlockTableRecord
  2
*D16
340
0
  0
BLOCK_RECORD
  5
1AF2C
330
7466
100
AcDbSymbolTableRecord
100
AcDbBlockTableRecord
  2
*D17
340
0
  0
BLOCK_RECORD
  5
1AF39
330
7466
100
AcDbSymbolTableRecord
100
AcDbBlockTableRecord
  2
*D18
340
0
  0
BLOCK_RECORD
  5
1AF45
330
7466
100
AcDbSymbolTableRecord
100
AcDbBlockTableRecord
  2
*D19
340
0
  0
BLOCK_RECORD
  5
1AF50
330
7466
100
AcDbSymbolTableRecord
100
AcDbBlockTableRecord
  2
*D20
340
0
  0
BLOCK_RECORD
  5
1AF5D
330
7466
100
AcDbSymbolTableRecord
100
AcDbBlockTableRecord
  2
*D21
340
0
  0
BLOCK_RECORD
  5
1AF68
330
7466
100
AcDbSymbolTableRecord
100
AcDbBlockTableRecord
  2
*D22
340
0
  0
BLOCK_RECORD
  5
1AF75
330
7466
100
AcDbSymbolTableRecord
100
AcDbBlockTableRecord
  2
*D23
340
0
  0
BLOCK_RECORD
  5
1B51B
330
7466
100
AcDbSymbolTableRecord
100
AcDbBlockTableRecord
  2
*D24
340
0
  0
BLOCK_RECORD
  5
1B528
330
7466
100
AcDbSymbolTableRecord
100
AcDbBlockTableRecord
  2
*D25
340
0
  0
BLOCK_RECORD
  5
1B535
330
7466
100
AcDbSymbolTableRecord
100
AcDbBlockTableRecord
  2
*D26
340
0
  0
BLOCK_RECORD
  5
1B541
330
7466
100
AcDbSymbolTableRecord
100
AcDbBlockTableRecord
  2
*D27
340
0
  0
BLOCK_RECORD
  5
1B54C
330
7466
100
AcDbSymbolTableRecord
100
AcDbBlockTableRecord
  2
*D28
340
0
  0
BLOCK_RECORD
  5
1B558
330
7466
100
AcDbSymbolTableRecord
100
AcDbBlockTableRecord
  2
*D29
340
0
  0
BLOCK_RECORD
  5
1B563
330
7466
100
AcDbSymbolTableRecord
100
AcDbBlockTableRecord
  2
*D30
340
0
  0
BLOCK_RECORD
  5
1B56F
330
7466
100
AcDbSymbolTableRecord
100
AcDbBlockTableRecord
  2
*D31
340
0
  0
BLOCK_RECORD
  5
1B57C
330
7466
100
AcDbSymbolTableRecord
100
AcDbBlockTableRecord
  2
*D32
340
0
  0
BLOCK_RECORD
  5
1B589
330
7466
100
AcDbSymbolTableRecord
100
AcDbBlockTableRecord
  2
*D33
340
0
  0
BLOCK_RECORD
  5
1B596
330
7466
100
AcDbSymbolTableRecord
100
AcDbBlockTableRecord
  2
*D34
340
0
  0
BLOCK_RECORD
  5
1B5A2
330
7466
100
AcDbSymbolTableRecord
100
AcDbBlockTableRecord
  2
*D35
340
0
  0
BLOCK_RECORD
  5
1B9A3
330
7466
100
AcDbSymbolTableRecord
100
AcDbBlockTableRecord
  2
*D36
340
0
  0
BLOCK_RECORD
  5
1B9B0
330
7466
100
AcDbSymbolTableRecord
100
AcDbBlockTableRecord
  2
*D37
340
0
  0
BLOCK_RECORD
  5
1B9BC
330
7466
100
AcDbSymbolTableRecord
100
AcDbBlockTableRecord
  2
*D38
340
0
  0
BLOCK_RECORD
  5
1B9C7
330
7466
100
AcDbSymbolTableRecord
100
AcDbBlockTableRecord
  2
*D39
340
0
  0
BLOCK_RECORD
  5
1B9D3
330
7466
100
AcDbSymbolTableRecord
100
AcDbBlockTableRecord
  2
*D40
340
0
  0
BLOCK_RECORD
  5
1B9DF
330
7466
100
AcDbSymbolTableRecord
100
AcDbBlockTableRecord
  2
*D41
340
0
  0
BLOCK_RECORD
  5
1B9EB
330
7466
100
AcDbSymbolTableRecord
100
AcDbBlockTableRecord
  2
*D42
340
0
  0
BLOCK_RECORD
  5
1B9F7
330
7466
100
AcDbSymbolTableRecord
100
AcDbBlockTableRecord
  2
*D43
340
0
  0
BLOCK_RECORD
  5
1BA03
330
7466
100
AcDbSymbolTableRecord
100
AcDbBlockTableRecord
  2
*D44
340
0
  0
BLOCK_RECORD
  5
1BA10
330
7466
100
AcDbSymbolTableRecord
100
AcDbBlockTableRecord
  2
*D45
340
0
  0
BLOCK_RECORD
  5
1BA1D
330
7466
100
AcDbSymbolTableRecord
100
AcDbBlockTableRecord
  2
*D46
340
0
  0
ENDTAB
  0
ENDSEC
  0
SECTION
  2
BLOCKS
  0
BLOCK
  5
7489
330
747D
100
AcDbEntity
  8
0
100
AcDbBlockBegin
  2
*MODEL_SPACE
 70
     0
 10
0.0
 20
0.0
 30
0.0
  3
*MODEL_SPACE
  1

  0
ENDBLK
  5
748A
330
747D
100
AcDbEntity
  8
0
100
AcDbBlockEnd
  0
BLOCK
  5
7487
330
747A
100
AcDbEntity
 67
     1
  8
0
100
AcDbBlockBegin
  2
*PAPER_SPACE
 70
     0
 10
0.0
 20
0.0
 30
0.0
  3
*PAPER_SPACE
  1

  0
ENDBLK
  5
7488
330
747A
100
AcDbEntity
 67
     1
  8
0
100
AcDbBlockEnd
  0
BLOCK
  5
F771
330
F770
100
AcDbEntity
  8
0
 48
50.0
100
AcDbBlockBegin
  2
_DOTSMALL
 70
     0
 10
0.0
 20
0.0
 30
0.0
  3
_DOTSMALL
  1

  0
LWPOLYLINE
  5
F772
330
F770
100
AcDbEntity
  8
0
  6
ByBlock
 62
     0
 48
50.0
100
AcDbPolyline
 90
        2
 70
     1
 43
0.5
 10
-0.0625
 20
0.0
 42
1.0
 10
0.0625
 20
0.0
 42
1.0
  0
ENDBLK
  5
F776
330
F770
100
AcDbEntity
  8
0
 48
50.0
100
AcDbBlockEnd
  0
BLOCK
  5
1857C
330
18530
100
AcDbEntity
  8
0
 48
50.0
100
AcDbBlockBegin
  2
*D1
 70
     1
 10
0.0
 20
0.0
 30
0.0
  3
*D1
  1

  0
LINE
  5
1857D
330
18530
100
AcDbEntity
  8
0
  6
ByBlock
 62
     0
 48
50.0
100
AcDbLine
 10
16722.46242649134
 20
9602.681515694126
 30
0.0
 11
17593.79817887432
 21
9602.681515694126
 31
0.0
  0
LINE
  5
1857E
330
18530
100
AcDbEntity
  8
0
  6
ByBlock
 62
     0
 48
50.0
100
AcDbLine
 10
16732.46242649134
 20
9672.681515694129
 30
0.0
 11
17593.79817887432
 21
9672.681515694129
 31
0.0
  0
LINE
  5
1857F
330
18530
100
AcDbEntity
  8
0
  6
ByBlock
 62
     0
 48
50.0
100
AcDbLine
 10
17518.79817887432
 20
9672.681515694129
 30
0.0
 11
17518.79817887432
 21
9602.681515694126
 31
0.0
  0
LINE
  5
18580
330
18530
100
AcDbEntity
  8
0
  6
ByBlock
 62
     0
 48
50.0
100
AcDbLine
 10
17518.79817887432
 20
9602.681515694126
 30
0.0
 11
17518.79817887432
 21
9262.563405457903
 31
0.0
  0
INSERT
  5
18581
330
18530
100
AcDbEntity
  8
0
  6
ByBlock
 62
     0
 48
50.0
100
AcDbBlockReference
  2
_DOTSMALL
 10
17518.79817887432
 20
9672.681515694129
 30
0.0
 41
125.0
 42
125.0
 43
125.0
 50
90.0
  0
INSERT
  5
18582
330
18530
100
AcDbEntity
  8
0
  6
ByBlock
 62
     0
 48
50.0
100
AcDbBlockReference
  2
_DOTSMALL
 10
17518.79817887432
 20
9602.681515694126
 30
0.0
 41
125.0
 42
125.0
 43
125.0
 50
270.0
  0
MTEXT
  5
18583
330
18530
100
AcDbEntity
  8
0
  6
ByBlock
 62
     7
 48
50.0
100
AcDbMText
 10
17418.79817887432
 20
9370.122460576014
 30
0.0
 40
150.0
 41
0.0
 71
     5
 72
     1
  1
\A1;70
  7
STYLE1
 11
0.0000000000000001
 21
1.0
 31
0.0
 73
     1
 44
1.0
  0
POINT
  5
18584
330
18530
100
AcDbEntity
  8
DEFPOINTS
  6
ByBlock
 62
     0
 48
50.0
100
AcDbPoint
 10
16697.46242649134
 20
9602.681515694126
 30
0.0
  0
POINT
  5
18585
330
18530
100
AcDbEntity
  8
DEFPOINTS
  6
ByBlock
 62
     0
 48
50.0
100
AcDbPoint
 10
16707.46242649134
 20
9672.681515694129
 30
0.0
  0
POINT
  5
18586
330
18530
100
AcDbEntity
  8
DEFPOINTS
  6
ByBlock
 62
     0
 48
50.0
100
AcDbPoint
 10
17518.79817887432
 20
9672.681515694129
 30
0.0
  0
ENDBLK
  5
18587
330
18530
100
AcDbEntity
  8
0
 48
50.0
100
AcDbBlockEnd
  0
BLOCK
  5
1B64E
330
1853D
100
AcDbEntity
  8
0
 48
50.0
100
AcDbBlockBegin
  2
*D2
 70
     1
 10
0.0
 20
0.0
 30
0.0
  3
*D2
  1

  0
LINE
  5
1B64F
330
1853D
100
AcDbEntity
  8
0
  6
ByBlock
 62
     0
 48
50.0
100
AcDbLine
 10
8197.829581418176
 20
9298.736797361975
 30
0.0
 11
9059.165333801145
 21
9298.736797361975
 31
0.0
  0
LINE
  5
1B650
330
1853D
100
AcDbEntity
  8
0
  6
ByBlock
 62
     0
 48
50.0
100
AcDbLine
 10
8197.829581418176
 20
10458.73679736197
 30
0.0
 11
9059.165333801145
 21
10458.73679736197
 31
0.0
  0
LINE
  5
1B651
330
1853D
100
AcDbEntity
  8
0
  6
ByBlock
 62
     0
 48
50.0
100
AcDbLine
 10
8984.165333801144
 20
9298.736797361975
 30
0.0
 11
8984.165333801144
 21
10458.73679736197
 31
0.0
  0
INSERT
  5
1B652
330
1853D
100
AcDbEntity
  8
0
  6
ByBlock
 62
     0
 48
50.0
100
AcDbBlockReference
  2
_DOTSMALL
 10
8984.165333801144
 20
9298.736797361975
 30
0.0
 41
125.0
 42
125.0
 43
125.0
 50
270.0
  0
INSERT
  5
1B653
330
1853D
100
AcDbEntity
  8
0
  6
ByBlock
 62
     0
 48
50.0
100
AcDbBlockReference
  2
_DOTSMALL
 10
8984.165333801144
 20
10458.73679736197
 30
0.0
 41
125.0
 42
125.0
 43
125.0
 50
90.0
  0
MTEXT
  5
1B654
330
1853D
100
AcDbEntity
  8
0
  6
ByBlock
 62
     7
 48
50.0
100
AcDbMText
 10
8884.150570021617
 20
9878.736797361975
 30
0.0
 40
150.0
 41
0.0
 71
     5
 72
     1
  1
\A1;2x580=1160
  7
STYLE1
 11
0.0000000000000001
 21
1.0
 31
0.0
 73
     1
 44
1.0
  0
POINT
  5
1B655
330
1853D
100
AcDbEntity
  8
DEFPOINTS
  6
ByBlock
 62
     0
 48
50.0
100
AcDbPoint
 10
8172.829581418175
 20
9298.736797361975
 30
0.0
  0
POINT
  5
1B656
330
1853D
100
AcDbEntity
  8
DEFPOINTS
  6
ByBlock
 62
     0
 48
50.0
100
AcDbPoint
 10
8172.829581418175
 20
10458.73679736197
 30
0.0
  0
POINT
  5
1B657
330
1853D
100
AcDbEntity
  8
DEFPOINTS
  6
ByBlock
 62
     0
 48
50.0
100
AcDbPoint
 10
8984.165333801144
 20
10458.73679736197
 30
0.0
  0
ENDBLK
  5
1B658
330
1853D
100
AcDbEntity
  8
0
 48
50.0
100
AcDbBlockEnd
  0
BLOCK
  5
18594
330
18549
100
AcDbEntity
  8
0
 48
50.0
100
AcDbBlockBegin
  2
*D3
 70
     1
 10
0.0
 20
0.0
 30
0.0
  3
*D3
  1

  0
LINE
  5
18595
330
18549
100
AcDbEntity
  8
0
  6
ByBlock
 62
     0
 48
50.0
100
AcDbLine
 10
16732.46242649134
 20
12572.68151569412
 30
0.0
 11
17593.79817887431
 21
12572.68151569412
 31
0.0
  0
LINE
  5
18596
330
18549
100
AcDbEntity
  8
0
  6
ByBlock
 62
     0
 48
50.0
100
AcDbLine
 10
16722.46242649134
 20
12642.68151569412
 30
0.0
 11
17593.79817887431
 21
12642.68151569412
 31
0.0
  0
LINE
  5
18597
330
18549
100
AcDbEntity
  8
0
  6
ByBlock
 62
     0
 48
50.0
100
AcDbLine
 10
17518.79817887431
 20
12572.68151569412
 30
0.0
 11
17518.79817887431
 21
12642.68151569412
 31
0.0
  0
LINE
  5
18598
330
18549
100
AcDbEntity
  8
0
  6
ByBlock
 62
     0
 48
50.0
100
AcDbLine
 10
17518.79817887431
 20
12642.68151569412
 30
0.0
 11
17518.79817887431
 21
12982.79962593034
 31
0.0
  0
INSERT
  5
18599
330
18549
100
AcDbEntity
  8
0
  6
ByBlock
 62
     0
 48
50.0
100
AcDbBlockReference
  2
_DOTSMALL
 10
17518.79817887431
 20
12572.68151569412
 30
0.0
 41
125.0
 42
125.0
 43
125.0
 50
270.0
  0
INSERT
  5
1859A
330
18549
100
AcDbEntity
  8
0
  6
ByBlock
 62
     0
 48
50.0
100
AcDbBlockReference
  2
_DOTSMALL
 10
17518.79817887431
 20
12642.68151569412
 30
0.0
 41
125.0
 42
125.0
 43
125.0
 50
90.0
  0
MTEXT
  5
1859B
330
18549
100
AcDbEntity
  8
0
  6
ByBlock
 62
     7
 48
50.0
100
AcDbMText
 10
17418.79817887431
 20
12875.24057081223
 30
0.0
 40
150.0
 41
0.0
 71
     5
 72
     1
  1
\A1;70
  7
STYLE1
 11
0.0000000000000001
 21
1.0
 31
0.0
 73
     1
 44
1.0
  0
POINT
  5
1859C
330
18549
100
AcDbEntity
  8
DEFPOINTS
  6
ByBlock
 62
     0
 48
50.0
100
AcDbPoint
 10
16707.46242649134
 20
12572.68151569412
 30
0.0
  0
POINT
  5
1859D
330
18549
100
AcDbEntity
  8
DEFPOINTS
  6
ByBlock
 62
     0
 48
50.0
100
AcDbPoint
 10
16697.46242649134
 20
12642.68151569412
 30
0.0
  0
POINT
  5
1859E
330
18549
100
AcDbEntity
  8
DEFPOINTS
  6
ByBlock
 62
     0
 48
50.0
100
AcDbPoint
 10
17518.79817887431
 20
12642.68151569412
 30
0.0
  0
ENDBLK
  5
1859F
330
18549
100
AcDbEntity
  8
0
 48
50.0
100
AcDbBlockEnd
  0
BLOCK
  5
1A4E6
330
18556
100
AcDbEntity
  8
0
 48
50.0
100
AcDbBlockBegin
  2
*D4
 70
     1
 10
0.0
 20
0.0
 30
0.0
  3
*D4
  1

  0
LINE
  5
1A4E7
330
18556
100
AcDbEntity
  8
0
  6
ByBlock
 62
     0
 48
50.0
100
AcDbLine
 10
8477.829581418175
 20
9228.736797361971
 30
0.0
 11
9651.969337719759
 21
9228.736797361971
 31
0.0
  0
LINE
  5
1A4E8
330
18556
100
AcDbEntity
  8
0
  6
ByBlock
 62
     0
 48
50.0
100
AcDbLine
 10
9299.165333801147
 20
9278.736797361975
 30
0.0
 11
9651.969337719759
 21
9278.736797361975
 31
0.0
  0
LINE
  5
1A4E9
330
18556
100
AcDbEntity
  8
0
  6
ByBlock
 62
     0
 48
50.0
100
AcDbLine
 10
9576.969337719758
 20
9278.736797361975
 30
0.0
 11
9576.969337719758
 21
9228.736797361971
 31
0.0
  0
LINE
  5
1A4EA
330
18556
100
AcDbEntity
  8
0
  6
ByBlock
 62
     0
 48
50.0
100
AcDbLine
 10
9576.969337719758
 20
9228.736797361971
 30
0.0
 11
9576.969337719758
 21
8884.130498149373
 31
0.0
  0
INSERT
  5
1A4EB
330
18556
100
AcDbEntity
  8
0
  6
ByBlock
 62
     0
 48
50.0
100
AcDbBlockReference
  2
_DOTSMALL
 10
9576.969337719758
 20
9278.736797361975
 30
0.0
 41
125.0
 42
125.0
 43
125.0
 50
90.0
  0
INSERT
  5
1A4EC
330
18556
100
AcDbEntity
  8
0
  6
ByBlock
 62
     0
 48
50.0
100
AcDbBlockReference
  2
_DOTSMALL
 10
9576.969337719758
 20
9228.736797361971
 30
0.0
 41
125.0
 42
125.0
 43
125.0
 50
270.0
  0
MTEXT
  5
1A4ED
330
18556
100
AcDbEntity
  8
0
  6
ByBlock
 62
     7
 48
50.0
100
AcDbMText
 10
9476.969337719758
 20
8991.689553267482
 30
0.0
 40
150.0
 41
0.0
 71
     5
 72
     1
  1
\A1;50
  7
STYLE1
 11
0.0000000000000001
 21
1.0
 31
0.0
 73
     1
 44
1.0
  0
POINT
  5
1A4EE
330
18556
100
AcDbEntity
  8
DEFPOINTS
  6
ByBlock
 62
     0
 48
50.0
100
AcDbPoint
 10
8452.829581418177
 20
9228.736797361971
 30
0.0
  0
POINT
  5
1A4EF
330
18556
100
AcDbEntity
  8
DEFPOINTS
  6
ByBlock
 62
     0
 48
50.0
100
AcDbPoint
 10
9274.165333801148
 20
9278.736797361975
 30
0.0
  0
POINT
  5
1A4F0
330
18556
100
AcDbEntity
  8
DEFPOINTS
  6
ByBlock
 62
     0
 48
50.0
100
AcDbPoint
 10
9576.969337719758
 20
9278.736797361975
 30
0.0
  0
ENDBLK
  5
1A4F1
330
18556
100
AcDbEntity
  8
0
 48
50.0
100
AcDbBlockEnd
  0
BLOCK
  5
1B659
330
18563
100
AcDbEntity
  8
0
 48
50.0
100
AcDbBlockBegin
  2
*D5
 70
     1
 10
0.0
 20
0.0
 30
0.0
  3
*D5
  1

  0
LINE
  5
1B65A
330
18563
100
AcDbEntity
  8
0
  6
ByBlock
 62
     0
 48
50.0
100
AcDbLine
 10
9009.165333801147
 20
9278.736797361975
 30
0.0
 11
9361.969337719754
 21
9278.736797361975
 31
0.0
  0
LINE
  5
1B65B
330
18563
100
AcDbEntity
  8
0
  6
ByBlock
 62
     0
 48
50.0
100
AcDbLine
 10
9009.165333801144
 20
10478.73679736197
 30
0.0
 11
9361.969337719754
 21
10478.73679736197
 31
0.0
  0
LINE
  5
1B65C
330
18563
100
AcDbEntity
  8
0
  6
ByBlock
 62
     0
 48
50.0
100
AcDbLine
 10
9286.969337719753
 20
9278.736797361975
 30
0.0
 11
9286.969337719753
 21
9153.736797361975
 31
0.0
  0
LINE
  5
1B65D
330
18563
100
AcDbEntity
  8
0
  6
ByBlock
 62
     0
 48
50.0
100
AcDbLine
 10
9286.969337719753
 20
10478.73679736197
 30
0.0
 11
9286.969337719753
 21
10603.73679736197
 31
0.0
  0
LINE
  5
1B65E
330
18563
100
AcDbEntity
  8
0
  6
ByBlock
 62
     0
 48
50.0
100
AcDbLine
 10
9286.969337719753
 20
9278.736797361975
 30
0.0
 11
9286.969337719753
 21
10478.73679736197
 31
0.0
  0
INSERT
  5
1B65F
330
18563
100
AcDbEntity
  8
0
  6
ByBlock
 62
     0
 48
50.0
100
AcDbBlockReference
  2
_DOTSMALL
 10
9286.969337719753
 20
9278.736797361975
 30
0.0
 41
125.0
 42
125.0
 43
125.0
 50
90.0
  0
INSERT
  5
1B660
330
18563
100
AcDbEntity
  8
0
  6
ByBlock
 62
     0
 48
50.0
100
AcDbBlockReference
  2
_DOTSMALL
 10
9286.969337719753
 20
10478.73679736197
 30
0.0
 41
125.0
 42
125.0
 43
125.0
 50
270.0
  0
MTEXT
  5
1B661
330
18563
100
AcDbEntity
  8
0
  6
ByBlock
 62
     7
 48
50.0
100
AcDbMText
 10
9186.954573940225
 20
9878.736797361975
 30
0.0
 40
150.0
 41
0.0
 71
     5
 72
     1
  1
\A1;内部寸法 1200
  7
STYLE1
 11
0.0000000000000001
 21
1.0
 31
0.0
 73
     1
 44
1.0
  0
POINT
  5
1B662
330
18563
100
AcDbEntity
  8
DEFPOINTS
  6
ByBlock
 62
     0
 48
50.0
100
AcDbPoint
 10
8984.165333801149
 20
9278.736797361975
 30
0.0
  0
POINT
  5
1B663
330
18563
100
AcDbEntity
  8
DEFPOINTS
  6
ByBlock
 62
     0
 48
50.0
100
AcDbPoint
 10
8984.165333801144
 20
10478.73679736197
 30
0.0
  0
POINT
  5
1B664
330
18563
100
AcDbEntity
  8
DEFPOINTS
  6
ByBlock
 62
     0
 48
50.0
100
AcDbPoint
 10
9286.969337719753
 20
10478.73679736197
 30
0.0
  0
ENDBLK
  5
1B665
330
18563
100
AcDbEntity
  8
0
 48
50.0
100
AcDbBlockEnd
  0
BLOCK
  5
1A4CE
330
1856F
100
AcDbEntity
  8
0
 48
50.0
100
AcDbBlockBegin
  2
*D6
 70
     1
 10
0.0
 20
0.0
 30
0.0
  3
*D6
  1

  0
LINE
  5
1A4CF
330
1856F
100
AcDbEntity
  8
0
  6
ByBlock
 62
     0
 48
50.0
100
AcDbLine
 10
9299.165333801145
 20
12218.73679736197
 30
0.0
 11
9651.969337719755
 21
12218.73679736197
 31
0.0
  0
LINE
  5
1A4D0
330
1856F
100
AcDbEntity
  8
0
  6
ByBlock
 62
     0
 48
50.0
100
AcDbLine
 10
8477.829581418173
 20
12268.73679736197
 30
0.0
 11
9651.969337719755
 21
12268.73679736197
 31
0.0
  0
LINE
  5
1A4D1
330
1856F
100
AcDbEntity
  8
0
  6
ByBlock
 62
     0
 48
50.0
100
AcDbLine
 10
9576.969337719754
 20
12218.73679736197
 30
0.0
 11
9576.969337719754
 21
12093.73679736197
 31
0.0
  0
LINE
  5
1A4D2
330
1856F
100
AcDbEntity
  8
0
  6
ByBlock
 62
     0
 48
50.0
100
AcDbLine
 10
9576.969337719754
 20
12268.73679736197
 30
0.0
 11
9576.969337719754
 21
12733.85490759819
 31
0.0
  0
LINE
  5
1A4D3
330
1856F
100
AcDbEntity
  8
0
  6
ByBlock
 62
     0
 48
50.0
100
AcDbLine
 10
9576.969337719754
 20
12218.73679736197
 30
0.0
 11
9576.969337719754
 21
12268.73679736197
 31
0.0
  0
INSERT
  5
1A4D4
330
1856F
100
AcDbEntity
  8
0
  6
ByBlock
 62
     0
 48
50.0
100
AcDbBlockReference
  2
_DOTSMALL
 10
9576.969337719754
 20
12218.73679736197
 30
0.0
 41
125.0
 42
125.0
 43
125.0
 50
90.0
  0
INSERT
  5
1A4D5
330
1856F
100
AcDbEntity
  8
0
  6
ByBlock
 62
     0
 48
50.0
100
AcDbBlockReference
  2
_DOTSMALL
 10
9576.969337719754
 20
12268.73679736197
 30
0.0
 41
125.0
 42
125.0
 43
125.0
 50
270.0
  0
MTEXT
  5
1A4D6
330
1856F
100
AcDbEntity
  8
0
  6
ByBlock
 62
     7
 48
50.0
100
AcDbMText
 10
9476.969337719754
 20
12626.29585248008
 30
0.0
 40
150.0
 41
0.0
 71
     5
 72
     1
  1
\A1;50
  7
STYLE1
 11
0.0000000000000001
 21
1.0
 31
0.0
 73
     1
 44
1.0
  0
POINT
  5
1A4D7
330
1856F
100
AcDbEntity
  8
DEFPOINTS
  6
ByBlock
 62
     0
 48
50.0
100
AcDbPoint
 10
9274.165333801144
 20
12218.73679736197
 30
0.0
  0
POINT
  5
1A4D8
330
1856F
100
AcDbEntity
  8
DEFPOINTS
  6
ByBlock
 62
     0
 48
50.0
100
AcDbPoint
 10
8452.829581418173
 20
12268.73679736197
 30
0.0
  0
POINT
  5
1A4D9
330
1856F
100
AcDbEntity
  8
DEFPOINTS
  6
ByBlock
 62
     0
 48
50.0
100
AcDbPoint
 10
9576.969337719754
 20
12268.73679736197
 30
0.0
  0
ENDBLK
  5
1A4DA
330
1856F
100
AcDbEntity
  8
0
 48
50.0
100
AcDbBlockEnd
  0
BLOCK
  5
18624
330
185B5
100
AcDbEntity
  8
0
 48
50.0
100
AcDbBlockBegin
  2
*D7
 70
     1
 10
0.0
 20
0.0
 30
0.0
  3
*D7
  1

  0
LINE
  5
18625
330
185B5
100
AcDbEntity
  8
0
  6
ByBlock
 62
     0
 48
50.0
100
AcDbLine
 10
11787.46242649134
 20
12657.68151569412
 30
0.0
 11
11787.46242649134
 21
13127.71350056477
 31
0.0
  0
LINE
  5
18626
330
185B5
100
AcDbEntity
  8
0
  6
ByBlock
 62
     0
 48
50.0
100
AcDbLine
 10
11857.46242649134
 20
12667.68151569412
 30
0.0
 11
11857.46242649134
 21
13127.71350056477
 31
0.0
  0
LINE
  5
18627
330
185B5
100
AcDbEntity
  8
0
  6
ByBlock
 62
     0
 48
50.0
100
AcDbLine
 10
11857.46242649134
 20
13052.71350056477
 30
0.0
 11
11787.46242649134
 21
13052.71350056477
 31
0.0
  0
LINE
  5
18628
330
185B5
100
AcDbEntity
  8
0
  6
ByBlock
 62
     0
 48
50.0
100
AcDbLine
 10
11787.46242649134
 20
13052.71350056477
 30
0.0
 11
11437.34431625512
 21
13052.71350056477
 31
0.0
  0
INSERT
  5
18629
330
185B5
100
AcDbEntity
  8
0
  6
ByBlock
 62
     0
 48
50.0
100
AcDbBlockReference
  2
_DOTSMALL
 10
11857.46242649134
 20
13052.71350056477
 30
0.0
 41
125.0
 42
125.0
 43
125.0
  0
INSERT
  5
1862A
330
185B5
100
AcDbEntity
  8
0
  6
ByBlock
 62
     0
 48
50.0
100
AcDbBlockReference
  2
_DOTSMALL
 10
11787.46242649134
 20
13052.71350056477
 30
0.0
 41
125.0
 42
125.0
 43
125.0
 50
180.0
  0
MTEXT
  5
1862B
330
185B5
100
AcDbEntity
  8
0
  6
ByBlock
 62
     7
 48
50.0
100
AcDbMText
 10
11544.90337137323
 20
13152.71350056477
 30
0.0
 40
150.0
 41
0.0
 71
     5
 72
     1
  1
\A1;70
  7
STYLE1
 73
     1
 44
1.0
  0
POINT
  5
1862C
330
185B5
100
AcDbEntity
  8
DEFPOINTS
  6
ByBlock
 62
     0
 48
50.0
100
AcDbPoint
 10
11787.46242649134
 20
12632.68151569412
 30
0.0
  0
POINT
  5
1862D
330
185B5
100
AcDbEntity
  8
DEFPOINTS
  6
ByBlock
 62
     0
 48
50.0
100
AcDbPoint
 10
11857.46242649134
 20
12642.68151569412
 30
0.0
  0
POINT
  5
1862E
330
185B5
100
AcDbEntity
  8
DEFPOINTS
  6
ByBlock
 62
     0
 48
50.0
100
AcDbPoint
 10
11857.46242649134
 20
13052.71350056477
 30
0.0
  0
ENDBLK
  5
1862F
330
185B5
100
AcDbEntity
  8
0
 48
50.0
100
AcDbBlockEnd
  0
BLOCK
  5
1B2F1
330
185C2
100
AcDbEntity
  8
0
 48
50.0
100
AcDbBlockBegin
  2
*D8
 70
     1
 10
0.0
 20
0.0
 30
0.0
  3
*D8
  1

  0
LINE
  5
1BAF1
330
185C2
100
AcDbEntity
  8
寸法
 62
     0
 48
50.0
100
AcDbLine
 10
8102.829581418175
 20
10553.73679736197
 30
0.0
 11
8102.829581418175
 21
11013.76878223262
 31
0.0
  0
LINE
  5
1BAF2
330
185C2
100
AcDbEntity
  8
寸法
 62
     0
 48
50.0
100
AcDbLine
 10
6362.829581418173
 20
10938.76878223262
 30
0.0
 11
8102.829581418175
 21
10938.76878223262
 31
0.0
  0
INSERT
  5
1BAF3
330
185C2
100
AcDbEntity
  8
寸法
 62
     0
 48
50.0
100
AcDbBlockReference
  2
_DOTSMALL
 10
6362.829581418173
 20
10938.76878223262
 30
0.0
 41
125.0
 42
125.0
 43
125.0
 50
180.0
  0
INSERT
  5
1BAF4
330
185C2
100
AcDbEntity
  8
寸法
 62
     0
 48
50.0
100
AcDbBlockReference
  2
_DOTSMALL
 10
8102.829581418175
 20
10938.76878223262
 30
0.0
 41
125.0
 42
125.0
 43
125.0
  0
MTEXT
  5
1BAF5
330
185C2
100
AcDbEntity
  8
寸法
 62
     7
 48
50.0
100
AcDbMText
 10
7232.829581418174
 20
11038.76878223262
 30
0.0
 40
150.0
 41
0.0
 71
     5
 72
     1
  1
\A1;3x580=1740
  7
STYLE1
 73
     1
 44
1.0
  0
POINT
  5
1BAF6
330
185C2
100
AcDbEntity
  8
DEFPOINTS
 62
     0
 48
50.0
100
AcDbPoint
 10
6362.829581418173
 20
10528.73679736197
 30
0.0
  0
POINT
  5
1BAF7
330
185C2
100
AcDbEntity
  8
DEFPOINTS
 62
     0
 48
50.0
100
AcDbPoint
 10
8102.829581418175
 20
10528.73679736197
 30
0.0
  0
POINT
  5
1BAF8
330
185C2
100
AcDbEntity
  8
DEFPOINTS
 62
     0
 48
50.0
100
AcDbPoint
 10
8102.829581418175
 20
10938.76878223262
 30
0.0
  0
ENDBLK
  5
1B2FA
330
185C2
100
AcDbEntity
  8
0
 48
50.0
100
AcDbBlockEnd
  0
BLOCK
  5
18656
330
185E5
100
AcDbEntity
  8
0
 48
50.0
100
AcDbBlockBegin
  2
*D9
 70
     1
 10
0.0
 20
0.0
 30
0.0
  3
*D9
  1

  0
LINE
  5
18657
330
185E5
100
AcDbEntity
  8
0
  6
ByBlock
 62
     0
 48
50.0
100
AcDbLine
 10
16637.46242649134
 20
12667.68151569412
 30
0.0
 11
16637.46242649134
 21
13127.71350056477
 31
0.0
  0
LINE
  5
18658
330
185E5
100
AcDbEntity
  8
0
  6
ByBlock
 62
     0
 48
50.0
100
AcDbLine
 10
16707.46242649134
 20
12657.68151569412
 30
0.0
 11
16707.46242649134
 21
13127.71350056477
 31
0.0
  0
LINE
  5
18659
330
185E5
100
AcDbEntity
  8
0
  6
ByBlock
 62
     0
 48
50.0
100
AcDbLine
 10
16637.46242649134
 20
13052.71350056477
 30
0.0
 11
16707.46242649134
 21
13052.71350056477
 31
0.0
  0
LINE
  5
1865A
330
185E5
100
AcDbEntity
  8
0
  6
ByBlock
 62
     0
 48
50.0
100
AcDbLine
 10
16707.46242649134
 20
13052.71350056477
 30
0.0
 11
17077.58053672756
 21
13052.71350056477
 31
0.0
  0
INSERT
  5
1865B
330
185E5
100
AcDbEntity
  8
0
  6
ByBlock
 62
     0
 48
50.0
100
AcDbBlockReference
  2
_DOTSMALL
 10
16637.46242649134
 20
13052.71350056477
 30
0.0
 41
125.0
 42
125.0
 43
125.0
 50
180.0
  0
INSERT
  5
1865C
330
185E5
100
AcDbEntity
  8
0
  6
ByBlock
 62
     0
 48
50.0
100
AcDbBlockReference
  2
_DOTSMALL
 10
16707.46242649134
 20
13052.71350056477
 30
0.0
 41
125.0
 42
125.0
 43
125.0
  0
MTEXT
  5
1865D
330
185E5
100
AcDbEntity
  8
0
  6
ByBlock
 62
     7
 48
50.0
100
AcDbMText
 10
16970.02148160945
 20
13152.71350056477
 30
0.0
 40
150.0
 41
0.0
 71
     5
 72
     1
  1
\A1;70
  7
STYLE1
 73
     1
 44
1.0
  0
POINT
  5
1865E
330
185E5
100
AcDbEntity
  8
DEFPOINTS
  6
ByBlock
 62
     0
 48
50.0
100
AcDbPoint
 10
16637.46242649134
 20
12642.68151569412
 30
0.0
  0
POINT
  5
1865F
330
185E5
100
AcDbEntity
  8
DEFPOINTS
  6
ByBlock
 62
     0
 48
50.0
100
AcDbPoint
 10
16707.46242649134
 20
12632.68151569412
 30
0.0
  0
POINT
  5
18660
330
185E5
100
AcDbEntity
  8
DEFPOINTS
  6
ByBlock
 62
     0
 48
50.0
100
AcDbPoint
 10
16707.46242649134
 20
13052.71350056477
 30
0.0
  0
ENDBLK
  5
18661
330
185E5
100
AcDbEntity
  8
0
 48
50.0
100
AcDbBlockEnd
  0
BLOCK
  5
18617
330
185F2
100
AcDbEntity
  8
0
 48
50.0
100
AcDbBlockBegin
  2
*D10
 70
     1
 10
0.0
 20
0.0
 30
0.0
  3
*D10
  1

  0
LINE
  5
18618
330
185F2
100
AcDbEntity
  8
0
  6
ByBlock
 62
     0
 48
50.0
100
AcDbLine
 10
11787.46242649134
 20
12657.68151569412
 30
0.0
 11
11787.46242649134
 21
13426.45988446553
 31
0.0
  0
LINE
  5
18619
330
185F2
100
AcDbEntity
  8
0
  6
ByBlock
 62
     0
 48
50.0
100
AcDbLine
 10
11837.46242649134
 20
13077.71350056477
 30
0.0
 11
11837.46242649134
 21
13426.45988446553
 31
0.0
  0
LINE
  5
1861A
330
185F2
100
AcDbEntity
  8
0
  6
ByBlock
 62
     0
 48
50.0
100
AcDbLine
 10
11837.46242649134
 20
13351.45988446553
 30
0.0
 11
11962.46242649134
 21
13351.45988446553
 31
0.0
  0
LINE
  5
1861B
330
185F2
100
AcDbEntity
  8
0
  6
ByBlock
 62
     0
 48
50.0
100
AcDbLine
 10
11787.46242649134
 20
13351.45988446553
 30
0.0
 11
11322.34431625512
 21
13351.45988446553
 31
0.0
  0
LINE
  5
1861C
330
185F2
100
AcDbEntity
  8
0
  6
ByBlock
 62
     0
 48
50.0
100
AcDbLine
 10
11837.46242649134
 20
13351.45988446553
 30
0.0
 11
11787.46242649134
 21
13351.45988446553
 31
0.0
  0
INSERT
  5
1861D
330
185F2
100
AcDbEntity
  8
0
  6
ByBlock
 62
     0
 48
50.0
100
AcDbBlockReference
  2
_DOTSMALL
 10
11837.46242649134
 20
13351.45988446553
 30
0.0
 41
125.0
 42
125.0
 43
125.0
 50
180.0
  0
INSERT
  5
1861E
330
185F2
100
AcDbEntity
  8
0
  6
ByBlock
 62
     0
 48
50.0
100
AcDbBlockReference
  2
_DOTSMALL
 10
11787.46242649134
 20
13351.45988446553
 30
0.0
 41
125.0
 42
125.0
 43
125.0
  0
MTEXT
  5
1861F
330
185F2
100
AcDbEntity
  8
0
  6
ByBlock
 62
     7
 48
50.0
100
AcDbMText
 10
11429.90337137323
 20
13451.45988446553
 30
0.0
 40
150.0
 41
0.0
 71
     5
 72
     1
  1
\A1;50
  7
STYLE1
 73
     1
 44
1.0
  0
POINT
  5
18620
330
185F2
100
AcDbEntity
  8
DEFPOINTS
  6
ByBlock
 62
     0
 48
50.0
100
AcDbPoint
 10
11787.46242649134
 20
12632.68151569412
 30
0.0
  0
POINT
  5
18621
330
185F2
100
AcDbEntity
  8
DEFPOINTS
  6
ByBlock
 62
     0
 48
50.0
100
AcDbPoint
 10
11837.46242649134
 20
13052.71350056477
 30
0.0
  0
POINT
  5
18622
330
185F2
100
AcDbEntity
  8
DEFPOINTS
  6
ByBlock
 62
     0
 48
50.0
100
AcDbPoint
 10
11837.46242649134
 20
13351.45988446553
 30
0.0
  0
ENDBLK
  5
18623
330
185F2
100
AcDbEntity
  8
0
 48
50.0
100
AcDbBlockEnd
  0
BLOCK
  5
1B2E7
330
185FF
100
AcDbEntity
  8
0
 48
50.0
100
AcDbBlockBegin
  2
*D11
 70
     1
 10
0.0
 20
0.0
 30
0.0
  3
*D11
  1

  0
LINE
  5
1BAE9
330
185FF
100
AcDbEntity
  8
寸法
 62
     0
 48
50.0
100
AcDbLine
 10
8122.82958141818
 20
10963.76878223262
 30
0.0
 11
8122.82958141818
 21
11312.51516613338
 31
0.0
  0
LINE
  5
1BAEA
330
185FF
100
AcDbEntity
  8
寸法
 62
     0
 48
50.0
100
AcDbLine
 10
6342.829581418169
 20
11237.51516613338
 30
0.0
 11
8122.82958141818
 21
11237.51516613338
 31
0.0
  0
INSERT
  5
1BAEB
330
185FF
100
AcDbEntity
  8
寸法
 62
     0
 48
50.0
100
AcDbBlockReference
  2
_DOTSMALL
 10
6342.829581418169
 20
11237.51516613338
 30
0.0
 41
125.0
 42
125.0
 43
125.0
 50
180.0
  0
INSERT
  5
1BAEC
330
185FF
100
AcDbEntity
  8
寸法
 62
     0
 48
50.0
100
AcDbBlockReference
  2
_DOTSMALL
 10
8122.82958141818
 20
11237.51516613338
 30
0.0
 41
125.0
 42
125.0
 43
125.0
  0
MTEXT
  5
1BAED
330
185FF
100
AcDbEntity
  8
寸法
 62
     7
 48
50.0
100
AcDbMText
 10
7232.829581418174
 20
11337.51516613338
 30
0.0
 40
150.0
 41
0.0
 71
     5
 72
     1
  1
\A1;内部寸法 1780
  7
STYLE1
 73
     1
 44
1.0
  0
POINT
  5
1BAEE
330
185FF
100
AcDbEntity
  8
DEFPOINTS
 62
     0
 48
50.0
100
AcDbPoint
 10
6342.829581418169
 20
10938.76878223262
 30
0.0
  0
POINT
  5
1BAEF
330
185FF
100
AcDbEntity
  8
DEFPOINTS
 62
     0
 48
50.0
100
AcDbPoint
 10
8122.82958141818
 20
10938.76878223262
 30
0.0
  0
POINT
  5
1BAF0
330
185FF
100
AcDbEntity
  8
DEFPOINTS
 62
     0
 48
50.0
100
AcDbPoint
 10
8122.82958141818
 20
11237.51516613338
 30
0.0
  0
ENDBLK
  5
1B2F0
330
185FF
100
AcDbEntity
  8
0
 48
50.0
100
AcDbBlockEnd
  0
BLOCK
  5
18649
330
1860A
100
AcDbEntity
  8
0
 48
50.0
100
AcDbBlockBegin
  2
*D12
 70
     1
 10
0.0
 20
0.0
 30
0.0
  3
*D12
  1

  0
LINE
  5
1864A
330
1860A
100
AcDbEntity
  8
0
  6
ByBlock
 62
     0
 48
50.0
100
AcDbLine
 10
16657.46242649135
 20
13077.71350056477
 30
0.0
 11
16657.46242649135
 21
13426.45988446553
 31
0.0
  0
LINE
  5
1864B
330
1860A
100
AcDbEntity
  8
0
  6
ByBlock
 62
     0
 48
50.0
100
AcDbLine
 10
16707.46242649134
 20
12657.68151569412
 30
0.0
 11
16707.46242649134
 21
13426.45988446553
 31
0.0
  0
LINE
  5
1864C
330
1860A
100
AcDbEntity
  8
0
  6
ByBlock
 62
     0
 48
50.0
100
AcDbLine
 10
16657.46242649135
 20
13351.45988446553
 30
0.0
 11
16532.46242649135
 21
13351.45988446553
 31
0.0
  0
LINE
  5
1864D
330
1860A
100
AcDbEntity
  8
0
  6
ByBlock
 62
     0
 48
50.0
100
AcDbLine
 10
16707.46242649134
 20
13351.45988446553
 30
0.0
 11
17172.58053672756
 21
13351.45988446553
 31
0.0
  0
LINE
  5
1864E
330
1860A
100
AcDbEntity
  8
0
  6
ByBlock
 62
     0
 48
50.0
100
AcDbLine
 10
16657.46242649135
 20
13351.45988446553
 30
0.0
 11
16707.46242649134
 21
13351.45988446553
 31
0.0
  0
INSERT
  5
1864F
330
1860A
100
AcDbEntity
  8
0
  6
ByBlock
 62
     0
 48
50.0
100
AcDbBlockReference
  2
_DOTSMALL
 10
16657.46242649135
 20
13351.45988446553
 30
0.0
 41
125.0
 42
125.0
 43
125.0
  0
INSERT
  5
18650
330
1860A
100
AcDbEntity
  8
0
  6
ByBlock
 62
     0
 48
50.0
100
AcDbBlockReference
  2
_DOTSMALL
 10
16707.46242649134
 20
13351.45988446553
 30
0.0
 41
125.0
 42
125.0
 43
125.0
 50
180.0
  0
MTEXT
  5
18651
330
1860A
100
AcDbEntity
  8
0
  6
ByBlock
 62
     7
 48
50.0
100
AcDbMText
 10
17065.02148160945
 20
13451.45988446553
 30
0.0
 40
150.0
 41
0.0
 71
     5
 72
     1
  1
\A1;50
  7
STYLE1
 73
     1
 44
1.0
  0
POINT
  5
18652
330
1860A
100
AcDbEntity
  8
DEFPOINTS
  6
ByBlock
 62
     0
 48
50.0
100
AcDbPoint
 10
16657.46242649135
 20
13052.71350056477
 30
0.0
  0
POINT
  5
18653
330
1860A
100
AcDbEntity
  8
DEFPOINTS
  6
ByBlock
 62
     0
 48
50.0
100
AcDbPoint
 10
16707.46242649134
 20
12632.68151569412
 30
0.0
  0
POINT
  5
18654
330
1860A
100
AcDbEntity
  8
DEFPOINTS
  6
ByBlock
 62
     0
 48
50.0
100
AcDbPoint
 10
16707.46242649134
 20
13351.45988446553
 30
0.0
  0
ENDBLK
  5
18655
330
1860A
100
AcDbEntity
  8
0
 48
50.0
100
AcDbBlockEnd
  0
BLOCK
  5
1B2D2
330
1868D
100
AcDbEntity
  8
0
 48
50.0
100
AcDbBlockBegin
  2
*D13
 70
     1
 10
0.0
 20
0.0
 30
0.0
  3
*D13
  1

  0
LINE
  5
1B2D3
330
1868D
100
AcDbEntity
  8
0
  6
ByBlock
 62
     0
 48
50.0
100
AcDbLine
 10
6002.829581418171
 20
9213.736797361972
 30
0.0
 11
6002.829581418171
 21
7892.428503410812
 31
0.0
  0
LINE
  5
1B2D4
330
1868D
100
AcDbEntity
  8
0
  6
ByBlock
 62
     0
 48
50.0
100
AcDbLine
 10
7882.829581418177
 20
9213.736797361972
 30
0.0
 11
7882.829581418177
 21
7892.428503410812
 31
0.0
  0
LINE
  5
1B2D5
330
1868D
100
AcDbEntity
  8
0
  6
ByBlock
 62
     0
 48
50.0
100
AcDbLine
 10
6002.829581418171
 20
7967.428503410812
 30
0.0
 11
7882.829581418177
 21
7967.428503410812
 31
0.0
  0
INSERT
  5
1B2D6
330
1868D
100
AcDbEntity
  8
0
  6
ByBlock
 62
     0
 48
50.0
100
AcDbBlockReference
  2
_DOTSMALL
 10
6002.829581418171
 20
7967.428503410812
 30
0.0
 41
125.0
 42
125.0
 43
125.0
 50
180.0
  0
INSERT
  5
1B2D7
330
1868D
100
AcDbEntity
  8
0
  6
ByBlock
 62
     0
 48
50.0
100
AcDbBlockReference
  2
_DOTSMALL
 10
7882.829581418177
 20
7967.428503410812
 30
0.0
 41
125.0
 42
125.0
 43
125.0
  0
MTEXT
  5
1B2D8
330
1868D
100
AcDbEntity
  8
0
  6
ByBlock
 62
     7
 48
50.0
100
AcDbMText
 10
6942.829581418173
 20
8067.428503410813
 30
0.0
 40
150.0
 41
0.0
 71
     5
 72
     1
  1
\A1;1880
  7
STYLE1
 73
     1
 44
1.0
  0
POINT
  5
1B2D9
330
1868D
100
AcDbEntity
  8
DEFPOINTS
  6
ByBlock
 62
     0
 48
50.0
100
AcDbPoint
 10
6002.829581418171
 20
9238.736797361971
 30
0.0
  0
POINT
  5
1B2DA
330
1868D
100
AcDbEntity
  8
DEFPOINTS
  6
ByBlock
 62
     0
 48
50.0
100
AcDbPoint
 10
7882.829581418177
 20
9238.736797361973
 30
0.0
  0
POINT
  5
1B2DB
330
1868D
100
AcDbEntity
  8
DEFPOINTS
  6
ByBlock
 62
     0
 48
50.0
100
AcDbPoint
 10
7882.829581418177
 20
7967.428503410812
 30
0.0
  0
ENDBLK
  5
1B2DC
330
1868D
100
AcDbEntity
  8
0
 48
50.0
100
AcDbBlockEnd
  0
BLOCK
  5
1B643
330
186B0
100
AcDbEntity
  8
0
 48
50.0
100
AcDbBlockBegin
  2
*D14
 70
     1
 10
0.0
 20
0.0
 30
0.0
  3
*D14
  1

  0
LINE
  5
1B644
330
186B0
100
AcDbEntity
  8
0
  6
ByBlock
 62
     0
 48
50.0
100
AcDbLine
 10
6277.829581418171
 20
10528.73679736197
 30
0.0
 11
5451.198601638504
 21
10528.73679736197
 31
0.0
  0
LINE
  5
1B645
330
186B0
100
AcDbEntity
  8
0
  6
ByBlock
 62
     0
 48
50.0
100
AcDbLine
 10
6277.829581418171
 20
9228.736797361971
 30
0.0
 11
5451.198601638504
 21
9228.736797361971
 31
0.0
  0
LINE
  5
1B646
330
186B0
100
AcDbEntity
  8
0
  6
ByBlock
 62
     0
 48
50.0
100
AcDbLine
 10
5526.198601638504
 20
10528.73679736197
 30
0.0
 11
5526.198601638504
 21
9228.736797361971
 31
0.0
  0
INSERT
  5
1B647
330
186B0
100
AcDbEntity
  8
0
  6
ByBlock
 62
     0
 48
50.0
100
AcDbBlockReference
  2
_DOTSMALL
 10
5526.198601638504
 20
10528.73679736197
 30
0.0
 41
125.0
 42
125.0
 43
125.0
 50
90.0
  0
INSERT
  5
1B648
330
186B0
100
AcDbEntity
  8
0
  6
ByBlock
 62
     0
 48
50.0
100
AcDbBlockReference
  2
_DOTSMALL
 10
5526.198601638504
 20
9228.736797361971
 30
0.0
 41
125.0
 42
125.0
 43
125.0
 50
270.0
  0
MTEXT
  5
1B649
330
186B0
100
AcDbEntity
  8
0
  6
ByBlock
 62
     7
 48
50.0
100
AcDbMText
 10
5426.198601638503
 20
9878.736797361973
 30
0.0
 40
150.0
 41
0.0
 71
     5
 72
     1
  1
\A1;1300
  7
STYLE1
 11
0.0000000000000001
 21
1.0
 31
0.0
 73
     1
 44
1.0
  0
POINT
  5
1B64A
330
186B0
100
AcDbEntity
  8
DEFPOINTS
  6
ByBlock
 62
     0
 48
50.0
100
AcDbPoint
 10
6302.829581418171
 20
10528.73679736197
 30
0.0
  0
POINT
  5
1B64B
330
186B0
100
AcDbEntity
  8
DEFPOINTS
  6
ByBlock
 62
     0
 48
50.0
100
AcDbPoint
 10
6302.829581418171
 20
9228.736797361971
 30
0.0
  0
POINT
  5
1B64C
330
186B0
100
AcDbEntity
  8
DEFPOINTS
  6
ByBlock
 62
     0
 48
50.0
100
AcDbPoint
 10
5526.198601638504
 20
9228.736797361971
 30
0.0
  0
ENDBLK
  5
1B64D
330
186B0
100
AcDbEntity
  8
0
 48
50.0
100
AcDbBlockEnd
  0
BLOCK
  5
1A492
330
1876C
100
AcDbEntity
  8
0
 48
50.0
100
AcDbBlockBegin
  2
*D15
 70
     1
 10
0.0
 20
0.0
 30
0.0
  3
*D15
  1

  0
LINE
  5
1A493
330
1876C
100
AcDbEntity
  8
0
  6
ByBlock
 62
     0
 48
50.0
100
AcDbLine
 10
5512.829581418174
 20
9135.736797361609
 30
0.0
 11
5512.829581418174
 21
8457.273498070641
 31
0.0
  0
LINE
  5
1A494
330
1876C
100
AcDbEntity
  8
0
  6
ByBlock
 62
     0
 48
50.0
100
AcDbLine
 10
6602.829581418173
 20
9135.736797361609
 30
0.0
 11
6602.829581418173
 21
8457.273498070641
 31
0.0
  0
LINE
  5
1A495
330
1876C
100
AcDbEntity
  8
0
  6
ByBlock
 62
     0
 48
50.0
100
AcDbLine
 10
5512.829581418174
 20
8532.273498070642
 30
0.0
 11
5387.829581418174
 21
8532.273498070642
 31
0.0
  0
LINE
  5
1A496
330
1876C
100
AcDbEntity
  8
0
  6
ByBlock
 62
     0
 48
50.0
100
AcDbLine
 10
6602.829581418173
 20
8532.273498070642
 30
0.0
 11
6727.829581418173
 21
8532.273498070642
 31
0.0
  0
LINE
  5
1A497
330
1876C
100
AcDbEntity
  8
0
  6
ByBlock
 62
     0
 48
50.0
100
AcDbLine
 10
5512.829581418174
 20
8532.273498070642
 30
0.0
 11
6602.829581418173
 21
8532.273498070642
 31
0.0
  0
INSERT
  5
1A498
330
1876C
100
AcDbEntity
  8
0
  6
ByBlock
 62
     0
 48
50.0
100
AcDbBlockReference
  2
_DOTSMALL
 10
5512.829581418174
 20
8532.273498070642
 30
0.0
 41
125.0
 42
125.0
 43
125.0
  0
INSERT
  5
1A499
330
1876C
100
AcDbEntity
  8
0
  6
ByBlock
 62
     0
 48
50.0
100
AcDbBlockReference
  2
_DOTSMALL
 10
6602.829581418173
 20
8532.273498070642
 30
0.0
 41
125.0
 42
125.0
 43
125.0
 50
180.0
  0
MTEXT
  5
1A49A
330
1876C
100
AcDbEntity
  8
0
  6
ByBlock
 62
     7
 48
50.0
100
AcDbMText
 10
6057.829581418173
 20
8757.273498070642
 30
0.0
 40
150.0
 41
0.0
 71
     5
 72
     1
  1
\A1;有効開口部間口\P1090
  7
STYLE1
 73
     1
 44
1.0
  0
POINT
  5
1A49B
330
1876C
100
AcDbEntity
  8
DEFPOINTS
  6
ByBlock
 62
     0
 48
50.0
100
AcDbPoint
 10
5512.829581418174
 20
9160.736797361609
 30
0.0
  0
POINT
  5
1A49C
330
1876C
100
AcDbEntity
  8
DEFPOINTS
  6
ByBlock
 62
     0
 48
50.0
100
AcDbPoint
 10
6602.829581418173
 20
9160.736797361609
 30
0.0
  0
POINT
  5
1A49D
330
1876C
100
AcDbEntity
  8
DEFPOINTS
  6
ByBlock
 62
     0
 48
50.0
100
AcDbPoint
 10
6602.829581418173
 20
8532.273498070642
 30
0.0
  0
ENDBLK
  5
1A49E
330
1876C
100
AcDbEntity
  8
0
 48
50.0
100
AcDbBlockEnd
  0
BLOCK
  5
1A8A2
330
1A2D7
100
AcDbEntity
  8
0
 48
50.0
100
AcDbBlockBegin
  2
*D16
 70
     1
 10
0.0
 20
0.0
 30
0.0
  3
*D16
  1

  0
LINE
  5
1A8A3
330
1A2D7
100
AcDbEntity
  8
0
  6
ByBlock
 62
     0
 48
50.0
100
AcDbLine
 10
4827.829581418171
 20
9228.736797361971
 30
0.0
 11
4001.198601638503
 21
9228.736797361971
 31
0.0
  0
LINE
  5
1A8A4
330
1A2D7
100
AcDbEntity
  8
0
  6
ByBlock
 62
     0
 48
50.0
100
AcDbLine
 10
4881.829581418173
 20
9160.736797361609
 30
0.0
 11
4001.198601638503
 21
9160.736797361609
 31
0.0
  0
LINE
  5
1A8A5
330
1A2D7
100
AcDbEntity
  8
0
  6
ByBlock
 62
     0
 48
50.0
100
AcDbLine
 10
4076.198601638504
 20
9228.736797361971
 30
0.0
 11
4076.198601638504
 21
9160.736797361609
 31
0.0
  0
LINE
  5
1A8A6
330
1A2D7
100
AcDbEntity
  8
0
  6
ByBlock
 62
     0
 48
50.0
100
AcDbLine
 10
4076.198601638504
 20
9160.736797361609
 30
0.0
 11
4076.198601638504
 21
8811.760419408853
 31
0.0
  0
INSERT
  5
1A8A7
330
1A2D7
100
AcDbEntity
  8
0
  6
ByBlock
 62
     0
 48
50.0
100
AcDbBlockReference
  2
_DOTSMALL
 10
4076.198601638504
 20
9228.736797361971
 30
0.0
 41
125.0
 42
125.0
 43
125.0
 50
90.0
  0
INSERT
  5
1A8A8
330
1A2D7
100
AcDbEntity
  8
0
  6
ByBlock
 62
     0
 48
50.0
100
AcDbBlockReference
  2
_DOTSMALL
 10
4076.198601638504
 20
9160.736797361609
 30
0.0
 41
125.0
 42
125.0
 43
125.0
 50
270.0
  0
MTEXT
  5
1A8A9
330
1A2D7
100
AcDbEntity
  8
0
  6
ByBlock
 62
     7
 48
50.0
100
AcDbMText
 10
3976.198601638504
 20
8923.748608385231
 30
0.0
 40
150.0
 41
0.0
 71
     5
 72
     1
  1
\A1;68
  7
STYLE1
 11
0.0000000000000001
 21
1.0
 31
0.0
 73
     1
 44
1.0
  0
POINT
  5
1A8AA
330
1A2D7
100
AcDbEntity
  8
DEFPOINTS
  6
ByBlock
 62
     0
 48
50.0
100
AcDbPoint
 10
4852.829581418171
 20
9228.736797361971
 30
0.0
  0
POINT
  5
1A8AB
330
1A2D7
100
AcDbEntity
  8
DEFPOINTS
  6
ByBlock
 62
     0
 48
50.0
100
AcDbPoint
 10
4906.829581418173
 20
9160.736797361609
 30
0.0
  0
POINT
  5
1A8AC
330
1A2D7
100
AcDbEntity
  8
DEFPOINTS
  6
ByBlock
 62
     0
 48
50.0
100
AcDbPoint
 10
4076.198601638504
 20
9160.736797361609
 30
0.0
  0
ENDBLK
  5
1A8AD
330
1A2D7
100
AcDbEntity
  8
0
 48
50.0
100
AcDbBlockEnd
  0
BLOCK
  5
1AF82
330
1AF2C
100
AcDbEntity
  8
0
 48
50.0
100
AcDbBlockBegin
  2
*D17
 70
     1
 10
0.0
 20
0.0
 30
0.0
  3
*D17
  1

  0
LINE
  5
1AF83
330
1AF2C
100
AcDbEntity
  8
0
  6
ByBlock
 62
     0
 48
50.0
100
AcDbLine
 10
273.7989405287262
 20
1475.528226376841
 30
0.0
 11
273.7989405287262
 21
1097.887084092173
 31
0.0
  0
LINE
  5
1AF84
330
1AF2C
100
AcDbEntity
  8
0
  6
ByBlock
 62
     0
 48
50.0
100
AcDbLine
 10
73.79894052872441
 20
1475.528226376841
 30
0.0
 11
73.79894052872439
 21
1097.887084092173
 31
0.0
  0
LINE
  5
1AF85
330
1AF2C
100
AcDbEntity
  8
0
  6
ByBlock
 62
     0
 48
50.0
100
AcDbLine
 10
273.7989405287262
 20
1172.887084092173
 30
0.0
 11
73.7989405287244
 21
1172.887084092173
 31
0.0
  0
LINE
  5
1AF86
330
1AF2C
100
AcDbEntity
  8
0
  6
ByBlock
 62
     0
 48
50.0
100
AcDbLine
 10
73.7989405287244
 20
1172.887084092173
 30
0.0
 11
-375.1282248256064
 21
1172.887084092173
 31
0.0
  0
INSERT
  5
1AF87
330
1AF2C
100
AcDbEntity
  8
0
  6
ByBlock
 62
     0
 48
50.0
100
AcDbBlockReference
  2
_DOTSMALL
 10
273.7989405287262
 20
1172.887084092173
 30
0.0
 41
125.0
 42
125.0
 43
125.0
  0
INSERT
  5
1AF88
330
1AF2C
100
AcDbEntity
  8
0
  6
ByBlock
 62
     0
 48
50.0
100
AcDbBlockReference
  2
_DOTSMALL
 10
73.7989405287244
 20
1172.887084092173
 30
0.0
 41
125.0
 42
125.0
 43
125.0
 50
180.0
  0
MTEXT
  5
1AF89
330
1AF2C
100
AcDbEntity
  8
0
  6
ByBlock
 62
     7
 48
50.0
100
AcDbMText
 10
-213.164642148441
 20
1272.901847871701
 30
0.0
 40
150.0
 41
0.0
 71
     5
 72
     1
  1
\A1;200
  7
STYLE1
 73
     1
 44
1.0
  0
POINT
  5
1AF8A
330
1AF2C
100
AcDbEntity
  8
DEFPOINTS
  6
ByBlock
 62
     0
 48
50.0
100
AcDbPoint
 10
273.7989405287262
 20
1500.528226376841
 30
0.0
  0
POINT
  5
1AF8B
330
1AF2C
100
AcDbEntity
  8
DEFPOINTS
  6
ByBlock
 62
     0
 48
50.0
100
AcDbPoint
 10
73.79894052872441
 20
1500.528226376841
 30
0.0
  0
POINT
  5
1AF8C
330
1AF2C
100
AcDbEntity
  8
DEFPOINTS
  6
ByBlock
 62
     0
 48
50.0
100
AcDbPoint
 10
73.7989405287244
 20
1172.887084092173
 30
0.0
  0
ENDBLK
  5
1AF8D
330
1AF2C
100
AcDbEntity
  8
0
 48
50.0
100
AcDbBlockEnd
  0
BLOCK
  5
1B28C
330
1AF39
100
AcDbEntity
  8
0
 48
50.0
100
AcDbBlockBegin
  2
*D18
 70
     1
 10
0.0
 20
0.0
 30
0.0
  3
*D18
  1

  0
LINE
  5
1B28D
330
1AF39
100
AcDbEntity
  8
0
  6
ByBlock
 62
     0
 48
50.0
100
AcDbLine
 10
5947.829577048348
 20
5534.000002624809
 30
0.0
 11
5947.829577048348
 21
6581.068854554546
 31
0.0
  0
LINE
  5
1B28E
330
1AF39
100
AcDbEntity
  8
0
  6
ByBlock
 62
     0
 48
50.0
100
AcDbLine
 10
7937.829581418177
 20
5534.000002624809
 30
0.0
 11
7937.829581418177
 21
6581.068854554546
 31
0.0
  0
LINE
  5
1B28F
330
1AF39
100
AcDbEntity
  8
0
  6
ByBlock
 62
     0
 48
50.0
100
AcDbLine
 10
5947.829577048348
 20
6506.068854554546
 30
0.0
 11
7937.829581418177
 21
6506.068854554546
 31
0.0
  0
INSERT
  5
1B290
330
1AF39
100
AcDbEntity
  8
0
  6
ByBlock
 62
     0
 48
50.0
100
AcDbBlockReference
  2
_DOTSMALL
 10
5947.829577048348
 20
6506.068854554546
 30
0.0
 41
125.0
 42
125.0
 43
125.0
 50
180.0
  0
INSERT
  5
1B291
330
1AF39
100
AcDbEntity
  8
0
  6
ByBlock
 62
     0
 48
50.0
100
AcDbBlockReference
  2
_DOTSMALL
 10
7937.829581418177
 20
6506.068854554546
 30
0.0
 41
125.0
 42
125.0
 43
125.0
  0
MTEXT
  5
1B292
330
1AF39
100
AcDbEntity
  8
0
  6
ByBlock
 62
     7
 48
50.0
100
AcDbMText
 10
6942.829579233261
 20
6606.068854554546
 30
0.0
 40
150.0
 41
0.0
 71
     5
 72
     1
  1
\A1;1990
  7
STYLE1
 73
     1
 44
1.0
  0
POINT
  5
1B293
330
1AF39
100
AcDbEntity
  8
DEFPOINTS
  6
ByBlock
 62
     0
 48
50.0
100
AcDbPoint
 10
5947.829577048348
 20
5509.000002624809
 30
0.0
  0
POINT
  5
1B294
330
1AF39
100
AcDbEntity
  8
DEFPOINTS
  6
ByBlock
 62
     0
 48
50.0
100
AcDbPoint
 10
7937.829581418177
 20
5509.000002624809
 30
0.0
  0
POINT
  5
1B295
330
1AF39
100
AcDbEntity
  8
DEFPOINTS
  6
ByBlock
 62
     0
 48
50.0
100
AcDbPoint
 10
7937.829581418177
 20
6506.068854554546
 30
0.0
  0
ENDBLK
  5
1B296
330
1AF39
100
AcDbEntity
  8
0
 48
50.0
100
AcDbBlockEnd
  0
BLOCK
  5
1B282
330
1AF45
100
AcDbEntity
  8
0
 48
50.0
100
AcDbBlockBegin
  2
*D19
 70
     1
 10
0.0
 20
0.0
 30
0.0
  3
*D19
  1

  0
LINE
  5
1BAF9
330
1AF45
100
AcDbEntity
  8
寸法
 62
     0
 48
50.0
100
AcDbLine
 10
8172.829581418174
 20
5570.000000008446
 30
0.0
 11
8172.829581418174
 21
6313.281130716521
 31
0.0
  0
LINE
  5
1BAFA
330
1AF45
100
AcDbEntity
  8
寸法
 62
     0
 48
50.0
100
AcDbLine
 10
6292.829581418175
 20
6238.281130716521
 30
0.0
 11
8172.829581418174
 21
6238.281130716521
 31
0.0
  0
INSERT
  5
1BAFB
330
1AF45
100
AcDbEntity
  8
寸法
 62
     0
 48
50.0
100
AcDbBlockReference
  2
_DOTSMALL
 10
6292.829581418175
 20
6238.281130716521
 30
0.0
 41
125.0
 42
125.0
 43
125.0
 50
180.0
  0
INSERT
  5
1BAFC
330
1AF45
100
AcDbEntity
  8
寸法
 62
     0
 48
50.0
100
AcDbBlockReference
  2
_DOTSMALL
 10
8172.829581418174
 20
6238.281130716521
 30
0.0
 41
125.0
 42
125.0
 43
125.0
  0
MTEXT
  5
1BAFD
330
1AF45
100
AcDbEntity
  8
寸法
 62
     7
 48
50.0
100
AcDbMText
 10
7232.829581418174
 20
6338.281130716521
 30
0.0
 40
150.0
 41
0.0
 71
     5
 72
     1
  1
\A1;柱外寸法 1880
  7
STYLE1
 73
     1
 44
1.0
  0
POINT
  5
1BAFE
330
1AF45
100
AcDbEntity
  8
DEFPOINTS
 62
     0
 48
50.0
100
AcDbPoint
 10
6292.829581418175
 20
5545.000000008467
 30
0.0
  0
POINT
  5
1BAFF
330
1AF45
100
AcDbEntity
  8
DEFPOINTS
 62
     0
 48
50.0
100
AcDbPoint
 10
8172.829581418174
 20
5545.000000008446
 30
0.0
  0
POINT
  5
1BB00
330
1AF45
100
AcDbEntity
  8
DEFPOINTS
 62
     0
 48
50.0
100
AcDbPoint
 10
8172.829581418174
 20
6238.281130716521
 30
0.0
  0
ENDBLK
  5
1B28B
330
1AF45
100
AcDbEntity
  8
0
 48
50.0
100
AcDbBlockEnd
  0
BLOCK
  5
1AFA3
330
1AF50
100
AcDbEntity
  8
0
 48
50.0
100
AcDbBlockBegin
  2
*D20
 70
     1
 10
0.0
 20
0.0
 30
0.0
  3
*D20
  1

  0
LINE
  5
1AFA4
330
1AF50
100
AcDbEntity
  8
0
  6
ByBlock
 62
     0
 48
50.0
100
AcDbLine
 10
-2341.201063841101
 20
4264.52822900165
 30
0.0
 11
-2341.201063841101
 21
5043.809357093363
 31
0.0
  0
LINE
  5
1AFA5
330
1AF50
100
AcDbEntity
  8
0
  6
ByBlock
 62
     0
 48
50.0
100
AcDbLine
 10
-2286.201059471273
 20
4300.528226385309
 30
0.0
 11
-2286.201059471273
 21
5043.809357093363
 31
0.0
  0
LINE
  5
1AFA6
330
1AF50
100
AcDbEntity
  8
0
  6
ByBlock
 62
     0
 48
50.0
100
AcDbLine
 10
-2286.201059471273
 20
4968.809357093363
 30
0.0
 11
-2341.201063841101
 21
4968.809357093363
 31
0.0
  0
LINE
  5
1AFA7
330
1AF50
100
AcDbEntity
  8
0
  6
ByBlock
 62
     0
 48
50.0
100
AcDbLine
 10
-2341.201063841101
 20
4968.809357093363
 30
0.0
 11
-2776.866716307184
 21
4968.809357093363
 31
0.0
  0
INSERT
  5
1AFA8
330
1AF50
100
AcDbEntity
  8
0
  6
ByBlock
 62
     0
 48
50.0
100
AcDbBlockReference
  2
_DOTSMALL
 10
-2286.201059471273
 20
4968.809357093363
 30
0.0
 41
125.0
 42
125.0
 43
125.0
  0
INSERT
  5
1AFA9
330
1AF50
100
AcDbEntity
  8
0
  6
ByBlock
 62
     0
 48
50.0
100
AcDbBlockReference
  2
_DOTSMALL
 10
-2341.201063841101
 20
4968.809357093363
 30
0.0
 41
125.0
 42
125.0
 43
125.0
 50
180.0
  0
MTEXT
  5
1AFAA
330
1AF50
100
AcDbEntity
  8
0
  6
ByBlock
 62
     7
 48
50.0
100
AcDbMText
 10
-2666.260114589386
 20
5068.809357093363
 30
0.0
 40
150.0
 41
0.0
 71
     5
 72
     1
  1
\A1;55
  7
STYLE1
 73
     1
 44
1.0
  0
POINT
  5
1AFAB
330
1AF50
100
AcDbEntity
  8
DEFPOINTS
  6
ByBlock
 62
     0
 48
50.0
100
AcDbPoint
 10
-2341.201063841101
 20
4239.528229001651
 30
0.0
  0
POINT
  5
1AFAC
330
1AF50
100
AcDbEntity
  8
DEFPOINTS
  6
ByBlock
 62
     0
 48
50.0
100
AcDbPoint
 10
-2286.201059471273
 20
4275.52822638531
 30
0.0
  0
POINT
  5
1AFAD
330
1AF50
100
AcDbEntity
  8
DEFPOINTS
  6
ByBlock
 62
     0
 48
50.0
100
AcDbPoint
 10
-2286.201059471273
 20
4968.809357093363
 30
0.0
  0
ENDBLK
  5
1AFAE
330
1AF50
100
AcDbEntity
  8
0
 48
50.0
100
AcDbBlockEnd
  0
BLOCK
  5
1B683
330
1AF5D
100
AcDbEntity
  8
0
 48
50.0
100
AcDbBlockBegin
  2
*D21
 70
     1
 10
0.0
 20
0.0
 30
0.0
  3
*D21
  1

  0
LINE
  5
1BB01
330
1AF5D
100
AcDbEntity
  8
寸法
 62
     0
 48
50.0
100
AcDbLine
 10
8197.829581418174
 20
5302.0
 30
0.0
 11
8903.934533249728
 21
5302.0
 31
0.0
  0
LINE
  5
1BB02
330
1AF5D
100
AcDbEntity
  8
寸法
 62
     0
 48
50.0
100
AcDbLine
 10
8828.934533249725
 20
3342.0
 30
0.0
 11
8828.934533249727
 21
5302.0
 31
0.0
  0
INSERT
  5
1BB03
330
1AF5D
100
AcDbEntity
  8
寸法
 62
     0
 48
50.0
100
AcDbBlockReference
  2
_DOTSMALL
 10
8828.934533249725
 20
3342.0
 30
0.0
 41
125.0
 42
125.0
 43
125.0
 50
270.0
  0
INSERT
  5
1BB04
330
1AF5D
100
AcDbEntity
  8
寸法
 62
     0
 48
50.0
100
AcDbBlockReference
  2
_DOTSMALL
 10
8828.934533249727
 20
5302.0
 30
0.0
 41
125.0
 42
125.0
 43
125.0
 50
90.0
  0
MTEXT
  5
1BB05
330
1AF5D
100
AcDbEntity
  8
寸法
 62
     7
 48
50.0
100
AcDbMText
 10
8728.934533249725
 20
4322.000000000001
 30
0.0
 40
150.0
 41
0.0
 71
     5
 72
     1
  1
\A1;内高 1960
  7
STYLE1
 11
0.0000000000000001
 21
1.0
 31
0.0
 73
     1
 44
1.0
  0
POINT
  5
1BB06
330
1AF5D
100
AcDbEntity
  8
DEFPOINTS
 62
     0
 48
50.0
100
AcDbPoint
 10
8172.829581418175
 20
3342.0
 30
0.0
  0
POINT
  5
1BB07
330
1AF5D
100
AcDbEntity
  8
DEFPOINTS
 62
     0
 48
50.0
100
AcDbPoint
 10
8172.829581418174
 20
5302.0
 30
0.0
  0
POINT
  5
1BB08
330
1AF5D
100
AcDbEntity
  8
DEFPOINTS
 62
     0
 48
50.0
100
AcDbPoint
 10
8828.934533249727
 20
5302.0
 30
0.0
  0
ENDBLK
  5
1B68C
330
1AF5D
100
AcDbEntity
  8
0
 48
50.0
100
AcDbBlockEnd
  0
BLOCK
  5
1AFB9
330
1AF68
100
AcDbEntity
  8
0
 48
50.0
100
AcDbBlockBegin
  2
*D22
 70
     1
 10
0.0
 20
0.0
 30
0.0
  3
*D22
  1

  0
LINE
  5
1AFBA
330
1AF68
100
AcDbEntity
  8
0
  6
ByBlock
 62
     0
 48
50.0
100
AcDbLine
 10
198.7989405287262
 20
1835.528226376842
 30
0.0
 11
904.9038923602784
 21
1835.528226376842
 31
0.0
  0
LINE
  5
1AFBB
330
1AF68
100
AcDbEntity
  8
0
  6
ByBlock
 62
     0
 48
50.0
100
AcDbLine
 10
198.7989405287262
 20
1902.528226376842
 30
0.0
 11
904.9038923602784
 21
1902.528226376842
 31
0.0
  0
LINE
  5
1AFBC
330
1AF68
100
AcDbEntity
  8
0
  6
ByBlock
 62
     0
 48
50.0
100
AcDbLine
 10
829.9038923602784
 20
1902.528226376842
 30
0.0
 11
829.9038923602784
 21
1835.528226376842
 31
0.0
  0
LINE
  5
1AFBD
330
1AF68
100
AcDbEntity
  8
0
  6
ByBlock
 62
     0
 48
50.0
100
AcDbLine
 10
829.9038923602784
 20
1835.528226376842
 30
0.0
 11
829.9038923602784
 21
1427.237634887959
 31
0.0
  0
INSERT
  5
1AFBE
330
1AF68
100
AcDbEntity
  8
0
  6
ByBlock
 62
     0
 48
50.0
100
AcDbBlockReference
  2
_DOTSMALL
 10
829.9038923602784
 20
1902.528226376842
 30
0.0
 41
125.0
 42
125.0
 43
125.0
 50
90.0
  0
INSERT
  5
1AFBF
330
1AF68
100
AcDbEntity
  8
0
  6
ByBlock
 62
     0
 48
50.0
100
AcDbBlockReference
  2
_DOTSMALL
 10
829.9038923602784
 20
1835.528226376842
 30
0.0
 41
125.0
 42
125.0
 43
125.0
 50
270.0
  0
MTEXT
  5
1AFC0
330
1AF68
100
AcDbEntity
  8
0
  6
ByBlock
 62
     7
 48
50.0
100
AcDbMText
 10
729.9038923602783
 20
1539.225823864337
 30
0.0
 40
150.0
 41
0.0
 71
     5
 72
     1
  1
\A1;67
  7
STYLE1
 11
0.0000000000000001
 21
1.0
 31
0.0
 73
     1
 44
1.0
  0
POINT
  5
1AFC1
330
1AF68
100
AcDbEntity
  8
DEFPOINTS
  6
ByBlock
 62
     0
 48
50.0
100
AcDbPoint
 10
173.7989405287262
 20
1835.528226376842
 30
0.0
  0
POINT
  5
1AFC2
330
1AF68
100
AcDbEntity
  8
DEFPOINTS
  6
ByBlock
 62
     0
 48
50.0
100
AcDbPoint
 10
173.7989405287262
 20
1902.528226376842
 30
0.0
  0
POINT
  5
1AFC3
330
1AF68
100
AcDbEntity
  8
DEFPOINTS
  6
ByBlock
 62
     0
 48
50.0
100
AcDbPoint
 10
829.9038923602784
 20
1902.528226376842
 30
0.0
  0
ENDBLK
  5
1AFC4
330
1AF68
100
AcDbEntity
  8
0
 48
50.0
100
AcDbBlockEnd
  0
BLOCK
  5
1AFC5
330
1AF75
100
AcDbEntity
  8
0
 48
50.0
100
AcDbBlockBegin
  2
*D23
 70
     1
 10
0.0
 20
0.0
 30
0.0
  3
*D23
  1

  0
LINE
  5
1AFC6
330
1AF75
100
AcDbEntity
  8
0
  6
ByBlock
 62
     0
 48
50.0
100
AcDbLine
 10
173.7989405287244
 20
4300.528226385288
 30
0.0
 11
173.7989405287244
 21
5043.809357093363
 31
0.0
  0
LINE
  5
1AFC7
330
1AF75
100
AcDbEntity
  8
0
  6
ByBlock
 62
     0
 48
50.0
100
AcDbLine
 10
228.798940528728
 20
4264.52822900165
 30
0.0
 11
228.7989405287281
 21
5043.809357093363
 31
0.0
  0
LINE
  5
1AFC8
330
1AF75
100
AcDbEntity
  8
0
  6
ByBlock
 62
     0
 48
50.0
100
AcDbLine
 10
173.7989405287244
 20
4968.809357093363
 30
0.0
 11
228.7989405287281
 21
4968.809357093363
 31
0.0
  0
LINE
  5
1AFC9
330
1AF75
100
AcDbEntity
  8
0
  6
ByBlock
 62
     0
 48
50.0
100
AcDbLine
 10
228.7989405287281
 20
4968.809357093363
 30
0.0
 11
654.4645973646366
 21
4968.809357093363
 31
0.0
  0
INSERT
  5
1AFCA
330
1AF75
100
AcDbEntity
  8
0
  6
ByBlock
 62
     0
 48
50.0
100
AcDbBlockReference
  2
_DOTSMALL
 10
173.7989405287244
 20
4968.809357093363
 30
0.0
 41
125.0
 42
125.0
 43
125.0
 50
180.0
  0
INSERT
  5
1AFCB
330
1AF75
100
AcDbEntity
  8
0
  6
ByBlock
 62
     0
 48
50.0
100
AcDbBlockReference
  2
_DOTSMALL
 10
228.7989405287281
 20
4968.809357093363
 30
0.0
 41
125.0
 42
125.0
 43
125.0
  0
MTEXT
  5
1AFCC
330
1AF75
100
AcDbEntity
  8
0
  6
ByBlock
 62
     7
 48
50.0
100
AcDbMText
 10
543.8579956468384
 20
5068.809357093363
 30
0.0
 40
150.0
 41
0.0
 71
     5
 72
     1
  1
\A1;55
  7
STYLE1
 73
     1
 44
1.0
  0
POINT
  5
1AFCD
330
1AF75
100
AcDbEntity
  8
DEFPOINTS
  6
ByBlock
 62
     0
 48
50.0
100
AcDbPoint
 10
173.7989405287244
 20
4275.528226385287
 30
0.0
  0
POINT
  5
1AFCE
330
1AF75
100
AcDbEntity
  8
DEFPOINTS
  6
ByBlock
 62
     0
 48
50.0
100
AcDbPoint
 10
228.798940528728
 20
4239.528229001651
 30
0.0
  0
POINT
  5
1AFCF
330
1AF75
100
AcDbEntity
  8
DEFPOINTS
  6
ByBlock
 62
     0
 48
50.0
100
AcDbPoint
 10
228.7989405287281
 20
4968.809357093363
 30
0.0
  0
ENDBLK
  5
1AFD0
330
1AF75
100
AcDbEntity
  8
0
 48
50.0
100
AcDbBlockEnd
  0
BLOCK
  5
1B5AF
330
1B51B
100
AcDbEntity
  8
0
 48
50.0
100
AcDbBlockBegin
  2
*D24
 70
     1
 10
0.0
 20
0.0
 30
0.0
  3
*D24
  1

  0
LINE
  5
1B5B0
330
1B51B
100
AcDbEntity
  8
0
  6
ByBlock
 62
     0
 48
50.0
100
AcDbLine
 10
13933.37701791522
 20
-5422.8641452514
 30
0.0
 11
14381.7121529091
 21
-5422.8641452514
 31
0.0
  0
LINE
  5
1B5B1
330
1B51B
100
AcDbEntity
  8
0
  6
ByBlock
 62
     0
 48
50.0
100
AcDbLine
 10
13933.37701791522
 20
-5222.864145251402
 30
0.0
 11
14381.7121529091
 21
-5222.864145251402
 31
0.0
  0
LINE
  5
1B5B2
330
1B51B
100
AcDbEntity
  8
0
  6
ByBlock
 62
     0
 48
50.0
100
AcDbLine
 10
14306.7121529091
 20
-5222.864145251402
 30
0.0
 11
14306.7121529091
 21
-5422.8641452514
 31
0.0
  0
LINE
  5
1B5B3
330
1B51B
100
AcDbEntity
  8
0
  6
ByBlock
 62
     0
 48
50.0
100
AcDbLine
 10
14306.7121529091
 20
-5422.8641452514
 30
0.0
 11
14306.7121529091
 21
-5871.791310605732
 31
0.0
  0
INSERT
  5
1B5B4
330
1B51B
100
AcDbEntity
  8
0
  6
ByBlock
 62
     0
 48
50.0
100
AcDbBlockReference
  2
_DOTSMALL
 10
14306.7121529091
 20
-5222.864145251402
 30
0.0
 41
125.0
 42
125.0
 43
125.0
 50
90.0
  0
INSERT
  5
1B5B5
330
1B51B
100
AcDbEntity
  8
0
  6
ByBlock
 62
     0
 48
50.0
100
AcDbBlockReference
  2
_DOTSMALL
 10
14306.7121529091
 20
-5422.8641452514
 30
0.0
 41
125.0
 42
125.0
 43
125.0
 50
270.0
  0
MTEXT
  5
1B5B6
330
1B51B
100
AcDbEntity
  8
0
  6
ByBlock
 62
     7
 48
50.0
100
AcDbMText
 10
14206.69738912957
 20
-5709.827727928566
 30
0.0
 40
150.0
 41
0.0
 71
     5
 72
     1
  1
\A1;200
  7
STYLE1
 11
0.0000000000000001
 21
1.0
 31
0.0
 73
     1
 44
1.0
  0
POINT
  5
1B5B7
330
1B51B
100
AcDbEntity
  8
DEFPOINTS
  6
ByBlock
 62
     0
 48
50.0
100
AcDbPoint
 10
13908.37701791522
 20
-5422.8641452514
 30
0.0
  0
POINT
  5
1B5B8
330
1B51B
100
AcDbEntity
  8
DEFPOINTS
  6
ByBlock
 62
     0
 48
50.0
100
AcDbPoint
 10
13908.37701791522
 20
-5222.864145251402
 30
0.0
  0
POINT
  5
1B5B9
330
1B51B
100
AcDbEntity
  8
DEFPOINTS
  6
ByBlock
 62
     0
 48
50.0
100
AcDbPoint
 10
14306.7121529091
 20
-5222.864145251402
 30
0.0
  0
ENDBLK
  5
1B5BA
330
1B51B
100
AcDbEntity
  8
0
 48
50.0
100
AcDbBlockEnd
  0
BLOCK
  5
1B5BB
330
1B528
100
AcDbEntity
  8
0
 48
50.0
100
AcDbBlockBegin
  2
*D25
 70
     1
 10
0.0
 20
0.0
 30
0.0
  3
*D25
  1

  0
LINE
  5
1B5BC
330
1B528
100
AcDbEntity
  8
0
  6
ByBlock
 62
     0
 48
50.0
100
AcDbLine
 10
13908.37701791522
 20
-5447.864145251401
 30
0.0
 11
13908.37701791522
 21
-5783.911474551776
 31
0.0
  0
LINE
  5
1B5BD
330
1B528
100
AcDbEntity
  8
0
  6
ByBlock
 62
     0
 48
50.0
100
AcDbLine
 10
13708.37701791522
 20
-5447.864145251401
 30
0.0
 11
13708.37701791522
 21
-5783.911474551776
 31
0.0
  0
LINE
  5
1B5BE
330
1B528
100
AcDbEntity
  8
0
  6
ByBlock
 62
     0
 48
50.0
100
AcDbLine
 10
13908.37701791522
 20
-5708.911474551776
 30
0.0
 11
13708.37701791522
 21
-5708.911474551776
 31
0.0
  0
LINE
  5
1B5BF
330
1B528
100
AcDbEntity
  8
0
  6
ByBlock
 62
     0
 48
50.0
100
AcDbLine
 10
13708.37701791522
 20
-5708.911474551776
 30
0.0
 11
13259.44985256089
 21
-5708.911474551776
 31
0.0
  0
INSERT
  5
1B5C0
330
1B528
100
AcDbEntity
  8
0
  6
ByBlock
 62
     0
 48
50.0
100
AcDbBlockReference
  2
_DOTSMALL
 10
13908.37701791522
 20
-5708.911474551776
 30
0.0
 41
125.0
 42
125.0
 43
125.0
  0
INSERT
  5
1B5C1
330
1B528
100
AcDbEntity
  8
0
  6
ByBlock
 62
     0
 48
50.0
100
AcDbBlockReference
  2
_DOTSMALL
 10
13708.37701791522
 20
-5708.911474551776
 30
0.0
 41
125.0
 42
125.0
 43
125.0
 50
180.0
  0
MTEXT
  5
1B5C2
330
1B528
100
AcDbEntity
  8
0
  6
ByBlock
 62
     7
 48
50.0
100
AcDbMText
 10
13421.41343523805
 20
-5608.896710772249
 30
0.0
 40
150.0
 41
0.0
 71
     5
 72
     1
  1
\A1;200
  7
STYLE1
 73
     1
 44
1.0
  0
POINT
  5
1B5C3
330
1B528
100
AcDbEntity
  8
DEFPOINTS
  6
ByBlock
 62
     0
 48
50.0
100
AcDbPoint
 10
13908.37701791522
 20
-5422.8641452514
 30
0.0
  0
POINT
  5
1B5C4
330
1B528
100
AcDbEntity
  8
DEFPOINTS
  6
ByBlock
 62
     0
 48
50.0
100
AcDbPoint
 10
13708.37701791522
 20
-5422.8641452514
 30
0.0
  0
POINT
  5
1B5C5
330
1B528
100
AcDbEntity
  8
DEFPOINTS
  6
ByBlock
 62
     0
 48
50.0
100
AcDbPoint
 10
13708.37701791522
 20
-5708.911474551776
 30
0.0
  0
ENDBLK
  5
1B5C6
330
1B528
100
AcDbEntity
  8
0
 48
50.0
100
AcDbBlockEnd
  0
BLOCK
  5
1B5C7
330
1B535
100
AcDbEntity
  8
0
 48
50.0
100
AcDbBlockBegin
  2
*D26
 70
     1
 10
0.0
 20
0.0
 30
0.0
  3
*D26
  1

  0
LINE
  5
1B5C8
330
1B535
100
AcDbEntity
  8
0
  6
ByBlock
 62
     0
 48
50.0
100
AcDbLine
 10
12414.87701791522
 20
-2792.864145251402
 30
0.0
 11
12414.87701791522
 21
-1781.795290696856
 31
0.0
  0
LINE
  5
1B5C9
330
1B535
100
AcDbEntity
  8
0
  6
ByBlock
 62
     0
 48
50.0
100
AcDbLine
 10
13944.87701791522
 20
-2852.864145251402
 30
0.0
 11
13944.87701791522
 21
-1781.795290696856
 31
0.0
  0
LINE
  5
1B5CA
330
1B535
100
AcDbEntity
  8
0
  6
ByBlock
 62
     0
 48
50.0
100
AcDbLine
 10
12414.87701791522
 20
-1856.795290696856
 30
0.0
 11
13944.87701791522
 21
-1856.795290696856
 31
0.0
  0
INSERT
  5
1B5CB
330
1B535
100
AcDbEntity
  8
0
  6
ByBlock
 62
     0
 48
50.0
100
AcDbBlockReference
  2
_DOTSMALL
 10
12414.87701791522
 20
-1856.795290696856
 30
0.0
 41
125.0
 42
125.0
 43
125.0
 50
180.0
  0
INSERT
  5
1B5CC
330
1B535
100
AcDbEntity
  8
0
  6
ByBlock
 62
     0
 48
50.0
100
AcDbBlockReference
  2
_DOTSMALL
 10
13944.87701791522
 20
-1856.795290696856
 30
0.0
 41
125.0
 42
125.0
 43
125.0
  0
MTEXT
  5
1B5CD
330
1B535
100
AcDbEntity
  8
0
  6
ByBlock
 62
     7
 48
50.0
100
AcDbMText
 10
13179.87701791522
 20
-1756.795290696856
 30
0.0
 40
150.0
 41
0.0
 71
     5
 72
     1
  1
\A1;1530
  7
STYLE1
 73
     1
 44
1.0
  0
POINT
  5
1B5CE
330
1B535
100
AcDbEntity
  8
DEFPOINTS
  6
ByBlock
 62
     0
 48
50.0
100
AcDbPoint
 10
12414.87701791522
 20
-2817.864145251402
 30
0.0
  0
POINT
  5
1B5CF
330
1B535
100
AcDbEntity
  8
DEFPOINTS
  6
ByBlock
 62
     0
 48
50.0
100
AcDbPoint
 10
13944.87701791522
 20
-2877.864145251402
 30
0.0
  0
POINT
  5
1B5D0
330
1B535
100
AcDbEntity
  8
DEFPOINTS
  6
ByBlock
 62
     0
 48
50.0
100
AcDbPoint
 10
13944.87701791522
 20
-1856.795290696856
 30
0.0
  0
ENDBLK
  5
1B5D1
330
1B535
100
AcDbEntity
  8
0
 48
50.0
100
AcDbBlockEnd
  0
BLOCK
  5
1B5D2
330
1B541
100
AcDbEntity
  8
0
 48
50.0
100
AcDbBlockBegin
  2
*D27
 70
     1
 10
0.0
 20
0.0
 30
0.0
  3
*D27
  1

  0
LINE
  5
1BB09
330
1B541
100
AcDbEntity
  8
寸法
 62
     0
 48
50.0
100
AcDbLine
 10
14532.82958141817
 20
5513.337018226841
 30
0.0
 11
14532.82958141817
 21
6313.281130716521
 31
0.0
  0
LINE
  5
1BB0A
330
1B541
100
AcDbEntity
  8
寸法
 62
     0
 48
50.0
100
AcDbLine
 10
13232.82958141817
 20
6238.281130716521
 30
0.0
 11
14532.82958141817
 21
6238.281130716521
 31
0.0
  0
INSERT
  5
1BB0B
330
1B541
100
AcDbEntity
  8
寸法
 62
     0
 48
50.0
100
AcDbBlockReference
  2
_DOTSMALL
 10
13232.82958141817
 20
6238.281130716521
 30
0.0
 41
125.0
 42
125.0
 43
125.0
 50
180.0
  0
INSERT
  5
1BB0C
330
1B541
100
AcDbEntity
  8
寸法
 62
     0
 48
50.0
100
AcDbBlockReference
  2
_DOTSMALL
 10
14532.82958141817
 20
6238.281130716521
 30
0.0
 41
125.0
 42
125.0
 43
125.0
  0
MTEXT
  5
1BB0D
330
1B541
100
AcDbEntity
  8
寸法
 62
     7
 48
50.0
100
AcDbMText
 10
13882.82958141817
 20
6338.281130716521
 30
0.0
 40
150.0
 41
0.0
 71
     5
 72
     1
  1
\A1;柱外寸法 1300
  7
STYLE1
 73
     1
 44
1.0
  0
POINT
  5
1BB0E
330
1B541
100
AcDbEntity
  8
DEFPOINTS
 62
     0
 48
50.0
100
AcDbPoint
 10
13232.82958141817
 20
5541.484603453081
 30
0.0
  0
POINT
  5
1BB0F
330
1B541
100
AcDbEntity
  8
DEFPOINTS
 62
     0
 48
50.0
100
AcDbPoint
 10
14532.82958141817
 20
5488.33701822684
 30
0.0
  0
POINT
  5
1BB10
330
1B541
100
AcDbEntity
  8
DEFPOINTS
 62
     0
 48
50.0
100
AcDbPoint
 10
14532.82958141817
 20
6238.281130716521
 30
0.0
  0
ENDBLK
  5
1B5DB
330
1B541
100
AcDbEntity
  8
0
 48
50.0
100
AcDbBlockEnd
  0
BLOCK
  5
1B5DC
330
1B54C
100
AcDbEntity
  8
0
 48
50.0
100
AcDbBlockBegin
  2
*D28
 70
     1
 10
0.0
 20
0.0
 30
0.0
  3
*D28
  1

  0
LINE
  5
1B5DD
330
1B54C
100
AcDbEntity
  8
0
  6
ByBlock
 62
     0
 48
50.0
100
AcDbLine
 10
12456.87701791522
 20
-5010.364145251402
 30
0.0
 11
12060.98873766057
 21
-5010.364145251402
 31
0.0
  0
LINE
  5
1B5DE
330
1B54C
100
AcDbEntity
  8
0
  6
ByBlock
 62
     0
 48
50.0
100
AcDbLine
 10
12456.87701791522
 20
-3212.364145251402
 30
0.0
 11
12060.98873766057
 21
-3212.364145251402
 31
0.0
  0
LINE
  5
1B5DF
330
1B54C
100
AcDbEntity
  8
0
  6
ByBlock
 62
     0
 48
50.0
100
AcDbLine
 10
12135.98873766057
 20
-5010.364145251402
 30
0.0
 11
12135.98873766057
 21
-3212.364145251402
 31
0.0
  0
INSERT
  5
1B5E0
330
1B54C
100
AcDbEntity
  8
0
  6
ByBlock
 62
     0
 48
50.0
100
AcDbBlockReference
  2
_DOTSMALL
 10
12135.98873766057
 20
-5010.364145251402
 30
0.0
 41
125.0
 42
125.0
 43
125.0
 50
270.0
  0
INSERT
  5
1B5E1
330
1B54C
100
AcDbEntity
  8
0
  6
ByBlock
 62
     0
 48
50.0
100
AcDbBlockReference
  2
_DOTSMALL
 10
12135.98873766057
 20
-3212.364145251402
 30
0.0
 41
125.0
 42
125.0
 43
125.0
 50
90.0
  0
MTEXT
  5
1B5E2
330
1B54C
100
AcDbEntity
  8
0
  6
ByBlock
 62
     7
 48
50.0
100
AcDbMText
 10
12035.98873766057
 20
-4111.364145251402
 30
0.0
 40
150.0
 41
0.0
 71
     5
 72
     1
  1
\A1;有効開口部高サ 1798
  7
STYLE1
 11
0.0000000000000001
 21
1.0
 31
0.0
 73
     1
 44
1.0
  0
POINT
  5
1B5E3
330
1B54C
100
AcDbEntity
  8
DEFPOINTS
  6
ByBlock
 62
     0
 48
50.0
100
AcDbPoint
 10
12481.87701791522
 20
-5010.364145251402
 30
0.0
  0
POINT
  5
1B5E4
330
1B54C
100
AcDbEntity
  8
DEFPOINTS
  6
ByBlock
 62
     0
 48
50.0
100
AcDbPoint
 10
12481.87701791522
 20
-3212.364145251402
 30
0.0
  0
POINT
  5
1B5E5
330
1B54C
100
AcDbEntity
  8
DEFPOINTS
  6
ByBlock
 62
     0
 48
50.0
100
AcDbPoint
 10
12135.98873766057
 20
-3212.364145251402
 30
0.0
  0
ENDBLK
  5
1B5E6
330
1B54C
100
AcDbEntity
  8
0
 48
50.0
100
AcDbBlockEnd
  0
BLOCK
  5
1B5E7
330
1B558
100
AcDbEntity
  8
0
 48
50.0
100
AcDbBlockBegin
  2
*D29
 70
     1
 10
0.0
 20
0.0
 30
0.0
  3
*D29
  1

  0
LINE
  5
1BB11
330
1B558
100
AcDbEntity
  8
寸法
 62
     0
 48
50.0
100
AcDbLine
 10
13207.82958141817
 20
5275.0
 30
0.0
 11
12431.70986552558
 21
5275.0
 31
0.0
  0
LINE
  5
1BB12
330
1B558
100
AcDbEntity
  8
寸法
 62
     0
 48
50.0
100
AcDbLine
 10
12506.70986552558
 20
3330.0
 30
0.0
 11
12506.70986552558
 21
5275.0
 31
0.0
  0
INSERT
  5
1BB13
330
1B558
100
AcDbEntity
  8
寸法
 62
     0
 48
50.0
100
AcDbBlockReference
  2
_DOTSMALL
 10
12506.70986552558
 20
3330.0
 30
0.0
 41
125.0
 42
125.0
 43
125.0
 50
270.0
  0
INSERT
  5
1BB14
330
1B558
100
AcDbEntity
  8
寸法
 62
     0
 48
50.0
100
AcDbBlockReference
  2
_DOTSMALL
 10
12506.70986552558
 20
5275.0
 30
0.0
 41
125.0
 42
125.0
 43
125.0
 50
90.0
  0
MTEXT
  5
1BB15
330
1B558
100
AcDbEntity
  8
寸法
 62
     7
 48
50.0
100
AcDbMText
 10
12406.70986552558
 20
4302.500000000001
 30
0.0
 40
150.0
 41
0.0
 71
     5
 72
     1
  1
\A1;1945
  7
STYLE1
 11
0.0000000000000001
 21
1.0
 31
0.0
 73
     1
 44
1.0
  0
POINT
  5
1BB16
330
1B558
100
AcDbEntity
  8
DEFPOINTS
 62
     0
 48
50.0
100
AcDbPoint
 10
13164.82958141817
 20
3330.0
 30
0.0
  0
POINT
  5
1BB17
330
1B558
100
AcDbEntity
  8
DEFPOINTS
 62
     0
 48
50.0
100
AcDbPoint
 10
13232.82958141817
 20
5275.0
 30
0.0
  0
POINT
  5
1BB18
330
1B558
100
AcDbEntity
  8
DEFPOINTS
 62
     0
 48
50.0
100
AcDbPoint
 10
12506.70986552558
 20
5275.0
 30
0.0
  0
ENDBLK
  5
1B5F0
330
1B558
100
AcDbEntity
  8
0
 48
50.0
100
AcDbBlockEnd
  0
BLOCK
  5
1B5F1
330
1B563
100
AcDbEntity
  8
0
 48
50.0
100
AcDbBlockBegin
  2
*D30
 70
     1
 10
0.0
 20
0.0
 30
0.0
  3
*D30
  1

  0
LINE
  5
1B5F2
330
1B563
100
AcDbEntity
  8
0
  6
ByBlock
 62
     0
 48
50.0
100
AcDbLine
 10
12389.87701791522
 20
-2817.864145251402
 30
0.0
 11
11440.71109761683
 21
-2817.864145251402
 31
0.0
  0
LINE
  5
1B5F3
330
1B563
100
AcDbEntity
  8
0
  6
ByBlock
 62
     0
 48
50.0
100
AcDbLine
 10
12456.87701791522
 20
-5087.864145251402
 30
0.0
 11
11440.71109761683
 21
-5087.864145251402
 31
0.0
  0
LINE
  5
1B5F4
330
1B563
100
AcDbEntity
  8
0
  6
ByBlock
 62
     0
 48
50.0
100
AcDbLine
 10
11515.71109761683
 20
-2817.864145251402
 30
0.0
 11
11515.71109761683
 21
-5087.864145251402
 31
0.0
  0
INSERT
  5
1B5F5
330
1B563
100
AcDbEntity
  8
0
  6
ByBlock
 62
     0
 48
50.0
100
AcDbBlockReference
  2
_DOTSMALL
 10
11515.71109761683
 20
-2817.864145251402
 30
0.0
 41
125.0
 42
125.0
 43
125.0
 50
90.0
  0
INSERT
  5
1B5F6
330
1B563
100
AcDbEntity
  8
0
  6
ByBlock
 62
     0
 48
50.0
100
AcDbBlockReference
  2
_DOTSMALL
 10
11515.71109761683
 20
-5087.864145251402
 30
0.0
 41
125.0
 42
125.0
 43
125.0
 50
270.0
  0
MTEXT
  5
1B5F7
330
1B563
100
AcDbEntity
  8
0
  6
ByBlock
 62
     7
 48
50.0
100
AcDbMText
 10
11415.6963338373
 20
-3952.864145251402
 30
0.0
 40
150.0
 41
0.0
 71
     5
 72
     1
  1
\A1;2270
  7
STYLE1
 11
0.0000000000000001
 21
1.0
 31
0.0
 73
     1
 44
1.0
  0
POINT
  5
1B5F8
330
1B563
100
AcDbEntity
  8
DEFPOINTS
  6
ByBlock
 62
     0
 48
50.0
100
AcDbPoint
 10
12414.87701791522
 20
-2817.864145251402
 30
0.0
  0
POINT
  5
1B5F9
330
1B563
100
AcDbEntity
  8
DEFPOINTS
  6
ByBlock
 62
     0
 48
50.0
100
AcDbPoint
 10
12481.87701791522
 20
-5087.864145251402
 30
0.0
  0
POINT
  5
1B5FA
330
1B563
100
AcDbEntity
  8
DEFPOINTS
  6
ByBlock
 62
     0
 48
50.0
100
AcDbPoint
 10
11515.71109761683
 20
-5087.864145251402
 30
0.0
  0
ENDBLK
  5
1B5FB
330
1B563
100
AcDbEntity
  8
0
 48
50.0
100
AcDbBlockEnd
  0
BLOCK
  5
1B5FC
330
1B56F
100
AcDbEntity
  8
0
 48
50.0
100
AcDbBlockBegin
  2
*D31
 70
     1
 10
0.0
 20
0.0
 30
0.0
  3
*D31
  1

  0
LINE
  5
1B5FD
330
1B56F
100
AcDbEntity
  8
0
  6
ByBlock
 62
     0
 48
50.0
100
AcDbLine
 10
12456.87701791522
 20
-5087.864145251402
 30
0.0
 11
11748.75730202263
 21
-5087.864145251402
 31
0.0
  0
LINE
  5
1B5FE
330
1B56F
100
AcDbEntity
  8
0
  6
ByBlock
 62
     0
 48
50.0
100
AcDbLine
 10
12456.87701791522
 20
-5032.864145251402
 30
0.0
 11
11748.75730202263
 21
-5032.864145251402
 31
0.0
  0
LINE
  5
1B5FF
330
1B56F
100
AcDbEntity
  8
0
  6
ByBlock
 62
     0
 48
50.0
100
AcDbLine
 10
11823.75730202263
 20
-5032.864145251402
 30
0.0
 11
11823.75730202263
 21
-5087.864145251402
 31
0.0
  0
LINE
  5
1B600
330
1B56F
100
AcDbEntity
  8
0
  6
ByBlock
 62
     0
 48
50.0
100
AcDbLine
 10
11823.75730202263
 20
-5087.864145251402
 30
0.0
 11
11823.75730202263
 21
-5509.050252791734
 31
0.0
  0
INSERT
  5
1B601
330
1B56F
100
AcDbEntity
  8
0
  6
ByBlock
 62
     0
 48
50.0
100
AcDbBlockReference
  2
_DOTSMALL
 10
11823.75730202263
 20
-5032.864145251402
 30
0.0
 41
125.0
 42
125.0
 43
125.0
 50
90.0
  0
INSERT
  5
1B602
330
1B56F
100
AcDbEntity
  8
0
  6
ByBlock
 62
     0
 48
50.0
100
AcDbBlockReference
  2
_DOTSMALL
 10
11823.75730202263
 20
-5087.864145251402
 30
0.0
 41
125.0
 42
125.0
 43
125.0
 50
270.0
  0
MTEXT
  5
1B603
330
1B56F
100
AcDbEntity
  8
0
  6
ByBlock
 62
     7
 48
50.0
100
AcDbMText
 10
11723.75730202263
 20
-5398.443651073936
 30
0.0
 40
150.0
 41
0.0
 71
     5
 72
     1
  1
\A1;55
  7
STYLE1
 11
0.0000000000000001
 21
1.0
 31
0.0
 73
     1
 44
1.0
  0
POINT
  5
1B604
330
1B56F
100
AcDbEntity
  8
DEFPOINTS
  6
ByBlock
 62
     0
 48
50.0
100
AcDbPoint
 10
12481.87701791522
 20
-5087.864145251402
 30
0.0
  0
POINT
  5
1B605
330
1B56F
100
AcDbEntity
  8
DEFPOINTS
  6
ByBlock
 62
     0
 48
50.0
100
AcDbPoint
 10
12481.87701791522
 20
-5032.864145251402
 30
0.0
  0
POINT
  5
1B606
330
1B56F
100
AcDbEntity
  8
DEFPOINTS
  6
ByBlock
 62
     0
 48
50.0
100
AcDbPoint
 10
11823.75730202263
 20
-5032.864145251402
 30
0.0
  0
ENDBLK
  5
1B607
330
1B56F
100
AcDbEntity
  8
0
 48
50.0
100
AcDbBlockEnd
  0
BLOCK
  5
1B608
330
1B57C
100
AcDbEntity
  8
0
 48
50.0
100
AcDbBlockBegin
  2
*D32
 70
     1
 10
0.0
 20
0.0
 30
0.0
  3
*D32
  1

  0
LINE
  5
1B609
330
1B57C
100
AcDbEntity
  8
0
  6
ByBlock
 62
     0
 48
50.0
100
AcDbLine
 10
12414.87701791522
 20
-2792.864145251402
 30
0.0
 11
12414.87701791522
 21
-2049.583014534881
 31
0.0
  0
LINE
  5
1B60A
330
1B57C
100
AcDbEntity
  8
0
  6
ByBlock
 62
     0
 48
50.0
100
AcDbLine
 10
12549.87701791522
 20
-2796.37954179832
 30
0.0
 11
12549.87701791522
 21
-2049.583014534881
 31
0.0
  0
LINE
  5
1B60B
330
1B57C
100
AcDbEntity
  8
0
  6
ByBlock
 62
     0
 48
50.0
100
AcDbLine
 10
12549.87701791522
 20
-2124.58301453488
 30
0.0
 11
12414.87701791522
 21
-2124.58301453488
 31
0.0
  0
LINE
  5
1B60C
330
1B57C
100
AcDbEntity
  8
0
  6
ByBlock
 62
     0
 48
50.0
100
AcDbLine
 10
12414.87701791522
 20
-2124.58301453488
 30
0.0
 11
11993.66381447962
 21
-2124.58301453488
 31
0.0
  0
INSERT
  5
1B60D
330
1B57C
100
AcDbEntity
  8
0
  6
ByBlock
 62
     0
 48
50.0
100
AcDbBlockReference
  2
_DOTSMALL
 10
12549.87701791522
 20
-2124.58301453488
 30
0.0
 41
125.0
 42
125.0
 43
125.0
  0
INSERT
  5
1B60E
330
1B57C
100
AcDbEntity
  8
0
  6
ByBlock
 62
     0
 48
50.0
100
AcDbBlockReference
  2
_DOTSMALL
 10
12414.87701791522
 20
-2124.58301453488
 30
0.0
 41
125.0
 42
125.0
 43
125.0
 50
180.0
  0
MTEXT
  5
1B60F
330
1B57C
100
AcDbEntity
  8
0
  6
ByBlock
 62
     7
 48
50.0
100
AcDbMText
 10
12141.77041619742
 20
-2024.583014534881
 30
0.0
 40
150.0
 41
0.0
 71
     5
 72
     1
  1
\A1;135
  7
STYLE1
 73
     1
 44
1.0
  0
POINT
  5
1B610
330
1B57C
100
AcDbEntity
  8
DEFPOINTS
  6
ByBlock
 62
     0
 48
50.0
100
AcDbPoint
 10
12414.87701791522
 20
-2817.864145251402
 30
0.0
  0
POINT
  5
1B611
330
1B57C
100
AcDbEntity
  8
DEFPOINTS
  6
ByBlock
 62
     0
 48
50.0
100
AcDbPoint
 10
12549.87701791522
 20
-2821.37954179832
 30
0.0
  0
POINT
  5
1B612
330
1B57C
100
AcDbEntity
  8
DEFPOINTS
  6
ByBlock
 62
     0
 48
50.0
100
AcDbPoint
 10
12549.87701791522
 20
-2124.58301453488
 30
0.0
  0
ENDBLK
  5
1B613
330
1B57C
100
AcDbEntity
  8
0
 48
50.0
100
AcDbBlockEnd
  0
BLOCK
  5
1B66F
330
1B589
100
AcDbEntity
  8
0
 48
50.0
100
AcDbBlockBegin
  2
*D33
 70
     1
 10
0.0
 20
0.0
 30
0.0
  3
*D33
  1

  0
LINE
  5
1B670
330
1B589
100
AcDbEntity
  8
0
  6
ByBlock
 62
     0
 48
50.0
100
AcDbLine
 10
13207.84452484768
 20
5409.081588553467
 30
0.0
 11
12539.05131871691
 21
5432.215909131484
 31
0.0
  0
LINE
  5
1B671
330
1B589
100
AcDbEntity
  8
0
  6
ByBlock
 62
     0
 48
50.0
100
AcDbLine
 10
13211.82012835874
 20
5524.012848777669
 30
0.0
 11
12543.02692222797
 21
5547.147169355684
 31
0.0
  0
LINE
  5
1B672
330
1B589
100
AcDbEntity
  8
0
  6
ByBlock
 62
     0
 48
50.0
100
AcDbLine
 10
12614.00648842835
 20
5429.62312423297
 30
0.0
 11
12617.9820919394
 21
5544.554384457171
 31
0.0
  0
LINE
  5
1B673
330
1B589
100
AcDbEntity
  8
0
  6
ByBlock
 62
     0
 48
50.0
100
AcDbLine
 10
12617.9820919394
 20
5544.554384457171
 30
0.0
 11
12631.50651441895
 21
5935.533745215437
 31
0.0
  0
INSERT
  5
1B674
330
1B589
100
AcDbEntity
  8
0
  6
ByBlock
 62
     0
 48
50.0
100
AcDbBlockReference
  2
_DOTSMALL
 10
12614.00648842835
 20
5429.62312423297
 30
0.0
 41
125.0
 42
125.0
 43
125.0
 50
268.0188634930171
  0
INSERT
  5
1B675
330
1B589
100
AcDbEntity
  8
0
  6
ByBlock
 62
     0
 48
50.0
100
AcDbBlockReference
  2
_DOTSMALL
 10
12617.9820919394
 20
5544.554384457171
 30
0.0
 41
125.0
 42
125.0
 43
125.0
 50
88.01886349301719
  0
MTEXT
  5
1B676
330
1B589
100
AcDbEntity
  8
0
  6
ByBlock
 62
     7
 48
50.0
100
AcDbMText
 10
12526.96473097936
 20
5805.963752793854
 30
0.0
 40
150.0
 41
0.0
 71
     5
 72
     1
  1
\A1;115
  7
STYLE1
 11
0.0345704653135056
 21
0.9994022628191354
 31
0.0
 73
     1
 44
1.0
  0
POINT
  5
1B677
330
1B589
100
AcDbEntity
  8
DEFPOINTS
  6
ByBlock
 62
     0
 48
50.0
100
AcDbPoint
 10
13232.82958141817
 20
5408.217326920629
 30
0.0
  0
POINT
  5
1B678
330
1B589
100
AcDbEntity
  8
DEFPOINTS
  6
ByBlock
 62
     0
 48
50.0
100
AcDbPoint
 10
13236.80518492922
 20
5523.148587144831
 30
0.0
  0
POINT
  5
1B679
330
1B589
100
AcDbEntity
  8
DEFPOINTS
  6
ByBlock
 62
     0
 48
50.0
100
AcDbPoint
 10
12617.9820919394
 20
5544.554384457171
 30
0.0
  0
ENDBLK
  5
1B67A
330
1B589
100
AcDbEntity
  8
0
 48
50.0
100
AcDbBlockEnd
  0
BLOCK
  5
1B620
330
1B596
100
AcDbEntity
  8
0
 48
50.0
100
AcDbBlockBegin
  2
*D34
 70
     1
 10
0.0
 20
0.0
 30
0.0
  3
*D34
  1

  0
LINE
  5
1B621
330
1B596
100
AcDbEntity
  8
0
  6
ByBlock
 62
     0
 48
50.0
100
AcDbLine
 10
13874.87701791522
 20
-5087.864145251402
 30
0.0
 11
14584.36777133664
 21
-5087.864145251402
 31
0.0
  0
LINE
  5
1B622
330
1B596
100
AcDbEntity
  8
0
  6
ByBlock
 62
     0
 48
50.0
100
AcDbLine
 10
13969.87701791522
 20
-2877.864145251402
 30
0.0
 11
14584.36777133664
 21
-2877.864145251402
 31
0.0
  0
LINE
  5
1B623
330
1B596
100
AcDbEntity
  8
0
  6
ByBlock
 62
     0
 48
50.0
100
AcDbLine
 10
14509.36777133664
 20
-5087.864145251402
 30
0.0
 11
14509.36777133664
 21
-2877.864145251402
 31
0.0
  0
INSERT
  5
1B624
330
1B596
100
AcDbEntity
  8
0
  6
ByBlock
 62
     0
 48
50.0
100
AcDbBlockReference
  2
_DOTSMALL
 10
14509.36777133664
 20
-5087.864145251402
 30
0.0
 41
125.0
 42
125.0
 43
125.0
 50
270.0
  0
INSERT
  5
1B625
330
1B596
100
AcDbEntity
  8
0
  6
ByBlock
 62
     0
 48
50.0
100
AcDbBlockReference
  2
_DOTSMALL
 10
14509.36777133664
 20
-2877.864145251402
 30
0.0
 41
125.0
 42
125.0
 43
125.0
 50
90.0
  0
MTEXT
  5
1B626
330
1B596
100
AcDbEntity
  8
0
  6
ByBlock
 62
     7
 48
50.0
100
AcDbMText
 10
14409.35300755711
 20
-3982.864145251402
 30
0.0
 40
150.0
 41
0.0
 71
     5
 72
     1
  1
\A1;2210
  7
STYLE1
 11
0.0000000000000001
 21
1.0
 31
0.0
 73
     1
 44
1.0
  0
POINT
  5
1B627
330
1B596
100
AcDbEntity
  8
DEFPOINTS
  6
ByBlock
 62
     0
 48
50.0
100
AcDbPoint
 10
13849.87701791522
 20
-5087.864145251402
 30
0.0
  0
POINT
  5
1B628
330
1B596
100
AcDbEntity
  8
DEFPOINTS
  6
ByBlock
 62
     0
 48
50.0
100
AcDbPoint
 10
13944.87701791522
 20
-2877.864145251402
 30
0.0
  0
POINT
  5
1B629
330
1B596
100
AcDbEntity
  8
DEFPOINTS
  6
ByBlock
 62
     0
 48
50.0
100
AcDbPoint
 10
14509.36777133664
 20
-2877.864145251402
 30
0.0
  0
ENDBLK
  5
1B62A
330
1B596
100
AcDbEntity
  8
0
 48
50.0
100
AcDbBlockEnd
  0
BLOCK
  5
1B62B
330
1B5A2
100
AcDbEntity
  8
0
 48
50.0
100
AcDbBlockBegin
  2
*D35
 70
     1
 10
0.0
 20
0.0
 30
0.0
  3
*D35
  1

  0
LINE
  5
1B62C
330
1B5A2
100
AcDbEntity
  8
0
  6
ByBlock
 62
     0
 48
50.0
100
AcDbLine
 10
13849.87701791522
 20
-2849.527127024561
 30
0.0
 11
13849.87701791522
 21
-2049.583014534881
 31
0.0
  0
LINE
  5
1B62D
330
1B5A2
100
AcDbEntity
  8
0
  6
ByBlock
 62
     0
 48
50.0
100
AcDbLine
 10
13944.87701791522
 20
-2852.864145251402
 30
0.0
 11
13944.87701791522
 21
-2049.583014534881
 31
0.0
  0
LINE
  5
1B62E
330
1B5A2
100
AcDbEntity
  8
0
  6
ByBlock
 62
     0
 48
50.0
100
AcDbLine
 10
13849.87701791522
 20
-2124.58301453488
 30
0.0
 11
13944.87701791522
 21
-2124.58301453488
 31
0.0
  0
LINE
  5
1B62F
330
1B5A2
100
AcDbEntity
  8
0
  6
ByBlock
 62
     0
 48
50.0
100
AcDbLine
 10
13944.87701791522
 20
-2124.58301453488
 30
0.0
 11
14391.14927646892
 21
-2124.58301453488
 31
0.0
  0
INSERT
  5
1B630
330
1B5A2
100
AcDbEntity
  8
0
  6
ByBlock
 62
     0
 48
50.0
100
AcDbBlockReference
  2
_DOTSMALL
 10
13849.87701791522
 20
-2124.58301453488
 30
0.0
 41
125.0
 42
125.0
 43
125.0
 50
180.0
  0
INSERT
  5
1B631
330
1B5A2
100
AcDbEntity
  8
0
  6
ByBlock
 62
     0
 48
50.0
100
AcDbBlockReference
  2
_DOTSMALL
 10
13944.87701791522
 20
-2124.58301453488
 30
0.0
 41
125.0
 42
125.0
 43
125.0
  0
MTEXT
  5
1B632
330
1B5A2
100
AcDbEntity
  8
0
  6
ByBlock
 62
     7
 48
50.0
100
AcDbMText
 10
14277.43607303333
 20
-2024.583014534881
 30
0.0
 40
150.0
 41
0.0
 71
     5
 72
     1
  1
\A1;95
  7
STYLE1
 73
     1
 44
1.0
  0
POINT
  5
1B633
330
1B5A2
100
AcDbEntity
  8
DEFPOINTS
  6
ByBlock
 62
     0
 48
50.0
100
AcDbPoint
 10
13849.87701791522
 20
-2874.527127024561
 30
0.0
  0
POINT
  5
1B634
330
1B5A2
100
AcDbEntity
  8
DEFPOINTS
  6
ByBlock
 62
     0
 48
50.0
100
AcDbPoint
 10
13944.87701791522
 20
-2877.864145251402
 30
0.0
  0
POINT
  5
1B635
330
1B5A2
100
AcDbEntity
  8
DEFPOINTS
  6
ByBlock
 62
     0
 48
50.0
100
AcDbPoint
 10
13944.87701791522
 20
-2124.58301453488
 30
0.0
  0
ENDBLK
  5
1B636
330
1B5A2
100
AcDbEntity
  8
0
 48
50.0
100
AcDbBlockEnd
  0
BLOCK
  5
1BA2A
330
1B9A3
100
AcDbEntity
  8
0
 48
50.0
100
AcDbBlockBegin
  2
*D36
 70
     1
 10
0.0
 20
0.0
 30
0.0
  3
*D36
  1

  0
LINE
  5
1BA2B
330
1B9A3
100
AcDbEntity
  8
0
  6
ByBlock
 62
     0
 48
50.0
100
AcDbLine
 10
14532.82958141817
 20
11601.3631811976
 30
0.0
 11
14532.82958141817
 21
12402.01792807849
 31
0.0
  0
LINE
  5
1BA2C
330
1B9A3
100
AcDbEntity
  8
0
  6
ByBlock
 62
     0
 48
50.0
100
AcDbLine
 10
14627.82958141817
 20
11598.73679736197
 30
0.0
 11
14627.82958141817
 21
12402.01792807849
 31
0.0
  0
LINE
  5
1BA2D
330
1B9A3
100
AcDbEntity
  8
0
  6
ByBlock
 62
     0
 48
50.0
100
AcDbLine
 10
14532.82958141817
 20
12327.01792807848
 30
0.0
 11
14627.82958141817
 21
12327.01792807848
 31
0.0
  0
LINE
  5
1BA2E
330
1B9A3
100
AcDbEntity
  8
0
  6
ByBlock
 62
     0
 48
50.0
100
AcDbLine
 10
14627.82958141817
 20
12327.01792807848
 30
0.0
 11
15074.10183997187
 21
12327.01792807848
 31
0.0
  0
INSERT
  5
1BA2F
330
1B9A3
100
AcDbEntity
  8
0
  6
ByBlock
 62
     0
 48
50.0
100
AcDbBlockReference
  2
_DOTSMALL
 10
14532.82958141817
 20
12327.01792807848
 30
0.0
 41
125.0
 42
125.0
 43
125.0
 50
180.0
  0
INSERT
  5
1BA30
330
1B9A3
100
AcDbEntity
  8
0
  6
ByBlock
 62
     0
 48
50.0
100
AcDbBlockReference
  2
_DOTSMALL
 10
14627.82958141817
 20
12327.01792807848
 30
0.0
 41
125.0
 42
125.0
 43
125.0
  0
MTEXT
  5
1BA31
330
1B9A3
100
AcDbEntity
  8
0
  6
ByBlock
 62
     7
 48
50.0
100
AcDbMText
 10
14960.38863653627
 20
12427.01792807848
 30
0.0
 40
150.0
 41
0.0
 71
     5
 72
     1
  1
\A1;95
  7
STYLE1
 73
     1
 44
1.0
  0
POINT
  5
1BA32
330
1B9A3
100
AcDbEntity
  8
DEFPOINTS
  6
ByBlock
 62
     0
 48
50.0
100
AcDbPoint
 10
14532.82958141817
 20
11576.3631811976
 30
0.0
  0
POINT
  5
1BA33
330
1B9A3
100
AcDbEntity
  8
DEFPOINTS
  6
ByBlock
 62
     0
 48
50.0
100
AcDbPoint
 10
14627.82958141817
 20
11573.73679736197
 30
0.0
  0
POINT
  5
1BA34
330
1B9A3
100
AcDbEntity
  8
DEFPOINTS
  6
ByBlock
 62
     0
 48
50.0
100
AcDbPoint
 10
14627.82958141817
 20
12327.01792807848
 30
0.0
  0
ENDBLK
  5
1BA35
330
1B9A3
100
AcDbEntity
  8
0
 48
50.0
100
AcDbBlockEnd
  0
BLOCK
  5
1BA36
330
1B9B0
100
AcDbEntity
  8
0
 48
50.0
100
AcDbBlockBegin
  2
*D37
 70
     1
 10
0.0
 20
0.0
 30
0.0
  3
*D37
  1

  0
LINE
  5
1BA37
330
1B9B0
100
AcDbEntity
  8
0
  6
ByBlock
 62
     0
 48
50.0
100
AcDbLine
 10
13097.82958141817
 20
11658.73679736197
 30
0.0
 11
13097.82958141817
 21
12718.17369887015
 31
0.0
  0
LINE
  5
1BA38
330
1B9B0
100
AcDbEntity
  8
0
  6
ByBlock
 62
     0
 48
50.0
100
AcDbLine
 10
14627.82958141817
 20
11598.73679736197
 30
0.0
 11
14627.82958141817
 21
12718.17369887015
 31
0.0
  0
LINE
  5
1BA39
330
1B9B0
100
AcDbEntity
  8
0
  6
ByBlock
 62
     0
 48
50.0
100
AcDbLine
 10
13097.82958141817
 20
12643.17369887015
 30
0.0
 11
14627.82958141817
 21
12643.17369887015
 31
0.0
  0
INSERT
  5
1BA3A
330
1B9B0
100
AcDbEntity
  8
0
  6
ByBlock
 62
     0
 48
50.0
100
AcDbBlockReference
  2
_DOTSMALL
 10
13097.82958141817
 20
12643.17369887015
 30
0.0
 41
125.0
 42
125.0
 43
125.0
 50
180.0
  0
INSERT
  5
1BA3B
330
1B9B0
100
AcDbEntity
  8
0
  6
ByBlock
 62
     0
 48
50.0
100
AcDbBlockReference
  2
_DOTSMALL
 10
14627.82958141817
 20
12643.17369887015
 30
0.0
 41
125.0
 42
125.0
 43
125.0
  0
MTEXT
  5
1BA3C
330
1B9B0
100
AcDbEntity
  8
0
  6
ByBlock
 62
     7
 48
50.0
100
AcDbMText
 10
13862.82958141817
 20
12743.17369887015
 30
0.0
 40
150.0
 41
0.0
 71
     5
 72
     1
  1
\A1;1530
  7
STYLE1
 73
     1
 44
1.0
  0
POINT
  5
1BA3D
330
1B9B0
100
AcDbEntity
  8
DEFPOINTS
  6
ByBlock
 62
     0
 48
50.0
100
AcDbPoint
 10
13097.82958141817
 20
11633.73679736197
 30
0.0
  0
POINT
  5
1BA3E
330
1B9B0
100
AcDbEntity
  8
DEFPOINTS
  6
ByBlock
 62
     0
 48
50.0
100
AcDbPoint
 10
14627.82958141817
 20
11573.73679736197
 30
0.0
  0
POINT
  5
1BA3F
330
1B9B0
100
AcDbEntity
  8
DEFPOINTS
  6
ByBlock
 62
     0
 48
50.0
100
AcDbPoint
 10
14627.82958141817
 20
12643.17369887015
 30
0.0
  0
ENDBLK
  5
1BA40
330
1B9B0
100
AcDbEntity
  8
0
 48
50.0
100
AcDbBlockEnd
  0
BLOCK
  5
1BA41
330
1B9BC
100
AcDbEntity
  8
0
 48
50.0
100
AcDbBlockBegin
  2
*D38
 70
     1
 10
0.0
 20
0.0
 30
0.0
  3
*D38
  1

  0
LINE
  5
1BB19
330
1B9BC
100
AcDbEntity
  8
寸法
 62
     0
 48
50.0
100
AcDbLine
 10
14532.82958141817
 20
11601.3631811976
 30
0.0
 11
14532.82958141817
 21
12402.01792807849
 31
0.0
  0
LINE
  5
1BB1A
330
1B9BC
100
AcDbEntity
  8
寸法
 62
     0
 48
50.0
100
AcDbLine
 10
13232.82958141817
 20
12327.01792807848
 30
0.0
 11
14532.82958141817
 21
12327.01792807848
 31
0.0
  0
INSERT
  5
1BB1B
330
1B9BC
100
AcDbEntity
  8
寸法
 62
     0
 48
50.0
100
AcDbBlockReference
  2
_DOTSMALL
 10
13232.82958141817
 20
12327.01792807848
 30
0.0
 41
125.0
 42
125.0
 43
125.0
 50
180.0
  0
INSERT
  5
1BB1C
330
1B9BC
100
AcDbEntity
  8
寸法
 62
     0
 48
50.0
100
AcDbBlockReference
  2
_DOTSMALL
 10
14532.82958141817
 20
12327.01792807848
 30
0.0
 41
125.0
 42
125.0
 43
125.0
  0
MTEXT
  5
1BB1D
330
1B9BC
100
AcDbEntity
  8
寸法
 62
     7
 48
50.0
100
AcDbMText
 10
13882.82958141817
 20
12427.01792807848
 30
0.0
 40
150.0
 41
0.0
 71
     5
 72
     1
  1
\A1;柱外寸法 1300
  7
STYLE1
 73
     1
 44
1.0
  0
POINT
  5
1BB1E
330
1B9BC
100
AcDbEntity
  8
DEFPOINTS
 62
     0
 48
50.0
100
AcDbPoint
 10
13232.82958141817
 20
11588.73679736197
 30
0.0
  0
POINT
  5
1BB1F
330
1B9BC
100
AcDbEntity
  8
DEFPOINTS
 62
     0
 48
50.0
100
AcDbPoint
 10
14532.82958141817
 20
11576.3631811976
 30
0.0
  0
POINT
  5
1BB20
330
1B9BC
100
AcDbEntity
  8
DEFPOINTS
 62
     0
 48
50.0
100
AcDbPoint
 10
14532.82958141817
 20
12327.01792807848
 30
0.0
  0
ENDBLK
  5
1BA4A
330
1B9BC
100
AcDbEntity
  8
0
 48
50.0
100
AcDbBlockEnd
  0
BLOCK
  5
1BA4B
330
1B9C7
100
AcDbEntity
  8
0
 48
50.0
100
AcDbBlockBegin
  2
*D39
 70
     1
 10
0.0
 20
0.0
 30
0.0
  3
*D39
  1

  0
LINE
  5
1BA4C
330
1B9C7
100
AcDbEntity
  8
0
  6
ByBlock
 62
     0
 48
50.0
100
AcDbLine
 10
14522.32958141817
 20
9430.736797361971
 30
0.0
 11
15919.10991665977
 21
9430.736797361969
 31
0.0
  0
LINE
  5
1BA4D
330
1B9C7
100
AcDbEntity
  8
0
  6
ByBlock
 62
     0
 48
50.0
100
AcDbLine
 10
14557.82958141817
 20
11390.73679736197
 30
0.0
 11
15919.10991665977
 21
11390.73679736196
 31
0.0
  0
LINE
  5
1BA4E
330
1B9C7
100
AcDbEntity
  8
0
  6
ByBlock
 62
     0
 48
50.0
100
AcDbLine
 10
15844.10991665977
 20
9430.736797361969
 30
0.0
 11
15844.10991665977
 21
11390.73679736196
 31
0.0
  0
INSERT
  5
1BA4F
330
1B9C7
100
AcDbEntity
  8
0
  6
ByBlock
 62
     0
 48
50.0
100
AcDbBlockReference
  2
_DOTSMALL
 10
15844.10991665977
 20
9430.736797361969
 30
0.0
 41
125.0
 42
125.0
 43
125.0
 50
270.0
  0
INSERT
  5
1BA50
330
1B9C7
100
AcDbEntity
  8
0
  6
ByBlock
 62
     0
 48
50.0
100
AcDbBlockReference
  2
_DOTSMALL
 10
15844.10991665977
 20
11390.73679736196
 30
0.0
 41
125.0
 42
125.0
 43
125.0
 50
90.0
  0
MTEXT
  5
1BA51
330
1B9C7
100
AcDbEntity
  8
0
  6
ByBlock
 62
     7
 48
50.0
100
AcDbMText
 10
15744.10991665977
 20
10410.73679736197
 30
0.0
 40
150.0
 41
0.0
 71
     5
 72
     1
  1
\A1;内高 1960
  7
STYLE1
 11
0.0000000000000001
 21
1.0
 31
0.0
 73
     1
 44
1.0
  0
POINT
  5
1BA52
330
1B9C7
100
AcDbEntity
  8
DEFPOINTS
  6
ByBlock
 62
     0
 48
50.0
100
AcDbPoint
 10
14497.32958141817
 20
9430.736797361971
 30
0.0
  0
POINT
  5
1BA53
330
1B9C7
100
AcDbEntity
  8
DEFPOINTS
  6
ByBlock
 62
     0
 48
50.0
100
AcDbPoint
 10
14532.82958141817
 20
11390.73679736197
 30
0.0
  0
POINT
  5
1BA54
330
1B9C7
100
AcDbEntity
  8
DEFPOINTS
  6
ByBlock
 62
     0
 48
50.0
100
AcDbPoint
 10
15844.10991665977
 20
11390.73679736196
 30
0.0
  0
ENDBLK
  5
1BA55
330
1B9C7
100
AcDbEntity
  8
0
 48
50.0
100
AcDbBlockEnd
  0
BLOCK
  5
1BA56
330
1B9D3
100
AcDbEntity
  8
0
 48
50.0
100
AcDbBlockBegin
  2
*D40
 70
     1
 10
0.0
 20
0.0
 30
0.0
  3
*D40
  1

  0
LINE
  5
1BA57
330
1B9D3
100
AcDbEntity
  8
0
  6
ByBlock
 62
     0
 48
50.0
100
AcDbLine
 10
14557.82958141817
 20
9363.736797361971
 30
0.0
 11
16232.07164574816
 21
9363.736797361969
 31
0.0
  0
LINE
  5
1BA58
330
1B9D3
100
AcDbEntity
  8
0
  6
ByBlock
 62
     0
 48
50.0
100
AcDbLine
 10
14652.82958141817
 20
11573.73679736197
 30
0.0
 11
16232.07164574816
 21
11573.73679736197
 31
0.0
  0
LINE
  5
1BA59
330
1B9D3
100
AcDbEntity
  8
0
  6
ByBlock
 62
     0
 48
50.0
100
AcDbLine
 10
16157.07164574816
 20
9363.736797361969
 30
0.0
 11
16157.07164574816
 21
11573.73679736197
 31
0.0
  0
INSERT
  5
1BA5A
330
1B9D3
100
AcDbEntity
  8
0
  6
ByBlock
 62
     0
 48
50.0
100
AcDbBlockReference
  2
_DOTSMALL
 10
16157.07164574816
 20
9363.736797361969
 30
0.0
 41
125.0
 42
125.0
 43
125.0
 50
270.0
  0
INSERT
  5
1BA5B
330
1B9D3
100
AcDbEntity
  8
0
  6
ByBlock
 62
     0
 48
50.0
100
AcDbBlockReference
  2
_DOTSMALL
 10
16157.07164574816
 20
11573.73679736197
 30
0.0
 41
125.0
 42
125.0
 43
125.0
 50
90.0
  0
MTEXT
  5
1BA5C
330
1B9D3
100
AcDbEntity
  8
0
  6
ByBlock
 62
     7
 48
50.0
100
AcDbMText
 10
16057.05688196863
 20
10468.73679736197
 30
0.0
 40
150.0
 41
0.0
 71
     5
 72
     1
  1
\A1;2210
  7
STYLE1
 11
0.0000000000000001
 21
1.0
 31
0.0
 73
     1
 44
1.0
  0
POINT
  5
1BA5D
330
1B9D3
100
AcDbEntity
  8
DEFPOINTS
  6
ByBlock
 62
     0
 48
50.0
100
AcDbPoint
 10
14532.82958141817
 20
9363.736797361971
 30
0.0
  0
POINT
  5
1BA5E
330
1B9D3
100
AcDbEntity
  8
DEFPOINTS
  6
ByBlock
 62
     0
 48
50.0
100
AcDbPoint
 10
14627.82958141817
 20
11573.73679736197
 30
0.0
  0
POINT
  5
1BA5F
330
1B9D3
100
AcDbEntity
  8
DEFPOINTS
  6
ByBlock
 62
     0
 48
50.0
100
AcDbPoint
 10
16157.07164574816
 20
11573.73679736197
 30
0.0
  0
ENDBLK
  5
1BA60
330
1B9D3
100
AcDbEntity
  8
0
 48
50.0
100
AcDbBlockEnd
  0
BLOCK
  5
1BA61
330
1B9DF
100
AcDbEntity
  8
0
 48
50.0
100
AcDbBlockBegin
  2
*D41
 70
     1
 10
0.0
 20
0.0
 30
0.0
  3
*D41
  1

  0
LINE
  5
1BA62
330
1B9DF
100
AcDbEntity
  8
0
  6
ByBlock
 62
     0
 48
50.0
100
AcDbLine
 10
13220.32958141817
 20
9440.736797361971
 30
0.0
 11
12268.71357087477
 21
9440.736797361971
 31
0.0
  0
LINE
  5
1BA63
330
1B9DF
100
AcDbEntity
  8
0
  6
ByBlock
 62
     0
 48
50.0
100
AcDbLine
 10
13139.82958141816
 20
11238.73679736196
 30
0.0
 11
12268.71357087477
 21
11238.73679736196
 31
0.0
  0
LINE
  5
1BA64
330
1B9DF
100
AcDbEntity
  8
0
  6
ByBlock
 62
     0
 48
50.0
100
AcDbLine
 10
12343.71357087477
 20
9440.736797361971
 30
0.0
 11
12343.71357087477
 21
11238.73679736196
 31
0.0
  0
INSERT
  5
1BA65
330
1B9DF
100
AcDbEntity
  8
0
  6
ByBlock
 62
     0
 48
50.0
100
AcDbBlockReference
  2
_DOTSMALL
 10
12343.71357087477
 20
9440.736797361971
 30
0.0
 41
125.0
 42
125.0
 43
125.0
 50
270.0
  0
INSERT
  5
1BA66
330
1B9DF
100
AcDbEntity
  8
0
  6
ByBlock
 62
     0
 48
50.0
100
AcDbBlockReference
  2
_DOTSMALL
 10
12343.71357087477
 20
11238.73679736196
 30
0.0
 41
125.0
 42
125.0
 43
125.0
 50
90.0
  0
MTEXT
  5
1BA67
330
1B9DF
100
AcDbEntity
  8
0
  6
ByBlock
 62
     7
 48
50.0
100
AcDbMText
 10
12243.71357087477
 20
10339.73679736196
 30
0.0
 40
150.0
 41
0.0
 71
     5
 72
     1
  1
\A1;有効開口部高サ 1798
  7
STYLE1
 11
0.0000000000000001
 21
1.0
 31
0.0
 73
     1
 44
1.0
  0
POINT
  5
1BA68
330
1B9DF
100
AcDbEntity
  8
DEFPOINTS
  6
ByBlock
 62
     0
 48
50.0
100
AcDbPoint
 10
13245.32958141817
 20
9440.736797361971
 30
0.0
  0
POINT
  5
1BA69
330
1B9DF
100
AcDbEntity
  8
DEFPOINTS
  6
ByBlock
 62
     0
 48
50.0
100
AcDbPoint
 10
13164.82958141816
 20
11238.73679736196
 30
0.0
  0
POINT
  5
1BA6A
330
1B9DF
100
AcDbEntity
  8
DEFPOINTS
  6
ByBlock
 62
     0
 48
50.0
100
AcDbPoint
 10
12343.71357087477
 20
11238.73679736196
 30
0.0
  0
ENDBLK
  5
1BA6B
330
1B9DF
100
AcDbEntity
  8
0
 48
50.0
100
AcDbBlockEnd
  0
BLOCK
  5
1BA6C
330
1B9EB
100
AcDbEntity
  8
0
 48
50.0
100
AcDbBlockBegin
  2
*D42
 70
     1
 10
0.0
 20
0.0
 30
0.0
  3
*D42
  1

  0
LINE
  5
1BA6D
330
1B9EB
100
AcDbEntity
  8
0
  6
ByBlock
 62
     0
 48
50.0
100
AcDbLine
 10
13072.82958141816
 20
11633.73679736197
 30
0.0
 11
11600.59842153515
 21
11633.73679736197
 31
0.0
  0
LINE
  5
1BA6E
330
1B9EB
100
AcDbEntity
  8
0
  6
ByBlock
 62
     0
 48
50.0
100
AcDbLine
 10
13139.82958141817
 20
9363.736797361967
 30
0.0
 11
11600.59842153515
 21
9363.736797361967
 31
0.0
  0
LINE
  5
1BA6F
330
1B9EB
100
AcDbEntity
  8
0
  6
ByBlock
 62
     0
 48
50.0
100
AcDbLine
 10
11675.59842153515
 20
11633.73679736197
 30
0.0
 11
11675.59842153515
 21
9363.736797361967
 31
0.0
  0
INSERT
  5
1BA70
330
1B9EB
100
AcDbEntity
  8
0
  6
ByBlock
 62
     0
 48
50.0
100
AcDbBlockReference
  2
_DOTSMALL
 10
11675.59842153515
 20
11633.73679736197
 30
0.0
 41
125.0
 42
125.0
 43
125.0
 50
90.0
  0
INSERT
  5
1BA71
330
1B9EB
100
AcDbEntity
  8
0
  6
ByBlock
 62
     0
 48
50.0
100
AcDbBlockReference
  2
_DOTSMALL
 10
11675.59842153515
 20
9363.736797361967
 30
0.0
 41
125.0
 42
125.0
 43
125.0
 50
270.0
  0
MTEXT
  5
1BA72
330
1B9EB
100
AcDbEntity
  8
0
  6
ByBlock
 62
     7
 48
50.0
100
AcDbMText
 10
11575.58365775563
 20
10498.73679736196
 30
0.0
 40
150.0
 41
0.0
 71
     5
 72
     1
  1
\A1;2270
  7
STYLE1
 11
0.0000000000000001
 21
1.0
 31
0.0
 73
     1
 44
1.0
  0
POINT
  5
1BA73
330
1B9EB
100
AcDbEntity
  8
DEFPOINTS
  6
ByBlock
 62
     0
 48
50.0
100
AcDbPoint
 10
13097.82958141816
 20
11633.73679736197
 30
0.0
  0
POINT
  5
1BA74
330
1B9EB
100
AcDbEntity
  8
DEFPOINTS
  6
ByBlock
 62
     0
 48
50.0
100
AcDbPoint
 10
13164.82958141817
 20
9363.736797361967
 30
0.0
  0
POINT
  5
1BA75
330
1B9EB
100
AcDbEntity
  8
DEFPOINTS
  6
ByBlock
 62
     0
 48
50.0
100
AcDbPoint
 10
11675.59842153515
 20
9363.736797361967
 30
0.0
  0
ENDBLK
  5
1BA76
330
1B9EB
100
AcDbEntity
  8
0
 48
50.0
100
AcDbBlockEnd
  0
BLOCK
  5
1BA77
330
1B9F7
100
AcDbEntity
  8
0
 48
50.0
100
AcDbBlockBegin
  2
*D43
 70
     1
 10
0.0
 20
0.0
 30
0.0
  3
*D43
  1

  0
LINE
  5
1BA78
330
1B9F7
100
AcDbEntity
  8
0
  6
ByBlock
 62
     0
 48
50.0
100
AcDbLine
 10
13207.82958141817
 20
11363.73679736197
 30
0.0
 11
11934.85308669961
 21
11363.73679736197
 31
0.0
  0
LINE
  5
1BA79
330
1B9F7
100
AcDbEntity
  8
0
  6
ByBlock
 62
     0
 48
50.0
100
AcDbLine
 10
13139.82958141817
 20
9418.736797361985
 30
0.0
 11
11934.85308669961
 21
9418.736797361985
 31
0.0
  0
LINE
  5
1BA7A
330
1B9F7
100
AcDbEntity
  8
0
  6
ByBlock
 62
     0
 48
50.0
100
AcDbLine
 10
12009.85308669961
 20
11363.73679736197
 30
0.0
 11
12009.85308669961
 21
9418.736797361985
 31
0.0
  0
INSERT
  5
1BA7B
330
1B9F7
100
AcDbEntity
  8
0
  6
ByBlock
 62
     0
 48
50.0
100
AcDbBlockReference
  2
_DOTSMALL
 10
12009.85308669961
 20
11363.73679736197
 30
0.0
 41
125.0
 42
125.0
 43
125.0
 50
90.0
  0
INSERT
  5
1BA7C
330
1B9F7
100
AcDbEntity
  8
0
  6
ByBlock
 62
     0
 48
50.0
100
AcDbBlockReference
  2
_DOTSMALL
 10
12009.85308669961
 20
9418.736797361985
 30
0.0
 41
125.0
 42
125.0
 43
125.0
 50
270.0
  0
MTEXT
  5
1BA7D
330
1B9F7
100
AcDbEntity
  8
0
  6
ByBlock
 62
     7
 48
50.0
100
AcDbMText
 10
11909.85308669961
 20
10391.23679736197
 30
0.0
 40
150.0
 41
0.0
 71
     5
 72
     1
  1
\A1;1945
  7
STYLE1
 11
0.0000000000000001
 21
1.0
 31
0.0
 73
     1
 44
1.0
  0
POINT
  5
1BA7E
330
1B9F7
100
AcDbEntity
  8
DEFPOINTS
  6
ByBlock
 62
     0
 48
50.0
100
AcDbPoint
 10
13232.82958141817
 20
11363.73679736197
 30
0.0
  0
POINT
  5
1BA7F
330
1B9F7
100
AcDbEntity
  8
DEFPOINTS
  6
ByBlock
 62
     0
 48
50.0
100
AcDbPoint
 10
13164.82958141817
 20
9418.736797361985
 30
0.0
  0
POINT
  5
1BA80
330
1B9F7
100
AcDbEntity
  8
DEFPOINTS
  6
ByBlock
 62
     0
 48
50.0
100
AcDbPoint
 10
12009.85308669961
 20
9418.736797361985
 30
0.0
  0
ENDBLK
  5
1BA81
330
1B9F7
100
AcDbEntity
  8
0
 48
50.0
100
AcDbBlockEnd
  0
BLOCK
  5
1BA82
330
1BA03
100
AcDbEntity
  8
0
 48
50.0
100
AcDbBlockBegin
  2
*D44
 70
     1
 10
0.0
 20
0.0
 30
0.0
  3
*D44
  1

  0
LINE
  5
1BA83
330
1BA03
100
AcDbEntity
  8
0
  6
ByBlock
 62
     0
 48
50.0
100
AcDbLine
 10
13139.82958141817
 20
9418.736797361985
 30
0.0
 11
11934.85308669961
 21
9418.736797361985
 31
0.0
  0
LINE
  5
1BA84
330
1BA03
100
AcDbEntity
  8
0
  6
ByBlock
 62
     0
 48
50.0
100
AcDbLine
 10
13139.82958141817
 20
9363.736797361967
 30
0.0
 11
11934.85308669961
 21
9363.736797361967
 31
0.0
  0
LINE
  5
1BA85
330
1BA03
100
AcDbEntity
  8
0
  6
ByBlock
 62
     0
 48
50.0
100
AcDbLine
 10
12009.85308669961
 20
9418.736797361985
 30
0.0
 11
12009.85308669961
 21
9363.736797361967
 31
0.0
  0
LINE
  5
1BA86
330
1BA03
100
AcDbEntity
  8
0
  6
ByBlock
 62
     0
 48
50.0
100
AcDbLine
 10
12009.85308669961
 20
9363.736797361967
 30
0.0
 11
12009.85308669961
 21
8976.021606925234
 31
0.0
  0
INSERT
  5
1BA87
330
1BA03
100
AcDbEntity
  8
0
  6
ByBlock
 62
     0
 48
50.0
100
AcDbBlockReference
  2
_DOTSMALL
 10
12009.85308669961
 20
9418.736797361985
 30
0.0
 41
125.0
 42
125.0
 43
125.0
 50
90.0
  0
INSERT
  5
1BA88
330
1BA03
100
AcDbEntity
  8
0
  6
ByBlock
 62
     0
 48
50.0
100
AcDbBlockReference
  2
_DOTSMALL
 10
12009.85308669961
 20
9363.736797361967
 30
0.0
 41
125.0
 42
125.0
 43
125.0
 50
270.0
  0
MTEXT
  5
1BA89
330
1BA03
100
AcDbEntity
  8
0
  6
ByBlock
 62
     7
 48
50.0
100
AcDbMText
 10
11909.85308669961
 20
9086.628208643032
 30
0.0
 40
150.0
 41
0.0
 71
     5
 72
     1
  1
\A1;55
  7
STYLE1
 11
0.0000000000000001
 21
1.0
 31
0.0
 73
     1
 44
1.0
  0
POINT
  5
1BA8A
330
1BA03
100
AcDbEntity
  8
DEFPOINTS
  6
ByBlock
 62
     0
 48
50.0
100
AcDbPoint
 10
13164.82958141817
 20
9418.736797361985
 30
0.0
  0
POINT
  5
1BA8B
330
1BA03
100
AcDbEntity
  8
DEFPOINTS
  6
ByBlock
 62
     0
 48
50.0
100
AcDbPoint
 10
13164.82958141817
 20
9363.736797361967
 30
0.0
  0
POINT
  5
1BA8C
330
1BA03
100
AcDbEntity
  8
DEFPOINTS
  6
ByBlock
 62
     0
 48
50.0
100
AcDbPoint
 10
12009.85308669961
 20
9363.736797361967
 30
0.0
  0
ENDBLK
  5
1BA8D
330
1BA03
100
AcDbEntity
  8
0
 48
50.0
100
AcDbBlockEnd
  0
BLOCK
  5
1BA8E
330
1BA10
100
AcDbEntity
  8
0
 48
50.0
100
AcDbBlockBegin
  2
*D45
 70
     1
 10
0.0
 20
0.0
 30
0.0
  3
*D45
  1

  0
LINE
  5
1BA8F
330
1BA10
100
AcDbEntity
  8
0
  6
ByBlock
 62
     0
 48
50.0
100
AcDbLine
 10
13093.84362656883
 20
11501.29474893229
 30
0.0
 11
12424.73506072484
 21
11511.9378908303
 31
0.0
  0
LINE
  5
1BA90
330
1BA10
100
AcDbEntity
  8
0
  6
ByBlock
 62
     0
 48
50.0
100
AcDbLine
 10
13095.67263694135
 20
11616.28020332134
 30
0.0
 11
12426.56407109735
 21
11626.92334521935
 31
0.0
  0
LINE
  5
1BA91
330
1BA10
100
AcDbEntity
  8
0
  6
ByBlock
 62
     0
 48
50.0
100
AcDbLine
 10
12499.72557445683
 20
11510.74505797865
 30
0.0
 11
12501.55458482935
 21
11625.73051236771
 31
0.0
  0
LINE
  5
1BA92
330
1BA10
100
AcDbEntity
  8
0
  6
ByBlock
 62
     0
 48
50.0
100
AcDbLine
 10
12501.55458482935
 20
11625.73051236771
 30
0.0
 11
12507.77661097674
 21
12016.89423375936
 31
0.0
  0
INSERT
  5
1BA93
330
1BA10
100
AcDbEntity
  8
0
  6
ByBlock
 62
     0
 48
50.0
100
AcDbBlockReference
  2
_DOTSMALL
 10
12499.72557445683
 20
11510.74505797865
 30
0.0
 41
125.0
 42
125.0
 43
125.0
 50
269.0887044041859
  0
INSERT
  5
1BA94
330
1BA10
100
AcDbEntity
  8
0
  6
ByBlock
 62
     0
 48
50.0
100
AcDbBlockReference
  2
_DOTSMALL
 10
12501.55458482935
 20
11625.73051236771
 30
0.0
 41
125.0
 42
125.0
 43
125.0
 50
89.08870440418592
  0
MTEXT
  5
1BA95
330
1BA10
100
AcDbEntity
  8
0
  6
ByBlock
 62
     7
 48
50.0
100
AcDbMText
 10
12405.67227363676
 20
11885.39491164239
 30
0.0
 40
150.0
 41
0.0
 71
     5
 72
     1
  1
\A1;115
  7
STYLE1
 11
0.0159044380219005
 21
0.9998735164265566
 31
0.0
 73
     1
 44
1.0
  0
POINT
  5
1BA96
330
1BA10
100
AcDbEntity
  8
DEFPOINTS
  6
ByBlock
 62
     0
 48
50.0
100
AcDbPoint
 10
13118.8404644795
 20
11500.89713798174
 30
0.0
  0
POINT
  5
1BA97
330
1BA10
100
AcDbEntity
  8
DEFPOINTS
  6
ByBlock
 62
     0
 48
50.0
100
AcDbPoint
 10
13120.66947485202
 20
11615.88259237079
 30
0.0
  0
POINT
  5
1BA98
330
1BA10
100
AcDbEntity
  8
DEFPOINTS
  6
ByBlock
 62
     0
 48
50.0
100
AcDbPoint
 10
12501.55458482935
 20
11625.73051236771
 30
0.0
  0
ENDBLK
  5
1BA99
330
1BA10
100
AcDbEntity
  8
0
 48
50.0
100
AcDbBlockEnd
  0
BLOCK
  5
1BA9A
330
1BA1D
100
AcDbEntity
  8
0
 48
50.0
100
AcDbBlockBegin
  2
*D46
 70
     1
 10
0.0
 20
0.0
 30
0.0
  3
*D46
  1

  0
LINE
  5
1BA9B
330
1BA1D
100
AcDbEntity
  8
0
  6
ByBlock
 62
     0
 48
50.0
100
AcDbLine
 10
13097.82958141817
 20
11658.73679736197
 30
0.0
 11
13097.82958141817
 21
12402.01792807849
 31
0.0
  0
LINE
  5
1BA9C
330
1BA1D
100
AcDbEntity
  8
0
  6
ByBlock
 62
     0
 48
50.0
100
AcDbLine
 10
13232.82958141817
 20
11656.29728927309
 30
0.0
 11
13232.82958141817
 21
12402.01792807849
 31
0.0
  0
LINE
  5
1BA9D
330
1BA1D
100
AcDbEntity
  8
0
  6
ByBlock
 62
     0
 48
50.0
100
AcDbLine
 10
13232.82958141817
 20
12327.01792807849
 30
0.0
 11
13097.82958141817
 21
12327.01792807849
 31
0.0
  0
LINE
  5
1BA9E
330
1BA1D
100
AcDbEntity
  8
0
  6
ByBlock
 62
     0
 48
50.0
100
AcDbLine
 10
13097.82958141817
 20
12327.01792807849
 30
0.0
 11
12667.16392458225
 21
12327.01792807849
 31
0.0
  0
INSERT
  5
1BA9F
330
1BA1D
100
AcDbEntity
  8
0
  6
ByBlock
 62
     0
 48
50.0
100
AcDbBlockReference
  2
_DOTSMALL
 10
13232.82958141817
 20
12327.01792807849
 30
0.0
 41
125.0
 42
125.0
 43
125.0
  0
INSERT
  5
1BAA0
330
1BA1D
100
AcDbEntity
  8
0
  6
ByBlock
 62
     0
 48
50.0
100
AcDbBlockReference
  2
_DOTSMALL
 10
13097.82958141817
 20
12327.01792807849
 30
0.0
 41
125.0
 42
125.0
 43
125.0
 50
180.0
  0
MTEXT
  5
1BAA1
330
1BA1D
100
AcDbEntity
  8
0
  6
ByBlock
 62
     7
 48
50.0
100
AcDbMText
 10
12815.27052630005
 20
12427.01792807849
 30
0.0
 40
150.0
 41
0.0
 71
     5
 72
     1
  1
\A1;135
  7
STYLE1
 73
     1
 44
1.0
  0
POINT
  5
1BAA2
330
1BA1D
100
AcDbEntity
  8
DEFPOINTS
  6
ByBlock
 62
     0
 48
50.0
100
AcDbPoint
 10
13097.82958141817
 20
11633.73679736197
 30
0.0
  0
POINT
  5
1BAA3
330
1BA1D
100
AcDbEntity
  8
DEFPOINTS
  6
ByBlock
 62
     0
 48
50.0
100
AcDbPoint
 10
13232.82958141817
 20
11631.29728927309
 30
0.0
  0
POINT
  5
1BAA4
330
1BA1D
100
AcDbEntity
  8
DEFPOINTS
  6
ByBlock
 62
     0
 48
50.0
100
AcDbPoint
 10
13232.82958141817
 20
12327.01792807849
 30
0.0
  0
ENDBLK
  5
1BAA5
330
1BA1D
100
AcDbEntity
  8
0
 48
50.0
100
AcDbBlockEnd
  0
ENDSEC
  0
SECTION
  2
ENTITIES
  0
LINE
  5
10B56
330
747D
100
AcDbEntity
  8
補助
  6
PHANTOM
 62
   230
 48
50.0
100
AcDbLine
 10
175.0
 20
0.0
 30
0.0
 11
174.9999999999993
 21
14262.0
 31
0.0
  0
LINE
  5
10B57
330
747D
100
AcDbEntity
  8
補助
  6
PHANTOM
 62
   230
 48
50.0
100
AcDbLine
 10
174.9999999999993
 20
14262.0
 30
0.0
 11
20384.0
 21
14262.0
 31
0.0
  0
LINE
  5
10B59
330
747D
100
AcDbEntity
  8
仕様書枠
  6
Continuous
 48
50.0
100
AcDbLine
 10
16384.0
 20
1500.0
 30
0.0
 11
16384.0
 21
0.0
 31
0.0
  0
LINE
  5
10B5C
330
747D
100
AcDbEntity
  8
仕様書枠
 48
50.0
100
AcDbLine
 10
20384.0
 20
1500.0
 30
0.0
 11
20384.0
 21
0.0
 31
0.0
  0
LINE
  5
10B5D
330
747D
100
AcDbEntity
  8
仕様書枠
 48
50.0
100
AcDbLine
 10
175.0
 20
0.0
 30
0.0
 11
20384.0
 21
-0.0000000000001137
 31
0.0
  0
LINE
  5
10B5E
330
747D
100
AcDbEntity
  8
補助
  6
PHANTOM
 62
   230
 48
50.0
100
AcDbLine
 10
20384.0
 20
14262.0
 30
0.0
 11
20384.0
 21
1500.0
 31
0.0
  0
LINE
  5
10B6C
330
747D
100
AcDbEntity
  8
仕様書枠
 48
50.0
100
AcDbLine
 10
16384.0
 20
1500.0
 30
0.0
 11
20384.0
 21
1500.0
 31
0.0
  0
LINE
  5
10B6D
330
747D
100
AcDbEntity
  8
補助
  6
PHANTOM
 62
   230
 48
50.0
100
AcDbLine
 10
16384.0
 20
14262.0
 30
0.0
 11
16384.0
 21
6000.0
 31
0.0
  0
LINE
  5
10B6F
330
747D
100
AcDbEntity
  8
補助
  6
PHANTOM
 62
   230
 48
50.0
100
AcDbLine
 10
16384.0
 20
6000.0
 30
0.0
 11
20384.0
 21
6000.0
 31
0.0
  0
LINE
  5
10B72
330
747D
100
AcDbEntity
  8
文字
 62
     7
 48
50.0
100
AcDbLine
 10
16484.0
 20
500.0
 30
0.0
 11
20284.0
 21
500.0
 31
0.0
  0
TEXT
  5
10B73
330
747D
100
AcDbEntity
  8
文字
 62
     7
 48
50.0
100
AcDbText
 10
16453.72382072112
 20
1118.863259287425
 30
0.0
 40
250.0
  1
外 形 図
  7
STYLE2
100
AcDbText
  0
TEXT
  5
10B74
330
747D
100
AcDbEntity
  8
文字
 62
     7
 48
50.0
100
AcDbText
 10
16501.79587498051
 20
596.5925826289068
 30
0.0
 40
200.0
  1
機種名
  7
STYLE2
100
AcDbText
  0
LINE
  5
10B7B
330
747D
100
AcDbEntity
  8
仕様書枠
 48
50.0
100
AcDbLine
 10
16384.0
 20
1000.0
 30
0.0
 11
17814.0
 21
1000.0
 31
0.0
  0
LINE
  5
10B88
330
747D
100
AcDbEntity
  8
仕様書枠
  6
Continuous
 48
50.0
100
AcDbLine
 10
17814.0
 20
1500.0
 30
0.0
 11
17814.0
 21
1000.0
 31
0.0
  0
LINE
  5
15D7D
330
747D
100
AcDbEntity
  8
Ｇ．Ｌ
 48
50.0
100
AcDbLine
 10
5104.693732604355
 20
3140.0
 30
0.0
 11
15814.30626739564
 21
3140.0
 31
0.0
  0
TEXT
  5
16C68
330
747D
100
AcDbEntity
  8
仕様書枠
 62
     7
 48
50.0
100
AcDbText
 10
5113.500522708389
 20
3170.736447636176
 30
0.0
 40
125.0
  1
▽G.L
  7
STYLE2
100
AcDbText
  0
TEXT
  5
16C77
330
747D
100
AcDbEntity
  8
部品1
100
AcDbText
 10
6757.209429390735
 20
7397.624860296843
 30
0.0
 40
225.0
  1
平面図
  7
STYLE2
100
AcDbText
  0
TEXT
  5
16C79
330
747D
100
AcDbEntity
  8
部品1
100
AcDbText
 10
6742.848271296178
 20
2216.247067344444
 30
0.0
 40
225.0
  1
正面図
  7
STYLE2
100
AcDbText
  0
TEXT
  5
16C7B
330
747D
100
AcDbEntity
  8
部品1
100
AcDbText
 10
13408.80611623703
 20
2204.291865882547
 30
0.0
 40
225.0
  1
側面図
  7
STYLE2
100
AcDbText
  0
LINE
  5
17269
330
747D
100
AcDbEntity
  8
部品1
100
AcDbLine
 10
6596.604026227807
 20
7709.831477053278
 30
0.0
 11
6596.604026227807
 21
7310.010941144057
 31
0.0
  0
LINE
  5
1726A
330
747D
100
AcDbEntity
  8
部品1
100
AcDbLine
 10
6596.604026227807
 20
7310.010941144057
 30
0.0
 11
7869.055136608539
 21
7310.010941144057
 31
0.0
  0
LINE
  5
1726B
330
747D
100
AcDbEntity
  8
部品1
100
AcDbLine
 10
7869.055136608539
 20
7310.010941144057
 30
0.0
 11
7869.055136608539
 21
7709.831477053278
 31
0.0
  0
LINE
  5
1726C
330
747D
100
AcDbEntity
  8
部品1
100
AcDbLine
 10
7869.055136608539
 20
7709.831477053278
 30
0.0
 11
6596.604026227807
 21
7709.831477053278
 31
0.0
  0
LINE
  5
1726E
330
747D
100
AcDbEntity
  8
部品1
100
AcDbLine
 10
6596.604026227807
 20
2526.882077830556
 30
0.0
 11
6596.604026227807
 21
2127.061541921335
 31
0.0
  0
LINE
  5
1726F
330
747D
100
AcDbEntity
  8
部品1
100
AcDbLine
 10
6596.604026227807
 20
2127.061541921335
 30
0.0
 11
7869.05513660854
 21
2127.061541921335
 31
0.0
  0
LINE
  5
17270
330
747D
100
AcDbEntity
  8
部品1
100
AcDbLine
 10
7869.05513660854
 20
2127.061541921335
 30
0.0
 11
7869.05513660854
 21
2526.882077830556
 31
0.0
  0
LINE
  5
17271
330
747D
100
AcDbEntity
  8
部品1
100
AcDbLine
 10
7869.05513660854
 20
2526.882077830556
 30
0.0
 11
6596.604026227807
 21
2526.882077830556
 31
0.0
  0
LINE
  5
17273
330
747D
100
AcDbEntity
  8
部品1
100
AcDbLine
 10
13246.6040262278
 20
2526.8820778306
 30
0.0
 11
13246.6040262278
 21
2127.061541921379
 31
0.0
  0
LINE
  5
17274
330
747D
100
AcDbEntity
  8
部品1
100
AcDbLine
 10
13246.6040262278
 20
2127.061541921379
 30
0.0
 11
14519.05513660853
 21
2127.061541921379
 31
0.0
  0
LINE
  5
17275
330
747D
100
AcDbEntity
  8
部品1
100
AcDbLine
 10
14519.05513660853
 20
2127.061541921379
 30
0.0
 11
14519.05513660853
 21
2526.8820778306
 31
0.0
  0
LINE
  5
17276
330
747D
100
AcDbEntity
  8
部品1
100
AcDbLine
 10
14519.05513660853
 20
2526.8820778306
 30
0.0
 11
13246.6040262278
 21
2526.8820778306
 31
0.0
  0
LINE
  5
1837B
330
747D
100
AcDbEntity
  8
部品1
 48
50.0
100
AcDbLine
 10
6292.829581418171
 20
10518.73679736197
 30
0.0
 11
6292.829581418171
 21
9238.736797361971
 31
0.0
  0
LINE
  5
1837C
330
747D
100
AcDbEntity
  8
部品1
 48
50.0
100
AcDbLine
 10
6302.829581418171
 20
9228.736797361971
 30
0.0
 11
6362.829581418173
 21
9228.736797361953
 31
0.0
  0
LINE
  5
1837D
330
747D
100
AcDbEntity
  8
部品1
 48
50.0
100
AcDbLine
 10
8172.829581418175
 20
9238.736797361973
 30
0.0
 11
8172.829581418174
 21
10518.73679736197
 31
0.0
  0
LINE
  5
1837E
330
747D
100
AcDbEntity
  8
部品1
 48
50.0
100
AcDbLine
 10
8162.829581418172
 20
10528.73679736197
 30
0.0
 11
6302.829581418171
 21
10528.73679736197
 31
0.0
  0
ARC
  5
1837F
330
747D
100
AcDbEntity
  8
部品1
 48
50.0
100
AcDbCircle
 10
8162.829581418172
 20
10518.73679736197
 30
0.0
 40
10.0
100
AcDbArc
 50
0.0
 51
90.0
  0
ARC
  5
18380
330
747D
100
AcDbEntity
  8
部品1
 48
50.0
100
AcDbCircle
 10
8162.829581418177
 20
9238.736797361973
 30
0.0
 40
10.0
100
AcDbArc
 50
270.0
 51
0.0
  0
ARC
  5
18381
330
747D
100
AcDbEntity
  8
部品1
 48
50.0
100
AcDbCircle
 10
6302.829581418171
 20
9238.736797361971
 30
0.0
 40
10.0
100
AcDbArc
 50
180.0
 51
270.0
  0
ARC
  5
18382
330
747D
100
AcDbEntity
  8
部品1
 48
50.0
100
AcDbCircle
 10
6302.829581418171
 20
10518.73679736197
 30
0.0
 40
10.0
100
AcDbArc
 50
90.0
 51
180.0
  0
LINE
  5
18383
330
747D
100
AcDbEntity
  8
部品1
 48
50.0
100
AcDbLine
 10
8122.829581418177
 20
10478.73679736197
 30
0.0
 11
6342.829581418173
 21
10478.73679736197
 31
0.0
  0
LINE
  5
18384
330
747D
100
AcDbEntity
  8
部品1
 48
50.0
100
AcDbLine
 10
6342.829581418173
 20
10478.73679736197
 30
0.0
 11
6342.829581418169
 21
9278.73679736197
 31
0.0
  0
LINE
  5
18385
330
747D
100
AcDbEntity
  8
部品1
 48
50.0
100
AcDbLine
 10
6342.829581418169
 20
9278.73679736197
 30
0.0
 11
6380.829581418168
 21
9278.73679736197
 31
0.0
  0
LINE
  5
18386
330
747D
100
AcDbEntity
  8
部品1
 48
50.0
100
AcDbLine
 10
8122.829581418177
 20
9278.73679736197
 30
0.0
 11
8122.829581418177
 21
10478.73679736197
 31
0.0
  0
LINE
  5
18387
330
747D
100
AcDbEntity
  8
部品1
 48
50.0
100
AcDbLine
 10
8137.829581418177
 20
10493.73679736197
 30
0.0
 11
6327.829581418171
 21
10493.73679736197
 31
0.0
  0
LINE
  5
18388
330
747D
100
AcDbEntity
  8
部品1
 48
50.0
100
AcDbLine
 10
6327.829581418171
 20
9263.736797361971
 30
0.0
 11
6380.829581418168
 21
9263.736797361969
 31
0.0
  0
LINE
  5
18389
330
747D
100
AcDbEntity
  8
部品1
 48
50.0
100
AcDbLine
 10
6327.829581418171
 20
10493.73679736196
 30
0.0
 11
6327.829581418171
 21
9263.736797361971
 31
0.0
  0
LINE
  5
1838A
330
747D
100
AcDbEntity
  8
部品1
 48
50.0
100
AcDbLine
 10
8137.829581418177
 20
9263.736797361971
 30
0.0
 11
8137.829581418177
 21
10493.73679736197
 31
0.0
  0
LINE
  5
1838B
330
747D
100
AcDbEntity
  8
部品1
 48
50.0
100
AcDbLine
 10
8102.829581418173
 20
10493.73679736197
 30
0.0
 11
8102.829581418175
 21
10528.73679736197
 31
0.0
  0
LINE
  5
1838C
330
747D
100
AcDbEntity
  8
部品1
 48
50.0
100
AcDbLine
 10
8172.829581418175
 20
10458.73679736197
 30
0.0
 11
8137.829581418177
 21
10458.73679736197
 31
0.0
  0
LINE
  5
1838D
330
747D
100
AcDbEntity
  8
部品1
 48
50.0
100
AcDbLine
 10
8084.829581418173
 20
10493.73679736197
 30
0.0
 11
8084.829581418173
 21
10478.73679736197
 31
0.0
  0
LINE
  5
1838E
330
747D
100
AcDbEntity
  8
部品1
 48
50.0
100
AcDbLine
 10
8120.829581418172
 20
10493.73679736197
 30
0.0
 11
8120.829581418172
 21
10478.73679736197
 31
0.0
  0
LINE
  5
1838F
330
747D
100
AcDbEntity
  8
部品1
 48
50.0
100
AcDbLine
 10
8137.829581418177
 20
10440.73679736196
 30
0.0
 11
8122.829581418177
 21
10440.73679736196
 31
0.0
  0
LINE
  5
18390
330
747D
100
AcDbEntity
  8
部品1
 48
50.0
100
AcDbLine
 10
8137.829581418177
 20
10476.73679736196
 30
0.0
 11
8122.829581418177
 21
10476.73679736196
 31
0.0
  0
LINE
  5
18397
330
747D
100
AcDbEntity
  8
部品1
 48
50.0
100
AcDbLine
 10
8172.829581418174
 20
9878.736797361975
 30
0.0
 11
8137.829581418172
 21
9878.736797361973
 31
0.0
  0
LINE
  5
18398
330
747D
100
AcDbEntity
  8
部品1
 48
50.0
100
AcDbLine
 10
8137.829581418172
 20
9860.736797361971
 30
0.0
 11
8122.829581418173
 21
9860.736797361971
 31
0.0
  0
LINE
  5
18399
330
747D
100
AcDbEntity
  8
部品1
 48
50.0
100
AcDbLine
 10
8137.829581418172
 20
9896.73679736197
 30
0.0
 11
8122.829581418173
 21
9896.73679736197
 31
0.0
  0
LINE
  5
1839D
330
747D
100
AcDbEntity
  8
部品1
 48
50.0
100
AcDbLine
 10
8137.829581418172
 20
9316.736797361969
 30
0.0
 11
8122.829581418173
 21
9316.736797361969
 31
0.0
  0
LINE
  5
1839E
330
747D
100
AcDbEntity
  8
部品1
 48
50.0
100
AcDbLine
 10
8137.829581418172
 20
9280.736797361969
 30
0.0
 11
8122.829581418173
 21
9280.736797361969
 31
0.0
  0
LINE
  5
1839F
330
747D
100
AcDbEntity
  8
部品1
 48
50.0
100
AcDbLine
 10
8172.829581418174
 20
9298.736797361975
 30
0.0
 11
8137.829581418172
 21
9298.736797361973
 31
0.0
  0
LINE
  5
183AF
330
747D
100
AcDbEntity
  8
部品1
 48
50.0
100
AcDbLine
 10
7540.82958141817
 20
10493.73679736227
 30
0.0
 11
7540.82958141817
 21
10478.73679736227
 31
0.0
  0
LINE
  5
183B0
330
747D
100
AcDbEntity
  8
部品1
 48
50.0
100
AcDbLine
 10
7522.829581418169
 20
10493.73679736227
 30
0.0
 11
7522.829581418173
 21
10528.73679736227
 31
0.0
  0
LINE
  5
183B1
330
747D
100
AcDbEntity
  8
部品1
 48
50.0
100
AcDbLine
 10
7504.82958141817
 20
10493.73679736227
 30
0.0
 11
7504.82958141817
 21
10478.73679736227
 31
0.0
  0
LINE
  5
183B2
330
747D
100
AcDbEntity
  8
部品1
 48
50.0
100
AcDbLine
 10
6960.829581418169
 20
10493.73679736233
 30
0.0
 11
6960.829581418169
 21
10478.73679736233
 31
0.0
  0
LINE
  5
183B3
330
747D
100
AcDbEntity
  8
部品1
 48
50.0
100
AcDbLine
 10
6942.82958141817
 20
10493.73679736233
 30
0.0
 11
6942.829581418173
 21
10528.73679736233
 31
0.0
  0
LINE
  5
183B4
330
747D
100
AcDbEntity
  8
部品1
 48
50.0
100
AcDbLine
 10
6924.829581418169
 20
10493.73679736233
 30
0.0
 11
6924.829581418169
 21
10478.73679736233
 31
0.0
  0
LINE
  5
183B5
330
747D
100
AcDbEntity
  8
部品1
 48
50.0
100
AcDbLine
 10
6380.829581418169
 20
10493.73679736197
 30
0.0
 11
6380.829581418169
 21
10478.73679736197
 31
0.0
  0
LINE
  5
183B6
330
747D
100
AcDbEntity
  8
部品1
 48
50.0
100
AcDbLine
 10
6362.829581418169
 20
10493.73679736197
 30
0.0
 11
6362.829581418173
 21
10528.73679736197
 31
0.0
  0
LINE
  5
183B7
330
747D
100
AcDbEntity
  8
部品1
 48
50.0
100
AcDbLine
 10
6344.829581418169
 20
10493.73679736197
 30
0.0
 11
6344.829581418169
 21
10478.73679736197
 31
0.0
  0
LINE
  5
183D1
330
747D
100
AcDbEntity
  8
部品1
 48
50.0
100
AcDbLine
 10
6327.829581418175
 20
9896.73679736197
 30
0.0
 11
6342.829581418175
 21
9896.73679736197
 31
0.0
  0
LINE
  5
183D2
330
747D
100
AcDbEntity
  8
部品1
 48
50.0
100
AcDbLine
 10
6327.829581418175
 20
9860.736797361971
 30
0.0
 11
6342.829581418175
 21
9860.736797361971
 31
0.0
  0
LINE
  5
183D3
330
747D
100
AcDbEntity
  8
部品1
 48
50.0
100
AcDbLine
 10
6292.829581418175
 20
9878.736797361975
 30
0.0
 11
6327.829581418175
 21
9878.736797361973
 31
0.0
  0
LINE
  5
183DD
330
747D
100
AcDbEntity
  8
部品1
 48
50.0
100
AcDbLine
 10
6327.829581418171
 20
10476.73679736196
 30
0.0
 11
6342.829581418171
 21
10476.73679736196
 31
0.0
  0
LINE
  5
183DE
330
747D
100
AcDbEntity
  8
部品1
 48
50.0
100
AcDbLine
 10
6327.829581418171
 20
10440.73679736196
 30
0.0
 11
6342.829581418171
 21
10440.73679736196
 31
0.0
  0
LINE
  5
183DF
330
747D
100
AcDbEntity
  8
部品1
 48
50.0
100
AcDbLine
 10
6292.829581418171
 20
10458.73679736197
 30
0.0
 11
6327.829581418171
 21
10458.73679736197
 31
0.0
  0
LINE
  5
183E0
330
747D
100
AcDbEntity
  8
部品1
 48
50.0
100
AcDbLine
 10
6292.829581418175
 20
9298.736797361975
 30
0.0
 11
6327.829581418175
 21
9298.736797361973
 31
0.0
  0
LINE
  5
183E1
330
747D
100
AcDbEntity
  8
部品1
 48
50.0
100
AcDbLine
 10
6327.829581418175
 20
9280.736797361969
 30
0.0
 11
6342.829581418175
 21
9280.736797361969
 31
0.0
  0
LINE
  5
183E2
330
747D
100
AcDbEntity
  8
部品1
 48
50.0
100
AcDbLine
 10
6327.829581418175
 20
9316.736797361969
 30
0.0
 11
6342.829581418175
 21
9316.736797361969
 31
0.0
  0
LINE
  5
183E3
330
747D
100
AcDbEntity
  8
部品1
 48
50.0
100
AcDbLine
 10
6344.829581418169
 20
9263.736797361975
 30
0.0
 11
6344.829581418169
 21
9278.736797361975
 31
0.0
  0
LINE
  5
183E4
330
747D
100
AcDbEntity
  8
部品1
 48
50.0
100
AcDbLine
 10
6380.829581418169
 20
9263.736797361975
 30
0.0
 11
6380.829581418169
 21
9278.736797361975
 31
0.0
  0
LINE
  5
183E5
330
747D
100
AcDbEntity
  8
部品1
 48
50.0
100
AcDbLine
 10
6362.829581418169
 20
9263.736797361975
 30
0.0
 11
6362.829581418173
 21
9228.736797361973
 31
0.0
  0
LINE
  5
183FE
330
747D
100
AcDbEntity
  8
部品1
 48
50.0
100
AcDbLine
 10
8102.829581418173
 20
9263.736797361973
 30
0.0
 11
8102.829581418175
 21
9228.736797361971
 31
0.0
  0
LINE
  5
183FF
330
747D
100
AcDbEntity
  8
部品1
 48
50.0
100
AcDbLine
 10
8084.829581418173
 20
9263.736797361973
 30
0.0
 11
8084.829581418173
 21
9278.736797361974
 31
0.0
  0
LINE
  5
18400
330
747D
100
AcDbEntity
  8
部品1
 48
50.0
100
AcDbLine
 10
8120.829581418172
 20
9263.736797361973
 30
0.0
 11
8120.829581418172
 21
9278.736797361974
 31
0.0
  0
LINE
  5
18401
330
747D
100
AcDbEntity
  8
細線
 48
50.0
100
AcDbLine
 10
8113.829581418178
 20
10469.73679736197
 30
0.0
 11
8113.829581418178
 21
9278.736797361975
 31
0.0
  0
LINE
  5
18402
330
747D
100
AcDbEntity
  8
細線
 48
50.0
100
AcDbLine
 10
8122.829581418177
 20
10469.73679736197
 30
0.0
 11
6351.829581418173
 21
10469.73679736197
 31
0.0
  0
LINE
  5
18403
330
747D
100
AcDbEntity
  8
細線
 48
50.0
100
AcDbLine
 10
6342.829581418169
 20
9287.73679736197
 30
0.0
 11
6353.329581418169
 21
9287.73679736197
 31
0.0
  0
LINE
  5
18404
330
747D
100
AcDbEntity
  8
細線
 48
50.0
100
AcDbLine
 10
6351.829581418173
 20
10478.73679736197
 30
0.0
 11
6351.829581418171
 21
9287.73679736197
 31
0.0
  0
DIMENSION
  5
1852A
330
747D
100
AcDbEntity
  8
寸法
 48
50.0
100
AcDbDimension
  2
*D5
 10
9286.969337719753
 20
10478.73679736197
 30
0.0
 11
9186.954573940225
 21
9878.736797361975
 31
0.0
 70
    32
  1
内部寸法 <>
 71
     5
 42
-1.0
  3
INABA_S50G
100
AcDbAlignedDimension
 13
8984.165333801149
 23
9278.736797361975
 33
0.0
 14
8984.165333801144
 24
10478.73679736197
 34
0.0
 50
90.0
100
AcDbRotatedDimension
1001
ACAD
1000
DSTYLE
1002
{
1002
}
  0
DIMENSION
  5
1852B
330
747D
100
AcDbEntity
  8
寸法
 48
50.0
100
AcDbDimension
  2
*D2
 10
8984.165333801144
 20
10458.73679736197
 30
0.0
 11
8884.150570021617
 21
9878.736797361975
 31
0.0
 70
    32
  1
2x580=<>
 71
     5
 42
-1.0
  3
INABA_S50G
100
AcDbAlignedDimension
 13
8172.829581418175
 23
9298.736797361975
 33
0.0
 14
8172.829581418175
 24
10458.73679736197
 34
0.0
 50
90.0
100
AcDbRotatedDimension
1001
ACAD
1000
DSTYLE
1002
{
1002
}
  0
DIMENSION
  5
1852C
330
747D
100
AcDbEntity
  8
寸法
 48
50.0
100
AcDbDimension
  2
*D4
 10
9286.969337719758
 20
9278.736797361975
 30
0.0
 11
9286.969337719758
 21
8991.689553267482
 31
0.0
 12
-290.0
 22
0.0
 32
0.0
 70
   160
 71
     5
 42
-1.0
  3
INABA_S50G
100
AcDbAlignedDimension
 13
8162.829581418177
 23
9228.736797361971
 33
0.0
 14
8984.165333801149
 24
9278.736797361975
 34
0.0
 50
90.0
100
AcDbRotatedDimension
  0
DIMENSION
  5
1852D
330
747D
100
AcDbEntity
  8
寸法
 48
50.0
100
AcDbDimension
  2
*D1
 10
8984.165333801149
 20
9298.736797361975
 30
0.0
 11
8984.165333801149
 21
8996.177742243862
 31
0.0
 12
-8534.632845073174
 22
-373.9447183321535
 32
0.0
 70
   160
 71
     5
 42
-1.0
  3
INABA_S50G
100
AcDbAlignedDimension
 13
8162.829581418177
 23
9228.736797361971
 33
0.0
 14
8172.829581418175
 24
9298.736797361975
 34
0.0
 50
90.0
100
AcDbRotatedDimension
  0
DIMENSION
  5
1852E
330
747D
100
AcDbEntity
  8
寸法
 48
50.0
100
AcDbDimension
  2
*D6
 10
9286.969337719755
 20
10528.73679736197
 30
0.0
 11
9286.969337719755
 21
10886.29585248008
 31
0.0
 12
-290.0
 22
-1740.0
 32
0.0
 70
   160
 71
     5
 42
-1.0
  3
INABA_S50G
100
AcDbAlignedDimension
 13
8984.165333801144
 23
10478.73679736197
 33
0.0
 14
8162.829581418172
 24
10528.73679736197
 34
0.0
 50
90.0
100
AcDbRotatedDimension
1001
ACAD
1000
DSTYLE
1002
{
1002
}
  0
DIMENSION
  5
1852F
330
747D
100
AcDbEntity
  8
寸法
 48
50.0
100
AcDbDimension
  2
*D3
 10
8984.165333801145
 20
10528.73679736197
 30
0.0
 11
8984.165333801145
 21
10761.29585248008
 31
0.0
 12
-8534.632845073174
 22
-2113.944718332153
 32
0.0
 70
   160
 71
     5
 42
-1.0
  3
INABA_S50G
100
AcDbAlignedDimension
 13
8172.829581418175
 23
10458.73679736197
 33
0.0
 14
8162.829581418172
 24
10528.73679736197
 34
0.0
 50
90.0
100
AcDbRotatedDimension
1001
ACAD
1000
DSTYLE
1002
{
1002
}
  0
DIMENSION
  5
185AD
330
747D
100
AcDbEntity
  8
寸法
 48
50.0
100
AcDbDimension
  2
*D10
 10
6342.829581418169
 20
11237.51516613338
 30
0.0
 11
5935.270526300061
 21
11237.51516613338
 31
0.0
 12
-5494.632845073173
 22
-2113.944718332153
 32
0.0
 70
   160
 71
     5
 42
-1.0
  3
INABA_S50G
100
AcDbAlignedDimension
 13
6292.829581418171
 23
10518.73679736197
 33
0.0
 14
6342.829581418169
 24
10938.76878223262
 34
0.0
100
AcDbRotatedDimension
  0
DIMENSION
  5
185AE
330
747D
100
AcDbEntity
  8
寸法
 48
50.0
100
AcDbDimension
  2
*D7
 10
6362.829581418173
 20
10938.76878223262
 30
0.0
 11
6050.27052630006
 21
10938.76878223262
 31
0.0
 12
-5494.632845073173
 22
-2113.944718332153
 32
0.0
 70
   160
 71
     5
 42
-1.0
  3
INABA_S50G
100
AcDbAlignedDimension
 13
6292.829581418171
 23
10518.73679736197
 33
0.0
 14
6362.829581418173
 24
10528.73679736197
 34
0.0
100
AcDbRotatedDimension
  0
DIMENSION
  5
185AF
330
747D
100
AcDbEntity
  8
寸法
 48
50.0
100
AcDbDimension
  2
*D11
 10
8122.82958141818
 20
11237.51516613338
 30
0.0
 11
7232.829581418174
 21
11337.51516613338
 31
0.0
 70
    32
  1
内部寸法 <>
 71
     5
 42
-1.0
  3
INABA_S50G
100
AcDbAlignedDimension
 13
6342.829581418169
 23
10938.76878223262
 33
0.0
 14
8122.82958141818
 24
10938.76878223262
 34
0.0
100
AcDbRotatedDimension
1001
ACAD
1000
DSTYLE
1002
{
1070
   287
1070
     4
1070
    75
1070
     1
1070
   279
1070
     1
1002
}
  0
DIMENSION
  5
185B1
330
747D
100
AcDbEntity
  8
寸法
 48
50.0
100
AcDbDimension
  2
*D8
 10
8102.829581418175
 20
10938.76878223262
 30
0.0
 11
7232.829581418174
 21
11038.76878223262
 31
0.0
 70
    32
  1
3x580=<>
 71
     5
 42
-1.0
  3
INABA_S50G
100
AcDbAlignedDimension
 13
6362.829581418173
 23
10528.73679736197
 33
0.0
 14
8102.829581418175
 24
10528.73679736197
 34
0.0
100
AcDbRotatedDimension
1001
ACAD
1000
DSTYLE
1002
{
1070
   287
1070
     4
1070
    75
1070
     1
1070
   279
1070
     1
1002
}
  0
DIMENSION
  5
185B3
330
747D
100
AcDbEntity
  8
寸法
 48
50.0
100
AcDbDimension
  2
*D12
 10
8172.829581418175
 20
11237.51516613338
 30
0.0
 11
8530.388636536285
 21
11237.51516613338
 31
0.0
 12
-8534.632845073174
 22
-2113.944718332153
 32
0.0
 70
   160
 71
     5
 42
-1.0
  3
INABA_S50G
100
AcDbAlignedDimension
 13
8122.82958141818
 23
10938.76878223262
 33
0.0
 14
8172.829581418175
 24
10518.73679736197
 34
0.0
100
AcDbRotatedDimension
1001
ACAD
1000
DSTYLE
1002
{
1002
}
  0
DIMENSION
  5
185B4
330
747D
100
AcDbEntity
  8
寸法
 48
50.0
100
AcDbDimension
  2
*D9
 10
8172.829581418175
 20
10938.76878223262
 30
0.0
 11
8435.388636536286
 21
10938.76878223262
 31
0.0
 12
-8534.632845073174
 22
-2113.944718332153
 32
0.0
 70
   160
 71
     5
 42
-1.0
  3
INABA_S50G
100
AcDbAlignedDimension
 13
8102.829581418175
 23
10528.73679736197
 33
0.0
 14
8172.829581418175
 24
10518.73679736197
 34
0.0
100
AcDbRotatedDimension
1001
ACAD
1000
DSTYLE
1002
{
1002
}
  0
DIMENSION
  5
1868C
330
747D
100
AcDbEntity
  8
寸法
 48
50.0
100
AcDbDimension
  2
*D13
 10
8172.829581418175
 20
7967.428503410812
 30
0.0
 11
7232.829581418174
 21
8067.428503410813
 31
0.0
 12
290.0
 22
0.0
 32
0.0
 70
    32
 71
     5
 42
-1.0
  3
INABA_S50G
100
AcDbAlignedDimension
 13
6292.829581418171
 23
9238.736797361971
 33
0.0
 14
8172.829581418175
 24
9238.736797361973
 34
0.0
100
AcDbRotatedDimension
  0
DIMENSION
  5
186AF
330
747D
100
AcDbEntity
  8
寸法
 48
50.0
100
AcDbDimension
  2
*D14
 10
5526.198601638504
 20
9228.736797361971
 30
0.0
 11
5426.198601638503
 21
9878.736797361973
 31
0.0
 70
    32
 71
     5
 42
-1.0
  3
INABA_S50G
100
AcDbAlignedDimension
 13
6302.829581418171
 23
10528.73679736197
 33
0.0
 14
6302.829581418171
 24
9228.736797361971
 34
0.0
 50
90.0
100
AcDbRotatedDimension
  0
LINE
  5
186D3
330
747D
100
AcDbEntity
  8
部品1
 62
     2
 48
50.0
100
AcDbLine
 10
8108.829581418174
 20
9160.736797361609
 30
0.0
 11
6356.829581418173
 21
9160.736797361609
 31
0.0
  0
LINE
  5
186D4
330
747D
100
AcDbEntity
  8
部品1
 62
     2
 48
50.0
100
AcDbLine
 10
6356.829581418173
 20
9160.736797361609
 30
0.0
 11
6356.829581418173
 21
9228.736797361971
 31
0.0
  0
LINE
  5
186D5
330
747D
100
AcDbEntity
  8
部品1
 62
     2
 48
50.0
100
AcDbLine
 10
8108.829581418174
 20
9228.736797361792
 30
0.0
 11
8108.829581418174
 21
9160.73679736179
 31
0.0
  0
LINE
  5
186D9
330
747D
100
AcDbEntity
  8
部品1
 62
     2
 48
50.0
100
AcDbLine
 10
6382.829581418169
 20
9287.73679736197
 30
0.0
 11
6353.329581418169
 21
9287.73679736197
 31
0.0
  0
LINE
  5
186DA
330
747D
100
AcDbEntity
  8
部品1
 62
     2
 48
50.0
100
AcDbLine
 10
6353.329581418169
 20
9287.73679736197
 30
0.0
 11
6353.329581418169
 21
9278.73679736197
 31
0.0
  0
LINE
  5
186EA
330
747D
100
AcDbEntity
  8
部品1
 62
     2
 48
50.0
100
AcDbLine
 10
6382.829581418169
 20
9292.236797361971
 30
0.0
 11
6382.829581418169
 21
9228.736797361969
 31
0.0
  0
LINE
  5
186ED
330
747D
100
AcDbEntity
  8
部品1
 48
50.0
100
AcDbLine
 10
8102.829581418168
 20
9228.736797361971
 30
0.0
 11
8162.829581418177
 21
9228.736797361973
 31
0.0
  0
LINE
  5
186EE
330
747D
100
AcDbEntity
  8
部品1
 48
50.0
100
AcDbLine
 10
8084.829581418169
 20
9263.736797361969
 30
0.0
 11
8137.829581418177
 21
9263.736797361973
 31
0.0
  0
LINE
  5
186EF
330
747D
100
AcDbEntity
  8
部品1
 48
50.0
100
AcDbLine
 10
8084.829581418167
 20
9278.73679736197
 30
0.0
 11
8122.829581418177
 21
9278.73679736197
 31
0.0
  0
LINE
  5
186F0
330
747D
100
AcDbEntity
  8
部品1
 62
     2
 48
50.0
100
AcDbLine
 10
6372.829581418173
 20
9160.736797361609
 30
0.0
 11
6372.829581418173
 21
9228.736797361971
 31
0.0
  0
LINE
  5
186F2
330
747D
100
AcDbEntity
  8
部品1
 62
     2
 48
50.0
100
AcDbLine
 10
7512.829581418177
 20
9228.736797361969
 30
0.0
 11
6362.829581418173
 21
9228.736797361969
 31
0.0
  0
LINE
  5
186F3
330
747D
100
AcDbEntity
  8
部品1
 62
     2
 48
50.0
100
AcDbLine
 10
8092.829581418174
 20
9228.736797361792
 30
0.0
 11
8092.829581418174
 21
9160.73679736179
 31
0.0
  0
LINE
  5
186F4
330
747D
100
AcDbEntity
  8
部品1
 62
     2
 48
50.0
100
AcDbLine
 10
8082.829581418172
 20
9233.736797361791
 30
0.0
 11
8082.829581418172
 21
9228.736797361971
 31
0.0
  0
LINE
  5
186F5
330
747D
100
AcDbEntity
  8
部品1
 62
     2
 48
50.0
100
AcDbLine
 10
8102.829581418173
 20
9228.736797361971
 30
0.0
 11
8082.829581418172
 21
9228.736797361971
 31
0.0
  0
LINE
  5
186F6
330
747D
100
AcDbEntity
  8
部品1
 62
     2
 48
50.0
100
AcDbLine
 10
7504.82958141817
 20
9263.736797361792
 30
0.0
 11
7504.82958141817
 21
9278.736797361792
 31
0.0
  0
LINE
  5
186F7
330
747D
100
AcDbEntity
  8
部品1
 62
     2
 48
50.0
100
AcDbLine
 10
7540.82958141817
 20
9263.736797361792
 30
0.0
 11
7540.82958141817
 21
9278.736797361792
 31
0.0
  0
LINE
  5
186F9
330
747D
100
AcDbEntity
  8
部品1
 62
     2
 48
50.0
100
AcDbLine
 10
8102.829581418173
 20
9233.736797361972
 30
0.0
 11
7528.829581418171
 21
9233.736797361968
 31
0.0
  0
LINE
  5
186FA
330
747D
100
AcDbEntity
  8
部品1
 62
     2
 48
50.0
100
AcDbLine
 10
7504.82958141817
 20
9278.736797361792
 30
0.0
 11
8084.829581418169
 21
9278.736797361792
 31
0.0
  0
LINE
  5
186FB
330
747D
100
AcDbEntity
  8
部品1
 62
     2
 48
50.0
100
AcDbLine
 10
7504.82958141817
 20
9263.736797361792
 30
0.0
 11
8084.829581418169
 21
9263.736797361969
 31
0.0
  0
LINE
  5
186FD
330
747D
100
AcDbEntity
  8
部品1
 62
     2
 48
50.0
100
AcDbLine
 10
7522.829581418169
 20
9278.736797361792
 30
0.0
 11
7522.829581418169
 21
9287.73679736197
 31
0.0
  0
LINE
  5
186FE
330
747D
100
AcDbEntity
  8
細線
 48
50.0
100
AcDbLine
 10
7522.829581418171
 20
9287.73679736197
 30
0.0
 11
8113.829581418178
 21
9287.73679736197
 31
0.0
  0
LINE
  5
186FF
330
747D
100
AcDbEntity
  8
部品1
 62
     2
 48
50.0
100
AcDbLine
 10
7522.829581418171
 20
9287.73679736197
 30
0.0
 11
7493.329581418172
 21
9287.73679736197
 31
0.0
  0
LINE
  5
18700
330
747D
100
AcDbEntity
  8
部品1
 62
     2
 48
50.0
100
AcDbLine
 10
7493.329581418172
 20
9292.236797361971
 30
0.0
 11
7493.329581418172
 21
9228.736797361971
 31
0.0
  0
LINE
  5
18705
330
747D
100
AcDbEntity
  8
部品1
 62
     2
 48
50.0
100
AcDbLine
 10
7512.829581418175
 20
9263.736797361799
 30
0.0
 11
7512.829581418175
 21
9223.736797361794
 31
0.0
  0
LINE
  5
18706
330
747D
100
AcDbEntity
  8
部品1
 62
     2
 48
50.0
100
AcDbLine
 10
7512.829581418175
 20
9223.736797361794
 30
0.0
 11
7528.829581418175
 21
9223.736797361848
 31
0.0
  0
LINE
  5
18708
330
747D
100
AcDbEntity
  8
部品1
 62
     2
 48
50.0
100
AcDbLine
 10
7528.829581418174
 20
9233.736797361968
 30
0.0
 11
7528.829581418175
 21
9223.736797361794
 31
0.0
  0
LINE
  5
18709
330
747D
100
AcDbEntity
  8
部品1
 62
     2
 48
50.0
100
AcDbLine
 10
6382.829581418169
 20
9292.236797361971
 30
0.0
 11
7493.329581418172
 21
9292.236797361971
 31
0.0
  0
LINE
  5
1870A
330
747D
100
AcDbEntity
  8
部品1
 62
     2
 48
50.0
100
AcDbLine
 10
8092.829581418174
 20
9176.736797361609
 30
0.0
 11
6967.829581418174
 21
9176.736797361609
 31
0.0
  0
LINE
  5
1870B
330
747D
100
AcDbEntity
  8
部品1
 62
     2
 48
50.0
100
AcDbLine
 10
8092.829581418174
 20
9210.73679736161
 30
0.0
 11
7540.329581418173
 21
9210.73679736161
 31
0.0
  0
LINE
  5
18711
330
747D
100
AcDbEntity
  8
部品1
 62
     2
 48
50.0
100
AcDbLine
 10
6382.829581418169
 20
9262.03679736197
 30
0.0
 11
7493.329581418172
 21
9262.03679736197
 31
0.0
  0
LINE
  5
18712
330
747D
100
AcDbEntity
  8
部品1
 62
     2
 48
50.0
100
AcDbLine
 10
6382.829581418169
 20
9248.536797361969
 30
0.0
 11
7493.329581418172
 21
9248.536797361969
 31
0.0
  0
LINE
  5
18713
330
747D
100
AcDbEntity
  8
部品1
 62
     2
 48
50.0
100
AcDbLine
 10
6957.829581418173
 20
9187.736797361608
 30
0.0
 11
6957.829581418173
 21
9194.73679736161
 31
0.0
  0
LINE
  5
18714
330
747D
100
AcDbEntity
  8
部品1
 62
     2
 48
50.0
100
AcDbLine
 10
6957.829581418173
 20
9194.73679736161
 30
0.0
 11
6967.829581418174
 21
9194.73679736161
 31
0.0
  0
LINE
  5
18715
330
747D
100
AcDbEntity
  8
部品1
 62
     2
 48
50.0
100
AcDbLine
 10
6967.829581418174
 20
9194.73679736161
 30
0.0
 11
6967.829581418174
 21
9165.736797361608
 31
0.0
  0
LINE
  5
18716
330
747D
100
AcDbEntity
  8
部品1
 62
     2
 48
50.0
100
AcDbLine
 10
6967.829581418174
 20
9165.736797361608
 30
0.0
 11
6373.829581418173
 21
9165.736797361608
 31
0.0
  0
LINE
  5
18717
330
747D
100
AcDbEntity
  8
部品1
 62
     2
 48
50.0
100
AcDbLine
 10
6373.829581418173
 20
9165.736797361608
 30
0.0
 11
6373.829581418173
 21
9194.73679736161
 31
0.0
  0
LINE
  5
18718
330
747D
100
AcDbEntity
  8
部品1
 62
     2
 48
50.0
100
AcDbLine
 10
6373.829581418173
 20
9194.73679736161
 30
0.0
 11
6383.829581418172
 21
9194.73679736161
 31
0.0
  0
LINE
  5
18719
330
747D
100
AcDbEntity
  8
部品1
 62
     2
 48
50.0
100
AcDbLine
 10
6383.829581418172
 20
9194.73679736161
 30
0.0
 11
6383.829581418172
 21
9187.736797361608
 31
0.0
  0
LINE
  5
1871A
330
747D
100
AcDbEntity
  8
部品1
 62
     2
 48
50.0
100
AcDbLine
 10
6383.829581418172
 20
9187.736797361608
 30
0.0
 11
6957.829581418173
 21
9187.736797361608
 31
0.0
  0
LINE
  5
1871D
330
747D
100
AcDbEntity
  8
部品1
 62
     2
 48
50.0
100
AcDbLine
 10
6373.829581418173
 20
9176.736797361609
 30
0.0
 11
6372.829581418173
 21
9176.736797361609
 31
0.0
  0
LINE
  5
1871E
330
747D
100
AcDbEntity
  8
部品1
 62
     2
 48
50.0
100
AcDbLine
 10
7540.329581418173
 20
9228.736797361611
 30
0.0
 11
7540.329581418173
 21
9199.736797361609
 31
0.0
  0
LINE
  5
1871F
330
747D
100
AcDbEntity
  8
部品1
 62
     2
 48
50.0
100
AcDbLine
 10
7530.329581418174
 20
9228.736797361611
 30
0.0
 11
7540.329581418173
 21
9228.736797361611
 31
0.0
  0
LINE
  5
18720
330
747D
100
AcDbEntity
  8
部品1
 62
     2
 48
50.0
100
AcDbLine
 10
7530.329581418174
 20
9221.736797361609
 30
0.0
 11
7530.329581418174
 21
9228.736797361611
 31
0.0
  0
LINE
  5
18721
330
747D
100
AcDbEntity
  8
部品1
 62
     2
 48
50.0
100
AcDbLine
 10
6946.32958141817
 20
9221.736797361609
 30
0.0
 11
7530.329581418174
 21
9221.736797361609
 31
0.0
  0
LINE
  5
18722
330
747D
100
AcDbEntity
  8
部品1
 62
     2
 48
50.0
100
AcDbLine
 10
7540.329581418173
 20
9199.736797361609
 30
0.0
 11
6956.329581418173
 21
9199.736797361609
 31
0.0
  0
LINE
  5
18723
330
747D
100
AcDbEntity
  8
部品1
 62
     2
 48
50.0
100
AcDbLine
 10
6946.329581418173
 20
9189.736797361609
 30
0.0
 11
6946.329581418173
 21
9221.736797361611
 31
0.0
  0
LINE
  5
18726
330
747D
100
AcDbEntity
  8
部品1
 62
     2
 48
50.0
100
AcDbLine
 10
6946.329581418173
 20
9189.736797361609
 30
0.0
 11
6956.329581418173
 21
9189.736797361609
 31
0.0
  0
LINE
  5
18727
330
747D
100
AcDbEntity
  8
部品1
 62
     2
 48
50.0
100
AcDbLine
 10
6956.329581418173
 20
9189.736797361609
 30
0.0
 11
6956.329581418171
 21
9199.736797361609
 31
0.0
  0
LINE
  5
1872A
330
747D
100
AcDbEntity
  8
部品1
 62
     2
 48
50.0
100
AcDbLine
 10
6946.329581418175
 20
9210.73679736161
 30
0.0
 11
6372.829581418173
 21
9210.73679736161
 31
0.0
  0
LINE
  5
18736
330
747D
100
AcDbEntity
  8
部品1
 62
     2
 48
50.0
100
AcDbLine
 10
6395.329581418173
 20
9187.736797361608
 30
0.0
 11
6395.329581418173
 21
9179.736797361609
 31
0.0
  0
LINE
  5
18738
330
747D
100
AcDbEntity
  8
部品1
 62
     2
 48
50.0
100
AcDbLine
 10
6946.329581418173
 20
9187.736797361608
 30
0.0
 11
6946.329581418173
 21
9179.736797361609
 31
0.0
  0
LINE
  5
18739
330
747D
100
AcDbEntity
  8
部品1
 62
     2
 48
50.0
100
AcDbLine
 10
6643.329581418171
 20
9166.736797361609
 30
0.0
 11
6658.329581418171
 21
9166.736797361609
 31
0.0
  0
LINE
  5
1873A
330
747D
100
AcDbEntity
  8
部品1
 62
     2
 48
50.0
100
AcDbLine
 10
6658.329581418171
 20
9166.736797361609
 30
0.0
 11
6658.329581418171
 21
9180.736797361609
 31
0.0
  0
LINE
  5
1873B
330
747D
100
AcDbEntity
  8
部品1
 62
     2
 48
50.0
100
AcDbLine
 10
6658.329581418171
 20
9180.736797361609
 30
0.0
 11
6663.329581418171
 21
9180.736797361609
 31
0.0
  0
LINE
  5
1873C
330
747D
100
AcDbEntity
  8
部品1
 62
     2
 48
50.0
100
AcDbLine
 10
6663.329581418171
 20
9180.736797361609
 30
0.0
 11
6663.329581418171
 21
9177.736797361609
 31
0.0
  0
LINE
  5
1873D
330
747D
100
AcDbEntity
  8
部品1
 62
     2
 48
50.0
100
AcDbLine
 10
6663.329581418171
 20
9177.736797361609
 30
0.0
 11
6678.329581418172
 21
9177.736797361609
 31
0.0
  0
LINE
  5
1873E
330
747D
100
AcDbEntity
  8
部品1
 62
     2
 48
50.0
100
AcDbLine
 10
6683.329581418171
 20
9166.736797361609
 30
0.0
 11
6683.329581418171
 21
9180.736797361609
 31
0.0
  0
LINE
  5
1873F
330
747D
100
AcDbEntity
  8
部品1
 62
     2
 48
50.0
100
AcDbLine
 10
6698.329581418171
 20
9166.736797361609
 30
0.0
 11
6683.329581418171
 21
9166.736797361609
 31
0.0
  0
LINE
  5
18740
330
747D
100
AcDbEntity
  8
部品1
 62
     2
 48
50.0
100
AcDbLine
 10
6678.329581418172
 20
9180.736797361609
 30
0.0
 11
6678.329581418172
 21
9177.736797361609
 31
0.0
  0
LINE
  5
18741
330
747D
100
AcDbEntity
  8
部品1
 62
     2
 48
50.0
100
AcDbLine
 10
6683.329581418171
 20
9180.736797361609
 30
0.0
 11
6678.329581418172
 21
9180.736797361609
 31
0.0
  0
LINE
  5
18742
330
747D
100
AcDbEntity
  8
部品1
 62
     2
 48
50.0
100
AcDbLine
 10
6652.579581418173
 20
9180.736797361609
 30
0.0
 11
6689.079581418173
 21
9180.736797361609
 31
0.0
  0
LINE
  5
18746
330
747D
100
AcDbEntity
  8
部品1
 62
     2
 48
50.0
100
AcDbLine
 10
6689.079581418173
 20
9180.736797361609
 30
0.0
 11
6692.579581418172
 21
9177.23679736161
 31
0.0
  0
LINE
  5
18747
330
747D
100
AcDbEntity
  8
部品1
 62
     2
 48
50.0
100
AcDbLine
 10
6652.579581418173
 20
9180.736797361609
 30
0.0
 11
6649.079581418172
 21
9177.23679736161
 31
0.0
  0
LINE
  5
1874A
330
747D
100
AcDbEntity
  8
部品1
 62
     2
 48
50.0
100
AcDbLine
 10
6967.829581418174
 20
9178.73679736161
 30
0.0
 11
6683.329581418171
 21
9178.73679736161
 31
0.0
  0
LINE
  5
1874B
330
747D
100
AcDbEntity
  8
部品1
 62
     2
 48
50.0
100
AcDbLine
 10
6658.329581418171
 20
9178.73679736161
 30
0.0
 11
6373.829581418173
 21
9178.73679736161
 31
0.0
  0
LINE
  5
1874E
330
747D
100
AcDbEntity
  8
部品1
 62
     2
 48
50.0
100
AcDbLine
 10
7540.329581418173
 20
9212.736797361609
 30
0.0
 11
7255.829581418172
 21
9212.736797361609
 31
0.0
  0
LINE
  5
1874F
330
747D
100
AcDbEntity
  8
部品1
 62
     2
 48
50.0
100
AcDbLine
 10
7230.829581418172
 20
9212.736797361609
 30
0.0
 11
6946.329581418173
 21
9212.736797361609
 31
0.0
  0
LINE
  5
18750
330
747D
100
AcDbEntity
  8
部品1
 62
     2
 48
50.0
100
AcDbLine
 10
7225.079581418173
 20
9214.736797361609
 30
0.0
 11
7261.579581418174
 21
9214.736797361609
 31
0.0
  0
LINE
  5
18751
330
747D
100
AcDbEntity
  8
部品1
 62
     2
 48
50.0
100
AcDbLine
 10
7255.829581418172
 20
9214.736797361609
 30
0.0
 11
7250.82958141817
 21
9214.736797361609
 31
0.0
  0
LINE
  5
18753
330
747D
100
AcDbEntity
  8
部品1
 62
     2
 48
50.0
100
AcDbLine
 10
7225.079581418173
 20
9214.736797361609
 30
0.0
 11
7221.579581418173
 21
9211.236797361609
 31
0.0
  0
LINE
  5
18754
330
747D
100
AcDbEntity
  8
部品1
 62
     2
 48
50.0
100
AcDbLine
 10
7230.829581418172
 20
9214.736797361609
 30
0.0
 11
7235.829581418172
 21
9214.736797361609
 31
0.0
  0
LINE
  5
18755
330
747D
100
AcDbEntity
  8
部品1
 62
     2
 48
50.0
100
AcDbLine
 10
7235.829581418172
 20
9214.736797361609
 30
0.0
 11
7235.829581418172
 21
9211.736797361609
 31
0.0
  0
LINE
  5
18756
330
747D
100
AcDbEntity
  8
部品1
 62
     2
 48
50.0
100
AcDbLine
 10
7235.829581418172
 20
9211.736797361609
 30
0.0
 11
7250.82958141817
 21
9211.736797361609
 31
0.0
  0
LINE
  5
18757
330
747D
100
AcDbEntity
  8
部品1
 62
     2
 48
50.0
100
AcDbLine
 10
7250.82958141817
 20
9214.736797361609
 30
0.0
 11
7250.82958141817
 21
9211.736797361609
 31
0.0
  0
LINE
  5
18758
330
747D
100
AcDbEntity
  8
部品1
 62
     2
 48
50.0
100
AcDbLine
 10
7215.829581418171
 20
9200.73679736161
 30
0.0
 11
7230.829581418172
 21
9200.73679736161
 31
0.0
  0
LINE
  5
18759
330
747D
100
AcDbEntity
  8
部品1
 62
     2
 48
50.0
100
AcDbLine
 10
7230.829581418172
 20
9200.73679736161
 30
0.0
 11
7230.829581418172
 21
9214.736797361609
 31
0.0
  0
LINE
  5
1875A
330
747D
100
AcDbEntity
  8
部品1
 62
     2
 48
50.0
100
AcDbLine
 10
7261.579581418174
 20
9214.736797361609
 30
0.0
 11
7265.079581418174
 21
9211.236797361609
 31
0.0
  0
LINE
  5
1875B
330
747D
100
AcDbEntity
  8
部品1
 62
     2
 48
50.0
100
AcDbLine
 10
7270.829581418171
 20
9200.73679736161
 30
0.0
 11
7255.829581418172
 21
9200.73679736161
 31
0.0
  0
LINE
  5
1875C
330
747D
100
AcDbEntity
  8
部品1
 62
     2
 48
50.0
100
AcDbLine
 10
7255.829581418172
 20
9200.73679736161
 30
0.0
 11
7255.829581418172
 21
9214.736797361609
 31
0.0
  0
LINE
  5
1875D
330
747D
100
AcDbEntity
  8
部品1
 62
     2
 48
50.0
100
AcDbLine
 10
7775.329581418173
 20
9234.73679736197
 30
0.0
 11
7790.329581418173
 21
9234.73679736197
 31
0.0
  0
LINE
  5
1875E
330
747D
100
AcDbEntity
  8
部品1
 62
     2
 48
50.0
100
AcDbLine
 10
7790.329581418173
 20
9234.73679736197
 30
0.0
 11
7795.329581418172
 21
9262.73679736197
 31
0.0
  0
LINE
  5
1875F
330
747D
100
AcDbEntity
  8
部品1
 62
     2
 48
50.0
100
AcDbLine
 10
7795.329581418172
 20
9262.73679736197
 30
0.0
 11
7820.329581418173
 21
9262.73679736197
 31
0.0
  0
LINE
  5
18760
330
747D
100
AcDbEntity
  8
部品1
 62
     2
 48
50.0
100
AcDbLine
 10
7840.329581418173
 20
9234.73679736197
 30
0.0
 11
7825.329581418173
 21
9234.73679736197
 31
0.0
  0
LINE
  5
18761
330
747D
100
AcDbEntity
  8
部品1
 62
     2
 48
50.0
100
AcDbLine
 10
7825.329581418173
 20
9234.73679736197
 30
0.0
 11
7820.329581418173
 21
9262.73679736197
 31
0.0
  0
LINE
  5
18764
330
747D
100
AcDbEntity
  8
部品1
 62
     2
 48
50.0
100
AcDbLine
 10
6967.829581418171
 20
9221.736797361609
 30
0.0
 11
6967.829581418171
 21
9213.73679736161
 31
0.0
  0
LINE
  5
18766
330
747D
100
AcDbEntity
  8
部品1
 62
     2
 48
50.0
100
AcDbLine
 10
7518.829581418173
 20
9221.736797361609
 30
0.0
 11
7518.829581418173
 21
9213.73679736161
 31
0.0
  0
LINE
  5
18768
330
747D
100
AcDbEntity
  8
部品1
 62
     2
 48
50.0
100
AcDbLine
 10
7542.829581418175
 20
9263.736797361795
 30
0.0
 11
7542.829581418175
 21
9259.236797361795
 31
0.0
  0
LINE
  5
1876A
330
747D
100
AcDbEntity
  8
部品1
 62
     2
 48
50.0
100
AcDbLine
 10
8075.32958141817
 20
9263.736797361792
 30
0.0
 11
8075.32958141817
 21
9259.236797361792
 31
0.0
  0
DIMENSION
  5
18778
330
747D
100
AcDbEntity
  8
寸法
 48
50.0
100
AcDbDimension
  2
*D15
 10
7472.829581418173
 20
8532.273498070642
 30
0.0
 11
6927.829581418173
 21
8757.273498070642
 31
0.0
 12
870.0
 22
0.0
 32
0.0
 70
    32
  1
有効開口部間口\P<>
 71
     5
 42
-1.0
  3
INABA_S50G
100
AcDbAlignedDimension
 13
6382.829581418173
 23
9160.736797361609
 33
0.0
 14
7472.829581418173
 24
9160.736797361609
 34
0.0
100
AcDbRotatedDimension
  0
DIMENSION
  5
1A2E5
330
747D
100
AcDbEntity
  8
寸法
 48
50.0
100
AcDbDimension
  2
*D16
 10
5526.198601638504
 20
9160.736797361609
 30
0.0
 11
5526.198601638504
 21
8923.748608385231
 31
0.0
 12
1450.0
 22
0.0
 32
0.0
 70
   160
 71
     5
 42
-1.0
  3
INABA_S50G
100
AcDbAlignedDimension
 13
6302.829581418171
 23
9228.736797361971
 33
0.0
 14
6356.829581418173
 24
9160.736797361609
 34
0.0
 50
90.0
100
AcDbRotatedDimension
  0
LINE
  5
1A39A
330
747D
100
AcDbEntity
  8
部品1
 62
     2
 48
50.0
100
AcDbLine
 10
7540.329581418173
 20
9212.736797361609
 30
0.0
 11
7255.829581418172
 21
9212.736797361609
 31
0.0
  0
LINE
  5
1A39B
330
747D
100
AcDbEntity
  8
部品1
 62
     2
 48
50.0
100
AcDbLine
 10
7230.829581418172
 20
9212.736797361609
 30
0.0
 11
6946.329581418173
 21
9212.736797361609
 31
0.0
  0
TEXT
  5
1A95B
330
747D
100
AcDbEntity
  8
文字
 62
     7
 48
50.0
100
AcDbText
 10
17902.30092041603
 20
604.8708912389265
 30
0.0
 40
200.0
  1
ＳＭＫ－２５Ｓ
  7
STYLE2
100
AcDbText
  0
TEXT
  5
1A95C
330
747D
100
AcDbEntity
  8
文字
 62
     7
 48
50.0
100
AcDbText
 10
18386.04187925632
 20
1047.815908841148
 30
0.0
 40
125.0
  1
～一般型･多雪地型～
  7
STYLE2
100
AcDbText
  0
TEXT
  5
1A95D
330
747D
100
AcDbEntity
  8
文字
 62
     7
 48
50.0
100
AcDbText
 10
18155.16479652749
 20
1289.447132864035
 30
0.0
 40
125.0
  1
NO.01     <縮尺> S=1/50
  7
STYLE2
100
AcDbText
  0
TEXT
  5
1A95E
330
747D
100
AcDbEntity
  8
文字
 62
     7
 48
50.0
100
AcDbText
 10
16511.7566802715
 20
270.5931259273529
 30
0.0
 40
100.0
  1
○扉部有効開口寸法：1090×1798 (mm)
  7
STYLE2
100
AcDbText
  0
TEXT
  5
1A95F
330
747D
100
AcDbEntity
  8
文字
 62
     7
 48
50.0
100
AcDbText
 10
16511.7566802715
 20
99.75789836616968
 30
0.0
 40
100.0
  1
○床面積：2.44㎡(0.74坪)
  7
STYLE2
100
AcDbText
  0
DIMENSION
  5
1AE97
330
747D
100
AcDbEntity
  8
寸法
 48
50.0
100
AcDbDimension
  2
*D17
 10
8072.829581418174
 20
2612.358857715331
 30
0.0
 11
7785.865998741008
 21
2612.358857715331
 31
0.0
 12
7999.030640889448
 22
1439.471773623157
 32
0.0
 70
   160
 71
     5
 42
-1.0
  3
INABA_S50G
100
AcDbAlignedDimension
 13
8272.829581418175
 23
2939.999999999999
 33
0.0
 14
8072.829581418174
 24
2939.999999999999
 34
0.0
100
AcDbRotatedDimension
  0
LINE
  5
1AE9D
330
747D
100
AcDbEntity
  8
部品1
 62
     2
 48
50.0
100
AcDbLine
 10
6967.829581418175
 20
3333.0
 30
0.0
 11
8066.329581418175
 21
3332.999999999999
 31
0.0
  0
LINE
  5
1AE9E
330
747D
100
AcDbEntity
  8
部品1
 62
     2
 48
50.0
100
AcDbLine
 10
8108.829581418175
 20
5149.5
 30
0.0
 11
6356.829581418175
 21
5149.5
 31
0.0
  0
LINE
  5
1AE9F
330
747D
100
AcDbEntity
  8
部品1
 62
     2
 48
50.0
100
AcDbLine
 10
6372.829581418174
 20
3323.999999999999
 30
0.0
 11
8092.829581418175
 21
3323.999999999999
 31
0.0
  0
LINE
  5
1AEA0
330
747D
100
AcDbEntity
  8
部品1
 62
     2
 48
50.0
100
AcDbLine
 10
8108.829581418175
 20
5187.0
 30
0.0
 11
6356.829581418175
 21
5187.0
 31
0.0
  0
LINE
  5
1AEA2
330
747D
100
AcDbEntity
  8
部品1
100
AcDbLine
 10
8203.513641876282
 20
5410.000001569558
 30
0.0
 11
6262.145516590239
 21
5410.000001569567
 31
0.0
  0
LINE
  5
1AEA3
330
747D
100
AcDbEntity
  8
細線
100
AcDbLine
 10
8221.324725755611
 20
5431.045828186498
 30
0.0
 11
6244.334432710914
 21
5431.045828186505
 31
0.0
  0
LINE
  5
1AEA4
330
747D
100
AcDbEntity
  8
部品1
100
AcDbLine
 10
8198.3974169587
 20
5545.000000008446
 30
0.0
 11
6267.261741799082
 21
5545.000000008467
 31
0.0
  0
LINE
  5
1AEA5
330
747D
100
AcDbEntity
  8
細線
100
AcDbLine
 10
8212.329581418178
 20
5524.500002624811
 30
0.0
 11
6255.429712967134
 21
5524.500002624819
 31
0.0
  0
DIMENSION
  5
1AEA6
330
747D
100
AcDbEntity
  8
寸法
 48
50.0
100
AcDbDimension
  2
*D18
 10
8227.829581418175
 20
6506.068854554546
 30
0.0
 11
6942.829579233261
 21
6606.068854554546
 31
0.0
 12
290.0
 22
0.0
 32
0.0
 70
    32
 71
     5
 42
-1.0
  3
INABA_S50G
100
AcDbAlignedDimension
 13
6237.829577048348
 23
5509.000002624809
 33
0.0
 14
8227.829581418175
 24
5509.000002624809
 34
0.0
100
AcDbRotatedDimension
  0
DIMENSION
  5
1AEA7
330
747D
100
AcDbEntity
  8
寸法
 48
50.0
100
AcDbDimension
  2
*D19
 10
8172.829581418174
 20
6238.281130716521
 30
0.0
 11
7232.829581418174
 21
6338.281130716521
 31
0.0
 70
    32
  1
柱外寸法 <>
 71
     5
 42
-1.0
  3
INABA_S50G
100
AcDbAlignedDimension
 13
6292.829581418175
 23
5545.000000008467
 33
0.0
 14
8172.829581418174
 24
5545.000000008446
 34
0.0
100
AcDbRotatedDimension
1001
ACAD
1000
DSTYLE
1002
{
1070
   287
1070
     4
1070
    75
1070
     1
1070
   279
1070
     1
1002
}
  0
LINE
  5
1AEAF
330
747D
100
AcDbEntity
  8
部品1
 48
50.0
100
AcDbLine
 10
8172.829581418175
 20
5275.0
 30
0.0
 11
6292.829581418175
 21
5275.0
 31
0.0
  0
LINE
  5
1AEB0
330
747D
100
AcDbEntity
  8
部品1
 48
50.0
100
AcDbLine
 10
6292.829581418175
 20
3275.0
 30
0.0
 11
8172.829581418175
 21
3275.0
 31
0.0
  0
LINE
  5
1AEB1
330
747D
100
AcDbEntity
  8
部品1
 62
     2
 48
50.0
100
AcDbLine
 10
6967.829581418175
 20
5149.5
 30
0.0
 11
6967.829581418175
 21
3326.0
 31
0.0
  0
LINE
  5
1AEB2
330
747D
100
AcDbEntity
  8
部品1
 62
     2
 48
50.0
100
AcDbLine
 10
6380.829581418175
 20
5149.5
 30
0.0
 11
6380.829581418173
 21
3323.999999999999
 31
0.0
  0
LINE
  5
1AEB3
330
747D
100
AcDbEntity
  8
部品1
 62
     2
 48
50.0
100
AcDbLine
 10
6356.829581418175
 20
5187.0
 30
0.0
 11
6356.829581418174
 21
3275.0
 31
0.0
  0
LINE
  5
1AEB4
330
747D
100
AcDbEntity
  8
部品1
 48
50.0
100
AcDbLine
 10
6362.829581418175
 20
5275.0
 30
0.0
 11
6362.829581418175
 21
5187.0
 31
0.0
  0
LINE
  5
1AEB5
330
747D
100
AcDbEntity
  8
部品1
 48
50.0
100
AcDbLine
 10
6292.829581418175
 20
5410.000001569567
 30
0.0
 11
6292.829581418175
 21
3140.0
 31
0.0
  0
LINE
  5
1AEB8
330
747D
100
AcDbEntity
  8
破線
 48
5.0
100
AcDbLine
 10
6192.829581418177
 20
3140.0
 30
0.0
 11
6192.829581418177
 21
2939.999999999999
 31
0.0
  0
LINE
  5
1AEB9
330
747D
100
AcDbEntity
  8
破線
 48
5.0
100
AcDbLine
 10
6392.829581418176
 20
3140.0
 30
0.0
 11
6392.829581418176
 21
2939.999999999999
 31
0.0
  0
LINE
  5
1AEBA
330
747D
100
AcDbEntity
  8
破線
 48
5.0
100
AcDbLine
 10
6287.829581418177
 20
3140.0
 30
0.0
 11
6287.829581418177
 21
3030.0
 31
0.0
  0
LINE
  5
1AEBB
330
747D
100
AcDbEntity
  8
破線
 48
5.0
100
AcDbLine
 10
6192.829581418177
 20
2939.999999999999
 30
0.0
 11
6392.829581418179
 21
2939.999999999999
 31
0.0
  0
LINE
  5
1AEBC
330
747D
100
AcDbEntity
  8
破線
 48
5.0
100
AcDbLine
 10
6267.829581418176
 20
3030.0
 30
0.0
 11
6287.829581418178
 21
3030.0
 31
0.0
  0
LINE
  5
1AEBD
330
747D
100
AcDbEntity
  8
部品1
100
AcDbLine
 10
6287.829581418177
 20
3314.999999999999
 30
0.0
 11
6287.829581418177
 21
3140.0
 31
0.0
  0
LINE
  5
1AEBE
330
747D
100
AcDbEntity
  8
部品1
 62
     2
 48
50.0
100
AcDbLine
 10
6380.829581418173
 20
3326.0
 30
0.0
 11
6967.829581418175
 21
3326.0
 31
0.0
  0
LINE
  5
1AEBF
330
747D
100
AcDbEntity
  8
部品1
 48
50.0
100
AcDbLine
 10
6692.829581418175
 20
3275.0
 30
0.0
 11
6692.829581418175
 21
3140.0
 31
0.0
  0
LINE
  5
1AEC0
330
747D
100
AcDbEntity
  8
部品1
 62
     2
 48
50.0
100
AcDbLine
 10
6372.829581418174
 20
3323.999999999999
 30
0.0
 11
6372.829581418174
 21
3275.0
 31
0.0
  0
LINE
  5
1AEC1
330
747D
100
AcDbEntity
  8
部品1
 48
50.0
100
AcDbLine
 10
6932.829581418174
 20
3275.0
 30
0.0
 11
6932.829581418174
 21
3140.0
 31
0.0
  0
LINE
  5
1AEC2
330
747D
100
AcDbEntity
  8
部品1
 48
50.0
100
AcDbLine
 10
7332.829581418174
 20
3275.0
 30
0.0
 11
7332.829581418174
 21
3140.0
 31
0.0
  0
LINE
  5
1AEC3
330
747D
100
AcDbEntity
  8
部品1
 62
     2
 48
50.0
100
AcDbLine
 10
6420.329581418174
 20
4250.000000000002
 30
0.0
 11
6420.329581418174
 21
4216.0
 31
0.0
  0
LINE
  5
1AEC4
330
747D
100
AcDbEntity
  8
部品1
 62
     2
 48
50.0
100
AcDbLine
 10
6408.329581418174
 20
4250.0
 30
0.0
 11
6408.329581418178
 21
4216.0
 31
0.0
  0
ARC
  5
1AEC5
330
747D
100
AcDbEntity
  8
部品1
 62
     2
 48
50.0
100
AcDbCircle
 10
2474.329581418174
 20
4187.0
 30
0.0
 40
4000.0
100
AcDbArc
 50
359.0098658739685
 51
0.9901341260314108
  0
ARC
  5
1AEC6
330
747D
100
AcDbEntity
  8
部品1
 62
     2
 48
50.0
100
AcDbCircle
 10
2474.329581418174
 20
4187.0
 30
0.0
 40
3991.0
100
AcDbArc
 50
359.0804695823139
 51
0.9195304176861213
  0
LINE
  5
1AEC7
330
747D
100
AcDbEntity
  8
部品1
 62
     2
 48
50.0
100
AcDbLine
 10
6435.329581418173
 20
4251.0
 30
0.0
 11
6435.329581418173
 21
4123.0
 31
0.0
  0
ARC
  5
1AEC8
330
747D
100
AcDbEntity
  8
部品1
 62
     2
 48
50.0
100
AcDbCircle
 10
6797.329581418174
 20
4187.0
 30
0.0
 40
405.0
100
AcDbArc
 50
170.0163680567114
 51
189.9836319432886
  0
ARC
  5
1AEC9
330
747D
100
AcDbEntity
  8
部品1
 62
     2
 48
50.0
100
AcDbCircle
 10
6411.329581418178
 20
4216.0
 30
0.0
 40
3.0
100
AcDbArc
 50
180.0000000000025
 51
270.0
  0
LINE
  5
1AECA
330
747D
100
AcDbEntity
  8
部品1
 62
     2
 48
50.0
100
AcDbLine
 10
6417.329581418174
 20
4213.0
 30
0.0
 11
6411.329581418178
 21
4213.0
 31
0.0
  0
ARC
  5
1AECB
330
747D
100
AcDbEntity
  8
部品1
 62
     2
 48
50.0
100
AcDbCircle
 10
6417.329581418174
 20
4216.0
 30
0.0
 40
3.0
100
AcDbArc
 50
270.0
 51
0.0
  0
ARC
  5
1AECC
330
747D
100
AcDbEntity
  8
部品1
 62
     2
 48
50.0
100
AcDbCircle
 10
6466.733368612048
 20
4118.0
 30
0.0
 40
7.0
100
AcDbArc
 50
270.0
 51
359.009865873969
  0
LINE
  5
1AECD
330
747D
100
AcDbEntity
  8
部品1
 62
     2
 48
50.0
100
AcDbLine
 10
6438.329581418173
 20
4120.0
 30
0.0
 11
6461.816007727361
 21
4120.000000000001
 31
0.0
  0
ARC
  5
1AECE
330
747D
100
AcDbEntity
  8
部品1
 62
     2
 48
50.0
100
AcDbCircle
 10
6438.329581418173
 20
4123.0
 30
0.0
 40
3.0
100
AcDbArc
 50
179.9999999999996
 51
270.0000000000035
  0
ARC
  5
1AECF
330
747D
100
AcDbEntity
  8
部品1
 62
     2
 48
50.0
100
AcDbCircle
 10
6461.816007727361
 20
4123.000000000001
 30
0.0
 40
3.0
100
AcDbArc
 50
270.0
 51
359.0804695823297
  0
LINE
  5
1AED0
330
747D
100
AcDbEntity
  8
部品1
 62
     2
 48
50.0
100
AcDbLine
 10
6417.329581418174
 20
4161.0
 30
0.0
 11
6411.329581418178
 21
4161.0
 31
0.0
  0
ARC
  5
1AED1
330
747D
100
AcDbEntity
  8
部品1
 62
     2
 48
50.0
100
AcDbCircle
 10
6417.329581418174
 20
4158.0
 30
0.0
 40
3.0
100
AcDbArc
 50
0.0
 51
90.0
  0
ARC
  5
1AED2
330
747D
100
AcDbEntity
  8
部品1
 62
     2
 48
50.0
100
AcDbCircle
 10
6411.329581418178
 20
4158.0
 30
0.0
 40
3.0
100
AcDbArc
 50
90.0
 51
179.9999999999974
  0
LINE
  5
1AED3
330
747D
100
AcDbEntity
  8
部品1
 62
     2
 48
50.0
100
AcDbLine
 10
6417.329581418174
 20
4121.0
 30
0.0
 11
6411.329581418174
 21
4121.0
 31
0.0
  0
ARC
  5
1AED4
330
747D
100
AcDbEntity
  8
部品1
 62
     2
 48
50.0
100
AcDbCircle
 10
6411.329581418174
 20
4124.0
 30
0.0
 40
3.0
100
AcDbArc
 50
179.9999999999971
 51
270.0
  0
ARC
  5
1AED5
330
747D
100
AcDbEntity
  8
部品1
 62
     2
 48
50.0
100
AcDbCircle
 10
6417.329581418174
 20
4124.0
 30
0.0
 40
3.0
100
AcDbArc
 50
270.0
 51
0.0
  0
ARC
  5
1AED6
330
747D
100
AcDbEntity
  8
部品1
 62
     2
 48
50.0
100
AcDbCircle
 10
6405.356368047669
 20
4118.0
 30
0.0
 40
7.0
100
AcDbArc
 50
189.983631943288
 51
270.0
  0
LINE
  5
1AED7
330
747D
100
AcDbEntity
  8
部品1
 62
     2
 48
50.0
100
AcDbLine
 10
6408.329581418174
 20
4124.0
 30
0.0
 11
6408.329581418178
 21
4158.0
 31
0.0
  0
LINE
  5
1AED8
330
747D
100
AcDbEntity
  8
部品1
 62
     2
 48
50.0
100
AcDbLine
 10
6420.329581418174
 20
4124.0
 30
0.0
 11
6420.329581418174
 21
4158.0
 31
0.0
  0
LINE
  5
1AED9
330
747D
100
AcDbEntity
  8
部品1
 62
     2
 48
50.0
100
AcDbLine
 10
6466.733368612048
 20
4111.0
 30
0.0
 11
6405.356368047669
 21
4111.0
 31
0.0
  0
CIRCLE
  5
1AEDA
330
747D
100
AcDbEntity
  8
部品1
 62
     2
 48
50.0
100
AcDbCircle
 10
6414.329581418174
 20
4187.0
 30
0.0
 40
17.0
  0
ARC
  5
1AEDB
330
747D
100
AcDbEntity
  8
部品1
 62
     2
 48
50.0
100
AcDbCircle
 10
6466.733368612048
 20
4256.0
 30
0.0
 40
7.0
100
AcDbArc
 50
0.9901341260309951
 51
90.0
  0
LINE
  5
1AEDC
330
747D
100
AcDbEntity
  8
部品1
 62
     2
 48
50.0
100
AcDbLine
 10
6438.329581418173
 20
4254.0
 30
0.0
 11
6461.816007727361
 21
4254.0
 31
0.0
  0
ARC
  5
1AEDD
330
747D
100
AcDbEntity
  8
部品1
 62
     2
 48
50.0
100
AcDbCircle
 10
6461.816007727361
 20
4251.0
 30
0.0
 40
3.0
100
AcDbArc
 50
0.9195304176876355
 51
90.0
  0
ARC
  5
1AEDE
330
747D
100
AcDbEntity
  8
部品1
 62
     2
 48
50.0
100
AcDbCircle
 10
6438.329581418173
 20
4251.0
 30
0.0
 40
3.0
100
AcDbArc
 50
90.0
 51
179.9999999999992
  0
ARC
  5
1AEDF
330
747D
100
AcDbEntity
  8
部品1
 62
     2
 48
50.0
100
AcDbCircle
 10
6417.329581418174
 20
4250.000000000002
 30
0.0
 40
3.0
100
AcDbArc
 50
0.0
 51
90.00000000000003
  0
LINE
  5
1AEE0
330
747D
100
AcDbEntity
  8
部品1
 62
     2
 48
50.0
100
AcDbLine
 10
6417.329581418174
 20
4253.000000000002
 30
0.0
 11
6411.329581418174
 21
4253.0
 31
0.0
  0
ARC
  5
1AEE1
330
747D
100
AcDbEntity
  8
部品1
 62
     2
 48
50.0
100
AcDbCircle
 10
6411.329581418174
 20
4250.0
 30
0.0
 40
3.0
100
AcDbArc
 50
90.00000000000003
 51
180.0000000000027
  0
ARC
  5
1AEE2
330
747D
100
AcDbEntity
  8
部品1
 62
     2
 48
50.0
100
AcDbCircle
 10
6405.356368047669
 20
4256.0
 30
0.0
 40
7.0
100
AcDbArc
 50
90.0
 51
170.0163680567111
  0
LINE
  5
1AEE3
330
747D
100
AcDbEntity
  8
部品1
 62
     2
 48
50.0
100
AcDbLine
 10
6466.733368612048
 20
4263.0
 30
0.0
 11
6405.356368047669
 21
4263.0
 31
0.0
  0
DIMENSION
  5
1AEE4
330
747D
100
AcDbEntity
  8
寸法
 48
50.0
100
AcDbDimension
  2
*D20
 10
6292.829581418175
 20
6238.281130716521
 30
0.0
 11
5912.770526300063
 21
6238.281130716521
 31
0.0
 12
8579.030640889447
 22
1269.471773623157
 32
0.0
 70
   160
 71
     5
 42
-1.0
  3
INABA_S50G
100
AcDbAlignedDimension
 13
6237.829577048348
 23
5509.000002624809
 33
0.0
 14
6292.829581418175
 24
5545.000000008467
 34
0.0
100
AcDbRotatedDimension
  0
LINE
  5
1AEE5
330
747D
100
AcDbEntity
  8
細線
 48
50.0
100
AcDbLine
 10
6275.829581709431
 20
5410.000001569558
 30
0.0
 11
6275.829581709431
 21
5545.0
 31
0.0
  0
ARC
  5
1AEE6
330
747D
100
AcDbEntity
  8
部品1
100
AcDbCircle
 10
6253.329577048347
 20
5509.000002624809
 30
0.0
 40
15.5
100
AcDbArc
 50
90.00000000000033
 51
183.979378091838
  0
LINE
  5
1AEE7
330
747D
100
AcDbEntity
  8
部品1
100
AcDbLine
 10
6237.866946116001
 20
5507.92434252513
 30
0.0
 11
6243.137325800022
 21
5432.162551275553
 31
0.0
  0
ARC
  5
1AEE8
330
747D
100
AcDbEntity
  8
部品1
100
AcDbCircle
 10
6244.334432710914
 20
5432.245828186495
 30
0.0
 40
1.199999999999999
100
AcDbArc
 50
183.979378091838
 51
270.0000000000002
  0
ARC
  5
1AEE9
330
747D
100
AcDbEntity
  8
部品1
100
AcDbCircle
 10
6243.888253715102
 20
5428.572828826122
 30
0.0
 40
2.5
100
AcDbArc
 50
3.979378091802891
 51
83.07390809407314
  0
LINE
  5
1AEEA
330
747D
100
AcDbEntity
  8
部品1
100
AcDbLine
 10
6246.382226446125
 20
5428.746322390583
 30
0.0
 11
6246.682885657892
 21
5424.424341469881
 31
0.0
  0
ARC
  5
1AEEB
330
747D
100
AcDbEntity
  8
部品1
100
AcDbCircle
 10
6262.145516590239
 20
5425.50000156956
 30
0.0
 40
15.5
100
AcDbArc
 50
183.9793780918396
 51
270.0
  0
LINE
  5
1AEEC
330
747D
100
AcDbEntity
  8
部品1
 48
50.0
100
AcDbLine
 10
6253.329577048347
 20
5524.500002624809
 30
0.0
 11
6255.429712967134
 21
5524.500002624819
 31
0.0
  0
LINE
  5
1AEED
330
747D
100
AcDbEntity
  8
部品1
100
AcDbLine
 10
6256.81553222221
 20
5525.425977370787
 30
0.0
 11
6264.028406396048
 21
5542.839392276281
 31
0.0
  0
ARC
  5
1AEEE
330
747D
100
AcDbEntity
  8
部品1
100
AcDbCircle
 10
6255.429712967134
 20
5526.000002624811
 30
0.0
 40
1.5
100
AcDbArc
 50
270.0000000000002
 51
337.4999956391484
  0
ARC
  5
1AEEF
330
747D
100
AcDbEntity
  8
部品1
100
AcDbCircle
 10
6267.261984657895
 20
5541.500000016893
 30
0.0
 40
3.5
100
AcDbArc
 50
90.0
 51
157.4999956391549
  0
LINE
  5
1AEF0
330
747D
100
AcDbEntity
  8
細線
 48
50.0
100
AcDbLine
 10
7368.829581418174
 20
5405.500036981838
 30
0.0
 11
7096.829581418174
 21
5405.500036981838
 31
0.0
  0
LINE
  5
1AEF1
330
747D
100
AcDbEntity
  8
細線
 48
50.0
100
AcDbLine
 10
7111.829581418175
 20
5330.500036981837
 30
0.0
 11
7353.829581418175
 21
5330.500036981837
 31
0.0
  0
LINE
  5
1AEF2
330
747D
100
AcDbEntity
  8
細線
 48
50.0
100
AcDbLine
 10
7111.829581418175
 20
5345.5
 30
0.0
 11
7353.829581418175
 21
5345.5
 31
0.0
  0
LINE
  5
1AEF3
330
747D
100
AcDbEntity
  8
細線
 48
50.0
100
AcDbLine
 10
7111.829581418175
 20
5360.500036981837
 30
0.0
 11
7353.829581418175
 21
5360.500036981837
 31
0.0
  0
LINE
  5
1AEF4
330
747D
100
AcDbEntity
  8
細線
 48
50.0
100
AcDbLine
 10
7111.829581418175
 20
5390.5
 30
0.0
 11
7353.829581418175
 21
5390.499999999998
 31
0.0
  0
LINE
  5
1AEF5
330
747D
100
AcDbEntity
  8
細線
 48
50.0
100
AcDbLine
 10
7111.829581418175
 20
5375.5
 30
0.0
 11
7353.829581418175
 21
5375.5
 31
0.0
  0
LINE
  5
1AEF6
330
747D
100
AcDbEntity
  8
細線
 48
50.0
100
AcDbLine
 10
7368.829581418174
 20
5308.5
 30
0.0
 11
7096.829581418174
 21
5308.5
 31
0.0
  0
LINE
  5
1AEF7
330
747D
100
AcDbEntity
  8
細線
 48
50.0
100
AcDbLine
 10
7353.829581418175
 20
5319.5
 30
0.0
 11
7111.829581418175
 21
5319.5
 31
0.0
  0
ARC
  5
1AEF8
330
747D
100
AcDbEntity
  8
細線
 48
50.0
100
AcDbCircle
 10
7096.829581418174
 20
5318.5
 30
0.0
 40
10.0
100
AcDbArc
 50
180.0
 51
270.0
  0
LINE
  5
1AEF9
330
747D
100
AcDbEntity
  8
細線
 48
50.0
100
AcDbLine
 10
7111.829581418175
 20
5308.5
 30
0.0
 11
7111.829581418175
 21
5309.0
 31
0.0
  0
ARC
  5
1AEFA
330
747D
100
AcDbEntity
  8
細線
 48
50.0
100
AcDbCircle
 10
7096.829581418174
 20
5395.500036981837
 30
0.0
 40
10.0
100
AcDbArc
 50
90.0
 51
180.0
  0
LINE
  5
1AEFB
330
747D
100
AcDbEntity
  8
細線
 48
50.0
100
AcDbLine
 10
7111.829581418175
 20
5405.500036981838
 30
0.0
 11
7111.829581418175
 21
5308.5
 31
0.0
  0
LINE
  5
1AEFC
330
747D
100
AcDbEntity
  8
細線
 48
50.0
100
AcDbLine
 10
7086.829581418175
 20
5395.500036981837
 30
0.0
 11
7086.829581418175
 21
5318.5
 31
0.0
  0
LINE
  5
1AEFD
330
747D
100
AcDbEntity
  8
部品1
 48
50.0
100
AcDbLine
 10
8102.829581418175
 20
5275.0
 30
0.0
 11
8102.829581418175
 21
5187.0
 31
0.0
  0
LINE
  5
1AEFE
330
747D
100
AcDbEntity
  8
細線
 48
50.0
100
AcDbLine
 10
7192.829581418175
 20
5319.5
 30
0.0
 11
7192.829581418175
 21
5390.5
 31
0.0
  0
LINE
  5
1AEFF
330
747D
100
AcDbEntity
  8
細線
 48
50.0
100
AcDbLine
 10
7272.829581418175
 20
5319.5
 30
0.0
 11
7272.829581418175
 21
5390.5
 31
0.0
  0
ARC
  5
1AF00
330
747D
100
AcDbEntity
  8
細線
 48
50.0
100
AcDbCircle
 10
7368.829581418174
 20
5318.5
 30
0.0
 40
10.0
100
AcDbArc
 50
270.0
 51
359.9999999999998
  0
LINE
  5
1AF01
330
747D
100
AcDbEntity
  8
細線
 48
50.0
100
AcDbLine
 10
7353.829581418175
 20
5308.5
 30
0.0
 11
7353.829581418175
 21
5309.0
 31
0.0
  0
ARC
  5
1AF02
330
747D
100
AcDbEntity
  8
細線
 48
50.0
100
AcDbCircle
 10
7368.829581418174
 20
5395.500036981837
 30
0.0
 40
10.0
100
AcDbArc
 50
359.9999999999998
 51
90.0
  0
LINE
  5
1AF03
330
747D
100
AcDbEntity
  8
細線
 48
50.0
100
AcDbLine
 10
7353.829581418175
 20
5405.500036981838
 30
0.0
 11
7353.829581418175
 21
5308.5
 31
0.0
  0
LINE
  5
1AF04
330
747D
100
AcDbEntity
  8
細線
 48
50.0
100
AcDbLine
 10
7378.829581418175
 20
5395.500036981837
 30
0.0
 11
7378.829581418175
 21
5318.5
 31
0.0
  0
LINE
  5
1AF0B
330
747D
100
AcDbEntity
  8
部品1
 62
     2
 48
50.0
100
AcDbLine
 10
7540.329581418174
 20
5149.5
 30
0.0
 11
7540.329581418174
 21
3333.0
 31
0.0
  0
LINE
  5
1AF0C
330
747D
100
AcDbEntity
  8
部品1
 62
     2
 48
50.0
100
AcDbLine
 10
8084.829581418174
 20
5149.5
 30
0.0
 11
8084.829581418174
 21
3323.999999999999
 31
0.0
  0
LINE
  5
1AF0D
330
747D
100
AcDbEntity
  8
部品1
 62
     2
 48
50.0
100
AcDbLine
 10
8108.829581418175
 20
5187.0
 30
0.0
 11
8108.829581418175
 21
3275.0
 31
0.0
  0
DIMENSION
  5
1AF0E
330
747D
100
AcDbEntity
  8
寸法
 48
50.0
100
AcDbDimension
  2
*D21
 10
8828.934533249727
 20
5302.0
 30
0.0
 11
8728.934533249725
 21
4322.000000000001
 31
0.0
 70
    32
  1
内高 <>
 71
     5
 42
-1.0
  3
INABA_S50G
100
AcDbAlignedDimension
 13
8172.829581418175
 23
3342.0
 33
0.0
 14
8172.829581418174
 24
5302.0
 34
0.0
 50
90.0
100
AcDbRotatedDimension
1001
ACAD
1000
DSTYLE
1002
{
1070
   287
1070
     4
1070
    75
1070
     1
1070
   279
1070
     1
1002
}
  0
LINE
  5
1AF0F
330
747D
100
AcDbEntity
  8
部品1
 48
50.0
100
AcDbLine
 10
8172.829581418174
 20
5410.000001569558
 30
0.0
 11
8172.829581418175
 21
3140.0
 31
0.0
  0
DIMENSION
  5
1AF10
330
747D
100
AcDbEntity
  8
寸法
 48
50.0
100
AcDbDimension
  2
*D22
 10
8828.934533249727
 20
3342.0
 30
0.0
 11
8828.934533249727
 21
2978.697597487494
 31
0.0
 12
7999.030640889448
 22
1439.471773623157
 32
0.0
 70
   160
 71
     5
 42
-1.0
  3
INABA_S50G
100
AcDbAlignedDimension
 13
8172.829581418175
 23
3275.0
 33
0.0
 14
8172.829581418175
 24
3342.0
 34
0.0
 50
90.0
100
AcDbRotatedDimension
  0
LINE
  5
1AF11
330
747D
100
AcDbEntity
  8
部品1
 48
50.0
100
AcDbLine
 10
7772.829581418175
 20
3275.0
 30
0.0
 11
7772.829581418175
 21
3140.0
 31
0.0
  0
LINE
  5
1AF12
330
747D
100
AcDbEntity
  8
破線
 48
5.0
100
AcDbLine
 10
8177.829581418174
 20
3140.0
 30
0.0
 11
8177.829581418174
 21
3030.0
 31
0.0
  0
LINE
  5
1AF13
330
747D
100
AcDbEntity
  8
破線
 48
5.0
100
AcDbLine
 10
8072.829581418174
 20
3140.0
 30
0.0
 11
8072.829581418174
 21
2939.999999999999
 31
0.0
  0
LINE
  5
1AF14
330
747D
100
AcDbEntity
  8
破線
 48
5.0
100
AcDbLine
 10
8272.829581418175
 20
3140.0
 30
0.0
 11
8272.829581418175
 21
2939.999999999999
 31
0.0
  0
LINE
  5
1AF15
330
747D
100
AcDbEntity
  8
破線
 48
5.0
100
AcDbLine
 10
8272.829581418175
 20
2939.999999999999
 30
0.0
 11
8072.829581418174
 21
2939.999999999999
 31
0.0
  0
LINE
  5
1AF16
330
747D
100
AcDbEntity
  8
破線
 48
5.0
100
AcDbLine
 10
8197.829581418174
 20
3030.0
 30
0.0
 11
8177.829581418173
 21
3030.0
 31
0.0
  0
LINE
  5
1AF17
330
747D
100
AcDbEntity
  8
部品1
 62
     2
 48
50.0
100
AcDbLine
 10
8066.329581418175
 20
3332.999999999999
 30
0.0
 11
8072.329581418175
 21
3323.999999999999
 31
0.0
  0
LINE
  5
1AF18
330
747D
100
AcDbEntity
  8
部品1
 62
     2
 48
50.0
100
AcDbLine
 10
8092.829581418175
 20
3323.999999999999
 30
0.0
 11
8092.829581418175
 21
3275.0
 31
0.0
  0
LINE
  5
1AF19
330
747D
100
AcDbEntity
  8
部品1
100
AcDbLine
 10
8177.829581418174
 20
3314.999999999999
 30
0.0
 11
8177.829581418174
 21
3140.0
 31
0.0
  0
DIMENSION
  5
1AF1A
330
747D
100
AcDbEntity
  8
寸法
 48
50.0
100
AcDbDimension
  2
*D23
 10
8227.829581418175
 20
6238.281130716521
 30
0.0
 11
8542.888636536288
 21
6238.281130716521
 31
0.0
 12
7999.030640889448
 22
1269.471773623157
 32
0.0
 70
   160
 71
     5
 42
-1.0
  3
INABA_S50G
100
AcDbAlignedDimension
 13
8172.829581418174
 23
5545.000000008446
 33
0.0
 14
8227.829581418175
 24
5509.000002624809
 34
0.0
100
AcDbRotatedDimension
1001
ACAD
1000
DSTYLE
1002
{
1002
}
  0
LINE
  5
1AF1B
330
747D
100
AcDbEntity
  8
細線
 48
50.0
100
AcDbLine
 10
8189.82957704835
 20
5410.000001569558
 30
0.0
 11
8189.82957704835
 21
5545.0
 31
0.0
  0
ARC
  5
1AF1C
330
747D
100
AcDbEntity
  8
部品1
100
AcDbCircle
 10
8212.329581418178
 20
5509.000002624809
 30
0.0
 40
15.5
100
AcDbArc
 50
356.0206219081619
 51
89.99999999999968
  0
LINE
  5
1AF24
330
747D
100
AcDbEntity
  8
部品1
100
AcDbLine
 10
8227.792212350523
 20
5507.92434252513
 30
0.0
 11
8222.521832666501
 21
5432.162551275553
 31
0.0
  0
ARC
  5
1AF25
330
747D
100
AcDbEntity
  8
部品1
100
AcDbCircle
 10
8221.770904751421
 20
5428.572828826122
 30
0.0
 40
2.5
100
AcDbArc
 50
96.92609190592689
 51
176.0206219081971
  0
ARC
  5
1AF26
330
747D
100
AcDbEntity
  8
部品1
100
AcDbCircle
 10
8221.324725755611
 20
5432.245828186495
 30
0.0
 40
1.199999999999999
100
AcDbArc
 50
269.9999999999997
 51
356.0206219081619
  0
ARC
  5
1AF27
330
747D
100
AcDbEntity
  8
部品1
100
AcDbCircle
 10
8203.513641876282
 20
5425.50000156956
 30
0.0
 40
15.5
100
AcDbArc
 50
270.0
 51
356.0206219081603
  0
LINE
  5
1AF28
330
747D
100
AcDbEntity
  8
部品1
100
AcDbLine
 10
8219.276932020397
 20
5428.746322390583
 30
0.0
 11
8218.976272808632
 21
5424.424341469881
 31
0.0
  0
ARC
  5
1AF29
330
747D
100
AcDbEntity
  8
部品1
100
AcDbCircle
 10
8210.22944549939
 20
5526.000002624811
 30
0.0
 40
1.5
100
AcDbArc
 50
202.5000043608516
 51
269.9999999999997
  0
ARC
  5
1AF2A
330
747D
100
AcDbEntity
  8
部品1
100
AcDbCircle
 10
8198.397173808629
 20
5541.500000016893
 30
0.0
 40
3.5
100
AcDbArc
 50
22.50000436084501
 51
90.0
  0
LINE
  5
1AF2B
330
747D
100
AcDbEntity
  8
部品1
100
AcDbLine
 10
8208.843626244314
 20
5525.425977370787
 30
0.0
 11
8201.630752070476
 21
5542.839392276281
 31
0.0
  0
LINE
  5
1B230
330
747D
100
AcDbEntity
  8
細線
 48
50.0
100
AcDbLine
 10
6945.329581418164
 20
9292.236797361971
 30
0.0
 11
6945.329581418164
 21
10469.73679736197
 31
0.0
  0
LINE
  5
1B231
330
747D
100
AcDbEntity
  8
細線
 48
50.0
100
AcDbLine
 10
7525.329581418164
 20
9287.73679736197
 30
0.0
 11
7525.329581418164
 21
10469.73679736197
 31
0.0
  0
DIMENSION
  5
1B46C
330
747D
100
AcDbEntity
  8
寸法
 48
50.0
100
AcDbDimension
  2
*D24
 10
14989.66471641205
 20
3140.0
 30
0.0
 11
14989.66471641205
 21
2653.036417322836
 31
0.0
 12
682.9525635029495
 22
8362.864145251402
 32
0.0
 70
   160
 71
     5
 42
-1.0
  3
INABA_S50G
100
AcDbAlignedDimension
 13
14591.32958141817
 23
2940.000000000002
 33
0.0
 14
14591.32958141817
 24
3140.0
 34
0.0
 50
90.0
100
AcDbRotatedDimension
  0
DIMENSION
  5
1B46D
330
747D
100
AcDbEntity
  8
寸法
 48
50.0
100
AcDbDimension
  2
*D25
 10
14391.32958141817
 20
2653.952670699625
 30
0.0
 11
14104.365998741
 21
2653.952670699625
 31
0.0
 12
682.9525635029495
 22
8362.864145251402
 32
0.0
 70
   160
 71
     5
 42
-1.0
  3
INABA_S50G
100
AcDbAlignedDimension
 13
14591.32958141817
 23
2940.000000000002
 33
0.0
 14
14391.32958141817
 24
2940.000000000002
 34
0.0
100
AcDbRotatedDimension
  0
LINE
  5
1B473
330
747D
100
AcDbEntity
  8
部品1
 48
50.0
100
AcDbLine
 10
13295.32958141817
 20
3275.0
 30
0.0
 11
14470.32958141817
 21
3275.0
 31
0.0
  0
LINE
  5
1B474
330
747D
100
AcDbEntity
  8
細線
 48
50.0
100
AcDbLine
 10
14618.38919924369
 20
5380.746404000587
 30
0.0
 11
13101.46376912036
 21
5432.315572311723
 31
0.0
  0
LINE
  5
1B475
330
747D
100
AcDbEntity
  8
部品1
 48
50.0
100
AcDbLine
 10
14600.11846310262
 20
5360.921243435219
 30
0.0
 11
13118.8404644795
 21
5412.160340619768
 31
0.0
  0
LINE
  5
1B476
330
747D
100
AcDbEntity
  8
細線
 48
50.0
100
AcDbLine
 10
14609.73767084558
 20
5476.025833613869
 30
0.0
 11
13116.02062901199
 21
5526.929326860823
 31
0.0
  0
LINE
  5
1B477
330
747D
100
AcDbEntity
  8
部品1
 48
50.0
100
AcDbLine
 10
13127.34578971423
 20
5544.466629415619
 30
0.0
 11
14602.50261261331
 21
5486.367362182471
 31
0.0
  0
DIMENSION
  5
1B478
330
747D
100
AcDbEntity
  8
寸法
 48
50.0
100
AcDbDimension
  2
*D26
 10
14627.82958141817
 20
6506.068854554546
 30
0.0
 11
13862.82958141817
 21
6606.068854554546
 31
0.0
 12
682.9525635029495
 22
8362.864145251402
 32
0.0
 70
    32
 71
     5
 42
-1.0
  3
INABA_S50G
100
AcDbAlignedDimension
 13
13097.82958141817
 23
5545.0
 33
0.0
 14
14627.82958141817
 24
5485.0
 34
0.0
100
AcDbRotatedDimension
  0
DIMENSION
  5
1B479
330
747D
100
AcDbEntity
  8
寸法
 48
50.0
100
AcDbDimension
  2
*D27
 10
14532.82958141817
 20
6238.281130716521
 30
0.0
 11
13882.82958141817
 21
6338.281130716521
 31
0.0
 70
    32
  1
柱外寸法 <>
 71
     5
 42
-1.0
  3
INABA_S50G
100
AcDbAlignedDimension
 13
13232.82958141817
 23
5541.484603453081
 33
0.0
 14
14532.82958141817
 24
5488.33701822684
 34
0.0
100
AcDbRotatedDimension
1001
ACAD
1000
DSTYLE
1002
{
1070
   287
1070
     4
1070
    75
1070
     1
1070
   279
1070
     1
1002
}
  0
LINE
  5
1B47A
330
747D
100
AcDbEntity
  8
部品1
 48
50.0
100
AcDbLine
 10
13232.82958141817
 20
5275.0
 30
0.0
 11
14532.82958141817
 21
5275.0
 31
0.0
  0
LINE
  5
1B47B
330
747D
100
AcDbEntity
  8
部品1
 48
50.0
100
AcDbLine
 10
13302.82958141817
 20
3330.0
 30
0.0
 11
14462.82958141817
 21
3330.0
 31
0.0
  0
DIMENSION
  5
1B47C
330
747D
100
AcDbEntity
  8
寸法
 48
50.0
100
AcDbDimension
  2
*D28
 10
12818.94130116352
 20
5150.5
 30
0.0
 11
12718.94130116352
 21
4251.5
 31
0.0
 12
682.9525635029495
 22
8362.864145251402
 32
0.0
 70
    32
  1
有効開口部高サ <>
 71
     5
 42
-1.0
  3
INABA_S50G
100
AcDbAlignedDimension
 13
13164.82958141817
 23
3352.5
 33
0.0
 14
13164.82958141817
 24
5150.5
 34
0.0
 50
90.0
100
AcDbRotatedDimension
  0
DIMENSION
  5
1B47D
330
747D
100
AcDbEntity
  8
寸法
 48
50.0
100
AcDbDimension
  2
*D29
 10
12506.70986552558
 20
5275.0
 30
0.0
 11
12406.70986552558
 21
4302.500000000001
 31
0.0
 70
    32
 71
     5
 42
-1.0
  3
INABA_S50G
100
AcDbAlignedDimension
 13
13164.82958141817
 23
3330.0
 33
0.0
 14
13232.82958141817
 24
5275.0
 34
0.0
 50
90.0
100
AcDbRotatedDimension
1001
ACAD
1000
DSTYLE
1002
{
1070
   287
1070
     4
1070
    75
1070
     1
1070
   279
1070
     1
1002
}
  0
LINE
  5
1B47E
330
747D
100
AcDbEntity
  8
部品1
 62
     2
 48
50.0
100
AcDbLine
 10
13164.82958141817
 20
3275.0
 30
0.0
 11
13164.82958141817
 21
5180.0
 31
0.0
  0
LINE
  5
1B47F
330
747D
100
AcDbEntity
  8
部品1
 48
50.0
100
AcDbLine
 10
13232.82958141817
 20
5408.217326920631
 30
0.0
 11
13232.82958141817
 21
3140.0
 31
0.0
  0
DIMENSION
  5
1B480
330
747D
100
AcDbEntity
  8
寸法
 48
50.0
100
AcDbDimension
  2
*D30
 10
12198.66366111978
 20
3275.0
 30
0.0
 11
12098.64889734025
 21
4410.0
 31
0.0
 12
682.9525635029495
 22
8362.864145251402
 32
0.0
 70
    32
 71
     5
 42
-1.0
  3
INABA_S50G
100
AcDbAlignedDimension
 13
13097.82958141817
 23
5545.0
 33
0.0
 14
13164.82958141817
 24
3275.0
 34
0.0
 50
90.0
100
AcDbRotatedDimension
  0
LINE
  5
1B481
330
747D
100
AcDbEntity
  8
部品1
 48
50.0
100
AcDbLine
 10
13302.82958141817
 20
5275.0
 30
0.0
 11
13302.82958141817
 21
3275.0
 31
0.0
  0
DIMENSION
  5
1B482
330
747D
100
AcDbEntity
  8
寸法
 48
50.0
100
AcDbDimension
  2
*D31
 10
12506.70986552558
 20
3330.0
 30
0.0
 11
12506.70986552558
 21
2964.420494177466
 31
0.0
 12
682.9525635029495
 22
8362.864145251402
 32
0.0
 70
   160
 71
     5
 42
-1.0
  3
INABA_S50G
100
AcDbAlignedDimension
 13
13164.82958141817
 23
3275.0
 33
0.0
 14
13164.82958141817
 24
3330.0
 34
0.0
 50
90.0
100
AcDbRotatedDimension
  0
LINE
  5
1B483
330
747D
100
AcDbEntity
  8
破線
 48
5.0
100
AcDbLine
 10
13374.32958141817
 20
2940.000000000002
 30
0.0
 11
13174.32958141817
 21
2940.000000000002
 31
0.0
  0
LINE
  5
1B484
330
747D
100
AcDbEntity
  8
破線
 48
5.0
100
AcDbLine
 10
13253.32958141817
 20
3140.0
 30
0.0
 11
13253.32958141817
 21
3030.0
 31
0.0
  0
LINE
  5
1B485
330
747D
100
AcDbEntity
  8
破線
 48
5.0
100
AcDbLine
 10
13295.32958141817
 20
3140.0
 30
0.0
 11
13295.32958141817
 21
3030.0
 31
0.0
  0
LINE
  5
1B486
330
747D
100
AcDbEntity
  8
破線
 48
5.0
100
AcDbLine
 10
13174.32958141817
 20
3140.000000000004
 30
0.0
 11
13174.32958141817
 21
2940.000000000002
 31
0.0
  0
LINE
  5
1B487
330
747D
100
AcDbEntity
  8
破線
 48
5.0
100
AcDbLine
 10
13253.32958141817
 20
3030.0
 30
0.0
 11
13295.32958141817
 21
3030.0
 31
0.0
  0
LINE
  5
1B488
330
747D
100
AcDbEntity
  8
部品1
 48
50.0
100
AcDbLine
 10
13232.82958141817
 20
3275.0
 30
0.0
 11
13164.82958141817
 21
3275.0
 31
0.0
  0
LINE
  5
1B489
330
747D
100
AcDbEntity
  8
部品1
 48
50.0
100
AcDbLine
 10
13164.82958141817
 20
3275.0
 30
0.0
 11
13164.82958141817
 21
3140.0
 31
0.0
  0
ARC
  5
1B48A
330
747D
100
AcDbEntity
  8
部品1
 48
50.0
100
AcDbCircle
 10
13290.32958141817
 20
3310.0
 30
0.0
 40
5.0
100
AcDbArc
 50
359.9999999999993
 51
90.0
  0
LINE
  5
1B48B
330
747D
100
AcDbEntity
  8
部品1
 48
50.0
100
AcDbLine
 10
13295.32958141817
 20
3310.0
 30
0.0
 11
13295.32958141817
 21
3140.0
 31
0.0
  0
ARC
  5
1B48C
330
747D
100
AcDbEntity
  8
部品1
 48
50.0
100
AcDbCircle
 10
13258.32958141817
 20
3310.000000000001
 30
0.0
 40
5.0
100
AcDbArc
 50
90.0
 51
179.9999999999993
  0
LINE
  5
1B48D
330
747D
100
AcDbEntity
  8
部品1
 48
50.0
100
AcDbLine
 10
13253.32958141817
 20
3310.000000000001
 30
0.0
 11
13253.32958141817
 21
3140.0
 31
0.0
  0
LINE
  5
1B48E
330
747D
100
AcDbEntity
  8
部品1
 48
50.0
100
AcDbLine
 10
13232.82958141817
 20
3275.0
 30
0.0
 11
13253.32958141817
 21
3275.0
 31
0.0
  0
LINE
  5
1B48F
330
747D
100
AcDbEntity
  8
部品1
 48
50.0
100
AcDbLine
 10
13258.32958141817
 20
3315.000000000002
 30
0.0
 11
13290.32958141817
 21
3315.0
 31
0.0
  0
LINE
  5
1B490
330
747D
100
AcDbEntity
  8
破線
 48
5.0
100
AcDbLine
 10
13374.32958141817
 20
3140.000000000004
 30
0.0
 11
13374.32958141817
 21
2940.000000000002
 31
0.0
  0
LINE
  5
1B491
330
747D
100
AcDbEntity
  8
部品1
 48
50.0
100
AcDbLine
 10
13432.82958141817
 20
3275.0
 30
0.0
 11
13432.82958141817
 21
3140.0
 31
0.0
  0
DIMENSION
  5
1B492
330
747D
100
AcDbEntity
  8
寸法
 48
50.0
100
AcDbDimension
  2
*D32
 10
13232.82958141817
 20
6238.281130716521
 30
0.0
 11
12824.72297970037
 21
6238.281130716521
 31
0.0
 12
682.9525635029495
 22
8362.864145251402
 32
0.0
 70
   160
 71
     5
 42
-1.0
  3
INABA_S50G
100
AcDbAlignedDimension
 13
13097.82958141817
 23
5545.0
 33
0.0
 14
13232.82958141817
 24
5541.484603453081
 34
0.0
100
AcDbRotatedDimension
  0
DIMENSION
  5
1B493
330
747D
100
AcDbEntity
  8
寸法
 48
50.0
100
AcDbDimension
  2
*D33
 10
12503.41451497237
 20
5548.51740774913
 30
0.0
 11
12512.33738029425
 21
5806.469729554463
 31
0.0
 12
-114.5675769670251
 22
3.963023291958961
 32
0.0
 70
   160
 71
     5
 42
-1.0
  3
INABA_S50G
100
AcDbAlignedDimension
 13
13118.26200445114
 23
5412.180350212589
 33
0.0
 14
13122.23760796219
 24
5527.11161043679
 34
0.0
 50
88.01886349301719
100
AcDbRotatedDimension
  0
LINE
  5
1B494
330
747D
100
AcDbEntity
  8
部品1
 62
     2
 48
50.0
100
AcDbLine
 10
13164.82958141817
 20
5180.0
 30
0.0
 11
13232.82958141817
 21
5187.0
 31
0.0
  0
ARC
  5
1B495
330
747D
100
AcDbEntity
  8
部品1
100
AcDbCircle
 10
13116.04423830756
 20
5528.429141049702
 30
0.0
 40
1.5
100
AcDbArc
 50
269.0981540988973
 51
335.4038180356238
  0
LINE
  5
1B496
330
747D
100
AcDbEntity
  8
部品1
 48
50.0
100
AcDbLine
 10
13116.02062901199
 20
5526.929326860823
 30
0.0
 11
13113.83301119891
 21
5526.963763203625
 31
0.0
  0
ARC
  5
1B497
330
747D
100
AcDbEntity
  8
部品1
 48
50.0
100
AcDbCircle
 10
13127.28255353197
 20
5540.967200721498
 30
0.0
 40
3.5
100
AcDbArc
 50
88.96475328401214
 51
155.4038180356338
  0
LINE
  5
1B498
330
747D
100
AcDbEntity
  8
部品1
100
AcDbLine
 10
13117.40813407785
 20
5527.804810746245
 30
0.0
 11
13124.10013006798
 21
5542.423971429562
 31
0.0
  0
ARC
  5
1B499
330
747D
100
AcDbEntity
  8
部品1
100
AcDbCircle
 10
13119.08698326884
 20
5427.658380124383
 30
0.0
 40
15.5
100
AcDbArc
 50
181.8832004883684
 51
269.0887044041854
  0
ARC
  5
1B49A
330
747D
100
AcDbEntity
  8
部品1
100
AcDbCircle
 10
13101.00493155814
 20
5429.858039383868
 30
0.0
 40
2.5
100
AcDbArc
 50
1.883200488304429
 51
80.9777304905255
  0
ARC
  5
1B49B
330
747D
100
AcDbEntity
  8
部品1
100
AcDbCircle
 10
13101.58515943173
 20
5433.512260998977
 30
0.0
 40
1.199999999999999
100
AcDbArc
 50
181.8832004883104
 51
260.9777304905277
  0
LINE
  5
1B49C
330
747D
100
AcDbEntity
  8
部品1
100
AcDbLine
 10
13103.5035812939
 20
5429.940194712308
 30
0.0
 11
13103.59535490714
 21
5427.149017088035
 31
0.0
  0
LINE
  5
1B49D
330
747D
100
AcDbEntity
  8
部品1
100
AcDbLine
 10
13097.83795305646
 20
5510.962577858223
 30
0.0
 11
13100.38580755856
 21
5433.472826441324
 31
0.0
  0
LINE
  5
1B49E
330
747D
100
AcDbEntity
  8
細線
 48
50.0
100
AcDbLine
 10
13136.42120392672
 20
5544.109192899448
 30
0.0
 11
13132.11840434076
 21
5411.701041520212
 31
0.0
  0
ARC
  5
1B49F
330
747D
100
AcDbEntity
  8
部品1
100
AcDbCircle
 10
13113.32958141817
 20
5511.471940894553
 30
0.0
 40
15.5
100
AcDbArc
 50
88.13874351680366
 51
181.8832004883104
  0
LINE
  5
1B4A0
330
747D
100
AcDbEntity
  8
部品1
 48
50.0
100
AcDbLine
 10
14532.82958141817
 20
5363.248842678086
 30
0.0
 11
14532.82958141817
 21
3140.0
 31
0.0
  0
LINE
  5
1B4A1
330
747D
100
AcDbEntity
  8
細線
 48
5.0
100
AcDbLine
 10
14571.82958141817
 20
5232.0
 30
0.0
 11
14571.82958141816
 21
4307.5
 31
0.0
  0
LINE
  5
1B4A2
330
747D
100
AcDbEntity
  8
細線
 48
5.0
100
AcDbLine
 10
14558.82958141817
 20
5232.0
 30
0.0
 11
14558.82958141816
 21
4307.5
 31
0.0
  0
LINE
  5
1B4A3
330
747D
100
AcDbEntity
  8
細線
 48
5.0
100
AcDbLine
 10
14595.82958141817
 20
5232.0
 30
0.0
 11
14595.82958141816
 21
4307.5
 31
0.0
  0
LINE
  5
1B4A4
330
747D
100
AcDbEntity
  8
細線
 48
5.0
100
AcDbLine
 10
14608.82958141817
 20
5232.0
 30
0.0
 11
14608.82958141816
 21
4307.500000000001
 31
0.0
  0
DIMENSION
  5
1B4A5
330
747D
100
AcDbEntity
  8
寸法
 48
50.0
100
AcDbDimension
  2
*D34
 10
15192.32033483959
 20
5485.0
 30
0.0
 11
15092.30557106006
 21
4380.0
 31
0.0
 12
682.9525635029495
 22
8362.864145251402
 32
0.0
 70
    32
 71
     5
 42
-1.0
  3
INABA_S50G
100
AcDbAlignedDimension
 13
14532.82958141817
 23
3275.0
 33
0.0
 14
14627.82958141817
 24
5485.0
 34
0.0
 50
90.0
100
AcDbRotatedDimension
  0
LINE
  5
1B4A6
330
747D
100
AcDbEntity
  8
部品1
 48
50.0
100
AcDbLine
 10
14462.82958141817
 20
5275.0
 30
0.0
 11
14462.82958141817
 21
3275.0
 31
0.0
  0
LINE
  5
1B4A7
330
747D
100
AcDbEntity
  8
部品1
 48
50.0
100
AcDbLine
 10
13882.82958141817
 20
5275.0
 30
0.0
 11
13882.82958141817
 21
3330.0
 31
0.0
  0
LINE
  5
1B4A8
330
747D
100
AcDbEntity
  8
細線
 48
5.0
100
AcDbLine
 10
14558.82958141816
 20
4287.5
 30
0.0
 11
14558.82958141816
 21
3363.0
 31
0.0
  0
LINE
  5
1B4A9
330
747D
100
AcDbEntity
  8
細線
 48
5.0
100
AcDbLine
 10
14571.82958141816
 20
4287.5
 30
0.0
 11
14571.82958141816
 21
3363.0
 31
0.0
  0
LINE
  5
1B4AA
330
747D
100
AcDbEntity
  8
細線
 48
5.0
100
AcDbLine
 10
14595.82958141816
 20
4287.5
 30
0.0
 11
14595.82958141816
 21
3363.0
 31
0.0
  0
LINE
  5
1B4AB
330
747D
100
AcDbEntity
  8
細線
 48
5.0
100
AcDbLine
 10
14608.82958141816
 20
4287.5
 30
0.0
 11
14608.82958141816
 21
3363.0
 31
0.0
  0
LINE
  5
1B4AC
330
747D
100
AcDbEntity
  8
細線
 48
5.0
100
AcDbLine
 10
14554.04554596898
 20
3343.0
 30
0.0
 11
14610.02958141817
 21
3342.999999999998
 31
0.0
  0
LINE
  5
1B4AD
330
747D
100
AcDbEntity
  8
細線
 48
5.0
100
AcDbLine
 10
14610.62958141816
 20
3270.0
 30
0.0
 11
14593.32958141816
 21
3270.0
 31
0.0
  0
LINE
  5
1B4AE
330
747D
100
AcDbEntity
  8
細線
 48
5.0
100
AcDbLine
 10
14579.08898616785
 20
3199.207328411627
 30
0.0
 11
14630.11351121807
 21
3190.210327967439
 31
0.0
  0
LINE
  5
1B4AF
330
747D
100
AcDbEntity
  8
細線
 48
5.0
100
AcDbLine
 10
14532.82958141817
 20
3363.0
 30
0.0
 11
14610.02958141817
 21
3363.0
 31
0.0
  0
LINE
  5
1B4B0
330
747D
100
AcDbEntity
  8
破線
 48
5.0
100
AcDbLine
 10
14591.32958141817
 20
3140.000000000004
 30
0.0
 11
14591.32958141817
 21
2940.000000000002
 31
0.0
  0
LINE
  5
1B4B1
330
747D
100
AcDbEntity
  8
破線
 48
5.0
100
AcDbLine
 10
14512.32958141817
 20
3140.0
 30
0.0
 11
14512.32958141817
 21
3030.0
 31
0.0
  0
LINE
  5
1B4B2
330
747D
100
AcDbEntity
  8
破線
 48
5.0
100
AcDbLine
 10
14470.32958141817
 20
3140.0
 30
0.0
 11
14470.32958141817
 21
3030.0
 31
0.0
  0
LINE
  5
1B4B3
330
747D
100
AcDbEntity
  8
破線
 48
5.0
100
AcDbLine
 10
14391.32958141817
 20
3140.000000000004
 30
0.0
 11
14391.32958141817
 21
2940.000000000002
 31
0.0
  0
LINE
  5
1B4B4
330
747D
100
AcDbEntity
  8
破線
 48
5.0
100
AcDbLine
 10
14391.32958141817
 20
2940.000000000002
 30
0.0
 11
14591.32958141817
 21
2940.000000000002
 31
0.0
  0
LINE
  5
1B4B5
330
747D
100
AcDbEntity
  8
破線
 48
5.0
100
AcDbLine
 10
14512.32958141817
 20
3030.0
 30
0.0
 11
14470.32958141817
 21
3030.0
 31
0.0
  0
LINE
  5
1B4B6
330
747D
100
AcDbEntity
  8
部品1
 48
50.0
100
AcDbLine
 10
14332.82958141817
 20
3275.0
 30
0.0
 11
14332.82958141817
 21
3140.0
 31
0.0
  0
LINE
  5
1B4B7
330
747D
100
AcDbEntity
  8
細線
 48
5.0
100
AcDbLine
 10
14557.62958141816
 20
3343.0
 30
0.0
 11
14557.62958141816
 21
3363.0
 31
0.0
  0
LINE
  5
1B4B8
330
747D
100
AcDbEntity
  8
細線
 48
5.0
100
AcDbLine
 10
14558.82958141816
 20
3343.0
 30
0.0
 11
14558.82958141816
 21
3270.0
 31
0.0
  0
LINE
  5
1B4B9
330
747D
100
AcDbEntity
  8
細線
 48
5.0
100
AcDbLine
 10
14595.82958141816
 20
3343.0
 30
0.0
 11
14595.82958141816
 21
3270.0
 31
0.0
  0
LINE
  5
1B4BA
330
747D
100
AcDbEntity
  8
細線
 48
5.0
100
AcDbLine
 10
14571.82958141816
 20
3343.0
 30
0.0
 11
14571.82958141816
 21
3270.0
 31
0.0
  0
ARC
  5
1B4BB
330
747D
100
AcDbEntity
  8
細線
 48
5.0
100
AcDbCircle
 10
14593.32958141816
 20
3269.5
 30
0.0
 40
0.5
100
AcDbArc
 50
90.0
 51
180.0000000000001
  0
LINE
  5
1B4BC
330
747D
100
AcDbEntity
  8
細線
 48
5.0
100
AcDbLine
 10
14593.32958141816
 20
3270.0
 30
0.0
 11
14574.32958141816
 21
3270.0
 31
0.0
  0
LINE
  5
1B4BD
330
747D
100
AcDbEntity
  8
細線
 48
5.0
100
AcDbLine
 10
14574.82958141816
 20
3269.5
 30
0.0
 11
14574.82958141816
 21
3219.550400232094
 31
0.0
  0
LINE
  5
1B4BE
330
747D
100
AcDbEntity
  8
細線
 48
5.0
100
AcDbLine
 10
14556.52958141816
 20
3269.5
 30
0.0
 11
14556.52958141816
 21
3226.09258006886
 31
0.0
  0
LINE
  5
1B4BF
330
747D
100
AcDbEntity
  8
細線
 48
5.0
100
AcDbLine
 10
14574.32958141816
 20
3270.0
 30
0.0
 11
14557.02958141816
 21
3270.0
 31
0.0
  0
ARC
  5
1B4C0
330
747D
100
AcDbEntity
  8
細線
 48
5.0
100
AcDbCircle
 10
14557.02958141816
 20
3269.5
 30
0.0
 40
0.5
100
AcDbArc
 50
90.0
 51
180.0
  0
ARC
  5
1B4C1
330
747D
100
AcDbEntity
  8
細線
 48
5.0
100
AcDbCircle
 10
14574.32958141816
 20
3269.5
 30
0.0
 40
0.5
100
AcDbArc
 50
359.9999999999998
 51
90.0
  0
LINE
  5
1B4C2
330
747D
100
AcDbEntity
  8
細線
 48
5.0
100
AcDbLine
 10
14592.82958141816
 20
3269.5
 30
0.0
 11
14592.82958141816
 21
3216.376514579342
 31
0.0
  0
LINE
  5
1B4C3
330
747D
100
AcDbEntity
  8
部品1
 48
50.0
100
AcDbLine
 10
14512.32958141817
 20
3275.0
 30
0.0
 11
14532.82958141817
 21
3275.0
 31
0.0
  0
ARC
  5
1B4C4
330
747D
100
AcDbEntity
  8
部品1
 48
50.0
100
AcDbCircle
 10
14475.32958141817
 20
3310.0
 30
0.0
 40
5.0
100
AcDbArc
 50
90.0
 51
180.0000000000006
  0
LINE
  5
1B4C5
330
747D
100
AcDbEntity
  8
部品1
 48
50.0
100
AcDbLine
 10
14507.32958141817
 20
3315.000000000002
 30
0.0
 11
14475.32958141817
 21
3315.0
 31
0.0
  0
ARC
  5
1B4C6
330
747D
100
AcDbEntity
  8
部品1
 48
50.0
100
AcDbCircle
 10
14507.32958141817
 20
3310.000000000001
 30
0.0
 40
5.0
100
AcDbArc
 50
0.0000000000006177
 51
90.0
  0
LINE
  5
1B4C7
330
747D
100
AcDbEntity
  8
部品1
 48
50.0
100
AcDbLine
 10
14470.32958141817
 20
3310.0
 30
0.0
 11
14470.32958141817
 21
3140.0
 31
0.0
  0
LINE
  5
1B4C8
330
747D
100
AcDbEntity
  8
部品1
 48
50.0
100
AcDbLine
 10
14512.32958141817
 20
3310.000000000001
 30
0.0
 11
14512.32958141817
 21
3140.0
 31
0.0
  0
LINE
  5
1B4C9
330
747D
100
AcDbEntity
  8
細線
 48
5.0
100
AcDbLine
 10
14532.82958141817
 20
3323.6
 30
0.0
 11
14551.9567721806
 21
3342.153375039561
 31
0.0
  0
ARC
  5
1B4CA
330
747D
100
AcDbEntity
  8
細線
 48
5.0
100
AcDbCircle
 10
14554.04554596898
 20
3340.0
 30
0.0
 40
3.0
100
AcDbArc
 50
89.99999999999909
 51
134.1275428770974
  0
ARC
  5
1B4CB
330
747D
100
AcDbEntity
  8
細線
 48
5.0
100
AcDbCircle
 10
14583.82958141816
 20
3226.09258006886
 30
0.0
 40
27.3
100
AcDbArc
 50
180.0
 51
260.0
  0
LINE
  5
1B4CC
330
747D
100
AcDbEntity
  8
細線
 48
5.0
100
AcDbLine
 10
14610.02958141817
 20
3343.0
 30
0.0
 11
14610.02958141817
 21
3363.0
 31
0.0
  0
LINE
  5
1B4CD
330
747D
100
AcDbEntity
  8
細線
 48
5.0
100
AcDbLine
 10
14608.82958141816
 20
3343.0
 30
0.0
 11
14608.82958141816
 21
3270.0
 31
0.0
  0
LINE
  5
1B4CE
330
747D
100
AcDbEntity
  8
細線
 48
5.0
100
AcDbLine
 10
14611.12958141816
 20
3269.5
 30
0.0
 11
14611.12958141816
 21
3249.0
 31
0.0
  0
LINE
  5
1B4CF
330
747D
100
AcDbEntity
  8
細線
 48
5.0
100
AcDbLine
 10
14611.12958141816
 20
3249.0
 30
0.0
 11
14634.85103067395
 21
3244.817268474697
 31
0.0
  0
LINE
  5
1B4D0
330
747D
100
AcDbEntity
  8
細線
 48
5.0
100
AcDbLine
 10
14611.12958141816
 20
3249.0
 30
0.0
 11
14606.38898616785
 21
3222.114748342766
 31
0.0
  0
ARC
  5
1B4D1
330
747D
100
AcDbEntity
  8
細線
 48
5.0
100
AcDbCircle
 10
14634.67738249629
 20
3243.832460721685
 30
0.0
 40
1.0
100
AcDbArc
 50
355.2322728781318
 51
79.9999999999998
  0
ARC
  5
1B4D2
330
747D
100
AcDbEntity
  8
細線
 48
5.0
100
AcDbCircle
 10
14610.62958141816
 20
3269.5
 30
0.0
 40
0.5
100
AcDbArc
 50
0.0000000000001527
 51
90.0
  0
ARC
  5
1B4D3
330
747D
100
AcDbEntity
  8
細線
 48
5.0
100
AcDbCircle
 10
14630.28715939573
 20
3191.195135720452
 30
0.0
 40
1.0
100
AcDbArc
 50
260.0
 51
355.2322728781318
  0
LINE
  5
1B4D4
330
747D
100
AcDbEntity
  8
細線
 48
5.0
100
AcDbLine
 10
14635.6739223305
 20
3243.74934418412
 30
0.0
 11
14631.28369922995
 21
3191.112019182886
 31
0.0
  0
LINE
  5
1B4D5
330
747D
100
AcDbEntity
  8
細線
 48
5.0
100
AcDbLine
 10
14557.62958141816
 20
4287.5
 30
0.0
 11
14610.02958141817
 21
4287.5
 31
0.0
  0
LINE
  5
1B4D6
330
747D
100
AcDbEntity
  8
細線
 48
5.0
100
AcDbLine
 10
14557.62958141816
 20
4307.5
 30
0.0
 11
14610.02958141817
 21
4307.500000000001
 31
0.0
  0
LINE
  5
1B4D7
330
747D
100
AcDbEntity
  8
細線
 48
5.0
100
AcDbLine
 10
14557.62958141816
 20
4307.5
 30
0.0
 11
14557.62958141816
 21
4287.5
 31
0.0
  0
LINE
  5
1B4D8
330
747D
100
AcDbEntity
  8
細線
 48
5.0
100
AcDbLine
 10
14557.62958141816
 20
4287.5
 30
0.0
 11
14532.82958141817
 21
4267.5
 31
0.0
  0
LINE
  5
1B4D9
330
747D
100
AcDbEntity
  8
細線
 48
5.0
100
AcDbLine
 10
14557.62958141816
 20
4307.5
 30
0.0
 11
14532.82958141817
 21
4327.499999999999
 31
0.0
  0
LINE
  5
1B4DA
330
747D
100
AcDbEntity
  8
細線
 48
5.0
100
AcDbLine
 10
14610.02958141817
 20
4307.5
 30
0.0
 11
14610.02958141817
 21
4287.5
 31
0.0
  0
DIMENSION
  5
1B4DB
330
747D
100
AcDbEntity
  8
寸法
 48
50.0
100
AcDbDimension
  2
*D35
 10
14627.82958141817
 20
6238.281130716521
 30
0.0
 11
14960.38863653628
 21
6238.281130716521
 31
0.0
 12
682.9525635029495
 22
8362.864145251402
 32
0.0
 70
   160
 71
     5
 42
-1.0
  3
INABA_S50G
100
AcDbAlignedDimension
 13
14532.82958141817
 23
5488.33701822684
 33
0.0
 14
14627.82958141817
 24
5485.0
 34
0.0
100
AcDbRotatedDimension
1001
ACAD
1000
DSTYLE
1002
{
1002
}
  0
LINE
  5
1B4DC
330
747D
100
AcDbEntity
  8
細線
 48
5.0
100
AcDbLine
 10
14554.04554596898
 20
5252.0
 30
0.0
 11
14610.02958141817
 21
5252.0
 31
0.0
  0
ARC
  5
1B4DD
330
747D
100
AcDbEntity
  8
部品1
100
AcDbCircle
 10
14600.36498189196
 20
5376.419282939831
 30
0.0
 40
15.5
100
AcDbArc
 50
269.0887044041854
 51
353.9245361249208
  0
LINE
  5
1B4DE
330
747D
100
AcDbEntity
  8
細線
 48
5.0
100
AcDbLine
 10
14557.02958141817
 20
5286.809238873036
 30
0.0
 11
14610.62958141816
 21
5286.809238873036
 31
0.0
  0
LINE
  5
1B4DF
330
747D
100
AcDbEntity
  8
細線
 48
5.0
100
AcDbLine
 10
14563.82958141817
 20
5310.809238873037
 30
0.0
 11
14603.82958141817
 21
5310.809238873037
 31
0.0
  0
LINE
  5
1B4E0
330
747D
100
AcDbEntity
  8
細線
 48
5.0
100
AcDbLine
 10
14582.52958141817
 20
5330.509238873037
 30
0.0
 11
14602.12958141816
 21
5330.509238873037
 31
0.0
  0
LINE
  5
1B4E1
330
747D
100
AcDbEntity
  8
細線
 48
5.0
100
AcDbLine
 10
14532.82958141817
 20
5232.0
 30
0.0
 11
14610.02958141817
 21
5232.0
 31
0.0
  0
LINE
  5
1B4E2
330
747D
100
AcDbEntity
  8
細線
 48
50.0
100
AcDbLine
 10
14590.47695745481
 20
5486.840994369817
 30
0.0
 11
14586.40042839358
 21
5361.39576591803
 31
0.0
  0
LINE
  5
1B4E3
330
747D
100
AcDbEntity
  8
細線
 48
5.0
100
AcDbLine
 10
14557.62958141817
 20
5252.0
 30
0.0
 11
14557.62958141816
 21
5232.0
 31
0.0
  0
ARC
  5
1B4E4
330
747D
100
AcDbEntity
  8
細線
 48
5.0
100
AcDbCircle
 10
14589.82958141817
 20
5290.809238873037
 30
0.0
 40
3.0
100
AcDbArc
 50
0.0
 51
90.0
  0
LINE
  5
1B4E5
330
747D
100
AcDbEntity
  8
細線
 48
5.0
100
AcDbLine
 10
14556.52958141817
 20
5300.809238873037
 30
0.0
 11
14556.52958141817
 21
5287.309238873036
 31
0.0
  0
LINE
  5
1B4E6
330
747D
100
AcDbEntity
  8
細線
 48
5.0
100
AcDbLine
 10
14558.82958141816
 20
5286.809238873036
 30
0.0
 11
14558.82958141817
 21
5252.0
 31
0.0
  0
ARC
  5
1B4E7
330
747D
100
AcDbEntity
  8
細線
 48
5.0
100
AcDbCircle
 10
14557.02958141817
 20
5287.309238873036
 30
0.0
 40
0.5
100
AcDbArc
 50
180.0
 51
270.0
  0
ARC
  5
1B4E8
330
747D
100
AcDbEntity
  8
細線
 48
5.0
100
AcDbCircle
 10
14577.82958141817
 20
5290.809238873037
 30
0.0
 40
3.0
100
AcDbArc
 50
90.0
 51
180.0
  0
LINE
  5
1B4E9
330
747D
100
AcDbEntity
  8
細線
 48
5.0
100
AcDbLine
 10
14571.82958141817
 20
5286.809238873036
 30
0.0
 11
14571.82958141817
 21
5252.0
 31
0.0
  0
LINE
  5
1B4EA
330
747D
100
AcDbEntity
  8
細線
 48
5.0
100
AcDbLine
 10
14574.82958141817
 20
5290.809238873037
 30
0.0
 11
14574.82958141817
 21
5286.809238873036
 31
0.0
  0
LINE
  5
1B4EB
330
747D
100
AcDbEntity
  8
細線
 48
5.0
100
AcDbLine
 10
14577.82958141817
 20
5293.809238873037
 30
0.0
 11
14589.82958141817
 21
5293.809238873037
 31
0.0
  0
LINE
  5
1B4EC
330
747D
100
AcDbEntity
  8
細線
 48
5.0
100
AcDbLine
 10
14592.82958141817
 20
5290.809238873037
 30
0.0
 11
14592.82958141817
 21
5286.809238873036
 31
0.0
  0
LINE
  5
1B4ED
330
747D
100
AcDbEntity
  8
細線
 48
5.0
100
AcDbLine
 10
14595.82958141816
 20
5286.809238873036
 30
0.0
 11
14595.82958141817
 21
5252.0
 31
0.0
  0
ARC
  5
1B4EE
330
747D
100
AcDbEntity
  8
細線
 48
5.0
100
AcDbCircle
 10
14582.52958141817
 20
5350.509238873037
 30
0.0
 40
20.0
100
AcDbArc
 50
180.0
 51
270.0
  0
LINE
  5
1B4EF
330
747D
100
AcDbEntity
  8
細線
 48
5.0
100
AcDbLine
 10
14553.82958141817
 20
5362.522428701861
 30
0.0
 11
14553.82958141817
 21
5320.809238873036
 31
0.0
  0
LINE
  5
1B4F0
330
747D
100
AcDbEntity
  8
細線
 48
5.0
100
AcDbLine
 10
14553.82958141817
 20
5359.809238873037
 30
0.0
 11
14553.82958141817
 21
5332.809238873037
 31
0.0
  0
LINE
  5
1B4F1
330
747D
100
AcDbEntity
  8
細線
 48
5.0
100
AcDbLine
 10
14553.32958141817
 20
5320.809238873036
 30
0.0
 11
14553.32958141817
 21
5320.809238873036
 31
0.0
  0
LINE
  5
1B4F2
330
747D
100
AcDbEntity
  8
細線
 48
5.0
100
AcDbLine
 10
14552.32958141817
 20
5320.809238873036
 30
0.0
 11
14553.82958141817
 21
5320.809238873036
 31
0.0
  0
LINE
  5
1B4F3
330
747D
100
AcDbEntity
  8
細線
 48
5.0
100
AcDbLine
 10
14562.52958141816
 20
5362.221485768852
 30
0.0
 11
14562.52958141817
 21
5350.509238873037
 31
0.0
  0
LINE
  5
1B4F4
330
747D
100
AcDbEntity
  8
細線
 48
5.0
100
AcDbLine
 10
14532.82958141817
 20
5305.0
 30
0.0
 11
14549.82958141817
 21
5305.0
 31
0.0
  0
LINE
  5
1B4F5
330
747D
100
AcDbEntity
  8
細線
 48
5.0
100
AcDbLine
 10
14551.32958141817
 20
5319.809238873037
 30
0.0
 11
14551.32958141817
 21
5307.555305525544
 31
0.0
  0
ARC
  5
1B4F6
330
747D
100
AcDbEntity
  8
細線
 48
5.0
100
AcDbCircle
 10
14553.32958141817
 20
5307.555305525544
 30
0.0
 40
2.0
100
AcDbArc
 50
179.9999999999999
 51
220.914383220025
  0
LINE
  5
1B4F7
330
747D
100
AcDbEntity
  8
部品1
100
AcDbLine
 10
14532.82958141817
 20
5315.0
 30
0.0
 11
14532.82958141817
 21
5275.0
 31
0.0
  0
ARC
  5
1B4F8
330
747D
100
AcDbEntity
  8
細線
 48
5.0
100
AcDbCircle
 10
14554.04554596898
 20
5255.0
 30
0.0
 40
3.0
100
AcDbArc
 50
225.8724571229025
 51
270.0000000000009
  0
LINE
  5
1B4F9
330
747D
100
AcDbEntity
  8
細線
 48
5.0
100
AcDbLine
 10
14532.82958141817
 20
5271.400000000001
 30
0.0
 11
14551.95677218061
 21
5252.846624960439
 31
0.0
  0
ARC
  5
1B4FA
330
747D
100
AcDbEntity
  8
細線
 48
5.0
100
AcDbCircle
 10
14549.82958141817
 20
5308.0
 30
0.0
 40
3.0
100
AcDbArc
 50
270.0
 51
317.6846849512558
  0
LINE
  5
1B4FB
330
747D
100
AcDbEntity
  8
細線
 48
5.0
100
AcDbLine
 10
14532.82958141817
 20
5360.0
 30
0.0
 11
14553.82958141817
 21
5360.0
 31
0.0
  0
ARC
  5
1B4FC
330
747D
100
AcDbEntity
  8
細線
 48
5.0
100
AcDbCircle
 10
14563.82958141817
 20
5320.809238873036
 30
0.0
 40
10.0
100
AcDbArc
 50
180.0
 51
270.0
  0
LINE
  5
1B4FD
330
747D
100
AcDbEntity
  8
細線
 48
5.0
100
AcDbLine
 10
14556.52958141817
 20
5300.809238873037
 30
0.0
 11
14551.81820325259
 21
5306.245444448709
 31
0.0
  0
ARC
  5
1B4FE
330
747D
100
AcDbEntity
  8
細線
 48
5.0
100
AcDbCircle
 10
14552.32958141817
 20
5319.809238873037
 30
0.0
 40
1.0
100
AcDbArc
 50
90.0
 51
180.0
  0
LINE
  5
1B4FF
330
747D
100
AcDbEntity
  8
部品1
100
AcDbLine
 10
14627.74287520147
 20
5458.848097685026
 30
0.0
 11
14619.54444257119
 21
5381.821266955434
 31
0.0
  0
LINE
  5
1B500
330
747D
100
AcDbEntity
  8
細線
 48
5.0
100
AcDbLine
 10
14610.02958141817
 20
5252.0
 30
0.0
 11
14610.02958141817
 21
5232.0
 31
0.0
  0
ARC
  5
1B501
330
747D
100
AcDbEntity
  8
部品1
 48
50.0
100
AcDbCircle
 10
14618.66272143308
 20
5378.261411925771
 30
0.0
 40
2.5
100
AcDbArc
 50
94.83000612260093
 51
173.9245361249088
  0
ARC
  5
1B502
330
747D
100
AcDbEntity
  8
部品1
 48
50.0
100
AcDbCircle
 10
14618.3511825403
 20
5381.948272855596
 30
0.0
 40
1.199999999999999
100
AcDbArc
 50
274.830006122604
 51
353.924536124901
  0
LINE
  5
1B503
330
747D
100
AcDbEntity
  8
部品1
100
AcDbLine
 10
14616.17676303539
 20
5378.52600755111
 30
0.0
 11
14615.77792395765
 21
5374.778790062708
 31
0.0
  0
LINE
  5
1B504
330
747D
100
AcDbEntity
  8
細線
 48
5.0
100
AcDbLine
 10
14616.32958141817
 20
5319.809238873037
 30
0.0
 11
14616.32958141817
 21
5307.555305525544
 31
0.0
  0
ARC
  5
1B505
330
747D
100
AcDbEntity
  8
細線
 48
5.0
100
AcDbCircle
 10
14603.82958141817
 20
5320.809238873036
 30
0.0
 40
10.0
100
AcDbArc
 50
270.0
 51
0.0
  0
LINE
  5
1B506
330
747D
100
AcDbEntity
  8
細線
 48
5.0
100
AcDbLine
 10
14611.12958141816
 20
5300.809238873037
 30
0.0
 11
14611.12958141816
 21
5287.309238873036
 31
0.0
  0
LINE
  5
1B507
330
747D
100
AcDbEntity
  8
細線
 48
5.0
100
AcDbLine
 10
14608.82958141817
 20
5286.809238873036
 30
0.0
 11
14608.82958141817
 21
5252.0
 31
0.0
  0
ARC
  5
1B508
330
747D
100
AcDbEntity
  8
細線
 48
5.0
100
AcDbCircle
 10
14610.62958141816
 20
5287.309238873036
 30
0.0
 40
0.5
100
AcDbArc
 50
270.0
 51
0.0
  0
ARC
  5
1B509
330
747D
100
AcDbEntity
  8
細線
 48
5.0
100
AcDbCircle
 10
14614.32958141817
 20
5307.555305525544
 30
0.0
 40
2.0
100
AcDbArc
 50
319.0856167799749
 51
359.9999999999999
  0
LINE
  5
1B50A
330
747D
100
AcDbEntity
  8
細線
 48
5.0
100
AcDbLine
 10
14611.12958141816
 20
5300.809238873037
 30
0.0
 11
14615.84095958375
 21
5306.245444448709
 31
0.0
  0
LINE
  5
1B50B
330
747D
100
AcDbEntity
  8
細線
 48
5.0
100
AcDbLine
 10
14613.82958141817
 20
5320.809238873036
 30
0.0
 11
14613.82958141817
 21
5345.809238873036
 31
0.0
  0
LINE
  5
1B50C
330
747D
100
AcDbEntity
  8
細線
 48
5.0
100
AcDbLine
 10
14607.12958141817
 20
5335.509238873037
 30
0.0
 11
14608.82958141817
 21
5335.509238873037
 31
0.0
  0
ARC
  5
1B50D
330
747D
100
AcDbEntity
  8
細線
 48
5.0
100
AcDbCircle
 10
14602.12958141816
 20
5333.009238873037
 30
0.0
 40
2.5
100
AcDbArc
 50
270.0
 51
0.0
  0
ARC
  5
1B50E
330
747D
100
AcDbEntity
  8
細線
 48
5.0
100
AcDbCircle
 10
14607.12958141817
 20
5333.009238873037
 30
0.0
 40
2.5
100
AcDbArc
 50
90.0
 51
180.0
  0
LINE
  5
1B50F
330
747D
100
AcDbEntity
  8
細線
 48
5.0
100
AcDbLine
 10
14604.62958141816
 20
5333.009238873037
 30
0.0
 11
14604.62958141816
 21
5333.009238873037
 31
0.0
  0
ARC
  5
1B510
330
747D
100
AcDbEntity
  8
細線
 48
5.0
100
AcDbCircle
 10
14615.32958141817
 20
5319.809238873037
 30
0.0
 40
1.0
100
AcDbArc
 50
0.0
 51
90.0
  0
LINE
  5
1B511
330
747D
100
AcDbEntity
  8
細線
 48
5.0
100
AcDbLine
 10
14614.32958141817
 20
5320.809238873036
 30
0.0
 11
14614.32958141817
 21
5320.809238873036
 31
0.0
  0
LINE
  5
1B512
330
747D
100
AcDbEntity
  8
細線
 48
5.0
100
AcDbLine
 10
14608.82958141817
 20
5345.809238873036
 30
0.0
 11
14608.82958141817
 21
5345.809238873036
 31
0.0
  0
LINE
  5
1B513
330
747D
100
AcDbEntity
  8
細線
 48
5.0
100
AcDbLine
 10
14608.82958141817
 20
5335.509238873037
 30
0.0
 11
14608.82958141817
 21
5345.809238873036
 31
0.0
  0
LINE
  5
1B514
330
747D
100
AcDbEntity
  8
細線
 48
5.0
100
AcDbLine
 10
14613.82958141817
 20
5320.809238873036
 30
0.0
 11
14615.32958141817
 21
5320.809238873036
 31
0.0
  0
LINE
  5
1B515
330
747D
100
AcDbEntity
  8
細線
 48
5.0
100
AcDbLine
 10
14608.82958141817
 20
5345.809238873036
 30
0.0
 11
14613.82958141817
 21
5345.809238873036
 31
0.0
  0
LINE
  5
1B516
330
747D
100
AcDbEntity
  8
部品1
 48
50.0
100
AcDbLine
 10
14609.73767084558
 20
5476.025833613869
 30
0.0
 11
14612.83301119892
 21
5475.977108374543
 31
0.0
  0
ARC
  5
1B517
330
747D
100
AcDbEntity
  8
部品1
100
AcDbCircle
 10
14609.76128014115
 20
5477.525647802748
 30
0.0
 40
1.5
100
AcDbArc
 50
200.4039185775898
 51
269.0981540988988
  0
ARC
  5
1B518
330
747D
100
AcDbEntity
  8
部品1
100
AcDbCircle
 10
14602.43937643105
 20
5482.867933488349
 30
0.0
 40
3.5
100
AcDbArc
 50
20.40391857757644
 51
88.96475328401214
  0
ARC
  5
1B519
330
747D
100
AcDbEntity
  8
部品1
100
AcDbCircle
 10
14612.32958141817
 20
5460.485286065472
 30
0.0
 40
15.5
100
AcDbArc
 50
353.924536124901
 51
88.13874351680366
  0
LINE
  5
1B51A
330
747D
100
AcDbEntity
  8
部品1
100
AcDbLine
 10
14608.33578614472
 20
5477.055403573377
 30
0.0
 11
14605.71977994811
 21
5484.088160010451
 31
0.0
  0
LINE
  5
1B863
330
747D
100
AcDbEntity
  8
細線
 48
50.0
100
AcDbLine
 10
14591.11960145478
 20
11449.80118073938
 30
0.0
 11
14532.82958141817
 21
11450.72836802431
 31
0.0
  0
LINE
  5
1B864
330
747D
100
AcDbEntity
  8
部品1
 48
50.0
100
AcDbLine
 10
14537.82958141816
 20
11473.73679736197
 30
0.0
 11
14532.82958141816
 21
11473.73679736197
 31
0.0
  0
LINE
  5
1B865
330
747D
100
AcDbEntity
  8
部品1
 48
50.0
100
AcDbLine
 10
14537.82958141816
 20
11493.73679736197
 30
0.0
 11
14504.32958141816
 21
11493.73679736197
 31
0.0
  0
DIMENSION
  5
1B866
330
747D
100
AcDbEntity
  8
寸法
 48
50.0
100
AcDbDimension
  2
*D36
 10
14627.82958141817
 20
12327.01792807848
 30
0.0
 11
14960.38863653627
 21
12327.01792807848
 31
0.0
 70
   160
 71
     5
 42
-1.0
  3
INABA_S50G
100
AcDbAlignedDimension
 13
14532.82958141817
 23
11576.3631811976
 33
0.0
 14
14627.82958141817
 24
11573.73679736197
 34
0.0
100
AcDbRotatedDimension
1001
ACAD
1000
DSTYLE
1002
{
1002
}
  0
DIMENSION
  5
1B867
330
747D
100
AcDbEntity
  8
寸法
 48
50.0
100
AcDbDimension
  2
*D37
 10
14627.82958141817
 20
12643.17369887015
 30
0.0
 11
13862.82958141817
 21
12743.17369887015
 31
0.0
 70
    32
 71
     5
 42
-1.0
  3
INABA_S50G
100
AcDbAlignedDimension
 13
13097.82958141817
 23
11633.73679736197
 33
0.0
 14
14627.82958141817
 24
11573.73679736197
 34
0.0
100
AcDbRotatedDimension
  0
LINE
  5
1B868
330
747D
100
AcDbEntity
  8
部品1
 48
50.0
100
AcDbLine
 10
13127.34578971423
 20
11633.20342677759
 30
0.0
 11
14602.50261261331
 21
11575.10415954444
 31
0.0
  0
DIMENSION
  5
1B869
330
747D
100
AcDbEntity
  8
寸法
 48
50.0
100
AcDbDimension
  2
*D38
 10
14532.82958141817
 20
12327.01792807848
 30
0.0
 11
13882.82958141817
 21
12427.01792807848
 31
0.0
 70
    32
  1
柱外寸法 <>
 71
     5
 42
-1.0
  3
INABA_S50G
100
AcDbAlignedDimension
 13
13232.82958141817
 23
11588.73679736197
 33
0.0
 14
14532.82958141817
 24
11576.3631811976
 34
0.0
100
AcDbRotatedDimension
1001
ACAD
1000
DSTYLE
1002
{
1070
   287
1070
     4
1070
    75
1070
     1
1070
   279
1070
     1
1002
}
  0
LINE
  5
1B86A
330
747D
100
AcDbEntity
  8
細線
 48
50.0
100
AcDbLine
 10
13127.61578257115
 20
11627.36225267836
 30
0.0
 11
14580.73684947436
 21
11515.76509804569
 31
0.0
  0
LINE
  5
1B86B
330
747D
100
AcDbEntity
  8
細線
 48
50.0
100
AcDbLine
 10
13125.93118163666
 20
11605.42684477945
 30
0.0
 11
14579.05224853987
 21
11493.82969014679
 31
0.0
  0
MTEXT
  5
1B86C
102
{ACAD_REACTORS
330
1B86D
102
}
330
747D
100
AcDbEntity
  8
寸法
 62
     7
 48
50.0
100
AcDbMText
 10
14759.92961912344
 20
10799.0260437633
 30
0.0
 40
150.0
 41
0.0
 71
     4
 72
     1
  1
\A1;天井
  7
STYLE1
 73
     1
 44
1.0
  0
LEADER
  5
1B86D
330
747D
100
AcDbEntity
  8
寸法
 48
50.0
100
AcDbLeader
  3
INABA_S50G
 71
     0
 73
     0
 74
     0
 75
     1
 40
150.0
 41
359.9999999999999
 76
     3
 10
14340.45642047151
 20
11403.41424305313
 30
0.0
 10
14609.92961912344
 20
10699.0260437633
 30
0.0
 10
14734.92961912344
 20
10699.0260437633
 30
0.0
340
1B86C
1001
ACAD
1000
DSTYLE
1002
{
1070
     6
1000
DOTSMALL
1002
}
  0
MTEXT
  5
1B86E
102
{ACAD_REACTORS
330
1B86F
102
}
330
747D
100
AcDbEntity
  8
寸法
 62
     7
 48
50.0
100
AcDbMText
 10
14900.49506749086
 20
11038.8835600829
 30
0.0
 40
150.0
 41
0.0
 71
     4
 72
     1
  1
\A1;桁後
  7
STYLE1
 73
     1
 44
1.0
  0
LEADER
  5
1B86F
330
747D
100
AcDbEntity
  8
寸法
 48
50.0
100
AcDbLeader
  3
INABA_S50G
 71
     0
 73
     0
 74
     0
 75
     1
 40
150.0
 41
360.0000000000001
 76
     3
 10
14532.82958141817
 20
11432.2065891273
 30
0.0
 10
14750.49506749086
 20
10938.8835600829
 30
0.0
 10
14875.49506749086
 20
10938.8835600829
 30
0.0
340
1B86E
1001
ACAD
1000
DSTYLE
1002
{
1070
     6
1000
DOTSMALL
1002
}
  0
MTEXT
  5
1B870
102
{ACAD_REACTORS
330
1B871
102
}
330
747D
100
AcDbEntity
  8
寸法
 62
     7
 48
50.0
100
AcDbMText
 10
14803.03052825934
 20
10508.28252840044
 30
0.0
 40
150.0
 41
0.0
 71
     4
 72
     1
  1
\A1;壁パネル
  7
STYLE1
 73
     1
 44
1.0
  0
LEADER
  5
1B871
330
747D
100
AcDbEntity
  8
寸法
 48
50.0
100
AcDbLeader
  3
INABA_S50G
 71
     0
 73
     0
 74
     0
 75
     1
 40
150.0
 41
719.9999999999999
 76
     3
 10
14520.64563276007
 20
10204.29303103486
 30
0.0
 10
14653.03052825934
 20
10408.28252840044
 30
0.0
 10
14778.03052825934
 20
10408.28252840044
 30
0.0
340
1B870
1001
ACAD
1000
DSTYLE
1002
{
1070
     6
1000
DOTSMALL
1002
}
  0
MTEXT
  5
1B872
102
{ACAD_REACTORS
330
1B873
102
}
330
747D
100
AcDbEntity
  8
寸法
 62
     7
 48
50.0
100
AcDbMText
 10
14825.21447691743
 20
9692.226294727554
 30
0.0
 40
150.0
 41
0.0
 71
     4
 72
     1
  1
\A1;土台前後
  7
STYLE1
 73
     1
 44
1.0
  0
LEADER
  5
1B873
330
747D
100
AcDbEntity
  8
寸法
 48
50.0
100
AcDbLeader
  3
INABA_S50G
 71
     0
 73
     0
 74
     0
 75
     1
 40
150.0
 41
719.9999999999995
 76
     3
 10
14532.82958141817
 20
9388.236797361971
 30
0.0
 10
14675.21447691743
 20
9592.226294727554
 30
0.0
 10
14800.21447691743
 20
9592.226294727554
 30
0.0
340
1B872
1001
ACAD
1000
DSTYLE
1002
{
1070
     6
1000
DOTSMALL
1002
}
  0
LINE
  5
1B874
330
747D
100
AcDbEntity
  8
部品1
 48
50.0
100
AcDbLine
 10
14401.82958141817
 20
9028.73679736197
 30
0.0
 11
14601.82958141817
 21
9028.73679736197
 31
0.0
  0
LINE
  5
1B875
330
747D
100
AcDbEntity
  8
細線
 48
50.0
100
AcDbLine
 10
14472.05563750172
 20
9028.73679736197
 30
0.0
 11
14601.82958141817
 21
9158.51074127843
 31
0.0
  0
LINE
  5
1B876
330
747D
100
AcDbEntity
  8
細線
 48
50.0
100
AcDbLine
 10
14498.57214179622
 20
9028.73679736197
 30
0.0
 11
14601.82958141817
 21
9131.994236983928
 31
0.0
  0
LINE
  5
1B877
330
747D
100
AcDbEntity
  8
細線
 48
50.0
100
AcDbLine
 10
14445.53913320722
 20
9028.73679736197
 30
0.0
 11
14601.82958141817
 21
9185.027245572923
 31
0.0
  0
LINE
  5
1B878
330
747D
100
AcDbEntity
  8
細線
 48
50.0
100
AcDbLine
 10
14401.82958141817
 20
9081.994236983932
 30
0.0
 11
14548.5721417962
 21
9228.736797361975
 31
0.0
  0
MTEXT
  5
1B879
102
{ACAD_REACTORS
330
1B87A
102
}
330
747D
100
AcDbEntity
  8
部品1
 62
     7
 48
50.0
100
AcDbMText
 10
14559.33136638524
 20
8716.282041753732
 30
0.0
 40
150.0
 41
0.0
 71
     4
 72
     1
  1
\A1;ジョイントカバー
  7
STYLE1
 73
     1
 44
1.0
  0
LEADER
  5
1B87A
330
747D
100
AcDbEntity
  8
寸法
 48
50.0
100
AcDbLeader
  3
INABA_S50G
 71
     0
 73
     0
 74
     0
 75
     1
 40
150.0
 41
1397.5
 76
     3
 10
13886.32045493619
 20
9547.434887568504
 30
0.0
 10
14409.33136638524
 20
8616.282041753732
 30
0.0
 10
14534.33136638524
 20
8616.282041753732
 30
0.0
340
1B879
1001
ACAD
1000
DSTYLE
1002
{
1070
     6
1000
DOTSMALL
1002
}
  0
LINE
  5
1B87B
330
747D
100
AcDbEntity
  8
Ｇ．Ｌ
 48
50.0
100
AcDbLine
 10
11516.42337354684
 20
9228.736797361971
 30
0.0
 11
16316.77176170856
 21
9228.736797361971
 31
0.0
  0
MTEXT
  5
1B87C
102
{ACAD_REACTORS
330
1B87D
102
}
330
747D
100
AcDbEntity
  8
寸法
 62
     7
 48
50.0
100
AcDbMText
 10
14772.3774760777
 20
10099.22034129159
 30
0.0
 40
150.0
 41
0.0
 71
     4
 72
     1
  1
\A1;内壁
  7
STYLE1
 73
     1
 44
1.0
  0
LEADER
  5
1B87D
330
747D
100
AcDbEntity
  8
寸法
 48
50.0
100
AcDbLeader
  3
INABA_S50G
 71
     0
 73
     0
 74
     0
 75
     1
 40
150.0
 41
320.0
 76
     3
 10
14489.99258057843
 20
9795.230843926011
 30
0.0
 10
14622.3774760777
 20
9999.220341291595
 30
0.0
 10
14747.3774760777
 20
9999.220341291595
 30
0.0
340
1B87C
1001
ACAD
1000
DSTYLE
1002
{
1070
     6
1000
DOTSMALL
1002
}
  0
DIMENSION
  5
1B87E
330
747D
100
AcDbEntity
  8
寸法
 48
50.0
100
AcDbDimension
  2
*D39
 10
15844.10991665977
 20
11390.73679736196
 30
0.0
 11
15744.10991665977
 21
10410.73679736197
 31
0.0
 70
    32
  1
内高 <>
 71
     5
 42
-1.0
  3
INABA_S50G
100
AcDbAlignedDimension
 13
14497.32958141817
 23
9430.736797361971
 33
0.0
 14
14532.82958141817
 24
11390.73679736197
 34
0.0
 50
90.0
100
AcDbRotatedDimension
  0
DIMENSION
  5
1B87F
330
747D
100
AcDbEntity
  8
寸法
 48
50.0
100
AcDbDimension
  2
*D40
 10
16157.07164574816
 20
11573.73679736197
 30
0.0
 11
16057.05688196863
 21
10468.73679736197
 31
0.0
 70
    32
 71
     5
 42
-1.0
  3
INABA_S50G
100
AcDbAlignedDimension
 13
14532.82958141817
 23
9363.736797361971
 33
0.0
 14
14627.82958141817
 24
11573.73679736197
 34
0.0
 50
90.0
100
AcDbRotatedDimension
  0
DIMENSION
  5
1B880
330
747D
100
AcDbEntity
  8
寸法
 48
50.0
100
AcDbDimension
  2
*D41
 10
12343.71357087477
 20
11238.73679736196
 30
0.0
 11
12343.71357087477
 21
10339.73679736196
 31
0.0
 70
   160
  1
有効開口部高サ <>
 71
     5
 42
-1.0
  3
INABA_S50G
100
AcDbAlignedDimension
 13
13245.32958141817
 23
9440.736797361971
 33
0.0
 14
13164.82958141816
 24
11238.73679736196
 34
0.0
 50
90.0
100
AcDbRotatedDimension
  0
LINE
  5
1B881
330
747D
100
AcDbEntity
  8
部品1
 48
50.0
100
AcDbLine
 10
13294.32958141817
 20
11303.73679736196
 30
0.0
 11
13294.32958141817
 21
9440.082951208124
 31
0.0
  0
LINE
  5
1B882
330
747D
100
AcDbEntity
  8
細線
 48
50.0
100
AcDbLine
 10
13205.32958141816
 20
11245.23679736196
 30
0.0
 11
13205.32958141816
 21
9414.736797361968
 31
0.0
  0
LINE
  5
1B883
330
747D
100
AcDbEntity
  8
細線
 48
50.0
100
AcDbLine
 10
13227.32958141816
 20
11245.23679736196
 30
0.0
 11
13227.32958141816
 21
9414.736797361968
 31
0.0
  0
LINE
  5
1B884
330
747D
100
AcDbEntity
  8
細線
 48
50.0
100
AcDbLine
 10
13193.32958141816
 20
11245.23679736196
 30
0.0
 11
13193.32958141816
 21
9414.736797361968
 31
0.0
  0
LINE
  5
1B885
330
747D
100
AcDbEntity
  8
細線
 48
50.0
100
AcDbLine
 10
13171.32958141816
 20
11245.23679736196
 30
0.0
 11
13171.32958141816
 21
9414.736797361968
 31
0.0
  0
LINE
  5
1B886
330
747D
100
AcDbEntity
  8
部品1
 48
50.0
100
AcDbLine
 10
13239.32958141816
 20
11258.73679736196
 30
0.0
 11
13239.32958141817
 21
9439.129102207385
 31
0.0
  0
MTEXT
  5
1B887
102
{ACAD_REACTORS
330
1B888
102
}
330
747D
100
AcDbEntity
  8
寸法
 62
     7
 48
50.0
100
AcDbMText
 10
13102.12439623184
 20
10815.58668917594
 30
0.0
 40
150.0
 41
0.0
 71
     6
 72
     1
  1
\A1;母屋中
  7
STYLE1
 73
     1
 44
1.0
  0
LEADER
  5
1B888
330
747D
100
AcDbEntity
  8
寸法
 48
50.0
100
AcDbLeader
  3
INABA_S50G
 71
     0
 73
     0
 75
     1
 40
150.0
 41
540.0000000000002
 76
     3
 10
13857.82958141817
 20
11463.48679736197
 30
0.0
 10
13252.12439623184
 20
10715.58668917594
 30
0.0
 10
13127.12439623184
 20
10715.58668917594
 30
0.0
340
1B887
1001
ACAD
1000
DSTYLE
1002
{
1070
     6
1000
DOTSMALL
1002
}
  0
DIMENSION
  5
1B889
330
747D
100
AcDbEntity
  8
寸法
 48
50.0
100
AcDbDimension
  2
*D42
 10
11675.59842153515
 20
9363.736797361967
 30
0.0
 11
11575.58365775563
 21
10498.73679736196
 31
0.0
 70
    32
 71
     5
 42
-1.0
  3
INABA_S50G
100
AcDbAlignedDimension
 13
13097.82958141816
 23
11633.73679736197
 33
0.0
 14
13164.82958141817
 24
9363.736797361967
 34
0.0
 50
90.0
100
AcDbRotatedDimension
  0
LINE
  5
1B88A
330
747D
100
AcDbEntity
  8
部品1
 48
50.0
100
AcDbLine
 10
13319.32958141817
 20
11367.59466173824
 30
0.0
 11
13319.32958141817
 21
9470.73679736197
 31
0.0
  0
DIMENSION
  5
1B88B
330
747D
100
AcDbEntity
  8
寸法
 48
50.0
100
AcDbDimension
  2
*D43
 10
12009.85308669961
 20
9418.736797361985
 30
0.0
 11
11909.85308669961
 21
10391.23679736197
 31
0.0
 70
    32
 71
     5
 42
-1.0
  3
INABA_S50G
100
AcDbAlignedDimension
 13
13232.82958141817
 23
11363.73679736197
 33
0.0
 14
13164.82958141817
 24
9418.736797361985
 34
0.0
 50
90.0
100
AcDbRotatedDimension
  0
LINE
  5
1B88C
330
747D
100
AcDbEntity
  8
細線
 48
50.0
100
AcDbLine
 10
14497.82958141817
 20
11378.73679736197
 30
0.0
 11
14497.82958141817
 21
9418.736797361971
 31
0.0
  0
LINE
  5
1B88D
330
747D
100
AcDbEntity
  8
部品1
 48
50.0
100
AcDbLine
 10
14482.32958141817
 20
11378.73679736197
 30
0.0
 11
14482.32958141817
 21
9430.736797361971
 31
0.0
  0
LINE
  5
1B88E
330
747D
100
AcDbEntity
  8
部品1
 48
50.0
100
AcDbLine
 10
14446.32958141817
 20
11367.59466173824
 30
0.0
 11
14446.32958141817
 21
9470.73679736197
 31
0.0
  0
LINE
  5
1B88F
330
747D
100
AcDbEntity
  8
部品1
 48
50.0
100
AcDbLine
 10
13900.82958141817
 20
11063.08847168112
 30
0.0
 11
13900.82958141817
 21
9470.73679736197
 31
0.0
  0
LINE
  5
1B890
330
747D
100
AcDbEntity
  8
部品1
 48
50.0
100
AcDbLine
 10
13864.82958141817
 20
11063.08847168112
 30
0.0
 11
13864.82958141817
 21
9470.73679736197
 31
0.0
  0
LINE
  5
1B891
330
747D
100
AcDbEntity
  8
部品1
 48
50.0
100
AcDbLine
 10
14532.82958141817
 20
11473.73679736197
 30
0.0
 11
14532.82958141817
 21
9418.736797361971
 31
0.0
  0
DIMENSION
  5
1B892
330
747D
100
AcDbEntity
  8
寸法
 48
50.0
100
AcDbDimension
  2
*D44
 10
12009.85308669961
 20
9363.736797361967
 30
0.0
 11
12009.85308669961
 21
9086.628208643032
 31
0.0
 70
   160
 71
     5
 42
-1.0
  3
INABA_S50G
100
AcDbAlignedDimension
 13
13164.82958141817
 23
9418.736797361985
 33
0.0
 14
13164.82958141817
 24
9363.736797361967
 34
0.0
 50
90.0
100
AcDbRotatedDimension
  0
MTEXT
  5
1B893
102
{ACAD_REACTORS
330
1B894
102
}
330
747D
100
AcDbEntity
  8
部品1
 62
     7
 48
50.0
100
AcDbMText
 10
13299.09060856882
 20
8716.282041753725
 30
0.0
 40
150.0
 41
0.0
 71
     6
 72
     1
  1
\A1;土台中央
  7
STYLE1
 73
     1
 44
1.0
  0
LEADER
  5
1B894
330
747D
100
AcDbEntity
  8
寸法
 48
50.0
100
AcDbLeader
  3
INABA_S50G
 71
     0
 73
     0
 75
     1
 40
150.0
 41
720.0000000000003
 76
     3
 10
13528.20823510302
 20
9382.720225287021
 30
0.0
 10
13449.09060856882
 20
8616.282041753725
 30
0.0
 10
13324.09060856882
 20
8616.282041753725
 30
0.0
340
1B893
1001
ACAD
1000
DSTYLE
1002
{
1070
     6
1000
DOTSMALL
1002
}
  0
MTEXT
  5
1B895
102
{ACAD_REACTORS
330
1B896
102
}
330
747D
100
AcDbEntity
  8
部品1
 62
     7
 48
50.0
100
AcDbMText
 10
13941.06372606969
 20
8716.282041753732
 30
0.0
 40
150.0
 41
0.0
 71
     4
 72
     1
  1
\A1;根太
  7
STYLE1
 73
     1
 44
1.0
  0
LEADER
  5
1B896
330
747D
100
AcDbEntity
  8
寸法
 48
50.0
100
AcDbLeader
  3
INABA_S50G
 71
     0
 73
     0
 74
     0
 75
     1
 40
150.0
 41
330.0
 76
     3
 10
13612.82958141816
 20
9382.720225287028
 30
0.0
 10
13791.06372606969
 20
8616.282041753732
 30
0.0
 10
13916.06372606969
 20
8616.282041753732
 30
0.0
340
1B895
1001
ACAD
1000
DSTYLE
1002
{
1070
     6
1000
DOTSMALL
1002
}
  0
LINE
  5
1B897
330
747D
100
AcDbEntity
  8
部品1
100
AcDbLine
 10
13246.6040262278
 20
7310.010941144058
 30
0.0
 11
14519.05513660853
 21
7310.010941144058
 31
0.0
  0
LINE
  5
1B898
330
747D
100
AcDbEntity
  8
部品1
100
AcDbLine
 10
14519.05513660853
 20
7709.831477053279
 30
0.0
 11
13246.6040262278
 21
7709.831477053279
 31
0.0
  0
LINE
  5
1B899
330
747D
100
AcDbEntity
  8
部品1
100
AcDbLine
 10
13246.6040262278
 20
7709.831477053279
 30
0.0
 11
13246.6040262278
 21
7310.010941144058
 31
0.0
  0
TEXT
  5
1B89A
330
747D
100
AcDbEntity
  8
部品1
100
AcDbText
 10
13401.62553718976
 20
7392.84275958667
 30
0.0
 40
225.0
  1
断面図
  7
STYLE2
100
AcDbText
  0
LINE
  5
1B89B
330
747D
100
AcDbEntity
  8
部品1
100
AcDbLine
 10
14519.05513660853
 20
7310.010941144058
 30
0.0
 11
14519.05513660853
 21
7709.831477053279
 31
0.0
  0
LINE
  5
1B89C
330
747D
100
AcDbEntity
  8
細線
 48
50.0
100
AcDbLine
 10
13265.82958141817
 20
9437.736797361971
 30
0.0
 11
13257.82958141817
 21
9437.736797361971
 31
0.0
  0
LINE
  5
1B89D
330
747D
100
AcDbEntity
  8
細線
 48
50.0
100
AcDbLine
 10
13262.23372660659
 20
9437.736797361971
 30
0.0
 11
13266.82958141817
 21
9437.736797361971
 31
0.0
  0
LINE
  5
1B89E
330
747D
100
AcDbEntity
  8
部品1
 48
50.0
100
AcDbLine
 10
13238.82958141817
 20
9418.736797361974
 30
0.0
 11
13268.32958141817
 21
9418.736797361971
 31
0.0
  0
LINE
  5
1B89F
330
747D
100
AcDbEntity
  8
細線
 48
50.0
100
AcDbLine
 10
13356.62002962911
 20
9228.736797361971
 30
0.0
 11
13232.82958141817
 21
9352.527245572922
 31
0.0
  0
LINE
  5
1B8A0
330
747D
100
AcDbEntity
  8
細線
 48
50.0
100
AcDbLine
 10
13330.10352533462
 20
9228.736797361971
 30
0.0
 11
13232.82958141817
 21
9326.010741278428
 31
0.0
  0
LINE
  5
1B8A1
330
747D
100
AcDbEntity
  8
破線
 48
3.0
100
AcDbLine
 10
13242.82958141817
 20
9122.736797361971
 30
0.0
 11
13284.82958141817
 21
9122.736797361971
 31
0.0
  0
LINE
  5
1B8A2
330
747D
100
AcDbEntity
  8
部品1
 48
50.0
100
AcDbLine
 10
13163.82958141817
 20
9028.73679736197
 30
0.0
 11
13363.82958141817
 21
9028.73679736197
 31
0.0
  0
LINE
  5
1B8A3
330
747D
100
AcDbEntity
  8
細線
 48
50.0
100
AcDbLine
 10
13234.05563750172
 20
9028.73679736197
 30
0.0
 11
13363.82958141817
 21
9158.51074127843
 31
0.0
  0
LINE
  5
1B8A4
330
747D
100
AcDbEntity
  8
細線
 48
50.0
100
AcDbLine
 10
13260.57214179622
 20
9028.73679736197
 30
0.0
 11
13363.82958141817
 21
9131.994236983928
 31
0.0
  0
LINE
  5
1B8A5
330
747D
100
AcDbEntity
  8
細線
 48
50.0
100
AcDbLine
 10
13207.53913320722
 20
9028.73679736197
 30
0.0
 11
13363.82958141817
 21
9185.027245572923
 31
0.0
  0
LINE
  5
1B8A6
330
747D
100
AcDbEntity
  8
細線
 48
50.0
100
AcDbLine
 10
13163.82958141817
 20
9081.994236983932
 30
0.0
 11
13310.57214179619
 21
9228.736797361975
 31
0.0
  0
LINE
  5
1B8A7
330
747D
100
AcDbEntity
  8
細線
 48
50.0
100
AcDbLine
 10
13163.82958141817
 20
9108.510741278429
 30
0.0
 11
13284.0556375017
 21
9228.736797361971
 31
0.0
  0
LINE
  5
1B8A8
330
747D
100
AcDbEntity
  8
部品1
 48
50.0
100
AcDbLine
 10
13232.82958141817
 20
9363.736797361971
 30
0.0
 11
14532.82958141817
 21
9363.736797361971
 31
0.0
  0
LINE
  5
1B8A9
330
747D
100
AcDbEntity
  8
細線
 48
50.0
100
AcDbLine
 10
13232.82958141817
 20
9258.010741278418
 30
0.0
 11
13164.82958141817
 21
9326.010741278425
 31
0.0
  0
LINE
  5
1B8AA
330
747D
100
AcDbEntity
  8
細線
 48
50.0
100
AcDbLine
 10
13232.82958141817
 20
9284.527245572911
 30
0.0
 11
13164.82958141817
 21
9352.52724557292
 31
0.0
  0
LINE
  5
1B8AB
330
747D
100
AcDbEntity
  8
部品1
 48
50.0
100
AcDbLine
 10
13164.82958141817
 20
9363.736797361967
 30
0.0
 11
13164.82958141817
 21
9228.736797361971
 31
0.0
  0
LINE
  5
1B8AC
330
747D
100
AcDbEntity
  8
部品1
 48
50.0
100
AcDbLine
 10
13179.82958141817
 20
9363.736797361971
 30
0.0
 11
13179.82958141817
 21
9366.736797361971
 31
0.0
  0
LINE
  5
1B8AD
330
747D
100
AcDbEntity
  8
部品1
 48
50.0
100
AcDbLine
 10
13232.82958141817
 20
9363.736797361971
 30
0.0
 11
13164.82958141817
 21
9363.736797361971
 31
0.0
  0
LINE
  5
1B8AE
330
747D
100
AcDbEntity
  8
部品1
 48
50.0
100
AcDbLine
 10
13232.82958141817
 20
9369.736797361971
 30
0.0
 11
13179.82958141817
 21
9366.736797361971
 31
0.0
  0
LINE
  5
1B8AF
330
747D
100
AcDbEntity
  8
部品1
 48
50.0
100
AcDbLine
 10
13167.82958141817
 20
9412.73679736197
 30
0.0
 11
13164.82958141817
 21
9410.736797361971
 31
0.0
  0
LINE
  5
1B8B0
330
747D
100
AcDbEntity
  8
部品1
 48
50.0
100
AcDbLine
 10
13164.82958141817
 20
9363.736797361971
 30
0.0
 11
13164.82958141817
 21
9410.736797361971
 31
0.0
  0
LINE
  5
1B8B1
330
747D
100
AcDbEntity
  8
部品1
 48
50.0
100
AcDbLine
 10
13167.82958141817
 20
9412.73679736197
 30
0.0
 11
13232.82958141817
 21
9412.73679736197
 31
0.0
  0
LINE
  5
1B8B2
330
747D
100
AcDbEntity
  8
細線
 48
50.0
100
AcDbLine
 10
13171.32958141816
 20
9414.736797361968
 30
0.0
 11
13193.32958141816
 21
9414.736797361964
 31
0.0
  0
LINE
  5
1B8B3
330
747D
100
AcDbEntity
  8
部品1
 48
50.0
100
AcDbLine
 10
13182.32958141816
 20
9421.736797361971
 30
0.0
 11
13182.32958141816
 21
9412.73679736197
 31
0.0
  0
LINE
  5
1B8B4
330
747D
100
AcDbEntity
  8
細線
 48
50.0
100
AcDbLine
 10
13205.32958141816
 20
9414.736797361968
 30
0.0
 11
13227.32958141816
 21
9414.736797361964
 31
0.0
  0
LINE
  5
1B8B5
330
747D
100
AcDbEntity
  8
部品1
 48
50.0
100
AcDbLine
 10
13216.32958141816
 20
9421.736797361971
 30
0.0
 11
13216.32958141816
 21
9412.73679736197
 31
0.0
  0
ARC
  5
1B8B6
330
747D
100
AcDbEntity
  8
細線
 48
50.0
100
AcDbCircle
 10
13240.32958141817
 20
9434.220670497763
 30
0.0
 40
5.0
100
AcDbArc
 50
104.9999999999998
 51
180.0
  0
LINE
  5
1B8B7
330
747D
100
AcDbEntity
  8
細線
 48
50.0
100
AcDbLine
 10
13239.32958141817
 20
9418.736797361971
 30
0.0
 11
13239.32958141817
 21
9429.736797361972
 31
0.0
  0
LINE
  5
1B8B8
330
747D
100
AcDbEntity
  8
細線
 48
50.0
100
AcDbLine
 10
13239.32958141817
 20
9429.736797361972
 30
0.0
 11
13235.32958141817
 21
9429.736797361972
 31
0.0
  0
LINE
  5
1B8B9
330
747D
100
AcDbEntity
  8
細線
 48
50.0
100
AcDbLine
 10
13235.32958141817
 20
9429.736797361972
 30
0.0
 11
13235.32958141817
 21
9434.220670497763
 31
0.0
  0
LINE
  5
1B8BA
330
747D
100
AcDbEntity
  8
細線
 48
50.0
100
AcDbLine
 10
13248.57958141817
 20
9439.236797361971
 30
0.0
 11
13250.07958141817
 21
9439.236797361971
 31
0.0
  0
LINE
  5
1B8BB
330
747D
100
AcDbEntity
  8
細線
 48
50.0
100
AcDbLine
 10
13245.32958141817
 20
9440.736797361971
 30
0.0
 11
13247.71355601438
 21
9440.736797361971
 31
0.0
  0
LINE
  5
1B8BC
330
747D
100
AcDbEntity
  8
細線
 48
50.0
100
AcDbLine
 10
13250.07958141817
 20
9439.236797361971
 30
0.0
 11
13250.94560682195
 21
9440.736797361971
 31
0.0
  0
LINE
  5
1B8BD
330
747D
100
AcDbEntity
  8
細線
 48
50.0
100
AcDbLine
 10
13248.57958141817
 20
9439.236797361971
 30
0.0
 11
13247.71355601438
 21
9440.736797361971
 31
0.0
  0
LINE
  5
1B8BE
330
747D
100
AcDbEntity
  8
細線
 48
50.0
100
AcDbLine
 10
13245.32958141817
 20
9440.736797361971
 30
0.0
 11
13239.03548619265
 21
9439.050299629212
 31
0.0
  0
LINE
  5
1B8BF
330
747D
100
AcDbEntity
  8
細線
 48
50.0
100
AcDbLine
 10
13256.82958141817
 20
9437.736797361971
 30
0.0
 11
13255.0975306106
 21
9440.736797361971
 31
0.0
  0
LINE
  5
1B8C0
330
747D
100
AcDbEntity
  8
細線
 48
50.0
100
AcDbLine
 10
13250.94560682195
 20
9440.736797361971
 30
0.0
 11
13255.0975306106
 21
9440.736797361971
 31
0.0
  0
LINE
  5
1B8C1
330
747D
100
AcDbEntity
  8
細線
 48
50.0
100
AcDbLine
 10
13256.82958141817
 20
9437.736797361971
 30
0.0
 11
13261.42543622973
 21
9437.736797361971
 31
0.0
  0
LINE
  5
1B8C2
330
747D
100
AcDbEntity
  8
部品1
 48
50.0
100
AcDbLine
 10
13232.82958141817
 20
9412.73679736197
 30
0.0
 11
13232.82958141817
 21
9363.736797361971
 31
0.0
  0
LINE
  5
1B8C3
330
747D
100
AcDbEntity
  8
部品1
 48
50.0
100
AcDbLine
 10
13238.82958141817
 20
9412.73679736197
 30
0.0
 11
13238.82958141817
 21
9418.736797361971
 31
0.0
  0
LINE
  5
1B8C4
330
747D
100
AcDbEntity
  8
部品1
 48
50.0
100
AcDbLine
 10
13232.82958141817
 20
9412.73679736197
 30
0.0
 11
13238.82958141817
 21
9412.73679736197
 31
0.0
  0
LINE
  5
1B8C5
330
747D
100
AcDbEntity
  8
部品1
 48
50.0
100
AcDbLine
 10
13232.82958141817
 20
9363.736797361971
 30
0.0
 11
13232.82958141817
 21
9228.736797361971
 31
0.0
  0
LINE
  5
1B8C6
330
747D
100
AcDbEntity
  8
破線
 48
3.0
100
AcDbLine
 10
13242.82958141817
 20
9228.736797361971
 30
0.0
 11
13242.82958141817
 21
9122.736797361971
 31
0.0
  0
LINE
  5
1B8C7
330
747D
100
AcDbEntity
  8
細線
 48
50.0
100
AcDbLine
 10
13163.82958141817
 20
9135.027245572922
 30
0.0
 11
13257.53913320723
 21
9228.736797361971
 31
0.0
  0
LINE
  5
1B8C8
330
747D
100
AcDbEntity
  8
部品1
 48
50.0
100
AcDbLine
 10
13163.82958141817
 20
9228.736797361971
 30
0.0
 11
13163.82958141817
 21
9028.73679736197
 31
0.0
  0
MTEXT
  5
1B8C9
102
{ACAD_REACTORS
330
1B8CA
102
}
330
747D
100
AcDbEntity
  8
寸法
 62
     7
 48
50.0
100
AcDbMText
 10
12909.30855030886
 20
10406.36959685764
 30
0.0
 40
150.0
 41
0.0
 71
     6
 72
     1
  1
\A1;扉
  7
STYLE1
 73
     1
 44
1.0
  0
LEADER
  5
1B8CA
330
747D
100
AcDbEntity
  8
寸法
 48
50.0
100
AcDbLeader
  3
INABA_S50G
 71
     0
 73
     0
 75
     1
 40
150.0
 41
180.0
 76
     3
 10
13179.76204862645
 20
10102.38009949205
 30
0.0
 10
13059.30855030886
 20
10306.36959685764
 30
0.0
 10
12934.30855030886
 20
10306.36959685764
 30
0.0
340
1B8C9
1001
ACAD
1000
DSTYLE
1002
{
1070
     6
1000
DOTSMALL
1002
}
  0
LINE
  5
1B8CB
330
747D
100
AcDbEntity
  8
部品1
 48
50.0
100
AcDbLine
 10
13896.82958141816
 20
9418.736797361971
 30
0.0
 11
13902.82958141816
 21
9418.736797361971
 31
0.0
  0
LINE
  5
1B8CC
330
747D
100
AcDbEntity
  8
部品1
 48
50.0
100
AcDbLine
 10
13294.32958141817
 20
9470.736797361977
 30
0.0
 11
14482.32958141817
 21
9470.73679736197
 31
0.0
  0
LINE
  5
1B8CD
330
747D
100
AcDbEntity
  8
細線
 48
50.0
100
AcDbLine
 10
14482.32958141817
 20
9418.736797361971
 30
0.0
 11
13283.32958141817
 21
9418.736797361971
 31
0.0
  0
LINE
  5
1B8CE
330
747D
100
AcDbEntity
  8
細線
 48
50.0
100
AcDbLine
 10
13283.32958141817
 20
9430.736797361971
 30
0.0
 11
14482.32958141817
 21
9430.736797361971
 31
0.0
  0
LINE
  5
1B8CF
330
747D
100
AcDbEntity
  8
細線
 48
50.0
100
AcDbLine
 10
13298.82958141817
 20
9437.884735083446
 30
0.0
 11
13298.82958141817
 21
9436.736797361971
 31
0.0
  0
LINE
  5
1B8D0
330
747D
100
AcDbEntity
  8
細線
 48
50.0
100
AcDbLine
 10
13298.82958141817
 20
9436.736797361971
 30
0.0
 11
13295.82958141817
 21
9436.736797361971
 31
0.0
  0
LINE
  5
1B8D1
330
747D
100
AcDbEntity
  8
細線
 48
50.0
100
AcDbLine
 10
13295.82958141817
 20
9436.736797361971
 30
0.0
 11
13295.82958141817
 21
9430.736797361971
 31
0.0
  0
LINE
  5
1B8D2
330
747D
100
AcDbEntity
  8
細線
 48
50.0
100
AcDbLine
 10
13285.82958141817
 20
9440.736797361971
 30
0.0
 11
13296.98297441593
 21
9439.878844054451
 31
0.0
  0
ARC
  5
1B8D3
330
747D
100
AcDbEntity
  8
細線
 48
50.0
100
AcDbCircle
 10
13296.82958141817
 20
9437.884735083446
 30
0.0
 40
2.0
100
AcDbArc
 50
0.0
 51
85.60129464500446
  0
LINE
  5
1B8D4
330
747D
100
AcDbEntity
  8
細線
 48
50.0
100
AcDbLine
 10
13281.07958141817
 20
9439.236797361971
 30
0.0
 11
13282.57958141817
 21
9439.236797361971
 31
0.0
  0
LINE
  5
1B8D5
330
747D
100
AcDbEntity
  8
細線
 48
50.0
100
AcDbLine
 10
13282.57958141817
 20
9439.236797361971
 30
0.0
 11
13283.44560682195
 21
9440.736797361971
 31
0.0
  0
LINE
  5
1B8D6
330
747D
100
AcDbEntity
  8
細線
 48
50.0
100
AcDbLine
 10
13281.07958141817
 20
9439.236797361971
 30
0.0
 11
13280.21355601438
 21
9440.736797361971
 31
0.0
  0
LINE
  5
1B8D7
330
747D
100
AcDbEntity
  8
細線
 48
50.0
100
AcDbLine
 10
13275.07958141817
 20
9439.236797361971
 30
0.0
 11
13275.94560682195
 21
9440.736797361971
 31
0.0
  0
LINE
  5
1B8D8
330
747D
100
AcDbEntity
  8
細線
 48
50.0
100
AcDbLine
 10
13275.94560682195
 20
9440.736797361971
 30
0.0
 11
13280.21355601438
 21
9440.736797361971
 31
0.0
  0
LINE
  5
1B8D9
330
747D
100
AcDbEntity
  8
細線
 48
50.0
100
AcDbLine
 10
13266.82958141817
 20
9437.736797361971
 30
0.0
 11
13268.56163222573
 21
9440.736797361971
 31
0.0
  0
LINE
  5
1B8DA
330
747D
100
AcDbEntity
  8
細線
 48
50.0
100
AcDbLine
 10
13268.56163222573
 20
9440.736797361971
 30
0.0
 11
13272.71355601439
 21
9440.736797361971
 31
0.0
  0
LINE
  5
1B8DB
330
747D
100
AcDbEntity
  8
細線
 48
50.0
100
AcDbLine
 10
13273.57958141817
 20
9439.236797361971
 30
0.0
 11
13272.71355601439
 21
9440.736797361971
 31
0.0
  0
LINE
  5
1B8DC
330
747D
100
AcDbEntity
  8
細線
 48
50.0
100
AcDbLine
 10
13273.57958141817
 20
9439.236797361971
 30
0.0
 11
13275.07958141817
 21
9439.236797361971
 31
0.0
  0
LINE
  5
1B8DD
330
747D
100
AcDbEntity
  8
細線
 48
50.0
100
AcDbLine
 10
13283.44560682195
 20
9440.736797361971
 30
0.0
 11
13285.82958141817
 21
9440.736797361971
 31
0.0
  0
MTEXT
  5
1B8DE
102
{ACAD_REACTORS
330
1B8F6
102
}
330
747D
100
AcDbEntity
  8
部品1
 62
     7
 48
50.0
100
AcDbMText
 10
13508.99900614677
 20
9656.775787169864
 30
0.0
 40
150.0
 41
0.0
 71
     4
 72
     1
  1
\A1;床板
  7
STYLE1
 73
     1
 44
1.0
  0
LINE
  5
1B8DF
330
747D
100
AcDbEntity
  8
細線
 48
50.0
100
AcDbLine
 10
13432.82958141817
 20
9302.527245572923
 30
0.0
 11
13371.62002962911
 21
9363.736797361971
 31
0.0
  0
LINE
  5
1B8E0
330
747D
100
AcDbEntity
  8
部品1
 48
50.0
100
AcDbLine
 10
13862.82958141816
 20
9418.736797361971
 30
0.0
 11
13868.82958141816
 21
9418.736797361971
 31
0.0
  0
LINE
  5
1B8E1
330
747D
100
AcDbEntity
  8
部品1
 48
50.0
100
AcDbLine
 10
13868.82958141816
 20
9412.73679736197
 30
0.0
 11
13896.82958141816
 21
9412.73679736197
 31
0.0
  0
LINE
  5
1B8E2
330
747D
100
AcDbEntity
  8
部品1
 48
50.0
100
AcDbLine
 10
13896.82958141816
 20
9418.736797361971
 30
0.0
 11
13896.82958141816
 21
9412.73679736197
 31
0.0
  0
LINE
  5
1B8E3
330
747D
100
AcDbEntity
  8
部品1
 48
50.0
100
AcDbLine
 10
13868.82958141816
 20
9412.73679736197
 30
0.0
 11
13868.82958141816
 21
9418.736797361971
 31
0.0
  0
LINE
  5
1B8E4
330
747D
100
AcDbEntity
  8
部品1
 48
50.0
100
AcDbLine
 10
13862.82958141816
 20
9363.736797361971
 30
0.0
 11
13862.82958141816
 21
9418.736797361971
 31
0.0
  0
LINE
  5
1B8E5
330
747D
100
AcDbEntity
  8
部品1
 48
50.0
100
AcDbLine
 10
13572.82958141816
 20
9363.736797361971
 30
0.0
 11
13572.82958141816
 21
9418.736797361971
 31
0.0
  0
LINE
  5
1B8E6
330
747D
100
AcDbEntity
  8
部品1
 48
50.0
100
AcDbLine
 10
13612.82958141816
 20
9418.736797361971
 30
0.0
 11
13612.82958141816
 21
9363.736797361971
 31
0.0
  0
LINE
  5
1B8E7
330
747D
100
AcDbEntity
  8
部品1
 48
50.0
100
AcDbLine
 10
13578.82958141816
 20
9412.73679736197
 30
0.0
 11
13578.82958141816
 21
9418.736797361971
 31
0.0
  0
LINE
  5
1B8E8
330
747D
100
AcDbEntity
  8
部品1
 48
50.0
100
AcDbLine
 10
13606.82958141816
 20
9418.736797361971
 30
0.0
 11
13606.82958141816
 21
9412.73679736197
 31
0.0
  0
LINE
  5
1B8E9
330
747D
100
AcDbEntity
  8
部品1
 48
50.0
100
AcDbLine
 10
13578.82958141816
 20
9412.73679736197
 30
0.0
 11
13606.82958141816
 21
9412.73679736197
 31
0.0
  0
LINE
  5
1B8EA
330
747D
100
AcDbEntity
  8
部品1
 48
50.0
100
AcDbLine
 10
13572.82958141816
 20
9418.736797361971
 30
0.0
 11
13578.82958141816
 21
9418.736797361971
 31
0.0
  0
LINE
  5
1B8EB
330
747D
100
AcDbEntity
  8
部品1
 48
50.0
100
AcDbLine
 10
13606.82958141816
 20
9418.736797361971
 30
0.0
 11
13612.82958141816
 21
9418.736797361971
 31
0.0
  0
LINE
  5
1B8EC
330
747D
100
AcDbEntity
  8
部品1
 48
50.0
100
AcDbLine
 10
13432.82958141817
 20
9363.736797361971
 30
0.0
 11
13432.82958141817
 21
9228.736797361971
 31
0.0
  0
LINE
  5
1B8ED
330
747D
100
AcDbEntity
  8
部品1
 48
50.0
100
AcDbLine
 10
13321.32958141817
 20
9411.736797361971
 30
0.0
 11
13321.32958141817
 21
9363.736797361971
 31
0.0
  0
LINE
  5
1B8EE
330
747D
100
AcDbEntity
  8
部品1
 48
50.0
100
AcDbLine
 10
13297.32958141817
 20
9411.736797361971
 30
0.0
 11
13321.32958141817
 21
9411.736797361971
 31
0.0
  0
LINE
  5
1B8EF
330
747D
100
AcDbEntity
  8
部品1
 48
50.0
100
AcDbLine
 10
13297.32958141817
 20
9418.736797361971
 30
0.0
 11
13297.32958141817
 21
9411.736797361971
 31
0.0
  0
LINE
  5
1B8F0
330
747D
100
AcDbEntity
  8
部品1
 48
50.0
100
AcDbLine
 10
13283.32958141817
 20
9418.736797361971
 30
0.0
 11
13297.32958141817
 21
9418.736797361971
 31
0.0
  0
LINE
  5
1B8F1
330
747D
100
AcDbEntity
  8
部品1
 48
50.0
100
AcDbLine
 10
13283.32958141817
 20
9430.736797361971
 30
0.0
 11
13283.32958141817
 21
9418.736797361971
 31
0.0
  0
LINE
  5
1B8F2
330
747D
100
AcDbEntity
  8
部品1
 48
50.0
100
AcDbLine
 10
13268.32958141817
 20
9418.736797361971
 30
0.0
 11
13268.32958141817
 21
9430.736797361971
 31
0.0
  0
LINE
  5
1B8F3
330
747D
100
AcDbEntity
  8
部品1
 48
50.0
100
AcDbLine
 10
13268.32958141817
 20
9430.736797361971
 30
0.0
 11
13283.32958141817
 21
9430.736797361971
 31
0.0
  0
LINE
  5
1B8F4
330
747D
100
AcDbEntity
  8
破線
 48
3.0
100
AcDbLine
 10
13284.82958141817
 20
9228.736797361971
 30
0.0
 11
13284.82958141817
 21
9122.736797361971
 31
0.0
  0
LINE
  5
1B8F5
330
747D
100
AcDbEntity
  8
細線
 48
50.0
100
AcDbLine
 10
13432.82958141817
 20
9276.010741278424
 30
0.0
 11
13345.10352533462
 21
9363.736797361974
 31
0.0
  0
LEADER
  5
1B8F6
330
747D
100
AcDbEntity
  8
寸法
 48
50.0
100
AcDbLeader
  3
INABA_S50G
 71
     0
 73
     0
 74
     0
 75
     1
 40
150.0
 41
319.9999999999999
 76
     3
 10
13414.01568375584
 20
9425.668860537976
 30
0.0
 10
13358.99900614677
 20
9556.775787169865
 30
0.0
 10
13483.99900614677
 20
9556.775787169865
 30
0.0
340
1B8DE
1001
ACAD
1000
DSTYLE
1002
{
1070
     6
1000
DOTSMALL
1002
}
  0
LINE
  5
1B8F7
330
747D
100
AcDbEntity
  8
部品1
 48
50.0
100
AcDbLine
 10
13363.82958141817
 20
9028.73679736197
 30
0.0
 11
13363.82958141817
 21
9228.736797361971
 31
0.0
  0
MTEXT
  5
1B8F8
102
{ACAD_REACTORS
330
1B918
102
}
330
747D
100
AcDbEntity
  8
寸法
 62
     7
 48
50.0
100
AcDbMText
 10
14263.56909905212
 20
9701.080712269295
 30
0.0
 40
150.0
 41
0.0
 71
     6
 72
     1
  1
\A1;巾木
  7
STYLE1
 73
     1
 44
1.0
  0
LINE
  5
1B8F9
330
747D
100
AcDbEntity
  8
部品1
 48
50.0
100
AcDbLine
 10
14532.82958141817
 20
9418.736797361971
 30
0.0
 11
14497.32958141817
 21
9418.736797361971
 31
0.0
  0
LINE
  5
1B8FA
330
747D
100
AcDbEntity
  8
部品1
 48
50.0
100
AcDbLine
 10
14497.32958141817
 20
9418.736797361971
 30
0.0
 11
14497.32958141817
 21
9430.736797361971
 31
0.0
  0
LINE
  5
1B8FB
330
747D
100
AcDbEntity
  8
部品1
 48
50.0
100
AcDbLine
 10
14532.82958141817
 20
9412.73679736197
 30
0.0
 11
14532.82958141817
 21
9363.736797361971
 31
0.0
  0
LINE
  5
1B8FC
330
747D
100
AcDbEntity
  8
部品1
 48
50.0
100
AcDbLine
 10
14526.82958141817
 20
9412.73679736197
 30
0.0
 11
14526.82958141817
 21
9418.736797361971
 31
0.0
  0
LINE
  5
1B8FD
330
747D
100
AcDbEntity
  8
部品1
 48
50.0
100
AcDbLine
 10
14532.82958141817
 20
9412.73679736197
 30
0.0
 11
14526.82958141817
 21
9412.73679736197
 31
0.0
  0
LINE
  5
1B8FE
330
747D
100
AcDbEntity
  8
部品1
 48
50.0
100
AcDbLine
 10
14532.82958141817
 20
9363.736797361971
 30
0.0
 11
14532.82958141817
 21
9228.736797361971
 31
0.0
  0
LINE
  5
1B8FF
330
747D
100
AcDbEntity
  8
破線
 48
3.0
100
AcDbLine
 10
14522.82958141817
 20
9228.736797361971
 30
0.0
 11
14522.82958141817
 21
9122.736797361971
 31
0.0
  0
LINE
  5
1B900
330
747D
100
AcDbEntity
  8
部品1
 48
50.0
100
AcDbLine
 10
14482.32958141816
 20
9470.73679736197
 30
0.0
 11
14473.32958141816
 21
9470.73679736197
 31
0.0
  0
LINE
  5
1B901
330
747D
100
AcDbEntity
  8
部品1
 48
50.0
100
AcDbLine
 10
14468.32958141817
 20
9411.736797361971
 30
0.0
 11
14444.32958141817
 21
9411.736797361971
 31
0.0
  0
LINE
  5
1B902
330
747D
100
AcDbEntity
  8
部品1
 48
50.0
100
AcDbLine
 10
14444.32958141817
 20
9411.736797361971
 30
0.0
 11
14444.32958141817
 21
9363.736797361971
 31
0.0
  0
LINE
  5
1B903
330
747D
100
AcDbEntity
  8
部品1
 48
50.0
100
AcDbLine
 10
14473.32958141816
 20
9430.736797361971
 30
0.0
 11
14482.32958141817
 21
9430.736797361971
 31
0.0
  0
LINE
  5
1B904
330
747D
100
AcDbEntity
  8
部品1
 48
50.0
100
AcDbLine
 10
14468.32958141817
 20
9418.736797361971
 30
0.0
 11
14482.32958141817
 21
9418.736797361971
 31
0.0
  0
LINE
  5
1B905
330
747D
100
AcDbEntity
  8
部品1
 48
50.0
100
AcDbLine
 10
14468.32958141817
 20
9418.736797361971
 30
0.0
 11
14468.32958141817
 21
9411.736797361971
 31
0.0
  0
LINE
  5
1B906
330
747D
100
AcDbEntity
  8
部品1
 48
50.0
100
AcDbLine
 10
14482.32958141817
 20
9430.736797361971
 30
0.0
 11
14482.32958141817
 21
9418.736797361971
 31
0.0
  0
LINE
  5
1B907
330
747D
100
AcDbEntity
  8
部品1
 48
50.0
100
AcDbLine
 10
14473.32958141816
 20
9470.73679736197
 30
0.0
 11
14473.32958141816
 21
9430.736797361971
 31
0.0
  0
LINE
  5
1B908
330
747D
100
AcDbEntity
  8
破線
 48
3.0
100
AcDbLine
 10
14480.82958141817
 20
9228.736797361971
 30
0.0
 11
14480.82958141817
 21
9122.736797361971
 31
0.0
  0
LINE
  5
1B909
330
747D
100
AcDbEntity
  8
部品1
 48
50.0
100
AcDbLine
 10
14186.82958141816
 20
9418.736797361971
 30
0.0
 11
14192.82958141816
 21
9418.736797361971
 31
0.0
  0
LINE
  5
1B90A
330
747D
100
AcDbEntity
  8
部品1
 48
50.0
100
AcDbLine
 10
14152.82958141816
 20
9418.736797361971
 30
0.0
 11
14158.82958141816
 21
9418.736797361971
 31
0.0
  0
LINE
  5
1B90B
330
747D
100
AcDbEntity
  8
部品1
 48
50.0
100
AcDbLine
 10
14158.82958141816
 20
9412.73679736197
 30
0.0
 11
14186.82958141816
 21
9412.73679736197
 31
0.0
  0
LINE
  5
1B90C
330
747D
100
AcDbEntity
  8
部品1
 48
50.0
100
AcDbLine
 10
14186.82958141816
 20
9418.736797361971
 30
0.0
 11
14186.82958141816
 21
9412.73679736197
 31
0.0
  0
LINE
  5
1B90D
330
747D
100
AcDbEntity
  8
部品1
 48
50.0
100
AcDbLine
 10
14158.82958141816
 20
9412.73679736197
 30
0.0
 11
14158.82958141816
 21
9418.736797361971
 31
0.0
  0
LINE
  5
1B90E
330
747D
100
AcDbEntity
  8
部品1
 48
50.0
100
AcDbLine
 10
14192.82958141816
 20
9418.736797361971
 30
0.0
 11
14192.82958141816
 21
9363.736797361971
 31
0.0
  0
LINE
  5
1B90F
330
747D
100
AcDbEntity
  8
部品1
 48
50.0
100
AcDbLine
 10
14152.82958141816
 20
9363.736797361971
 30
0.0
 11
14152.82958141816
 21
9418.736797361971
 31
0.0
  0
LINE
  5
1B910
330
747D
100
AcDbEntity
  8
部品1
 48
50.0
100
AcDbLine
 10
14332.82958141817
 20
9363.736797361971
 30
0.0
 11
14332.82958141817
 21
9228.736797361971
 31
0.0
  0
LINE
  5
1B911
330
747D
100
AcDbEntity
  8
細線
 48
50.0
100
AcDbLine
 10
14456.62002962911
 20
9228.736797361971
 30
0.0
 11
14332.82958141817
 21
9352.527245572922
 31
0.0
  0
LINE
  5
1B912
330
747D
100
AcDbEntity
  8
細線
 48
50.0
100
AcDbLine
 10
14430.10352533462
 20
9228.736797361971
 30
0.0
 11
14332.82958141817
 21
9326.010741278428
 31
0.0
  0
LINE
  5
1B913
330
747D
100
AcDbEntity
  8
細線
 48
50.0
100
AcDbLine
 10
14532.82958141817
 20
9276.010741278424
 30
0.0
 11
14445.10352533463
 21
9363.736797361974
 31
0.0
  0
LINE
  5
1B914
330
747D
100
AcDbEntity
  8
細線
 48
50.0
100
AcDbLine
 10
14532.82958141817
 20
9302.527245572923
 30
0.0
 11
14471.62002962911
 21
9363.736797361971
 31
0.0
  0
LINE
  5
1B915
330
747D
100
AcDbEntity
  8
破線
 48
3.0
100
AcDbLine
 10
14480.82958141817
 20
9122.736797361971
 30
0.0
 11
14522.82958141817
 21
9122.736797361971
 31
0.0
  0
LINE
  5
1B916
330
747D
100
AcDbEntity
  8
部品1
 48
50.0
100
AcDbLine
 10
14497.32958141817
 20
9430.736797361971
 30
0.0
 11
14482.32958141817
 21
9430.736797361971
 31
0.0
  0
LINE
  5
1B917
330
747D
100
AcDbEntity
  8
細線
 48
50.0
100
AcDbLine
 10
14401.82958141817
 20
9135.027245572922
 30
0.0
 11
14495.53913320723
 21
9228.736797361971
 31
0.0
  0
LEADER
  5
1B918
330
747D
100
AcDbEntity
  8
寸法
 48
50.0
100
AcDbLeader
  3
INABA_S50G
 71
     0
 73
     0
 75
     1
 40
150.0
 41
310.0
 76
     3
 10
14476.76541320617
 20
9455.070269982762
 30
0.0
 10
14413.56909905212
 20
9601.080712269295
 30
0.0
 10
14288.56909905212
 20
9601.080712269295
 30
0.0
340
1B8F8
1001
ACAD
1000
DSTYLE
1002
{
1070
     6
1000
DOTSMALL
1002
}
  0
LINE
  5
1B919
330
747D
100
AcDbEntity
  8
細線
 48
50.0
100
AcDbLine
 10
14401.82958141817
 20
9108.510741278429
 30
0.0
 11
14522.0556375017
 21
9228.736797361971
 31
0.0
  0
LINE
  5
1B91A
330
747D
100
AcDbEntity
  8
部品1
 48
50.0
100
AcDbLine
 10
14401.82958141817
 20
9228.736797361971
 30
0.0
 11
14401.82958141817
 21
9028.73679736197
 31
0.0
  0
LINE
  5
1B91B
330
747D
100
AcDbEntity
  8
部品1
 48
50.0
100
AcDbLine
 10
13902.82958141816
 20
9418.736797361971
 30
0.0
 11
13902.82958141816
 21
9363.736797361971
 31
0.0
  0
LINE
  5
1B91C
330
747D
100
AcDbEntity
  8
部品1
 48
50.0
100
AcDbLine
 10
13239.32958141817
 20
11238.73679736196
 30
0.0
 11
13294.32958141817
 21
11238.73679736196
 31
0.0
  0
LINE
  5
1B91D
330
747D
100
AcDbEntity
  8
部品1
 48
50.0
100
AcDbLine
 10
13237.82958141816
 20
11291.73679736196
 30
0.0
 11
13267.82958141816
 21
11291.73679736196
 31
0.0
  0
LINE
  5
1B91E
330
747D
100
AcDbEntity
  8
部品1
 48
50.0
100
AcDbLine
 10
13239.32958141816
 20
11246.23679736196
 30
0.0
 11
13267.82958141817
 21
11246.23679736196
 31
0.0
  0
LINE
  5
1B91F
330
747D
100
AcDbEntity
  8
部品1
 48
50.0
100
AcDbLine
 10
13261.32958141817
 20
11573.73679736197
 30
0.0
 11
13283.82958141817
 21
11573.73679736197
 31
0.0
  0
LINE
  5
1B920
330
747D
100
AcDbEntity
  8
細線
 48
50.0
100
AcDbLine
 10
13263.52601300255
 20
11594.85980255405
 30
0.0
 11
13262.30084868657
 21
11578.90677862757
 31
0.0
  0
LINE
  5
1B921
330
747D
100
AcDbEntity
  8
細線
 48
50.0
100
AcDbLine
 10
13262.30084868657
 20
11578.90677862757
 30
0.0
 11
13282.24212859467
 21
11577.37532323258
 31
0.0
  0
LINE
  5
1B922
330
747D
100
AcDbEntity
  8
部品1
 48
50.0
100
AcDbLine
 10
13232.82958141817
 20
11378.73679736197
 30
0.0
 11
13282.82958141817
 21
11378.73679736197
 31
0.0
  0
DIMENSION
  5
1B923
330
747D
100
AcDbEntity
  8
寸法
 48
50.0
100
AcDbDimension
  2
*D45
 10
12501.55458482935
 20
11625.73051236771
 30
0.0
 11
12505.65962527941
 21
11883.8044678402
 31
0.0
 70
   160
 71
     5
 42
-1.0
  3
INABA_S50G
100
AcDbAlignedDimension
 13
13118.8404644795
 23
11500.89713798174
 33
0.0
 14
13120.66947485201
 24
11615.88259237079
 34
0.0
 50
89.08870440418592
100
AcDbRotatedDimension
  0
MTEXT
  5
1B924
102
{ACAD_REACTORS
330
1B925
102
}
330
747D
100
AcDbEntity
  8
寸法
 62
     7
 48
50.0
100
AcDbMText
 10
12779.20278459666
 20
12174.32712616799
 30
0.0
 40
150.0
 41
0.0
 71
     6
 72
     1
  1
\A1;鼻隠シ前
  7
STYLE1
 73
     1
 44
1.0
  0
LEADER
  5
1B925
330
747D
100
AcDbEntity
  8
寸法
 48
50.0
100
AcDbLeader
  3
INABA_S50G
 71
     0
 73
     0
 75
     1
 40
150.0
 41
697.5
 76
     3
 10
13098.68985764767
 20
11573.78978150138
 30
0.0
 10
12929.20278459666
 20
12074.32712616799
 30
0.0
 10
12804.20278459666
 20
12074.32712616799
 30
0.0
340
1B924
1001
ACAD
1000
DSTYLE
1002
{
1070
     6
1000
DOTSMALL
1002
}
  0
DIMENSION
  5
1B926
330
747D
100
AcDbEntity
  8
寸法
 48
50.0
100
AcDbDimension
  2
*D46
 10
13232.82958141817
 20
12327.01792807849
 30
0.0
 11
12815.27052630005
 21
12327.01792807849
 31
0.0
 70
   160
 71
     5
 42
-1.0
  3
INABA_S50G
100
AcDbAlignedDimension
 13
13097.82958141817
 23
11633.73679736197
 33
0.0
 14
13232.82958141817
 24
11631.29728927309
 34
0.0
100
AcDbRotatedDimension
  0
MTEXT
  5
1B927
102
{ACAD_REACTORS
330
1B928
102
}
330
747D
100
AcDbEntity
  8
寸法
 62
     7
 48
50.0
100
AcDbMText
 10
12805.77576701961
 20
11111.45127152218
 30
0.0
 40
150.0
 41
0.0
 71
     6
 72
     1
  1
\A1;桁前
  7
STYLE1
 73
     1
 44
1.0
  0
LEADER
  5
1B928
330
747D
100
AcDbEntity
  8
寸法
 48
50.0
100
AcDbLeader
  3
INABA_S50G
 71
     0
 73
     0
 75
     1
 40
150.0
 41
337.5
 76
     3
 10
13232.82958141816
 20
11430.44622311164
 30
0.0
 10
12955.77576701961
 20
11011.45127152218
 30
0.0
 10
12830.77576701961
 20
11011.45127152218
 30
0.0
340
1B927
1001
ACAD
1000
DSTYLE
1002
{
1070
     6
1000
DOTSMALL
1002
}
  0
LINE
  5
1B929
330
747D
100
AcDbEntity
  8
部品1
 48
50.0
100
AcDbLine
 10
13164.82958141816
 20
11269.73679736196
 30
0.0
 11
13237.82958141816
 21
11276.73679736196
 31
0.0
  0
LINE
  5
1B92A
330
747D
100
AcDbEntity
  8
部品1
 48
50.0
100
AcDbLine
 10
13164.82958141816
 20
11258.73679736196
 30
0.0
 11
13239.32958141816
 21
11258.73679736196
 31
0.0
  0
LINE
  5
1B92B
330
747D
100
AcDbEntity
  8
細線
 48
50.0
100
AcDbLine
 10
13171.32958141816
 20
11245.23679736196
 30
0.0
 11
13193.32958141816
 21
11245.23679736196
 31
0.0
  0
LINE
  5
1B92C
330
747D
100
AcDbEntity
  8
部品1
 48
50.0
100
AcDbLine
 10
13182.32958141816
 20
11258.73679736196
 30
0.0
 11
13182.32958141816
 21
11239.23679736196
 31
0.0
  0
LINE
  5
1B92D
330
747D
100
AcDbEntity
  8
部品1
 48
50.0
100
AcDbLine
 10
13164.82958141816
 20
11269.73679736196
 30
0.0
 11
13164.82958141816
 21
11239.23679736196
 31
0.0
  0
LINE
  5
1B92E
330
747D
100
AcDbEntity
  8
細線
 48
50.0
100
AcDbLine
 10
13205.32958141816
 20
11245.23679736196
 30
0.0
 11
13227.32958141816
 21
11245.23679736196
 31
0.0
  0
LINE
  5
1B92F
330
747D
100
AcDbEntity
  8
部品1
 48
50.0
100
AcDbLine
 10
13232.82958141816
 20
11276.25734530717
 30
0.0
 11
13232.82958141816
 21
11258.73679736196
 31
0.0
  0
LINE
  5
1B930
330
747D
100
AcDbEntity
  8
部品1
 48
50.0
100
AcDbLine
 10
13237.82958141816
 20
11276.73679736196
 30
0.0
 11
13237.82958141816
 21
11291.73679736196
 31
0.0
  0
LINE
  5
1B931
330
747D
100
AcDbEntity
  8
部品1
 48
50.0
100
AcDbLine
 10
13216.32958141816
 20
11258.73679736196
 30
0.0
 11
13216.32958141816
 21
11239.23679736196
 31
0.0
  0
LINE
  5
1B932
330
747D
100
AcDbEntity
  8
部品1
 48
50.0
100
AcDbLine
 10
13175.40013937792
 20
11631.31079918743
 30
0.0
 11
13184.79555514413
 21
11603.96990383365
 31
0.0
  0
ARC
  5
1B933
330
747D
100
AcDbEntity
  8
部品1
100
AcDbCircle
 10
13113.32958141817
 20
11600.20873825652
 30
0.0
 40
15.5
100
AcDbArc
 50
88.13874351680366
 51
181.8832004883104
  0
LINE
  5
1B934
330
747D
100
AcDbEntity
  8
部品1
 48
50.0
100
AcDbLine
 10
13127.83932612733
 20
11500.75399803954
 30
0.0
 11
13118.8404644795
 21
11500.89713798174
 31
0.0
  0
ARC
  5
1B935
330
747D
100
AcDbEntity
  8
部品1
 48
50.0
100
AcDbCircle
 10
13130.86280333365
 20
11502.20609500011
 30
0.0
 40
3.0
100
AcDbArc
 50
89.08870440418532
 51
179.0887044041912
  0
LINE
  5
1B936
330
747D
100
AcDbEntity
  8
部品1
 48
50.0
100
AcDbLine
 10
13127.83932612733
 20
11500.75399803954
 30
0.0
 11
13127.86318278437
 21
11502.25380831418
 31
0.0
  0
LINE
  5
1B937
330
747D
100
AcDbEntity
  8
部品1
 48
50.0
100
AcDbLine
 10
13232.90115138926
 20
11503.5834066249
 30
0.0
 11
13130.91051664771
 21
11505.20571554939
 31
0.0
  0
LINE
  5
1B938
330
747D
100
AcDbEntity
  8
細線
 48
50.0
100
AcDbLine
 10
13232.82958141816
 20
11499.08397580098
 30
0.0
 11
13127.83932612733
 21
11500.75399803954
 31
0.0
  0
LINE
  5
1B939
330
747D
100
AcDbEntity
  8
部品1
100
AcDbLine
 10
13097.83795305646
 20
11599.69937522019
 30
0.0
 11
13100.38580755856
 21
11522.20962380329
 31
0.0
  0
LINE
  5
1B93A
330
747D
100
AcDbEntity
  8
部品1
100
AcDbLine
 10
13103.50358129389
 20
11518.67699207427
 30
0.0
 11
13103.59535490713
 21
11515.88581445
 31
0.0
  0
ARC
  5
1B93B
330
747D
100
AcDbEntity
  8
部品1
100
AcDbCircle
 10
13101.58515943173
 20
11522.24905836094
 30
0.0
 40
1.199999999999999
100
AcDbArc
 50
181.8832004883104
 51
260.9777304905277
  0
ARC
  5
1B93C
330
747D
100
AcDbEntity
  8
部品1
100
AcDbCircle
 10
13101.00493155814
 20
11518.59483674583
 30
0.0
 40
2.5
100
AcDbArc
 50
1.883200488304429
 51
80.9777304905255
  0
ARC
  5
1B93D
330
747D
100
AcDbEntity
  8
部品1
100
AcDbCircle
 10
13119.08698326884
 20
11516.39517748635
 30
0.0
 40
15.5
100
AcDbArc
 50
181.8832004883684
 51
269.0887044041854
  0
LINE
  5
1B93E
330
747D
100
AcDbEntity
  8
部品1
 48
50.0
100
AcDbLine
 10
13232.82958141817
 20
11588.73679736197
 30
0.0
 11
13261.32958141817
 21
11588.73679736197
 31
0.0
  0
LINE
  5
1B93F
330
747D
100
AcDbEntity
  8
部品1
 48
50.0
100
AcDbLine
 10
13261.32958141817
 20
11588.73679736197
 30
0.0
 11
13261.32958141817
 21
11573.73679736197
 31
0.0
  0
LINE
  5
1B940
330
747D
100
AcDbEntity
  8
部品1
100
AcDbLine
 10
13117.40813407784
 20
11616.54160810821
 30
0.0
 11
13124.10013006798
 21
11631.16076879153
 31
0.0
  0
ARC
  5
1B941
330
747D
100
AcDbEntity
  8
部品1
 48
50.0
100
AcDbCircle
 10
13127.28255353196
 20
11629.70399808346
 30
0.0
 40
3.5
100
AcDbArc
 50
88.96475328401214
 51
155.4038180356338
  0
LINE
  5
1B942
330
747D
100
AcDbEntity
  8
部品1
 48
50.0
100
AcDbLine
 10
13116.02062901199
 20
11615.66612422279
 30
0.0
 11
13113.83301119891
 21
11615.70056056559
 31
0.0
  0
ARC
  5
1B943
330
747D
100
AcDbEntity
  8
部品1
100
AcDbCircle
 10
13116.04423830756
 20
11617.16593841167
 30
0.0
 40
1.5
100
AcDbArc
 50
269.0981540988973
 51
335.4038180356238
  0
LINE
  5
1B944
330
747D
100
AcDbEntity
  8
細線
 48
50.0
100
AcDbLine
 10
13127.61578257115
 20
11627.36225267836
 30
0.0
 11
13125.93118163666
 21
11605.42684477945
 31
0.0
  0
LINE
  5
1B945
330
747D
100
AcDbEntity
  8
部品1
 48
50.0
100
AcDbLine
 10
13232.82958141817
 20
11588.73679736197
 30
0.0
 11
13232.82958141816
 21
11276.25734530717
 31
0.0
  0
MTEXT
  5
1B946
102
{ACAD_REACTORS
330
1B96F
102
}
330
747D
100
AcDbEntity
  8
寸法
 62
     7
 48
50.0
100
AcDbMText
 10
14144.83247224645
 20
11805.2915960787
 30
0.0
 40
150.0
 41
0.0
 71
     4
 72
     1
  1
\A1;妻板
  7
STYLE1
 73
     1
 44
1.0
  0
MTEXT
  5
1B947
102
{ACAD_REACTORS
330
1B948
102
}
330
747D
100
AcDbEntity
  8
部品1
 62
     7
 48
50.0
100
AcDbMText
 10
13561.05948236589
 20
11999.83557484575
 30
0.0
 40
150.0
 41
0.0
 71
     4
 72
     1
  1
\A1;屋根パネル
  7
STYLE1
 73
     1
 44
1.0
  0
LEADER
  5
1B948
330
747D
100
AcDbEntity
  8
寸法
 48
50.0
100
AcDbLeader
  3
INABA_S50G
 71
     0
 73
     0
 74
     0
 75
     1
 40
150.0
 41
900.0
 76
     3
 10
13322.07682066774
 20
11600.0347365094
 30
0.0
 10
13411.05948236589
 20
11899.83557484575
 30
0.0
 10
13536.05948236589
 20
11899.83557484575
 30
0.0
340
1B947
1001
ACAD
1000
DSTYLE
1002
{
1070
     6
1000
DOTSMALL
1002
}
  0
LINE
  5
1B949
330
747D
100
AcDbEntity
  8
部品1
 48
50.0
100
AcDbLine
 10
13887.82958141817
 20
11530.23679736197
 30
0.0
 11
13907.82958141817
 21
11529.23679736197
 31
0.0
  0
LINE
  5
1B94A
330
747D
100
AcDbEntity
  8
細線
 48
50.0
100
AcDbLine
 10
13888.15791860227
 20
11530.84205105591
 30
0.0
 11
13908.09919851035
 21
11529.31059566093
 31
0.0
  0
LINE
  5
1B94B
330
747D
100
AcDbEntity
  8
部品1
 48
50.0
100
AcDbLine
 10
13907.82958141817
 20
11413.73679736197
 30
0.0
 11
13857.82958141817
 21
11413.73679736197
 31
0.0
  0
LINE
  5
1B94C
330
747D
100
AcDbEntity
  8
細線
 48
50.0
100
AcDbLine
 10
13297.82958141817
 20
11393.73679736197
 30
0.0
 11
14467.82958141816
 21
11393.73679736197
 31
0.0
  0
LINE
  5
1B94D
330
747D
100
AcDbEntity
  8
部品1
 48
50.0
100
AcDbLine
 10
13283.32958141817
 20
11367.59466173824
 30
0.0
 11
14482.32958141817
 21
11367.59466173824
 31
0.0
  0
LINE
  5
1B94E
330
747D
100
AcDbEntity
  8
細線
 48
50.0
100
AcDbLine
 10
13297.82958141817
 20
11413.73679736197
 30
0.0
 11
14467.82958141816
 21
11413.73679736197
 31
0.0
  0
MTEXT
  5
1B94F
102
{ACAD_REACTORS
330
1B950
102
}
330
747D
100
AcDbEntity
  8
寸法
 62
     7
 48
50.0
100
AcDbMText
 10
14245.28840950222
 20
11192.92239508256
 30
0.0
 40
150.0
 41
0.0
 71
     6
 72
     1
  1
\A1;回リ縁
  7
STYLE1
 73
     1
 44
1.0
  0
LEADER
  5
1B950
330
747D
100
AcDbEntity
  8
寸法
 48
50.0
100
AcDbLeader
  3
INABA_S50G
 71
     0
 73
     0
 75
     1
 40
150.0
 41
530.0000000000001
 76
     3
 10
14469.17272716867
 20
11380.57994311248
 30
0.0
 10
14395.28840950222
 20
11092.92239508256
 30
0.0
 10
14270.28840950222
 20
11092.92239508256
 30
0.0
340
1B94F
1001
ACAD
1000
DSTYLE
1002
{
1070
     6
1000
DOTSMALL
1002
}
  0
LINE
  5
1B951
330
747D
100
AcDbEntity
  8
部品1
 48
50.0
100
AcDbLine
 10
13267.82958141816
 20
11299.73679736196
 30
0.0
 11
13283.32958141817
 21
11299.73679736196
 31
0.0
  0
LINE
  5
1B952
330
747D
100
AcDbEntity
  8
部品1
 48
50.0
100
AcDbLine
 10
13283.32958141817
 20
11303.73679736196
 30
0.0
 11
13294.32958141817
 21
11303.73679736196
 31
0.0
  0
LINE
  5
1B953
330
747D
100
AcDbEntity
  8
部品1
 48
50.0
100
AcDbLine
 10
13887.82958141817
 20
11541.23679736197
 30
0.0
 11
13887.82958141817
 21
11530.23679736197
 31
0.0
  0
LINE
  5
1B954
330
747D
100
AcDbEntity
  8
部品1
 48
50.0
100
AcDbLine
 10
13857.82958141817
 20
11542.73679736197
 30
0.0
 11
13887.82958141817
 21
11541.23679736197
 31
0.0
  0
LINE
  5
1B955
330
747D
100
AcDbEntity
  8
細線
 48
50.0
100
AcDbLine
 10
13889.38308291825
 20
11546.7950749824
 30
0.0
 11
13888.15791860227
 21
11530.84205105591
 31
0.0
  0
LINE
  5
1B956
330
747D
100
AcDbEntity
  8
細線
 48
50.0
100
AcDbLine
 10
13283.46729291064
 20
11593.32834715906
 30
0.0
 11
13282.24212859467
 21
11577.37532323258
 31
0.0
  0
LINE
  5
1B957
330
747D
100
AcDbEntity
  8
部品1
 48
50.0
100
AcDbLine
 10
13864.82958141817
 20
11367.59466173824
 30
0.0
 11
13864.82958141817
 21
11284.72281612389
 31
0.0
  0
LINE
  5
1B958
330
747D
100
AcDbEntity
  8
部品1
100
AcDbLine
 10
13286.32958141817
 20
11367.59466173824
 30
0.0
 11
13293.65800854291
 21
11374.92308887183
 31
0.0
  0
LINE
  5
1B959
330
747D
100
AcDbEntity
  8
部品1
100
AcDbLine
 10
13286.32958141817
 20
11367.59466173824
 30
0.0
 11
13283.32958141817
 21
11367.59466173824
 31
0.0
  0
ARC
  5
1B95A
330
747D
100
AcDbEntity
  8
部品1
100
AcDbCircle
 10
13292.95090176173
 20
11375.63019565301
 30
0.0
 40
1.0
100
AcDbArc
 50
314.9999999999995
 51
44.99999999999885
  0
LINE
  5
1B95B
330
747D
100
AcDbEntity
  8
部品1
100
AcDbLine
 10
13293.65808760154
 20
11376.33722336673
 30
0.0
 11
13292.95090176173
 21
11377.04440920654
 31
0.0
  0
LINE
  5
1B95C
330
747D
100
AcDbEntity
  8
部品1
100
AcDbLine
 10
13292.95090176173
 20
11377.04440920654
 30
0.0
 11
13300.02196957359
 21
11384.11547701841
 31
0.0
  0
ARC
  5
1B95D
330
747D
100
AcDbEntity
  8
部品1
100
AcDbCircle
 10
13301.43618313596
 20
11384.11547701841
 30
0.0
 40
1.0
100
AcDbArc
 50
225.0
 51
315.0
  0
LINE
  5
1B95E
330
747D
100
AcDbEntity
  8
部品1
100
AcDbLine
 10
13302.14328991715
 20
11383.40837023722
 30
0.0
 11
13307.47171704189
 21
11388.73679736197
 31
0.0
  0
LINE
  5
1B95F
330
747D
100
AcDbEntity
  8
部品1
100
AcDbLine
 10
13300.02196957359
 20
11384.11547701841
 30
0.0
 11
13300.72907635478
 21
11383.40837023722
 31
0.0
  0
LINE
  5
1B960
330
747D
100
AcDbEntity
  8
部品1
100
AcDbLine
 10
13306.47171704189
 20
11389.73679736197
 30
0.0
 11
13306.47171704189
 21
11393.73679736197
 31
0.0
  0
LINE
  5
1B961
330
747D
100
AcDbEntity
  8
部品1
100
AcDbLine
 10
13307.47171704189
 20
11388.73679736197
 30
0.0
 11
13307.47171704189
 21
11389.73679736197
 31
0.0
  0
LINE
  5
1B962
330
747D
100
AcDbEntity
  8
部品1
100
AcDbLine
 10
13307.47171704189
 20
11389.73679736197
 30
0.0
 11
13306.47171704189
 21
11389.73679736197
 31
0.0
  0
LINE
  5
1B963
330
747D
100
AcDbEntity
  8
部品1
 48
50.0
100
AcDbLine
 10
13282.82958141817
 20
11378.73679736197
 30
0.0
 11
13297.82958141817
 21
11393.73679736197
 31
0.0
  0
LINE
  5
1B964
330
747D
100
AcDbEntity
  8
部品1
 48
50.0
100
AcDbLine
 10
13297.82958141817
 20
11393.73679736197
 30
0.0
 11
13297.82958141817
 21
11413.73679736197
 31
0.0
  0
LINE
  5
1B965
330
747D
100
AcDbEntity
  8
部品1
 48
50.0
100
AcDbLine
 10
13297.82958141817
 20
11413.73679736197
 30
0.0
 11
13319.82958141817
 21
11413.73679736197
 31
0.0
  0
LINE
  5
1B966
330
747D
100
AcDbEntity
  8
部品1
 48
50.0
100
AcDbLine
 10
13282.82958141817
 20
11378.73679736197
 30
0.0
 11
13283.32958141817
 21
11378.73679736197
 31
0.0
  0
LINE
  5
1B967
330
747D
100
AcDbEntity
  8
部品1
 48
50.0
100
AcDbLine
 10
13306.47171704189
 20
11393.73679736197
 30
0.0
 11
13297.82958141817
 21
11393.73679736197
 31
0.0
  0
LINE
  5
1B968
330
747D
100
AcDbEntity
  8
部品1
 48
50.0
100
AcDbLine
 10
13297.82958141817
 20
11413.73679736197
 30
0.0
 11
13319.82958141817
 21
11413.73679736197
 31
0.0
  0
LINE
  5
1B969
330
747D
100
AcDbEntity
  8
部品1
 48
50.0
100
AcDbLine
 10
13857.82958141817
 20
11413.73679736197
 30
0.0
 11
13857.82958141817
 21
11542.73679736197
 31
0.0
  0
LINE
  5
1B96A
330
747D
100
AcDbEntity
  8
細線
 48
50.0
100
AcDbLine
 10
13267.82958141817
 20
11378.73679736197
 30
0.0
 11
13267.82958141817
 21
11299.73679736196
 31
0.0
  0
LINE
  5
1B96B
330
747D
100
AcDbEntity
  8
部品1
 48
50.0
100
AcDbLine
 10
13283.32958141817
 20
11378.73679736197
 30
0.0
 11
13283.32958141817
 21
11299.73679736196
 31
0.0
  0
LINE
  5
1B96C
330
747D
100
AcDbEntity
  8
部品1
 48
50.0
100
AcDbLine
 10
14504.32958141816
 20
11493.73679736197
 30
0.0
 11
14504.32958141816
 21
11478.73679736197
 31
0.0
  0
LINE
  5
1B96D
330
747D
100
AcDbEntity
  8
細線
 48
50.0
100
AcDbLine
 10
14504.2724488845
 20
11499.57264787798
 30
0.0
 11
14503.04728456851
 21
11483.6196239515
 31
0.0
  0
LINE
  5
1B96E
330
747D
100
AcDbEntity
  8
細線
 48
50.0
100
AcDbLine
 10
14484.33116897639
 20
11501.10410327297
 30
0.0
 11
14483.10600466041
 21
11485.15107934649
 31
0.0
  0
LEADER
  5
1B96F
330
747D
100
AcDbEntity
  8
寸法
 48
50.0
100
AcDbLeader
  3
INABA_S50G
 71
     0
 73
     0
 74
     0
 75
     1
 40
150.0
 41
319.9999999999998
 76
     3
 10
13949.21710135562
 20
11581.89466159487
 30
0.0
 10
13994.83247224645
 20
11705.2915960787
 30
0.0
 10
14119.83247224645
 20
11705.2915960787
 30
0.0
340
1B946
1001
ACAD
1000
DSTYLE
1002
{
1070
     6
1000
DOTSMALL
1002
}
  0
LINE
  5
1B970
330
747D
100
AcDbEntity
  8
部品1
 48
50.0
100
AcDbLine
 10
14504.32958141816
 20
11478.73679736197
 30
0.0
 11
14480.82958141816
 21
11478.73679736197
 31
0.0
  0
LINE
  5
1B971
330
747D
100
AcDbEntity
  8
細線
 48
50.0
100
AcDbLine
 10
14483.10600466041
 20
11485.15107934649
 30
0.0
 11
14503.04728456851
 21
11483.6196239515
 31
0.0
  0
LINE
  5
1B972
330
747D
100
AcDbEntity
  8
細線
 48
50.0
100
AcDbLine
 10
13909.32436282635
 20
11545.26361958741
 30
0.0
 11
13908.09919851035
 21
11529.31059566093
 31
0.0
  0
LINE
  5
1B973
330
747D
100
AcDbEntity
  8
部品1
100
AcDbLine
 10
14532.82958141817
 20
11403.73679736197
 30
0.0
 11
14532.82958141817
 21
11363.73679736197
 31
0.0
  0
LINE
  5
1B974
330
747D
100
AcDbEntity
  8
部品1
 48
50.0
100
AcDbLine
 10
14482.82958141816
 20
11378.73679736197
 30
0.0
 11
14467.82958141816
 21
11393.73679736197
 31
0.0
  0
LINE
  5
1B975
330
747D
100
AcDbEntity
  8
部品1
100
AcDbLine
 10
14479.32958141816
 20
11367.59466173824
 30
0.0
 11
14472.00115429341
 21
11374.92308887183
 31
0.0
  0
LINE
  5
1B976
330
747D
100
AcDbEntity
  8
部品1
 48
50.0
100
AcDbLine
 10
14482.82958141816
 20
11378.73679736197
 30
0.0
 11
14482.32958141816
 21
11378.73679736197
 31
0.0
  0
LINE
  5
1B977
330
747D
100
AcDbEntity
  8
部品1
100
AcDbLine
 10
14479.32958141816
 20
11367.59466173824
 30
0.0
 11
14482.32958141816
 21
11367.59466173824
 31
0.0
  0
LINE
  5
1B978
330
747D
100
AcDbEntity
  8
部品1
 48
50.0
100
AcDbLine
 10
14467.82958141816
 20
11393.73679736197
 30
0.0
 11
14467.82958141816
 21
11413.73679736197
 31
0.0
  0
LINE
  5
1B979
330
747D
100
AcDbEntity
  8
部品1
100
AcDbLine
 10
14458.18744579443
 20
11389.73679736197
 30
0.0
 11
14459.18744579443
 21
11389.73679736197
 31
0.0
  0
LINE
  5
1B97A
330
747D
100
AcDbEntity
  8
部品1
100
AcDbLine
 10
14458.18744579443
 20
11388.73679736197
 30
0.0
 11
14458.18744579443
 21
11389.73679736197
 31
0.0
  0
LINE
  5
1B97B
330
747D
100
AcDbEntity
  8
部品1
100
AcDbLine
 10
14459.18744579443
 20
11389.73679736197
 30
0.0
 11
14459.18744579443
 21
11393.73679736197
 31
0.0
  0
LINE
  5
1B97C
330
747D
100
AcDbEntity
  8
部品1
100
AcDbLine
 10
14465.63719326273
 20
11384.11547701841
 30
0.0
 11
14464.93008648155
 21
11383.40837023722
 31
0.0
  0
LINE
  5
1B97D
330
747D
100
AcDbEntity
  8
部品1
100
AcDbLine
 10
14463.51587291917
 20
11383.40837023722
 30
0.0
 11
14458.18744579443
 21
11388.73679736197
 31
0.0
  0
ARC
  5
1B97E
330
747D
100
AcDbEntity
  8
部品1
100
AcDbCircle
 10
14464.22297970037
 20
11384.11547701841
 30
0.0
 40
1.0
100
AcDbArc
 50
225.0
 51
315.0
  0
LINE
  5
1B97F
330
747D
100
AcDbEntity
  8
部品1
100
AcDbLine
 10
14472.7082610746
 20
11377.04440920654
 30
0.0
 11
14465.63719326273
 21
11384.11547701841
 31
0.0
  0
LINE
  5
1B980
330
747D
100
AcDbEntity
  8
部品1
100
AcDbLine
 10
14472.00107523479
 20
11376.33722336673
 30
0.0
 11
14472.7082610746
 21
11377.04440920654
 31
0.0
  0
ARC
  5
1B981
330
747D
100
AcDbEntity
  8
部品1
100
AcDbCircle
 10
14472.7082610746
 20
11375.63019565301
 30
0.0
 40
1.0
100
AcDbArc
 50
135.0000000000011
 51
225.0000000000003
  0
LINE
  5
1B982
330
747D
100
AcDbEntity
  8
部品1
 48
50.0
100
AcDbLine
 10
14459.18744579443
 20
11393.73679736197
 30
0.0
 11
14467.82958141816
 21
11393.73679736197
 31
0.0
  0
LINE
  5
1B983
330
747D
100
AcDbEntity
  8
部品1
 48
50.0
100
AcDbLine
 10
14467.82958141816
 20
11413.73679736197
 30
0.0
 11
14445.82958141816
 21
11413.73679736197
 31
0.0
  0
LINE
  5
1B984
330
747D
100
AcDbEntity
  8
部品1
 48
50.0
100
AcDbLine
 10
14467.82958141816
 20
11413.73679736197
 30
0.0
 11
14445.82958141816
 21
11413.73679736197
 31
0.0
  0
LINE
  5
1B985
330
747D
100
AcDbEntity
  8
部品1
 48
50.0
100
AcDbLine
 10
14532.82958141816
 20
11378.73679736197
 30
0.0
 11
14482.82958141816
 21
11378.73679736197
 31
0.0
  0
LINE
  5
1B986
330
747D
100
AcDbEntity
  8
部品1
 48
50.0
100
AcDbLine
 10
13900.82958141817
 20
11367.59466173824
 30
0.0
 11
13900.82958141817
 21
11284.72281612389
 31
0.0
  0
LINE
  5
1B987
330
747D
100
AcDbEntity
  8
部品1
 48
50.0
100
AcDbLine
 10
13907.82958141817
 20
11425.73679736197
 30
0.0
 11
13907.82958141817
 21
11413.73679736197
 31
0.0
  0
LINE
  5
1B988
330
747D
100
AcDbEntity
  8
部品1
 48
50.0
100
AcDbLine
 10
14601.82958141817
 20
9028.73679736197
 30
0.0
 11
14601.82958141817
 21
9228.736797361971
 31
0.0
  0
MTEXT
  5
1B989
102
{ACAD_REACTORS
330
1B98A
102
}
330
747D
100
AcDbEntity
  8
寸法
 62
     7
 48
50.0
100
AcDbMText
 10
14928.68199506883
 20
11896.64748534791
 30
0.0
 40
150.0
 41
0.0
 71
     4
 72
     1
  1
\A1;鼻隠シ後
  7
STYLE1
 73
     1
 44
1.0
  0
LEADER
  5
1B98A
330
747D
100
AcDbEntity
  8
寸法
 48
50.0
100
AcDbLeader
  3
INABA_S50G
 71
     0
 73
     0
 74
     0
 75
     1
 40
150.0
 41
719.9999999999995
 76
     3
 10
14626.65863101425
 20
11555.13210353545
 30
0.0
 10
14778.68199506883
 20
11796.64748534791
 30
0.0
 10
14903.68199506883
 20
11796.64748534791
 30
0.0
340
1B989
1001
ACAD
1000
DSTYLE
1002
{
1070
     6
1000
DOTSMALL
1002
}
  0
MTEXT
  5
1B98B
102
{ACAD_REACTORS
330
1B98C
102
}
330
747D
100
AcDbEntity
  8
寸法
 62
     7
 48
50.0
100
AcDbMText
 10
14893.94018070688
 20
11247.92104541549
 30
0.0
 40
150.0
 41
0.0
 71
     4
 72
     1
  1
\A1;雨樋
  7
STYLE1
 73
     1
 44
1.0
  0
LEADER
  5
1B98C
330
747D
100
AcDbEntity
  8
寸法
 48
50.0
100
AcDbLeader
  3
INABA_S50G
 71
     0
 73
     0
 74
     0
 75
     1
 40
150.0
 41
360.0
 76
     3
 10
14613.82958141817
 20
11409.546036235
 30
0.0
 10
14743.94018070688
 20
11147.92104541549
 30
0.0
 10
14868.94018070688
 20
11147.92104541549
 30
0.0
340
1B98B
1001
ACAD
1000
DSTYLE
1002
{
1070
     6
1000
DOTSMALL
1002
}
  0
LINE
  5
1B98D
330
747D
100
AcDbEntity
  8
部品1
 48
50.0
100
AcDbLine
 10
14571.39578928962
 20
11518.15851852408
 30
0.0
 11
14555.39840097363
 21
11518.44759821443
 31
0.0
  0
LINE
  5
1B98E
330
747D
100
AcDbEntity
  8
部品1
 48
50.0
100
AcDbLine
 10
14600.80660766724
 20
11540.63080728955
 30
0.0
 11
14571.39578928962
 21
11518.15851852408
 31
0.0
  0
LINE
  5
1B98F
330
747D
100
AcDbEntity
  8
部品1
 48
50.0
100
AcDbLine
 10
14626.95242204339
 20
11540.15834117355
 30
0.0
 11
14600.80660766724
 21
11540.63080728955
 31
0.0
  0
LINE
  5
1B990
330
747D
100
AcDbEntity
  8
部品1
100
AcDbLine
 10
14616.17676303538
 20
11467.26280491308
 30
0.0
 11
14615.77792395764
 21
11463.51558742467
 31
0.0
  0
ARC
  5
1B991
330
747D
100
AcDbEntity
  8
部品1
 48
50.0
100
AcDbCircle
 10
14618.35118254029
 20
11470.68507021756
 30
0.0
 40
1.199999999999999
100
AcDbArc
 50
274.830006122604
 51
353.924536124901
  0
ARC
  5
1B992
330
747D
100
AcDbEntity
  8
部品1
 48
50.0
100
AcDbCircle
 10
14618.66272143308
 20
11466.99820928773
 30
0.0
 40
2.5
100
AcDbArc
 50
94.83000612260093
 51
173.9245361249088
  0
ARC
  5
1B993
330
747D
100
AcDbEntity
  8
部品1
100
AcDbCircle
 10
14600.36498189196
 20
11465.1560803018
 30
0.0
 40
15.5
100
AcDbArc
 50
269.0887044041854
 51
353.9245361249208
  0
LINE
  5
1B994
330
747D
100
AcDbEntity
  8
部品1
100
AcDbLine
 10
14627.74287520146
 20
11547.58489504698
 30
0.0
 11
14619.54444257119
 21
11470.55806431739
 31
0.0
  0
LINE
  5
1B995
330
747D
100
AcDbEntity
  8
部品1
100
AcDbLine
 10
14608.33578614471
 20
11565.79220093534
 30
0.0
 11
14605.71977994811
 21
11572.82495737241
 31
0.0
  0
ARC
  5
1B996
330
747D
100
AcDbEntity
  8
部品1
100
AcDbCircle
 10
14612.32958141817
 20
11549.22208342744
 30
0.0
 40
15.5
100
AcDbArc
 50
353.924536124901
 51
88.13874351680366
  0
ARC
  5
1B997
330
747D
100
AcDbEntity
  8
部品1
100
AcDbCircle
 10
14602.43937643104
 20
11571.60473085032
 30
0.0
 40
3.5
100
AcDbArc
 50
20.40391857757644
 51
88.96475328401214
  0
ARC
  5
1B998
330
747D
100
AcDbEntity
  8
部品1
100
AcDbCircle
 10
14609.76128014115
 20
11566.26244516471
 30
0.0
 40
1.5
100
AcDbArc
 50
200.4039185775898
 51
269.0981540988988
  0
LINE
  5
1B999
330
747D
100
AcDbEntity
  8
部品1
 48
50.0
100
AcDbLine
 10
14609.73767084557
 20
11564.76263097583
 30
0.0
 11
14612.83301119891
 21
11564.71390573651
 31
0.0
  0
LINE
  5
1B99A
330
747D
100
AcDbEntity
  8
部品1
100
AcDbLine
 10
14600.11846310262
 20
11449.65804079718
 30
0.0
 11
14591.11960145478
 21
11449.80118073938
 31
0.0
  0
LINE
  5
1B99B
330
747D
100
AcDbEntity
  8
部品1
 48
50.0
100
AcDbLine
 10
14537.82958141816
 20
11493.73679736197
 30
0.0
 11
14537.82958141816
 21
11473.73679736197
 31
0.0
  0
LINE
  5
1B99C
330
747D
100
AcDbEntity
  8
細線
 48
50.0
100
AcDbLine
 10
14580.73684947436
 20
11515.76509804569
 30
0.0
 11
14579.05224853987
 21
11493.82969014679
 31
0.0
  0
ARC
  5
1B99D
330
747D
100
AcDbEntity
  8
部品1
100
AcDbCircle
 10
14603.82958141817
 20
11409.546036235
 30
0.0
 40
10.0
100
AcDbArc
 50
270.0
 51
0.0
  0
ARC
  5
1B99E
330
747D
100
AcDbEntity
  8
部品1
100
AcDbCircle
 10
14563.82958141817
 20
11409.546036235
 30
0.0
 40
10.0
100
AcDbArc
 50
180.0
 51
270.0
  0
LINE
  5
1B99F
330
747D
100
AcDbEntity
  8
部品1
100
AcDbLine
 10
14563.82958141817
 20
11399.546036235
 30
0.0
 11
14603.82958141817
 21
11399.546036235
 31
0.0
  0
LINE
  5
1B9A0
330
747D
100
AcDbEntity
  8
部品1
100
AcDbLine
 10
14613.82958141817
 20
11409.546036235
 30
0.0
 11
14613.82958141817
 21
11434.546036235
 31
0.0
  0
LINE
  5
1B9A1
330
747D
100
AcDbEntity
  8
部品1
100
AcDbLine
 10
14553.82958141817
 20
11448.546036235
 30
0.0
 11
14553.82958141817
 21
11421.546036235
 31
0.0
  0
LINE
  5
1B9A2
330
747D
100
AcDbEntity
  8
部品1
100
AcDbLine
 10
14553.82958141816
 20
11450.39433257585
 30
0.0
 11
14553.82958141817
 21
11409.546036235
 31
0.0
  0
ENDSEC
  0
SECTION
  2
OBJECTS
  0
DICTIONARY
  5
7471
330
0
100
AcDbDictionary
281
     1
  3
ACAD_GROUP
350
7472
  3
ACAD_LAYOUT
350
1BAB3
  3
ACAD_MLINESTYLE
350
7473
  3
ACAD_PLOTSETTINGS
350
1BAB4
  3
ACAD_PLOTSTYLENAME
350
1BAB1
  3
ACDBHEADERROUNDTRIPXREC
350
1BB2C
  3
ACDBVARIABLEDICTIONARY
350
123D8
  3
CONTENTDICTIONARY
350
E71C
  3
DRAWINGVARIABLESDICT
350
F3B9
  0
DICTIONARY
  5
1BAE3
330
747D
100
AcDbDictionary
280
     1
281
     1
  3
ACAD_LAYOUTSELFREF
360
1BAE4
  0
DICTIONARY
  5
1BAE1
330
747A
100
AcDbDictionary
280
     1
281
     1
  3
ACAD_LAYOUTSELFREF
360
1BAE2
  0
DICTIONARY
  5
7472
102
{ACAD_REACTORS
330
7471
102
}
330
7471
100
AcDbDictionary
281
     1
  0
DICTIONARY
  5
1BAB3
102
{ACAD_REACTORS
330
7471
102
}
330
7471
100
AcDbDictionary
281
     1
  3
Model
350
1BAB5
  3
ﾚｲｱｳﾄ1
350
1BAB6
  0
DICTIONARY
  5
7473
102
{ACAD_REACTORS
330
7471
102
}
330
7471
100
AcDbDictionary
281
     1
  3
STANDARD
350
7480
  0
DICTIONARY
  5
1BAB4
102
{ACAD_REACTORS
330
7471
102
}
330
7471
100
AcDbDictionary
281
     1
  0
ACDBDICTIONARYWDFLT
  5
1BAB1
102
{ACAD_REACTORS
330
7471
102
}
330
7471
100
AcDbDictionary
281
     1
  3
Normal
350
1BAB2
100
AcDbDictionaryWithDefault
340
1BAB2
  0
DICTIONARY
  5
1BB2C
102
{ACAD_REACTORS
330
7471
102
}
330
7471
100
AcDbDictionary
281
     1
  3
CEPSNTYPE
350
1BB36
  3
DIMSTYLEDATA
350
1BB3A
  3
FINGERPRINTGUID
350
1BB37
  3
HYPERLINKBASE
350
1BB2F
  3
INSUNITS
350
1BB35
  3
LAYOUTDICT
350
1BB31
  3
LWETCUNION
350
1BB34
  3
PLOTSETDICT
350
1BB32
  3
PLOTSTYLNAMDICT
350
1BB33
  3
PSVPSCALE
350
1BB39
  3
PUCSBASE
350
1BB3D
  3
PUCSORGBACK
350
1BB43
  3
PUCSORGBOTTOM
350
1BB3F
  3
PUCSORGFRONT
350
1BB42
  3
PUCSORGLEFT
350
1BB40
  3
PUCSORGRIGHT
350
1BB41
  3
PUCSORGTOP
350
1BB3E
  3
PUCSORTHOREF
350
1BB3B
  3
PUCSORTHOVIEW
350
1BB3C
  3
STYLESHEET
350
1BB30
  3
TSTACKALIGN
350
1BB2D
  3
TSTACKSIZE
350
1BB2E
  3
UCSBASE
350
1BB46
  3
UCSORGBACK
350
1BB4C
  3
UCSORGBOTTOM
350
1BB48
  3
UCSORGFRONT
350
1BB4B
  3
UCSORGLEFT
350
1BB49
  3
UCSORGRIGHT
350
1BB4A
  3
UCSORGTOP
350
1BB47
  3
UCSORTHOREF
350
1BB44
  3
UCSORTHOVIEW
350
1BB45
  3
VERSIONGUID
350
1BB38
  0
DICTIONARY
  5
123D8
102
{ACAD_REACTORS
330
7471
102
}
330
7471
100
AcDbDictionary
281
     1
  3
DIMASSOC
350
1BB23
  3
SORTENTS
350
123D9
  0
DICTIONARY
  5
E71C
102
{ACAD_REACTORS
330
7471
102
}
330
7471
100
AcDbDictionary
281
     1
  0
DICTIONARY
  5
F3B9
102
{ACAD_REACTORS
330
7471
102
}
330
7471
100
AcDbDictionary
281
     1
1001
DRAWINGVARIABLESXDATA
1000
POLARMODE
1000
1
  0
XRECORD
  5
1BAE4
102
{ACAD_REACTORS
330
1BAE3
102
}
330
1BAE3
100
AcDbXrecord
280
     1
340
747D
  0
XRECORD
  5
1BAE2
102
{ACAD_REACTORS
330
1BAE1
102
}
330
1BAE1
100
AcDbXrecord
280
     1
340
747A
  0
LAYOUT
  5
1BAB5
102
{ACAD_REACTORS
330
1BAB3
102
}
330
1BAB3
100
AcDbPlotSettings
  1

  2
Canon LBP-730
  4

  6

 40
0.0
 41
0.0
 42
0.0
 43
0.0
 44
0.0
 45
0.0
 46
0.0
 47
0.0
 48
0.0
 49
0.0
140
0.0
141
0.0
142
1.0
143
1.0
 70
  1712
 72
     0
 73
     0
 74
     0
  7

 75
     0
147
1.0
148
0.0
149
0.0
100
AcDbLayout
  1
Model
 70
     1
 71
     0
 10
0.0
 20
0.0
 11
12.0
 21
9.0
 12
0.0
 22
0.0
 32
0.0
 14
0.0
 24
0.0
 34
0.0
 15
0.0
 25
0.0
 35
0.0
146
0.0
 13
0.0
 23
0.0
 33
0.0
 16
1.0
 26
0.0
 36
0.0
 17
0.0
 27
1.0
 37
0.0
 76
     0
330
747D
  0
LAYOUT
  5
1BAB6
102
{ACAD_REACTORS
330
1BAB3
102
}
330
1BAB3
100
AcDbPlotSettings
  1

  2
Canon LBP-730
  4

  6

 40
0.0
 41
0.0
 42
0.0
 43
0.0
 44
0.0
 45
0.0
 46
0.0
 47
0.0
 48
0.0
 49
0.0
140
0.0
141
0.0
142
1.0
143
1.0
 70
   688
 72
     0
 73
     0
 74
     5
  7

 75
    16
147
1.0
148
0.0
149
0.0
100
AcDbLayout
  1
ﾚｲｱｳﾄ1
 70
     0
 71
     1
 10
0.0
 20
0.0
 11
420.0
 21
297.0
 12
0.0
 22
0.0
 32
0.0
 14
1.000000000000000E+20
 24
1.000000000000000E+20
 34
1.000000000000000E+20
 15
-1.000000000000000E+20
 25
-1.000000000000000E+20
 35
-1.000000000000000E+20
146
0.0
 13
0.0
 23
0.0
 33
0.0
 16
1.0
 26
0.0
 36
0.0
 17
0.0
 27
1.0
 37
0.0
 76
     0
330
747A
  0
MLINESTYLE
  5
7480
102
{ACAD_REACTORS
330
7473
102
}
330
7473
100
AcDbMlineStyle
  2
STANDARD
 70
     0
  3

 62
     0
 51
90.0
 52
90.0
 71
     2
 49
0.5
 62
   256
  6
BYLAYER
 49
-0.5
 62
   256
  6
BYLAYER
  0
ACDBPLACEHOLDER
  5
1BAB2
102
{ACAD_REACTORS
330
1BAB1
102
}
330
1BAB1
  0
XRECORD
  5
1BB36
102
{ACAD_REACTORS
330
1BB2C
102
}
330
1BB2C
100
AcDbXrecord
280
     1
 90
        0
  0
XRECORD
  5
1BB3A
102
{ACAD_REACTORS
330
1BB2C
102
}
330
1BB2C
100
AcDbXrecord
280
     1
1000
DSTYLE
1002
{
1070
   341
340
F770
1070
   343
340
F770
1070
   344
340
F770
1002
}
  0
XRECORD
  5
1BB37
102
{ACAD_REACTORS
330
1BB2C
102
}
330
1BB2C
100
AcDbXrecord
280
     1
  1
{697DFF94-F946-11D6-AF94-00909916878D}
  0
XRECORD
  5
1BB2F
102
{ACAD_REACTORS
330
1BB2C
102
}
330
1BB2C
100
AcDbXrecord
280
     1
  1

  0
XRECORD
  5
1BB35
102
{ACAD_REACTORS
330
1BB2C
102
}
330
1BB2C
100
AcDbXrecord
280
     1
 90
        0
  0
XRECORD
  5
1BB31
102
{ACAD_REACTORS
330
1BB2C
102
}
330
1BB2C
100
AcDbXrecord
280
     1
340
1BAB3
  0
XRECORD
  5
1BB34
102
{ACAD_REACTORS
330
1BB2C
102
}
330
1BB2C
100
AcDbXrecord
280
     1
 90
    14877
  0
XRECORD
  5
1BB32
102
{ACAD_REACTORS
330
1BB2C
102
}
330
1BB2C
100
AcDbXrecord
280
     1
340
1BAB4
  0
XRECORD
  5
1BB33
102
{ACAD_REACTORS
330
1BB2C
102
}
330
1BB2C
100
AcDbXrecord
280
     1
340
1BAB1
  0
XRECORD
  5
1BB39
102
{ACAD_REACTORS
330
1BB2C
102
}
330
1BB2C
100
AcDbXrecord
280
     1
 40
0.0
  0
XRECORD
  5
1BB3D
102
{ACAD_REACTORS
330
1BB2C
102
}
330
1BB2C
100
AcDbXrecord
280
     1
340
0
  0
XRECORD
  5
1BB43
102
{ACAD_REACTORS
330
1BB2C
102
}
330
1BB2C
100
AcDbXrecord
280
     1
 10
0.0
 20
0.0
 30
0.0
  0
XRECORD
  5
1BB3F
102
{ACAD_REACTORS
330
1BB2C
102
}
330
1BB2C
100
AcDbXrecord
280
     1
 10
0.0
 20
0.0
 30
0.0
  0
XRECORD
  5
1BB42
102
{ACAD_REACTORS
330
1BB2C
102
}
330
1BB2C
100
AcDbXrecord
280
     1
 10
0.0
 20
0.0
 30
0.0
  0
XRECORD
  5
1BB40
102
{ACAD_REACTORS
330
1BB2C
102
}
330
1BB2C
100
AcDbXrecord
280
     1
 10
0.0
 20
0.0
 30
0.0
  0
XRECORD
  5
1BB41
102
{ACAD_REACTORS
330
1BB2C
102
}
330
1BB2C
100
AcDbXrecord
280
     1
 10
0.0
 20
0.0
 30
0.0
  0
XRECORD
  5
1BB3E
102
{ACAD_REACTORS
330
1BB2C
102
}
330
1BB2C
100
AcDbXrecord
280
     1
 10
0.0
 20
0.0
 30
0.0
  0
XRECORD
  5
1BB3B
102
{ACAD_REACTORS
330
1BB2C
102
}
330
1BB2C
100
AcDbXrecord
280
     1
340
0
  0
XRECORD
  5
1BB3C
102
{ACAD_REACTORS
330
1BB2C
102
}
330
1BB2C
100
AcDbXrecord
280
     1
 70
     0
  0
XRECORD
  5
1BB30
102
{ACAD_REACTORS
330
1BB2C
102
}
330
1BB2C
100
AcDbXrecord
280
     1
  1

  0
XRECORD
  5
1BB2D
102
{ACAD_REACTORS
330
1BB2C
102
}
330
1BB2C
100
AcDbXrecord
280
     1
 90
        1
  0
XRECORD
  5
1BB2E
102
{ACAD_REACTORS
330
1BB2C
102
}
330
1BB2C
100
AcDbXrecord
280
     1
 90
       70
  0
XRECORD
  5
1BB46
102
{ACAD_REACTORS
330
1BB2C
102
}
330
1BB2C
100
AcDbXrecord
280
     1
340
0
  0
XRECORD
  5
1BB4C
102
{ACAD_REACTORS
330
1BB2C
102
}
330
1BB2C
100
AcDbXrecord
280
     1
 10
0.0
 20
0.0
 30
0.0
  0
XRECORD
  5
1BB48
102
{ACAD_REACTORS
330
1BB2C
102
}
330
1BB2C
100
AcDbXrecord
280
     1
 10
0.0
 20
0.0
 30
0.0
  0
XRECORD
  5
1BB4B
102
{ACAD_REACTORS
330
1BB2C
102
}
330
1BB2C
100
AcDbXrecord
280
     1
 10
0.0
 20
0.0
 30
0.0
  0
XRECORD
  5
1BB49
102
{ACAD_REACTORS
330
1BB2C
102
}
330
1BB2C
100
AcDbXrecord
280
     1
 10
0.0
 20
0.0
 30
0.0
  0
XRECORD
  5
1BB4A
102
{ACAD_REACTORS
330
1BB2C
102
}
330
1BB2C
100
AcDbXrecord
280
     1
 10
0.0
 20
0.0
 30
0.0
  0
XRECORD
  5
1BB47
102
{ACAD_REACTORS
330
1BB2C
102
}
330
1BB2C
100
AcDbXrecord
280
     1
 10
0.0
 20
0.0
 30
0.0
  0
XRECORD
  5
1BB44
102
{ACAD_REACTORS
330
1BB2C
102
}
330
1BB2C
100
AcDbXrecord
280
     1
340
0
  0
XRECORD
  5
1BB45
102
{ACAD_REACTORS
330
1BB2C
102
}
330
1BB2C
100
AcDbXrecord
280
     1
 70
     0
  0
XRECORD
  5
1BB38
102
{ACAD_REACTORS
330
1BB2C
102
}
330
1BB2C
100
AcDbXrecord
280
     1
  1
{697DFF96-F946-11D6-AF94-00909916878D}
  0
DICTIONARYVAR
  5
1BB23
102
{ACAD_REACTORS
330
123D8
102
}
330
123D8
100
DictionaryVariables
280
     0
  1
1
  0
DICTIONARYVAR
  5
123D9
102
{ACAD_REACTORS
330
123D8
102
}
330
123D8
100
DictionaryVariables
280
     0
  1
96
  0
ENDSEC
  0
EOF
