  0
SECTION
  2
HEADER
  9
$ACADVER
  1
AC1015
  9
$ACADMAINTVER
 70
    20
  9
$DWGCODEPAGE
  3
ANSI_932
  9
$INSBASE
 10
0.0
 20
0.0
 30
0.0
  9
$EXTMIN
 10
173.9960207766853
 20
-1.13279219980177
 30
-0.000000000000013
  9
$EXTMAX
 10
20385.40654231959
 20
14262.41744944066
 30
0.0000000000000023
  9
$LIMMIN
 10
0.0
 20
0.0
  9
$LIMMAX
 10
21000.0
 20
14850.0
  9
$ORTHOMODE
 70
     0
  9
$REGENMODE
 70
     1
  9
$FILLMODE
 70
     1
  9
$QTEXTMODE
 70
     0
  9
$MIRRTEXT
 70
     1
  9
$LTSCALE
 40
20.0
  9
$ATTMODE
 70
     1
  9
$TEXTSIZE
 40
4.0
  9
$TRACEWID
 40
1.0
  9
$TEXTSTYLE
  7
STYLE1
  9
$CLAYER
  8
仕様書枠
  9
$CELTYPE
  6
BYLAYER
  9
$CECOLOR
 62
   256
  9
$CELTSCALE
 40
50.0
  9
$DISPSILH
 70
     0
  9
$DIMSCALE
 40
1.0
  9
$DIMASZ
 40
125.0
  9
$DIMEXO
 40
25.0
  9
$DIMDLI
 40
7.0
  9
$DIMRND
 40
0.0
  9
$DIMDLE
 40
0.0
  9
$DIMEXE
 40
75.0
  9
$DIMTP
 40
0.0
  9
$DIMTM
 40
0.0
  9
$DIMTXT
 40
150.0
  9
$DIMCEN
 40
0.0
  9
$DIMTSZ
 40
0.0
  9
$DIMTOL
 70
     0
  9
$DIMLIM
 70
     0
  9
$DIMTIH
 70
     0
  9
$DIMTOH
 70
     0
  9
$DIMSE1
 70
     0
  9
$DIMSE2
 70
     0
  9
$DIMTAD
 70
     3
  9
$DIMZIN
 70
     8
  9
$DIMBLK
  1

  9
$DIMASO
 70
     1
  9
$DIMSHO
 70
     1
  9
$DIMPOST
  1

  9
$DIMAPOST
  1

  9
$DIMALT
 70
     0
  9
$DIMALTD
 70
     2
  9
$DIMALTF
 40
0.0394
  9
$DIMLFAC
 40
1.0
  9
$DIMTOFL
 70
     1
  9
$DIMTVP
 40
0.0
  9
$DIMTIX
 70
     1
  9
$DIMSOXD
 70
     0
  9
$DIMSAH
 70
     1
  9
$DIMBLK1
  1
DOTSMALL
  9
$DIMBLK2
  1
DOTSMALL
  9
$DIMSTYLE
  2
INABA_S50G
  9
$DIMCLRD
 70
     0
  9
$DIMCLRE
 70
     0
  9
$DIMCLRT
 70
     7
  9
$DIMTFAC
 40
1.0
  9
$DIMGAP
 40
25.0
  9
$DIMJUST
 70
     0
  9
$DIMSD1
 70
     0
  9
$DIMSD2
 70
     0
  9
$DIMTOLJ
 70
     1
  9
$DIMTZIN
 70
     0
  9
$DIMALTZ
 70
     0
  9
$DIMALTTZ
 70
     0
  9
$DIMUPT
 70
     0
  9
$DIMDEC
 70
     1
  9
$DIMTDEC
 70
     1
  9
$DIMALTU
 70
     2
  9
$DIMALTTD
 70
     2
  9
$DIMTXSTY
  7
STYLE1
  9
$DIMAUNIT
 70
     0
  9
$DIMADEC
 70
     0
  9
$DIMALTRND
 40
0.0
  9
$DIMAZIN
 70
     0
  9
$DIMDSEP
 70
    46
  9
$DIMATFIT
 70
     3
  9
$DIMFRAC
 70
     0
  9
$DIMLDRBLK
  1

  9
$DIMLUNIT
 70
     2
  9
$DIMLWD
 70
    -2
  9
$DIMLWE
 70
    -2
  9
$DIMTMOVE
 70
     1
  9
$LUNITS
 70
     2
  9
$LUPREC
 70
     1
  9
$SKETCHINC
 40
1.0
  9
$FILLETRAD
 40
3.0
  9
$AUNITS
 70
     0
  9
$AUPREC
 70
     0
  9
$MENU
  1
acad
  9
$ELEVATION
 40
0.0
  9
$PELEVATION
 40
0.0
  9
$THICKNESS
 40
0.0
  9
$LIMCHECK
 70
     0
  9
$CHAMFERA
 40
0.0
  9
$CHAMFERB
 40
0.0
  9
$CHAMFERC
 40
0.0
  9
$CHAMFERD
 40
0.0
  9
$SKPOLY
 70
     0
  9
$TDCREATE
 40
2452335.452219213
  9
$TDUCREATE
 40
2452335.077219213
  9
$TDUPDATE
 40
2454641.744371320
  9
$TDUUPDATE
 40
2454641.369371320
  9
$TDINDWG
 40
1.2054754977
  9
$TDUSRTIMER
 40
1.2054754977
  9
$USRTIMER
 70
     1
  9
$ANGBASE
 50
0.0
  9
$ANGDIR
 70
     0
  9
$PDMODE
 70
     3
  9
$PDSIZE
 40
2.0
  9
$PLINEWID
 40
0.0
  9
$SPLFRAME
 70
     0
  9
$SPLINETYPE
 70
     6
  9
$SPLINESEGS
 70
     8
  9
$HANDSEED
  5
1ADF1
  9
$SURFTAB1
 70
     6
  9
$SURFTAB2
 70
     6
  9
$SURFTYPE
 70
     6
  9
$SURFU
 70
     6
  9
$SURFV
 70
     6
  9
$UCSBASE
  2

  9
$UCSNAME
  2

  9
$UCSORG
 10
0.0
 20
0.0
 30
0.0
  9
$UCSXDIR
 10
1.0
 20
0.0
 30
0.0
  9
$UCSYDIR
 10
0.0
 20
1.0
 30
0.0
  9
$UCSORTHOREF
  2

  9
$UCSORTHOVIEW
 70
     0
  9
$UCSORGTOP
 10
0.0
 20
0.0
 30
0.0
  9
$UCSORGBOTTOM
 10
0.0
 20
0.0
 30
0.0
  9
$UCSORGLEFT
 10
0.0
 20
0.0
 30
0.0
  9
$UCSORGRIGHT
 10
0.0
 20
0.0
 30
0.0
  9
$UCSORGFRONT
 10
0.0
 20
0.0
 30
0.0
  9
$UCSORGBACK
 10
0.0
 20
0.0
 30
0.0
  9
$PUCSBASE
  2

  9
$PUCSNAME
  2

  9
$PUCSORG
 10
0.0
 20
0.0
 30
0.0
  9
$PUCSXDIR
 10
1.0
 20
0.0
 30
0.0
  9
$PUCSYDIR
 10
0.0
 20
1.0
 30
0.0
  9
$PUCSORTHOREF
  2

  9
$PUCSORTHOVIEW
 70
     0
  9
$PUCSORGTOP
 10
0.0
 20
0.0
 30
0.0
  9
$PUCSORGBOTTOM
 10
0.0
 20
0.0
 30
0.0
  9
$PUCSORGLEFT
 10
0.0
 20
0.0
 30
0.0
  9
$PUCSORGRIGHT
 10
0.0
 20
0.0
 30
0.0
  9
$PUCSORGFRONT
 10
0.0
 20
0.0
 30
0.0
  9
$PUCSORGBACK
 10
0.0
 20
0.0
 30
0.0
  9
$USERI1
 70
     0
  9
$USERI2
 70
     0
  9
$USERI3
 70
     0
  9
$USERI4
 70
     0
  9
$USERI5
 70
     0
  9
$USERR1
 40
0.0
  9
$USERR2
 40
0.0
  9
$USERR3
 40
0.0
  9
$USERR4
 40
0.0
  9
$USERR5
 40
0.0
  9
$WORLDVIEW
 70
     1
  9
$SHADEDGE
 70
     3
  9
$SHADEDIF
 70
    70
  9
$TILEMODE
 70
     1
  9
$MAXACTVP
 70
    16
  9
$PINSBASE
 10
0.0
 20
0.0
 30
0.0
  9
$PLIMCHECK
 70
     0
  9
$PEXTMIN
 10
1.000000000000000E+20
 20
1.000000000000000E+20
 30
1.000000000000000E+20
  9
$PEXTMAX
 10
-1.000000000000000E+20
 20
-1.000000000000000E+20
 30
-1.000000000000000E+20
  9
$PLIMMIN
 10
0.0
 20
0.0
  9
$PLIMMAX
 10
420.0
 20
297.0
  9
$UNITMODE
 70
     0
  9
$VISRETAIN
 70
     0
  9
$PLINEGEN
 70
     0
  9
$PSLTSCALE
 70
     0
  9
$TREEDEPTH
 70
  3020
  9
$CMLSTYLE
  2
STANDARD
  9
$CMLJUST
 70
     0
  9
$CMLSCALE
 40
1.0
  9
$PROXYGRAPHICS
 70
     1
  9
$MEASUREMENT
 70
     1
  9
$CELWEIGHT
370
    -1
  9
$ENDCAPS
280
     0
  9
$JOINSTYLE
280
     0
  9
$LWDISPLAY
290
     0
  9
$INSUNITS
 70
     0
  9
$HYPERLINKBASE
  1

  9
$STYLESHEET
  1

  9
$XEDIT
290
     1
  9
$CEPSNTYPE
380
     0
  9
$PSTYLEMODE
290
     1
  9
$FINGERPRINTGUID
  2
{9013D24D-380D-4F6F-8200-E349F6FEAA5A}
  9
$VERSIONGUID
  2
{8106D04F-62B8-43CF-A0F7-9F174AD66A1B}
  9
$EXTNAMES
290
     1
  9
$PSVPSCALE
 40
0.0
  9
$OLESTARTUP
290
     0
  0
ENDSEC
  0
SECTION
  2
CLASSES
  0
CLASS
  1
DICTIONARYVAR
  2
AcDbDictionaryVar
  3
ObjectDBX Classes
 90
        0
280
     0
281
     0
  0
CLASS
  1
ACDBDICTIONARYWDFLT
  2
AcDbDictionaryWithDefault
  3
ObjectDBX Classes
 90
        0
280
     0
281
     0
  0
CLASS
  1
ACDBPLACEHOLDER
  2
AcDbPlaceHolder
  3
ObjectDBX Classes
 90
        0
280
     0
281
     0
  0
CLASS
  1
LAYOUT
  2
AcDbLayout
  3
ObjectDBX Classes
 90
        0
280
     0
281
     0
  0
ENDSEC
  0
SECTION
  2
TABLES
  0
TABLE
  2
VPORT
  5
746D
330
0
100
AcDbSymbolTable
 70
     2
  0
VPORT
  5
1ADE9
330
746D
100
AcDbSymbolTableRecord
100
AcDbViewportTableRecord
  2
*Active
 70
     0
 10
0.0
 20
0.0
 11
1.0
 21
1.0
 12
10279.70128154813
 22
7130.642328620429
 13
0.0
 23
0.0
 14
10.0
 24
10.0
 15
10.0
 25
10.0
 16
0.0
 26
0.0
 36
1.0
 17
0.0
 27
0.0
 37
0.0
 40
14368.8162950843
 41
1.549261083743842
 42
50.0
 43
0.0
 44
0.0
 50
0.0
 51
0.0
 71
     0
 72
     0
 73
     1
 74
     0
 75
     0
 76
     0
 77
     0
 78
     0
281
     0
 65
     1
110
0.0
120
0.0
130
0.0
111
1.0
121
0.0
131
0.0
112
0.0
122
1.0
132
0.0
 79
     0
146
0.0
  0
ENDTAB
  0
TABLE
  2
LTYPE
  5
746A
330
0
100
AcDbSymbolTable
 70
     2
  0
LTYPE
  5
7477
330
746A
100
AcDbSymbolTableRecord
100
AcDbLinetypeTableRecord
  2
BYBLOCK
 70
     0
  3

 72
    65
 73
     0
 40
0.0
  0
LTYPE
  5
7478
330
746A
100
AcDbSymbolTableRecord
100
AcDbLinetypeTableRecord
  2
BYLAYER
 70
     0
  3

 72
    65
 73
     0
 40
0.0
  0
LTYPE
  5
7479
330
746A
100
AcDbSymbolTableRecord
100
AcDbLinetypeTableRecord
  2
CONTINUOUS
 70
     0
  3
Solid line
 72
    65
 73
     0
 40
0.0
  0
LTYPE
  5
781B
330
746A
100
AcDbSymbolTableRecord
100
AcDbLinetypeTableRecord
  2
PHANTOM
 70
     0
  3
______  __  __  ______  __  __  ______  __  __ 
 72
    65
 73
     6
 40
2.5
 49
1.25
 74
     0
 49
-0.25
 74
     0
 49
0.25
 74
     0
 49
-0.25
 74
     0
 49
0.25
 74
     0
 49
-0.25
 74
     0
  0
ENDTAB
  0
TABLE
  2
LAYER
  5
7467
330
0
100
AcDbSymbolTable
 70
     9
  0
LAYER
  5
7474
330
7467
100
AcDbSymbolTableRecord
100
AcDbLayerTableRecord
  2
0
 70
     0
 62
     7
  6
CONTINUOUS
370
    -3
390
1A899
  0
LAYER
  5
DEB3
330
7467
100
AcDbSymbolTableRecord
100
AcDbLayerTableRecord
  2
寸法
 70
     0
 62
     4
  6
CONTINUOUS
370
    -3
390
1A899
  0
LAYER
  5
DEB4
330
7467
100
AcDbSymbolTableRecord
100
AcDbLayerTableRecord
  2
部品1
 70
     0
 62
     7
  6
CONTINUOUS
370
    -3
390
1A899
  0
LAYER
  5
DEB5
330
7467
100
AcDbSymbolTableRecord
100
AcDbLayerTableRecord
  2
補助
 70
     0
 62
    -1
  6
CONTINUOUS
370
    -3
390
1A899
  0
LAYER
  5
DEB6
330
7467
100
AcDbSymbolTableRecord
100
AcDbLayerTableRecord
  2
文字
 70
     0
 62
     7
  6
CONTINUOUS
370
    -3
390
1A899
  0
LAYER
  5
F255
330
7467
100
AcDbSymbolTableRecord
100
AcDbLayerTableRecord
  2
DEFPOINTS
 70
     0
 62
     7
  6
CONTINUOUS
290
     0
370
    -3
390
1A899
  0
LAYER
  5
10B54
330
7467
100
AcDbSymbolTableRecord
100
AcDbLayerTableRecord
  2
仕様書枠
 70
     0
 62
   230
  6
CONTINUOUS
370
    -3
390
1A899
  0
LAYER
  5
11729
330
7467
100
AcDbSymbolTableRecord
100
AcDbLayerTableRecord
  2
Ｇ．Ｌ
 70
     0
 62
    30
  6
CONTINUOUS
370
    -3
390
1A899
  0
LAYER
  5
1173F
330
7467
100
AcDbSymbolTableRecord
100
AcDbLayerTableRecord
  2
細線
 70
     0
 62
     5
  6
CONTINUOUS
370
    -3
390
1A899
  0
ENDTAB
  0
TABLE
  2
STYLE
  5
7468
330
0
100
AcDbSymbolTable
 70
     3
  0
STYLE
  5
7475
330
7468
100
AcDbSymbolTableRecord
100
AcDbTextStyleTableRecord
  2
STANDARD
 70
     0
 40
0.0
 41
1.0
 50
0.0
 71
     0
 42
4.0
  3
txt
  4
C:\AutoCAD LT\bigfont.shx
  0
STYLE
  5
F706
330
7468
100
AcDbSymbolTableRecord
100
AcDbTextStyleTableRecord
  2
STYLE1
 70
     0
 40
0.0
 41
1.0
 50
0.0
 71
     0
 42
4.0
  3
isocp.shx
  4
bigfont.shx
  0
STYLE
  5
103BF
330
7468
100
AcDbSymbolTableRecord
100
AcDbTextStyleTableRecord
  2
STYLE2
 70
     0
 40
0.0
 41
1.0
 50
0.0
 71
     0
 42
100.0
  3
MS PGothic.ttf
  4

1001
ACAD
1000
MS PGothic
1071
    32818
  0
ENDTAB
  0
TABLE
  2
VIEW
  5
746B
330
0
100
AcDbSymbolTable
 70
     0
  0
ENDTAB
  0
TABLE
  2
UCS
  5
746C
330
0
100
AcDbSymbolTable
 70
     0
  0
ENDTAB
  0
TABLE
  2
APPID
  5
746E
330
0
100
AcDbSymbolTable
 70
     6
  0
APPID
  5
7476
330
746E
100
AcDbSymbolTableRecord
100
AcDbRegAppTableRecord
  2
ACAD
 70
     0
  0
APPID
  5
DEA9
330
746E
100
AcDbSymbolTableRecord
100
AcDbRegAppTableRecord
  2
CONTENTBLOCKICON
 70
     0
  0
APPID
  5
DEAA
330
746E
100
AcDbSymbolTableRecord
100
AcDbRegAppTableRecord
  2
CONTENTBLOCKDESCRIPTION
 70
     0
  0
APPID
  5
E71D
330
746E
100
AcDbSymbolTableRecord
100
AcDbRegAppTableRecord
  2
CONTENTTABDATA
 70
     0
  0
APPID
  5
E71E
330
746E
100
AcDbSymbolTableRecord
100
AcDbRegAppTableRecord
  2
CONTENTCURRENTTAB
 70
     0
  0
APPID
  5
F3BA
330
746E
100
AcDbSymbolTableRecord
100
AcDbRegAppTableRecord
  2
DRAWINGVARIABLESXDATA
 70
     0
  0
ENDTAB
  0
TABLE
  2
DIMSTYLE
  5
746F
330
0
100
AcDbSymbolTable
 70
     1
100
AcDbDimStyleTable
 71
     1
340
F71F
  0
DIMSTYLE
105
F71F
102
{ACAD_REACTORS
330
16C9C
330
16CB5
330
16CC3
330
16CDA
330
16D30
330
16D3C
330
16DA8
330
16DCF
330
16DDB
330
16DE9
330
16E00
330
16E47
330
1852D
330
1852B
330
1852F
330
1852C
330
1852A
330
1852E
330
185AE
330
185B1
330
185B2
330
185B0
330
185B4
330
185AD
330
185AF
330
185B3
330
1868C
330
186AF
330
18778
330
1918D
330
191C4
330
191DD
330
19219
330
1A2E5
330
1A62F
330
1A630
330
1A631
330
1A635
330
1A63C
330
1A63D
330
1A63E
330
1A63F
330
1A640
330
1A641
102
}
330
746F
100
AcDbSymbolTableRecord
100
AcDbDimStyleTableRecord
  2
INABA_S50G
 70
     0
 41
125.0
 42
25.0
 43
7.0
 44
75.0
 73
     0
 74
     0
 77
     3
 78
     8
140
150.0
141
0.0
143
0.0394
147
25.0
172
     1
173
     1
174
     1
178
     7
271
     1
340
F706
341
F770
343
F770
344
F770
  0
ENDTAB
  0
TABLE
  2
BLOCK_RECORD
  5
7466
330
0
100
AcDbSymbolTable
 70
    45
  0
BLOCK_RECORD
  5
747D
330
7466
100
AcDbSymbolTableRecord
100
AcDbBlockTableRecord
  2
*MODEL_SPACE
340
1A89E
  0
BLOCK_RECORD
  5
747A
330
7466
100
AcDbSymbolTableRecord
100
AcDbBlockTableRecord
  2
*PAPER_SPACE
340
1A89F
  0
BLOCK_RECORD
  5
F770
330
7466
100
AcDbSymbolTableRecord
100
AcDbBlockTableRecord
  2
_DOTSMALL
340
0
102
{BLKREFS
331
18E54
331
18E55
331
18E48
331
18E49
331
18E3E
331
18E3F
331
18E1C
331
18E1D
331
187F9
331
187FA
331
1A43E
331
1A43F
331
190B0
331
190B1
331
18FA1
331
18FA2
331
1902A
331
1902B
331
19036
331
19037
331
18FDB
331
18FDC
331
18FC4
331
18FC5
331
18581
331
18582
331
1A3EB
331
1A3EC
331
18599
331
1859A
331
1A3D5
331
1A3D6
331
1A401
331
1A402
331
1A40E
331
1A40F
331
18629
331
1862A
331
185C6
331
185C7
331
18685
331
18686
331
18679
331
1867A
331
1865B
331
1865C
331
1861D
331
1861E
331
1A2CF
331
1A2D0
331
1864F
331
18650
331
186A8
331
186A9
331
186CB
331
186CC
331
18799
331
1879A
331
191AE
331
191AF
331
19206
331
19207
331
191E1
331
191E2
331
1921E
331
1921F
331
1A3B5
331
1A3B6
331
1A810
331
1A811
331
1A81B
331
1A81C
331
1A827
331
1A828
331
1A832
331
1A833
331
1A83D
331
1A83E
331
1A848
331
1A849
331
1A853
331
1A854
331
1A85F
331
1A860
331
1A86B
331
1A86C
331
1A875
331
1A876
102
}
  0
BLOCK_RECORD
  5
16C8E
330
7466
100
AcDbSymbolTableRecord
100
AcDbBlockTableRecord
  2
*D1
340
0
  0
BLOCK_RECORD
  5
16CAA
330
7466
100
AcDbSymbolTableRecord
100
AcDbBlockTableRecord
  2
*D2
340
0
  0
BLOCK_RECORD
  5
16CB6
330
7466
100
AcDbSymbolTableRecord
100
AcDbBlockTableRecord
  2
*D3
340
0
  0
BLOCK_RECORD
  5
16CCE
330
7466
100
AcDbSymbolTableRecord
100
AcDbBlockTableRecord
  2
*D4
340
0
  0
BLOCK_RECORD
  5
16D22
330
7466
100
AcDbSymbolTableRecord
100
AcDbBlockTableRecord
  2
*D5
340
0
  0
BLOCK_RECORD
  5
16D31
330
7466
100
AcDbSymbolTableRecord
100
AcDbBlockTableRecord
  2
*D6
340
0
  0
BLOCK_RECORD
  5
16D9C
330
7466
100
AcDbSymbolTableRecord
100
AcDbBlockTableRecord
  2
*D7
340
0
  0
BLOCK_RECORD
  5
16DC1
330
7466
100
AcDbSymbolTableRecord
100
AcDbBlockTableRecord
  2
*D8
340
0
  0
BLOCK_RECORD
  5
16DD0
330
7466
100
AcDbSymbolTableRecord
100
AcDbBlockTableRecord
  2
*D9
340
0
  0
BLOCK_RECORD
  5
16DDC
330
7466
100
AcDbSymbolTableRecord
100
AcDbBlockTableRecord
  2
*D10
340
0
  0
BLOCK_RECORD
  5
16DF4
330
7466
100
AcDbSymbolTableRecord
100
AcDbBlockTableRecord
  2
*D11
340
0
  0
BLOCK_RECORD
  5
16E3B
330
7466
100
AcDbSymbolTableRecord
100
AcDbBlockTableRecord
  2
*D12
340
0
  0
BLOCK_RECORD
  5
18530
330
7466
100
AcDbSymbolTableRecord
100
AcDbBlockTableRecord
  2
*D13
340
0
  0
BLOCK_RECORD
  5
1853D
330
7466
100
AcDbSymbolTableRecord
100
AcDbBlockTableRecord
  2
*D14
340
0
  0
BLOCK_RECORD
  5
18549
330
7466
100
AcDbSymbolTableRecord
100
AcDbBlockTableRecord
  2
*D15
340
0
  0
BLOCK_RECORD
  5
18556
330
7466
100
AcDbSymbolTableRecord
100
AcDbBlockTableRecord
  2
*D16
340
0
  0
BLOCK_RECORD
  5
18563
330
7466
100
AcDbSymbolTableRecord
100
AcDbBlockTableRecord
  2
*D17
340
0
  0
BLOCK_RECORD
  5
1856F
330
7466
100
AcDbSymbolTableRecord
100
AcDbBlockTableRecord
  2
*D18
340
0
  0
BLOCK_RECORD
  5
185B5
330
7466
100
AcDbSymbolTableRecord
100
AcDbBlockTableRecord
  2
*D19
340
0
  0
BLOCK_RECORD
  5
185C2
330
7466
100
AcDbSymbolTableRecord
100
AcDbBlockTableRecord
  2
*D20
340
0
  0
BLOCK_RECORD
  5
185CD
330
7466
100
AcDbSymbolTableRecord
100
AcDbBlockTableRecord
  2
*D21
340
0
  0
BLOCK_RECORD
  5
185DA
330
7466
100
AcDbSymbolTableRecord
100
AcDbBlockTableRecord
  2
*D22
340
0
  0
BLOCK_RECORD
  5
185E5
330
7466
100
AcDbSymbolTableRecord
100
AcDbBlockTableRecord
  2
*D23
340
0
  0
BLOCK_RECORD
  5
185F2
330
7466
100
AcDbSymbolTableRecord
100
AcDbBlockTableRecord
  2
*D24
340
0
  0
BLOCK_RECORD
  5
185FF
330
7466
100
AcDbSymbolTableRecord
100
AcDbBlockTableRecord
  2
*D25
340
0
  0
BLOCK_RECORD
  5
1860A
330
7466
100
AcDbSymbolTableRecord
100
AcDbBlockTableRecord
  2
*D26
340
0
  0
BLOCK_RECORD
  5
1868D
330
7466
100
AcDbSymbolTableRecord
100
AcDbBlockTableRecord
  2
*D27
340
0
  0
BLOCK_RECORD
  5
186B0
330
7466
100
AcDbSymbolTableRecord
100
AcDbBlockTableRecord
  2
*D28
340
0
  0
BLOCK_RECORD
  5
1876C
330
7466
100
AcDbSymbolTableRecord
100
AcDbBlockTableRecord
  2
*D29
340
0
  0
BLOCK_RECORD
  5
1917F
330
7466
100
AcDbSymbolTableRecord
100
AcDbBlockTableRecord
  2
*D30
340
0
  0
BLOCK_RECORD
  5
191B6
330
7466
100
AcDbSymbolTableRecord
100
AcDbBlockTableRecord
  2
*D31
340
0
  0
BLOCK_RECORD
  5
191D2
330
7466
100
AcDbSymbolTableRecord
100
AcDbBlockTableRecord
  2
*D32
340
0
  0
BLOCK_RECORD
  5
1920D
330
7466
100
AcDbSymbolTableRecord
100
AcDbBlockTableRecord
  2
*D33
340
0
  0
BLOCK_RECORD
  5
1A2D7
330
7466
100
AcDbSymbolTableRecord
100
AcDbBlockTableRecord
  2
*D34
340
0
  0
BLOCK_RECORD
  5
1A790
330
7466
100
AcDbSymbolTableRecord
100
AcDbBlockTableRecord
  2
*D35
340
0
  0
BLOCK_RECORD
  5
1A79D
330
7466
100
AcDbSymbolTableRecord
100
AcDbBlockTableRecord
  2
*D36
340
0
  0
BLOCK_RECORD
  5
1A7A9
330
7466
100
AcDbSymbolTableRecord
100
AcDbBlockTableRecord
  2
*D37
340
0
  0
BLOCK_RECORD
  5
1A7B6
330
7466
100
AcDbSymbolTableRecord
100
AcDbBlockTableRecord
  2
*D38
340
0
  0
BLOCK_RECORD
  5
1A7C2
330
7466
100
AcDbSymbolTableRecord
100
AcDbBlockTableRecord
  2
*D39
340
0
  0
BLOCK_RECORD
  5
1A7CE
330
7466
100
AcDbSymbolTableRecord
100
AcDbBlockTableRecord
  2
*D40
340
0
  0
BLOCK_RECORD
  5
1A7DA
330
7466
100
AcDbSymbolTableRecord
100
AcDbBlockTableRecord
  2
*D41
340
0
  0
BLOCK_RECORD
  5
1A7E6
330
7466
100
AcDbSymbolTableRecord
100
AcDbBlockTableRecord
  2
*D42
340
0
  0
BLOCK_RECORD
  5
1A7F3
330
7466
100
AcDbSymbolTableRecord
100
AcDbBlockTableRecord
  2
*D43
340
0
  0
BLOCK_RECORD
  5
1A800
330
7466
100
AcDbSymbolTableRecord
100
AcDbBlockTableRecord
  2
*D44
340
0
  0
ENDTAB
  0
ENDSEC
  0
SECTION
  2
BLOCKS
  0
BLOCK
  5
7489
330
747D
100
AcDbEntity
  8
0
100
AcDbBlockBegin
  2
*MODEL_SPACE
 70
     0
 10
0.0
 20
0.0
 30
0.0
  3
*MODEL_SPACE
  1

  0
ENDBLK
  5
748A
330
747D
100
AcDbEntity
  8
0
100
AcDbBlockEnd
  0
BLOCK
  5
7487
330
747A
100
AcDbEntity
 67
     1
  8
0
100
AcDbBlockBegin
  2
*PAPER_SPACE
 70
     0
 10
0.0
 20
0.0
 30
0.0
  3
*PAPER_SPACE
  1

  0
ENDBLK
  5
7488
330
747A
100
AcDbEntity
 67
     1
  8
0
100
AcDbBlockEnd
  0
BLOCK
  5
F771
330
F770
100
AcDbEntity
  8
0
 48
50.0
100
AcDbBlockBegin
  2
_DOTSMALL
 70
     0
 10
0.0
 20
0.0
 30
0.0
  3
_DOTSMALL
  1

  0
LWPOLYLINE
  5
F772
330
F770
100
AcDbEntity
  8
0
  6
ByBlock
 62
     0
 48
50.0
100
AcDbPolyline
 90
        2
 70
     1
 43
0.5
 10
-0.0625
 20
0.0
 42
1.0
 10
0.0625
 20
0.0
 42
1.0
  0
ENDBLK
  5
F776
330
F770
100
AcDbEntity
  8
0
 48
50.0
100
AcDbBlockEnd
  0
BLOCK
  5
18E4F
330
16C8E
100
AcDbEntity
  8
0
 48
50.0
100
AcDbBlockBegin
  2
*D1
 70
     1
 10
0.0
 20
0.0
 30
0.0
  3
*D1
  1

  0
LINE
  5
18E50
330
16C8E
100
AcDbEntity
  8
0
  6
ByBlock
 62
     0
 48
50.0
100
AcDbLine
 10
4137.829577048345
 20
5364.000002624809
 30
0.0
 11
4137.829577048345
 21
6143.281130716521
 31
0.0
  0
LINE
  5
18E51
330
16C8E
100
AcDbEntity
  8
0
  6
ByBlock
 62
     0
 48
50.0
100
AcDbLine
 10
4192.829581418172
 20
5400.000000008468
 30
0.0
 11
4192.829581418172
 21
6143.281130716521
 31
0.0
  0
LINE
  5
18E52
330
16C8E
100
AcDbEntity
  8
0
  6
ByBlock
 62
     0
 48
50.0
100
AcDbLine
 10
4192.829581418172
 20
6068.28113071652
 30
0.0
 11
4137.829577048345
 21
6068.28113071652
 31
0.0
  0
LINE
  5
18E53
330
16C8E
100
AcDbEntity
  8
0
  6
ByBlock
 62
     0
 48
50.0
100
AcDbLine
 10
4137.829577048345
 20
6068.28113071652
 30
0.0
 11
3702.163924582262
 21
6068.28113071652
 31
0.0
  0
INSERT
  5
18E54
330
16C8E
100
AcDbEntity
  8
0
  6
ByBlock
 62
     0
 48
50.0
100
AcDbBlockReference
  2
_DOTSMALL
 10
4192.829581418172
 20
6068.28113071652
 30
0.0
 41
125.0
 42
125.0
 43
125.0
  0
INSERT
  5
18E55
330
16C8E
100
AcDbEntity
  8
0
  6
ByBlock
 62
     0
 48
50.0
100
AcDbBlockReference
  2
_DOTSMALL
 10
4137.829577048345
 20
6068.28113071652
 30
0.0
 41
125.0
 42
125.0
 43
125.0
 50
180.0
  0
MTEXT
  5
18E56
330
16C8E
100
AcDbEntity
  8
0
  6
ByBlock
 62
     7
 48
50.0
100
AcDbMText
 10
3812.77052630006
 20
6168.281130716521
 30
0.0
 40
150.0
 41
0.0
 71
     5
 72
     1
  1
\A1;55
  7
STYLE1
 73
     1
 44
1.0
1001
ACAD
1000
MTEXTBEGIN
1070
    73
1070
     1
1070
    44
1040
1.0
1070
    74
1070
     0
1000
MTEXTEND
  0
POINT
  5
18E57
330
16C8E
100
AcDbEntity
  8
DEFPOINTS
  6
ByBlock
 62
     0
 48
50.0
100
AcDbPoint
 10
4137.829577048345
 20
5339.000002624809
 30
0.0
  0
POINT
  5
18E58
330
16C8E
100
AcDbEntity
  8
DEFPOINTS
  6
ByBlock
 62
     0
 48
50.0
100
AcDbPoint
 10
4192.829581418172
 20
5375.000000008467
 30
0.0
  0
POINT
  5
18E59
330
16C8E
100
AcDbEntity
  8
DEFPOINTS
  6
ByBlock
 62
     0
 48
50.0
100
AcDbPoint
 10
4192.829581418172
 20
6068.28113071652
 30
0.0
  0
ENDBLK
  5
18E5A
330
16C8E
100
AcDbEntity
  8
0
 48
50.0
100
AcDbBlockEnd
  0
BLOCK
  5
18E45
330
16CAA
100
AcDbEntity
  8
0
 48
50.0
100
AcDbBlockBegin
  2
*D2
 70
     1
 10
0.0
 20
0.0
 30
0.0
  3
*D2
  1

  0
LINE
  5
18E46
330
16CAA
100
AcDbEntity
  8
0
  6
ByBlock
 62
     0
 48
50.0
100
AcDbLine
 10
9112.829581418171
 20
5400.000000008446
 30
0.0
 11
9112.829581418171
 21
6143.281130716521
 31
0.0
  0
LINE
  5
18E47
330
16CAA
100
AcDbEntity
  8
0
  6
ByBlock
 62
     0
 48
50.0
100
AcDbLine
 10
4192.829581418172
 20
6068.28113071652
 30
0.0
 11
9112.829581418171
 21
6068.28113071652
 31
0.0
  0
INSERT
  5
18E48
330
16CAA
100
AcDbEntity
  8
0
  6
ByBlock
 62
     0
 48
50.0
100
AcDbBlockReference
  2
_DOTSMALL
 10
4192.829581418172
 20
6068.28113071652
 30
0.0
 41
125.0
 42
125.0
 43
125.0
 50
180.0
  0
INSERT
  5
18E49
330
16CAA
100
AcDbEntity
  8
0
  6
ByBlock
 62
     0
 48
50.0
100
AcDbBlockReference
  2
_DOTSMALL
 10
9112.829581418171
 20
6068.28113071652
 30
0.0
 41
125.0
 42
125.0
 43
125.0
  0
MTEXT
  5
18E4A
330
16CAA
100
AcDbEntity
  8
0
  6
ByBlock
 62
     7
 48
50.0
100
AcDbMText
 10
6652.829581418171
 20
6168.332146422526
 30
0.0
 40
150.0
 41
0.0
 71
     5
 72
     1
  1
\A1;柱外寸法 4920
  7
STYLE1
 73
     1
 44
1.0
1001
ACAD
1000
MTEXTBEGIN
1070
    73
1070
     1
1070
    44
1040
1.0
1070
    74
1070
     0
1000
MTEXTEND
  0
POINT
  5
18E4B
330
16CAA
100
AcDbEntity
  8
DEFPOINTS
  6
ByBlock
 62
     0
 48
50.0
100
AcDbPoint
 10
4192.829581418172
 20
5375.000000008467
 30
0.0
  0
POINT
  5
18E4C
330
16CAA
100
AcDbEntity
  8
DEFPOINTS
  6
ByBlock
 62
     0
 48
50.0
100
AcDbPoint
 10
9112.829581418171
 20
5375.000000008447
 30
0.0
  0
POINT
  5
18E4D
330
16CAA
100
AcDbEntity
  8
DEFPOINTS
  6
ByBlock
 62
     0
 48
50.0
100
AcDbPoint
 10
9112.829581418171
 20
6068.28113071652
 30
0.0
  0
ENDBLK
  5
18E4E
330
16CAA
100
AcDbEntity
  8
0
 48
50.0
100
AcDbBlockEnd
  0
BLOCK
  5
18E39
330
16CB6
100
AcDbEntity
  8
0
 48
50.0
100
AcDbBlockBegin
  2
*D3
 70
     1
 10
0.0
 20
0.0
 30
0.0
  3
*D3
  1

  0
LINE
  5
18E3A
330
16CB6
100
AcDbEntity
  8
0
  6
ByBlock
 62
     0
 48
50.0
100
AcDbLine
 10
9112.829581418171
 20
5400.000000008446
 30
0.0
 11
9112.829581418171
 21
6143.281130716521
 31
0.0
  0
LINE
  5
18E3B
330
16CB6
100
AcDbEntity
  8
0
  6
ByBlock
 62
     0
 48
50.0
100
AcDbLine
 10
9167.829581418175
 20
5364.000002624809
 30
0.0
 11
9167.829581418175
 21
6143.281130716521
 31
0.0
  0
LINE
  5
18E3C
330
16CB6
100
AcDbEntity
  8
0
  6
ByBlock
 62
     0
 48
50.0
100
AcDbLine
 10
9112.829581418171
 20
6068.28113071652
 30
0.0
 11
9167.829581418175
 21
6068.28113071652
 31
0.0
  0
LINE
  5
18E3D
330
16CB6
100
AcDbEntity
  8
0
  6
ByBlock
 62
     0
 48
50.0
100
AcDbLine
 10
9167.829581418175
 20
6068.28113071652
 30
0.0
 11
9593.495238254083
 21
6068.28113071652
 31
0.0
  0
INSERT
  5
18E3E
330
16CB6
100
AcDbEntity
  8
0
  6
ByBlock
 62
     0
 48
50.0
100
AcDbBlockReference
  2
_DOTSMALL
 10
9112.829581418171
 20
6068.28113071652
 30
0.0
 41
125.0
 42
125.0
 43
125.0
 50
180.0
  0
INSERT
  5
18E3F
330
16CB6
100
AcDbEntity
  8
0
  6
ByBlock
 62
     0
 48
50.0
100
AcDbBlockReference
  2
_DOTSMALL
 10
9167.829581418175
 20
6068.28113071652
 30
0.0
 41
125.0
 42
125.0
 43
125.0
  0
MTEXT
  5
18E40
330
16CB6
100
AcDbEntity
  8
0
  6
ByBlock
 62
     7
 48
50.0
100
AcDbMText
 10
9482.888636536285
 20
6168.281130716521
 30
0.0
 40
150.0
 41
0.0
 71
     5
 72
     1
  1
\A1;55
  7
STYLE1
 73
     1
 44
1.0
1001
ACAD
1000
MTEXTBEGIN
1070
    73
1070
     1
1070
    44
1040
1.0
1070
    74
1070
     0
1000
MTEXTEND
  0
POINT
  5
18E41
330
16CB6
100
AcDbEntity
  8
DEFPOINTS
  6
ByBlock
 62
     0
 48
50.0
100
AcDbPoint
 10
9112.829581418171
 20
5375.000000008445
 30
0.0
  0
POINT
  5
18E42
330
16CB6
100
AcDbEntity
  8
DEFPOINTS
  6
ByBlock
 62
     0
 48
50.0
100
AcDbPoint
 10
9167.829581418175
 20
5339.000002624809
 30
0.0
  0
POINT
  5
18E43
330
16CB6
100
AcDbEntity
  8
DEFPOINTS
  6
ByBlock
 62
     0
 48
50.0
100
AcDbPoint
 10
9167.829581418175
 20
6068.28113071652
 30
0.0
  0
ENDBLK
  5
18E44
330
16CB6
100
AcDbEntity
  8
0
 48
50.0
100
AcDbBlockEnd
  0
BLOCK
  5
18E18
330
16CCE
100
AcDbEntity
  8
0
 48
50.0
100
AcDbBlockBegin
  2
*D4
 70
     1
 10
0.0
 20
0.0
 30
0.0
  3
*D4
  1

  0
LINE
  5
18E19
330
16CCE
100
AcDbEntity
  8
0
  6
ByBlock
 62
     0
 48
50.0
100
AcDbLine
 10
4137.829577048345
 20
5364.000002624809
 30
0.0
 11
4137.829577048345
 21
6411.068854554546
 31
0.0
  0
LINE
  5
18E1A
330
16CCE
100
AcDbEntity
  8
0
  6
ByBlock
 62
     0
 48
50.0
100
AcDbLine
 10
9167.829581418175
 20
5364.000002624809
 30
0.0
 11
9167.829581418175
 21
6411.068854554546
 31
0.0
  0
LINE
  5
18E1B
330
16CCE
100
AcDbEntity
  8
0
  6
ByBlock
 62
     0
 48
50.0
100
AcDbLine
 10
4137.829577048345
 20
6336.068854554546
 30
0.0
 11
9167.829581418175
 21
6336.068854554546
 31
0.0
  0
INSERT
  5
18E1C
330
16CCE
100
AcDbEntity
  8
0
  6
ByBlock
 62
     0
 48
50.0
100
AcDbBlockReference
  2
_DOTSMALL
 10
4137.829577048345
 20
6336.068854554546
 30
0.0
 41
125.0
 42
125.0
 43
125.0
 50
180.0
  0
INSERT
  5
18E1D
330
16CCE
100
AcDbEntity
  8
0
  6
ByBlock
 62
     0
 48
50.0
100
AcDbBlockReference
  2
_DOTSMALL
 10
9167.829581418175
 20
6336.068854554546
 30
0.0
 41
125.0
 42
125.0
 43
125.0
  0
MTEXT
  5
18E1E
330
16CCE
100
AcDbEntity
  8
0
  6
ByBlock
 62
     7
 48
50.0
100
AcDbMText
 10
6652.82957923326
 20
6436.068854554545
 30
0.0
 40
150.0
 41
0.0
 71
     5
 72
     1
  1
\A1;5030
  7
STYLE1
 73
     1
 44
1.0
1001
ACAD
1000
MTEXTBEGIN
1070
    73
1070
     1
1070
    44
1040
1.0
1070
    74
1070
     0
1000
MTEXTEND
  0
POINT
  5
18E1F
330
16CCE
100
AcDbEntity
  8
DEFPOINTS
  6
ByBlock
 62
     0
 48
50.0
100
AcDbPoint
 10
4137.829577048345
 20
5339.000002624809
 30
0.0
  0
POINT
  5
18E20
330
16CCE
100
AcDbEntity
  8
DEFPOINTS
  6
ByBlock
 62
     0
 48
50.0
100
AcDbPoint
 10
9167.829581418175
 20
5339.000002624809
 30
0.0
  0
POINT
  5
18E21
330
16CCE
100
AcDbEntity
  8
DEFPOINTS
  6
ByBlock
 62
     0
 48
50.0
100
AcDbPoint
 10
9167.829581418175
 20
6336.068854554546
 30
0.0
  0
ENDBLK
  5
18E22
330
16CCE
100
AcDbEntity
  8
0
 48
50.0
100
AcDbBlockEnd
  0
BLOCK
  5
187F4
330
16D22
100
AcDbEntity
  8
0
 48
50.0
100
AcDbBlockBegin
  2
*D5
 70
     1
 10
0.0
 20
0.0
 30
0.0
  3
*D5
  1

  0
LINE
  5
187F5
330
16D22
100
AcDbEntity
  8
0
  6
ByBlock
 62
     0
 48
50.0
100
AcDbLine
 10
9137.829581418172
 20
2935.0
 30
0.0
 11
9843.934533249726
 21
2935.0
 31
0.0
  0
LINE
  5
187F6
330
16D22
100
AcDbEntity
  8
0
  6
ByBlock
 62
     0
 48
50.0
100
AcDbLine
 10
9137.829581418172
 20
3002.0
 30
0.0
 11
9843.934533249726
 21
3002.0
 31
0.0
  0
LINE
  5
187F7
330
16D22
100
AcDbEntity
  8
0
  6
ByBlock
 62
     0
 48
50.0
100
AcDbLine
 10
9768.934533249726
 20
3002.0
 30
0.0
 11
9768.934533249726
 21
2935.0
 31
0.0
  0
LINE
  5
187F8
330
16D22
100
AcDbEntity
  8
0
  6
ByBlock
 62
     0
 48
50.0
100
AcDbLine
 10
9768.934533249726
 20
2935.0
 30
0.0
 11
9768.934533249726
 21
2526.709408511117
 31
0.0
  0
INSERT
  5
187F9
330
16D22
100
AcDbEntity
  8
0
  6
ByBlock
 62
     0
 48
50.0
100
AcDbBlockReference
  2
_DOTSMALL
 10
9768.934533249726
 20
3002.0
 30
0.0
 41
125.0
 42
125.0
 43
125.0
 50
90.0
  0
INSERT
  5
187FA
330
16D22
100
AcDbEntity
  8
0
  6
ByBlock
 62
     0
 48
50.0
100
AcDbBlockReference
  2
_DOTSMALL
 10
9768.934533249726
 20
2935.0
 30
0.0
 41
125.0
 42
125.0
 43
125.0
 50
270.0
  0
MTEXT
  5
187FB
330
16D22
100
AcDbEntity
  8
0
  6
ByBlock
 62
     7
 48
50.0
100
AcDbMText
 10
9668.934533249725
 20
2638.697597487495
 30
0.0
 40
150.0
 41
0.0
 71
     5
 72
     1
  1
\A1;67
  7
STYLE1
 11
0.0000000000000001
 21
1.0
 31
0.0
 73
     1
 44
1.0
1001
ACAD
1000
MTEXTBEGIN
1070
    73
1070
     1
1070
    44
1040
1.0
1070
    74
1070
     0
1000
MTEXTEND
  0
POINT
  5
187FC
330
16D22
100
AcDbEntity
  8
DEFPOINTS
  6
ByBlock
 62
     0
 48
50.0
100
AcDbPoint
 10
9112.829581418173
 20
2935.0
 30
0.0
  0
POINT
  5
187FD
330
16D22
100
AcDbEntity
  8
DEFPOINTS
  6
ByBlock
 62
     0
 48
50.0
100
AcDbPoint
 10
9112.829581418173
 20
3002.0
 30
0.0
  0
POINT
  5
187FE
330
16D22
100
AcDbEntity
  8
DEFPOINTS
  6
ByBlock
 62
     0
 48
50.0
100
AcDbPoint
 10
9768.934533249726
 20
3002.0
 30
0.0
  0
ENDBLK
  5
187FF
330
16D22
100
AcDbEntity
  8
0
 48
50.0
100
AcDbBlockEnd
  0
BLOCK
  5
1A43B
330
16D31
100
AcDbEntity
  8
0
 48
50.0
100
AcDbBlockBegin
  2
*D6
 70
     1
 10
0.0
 20
0.0
 30
0.0
  3
*D6
  1

  0
LINE
  5
1A43C
330
16D31
100
AcDbEntity
  8
0
  6
ByBlock
 62
     0
 48
50.0
100
AcDbLine
 10
9137.829581418172
 20
5472.0
 30
0.0
 11
9843.934533249726
 21
5472.0
 31
0.0
  0
LINE
  5
1A43D
330
16D31
100
AcDbEntity
  8
0
  6
ByBlock
 62
     0
 48
50.0
100
AcDbLine
 10
9768.934533249726
 20
3342.0
 30
0.0
 11
9768.934533249726
 21
5472.0
 31
0.0
  0
INSERT
  5
1A43E
330
16D31
100
AcDbEntity
  8
0
  6
ByBlock
 62
     0
 48
50.0
100
AcDbBlockReference
  2
_DOTSMALL
 10
9768.934533249726
 20
3342.0
 30
0.0
 41
125.0
 42
125.0
 43
125.0
 50
270.0
  0
INSERT
  5
1A43F
330
16D31
100
AcDbEntity
  8
0
  6
ByBlock
 62
     0
 48
50.0
100
AcDbBlockReference
  2
_DOTSMALL
 10
9768.934533249726
 20
5472.0
 30
0.0
 41
125.0
 42
125.0
 43
125.0
 50
90.0
  0
MTEXT
  5
1A440
330
16D31
100
AcDbEntity
  8
0
  6
ByBlock
 62
     7
 48
50.0
100
AcDbMText
 10
9668.9197694702
 20
4407.0
 30
0.0
 40
150.0
 41
0.0
 71
     5
 72
     1
  1
\A1;内高 2130
  7
STYLE1
 11
0.0000000000000001
 21
1.0
 31
0.0
 73
     1
 44
1.0
1001
ACAD
1000
MTEXTBEGIN
1070
    73
1070
     1
1070
    44
1040
1.0
1070
    74
1070
     0
1000
MTEXTEND
  0
POINT
  5
1A441
330
16D31
100
AcDbEntity
  8
DEFPOINTS
  6
ByBlock
 62
     0
 48
50.0
100
AcDbPoint
 10
9112.829581418173
 20
3342.0
 30
0.0
  0
POINT
  5
1A442
330
16D31
100
AcDbEntity
  8
DEFPOINTS
  6
ByBlock
 62
     0
 48
50.0
100
AcDbPoint
 10
9112.829581418171
 20
5472.0
 30
0.0
  0
POINT
  5
1A443
330
16D31
100
AcDbEntity
  8
DEFPOINTS
  6
ByBlock
 62
     0
 48
50.0
100
AcDbPoint
 10
9768.934533249726
 20
5472.0
 30
0.0
  0
ENDBLK
  5
1A444
330
16D31
100
AcDbEntity
  8
0
 48
50.0
100
AcDbBlockEnd
  0
BLOCK
  5
190AC
330
16D9C
100
AcDbEntity
  8
0
 48
50.0
100
AcDbBlockBegin
  2
*D7
 70
     1
 10
0.0
 20
0.0
 30
0.0
  3
*D7
  1

  0
LINE
  5
190AD
330
16D9C
100
AcDbEntity
  8
0
  6
ByBlock
 62
     0
 48
50.0
100
AcDbLine
 10
12782.82958141817
 20
5375.0
 30
0.0
 11
11833.66366111978
 21
5375.0
 31
0.0
  0
LINE
  5
190AE
330
16D9C
100
AcDbEntity
  8
0
  6
ByBlock
 62
     0
 48
50.0
100
AcDbLine
 10
12849.82958141817
 20
2935.0
 30
0.0
 11
11833.66366111978
 21
2935.0
 31
0.0
  0
LINE
  5
190AF
330
16D9C
100
AcDbEntity
  8
0
  6
ByBlock
 62
     0
 48
50.0
100
AcDbLine
 10
11908.66366111978
 20
5375.0
 30
0.0
 11
11908.66366111978
 21
2935.0
 31
0.0
  0
INSERT
  5
190B0
330
16D9C
100
AcDbEntity
  8
0
  6
ByBlock
 62
     0
 48
50.0
100
AcDbBlockReference
  2
_DOTSMALL
 10
11908.66366111978
 20
5375.0
 30
0.0
 41
125.0
 42
125.0
 43
125.0
 50
90.0
  0
INSERT
  5
190B1
330
16D9C
100
AcDbEntity
  8
0
  6
ByBlock
 62
     0
 48
50.0
100
AcDbBlockReference
  2
_DOTSMALL
 10
11908.66366111978
 20
2935.0
 30
0.0
 41
125.0
 42
125.0
 43
125.0
 50
270.0
  0
MTEXT
  5
190B2
330
16D9C
100
AcDbEntity
  8
0
  6
ByBlock
 62
     7
 48
50.0
100
AcDbMText
 10
11808.64889734025
 20
4155.0
 30
0.0
 40
150.0
 41
0.0
 71
     5
 72
     1
  1
\A1;2440
  7
STYLE1
 11
0.0000000000000001
 21
1.0
 31
0.0
 73
     1
 44
1.0
1001
ACAD
1000
MTEXTBEGIN
1070
    73
1070
     1
1070
    44
1040
1.0
1070
    74
1070
     0
1000
MTEXTEND
  0
POINT
  5
190B3
330
16D9C
100
AcDbEntity
  8
DEFPOINTS
  6
ByBlock
 62
     0
 48
50.0
100
AcDbPoint
 10
12807.82958141817
 20
5375.0
 30
0.0
  0
POINT
  5
190B4
330
16D9C
100
AcDbEntity
  8
DEFPOINTS
  6
ByBlock
 62
     0
 48
50.0
100
AcDbPoint
 10
12874.82958141817
 20
2935.0
 30
0.0
  0
POINT
  5
190B5
330
16D9C
100
AcDbEntity
  8
DEFPOINTS
  6
ByBlock
 62
     0
 48
50.0
100
AcDbPoint
 10
11908.66366111978
 20
2935.0
 30
0.0
  0
ENDBLK
  5
190B6
330
16D9C
100
AcDbEntity
  8
0
 48
50.0
100
AcDbBlockEnd
  0
BLOCK
  5
18F9C
330
16DC1
100
AcDbEntity
  8
0
 48
50.0
100
AcDbBlockBegin
  2
*D8
 70
     1
 10
0.0
 20
0.0
 30
0.0
  3
*D8
  1

  0
LINE
  5
18F9D
330
16DC1
100
AcDbEntity
  8
0
  6
ByBlock
 62
     0
 48
50.0
100
AcDbLine
 10
12797.82958141817
 20
5400.0
 30
0.0
 11
12797.82958141817
 21
6143.281130716521
 31
0.0
  0
LINE
  5
18F9E
330
16DC1
100
AcDbEntity
  8
0
  6
ByBlock
 62
     0
 48
50.0
100
AcDbLine
 10
12932.82958141817
 20
5397.575543750732
 30
0.0
 11
12932.82958141817
 21
6143.281130716521
 31
0.0
  0
LINE
  5
18F9F
330
16DC1
100
AcDbEntity
  8
0
  6
ByBlock
 62
     0
 48
50.0
100
AcDbLine
 10
12932.82958141817
 20
6068.28113071652
 30
0.0
 11
12797.82958141817
 21
6068.28113071652
 31
0.0
  0
LINE
  5
18FA0
330
16DC1
100
AcDbEntity
  8
0
  6
ByBlock
 62
     0
 48
50.0
100
AcDbLine
 10
12797.82958141817
 20
6068.28113071652
 30
0.0
 11
12376.61637798257
 21
6068.28113071652
 31
0.0
  0
INSERT
  5
18FA1
330
16DC1
100
AcDbEntity
  8
0
  6
ByBlock
 62
     0
 48
50.0
100
AcDbBlockReference
  2
_DOTSMALL
 10
12932.82958141817
 20
6068.28113071652
 30
0.0
 41
125.0
 42
125.0
 43
125.0
  0
INSERT
  5
18FA2
330
16DC1
100
AcDbEntity
  8
0
  6
ByBlock
 62
     0
 48
50.0
100
AcDbBlockReference
  2
_DOTSMALL
 10
12797.82958141817
 20
6068.28113071652
 30
0.0
 41
125.0
 42
125.0
 43
125.0
 50
180.0
  0
MTEXT
  5
18FA3
330
16DC1
100
AcDbEntity
  8
0
  6
ByBlock
 62
     7
 48
50.0
100
AcDbMText
 10
12524.72297970037
 20
6168.281130716521
 30
0.0
 40
150.0
 41
0.0
 71
     5
 72
     1
  1
\A1;135
  7
STYLE1
 73
     1
 44
1.0
1001
ACAD
1000
MTEXTBEGIN
1070
    73
1070
     1
1070
    44
1040
1.0
1070
    74
1070
     0
1000
MTEXTEND
  0
POINT
  5
18FA4
330
16DC1
100
AcDbEntity
  8
DEFPOINTS
  6
ByBlock
 62
     0
 48
50.0
100
AcDbPoint
 10
12797.82958141817
 20
5375.0
 30
0.0
  0
POINT
  5
18FA5
330
16DC1
100
AcDbEntity
  8
DEFPOINTS
  6
ByBlock
 62
     0
 48
50.0
100
AcDbPoint
 10
12932.82958141817
 20
5372.575543750731
 30
0.0
  0
POINT
  5
18FA6
330
16DC1
100
AcDbEntity
  8
DEFPOINTS
  6
ByBlock
 62
     0
 48
50.0
100
AcDbPoint
 10
12932.82958141817
 20
6068.28113071652
 30
0.0
  0
ENDBLK
  5
18FA7
330
16DC1
100
AcDbEntity
  8
0
 48
50.0
100
AcDbBlockEnd
  0
BLOCK
  5
19027
330
16DD0
100
AcDbEntity
  8
0
 48
50.0
100
AcDbBlockBegin
  2
*D9
 70
     1
 10
0.0
 20
0.0
 30
0.0
  3
*D9
  1

  0
LINE
  5
19028
330
16DD0
100
AcDbEntity
  8
0
  6
ByBlock
 62
     0
 48
50.0
100
AcDbLine
 10
15982.82958141817
 20
5342.626383835636
 30
0.0
 11
15982.82958141817
 21
6143.281130716521
 31
0.0
  0
LINE
  5
19029
330
16DD0
100
AcDbEntity
  8
0
  6
ByBlock
 62
     0
 48
50.0
100
AcDbLine
 10
12942.82958141817
 20
6068.28113071652
 30
0.0
 11
15982.82958141817
 21
6068.28113071652
 31
0.0
  0
INSERT
  5
1902A
330
16DD0
100
AcDbEntity
  8
0
  6
ByBlock
 62
     0
 48
50.0
100
AcDbBlockReference
  2
_DOTSMALL
 10
12942.82958141817
 20
6068.28113071652
 30
0.0
 41
125.0
 42
125.0
 43
125.0
 50
180.0
  0
INSERT
  5
1902B
330
16DD0
100
AcDbEntity
  8
0
  6
ByBlock
 62
     0
 48
50.0
100
AcDbBlockReference
  2
_DOTSMALL
 10
15982.82958141817
 20
6068.28113071652
 30
0.0
 41
125.0
 42
125.0
 43
125.0
  0
MTEXT
  5
1902C
330
16DD0
100
AcDbEntity
  8
0
  6
ByBlock
 62
     7
 48
50.0
100
AcDbMText
 10
14462.82958141817
 20
6168.281130716521
 30
0.0
 40
150.0
 41
0.0
 71
     5
 72
     1
  1
\A1;柱外寸法 3040
  7
STYLE1
 73
     1
 44
1.0
1001
ACAD
1000
MTEXTBEGIN
1070
    73
1070
     1
1070
    44
1040
1.0
1070
    74
1070
     0
1000
MTEXTEND
  0
POINT
  5
1902D
330
16DD0
100
AcDbEntity
  8
DEFPOINTS
  6
ByBlock
 62
     0
 48
50.0
100
AcDbPoint
 10
12942.82958141817
 20
5372.575543750731
 30
0.0
  0
POINT
  5
1902E
330
16DD0
100
AcDbEntity
  8
DEFPOINTS
  6
ByBlock
 62
     0
 48
50.0
100
AcDbPoint
 10
15982.82958141817
 20
5317.626383835636
 30
0.0
  0
POINT
  5
1902F
330
16DD0
100
AcDbEntity
  8
DEFPOINTS
  6
ByBlock
 62
     0
 48
50.0
100
AcDbPoint
 10
15982.82958141817
 20
6068.28113071652
 30
0.0
  0
ENDBLK
  5
19030
330
16DD0
100
AcDbEntity
  8
0
 48
50.0
100
AcDbBlockEnd
  0
BLOCK
  5
19031
330
16DDC
100
AcDbEntity
  8
0
 48
50.0
100
AcDbBlockBegin
  2
*D10
 70
     1
 10
0.0
 20
0.0
 30
0.0
  3
*D10
  1

  0
LINE
  5
19032
330
16DDC
100
AcDbEntity
  8
0
  6
ByBlock
 62
     0
 48
50.0
100
AcDbLine
 10
15982.82958141817
 20
5342.626383835636
 30
0.0
 11
15982.82958141817
 21
6143.281130716521
 31
0.0
  0
LINE
  5
19033
330
16DDC
100
AcDbEntity
  8
0
  6
ByBlock
 62
     0
 48
50.0
100
AcDbLine
 10
16077.82958141817
 20
5340.0
 30
0.0
 11
16077.82958141817
 21
6143.281130716521
 31
0.0
  0
LINE
  5
19034
330
16DDC
100
AcDbEntity
  8
0
  6
ByBlock
 62
     0
 48
50.0
100
AcDbLine
 10
15982.82958141817
 20
6068.28113071652
 30
0.0
 11
16077.82958141817
 21
6068.28113071652
 31
0.0
  0
LINE
  5
19035
330
16DDC
100
AcDbEntity
  8
0
  6
ByBlock
 62
     0
 48
50.0
100
AcDbLine
 10
16077.82958141817
 20
6068.28113071652
 30
0.0
 11
16524.10183997188
 21
6068.28113071652
 31
0.0
  0
INSERT
  5
19036
330
16DDC
100
AcDbEntity
  8
0
  6
ByBlock
 62
     0
 48
50.0
100
AcDbBlockReference
  2
_DOTSMALL
 10
15982.82958141817
 20
6068.28113071652
 30
0.0
 41
125.0
 42
125.0
 43
125.0
 50
180.0
  0
INSERT
  5
19037
330
16DDC
100
AcDbEntity
  8
0
  6
ByBlock
 62
     0
 48
50.0
100
AcDbBlockReference
  2
_DOTSMALL
 10
16077.82958141817
 20
6068.28113071652
 30
0.0
 41
125.0
 42
125.0
 43
125.0
  0
MTEXT
  5
19038
330
16DDC
100
AcDbEntity
  8
0
  6
ByBlock
 62
     7
 48
50.0
100
AcDbMText
 10
16410.38863653628
 20
6168.281130716521
 30
0.0
 40
150.0
 41
0.0
 71
     5
 72
     1
  1
\A1;95
  7
STYLE1
 73
     1
 44
1.0
1001
ACAD
1000
MTEXTBEGIN
1070
    73
1070
     1
1070
    44
1040
1.0
1070
    74
1070
     0
1000
MTEXTEND
  0
POINT
  5
19039
330
16DDC
100
AcDbEntity
  8
DEFPOINTS
  6
ByBlock
 62
     0
 48
50.0
100
AcDbPoint
 10
15982.82958141817
 20
5317.626383835636
 30
0.0
  0
POINT
  5
1903A
330
16DDC
100
AcDbEntity
  8
DEFPOINTS
  6
ByBlock
 62
     0
 48
50.0
100
AcDbPoint
 10
16077.82958141817
 20
5315.0
 30
0.0
  0
POINT
  5
1903B
330
16DDC
100
AcDbEntity
  8
DEFPOINTS
  6
ByBlock
 62
     0
 48
50.0
100
AcDbPoint
 10
16077.82958141817
 20
6068.28113071652
 30
0.0
  0
ENDBLK
  5
1903C
330
16DDC
100
AcDbEntity
  8
0
 48
50.0
100
AcDbBlockEnd
  0
BLOCK
  5
18FD7
330
16DF4
100
AcDbEntity
  8
0
 48
50.0
100
AcDbBlockBegin
  2
*D11
 70
     1
 10
0.0
 20
0.0
 30
0.0
  3
*D11
  1

  0
LINE
  5
18FD8
330
16DF4
100
AcDbEntity
  8
0
  6
ByBlock
 62
     0
 48
50.0
100
AcDbLine
 10
12807.82958141817
 20
5400.0
 30
0.0
 11
12807.82958141817
 21
6411.068854554546
 31
0.0
  0
LINE
  5
18FD9
330
16DF4
100
AcDbEntity
  8
0
  6
ByBlock
 62
     0
 48
50.0
100
AcDbLine
 10
16077.82958141817
 20
5340.0
 30
0.0
 11
16077.82958141817
 21
6411.068854554546
 31
0.0
  0
LINE
  5
18FDA
330
16DF4
100
AcDbEntity
  8
0
  6
ByBlock
 62
     0
 48
50.0
100
AcDbLine
 10
12807.82958141817
 20
6336.068854554546
 30
0.0
 11
16077.82958141817
 21
6336.068854554546
 31
0.0
  0
INSERT
  5
18FDB
330
16DF4
100
AcDbEntity
  8
0
  6
ByBlock
 62
     0
 48
50.0
100
AcDbBlockReference
  2
_DOTSMALL
 10
12807.82958141817
 20
6336.068854554546
 30
0.0
 41
125.0
 42
125.0
 43
125.0
 50
180.0
  0
INSERT
  5
18FDC
330
16DF4
100
AcDbEntity
  8
0
  6
ByBlock
 62
     0
 48
50.0
100
AcDbBlockReference
  2
_DOTSMALL
 10
16077.82958141817
 20
6336.068854554546
 30
0.0
 41
125.0
 42
125.0
 43
125.0
  0
MTEXT
  5
18FDD
330
16DF4
100
AcDbEntity
  8
0
  6
ByBlock
 62
     7
 48
50.0
100
AcDbMText
 10
14442.82958141817
 20
6436.083618334072
 30
0.0
 40
150.0
 41
0.0
 71
     5
 72
     1
  1
\A1;3270
  7
STYLE1
 73
     1
 44
1.0
1001
ACAD
1000
MTEXTBEGIN
1070
    73
1070
     1
1070
    44
1040
1.0
1070
    74
1070
     0
1000
MTEXTEND
  0
POINT
  5
18FDE
330
16DF4
100
AcDbEntity
  8
DEFPOINTS
  6
ByBlock
 62
     0
 48
50.0
100
AcDbPoint
 10
12807.82958141817
 20
5375.0
 30
0.0
  0
POINT
  5
18FDF
330
16DF4
100
AcDbEntity
  8
DEFPOINTS
  6
ByBlock
 62
     0
 48
50.0
100
AcDbPoint
 10
16077.82958141817
 20
5315.0
 30
0.0
  0
POINT
  5
18FE0
330
16DF4
100
AcDbEntity
  8
DEFPOINTS
  6
ByBlock
 62
     0
 48
50.0
100
AcDbPoint
 10
16077.82958141817
 20
6336.068854554546
 30
0.0
  0
ENDBLK
  5
18FE1
330
16DF4
100
AcDbEntity
  8
0
 48
50.0
100
AcDbBlockEnd
  0
BLOCK
  5
18FC0
330
16E3B
100
AcDbEntity
  8
0
 48
50.0
100
AcDbBlockBegin
  2
*D12
 70
     1
 10
0.0
 20
0.0
 30
0.0
  3
*D12
  1

  0
LINE
  5
18FC1
330
16E3B
100
AcDbEntity
  8
0
  6
ByBlock
 62
     0
 48
50.0
100
AcDbLine
 10
16007.82958141817
 20
2935.0
 30
0.0
 11
16717.32033483959
 21
2935.0
 31
0.0
  0
LINE
  5
18FC2
330
16E3B
100
AcDbEntity
  8
0
  6
ByBlock
 62
     0
 48
50.0
100
AcDbLine
 10
16102.82958141817
 20
5315.0
 30
0.0
 11
16717.32033483959
 21
5315.0
 31
0.0
  0
LINE
  5
18FC3
330
16E3B
100
AcDbEntity
  8
0
  6
ByBlock
 62
     0
 48
50.0
100
AcDbLine
 10
16642.32033483959
 20
2935.0
 30
0.0
 11
16642.32033483959
 21
5315.0
 31
0.0
  0
INSERT
  5
18FC4
330
16E3B
100
AcDbEntity
  8
0
  6
ByBlock
 62
     0
 48
50.0
100
AcDbBlockReference
  2
_DOTSMALL
 10
16642.32033483959
 20
2935.0
 30
0.0
 41
125.0
 42
125.0
 43
125.0
 50
270.0
  0
INSERT
  5
18FC5
330
16E3B
100
AcDbEntity
  8
0
  6
ByBlock
 62
     0
 48
50.0
100
AcDbBlockReference
  2
_DOTSMALL
 10
16642.32033483959
 20
5315.0
 30
0.0
 41
125.0
 42
125.0
 43
125.0
 50
90.0
  0
MTEXT
  5
18FC6
330
16E3B
100
AcDbEntity
  8
0
  6
ByBlock
 62
     7
 48
50.0
100
AcDbMText
 10
16542.30557106006
 20
4125.0
 30
0.0
 40
150.0
 41
0.0
 71
     5
 72
     1
  1
\A1;2380
  7
STYLE1
 11
0.0000000000000001
 21
1.0
 31
0.0
 73
     1
 44
1.0
1001
ACAD
1000
MTEXTBEGIN
1070
    73
1070
     1
1070
    44
1040
1.0
1070
    74
1070
     0
1000
MTEXTEND
  0
POINT
  5
18FC7
330
16E3B
100
AcDbEntity
  8
DEFPOINTS
  6
ByBlock
 62
     0
 48
50.0
100
AcDbPoint
 10
15982.82958141817
 20
2935.0
 30
0.0
  0
POINT
  5
18FC8
330
16E3B
100
AcDbEntity
  8
DEFPOINTS
  6
ByBlock
 62
     0
 48
50.0
100
AcDbPoint
 10
16077.82958141817
 20
5315.0
 30
0.0
  0
POINT
  5
18FC9
330
16E3B
100
AcDbEntity
  8
DEFPOINTS
  6
ByBlock
 62
     0
 48
50.0
100
AcDbPoint
 10
16642.32033483959
 20
5315.0
 30
0.0
  0
ENDBLK
  5
18FCA
330
16E3B
100
AcDbEntity
  8
0
 48
50.0
100
AcDbBlockEnd
  0
BLOCK
  5
1857C
330
18530
100
AcDbEntity
  8
0
 48
50.0
100
AcDbBlockBegin
  2
*D13
 70
     1
 10
0.0
 20
0.0
 30
0.0
  3
*D13
  1

  0
LINE
  5
1857D
330
18530
100
AcDbEntity
  8
0
  6
ByBlock
 62
     0
 48
50.0
100
AcDbLine
 10
16722.46242649135
 20
9602.681515694126
 30
0.0
 11
17593.79817887432
 21
9602.681515694126
 31
0.0
  0
LINE
  5
1857E
330
18530
100
AcDbEntity
  8
0
  6
ByBlock
 62
     0
 48
50.0
100
AcDbLine
 10
16732.46242649135
 20
9672.681515694129
 30
0.0
 11
17593.79817887432
 21
9672.681515694129
 31
0.0
  0
LINE
  5
1857F
330
18530
100
AcDbEntity
  8
0
  6
ByBlock
 62
     0
 48
50.0
100
AcDbLine
 10
17518.79817887432
 20
9672.681515694129
 30
0.0
 11
17518.79817887432
 21
9602.681515694126
 31
0.0
  0
LINE
  5
18580
330
18530
100
AcDbEntity
  8
0
  6
ByBlock
 62
     0
 48
50.0
100
AcDbLine
 10
17518.79817887432
 20
9602.681515694126
 30
0.0
 11
17518.79817887432
 21
9262.563405457903
 31
0.0
  0
INSERT
  5
18581
330
18530
100
AcDbEntity
  8
0
  6
ByBlock
 62
     0
 48
50.0
100
AcDbBlockReference
  2
_DOTSMALL
 10
17518.79817887432
 20
9672.681515694129
 30
0.0
 41
125.0
 42
125.0
 43
125.0
 50
90.0
  0
INSERT
  5
18582
330
18530
100
AcDbEntity
  8
0
  6
ByBlock
 62
     0
 48
50.0
100
AcDbBlockReference
  2
_DOTSMALL
 10
17518.79817887432
 20
9602.681515694126
 30
0.0
 41
125.0
 42
125.0
 43
125.0
 50
270.0
  0
MTEXT
  5
18583
330
18530
100
AcDbEntity
  8
0
  6
ByBlock
 62
     7
 48
50.0
100
AcDbMText
 10
17418.79817887432
 20
9370.122460576014
 30
0.0
 40
150.0
 41
0.0
 71
     5
 72
     1
  1
\A1;70
  7
STYLE1
 11
0.0000000000000001
 21
1.0
 31
0.0
 73
     1
 44
1.0
1001
ACAD
1000
MTEXTBEGIN
1070
    73
1070
     1
1070
    44
1040
1.0
1070
    74
1070
     0
1000
MTEXTEND
  0
POINT
  5
18584
330
18530
100
AcDbEntity
  8
DEFPOINTS
  6
ByBlock
 62
     0
 48
50.0
100
AcDbPoint
 10
16697.46242649134
 20
9602.681515694126
 30
0.0
  0
POINT
  5
18585
330
18530
100
AcDbEntity
  8
DEFPOINTS
  6
ByBlock
 62
     0
 48
50.0
100
AcDbPoint
 10
16707.46242649135
 20
9672.681515694129
 30
0.0
  0
POINT
  5
18586
330
18530
100
AcDbEntity
  8
DEFPOINTS
  6
ByBlock
 62
     0
 48
50.0
100
AcDbPoint
 10
17518.79817887432
 20
9672.681515694129
 30
0.0
  0
ENDBLK
  5
18587
330
18530
100
AcDbEntity
  8
0
 48
50.0
100
AcDbBlockEnd
  0
BLOCK
  5
1A3E7
330
1853D
100
AcDbEntity
  8
0
 48
50.0
100
AcDbBlockBegin
  2
*D14
 70
     1
 10
0.0
 20
0.0
 30
0.0
  3
*D14
  1

  0
LINE
  5
1A3E8
330
1853D
100
AcDbEntity
  8
0
  6
ByBlock
 62
     0
 48
50.0
100
AcDbLine
 10
9137.829581418177
 20
9298.736797361975
 30
0.0
 11
9999.165333801148
 21
9298.736797361975
 31
0.0
  0
LINE
  5
1A3E9
330
1853D
100
AcDbEntity
  8
0
  6
ByBlock
 62
     0
 48
50.0
100
AcDbLine
 10
9137.829581418177
 20
12198.73679736197
 30
0.0
 11
9999.165333801148
 21
12198.73679736197
 31
0.0
  0
LINE
  5
1A3EA
330
1853D
100
AcDbEntity
  8
0
  6
ByBlock
 62
     0
 48
50.0
100
AcDbLine
 10
9924.165333801148
 20
9298.736797361975
 30
0.0
 11
9924.165333801148
 21
12198.73679736197
 31
0.0
  0
INSERT
  5
1A3EB
330
1853D
100
AcDbEntity
  8
0
  6
ByBlock
 62
     0
 48
50.0
100
AcDbBlockReference
  2
_DOTSMALL
 10
9924.165333801148
 20
9298.736797361975
 30
0.0
 41
125.0
 42
125.0
 43
125.0
 50
270.0
  0
INSERT
  5
1A3EC
330
1853D
100
AcDbEntity
  8
0
  6
ByBlock
 62
     0
 48
50.0
100
AcDbBlockReference
  2
_DOTSMALL
 10
9924.165333801148
 20
12198.73679736197
 30
0.0
 41
125.0
 42
125.0
 43
125.0
 50
90.0
  0
MTEXT
  5
1A3ED
330
1853D
100
AcDbEntity
  8
0
  6
ByBlock
 62
     7
 48
50.0
100
AcDbMText
 10
9824.150570021622
 20
10748.73679736197
 30
0.0
 40
150.0
 41
0.0
 71
     5
 72
     1
  1
\A1;5x580=2900
  7
STYLE1
 11
0.0000000000000001
 21
1.0
 31
0.0
 73
     1
 44
1.0
1001
ACAD
1000
MTEXTBEGIN
1070
    73
1070
     1
1070
    44
1040
1.0
1070
    74
1070
     0
1000
MTEXTEND
  0
POINT
  5
1A3EE
330
1853D
100
AcDbEntity
  8
DEFPOINTS
  6
ByBlock
 62
     0
 48
50.0
100
AcDbPoint
 10
9112.829581418177
 20
9298.736797361975
 30
0.0
  0
POINT
  5
1A3EF
330
1853D
100
AcDbEntity
  8
DEFPOINTS
  6
ByBlock
 62
     0
 48
50.0
100
AcDbPoint
 10
9112.829581418177
 20
12198.73679736197
 30
0.0
  0
POINT
  5
1A3F0
330
1853D
100
AcDbEntity
  8
DEFPOINTS
  6
ByBlock
 62
     0
 48
50.0
100
AcDbPoint
 10
9924.165333801148
 20
12198.73679736197
 30
0.0
  0
ENDBLK
  5
1A3F1
330
1853D
100
AcDbEntity
  8
0
 48
50.0
100
AcDbBlockEnd
  0
BLOCK
  5
18594
330
18549
100
AcDbEntity
  8
0
 48
50.0
100
AcDbBlockBegin
  2
*D15
 70
     1
 10
0.0
 20
0.0
 30
0.0
  3
*D15
  1

  0
LINE
  5
18595
330
18549
100
AcDbEntity
  8
0
  6
ByBlock
 62
     0
 48
50.0
100
AcDbLine
 10
16732.46242649135
 20
12572.68151569413
 30
0.0
 11
17593.79817887432
 21
12572.68151569413
 31
0.0
  0
LINE
  5
18596
330
18549
100
AcDbEntity
  8
0
  6
ByBlock
 62
     0
 48
50.0
100
AcDbLine
 10
16722.46242649134
 20
12642.68151569412
 30
0.0
 11
17593.79817887432
 21
12642.68151569412
 31
0.0
  0
LINE
  5
18597
330
18549
100
AcDbEntity
  8
0
  6
ByBlock
 62
     0
 48
50.0
100
AcDbLine
 10
17518.79817887432
 20
12572.68151569413
 30
0.0
 11
17518.79817887432
 21
12642.68151569412
 31
0.0
  0
LINE
  5
18598
330
18549
100
AcDbEntity
  8
0
  6
ByBlock
 62
     0
 48
50.0
100
AcDbLine
 10
17518.79817887432
 20
12642.68151569412
 30
0.0
 11
17518.79817887432
 21
12982.79962593035
 31
0.0
  0
INSERT
  5
18599
330
18549
100
AcDbEntity
  8
0
  6
ByBlock
 62
     0
 48
50.0
100
AcDbBlockReference
  2
_DOTSMALL
 10
17518.79817887432
 20
12572.68151569413
 30
0.0
 41
125.0
 42
125.0
 43
125.0
 50
270.0
  0
INSERT
  5
1859A
330
18549
100
AcDbEntity
  8
0
  6
ByBlock
 62
     0
 48
50.0
100
AcDbBlockReference
  2
_DOTSMALL
 10
17518.79817887432
 20
12642.68151569412
 30
0.0
 41
125.0
 42
125.0
 43
125.0
 50
90.0
  0
MTEXT
  5
1859B
330
18549
100
AcDbEntity
  8
0
  6
ByBlock
 62
     7
 48
50.0
100
AcDbMText
 10
17418.79817887431
 20
12875.24057081224
 30
0.0
 40
150.0
 41
0.0
 71
     5
 72
     1
  1
\A1;70
  7
STYLE1
 11
0.0000000000000001
 21
1.0
 31
0.0
 73
     1
 44
1.0
1001
ACAD
1000
MTEXTBEGIN
1070
    73
1070
     1
1070
    44
1040
1.0
1070
    74
1070
     0
1000
MTEXTEND
  0
POINT
  5
1859C
330
18549
100
AcDbEntity
  8
DEFPOINTS
  6
ByBlock
 62
     0
 48
50.0
100
AcDbPoint
 10
16707.46242649135
 20
12572.68151569413
 30
0.0
  0
POINT
  5
1859D
330
18549
100
AcDbEntity
  8
DEFPOINTS
  6
ByBlock
 62
     0
 48
50.0
100
AcDbPoint
 10
16697.46242649134
 20
12642.68151569412
 30
0.0
  0
POINT
  5
1859E
330
18549
100
AcDbEntity
  8
DEFPOINTS
  6
ByBlock
 62
     0
 48
50.0
100
AcDbPoint
 10
17518.79817887432
 20
12642.68151569412
 30
0.0
  0
ENDBLK
  5
1859F
330
18549
100
AcDbEntity
  8
0
 48
50.0
100
AcDbBlockEnd
  0
BLOCK
  5
1A3D0
330
18556
100
AcDbEntity
  8
0
 48
50.0
100
AcDbBlockBegin
  2
*D16
 70
     1
 10
0.0
 20
0.0
 30
0.0
  3
*D16
  1

  0
LINE
  5
1A3D1
330
18556
100
AcDbEntity
  8
0
  6
ByBlock
 62
     0
 48
50.0
100
AcDbLine
 10
9127.829581418176
 20
9228.736797361971
 30
0.0
 11
10301.96933771976
 21
9228.736797361971
 31
0.0
  0
LINE
  5
1A3D2
330
18556
100
AcDbEntity
  8
0
  6
ByBlock
 62
     0
 48
50.0
100
AcDbLine
 10
9949.165333801147
 20
9278.736797361975
 30
0.0
 11
10301.96933771976
 21
9278.736797361975
 31
0.0
  0
LINE
  5
1A3D3
330
18556
100
AcDbEntity
  8
0
  6
ByBlock
 62
     0
 48
50.0
100
AcDbLine
 10
10226.96933771976
 20
9278.736797361975
 30
0.0
 11
10226.96933771976
 21
9228.736797361971
 31
0.0
  0
LINE
  5
1A3D4
330
18556
100
AcDbEntity
  8
0
  6
ByBlock
 62
     0
 48
50.0
100
AcDbLine
 10
10226.96933771976
 20
9228.736797361971
 30
0.0
 11
10226.96933771976
 21
8884.130498149373
 31
0.0
  0
INSERT
  5
1A3D5
330
18556
100
AcDbEntity
  8
0
  6
ByBlock
 62
     0
 48
50.0
100
AcDbBlockReference
  2
_DOTSMALL
 10
10226.96933771976
 20
9278.736797361975
 30
0.0
 41
125.0
 42
125.0
 43
125.0
 50
90.0
  0
INSERT
  5
1A3D6
330
18556
100
AcDbEntity
  8
0
  6
ByBlock
 62
     0
 48
50.0
100
AcDbBlockReference
  2
_DOTSMALL
 10
10226.96933771976
 20
9228.736797361971
 30
0.0
 41
125.0
 42
125.0
 43
125.0
 50
270.0
  0
MTEXT
  5
1A3D7
330
18556
100
AcDbEntity
  8
0
  6
ByBlock
 62
     7
 48
50.0
100
AcDbMText
 10
10126.96933771976
 20
8991.689553267482
 30
0.0
 40
150.0
 41
0.0
 71
     5
 72
     1
  1
\A1;50
  7
STYLE1
 11
0.0000000000000001
 21
1.0
 31
0.0
 73
     1
 44
1.0
1001
ACAD
1000
MTEXTBEGIN
1070
    73
1070
     1
1070
    44
1040
1.0
1070
    74
1070
     0
1000
MTEXTEND
  0
POINT
  5
1A3D8
330
18556
100
AcDbEntity
  8
DEFPOINTS
  6
ByBlock
 62
     0
 48
50.0
100
AcDbPoint
 10
9102.829581418175
 20
9228.736797361971
 30
0.0
  0
POINT
  5
1A3D9
330
18556
100
AcDbEntity
  8
DEFPOINTS
  6
ByBlock
 62
     0
 48
50.0
100
AcDbPoint
 10
9924.165333801148
 20
9278.736797361975
 30
0.0
  0
POINT
  5
1A3DA
330
18556
100
AcDbEntity
  8
DEFPOINTS
  6
ByBlock
 62
     0
 48
50.0
100
AcDbPoint
 10
10226.96933771976
 20
9278.736797361975
 30
0.0
  0
ENDBLK
  5
1A3DB
330
18556
100
AcDbEntity
  8
0
 48
50.0
100
AcDbBlockEnd
  0
BLOCK
  5
1A3FD
330
18563
100
AcDbEntity
  8
0
 48
50.0
100
AcDbBlockBegin
  2
*D17
 70
     1
 10
0.0
 20
0.0
 30
0.0
  3
*D17
  1

  0
LINE
  5
1A3FE
330
18563
100
AcDbEntity
  8
0
  6
ByBlock
 62
     0
 48
50.0
100
AcDbLine
 10
9949.165333801147
 20
9278.736797361975
 30
0.0
 11
10301.96933771975
 21
9278.736797361975
 31
0.0
  0
LINE
  5
1A3FF
330
18563
100
AcDbEntity
  8
0
  6
ByBlock
 62
     0
 48
50.0
100
AcDbLine
 10
9949.165333801145
 20
12218.73679736197
 30
0.0
 11
10301.96933771975
 21
12218.73679736197
 31
0.0
  0
LINE
  5
1A400
330
18563
100
AcDbEntity
  8
0
  6
ByBlock
 62
     0
 48
50.0
100
AcDbLine
 10
10226.96933771975
 20
9278.736797361975
 30
0.0
 11
10226.96933771975
 21
12218.73679736197
 31
0.0
  0
INSERT
  5
1A401
330
18563
100
AcDbEntity
  8
0
  6
ByBlock
 62
     0
 48
50.0
100
AcDbBlockReference
  2
_DOTSMALL
 10
10226.96933771975
 20
9278.736797361975
 30
0.0
 41
125.0
 42
125.0
 43
125.0
 50
270.0
  0
INSERT
  5
1A402
330
18563
100
AcDbEntity
  8
0
  6
ByBlock
 62
     0
 48
50.0
100
AcDbBlockReference
  2
_DOTSMALL
 10
10226.96933771975
 20
12218.73679736197
 30
0.0
 41
125.0
 42
125.0
 43
125.0
 50
90.0
  0
MTEXT
  5
1A403
330
18563
100
AcDbEntity
  8
0
  6
ByBlock
 62
     7
 48
50.0
100
AcDbMText
 10
10126.95457394022
 20
10748.73679736197
 30
0.0
 40
150.0
 41
0.0
 71
     5
 72
     1
  1
\A1;内部寸法 2940
  7
STYLE1
 11
0.0000000000000001
 21
1.0
 31
0.0
 73
     1
 44
1.0
1001
ACAD
1000
MTEXTBEGIN
1070
    73
1070
     1
1070
    44
1040
1.0
1070
    74
1070
     0
1000
MTEXTEND
  0
POINT
  5
1A404
330
18563
100
AcDbEntity
  8
DEFPOINTS
  6
ByBlock
 62
     0
 48
50.0
100
AcDbPoint
 10
9924.165333801148
 20
9278.736797361975
 30
0.0
  0
POINT
  5
1A405
330
18563
100
AcDbEntity
  8
DEFPOINTS
  6
ByBlock
 62
     0
 48
50.0
100
AcDbPoint
 10
9924.165333801145
 20
12218.73679736197
 30
0.0
  0
POINT
  5
1A406
330
18563
100
AcDbEntity
  8
DEFPOINTS
  6
ByBlock
 62
     0
 48
50.0
100
AcDbPoint
 10
10226.96933771975
 20
12218.73679736197
 30
0.0
  0
ENDBLK
  5
1A407
330
18563
100
AcDbEntity
  8
0
 48
50.0
100
AcDbBlockEnd
  0
BLOCK
  5
1A408
330
1856F
100
AcDbEntity
  8
0
 48
50.0
100
AcDbBlockBegin
  2
*D18
 70
     1
 10
0.0
 20
0.0
 30
0.0
  3
*D18
  1

  0
LINE
  5
1A409
330
1856F
100
AcDbEntity
  8
0
  6
ByBlock
 62
     0
 48
50.0
100
AcDbLine
 10
9949.165333801145
 20
12218.73679736197
 30
0.0
 11
10301.96933771975
 21
12218.73679736197
 31
0.0
  0
LINE
  5
1A40A
330
1856F
100
AcDbEntity
  8
0
  6
ByBlock
 62
     0
 48
50.0
100
AcDbLine
 10
9127.829581418174
 20
12268.73679736197
 30
0.0
 11
10301.96933771975
 21
12268.73679736197
 31
0.0
  0
LINE
  5
1A40B
330
1856F
100
AcDbEntity
  8
0
  6
ByBlock
 62
     0
 48
50.0
100
AcDbLine
 10
10226.96933771975
 20
12218.73679736197
 30
0.0
 11
10226.96933771975
 21
12093.73679736197
 31
0.0
  0
LINE
  5
1A40C
330
1856F
100
AcDbEntity
  8
0
  6
ByBlock
 62
     0
 48
50.0
100
AcDbLine
 10
10226.96933771975
 20
12268.73679736197
 30
0.0
 11
10226.96933771975
 21
12733.85490759819
 31
0.0
  0
LINE
  5
1A40D
330
1856F
100
AcDbEntity
  8
0
  6
ByBlock
 62
     0
 48
50.0
100
AcDbLine
 10
10226.96933771975
 20
12218.73679736197
 30
0.0
 11
10226.96933771975
 21
12268.73679736197
 31
0.0
  0
INSERT
  5
1A40E
330
1856F
100
AcDbEntity
  8
0
  6
ByBlock
 62
     0
 48
50.0
100
AcDbBlockReference
  2
_DOTSMALL
 10
10226.96933771975
 20
12218.73679736197
 30
0.0
 41
125.0
 42
125.0
 43
125.0
 50
90.0
  0
INSERT
  5
1A40F
330
1856F
100
AcDbEntity
  8
0
  6
ByBlock
 62
     0
 48
50.0
100
AcDbBlockReference
  2
_DOTSMALL
 10
10226.96933771975
 20
12268.73679736197
 30
0.0
 41
125.0
 42
125.0
 43
125.0
 50
270.0
  0
MTEXT
  5
1A410
330
1856F
100
AcDbEntity
  8
0
  6
ByBlock
 62
     7
 48
50.0
100
AcDbMText
 10
10126.96933771975
 20
12626.29585248008
 30
0.0
 40
150.0
 41
0.0
 71
     5
 72
     1
  1
\A1;50
  7
STYLE1
 11
0.0000000000000001
 21
1.0
 31
0.0
 73
     1
 44
1.0
1001
ACAD
1000
MTEXTBEGIN
1070
    73
1070
     1
1070
    44
1040
1.0
1070
    74
1070
     0
1000
MTEXTEND
  0
POINT
  5
1A411
330
1856F
100
AcDbEntity
  8
DEFPOINTS
  6
ByBlock
 62
     0
 48
50.0
100
AcDbPoint
 10
9924.165333801145
 20
12218.73679736197
 30
0.0
  0
POINT
  5
1A412
330
1856F
100
AcDbEntity
  8
DEFPOINTS
  6
ByBlock
 62
     0
 48
50.0
100
AcDbPoint
 10
9102.829581418173
 20
12268.73679736197
 30
0.0
  0
POINT
  5
1A413
330
1856F
100
AcDbEntity
  8
DEFPOINTS
  6
ByBlock
 62
     0
 48
50.0
100
AcDbPoint
 10
10226.96933771975
 20
12268.73679736197
 30
0.0
  0
ENDBLK
  5
1A414
330
1856F
100
AcDbEntity
  8
0
 48
50.0
100
AcDbBlockEnd
  0
BLOCK
  5
18624
330
185B5
100
AcDbEntity
  8
0
 48
50.0
100
AcDbBlockBegin
  2
*D19
 70
     1
 10
0.0
 20
0.0
 30
0.0
  3
*D19
  1

  0
LINE
  5
18625
330
185B5
100
AcDbEntity
  8
0
  6
ByBlock
 62
     0
 48
50.0
100
AcDbLine
 10
11787.46242649134
 20
12657.68151569413
 30
0.0
 11
11787.46242649134
 21
13127.71350056477
 31
0.0
  0
LINE
  5
18626
330
185B5
100
AcDbEntity
  8
0
  6
ByBlock
 62
     0
 48
50.0
100
AcDbLine
 10
11857.46242649134
 20
12667.68151569412
 30
0.0
 11
11857.46242649134
 21
13127.71350056477
 31
0.0
  0
LINE
  5
18627
330
185B5
100
AcDbEntity
  8
0
  6
ByBlock
 62
     0
 48
50.0
100
AcDbLine
 10
11857.46242649134
 20
13052.71350056477
 30
0.0
 11
11787.46242649134
 21
13052.71350056477
 31
0.0
  0
LINE
  5
18628
330
185B5
100
AcDbEntity
  8
0
  6
ByBlock
 62
     0
 48
50.0
100
AcDbLine
 10
11787.46242649134
 20
13052.71350056477
 30
0.0
 11
11437.34431625512
 21
13052.71350056477
 31
0.0
  0
INSERT
  5
18629
330
185B5
100
AcDbEntity
  8
0
  6
ByBlock
 62
     0
 48
50.0
100
AcDbBlockReference
  2
_DOTSMALL
 10
11857.46242649134
 20
13052.71350056477
 30
0.0
 41
125.0
 42
125.0
 43
125.0
  0
INSERT
  5
1862A
330
185B5
100
AcDbEntity
  8
0
  6
ByBlock
 62
     0
 48
50.0
100
AcDbBlockReference
  2
_DOTSMALL
 10
11787.46242649134
 20
13052.71350056477
 30
0.0
 41
125.0
 42
125.0
 43
125.0
 50
180.0
  0
MTEXT
  5
1862B
330
185B5
100
AcDbEntity
  8
0
  6
ByBlock
 62
     7
 48
50.0
100
AcDbMText
 10
11544.90337137323
 20
13152.71350056477
 30
0.0
 40
150.0
 41
0.0
 71
     5
 72
     1
  1
\A1;70
  7
STYLE1
 73
     1
 44
1.0
1001
ACAD
1000
MTEXTBEGIN
1070
    73
1070
     1
1070
    44
1040
1.0
1070
    74
1070
     0
1000
MTEXTEND
  0
POINT
  5
1862C
330
185B5
100
AcDbEntity
  8
DEFPOINTS
  6
ByBlock
 62
     0
 48
50.0
100
AcDbPoint
 10
11787.46242649134
 20
12632.68151569412
 30
0.0
  0
POINT
  5
1862D
330
185B5
100
AcDbEntity
  8
DEFPOINTS
  6
ByBlock
 62
     0
 48
50.0
100
AcDbPoint
 10
11857.46242649134
 20
12642.68151569412
 30
0.0
  0
POINT
  5
1862E
330
185B5
100
AcDbEntity
  8
DEFPOINTS
  6
ByBlock
 62
     0
 48
50.0
100
AcDbPoint
 10
11857.46242649134
 20
13052.71350056477
 30
0.0
  0
ENDBLK
  5
1862F
330
185B5
100
AcDbEntity
  8
0
 48
50.0
100
AcDbBlockEnd
  0
BLOCK
  5
185C3
330
185C2
100
AcDbEntity
  8
0
 48
50.0
100
AcDbBlockBegin
  2
*D20
 70
     1
 10
0.0
 20
0.0
 30
0.0
  3
*D20
  1

  0
LINE
  5
185C4
330
185C2
100
AcDbEntity
  8
0
  6
ByBlock
 62
     0
 48
50.0
100
AcDbLine
 10
6572.829581418173
 20
12313.73679736197
 30
0.0
 11
6572.829581418173
 21
12773.76878223262
 31
0.0
  0
LINE
  5
185C5
330
185C2
100
AcDbEntity
  8
0
  6
ByBlock
 62
     0
 48
50.0
100
AcDbLine
 10
4252.829581418173
 20
12698.76878223262
 30
0.0
 11
6572.829581418173
 21
12698.76878223262
 31
0.0
  0
INSERT
  5
185C6
330
185C2
100
AcDbEntity
  8
0
  6
ByBlock
 62
     0
 48
50.0
100
AcDbBlockReference
  2
_DOTSMALL
 10
4252.829581418173
 20
12698.76878223262
 30
0.0
 41
125.0
 42
125.0
 43
125.0
 50
180.0
  0
INSERT
  5
185C7
330
185C2
100
AcDbEntity
  8
0
  6
ByBlock
 62
     0
 48
50.0
100
AcDbBlockReference
  2
_DOTSMALL
 10
6572.829581418173
 20
12698.76878223262
 30
0.0
 41
125.0
 42
125.0
 43
125.0
  0
MTEXT
  5
185C8
330
185C2
100
AcDbEntity
  8
0
  6
ByBlock
 62
     7
 48
50.0
100
AcDbMText
 10
5412.829581418173
 20
12798.78354601215
 30
0.0
 40
150.0
 41
0.0
 71
     5
 72
     1
  1
\A1;4x580=2320
  7
STYLE1
 73
     1
 44
1.0
1001
ACAD
1000
MTEXTBEGIN
1070
    73
1070
     1
1070
    44
1040
1.0
1070
    74
1070
     0
1000
MTEXTEND
  0
POINT
  5
185C9
330
185C2
100
AcDbEntity
  8
DEFPOINTS
  6
ByBlock
 62
     0
 48
50.0
100
AcDbPoint
 10
4252.829581418173
 20
12288.73679736197
 30
0.0
  0
POINT
  5
185CA
330
185C2
100
AcDbEntity
  8
DEFPOINTS
  6
ByBlock
 62
     0
 48
50.0
100
AcDbPoint
 10
6572.829581418173
 20
12288.73679736197
 30
0.0
  0
POINT
  5
185CB
330
185C2
100
AcDbEntity
  8
DEFPOINTS
  6
ByBlock
 62
     0
 48
50.0
100
AcDbPoint
 10
6572.829581418173
 20
12698.76878223262
 30
0.0
  0
ENDBLK
  5
185CC
330
185C2
100
AcDbEntity
  8
0
 48
50.0
100
AcDbBlockEnd
  0
BLOCK
  5
18680
330
185CD
100
AcDbEntity
  8
0
 48
50.0
100
AcDbBlockBegin
  2
*D21
 70
     1
 10
0.0
 20
0.0
 30
0.0
  3
*D21
  1

  0
LINE
  5
18681
330
185CD
100
AcDbEntity
  8
0
  6
ByBlock
 62
     0
 48
50.0
100
AcDbLine
 10
14317.46242649134
 20
12667.68151569412
 30
0.0
 11
14317.46242649134
 21
13127.71350056477
 31
0.0
  0
LINE
  5
18682
330
185CD
100
AcDbEntity
  8
0
  6
ByBlock
 62
     0
 48
50.0
100
AcDbLine
 10
14177.46242649134
 20
13052.71350056477
 30
0.0
 11
14052.46242649134
 21
13052.71350056477
 31
0.0
  0
LINE
  5
18683
330
185CD
100
AcDbEntity
  8
0
  6
ByBlock
 62
     0
 48
50.0
100
AcDbLine
 10
14317.46242649134
 20
13052.71350056477
 30
0.0
 11
14442.46242649134
 21
13052.71350056477
 31
0.0
  0
LINE
  5
18684
330
185CD
100
AcDbEntity
  8
0
  6
ByBlock
 62
     0
 48
50.0
100
AcDbLine
 10
14177.46242649134
 20
13052.71350056477
 30
0.0
 11
14317.46242649134
 21
13052.71350056477
 31
0.0
  0
INSERT
  5
18685
330
185CD
100
AcDbEntity
  8
0
  6
ByBlock
 62
     0
 48
50.0
100
AcDbBlockReference
  2
_DOTSMALL
 10
14177.46242649134
 20
13052.71350056477
 30
0.0
 41
125.0
 42
125.0
 43
125.0
  0
INSERT
  5
18686
330
185CD
100
AcDbEntity
  8
0
  6
ByBlock
 62
     0
 48
50.0
100
AcDbBlockReference
  2
_DOTSMALL
 10
14317.46242649134
 20
13052.71350056477
 30
0.0
 41
125.0
 42
125.0
 43
125.0
 50
180.0
  0
MTEXT
  5
18687
330
185CD
100
AcDbEntity
  8
0
  6
ByBlock
 62
     7
 48
50.0
100
AcDbMText
 10
14247.46242649134
 20
13152.71350056477
 30
0.0
 40
150.0
 41
0.0
 71
     5
 72
     1
  1
\A1;140
  7
STYLE1
 73
     1
 44
1.0
1001
ACAD
1000
MTEXTBEGIN
1070
    73
1070
     1
1070
    44
1040
1.0
1070
    74
1070
     0
1000
MTEXTEND
  0
POINT
  5
18688
330
185CD
100
AcDbEntity
  8
DEFPOINTS
  6
ByBlock
 62
     0
 48
50.0
100
AcDbPoint
 10
14177.46242649134
 20
12642.68151569412
 30
0.0
  0
POINT
  5
18689
330
185CD
100
AcDbEntity
  8
DEFPOINTS
  6
ByBlock
 62
     0
 48
50.0
100
AcDbPoint
 10
14317.46242649134
 20
12642.68151569412
 30
0.0
  0
POINT
  5
1868A
330
185CD
100
AcDbEntity
  8
DEFPOINTS
  6
ByBlock
 62
     0
 48
50.0
100
AcDbPoint
 10
14317.46242649134
 20
13052.71350056477
 30
0.0
  0
ENDBLK
  5
1868B
330
185CD
100
AcDbEntity
  8
0
 48
50.0
100
AcDbBlockEnd
  0
BLOCK
  5
18676
330
185DA
100
AcDbEntity
  8
0
 48
50.0
100
AcDbBlockBegin
  2
*D22
 70
     1
 10
0.0
 20
0.0
 30
0.0
  3
*D22
  1

  0
LINE
  5
18677
330
185DA
100
AcDbEntity
  8
0
  6
ByBlock
 62
     0
 48
50.0
100
AcDbLine
 10
16637.46242649134
 20
12667.68151569413
 30
0.0
 11
16637.46242649134
 21
13127.71350056478
 31
0.0
  0
LINE
  5
18678
330
185DA
100
AcDbEntity
  8
0
  6
ByBlock
 62
     0
 48
50.0
100
AcDbLine
 10
14317.46242649134
 20
13052.71350056478
 30
0.0
 11
16637.46242649134
 21
13052.71350056478
 31
0.0
  0
INSERT
  5
18679
330
185DA
100
AcDbEntity
  8
0
  6
ByBlock
 62
     0
 48
50.0
100
AcDbBlockReference
  2
_DOTSMALL
 10
14317.46242649134
 20
13052.71350056478
 30
0.0
 41
125.0
 42
125.0
 43
125.0
 50
180.0
  0
INSERT
  5
1867A
330
185DA
100
AcDbEntity
  8
0
  6
ByBlock
 62
     0
 48
50.0
100
AcDbBlockReference
  2
_DOTSMALL
 10
16637.46242649134
 20
13052.71350056478
 30
0.0
 41
125.0
 42
125.0
 43
125.0
  0
MTEXT
  5
1867B
330
185DA
100
AcDbEntity
  8
0
  6
ByBlock
 62
     7
 48
50.0
100
AcDbMText
 10
15477.46242649135
 20
13152.7282643443
 30
0.0
 40
150.0
 41
0.0
 71
     5
 72
     1
  1
\A1;4x580=2320
  7
STYLE1
 73
     1
 44
1.0
1001
ACAD
1000
MTEXTBEGIN
1070
    73
1070
     1
1070
    44
1040
1.0
1070
    74
1070
     0
1000
MTEXTEND
  0
POINT
  5
1867C
330
185DA
100
AcDbEntity
  8
DEFPOINTS
  6
ByBlock
 62
     0
 48
50.0
100
AcDbPoint
 10
14317.46242649134
 20
12642.68151569412
 30
0.0
  0
POINT
  5
1867D
330
185DA
100
AcDbEntity
  8
DEFPOINTS
  6
ByBlock
 62
     0
 48
50.0
100
AcDbPoint
 10
16637.46242649134
 20
12642.68151569413
 30
0.0
  0
POINT
  5
1867E
330
185DA
100
AcDbEntity
  8
DEFPOINTS
  6
ByBlock
 62
     0
 48
50.0
100
AcDbPoint
 10
16637.46242649134
 20
13052.71350056478
 30
0.0
  0
ENDBLK
  5
1867F
330
185DA
100
AcDbEntity
  8
0
 48
50.0
100
AcDbBlockEnd
  0
BLOCK
  5
18656
330
185E5
100
AcDbEntity
  8
0
 48
50.0
100
AcDbBlockBegin
  2
*D23
 70
     1
 10
0.0
 20
0.0
 30
0.0
  3
*D23
  1

  0
LINE
  5
18657
330
185E5
100
AcDbEntity
  8
0
  6
ByBlock
 62
     0
 48
50.0
100
AcDbLine
 10
16637.46242649134
 20
12667.68151569413
 30
0.0
 11
16637.46242649134
 21
13127.71350056477
 31
0.0
  0
LINE
  5
18658
330
185E5
100
AcDbEntity
  8
0
  6
ByBlock
 62
     0
 48
50.0
100
AcDbLine
 10
16707.46242649135
 20
12657.68151569413
 30
0.0
 11
16707.46242649135
 21
13127.71350056477
 31
0.0
  0
LINE
  5
18659
330
185E5
100
AcDbEntity
  8
0
  6
ByBlock
 62
     0
 48
50.0
100
AcDbLine
 10
16637.46242649134
 20
13052.71350056477
 30
0.0
 11
16707.46242649135
 21
13052.71350056477
 31
0.0
  0
LINE
  5
1865A
330
185E5
100
AcDbEntity
  8
0
  6
ByBlock
 62
     0
 48
50.0
100
AcDbLine
 10
16707.46242649135
 20
13052.71350056477
 30
0.0
 11
17077.58053672757
 21
13052.71350056477
 31
0.0
  0
INSERT
  5
1865B
330
185E5
100
AcDbEntity
  8
0
  6
ByBlock
 62
     0
 48
50.0
100
AcDbBlockReference
  2
_DOTSMALL
 10
16637.46242649134
 20
13052.71350056477
 30
0.0
 41
125.0
 42
125.0
 43
125.0
 50
180.0
  0
INSERT
  5
1865C
330
185E5
100
AcDbEntity
  8
0
  6
ByBlock
 62
     0
 48
50.0
100
AcDbBlockReference
  2
_DOTSMALL
 10
16707.46242649135
 20
13052.71350056477
 30
0.0
 41
125.0
 42
125.0
 43
125.0
  0
MTEXT
  5
1865D
330
185E5
100
AcDbEntity
  8
0
  6
ByBlock
 62
     7
 48
50.0
100
AcDbMText
 10
16970.02148160945
 20
13152.71350056477
 30
0.0
 40
150.0
 41
0.0
 71
     5
 72
     1
  1
\A1;70
  7
STYLE1
 73
     1
 44
1.0
1001
ACAD
1000
MTEXTBEGIN
1070
    73
1070
     1
1070
    44
1040
1.0
1070
    74
1070
     0
1000
MTEXTEND
  0
POINT
  5
1865E
330
185E5
100
AcDbEntity
  8
DEFPOINTS
  6
ByBlock
 62
     0
 48
50.0
100
AcDbPoint
 10
16637.46242649134
 20
12642.68151569413
 30
0.0
  0
POINT
  5
1865F
330
185E5
100
AcDbEntity
  8
DEFPOINTS
  6
ByBlock
 62
     0
 48
50.0
100
AcDbPoint
 10
16707.46242649135
 20
12632.68151569412
 30
0.0
  0
POINT
  5
18660
330
185E5
100
AcDbEntity
  8
DEFPOINTS
  6
ByBlock
 62
     0
 48
50.0
100
AcDbPoint
 10
16707.46242649135
 20
13052.71350056477
 30
0.0
  0
ENDBLK
  5
18661
330
185E5
100
AcDbEntity
  8
0
 48
50.0
100
AcDbBlockEnd
  0
BLOCK
  5
18617
330
185F2
100
AcDbEntity
  8
0
 48
50.0
100
AcDbBlockBegin
  2
*D24
 70
     1
 10
0.0
 20
0.0
 30
0.0
  3
*D24
  1

  0
LINE
  5
18618
330
185F2
100
AcDbEntity
  8
0
  6
ByBlock
 62
     0
 48
50.0
100
AcDbLine
 10
11787.46242649134
 20
12657.68151569413
 30
0.0
 11
11787.46242649134
 21
13426.45988446554
 31
0.0
  0
LINE
  5
18619
330
185F2
100
AcDbEntity
  8
0
  6
ByBlock
 62
     0
 48
50.0
100
AcDbLine
 10
11837.46242649134
 20
13077.71350056477
 30
0.0
 11
11837.46242649134
 21
13426.45988446554
 31
0.0
  0
LINE
  5
1861A
330
185F2
100
AcDbEntity
  8
0
  6
ByBlock
 62
     0
 48
50.0
100
AcDbLine
 10
11837.46242649134
 20
13351.45988446553
 30
0.0
 11
11962.46242649134
 21
13351.45988446553
 31
0.0
  0
LINE
  5
1861B
330
185F2
100
AcDbEntity
  8
0
  6
ByBlock
 62
     0
 48
50.0
100
AcDbLine
 10
11787.46242649134
 20
13351.45988446553
 30
0.0
 11
11322.34431625512
 21
13351.45988446553
 31
0.0
  0
LINE
  5
1861C
330
185F2
100
AcDbEntity
  8
0
  6
ByBlock
 62
     0
 48
50.0
100
AcDbLine
 10
11837.46242649134
 20
13351.45988446553
 30
0.0
 11
11787.46242649134
 21
13351.45988446553
 31
0.0
  0
INSERT
  5
1861D
330
185F2
100
AcDbEntity
  8
0
  6
ByBlock
 62
     0
 48
50.0
100
AcDbBlockReference
  2
_DOTSMALL
 10
11837.46242649134
 20
13351.45988446553
 30
0.0
 41
125.0
 42
125.0
 43
125.0
 50
180.0
  0
INSERT
  5
1861E
330
185F2
100
AcDbEntity
  8
0
  6
ByBlock
 62
     0
 48
50.0
100
AcDbBlockReference
  2
_DOTSMALL
 10
11787.46242649134
 20
13351.45988446553
 30
0.0
 41
125.0
 42
125.0
 43
125.0
  0
MTEXT
  5
1861F
330
185F2
100
AcDbEntity
  8
0
  6
ByBlock
 62
     7
 48
50.0
100
AcDbMText
 10
11429.90337137323
 20
13451.45988446553
 30
0.0
 40
150.0
 41
0.0
 71
     5
 72
     1
  1
\A1;50
  7
STYLE1
 73
     1
 44
1.0
1001
ACAD
1000
MTEXTBEGIN
1070
    73
1070
     1
1070
    44
1040
1.0
1070
    74
1070
     0
1000
MTEXTEND
  0
POINT
  5
18620
330
185F2
100
AcDbEntity
  8
DEFPOINTS
  6
ByBlock
 62
     0
 48
50.0
100
AcDbPoint
 10
11787.46242649134
 20
12632.68151569412
 30
0.0
  0
POINT
  5
18621
330
185F2
100
AcDbEntity
  8
DEFPOINTS
  6
ByBlock
 62
     0
 48
50.0
100
AcDbPoint
 10
11837.46242649134
 20
13052.71350056477
 30
0.0
  0
POINT
  5
18622
330
185F2
100
AcDbEntity
  8
DEFPOINTS
  6
ByBlock
 62
     0
 48
50.0
100
AcDbPoint
 10
11837.46242649134
 20
13351.45988446553
 30
0.0
  0
ENDBLK
  5
18623
330
185F2
100
AcDbEntity
  8
0
 48
50.0
100
AcDbBlockEnd
  0
BLOCK
  5
1A2CC
330
185FF
100
AcDbEntity
  8
0
 48
50.0
100
AcDbBlockBegin
  2
*D25
 70
     1
 10
0.0
 20
0.0
 30
0.0
  3
*D25
  1

  0
LINE
  5
1A2CD
330
185FF
100
AcDbEntity
  8
0
  6
ByBlock
 62
     0
 48
50.0
100
AcDbLine
 10
9062.82958141818
 20
12703.76878223262
 30
0.0
 11
9062.82958141818
 21
13052.51516613338
 31
0.0
  0
LINE
  5
1A2CE
330
185FF
100
AcDbEntity
  8
0
  6
ByBlock
 62
     0
 48
50.0
100
AcDbLine
 10
4242.82958141817
 20
12977.51516613338
 30
0.0
 11
9062.82958141818
 21
12977.51516613338
 31
0.0
  0
INSERT
  5
1A2CF
330
185FF
100
AcDbEntity
  8
0
  6
ByBlock
 62
     0
 48
50.0
100
AcDbBlockReference
  2
_DOTSMALL
 10
4242.82958141817
 20
12977.51516613338
 30
0.0
 41
125.0
 42
125.0
 43
125.0
 50
180.0
  0
INSERT
  5
1A2D0
330
185FF
100
AcDbEntity
  8
0
  6
ByBlock
 62
     0
 48
50.0
100
AcDbBlockReference
  2
_DOTSMALL
 10
9062.82958141818
 20
12977.51516613338
 30
0.0
 41
125.0
 42
125.0
 43
125.0
  0
MTEXT
  5
1A2D1
330
185FF
100
AcDbEntity
  8
0
  6
ByBlock
 62
     7
 48
50.0
100
AcDbMText
 10
6652.829581418174
 20
13077.52992991291
 30
0.0
 40
150.0
 41
0.0
 71
     5
 72
     1
  1
\A1;内部寸法 4820
  7
STYLE1
 73
     1
 44
1.0
1001
ACAD
1000
MTEXTBEGIN
1070
    73
1070
     1
1070
    44
1040
1.0
1070
    74
1070
     0
1000
MTEXTEND
  0
POINT
  5
1A2D2
330
185FF
100
AcDbEntity
  8
DEFPOINTS
  6
ByBlock
 62
     0
 48
50.0
100
AcDbPoint
 10
4242.82958141817
 20
12678.76878223262
 30
0.0
  0
POINT
  5
1A2D3
330
185FF
100
AcDbEntity
  8
DEFPOINTS
  6
ByBlock
 62
     0
 48
50.0
100
AcDbPoint
 10
9062.82958141818
 20
12678.76878223262
 30
0.0
  0
POINT
  5
1A2D4
330
185FF
100
AcDbEntity
  8
DEFPOINTS
  6
ByBlock
 62
     0
 48
50.0
100
AcDbPoint
 10
9062.82958141818
 20
12977.51516613338
 30
0.0
  0
ENDBLK
  5
1A2D5
330
185FF
100
AcDbEntity
  8
0
 48
50.0
100
AcDbBlockEnd
  0
BLOCK
  5
18649
330
1860A
100
AcDbEntity
  8
0
 48
50.0
100
AcDbBlockBegin
  2
*D26
 70
     1
 10
0.0
 20
0.0
 30
0.0
  3
*D26
  1

  0
LINE
  5
1864A
330
1860A
100
AcDbEntity
  8
0
  6
ByBlock
 62
     0
 48
50.0
100
AcDbLine
 10
16657.46242649135
 20
13077.71350056478
 30
0.0
 11
16657.46242649135
 21
13426.45988446554
 31
0.0
  0
LINE
  5
1864B
330
1860A
100
AcDbEntity
  8
0
  6
ByBlock
 62
     0
 48
50.0
100
AcDbLine
 10
16707.46242649135
 20
12657.68151569413
 30
0.0
 11
16707.46242649135
 21
13426.45988446554
 31
0.0
  0
LINE
  5
1864C
330
1860A
100
AcDbEntity
  8
0
  6
ByBlock
 62
     0
 48
50.0
100
AcDbLine
 10
16657.46242649135
 20
13351.45988446553
 30
0.0
 11
16532.46242649135
 21
13351.45988446553
 31
0.0
  0
LINE
  5
1864D
330
1860A
100
AcDbEntity
  8
0
  6
ByBlock
 62
     0
 48
50.0
100
AcDbLine
 10
16707.46242649135
 20
13351.45988446553
 30
0.0
 11
17172.58053672757
 21
13351.45988446553
 31
0.0
  0
LINE
  5
1864E
330
1860A
100
AcDbEntity
  8
0
  6
ByBlock
 62
     0
 48
50.0
100
AcDbLine
 10
16657.46242649135
 20
13351.45988446553
 30
0.0
 11
16707.46242649135
 21
13351.45988446553
 31
0.0
  0
INSERT
  5
1864F
330
1860A
100
AcDbEntity
  8
0
  6
ByBlock
 62
     0
 48
50.0
100
AcDbBlockReference
  2
_DOTSMALL
 10
16657.46242649135
 20
13351.45988446553
 30
0.0
 41
125.0
 42
125.0
 43
125.0
  0
INSERT
  5
18650
330
1860A
100
AcDbEntity
  8
0
  6
ByBlock
 62
     0
 48
50.0
100
AcDbBlockReference
  2
_DOTSMALL
 10
16707.46242649135
 20
13351.45988446553
 30
0.0
 41
125.0
 42
125.0
 43
125.0
 50
180.0
  0
MTEXT
  5
18651
330
1860A
100
AcDbEntity
  8
0
  6
ByBlock
 62
     7
 48
50.0
100
AcDbMText
 10
17065.02148160945
 20
13451.45988446553
 30
0.0
 40
150.0
 41
0.0
 71
     5
 72
     1
  1
\A1;50
  7
STYLE1
 73
     1
 44
1.0
1001
ACAD
1000
MTEXTBEGIN
1070
    73
1070
     1
1070
    44
1040
1.0
1070
    74
1070
     0
1000
MTEXTEND
  0
POINT
  5
18652
330
1860A
100
AcDbEntity
  8
DEFPOINTS
  6
ByBlock
 62
     0
 48
50.0
100
AcDbPoint
 10
16657.46242649135
 20
13052.71350056478
 30
0.0
  0
POINT
  5
18653
330
1860A
100
AcDbEntity
  8
DEFPOINTS
  6
ByBlock
 62
     0
 48
50.0
100
AcDbPoint
 10
16707.46242649135
 20
12632.68151569412
 30
0.0
  0
POINT
  5
18654
330
1860A
100
AcDbEntity
  8
DEFPOINTS
  6
ByBlock
 62
     0
 48
50.0
100
AcDbPoint
 10
16707.46242649135
 20
13351.45988446553
 30
0.0
  0
ENDBLK
  5
18655
330
1860A
100
AcDbEntity
  8
0
 48
50.0
100
AcDbBlockEnd
  0
BLOCK
  5
186A4
330
1868D
100
AcDbEntity
  8
0
 48
50.0
100
AcDbBlockBegin
  2
*D27
 70
     1
 10
0.0
 20
0.0
 30
0.0
  3
*D27
  1

  0
LINE
  5
186A5
330
1868D
100
AcDbEntity
  8
0
  6
ByBlock
 62
     0
 48
50.0
100
AcDbLine
 10
11787.46242649134
 20
9587.681515694125
 30
0.0
 11
11787.46242649134
 21
8266.373221742966
 31
0.0
  0
LINE
  5
186A6
330
1868D
100
AcDbEntity
  8
0
  6
ByBlock
 62
     0
 48
50.0
100
AcDbLine
 10
16707.46242649135
 20
9587.681515694127
 30
0.0
 11
16707.46242649135
 21
8266.373221742966
 31
0.0
  0
LINE
  5
186A7
330
1868D
100
AcDbEntity
  8
0
  6
ByBlock
 62
     0
 48
50.0
100
AcDbLine
 10
11787.46242649134
 20
8341.373221742967
 30
0.0
 11
16707.46242649135
 21
8341.373221742967
 31
0.0
  0
INSERT
  5
186A8
330
1868D
100
AcDbEntity
  8
0
  6
ByBlock
 62
     0
 48
50.0
100
AcDbBlockReference
  2
_DOTSMALL
 10
11787.46242649134
 20
8341.373221742967
 30
0.0
 41
125.0
 42
125.0
 43
125.0
 50
180.0
  0
INSERT
  5
186A9
330
1868D
100
AcDbEntity
  8
0
  6
ByBlock
 62
     0
 48
50.0
100
AcDbBlockReference
  2
_DOTSMALL
 10
16707.46242649135
 20
8341.373221742967
 30
0.0
 41
125.0
 42
125.0
 43
125.0
  0
MTEXT
  5
186AA
330
1868D
100
AcDbEntity
  8
0
  6
ByBlock
 62
     7
 48
50.0
100
AcDbMText
 10
14247.46242649134
 20
8441.424237448972
 30
0.0
 40
150.0
 41
0.0
 71
     5
 72
     1
  1
\A1;4920
  7
STYLE1
 73
     1
 44
1.0
1001
ACAD
1000
MTEXTBEGIN
1070
    73
1070
     1
1070
    44
1040
1.0
1070
    74
1070
     0
1000
MTEXTEND
  0
POINT
  5
186AB
330
1868D
100
AcDbEntity
  8
DEFPOINTS
  6
ByBlock
 62
     0
 48
50.0
100
AcDbPoint
 10
11787.46242649134
 20
9612.681515694125
 30
0.0
  0
POINT
  5
186AC
330
1868D
100
AcDbEntity
  8
DEFPOINTS
  6
ByBlock
 62
     0
 48
50.0
100
AcDbPoint
 10
16707.46242649135
 20
9612.681515694127
 30
0.0
  0
POINT
  5
186AD
330
1868D
100
AcDbEntity
  8
DEFPOINTS
  6
ByBlock
 62
     0
 48
50.0
100
AcDbPoint
 10
16707.46242649135
 20
8341.373221742967
 30
0.0
  0
ENDBLK
  5
186AE
330
1868D
100
AcDbEntity
  8
0
 48
50.0
100
AcDbBlockEnd
  0
BLOCK
  5
186C7
330
186B0
100
AcDbEntity
  8
0
 48
50.0
100
AcDbBlockBegin
  2
*D28
 70
     1
 10
0.0
 20
0.0
 30
0.0
  3
*D28
  1

  0
LINE
  5
186C8
330
186B0
100
AcDbEntity
  8
0
  6
ByBlock
 62
     0
 48
50.0
100
AcDbLine
 10
11772.46242649134
 20
12642.68151569412
 30
0.0
 11
10945.83144671167
 21
12642.68151569412
 31
0.0
  0
LINE
  5
186C9
330
186B0
100
AcDbEntity
  8
0
  6
ByBlock
 62
     0
 48
50.0
100
AcDbLine
 10
11772.46242649134
 20
9602.681515694126
 30
0.0
 11
10945.83144671167
 21
9602.681515694126
 31
0.0
  0
LINE
  5
186CA
330
186B0
100
AcDbEntity
  8
0
  6
ByBlock
 62
     0
 48
50.0
100
AcDbLine
 10
11020.83144671167
 20
12642.68151569412
 30
0.0
 11
11020.83144671167
 21
9602.681515694126
 31
0.0
  0
INSERT
  5
186CB
330
186B0
100
AcDbEntity
  8
0
  6
ByBlock
 62
     0
 48
50.0
100
AcDbBlockReference
  2
_DOTSMALL
 10
11020.83144671167
 20
12642.68151569412
 30
0.0
 41
125.0
 42
125.0
 43
125.0
 50
90.0
  0
INSERT
  5
186CC
330
186B0
100
AcDbEntity
  8
0
  6
ByBlock
 62
     0
 48
50.0
100
AcDbBlockReference
  2
_DOTSMALL
 10
11020.83144671167
 20
9602.681515694126
 30
0.0
 41
125.0
 42
125.0
 43
125.0
 50
270.0
  0
MTEXT
  5
186CD
330
186B0
100
AcDbEntity
  8
0
  6
ByBlock
 62
     7
 48
50.0
100
AcDbMText
 10
10920.83144671167
 20
11122.68151569412
 30
0.0
 40
150.0
 41
0.0
 71
     5
 72
     1
  1
\A1;3040
  7
STYLE1
 11
0.0000000000000001
 21
1.0
 31
0.0
 73
     1
 44
1.0
1001
ACAD
1000
MTEXTBEGIN
1070
    73
1070
     1
1070
    44
1040
1.0
1070
    74
1070
     0
1000
MTEXTEND
  0
POINT
  5
186CE
330
186B0
100
AcDbEntity
  8
DEFPOINTS
  6
ByBlock
 62
     0
 48
50.0
100
AcDbPoint
 10
11797.46242649134
 20
12642.68151569412
 30
0.0
  0
POINT
  5
186CF
330
186B0
100
AcDbEntity
  8
DEFPOINTS
  6
ByBlock
 62
     0
 48
50.0
100
AcDbPoint
 10
11797.46242649134
 20
9602.681515694126
 30
0.0
  0
POINT
  5
186D0
330
186B0
100
AcDbEntity
  8
DEFPOINTS
  6
ByBlock
 62
     0
 48
50.0
100
AcDbPoint
 10
11020.83144671167
 20
9602.681515694126
 30
0.0
  0
ENDBLK
  5
186D1
330
186B0
100
AcDbEntity
  8
0
 48
50.0
100
AcDbBlockEnd
  0
BLOCK
  5
18793
330
1876C
100
AcDbEntity
  8
0
 48
50.0
100
AcDbBlockBegin
  2
*D29
 70
     1
 10
0.0
 20
0.0
 30
0.0
  3
*D29
  1

  0
LINE
  5
18794
330
1876C
100
AcDbEntity
  8
0
  6
ByBlock
 62
     0
 48
50.0
100
AcDbLine
 10
12447.46242649134
 20
9509.681515693761
 30
0.0
 11
12447.46242649134
 21
8831.218216402794
 31
0.0
  0
LINE
  5
18795
330
1876C
100
AcDbEntity
  8
0
  6
ByBlock
 62
     0
 48
50.0
100
AcDbLine
 10
13537.46242649134
 20
9509.681515693761
 30
0.0
 11
13537.46242649134
 21
8831.218216402794
 31
0.0
  0
LINE
  5
18796
330
1876C
100
AcDbEntity
  8
0
  6
ByBlock
 62
     0
 48
50.0
100
AcDbLine
 10
12447.46242649134
 20
8906.218216402795
 30
0.0
 11
12322.46242649134
 21
8906.218216402795
 31
0.0
  0
LINE
  5
18797
330
1876C
100
AcDbEntity
  8
0
  6
ByBlock
 62
     0
 48
50.0
100
AcDbLine
 10
13537.46242649134
 20
8906.218216402795
 30
0.0
 11
13662.46242649134
 21
8906.218216402795
 31
0.0
  0
LINE
  5
18798
330
1876C
100
AcDbEntity
  8
0
  6
ByBlock
 62
     0
 48
50.0
100
AcDbLine
 10
12447.46242649134
 20
8906.218216402795
 30
0.0
 11
13537.46242649134
 21
8906.218216402795
 31
0.0
  0
INSERT
  5
18799
330
1876C
100
AcDbEntity
  8
0
  6
ByBlock
 62
     0
 48
50.0
100
AcDbBlockReference
  2
_DOTSMALL
 10
12447.46242649134
 20
8906.218216402795
 30
0.0
 41
125.0
 42
125.0
 43
125.0
  0
INSERT
  5
1879A
330
1876C
100
AcDbEntity
  8
0
  6
ByBlock
 62
     0
 48
50.0
100
AcDbBlockReference
  2
_DOTSMALL
 10
13537.46242649134
 20
8906.218216402795
 30
0.0
 41
125.0
 42
125.0
 43
125.0
 50
180.0
  0
MTEXT
  5
1879B
330
1876C
100
AcDbEntity
  8
0
  6
ByBlock
 62
     7
 48
50.0
100
AcDbMText
 10
12992.46242649134
 20
9131.218216402794
 30
0.0
 40
150.0
 41
0.0
 71
     5
 72
     1
  1
\A1;有効開口部間口\P1090
  7
STYLE1
 73
     1
 44
1.0
1001
ACAD
1000
MTEXTBEGIN
1070
    73
1070
     1
1070
    44
1040
1.0
1070
    74
1070
     0
1000
MTEXTEND
  0
POINT
  5
1879C
330
1876C
100
AcDbEntity
  8
DEFPOINTS
  6
ByBlock
 62
     0
 48
50.0
100
AcDbPoint
 10
12447.46242649134
 20
9534.681515693762
 30
0.0
  0
POINT
  5
1879D
330
1876C
100
AcDbEntity
  8
DEFPOINTS
  6
ByBlock
 62
     0
 48
50.0
100
AcDbPoint
 10
13537.46242649134
 20
9534.681515693762
 30
0.0
  0
POINT
  5
1879E
330
1876C
100
AcDbEntity
  8
DEFPOINTS
  6
ByBlock
 62
     0
 48
50.0
100
AcDbPoint
 10
13537.46242649134
 20
8906.218216402795
 30
0.0
  0
ENDBLK
  5
1879F
330
1876C
100
AcDbEntity
  8
0
 48
50.0
100
AcDbBlockEnd
  0
BLOCK
  5
191A9
330
1917F
100
AcDbEntity
  8
0
 48
50.0
100
AcDbBlockBegin
  2
*D30
 70
     1
 10
0.0
 20
0.0
 30
0.0
  3
*D30
  1

  0
LINE
  5
191AA
330
1917F
100
AcDbEntity
  8
0
  6
ByBlock
 62
     0
 48
50.0
100
AcDbLine
 10
12803.84362656884
 20
5242.557951570319
 30
0.0
 11
12134.73506072483
 21
5253.201093468327
 31
0.0
  0
LINE
  5
191AB
330
1917F
100
AcDbEntity
  8
0
  6
ByBlock
 62
     0
 48
50.0
100
AcDbLine
 10
12805.67263694136
 20
5357.543405959372
 30
0.0
 11
12136.56407109735
 21
5368.186547857381
 31
0.0
  0
LINE
  5
191AC
330
1917F
100
AcDbEntity
  8
0
  6
ByBlock
 62
     0
 48
50.0
100
AcDbLine
 10
12209.72557445682
 20
5252.008260616684
 30
0.0
 11
12211.55458482934
 21
5366.993715005738
 31
0.0
  0
LINE
  5
191AD
330
1917F
100
AcDbEntity
  8
0
  6
ByBlock
 62
     0
 48
50.0
100
AcDbLine
 10
12211.55458482934
 20
5366.993715005738
 30
0.0
 11
12217.77661097673
 21
5758.157436397386
 31
0.0
  0
INSERT
  5
191AE
330
1917F
100
AcDbEntity
  8
0
  6
ByBlock
 62
     0
 48
50.0
100
AcDbBlockReference
  2
_DOTSMALL
 10
12209.72557445682
 20
5252.008260616684
 30
0.0
 41
125.0
 42
125.0
 43
125.0
 50
269.0887044041859
  0
INSERT
  5
191AF
330
1917F
100
AcDbEntity
  8
0
  6
ByBlock
 62
     0
 48
50.0
100
AcDbBlockReference
  2
_DOTSMALL
 10
12211.55458482934
 20
5366.993715005738
 30
0.0
 41
125.0
 42
125.0
 43
125.0
 50
89.08870440418592
  0
MTEXT
  5
191B0
330
1917F
100
AcDbEntity
  8
0
  6
ByBlock
 62
     7
 48
50.0
100
AcDbMText
 10
12115.67227363675
 20
5626.658114280411
 30
0.0
 40
150.0
 41
0.0
 71
     5
 72
     1
  1
\A1;115
  7
STYLE1
 11
0.0159044380219005
 21
0.9998735164265566
 31
0.0
 73
     1
 44
1.0
1001
ACAD
1000
MTEXTBEGIN
1070
    73
1070
     1
1070
    44
1040
1.0
1070
    74
1070
     0
1000
MTEXTEND
  0
POINT
  5
191B1
330
1917F
100
AcDbEntity
  8
DEFPOINTS
  6
ByBlock
 62
     0
 48
50.0
100
AcDbPoint
 10
12828.84046447951
 20
5242.160340619771
 30
0.0
  0
POINT
  5
191B2
330
1917F
100
AcDbEntity
  8
DEFPOINTS
  6
ByBlock
 62
     0
 48
50.0
100
AcDbPoint
 10
12830.66947485202
 20
5357.145795008825
 30
0.0
  0
POINT
  5
191B3
330
1917F
100
AcDbEntity
  8
DEFPOINTS
  6
ByBlock
 62
     0
 48
50.0
100
AcDbPoint
 10
12211.55458482934
 20
5366.993715005738
 30
0.0
  0
ENDBLK
  5
191B4
330
1917F
100
AcDbEntity
  8
0
 48
50.0
100
AcDbBlockEnd
  0
BLOCK
  5
19201
330
191B6
100
AcDbEntity
  8
0
 48
50.0
100
AcDbBlockBegin
  2
*D31
 70
     1
 10
0.0
 20
0.0
 30
0.0
  3
*D31
  1

  0
LINE
  5
19202
330
191B6
100
AcDbEntity
  8
0
  6
ByBlock
 62
     0
 48
50.0
100
AcDbLine
 10
12849.82958141817
 20
2935.0
 30
0.0
 11
12141.70986552558
 21
2935.0
 31
0.0
  0
LINE
  5
19203
330
191B6
100
AcDbEntity
  8
0
  6
ByBlock
 62
     0
 48
50.0
100
AcDbLine
 10
12849.82958141817
 20
2990.0
 30
0.0
 11
12141.70986552558
 21
2990.0
 31
0.0
  0
LINE
  5
19204
330
191B6
100
AcDbEntity
  8
0
  6
ByBlock
 62
     0
 48
50.0
100
AcDbLine
 10
12216.70986552558
 20
2990.0
 30
0.0
 11
12216.70986552558
 21
2935.0
 31
0.0
  0
LINE
  5
19205
330
191B6
100
AcDbEntity
  8
0
  6
ByBlock
 62
     0
 48
50.0
100
AcDbLine
 10
12216.70986552558
 20
2935.0
 30
0.0
 11
12216.70986552558
 21
2513.813892459668
 31
0.0
  0
INSERT
  5
19206
330
191B6
100
AcDbEntity
  8
0
  6
ByBlock
 62
     0
 48
50.0
100
AcDbBlockReference
  2
_DOTSMALL
 10
12216.70986552558
 20
2990.0
 30
0.0
 41
125.0
 42
125.0
 43
125.0
 50
90.0
  0
INSERT
  5
19207
330
191B6
100
AcDbEntity
  8
0
  6
ByBlock
 62
     0
 48
50.0
100
AcDbBlockReference
  2
_DOTSMALL
 10
12216.70986552558
 20
2935.0
 30
0.0
 41
125.0
 42
125.0
 43
125.0
 50
270.0
  0
MTEXT
  5
19208
330
191B6
100
AcDbEntity
  8
0
  6
ByBlock
 62
     7
 48
50.0
100
AcDbMText
 10
12116.70986552558
 20
2624.420494177466
 30
0.0
 40
150.0
 41
0.0
 71
     5
 72
     1
  1
\A1;55
  7
STYLE1
 11
0.0000000000000001
 21
1.0
 31
0.0
 73
     1
 44
1.0
1001
ACAD
1000
MTEXTBEGIN
1070
    73
1070
     1
1070
    44
1040
1.0
1070
    74
1070
     0
1000
MTEXTEND
  0
POINT
  5
19209
330
191B6
100
AcDbEntity
  8
DEFPOINTS
  6
ByBlock
 62
     0
 48
50.0
100
AcDbPoint
 10
12874.82958141817
 20
2935.0
 30
0.0
  0
POINT
  5
1920A
330
191B6
100
AcDbEntity
  8
DEFPOINTS
  6
ByBlock
 62
     0
 48
50.0
100
AcDbPoint
 10
12874.82958141817
 20
2990.0
 30
0.0
  0
POINT
  5
1920B
330
191B6
100
AcDbEntity
  8
DEFPOINTS
  6
ByBlock
 62
     0
 48
50.0
100
AcDbPoint
 10
12216.70986552558
 20
2990.0
 30
0.0
  0
ENDBLK
  5
1920C
330
191B6
100
AcDbEntity
  8
0
 48
50.0
100
AcDbBlockEnd
  0
BLOCK
  5
191DE
330
191D2
100
AcDbEntity
  8
0
 48
50.0
100
AcDbBlockBegin
  2
*D32
 70
     1
 10
0.0
 20
0.0
 30
0.0
  3
*D32
  1

  0
LINE
  5
191DF
330
191D2
100
AcDbEntity
  8
0
  6
ByBlock
 62
     0
 48
50.0
100
AcDbLine
 10
12917.82958141817
 20
5105.0
 30
0.0
 11
12141.70986552558
 21
5105.0
 31
0.0
  0
LINE
  5
191E0
330
191D2
100
AcDbEntity
  8
0
  6
ByBlock
 62
     0
 48
50.0
100
AcDbLine
 10
12216.70986552558
 20
2990.0
 30
0.0
 11
12216.70986552558
 21
5105.0
 31
0.0
  0
INSERT
  5
191E1
330
191D2
100
AcDbEntity
  8
0
  6
ByBlock
 62
     0
 48
50.0
100
AcDbBlockReference
  2
_DOTSMALL
 10
12216.70986552558
 20
2990.0
 30
0.0
 41
125.0
 42
125.0
 43
125.0
 50
270.0
  0
INSERT
  5
191E2
330
191D2
100
AcDbEntity
  8
0
  6
ByBlock
 62
     0
 48
50.0
100
AcDbBlockReference
  2
_DOTSMALL
 10
12216.70986552558
 20
5105.0
 30
0.0
 41
125.0
 42
125.0
 43
125.0
 50
90.0
  0
MTEXT
  5
191E3
330
191D2
100
AcDbEntity
  8
0
  6
ByBlock
 62
     7
 48
50.0
100
AcDbMText
 10
12116.69510174605
 20
4047.5
 30
0.0
 40
150.0
 41
0.0
 71
     5
 72
     1
  1
\A1;2115
  7
STYLE1
 11
0.0000000000000001
 21
1.0
 31
0.0
 73
     1
 44
1.0
1001
ACAD
1000
MTEXTBEGIN
1070
    73
1070
     1
1070
    44
1040
1.0
1070
    74
1070
     0
1000
MTEXTEND
  0
POINT
  5
191E4
330
191D2
100
AcDbEntity
  8
DEFPOINTS
  6
ByBlock
 62
     0
 48
50.0
100
AcDbPoint
 10
12874.82958141817
 20
2990.0
 30
0.0
  0
POINT
  5
191E5
330
191D2
100
AcDbEntity
  8
DEFPOINTS
  6
ByBlock
 62
     0
 48
50.0
100
AcDbPoint
 10
12942.82958141817
 20
5105.0
 30
0.0
  0
POINT
  5
191E6
330
191D2
100
AcDbEntity
  8
DEFPOINTS
  6
ByBlock
 62
     0
 48
50.0
100
AcDbPoint
 10
12216.70986552558
 20
5105.0
 30
0.0
  0
ENDBLK
  5
191E7
330
191D2
100
AcDbEntity
  8
0
 48
50.0
100
AcDbBlockEnd
  0
BLOCK
  5
1921A
330
1920D
100
AcDbEntity
  8
0
 48
50.0
100
AcDbBlockBegin
  2
*D33
 70
     1
 10
0.0
 20
0.0
 30
0.0
  3
*D33
  1

  0
LINE
  5
1921B
330
1920D
100
AcDbEntity
  8
0
  6
ByBlock
 62
     0
 48
50.0
100
AcDbLine
 10
12849.82958141817
 20
3012.5
 30
0.0
 11
12453.94130116352
 21
3012.5
 31
0.0
  0
LINE
  5
1921C
330
1920D
100
AcDbEntity
  8
0
  6
ByBlock
 62
     0
 48
50.0
100
AcDbLine
 10
12849.82958141817
 20
4810.500000000001
 30
0.0
 11
12453.94130116352
 21
4810.500000000001
 31
0.0
  0
LINE
  5
1921D
330
1920D
100
AcDbEntity
  8
0
  6
ByBlock
 62
     0
 48
50.0
100
AcDbLine
 10
12528.94130116352
 20
3012.5
 30
0.0
 11
12528.94130116352
 21
4810.500000000001
 31
0.0
  0
INSERT
  5
1921E
330
1920D
100
AcDbEntity
  8
0
  6
ByBlock
 62
     0
 48
50.0
100
AcDbBlockReference
  2
_DOTSMALL
 10
12528.94130116352
 20
3012.5
 30
0.0
 41
125.0
 42
125.0
 43
125.0
 50
270.0
  0
INSERT
  5
1921F
330
1920D
100
AcDbEntity
  8
0
  6
ByBlock
 62
     0
 48
50.0
100
AcDbBlockReference
  2
_DOTSMALL
 10
12528.94130116352
 20
4810.500000000001
 30
0.0
 41
125.0
 42
125.0
 43
125.0
 50
90.0
  0
MTEXT
  5
19220
330
1920D
100
AcDbEntity
  8
0
  6
ByBlock
 62
     7
 48
50.0
100
AcDbMText
 10
12428.94130116352
 20
3911.5
 30
0.0
 40
150.0
 41
0.0
 71
     5
 72
     1
  1
\A1;有効開口部高サ 1798
  7
STYLE1
 11
0.0000000000000001
 21
1.0
 31
0.0
 73
     1
 44
1.0
1001
ACAD
1000
MTEXTBEGIN
1070
    73
1070
     1
1070
    44
1040
1.0
1070
    74
1070
     0
1000
MTEXTEND
  0
POINT
  5
19221
330
1920D
100
AcDbEntity
  8
DEFPOINTS
  6
ByBlock
 62
     0
 48
50.0
100
AcDbPoint
 10
12874.82958141817
 20
3012.5
 30
0.0
  0
POINT
  5
19222
330
1920D
100
AcDbEntity
  8
DEFPOINTS
  6
ByBlock
 62
     0
 48
50.0
100
AcDbPoint
 10
12874.82958141817
 20
4810.500000000001
 30
0.0
  0
POINT
  5
19223
330
1920D
100
AcDbEntity
  8
DEFPOINTS
  6
ByBlock
 62
     0
 48
50.0
100
AcDbPoint
 10
12528.94130116352
 20
4810.500000000001
 30
0.0
  0
ENDBLK
  5
19224
330
1920D
100
AcDbEntity
  8
0
 48
50.0
100
AcDbBlockEnd
  0
BLOCK
  5
1A3B0
330
1A2D7
100
AcDbEntity
  8
0
 48
50.0
100
AcDbBlockBegin
  2
*D34
 70
     1
 10
0.0
 20
0.0
 30
0.0
  3
*D34
  1

  0
LINE
  5
1A3B1
330
1A2D7
100
AcDbEntity
  8
0
  6
ByBlock
 62
     0
 48
50.0
100
AcDbLine
 10
4177.829581418171
 20
9228.736797361971
 30
0.0
 11
3351.198601638504
 21
9228.736797361971
 31
0.0
  0
LINE
  5
1A3B2
330
1A2D7
100
AcDbEntity
  8
0
  6
ByBlock
 62
     0
 48
50.0
100
AcDbLine
 10
4231.829581418173
 20
9160.736797361609
 30
0.0
 11
3351.198601638504
 21
9160.736797361609
 31
0.0
  0
LINE
  5
1A3B3
330
1A2D7
100
AcDbEntity
  8
0
  6
ByBlock
 62
     0
 48
50.0
100
AcDbLine
 10
3426.198601638504
 20
9228.736797361971
 30
0.0
 11
3426.198601638504
 21
9160.736797361609
 31
0.0
  0
LINE
  5
1A3B4
330
1A2D7
100
AcDbEntity
  8
0
  6
ByBlock
 62
     0
 48
50.0
100
AcDbLine
 10
3426.198601638504
 20
9160.736797361609
 30
0.0
 11
3426.198601638504
 21
8811.760419408853
 31
0.0
  0
INSERT
  5
1A3B5
330
1A2D7
100
AcDbEntity
  8
0
  6
ByBlock
 62
     0
 48
50.0
100
AcDbBlockReference
  2
_DOTSMALL
 10
3426.198601638504
 20
9228.736797361971
 30
0.0
 41
125.0
 42
125.0
 43
125.0
 50
90.0
  0
INSERT
  5
1A3B6
330
1A2D7
100
AcDbEntity
  8
0
  6
ByBlock
 62
     0
 48
50.0
100
AcDbBlockReference
  2
_DOTSMALL
 10
3426.198601638504
 20
9160.736797361609
 30
0.0
 41
125.0
 42
125.0
 43
125.0
 50
270.0
  0
MTEXT
  5
1A3B7
330
1A2D7
100
AcDbEntity
  8
0
  6
ByBlock
 62
     7
 48
50.0
100
AcDbMText
 10
3326.198601638504
 20
8923.748608385231
 30
0.0
 40
150.0
 41
0.0
 71
     5
 72
     1
  1
\A1;68
  7
STYLE1
 11
0.0000000000000001
 21
1.0
 31
0.0
 73
     1
 44
1.0
1001
ACAD
1000
MTEXTBEGIN
1070
    73
1070
     1
1070
    44
1040
1.0
1070
    74
1070
     0
1000
MTEXTEND
  0
POINT
  5
1A3B8
330
1A2D7
100
AcDbEntity
  8
DEFPOINTS
  6
ByBlock
 62
     0
 48
50.0
100
AcDbPoint
 10
4202.82958141817
 20
9228.736797361971
 30
0.0
  0
POINT
  5
1A3B9
330
1A2D7
100
AcDbEntity
  8
DEFPOINTS
  6
ByBlock
 62
     0
 48
50.0
100
AcDbPoint
 10
4256.829581418172
 20
9160.736797361609
 30
0.0
  0
POINT
  5
1A3BA
330
1A2D7
100
AcDbEntity
  8
DEFPOINTS
  6
ByBlock
 62
     0
 48
50.0
100
AcDbPoint
 10
3426.198601638504
 20
9160.736797361609
 30
0.0
  0
ENDBLK
  5
1A3BB
330
1A2D7
100
AcDbEntity
  8
0
 48
50.0
100
AcDbBlockEnd
  0
BLOCK
  5
1A80B
330
1A790
100
AcDbEntity
  8
0
 48
50.0
100
AcDbBlockBegin
  2
*D35
 70
     1
 10
0.0
 20
0.0
 30
0.0
  3
*D35
  1

  0
LINE
  5
1A80C
330
1A790
100
AcDbEntity
  8
0
  6
ByBlock
 62
     0
 48
50.0
100
AcDbLine
 10
12917.82958141817
 20
9418.736797361971
 30
0.0
 11
11977.63480123898
 21
9418.736797361971
 31
0.0
  0
LINE
  5
1A80D
330
1A790
100
AcDbEntity
  8
0
  6
ByBlock
 62
     0
 48
50.0
100
AcDbLine
 10
12917.82958141817
 20
9363.736797361971
 30
0.0
 11
11977.63480123898
 21
9363.736797361971
 31
0.0
  0
LINE
  5
1A80E
330
1A790
100
AcDbEntity
  8
0
  6
ByBlock
 62
     0
 48
50.0
100
AcDbLine
 10
12052.63480123898
 20
9418.736797361971
 30
0.0
 11
12052.63480123898
 21
9363.736797361971
 31
0.0
  0
LINE
  5
1A80F
330
1A790
100
AcDbEntity
  8
0
  6
ByBlock
 62
     0
 48
50.0
100
AcDbLine
 10
12052.63480123898
 20
9363.736797361971
 30
0.0
 11
12052.63480123898
 21
8979.043856808635
 31
0.0
  0
INSERT
  5
1A810
330
1A790
100
AcDbEntity
  8
0
  6
ByBlock
 62
     0
 48
50.0
100
AcDbBlockReference
  2
_DOTSMALL
 10
12052.63480123898
 20
9418.736797361971
 30
0.0
 41
125.0
 42
125.0
 43
125.0
 50
90.0
  0
INSERT
  5
1A811
330
1A790
100
AcDbEntity
  8
0
  6
ByBlock
 62
     0
 48
50.0
100
AcDbBlockReference
  2
_DOTSMALL
 10
12052.63480123898
 20
9363.736797361971
 30
0.0
 41
125.0
 42
125.0
 43
125.0
 50
270.0
  0
MTEXT
  5
1A812
330
1A790
100
AcDbEntity
  8
0
  6
ByBlock
 62
     7
 48
50.0
100
AcDbMText
 10
11952.63480123898
 20
9089.650458526433
 30
0.0
 40
150.0
 41
0.0
 71
     5
 72
     1
  1
\A1;55
  7
STYLE1
 11
0.0000000000000001
 21
1.0
 31
0.0
 73
     1
 44
1.0
1001
ACAD
1000
MTEXTBEGIN
1070
    73
1070
     1
1070
    44
1040
1.0
1070
    74
1070
     0
1000
MTEXTEND
  0
POINT
  5
1A813
330
1A790
100
AcDbEntity
  8
DEFPOINTS
  6
ByBlock
 62
     0
 48
50.0
100
AcDbPoint
 10
12942.82958141817
 20
9418.736797361971
 30
0.0
  0
POINT
  5
1A814
330
1A790
100
AcDbEntity
  8
DEFPOINTS
  6
ByBlock
 62
     0
 48
50.0
100
AcDbPoint
 10
12942.82958141817
 20
9363.736797361971
 30
0.0
  0
POINT
  5
1A815
330
1A790
100
AcDbEntity
  8
DEFPOINTS
  6
ByBlock
 62
     0
 48
50.0
100
AcDbPoint
 10
12052.63480123898
 20
9363.736797361971
 30
0.0
  0
ENDBLK
  5
1A816
330
1A790
100
AcDbEntity
  8
0
 48
50.0
100
AcDbBlockEnd
  0
BLOCK
  5
1A817
330
1A79D
100
AcDbEntity
  8
0
 48
50.0
100
AcDbBlockBegin
  2
*D36
 70
     1
 10
0.0
 20
0.0
 30
0.0
  3
*D36
  1

  0
LINE
  5
1A818
330
1A79D
100
AcDbEntity
  8
0
  6
ByBlock
 62
     0
 48
50.0
100
AcDbLine
 10
12782.82958141816
 20
11803.73679736197
 30
0.0
 11
11643.38013607452
 21
11803.73679736197
 31
0.0
  0
LINE
  5
1A819
330
1A79D
100
AcDbEntity
  8
0
  6
ByBlock
 62
     0
 48
50.0
100
AcDbLine
 10
12917.82958141817
 20
9363.736797361967
 30
0.0
 11
11643.38013607452
 21
9363.736797361967
 31
0.0
  0
LINE
  5
1A81A
330
1A79D
100
AcDbEntity
  8
0
  6
ByBlock
 62
     0
 48
50.0
100
AcDbLine
 10
11718.38013607452
 20
11803.73679736197
 30
0.0
 11
11718.38013607452
 21
9363.736797361967
 31
0.0
  0
INSERT
  5
1A81B
330
1A79D
100
AcDbEntity
  8
0
  6
ByBlock
 62
     0
 48
50.0
100
AcDbBlockReference
  2
_DOTSMALL
 10
11718.38013607452
 20
11803.73679736197
 30
0.0
 41
125.0
 42
125.0
 43
125.0
 50
90.0
  0
INSERT
  5
1A81C
330
1A79D
100
AcDbEntity
  8
0
  6
ByBlock
 62
     0
 48
50.0
100
AcDbBlockReference
  2
_DOTSMALL
 10
11718.38013607452
 20
9363.736797361967
 30
0.0
 41
125.0
 42
125.0
 43
125.0
 50
270.0
  0
MTEXT
  5
1A81D
330
1A79D
100
AcDbEntity
  8
0
  6
ByBlock
 62
     7
 48
50.0
100
AcDbMText
 10
11618.36537229499
 20
10583.73679736197
 30
0.0
 40
150.0
 41
0.0
 71
     5
 72
     1
  1
\A1;2440
  7
STYLE1
 11
0.0000000000000001
 21
1.0
 31
0.0
 73
     1
 44
1.0
1001
ACAD
1000
MTEXTBEGIN
1070
    73
1070
     1
1070
    44
1040
1.0
1070
    74
1070
     0
1000
MTEXTEND
  0
POINT
  5
1A81E
330
1A79D
100
AcDbEntity
  8
DEFPOINTS
  6
ByBlock
 62
     0
 48
50.0
100
AcDbPoint
 10
12807.82958141817
 20
11803.73679736197
 30
0.0
  0
POINT
  5
1A81F
330
1A79D
100
AcDbEntity
  8
DEFPOINTS
  6
ByBlock
 62
     0
 48
50.0
100
AcDbPoint
 10
12942.82958141817
 20
9363.736797361967
 30
0.0
  0
POINT
  5
1A820
330
1A79D
100
AcDbEntity
  8
DEFPOINTS
  6
ByBlock
 62
     0
 48
50.0
100
AcDbPoint
 10
11718.38013607452
 20
9363.736797361967
 30
0.0
  0
ENDBLK
  5
1A821
330
1A79D
100
AcDbEntity
  8
0
 48
50.0
100
AcDbBlockEnd
  0
BLOCK
  5
1A822
330
1A7A9
100
AcDbEntity
  8
0
 48
50.0
100
AcDbBlockBegin
  2
*D37
 70
     1
 10
0.0
 20
0.0
 30
0.0
  3
*D37
  1

  0
LINE
  5
1A823
330
1A7A9
100
AcDbEntity
  8
0
  6
ByBlock
 62
     0
 48
50.0
100
AcDbLine
 10
12803.84362656884
 20
11671.29474893229
 30
0.0
 11
12134.73506072483
 21
11681.9378908303
 31
0.0
  0
LINE
  5
1A824
330
1A7A9
100
AcDbEntity
  8
0
  6
ByBlock
 62
     0
 48
50.0
100
AcDbLine
 10
12805.67263694136
 20
11786.28020332134
 30
0.0
 11
12136.56407109735
 21
11796.92334521935
 31
0.0
  0
LINE
  5
1A825
330
1A7A9
100
AcDbEntity
  8
0
  6
ByBlock
 62
     0
 48
50.0
100
AcDbLine
 10
12209.72557445682
 20
11680.74505797865
 30
0.0
 11
12211.55458482934
 21
11795.73051236771
 31
0.0
  0
LINE
  5
1A826
330
1A7A9
100
AcDbEntity
  8
0
  6
ByBlock
 62
     0
 48
50.0
100
AcDbLine
 10
12211.55458482934
 20
11795.73051236771
 30
0.0
 11
12217.77661097673
 21
12186.89423375936
 31
0.0
  0
INSERT
  5
1A827
330
1A7A9
100
AcDbEntity
  8
0
  6
ByBlock
 62
     0
 48
50.0
100
AcDbBlockReference
  2
_DOTSMALL
 10
12209.72557445682
 20
11680.74505797865
 30
0.0
 41
125.0
 42
125.0
 43
125.0
 50
269.0887044041859
  0
INSERT
  5
1A828
330
1A7A9
100
AcDbEntity
  8
0
  6
ByBlock
 62
     0
 48
50.0
100
AcDbBlockReference
  2
_DOTSMALL
 10
12211.55458482934
 20
11795.73051236771
 30
0.0
 41
125.0
 42
125.0
 43
125.0
 50
89.08870440418592
  0
MTEXT
  5
1A829
330
1A7A9
100
AcDbEntity
  8
0
  6
ByBlock
 62
     7
 48
50.0
100
AcDbMText
 10
12115.67227363675
 20
12055.39491164238
 30
0.0
 40
150.0
 41
0.0
 71
     5
 72
     1
  1
\A1;115
  7
STYLE1
 11
0.0159044380219005
 21
0.9998735164265566
 31
0.0
 73
     1
 44
1.0
1001
ACAD
1000
MTEXTBEGIN
1070
    73
1070
     1
1070
    44
1040
1.0
1070
    74
1070
     0
1000
MTEXTEND
  0
POINT
  5
1A82A
330
1A7A9
100
AcDbEntity
  8
DEFPOINTS
  6
ByBlock
 62
     0
 48
50.0
100
AcDbPoint
 10
12828.8404644795
 20
11670.89713798174
 30
0.0
  0
POINT
  5
1A82B
330
1A7A9
100
AcDbEntity
  8
DEFPOINTS
  6
ByBlock
 62
     0
 48
50.0
100
AcDbPoint
 10
12830.66947485202
 20
11785.8825923708
 30
0.0
  0
POINT
  5
1A82C
330
1A7A9
100
AcDbEntity
  8
DEFPOINTS
  6
ByBlock
 62
     0
 48
50.0
100
AcDbPoint
 10
12211.55458482934
 20
11795.73051236771
 30
0.0
  0
ENDBLK
  5
1A82D
330
1A7A9
100
AcDbEntity
  8
0
 48
50.0
100
AcDbBlockEnd
  0
BLOCK
  5
1A82E
330
1A7B6
100
AcDbEntity
  8
0
 48
50.0
100
AcDbBlockBegin
  2
*D38
 70
     1
 10
0.0
 20
0.0
 30
0.0
  3
*D38
  1

  0
LINE
  5
1A82F
330
1A7B6
100
AcDbEntity
  8
0
  6
ByBlock
 62
     0
 48
50.0
100
AcDbLine
 10
12917.82958141817
 20
11533.73679736197
 30
0.0
 11
11977.63480123898
 21
11533.73679736197
 31
0.0
  0
LINE
  5
1A830
330
1A7B6
100
AcDbEntity
  8
0
  6
ByBlock
 62
     0
 48
50.0
100
AcDbLine
 10
12917.82958141817
 20
9418.736797361971
 30
0.0
 11
11977.63480123898
 21
9418.736797361971
 31
0.0
  0
LINE
  5
1A831
330
1A7B6
100
AcDbEntity
  8
0
  6
ByBlock
 62
     0
 48
50.0
100
AcDbLine
 10
12052.63480123898
 20
11533.73679736197
 30
0.0
 11
12052.63480123898
 21
9418.736797361971
 31
0.0
  0
INSERT
  5
1A832
330
1A7B6
100
AcDbEntity
  8
0
  6
ByBlock
 62
     0
 48
50.0
100
AcDbBlockReference
  2
_DOTSMALL
 10
12052.63480123898
 20
11533.73679736197
 30
0.0
 41
125.0
 42
125.0
 43
125.0
 50
90.0
  0
INSERT
  5
1A833
330
1A7B6
100
AcDbEntity
  8
0
  6
ByBlock
 62
     0
 48
50.0
100
AcDbBlockReference
  2
_DOTSMALL
 10
12052.63480123898
 20
9418.736797361971
 30
0.0
 41
125.0
 42
125.0
 43
125.0
 50
270.0
  0
MTEXT
  5
1A834
330
1A7B6
100
AcDbEntity
  8
0
  6
ByBlock
 62
     7
 48
50.0
100
AcDbMText
 10
11952.62003745945
 20
10476.23679736197
 30
0.0
 40
150.0
 41
0.0
 71
     5
 72
     1
  1
\A1;2115
  7
STYLE1
 11
0.0000000000000001
 21
1.0
 31
0.0
 73
     1
 44
1.0
1001
ACAD
1000
MTEXTBEGIN
1070
    73
1070
     1
1070
    44
1040
1.0
1070
    74
1070
     0
1000
MTEXTEND
  0
POINT
  5
1A835
330
1A7B6
100
AcDbEntity
  8
DEFPOINTS
  6
ByBlock
 62
     0
 48
50.0
100
AcDbPoint
 10
12942.82958141817
 20
11533.73679736197
 30
0.0
  0
POINT
  5
1A836
330
1A7B6
100
AcDbEntity
  8
DEFPOINTS
  6
ByBlock
 62
     0
 48
50.0
100
AcDbPoint
 10
12942.82958141817
 20
9418.736797361971
 30
0.0
  0
POINT
  5
1A837
330
1A7B6
100
AcDbEntity
  8
DEFPOINTS
  6
ByBlock
 62
     0
 48
50.0
100
AcDbPoint
 10
12052.63480123898
 20
9418.736797361971
 30
0.0
  0
ENDBLK
  5
1A838
330
1A7B6
100
AcDbEntity
  8
0
 48
50.0
100
AcDbBlockEnd
  0
BLOCK
  5
1A839
330
1A7C2
100
AcDbEntity
  8
0
 48
50.0
100
AcDbBlockBegin
  2
*D39
 70
     1
 10
0.0
 20
0.0
 30
0.0
  3
*D39
  1

  0
LINE
  5
1A83A
330
1A7C2
100
AcDbEntity
  8
0
  6
ByBlock
 62
     0
 48
50.0
100
AcDbLine
 10
15972.32958141817
 20
9430.736797361971
 30
0.0
 11
17369.10991665977
 21
9430.736797361971
 31
0.0
  0
LINE
  5
1A83B
330
1A7C2
100
AcDbEntity
  8
0
  6
ByBlock
 62
     0
 48
50.0
100
AcDbLine
 10
16007.82958141817
 20
11560.73679736197
 30
0.0
 11
17369.10991665977
 21
11560.73679736197
 31
0.0
  0
LINE
  5
1A83C
330
1A7C2
100
AcDbEntity
  8
0
  6
ByBlock
 62
     0
 48
50.0
100
AcDbLine
 10
17294.10991665977
 20
9430.736797361971
 30
0.0
 11
17294.10991665977
 21
11560.73679736197
 31
0.0
  0
INSERT
  5
1A83D
330
1A7C2
100
AcDbEntity
  8
0
  6
ByBlock
 62
     0
 48
50.0
100
AcDbBlockReference
  2
_DOTSMALL
 10
17294.10991665977
 20
9430.736797361971
 30
0.0
 41
125.0
 42
125.0
 43
125.0
 50
270.0
  0
INSERT
  5
1A83E
330
1A7C2
100
AcDbEntity
  8
0
  6
ByBlock
 62
     0
 48
50.0
100
AcDbBlockReference
  2
_DOTSMALL
 10
17294.10991665977
 20
11560.73679736197
 30
0.0
 41
125.0
 42
125.0
 43
125.0
 50
90.0
  0
MTEXT
  5
1A83F
330
1A7C2
100
AcDbEntity
  8
0
  6
ByBlock
 62
     7
 48
50.0
100
AcDbMText
 10
17194.09515288025
 20
10495.73679736197
 30
0.0
 40
150.0
 41
0.0
 71
     5
 72
     1
  1
\A1;内高 2130
  7
STYLE1
 11
0.0000000000000001
 21
1.0
 31
0.0
 73
     1
 44
1.0
1001
ACAD
1000
MTEXTBEGIN
1070
    73
1070
     1
1070
    44
1040
1.0
1070
    74
1070
     0
1000
MTEXTEND
  0
POINT
  5
1A840
330
1A7C2
100
AcDbEntity
  8
DEFPOINTS
  6
ByBlock
 62
     0
 48
50.0
100
AcDbPoint
 10
15947.32958141817
 20
9430.736797361971
 30
0.0
  0
POINT
  5
1A841
330
1A7C2
100
AcDbEntity
  8
DEFPOINTS
  6
ByBlock
 62
     0
 48
50.0
100
AcDbPoint
 10
15982.82958141817
 20
11560.73679736197
 30
0.0
  0
POINT
  5
1A842
330
1A7C2
100
AcDbEntity
  8
DEFPOINTS
  6
ByBlock
 62
     0
 48
50.0
100
AcDbPoint
 10
17294.10991665977
 20
11560.73679736197
 30
0.0
  0
ENDBLK
  5
1A843
330
1A7C2
100
AcDbEntity
  8
0
 48
50.0
100
AcDbBlockEnd
  0
BLOCK
  5
1A844
330
1A7CE
100
AcDbEntity
  8
0
 48
50.0
100
AcDbBlockBegin
  2
*D40
 70
     1
 10
0.0
 20
0.0
 30
0.0
  3
*D40
  1

  0
LINE
  5
1A845
330
1A7CE
100
AcDbEntity
  8
0
  6
ByBlock
 62
     0
 48
50.0
100
AcDbLine
 10
16007.82958141817
 20
9363.736797361971
 30
0.0
 11
17682.07164574816
 21
9363.736797361971
 31
0.0
  0
LINE
  5
1A846
330
1A7CE
100
AcDbEntity
  8
0
  6
ByBlock
 62
     0
 48
50.0
100
AcDbLine
 10
16102.82958141817
 20
11743.73679736197
 30
0.0
 11
17682.07164574816
 21
11743.73679736197
 31
0.0
  0
LINE
  5
1A847
330
1A7CE
100
AcDbEntity
  8
0
  6
ByBlock
 62
     0
 48
50.0
100
AcDbLine
 10
17607.07164574816
 20
9363.736797361971
 30
0.0
 11
17607.07164574816
 21
11743.73679736197
 31
0.0
  0
INSERT
  5
1A848
330
1A7CE
100
AcDbEntity
  8
0
  6
ByBlock
 62
     0
 48
50.0
100
AcDbBlockReference
  2
_DOTSMALL
 10
17607.07164574816
 20
9363.736797361971
 30
0.0
 41
125.0
 42
125.0
 43
125.0
 50
270.0
  0
INSERT
  5
1A849
330
1A7CE
100
AcDbEntity
  8
0
  6
ByBlock
 62
     0
 48
50.0
100
AcDbBlockReference
  2
_DOTSMALL
 10
17607.07164574816
 20
11743.73679736197
 30
0.0
 41
125.0
 42
125.0
 43
125.0
 50
90.0
  0
MTEXT
  5
1A84A
330
1A7CE
100
AcDbEntity
  8
0
  6
ByBlock
 62
     7
 48
50.0
100
AcDbMText
 10
17507.05688196864
 20
10553.73679736197
 30
0.0
 40
150.0
 41
0.0
 71
     5
 72
     1
  1
\A1;2380
  7
STYLE1
 11
0.0000000000000001
 21
1.0
 31
0.0
 73
     1
 44
1.0
1001
ACAD
1000
MTEXTBEGIN
1070
    73
1070
     1
1070
    44
1040
1.0
1070
    74
1070
     0
1000
MTEXTEND
  0
POINT
  5
1A84B
330
1A7CE
100
AcDbEntity
  8
DEFPOINTS
  6
ByBlock
 62
     0
 48
50.0
100
AcDbPoint
 10
15982.82958141817
 20
9363.736797361971
 30
0.0
  0
POINT
  5
1A84C
330
1A7CE
100
AcDbEntity
  8
DEFPOINTS
  6
ByBlock
 62
     0
 48
50.0
100
AcDbPoint
 10
16077.82958141817
 20
11743.73679736197
 30
0.0
  0
POINT
  5
1A84D
330
1A7CE
100
AcDbEntity
  8
DEFPOINTS
  6
ByBlock
 62
     0
 48
50.0
100
AcDbPoint
 10
17607.07164574816
 20
11743.73679736197
 30
0.0
  0
ENDBLK
  5
1A84E
330
1A7CE
100
AcDbEntity
  8
0
 48
50.0
100
AcDbBlockEnd
  0
BLOCK
  5
1A84F
330
1A7DA
100
AcDbEntity
  8
0
 48
50.0
100
AcDbBlockBegin
  2
*D41
 70
     1
 10
0.0
 20
0.0
 30
0.0
  3
*D41
  1

  0
LINE
  5
1A850
330
1A7DA
100
AcDbEntity
  8
0
  6
ByBlock
 62
     0
 48
50.0
100
AcDbLine
 10
12807.82958141817
 20
11828.73679736197
 30
0.0
 11
12807.82958141817
 21
12888.17369887015
 31
0.0
  0
LINE
  5
1A851
330
1A7DA
100
AcDbEntity
  8
0
  6
ByBlock
 62
     0
 48
50.0
100
AcDbLine
 10
16077.82958141817
 20
11768.73679736197
 30
0.0
 11
16077.82958141817
 21
12888.17369887015
 31
0.0
  0
LINE
  5
1A852
330
1A7DA
100
AcDbEntity
  8
0
  6
ByBlock
 62
     0
 48
50.0
100
AcDbLine
 10
12807.82958141817
 20
12813.17369887015
 30
0.0
 11
16077.82958141817
 21
12813.17369887015
 31
0.0
  0
INSERT
  5
1A853
330
1A7DA
100
AcDbEntity
  8
0
  6
ByBlock
 62
     0
 48
50.0
100
AcDbBlockReference
  2
_DOTSMALL
 10
12807.82958141817
 20
12813.17369887015
 30
0.0
 41
125.0
 42
125.0
 43
125.0
 50
180.0
  0
INSERT
  5
1A854
330
1A7DA
100
AcDbEntity
  8
0
  6
ByBlock
 62
     0
 48
50.0
100
AcDbBlockReference
  2
_DOTSMALL
 10
16077.82958141817
 20
12813.17369887015
 30
0.0
 41
125.0
 42
125.0
 43
125.0
  0
MTEXT
  5
1A855
330
1A7DA
100
AcDbEntity
  8
0
  6
ByBlock
 62
     7
 48
50.0
100
AcDbMText
 10
14442.82958141817
 20
12913.18846264967
 30
0.0
 40
150.0
 41
0.0
 71
     5
 72
     1
  1
\A1;3270
  7
STYLE1
 73
     1
 44
1.0
1001
ACAD
1000
MTEXTBEGIN
1070
    73
1070
     1
1070
    44
1040
1.0
1070
    74
1070
     0
1000
MTEXTEND
  0
POINT
  5
1A856
330
1A7DA
100
AcDbEntity
  8
DEFPOINTS
  6
ByBlock
 62
     0
 48
50.0
100
AcDbPoint
 10
12807.82958141817
 20
11803.73679736197
 30
0.0
  0
POINT
  5
1A857
330
1A7DA
100
AcDbEntity
  8
DEFPOINTS
  6
ByBlock
 62
     0
 48
50.0
100
AcDbPoint
 10
16077.82958141817
 20
11743.73679736197
 30
0.0
  0
POINT
  5
1A858
330
1A7DA
100
AcDbEntity
  8
DEFPOINTS
  6
ByBlock
 62
     0
 48
50.0
100
AcDbPoint
 10
16077.82958141817
 20
12813.17369887015
 30
0.0
  0
ENDBLK
  5
1A859
330
1A7DA
100
AcDbEntity
  8
0
 48
50.0
100
AcDbBlockEnd
  0
BLOCK
  5
1A85A
330
1A7E6
100
AcDbEntity
  8
0
 48
50.0
100
AcDbBlockBegin
  2
*D42
 70
     1
 10
0.0
 20
0.0
 30
0.0
  3
*D42
  1

  0
LINE
  5
1A85B
330
1A7E6
100
AcDbEntity
  8
0
  6
ByBlock
 62
     0
 48
50.0
100
AcDbLine
 10
15982.82958141817
 20
11771.3631811976
 30
0.0
 11
15982.82958141817
 21
12572.01792807849
 31
0.0
  0
LINE
  5
1A85C
330
1A7E6
100
AcDbEntity
  8
0
  6
ByBlock
 62
     0
 48
50.0
100
AcDbLine
 10
16077.82958141817
 20
11768.73679736197
 30
0.0
 11
16077.82958141817
 21
12572.01792807849
 31
0.0
  0
LINE
  5
1A85D
330
1A7E6
100
AcDbEntity
  8
0
  6
ByBlock
 62
     0
 48
50.0
100
AcDbLine
 10
15982.82958141817
 20
12497.01792807849
 30
0.0
 11
16077.82958141817
 21
12497.01792807849
 31
0.0
  0
LINE
  5
1A85E
330
1A7E6
100
AcDbEntity
  8
0
  6
ByBlock
 62
     0
 48
50.0
100
AcDbLine
 10
16077.82958141817
 20
12497.01792807849
 30
0.0
 11
16524.10183997188
 21
12497.01792807849
 31
0.0
  0
INSERT
  5
1A85F
330
1A7E6
100
AcDbEntity
  8
0
  6
ByBlock
 62
     0
 48
50.0
100
AcDbBlockReference
  2
_DOTSMALL
 10
15982.82958141817
 20
12497.01792807849
 30
0.0
 41
125.0
 42
125.0
 43
125.0
 50
180.0
  0
INSERT
  5
1A860
330
1A7E6
100
AcDbEntity
  8
0
  6
ByBlock
 62
     0
 48
50.0
100
AcDbBlockReference
  2
_DOTSMALL
 10
16077.82958141817
 20
12497.01792807849
 30
0.0
 41
125.0
 42
125.0
 43
125.0
  0
MTEXT
  5
1A861
330
1A7E6
100
AcDbEntity
  8
0
  6
ByBlock
 62
     7
 48
50.0
100
AcDbMText
 10
16410.38863653628
 20
12597.01792807849
 30
0.0
 40
150.0
 41
0.0
 71
     5
 72
     1
  1
\A1;95
  7
STYLE1
 73
     1
 44
1.0
1001
ACAD
1000
MTEXTBEGIN
1070
    73
1070
     1
1070
    44
1040
1.0
1070
    74
1070
     0
1000
MTEXTEND
  0
POINT
  5
1A862
330
1A7E6
100
AcDbEntity
  8
DEFPOINTS
  6
ByBlock
 62
     0
 48
50.0
100
AcDbPoint
 10
15982.82958141817
 20
11746.3631811976
 30
0.0
  0
POINT
  5
1A863
330
1A7E6
100
AcDbEntity
  8
DEFPOINTS
  6
ByBlock
 62
     0
 48
50.0
100
AcDbPoint
 10
16077.82958141817
 20
11743.73679736197
 30
0.0
  0
POINT
  5
1A864
330
1A7E6
100
AcDbEntity
  8
DEFPOINTS
  6
ByBlock
 62
     0
 48
50.0
100
AcDbPoint
 10
16077.82958141817
 20
12497.01792807849
 30
0.0
  0
ENDBLK
  5
1A865
330
1A7E6
100
AcDbEntity
  8
0
 48
50.0
100
AcDbBlockEnd
  0
BLOCK
  5
1A866
330
1A7F3
100
AcDbEntity
  8
0
 48
50.0
100
AcDbBlockBegin
  2
*D43
 70
     1
 10
0.0
 20
0.0
 30
0.0
  3
*D43
  1

  0
LINE
  5
1A867
330
1A7F3
100
AcDbEntity
  8
0
  6
ByBlock
 62
     0
 48
50.0
100
AcDbLine
 10
12807.82958141817
 20
11828.73679736197
 30
0.0
 11
12807.82958141817
 21
12572.01792807849
 31
0.0
  0
LINE
  5
1A868
330
1A7F3
100
AcDbEntity
  8
0
  6
ByBlock
 62
     0
 48
50.0
100
AcDbLine
 10
12942.82958141817
 20
11826.29728927309
 30
0.0
 11
12942.82958141817
 21
12572.01792807849
 31
0.0
  0
LINE
  5
1A869
330
1A7F3
100
AcDbEntity
  8
0
  6
ByBlock
 62
     0
 48
50.0
100
AcDbLine
 10
12942.82958141817
 20
12497.01792807849
 30
0.0
 11
12807.82958141817
 21
12497.01792807849
 31
0.0
  0
LINE
  5
1A86A
330
1A7F3
100
AcDbEntity
  8
0
  6
ByBlock
 62
     0
 48
50.0
100
AcDbLine
 10
12807.82958141817
 20
12497.01792807849
 30
0.0
 11
12377.16392458226
 21
12497.01792807849
 31
0.0
  0
INSERT
  5
1A86B
330
1A7F3
100
AcDbEntity
  8
0
  6
ByBlock
 62
     0
 48
50.0
100
AcDbBlockReference
  2
_DOTSMALL
 10
12942.82958141817
 20
12497.01792807849
 30
0.0
 41
125.0
 42
125.0
 43
125.0
  0
INSERT
  5
1A86C
330
1A7F3
100
AcDbEntity
  8
0
  6
ByBlock
 62
     0
 48
50.0
100
AcDbBlockReference
  2
_DOTSMALL
 10
12807.82958141817
 20
12497.01792807849
 30
0.0
 41
125.0
 42
125.0
 43
125.0
 50
180.0
  0
MTEXT
  5
1A86D
330
1A7F3
100
AcDbEntity
  8
0
  6
ByBlock
 62
     7
 48
50.0
100
AcDbMText
 10
12525.27052630006
 20
12597.01792807849
 30
0.0
 40
150.0
 41
0.0
 71
     5
 72
     1
  1
\A1;135
  7
STYLE1
 73
     1
 44
1.0
1001
ACAD
1000
MTEXTBEGIN
1070
    73
1070
     1
1070
    44
1040
1.0
1070
    74
1070
     0
1000
MTEXTEND
  0
POINT
  5
1A86E
330
1A7F3
100
AcDbEntity
  8
DEFPOINTS
  6
ByBlock
 62
     0
 48
50.0
100
AcDbPoint
 10
12807.82958141817
 20
11803.73679736197
 30
0.0
  0
POINT
  5
1A86F
330
1A7F3
100
AcDbEntity
  8
DEFPOINTS
  6
ByBlock
 62
     0
 48
50.0
100
AcDbPoint
 10
12942.82958141817
 20
11801.29728927309
 30
0.0
  0
POINT
  5
1A870
330
1A7F3
100
AcDbEntity
  8
DEFPOINTS
  6
ByBlock
 62
     0
 48
50.0
100
AcDbPoint
 10
12942.82958141817
 20
12497.01792807849
 30
0.0
  0
ENDBLK
  5
1A871
330
1A7F3
100
AcDbEntity
  8
0
 48
50.0
100
AcDbBlockEnd
  0
BLOCK
  5
1A872
330
1A800
100
AcDbEntity
  8
0
 48
50.0
100
AcDbBlockBegin
  2
*D44
 70
     1
 10
0.0
 20
0.0
 30
0.0
  3
*D44
  1

  0
LINE
  5
1A873
330
1A800
100
AcDbEntity
  8
0
  6
ByBlock
 62
     0
 48
50.0
100
AcDbLine
 10
15982.82958141817
 20
11771.3631811976
 30
0.0
 11
15982.82958141817
 21
12572.01792807849
 31
0.0
  0
LINE
  5
1A874
330
1A800
100
AcDbEntity
  8
0
  6
ByBlock
 62
     0
 48
50.0
100
AcDbLine
 10
12942.82958141817
 20
12497.01792807849
 30
0.0
 11
15982.82958141817
 21
12497.01792807849
 31
0.0
  0
INSERT
  5
1A875
330
1A800
100
AcDbEntity
  8
0
  6
ByBlock
 62
     0
 48
50.0
100
AcDbBlockReference
  2
_DOTSMALL
 10
12942.82958141817
 20
12497.01792807849
 30
0.0
 41
125.0
 42
125.0
 43
125.0
 50
180.0
  0
INSERT
  5
1A876
330
1A800
100
AcDbEntity
  8
0
  6
ByBlock
 62
     0
 48
50.0
100
AcDbBlockReference
  2
_DOTSMALL
 10
15982.82958141817
 20
12497.01792807849
 30
0.0
 41
125.0
 42
125.0
 43
125.0
  0
MTEXT
  5
1A877
330
1A800
100
AcDbEntity
  8
0
  6
ByBlock
 62
     7
 48
50.0
100
AcDbMText
 10
14462.82958141817
 20
12597.01792807849
 30
0.0
 40
150.0
 41
0.0
 71
     5
 72
     1
  1
\A1;柱外寸法 3040
  7
STYLE1
 73
     1
 44
1.0
1001
ACAD
1000
MTEXTBEGIN
1070
    73
1070
     1
1070
    44
1040
1.0
1070
    74
1070
     0
1000
MTEXTEND
  0
POINT
  5
1A878
330
1A800
100
AcDbEntity
  8
DEFPOINTS
  6
ByBlock
 62
     0
 48
50.0
100
AcDbPoint
 10
12942.82958141817
 20
11758.73679736197
 30
0.0
  0
POINT
  5
1A879
330
1A800
100
AcDbEntity
  8
DEFPOINTS
  6
ByBlock
 62
     0
 48
50.0
100
AcDbPoint
 10
15982.82958141817
 20
11746.3631811976
 30
0.0
  0
POINT
  5
1A87A
330
1A800
100
AcDbEntity
  8
DEFPOINTS
  6
ByBlock
 62
     0
 48
50.0
100
AcDbPoint
 10
15982.82958141817
 20
12497.01792807849
 30
0.0
  0
ENDBLK
  5
1A87B
330
1A800
100
AcDbEntity
  8
0
 48
50.0
100
AcDbBlockEnd
  0
ENDSEC
  0
SECTION
  2
ENTITIES
  0
LINE
  5
10B56
330
747D
100
AcDbEntity
  8
補助
  6
PHANTOM
 62
   230
 48
50.0
100
AcDbLine
 10
175.0
 20
0.0
 30
0.0
 11
174.9999999999993
 21
14262.0
 31
0.0
  0
LINE
  5
10B57
330
747D
100
AcDbEntity
  8
補助
  6
PHANTOM
 62
   230
 48
50.0
100
AcDbLine
 10
174.9999999999993
 20
14262.0
 30
0.0
 11
20384.0
 21
14262.0
 31
0.0
  0
LINE
  5
10B59
330
747D
100
AcDbEntity
  8
仕様書枠
  6
Continuous
 48
50.0
100
AcDbLine
 10
16384.0
 20
1500.0
 30
0.0
 11
16384.0
 21
0.0
 31
0.0
  0
LINE
  5
10B5C
330
747D
100
AcDbEntity
  8
仕様書枠
 48
50.0
100
AcDbLine
 10
20384.0
 20
1500.0
 30
0.0
 11
20384.0
 21
0.0
 31
0.0
  0
LINE
  5
10B5D
330
747D
100
AcDbEntity
  8
仕様書枠
 48
50.0
100
AcDbLine
 10
175.0
 20
0.0
 30
0.0
 11
20384.0
 21
-0.0000000000001137
 31
0.0
  0
LINE
  5
10B5E
330
747D
100
AcDbEntity
  8
補助
  6
PHANTOM
 62
   230
 48
50.0
100
AcDbLine
 10
20384.0
 20
14262.0
 30
0.0
 11
20384.0
 21
1500.0
 31
0.0
  0
LINE
  5
10B6C
330
747D
100
AcDbEntity
  8
仕様書枠
 48
50.0
100
AcDbLine
 10
16384.0
 20
1500.0
 30
0.0
 11
20384.0
 21
1500.0
 31
0.0
  0
LINE
  5
10B6D
330
747D
100
AcDbEntity
  8
補助
  6
PHANTOM
 62
   230
 48
50.0
100
AcDbLine
 10
16384.0
 20
14262.0
 30
0.0
 11
16384.0
 21
6000.0
 31
0.0
  0
LINE
  5
10B6F
330
747D
100
AcDbEntity
  8
補助
  6
PHANTOM
 62
   230
 48
50.0
100
AcDbLine
 10
16384.0
 20
6000.0
 30
0.0
 11
20384.0
 21
6000.0
 31
0.0
  0
LINE
  5
10B72
330
747D
100
AcDbEntity
  8
文字
 62
     7
 48
50.0
100
AcDbLine
 10
16484.0
 20
500.0
 30
0.0
 11
20284.0
 21
500.0
 31
0.0
  0
TEXT
  5
10B73
330
747D
100
AcDbEntity
  8
文字
 62
     7
 48
50.0
100
AcDbText
 10
16453.72382072112
 20
1118.863259287425
 30
0.0
 40
250.0
  1
外 形 図
  7
STYLE2
100
AcDbText
  0
TEXT
  5
10B74
330
747D
100
AcDbEntity
  8
文字
 62
     7
 48
50.0
100
AcDbText
 10
16501.79587498052
 20
596.5925826289068
 30
0.0
 40
200.0
  1
機種名
  7
STYLE2
100
AcDbText
  0
TEXT
  5
10B79
330
747D
100
AcDbEntity
  8
文字
 62
     7
 48
50.0
100
AcDbText
 10
18155.1647965275
 20
1289.447132864036
 30
0.0
 40
125.0
  1
NO.16     <縮尺> S=1/50
  7
STYLE2
100
AcDbText
  0
LINE
  5
10B7B
330
747D
100
AcDbEntity
  8
仕様書枠
 48
50.0
100
AcDbLine
 10
16384.0
 20
1000.0
 30
0.0
 11
17814.0
 21
1000.0
 31
0.0
  0
LINE
  5
10B88
330
747D
100
AcDbEntity
  8
仕様書枠
  6
Continuous
 48
50.0
100
AcDbLine
 10
17814.0
 20
1500.0
 30
0.0
 11
17814.0
 21
1000.0
 31
0.0
  0
TEXT
  5
10BB0
330
747D
100
AcDbEntity
  8
文字
 62
     7
 48
50.0
100
AcDbText
 10
17902.30092041603
 20
604.8708912389265
 30
0.0
 40
200.0
  1
ＳＭＫ－１５０Ｈ
  7
STYLE2
100
AcDbText
  0
TEXT
  5
10EA8
330
747D
100
AcDbEntity
  8
文字
 62
     7
 48
50.0
100
AcDbText
 10
18698.500371689
 20
1047.815908841148
 30
0.0
 40
125.0
  1
～一般型～
  7
STYLE2
100
AcDbText
  0
TEXT
  5
11E23
330
747D
100
AcDbEntity
  8
文字
 62
     7
 48
50.0
100
AcDbText
 10
16511.7566802715
 20
99.75789836616957
 30
0.0
 40
100.0
  1
○床面積：14.96㎡(4.53坪)
  7
STYLE2
100
AcDbText
  0
TEXT
  5
11E24
330
747D
100
AcDbEntity
  8
文字
 62
     7
 48
50.0
100
AcDbText
 10
16511.7566802715
 20
270.5931259273528
 30
0.0
 40
100.0
  1
○扉部有効開口寸法：1090×1798 (mm)
  7
STYLE2
100
AcDbText
  0
LINE
  5
15D7D
330
747D
100
AcDbEntity
  8
Ｇ．Ｌ
 48
50.0
100
AcDbLine
 10
3004.693732604355
 20
3175.0
 30
0.0
 11
17264.30626739564
 21
3175.0
 31
0.0
  0
LINE
  5
15D7E
330
747D
100
AcDbEntity
  8
部品1
 48
50.0
100
AcDbLine
 10
4192.829581418172
 20
5580.000001569568
 30
0.0
 11
4192.829581418172
 21
3175.000000000001
 31
0.0
  0
LINE
  5
15D7F
330
747D
100
AcDbEntity
  8
部品1
 48
50.0
100
AcDbLine
 10
4192.829581418172
 20
3275.0
 30
0.0
 11
9112.829581418175
 21
3275.000000000001
 31
0.0
  0
LINE
  5
15D80
330
747D
100
AcDbEntity
  8
部品1
 48
50.0
100
AcDbLine
 10
6008.829581418172
 20
3330.0
 30
0.0
 11
6582.829581418171
 21
3330.0
 31
0.0
  0
LINE
  5
15D81
330
747D
100
AcDbEntity
  8
部品1
 48
50.0
100
AcDbLine
 10
4262.829581418173
 20
5445.0
 30
0.0
 11
4262.829581418173
 21
5187.0
 31
0.0
  0
LINE
  5
15D85
330
747D
100
AcDbEntity
  8
部品1
 48
50.0
100
AcDbLine
 10
6582.829581418173
 20
5445.0
 30
0.0
 11
6582.829581418173
 21
3275.0
 31
0.0
  0
LINE
  5
15D90
330
747D
100
AcDbEntity
  8
部品1
 48
50.0
100
AcDbLine
 10
9042.829581418173
 20
5445.0
 30
0.0
 11
9042.829581418173
 21
3275.0
 31
0.0
  0
LINE
  5
15D91
330
747D
100
AcDbEntity
  8
部品1
 48
50.0
100
AcDbLine
 10
9112.829581418171
 20
5580.000001569558
 30
0.0
 11
9112.829581418175
 21
3175.0
 31
0.0
  0
LINE
  5
15D93
330
747D
100
AcDbEntity
  8
部品1
 48
50.0
100
AcDbLine
 10
6722.829581418169
 20
5445.0
 30
0.0
 11
6722.829581418173
 21
3275.0
 31
0.0
  0
LINE
  5
15D94
330
747D
100
AcDbEntity
  8
部品1
 48
50.0
100
AcDbLine
 10
7302.829581418173
 20
5445.0
 30
0.0
 11
7302.829581418173
 21
3330.0
 31
0.0
  0
LINE
  5
15D95
330
747D
100
AcDbEntity
  8
部品1
 48
50.0
100
AcDbLine
 10
7882.829581418173
 20
5445.0
 30
0.0
 11
7882.829581418173
 21
3330.0
 31
0.0
  0
LINE
  5
15D96
330
747D
100
AcDbEntity
  8
部品1
 48
50.0
100
AcDbLine
 10
8462.829581418173
 20
5445.0
 30
0.0
 11
8462.829581418173
 21
3330.0
 31
0.0
  0
LINE
  5
15D97
330
747D
100
AcDbEntity
  8
部品1
 48
50.0
100
AcDbLine
 10
9042.829581418173
 20
3330.0
 30
0.0
 11
6722.829581418173
 21
3330.0
 31
0.0
  0
LINE
  5
15D98
330
747D
100
AcDbEntity
  8
部品1
 48
50.0
100
AcDbLine
 10
9112.829581418173
 20
5445.0
 30
0.0
 11
4192.829581418172
 21
5445.0
 31
0.0
  0
LINE
  5
16200
330
747D
100
AcDbEntity
  8
部品1
 48
50.0
100
AcDbLine
 10
13012.82958141817
 20
5445.0
 30
0.0
 11
13012.82958141817
 21
3275.0
 31
0.0
  0
LINE
  5
16201
330
747D
100
AcDbEntity
  8
部品1
 48
50.0
100
AcDbLine
 10
13592.82958141817
 20
5445.0
 30
0.0
 11
13592.82958141817
 21
3330.0
 31
0.0
  0
LINE
  5
16202
330
747D
100
AcDbEntity
  8
部品1
 48
50.0
100
AcDbLine
 10
14172.82958141817
 20
5445.0
 30
0.0
 11
14172.82958141817
 21
3330.0
 31
0.0
  0
LINE
  5
16204
330
747D
100
AcDbEntity
  8
部品1
 48
50.0
100
AcDbLine
 10
13012.82958141817
 20
3330.0
 30
0.0
 11
15912.82958141817
 21
3330.0
 31
0.0
  0
LINE
  5
16205
330
747D
100
AcDbEntity
  8
部品1
 48
50.0
100
AcDbLine
 10
12942.82958141817
 20
5445.0
 30
0.0
 11
15982.82958141817
 21
5445.0
 31
0.0
  0
LINE
  5
16210
330
747D
100
AcDbEntity
  8
部品1
 48
50.0
100
AcDbLine
 10
15332.82958141817
 20
5445.0
 30
0.0
 11
15332.82958141817
 21
3330.0
 31
0.0
  0
LINE
  5
16211
330
747D
100
AcDbEntity
  8
部品1
 48
50.0
100
AcDbLine
 10
14752.82958141817
 20
5445.0
 30
0.0
 11
14752.82958141817
 21
3330.0
 31
0.0
  0
LINE
  5
16212
330
747D
100
AcDbEntity
  8
部品1
 48
50.0
100
AcDbLine
 10
15912.82958141817
 20
5445.000000000001
 30
0.0
 11
15912.82958141817
 21
3275.0
 31
0.0
  0
LINE
  5
163F2
330
747D
100
AcDbEntity
  8
部品1
100
AcDbLine
 10
15982.82958141817
 20
5485.0
 30
0.0
 11
15982.82958141817
 21
5445.0
 31
0.0
  0
LINE
  5
16919
330
747D
100
AcDbEntity
  8
細線
 48
50.0
100
AcDbLine
 10
4963.829581418173
 20
5489.5
 30
0.0
 11
4721.829581418172
 21
5489.5
 31
0.0
  0
LINE
  5
1692C
330
747D
100
AcDbEntity
  8
細線
 48
50.0
100
AcDbLine
 10
4696.829581418173
 20
5565.500036981838
 30
0.0
 11
4696.829581418173
 21
5488.5
 31
0.0
  0
LINE
  5
1692D
330
747D
100
AcDbEntity
  8
細線
 48
50.0
100
AcDbLine
 10
4721.829581418172
 20
5575.500036981837
 30
0.0
 11
4721.829581418172
 21
5478.5
 31
0.0
  0
ARC
  5
16933
330
747D
100
AcDbEntity
  8
細線
 48
50.0
100
AcDbCircle
 10
4706.829581418173
 20
5565.500036981838
 30
0.0
 40
10.0
100
AcDbArc
 50
90.0
 51
180.0
  0
LINE
  5
1694C
330
747D
100
AcDbEntity
  8
細線
 48
50.0
100
AcDbLine
 10
4721.829581418172
 20
5478.5
 30
0.0
 11
4721.829581418172
 21
5479.0
 31
0.0
  0
ARC
  5
1694D
330
747D
100
AcDbEntity
  8
細線
 48
50.0
100
AcDbCircle
 10
4706.829581418173
 20
5488.5
 30
0.0
 40
10.0
100
AcDbArc
 50
180.0
 51
270.0
  0
LINE
  5
16968
330
747D
100
AcDbEntity
  8
細線
 48
50.0
100
AcDbLine
 10
4978.829581418173
 20
5478.5
 30
0.0
 11
4706.829581418173
 21
5478.5
 31
0.0
  0
LINE
  5
1699A
330
747D
100
AcDbEntity
  8
細線
 48
50.0
100
AcDbLine
 10
4988.829581418173
 20
5565.500036981838
 30
0.0
 11
4988.829581418173
 21
5488.5
 31
0.0
  0
LINE
  5
1699B
330
747D
100
AcDbEntity
  8
細線
 48
50.0
100
AcDbLine
 10
4963.829581418173
 20
5575.500036981837
 30
0.0
 11
4963.829581418173
 21
5478.5
 31
0.0
  0
ARC
  5
169B1
330
747D
100
AcDbEntity
  8
細線
 48
50.0
100
AcDbCircle
 10
4978.829581418173
 20
5565.500036981838
 30
0.0
 40
10.0
100
AcDbArc
 50
359.9999999999999
 51
90.0
  0
LINE
  5
169BB
330
747D
100
AcDbEntity
  8
細線
 48
50.0
100
AcDbLine
 10
4721.829581418172
 20
5545.5
 30
0.0
 11
4963.829581418173
 21
5545.5
 31
0.0
  0
LINE
  5
169C0
330
747D
100
AcDbEntity
  8
細線
 48
50.0
100
AcDbLine
 10
4721.829581418172
 20
5560.500000000001
 30
0.0
 11
4963.829581418173
 21
5560.499999999998
 31
0.0
  0
LINE
  5
169C9
330
747D
100
AcDbEntity
  8
細線
 48
50.0
100
AcDbLine
 10
4721.829581418172
 20
5530.500036981838
 30
0.0
 11
4963.829581418173
 21
5530.500036981838
 31
0.0
  0
LINE
  5
169CA
330
747D
100
AcDbEntity
  8
細線
 48
50.0
100
AcDbLine
 10
4721.829581418172
 20
5515.5
 30
0.0
 11
4963.829581418173
 21
5515.5
 31
0.0
  0
LINE
  5
169CB
330
747D
100
AcDbEntity
  8
細線
 48
50.0
100
AcDbLine
 10
4721.829581418172
 20
5500.500036981837
 30
0.0
 11
4963.829581418173
 21
5500.500036981837
 31
0.0
  0
LINE
  5
16A07
330
747D
100
AcDbEntity
  8
細線
 48
50.0
100
AcDbLine
 10
4963.829581418173
 20
5478.5
 30
0.0
 11
4963.829581418173
 21
5479.0
 31
0.0
  0
ARC
  5
16A08
330
747D
100
AcDbEntity
  8
細線
 48
50.0
100
AcDbCircle
 10
4978.829581418173
 20
5488.5
 30
0.0
 40
10.0
100
AcDbArc
 50
270.0
 51
359.9999999999999
  0
LINE
  5
16BAA
330
747D
100
AcDbEntity
  8
細線
 48
50.0
100
AcDbLine
 10
4882.829581418173
 20
5489.5
 30
0.0
 11
4882.829581418173
 21
5560.500000000001
 31
0.0
  0
LINE
  5
16BAB
330
747D
100
AcDbEntity
  8
細線
 48
50.0
100
AcDbLine
 10
4802.829581418173
 20
5489.5
 30
0.0
 11
4802.829581418173
 21
5560.500000000001
 31
0.0
  0
LINE
  5
16BAC
330
747D
100
AcDbEntity
  8
細線
 48
50.0
100
AcDbLine
 10
5881.829581418173
 20
5500.500036981837
 30
0.0
 11
6123.829581418173
 21
5500.500036981837
 31
0.0
  0
LINE
  5
16BAD
330
747D
100
AcDbEntity
  8
細線
 48
50.0
100
AcDbLine
 10
5881.829581418173
 20
5515.5
 30
0.0
 11
6123.829581418173
 21
5515.5
 31
0.0
  0
LINE
  5
16BAE
330
747D
100
AcDbEntity
  8
細線
 48
50.0
100
AcDbLine
 10
5881.829581418173
 20
5530.500036981838
 30
0.0
 11
6123.829581418173
 21
5530.500036981838
 31
0.0
  0
LINE
  5
16BAF
330
747D
100
AcDbEntity
  8
細線
 48
50.0
100
AcDbLine
 10
5881.829581418173
 20
5560.500000000001
 30
0.0
 11
6123.829581418173
 21
5560.499999999998
 31
0.0
  0
LINE
  5
16BB0
330
747D
100
AcDbEntity
  8
細線
 48
50.0
100
AcDbLine
 10
5881.829581418173
 20
5545.5
 30
0.0
 11
6123.829581418173
 21
5545.5
 31
0.0
  0
LINE
  5
16BB1
330
747D
100
AcDbEntity
  8
細線
 48
50.0
100
AcDbLine
 10
6138.829581418173
 20
5478.5
 30
0.0
 11
5866.829581418173
 21
5478.5
 31
0.0
  0
LINE
  5
16BB2
330
747D
100
AcDbEntity
  8
細線
 48
50.0
100
AcDbLine
 10
6123.829581418173
 20
5489.5
 30
0.0
 11
5881.829581418173
 21
5489.5
 31
0.0
  0
ARC
  5
16BB3
330
747D
100
AcDbEntity
  8
細線
 48
50.0
100
AcDbCircle
 10
5866.829581418173
 20
5488.5
 30
0.0
 40
10.0
100
AcDbArc
 50
180.0
 51
270.0
  0
LINE
  5
16BB4
330
747D
100
AcDbEntity
  8
細線
 48
50.0
100
AcDbLine
 10
5881.829581418173
 20
5575.500036981837
 30
0.0
 11
5881.829581418173
 21
5478.5
 31
0.0
  0
LINE
  5
16BB5
330
747D
100
AcDbEntity
  8
細線
 48
50.0
100
AcDbLine
 10
5881.829581418173
 20
5478.5
 30
0.0
 11
5881.829581418173
 21
5479.0
 31
0.0
  0
ARC
  5
16BB6
330
747D
100
AcDbEntity
  8
細線
 48
50.0
100
AcDbCircle
 10
5866.829581418173
 20
5565.500036981838
 30
0.0
 40
10.0
100
AcDbArc
 50
90.0
 51
180.0
  0
LINE
  5
16BB7
330
747D
100
AcDbEntity
  8
細線
 48
50.0
100
AcDbLine
 10
5856.829581418173
 20
5565.500036981838
 30
0.0
 11
5856.829581418173
 21
5488.5
 31
0.0
  0
ARC
  5
16BB8
330
747D
100
AcDbEntity
  8
細線
 48
50.0
100
AcDbCircle
 10
6138.829581418173
 20
5488.5
 30
0.0
 40
10.0
100
AcDbArc
 50
270.0
 51
359.9999999999999
  0
LINE
  5
16BB9
330
747D
100
AcDbEntity
  8
細線
 48
50.0
100
AcDbLine
 10
6123.829581418173
 20
5575.500036981837
 30
0.0
 11
6123.829581418173
 21
5478.5
 31
0.0
  0
LINE
  5
16BBA
330
747D
100
AcDbEntity
  8
細線
 48
50.0
100
AcDbLine
 10
6123.829581418173
 20
5478.5
 30
0.0
 11
6123.829581418173
 21
5479.0
 31
0.0
  0
LINE
  5
16BBB
330
747D
100
AcDbEntity
  8
細線
 48
50.0
100
AcDbLine
 10
5962.829581418173
 20
5489.5
 30
0.0
 11
5962.829581418173
 21
5560.500000000001
 31
0.0
  0
LINE
  5
16BBC
330
747D
100
AcDbEntity
  8
細線
 48
50.0
100
AcDbLine
 10
6042.829581418173
 20
5489.5
 30
0.0
 11
6042.829581418173
 21
5560.500000000001
 31
0.0
  0
ARC
  5
16BBD
330
747D
100
AcDbEntity
  8
細線
 48
50.0
100
AcDbCircle
 10
6138.829581418173
 20
5565.500036981838
 30
0.0
 40
10.0
100
AcDbArc
 50
359.9999999999999
 51
90.0
  0
LINE
  5
16BBE
330
747D
100
AcDbEntity
  8
細線
 48
50.0
100
AcDbLine
 10
6148.829581418173
 20
5565.500036981838
 30
0.0
 11
6148.829581418173
 21
5488.5
 31
0.0
  0
LINE
  5
16BE8
330
747D
100
AcDbEntity
  8
細線
 48
50.0
100
AcDbLine
 10
8583.829581418173
 20
5500.500036981837
 30
0.0
 11
8341.829581418172
 21
5500.500036981837
 31
0.0
  0
LINE
  5
16BE9
330
747D
100
AcDbEntity
  8
細線
 48
50.0
100
AcDbLine
 10
8583.829581418173
 20
5515.5
 30
0.0
 11
8341.829581418172
 21
5515.5
 31
0.0
  0
LINE
  5
16BEA
330
747D
100
AcDbEntity
  8
細線
 48
50.0
100
AcDbLine
 10
8583.829581418173
 20
5530.500036981838
 30
0.0
 11
8341.829581418172
 21
5530.500036981838
 31
0.0
  0
LINE
  5
16BEB
330
747D
100
AcDbEntity
  8
細線
 48
50.0
100
AcDbLine
 10
8583.829581418173
 20
5560.500000000001
 30
0.0
 11
8341.829581418172
 21
5560.499999999998
 31
0.0
  0
LINE
  5
16BEC
330
747D
100
AcDbEntity
  8
細線
 48
50.0
100
AcDbLine
 10
8583.829581418173
 20
5545.5
 30
0.0
 11
8341.829581418172
 21
5545.5
 31
0.0
  0
LINE
  5
16BED
330
747D
100
AcDbEntity
  8
細線
 48
50.0
100
AcDbLine
 10
8326.829581418172
 20
5478.5
 30
0.0
 11
8598.829581418172
 21
5478.5
 31
0.0
  0
LINE
  5
16BEE
330
747D
100
AcDbEntity
  8
細線
 48
50.0
100
AcDbLine
 10
8341.829581418172
 20
5489.5
 30
0.0
 11
8583.829581418173
 21
5489.5
 31
0.0
  0
ARC
  5
16BEF
330
747D
100
AcDbEntity
  8
細線
 48
50.0
100
AcDbCircle
 10
8598.829581418172
 20
5488.5
 30
0.0
 40
10.0
100
AcDbArc
 50
270.0
 51
0.000000000000007
  0
LINE
  5
16BF0
330
747D
100
AcDbEntity
  8
細線
 48
50.0
100
AcDbLine
 10
8583.829581418173
 20
5575.500036981837
 30
0.0
 11
8583.829581418173
 21
5478.5
 31
0.0
  0
LINE
  5
16BF1
330
747D
100
AcDbEntity
  8
細線
 48
50.0
100
AcDbLine
 10
8583.829581418173
 20
5478.5
 30
0.0
 11
8583.829581418173
 21
5479.0
 31
0.0
  0
ARC
  5
16BF2
330
747D
100
AcDbEntity
  8
細線
 48
50.0
100
AcDbCircle
 10
8598.829581418172
 20
5565.500036981838
 30
0.0
 40
10.0
100
AcDbArc
 50
0.000000000000007
 51
90.0
  0
LINE
  5
16BF3
330
747D
100
AcDbEntity
  8
細線
 48
50.0
100
AcDbLine
 10
8608.829581418174
 20
5565.500036981838
 30
0.0
 11
8608.829581418174
 21
5488.5
 31
0.0
  0
ARC
  5
16BF4
330
747D
100
AcDbEntity
  8
細線
 48
50.0
100
AcDbCircle
 10
8326.829581418172
 20
5488.5
 30
0.0
 40
10.0
100
AcDbArc
 50
180.0000000000001
 51
270.0
  0
LINE
  5
16BF5
330
747D
100
AcDbEntity
  8
細線
 48
50.0
100
AcDbLine
 10
8341.829581418172
 20
5575.500036981837
 30
0.0
 11
8341.829581418172
 21
5478.5
 31
0.0
  0
LINE
  5
16BF6
330
747D
100
AcDbEntity
  8
細線
 48
50.0
100
AcDbLine
 10
8341.829581418172
 20
5478.5
 30
0.0
 11
8341.829581418172
 21
5479.0
 31
0.0
  0
LINE
  5
16BF7
330
747D
100
AcDbEntity
  8
細線
 48
50.0
100
AcDbLine
 10
8502.829581418174
 20
5489.5
 30
0.0
 11
8502.829581418174
 21
5560.500000000001
 31
0.0
  0
LINE
  5
16BF8
330
747D
100
AcDbEntity
  8
細線
 48
50.0
100
AcDbLine
 10
8422.829581418174
 20
5489.5
 30
0.0
 11
8422.829581418174
 21
5560.500000000001
 31
0.0
  0
ARC
  5
16BF9
330
747D
100
AcDbEntity
  8
細線
 48
50.0
100
AcDbCircle
 10
8326.829581418172
 20
5565.500036981838
 30
0.0
 40
10.0
100
AcDbArc
 50
90.0
 51
180.0000000000001
  0
LINE
  5
16BFA
330
747D
100
AcDbEntity
  8
細線
 48
50.0
100
AcDbLine
 10
8316.829581418174
 20
5565.500036981838
 30
0.0
 11
8316.829581418174
 21
5488.5
 31
0.0
  0
LINE
  5
16BFB
330
747D
100
AcDbEntity
  8
細線
 48
50.0
100
AcDbLine
 10
7181.829581418172
 20
5489.5
 30
0.0
 11
7423.829581418172
 21
5489.5
 31
0.0
  0
LINE
  5
16BFC
330
747D
100
AcDbEntity
  8
細線
 48
50.0
100
AcDbLine
 10
7166.829581418173
 20
5478.5
 30
0.0
 11
7438.829581418173
 21
5478.5
 31
0.0
  0
LINE
  5
16BFD
330
747D
100
AcDbEntity
  8
細線
 48
50.0
100
AcDbLine
 10
7423.829581418172
 20
5545.5
 30
0.0
 11
7181.829581418172
 21
5545.5
 31
0.0
  0
LINE
  5
16BFE
330
747D
100
AcDbEntity
  8
細線
 48
50.0
100
AcDbLine
 10
7423.829581418172
 20
5560.500000000001
 30
0.0
 11
7181.829581418172
 21
5560.499999999998
 31
0.0
  0
LINE
  5
16BFF
330
747D
100
AcDbEntity
  8
細線
 48
50.0
100
AcDbLine
 10
7423.829581418172
 20
5530.500036981838
 30
0.0
 11
7181.829581418172
 21
5530.500036981838
 31
0.0
  0
LINE
  5
16C00
330
747D
100
AcDbEntity
  8
細線
 48
50.0
100
AcDbLine
 10
7423.829581418172
 20
5515.5
 30
0.0
 11
7181.829581418172
 21
5515.5
 31
0.0
  0
LINE
  5
16C01
330
747D
100
AcDbEntity
  8
細線
 48
50.0
100
AcDbLine
 10
7423.829581418172
 20
5500.500036981837
 30
0.0
 11
7181.829581418172
 21
5500.500036981837
 31
0.0
  0
LINE
  5
16C02
330
747D
100
AcDbEntity
  8
細線
 48
50.0
100
AcDbLine
 10
7423.829581418172
 20
5575.500036981837
 30
0.0
 11
7423.829581418172
 21
5478.5
 31
0.0
  0
ARC
  5
16C03
330
747D
100
AcDbEntity
  8
細線
 48
50.0
100
AcDbCircle
 10
7438.829581418173
 20
5488.5
 30
0.0
 40
10.0
100
AcDbArc
 50
270.0
 51
0.000000000000007
  0
LINE
  5
16C04
330
747D
100
AcDbEntity
  8
細線
 48
50.0
100
AcDbLine
 10
7423.829581418172
 20
5478.5
 30
0.0
 11
7423.829581418172
 21
5479.0
 31
0.0
  0
LINE
  5
16C05
330
747D
100
AcDbEntity
  8
細線
 48
50.0
100
AcDbLine
 10
7342.829581418174
 20
5489.5
 30
0.0
 11
7342.829581418174
 21
5560.500000000001
 31
0.0
  0
LINE
  5
16C06
330
747D
100
AcDbEntity
  8
細線
 48
50.0
100
AcDbLine
 10
7448.829581418173
 20
5565.500036981838
 30
0.0
 11
7448.829581418173
 21
5488.5
 31
0.0
  0
ARC
  5
16C07
330
747D
100
AcDbEntity
  8
細線
 48
50.0
100
AcDbCircle
 10
7438.829581418173
 20
5565.500036981838
 30
0.0
 40
10.0
100
AcDbArc
 50
0.000000000000007
 51
90.0
  0
LINE
  5
16C08
330
747D
100
AcDbEntity
  8
細線
 48
50.0
100
AcDbLine
 10
7181.829581418172
 20
5575.500036981837
 30
0.0
 11
7181.829581418172
 21
5478.5
 31
0.0
  0
ARC
  5
16C09
330
747D
100
AcDbEntity
  8
細線
 48
50.0
100
AcDbCircle
 10
7166.829581418173
 20
5488.5
 30
0.0
 40
10.0
100
AcDbArc
 50
180.0000000000001
 51
270.0
  0
LINE
  5
16C0A
330
747D
100
AcDbEntity
  8
細線
 48
50.0
100
AcDbLine
 10
7181.829581418172
 20
5478.5
 30
0.0
 11
7181.829581418172
 21
5479.0
 31
0.0
  0
LINE
  5
16C0B
330
747D
100
AcDbEntity
  8
細線
 48
50.0
100
AcDbLine
 10
7156.829581418172
 20
5565.500036981838
 30
0.0
 11
7156.829581418172
 21
5488.5
 31
0.0
  0
ARC
  5
16C0C
330
747D
100
AcDbEntity
  8
細線
 48
50.0
100
AcDbCircle
 10
7166.829581418173
 20
5565.500036981838
 30
0.0
 40
10.0
100
AcDbArc
 50
90.0
 51
180.0000000000001
  0
LINE
  5
16C0D
330
747D
100
AcDbEntity
  8
細線
 48
50.0
100
AcDbLine
 10
7262.829581418173
 20
5489.5
 30
0.0
 11
7262.829581418173
 21
5560.500000000001
 31
0.0
  0
TEXT
  5
16C68
330
747D
100
AcDbEntity
  8
仕様書枠
 62
     7
 48
50.0
100
AcDbText
 10
3013.500522708389
 20
3205.736447636176
 30
0.0
 40
125.0
  1
▽G.L
  7
STYLE2
100
AcDbText
  0
TEXT
  5
16C77
330
747D
100
AcDbEntity
  8
部品1
100
AcDbText
 10
6165.755717781809
 20
7397.421209098668
 30
0.0
 40
225.0
  1
平面図
  7
STYLE2
 72
     1
 11
6652.829581418173
 21
7509.921209098668
 31
0.0
100
AcDbText
 73
     2
  0
TEXT
  5
16C79
330
747D
100
AcDbEntity
  8
部品1
100
AcDbText
 10
6166.394922327263
 20
2214.471809875946
 30
0.0
 40
225.0
  1
正面図
  7
STYLE2
 72
     1
 11
6652.829581418173
 21
2326.971809875946
 31
0.0
100
AcDbText
 73
     2
  0
TEXT
  5
16C7B
330
747D
100
AcDbEntity
  8
部品1
100
AcDbText
 10
13982.78696778181
 20
2214.471809875989
 30
0.0
 40
225.0
  1
側面図
  7
STYLE2
 72
     1
 11
14462.82958141817
 21
2326.97180987599
 31
0.0
100
AcDbText
 73
     2
  0
DIMENSION
  5
16C9C
330
747D
100
AcDbEntity
  8
寸法
 48
50.0
100
AcDbDimension
  2
*D1
 10
4192.829581418172
 20
6408.281130716521
 30
0.0
 11
3812.770526300061
 21
6408.281130716521
 31
0.0
 12
0.0
 22
340.0
 32
0.0
 70
   160
 71
     5
 42
-1.0
  3
INABA_S50G
100
AcDbAlignedDimension
 13
4137.829577048345
 23
5679.000002624809
 33
0.0
 14
4192.829581418172
 24
5715.000000008467
 34
0.0
100
AcDbRotatedDimension
  0
DIMENSION
  5
16CB5
330
747D
100
AcDbEntity
  8
寸法
 48
50.0
100
AcDbDimension
  2
*D2
 10
9112.829581418171
 20
6408.281130716521
 30
0.0
 11
6652.829581418171
 21
6508.332146422524
 31
0.0
 12
0.0
 22
340.0
 32
0.0
 70
    32
  1
柱外寸法 <>
 71
     5
 42
-1.0
  3
INABA_S50G
100
AcDbAlignedDimension
 13
4192.829581418172
 23
5715.000000008467
 33
0.0
 14
9112.829581418171
 24
5715.000000008447
 34
0.0
100
AcDbRotatedDimension
1001
ACAD
1000
DSTYLE
1002
{
1070
    75
1070
     1
1070
   279
1070
     1
1002
}
  0
DIMENSION
  5
16CC3
330
747D
100
AcDbEntity
  8
寸法
 48
50.0
100
AcDbDimension
  2
*D3
 10
9167.829581418175
 20
6408.281130716521
 30
0.0
 11
9482.888636536285
 21
6408.281130716521
 31
0.0
 12
0.0
 22
340.0
 32
0.0
 70
   160
 71
     5
 42
-1.0
  3
INABA_S50G
100
AcDbAlignedDimension
 13
9112.829581418171
 23
5715.000000008445
 33
0.0
 14
9167.829581418175
 24
5679.000002624809
 34
0.0
100
AcDbRotatedDimension
1001
ACAD
1000
DSTYLE
1002
{
1002
}
  0
DIMENSION
  5
16CDA
330
747D
100
AcDbEntity
  8
寸法
 48
50.0
100
AcDbDimension
  2
*D4
 10
9167.829581418175
 20
6676.068854554545
 30
0.0
 11
6652.82957923326
 21
6776.068854554544
 31
0.0
 12
0.0
 22
340.0
 32
0.0
 70
    32
 71
     5
 42
-1.0
  3
INABA_S50G
100
AcDbAlignedDimension
 13
4137.829577048345
 23
5679.000002624809
 33
0.0
 14
9167.829581418175
 24
5679.000002624809
 34
0.0
100
AcDbRotatedDimension
  0
DIMENSION
  5
16D30
330
747D
100
AcDbEntity
  8
寸法
 48
50.0
100
AcDbDimension
  2
*D5
 10
9768.934533249726
 20
3342.0
 30
0.0
 11
9768.934533249726
 21
2978.697597487495
 31
0.0
 12
0.0
 22
340.0
 32
0.0
 70
   160
 71
     5
 42
-1.0
  3
INABA_S50G
100
AcDbAlignedDimension
 13
9112.829581418173
 23
3275.0
 33
0.0
 14
9112.829581418173
 24
3342.0
 34
0.0
 50
90.0
100
AcDbRotatedDimension
  0
DIMENSION
  5
16D3C
330
747D
100
AcDbEntity
  8
寸法
 48
50.0
100
AcDbDimension
  2
*D6
 10
9768.934533249726
 20
5472.0
 30
0.0
 11
9668.9197694702
 21
4407.0
 31
0.0
 70
    32
  1
内高 <>
 71
     5
 42
-1.0
  3
INABA_S50G
100
AcDbAlignedDimension
 13
9112.829581418173
 23
3342.0
 33
0.0
 14
9112.829581418171
 24
5472.0
 34
0.0
 50
90.0
100
AcDbRotatedDimension
1001
ACAD
1000
DSTYLE
1002
{
1070
    75
1070
     1
1070
   279
1070
     1
1002
}
  0
DIMENSION
  5
16DA8
330
747D
100
AcDbEntity
  8
寸法
 48
50.0
100
AcDbDimension
  2
*D7
 10
11908.66366111978
 20
3275.0
 30
0.0
 11
11808.64889734025
 21
4495.0
 31
0.0
 12
0.0
 22
340.0
 32
0.0
 70
    32
 71
     5
 42
-1.0
  3
INABA_S50G
100
AcDbAlignedDimension
 13
12807.82958141817
 23
5715.0
 33
0.0
 14
12874.82958141817
 24
3275.0
 34
0.0
 50
90.0
100
AcDbRotatedDimension
  0
DIMENSION
  5
16DCF
330
747D
100
AcDbEntity
  8
寸法
 48
50.0
100
AcDbDimension
  2
*D8
 10
12942.82958141817
 20
6408.281130716521
 30
0.0
 11
12534.72297970037
 21
6408.281130716521
 31
0.0
 12
10.0
 22
340.0
 32
0.0
 70
   160
 71
     5
 42
-1.0
  3
INABA_S50G
100
AcDbAlignedDimension
 13
12807.82958141817
 23
5715.0
 33
0.0
 14
12942.82958141817
 24
5712.575543750731
 34
0.0
100
AcDbRotatedDimension
  0
DIMENSION
  5
16DDB
330
747D
100
AcDbEntity
  8
寸法
 48
50.0
100
AcDbDimension
  2
*D9
 10
15982.82958141817
 20
6408.281130716521
 30
0.0
 11
14462.82958141817
 21
6508.281130716522
 31
0.0
 12
0.0
 22
340.0
 32
0.0
 70
    32
  1
柱外寸法 <>
 71
     5
 42
-1.0
  3
INABA_S50G
100
AcDbAlignedDimension
 13
12942.82958141817
 23
5712.575543750731
 33
0.0
 14
15982.82958141817
 24
5657.626383835636
 34
0.0
100
AcDbRotatedDimension
1001
ACAD
1000
DSTYLE
1002
{
1070
    75
1070
     1
1070
   279
1070
     1
1002
}
  0
DIMENSION
  5
16DE9
330
747D
100
AcDbEntity
  8
寸法
 48
50.0
100
AcDbDimension
  2
*D10
 10
16077.82958141817
 20
6408.281130716521
 30
0.0
 11
16410.38863653628
 21
6408.281130716521
 31
0.0
 12
0.0
 22
340.0
 32
0.0
 70
   160
 71
     5
 42
-1.0
  3
INABA_S50G
100
AcDbAlignedDimension
 13
15982.82958141817
 23
5657.626383835636
 33
0.0
 14
16077.82958141817
 24
5655.0
 34
0.0
100
AcDbRotatedDimension
1001
ACAD
1000
DSTYLE
1002
{
1002
}
  0
DIMENSION
  5
16E00
330
747D
100
AcDbEntity
  8
寸法
 48
50.0
100
AcDbDimension
  2
*D11
 10
16077.82958141817
 20
6676.068854554545
 30
0.0
 11
14442.82958141817
 21
6776.083618334073
 31
0.0
 12
0.0
 22
340.0
 32
0.0
 70
    32
 71
     5
 42
-1.0
  3
INABA_S50G
100
AcDbAlignedDimension
 13
12807.82958141817
 23
5715.0
 33
0.0
 14
16077.82958141817
 24
5655.0
 34
0.0
100
AcDbRotatedDimension
  0
DIMENSION
  5
16E47
330
747D
100
AcDbEntity
  8
寸法
 48
50.0
100
AcDbDimension
  2
*D12
 10
16642.32033483959
 20
5655.0
 30
0.0
 11
16542.30557106006
 21
4465.0
 31
0.0
 12
0.0
 22
340.0
 32
0.0
 70
    32
 71
     5
 42
-1.0
  3
INABA_S50G
100
AcDbAlignedDimension
 13
15982.82958141817
 23
3275.0
 33
0.0
 14
16077.82958141817
 24
5655.0
 34
0.0
 50
90.0
100
AcDbRotatedDimension
  0
LINE
  5
17269
330
747D
100
AcDbEntity
  8
部品1
100
AcDbLine
 10
6016.604026227806
 20
7709.831477053278
 30
0.0
 11
6016.604026227806
 21
7310.010941144057
 31
0.0
  0
LINE
  5
1726A
330
747D
100
AcDbEntity
  8
部品1
100
AcDbLine
 10
6016.604026227806
 20
7310.010941144057
 30
0.0
 11
7289.055136608538
 21
7310.010941144057
 31
0.0
  0
LINE
  5
1726B
330
747D
100
AcDbEntity
  8
部品1
100
AcDbLine
 10
7289.055136608538
 20
7310.010941144057
 30
0.0
 11
7289.055136608538
 21
7709.831477053278
 31
0.0
  0
LINE
  5
1726C
330
747D
100
AcDbEntity
  8
部品1
100
AcDbLine
 10
7289.055136608538
 20
7709.831477053278
 30
0.0
 11
6016.604026227806
 21
7709.831477053278
 31
0.0
  0
LINE
  5
1726E
330
747D
100
AcDbEntity
  8
部品1
100
AcDbLine
 10
6016.604026227807
 20
2526.882077830557
 30
0.0
 11
6016.604026227807
 21
2127.061541921335
 31
0.0
  0
LINE
  5
1726F
330
747D
100
AcDbEntity
  8
部品1
100
AcDbLine
 10
6016.604026227807
 20
2127.061541921335
 30
0.0
 11
7289.05513660854
 21
2127.061541921335
 31
0.0
  0
LINE
  5
17270
330
747D
100
AcDbEntity
  8
部品1
100
AcDbLine
 10
7289.05513660854
 20
2127.061541921335
 30
0.0
 11
7289.05513660854
 21
2526.882077830557
 31
0.0
  0
LINE
  5
17271
330
747D
100
AcDbEntity
  8
部品1
100
AcDbLine
 10
7289.05513660854
 20
2526.882077830557
 30
0.0
 11
6016.604026227807
 21
2526.882077830557
 31
0.0
  0
LINE
  5
17273
330
747D
100
AcDbEntity
  8
部品1
100
AcDbLine
 10
13826.6040262278
 20
2526.8820778306
 30
0.0
 11
13826.6040262278
 21
2127.061541921379
 31
0.0
  0
LINE
  5
17274
330
747D
100
AcDbEntity
  8
部品1
100
AcDbLine
 10
13826.6040262278
 20
2127.061541921379
 30
0.0
 11
15099.05513660854
 21
2127.061541921379
 31
0.0
  0
LINE
  5
17275
330
747D
100
AcDbEntity
  8
部品1
100
AcDbLine
 10
15099.05513660854
 20
2127.061541921379
 30
0.0
 11
15099.05513660854
 21
2526.8820778306
 31
0.0
  0
LINE
  5
17276
330
747D
100
AcDbEntity
  8
部品1
100
AcDbLine
 10
15099.05513660854
 20
2526.8820778306
 30
0.0
 11
13826.6040262278
 21
2526.8820778306
 31
0.0
  0
LINE
  5
1837B
330
747D
100
AcDbEntity
  8
部品1
 48
50.0
100
AcDbLine
 10
4192.829581418171
 20
12258.73679736197
 30
0.0
 11
4192.829581418171
 21
9238.736797361971
 31
0.0
  0
LINE
  5
1837C
330
747D
100
AcDbEntity
  8
部品1
 48
50.0
100
AcDbLine
 10
4202.82958141817
 20
9228.736797361971
 30
0.0
 11
4262.829581418171
 21
9228.736797361969
 31
0.0
  0
LINE
  5
1837D
330
747D
100
AcDbEntity
  8
部品1
 48
50.0
100
AcDbLine
 10
9112.829581418177
 20
9238.736797361973
 30
0.0
 11
9112.829581418173
 21
12258.73679736197
 31
0.0
  0
LINE
  5
1837E
330
747D
100
AcDbEntity
  8
部品1
 48
50.0
100
AcDbLine
 10
9102.829581418173
 20
12268.73679736197
 30
0.0
 11
4202.82958141817
 21
12268.73679736197
 31
0.0
  0
ARC
  5
1837F
330
747D
100
AcDbEntity
  8
部品1
 48
50.0
100
AcDbCircle
 10
9102.829581418173
 20
12258.73679736197
 30
0.0
 40
10.0
100
AcDbArc
 50
0.0
 51
90.0
  0
ARC
  5
18380
330
747D
100
AcDbEntity
  8
部品1
 48
50.0
100
AcDbCircle
 10
9102.829581418175
 20
9238.736797361973
 30
0.0
 40
10.0
100
AcDbArc
 50
270.0
 51
0.0
  0
ARC
  5
18381
330
747D
100
AcDbEntity
  8
部品1
 48
50.0
100
AcDbCircle
 10
4202.82958141817
 20
9238.736797361971
 30
0.0
 40
10.0
100
AcDbArc
 50
180.0
 51
270.0
  0
ARC
  5
18382
330
747D
100
AcDbEntity
  8
部品1
 48
50.0
100
AcDbCircle
 10
4202.82958141817
 20
12258.73679736197
 30
0.0
 40
10.0
100
AcDbArc
 50
90.0
 51
180.0
  0
LINE
  5
18383
330
747D
100
AcDbEntity
  8
部品1
 48
50.0
100
AcDbLine
 10
9062.829581418176
 20
12218.73679736197
 30
0.0
 11
4242.829581418173
 21
12218.73679736197
 31
0.0
  0
LINE
  5
18384
330
747D
100
AcDbEntity
  8
部品1
 48
50.0
100
AcDbLine
 10
4242.829581418173
 20
12218.73679736197
 30
0.0
 11
4242.82958141817
 21
9278.73679736197
 31
0.0
  0
LINE
  5
18385
330
747D
100
AcDbEntity
  8
部品1
 48
50.0
100
AcDbLine
 10
4242.82958141817
 20
9278.73679736197
 30
0.0
 11
4280.829581418167
 21
9278.73679736197
 31
0.0
  0
LINE
  5
18386
330
747D
100
AcDbEntity
  8
部品1
 48
50.0
100
AcDbLine
 10
9062.829581418176
 20
9278.73679736197
 30
0.0
 11
9062.829581418176
 21
12218.73679736197
 31
0.0
  0
LINE
  5
18387
330
747D
100
AcDbEntity
  8
部品1
 48
50.0
100
AcDbLine
 10
9077.829581418177
 20
12233.73679736197
 30
0.0
 11
4227.829581418171
 21
12233.73679736197
 31
0.0
  0
LINE
  5
18388
330
747D
100
AcDbEntity
  8
部品1
 48
50.0
100
AcDbLine
 10
4227.829581418171
 20
9263.736797361971
 30
0.0
 11
4280.829581418167
 21
9263.736797361969
 31
0.0
  0
LINE
  5
18389
330
747D
100
AcDbEntity
  8
部品1
 48
50.0
100
AcDbLine
 10
4227.829581418171
 20
12233.73679736197
 30
0.0
 11
4227.829581418171
 21
9263.736797361971
 31
0.0
  0
LINE
  5
1838A
330
747D
100
AcDbEntity
  8
部品1
 48
50.0
100
AcDbLine
 10
9077.829581418177
 20
9263.736797361971
 30
0.0
 11
9077.829581418177
 21
12233.73679736197
 31
0.0
  0
LINE
  5
1838B
330
747D
100
AcDbEntity
  8
部品1
 48
50.0
100
AcDbLine
 10
9042.829581418173
 20
12233.73679736197
 30
0.0
 11
9042.829581418176
 21
12268.73679736197
 31
0.0
  0
LINE
  5
1838C
330
747D
100
AcDbEntity
  8
部品1
 48
50.0
100
AcDbLine
 10
9112.829581418177
 20
12198.73679736197
 30
0.0
 11
9077.829581418177
 21
12198.73679736197
 31
0.0
  0
LINE
  5
1838D
330
747D
100
AcDbEntity
  8
部品1
 48
50.0
100
AcDbLine
 10
9024.829581418172
 20
12233.73679736197
 30
0.0
 11
9024.829581418172
 21
12218.73679736197
 31
0.0
  0
LINE
  5
1838E
330
747D
100
AcDbEntity
  8
部品1
 48
50.0
100
AcDbLine
 10
9060.829581418174
 20
12233.73679736197
 30
0.0
 11
9060.829581418174
 21
12218.73679736197
 31
0.0
  0
LINE
  5
1838F
330
747D
100
AcDbEntity
  8
部品1
 48
50.0
100
AcDbLine
 10
9077.829581418177
 20
12180.73679736197
 30
0.0
 11
9062.829581418176
 21
12180.73679736197
 31
0.0
  0
LINE
  5
18390
330
747D
100
AcDbEntity
  8
部品1
 48
50.0
100
AcDbLine
 10
9077.829581418177
 20
12216.73679736197
 30
0.0
 11
9062.829581418176
 21
12216.73679736197
 31
0.0
  0
LINE
  5
18391
330
747D
100
AcDbEntity
  8
部品1
 48
50.0
100
AcDbLine
 10
9077.829581418177
 20
11636.73679736197
 30
0.0
 11
9062.829581418176
 21
11636.73679736197
 31
0.0
  0
LINE
  5
18392
330
747D
100
AcDbEntity
  8
部品1
 48
50.0
100
AcDbLine
 10
9077.829581418177
 20
11600.73679736197
 30
0.0
 11
9062.829581418176
 21
11600.73679736197
 31
0.0
  0
LINE
  5
18393
330
747D
100
AcDbEntity
  8
部品1
 48
50.0
100
AcDbLine
 10
9112.829581418177
 20
11618.73679736197
 30
0.0
 11
9077.829581418177
 21
11618.73679736197
 31
0.0
  0
LINE
  5
18394
330
747D
100
AcDbEntity
  8
部品1
 48
50.0
100
AcDbLine
 10
9077.829581418177
 20
11056.73679736197
 30
0.0
 11
9062.829581418176
 21
11056.73679736197
 31
0.0
  0
LINE
  5
18395
330
747D
100
AcDbEntity
  8
部品1
 48
50.0
100
AcDbLine
 10
9077.829581418177
 20
11020.73679736197
 30
0.0
 11
9062.829581418176
 21
11020.73679736197
 31
0.0
  0
LINE
  5
18396
330
747D
100
AcDbEntity
  8
部品1
 48
50.0
100
AcDbLine
 10
9112.829581418177
 20
11038.73679736197
 30
0.0
 11
9077.829581418177
 21
11038.73679736197
 31
0.0
  0
LINE
  5
18397
330
747D
100
AcDbEntity
  8
部品1
 48
50.0
100
AcDbLine
 10
9112.829581418173
 20
9878.736797361975
 30
0.0
 11
9077.829581418173
 21
9878.736797361973
 31
0.0
  0
LINE
  5
18398
330
747D
100
AcDbEntity
  8
部品1
 48
50.0
100
AcDbLine
 10
9077.829581418173
 20
9860.736797361971
 30
0.0
 11
9062.829581418172
 21
9860.736797361971
 31
0.0
  0
LINE
  5
18399
330
747D
100
AcDbEntity
  8
部品1
 48
50.0
100
AcDbLine
 10
9077.829581418173
 20
9896.73679736197
 30
0.0
 11
9062.829581418172
 21
9896.73679736197
 31
0.0
  0
LINE
  5
1839A
330
747D
100
AcDbEntity
  8
部品1
 48
50.0
100
AcDbLine
 10
9112.829581418173
 20
10458.73679736197
 30
0.0
 11
9077.829581418173
 21
10458.73679736197
 31
0.0
  0
LINE
  5
1839B
330
747D
100
AcDbEntity
  8
部品1
 48
50.0
100
AcDbLine
 10
9077.829581418173
 20
10440.73679736197
 30
0.0
 11
9062.829581418172
 21
10440.73679736197
 31
0.0
  0
LINE
  5
1839C
330
747D
100
AcDbEntity
  8
部品1
 48
50.0
100
AcDbLine
 10
9077.829581418173
 20
10476.73679736197
 30
0.0
 11
9062.829581418172
 21
10476.73679736197
 31
0.0
  0
LINE
  5
1839D
330
747D
100
AcDbEntity
  8
部品1
 48
50.0
100
AcDbLine
 10
9077.829581418173
 20
9316.736797361969
 30
0.0
 11
9062.829581418172
 21
9316.736797361969
 31
0.0
  0
LINE
  5
1839E
330
747D
100
AcDbEntity
  8
部品1
 48
50.0
100
AcDbLine
 10
9077.829581418173
 20
9280.736797361969
 30
0.0
 11
9062.829581418172
 21
9280.736797361969
 31
0.0
  0
LINE
  5
1839F
330
747D
100
AcDbEntity
  8
部品1
 48
50.0
100
AcDbLine
 10
9112.829581418173
 20
9298.736797361975
 30
0.0
 11
9077.829581418173
 21
9298.736797361973
 31
0.0
  0
LINE
  5
183A0
330
747D
100
AcDbEntity
  8
部品1
 48
50.0
100
AcDbLine
 10
8444.829581418174
 20
12233.73679736197
 30
0.0
 11
8444.829581418174
 21
12218.73679736197
 31
0.0
  0
LINE
  5
183A1
330
747D
100
AcDbEntity
  8
部品1
 48
50.0
100
AcDbLine
 10
8462.829581418173
 20
12233.73679736197
 30
0.0
 11
8462.829581418176
 21
12268.73679736197
 31
0.0
  0
LINE
  5
183A2
330
747D
100
AcDbEntity
  8
部品1
 48
50.0
100
AcDbLine
 10
8480.829581418174
 20
12233.73679736197
 30
0.0
 11
8480.829581418174
 21
12218.73679736197
 31
0.0
  0
LINE
  5
183A3
330
747D
100
AcDbEntity
  8
部品1
 48
50.0
100
AcDbLine
 10
7900.829581418171
 20
12233.73679736197
 30
0.0
 11
7900.829581418171
 21
12218.73679736197
 31
0.0
  0
LINE
  5
183A4
330
747D
100
AcDbEntity
  8
部品1
 48
50.0
100
AcDbLine
 10
7882.829581418171
 20
12233.73679736197
 30
0.0
 11
7882.829581418175
 21
12268.73679736197
 31
0.0
  0
LINE
  5
183A5
330
747D
100
AcDbEntity
  8
部品1
 48
50.0
100
AcDbLine
 10
7864.82958141817
 20
12233.73679736197
 30
0.0
 11
7864.82958141817
 21
12218.73679736197
 31
0.0
  0
LINE
  5
183A6
330
747D
100
AcDbEntity
  8
部品1
 48
50.0
100
AcDbLine
 10
7320.82958141817
 20
12233.73679736209
 30
0.0
 11
7320.82958141817
 21
12218.73679736209
 31
0.0
  0
LINE
  5
183A7
330
747D
100
AcDbEntity
  8
部品1
 48
50.0
100
AcDbLine
 10
7302.829581418169
 20
12233.73679736209
 30
0.0
 11
7302.829581418173
 21
12268.73679736209
 31
0.0
  0
LINE
  5
183A8
330
747D
100
AcDbEntity
  8
部品1
 48
50.0
100
AcDbLine
 10
7284.829581418169
 20
12233.73679736209
 30
0.0
 11
7284.829581418169
 21
12218.73679736209
 31
0.0
  0
LINE
  5
183A9
330
747D
100
AcDbEntity
  8
部品1
 48
50.0
100
AcDbLine
 10
6740.82958141817
 20
12233.73679736215
 30
0.0
 11
6740.82958141817
 21
12218.73679736215
 31
0.0
  0
LINE
  5
183AA
330
747D
100
AcDbEntity
  8
部品1
 48
50.0
100
AcDbLine
 10
6722.829581418169
 20
12233.73679736215
 30
0.0
 11
6722.829581418173
 21
12268.73679736215
 31
0.0
  0
LINE
  5
183AB
330
747D
100
AcDbEntity
  8
部品1
 48
50.0
100
AcDbLine
 10
6704.82958141817
 20
12233.73679736215
 30
0.0
 11
6704.82958141817
 21
12218.73679736215
 31
0.0
  0
LINE
  5
183AC
330
747D
100
AcDbEntity
  8
部品1
 48
50.0
100
AcDbLine
 10
6020.829581418169
 20
12233.73679736221
 30
0.0
 11
6020.829581418169
 21
12218.73679736221
 31
0.0
  0
LINE
  5
183AD
330
747D
100
AcDbEntity
  8
部品1
 48
50.0
100
AcDbLine
 10
6002.829581418169
 20
12233.73679736221
 30
0.0
 11
6002.829581418173
 21
12268.73679736221
 31
0.0
  0
LINE
  5
183AE
330
747D
100
AcDbEntity
  8
部品1
 48
50.0
100
AcDbLine
 10
5984.82958141817
 20
12233.73679736221
 30
0.0
 11
5984.82958141817
 21
12218.73679736221
 31
0.0
  0
LINE
  5
183AF
330
747D
100
AcDbEntity
  8
部品1
 48
50.0
100
AcDbLine
 10
5440.829581418169
 20
12233.73679736227
 30
0.0
 11
5440.829581418169
 21
12218.73679736227
 31
0.0
  0
LINE
  5
183B0
330
747D
100
AcDbEntity
  8
部品1
 48
50.0
100
AcDbLine
 10
5422.829581418169
 20
12233.73679736227
 30
0.0
 11
5422.829581418173
 21
12268.73679736227
 31
0.0
  0
LINE
  5
183B1
330
747D
100
AcDbEntity
  8
部品1
 48
50.0
100
AcDbLine
 10
5404.829581418169
 20
12233.73679736227
 30
0.0
 11
5404.829581418169
 21
12218.73679736227
 31
0.0
  0
LINE
  5
183B2
330
747D
100
AcDbEntity
  8
部品1
 48
50.0
100
AcDbLine
 10
4860.829581418169
 20
12233.73679736233
 30
0.0
 11
4860.829581418169
 21
12218.73679736233
 31
0.0
  0
LINE
  5
183B3
330
747D
100
AcDbEntity
  8
部品1
 48
50.0
100
AcDbLine
 10
4842.829581418169
 20
12233.73679736233
 30
0.0
 11
4842.829581418173
 21
12268.73679736234
 31
0.0
  0
LINE
  5
183B4
330
747D
100
AcDbEntity
  8
部品1
 48
50.0
100
AcDbLine
 10
4824.829581418169
 20
12233.73679736233
 30
0.0
 11
4824.829581418169
 21
12218.73679736233
 31
0.0
  0
LINE
  5
183B5
330
747D
100
AcDbEntity
  8
部品1
 48
50.0
100
AcDbLine
 10
4280.829581418169
 20
12233.73679736197
 30
0.0
 11
4280.829581418169
 21
12218.73679736197
 31
0.0
  0
LINE
  5
183B6
330
747D
100
AcDbEntity
  8
部品1
 48
50.0
100
AcDbLine
 10
4262.829581418169
 20
12233.73679736197
 30
0.0
 11
4262.829581418173
 21
12268.73679736197
 31
0.0
  0
LINE
  5
183B7
330
747D
100
AcDbEntity
  8
部品1
 48
50.0
100
AcDbLine
 10
4244.829581418168
 20
12233.73679736197
 30
0.0
 11
4244.829581418168
 21
12218.73679736197
 31
0.0
  0
LINE
  5
183B8
330
747D
100
AcDbEntity
  8
部品1
 48
50.0
100
AcDbLine
 10
6564.82958141817
 20
12233.73679736215
 30
0.0
 11
6564.82958141817
 21
12218.73679736215
 31
0.0
  0
LINE
  5
183B9
330
747D
100
AcDbEntity
  8
部品1
 48
50.0
100
AcDbLine
 10
6582.82958141817
 20
12233.73679736215
 30
0.0
 11
6582.829581418173
 21
12268.73679736215
 31
0.0
  0
LINE
  5
183BA
330
747D
100
AcDbEntity
  8
部品1
 48
50.0
100
AcDbLine
 10
6600.829581418169
 20
12233.73679736215
 30
0.0
 11
6600.829581418169
 21
12218.73679736215
 31
0.0
  0
LINE
  5
183D1
330
747D
100
AcDbEntity
  8
部品1
 48
50.0
100
AcDbLine
 10
4227.829581418174
 20
9896.73679736197
 30
0.0
 11
4242.829581418174
 21
9896.73679736197
 31
0.0
  0
LINE
  5
183D2
330
747D
100
AcDbEntity
  8
部品1
 48
50.0
100
AcDbLine
 10
4227.829581418174
 20
9860.736797361971
 30
0.0
 11
4242.829581418174
 21
9860.736797361971
 31
0.0
  0
LINE
  5
183D3
330
747D
100
AcDbEntity
  8
部品1
 48
50.0
100
AcDbLine
 10
4192.829581418174
 20
9878.736797361975
 30
0.0
 11
4227.829581418174
 21
9878.736797361973
 31
0.0
  0
LINE
  5
183D4
330
747D
100
AcDbEntity
  8
部品1
 48
50.0
100
AcDbLine
 10
4227.829581418174
 20
10476.73679736197
 30
0.0
 11
4242.829581418174
 21
10476.73679736197
 31
0.0
  0
LINE
  5
183D5
330
747D
100
AcDbEntity
  8
部品1
 48
50.0
100
AcDbLine
 10
4227.829581418174
 20
10440.73679736197
 30
0.0
 11
4242.829581418174
 21
10440.73679736197
 31
0.0
  0
LINE
  5
183D6
330
747D
100
AcDbEntity
  8
部品1
 48
50.0
100
AcDbLine
 10
4192.829581418174
 20
10458.73679736197
 30
0.0
 11
4227.829581418174
 21
10458.73679736197
 31
0.0
  0
LINE
  5
183D7
330
747D
100
AcDbEntity
  8
部品1
 48
50.0
100
AcDbLine
 10
4192.829581418171
 20
11038.73679736197
 30
0.0
 11
4227.829581418171
 21
11038.73679736197
 31
0.0
  0
LINE
  5
183D8
330
747D
100
AcDbEntity
  8
部品1
 48
50.0
100
AcDbLine
 10
4227.829581418171
 20
11020.73679736197
 30
0.0
 11
4242.82958141817
 21
11020.73679736197
 31
0.0
  0
LINE
  5
183D9
330
747D
100
AcDbEntity
  8
部品1
 48
50.0
100
AcDbLine
 10
4227.829581418171
 20
11056.73679736197
 30
0.0
 11
4242.82958141817
 21
11056.73679736197
 31
0.0
  0
LINE
  5
183DA
330
747D
100
AcDbEntity
  8
部品1
 48
50.0
100
AcDbLine
 10
4192.829581418171
 20
11618.73679736197
 30
0.0
 11
4227.829581418171
 21
11618.73679736197
 31
0.0
  0
LINE
  5
183DB
330
747D
100
AcDbEntity
  8
部品1
 48
50.0
100
AcDbLine
 10
4227.829581418171
 20
11600.73679736197
 30
0.0
 11
4242.82958141817
 21
11600.73679736197
 31
0.0
  0
LINE
  5
183DC
330
747D
100
AcDbEntity
  8
部品1
 48
50.0
100
AcDbLine
 10
4227.829581418171
 20
11636.73679736197
 30
0.0
 11
4242.82958141817
 21
11636.73679736197
 31
0.0
  0
LINE
  5
183DD
330
747D
100
AcDbEntity
  8
部品1
 48
50.0
100
AcDbLine
 10
4227.829581418171
 20
12216.73679736197
 30
0.0
 11
4242.82958141817
 21
12216.73679736197
 31
0.0
  0
LINE
  5
183DE
330
747D
100
AcDbEntity
  8
部品1
 48
50.0
100
AcDbLine
 10
4227.829581418171
 20
12180.73679736197
 30
0.0
 11
4242.82958141817
 21
12180.73679736197
 31
0.0
  0
LINE
  5
183DF
330
747D
100
AcDbEntity
  8
部品1
 48
50.0
100
AcDbLine
 10
4192.829581418171
 20
12198.73679736197
 30
0.0
 11
4227.829581418171
 21
12198.73679736197
 31
0.0
  0
LINE
  5
183E0
330
747D
100
AcDbEntity
  8
部品1
 48
50.0
100
AcDbLine
 10
4192.829581418174
 20
9298.736797361975
 30
0.0
 11
4227.829581418174
 21
9298.736797361973
 31
0.0
  0
LINE
  5
183E1
330
747D
100
AcDbEntity
  8
部品1
 48
50.0
100
AcDbLine
 10
4227.829581418174
 20
9280.736797361969
 30
0.0
 11
4242.829581418174
 21
9280.736797361969
 31
0.0
  0
LINE
  5
183E2
330
747D
100
AcDbEntity
  8
部品1
 48
50.0
100
AcDbLine
 10
4227.829581418174
 20
9316.736797361969
 30
0.0
 11
4242.829581418174
 21
9316.736797361969
 31
0.0
  0
LINE
  5
183E3
330
747D
100
AcDbEntity
  8
部品1
 48
50.0
100
AcDbLine
 10
4244.829581418168
 20
9263.736797361975
 30
0.0
 11
4244.829581418168
 21
9278.736797361975
 31
0.0
  0
LINE
  5
183E4
330
747D
100
AcDbEntity
  8
部品1
 48
50.0
100
AcDbLine
 10
4280.829581418169
 20
9263.736797361975
 30
0.0
 11
4280.829581418169
 21
9278.736797361975
 31
0.0
  0
LINE
  5
183E5
330
747D
100
AcDbEntity
  8
部品1
 48
50.0
100
AcDbLine
 10
4262.829581418169
 20
9263.736797361975
 30
0.0
 11
4262.829581418173
 21
9228.736797361973
 31
0.0
  0
LINE
  5
183EF
330
747D
100
AcDbEntity
  8
部品1
 48
50.0
100
AcDbLine
 10
6002.829581418169
 20
9263.736797361792
 30
0.0
 11
6002.829581418173
 21
9228.736797361792
 31
0.0
  0
LINE
  5
183F0
330
747D
100
AcDbEntity
  8
部品1
 48
50.0
100
AcDbLine
 10
5984.82958141817
 20
9263.736797361792
 30
0.0
 11
5984.82958141817
 21
9278.736797361792
 31
0.0
  0
LINE
  5
183F1
330
747D
100
AcDbEntity
  8
部品1
 48
50.0
100
AcDbLine
 10
6020.829581418169
 20
9263.736797361792
 30
0.0
 11
6020.829581418169
 21
9278.736797361792
 31
0.0
  0
LINE
  5
183F2
330
747D
100
AcDbEntity
  8
部品1
 48
50.0
100
AcDbLine
 10
6704.82958141817
 20
9263.736797361792
 30
0.0
 11
6704.82958141817
 21
9278.736797361792
 31
0.0
  0
LINE
  5
183F3
330
747D
100
AcDbEntity
  8
部品1
 48
50.0
100
AcDbLine
 10
6722.829581418169
 20
9263.736797361792
 30
0.0
 11
6722.829581418173
 21
9228.736797361792
 31
0.0
  0
LINE
  5
183F4
330
747D
100
AcDbEntity
  8
部品1
 48
50.0
100
AcDbLine
 10
6740.82958141817
 20
9263.736797361792
 30
0.0
 11
6740.82958141817
 21
9278.736797361792
 31
0.0
  0
LINE
  5
183F5
330
747D
100
AcDbEntity
  8
部品1
 48
50.0
100
AcDbLine
 10
7284.829581418169
 20
9263.736797361854
 30
0.0
 11
7284.829581418169
 21
9278.736797361853
 31
0.0
  0
LINE
  5
183F6
330
747D
100
AcDbEntity
  8
部品1
 48
50.0
100
AcDbLine
 10
7302.829581418169
 20
9263.736797361854
 30
0.0
 11
7302.829581418173
 21
9228.736797361852
 31
0.0
  0
LINE
  5
183F7
330
747D
100
AcDbEntity
  8
部品1
 48
50.0
100
AcDbLine
 10
7320.82958141817
 20
9263.736797361854
 30
0.0
 11
7320.82958141817
 21
9278.736797361853
 31
0.0
  0
LINE
  5
183F8
330
747D
100
AcDbEntity
  8
部品1
 48
50.0
100
AcDbLine
 10
7864.82958141817
 20
9263.736797361975
 30
0.0
 11
7864.82958141817
 21
9278.736797361975
 31
0.0
  0
LINE
  5
183F9
330
747D
100
AcDbEntity
  8
部品1
 48
50.0
100
AcDbLine
 10
7882.829581418171
 20
9263.736797361975
 30
0.0
 11
7882.829581418175
 21
9228.736797361973
 31
0.0
  0
LINE
  5
183FA
330
747D
100
AcDbEntity
  8
部品1
 48
50.0
100
AcDbLine
 10
7900.829581418171
 20
9263.736797361975
 30
0.0
 11
7900.829581418171
 21
9278.736797361975
 31
0.0
  0
LINE
  5
183FB
330
747D
100
AcDbEntity
  8
部品1
 48
50.0
100
AcDbLine
 10
8480.829581418174
 20
9263.736797361973
 30
0.0
 11
8480.829581418174
 21
9278.736797361974
 31
0.0
  0
LINE
  5
183FC
330
747D
100
AcDbEntity
  8
部品1
 48
50.0
100
AcDbLine
 10
8462.829581418173
 20
9263.736797361973
 30
0.0
 11
8462.829581418176
 21
9228.736797361971
 31
0.0
  0
LINE
  5
183FD
330
747D
100
AcDbEntity
  8
部品1
 48
50.0
100
AcDbLine
 10
8444.829581418174
 20
9263.736797361973
 30
0.0
 11
8444.829581418174
 21
9278.736797361974
 31
0.0
  0
LINE
  5
183FE
330
747D
100
AcDbEntity
  8
部品1
 48
50.0
100
AcDbLine
 10
9042.829581418173
 20
9263.736797361973
 30
0.0
 11
9042.829581418176
 21
9228.736797361971
 31
0.0
  0
LINE
  5
183FF
330
747D
100
AcDbEntity
  8
部品1
 48
50.0
100
AcDbLine
 10
9024.829581418172
 20
9263.736797361973
 30
0.0
 11
9024.829581418172
 21
9278.736797361974
 31
0.0
  0
LINE
  5
18400
330
747D
100
AcDbEntity
  8
部品1
 48
50.0
100
AcDbLine
 10
9060.829581418174
 20
9263.736797361973
 30
0.0
 11
9060.829581418174
 21
9278.736797361974
 31
0.0
  0
LINE
  5
18401
330
747D
100
AcDbEntity
  8
細線
 48
50.0
100
AcDbLine
 10
9053.829581418176
 20
12209.73679736197
 30
0.0
 11
9053.829581418176
 21
9278.736797361975
 31
0.0
  0
LINE
  5
18402
330
747D
100
AcDbEntity
  8
細線
 48
50.0
100
AcDbLine
 10
9062.829581418176
 20
12209.73679736197
 30
0.0
 11
4251.829581418173
 21
12209.73679736198
 31
0.0
  0
LINE
  5
18403
330
747D
100
AcDbEntity
  8
細線
 48
50.0
100
AcDbLine
 10
4242.82958141817
 20
9287.73679736197
 30
0.0
 11
4253.329581418167
 21
9287.73679736197
 31
0.0
  0
LINE
  5
18404
330
747D
100
AcDbEntity
  8
細線
 48
50.0
100
AcDbLine
 10
4251.829581418173
 20
12218.73679736197
 30
0.0
 11
4251.829581418171
 21
9287.73679736197
 31
0.0
  0
LINE
  5
18413
330
747D
100
AcDbEntity
  8
細線
 48
50.0
100
AcDbLine
 10
4625.329581418164
 20
9292.236797361971
 30
0.0
 11
4625.329581418164
 21
12209.73679736197
 31
0.0
  0
LINE
  5
18414
330
747D
100
AcDbEntity
  8
細線
 48
50.0
100
AcDbLine
 10
5205.329581418164
 20
9292.236797361972
 30
0.0
 11
5205.329581418164
 21
12209.73679736197
 31
0.0
  0
LINE
  5
18415
330
747D
100
AcDbEntity
  8
細線
 48
50.0
100
AcDbLine
 10
6365.329581418164
 20
9287.73679736197
 30
0.0
 11
6365.329581418164
 21
12209.73679736197
 31
0.0
  0
LINE
  5
18416
330
747D
100
AcDbEntity
  8
細線
 48
50.0
100
AcDbLine
 10
5785.329581418164
 20
9287.73679736197
 30
0.0
 11
5785.329581418164
 21
12209.73679736197
 31
0.0
  0
LINE
  5
18417
330
747D
100
AcDbEntity
  8
細線
 48
50.0
100
AcDbLine
 10
7525.329581418166
 20
9287.73679736197
 30
0.0
 11
7525.329581418164
 21
12209.73679736197
 31
0.0
  0
LINE
  5
18418
330
747D
100
AcDbEntity
  8
細線
 48
50.0
100
AcDbLine
 10
8105.329581418166
 20
9287.73679736197
 30
0.0
 11
8105.329581418164
 21
12209.73679736197
 31
0.0
  0
LINE
  5
18419
330
747D
100
AcDbEntity
  8
細線
 48
50.0
100
AcDbLine
 10
6945.329581418164
 20
9287.73679736197
 30
0.0
 11
6945.329581418164
 21
12209.73679736197
 31
0.0
  0
LINE
  5
1841A
330
747D
100
AcDbEntity
  8
細線
 48
50.0
100
AcDbLine
 10
8685.329581418166
 20
9287.73679736197
 30
0.0
 11
8685.329581418166
 21
12209.73679736197
 31
0.0
  0
DIMENSION
  5
1852A
330
747D
100
AcDbEntity
  8
寸法
 48
50.0
100
AcDbDimension
  2
*D17
 10
10226.96933771975
 20
12218.73679736197
 30
0.0
 11
10126.95457394022
 21
10748.73679736197
 31
0.0
 70
    32
  1
内部寸法 <>
 71
     5
 42
-1.0
  3
INABA_S50G
100
AcDbAlignedDimension
 13
9924.165333801148
 23
9278.736797361975
 33
0.0
 14
9924.165333801145
 24
12218.73679736197
 34
0.0
 50
90.0
100
AcDbRotatedDimension
1001
ACAD
1000
DSTYLE
1002
{
1002
}
  0
DIMENSION
  5
1852B
330
747D
100
AcDbEntity
  8
寸法
 48
50.0
100
AcDbDimension
  2
*D14
 10
9924.165333801148
 20
12198.73679736197
 30
0.0
 11
9824.150570021622
 21
10748.73679736197
 31
0.0
 70
    32
  1
5x580=<>
 71
     5
 42
-1.0
  3
INABA_S50G
100
AcDbAlignedDimension
 13
9112.829581418177
 23
9298.736797361975
 33
0.0
 14
9112.829581418177
 24
12198.73679736197
 34
0.0
 50
90.0
100
AcDbRotatedDimension
1001
ACAD
1000
DSTYLE
1002
{
1002
}
  0
DIMENSION
  5
1852C
330
747D
100
AcDbEntity
  8
寸法
 48
50.0
100
AcDbDimension
  2
*D16
 10
10226.96933771976
 20
9278.736797361975
 30
0.0
 11
10226.96933771976
 21
8991.689553267482
 31
0.0
 70
   160
 71
     5
 42
-1.0
  3
INABA_S50G
100
AcDbAlignedDimension
 13
9102.829581418175
 23
9228.736797361971
 33
0.0
 14
9924.165333801148
 24
9278.736797361975
 34
0.0
 50
90.0
100
AcDbRotatedDimension
  0
DIMENSION
  5
1852D
330
747D
100
AcDbEntity
  8
寸法
 48
50.0
100
AcDbDimension
  2
*D13
 10
9924.165333801148
 20
9298.736797361975
 30
0.0
 11
9924.165333801148
 21
8996.177742243862
 31
0.0
 12
-7594.632845073173
 22
-373.9447183321536
 32
0.0
 70
   160
 71
     5
 42
-1.0
  3
INABA_S50G
100
AcDbAlignedDimension
 13
9102.829581418175
 23
9228.736797361971
 33
0.0
 14
9112.829581418177
 24
9298.736797361975
 34
0.0
 50
90.0
100
AcDbRotatedDimension
  0
DIMENSION
  5
1852E
330
747D
100
AcDbEntity
  8
寸法
 48
50.0
100
AcDbDimension
  2
*D18
 10
10226.96933771975
 20
12268.73679736197
 30
0.0
 11
10226.96933771975
 21
12626.29585248008
 31
0.0
 70
   160
 71
     5
 42
-1.0
  3
INABA_S50G
100
AcDbAlignedDimension
 13
9924.165333801145
 23
12218.73679736197
 33
0.0
 14
9102.829581418173
 24
12268.73679736197
 34
0.0
 50
90.0
100
AcDbRotatedDimension
1001
ACAD
1000
DSTYLE
1002
{
1002
}
  0
DIMENSION
  5
1852F
330
747D
100
AcDbEntity
  8
寸法
 48
50.0
100
AcDbDimension
  2
*D15
 10
9924.165333801147
 20
12268.73679736197
 30
0.0
 11
9924.165333801147
 21
12501.29585248008
 31
0.0
 12
-7594.632845073173
 22
-373.9447183321536
 32
0.0
 70
   160
 71
     5
 42
-1.0
  3
INABA_S50G
100
AcDbAlignedDimension
 13
9112.829581418177
 23
12198.73679736197
 33
0.0
 14
9102.829581418173
 24
12268.73679736197
 34
0.0
 50
90.0
100
AcDbRotatedDimension
1001
ACAD
1000
DSTYLE
1002
{
1002
}
  0
DIMENSION
  5
185AD
330
747D
100
AcDbEntity
  8
寸法
 48
50.0
100
AcDbDimension
  2
*D24
 10
4242.82958141817
 20
12977.51516613338
 30
0.0
 11
3835.270526300061
 21
12977.51516613338
 31
0.0
 12
-7594.632845073173
 22
-373.9447183321536
 32
0.0
 70
   160
 71
     5
 42
-1.0
  3
INABA_S50G
100
AcDbAlignedDimension
 13
4192.829581418171
 23
12258.73679736197
 33
0.0
 14
4242.82958141817
 24
12678.76878223262
 34
0.0
100
AcDbRotatedDimension
  0
DIMENSION
  5
185AE
330
747D
100
AcDbEntity
  8
寸法
 48
50.0
100
AcDbDimension
  2
*D19
 10
4262.829581418173
 20
12678.76878223262
 30
0.0
 11
3950.270526300061
 21
12678.76878223262
 31
0.0
 12
-7594.632845073173
 22
-373.9447183321536
 32
0.0
 70
   160
 71
     5
 42
-1.0
  3
INABA_S50G
100
AcDbAlignedDimension
 13
4192.829581418171
 23
12258.73679736197
 33
0.0
 14
4262.829581418173
 24
12268.73679736197
 34
0.0
100
AcDbRotatedDimension
  0
DIMENSION
  5
185AF
330
747D
100
AcDbEntity
  8
寸法
 48
50.0
100
AcDbDimension
  2
*D25
 10
9062.82958141818
 20
12977.51516613338
 30
0.0
 11
6652.829581418174
 21
13077.52992991291
 31
0.0
 70
    32
  1
内部寸法 <>
 71
     5
 42
-1.0
  3
INABA_S50G
100
AcDbAlignedDimension
 13
4242.82958141817
 23
12678.76878223262
 33
0.0
 14
9062.82958141818
 24
12678.76878223262
 34
0.0
100
AcDbRotatedDimension
1001
ACAD
1000
DSTYLE
1002
{
1070
    75
1070
     1
1070
   279
1070
     1
1002
}
  0
DIMENSION
  5
185B0
330
747D
100
AcDbEntity
  8
寸法
 48
50.0
100
AcDbDimension
  2
*D22
 10
9042.829581418176
 20
12678.76878223262
 30
0.0
 11
7882.829581418175
 21
12778.78354601215
 31
0.0
 12
-7594.632845073173
 22
-373.9447183321536
 32
0.0
 70
    32
  1
4x580=<>
 71
     5
 42
-1.0
  3
INABA_S50G
100
AcDbAlignedDimension
 13
6722.829581418173
 23
12268.73679736197
 33
0.0
 14
9042.829581418176
 24
12268.73679736197
 34
0.0
100
AcDbRotatedDimension
1001
ACAD
1000
DSTYLE
1002
{
1070
    75
1070
     1
1070
   279
1070
     1
1002
}
  0
DIMENSION
  5
185B1
330
747D
100
AcDbEntity
  8
寸法
 48
50.0
100
AcDbDimension
  2
*D20
 10
6582.829581418173
 20
12678.76878223262
 30
0.0
 11
5422.829581418173
 21
12778.78354601215
 31
0.0
 12
10.0
 22
-20.0
 32
0.0
 70
    32
  1
4x580=<>
 71
     5
 42
-1.0
  3
INABA_S50G
100
AcDbAlignedDimension
 13
4262.829581418173
 23
12268.73679736197
 33
0.0
 14
6582.829581418173
 24
12268.73679736197
 34
0.0
100
AcDbRotatedDimension
1001
ACAD
1000
DSTYLE
1002
{
1070
    75
1070
     1
1070
   279
1070
     1
1002
}
  0
DIMENSION
  5
185B2
330
747D
100
AcDbEntity
  8
寸法
 48
50.0
100
AcDbDimension
  2
*D21
 10
6722.829581418173
 20
12678.76878223262
 30
0.0
 11
6652.829581418173
 21
12778.76878223262
 31
0.0
 12
-7594.632845073173
 22
-373.9447183321536
 32
0.0
 70
    32
 71
     5
 42
-1.0
  3
INABA_S50G
100
AcDbAlignedDimension
 13
6582.829581418173
 23
12268.73679736197
 33
0.0
 14
6722.829581418173
 24
12268.73679736197
 34
0.0
100
AcDbRotatedDimension
1001
ACAD
1000
DSTYLE
1002
{
1070
    75
1070
     1
1070
   279
1070
     1
1002
}
  0
DIMENSION
  5
185B3
330
747D
100
AcDbEntity
  8
寸法
 48
50.0
100
AcDbDimension
  2
*D26
 10
9112.829581418177
 20
12977.51516613338
 30
0.0
 11
9470.388636536284
 21
12977.51516613338
 31
0.0
 12
-7594.632845073173
 22
-373.9447183321536
 32
0.0
 70
   160
 71
     5
 42
-1.0
  3
INABA_S50G
100
AcDbAlignedDimension
 13
9062.82958141818
 23
12678.76878223262
 33
0.0
 14
9112.829581418177
 24
12258.73679736197
 34
0.0
100
AcDbRotatedDimension
1001
ACAD
1000
DSTYLE
1002
{
1002
}
  0
DIMENSION
  5
185B4
330
747D
100
AcDbEntity
  8
寸法
 48
50.0
100
AcDbDimension
  2
*D23
 10
9112.829581418177
 20
12678.76878223262
 30
0.0
 11
9375.388636536284
 21
12678.76878223262
 31
0.0
 12
-7594.632845073173
 22
-373.9447183321536
 32
0.0
 70
   160
 71
     5
 42
-1.0
  3
INABA_S50G
100
AcDbAlignedDimension
 13
9042.829581418176
 23
12268.73679736197
 33
0.0
 14
9112.829581418177
 24
12258.73679736197
 34
0.0
100
AcDbRotatedDimension
1001
ACAD
1000
DSTYLE
1002
{
1002
}
  0
DIMENSION
  5
1868C
330
747D
100
AcDbEntity
  8
寸法
 48
50.0
100
AcDbDimension
  2
*D27
 10
9112.829581418177
 20
7967.428503410812
 30
0.0
 11
6652.829581418173
 21
8067.479519116817
 31
0.0
 12
-7594.632845073173
 22
-373.9447183321536
 32
0.0
 70
    32
 71
     5
 42
-1.0
  3
INABA_S50G
100
AcDbAlignedDimension
 13
4192.829581418171
 23
9238.736797361971
 33
0.0
 14
9112.829581418177
 24
9238.736797361973
 34
0.0
100
AcDbRotatedDimension
  0
DIMENSION
  5
186AF
330
747D
100
AcDbEntity
  8
寸法
 48
50.0
100
AcDbDimension
  2
*D28
 10
3426.198601638504
 20
9228.736797361971
 30
0.0
 11
3326.198601638504
 21
10748.73679736197
 31
0.0
 12
-7594.632845073173
 22
-373.9447183321536
 32
0.0
 70
    32
 71
     5
 42
-1.0
  3
INABA_S50G
100
AcDbAlignedDimension
 13
4202.82958141817
 23
12268.73679736197
 33
0.0
 14
4202.82958141817
 24
9228.736797361971
 34
0.0
 50
90.0
100
AcDbRotatedDimension
  0
LINE
  5
186D3
330
747D
100
AcDbEntity
  8
部品1
 62
     2
 48
50.0
100
AcDbLine
 10
6008.829581418172
 20
9160.736797361609
 30
0.0
 11
4256.829581418172
 21
9160.736797361609
 31
0.0
  0
LINE
  5
186D4
330
747D
100
AcDbEntity
  8
部品1
 62
     2
 48
50.0
100
AcDbLine
 10
4256.829581418172
 20
9160.736797361609
 30
0.0
 11
4256.829581418172
 21
9228.736797361971
 31
0.0
  0
LINE
  5
186D5
330
747D
100
AcDbEntity
  8
部品1
 62
     2
 48
50.0
100
AcDbLine
 10
6008.829581418172
 20
9228.736797361792
 30
0.0
 11
6008.829581418172
 21
9160.73679736179
 31
0.0
  0
LINE
  5
186D9
330
747D
100
AcDbEntity
  8
部品1
 62
     2
 48
50.0
100
AcDbLine
 10
4282.829581418169
 20
9287.73679736197
 30
0.0
 11
4253.329581418169
 21
9287.73679736197
 31
0.0
  0
LINE
  5
186DA
330
747D
100
AcDbEntity
  8
部品1
 62
     2
 48
50.0
100
AcDbLine
 10
4253.329581418169
 20
9287.73679736197
 30
0.0
 11
4253.329581418169
 21
9278.73679736197
 31
0.0
  0
LINE
  5
186EA
330
747D
100
AcDbEntity
  8
部品1
 62
     2
 48
50.0
100
AcDbLine
 10
4282.829581418169
 20
9292.236797361971
 30
0.0
 11
4282.829581418169
 21
9228.736797361969
 31
0.0
  0
LINE
  5
186ED
330
747D
100
AcDbEntity
  8
部品1
 48
50.0
100
AcDbLine
 10
6002.829581418169
 20
9228.736797361971
 30
0.0
 11
9102.829581418175
 21
9228.736797361973
 31
0.0
  0
LINE
  5
186EE
330
747D
100
AcDbEntity
  8
部品1
 48
50.0
100
AcDbLine
 10
5984.82958141817
 20
9263.736797361969
 30
0.0
 11
9077.829581418177
 21
9263.736797361973
 31
0.0
  0
LINE
  5
186EF
330
747D
100
AcDbEntity
  8
部品1
 48
50.0
100
AcDbLine
 10
5984.829581418168
 20
9278.73679736197
 30
0.0
 11
9062.829581418176
 21
9278.73679736197
 31
0.0
  0
LINE
  5
186F0
330
747D
100
AcDbEntity
  8
部品1
 62
     2
 48
50.0
100
AcDbLine
 10
4272.829581418172
 20
9160.736797361609
 30
0.0
 11
4272.829581418172
 21
9228.736797361971
 31
0.0
  0
LINE
  5
186F2
330
747D
100
AcDbEntity
  8
部品1
 62
     2
 48
50.0
100
AcDbLine
 10
5412.829581418177
 20
9228.736797361969
 30
0.0
 11
4262.829581418173
 21
9228.736797361969
 31
0.0
  0
LINE
  5
186F3
330
747D
100
AcDbEntity
  8
部品1
 62
     2
 48
50.0
100
AcDbLine
 10
5992.829581418173
 20
9228.736797361792
 30
0.0
 11
5992.829581418173
 21
9160.73679736179
 31
0.0
  0
LINE
  5
186F4
330
747D
100
AcDbEntity
  8
部品1
 62
     2
 48
50.0
100
AcDbLine
 10
5982.829581418172
 20
9233.736797361791
 30
0.0
 11
5982.829581418172
 21
9228.736797361971
 31
0.0
  0
LINE
  5
186F5
330
747D
100
AcDbEntity
  8
部品1
 62
     2
 48
50.0
100
AcDbLine
 10
6002.829581418173
 20
9228.736797361971
 30
0.0
 11
5982.829581418172
 21
9228.736797361971
 31
0.0
  0
LINE
  5
186F6
330
747D
100
AcDbEntity
  8
部品1
 62
     2
 48
50.0
100
AcDbLine
 10
5404.829581418169
 20
9263.736797361792
 30
0.0
 11
5404.829581418169
 21
9278.736797361792
 31
0.0
  0
LINE
  5
186F7
330
747D
100
AcDbEntity
  8
部品1
 62
     2
 48
50.0
100
AcDbLine
 10
5440.829581418169
 20
9263.736797361792
 30
0.0
 11
5440.829581418169
 21
9278.736797361792
 31
0.0
  0
LINE
  5
186F9
330
747D
100
AcDbEntity
  8
部品1
 62
     2
 48
50.0
100
AcDbLine
 10
6002.829581418173
 20
9233.736797361972
 30
0.0
 11
5428.82958141817
 21
9233.736797361968
 31
0.0
  0
LINE
  5
186FA
330
747D
100
AcDbEntity
  8
部品1
 62
     2
 48
50.0
100
AcDbLine
 10
5404.829581418169
 20
9278.736797361792
 30
0.0
 11
5984.82958141817
 21
9278.736797361792
 31
0.0
  0
LINE
  5
186FB
330
747D
100
AcDbEntity
  8
部品1
 62
     2
 48
50.0
100
AcDbLine
 10
5404.829581418169
 20
9263.736797361792
 30
0.0
 11
5984.82958141817
 21
9263.736797361969
 31
0.0
  0
LINE
  5
186FD
330
747D
100
AcDbEntity
  8
部品1
 62
     2
 48
50.0
100
AcDbLine
 10
5422.829581418169
 20
9278.736797361792
 30
0.0
 11
5422.829581418169
 21
9287.73679736197
 31
0.0
  0
LINE
  5
186FE
330
747D
100
AcDbEntity
  8
細線
 48
50.0
100
AcDbLine
 10
5422.829581418171
 20
9287.73679736197
 30
0.0
 11
9053.829581418176
 21
9287.73679736197
 31
0.0
  0
LINE
  5
186FF
330
747D
100
AcDbEntity
  8
部品1
 62
     2
 48
50.0
100
AcDbLine
 10
5422.829581418171
 20
9287.73679736197
 30
0.0
 11
5393.329581418171
 21
9287.73679736197
 31
0.0
  0
LINE
  5
18700
330
747D
100
AcDbEntity
  8
部品1
 62
     2
 48
50.0
100
AcDbLine
 10
5393.329581418171
 20
9292.236797361971
 30
0.0
 11
5393.329581418171
 21
9228.736797361971
 31
0.0
  0
LINE
  5
18705
330
747D
100
AcDbEntity
  8
部品1
 62
     2
 48
50.0
100
AcDbLine
 10
5412.829581418175
 20
9263.736797361799
 30
0.0
 11
5412.829581418175
 21
9223.736797361794
 31
0.0
  0
LINE
  5
18706
330
747D
100
AcDbEntity
  8
部品1
 62
     2
 48
50.0
100
AcDbLine
 10
5412.829581418175
 20
9223.736797361794
 30
0.0
 11
5428.829581418175
 21
9223.736797361848
 31
0.0
  0
LINE
  5
18708
330
747D
100
AcDbEntity
  8
部品1
 62
     2
 48
50.0
100
AcDbLine
 10
5428.829581418173
 20
9233.736797361968
 30
0.0
 11
5428.829581418175
 21
9223.736797361794
 31
0.0
  0
LINE
  5
18709
330
747D
100
AcDbEntity
  8
部品1
 62
     2
 48
50.0
100
AcDbLine
 10
4282.829581418169
 20
9292.236797361971
 30
0.0
 11
5393.329581418171
 21
9292.236797361971
 31
0.0
  0
LINE
  5
1870A
330
747D
100
AcDbEntity
  8
部品1
 62
     2
 48
50.0
100
AcDbLine
 10
5992.829581418173
 20
9176.736797361609
 30
0.0
 11
4867.829581418173
 21
9176.736797361609
 31
0.0
  0
LINE
  5
1870B
330
747D
100
AcDbEntity
  8
部品1
 62
     2
 48
50.0
100
AcDbLine
 10
5992.829581418173
 20
9210.73679736161
 30
0.0
 11
5440.329581418173
 21
9210.73679736161
 31
0.0
  0
LINE
  5
18711
330
747D
100
AcDbEntity
  8
部品1
 62
     2
 48
50.0
100
AcDbLine
 10
4282.829581418169
 20
9262.03679736197
 30
0.0
 11
5393.329581418171
 21
9262.03679736197
 31
0.0
  0
LINE
  5
18712
330
747D
100
AcDbEntity
  8
部品1
 62
     2
 48
50.0
100
AcDbLine
 10
4282.829581418169
 20
9248.536797361969
 30
0.0
 11
5393.329581418171
 21
9248.536797361969
 31
0.0
  0
LINE
  5
18713
330
747D
100
AcDbEntity
  8
部品1
 62
     2
 48
50.0
100
AcDbLine
 10
4857.829581418172
 20
9187.736797361608
 30
0.0
 11
4857.829581418172
 21
9194.73679736161
 31
0.0
  0
LINE
  5
18714
330
747D
100
AcDbEntity
  8
部品1
 62
     2
 48
50.0
100
AcDbLine
 10
4857.829581418172
 20
9194.73679736161
 30
0.0
 11
4867.829581418173
 21
9194.73679736161
 31
0.0
  0
LINE
  5
18715
330
747D
100
AcDbEntity
  8
部品1
 62
     2
 48
50.0
100
AcDbLine
 10
4867.829581418173
 20
9194.73679736161
 30
0.0
 11
4867.829581418173
 21
9165.736797361608
 31
0.0
  0
LINE
  5
18716
330
747D
100
AcDbEntity
  8
部品1
 62
     2
 48
50.0
100
AcDbLine
 10
4867.829581418173
 20
9165.736797361608
 30
0.0
 11
4273.829581418173
 21
9165.736797361608
 31
0.0
  0
LINE
  5
18717
330
747D
100
AcDbEntity
  8
部品1
 62
     2
 48
50.0
100
AcDbLine
 10
4273.829581418173
 20
9165.736797361608
 30
0.0
 11
4273.829581418173
 21
9194.73679736161
 31
0.0
  0
LINE
  5
18718
330
747D
100
AcDbEntity
  8
部品1
 62
     2
 48
50.0
100
AcDbLine
 10
4273.829581418173
 20
9194.73679736161
 30
0.0
 11
4283.829581418173
 21
9194.73679736161
 31
0.0
  0
LINE
  5
18719
330
747D
100
AcDbEntity
  8
部品1
 62
     2
 48
50.0
100
AcDbLine
 10
4283.829581418173
 20
9194.73679736161
 30
0.0
 11
4283.829581418173
 21
9187.736797361608
 31
0.0
  0
LINE
  5
1871A
330
747D
100
AcDbEntity
  8
部品1
 62
     2
 48
50.0
100
AcDbLine
 10
4283.829581418173
 20
9187.736797361608
 30
0.0
 11
4857.829581418172
 21
9187.736797361608
 31
0.0
  0
LINE
  5
1871D
330
747D
100
AcDbEntity
  8
部品1
 62
     2
 48
50.0
100
AcDbLine
 10
4273.829581418173
 20
9176.736797361609
 30
0.0
 11
4272.829581418172
 21
9176.736797361609
 31
0.0
  0
LINE
  5
1871E
330
747D
100
AcDbEntity
  8
部品1
 62
     2
 48
50.0
100
AcDbLine
 10
5440.329581418173
 20
9228.736797361611
 30
0.0
 11
5440.329581418173
 21
9199.736797361609
 31
0.0
  0
LINE
  5
1871F
330
747D
100
AcDbEntity
  8
部品1
 62
     2
 48
50.0
100
AcDbLine
 10
5430.329581418173
 20
9228.736797361611
 30
0.0
 11
5440.329581418173
 21
9228.736797361611
 31
0.0
  0
LINE
  5
18720
330
747D
100
AcDbEntity
  8
部品1
 62
     2
 48
50.0
100
AcDbLine
 10
5430.329581418173
 20
9221.736797361609
 30
0.0
 11
5430.329581418173
 21
9228.736797361611
 31
0.0
  0
LINE
  5
18721
330
747D
100
AcDbEntity
  8
部品1
 62
     2
 48
50.0
100
AcDbLine
 10
4846.329581418171
 20
9221.736797361609
 30
0.0
 11
5430.329581418173
 21
9221.736797361609
 31
0.0
  0
LINE
  5
18722
330
747D
100
AcDbEntity
  8
部品1
 62
     2
 48
50.0
100
AcDbLine
 10
5440.329581418173
 20
9199.736797361609
 30
0.0
 11
4856.329581418172
 21
9199.736797361609
 31
0.0
  0
LINE
  5
18723
330
747D
100
AcDbEntity
  8
部品1
 62
     2
 48
50.0
100
AcDbLine
 10
4846.329581418173
 20
9189.736797361609
 30
0.0
 11
4846.329581418173
 21
9221.736797361611
 31
0.0
  0
LINE
  5
18726
330
747D
100
AcDbEntity
  8
部品1
 62
     2
 48
50.0
100
AcDbLine
 10
4846.329581418173
 20
9189.736797361609
 30
0.0
 11
4856.329581418172
 21
9189.736797361609
 31
0.0
  0
LINE
  5
18727
330
747D
100
AcDbEntity
  8
部品1
 62
     2
 48
50.0
100
AcDbLine
 10
4856.329581418172
 20
9189.736797361609
 30
0.0
 11
4856.329581418171
 21
9199.736797361609
 31
0.0
  0
LINE
  5
1872A
330
747D
100
AcDbEntity
  8
部品1
 62
     2
 48
50.0
100
AcDbLine
 10
4846.329581418174
 20
9210.73679736161
 30
0.0
 11
4272.829581418172
 21
9210.73679736161
 31
0.0
  0
LINE
  5
18736
330
747D
100
AcDbEntity
  8
部品1
 62
     2
 48
50.0
100
AcDbLine
 10
4295.329581418172
 20
9187.736797361608
 30
0.0
 11
4295.329581418172
 21
9179.736797361609
 31
0.0
  0
LINE
  5
18738
330
747D
100
AcDbEntity
  8
部品1
 62
     2
 48
50.0
100
AcDbLine
 10
4846.329581418173
 20
9187.736797361608
 30
0.0
 11
4846.329581418173
 21
9179.736797361609
 31
0.0
  0
LINE
  5
18739
330
747D
100
AcDbEntity
  8
部品1
 62
     2
 48
50.0
100
AcDbLine
 10
4543.329581418171
 20
9166.736797361609
 30
0.0
 11
4558.329581418171
 21
9166.736797361609
 31
0.0
  0
LINE
  5
1873A
330
747D
100
AcDbEntity
  8
部品1
 62
     2
 48
50.0
100
AcDbLine
 10
4558.329581418171
 20
9166.736797361609
 30
0.0
 11
4558.329581418171
 21
9180.736797361609
 31
0.0
  0
LINE
  5
1873B
330
747D
100
AcDbEntity
  8
部品1
 62
     2
 48
50.0
100
AcDbLine
 10
4558.329581418171
 20
9180.736797361609
 30
0.0
 11
4563.329581418171
 21
9180.736797361609
 31
0.0
  0
LINE
  5
1873C
330
747D
100
AcDbEntity
  8
部品1
 62
     2
 48
50.0
100
AcDbLine
 10
4563.329581418171
 20
9180.736797361609
 30
0.0
 11
4563.329581418171
 21
9177.736797361609
 31
0.0
  0
LINE
  5
1873D
330
747D
100
AcDbEntity
  8
部品1
 62
     2
 48
50.0
100
AcDbLine
 10
4563.329581418171
 20
9177.736797361609
 30
0.0
 11
4578.329581418171
 21
9177.736797361609
 31
0.0
  0
LINE
  5
1873E
330
747D
100
AcDbEntity
  8
部品1
 62
     2
 48
50.0
100
AcDbLine
 10
4583.329581418171
 20
9166.736797361609
 30
0.0
 11
4583.329581418171
 21
9180.736797361609
 31
0.0
  0
LINE
  5
1873F
330
747D
100
AcDbEntity
  8
部品1
 62
     2
 48
50.0
100
AcDbLine
 10
4598.329581418171
 20
9166.736797361609
 30
0.0
 11
4583.329581418171
 21
9166.736797361609
 31
0.0
  0
LINE
  5
18740
330
747D
100
AcDbEntity
  8
部品1
 62
     2
 48
50.0
100
AcDbLine
 10
4578.329581418171
 20
9180.736797361609
 30
0.0
 11
4578.329581418171
 21
9177.736797361609
 31
0.0
  0
LINE
  5
18741
330
747D
100
AcDbEntity
  8
部品1
 62
     2
 48
50.0
100
AcDbLine
 10
4583.329581418171
 20
9180.736797361609
 30
0.0
 11
4578.329581418171
 21
9180.736797361609
 31
0.0
  0
LINE
  5
18742
330
747D
100
AcDbEntity
  8
部品1
 62
     2
 48
50.0
100
AcDbLine
 10
4552.579581418172
 20
9180.736797361609
 30
0.0
 11
4589.079581418173
 21
9180.736797361609
 31
0.0
  0
LINE
  5
18746
330
747D
100
AcDbEntity
  8
部品1
 62
     2
 48
50.0
100
AcDbLine
 10
4589.079581418173
 20
9180.736797361609
 30
0.0
 11
4592.579581418173
 21
9177.23679736161
 31
0.0
  0
LINE
  5
18747
330
747D
100
AcDbEntity
  8
部品1
 62
     2
 48
50.0
100
AcDbLine
 10
4552.579581418172
 20
9180.736797361609
 30
0.0
 11
4549.079581418173
 21
9177.23679736161
 31
0.0
  0
LINE
  5
1874A
330
747D
100
AcDbEntity
  8
部品1
 62
     2
 48
50.0
100
AcDbLine
 10
4867.829581418173
 20
9178.73679736161
 30
0.0
 11
4583.329581418171
 21
9178.73679736161
 31
0.0
  0
LINE
  5
1874B
330
747D
100
AcDbEntity
  8
部品1
 62
     2
 48
50.0
100
AcDbLine
 10
4558.329581418171
 20
9178.73679736161
 30
0.0
 11
4273.829581418173
 21
9178.73679736161
 31
0.0
  0
LINE
  5
1874E
330
747D
100
AcDbEntity
  8
部品1
 62
     2
 48
50.0
100
AcDbLine
 10
5440.329581418173
 20
9212.736797361609
 30
0.0
 11
5155.829581418171
 21
9212.736797361609
 31
0.0
  0
LINE
  5
1874F
330
747D
100
AcDbEntity
  8
部品1
 62
     2
 48
50.0
100
AcDbLine
 10
5130.829581418171
 20
9212.736797361609
 30
0.0
 11
4846.329581418173
 21
9212.736797361609
 31
0.0
  0
LINE
  5
18750
330
747D
100
AcDbEntity
  8
部品1
 62
     2
 48
50.0
100
AcDbLine
 10
5125.079581418173
 20
9214.736797361609
 30
0.0
 11
5161.579581418173
 21
9214.736797361609
 31
0.0
  0
LINE
  5
18751
330
747D
100
AcDbEntity
  8
部品1
 62
     2
 48
50.0
100
AcDbLine
 10
5155.829581418171
 20
9214.736797361609
 30
0.0
 11
5150.829581418172
 21
9214.736797361609
 31
0.0
  0
LINE
  5
18753
330
747D
100
AcDbEntity
  8
部品1
 62
     2
 48
50.0
100
AcDbLine
 10
5125.079581418173
 20
9214.736797361609
 30
0.0
 11
5121.579581418173
 21
9211.236797361609
 31
0.0
  0
LINE
  5
18754
330
747D
100
AcDbEntity
  8
部品1
 62
     2
 48
50.0
100
AcDbLine
 10
5130.829581418171
 20
9214.736797361609
 30
0.0
 11
5135.829581418171
 21
9214.736797361609
 31
0.0
  0
LINE
  5
18755
330
747D
100
AcDbEntity
  8
部品1
 62
     2
 48
50.0
100
AcDbLine
 10
5135.829581418171
 20
9214.736797361609
 30
0.0
 11
5135.829581418171
 21
9211.736797361609
 31
0.0
  0
LINE
  5
18756
330
747D
100
AcDbEntity
  8
部品1
 62
     2
 48
50.0
100
AcDbLine
 10
5135.829581418171
 20
9211.736797361609
 30
0.0
 11
5150.829581418172
 21
9211.736797361609
 31
0.0
  0
LINE
  5
18757
330
747D
100
AcDbEntity
  8
部品1
 62
     2
 48
50.0
100
AcDbLine
 10
5150.829581418172
 20
9214.736797361609
 30
0.0
 11
5150.829581418172
 21
9211.736797361609
 31
0.0
  0
LINE
  5
18758
330
747D
100
AcDbEntity
  8
部品1
 62
     2
 48
50.0
100
AcDbLine
 10
5115.829581418172
 20
9200.73679736161
 30
0.0
 11
5130.829581418171
 21
9200.73679736161
 31
0.0
  0
LINE
  5
18759
330
747D
100
AcDbEntity
  8
部品1
 62
     2
 48
50.0
100
AcDbLine
 10
5130.829581418171
 20
9200.73679736161
 30
0.0
 11
5130.829581418171
 21
9214.736797361609
 31
0.0
  0
LINE
  5
1875A
330
747D
100
AcDbEntity
  8
部品1
 62
     2
 48
50.0
100
AcDbLine
 10
5161.579581418173
 20
9214.736797361609
 30
0.0
 11
5165.079581418172
 21
9211.236797361609
 31
0.0
  0
LINE
  5
1875B
330
747D
100
AcDbEntity
  8
部品1
 62
     2
 48
50.0
100
AcDbLine
 10
5170.829581418171
 20
9200.73679736161
 30
0.0
 11
5155.829581418171
 21
9200.73679736161
 31
0.0
  0
LINE
  5
1875C
330
747D
100
AcDbEntity
  8
部品1
 62
     2
 48
50.0
100
AcDbLine
 10
5155.829581418171
 20
9200.73679736161
 30
0.0
 11
5155.829581418171
 21
9214.736797361609
 31
0.0
  0
LINE
  5
1875D
330
747D
100
AcDbEntity
  8
部品1
 62
     2
 48
50.0
100
AcDbLine
 10
5675.329581418173
 20
9234.73679736197
 30
0.0
 11
5690.329581418173
 21
9234.73679736197
 31
0.0
  0
LINE
  5
1875E
330
747D
100
AcDbEntity
  8
部品1
 62
     2
 48
50.0
100
AcDbLine
 10
5690.329581418173
 20
9234.73679736197
 30
0.0
 11
5695.329581418173
 21
9262.73679736197
 31
0.0
  0
LINE
  5
1875F
330
747D
100
AcDbEntity
  8
部品1
 62
     2
 48
50.0
100
AcDbLine
 10
5695.329581418173
 20
9262.73679736197
 30
0.0
 11
5720.329581418173
 21
9262.73679736197
 31
0.0
  0
LINE
  5
18760
330
747D
100
AcDbEntity
  8
部品1
 62
     2
 48
50.0
100
AcDbLine
 10
5740.329581418173
 20
9234.73679736197
 30
0.0
 11
5725.329581418173
 21
9234.73679736197
 31
0.0
  0
LINE
  5
18761
330
747D
100
AcDbEntity
  8
部品1
 62
     2
 48
50.0
100
AcDbLine
 10
5725.329581418173
 20
9234.73679736197
 30
0.0
 11
5720.329581418173
 21
9262.73679736197
 31
0.0
  0
LINE
  5
18764
330
747D
100
AcDbEntity
  8
部品1
 62
     2
 48
50.0
100
AcDbLine
 10
4867.82958141817
 20
9221.736797361609
 30
0.0
 11
4867.82958141817
 21
9213.73679736161
 31
0.0
  0
LINE
  5
18766
330
747D
100
AcDbEntity
  8
部品1
 62
     2
 48
50.0
100
AcDbLine
 10
5418.829581418172
 20
9221.736797361609
 30
0.0
 11
5418.829581418172
 21
9213.73679736161
 31
0.0
  0
LINE
  5
18768
330
747D
100
AcDbEntity
  8
部品1
 62
     2
 48
50.0
100
AcDbLine
 10
5442.829581418175
 20
9263.736797361795
 30
0.0
 11
5442.829581418175
 21
9259.236797361795
 31
0.0
  0
LINE
  5
1876A
330
747D
100
AcDbEntity
  8
部品1
 62
     2
 48
50.0
100
AcDbLine
 10
5975.329581418169
 20
9263.736797361792
 30
0.0
 11
5975.329581418169
 21
9259.236797361792
 31
0.0
  0
DIMENSION
  5
18778
330
747D
100
AcDbEntity
  8
寸法
 48
50.0
100
AcDbDimension
  2
*D29
 10
5372.829581418173
 20
8532.273498070642
 30
0.0
 11
5407.829581418173
 21
8757.273498070642
 31
0.0
 12
-8164.632845073173
 22
-373.9447183321536
 32
0.0
 70
    32
  1
有効開口部間口\P<>
 71
     5
 42
-1.0
  3
INABA_S50G
100
AcDbAlignedDimension
 13
4282.829581418172
 23
9160.736797361609
 33
0.0
 14
5372.829581418173
 24
9160.736797361609
 34
0.0
100
AcDbRotatedDimension
  0
LINE
  5
189BF
330
747D
100
AcDbEntity
  8
細線
 48
5.0
100
AcDbLine
 10
16058.82958141817
 20
5402.0
 30
0.0
 11
16058.82958141816
 21
4392.5
 31
0.0
  0
LINE
  5
189C0
330
747D
100
AcDbEntity
  8
細線
 48
5.0
100
AcDbLine
 10
16045.82958141817
 20
5402.0
 30
0.0
 11
16045.82958141816
 21
4392.5
 31
0.0
  0
LINE
  5
189C1
330
747D
100
AcDbEntity
  8
細線
 48
5.0
100
AcDbLine
 10
16008.82958141817
 20
5402.0
 30
0.0
 11
16008.82958141817
 21
4392.499999999999
 31
0.0
  0
LINE
  5
189C2
330
747D
100
AcDbEntity
  8
細線
 48
5.0
100
AcDbLine
 10
16021.82958141817
 20
5402.0
 30
0.0
 11
16021.82958141816
 21
4392.5
 31
0.0
  0
LINE
  5
189F7
330
747D
100
AcDbEntity
  8
細線
 48
5.0
100
AcDbLine
 10
16085.67392233051
 20
3243.74934418412
 30
0.0
 11
16081.28369922995
 21
3191.112019182886
 31
0.0
  0
ARC
  5
189FB
330
747D
100
AcDbEntity
  8
細線
 48
5.0
100
AcDbCircle
 10
16033.82958141816
 20
3226.09258006886
 30
0.0
 40
27.3
100
AcDbArc
 50
180.0000000000001
 51
260.0
  0
LINE
  5
189FC
330
747D
100
AcDbEntity
  8
細線
 48
5.0
100
AcDbLine
 10
16042.82958141816
 20
3269.5
 30
0.0
 11
16042.82958141816
 21
3216.376514579341
 31
0.0
  0
ARC
  5
18A01
330
747D
100
AcDbEntity
  8
細線
 48
5.0
100
AcDbCircle
 10
16080.28715939574
 20
3191.195135720452
 30
0.0
 40
1.0
100
AcDbArc
 50
260.0
 51
355.2322728781318
  0
LINE
  5
18A05
330
747D
100
AcDbEntity
  8
細線
 48
5.0
100
AcDbLine
 10
16029.08898616785
 20
3199.207328411627
 30
0.0
 11
16080.11351121807
 21
3190.210327967439
 31
0.0
  0
ARC
  5
18A0D
330
747D
100
AcDbEntity
  8
細線
 48
5.0
100
AcDbCircle
 10
16060.62958141816
 20
3269.5
 30
0.0
 40
0.5
100
AcDbArc
 50
0.0000000000001527
 51
90.0
  0
ARC
  5
18A0E
330
747D
100
AcDbEntity
  8
細線
 48
5.0
100
AcDbCircle
 10
16084.67738249629
 20
3243.832460721685
 30
0.0
 40
1.0
100
AcDbArc
 50
355.2322728781318
 51
79.9999999999998
  0
LINE
  5
18A0F
330
747D
100
AcDbEntity
  8
細線
 48
5.0
100
AcDbLine
 10
16061.12958141816
 20
3249.0
 30
0.0
 11
16056.38898616786
 21
3222.114748342767
 31
0.0
  0
LINE
  5
18A10
330
747D
100
AcDbEntity
  8
細線
 48
5.0
100
AcDbLine
 10
16061.12958141816
 20
3249.0
 30
0.0
 11
16084.85103067396
 21
3244.817268474697
 31
0.0
  0
LINE
  5
18A11
330
747D
100
AcDbEntity
  8
細線
 48
5.0
100
AcDbLine
 10
16061.12958141816
 20
3269.5
 30
0.0
 11
16061.12958141816
 21
3249.0
 31
0.0
  0
LINE
  5
18A12
330
747D
100
AcDbEntity
  8
細線
 48
5.0
100
AcDbLine
 10
16058.82958141816
 20
3343.0
 30
0.0
 11
16058.82958141816
 21
3270.0
 31
0.0
  0
ARC
  5
18A1C
330
747D
100
AcDbEntity
  8
細線
 48
5.0
100
AcDbCircle
 10
16024.32958141816
 20
3269.5
 30
0.0
 40
0.5
100
AcDbArc
 50
359.9999999999998
 51
90.0
  0
ARC
  5
18A1E
330
747D
100
AcDbEntity
  8
細線
 48
5.0
100
AcDbCircle
 10
16007.02958141816
 20
3269.5
 30
0.0
 40
0.5
100
AcDbArc
 50
90.0
 51
180.0
  0
LINE
  5
18A1F
330
747D
100
AcDbEntity
  8
細線
 48
5.0
100
AcDbLine
 10
16024.32958141816
 20
3270.0
 30
0.0
 11
16007.02958141816
 21
3270.0
 31
0.0
  0
LINE
  5
18A20
330
747D
100
AcDbEntity
  8
細線
 48
5.0
100
AcDbLine
 10
16006.52958141816
 20
3269.5
 30
0.0
 11
16006.52958141816
 21
3226.09258006886
 31
0.0
  0
LINE
  5
18A21
330
747D
100
AcDbEntity
  8
細線
 48
5.0
100
AcDbLine
 10
16024.82958141816
 20
3269.5
 30
0.0
 11
16024.82958141816
 21
3219.550400232094
 31
0.0
  0
LINE
  5
18A22
330
747D
100
AcDbEntity
  8
細線
 48
5.0
100
AcDbLine
 10
16043.32958141816
 20
3270.0
 30
0.0
 11
16024.32958141816
 21
3270.0
 31
0.0
  0
ARC
  5
18A23
330
747D
100
AcDbEntity
  8
細線
 48
5.0
100
AcDbCircle
 10
16043.32958141816
 20
3269.5
 30
0.0
 40
0.5
100
AcDbArc
 50
90.0
 51
180.0000000000001
  0
LINE
  5
18A24
330
747D
100
AcDbEntity
  8
細線
 48
5.0
100
AcDbLine
 10
16021.82958141816
 20
3343.0
 30
0.0
 11
16021.82958141816
 21
3270.0
 31
0.0
  0
LINE
  5
18A25
330
747D
100
AcDbEntity
  8
細線
 48
5.0
100
AcDbLine
 10
16045.82958141816
 20
3343.0
 30
0.0
 11
16045.82958141816
 21
3270.0
 31
0.0
  0
LINE
  5
18A26
330
747D
100
AcDbEntity
  8
細線
 48
5.0
100
AcDbLine
 10
16008.82958141816
 20
3343.0
 30
0.0
 11
16008.82958141816
 21
3270.0
 31
0.0
  0
LINE
  5
18A2A
330
747D
100
AcDbEntity
  8
細線
 48
5.0
100
AcDbLine
 10
16060.62958141816
 20
3270.0
 30
0.0
 11
16043.32958141816
 21
3270.0
 31
0.0
  0
LINE
  5
18A3E
330
747D
100
AcDbEntity
  8
細線
 48
5.0
100
AcDbLine
 10
16058.82958141817
 20
5515.809238873036
 30
0.0
 11
16063.82958141817
 21
5515.809238873036
 31
0.0
  0
LINE
  5
18A3F
330
747D
100
AcDbEntity
  8
細線
 48
5.0
100
AcDbLine
 10
16012.52958141817
 20
5531.519149099527
 30
0.0
 11
16012.52958141817
 21
5520.509238873036
 31
0.0
  0
LINE
  5
18A40
330
747D
100
AcDbEntity
  8
細線
 48
5.0
100
AcDbLine
 10
16063.82958141817
 20
5490.809238873036
 30
0.0
 11
16065.32958141817
 21
5490.809238873037
 31
0.0
  0
LINE
  5
18A41
330
747D
100
AcDbEntity
  8
細線
 48
5.0
100
AcDbLine
 10
16058.82958141817
 20
5505.509238873036
 30
0.0
 11
16058.82958141817
 21
5515.809238873036
 31
0.0
  0
LINE
  5
18A42
330
747D
100
AcDbEntity
  8
細線
 48
5.0
100
AcDbLine
 10
16058.82958141817
 20
5515.809238873036
 30
0.0
 11
16058.82958141817
 21
5515.809238873036
 31
0.0
  0
LINE
  5
18A43
330
747D
100
AcDbEntity
  8
細線
 48
5.0
100
AcDbLine
 10
16064.32958141817
 20
5490.809238873037
 30
0.0
 11
16064.32958141817
 21
5490.809238873037
 31
0.0
  0
ARC
  5
18A44
330
747D
100
AcDbEntity
  8
細線
 48
5.0
100
AcDbCircle
 10
16065.32958141817
 20
5489.809238873037
 30
0.0
 40
1.0
100
AcDbArc
 50
0.0
 51
90.0
  0
LINE
  5
18A45
330
747D
100
AcDbEntity
  8
細線
 48
5.0
100
AcDbLine
 10
16054.62958141817
 20
5503.009238873037
 30
0.0
 11
16054.62958141817
 21
5503.009238873037
 31
0.0
  0
ARC
  5
18A46
330
747D
100
AcDbEntity
  8
細線
 48
5.0
100
AcDbCircle
 10
16057.12958141817
 20
5503.009238873037
 30
0.0
 40
2.5
100
AcDbArc
 50
90.0
 51
180.0
  0
ARC
  5
18A47
330
747D
100
AcDbEntity
  8
細線
 48
5.0
100
AcDbCircle
 10
16052.12958141817
 20
5503.009238873037
 30
0.0
 40
2.5
100
AcDbArc
 50
270.0
 51
0.0
  0
LINE
  5
18A48
330
747D
100
AcDbEntity
  8
細線
 48
5.0
100
AcDbLine
 10
16057.12958141817
 20
5505.509238873036
 30
0.0
 11
16058.82958141817
 21
5505.509238873036
 31
0.0
  0
LINE
  5
18A49
330
747D
100
AcDbEntity
  8
細線
 48
5.0
100
AcDbLine
 10
16063.82958141817
 20
5490.809238873037
 30
0.0
 11
16063.82958141817
 21
5515.809238873036
 31
0.0
  0
LINE
  5
18A4A
330
747D
100
AcDbEntity
  8
細線
 48
5.0
100
AcDbLine
 10
16002.32958141817
 20
5490.809238873037
 30
0.0
 11
16003.82958141817
 21
5490.809238873037
 31
0.0
  0
LINE
  5
18A4C
330
747D
100
AcDbEntity
  8
細線
 48
5.0
100
AcDbLine
 10
16003.32958141817
 20
5490.809238873037
 30
0.0
 11
16003.32958141817
 21
5490.809238873037
 31
0.0
  0
ARC
  5
18A4D
330
747D
100
AcDbEntity
  8
細線
 48
5.0
100
AcDbCircle
 10
16002.32958141817
 20
5489.809238873037
 30
0.0
 40
1.0
100
AcDbArc
 50
90.0
 51
180.0
  0
LINE
  5
18A4F
330
747D
100
AcDbEntity
  8
細線
 48
5.0
100
AcDbLine
 10
16003.82958141817
 20
5529.809238873037
 30
0.0
 11
16003.82958141817
 21
5502.809238873036
 31
0.0
  0
LINE
  5
18A51
330
747D
100
AcDbEntity
  8
細線
 48
5.0
100
AcDbLine
 10
16003.82958141817
 20
5531.657535213888
 30
0.0
 11
16003.82958141817
 21
5490.809238873037
 31
0.0
  0
ARC
  5
18A52
330
747D
100
AcDbEntity
  8
細線
 48
5.0
100
AcDbCircle
 10
16032.52958141817
 20
5520.509238873036
 30
0.0
 40
20.0
100
AcDbArc
 50
180.0
 51
270.0
  0
LINE
  5
18A53
330
747D
100
AcDbEntity
  8
細線
 48
5.0
100
AcDbLine
 10
16032.52958141817
 20
5500.509238873036
 30
0.0
 11
16052.12958141817
 21
5500.509238873036
 31
0.0
  0
LINE
  5
18A54
330
747D
100
AcDbEntity
  8
細線
 48
5.0
100
AcDbLine
 10
16061.12958141817
 20
5470.809238873036
 30
0.0
 11
16065.84095958375
 21
5476.245444448705
 31
0.0
  0
ARC
  5
18A55
330
747D
100
AcDbEntity
  8
細線
 48
5.0
100
AcDbCircle
 10
16064.32958141817
 20
5477.555305525541
 30
0.0
 40
2.0
100
AcDbArc
 50
319.0856167799749
 51
360.0
  0
ARC
  5
18A56
330
747D
100
AcDbEntity
  8
細線
 48
5.0
100
AcDbCircle
 10
16060.62958141817
 20
5457.309238873037
 30
0.0
 40
0.5
100
AcDbArc
 50
270.0
 51
0.0
  0
LINE
  5
18A57
330
747D
100
AcDbEntity
  8
細線
 48
5.0
100
AcDbLine
 10
16058.82958141817
 20
5456.809238873036
 30
0.0
 11
16058.82958141817
 21
5422.0
 31
0.0
  0
LINE
  5
18A58
330
747D
100
AcDbEntity
  8
細線
 48
5.0
100
AcDbLine
 10
16045.82958141817
 20
5456.809238873036
 30
0.0
 11
16045.82958141817
 21
5422.0
 31
0.0
  0
LINE
  5
18A59
330
747D
100
AcDbEntity
  8
細線
 48
5.0
100
AcDbLine
 10
16061.12958141817
 20
5470.809238873036
 30
0.0
 11
16061.12958141817
 21
5457.309238873037
 31
0.0
  0
LINE
  5
18A5A
330
747D
100
AcDbEntity
  8
細線
 48
5.0
100
AcDbLine
 10
16042.82958141817
 20
5460.809238873037
 30
0.0
 11
16042.82958141817
 21
5456.809238873036
 31
0.0
  0
LINE
  5
18A5B
330
747D
100
AcDbEntity
  8
細線
 48
5.0
100
AcDbLine
 10
16006.52958141817
 20
5470.809238873036
 30
0.0
 11
16001.81820325259
 21
5476.245444448705
 31
0.0
  0
ARC
  5
18A5D
330
747D
100
AcDbEntity
  8
細線
 48
5.0
100
AcDbCircle
 10
16003.32958141817
 20
5477.555305525541
 30
0.0
 40
2.0
100
AcDbArc
 50
179.9999999999999
 51
220.9143832200251
  0
LINE
  5
18A61
330
747D
100
AcDbEntity
  8
細線
 48
5.0
100
AcDbLine
 10
16027.82958141817
 20
5463.809238873036
 30
0.0
 11
16039.82958141817
 21
5463.809238873036
 31
0.0
  0
LINE
  5
18A62
330
747D
100
AcDbEntity
  8
細線
 48
5.0
100
AcDbLine
 10
16024.82958141817
 20
5460.809238873037
 30
0.0
 11
16024.82958141817
 21
5456.809238873036
 31
0.0
  0
LINE
  5
18A63
330
747D
100
AcDbEntity
  8
細線
 48
5.0
100
AcDbLine
 10
16021.82958141817
 20
5456.809238873036
 30
0.0
 11
16021.82958141817
 21
5422.0
 31
0.0
  0
ARC
  5
18A64
330
747D
100
AcDbEntity
  8
細線
 48
5.0
100
AcDbCircle
 10
16027.82958141817
 20
5460.809238873037
 30
0.0
 40
3.0
100
AcDbArc
 50
90.0
 51
180.0
  0
ARC
  5
18A65
330
747D
100
AcDbEntity
  8
細線
 48
5.0
100
AcDbCircle
 10
16007.02958141817
 20
5457.309238873037
 30
0.0
 40
0.5
100
AcDbArc
 50
180.0
 51
270.0
  0
LINE
  5
18A66
330
747D
100
AcDbEntity
  8
細線
 48
5.0
100
AcDbLine
 10
16008.82958141817
 20
5456.809238873036
 30
0.0
 11
16008.82958141817
 21
5422.0
 31
0.0
  0
LINE
  5
18A67
330
747D
100
AcDbEntity
  8
細線
 48
5.0
100
AcDbLine
 10
16006.52958141817
 20
5470.809238873036
 30
0.0
 11
16006.52958141817
 21
5457.309238873037
 31
0.0
  0
LINE
  5
18A69
330
747D
100
AcDbEntity
  8
細線
 48
5.0
100
AcDbLine
 10
16013.82958141817
 20
5480.809238873036
 30
0.0
 11
16053.82958141817
 21
5480.809238873036
 31
0.0
  0
LINE
  5
18A6A
330
747D
100
AcDbEntity
  8
細線
 48
5.0
100
AcDbLine
 10
16007.02958141817
 20
5456.809238873036
 30
0.0
 11
16060.62958141817
 21
5456.809238873036
 31
0.0
  0
ARC
  5
18A6B
330
747D
100
AcDbEntity
  8
細線
 48
5.0
100
AcDbCircle
 10
16039.82958141817
 20
5460.809238873037
 30
0.0
 40
3.0
100
AcDbArc
 50
0.0
 51
90.0
  0
ARC
  5
18A6C
330
747D
100
AcDbEntity
  8
細線
 48
5.0
100
AcDbCircle
 10
16013.82958141817
 20
5490.809238873037
 30
0.0
 40
10.0
100
AcDbArc
 50
180.0
 51
270.0
  0
LINE
  5
18A6E
330
747D
100
AcDbEntity
  8
細線
 48
5.0
100
AcDbLine
 10
16001.32958141817
 20
5489.809238873037
 30
0.0
 11
16001.32958141817
 21
5477.555305525541
 31
0.0
  0
ARC
  5
18A6F
330
747D
100
AcDbEntity
  8
細線
 48
5.0
100
AcDbCircle
 10
16053.82958141817
 20
5490.809238873037
 30
0.0
 40
10.0
100
AcDbArc
 50
270.0
 51
0.0
  0
LINE
  5
18A70
330
747D
100
AcDbEntity
  8
細線
 48
5.0
100
AcDbLine
 10
16066.32958141817
 20
5489.809238873037
 30
0.0
 11
16066.32958141817
 21
5477.555305525541
 31
0.0
  0
LINE
  5
18D8B
330
747D
100
AcDbEntity
  8
細線
100
AcDbLine
 10
9152.329581418175
 20
5694.500002624811
 30
0.0
 11
4155.429712967133
 21
5694.500002624818
 31
0.0
  0
LINE
  5
18D8C
330
747D
100
AcDbEntity
  8
部品1
100
AcDbLine
 10
9138.397416958698
 20
5715.000000008445
 30
0.0
 11
4167.26174179908
 21
5715.000000008467
 31
0.0
  0
LINE
  5
18D8D
330
747D
100
AcDbEntity
  8
細線
100
AcDbLine
 10
9161.324725755608
 20
5601.045828186498
 30
0.0
 11
4144.334432710912
 21
5601.045828186505
 31
0.0
  0
LINE
  5
18D8E
330
747D
100
AcDbEntity
  8
部品1
100
AcDbLine
 10
9143.51364187628
 20
5580.000001569558
 30
0.0
 11
4162.145516590237
 21
5580.000001569568
 31
0.0
  0
ARC
  5
18D8F
330
747D
100
AcDbEntity
  8
部品1
100
AcDbCircle
 10
4167.261984657892
 20
5711.500000016894
 30
0.0
 40
3.5
100
AcDbArc
 50
90.0
 51
157.4999956391549
  0
ARC
  5
18D90
330
747D
100
AcDbEntity
  8
部品1
100
AcDbCircle
 10
4155.429712967133
 20
5696.000002624811
 30
0.0
 40
1.5
100
AcDbArc
 50
270.0000000000003
 51
337.4999956391484
  0
LINE
  5
18D91
330
747D
100
AcDbEntity
  8
部品1
100
AcDbLine
 10
4156.815532222208
 20
5695.425977370788
 30
0.0
 11
4164.028406396046
 21
5712.839392276281
 31
0.0
  0
ARC
  5
18D92
330
747D
100
AcDbEntity
  8
部品1
100
AcDbCircle
 10
4153.329577048345
 20
5679.000002624809
 30
0.0
 40
15.5
100
AcDbArc
 50
90.00000000000033
 51
183.979378091838
  0
LINE
  5
18D93
330
747D
100
AcDbEntity
  8
部品1
 48
50.0
100
AcDbLine
 10
4153.329577048345
 20
5694.500002624809
 30
0.0
 11
4155.429712967133
 21
5694.500002624818
 31
0.0
  0
ARC
  5
18D94
330
747D
100
AcDbEntity
  8
部品1
100
AcDbCircle
 10
4162.145516590237
 20
5595.50000156956
 30
0.0
 40
15.5
100
AcDbArc
 50
183.9793780918396
 51
270.0
  0
LINE
  5
18D95
330
747D
100
AcDbEntity
  8
部品1
100
AcDbLine
 10
4146.382226446124
 20
5598.746322390583
 30
0.0
 11
4146.682885657891
 21
5594.424341469881
 31
0.0
  0
ARC
  5
18D96
330
747D
100
AcDbEntity
  8
部品1
100
AcDbCircle
 10
4143.8882537151
 20
5598.572828826121
 30
0.0
 40
2.5
100
AcDbArc
 50
3.979378091802891
 51
83.07390809407314
  0
ARC
  5
18D97
330
747D
100
AcDbEntity
  8
部品1
100
AcDbCircle
 10
4144.334432710912
 20
5602.245828186495
 30
0.0
 40
1.199999999999999
100
AcDbArc
 50
183.979378091838
 51
270.0000000000003
  0
LINE
  5
18D98
330
747D
100
AcDbEntity
  8
部品1
100
AcDbLine
 10
4137.866946115998
 20
5677.92434252513
 30
0.0
 11
4143.137325800021
 21
5602.162551275553
 31
0.0
  0
LINE
  5
18D99
330
747D
100
AcDbEntity
  8
細線
 48
50.0
100
AcDbLine
 10
4175.829581709429
 20
5580.000001569558
 30
0.0
 11
4175.829581709429
 21
5715.0
 31
0.0
  0
LINE
  5
18D9A
330
747D
100
AcDbEntity
  8
部品1
100
AcDbLine
 10
9148.843626244312
 20
5695.425977370788
 30
0.0
 11
9141.630752070474
 21
5712.839392276281
 31
0.0
  0
ARC
  5
18D9B
330
747D
100
AcDbEntity
  8
部品1
100
AcDbCircle
 10
9138.397173808627
 20
5711.500000016894
 30
0.0
 40
3.5
100
AcDbArc
 50
22.50000436084501
 51
90.0
  0
ARC
  5
18D9C
330
747D
100
AcDbEntity
  8
部品1
100
AcDbCircle
 10
9150.229445499389
 20
5696.000002624811
 30
0.0
 40
1.5
100
AcDbArc
 50
202.5000043608516
 51
269.9999999999997
  0
ARC
  5
18D9D
330
747D
100
AcDbEntity
  8
部品1
100
AcDbCircle
 10
9152.329581418175
 20
5679.000002624809
 30
0.0
 40
15.5
100
AcDbArc
 50
356.0206219081619
 51
89.99999999999968
  0
LINE
  5
18D9E
330
747D
100
AcDbEntity
  8
部品1
100
AcDbLine
 10
9159.276932020395
 20
5598.746322390583
 30
0.0
 11
9158.976272808629
 21
5594.424341469881
 31
0.0
  0
ARC
  5
18D9F
330
747D
100
AcDbEntity
  8
部品1
100
AcDbCircle
 10
9143.51364187628
 20
5595.50000156956
 30
0.0
 40
15.5
100
AcDbArc
 50
270.0
 51
356.0206219081603
  0
ARC
  5
18DA0
330
747D
100
AcDbEntity
  8
部品1
100
AcDbCircle
 10
9161.324725755608
 20
5602.245828186495
 30
0.0
 40
1.199999999999999
100
AcDbArc
 50
269.9999999999997
 51
356.0206219081619
  0
ARC
  5
18DA1
330
747D
100
AcDbEntity
  8
部品1
100
AcDbCircle
 10
9161.770904751419
 20
5598.572828826121
 30
0.0
 40
2.5
100
AcDbArc
 50
96.92609190592689
 51
176.0206219081971
  0
LINE
  5
18DA2
330
747D
100
AcDbEntity
  8
部品1
100
AcDbLine
 10
9167.792212350521
 20
5677.92434252513
 30
0.0
 11
9162.5218326665
 21
5602.162551275553
 31
0.0
  0
LINE
  5
18DA3
330
747D
100
AcDbEntity
  8
細線
 48
50.0
100
AcDbLine
 10
9129.829577048347
 20
5580.000001569558
 30
0.0
 11
9129.829577048347
 21
5715.0
 31
0.0
  0
LINE
  5
18E5B
330
747D
100
AcDbEntity
  8
細線
 48
50.0
100
AcDbLine
 10
4978.829581418173
 20
5575.500036981837
 30
0.0
 11
4706.829581418173
 21
5575.500036981837
 31
0.0
  0
LINE
  5
18E5C
330
747D
100
AcDbEntity
  8
細線
 48
50.0
100
AcDbLine
 10
6138.829581418173
 20
5575.500036981837
 30
0.0
 11
5866.829581418173
 21
5575.500036981837
 31
0.0
  0
LINE
  5
18E5D
330
747D
100
AcDbEntity
  8
細線
 48
50.0
100
AcDbLine
 10
7166.829581418173
 20
5575.500036981837
 30
0.0
 11
7438.829581418173
 21
5575.500036981837
 31
0.0
  0
LINE
  5
18E5E
330
747D
100
AcDbEntity
  8
細線
 48
50.0
100
AcDbLine
 10
8326.829581418172
 20
5575.500036981837
 30
0.0
 11
8598.829581418172
 21
5575.500036981837
 31
0.0
  0
LINE
  5
18F7B
330
747D
100
AcDbEntity
  8
部品1
 48
50.0
100
AcDbLine
 10
12942.82958141817
 20
5580.347178439015
 30
0.0
 11
12942.82958141817
 21
3175.0
 31
0.0
  0
LINE
  5
18FA9
330
747D
100
AcDbEntity
  8
部品1
 48
50.0
100
AcDbLine
 10
15982.82958141817
 20
5531.991570662346
 30
0.0
 11
15982.82958141817
 21
3175.0
 31
0.0
  0
LINE
  5
18FEF
330
747D
100
AcDbEntity
  8
部品1
100
AcDbLine
 10
12827.40813407785
 20
5697.804810746246
 30
0.0
 11
12834.10013006798
 21
5712.423971429561
 31
0.0
  0
LINE
  5
18FF0
330
747D
100
AcDbEntity
  8
部品1
100
AcDbLine
 10
12807.83795305646
 20
5680.962577858222
 30
0.0
 11
12810.38580755857
 21
5603.472826441323
 31
0.0
  0
ARC
  5
18FF3
330
747D
100
AcDbEntity
  8
部品1
100
AcDbCircle
 10
12823.32958141817
 20
5681.471940894554
 30
0.0
 40
15.5
100
AcDbArc
 50
88.13874351680366
 51
181.8832004883104
  0
LINE
  5
18FF4
330
747D
100
AcDbEntity
  8
部品1
100
AcDbLine
 10
12813.5035812939
 20
5599.940194712306
 30
0.0
 11
12813.59535490714
 21
5597.149017088034
 31
0.0
  0
ARC
  5
18FF5
330
747D
100
AcDbEntity
  8
部品1
100
AcDbCircle
 10
12811.58515943173
 20
5603.512260998975
 30
0.0
 40
1.199999999999999
100
AcDbArc
 50
181.8832004883104
 51
260.9777304905277
  0
ARC
  5
18FF6
330
747D
100
AcDbEntity
  8
部品1
100
AcDbCircle
 10
12811.00493155814
 20
5599.858039383867
 30
0.0
 40
2.5
100
AcDbArc
 50
1.883200488304429
 51
80.9777304905255
  0
LINE
  5
18FF8
330
747D
100
AcDbEntity
  8
細線
 48
50.0
100
AcDbLine
 10
12846.42748635367
 20
5714.302519249602
 30
0.0
 11
12842.12646236559
 21
5581.949007559671
 31
0.0
  0
LINE
  5
18FF9
330
747D
100
AcDbEntity
  8
部品1
 48
50.0
100
AcDbLine
 10
12837.34578971424
 20
5714.466629415621
 30
0.0
 11
16052.50261261331
 21
5656.367362182471
 31
0.0
  0
LINE
  5
18FFA
330
747D
100
AcDbEntity
  8
細線
 48
50.0
100
AcDbLine
 10
16059.73767084559
 20
5646.025833613869
 30
0.0
 11
12826.020629012
 21
5696.929326860823
 31
0.0
  0
LINE
  5
18FFB
330
747D
100
AcDbEntity
  8
部品1
 48
50.0
100
AcDbLine
 10
16050.11846310263
 20
5530.921243435219
 30
0.0
 11
12828.8404644795
 21
5582.16034061977
 31
0.0
  0
LINE
  5
18FFC
330
747D
100
AcDbEntity
  8
細線
 48
50.0
100
AcDbLine
 10
16068.38919924369
 20
5550.746404000586
 30
0.0
 11
12811.46376912036
 21
5602.315572311723
 31
0.0
  0
LINE
  5
18FFD
330
747D
100
AcDbEntity
  8
部品1
100
AcDbLine
 10
16058.33578614472
 20
5647.055403573375
 30
0.0
 11
16055.71977994811
 21
5654.088160010451
 31
0.0
  0
LINE
  5
19000
330
747D
100
AcDbEntity
  8
部品1
100
AcDbLine
 10
16077.74287520147
 20
5628.848097685023
 30
0.0
 11
16069.54444257119
 21
5551.821266955432
 31
0.0
  0
LINE
  5
19001
330
747D
100
AcDbEntity
  8
部品1
100
AcDbLine
 10
16066.17676303539
 20
5548.526007551111
 30
0.0
 11
16065.77792395765
 21
5544.778790062705
 31
0.0
  0
ARC
  5
19002
330
747D
100
AcDbEntity
  8
部品1
 48
50.0
100
AcDbCircle
 10
16068.3511825403
 20
5551.948272855597
 30
0.0
 40
1.199999999999999
100
AcDbArc
 50
274.8300061226041
 51
353.9245361249011
  0
ARC
  5
19003
330
747D
100
AcDbEntity
  8
部品1
 48
50.0
100
AcDbCircle
 10
16068.66272143309
 20
5548.261411925768
 30
0.0
 40
2.5
100
AcDbArc
 50
94.83000612260093
 51
173.9245361249088
  0
ARC
  5
19004
330
747D
100
AcDbEntity
  8
部品1
100
AcDbCircle
 10
16062.32958141817
 20
5630.485286065472
 30
0.0
 40
15.5
100
AcDbArc
 50
353.9245361249011
 51
88.13874351680366
  0
LINE
  5
19005
330
747D
100
AcDbEntity
  8
細線
 48
50.0
100
AcDbLine
 10
16040.47879231387
 20
5656.897457677263
 30
0.0
 11
16036.39210328701
 21
5531.1395810903
 31
0.0
  0
ARC
  5
19007
330
747D
100
AcDbEntity
  8
部品1
100
AcDbCircle
 10
16052.43937643105
 20
5652.867933488349
 30
0.0
 40
3.5
100
AcDbArc
 50
20.40391857757644
 51
88.96475328401214
  0
ARC
  5
19008
330
747D
100
AcDbEntity
  8
部品1
 48
50.0
100
AcDbCircle
 10
12837.28255353197
 20
5710.967200721499
 30
0.0
 40
3.5
100
AcDbArc
 50
88.96475328401214
 51
155.4038180356338
  0
ARC
  5
19009
330
747D
100
AcDbEntity
  8
部品1
100
AcDbCircle
 10
16050.36498189197
 20
5546.41928293983
 30
0.0
 40
15.5
100
AcDbArc
 50
269.0887044041855
 51
353.9245361249208
  0
ARC
  5
1900A
330
747D
100
AcDbEntity
  8
部品1
100
AcDbCircle
 10
12829.08698326884
 20
5597.658380124381
 30
0.0
 40
15.5
100
AcDbArc
 50
181.8832004883684
 51
269.0887044041855
  0
LINE
  5
1900B
330
747D
100
AcDbEntity
  8
部品1
 48
50.0
100
AcDbLine
 10
12826.020629012
 20
5696.929326860822
 30
0.0
 11
12823.83301119891
 21
5696.963763203626
 31
0.0
  0
ARC
  5
1900C
330
747D
100
AcDbEntity
  8
部品1
100
AcDbCircle
 10
12826.04423830757
 20
5698.429141049701
 30
0.0
 40
1.5
100
AcDbArc
 50
269.0981540988974
 51
335.4038180356239
  0
ARC
  5
1900D
330
747D
100
AcDbEntity
  8
部品1
100
AcDbCircle
 10
16059.76128014116
 20
5647.525647802748
 30
0.0
 40
1.5
100
AcDbArc
 50
200.4039185775899
 51
269.0981540988988
  0
LINE
  5
1900E
330
747D
100
AcDbEntity
  8
部品1
 48
50.0
100
AcDbLine
 10
16059.73767084559
 20
5646.025833613869
 30
0.0
 11
16062.83301119892
 21
5645.977108374545
 31
0.0
  0
LINE
  5
1903E
330
747D
100
AcDbEntity
  8
部品1
 48
50.0
100
AcDbLine
 10
6652.82957923326
 20
5580.000001569563
 30
0.0
 11
6652.82957923326
 21
5445.0
 31
0.0
  0
LINE
  5
1906A
330
747D
100
AcDbEntity
  8
細線
 48
5.0
100
AcDbLine
 10
15982.82958141817
 20
5475.0
 30
0.0
 11
15999.82958141817
 21
5475.0
 31
0.0
  0
LINE
  5
1906B
330
747D
100
AcDbEntity
  8
細線
 48
5.0
100
AcDbLine
 10
15982.82958141817
 20
5530.0
 30
0.0
 11
16003.82958141817
 21
5530.0
 31
0.0
  0
ARC
  5
19070
330
747D
100
AcDbEntity
  8
細線
 48
5.0
100
AcDbCircle
 10
15999.82958141817
 20
5478.0
 30
0.0
 40
3.0
100
AcDbArc
 50
270.0
 51
317.6846849512559
  0
LINE
  5
19075
330
747D
100
AcDbEntity
  8
細線
 48
5.0
100
AcDbLine
 10
15982.82958141817
 20
5441.399999999999
 30
0.0
 11
16001.95677218061
 21
5422.846624960438
 31
0.0
  0
LINE
  5
19079
330
747D
100
AcDbEntity
  8
細線
 48
5.0
100
AcDbLine
 10
15982.82958141817
 20
5401.999999999999
 30
0.0
 11
16060.02958141817
 21
5402.0
 31
0.0
  0
LINE
  5
1907A
330
747D
100
AcDbEntity
  8
細線
 48
5.0
100
AcDbLine
 10
16004.04554596898
 20
5421.999999999999
 30
0.0
 11
16060.02958141817
 21
5422.000000000001
 31
0.0
  0
LINE
  5
1907C
330
747D
100
AcDbEntity
  8
細線
 48
5.0
100
AcDbLine
 10
16060.02958141817
 20
5422.0
 30
0.0
 11
16060.02958141817
 21
5402.0
 31
0.0
  0
LINE
  5
1907D
330
747D
100
AcDbEntity
  8
細線
 48
5.0
100
AcDbLine
 10
16007.62958141817
 20
5422.0
 30
0.0
 11
16007.62958141817
 21
5401.999999999999
 31
0.0
  0
ARC
  5
1907E
330
747D
100
AcDbEntity
  8
細線
 48
5.0
100
AcDbCircle
 10
16004.04554596898
 20
5424.999999999999
 30
0.0
 40
3.0
100
AcDbArc
 50
225.8724571229026
 51
270.0000000000009
  0
LINE
  5
1907F
330
747D
100
AcDbEntity
  8
細線
 48
5.0
100
AcDbLine
 10
16007.62958141817
 20
3342.999999999999
 30
0.0
 11
16007.62958141817
 21
3363.0
 31
0.0
  0
LINE
  5
19080
330
747D
100
AcDbEntity
  8
細線
 48
5.0
100
AcDbLine
 10
16060.02958141817
 20
3342.999999999999
 30
0.0
 11
16060.02958141817
 21
3362.999999999999
 31
0.0
  0
ARC
  5
19081
330
747D
100
AcDbEntity
  8
細線
 48
5.0
100
AcDbCircle
 10
16004.04554596898
 20
3340.0
 30
0.0
 40
3.0
100
AcDbArc
 50
89.99999999999909
 51
134.1275428770974
  0
LINE
  5
19082
330
747D
100
AcDbEntity
  8
細線
 48
5.0
100
AcDbLine
 10
15982.82958141817
 20
3323.6
 30
0.0
 11
16001.95677218061
 21
3342.153375039561
 31
0.0
  0
LINE
  5
19083
330
747D
100
AcDbEntity
  8
細線
 48
5.0
100
AcDbLine
 10
16004.04554596898
 20
3343.0
 30
0.0
 11
16060.02958141817
 21
3342.999999999999
 31
0.0
  0
LINE
  5
19084
330
747D
100
AcDbEntity
  8
細線
 48
5.0
100
AcDbLine
 10
15982.82958141817
 20
3363.0
 30
0.0
 11
16060.02958141817
 21
3362.999999999999
 31
0.0
  0
LINE
  5
19095
330
747D
100
AcDbEntity
  8
細線
 48
5.0
100
AcDbLine
 10
16007.62958141816
 20
4392.499999999999
 30
0.0
 11
16060.02958141817
 21
4392.5
 31
0.0
  0
LINE
  5
19096
330
747D
100
AcDbEntity
  8
細線
 48
5.0
100
AcDbLine
 10
16007.62958141817
 20
4372.5
 30
0.0
 11
16060.02958141817
 21
4372.5
 31
0.0
  0
LINE
  5
19097
330
747D
100
AcDbEntity
  8
細線
 48
5.0
100
AcDbLine
 10
16060.02958141817
 20
4392.5
 30
0.0
 11
16060.02958141817
 21
4372.5
 31
0.0
  0
LINE
  5
19098
330
747D
100
AcDbEntity
  8
細線
 48
5.0
100
AcDbLine
 10
16007.62958141817
 20
4392.5
 30
0.0
 11
16007.62958141817
 21
4372.5
 31
0.0
  0
LINE
  5
19099
330
747D
100
AcDbEntity
  8
細線
 48
5.0
100
AcDbLine
 10
16058.82958141816
 20
4372.5
 30
0.0
 11
16058.82958141816
 21
3362.999999999999
 31
0.0
  0
LINE
  5
1909A
330
747D
100
AcDbEntity
  8
細線
 48
5.0
100
AcDbLine
 10
16045.82958141816
 20
4372.5
 30
0.0
 11
16045.82958141816
 21
3362.999999999999
 31
0.0
  0
LINE
  5
1909B
330
747D
100
AcDbEntity
  8
細線
 48
5.0
100
AcDbLine
 10
16021.82958141816
 20
4372.5
 30
0.0
 11
16021.82958141816
 21
3362.999999999999
 31
0.0
  0
LINE
  5
1909C
330
747D
100
AcDbEntity
  8
細線
 48
5.0
100
AcDbLine
 10
16008.82958141817
 20
4372.499999999999
 30
0.0
 11
16008.82958141816
 21
3362.999999999999
 31
0.0
  0
LINE
  5
1909D
330
747D
100
AcDbEntity
  8
細線
 48
5.0
100
AcDbLine
 10
16007.62958141816
 20
4392.499999999999
 30
0.0
 11
15982.82958141817
 21
4412.5
 31
0.0
  0
LINE
  5
1909E
330
747D
100
AcDbEntity
  8
細線
 48
5.0
100
AcDbLine
 10
16007.62958141816
 20
4372.5
 30
0.0
 11
15982.82958141817
 21
4352.5
 31
0.0
  0
LINE
  5
1913B
330
747D
100
AcDbEntity
  8
部品1
 48
50.0
100
AcDbLine
 10
12874.82958141817
 20
3275.0
 30
0.0
 11
15982.82958141817
 21
3274.999999999999
 31
0.0
  0
LINE
  5
19153
330
747D
100
AcDbEntity
  8
部品1
 62
     2
 48
50.0
100
AcDbLine
 10
12874.82958141817
 20
3275.0
 30
0.0
 11
12874.82958141817
 21
5180.0
 31
0.0
  0
LINE
  5
19154
330
747D
100
AcDbEntity
  8
部品1
 62
     2
 48
50.0
100
AcDbLine
 10
12874.82958141817
 20
5180.0
 30
0.0
 11
12942.82958141817
 21
5187.0
 31
0.0
  0
LINE
  5
1916D
330
747D
100
AcDbEntity
  8
部品1
 48
50.0
100
AcDbLine
 10
12874.82958141817
 20
3275.0
 30
0.0
 11
12874.82958141817
 21
3175.0
 31
0.0
  0
DIMENSION
  5
1918D
330
747D
100
AcDbEntity
  8
寸法
 48
50.0
100
AcDbDimension
  2
*D30
 10
12211.55458482934
 20
5706.993715005738
 30
0.0
 11
12215.6596252794
 21
5965.067670478222
 31
0.0
 12
0.0
 22
340.0
 32
0.0
 70
   160
 71
     5
 42
-1.0
  3
INABA_S50G
100
AcDbAlignedDimension
 13
12828.8404644795
 23
5582.16034061977
 33
0.0
 14
12830.66947485202
 24
5697.145795008824
 34
0.0
 50
89.08870440418592
100
AcDbRotatedDimension
  0
DIMENSION
  5
191C4
330
747D
100
AcDbEntity
  8
寸法
 48
50.0
100
AcDbDimension
  2
*D31
 10
12216.70986552558
 20
3330.0
 30
0.0
 11
12216.70986552558
 21
2964.420494177466
 31
0.0
 12
0.0
 22
340.0
 32
0.0
 70
   160
 71
     5
 42
-1.0
  3
INABA_S50G
100
AcDbAlignedDimension
 13
12874.82958141817
 23
3275.0
 33
0.0
 14
12874.82958141817
 24
3330.0
 34
0.0
 50
90.0
100
AcDbRotatedDimension
  0
DIMENSION
  5
191DD
330
747D
100
AcDbEntity
  8
寸法
 48
50.0
100
AcDbDimension
  2
*D32
 10
12216.70986552558
 20
5445.0
 30
0.0
 11
12116.69510174605
 21
4387.5
 31
0.0
 12
0.0
 22
340.0
 32
0.0
 70
    32
 71
     5
 42
-1.0
  3
INABA_S50G
100
AcDbAlignedDimension
 13
12874.82958141817
 23
3330.0
 33
0.0
 14
12942.82958141817
 24
5445.0
 34
0.0
 50
90.0
100
AcDbRotatedDimension
1001
ACAD
1000
DSTYLE
1002
{
1070
    75
1070
     1
1070
   279
1070
     1
1002
}
  0
DIMENSION
  5
19219
330
747D
100
AcDbEntity
  8
寸法
 48
50.0
100
AcDbDimension
  2
*D33
 10
12528.94130116352
 20
5150.5
 30
0.0
 11
12428.94130116352
 21
4251.5
 31
0.0
 12
0.0
 22
340.0
 32
0.0
 70
    32
  1
有効開口部高サ <>
 71
     5
 42
-1.0
  3
INABA_S50G
100
AcDbAlignedDimension
 13
12874.82958141817
 23
3352.5
 33
0.0
 14
12874.82958141817
 24
5150.5
 34
0.0
 50
90.0
100
AcDbRotatedDimension
  0
LINE
  5
1928A
330
747D
100
AcDbEntity
  8
部品1
 62
     2
 48
50.0
100
AcDbLine
 10
4256.829581418172
 20
5187.0
 30
0.0
 11
4256.829581418172
 21
3275.0
 31
0.0
  0
LINE
  5
1928B
330
747D
100
AcDbEntity
  8
部品1
 62
     2
 48
50.0
100
AcDbLine
 10
6008.829581418172
 20
5187.0
 30
0.0
 11
6008.829581418172
 21
3175.0
 31
0.0
  0
LINE
  5
1928C
330
747D
100
AcDbEntity
  8
部品1
 62
     2
 48
50.0
100
AcDbLine
 10
6008.829581418172
 20
5187.0
 30
0.0
 11
4256.829581418172
 21
5187.0
 31
0.0
  0
LINE
  5
1929C
330
747D
100
AcDbEntity
  8
部品1
 62
     2
 48
50.0
100
AcDbLine
 10
4272.829581418172
 20
3324.0
 30
0.0
 11
5992.829581418174
 21
3324.0
 31
0.0
  0
LINE
  5
1929D
330
747D
100
AcDbEntity
  8
部品1
 62
     2
 48
50.0
100
AcDbLine
 10
6008.829581418172
 20
5149.5
 30
0.0
 11
4256.829581418172
 21
5149.5
 31
0.0
  0
LINE
  5
1929E
330
747D
100
AcDbEntity
  8
部品1
 62
     2
 48
50.0
100
AcDbLine
 10
4280.829581418173
 20
5149.5
 30
0.0
 11
4280.829581418171
 21
3324.0
 31
0.0
  0
LINE
  5
1929F
330
747D
100
AcDbEntity
  8
部品1
 62
     2
 48
50.0
100
AcDbLine
 10
5984.829581418173
 20
5149.5
 30
0.0
 11
5984.829581418173
 21
3324.0
 31
0.0
  0
LINE
  5
192A1
330
747D
100
AcDbEntity
  8
部品1
 62
     2
 48
50.0
100
AcDbLine
 10
4272.829581418172
 20
3324.0
 30
0.0
 11
4272.829581418172
 21
3275.0
 31
0.0
  0
LINE
  5
192A2
330
747D
100
AcDbEntity
  8
部品1
 62
     2
 48
50.0
100
AcDbLine
 10
5992.829581418174
 20
3324.0
 30
0.0
 11
5992.829581418173
 21
3275.0
 31
0.0
  0
LINE
  5
192A4
330
747D
100
AcDbEntity
  8
部品1
 62
     2
 48
50.0
100
AcDbLine
 10
4280.829581418171
 20
3326.0
 30
0.0
 11
4867.829581418173
 21
3326.0
 31
0.0
  0
LINE
  5
192A5
330
747D
100
AcDbEntity
  8
部品1
 62
     2
 48
50.0
100
AcDbLine
 10
4867.829581418173
 20
3333.0
 30
0.0
 11
5966.329581418173
 21
3332.999999999999
 31
0.0
  0
LINE
  5
192A7
330
747D
100
AcDbEntity
  8
部品1
 62
     2
 48
50.0
100
AcDbLine
 10
4867.829581418173
 20
5149.5
 30
0.0
 11
4867.829581418173
 21
3326.0
 31
0.0
  0
LINE
  5
192A9
330
747D
100
AcDbEntity
  8
部品1
 62
     2
 48
50.0
100
AcDbLine
 10
5440.329581418173
 20
5149.5
 30
0.0
 11
5440.329581418172
 21
3333.0
 31
0.0
  0
CIRCLE
  5
192DC
330
747D
100
AcDbEntity
  8
部品1
 62
     2
 48
50.0
100
AcDbCircle
 10
4314.329581418172
 20
4187.0
 30
0.0
 40
17.0
  0
ARC
  5
192DD
330
747D
100
AcDbEntity
  8
部品1
 62
     2
 48
50.0
100
AcDbCircle
 10
4697.329581418172
 20
4187.0
 30
0.0
 40
405.0
100
AcDbArc
 50
170.0163680567114
 51
189.9836319432886
  0
LINE
  5
192DE
330
747D
100
AcDbEntity
  8
部品1
 62
     2
 48
50.0
100
AcDbLine
 10
4335.329581418172
 20
4251.0
 30
0.0
 11
4335.329581418172
 21
4123.0
 31
0.0
  0
ARC
  5
192DF
330
747D
100
AcDbEntity
  8
部品1
 62
     2
 48
50.0
100
AcDbCircle
 10
374.329581418172
 20
4187.0
 30
0.0
 40
3991.0
100
AcDbArc
 50
359.0804695823139
 51
0.9195304176861213
  0
ARC
  5
192E0
330
747D
100
AcDbEntity
  8
部品1
 62
     2
 48
50.0
100
AcDbCircle
 10
374.329581418172
 20
4187.0
 30
0.0
 40
4000.0
100
AcDbArc
 50
359.0098658739686
 51
0.9901341260314108
  0
LINE
  5
192E1
330
747D
100
AcDbEntity
  8
部品1
 62
     2
 48
50.0
100
AcDbLine
 10
4366.733368612046
 20
4111.0
 30
0.0
 11
4305.356368047668
 21
4111.0
 31
0.0
  0
LINE
  5
192E2
330
747D
100
AcDbEntity
  8
部品1
 62
     2
 48
50.0
100
AcDbLine
 10
4320.329581418172
 20
4124.0
 30
0.0
 11
4320.329581418172
 21
4158.0
 31
0.0
  0
LINE
  5
192E3
330
747D
100
AcDbEntity
  8
部品1
 62
     2
 48
50.0
100
AcDbLine
 10
4308.329581418171
 20
4124.0
 30
0.0
 11
4308.329581418176
 21
4158.0
 31
0.0
  0
ARC
  5
192E4
330
747D
100
AcDbEntity
  8
部品1
 62
     2
 48
50.0
100
AcDbCircle
 10
4305.356368047668
 20
4118.0
 30
0.0
 40
7.0
100
AcDbArc
 50
189.983631943288
 51
270.0
  0
ARC
  5
192E5
330
747D
100
AcDbEntity
  8
部品1
 62
     2
 48
50.0
100
AcDbCircle
 10
4317.329581418172
 20
4124.0
 30
0.0
 40
3.0
100
AcDbArc
 50
270.0
 51
0.0
  0
ARC
  5
192E6
330
747D
100
AcDbEntity
  8
部品1
 62
     2
 48
50.0
100
AcDbCircle
 10
4311.329581418172
 20
4124.0
 30
0.0
 40
3.0
100
AcDbArc
 50
179.9999999999972
 51
270.0
  0
LINE
  5
192E7
330
747D
100
AcDbEntity
  8
部品1
 62
     2
 48
50.0
100
AcDbLine
 10
4317.329581418172
 20
4121.0
 30
0.0
 11
4311.329581418172
 21
4121.0
 31
0.0
  0
ARC
  5
192E8
330
747D
100
AcDbEntity
  8
部品1
 62
     2
 48
50.0
100
AcDbCircle
 10
4311.329581418175
 20
4158.0
 30
0.0
 40
3.0
100
AcDbArc
 50
90.0
 51
179.9999999999974
  0
ARC
  5
192E9
330
747D
100
AcDbEntity
  8
部品1
 62
     2
 48
50.0
100
AcDbCircle
 10
4317.329581418172
 20
4158.0
 30
0.0
 40
3.0
100
AcDbArc
 50
0.0
 51
90.0
  0
LINE
  5
192EA
330
747D
100
AcDbEntity
  8
部品1
 62
     2
 48
50.0
100
AcDbLine
 10
4317.329581418172
 20
4161.0
 30
0.0
 11
4311.329581418175
 21
4161.0
 31
0.0
  0
ARC
  5
192EB
330
747D
100
AcDbEntity
  8
部品1
 62
     2
 48
50.0
100
AcDbCircle
 10
4361.81600772736
 20
4123.000000000001
 30
0.0
 40
3.0
100
AcDbArc
 50
270.0
 51
359.0804695823297
  0
ARC
  5
192EC
330
747D
100
AcDbEntity
  8
部品1
 62
     2
 48
50.0
100
AcDbCircle
 10
4338.329581418172
 20
4123.0
 30
0.0
 40
3.0
100
AcDbArc
 50
179.9999999999996
 51
270.0000000000036
  0
LINE
  5
192ED
330
747D
100
AcDbEntity
  8
部品1
 62
     2
 48
50.0
100
AcDbLine
 10
4338.329581418172
 20
4120.0
 30
0.0
 11
4361.81600772736
 21
4120.000000000001
 31
0.0
  0
ARC
  5
192EE
330
747D
100
AcDbEntity
  8
部品1
 62
     2
 48
50.0
100
AcDbCircle
 10
4366.733368612046
 20
4118.0
 30
0.0
 40
7.0
100
AcDbArc
 50
270.0
 51
359.0098658739691
  0
LINE
  5
192EF
330
747D
100
AcDbEntity
  8
部品1
 62
     2
 48
50.0
100
AcDbLine
 10
4366.733368612046
 20
4263.0
 30
0.0
 11
4305.356368047668
 21
4263.0
 31
0.0
  0
ARC
  5
192F0
330
747D
100
AcDbEntity
  8
部品1
 62
     2
 48
50.0
100
AcDbCircle
 10
4305.356368047668
 20
4256.0
 30
0.0
 40
7.0
100
AcDbArc
 50
90.0
 51
170.0163680567111
  0
ARC
  5
192F1
330
747D
100
AcDbEntity
  8
部品1
 62
     2
 48
50.0
100
AcDbCircle
 10
4317.329581418172
 20
4216.0
 30
0.0
 40
3.0
100
AcDbArc
 50
270.0
 51
0.0
  0
LINE
  5
192F2
330
747D
100
AcDbEntity
  8
部品1
 62
     2
 48
50.0
100
AcDbLine
 10
4317.329581418172
 20
4213.0
 30
0.0
 11
4311.329581418175
 21
4213.0
 31
0.0
  0
ARC
  5
192F3
330
747D
100
AcDbEntity
  8
部品1
 62
     2
 48
50.0
100
AcDbCircle
 10
4311.329581418175
 20
4216.0
 30
0.0
 40
3.0
100
AcDbArc
 50
180.0000000000025
 51
270.0
  0
LINE
  5
192F4
330
747D
100
AcDbEntity
  8
部品1
 62
     2
 48
50.0
100
AcDbLine
 10
4308.329581418171
 20
4250.0
 30
0.0
 11
4308.329581418176
 21
4216.0
 31
0.0
  0
ARC
  5
192F5
330
747D
100
AcDbEntity
  8
部品1
 62
     2
 48
50.0
100
AcDbCircle
 10
4311.329581418172
 20
4250.0
 30
0.0
 40
3.0
100
AcDbArc
 50
90.00000000000003
 51
180.0000000000028
  0
LINE
  5
192F6
330
747D
100
AcDbEntity
  8
部品1
 62
     2
 48
50.0
100
AcDbLine
 10
4317.329581418172
 20
4253.000000000002
 30
0.0
 11
4311.329581418172
 21
4253.0
 31
0.0
  0
LINE
  5
192F7
330
747D
100
AcDbEntity
  8
部品1
 62
     2
 48
50.0
100
AcDbLine
 10
4320.329581418172
 20
4250.000000000002
 30
0.0
 11
4320.329581418172
 21
4216.0
 31
0.0
  0
ARC
  5
192F8
330
747D
100
AcDbEntity
  8
部品1
 62
     2
 48
50.0
100
AcDbCircle
 10
4317.329581418172
 20
4250.000000000002
 30
0.0
 40
3.0
100
AcDbArc
 50
0.0
 51
90.00000000000003
  0
ARC
  5
192F9
330
747D
100
AcDbEntity
  8
部品1
 62
     2
 48
50.0
100
AcDbCircle
 10
4338.329581418172
 20
4251.0
 30
0.0
 40
3.0
100
AcDbArc
 50
90.0
 51
179.9999999999992
  0
ARC
  5
192FA
330
747D
100
AcDbEntity
  8
部品1
 62
     2
 48
50.0
100
AcDbCircle
 10
4361.81600772736
 20
4251.0
 30
0.0
 40
3.0
100
AcDbArc
 50
0.9195304176876355
 51
90.0
  0
LINE
  5
192FB
330
747D
100
AcDbEntity
  8
部品1
 62
     2
 48
50.0
100
AcDbLine
 10
4338.329581418172
 20
4254.0
 30
0.0
 11
4361.81600772736
 21
4254.0
 31
0.0
  0
ARC
  5
192FC
330
747D
100
AcDbEntity
  8
部品1
 62
     2
 48
50.0
100
AcDbCircle
 10
4366.733368612046
 20
4256.0
 30
0.0
 40
7.0
100
AcDbArc
 50
0.9901341260309951
 51
90.0
  0
LINE
  5
192FF
330
747D
100
AcDbEntity
  8
部品1
 62
     2
 48
50.0
100
AcDbLine
 10
5966.329581418173
 20
3332.999999999999
 30
0.0
 11
5972.329581418173
 21
3324.0
 31
0.0
  0
LINE
  5
1931A
330
747D
100
AcDbEntity
  8
細線
100
AcDbLine
 10
6642.829579233259
 20
5580.000001569563
 30
0.0
 11
6642.829579378889
 21
5715.000000008457
 31
0.0
  0
DIMENSION
  5
1A2E5
330
747D
100
AcDbEntity
  8
寸法
 48
50.0
100
AcDbDimension
  2
*D34
 10
3426.198601638504
 20
9160.736797361609
 30
0.0
 11
3426.198601638504
 21
8923.748608385231
 31
0.0
 70
   160
 71
     5
 42
-1.0
  3
INABA_S50G
100
AcDbAlignedDimension
 13
4202.82958141817
 23
9228.736797361971
 33
0.0
 14
4256.829581418172
 24
9160.736797361609
 34
0.0
 50
90.0
100
AcDbRotatedDimension
  0
LINE
  5
1A39A
330
747D
100
AcDbEntity
  8
部品1
 62
     2
 48
50.0
100
AcDbLine
 10
5440.329581418173
 20
9212.736797361609
 30
0.0
 11
5155.829581418171
 21
9212.736797361609
 31
0.0
  0
LINE
  5
1A39B
330
747D
100
AcDbEntity
  8
部品1
 62
     2
 48
50.0
100
AcDbLine
 10
5130.829581418171
 20
9212.736797361609
 30
0.0
 11
4846.329581418173
 21
9212.736797361609
 31
0.0
  0
LINE
  5
1A3AF
330
747D
100
AcDbEntity
  8
部品1
 48
50.0
100
AcDbLine
 10
6002.829581418173
 20
5445.0
 30
0.0
 11
6002.829581418173
 21
5187.0
 31
0.0
  0
LINE
  5
1A3BC
330
747D
100
AcDbEntity
  8
部品1
 48
50.0
100
AcDbLine
 10
6600.829581418169
 20
9263.736797361792
 30
0.0
 11
6600.829581418169
 21
9278.736797361792
 31
0.0
  0
LINE
  5
1A3BD
330
747D
100
AcDbEntity
  8
部品1
 48
50.0
100
AcDbLine
 10
6582.82958141817
 20
9263.736797361792
 30
0.0
 11
6582.829581418173
 21
9228.736797361792
 31
0.0
  0
LINE
  5
1A3BE
330
747D
100
AcDbEntity
  8
部品1
 48
50.0
100
AcDbLine
 10
6564.82958141817
 20
9263.736797361792
 30
0.0
 11
6564.82958141817
 21
9278.736797361792
 31
0.0
  0
DIMENSION
  5
1A62F
330
747D
100
AcDbEntity
  8
寸法
 48
50.0
100
AcDbDimension
  2
*D35
 10
12052.63480123898
 20
9363.736797361971
 30
0.0
 11
12052.63480123898
 21
9089.650458526433
 31
0.0
 70
   160
 71
     5
 42
-1.0
  3
INABA_S50G
100
AcDbAlignedDimension
 13
12942.82958141817
 23
9418.736797361971
 33
0.0
 14
12942.82958141817
 24
9363.736797361971
 34
0.0
 50
90.0
100
AcDbRotatedDimension
  0
DIMENSION
  5
1A630
330
747D
100
AcDbEntity
  8
寸法
 48
50.0
100
AcDbDimension
  2
*D36
 10
11718.38013607452
 20
9363.736797361967
 30
0.0
 11
11618.36537229499
 21
10583.73679736197
 31
0.0
 70
    32
 71
     5
 42
-1.0
  3
INABA_S50G
100
AcDbAlignedDimension
 13
12807.82958141817
 23
11803.73679736197
 33
0.0
 14
12942.82958141817
 24
9363.736797361967
 34
0.0
 50
90.0
100
AcDbRotatedDimension
  0
DIMENSION
  5
1A631
330
747D
100
AcDbEntity
  8
寸法
 48
50.0
100
AcDbDimension
  2
*D37
 10
12211.55458482934
 20
11795.73051236771
 30
0.0
 11
12215.6596252794
 21
12053.80446784019
 31
0.0
 70
   160
 71
     5
 42
-1.0
  3
INABA_S50G
100
AcDbAlignedDimension
 13
12828.8404644795
 23
11670.89713798174
 33
0.0
 14
12830.66947485202
 24
11785.88259237079
 34
0.0
 50
89.08870440418592
100
AcDbRotatedDimension
  0
MTEXT
  5
1A632
102
{ACAD_REACTORS
330
1A633
102
}
330
747D
100
AcDbEntity
  8
寸法
 62
     7
 48
50.0
100
AcDbMText
 10
12489.20278459666
 20
12344.32712616799
 30
0.0
 40
150.0
 41
0.0
 71
     6
 72
     1
  1
\A1;鼻隠シ前
  7
STYLE1
 73
     1
 44
1.0
1001
ACAD
1000
MTEXTBEGIN
1070
    73
1070
     1
1070
    44
1040
1.0
1070
    74
1070
     0
1000
MTEXTEND
  0
LEADER
  5
1A633
330
747D
100
AcDbEntity
  8
寸法
 48
50.0
100
AcDbLeader
  3
INABA_S50G
 71
     0
 73
     0
 75
     1
 40
150.0
 41
697.5
 76
     3
 10
12808.68985764768
 20
11743.78978150138
 30
0.0
 10
12639.20278459666
 20
12244.32712616799
 30
0.0
 10
12514.20278459666
 20
12244.32712616799
 30
0.0
340
1A632
  0
LINE
  5
1A634
330
747D
100
AcDbEntity
  8
Ｇ．Ｌ
 48
50.0
100
AcDbLine
 10
11559.2050880862
 20
9263.736797361971
 30
0.0
 11
12942.82958141817
 21
9263.736797361973
 31
0.0
  0
DIMENSION
  5
1A635
330
747D
100
AcDbEntity
  8
寸法
 48
50.0
100
AcDbDimension
  2
*D38
 10
12052.63480123898
 20
9418.736797361971
 30
0.0
 11
11952.62003745945
 21
10476.23679736197
 31
0.0
 70
    32
 71
     5
 42
-1.0
  3
INABA_S50G
100
AcDbAlignedDimension
 13
12942.82958141817
 23
11533.73679736197
 33
0.0
 14
12942.82958141817
 24
9418.736797361971
 34
0.0
 50
90.0
100
AcDbRotatedDimension
  0
MTEXT
  5
1A636
102
{ACAD_REACTORS
330
1A637
102
}
330
747D
100
AcDbEntity
  8
部品1
 62
     7
 48
50.0
100
AcDbMText
 10
13662.34624283673
 20
8657.073885207493
 30
0.0
 40
150.0
 41
0.0
 71
     4
 72
     1
  1
\A1;土台中央
  7
STYLE1
 73
     1
 44
1.0
1001
ACAD
1000
MTEXTBEGIN
1070
    73
1070
     1
1070
    44
1040
1.0
1070
    74
1070
     0
1000
MTEXTEND
  0
LEADER
  5
1A637
330
747D
100
AcDbEntity
  8
寸法
 48
50.0
100
AcDbLeader
  3
INABA_S50G
 71
     0
 73
     0
 74
     0
 75
     1
 40
150.0
 41
720.0000000000003
 76
     3
 10
13362.21379565266
 20
9382.720225287025
 30
0.0
 10
13512.34624283673
 20
8557.073885207492
 30
0.0
 10
13637.34624283673
 20
8557.073885207492
 30
0.0
340
1A636
  0
MTEXT
  5
1A638
102
{ACAD_REACTORS
330
1A639
102
}
330
747D
100
AcDbEntity
  8
部品1
 62
     7
 48
50.0
100
AcDbMText
 10
15101.06372606969
 20
8657.073885207493
 30
0.0
 40
150.0
 41
0.0
 71
     4
 72
     1
  1
\A1;根太
  7
STYLE1
 73
     1
 44
1.0
1001
ACAD
1000
MTEXTBEGIN
1070
    73
1070
     1
1070
    44
1040
1.0
1070
    74
1070
     0
1000
MTEXTEND
  0
LEADER
  5
1A639
330
747D
100
AcDbEntity
  8
寸法
 48
50.0
100
AcDbLeader
  3
INABA_S50G
 71
     0
 73
     0
 74
     0
 75
     1
 40
150.0
 41
330.0000000000001
 76
     3
 10
14772.82958141817
 20
9382.720225287025
 30
0.0
 10
14951.06372606969
 20
8557.073885207492
 30
0.0
 10
15076.06372606969
 20
8557.073885207492
 30
0.0
340
1A638
  0
MTEXT
  5
1A63A
102
{ACAD_REACTORS
330
1A63B
102
}
330
747D
100
AcDbEntity
  8
部品1
 62
     7
 48
50.0
100
AcDbMText
 10
15767.3983798669
 20
8657.073885207493
 30
0.0
 40
150.0
 41
0.0
 71
     4
 72
     1
  1
\A1;ジョイントカバー
  7
STYLE1
 73
     1
 44
1.0
1001
ACAD
1000
MTEXTBEGIN
1070
    73
1070
     1
1070
    44
1040
1.0
1070
    74
1070
     0
1000
MTEXTEND
  0
LEADER
  5
1A63B
330
747D
100
AcDbEntity
  8
寸法
 48
50.0
100
AcDbLeader
  3
INABA_S50G
 71
     0
 73
     0
 74
     0
 75
     1
 40
150.0
 41
1397.5
 76
     3
 10
15344.06618060769
 20
9547.434887568501
 30
0.0
 10
15617.3983798669
 20
8557.073885207492
 30
0.0
 10
15742.3983798669
 20
8557.073885207492
 30
0.0
340
1A63A
  0
DIMENSION
  5
1A63C
330
747D
100
AcDbEntity
  8
寸法
 48
50.0
100
AcDbDimension
  2
*D39
 10
17294.10991665977
 20
11560.73679736197
 30
0.0
 11
17194.09515288025
 21
10495.73679736197
 31
0.0
 70
    32
  1
内高 <>
 71
     5
 42
-1.0
  3
INABA_S50G
100
AcDbAlignedDimension
 13
15947.32958141817
 23
9430.736797361971
 33
0.0
 14
15982.82958141817
 24
11560.73679736197
 34
0.0
 50
90.0
100
AcDbRotatedDimension
  0
DIMENSION
  5
1A63D
330
747D
100
AcDbEntity
  8
寸法
 48
50.0
100
AcDbDimension
  2
*D40
 10
17607.07164574816
 20
11743.73679736197
 30
0.0
 11
17507.05688196864
 21
10553.73679736197
 31
0.0
 70
    32
 71
     5
 42
-1.0
  3
INABA_S50G
100
AcDbAlignedDimension
 13
15982.82958141817
 23
9363.736797361971
 33
0.0
 14
16077.82958141817
 24
11743.73679736197
 34
0.0
 50
90.0
100
AcDbRotatedDimension
  0
DIMENSION
  5
1A63E
330
747D
100
AcDbEntity
  8
寸法
 48
50.0
100
AcDbDimension
  2
*D41
 10
16077.82958141817
 20
12813.17369887015
 30
0.0
 11
14442.82958141817
 21
12913.18846264967
 31
0.0
 70
    32
 71
     5
 42
-1.0
  3
INABA_S50G
100
AcDbAlignedDimension
 13
12807.82958141817
 23
11803.73679736197
 33
0.0
 14
16077.82958141817
 24
11743.73679736197
 34
0.0
100
AcDbRotatedDimension
  0
DIMENSION
  5
1A63F
330
747D
100
AcDbEntity
  8
寸法
 48
50.0
100
AcDbDimension
  2
*D42
 10
16077.82958141817
 20
12497.01792807849
 30
0.0
 11
16410.38863653628
 21
12497.01792807849
 31
0.0
 70
   160
 71
     5
 42
-1.0
  3
INABA_S50G
100
AcDbAlignedDimension
 13
15982.82958141817
 23
11746.3631811976
 33
0.0
 14
16077.82958141817
 24
11743.73679736197
 34
0.0
100
AcDbRotatedDimension
1001
ACAD
1000
DSTYLE
1002
{
1002
}
  0
DIMENSION
  5
1A640
330
747D
100
AcDbEntity
  8
寸法
 48
50.0
100
AcDbDimension
  2
*D43
 10
12942.82958141817
 20
12497.01792807849
 30
0.0
 11
12525.27052630006
 21
12497.01792807849
 31
0.0
 70
   160
 71
     5
 42
-1.0
  3
INABA_S50G
100
AcDbAlignedDimension
 13
12807.82958141817
 23
11803.73679736197
 33
0.0
 14
12942.82958141817
 24
11801.29728927309
 34
0.0
100
AcDbRotatedDimension
  0
DIMENSION
  5
1A641
330
747D
100
AcDbEntity
  8
寸法
 48
50.0
100
AcDbDimension
  2
*D44
 10
15982.82958141817
 20
12497.01792807849
 30
0.0
 11
14462.82958141817
 21
12597.01792807849
 31
0.0
 70
    32
  1
柱外寸法 <>
 71
     5
 42
-1.0
  3
INABA_S50G
100
AcDbAlignedDimension
 13
12942.82958141817
 23
11758.73679736197
 33
0.0
 14
15982.82958141817
 24
11746.3631811976
 34
0.0
100
AcDbRotatedDimension
1001
ACAD
1000
DSTYLE
1002
{
1070
    75
1070
     1
1070
   279
1070
     1
1002
}
  0
LINE
  5
1A642
330
747D
100
AcDbEntity
  8
細線
 48
50.0
100
AcDbLine
 10
12834.90661345142
 20
11766.60657583918
 30
0.0
 11
16028.79827277735
 21
11665.23439776132
 31
0.0
  0
LINE
  5
1A643
330
747D
100
AcDbEntity
  8
細線
 48
50.0
100
AcDbLine
 10
12835.60452861891
 20
11788.59550292576
 30
0.0
 11
16029.49618794484
 21
11687.2233248479
 31
0.0
  0
LINE
  5
1A644
330
747D
100
AcDbEntity
  8
部品1
 48
50.0
100
AcDbLine
 10
12837.34578971423
 20
11803.20342677759
 30
0.0
 11
16052.50261261331
 21
11745.10415954444
 31
0.0
  0
MTEXT
  5
1A645
102
{ACAD_REACTORS
330
1A646
102
}
330
747D
100
AcDbEntity
  8
部品1
 62
     7
 48
50.0
100
AcDbMText
 10
14817.51403700674
 20
9656.775787169863
 30
0.0
 40
150.0
 41
0.0
 71
     4
 72
     1
  1
\A1;床板
  7
STYLE1
 73
     1
 44
1.0
1001
ACAD
1000
MTEXTBEGIN
1070
    73
1070
     1
1070
    44
1040
1.0
1070
    74
1070
     0
1000
MTEXTEND
  0
LEADER
  5
1A646
330
747D
100
AcDbEntity
  8
寸法
 48
50.0
100
AcDbLeader
  3
INABA_S50G
 71
     0
 73
     0
 74
     0
 75
     1
 40
150.0
 41
319.9999999999999
 76
     3
 10
14631.60586866468
 20
9425.668860537973
 30
0.0
 10
14667.51403700674
 20
9556.775787169861
 30
0.0
 10
14792.51403700674
 20
9556.775787169861
 30
0.0
340
1A645
  0
LINE
  5
1A647
330
747D
100
AcDbEntity
  8
部品1
 48
50.0
100
AcDbLine
 10
12942.82958141817
 20
9363.736797361971
 30
0.0
 11
15982.82958141817
 21
9363.736797361971
 31
0.0
  0
LINE
  5
1A648
330
747D
100
AcDbEntity
  8
細線
 48
50.0
100
AcDbLine
 10
12993.32958141817
 20
9430.736797361971
 30
0.0
 11
15932.32958141817
 21
9430.736797361971
 31
0.0
  0
LINE
  5
1A649
330
747D
100
AcDbEntity
  8
細線
 48
50.0
100
AcDbLine
 10
15932.32958141817
 20
9418.736797361971
 30
0.0
 11
12993.32958141817
 21
9418.736797361971
 31
0.0
  0
LINE
  5
1A64A
330
747D
100
AcDbEntity
  8
細線
 48
50.0
100
AcDbLine
 10
13007.82958141817
 20
11563.73679736197
 30
0.0
 11
15917.82958141816
 21
11563.73679736197
 31
0.0
  0
LINE
  5
1A64B
330
747D
100
AcDbEntity
  8
部品1
 48
50.0
100
AcDbLine
 10
12993.32958141817
 20
11537.59466173824
 30
0.0
 11
15932.32958141817
 21
11537.59466173824
 31
0.0
  0
LINE
  5
1A64C
330
747D
100
AcDbEntity
  8
細線
 48
50.0
100
AcDbLine
 10
13007.82958141817
 20
11583.73679736196
 30
0.0
 11
15917.82958141816
 21
11583.73679736196
 31
0.0
  0
LINE
  5
1A64D
330
747D
100
AcDbEntity
  8
部品1
 48
50.0
100
AcDbLine
 10
12993.32958141817
 20
9470.73679736197
 30
0.0
 11
15932.32958141817
 21
9470.73679736197
 31
0.0
  0
LINE
  5
1A64E
330
747D
100
AcDbEntity
  8
細線
 48
50.0
100
AcDbLine
 10
12977.82958141817
 20
11548.73679736197
 30
0.0
 11
12977.82958141817
 21
9418.736797361971
 31
0.0
  0
LINE
  5
1A64F
330
747D
100
AcDbEntity
  8
部品1
 48
50.0
100
AcDbLine
 10
13610.82958141817
 20
11537.59466173824
 30
0.0
 11
13610.82958141817
 21
9470.73679736197
 31
0.0
  0
LINE
  5
1A650
330
747D
100
AcDbEntity
  8
部品1
 48
50.0
100
AcDbLine
 10
13574.82958141817
 20
11537.59466173824
 30
0.0
 11
13574.82958141817
 21
9470.73679736197
 31
0.0
  0
LINE
  5
1A651
330
747D
100
AcDbEntity
  8
部品1
 48
50.0
100
AcDbLine
 10
14190.82958141817
 20
11537.59466173824
 30
0.0
 11
14190.82958141817
 21
9470.73679736197
 31
0.0
  0
LINE
  5
1A652
330
747D
100
AcDbEntity
  8
部品1
 48
50.0
100
AcDbLine
 10
14154.82958141817
 20
11537.59466173824
 30
0.0
 11
14154.82958141817
 21
9470.73679736197
 31
0.0
  0
LINE
  5
1A653
330
747D
100
AcDbEntity
  8
部品1
 48
50.0
100
AcDbLine
 10
14770.82958141817
 20
11537.59466173824
 30
0.0
 11
14770.82958141817
 21
9470.73679736197
 31
0.0
  0
LINE
  5
1A654
330
747D
100
AcDbEntity
  8
部品1
 48
50.0
100
AcDbLine
 10
14734.82958141817
 20
11537.59466173824
 30
0.0
 11
14734.82958141817
 21
9470.73679736197
 31
0.0
  0
LINE
  5
1A655
330
747D
100
AcDbEntity
  8
部品1
 48
50.0
100
AcDbLine
 10
13029.32958141817
 20
11537.59466173824
 30
0.0
 11
13029.32958141817
 21
9470.73679736197
 31
0.0
  0
LINE
  5
1A656
330
747D
100
AcDbEntity
  8
部品1
 48
50.0
100
AcDbLine
 10
12993.32958141817
 20
11548.73679736196
 30
0.0
 11
12993.32958141817
 21
9430.736797361971
 31
0.0
  0
LINE
  5
1A657
330
747D
100
AcDbEntity
  8
部品1
 48
50.0
100
AcDbLine
 10
12942.82958141817
 20
11758.73679736197
 30
0.0
 11
12942.82958141817
 21
9418.736797361971
 31
0.0
  0
LINE
  5
1A66A
330
747D
100
AcDbEntity
  8
部品1
 48
50.0
100
AcDbLine
 10
12993.32958141817
 20
9470.73679736197
 30
0.0
 11
13002.32958141817
 21
9470.73679736197
 31
0.0
  0
LINE
  5
1A66B
330
747D
100
AcDbEntity
  8
部品1
 48
50.0
100
AcDbLine
 10
12942.82958141817
 20
9418.736797361971
 30
0.0
 11
12978.32958141817
 21
9418.736797361971
 31
0.0
  0
LINE
  5
1A66C
330
747D
100
AcDbEntity
  8
部品1
 48
50.0
100
AcDbLine
 10
12978.32958141817
 20
9418.736797361971
 30
0.0
 11
12978.32958141817
 21
9430.736797361971
 31
0.0
  0
LINE
  5
1A66D
330
747D
100
AcDbEntity
  8
部品1
 48
50.0
100
AcDbLine
 10
12978.32958141817
 20
9430.736797361971
 30
0.0
 11
12993.32958141817
 21
9430.736797361971
 31
0.0
  0
LINE
  5
1A66E
330
747D
100
AcDbEntity
  8
部品1
 48
50.0
100
AcDbLine
 10
12993.32958141817
 20
9430.736797361971
 30
0.0
 11
12993.32958141817
 21
9418.736797361971
 31
0.0
  0
LINE
  5
1A66F
330
747D
100
AcDbEntity
  8
部品1
 48
50.0
100
AcDbLine
 10
12993.32958141817
 20
9418.736797361971
 30
0.0
 11
13007.32958141817
 21
9418.736797361971
 31
0.0
  0
LINE
  5
1A670
330
747D
100
AcDbEntity
  8
部品1
 48
50.0
100
AcDbLine
 10
13007.32958141817
 20
9418.736797361971
 30
0.0
 11
13007.32958141817
 21
9411.736797361971
 31
0.0
  0
LINE
  5
1A671
330
747D
100
AcDbEntity
  8
部品1
 48
50.0
100
AcDbLine
 10
13007.32958141817
 20
9411.736797361971
 30
0.0
 11
13031.32958141817
 21
9411.736797361971
 31
0.0
  0
LINE
  5
1A672
330
747D
100
AcDbEntity
  8
部品1
 48
50.0
100
AcDbLine
 10
13031.32958141817
 20
9411.736797361971
 30
0.0
 11
13031.32958141817
 21
9363.736797361971
 31
0.0
  0
LINE
  5
1A673
330
747D
100
AcDbEntity
  8
部品1
 48
50.0
100
AcDbLine
 10
12942.82958141817
 20
9412.73679736197
 30
0.0
 11
12948.82958141817
 21
9412.73679736197
 31
0.0
  0
LINE
  5
1A674
330
747D
100
AcDbEntity
  8
部品1
 48
50.0
100
AcDbLine
 10
12948.82958141817
 20
9412.73679736197
 30
0.0
 11
12948.82958141817
 21
9418.736797361971
 31
0.0
  0
LINE
  5
1A675
330
747D
100
AcDbEntity
  8
部品1
 48
50.0
100
AcDbLine
 10
13316.82958141817
 20
9418.736797361971
 30
0.0
 11
13322.82958141817
 21
9418.736797361971
 31
0.0
  0
LINE
  5
1A676
330
747D
100
AcDbEntity
  8
部品1
 48
50.0
100
AcDbLine
 10
13282.82958141817
 20
9418.736797361971
 30
0.0
 11
13288.82958141817
 21
9418.736797361971
 31
0.0
  0
LINE
  5
1A677
330
747D
100
AcDbEntity
  8
部品1
 48
50.0
100
AcDbLine
 10
13288.82958141817
 20
9412.73679736197
 30
0.0
 11
13316.82958141817
 21
9412.736797361969
 31
0.0
  0
LINE
  5
1A678
330
747D
100
AcDbEntity
  8
部品1
 48
50.0
100
AcDbLine
 10
13316.82958141817
 20
9418.736797361971
 30
0.0
 11
13316.82958141817
 21
9412.73679736197
 31
0.0
  0
LINE
  5
1A679
330
747D
100
AcDbEntity
  8
部品1
 48
50.0
100
AcDbLine
 10
13288.82958141817
 20
9412.73679736197
 30
0.0
 11
13288.82958141817
 21
9418.736797361971
 31
0.0
  0
LINE
  5
1A67A
330
747D
100
AcDbEntity
  8
部品1
 48
50.0
100
AcDbLine
 10
13322.82958141817
 20
9418.736797361971
 30
0.0
 11
13322.82958141817
 21
9363.736797361971
 31
0.0
  0
LINE
  5
1A67B
330
747D
100
AcDbEntity
  8
部品1
 48
50.0
100
AcDbLine
 10
13282.82958141817
 20
9363.736797361971
 30
0.0
 11
13282.82958141817
 21
9418.736797361971
 31
0.0
  0
LINE
  5
1A67C
330
747D
100
AcDbEntity
  8
部品1
 48
50.0
100
AcDbLine
 10
13002.32958141817
 20
9430.736797361971
 30
0.0
 11
12993.32958141817
 21
9430.736797361971
 31
0.0
  0
LINE
  5
1A67D
330
747D
100
AcDbEntity
  8
部品1
 48
50.0
100
AcDbLine
 10
12942.82958141817
 20
9412.73679736197
 30
0.0
 11
12942.82958141817
 21
9363.736797361971
 31
0.0
  0
LINE
  5
1A67E
330
747D
100
AcDbEntity
  8
部品1
 48
50.0
100
AcDbLine
 10
13002.32958141817
 20
9470.73679736197
 30
0.0
 11
13002.32958141817
 21
9430.736797361971
 31
0.0
  0
LINE
  5
1A685
330
747D
100
AcDbEntity
  8
部品1
 48
50.0
100
AcDbLine
 10
13572.82958141817
 20
9363.736797361971
 30
0.0
 11
13572.82958141817
 21
9418.736797361971
 31
0.0
  0
LINE
  5
1A686
330
747D
100
AcDbEntity
  8
部品1
 48
50.0
100
AcDbLine
 10
13572.82958141817
 20
9418.736797361971
 30
0.0
 11
13578.82958141817
 21
9418.736797361971
 31
0.0
  0
LINE
  5
1A687
330
747D
100
AcDbEntity
  8
部品1
 48
50.0
100
AcDbLine
 10
13612.82958141817
 20
9418.736797361971
 30
0.0
 11
13612.82958141817
 21
9363.736797361971
 31
0.0
  0
LINE
  5
1A688
330
747D
100
AcDbEntity
  8
部品1
 48
50.0
100
AcDbLine
 10
13578.82958141817
 20
9412.73679736197
 30
0.0
 11
13606.82958141817
 21
9412.736797361969
 31
0.0
  0
LINE
  5
1A689
330
747D
100
AcDbEntity
  8
部品1
 48
50.0
100
AcDbLine
 10
13606.82958141817
 20
9418.736797361971
 30
0.0
 11
13606.82958141817
 21
9412.73679736197
 31
0.0
  0
LINE
  5
1A68A
330
747D
100
AcDbEntity
  8
部品1
 48
50.0
100
AcDbLine
 10
13578.82958141817
 20
9412.73679736197
 30
0.0
 11
13578.82958141817
 21
9418.736797361971
 31
0.0
  0
LINE
  5
1A68B
330
747D
100
AcDbEntity
  8
部品1
 48
50.0
100
AcDbLine
 10
13606.82958141817
 20
9418.736797361971
 30
0.0
 11
13612.82958141817
 21
9418.736797361971
 31
0.0
  0
LINE
  5
1A68C
330
747D
100
AcDbEntity
  8
部品1
 48
50.0
100
AcDbLine
 10
13862.82958141817
 20
9363.736797361971
 30
0.0
 11
13862.82958141817
 21
9418.736797361971
 31
0.0
  0
LINE
  5
1A68D
330
747D
100
AcDbEntity
  8
部品1
 48
50.0
100
AcDbLine
 10
13902.82958141817
 20
9418.736797361971
 30
0.0
 11
13902.82958141817
 21
9363.736797361971
 31
0.0
  0
LINE
  5
1A68E
330
747D
100
AcDbEntity
  8
部品1
 48
50.0
100
AcDbLine
 10
13868.82958141817
 20
9412.73679736197
 30
0.0
 11
13868.82958141817
 21
9418.736797361971
 31
0.0
  0
LINE
  5
1A68F
330
747D
100
AcDbEntity
  8
部品1
 48
50.0
100
AcDbLine
 10
13896.82958141817
 20
9418.736797361971
 30
0.0
 11
13896.82958141817
 21
9412.73679736197
 31
0.0
  0
LINE
  5
1A690
330
747D
100
AcDbEntity
  8
部品1
 48
50.0
100
AcDbLine
 10
13868.82958141817
 20
9412.73679736197
 30
0.0
 11
13896.82958141817
 21
9412.736797361969
 31
0.0
  0
LINE
  5
1A691
330
747D
100
AcDbEntity
  8
部品1
 48
50.0
100
AcDbLine
 10
13862.82958141817
 20
9418.736797361971
 30
0.0
 11
13868.82958141817
 21
9418.736797361971
 31
0.0
  0
LINE
  5
1A692
330
747D
100
AcDbEntity
  8
部品1
 48
50.0
100
AcDbLine
 10
13896.82958141817
 20
9418.736797361971
 30
0.0
 11
13902.82958141817
 21
9418.736797361971
 31
0.0
  0
LINE
  5
1A699
330
747D
100
AcDbEntity
  8
部品1
 48
50.0
100
AcDbLine
 10
14766.82958141817
 20
9418.736797361971
 30
0.0
 11
14772.82958141817
 21
9418.736797361971
 31
0.0
  0
LINE
  5
1A69A
330
747D
100
AcDbEntity
  8
部品1
 48
50.0
100
AcDbLine
 10
14732.82958141817
 20
9418.736797361971
 30
0.0
 11
14738.82958141817
 21
9418.736797361971
 31
0.0
  0
LINE
  5
1A69B
330
747D
100
AcDbEntity
  8
部品1
 48
50.0
100
AcDbLine
 10
14738.82958141817
 20
9412.73679736197
 30
0.0
 11
14766.82958141817
 21
9412.736797361969
 31
0.0
  0
LINE
  5
1A69C
330
747D
100
AcDbEntity
  8
部品1
 48
50.0
100
AcDbLine
 10
14766.82958141817
 20
9418.736797361971
 30
0.0
 11
14766.82958141817
 21
9412.73679736197
 31
0.0
  0
LINE
  5
1A69D
330
747D
100
AcDbEntity
  8
部品1
 48
50.0
100
AcDbLine
 10
14738.82958141817
 20
9412.73679736197
 30
0.0
 11
14738.82958141817
 21
9418.736797361971
 31
0.0
  0
LINE
  5
1A69E
330
747D
100
AcDbEntity
  8
部品1
 48
50.0
100
AcDbLine
 10
14772.82958141817
 20
9418.736797361971
 30
0.0
 11
14772.82958141817
 21
9363.736797361971
 31
0.0
  0
LINE
  5
1A69F
330
747D
100
AcDbEntity
  8
部品1
 48
50.0
100
AcDbLine
 10
14732.82958141817
 20
9363.736797361971
 30
0.0
 11
14732.82958141817
 21
9418.736797361971
 31
0.0
  0
LINE
  5
1A6A0
330
747D
100
AcDbEntity
  8
部品1
 48
50.0
100
AcDbLine
 10
14186.82958141817
 20
9418.736797361971
 30
0.0
 11
14192.82958141817
 21
9418.736797361971
 31
0.0
  0
LINE
  5
1A6A1
330
747D
100
AcDbEntity
  8
部品1
 48
50.0
100
AcDbLine
 10
14152.82958141817
 20
9418.736797361971
 30
0.0
 11
14158.82958141817
 21
9418.736797361971
 31
0.0
  0
LINE
  5
1A6A2
330
747D
100
AcDbEntity
  8
部品1
 48
50.0
100
AcDbLine
 10
14158.82958141817
 20
9412.73679736197
 30
0.0
 11
14186.82958141817
 21
9412.736797361969
 31
0.0
  0
LINE
  5
1A6A3
330
747D
100
AcDbEntity
  8
部品1
 48
50.0
100
AcDbLine
 10
14186.82958141817
 20
9418.736797361971
 30
0.0
 11
14186.82958141817
 21
9412.73679736197
 31
0.0
  0
LINE
  5
1A6A4
330
747D
100
AcDbEntity
  8
部品1
 48
50.0
100
AcDbLine
 10
14158.82958141817
 20
9412.73679736197
 30
0.0
 11
14158.82958141817
 21
9418.736797361971
 31
0.0
  0
LINE
  5
1A6A5
330
747D
100
AcDbEntity
  8
部品1
 48
50.0
100
AcDbLine
 10
14192.82958141817
 20
9418.736797361971
 30
0.0
 11
14192.82958141817
 21
9363.736797361971
 31
0.0
  0
LINE
  5
1A6A6
330
747D
100
AcDbEntity
  8
部品1
 48
50.0
100
AcDbLine
 10
14152.82958141817
 20
9363.736797361971
 30
0.0
 11
14152.82958141817
 21
9418.736797361971
 31
0.0
  0
LINE
  5
1A6A7
330
747D
100
AcDbEntity
  8
部品1
 48
50.0
100
AcDbLine
 10
14442.82958141817
 20
9363.736797361971
 30
0.0
 11
14442.82958141817
 21
9418.736797361971
 31
0.0
  0
LINE
  5
1A6A8
330
747D
100
AcDbEntity
  8
部品1
 48
50.0
100
AcDbLine
 10
14482.82958141817
 20
9418.736797361971
 30
0.0
 11
14482.82958141817
 21
9363.736797361971
 31
0.0
  0
LINE
  5
1A6A9
330
747D
100
AcDbEntity
  8
部品1
 48
50.0
100
AcDbLine
 10
14448.82958141817
 20
9412.73679736197
 30
0.0
 11
14448.82958141817
 21
9418.736797361971
 31
0.0
  0
LINE
  5
1A6AA
330
747D
100
AcDbEntity
  8
部品1
 48
50.0
100
AcDbLine
 10
14476.82958141817
 20
9418.736797361971
 30
0.0
 11
14476.82958141817
 21
9412.73679736197
 31
0.0
  0
LINE
  5
1A6AB
330
747D
100
AcDbEntity
  8
部品1
 48
50.0
100
AcDbLine
 10
14448.82958141817
 20
9412.73679736197
 30
0.0
 11
14476.82958141817
 21
9412.736797361969
 31
0.0
  0
LINE
  5
1A6AC
330
747D
100
AcDbEntity
  8
部品1
 48
50.0
100
AcDbLine
 10
14476.82958141817
 20
9418.736797361971
 30
0.0
 11
14482.82958141817
 21
9418.736797361971
 31
0.0
  0
LINE
  5
1A6AD
330
747D
100
AcDbEntity
  8
部品1
 48
50.0
100
AcDbLine
 10
14442.82958141817
 20
9418.736797361971
 30
0.0
 11
14448.82958141817
 21
9418.736797361971
 31
0.0
  0
MTEXT
  5
1A6AE
102
{ACAD_REACTORS
330
1A6AF
102
}
330
747D
100
AcDbEntity
  8
部品1
 62
     7
 48
50.0
100
AcDbMText
 10
13501.87736665797
 20
12198.22045057759
 30
0.0
 40
150.0
 41
0.0
 71
     4
 72
     1
  1
\A1;屋根パネル
  7
STYLE1
 73
     1
 44
1.0
1001
ACAD
1000
MTEXTBEGIN
1070
    73
1070
     1
1070
    44
1040
1.0
1070
    74
1070
     0
1000
MTEXTEND
  0
LEADER
  5
1A6AF
330
747D
100
AcDbEntity
  8
寸法
 48
50.0
100
AcDbLeader
  3
INABA_S50G
 71
     0
 73
     0
 74
     0
 75
     1
 40
150.0
 41
900.0
 76
     3
 10
13262.89470495982
 20
11770.0347365094
 30
0.0
 10
13351.87736665797
 20
12098.22045057759
 30
0.0
 10
13476.87736665797
 20
12098.22045057759
 30
0.0
340
1A6AE
  0
MTEXT
  5
1A6B0
102
{ACAD_REACTORS
330
1A6B1
102
}
330
747D
100
AcDbEntity
  8
寸法
 62
     7
 48
50.0
100
AcDbMText
 10
12603.3944351596
 20
11412.78867508207
 30
0.0
 40
150.0
 41
0.0
 71
     6
 72
     1
  1
\A1;桁前
  7
STYLE1
 73
     1
 44
1.0
1001
ACAD
1000
MTEXTBEGIN
1070
    73
1070
     1
1070
    44
1040
1.0
1070
    74
1070
     0
1000
MTEXTEND
  0
LEADER
  5
1A6B1
330
747D
100
AcDbEntity
  8
寸法
 48
50.0
100
AcDbLeader
  3
INABA_S50G
 71
     0
 73
     0
 75
     1
 40
150.0
 41
337.5
 76
     3
 10
12942.82958141817
 20
11600.44622311199
 30
0.0
 10
12753.3944351596
 20
11312.78867508207
 30
0.0
 10
12628.3944351596
 20
11312.78867508207
 30
0.0
340
1A6B0
  0
LINE
  5
1A6B2
330
747D
100
AcDbEntity
  8
部品1
100
AcDbLine
 10
12996.32958141817
 20
11537.59466173824
 30
0.0
 11
13003.65800854291
 21
11544.92308887183
 31
0.0
  0
LINE
  5
1A6B3
330
747D
100
AcDbEntity
  8
部品1
100
AcDbLine
 10
12996.32958141817
 20
11537.59466173824
 30
0.0
 11
12993.32958141817
 21
11537.59466173824
 31
0.0
  0
ARC
  5
1A6B4
330
747D
100
AcDbEntity
  8
部品1
100
AcDbCircle
 10
13002.95090176173
 20
11545.63019565301
 30
0.0
 40
1.0
100
AcDbArc
 50
314.9999999999996
 51
44.99999999999885
  0
LINE
  5
1A6B5
330
747D
100
AcDbEntity
  8
部品1
100
AcDbLine
 10
13003.65808760154
 20
11546.33722336673
 30
0.0
 11
13002.95090176173
 21
11547.04440920654
 31
0.0
  0
LINE
  5
1A6B6
330
747D
100
AcDbEntity
  8
部品1
100
AcDbLine
 10
13002.95090176173
 20
11547.04440920654
 30
0.0
 11
13010.02196957359
 21
11554.11547701841
 31
0.0
  0
ARC
  5
1A6B7
330
747D
100
AcDbEntity
  8
部品1
100
AcDbCircle
 10
13011.43618313597
 20
11554.11547701841
 30
0.0
 40
1.0
100
AcDbArc
 50
225.0
 51
315.0
  0
LINE
  5
1A6B8
330
747D
100
AcDbEntity
  8
部品1
100
AcDbLine
 10
13012.14328991715
 20
11553.40837023722
 30
0.0
 11
13017.4717170419
 21
11558.73679736197
 31
0.0
  0
LINE
  5
1A6B9
330
747D
100
AcDbEntity
  8
部品1
100
AcDbLine
 10
13010.02196957359
 20
11554.11547701841
 30
0.0
 11
13010.72907635478
 21
11553.40837023722
 31
0.0
  0
LINE
  5
1A6BA
330
747D
100
AcDbEntity
  8
部品1
100
AcDbLine
 10
13016.4717170419
 20
11559.73679736197
 30
0.0
 11
13016.4717170419
 21
11563.73679736197
 31
0.0
  0
LINE
  5
1A6BB
330
747D
100
AcDbEntity
  8
部品1
100
AcDbLine
 10
13017.4717170419
 20
11558.73679736197
 30
0.0
 11
13017.4717170419
 21
11559.73679736197
 31
0.0
  0
LINE
  5
1A6BC
330
747D
100
AcDbEntity
  8
部品1
100
AcDbLine
 10
13017.4717170419
 20
11559.73679736197
 30
0.0
 11
13016.4717170419
 21
11559.73679736197
 31
0.0
  0
LINE
  5
1A6BD
330
747D
100
AcDbEntity
  8
部品1
 48
50.0
100
AcDbLine
 10
12942.82958141817
 20
11548.73679736196
 30
0.0
 11
12992.82958141817
 21
11548.73679736196
 31
0.0
  0
LINE
  5
1A6BE
330
747D
100
AcDbEntity
  8
部品1
 48
50.0
100
AcDbLine
 10
12992.82958141817
 20
11548.73679736196
 30
0.0
 11
13007.82958141817
 21
11563.73679736196
 31
0.0
  0
LINE
  5
1A6BF
330
747D
100
AcDbEntity
  8
部品1
 48
50.0
100
AcDbLine
 10
13007.82958141817
 20
11563.73679736196
 30
0.0
 11
13007.82958141817
 21
11583.73679736196
 31
0.0
  0
LINE
  5
1A6C0
330
747D
100
AcDbEntity
  8
部品1
 48
50.0
100
AcDbLine
 10
13007.82958141817
 20
11583.73679736196
 30
0.0
 11
13029.82958141817
 21
11583.73679736196
 31
0.0
  0
LINE
  5
1A6C1
330
747D
100
AcDbEntity
  8
部品1
 48
50.0
100
AcDbLine
 10
12992.82958141817
 20
11548.73679736196
 30
0.0
 11
12993.32958141817
 21
11548.73679736196
 31
0.0
  0
LINE
  5
1A6C2
330
747D
100
AcDbEntity
  8
部品1
 48
50.0
100
AcDbLine
 10
13016.4717170419
 20
11563.73679736197
 30
0.0
 11
13007.82958141817
 21
11563.73679736197
 31
0.0
  0
LINE
  5
1A6C3
330
747D
100
AcDbEntity
  8
部品1
 48
50.0
100
AcDbLine
 10
13007.82958141817
 20
11583.73679736196
 30
0.0
 11
13029.82958141817
 21
11583.73679736196
 31
0.0
  0
LINE
  5
1A6C4
330
747D
100
AcDbEntity
  8
部品1
 48
50.0
100
AcDbLine
 10
12942.90115138926
 20
11673.5834066249
 30
0.0
 11
12840.91051664772
 21
11675.20571554939
 31
0.0
  0
LINE
  5
1A6C5
330
747D
100
AcDbEntity
  8
細線
 48
50.0
100
AcDbLine
 10
12942.82958141816
 20
11669.08397580098
 30
0.0
 11
12837.83932612734
 21
11670.75399803954
 31
0.0
  0
LINE
  5
1A6C6
330
747D
100
AcDbEntity
  8
細線
 48
50.0
100
AcDbLine
 10
12835.60452861891
 20
11788.59550292576
 30
0.0
 11
12834.90661345142
 21
11766.60657583918
 31
0.0
  0
LINE
  5
1A6C7
330
747D
100
AcDbEntity
  8
部品1
 48
50.0
100
AcDbLine
 10
12837.83932612734
 20
11670.75399803954
 30
0.0
 11
12828.8404644795
 21
11670.89713798173
 31
0.0
  0
ARC
  5
1A6C8
330
747D
100
AcDbEntity
  8
部品1
 48
50.0
100
AcDbCircle
 10
12840.86280333365
 20
11672.20609500011
 30
0.0
 40
3.0
100
AcDbArc
 50
89.08870440418532
 51
179.0887044041913
  0
LINE
  5
1A6C9
330
747D
100
AcDbEntity
  8
部品1
 48
50.0
100
AcDbLine
 10
12837.83932612734
 20
11670.75399803954
 30
0.0
 11
12837.86318278437
 21
11672.25380831417
 31
0.0
  0
LINE
  5
1A6CA
330
747D
100
AcDbEntity
  8
部品1
100
AcDbLine
 10
12827.40813407785
 20
11786.54160810821
 30
0.0
 11
12834.10013006798
 21
11801.16076879153
 31
0.0
  0
ARC
  5
1A6CB
330
747D
100
AcDbEntity
  8
部品1
 48
50.0
100
AcDbCircle
 10
12837.28255353197
 20
11799.70399808346
 30
0.0
 40
3.5
100
AcDbArc
 50
88.96475328401214
 51
155.4038180356338
  0
LINE
  5
1A6CC
330
747D
100
AcDbEntity
  8
部品1
 48
50.0
100
AcDbLine
 10
12826.020629012
 20
11785.66612422279
 30
0.0
 11
12823.83301119891
 21
11785.70056056559
 31
0.0
  0
ARC
  5
1A6CD
330
747D
100
AcDbEntity
  8
部品1
100
AcDbCircle
 10
12826.04423830757
 20
11787.16593841167
 30
0.0
 40
1.5
100
AcDbArc
 50
269.0981540988974
 51
335.4038180356239
  0
LINE
  5
1A6CE
330
747D
100
AcDbEntity
  8
部品1
100
AcDbLine
 10
12807.83795305646
 20
11769.69937522019
 30
0.0
 11
12810.38580755857
 21
11692.20962380329
 31
0.0
  0
LINE
  5
1A6CF
330
747D
100
AcDbEntity
  8
部品1
100
AcDbLine
 10
12813.5035812939
 20
11688.67699207427
 30
0.0
 11
12813.59535490714
 21
11685.88581445
 31
0.0
  0
ARC
  5
1A6D0
330
747D
100
AcDbEntity
  8
部品1
100
AcDbCircle
 10
12811.58515943173
 20
11692.24905836094
 30
0.0
 40
1.199999999999999
100
AcDbArc
 50
181.8832004883104
 51
260.9777304905277
  0
ARC
  5
1A6D1
330
747D
100
AcDbEntity
  8
部品1
100
AcDbCircle
 10
12811.00493155814
 20
11688.59483674583
 30
0.0
 40
2.5
100
AcDbArc
 50
1.883200488304429
 51
80.9777304905255
  0
ARC
  5
1A6D2
330
747D
100
AcDbEntity
  8
部品1
100
AcDbCircle
 10
12829.08698326884
 20
11686.39517748635
 30
0.0
 40
15.5
100
AcDbArc
 50
181.8832004883684
 51
269.0887044041855
  0
ARC
  5
1A6D3
330
747D
100
AcDbEntity
  8
部品1
100
AcDbCircle
 10
12823.32958141817
 20
11770.20873825652
 30
0.0
 40
15.5
100
AcDbArc
 50
88.13874351680366
 51
181.8832004883104
  0
LINE
  5
1A6D4
330
747D
100
AcDbEntity
  8
部品1
 48
50.0
100
AcDbLine
 10
12885.04596203258
 20
11802.34146413899
 30
0.0
 11
12894.79555514413
 21
11773.96990383365
 31
0.0
  0
LINE
  5
1A6D5
330
747D
100
AcDbEntity
  8
細線
 48
50.0
100
AcDbLine
 10
12992.82708980051
 20
11761.59427599994
 30
0.0
 11
12992.31951513324
 21
11745.60232902788
 31
0.0
  0
LINE
  5
1A6D6
330
747D
100
AcDbEntity
  8
細線
 48
50.0
100
AcDbLine
 10
12972.32958141817
 20
11746.23679736196
 30
0.0
 11
12992.31951513324
 21
11745.60232902788
 31
0.0
  0
LINE
  5
1A6D7
330
747D
100
AcDbEntity
  8
細線
 48
50.0
100
AcDbLine
 10
12972.83715608543
 20
11762.22874433402
 30
0.0
 11
12972.32958141817
 21
11746.23679736197
 31
0.0
  0
LINE
  5
1A6D8
330
747D
100
AcDbEntity
  8
部品1
 48
50.0
100
AcDbLine
 10
12942.82958141817
 20
11758.73679736197
 30
0.0
 11
12971.32958141817
 21
11758.73679736197
 31
0.0
  0
LINE
  5
1A6D9
330
747D
100
AcDbEntity
  8
部品1
 48
50.0
100
AcDbLine
 10
12971.32958141817
 20
11758.73679736197
 30
0.0
 11
12971.32958141817
 21
11743.73679736196
 31
0.0
  0
LINE
  5
1A6DA
330
747D
100
AcDbEntity
  8
部品1
 48
50.0
100
AcDbLine
 10
12971.32958141817
 20
11743.73679736196
 30
0.0
 11
12993.82958141817
 21
11743.73679736196
 31
0.0
  0
LINE
  5
1A6DB
330
747D
100
AcDbEntity
  8
部品1
 48
50.0
100
AcDbLine
 10
13567.82958141817
 20
11583.73679736196
 30
0.0
 11
13567.82958141817
 21
11738.73679736197
 31
0.0
  0
LINE
  5
1A6DC
330
747D
100
AcDbEntity
  8
部品1
 48
50.0
100
AcDbLine
 10
14147.82958141817
 20
11583.73679736196
 30
0.0
 11
14147.82958141817
 21
11720.23679736197
 31
0.0
  0
LINE
  5
1A6DD
330
747D
100
AcDbEntity
  8
部品1
 48
50.0
100
AcDbLine
 10
14727.82958141817
 20
11583.73679736196
 30
0.0
 11
14727.82958141817
 21
11701.73679736197
 31
0.0
  0
MTEXT
  5
1A6DE
102
{ACAD_REACTORS
330
1A6DF
102
}
330
747D
100
AcDbEntity
  8
寸法
 62
     7
 48
50.0
100
AcDbMText
 10
14500.30087063654
 20
11981.40987824758
 30
0.0
 40
150.0
 41
0.0
 71
     6
 72
     1
  1
\A1;母屋中
  7
STYLE1
 73
     1
 44
1.0
1001
ACAD
1000
MTEXTBEGIN
1070
    73
1070
     1
1070
    44
1040
1.0
1070
    74
1070
     0
1000
MTEXTEND
  0
LEADER
  5
1A6DF
330
747D
100
AcDbEntity
  8
寸法
 48
50.0
100
AcDbLeader
  3
INABA_S50G
 71
     0
 73
     0
 75
     1
 40
150.0
 41
540.0000000000002
 76
     3
 10
14727.82958141817
 20
11612.38073961986
 30
0.0
 10
14650.30087063654
 20
11881.40987824758
 30
0.0
 10
14525.30087063654
 20
11881.40987824758
 30
0.0
340
1A6DE
  0
MTEXT
  5
1A6E0
102
{ACAD_REACTORS
330
1A6E1
102
}
330
747D
100
AcDbEntity
  8
寸法
 62
     7
 48
50.0
100
AcDbMText
 10
14274.00983170125
 20
11373.0922657685
 30
0.0
 40
150.0
 41
0.0
 71
     4
 72
     1
  1
\A1;天井
  7
STYLE1
 73
     1
 44
1.0
1001
ACAD
1000
MTEXTBEGIN
1070
    73
1070
     1
1070
    44
1040
1.0
1070
    74
1070
     0
1000
MTEXTEND
  0
LEADER
  5
1A6E1
330
747D
100
AcDbEntity
  8
寸法
 48
50.0
100
AcDbLeader
  3
INABA_S50G
 71
     0
 73
     0
 74
     0
 75
     1
 40
150.0
 41
360.0
 76
     3
 10
13975.00166744546
 20
11573.41424305313
 30
0.0
 10
14124.00983170125
 20
11273.0922657685
 30
0.0
 10
14249.00983170125
 20
11273.0922657685
 30
0.0
340
1A6E0
  0
LINE
  5
1A6E2
330
747D
100
AcDbEntity
  8
部品1
 48
50.0
100
AcDbLine
 10
13617.82958141817
 20
11595.73679736197
 30
0.0
 11
13617.82958141817
 21
11583.73679736196
 31
0.0
  0
LINE
  5
1A6E3
330
747D
100
AcDbEntity
  8
部品1
 48
50.0
100
AcDbLine
 10
13617.82958141817
 20
11583.73679736196
 30
0.0
 11
13567.82958141817
 21
11583.73679736196
 31
0.0
  0
LINE
  5
1A6E4
330
747D
100
AcDbEntity
  8
部品1
 48
50.0
100
AcDbLine
 10
14777.82958141817
 20
11583.73679736196
 30
0.0
 11
14727.82958141817
 21
11583.73679736196
 31
0.0
  0
LINE
  5
1A6E5
330
747D
100
AcDbEntity
  8
部品1
 48
50.0
100
AcDbLine
 10
14777.82958141817
 20
11595.73679736197
 30
0.0
 11
14777.82958141817
 21
11583.73679736196
 31
0.0
  0
LINE
  5
1A6E6
330
747D
100
AcDbEntity
  8
部品1
 48
50.0
100
AcDbLine
 10
14197.82958141817
 20
11583.73679736196
 30
0.0
 11
14147.82958141817
 21
11583.73679736196
 31
0.0
  0
LINE
  5
1A6E7
330
747D
100
AcDbEntity
  8
部品1
 48
50.0
100
AcDbLine
 10
14197.82958141817
 20
11595.73679736197
 30
0.0
 11
14197.82958141817
 21
11583.73679736196
 31
0.0
  0
LINE
  5
1A6E8
330
747D
100
AcDbEntity
  8
細線
 48
50.0
100
AcDbLine
 10
13598.31435570571
 20
11726.3684214802
 30
0.0
 11
13618.30428942078
 21
11725.73395314612
 31
0.0
  0
LINE
  5
1A6E9
330
747D
100
AcDbEntity
  8
細線
 48
50.0
100
AcDbLine
 10
13598.82193037297
 20
11742.36036845226
 30
0.0
 11
13598.31435570571
 21
11726.3684214802
 31
0.0
  0
LINE
  5
1A6EA
330
747D
100
AcDbEntity
  8
細線
 48
50.0
100
AcDbLine
 10
13618.81186408804
 20
11741.72590011818
 30
0.0
 11
13618.30428942078
 21
11725.73395314612
 31
0.0
  0
LINE
  5
1A6EB
330
747D
100
AcDbEntity
  8
部品1
 48
50.0
100
AcDbLine
 10
13567.82958141817
 20
11738.73679736197
 30
0.0
 11
13597.82958141817
 21
11737.23679736196
 31
0.0
  0
LINE
  5
1A6EC
330
747D
100
AcDbEntity
  8
部品1
 48
50.0
100
AcDbLine
 10
13597.82958141817
 20
11737.23679736196
 30
0.0
 11
13597.82958141817
 21
11726.23679736197
 31
0.0
  0
LINE
  5
1A6ED
330
747D
100
AcDbEntity
  8
部品1
 48
50.0
100
AcDbLine
 10
13597.82958141817
 20
11726.23679736197
 30
0.0
 11
13617.82958141817
 21
11725.23679736197
 31
0.0
  0
LINE
  5
1A6EE
330
747D
100
AcDbEntity
  8
細線
 48
50.0
100
AcDbLine
 10
14758.33020919144
 20
11689.55022405346
 30
0.0
 11
14778.32014290651
 21
11688.91575571938
 31
0.0
  0
LINE
  5
1A6EF
330
747D
100
AcDbEntity
  8
細線
 48
50.0
100
AcDbLine
 10
14758.83778385871
 20
11705.54217102552
 30
0.0
 11
14758.33020919144
 21
11689.55022405346
 31
0.0
  0
LINE
  5
1A6F0
330
747D
100
AcDbEntity
  8
細線
 48
50.0
100
AcDbLine
 10
14778.82771757378
 20
11704.90770269144
 30
0.0
 11
14778.32014290652
 21
11688.91575571938
 31
0.0
  0
LINE
  5
1A6F1
330
747D
100
AcDbEntity
  8
細線
 48
50.0
100
AcDbLine
 10
14178.32228244857
 20
11707.95932276683
 30
0.0
 11
14198.31221616365
 21
11707.32485443275
 31
0.0
  0
LINE
  5
1A6F2
330
747D
100
AcDbEntity
  8
細線
 48
50.0
100
AcDbLine
 10
14198.81979083091
 20
11723.31680140481
 30
0.0
 11
14198.31221616365
 21
11707.32485443275
 31
0.0
  0
LINE
  5
1A6F3
330
747D
100
AcDbEntity
  8
細線
 48
50.0
100
AcDbLine
 10
14178.82985711584
 20
11723.95126973889
 30
0.0
 11
14178.32228244857
 21
11707.95932276683
 31
0.0
  0
LINE
  5
1A6F4
330
747D
100
AcDbEntity
  8
部品1
 48
50.0
100
AcDbLine
 10
14757.82958141817
 20
11700.23679736197
 30
0.0
 11
14757.82958141817
 21
11689.23679736197
 31
0.0
  0
LINE
  5
1A6F5
330
747D
100
AcDbEntity
  8
部品1
 48
50.0
100
AcDbLine
 10
14727.82958141817
 20
11701.73679736197
 30
0.0
 11
14757.82958141817
 21
11700.23679736197
 31
0.0
  0
LINE
  5
1A6F6
330
747D
100
AcDbEntity
  8
部品1
 48
50.0
100
AcDbLine
 10
14757.82958141817
 20
11689.23679736197
 30
0.0
 11
14777.82958141817
 21
11688.23679736197
 31
0.0
  0
LINE
  5
1A6F7
330
747D
100
AcDbEntity
  8
部品1
 48
50.0
100
AcDbLine
 10
14147.82958141817
 20
11720.23679736197
 30
0.0
 11
14177.82958141817
 21
11718.73679736197
 31
0.0
  0
LINE
  5
1A6F8
330
747D
100
AcDbEntity
  8
部品1
 48
50.0
100
AcDbLine
 10
14177.82958141817
 20
11707.73679736196
 30
0.0
 11
14197.82958141817
 21
11706.73679736196
 31
0.0
  0
LINE
  5
1A6F9
330
747D
100
AcDbEntity
  8
部品1
 48
50.0
100
AcDbLine
 10
14177.82958141817
 20
11718.73679736197
 30
0.0
 11
14177.82958141817
 21
11707.73679736196
 31
0.0
  0
MTEXT
  5
1A6FA
102
{ACAD_REACTORS
330
1A6FB
102
}
330
747D
100
AcDbEntity
  8
寸法
 62
     7
 48
50.0
100
AcDbMText
 10
16253.03052825934
 20
10806.69336694683
 30
0.0
 40
150.0
 41
0.0
 71
     4
 72
     1
  1
\A1;壁パネル
  7
STYLE1
 73
     1
 44
1.0
1001
ACAD
1000
MTEXTBEGIN
1070
    73
1070
     1
1070
    44
1040
1.0
1070
    74
1070
     0
1000
MTEXTEND
  0
LEADER
  5
1A6FB
330
747D
100
AcDbEntity
  8
寸法
 48
50.0
100
AcDbLeader
  3
INABA_S50G
 71
     0
 73
     0
 74
     0
 75
     1
 40
150.0
 41
719.9999999999999
 76
     3
 10
15970.64563276008
 20
10502.70386958124
 30
0.0
 10
16103.03052825934
 20
10706.69336694683
 30
0.0
 10
16228.03052825934
 20
10706.69336694683
 30
0.0
340
1A6FA
  0
LINE
  5
1A6FC
330
747D
100
AcDbEntity
  8
細線
 48
50.0
100
AcDbLine
 10
15947.82958141817
 20
11548.73679736197
 30
0.0
 11
15947.82958141817
 21
9418.736797361971
 31
0.0
  0
LINE
  5
1A6FD
330
747D
100
AcDbEntity
  8
部品1
 48
50.0
100
AcDbLine
 10
15932.32958141817
 20
11548.73679736196
 30
0.0
 11
15932.32958141817
 21
9430.736797361971
 31
0.0
  0
LINE
  5
1A6FE
330
747D
100
AcDbEntity
  8
部品1
 48
50.0
100
AcDbLine
 10
15896.32958141817
 20
11537.59466173824
 30
0.0
 11
15896.32958141817
 21
9470.73679736197
 31
0.0
  0
LINE
  5
1A6FF
330
747D
100
AcDbEntity
  8
部品1
 48
50.0
100
AcDbLine
 10
15350.82958141817
 20
11233.08847168112
 30
0.0
 11
15350.82958141817
 21
9470.73679736197
 31
0.0
  0
LINE
  5
1A700
330
747D
100
AcDbEntity
  8
部品1
 48
50.0
100
AcDbLine
 10
15314.82958141817
 20
11233.08847168112
 30
0.0
 11
15314.82958141817
 21
9470.73679736197
 31
0.0
  0
LINE
  5
1A701
330
747D
100
AcDbEntity
  8
部品1
 48
50.0
100
AcDbLine
 10
15982.82958141817
 20
11643.73679736196
 30
0.0
 11
15982.82958141817
 21
9418.736797361971
 31
0.0
  0
MTEXT
  5
1A702
102
{ACAD_REACTORS
330
1A703
102
}
330
747D
100
AcDbEntity
  8
寸法
 62
     7
 48
50.0
100
AcDbMText
 10
16222.3774760777
 20
10397.63117983798
 30
0.0
 40
150.0
 41
0.0
 71
     4
 72
     1
  1
\A1;内壁
  7
STYLE1
 73
     1
 44
1.0
1001
ACAD
1000
MTEXTBEGIN
1070
    73
1070
     1
1070
    44
1040
1.0
1070
    74
1070
     0
1000
MTEXTEND
  0
LEADER
  5
1A703
330
747D
100
AcDbEntity
  8
寸法
 48
50.0
100
AcDbLeader
  3
INABA_S50G
 71
     0
 73
     0
 74
     0
 75
     1
 40
150.0
 41
320.0000000000001
 76
     3
 10
15939.99258057844
 20
10093.64168247239
 30
0.0
 10
16072.37747607771
 20
10297.63117983798
 30
0.0
 10
16197.37747607771
 20
10297.63117983798
 30
0.0
340
1A702
  0
MTEXT
  5
1A704
102
{ACAD_REACTORS
330
1A705
102
}
330
747D
100
AcDbEntity
  8
寸法
 62
     7
 48
50.0
100
AcDbMText
 10
16275.21447691744
 20
9692.226294727554
 30
0.0
 40
150.0
 41
0.0
 71
     4
 72
     1
  1
\A1;土台前後
  7
STYLE1
 73
     1
 44
1.0
1001
ACAD
1000
MTEXTBEGIN
1070
    73
1070
     1
1070
    44
1040
1.0
1070
    74
1070
     0
1000
MTEXTEND
  0
LEADER
  5
1A705
330
747D
100
AcDbEntity
  8
寸法
 48
50.0
100
AcDbLeader
  3
INABA_S50G
 71
     0
 73
     0
 74
     0
 75
     1
 40
150.0
 41
719.9999999999995
 76
     3
 10
15982.82958141817
 20
9388.236797361971
 30
0.0
 10
16125.21447691744
 20
9592.226294727554
 30
0.0
 10
16250.21447691744
 20
9592.226294727554
 30
0.0
340
1A704
  0
MTEXT
  5
1A706
102
{ACAD_REACTORS
330
1A707
102
}
330
747D
100
AcDbEntity
  8
寸法
 62
     7
 48
50.0
100
AcDbMText
 10
15713.56909905213
 20
9701.080712269295
 30
0.0
 40
150.0
 41
0.0
 71
     6
 72
     1
  1
\A1;巾木
  7
STYLE1
 73
     1
 44
1.0
1001
ACAD
1000
MTEXTBEGIN
1070
    73
1070
     1
1070
    44
1040
1.0
1070
    74
1070
     0
1000
MTEXTEND
  0
LEADER
  5
1A707
330
747D
100
AcDbEntity
  8
寸法
 48
50.0
100
AcDbLeader
  3
INABA_S50G
 71
     0
 73
     0
 75
     1
 40
150.0
 41
310.0
 76
     3
 10
15926.76541320618
 20
9455.070269982758
 30
0.0
 10
15863.56909905213
 20
9601.080712269295
 30
0.0
 10
15738.56909905213
 20
9601.080712269295
 30
0.0
340
1A706
  0
LINE
  5
1A70E
330
747D
100
AcDbEntity
  8
部品1
 48
50.0
100
AcDbLine
 10
15312.82958141817
 20
9363.736797361971
 30
0.0
 11
15312.82958141817
 21
9418.736797361971
 31
0.0
  0
LINE
  5
1A70F
330
747D
100
AcDbEntity
  8
部品1
 48
50.0
100
AcDbLine
 10
15352.82958141817
 20
9418.736797361971
 30
0.0
 11
15352.82958141817
 21
9363.736797361971
 31
0.0
  0
LINE
  5
1A710
330
747D
100
AcDbEntity
  8
部品1
 48
50.0
100
AcDbLine
 10
15318.82958141816
 20
9412.73679736197
 30
0.0
 11
15318.82958141816
 21
9418.736797361971
 31
0.0
  0
LINE
  5
1A711
330
747D
100
AcDbEntity
  8
部品1
 48
50.0
100
AcDbLine
 10
15346.82958141817
 20
9418.736797361971
 30
0.0
 11
15346.82958141817
 21
9412.73679736197
 31
0.0
  0
LINE
  5
1A712
330
747D
100
AcDbEntity
  8
部品1
 48
50.0
100
AcDbLine
 10
15318.82958141816
 20
9412.73679736197
 30
0.0
 11
15346.82958141817
 21
9412.736797361969
 31
0.0
  0
LINE
  5
1A713
330
747D
100
AcDbEntity
  8
部品1
 48
50.0
100
AcDbLine
 10
15312.82958141817
 20
9418.736797361971
 30
0.0
 11
15318.82958141816
 21
9418.736797361971
 31
0.0
  0
LINE
  5
1A714
330
747D
100
AcDbEntity
  8
部品1
 48
50.0
100
AcDbLine
 10
15346.82958141817
 20
9418.736797361971
 30
0.0
 11
15352.82958141817
 21
9418.736797361971
 31
0.0
  0
LINE
  5
1A715
330
747D
100
AcDbEntity
  8
部品1
 48
50.0
100
AcDbLine
 10
15056.82958141816
 20
9418.736797361971
 30
0.0
 11
15062.82958141817
 21
9418.736797361971
 31
0.0
  0
LINE
  5
1A716
330
747D
100
AcDbEntity
  8
部品1
 48
50.0
100
AcDbLine
 10
15022.82958141817
 20
9418.736797361971
 30
0.0
 11
15028.82958141817
 21
9418.736797361971
 31
0.0
  0
LINE
  5
1A717
330
747D
100
AcDbEntity
  8
部品1
 48
50.0
100
AcDbLine
 10
15028.82958141817
 20
9412.73679736197
 30
0.0
 11
15056.82958141816
 21
9412.736797361969
 31
0.0
  0
LINE
  5
1A718
330
747D
100
AcDbEntity
  8
部品1
 48
50.0
100
AcDbLine
 10
15056.82958141816
 20
9418.736797361971
 30
0.0
 11
15056.82958141816
 21
9412.73679736197
 31
0.0
  0
LINE
  5
1A719
330
747D
100
AcDbEntity
  8
部品1
 48
50.0
100
AcDbLine
 10
15028.82958141817
 20
9412.73679736197
 30
0.0
 11
15028.82958141817
 21
9418.736797361971
 31
0.0
  0
LINE
  5
1A71A
330
747D
100
AcDbEntity
  8
部品1
 48
50.0
100
AcDbLine
 10
15062.82958141817
 20
9418.736797361971
 30
0.0
 11
15062.82958141817
 21
9363.736797361971
 31
0.0
  0
LINE
  5
1A71B
330
747D
100
AcDbEntity
  8
部品1
 48
50.0
100
AcDbLine
 10
15022.82958141817
 20
9363.736797361971
 30
0.0
 11
15022.82958141817
 21
9418.736797361971
 31
0.0
  0
LINE
  5
1A72E
330
747D
100
AcDbEntity
  8
部品1
 48
50.0
100
AcDbLine
 10
15932.32958141816
 20
9470.73679736197
 30
0.0
 11
15923.32958141817
 21
9470.73679736197
 31
0.0
  0
LINE
  5
1A72F
330
747D
100
AcDbEntity
  8
部品1
 48
50.0
100
AcDbLine
 10
15932.32958141817
 20
9430.736797361971
 30
0.0
 11
15932.32958141817
 21
9418.736797361971
 31
0.0
  0
LINE
  5
1A730
330
747D
100
AcDbEntity
  8
部品1
 48
50.0
100
AcDbLine
 10
15947.32958141817
 20
9430.736797361971
 30
0.0
 11
15932.32958141817
 21
9430.736797361971
 31
0.0
  0
LINE
  5
1A731
330
747D
100
AcDbEntity
  8
部品1
 48
50.0
100
AcDbLine
 10
15947.32958141817
 20
9418.736797361971
 30
0.0
 11
15947.32958141817
 21
9430.736797361971
 31
0.0
  0
LINE
  5
1A732
330
747D
100
AcDbEntity
  8
部品1
 48
50.0
100
AcDbLine
 10
15982.82958141817
 20
9418.736797361971
 30
0.0
 11
15947.32958141817
 21
9418.736797361971
 31
0.0
  0
LINE
  5
1A733
330
747D
100
AcDbEntity
  8
部品1
 48
50.0
100
AcDbLine
 10
15918.32958141817
 20
9418.736797361971
 30
0.0
 11
15918.32958141817
 21
9411.736797361971
 31
0.0
  0
LINE
  5
1A734
330
747D
100
AcDbEntity
  8
部品1
 48
50.0
100
AcDbLine
 10
15982.82958141817
 20
9412.73679736197
 30
0.0
 11
15976.82958141817
 21
9412.73679736197
 31
0.0
  0
LINE
  5
1A735
330
747D
100
AcDbEntity
  8
部品1
 48
50.0
100
AcDbLine
 10
15976.82958141817
 20
9412.73679736197
 30
0.0
 11
15976.82958141817
 21
9418.736797361971
 31
0.0
  0
LINE
  5
1A736
330
747D
100
AcDbEntity
  8
部品1
 48
50.0
100
AcDbLine
 10
15918.32958141817
 20
9418.736797361971
 30
0.0
 11
15932.32958141817
 21
9418.736797361971
 31
0.0
  0
LINE
  5
1A737
330
747D
100
AcDbEntity
  8
部品1
 48
50.0
100
AcDbLine
 10
15923.32958141817
 20
9430.736797361971
 30
0.0
 11
15932.32958141817
 21
9430.736797361971
 31
0.0
  0
LINE
  5
1A738
330
747D
100
AcDbEntity
  8
部品1
 48
50.0
100
AcDbLine
 10
15982.82958141817
 20
9412.736797361969
 30
0.0
 11
15982.82958141817
 21
9363.736797361971
 31
0.0
  0
LINE
  5
1A739
330
747D
100
AcDbEntity
  8
部品1
 48
50.0
100
AcDbLine
 10
15923.32958141817
 20
9470.73679736197
 30
0.0
 11
15923.32958141817
 21
9430.736797361971
 31
0.0
  0
LINE
  5
1A73A
330
747D
100
AcDbEntity
  8
部品1
 48
50.0
100
AcDbLine
 10
15894.32958141817
 20
9411.736797361971
 30
0.0
 11
15894.32958141817
 21
9363.736797361971
 31
0.0
  0
LINE
  5
1A73B
330
747D
100
AcDbEntity
  8
部品1
 48
50.0
100
AcDbLine
 10
15602.82958141816
 20
9363.736797361971
 30
0.0
 11
15602.82958141816
 21
9418.736797361971
 31
0.0
  0
LINE
  5
1A73C
330
747D
100
AcDbEntity
  8
部品1
 48
50.0
100
AcDbLine
 10
15642.82958141816
 20
9418.736797361971
 30
0.0
 11
15642.82958141816
 21
9363.736797361971
 31
0.0
  0
LINE
  5
1A73D
330
747D
100
AcDbEntity
  8
部品1
 48
50.0
100
AcDbLine
 10
15608.82958141817
 20
9412.73679736197
 30
0.0
 11
15608.82958141817
 21
9418.736797361971
 31
0.0
  0
LINE
  5
1A73E
330
747D
100
AcDbEntity
  8
部品1
 48
50.0
100
AcDbLine
 10
15636.82958141817
 20
9418.736797361971
 30
0.0
 11
15636.82958141817
 21
9412.73679736197
 31
0.0
  0
LINE
  5
1A73F
330
747D
100
AcDbEntity
  8
部品1
 48
50.0
100
AcDbLine
 10
15608.82958141817
 20
9412.73679736197
 30
0.0
 11
15636.82958141817
 21
9412.736797361969
 31
0.0
  0
LINE
  5
1A740
330
747D
100
AcDbEntity
  8
部品1
 48
50.0
100
AcDbLine
 10
15602.82958141816
 20
9418.736797361971
 30
0.0
 11
15608.82958141817
 21
9418.736797361971
 31
0.0
  0
LINE
  5
1A741
330
747D
100
AcDbEntity
  8
部品1
 48
50.0
100
AcDbLine
 10
15636.82958141817
 20
9418.736797361971
 30
0.0
 11
15642.82958141816
 21
9418.736797361971
 31
0.0
  0
LINE
  5
1A742
330
747D
100
AcDbEntity
  8
部品1
 48
50.0
100
AcDbLine
 10
15918.32958141817
 20
9411.736797361971
 30
0.0
 11
15894.32958141817
 21
9411.736797361971
 31
0.0
  0
LINE
  5
1A743
330
747D
100
AcDbEntity
  8
部品1
 48
50.0
100
AcDbLine
 10
16076.9524220434
 20
11710.15834117355
 30
0.0
 11
16050.80660766724
 21
11710.63080728955
 31
0.0
  0
ARC
  5
1A744
330
747D
100
AcDbEntity
  8
部品1
100
AcDbCircle
 10
16053.82958141817
 20
11579.546036235
 30
0.0
 40
10.0
100
AcDbArc
 50
270.0
 51
0.0
  0
ARC
  5
1A745
330
747D
100
AcDbEntity
  8
部品1
100
AcDbCircle
 10
16050.36498189196
 20
11635.1560803018
 30
0.0
 40
15.5
100
AcDbArc
 50
269.0887044041855
 51
353.9245361249208
  0
LINE
  5
1A746
330
747D
100
AcDbEntity
  8
部品1
100
AcDbLine
 10
16058.33578614472
 20
11735.79220093534
 30
0.0
 11
16055.71977994811
 21
11742.82495737242
 31
0.0
  0
MTEXT
  5
1A747
102
{ACAD_REACTORS
330
1A748
102
}
330
747D
100
AcDbEntity
  8
寸法
 62
     7
 48
50.0
100
AcDbMText
 10
16269.7145281576
 20
11208.8835600829
 30
0.0
 40
150.0
 41
0.0
 71
     4
 72
     1
  1
\A1;桁後
  7
STYLE1
 73
     1
 44
1.0
1001
ACAD
1000
MTEXTBEGIN
1070
    73
1070
     1
1070
    44
1040
1.0
1070
    74
1070
     0
1000
MTEXTEND
  0
LEADER
  5
1A748
330
747D
100
AcDbEntity
  8
寸法
 48
50.0
100
AcDbLeader
  3
INABA_S50G
 71
     0
 73
     0
 74
     0
 75
     1
 40
150.0
 41
360.0000000000001
 76
     3
 10
15982.82958141817
 20
11602.2065891273
 30
0.0
 10
16119.7145281576
 20
11108.8835600829
 30
0.0
 10
16244.7145281576
 20
11108.8835600829
 30
0.0
340
1A747
  0
MTEXT
  5
1A749
102
{ACAD_REACTORS
330
1A74A
102
}
330
747D
100
AcDbEntity
  8
部品1
 62
     7
 48
50.0
100
AcDbMText
 10
15120.34793628784
 20
11981.40987824758
 30
0.0
 40
150.0
 41
0.0
 71
     4
 72
     1
  1
\A1;梁中
  7
STYLE1
 73
     1
 44
1.0
1001
ACAD
1000
MTEXTBEGIN
1070
    73
1070
     1
1070
    44
1040
1.0
1070
    74
1070
     0
1000
MTEXTEND
  0
LEADER
  5
1A74A
330
747D
100
AcDbEntity
  8
寸法
 48
50.0
100
AcDbLeader
  3
INABA_S50G
 71
     0
 73
     0
 74
     0
 75
     1
 40
150.0
 41
360.0
 76
     3
 10
14856.05603730795
 20
11614.53834766419
 30
0.0
 10
14970.34793628784
 20
11881.40987824758
 30
0.0
 10
15095.34793628784
 20
11881.40987824758
 30
0.0
340
1A749
  0
LINE
  5
1A74B
330
747D
100
AcDbEntity
  8
部品1
 48
50.0
100
AcDbLine
 10
15307.82958141817
 20
11583.73679736196
 30
0.0
 11
15307.82958141817
 21
11683.23679736197
 31
0.0
  0
MTEXT
  5
1A74C
102
{ACAD_REACTORS
330
1A74D
102
}
330
747D
100
AcDbEntity
  8
寸法
 62
     7
 48
50.0
100
AcDbMText
 10
15695.28840950223
 20
11362.92239508256
 30
0.0
 40
150.0
 41
0.0
 71
     6
 72
     1
  1
\A1;回リ縁
  7
STYLE1
 73
     1
 44
1.0
1001
ACAD
1000
MTEXTBEGIN
1070
    73
1070
     1
1070
    44
1040
1.0
1070
    74
1070
     0
1000
MTEXTEND
  0
LEADER
  5
1A74D
330
747D
100
AcDbEntity
  8
寸法
 48
50.0
100
AcDbLeader
  3
INABA_S50G
 71
     0
 73
     0
 75
     1
 40
150.0
 41
530.0000000000001
 76
     3
 10
15919.17272716867
 20
11550.57994311248
 30
0.0
 10
15845.28840950223
 20
11262.92239508256
 30
0.0
 10
15720.28840950223
 20
11262.92239508256
 30
0.0
340
1A74C
  0
LINE
  5
1A74E
330
747D
100
AcDbEntity
  8
部品1
 48
50.0
100
AcDbLine
 10
15350.82958141817
 20
11537.59466173824
 30
0.0
 11
15350.82958141817
 21
11454.72281612389
 31
0.0
  0
LINE
  5
1A74F
330
747D
100
AcDbEntity
  8
部品1
 48
50.0
100
AcDbLine
 10
15314.82958141817
 20
11537.59466173824
 30
0.0
 11
15314.82958141817
 21
11454.72281612389
 31
0.0
  0
LINE
  5
1A750
330
747D
100
AcDbEntity
  8
部品1
 48
50.0
100
AcDbLine
 10
15357.82958141817
 20
11595.73679736197
 30
0.0
 11
15357.82958141817
 21
11583.73679736196
 31
0.0
  0
LINE
  5
1A751
330
747D
100
AcDbEntity
  8
部品1
 48
50.0
100
AcDbLine
 10
15357.82958141817
 20
11583.73679736196
 30
0.0
 11
15307.82958141817
 21
11583.73679736196
 31
0.0
  0
LINE
  5
1A752
330
747D
100
AcDbEntity
  8
細線
 48
50.0
100
AcDbLine
 10
16041.11960145479
 20
11619.80118073938
 30
0.0
 11
15982.82958141817
 21
11620.72836802431
 31
0.0
  0
LINE
  5
1A753
330
747D
100
AcDbEntity
  8
部品1
100
AcDbLine
 10
16003.82958141817
 20
11618.546036235
 30
0.0
 11
16003.82958141817
 21
11591.546036235
 31
0.0
  0
LINE
  5
1A754
330
747D
100
AcDbEntity
  8
部品1
100
AcDbLine
 10
16003.82958141817
 20
11620.39433257585
 30
0.0
 11
16003.82958141817
 21
11579.546036235
 31
0.0
  0
ARC
  5
1A755
330
747D
100
AcDbEntity
  8
部品1
100
AcDbCircle
 10
16013.82958141817
 20
11579.546036235
 30
0.0
 40
10.0
100
AcDbArc
 50
180.0
 51
270.0
  0
LINE
  5
1A756
330
747D
100
AcDbEntity
  8
部品1
100
AcDbLine
 10
16013.82958141817
 20
11569.546036235
 30
0.0
 11
16053.82958141817
 21
11569.546036235
 31
0.0
  0
LINE
  5
1A757
330
747D
100
AcDbEntity
  8
部品1
100
AcDbLine
 10
16050.11846310262
 20
11619.65804079718
 30
0.0
 11
16041.11960145479
 21
11619.80118073938
 31
0.0
  0
LINE
  5
1A758
330
747D
100
AcDbEntity
  8
部品1
100
AcDbLine
 10
15982.82958141817
 20
11573.73679736197
 30
0.0
 11
15982.82958141817
 21
11533.73679736197
 31
0.0
  0
LINE
  5
1A759
330
747D
100
AcDbEntity
  8
部品1
 48
50.0
100
AcDbLine
 10
15932.82958141817
 20
11548.73679736196
 30
0.0
 11
15917.82958141816
 21
11563.73679736196
 31
0.0
  0
LINE
  5
1A75A
330
747D
100
AcDbEntity
  8
部品1
100
AcDbLine
 10
15929.32958141816
 20
11537.59466173824
 30
0.0
 11
15922.00115429342
 21
11544.92308887183
 31
0.0
  0
LINE
  5
1A75B
330
747D
100
AcDbEntity
  8
部品1
 48
50.0
100
AcDbLine
 10
15932.82958141817
 20
11548.73679736196
 30
0.0
 11
15932.32958141816
 21
11548.73679736196
 31
0.0
  0
LINE
  5
1A75C
330
747D
100
AcDbEntity
  8
部品1
 48
50.0
100
AcDbLine
 10
15982.82958141816
 20
11548.73679736196
 30
0.0
 11
15932.82958141817
 21
11548.73679736196
 31
0.0
  0
LINE
  5
1A75D
330
747D
100
AcDbEntity
  8
部品1
100
AcDbLine
 10
15929.32958141816
 20
11537.59466173824
 30
0.0
 11
15932.32958141816
 21
11537.59466173824
 31
0.0
  0
LINE
  5
1A75E
330
747D
100
AcDbEntity
  8
部品1
 48
50.0
100
AcDbLine
 10
15917.82958141816
 20
11563.73679736196
 30
0.0
 11
15917.82958141816
 21
11583.73679736196
 31
0.0
  0
LINE
  5
1A75F
330
747D
100
AcDbEntity
  8
部品1
100
AcDbLine
 10
15908.18744579443
 20
11559.73679736197
 30
0.0
 11
15909.18744579443
 21
11559.73679736197
 31
0.0
  0
LINE
  5
1A760
330
747D
100
AcDbEntity
  8
部品1
100
AcDbLine
 10
15908.18744579443
 20
11558.73679736197
 30
0.0
 11
15908.18744579443
 21
11559.73679736197
 31
0.0
  0
LINE
  5
1A761
330
747D
100
AcDbEntity
  8
部品1
100
AcDbLine
 10
15909.18744579443
 20
11559.73679736197
 30
0.0
 11
15909.18744579443
 21
11563.73679736197
 31
0.0
  0
LINE
  5
1A762
330
747D
100
AcDbEntity
  8
部品1
100
AcDbLine
 10
15915.63719326274
 20
11554.11547701841
 30
0.0
 11
15914.93008648155
 21
11553.40837023722
 31
0.0
  0
LINE
  5
1A763
330
747D
100
AcDbEntity
  8
部品1
100
AcDbLine
 10
15913.51587291918
 20
11553.40837023722
 30
0.0
 11
15908.18744579443
 21
11558.73679736197
 31
0.0
  0
ARC
  5
1A764
330
747D
100
AcDbEntity
  8
部品1
100
AcDbCircle
 10
15914.22297970037
 20
11554.11547701841
 30
0.0
 40
1.0
100
AcDbArc
 50
225.0
 51
315.0
  0
LINE
  5
1A765
330
747D
100
AcDbEntity
  8
部品1
100
AcDbLine
 10
15922.7082610746
 20
11547.04440920654
 30
0.0
 11
15915.63719326274
 21
11554.11547701841
 31
0.0
  0
LINE
  5
1A766
330
747D
100
AcDbEntity
  8
部品1
100
AcDbLine
 10
15922.00107523479
 20
11546.33722336673
 30
0.0
 11
15922.7082610746
 21
11547.04440920654
 31
0.0
  0
ARC
  5
1A767
330
747D
100
AcDbEntity
  8
部品1
100
AcDbCircle
 10
15922.7082610746
 20
11545.63019565301
 30
0.0
 40
1.0
100
AcDbArc
 50
135.0000000000011
 51
225.0000000000004
  0
LINE
  5
1A768
330
747D
100
AcDbEntity
  8
部品1
 48
50.0
100
AcDbLine
 10
15909.18744579443
 20
11563.73679736197
 30
0.0
 11
15917.82958141816
 21
11563.73679736197
 31
0.0
  0
LINE
  5
1A769
330
747D
100
AcDbEntity
  8
部品1
 48
50.0
100
AcDbLine
 10
15917.82958141816
 20
11583.73679736196
 30
0.0
 11
15895.82958141817
 21
11583.73679736196
 31
0.0
  0
LINE
  5
1A76A
330
747D
100
AcDbEntity
  8
部品1
 48
50.0
100
AcDbLine
 10
15917.82958141816
 20
11583.73679736196
 30
0.0
 11
15895.82958141817
 21
11583.73679736196
 31
0.0
  0
MTEXT
  5
1A76B
102
{ACAD_REACTORS
330
1A76C
102
}
330
747D
100
AcDbEntity
  8
寸法
 62
     7
 48
50.0
100
AcDbMText
 10
15540.81787053858
 20
12198.22045057759
 30
0.0
 40
150.0
 41
0.0
 71
     6
 72
     1
  1
\A1;妻板
  7
STYLE1
 73
     1
 44
1.0
1001
ACAD
1000
MTEXTBEGIN
1070
    73
1070
     1
1070
    44
1040
1.0
1070
    74
1070
     0
1000
MTEXTEND
  0
LEADER
  5
1A76C
330
747D
100
AcDbEntity
  8
寸法
 48
50.0
100
AcDbLeader
  3
INABA_S50G
 71
     0
 73
     0
 75
     1
 40
150.0
 41
319.9999999999998
 76
     3
 10
15835.64168250934
 20
11717.75563517686
 30
0.0
 10
15690.81787053858
 20
12098.22045057759
 30
0.0
 10
15565.81787053858
 20
12098.22045057759
 30
0.0
340
1A76B
  0
LINE
  5
1A76D
330
747D
100
AcDbEntity
  8
細線
 48
50.0
100
AcDbLine
 10
15338.33813593431
 20
11671.14112534008
 30
0.0
 11
15358.32806964938
 21
11670.506657006
 31
0.0
  0
LINE
  5
1A76E
330
747D
100
AcDbEntity
  8
細線
 48
50.0
100
AcDbLine
 10
15358.83564431665
 20
11686.49860397806
 30
0.0
 11
15358.32806964938
 21
11670.50665700601
 31
0.0
  0
LINE
  5
1A76F
330
747D
100
AcDbEntity
  8
細線
 48
50.0
100
AcDbLine
 10
15338.84571060158
 20
11687.13307231215
 30
0.0
 11
15338.33813593431
 21
11671.14112534008
 31
0.0
  0
LINE
  5
1A770
330
747D
100
AcDbEntity
  8
部品1
 48
50.0
100
AcDbLine
 10
15337.82958141817
 20
11681.73679736197
 30
0.0
 11
15337.82958141817
 21
11670.73679736197
 31
0.0
  0
LINE
  5
1A771
330
747D
100
AcDbEntity
  8
部品1
 48
50.0
100
AcDbLine
 10
15307.82958141817
 20
11683.23679736197
 30
0.0
 11
15337.82958141817
 21
11681.73679736197
 31
0.0
  0
LINE
  5
1A772
330
747D
100
AcDbEntity
  8
部品1
 48
50.0
100
AcDbLine
 10
15337.82958141817
 20
11670.73679736197
 30
0.0
 11
15357.82958141817
 21
11669.73679736196
 31
0.0
  0
LINE
  5
1A773
330
747D
100
AcDbEntity
  8
細線
 48
50.0
100
AcDbLine
 10
16029.49618794484
 20
11687.2233248479
 30
0.0
 11
16028.79827277735
 21
11665.23439776132
 31
0.0
  0
LINE
  5
1A774
330
747D
100
AcDbEntity
  8
細線
 48
50.0
100
AcDbLine
 10
15933.33851296348
 20
11652.25617537615
 30
0.0
 11
15953.32844667856
 21
11651.62170704207
 31
0.0
  0
LINE
  5
1A775
330
747D
100
AcDbEntity
  8
細線
 48
50.0
100
AcDbLine
 10
15933.84608763075
 20
11668.24812234821
 30
0.0
 11
15933.33851296348
 21
11652.25617537615
 31
0.0
  0
LINE
  5
1A776
330
747D
100
AcDbEntity
  8
細線
 48
50.0
100
AcDbLine
 10
15953.83602134582
 20
11667.61365401413
 30
0.0
 11
15953.32844667856
 21
11651.62170704207
 31
0.0
  0
LINE
  5
1A777
330
747D
100
AcDbEntity
  8
部品1
 48
50.0
100
AcDbLine
 10
16021.39578928962
 20
11688.15851852408
 30
0.0
 11
16005.39840097363
 21
11688.44759821443
 31
0.0
  0
LINE
  5
1A778
330
747D
100
AcDbEntity
  8
部品1
 48
50.0
100
AcDbLine
 10
16050.80660766724
 20
11710.63080728955
 30
0.0
 11
16021.39578928962
 21
11688.15851852408
 31
0.0
  0
ARC
  5
1A779
330
747D
100
AcDbEntity
  8
部品1
100
AcDbCircle
 10
16052.43937643105
 20
11741.60473085031
 30
0.0
 40
3.5
100
AcDbArc
 50
20.40391857757644
 51
88.96475328401214
  0
LINE
  5
1A77A
330
747D
100
AcDbEntity
  8
部品1
 48
50.0
100
AcDbLine
 10
15954.32958141817
 20
11648.73679736196
 30
0.0
 11
15930.82958141817
 21
11648.73679736196
 31
0.0
  0
LINE
  5
1A77B
330
747D
100
AcDbEntity
  8
部品1
 48
50.0
100
AcDbLine
 10
15954.32958141817
 20
11663.73679736196
 30
0.0
 11
15954.32958141817
 21
11648.73679736196
 31
0.0
  0
LINE
  5
1A77C
330
747D
100
AcDbEntity
  8
部品1
 48
50.0
100
AcDbLine
 10
15987.82958141817
 20
11663.73679736196
 30
0.0
 11
15954.32958141817
 21
11663.73679736196
 31
0.0
  0
LINE
  5
1A77D
330
747D
100
AcDbEntity
  8
部品1
 48
50.0
100
AcDbLine
 10
15987.82958141817
 20
11663.73679736196
 30
0.0
 11
15987.82958141817
 21
11643.73679736196
 31
0.0
  0
LINE
  5
1A77E
330
747D
100
AcDbEntity
  8
部品1
 48
50.0
100
AcDbLine
 10
15987.82958141817
 20
11643.73679736196
 30
0.0
 11
15982.82958141816
 21
11643.73679736196
 31
0.0
  0
MTEXT
  5
1A77F
102
{ACAD_REACTORS
330
1A780
102
}
330
747D
100
AcDbEntity
  8
寸法
 62
     7
 48
50.0
100
AcDbMText
 10
16349.26870296736
 20
11417.9210454155
 30
0.0
 40
150.0
 41
0.0
 71
     4
 72
     1
  1
\A1;雨樋
  7
STYLE1
 73
     1
 44
1.0
1001
ACAD
1000
MTEXTBEGIN
1070
    73
1070
     1
1070
    44
1040
1.0
1070
    74
1070
     0
1000
MTEXTEND
  0
LEADER
  5
1A780
330
747D
100
AcDbEntity
  8
寸法
 48
50.0
100
AcDbLeader
  3
INABA_S50G
 71
     0
 73
     0
 74
     0
 75
     1
 40
150.0
 41
360.0
 76
     3
 10
16063.82958141817
 20
11579.546036235
 30
0.0
 10
16199.26870296736
 20
11317.92104541549
 30
0.0
 10
16324.26870296736
 20
11317.92104541549
 30
0.0
340
1A77F
  0
LINE
  5
1A781
330
747D
100
AcDbEntity
  8
部品1
100
AcDbLine
 10
16063.82958141817
 20
11579.546036235
 30
0.0
 11
16063.82958141817
 21
11604.546036235
 31
0.0
  0
MTEXT
  5
1A782
102
{ACAD_REACTORS
330
1A783
102
}
330
747D
100
AcDbEntity
  8
寸法
 62
     7
 48
50.0
100
AcDbMText
 10
16378.68199506869
 20
12066.64748534792
 30
0.0
 40
150.0
 41
0.0
 71
     4
 72
     1
  1
\A1;鼻隠シ後
  7
STYLE1
 73
     1
 44
1.0
1001
ACAD
1000
MTEXTBEGIN
1070
    73
1070
     1
1070
    44
1040
1.0
1070
    74
1070
     0
1000
MTEXTEND
  0
LEADER
  5
1A783
330
747D
100
AcDbEntity
  8
寸法
 48
50.0
100
AcDbLeader
  3
INABA_S50G
 71
     0
 73
     0
 74
     0
 75
     1
 40
150.0
 41
719.9999999999995
 76
     3
 10
16076.6586310141
 20
11725.13210353546
 30
0.0
 10
16228.68199506869
 20
11966.64748534792
 30
0.0
 10
16353.68199506869
 20
11966.64748534792
 30
0.0
340
1A782
  0
LINE
  5
1A784
330
747D
100
AcDbEntity
  8
部品1
100
AcDbLine
 10
16066.17676303539
 20
11637.26280491307
 30
0.0
 11
16065.77792395765
 21
11633.51558742467
 31
0.0
  0
ARC
  5
1A785
330
747D
100
AcDbEntity
  8
部品1
 48
50.0
100
AcDbCircle
 10
16068.3511825403
 20
11640.68507021756
 30
0.0
 40
1.199999999999999
100
AcDbArc
 50
274.8300061226041
 51
353.9245361249011
  0
ARC
  5
1A786
330
747D
100
AcDbEntity
  8
部品1
 48
50.0
100
AcDbCircle
 10
16068.66272143308
 20
11636.99820928773
 30
0.0
 40
2.5
100
AcDbArc
 50
94.83000612260093
 51
173.9245361249088
  0
LINE
  5
1A787
330
747D
100
AcDbEntity
  8
部品1
100
AcDbLine
 10
16077.74287520147
 20
11717.58489504699
 30
0.0
 11
16069.54444257119
 21
11640.5580643174
 31
0.0
  0
ARC
  5
1A788
330
747D
100
AcDbEntity
  8
部品1
100
AcDbCircle
 10
16062.32958141817
 20
11719.22208342744
 30
0.0
 40
15.5
100
AcDbArc
 50
353.9245361249011
 51
88.13874351680366
  0
ARC
  5
1A789
330
747D
100
AcDbEntity
  8
部品1
100
AcDbCircle
 10
16059.76128014115
 20
11736.26244516471
 30
0.0
 40
1.5
100
AcDbArc
 50
200.4039185775899
 51
269.0981540988988
  0
LINE
  5
1A78A
330
747D
100
AcDbEntity
  8
部品1
 48
50.0
100
AcDbLine
 10
16059.73767084558
 20
11734.76263097583
 30
0.0
 11
16062.83301119892
 21
11734.71390573651
 31
0.0
  0
LINE
  5
1A78B
330
747D
100
AcDbEntity
  8
部品1
100
AcDbLine
 10
15099.05513660853
 20
7709.831477053277
 30
0.0
 11
13826.6040262278
 21
7709.831477053277
 31
0.0
  0
LINE
  5
1A78C
330
747D
100
AcDbEntity
  8
部品1
100
AcDbLine
 10
13826.6040262278
 20
7310.010941144057
 30
0.0
 11
15099.05513660853
 21
7310.010941144057
 31
0.0
  0
TEXT
  5
1A78D
330
747D
100
AcDbEntity
  8
部品1
100
AcDbText
 10
13973.83810414544
 20
7397.421209098666
 30
0.0
 40
225.0
  1
断面図
  7
STYLE2
 72
     1
 11
14462.82958141817
 21
7509.921209098667
 31
0.0
100
AcDbText
 73
     2
  0
LINE
  5
1A78E
330
747D
100
AcDbEntity
  8
部品1
100
AcDbLine
 10
13826.6040262278
 20
7709.831477053277
 30
0.0
 11
13826.6040262278
 21
7310.010941144057
 31
0.0
  0
LINE
  5
1A78F
330
747D
100
AcDbEntity
  8
部品1
100
AcDbLine
 10
15099.05513660853
 20
7310.010941144057
 30
0.0
 11
15099.05513660853
 21
7709.831477053277
 31
0.0
  0
LINE
  5
1A9FE
330
747D
100
AcDbEntity
  8
Ｇ．Ｌ
 48
50.0
100
AcDbLine
 10
13062.82958141817
 20
9263.736797361971
 30
0.0
 11
15862.82958141817
 21
9263.736797361971
 31
0.0
  0
LINE
  5
1AA01
330
747D
100
AcDbEntity
  8
部品1
 48
50.0
100
AcDbLine
 10
12942.82958141817
 20
9363.736797361971
 30
0.0
 11
12942.82958141817
 21
9063.736797361972
 31
0.0
  0
LINE
  5
1AA02
330
747D
100
AcDbEntity
  8
部品1
 48
50.0
100
AcDbLine
 10
13062.82958141817
 20
9363.736797361971
 30
0.0
 11
13062.82958141817
 21
9063.736797361972
 31
0.0
  0
LINE
  5
1AA04
330
747D
100
AcDbEntity
  8
細線
 48
50.0
100
AcDbLine
 10
13055.86782566971
 20
8913.736797361973
 30
0.0
 11
13152.82958141817
 21
9010.698553110431
 31
0.0
  0
LINE
  5
1AA07
330
747D
100
AcDbEntity
  8
部品1
 48
50.0
100
AcDbLine
 10
13152.82958141817
 20
9063.736797361972
 30
0.0
 11
13062.82958141817
 21
9063.736797361972
 31
0.0
  0
LINE
  5
1AA08
330
747D
100
AcDbEntity
  8
部品1
 48
50.0
100
AcDbLine
 10
13152.82958141817
 20
8833.736797361972
 30
0.0
 11
12852.82958141817
 21
8833.736797361972
 31
0.0
  0
LINE
  5
1AA09
330
747D
100
AcDbEntity
  8
部品1
 48
50.0
100
AcDbLine
 10
12852.82958141817
 20
8913.736797361972
 30
0.0
 11
13152.82958141817
 21
8913.736797361972
 31
0.0
  0
LINE
  5
1AA0A
330
747D
100
AcDbEntity
  8
細線
 48
50.0
100
AcDbLine
 10
12937.99137686684
 20
8833.736797361972
 30
0.0
 11
12959.42731226133
 21
8913.736797361972
 31
0.0
  0
LINE
  5
1AA0B
330
747D
100
AcDbEntity
  8
細線
 48
50.0
100
AcDbLine
 10
13011.94891900488
 20
8833.736797361972
 30
0.0
 11
13033.38485439937
 21
8913.736797361972
 31
0.0
  0
LINE
  5
1AA0C
330
747D
100
AcDbEntity
  8
細線
 48
50.0
100
AcDbLine
 10
13085.90646114293
 20
8833.736797361972
 30
0.0
 11
13107.34239653742
 21
8913.736797361972
 31
0.0
  0
LINE
  5
1AA0D
330
747D
100
AcDbEntity
  8
細線
 48
50.0
100
AcDbLine
 10
12864.0338347288
 20
8833.736797361972
 30
0.0
 11
12885.46977012329
 21
8913.736797361972
 31
0.0
  0
LINE
  5
1AA0E
330
747D
100
AcDbEntity
  8
部品1
 48
50.0
100
AcDbLine
 10
12852.82958141817
 20
8833.736797361972
 30
0.0
 11
12852.82958141817
 21
8913.736797361972
 31
0.0
  0
LINE
  5
1AA0F
330
747D
100
AcDbEntity
  8
細線
 48
50.0
100
AcDbLine
 10
12870.06269155849
 20
8856.236797361971
 30
0.0
 11
12876.0915483882
 21
8833.736797361972
 31
0.0
  0
LINE
  5
1AA10
330
747D
100
AcDbEntity
  8
細線
 48
50.0
100
AcDbLine
 10
13091.93531797264
 20
8856.236797361971
 30
0.0
 11
13097.96417480233
 21
8833.736797361972
 31
0.0
  0
LINE
  5
1AA11
330
747D
100
AcDbEntity
  8
細線
 48
50.0
100
AcDbLine
 10
12944.02023369654
 20
8856.236797361971
 30
0.0
 11
12950.04909052624
 21
8833.736797361972
 31
0.0
  0
LINE
  5
1AA12
330
747D
100
AcDbEntity
  8
細線
 48
50.0
100
AcDbLine
 10
13017.97777583459
 20
8856.236797361971
 30
0.0
 11
13024.00663266429
 21
8833.736797361972
 31
0.0
  0
LINE
  5
1AA14
330
747D
100
AcDbEntity
  8
細線
 48
50.0
100
AcDbLine
 10
12852.82958141817
 20
8975.863596055388
 30
0.0
 11
12940.70278272476
 21
9063.736797361972
 31
0.0
  0
LINE
  5
1AA17
330
747D
100
AcDbEntity
  8
細線
 48
50.0
100
AcDbLine
 10
12852.82958141818
 20
8949.347091760897
 30
0.0
 11
13062.82958141817
 21
9159.347091760887
 31
0.0
  0
LINE
  5
1AA18
330
747D
100
AcDbEntity
  8
部品1
 48
50.0
100
AcDbLine
 10
12942.82958141817
 20
9063.736797361972
 30
0.0
 11
12852.82958141817
 21
9063.736797361972
 31
0.0
  0
LINE
  5
1AA1C
330
747D
100
AcDbEntity
  8
細線
 48
50.0
100
AcDbLine
 10
12879.44091329358
 20
8891.236797361971
 30
0.0
 11
12873.41205646389
 21
8913.736797361972
 31
0.0
  0
LINE
  5
1AA1D
330
747D
100
AcDbEntity
  8
部品1
 48
50.0
100
AcDbLine
 10
12852.82958141817
 20
9063.736797361972
 30
0.0
 11
12852.82958141817
 21
8913.736797361972
 31
0.0
  0
LINE
  5
1AA1E
330
747D
100
AcDbEntity
  8
細線
 48
50.0
100
AcDbLine
 10
12852.82958141817
 20
8922.830587466398
 30
0.0
 11
13062.82958141817
 21
9132.83058746639
 31
0.0
  0
LINE
  5
1AA22
330
747D
100
AcDbEntity
  8
細線
 48
50.0
100
AcDbLine
 10
13002.83481708072
 20
8913.736797361973
 30
0.0
 11
13152.82958141817
 21
9063.731561699418
 31
0.0
  0
LINE
  5
1AA23
330
747D
100
AcDbEntity
  8
細線
 48
50.0
100
AcDbLine
 10
13029.35132137521
 20
8913.736797361972
 30
0.0
 11
13152.82958141817
 21
9037.215057404926
 31
0.0
  0
LINE
  5
1AA2B
330
747D
100
AcDbEntity
  8
細線
 48
50.0
100
AcDbLine
 10
12942.82958141817
 20
9065.863596055388
 30
0.0
 11
13062.82958141817
 21
9185.863596055385
 31
0.0
  0
LINE
  5
1AA2C
330
747D
100
AcDbEntity
  8
細線
 48
50.0
100
AcDbLine
 10
12953.39845543163
 20
8891.236797361971
 30
0.0
 11
12947.36959860193
 21
8913.736797361972
 31
0.0
  0
LINE
  5
1AA2D
330
747D
100
AcDbEntity
  8
細線
 48
50.0
100
AcDbLine
 10
13027.35599756968
 20
8891.236797361971
 30
0.0
 11
13021.32714073998
 21
8913.736797361972
 31
0.0
  0
LINE
  5
1AA2E
330
747D
100
AcDbEntity
  8
細線
 48
50.0
100
AcDbLine
 10
13101.31353970773
 20
8891.236797361971
 30
0.0
 11
13095.28468287802
 21
8913.736797361972
 31
0.0
  0
LINE
  5
1AA2F
330
747D
100
AcDbEntity
  8
部品1
 48
50.0
100
AcDbLine
 10
13152.82958141817
 20
8913.736797361972
 30
0.0
 11
13152.82958141817
 21
8833.736797361972
 31
0.0
  0
LINE
  5
1AA30
330
747D
100
AcDbEntity
  8
部品1
 48
50.0
100
AcDbLine
 10
13152.82958141817
 20
8913.736797361972
 30
0.0
 11
13152.82958141817
 21
9063.736797361972
 31
0.0
  0
LINE
  5
1AA3A
330
747D
100
AcDbEntity
  8
細線
 48
50.0
100
AcDbLine
 10
12942.82958141817
 20
9277.995630411352
 30
0.0
 11
13028.57074836879
 21
9363.736797361971
 31
0.0
  0
LINE
  5
1AA3B
330
747D
100
AcDbEntity
  8
細線
 48
50.0
100
AcDbLine
 10
12942.82958141818
 20
9251.47912611686
 30
0.0
 11
13055.08725266329
 21
9363.736797361971
 31
0.0
  0
LINE
  5
1AA3C
330
747D
100
AcDbEntity
  8
細線
 48
50.0
100
AcDbLine
 10
12942.82958141817
 20
9224.962621822362
 30
0.0
 11
13062.82958141817
 21
9344.962621822354
 31
0.0
  0
LINE
  5
1AA90
330
747D
100
AcDbEntity
  8
細線
 48
50.0
100
AcDbLine
 10
15975.86782566971
 20
8913.736797361973
 30
0.0
 11
16072.82958141817
 21
9010.698553110431
 31
0.0
  0
LINE
  5
1AA91
330
747D
100
AcDbEntity
  8
部品1
 48
50.0
100
AcDbLine
 10
16072.82958141817
 20
9063.736797361972
 30
0.0
 11
15982.82958141817
 21
9063.736797361972
 31
0.0
  0
LINE
  5
1AA92
330
747D
100
AcDbEntity
  8
細線
 48
50.0
100
AcDbLine
 10
15949.35132137521
 20
8913.736797361972
 30
0.0
 11
16072.82958141817
 21
9037.215057404925
 31
0.0
  0
LINE
  5
1AA93
330
747D
100
AcDbEntity
  8
部品1
 48
50.0
100
AcDbLine
 10
15772.82958141817
 20
8913.736797361972
 30
0.0
 11
16072.82958141817
 21
8913.736797361972
 31
0.0
  0
LINE
  5
1AA96
330
747D
100
AcDbEntity
  8
部品1
 48
50.0
100
AcDbLine
 10
16072.82958141817
 20
8833.736797361972
 30
0.0
 11
15772.82958141817
 21
8833.736797361972
 31
0.0
  0
LINE
  5
1AADD
330
747D
100
AcDbEntity
  8
部品1
 48
50.0
100
AcDbLine
 10
15862.82958141817
 20
9363.736797361971
 30
0.0
 11
15862.82958141817
 21
9063.736797361972
 31
0.0
  0
LINE
  5
1AADE
330
747D
100
AcDbEntity
  8
部品1
 48
50.0
100
AcDbLine
 10
15982.82958141817
 20
9363.736797361971
 30
0.0
 11
15982.82958141817
 21
9063.736797361972
 31
0.0
  0
LINE
  5
1AAEF
330
747D
100
AcDbEntity
  8
細線
 48
50.0
100
AcDbLine
 10
15931.94891900489
 20
8833.736797361972
 30
0.0
 11
15953.38485439937
 21
8913.736797361972
 31
0.0
  0
LINE
  5
1AAF0
330
747D
100
AcDbEntity
  8
細線
 48
50.0
100
AcDbLine
 10
15784.0338347288
 20
8833.736797361972
 30
0.0
 11
15805.46977012329
 21
8913.736797361972
 31
0.0
  0
LINE
  5
1AAF1
330
747D
100
AcDbEntity
  8
部品1
 48
50.0
100
AcDbLine
 10
15772.82958141817
 20
8833.736797361972
 30
0.0
 11
15772.82958141817
 21
8913.736797361972
 31
0.0
  0
LINE
  5
1AAF2
330
747D
100
AcDbEntity
  8
細線
 48
50.0
100
AcDbLine
 10
15857.99137686684
 20
8833.736797361972
 30
0.0
 11
15879.42731226133
 21
8913.736797361972
 31
0.0
  0
LINE
  5
1AAF3
330
747D
100
AcDbEntity
  8
細線
 48
50.0
100
AcDbLine
 10
15790.0626915585
 20
8856.236797361971
 30
0.0
 11
15796.0915483882
 21
8833.736797361972
 31
0.0
  0
LINE
  5
1AAF4
330
747D
100
AcDbEntity
  8
細線
 48
50.0
100
AcDbLine
 10
15864.02023369654
 20
8856.236797361971
 30
0.0
 11
15870.04909052624
 21
8833.736797361972
 31
0.0
  0
LINE
  5
1AAF5
330
747D
100
AcDbEntity
  8
細線
 48
50.0
100
AcDbLine
 10
15937.97777583459
 20
8856.236797361971
 30
0.0
 11
15944.00663266429
 21
8833.736797361972
 31
0.0
  0
LINE
  5
1AAF6
330
747D
100
AcDbEntity
  8
細線
 48
50.0
100
AcDbLine
 10
15799.44091329358
 20
8891.236797361971
 30
0.0
 11
15793.41205646389
 21
8913.736797361972
 31
0.0
  0
LINE
  5
1AAF7
330
747D
100
AcDbEntity
  8
細線
 48
50.0
100
AcDbLine
 10
15772.82958141817
 20
8975.863596055388
 30
0.0
 11
15860.70278272476
 21
9063.736797361972
 31
0.0
  0
LINE
  5
1AAF8
330
747D
100
AcDbEntity
  8
細線
 48
50.0
100
AcDbLine
 10
15772.82958141817
 20
8922.830587466398
 30
0.0
 11
15982.82958141817
 21
9132.83058746639
 31
0.0
  0
LINE
  5
1AAF9
330
747D
100
AcDbEntity
  8
細線
 48
50.0
100
AcDbLine
 10
15772.82958141818
 20
8949.347091760897
 30
0.0
 11
15982.82958141817
 21
9159.347091760887
 31
0.0
  0
LINE
  5
1AAFA
330
747D
100
AcDbEntity
  8
部品1
 48
50.0
100
AcDbLine
 10
15862.82958141817
 20
9063.736797361972
 30
0.0
 11
15772.82958141817
 21
9063.736797361972
 31
0.0
  0
LINE
  5
1AAFB
330
747D
100
AcDbEntity
  8
部品1
 48
50.0
100
AcDbLine
 10
15772.82958141817
 20
9063.736797361972
 30
0.0
 11
15772.82958141817
 21
8913.736797361972
 31
0.0
  0
LINE
  5
1AAFC
330
747D
100
AcDbEntity
  8
細線
 48
50.0
100
AcDbLine
 10
15947.35599756968
 20
8891.236797361971
 30
0.0
 11
15941.32714073998
 21
8913.736797361972
 31
0.0
  0
LINE
  5
1AAFD
330
747D
100
AcDbEntity
  8
細線
 48
50.0
100
AcDbLine
 10
15873.39845543163
 20
8891.236797361971
 30
0.0
 11
15867.36959860193
 21
8913.736797361972
 31
0.0
  0
LINE
  5
1AAFE
330
747D
100
AcDbEntity
  8
細線
 48
50.0
100
AcDbLine
 10
15862.82958141817
 20
9065.863596055388
 30
0.0
 11
15982.82958141817
 21
9185.863596055389
 31
0.0
  0
LINE
  5
1AB0A
330
747D
100
AcDbEntity
  8
細線
 48
50.0
100
AcDbLine
 10
15922.83481708072
 20
8913.736797361973
 30
0.0
 11
16072.82958141817
 21
9063.731561699418
 31
0.0
  0
LINE
  5
1AB1E
330
747D
100
AcDbEntity
  8
細線
 48
50.0
100
AcDbLine
 10
15862.82958141817
 20
9277.995630411352
 30
0.0
 11
15948.57074836879
 21
9363.736797361971
 31
0.0
  0
LINE
  5
1AB20
330
747D
100
AcDbEntity
  8
細線
 48
50.0
100
AcDbLine
 10
15862.82958141818
 20
9251.47912611686
 30
0.0
 11
15975.08725266329
 21
9363.736797361971
 31
0.0
  0
LINE
  5
1AB21
330
747D
100
AcDbEntity
  8
細線
 48
50.0
100
AcDbLine
 10
15862.82958141817
 20
9224.962621822362
 30
0.0
 11
15982.82958141817
 21
9344.962621822354
 31
0.0
  0
LINE
  5
1AB36
330
747D
100
AcDbEntity
  8
細線
 48
50.0
100
AcDbLine
 10
16005.90646114294
 20
8833.736797361972
 30
0.0
 11
16027.34239653742
 21
8913.736797361972
 31
0.0
  0
LINE
  5
1AB37
330
747D
100
AcDbEntity
  8
部品1
 48
50.0
100
AcDbLine
 10
16072.82958141817
 20
8913.736797361972
 30
0.0
 11
16072.82958141817
 21
8833.736797361972
 31
0.0
  0
LINE
  5
1AB38
330
747D
100
AcDbEntity
  8
細線
 48
50.0
100
AcDbLine
 10
16011.93531797264
 20
8856.236797361971
 30
0.0
 11
16017.96417480233
 21
8833.736797361972
 31
0.0
  0
LINE
  5
1AB39
330
747D
100
AcDbEntity
  8
細線
 48
50.0
100
AcDbLine
 10
16021.31353970773
 20
8891.236797361971
 30
0.0
 11
16015.28468287802
 21
8913.736797361972
 31
0.0
  0
LINE
  5
1AB3B
330
747D
100
AcDbEntity
  8
部品1
 48
50.0
100
AcDbLine
 10
16072.82958141817
 20
8913.736797361972
 30
0.0
 11
16072.82958141817
 21
9063.736797361972
 31
0.0
  0
LINE
  5
1AB3E
330
747D
100
AcDbEntity
  8
Ｇ．Ｌ
 48
50.0
100
AcDbLine
 10
15982.82958141817
 20
9263.736797361973
 30
0.0
 11
17766.77176170857
 21
9263.736797361971
 31
0.0
  0
LINE
  5
1ACC3
330
747D
100
AcDbEntity
  8
部品1
100
AcDbLine
 10
15037.82958141817
 20
9121.236797361973
 30
0.0
 11
15337.82958141817
 21
9121.236797361973
 31
0.0
  0
LINE
  5
1ACC4
330
747D
100
AcDbEntity
  8
部品1
100
AcDbLine
 10
15037.82958141817
 20
9221.236797361973
 30
0.0
 11
15337.82958141817
 21
9221.236797361973
 31
0.0
  0
LINE
  5
1ACC8
330
747D
100
AcDbEntity
  8
細線
100
AcDbLine
 10
15295.8834712824
 20
9221.236797361973
 30
0.0
 11
15322.67839052551
 21
9121.236797361973
 31
0.0
  0
LINE
  5
1ACCB
330
747D
100
AcDbEntity
  8
細線
100
AcDbLine
 10
15195.8834712824
 20
9221.236797361973
 30
0.0
 11
15222.67839052551
 21
9121.236797361973
 31
0.0
  0
LINE
  5
1ACCC
330
747D
100
AcDbEntity
  8
細線
100
AcDbLine
 10
15095.8834712824
 20
9221.236797361973
 30
0.0
 11
15122.67839052551
 21
9121.236797361973
 31
0.0
  0
LINE
  5
1ACCD
330
747D
100
AcDbEntity
  8
細線
100
AcDbLine
 10
15145.88347128239
 20
9221.236797361973
 30
0.0
 11
15172.67839052551
 21
9121.236797361973
 31
0.0
  0
LINE
  5
1ACCE
330
747D
100
AcDbEntity
  8
細線
100
AcDbLine
 10
15245.88347128239
 20
9221.236797361973
 30
0.0
 11
15272.67839052551
 21
9121.236797361973
 31
0.0
  0
LINE
  5
1ACD0
330
747D
100
AcDbEntity
  8
部品1
100
AcDbLine
 10
15037.82958141817
 20
9263.736797361975
 30
0.0
 11
15037.82958141817
 21
9121.236797361973
 31
0.0
  0
LINE
  5
1ACD1
330
747D
100
AcDbEntity
  8
細線
100
AcDbLine
 10
15045.88347128239
 20
9221.236797361973
 30
0.0
 11
15072.67839052551
 21
9121.236797361973
 31
0.0
  0
LINE
  5
1ACD3
330
747D
100
AcDbEntity
  8
細線
100
AcDbLine
 10
15065.97966071473
 20
9146.236797361973
 30
0.0
 11
15059.28093090395
 21
9121.236797361973
 31
0.0
  0
LINE
  5
1ACD4
330
747D
100
AcDbEntity
  8
細線
100
AcDbLine
 10
15215.97966071473
 20
9146.236797361973
 30
0.0
 11
15209.28093090395
 21
9121.236797361973
 31
0.0
  0
LINE
  5
1ACD5
330
747D
100
AcDbEntity
  8
細線
100
AcDbLine
 10
15265.97966071473
 20
9146.236797361973
 30
0.0
 11
15259.28093090395
 21
9121.236797361973
 31
0.0
  0
LINE
  5
1ACD6
330
747D
100
AcDbEntity
  8
細線
100
AcDbLine
 10
15115.97966071473
 20
9146.236797361973
 30
0.0
 11
15109.28093090395
 21
9121.236797361973
 31
0.0
  0
LINE
  5
1ACD7
330
747D
100
AcDbEntity
  8
細線
100
AcDbLine
 10
15165.97966071473
 20
9146.236797361973
 30
0.0
 11
15159.28093090395
 21
9121.236797361973
 31
0.0
  0
LINE
  5
1ACDA
330
747D
100
AcDbEntity
  8
細線
100
AcDbLine
 10
15315.97966071473
 20
9146.236797361973
 30
0.0
 11
15309.28093090395
 21
9121.236797361973
 31
0.0
  0
LINE
  5
1ACDC
330
747D
100
AcDbEntity
  8
細線
100
AcDbLine
 10
15124.23893094043
 20
9221.236797361973
 30
0.0
 11
15081.73893094042
 21
9263.736797361971
 31
0.0
  0
LINE
  5
1ACDF
330
747D
100
AcDbEntity
  8
細線
100
AcDbLine
 10
15059.28093090395
 20
9221.236797361973
 30
0.0
 11
15052.58220109317
 21
9196.236797361974
 31
0.0
  0
LINE
  5
1ACEA
330
747D
100
AcDbEntity
  8
細線
100
AcDbLine
 10
15127.30847749859
 20
9263.736797361971
 30
0.0
 11
15227.30847749859
 21
9363.736797361973
 31
0.0
  0
LINE
  5
1ACEB
330
747D
100
AcDbEntity
  8
細線
100
AcDbLine
 10
15106.09527406299
 20
9263.736797361971
 30
0.0
 11
15206.09527406299
 21
9363.736797361973
 31
0.0
  0
LINE
  5
1ACEC
330
747D
100
AcDbEntity
  8
部品1
100
AcDbLine
 10
15087.82958141817
 20
9263.736797361971
 30
0.0
 11
15087.82958141817
 21
9363.736797361971
 31
0.0
  0
LINE
  5
1ACED
330
747D
100
AcDbEntity
  8
細線
100
AcDbLine
 10
15219.23235905285
 20
9263.736797361973
 30
0.0
 11
15287.82958141817
 21
9332.334019727296
 31
0.0
  0
LINE
  5
1ACEE
330
747D
100
AcDbEntity
  8
細線
100
AcDbLine
 10
15240.44556248844
 20
9263.736797361971
 30
0.0
 11
15287.82958141817
 21
9311.120816291701
 31
0.0
  0
LINE
  5
1ACEF
330
747D
100
AcDbEntity
  8
細線
100
AcDbLine
 10
15302.52320218789
 20
9221.236797361973
 30
0.0
 11
15260.02320218789
 21
9263.736797361971
 31
0.0
  0
LINE
  5
1ACF0
330
747D
100
AcDbEntity
  8
細線
100
AcDbLine
 10
15288.38106656415
 20
9221.236797361973
 30
0.0
 11
15245.88106656416
 21
9263.736797361971
 31
0.0
  0
LINE
  5
1ACF1
330
747D
100
AcDbEntity
  8
細線
100
AcDbLine
 10
15209.28093090395
 20
9221.236797361973
 30
0.0
 11
15202.58220109317
 21
9196.236797361974
 31
0.0
  0
LINE
  5
1ACF2
330
747D
100
AcDbEntity
  8
細線
100
AcDbLine
 10
15259.28093090395
 20
9221.236797361973
 30
0.0
 11
15252.58220109317
 21
9196.236797361974
 31
0.0
  0
LINE
  5
1ACF3
330
747D
100
AcDbEntity
  8
細線
100
AcDbLine
 10
15152.52320218789
 20
9221.236797361973
 30
0.0
 11
15110.02320218789
 21
9263.736797361971
 31
0.0
  0
LINE
  5
1ACF4
330
747D
100
AcDbEntity
  8
細線
100
AcDbLine
 10
15138.38106656415
 20
9221.236797361973
 30
0.0
 11
15095.88106656415
 21
9263.736797361971
 31
0.0
  0
LINE
  5
1ACF5
330
747D
100
AcDbEntity
  8
細線
100
AcDbLine
 10
15109.28093090395
 20
9221.236797361973
 30
0.0
 11
15102.58220109317
 21
9196.236797361974
 31
0.0
  0
LINE
  5
1ACF6
330
747D
100
AcDbEntity
  8
細線
100
AcDbLine
 10
15159.28093090395
 20
9221.236797361973
 30
0.0
 11
15152.58220109317
 21
9196.236797361974
 31
0.0
  0
LINE
  5
1ACF7
330
747D
100
AcDbEntity
  8
細線
100
AcDbLine
 10
15274.23893094042
 20
9221.236797361973
 30
0.0
 11
15231.73893094042
 21
9263.736797361971
 31
0.0
  0
LINE
  5
1ACFD
330
747D
100
AcDbEntity
  8
細線
100
AcDbLine
 10
15309.28093090395
 20
9221.236797361973
 30
0.0
 11
15302.58220109317
 21
9196.236797361974
 31
0.0
  0
LINE
  5
1AD00
330
747D
100
AcDbEntity
  8
細線
100
AcDbLine
 10
15087.82958141817
 20
9337.3949862714
 30
0.0
 11
15114.17139250875
 21
9363.736797361973
 31
0.0
  0
LINE
  5
1AD01
330
747D
100
AcDbEntity
  8
細線
100
AcDbLine
 10
15087.82958141817
 20
9358.608189706995
 30
0.0
 11
15092.95818907315
 21
9363.736797361973
 31
0.0
  0
LINE
  5
1AD07
330
747D
100
AcDbEntity
  8
部品1
100
AcDbLine
 10
15337.82958141817
 20
9263.736797361971
 30
0.0
 11
15337.82958141817
 21
9121.236797361973
 31
0.0
  0
LINE
  5
1AD09
330
747D
100
AcDbEntity
  8
部品1
100
AcDbLine
 10
15287.82958141817
 20
9363.736797361971
 30
0.0
 11
15287.82958141817
 21
9263.736797361971
 31
0.0
  0
LINE
  5
1AD76
330
747D
100
AcDbEntity
  8
細線
100
AcDbLine
 10
14320.8834712824
 20
9221.236797361973
 30
0.0
 11
14347.67839052551
 21
9121.236797361973
 31
0.0
  0
LINE
  5
1AD77
330
747D
100
AcDbEntity
  8
細線
100
AcDbLine
 10
14470.8834712824
 20
9221.236797361973
 30
0.0
 11
14497.67839052551
 21
9121.236797361973
 31
0.0
  0
LINE
  5
1AD78
330
747D
100
AcDbEntity
  8
細線
100
AcDbLine
 10
14370.8834712824
 20
9221.236797361973
 30
0.0
 11
14397.67839052551
 21
9121.236797361973
 31
0.0
  0
LINE
  5
1AD79
330
747D
100
AcDbEntity
  8
細線
100
AcDbLine
 10
14420.88347128239
 20
9221.236797361973
 30
0.0
 11
14447.67839052551
 21
9121.236797361973
 31
0.0
  0
LINE
  5
1AD7A
330
747D
100
AcDbEntity
  8
細線
100
AcDbLine
 10
14520.88347128239
 20
9221.236797361973
 30
0.0
 11
14547.67839052551
 21
9121.236797361973
 31
0.0
  0
LINE
  5
1AD7B
330
747D
100
AcDbEntity
  8
細線
100
AcDbLine
 10
14570.8834712824
 20
9221.236797361973
 30
0.0
 11
14597.67839052551
 21
9121.236797361973
 31
0.0
  0
LINE
  5
1AD7C
330
747D
100
AcDbEntity
  8
部品1
100
AcDbLine
 10
14612.82958141817
 20
9263.736797361971
 30
0.0
 11
14612.82958141817
 21
9121.236797361973
 31
0.0
  0
LINE
  5
1AD7D
330
747D
100
AcDbEntity
  8
部品1
100
AcDbLine
 10
14312.82958141817
 20
9121.236797361973
 30
0.0
 11
14312.82958141817
 21
9263.736797361973
 31
0.0
  0
LINE
  5
1AD7F
330
747D
100
AcDbEntity
  8
部品1
100
AcDbLine
 10
14312.82958141817
 20
9121.236797361973
 30
0.0
 11
14612.82958141817
 21
9121.236797361973
 31
0.0
  0
LINE
  5
1AD80
330
747D
100
AcDbEntity
  8
細線
100
AcDbLine
 10
14490.97966071473
 20
9146.236797361973
 30
0.0
 11
14484.28093090395
 21
9121.236797361973
 31
0.0
  0
LINE
  5
1AD81
330
747D
100
AcDbEntity
  8
細線
100
AcDbLine
 10
14440.97966071473
 20
9146.236797361973
 30
0.0
 11
14434.28093090395
 21
9121.236797361973
 31
0.0
  0
LINE
  5
1AD82
330
747D
100
AcDbEntity
  8
細線
100
AcDbLine
 10
14340.97966071473
 20
9146.236797361973
 30
0.0
 11
14334.28093090395
 21
9121.236797361973
 31
0.0
  0
LINE
  5
1AD83
330
747D
100
AcDbEntity
  8
細線
100
AcDbLine
 10
14390.97966071473
 20
9146.236797361973
 30
0.0
 11
14384.28093090395
 21
9121.236797361973
 31
0.0
  0
LINE
  5
1AD84
330
747D
100
AcDbEntity
  8
細線
100
AcDbLine
 10
14590.97966071473
 20
9146.236797361973
 30
0.0
 11
14584.28093090395
 21
9121.236797361973
 31
0.0
  0
LINE
  5
1AD85
330
747D
100
AcDbEntity
  8
細線
100
AcDbLine
 10
14540.97966071473
 20
9146.236797361973
 30
0.0
 11
14534.28093090395
 21
9121.236797361973
 31
0.0
  0
LINE
  5
1AD86
330
747D
100
AcDbEntity
  8
細線
100
AcDbLine
 10
14494.23235905284
 20
9263.736797361973
 30
0.0
 11
14562.82958141817
 21
9332.334019727296
 31
0.0
  0
LINE
  5
1AD88
330
747D
100
AcDbEntity
  8
部品1
100
AcDbLine
 10
14312.82958141817
 20
9221.236797361973
 30
0.0
 11
14612.82958141817
 21
9221.236797361973
 31
0.0
  0
LINE
  5
1AD89
330
747D
100
AcDbEntity
  8
細線
100
AcDbLine
 10
14402.30847749859
 20
9263.736797361971
 30
0.0
 11
14502.30847749859
 21
9363.736797361973
 31
0.0
  0
LINE
  5
1AD8A
330
747D
100
AcDbEntity
  8
細線
100
AcDbLine
 10
14434.28093090395
 20
9221.236797361973
 30
0.0
 11
14427.58220109317
 21
9196.236797361974
 31
0.0
  0
LINE
  5
1AD8B
330
747D
100
AcDbEntity
  8
細線
100
AcDbLine
 10
14484.28093090395
 20
9221.236797361973
 30
0.0
 11
14477.58220109317
 21
9196.236797361974
 31
0.0
  0
LINE
  5
1AD8C
330
747D
100
AcDbEntity
  8
細線
100
AcDbLine
 10
14399.23893094043
 20
9221.236797361973
 30
0.0
 11
14356.73893094042
 21
9263.736797361971
 31
0.0
  0
LINE
  5
1AD8D
330
747D
100
AcDbEntity
  8
細線
100
AcDbLine
 10
14413.38106656415
 20
9221.236797361973
 30
0.0
 11
14370.88106656415
 21
9263.736797361971
 31
0.0
  0
LINE
  5
1AD8E
330
747D
100
AcDbEntity
  8
細線
100
AcDbLine
 10
14384.28093090395
 20
9221.236797361973
 30
0.0
 11
14377.58220109317
 21
9196.236797361974
 31
0.0
  0
LINE
  5
1AD8F
330
747D
100
AcDbEntity
  8
細線
100
AcDbLine
 10
14334.28093090395
 20
9221.236797361973
 30
0.0
 11
14327.58220109317
 21
9196.236797361974
 31
0.0
  0
LINE
  5
1AD90
330
747D
100
AcDbEntity
  8
部品1
100
AcDbLine
 10
14362.82958141817
 20
9263.736797361971
 30
0.0
 11
14362.82958141817
 21
9363.736797361971
 31
0.0
  0
LINE
  5
1AD91
330
747D
100
AcDbEntity
  8
細線
100
AcDbLine
 10
14362.82958141817
 20
9337.3949862714
 30
0.0
 11
14389.17139250875
 21
9363.736797361973
 31
0.0
  0
LINE
  5
1AD92
330
747D
100
AcDbEntity
  8
細線
100
AcDbLine
 10
14362.82958141817
 20
9358.608189706995
 30
0.0
 11
14367.95818907315
 21
9363.736797361973
 31
0.0
  0
LINE
  5
1AD93
330
747D
100
AcDbEntity
  8
細線
100
AcDbLine
 10
14427.52320218789
 20
9221.236797361973
 30
0.0
 11
14385.02320218789
 21
9263.736797361971
 31
0.0
  0
LINE
  5
1AD94
330
747D
100
AcDbEntity
  8
細線
100
AcDbLine
 10
14381.09527406299
 20
9263.736797361971
 30
0.0
 11
14481.09527406299
 21
9363.736797361973
 31
0.0
  0
LINE
  5
1AD95
330
747D
100
AcDbEntity
  8
細線
100
AcDbLine
 10
14515.44556248844
 20
9263.736797361971
 30
0.0
 11
14562.82958141817
 21
9311.120816291701
 31
0.0
  0
LINE
  5
1AD96
330
747D
100
AcDbEntity
  8
細線
100
AcDbLine
 10
14563.38106656415
 20
9221.236797361973
 30
0.0
 11
14520.88106656416
 21
9263.736797361971
 31
0.0
  0
LINE
  5
1AD97
330
747D
100
AcDbEntity
  8
細線
100
AcDbLine
 10
14549.23893094042
 20
9221.236797361973
 30
0.0
 11
14506.73893094042
 21
9263.736797361971
 31
0.0
  0
LINE
  5
1AD98
330
747D
100
AcDbEntity
  8
細線
100
AcDbLine
 10
14577.52320218789
 20
9221.236797361973
 30
0.0
 11
14535.02320218789
 21
9263.736797361971
 31
0.0
  0
LINE
  5
1AD99
330
747D
100
AcDbEntity
  8
細線
100
AcDbLine
 10
14584.28093090395
 20
9221.236797361973
 30
0.0
 11
14577.58220109317
 21
9196.236797361974
 31
0.0
  0
LINE
  5
1AD9A
330
747D
100
AcDbEntity
  8
細線
100
AcDbLine
 10
14534.28093090395
 20
9221.236797361973
 30
0.0
 11
14527.58220109317
 21
9196.236797361974
 31
0.0
  0
LINE
  5
1AD9B
330
747D
100
AcDbEntity
  8
部品1
100
AcDbLine
 10
14562.82958141817
 20
9363.736797361971
 30
0.0
 11
14562.82958141817
 21
9263.736797361971
 31
0.0
  0
LINE
  5
1AD9C
330
747D
100
AcDbEntity
  8
部品1
100
AcDbLine
 10
13587.82958141817
 20
9221.236797361973
 30
0.0
 11
13887.82958141817
 21
9221.236797361973
 31
0.0
  0
LINE
  5
1AD9E
330
747D
100
AcDbEntity
  8
部品1
100
AcDbLine
 10
13587.82958141817
 20
9121.236797361973
 30
0.0
 11
13887.82958141817
 21
9121.236797361973
 31
0.0
  0
LINE
  5
1ADA0
330
747D
100
AcDbEntity
  8
部品1
100
AcDbLine
 10
13587.82958141817
 20
9121.236797361973
 30
0.0
 11
13587.82958141817
 21
9263.736797361973
 31
0.0
  0
LINE
  5
1ADA1
330
747D
100
AcDbEntity
  8
細線
100
AcDbLine
 10
13845.8834712824
 20
9221.236797361973
 30
0.0
 11
13872.67839052551
 21
9121.236797361973
 31
0.0
  0
LINE
  5
1ADA2
330
747D
100
AcDbEntity
  8
細線
100
AcDbLine
 10
13795.88347128239
 20
9221.236797361973
 30
0.0
 11
13822.67839052551
 21
9121.236797361973
 31
0.0
  0
LINE
  5
1ADA3
330
747D
100
AcDbEntity
  8
細線
100
AcDbLine
 10
13695.88347128239
 20
9221.236797361973
 30
0.0
 11
13722.67839052551
 21
9121.236797361973
 31
0.0
  0
LINE
  5
1ADA4
330
747D
100
AcDbEntity
  8
細線
100
AcDbLine
 10
13645.8834712824
 20
9221.236797361973
 30
0.0
 11
13672.67839052551
 21
9121.236797361973
 31
0.0
  0
LINE
  5
1ADA5
330
747D
100
AcDbEntity
  8
細線
100
AcDbLine
 10
13745.8834712824
 20
9221.236797361973
 30
0.0
 11
13772.67839052551
 21
9121.236797361973
 31
0.0
  0
LINE
  5
1ADA6
330
747D
100
AcDbEntity
  8
細線
100
AcDbLine
 10
13595.88347128239
 20
9221.236797361973
 30
0.0
 11
13622.67839052551
 21
9121.236797361973
 31
0.0
  0
LINE
  5
1ADA7
330
747D
100
AcDbEntity
  8
細線
100
AcDbLine
 10
13665.97966071473
 20
9146.236797361973
 30
0.0
 11
13659.28093090395
 21
9121.236797361973
 31
0.0
  0
LINE
  5
1ADA8
330
747D
100
AcDbEntity
  8
細線
100
AcDbLine
 10
13615.97966071473
 20
9146.236797361973
 30
0.0
 11
13609.28093090395
 21
9121.236797361973
 31
0.0
  0
LINE
  5
1ADA9
330
747D
100
AcDbEntity
  8
細線
100
AcDbLine
 10
13815.97966071473
 20
9146.236797361973
 30
0.0
 11
13809.28093090395
 21
9121.236797361973
 31
0.0
  0
LINE
  5
1ADAA
330
747D
100
AcDbEntity
  8
細線
100
AcDbLine
 10
13865.97966071473
 20
9146.236797361973
 30
0.0
 11
13859.28093090395
 21
9121.236797361973
 31
0.0
  0
LINE
  5
1ADAB
330
747D
100
AcDbEntity
  8
細線
100
AcDbLine
 10
13715.97966071473
 20
9146.236797361973
 30
0.0
 11
13709.28093090395
 21
9121.236797361973
 31
0.0
  0
LINE
  5
1ADAC
330
747D
100
AcDbEntity
  8
細線
100
AcDbLine
 10
13765.97966071473
 20
9146.236797361973
 30
0.0
 11
13759.28093090395
 21
9121.236797361973
 31
0.0
  0
LINE
  5
1ADAD
330
747D
100
AcDbEntity
  8
細線
100
AcDbLine
 10
13656.09527406299
 20
9263.736797361971
 30
0.0
 11
13756.09527406299
 21
9363.736797361973
 31
0.0
  0
LINE
  5
1ADAE
330
747D
100
AcDbEntity
  8
細線
100
AcDbLine
 10
13702.52320218789
 20
9221.236797361973
 30
0.0
 11
13660.02320218789
 21
9263.736797361971
 31
0.0
  0
LINE
  5
1ADAF
330
747D
100
AcDbEntity
  8
細線
100
AcDbLine
 10
13688.38106656415
 20
9221.236797361973
 30
0.0
 11
13645.88106656415
 21
9263.736797361971
 31
0.0
  0
LINE
  5
1ADB0
330
747D
100
AcDbEntity
  8
細線
100
AcDbLine
 10
13674.23893094042
 20
9221.236797361973
 30
0.0
 11
13631.73893094042
 21
9263.736797361971
 31
0.0
  0
LINE
  5
1ADB1
330
747D
100
AcDbEntity
  8
細線
100
AcDbLine
 10
13677.30847749859
 20
9263.736797361971
 30
0.0
 11
13777.30847749859
 21
9363.736797361973
 31
0.0
  0
LINE
  5
1ADB2
330
747D
100
AcDbEntity
  8
細線
100
AcDbLine
 10
13637.82958141817
 20
9358.608189706995
 30
0.0
 11
13642.95818907315
 21
9363.736797361973
 31
0.0
  0
LINE
  5
1ADB3
330
747D
100
AcDbEntity
  8
細線
100
AcDbLine
 10
13637.82958141817
 20
9337.3949862714
 30
0.0
 11
13664.17139250875
 21
9363.736797361973
 31
0.0
  0
LINE
  5
1ADB4
330
747D
100
AcDbEntity
  8
部品1
100
AcDbLine
 10
13637.82958141817
 20
9263.736797361971
 30
0.0
 11
13637.82958141817
 21
9363.736797361971
 31
0.0
  0
LINE
  5
1ADB5
330
747D
100
AcDbEntity
  8
細線
100
AcDbLine
 10
13609.28093090395
 20
9221.236797361973
 30
0.0
 11
13602.58220109317
 21
9196.236797361974
 31
0.0
  0
LINE
  5
1ADB6
330
747D
100
AcDbEntity
  8
細線
100
AcDbLine
 10
13659.28093090395
 20
9221.236797361973
 30
0.0
 11
13652.58220109317
 21
9196.236797361974
 31
0.0
  0
LINE
  5
1ADB7
330
747D
100
AcDbEntity
  8
部品1
100
AcDbLine
 10
13837.82958141817
 20
9363.736797361971
 30
0.0
 11
13837.82958141817
 21
9263.736797361971
 31
0.0
  0
LINE
  5
1ADB8
330
747D
100
AcDbEntity
  8
細線
100
AcDbLine
 10
13809.28093090395
 20
9221.236797361973
 30
0.0
 11
13802.58220109317
 21
9196.236797361974
 31
0.0
  0
LINE
  5
1ADB9
330
747D
100
AcDbEntity
  8
細線
100
AcDbLine
 10
13859.28093090395
 20
9221.236797361973
 30
0.0
 11
13852.58220109317
 21
9196.236797361974
 31
0.0
  0
LINE
  5
1ADBA
330
747D
100
AcDbEntity
  8
細線
100
AcDbLine
 10
13852.52320218789
 20
9221.236797361973
 30
0.0
 11
13810.02320218789
 21
9263.736797361971
 31
0.0
  0
LINE
  5
1ADBB
330
747D
100
AcDbEntity
  8
細線
100
AcDbLine
 10
13824.23893094042
 20
9221.236797361973
 30
0.0
 11
13781.73893094042
 21
9263.736797361971
 31
0.0
  0
LINE
  5
1ADBC
330
747D
100
AcDbEntity
  8
細線
100
AcDbLine
 10
13838.38106656415
 20
9221.236797361973
 30
0.0
 11
13795.88106656416
 21
9263.736797361971
 31
0.0
  0
LINE
  5
1ADBD
330
747D
100
AcDbEntity
  8
細線
100
AcDbLine
 10
13790.44556248844
 20
9263.736797361971
 30
0.0
 11
13837.82958141817
 21
9311.120816291701
 31
0.0
  0
LINE
  5
1ADBE
330
747D
100
AcDbEntity
  8
細線
100
AcDbLine
 10
13759.28093090395
 20
9221.236797361973
 30
0.0
 11
13752.58220109317
 21
9196.236797361974
 31
0.0
  0
LINE
  5
1ADBF
330
747D
100
AcDbEntity
  8
細線
100
AcDbLine
 10
13709.28093090395
 20
9221.236797361973
 30
0.0
 11
13702.58220109317
 21
9196.236797361974
 31
0.0
  0
LINE
  5
1ADC0
330
747D
100
AcDbEntity
  8
細線
100
AcDbLine
 10
13769.23235905284
 20
9263.736797361973
 30
0.0
 11
13837.82958141817
 21
9332.334019727296
 31
0.0
  0
LINE
  5
1ADC1
330
747D
100
AcDbEntity
  8
部品1
100
AcDbLine
 10
13887.82958141817
 20
9263.736797361971
 30
0.0
 11
13887.82958141817
 21
9121.236797361973
 31
0.0
  0
ENDSEC
  0
SECTION
  2
OBJECTS
  0
DICTIONARY
  5
7471
330
0
100
AcDbDictionary
281
     1
  3
ACAD_COLOR
350
1A89B
  3
ACAD_GROUP
350
7472
  3
ACAD_LAYOUT
350
1A89C
  3
ACAD_MATERIAL
350
1A89A
  3
ACAD_MLINESTYLE
350
7473
  3
ACAD_PLOTSETTINGS
350
1A89D
  3
ACAD_PLOTSTYLENAME
350
1A898
  3
ACDBHEADERROUNDTRIPXREC
350
1ADEA
  3
ACDBVARIABLEDICTIONARY
350
123D8
  3
CONTENTDICTIONARY
350
E71C
  3
DRAWINGVARIABLESDICT
350
F3B9
  0
DICTIONARY
  5
1A89B
102
{ACAD_REACTORS
330
7471
102
}
330
7471
100
AcDbDictionary
281
     1
  0
DICTIONARY
  5
7472
102
{ACAD_REACTORS
330
7471
102
}
330
7471
100
AcDbDictionary
281
     1
  0
DICTIONARY
  5
1A89C
102
{ACAD_REACTORS
330
7471
102
}
330
7471
100
AcDbDictionary
281
     1
  3
Model
350
1A89E
  3
レイアウト1
350
1A89F
  0
DICTIONARY
  5
1A89A
102
{ACAD_REACTORS
330
7471
102
}
330
7471
100
AcDbDictionary
281
     1
  0
DICTIONARY
  5
7473
102
{ACAD_REACTORS
330
7471
102
}
330
7471
100
AcDbDictionary
281
     1
  3
STANDARD
350
7480
  0
DICTIONARY
  5
1A89D
102
{ACAD_REACTORS
330
7471
102
}
330
7471
100
AcDbDictionary
281
     1
  0
ACDBDICTIONARYWDFLT
  5
1A898
102
{ACAD_REACTORS
330
7471
102
}
330
7471
100
AcDbDictionary
281
     1
  3
Normal
350
1A899
100
AcDbDictionaryWithDefault
340
1A899
  0
DICTIONARY
  5
1ADEA
102
{ACAD_REACTORS
330
7471
102
}
330
7471
100
AcDbDictionary
281
     1
  3
COLORDICT
350
1ADEC
  3
MATERIALDICT
350
1ADEB
  0
DICTIONARY
  5
123D8
102
{ACAD_REACTORS
330
7471
102
}
330
7471
100
AcDbDictionary
281
     1
  3
DIMASSOC
350
1ADE7
  3
PROJECTNAME
350
1ADE8
  3
SORTENTS
350
123D9
  0
DICTIONARY
  5
E71C
102
{ACAD_REACTORS
330
7471
102
}
330
7471
100
AcDbDictionary
281
     1
  0
DICTIONARY
  5
F3B9
102
{ACAD_REACTORS
330
7471
102
}
330
7471
100
AcDbDictionary
281
     1
1001
DRAWINGVARIABLESXDATA
1000
POLARMODE
1000
1
  0
LAYOUT
  5
1A89E
102
{ACAD_XDICTIONARY
360
1ADED
102
}
102
{ACAD_REACTORS
330
1A89C
102
}
330
1A89C
100
AcDbPlotSettings
  1

  2
EPSON LP-8300
  4

  6

 40
0.0
 41
0.0
 42
0.0
 43
0.0
 44
0.0
 45
0.0
 46
0.0
 47
0.0
 48
0.0
 49
0.0
140
0.0
141
0.0
142
1.0
143
1.0
 70
  1712
 72
     0
 73
     0
 74
     0
  7
inaba.ctb
 75
     0
147
1.0
148
0.0
149
0.0
100
AcDbLayout
  1
Model
 70
     1
 71
     0
 10
0.0
 20
0.0
 11
12.0
 21
9.0
 12
0.0
 22
0.0
 32
0.0
 14
0.0
 24
0.0
 34
0.0
 15
0.0
 25
0.0
 35
0.0
146
0.0
 13
0.0
 23
0.0
 33
0.0
 16
1.0
 26
0.0
 36
0.0
 17
0.0
 27
1.0
 37
0.0
 76
     0
330
747D
  0
LAYOUT
  5
1A89F
102
{ACAD_XDICTIONARY
360
1ADEF
102
}
102
{ACAD_REACTORS
330
1A89C
102
}
330
1A89C
100
AcDbPlotSettings
  1

  2
EPSON LP-8300
  4

  6

 40
0.0
 41
0.0
 42
0.0
 43
0.0
 44
0.0
 45
0.0
 46
0.0
 47
0.0
 48
0.0
 49
0.0
140
0.0
141
0.0
142
1.0
143
1.0
 70
   688
 72
     0
 73
     0
 74
     5
  7
inaba.ctb
 75
    16
147
1.0
148
0.0
149
0.0
100
AcDbLayout
  1
レイアウト1
 70
     0
 71
     1
 10
0.0
 20
0.0
 11
420.0
 21
297.0
 12
0.0
 22
0.0
 32
0.0
 14
1.000000000000000E+20
 24
1.000000000000000E+20
 34
1.000000000000000E+20
 15
-1.000000000000000E+20
 25
-1.000000000000000E+20
 35
-1.000000000000000E+20
146
0.0
 13
0.0
 23
0.0
 33
0.0
 16
1.0
 26
0.0
 36
0.0
 17
0.0
 27
1.0
 37
0.0
 76
     0
330
747A
  0
MLINESTYLE
  5
7480
102
{ACAD_REACTORS
330
7473
102
}
330
7473
100
AcDbMlineStyle
  2
STANDARD
 70
     0
  3

 62
     0
 51
90.0
 52
90.0
 71
     2
 49
0.5
 62
   256
  6
BYLAYER
 49
-0.5
 62
   256
  6
BYLAYER
  0
ACDBPLACEHOLDER
  5
1A899
102
{ACAD_REACTORS
330
1A898
102
}
330
1A898
  0
XRECORD
  5
1ADEC
102
{ACAD_REACTORS
330
1ADEA
102
}
330
1ADEA
100
AcDbXrecord
280
     1
340
1A89B
  0
XRECORD
  5
1ADEB
102
{ACAD_REACTORS
330
1ADEA
102
}
330
1ADEA
100
AcDbXrecord
280
     1
340
1A89A
  0
DICTIONARYVAR
  5
1ADE7
102
{ACAD_REACTORS
330
123D8
102
}
330
123D8
100
DictionaryVariables
280
     0
  1
1
  0
DICTIONARYVAR
  5
1ADE8
102
{ACAD_REACTORS
330
123D8
102
}
330
123D8
100
DictionaryVariables
280
     0
  1

  0
DICTIONARYVAR
  5
123D9
102
{ACAD_REACTORS
330
123D8
102
}
330
123D8
100
DictionaryVariables
280
     0
  1
96
  0
DICTIONARY
  5
1ADED
330
1A89E
100
AcDbDictionary
280
     1
281
     1
  3
ACAD_XREC_ROUNDTRIP
360
1ADEE
  0
DICTIONARY
  5
1ADEF
330
1A89F
100
AcDbDictionary
280
     1
281
     1
  3
ACAD_XREC_ROUNDTRIP
360
1ADF0
  0
XRECORD
  5
1ADEE
102
{ACAD_REACTORS
330
1ADED
102
}
330
1ADED
100
AcDbXrecord
280
     1
102
SHADEPLOT
 70
     0
102
SHADEPLOTRESLEVEL
 70
     2
102
SHADEPLOTCUSTOMDPI
 70
   300
  0
XRECORD
  5
1ADF0
102
{ACAD_REACTORS
330
1ADEF
102
}
330
1ADEF
100
AcDbXrecord
280
     1
102
SHADEPLOT
 70
     0
102
SHADEPLOTRESLEVEL
 70
     2
102
SHADEPLOTCUSTOMDPI
 70
   300
  0
ENDSEC
  0
EOF
