  0
SECTION
  2
HEADER
  9
$ACADVER
  1
AC1015
  9
$ACADMAINTVER
 70
    20
  9
$DWGCODEPAGE
  3
ANSI_932
  9
$INSBASE
 10
0.0
 20
0.0
 30
0.0
  9
$EXTMIN
 10
139.9999999999995
 20
-0.0000000000000909
 30
0.0
  9
$EXTMAX
 10
16307.2
 20
11409.6
 30
0.0
  9
$LIMMIN
 10
0.0
 20
0.0
  9
$LIMMAX
 10
16800.0
 20
11880.0
  9
$ORTHOMODE
 70
     0
  9
$REGENMODE
 70
     1
  9
$FILLMODE
 70
     1
  9
$QTEXTMODE
 70
     0
  9
$MIRRTEXT
 70
     1
  9
$LTSCALE
 40
20.0
  9
$ATTMODE
 70
     1
  9
$TEXTSIZE
 40
100.0
  9
$TRACEWID
 40
1.0
  9
$TEXTSTYLE
  7
STYLE2
  9
$CLAYER
  8
部品1
  9
$CELTYPE
  6
BYLAYER
  9
$CECOLOR
 62
   256
  9
$CELTSCALE
 40
50.0
  9
$DISPSILH
 70
     0
  9
$DIMSCALE
 40
40.0
  9
$DIMASZ
 40
2.5
  9
$DIMEXO
 40
0.5
  9
$DIMDLI
 40
7.0
  9
$DIMRND
 40
0.0
  9
$DIMDLE
 40
0.0
  9
$DIMEXE
 40
1.5
  9
$DIMTP
 40
0.0
  9
$DIMTM
 40
0.0
  9
$DIMTXT
 40
3.0
  9
$DIMCEN
 40
0.0
  9
$DIMTSZ
 40
0.0
  9
$DIMTOL
 70
     0
  9
$DIMLIM
 70
     0
  9
$DIMTIH
 70
     0
  9
$DIMTOH
 70
     0
  9
$DIMSE1
 70
     0
  9
$DIMSE2
 70
     0
  9
$DIMTAD
 70
     3
  9
$DIMZIN
 70
     8
  9
$DIMBLK
  1

  9
$DIMASO
 70
     1
  9
$DIMSHO
 70
     1
  9
$DIMPOST
  1

  9
$DIMAPOST
  1

  9
$DIMALT
 70
     0
  9
$DIMALTD
 70
     2
  9
$DIMALTF
 40
0.0394
  9
$DIMLFAC
 40
1.0
  9
$DIMTOFL
 70
     1
  9
$DIMTVP
 40
0.0
  9
$DIMTIX
 70
     0
  9
$DIMSOXD
 70
     0
  9
$DIMSAH
 70
     1
  9
$DIMBLK1
  1
DOTSMALL
  9
$DIMBLK2
  1
DOTSMALL
  9
$DIMSTYLE
  2
INABA_S40G
  9
$DIMCLRD
 70
     0
  9
$DIMCLRE
 70
     0
  9
$DIMCLRT
 70
     7
  9
$DIMTFAC
 40
1.0
  9
$DIMGAP
 40
1.0
  9
$DIMJUST
 70
     0
  9
$DIMSD1
 70
     0
  9
$DIMSD2
 70
     0
  9
$DIMTOLJ
 70
     1
  9
$DIMTZIN
 70
     0
  9
$DIMALTZ
 70
     0
  9
$DIMALTTZ
 70
     0
  9
$DIMUPT
 70
     0
  9
$DIMDEC
 70
     1
  9
$DIMTDEC
 70
     1
  9
$DIMALTU
 70
     2
  9
$DIMALTTD
 70
     2
  9
$DIMTXSTY
  7
STYLE1
  9
$DIMAUNIT
 70
     0
  9
$DIMADEC
 70
     0
  9
$DIMALTRND
 40
0.0
  9
$DIMAZIN
 70
     0
  9
$DIMDSEP
 70
    46
  9
$DIMATFIT
 70
     3
  9
$DIMFRAC
 70
     0
  9
$DIMLDRBLK
  1

  9
$DIMLUNIT
 70
     2
  9
$DIMLWD
 70
    -2
  9
$DIMLWE
 70
    -2
  9
$DIMTMOVE
 70
     0
  9
$LUNITS
 70
     2
  9
$LUPREC
 70
     1
  9
$SKETCHINC
 40
1.0
  9
$FILLETRAD
 40
7.0
  9
$AUNITS
 70
     0
  9
$AUPREC
 70
     0
  9
$MENU
  1
acad
  9
$ELEVATION
 40
0.0
  9
$PELEVATION
 40
0.0
  9
$THICKNESS
 40
0.0
  9
$LIMCHECK
 70
     0
  9
$CHAMFERA
 40
3.0
  9
$CHAMFERB
 40
3.0
  9
$CHAMFERC
 40
0.0
  9
$CHAMFERD
 40
0.0
  9
$SKPOLY
 70
     0
  9
$TDCREATE
 40
2451368.612993866
  9
$TDUCREATE
 40
2451368.237993866
  9
$TDUPDATE
 40
2455575.697918472
  9
$TDUUPDATE
 40
2455575.322918472
  9
$TDINDWG
 40
1.3164139005
  9
$TDUSRTIMER
 40
1.3164139005
  9
$USRTIMER
 70
     1
  9
$ANGBASE
 50
0.0
  9
$ANGDIR
 70
     0
  9
$PDMODE
 70
     3
  9
$PDSIZE
 40
2.0
  9
$PLINEWID
 40
0.0
  9
$SPLFRAME
 70
     0
  9
$SPLINETYPE
 70
     6
  9
$SPLINESEGS
 70
     8
  9
$HANDSEED
  5
21DE6
  9
$SURFTAB1
 70
     6
  9
$SURFTAB2
 70
     6
  9
$SURFTYPE
 70
     6
  9
$SURFU
 70
     6
  9
$SURFV
 70
     6
  9
$UCSBASE
  2

  9
$UCSNAME
  2

  9
$UCSORG
 10
0.0
 20
0.0
 30
0.0
  9
$UCSXDIR
 10
1.0
 20
0.0
 30
0.0
  9
$UCSYDIR
 10
0.0
 20
1.0
 30
0.0
  9
$UCSORTHOREF
  2

  9
$UCSORTHOVIEW
 70
     0
  9
$UCSORGTOP
 10
0.0
 20
0.0
 30
0.0
  9
$UCSORGBOTTOM
 10
0.0
 20
0.0
 30
0.0
  9
$UCSORGLEFT
 10
0.0
 20
0.0
 30
0.0
  9
$UCSORGRIGHT
 10
0.0
 20
0.0
 30
0.0
  9
$UCSORGFRONT
 10
0.0
 20
0.0
 30
0.0
  9
$UCSORGBACK
 10
0.0
 20
0.0
 30
0.0
  9
$PUCSBASE
  2

  9
$PUCSNAME
  2

  9
$PUCSORG
 10
0.0
 20
0.0
 30
0.0
  9
$PUCSXDIR
 10
1.0
 20
0.0
 30
0.0
  9
$PUCSYDIR
 10
0.0
 20
1.0
 30
0.0
  9
$PUCSORTHOREF
  2

  9
$PUCSORTHOVIEW
 70
     0
  9
$PUCSORGTOP
 10
0.0
 20
0.0
 30
0.0
  9
$PUCSORGBOTTOM
 10
0.0
 20
0.0
 30
0.0
  9
$PUCSORGLEFT
 10
0.0
 20
0.0
 30
0.0
  9
$PUCSORGRIGHT
 10
0.0
 20
0.0
 30
0.0
  9
$PUCSORGFRONT
 10
0.0
 20
0.0
 30
0.0
  9
$PUCSORGBACK
 10
0.0
 20
0.0
 30
0.0
  9
$USERI1
 70
     0
  9
$USERI2
 70
     0
  9
$USERI3
 70
     0
  9
$USERI4
 70
     0
  9
$USERI5
 70
     0
  9
$USERR1
 40
0.0
  9
$USERR2
 40
0.0
  9
$USERR3
 40
0.0
  9
$USERR4
 40
0.0
  9
$USERR5
 40
0.0
  9
$WORLDVIEW
 70
     1
  9
$SHADEDGE
 70
     3
  9
$SHADEDIF
 70
    70
  9
$TILEMODE
 70
     1
  9
$MAXACTVP
 70
    16
  9
$PINSBASE
 10
0.0
 20
0.0
 30
0.0
  9
$PLIMCHECK
 70
     0
  9
$PEXTMIN
 10
1.000000000000000E+20
 20
1.000000000000000E+20
 30
1.000000000000000E+20
  9
$PEXTMAX
 10
-1.000000000000000E+20
 20
-1.000000000000000E+20
 30
-1.000000000000000E+20
  9
$PLIMMIN
 10
0.0
 20
0.0
  9
$PLIMMAX
 10
420.0
 20
297.0
  9
$UNITMODE
 70
     0
  9
$VISRETAIN
 70
     0
  9
$PLINEGEN
 70
     0
  9
$PSLTSCALE
 70
     0
  9
$TREEDEPTH
 70
  3020
  9
$CMLSTYLE
  2
STANDARD
  9
$CMLJUST
 70
     0
  9
$CMLSCALE
 40
1.0
  9
$PROXYGRAPHICS
 70
     1
  9
$MEASUREMENT
 70
     1
  9
$CELWEIGHT
370
    -1
  9
$ENDCAPS
280
     0
  9
$JOINSTYLE
280
     0
  9
$LWDISPLAY
290
     0
  9
$INSUNITS
 70
     0
  9
$HYPERLINKBASE
  1

  9
$STYLESHEET
  1
inaba.ctb
  9
$XEDIT
290
     1
  9
$CEPSNTYPE
380
     0
  9
$PSTYLEMODE
290
     1
  9
$FINGERPRINTGUID
  2
{3B57B35E-7D77-4BBF-81B7-6C583B9EB24C}
  9
$VERSIONGUID
  2
{F267FD4E-E3AC-45BD-BA4E-ED7C06B1B30F}
  9
$EXTNAMES
290
     1
  9
$PSVPSCALE
 40
0.0
  9
$OLESTARTUP
290
     0
  0
ENDSEC
  0
SECTION
  2
CLASSES
  0
CLASS
  1
ACDBDICTIONARYWDFLT
  2
AcDbDictionaryWithDefault
  3
ObjectDBX Classes
 90
        0
280
     0
281
     0
  0
CLASS
  1
DICTIONARYVAR
  2
AcDbDictionaryVar
  3
ObjectDBX Classes
 90
        0
280
     0
281
     0
  0
CLASS
  1
ACDBPLACEHOLDER
  2
AcDbPlaceHolder
  3
ObjectDBX Classes
 90
        0
280
     0
281
     0
  0
CLASS
  1
LAYOUT
  2
AcDbLayout
  3
ObjectDBX Classes
 90
        0
280
     0
281
     0
  0
ENDSEC
  0
SECTION
  2
TABLES
  0
TABLE
  2
VPORT
  5
746D
330
0
100
AcDbSymbolTable
 70
     2
  0
VPORT
  5
21DDE
330
746D
100
AcDbSymbolTableRecord
100
AcDbViewportTableRecord
  2
*Active
 70
     0
 10
0.0
 20
0.0
 11
1.0
 21
1.0
 12
8223.761025238502
 22
6348.534373990247
 13
0.0
 23
0.0
 14
10.0
 24
10.0
 15
10.0
 25
10.0
 16
0.0
 26
0.0
 36
1.0
 17
0.0
 27
0.0
 37
0.0
 40
12805.99765711426
 41
1.525925925925925
 42
50.0
 43
0.0
 44
0.0
 50
0.0
 51
0.0
 71
     0
 72
     0
 73
     1
 74
     0
 75
     0
 76
     0
 77
     0
 78
     0
281
     0
 65
     1
110
0.0
120
0.0
130
0.0
111
1.0
121
0.0
131
0.0
112
0.0
122
1.0
132
0.0
 79
     0
146
0.0
  0
ENDTAB
  0
TABLE
  2
LTYPE
  5
746A
330
0
100
AcDbSymbolTable
 70
     3
  0
LTYPE
  5
7477
330
746A
100
AcDbSymbolTableRecord
100
AcDbLinetypeTableRecord
  2
BYBLOCK
 70
     0
  3

 72
    65
 73
     0
 40
0.0
  0
LTYPE
  5
7478
330
746A
100
AcDbSymbolTableRecord
100
AcDbLinetypeTableRecord
  2
BYLAYER
 70
     0
  3

 72
    65
 73
     0
 40
0.0
  0
LTYPE
  5
7479
330
746A
100
AcDbSymbolTableRecord
100
AcDbLinetypeTableRecord
  2
CONTINUOUS
 70
     0
  3
Solid line
 72
    65
 73
     0
 40
0.0
  0
LTYPE
  5
781A
330
746A
100
AcDbSymbolTableRecord
100
AcDbLinetypeTableRecord
  2
HIDDEN
 70
     0
  3
__ __ __ __ __ __ __ __ __ __ __ __ __ __ __ __
 72
    65
 73
     2
 40
0.375
 49
0.25
 74
     0
 49
-0.125
 74
     0
  0
LTYPE
  5
781B
330
746A
100
AcDbSymbolTableRecord
100
AcDbLinetypeTableRecord
  2
PHANTOM
 70
     0
  3
______  __  __  ______  __  __  ______  __  __ 
 72
    65
 73
     6
 40
2.5
 49
1.25
 74
     0
 49
-0.25
 74
     0
 49
0.25
 74
     0
 49
-0.25
 74
     0
 49
0.25
 74
     0
 49
-0.25
 74
     0
  0
ENDTAB
  0
TABLE
  2
LAYER
  5
7467
102
{ACAD_XDICTIONARY
360
212E1
102
}
330
0
100
AcDbSymbolTable
 70
    10
  0
LAYER
  5
7474
330
7467
100
AcDbSymbolTableRecord
100
AcDbLayerTableRecord
  2
0
 70
     0
 62
     7
  6
CONTINUOUS
370
    -3
390
159AE
  0
LAYER
  5
DEB3
330
7467
100
AcDbSymbolTableRecord
100
AcDbLayerTableRecord
  2
寸法
 70
     0
 62
     4
  6
CONTINUOUS
370
    -3
390
159AE
  0
LAYER
  5
DEB4
330
7467
100
AcDbSymbolTableRecord
100
AcDbLayerTableRecord
  2
部品1
 70
     0
 62
     7
  6
CONTINUOUS
370
    -3
390
159AE
  0
LAYER
  5
DEB5
330
7467
100
AcDbSymbolTableRecord
100
AcDbLayerTableRecord
  2
補助
 70
     0
 62
    -1
  6
CONTINUOUS
370
    -3
390
159AE
  0
LAYER
  5
DEB6
330
7467
100
AcDbSymbolTableRecord
100
AcDbLayerTableRecord
  2
文字
 70
     0
 62
     7
  6
CONTINUOUS
370
    -3
390
159AE
  0
LAYER
  5
F255
330
7467
100
AcDbSymbolTableRecord
100
AcDbLayerTableRecord
  2
DEFPOINTS
 70
     0
 62
     7
  6
CONTINUOUS
290
     0
370
    -3
390
159AE
  0
LAYER
  5
10B54
330
7467
100
AcDbSymbolTableRecord
100
AcDbLayerTableRecord
  2
仕様書枠
 70
     0
 62
   230
  6
CONTINUOUS
370
    -3
390
159AE
  0
LAYER
  5
11729
330
7467
100
AcDbSymbolTableRecord
100
AcDbLayerTableRecord
  2
Ｇ．Ｌ
 70
     0
 62
    30
  6
CONTINUOUS
370
    -3
390
159AE
  0
LAYER
  5
1173F
330
7467
100
AcDbSymbolTableRecord
100
AcDbLayerTableRecord
  2
細線
 70
     0
 62
     5
  6
CONTINUOUS
370
    -3
390
159AE
  0
LAYER
  5
142E2
330
7467
100
AcDbSymbolTableRecord
100
AcDbLayerTableRecord
  2
破線
 70
     0
 62
     2
  6
HIDDEN
370
    -3
390
159AE
  0
ENDTAB
  0
TABLE
  2
STYLE
  5
7468
330
0
100
AcDbSymbolTable
 70
     4
  0
STYLE
  5
7475
330
7468
100
AcDbSymbolTableRecord
100
AcDbTextStyleTableRecord
  2
STANDARD
 70
     0
 40
0.0
 41
1.0
 50
0.0
 71
     0
 42
4.0
  3
txt
  4
C:\AutoCAD LT\bigfont.shx
  0
STYLE
  5
F706
330
7468
100
AcDbSymbolTableRecord
100
AcDbTextStyleTableRecord
  2
STYLE1
 70
     0
 40
0.0
 41
1.0
 50
0.0
 71
     0
 42
100.0
  3
isocp.shx
  4
bigfont.shx
  0
STYLE
  5
103BF
330
7468
100
AcDbSymbolTableRecord
100
AcDbTextStyleTableRecord
  2
STYLE2
 70
     0
 40
0.0
 41
1.0
 50
0.0
 71
     0
 42
100.0
  3
MS PGothic.ttf
  4

1001
ACAD
1000
MS PGothic
1071
    32818
  0
STYLE
  5
21D75
330
7468
100
AcDbSymbolTableRecord
100
AcDbTextStyleTableRecord
  2
STYLE3
 70
     0
 40
0.0
 41
1.0
 50
0.0
 71
     0
 42
100.0
  3

  4

1001
ACAD
1000
DFPGothic-EB
1071
    32818
  0
ENDTAB
  0
TABLE
  2
VIEW
  5
746B
330
0
100
AcDbSymbolTable
 70
     0
  0
ENDTAB
  0
TABLE
  2
UCS
  5
746C
330
0
100
AcDbSymbolTable
 70
     0
  0
ENDTAB
  0
TABLE
  2
APPID
  5
746E
330
0
100
AcDbSymbolTable
 70
     6
  0
APPID
  5
7476
330
746E
100
AcDbSymbolTableRecord
100
AcDbRegAppTableRecord
  2
ACAD
 70
     0
  0
APPID
  5
DEA9
330
746E
100
AcDbSymbolTableRecord
100
AcDbRegAppTableRecord
  2
CONTENTBLOCKICON
 70
     0
  0
APPID
  5
DEAA
330
746E
100
AcDbSymbolTableRecord
100
AcDbRegAppTableRecord
  2
CONTENTBLOCKDESCRIPTION
 70
     0
  0
APPID
  5
E71D
330
746E
100
AcDbSymbolTableRecord
100
AcDbRegAppTableRecord
  2
CONTENTTABDATA
 70
     0
  0
APPID
  5
E71E
330
746E
100
AcDbSymbolTableRecord
100
AcDbRegAppTableRecord
  2
CONTENTCURRENTTAB
 70
     0
  0
APPID
  5
F3BA
330
746E
100
AcDbSymbolTableRecord
100
AcDbRegAppTableRecord
  2
DRAWINGVARIABLESXDATA
 70
     0
  0
ENDTAB
  0
TABLE
  2
DIMSTYLE
  5
746F
330
0
100
AcDbSymbolTable
 70
     2
100
AcDbDimStyleTable
 71
     1
340
F71F
  0
DIMSTYLE
105
F71F
102
{ACAD_REACTORS
330
141C3
330
14206
330
146E8
330
14D62
330
13BF0
330
14521
330
14526
330
1452E
330
1452F
330
14530
330
14531
330
14532
330
14533
330
1453F
330
14587
330
14589
330
19A46
330
19878
330
13BBF
330
13B6D
330
13B51
330
127A4
330
1277C
330
1277B
330
1277A
330
12779
330
12778
330
21962
330
2199C
330
21998
102
}
330
746F
100
AcDbSymbolTableRecord
100
AcDbDimStyleTableRecord
  2
INABA_S40G
 70
     0
 40
40.0
 41
2.5
 42
0.5
 43
7.0
 44
1.5
 73
     0
 74
     0
 77
     3
 78
     8
140
3.0
141
0.0
143
0.0394
147
1.0
172
     1
173
     1
174
     1
178
     7
271
     1
288
     1
340
F706
341
F770
343
F770
344
F770
  0
DIMSTYLE
105
21D76
330
746F
100
AcDbSymbolTableRecord
100
AcDbDimStyleTableRecord
  2
INABA_S20G
 70
     0
 40
20.0
 41
2.5
 42
0.5
 43
7.0
 44
1.5
 73
     0
 74
     0
 77
     3
 78
     8
140
3.0
141
0.0
143
0.0394
147
1.0
172
     1
173
     1
174
     1
178
     7
271
     1
340
F706
341
F770
343
F770
344
F770
  0
ENDTAB
  0
TABLE
  2
BLOCK_RECORD
  5
7466
330
0
100
AcDbSymbolTable
 70
    31
  0
BLOCK_RECORD
  5
747D
330
7466
100
AcDbSymbolTableRecord
100
AcDbBlockTableRecord
  2
*MODEL_SPACE
340
159B3
  0
BLOCK_RECORD
  5
747A
330
7466
100
AcDbSymbolTableRecord
100
AcDbBlockTableRecord
  2
*PAPER_SPACE
340
159B4
  0
BLOCK_RECORD
  5
F770
330
7466
100
AcDbSymbolTableRecord
100
AcDbBlockTableRecord
  2
_DOTSMALL
340
0
102
{BLKREFS
331
1D6E6
331
1D6E7
331
1F3FB
331
1F3FC
331
1F421
331
1F422
331
1F43C
331
1F43D
331
2104F
331
21050
331
21058
331
21059
331
21063
331
21064
331
2106C
331
2106D
331
21075
331
21076
331
2107E
331
2107F
331
21087
331
21088
331
21092
331
21093
331
2109B
331
2109C
331
210A6
331
210A7
331
210AF
331
210B0
331
210BA
331
210BB
331
210C4
331
210C5
331
210CE
331
210CF
331
210E9
331
210EA
331
210F4
331
210F5
331
210FD
331
210FE
331
21106
331
21107
331
21111
331
21112
331
2111B
331
2111C
331
21124
331
21125
331
2112D
331
2112E
331
21136
331
21137
331
21992
331
21993
331
219B8
331
219B9
331
219C1
331
219C2
102
}
  0
BLOCK_RECORD
  5
127B0
330
7466
100
AcDbSymbolTableRecord
100
AcDbBlockTableRecord
  2
*D1
340
0
  0
BLOCK_RECORD
  5
127BE
330
7466
100
AcDbSymbolTableRecord
100
AcDbBlockTableRecord
  2
*D2
340
0
  0
BLOCK_RECORD
  5
127CC
330
7466
100
AcDbSymbolTableRecord
100
AcDbBlockTableRecord
  2
*D3
340
0
  0
BLOCK_RECORD
  5
127E6
330
7466
100
AcDbSymbolTableRecord
100
AcDbBlockTableRecord
  2
*D4
340
0
  0
BLOCK_RECORD
  5
127F2
330
7466
100
AcDbSymbolTableRecord
100
AcDbBlockTableRecord
  2
*D5
340
0
  0
BLOCK_RECORD
  5
12832
330
7466
100
AcDbSymbolTableRecord
100
AcDbBlockTableRecord
  2
*D6
340
0
  0
BLOCK_RECORD
  5
13B45
330
7466
100
AcDbSymbolTableRecord
100
AcDbBlockTableRecord
  2
*D7
340
0
  0
BLOCK_RECORD
  5
13B60
330
7466
100
AcDbSymbolTableRecord
100
AcDbBlockTableRecord
  2
*D8
340
0
  0
BLOCK_RECORD
  5
13BB3
330
7466
100
AcDbSymbolTableRecord
100
AcDbBlockTableRecord
  2
*D9
340
0
  0
BLOCK_RECORD
  5
13DA8
330
7466
100
AcDbSymbolTableRecord
100
AcDbBlockTableRecord
  2
*D10
340
0
  0
BLOCK_RECORD
  5
141B5
330
7466
100
AcDbSymbolTableRecord
100
AcDbBlockTableRecord
  2
*D11
340
0
  0
BLOCK_RECORD
  5
141F9
330
7466
100
AcDbSymbolTableRecord
100
AcDbBlockTableRecord
  2
*D12
340
0
  0
BLOCK_RECORD
  5
1458A
330
7466
100
AcDbSymbolTableRecord
100
AcDbBlockTableRecord
  2
*D13
340
0
  0
BLOCK_RECORD
  5
14598
330
7466
100
AcDbSymbolTableRecord
100
AcDbBlockTableRecord
  2
*D14
340
0
  0
BLOCK_RECORD
  5
145A4
330
7466
100
AcDbSymbolTableRecord
100
AcDbBlockTableRecord
  2
*D15
340
0
  0
BLOCK_RECORD
  5
145B2
330
7466
100
AcDbSymbolTableRecord
100
AcDbBlockTableRecord
  2
*D16
340
0
  0
BLOCK_RECORD
  5
145BE
330
7466
100
AcDbSymbolTableRecord
100
AcDbBlockTableRecord
  2
*D17
340
0
  0
BLOCK_RECORD
  5
145CC
330
7466
100
AcDbSymbolTableRecord
100
AcDbBlockTableRecord
  2
*D18
340
0
  0
BLOCK_RECORD
  5
145D8
330
7466
100
AcDbSymbolTableRecord
100
AcDbBlockTableRecord
  2
*D19
340
0
  0
BLOCK_RECORD
  5
145E4
330
7466
100
AcDbSymbolTableRecord
100
AcDbBlockTableRecord
  2
*D20
340
0
  0
BLOCK_RECORD
  5
145FC
330
7466
100
AcDbSymbolTableRecord
100
AcDbBlockTableRecord
  2
*D21
340
0
  0
BLOCK_RECORD
  5
14608
330
7466
100
AcDbSymbolTableRecord
100
AcDbBlockTableRecord
  2
*D22
340
0
  0
BLOCK_RECORD
  5
14616
330
7466
100
AcDbSymbolTableRecord
100
AcDbBlockTableRecord
  2
*D23
340
0
  0
BLOCK_RECORD
  5
146DC
330
7466
100
AcDbSymbolTableRecord
100
AcDbBlockTableRecord
  2
*D24
340
0
  0
BLOCK_RECORD
  5
14D63
330
7466
100
AcDbSymbolTableRecord
100
AcDbBlockTableRecord
  2
*D25
340
0
  0
BLOCK_RECORD
  5
19879
330
7466
100
AcDbSymbolTableRecord
100
AcDbBlockTableRecord
  2
*D26
340
0
  0
BLOCK_RECORD
  5
19A47
330
7466
100
AcDbSymbolTableRecord
100
AcDbBlockTableRecord
  2
*D27
340
0
  0
BLOCK_RECORD
  5
2197A
330
7466
100
AcDbSymbolTableRecord
100
AcDbBlockTableRecord
  2
*D28
340
0
  0
BLOCK_RECORD
  5
2199D
330
7466
100
AcDbSymbolTableRecord
100
AcDbBlockTableRecord
  2
*D29
340
0
  0
BLOCK_RECORD
  5
219A9
330
7466
100
AcDbSymbolTableRecord
100
AcDbBlockTableRecord
  2
*D30
340
0
  0
ENDTAB
  0
ENDSEC
  0
SECTION
  2
BLOCKS
  0
BLOCK
  5
7489
330
747D
100
AcDbEntity
  8
0
100
AcDbBlockBegin
  2
*MODEL_SPACE
 70
     0
 10
0.0
 20
0.0
 30
0.0
  3
*MODEL_SPACE
  1

  0
ENDBLK
  5
748A
330
747D
100
AcDbEntity
  8
0
100
AcDbBlockEnd
  0
BLOCK
  5
7487
330
747A
100
AcDbEntity
 67
     1
  8
0
100
AcDbBlockBegin
  2
*PAPER_SPACE
 70
     0
 10
0.0
 20
0.0
 30
0.0
  3
*PAPER_SPACE
  1

  0
ENDBLK
  5
7488
330
747A
100
AcDbEntity
 67
     1
  8
0
100
AcDbBlockEnd
  0
BLOCK
  5
F771
330
F770
100
AcDbEntity
  8
0
 48
50.0
100
AcDbBlockBegin
  2
_DOTSMALL
 70
     0
 10
0.0
 20
0.0
 30
0.0
  3
_DOTSMALL
  1

  0
LWPOLYLINE
  5
F772
330
F770
100
AcDbEntity
  8
0
  6
ByBlock
 62
     0
 48
50.0
100
AcDbPolyline
 90
        2
 70
     1
 43
0.5
 10
-0.0625
 20
0.0
 42
1.0
 10
0.0625
 20
0.0
 42
1.0
  0
ENDBLK
  5
F776
330
F770
100
AcDbEntity
  8
0
 48
50.0
100
AcDbBlockEnd
  0
BLOCK
  5
139D7
330
127B0
100
AcDbEntity
  8
0
 48
50.0
100
AcDbBlockBegin
  2
*D1
 70
     1
 10
0.0
 20
0.0
 30
0.0
  3
*D1
  1

  0
LINE
  5
21117
330
127B0
100
AcDbEntity
  8
寸法
 62
     0
 48
50.0
370
    -2
100
AcDbLine
 10
9463.011802964087
 20
3100.0
 30
0.0
 11
8334.261673780828
 21
3100.0
 31
0.0
  0
LINE
  5
21118
330
127B0
100
AcDbEntity
  8
寸法
 62
     0
 48
50.0
370
    -2
100
AcDbLine
 10
8461.510727068954
 20
3000.0
 30
0.0
 11
8334.261673780828
 21
3000.0
 31
0.0
  0
LINE
  5
21119
330
127B0
100
AcDbEntity
  8
寸法
 62
     0
 48
50.0
370
    -2
100
AcDbLine
 10
8394.261673780828
 20
3100.0
 30
0.0
 11
8394.261673780828
 21
3000.0
 31
0.0
  0
LINE
  5
2111A
330
127B0
100
AcDbEntity
  8
寸法
 62
     0
 48
50.0
370
    -2
100
AcDbLine
 10
8394.261673780828
 20
3000.0
 30
0.0
 11
8394.261673780828
 21
2627.905511811024
 31
0.0
  0
INSERT
  5
2111B
330
127B0
100
AcDbEntity
  8
寸法
 62
     0
 48
50.0
370
    -2
100
AcDbBlockReference
  2
_DOTSMALL
 10
8394.261673780828
 20
3100.0
 30
0.0
 41
100.0
 42
100.0
 43
100.0
 50
90.0
  0
INSERT
  5
2111C
330
127B0
100
AcDbEntity
  8
寸法
 62
     0
 48
50.0
370
    -2
100
AcDbBlockReference
  2
_DOTSMALL
 10
8394.261673780828
 20
3000.0
 30
0.0
 41
100.0
 42
100.0
 43
100.0
 50
270.0
  0
MTEXT
  5
2111D
330
127B0
100
AcDbEntity
  8
寸法
 62
     7
 48
50.0
100
AcDbMText
 10
8294.261673780829
 20
2763.952755905513
 30
0.0
 40
120.0
 41
0.0
 71
     5
 72
     1
  1
\A1;100
  7
STYLE1
 11
0.0000000000000001
 21
1.0
 31
0.0
 73
     1
 44
1.0
1001
ACAD
1000
MTEXTBEGIN
1070
    73
1070
     1
1070
    44
1040
1.0
1070
    74
1070
     0
1000
MTEXTEND
  0
POINT
  5
2111E
330
127B0
100
AcDbEntity
  8
DEFPOINTS
 62
     0
 48
50.0
100
AcDbPoint
 10
9483.011802964087
 20
3100.0
 30
0.0
  0
POINT
  5
2111F
330
127B0
100
AcDbEntity
  8
DEFPOINTS
 62
     0
 48
50.0
100
AcDbPoint
 10
8481.510727068956
 20
3000.0
 30
0.0
  0
POINT
  5
21120
330
127B0
100
AcDbEntity
  8
DEFPOINTS
 62
     0
 48
50.0
100
AcDbPoint
 10
8394.261673780828
 20
3000.0
 30
0.0
  0
ENDBLK
  5
139E2
330
127B0
100
AcDbEntity
  8
0
 48
50.0
100
AcDbBlockEnd
  0
BLOCK
  5
139E3
330
127BE
100
AcDbEntity
  8
0
 48
50.0
100
AcDbBlockBegin
  2
*D2
 70
     1
 10
0.0
 20
0.0
 30
0.0
  3
*D2
  1

  0
LINE
  5
2110C
330
127BE
100
AcDbEntity
  8
寸法
 62
     0
 48
50.0
370
    -2
100
AcDbLine
 10
9518.011802964087
 20
3150.0
 30
0.0
 11
8634.261673780827
 21
3150.0
 31
0.0
  0
LINE
  5
2110D
330
127BE
100
AcDbEntity
  8
寸法
 62
     0
 48
50.0
370
    -2
100
AcDbLine
 10
9463.011802964087
 20
3100.0
 30
0.0
 11
8634.261673780827
 21
3100.0
 31
0.0
  0
LINE
  5
2110E
330
127BE
100
AcDbEntity
  8
寸法
 62
     0
 48
50.0
370
    -2
100
AcDbLine
 10
8694.261673780827
 20
3150.0
 30
0.0
 11
8694.261673780827
 21
3250.000000000001
 31
0.0
  0
LINE
  5
2110F
330
127BE
100
AcDbEntity
  8
寸法
 62
     0
 48
50.0
370
    -2
100
AcDbLine
 10
8694.261673780827
 20
3100.0
 30
0.0
 11
8694.261673780827
 21
2687.905511811024
 31
0.0
  0
LINE
  5
21110
330
127BE
100
AcDbEntity
  8
寸法
 62
     0
 48
50.0
370
    -2
100
AcDbLine
 10
8694.261673780827
 20
3150.0
 30
0.0
 11
8694.261673780827
 21
3100.0
 31
0.0
  0
INSERT
  5
21111
330
127BE
100
AcDbEntity
  8
寸法
 62
     0
 48
50.0
370
    -2
100
AcDbBlockReference
  2
_DOTSMALL
 10
8694.261673780827
 20
3150.0
 30
0.0
 41
100.0
 42
100.0
 43
100.0
 50
270.0
  0
INSERT
  5
21112
330
127BE
100
AcDbEntity
  8
寸法
 62
     0
 48
50.0
370
    -2
100
AcDbBlockReference
  2
_DOTSMALL
 10
8694.261673780827
 20
3100.0
 30
0.0
 41
100.0
 42
100.0
 43
100.0
 50
90.0
  0
MTEXT
  5
21113
330
127BE
100
AcDbEntity
  8
寸法
 62
     7
 48
50.0
100
AcDbMText
 10
8594.261673780827
 20
2793.952755905514
 30
0.0
 40
120.0
 41
0.0
 71
     5
 72
     1
  1
\A1;50
  7
STYLE1
 11
0.0000000000000001
 21
1.0
 31
0.0
 73
     1
 44
1.0
1001
ACAD
1000
MTEXTBEGIN
1070
    73
1070
     1
1070
    44
1040
1.0
1070
    74
1070
     0
1000
MTEXTEND
  0
POINT
  5
21114
330
127BE
100
AcDbEntity
  8
DEFPOINTS
 62
     0
 48
50.0
100
AcDbPoint
 10
9538.011802964087
 20
3150.0
 30
0.0
  0
POINT
  5
21115
330
127BE
100
AcDbEntity
  8
DEFPOINTS
 62
     0
 48
50.0
100
AcDbPoint
 10
9483.011802964087
 20
3100.0
 30
0.0
  0
POINT
  5
21116
330
127BE
100
AcDbEntity
  8
DEFPOINTS
 62
     0
 48
50.0
100
AcDbPoint
 10
8694.261673780827
 20
3100.0
 30
0.0
  0
ENDBLK
  5
139EF
330
127BE
100
AcDbEntity
  8
0
 48
50.0
100
AcDbBlockEnd
  0
BLOCK
  5
13B92
330
127CC
100
AcDbEntity
  8
0
 48
50.0
100
AcDbBlockBegin
  2
*D3
 70
     1
 10
0.0
 20
0.0
 30
0.0
  3
*D3
  1

  0
LINE
  5
21121
330
127CC
100
AcDbEntity
  8
寸法
 62
     0
 48
50.0
370
    -2
100
AcDbLine
 10
9518.011802964087
 20
3100.0
 30
0.0
 11
8334.261673780826
 21
3100.0
 31
0.0
  0
LINE
  5
21122
330
127CC
100
AcDbEntity
  8
寸法
 62
     0
 48
50.0
370
    -2
100
AcDbLine
 10
9458.011802964088
 20
5175.000000000005
 30
0.0
 11
8334.261673780828
 21
5175.000000000005
 31
0.0
  0
LINE
  5
21123
330
127CC
100
AcDbEntity
  8
寸法
 62
     0
 48
50.0
370
    -2
100
AcDbLine
 10
8394.261673780826
 20
3100.0
 30
0.0
 11
8394.261673780828
 21
5175.000000000005
 31
0.0
  0
INSERT
  5
21124
330
127CC
100
AcDbEntity
  8
寸法
 62
     0
 48
50.0
370
    -2
100
AcDbBlockReference
  2
_DOTSMALL
 10
8394.261673780826
 20
3100.0
 30
0.0
 41
100.0
 42
100.0
 43
100.0
 50
270.0
  0
INSERT
  5
21125
330
127CC
100
AcDbEntity
  8
寸法
 62
     0
 48
50.0
370
    -2
100
AcDbBlockReference
  2
_DOTSMALL
 10
8394.261673780828
 20
5175.000000000005
 30
0.0
 41
100.0
 42
100.0
 43
100.0
 50
90.0
  0
MTEXT
  5
21126
330
127CC
100
AcDbEntity
  8
寸法
 62
     7
 48
50.0
100
AcDbMText
 10
8294.249862757203
 20
4137.500000000003
 30
0.0
 40
120.0
 41
0.0
 71
     5
 72
     1
  1
\A1;2075
  7
STYLE1
 11
0.0000000000000001
 21
1.0
 31
0.0
 73
     1
 44
1.0
1001
ACAD
1000
MTEXTBEGIN
1070
    73
1070
     1
1070
    44
1040
1.0
1070
    74
1070
     0
1000
MTEXTEND
  0
POINT
  5
21127
330
127CC
100
AcDbEntity
  8
DEFPOINTS
 62
     0
 48
50.0
100
AcDbPoint
 10
9538.011802964087
 20
3100.0
 30
0.0
  0
POINT
  5
21128
330
127CC
100
AcDbEntity
  8
DEFPOINTS
 62
     0
 48
50.0
100
AcDbPoint
 10
9478.011802964088
 20
5175.000000000005
 30
0.0
  0
POINT
  5
21129
330
127CC
100
AcDbEntity
  8
DEFPOINTS
 62
     0
 48
50.0
100
AcDbPoint
 10
8394.261673780828
 20
5175.000000000005
 30
0.0
  0
ENDBLK
  5
13B9C
330
127CC
100
AcDbEntity
  8
0
 48
50.0
100
AcDbBlockEnd
  0
BLOCK
  5
139C1
330
127E6
100
AcDbEntity
  8
0
 48
50.0
100
AcDbBlockBegin
  2
*D4
 70
     1
 10
0.0
 20
0.0
 30
0.0
  3
*D4
  1

  0
LINE
  5
2112A
330
127E6
100
AcDbEntity
  8
寸法
 62
     0
 48
50.0
370
    -2
100
AcDbLine
 10
9518.011802964087
 20
4940.0
 30
0.0
 11
8634.26167378083
 21
4940.0
 31
0.0
  0
LINE
  5
2112B
330
127E6
100
AcDbEntity
  8
寸法
 62
     0
 48
50.0
370
    -2
100
AcDbLine
 10
9518.011802964087
 20
3150.0
 30
0.0
 11
8634.261673780827
 21
3150.0
 31
0.0
  0
LINE
  5
2112C
330
127E6
100
AcDbEntity
  8
寸法
 62
     0
 48
50.0
370
    -2
100
AcDbLine
 10
8694.261673780829
 20
4940.0
 30
0.0
 11
8694.261673780827
 21
3150.0
 31
0.0
  0
INSERT
  5
2112D
330
127E6
100
AcDbEntity
  8
寸法
 62
     0
 48
50.0
370
    -2
100
AcDbBlockReference
  2
_DOTSMALL
 10
8694.261673780829
 20
4940.0
 30
0.0
 41
100.0
 42
100.0
 43
100.0
 50
90.0
  0
INSERT
  5
2112E
330
127E6
100
AcDbEntity
  8
寸法
 62
     0
 48
50.0
370
    -2
100
AcDbBlockReference
  2
_DOTSMALL
 10
8694.261673780827
 20
3150.0
 30
0.0
 41
100.0
 42
100.0
 43
100.0
 50
270.0
  0
MTEXT
  5
2112F
330
127E6
100
AcDbEntity
  8
寸法
 62
     7
 48
50.0
100
AcDbMText
 10
8594.261673780827
 20
4045.000000000001
 30
0.0
 40
120.0
 41
0.0
 71
     5
 72
     1
  1
\A1;1790
  7
STYLE1
 11
0.0000000000000001
 21
1.0
 31
0.0
 73
     1
 44
1.0
1001
ACAD
1000
MTEXTBEGIN
1070
    73
1070
     1
1070
    44
1040
1.0
1070
    74
1070
     0
1000
MTEXTEND
  0
POINT
  5
21130
330
127E6
100
AcDbEntity
  8
DEFPOINTS
 62
     0
 48
50.0
100
AcDbPoint
 10
9538.011802964087
 20
4940.0
 30
0.0
  0
POINT
  5
21131
330
127E6
100
AcDbEntity
  8
DEFPOINTS
 62
     0
 48
50.0
100
AcDbPoint
 10
9538.011802964087
 20
3150.0
 30
0.0
  0
POINT
  5
21132
330
127E6
100
AcDbEntity
  8
DEFPOINTS
 62
     0
 48
50.0
100
AcDbPoint
 10
8694.261673780827
 20
3150.0
 30
0.0
  0
ENDBLK
  5
139CB
330
127E6
100
AcDbEntity
  8
0
 48
50.0
100
AcDbBlockEnd
  0
BLOCK
  5
14CA7
330
127F2
100
AcDbEntity
  8
0
 48
50.0
100
AcDbBlockBegin
  2
*D5
 70
     1
 10
0.0
 20
0.0
 30
0.0
  3
*D5
  1

  0
LINE
  5
21133
330
127F2
100
AcDbEntity
  8
寸法
 62
     0
 48
50.0
370
    -2
100
AcDbLine
 10
9518.011802964087
 20
4932.0
 30
0.0
 11
8933.103161566835
 21
4932.0
 31
0.0
  0
LINE
  5
21134
330
127F2
100
AcDbEntity
  8
寸法
 62
     0
 48
50.0
370
    -2
100
AcDbLine
 10
9518.011802964087
 20
3162.0
 30
0.0
 11
8933.103161566831
 21
3162.000000000001
 31
0.0
  0
LINE
  5
21135
330
127F2
100
AcDbEntity
  8
寸法
 62
     0
 48
50.0
370
    -2
100
AcDbLine
 10
8993.103161566834
 20
4932.0
 30
0.0
 11
8993.103161566834
 21
3162.000000000001
 31
0.0
  0
INSERT
  5
21136
330
127F2
100
AcDbEntity
  8
寸法
 62
     0
 48
50.0
370
    -2
100
AcDbBlockReference
  2
_DOTSMALL
 10
8993.103161566834
 20
4932.0
 30
0.0
 41
100.0
 42
100.0
 43
100.0
 50
90.0
  0
INSERT
  5
21137
330
127F2
100
AcDbEntity
  8
寸法
 62
     0
 48
50.0
370
    -2
100
AcDbBlockReference
  2
_DOTSMALL
 10
8993.103161566834
 20
3162.000000000001
 30
0.0
 41
100.0
 42
100.0
 43
100.0
 50
270.0
  0
MTEXT
  5
21138
330
127F2
100
AcDbEntity
  8
寸法
 62
     7
 48
50.0
100
AcDbMText
 10
8893.103161566832
 20
4047.000000000001
 30
0.0
 40
120.0
 41
0.0
 71
     5
 72
     1
  1
\A1;有効開口部高サ1770
  7
STYLE1
 11
0.0000000000000001
 21
1.0
 31
0.0
 73
     1
 44
1.0
1001
ACAD
1000
MTEXTBEGIN
1070
    73
1070
     1
1070
    44
1040
1.0
1070
    74
1070
     0
1000
MTEXTEND
  0
POINT
  5
21139
330
127F2
100
AcDbEntity
  8
DEFPOINTS
 62
     0
 48
50.0
100
AcDbPoint
 10
9538.011802964087
 20
4932.0
 30
0.0
  0
POINT
  5
2113A
330
127F2
100
AcDbEntity
  8
DEFPOINTS
 62
     0
 48
50.0
100
AcDbPoint
 10
9538.011802964087
 20
3162.0
 30
0.0
  0
POINT
  5
2113B
330
127F2
100
AcDbEntity
  8
DEFPOINTS
 62
     0
 48
50.0
100
AcDbPoint
 10
8993.103161566834
 20
3162.000000000001
 30
0.0
  0
ENDBLK
  5
14CB1
330
127F2
100
AcDbEntity
  8
0
 48
50.0
100
AcDbBlockEnd
  0
BLOCK
  5
13B9D
330
12832
100
AcDbEntity
  8
0
 48
50.0
100
AcDbBlockBegin
  2
*D6
 70
     1
 10
0.0
 20
0.0
 30
0.0
  3
*D6
  1

  0
LINE
  5
21103
330
12832
100
AcDbEntity
  8
寸法
 62
     0
 48
50.0
370
    -2
100
AcDbLine
 10
10928.01180296409
 20
3100.0
 30
0.0
 11
11672.93896093621
 21
3100.0
 31
0.0
  0
LINE
  5
21104
330
12832
100
AcDbEntity
  8
寸法
 62
     0
 48
50.0
370
    -2
100
AcDbLine
 10
11008.01180296409
 20
5120.0
 30
0.0
 11
11672.93896093621
 21
5120.0
 31
0.0
  0
LINE
  5
21105
330
12832
100
AcDbEntity
  8
寸法
 62
     0
 48
50.0
370
    -2
100
AcDbLine
 10
11612.93896093621
 20
3100.0
 30
0.0
 11
11612.93896093621
 21
5120.0
 31
0.0
  0
INSERT
  5
21106
330
12832
100
AcDbEntity
  8
寸法
 62
     0
 48
50.0
370
    -2
100
AcDbBlockReference
  2
_DOTSMALL
 10
11612.93896093621
 20
3100.0
 30
0.0
 41
100.0
 42
100.0
 43
100.0
 50
270.0
  0
INSERT
  5
21107
330
12832
100
AcDbEntity
  8
寸法
 62
     0
 48
50.0
370
    -2
100
AcDbBlockReference
  2
_DOTSMALL
 10
11612.93896093621
 20
5120.0
 30
0.0
 41
100.0
 42
100.0
 43
100.0
 50
90.0
  0
MTEXT
  5
21108
330
12832
100
AcDbEntity
  8
寸法
 62
     7
 48
50.0
100
AcDbMText
 10
11512.92714991259
 20
4110.000000000002
 30
0.0
 40
120.0
 41
0.0
 71
     5
 72
     1
  1
\A1;2020
  7
STYLE1
 11
0.0000000000000001
 21
1.0
 31
0.0
 73
     1
 44
1.0
1001
ACAD
1000
MTEXTBEGIN
1070
    73
1070
     1
1070
    44
1040
1.0
1070
    74
1070
     0
1000
MTEXTEND
  0
POINT
  5
21109
330
12832
100
AcDbEntity
  8
DEFPOINTS
 62
     0
 48
50.0
100
AcDbPoint
 10
10908.01180296409
 20
3100.0
 30
0.0
  0
POINT
  5
2110A
330
12832
100
AcDbEntity
  8
DEFPOINTS
 62
     0
 48
50.0
100
AcDbPoint
 10
10988.01180296409
 20
5120.0
 30
0.0
  0
POINT
  5
2110B
330
12832
100
AcDbEntity
  8
DEFPOINTS
 62
     0
 48
50.0
100
AcDbPoint
 10
11612.93896093621
 20
5120.0
 30
0.0
  0
ENDBLK
  5
13BA7
330
12832
100
AcDbEntity
  8
0
 48
50.0
100
AcDbBlockEnd
  0
BLOCK
  5
14D1F
330
13B45
100
AcDbEntity
  8
0
 48
50.0
100
AcDbBlockBegin
  2
*D7
 70
     1
 10
0.0
 20
0.0
 30
0.0
  3
*D7
  1

  0
LINE
  5
210FA
330
13B45
100
AcDbEntity
  8
寸法
 62
     0
 48
50.0
370
    -2
100
AcDbLine
 10
10908.01180296409
 20
5141.810679611654
 30
0.0
 11
10908.01180296409
 21
5633.657453579304
 31
0.0
  0
LINE
  5
210FB
330
13B45
100
AcDbEntity
  8
寸法
 62
     0
 48
50.0
370
    -2
100
AcDbLine
 10
9538.01180296409
 20
5191.001618122976
 30
0.0
 11
9538.01180296409
 21
5633.657453579304
 31
0.0
  0
LINE
  5
210FC
330
13B45
100
AcDbEntity
  8
寸法
 62
     0
 48
50.0
370
    -2
100
AcDbLine
 10
10908.01180296409
 20
5573.657453579304
 30
0.0
 11
9538.01180296409
 21
5573.657453579304
 31
0.0
  0
INSERT
  5
210FD
330
13B45
100
AcDbEntity
  8
寸法
 62
     0
 48
50.0
370
    -2
100
AcDbBlockReference
  2
_DOTSMALL
 10
10908.01180296409
 20
5573.657453579304
 30
0.0
 41
100.0
 42
100.0
 43
100.0
  0
INSERT
  5
210FE
330
13B45
100
AcDbEntity
  8
寸法
 62
     0
 48
50.0
370
    -2
100
AcDbBlockReference
  2
_DOTSMALL
 10
9538.01180296409
 20
5573.657453579304
 30
0.0
 41
100.0
 42
100.0
 43
100.0
 50
180.0
  0
MTEXT
  5
210FF
330
13B45
100
AcDbEntity
  8
寸法
 62
     7
 48
50.0
100
AcDbMText
 10
10228.75113990871
 20
5673.657453579305
 30
0.0
 40
120.0
 41
0.0
 71
     5
 72
     1
  1
\A1;柱外寸法1370
  7
STYLE1
 73
     1
 44
1.0
1001
ACAD
1000
MTEXTBEGIN
1070
    73
1070
     1
1070
    44
1040
1.0
1070
    74
1070
     0
1000
MTEXTEND
  0
POINT
  5
21100
330
13B45
100
AcDbEntity
  8
DEFPOINTS
 62
     0
 48
50.0
100
AcDbPoint
 10
10908.01180296409
 20
5121.810679611654
 30
0.0
  0
POINT
  5
21101
330
13B45
100
AcDbEntity
  8
DEFPOINTS
 62
     0
 48
50.0
100
AcDbPoint
 10
9538.01180296409
 20
5171.001618122977
 30
0.0
  0
POINT
  5
21102
330
13B45
100
AcDbEntity
  8
DEFPOINTS
 62
     0
 48
50.0
100
AcDbPoint
 10
9538.01180296409
 20
5573.657453579304
 30
0.0
  0
ENDBLK
  5
14D29
330
13B45
100
AcDbEntity
  8
0
 48
50.0
100
AcDbBlockEnd
  0
BLOCK
  5
149C9
330
13B60
100
AcDbEntity
  8
0
 48
50.0
100
AcDbBlockBegin
  2
*D8
 70
     1
 10
0.0
 20
0.0
 30
0.0
  3
*D8
  1

  0
LINE
  5
210EF
330
13B60
100
AcDbEntity
  8
寸法
 62
     0
 48
50.0
370
    -2
100
AcDbLine
 10
9538.01180296409
 20
5191.001618122976
 30
0.0
 11
9538.01180296409
 21
5633.657453579304
 31
0.0
  0
LINE
  5
210F0
330
13B60
100
AcDbEntity
  8
寸法
 62
     0
 48
50.0
370
    -2
100
AcDbLine
 10
9478.011802964088
 20
5195.000000000004
 30
0.0
 11
9478.011802964088
 21
5633.657453579304
 31
0.0
  0
LINE
  5
210F1
330
13B60
100
AcDbEntity
  8
寸法
 62
     0
 48
50.0
370
    -2
100
AcDbLine
 10
9538.01180296409
 20
5573.657453579304
 30
0.0
 11
9638.01180296409
 21
5573.657453579304
 31
0.0
  0
LINE
  5
210F2
330
13B60
100
AcDbEntity
  8
寸法
 62
     0
 48
50.0
370
    -2
100
AcDbLine
 10
9478.011802964088
 20
5573.657453579304
 30
0.0
 11
9058.736212412908
 21
5573.657453579304
 31
0.0
  0
LINE
  5
210F3
330
13B60
100
AcDbEntity
  8
寸法
 62
     0
 48
50.0
370
    -2
100
AcDbLine
 10
9538.01180296409
 20
5573.657453579304
 30
0.0
 11
9478.011802964088
 21
5573.657453579304
 31
0.0
  0
INSERT
  5
210F4
330
13B60
100
AcDbEntity
  8
寸法
 62
     0
 48
50.0
370
    -2
100
AcDbBlockReference
  2
_DOTSMALL
 10
9538.01180296409
 20
5573.657453579304
 30
0.0
 41
100.0
 42
100.0
 43
100.0
 50
180.0
  0
INSERT
  5
210F5
330
13B60
100
AcDbEntity
  8
寸法
 62
     0
 48
50.0
370
    -2
100
AcDbBlockReference
  2
_DOTSMALL
 10
9478.011802964088
 20
5573.657453579304
 30
0.0
 41
100.0
 42
100.0
 43
100.0
  0
MTEXT
  5
210F6
330
13B60
100
AcDbEntity
  8
寸法
 62
     7
 48
50.0
100
AcDbMText
 10
9168.374007688498
 20
5673.657453579305
 30
0.0
 40
120.0
 41
0.0
 71
     5
 72
     1
  1
\A1;60
  7
STYLE1
 73
     1
 44
1.0
1001
ACAD
1000
MTEXTBEGIN
1070
    73
1070
     1
1070
    44
1040
1.0
1070
    74
1070
     0
1000
MTEXTEND
  0
POINT
  5
210F7
330
13B60
100
AcDbEntity
  8
DEFPOINTS
 62
     0
 48
50.0
100
AcDbPoint
 10
9538.01180296409
 20
5171.001618122977
 30
0.0
  0
POINT
  5
210F8
330
13B60
100
AcDbEntity
  8
DEFPOINTS
 62
     0
 48
50.0
100
AcDbPoint
 10
9478.011802964088
 20
5175.000000000005
 30
0.0
  0
POINT
  5
210F9
330
13B60
100
AcDbEntity
  8
DEFPOINTS
 62
     0
 48
50.0
100
AcDbPoint
 10
9478.011802964088
 20
5573.657453579304
 30
0.0
  0
ENDBLK
  5
149D4
330
13B60
100
AcDbEntity
  8
0
 48
50.0
100
AcDbBlockEnd
  0
BLOCK
  5
14D2A
330
13BB3
100
AcDbEntity
  8
0
 48
50.0
100
AcDbBlockBegin
  2
*D9
 70
     1
 10
0.0
 20
0.0
 30
0.0
  3
*D9
  1

  0
LINE
  5
210E6
330
13BB3
100
AcDbEntity
  8
寸法
 62
     0
 48
50.0
370
    -2
100
AcDbLine
 10
10988.01180296409
 20
5140.000000000001
 30
0.0
 11
10988.01180296409
 21
5847.714056264696
 31
0.0
  0
LINE
  5
210E7
330
13BB3
100
AcDbEntity
  8
寸法
 62
     0
 48
50.0
370
    -2
100
AcDbLine
 10
9478.011802964088
 20
5195.000000000004
 30
0.0
 11
9478.011802964088
 21
5847.714056264696
 31
0.0
  0
LINE
  5
210E8
330
13BB3
100
AcDbEntity
  8
寸法
 62
     0
 48
50.0
370
    -2
100
AcDbLine
 10
10988.01180296409
 20
5787.714056264697
 30
0.0
 11
9478.011802964088
 21
5787.714056264697
 31
0.0
  0
INSERT
  5
210E9
330
13BB3
100
AcDbEntity
  8
寸法
 62
     0
 48
50.0
370
    -2
100
AcDbBlockReference
  2
_DOTSMALL
 10
10988.01180296409
 20
5787.714056264697
 30
0.0
 41
100.0
 42
100.0
 43
100.0
  0
INSERT
  5
210EA
330
13BB3
100
AcDbEntity
  8
寸法
 62
     0
 48
50.0
370
    -2
100
AcDbBlockReference
  2
_DOTSMALL
 10
9478.011802964088
 20
5787.714056264697
 30
0.0
 41
100.0
 42
100.0
 43
100.0
 50
180.0
  0
MTEXT
  5
210EB
330
13BB3
100
AcDbEntity
  8
寸法
 62
     7
 48
50.0
100
AcDbMText
 10
10208.29197972765
 20
5887.714056264696
 30
0.0
 40
120.0
 41
0.0
 71
     5
 72
     1
  1
\A1;1510
  7
STYLE1
 73
     1
 44
1.0
1001
ACAD
1000
MTEXTBEGIN
1070
    73
1070
     1
1070
    44
1040
1.0
1070
    74
1070
     0
1000
MTEXTEND
  0
POINT
  5
210EC
330
13BB3
100
AcDbEntity
  8
DEFPOINTS
 62
     0
 48
50.0
100
AcDbPoint
 10
10988.01180296409
 20
5120.0
 30
0.0
  0
POINT
  5
210ED
330
13BB3
100
AcDbEntity
  8
DEFPOINTS
 62
     0
 48
50.0
100
AcDbPoint
 10
9478.011802964088
 20
5175.000000000005
 30
0.0
  0
POINT
  5
210EE
330
13BB3
100
AcDbEntity
  8
DEFPOINTS
 62
     0
 48
50.0
100
AcDbPoint
 10
9478.011802964088
 20
5787.714056264697
 30
0.0
  0
ENDBLK
  5
14D34
330
13BB3
100
AcDbEntity
  8
0
 48
50.0
100
AcDbBlockEnd
  0
BLOCK
  5
14A98
330
13DA8
100
AcDbEntity
  8
0
 48
50.0
100
AcDbBlockBegin
  2
*D10
 70
     1
 10
0.0
 20
0.0
 30
0.0
  3
*D10
  1

  0
LINE
  5
1F41E
330
13DA8
100
AcDbEntity
  8
寸法
 62
     0
 48
50.0
370
    -2
100
AcDbLine
 10
5209.896575106991
 20
5195.000000000005
 30
0.0
 11
5209.896575106991
 21
5655.370389148895
 31
0.0
  0
LINE
  5
1F41F
330
13DA8
100
AcDbEntity
  8
寸法
 62
     0
 48
50.0
370
    -2
100
AcDbLine
 10
7519.896575107009
 20
5195.000000000003
 30
0.0
 11
7519.896575107009
 21
5655.370389148895
 31
0.0
  0
LINE
  5
1F420
330
13DA8
100
AcDbEntity
  8
寸法
 62
     0
 48
50.0
370
    -2
100
AcDbLine
 10
5209.896575106991
 20
5595.370389148895
 30
0.0
 11
7519.896575107009
 21
5595.370389148895
 31
0.0
  0
INSERT
  5
1F421
330
13DA8
100
AcDbEntity
  8
寸法
 62
     0
 48
50.0
370
    -2
100
AcDbBlockReference
  2
_DOTSMALL
 10
5209.896575106991
 20
5595.370389148895
 30
0.0
 41
100.0
 42
100.0
 43
100.0
 50
180.0
  0
INSERT
  5
1F422
330
13DA8
100
AcDbEntity
  8
寸法
 62
     0
 48
50.0
370
    -2
100
AcDbBlockReference
  2
_DOTSMALL
 10
7519.896575107009
 20
5595.370389148895
 30
0.0
 41
100.0
 42
100.0
 43
100.0
  0
MTEXT
  5
1F423
330
13DA8
100
AcDbEntity
  8
寸法
 62
     7
 48
50.0
100
AcDbMText
 10
6358.975848044829
 20
5695.382200172517
 30
0.0
 40
120.0
 41
0.0
 71
     5
 72
     1
  1
\A1;2310
  7
STYLE1
 73
     1
 44
1.0
1001
ACAD
1000
MTEXTBEGIN
1070
    73
1070
     1
1070
    44
1040
1.0
1070
    74
1070
     0
1000
MTEXTEND
  0
POINT
  5
1F424
330
13DA8
100
AcDbEntity
  8
DEFPOINTS
 62
     0
 48
50.0
100
AcDbPoint
 10
5209.896575106991
 20
5175.000000000006
 30
0.0
  0
POINT
  5
1F425
330
13DA8
100
AcDbEntity
  8
DEFPOINTS
 62
     0
 48
50.0
100
AcDbPoint
 10
7519.896575107009
 20
5175.000000000003
 30
0.0
  0
POINT
  5
1F426
330
13DA8
100
AcDbEntity
  8
DEFPOINTS
 62
     0
 48
50.0
100
AcDbPoint
 10
7519.896575107009
 20
5595.370389148895
 30
0.0
  0
ENDBLK
  5
14AA2
330
13DA8
100
AcDbEntity
  8
0
 48
50.0
100
AcDbBlockEnd
  0
BLOCK
  5
14A8A
330
141B5
100
AcDbEntity
  8
0
 48
50.0
100
AcDbBlockBegin
  2
*D11
 70
     1
 10
0.0
 20
0.0
 30
0.0
  3
*D11
  1

  0
LINE
  5
1F3F6
330
141B5
100
AcDbEntity
  8
寸法
 62
     0
 48
50.0
370
    -2
100
AcDbLine
 10
7519.896575107009
 20
5195.000000000003
 30
0.0
 11
7519.896575107009
 21
5439.620259427273
 31
0.0
  0
LINE
  5
1F3F7
330
141B5
100
AcDbEntity
  8
寸法
 62
     0
 48
50.0
370
    -2
100
AcDbLine
 10
7469.896575107011
 20
5195.000000000005
 30
0.0
 11
7469.896575107011
 21
5439.620259427273
 31
0.0
  0
LINE
  5
1F3F8
330
141B5
100
AcDbEntity
  8
寸法
 62
     0
 48
50.0
370
    -2
100
AcDbLine
 10
7469.896575107011
 20
5379.620259427273
 30
0.0
 11
7369.89657510701
 21
5379.620259427273
 31
0.0
  0
LINE
  5
1F3F9
330
141B5
100
AcDbEntity
  8
寸法
 62
     0
 48
50.0
370
    -2
100
AcDbLine
 10
7519.896575107009
 20
5379.620259427273
 30
0.0
 11
7939.429100575736
 21
5379.620259427273
 31
0.0
  0
LINE
  5
1F3FA
330
141B5
100
AcDbEntity
  8
寸法
 62
     0
 48
50.0
370
    -2
100
AcDbLine
 10
7469.896575107011
 20
5379.620259427273
 30
0.0
 11
7519.896575107009
 21
5379.620259427273
 31
0.0
  0
INSERT
  5
1F3FB
330
141B5
100
AcDbEntity
  8
寸法
 62
     0
 48
50.0
370
    -2
100
AcDbBlockReference
  2
_DOTSMALL
 10
7469.896575107011
 20
5379.620259427273
 30
0.0
 41
100.0
 42
100.0
 43
100.0
  0
INSERT
  5
1F3FC
330
141B5
100
AcDbEntity
  8
寸法
 62
     0
 48
50.0
370
    -2
100
AcDbBlockReference
  2
_DOTSMALL
 10
7519.896575107009
 20
5379.620259427273
 30
0.0
 41
100.0
 42
100.0
 43
100.0
 50
180.0
  0
MTEXT
  5
1F3FD
330
141B5
100
AcDbEntity
  8
寸法
 62
     7
 48
50.0
100
AcDbMText
 10
7833.381856481247
 20
5479.620259427273
 30
0.0
 40
120.0
 41
0.0
 71
     5
 72
     1
  1
\A1;50
  7
STYLE1
 73
     1
 44
1.0
1001
ACAD
1000
MTEXTBEGIN
1070
    73
1070
     1
1070
    44
1040
1.0
1070
    74
1070
     0
1000
MTEXTEND
  0
POINT
  5
1F3FE
330
141B5
100
AcDbEntity
  8
DEFPOINTS
 62
     0
 48
50.0
100
AcDbPoint
 10
7519.896575107009
 20
5175.000000000003
 30
0.0
  0
POINT
  5
1F3FF
330
141B5
100
AcDbEntity
  8
DEFPOINTS
 62
     0
 48
50.0
100
AcDbPoint
 10
7469.896575107011
 20
5175.000000000006
 30
0.0
  0
POINT
  5
1F400
330
141B5
100
AcDbEntity
  8
DEFPOINTS
 62
     0
 48
50.0
100
AcDbPoint
 10
7469.896575107011
 20
5379.620259427273
 30
0.0
  0
ENDBLK
  5
14A96
330
141B5
100
AcDbEntity
  8
0
 48
50.0
100
AcDbBlockEnd
  0
BLOCK
  5
14A7D
330
141F9
100
AcDbEntity
  8
0
 48
50.0
100
AcDbBlockBegin
  2
*D12
 70
     1
 10
0.0
 20
0.0
 30
0.0
  3
*D12
  1

  0
LINE
  5
1D6E1
330
141F9
100
AcDbEntity
  8
寸法
 62
     0
 48
50.0
370
    -2
100
AcDbLine
 10
5259.896575106991
 20
5195.000000000007
 30
0.0
 11
5259.896575106991
 21
5439.620259427273
 31
0.0
  0
LINE
  5
1D6E2
330
141F9
100
AcDbEntity
  8
寸法
 62
     0
 48
50.0
370
    -2
100
AcDbLine
 10
5209.896575106991
 20
5195.000000000005
 30
0.0
 11
5209.896575106991
 21
5439.620259427273
 31
0.0
  0
LINE
  5
1D6E3
330
141F9
100
AcDbEntity
  8
寸法
 62
     0
 48
50.0
370
    -2
100
AcDbLine
 10
5259.896575106991
 20
5379.620259427273
 30
0.0
 11
5359.896575106991
 21
5379.620259427273
 31
0.0
  0
LINE
  5
1D6E4
330
141F9
100
AcDbEntity
  8
寸法
 62
     0
 48
50.0
370
    -2
100
AcDbLine
 10
5209.896575106991
 20
5379.620259427273
 30
0.0
 11
4790.364049638257
 21
5379.620259427273
 31
0.0
  0
LINE
  5
1D6E5
330
141F9
100
AcDbEntity
  8
寸法
 62
     0
 48
50.0
370
    -2
100
AcDbLine
 10
5259.896575106991
 20
5379.620259427273
 30
0.0
 11
5209.896575106991
 21
5379.620259427273
 31
0.0
  0
INSERT
  5
1D6E6
330
141F9
100
AcDbEntity
  8
寸法
 62
     0
 48
50.0
370
    -2
100
AcDbBlockReference
  2
_DOTSMALL
 10
5259.896575106991
 20
5379.620259427273
 30
0.0
 41
100.0
 42
100.0
 43
100.0
 50
180.0
  0
INSERT
  5
1D6E7
330
141F9
100
AcDbEntity
  8
寸法
 62
     0
 48
50.0
370
    -2
100
AcDbBlockReference
  2
_DOTSMALL
 10
5209.896575106991
 20
5379.620259427273
 30
0.0
 41
100.0
 42
100.0
 43
100.0
  0
MTEXT
  5
1D6E8
330
141F9
100
AcDbEntity
  8
寸法
 62
     7
 48
50.0
100
AcDbMText
 10
4896.411293732746
 20
5479.620259427273
 30
0.0
 40
120.0
 41
0.0
 71
     5
 72
     1
  1
\A1;50
  7
STYLE1
 73
     1
 44
1.0
1001
ACAD
1000
MTEXTBEGIN
1070
    73
1070
     1
1070
    44
1040
1.0
1070
    74
1070
     0
1000
MTEXTEND
  0
POINT
  5
1D6E9
330
141F9
100
AcDbEntity
  8
DEFPOINTS
 62
     0
 48
50.0
100
AcDbPoint
 10
5259.896575106991
 20
5175.000000000006
 30
0.0
  0
POINT
  5
1D6EA
330
141F9
100
AcDbEntity
  8
DEFPOINTS
 62
     0
 48
50.0
100
AcDbPoint
 10
5209.896575106991
 20
5175.000000000006
 30
0.0
  0
POINT
  5
1D6EB
330
141F9
100
AcDbEntity
  8
DEFPOINTS
 62
     0
 48
50.0
100
AcDbPoint
 10
5209.896575106991
 20
5379.620259427273
 30
0.0
  0
ENDBLK
  5
14A89
330
141F9
100
AcDbEntity
  8
0
 48
50.0
100
AcDbBlockEnd
  0
BLOCK
  5
148C8
330
1458A
100
AcDbEntity
  8
0
 48
50.0
100
AcDbBlockBegin
  2
*D13
 70
     1
 10
0.0
 20
0.0
 30
0.0
  3
*D13
  1

  0
LINE
  5
210B5
330
1458A
100
AcDbEntity
  8
寸法
 62
     0
 48
50.0
370
    -2
100
AcDbLine
 10
5259.896575106966
 20
8671.933683184626
 30
0.0
 11
5259.896575106966
 21
8927.741902809611
 31
0.0
  0
LINE
  5
210B6
330
1458A
100
AcDbEntity
  8
寸法
 62
     0
 48
50.0
370
    -2
100
AcDbLine
 10
5314.896575107001
 20
8671.933683184626
 30
0.0
 11
5314.896575107001
 21
8927.741902809611
 31
0.0
  0
LINE
  5
210B7
330
1458A
100
AcDbEntity
  8
寸法
 62
     0
 48
50.0
370
    -2
100
AcDbLine
 10
5314.896575107001
 20
8867.74190280961
 30
0.0
 11
5414.896575107
 21
8867.74190280961
 31
0.0
  0
LINE
  5
210B8
330
1458A
100
AcDbEntity
  8
寸法
 62
     0
 48
50.0
370
    -2
100
AcDbLine
 10
5259.896575106966
 20
8867.74190280961
 30
0.0
 11
4842.926012358489
 21
8867.74190280961
 31
0.0
  0
LINE
  5
210B9
330
1458A
100
AcDbEntity
  8
寸法
 62
     0
 48
50.0
370
    -2
100
AcDbLine
 10
5314.896575107001
 20
8867.74190280961
 30
0.0
 11
5259.896575106966
 21
8867.74190280961
 31
0.0
  0
INSERT
  5
210BA
330
1458A
100
AcDbEntity
  8
寸法
 62
     0
 48
50.0
370
    -2
100
AcDbBlockReference
  2
_DOTSMALL
 10
5314.896575107001
 20
8867.74190280961
 30
0.0
 41
100.0
 42
100.0
 43
100.0
 50
180.0
  0
INSERT
  5
210BB
330
1458A
100
AcDbEntity
  8
寸法
 62
     0
 48
50.0
370
    -2
100
AcDbBlockReference
  2
_DOTSMALL
 10
5259.896575106966
 20
8867.74190280961
 30
0.0
 41
100.0
 42
100.0
 43
100.0
  0
MTEXT
  5
210BC
330
1458A
100
AcDbEntity
  8
寸法
 62
     7
 48
50.0
100
AcDbMText
 10
4951.411293732729
 20
8967.74190280961
 30
0.0
 40
120.0
 41
0.0
 71
     5
 72
     1
  1
\A1;55
  7
STYLE1
 73
     1
 44
1.0
1001
ACAD
1000
MTEXTBEGIN
1070
    73
1070
     1
1070
    44
1040
1.0
1070
    74
1070
     0
1000
MTEXTEND
  0
POINT
  5
210BD
330
1458A
100
AcDbEntity
  8
DEFPOINTS
 62
     0
 48
50.0
100
AcDbPoint
 10
5259.896575106966
 20
8651.933683184628
 30
0.0
  0
POINT
  5
210BE
330
1458A
100
AcDbEntity
  8
DEFPOINTS
 62
     0
 48
50.0
100
AcDbPoint
 10
5314.896575107001
 20
8651.933683184628
 30
0.0
  0
POINT
  5
210BF
330
1458A
100
AcDbEntity
  8
DEFPOINTS
 62
     0
 48
50.0
100
AcDbPoint
 10
5314.896575107001
 20
8867.74190280961
 30
0.0
  0
ENDBLK
  5
148D4
330
1458A
100
AcDbEntity
  8
0
 48
50.0
100
AcDbBlockEnd
  0
BLOCK
  5
14D6F
330
14598
100
AcDbEntity
  8
0
 48
50.0
100
AcDbBlockBegin
  2
*D14
 70
     1
 10
0.0
 20
0.0
 30
0.0
  3
*D14
  1

  0
LINE
  5
210AC
330
14598
100
AcDbEntity
  8
寸法
 62
     0
 48
50.0
370
    -2
100
AcDbLine
 10
7489.896575106998
 20
8651.933683184722
 30
0.0
 11
8478.408388371697
 21
8651.933683184722
 31
0.0
  0
LINE
  5
210AD
330
14598
100
AcDbEntity
  8
寸法
 62
     0
 48
50.0
370
    -2
100
AcDbLine
 10
7489.896575106977
 20
7281.933683184724
 30
0.0
 11
8478.408388371697
 21
7281.933683184724
 31
0.0
  0
LINE
  5
210AE
330
14598
100
AcDbEntity
  8
寸法
 62
     0
 48
50.0
370
    -2
100
AcDbLine
 10
8418.408388371698
 20
8651.933683184722
 30
0.0
 11
8418.408388371698
 21
7281.933683184724
 31
0.0
  0
INSERT
  5
210AF
330
14598
100
AcDbEntity
  8
寸法
 62
     0
 48
50.0
370
    -2
100
AcDbBlockReference
  2
_DOTSMALL
 10
8418.408388371698
 20
8651.933683184722
 30
0.0
 41
100.0
 42
100.0
 43
100.0
 50
90.0
  0
INSERT
  5
210B0
330
14598
100
AcDbEntity
  8
寸法
 62
     0
 48
50.0
370
    -2
100
AcDbBlockReference
  2
_DOTSMALL
 10
8418.408388371698
 20
7281.933683184724
 30
0.0
 41
100.0
 42
100.0
 43
100.0
 50
270.0
  0
MTEXT
  5
210B1
330
14598
100
AcDbEntity
  8
寸法
 62
     7
 48
50.0
100
AcDbMText
 10
8318.408388371697
 20
7939.835872351338
 30
0.0
 40
120.0
 41
0.0
 71
     5
 72
     1
  1
\A1;1370
  7
STYLE1
 11
0.0000000000000001
 21
1.0
 31
0.0
 73
     1
 44
1.0
1001
ACAD
1000
MTEXTBEGIN
1070
    73
1070
     1
1070
    44
1040
1.0
1070
    74
1070
     0
1000
MTEXTEND
  0
POINT
  5
210B2
330
14598
100
AcDbEntity
  8
DEFPOINTS
 62
     0
 48
50.0
100
AcDbPoint
 10
7469.896575106997
 20
8651.933683184722
 30
0.0
  0
POINT
  5
210B3
330
14598
100
AcDbEntity
  8
DEFPOINTS
 62
     0
 48
50.0
100
AcDbPoint
 10
7469.896575106976
 20
7281.933683184724
 30
0.0
  0
POINT
  5
210B4
330
14598
100
AcDbEntity
  8
DEFPOINTS
 62
     0
 48
50.0
100
AcDbPoint
 10
8418.408388371698
 20
7281.933683184724
 30
0.0
  0
ENDBLK
  5
14D79
330
14598
100
AcDbEntity
  8
0
 48
50.0
100
AcDbBlockEnd
  0
BLOCK
  5
1492F
330
145A4
100
AcDbEntity
  8
0
 48
50.0
100
AcDbBlockBegin
  2
*D15
 70
     1
 10
0.0
 20
0.0
 30
0.0
  3
*D15
  1

  0
LINE
  5
210A1
330
145A4
100
AcDbEntity
  8
寸法
 62
     0
 48
50.0
370
    -2
100
AcDbLine
 10
7489.896575107002
 20
8651.933683184722
 30
0.0
 11
8177.322920841412
 21
8651.933683184722
 31
0.0
  0
LINE
  5
210A2
330
145A4
100
AcDbEntity
  8
寸法
 62
     0
 48
50.0
370
    -2
100
AcDbLine
 10
7489.896575107002
 20
8596.933683184728
 30
0.0
 11
8177.322920841412
 21
8596.933683184728
 31
0.0
  0
LINE
  5
210A3
330
145A4
100
AcDbEntity
  8
寸法
 62
     0
 48
50.0
370
    -2
100
AcDbLine
 10
8117.322920841413
 20
8596.933683184728
 30
0.0
 11
8117.322920841413
 21
8496.933683184726
 31
0.0
  0
LINE
  5
210A4
330
145A4
100
AcDbEntity
  8
寸法
 62
     0
 48
50.0
370
    -2
100
AcDbLine
 10
8117.322920841413
 20
8651.933683184722
 30
0.0
 11
8117.322920841413
 21
9068.9042459332
 31
0.0
  0
LINE
  5
210A5
330
145A4
100
AcDbEntity
  8
寸法
 62
     0
 48
50.0
370
    -2
100
AcDbLine
 10
8117.322920841413
 20
8596.933683184728
 30
0.0
 11
8117.322920841413
 21
8651.933683184722
 31
0.0
  0
INSERT
  5
210A6
330
145A4
100
AcDbEntity
  8
寸法
 62
     0
 48
50.0
370
    -2
100
AcDbBlockReference
  2
_DOTSMALL
 10
8117.322920841413
 20
8596.933683184728
 30
0.0
 41
100.0
 42
100.0
 43
100.0
 50
90.0
  0
INSERT
  5
210A7
330
145A4
100
AcDbEntity
  8
寸法
 62
     0
 48
50.0
370
    -2
100
AcDbBlockReference
  2
_DOTSMALL
 10
8117.322920841413
 20
8651.933683184722
 30
0.0
 41
100.0
 42
100.0
 43
100.0
 50
270.0
  0
MTEXT
  5
210A8
330
145A4
100
AcDbEntity
  8
寸法
 62
     7
 48
50.0
100
AcDbMText
 10
8017.322920841412
 20
8960.418964558963
 30
0.0
 40
120.0
 41
0.0
 71
     5
 72
     1
  1
\A1;55
  7
STYLE1
 11
0.0000000000000001
 21
1.0
 31
0.0
 73
     1
 44
1.0
1001
ACAD
1000
MTEXTBEGIN
1070
    73
1070
     1
1070
    44
1040
1.0
1070
    74
1070
     0
1000
MTEXTEND
  0
POINT
  5
210A9
330
145A4
100
AcDbEntity
  8
DEFPOINTS
 62
     0
 48
50.0
100
AcDbPoint
 10
7469.896575107002
 20
8651.933683184722
 30
0.0
  0
POINT
  5
210AA
330
145A4
100
AcDbEntity
  8
DEFPOINTS
 62
     0
 48
50.0
100
AcDbPoint
 10
7469.896575107002
 20
8596.933683184728
 30
0.0
  0
POINT
  5
210AB
330
145A4
100
AcDbEntity
  8
DEFPOINTS
 62
     0
 48
50.0
100
AcDbPoint
 10
8117.322920841413
 20
8596.933683184728
 30
0.0
  0
ENDBLK
  5
1493B
330
145A4
100
AcDbEntity
  8
0
 48
50.0
100
AcDbBlockEnd
  0
BLOCK
  5
14BDB
330
145B2
100
AcDbEntity
  8
0
 48
50.0
100
AcDbBlockBegin
  2
*D16
 70
     1
 10
0.0
 20
0.0
 30
0.0
  3
*D16
  1

  0
LINE
  5
21098
330
145B2
100
AcDbEntity
  8
寸法
 62
     0
 48
50.0
370
    -2
100
AcDbLine
 10
7461.396575107002
 20
8616.574699336101
 30
0.0
 11
7856.754300969027
 21
8510.638915969968
 31
0.0
  0
LINE
  5
21099
330
145B2
100
AcDbEntity
  8
寸法
 62
     0
 48
50.0
370
    -2
100
AcDbLine
 10
7461.396575107002
 20
8166.574699336102
 30
0.0
 11
7856.754300969027
 21
8060.638915969969
 31
0.0
  0
LINE
  5
2109A
330
145B2
100
AcDbEntity
  8
寸法
 62
     0
 48
50.0
370
    -2
100
AcDbLine
 10
7796.754300969026
 20
8526.715867515834
 30
0.0
 11
7796.754300969026
 21
8076.715867515835
 31
0.0
  0
INSERT
  5
2109B
330
145B2
100
AcDbEntity
  8
寸法
 62
     0
 48
50.0
370
    -2
100
AcDbBlockReference
  2
_DOTSMALL
 10
7796.754300969026
 20
8526.715867515834
 30
0.0
 41
100.0
 42
100.0
 43
100.0
 50
90.0
  0
INSERT
  5
2109C
330
145B2
100
AcDbEntity
  8
寸法
 62
     0
 48
50.0
370
    -2
100
AcDbBlockReference
  2
_DOTSMALL
 10
7796.754300969026
 20
8076.715867515835
 30
0.0
 41
100.0
 42
100.0
 43
100.0
 50
270.0
  0
MTEXT
  5
2109D
330
145B2
100
AcDbEntity
  8
寸法
 62
     7
 48
50.0
100
AcDbMText
 10
7696.754300969026
 20
8301.715867515836
 30
0.0
 40
120.0
 41
0.0
 71
     5
 72
     1
  1
\A1;450
  7
STYLE1
 11
0.0000000000000001
 21
1.0
 31
0.0
 73
     1
 44
1.0
1001
ACAD
1000
MTEXTBEGIN
1070
    73
1070
     1
1070
    44
1040
1.0
1070
    74
1070
     0
1000
MTEXTEND
  0
POINT
  5
2109E
330
145B2
100
AcDbEntity
  8
DEFPOINTS
 62
     0
 48
50.0
100
AcDbPoint
 10
7441.396575107003
 20
8621.933683184723
 30
0.0
  0
POINT
  5
2109F
330
145B2
100
AcDbEntity
  8
DEFPOINTS
 62
     0
 48
50.0
100
AcDbPoint
 10
7441.396575107003
 20
8171.933683184725
 30
0.0
  0
POINT
  5
210A0
330
145B2
100
AcDbEntity
  8
DEFPOINTS
 62
     0
 48
50.0
100
AcDbPoint
 10
7796.754300969026
 20
8076.715867515835
 30
0.0
  0
ENDBLK
  5
14BE5
330
145B2
100
AcDbEntity
  8
0
 48
50.0
100
AcDbBlockEnd
  0
BLOCK
  5
1496A
330
145BE
100
AcDbEntity
  8
0
 48
50.0
100
AcDbBlockBegin
  2
*D17
 70
     1
 10
0.0
 20
0.0
 30
0.0
  3
*D17
  1

  0
LINE
  5
2108D
330
145BE
100
AcDbEntity
  8
寸法
 62
     0
 48
50.0
370
    -2
100
AcDbLine
 10
7489.896575106977
 20
7336.933683184719
 30
0.0
 11
8177.322920841389
 21
7336.933683184719
 31
0.0
  0
LINE
  5
2108E
330
145BE
100
AcDbEntity
  8
寸法
 62
     0
 48
50.0
370
    -2
100
AcDbLine
 10
7489.896575106977
 20
7281.933683184724
 30
0.0
 11
8177.322920841389
 21
7281.933683184724
 31
0.0
  0
LINE
  5
2108F
330
145BE
100
AcDbEntity
  8
寸法
 62
     0
 48
50.0
370
    -2
100
AcDbLine
 10
8117.322920841386
 20
7336.933683184719
 30
0.0
 11
8117.322920841386
 21
7436.933683184719
 31
0.0
  0
LINE
  5
21090
330
145BE
100
AcDbEntity
  8
寸法
 62
     0
 48
50.0
370
    -2
100
AcDbLine
 10
8117.322920841386
 20
7281.933683184724
 30
0.0
 11
8117.322920841386
 21
6795.586934905621
 31
0.0
  0
LINE
  5
21091
330
145BE
100
AcDbEntity
  8
寸法
 62
     0
 48
50.0
370
    -2
100
AcDbLine
 10
8117.322920841386
 20
7336.933683184719
 30
0.0
 11
8117.322920841386
 21
7281.933683184724
 31
0.0
  0
INSERT
  5
21092
330
145BE
100
AcDbEntity
  8
寸法
 62
     0
 48
50.0
370
    -2
100
AcDbBlockReference
  2
_DOTSMALL
 10
8117.322920841386
 20
7336.933683184719
 30
0.0
 41
100.0
 42
100.0
 43
100.0
 50
270.0
  0
INSERT
  5
21093
330
145BE
100
AcDbEntity
  8
寸法
 62
     0
 48
50.0
370
    -2
100
AcDbBlockReference
  2
_DOTSMALL
 10
8117.322920841386
 20
7281.933683184724
 30
0.0
 41
100.0
 42
100.0
 43
100.0
 50
90.0
  0
MTEXT
  5
21094
330
145BE
100
AcDbEntity
  8
寸法
 62
     7
 48
50.0
100
AcDbMText
 10
8017.322920841385
 20
6904.072216279861
 30
0.0
 40
120.0
 41
0.0
 71
     5
 72
     1
  1
\A1;55
  7
STYLE1
 11
0.0000000000000001
 21
1.0
 31
0.0
 73
     1
 44
1.0
1001
ACAD
1000
MTEXTBEGIN
1070
    73
1070
     1
1070
    44
1040
1.0
1070
    74
1070
     0
1000
MTEXTEND
  0
POINT
  5
21095
330
145BE
100
AcDbEntity
  8
DEFPOINTS
 62
     0
 48
50.0
100
AcDbPoint
 10
7469.896575106976
 20
7336.933683184719
 30
0.0
  0
POINT
  5
21096
330
145BE
100
AcDbEntity
  8
DEFPOINTS
 62
     0
 48
50.0
100
AcDbPoint
 10
7469.896575106976
 20
7281.933683184724
 30
0.0
  0
POINT
  5
21097
330
145BE
100
AcDbEntity
  8
DEFPOINTS
 62
     0
 48
50.0
100
AcDbPoint
 10
8117.322920841386
 20
7281.933683184724
 30
0.0
  0
ENDBLK
  5
14976
330
145BE
100
AcDbEntity
  8
0
 48
50.0
100
AcDbBlockEnd
  0
BLOCK
  5
14D4C
330
145CC
100
AcDbEntity
  8
0
 48
50.0
100
AcDbBlockBegin
  2
*D18
 70
     1
 10
0.0
 20
0.0
 30
0.0
  3
*D18
  1

  0
LINE
  5
21084
330
145CC
100
AcDbEntity
  8
寸法
 62
     0
 48
50.0
370
    -2
100
AcDbLine
 10
7489.896575107002
 20
8596.933683184728
 30
0.0
 11
8177.322920841412
 21
8596.933683184728
 31
0.0
  0
LINE
  5
21085
330
145CC
100
AcDbEntity
  8
寸法
 62
     0
 48
50.0
370
    -2
100
AcDbLine
 10
7489.896575106977
 20
7336.933683184719
 30
0.0
 11
8177.322920841412
 21
7336.933683184719
 31
0.0
  0
LINE
  5
21086
330
145CC
100
AcDbEntity
  8
寸法
 62
     0
 48
50.0
370
    -2
100
AcDbLine
 10
8117.322920841413
 20
8596.933683184728
 30
0.0
 11
8117.322920841413
 21
7336.933683184719
 31
0.0
  0
INSERT
  5
21087
330
145CC
100
AcDbEntity
  8
寸法
 62
     0
 48
50.0
370
    -2
100
AcDbBlockReference
  2
_DOTSMALL
 10
8117.322920841413
 20
8596.933683184728
 30
0.0
 41
100.0
 42
100.0
 43
100.0
 50
90.0
  0
INSERT
  5
21088
330
145CC
100
AcDbEntity
  8
寸法
 62
     0
 48
50.0
370
    -2
100
AcDbBlockReference
  2
_DOTSMALL
 10
8117.322920841413
 20
7336.933683184719
 30
0.0
 41
100.0
 42
100.0
 43
100.0
 50
270.0
  0
MTEXT
  5
21089
330
145CC
100
AcDbEntity
  8
寸法
 62
     7
 48
50.0
100
AcDbMText
 10
8017.311109817789
 20
7939.585485690376
 30
0.0
 40
120.0
 41
0.0
 71
     5
 72
     1
  1
\A1;3X420=1260
  7
STYLE1
 11
0.0000000000000001
 21
1.0
 31
0.0
 73
     1
 44
1.0
1001
ACAD
1000
MTEXTBEGIN
1070
    73
1070
     1
1070
    44
1040
1.0
1070
    74
1070
     0
1000
MTEXTEND
  0
POINT
  5
2108A
330
145CC
100
AcDbEntity
  8
DEFPOINTS
 62
     0
 48
50.0
100
AcDbPoint
 10
7469.896575107002
 20
8596.933683184728
 30
0.0
  0
POINT
  5
2108B
330
145CC
100
AcDbEntity
  8
DEFPOINTS
 62
     0
 48
50.0
100
AcDbPoint
 10
7469.896575106976
 20
7336.933683184719
 30
0.0
  0
POINT
  5
2108C
330
145CC
100
AcDbEntity
  8
DEFPOINTS
 62
     0
 48
50.0
100
AcDbPoint
 10
8117.322920841413
 20
7336.933683184719
 30
0.0
  0
ENDBLK
  5
14D56
330
145CC
100
AcDbEntity
  8
0
 48
50.0
100
AcDbBlockEnd
  0
BLOCK
  5
14954
330
145D8
100
AcDbEntity
  8
0
 48
50.0
100
AcDbBlockBegin
  2
*D19
 70
     1
 10
0.0
 20
0.0
 30
0.0
  3
*D19
  1

  0
LINE
  5
2107B
330
145D8
100
AcDbEntity
  8
寸法
 62
     0
 48
50.0
370
    -2
100
AcDbLine
 10
5259.896575106995
 20
7261.933683184593
 30
0.0
 11
5259.896575106995
 21
6442.4203118173
 31
0.0
  0
LINE
  5
2107C
330
145D8
100
AcDbEntity
  8
寸法
 62
     0
 48
50.0
370
    -2
100
AcDbLine
 10
7469.896575106976
 20
7261.93368318469
 30
0.0
 11
7469.896575106976
 21
6442.4203118173
 31
0.0
  0
LINE
  5
2107D
330
145D8
100
AcDbEntity
  8
寸法
 62
     0
 48
50.0
370
    -2
100
AcDbLine
 10
5259.896575106995
 20
6502.420311817299
 30
0.0
 11
7469.896575106976
 21
6502.420311817299
 31
0.0
  0
INSERT
  5
2107E
330
145D8
100
AcDbEntity
  8
寸法
 62
     0
 48
50.0
370
    -2
100
AcDbBlockReference
  2
_DOTSMALL
 10
5259.896575106995
 20
6502.420311817299
 30
0.0
 41
100.0
 42
100.0
 43
100.0
 50
180.0
  0
INSERT
  5
2107F
330
145D8
100
AcDbEntity
  8
寸法
 62
     0
 48
50.0
370
    -2
100
AcDbBlockReference
  2
_DOTSMALL
 10
7469.896575106976
 20
6502.420311817299
 30
0.0
 41
100.0
 42
100.0
 43
100.0
  0
MTEXT
  5
21080
330
145D8
100
AcDbEntity
  8
寸法
 62
     7
 48
50.0
100
AcDbMText
 10
6375.856517730952
 20
6602.43212284092
 30
0.0
 40
120.0
 41
0.0
 71
     5
 72
     1
  1
\A1;2210
  7
STYLE1
 73
     1
 44
1.0
1001
ACAD
1000
MTEXTBEGIN
1070
    73
1070
     1
1070
    44
1040
1.0
1070
    74
1070
     0
1000
MTEXTEND
  0
POINT
  5
21081
330
145D8
100
AcDbEntity
  8
DEFPOINTS
 62
     0
 48
50.0
100
AcDbPoint
 10
5259.896575106995
 20
7281.933683184593
 30
0.0
  0
POINT
  5
21082
330
145D8
100
AcDbEntity
  8
DEFPOINTS
 62
     0
 48
50.0
100
AcDbPoint
 10
7469.896575106976
 20
7281.933683184688
 30
0.0
  0
POINT
  5
21083
330
145D8
100
AcDbEntity
  8
DEFPOINTS
 62
     0
 48
50.0
100
AcDbPoint
 10
7469.896575106976
 20
6502.420311817299
 30
0.0
  0
ENDBLK
  5
1495E
330
145D8
100
AcDbEntity
  8
0
 48
50.0
100
AcDbBlockEnd
  0
BLOCK
  5
14D90
330
145E4
100
AcDbEntity
  8
0
 48
50.0
100
AcDbBlockBegin
  2
*D20
 70
     1
 10
0.0
 20
0.0
 30
0.0
  3
*D20
  1

  0
LINE
  5
21072
330
145E4
100
AcDbEntity
  8
寸法
 62
     0
 48
50.0
370
    -2
100
AcDbLine
 10
6597.896575106995
 20
7261.933683184654
 30
0.0
 11
6597.896575106995
 21
6668.736931209405
 31
0.0
  0
LINE
  5
21073
330
145E4
100
AcDbEntity
  8
寸法
 62
     0
 48
50.0
370
    -2
100
AcDbLine
 10
5319.896575106994
 20
7261.933683184591
 30
0.0
 11
5319.896575106994
 21
6668.736931209405
 31
0.0
  0
LINE
  5
21074
330
145E4
100
AcDbEntity
  8
寸法
 62
     0
 48
50.0
370
    -2
100
AcDbLine
 10
6597.896575106995
 20
6728.736931209406
 30
0.0
 11
5319.896575106994
 21
6728.736931209406
 31
0.0
  0
INSERT
  5
21075
330
145E4
100
AcDbEntity
  8
寸法
 62
     0
 48
50.0
370
    -2
100
AcDbBlockReference
  2
_DOTSMALL
 10
6597.896575106995
 20
6728.736931209406
 30
0.0
 41
100.0
 42
100.0
 43
100.0
  0
INSERT
  5
21076
330
145E4
100
AcDbEntity
  8
寸法
 62
     0
 48
50.0
370
    -2
100
AcDbBlockReference
  2
_DOTSMALL
 10
5319.896575106994
 20
6728.736931209406
 30
0.0
 41
100.0
 42
100.0
 43
100.0
 50
180.0
  0
MTEXT
  5
21077
330
145E4
100
AcDbEntity
  8
寸法
 62
     7
 48
50.0
100
AcDbMText
 10
5947.686700450972
 20
6928.748742233027
 30
0.0
 40
120.0
 41
0.0
 71
     5
 72
     1
  1
\A1;有効開口部間口\P1278
  7
STYLE1
 73
     1
 44
1.0
1001
ACAD
1000
MTEXTBEGIN
1070
    73
1070
     1
1070
    44
1040
1.0
1070
    74
1070
     0
1000
MTEXTEND
  0
POINT
  5
21078
330
145E4
100
AcDbEntity
  8
DEFPOINTS
 62
     0
 48
50.0
100
AcDbPoint
 10
6597.896575106995
 20
7281.933683184653
 30
0.0
  0
POINT
  5
21079
330
145E4
100
AcDbEntity
  8
DEFPOINTS
 62
     0
 48
50.0
100
AcDbPoint
 10
5319.896575106994
 20
7281.933683184591
 30
0.0
  0
POINT
  5
2107A
330
145E4
100
AcDbEntity
  8
DEFPOINTS
 62
     0
 48
50.0
100
AcDbPoint
 10
5319.896575106994
 20
6728.736931209406
 30
0.0
  0
ENDBLK
  5
14D9A
330
145E4
100
AcDbEntity
  8
0
 48
50.0
100
AcDbBlockEnd
  0
BLOCK
  5
14D57
330
145FC
100
AcDbEntity
  8
0
 48
50.0
100
AcDbBlockBegin
  2
*D21
 70
     1
 10
0.0
 20
0.0
 30
0.0
  3
*D21
  1

  0
LINE
  5
21069
330
145FC
100
AcDbEntity
  8
寸法
 62
     0
 48
50.0
370
    -2
100
AcDbLine
 10
6583.037591258379
 20
8151.933683184733
 30
0.0
 11
6513.626127267153
 21
7892.886572941747
 31
0.0
  0
LINE
  5
2106A
330
145FC
100
AcDbEntity
  8
寸法
 62
     0
 48
50.0
370
    -2
100
AcDbLine
 10
7436.03759125839
 20
8151.933683184727
 30
0.0
 11
7366.626127267167
 21
7892.886572941747
 31
0.0
  0
LINE
  5
2106B
330
145FC
100
AcDbEntity
  8
寸法
 62
     0
 48
50.0
370
    -2
100
AcDbLine
 10
6529.703078813021
 20
7952.886572941746
 30
0.0
 11
7382.703078813036
 21
7952.886572941746
 31
0.0
  0
INSERT
  5
2106C
330
145FC
100
AcDbEntity
  8
寸法
 62
     0
 48
50.0
370
    -2
100
AcDbBlockReference
  2
_DOTSMALL
 10
6529.703078813021
 20
7952.886572941746
 30
0.0
 41
100.0
 42
100.0
 43
100.0
 50
180.0
  0
INSERT
  5
2106D
330
145FC
100
AcDbEntity
  8
寸法
 62
     0
 48
50.0
370
    -2
100
AcDbBlockReference
  2
_DOTSMALL
 10
7382.703078813036
 20
7952.886572941746
 30
0.0
 41
100.0
 42
100.0
 43
100.0
  0
MTEXT
  5
2106E
330
145FC
100
AcDbEntity
  8
寸法
 62
     7
 48
50.0
100
AcDbMText
 10
6967.74363722527
 20
8052.886572941746
 30
0.0
 40
120.0
 41
0.0
 71
     5
 72
     1
  1
\A1;853
  7
STYLE1
 73
     1
 44
1.0
1001
ACAD
1000
MTEXTBEGIN
1070
    73
1070
     1
1070
    44
1040
1.0
1070
    74
1070
     0
1000
MTEXTEND
  0
POINT
  5
2106F
330
145FC
100
AcDbEntity
  8
DEFPOINTS
 62
     0
 48
50.0
100
AcDbPoint
 10
6588.396575107001
 20
8171.933683184732
 30
0.0
  0
POINT
  5
21070
330
145FC
100
AcDbEntity
  8
DEFPOINTS
 62
     0
 48
50.0
100
AcDbPoint
 10
7441.396575107012
 20
8171.933683184727
 30
0.0
  0
POINT
  5
21071
330
145FC
100
AcDbEntity
  8
DEFPOINTS
 62
     0
 48
50.0
100
AcDbPoint
 10
7382.703078813036
 20
7952.886572941746
 30
0.0
  0
ENDBLK
  5
14D61
330
145FC
100
AcDbEntity
  8
0
 48
50.0
100
AcDbBlockEnd
  0
BLOCK
  5
148D5
330
14608
100
AcDbEntity
  8
0
 48
50.0
100
AcDbBlockBegin
  2
*D22
 70
     1
 10
0.0
 20
0.0
 30
0.0
  3
*D22
  1

  0
LINE
  5
2105E
330
14608
100
AcDbEntity
  8
寸法
 62
     0
 48
50.0
370
    -2
100
AcDbLine
 10
7414.896575107002
 20
8671.933683184724
 30
0.0
 11
7414.896575107002
 21
8927.741902809707
 31
0.0
  0
LINE
  5
2105F
330
14608
100
AcDbEntity
  8
寸法
 62
     0
 48
50.0
370
    -2
100
AcDbLine
 10
7469.896575107002
 20
8671.933683184724
 30
0.0
 11
7469.896575107002
 21
8927.741902809707
 31
0.0
  0
LINE
  5
21060
330
14608
100
AcDbEntity
  8
寸法
 62
     0
 48
50.0
370
    -2
100
AcDbLine
 10
7414.896575107002
 20
8867.741902809706
 30
0.0
 11
7314.896575107002
 21
8867.741902809706
 31
0.0
  0
LINE
  5
21061
330
14608
100
AcDbEntity
  8
寸法
 62
     0
 48
50.0
370
    -2
100
AcDbLine
 10
7469.896575107002
 20
8867.741902809706
 30
0.0
 11
7886.867137855479
 21
8867.741902809706
 31
0.0
  0
LINE
  5
21062
330
14608
100
AcDbEntity
  8
寸法
 62
     0
 48
50.0
370
    -2
100
AcDbLine
 10
7414.896575107002
 20
8867.741902809706
 30
0.0
 11
7469.896575107002
 21
8867.741902809706
 31
0.0
  0
INSERT
  5
21063
330
14608
100
AcDbEntity
  8
寸法
 62
     0
 48
50.0
370
    -2
100
AcDbBlockReference
  2
_DOTSMALL
 10
7414.896575107002
 20
8867.741902809706
 30
0.0
 41
100.0
 42
100.0
 43
100.0
  0
INSERT
  5
21064
330
14608
100
AcDbEntity
  8
寸法
 62
     0
 48
50.0
370
    -2
100
AcDbBlockReference
  2
_DOTSMALL
 10
7469.896575107002
 20
8867.741902809706
 30
0.0
 41
100.0
 42
100.0
 43
100.0
 50
180.0
  0
MTEXT
  5
21065
330
14608
100
AcDbEntity
  8
寸法
 62
     7
 48
50.0
100
AcDbMText
 10
7778.381856481241
 20
8967.741902809706
 30
0.0
 40
120.0
 41
0.0
 71
     5
 72
     1
  1
\A1;55
  7
STYLE1
 73
     1
 44
1.0
1001
ACAD
1000
MTEXTBEGIN
1070
    73
1070
     1
1070
    44
1040
1.0
1070
    74
1070
     0
1000
MTEXTEND
  0
POINT
  5
21066
330
14608
100
AcDbEntity
  8
DEFPOINTS
 62
     0
 48
50.0
100
AcDbPoint
 10
7414.896575107002
 20
8651.933683184722
 30
0.0
  0
POINT
  5
21067
330
14608
100
AcDbEntity
  8
DEFPOINTS
 62
     0
 48
50.0
100
AcDbPoint
 10
7469.896575107002
 20
8651.933683184722
 30
0.0
  0
POINT
  5
21068
330
14608
100
AcDbEntity
  8
DEFPOINTS
 62
     0
 48
50.0
100
AcDbPoint
 10
7469.896575107002
 20
8867.741902809706
 30
0.0
  0
ENDBLK
  5
148E1
330
14608
100
AcDbEntity
  8
0
 48
50.0
100
AcDbBlockEnd
  0
BLOCK
  5
14B64
330
14616
100
AcDbEntity
  8
0
 48
50.0
100
AcDbBlockBegin
  2
*D23
 70
     1
 10
0.0
 20
0.0
 30
0.0
  3
*D23
  1

  0
LINE
  5
21055
330
14616
100
AcDbEntity
  8
寸法
 62
     0
 48
50.0
370
    -2
100
AcDbLine
 10
5314.896575107001
 20
8671.933683184626
 30
0.0
 11
5314.896575107001
 21
8927.741902809611
 31
0.0
  0
LINE
  5
21056
330
14616
100
AcDbEntity
  8
寸法
 62
     0
 48
50.0
370
    -2
100
AcDbLine
 10
7414.896575107002
 20
8671.933683184724
 30
0.0
 11
7414.896575107002
 21
8927.741902809611
 31
0.0
  0
LINE
  5
21057
330
14616
100
AcDbEntity
  8
寸法
 62
     0
 48
50.0
370
    -2
100
AcDbLine
 10
5314.896575107001
 20
8867.74190280961
 30
0.0
 11
7414.896575107002
 21
8867.74190280961
 31
0.0
  0
INSERT
  5
21058
330
14616
100
AcDbEntity
  8
寸法
 62
     0
 48
50.0
370
    -2
100
AcDbBlockReference
  2
_DOTSMALL
 10
5314.896575107001
 20
8867.74190280961
 30
0.0
 41
100.0
 42
100.0
 43
100.0
 50
180.0
  0
INSERT
  5
21059
330
14616
100
AcDbEntity
  8
寸法
 62
     0
 48
50.0
370
    -2
100
AcDbBlockReference
  2
_DOTSMALL
 10
7414.896575107002
 20
8867.74190280961
 30
0.0
 41
100.0
 42
100.0
 43
100.0
  0
MTEXT
  5
2105A
330
14616
100
AcDbEntity
  8
寸法
 62
     7
 48
50.0
100
AcDbMText
 10
6356.769737990322
 20
8967.753713833232
 30
0.0
 40
120.0
 41
0.0
 71
     5
 72
     1
  1
\A1;5X420=2100
  7
STYLE1
 73
     1
 44
1.0
1001
ACAD
1000
MTEXTBEGIN
1070
    73
1070
     1
1070
    44
1040
1.0
1070
    74
1070
     0
1000
MTEXTEND
  0
POINT
  5
2105B
330
14616
100
AcDbEntity
  8
DEFPOINTS
 62
     0
 48
50.0
100
AcDbPoint
 10
5314.896575107001
 20
8651.933683184628
 30
0.0
  0
POINT
  5
2105C
330
14616
100
AcDbEntity
  8
DEFPOINTS
 62
     0
 48
50.0
100
AcDbPoint
 10
7414.896575107002
 20
8651.933683184722
 30
0.0
  0
POINT
  5
2105D
330
14616
100
AcDbEntity
  8
DEFPOINTS
 62
     0
 48
50.0
100
AcDbPoint
 10
7414.896575107002
 20
8867.74190280961
 30
0.0
  0
ENDBLK
  5
14B6E
330
14616
100
AcDbEntity
  8
0
 48
50.0
100
AcDbBlockEnd
  0
BLOCK
  5
14A72
330
146DC
100
AcDbEntity
  8
0
 48
50.0
100
AcDbBlockBegin
  2
*D24
 70
     1
 10
0.0
 20
0.0
 30
0.0
  3
*D24
  1

  0
LINE
  5
1F439
330
146DC
100
AcDbEntity
  8
寸法
 62
     0
 48
50.0
370
    -2
100
AcDbLine
 10
7469.896575107011
 20
5195.000000000005
 30
0.0
 11
7469.896575107011
 21
5439.142231267993
 31
0.0
  0
LINE
  5
1F43A
330
146DC
100
AcDbEntity
  8
寸法
 62
     0
 48
50.0
370
    -2
100
AcDbLine
 10
5259.896575106991
 20
5195.000000000007
 30
0.0
 11
5259.896575106991
 21
5439.142231267993
 31
0.0
  0
LINE
  5
1F43B
330
146DC
100
AcDbEntity
  8
寸法
 62
     0
 48
50.0
370
    -2
100
AcDbLine
 10
7469.896575107011
 20
5379.142231267993
 30
0.0
 11
5259.896575106991
 21
5379.142231267993
 31
0.0
  0
INSERT
  5
1F43C
330
146DC
100
AcDbEntity
  8
寸法
 62
     0
 48
50.0
370
    -2
100
AcDbBlockReference
  2
_DOTSMALL
 10
7469.896575107011
 20
5379.142231267993
 30
0.0
 41
100.0
 42
100.0
 43
100.0
  0
INSERT
  5
1F43D
330
146DC
100
AcDbEntity
  8
寸法
 62
     0
 48
50.0
370
    -2
100
AcDbBlockReference
  2
_DOTSMALL
 10
5259.896575106991
 20
5379.142231267993
 30
0.0
 41
100.0
 42
100.0
 43
100.0
 50
180.0
  0
MTEXT
  5
1F43E
330
146DC
100
AcDbEntity
  8
寸法
 62
     7
 48
50.0
100
AcDbMText
 10
6397.940818449586
 20
5479.154042291614
 30
0.0
 40
120.0
 41
0.0
 71
     5
 72
     1
  1
\A1;柱外寸法2210
  7
STYLE1
 73
     1
 44
1.0
1001
ACAD
1000
MTEXTBEGIN
1070
    73
1070
     1
1070
    44
1040
1.0
1070
    74
1070
     0
1000
MTEXTEND
  0
POINT
  5
1F43F
330
146DC
100
AcDbEntity
  8
DEFPOINTS
 62
     0
 48
50.0
100
AcDbPoint
 10
7469.896575107011
 20
5175.000000000006
 30
0.0
  0
POINT
  5
1F440
330
146DC
100
AcDbEntity
  8
DEFPOINTS
 62
     0
 48
50.0
100
AcDbPoint
 10
5259.896575106991
 20
5175.000000000006
 30
0.0
  0
POINT
  5
1F441
330
146DC
100
AcDbEntity
  8
DEFPOINTS
 62
     0
 48
50.0
100
AcDbPoint
 10
5259.896575106991
 20
5379.142231267993
 30
0.0
  0
ENDBLK
  5
14A7C
330
146DC
100
AcDbEntity
  8
0
 48
50.0
100
AcDbBlockEnd
  0
BLOCK
  5
14D64
330
14D63
100
AcDbEntity
  8
0
 48
50.0
100
AcDbBlockBegin
  2
*D25
 70
     1
 10
0.0
 20
0.0
 30
0.0
  3
*D25
  1

  0
LINE
  5
2104C
330
14D63
100
AcDbEntity
  8
寸法
 62
     0
 48
50.0
370
    -2
100
AcDbLine
 10
5283.037591258377
 20
8151.933683184577
 30
0.0
 11
5213.100968379326
 21
7890.926653290172
 31
0.0
  0
LINE
  5
2104D
330
14D63
100
AcDbEntity
  8
寸法
 62
     0
 48
50.0
370
    -2
100
AcDbLine
 10
6556.037591258392
 20
8151.933683184621
 30
0.0
 11
6486.100968379329
 21
7890.926653290172
 31
0.0
  0
LINE
  5
2104E
330
14D63
100
AcDbEntity
  8
寸法
 62
     0
 48
50.0
370
    -2
100
AcDbLine
 10
5229.177919925193
 20
7950.926653290173
 30
0.0
 11
6502.177919925197
 21
7950.926653290173
 31
0.0
  0
INSERT
  5
2104F
330
14D63
100
AcDbEntity
  8
寸法
 62
     0
 48
50.0
370
    -2
100
AcDbBlockReference
  2
_DOTSMALL
 10
5229.177919925193
 20
7950.926653290173
 30
0.0
 41
100.0
 42
100.0
 43
100.0
 50
180.0
  0
INSERT
  5
21050
330
14D63
100
AcDbEntity
  8
寸法
 62
     0
 48
50.0
370
    -2
100
AcDbBlockReference
  2
_DOTSMALL
 10
6502.177919925197
 20
7950.926653290173
 30
0.0
 41
100.0
 42
100.0
 43
100.0
  0
MTEXT
  5
21051
330
14D63
100
AcDbEntity
  8
寸法
 62
     7
 48
50.0
100
AcDbMText
 10
5765.319254562259
 20
8050.938464313794
 30
0.0
 40
120.0
 41
0.0
 71
     5
 72
     1
  1
\A1;1273
  7
STYLE1
 73
     1
 44
1.0
1001
ACAD
1000
MTEXTBEGIN
1070
    73
1070
     1
1070
    44
1040
1.0
1070
    74
1070
     0
1000
MTEXTEND
  0
POINT
  5
21052
330
14D63
100
AcDbEntity
  8
DEFPOINTS
 62
     0
 48
50.0
100
AcDbPoint
 10
5288.396575107
 20
8171.933683184576
 30
0.0
  0
POINT
  5
21053
330
14D63
100
AcDbEntity
  8
DEFPOINTS
 62
     0
 48
50.0
100
AcDbPoint
 10
6561.396575107014
 20
8171.933683184622
 30
0.0
  0
POINT
  5
21054
330
14D63
100
AcDbEntity
  8
DEFPOINTS
 62
     0
 48
50.0
100
AcDbPoint
 10
6502.177919925197
 20
7950.926653290173
 30
0.0
  0
ENDBLK
  5
14D6E
330
14D63
100
AcDbEntity
  8
0
 48
50.0
100
AcDbBlockEnd
  0
BLOCK
  5
19885
330
19879
100
AcDbEntity
  8
0
 48
50.0
100
AcDbBlockBegin
  2
*D26
 70
     1
 10
0.0
 20
0.0
 30
0.0
  3
*D26
  1

  0
LINE
  5
210CA
330
19879
100
AcDbEntity
  8
寸法
 62
     0
 48
50.0
370
    -2
100
AcDbLine
 10
10908.01180296409
 20
5141.810679611654
 30
0.0
 11
10908.01180296409
 21
5633.657453579304
 31
0.0
  0
LINE
  5
210CB
330
19879
100
AcDbEntity
  8
寸法
 62
     0
 48
50.0
370
    -2
100
AcDbLine
 10
10988.01180296409
 20
5140.000000000001
 30
0.0
 11
10988.01180296409
 21
5633.657453579304
 31
0.0
  0
LINE
  5
210CC
330
19879
100
AcDbEntity
  8
寸法
 62
     0
 48
50.0
370
    -2
100
AcDbLine
 10
10908.01180296409
 20
5573.657453579304
 30
0.0
 11
10988.01180296409
 21
5573.657453579304
 31
0.0
  0
LINE
  5
210CD
330
19879
100
AcDbEntity
  8
寸法
 62
     0
 48
50.0
370
    -2
100
AcDbLine
 10
10988.01180296409
 20
5573.657453579304
 30
0.0
 11
11300.10629115306
 21
5573.657453579304
 31
0.0
  0
INSERT
  5
210CE
330
19879
100
AcDbEntity
  8
寸法
 62
     0
 48
50.0
370
    -2
100
AcDbBlockReference
  2
_DOTSMALL
 10
10908.01180296409
 20
5573.657453579304
 30
0.0
 41
100.0
 42
100.0
 43
100.0
 50
180.0
  0
INSERT
  5
210CF
330
19879
100
AcDbEntity
  8
寸法
 62
     0
 48
50.0
370
    -2
100
AcDbBlockReference
  2
_DOTSMALL
 10
10988.01180296409
 20
5573.657453579304
 30
0.0
 41
100.0
 42
100.0
 43
100.0
  0
MTEXT
  5
210D0
330
19879
100
AcDbEntity
  8
寸法
 62
     7
 48
50.0
100
AcDbMText
 10
11194.05904705857
 20
5673.657453579305
 30
0.0
 40
120.0
 41
0.0
 71
     5
 72
     1
  1
\A1;80
  7
STYLE1
 73
     1
 44
1.0
1001
ACAD
1000
MTEXTBEGIN
1070
    73
1070
     1
1070
    44
1040
1.0
1070
    74
1070
     0
1000
MTEXTEND
  0
POINT
  5
210D1
330
19879
100
AcDbEntity
  8
DEFPOINTS
 62
     0
 48
50.0
100
AcDbPoint
 10
10908.01180296409
 20
5121.810679611654
 30
0.0
  0
POINT
  5
210D2
330
19879
100
AcDbEntity
  8
DEFPOINTS
 62
     0
 48
50.0
100
AcDbPoint
 10
10988.01180296409
 20
5120.0
 30
0.0
  0
POINT
  5
210D3
330
19879
100
AcDbEntity
  8
DEFPOINTS
 62
     0
 48
50.0
100
AcDbPoint
 10
10988.01180296409
 20
5573.657453579304
 30
0.0
  0
ENDBLK
  5
19886
330
19879
100
AcDbEntity
  8
0
 48
50.0
100
AcDbBlockEnd
  0
BLOCK
  5
19A52
330
19A47
100
AcDbEntity
  8
0
 48
50.0
100
AcDbBlockBegin
  2
*D27
 70
     1
 10
0.0
 20
0.0
 30
0.0
  3
*D27
  1

  0
LINE
  5
210C0
330
19A47
100
AcDbEntity
  8
寸法
 62
     0
 48
50.0
370
    -2
100
AcDbLine
 10
9473.36860765159
 20
5033.535611473499
 30
0.0
 11
8820.468437357172
 21
5058.186642714236
 31
0.0
  0
LINE
  5
210C1
330
19A47
100
AcDbEntity
  8
寸法
 62
     0
 48
50.0
370
    -2
100
AcDbLine
 10
9478.688441803546
 20
5174.435218870382
 30
0.0
 11
8825.788271509125
 21
5199.086250111118
 31
0.0
  0
LINE
  5
210C2
330
19A47
100
AcDbEntity
  8
寸法
 62
     0
 48
50.0
370
    -2
100
AcDbLine
 10
8880.425717100528
 20
5055.922883500638
 30
0.0
 11
8885.745551252481
 21
5196.822490897521
 31
0.0
  0
LINE
  5
210C3
330
19A47
100
AcDbEntity
  8
寸法
 62
     0
 48
50.0
370
    -2
100
AcDbLine
 10
8885.745551252481
 20
5196.822490897521
 30
0.0
 11
8899.328106534063
 21
5556.566169357648
 31
0.0
  0
INSERT
  5
210C4
330
19A47
100
AcDbEntity
  8
寸法
 62
     0
 48
50.0
370
    -2
100
AcDbBlockReference
  2
_DOTSMALL
 10
8880.425717100528
 20
5055.922883500638
 30
0.0
 41
100.0
 42
100.0
 43
100.0
 50
267.8377559870922
  0
INSERT
  5
210C5
330
19A47
100
AcDbEntity
  8
寸法
 62
     0
 48
50.0
370
    -2
100
AcDbBlockReference
  2
_DOTSMALL
 10
8885.745551252481
 20
5196.822490897521
 30
0.0
 41
100.0
 42
100.0
 43
100.0
 50
87.83775598709222
  0
MTEXT
  5
210C6
330
19A47
100
AcDbEntity
  8
寸法
 62
     7
 48
50.0
100
AcDbMText
 10
8794.494495332347
 20
5430.431661936376
 30
0.0
 40
120.0
 41
0.0
 71
     5
 72
     1
  1
\A1;141
  7
STYLE1
 11
0.0377293202266174
 21
0.9992879957225731
 31
0.0
 73
     1
 44
1.0
1001
ACAD
1000
MTEXTBEGIN
1070
    73
1070
     1
1070
    44
1040
1.0
1070
    74
1070
     0
1000
MTEXTEND
  0
POINT
  5
210C7
330
19A47
100
AcDbEntity
  8
DEFPOINTS
 62
     0
 48
50.0
100
AcDbPoint
 10
9493.354367566039
 20
5032.781025068967
 30
0.0
  0
POINT
  5
210C8
330
19A47
100
AcDbEntity
  8
DEFPOINTS
 62
     0
 48
50.0
100
AcDbPoint
 10
9498.674201717996
 20
5173.680632465849
 30
0.0
  0
POINT
  5
210C9
330
19A47
100
AcDbEntity
  8
DEFPOINTS
 62
     0
 48
50.0
100
AcDbPoint
 10
8885.745551252481
 20
5196.822490897521
 30
0.0
  0
ENDBLK
  5
19A53
330
19A47
100
AcDbEntity
  8
0
 48
50.0
100
AcDbBlockEnd
  0
BLOCK
  5
21984
330
2197A
100
AcDbEntity
  8
0
 48
50.0
100
AcDbBlockBegin
  2
*D28
 70
     1
 10
0.0
 20
0.0
 30
0.0
  3
*D28
  1

  0
LINE
  5
2198F
330
2197A
100
AcDbEntity
  8
寸法
 62
     0
 48
50.0
370
    -2
100
AcDbLine
 10
7569.896575107009
 20
2779.999999999998
 30
0.0
 11
7569.896575107009
 21
2453.952670699622
 31
0.0
  0
LINE
  5
21990
330
2197A
100
AcDbEntity
  8
寸法
 62
     0
 48
50.0
370
    -2
100
AcDbLine
 10
7369.89657510701
 20
2779.999999999999
 30
0.0
 11
7369.89657510701
 21
2453.952670699622
 31
0.0
  0
LINE
  5
21991
330
2197A
100
AcDbEntity
  8
寸法
 62
     0
 48
50.0
370
    -2
100
AcDbLine
 10
7569.896575107009
 20
2513.952670699622
 30
0.0
 11
7369.89657510701
 21
2513.952670699622
 31
0.0
  0
INSERT
  5
21992
330
2197A
100
AcDbEntity
  8
寸法
 62
     0
 48
50.0
370
    -2
100
AcDbBlockReference
  2
_DOTSMALL
 10
7569.896575107009
 20
2513.952670699622
 30
0.0
 41
100.0
 42
100.0
 43
100.0
  0
INSERT
  5
21993
330
2197A
100
AcDbEntity
  8
寸法
 62
     0
 48
50.0
370
    -2
100
AcDbBlockReference
  2
_DOTSMALL
 10
7369.89657510701
 20
2513.952670699622
 30
0.0
 41
100.0
 42
100.0
 43
100.0
 50
180.0
  0
MTEXT
  5
21994
330
2197A
100
AcDbEntity
  8
寸法
 62
     7
 48
50.0
100
AcDbMText
 10
7469.896575107011
 20
2613.964481723245
 30
0.0
 40
120.0
 41
0.0
 71
     5
 72
     1
  1
\A1;200
  7
STYLE1
 73
     1
 44
1.0
1001
ACAD
1000
MTEXTBEGIN
1070
    73
1070
     1
1070
    44
1040
1.0
1070
    74
1070
     0
1000
MTEXTEND
  0
POINT
  5
21995
330
2197A
100
AcDbEntity
  8
DEFPOINTS
 62
     0
 48
50.0
100
AcDbPoint
 10
7569.896575107009
 20
2799.999999999998
 30
0.0
  0
POINT
  5
21996
330
2197A
100
AcDbEntity
  8
DEFPOINTS
 62
     0
 48
50.0
100
AcDbPoint
 10
7369.89657510701
 20
2799.999999999999
 30
0.0
  0
POINT
  5
21997
330
2197A
100
AcDbEntity
  8
DEFPOINTS
 62
     0
 48
50.0
100
AcDbPoint
 10
7369.89657510701
 20
2513.952670699622
 30
0.0
  0
ENDBLK
  5
21985
330
2197A
100
AcDbEntity
  8
0
 48
50.0
100
AcDbBlockEnd
  0
BLOCK
  5
219A7
330
2199D
100
AcDbEntity
  8
0
 48
50.0
100
AcDbBlockBegin
  2
*D29
 70
     1
 10
0.0
 20
0.0
 30
0.0
  3
*D29
  1

  0
LINE
  5
219B5
330
2199D
100
AcDbEntity
  8
寸法
 62
     0
 48
50.0
370
    -2
100
AcDbLine
 10
9665.511802964088
 20
2779.999999999998
 30
0.0
 11
9665.511802964088
 21
2453.952670699622
 31
0.0
  0
LINE
  5
219B6
330
2199D
100
AcDbEntity
  8
寸法
 62
     0
 48
50.0
370
    -2
100
AcDbLine
 10
9465.511802964091
 20
2779.999999999999
 30
0.0
 11
9465.511802964091
 21
2453.952670699622
 31
0.0
  0
LINE
  5
219B7
330
2199D
100
AcDbEntity
  8
寸法
 62
     0
 48
50.0
370
    -2
100
AcDbLine
 10
9665.511802964088
 20
2513.952670699622
 30
0.0
 11
9465.511802964091
 21
2513.952670699622
 31
0.0
  0
INSERT
  5
219B8
330
2199D
100
AcDbEntity
  8
寸法
 62
     0
 48
50.0
370
    -2
100
AcDbBlockReference
  2
_DOTSMALL
 10
9665.511802964088
 20
2513.952670699622
 30
0.0
 41
100.0
 42
100.0
 43
100.0
  0
INSERT
  5
219B9
330
2199D
100
AcDbEntity
  8
寸法
 62
     0
 48
50.0
370
    -2
100
AcDbBlockReference
  2
_DOTSMALL
 10
9465.511802964091
 20
2513.952670699622
 30
0.0
 41
100.0
 42
100.0
 43
100.0
 50
180.0
  0
MTEXT
  5
219BA
330
2199D
100
AcDbEntity
  8
寸法
 62
     7
 48
50.0
100
AcDbMText
 10
9565.511802964088
 20
2613.964481723244
 30
0.0
 40
120.0
 41
0.0
 71
     5
 72
     1
  1
\A1;200
  7
STYLE1
 73
     1
 44
1.0
1001
ACAD
1000
MTEXTBEGIN
1070
    73
1070
     1
1070
    44
1040
1.0
1070
    74
1070
     0
1000
MTEXTEND
  0
POINT
  5
219BB
330
2199D
100
AcDbEntity
  8
DEFPOINTS
 62
     0
 48
50.0
100
AcDbPoint
 10
9665.511802964088
 20
2799.999999999998
 30
0.0
  0
POINT
  5
219BC
330
2199D
100
AcDbEntity
  8
DEFPOINTS
 62
     0
 48
50.0
100
AcDbPoint
 10
9465.511802964091
 20
2799.999999999999
 30
0.0
  0
POINT
  5
219BD
330
2199D
100
AcDbEntity
  8
DEFPOINTS
 62
     0
 48
50.0
100
AcDbPoint
 10
9465.511802964091
 20
2513.952670699622
 30
0.0
  0
ENDBLK
  5
219A8
330
2199D
100
AcDbEntity
  8
0
 48
50.0
100
AcDbBlockEnd
  0
BLOCK
  5
219B3
330
219A9
100
AcDbEntity
  8
0
 48
50.0
100
AcDbBlockBegin
  2
*D30
 70
     1
 10
0.0
 20
0.0
 30
0.0
  3
*D30
  1

  0
LINE
  5
219BE
330
219A9
100
AcDbEntity
  8
寸法
 62
     0
 48
50.0
370
    -2
100
AcDbLine
 10
9445.511802964091
 20
2799.999999999999
 30
0.0
 11
9256.011799717454
 21
2799.999999999999
 31
0.0
  0
LINE
  5
219BF
330
219A9
100
AcDbEntity
  8
寸法
 62
     0
 48
50.0
370
    -2
100
AcDbLine
 10
9420.511802964089
 20
3000.0
 30
0.0
 11
9256.011799717454
 21
3000.0
 31
0.0
  0
LINE
  5
219C0
330
219A9
100
AcDbEntity
  8
寸法
 62
     0
 48
50.0
370
    -2
100
AcDbLine
 10
9316.011799717454
 20
2799.999999999999
 30
0.0
 11
9316.011799717454
 21
3000.0
 31
0.0
  0
INSERT
  5
219C1
330
219A9
100
AcDbEntity
  8
寸法
 62
     0
 48
50.0
370
    -2
100
AcDbBlockReference
  2
_DOTSMALL
 10
9316.011799717454
 20
2799.999999999999
 30
0.0
 41
100.0
 42
100.0
 43
100.0
 50
270.0
  0
INSERT
  5
219C2
330
219A9
100
AcDbEntity
  8
寸法
 62
     0
 48
50.0
370
    -2
100
AcDbBlockReference
  2
_DOTSMALL
 10
9316.011799717454
 20
3000.0
 30
0.0
 41
100.0
 42
100.0
 43
100.0
 50
90.0
  0
MTEXT
  5
219C3
330
219A9
100
AcDbEntity
  8
寸法
 62
     7
 48
50.0
100
AcDbMText
 10
9215.99998869383
 20
2900.000000000001
 30
0.0
 40
120.0
 41
0.0
 71
     5
 72
     1
  1
\A1;200
  7
STYLE1
 11
0.0000000000000001
 21
1.0
 31
0.0
 73
     1
 44
1.0
1001
ACAD
1000
MTEXTBEGIN
1070
    73
1070
     1
1070
    44
1040
1.0
1070
    74
1070
     0
1000
MTEXTEND
  0
POINT
  5
219C4
330
219A9
100
AcDbEntity
  8
DEFPOINTS
 62
     0
 48
50.0
100
AcDbPoint
 10
9465.511802964091
 20
2799.999999999999
 30
0.0
  0
POINT
  5
219C5
330
219A9
100
AcDbEntity
  8
DEFPOINTS
 62
     0
 48
50.0
100
AcDbPoint
 10
9440.511802964088
 20
3000.0
 30
0.0
  0
POINT
  5
219C6
330
219A9
100
AcDbEntity
  8
DEFPOINTS
 62
     0
 48
50.0
100
AcDbPoint
 10
9316.011799717454
 20
3000.0
 30
0.0
  0
ENDBLK
  5
219B4
330
219A9
100
AcDbEntity
  8
0
 48
50.0
100
AcDbBlockEnd
  0
ENDSEC
  0
SECTION
  2
ENTITIES
  0
LINE
  5
10B57
330
747D
100
AcDbEntity
  8
補助
  6
PHANTOM
 62
   230
 48
50.0
100
AcDbLine
 10
139.9999999999995
 20
11409.6
 30
0.0
 11
16307.2
 21
11409.6
 31
0.0
  0
LINE
  5
10B59
330
747D
100
AcDbEntity
  8
仕様書枠
  6
Continuous
 48
50.0
100
AcDbLine
 10
13107.2
 20
1200.0
 30
0.0
 11
13107.2
 21
-0.0000000000000729
 31
0.0
  0
LINE
  5
10B5C
330
747D
100
AcDbEntity
  8
仕様書枠
 48
50.0
100
AcDbLine
 10
16307.2
 20
1200.0
 30
0.0
 11
16307.2
 21
-0.0000000000000909
 31
0.0
  0
LINE
  5
10B5D
330
747D
100
AcDbEntity
  8
仕様書枠
 48
50.0
100
AcDbLine
 10
140.0
 20
0.0
 30
0.0
 11
16307.2
 21
-0.0000000000000909
 31
0.0
  0
LINE
  5
10B5E
330
747D
100
AcDbEntity
  8
補助
  6
PHANTOM
 62
   230
 48
50.0
100
AcDbLine
 10
16307.2
 20
11409.6
 30
0.0
 11
16307.2
 21
1200.0
 31
0.0
  0
LINE
  5
10B6C
330
747D
100
AcDbEntity
  8
仕様書枠
 48
50.0
100
AcDbLine
 10
13107.2
 20
1200.0
 30
0.0
 11
16307.2
 21
1200.0
 31
0.0
  0
LINE
  5
10B6D
330
747D
100
AcDbEntity
  8
補助
  6
PHANTOM
 62
   230
 48
50.0
100
AcDbLine
 10
13107.2
 20
11409.6
 30
0.0
 11
13107.2
 21
4800.0
 31
0.0
  0
LINE
  5
10B6F
330
747D
100
AcDbEntity
  8
補助
  6
PHANTOM
 62
   230
 48
50.0
100
AcDbLine
 10
13107.2
 20
4800.0
 30
0.0
 11
16307.2
 21
4800.0
 31
0.0
  0
LINE
  5
10B72
330
747D
100
AcDbEntity
  8
文字
 62
     7
 48
50.0
100
AcDbLine
 10
13187.2
 20
400.0
 30
0.0
 11
16227.2
 21
400.0
 31
0.0
  0
TEXT
  5
10B73
330
747D
100
AcDbEntity
  8
文字
 62
     7
 48
50.0
100
AcDbText
 10
13162.9790565769
 20
895.0906074299405
 30
0.0
 40
200.0
  1
外 形 図
  7
STYLE2
100
AcDbText
  0
TEXT
  5
10B74
330
747D
100
AcDbEntity
  8
文字
 62
     7
 48
50.0
100
AcDbText
 10
13201.43669998441
 20
477.2740661031255
 30
0.0
 40
160.0
  1
機種名
  7
STYLE2
100
AcDbText
  0
TEXT
  5
10B75
330
747D
100
AcDbEntity
  8
文字
 62
     7
 48
50.0
100
AcDbText
 10
13209.4053442172
 20
228.5435242569016
 30
0.0
 40
100.0
  1
○有効開口寸法 ： 1278×1770(mm)
  7
STYLE2
100
AcDbText
  0
TEXT
  5
10B79
330
747D
100
AcDbEntity
  8
文字
 62
     7
 48
50.0
100
AcDbText
 10
14524.131837222
 20
1031.557706291228
 30
0.0
 40
100.0
  1
NO.16      <縮尺> S=1/40
  7
STYLE2
100
AcDbText
  0
LINE
  5
10B7B
330
747D
100
AcDbEntity
  8
仕様書枠
 48
50.0
100
AcDbLine
 10
13107.2
 20
800.0
 30
0.0
 11
14251.2
 21
800.0
 31
0.0
  0
LINE
  5
10B88
330
747D
100
AcDbEntity
  8
仕様書枠
  6
Continuous
 48
50.0
100
AcDbLine
 10
14251.2
 20
1200.0
 30
0.0
 11
14251.2
 21
800.0
 31
0.0
  0
LINE
  5
12765
330
747D
100
AcDbEntity
  8
Ｇ．Ｌ
100
AcDbLine
 10
4541.629972436509
 20
3000.0
 30
0.0
 11
11573.62309531873
 21
3000.0
 31
0.0
  0
LINE
  5
12766
330
747D
100
AcDbEntity
  8
部品1
100
AcDbLine
 10
9538.011802964087
 20
4940.0
 30
0.0
 11
10908.01180296409
 21
4940.0
 31
0.0
  0
LINE
  5
12767
330
747D
100
AcDbEntity
  8
部品1
100
AcDbLine
 10
9538.011802964087
 20
3150.0
 30
0.0
 11
10908.01180296409
 21
3150.0
 31
0.0
  0
LINE
  5
12768
330
747D
100
AcDbEntity
  8
部品1
100
AcDbLine
 10
9538.011802964087
 20
3100.0
 30
0.0
 11
9545.511802964087
 21
3100.0
 31
0.0
  0
LINE
  5
12773
330
747D
100
AcDbEntity
  8
部品1
100
AcDbLine
 10
9593.011802964088
 20
4940.0
 30
0.0
 11
9593.011802964088
 21
3150.0
 31
0.0
  0
LINE
  5
12777
330
747D
100
AcDbEntity
  8
部品1
100
AcDbLine
 10
9538.01180296409
 20
5031.576893940442
 30
0.0
 11
9538.011802964087
 21
3000.0
 31
0.0
  0
DIMENSION
  5
12778
330
747D
100
AcDbEntity
  8
寸法
100
AcDbDimension
  2
*D5
 10
8993.103161566834
 20
3162.000000000001
 30
0.0
 11
8893.103161566832
 21
4047.000000000001
 31
0.0
 70
    32
  1
有効開口部高サ<>
 71
     5
 42
1769.999999999999
  3
INABA_S40G
100
AcDbAlignedDimension
 13
9538.011802964087
 23
4932.0
 33
0.0
 14
9538.011802964087
 24
3162.0
 34
0.0
 50
90.0
100
AcDbRotatedDimension
1001
ACAD
1000
DSTYLE
1002
{
1070
   174
1070
     0
1070
   272
1070
     1
1070
   288
1070
     0
1070
   341
1005
0
1002
}
  0
DIMENSION
  5
12779
330
747D
100
AcDbEntity
  8
寸法
100
AcDbDimension
  2
*D4
 10
8694.261673780827
 20
3150.0
 30
0.0
 11
8594.261673780827
 21
4045.000000000001
 31
0.0
 70
    32
 71
     5
 42
1789.999999999999
  3
INABA_S40G
100
AcDbAlignedDimension
 13
9538.011802964087
 23
4940.0
 33
0.0
 14
9538.011802964087
 24
3150.0
 34
0.0
 50
90.0
100
AcDbRotatedDimension
1001
ACAD
1000
DSTYLE
1002
{
1070
   174
1070
     0
1070
   272
1070
     1
1070
   288
1070
     0
1070
   341
1005
0
1002
}
  0
DIMENSION
  5
1277A
330
747D
100
AcDbEntity
  8
寸法
100
AcDbDimension
  2
*D3
 10
8394.261673780828
 20
5175.000000000005
 30
0.0
 11
8294.249862757203
 21
4137.500000000003
 31
0.0
 70
    32
 71
     5
 42
2075.000000000004
  3
INABA_S40G
100
AcDbAlignedDimension
 13
9538.011802964087
 23
3100.0
 33
0.0
 14
9478.011802964088
 24
5175.000000000005
 34
0.0
 50
90.0
100
AcDbRotatedDimension
1001
ACAD
1000
DSTYLE
1002
{
1070
   174
1070
     0
1070
   272
1070
     1
1070
   288
1070
     0
1070
   341
1005
0
1002
}
  0
DIMENSION
  5
1277B
330
747D
100
AcDbEntity
  8
寸法
100
AcDbDimension
  2
*D1
 10
8394.261673780828
 20
3000.0
 30
0.0
 11
8394.261673780828
 21
2763.952755905513
 31
0.0
 70
   160
 71
     5
 42
100.0000000000004
  3
INABA_S40G
100
AcDbAlignedDimension
 13
9483.011802964087
 23
3100.0
 33
0.0
 14
8481.510727068956
 24
3000.0
 34
0.0
 50
90.0
100
AcDbRotatedDimension
1001
ACAD
1000
DSTYLE
1002
{
1070
   174
1070
     0
1070
   272
1070
     1
1070
   288
1070
     0
1070
   341
1005
0
1002
}
  0
DIMENSION
  5
1277C
330
747D
100
AcDbEntity
  8
寸法
100
AcDbDimension
  2
*D2
 10
8694.261673780827
 20
3100.0
 30
0.0
 11
8694.261673780827
 21
2793.952755905514
 31
0.0
 70
   160
 71
     5
 42
50.0
  3
INABA_S40G
100
AcDbAlignedDimension
 13
9538.011802964087
 23
3150.0
 33
0.0
 14
9483.011802964087
 24
3100.0
 34
0.0
 50
90.0
100
AcDbRotatedDimension
1001
ACAD
1000
DSTYLE
1002
{
1070
   174
1070
     0
1070
   272
1070
     1
1070
   288
1070
     0
1070
   341
1005
0
1002
}
  0
LINE
  5
12787
330
747D
100
AcDbEntity
  8
部品1
100
AcDbLine
 10
10013.01180296408
 20
4940.0
 30
0.0
 11
10013.01180296408
 21
3150.0
 31
0.0
  0
LINE
  5
1279B
330
747D
100
AcDbEntity
  8
部品1
100
AcDbLine
 10
10908.01180296409
 20
4994.636580835254
 30
0.0
 11
10908.01180296409
 21
3000.0
 31
0.0
  0
LINE
  5
1279C
330
747D
100
AcDbEntity
  8
部品1
100
AcDbLine
 10
10853.01180296409
 20
4940.0
 30
0.0
 11
10853.01180296409
 21
3150.0
 31
0.0
  0
DIMENSION
  5
127A4
330
747D
100
AcDbEntity
  8
寸法
100
AcDbDimension
  2
*D6
 10
11612.93896093621
 20
5120.0
 30
0.0
 11
11512.92714991259
 21
4110.000000000002
 31
0.0
 70
    32
 71
     5
 42
2020.000000000001
  3
INABA_S40G
100
AcDbAlignedDimension
 13
10908.01180296409
 23
3100.0
 33
0.0
 14
10988.01180296409
 24
5120.0
 34
0.0
 50
90.0
100
AcDbRotatedDimension
1001
ACAD
1000
DSTYLE
1002
{
1070
   174
1070
     0
1070
   272
1070
     1
1070
   288
1070
     0
1070
   341
1005
0
1002
}
  0
TEXT
  5
127AA
330
747D
100
AcDbEntity
  8
部品1
100
AcDbText
 10
4599.545247166584
 20
3013.953728039225
 30
0.0
 40
125.0
  1
▽G.L
  7
STYLE2
100
AcDbText
  0
LINE
  5
1283F
330
747D
100
AcDbEntity
  8
部品1
100
AcDbLine
 10
9738.011802964088
 20
3100.0
 30
0.0
 11
9738.011802964088
 21
3000.0
 31
0.0
  0
LINE
  5
12840
330
747D
100
AcDbEntity
  8
部品1
100
AcDbLine
 10
10708.01180296409
 20
3100.0
 30
0.0
 11
10708.01180296409
 21
3000.0
 31
0.0
  0
DIMENSION
  5
13B51
330
747D
100
AcDbEntity
  8
寸法
 48
50.0
100
AcDbDimension
  2
*D7
 10
9538.01180296409
 20
5573.657453579304
 30
0.0
 11
10228.75113990871
 21
5573.657453579304
 31
0.0
 70
   160
  1
柱外寸法<>
 71
     5
 42
1370.0
  3
INABA_S40G
100
AcDbAlignedDimension
 13
10908.01180296409
 23
5121.810679611654
 33
0.0
 14
9538.01180296409
 24
5171.001618122977
 34
0.0
100
AcDbRotatedDimension
1001
ACAD
1000
DSTYLE
1002
{
1070
   174
1070
     0
1070
   272
1070
     1
1070
   288
1070
     0
1070
   341
1005
0
1002
}
  0
DIMENSION
  5
13B6D
330
747D
100
AcDbEntity
  8
寸法
 48
50.0
100
AcDbDimension
  2
*D8
 10
9478.011802964088
 20
5573.657453579304
 30
0.0
 11
9168.374007688498
 21
5573.657453579304
 31
0.0
 70
   160
 71
     5
 42
60.0
  3
INABA_S40G
100
AcDbAlignedDimension
 13
9538.01180296409
 23
5171.001618122977
 33
0.0
 14
9478.011802964088
 24
5175.000000000005
 34
0.0
100
AcDbRotatedDimension
1001
ACAD
1000
DSTYLE
1002
{
1070
   174
1070
     0
1070
   272
1070
     1
1070
   288
1070
     0
1070
   341
1005
0
1002
}
  0
DIMENSION
  5
13BBF
330
747D
100
AcDbEntity
  8
寸法
 48
50.0
100
AcDbDimension
  2
*D9
 10
9478.011802964088
 20
5787.714056264697
 30
0.0
 11
10208.29197972765
 21
5787.714056264697
 31
0.0
 70
   160
 71
     5
 42
1510.0
  3
INABA_S40G
100
AcDbAlignedDimension
 13
10988.01180296409
 23
5120.0
 33
0.0
 14
9478.011802964088
 24
5175.000000000005
 34
0.0
100
AcDbRotatedDimension
1001
ACAD
1000
DSTYLE
1002
{
1070
   174
1070
     0
1070
   272
1070
     1
1070
   288
1070
     0
1070
   341
1005
0
1002
}
  0
LINE
  5
13BE8
330
747D
100
AcDbEntity
  8
部品1
100
AcDbLine
 10
5259.896575106991
 20
3100.0
 30
0.0
 11
7469.896575107009
 21
3100.0
 31
0.0
  0
LINE
  5
13BE9
330
747D
100
AcDbEntity
  8
部品1
100
AcDbLine
 10
5259.896575106992
 20
4940.0
 30
0.0
 11
7469.896575107009
 21
4940.000000000001
 31
0.0
  0
LINE
  5
13BEF
330
747D
100
AcDbEntity
  8
部品1
100
AcDbLine
 10
5319.896575106992
 20
3149.000000000001
 30
0.0
 11
6114.896575106991
 21
3149.000000000008
 31
0.0
  0
DIMENSION
  5
13BF0
330
747D
100
AcDbEntity
  8
寸法
 48
50.0
100
AcDbDimension
  2
*D10
 10
7519.896575107009
 20
5595.370389148895
 30
0.0
 11
6358.975848044829
 21
5595.370389148895
 31
0.0
 70
   160
 71
     5
 42
2310.000000000017
  3
INABA_S40G
100
AcDbAlignedDimension
 13
5209.896575106991
 23
5175.000000000006
 33
0.0
 14
7519.896575107009
 24
5175.000000000003
 34
0.0
100
AcDbRotatedDimension
  0
LINE
  5
13C1F
330
747D
100
AcDbEntity
  8
部品1
100
AcDbLine
 10
5259.896575106992
 20
5034.000000000004
 30
0.0
 11
5259.896575106991
 21
3000.0
 31
0.0
  0
LINE
  5
13CFC
330
747D
100
AcDbEntity
  8
部品1
100
AcDbLine
 10
7409.896575107009
 20
4940.0
 30
0.0
 11
7409.896575107009
 21
3142.00000000002
 31
0.0
  0
LINE
  5
13CFE
330
747D
100
AcDbEntity
  8
部品1
100
AcDbLine
 10
5319.896575106991
 20
4940.0
 30
0.0
 11
5319.896575106991
 21
3142.000000000004
 31
0.0
  0
LINE
  5
13D18
330
747D
100
AcDbEntity
  8
部品1
100
AcDbLine
 10
7469.896575107009
 20
5034.000000000004
 30
0.0
 11
7469.896575107009
 21
3000.0
 31
0.0
  0
LINE
  5
13E0C
330
747D
100
AcDbEntity
  8
部品1
100
AcDbLine
 10
7069.896575107009
 20
3100.0
 30
0.0
 11
7069.896575107009
 21
3000.0
 31
0.0
  0
LINE
  5
13E0D
330
747D
100
AcDbEntity
  8
部品1
100
AcDbLine
 10
5659.896575106991
 20
3100.0
 30
0.0
 11
5659.896575106991
 21
3000.0
 31
0.0
  0
DIMENSION
  5
141C3
330
747D
100
AcDbEntity
  8
寸法
 48
50.0
100
AcDbDimension
  2
*D11
 10
7469.896575107011
 20
5379.620259427273
 30
0.0
 11
7833.381856481247
 21
5379.620259427273
 31
0.0
 70
   160
 71
     5
 42
49.99999999999909
  3
INABA_S40G
100
AcDbAlignedDimension
 13
7519.896575107009
 23
5175.000000000003
 33
0.0
 14
7469.896575107011
 24
5175.000000000006
 34
0.0
100
AcDbRotatedDimension
  0
DIMENSION
  5
14206
330
747D
100
AcDbEntity
  8
寸法
 48
50.0
100
AcDbDimension
  2
*D12
 10
5209.896575106991
 20
5379.620259427273
 30
0.0
 11
4896.411293732746
 21
5379.620259427273
 31
0.0
 70
   160
 71
     5
 42
49.99999999999909
  3
INABA_S40G
100
AcDbAlignedDimension
 13
5259.896575106991
 23
5175.000000000006
 33
0.0
 14
5209.896575106991
 24
5175.000000000006
 34
0.0
100
AcDbRotatedDimension
1001
ACAD
1000
DSTYLE
1002
{
1002
}
  0
LINE
  5
1427D
330
747D
100
AcDbEntity
  8
部品1
100
AcDbLine
 10
6114.896575106991
 20
3156.500000000006
 30
0.0
 11
7409.896575107009
 21
3156.500000000022
 31
0.0
  0
LINE
  5
144FC
330
747D
100
AcDbEntity
  8
破線
  6
HIDDEN
 48
5.0
100
AcDbLine
 10
10915.51180296409
 20
2845.0
 30
0.0
 11
10845.51180296409
 21
2845.0
 31
0.0
  0
LINE
  5
144FD
330
747D
100
AcDbEntity
  8
破線
  6
HIDDEN
 48
5.0
100
AcDbLine
 10
10860.51180296408
 20
2995.0
 30
0.0
 11
10845.51180296409
 21
2847.3
 31
0.0
  0
LINE
  5
144FE
330
747D
100
AcDbEntity
  8
破線
  6
HIDDEN
 48
5.0
100
AcDbLine
 10
10845.51180296409
 20
2847.3
 30
0.0
 11
10845.51180296409
 21
2845.0
 31
0.0
  0
LINE
  5
144FF
330
747D
100
AcDbEntity
  8
破線
  6
HIDDEN
 48
5.0
100
AcDbLine
 10
10900.51180296409
 20
2995.0
 30
0.0
 11
10915.51180296409
 21
2847.3
 31
0.0
  0
LINE
  5
14500
330
747D
100
AcDbEntity
  8
破線
  6
HIDDEN
 48
5.0
100
AcDbLine
 10
10915.51180296409
 20
2847.3
 30
0.0
 11
10915.51180296409
 21
2845.0
 31
0.0
  0
LINE
  5
14503
330
747D
100
AcDbEntity
  8
破線
  6
HIDDEN
 48
5.0
100
AcDbLine
 10
9530.511802964085
 20
2845.0
 30
0.0
 11
9600.511802964085
 21
2845.0
 31
0.0
  0
LINE
  5
14504
330
747D
100
AcDbEntity
  8
破線
  6
HIDDEN
 48
5.0
100
AcDbLine
 10
9530.511802964085
 20
2847.3
 30
0.0
 11
9530.511802964085
 21
2845.0
 31
0.0
  0
LINE
  5
14505
330
747D
100
AcDbEntity
  8
破線
  6
HIDDEN
 48
5.0
100
AcDbLine
 10
9600.51180296409
 20
2847.3
 30
0.0
 11
9600.511802964085
 21
2845.0
 31
0.0
  0
LINE
  5
14506
330
747D
100
AcDbEntity
  8
破線
  6
HIDDEN
 48
5.0
100
AcDbLine
 10
9545.511802964089
 20
2995.000000000001
 30
0.0
 11
9530.511802964085
 21
2847.3
 31
0.0
  0
LINE
  5
14507
330
747D
100
AcDbEntity
  8
破線
  6
HIDDEN
 48
5.0
100
AcDbLine
 10
9585.51180296409
 20
2995.0
 30
0.0
 11
9600.51180296409
 21
2847.3
 31
0.0
  0
LINE
  5
14509
330
747D
100
AcDbEntity
  8
部品1
 48
50.0
100
AcDbLine
 10
9545.511802964085
 20
3140.000000000001
 30
0.0
 11
9545.511802964089
 21
3000.0
 31
0.0
  0
LINE
  5
1450A
330
747D
100
AcDbEntity
  8
部品1
 48
50.0
100
AcDbLine
 10
9585.51180296409
 20
3140.0
 30
0.0
 11
9585.511802964084
 21
3000.0
 31
0.0
  0
LINE
  5
1450B
330
747D
100
AcDbEntity
  8
部品1
100
AcDbLine
 10
9550.511802964086
 20
3145.000000000001
 30
0.0
 11
9580.511802964089
 21
3145.0
 31
0.0
  0
ARC
  5
1450C
330
747D
100
AcDbEntity
  8
部品1
 48
50.0
100
AcDbCircle
 10
9550.511802964086
 20
3140.000000000001
 30
0.0
 40
5.0
100
AcDbArc
 50
89.99999999999934
 51
180.0000000000013
  0
ARC
  5
1450D
330
747D
100
AcDbEntity
  8
部品1
 48
50.0
100
AcDbCircle
 10
9580.511802964089
 20
3140.0
 30
0.0
 40
5.0
100
AcDbArc
 50
359.9999999999986
 51
89.99999999999927
  0
LINE
  5
1450E
330
747D
100
AcDbEntity
  8
部品1
 48
50.0
100
AcDbLine
 10
10860.51180296408
 20
3140.0
 30
0.0
 11
10860.51180296409
 21
3000.0
 31
0.0
  0
LINE
  5
1450F
330
747D
100
AcDbEntity
  8
部品1
 48
50.0
100
AcDbLine
 10
10900.51180296409
 20
3140.0
 30
0.0
 11
10900.51180296408
 21
3000.0
 31
0.0
  0
LINE
  5
14510
330
747D
100
AcDbEntity
  8
部品1
100
AcDbLine
 10
10895.51180296409
 20
3145.0
 30
0.0
 11
10865.51180296408
 21
3145.0
 31
0.0
  0
ARC
  5
14511
330
747D
100
AcDbEntity
  8
部品1
 48
50.0
100
AcDbCircle
 10
10865.51180296408
 20
3140.0
 30
0.0
 40
5.0
100
AcDbArc
 50
90.00000000000074
 51
180.0000000000014
  0
ARC
  5
14512
330
747D
100
AcDbEntity
  8
部品1
 48
50.0
100
AcDbCircle
 10
10895.51180296409
 20
3140.0
 30
0.0
 40
5.0
100
AcDbArc
 50
359.9999999999986
 51
90.00000000000063
  0
LINE
  5
14513
330
747D
100
AcDbEntity
  8
破線
  6
HIDDEN
 48
5.0
100
AcDbLine
 10
10860.51180296409
 20
3000.0
 30
0.0
 11
10860.51180296409
 21
2995.0
 31
0.0
  0
LINE
  5
14514
330
747D
100
AcDbEntity
  8
破線
  6
HIDDEN
 48
5.0
100
AcDbLine
 10
10900.51180296408
 20
3000.0
 30
0.0
 11
10900.51180296408
 21
2995.0
 31
0.0
  0
LINE
  5
14515
330
747D
100
AcDbEntity
  8
破線
  6
HIDDEN
 48
5.0
100
AcDbLine
 10
9545.511802964092
 20
3000.0
 30
0.0
 11
9545.511802964092
 21
2995.000000000001
 31
0.0
  0
LINE
  5
14516
330
747D
100
AcDbEntity
  8
破線
  6
HIDDEN
 48
5.0
100
AcDbLine
 10
9585.51180296409
 20
3000.0
 30
0.0
 11
9585.51180296409
 21
2995.0
 31
0.0
  0
LINE
  5
14517
330
747D
100
AcDbEntity
  8
部品1
100
AcDbLine
 10
7474.896575107009
 20
3145.000000000001
 30
0.0
 11
7474.896575107009
 21
3000.0
 31
0.0
  0
LINE
  5
1451B
330
747D
100
AcDbEntity
  8
破線
 48
5.0
100
AcDbLine
 10
7494.896575107009
 20
2845.0
 30
0.0
 11
7474.896575107007
 21
2845.0
 31
0.0
  0
LINE
  5
1451C
330
747D
100
AcDbEntity
  8
部品1
100
AcDbLine
 10
5254.89657510699
 20
3145.000000000002
 30
0.0
 11
5254.896575106992
 21
3000.0
 31
0.0
  0
LINE
  5
1451F
330
747D
100
AcDbEntity
  8
破線
 48
5.0
100
AcDbLine
 10
5234.896575106991
 20
2845.000000000001
 30
0.0
 11
5254.896575106993
 21
2845.000000000001
 31
0.0
  0
DIMENSION
  5
14521
330
747D
100
AcDbEntity
  8
寸法
100
AcDbDimension
  2
*D13
 10
5314.896575107001
 20
8867.74190280961
 30
0.0
 11
4951.411293732729
 21
8867.74190280961
 31
0.0
 70
   160
 71
     5
 42
55.00000000003456
  3
INABA_S40G
100
AcDbAlignedDimension
 13
5259.896575106966
 23
8651.933683184628
 33
0.0
 14
5314.896575107001
 24
8651.933683184628
 34
0.0
100
AcDbRotatedDimension
1001
ACAD
1000
DSTYLE
1002
{
1002
}
  0
LINE
  5
14522
330
747D
100
AcDbEntity
  8
部品1
100
AcDbLine
 10
5734.896575106966
 20
8651.933683184596
 30
0.0
 11
5734.896575106969
 21
8623.933683184596
 31
0.0
  0
LINE
  5
14523
330
747D
100
AcDbEntity
  8
部品1
100
AcDbLine
 10
5259.896575106953
 20
8651.933683184605
 30
0.0
 11
5259.896575106995
 21
7281.933683184593
 31
0.0
  0
LINE
  5
14524
330
747D
100
AcDbEntity
  8
部品1
100
AcDbLine
 10
7414.896575107002
 20
8651.933683184722
 30
0.0
 11
7414.896575107002
 21
8623.933683184723
 31
0.0
  0
LINE
  5
14525
330
747D
100
AcDbEntity
  8
部品1
100
AcDbLine
 10
7414.896575107002
 20
8651.933683184743
 30
0.0
 11
7414.896575107002
 21
8623.933683184743
 31
0.0
  0
DIMENSION
  5
14526
330
747D
100
AcDbEntity
  8
寸法
100
AcDbDimension
  2
*D14
 10
8418.408388371698
 20
7281.933683184724
 30
0.0
 11
8418.408388371696
 21
7939.835872351338
 31
0.0
 70
   160
 71
     5
 42
1370.0
  3
INABA_S40G
100
AcDbAlignedDimension
 13
7469.896575106997
 23
8651.933683184722
 33
0.0
 14
7469.896575106976
 24
7281.933683184724
 34
0.0
 50
90.0
100
AcDbRotatedDimension
1001
ACAD
1000
DSTYLE
1002
{
1002
}
  0
LINE
  5
14527
330
747D
100
AcDbEntity
  8
部品1
100
AcDbLine
 10
7469.896575107012
 20
8651.93368318472
 30
0.0
 11
7469.896575106976
 21
7281.933683184724
 31
0.0
  0
LINE
  5
14528
330
747D
100
AcDbEntity
  8
部品1
100
AcDbLine
 10
6994.896575107
 20
8651.933683184743
 30
0.0
 11
6994.896575107
 21
8623.933683184743
 31
0.0
  0
LINE
  5
14529
330
747D
100
AcDbEntity
  8
部品1
100
AcDbLine
 10
6574.896575107001
 20
8651.933683184743
 30
0.0
 11
6574.896575107001
 21
8623.933683184743
 31
0.0
  0
LINE
  5
1452A
330
747D
100
AcDbEntity
  8
部品1
100
AcDbLine
 10
6154.896575107001
 20
8651.933683184743
 30
0.0
 11
6154.896575107001
 21
8623.933683184743
 31
0.0
  0
LINE
  5
1452B
330
747D
100
AcDbEntity
  8
部品1
100
AcDbLine
 10
6154.896575107001
 20
8651.933683184628
 30
0.0
 11
6154.896575107001
 21
8623.933683184628
 31
0.0
  0
LINE
  5
1452C
330
747D
100
AcDbEntity
  8
部品1
100
AcDbLine
 10
6154.896575107001
 20
8651.933683184628
 30
0.0
 11
6154.896575107001
 21
8623.933683184629
 31
0.0
  0
LINE
  5
1452D
330
747D
100
AcDbEntity
  8
部品1
100
AcDbLine
 10
5314.896575107001
 20
8651.933683184628
 30
0.0
 11
5314.896575107001
 21
8623.933683184628
 31
0.0
  0
DIMENSION
  5
1452E
330
747D
100
AcDbEntity
  8
寸法
100
AcDbDimension
  2
*D15
 10
8117.322920841413
 20
8596.933683184728
 30
0.0
 11
8117.322920841411
 21
8960.418964558963
 31
0.0
 70
   160
 71
     5
 42
54.99999999999636
  3
INABA_S40G
100
AcDbAlignedDimension
 13
7469.896575107002
 23
8651.933683184722
 33
0.0
 14
7469.896575107002
 24
8596.933683184728
 34
0.0
 50
90.0
100
AcDbRotatedDimension
1001
ACAD
1000
DSTYLE
1002
{
1002
}
  0
DIMENSION
  5
1452F
330
747D
100
AcDbEntity
  8
寸法
100
AcDbDimension
  2
*D16
 10
7796.754300969026
 20
8076.715867515835
 30
0.0
 11
7696.754300969026
 21
8301.715867515836
 31
0.0
 70
    32
 71
     5
 42
449.9999999999982
  3
INABA_S40G
100
AcDbAlignedDimension
 13
7441.396575107003
 23
8621.933683184723
 33
0.0
 14
7441.396575107003
 24
8171.933683184725
 34
0.0
 50
90.0
100
AcDbRotatedDimension
1001
ACAD
1000
DSTYLE
1002
{
1002
}
  0
DIMENSION
  5
14530
330
747D
100
AcDbEntity
  8
寸法
100
AcDbDimension
  2
*D17
 10
8117.322920841386
 20
7281.933683184724
 30
0.0
 11
8117.322920841386
 21
6904.072216279861
 31
0.0
 70
   160
 71
     5
 42
54.99999999999636
  3
INABA_S40G
100
AcDbAlignedDimension
 13
7469.896575106976
 23
7336.933683184719
 33
0.0
 14
7469.896575106976
 24
7281.933683184724
 34
0.0
 50
90.0
100
AcDbRotatedDimension
1001
ACAD
1000
DSTYLE
1002
{
1002
}
  0
DIMENSION
  5
14531
330
747D
100
AcDbEntity
  8
寸法
100
AcDbDimension
  2
*D18
 10
8117.322920841413
 20
7336.933683184719
 30
0.0
 11
8117.322920841411
 21
7939.585485690376
 31
0.0
 70
   160
  1
3X420=<>
 71
     5
 42
1260.000000000007
  3
INABA_S40G
100
AcDbAlignedDimension
 13
7469.896575107002
 23
8596.933683184728
 33
0.0
 14
7469.896575106976
 24
7336.933683184719
 34
0.0
 50
90.0
100
AcDbRotatedDimension
1001
ACAD
1000
DSTYLE
1002
{
1002
}
  0
DIMENSION
  5
14532
330
747D
100
AcDbEntity
  8
寸法
100
AcDbDimension
  2
*D19
 10
7469.896575106976
 20
6502.420311817299
 30
0.0
 11
6375.856517730952
 21
6502.420311817299
 31
0.0
 70
   160
 71
     5
 42
2209.999999999982
  3
INABA_S40G
100
AcDbAlignedDimension
 13
5259.896575106995
 23
7281.933683184593
 33
0.0
 14
7469.896575106976
 24
7281.933683184688
 34
0.0
100
AcDbRotatedDimension
1001
ACAD
1000
DSTYLE
1002
{
1002
}
  0
DIMENSION
  5
14533
330
747D
100
AcDbEntity
  8
寸法
100
AcDbDimension
  2
*D20
 10
5319.896575106994
 20
6728.736931209406
 30
0.0
 11
5947.686700450972
 21
6728.736931209406
 31
0.0
 70
   160
  1
有効開口部間口\P<>
 71
     5
 42
1278.0
  3
INABA_S40G
100
AcDbAlignedDimension
 13
6597.896575106995
 23
7281.933683184653
 33
0.0
 14
5319.896575106994
 24
7281.933683184591
 34
0.0
100
AcDbRotatedDimension
1001
ACAD
1000
DSTYLE
1002
{
1002
}
  0
LWPOLYLINE
  5
14534
330
747D
100
AcDbEntity
  8
部品1
100
AcDbPolyline
 90
        4
 70
     1
 43
0.0
 10
5983.161241992782
 20
6320.02887121833
 10
5983.161241992782
 20
6080.136549672797
 10
6746.631908221221
 20
6080.136549672797
 10
6746.631908221221
 20
6320.02887121833
  0
TEXT
  5
14535
330
747D
100
AcDbEntity
  8
部品1
100
AcDbText
 10
6073.080851821821
 20
6127.135341999806
 30
0.0
 40
135.0
  1
平面図
  7
STYLE2
100
AcDbText
  0
LINE
  5
14538
330
747D
100
AcDbEntity
  8
部品1
100
AcDbLine
 10
7441.896575106977
 20
7383.933683184726
 30
0.0
 11
5287.89657510687
 21
7383.933683184604
 31
0.0
  0
LINE
  5
1453A
330
747D
100
AcDbEntity
  8
細線
100
AcDbLine
 10
6768.896575106987
 20
7318.933683184721
 30
0.0
 11
6666.396575107008
 21
7318.933683184721
 31
0.0
  0
LINE
  5
1453B
330
747D
100
AcDbEntity
  8
細線
100
AcDbLine
 10
6753.896575106982
 20
7341.933683184722
 30
0.0
 11
6088.896575106993
 21
7341.933683184729
 31
0.0
  0
LINE
  5
1453C
330
747D
100
AcDbEntity
  8
細線
 48
50.0
100
AcDbLine
 10
7409.896575106976
 20
7297.933683184723
 30
0.0
 11
6114.896575106998
 21
7297.933683184725
 31
0.0
  0
LINE
  5
1453E
330
747D
100
AcDbEntity
  8
部品1
100
AcDbLine
 10
5288.396575107
 20
8171.933683184576
 30
0.0
 11
6561.396575107
 21
8171.933683184732
 31
0.0
  0
DIMENSION
  5
1453F
330
747D
100
AcDbEntity
  8
寸法
100
AcDbDimension
  2
*D21
 10
7382.703078813036
 20
7952.886572941746
 30
0.0
 11
6967.74363722527
 21
7952.886572941746
 31
0.0
 70
   160
 71
     5
 42
853.0000000000118
  3
INABA_S40G
100
AcDbAlignedDimension
 13
6588.396575107001
 23
8171.933683184732
 33
0.0
 14
7441.396575107012
 24
8171.933683184727
 34
0.0
100
AcDbRotatedDimension
1001
ACAD
1000
DSTYLE
1002
{
1002
}
  0
LINE
  5
14540
330
747D
100
AcDbEntity
  8
細線
 48
50.0
100
AcDbLine
 10
6561.396575107001
 20
8621.93368318473
 30
0.0
 11
5288.396575107
 21
8171.933683184576
 31
0.0
  0
LINE
  5
14541
330
747D
100
AcDbEntity
  8
細線
 48
50.0
100
AcDbLine
 10
6561.396575107
 20
8171.933683184732
 30
0.0
 11
5288.396575107002
 21
8621.933683184577
 31
0.0
  0
LINE
  5
14542
330
747D
100
AcDbEntity
  8
部品1
100
AcDbLine
 10
5288.396575107002
 20
8621.933683184577
 30
0.0
 11
6561.396575107001
 21
8621.933683184733
 31
0.0
  0
LINE
  5
14543
330
747D
100
AcDbEntity
  8
部品1
100
AcDbLine
 10
5734.896575107001
 20
8623.933683184745
 30
0.0
 11
6562.396575106999
 21
8623.933683184743
 31
0.0
  0
LINE
  5
14544
330
747D
100
AcDbEntity
  8
部品1
100
AcDbLine
 10
7469.896575106976
 20
7281.933683184724
 30
0.0
 11
5259.896575106995
 21
7281.933683184546
 31
0.0
  0
LINE
  5
14546
330
747D
100
AcDbEntity
  8
部品1
100
AcDbLine
 10
5287.896575106977
 20
7336.933683184589
 30
0.0
 11
5287.896575107012
 21
8623.933683184622
 31
0.0
  0
LINE
  5
14547
330
747D
100
AcDbEntity
  8
細線
 48
50.0
100
AcDbLine
 10
6073.896575106992
 20
7331.933683184736
 30
0.0
 11
5319.896575106991
 21
7331.933683184607
 31
0.0
  0
LINE
  5
14548
330
747D
100
AcDbEntity
  8
細線
100
AcDbLine
 10
6114.896575106994
 20
7284.933683184757
 30
0.0
 11
6014.89657510698
 21
7284.933683184743
 31
0.0
  0
LINE
  5
14549
330
747D
100
AcDbEntity
  8
細線
100
AcDbLine
 10
6099.896575106996
 20
7307.933683184754
 30
0.0
 11
5334.896575106991
 21
7307.933683184639
 31
0.0
  0
LINE
  5
1454A
330
747D
100
AcDbEntity
  8
部品1
100
AcDbLine
 10
5730.896575106995
 20
7281.933683184594
 30
0.0
 11
5679.896575106994
 21
7281.933683184594
 31
0.0
  0
LINE
  5
1454B
330
747D
100
AcDbEntity
  8
部品1
100
AcDbLine
 10
5287.896575106977
 20
7336.933683184544
 30
0.0
 11
5259.896575106992
 21
7336.933683184544
 31
0.0
  0
LINE
  5
1454C
330
747D
100
AcDbEntity
  8
部品1
100
AcDbLine
 10
5287.896575106977
 20
7336.933683184579
 30
0.0
 11
5259.896575106992
 21
7336.933683184579
 31
0.0
  0
LINE
  5
1454D
330
747D
100
AcDbEntity
  8
部品1
100
AcDbLine
 10
5287.896575106993
 20
7336.933683184605
 30
0.0
 11
5259.896575106992
 21
7336.933683184605
 31
0.0
  0
LINE
  5
1454E
330
747D
100
AcDbEntity
  8
部品1
100
AcDbLine
 10
5259.896575106992
 20
7336.933683184544
 30
0.0
 11
5259.896575106995
 21
7281.933683184546
 31
0.0
  0
LINE
  5
1454F
330
747D
100
AcDbEntity
  8
部品1
100
AcDbLine
 10
5319.896575106991
 20
7336.933683184554
 30
0.0
 11
5291.896575106991
 21
7336.933683184554
 31
0.0
  0
LINE
  5
14550
330
747D
100
AcDbEntity
  8
部品1
100
AcDbLine
 10
5310.896575106994
 20
7281.933683184558
 30
0.0
 11
5310.896575106993
 21
7288.933683184594
 31
0.0
  0
LINE
  5
14551
330
747D
100
AcDbEntity
  8
部品1
100
AcDbLine
 10
5319.896575106993
 20
7288.933683184591
 30
0.0
 11
5310.896575106993
 21
7288.933683184594
 31
0.0
  0
LINE
  5
14552
330
747D
100
AcDbEntity
  8
部品1
100
AcDbLine
 10
5319.896575106993
 20
7288.933683184591
 30
0.0
 11
5319.896575106991
 21
7336.933683184557
 31
0.0
  0
LINE
  5
14553
330
747D
100
AcDbEntity
  8
細線
100
AcDbLine
 10
5334.896575106991
 20
7314.933683184638
 30
0.0
 11
5334.896575106991
 21
7307.933683184639
 31
0.0
  0
LINE
  5
14554
330
747D
100
AcDbEntity
  8
細線
100
AcDbLine
 10
5334.896575106991
 20
7314.933683184638
 30
0.0
 11
5319.896575106992
 21
7314.933683184638
 31
0.0
  0
LINE
  5
1455D
330
747D
100
AcDbEntity
  8
部品1
100
AcDbLine
 10
5287.896575107012
 20
8623.933683184622
 30
0.0
 11
6154.896575107001
 21
8623.933683184633
 31
0.0
  0
LINE
  5
1455E
330
747D
100
AcDbEntity
  8
部品1
 48
50.0
100
AcDbLine
 10
5288.396575107002
 20
8621.933683184577
 30
0.0
 11
5288.396575107
 21
8171.933683184576
 31
0.0
  0
LINE
  5
1455F
330
747D
100
AcDbEntity
  8
部品1
100
AcDbLine
 10
5287.896575106976
 20
7756.933683184605
 30
0.0
 11
5259.896575106975
 21
7756.933683184605
 31
0.0
  0
LINE
  5
14560
330
747D
100
AcDbEntity
  8
部品1
100
AcDbLine
 10
5287.896575106969
 20
8596.933683184598
 30
0.0
 11
5259.896575106968
 21
8596.933683184598
 31
0.0
  0
LINE
  5
14562
330
747D
100
AcDbEntity
  8
部品1
100
AcDbLine
 10
7441.896575107015
 20
8623.933683184723
 30
0.0
 11
7441.896575106977
 21
7336.933683184719
 31
0.0
  0
LINE
  5
14563
330
747D
100
AcDbEntity
  8
細線
100
AcDbLine
 10
7407.896575106976
 20
7354.93368318472
 30
0.0
 11
7348.896575106976
 21
7354.933683184722
 31
0.0
  0
LINE
  5
14564
330
747D
100
AcDbEntity
  8
細線
 48
50.0
100
AcDbLine
 10
7409.896575106976
 20
7331.933683184726
 30
0.0
 11
6768.89657510699
 21
7331.933683184728
 31
0.0
  0
LINE
  5
14565
330
747D
100
AcDbEntity
  8
細線
100
AcDbLine
 10
7441.896575106977
 20
7382.933683184717
 30
0.0
 11
6727.896575106988
 21
7382.933683184726
 31
0.0
  0
LINE
  5
14566
330
747D
100
AcDbEntity
  8
細線
100
AcDbLine
 10
6747.896575106988
 20
7346.93368318472
 30
0.0
 11
6747.896575106988
 21
7354.93368318472
 31
0.0
  0
LINE
  5
14567
330
747D
100
AcDbEntity
  8
細線
100
AcDbLine
 10
6747.896575106988
 20
7346.93368318472
 30
0.0
 11
6727.896575106988
 21
7346.93368318472
 31
0.0
  0
LINE
  5
14568
330
747D
100
AcDbEntity
  8
細線
100
AcDbLine
 10
6727.896575106988
 20
7346.93368318472
 30
0.0
 11
6727.896575106988
 21
7382.933683184726
 31
0.0
  0
LINE
  5
14569
330
747D
100
AcDbEntity
  8
細線
100
AcDbLine
 10
6768.896575106987
 20
7318.933683184721
 30
0.0
 11
6768.896575106994
 21
7348.933683184718
 31
0.0
  0
LINE
  5
1456A
330
747D
100
AcDbEntity
  8
部品1
100
AcDbLine
 10
7469.896575106976
 20
7281.933683184724
 30
0.0
 11
7418.896575106976
 21
7281.933683184724
 31
0.0
  0
LINE
  5
1456B
330
747D
100
AcDbEntity
  8
部品1
100
AcDbLine
 10
7469.896575106978
 20
7336.933683184719
 30
0.0
 11
7469.896575106976
 21
7281.933683184724
 31
0.0
  0
LINE
  5
1456C
330
747D
100
AcDbEntity
  8
部品1
100
AcDbLine
 10
7441.896575106977
 20
7336.933683184719
 30
0.0
 11
7469.896575106976
 21
7336.933683184719
 31
0.0
  0
LINE
  5
1456E
330
747D
100
AcDbEntity
  8
部品1
100
AcDbLine
 10
7409.896575106976
 20
7336.933683184719
 30
0.0
 11
7441.896575106977
 21
7336.933683184719
 31
0.0
  0
LINE
  5
1456F
330
747D
100
AcDbEntity
  8
細線
100
AcDbLine
 10
7407.896575106976
 20
7336.933683184719
 30
0.0
 11
7407.896575106976
 21
7354.93368318472
 31
0.0
  0
LINE
  5
14570
330
747D
100
AcDbEntity
  8
部品1
100
AcDbLine
 10
7418.896575106976
 20
7281.933683184721
 30
0.0
 11
7418.896575106976
 21
7288.933683184723
 31
0.0
  0
LINE
  5
14571
330
747D
100
AcDbEntity
  8
部品1
100
AcDbLine
 10
7418.896575106976
 20
7288.933683184723
 30
0.0
 11
7409.896575106976
 21
7288.933683184723
 31
0.0
  0
LINE
  5
14572
330
747D
100
AcDbEntity
  8
部品1
100
AcDbLine
 10
7409.896575106976
 20
7288.933683184723
 30
0.0
 11
7409.896575106976
 21
7336.933683184719
 31
0.0
  0
LINE
  5
14573
330
747D
100
AcDbEntity
  8
部品1
100
AcDbLine
 10
7441.896575107008
 20
7336.933683184736
 30
0.0
 11
7469.896575107009
 21
7336.933683184736
 31
0.0
  0
LINE
  5
14575
330
747D
100
AcDbEntity
  8
部品1
100
AcDbLine
 10
6588.396575107001
 20
8171.933683184732
 30
0.0
 11
7441.396575107003
 21
8171.933683184725
 31
0.0
  0
LINE
  5
14576
330
747D
100
AcDbEntity
  8
細線
 48
50.0
100
AcDbLine
 10
7441.396575107003
 20
8621.933683184723
 30
0.0
 11
6588.396575107001
 21
8171.933683184732
 31
0.0
  0
LINE
  5
14577
330
747D
100
AcDbEntity
  8
細線
 48
50.0
100
AcDbLine
 10
7441.396575107003
 20
8171.933683184725
 30
0.0
 11
6588.396575107001
 21
8621.933683184726
 31
0.0
  0
LINE
  5
14578
330
747D
100
AcDbEntity
  8
部品1
100
AcDbLine
 10
6588.396575107001
 20
8621.93368318473
 30
0.0
 11
7441.396575107003
 21
8621.933683184723
 31
0.0
  0
LINE
  5
14579
330
747D
100
AcDbEntity
  8
部品1
100
AcDbLine
 10
6587.396575107002
 20
8623.933683184741
 30
0.0
 11
7441.896575107015
 21
8623.933683184723
 31
0.0
  0
LINE
  5
1457A
330
747D
100
AcDbEntity
  8
部品1
 48
50.0
100
AcDbLine
 10
6588.396575107001
 20
8621.933683184726
 30
0.0
 11
6588.396575107001
 21
8171.933683184732
 31
0.0
  0
LINE
  5
1457B
330
747D
100
AcDbEntity
  8
部品1
 48
50.0
100
AcDbLine
 10
6561.396575107001
 20
8621.93368318473
 30
0.0
 11
6561.396575107001
 21
8171.933683184732
 31
0.0
  0
LINE
  5
1457C
330
747D
100
AcDbEntity
  8
部品1
 48
50.0
100
AcDbLine
 10
6587.396575107002
 20
8623.933683184732
 30
0.0
 11
6587.396575107002
 21
8171.933683184732
 31
0.0
  0
LINE
  5
1457D
330
747D
100
AcDbEntity
  8
部品1
 48
50.0
100
AcDbLine
 10
6562.396575107
 20
8623.933683184738
 30
0.0
 11
6562.396575107001
 21
8171.933683184732
 31
0.0
  0
LINE
  5
1457E
330
747D
100
AcDbEntity
  8
部品1
100
AcDbLine
 10
6562.396575107001
 20
8171.933683184732
 30
0.0
 11
6587.396575107002
 21
8171.933683184732
 31
0.0
  0
LINE
  5
1457F
330
747D
100
AcDbEntity
  8
部品1
100
AcDbLine
 10
6562.396575107001
 20
8615.933683184726
 30
0.0
 11
6587.396575107002
 21
8615.933683184731
 31
0.0
  0
LINE
  5
14580
330
747D
100
AcDbEntity
  8
部品1
100
AcDbLine
 10
6603.896575107
 20
8641.933683184729
 30
0.0
 11
6609.896575107001
 21
8641.933683184729
 31
0.0
  0
LINE
  5
14581
330
747D
100
AcDbEntity
  8
部品1
100
AcDbLine
 10
6609.896575107001
 20
8641.933683184729
 30
0.0
 11
6609.896575107001
 21
8623.933683184731
 31
0.0
  0
LINE
  5
14582
330
747D
100
AcDbEntity
  8
部品1
100
AcDbLine
 10
6539.896575107
 20
8641.933683184729
 30
0.0
 11
6545.896575107001
 21
8641.933683184729
 31
0.0
  0
LINE
  5
14583
330
747D
100
AcDbEntity
  8
部品1
100
AcDbLine
 10
6539.896575107
 20
8641.933683184729
 30
0.0
 11
6539.896575107
 21
8623.933683184731
 31
0.0
  0
LINE
  5
14584
330
747D
100
AcDbEntity
  8
部品1
100
AcDbLine
 10
7441.396575107003
 20
8621.933683184723
 30
0.0
 11
7441.396575107003
 21
8171.933683184725
 31
0.0
  0
LINE
  5
14585
330
747D
100
AcDbEntity
  8
部品1
100
AcDbLine
 10
7441.896575107001
 20
8176.933683184726
 30
0.0
 11
7469.896575107002
 21
8176.933683184726
 31
0.0
  0
LINE
  5
14586
330
747D
100
AcDbEntity
  8
部品1
100
AcDbLine
 10
7441.896575107001
 20
8596.933683184728
 30
0.0
 11
7469.896575107002
 21
8596.933683184728
 31
0.0
  0
DIMENSION
  5
14587
330
747D
100
AcDbEntity
  8
寸法
100
AcDbDimension
  2
*D22
 10
7469.896575107002
 20
8867.741902809706
 30
0.0
 11
7778.381856481241
 21
8867.741902809706
 31
0.0
 70
   160
 71
     5
 42
55.0
  3
INABA_S40G
100
AcDbAlignedDimension
 13
7414.896575107002
 23
8651.933683184722
 33
0.0
 14
7469.896575107002
 24
8651.933683184722
 34
0.0
100
AcDbRotatedDimension
1001
ACAD
1000
DSTYLE
1002
{
1002
}
  0
LINE
  5
14588
330
747D
100
AcDbEntity
  8
部品1
100
AcDbLine
 10
5259.896575106953
 20
8651.933683184605
 30
0.0
 11
7469.896575107012
 21
8651.93368318472
 31
0.0
  0
DIMENSION
  5
14589
330
747D
100
AcDbEntity
  8
寸法
100
AcDbDimension
  2
*D23
 10
7414.896575107002
 20
8867.74190280961
 30
0.0
 11
6356.769737990322
 21
8867.74190280961
 31
0.0
 70
   160
  1
5X420=<>
 71
     5
 42
2100.000000000001
  3
INABA_S40G
100
AcDbAlignedDimension
 13
5314.896575107001
 23
8651.933683184628
 33
0.0
 14
7414.896575107002
 24
8651.933683184722
 34
0.0
100
AcDbRotatedDimension
1001
ACAD
1000
DSTYLE
1002
{
1002
}
  0
LINE
  5
146B0
330
747D
100
AcDbEntity
  8
部品1
100
AcDbLine
 10
10900.51180296409
 20
3100.0
 30
0.0
 11
10908.01180296409
 21
3100.0
 31
0.0
  0
LINE
  5
146B1
330
747D
100
AcDbEntity
  8
部品1
100
AcDbLine
 10
9585.51180296409
 20
3100.0
 30
0.0
 11
10860.51180296409
 21
3100.0
 31
0.0
  0
LINE
  5
146B2
330
747D
100
AcDbEntity
  8
破線
 48
5.0
100
AcDbLine
 10
7474.896575107009
 20
3000.0
 30
0.0
 11
7474.896575107009
 21
2845.0
 31
0.0
  0
LINE
  5
146B3
330
747D
100
AcDbEntity
  8
破線
 48
5.0
100
AcDbLine
 10
5254.896575106992
 20
3000.0
 30
0.0
 11
5254.89657510699
 21
2845.000000000001
 31
0.0
  0
DIMENSION
  5
146E8
330
747D
100
AcDbEntity
  8
寸法
 48
50.0
100
AcDbDimension
  2
*D24
 10
5259.896575106991
 20
5379.142231267993
 30
0.0
 11
6397.940818449586
 21
5379.142231267993
 31
0.0
 70
   160
  1
柱外寸法<>
 71
     5
 42
2210.000000000019
  3
INABA_S40G
100
AcDbAlignedDimension
 13
7469.896575107011
 23
5175.000000000006
 33
0.0
 14
5259.896575106991
 24
5175.000000000006
 34
0.0
100
AcDbRotatedDimension
  0
LINE
  5
1483A
330
747D
100
AcDbEntity
  8
寸法
 48
50.0
100
AcDbLine
 10
6043.563058493196
 20
7212.261280798173
 30
0.0
 11
6262.714998668921
 21
7212.261280798173
 31
0.0
  0
LINE
  5
1483B
330
747D
100
AcDbEntity
  8
寸法
 48
50.0
100
AcDbLine
 10
6262.714998668921
 20
7212.261280798173
 30
0.0
 11
6173.430780073499
 21
7236.18491506766
 31
0.0
  0
LINE
  5
1483C
330
747D
100
AcDbEntity
  8
寸法
 48
50.0
100
AcDbLine
 10
6173.430780073499
 20
7236.18491506766
 30
0.0
 11
6173.430780073499
 21
7182.521280485871
 31
0.0
  0
LINE
  5
1483D
330
747D
100
AcDbEntity
  8
寸法
 48
50.0
100
AcDbLine
 10
5691.69357115194
 20
7179.039324312838
 30
0.0
 11
5743.099579062044
 21
7179.039324312838
 31
0.0
  0
LINE
  5
1483E
330
747D
100
AcDbEntity
  8
寸法
 48
50.0
100
AcDbLine
 10
5743.099579062044
 20
7179.039324312838
 30
0.0
 11
5743.099579062044
 21
7210.349482965003
 31
0.0
  0
LINE
  5
1483F
330
747D
100
AcDbEntity
  8
寸法
 48
50.0
100
AcDbLine
 10
5743.099579062044
 20
7210.349482965003
 30
0.0
 11
5772.860911053468
 21
7210.349482965003
 31
0.0
  0
LINE
  5
14840
330
747D
100
AcDbEntity
  8
寸法
 48
50.0
100
AcDbLine
 10
5772.860911053468
 20
7210.349482965003
 30
0.0
 11
5717.396575106993
 21
7247.928933893615
 31
0.0
  0
LINE
  5
14841
330
747D
100
AcDbEntity
  8
寸法
 48
50.0
100
AcDbLine
 10
5661.932239160517
 20
7210.349482965003
 30
0.0
 11
5717.396575106993
 21
7247.928933893615
 31
0.0
  0
LINE
  5
14842
330
747D
100
AcDbEntity
  8
寸法
 48
50.0
100
AcDbLine
 10
5691.69357115194
 20
7210.349482965003
 30
0.0
 11
5661.932239160517
 21
7210.349482965003
 31
0.0
  0
LINE
  5
14843
330
747D
100
AcDbEntity
  8
寸法
 48
50.0
100
AcDbLine
 10
5691.69357115194
 20
7179.039324312838
 30
0.0
 11
5691.69357115194
 21
7210.349482965003
 31
0.0
  0
LINE
  5
14844
330
747D
100
AcDbEntity
  8
寸法
 48
50.0
100
AcDbLine
 10
5743.099579062044
 20
7179.039324312838
 30
0.0
 11
5691.69357115194
 21
7179.039324312838
 31
0.0
  0
TEXT
  5
149A1
330
747D
100
AcDbEntity
  8
部品1
100
AcDbText
 10
6073.686645730737
 20
1927.790927806517
 30
0.0
 40
135.0
  1
正面図
  7
STYLE2
100
AcDbText
  0
LWPOLYLINE
  5
149A2
330
747D
100
AcDbEntity
  8
部品1
100
AcDbPolyline
 90
        4
 70
     1
 43
0.0
 10
5983.161241992782
 20
2120.684457025041
 10
5983.161241992782
 20
1880.792135479508
 10
6746.631908221221
 20
1880.792135479508
 10
6746.631908221221
 20
2120.684457025041
  0
TEXT
  5
149A3
330
747D
100
AcDbEntity
  8
部品1
100
AcDbText
 10
9940.722571273477
 20
1927.790927806517
 30
0.0
 40
135.0
  1
側面図
  7
STYLE2
100
AcDbText
  0
LWPOLYLINE
  5
149A4
330
747D
100
AcDbEntity
  8
部品1
100
AcDbPolyline
 90
        4
 70
     1
 43
0.0
 10
9851.276469849869
 20
2120.684457025041
 10
9851.276469849869
 20
1880.792135479508
 10
10614.74713607831
 20
1880.792135479508
 10
10614.74713607831
 20
2120.684457025041
  0
LINE
  5
149E3
330
747D
100
AcDbEntity
  8
部品1
100
AcDbLine
 10
5259.896575106991
 20
3142.0
 30
0.0
 11
7469.896575107009
 21
3142.000000000021
 31
0.0
  0
LINE
  5
14A32
330
747D
100
AcDbEntity
  8
細線
100
AcDbLine
 10
6768.896575106985
 20
7348.93368318472
 30
0.0
 11
6753.896575106984
 21
7348.933683184715
 31
0.0
  0
LINE
  5
14A33
330
747D
100
AcDbEntity
  8
細線
100
AcDbLine
 10
6753.896575106982
 20
7341.933683184722
 30
0.0
 11
6753.896575106984
 21
7348.933683184715
 31
0.0
  0
LINE
  5
14A58
330
747D
100
AcDbEntity
  8
細線
100
AcDbLine
 10
6753.896575106988
 20
7354.93368318472
 30
0.0
 11
6747.896575106988
 21
7354.93368318472
 31
0.0
  0
LINE
  5
14AA3
330
747D
100
AcDbEntity
  8
細線
 48
50.0
100
AcDbLine
 10
7407.896575106976
 20
7336.933683184719
 30
0.0
 11
7409.896575106976
 21
7336.933683184719
 31
0.0
  0
LINE
  5
14AC7
330
747D
100
AcDbEntity
  8
破線
 48
10.0
100
AcDbLine
 10
6044.396575106999
 20
7412.433683184649
 30
0.0
 11
6044.396575107001
 21
8171.933683184667
 31
0.0
  0
LINE
  5
14AC8
330
747D
100
AcDbEntity
  8
破線
 48
10.0
100
AcDbLine
 10
5994.396575107002
 20
7412.433683184644
 30
0.0
 11
5994.396575106998
 21
8171.933683184663
 31
0.0
  0
LINE
  5
14ADA
330
747D
100
AcDbEntity
  8
細線
100
AcDbLine
 10
6986.896575106979
 20
7382.933683184721
 30
0.0
 11
6986.896575106978
 21
7354.933683184724
 31
0.0
  0
LINE
  5
14ADC
330
747D
100
AcDbEntity
  8
細線
100
AcDbLine
 10
6971.896575106979
 20
7382.933683184721
 30
0.0
 11
6956.896575106977
 21
7354.933683184724
 31
0.0
  0
LINE
  5
14AE0
330
747D
100
AcDbEntity
  8
細線
100
AcDbLine
 10
6451.396575107016
 20
7318.933683184798
 30
0.0
 11
6443.89657510702
 21
7341.933683184727
 31
0.0
  0
LINE
  5
14AE1
330
747D
100
AcDbEntity
  8
細線
100
AcDbLine
 10
6391.396575107016
 20
7318.933683184808
 30
0.0
 11
6398.896575107021
 21
7341.933683184727
 31
0.0
  0
LINE
  5
14AE2
330
747D
100
AcDbEntity
  8
細線
100
AcDbLine
 10
5739.896575106912
 20
7284.933683184822
 30
0.0
 11
5747.396575106917
 21
7307.93368318474
 31
0.0
  0
LINE
  5
14AE3
330
747D
100
AcDbEntity
  8
細線
100
AcDbLine
 10
5799.896575106912
 20
7284.933683184812
 30
0.0
 11
5792.396575106916
 21
7307.93368318474
 31
0.0
  0
LINE
  5
14C0C
330
747D
100
AcDbEntity
  8
部品1
100
AcDbLine
 10
7413.396575106979
 20
7412.433683184724
 30
0.0
 11
5316.396575106873
 21
7412.433683184606
 31
0.0
  0
LINE
  5
14C0D
330
747D
100
AcDbEntity
  8
破線
 48
10.0
100
AcDbLine
 10
7389.89657510698
 20
7435.933683184725
 30
0.0
 11
6735.396575106999
 21
7435.933683184687
 31
0.0
  0
LINE
  5
14C0E
330
747D
100
AcDbEntity
  8
破線
 48
10.0
100
AcDbLine
 10
6685.396575106999
 20
7435.933683184683
 30
0.0
 11
6044.396575106999
 21
7435.933683184646
 31
0.0
  0
LINE
  5
14C1E
330
747D
100
AcDbEntity
  8
部品1
100
AcDbLine
 10
7413.396575107011
 20
8171.933683184725
 30
0.0
 11
7413.396575106978
 21
7412.433683184727
 31
0.0
  0
LINE
  5
14C1F
330
747D
100
AcDbEntity
  8
破線
 48
10.0
100
AcDbLine
 10
7389.896575107012
 20
8171.933683184725
 30
0.0
 11
7389.896575106982
 21
7435.933683184725
 31
0.0
  0
LINE
  5
14C20
330
747D
100
AcDbEntity
  8
部品1
 48
50.0
100
AcDbLine
 10
7413.396575106979
 20
7412.433683184724
 30
0.0
 11
7441.896575106977
 21
7383.933683184726
 31
0.0
  0
LINE
  5
14C31
330
747D
100
AcDbEntity
  8
部品1
100
AcDbLine
 10
5316.396575106962
 20
8171.933683184578
 30
0.0
 11
5316.396575106991
 21
7412.433683184723
 31
0.0
  0
LINE
  5
14C32
330
747D
100
AcDbEntity
  8
破線
 48
10.0
100
AcDbLine
 10
5339.896575106958
 20
8171.933683184581
 30
0.0
 11
5339.89657510699
 21
7435.933683184605
 31
0.0
  0
LINE
  5
14C33
330
747D
100
AcDbEntity
  8
部品1
 48
50.0
100
AcDbLine
 10
5316.396575106991
 20
7412.433683184724
 30
0.0
 11
5287.896575106993
 21
7383.933683184726
 31
0.0
  0
LINE
  5
14C5B
330
747D
100
AcDbEntity
  8
細線
100
AcDbLine
 10
5319.896575106993
 20
7288.933683184591
 30
0.0
 11
5319.896575106993
 21
7284.93368318464
 31
0.0
  0
DIMENSION
  5
14D62
330
747D
100
AcDbEntity
  8
寸法
100
AcDbDimension
  2
*D25
 10
6502.177919925197
 20
7950.926653290173
 30
0.0
 11
5765.319254562259
 21
7950.926653290173
 31
0.0
 70
   160
 71
     5
 42
1273.000000000015
  3
INABA_S40G
100
AcDbAlignedDimension
 13
5288.396575107
 23
8171.933683184576
 33
0.0
 14
6561.396575107014
 24
8171.933683184622
 34
0.0
100
AcDbRotatedDimension
1001
ACAD
1000
DSTYLE
1002
{
1002
}
  0
LINE
  5
14D86
330
747D
100
AcDbEntity
  8
細線
100
AcDbLine
 10
5319.896575106991
 20
4932.000000000003
 30
0.0
 11
7409.896575107008
 21
4932.0
 31
0.0
  0
TEXT
  5
14DEF
330
747D
100
AcDbEntity
  8
文字
 62
     7
 48
50.0
100
AcDbText
 10
14641.2525855784
 20
871.1744590657925
 30
0.0
 40
100.0
  1
～一般型・多雪地型～
  7
STYLE2
100
AcDbText
  0
TEXT
  5
15A76
330
747D
100
AcDbEntity
  8
文字
 62
     7
 48
50.0
100
AcDbText
 10
14474.23592889562
 20
483.8967129911411
 30
0.0
 40
160.0
  1
ＮＸＮ－３０Ｓ
  7
STYLE2
100
AcDbText
  0
LINE
  5
15A9A
330
747D
100
AcDbEntity
  8
細線
 48
50.0
100
AcDbLine
 10
10090.51180296409
 20
4940.0
 30
0.0
 11
10090.51180296409
 21
3150.0
 31
0.0
  0
LINE
  5
15A9B
330
747D
100
AcDbEntity
  8
細線
 48
50.0
100
AcDbLine
 10
10075.51180296408
 20
4940.0
 30
0.0
 11
10075.51180296408
 21
3150.0
 31
0.0
  0
LINE
  5
15A9C
330
747D
100
AcDbEntity
  8
細線
 48
50.0
100
AcDbLine
 10
10215.51180296409
 20
4940.0
 30
0.0
 11
10215.51180296409
 21
3150.0
 31
0.0
  0
LINE
  5
15A9D
330
747D
100
AcDbEntity
  8
細線
 48
50.0
100
AcDbLine
 10
10230.51180296409
 20
4940.0
 30
0.0
 11
10230.51180296409
 21
3150.0
 31
0.0
  0
LINE
  5
15A9E
330
747D
100
AcDbEntity
  8
細線
 48
50.0
100
AcDbLine
 10
10370.51180296409
 20
4940.0
 30
0.0
 11
10370.51180296409
 21
3150.0
 31
0.0
  0
LINE
  5
15A9F
330
747D
100
AcDbEntity
  8
細線
 48
50.0
100
AcDbLine
 10
10355.51180296409
 20
4940.0
 30
0.0
 11
10355.51180296409
 21
3150.0
 31
0.0
  0
LINE
  5
15AA0
330
747D
100
AcDbEntity
  8
細線
 48
50.0
100
AcDbLine
 10
9935.511802964088
 20
4940.0
 30
0.0
 11
9935.511802964088
 21
3150.0
 31
0.0
  0
LINE
  5
15AA1
330
747D
100
AcDbEntity
  8
細線
 48
50.0
100
AcDbLine
 10
9950.511802964086
 20
4940.0
 30
0.0
 11
9950.511802964086
 21
3150.0
 31
0.0
  0
LINE
  5
15AA2
330
747D
100
AcDbEntity
  8
細線
 48
50.0
100
AcDbLine
 10
9810.511802964088
 20
4940.0
 30
0.0
 11
9810.511802964088
 21
3150.0
 31
0.0
  0
LINE
  5
15AA3
330
747D
100
AcDbEntity
  8
細線
 48
50.0
100
AcDbLine
 10
9795.511802964087
 20
4940.0
 30
0.0
 11
9795.511802964087
 21
3150.0
 31
0.0
  0
LINE
  5
15AA4
330
747D
100
AcDbEntity
  8
細線
 48
50.0
100
AcDbLine
 10
9655.511802964088
 20
4940.0
 30
0.0
 11
9655.511802964088
 21
3150.0
 31
0.0
  0
LINE
  5
15AA5
330
747D
100
AcDbEntity
  8
細線
 48
50.0
100
AcDbLine
 10
9670.511802964087
 20
4940.0
 30
0.0
 11
9670.511802964087
 21
3150.0
 31
0.0
  0
LINE
  5
18FE5
330
747D
100
AcDbEntity
  8
部品1
100
AcDbLine
 10
9485.55678932105
 20
5173.717735334267
 30
0.0
 11
10980.62367982555
 21
5118.050841327565
 31
0.0
  0
LINE
  5
18FE6
330
747D
100
AcDbEntity
  8
部品1
100
AcDbLine
 10
9493.354367566041
 20
5032.781025068967
 30
0.0
 11
10962.67550350393
 21
4993.162643453187
 31
0.0
  0
LINE
  5
18FE9
330
747D
100
AcDbEntity
  8
細線
 48
50.0
100
AcDbLine
 10
9511.011802964089
 20
5172.399676375405
 30
0.0
 11
9505.722701408577
 21
5032.31404374805
 31
0.0
  0
LINE
  5
18FEA
330
747D
100
AcDbEntity
  8
細線
 48
50.0
100
AcDbLine
 10
10955.01180296409
 20
5119.377022653722
 30
0.0
 11
10950.26412007609
 21
4993.631250162977
 31
0.0
  0
LINE
  5
1982C
330
747D
100
AcDbEntity
  8
部品1
 48
50.0
100
AcDbLine
 10
9478.196088877195
 20
5166.593546164693
 30
0.0
 11
9478.576348655009
 21
5146.666581718282
 31
0.0
  0
LINE
  5
1982D
330
747D
100
AcDbEntity
  8
部品1
 48
50.0
100
AcDbLine
 10
9481.645120761251
 20
5143.091300224809
 30
0.0
 11
9483.349022252617
 21
5053.800803518162
 31
0.0
  0
LINE
  5
1982F
330
747D
100
AcDbEntity
  8
細線
 48
50.0
100
AcDbLine
 10
9479.051226064902
 20
5146.017081841361
 30
0.0
 11
10984.68721081007
 21
5089.802920818959
 31
0.0
  0
LINE
  5
19830
330
747D
100
AcDbEntity
  8
細線
 48
50.0
100
AcDbLine
 10
9483.811701302187
 20
5053.155570143498
 30
0.0
 11
10973.81536573283
 21
5012.75629478743
 31
0.0
  0
LINE
  5
19831
330
747D
100
AcDbEntity
  8
部品1
 48
50.0
100
AcDbLine
 10
9486.417794358859
 20
5050.22552202469
 30
0.0
 11
9486.619746979291
 21
5039.642486631597
 31
0.0
  0
ARC
  5
19832
330
747D
100
AcDbEntity
  8
部品1
 48
50.0
100
AcDbCircle
 10
9485.194814705534
 20
5166.727100572121
 30
0.0
 40
7.0
100
AcDbArc
 50
87.03587545295627
 51
181.093224029279
  0
ARC
  5
19833
330
747D
100
AcDbEntity
  8
部品1
 48
50.0
100
AcDbCircle
 10
9493.61847280763
 20
5039.776041039026
 30
0.0
 40
7.0
100
AcDbArc
 50
181.0932240292862
 51
267.8377559870786
  0
ARC
  5
19835
330
747D
100
AcDbEntity
  8
部品1
100
AcDbCircle
 10
9483.418340432427
 20
5050.168284421507
 30
0.0
 40
3.0
100
AcDbArc
 50
1.093224029286912
 51
80.18775403152167
  0
ARC
  5
19836
330
747D
100
AcDbEntity
  8
部品1
100
AcDbCircle
 10
9478.645666834822
 20
5143.034062621626
 30
0.0
 40
3.0
100
AcDbArc
 50
1.093224029279533
 51
80.18775403159015
  0
ARC
  5
19837
330
747D
100
AcDbEntity
  8
部品1
100
AcDbCircle
 10
9479.276221237844
 20
5146.679937159023
 30
0.0
 40
0.7
100
AcDbArc
 50
181.0932240292223
 51
260.1877540315805
  0
ARC
  5
19838
330
747D
100
AcDbEntity
  8
部品1
100
AcDbCircle
 10
9484.048894835451
 20
5053.814158958903
 30
0.0
 40
0.7
100
AcDbArc
 50
181.0932240292252
 51
260.1877540315805
  0
LINE
  5
1983C
330
747D
100
AcDbEntity
  8
部品1
 48
50.0
100
AcDbLine
 10
10987.22570577479
 20
5110.351195892643
 30
0.0
 11
10985.19508458382
 21
5090.406154634864
 31
0.0
  0
LINE
  5
1983D
330
747D
100
AcDbEntity
  8
部品1
 48
50.0
100
AcDbLine
 10
10981.84251809934
 20
5087.095520561955
 30
0.0
 11
10974.3357388345
 21
5013.362899816943
 31
0.0
  0
LINE
  5
1983E
330
747D
100
AcDbEntity
  8
部品1
 48
50.0
100
AcDbLine
 10
10970.98317235001
 20
5010.052265744031
 30
0.0
 11
10969.90360931027
 21
4999.448648750473
 31
0.0
  0
ARC
  5
1983F
330
747D
100
AcDbEntity
  8
部品1
 48
50.0
100
AcDbCircle
 10
10980.26170521004
 20
5111.060206565419
 30
0.0
 40
7.0
100
AcDbArc
 50
354.1866997665259
 51
87.03587545295638
  0
ARC
  5
19840
330
747D
100
AcDbEntity
  8
部品1
 48
50.0
100
AcDbCircle
 10
10962.93960874552
 20
5000.157659423246
 30
0.0
 40
7.0
100
AcDbArc
 50
267.8377559870788
 51
354.1866997665298
  0
ARC
  5
19841
330
747D
100
AcDbEntity
  8
部品1
100
AcDbCircle
 10
10973.96774402062
 20
5009.748404027128
 30
0.0
 40
3.0
100
AcDbArc
 50
95.09216976421097
 51
174.1866997665351
  0
ARC
  5
19842
330
747D
100
AcDbEntity
  8
部品1
100
AcDbCircle
 10
10984.82708976995
 20
5086.791658845052
 30
0.0
 40
3.0
100
AcDbArc
 50
95.09216976431478
 51
174.1866997665315
  0
ARC
  5
19843
330
747D
100
AcDbEntity
  8
部品1
100
AcDbCircle
 10
10984.49868452735
 20
5090.477055702141
 30
0.0
 40
0.7
100
AcDbArc
 50
275.0921697642604
 51
354.1866997665291
  0
ARC
  5
19844
330
747D
100
AcDbEntity
  8
部品1
100
AcDbCircle
 10
10973.63933877803
 20
5013.433800884218
 30
0.0
 40
0.7
100
AcDbArc
 50
275.0921697642539
 51
354.1866997666923
  0
DIMENSION
  5
19878
330
747D
100
AcDbEntity
  8
寸法
 48
50.0
100
AcDbDimension
  2
*D26
 10
10988.01180296409
 20
5573.657453579304
 30
0.0
 11
11194.05904705857
 21
5573.657453579304
 31
0.0
 70
   160
 71
     5
 42
80.0
  3
INABA_S40G
100
AcDbAlignedDimension
 13
10908.01180296409
 23
5121.810679611654
 33
0.0
 14
10988.01180296409
 24
5120.0
 34
0.0
100
AcDbRotatedDimension
1001
ACAD
1000
DSTYLE
1002
{
1070
   174
1070
     0
1070
   272
1070
     1
1070
   288
1070
     0
1070
   341
1005
0
1002
}
  0
DIMENSION
  5
19A46
330
747D
100
AcDbEntity
  8
寸法
 48
50.0
100
AcDbDimension
  2
*D27
 10
8885.745551252481
 20
5196.822490897521
 30
0.0
 11
8894.423294904603
 21
5426.658729913715
 31
0.0
 70
   160
 71
     5
 42
141.0
  3
INABA_S40G
100
AcDbAlignedDimension
 13
9493.354367566041
 23
5032.781025068967
 33
0.0
 14
9498.674201717996
 24
5173.68063246585
 34
0.0
 50
87.83775598709222
100
AcDbRotatedDimension
1001
ACAD
1000
DSTYLE
1002
{
1070
   174
1070
     0
1070
   272
1070
     1
1070
   288
1070
     0
1070
   341
1005
0
1002
}
  0
LINE
  5
1B049
330
747D
100
AcDbEntity
  8
部品1
100
AcDbLine
 10
6768.896575106987
 20
4932.000000000002
 30
0.0
 11
6768.896575106989
 21
3156.500000000015
 31
0.0
  0
LINE
  5
1B556
330
747D
100
AcDbEntity
  8
細線
100
AcDbLine
 10
6014.896575106991
 20
4932.0
 30
0.0
 11
6014.896575106991
 21
3149.000000000008
 31
0.0
  0
LINE
  5
1B557
330
747D
100
AcDbEntity
  8
細線
100
AcDbLine
 10
5944.896575106992
 20
4932.0
 30
0.0
 11
5944.896575106991
 21
3149.000000000007
 31
0.0
  0
LINE
  5
1B558
330
747D
100
AcDbEntity
  8
細線
100
AcDbLine
 10
5874.896575106991
 20
4932.0
 30
0.0
 11
5874.896575106991
 21
3149.000000000006
 31
0.0
  0
LINE
  5
1B559
330
747D
100
AcDbEntity
  8
細線
100
AcDbLine
 10
5804.896575106992
 20
4932.0
 30
0.0
 11
5804.89657510699
 21
3149.000000000004
 31
0.0
  0
LINE
  5
1B55A
330
747D
100
AcDbEntity
  8
細線
100
AcDbLine
 10
5734.896575106992
 20
4932.0
 30
0.0
 11
5734.896575106991
 21
3149.000000000004
 31
0.0
  0
LINE
  5
1B55B
330
747D
100
AcDbEntity
  8
細線
100
AcDbLine
 10
5664.896575106991
 20
4932.0
 30
0.0
 11
5664.896575106991
 21
3149.000000000004
 31
0.0
  0
LINE
  5
1B55D
330
747D
100
AcDbEntity
  8
部品1
100
AcDbLine
 10
5480.89657510699
 20
4932.000000000003
 30
0.0
 11
5480.896575106992
 21
3149.000000000006
 31
0.0
  0
LINE
  5
1B55E
330
747D
100
AcDbEntity
  8
部品1
100
AcDbLine
 10
5430.89657510699
 20
4932.000000000003
 30
0.0
 11
5430.896575106991
 21
3149.000000000005
 31
0.0
  0
LINE
  5
1B560
330
747D
100
AcDbEntity
  8
細線
100
AcDbLine
 10
5472.89657510699
 20
4932.000000000003
 30
0.0
 11
5472.896575106992
 21
3149.000000000006
 31
0.0
  0
LINE
  5
1B561
330
747D
100
AcDbEntity
  8
細線
100
AcDbLine
 10
5438.896575106991
 20
4932.000000000003
 30
0.0
 11
5438.896575106991
 21
3149.000000000005
 31
0.0
  0
LINE
  5
1B562
330
747D
100
AcDbEntity
  8
細線
100
AcDbLine
 10
6666.396575106986
 20
4932.0
 30
0.0
 11
6666.396575106988
 21
3156.500000000013
 31
0.0
  0
LINE
  5
1B563
330
747D
100
AcDbEntity
  8
細線
100
AcDbLine
 10
6596.396575106988
 20
4932.0
 30
0.0
 11
6596.396575106988
 21
3156.500000000013
 31
0.0
  0
LINE
  5
1B564
330
747D
100
AcDbEntity
  8
細線
100
AcDbLine
 10
6526.396575106987
 20
4932.0
 30
0.0
 11
6526.396575106989
 21
3156.500000000013
 31
0.0
  0
LINE
  5
1B565
330
747D
100
AcDbEntity
  8
細線
100
AcDbLine
 10
6456.396575106987
 20
4932.0
 30
0.0
 11
6456.396575106989
 21
3156.500000000013
 31
0.0
  0
LINE
  5
1B566
330
747D
100
AcDbEntity
  8
細線
100
AcDbLine
 10
6386.396575106988
 20
4932.0
 30
0.0
 11
6386.396575106989
 21
3156.500000000013
 31
0.0
  0
LINE
  5
1B567
330
747D
100
AcDbEntity
  8
細線
100
AcDbLine
 10
6316.396575106987
 20
4932.0
 30
0.0
 11
6316.396575106988
 21
3156.500000000013
 31
0.0
  0
LINE
  5
1B594
330
747D
100
AcDbEntity
  8
細線
100
AcDbLine
 10
7278.896575106975
 20
4932.0
 30
0.0
 11
7278.896575106975
 21
3156.500000000019
 31
0.0
  0
LINE
  5
1B595
330
747D
100
AcDbEntity
  8
細線
100
AcDbLine
 10
7208.896575106975
 20
4932.0
 30
0.0
 11
7208.896575106975
 21
3156.500000000019
 31
0.0
  0
LINE
  5
1B596
330
747D
100
AcDbEntity
  8
細線
100
AcDbLine
 10
7138.896575106976
 20
4932.0
 30
0.0
 11
7138.896575106976
 21
3156.500000000019
 31
0.0
  0
LINE
  5
1B597
330
747D
100
AcDbEntity
  8
細線
100
AcDbLine
 10
7068.896575106975
 20
4932.0
 30
0.0
 11
7068.896575106975
 21
3156.500000000019
 31
0.0
  0
LINE
  5
1B598
330
747D
100
AcDbEntity
  8
細線
100
AcDbLine
 10
6998.896575106975
 20
4932.0
 30
0.0
 11
6998.896575106975
 21
3156.500000000019
 31
0.0
  0
LINE
  5
1B599
330
747D
100
AcDbEntity
  8
細線
100
AcDbLine
 10
6928.896575106975
 20
4932.0
 30
0.0
 11
6928.896575106975
 21
3156.500000000019
 31
0.0
  0
LINE
  5
1B9FE
330
747D
100
AcDbEntity
  8
部品1
 48
50.0
100
AcDbLine
 10
5354.896575106991
 20
4105.500000000011
 30
0.0
 11
5407.896575106991
 21
4105.500000000012
 31
0.0
  0
ARC
  5
1BAB8
330
747D
100
AcDbEntity
  8
部品1
 48
0.01
100
AcDbCircle
 10
6956.896575107009
 20
4972.500000000001
 30
0.0
 40
2.0
100
AcDbArc
 50
180.0
 51
270.0
  0
ARC
  5
1BAB9
330
747D
100
AcDbEntity
  8
部品1
 48
0.01
100
AcDbCircle
 10
6956.896575107009
 20
5004.000000000001
 30
0.0
 40
2.0
100
AcDbArc
 50
90.0
 51
180.0
  0
ARC
  5
1BABA
330
747D
100
AcDbEntity
  8
部品1
 48
0.01
100
AcDbCircle
 10
7132.896575107008
 20
4972.500000000001
 30
0.0
 40
2.0
100
AcDbArc
 50
270.0
 51
0.0
  0
ARC
  5
1BABB
330
747D
100
AcDbEntity
  8
部品1
 48
0.01
100
AcDbCircle
 10
7132.896575107008
 20
5004.000000000001
 30
0.0
 40
2.0
100
AcDbArc
 50
0.0
 51
90.0
  0
LINE
  5
1BABC
330
747D
100
AcDbEntity
  8
細線
100
AcDbLine
 10
7044.89657510701
 20
4976.500000000001
 30
0.0
 11
6970.896575107009
 21
4976.500000000001
 31
0.0
  0
LINE
  5
1BABD
330
747D
100
AcDbEntity
  8
細線
100
AcDbLine
 10
7044.896575107009
 20
4999.500000000001
 30
0.0
 11
7118.896575107008
 21
4999.500000000001
 31
0.0
  0
LINE
  5
1BABE
330
747D
100
AcDbEntity
  8
細線
100
AcDbLine
 10
7118.896575107008
 20
4976.500000000001
 30
0.0
 11
7044.896575107009
 21
4976.500000000001
 31
0.0
  0
LINE
  5
1BABF
330
747D
100
AcDbEntity
  8
細線
100
AcDbLine
 10
6970.896575107009
 20
4999.500000000001
 30
0.0
 11
7044.896575107009
 21
4999.500000000001
 31
0.0
  0
LINE
  5
1BAC0
330
747D
100
AcDbEntity
  8
細線
100
AcDbLine
 10
6970.896575107009
 20
4976.500000000001
 30
0.0
 11
6970.896575107009
 21
4999.500000000001
 31
0.0
  0
LINE
  5
1BAC1
330
747D
100
AcDbEntity
  8
細線
100
AcDbLine
 10
7118.896575107008
 20
4999.500000000001
 30
0.0
 11
7118.896575107008
 21
4976.500000000001
 31
0.0
  0
LINE
  5
1BAC2
330
747D
100
AcDbEntity
  8
部品1
 48
0.01
100
AcDbLine
 10
6954.89657510701
 20
4972.500000000001
 30
0.0
 11
6954.89657510701
 21
5004.000000000001
 31
0.0
  0
LINE
  5
1BAC3
330
747D
100
AcDbEntity
  8
部品1
 48
0.01
100
AcDbLine
 10
7132.896575107008
 20
4970.500000000001
 30
0.0
 11
6956.896575107009
 21
4970.500000000001
 31
0.0
  0
LINE
  5
1BAC4
330
747D
100
AcDbEntity
  8
部品1
 48
0.01
100
AcDbLine
 10
7134.89657510701
 20
5004.000000000001
 30
0.0
 11
7134.89657510701
 21
4972.500000000001
 31
0.0
  0
LINE
  5
1BAC5
330
747D
100
AcDbEntity
  8
部品1
 48
0.01
100
AcDbLine
 10
6956.896575107009
 20
5006.000000000001
 30
0.0
 11
7132.896575107008
 21
5006.000000000001
 31
0.0
  0
LINE
  5
1BAD3
330
747D
100
AcDbEntity
  8
細線
100
AcDbLine
 10
7118.896575107008
 20
4993.5
 30
0.0
 11
7044.896575107009
 21
4993.5
 31
0.0
  0
LINE
  5
1BAD4
330
747D
100
AcDbEntity
  8
細線
100
AcDbLine
 10
7118.896575107008
 20
4987.5
 30
0.0
 11
7044.896575107009
 21
4987.5
 31
0.0
  0
LINE
  5
1BAD5
330
747D
100
AcDbEntity
  8
細線
100
AcDbLine
 10
7118.89657510701
 20
4981.500000000001
 30
0.0
 11
7044.896575107009
 21
4981.500000000001
 31
0.0
  0
LINE
  5
1BAD7
330
747D
100
AcDbEntity
  8
細線
100
AcDbLine
 10
7118.896575107008
 20
4993.5
 30
0.0
 11
7049.896575107009
 21
4993.5
 31
0.0
  0
LINE
  5
1BAE0
330
747D
100
AcDbEntity
  8
細線
100
AcDbLine
 10
6970.896575107009
 20
4993.5
 30
0.0
 11
7044.896575107009
 21
4993.5
 31
0.0
  0
LINE
  5
1BAE4
330
747D
100
AcDbEntity
  8
細線
100
AcDbLine
 10
6970.896575107009
 20
4981.5
 30
0.0
 11
7044.896575107009
 21
4981.500000000001
 31
0.0
  0
LINE
  5
1BAE5
330
747D
100
AcDbEntity
  8
細線
100
AcDbLine
 10
6970.896575107009
 20
4987.5
 30
0.0
 11
7044.896575107009
 21
4987.5
 31
0.0
  0
LINE
  5
1BDC6
330
747D
100
AcDbEntity
  8
細線
100
AcDbLine
 10
7044.896575107009
 20
4999.500000000001
 30
0.0
 11
7044.89657510701
 21
4976.500000000001
 31
0.0
  0
LINE
  5
1BDD2
330
747D
100
AcDbEntity
  8
細線
100
AcDbLine
 10
5684.896575106991
 20
4999.500000000001
 30
0.0
 11
5684.896575106989
 21
4976.5
 31
0.0
  0
LINE
  5
1BDD3
330
747D
100
AcDbEntity
  8
細線
100
AcDbLine
 10
5758.89657510699
 20
4987.5
 30
0.0
 11
5684.896575106991
 21
4987.5
 31
0.0
  0
LINE
  5
1BDD4
330
747D
100
AcDbEntity
  8
細線
100
AcDbLine
 10
5758.89657510699
 20
4981.499999999999
 30
0.0
 11
5684.896575106991
 21
4981.5
 31
0.0
  0
LINE
  5
1BDD5
330
747D
100
AcDbEntity
  8
細線
100
AcDbLine
 10
5758.89657510699
 20
4993.5
 30
0.0
 11
5684.896575106991
 21
4993.5
 31
0.0
  0
LINE
  5
1BDD6
330
747D
100
AcDbEntity
  8
細線
100
AcDbLine
 10
5610.896575106991
 20
4993.5
 30
0.0
 11
5679.89657510699
 21
4993.5
 31
0.0
  0
LINE
  5
1BDD7
330
747D
100
AcDbEntity
  8
細線
100
AcDbLine
 10
5610.89657510699
 20
4981.5
 30
0.0
 11
5684.896575106991
 21
4981.5
 31
0.0
  0
LINE
  5
1BDD8
330
747D
100
AcDbEntity
  8
細線
100
AcDbLine
 10
5610.896575106991
 20
4987.5
 30
0.0
 11
5684.896575106991
 21
4987.5
 31
0.0
  0
LINE
  5
1BDD9
330
747D
100
AcDbEntity
  8
細線
100
AcDbLine
 10
5610.896575106991
 20
4993.5
 30
0.0
 11
5684.896575106991
 21
4993.5
 31
0.0
  0
LINE
  5
1BDDA
330
747D
100
AcDbEntity
  8
部品1
 48
0.01
100
AcDbLine
 10
5772.89657510699
 20
5006.0
 30
0.0
 11
5596.896575106991
 21
5006.0
 31
0.0
  0
LINE
  5
1BDDB
330
747D
100
AcDbEntity
  8
部品1
 48
0.01
100
AcDbLine
 10
5594.896575106991
 20
5004.0
 30
0.0
 11
5594.896575106991
 21
4972.5
 31
0.0
  0
LINE
  5
1BDDC
330
747D
100
AcDbEntity
  8
部品1
 48
0.01
100
AcDbLine
 10
5596.896575106991
 20
4970.5
 30
0.0
 11
5772.89657510699
 21
4970.5
 31
0.0
  0
LINE
  5
1BDDD
330
747D
100
AcDbEntity
  8
部品1
 48
0.01
100
AcDbLine
 10
5774.89657510699
 20
4972.5
 30
0.0
 11
5774.896575106991
 21
5004.0
 31
0.0
  0
LINE
  5
1BDDE
330
747D
100
AcDbEntity
  8
細線
100
AcDbLine
 10
5610.896575106991
 20
4999.500000000001
 30
0.0
 11
5610.896575106991
 21
4976.5
 31
0.0
  0
LINE
  5
1BDDF
330
747D
100
AcDbEntity
  8
細線
100
AcDbLine
 10
5758.896575106991
 20
4976.5
 30
0.0
 11
5758.896575106991
 21
4999.500000000001
 31
0.0
  0
LINE
  5
1BDE0
330
747D
100
AcDbEntity
  8
細線
100
AcDbLine
 10
5758.896575106991
 20
4999.500000000001
 30
0.0
 11
5684.896575106991
 21
4999.500000000001
 31
0.0
  0
LINE
  5
1BDE1
330
747D
100
AcDbEntity
  8
細線
100
AcDbLine
 10
5610.896575106991
 20
4976.5
 30
0.0
 11
5684.896575106991
 21
4976.5
 31
0.0
  0
LINE
  5
1BDE2
330
747D
100
AcDbEntity
  8
細線
100
AcDbLine
 10
5684.896575106991
 20
4999.500000000001
 30
0.0
 11
5610.896575106991
 21
4999.500000000001
 31
0.0
  0
LINE
  5
1BDE3
330
747D
100
AcDbEntity
  8
細線
100
AcDbLine
 10
5684.896575106989
 20
4976.5
 30
0.0
 11
5758.896575106991
 21
4976.5
 31
0.0
  0
ARC
  5
1BDE4
330
747D
100
AcDbEntity
  8
部品1
 48
0.01
100
AcDbCircle
 10
5596.896575106991
 20
5004.0
 30
0.0
 40
2.0
100
AcDbArc
 50
90.0
 51
180.0
  0
ARC
  5
1BDE5
330
747D
100
AcDbEntity
  8
部品1
 48
0.01
100
AcDbCircle
 10
5596.896575106991
 20
4972.5
 30
0.0
 40
2.0
100
AcDbArc
 50
180.0
 51
270.0
  0
ARC
  5
1BDE6
330
747D
100
AcDbEntity
  8
部品1
 48
0.01
100
AcDbCircle
 10
5772.89657510699
 20
5004.0
 30
0.0
 40
2.0
100
AcDbArc
 50
0.000000000000007
 51
90.0
  0
ARC
  5
1BDE7
330
747D
100
AcDbEntity
  8
部品1
 48
0.01
100
AcDbCircle
 10
5772.89657510699
 20
4972.5
 30
0.0
 40
2.0
100
AcDbArc
 50
270.0
 51
0.000000000000007
  0
LINE
  5
1BDE8
330
747D
100
AcDbEntity
  8
部品1
 48
50.0
100
AcDbLine
 10
7512.488154000577
 20
5175.000000000005
 30
0.0
 11
5217.304996213423
 21
5175.000000000005
 31
0.0
  0
LINE
  5
1BDE9
330
747D
100
AcDbEntity
  8
部品1
 48
50.0
100
AcDbLine
 10
7499.272830539545
 20
5034.000000000006
 30
0.0
 11
5230.520319674456
 21
5034.000000000006
 31
0.0
  0
LINE
  5
1BDEA
330
747D
100
AcDbEntity
  8
細線
 48
50.0
100
AcDbLine
 10
7517.737924095093
 20
5146.973242563473
 30
0.0
 11
5212.055226118951
 21
5146.973242563792
 31
0.0
  0
LINE
  5
1BDEB
330
747D
100
AcDbEntity
  8
細線
 48
50.0
100
AcDbLine
 10
7509.501893570207
 20
5054.77324256379
 30
0.0
 11
5220.291256643793
 21
5054.77324256379
 31
0.0
  0
LINE
  5
1BDEC
330
747D
100
AcDbEntity
  8
部品1
100
AcDbLine
 10
7519.476914091676
 20
5167.603474604764
 30
0.0
 11
7518.34351675933
 21
5147.627346622165
 31
0.0
  0
LINE
  5
1BDEE
330
747D
100
AcDbEntity
  8
細線
 48
50.0
100
AcDbLine
 10
7486.896575107009
 20
5175.000000000005
 30
0.0
 11
7486.896575107009
 21
5034.000000000005
 31
0.0
  0
LINE
  5
1BDEF
330
747D
100
AcDbEntity
  8
細線
 48
50.0
100
AcDbLine
 10
5242.896575106992
 20
5175.000000000005
 30
0.0
 11
5242.896575106992
 21
5034.000000000005
 31
0.0
  0
LINE
  5
1BE41
330
747D
100
AcDbEntity
  8
部品1
100
AcDbLine
 10
7506.906496437753
 20
5051.969939455105
 30
0.0
 11
7506.261590630643
 21
5040.603474604766
 31
0.0
  0
LINE
  5
1BE42
330
747D
100
AcDbEntity
  8
部品1
100
AcDbLine
 10
7515.142526962598
 20
5144.169939455108
 30
0.0
 11
7510.107486234487
 21
5055.427346622163
 31
0.0
  0
ARC
  5
1BE44
330
747D
100
AcDbEntity
  8
部品1
 48
50.0
100
AcDbCircle
 10
7518.137709858784
 20
5144.000000000005
 30
0.0
 40
3.0
100
AcDbArc
 50
97.65812720738011
 51
176.7526572096774
  0
ARC
  5
1BE45
330
747D
100
AcDbEntity
  8
部品1
 48
50.0
100
AcDbCircle
 10
7509.90167933394
 20
5051.800000000003
 30
0.0
 40
3.0
100
AcDbArc
 50
97.6581272073629
 51
176.7526572096767
  0
ARC
  5
1BE46
330
747D
100
AcDbEntity
  8
部品1
 48
50.0
100
AcDbCircle
 10
7509.40861022538
 20
5055.466999161687
 30
0.0
 40
0.7
100
AcDbArc
 50
277.6581272073433
 51
356.7526572097019
  0
ARC
  5
1BE47
330
747D
100
AcDbEntity
  8
部品1
 48
50.0
100
AcDbCircle
 10
7517.644640750221
 20
5147.66699916169
 30
0.0
 40
0.7
100
AcDbArc
 50
277.6581272073433
 51
356.7526572096275
  0
ARC
  5
1BE48
330
747D
100
AcDbEntity
  8
部品1
100
AcDbCircle
 10
7499.272830539545
 20
5041.000000000005
 30
0.0
 40
7.0
100
AcDbArc
 50
270.0
 51
356.7526572096773
  0
ARC
  5
1BE49
330
747D
100
AcDbEntity
  8
部品1
100
AcDbCircle
 10
7512.488154000577
 20
5168.000000000005
 30
0.0
 40
7.0
100
AcDbArc
 50
356.752657209676
 51
89.99999999999998
  0
ARC
  5
1BE4A
330
747D
100
AcDbEntity
  8
部品1
100
AcDbCircle
 10
5217.304996213423
 20
5168.000000000005
 30
0.0
 40
7.0
100
AcDbArc
 50
90.00000000000003
 51
183.247342790324
  0
ARC
  5
1BE4B
330
747D
100
AcDbEntity
  8
部品1
100
AcDbCircle
 10
5230.520319674456
 20
5041.000000000005
 30
0.0
 40
7.0
100
AcDbArc
 50
183.2473427903227
 51
270.0
  0
ARC
  5
1BE4C
330
747D
100
AcDbEntity
  8
部品1
 48
50.0
100
AcDbCircle
 10
5212.148509463778
 20
5147.66699916169
 30
0.0
 40
0.7
100
AcDbArc
 50
183.2473427903725
 51
262.3418727926567
  0
ARC
  5
1BE4D
330
747D
100
AcDbEntity
  8
部品1
 48
50.0
100
AcDbCircle
 10
5220.384539988621
 20
5055.466999161687
 30
0.0
 40
0.7
100
AcDbArc
 50
183.2473427902981
 51
262.3418727926567
  0
ARC
  5
1BE4E
330
747D
100
AcDbEntity
  8
部品1
 48
50.0
100
AcDbCircle
 10
5219.891470880059
 20
5051.800000000003
 30
0.0
 40
3.0
100
AcDbArc
 50
3.247342790323342
 51
82.34187279263712
  0
ARC
  5
1BE4F
330
747D
100
AcDbEntity
  8
部品1
 48
50.0
100
AcDbCircle
 10
5211.655440355216
 20
5144.000000000005
 30
0.0
 40
3.0
100
AcDbArc
 50
3.247342790322579
 51
82.34187279261989
  0
LINE
  5
1BE50
330
747D
100
AcDbEntity
  8
部品1
100
AcDbLine
 10
5214.650623251401
 20
5144.169939455108
 30
0.0
 11
5219.685663979512
 21
5055.427346622163
 31
0.0
  0
LINE
  5
1BE51
330
747D
100
AcDbEntity
  8
部品1
100
AcDbLine
 10
5222.886653776247
 20
5051.969939455105
 30
0.0
 11
5223.531559583357
 21
5040.603474604766
 31
0.0
  0
LINE
  5
1BE52
330
747D
100
AcDbEntity
  8
部品1
100
AcDbLine
 10
5210.316236122324
 20
5167.603474604764
 30
0.0
 11
5211.44963345467
 21
5147.627346622165
 31
0.0
  0
LINE
  5
1C310
330
747D
100
AcDbEntity
  8
細線
100
AcDbLine
 10
5874.896575106982
 20
7284.933683184736
 30
0.0
 11
5872.565036816214
 21
7289.93368318472
 31
0.0
  0
LINE
  5
1C316
330
747D
100
AcDbEntity
  8
細線
100
AcDbLine
 10
5872.565036816215
 20
7289.93368318472
 30
0.0
 11
5807.228113397741
 21
7289.933683184711
 31
0.0
  0
LINE
  5
1C318
330
747D
100
AcDbEntity
  8
細線
100
AcDbLine
 10
5804.896575106987
 20
7284.933683184711
 30
0.0
 11
5734.896575106986
 21
7284.933683184701
 31
0.0
  0
LINE
  5
1C319
330
747D
100
AcDbEntity
  8
細線
100
AcDbLine
 10
5664.896575106987
 20
7284.933683184691
 30
0.0
 11
5594.896575106987
 21
7284.933683184681
 31
0.0
  0
LINE
  5
1C31B
330
747D
100
AcDbEntity
  8
細線
100
AcDbLine
 10
5524.896575106987
 20
7284.93368318467
 30
0.0
 11
5310.884268457942
 21
7284.933683184639
 31
0.0
  0
LINE
  5
1C31C
330
747D
100
AcDbEntity
  8
細線
100
AcDbLine
 10
5804.896575106987
 20
7284.933683184753
 30
0.0
 11
5807.228113397755
 21
7289.933683184739
 31
0.0
  0
LINE
  5
1C31D
330
747D
100
AcDbEntity
  8
細線
100
AcDbLine
 10
5732.565036816214
 20
7289.933683184701
 30
0.0
 11
5667.228113397739
 21
7289.933683184689
 31
0.0
  0
LINE
  5
1C31E
330
747D
100
AcDbEntity
  8
細線
100
AcDbLine
 10
5734.896575106979
 20
7284.933683184715
 30
0.0
 11
5732.565036816212
 21
7289.933683184701
 31
0.0
  0
LINE
  5
1C31F
330
747D
100
AcDbEntity
  8
細線
100
AcDbLine
 10
5664.896575106985
 20
7284.933683184734
 30
0.0
 11
5667.228113397754
 21
7289.933683184719
 31
0.0
  0
LINE
  5
1C320
330
747D
100
AcDbEntity
  8
細線
100
AcDbLine
 10
5592.565036816214
 20
7289.933683184681
 30
0.0
 11
5527.22811339774
 21
7289.933683184671
 31
0.0
  0
LINE
  5
1C321
330
747D
100
AcDbEntity
  8
細線
100
AcDbLine
 10
5594.896575106981
 20
7284.933683184696
 30
0.0
 11
5592.565036816213
 21
7289.933683184681
 31
0.0
  0
LINE
  5
1C322
330
747D
100
AcDbEntity
  8
細線
100
AcDbLine
 10
5524.896575106986
 20
7284.933683184714
 30
0.0
 11
5527.228113397754
 21
7289.933683184699
 31
0.0
  0
LINE
  5
1C333
330
747D
100
AcDbEntity
  8
細線
100
AcDbLine
 10
5476.396575106992
 20
7302.933683184663
 30
0.0
 11
5476.396575106992
 21
7284.93368318464
 31
0.0
  0
LINE
  5
1C334
330
747D
100
AcDbEntity
  8
細線
100
AcDbLine
 10
5435.396575106993
 20
7302.933683184658
 30
0.0
 11
5435.396575106993
 21
7284.93368318464
 31
0.0
  0
LINE
  5
1C335
330
747D
100
AcDbEntity
  8
細線
100
AcDbLine
 10
5476.396575106992
 20
7302.933683184663
 30
0.0
 11
5435.396575106993
 21
7302.933683184658
 31
0.0
  0
ARC
  5
1C337
330
747D
100
AcDbEntity
  8
部品1
100
AcDbCircle
 10
5437.940730984269
 20
7284.433683184662
 30
0.0
 40
1.0
100
AcDbArc
 50
270.0
 51
19.47122063447127
  0
LINE
  5
1C339
330
747D
100
AcDbEntity
  8
部品1
 48
0.01
100
AcDbLine
 10
5430.896575106986
 20
7284.933683184663
 30
0.0
 11
5430.896575106986
 21
7283.933683184662
 31
0.0
  0
LINE
  5
1C33C
330
747D
100
AcDbEntity
  8
部品1
 48
0.01
100
AcDbLine
 10
5431.396575106987
 20
7283.433683184663
 30
0.0
 11
5437.940730984269
 21
7283.433683184661
 31
0.0
  0
ARC
  5
1C33D
330
747D
100
AcDbEntity
  8
部品1
 48
0.01
100
AcDbCircle
 10
5431.396575106987
 20
7283.933683184662
 30
0.0
 40
0.5
100
AcDbArc
 50
180.0
 51
270.0
  0
ARC
  5
1C33F
330
747D
100
AcDbEntity
  8
部品1
100
AcDbCircle
 10
5463.396575106987
 20
7293.433683184661
 30
0.0
 40
26.0
100
AcDbArc
 50
180.0
 51
199.4712206344713
  0
ARC
  5
1C341
330
747D
100
AcDbEntity
  8
部品1
 48
0.01
100
AcDbCircle
 10
5439.396575106986
 20
7298.433683184661
 30
0.0
 40
2.0
100
AcDbArc
 50
90.0
 51
180.0
  0
LINE
  5
1C343
330
747D
100
AcDbEntity
  8
部品1
100
AcDbLine
 10
5437.396575106987
 20
7293.433683184661
 30
0.0
 11
5437.396575106987
 21
7298.433683184661
 31
0.0
  0
ARC
  5
1C344
330
747D
100
AcDbEntity
  8
部品1
100
AcDbCircle
 10
5455.896575106987
 20
7309.233683184662
 30
0.0
 40
16.0
100
AcDbArc
 50
218.3930440192126
 51
254.0576313943716
  0
ARC
  5
1C346
330
747D
100
AcDbEntity
  8
部品1
100
AcDbCircle
 10
5441.004966731799
 20
7297.433683184661
 30
0.0
 40
3.0
100
AcDbArc
 50
38.39304401921267
 51
90.0
  0
LINE
  5
1C347
330
747D
100
AcDbEntity
  8
部品1
 48
0.01
100
AcDbLine
 10
5439.396575106986
 20
7300.433683184661
 30
0.0
 11
5441.004966731799
 21
7300.433683184661
 31
0.0
  0
ARC
  5
1C358
330
747D
100
AcDbEntity
  8
部品1
100
AcDbCircle
 10
5455.896575106987
 20
7309.233683184662
 30
0.0
 40
16.0
100
AcDbArc
 50
285.9423686056284
 51
321.6069559807873
  0
LINE
  5
1C35E
330
747D
100
AcDbEntity
  8
部品1
100
AcDbLine
 10
5459.467289321257
 20
7293.733683184662
 30
0.0
 11
5452.325860892714
 21
7293.733683184662
 31
0.0
  0
ARC
  5
1C360
330
747D
100
AcDbEntity
  8
部品1
100
AcDbCircle
 10
5459.467289321257
 20
7296.733683184662
 30
0.0
 40
3.0
100
AcDbArc
 50
270.0
 51
285.9423686056284
  0
ARC
  5
1C362
330
747D
100
AcDbEntity
  8
部品1
100
AcDbCircle
 10
5452.325860892714
 20
7296.733683184662
 30
0.0
 40
3.0
100
AcDbArc
 50
254.0576313943716
 51
270.0
  0
LINE
  5
1C363
330
747D
100
AcDbEntity
  8
部品1
 48
0.01
100
AcDbLine
 10
5472.396575106986
 20
7300.433683184661
 30
0.0
 11
5470.788183482174
 21
7300.433683184661
 31
0.0
  0
ARC
  5
1C366
330
747D
100
AcDbEntity
  8
部品1
100
AcDbCircle
 10
5470.788183482174
 20
7297.433683184661
 30
0.0
 40
3.0
100
AcDbArc
 50
90.0
 51
141.6069559807873
  0
ARC
  5
1C368
330
747D
100
AcDbEntity
  8
部品1
 48
0.01
100
AcDbCircle
 10
5472.396575106986
 20
7298.433683184661
 30
0.0
 40
2.0
100
AcDbArc
 50
0.0
 51
90.0
  0
LINE
  5
1C369
330
747D
100
AcDbEntity
  8
部品1
100
AcDbLine
 10
5474.396575106986
 20
7293.433683184661
 30
0.0
 11
5474.396575106986
 21
7298.433683184661
 31
0.0
  0
ARC
  5
1C36C
330
747D
100
AcDbEntity
  8
部品1
100
AcDbCircle
 10
5448.396575106986
 20
7293.433683184661
 30
0.0
 40
26.0
100
AcDbArc
 50
340.5287793655287
 51
0.0
  0
ARC
  5
1C36D
330
747D
100
AcDbEntity
  8
部品1
100
AcDbCircle
 10
5473.852419229702
 20
7284.433683184662
 30
0.0
 40
1.0
100
AcDbArc
 50
160.5287793655287
 51
270.0
  0
LINE
  5
1C36F
330
747D
100
AcDbEntity
  8
部品1
 48
0.01
100
AcDbLine
 10
5480.396575106986
 20
7283.433683184663
 30
0.0
 11
5473.784069676923
 21
7283.433683184661
 31
0.0
  0
LINE
  5
1C372
330
747D
100
AcDbEntity
  8
部品1
 48
0.01
100
AcDbLine
 10
5480.896575106986
 20
7284.933683184663
 30
0.0
 11
5480.896575106986
 21
7283.933683184662
 31
0.0
  0
LINE
  5
1C373
330
747D
100
AcDbEntity
  8
部品1
 48
0.01
100
AcDbLine
 10
5480.896575106986
 20
7284.933683184663
 30
0.0
 11
5480.896575106986
 21
7283.933683184662
 31
0.0
  0
ARC
  5
1C374
330
747D
100
AcDbEntity
  8
部品1
 48
0.01
100
AcDbCircle
 10
5480.396575106986
 20
7283.933683184662
 30
0.0
 40
0.5
100
AcDbArc
 50
270.0
 51
0.0
  0
LINE
  5
1C386
330
747D
100
AcDbEntity
  8
細線
100
AcDbLine
 10
6176.396575107
 20
7318.933683184728
 30
0.0
 11
6178.728113397761
 21
7323.933683184701
 31
0.0
  0
LINE
  5
1C387
330
747D
100
AcDbEntity
  8
細線
100
AcDbLine
 10
6246.396575106988
 20
7318.933683184697
 30
0.0
 11
6244.065036816221
 21
7323.933683184683
 31
0.0
  0
LINE
  5
1C388
330
747D
100
AcDbEntity
  8
細線
100
AcDbLine
 10
6244.065036816222
 20
7323.933683184683
 30
0.0
 11
6178.728113397748
 21
7323.933683184671
 31
0.0
  0
LINE
  5
1C389
330
747D
100
AcDbEntity
  8
細線
100
AcDbLine
 10
6316.396575106993
 20
7318.933683184734
 30
0.0
 11
6318.72811339776
 21
7323.933683184719
 31
0.0
  0
LINE
  5
1C38A
330
747D
100
AcDbEntity
  8
細線
100
AcDbLine
 10
6386.396575106988
 20
7318.933683184716
 30
0.0
 11
6384.065036816219
 21
7323.933683184701
 31
0.0
  0
LINE
  5
1C38B
330
747D
100
AcDbEntity
  8
細線
100
AcDbLine
 10
6384.06503681622
 20
7323.933683184701
 30
0.0
 11
6318.728113397747
 21
7323.93368318469
 31
0.0
  0
LINE
  5
1C38C
330
747D
100
AcDbEntity
  8
細線
100
AcDbLine
 10
6456.396575106994
 20
7318.933683184756
 30
0.0
 11
6458.728113397762
 21
7323.933683184741
 31
0.0
  0
LINE
  5
1C38D
330
747D
100
AcDbEntity
  8
細線
100
AcDbLine
 10
6524.065036816222
 20
7323.933683184723
 30
0.0
 11
6458.728113397748
 21
7323.933683184711
 31
0.0
  0
LINE
  5
1C38E
330
747D
100
AcDbEntity
  8
細線
100
AcDbLine
 10
6526.396575106989
 20
7318.933683184737
 30
0.0
 11
6524.065036816222
 21
7323.933683184723
 31
0.0
  0
LINE
  5
1C3A4
330
747D
100
AcDbEntity
  8
細線
100
AcDbLine
 10
7208.896575106983
 20
7354.933683184732
 30
0.0
 11
7206.565036816215
 21
7359.933683184718
 31
0.0
  0
LINE
  5
1C3A5
330
747D
100
AcDbEntity
  8
細線
100
AcDbLine
 10
7206.565036816217
 20
7359.933683184718
 30
0.0
 11
7141.228113397743
 21
7359.933683184708
 31
0.0
  0
LINE
  5
1C3A6
330
747D
100
AcDbEntity
  8
細線
100
AcDbLine
 10
7138.896575106989
 20
7354.933683184751
 30
0.0
 11
7141.228113397755
 21
7359.933683184737
 31
0.0
  0
LINE
  5
1C3A7
330
747D
100
AcDbEntity
  8
細線
100
AcDbLine
 10
7066.565036816214
 20
7359.933683184698
 30
0.0
 11
7001.228113397741
 21
7359.933683184687
 31
0.0
  0
LINE
  5
1C3A8
330
747D
100
AcDbEntity
  8
細線
100
AcDbLine
 10
7068.896575106982
 20
7354.933683184713
 30
0.0
 11
7066.565036816213
 21
7359.933683184698
 31
0.0
  0
LINE
  5
1C3A9
330
747D
100
AcDbEntity
  8
細線
100
AcDbLine
 10
6998.896575106987
 20
7354.93368318473
 30
0.0
 11
7001.228113397754
 21
7359.933683184715
 31
0.0
  0
LINE
  5
1C3AA
330
747D
100
AcDbEntity
  8
細線
100
AcDbLine
 10
6926.565036816215
 20
7359.933683184678
 30
0.0
 11
6861.228113397742
 21
7359.933683184668
 31
0.0
  0
LINE
  5
1C3AB
330
747D
100
AcDbEntity
  8
細線
100
AcDbLine
 10
6928.896575106982
 20
7354.933683184693
 30
0.0
 11
6926.565036816214
 21
7359.933683184678
 31
0.0
  0
LINE
  5
1C3AC
330
747D
100
AcDbEntity
  8
細線
100
AcDbLine
 10
6858.896575106992
 20
7354.933683184724
 30
0.0
 11
6861.228113397754
 21
7359.933683184697
 31
0.0
  0
LINE
  5
1C3AD
330
747D
100
AcDbEntity
  8
細線
100
AcDbLine
 10
7138.896575106975
 20
7354.93368318472
 30
0.0
 11
7068.896575106975
 21
7354.93368318472
 31
0.0
  0
LINE
  5
1C3AE
330
747D
100
AcDbEntity
  8
細線
100
AcDbLine
 10
6998.896575106981
 20
7354.93368318472
 30
0.0
 11
6928.896575106969
 21
7354.933683184722
 31
0.0
  0
LINE
  5
1C3AF
330
747D
100
AcDbEntity
  8
細線
100
AcDbLine
 10
6858.896575106992
 20
7354.933683184724
 30
0.0
 11
6759.896575106989
 21
7354.933683184725
 31
0.0
  0
LINE
  5
1C3B0
330
747D
100
AcDbEntity
  8
細線
100
AcDbLine
 10
6456.396575106978
 20
7318.933683184723
 30
0.0
 11
6386.396575106985
 21
7318.933683184723
 31
0.0
  0
LINE
  5
1C3B1
330
747D
100
AcDbEntity
  8
細線
100
AcDbLine
 10
6316.396575106987
 20
7318.933683184723
 30
0.0
 11
6246.396575106974
 21
7318.933683184724
 31
0.0
  0
LINE
  5
1C3B2
330
747D
100
AcDbEntity
  8
細線
100
AcDbLine
 10
6176.396575107
 20
7318.933683184728
 30
0.0
 11
6105.896575107004
 21
7318.93368318475
 31
0.0
  0
LINE
  5
1DC7C
330
747D
100
AcDbEntity
  8
細線
100
AcDbLine
 10
5944.896575106986
 20
7284.933683184711
 30
0.0
 11
5874.896575106987
 21
7284.933683184701
 31
0.0
  0
LINE
  5
1DC7D
330
747D
100
AcDbEntity
  8
細線
100
AcDbLine
 10
5944.896575106987
 20
7284.933683184753
 30
0.0
 11
5947.228113397756
 21
7289.933683184739
 31
0.0
  0
LINE
  5
1DC7E
330
747D
100
AcDbEntity
  8
細線
100
AcDbLine
 10
6012.565036816216
 20
7289.93368318472
 30
0.0
 11
5947.228113397741
 21
7289.933683184711
 31
0.0
  0
LINE
  5
1DC7F
330
747D
100
AcDbEntity
  8
細線
100
AcDbLine
 10
6014.89657510698
 20
7284.933683184743
 30
0.0
 11
6012.565036816214
 21
7289.93368318472
 31
0.0
  0
LINE
  5
1E435
330
747D
100
AcDbEntity
  8
細線
100
AcDbLine
 10
6596.396575106981
 20
7318.933683184742
 30
0.0
 11
6526.396575106986
 21
7318.933683184742
 31
0.0
  0
LINE
  5
1E436
330
747D
100
AcDbEntity
  8
細線
100
AcDbLine
 10
6666.396575107008
 20
7318.933683184721
 30
0.0
 11
6664.065036816222
 21
7323.933683184744
 31
0.0
  0
LINE
  5
1E437
330
747D
100
AcDbEntity
  8
細線
100
AcDbLine
 10
6664.065036816224
 20
7323.933683184744
 30
0.0
 11
6598.728113397751
 21
7323.933683184733
 31
0.0
  0
LINE
  5
1E438
330
747D
100
AcDbEntity
  8
細線
100
AcDbLine
 10
6596.396575106997
 20
7318.933683184775
 30
0.0
 11
6598.728113397765
 21
7323.933683184761
 31
0.0
  0
LINE
  5
1E4B9
330
747D
100
AcDbEntity
  8
細線
100
AcDbLine
 10
7278.896575106976
 20
7354.933683184741
 30
0.0
 11
7208.896575106978
 21
7354.933683184741
 31
0.0
  0
LINE
  5
1E4BA
330
747D
100
AcDbEntity
  8
細線
100
AcDbLine
 10
7278.89657510699
 20
7354.933683184772
 30
0.0
 11
7281.228113397758
 21
7359.933683184758
 31
0.0
  0
LINE
  5
1E4BB
330
747D
100
AcDbEntity
  8
細線
100
AcDbLine
 10
7346.565036816217
 20
7359.933683184739
 30
0.0
 11
7281.228113397744
 21
7359.933683184728
 31
0.0
  0
LINE
  5
1E4BC
330
747D
100
AcDbEntity
  8
細線
100
AcDbLine
 10
7348.896575106984
 20
7354.933683184754
 30
0.0
 11
7346.565036816217
 21
7359.933683184739
 31
0.0
  0
LINE
  5
1E4BD
330
747D
100
AcDbEntity
  8
部品1
100
AcDbLine
 10
6114.896575106992
 20
4932.000000000003
 30
0.0
 11
6114.896575106991
 21
3149.000000000008
 31
0.0
  0
LINE
  5
1F3C3
330
747D
100
AcDbEntity
  8
細線
100
AcDbLine
 10
5594.896575106992
 20
4932.0
 30
0.0
 11
5594.896575106991
 21
3149.000000000004
 31
0.0
  0
LINE
  5
1F3C4
330
747D
100
AcDbEntity
  8
細線
100
AcDbLine
 10
5524.896575106992
 20
4932.0
 30
0.0
 11
5524.896575106991
 21
3149.000000000004
 31
0.0
  0
LINE
  5
1F3C7
330
747D
100
AcDbEntity
  8
細線
100
AcDbLine
 10
6246.396575106987
 20
4932.0
 30
0.0
 11
6246.396575106988
 21
3156.500000000013
 31
0.0
  0
LINE
  5
1F3C8
330
747D
100
AcDbEntity
  8
細線
100
AcDbLine
 10
6176.396575106988
 20
4932.0
 30
0.0
 11
6176.396575106988
 21
3156.500000000013
 31
0.0
  0
LINE
  5
1F3CA
330
747D
100
AcDbEntity
  8
細線
100
AcDbLine
 10
7348.896575106976
 20
4932.0
 30
0.0
 11
7348.896575106976
 21
3156.500000000019
 31
0.0
  0
LINE
  5
1F414
330
747D
100
AcDbEntity
  8
細線
100
AcDbLine
 10
6858.896575106975
 20
4932.0
 30
0.0
 11
6858.896575106975
 21
3156.500000000019
 31
0.0
  0
LINE
  5
1FD6F
330
747D
100
AcDbEntity
  8
破線
 48
10.0
100
AcDbLine
 10
5994.396575107
 20
7435.933683184645
 30
0.0
 11
5339.89657510699
 21
7435.933683184605
 31
0.0
  0
LINE
  5
1FD71
330
747D
100
AcDbEntity
  8
破線
 48
10.0
100
AcDbLine
 10
6685.396575107001
 20
7412.433683184684
 30
0.0
 11
6685.396575106999
 21
8171.933683184732
 31
0.0
  0
LINE
  5
1FD72
330
747D
100
AcDbEntity
  8
破線
 48
10.0
100
AcDbLine
 10
6735.396575106998
 20
7412.433683184687
 30
0.0
 11
6735.396575107003
 21
8171.933683184731
 31
0.0
  0
TEXT
  5
20234
330
747D
100
AcDbEntity
  8
文字
 62
     7
 48
50.0
100
AcDbText
 10
13209.4053442172
 20
58.99859681021485
 30
0.0
 40
100.0
  1
○床面積 ： 3.03㎡(0.92坪) 　
  7
STYLE2
100
AcDbText
  0
TEXT
  5
20645
330
747D
100
AcDbEntity
  8
文字
 62
     7
 48
50.0
100
AcDbText
 10
13583.11819016568
 20
8720.013745883727
 30
0.0
 40
100.0
  1
アンカープレート
  7
STYLE1
100
AcDbText
  0
TEXT
  5
20646
330
747D
100
AcDbEntity
  8
文字
 62
     7
 48
50.0
100
AcDbText
 10
15022.63965474515
 20
8720.013745883722
 30
0.0
 40
100.0
  1
F12            2.3
  7
STYLE1
100
AcDbText
  0
LINE
  5
20647
330
747D
100
AcDbEntity
  8
仕様書枠
 48
50.0
100
AcDbLine
 10
16307.2
 20
10049.6
 30
0.0
 11
13127.2
 21
10049.6
 31
0.0
  0
LINE
  5
20648
330
747D
100
AcDbEntity
  8
仕様書枠
 48
50.0
100
AcDbLine
 10
16307.2
 20
11409.6
 30
0.0
 11
13127.2
 21
11409.6
 31
0.0
  0
LINE
  5
20649
330
747D
100
AcDbEntity
  8
仕様書枠
 48
50.0
100
AcDbLine
 10
16307.19999999999
 20
8349.600000000002
 30
0.0
 11
16307.2
 21
11409.6
 31
0.0
  0
LINE
  5
2064A
330
747D
100
AcDbEntity
  8
仕様書枠
 48
50.0
100
AcDbLine
 10
14785.2
 20
11409.59999999999
 30
0.0
 11
14785.2
 21
8689.600000000005
 31
0.0
  0
LINE
  5
2064B
330
747D
100
AcDbEntity
  8
仕様書枠
 48
50.0
100
AcDbLine
 10
13490.2
 20
11409.6
 30
0.0
 11
13490.20000000001
 21
8689.600000000003
 31
0.0
  0
LINE
  5
2064C
330
747D
100
AcDbEntity
  8
仕様書枠
 48
50.0
100
AcDbLine
 10
16307.2
 20
11239.6
 30
0.0
 11
13127.2
 21
11239.6
 31
0.0
  0
LINE
  5
2064D
330
747D
100
AcDbEntity
  8
仕様書枠
 48
50.0
100
AcDbLine
 10
16307.2
 20
10899.6
 30
0.0
 11
13127.2
 21
10899.6
 31
0.0
  0
LINE
  5
2064E
330
747D
100
AcDbEntity
  8
仕様書枠
 48
50.0
100
AcDbLine
 10
16307.2
 20
11069.6
 30
0.0
 11
13127.2
 21
11069.6
 31
0.0
  0
LINE
  5
2064F
330
747D
100
AcDbEntity
  8
仕様書枠
 48
50.0
100
AcDbLine
 10
16307.19999999999
 20
10559.6
 30
0.0
 11
13127.2
 21
10559.6
 31
0.0
  0
LINE
  5
20650
330
747D
100
AcDbEntity
  8
仕様書枠
 48
50.0
100
AcDbLine
 10
16307.19999999999
 20
10389.6
 30
0.0
 11
13127.2
 21
10389.6
 31
0.0
  0
LINE
  5
20651
330
747D
100
AcDbEntity
  8
仕様書枠
 48
50.0
100
AcDbLine
 10
16307.19999999999
 20
10729.6
 30
0.0
 11
13127.2
 21
10729.6
 31
0.0
  0
TEXT
  5
20652
330
747D
100
AcDbEntity
  8
文字
 62
     7
 48
50.0
100
AcDbText
 10
13197.42518560407
 20
11270.01374588372
 30
0.0
 40
100.0
  1
品番
  7
STYLE1
100
AcDbText
  0
TEXT
  5
20653
330
747D
100
AcDbEntity
  8
文字
 62
     7
 48
50.0
100
AcDbText
 10
13271.19032244792
 20
11100.01374588373
 30
0.0
 40
100.0
  1
1
  7
STYLE1
100
AcDbText
  0
TEXT
  5
20654
330
747D
100
AcDbEntity
  8
文字
 62
     7
 48
50.0
100
AcDbText
 10
13271.19032244792
 20
10930.01374588373
 30
0.0
 40
100.0
  1
2
  7
STYLE1
100
AcDbText
  0
TEXT
  5
20655
330
747D
100
AcDbEntity
  8
文字
 62
     7
 48
50.0
100
AcDbText
 10
13271.19032244792
 20
10590.01374588373
 30
0.0
 40
100.0
  1
4
  7
STYLE1
100
AcDbText
  0
TEXT
  5
20656
330
747D
100
AcDbEntity
  8
文字
 62
     7
 48
50.0
100
AcDbText
 10
13271.19032244792
 20
10760.01374588373
 30
0.0
 40
100.0
  1
3
  7
STYLE1
100
AcDbText
  0
TEXT
  5
20657
330
747D
100
AcDbEntity
  8
文字
 62
     7
 48
50.0
100
AcDbText
 10
13732.03840939434
 20
11270.01374588372
 30
0.0
 40
100.0
  1
部　　品　　名
  7
STYLE1
100
AcDbText
  0
TEXT
  5
20658
330
747D
100
AcDbEntity
  8
文字
 62
     7
 48
50.0
100
AcDbText
 10
14859.79774614482
 20
11270.01374588372
 30
0.0
 40
100.0
  1
材料（材質）　　単位mm
  7
STYLE1
100
AcDbText
  0
TEXT
  5
20659
330
747D
100
AcDbEntity
  8
文字
 62
     7
 48
50.0
100
AcDbText
 10
13583.11819016569
 20
11100.01374588373
 30
0.0
 40
100.0
  1
土台枠
  7
STYLE1
100
AcDbText
  0
TEXT
  5
2065A
330
747D
100
AcDbEntity
  8
文字
 62
     7
 48
50.0
100
AcDbText
 10
13583.1181901657
 20
10760.01374588372
 30
0.0
 40
100.0
  1
柱
  7
STYLE1
100
AcDbText
  0
TEXT
  5
2065B
330
747D
100
AcDbEntity
  8
文字
 62
     7
 48
50.0
100
AcDbText
 10
13583.1181901657
 20
10420.01374588372
 30
0.0
 40
100.0
  1
鴨居
  7
STYLE1
100
AcDbText
  0
TEXT
  5
2065C
330
747D
100
AcDbEntity
  8
文字
 62
     7
 48
50.0
100
AcDbText
 10
13583.1181901657
 20
10250.01374588373
 30
0.0
 40
100.0
  1
桁後
  7
STYLE1
100
AcDbText
  0
TEXT
  5
2065D
330
747D
100
AcDbEntity
  8
文字
 62
     7
 48
50.0
100
AcDbText
 10
13271.19032244792
 20
10420.01374588372
 30
0.0
 40
100.0
  1
5
  7
STYLE1
100
AcDbText
  0
TEXT
  5
2065E
330
747D
100
AcDbEntity
  8
文字
 62
     7
 48
50.0
100
AcDbText
 10
13583.1181901657
 20
10080.01374588372
 30
0.0
 40
100.0
  1
妻板左右
  7
STYLE1
100
AcDbText
  0
TEXT
  5
2065F
330
747D
100
AcDbEntity
  8
文字
 62
     7
 48
50.0
100
AcDbText
 10
13248.77747366447
 20
9570.013745883727
 30
0.0
 40
100.0
  1
10
  7
STYLE1
100
AcDbText
  0
TEXT
  5
20660
330
747D
100
AcDbEntity
  8
文字
 62
     7
 48
50.0
100
AcDbText
 10
13583.11819016568
 20
9400.013745883729
 30
0.0
 40
100.0
  1
壁パネル
  7
STYLE1
100
AcDbText
  0
TEXT
  5
20661
330
747D
100
AcDbEntity
  8
文字
 62
     7
 48
50.0
100
AcDbText
 10
13583.11819016569
 20
9740.013745883729
 30
0.0
 40
100.0
  1
屋根パネル
  7
STYLE1
100
AcDbText
  0
TEXT
  5
20662
330
747D
100
AcDbEntity
  8
文字
 62
     7
 48
50.0
100
AcDbText
 10
13583.1181901657
 20
9910.013745883727
 30
0.0
 40
100.0
  1
鼻隠シ前後
  7
STYLE1
100
AcDbText
  0
TEXT
  5
20663
330
747D
100
AcDbEntity
  8
文字
 62
     7
 48
50.0
100
AcDbText
 10
13271.19032244792
 20
9910.01374588373
 30
0.0
 40
100.0
  1
8
  7
STYLE1
100
AcDbText
  0
TEXT
  5
20664
330
747D
100
AcDbEntity
  8
文字
 62
     7
 48
50.0
100
AcDbText
 10
13271.19032244792
 20
9740.013745883729
 30
0.0
 40
100.0
  1
9
  7
STYLE1
100
AcDbText
  0
TEXT
  5
20665
330
747D
100
AcDbEntity
  8
文字
 62
     7
 48
50.0
100
AcDbText
 10
13271.19032244792
 20
10080.01374588373
 30
0.0
 40
100.0
  1
7
  7
STYLE1
100
AcDbText
  0
TEXT
  5
20666
330
747D
100
AcDbEntity
  8
文字
 62
     7
 48
50.0
100
AcDbText
 10
13271.19032244792
 20
10250.01374588373
 30
0.0
 40
100.0
  1
6
  7
STYLE1
100
AcDbText
  0
LINE
  5
20667
330
747D
100
AcDbEntity
  8
仕様書枠
 48
50.0
100
AcDbLine
 10
16307.19999999999
 20
9709.6
 30
0.0
 11
13127.2
 21
9709.600000000001
 31
0.0
  0
LINE
  5
20668
330
747D
100
AcDbEntity
  8
仕様書枠
 48
50.0
100
AcDbLine
 10
16307.19999999999
 20
9369.599999999998
 30
0.0
 11
13127.2
 21
9369.600000000001
 31
0.0
  0
LINE
  5
20669
330
747D
100
AcDbEntity
  8
仕様書枠
 48
50.0
100
AcDbLine
 10
16307.19999999999
 20
9539.599999999998
 30
0.0
 11
13127.2
 21
9539.6
 31
0.0
  0
LINE
  5
2066A
330
747D
100
AcDbEntity
  8
仕様書枠
 48
50.0
100
AcDbLine
 10
16307.2
 20
10219.6
 30
0.0
 11
13127.2
 21
10219.6
 31
0.0
  0
LINE
  5
2066B
330
747D
100
AcDbEntity
  8
仕様書枠
 48
50.0
100
AcDbLine
 10
16307.2
 20
9879.599999999999
 30
0.0
 11
13127.2
 21
9879.600000000001
 31
0.0
  0
TEXT
  5
2066C
330
747D
100
AcDbEntity
  8
文字
 62
     7
 48
50.0
100
AcDbText
 10
13248.77747366447
 20
9400.013745883727
 30
0.0
 40
100.0
  1
11
  7
STYLE1
100
AcDbText
  0
LINE
  5
2066D
330
747D
100
AcDbEntity
  8
仕様書枠
 48
50.0
100
AcDbLine
 10
16307.19999999999
 20
9199.599999999998
 30
0.0
 11
13127.2
 21
9199.600000000001
 31
0.0
  0
LINE
  5
2066E
330
747D
100
AcDbEntity
  8
仕様書枠
 48
50.0
100
AcDbLine
 10
16307.19999999999
 20
8859.6
 30
0.0
 11
13127.2
 21
8859.600000000002
 31
0.0
  0
TEXT
  5
2066F
330
747D
100
AcDbEntity
  8
文字
 62
     7
 48
50.0
100
AcDbText
 10
13248.77747366447
 20
9060.013745883729
 30
0.0
 40
100.0
  1
13
  7
STYLE1
100
AcDbText
  0
TEXT
  5
20670
330
747D
100
AcDbEntity
  8
文字
 62
     7
 48
50.0
100
AcDbText
 10
13248.77747366447
 20
9230.013745883729
 30
0.0
 40
100.0
  1
12
  7
STYLE1
100
AcDbText
  0
TEXT
  5
20671
330
747D
100
AcDbEntity
  8
文字
 62
     7
 48
50.0
100
AcDbText
 10
15022.63965474517
 20
11100.01374588372
 30
0.0
 40
100.0
  1
F12            1.2
  7
STYLE1
100
AcDbText
  0
TEXT
  5
20672
330
747D
100
AcDbEntity
  8
文字
 62
     7
 48
50.0
100
AcDbText
 10
15022.63965474518
 20
10760.01374588372
 30
0.0
 40
100.0
  1
F12            1.0
  7
STYLE1
100
AcDbText
  0
TEXT
  5
20673
330
747D
100
AcDbEntity
  8
文字
 62
     7
 48
50.0
100
AcDbText
 10
15022.63965474517
 20
10420.01374588372
 30
0.0
 40
100.0
  1
Y10            1.0
  7
STYLE1
100
AcDbText
  0
TEXT
  5
20674
330
747D
100
AcDbEntity
  8
文字
 62
     7
 48
50.0
100
AcDbText
 10
15022.63965474517
 20
10250.01374588372
 30
0.0
 40
100.0
  1
Y10            1.0
  7
STYLE1
100
AcDbText
  0
TEXT
  5
20675
330
747D
100
AcDbEntity
  8
文字
 62
     7
 48
50.0
100
AcDbText
 10
15022.63965474517
 20
10080.01374588372
 30
0.0
 40
100.0
  1
Y10            0.7
  7
STYLE1
100
AcDbText
  0
TEXT
  5
20676
330
747D
100
AcDbEntity
  8
文字
 62
     7
 48
50.0
100
AcDbText
 10
15022.63965474517
 20
9910.013745883725
 30
0.0
 40
100.0
  1
Y10            0.7
  7
STYLE1
100
AcDbText
  0
TEXT
  5
20677
330
747D
100
AcDbEntity
  8
文字
 62
     7
 48
50.0
100
AcDbText
 10
15022.63965474517
 20
9740.013745883725
 30
0.0
 40
100.0
  1
Y10            0.5
  7
STYLE1
100
AcDbText
  0
TEXT
  5
20678
330
747D
100
AcDbEntity
  8
文字
 62
     7
 48
50.0
100
AcDbText
 10
15022.63965474515
 20
9400.013745883725
 30
0.0
 40
100.0
  1
F12            0.6
  7
STYLE1
100
AcDbText
  0
LINE
  5
20679
330
747D
100
AcDbEntity
  8
仕様書枠
 48
50.0
100
AcDbLine
 10
16307.19999999998
 20
8689.600000000003
 30
0.0
 11
13127.19999999999
 21
8689.600000000003
 31
0.0
  0
LINE
  5
2067A
330
747D
100
AcDbEntity
  8
仕様書枠
 48
50.0
100
AcDbLine
 10
16307.19999999998
 20
8519.600000000002
 30
0.0
 11
13127.19999999999
 21
8519.600000000004
 31
0.0
  0
TEXT
  5
2067B
330
747D
100
AcDbEntity
  8
文字
 62
     7
 48
50.0
100
AcDbText
 10
13229.83081656553
 20
8550.013745883731
 30
0.0
 40
100.0
  1
F12→溶融亜鉛めっき鋼板(JIS G 3302)
  7
STYLE1
100
AcDbText
  0
TEXT
  5
2067C
330
747D
100
AcDbEntity
  8
文字
 62
     7
 48
50.0
100
AcDbText
 10
13229.83081656553
 20
8380.013745883731
 30
0.0
 40
100.0
  1
Y10→溶融亜鉛-5％アルミニウム合金めっき鋼板(JIS G 3317)
 41
0.9
  7
STYLE1
100
AcDbText
  0
LINE
  5
2067D
330
747D
100
AcDbEntity
  8
仕様書枠
 48
50.0
100
AcDbLine
 10
13127.2
 20
11409.6
 30
0.0
 11
13127.19999999999
 21
8349.600000000002
 31
0.0
  0
LINE
  5
2067E
330
747D
100
AcDbEntity
  8
仕様書枠
 48
50.0
100
AcDbLine
 10
16307.19999999999
 20
9029.6
 30
0.0
 11
13127.2
 21
9029.600000000002
 31
0.0
  0
TEXT
  5
2067F
330
747D
100
AcDbEntity
  8
文字
 62
     7
 48
50.0
100
AcDbText
 10
13583.1181901657
 20
10590.01374588373
 30
0.0
 40
100.0
  1
床パネル
 41
0.9
  7
STYLE1
100
AcDbText
  0
TEXT
  5
20680
330
747D
100
AcDbEntity
  8
文字
 62
     7
 48
50.0
100
AcDbText
 10
13583.11819016569
 20
10930.01374588372
 30
0.0
 40
100.0
  1
根太
  7
STYLE1
100
AcDbText
  0
TEXT
  5
20681
330
747D
100
AcDbEntity
  8
文字
 62
     7
 48
50.0
100
AcDbText
 10
13248.77747366447
 20
8890.013745883729
 30
0.0
 40
100.0
  1
14
  7
STYLE1
100
AcDbText
  0
TEXT
  5
20682
330
747D
100
AcDbEntity
  8
文字
 62
     7
 48
50.0
100
AcDbText
 10
15022.63965474516
 20
10930.01374588372
 30
0.0
 40
100.0
  1
F12            1.2
  7
STYLE1
100
AcDbText
  0
TEXT
  5
20683
330
747D
100
AcDbEntity
  8
文字
 62
     7
 48
50.0
100
AcDbText
 10
15022.63965474517
 20
10590.01374588372
 30
0.0
 40
100.0
  1
F12            1.0
  7
STYLE1
100
AcDbText
  0
TEXT
  5
20684
330
747D
100
AcDbEntity
  8
文字
 62
     7
 48
50.0
100
AcDbText
 10
15022.63965474515
 20
9230.013745883725
 30
0.0
 40
100.0
  1
F12            0.7
  7
STYLE1
100
AcDbText
  0
TEXT
  5
20685
330
747D
100
AcDbEntity
  8
文字
 62
     7
 48
50.0
100
AcDbText
 10
13583.11819016568
 20
9230.013745883729
 30
0.0
 40
100.0
  1
正面パネル
  7
STYLE1
100
AcDbText
  0
TEXT
  5
20686
330
747D
100
AcDbEntity
  8
文字
 62
     7
 48
50.0
100
AcDbText
 10
15022.63965474515
 20
9060.013745883725
 30
0.0
 40
100.0
  1
F12            0.8
  7
STYLE1
100
AcDbText
  0
TEXT
  5
20687
330
747D
100
AcDbEntity
  8
文字
 62
     7
 48
50.0
100
AcDbText
 10
13583.11819016568
 20
9060.013745883729
 30
0.0
 40
100.0
  1
扉
  7
STYLE1
100
AcDbText
  0
TEXT
  5
20688
330
747D
100
AcDbEntity
  8
文字
 62
     7
 48
50.0
100
AcDbText
 10
15022.63965474515
 20
8890.013745883727
 30
0.0
 40
100.0
  1
F12            0.6
  7
STYLE1
100
AcDbText
  0
TEXT
  5
20689
330
747D
100
AcDbEntity
  8
文字
 62
     7
 48
50.0
100
AcDbText
 10
13583.11819016568
 20
8890.013745883731
 30
0.0
 40
100.0
  1
棚板
  7
STYLE1
100
AcDbText
  0
LINE
  5
2068A
330
747D
100
AcDbEntity
  8
仕様書枠
 48
50.0
100
AcDbLine
 10
16307.19999999998
 20
8349.600000000002
 30
0.0
 11
13127.19999999999
 21
8349.600000000004
 31
0.0
  0
TEXT
  5
2068B
330
747D
100
AcDbEntity
  8
文字
 62
     7
 48
50.0
100
AcDbText
 10
13248.77747366447
 20
8720.013745883731
 30
0.0
 40
100.0
  1
15
  7
STYLE1
100
AcDbText
  0
TEXT
  5
2068C
330
747D
100
AcDbEntity
  8
文字
 62
     7
 48
50.0
100
AcDbText
 10
13583.11819016569
 20
9570.013745883727
 30
0.0
 40
100.0
  1
母屋中
  7
STYLE1
100
AcDbText
  0
TEXT
  5
2068D
330
747D
100
AcDbEntity
  8
文字
 62
     7
 48
50.0
100
AcDbText
 10
14798.72402257234
 20
9570.013745883725
 30
0.0
 40
100.0
  1
F12(一般型1.0/多雪地型2.3)
  7
STYLE1
100
AcDbText
  0
LINE
  5
20793
330
747D
100
AcDbEntity
  8
部品1
100
AcDbLine
 10
7441.896575107001
 20
7756.933683184726
 30
0.0
 11
7469.896575107002
 21
7756.933683184726
 31
0.0
  0
LINE
  5
20794
330
747D
100
AcDbEntity
  8
部品1
100
AcDbLine
 10
5287.896575106969
 20
8176.933683184598
 30
0.0
 11
5259.896575106968
 21
8176.933683184598
 31
0.0
  0
LINE
  5
20795
330
747D
100
AcDbEntity
  8
部品1
 48
50.0
100
AcDbLine
 10
7413.396575106983
 20
7756.933683184726
 30
0.0
 11
5316.396575106981
 21
7756.933683184815
 31
0.0
  0
LINE
  5
2083C
330
747D
100
AcDbEntity
  8
部品1
100
AcDbLine
 10
10433.01180296408
 20
4940.0
 30
0.0
 11
10433.01180296408
 21
3150.0
 31
0.0
  0
LINE
  5
2087D
330
747D
100
AcDbEntity
  8
細線
 48
50.0
100
AcDbLine
 10
10775.51180296409
 20
4940.0
 30
0.0
 11
10775.51180296409
 21
3150.0
 31
0.0
  0
LINE
  5
2087E
330
747D
100
AcDbEntity
  8
細線
 48
50.0
100
AcDbLine
 10
10790.51180296409
 20
4940.0
 30
0.0
 11
10790.51180296409
 21
3150.0
 31
0.0
  0
LINE
  5
2087F
330
747D
100
AcDbEntity
  8
細線
 48
50.0
100
AcDbLine
 10
10650.51180296409
 20
4940.0
 30
0.0
 11
10650.51180296409
 21
3150.0
 31
0.0
  0
LINE
  5
20880
330
747D
100
AcDbEntity
  8
細線
 48
50.0
100
AcDbLine
 10
10635.51180296409
 20
4940.0
 30
0.0
 11
10635.51180296409
 21
3150.0
 31
0.0
  0
LINE
  5
20881
330
747D
100
AcDbEntity
  8
細線
 48
50.0
100
AcDbLine
 10
10495.51180296409
 20
4940.0
 30
0.0
 11
10495.51180296409
 21
3150.0
 31
0.0
  0
LINE
  5
20882
330
747D
100
AcDbEntity
  8
細線
 48
50.0
100
AcDbLine
 10
10510.51180296409
 20
4940.0
 30
0.0
 11
10510.51180296409
 21
3150.0
 31
0.0
  0
LINE
  5
21042
330
747D
100
AcDbEntity
  8
部品1
 48
50.0
100
AcDbLine
 10
10323.01180296409
 20
3100.0
 30
0.0
 11
10323.01180296409
 21
3000.0
 31
0.0
  0
LINE
  5
21043
330
747D
100
AcDbEntity
  8
部品1
 48
50.0
100
AcDbLine
 10
10123.01180296409
 20
3100.0
 30
0.0
 11
10123.01180296409
 21
3000.0
 31
0.0
  0
LINE
  5
21044
330
747D
100
AcDbEntity
  8
部品1
 48
50.0
100
AcDbLine
 10
10083.01180296409
 20
5305.86813910128
 30
0.0
 11
10383.01180296409
 21
5305.86813910128
 31
0.0
  0
LINE
  5
21045
330
747D
100
AcDbEntity
  8
部品1
 48
50.0
100
AcDbLine
 10
10383.01180296409
 20
5305.86813910128
 30
0.0
 11
10383.01180296409
 21
5284.26813910128
 31
0.0
  0
TEXT
  5
21046
330
747D
100
AcDbEntity
  8
部品1
 48
50.0
100
AcDbText
 10
10071.27963818781
 20
5341.752161253713
 30
0.0
 40
120.0
  1
1000
  7
STYLE1
100
AcDbText
  0
TEXT
  5
21047
330
747D
100
AcDbEntity
  8
部品1
 48
50.0
100
AcDbText
 10
10560.10465025195
 20
5204.25090303543
 30
0.0
 40
120.0
  1
71
 50
90.0
  7
STYLE1
100
AcDbText
  0
LINE
  5
21048
330
747D
100
AcDbEntity
  8
部品1
 48
50.0
100
AcDbLine
 10
10083.01180296409
 20
5305.86813910128
 30
0.0
 11
10383.01180296409
 21
5284.26813910128
 31
0.0
  0
DIMENSION
  5
21962
330
747D
100
AcDbEntity
  8
寸法
 48
50.0
100
AcDbDimension
  2
*D28
 10
7369.89657510701
 20
2513.952670699622
 30
0.0
 11
7469.896575107011
 21
2513.952670699622
 31
0.0
 70
   160
 71
     5
 42
199.9999999999982
  3
INABA_S40G
100
AcDbAlignedDimension
 13
7569.896575107009
 23
2799.999999999998
 33
0.0
 14
7369.89657510701
 24
2799.999999999999
 34
0.0
100
AcDbRotatedDimension
  0
LINE
  5
21963
330
747D
100
AcDbEntity
  8
破線
 48
5.0
100
AcDbLine
 10
7369.89657510701
 20
3000.0
 30
0.0
 11
7369.89657510701
 21
2799.999999999999
 31
0.0
  0
LINE
  5
21964
330
747D
100
AcDbEntity
  8
破線
 48
5.0
100
AcDbLine
 10
7569.89657510701
 20
3000.0
 30
0.0
 11
7569.896575107009
 21
2799.999999999998
 31
0.0
  0
LINE
  5
21965
330
747D
100
AcDbEntity
  8
破線
 48
5.0
100
AcDbLine
 10
7569.896575107009
 20
2799.999999999998
 30
0.0
 11
7369.89657510701
 21
2799.999999999999
 31
0.0
  0
LINE
  5
21967
330
747D
100
AcDbEntity
  8
破線
 48
5.0
100
AcDbLine
 10
5349.896575106994
 20
3000.000000000001
 30
0.0
 11
5349.896575106993
 21
2800.0
 31
0.0
  0
LINE
  5
21968
330
747D
100
AcDbEntity
  8
破線
 48
5.0
100
AcDbLine
 10
5349.896575106993
 20
2800.0
 30
0.0
 11
5149.896575106994
 21
2800.0
 31
0.0
  0
LINE
  5
21969
330
747D
100
AcDbEntity
  8
破線
 48
5.0
100
AcDbLine
 10
5149.896575106994
 20
3000.000000000001
 30
0.0
 11
5149.896575106994
 21
2800.0
 31
0.0
  0
LINE
  5
2196A
330
747D
100
AcDbEntity
  8
部品1
 48
50.0
100
AcDbLine
 10
6118.896575107001
 20
3100.0
 30
0.0
 11
6118.896575107001
 21
3000.0
 31
0.0
  0
LINE
  5
2196B
330
747D
100
AcDbEntity
  8
部品1
 48
50.0
100
AcDbLine
 10
5918.896575107001
 20
3100.0
 30
0.0
 11
5918.896575107001
 21
3000.0
 31
0.0
  0
LINE
  5
2196C
330
747D
100
AcDbEntity
  8
部品1
 48
50.0
100
AcDbLine
 10
6810.896575107001
 20
3100.0
 30
0.0
 11
6810.896575107001
 21
3000.0
 31
0.0
  0
LINE
  5
2196D
330
747D
100
AcDbEntity
  8
部品1
 48
50.0
100
AcDbLine
 10
6610.896575107002
 20
3100.0
 30
0.0
 11
6610.896575107002
 21
3000.0
 31
0.0
  0
DIMENSION
  5
21998
330
747D
100
AcDbEntity
  8
寸法
 48
50.0
100
AcDbDimension
  2
*D30
 10
9316.011799717454
 20
3000.0
 30
0.0
 11
9316.011799717454
 21
2900.000000000001
 31
0.0
 70
   160
 71
     5
 42
200.0000000000009
  3
INABA_S40G
100
AcDbAlignedDimension
 13
9465.511802964091
 23
2799.999999999999
 33
0.0
 14
9440.511802964088
 24
3000.0
 34
0.0
 50
90.0
100
AcDbRotatedDimension
1001
ACAD
1000
DSTYLE
1002
{
1070
   174
1070
     0
1070
   272
1070
     1
1070
   288
1070
     0
1070
   341
1005
0
1002
}
  0
LINE
  5
21999
330
747D
100
AcDbEntity
  8
破線
 48
5.0
100
AcDbLine
 10
9665.511802964088
 20
2799.999999999998
 30
0.0
 11
9465.511802964091
 21
2799.999999999999
 31
0.0
  0
LINE
  5
2199A
330
747D
100
AcDbEntity
  8
破線
 48
5.0
100
AcDbLine
 10
9665.51180296409
 20
3000.0
 30
0.0
 11
9665.511802964088
 21
2799.999999999998
 31
0.0
  0
LINE
  5
2199B
330
747D
100
AcDbEntity
  8
破線
 48
5.0
100
AcDbLine
 10
9465.511802964089
 20
3000.0
 30
0.0
 11
9465.511802964091
 21
2799.999999999999
 31
0.0
  0
DIMENSION
  5
2199C
330
747D
100
AcDbEntity
  8
寸法
 48
50.0
100
AcDbDimension
  2
*D29
 10
9465.511802964091
 20
2513.952670699622
 30
0.0
 11
9565.511802964088
 21
2513.952670699622
 31
0.0
 70
   160
 71
     5
 42
199.9999999999963
  3
INABA_S40G
100
AcDbAlignedDimension
 13
9665.511802964088
 23
2799.999999999998
 33
0.0
 14
9465.511802964091
 24
2799.999999999999
 34
0.0
100
AcDbRotatedDimension
  0
LINE
  5
219C7
330
747D
100
AcDbEntity
  8
破線
 48
5.0
100
AcDbLine
 10
10980.51180296409
 20
3000.0
 30
0.0
 11
10980.51180296409
 21
2799.999999999998
 31
0.0
  0
LINE
  5
219C8
330
747D
100
AcDbEntity
  8
破線
 48
5.0
100
AcDbLine
 10
10980.51180296409
 20
2799.999999999998
 30
0.0
 11
10780.51180296409
 21
2799.999999999999
 31
0.0
  0
LINE
  5
219C9
330
747D
100
AcDbEntity
  8
破線
 48
5.0
100
AcDbLine
 10
10780.51180296409
 20
3000.0
 30
0.0
 11
10780.51180296409
 21
2799.999999999999
 31
0.0
  0
ARC
  5
219CA
330
747D
100
AcDbEntity
  8
細線
100
AcDbCircle
 10
5769.896581606886
 20
7310.433683184712
 30
0.0
 40
6.0
100
AcDbArc
 50
204.6243183521779
 51
335.3756816478222
  0
ARC
  5
219CB
330
747D
100
AcDbEntity
  8
細線
100
AcDbCircle
 10
6421.396581606881
 20
7344.433683184729
 30
0.0
 40
6.0
100
AcDbArc
 50
204.6243183521779
 51
335.3756816478222
  0
LINE
  5
219CC
330
747D
100
AcDbEntity
  8
細線
100
AcDbLine
 10
6093.896575106977
 20
7314.933683184742
 30
0.0
 11
6093.896575106978
 21
7318.933683184744
 31
0.0
  0
LINE
  5
219CD
330
747D
100
AcDbEntity
  8
細線
100
AcDbLine
 10
6093.896575106977
 20
7314.933683184742
 30
0.0
 11
6073.896575106988
 21
7314.933683184742
 31
0.0
  0
LINE
  5
219CE
330
747D
100
AcDbEntity
  8
細線
100
AcDbLine
 10
6073.896575106988
 20
7314.933683184742
 30
0.0
 11
6073.896575106998
 21
7348.933683184751
 31
0.0
  0
LINE
  5
219CF
330
747D
100
AcDbEntity
  8
細線
100
AcDbLine
 10
6114.896575106994
 20
7284.933683184757
 30
0.0
 11
6114.896575107003
 21
7314.933683184756
 31
0.0
  0
LINE
  5
219D0
330
747D
100
AcDbEntity
  8
細線
100
AcDbLine
 10
6114.896575107002
 20
7314.933683184756
 30
0.0
 11
6099.896575106999
 21
7314.933683184754
 31
0.0
  0
LINE
  5
219D1
330
747D
100
AcDbEntity
  8
細線
100
AcDbLine
 10
6099.896575106997
 20
7307.933683184753
 30
0.0
 11
6099.896575106999
 21
7314.933683184754
 31
0.0
  0
LINE
  5
219D2
330
747D
100
AcDbEntity
  8
細線
100
AcDbLine
 10
6099.896575106978
 20
7318.93368318475
 30
0.0
 11
6093.896575106978
 21
7318.93368318475
 31
0.0
  0
LINE
  5
219D3
330
747D
100
AcDbEntity
  8
細線
100
AcDbLine
 10
6105.896575107004
 20
7318.233683184749
 30
0.0
 11
6105.896575107004
 21
7318.93368318475
 31
0.0
  0
ARC
  5
219D4
330
747D
100
AcDbEntity
  8
細線
100
AcDbCircle
 10
6103.896575107003
 20
7318.233683184749
 30
0.0
 40
2.0
100
AcDbArc
 50
270.0
 51
0.0
  0
LINE
  5
219D5
330
747D
100
AcDbEntity
  8
細線
100
AcDbLine
 10
6101.896575107003
 20
7316.233683184748
 30
0.0
 11
6103.896575107004
 21
7316.233683184748
 31
0.0
  0
LINE
  5
219D6
330
747D
100
AcDbEntity
  8
細線
100
AcDbLine
 10
6099.896575107004
 20
7318.233683184749
 30
0.0
 11
6099.896575107004
 21
7318.93368318475
 31
0.0
  0
ARC
  5
219D7
330
747D
100
AcDbEntity
  8
細線
100
AcDbCircle
 10
6101.896575107002
 20
7318.233683184749
 30
0.0
 40
2.0
100
AcDbArc
 50
180.0
 51
270.0
  0
LINE
  5
219D9
330
747D
100
AcDbEntity
  8
細線
100
AcDbLine
 10
6088.896575106993
 20
7341.933683184729
 30
0.0
 11
6088.896575106996
 21
7348.933683184751
 31
0.0
  0
ARC
  5
219DD
330
747D
100
AcDbEntity
  8
細線
100
AcDbCircle
 10
6755.896575106987
 20
7354.23368318472
 30
0.0
 40
2.0
100
AcDbArc
 50
180.0
 51
270.0
  0
LINE
  5
219DE
330
747D
100
AcDbEntity
  8
細線
100
AcDbLine
 10
6753.896575106988
 20
7354.233683184721
 30
0.0
 11
6753.896575106988
 21
7354.93368318472
 31
0.0
  0
LINE
  5
219DF
330
747D
100
AcDbEntity
  8
細線
100
AcDbLine
 10
6755.896575106987
 20
7352.233683184721
 30
0.0
 11
6757.896575106989
 21
7352.233683184721
 31
0.0
  0
ARC
  5
219E0
330
747D
100
AcDbEntity
  8
細線
100
AcDbCircle
 10
6757.896575106987
 20
7354.23368318472
 30
0.0
 40
2.0
100
AcDbArc
 50
270.0
 51
0.0
  0
LINE
  5
219E1
330
747D
100
AcDbEntity
  8
細線
100
AcDbLine
 10
6759.896575106989
 20
7354.233683184721
 30
0.0
 11
6759.896575106989
 21
7354.93368318472
 31
0.0
  0
LINE
  5
21D34
330
747D
100
AcDbEntity
  8
細線
100
AcDbLine
 10
6088.896575106995
 20
7348.933683184751
 30
0.0
 11
6073.896575106996
 21
7348.933683184751
 31
0.0
  0
LINE
  5
21D35
330
747D
100
AcDbEntity
  8
細線
100
AcDbLine
 10
6742.896575106986
 20
7378.43368318472
 30
0.0
 11
6742.896575106986
 21
7382.933683184716
 31
0.0
  0
MTEXT
  5
21D4E
330
747D
100
AcDbEntity
  8
寸法
 62
     7
 48
50.0
100
AcDbMText
 10
5944.655318850063
 20
8254.251323693598
 30
0.0
 40
96.0
 41
0.0
 71
     5
 72
     1
  1
棚 2段
  7
STYLE1
 73
     1
 44
1.0
1001
ACAD
1000
MTEXTBEGIN
1070
    73
1070
     1
1070
    44
1040
1.0
1070
    74
1070
     0
1000
MTEXTEND
  0
MTEXT
  5
21D4F
330
747D
100
AcDbEntity
  8
寸法
 62
     7
 48
50.0
100
AcDbMText
 10
7034.65531885006
 20
8254.25132369367
 30
0.0
 40
96.0
 41
0.0
 71
     5
 72
     1
  1
棚 2段
  7
STYLE1
 73
     1
 44
1.0
1001
ACAD
1000
MTEXTBEGIN
1070
    73
1070
     1
1070
    44
1040
1.0
1070
    74
1070
     0
1000
MTEXTEND
  0
LWPOLYLINE
  5
21DA6
330
747D
100
AcDbEntity
  8
部品1
 48
50.0
100
AcDbPolyline
 90
        4
 70
     1
 43
0.0
 10
5379.94657510699
 20
4020.25000000001
 10
5382.846575106992
 20
4020.25000000001
 10
5382.846575106992
 20
4029.750000000011
 10
5379.94657510699
 20
4029.750000000011
  0
CIRCLE
  5
21DA7
330
747D
100
AcDbEntity
  8
部品1
 48
50.0
100
AcDbCircle
 10
5381.39657510699
 20
4025.000000000011
 30
0.0
 40
9.0
  0
ARC
  5
21DA8
330
747D
100
AcDbEntity
  8
細線
 48
50.0
100
AcDbCircle
 10
5381.39657510699
 20
4025.000000000011
 30
0.0
 40
4.0
100
AcDbArc
 50
111.2538091853132
 51
248.7461908146868
  0
ARC
  5
21DA9
330
747D
100
AcDbEntity
  8
細線
 48
50.0
100
AcDbCircle
 10
5381.39657510699
 20
4025.000000000011
 30
0.0
 40
17.5
100
AcDbArc
 50
306.4837370612677
 51
233.5162629387323
  0
LINE
  5
21DAA
330
747D
100
AcDbEntity
  8
細線
 48
50.0
100
AcDbLine
 10
5391.396575106988
 20
4001.141039419128
 30
0.0
 11
5391.396575106991
 21
4010.125525219369
 31
0.0
  0
LINE
  5
21DAB
330
747D
100
AcDbEntity
  8
細線
 48
50.0
100
AcDbLine
 10
5371.396575106991
 20
4001.14103941913
 30
0.0
 11
5371.396575106991
 21
4010.125525219366
 31
0.0
  0
ARC
  5
21DAC
330
747D
100
AcDbEntity
  8
細線
 48
50.0
100
AcDbCircle
 10
5381.39657510699
 20
4025.000000000011
 30
0.0
 40
26.5
100
AcDbArc
 50
249.332683506403
 51
290.6673164933835
  0
ARC
  5
21DAD
330
747D
100
AcDbEntity
  8
細線
 48
50.0
100
AcDbCircle
 10
5390.396575106984
 20
4001.141039419128
 30
0.0
 40
1.0
100
AcDbArc
 50
290.667316493597
 51
359.9999999998958
  0
ARC
  5
21DAE
330
747D
100
AcDbEntity
  8
細線
 48
50.0
100
AcDbCircle
 10
5372.396575106991
 20
4001.14103941913
 30
0.0
 40
1.0
100
AcDbArc
 50
180.0
 51
249.3326835066164
  0
ARC
  5
21DAF
330
747D
100
AcDbEntity
  8
細線
 48
50.0
100
AcDbCircle
 10
5370.39657510699
 20
4010.125525219366
 30
0.0
 40
1.0
100
AcDbArc
 50
0.0
 51
53.51626293873231
  0
ARC
  5
21DB0
330
747D
100
AcDbEntity
  8
細線
 48
50.0
100
AcDbCircle
 10
5392.396575106994
 20
4010.125525219369
 30
0.0
 40
1.0
100
AcDbArc
 50
126.4837370615282
 51
180.0
  0
ARC
  5
21DB1
330
747D
100
AcDbEntity
  8
細線
 48
50.0
100
AcDbCircle
 10
5381.39657510699
 20
4025.000000000011
 30
0.0
 40
21.5
100
AcDbArc
 50
255.8014401250294
 51
284.1985598749706
  0
ARC
  5
21DB2
330
747D
100
AcDbEntity
  8
細線
 48
50.0
100
AcDbCircle
 10
5381.39657510699
 20
4025.000000000011
 30
0.0
 40
16.5
100
AcDbArc
 50
251.9694646069326
 51
288.0305353930674
  0
LINE
  5
21DB3
330
747D
100
AcDbEntity
  8
細線
 48
50.0
100
AcDbLine
 10
5386.896575106991
 20
4004.447627874204
 30
0.0
 11
5386.896575106991
 21
4009.025019561541
 31
0.0
  0
LINE
  5
21DB4
330
747D
100
AcDbEntity
  8
細線
 48
50.0
100
AcDbLine
 10
5375.896575106991
 20
4004.447627874204
 30
0.0
 11
5375.896575106991
 21
4009.025019561539
 31
0.0
  0
ARC
  5
21DB5
330
747D
100
AcDbEntity
  8
細線
 48
50.0
100
AcDbCircle
 10
5376.196575106994
 20
4009.025019561539
 30
0.0
 40
0.3
100
AcDbArc
 50
71.96946460693259
 51
180.0
  0
ARC
  5
21DB6
330
747D
100
AcDbEntity
  8
細線
 48
50.0
100
AcDbCircle
 10
5386.596575106992
 20
4009.025019561541
 30
0.0
 40
0.3
100
AcDbArc
 50
0.0
 51
108.0305353930674
  0
ARC
  5
21DB7
330
747D
100
AcDbEntity
  8
細線
 48
50.0
100
AcDbCircle
 10
5386.596575106988
 20
4004.447627874204
 30
0.0
 40
0.3
100
AcDbArc
 50
284.1985598747557
 51
0.0000000001042204
  0
ARC
  5
21DB8
330
747D
100
AcDbEntity
  8
細線
 48
50.0
100
AcDbCircle
 10
5376.196575106994
 20
4004.447627874204
 30
0.0
 40
0.3
100
AcDbArc
 50
180.0
 51
255.8014401248145
  0
CIRCLE
  5
21DB9
330
747D
100
AcDbEntity
  8
細線
 48
50.0
100
AcDbCircle
 10
5381.39657510699
 20
4025.000000000011
 30
0.0
 40
12.0
  0
ARC
  5
21DBA
330
747D
100
AcDbEntity
  8
部品1
 48
50.0
100
AcDbCircle
 10
5381.39657510699
 20
4075.00000000001
 30
0.0
 40
8.5
100
AcDbArc
 50
114.315739171091
 51
245.684260828909
  0
CIRCLE
  5
21DBB
330
747D
100
AcDbEntity
  8
細線
 48
50.0
100
AcDbCircle
 10
5381.39657510699
 20
4075.00000000001
 30
0.0
 40
4.5
  0
LWPOLYLINE
  5
21DBC
330
747D
100
AcDbEntity
  8
部品1
 48
50.0
100
AcDbPolyline
 90
        2
 70
     0
 43
0.0
 10
5377.896575106991
 20
4093.674849396993
 10
5377.896575106991
 20
4082.745966692426
  0
CIRCLE
  5
21DBD
330
747D
100
AcDbEntity
  8
部品1
 48
50.0
100
AcDbCircle
 10
5381.39657510699
 20
4075.00000000001
 30
0.0
 40
19.0
  0
LWPOLYLINE
  5
21DBE
330
747D
100
AcDbEntity
  8
部品1
 48
50.0
100
AcDbPolyline
 90
        2
 70
     0
 43
0.0
 10
5377.896575106991
 20
4067.254033307595
 10
5377.896575106991
 20
4056.325150603028
  0
LWPOLYLINE
  5
21DBF
330
747D
100
AcDbEntity
  8
部品1
 48
50.0
100
AcDbPolyline
 90
        2
 70
     0
 43
0.0
 10
5384.896575106991
 20
4082.745966692426
 10
5384.896575106991
 20
4093.674849396993
  0
ARC
  5
21DC0
330
747D
100
AcDbEntity
  8
部品1
 48
50.0
100
AcDbCircle
 10
5381.39657510699
 20
4075.00000000001
 30
0.0
 40
8.5
100
AcDbArc
 50
294.315739171091
 51
65.68426082890896
  0
LWPOLYLINE
  5
21DC1
330
747D
100
AcDbEntity
  8
部品1
 48
50.0
100
AcDbPolyline
 90
        2
 70
     0
 43
0.0
 10
5384.896575106991
 20
4056.325150603028
 10
5384.896575106991
 20
4067.254033307595
  0
ARC
  5
21DC2
330
747D
100
AcDbEntity
  8
細線
 48
50.0
100
AcDbCircle
 10
5381.39657510699
 20
4075.00000000001
 30
0.0
 40
16.5
100
AcDbArc
 50
332.0012352654438
 51
27.99876473455621
  0
ARC
  5
21DC3
330
747D
100
AcDbEntity
  8
細線
 48
50.0
100
AcDbCircle
 10
5381.39657510699
 20
4075.00000000001
 30
0.0
 40
14.0
100
AcDbArc
 50
326.407443611277
 51
33.59255638872305
  0
LINE
  5
21DC4
330
747D
100
AcDbEntity
  8
細線
 48
50.0
100
AcDbLine
 10
5366.827772822659
 20
4082.745966692426
 30
0.0
 11
5369.734671317302
 21
4082.745966692426
 31
0.0
  0
LINE
  5
21DC5
330
747D
100
AcDbEntity
  8
細線
 48
50.0
100
AcDbLine
 10
5366.827772822659
 20
4067.254033307595
 30
0.0
 11
5369.734671317302
 21
4067.254033307595
 31
0.0
  0
LINE
  5
21DC6
330
747D
100
AcDbEntity
  8
細線
 48
50.0
100
AcDbLine
 10
5393.05847889668
 20
4082.745966692426
 30
0.0
 11
5395.965377391326
 21
4082.745966692426
 31
0.0
  0
LINE
  5
21DC7
330
747D
100
AcDbEntity
  8
細線
 48
50.0
100
AcDbLine
 10
5393.05847889668
 20
4067.254033307595
 30
0.0
 11
5395.965377391326
 21
4067.254033307595
 31
0.0
  0
ARC
  5
21DC8
330
747D
100
AcDbEntity
  8
細線
 48
50.0
100
AcDbCircle
 10
5381.39657510699
 20
4075.00000000001
 30
0.0
 40
14.0
100
AcDbArc
 50
146.4074436112769
 51
213.592556388723
  0
ARC
  5
21DC9
330
747D
100
AcDbEntity
  8
細線
 48
50.0
100
AcDbCircle
 10
5381.39657510699
 20
4075.00000000001
 30
0.0
 40
16.5
100
AcDbArc
 50
152.0012352654438
 51
207.9987647345562
  0
ARC
  5
21DCA
330
747D
100
AcDbEntity
  8
部品1
 48
50.0
100
AcDbCircle
 10
5354.896575106991
 20
4100.50000000001
 30
0.0
 40
5.0
100
AcDbArc
 50
90.0
 51
180.0
  0
ARC
  5
21DCB
330
747D
100
AcDbEntity
  8
部品1
 48
50.0
100
AcDbCircle
 10
5354.896575106991
 20
3989.500000000011
 30
0.0
 40
5.0
100
AcDbArc
 50
180.0
 51
270.0
  0
ARC
  5
21DCC
330
747D
100
AcDbEntity
  8
部品1
 48
50.0
100
AcDbCircle
 10
5407.896575106991
 20
3989.500000000011
 30
0.0
 40
5.0
100
AcDbArc
 50
270.0
 51
0.0
  0
ARC
  5
21DCD
330
747D
100
AcDbEntity
  8
部品1
 48
50.0
100
AcDbCircle
 10
5407.896575106991
 20
4100.50000000001
 30
0.0
 40
5.0
100
AcDbArc
 50
0.0
 51
90.0
  0
LINE
  5
21DCE
330
747D
100
AcDbEntity
  8
部品1
 48
50.0
100
AcDbLine
 10
5349.896575106991
 20
3989.500000000011
 30
0.0
 11
5349.896575106991
 21
4100.50000000001
 31
0.0
  0
LINE
  5
21DCF
330
747D
100
AcDbEntity
  8
部品1
 48
50.0
100
AcDbLine
 10
5407.896575106991
 20
3984.500000000011
 30
0.0
 11
5354.896575106991
 21
3984.500000000011
 31
0.0
  0
LINE
  5
21DD0
330
747D
100
AcDbEntity
  8
部品1
 48
50.0
100
AcDbLine
 10
5412.896575106991
 20
4100.50000000001
 30
0.0
 11
5412.896575106991
 21
3989.500000000011
 31
0.0
  0
ENDSEC
  0
SECTION
  2
OBJECTS
  0
DICTIONARY
  5
7471
330
0
100
AcDbDictionary
281
     1
  3
ACAD_COLOR
350
159B0
  3
ACAD_GROUP
350
7472
  3
ACAD_LAYOUT
350
159B1
  3
ACAD_MATERIAL
350
159AF
  3
ACAD_MLINESTYLE
350
7473
  3
ACAD_PLOTSETTINGS
350
159B2
  3
ACAD_PLOTSTYLENAME
350
159AD
  3
ACDBHEADERROUNDTRIPXREC
350
21DDF
  3
AcDbVariableDictionary
350
21DDB
  3
CONTENTDICTIONARY
350
E71C
  3
DRAWINGVARIABLESDICT
350
F3B9
  0
DICTIONARY
  5
212E1
330
7467
100
AcDbDictionary
280
     1
281
     1
  3
ACAD_LAYERSTATES
360
212E2
  0
DICTIONARY
  5
159B0
102
{ACAD_REACTORS
330
7471
102
}
330
7471
100
AcDbDictionary
281
     1
  0
DICTIONARY
  5
7472
102
{ACAD_REACTORS
330
7471
102
}
330
7471
100
AcDbDictionary
281
     1
  0
DICTIONARY
  5
159B1
102
{ACAD_REACTORS
330
7471
102
}
330
7471
100
AcDbDictionary
281
     1
  3
Model
350
159B3
  3
レイアウト1
350
159B4
  0
DICTIONARY
  5
159AF
102
{ACAD_REACTORS
330
7471
102
}
330
7471
100
AcDbDictionary
281
     1
  0
DICTIONARY
  5
7473
102
{ACAD_REACTORS
330
7471
102
}
330
7471
100
AcDbDictionary
281
     1
  3
STANDARD
350
7480
  0
DICTIONARY
  5
159B2
102
{ACAD_REACTORS
330
7471
102
}
330
7471
100
AcDbDictionary
281
     1
  0
ACDBDICTIONARYWDFLT
  5
159AD
102
{ACAD_REACTORS
330
7471
102
}
330
7471
100
AcDbDictionary
281
     1
  3
Normal
350
159AE
100
AcDbDictionaryWithDefault
340
159AE
  0
DICTIONARY
  5
21DDF
102
{ACAD_REACTORS
330
7471
102
}
330
7471
100
AcDbDictionary
281
     1
  3
COLORDICT
350
21DE1
  3
MATERIALDICT
350
21DE0
  0
DICTIONARY
  5
21DDB
102
{ACAD_REACTORS
330
7471
102
}
330
7471
100
AcDbDictionary
281
     1
  3
DIMASSOC
350
21DDC
  3
PROJECTNAME
350
21DDD
  0
DICTIONARY
  5
E71C
102
{ACAD_REACTORS
330
7471
102
}
330
7471
100
AcDbDictionary
281
     1
  0
DICTIONARY
  5
F3B9
102
{ACAD_REACTORS
330
7471
102
}
330
7471
100
AcDbDictionary
281
     1
1001
DRAWINGVARIABLESXDATA
1000
POLARMODE
1000
1
  0
DICTIONARY
  5
212E2
102
{ACAD_REACTORS
330
212E1
102
}
330
212E1
100
AcDbDictionary
281
     1
  0
LAYOUT
  5
159B3
102
{ACAD_XDICTIONARY
360
21DE2
102
}
102
{ACAD_REACTORS
330
159B1
102
}
330
159B1
100
AcDbPlotSettings
  1

  2
none_device
  4
Letter_(8.50_x_11.00_Inches)
  6

 40
6.349999904632568
 41
6.349999904632568
 42
6.350006103515625
 43
6.350006103515625
 44
215.8999938964844
 45
279.3999938964844
 46
0.0
 47
0.0
 48
0.0
 49
0.0
140
0.0
141
0.0
142
1.0
143
1.0
 70
 11952
 72
     1
 73
     1
 74
     0
  7

 75
     0
147
1.0
148
-4149.571981164617
149
65.56433826894044
100
AcDbLayout
  1
Model
 70
     1
 71
     0
 10
0.0
 20
0.0
 11
12.0
 21
9.0
 12
0.0
 22
0.0
 32
0.0
 14
0.0
 24
0.0
 34
0.0
 15
0.0
 25
0.0
 35
0.0
146
0.0
 13
0.0
 23
0.0
 33
0.0
 16
1.0
 26
0.0
 36
0.0
 17
0.0
 27
1.0
 37
0.0
 76
     0
330
747D
  0
LAYOUT
  5
159B4
102
{ACAD_XDICTIONARY
360
21DE4
102
}
102
{ACAD_REACTORS
330
159B1
102
}
330
159B1
100
AcDbPlotSettings
  1

  2
自動 EPSON LP-8400FX (TATENO 上)
  4

  6

 40
0.0
 41
0.0
 42
0.0
 43
0.0
 44
0.0
 45
0.0
 46
0.0
 47
0.0
 48
0.0
 49
0.0
140
0.0
141
0.0
142
1.0
143
1.0
 70
   688
 72
     0
 73
     0
 74
     5
  7
inaba.ctb
 75
    16
147
1.0
148
0.0
149
0.0
100
AcDbLayout
  1
レイアウト1
 70
     0
 71
     1
 10
0.0
 20
0.0
 11
420.0
 21
297.0
 12
0.0
 22
0.0
 32
0.0
 14
1.000000000000000E+20
 24
1.000000000000000E+20
 34
1.000000000000000E+20
 15
-1.000000000000000E+20
 25
-1.000000000000000E+20
 35
-1.000000000000000E+20
146
0.0
 13
0.0
 23
0.0
 33
0.0
 16
1.0
 26
0.0
 36
0.0
 17
0.0
 27
1.0
 37
0.0
 76
     0
330
747A
  0
MLINESTYLE
  5
7480
102
{ACAD_REACTORS
330
7473
102
}
330
7473
100
AcDbMlineStyle
  2
STANDARD
 70
     0
  3

 62
     0
 51
90.0
 52
90.0
 71
     2
 49
0.5
 62
   256
  6
BYLAYER
 49
-0.5
 62
   256
  6
BYLAYER
  0
ACDBPLACEHOLDER
  5
159AE
102
{ACAD_REACTORS
330
159AD
102
}
330
159AD
  0
XRECORD
  5
21DE1
102
{ACAD_REACTORS
330
21DDF
102
}
330
21DDF
100
AcDbXrecord
280
     1
340
159B0
  0
XRECORD
  5
21DE0
102
{ACAD_REACTORS
330
21DDF
102
}
330
21DDF
100
AcDbXrecord
280
     1
340
159AF
  0
DICTIONARYVAR
  5
21DDC
102
{ACAD_REACTORS
330
21DDB
102
}
330
21DDB
100
DictionaryVariables
280
     0
  1
1
  0
DICTIONARYVAR
  5
21DDD
102
{ACAD_REACTORS
330
21DDB
102
}
330
21DDB
100
DictionaryVariables
280
     0
  1

  0
DICTIONARY
  5
21DE2
330
159B3
100
AcDbDictionary
280
     1
281
     1
  3
ACAD_XREC_ROUNDTRIP
360
21DE3
  0
DICTIONARY
  5
21DE4
330
159B4
100
AcDbDictionary
280
     1
281
     1
  3
ACAD_XREC_ROUNDTRIP
360
21DE5
  0
XRECORD
  5
21DE3
102
{ACAD_REACTORS
330
21DE2
102
}
330
21DE2
100
AcDbXrecord
280
     1
102
SHADEPLOT
 70
     0
102
SHADEPLOTRESLEVEL
 70
     2
102
SHADEPLOTCUSTOMDPI
 70
   300
  0
XRECORD
  5
21DE5
102
{ACAD_REACTORS
330
21DE4
102
}
330
21DE4
100
AcDbXrecord
280
     1
102
SHADEPLOT
 70
     0
102
SHADEPLOTRESLEVEL
 70
     2
102
SHADEPLOTCUSTOMDPI
 70
   300
  0
ENDSEC
  0
EOF
