  0
SECTION
  2
HEADER
  9
$ACADVER
  1
AC1015
  9
$ACADMAINTVER
 70
    20
  9
$DWGCODEPAGE
  3
ANSI_932
  9
$INSBASE
 10
0.0
 20
0.0
 30
0.0
  9
$EXTMIN
 10
139.9999999999995
 20
-0.0000000000000909
 30
0.0
  9
$EXTMAX
 10
16307.2
 20
11409.6
 30
0.0
  9
$LIMMIN
 10
0.0
 20
0.0
  9
$LIMMAX
 10
16800.0
 20
11880.0
  9
$ORTHOMODE
 70
     0
  9
$REGENMODE
 70
     1
  9
$FILLMODE
 70
     1
  9
$QTEXTMODE
 70
     0
  9
$MIRRTEXT
 70
     1
  9
$LTSCALE
 40
20.0
  9
$ATTMODE
 70
     1
  9
$TEXTSIZE
 40
4.0
  9
$TRACEWID
 40
1.0
  9
$TEXTSTYLE
  7
STYLE1
  9
$CLAYER
  8
細線
  9
$CELTYPE
  6
BYLAYER
  9
$CECOLOR
 62
   256
  9
$CELTSCALE
 40
50.0
  9
$DISPSILH
 70
     0
  9
$DIMSCALE
 40
40.0
  9
$DIMASZ
 40
2.5
  9
$DIMEXO
 40
0.5
  9
$DIMDLI
 40
7.0
  9
$DIMRND
 40
0.0
  9
$DIMDLE
 40
0.0
  9
$DIMEXE
 40
1.5
  9
$DIMTP
 40
0.0
  9
$DIMTM
 40
0.0
  9
$DIMTXT
 40
3.0
  9
$DIMCEN
 40
0.0
  9
$DIMTSZ
 40
0.0
  9
$DIMTOL
 70
     0
  9
$DIMLIM
 70
     0
  9
$DIMTIH
 70
     0
  9
$DIMTOH
 70
     0
  9
$DIMSE1
 70
     0
  9
$DIMSE2
 70
     0
  9
$DIMTAD
 70
     3
  9
$DIMZIN
 70
     8
  9
$DIMBLK
  1

  9
$DIMASO
 70
     1
  9
$DIMSHO
 70
     1
  9
$DIMPOST
  1

  9
$DIMAPOST
  1

  9
$DIMALT
 70
     0
  9
$DIMALTD
 70
     2
  9
$DIMALTF
 40
0.0394
  9
$DIMLFAC
 40
1.0
  9
$DIMTOFL
 70
     1
  9
$DIMTVP
 40
0.0
  9
$DIMTIX
 70
     1
  9
$DIMSOXD
 70
     0
  9
$DIMSAH
 70
     1
  9
$DIMBLK1
  1
DOTSMALL
  9
$DIMBLK2
  1
DOTSMALL
  9
$DIMSTYLE
  2
INABA_S40G
  9
$DIMCLRD
 70
     0
  9
$DIMCLRE
 70
     0
  9
$DIMCLRT
 70
     7
  9
$DIMTFAC
 40
1.0
  9
$DIMGAP
 40
1.0
  9
$DIMJUST
 70
     0
  9
$DIMSD1
 70
     0
  9
$DIMSD2
 70
     0
  9
$DIMTOLJ
 70
     1
  9
$DIMTZIN
 70
     0
  9
$DIMALTZ
 70
     0
  9
$DIMALTTZ
 70
     0
  9
$DIMUPT
 70
     0
  9
$DIMDEC
 70
     1
  9
$DIMTDEC
 70
     4
  9
$DIMALTU
 70
     2
  9
$DIMALTTD
 70
     2
  9
$DIMTXSTY
  7
STYLE1
  9
$DIMAUNIT
 70
     0
  9
$DIMADEC
 70
     0
  9
$DIMALTRND
 40
0.0
  9
$DIMAZIN
 70
     0
  9
$DIMDSEP
 70
    46
  9
$DIMATFIT
 70
     3
  9
$DIMFRAC
 70
     0
  9
$DIMLDRBLK
  1

  9
$DIMLUNIT
 70
     2
  9
$DIMLWD
 70
    -2
  9
$DIMLWE
 70
    -2
  9
$DIMTMOVE
 70
     0
  9
$LUNITS
 70
     2
  9
$LUPREC
 70
     1
  9
$SKETCHINC
 40
1.0
  9
$FILLETRAD
 40
3.0
  9
$AUNITS
 70
     0
  9
$AUPREC
 70
     0
  9
$MENU
  1
acad
  9
$ELEVATION
 40
0.0
  9
$PELEVATION
 40
0.0
  9
$THICKNESS
 40
0.0
  9
$LIMCHECK
 70
     0
  9
$CHAMFERA
 40
0.0
  9
$CHAMFERB
 40
0.0
  9
$CHAMFERC
 40
0.0
  9
$CHAMFERD
 40
0.0
  9
$SKPOLY
 70
     0
  9
$TDCREATE
 40
2451368.612993866
  9
$TDUCREATE
 40
2451368.237993866
  9
$TDUPDATE
 40
2455826.641204422
  9
$TDUUPDATE
 40
2455826.266204422
  9
$TDINDWG
 40
0.8199981481
  9
$TDUSRTIMER
 40
0.8199981481
  9
$USRTIMER
 70
     1
  9
$ANGBASE
 50
0.0
  9
$ANGDIR
 70
     0
  9
$PDMODE
 70
     3
  9
$PDSIZE
 40
2.0
  9
$PLINEWID
 40
0.0
  9
$SPLFRAME
 70
     0
  9
$SPLINETYPE
 70
     6
  9
$SPLINESEGS
 70
     8
  9
$HANDSEED
  5
25F08
  9
$SURFTAB1
 70
     6
  9
$SURFTAB2
 70
     6
  9
$SURFTYPE
 70
     6
  9
$SURFU
 70
     6
  9
$SURFV
 70
     6
  9
$UCSBASE
  2

  9
$UCSNAME
  2

  9
$UCSORG
 10
0.0
 20
0.0
 30
0.0
  9
$UCSXDIR
 10
1.0
 20
0.0
 30
0.0
  9
$UCSYDIR
 10
0.0
 20
1.0
 30
0.0
  9
$UCSORTHOREF
  2

  9
$UCSORTHOVIEW
 70
     0
  9
$UCSORGTOP
 10
0.0
 20
0.0
 30
0.0
  9
$UCSORGBOTTOM
 10
0.0
 20
0.0
 30
0.0
  9
$UCSORGLEFT
 10
0.0
 20
0.0
 30
0.0
  9
$UCSORGRIGHT
 10
0.0
 20
0.0
 30
0.0
  9
$UCSORGFRONT
 10
0.0
 20
0.0
 30
0.0
  9
$UCSORGBACK
 10
0.0
 20
0.0
 30
0.0
  9
$PUCSBASE
  2

  9
$PUCSNAME
  2

  9
$PUCSORG
 10
0.0
 20
0.0
 30
0.0
  9
$PUCSXDIR
 10
1.0
 20
0.0
 30
0.0
  9
$PUCSYDIR
 10
0.0
 20
1.0
 30
0.0
  9
$PUCSORTHOREF
  2

  9
$PUCSORTHOVIEW
 70
     0
  9
$PUCSORGTOP
 10
0.0
 20
0.0
 30
0.0
  9
$PUCSORGBOTTOM
 10
0.0
 20
0.0
 30
0.0
  9
$PUCSORGLEFT
 10
0.0
 20
0.0
 30
0.0
  9
$PUCSORGRIGHT
 10
0.0
 20
0.0
 30
0.0
  9
$PUCSORGFRONT
 10
0.0
 20
0.0
 30
0.0
  9
$PUCSORGBACK
 10
0.0
 20
0.0
 30
0.0
  9
$USERI1
 70
     0
  9
$USERI2
 70
     0
  9
$USERI3
 70
     0
  9
$USERI4
 70
     0
  9
$USERI5
 70
     0
  9
$USERR1
 40
0.0
  9
$USERR2
 40
0.0
  9
$USERR3
 40
0.0
  9
$USERR4
 40
0.0
  9
$USERR5
 40
0.0
  9
$WORLDVIEW
 70
     1
  9
$SHADEDGE
 70
     3
  9
$SHADEDIF
 70
    70
  9
$TILEMODE
 70
     1
  9
$MAXACTVP
 70
    16
  9
$PINSBASE
 10
0.0
 20
0.0
 30
0.0
  9
$PLIMCHECK
 70
     0
  9
$PEXTMIN
 10
1.000000000000000E+20
 20
1.000000000000000E+20
 30
1.000000000000000E+20
  9
$PEXTMAX
 10
-1.000000000000000E+20
 20
-1.000000000000000E+20
 30
-1.000000000000000E+20
  9
$PLIMMIN
 10
0.0
 20
0.0
  9
$PLIMMAX
 10
420.0
 20
297.0
  9
$UNITMODE
 70
     0
  9
$VISRETAIN
 70
     0
  9
$PLINEGEN
 70
     0
  9
$PSLTSCALE
 70
     0
  9
$TREEDEPTH
 70
  3020
  9
$CMLSTYLE
  2
STANDARD
  9
$CMLJUST
 70
     0
  9
$CMLSCALE
 40
1.0
  9
$PROXYGRAPHICS
 70
     1
  9
$MEASUREMENT
 70
     1
  9
$CELWEIGHT
370
    -1
  9
$ENDCAPS
280
     0
  9
$JOINSTYLE
280
     0
  9
$LWDISPLAY
290
     0
  9
$INSUNITS
 70
     0
  9
$HYPERLINKBASE
  1

  9
$STYLESHEET
  1

  9
$XEDIT
290
     1
  9
$CEPSNTYPE
380
     0
  9
$PSTYLEMODE
290
     1
  9
$FINGERPRINTGUID
  2
{5EAC461A-2277-4BF8-9AB0-99C43BB394F0}
  9
$VERSIONGUID
  2
{4B71830B-1812-4EA4-857C-7EC6E8A34398}
  9
$EXTNAMES
290
     1
  9
$PSVPSCALE
 40
0.0
  9
$OLESTARTUP
290
     0
  0
ENDSEC
  0
SECTION
  2
CLASSES
  0
CLASS
  1
ACDBDICTIONARYWDFLT
  2
AcDbDictionaryWithDefault
  3
ObjectDBX Classes
 90
        0
280
     0
281
     0
  0
CLASS
  1
DICTIONARYVAR
  2
AcDbDictionaryVar
  3
ObjectDBX Classes
 90
        0
280
     0
281
     0
  0
CLASS
  1
ACDBPLACEHOLDER
  2
AcDbPlaceHolder
  3
ObjectDBX Classes
 90
        0
280
     0
281
     0
  0
CLASS
  1
LAYOUT
  2
AcDbLayout
  3
ObjectDBX Classes
 90
        0
280
     0
281
     0
  0
ENDSEC
  0
SECTION
  2
TABLES
  0
TABLE
  2
VPORT
  5
746D
330
0
100
AcDbSymbolTable
 70
     2
  0
VPORT
  5
25F00
330
746D
100
AcDbSymbolTableRecord
100
AcDbViewportTableRecord
  2
*Active
 70
     0
 10
0.0
 20
0.0
 11
1.0
 21
1.0
 12
8223.761025238502
 22
5855.51892110829
 13
0.0
 23
0.0
 14
10.0
 24
10.0
 15
10.0
 25
10.0
 16
0.0
 26
0.0
 36
1.0
 17
0.0
 27
0.0
 37
0.0
 40
11801.05715611403
 41
1.522222222222222
 42
50.0
 43
0.0
 44
0.0
 50
0.0
 51
0.0
 71
     0
 72
     0
 73
     1
 74
     0
 75
     0
 76
     0
 77
     0
 78
     0
281
     0
 65
     1
110
0.0
120
0.0
130
0.0
111
1.0
121
0.0
131
0.0
112
0.0
122
1.0
132
0.0
 79
     0
146
0.0
  0
ENDTAB
  0
TABLE
  2
LTYPE
  5
746A
330
0
100
AcDbSymbolTable
 70
     5
  0
LTYPE
  5
7477
330
746A
100
AcDbSymbolTableRecord
100
AcDbLinetypeTableRecord
  2
BYBLOCK
 70
     0
  3

 72
    65
 73
     0
 40
0.0
  0
LTYPE
  5
7478
330
746A
100
AcDbSymbolTableRecord
100
AcDbLinetypeTableRecord
  2
BYLAYER
 70
     0
  3

 72
    65
 73
     0
 40
0.0
  0
LTYPE
  5
7479
330
746A
100
AcDbSymbolTableRecord
100
AcDbLinetypeTableRecord
  2
CONTINUOUS
 70
     0
  3
Solid line
 72
    65
 73
     0
 40
0.0
  0
LTYPE
  5
7816
330
746A
100
AcDbSymbolTableRecord
100
AcDbLinetypeTableRecord
  2
CENTER
 70
     0
  3
____ _ ____ _ ____ _ ____ _ ____ _ ____ _ ____ 
 72
    65
 73
     4
 40
2.0
 49
1.25
 74
     0
 49
-0.25
 74
     0
 49
0.25
 74
     0
 49
-0.25
 74
     0
  0
LTYPE
  5
781A
330
746A
100
AcDbSymbolTableRecord
100
AcDbLinetypeTableRecord
  2
HIDDEN
 70
     0
  3
__ __ __ __ __ __ __ __ __ __ __ __ __ __ __ __
 72
    65
 73
     2
 40
0.375
 49
0.25
 74
     0
 49
-0.125
 74
     0
  0
LTYPE
  5
781B
330
746A
100
AcDbSymbolTableRecord
100
AcDbLinetypeTableRecord
  2
PHANTOM
 70
     0
  3
______  __  __  ______  __  __  ______  __  __ 
 72
    65
 73
     6
 40
2.5
 49
1.25
 74
     0
 49
-0.25
 74
     0
 49
0.25
 74
     0
 49
-0.25
 74
     0
 49
0.25
 74
     0
 49
-0.25
 74
     0
  0
LTYPE
  5
12CC3
330
746A
100
AcDbSymbolTableRecord
100
AcDbLinetypeTableRecord
  2
HIDDENX2
 70
     0
  3
Hidden (2x) ____ ____ ____ ____ ____ ____ ____
 72
    65
 73
     2
 40
19.05
 49
12.7
 74
     0
 49
-6.349999999999999
 74
     0
  0
ENDTAB
  0
TABLE
  2
LAYER
  5
7467
102
{ACAD_XDICTIONARY
360
1758F
102
}
330
0
100
AcDbSymbolTable
 70
    12
  0
LAYER
  5
7474
330
7467
100
AcDbSymbolTableRecord
100
AcDbLayerTableRecord
  2
0
 70
     0
 62
     7
  6
CONTINUOUS
370
    -3
390
173D0
  0
LAYER
  5
DEB2
330
7467
100
AcDbSymbolTableRecord
100
AcDbLayerTableRecord
  2
センター
 70
     0
 62
     3
  6
CENTER
370
    -3
390
173D0
  0
LAYER
  5
DEB3
330
7467
100
AcDbSymbolTableRecord
100
AcDbLayerTableRecord
  2
寸法
 70
     0
 62
     4
  6
CONTINUOUS
370
    -3
390
173D0
  0
LAYER
  5
DEB4
330
7467
100
AcDbSymbolTableRecord
100
AcDbLayerTableRecord
  2
部品1
 70
     0
 62
     7
  6
CONTINUOUS
370
    -3
390
173D0
  0
LAYER
  5
DEB5
330
7467
100
AcDbSymbolTableRecord
100
AcDbLayerTableRecord
  2
補助
 70
     0
 62
    -1
  6
CONTINUOUS
370
    -3
390
173D0
  0
LAYER
  5
DEB6
330
7467
100
AcDbSymbolTableRecord
100
AcDbLayerTableRecord
  2
文字
 70
     0
 62
     7
  6
CONTINUOUS
370
    -3
390
173D0
  0
LAYER
  5
F255
330
7467
100
AcDbSymbolTableRecord
100
AcDbLayerTableRecord
  2
DEFPOINTS
 70
     0
 62
     7
  6
CONTINUOUS
290
     0
370
    -3
390
173D0
  0
LAYER
  5
10B54
330
7467
100
AcDbSymbolTableRecord
100
AcDbLayerTableRecord
  2
仕様書枠
 70
     0
 62
   230
  6
CONTINUOUS
370
    -3
390
173D0
  0
LAYER
  5
11729
330
7467
100
AcDbSymbolTableRecord
100
AcDbLayerTableRecord
  2
Ｇ．Ｌ
 70
     0
 62
    30
  6
CONTINUOUS
370
    -3
390
173D0
  0
LAYER
  5
1173F
330
7467
100
AcDbSymbolTableRecord
100
AcDbLayerTableRecord
  2
細線
 70
     0
 62
     5
  6
CONTINUOUS
370
    -3
390
173D0
  0
LAYER
  5
12CC4
330
7467
100
AcDbSymbolTableRecord
100
AcDbLayerTableRecord
  2
想像線
 70
     0
 62
     6
  6
PHANTOM
370
    -3
390
173D0
  0
LAYER
  5
142E2
330
7467
100
AcDbSymbolTableRecord
100
AcDbLayerTableRecord
  2
破線
 70
     0
 62
     2
  6
HIDDEN
370
    -3
390
173D0
  0
ENDTAB
  0
TABLE
  2
STYLE
  5
7468
330
0
100
AcDbSymbolTable
 70
     7
  0
STYLE
  5
7475
330
7468
100
AcDbSymbolTableRecord
100
AcDbTextStyleTableRecord
  2
STANDARD
 70
     0
 40
0.0
 41
1.0
 50
0.0
 71
     0
 42
4.0
  3
txt
  4
C:\AutoCAD LT\bigfont.shx
  0
STYLE
  5
763C
330
7468
100
AcDbSymbolTableRecord
100
AcDbTextStyleTableRecord
  2
MSMINCHO
 70
     0
 40
0.0
 41
1.0
 50
0.0
 71
     0
 42
1.199999999999999
  3
C:\AutoCAD LT\msminch2.TTF
  4

  0
STYLE
  5
F706
330
7468
100
AcDbSymbolTableRecord
100
AcDbTextStyleTableRecord
  2
STYLE1
 70
     0
 40
0.0
 41
1.0
 50
0.0
 71
     0
 42
4.0
  3
isocp.shx
  4
bigfont.shx
  0
STYLE
  5
103BF
330
7468
100
AcDbSymbolTableRecord
100
AcDbTextStyleTableRecord
  2
STYLE2
 70
     0
 40
0.0
 41
1.0
 50
0.0
 71
     0
 42
100.0
  3
MS PGothic.ttf
  4

1001
ACAD
1000
MS PGothic
1071
    32818
  0
STYLE
  5
10BAA
330
7468
100
AcDbSymbolTableRecord
100
AcDbTextStyleTableRecord
  2
STYLE3
 70
     0
 40
0.0
 41
1.0
 50
0.0
 71
     0
 42
100.0
  3

  4

1001
ACAD
1000
DFPGothic-EB
1071
    32818
  0
STYLE
  5
11A15
330
7468
100
AcDbSymbolTableRecord
100
AcDbTextStyleTableRecord
  2
MSGOTHIC
 70
     0
 40
0.0
 41
1.0
 50
0.0
 71
     0
 42
3.5
  3
msgothi2.ttf
  4

  0
STYLE
  5
13E96
330
7468
100
AcDbSymbolTableRecord
100
AcDbTextStyleTableRecord
  2
MSPゴシック
 70
     0
 40
0.0
 41
1.0
 50
0.0
 71
     0
 42
4.0
  3
MS PGothic.ttf
  4

1001
ACAD
1000
MS PGothic
1071
    32818
  0
ENDTAB
  0
TABLE
  2
VIEW
  5
746B
330
0
100
AcDbSymbolTable
 70
     0
  0
ENDTAB
  0
TABLE
  2
UCS
  5
746C
330
0
100
AcDbSymbolTable
 70
     0
  0
ENDTAB
  0
TABLE
  2
APPID
  5
746E
330
0
100
AcDbSymbolTable
 70
     6
  0
APPID
  5
7476
330
746E
100
AcDbSymbolTableRecord
100
AcDbRegAppTableRecord
  2
ACAD
 70
     0
  0
APPID
  5
DEA9
330
746E
100
AcDbSymbolTableRecord
100
AcDbRegAppTableRecord
  2
CONTENTBLOCKICON
 70
     0
  0
APPID
  5
DEAA
330
746E
100
AcDbSymbolTableRecord
100
AcDbRegAppTableRecord
  2
CONTENTBLOCKDESCRIPTION
 70
     0
  0
APPID
  5
E71D
330
746E
100
AcDbSymbolTableRecord
100
AcDbRegAppTableRecord
  2
CONTENTTABDATA
 70
     0
  0
APPID
  5
E71E
330
746E
100
AcDbSymbolTableRecord
100
AcDbRegAppTableRecord
  2
CONTENTCURRENTTAB
 70
     0
  0
APPID
  5
F3BA
330
746E
100
AcDbSymbolTableRecord
100
AcDbRegAppTableRecord
  2
DRAWINGVARIABLESXDATA
 70
     0
  0
ENDTAB
  0
TABLE
  2
DIMSTYLE
  5
746F
330
0
100
AcDbSymbolTable
 70
     6
100
AcDbDimStyleTable
 71
     1
340
F71F
  0
DIMSTYLE
105
7484
330
746F
100
AcDbSymbolTableRecord
100
AcDbDimStyleTableRecord
  2
JIS
 70
     0
 41
2.5
 42
1.0
 43
7.0
 44
1.0
 73
     0
 74
     0
 77
     1
 78
     8
140
2.5
141
0.0
143
0.0394
147
0.0
172
     1
174
     1
175
     1
340
7475
  0
DIMSTYLE
105
F236
330
746F
100
AcDbSymbolTableRecord
100
AcDbDimStyleTableRecord
  2
INABA_S40
 70
     0
 40
40.0
 41
2.5
 42
0.5
 43
7.0
 44
1.5
 73
     0
 74
     0
 77
     3
 78
     8
140
3.0
141
0.0
143
0.0394
147
1.0
172
     1
173
     1
174
     1
175
     1
178
     7
289
     0
340
7475
341
DEAC
343
DEAC
344
DEAC
  0
DIMSTYLE
105
F71F
102
{ACAD_REACTORS
330
241D3
330
241D2
330
241D1
330
241D0
330
241B4
330
241B2
330
241AD
330
241C0
330
241BF
330
241B9
330
241B8
330
241AF
330
241AA
330
241B0
330
241B3
330
241AB
330
241F3
330
241F2
330
241D6
330
241CA
330
241C9
330
241BB
330
241BA
330
24F29
330
24F2B
330
2535E
330
25363
330
25D33
330
25D34
330
25D3C
330
25D43
330
25D46
330
25DA6
102
}
330
746F
100
AcDbSymbolTableRecord
100
AcDbDimStyleTableRecord
  2
INABA_S40G
 70
     0
 40
40.0
 41
2.5
 42
0.5
 43
7.0
 44
1.5
 73
     0
 74
     0
 77
     3
 78
     8
140
3.0
141
0.0
143
0.0394
147
1.0
172
     1
173
     1
174
     1
178
     7
271
     1
340
F706
341
F770
343
F770
344
F770
  0
DIMSTYLE
105
142E3
330
746F
100
AcDbSymbolTableRecord
100
AcDbDimStyleTableRecord
  2
INABA_S1
 70
     0
 40
0.0
 41
2.5
 42
0.5
 43
7.0
 44
1.5
 73
     0
 74
     0
 77
     3
 78
     8
140
3.0
141
0.0
143
0.0394
146
0.5
147
0.5
172
     1
173
     1
176
   256
177
   256
178
     7
271
     2
272
     2
284
     8
288
     1
340
7475
341
DEAC
343
DEAC
344
DEAC
  0
DIMSTYLE
105
14463
330
746F
100
AcDbSymbolTableRecord
100
AcDbDimStyleTableRecord
  2
INABA_S30G
 70
     0
 40
30.0
 41
2.5
 42
0.5
 43
7.0
 44
1.5
 73
     0
 74
     0
 77
     3
 78
     8
140
3.0
141
0.0
143
0.0394
147
1.0
172
     1
173
     1
174
     1
175
     1
178
     7
271
     1
340
F706
341
F770
343
F770
344
F770
  0
DIMSTYLE
105
1758E
330
746F
100
AcDbSymbolTableRecord
100
AcDbDimStyleTableRecord
  2
INABA_S50G
 70
     0
 41
125.0
 42
25.0
 43
7.0
 44
75.0
 73
     0
 74
     0
 77
     3
 78
     8
140
150.0
141
0.0
143
0.0394
147
25.0
172
     1
173
     1
174
     1
175
     1
178
     7
271
     1
340
F706
341
F770
343
F770
344
F770
  0
ENDTAB
  0
TABLE
  2
BLOCK_RECORD
  5
7466
330
0
100
AcDbSymbolTable
 70
    52
  0
BLOCK_RECORD
  5
747D
330
7466
100
AcDbSymbolTableRecord
100
AcDbBlockTableRecord
  2
*MODEL_SPACE
340
173D5
  0
BLOCK_RECORD
  5
747A
330
7466
100
AcDbSymbolTableRecord
100
AcDbBlockTableRecord
  2
*PAPER_SPACE
340
173D6
  0
BLOCK_RECORD
  5
DEAC
330
7466
100
AcDbSymbolTableRecord
100
AcDbBlockTableRecord
  2
_OPEN
340
0
  0
BLOCK_RECORD
  5
F770
330
7466
100
AcDbSymbolTableRecord
100
AcDbBlockTableRecord
  2
_DOTSMALL
340
0
102
{BLKREFS
331
18C65
331
18C66
331
18C59
331
18C5A
331
18C4D
331
18C4E
331
18C41
331
18C42
331
18C35
331
18C36
331
18C29
331
18C2A
331
18C1D
331
18C1E
331
18C0F
331
18C10
331
18C03
331
18C04
331
18BF5
331
18BF6
331
18BE7
331
18BE8
331
18BD9
331
18BDA
331
18BCD
331
18BCE
331
24896
331
24897
331
248B3
331
248B4
331
248BC
331
248BD
331
248C5
331
248C6
331
248CF
331
248D0
331
248D8
331
248D9
331
248E1
331
248E2
331
248EC
331
248ED
331
24901
331
24902
331
2490B
331
2490C
331
2491F
331
24920
331
24928
331
24929
331
24933
331
24934
331
2493D
331
2493E
331
24946
331
24947
331
24959
331
2495A
331
2496C
331
2496D
331
24D4B
331
24D4C
331
24D61
331
24D62
331
255F5
331
255F6
331
25B05
331
25B06
331
25B0F
331
25B10
331
25B19
331
25B1A
331
25B23
331
25B24
331
25B2D
331
25B2E
331
25B37
331
25B38
331
25B41
331
25B42
331
25EB0
331
25EB1
331
25EBF
331
25EC0
331
25EC8
331
25EC9
331
25ED1
331
25ED2
331
25EDA
331
25EDB
331
25EE3
331
25EE4
102
}
  0
BLOCK_RECORD
  5
164B4
330
7466
100
AcDbSymbolTableRecord
100
AcDbBlockTableRecord
  2
_DOT
340
0
102
{BLKREFS
331
18C73
331
18C74
102
}
  0
BLOCK_RECORD
  5
18BC8
330
7466
100
AcDbSymbolTableRecord
100
AcDbBlockTableRecord
  2
*D3
340
0
  0
BLOCK_RECORD
  5
18BD4
330
7466
100
AcDbSymbolTableRecord
100
AcDbBlockTableRecord
  2
*D4
340
0
  0
BLOCK_RECORD
  5
18BE0
330
7466
100
AcDbSymbolTableRecord
100
AcDbBlockTableRecord
  2
*D5
340
0
  0
BLOCK_RECORD
  5
18BEE
330
7466
100
AcDbSymbolTableRecord
100
AcDbBlockTableRecord
  2
*D6
340
0
  0
BLOCK_RECORD
  5
18BFC
330
7466
100
AcDbSymbolTableRecord
100
AcDbBlockTableRecord
  2
*D7
340
0
  0
BLOCK_RECORD
  5
18C0A
330
7466
100
AcDbSymbolTableRecord
100
AcDbBlockTableRecord
  2
*D8
340
0
  0
BLOCK_RECORD
  5
18C16
330
7466
100
AcDbSymbolTableRecord
100
AcDbBlockTableRecord
  2
*D9
340
0
  0
BLOCK_RECORD
  5
18C24
330
7466
100
AcDbSymbolTableRecord
100
AcDbBlockTableRecord
  2
*D10
340
0
  0
BLOCK_RECORD
  5
18C30
330
7466
100
AcDbSymbolTableRecord
100
AcDbBlockTableRecord
  2
*D11
340
0
  0
BLOCK_RECORD
  5
18C3C
330
7466
100
AcDbSymbolTableRecord
100
AcDbBlockTableRecord
  2
*D12
340
0
  0
BLOCK_RECORD
  5
18C48
330
7466
100
AcDbSymbolTableRecord
100
AcDbBlockTableRecord
  2
*D13
340
0
  0
BLOCK_RECORD
  5
18C54
330
7466
100
AcDbSymbolTableRecord
100
AcDbBlockTableRecord
  2
*D14
340
0
  0
BLOCK_RECORD
  5
18C60
330
7466
100
AcDbSymbolTableRecord
100
AcDbBlockTableRecord
  2
*D15
340
0
  0
BLOCK_RECORD
  5
18C6C
330
7466
100
AcDbSymbolTableRecord
100
AcDbBlockTableRecord
  2
*D16
340
0
  0
BLOCK_RECORD
  5
18C7A
330
7466
100
AcDbSymbolTableRecord
100
AcDbBlockTableRecord
  2
A$C3B1A506B
340
0
  0
BLOCK_RECORD
  5
1C4CA
330
7466
100
AcDbSymbolTableRecord
100
AcDbBlockTableRecord
  2
_NONE
340
0
  0
BLOCK_RECORD
  5
24215
330
7466
100
AcDbSymbolTableRecord
100
AcDbBlockTableRecord
  2
*D19
340
0
  0
BLOCK_RECORD
  5
24221
330
7466
100
AcDbSymbolTableRecord
100
AcDbBlockTableRecord
  2
*D20
340
0
  0
BLOCK_RECORD
  5
2422E
330
7466
100
AcDbSymbolTableRecord
100
AcDbBlockTableRecord
  2
*D21
340
0
  0
BLOCK_RECORD
  5
24239
330
7466
100
AcDbSymbolTableRecord
100
AcDbBlockTableRecord
  2
*D22
340
0
  0
BLOCK_RECORD
  5
24246
330
7466
100
AcDbSymbolTableRecord
100
AcDbBlockTableRecord
  2
*D23
340
0
  0
BLOCK_RECORD
  5
24253
330
7466
100
AcDbSymbolTableRecord
100
AcDbBlockTableRecord
  2
*D24
340
0
  0
BLOCK_RECORD
  5
2425E
330
7466
100
AcDbSymbolTableRecord
100
AcDbBlockTableRecord
  2
*D25
340
0
  0
BLOCK_RECORD
  5
2426B
330
7466
100
AcDbSymbolTableRecord
100
AcDbBlockTableRecord
  2
*D26
340
0
  0
BLOCK_RECORD
  5
24276
330
7466
100
AcDbSymbolTableRecord
100
AcDbBlockTableRecord
  2
*D27
340
0
  0
BLOCK_RECORD
  5
24283
330
7466
100
AcDbSymbolTableRecord
100
AcDbBlockTableRecord
  2
*D28
340
0
  0
BLOCK_RECORD
  5
24290
330
7466
100
AcDbSymbolTableRecord
100
AcDbBlockTableRecord
  2
*D29
340
0
  0
BLOCK_RECORD
  5
2429C
330
7466
100
AcDbSymbolTableRecord
100
AcDbBlockTableRecord
  2
*D30
340
0
  0
BLOCK_RECORD
  5
242A7
330
7466
100
AcDbSymbolTableRecord
100
AcDbBlockTableRecord
  2
*D31
340
0
  0
BLOCK_RECORD
  5
242B1
330
7466
100
AcDbSymbolTableRecord
100
AcDbBlockTableRecord
  2
*D32
340
0
  0
BLOCK_RECORD
  5
242BE
330
7466
100
AcDbSymbolTableRecord
100
AcDbBlockTableRecord
  2
*D33
340
0
  0
BLOCK_RECORD
  5
242CB
330
7466
100
AcDbSymbolTableRecord
100
AcDbBlockTableRecord
  2
*D34
340
0
  0
BLOCK_RECORD
  5
242D7
330
7466
100
AcDbSymbolTableRecord
100
AcDbBlockTableRecord
  2
*D35
340
0
  0
BLOCK_RECORD
  5
242E4
330
7466
100
AcDbSymbolTableRecord
100
AcDbBlockTableRecord
  2
*D36
340
0
  0
BLOCK_RECORD
  5
242F0
330
7466
100
AcDbSymbolTableRecord
100
AcDbBlockTableRecord
  2
*D37
340
0
  0
BLOCK_RECORD
  5
242FC
330
7466
100
AcDbSymbolTableRecord
100
AcDbBlockTableRecord
  2
*D38
340
0
  0
BLOCK_RECORD
  5
24309
330
7466
100
AcDbSymbolTableRecord
100
AcDbBlockTableRecord
  2
*D39
340
0
  0
BLOCK_RECORD
  5
2432E
330
7466
100
AcDbSymbolTableRecord
100
AcDbBlockTableRecord
  2
*D40
340
0
  0
BLOCK_RECORD
  5
2433A
330
7466
100
AcDbSymbolTableRecord
100
AcDbBlockTableRecord
  2
*D41
340
0
  0
BLOCK_RECORD
  5
24F89
330
7466
100
AcDbSymbolTableRecord
100
AcDbBlockTableRecord
  2
*D42
340
0
  0
BLOCK_RECORD
  5
24F96
330
7466
100
AcDbSymbolTableRecord
100
AcDbBlockTableRecord
  2
*D43
340
0
  0
BLOCK_RECORD
  5
253BF
330
7466
100
AcDbSymbolTableRecord
100
AcDbBlockTableRecord
  2
*D44
340
0
  0
BLOCK_RECORD
  5
253CB
330
7466
100
AcDbSymbolTableRecord
100
AcDbBlockTableRecord
  2
*D45
340
0
  0
BLOCK_RECORD
  5
25E60
330
7466
100
AcDbSymbolTableRecord
100
AcDbBlockTableRecord
  2
*D46
340
0
  0
BLOCK_RECORD
  5
25E6C
330
7466
100
AcDbSymbolTableRecord
100
AcDbBlockTableRecord
  2
*D47
340
0
  0
BLOCK_RECORD
  5
25E7D
330
7466
100
AcDbSymbolTableRecord
100
AcDbBlockTableRecord
  2
*D48
340
0
  0
BLOCK_RECORD
  5
25E89
330
7466
100
AcDbSymbolTableRecord
100
AcDbBlockTableRecord
  2
*D49
340
0
  0
BLOCK_RECORD
  5
25E95
330
7466
100
AcDbSymbolTableRecord
100
AcDbBlockTableRecord
  2
*D50
340
0
  0
BLOCK_RECORD
  5
25EA1
330
7466
100
AcDbSymbolTableRecord
100
AcDbBlockTableRecord
  2
*D51
340
0
  0
ENDTAB
  0
ENDSEC
  0
SECTION
  2
BLOCKS
  0
BLOCK
  5
7489
330
747D
100
AcDbEntity
  8
0
100
AcDbBlockBegin
  2
*MODEL_SPACE
 70
     0
 10
0.0
 20
0.0
 30
0.0
  3
*MODEL_SPACE
  1

  0
ENDBLK
  5
748A
330
747D
100
AcDbEntity
  8
0
100
AcDbBlockEnd
  0
BLOCK
  5
7487
330
747A
100
AcDbEntity
 67
     1
  8
0
100
AcDbBlockBegin
  2
*PAPER_SPACE
 70
     0
 10
0.0
 20
0.0
 30
0.0
  3
*PAPER_SPACE
  1

  0
ENDBLK
  5
7488
330
747A
100
AcDbEntity
 67
     1
  8
0
100
AcDbBlockEnd
  0
BLOCK
  5
DEAD
330
DEAC
100
AcDbEntity
  8
0
100
AcDbBlockBegin
  2
_OPEN
 70
     0
 10
0.0
 20
0.0
 30
0.0
  3
_OPEN
  1

  0
LINE
  5
DEAE
330
DEAC
100
AcDbEntity
  8
0
  6
ByBlock
 62
     0
100
AcDbLine
 10
-1.0
 20
0.1666666666666666
 30
0.0
 11
0.0
 21
0.0
 31
0.0
  0
LINE
  5
DEAF
330
DEAC
100
AcDbEntity
  8
0
  6
ByBlock
 62
     0
100
AcDbLine
 10
0.0
 20
0.0
 30
0.0
 11
-1.0
 21
-0.1666666666666666
 31
0.0
  0
LINE
  5
DEB0
330
DEAC
100
AcDbEntity
  8
0
  6
ByBlock
 62
     0
100
AcDbLine
 10
0.0
 20
0.0
 30
0.0
 11
-1.0
 21
0.0
 31
0.0
  0
ENDBLK
  5
DEB1
330
DEAC
100
AcDbEntity
  8
0
100
AcDbBlockEnd
  0
BLOCK
  5
F771
330
F770
100
AcDbEntity
  8
0
 48
50.0
100
AcDbBlockBegin
  2
_DOTSMALL
 70
     0
 10
0.0
 20
0.0
 30
0.0
  3
_DOTSMALL
  1

  0
LWPOLYLINE
  5
F772
330
F770
100
AcDbEntity
  8
0
  6
ByBlock
 62
     0
 48
50.0
100
AcDbPolyline
 90
        2
 70
     1
 43
0.5
 10
-0.0625
 20
0.0
 42
1.0
 10
0.0625
 20
0.0
 42
1.0
  0
ENDBLK
  5
F776
330
F770
100
AcDbEntity
  8
0
 48
50.0
100
AcDbBlockEnd
  0
BLOCK
  5
164BA
330
164B4
100
AcDbEntity
  8
0
 48
50.0
100
AcDbBlockBegin
  2
_DOT
 70
     0
 10
0.0
 20
0.0
 30
0.0
  3
_DOT
  1

  0
LWPOLYLINE
  5
164B5
330
164B4
100
AcDbEntity
  8
0
  6
ByBlock
 62
     0
 48
50.0
100
AcDbPolyline
 90
        2
 70
     1
 43
0.5
 10
-0.25
 20
0.0
 42
1.0
 10
0.25
 20
0.0
 42
1.0
  0
LINE
  5
164B9
330
164B4
100
AcDbEntity
  8
0
  6
ByBlock
 62
     0
 48
50.0
100
AcDbLine
 10
-0.5
 20
0.0
 30
0.0
 11
-1.0
 21
0.0
 31
0.0
  0
ENDBLK
  5
164BB
330
164B4
100
AcDbEntity
  8
0
 48
50.0
100
AcDbBlockEnd
  0
BLOCK
  5
18BC9
330
18BC8
100
AcDbEntity
  8
0
 48
50.0
100
AcDbBlockBegin
  2
*D3
 70
     1
 10
0.0
 20
0.0
 30
0.0
  3
*D3
  1

  0
LINE
  5
18BCA
330
18BC8
100
AcDbEntity
  8
寸法
 62
     0
 48
50.0
370
    -2
100
AcDbLine
 10
7649.896575106999
 20
9636.123139034717
 30
0.0
 11
8702.429862581047
 21
9636.123139034717
 31
0.0
  0
LINE
  5
18BCB
330
18BC8
100
AcDbEntity
  8
寸法
 62
     0
 48
50.0
370
    -2
100
AcDbLine
 10
7649.896575106973
 20
7846.123139034709
 30
0.0
 11
8702.429862581047
 21
7846.123139034709
 31
0.0
  0
LINE
  5
18BCC
330
18BC8
100
AcDbEntity
  8
寸法
 62
     0
 48
50.0
370
    -2
100
AcDbLine
 10
8642.429862581046
 20
9636.123139034717
 30
0.0
 11
8642.429862581046
 21
7846.123139034709
 31
0.0
  0
INSERT
  5
18BCD
330
18BC8
100
AcDbEntity
  8
寸法
 62
     0
 48
50.0
370
    -2
100
AcDbBlockReference
  2
_DOTSMALL
 10
8642.429862581046
 20
9636.123139034717
 30
0.0
 41
100.0
 42
100.0
 43
100.0
 50
90.0
  0
INSERT
  5
18BCE
330
18BC8
100
AcDbEntity
  8
寸法
 62
     0
 48
50.0
370
    -2
100
AcDbBlockReference
  2
_DOTSMALL
 10
8642.429862581046
 20
7846.123139034709
 30
0.0
 41
100.0
 42
100.0
 43
100.0
 50
270.0
  0
MTEXT
  5
18BCF
330
18BC8
100
AcDbEntity
  8
寸法
 62
     7
 48
50.0
100
AcDbMText
 10
8542.429862581045
 20
8741.123139034712
 30
0.0
 40
120.0
 41
0.0
 71
     5
 72
     1
  1
\A1;1790
  7
STYLE1
 11
0.0000000000000001
 21
1.0
 31
0.0
 73
     1
 44
1.0
1001
ACAD
1000
MTEXTBEGIN
1070
    73
1070
     1
1070
    44
1040
1.0
1070
    74
1070
     0
1000
MTEXTEND
  0
POINT
  5
18BD0
330
18BC8
100
AcDbEntity
  8
DEFPOINTS
 62
     0
 48
50.0
100
AcDbPoint
 10
7629.896575106998
 20
9636.123139034717
 30
0.0
  0
POINT
  5
18BD1
330
18BC8
100
AcDbEntity
  8
DEFPOINTS
 62
     0
 48
50.0
100
AcDbPoint
 10
7629.896575106974
 20
7846.123139034709
 30
0.0
  0
POINT
  5
18BD2
330
18BC8
100
AcDbEntity
  8
DEFPOINTS
 62
     0
 48
50.0
100
AcDbPoint
 10
8642.429862581046
 20
7846.123139034709
 30
0.0
  0
ENDBLK
  5
18BD3
330
18BC8
100
AcDbEntity
  8
0
 48
50.0
100
AcDbBlockEnd
  0
BLOCK
  5
18BD5
330
18BD4
100
AcDbEntity
  8
0
 48
50.0
100
AcDbBlockBegin
  2
*D4
 70
     1
 10
0.0
 20
0.0
 30
0.0
  3
*D4
  1

  0
LINE
  5
18BD6
330
18BD4
100
AcDbEntity
  8
寸法
 62
     0
 48
50.0
370
    -2
100
AcDbLine
 10
4214.896575106998
 20
9656.123139034622
 30
0.0
 11
4214.896575106998
 21
10211.93135865972
 31
0.0
  0
LINE
  5
18BD7
330
18BD4
100
AcDbEntity
  8
寸法
 62
     0
 48
50.0
370
    -2
100
AcDbLine
 10
7574.896575106999
 20
9656.123139034718
 30
0.0
 11
7574.896575106999
 21
10211.93135865972
 31
0.0
  0
LINE
  5
18BD8
330
18BD4
100
AcDbEntity
  8
寸法
 62
     0
 48
50.0
370
    -2
100
AcDbLine
 10
4214.896575106998
 20
10151.93135865972
 30
0.0
 11
7574.896575106999
 21
10151.93135865972
 31
0.0
  0
INSERT
  5
18BD9
330
18BD4
100
AcDbEntity
  8
寸法
 62
     0
 48
50.0
370
    -2
100
AcDbBlockReference
  2
_DOTSMALL
 10
4214.896575106998
 20
10151.93135865972
 30
0.0
 41
100.0
 42
100.0
 43
100.0
 50
180.0
  0
INSERT
  5
18BDA
330
18BD4
100
AcDbEntity
  8
寸法
 62
     0
 48
50.0
370
    -2
100
AcDbBlockReference
  2
_DOTSMALL
 10
7574.896575106999
 20
10151.93135865972
 30
0.0
 41
100.0
 42
100.0
 43
100.0
  0
MTEXT
  5
18BDB
330
18BD4
100
AcDbEntity
  8
寸法
 62
     7
 48
50.0
100
AcDbMText
 10
5894.896575106997
 20
10251.94316968334
 30
0.0
 40
120.0
 41
0.0
 71
     5
 72
     1
  1
\A1;8X420=3360
  7
STYLE1
 73
     1
 44
1.0
1001
ACAD
1000
MTEXTBEGIN
1070
    73
1070
     1
1070
    44
1040
1.0
1070
    74
1070
     0
1000
MTEXTEND
  0
POINT
  5
18BDC
330
18BD4
100
AcDbEntity
  8
DEFPOINTS
 62
     0
 48
50.0
100
AcDbPoint
 10
4214.896575106998
 20
9636.123139034623
 30
0.0
  0
POINT
  5
18BDD
330
18BD4
100
AcDbEntity
  8
DEFPOINTS
 62
     0
 48
50.0
100
AcDbPoint
 10
7574.896575106999
 20
9636.123139034717
 30
0.0
  0
POINT
  5
18BDE
330
18BD4
100
AcDbEntity
  8
DEFPOINTS
 62
     0
 48
50.0
100
AcDbPoint
 10
7574.896575106999
 20
10151.93135865972
 30
0.0
  0
ENDBLK
  5
18BDF
330
18BD4
100
AcDbEntity
  8
0
 48
50.0
100
AcDbBlockEnd
  0
BLOCK
  5
18BE1
330
18BE0
100
AcDbEntity
  8
0
 48
50.0
100
AcDbBlockBegin
  2
*D5
 70
     1
 10
0.0
 20
0.0
 30
0.0
  3
*D5
  1

  0
LINE
  5
18BE2
330
18BE0
100
AcDbEntity
  8
寸法
 62
     0
 48
50.0
370
    -2
100
AcDbLine
 10
7574.896575106999
 20
9656.123139034718
 30
0.0
 11
7574.896575106999
 21
10211.9313586597
 31
0.0
  0
LINE
  5
18BE3
330
18BE0
100
AcDbEntity
  8
寸法
 62
     0
 48
50.0
370
    -2
100
AcDbLine
 10
7629.896575106998
 20
9656.123139034718
 30
0.0
 11
7629.896575106998
 21
10211.9313586597
 31
0.0
  0
LINE
  5
18BE4
330
18BE0
100
AcDbEntity
  8
寸法
 62
     0
 48
50.0
370
    -2
100
AcDbLine
 10
7574.896575106999
 20
10151.9313586597
 30
0.0
 11
7474.896575106999
 21
10151.9313586597
 31
0.0
  0
LINE
  5
18BE5
330
18BE0
100
AcDbEntity
  8
寸法
 62
     0
 48
50.0
370
    -2
100
AcDbLine
 10
7629.896575106998
 20
10151.9313586597
 30
0.0
 11
8046.867137855477
 21
10151.9313586597
 31
0.0
  0
LINE
  5
18BE6
330
18BE0
100
AcDbEntity
  8
寸法
 62
     0
 48
50.0
370
    -2
100
AcDbLine
 10
7574.896575106999
 20
10151.9313586597
 30
0.0
 11
7629.896575106998
 21
10151.9313586597
 31
0.0
  0
INSERT
  5
18BE7
330
18BE0
100
AcDbEntity
  8
寸法
 62
     0
 48
50.0
370
    -2
100
AcDbBlockReference
  2
_DOTSMALL
 10
7574.896575106999
 20
10151.9313586597
 30
0.0
 41
100.0
 42
100.0
 43
100.0
  0
INSERT
  5
18BE8
330
18BE0
100
AcDbEntity
  8
寸法
 62
     0
 48
50.0
370
    -2
100
AcDbBlockReference
  2
_DOTSMALL
 10
7629.896575106998
 20
10151.9313586597
 30
0.0
 41
100.0
 42
100.0
 43
100.0
 50
180.0
  0
MTEXT
  5
18BE9
330
18BE0
100
AcDbEntity
  8
寸法
 62
     7
 48
50.0
100
AcDbMText
 10
7938.381856481237
 20
10251.9313586597
 30
0.0
 40
120.0
 41
0.0
 71
     5
 72
     1
  1
\A1;55
  7
STYLE1
 73
     1
 44
1.0
1001
ACAD
1000
MTEXTBEGIN
1070
    73
1070
     1
1070
    44
1040
1.0
1070
    74
1070
     0
1000
MTEXTEND
  0
POINT
  5
18BEA
330
18BE0
100
AcDbEntity
  8
DEFPOINTS
 62
     0
 48
50.0
100
AcDbPoint
 10
7574.896575106999
 20
9636.123139034717
 30
0.0
  0
POINT
  5
18BEB
330
18BE0
100
AcDbEntity
  8
DEFPOINTS
 62
     0
 48
50.0
100
AcDbPoint
 10
7629.896575106998
 20
9636.123139034717
 30
0.0
  0
POINT
  5
18BEC
330
18BE0
100
AcDbEntity
  8
DEFPOINTS
 62
     0
 48
50.0
100
AcDbPoint
 10
7629.896575106998
 20
10151.9313586597
 30
0.0
  0
ENDBLK
  5
18BED
330
18BE0
100
AcDbEntity
  8
0
 48
50.0
100
AcDbBlockEnd
  0
BLOCK
  5
18BEF
330
18BEE
100
AcDbEntity
  8
0
 48
50.0
100
AcDbBlockBegin
  2
*D6
 70
     1
 10
0.0
 20
0.0
 30
0.0
  3
*D6
  1

  0
LINE
  5
18BF0
330
18BEE
100
AcDbEntity
  8
寸法
 62
     0
 48
50.0
370
    -2
100
AcDbLine
 10
7649.896575106999
 20
9636.123139034717
 30
0.0
 11
8337.32292084141
 21
9636.123139034717
 31
0.0
  0
LINE
  5
18BF1
330
18BEE
100
AcDbEntity
  8
寸法
 62
     0
 48
50.0
370
    -2
100
AcDbLine
 10
7649.896575106999
 20
9581.123139034721
 30
0.0
 11
8337.32292084141
 21
9581.123139034721
 31
0.0
  0
LINE
  5
18BF2
330
18BEE
100
AcDbEntity
  8
寸法
 62
     0
 48
50.0
370
    -2
100
AcDbLine
 10
8277.322920841411
 20
9581.123139034721
 30
0.0
 11
8277.322920841411
 21
9481.123139034719
 31
0.0
  0
LINE
  5
18BF3
330
18BEE
100
AcDbEntity
  8
寸法
 62
     0
 48
50.0
370
    -2
100
AcDbLine
 10
8277.322920841411
 20
9636.123139034717
 30
0.0
 11
8277.322920841411
 21
10053.09370178319
 31
0.0
  0
LINE
  5
18BF4
330
18BEE
100
AcDbEntity
  8
寸法
 62
     0
 48
50.0
370
    -2
100
AcDbLine
 10
8277.322920841411
 20
9581.123139034721
 30
0.0
 11
8277.322920841411
 21
9636.123139034717
 31
0.0
  0
INSERT
  5
18BF5
330
18BEE
100
AcDbEntity
  8
寸法
 62
     0
 48
50.0
370
    -2
100
AcDbBlockReference
  2
_DOTSMALL
 10
8277.322920841411
 20
9581.123139034721
 30
0.0
 41
100.0
 42
100.0
 43
100.0
 50
90.0
  0
INSERT
  5
18BF6
330
18BEE
100
AcDbEntity
  8
寸法
 62
     0
 48
50.0
370
    -2
100
AcDbBlockReference
  2
_DOTSMALL
 10
8277.322920841411
 20
9636.123139034717
 30
0.0
 41
100.0
 42
100.0
 43
100.0
 50
270.0
  0
MTEXT
  5
18BF7
330
18BEE
100
AcDbEntity
  8
寸法
 62
     7
 48
50.0
100
AcDbMText
 10
8177.32292084141
 20
9944.608420408957
 30
0.0
 40
120.0
 41
0.0
 71
     5
 72
     1
  1
\A1;55
  7
STYLE1
 11
0.0000000000000001
 21
1.0
 31
0.0
 73
     1
 44
1.0
1001
ACAD
1000
MTEXTBEGIN
1070
    73
1070
     1
1070
    44
1040
1.0
1070
    74
1070
     0
1000
MTEXTEND
  0
POINT
  5
18BF8
330
18BEE
100
AcDbEntity
  8
DEFPOINTS
 62
     0
 48
50.0
100
AcDbPoint
 10
7629.896575106998
 20
9636.123139034717
 30
0.0
  0
POINT
  5
18BF9
330
18BEE
100
AcDbEntity
  8
DEFPOINTS
 62
     0
 48
50.0
100
AcDbPoint
 10
7629.896575106998
 20
9581.123139034721
 30
0.0
  0
POINT
  5
18BFA
330
18BEE
100
AcDbEntity
  8
DEFPOINTS
 62
     0
 48
50.0
100
AcDbPoint
 10
8277.322920841411
 20
9581.123139034721
 30
0.0
  0
ENDBLK
  5
18BFB
330
18BEE
100
AcDbEntity
  8
0
 48
50.0
100
AcDbBlockEnd
  0
BLOCK
  5
18BFD
330
18BFC
100
AcDbEntity
  8
0
 48
50.0
100
AcDbBlockBegin
  2
*D7
 70
     1
 10
0.0
 20
0.0
 30
0.0
  3
*D7
  1

  0
LINE
  5
18BFE
330
18BFC
100
AcDbEntity
  8
寸法
 62
     0
 48
50.0
370
    -2
100
AcDbLine
 10
4159.896575106963
 20
9656.123139034622
 30
0.0
 11
4159.896575106963
 21
10211.9313586596
 31
0.0
  0
LINE
  5
18BFF
330
18BFC
100
AcDbEntity
  8
寸法
 62
     0
 48
50.0
370
    -2
100
AcDbLine
 10
4214.896575106998
 20
9656.123139034622
 30
0.0
 11
4214.896575106998
 21
10211.9313586596
 31
0.0
  0
LINE
  5
18C00
330
18BFC
100
AcDbEntity
  8
寸法
 62
     0
 48
50.0
370
    -2
100
AcDbLine
 10
4214.896575106998
 20
10151.9313586596
 30
0.0
 11
4314.896575106998
 21
10151.9313586596
 31
0.0
  0
LINE
  5
18C01
330
18BFC
100
AcDbEntity
  8
寸法
 62
     0
 48
50.0
370
    -2
100
AcDbLine
 10
4159.896575106963
 20
10151.9313586596
 30
0.0
 11
3742.926012358486
 21
10151.9313586596
 31
0.0
  0
LINE
  5
18C02
330
18BFC
100
AcDbEntity
  8
寸法
 62
     0
 48
50.0
370
    -2
100
AcDbLine
 10
4214.896575106998
 20
10151.9313586596
 30
0.0
 11
4159.896575106963
 21
10151.9313586596
 31
0.0
  0
INSERT
  5
18C03
330
18BFC
100
AcDbEntity
  8
寸法
 62
     0
 48
50.0
370
    -2
100
AcDbBlockReference
  2
_DOTSMALL
 10
4214.896575106998
 20
10151.9313586596
 30
0.0
 41
100.0
 42
100.0
 43
100.0
 50
180.0
  0
INSERT
  5
18C04
330
18BFC
100
AcDbEntity
  8
寸法
 62
     0
 48
50.0
370
    -2
100
AcDbBlockReference
  2
_DOTSMALL
 10
4159.896575106963
 20
10151.9313586596
 30
0.0
 41
100.0
 42
100.0
 43
100.0
  0
MTEXT
  5
18C05
330
18BFC
100
AcDbEntity
  8
寸法
 62
     7
 48
50.0
100
AcDbMText
 10
3851.411293732725
 20
10251.9313586596
 30
0.0
 40
120.0
 41
0.0
 71
     5
 72
     1
  1
\A1;55
  7
STYLE1
 73
     1
 44
1.0
1001
ACAD
1000
MTEXTBEGIN
1070
    73
1070
     1
1070
    44
1040
1.0
1070
    74
1070
     0
1000
MTEXTEND
  0
POINT
  5
18C06
330
18BFC
100
AcDbEntity
  8
DEFPOINTS
 62
     0
 48
50.0
100
AcDbPoint
 10
4159.896575106963
 20
9636.123139034623
 30
0.0
  0
POINT
  5
18C07
330
18BFC
100
AcDbEntity
  8
DEFPOINTS
 62
     0
 48
50.0
100
AcDbPoint
 10
4214.896575106998
 20
9636.123139034623
 30
0.0
  0
POINT
  5
18C08
330
18BFC
100
AcDbEntity
  8
DEFPOINTS
 62
     0
 48
50.0
100
AcDbPoint
 10
4214.896575106998
 20
10151.9313586596
 30
0.0
  0
ENDBLK
  5
18C09
330
18BFC
100
AcDbEntity
  8
0
 48
50.0
100
AcDbBlockEnd
  0
BLOCK
  5
18C0B
330
18C0A
100
AcDbEntity
  8
0
 48
50.0
100
AcDbBlockBegin
  2
*D8
 70
     1
 10
0.0
 20
0.0
 30
0.0
  3
*D8
  1

  0
LINE
  5
18C0C
330
18C0A
100
AcDbEntity
  8
寸法
 62
     0
 48
50.0
370
    -2
100
AcDbLine
 10
4159.896575106992
 20
7826.123139034546
 30
0.0
 11
4159.896575106992
 21
6804.372203245664
 31
0.0
  0
LINE
  5
18C0D
330
18C0A
100
AcDbEntity
  8
寸法
 62
     0
 48
50.0
370
    -2
100
AcDbLine
 10
7629.896575106974
 20
7826.123139034674
 30
0.0
 11
7629.896575106974
 21
6804.372203245664
 31
0.0
  0
LINE
  5
18C0E
330
18C0A
100
AcDbEntity
  8
寸法
 62
     0
 48
50.0
370
    -2
100
AcDbLine
 10
4159.896575106992
 20
6864.372203245665
 30
0.0
 11
7629.896575106974
 21
6864.372203245665
 31
0.0
  0
INSERT
  5
18C0F
330
18C0A
100
AcDbEntity
  8
寸法
 62
     0
 48
50.0
370
    -2
100
AcDbBlockReference
  2
_DOTSMALL
 10
4159.896575106992
 20
6864.372203245665
 30
0.0
 41
100.0
 42
100.0
 43
100.0
 50
180.0
  0
INSERT
  5
18C10
330
18C0A
100
AcDbEntity
  8
寸法
 62
     0
 48
50.0
370
    -2
100
AcDbBlockReference
  2
_DOTSMALL
 10
7629.896575106974
 20
6864.372203245665
 30
0.0
 41
100.0
 42
100.0
 43
100.0
  0
MTEXT
  5
18C11
330
18C0A
100
AcDbEntity
  8
寸法
 62
     7
 48
50.0
100
AcDbMText
 10
5911.12376113973
 20
6964.372203245665
 30
0.0
 40
120.0
 41
0.0
 71
     5
 72
     1
  1
\A1;3470
  7
STYLE1
 73
     1
 44
1.0
1001
ACAD
1000
MTEXTBEGIN
1070
    73
1070
     1
1070
    44
1040
1.0
1070
    74
1070
     0
1000
MTEXTEND
  0
POINT
  5
18C12
330
18C0A
100
AcDbEntity
  8
DEFPOINTS
 62
     0
 48
50.0
100
AcDbPoint
 10
4159.896575106992
 20
7846.123139034546
 30
0.0
  0
POINT
  5
18C13
330
18C0A
100
AcDbEntity
  8
DEFPOINTS
 62
     0
 48
50.0
100
AcDbPoint
 10
7629.896575106974
 20
7846.123139034673
 30
0.0
  0
POINT
  5
18C14
330
18C0A
100
AcDbEntity
  8
DEFPOINTS
 62
     0
 48
50.0
100
AcDbPoint
 10
7629.896575106974
 20
6864.372203245665
 30
0.0
  0
ENDBLK
  5
18C15
330
18C0A
100
AcDbEntity
  8
0
 48
50.0
100
AcDbBlockEnd
  0
BLOCK
  5
18C17
330
18C16
100
AcDbEntity
  8
0
 48
50.0
100
AcDbBlockBegin
  2
*D9
 70
     1
 10
0.0
 20
0.0
 30
0.0
  3
*D9
  1

  0
LINE
  5
18C18
330
18C16
100
AcDbEntity
  8
寸法
 62
     0
 48
50.0
370
    -2
100
AcDbLine
 10
7649.896575106973
 20
7901.123139034706
 30
0.0
 11
8337.322920841385
 21
7901.123139034706
 31
0.0
  0
LINE
  5
18C19
330
18C16
100
AcDbEntity
  8
寸法
 62
     0
 48
50.0
370
    -2
100
AcDbLine
 10
7649.896575106973
 20
7846.123139034709
 30
0.0
 11
8337.322920841385
 21
7846.123139034709
 31
0.0
  0
LINE
  5
18C1A
330
18C16
100
AcDbEntity
  8
寸法
 62
     0
 48
50.0
370
    -2
100
AcDbLine
 10
8277.322920841385
 20
7901.123139034706
 30
0.0
 11
8277.322920841385
 21
8001.123139034707
 31
0.0
  0
LINE
  5
18C1B
330
18C16
100
AcDbEntity
  8
寸法
 62
     0
 48
50.0
370
    -2
100
AcDbLine
 10
8277.322920841385
 20
7846.123139034709
 30
0.0
 11
8277.322920841385
 21
7429.152576286229
 31
0.0
  0
LINE
  5
18C1C
330
18C16
100
AcDbEntity
  8
寸法
 62
     0
 48
50.0
370
    -2
100
AcDbLine
 10
8277.322920841385
 20
7901.123139034706
 30
0.0
 11
8277.322920841385
 21
7846.123139034709
 31
0.0
  0
INSERT
  5
18C1D
330
18C16
100
AcDbEntity
  8
寸法
 62
     0
 48
50.0
370
    -2
100
AcDbBlockReference
  2
_DOTSMALL
 10
8277.322920841385
 20
7901.123139034706
 30
0.0
 41
100.0
 42
100.0
 43
100.0
 50
270.0
  0
INSERT
  5
18C1E
330
18C16
100
AcDbEntity
  8
寸法
 62
     0
 48
50.0
370
    -2
100
AcDbBlockReference
  2
_DOTSMALL
 10
8277.322920841385
 20
7846.123139034709
 30
0.0
 41
100.0
 42
100.0
 43
100.0
 50
90.0
  0
MTEXT
  5
18C1F
330
18C16
100
AcDbEntity
  8
寸法
 62
     7
 48
50.0
100
AcDbMText
 10
8177.322920841383
 20
7537.637857660469
 30
0.0
 40
120.0
 41
0.0
 71
     5
 72
     1
  1
\A1;55
  7
STYLE1
 11
0.0000000000000001
 21
1.0
 31
0.0
 73
     1
 44
1.0
1001
ACAD
1000
MTEXTBEGIN
1070
    73
1070
     1
1070
    44
1040
1.0
1070
    74
1070
     0
1000
MTEXTEND
  0
POINT
  5
18C20
330
18C16
100
AcDbEntity
  8
DEFPOINTS
 62
     0
 48
50.0
100
AcDbPoint
 10
7629.896575106974
 20
7901.123139034706
 30
0.0
  0
POINT
  5
18C21
330
18C16
100
AcDbEntity
  8
DEFPOINTS
 62
     0
 48
50.0
100
AcDbPoint
 10
7629.896575106974
 20
7846.123139034709
 30
0.0
  0
POINT
  5
18C22
330
18C16
100
AcDbEntity
  8
DEFPOINTS
 62
     0
 48
50.0
100
AcDbPoint
 10
8277.322920841385
 20
7846.123139034709
 30
0.0
  0
ENDBLK
  5
18C23
330
18C16
100
AcDbEntity
  8
0
 48
50.0
100
AcDbBlockEnd
  0
BLOCK
  5
18C25
330
18C24
100
AcDbEntity
  8
0
 48
50.0
100
AcDbBlockBegin
  2
*D10
 70
     1
 10
0.0
 20
0.0
 30
0.0
  3
*D10
  1

  0
LINE
  5
18C26
330
18C24
100
AcDbEntity
  8
寸法
 62
     0
 48
50.0
370
    -2
100
AcDbLine
 10
6533.037591258376
 20
9136.123139034728
 30
0.0
 11
6465.083950562664
 21
8882.516699399049
 31
0.0
  0
LINE
  5
18C27
330
18C24
100
AcDbEntity
  8
寸法
 62
     0
 48
50.0
370
    -2
100
AcDbLine
 10
7596.037591258388
 20
9136.123139034721
 30
0.0
 11
7528.083950562677
 21
8882.516699399049
 31
0.0
  0
LINE
  5
18C28
330
18C24
100
AcDbEntity
  8
寸法
 62
     0
 48
50.0
370
    -2
100
AcDbLine
 10
6481.160902108531
 20
8942.51669939905
 30
0.0
 11
7544.160902108544
 21
8942.51669939905
 31
0.0
  0
INSERT
  5
18C29
330
18C24
100
AcDbEntity
  8
寸法
 62
     0
 48
50.0
370
    -2
100
AcDbBlockReference
  2
_DOTSMALL
 10
6481.160902108531
 20
8942.51669939905
 30
0.0
 41
100.0
 42
100.0
 43
100.0
 50
180.0
  0
INSERT
  5
18C2A
330
18C24
100
AcDbEntity
  8
寸法
 62
     0
 48
50.0
370
    -2
100
AcDbBlockReference
  2
_DOTSMALL
 10
7544.160902108544
 20
8942.51669939905
 30
0.0
 41
100.0
 42
100.0
 43
100.0
  0
MTEXT
  5
18C2B
330
18C24
100
AcDbEntity
  8
寸法
 62
     7
 48
50.0
100
AcDbMText
 10
7061.28653022935
 20
9042.516699399049
 30
0.0
 40
120.0
 41
0.0
 71
     5
 72
     1
  1
\A1;1063
  7
STYLE1
 73
     1
 44
1.0
1001
ACAD
1000
MTEXTBEGIN
1070
    73
1070
     1
1070
    44
1040
1.0
1070
    74
1070
     0
1000
MTEXTEND
  0
POINT
  5
18C2C
330
18C24
100
AcDbEntity
  8
DEFPOINTS
 62
     0
 48
50.0
100
AcDbPoint
 10
6538.396575106998
 20
9156.123139034727
 30
0.0
  0
POINT
  5
18C2D
330
18C24
100
AcDbEntity
  8
DEFPOINTS
 62
     0
 48
50.0
100
AcDbPoint
 10
7601.39657510701
 20
9156.12313903472
 30
0.0
  0
POINT
  5
18C2E
330
18C24
100
AcDbEntity
  8
DEFPOINTS
 62
     0
 48
50.0
100
AcDbPoint
 10
7544.160902108544
 20
8942.51669939905
 30
0.0
  0
ENDBLK
  5
18C2F
330
18C24
100
AcDbEntity
  8
0
 48
50.0
100
AcDbBlockEnd
  0
BLOCK
  5
18C31
330
18C30
100
AcDbEntity
  8
0
 48
50.0
100
AcDbBlockBegin
  2
*D11
 70
     1
 10
0.0
 20
0.0
 30
0.0
  3
*D11
  1

  0
LINE
  5
18C32
330
18C30
100
AcDbEntity
  8
寸法
 62
     0
 48
50.0
370
    -2
100
AcDbLine
 10
7621.396575106999
 20
9600.764155186094
 30
0.0
 11
8016.754300969024
 21
9494.828371819961
 31
0.0
  0
LINE
  5
18C33
330
18C30
100
AcDbEntity
  8
寸法
 62
     0
 48
50.0
370
    -2
100
AcDbLine
 10
7621.396575106999
 20
9150.764155186099
 30
0.0
 11
8016.754300969024
 21
9044.828371819964
 31
0.0
  0
LINE
  5
18C34
330
18C30
100
AcDbEntity
  8
寸法
 62
     0
 48
50.0
370
    -2
100
AcDbLine
 10
7956.754300969024
 20
9510.905323365827
 30
0.0
 11
7956.754300969024
 21
9060.90532336583
 31
0.0
  0
INSERT
  5
18C35
330
18C30
100
AcDbEntity
  8
寸法
 62
     0
 48
50.0
370
    -2
100
AcDbBlockReference
  2
_DOTSMALL
 10
7956.754300969024
 20
9510.905323365827
 30
0.0
 41
100.0
 42
100.0
 43
100.0
 50
90.0
  0
INSERT
  5
18C36
330
18C30
100
AcDbEntity
  8
寸法
 62
     0
 48
50.0
370
    -2
100
AcDbBlockReference
  2
_DOTSMALL
 10
7956.754300969024
 20
9060.90532336583
 30
0.0
 41
100.0
 42
100.0
 43
100.0
 50
270.0
  0
MTEXT
  5
18C37
330
18C30
100
AcDbEntity
  8
寸法
 62
     7
 48
50.0
100
AcDbMText
 10
7856.754300969022
 20
9285.905323365829
 30
0.0
 40
120.0
 41
0.0
 71
     5
 72
     1
  1
\A1;450
  7
STYLE1
 11
0.0000000000000001
 21
1.0
 31
0.0
 73
     1
 44
1.0
1001
ACAD
1000
MTEXTBEGIN
1070
    73
1070
     1
1070
    44
1040
1.0
1070
    74
1070
     0
1000
MTEXTEND
  0
POINT
  5
18C38
330
18C30
100
AcDbEntity
  8
DEFPOINTS
 62
     0
 48
50.0
100
AcDbPoint
 10
7601.396575106999
 20
9606.123139034718
 30
0.0
  0
POINT
  5
18C39
330
18C30
100
AcDbEntity
  8
DEFPOINTS
 62
     0
 48
50.0
100
AcDbPoint
 10
7601.396575106999
 20
9156.12313903472
 30
0.0
  0
POINT
  5
18C3A
330
18C30
100
AcDbEntity
  8
DEFPOINTS
 62
     0
 48
50.0
100
AcDbPoint
 10
7956.754300969024
 20
9060.90532336583
 30
0.0
  0
ENDBLK
  5
18C3B
330
18C30
100
AcDbEntity
  8
0
 48
50.0
100
AcDbBlockEnd
  0
BLOCK
  5
18C3D
330
18C3C
100
AcDbEntity
  8
0
 48
50.0
100
AcDbBlockBegin
  2
*D12
 70
     1
 10
0.0
 20
0.0
 30
0.0
  3
*D12
  1

  0
LINE
  5
18C3E
330
18C3C
100
AcDbEntity
  8
寸法
 62
     0
 48
50.0
370
    -2
100
AcDbLine
 10
7649.896575106999
 20
9581.123139034721
 30
0.0
 11
8337.32292084141
 21
9581.123139034721
 31
0.0
  0
LINE
  5
18C3F
330
18C3C
100
AcDbEntity
  8
寸法
 62
     0
 48
50.0
370
    -2
100
AcDbLine
 10
7649.896575106973
 20
7901.123139034706
 30
0.0
 11
8337.32292084141
 21
7901.123139034706
 31
0.0
  0
LINE
  5
18C40
330
18C3C
100
AcDbEntity
  8
寸法
 62
     0
 48
50.0
370
    -2
100
AcDbLine
 10
8277.322920841411
 20
9581.123139034721
 30
0.0
 11
8277.322920841411
 21
7901.123139034706
 31
0.0
  0
INSERT
  5
18C41
330
18C3C
100
AcDbEntity
  8
寸法
 62
     0
 48
50.0
370
    -2
100
AcDbBlockReference
  2
_DOTSMALL
 10
8277.322920841411
 20
9581.123139034721
 30
0.0
 41
100.0
 42
100.0
 43
100.0
 50
90.0
  0
INSERT
  5
18C42
330
18C3C
100
AcDbEntity
  8
寸法
 62
     0
 48
50.0
370
    -2
100
AcDbBlockReference
  2
_DOTSMALL
 10
8277.322920841411
 20
7901.123139034706
 30
0.0
 41
100.0
 42
100.0
 43
100.0
 50
270.0
  0
MTEXT
  5
18C43
330
18C3C
100
AcDbEntity
  8
寸法
 62
     7
 48
50.0
100
AcDbMText
 10
8177.311109817788
 20
8741.123139034712
 30
0.0
 40
120.0
 41
0.0
 71
     5
 72
     1
  1
\A1;4X420=1680
  7
STYLE1
 11
0.0000000000000001
 21
1.0
 31
0.0
 73
     1
 44
1.0
1001
ACAD
1000
MTEXTBEGIN
1070
    73
1070
     1
1070
    44
1040
1.0
1070
    74
1070
     0
1000
MTEXTEND
  0
POINT
  5
18C44
330
18C3C
100
AcDbEntity
  8
DEFPOINTS
 62
     0
 48
50.0
100
AcDbPoint
 10
7629.896575106998
 20
9581.123139034721
 30
0.0
  0
POINT
  5
18C45
330
18C3C
100
AcDbEntity
  8
DEFPOINTS
 62
     0
 48
50.0
100
AcDbPoint
 10
7629.896575106974
 20
7901.123139034706
 30
0.0
  0
POINT
  5
18C46
330
18C3C
100
AcDbEntity
  8
DEFPOINTS
 62
     0
 48
50.0
100
AcDbPoint
 10
8277.322920841411
 20
7901.123139034706
 30
0.0
  0
ENDBLK
  5
18C47
330
18C3C
100
AcDbEntity
  8
0
 48
50.0
100
AcDbBlockEnd
  0
BLOCK
  5
18C49
330
18C48
100
AcDbEntity
  8
0
 48
50.0
100
AcDbBlockBegin
  2
*D13
 70
     1
 10
0.0
 20
0.0
 30
0.0
  3
*D13
  1

  0
LINE
  5
18C4A
330
18C48
100
AcDbEntity
  8
寸法
 62
     0
 48
50.0
370
    -2
100
AcDbLine
 10
4183.037591258377
 20
9136.123139034619
 30
0.0
 11
4115.083950562663
 21
8882.516699398941
 31
0.0
  0
LINE
  5
18C4B
330
18C48
100
AcDbEntity
  8
寸法
 62
     0
 48
50.0
370
    -2
100
AcDbLine
 10
5246.037591258307
 20
9136.123139034671
 30
0.0
 11
5178.08395056258
 21
8882.516699398941
 31
0.0
  0
LINE
  5
18C4C
330
18C48
100
AcDbEntity
  8
寸法
 62
     0
 48
50.0
370
    -2
100
AcDbLine
 10
4131.160902108532
 20
8942.516699398941
 30
0.0
 11
5194.160902108448
 21
8942.516699398941
 31
0.0
  0
INSERT
  5
18C4D
330
18C48
100
AcDbEntity
  8
寸法
 62
     0
 48
50.0
370
    -2
100
AcDbBlockReference
  2
_DOTSMALL
 10
4131.160902108532
 20
8942.516699398941
 30
0.0
 41
100.0
 42
100.0
 43
100.0
 50
180.0
  0
INSERT
  5
18C4E
330
18C48
100
AcDbEntity
  8
寸法
 62
     0
 48
50.0
370
    -2
100
AcDbBlockReference
  2
_DOTSMALL
 10
5194.160902108448
 20
8942.516699398941
 30
0.0
 41
100.0
 42
100.0
 43
100.0
  0
MTEXT
  5
18C4F
330
18C48
100
AcDbEntity
  8
寸法
 62
     7
 48
50.0
100
AcDbMText
 10
4658.986452655306
 20
9042.516699398941
 30
0.0
 40
120.0
 41
0.0
 71
     5
 72
     1
  1
\A1;1063
  7
STYLE1
 73
     1
 44
1.0
1001
ACAD
1000
MTEXTBEGIN
1070
    73
1070
     1
1070
    44
1040
1.0
1070
    74
1070
     0
1000
MTEXTEND
  0
POINT
  5
18C50
330
18C48
100
AcDbEntity
  8
DEFPOINTS
 62
     0
 48
50.0
100
AcDbPoint
 10
4188.396575106999
 20
9156.123139034617
 30
0.0
  0
POINT
  5
18C51
330
18C48
100
AcDbEntity
  8
DEFPOINTS
 62
     0
 48
50.0
100
AcDbPoint
 10
5251.396575106929
 20
9156.123139034672
 30
0.0
  0
POINT
  5
18C52
330
18C48
100
AcDbEntity
  8
DEFPOINTS
 62
     0
 48
50.0
100
AcDbPoint
 10
5194.160902108448
 20
8942.516699398941
 30
0.0
  0
ENDBLK
  5
18C53
330
18C48
100
AcDbEntity
  8
0
 48
50.0
100
AcDbBlockEnd
  0
BLOCK
  5
18C55
330
18C54
100
AcDbEntity
  8
0
 48
50.0
100
AcDbBlockBegin
  2
*D14
 70
     1
 10
0.0
 20
0.0
 30
0.0
  3
*D14
  1

  0
LINE
  5
18C56
330
18C54
100
AcDbEntity
  8
寸法
 62
     0
 48
50.0
370
    -2
100
AcDbLine
 10
5274.037591258307
 20
9136.123139034669
 30
0.0
 11
5206.08395056258
 21
8882.516699398941
 31
0.0
  0
LINE
  5
18C57
330
18C54
100
AcDbEntity
  8
寸法
 62
     0
 48
50.0
370
    -2
100
AcDbLine
 10
6505.037591258377
 20
9136.123139034662
 30
0.0
 11
6437.083950562653
 21
8882.516699398941
 31
0.0
  0
LINE
  5
18C58
330
18C54
100
AcDbEntity
  8
寸法
 62
     0
 48
50.0
370
    -2
100
AcDbLine
 10
5222.160902108448
 20
8942.516699398941
 30
0.0
 11
6453.16090210852
 21
8942.516699398941
 31
0.0
  0
INSERT
  5
18C59
330
18C54
100
AcDbEntity
  8
寸法
 62
     0
 48
50.0
370
    -2
100
AcDbBlockReference
  2
_DOTSMALL
 10
5222.160902108448
 20
8942.516699398941
 30
0.0
 41
100.0
 42
100.0
 43
100.0
 50
180.0
  0
INSERT
  5
18C5A
330
18C54
100
AcDbEntity
  8
寸法
 62
     0
 48
50.0
370
    -2
100
AcDbBlockReference
  2
_DOTSMALL
 10
6453.16090210852
 20
8942.516699398941
 30
0.0
 41
100.0
 42
100.0
 43
100.0
  0
MTEXT
  5
18C5B
330
18C54
100
AcDbEntity
  8
寸法
 62
     7
 48
50.0
100
AcDbMText
 10
6081.244808320626
 20
9042.528510422561
 30
0.0
 40
120.0
 41
0.0
 71
     5
 72
     1
  1
\A1;1231
  7
STYLE1
 73
     1
 44
1.0
1001
ACAD
1000
MTEXTBEGIN
1070
    73
1070
     1
1070
    44
1040
1.0
1070
    74
1070
     0
1000
MTEXTEND
  0
POINT
  5
18C5C
330
18C54
100
AcDbEntity
  8
DEFPOINTS
 62
     0
 48
50.0
100
AcDbPoint
 10
5279.396575106929
 20
9156.123139034669
 30
0.0
  0
POINT
  5
18C5D
330
18C54
100
AcDbEntity
  8
DEFPOINTS
 62
     0
 48
50.0
100
AcDbPoint
 10
6510.396575106999
 20
9156.123139034662
 30
0.0
  0
POINT
  5
18C5E
330
18C54
100
AcDbEntity
  8
DEFPOINTS
 62
     0
 48
50.0
100
AcDbPoint
 10
6453.16090210852
 20
8942.516699398941
 30
0.0
  0
ENDBLK
  5
18C5F
330
18C54
100
AcDbEntity
  8
0
 48
50.0
100
AcDbBlockEnd
  0
BLOCK
  5
18C61
330
18C60
100
AcDbEntity
  8
0
 48
50.0
100
AcDbBlockBegin
  2
*D15
 70
     1
 10
0.0
 20
0.0
 30
0.0
  3
*D15
  1

  0
LINE
  5
18C62
330
18C60
100
AcDbEntity
  8
寸法
 62
     0
 48
50.0
370
    -2
100
AcDbLine
 10
5065.896575106966
 20
7749.123139034579
 30
0.0
 11
5065.896575106966
 21
7099.952920982538
 31
0.0
  0
LINE
  5
18C63
330
18C60
100
AcDbEntity
  8
寸法
 62
     0
 48
50.0
370
    -2
100
AcDbLine
 10
6331.896575106966
 20
7749.123139034579
 30
0.0
 11
6331.896575106966
 21
7099.952920982538
 31
0.0
  0
LINE
  5
18C64
330
18C60
100
AcDbEntity
  8
寸法
 62
     0
 48
50.0
370
    -2
100
AcDbLine
 10
5065.896575106966
 20
7159.952920982537
 30
0.0
 11
6331.896575106966
 21
7159.952920982537
 31
0.0
  0
INSERT
  5
18C65
330
18C60
100
AcDbEntity
  8
寸法
 62
     0
 48
50.0
370
    -2
100
AcDbBlockReference
  2
_DOTSMALL
 10
5065.896575106966
 20
7159.952920982537
 30
0.0
 41
100.0
 42
100.0
 43
100.0
 50
180.0
  0
INSERT
  5
18C66
330
18C60
100
AcDbEntity
  8
寸法
 62
     0
 48
50.0
370
    -2
100
AcDbBlockReference
  2
_DOTSMALL
 10
6331.896575106966
 20
7159.952920982537
 30
0.0
 41
100.0
 42
100.0
 43
100.0
  0
MTEXT
  5
18C67
330
18C60
100
AcDbEntity
  8
寸法
 62
     7
 48
50.0
100
AcDbMText
 10
5711.986008735934
 20
7359.964732006159
 30
0.0
 40
120.0
 41
0.0
 71
     5
 72
     1
  1
\A1;有効開口部間口\P1266
  7
STYLE1
 73
     1
 44
1.0
1001
ACAD
1000
MTEXTBEGIN
1070
    73
1070
     1
1070
    44
1040
1.0
1070
    74
1070
     0
1000
MTEXTEND
  0
POINT
  5
18C68
330
18C60
100
AcDbEntity
  8
DEFPOINTS
 62
     0
 48
50.0
100
AcDbPoint
 10
5065.896575106966
 20
7769.123139034579
 30
0.0
  0
POINT
  5
18C69
330
18C60
100
AcDbEntity
  8
DEFPOINTS
 62
     0
 48
50.0
100
AcDbPoint
 10
6331.896575106966
 20
7769.123139034579
 30
0.0
  0
POINT
  5
18C6A
330
18C60
100
AcDbEntity
  8
DEFPOINTS
 62
     0
 48
50.0
100
AcDbPoint
 10
6331.896575106966
 20
7159.952920982537
 30
0.0
  0
ENDBLK
  5
18C6B
330
18C60
100
AcDbEntity
  8
0
 48
50.0
100
AcDbBlockEnd
  0
BLOCK
  5
18C6D
330
18C6C
100
AcDbEntity
  8
0
 48
50.0
100
AcDbBlockBegin
  2
*D16
 70
     1
 10
0.0
 20
0.0
 30
0.0
  3
*D16
  1

  0
LINE
  5
18C6E
330
18C6C
100
AcDbEntity
  8
寸法
 62
     0
 48
50.0
370
    -2
100
AcDbLine
 10
7200.896575106966
 20
7846.123139034578
 30
0.0
 11
7457.192158500191
 21
7846.123139034578
 31
0.0
  0
LINE
  5
18C6F
330
18C6C
100
AcDbEntity
  8
寸法
 62
     0
 48
50.0
370
    -2
100
AcDbLine
 10
7199.896575106966
 20
7769.123139034579
 30
0.0
 11
7457.192158500191
 21
7769.123139034579
 31
0.0
  0
LINE
  5
18C70
330
18C6C
100
AcDbEntity
  8
寸法
 62
     0
 48
50.0
370
    -2
100
AcDbLine
 10
7417.192158500192
 20
7866.123139034579
 30
0.0
 11
7417.192158500192
 21
7886.123139034578
 31
0.0
  0
LINE
  5
18C71
330
18C6C
100
AcDbEntity
  8
寸法
 62
     0
 48
50.0
370
    -2
100
AcDbLine
 10
7417.192158500192
 20
7749.123139034579
 30
0.0
 11
7417.192158500192
 21
7533.123139034573
 31
0.0
  0
LINE
  5
18C72
330
18C6C
100
AcDbEntity
  8
寸法
 62
     0
 48
50.0
370
    -2
100
AcDbLine
 10
7417.192158500192
 20
7846.123139034578
 30
0.0
 11
7417.192158500192
 21
7769.123139034579
 31
0.0
  0
INSERT
  5
18C73
330
18C6C
100
AcDbEntity
  8
寸法
 62
     0
 48
50.0
370
    -2
100
AcDbBlockReference
  2
_DOT
 10
7417.192158500192
 20
7846.123139034578
 30
0.0
 41
20.0
 42
20.0
 43
20.0
 50
270.0
  0
INSERT
  5
18C74
330
18C6C
100
AcDbEntity
  8
寸法
 62
     0
 48
50.0
370
    -2
100
AcDbBlockReference
  2
_DOT
 10
7417.192158500192
 20
7769.123139034579
 30
0.0
 41
20.0
 42
20.0
 43
20.0
 50
90.0
  0
MTEXT
  5
18C75
330
18C6C
100
AcDbEntity
  8
寸法
 62
     7
 48
50.0
100
AcDbMText
 10
7325.192158500191
 20
7631.123139034575
 30
0.0
 40
120.0
 41
0.0
 71
     5
 72
     1
  1
\A1;77
  7
STYLE1
 11
0.0000000000000001
 21
1.0
 31
0.0
 73
     1
 44
1.0
1001
ACAD
1000
MTEXTBEGIN
1070
    73
1070
     1
1070
    44
1040
1.0
1070
    74
1070
     0
1000
MTEXTEND
  0
POINT
  5
18C76
330
18C6C
100
AcDbEntity
  8
DEFPOINTS
 62
     0
 48
50.0
100
AcDbPoint
 10
7180.896575106967
 20
7846.123139034578
 30
0.0
  0
POINT
  5
18C77
330
18C6C
100
AcDbEntity
  8
DEFPOINTS
 62
     0
 48
50.0
100
AcDbPoint
 10
7179.896575106965
 20
7769.123139034579
 30
0.0
  0
POINT
  5
18C78
330
18C6C
100
AcDbEntity
  8
DEFPOINTS
 62
     0
 48
50.0
100
AcDbPoint
 10
7417.192158500192
 20
7769.123139034579
 30
0.0
  0
ENDBLK
  5
18C79
330
18C6C
100
AcDbEntity
  8
0
 48
50.0
100
AcDbBlockEnd
  0
BLOCK
  5
18DA0
330
18C7A
100
AcDbEntity
  8
0
 48
50.0
100
AcDbBlockBegin
  2
A$C3B1A506B
 70
     0
 10
0.0
 20
0.0
 30
0.0
  3
A$C3B1A506B
  1

  0
MTEXT
  5
18C7B
330
18C7A
100
AcDbEntity
  8
寸法
 62
     7
 48
50.0
100
AcDbMText
 10
3342.250386887194
 20
2778.329429134012
 30
0.0
 40
96.0
 41
0.0
 71
     5
 72
     1
  1
棚 2段
  7
STYLE1
 73
     1
 44
1.0
1001
ACAD
1000
MTEXTBEGIN
1070
    73
1070
     1
1070
    44
1040
1.0
1070
    74
1070
     0
1000
MTEXTEND
  0
MTEXT
  5
18C7C
330
18C7A
100
AcDbEntity
  8
寸法
 62
     7
 48
50.0
100
AcDbMText
 10
2167.25038688716
 20
2778.329429133986
 30
0.0
 40
96.0
 41
0.0
 71
     5
 72
     1
  1
棚 2段
  7
STYLE1
 73
     1
 44
1.0
1001
ACAD
1000
MTEXTBEGIN
1070
    73
1070
     1
1070
    44
1040
1.0
1070
    74
1070
     0
1000
MTEXTEND
  0
MTEXT
  5
18C7D
330
18C7A
100
AcDbEntity
  8
寸法
 62
     7
 48
50.0
100
AcDbMText
 10
992.2503868871608
 20
2778.329429133935
 30
0.0
 40
96.0
 41
0.0
 71
     5
 72
     1
  1
棚 2段
  7
STYLE1
 73
     1
 44
1.0
1001
ACAD
1000
MTEXTBEGIN
1070
    73
1070
     1
1070
    44
1040
1.0
1070
    74
1070
     0
1000
MTEXTEND
  0
LINE
  5
18C7E
330
18C7A
100
AcDbEntity
  8
細線
 48
50.0
100
AcDbLine
 10
2771.970589276527
 20
1368.994384123192
 30
0.0
 11
3398.970589276523
 21
1368.994384123192
 31
0.0
  0
LINE
  5
18C7F
330
18C7A
100
AcDbEntity
  8
細線
 48
50.0
100
AcDbLine
 10
2117.970593930113
 20
1335.285615569113
 30
0.0
 11
3398.970589276523
 21
1335.285615569113
 31
0.0
  0
LINE
  5
18C80
330
18C7A
100
AcDbEntity
  8
細線
 48
50.0
100
AcDbLine
 10
2076.970593930115
 20
1364.690523565368
 30
0.0
 11
1322.970589276523
 21
1364.690523565367
 31
0.0
  0
LINE
  5
18C81
330
18C7A
100
AcDbEntity
  8
細線
100
AcDbLine
 10
3170.720579860066
 20
1388.494284088199
 30
0.0
 11
3173.052119381877
 21
1393.494286728162
 31
0.0
  0
LINE
  5
18C82
330
18C7A
100
AcDbEntity
  8
細線
100
AcDbLine
 10
3240.720589276525
 20
1388.494269174465
 30
0.0
 11
3238.389042800336
 21
1393.494286728144
 31
0.0
  0
LINE
  5
18C83
330
18C7A
100
AcDbEntity
  8
細線
100
AcDbLine
 10
3238.389042800336
 20
1393.494286728144
 30
0.0
 11
3173.052119381862
 21
1393.494286728133
 31
0.0
  0
LINE
  5
18C84
330
18C7A
100
AcDbEntity
  8
細線
100
AcDbLine
 10
3098.389042800336
 20
1393.494286728144
 30
0.0
 11
3033.052119381862
 21
1393.494286728133
 31
0.0
  0
LINE
  5
18C85
330
18C7A
100
AcDbEntity
  8
細線
100
AcDbLine
 10
3100.720589276523
 20
1388.494269174465
 30
0.0
 11
3098.389042800336
 21
1393.494286728144
 31
0.0
  0
LINE
  5
18C86
330
18C7A
100
AcDbEntity
  8
細線
100
AcDbLine
 10
3030.720579860066
 20
1388.494284088199
 30
0.0
 11
3033.052119381875
 21
1393.494286728162
 31
0.0
  0
LINE
  5
18C87
330
18C7A
100
AcDbEntity
  8
細線
100
AcDbLine
 10
2890.720589276525
 20
1388.494269174465
 30
0.0
 11
2893.052128798336
 21
1393.494271814428
 31
0.0
  0
LINE
  5
18C88
330
18C7A
100
AcDbEntity
  8
細線
100
AcDbLine
 10
2960.720598692984
 20
1388.494254260731
 30
0.0
 11
2958.389052216793
 21
1393.49427181441
 31
0.0
  0
LINE
  5
18C89
330
18C7A
100
AcDbEntity
  8
細線
100
AcDbLine
 10
2958.389052216795
 20
1393.49427181441
 30
0.0
 11
2893.052128798321
 21
1393.494271814399
 31
0.0
  0
LINE
  5
18C8A
330
18C7A
100
AcDbEntity
  8
細線
100
AcDbLine
 10
2667.139038146739
 20
1359.494298590735
 30
0.0
 11
2601.802114728263
 21
1359.494298590724
 31
0.0
  0
LINE
  5
18C8B
330
18C7A
100
AcDbEntity
  8
細線
100
AcDbLine
 10
2669.470584622926
 20
1354.494281037055
 30
0.0
 11
2667.139038146737
 21
1359.494298590735
 31
0.0
  0
LINE
  5
18C8C
330
18C7A
100
AcDbEntity
  8
細線
100
AcDbLine
 10
2599.470575206469
 20
1354.49429595079
 30
0.0
 11
2601.802114728278
 21
1359.494298590752
 31
0.0
  0
LINE
  5
18C8D
330
18C7A
100
AcDbEntity
  8
細線
 48
50.0
100
AcDbLine
 10
2440.853968524536
 20
1372.765132327548
 30
0.0
 11
2446.609486107205
 21
1354.494281037057
 31
0.0
  0
LINE
  5
18C8E
330
18C7A
100
AcDbEntity
  8
細線
 48
50.0
100
AcDbLine
 10
2429.925520044106
 20
1372.765132327546
 30
0.0
 11
2440.853968524536
 21
1372.765132327548
 31
0.0
  0
ARC
  5
18C8F
330
18C7A
100
AcDbEntity
  8
細線
 48
50.0
100
AcDbCircle
 10
2424.471163986787
 20
1374.265132327546
 30
0.0
 40
5.0
100
AcDbArc
 50
204.6243183520723
 51
335.3756816479278
  0
ARC
  5
18C90
330
18C7A
100
AcDbEntity
  8
細線
 48
50.0
100
AcDbCircle
 10
2429.925520044106
 20
1371.765132327546
 30
0.0
 40
1.0
100
AcDbArc
 50
90.0
 51
155.3756816479277
  0
ARC
  5
18C91
330
18C7A
100
AcDbEntity
  8
細線
 48
50.0
100
AcDbCircle
 10
2419.016807929469
 20
1371.765132327546
 30
0.0
 40
1.0
100
AcDbArc
 50
24.62431835207225
 51
90.0
  0
LINE
  5
18C92
330
18C7A
100
AcDbEntity
  8
細線
 48
50.0
100
AcDbLine
 10
2408.088359449037
 20
1372.765132327548
 30
0.0
 11
2419.016807929469
 21
1372.765132327546
 31
0.0
  0
LINE
  5
18C93
330
18C7A
100
AcDbEntity
  8
細線
 48
50.0
100
AcDbLine
 10
2402.33284186637
 20
1354.494281037054
 30
0.0
 11
2408.088359449037
 21
1372.765132327548
 31
0.0
  0
LINE
  5
18C94
330
18C7A
100
AcDbEntity
  8
細線
100
AcDbLine
 10
2458.070304175992
 20
1354.494278397076
 30
0.0
 11
2460.401843697802
 21
1359.494281037039
 31
0.0
  0
LINE
  5
18C95
330
18C7A
100
AcDbEntity
  8
細線
100
AcDbLine
 10
2528.070313592451
 20
1354.494263483342
 30
0.0
 11
2525.738767116262
 21
1359.494281037021
 31
0.0
  0
LINE
  5
18C96
330
18C7A
100
AcDbEntity
  8
細線
100
AcDbLine
 10
2525.738767116262
 20
1359.494281037021
 30
0.0
 11
2460.40184369779
 21
1359.49428103701
 31
0.0
  0
LINE
  5
18C97
330
18C7A
100
AcDbEntity
  8
細線
100
AcDbLine
 10
2387.139046332155
 20
1359.494281037021
 30
0.0
 11
2321.80212291368
 21
1359.49428103701
 31
0.0
  0
LINE
  5
18C98
330
18C7A
100
AcDbEntity
  8
細線
100
AcDbLine
 10
2389.470592808342
 20
1354.494263483342
 30
0.0
 11
2387.139046332153
 21
1359.494281037021
 31
0.0
  0
LINE
  5
18C99
330
18C7A
100
AcDbEntity
  8
細線
100
AcDbLine
 10
2319.470584622926
 20
1354.494281037054
 30
0.0
 11
2321.802122913694
 21
1359.494281037039
 31
0.0
  0
LINE
  5
18C9A
330
18C7A
100
AcDbEntity
  8
細線
100
AcDbLine
 10
2179.47061994182
 20
1354.494289224422
 30
0.0
 11
2181.802158232587
 21
1359.494289224407
 31
0.0
  0
LINE
  5
18C9B
330
18C7A
100
AcDbEntity
  8
細線
100
AcDbLine
 10
2249.470628127236
 20
1354.49427167071
 30
0.0
 11
2247.139081651047
 21
1359.494289224389
 31
0.0
  0
LINE
  5
18C9C
330
18C7A
100
AcDbEntity
  8
細線
100
AcDbLine
 10
2247.139081651047
 20
1359.494289224389
 30
0.0
 11
2181.802158232573
 21
1359.494289224378
 31
0.0
  0
LINE
  5
18C9D
330
18C7A
100
AcDbEntity
  8
細線
100
AcDbLine
 10
1807.970585744697
 20
1320.494460905133
 30
0.0
 11
1810.302124035464
 21
1325.494460905118
 31
0.0
  0
LINE
  5
18C9E
330
18C7A
100
AcDbEntity
  8
細線
100
AcDbLine
 10
1877.970593930113
 20
1320.494443351421
 30
0.0
 11
1875.639047453926
 21
1325.4944609051
 31
0.0
  0
LINE
  5
18C9F
330
18C7A
100
AcDbEntity
  8
細線
100
AcDbLine
 10
1875.639047453926
 20
1325.4944609051
 30
0.0
 11
1810.302124035452
 21
1325.494460905089
 31
0.0
  0
LINE
  5
18CA0
330
18C7A
100
AcDbEntity
  8
細線
100
AcDbLine
 10
2015.639047453926
 20
1325.4944609051
 30
0.0
 11
1950.302124035452
 21
1325.494460905089
 31
0.0
  0
LINE
  5
18CA1
330
18C7A
100
AcDbEntity
  8
細線
100
AcDbLine
 10
2017.970593930113
 20
1320.494443351421
 30
0.0
 11
2015.639047453924
 21
1325.4944609051
 31
0.0
  0
LINE
  5
18CA2
330
18C7A
100
AcDbEntity
  8
細線
100
AcDbLine
 10
1947.970585744697
 20
1320.494460905133
 30
0.0
 11
1950.302124035465
 21
1325.494460905118
 31
0.0
  0
LINE
  5
18CA3
330
18C7A
100
AcDbEntity
  8
細線
100
AcDbLine
 10
1735.639047453926
 20
1325.494460905098
 30
0.0
 11
1670.302124035454
 21
1325.494460905087
 31
0.0
  0
LINE
  5
18CA4
330
18C7A
100
AcDbEntity
  8
細線
100
AcDbLine
 10
1737.970593930113
 20
1320.494443351419
 30
0.0
 11
1735.639047453926
 21
1325.494460905098
 31
0.0
  0
LINE
  5
18CA5
330
18C7A
100
AcDbEntity
  8
細線
100
AcDbLine
 10
1667.970585744697
 20
1320.494460905131
 30
0.0
 11
1670.302124035465
 21
1325.494460905116
 31
0.0
  0
LINE
  5
18CA6
330
18C7A
100
AcDbEntity
  8
細線
100
AcDbLine
 10
1527.970593930113
 20
1320.494460905133
 30
0.0
 11
1530.302132220881
 21
1325.494460905118
 31
0.0
  0
LINE
  5
18CA7
330
18C7A
100
AcDbEntity
  8
細線
100
AcDbLine
 10
1597.970602115529
 20
1320.494443351421
 30
0.0
 11
1595.639055639342
 21
1325.4944609051
 31
0.0
  0
LINE
  5
18CA8
330
18C7A
100
AcDbEntity
  8
細線
100
AcDbLine
 10
1595.639055639342
 20
1325.4944609051
 30
0.0
 11
1530.302132220869
 21
1325.494460905089
 31
0.0
  0
ARC
  5
18CA9
330
18C7A
100
AcDbEntity
  8
部品1
 48
0.01
100
AcDbCircle
 10
1483.470482677778
 20
1319.493338720063
 30
0.0
 40
0.5
100
AcDbArc
 50
270.0
 51
0.0
  0
LINE
  5
18CAA
330
18C7A
100
AcDbEntity
  8
部品1
 48
0.01
100
AcDbLine
 10
1483.970482677778
 20
1320.493338720063
 30
0.0
 11
1483.970482677778
 21
1319.493338720063
 31
0.0
  0
LINE
  5
18CAB
330
18C7A
100
AcDbEntity
  8
部品1
 48
0.01
100
AcDbLine
 10
1483.970482677778
 20
1320.493338720063
 30
0.0
 11
1483.970482677778
 21
1319.493338720063
 31
0.0
  0
LINE
  5
18CAC
330
18C7A
100
AcDbEntity
  8
部品1
 48
0.01
100
AcDbLine
 10
1483.470482677778
 20
1318.993338720063
 30
0.0
 11
1476.857977247713
 21
1318.993338720062
 31
0.0
  0
ARC
  5
18CAD
330
18C7A
100
AcDbEntity
  8
部品1
100
AcDbCircle
 10
1476.926326800494
 20
1319.993338720062
 30
0.0
 40
1.0
100
AcDbArc
 50
160.5287793655865
 51
270.0
  0
ARC
  5
18CAE
330
18C7A
100
AcDbEntity
  8
部品1
100
AcDbCircle
 10
1451.470482677778
 20
1328.993338720062
 30
0.0
 40
26.0
100
AcDbArc
 50
340.5287793655865
 51
0.0
  0
LINE
  5
18CAF
330
18C7A
100
AcDbEntity
  8
部品1
100
AcDbLine
 10
1477.470482677778
 20
1328.993338720062
 30
0.0
 11
1477.470482677778
 21
1333.993338720061
 31
0.0
  0
ARC
  5
18CB0
330
18C7A
100
AcDbEntity
  8
部品1
 48
0.01
100
AcDbCircle
 10
1475.470482677778
 20
1333.993338720061
 30
0.0
 40
2.0
100
AcDbArc
 50
0.0
 51
90.0
  0
ARC
  5
18CB1
330
18C7A
100
AcDbEntity
  8
部品1
100
AcDbCircle
 10
1473.862091052968
 20
1332.993338720062
 30
0.0
 40
3.0
100
AcDbArc
 50
90.0
 51
141.6069559808035
  0
LINE
  5
18CB2
330
18C7A
100
AcDbEntity
  8
部品1
 48
0.01
100
AcDbLine
 10
1475.470482677778
 20
1335.993338720062
 30
0.0
 11
1473.862091052968
 21
1335.993338720062
 31
0.0
  0
ARC
  5
18CB3
330
18C7A
100
AcDbEntity
  8
部品1
100
AcDbCircle
 10
1455.399768463507
 20
1332.293338720065
 30
0.0
 40
3.0
100
AcDbArc
 50
254.0576313943215
 51
270.0
  0
ARC
  5
18CB4
330
18C7A
100
AcDbEntity
  8
部品1
100
AcDbCircle
 10
1462.541196892049
 20
1332.293338720065
 30
0.0
 40
3.0
100
AcDbArc
 50
270.0
 51
285.9423686056786
  0
LINE
  5
18CB5
330
18C7A
100
AcDbEntity
  8
部品1
100
AcDbLine
 10
1462.541196892049
 20
1329.293338720064
 30
0.0
 11
1455.399768463507
 21
1329.293338720064
 31
0.0
  0
ARC
  5
18CB6
330
18C7A
100
AcDbEntity
  8
部品1
100
AcDbCircle
 10
1458.970482677778
 20
1344.793338720065
 30
0.0
 40
16.0
100
AcDbArc
 50
285.9423686056786
 51
321.6069559808035
  0
LINE
  5
18CB7
330
18C7A
100
AcDbEntity
  8
部品1
 48
0.01
100
AcDbLine
 10
1442.470482677778
 20
1335.993338720062
 30
0.0
 11
1444.078874302588
 21
1335.993338720062
 31
0.0
  0
ARC
  5
18CB8
330
18C7A
100
AcDbEntity
  8
部品1
100
AcDbCircle
 10
1444.078874302588
 20
1332.993338720062
 30
0.0
 40
3.0
100
AcDbArc
 50
38.39304401919648
 51
90.0
  0
ARC
  5
18CB9
330
18C7A
100
AcDbEntity
  8
部品1
100
AcDbCircle
 10
1458.970482677778
 20
1344.793338720065
 30
0.0
 40
16.0
100
AcDbArc
 50
218.3930440191965
 51
254.0576313943215
  0
LINE
  5
18CBA
330
18C7A
100
AcDbEntity
  8
部品1
100
AcDbLine
 10
1440.470482677778
 20
1328.993338720062
 30
0.0
 11
1440.470482677778
 21
1333.993338720061
 31
0.0
  0
ARC
  5
18CBB
330
18C7A
100
AcDbEntity
  8
部品1
 48
0.01
100
AcDbCircle
 10
1442.470482677778
 20
1333.993338720061
 30
0.0
 40
2.0
100
AcDbArc
 50
90.0
 51
180.0
  0
ARC
  5
18CBC
330
18C7A
100
AcDbEntity
  8
部品1
100
AcDbCircle
 10
1466.470482677778
 20
1328.993338720062
 30
0.0
 40
26.0
100
AcDbArc
 50
180.0
 51
199.4712206344134
  0
ARC
  5
18CBD
330
18C7A
100
AcDbEntity
  8
部品1
 48
0.01
100
AcDbCircle
 10
1434.470482677778
 20
1319.493338720063
 30
0.0
 40
0.5
100
AcDbArc
 50
180.0
 51
270.0
  0
LINE
  5
18CBE
330
18C7A
100
AcDbEntity
  8
部品1
 48
0.01
100
AcDbLine
 10
1434.470482677778
 20
1318.993338720063
 30
0.0
 11
1441.014638555061
 21
1318.993338720062
 31
0.0
  0
LINE
  5
18CBF
330
18C7A
100
AcDbEntity
  8
部品1
 48
0.01
100
AcDbLine
 10
1433.970482677778
 20
1320.493338720063
 30
0.0
 11
1433.970482677778
 21
1319.493338720063
 31
0.0
  0
ARC
  5
18CC0
330
18C7A
100
AcDbEntity
  8
部品1
100
AcDbCircle
 10
1441.014638555061
 20
1319.993338720062
 30
0.0
 40
1.0
100
AcDbArc
 50
270.0
 51
19.47122063441346
  0
LINE
  5
18CC1
330
18C7A
100
AcDbEntity
  8
細線
100
AcDbLine
 10
1479.470482677785
 20
1338.493338720065
 30
0.0
 11
1438.470482677785
 21
1338.493338720058
 31
0.0
  0
LINE
  5
18CC2
330
18C7A
100
AcDbEntity
  8
細線
100
AcDbLine
 10
1438.470482677785
 20
1338.493338720058
 30
0.0
 11
1438.470482677785
 21
1320.49333872004
 31
0.0
  0
LINE
  5
18CC3
330
18C7A
100
AcDbEntity
  8
細線
100
AcDbLine
 10
1479.470482677785
 20
1338.493338720065
 30
0.0
 11
1479.470482677785
 21
1320.49333872004
 31
0.0
  0
LINE
  5
18CC4
330
18C7A
100
AcDbEntity
  8
細線
100
AcDbLine
 10
1322.970589276523
 20
1324.494269174465
 30
0.0
 11
1322.970589276523
 21
1320.494269174513
 31
0.0
  0
LINE
  5
18CC5
330
18C7A
100
AcDbEntity
  8
寸法
 48
50.0
100
AcDbLine
 10
1746.17359555837
 20
1170.531020743327
 30
0.0
 11
1694.767587648266
 21
1170.531020743327
 31
0.0
  0
LINE
  5
18CC6
330
18C7A
100
AcDbEntity
  8
寸法
 48
50.0
100
AcDbLine
 10
1694.767587648266
 20
1170.531020743327
 30
0.0
 11
1694.767587648266
 21
1201.841179395494
 31
0.0
  0
LINE
  5
18CC7
330
18C7A
100
AcDbEntity
  8
寸法
 48
50.0
100
AcDbLine
 10
1694.767587648266
 20
1201.841179395494
 30
0.0
 11
1665.006255656843
 21
1201.841179395494
 31
0.0
  0
LINE
  5
18CC8
330
18C7A
100
AcDbEntity
  8
寸法
 48
50.0
100
AcDbLine
 10
1665.006255656843
 20
1201.841179395494
 30
0.0
 11
1720.470591603318
 21
1239.420630324105
 31
0.0
  0
LINE
  5
18CC9
330
18C7A
100
AcDbEntity
  8
寸法
 48
50.0
100
AcDbLine
 10
1775.934927549793
 20
1201.841179395494
 30
0.0
 11
1720.470591603318
 21
1239.420630324105
 31
0.0
  0
LINE
  5
18CCA
330
18C7A
100
AcDbEntity
  8
寸法
 48
50.0
100
AcDbLine
 10
1746.17359555837
 20
1201.841179395494
 30
0.0
 11
1775.934927549793
 21
1201.841179395494
 31
0.0
  0
LINE
  5
18CCB
330
18C7A
100
AcDbEntity
  8
寸法
 48
50.0
100
AcDbLine
 10
1746.17359555837
 20
1170.531020743327
 30
0.0
 11
1746.17359555837
 21
1201.841179395494
 31
0.0
  0
LINE
  5
18CCC
330
18C7A
100
AcDbEntity
  8
寸法
 48
50.0
100
AcDbLine
 10
1694.767587648266
 20
1170.531020743327
 30
0.0
 11
1746.17359555837
 21
1170.531020743327
 31
0.0
  0
LINE
  5
18CCD
330
18C7A
100
AcDbEntity
  8
寸法
 48
50.0
100
AcDbLine
 10
2025.339129835225
 20
1227.676611498152
 30
0.0
 11
2025.339129835225
 21
1174.01297691636
 31
0.0
  0
LINE
  5
18CCE
330
18C7A
100
AcDbEntity
  8
寸法
 48
50.0
100
AcDbLine
 10
2114.623348430647
 20
1203.752977228664
 30
0.0
 11
2025.339129835225
 21
1227.676611498152
 31
0.0
  0
LINE
  5
18CCF
330
18C7A
100
AcDbEntity
  8
寸法
 48
50.0
100
AcDbLine
 10
1895.471408254923
 20
1203.752977228664
 30
0.0
 11
2114.623348430647
 21
1203.752977228664
 31
0.0
  0
DIMENSION
  5
18CD0
330
18C7A
100
AcDbEntity
  8
寸法
 48
50.0
100
AcDbDimension
  2
*D15
 10
2588.970589276523
 20
706.3240511224249
 30
0.0
 11
1969.060022905491
 21
706.3240511224249
 31
0.0
 12
-3742.925985830444
 22
-6453.628869860112
 32
0.0
 70
   128
  1
有効開口部間口\P<>
 71
     5
 42
1266.0
  3
INABA_S40G
100
AcDbAlignedDimension
 13
1322.970589276523
 23
1315.494269174465
 33
0.0
 14
2588.970589276523
 24
1315.494269174465
 34
0.0
100
AcDbRotatedDimension
1001
ACAD
1000
DSTYLE
1002
{
1070
   341
1005
0
1002
}
  0
LINE
  5
18CD1
330
18C7A
100
AcDbEntity
  8
部品1
100
AcDbLine
 10
3409.970589276524
 20
1392.494269174465
 30
0.0
 11
3437.970589276523
 21
1392.494269174465
 31
0.0
  0
DIMENSION
  5
18CD2
330
18C7A
100
AcDbEntity
  8
寸法
100
AcDbDimension
  2
*D16
 10
3674.266172669749
 20
1315.494269174465
 30
0.0
 11
3674.266172669748
 21
1177.494269174462
 31
0.0
 12
-3742.925985830444
 22
-6453.628869860112
 32
0.0
 70
   128
 71
     5
 42
77.0
  3
INABA_S40
100
AcDbAlignedDimension
 13
3437.970589276523
 23
1392.494269174465
 33
0.0
 14
3436.970589276523
 24
1315.494269174465
 34
0.0
 50
90.0
100
AcDbRotatedDimension
1001
ACAD
1000
DSTYLE
1002
{
1070
    41
1040
0.5
1070
    44
1040
1.0
1070
   147
1040
0.8
1070
   271
1070
     2
1070
   272
1070
     2
1070
   289
1070
     3
1070
   340
1005
F706
1070
   343
1005
164B4
1070
   344
1005
164B4
1002
}
  0
LINE
  5
18CD3
330
18C7A
100
AcDbEntity
  8
部品1
100
AcDbLine
 10
3437.970589276523
 20
1315.494269174465
 30
0.0
 11
3437.970589276523
 21
1392.494269174465
 31
0.0
  0
LINE
  5
18CD4
330
18C7A
100
AcDbEntity
  8
部品1
100
AcDbLine
 10
3398.970589276523
 20
1388.494269174465
 30
0.0
 11
3409.970589276524
 21
1388.494269174465
 31
0.0
  0
LINE
  5
18CD5
330
18C7A
100
AcDbEntity
  8
部品1
100
AcDbLine
 10
3407.970589276523
 20
1324.494269174465
 30
0.0
 11
3407.970589276523
 21
1315.494269174465
 31
0.0
  0
LINE
  5
18CD6
330
18C7A
100
AcDbEntity
  8
部品1
100
AcDbLine
 10
3398.970589276523
 20
1324.494269174465
 30
0.0
 11
3407.970589276523
 21
1324.494269174465
 31
0.0
  0
LINE
  5
18CD7
330
18C7A
100
AcDbEntity
  8
部品1
100
AcDbLine
 10
3398.970589276523
 20
1388.494269174465
 30
0.0
 11
3398.970589276523
 21
1324.494269174465
 31
0.0
  0
LINE
  5
18CD8
330
18C7A
100
AcDbEntity
  8
部品1
100
AcDbLine
 10
3409.970589276524
 20
1419.494269174465
 30
0.0
 11
3409.970589276524
 21
1388.494269174465
 31
0.0
  0
LINE
  5
18CD9
330
18C7A
100
AcDbEntity
  8
部品1
100
AcDbLine
 10
1322.970589276523
 20
1388.494269174465
 30
0.0
 11
1311.970589276523
 21
1388.494269174465
 31
0.0
  0
LINE
  5
18CDA
330
18C7A
100
AcDbEntity
  8
部品1
100
AcDbLine
 10
1283.970589276523
 20
1392.494269174465
 30
0.0
 11
1311.970589276523
 21
1392.494269174465
 31
0.0
  0
LINE
  5
18CDB
330
18C7A
100
AcDbEntity
  8
部品1
100
AcDbLine
 10
1313.970589276523
 20
1324.494269174465
 30
0.0
 11
1313.970589276523
 21
1315.494269174465
 31
0.0
  0
LINE
  5
18CDC
330
18C7A
100
AcDbEntity
  8
部品1
100
AcDbLine
 10
1322.970589276523
 20
1324.494269174465
 30
0.0
 11
1313.970589276523
 21
1324.494269174465
 31
0.0
  0
LINE
  5
18CDD
330
18C7A
100
AcDbEntity
  8
部品1
100
AcDbLine
 10
1313.970589276523
 20
1315.494269174465
 30
0.0
 11
1283.970589276523
 21
1315.494269174465
 31
0.0
  0
LINE
  5
18CDE
330
18C7A
100
AcDbEntity
  8
部品1
100
AcDbLine
 10
1283.970589276523
 20
1315.494269174465
 30
0.0
 11
1283.970589276523
 21
1392.494269174465
 31
0.0
  0
LINE
  5
18CDF
330
18C7A
100
AcDbEntity
  8
部品1
100
AcDbLine
 10
1322.970589276523
 20
1388.494269174465
 30
0.0
 11
1322.970589276523
 21
1324.494269174465
 31
0.0
  0
LINE
  5
18CE0
330
18C7A
100
AcDbEntity
  8
部品1
100
AcDbLine
 10
1311.970589276523
 20
1419.494269174462
 30
0.0
 11
1311.970589276523
 21
1388.494269174465
 31
0.0
  0
LINE
  5
18CE1
330
18C7A
100
AcDbEntity
  8
部品1
100
AcDbLine
 10
1311.970589276523
 20
1419.494269174462
 30
0.0
 11
3409.970589276524
 21
1419.494269174465
 31
0.0
  0
LINE
  5
18CE2
330
18C7A
100
AcDbEntity
  8
部品1
100
AcDbLine
 10
3407.970589276523
 20
1315.494269174465
 30
0.0
 11
3437.970589276523
 21
1315.494269174465
 31
0.0
  0
LINE
  5
18CE3
330
18C7A
100
AcDbEntity
  8
部品1
100
AcDbLine
 10
1313.970589276523
 20
1315.494269174465
 30
0.0
 11
3410.970589276523
 21
1315.494269174465
 31
0.0
  0
LINE
  5
18CE4
330
18C7A
100
AcDbEntity
  8
細線
  6
Continuous
 62
     5
100
AcDbLine
 10
2689.970589276527
 20
1354.494269174462
 30
0.0
 11
2689.970589276527
 21
1354.494269174462
 31
0.0
  0
LINE
  5
18CE5
330
18C7A
100
AcDbEntity
  8
細線
  6
Continuous
 62
     5
100
AcDbLine
 10
2682.470589276527
 20
1354.494269174462
 30
0.0
 11
2682.470589276527
 21
1354.494269174462
 31
0.0
  0
LINE
  5
18CE6
330
18C7A
100
AcDbEntity
  8
細線
  6
Continuous
 62
     5
100
AcDbLine
 10
2676.470589276527
 20
1354.494269174462
 30
0.0
 11
2676.470589276527
 21
1354.494269174462
 31
0.0
  0
LINE
  5
18CE7
330
18C7A
100
AcDbEntity
  8
細線
  6
Continuous
 62
     5
100
AcDbLine
 10
2743.970589276527
 20
1373.494269174462
 30
0.0
 11
2743.970589276527
 21
1373.494269174462
 31
0.0
  0
LINE
  5
18CE8
330
18C7A
100
AcDbEntity
  8
細線
 48
50.0
100
AcDbLine
 10
1336.970593930116
 20
1341.094443351418
 30
0.0
 11
1336.970593930113
 21
1349.490593759059
 31
0.0
  0
LINE
  5
18CE9
330
18C7A
100
AcDbEntity
  8
細線
 48
50.0
100
AcDbLine
 10
1336.970593930113
 20
1349.490593759059
 30
0.0
 11
1322.970589276523
 21
1349.490593759057
 31
0.0
  0
LINE
  5
18CEA
330
18C7A
100
AcDbEntity
  8
細線
 48
50.0
100
AcDbLine
 10
2087.970593930113
 20
1337.644443351419
 30
0.0
 11
2087.970593930113
 21
1342.494443351421
 31
0.0
  0
LINE
  5
18CEB
330
18C7A
100
AcDbEntity
  8
細線
 48
50.0
100
AcDbLine
 10
2087.970593930113
 20
1342.494443351421
 30
0.0
 11
2102.970593930113
 21
1342.494443351421
 31
0.0
  0
LINE
  5
18CEC
330
18C7A
100
AcDbEntity
  8
細線
 48
50.0
100
AcDbLine
 10
2102.970593930113
 20
1342.494443351421
 30
0.0
 11
2102.970593930115
 21
1349.494443351419
 31
0.0
  0
LINE
  5
18CED
330
18C7A
100
AcDbEntity
  8
細線
 48
50.0
100
AcDbLine
 10
2102.970593930115
 20
1349.494443351419
 30
0.0
 11
2117.970593930113
 21
1349.494443351419
 31
0.0
  0
LINE
  5
18CEE
330
18C7A
100
AcDbEntity
  8
細線
 48
50.0
100
AcDbLine
 10
2117.970593930113
 20
1349.494443351419
 30
0.0
 11
2117.970593930113
 21
1320.494443351421
 31
0.0
  0
LINE
  5
18CEF
330
18C7A
100
AcDbEntity
  8
細線
 48
50.0
100
AcDbLine
 10
1313.970589276523
 20
1320.491777694889
 30
0.0
 11
1527.970593930113
 21
1320.494460905133
 31
0.0
  0
LINE
  5
18CF0
330
18C7A
100
AcDbEntity
  8
細線
 48
50.0
100
AcDbLine
 10
2017.970593930113
 20
1320.494443351421
 30
0.0
 11
2117.970593930113
 21
1320.494443351421
 31
0.0
  0
LINE
  5
18CF1
330
18C7A
100
AcDbEntity
  8
細線
 48
50.0
100
AcDbLine
 10
1737.970593930113
 20
1320.494443351419
 30
0.0
 11
1807.970593930113
 21
1320.494443351423
 31
0.0
  0
LINE
  5
18CF2
330
18C7A
100
AcDbEntity
  8
細線
 48
50.0
100
AcDbLine
 10
1750.832558942642
 20
1320.494443351419
 30
0.0
 11
1756.588076525309
 21
1338.765294641913
 31
0.0
  0
LINE
  5
18CF3
330
18C7A
100
AcDbEntity
  8
細線
 48
50.0
100
AcDbLine
 10
1756.588076525309
 20
1338.765294641913
 30
0.0
 11
1767.516525005743
 21
1338.765294641911
 31
0.0
  0
ARC
  5
18CF4
330
18C7A
100
AcDbEntity
  8
細線
 48
50.0
100
AcDbCircle
 10
1767.516525005743
 20
1337.765294641911
 30
0.0
 40
1.0
100
AcDbArc
 50
24.62431835207225
 51
90.0
  0
ARC
  5
18CF5
330
18C7A
100
AcDbEntity
  8
細線
 48
50.0
100
AcDbCircle
 10
1778.425237120377
 20
1337.765294641911
 30
0.0
 40
1.0
100
AcDbArc
 50
90.0
 51
155.3756816479277
  0
ARC
  5
18CF6
330
18C7A
100
AcDbEntity
  8
細線
 48
50.0
100
AcDbCircle
 10
1772.970881063058
 20
1340.265294641911
 30
0.0
 40
5.0
100
AcDbArc
 50
204.6243183520723
 51
335.3756816479278
  0
LINE
  5
18CF7
330
18C7A
100
AcDbEntity
  8
細線
 48
50.0
100
AcDbLine
 10
1778.425237120377
 20
1338.765294641911
 30
0.0
 11
1789.35368560081
 21
1338.765294641913
 31
0.0
  0
LINE
  5
18CF8
330
18C7A
100
AcDbEntity
  8
細線
 48
50.0
100
AcDbLine
 10
1789.35368560081
 20
1338.765294641913
 30
0.0
 11
1795.109203183478
 21
1320.494443351423
 31
0.0
  0
LINE
  5
18CF9
330
18C7A
100
AcDbEntity
  8
細線
 48
50.0
100
AcDbLine
 10
2087.970593930113
 20
1341.094443351419
 30
0.0
 11
1336.970593930116
 21
1341.094443351418
 31
0.0
  0
LINE
  5
18CFA
330
18C7A
100
AcDbEntity
  8
細線
 48
50.0
100
AcDbLine
 10
1947.970593930113
 20
1320.494443351421
 30
0.0
 11
1877.970593930113
 21
1320.494443351421
 31
0.0
  0
LINE
  5
18CFB
330
18C7A
100
AcDbEntity
  8
細線
100
AcDbLine
 10
1667.970593930113
 20
1320.494443351421
 30
0.0
 11
1597.970602115529
 21
1320.494443351421
 31
0.0
  0
LINE
  5
18CFC
330
18C7A
100
AcDbEntity
  8
細線
 48
50.0
100
AcDbLine
 10
2741.970584622936
 20
1375.094487209288
 30
0.0
 11
2106.970593930113
 21
1375.094487209284
 31
0.0
  0
LINE
  5
18CFD
330
18C7A
100
AcDbEntity
  8
細線
 48
50.0
100
AcDbLine
 10
2106.970593930113
 20
1371.990637616925
 30
0.0
 11
2106.970593930113
 21
1376.490637616925
 31
0.0
  0
LINE
  5
18CFE
330
18C7A
100
AcDbEntity
  8
細線
 48
50.0
100
AcDbLine
 10
2106.970593930113
 20
1376.490637616925
 30
0.0
 11
2091.970593930113
 21
1376.490637616925
 31
0.0
  0
LINE
  5
18CFF
330
18C7A
100
AcDbEntity
  8
細線
 48
50.0
100
AcDbLine
 10
2091.970593930113
 20
1376.490637616925
 30
0.0
 11
2091.970593930113
 21
1383.490637616927
 31
0.0
  0
LINE
  5
18D00
330
18C7A
100
AcDbEntity
  8
細線
 48
50.0
100
AcDbLine
 10
2091.970593930113
 20
1383.490637616927
 30
0.0
 11
2076.970593930115
 21
1383.490637616924
 31
0.0
  0
LINE
  5
18D01
330
18C7A
100
AcDbEntity
  8
細線
 48
50.0
100
AcDbLine
 10
2076.970593930115
 20
1383.490637616924
 30
0.0
 11
2076.970593930115
 21
1345.890409513813
 31
0.0
  0
LINE
  5
18D02
330
18C7A
100
AcDbEntity
  8
細線
 48
50.0
100
AcDbLine
 10
2076.970593930115
 20
1345.890409513813
 30
0.0
 11
2096.970601231289
 21
1345.890451063353
 31
0.0
  0
LINE
  5
18D03
330
18C7A
100
AcDbEntity
  8
細線
 48
50.0
100
AcDbLine
 10
2096.970556362348
 20
1354.493912699161
 30
0.0
 11
2096.970601231289
 21
1345.890451063353
 31
0.0
  0
LINE
  5
18D04
330
18C7A
100
AcDbEntity
  8
細線
 48
50.0
100
AcDbLine
 10
2741.970584622936
 20
1371.644487209287
 30
0.0
 11
2741.970584622936
 21
1376.494487209284
 31
0.0
  0
LINE
  5
18D05
330
18C7A
100
AcDbEntity
  8
細線
 48
50.0
100
AcDbLine
 10
2741.970584622936
 20
1376.494487209284
 30
0.0
 11
2756.970584622934
 21
1376.494487209285
 31
0.0
  0
LINE
  5
18D06
330
18C7A
100
AcDbEntity
  8
細線
 48
50.0
100
AcDbLine
 10
2756.970584622934
 20
1376.494487209285
 30
0.0
 11
2756.970596256909
 21
1383.494487209331
 31
0.0
  0
LINE
  5
18D07
330
18C7A
100
AcDbEntity
  8
細線
 48
50.0
100
AcDbLine
 10
2756.970596256909
 20
1383.494487209331
 30
0.0
 11
2771.970594427439
 21
1383.494487209329
 31
0.0
  0
LINE
  5
18D08
330
18C7A
100
AcDbEntity
  8
細線
 48
50.0
100
AcDbLine
 10
2771.970594427439
 20
1383.494487209329
 30
0.0
 11
2771.970584125617
 21
1354.494281037055
 31
0.0
  0
LINE
  5
18D09
330
18C7A
100
AcDbEntity
  8
細線
 48
50.0
100
AcDbLine
 10
2458.070304175992
 20
1354.494278397076
 30
0.0
 11
2389.470863838818
 21
1354.494283787084
 31
0.0
  0
LINE
  5
18D0A
330
18C7A
100
AcDbEntity
  8
細線
 48
50.0
100
AcDbLine
 10
2096.970556362348
 20
1354.493912699161
 30
0.0
 11
2108.203245717057
 21
1354.494095652309
 31
0.0
  0
ARC
  5
18D0B
330
18C7A
100
AcDbEntity
  8
細線
 48
50.0
100
AcDbCircle
 10
2114.785538024393
 20
1353.294259565922
 30
0.0
 40
1.8
100
AcDbArc
 50
270.0006665777295
 51
345.000555481349
  0
LINE
  5
18D0C
330
18C7A
100
AcDbEntity
  8
細線
 48
50.0
100
AcDbLine
 10
2116.771971470473
 20
1353.753100023201
 30
0.0
 11
2116.524209028273
 21
1352.828402141094
 31
0.0
  0
LINE
  5
18D0D
330
18C7A
100
AcDbEntity
  8
細線
 48
50.0
100
AcDbLine
 10
2114.785558965548
 20
1351.494259566043
 30
0.0
 11
2111.155631546781
 21
1351.494217335563
 31
0.0
  0
ARC
  5
18D0E
330
18C7A
100
AcDbEntity
  8
細線
 48
50.0
100
AcDbCircle
 10
2111.155610605627
 20
1353.29421733544
 30
0.0
 40
1.8
100
AcDbArc
 50
195.0010443049965
 51
270.0006665777295
  0
LINE
  5
18D0F
330
18C7A
100
AcDbEntity
  8
細線
 48
50.0
100
AcDbLine
 10
2109.169183113368
 20
1353.752932303007
 30
0.0
 11
2109.416952609882
 21
1352.828311364425
 31
0.0
  0
ARC
  5
18D10
330
18C7A
100
AcDbEntity
  8
細線
 48
50.0
100
AcDbCircle
 10
2108.203262004622
 20
1353.494095652444
 30
0.0
 40
1.0
100
AcDbArc
 50
15.00104430499651
 51
90.00093320877969
  0
LINE
  5
18D11
330
18C7A
100
AcDbEntity
  8
細線
 48
50.0
100
AcDbLine
 10
2117.737892825577
 20
1354.494290342714
 30
0.0
 11
2118.679652976481
 21
1354.494296916564
 31
0.0
  0
ARC
  5
18D12
330
18C7A
100
AcDbEntity
  8
細線
 48
50.0
100
AcDbCircle
 10
2117.737899805961
 20
1353.49429034274
 30
0.0
 40
1.0
100
AcDbArc
 50
90.0003999466794
 51
165.000555481349
  0
LINE
  5
18D13
330
18C7A
100
AcDbEntity
  8
細線
 48
50.0
100
AcDbLine
 10
2669.470584622926
 20
1354.494281037055
 30
0.0
 11
2771.970584125617
 21
1354.494281037055
 31
0.0
  0
LINE
  5
18D14
330
18C7A
100
AcDbEntity
  8
細線
 48
50.0
100
AcDbLine
 10
2179.47061994182
 20
1354.494289224422
 30
0.0
 11
2118.370558714898
 21
1354.494296916564
 31
0.0
  0
LINE
  5
18D15
330
18C7A
100
AcDbEntity
  8
細線
 48
50.0
100
AcDbLine
 10
2599.470584622926
 20
1354.494281037057
 30
0.0
 11
2529.470584622926
 21
1354.494281037055
 31
0.0
  0
LINE
  5
18D16
330
18C7A
100
AcDbEntity
  8
細線
 48
50.0
100
AcDbLine
 10
2319.470584622926
 20
1354.494281037054
 30
0.0
 11
2249.470567335051
 21
1354.494281037057
 31
0.0
  0
ARC
  5
18D17
330
18C7A
100
AcDbEntity
  8
細線
 48
50.0
100
AcDbCircle
 10
2756.170589276533
 20
1387.694269174466
 30
0.0
 40
0.8
100
AcDbArc
 50
359.9997333689499
 51
89.99986668437072
  0
ARC
  5
18D18
330
18C7A
100
AcDbEntity
  8
細線
 48
50.0
100
AcDbCircle
 10
2763.770596101631
 20
1387.694280343081
 30
0.0
 40
0.8
100
AcDbArc
 50
90.00014387753465
 51
179.9997333689498
  0
LINE
  5
18D19
330
18C7A
100
AcDbEntity
  8
細線
 48
50.0
100
AcDbLine
 10
2756.170591137969
 20
1388.494269174465
 30
0.0
 11
2750.970589276525
 21
1388.494269174465
 31
0.0
  0
ARC
  5
18D1A
330
18C7A
100
AcDbEntity
  8
細線
 48
50.0
100
AcDbCircle
 10
2757.670589276524
 20
1386.194269174464
 30
0.0
 40
0.7
100
AcDbArc
 50
180.0
 51
270.0
  0
ARC
  5
18D1B
330
18C7A
100
AcDbEntity
  8
細線
 48
50.0
100
AcDbCircle
 10
2762.270589276524
 20
1386.194269174464
 30
0.0
 40
0.7
100
AcDbArc
 50
270.0
 51
0.0
  0
LINE
  5
18D1C
330
18C7A
100
AcDbEntity
  8
細線
 48
50.0
100
AcDbLine
 10
2762.970589276525
 20
1386.194269174464
 30
0.0
 11
2762.970596101639
 21
1387.694284065954
 31
0.0
  0
LINE
  5
18D1D
330
18C7A
100
AcDbEntity
  8
細線
 48
50.0
100
AcDbLine
 10
2757.670589276524
 20
1385.494269174465
 30
0.0
 11
2762.270589276524
 21
1385.494269174465
 31
0.0
  0
LINE
  5
18D1E
330
18C7A
100
AcDbEntity
  8
細線
 48
50.0
100
AcDbLine
 10
2756.970589276525
 20
1387.694269174466
 30
0.0
 11
2756.970589276525
 21
1386.194269174464
 31
0.0
  0
LINE
  5
18D1F
330
18C7A
100
AcDbEntity
  8
細線
 48
50.0
100
AcDbLine
 10
3382.570589276527
 20
1418.494269174465
 30
0.0
 11
2745.970589276525
 21
1418.494269174463
 31
0.0
  0
LINE
  5
18D20
330
18C7A
100
AcDbEntity
  8
細線
 48
50.0
100
AcDbLine
 10
3408.470589276525
 20
1413.494269174467
 30
0.0
 11
3392.570589276527
 21
1413.494269174465
 31
0.0
  0
LINE
  5
18D21
330
18C7A
100
AcDbEntity
  8
細線
 48
50.0
100
AcDbLine
 10
3392.570589276526
 20
1413.494269174465
 30
0.0
 11
3382.570589276527
 21
1418.494269174465
 31
0.0
  0
LINE
  5
18D22
330
18C7A
100
AcDbEntity
  8
細線
100
AcDbLine
 10
2993.470589276525
 20
1388.494269174465
 30
0.0
 11
2993.470589276525
 21
1417.794269174464
 31
0.0
  0
LINE
  5
18D23
330
18C7A
100
AcDbEntity
  8
細線
100
AcDbLine
 10
2993.470589276525
 20
1417.794269174464
 30
0.0
 11
3013.470589276525
 21
1417.794269174464
 31
0.0
  0
LINE
  5
18D24
330
18C7A
100
AcDbEntity
  8
細線
100
AcDbLine
 10
3013.470589276525
 20
1388.494269174465
 30
0.0
 11
3013.470589276525
 21
1417.794269174464
 31
0.0
  0
LINE
  5
18D25
330
18C7A
100
AcDbEntity
  8
細線
100
AcDbLine
 10
3170.720589276524
 20
1388.494269174465
 30
0.0
 11
3100.720589276523
 21
1388.494269174465
 31
0.0
  0
LINE
  5
18D26
330
18C7A
100
AcDbEntity
  8
細線
 48
50.0
100
AcDbLine
 10
2890.720589276525
 20
1388.494269174465
 30
0.0
 11
2763.766368849365
 21
1388.494269174465
 31
0.0
  0
LINE
  5
18D27
330
18C7A
100
AcDbEntity
  8
細線
100
AcDbLine
 10
3030.720589276525
 20
1388.494269174465
 30
0.0
 11
2960.720589276525
 21
1388.494269174465
 31
0.0
  0
LINE
  5
18D28
330
18C7A
100
AcDbEntity
  8
細線
 48
50.0
100
AcDbLine
 10
2750.970589276525
 20
1380.494269174465
 30
0.0
 11
2750.970589276525
 21
1388.494269174465
 31
0.0
  0
LINE
  5
18D29
330
18C7A
100
AcDbEntity
  8
細線
 48
50.0
100
AcDbLine
 10
2730.970589276524
 20
1380.494269174467
 30
0.0
 11
2750.970589276525
 21
1380.494269174465
 31
0.0
  0
LINE
  5
18D2A
330
18C7A
100
AcDbEntity
  8
細線
 48
50.0
100
AcDbLine
 10
2745.970589276525
 20
1418.494269174465
 30
0.0
 11
2745.970589276525
 21
1413.494269174465
 31
0.0
  0
LINE
  5
18D2B
330
18C7A
100
AcDbEntity
  8
細線
 48
50.0
100
AcDbLine
 10
2730.970589276525
 20
1418.494269174463
 30
0.0
 11
2745.970589276525
 21
1418.494269174465
 31
0.0
  0
LINE
  5
18D2C
330
18C7A
100
AcDbEntity
  8
細線
 48
50.0
100
AcDbLine
 10
2730.970589276524
 20
1380.494269174467
 30
0.0
 11
2730.970589276525
 21
1418.494269174463
 31
0.0
  0
LINE
  5
18D2D
330
18C7A
100
AcDbEntity
  8
細線
100
AcDbLine
 10
3398.970589276523
 20
1388.494269174465
 30
0.0
 11
3240.720589276525
 21
1388.494269174465
 31
0.0
  0
LINE
  5
18D2E
330
18C7A
100
AcDbEntity
  8
細線
 48
50.0
100
AcDbLine
 10
3408.470589276525
 20
1413.494269174467
 30
0.0
 11
3408.470589276524
 21
1388.494269174465
 31
0.0
  0
TEXT
  5
18D2F
330
18C7A
100
AcDbEntity
  8
部品1
100
AcDbText
 10
1860.154865991392
 20
46.99880823813145
 30
0.0
 40
135.0
  1
平面図
  7
STYLE2
100
AcDbText
  0
LWPOLYLINE
  5
18D30
330
18C7A
100
AcDbEntity
  8
部品1
100
AcDbPolyline
 90
        4
 70
     1
 43
0.0
 10
1770.23525616235
 20
239.8923374566548
 10
1770.23525616235
 20
0.0000159111223184
 10
2533.705922390791
 20
0.0000159111223184
 10
2533.705922390791
 20
239.8923374566548
  0
LINE
  5
18D31
330
18C7A
100
AcDbEntity
  8
部品1
100
AcDbLine
 10
1534.470589276487
 20
3154.494269174626
 30
0.0
 11
2769.470589276552
 21
3154.494269174626
 31
0.0
  0
LINE
  5
18D32
330
18C7A
100
AcDbEntity
  8
部品1
 48
50.0
100
AcDbLine
 10
1311.970589276523
 20
1420.494269174462
 30
0.0
 11
3411.970589276523
 21
1420.494269174465
 31
0.0
  0
LINE
  5
18D33
330
18C7A
100
AcDbEntity
  8
部品1
 48
50.0
100
AcDbLine
 10
471.9705892765232
 20
1392.494269174465
 30
0.0
 11
1311.970589276523
 21
1392.494269174465
 31
0.0
  0
DIMENSION
  5
18D34
330
18C7A
100
AcDbEntity
  8
寸法
100
AcDbDimension
  2
*D14
 10
2710.234916278077
 20
2488.887829538828
 30
0.0
 11
2338.318822490183
 21
2488.887829538828
 31
0.0
 12
-3742.925985830444
 22
-6453.628869860112
 32
0.0
 70
   128
 71
     5
 42
1231.00000000007
  3
INABA_S40G
100
AcDbAlignedDimension
 13
1536.470589276486
 23
2702.494269174557
 33
0.0
 14
2767.470589276556
 24
2702.494269174549
 34
0.0
100
AcDbRotatedDimension
1001
ACAD
1000
DSTYLE
1002
{
1002
}
  0
LINE
  5
18D35
330
18C7A
100
AcDbEntity
  8
部品1
100
AcDbLine
 10
1536.470589276487
 20
2702.494269174557
 30
0.0
 11
2767.470589276554
 21
2702.494269174615
 31
0.0
  0
LINE
  5
18D36
330
18C7A
100
AcDbEntity
  8
部品1
100
AcDbLine
 10
1536.470589276487
 20
3152.494269174557
 30
0.0
 11
2767.470589276556
 21
3152.494269174615
 31
0.0
  0
LINE
  5
18D37
330
18C7A
100
AcDbEntity
  8
細線
 48
50.0
100
AcDbLine
 10
1508.470589276487
 20
3152.494269174558
 30
0.0
 11
445.4705892765559
 21
2702.494269174509
 31
0.0
  0
LINE
  5
18D38
330
18C7A
100
AcDbEntity
  8
細線
 48
50.0
100
AcDbLine
 10
1508.470589276487
 20
2702.494269174558
 30
0.0
 11
445.4705892765542
 21
3152.494269174509
 31
0.0
  0
LINE
  5
18D39
330
18C7A
100
AcDbEntity
  8
部品1
100
AcDbLine
 10
1556.970589276487
 20
3172.494269174611
 30
0.0
 11
1556.970589276487
 21
3154.494269174611
 31
0.0
  0
LINE
  5
18D3A
330
18C7A
100
AcDbEntity
  8
部品1
100
AcDbLine
 10
1556.970589276487
 20
3172.494269174611
 30
0.0
 11
1550.970589276487
 21
3172.494269174611
 31
0.0
  0
LINE
  5
18D3B
330
18C7A
100
AcDbEntity
  8
部品1
100
AcDbLine
 10
1534.470589276487
 20
3146.494269174608
 30
0.0
 11
1509.470589276487
 21
3146.494269174611
 31
0.0
  0
LINE
  5
18D3C
330
18C7A
100
AcDbEntity
  8
部品1
100
AcDbLine
 10
1486.970589276487
 20
3172.494269174611
 30
0.0
 11
1486.970589276487
 21
3154.494269174611
 31
0.0
  0
LINE
  5
18D3D
330
18C7A
100
AcDbEntity
  8
部品1
100
AcDbLine
 10
1492.970589276487
 20
3172.494269174611
 30
0.0
 11
1486.970589276487
 21
3172.494269174611
 31
0.0
  0
LINE
  5
18D3E
330
18C7A
100
AcDbEntity
  8
部品1
100
AcDbLine
 10
1534.470589276487
 20
2702.494269174615
 30
0.0
 11
1509.470589276487
 21
2702.494269174615
 31
0.0
  0
LINE
  5
18D3F
330
18C7A
100
AcDbEntity
  8
部品1
 48
50.0
100
AcDbLine
 10
1536.470589276487
 20
3152.494269174611
 30
0.0
 11
1536.470589276487
 21
2702.494269174615
 31
0.0
  0
LINE
  5
18D40
330
18C7A
100
AcDbEntity
  8
部品1
 48
50.0
100
AcDbLine
 10
1508.470589276487
 20
3152.494269174607
 30
0.0
 11
1508.470589276487
 21
2702.494269174615
 31
0.0
  0
LINE
  5
18D41
330
18C7A
100
AcDbEntity
  8
部品1
 48
50.0
100
AcDbLine
 10
1534.470589276487
 20
3154.494269174618
 30
0.0
 11
1534.470589276487
 21
2702.494269174615
 31
0.0
  0
LINE
  5
18D42
330
18C7A
100
AcDbEntity
  8
部品1
 48
50.0
100
AcDbLine
 10
1509.470589276487
 20
3154.494269174615
 30
0.0
 11
1509.470589276487
 21
2702.494269174615
 31
0.0
  0
LINE
  5
18D43
330
18C7A
100
AcDbEntity
  8
部品1
100
AcDbLine
 10
3411.970589276556
 20
1392.494269174582
 30
0.0
 11
3411.970589276556
 21
1420.494269174596
 31
0.0
  0
LINE
  5
18D44
330
18C7A
100
AcDbEntity
  8
部品1
100
AcDbLine
 10
1311.970589276523
 20
1392.494269174596
 30
0.0
 11
1311.970589276523
 21
1420.494269174596
 31
0.0
  0
LINE
  5
18D45
330
18C7A
100
AcDbEntity
  8
部品1
100
AcDbLine
 10
891.9705892765232
 20
1392.494269174596
 30
0.0
 11
891.9705892765232
 21
1420.494269174596
 31
0.0
  0
LINE
  5
18D46
330
18C7A
100
AcDbEntity
  8
部品1
100
AcDbLine
 10
3411.97058927652
 20
3182.494269174477
 30
0.0
 11
3411.970589276523
 21
3154.494269174477
 31
0.0
  0
LINE
  5
18D47
330
18C7A
100
AcDbEntity
  8
部品1
100
AcDbLine
 10
2571.97058927652
 20
3182.494269174477
 30
0.0
 11
2571.970589276523
 21
3154.494269174477
 31
0.0
  0
LINE
  5
18D48
330
18C7A
100
AcDbEntity
  8
部品1
100
AcDbLine
 10
2991.97058927652
 20
3182.494269174477
 30
0.0
 11
2991.970589276523
 21
3154.494269174477
 31
0.0
  0
LINE
  5
18D49
330
18C7A
100
AcDbEntity
  8
部品1
100
AcDbLine
 10
2151.970589276519
 20
3182.494269174477
 30
0.0
 11
2151.970589276523
 21
3154.494269174477
 31
0.0
  0
LINE
  5
18D4A
330
18C7A
100
AcDbEntity
  8
部品1
100
AcDbLine
 10
1731.970589276519
 20
3182.494269174477
 30
0.0
 11
1731.970589276523
 21
3154.494269174477
 31
0.0
  0
LINE
  5
18D4B
330
18C7A
100
AcDbEntity
  8
部品1
100
AcDbLine
 10
1311.970589276519
 20
3182.494269174477
 30
0.0
 11
1311.970589276523
 21
3154.494269174477
 31
0.0
  0
LINE
  5
18D4C
330
18C7A
100
AcDbEntity
  8
部品1
100
AcDbLine
 10
891.9705892765195
 20
3182.494269174477
 30
0.0
 11
891.9705892765232
 21
3154.494269174477
 31
0.0
  0
LINE
  5
18D4D
330
18C7A
100
AcDbEntity
  8
部品1
100
AcDbLine
 10
471.9705892765232
 20
1392.494269174596
 30
0.0
 11
471.9705892765232
 21
1420.494269174596
 31
0.0
  0
LINE
  5
18D4E
330
18C7A
100
AcDbEntity
  8
部品1
100
AcDbLine
 10
444.9705892765305
 20
1420.494269174558
 30
0.0
 11
3858.970589276556
 21
1420.494269174596
 31
0.0
  0
LINE
  5
18D4F
330
18C7A
100
AcDbEntity
  8
部品1
100
AcDbLine
 10
3831.970589276556
 20
1392.494269174596
 30
0.0
 11
3831.970589276556
 21
1420.494269174596
 31
0.0
  0
LINE
  5
18D50
330
18C7A
100
AcDbEntity
  8
部品1
100
AcDbLine
 10
3858.970589276556
 20
1447.494269174593
 30
0.0
 11
3886.970589276556
 21
1447.494269174593
 31
0.0
  0
LINE
  5
18D51
330
18C7A
100
AcDbEntity
  8
部品1
100
AcDbLine
 10
3858.970589276556
 20
1867.494269174607
 30
0.0
 11
3886.970589276556
 21
1867.494269174607
 31
0.0
  0
LINE
  5
18D52
330
18C7A
100
AcDbEntity
  8
部品1
100
AcDbLine
 10
444.9705892765305
 20
1867.49426917448
 30
0.0
 11
416.9705892765305
 21
1867.49426917448
 31
0.0
  0
LINE
  5
18D53
330
18C7A
100
AcDbEntity
  8
部品1
100
AcDbLine
 10
3830.470589276541
 20
1867.49426917458
 30
0.0
 11
473.4705892765396
 21
1867.49426917448
 31
0.0
  0
LINE
  5
18D54
330
18C7A
100
AcDbEntity
  8
部品1
100
AcDbLine
 10
3830.470589276541
 20
2287.49426917458
 30
0.0
 11
473.4705892765396
 21
2287.49426917448
 31
0.0
  0
LINE
  5
18D55
330
18C7A
100
AcDbEntity
  8
部品1
100
AcDbLine
 10
444.9705892765305
 20
2287.49426917448
 30
0.0
 11
416.9705892765305
 21
2287.49426917448
 31
0.0
  0
LINE
  5
18D56
330
18C7A
100
AcDbEntity
  8
部品1
100
AcDbLine
 10
3858.970589276556
 20
2287.494269174608
 30
0.0
 11
3886.970589276556
 21
2287.494269174608
 31
0.0
  0
LINE
  5
18D57
330
18C7A
100
AcDbEntity
  8
部品1
 48
50.0
100
AcDbLine
 10
2151.970589276551
 20
2702.494269174586
 30
0.0
 11
2151.970589276581
 21
1448.994269174494
 31
0.0
  0
LINE
  5
18D58
330
18C7A
100
AcDbEntity
  8
破線
 48
10.0
100
AcDbLine
 10
2959.470589276535
 20
1472.494269174522
 30
0.0
 11
2176.970589276532
 21
1472.494269174505
 31
0.0
  0
LINE
  5
18D59
330
18C7A
100
AcDbEntity
  8
破線
 48
10.0
100
AcDbLine
 10
3009.47058927653
 20
1448.994269174509
 30
0.0
 11
3009.47058927653
 21
2702.494269174615
 31
0.0
  0
LINE
  5
18D5A
330
18C7A
100
AcDbEntity
  8
破線
 48
10.0
100
AcDbLine
 10
2959.470589276535
 20
1448.994269174505
 30
0.0
 11
2959.470589276531
 21
2702.494269174615
 31
0.0
  0
LINE
  5
18D5B
330
18C7A
100
AcDbEntity
  8
破線
 48
10.0
100
AcDbLine
 10
1344.47058927653
 20
1448.994269174509
 30
0.0
 11
1344.47058927653
 21
2702.494269174615
 31
0.0
  0
LINE
  5
18D5C
330
18C7A
100
AcDbEntity
  8
破線
 48
10.0
100
AcDbLine
 10
1294.470589276534
 20
1448.994269174505
 30
0.0
 11
1294.47058927653
 21
2702.494269174615
 31
0.0
  0
DIMENSION
  5
18D5D
330
18C7A
100
AcDbEntity
  8
寸法
100
AcDbDimension
  2
*D13
 10
1451.234916278005
 20
2488.887829538828
 30
0.0
 11
916.0604668248634
 21
2488.887829538828
 31
0.0
 12
-3742.925985830444
 22
-6453.628869860112
 32
0.0
 70
   128
 71
     5
 42
1062.99999999993
  3
INABA_S40G
100
AcDbAlignedDimension
 13
445.4705892765559
 23
2702.494269174505
 33
0.0
 14
1508.470589276486
 24
2702.494269174558
 34
0.0
100
AcDbRotatedDimension
1001
ACAD
1000
DSTYLE
1002
{
1002
}
  0
LINE
  5
18D5E
330
18C7A
100
AcDbEntity
  8
破線
 48
10.0
100
AcDbLine
 10
1294.470589276534
 20
1472.494269174469
 30
0.0
 11
496.9705892765414
 21
1472.494269174476
 31
0.0
  0
LINE
  5
18D5F
330
18C7A
100
AcDbEntity
  8
部品1
100
AcDbLine
 10
3831.970589276556
 20
3182.494269174604
 30
0.0
 11
3831.970589276556
 21
3154.494269174604
 31
0.0
  0
LINE
  5
18D60
330
18C7A
100
AcDbEntity
  8
部品1
100
AcDbLine
 10
3831.970589276556
 20
3182.494269174626
 30
0.0
 11
3831.970589276556
 21
3154.494269174626
 31
0.0
  0
LINE
  5
18D61
330
18C7A
100
AcDbEntity
  8
部品1
100
AcDbLine
 10
3858.970589276556
 20
3127.494269174607
 30
0.0
 11
3886.970589276556
 21
3127.494269174607
 31
0.0
  0
LINE
  5
18D62
330
18C7A
100
AcDbEntity
  8
部品1
100
AcDbLine
 10
3858.970589276556
 20
2707.494269174608
 30
0.0
 11
3886.970589276556
 21
2707.494269174608
 31
0.0
  0
LINE
  5
18D63
330
18C7A
100
AcDbEntity
  8
部品1
100
AcDbLine
 10
3858.470589276556
 20
3152.494269174604
 30
0.0
 11
3858.470589276556
 21
2702.494269174608
 31
0.0
  0
LINE
  5
18D64
330
18C7A
100
AcDbEntity
  8
部品1
100
AcDbLine
 10
3886.970589276533
 20
1447.494269174593
 30
0.0
 11
3886.970589276531
 21
1392.494269174596
 31
0.0
  0
LINE
  5
18D65
330
18C7A
100
AcDbEntity
  8
部品1
 48
50.0
100
AcDbLine
 10
3830.470589276556
 20
1448.994269174596
 30
0.0
 11
3858.970589276554
 21
1420.494269174596
 31
0.0
  0
LINE
  5
18D66
330
18C7A
100
AcDbEntity
  8
部品1
100
AcDbLine
 10
3886.970589276531
 20
1392.494269174596
 30
0.0
 11
3835.970589276531
 21
1392.494269174596
 31
0.0
  0
LINE
  5
18D67
330
18C7A
100
AcDbEntity
  8
部品1
100
AcDbLine
 10
3858.970589276533
 20
1447.494269174593
 30
0.0
 11
3886.970589276531
 21
1447.494269174593
 31
0.0
  0
LINE
  5
18D68
330
18C7A
100
AcDbEntity
  8
部品1
100
AcDbLine
 10
3886.970589276556
 20
3182.494269174604
 30
0.0
 11
3886.970589276531
 21
1392.494269174596
 31
0.0
  0
DIMENSION
  5
18D69
330
18C7A
100
AcDbEntity
  8
寸法
100
AcDbDimension
  2
*D12
 10
4534.396935010967
 20
1447.494269174593
 30
0.0
 11
4534.396935010965
 21
2287.4942691746
 31
0.0
 12
-3742.925985830444
 22
-6453.628869860112
 32
0.0
 70
   128
  1
4X420=<>
 71
     5
 42
1680.000000000014
  3
INABA_S40G
100
AcDbAlignedDimension
 13
3886.970589276556
 23
3127.494269174607
 33
0.0
 14
3886.970589276531
 24
1447.494269174593
 34
0.0
 50
90.0
100
AcDbRotatedDimension
1001
ACAD
1000
DSTYLE
1002
{
1002
}
  0
LINE
  5
18D6A
330
18C7A
100
AcDbEntity
  8
部品1
100
AcDbLine
 10
3858.970589276556
 20
3154.494269174604
 30
0.0
 11
3858.970589276534
 21
1420.494269174596
 31
0.0
  0
DIMENSION
  5
18D6B
330
18C7A
100
AcDbEntity
  8
寸法
100
AcDbDimension
  2
*D11
 10
4213.82831513858
 20
2607.276453505718
 30
0.0
 11
4113.828315138579
 21
2832.276453505718
 31
0.0
 12
-3742.925985830444
 22
-6453.628869860112
 32
0.0
 71
     5
 42
449.9999999999963
  3
INABA_S40G
100
AcDbAlignedDimension
 13
3858.470589276556
 23
3152.494269174604
 33
0.0
 14
3858.470589276556
 24
2702.494269174608
 34
0.0
 50
90.0
100
AcDbRotatedDimension
1001
ACAD
1000
DSTYLE
1002
{
1002
}
  0
LINE
  5
18D6C
330
18C7A
100
AcDbEntity
  8
部品1
100
AcDbLine
 10
3830.470589276547
 20
2702.494269174608
 30
0.0
 11
3830.470589276556
 21
1448.994269174596
 31
0.0
  0
LINE
  5
18D6D
330
18C7A
100
AcDbEntity
  8
破線
 48
10.0
100
AcDbLine
 10
3806.970589276549
 20
2702.494269174608
 30
0.0
 11
3806.970589276558
 21
1472.494269174593
 31
0.0
  0
LINE
  5
18D6E
330
18C7A
100
AcDbEntity
  8
部品1
100
AcDbLine
 10
2769.470589276556
 20
3146.494269174608
 30
0.0
 11
2794.470589276556
 21
3146.494269174611
 31
0.0
  0
LINE
  5
18D6F
330
18C7A
100
AcDbEntity
  8
部品1
100
AcDbLine
 10
2810.970589276556
 20
3172.494269174611
 30
0.0
 11
2816.970589276556
 21
3172.494269174611
 31
0.0
  0
LINE
  5
18D70
330
18C7A
100
AcDbEntity
  8
部品1
100
AcDbLine
 10
2816.970589276556
 20
3172.494269174611
 30
0.0
 11
2816.970589276556
 21
3154.494269174611
 31
0.0
  0
LINE
  5
18D71
330
18C7A
100
AcDbEntity
  8
部品1
100
AcDbLine
 10
2746.970589276556
 20
3172.494269174611
 30
0.0
 11
2752.970589276556
 21
3172.494269174611
 31
0.0
  0
LINE
  5
18D72
330
18C7A
100
AcDbEntity
  8
部品1
100
AcDbLine
 10
2746.970589276556
 20
3172.494269174611
 30
0.0
 11
2746.970589276556
 21
3154.494269174611
 31
0.0
  0
LINE
  5
18D73
330
18C7A
100
AcDbEntity
  8
部品1
100
AcDbLine
 10
2769.470589276556
 20
2702.494269174615
 30
0.0
 11
2794.470589276556
 21
2702.494269174615
 31
0.0
  0
LINE
  5
18D74
330
18C7A
100
AcDbEntity
  8
部品1
 48
50.0
100
AcDbLine
 10
2794.470589276556
 20
3154.494269174615
 30
0.0
 11
2794.470589276556
 21
2702.494269174615
 31
0.0
  0
LINE
  5
18D75
330
18C7A
100
AcDbEntity
  8
部品1
 48
50.0
100
AcDbLine
 10
2769.470589276554
 20
3154.494269174618
 30
0.0
 11
2769.470589276556
 21
2702.494269174615
 31
0.0
  0
LINE
  5
18D76
330
18C7A
100
AcDbEntity
  8
部品1
 48
50.0
100
AcDbLine
 10
2795.470589276556
 20
3152.494269174607
 30
0.0
 11
2795.470589276556
 21
2702.494269174615
 31
0.0
  0
LINE
  5
18D77
330
18C7A
100
AcDbEntity
  8
部品1
 48
50.0
100
AcDbLine
 10
2767.470589276556
 20
3152.494269174611
 30
0.0
 11
2767.470589276556
 21
2702.494269174615
 31
0.0
  0
LINE
  5
18D78
330
18C7A
100
AcDbEntity
  8
破線
 48
10.0
100
AcDbLine
 10
2176.97058927653
 20
1448.994269174509
 30
0.0
 11
2176.97058927653
 21
2702.494269174588
 31
0.0
  0
LINE
  5
18D79
330
18C7A
100
AcDbEntity
  8
破線
 48
10.0
100
AcDbLine
 10
2126.970589276534
 20
1448.994269174505
 30
0.0
 11
2126.970589276531
 21
2702.494269174586
 31
0.0
  0
LINE
  5
18D7A
330
18C7A
100
AcDbEntity
  8
部品1
100
AcDbLine
 10
2794.470589276556
 20
3154.494269174622
 30
0.0
 11
3858.970589276556
 21
3154.494269174604
 31
0.0
  0
LINE
  5
18D7B
330
18C7A
100
AcDbEntity
  8
細線
 48
50.0
100
AcDbLine
 10
3858.470589276556
 20
2702.494269174608
 30
0.0
 11
2795.470589276556
 21
3152.494269174607
 31
0.0
  0
LINE
  5
18D7C
330
18C7A
100
AcDbEntity
  8
部品1
100
AcDbLine
 10
2795.470589276555
 20
2702.494269174615
 30
0.0
 11
3858.470589276556
 21
2702.494269174608
 31
0.0
  0
LINE
  5
18D7D
330
18C7A
100
AcDbEntity
  8
部品1
100
AcDbLine
 10
2795.470589276556
 20
3152.494269174611
 30
0.0
 11
3858.470589276556
 21
3152.494269174604
 31
0.0
  0
LINE
  5
18D7E
330
18C7A
100
AcDbEntity
  8
細線
 48
50.0
100
AcDbLine
 10
3858.470589276556
 20
3152.494269174604
 30
0.0
 11
2795.470589276555
 21
2702.494269174615
 31
0.0
  0
DIMENSION
  5
18D7F
330
18C7A
100
AcDbEntity
  8
寸法
100
AcDbDimension
  2
*D10
 10
3801.234916278101
 20
2488.887829538937
 30
0.0
 11
3318.360544398907
 21
2488.887829538937
 31
0.0
 12
-3742.925985830444
 22
-6453.628869860112
 32
0.0
 70
   128
 71
     5
 42
1063.000000000012
  3
INABA_S40G
100
AcDbAlignedDimension
 13
2795.470589276555
 23
2702.494269174615
 33
0.0
 14
3858.470589276567
 24
2702.494269174608
 34
0.0
100
AcDbRotatedDimension
1001
ACAD
1000
DSTYLE
1002
{
1002
}
  0
LINE
  5
18D80
330
18C7A
100
AcDbEntity
  8
破線
 48
10.0
100
AcDbLine
 10
3806.970589276556
 20
1472.494269174594
 30
0.0
 11
3009.47058927653
 21
1472.494269174523
 31
0.0
  0
DIMENSION
  5
18D81
330
18C7A
100
AcDbEntity
  8
寸法
100
AcDbDimension
  2
*D9
 10
4534.396935010941
 20
1392.494269174596
 30
0.0
 11
4534.39693501094
 21
1084.008987800356
 31
0.0
 12
-3742.925985830444
 22
-6453.628869860112
 32
0.0
 70
   128
 71
     5
 42
54.99999999999636
  3
INABA_S40G
100
AcDbAlignedDimension
 13
3886.970589276531
 23
1447.494269174593
 33
0.0
 14
3886.970589276531
 24
1392.494269174596
 34
0.0
 50
90.0
100
AcDbRotatedDimension
1001
ACAD
1000
DSTYLE
1002
{
1002
}
  0
LINE
  5
18D82
330
18C7A
100
AcDbEntity
  8
部品1
100
AcDbLine
 10
471.9705892765196
 20
3182.494269174477
 30
0.0
 11
471.9705892765232
 21
3154.494269174477
 31
0.0
  0
LINE
  5
18D83
330
18C7A
100
AcDbEntity
  8
部品1
100
AcDbLine
 10
471.9705892765559
 20
3182.494269174509
 30
0.0
 11
471.9705892765559
 21
3154.494269174509
 31
0.0
  0
LINE
  5
18D84
330
18C7A
100
AcDbEntity
  8
部品1
100
AcDbLine
 10
444.9705892765232
 20
3127.49426917448
 30
0.0
 11
416.9705892765232
 21
3127.49426917448
 31
0.0
  0
LINE
  5
18D85
330
18C7A
100
AcDbEntity
  8
部品1
100
AcDbLine
 10
444.9705892765305
 20
2707.49426917448
 30
0.0
 11
416.9705892765305
 21
2707.49426917448
 31
0.0
  0
LINE
  5
18D86
330
18C7A
100
AcDbEntity
  8
部品1
 48
50.0
100
AcDbLine
 10
445.4705892765542
 20
3152.494269174506
 30
0.0
 11
445.4705892765559
 21
2702.494269174505
 31
0.0
  0
LINE
  5
18D87
330
18C7A
100
AcDbEntity
  8
部品1
 48
50.0
100
AcDbLine
 10
473.470589276545
 20
1448.994269174573
 30
0.0
 11
444.970589276545
 21
1420.494269174574
 31
0.0
  0
LINE
  5
18D88
330
18C7A
100
AcDbEntity
  8
部品1
100
AcDbLine
 10
471.9705892765232
 20
1392.494269174465
 30
0.0
 11
416.9705892765486
 21
1392.494269174465
 31
0.0
  0
LINE
  5
18D89
330
18C7A
100
AcDbEntity
  8
部品1
100
AcDbLine
 10
444.9705892765305
 20
1447.494269174429
 30
0.0
 11
416.9705892765469
 21
1447.494269174429
 31
0.0
  0
LINE
  5
18D8A
330
18C7A
100
AcDbEntity
  8
部品1
100
AcDbLine
 10
444.9705892765305
 20
1447.494269174465
 30
0.0
 11
416.9705892765469
 21
1447.494269174465
 31
0.0
  0
LINE
  5
18D8B
330
18C7A
100
AcDbEntity
  8
部品1
100
AcDbLine
 10
444.9705892765469
 20
1447.49426917448
 30
0.0
 11
416.9705892765469
 21
1447.49426917448
 31
0.0
  0
LINE
  5
18D8C
330
18C7A
100
AcDbEntity
  8
部品1
100
AcDbLine
 10
416.9705892765469
 20
1447.494269174429
 30
0.0
 11
416.9705892765486
 21
1392.494269174433
 31
0.0
  0
LINE
  5
18D8D
330
18C7A
100
AcDbEntity
  8
部品1
100
AcDbLine
 10
416.9705892765196
 20
3182.494269174477
 30
0.0
 11
416.9705892765486
 21
1392.494269174465
 31
0.0
  0
LINE
  5
18D8E
330
18C7A
100
AcDbEntity
  8
部品1
100
AcDbLine
 10
444.9705892765305
 20
1420.494269174556
 30
0.0
 11
444.9705892765559
 21
3154.494269174509
 31
0.0
  0
LINE
  5
18D8F
330
18C7A
100
AcDbEntity
  8
部品1
100
AcDbLine
 10
473.4705892765323
 20
2702.494269174608
 30
0.0
 11
473.470589276545
 21
1448.994269174571
 31
0.0
  0
LINE
  5
18D90
330
18C7A
100
AcDbEntity
  8
破線
 48
10.0
100
AcDbLine
 10
496.9705892765305
 20
2702.494269174608
 30
0.0
 11
496.9705892765451
 21
1472.494269174476
 31
0.0
  0
DIMENSION
  5
18D91
330
18C7A
100
AcDbEntity
  8
寸法
100
AcDbDimension
  2
*D8
 10
3886.970589276531
 20
410.7433333855515
 30
0.0
 11
2168.197775309287
 21
410.7433333855515
 31
0.0
 12
-3742.925985830444
 22
-6453.628869860112
 32
0.0
 70
   128
 71
     5
 42
3469.999999999982
  3
INABA_S40G
100
AcDbAlignedDimension
 13
416.9705892765486
 23
1392.494269174433
 33
0.0
 14
3886.970589276531
 24
1392.49426917456
 34
0.0
100
AcDbRotatedDimension
1001
ACAD
1000
DSTYLE
1002
{
1070
   341
1005
0
1002
}
  0
LINE
  5
18D92
330
18C7A
100
AcDbEntity
  8
部品1
100
AcDbLine
 10
444.9705892765559
 20
3154.494269174624
 30
0.0
 11
1509.470589276487
 21
3154.494269174626
 31
0.0
  0
LINE
  5
18D93
330
18C7A
100
AcDbEntity
  8
部品1
100
AcDbLine
 10
3886.970589276531
 20
1392.494269174596
 30
0.0
 11
3411.970589276556
 21
1392.494269174582
 31
0.0
  0
LINE
  5
18D94
330
18C7A
100
AcDbEntity
  8
部品1
100
AcDbLine
 10
416.9705892765559
 20
3182.494269174509
 30
0.0
 11
3886.970589276556
 21
3182.494269174604
 31
0.0
  0
LINE
  5
18D95
330
18C7A
100
AcDbEntity
  8
部品1
100
AcDbLine
 10
445.4705892765559
 20
2702.494269174509
 30
0.0
 11
1508.470589276487
 21
2702.494269174558
 31
0.0
  0
LINE
  5
18D96
330
18C7A
100
AcDbEntity
  8
細線
 48
50.0
100
AcDbLine
 10
2767.470589276556
 20
3152.494269174611
 30
0.0
 11
1536.470589276487
 21
2702.494269174558
 31
0.0
  0
LINE
  5
18D97
330
18C7A
100
AcDbEntity
  8
部品1
100
AcDbLine
 10
445.4705892765542
 20
3152.494269174509
 30
0.0
 11
1508.470589276485
 21
3152.494269174558
 31
0.0
  0
LINE
  5
18D98
330
18C7A
100
AcDbEntity
  8
細線
 48
50.0
100
AcDbLine
 10
2767.470589276554
 20
2702.494269174615
 30
0.0
 11
1536.470589276485
 21
3152.494269174558
 31
0.0
  0
LINE
  5
18D99
330
18C7A
100
AcDbEntity
  8
破線
 48
10.0
100
AcDbLine
 10
2126.970589276534
 20
1472.494269174502
 30
0.0
 11
1344.47058927653
 21
1472.494269174473
 31
0.0
  0
LINE
  5
18D9A
330
18C7A
100
AcDbEntity
  8
部品1
100
AcDbLine
 10
3830.470589276556
 20
1448.994269174596
 30
0.0
 11
473.4705892764487
 21
1448.994269174476
 31
0.0
  0
DIMENSION
  5
18D9B
330
18C7A
100
AcDbEntity
  8
寸法
100
AcDbDimension
  2
*D7
 10
471.970589276555
 20
3698.302488799491
 30
0.0
 11
108.4853079022819
 21
3698.302488799491
 31
0.0
 12
-3742.925985830444
 22
-6453.628869860112
 32
0.0
 70
   128
 71
     5
 42
55.00000000003456
  3
INABA_S40G
100
AcDbAlignedDimension
 13
416.9705892765205
 23
3182.494269174509
 33
0.0
 14
471.970589276555
 24
3182.494269174509
 34
0.0
100
AcDbRotatedDimension
1001
ACAD
1000
DSTYLE
1002
{
1002
}
  0
DIMENSION
  5
18D9C
330
18C7A
100
AcDbEntity
  8
寸法
100
AcDbDimension
  2
*D6
 10
4534.396935010967
 20
3127.494269174607
 30
0.0
 11
4534.396935010965
 21
3490.979550548844
 31
0.0
 12
-3742.925985830444
 22
-6453.628869860112
 32
0.0
 70
   128
 71
     5
 42
54.99999999999636
  3
INABA_S40G
100
AcDbAlignedDimension
 13
3886.970589276556
 23
3182.494269174604
 33
0.0
 14
3886.970589276556
 24
3127.494269174607
 34
0.0
 50
90.0
100
AcDbRotatedDimension
1001
ACAD
1000
DSTYLE
1002
{
1002
}
  0
DIMENSION
  5
18D9D
330
18C7A
100
AcDbEntity
  8
寸法
100
AcDbDimension
  2
*D5
 10
3886.970589276556
 20
3698.302488799589
 30
0.0
 11
4195.455870650794
 21
3698.302488799589
 31
0.0
 12
-3742.925985830444
 22
-6453.628869860112
 32
0.0
 70
   128
 71
     5
 42
55.0
  3
INABA_S40G
100
AcDbAlignedDimension
 13
3831.970589276556
 23
3182.494269174604
 33
0.0
 14
3886.970589276556
 24
3182.494269174604
 34
0.0
100
AcDbRotatedDimension
1001
ACAD
1000
DSTYLE
1002
{
1002
}
  0
DIMENSION
  5
18D9E
330
18C7A
100
AcDbEntity
  8
寸法
100
AcDbDimension
  2
*D4
 10
3831.970589276556
 20
3698.302488799607
 30
0.0
 11
2151.970589276555
 21
3698.302488799607
 31
0.0
 12
-3742.925985830444
 22
-6453.628869860112
 32
0.0
 70
   128
  1
8X420=<>
 71
     5
 42
3360.000000000001
  3
INABA_S40G
100
AcDbAlignedDimension
 13
471.970589276555
 23
3182.494269174509
 33
0.0
 14
3831.970589276556
 24
3182.494269174604
 34
0.0
100
AcDbRotatedDimension
1001
ACAD
1000
DSTYLE
1002
{
1002
}
  0
DIMENSION
  5
18D9F
330
18C7A
100
AcDbEntity
  8
寸法
100
AcDbDimension
  2
*D3
 10
4899.503876750603
 20
1392.494269174596
 30
0.0
 11
4899.503876750601
 21
2287.4942691746
 31
0.0
 12
-3742.925985830444
 22
-6453.628869860112
 32
0.0
 70
   128
 71
     5
 42
1790.000000000007
  3
INABA_S40G
100
AcDbAlignedDimension
 13
3886.970589276556
 23
3182.494269174604
 33
0.0
 14
3886.970589276531
 24
1392.494269174596
 34
0.0
 50
90.0
100
AcDbRotatedDimension
1001
ACAD
1000
DSTYLE
1002
{
1002
}
  0
ENDBLK
  5
18DA1
330
18C7A
100
AcDbEntity
  8
0
 48
50.0
100
AcDbBlockEnd
  0
BLOCK
  5
1C4CB
330
1C4CA
100
AcDbEntity
  8
0
 48
50.0
100
AcDbBlockBegin
  2
_NONE
 70
     0
 10
0.0
 20
0.0
 30
0.0
  3
_NONE
  1

  0
CIRCLE
  5
1C4CC
330
1C4CA
100
AcDbEntity
  8
0
  6
ByBlock
 62
     0
 48
50.0
100
AcDbCircle
 10
0.0
 20
0.0
 30
0.0
 40
0.25
  0
ENDBLK
  5
1C4CD
330
1C4CA
100
AcDbEntity
  8
0
 48
50.0
100
AcDbBlockEnd
  0
BLOCK
  5
2421F
330
24215
100
AcDbEntity
  8
0
 48
50.0
100
AcDbBlockBegin
  2
*D19
 70
     1
 10
0.0
 20
0.0
 30
0.0
  3
*D19
  1

  0
LINE
  5
24893
330
24215
100
AcDbEntity
  8
寸法
 62
     0
 48
50.0
370
    -2
100
AcDbLine
 10
7356.6
 20
5651.907777930218
 30
0.0
 11
7356.6
 21
4982.748662820251
 31
0.0
  0
LINE
  5
24894
330
24215
100
AcDbEntity
  8
寸法
 62
     0
 48
50.0
370
    -2
100
AcDbLine
 10
6903.6
 20
5726.9077779302
 30
0.0
 11
6903.6
 21
4982.748662820251
 31
0.0
  0
LINE
  5
24895
330
24215
100
AcDbEntity
  8
寸法
 62
     0
 48
50.0
370
    -2
100
AcDbLine
 10
7356.6
 20
5042.748662820251
 30
0.0
 11
6903.6
 21
5042.748662820251
 31
0.0
  0
INSERT
  5
24896
330
24215
100
AcDbEntity
  8
寸法
 62
     0
 48
50.0
370
    -2
100
AcDbBlockReference
  2
_DOTSMALL
 10
7356.6
 20
5042.748662820251
 30
0.0
 41
100.0
 42
100.0
 43
100.0
  0
INSERT
  5
24897
330
24215
100
AcDbEntity
  8
寸法
 62
     0
 48
50.0
370
    -2
100
AcDbBlockReference
  2
_DOTSMALL
 10
6903.6
 20
5042.748662820251
 30
0.0
 41
100.0
 42
100.0
 43
100.0
 50
180.0
  0
MTEXT
  5
24898
330
24215
100
AcDbEntity
  8
寸法
 62
     7
 48
50.0
100
AcDbMText
 10
7130.1
 20
5142.748662820251
 30
0.0
 40
120.0
 41
0.0
 71
     5
 72
     1
  1
\A1;453
  7
STYLE1
 73
     1
 44
1.0
1001
ACAD
1000
MTEXTBEGIN
1070
    73
1070
     1
1070
    44
1040
1.0
1070
    74
1070
     0
1000
MTEXTEND
  0
POINT
  5
24899
330
24215
100
AcDbEntity
  8
DEFPOINTS
 62
     0
 48
50.0
100
AcDbPoint
 10
7356.6
 20
5671.907777930218
 30
0.0
  0
POINT
  5
2489A
330
24215
100
AcDbEntity
  8
DEFPOINTS
 62
     0
 48
50.0
100
AcDbPoint
 10
6903.6
 20
5746.9077779302
 30
0.0
  0
POINT
  5
2489B
330
24215
100
AcDbEntity
  8
DEFPOINTS
 62
     0
 48
50.0
100
AcDbPoint
 10
6903.6
 20
5042.748662820251
 30
0.0
  0
ENDBLK
  5
24220
330
24215
100
AcDbEntity
  8
0
 48
50.0
100
AcDbBlockEnd
  0
BLOCK
  5
2422C
330
24221
100
AcDbEntity
  8
0
 48
50.0
100
AcDbBlockBegin
  2
*D20
 70
     1
 10
0.0
 20
0.0
 30
0.0
  3
*D20
  1

  0
LINE
  5
25B0B
330
24221
100
AcDbEntity
  8
寸法
 62
     0
 48
50.0
370
    -2
100
AcDbLine
 10
7153.6
 20
7846.907777930197
 30
0.0
 11
7410.307249876098
 21
7846.907777930197
 31
0.0
  0
LINE
  5
25B0C
330
24221
100
AcDbEntity
  8
寸法
 62
     0
 48
50.0
370
    -2
100
AcDbLine
 10
7153.6
 20
7966.9077779302
 30
0.0
 11
7410.307249876098
 21
7966.9077779302
 31
0.0
  0
LINE
  5
25B0D
330
24221
100
AcDbEntity
  8
寸法
 62
     0
 48
50.0
370
    -2
100
AcDbLine
 10
7350.307249876099
 20
7846.907777930197
 30
0.0
 11
7350.307249876099
 21
7966.9077779302
 31
0.0
  0
LINE
  5
25B0E
330
24221
100
AcDbEntity
  8
寸法
 62
     0
 48
50.0
370
    -2
100
AcDbLine
 10
7350.307249876099
 20
7966.9077779302
 30
0.0
 11
7350.307249876099
 21
8381.03856529757
 31
0.0
  0
INSERT
  5
25B0F
330
24221
100
AcDbEntity
  8
寸法
 62
     0
 48
50.0
370
    -2
100
AcDbBlockReference
  2
_DOTSMALL
 10
7350.307249876099
 20
7846.907777930197
 30
0.0
 41
100.0
 42
100.0
 43
100.0
 50
270.0
  0
INSERT
  5
25B10
330
24221
100
AcDbEntity
  8
寸法
 62
     0
 48
50.0
370
    -2
100
AcDbBlockReference
  2
_DOTSMALL
 10
7350.307249876099
 20
7966.9077779302
 30
0.0
 41
100.0
 42
100.0
 43
100.0
 50
90.0
  0
MTEXT
  5
25B11
330
24221
100
AcDbEntity
  8
寸法
 62
     7
 48
50.0
100
AcDbMText
 10
7250.295438852475
 20
8244.991321203086
 30
0.0
 40
120.0
 41
0.0
 71
     5
 72
     1
  1
\A1;120
  7
STYLE1
 11
0.0000000000000001
 21
1.0
 31
0.0
 73
     1
 44
1.0
1001
ACAD
1000
MTEXTBEGIN
1070
    73
1070
     1
1070
    44
1040
1.0
1070
    74
1070
     0
1000
MTEXTEND
  0
POINT
  5
25B12
330
24221
100
AcDbEntity
  8
DEFPOINTS
 62
     0
 48
50.0
100
AcDbPoint
 10
7133.6
 20
7846.907777930197
 30
0.0
  0
POINT
  5
25B13
330
24221
100
AcDbEntity
  8
DEFPOINTS
 62
     0
 48
50.0
100
AcDbPoint
 10
7133.6
 20
7966.9077779302
 30
0.0
  0
POINT
  5
25B14
330
24221
100
AcDbEntity
  8
DEFPOINTS
 62
     0
 48
50.0
100
AcDbPoint
 10
7350.307249876099
 20
7966.9077779302
 30
0.0
  0
ENDBLK
  5
2422D
330
24221
100
AcDbEntity
  8
0
 48
50.0
100
AcDbBlockEnd
  0
BLOCK
  5
24237
330
2422E
100
AcDbEntity
  8
0
 48
50.0
100
AcDbBlockBegin
  2
*D21
 70
     1
 10
0.0
 20
0.0
 30
0.0
  3
*D21
  1

  0
LINE
  5
24969
330
2422E
100
AcDbEntity
  8
寸法
 62
     0
 48
50.0
370
    -2
100
AcDbLine
 10
9420.6
 20
7913.9077779302
 30
0.0
 11
9420.6
 21
8772.667404472283
 31
0.0
  0
LINE
  5
2496A
330
2422E
100
AcDbEntity
  8
寸法
 62
     0
 48
50.0
370
    -2
100
AcDbLine
 10
7026.600000000001
 20
7913.9077779302
 30
0.0
 11
7026.600000000001
 21
8772.667404472283
 31
0.0
  0
LINE
  5
2496B
330
2422E
100
AcDbEntity
  8
寸法
 62
     0
 48
50.0
370
    -2
100
AcDbLine
 10
9420.6
 20
8712.667404472282
 30
0.0
 11
7026.600000000001
 21
8712.667404472282
 31
0.0
  0
INSERT
  5
2496C
330
2422E
100
AcDbEntity
  8
寸法
 62
     0
 48
50.0
370
    -2
100
AcDbBlockReference
  2
_DOTSMALL
 10
9420.6
 20
8712.667404472282
 30
0.0
 41
100.0
 42
100.0
 43
100.0
  0
INSERT
  5
2496D
330
2422E
100
AcDbEntity
  8
寸法
 62
     0
 48
50.0
370
    -2
100
AcDbBlockReference
  2
_DOTSMALL
 10
7026.600000000001
 20
8712.667404472282
 30
0.0
 41
100.0
 42
100.0
 43
100.0
 50
180.0
  0
MTEXT
  5
2496E
330
2422E
100
AcDbEntity
  8
寸法
 62
     7
 48
50.0
100
AcDbMText
 10
8223.600000000001
 20
8812.679215495903
 30
0.0
 40
120.0
 41
0.0
 71
     5
 72
     1
  1
\A1;2394
  7
STYLE1
 73
     1
 44
1.0
1001
ACAD
1000
MTEXTBEGIN
1070
    73
1070
     1
1070
    44
1040
1.0
1070
    74
1070
     0
1000
MTEXTEND
  0
POINT
  5
2496F
330
2422E
100
AcDbEntity
  8
DEFPOINTS
 62
     0
 48
50.0
100
AcDbPoint
 10
9420.6
 20
7893.907777930199
 30
0.0
  0
POINT
  5
24970
330
2422E
100
AcDbEntity
  8
DEFPOINTS
 62
     0
 48
50.0
100
AcDbPoint
 10
7026.600000000001
 20
7893.907777930199
 30
0.0
  0
POINT
  5
24971
330
2422E
100
AcDbEntity
  8
DEFPOINTS
 62
     0
 48
50.0
100
AcDbPoint
 10
7026.600000000001
 20
8712.667404472282
 30
0.0
  0
ENDBLK
  5
24238
330
2422E
100
AcDbEntity
  8
0
 48
50.0
100
AcDbBlockEnd
  0
BLOCK
  5
24244
330
24239
100
AcDbEntity
  8
0
 48
50.0
100
AcDbBlockBegin
  2
*D22
 70
     1
 10
0.0
 20
0.0
 30
0.0
  3
*D22
  1

  0
LINE
  5
25B33
330
24239
100
AcDbEntity
  8
寸法
 62
     0
 48
50.0
370
    -2
100
AcDbLine
 10
7153.6
 20
5866.907777930207
 30
0.0
 11
7310.431144686332
 21
5866.907777930207
 31
0.0
  0
LINE
  5
25B34
330
24239
100
AcDbEntity
  8
寸法
 62
     0
 48
50.0
370
    -2
100
AcDbLine
 10
7153.6
 20
5746.9077779302
 30
0.0
 11
7310.431144686332
 21
5746.9077779302
 31
0.0
  0
LINE
  5
25B35
330
24239
100
AcDbEntity
  8
寸法
 62
     0
 48
50.0
370
    -2
100
AcDbLine
 10
7250.431144686331
 20
5866.907777930207
 30
0.0
 11
7250.431144686331
 21
5746.9077779302
 31
0.0
  0
LINE
  5
25B36
330
24239
100
AcDbEntity
  8
寸法
 62
     0
 48
50.0
370
    -2
100
AcDbLine
 10
7250.431144686331
 20
5746.9077779302
 30
0.0
 11
7250.431144686331
 21
5332.776990562825
 31
0.0
  0
INSERT
  5
25B37
330
24239
100
AcDbEntity
  8
寸法
 62
     0
 48
50.0
370
    -2
100
AcDbBlockReference
  2
_DOTSMALL
 10
7250.431144686331
 20
5866.907777930207
 30
0.0
 41
100.0
 42
100.0
 43
100.0
 50
90.0
  0
INSERT
  5
25B38
330
24239
100
AcDbEntity
  8
寸法
 62
     0
 48
50.0
370
    -2
100
AcDbBlockReference
  2
_DOTSMALL
 10
7250.431144686331
 20
5746.9077779302
 30
0.0
 41
100.0
 42
100.0
 43
100.0
 50
270.0
  0
MTEXT
  5
25B39
330
24239
100
AcDbEntity
  8
寸法
 62
     7
 48
50.0
100
AcDbMText
 10
7150.419333662708
 20
5468.824234657314
 30
0.0
 40
120.0
 41
0.0
 71
     5
 72
     1
  1
\A1;120
  7
STYLE1
 11
0.0000000000000001
 21
1.0
 31
0.0
 73
     1
 44
1.0
1001
ACAD
1000
MTEXTBEGIN
1070
    73
1070
     1
1070
    44
1040
1.0
1070
    74
1070
     0
1000
MTEXTEND
  0
POINT
  5
25B3A
330
24239
100
AcDbEntity
  8
DEFPOINTS
 62
     0
 48
50.0
100
AcDbPoint
 10
7133.6
 20
5866.907777930207
 30
0.0
  0
POINT
  5
25B3B
330
24239
100
AcDbEntity
  8
DEFPOINTS
 62
     0
 48
50.0
100
AcDbPoint
 10
7133.6
 20
5746.9077779302
 30
0.0
  0
POINT
  5
25B3C
330
24239
100
AcDbEntity
  8
DEFPOINTS
 62
     0
 48
50.0
100
AcDbPoint
 10
7250.431144686331
 20
5746.9077779302
 30
0.0
  0
ENDBLK
  5
24245
330
24239
100
AcDbEntity
  8
0
 48
50.0
100
AcDbBlockEnd
  0
BLOCK
  5
24251
330
24246
100
AcDbEntity
  8
0
 48
50.0
100
AcDbBlockBegin
  2
*D23
 70
     1
 10
0.0
 20
0.0
 30
0.0
  3
*D23
  1

  0
LINE
  5
25B29
330
24246
100
AcDbEntity
  8
寸法
 62
     0
 48
50.0
370
    -2
100
AcDbLine
 10
7153.6
 20
5866.907777930204
 30
0.0
 11
7310.431144686332
 21
5866.907777930204
 31
0.0
  0
LINE
  5
25B2A
330
24246
100
AcDbEntity
  8
寸法
 62
     0
 48
50.0
370
    -2
100
AcDbLine
 10
7153.6
 20
5976.907777930204
 30
0.0
 11
7310.431144686332
 21
5976.907777930204
 31
0.0
  0
LINE
  5
25B2B
330
24246
100
AcDbEntity
  8
寸法
 62
     0
 48
50.0
370
    -2
100
AcDbLine
 10
7250.431144686331
 20
5866.907777930204
 30
0.0
 11
7250.431144686331
 21
5976.907777930204
 31
0.0
  0
LINE
  5
25B2C
330
24246
100
AcDbEntity
  8
寸法
 62
     0
 48
50.0
370
    -2
100
AcDbLine
 10
7250.431144686331
 20
5976.907777930204
 30
0.0
 11
7250.431144686332
 21
6441.014077142805
 31
0.0
  0
INSERT
  5
25B2D
330
24246
100
AcDbEntity
  8
寸法
 62
     0
 48
50.0
370
    -2
100
AcDbBlockReference
  2
_DOTSMALL
 10
7250.431144686331
 20
5866.907777930204
 30
0.0
 41
100.0
 42
100.0
 43
100.0
 50
270.0
  0
INSERT
  5
25B2E
330
24246
100
AcDbEntity
  8
寸法
 62
     0
 48
50.0
370
    -2
100
AcDbBlockReference
  2
_DOTSMALL
 10
7250.431144686331
 20
5976.907777930204
 30
0.0
 41
100.0
 42
100.0
 43
100.0
 50
90.0
  0
MTEXT
  5
25B2F
330
24246
100
AcDbEntity
  8
寸法
 62
     7
 48
50.0
100
AcDbMText
 10
7150.431144686329
 20
6316.966833048319
 30
0.0
 40
120.0
 41
0.0
 71
     5
 72
     1
  1
\A1;110
  7
STYLE1
 11
0.0000000000000001
 21
1.0
 31
0.0
 73
     1
 44
1.0
1001
ACAD
1000
MTEXTBEGIN
1070
    73
1070
     1
1070
    44
1040
1.0
1070
    74
1070
     0
1000
MTEXTEND
  0
POINT
  5
25B30
330
24246
100
AcDbEntity
  8
DEFPOINTS
 62
     0
 48
50.0
100
AcDbPoint
 10
7133.6
 20
5866.907777930204
 30
0.0
  0
POINT
  5
25B31
330
24246
100
AcDbEntity
  8
DEFPOINTS
 62
     0
 48
50.0
100
AcDbPoint
 10
7133.6
 20
5976.907777930204
 30
0.0
  0
POINT
  5
25B32
330
24246
100
AcDbEntity
  8
DEFPOINTS
 62
     0
 48
50.0
100
AcDbPoint
 10
7250.431144686331
 20
5976.907777930204
 30
0.0
  0
ENDBLK
  5
24252
330
24246
100
AcDbEntity
  8
0
 48
50.0
100
AcDbBlockEnd
  0
BLOCK
  5
2425C
330
24253
100
AcDbEntity
  8
0
 48
50.0
100
AcDbBlockBegin
  2
*D24
 70
     1
 10
0.0
 20
0.0
 30
0.0
  3
*D24
  1

  0
LINE
  5
24956
330
24253
100
AcDbEntity
  8
寸法
 62
     0
 48
50.0
370
    -2
100
AcDbLine
 10
7808.6
 20
7451.907777930199
 30
0.0
 11
7808.6
 21
8553.817543578528
 31
0.0
  0
LINE
  5
24957
330
24253
100
AcDbEntity
  8
寸法
 62
     0
 48
50.0
370
    -2
100
AcDbLine
 10
6903.6
 20
7986.9077779302
 30
0.0
 11
6903.6
 21
8553.817543578528
 31
0.0
  0
LINE
  5
24958
330
24253
100
AcDbEntity
  8
寸法
 62
     0
 48
50.0
370
    -2
100
AcDbLine
 10
7808.6
 20
8493.817543578527
 30
0.0
 11
6903.6
 21
8493.817543578527
 31
0.0
  0
INSERT
  5
24959
330
24253
100
AcDbEntity
  8
寸法
 62
     0
 48
50.0
370
    -2
100
AcDbBlockReference
  2
_DOTSMALL
 10
7808.6
 20
8493.817543578527
 30
0.0
 41
100.0
 42
100.0
 43
100.0
  0
INSERT
  5
2495A
330
24253
100
AcDbEntity
  8
寸法
 62
     0
 48
50.0
370
    -2
100
AcDbBlockReference
  2
_DOTSMALL
 10
6903.6
 20
8493.817543578527
 30
0.0
 41
100.0
 42
100.0
 43
100.0
 50
180.0
  0
MTEXT
  5
2495B
330
24253
100
AcDbEntity
  8
寸法
 62
     7
 48
50.0
100
AcDbMText
 10
7356.100000000001
 20
8593.817543578527
 30
0.0
 40
120.0
 41
0.0
 71
     5
 72
     1
  1
\A1;905
  7
STYLE1
 73
     1
 44
1.0
1001
ACAD
1000
MTEXTBEGIN
1070
    73
1070
     1
1070
    44
1040
1.0
1070
    74
1070
     0
1000
MTEXTEND
  0
POINT
  5
2495C
330
24253
100
AcDbEntity
  8
DEFPOINTS
 62
     0
 48
50.0
100
AcDbPoint
 10
7808.6
 20
7431.907777930199
 30
0.0
  0
POINT
  5
2495D
330
24253
100
AcDbEntity
  8
DEFPOINTS
 62
     0
 48
50.0
100
AcDbPoint
 10
6903.6
 20
7966.9077779302
 30
0.0
  0
POINT
  5
2495E
330
24253
100
AcDbEntity
  8
DEFPOINTS
 62
     0
 48
50.0
100
AcDbPoint
 10
6903.6
 20
8493.817543578527
 30
0.0
  0
ENDBLK
  5
2425D
330
24253
100
AcDbEntity
  8
0
 48
50.0
100
AcDbBlockEnd
  0
BLOCK
  5
24269
330
2425E
100
AcDbEntity
  8
0
 48
50.0
100
AcDbBlockBegin
  2
*D25
 70
     1
 10
0.0
 20
0.0
 30
0.0
  3
*D25
  1

  0
LINE
  5
25B01
330
2425E
100
AcDbEntity
  8
寸法
 62
     0
 48
50.0
370
    -2
100
AcDbLine
 10
7153.6
 20
7846.9077779302
 30
0.0
 11
7410.307249876099
 21
7846.9077779302
 31
0.0
  0
LINE
  5
25B02
330
2425E
100
AcDbEntity
  8
寸法
 62
     0
 48
50.0
370
    -2
100
AcDbLine
 10
7153.6
 20
7736.907777930196
 30
0.0
 11
7410.307249876099
 21
7736.907777930196
 31
0.0
  0
LINE
  5
25B03
330
2425E
100
AcDbEntity
  8
寸法
 62
     0
 48
50.0
370
    -2
100
AcDbLine
 10
7350.3072498761
 20
7846.9077779302
 30
0.0
 11
7350.3072498761
 21
7736.907777930196
 31
0.0
  0
LINE
  5
25B04
330
2425E
100
AcDbEntity
  8
寸法
 62
     0
 48
50.0
370
    -2
100
AcDbLine
 10
7350.3072498761
 20
7736.907777930196
 30
0.0
 11
7350.3072498761
 21
7272.801478717595
 31
0.0
  0
INSERT
  5
25B05
330
2425E
100
AcDbEntity
  8
寸法
 62
     0
 48
50.0
370
    -2
100
AcDbBlockReference
  2
_DOTSMALL
 10
7350.3072498761
 20
7846.9077779302
 30
0.0
 41
100.0
 42
100.0
 43
100.0
 50
90.0
  0
INSERT
  5
25B06
330
2425E
100
AcDbEntity
  8
寸法
 62
     0
 48
50.0
370
    -2
100
AcDbBlockReference
  2
_DOTSMALL
 10
7350.3072498761
 20
7736.907777930196
 30
0.0
 41
100.0
 42
100.0
 43
100.0
 50
270.0
  0
MTEXT
  5
25B07
330
2425E
100
AcDbEntity
  8
寸法
 62
     7
 48
50.0
100
AcDbMText
 10
7250.307249876097
 20
7396.848722812084
 30
0.0
 40
120.0
 41
0.0
 71
     5
 72
     1
  1
\A1;110
  7
STYLE1
 11
0.0000000000000001
 21
1.0
 31
0.0
 73
     1
 44
1.0
1001
ACAD
1000
MTEXTBEGIN
1070
    73
1070
     1
1070
    44
1040
1.0
1070
    74
1070
     0
1000
MTEXTEND
  0
POINT
  5
25B08
330
2425E
100
AcDbEntity
  8
DEFPOINTS
 62
     0
 48
50.0
100
AcDbPoint
 10
7133.6
 20
7846.9077779302
 30
0.0
  0
POINT
  5
25B09
330
2425E
100
AcDbEntity
  8
DEFPOINTS
 62
     0
 48
50.0
100
AcDbPoint
 10
7133.6
 20
7736.907777930196
 30
0.0
  0
POINT
  5
25B0A
330
2425E
100
AcDbEntity
  8
DEFPOINTS
 62
     0
 48
50.0
100
AcDbPoint
 10
7350.3072498761
 20
7736.907777930196
 30
0.0
  0
ENDBLK
  5
2426A
330
2425E
100
AcDbEntity
  8
0
 48
50.0
100
AcDbBlockEnd
  0
BLOCK
  5
24274
330
2426B
100
AcDbEntity
  8
0
 48
50.0
100
AcDbBlockBegin
  2
*D26
 70
     1
 10
0.0
 20
0.0
 30
0.0
  3
*D26
  1

  0
LINE
  5
24943
330
2426B
100
AcDbEntity
  8
寸法
 62
     0
 48
50.0
370
    -2
100
AcDbLine
 10
6903.6
 20
7986.9077779302
 30
0.0
 11
6903.6
 21
8985.12809998912
 31
0.0
  0
LINE
  5
24944
330
2426B
100
AcDbEntity
  8
寸法
 62
     0
 48
50.0
370
    -2
100
AcDbLine
 10
9543.600000000001
 20
7986.9077779302
 30
0.0
 11
9543.600000000001
 21
8985.12809998912
 31
0.0
  0
LINE
  5
24945
330
2426B
100
AcDbEntity
  8
寸法
 62
     0
 48
50.0
370
    -2
100
AcDbLine
 10
6903.6
 20
8925.128099989121
 30
0.0
 11
9543.600000000001
 21
8925.128099989121
 31
0.0
  0
INSERT
  5
24946
330
2426B
100
AcDbEntity
  8
寸法
 62
     0
 48
50.0
370
    -2
100
AcDbBlockReference
  2
_DOTSMALL
 10
6903.6
 20
8925.128099989121
 30
0.0
 41
100.0
 42
100.0
 43
100.0
 50
180.0
  0
INSERT
  5
24947
330
2426B
100
AcDbEntity
  8
寸法
 62
     0
 48
50.0
370
    -2
100
AcDbBlockReference
  2
_DOTSMALL
 10
9543.600000000001
 20
8925.128099989121
 30
0.0
 41
100.0
 42
100.0
 43
100.0
  0
MTEXT
  5
24948
330
2426B
100
AcDbEntity
  8
寸法
 62
     7
 48
50.0
100
AcDbMText
 10
8223.600000000001
 20
9025.139911012741
 30
0.0
 40
120.0
 41
0.0
 71
     5
 72
     1
  1
\A1;2640
  7
STYLE1
 73
     1
 44
1.0
1001
ACAD
1000
MTEXTBEGIN
1070
    73
1070
     1
1070
    44
1040
1.0
1070
    74
1070
     0
1000
MTEXTEND
  0
POINT
  5
24949
330
2426B
100
AcDbEntity
  8
DEFPOINTS
 62
     0
 48
50.0
100
AcDbPoint
 10
6903.6
 20
7966.9077779302
 30
0.0
  0
POINT
  5
2494A
330
2426B
100
AcDbEntity
  8
DEFPOINTS
 62
     0
 48
50.0
100
AcDbPoint
 10
9543.600000000001
 20
7966.9077779302
 30
0.0
  0
POINT
  5
2494B
330
2426B
100
AcDbEntity
  8
DEFPOINTS
 62
     0
 48
50.0
100
AcDbPoint
 10
9543.600000000001
 20
8925.128099989121
 30
0.0
  0
ENDBLK
  5
24275
330
2426B
100
AcDbEntity
  8
0
 48
50.0
100
AcDbBlockEnd
  0
BLOCK
  5
24281
330
24276
100
AcDbEntity
  8
0
 48
50.0
100
AcDbBlockBegin
  2
*D27
 70
     1
 10
0.0
 20
0.0
 30
0.0
  3
*D27
  1

  0
LINE
  5
24939
330
24276
100
AcDbEntity
  8
寸法
 62
     0
 48
50.0
370
    -2
100
AcDbLine
 10
7026.600000000001
 20
7913.9077779302
 30
0.0
 11
7026.600000000001
 21
8772.667404472283
 31
0.0
  0
LINE
  5
2493A
330
24276
100
AcDbEntity
  8
寸法
 62
     0
 48
50.0
370
    -2
100
AcDbLine
 10
6903.6
 20
7986.9077779302
 30
0.0
 11
6903.6
 21
8772.667404472283
 31
0.0
  0
LINE
  5
2493B
330
24276
100
AcDbEntity
  8
寸法
 62
     0
 48
50.0
370
    -2
100
AcDbLine
 10
7026.600000000001
 20
8712.667404472282
 30
0.0
 11
6903.6
 21
8712.667404472282
 31
0.0
  0
LINE
  5
2493C
330
24276
100
AcDbEntity
  8
寸法
 62
     0
 48
50.0
370
    -2
100
AcDbLine
 10
6903.6
 20
8712.667404472282
 30
0.0
 11
6492.008116907964
 21
8712.667404472282
 31
0.0
  0
INSERT
  5
2493D
330
24276
100
AcDbEntity
  8
寸法
 62
     0
 48
50.0
370
    -2
100
AcDbBlockReference
  2
_DOTSMALL
 10
7026.600000000001
 20
8712.667404472282
 30
0.0
 41
100.0
 42
100.0
 43
100.0
  0
INSERT
  5
2493E
330
24276
100
AcDbEntity
  8
寸法
 62
     0
 48
50.0
370
    -2
100
AcDbBlockReference
  2
_DOTSMALL
 10
6903.6
 20
8712.667404472282
 30
0.0
 41
100.0
 42
100.0
 43
100.0
 50
180.0
  0
MTEXT
  5
2493F
330
24276
100
AcDbEntity
  8
寸法
 62
     7
 48
50.0
100
AcDbMText
 10
6630.493398282202
 20
8812.679215495903
 30
0.0
 40
120.0
 41
0.0
 71
     5
 72
     1
  1
\A1;123
  7
STYLE1
 73
     1
 44
1.0
1001
ACAD
1000
MTEXTBEGIN
1070
    73
1070
     1
1070
    44
1040
1.0
1070
    74
1070
     0
1000
MTEXTEND
  0
POINT
  5
24940
330
24276
100
AcDbEntity
  8
DEFPOINTS
 62
     0
 48
50.0
100
AcDbPoint
 10
7026.600000000001
 20
7893.907777930199
 30
0.0
  0
POINT
  5
24941
330
24276
100
AcDbEntity
  8
DEFPOINTS
 62
     0
 48
50.0
100
AcDbPoint
 10
6903.6
 20
7966.9077779302
 30
0.0
  0
POINT
  5
24942
330
24276
100
AcDbEntity
  8
DEFPOINTS
 62
     0
 48
50.0
100
AcDbPoint
 10
6903.6
 20
8712.667404472282
 30
0.0
  0
ENDBLK
  5
24282
330
24276
100
AcDbEntity
  8
0
 48
50.0
100
AcDbBlockEnd
  0
BLOCK
  5
2428E
330
24283
100
AcDbEntity
  8
0
 48
50.0
100
AcDbBlockBegin
  2
*D28
 70
     1
 10
0.0
 20
0.0
 30
0.0
  3
*D28
  1

  0
LINE
  5
2492E
330
24283
100
AcDbEntity
  8
寸法
 62
     0
 48
50.0
370
    -2
100
AcDbLine
 10
6853.6
 20
8732.667404472278
 30
0.0
 11
6853.6
 21
8985.12809998912
 31
0.0
  0
LINE
  5
2492F
330
24283
100
AcDbEntity
  8
寸法
 62
     0
 48
50.0
370
    -2
100
AcDbLine
 10
6903.6
 20
7986.9077779302
 30
0.0
 11
6903.6
 21
8985.12809998912
 31
0.0
  0
LINE
  5
24930
330
24283
100
AcDbEntity
  8
寸法
 62
     0
 48
50.0
370
    -2
100
AcDbLine
 10
6903.6
 20
8925.128099989121
 30
0.0
 11
7003.6
 21
8925.128099989121
 31
0.0
  0
LINE
  5
24931
330
24283
100
AcDbEntity
  8
寸法
 62
     0
 48
50.0
370
    -2
100
AcDbLine
 10
6853.6
 20
8925.128099989121
 30
0.0
 11
6521.250757595083
 21
8925.128099989121
 31
0.0
  0
LINE
  5
24932
330
24283
100
AcDbEntity
  8
寸法
 62
     0
 48
50.0
370
    -2
100
AcDbLine
 10
6903.6
 20
8925.128099989121
 30
0.0
 11
6853.6
 21
8925.128099989121
 31
0.0
  0
INSERT
  5
24933
330
24283
100
AcDbEntity
  8
寸法
 62
     0
 48
50.0
370
    -2
100
AcDbBlockReference
  2
_DOTSMALL
 10
6903.6
 20
8925.128099989121
 30
0.0
 41
100.0
 42
100.0
 43
100.0
 50
180.0
  0
INSERT
  5
24934
330
24283
100
AcDbEntity
  8
寸法
 62
     0
 48
50.0
370
    -2
100
AcDbBlockReference
  2
_DOTSMALL
 10
6853.6
 20
8925.128099989121
 30
0.0
 41
100.0
 42
100.0
 43
100.0
  0
MTEXT
  5
24935
330
24283
100
AcDbEntity
  8
寸法
 62
     7
 48
50.0
100
AcDbMText
 10
6587.425378797542
 20
9025.128099989121
 30
0.0
 40
120.0
 41
0.0
 71
     5
 72
     1
  1
\A1;a
  7
STYLE1
 73
     1
 44
1.0
1001
ACAD
1000
MTEXTBEGIN
1070
    73
1070
     1
1070
    44
1040
1.0
1070
    74
1070
     0
1000
MTEXTEND
  0
POINT
  5
24936
330
24283
100
AcDbEntity
  8
DEFPOINTS
 62
     0
 48
50.0
100
AcDbPoint
 10
6853.6
 20
8712.667404472279
 30
0.0
  0
POINT
  5
24937
330
24283
100
AcDbEntity
  8
DEFPOINTS
 62
     0
 48
50.0
100
AcDbPoint
 10
6903.6
 20
7966.9077779302
 30
0.0
  0
POINT
  5
24938
330
24283
100
AcDbEntity
  8
DEFPOINTS
 62
     0
 48
50.0
100
AcDbPoint
 10
6903.6
 20
8925.128099989121
 30
0.0
  0
ENDBLK
  5
2428F
330
24283
100
AcDbEntity
  8
0
 48
50.0
100
AcDbBlockEnd
  0
BLOCK
  5
2429A
330
24290
100
AcDbEntity
  8
0
 48
50.0
100
AcDbBlockBegin
  2
*D29
 70
     1
 10
0.0
 20
0.0
 30
0.0
  3
*D29
  1

  0
LINE
  5
24925
330
24290
100
AcDbEntity
  8
寸法
 62
     0
 48
50.0
370
    -2
100
AcDbLine
 10
6956.6
 20
7843.907777930199
 30
0.0
 11
5814.741879814366
 21
7843.907777930201
 31
0.0
  0
LINE
  5
24926
330
24290
100
AcDbEntity
  8
寸法
 62
     0
 48
50.0
370
    -2
100
AcDbLine
 10
6956.600000000007
 20
5869.9077779302
 30
0.0
 11
5814.741879814365
 21
5869.907777930201
 31
0.0
  0
LINE
  5
24927
330
24290
100
AcDbEntity
  8
寸法
 62
     0
 48
50.0
370
    -2
100
AcDbLine
 10
5874.741879814366
 20
7843.907777930201
 30
0.0
 11
5874.741879814365
 21
5869.907777930201
 31
0.0
  0
INSERT
  5
24928
330
24290
100
AcDbEntity
  8
寸法
 62
     0
 48
50.0
370
    -2
100
AcDbBlockReference
  2
_DOTSMALL
 10
5874.741879814366
 20
7843.907777930201
 30
0.0
 41
100.0
 42
100.0
 43
100.0
 50
90.0
  0
INSERT
  5
24929
330
24290
100
AcDbEntity
  8
寸法
 62
     0
 48
50.0
370
    -2
100
AcDbBlockReference
  2
_DOTSMALL
 10
5874.741879814365
 20
5869.907777930201
 30
0.0
 41
100.0
 42
100.0
 43
100.0
 50
270.0
  0
MTEXT
  5
2492A
330
24290
100
AcDbEntity
  8
寸法
 62
     7
 48
50.0
100
AcDbMText
 10
5774.741879814365
 20
6891.907777930199
 30
0.0
 40
120.0
 41
0.0
 71
     5
 72
     1
  1
\A1;1974
  7
STYLE1
 11
0.0000000000000001
 21
1.0
 31
0.0
 73
     1
 44
1.0
1001
ACAD
1000
MTEXTBEGIN
1070
    73
1070
     1
1070
    44
1040
1.0
1070
    74
1070
     0
1000
MTEXTEND
  0
POINT
  5
2492B
330
24290
100
AcDbEntity
  8
DEFPOINTS
 62
     0
 48
50.0
100
AcDbPoint
 10
6976.600000000001
 20
7843.907777930199
 30
0.0
  0
POINT
  5
2492C
330
24290
100
AcDbEntity
  8
DEFPOINTS
 62
     0
 48
50.0
100
AcDbPoint
 10
6976.600000000008
 20
5869.9077779302
 30
0.0
  0
POINT
  5
2492D
330
24290
100
AcDbEntity
  8
DEFPOINTS
 62
     0
 48
50.0
100
AcDbPoint
 10
5874.741879814365
 20
5869.907777930201
 30
0.0
  0
ENDBLK
  5
2429B
330
24290
100
AcDbEntity
  8
0
 48
50.0
100
AcDbBlockEnd
  0
BLOCK
  5
242A5
330
2429C
100
AcDbEntity
  8
0
 48
50.0
100
AcDbBlockBegin
  2
*D30
 70
     1
 10
0.0
 20
0.0
 30
0.0
  3
*D30
  1

  0
LINE
  5
2491C
330
2429C
100
AcDbEntity
  8
寸法
 62
     0
 48
50.0
370
    -2
100
AcDbLine
 10
6883.6
 20
5746.9077779302
 30
0.0
 11
5562.798783094967
 21
5746.9077779302
 31
0.0
  0
LINE
  5
2491D
330
2429C
100
AcDbEntity
  8
寸法
 62
     0
 48
50.0
370
    -2
100
AcDbLine
 10
6883.6
 20
7966.9077779302
 30
0.0
 11
5562.798783094968
 21
7966.907777930201
 31
0.0
  0
LINE
  5
2491E
330
2429C
100
AcDbEntity
  8
寸法
 62
     0
 48
50.0
370
    -2
100
AcDbLine
 10
5622.798783094967
 20
5746.9077779302
 30
0.0
 11
5622.798783094967
 21
7966.907777930201
 31
0.0
  0
INSERT
  5
2491F
330
2429C
100
AcDbEntity
  8
寸法
 62
     0
 48
50.0
370
    -2
100
AcDbBlockReference
  2
_DOTSMALL
 10
5622.798783094967
 20
5746.9077779302
 30
0.0
 41
100.0
 42
100.0
 43
100.0
 50
270.0
  0
INSERT
  5
24920
330
2429C
100
AcDbEntity
  8
寸法
 62
     0
 48
50.0
370
    -2
100
AcDbBlockReference
  2
_DOTSMALL
 10
5622.798783094967
 20
7966.907777930201
 30
0.0
 41
100.0
 42
100.0
 43
100.0
 50
90.0
  0
MTEXT
  5
24921
330
2429C
100
AcDbEntity
  8
寸法
 62
     7
 48
50.0
100
AcDbMText
 10
5522.786972071344
 20
6821.907777930201
 30
0.0
 40
120.0
 41
0.0
 71
     5
 72
     1
  1
\A1;2220
  7
STYLE1
 11
0.0000000000000001
 21
1.0
 31
0.0
 73
     1
 44
1.0
1001
ACAD
1000
MTEXTBEGIN
1070
    73
1070
     1
1070
    44
1040
1.0
1070
    74
1070
     0
1000
MTEXTEND
  0
POINT
  5
24922
330
2429C
100
AcDbEntity
  8
DEFPOINTS
 62
     0
 48
50.0
100
AcDbPoint
 10
6903.6
 20
5746.9077779302
 30
0.0
  0
POINT
  5
24923
330
2429C
100
AcDbEntity
  8
DEFPOINTS
 62
     0
 48
50.0
100
AcDbPoint
 10
6903.6
 20
7966.9077779302
 30
0.0
  0
POINT
  5
24924
330
2429C
100
AcDbEntity
  8
DEFPOINTS
 62
     0
 48
50.0
100
AcDbPoint
 10
5622.798783094967
 20
7966.907777930201
 30
0.0
  0
ENDBLK
  5
242A6
330
2429C
100
AcDbEntity
  8
0
 48
50.0
100
AcDbBlockEnd
  0
BLOCK
  5
242AF
330
242A7
100
AcDbEntity
  8
0
 48
50.0
100
AcDbBlockBegin
  2
*D31
 70
     1
 10
0.0
 20
0.0
 30
0.0
  3
*D31
  1

  0
LINE
  5
24D5C
330
242A7
100
AcDbEntity
  8
寸法
 62
     0
 48
50.0
370
    -2
100
AcDbLine
 10
5854.741879814366
 20
5671.907777930221
 30
0.0
 11
5562.798783094969
 21
5671.907777930221
 31
0.0
  0
LINE
  5
24D5D
330
242A7
100
AcDbEntity
  8
寸法
 62
     0
 48
50.0
370
    -2
100
AcDbLine
 10
6883.6
 20
5746.9077779302
 30
0.0
 11
5562.798783094969
 21
5746.9077779302
 31
0.0
  0
LINE
  5
24D5E
330
242A7
100
AcDbEntity
  8
寸法
 62
     0
 48
50.0
370
    -2
100
AcDbLine
 10
5622.798783094968
 20
5671.907777930221
 30
0.0
 11
5622.798783094968
 21
5571.907777930221
 31
0.0
  0
LINE
  5
24D5F
330
242A7
100
AcDbEntity
  8
寸法
 62
     0
 48
50.0
370
    -2
100
AcDbLine
 10
5622.798783094968
 20
5746.9077779302
 30
0.0
 11
5622.798783094968
 21
5846.907777930201
 31
0.0
  0
LINE
  5
24D60
330
242A7
100
AcDbEntity
  8
寸法
 62
     0
 48
50.0
370
    -2
100
AcDbLine
 10
5622.798783094968
 20
5671.907777930221
 30
0.0
 11
5622.798783094968
 21
5746.9077779302
 31
0.0
  0
INSERT
  5
24D61
330
242A7
100
AcDbEntity
  8
寸法
 62
     0
 48
50.0
370
    -2
100
AcDbBlockReference
  2
_DOTSMALL
 10
5622.798783094968
 20
5671.907777930221
 30
0.0
 41
100.0
 42
100.0
 43
100.0
 50
90.0
  0
INSERT
  5
24D62
330
242A7
100
AcDbEntity
  8
寸法
 62
     0
 48
50.0
370
    -2
100
AcDbBlockReference
  2
_DOTSMALL
 10
5622.798783094968
 20
5746.9077779302
 30
0.0
 41
100.0
 42
100.0
 43
100.0
 50
270.0
  0
MTEXT
  5
24D63
330
242A7
100
AcDbEntity
  8
寸法
 62
     7
 48
50.0
100
AcDbMText
 10
5522.798783094968
 20
5709.407777930212
 30
0.0
 40
120.0
 41
0.0
 71
     5
 72
     1
  1
\A1;c
  7
STYLE1
 11
0.0000000000000001
 21
1.0
 31
0.0
 73
     1
 44
1.0
1001
ACAD
1000
MTEXTBEGIN
1070
    73
1070
     1
1070
    44
1040
1.0
1070
    74
1070
     0
1000
MTEXTEND
  0
POINT
  5
24D64
330
242A7
100
AcDbEntity
  8
DEFPOINTS
 62
     0
 48
50.0
100
AcDbPoint
 10
5874.741879814365
 20
5671.907777930221
 30
0.0
  0
POINT
  5
24D65
330
242A7
100
AcDbEntity
  8
DEFPOINTS
 62
     0
 48
50.0
100
AcDbPoint
 10
6903.6
 20
5746.9077779302
 30
0.0
  0
POINT
  5
24D66
330
242A7
100
AcDbEntity
  8
DEFPOINTS
 62
     0
 48
50.0
100
AcDbPoint
 10
5622.798783094968
 20
5746.9077779302
 30
0.0
  0
ENDBLK
  5
242B0
330
242A7
100
AcDbEntity
  8
0
 48
50.0
100
AcDbBlockEnd
  0
BLOCK
  5
242BC
330
242B1
100
AcDbEntity
  8
0
 48
50.0
100
AcDbBlockBegin
  2
*D32
 70
     1
 10
0.0
 20
0.0
 30
0.0
  3
*D32
  1

  0
LINE
  5
24907
330
242B1
100
AcDbEntity
  8
寸法
 62
     0
 48
50.0
370
    -2
100
AcDbLine
 10
6956.600000000007
 20
5869.9077779302
 30
0.0
 11
5814.741879814365
 21
5869.907777930201
 31
0.0
  0
LINE
  5
24908
330
242B1
100
AcDbEntity
  8
寸法
 62
     0
 48
50.0
370
    -2
100
AcDbLine
 10
6883.6
 20
5746.9077779302
 30
0.0
 11
5814.741879814365
 21
5746.9077779302
 31
0.0
  0
LINE
  5
24909
330
242B1
100
AcDbEntity
  8
寸法
 62
     0
 48
50.0
370
    -2
100
AcDbLine
 10
5874.741879814365
 20
5869.907777930201
 30
0.0
 11
5874.741879814365
 21
5746.9077779302
 31
0.0
  0
LINE
  5
2490A
330
242B1
100
AcDbEntity
  8
寸法
 62
     0
 48
50.0
370
    -2
100
AcDbLine
 10
5874.741879814365
 20
5746.9077779302
 30
0.0
 11
5874.741879814365
 21
5335.315894838162
 31
0.0
  0
INSERT
  5
2490B
330
242B1
100
AcDbEntity
  8
寸法
 62
     0
 48
50.0
370
    -2
100
AcDbBlockReference
  2
_DOTSMALL
 10
5874.741879814365
 20
5869.907777930201
 30
0.0
 41
100.0
 42
100.0
 43
100.0
 50
90.0
  0
INSERT
  5
2490C
330
242B1
100
AcDbEntity
  8
寸法
 62
     0
 48
50.0
370
    -2
100
AcDbBlockReference
  2
_DOTSMALL
 10
5874.741879814365
 20
5746.9077779302
 30
0.0
 41
100.0
 42
100.0
 43
100.0
 50
270.0
  0
MTEXT
  5
2490D
330
242B1
100
AcDbEntity
  8
寸法
 62
     7
 48
50.0
100
AcDbMText
 10
5774.730068790742
 20
5473.801176212401
 30
0.0
 40
120.0
 41
0.0
 71
     5
 72
     1
  1
\A1;123
  7
STYLE1
 11
0.0000000000000001
 21
1.0
 31
0.0
 73
     1
 44
1.0
1001
ACAD
1000
MTEXTBEGIN
1070
    73
1070
     1
1070
    44
1040
1.0
1070
    74
1070
     0
1000
MTEXTEND
  0
POINT
  5
2490E
330
242B1
100
AcDbEntity
  8
DEFPOINTS
 62
     0
 48
50.0
100
AcDbPoint
 10
6976.600000000008
 20
5869.9077779302
 30
0.0
  0
POINT
  5
2490F
330
242B1
100
AcDbEntity
  8
DEFPOINTS
 62
     0
 48
50.0
100
AcDbPoint
 10
6903.6
 20
5746.9077779302
 30
0.0
  0
POINT
  5
24910
330
242B1
100
AcDbEntity
  8
DEFPOINTS
 62
     0
 48
50.0
100
AcDbPoint
 10
5874.741879814365
 20
5746.9077779302
 30
0.0
  0
ENDBLK
  5
242BD
330
242B1
100
AcDbEntity
  8
0
 48
50.0
100
AcDbBlockEnd
  0
BLOCK
  5
242C9
330
242BE
100
AcDbEntity
  8
0
 48
50.0
100
AcDbBlockBegin
  2
*D33
 70
     1
 10
0.0
 20
0.0
 30
0.0
  3
*D33
  1

  0
LINE
  5
248FD
330
242BE
100
AcDbEntity
  8
寸法
 62
     0
 48
50.0
370
    -2
100
AcDbLine
 10
6883.6
 20
7966.9077779302
 30
0.0
 11
5814.741879814365
 21
7966.907777930201
 31
0.0
  0
LINE
  5
248FE
330
242BE
100
AcDbEntity
  8
寸法
 62
     0
 48
50.0
370
    -2
100
AcDbLine
 10
6956.6
 20
7843.907777930199
 30
0.0
 11
5814.741879814365
 21
7843.907777930201
 31
0.0
  0
LINE
  5
248FF
330
242BE
100
AcDbEntity
  8
寸法
 62
     0
 48
50.0
370
    -2
100
AcDbLine
 10
5874.741879814365
 20
7843.907777930201
 30
0.0
 11
5874.741879814365
 21
7966.907777930201
 31
0.0
  0
LINE
  5
24900
330
242BE
100
AcDbEntity
  8
寸法
 62
     0
 48
50.0
370
    -2
100
AcDbLine
 10
5874.741879814365
 20
7966.907777930201
 30
0.0
 11
5874.741879814365
 21
8418.499661022234
 31
0.0
  0
INSERT
  5
24901
330
242BE
100
AcDbEntity
  8
寸法
 62
     0
 48
50.0
370
    -2
100
AcDbBlockReference
  2
_DOTSMALL
 10
5874.741879814365
 20
7843.907777930201
 30
0.0
 41
100.0
 42
100.0
 43
100.0
 50
270.0
  0
INSERT
  5
24902
330
242BE
100
AcDbEntity
  8
寸法
 62
     0
 48
50.0
370
    -2
100
AcDbBlockReference
  2
_DOTSMALL
 10
5874.741879814365
 20
7966.907777930201
 30
0.0
 41
100.0
 42
100.0
 43
100.0
 50
90.0
  0
MTEXT
  5
24903
330
242BE
100
AcDbEntity
  8
寸法
 62
     7
 48
50.0
100
AcDbMText
 10
5774.730068790742
 20
8280.014379647997
 30
0.0
 40
120.0
 41
0.0
 71
     5
 72
     1
  1
\A1;123
  7
STYLE1
 11
0.0000000000000001
 21
1.0
 31
0.0
 73
     1
 44
1.0
1001
ACAD
1000
MTEXTBEGIN
1070
    73
1070
     1
1070
    44
1040
1.0
1070
    74
1070
     0
1000
MTEXTEND
  0
POINT
  5
24904
330
242BE
100
AcDbEntity
  8
DEFPOINTS
 62
     0
 48
50.0
100
AcDbPoint
 10
6903.6
 20
7966.9077779302
 30
0.0
  0
POINT
  5
24905
330
242BE
100
AcDbEntity
  8
DEFPOINTS
 62
     0
 48
50.0
100
AcDbPoint
 10
6976.600000000001
 20
7843.907777930199
 30
0.0
  0
POINT
  5
24906
330
242BE
100
AcDbEntity
  8
DEFPOINTS
 62
     0
 48
50.0
100
AcDbPoint
 10
5874.741879814365
 20
7843.907777930201
 30
0.0
  0
ENDBLK
  5
242CA
330
242BE
100
AcDbEntity
  8
0
 48
50.0
100
AcDbBlockEnd
  0
BLOCK
  5
242D5
330
242CB
100
AcDbEntity
  8
0
 48
50.0
100
AcDbBlockBegin
  2
*D34
 70
     1
 10
0.0
 20
0.0
 30
0.0
  3
*D34
  1

  0
LINE
  5
24D46
330
242CB
100
AcDbEntity
  8
寸法
 62
     0
 48
50.0
370
    -2
100
AcDbLine
 10
6883.6
 20
7966.9077779302
 30
0.0
 11
5562.798783094969
 21
7966.907777930201
 31
0.0
  0
LINE
  5
24D47
330
242CB
100
AcDbEntity
  8
寸法
 62
     0
 48
50.0
370
    -2
100
AcDbLine
 10
5854.741879814366
 20
8021.9077779302
 30
0.0
 11
5562.798783094969
 21
8021.9077779302
 31
0.0
  0
LINE
  5
24D48
330
242CB
100
AcDbEntity
  8
寸法
 62
     0
 48
50.0
370
    -2
100
AcDbLine
 10
5622.798783094968
 20
7966.907777930201
 30
0.0
 11
5622.798783094968
 21
7866.907777930201
 31
0.0
  0
LINE
  5
24D49
330
242CB
100
AcDbEntity
  8
寸法
 62
     0
 48
50.0
370
    -2
100
AcDbLine
 10
5622.798783094968
 20
8021.9077779302
 30
0.0
 11
5622.798783094968
 21
8121.907777930202
 31
0.0
  0
LINE
  5
24D4A
330
242CB
100
AcDbEntity
  8
寸法
 62
     0
 48
50.0
370
    -2
100
AcDbLine
 10
5622.798783094968
 20
7966.907777930201
 30
0.0
 11
5622.798783094968
 21
8021.9077779302
 31
0.0
  0
INSERT
  5
24D4B
330
242CB
100
AcDbEntity
  8
寸法
 62
     0
 48
50.0
370
    -2
100
AcDbBlockReference
  2
_DOTSMALL
 10
5622.798783094968
 20
7966.907777930201
 30
0.0
 41
100.0
 42
100.0
 43
100.0
 50
90.0
  0
INSERT
  5
24D4C
330
242CB
100
AcDbEntity
  8
寸法
 62
     0
 48
50.0
370
    -2
100
AcDbBlockReference
  2
_DOTSMALL
 10
5622.798783094968
 20
8021.9077779302
 30
0.0
 41
100.0
 42
100.0
 43
100.0
 50
270.0
  0
MTEXT
  5
24D4D
330
242CB
100
AcDbEntity
  8
寸法
 62
     7
 48
50.0
100
AcDbMText
 10
5522.798783094968
 20
7994.407777930202
 30
0.0
 40
120.0
 41
0.0
 71
     5
 72
     1
  1
\A1;b
  7
STYLE1
 11
0.0000000000000001
 21
1.0
 31
0.0
 73
     1
 44
1.0
1001
ACAD
1000
MTEXTBEGIN
1070
    73
1070
     1
1070
    44
1040
1.0
1070
    74
1070
     0
1000
MTEXTEND
  0
POINT
  5
24D4E
330
242CB
100
AcDbEntity
  8
DEFPOINTS
 62
     0
 48
50.0
100
AcDbPoint
 10
6903.6
 20
7966.9077779302
 30
0.0
  0
POINT
  5
24D4F
330
242CB
100
AcDbEntity
  8
DEFPOINTS
 62
     0
 48
50.0
100
AcDbPoint
 10
5874.741879814365
 20
8021.9077779302
 30
0.0
  0
POINT
  5
24D50
330
242CB
100
AcDbEntity
  8
DEFPOINTS
 62
     0
 48
50.0
100
AcDbPoint
 10
5622.798783094968
 20
8021.9077779302
 30
0.0
  0
ENDBLK
  5
242D6
330
242CB
100
AcDbEntity
  8
0
 48
50.0
100
AcDbBlockEnd
  0
BLOCK
  5
242E2
330
242D7
100
AcDbEntity
  8
0
 48
50.0
100
AcDbBlockBegin
  2
*D35
 70
     1
 10
0.0
 20
0.0
 30
0.0
  3
*D35
  1

  0
LINE
  5
248E7
330
242D7
100
AcDbEntity
  8
寸法
 62
     0
 48
50.0
370
    -2
100
AcDbLine
 10
9543.600000000001
 20
7986.9077779302
 30
0.0
 11
9543.600000000001
 21
8985.12809998912
 31
0.0
  0
LINE
  5
248E8
330
242D7
100
AcDbEntity
  8
寸法
 62
     0
 48
50.0
370
    -2
100
AcDbLine
 10
9593.6
 20
8732.667404472286
 30
0.0
 11
9593.6
 21
8985.12809998912
 31
0.0
  0
LINE
  5
248E9
330
242D7
100
AcDbEntity
  8
寸法
 62
     0
 48
50.0
370
    -2
100
AcDbLine
 10
9543.600000000001
 20
8925.128099989121
 30
0.0
 11
9443.600000000001
 21
8925.128099989121
 31
0.0
  0
LINE
  5
248EA
330
242D7
100
AcDbEntity
  8
寸法
 62
     0
 48
50.0
370
    -2
100
AcDbLine
 10
9593.6
 20
8925.128099989121
 30
0.0
 11
9925.949242404918
 21
8925.128099989121
 31
0.0
  0
LINE
  5
248EB
330
242D7
100
AcDbEntity
  8
寸法
 62
     0
 48
50.0
370
    -2
100
AcDbLine
 10
9543.600000000001
 20
8925.128099989121
 30
0.0
 11
9593.6
 21
8925.128099989121
 31
0.0
  0
INSERT
  5
248EC
330
242D7
100
AcDbEntity
  8
寸法
 62
     0
 48
50.0
370
    -2
100
AcDbBlockReference
  2
_DOTSMALL
 10
9543.600000000001
 20
8925.128099989121
 30
0.0
 41
100.0
 42
100.0
 43
100.0
  0
INSERT
  5
248ED
330
242D7
100
AcDbEntity
  8
寸法
 62
     0
 48
50.0
370
    -2
100
AcDbBlockReference
  2
_DOTSMALL
 10
9593.6
 20
8925.128099989121
 30
0.0
 41
100.0
 42
100.0
 43
100.0
 50
180.0
  0
MTEXT
  5
248EE
330
242D7
100
AcDbEntity
  8
寸法
 62
     7
 48
50.0
100
AcDbMText
 10
9859.774621202461
 20
9025.128099989121
 30
0.0
 40
120.0
 41
0.0
 71
     5
 72
     1
  1
\A1;a
  7
STYLE1
 73
     1
 44
1.0
1001
ACAD
1000
MTEXTBEGIN
1070
    73
1070
     1
1070
    44
1040
1.0
1070
    74
1070
     0
1000
MTEXTEND
  0
POINT
  5
248EF
330
242D7
100
AcDbEntity
  8
DEFPOINTS
 62
     0
 48
50.0
100
AcDbPoint
 10
9543.600000000001
 20
7966.9077779302
 30
0.0
  0
POINT
  5
248F0
330
242D7
100
AcDbEntity
  8
DEFPOINTS
 62
     0
 48
50.0
100
AcDbPoint
 10
9593.6
 20
8712.667404472286
 30
0.0
  0
POINT
  5
248F1
330
242D7
100
AcDbEntity
  8
DEFPOINTS
 62
     0
 48
50.0
100
AcDbPoint
 10
9593.6
 20
8925.128099989121
 30
0.0
  0
ENDBLK
  5
242E3
330
242D7
100
AcDbEntity
  8
0
 48
50.0
100
AcDbBlockEnd
  0
BLOCK
  5
242EE
330
242E4
100
AcDbEntity
  8
0
 48
50.0
100
AcDbBlockBegin
  2
*D36
 70
     1
 10
0.0
 20
0.0
 30
0.0
  3
*D36
  1

  0
LINE
  5
248DE
330
242E4
100
AcDbEntity
  8
寸法
 62
     0
 48
50.0
370
    -2
100
AcDbLine
 10
8638.600000000002
 20
7451.907777930199
 30
0.0
 11
8638.600000000002
 21
8553.817543578528
 31
0.0
  0
LINE
  5
248DF
330
242E4
100
AcDbEntity
  8
寸法
 62
     0
 48
50.0
370
    -2
100
AcDbLine
 10
7808.6
 20
7451.907777930199
 30
0.0
 11
7808.6
 21
8553.817543578528
 31
0.0
  0
LINE
  5
248E0
330
242E4
100
AcDbEntity
  8
寸法
 62
     0
 48
50.0
370
    -2
100
AcDbLine
 10
8638.600000000002
 20
8493.817543578527
 30
0.0
 11
7808.6
 21
8493.817543578527
 31
0.0
  0
INSERT
  5
248E1
330
242E4
100
AcDbEntity
  8
寸法
 62
     0
 48
50.0
370
    -2
100
AcDbBlockReference
  2
_DOTSMALL
 10
8638.600000000002
 20
8493.817543578527
 30
0.0
 41
100.0
 42
100.0
 43
100.0
  0
INSERT
  5
248E2
330
242E4
100
AcDbEntity
  8
寸法
 62
     0
 48
50.0
370
    -2
100
AcDbBlockReference
  2
_DOTSMALL
 10
7808.6
 20
8493.817543578527
 30
0.0
 41
100.0
 42
100.0
 43
100.0
 50
180.0
  0
MTEXT
  5
248E3
330
242E4
100
AcDbEntity
  8
寸法
 62
     7
 48
50.0
100
AcDbMText
 10
8223.600000000001
 20
8593.817543578527
 30
0.0
 40
120.0
 41
0.0
 71
     5
 72
     1
  1
\A1;830
  7
STYLE1
 73
     1
 44
1.0
1001
ACAD
1000
MTEXTBEGIN
1070
    73
1070
     1
1070
    44
1040
1.0
1070
    74
1070
     0
1000
MTEXTEND
  0
POINT
  5
248E4
330
242E4
100
AcDbEntity
  8
DEFPOINTS
 62
     0
 48
50.0
100
AcDbPoint
 10
8638.600000000002
 20
7431.907777930199
 30
0.0
  0
POINT
  5
248E5
330
242E4
100
AcDbEntity
  8
DEFPOINTS
 62
     0
 48
50.0
100
AcDbPoint
 10
7808.6
 20
7431.907777930199
 30
0.0
  0
POINT
  5
248E6
330
242E4
100
AcDbEntity
  8
DEFPOINTS
 62
     0
 48
50.0
100
AcDbPoint
 10
7808.6
 20
8493.817543578527
 30
0.0
  0
ENDBLK
  5
242EF
330
242E4
100
AcDbEntity
  8
0
 48
50.0
100
AcDbBlockEnd
  0
BLOCK
  5
242FA
330
242F0
100
AcDbEntity
  8
0
 48
50.0
100
AcDbBlockBegin
  2
*D37
 70
     1
 10
0.0
 20
0.0
 30
0.0
  3
*D37
  1

  0
LINE
  5
248D5
330
242F0
100
AcDbEntity
  8
寸法
 62
     0
 48
50.0
370
    -2
100
AcDbLine
 10
9543.600000000001
 20
7986.9077779302
 30
0.0
 11
9543.600000000001
 21
8553.817543578528
 31
0.0
  0
LINE
  5
248D6
330
242F0
100
AcDbEntity
  8
寸法
 62
     0
 48
50.0
370
    -2
100
AcDbLine
 10
8638.600000000002
 20
7451.907777930199
 30
0.0
 11
8638.600000000002
 21
8553.817543578528
 31
0.0
  0
LINE
  5
248D7
330
242F0
100
AcDbEntity
  8
寸法
 62
     0
 48
50.0
370
    -2
100
AcDbLine
 10
9543.600000000001
 20
8493.817543578527
 30
0.0
 11
8638.600000000002
 21
8493.817543578527
 31
0.0
  0
INSERT
  5
248D8
330
242F0
100
AcDbEntity
  8
寸法
 62
     0
 48
50.0
370
    -2
100
AcDbBlockReference
  2
_DOTSMALL
 10
9543.600000000001
 20
8493.817543578527
 30
0.0
 41
100.0
 42
100.0
 43
100.0
  0
INSERT
  5
248D9
330
242F0
100
AcDbEntity
  8
寸法
 62
     0
 48
50.0
370
    -2
100
AcDbBlockReference
  2
_DOTSMALL
 10
8638.600000000002
 20
8493.817543578527
 30
0.0
 41
100.0
 42
100.0
 43
100.0
 50
180.0
  0
MTEXT
  5
248DA
330
242F0
100
AcDbEntity
  8
寸法
 62
     7
 48
50.0
100
AcDbMText
 10
9114.51852200628
 20
8593.817543578527
 30
0.0
 40
120.0
 41
0.0
 71
     5
 72
     1
  1
\A1;905
  7
STYLE1
 73
     1
 44
1.0
1001
ACAD
1000
MTEXTBEGIN
1070
    73
1070
     1
1070
    44
1040
1.0
1070
    74
1070
     0
1000
MTEXTEND
  0
POINT
  5
248DB
330
242F0
100
AcDbEntity
  8
DEFPOINTS
 62
     0
 48
50.0
100
AcDbPoint
 10
9543.600000000001
 20
7966.9077779302
 30
0.0
  0
POINT
  5
248DC
330
242F0
100
AcDbEntity
  8
DEFPOINTS
 62
     0
 48
50.0
100
AcDbPoint
 10
8638.600000000002
 20
7431.907777930199
 30
0.0
  0
POINT
  5
248DD
330
242F0
100
AcDbEntity
  8
DEFPOINTS
 62
     0
 48
50.0
100
AcDbPoint
 10
8638.600000000002
 20
8493.817543578527
 30
0.0
  0
ENDBLK
  5
242FB
330
242F0
100
AcDbEntity
  8
0
 48
50.0
100
AcDbBlockEnd
  0
BLOCK
  5
24307
330
242FC
100
AcDbEntity
  8
0
 48
50.0
100
AcDbBlockBegin
  2
*D38
 70
     1
 10
0.0
 20
0.0
 30
0.0
  3
*D38
  1

  0
LINE
  5
248CB
330
242FC
100
AcDbEntity
  8
寸法
 62
     0
 48
50.0
370
    -2
100
AcDbLine
 10
9543.600000000001
 20
7986.9077779302
 30
0.0
 11
9543.600000000001
 21
8772.667404472283
 31
0.0
  0
LINE
  5
248CC
330
242FC
100
AcDbEntity
  8
寸法
 62
     0
 48
50.0
370
    -2
100
AcDbLine
 10
9420.6
 20
7913.9077779302
 30
0.0
 11
9420.6
 21
8772.667404472283
 31
0.0
  0
LINE
  5
248CD
330
242FC
100
AcDbEntity
  8
寸法
 62
     0
 48
50.0
370
    -2
100
AcDbLine
 10
9420.6
 20
8712.667404472282
 30
0.0
 11
9543.600000000001
 21
8712.667404472282
 31
0.0
  0
LINE
  5
248CE
330
242FC
100
AcDbEntity
  8
寸法
 62
     0
 48
50.0
370
    -2
100
AcDbLine
 10
9543.600000000001
 20
8712.667404472282
 30
0.0
 11
9955.191883092037
 21
8712.667404472282
 31
0.0
  0
INSERT
  5
248CF
330
242FC
100
AcDbEntity
  8
寸法
 62
     0
 48
50.0
370
    -2
100
AcDbBlockReference
  2
_DOTSMALL
 10
9420.6
 20
8712.667404472282
 30
0.0
 41
100.0
 42
100.0
 43
100.0
 50
180.0
  0
INSERT
  5
248D0
330
242FC
100
AcDbEntity
  8
寸法
 62
     0
 48
50.0
370
    -2
100
AcDbBlockReference
  2
_DOTSMALL
 10
9543.600000000001
 20
8712.667404472282
 30
0.0
 41
100.0
 42
100.0
 43
100.0
  0
MTEXT
  5
248D1
330
242FC
100
AcDbEntity
  8
寸法
 62
     7
 48
50.0
100
AcDbMText
 10
9816.706601717799
 20
8812.679215495903
 30
0.0
 40
120.0
 41
0.0
 71
     5
 72
     1
  1
\A1;123
  7
STYLE1
 73
     1
 44
1.0
1001
ACAD
1000
MTEXTBEGIN
1070
    73
1070
     1
1070
    44
1040
1.0
1070
    74
1070
     0
1000
MTEXTEND
  0
POINT
  5
248D2
330
242FC
100
AcDbEntity
  8
DEFPOINTS
 62
     0
 48
50.0
100
AcDbPoint
 10
9543.600000000001
 20
7966.9077779302
 30
0.0
  0
POINT
  5
248D3
330
242FC
100
AcDbEntity
  8
DEFPOINTS
 62
     0
 48
50.0
100
AcDbPoint
 10
9420.6
 20
7893.907777930199
 30
0.0
  0
POINT
  5
248D4
330
242FC
100
AcDbEntity
  8
DEFPOINTS
 62
     0
 48
50.0
100
AcDbPoint
 10
9420.6
 20
8712.667404472282
 30
0.0
  0
ENDBLK
  5
24308
330
242FC
100
AcDbEntity
  8
0
 48
50.0
100
AcDbBlockEnd
  0
BLOCK
  5
24313
330
24309
100
AcDbEntity
  8
0
 48
50.0
100
AcDbBlockBegin
  2
*D39
 70
     1
 10
0.0
 20
0.0
 30
0.0
  3
*D39
  1

  0
LINE
  5
248C2
330
24309
100
AcDbEntity
  8
寸法
 62
     0
 48
50.0
370
    -2
100
AcDbLine
 10
6883.6
 20
5746.9077779302
 30
0.0
 11
6117.300192104941
 21
5746.9077779302
 31
0.0
  0
LINE
  5
248C3
330
24309
100
AcDbEntity
  8
寸法
 62
     0
 48
50.0
370
    -2
100
AcDbLine
 10
7688.6
 20
6481.907777930199
 30
0.0
 11
6117.300192104941
 21
6481.9077779302
 31
0.0
  0
LINE
  5
248C4
330
24309
100
AcDbEntity
  8
寸法
 62
     0
 48
50.0
370
    -2
100
AcDbLine
 10
6177.30019210494
 20
5746.9077779302
 30
0.0
 11
6177.300192104942
 21
6481.907777930199
 31
0.0
  0
INSERT
  5
248C5
330
24309
100
AcDbEntity
  8
寸法
 62
     0
 48
50.0
370
    -2
100
AcDbBlockReference
  2
_DOTSMALL
 10
6177.30019210494
 20
5746.9077779302
 30
0.0
 41
100.0
 42
100.0
 43
100.0
 50
270.0
  0
INSERT
  5
248C6
330
24309
100
AcDbEntity
  8
寸法
 62
     0
 48
50.0
370
    -2
100
AcDbBlockReference
  2
_DOTSMALL
 10
6177.300192104942
 20
6481.907777930199
 30
0.0
 41
100.0
 42
100.0
 43
100.0
 50
90.0
  0
MTEXT
  5
248C7
330
24309
100
AcDbEntity
  8
寸法
 62
     7
 48
50.0
100
AcDbMText
 10
6077.30019210494
 20
6114.407777930209
 30
0.0
 40
120.0
 41
0.0
 71
     5
 72
     1
  1
\A1;735
  7
STYLE1
 11
0.0000000000000001
 21
1.0
 31
0.0
 73
     1
 44
1.0
1001
ACAD
1000
MTEXTBEGIN
1070
    73
1070
     1
1070
    44
1040
1.0
1070
    74
1070
     0
1000
MTEXTEND
  0
POINT
  5
248C8
330
24309
100
AcDbEntity
  8
DEFPOINTS
 62
     0
 48
50.0
100
AcDbPoint
 10
6903.6
 20
5746.9077779302
 30
0.0
  0
POINT
  5
248C9
330
24309
100
AcDbEntity
  8
DEFPOINTS
 62
     0
 48
50.0
100
AcDbPoint
 10
7708.6
 20
6481.907777930199
 30
0.0
  0
POINT
  5
248CA
330
24309
100
AcDbEntity
  8
DEFPOINTS
 62
     0
 48
50.0
100
AcDbPoint
 10
6177.300192104942
 20
6481.907777930199
 30
0.0
  0
ENDBLK
  5
24314
330
24309
100
AcDbEntity
  8
0
 48
50.0
100
AcDbBlockEnd
  0
BLOCK
  5
24338
330
2432E
100
AcDbEntity
  8
0
 48
50.0
100
AcDbBlockBegin
  2
*D40
 70
     1
 10
0.0
 20
0.0
 30
0.0
  3
*D40
  1

  0
LINE
  5
248B9
330
2432E
100
AcDbEntity
  8
寸法
 62
     0
 48
50.0
370
    -2
100
AcDbLine
 10
7688.6
 20
7231.907777930205
 30
0.0
 11
6117.300192104941
 21
7231.907777930207
 31
0.0
  0
LINE
  5
248BA
330
2432E
100
AcDbEntity
  8
寸法
 62
     0
 48
50.0
370
    -2
100
AcDbLine
 10
6883.6
 20
7966.907777930206
 30
0.0
 11
6117.300192104941
 21
7966.907777930206
 31
0.0
  0
LINE
  5
248BB
330
2432E
100
AcDbEntity
  8
寸法
 62
     0
 48
50.0
370
    -2
100
AcDbLine
 10
6177.30019210494
 20
7231.907777930205
 30
0.0
 11
6177.30019210494
 21
7966.907777930206
 31
0.0
  0
INSERT
  5
248BC
330
2432E
100
AcDbEntity
  8
寸法
 62
     0
 48
50.0
370
    -2
100
AcDbBlockReference
  2
_DOTSMALL
 10
6177.30019210494
 20
7231.907777930205
 30
0.0
 41
100.0
 42
100.0
 43
100.0
 50
270.0
  0
INSERT
  5
248BD
330
2432E
100
AcDbEntity
  8
寸法
 62
     0
 48
50.0
370
    -2
100
AcDbBlockReference
  2
_DOTSMALL
 10
6177.30019210494
 20
7966.907777930206
 30
0.0
 41
100.0
 42
100.0
 43
100.0
 50
90.0
  0
MTEXT
  5
248BE
330
2432E
100
AcDbEntity
  8
寸法
 62
     7
 48
50.0
100
AcDbMText
 10
6077.30019210494
 20
7599.407777930206
 30
0.0
 40
120.0
 41
0.0
 71
     5
 72
     1
  1
\A1;735
  7
STYLE1
 11
0.0000000000000001
 21
1.0
 31
0.0
 73
     1
 44
1.0
1001
ACAD
1000
MTEXTBEGIN
1070
    73
1070
     1
1070
    44
1040
1.0
1070
    74
1070
     0
1000
MTEXTEND
  0
POINT
  5
248BF
330
2432E
100
AcDbEntity
  8
DEFPOINTS
 62
     0
 48
50.0
100
AcDbPoint
 10
7708.6
 20
7231.907777930205
 30
0.0
  0
POINT
  5
248C0
330
2432E
100
AcDbEntity
  8
DEFPOINTS
 62
     0
 48
50.0
100
AcDbPoint
 10
6903.6
 20
7966.907777930206
 30
0.0
  0
POINT
  5
248C1
330
2432E
100
AcDbEntity
  8
DEFPOINTS
 62
     0
 48
50.0
100
AcDbPoint
 10
6177.30019210494
 20
7966.907777930206
 30
0.0
  0
ENDBLK
  5
24339
330
2432E
100
AcDbEntity
  8
0
 48
50.0
100
AcDbBlockEnd
  0
BLOCK
  5
24344
330
2433A
100
AcDbEntity
  8
0
 48
50.0
100
AcDbBlockBegin
  2
*D41
 70
     1
 10
0.0
 20
0.0
 30
0.0
  3
*D41
  1

  0
LINE
  5
248B0
330
2433A
100
AcDbEntity
  8
寸法
 62
     0
 48
50.0
370
    -2
100
AcDbLine
 10
7688.6
 20
7231.907777930205
 30
0.0
 11
6117.30019210494
 21
7231.907777930207
 31
0.0
  0
LINE
  5
248B1
330
2433A
100
AcDbEntity
  8
寸法
 62
     0
 48
50.0
370
    -2
100
AcDbLine
 10
7688.6
 20
6481.907777930199
 30
0.0
 11
6117.30019210494
 21
6481.9077779302
 31
0.0
  0
LINE
  5
248B2
330
2433A
100
AcDbEntity
  8
寸法
 62
     0
 48
50.0
370
    -2
100
AcDbLine
 10
6177.30019210494
 20
7231.907777930205
 30
0.0
 11
6177.30019210494
 21
6481.907777930199
 31
0.0
  0
INSERT
  5
248B3
330
2433A
100
AcDbEntity
  8
寸法
 62
     0
 48
50.0
370
    -2
100
AcDbBlockReference
  2
_DOTSMALL
 10
6177.30019210494
 20
7231.907777930205
 30
0.0
 41
100.0
 42
100.0
 43
100.0
 50
90.0
  0
INSERT
  5
248B4
330
2433A
100
AcDbEntity
  8
寸法
 62
     0
 48
50.0
370
    -2
100
AcDbBlockReference
  2
_DOTSMALL
 10
6177.30019210494
 20
6481.907777930199
 30
0.0
 41
100.0
 42
100.0
 43
100.0
 50
270.0
  0
MTEXT
  5
248B5
330
2433A
100
AcDbEntity
  8
寸法
 62
     7
 48
50.0
100
AcDbMText
 10
6077.300192104939
 20
6856.907777930207
 30
0.0
 40
120.0
 41
0.0
 71
     5
 72
     1
  1
\A1;750
  7
STYLE1
 11
0.0000000000000001
 21
1.0
 31
0.0
 73
     1
 44
1.0
1001
ACAD
1000
MTEXTBEGIN
1070
    73
1070
     1
1070
    44
1040
1.0
1070
    74
1070
     0
1000
MTEXTEND
  0
POINT
  5
248B6
330
2433A
100
AcDbEntity
  8
DEFPOINTS
 62
     0
 48
50.0
100
AcDbPoint
 10
7708.6
 20
7231.907777930205
 30
0.0
  0
POINT
  5
248B7
330
2433A
100
AcDbEntity
  8
DEFPOINTS
 62
     0
 48
50.0
100
AcDbPoint
 10
7708.6
 20
6481.907777930199
 30
0.0
  0
POINT
  5
248B8
330
2433A
100
AcDbEntity
  8
DEFPOINTS
 62
     0
 48
50.0
100
AcDbPoint
 10
6177.30019210494
 20
6481.907777930199
 30
0.0
  0
ENDBLK
  5
24345
330
2433A
100
AcDbEntity
  8
0
 48
50.0
100
AcDbBlockEnd
  0
BLOCK
  5
24F94
330
24F89
100
AcDbEntity
  8
0
 48
50.0
100
AcDbBlockBegin
  2
*D42
 70
     1
 10
0.0
 20
0.0
 30
0.0
  3
*D42
  1

  0
LINE
  5
25B15
330
24F89
100
AcDbEntity
  8
寸法
 62
     0
 48
50.0
370
    -2
100
AcDbLine
 10
9543.600000000001
 20
7716.907777930201
 30
0.0
 11
9543.600000000001
 21
7449.199110429828
 31
0.0
  0
LINE
  5
25B16
330
24F89
100
AcDbEntity
  8
寸法
 62
     0
 48
50.0
370
    -2
100
AcDbLine
 10
9423.6
 20
7716.9077779302
 30
0.0
 11
9423.6
 21
7449.199110429828
 31
0.0
  0
LINE
  5
25B17
330
24F89
100
AcDbEntity
  8
寸法
 62
     0
 48
50.0
370
    -2
100
AcDbLine
 10
9423.6
 20
7509.199110429827
 30
0.0
 11
9543.600000000001
 21
7509.199110429827
 31
0.0
  0
LINE
  5
25B18
330
24F89
100
AcDbEntity
  8
寸法
 62
     0
 48
50.0
370
    -2
100
AcDbLine
 10
9543.600000000001
 20
7509.199110429827
 30
0.0
 11
9949.7062992126
 21
7509.199110429827
 31
0.0
  0
INSERT
  5
25B19
330
24F89
100
AcDbEntity
  8
寸法
 62
     0
 48
50.0
370
    -2
100
AcDbBlockReference
  2
_DOTSMALL
 10
9423.6
 20
7509.199110429827
 30
0.0
 41
100.0
 42
100.0
 43
100.0
 50
180.0
  0
INSERT
  5
25B1A
330
24F89
100
AcDbEntity
  8
寸法
 62
     0
 48
50.0
370
    -2
100
AcDbBlockReference
  2
_DOTSMALL
 10
9543.600000000001
 20
7509.199110429827
 30
0.0
 41
100.0
 42
100.0
 43
100.0
  0
MTEXT
  5
25B1B
330
24F89
100
AcDbEntity
  8
寸法
 62
     7
 48
50.0
100
AcDbMText
 10
9813.659055118112
 20
7609.210921453449
 30
0.0
 40
120.0
 41
0.0
 71
     5
 72
     1
  1
\A1;120
  7
STYLE1
 73
     1
 44
1.0
1001
ACAD
1000
MTEXTBEGIN
1070
    73
1070
     1
1070
    44
1040
1.0
1070
    74
1070
     0
1000
MTEXTEND
  0
POINT
  5
25B1C
330
24F89
100
AcDbEntity
  8
DEFPOINTS
 62
     0
 48
50.0
100
AcDbPoint
 10
9543.600000000001
 20
7736.907777930202
 30
0.0
  0
POINT
  5
25B1D
330
24F89
100
AcDbEntity
  8
DEFPOINTS
 62
     0
 48
50.0
100
AcDbPoint
 10
9423.6
 20
7736.9077779302
 30
0.0
  0
POINT
  5
25B1E
330
24F89
100
AcDbEntity
  8
DEFPOINTS
 62
     0
 48
50.0
100
AcDbPoint
 10
9423.6
 20
7509.199110429827
 30
0.0
  0
ENDBLK
  5
24F95
330
24F89
100
AcDbEntity
  8
0
 48
50.0
100
AcDbBlockEnd
  0
BLOCK
  5
24FA1
330
24F96
100
AcDbEntity
  8
0
 48
50.0
100
AcDbBlockBegin
  2
*D43
 70
     1
 10
0.0
 20
0.0
 30
0.0
  3
*D43
  1

  0
LINE
  5
25B1F
330
24F96
100
AcDbEntity
  8
寸法
 62
     0
 48
50.0
370
    -2
100
AcDbLine
 10
9423.6
 20
7506.192374468658
 30
0.0
 11
9423.6
 21
7449.199110429828
 31
0.0
  0
LINE
  5
25B20
330
24F96
100
AcDbEntity
  8
寸法
 62
     0
 48
50.0
370
    -2
100
AcDbLine
 10
9313.6
 20
7716.9077779302
 30
0.0
 11
9313.6
 21
7449.199110429828
 31
0.0
  0
LINE
  5
25B21
330
24F96
100
AcDbEntity
  8
寸法
 62
     0
 48
50.0
370
    -2
100
AcDbLine
 10
9423.6
 20
7509.199110429827
 30
0.0
 11
9313.6
 21
7509.199110429827
 31
0.0
  0
LINE
  5
25B22
330
24F96
100
AcDbEntity
  8
寸法
 62
     0
 48
50.0
370
    -2
100
AcDbLine
 10
9313.6
 20
7509.199110429827
 30
0.0
 11
8919.493700787402
 21
7509.199110429827
 31
0.0
  0
INSERT
  5
25B23
330
24F96
100
AcDbEntity
  8
寸法
 62
     0
 48
50.0
370
    -2
100
AcDbBlockReference
  2
_DOTSMALL
 10
9423.6
 20
7509.199110429827
 30
0.0
 41
100.0
 42
100.0
 43
100.0
  0
INSERT
  5
25B24
330
24F96
100
AcDbEntity
  8
寸法
 62
     0
 48
50.0
370
    -2
100
AcDbBlockReference
  2
_DOTSMALL
 10
9313.6
 20
7509.199110429827
 30
0.0
 41
100.0
 42
100.0
 43
100.0
 50
180.0
  0
MTEXT
  5
25B25
330
24F96
100
AcDbEntity
  8
寸法
 62
     7
 48
50.0
100
AcDbMText
 10
9043.54094488189
 20
7609.199110429827
 30
0.0
 40
120.0
 41
0.0
 71
     5
 72
     1
  1
\A1;110
  7
STYLE1
 73
     1
 44
1.0
1001
ACAD
1000
MTEXTBEGIN
1070
    73
1070
     1
1070
    44
1040
1.0
1070
    74
1070
     0
1000
MTEXTEND
  0
POINT
  5
25B26
330
24F96
100
AcDbEntity
  8
DEFPOINTS
 62
     0
 48
50.0
100
AcDbPoint
 10
9423.6
 20
7526.192374468658
 30
0.0
  0
POINT
  5
25B27
330
24F96
100
AcDbEntity
  8
DEFPOINTS
 62
     0
 48
50.0
100
AcDbPoint
 10
9313.6
 20
7736.9077779302
 30
0.0
  0
POINT
  5
25B28
330
24F96
100
AcDbEntity
  8
DEFPOINTS
 62
     0
 48
50.0
100
AcDbPoint
 10
9313.6
 20
7509.199110429827
 30
0.0
  0
ENDBLK
  5
24FA2
330
24F96
100
AcDbEntity
  8
0
 48
50.0
100
AcDbBlockEnd
  0
BLOCK
  5
253C9
330
253BF
100
AcDbEntity
  8
0
 48
50.0
100
AcDbBlockBegin
  2
*D44
 70
     1
 10
0.0
 20
0.0
 30
0.0
  3
*D44
  1

  0
LINE
  5
255F2
330
253BF
100
AcDbEntity
  8
寸法
 62
     0
 48
50.0
370
    -2
100
AcDbLine
 10
9543.600000000001
 20
5651.90777793022
 30
0.0
 11
9543.600000000001
 21
4982.748662820249
 31
0.0
  0
LINE
  5
255F3
330
253BF
100
AcDbEntity
  8
寸法
 62
     0
 48
50.0
370
    -2
100
AcDbLine
 10
7356.6
 20
5651.907777930216
 30
0.0
 11
7356.6
 21
4982.748662820249
 31
0.0
  0
LINE
  5
255F4
330
253BF
100
AcDbEntity
  8
寸法
 62
     0
 48
50.0
370
    -2
100
AcDbLine
 10
9543.600000000001
 20
5042.748662820248
 30
0.0
 11
7356.6
 21
5042.748662820248
 31
0.0
  0
INSERT
  5
255F5
330
253BF
100
AcDbEntity
  8
寸法
 62
     0
 48
50.0
370
    -2
100
AcDbBlockReference
  2
_DOTSMALL
 10
9543.600000000001
 20
5042.748662820248
 30
0.0
 41
100.0
 42
100.0
 43
100.0
  0
INSERT
  5
255F6
330
253BF
100
AcDbEntity
  8
寸法
 62
     0
 48
50.0
370
    -2
100
AcDbBlockReference
  2
_DOTSMALL
 10
7356.6
 20
5042.748662820248
 30
0.0
 41
100.0
 42
100.0
 43
100.0
 50
180.0
  0
MTEXT
  5
255F7
330
253BF
100
AcDbEntity
  8
寸法
 62
     7
 48
50.0
100
AcDbMText
 10
8450.1
 20
5142.76047384387
 30
0.0
 40
120.0
 41
0.0
 71
     5
 72
     1
  1
\A1;扉の幅 2187
  7
STYLE1
 73
     1
 44
1.0
1001
ACAD
1000
MTEXTBEGIN
1070
    73
1070
     1
1070
    44
1040
1.0
1070
    74
1070
     0
1000
MTEXTEND
  0
POINT
  5
255F8
330
253BF
100
AcDbEntity
  8
DEFPOINTS
 62
     0
 48
50.0
100
AcDbPoint
 10
9543.600000000001
 20
5671.907777930219
 30
0.0
  0
POINT
  5
255F9
330
253BF
100
AcDbEntity
  8
DEFPOINTS
 62
     0
 48
50.0
100
AcDbPoint
 10
7356.6
 20
5671.907777930216
 30
0.0
  0
POINT
  5
255FA
330
253BF
100
AcDbEntity
  8
DEFPOINTS
 62
     0
 48
50.0
100
AcDbPoint
 10
7356.6
 20
5042.748662820248
 30
0.0
  0
ENDBLK
  5
253CA
330
253BF
100
AcDbEntity
  8
0
 48
50.0
100
AcDbBlockEnd
  0
BLOCK
  5
253D6
330
253CB
100
AcDbEntity
  8
0
 48
50.0
100
AcDbBlockBegin
  2
*D45
 70
     1
 10
0.0
 20
0.0
 30
0.0
  3
*D45
  1

  0
LINE
  5
25B3D
330
253CB
100
AcDbEntity
  8
寸法
 62
     0
 48
50.0
370
    -2
100
AcDbLine
 10
7376.6
 20
5671.907777930216
 30
0.0
 11
7685.743526793912
 21
5671.907777930216
 31
0.0
  0
LINE
  5
25B3E
330
253CB
100
AcDbEntity
  8
寸法
 62
     0
 48
50.0
370
    -2
100
AcDbLine
 10
7376.6
 20
5866.907777930205
 30
0.0
 11
7685.743526793912
 21
5866.907777930205
 31
0.0
  0
LINE
  5
25B3F
330
253CB
100
AcDbEntity
  8
寸法
 62
     0
 48
50.0
370
    -2
100
AcDbLine
 10
7625.743526793911
 20
5866.907777930205
 30
0.0
 11
7625.743526793911
 21
5671.907777930216
 31
0.0
  0
LINE
  5
25B40
330
253CB
100
AcDbEntity
  8
寸法
 62
     0
 48
50.0
370
    -2
100
AcDbLine
 10
7625.743526793911
 20
5671.907777930216
 30
0.0
 11
7625.743526793911
 21
5294.517895522425
 31
0.0
  0
INSERT
  5
25B41
330
253CB
100
AcDbEntity
  8
寸法
 62
     0
 48
50.0
370
    -2
100
AcDbBlockReference
  2
_DOTSMALL
 10
7625.743526793911
 20
5866.907777930205
 30
0.0
 41
100.0
 42
100.0
 43
100.0
 50
90.0
  0
INSERT
  5
25B42
330
253CB
100
AcDbEntity
  8
寸法
 62
     0
 48
50.0
370
    -2
100
AcDbBlockReference
  2
_DOTSMALL
 10
7625.743526793911
 20
5671.907777930216
 30
0.0
 41
100.0
 42
100.0
 43
100.0
 50
270.0
  0
MTEXT
  5
25B43
330
253CB
100
AcDbEntity
  8
寸法
 62
     7
 48
50.0
100
AcDbMText
 10
7525.743526793911
 20
5433.212836726323
 30
0.0
 40
120.0
 41
0.0
 71
     5
 72
     1
  1
\A1;195
  7
STYLE1
 11
0.0000000000000001
 21
1.0
 31
0.0
 73
     1
 44
1.0
1001
ACAD
1000
MTEXTBEGIN
1070
    73
1070
     1
1070
    44
1040
1.0
1070
    74
1070
     0
1000
MTEXTEND
  0
POINT
  5
25B44
330
253CB
100
AcDbEntity
  8
DEFPOINTS
 62
     0
 48
50.0
100
AcDbPoint
 10
7356.6
 20
5671.907777930216
 30
0.0
  0
POINT
  5
25B45
330
253CB
100
AcDbEntity
  8
DEFPOINTS
 62
     0
 48
50.0
100
AcDbPoint
 10
7356.6
 20
5866.907777930205
 30
0.0
  0
POINT
  5
25B46
330
253CB
100
AcDbEntity
  8
DEFPOINTS
 62
     0
 48
50.0
100
AcDbPoint
 10
7625.743526793911
 20
5866.907777930205
 30
0.0
  0
ENDBLK
  5
253D7
330
253CB
100
AcDbEntity
  8
0
 48
50.0
100
AcDbBlockEnd
  0
BLOCK
  5
25E6A
330
25E60
100
AcDbEntity
  8
0
 48
50.0
100
AcDbBlockBegin
  2
*D46
 70
     1
 10
0.0
 20
0.0
 30
0.0
  3
*D46
  1

  0
LINE
  5
25EAD
330
25E60
100
AcDbEntity
  8
寸法
 62
     0
 48
50.0
370
    -2
100
AcDbLine
 10
8432.037005952951
 20
2219.669524883293
 30
0.0
 11
8973.905605721794
 21
2219.669524883293
 31
0.0
  0
LINE
  5
25EAE
330
25E60
100
AcDbEntity
  8
寸法
 62
     0
 48
50.0
370
    -2
100
AcDbLine
 10
8432.037005952951
 20
1895.669524883292
 30
0.0
 11
8973.905605721794
 21
1895.669524883292
 31
0.0
  0
LINE
  5
25EAF
330
25E60
100
AcDbEntity
  8
寸法
 62
     0
 48
50.0
370
    -2
100
AcDbLine
 10
8913.905605721792
 20
2219.669524883293
 30
0.0
 11
8913.905605721792
 21
1895.669524883292
 31
0.0
  0
INSERT
  5
25EB0
330
25E60
100
AcDbEntity
  8
寸法
 62
     0
 48
50.0
370
    -2
100
AcDbBlockReference
  2
_DOTSMALL
 10
8913.905605721792
 20
2219.669524883293
 30
0.0
 41
100.0
 42
100.0
 43
100.0
 50
90.0
  0
INSERT
  5
25EB1
330
25E60
100
AcDbEntity
  8
寸法
 62
     0
 48
50.0
370
    -2
100
AcDbBlockReference
  2
_DOTSMALL
 10
8913.905605721792
 20
1895.669524883292
 30
0.0
 41
100.0
 42
100.0
 43
100.0
 50
270.0
  0
MTEXT
  5
25EB2
330
25E60
100
AcDbEntity
  8
寸法
 62
     7
 48
50.0
100
AcDbMText
 10
8813.905605721792
 20
2057.669524883294
 30
0.0
 40
120.0
 41
0.0
 71
     5
 72
     1
  1
\A1;180
  7
STYLE1
 11
0.0000000000000001
 21
1.0
 31
0.0
 73
     1
 44
1.0
1001
ACAD
1000
MTEXTBEGIN
1070
    73
1070
     1
1070
    44
1040
1.0
1070
    74
1070
     0
1000
MTEXTEND
  0
POINT
  5
25EB3
330
25E60
100
AcDbEntity
  8
DEFPOINTS
 62
     0
 48
50.0
100
AcDbPoint
 10
8412.037005952951
 20
2219.669524883293
 30
0.0
  0
POINT
  5
25EB4
330
25E60
100
AcDbEntity
  8
DEFPOINTS
 62
     0
 48
50.0
100
AcDbPoint
 10
8412.037005952951
 20
1895.669524883292
 30
0.0
  0
POINT
  5
25EB5
330
25E60
100
AcDbEntity
  8
DEFPOINTS
 62
     0
 48
50.0
100
AcDbPoint
 10
8913.905605721792
 20
1895.669524883292
 30
0.0
  0
ENDBLK
  5
25E6B
330
25E60
100
AcDbEntity
  8
0
 48
50.0
100
AcDbBlockEnd
  0
BLOCK
  5
25E7B
330
25E6C
100
AcDbEntity
  8
0
 48
50.0
100
AcDbBlockBegin
  2
*D47
 70
     1
 10
0.0
 20
0.0
 30
0.0
  3
*D47
  1

  0
LINE
  5
25EB6
330
25E6C
100
AcDbEntity
  8
寸法
 62
     0
 48
50.0
370
    -2
100
AcDbLine
 10
8244.837005952952
 20
2272.429524883294
 30
0.0
 11
8973.905605721794
 21
2272.429524883294
 31
0.0
  0
LINE
  5
25EB7
330
25E6C
100
AcDbEntity
  8
寸法
 62
     0
 48
50.0
370
    -2
100
AcDbLine
 10
8432.037005952951
 20
2219.669524883293
 30
0.0
 11
8973.905605721794
 21
2219.669524883293
 31
0.0
  0
LINE
  5
25EB8
330
25E6C
100
AcDbEntity
  8
寸法
 62
     0
 48
50.0
370
    -2
100
AcDbLine
 10
8913.905605721792
 20
2272.429524883294
 30
0.0
 11
8913.905605721792
 21
2372.429524883294
 31
0.0
  0
LINE
  5
25EB9
330
25E6C
100
AcDbEntity
  8
寸法
 62
     0
 48
50.0
370
    -2
100
AcDbLine
 10
8913.905605721792
 20
2219.669524883293
 30
0.0
 11
8913.905605721792
 21
2119.669524883293
 31
0.0
  0
LINE
  5
25EBA
330
25E6C
100
AcDbEntity
  8
寸法
 62
     0
 48
50.0
370
    -2
100
AcDbLine
 10
8913.905605721792
 20
2246.049524883293
 30
0.0
 11
9189.960271840821
 21
2234.54556727908
 31
0.0
  0
LINE
  5
25EBB
330
25E6C
100
AcDbEntity
  8
寸法
 62
     0
 48
50.0
370
    -2
100
AcDbLine
 10
9189.960271840821
 20
2234.54556727908
 30
0.0
 11
9189.960271840821
 21
1702.527760436114
 31
0.0
  0
MTEXT
  5
25EBC
330
25E6C
100
AcDbEntity
  8
寸法
 62
     7
 48
50.0
100
AcDbMText
 10
9089.948460817199
 20
1968.536663857598
 30
0.0
 40
120.0
 41
0.0
 71
     5
 72
     1
  1
\A1;20～25
  7
STYLE1
 11
0.0000000000000001
 21
1.0
 31
0.0
 73
     1
 44
1.0
1001
ACAD
1000
MTEXTBEGIN
1070
    73
1070
     1
1070
    44
1040
1.0
1070
    74
1070
     0
1000
MTEXTEND
  0
LINE
  5
25EBD
330
25E6C
100
AcDbEntity
  8
寸法
 62
     0
 48
50.0
370
    -2
100
AcDbLine
 10
8913.905605721792
 20
2272.429524883294
 30
0.0
 11
8913.905605721792
 21
2219.669524883293
 31
0.0
  0
LINE
  5
25EBE
330
25E6C
100
AcDbEntity
  8
寸法
 62
     0
 48
50.0
370
    -2
100
AcDbLine
 10
8913.905605721792
 20
2272.429524883294
 30
0.0
 11
8913.905605721792
 21
2219.669524883293
 31
0.0
  0
INSERT
  5
25EBF
330
25E6C
100
AcDbEntity
  8
寸法
 62
     0
 48
50.0
370
    -2
100
AcDbBlockReference
  2
_DOTSMALL
 10
8913.905605721792
 20
2272.429524883294
 30
0.0
 41
100.0
 42
100.0
 43
100.0
 50
270.0
  0
INSERT
  5
25EC0
330
25E6C
100
AcDbEntity
  8
寸法
 62
     0
 48
50.0
370
    -2
100
AcDbBlockReference
  2
_DOTSMALL
 10
8913.905605721792
 20
2219.669524883293
 30
0.0
 41
100.0
 42
100.0
 43
100.0
 50
90.0
  0
POINT
  5
25EC1
330
25E6C
100
AcDbEntity
  8
DEFPOINTS
 62
     0
 48
50.0
100
AcDbPoint
 10
8224.837005952952
 20
2272.429524883294
 30
0.0
  0
POINT
  5
25EC2
330
25E6C
100
AcDbEntity
  8
DEFPOINTS
 62
     0
 48
50.0
100
AcDbPoint
 10
8412.037005952951
 20
2219.669524883293
 30
0.0
  0
POINT
  5
25EC3
330
25E6C
100
AcDbEntity
  8
DEFPOINTS
 62
     0
 48
50.0
100
AcDbPoint
 10
8913.905605721792
 20
2219.669524883293
 30
0.0
  0
ENDBLK
  5
25E7C
330
25E6C
100
AcDbEntity
  8
0
 48
50.0
100
AcDbBlockEnd
  0
BLOCK
  5
25E87
330
25E7D
100
AcDbEntity
  8
0
 48
50.0
100
AcDbBlockBegin
  2
*D48
 70
     1
 10
0.0
 20
0.0
 30
0.0
  3
*D48
  1

  0
LINE
  5
25EC4
330
25E7D
100
AcDbEntity
  8
寸法
 62
     0
 48
50.0
370
    -2
100
AcDbLine
 10
6149.997692775756
 20
1675.669524883293
 30
0.0
 11
5967.577379043297
 21
1675.669524883293
 31
0.0
  0
LINE
  5
25EC5
330
25E7D
100
AcDbEntity
  8
寸法
 62
     0
 48
50.0
370
    -2
100
AcDbLine
 10
6069.99769277576
 20
1435.669524883293
 30
0.0
 11
5967.577379043297
 21
1435.669524883293
 31
0.0
  0
LINE
  5
25EC6
330
25E7D
100
AcDbEntity
  8
寸法
 62
     0
 48
50.0
370
    -2
100
AcDbLine
 10
6027.577379043297
 20
1675.669524883293
 30
0.0
 11
6027.577379043297
 21
1435.669524883293
 31
0.0
  0
MTEXT
  5
25EC7
330
25E7D
100
AcDbEntity
  8
寸法
 62
     7
 48
50.0
100
AcDbMText
 10
5927.577379043297
 20
1555.669524883293
 30
0.0
 40
120.0
 41
0.0
 71
     5
 72
     1
  1
\A1;150
  7
STYLE1
 11
0.0000000000000001
 21
1.0
 31
0.0
 73
     1
 44
1.0
1001
ACAD
1000
MTEXTBEGIN
1070
    73
1070
     1
1070
    44
1040
1.0
1070
    74
1070
     0
1000
MTEXTEND
  0
INSERT
  5
25EC8
330
25E7D
100
AcDbEntity
  8
寸法
 62
     0
 48
50.0
370
    -2
100
AcDbBlockReference
  2
_DOTSMALL
 10
6027.577379043297
 20
1675.669524883293
 30
0.0
 41
100.0
 42
100.0
 43
100.0
 50
90.0
  0
INSERT
  5
25EC9
330
25E7D
100
AcDbEntity
  8
寸法
 62
     0
 48
50.0
370
    -2
100
AcDbBlockReference
  2
_DOTSMALL
 10
6027.577379043297
 20
1435.669524883293
 30
0.0
 41
100.0
 42
100.0
 43
100.0
 50
270.0
  0
POINT
  5
25ECA
330
25E7D
100
AcDbEntity
  8
DEFPOINTS
 62
     0
 48
50.0
100
AcDbPoint
 10
6169.997692775756
 20
1675.669524883293
 30
0.0
  0
POINT
  5
25ECB
330
25E7D
100
AcDbEntity
  8
DEFPOINTS
 62
     0
 48
50.0
100
AcDbPoint
 10
6089.99769277576
 20
1435.669524883293
 30
0.0
  0
POINT
  5
25ECC
330
25E7D
100
AcDbEntity
  8
DEFPOINTS
 62
     0
 48
50.0
100
AcDbPoint
 10
6027.577379043297
 20
1435.669524883293
 30
0.0
  0
ENDBLK
  5
25E88
330
25E7D
100
AcDbEntity
  8
0
 48
50.0
100
AcDbBlockEnd
  0
BLOCK
  5
25E93
330
25E89
100
AcDbEntity
  8
0
 48
50.0
100
AcDbBlockBegin
  2
*D49
 70
     1
 10
0.0
 20
0.0
 30
0.0
  3
*D49
  1

  0
LINE
  5
25ECD
330
25E89
100
AcDbEntity
  8
寸法
 62
     0
 48
50.0
370
    -2
100
AcDbLine
 10
6277.997692775756
 20
2219.669524883293
 30
0.0
 11
5502.960454214016
 21
2219.669524883293
 31
0.0
  0
LINE
  5
25ECE
330
25E89
100
AcDbEntity
  8
寸法
 62
     0
 48
50.0
370
    -2
100
AcDbLine
 10
6069.99769277576
 20
1435.669524883293
 30
0.0
 11
5502.960454214015
 21
1435.669524883293
 31
0.0
  0
LINE
  5
25ECF
330
25E89
100
AcDbEntity
  8
寸法
 62
     0
 48
50.0
370
    -2
100
AcDbLine
 10
5562.960454214016
 20
2219.669524883293
 30
0.0
 11
5562.960454214015
 21
1435.669524883293
 31
0.0
  0
MTEXT
  5
25ED0
330
25E89
100
AcDbEntity
  8
寸法
 62
     7
 48
50.0
100
AcDbMText
 10
5462.960454214016
 20
1807.209674539294
 30
0.0
 40
120.0
 41
0.0
 71
     5
 72
     1
  1
\A1;540
  7
STYLE1
 11
0.0000000000000001
 21
1.0
 31
0.0
 73
     1
 44
1.0
1001
ACAD
1000
MTEXTBEGIN
1070
    73
1070
     1
1070
    44
1040
1.0
1070
    74
1070
     0
1000
MTEXTEND
  0
INSERT
  5
25ED1
330
25E89
100
AcDbEntity
  8
寸法
 62
     0
 48
50.0
370
    -2
100
AcDbBlockReference
  2
_DOTSMALL
 10
5562.960454214016
 20
2219.669524883293
 30
0.0
 41
100.0
 42
100.0
 43
100.0
 50
90.0
  0
INSERT
  5
25ED2
330
25E89
100
AcDbEntity
  8
寸法
 62
     0
 48
50.0
370
    -2
100
AcDbBlockReference
  2
_DOTSMALL
 10
5562.960454214015
 20
1435.669524883293
 30
0.0
 41
100.0
 42
100.0
 43
100.0
 50
270.0
  0
POINT
  5
25ED3
330
25E89
100
AcDbEntity
  8
DEFPOINTS
 62
     0
 48
50.0
100
AcDbPoint
 10
6297.997692775756
 20
2219.669524883293
 30
0.0
  0
POINT
  5
25ED4
330
25E89
100
AcDbEntity
  8
DEFPOINTS
 62
     0
 48
50.0
100
AcDbPoint
 10
6089.99769277576
 20
1435.669524883293
 30
0.0
  0
POINT
  5
25ED5
330
25E89
100
AcDbEntity
  8
DEFPOINTS
 62
     0
 48
50.0
100
AcDbPoint
 10
5562.960454214015
 20
1435.669524883293
 30
0.0
  0
ENDBLK
  5
25E94
330
25E89
100
AcDbEntity
  8
0
 48
50.0
100
AcDbBlockEnd
  0
BLOCK
  5
25E9F
330
25E95
100
AcDbEntity
  8
0
 48
50.0
100
AcDbBlockBegin
  2
*D50
 70
     1
 10
0.0
 20
0.0
 30
0.0
  3
*D50
  1

  0
LINE
  5
25ED6
330
25E95
100
AcDbEntity
  8
寸法
 62
     0
 48
50.0
370
    -2
100
AcDbLine
 10
6169.997692775756
 20
1287.669524883293
 30
0.0
 11
6169.997692775756
 21
837.2398868781328
 31
0.0
  0
LINE
  5
25ED7
330
25E95
100
AcDbEntity
  8
寸法
 62
     0
 48
50.0
370
    -2
100
AcDbLine
 10
6617.997692775756
 20
1287.669524883293
 30
0.0
 11
6617.997692775756
 21
837.2398868781328
 31
0.0
  0
LINE
  5
25ED8
330
25E95
100
AcDbEntity
  8
寸法
 62
     0
 48
50.0
370
    -2
100
AcDbLine
 10
6169.997692775756
 20
897.2398868781329
 30
0.0
 11
6617.997692775756
 21
897.2398868781329
 31
0.0
  0
MTEXT
  5
25ED9
330
25E95
100
AcDbEntity
  8
寸法
 62
     7
 48
50.0
100
AcDbMText
 10
6373.900934097533
 20
997.2398868781329
 30
0.0
 40
120.0
 41
0.0
 71
     5
 72
     1
  1
\A1;300
  7
STYLE1
 73
     1
 44
1.0
1001
ACAD
1000
MTEXTBEGIN
1070
    73
1070
     1
1070
    44
1040
1.0
1070
    74
1070
     0
1000
MTEXTEND
  0
INSERT
  5
25EDA
330
25E95
100
AcDbEntity
  8
寸法
 62
     0
 48
50.0
370
    -2
100
AcDbBlockReference
  2
_DOTSMALL
 10
6169.997692775756
 20
897.2398868781329
 30
0.0
 41
100.0
 42
100.0
 43
100.0
 50
180.0
  0
INSERT
  5
25EDB
330
25E95
100
AcDbEntity
  8
寸法
 62
     0
 48
50.0
370
    -2
100
AcDbBlockReference
  2
_DOTSMALL
 10
6617.997692775756
 20
897.2398868781329
 30
0.0
 41
100.0
 42
100.0
 43
100.0
  0
POINT
  5
25EDC
330
25E95
100
AcDbEntity
  8
DEFPOINTS
 62
     0
 48
50.0
100
AcDbPoint
 10
6169.997692775756
 20
1307.669524883293
 30
0.0
  0
POINT
  5
25EDD
330
25E95
100
AcDbEntity
  8
DEFPOINTS
 62
     0
 48
50.0
100
AcDbPoint
 10
6617.997692775756
 20
1307.669524883293
 30
0.0
  0
POINT
  5
25EDE
330
25E95
100
AcDbEntity
  8
DEFPOINTS
 62
     0
 48
50.0
100
AcDbPoint
 10
6617.997692775756
 20
897.2398868781329
 30
0.0
  0
ENDBLK
  5
25EA0
330
25E95
100
AcDbEntity
  8
0
 48
50.0
100
AcDbBlockEnd
  0
BLOCK
  5
25EAB
330
25EA1
100
AcDbEntity
  8
0
 48
50.0
100
AcDbBlockBegin
  2
*D51
 70
     1
 10
0.0
 20
0.0
 30
0.0
  3
*D51
  1

  0
LINE
  5
25EDF
330
25EA1
100
AcDbEntity
  8
寸法
 62
     0
 48
50.0
370
    -2
100
AcDbLine
 10
6489.997692775756
 20
2239.669524883293
 30
0.0
 11
6489.997692775756
 21
2599.669524883293
 31
0.0
  0
LINE
  5
25EE0
330
25EA1
100
AcDbEntity
  8
寸法
 62
     0
 48
50.0
370
    -2
100
AcDbLine
 10
6297.997692775756
 20
2239.669524883293
 30
0.0
 11
6297.997692775756
 21
2599.669524883293
 31
0.0
  0
LINE
  5
25EE1
330
25EA1
100
AcDbEntity
  8
寸法
 62
     0
 48
50.0
370
    -2
100
AcDbLine
 10
6489.997692775756
 20
2539.669524883293
 30
0.0
 11
6297.997692775756
 21
2539.669524883293
 31
0.0
  0
MTEXT
  5
25EE2
330
25EA1
100
AcDbEntity
  8
寸法
 62
     7
 48
50.0
100
AcDbMText
 10
6405.224023120954
 20
2839.349143823296
 30
0.0
 40
120.0
 41
0.0
 71
     5
 72
     1
  1
\A1;120\P195
  7
STYLE1
 73
     1
 44
1.0
1001
ACAD
1000
MTEXTBEGIN
1070
    73
1070
     1
1070
    44
1040
1.0
1070
    74
1070
     0
1000
MTEXTEND
  0
INSERT
  5
25EE3
330
25EA1
100
AcDbEntity
  8
寸法
 62
     0
 48
50.0
370
    -2
100
AcDbBlockReference
  2
_DOTSMALL
 10
6489.997692775756
 20
2539.669524883293
 30
0.0
 41
100.0
 42
100.0
 43
100.0
  0
INSERT
  5
25EE4
330
25EA1
100
AcDbEntity
  8
寸法
 62
     0
 48
50.0
370
    -2
100
AcDbBlockReference
  2
_DOTSMALL
 10
6297.997692775756
 20
2539.669524883293
 30
0.0
 41
100.0
 42
100.0
 43
100.0
 50
180.0
  0
POINT
  5
25EE5
330
25EA1
100
AcDbEntity
  8
DEFPOINTS
 62
     0
 48
50.0
100
AcDbPoint
 10
6489.997692775756
 20
2219.669524883293
 30
0.0
  0
POINT
  5
25EE6
330
25EA1
100
AcDbEntity
  8
DEFPOINTS
 62
     0
 48
50.0
100
AcDbPoint
 10
6297.997692775756
 20
2219.669524883293
 30
0.0
  0
POINT
  5
25EE7
330
25EA1
100
AcDbEntity
  8
DEFPOINTS
 62
     0
 48
50.0
100
AcDbPoint
 10
6297.997692775756
 20
2539.669524883293
 30
0.0
  0
ENDBLK
  5
25EAC
330
25EA1
100
AcDbEntity
  8
0
 48
50.0
100
AcDbBlockEnd
  0
ENDSEC
  0
SECTION
  2
ENTITIES
  0
MTEXT
  5
763F
330
747D
100
AcDbEntity
  8
0
100
AcDbMText
 10
302.846345836809
 20
280.1983726409901
 30
0.0
 40
3.5
 41
5.323721266742722
 71
     1
 72
     5
  1

  7
MSMINCHO
 73
     1
 44
1.0
1001
ACAD
1000
MTEXTBEGIN
1070
    73
1070
     1
1070
    44
1040
1.0
1070
    74
1070
     0
1000
MTEXTEND
  0
LINE
  5
10B57
330
747D
100
AcDbEntity
  8
補助
  6
PHANTOM
 62
   230
 48
50.0
100
AcDbLine
 10
139.9999999999995
 20
11409.6
 30
0.0
 11
16307.2
 21
11409.6
 31
0.0
  0
LINE
  5
10B59
330
747D
100
AcDbEntity
  8
仕様書枠
  6
Continuous
 48
50.0
100
AcDbLine
 10
13107.2
 20
1200.0
 30
0.0
 11
13107.2
 21
-0.0000000000000729
 31
0.0
  0
LINE
  5
10B5D
330
747D
100
AcDbEntity
  8
仕様書枠
 48
50.0
100
AcDbLine
 10
140.0
 20
0.0
 30
0.0
 11
16307.2
 21
-0.0000000000000909
 31
0.0
  0
LINE
  5
10B5E
330
747D
100
AcDbEntity
  8
補助
  6
PHANTOM
 62
   230
 48
50.0
100
AcDbLine
 10
16307.2
 20
11409.6
 30
0.0
 11
16307.2
 21
1200.0
 31
0.0
  0
LINE
  5
10B6C
330
747D
100
AcDbEntity
  8
仕様書枠
 48
50.0
100
AcDbLine
 10
13107.2
 20
1200.0
 30
0.0
 11
16307.2
 21
1200.0
 31
0.0
  0
TEXT
  5
10B73
330
747D
100
AcDbEntity
  8
文字
 62
     7
 48
50.0
100
AcDbText
 10
13162.9790565769
 20
895.0906074299405
 30
0.0
 40
200.0
  1
基 礎 図
  7
STYLE2
100
AcDbText
  0
LINE
  5
10B7B
330
747D
100
AcDbEntity
  8
仕様書枠
 48
50.0
100
AcDbLine
 10
13107.2
 20
800.0
 30
0.0
 11
14251.2
 21
800.0
 31
0.0
  0
LINE
  5
10B88
330
747D
100
AcDbEntity
  8
仕様書枠
  6
Continuous
 48
50.0
100
AcDbLine
 10
14251.2
 20
1200.0
 30
0.0
 11
14251.2
 21
800.0
 31
0.0
  0
LINE
  5
16462
330
747D
100
AcDbEntity
  8
仕様書枠
 48
50.0
100
AcDbLine
 10
16307.2
 20
1200.0
 30
0.0
 11
16307.2
 21
-0.0000000000000909
 31
0.0
  0
LINE
  5
1903B
330
747D
100
AcDbEntity
  8
補助
  6
PHANTOM
 62
   230
 48
50.0
100
AcDbLine
 10
140.0
 20
0.0
 30
0.0
 11
139.9999999999995
 21
11409.6
 31
0.0
  0
TEXT
  5
1C7A1
330
747D
100
AcDbEntity
  8
文字
 62
     7
 48
50.0
100
AcDbText
 10
13188.16259899338
 20
79.80631269190417
 30
0.0
 40
80.0
  1
※布基礎には換気口を設けてください。
  7
STYLE2
100
AcDbText
  0
TEXT
  5
1C7E7
330
747D
100
AcDbEntity
  8
文字
 62
     7
 48
50.0
100
AcDbText
 10
13188.16259899338
 20
246.7109242801889
 30
0.0
 40
80.0
  1
※寒冷地等は地域の実情に合わせた基礎にして下さい。
  7
STYLE2
100
AcDbText
  0
TEXT
  5
1C7E8
330
747D
100
AcDbEntity
  8
文字
 62
     7
 48
50.0
100
AcDbText
 10
14426.63426799155
 20
499.5983841039506
 30
0.0
 40
160.0
  1
ＮＸＮ－６０ＳＡ/ＨＡ
  7
STYLE2
100
AcDbText
  0
TEXT
  5
1C7E9
330
747D
100
AcDbEntity
  8
文字
 62
     7
 48
50.0
100
AcDbText
 10
14641.2525855784
 20
871.1744590657927
 30
0.0
 40
100.0
  1
～一般型・多雪地型～
  7
STYLE2
100
AcDbText
  0
TEXT
  5
1C7EC
330
747D
100
AcDbEntity
  8
文字
 62
     7
 48
50.0
100
AcDbText
 10
14524.131837222
 20
1031.557706291229
 30
0.0
 40
100.0
  1
 　    <縮尺> S=1/40
  7
STYLE2
100
AcDbText
  0
TEXT
  5
1C7ED
330
747D
100
AcDbEntity
  8
文字
 62
     7
 48
50.0
100
AcDbText
 10
13201.43669998441
 20
477.2740661031257
 30
0.0
 40
160.0
  1
機種名
  7
STYLE2
100
AcDbText
  0
LINE
  5
1C7EF
330
747D
100
AcDbEntity
  8
文字
 62
     7
 48
50.0
100
AcDbLine
 10
13187.2
 20
400.0
 30
0.0
 11
16227.2
 21
400.0
 31
0.0
  0
LINE
  5
241A9
330
747D
100
AcDbEntity
  8
部品1
 48
50.0
100
AcDbLine
 10
6903.6
 20
5746.9077779302
 30
0.0
 11
7356.6
 21
5746.9077779302
 31
0.0
  0
DIMENSION
  5
241AA
330
747D
100
AcDbEntity
  8
寸法
 48
50.0
100
AcDbDimension
  2
*D19
 10
6903.6
 20
5042.748662820251
 30
0.0
 11
7130.1
 21
5142.748662820251
 31
0.0
 70
    32
 71
     5
 42
453.0
  3
INABA_S40G
100
AcDbAlignedDimension
 13
7356.6
 23
5671.907777930218
 33
0.0
 14
6903.6
 24
5746.9077779302
 34
0.0
100
AcDbRotatedDimension
1001
ACAD
1000
DSTYLE
1002
{
1070
   174
1070
     0
1070
   272
1070
     1
1070
   341
1005
0
1002
}
  0
DIMENSION
  5
241AB
330
747D
100
AcDbEntity
  8
寸法
 48
50.0
100
AcDbDimension
  2
*D20
 10
7350.307249876099
 20
7966.9077779302
 30
0.0
 11
7350.307249876097
 21
8244.991321203086
 31
0.0
 70
   160
 71
     5
 42
120.0000000000036
  3
INABA_S40G
100
AcDbAlignedDimension
 13
7133.6
 23
7846.907777930197
 33
0.0
 14
7133.6
 24
7966.9077779302
 34
0.0
 50
90.0
100
AcDbRotatedDimension
1001
ACAD
1000
DSTYLE
1002
{
1070
   174
1070
     0
1070
   272
1070
     1
1070
   341
1005
0
1002
}
  0
LINE
  5
241AC
330
747D
100
AcDbEntity
  8
部品1
 48
50.0
100
AcDbLine
 10
7302.928907166848
 20
7966.907777930195
 30
0.0
 11
6903.6
 21
7966.9077779302
 31
0.0
  0
DIMENSION
  5
241AD
330
747D
100
AcDbEntity
  8
寸法
 48
50.0
100
AcDbDimension
  2
*D21
 10
7026.600000000001
 20
8712.667404472282
 30
0.0
 11
8223.600000000001
 21
8812.679215495903
 31
0.0
 70
    32
 71
     5
 42
2394.0
  3
INABA_S40G
100
AcDbAlignedDimension
 13
9420.6
 23
7893.907777930199
 33
0.0
 14
7026.600000000001
 24
7893.907777930199
 34
0.0
100
AcDbRotatedDimension
1001
ACAD
1000
DSTYLE
1002
{
1070
   174
1070
     0
1070
   272
1070
     1
1070
   341
1005
0
1002
}
  0
DIMENSION
  5
241AF
330
747D
100
AcDbEntity
  8
寸法
 48
50.0
100
AcDbDimension
  2
*D22
 10
7250.431144686331
 20
5746.9077779302
 30
0.0
 11
7250.43114468633
 21
5468.824234657314
 31
0.0
 70
   160
 71
     5
 42
120.0000000000073
  3
INABA_S40G
100
AcDbAlignedDimension
 13
7133.6
 23
5866.907777930207
 33
0.0
 14
7133.6
 24
5746.9077779302
 34
0.0
 50
90.0
100
AcDbRotatedDimension
1001
ACAD
1000
DSTYLE
1002
{
1070
   174
1070
     0
1070
   272
1070
     1
1070
   341
1005
0
1002
}
  0
DIMENSION
  5
241B0
330
747D
100
AcDbEntity
  8
寸法
 48
50.0
100
AcDbDimension
  2
*D23
 10
7250.431144686331
 20
5976.907777930204
 30
0.0
 11
7250.43114468633
 21
6316.966833048319
 31
0.0
 70
   160
 71
     5
 42
110.0
  3
INABA_S40G
100
AcDbAlignedDimension
 13
7133.6
 23
5866.907777930204
 33
0.0
 14
7133.6
 24
5976.907777930204
 34
0.0
 50
90.0
100
AcDbRotatedDimension
1001
ACAD
1000
DSTYLE
1002
{
1070
   174
1070
     0
1070
   272
1070
     1
1070
   341
1005
0
1002
}
  0
DIMENSION
  5
241B2
330
747D
100
AcDbEntity
  8
寸法
 48
50.0
100
AcDbDimension
  2
*D24
 10
6903.6
 20
8493.817543578527
 30
0.0
 11
7356.100000000001
 21
8593.817543578527
 31
0.0
 70
    32
 71
     5
 42
905.0
  3
INABA_S40G
100
AcDbAlignedDimension
 13
7808.6
 23
7431.907777930199
 33
0.0
 14
6903.6
 24
7966.9077779302
 34
0.0
100
AcDbRotatedDimension
1001
ACAD
1000
DSTYLE
1002
{
1070
   174
1070
     0
1070
   272
1070
     1
1070
   341
1005
0
1002
}
  0
DIMENSION
  5
241B3
330
747D
100
AcDbEntity
  8
寸法
 48
50.0
100
AcDbDimension
  2
*D25
 10
7350.3072498761
 20
7736.907777930196
 30
0.0
 11
7350.307249876097
 21
7396.848722812084
 31
0.0
 70
   160
 71
     5
 42
110.0000000000036
  3
INABA_S40G
100
AcDbAlignedDimension
 13
7133.6
 23
7846.9077779302
 33
0.0
 14
7133.6
 24
7736.907777930196
 34
0.0
 50
90.0
100
AcDbRotatedDimension
1001
ACAD
1000
DSTYLE
1002
{
1070
   174
1070
     0
1070
   272
1070
     1
1070
   341
1005
0
1002
}
  0
DIMENSION
  5
241B4
330
747D
100
AcDbEntity
  8
寸法
 48
50.0
100
AcDbDimension
  2
*D26
 10
9543.600000000001
 20
8925.128099989121
 30
0.0
 11
8223.600000000001
 21
9025.139911012741
 31
0.0
 70
    32
 71
     5
 42
2640.0
  3
INABA_S40G
100
AcDbAlignedDimension
 13
6903.6
 23
7966.9077779302
 33
0.0
 14
9543.600000000001
 24
7966.9077779302
 34
0.0
100
AcDbRotatedDimension
1001
ACAD
1000
DSTYLE
1002
{
1070
   174
1070
     0
1070
   272
1070
     1
1070
   341
1005
0
1002
}
  0
LINE
  5
241B5
102
{ACAD_REACTORS
330
25B5D
102
}
330
747D
100
AcDbEntity
  8
部品1
 48
50.0
100
AcDbLine
 10
9543.600000000001
 20
7966.9077779302
 30
0.0
 11
6903.6
 21
7966.9077779302
 31
0.0
  0
DIMENSION
  5
241B8
330
747D
100
AcDbEntity
  8
寸法
 48
50.0
100
AcDbDimension
  2
*D27
 10
6903.6
 20
8712.667404472282
 30
0.0
 11
6630.493398282202
 21
8712.667404472282
 31
0.0
 70
   160
 71
     5
 42
123.0
  3
INABA_S40G
100
AcDbAlignedDimension
 13
7026.600000000001
 23
7893.907777930199
 33
0.0
 14
6903.6
 24
7966.9077779302
 34
0.0
100
AcDbRotatedDimension
1001
ACAD
1000
DSTYLE
1002
{
1070
   174
1070
     0
1070
   272
1070
     1
1070
   341
1005
0
1002
}
  0
DIMENSION
  5
241B9
330
747D
100
AcDbEntity
  8
寸法
 48
50.0
100
AcDbDimension
  2
*D28
 10
6903.6
 20
8925.128099989121
 30
0.0
 11
6587.425378797542
 21
8925.128099989121
 31
0.0
 70
   160
  1
a
 71
     5
 42
50.0
  3
INABA_S40G
100
AcDbAlignedDimension
 13
6853.6
 23
8712.667404472279
 33
0.0
 14
6903.6
 24
7966.9077779302
 34
0.0
100
AcDbRotatedDimension
1001
ACAD
1000
DSTYLE
1002
{
1070
   174
1070
     0
1070
   272
1070
     1
1070
   341
1005
0
1002
}
  0
DIMENSION
  5
241BA
330
747D
100
AcDbEntity
  8
寸法
 48
50.0
100
AcDbDimension
  2
*D29
 10
5874.741879814365
 20
5869.907777930201
 30
0.0
 11
5874.741879814365
 21
6891.907777930199
 31
0.0
 70
   160
 71
     5
 42
1974.0
  3
INABA_S40G
100
AcDbAlignedDimension
 13
6976.600000000001
 23
7843.907777930199
 33
0.0
 14
6976.600000000008
 24
5869.9077779302
 34
0.0
 50
90.0
100
AcDbRotatedDimension
1001
ACAD
1000
DSTYLE
1002
{
1070
   174
1070
     0
1070
   272
1070
     1
1070
   341
1005
0
1002
}
  0
DIMENSION
  5
241BB
330
747D
100
AcDbEntity
  8
寸法
 48
50.0
100
AcDbDimension
  2
*D30
 10
5622.798783094967
 20
7966.907777930201
 30
0.0
 11
5622.798783094966
 21
6821.907777930201
 31
0.0
 70
   160
 71
     5
 42
2220.0
  3
INABA_S40G
100
AcDbAlignedDimension
 13
6903.6
 23
5746.9077779302
 33
0.0
 14
6903.6
 24
7966.9077779302
 34
0.0
 50
90.0
100
AcDbRotatedDimension
1001
ACAD
1000
DSTYLE
1002
{
1070
   174
1070
     0
1070
   272
1070
     1
1070
   341
1005
0
1002
}
  0
LINE
  5
241BC
102
{ACAD_REACTORS
330
25B74
102
}
330
747D
100
AcDbEntity
  8
部品1
 48
50.0
100
AcDbLine
 10
6903.6
 20
5746.9077779302
 30
0.0
 11
6903.6
 21
7966.9077779302
 31
0.0
  0
DIMENSION
  5
241BF
330
747D
100
AcDbEntity
  8
寸法
 48
50.0
100
AcDbDimension
  2
*D31
 10
5622.798783094968
 20
5746.9077779302
 30
0.0
 11
5622.798783094967
 21
5709.407777930212
 31
0.0
 70
   160
  1
c
 71
     5
 42
74.99999999997999
  3
INABA_S40G
100
AcDbAlignedDimension
 13
5874.741879814365
 23
5671.907777930221
 33
0.0
 14
6903.6
 24
5746.9077779302
 34
0.0
 50
90.0
100
AcDbRotatedDimension
1001
ACAD
1000
DSTYLE
1002
{
1070
   174
1070
     0
1070
   272
1070
     1
1070
   341
1005
0
1002
}
  0
DIMENSION
  5
241C0
330
747D
100
AcDbEntity
  8
寸法
 48
50.0
100
AcDbDimension
  2
*D32
 10
5874.741879814365
 20
5746.9077779302
 30
0.0
 11
5874.741879814365
 21
5473.801176212401
 31
0.0
 70
   160
 71
     5
 42
123.0
  3
INABA_S40G
100
AcDbAlignedDimension
 13
6976.600000000008
 23
5869.9077779302
 33
0.0
 14
6903.6
 24
5746.9077779302
 34
0.0
 50
90.0
100
AcDbRotatedDimension
1001
ACAD
1000
DSTYLE
1002
{
1070
   174
1070
     0
1070
   272
1070
     1
1070
   341
1005
0
1002
}
  0
LINE
  5
241C1
330
747D
100
AcDbEntity
  8
センター
 48
2.0
100
AcDbLine
 10
7026.600000000008
 20
5919.9077779302
 30
0.0
 11
7026.600000000008
 21
5819.9077779302
 31
0.0
  0
LINE
  5
241C2
330
747D
100
AcDbEntity
  8
部品1
 48
50.0
100
AcDbLine
 10
7133.6
 20
5866.907777930204
 30
0.0
 11
7133.6
 21
5976.907777930204
 31
0.0
  0
CIRCLE
  5
241C3
330
747D
100
AcDbEntity
  8
部品1
 48
50.0
100
AcDbCircle
 10
7026.600000000008
 20
5869.9077779302
 30
0.0
 40
35.0
  0
LINE
  5
241C4
330
747D
100
AcDbEntity
  8
センター
 48
2.0
100
AcDbLine
 10
6976.600000000008
 20
5869.9077779302
 30
0.0
 11
7076.600000000007
 21
5869.9077779302
 31
0.0
  0
LINE
  5
241C5
330
747D
100
AcDbEntity
  8
部品1
 48
50.0
100
AcDbLine
 10
7133.6
 20
5976.907777930204
 30
0.0
 11
7023.600000000001
 21
5976.907777930201
 31
0.0
  0
LINE
  5
241C7
102
{ACAD_REACTORS
330
25B74
102
}
330
747D
100
AcDbEntity
  8
部品1
 48
50.0
100
AcDbLine
 10
7023.6
 20
6756.907777930209
 30
0.0
 11
6903.6
 21
6756.907777930209
 31
0.0
  0
LINE
  5
241C8
102
{ACAD_REACTORS
330
25B74
102
}
330
747D
100
AcDbEntity
  8
部品1
 48
50.0
100
AcDbLine
 10
7023.6
 20
6956.907777930208
 30
0.0
 11
6903.6
 21
6956.907777930209
 31
0.0
  0
DIMENSION
  5
241C9
330
747D
100
AcDbEntity
  8
寸法
 48
50.0
100
AcDbDimension
  2
*D33
 10
5874.741879814365
 20
7843.907777930201
 30
0.0
 11
5874.741879814365
 21
8280.014379647997
 31
0.0
 70
   160
 71
     5
 42
123.0
  3
INABA_S40G
100
AcDbAlignedDimension
 13
6903.6
 23
7966.9077779302
 33
0.0
 14
6976.600000000001
 24
7843.907777930199
 34
0.0
 50
90.0
100
AcDbRotatedDimension
1001
ACAD
1000
DSTYLE
1002
{
1070
   174
1070
     0
1070
   272
1070
     1
1070
   341
1005
0
1002
}
  0
DIMENSION
  5
241CA
330
747D
100
AcDbEntity
  8
寸法
 48
50.0
100
AcDbDimension
  2
*D34
 10
5622.798783094968
 20
8021.9077779302
 30
0.0
 11
5622.798783094967
 21
7994.407777930202
 31
0.0
 70
   160
  1
b
 71
     5
 42
55.0
  3
INABA_S40G
100
AcDbAlignedDimension
 13
6903.6
 23
7966.9077779302
 33
0.0
 14
5874.741879814365
 24
8021.9077779302
 34
0.0
 50
90.0
100
AcDbRotatedDimension
1001
ACAD
1000
DSTYLE
1002
{
1070
   174
1070
     0
1070
   272
1070
     1
1070
   341
1005
0
1002
}
  0
LINE
  5
241CB
330
747D
100
AcDbEntity
  8
センター
 48
2.0
100
AcDbLine
 10
6976.600000000001
 20
7843.907777930199
 30
0.0
 11
7076.6
 21
7843.907777930199
 31
0.0
  0
CIRCLE
  5
241CC
330
747D
100
AcDbEntity
  8
部品1
 48
50.0
100
AcDbCircle
 10
7026.600000000001
 20
7843.907777930199
 30
0.0
 40
35.0
  0
LINE
  5
241CD
330
747D
100
AcDbEntity
  8
部品1
 48
50.0
100
AcDbLine
 10
7133.6
 20
7736.907777930196
 30
0.0
 11
7133.6
 21
7846.907777930201
 31
0.0
  0
LINE
  5
241CE
330
747D
100
AcDbEntity
  8
センター
 48
2.0
100
AcDbLine
 10
7026.600000000001
 20
7893.907777930199
 30
0.0
 11
7026.600000000001
 21
7793.9077779302
 31
0.0
  0
LINE
  5
241CF
330
747D
100
AcDbEntity
  8
部品1
 48
50.0
100
AcDbLine
 10
7133.6
 20
7736.907777930196
 30
0.0
 11
7023.600000000001
 21
7736.9077779302
 31
0.0
  0
DIMENSION
  5
241D0
330
747D
100
AcDbEntity
  8
寸法
 48
50.0
100
AcDbDimension
  2
*D35
 10
9593.6
 20
8925.128099989121
 30
0.0
 11
9859.774621202461
 21
8925.128099989121
 31
0.0
 70
   160
  1
a
 71
     5
 42
50.0
  3
INABA_S40G
100
AcDbAlignedDimension
 13
9543.600000000001
 23
7966.9077779302
 33
0.0
 14
9593.6
 24
8712.667404472286
 34
0.0
100
AcDbRotatedDimension
1001
ACAD
1000
DSTYLE
1002
{
1070
   174
1070
     0
1070
   272
1070
     1
1070
   341
1005
0
1002
}
  0
DIMENSION
  5
241D1
330
747D
100
AcDbEntity
  8
寸法
 48
50.0
100
AcDbDimension
  2
*D36
 10
7808.6
 20
8493.817543578527
 30
0.0
 11
8223.600000000001
 21
8593.817543578527
 31
0.0
 70
    32
 71
     5
 42
830.0
  3
INABA_S40G
100
AcDbAlignedDimension
 13
8638.600000000002
 23
7431.907777930199
 33
0.0
 14
7808.6
 24
7431.907777930199
 34
0.0
100
AcDbRotatedDimension
1001
ACAD
1000
DSTYLE
1002
{
1070
   174
1070
     0
1070
   272
1070
     1
1070
   341
1005
0
1002
}
  0
DIMENSION
  5
241D2
330
747D
100
AcDbEntity
  8
寸法
 48
50.0
100
AcDbDimension
  2
*D37
 10
8638.600000000002
 20
8493.817543578527
 30
0.0
 11
9114.51852200628
 21
8493.817543578527
 31
0.0
 70
   160
 71
     5
 42
905.0
  3
INABA_S40G
100
AcDbAlignedDimension
 13
9543.600000000001
 23
7966.9077779302
 33
0.0
 14
8638.600000000002
 24
7431.907777930199
 34
0.0
100
AcDbRotatedDimension
1001
ACAD
1000
DSTYLE
1002
{
1070
   174
1070
     0
1070
   272
1070
     1
1070
   341
1005
0
1002
}
  0
DIMENSION
  5
241D3
330
747D
100
AcDbEntity
  8
寸法
 48
50.0
100
AcDbDimension
  2
*D38
 10
9420.6
 20
8712.667404472282
 30
0.0
 11
9816.706601717799
 21
8712.667404472282
 31
0.0
 70
   160
 71
     5
 42
123.0
  3
INABA_S40G
100
AcDbAlignedDimension
 13
9543.600000000001
 23
7966.9077779302
 33
0.0
 14
9420.6
 24
7893.907777930199
 34
0.0
100
AcDbRotatedDimension
1001
ACAD
1000
DSTYLE
1002
{
1070
   174
1070
     0
1070
   272
1070
     1
1070
   341
1005
0
1002
}
  0
LINE
  5
241D4
102
{ACAD_REACTORS
330
25BA2
102
}
330
747D
100
AcDbEntity
  8
部品1
 48
50.0
100
AcDbLine
 10
9543.600000000001
 20
5746.907777930218
 30
0.0
 11
9543.600000000001
 21
7966.9077779302
 31
0.0
  0
LINE
  5
241D5
330
747D
100
AcDbEntity
  8
想像線
 48
10.0
100
AcDbLine
 10
9593.600000000002
 20
8021.907777930204
 30
0.0
 11
9593.6
 21
5671.907777930217
 31
0.0
  0
DIMENSION
  5
241D6
330
747D
100
AcDbEntity
  8
寸法
 48
50.0
100
AcDbDimension
  2
*D39
 10
6177.300192104942
 20
6481.907777930199
 30
0.0
 11
6177.30019210494
 21
6114.407777930209
 31
0.0
 70
   160
 71
     5
 42
735.0
  3
INABA_S40G
100
AcDbAlignedDimension
 13
6903.6
 23
5746.9077779302
 33
0.0
 14
7708.6
 24
6481.907777930199
 34
0.0
 50
90.0
100
AcDbRotatedDimension
1001
ACAD
1000
DSTYLE
1002
{
1070
   174
1070
     0
1070
   272
1070
     1
1070
   341
1005
0
1002
}
  0
LINE
  5
241DB
102
{ACAD_REACTORS
330
25B8B
102
}
330
747D
100
AcDbEntity
  8
部品1
 48
50.0
100
AcDbLine
 10
9543.600000000001
 20
5671.907777930219
 30
0.0
 11
7356.6
 21
5671.907777930202
 31
0.0
  0
LINE
  5
241DF
330
747D
100
AcDbEntity
  8
部品1
 48
50.0
100
AcDbLine
 10
7356.6
 20
5671.907777930218
 30
0.0
 11
7356.6
 21
5746.907777930202
 31
0.0
  0
LINE
  5
241E2
102
{ACAD_REACTORS
330
25B8B
102
}
330
747D
100
AcDbEntity
  8
部品1
 48
50.0
100
AcDbLine
 10
8123.600000000015
 20
5671.907777930209
 30
0.0
 11
8123.600000000021
 21
5866.907777930208
 31
0.0
  0
LINE
  5
241E3
102
{ACAD_REACTORS
330
25B8B
102
}
330
747D
100
AcDbEntity
  8
部品1
 48
50.0
100
AcDbLine
 10
8323.600000000014
 20
5671.90777793021
 30
0.0
 11
8323.600000000018
 21
5866.907777930208
 31
0.0
  0
LINE
  5
241E6
330
747D
100
AcDbEntity
  8
部品1
 48
50.0
100
AcDbLine
 10
9313.6
 20
5866.907777930214
 30
0.0
 11
9313.6
 21
5976.907777930218
 31
0.0
  0
LINE
  5
241E7
330
747D
100
AcDbEntity
  8
センター
 48
2.0
100
AcDbLine
 10
9420.600000000007
 20
5919.9077779302
 30
0.0
 11
9420.600000000007
 21
5819.9077779302
 31
0.0
  0
LINE
  5
241E8
330
747D
100
AcDbEntity
  8
センター
 48
2.0
100
AcDbLine
 10
9370.600000000008
 20
5869.9077779302
 30
0.0
 11
9470.600000000008
 21
5869.9077779302
 31
0.0
  0
CIRCLE
  5
241E9
330
747D
100
AcDbEntity
  8
部品1
 48
50.0
100
AcDbCircle
 10
9420.600000000007
 20
5869.9077779302
 30
0.0
 40
35.0
  0
LINE
  5
241EA
330
747D
100
AcDbEntity
  8
部品1
 48
50.0
100
AcDbLine
 10
9543.600000000001
 20
5671.907777930222
 30
0.0
 11
9543.600000000001
 21
5746.907777930218
 31
0.0
  0
LINE
  5
241EB
330
747D
100
AcDbEntity
  8
部品1
 48
50.0
100
AcDbLine
 10
9423.6
 20
5976.907777930218
 30
0.0
 11
9313.6
 21
5976.907777930218
 31
0.0
  0
LINE
  5
241EE
330
747D
100
AcDbEntity
  8
部品1
 48
50.0
100
AcDbLine
 10
8738.600000000001
 20
7031.907777930199
 30
0.0
 11
8738.600000000001
 21
7431.907777930199
 31
0.0
  0
LINE
  5
241EF
330
747D
100
AcDbEntity
  8
部品1
 48
50.0
100
AcDbLine
 10
8538.6
 20
7031.907777930199
 30
0.0
 11
8538.6
 21
7431.907777930199
 31
0.0
  0
LINE
  5
241F0
330
747D
100
AcDbEntity
  8
部品1
 48
50.0
100
AcDbLine
 10
7908.599999999999
 20
7031.907777930199
 30
0.0
 11
7908.599999999999
 21
7431.907777930199
 31
0.0
  0
LINE
  5
241F1
330
747D
100
AcDbEntity
  8
部品1
 48
50.0
100
AcDbLine
 10
7708.6
 20
7031.907777930199
 30
0.0
 11
7708.6
 21
7431.907777930199
 31
0.0
  0
DIMENSION
  5
241F2
330
747D
100
AcDbEntity
  8
寸法
 48
50.0
100
AcDbDimension
  2
*D40
 10
6177.30019210494
 20
7966.907777930206
 30
0.0
 11
6177.30019210494
 21
7599.407777930206
 31
0.0
 70
   160
 71
     5
 42
735.0
  3
INABA_S40G
100
AcDbAlignedDimension
 13
7708.6
 23
7231.907777930205
 33
0.0
 14
6903.6
 24
7966.907777930206
 34
0.0
 50
90.0
100
AcDbRotatedDimension
1001
ACAD
1000
DSTYLE
1002
{
1070
   174
1070
     0
1070
   272
1070
     1
1070
   341
1005
0
1002
}
  0
DIMENSION
  5
241F3
330
747D
100
AcDbEntity
  8
寸法
 48
50.0
100
AcDbDimension
  2
*D41
 10
6177.30019210494
 20
6481.907777930199
 30
0.0
 11
6177.300192104938
 21
6856.907777930207
 31
0.0
 70
   160
 71
     5
 42
750.0000000000055
  3
INABA_S40G
100
AcDbAlignedDimension
 13
7708.6
 23
7231.907777930205
 33
0.0
 14
7708.6
 24
6481.907777930199
 34
0.0
 50
90.0
100
AcDbRotatedDimension
1001
ACAD
1000
DSTYLE
1002
{
1070
   174
1070
     0
1070
   272
1070
     1
1070
   341
1005
0
1002
}
  0
LINE
  5
241F4
330
747D
100
AcDbEntity
  8
部品1
 48
50.0
100
AcDbLine
 10
7908.599999999999
 20
6281.9077779302
 30
0.0
 11
7908.599999999999
 21
6681.907777930199
 31
0.0
  0
LINE
  5
241F5
330
747D
100
AcDbEntity
  8
センター
 48
2.0
100
AcDbLine
 10
7808.6
 20
6531.907777930199
 30
0.0
 11
7808.6
 21
6431.907777930199
 31
0.0
  0
LINE
  5
241F6
330
747D
100
AcDbEntity
  8
部品1
 48
50.0
100
AcDbLine
 10
7708.6
 20
6281.9077779302
 30
0.0
 11
7708.6
 21
6681.907777930199
 31
0.0
  0
LINE
  5
241F7
330
747D
100
AcDbEntity
  8
部品1
 48
50.0
100
AcDbLine
 10
7908.599999999999
 20
6281.9077779302
 30
0.0
 11
7708.6
 21
6281.9077779302
 31
0.0
  0
LINE
  5
241F8
330
747D
100
AcDbEntity
  8
センター
 48
2.0
100
AcDbLine
 10
7758.6
 20
6481.907777930199
 30
0.0
 11
7858.6
 21
6481.907777930199
 31
0.0
  0
LINE
  5
241F9
330
747D
100
AcDbEntity
  8
部品1
 48
50.0
100
AcDbLine
 10
7908.599999999999
 20
6681.907777930199
 30
0.0
 11
7708.6
 21
6681.907777930199
 31
0.0
  0
LINE
  5
241FA
330
747D
100
AcDbEntity
  8
部品1
 48
50.0
100
AcDbLine
 10
7908.599999999999
 20
7031.907777930199
 30
0.0
 11
7708.6
 21
7031.907777930199
 31
0.0
  0
LINE
  5
241FB
330
747D
100
AcDbEntity
  8
センター
 48
2.0
100
AcDbLine
 10
7758.6
 20
7231.907777930199
 30
0.0
 11
7858.6
 21
7231.907777930199
 31
0.0
  0
LINE
  5
241FC
330
747D
100
AcDbEntity
  8
センター
 48
2.0
100
AcDbLine
 10
7808.6
 20
7281.907777930199
 30
0.0
 11
7808.6
 21
7181.907777930199
 31
0.0
  0
LINE
  5
241FD
330
747D
100
AcDbEntity
  8
センター
 48
2.0
100
AcDbLine
 10
8638.600000000002
 20
6531.907777930199
 30
0.0
 11
8638.600000000002
 21
6431.907777930199
 31
0.0
  0
LINE
  5
241FE
330
747D
100
AcDbEntity
  8
部品1
 48
50.0
100
AcDbLine
 10
8538.6
 20
6281.9077779302
 30
0.0
 11
8538.6
 21
6681.907777930199
 31
0.0
  0
LINE
  5
241FF
330
747D
100
AcDbEntity
  8
部品1
 48
50.0
100
AcDbLine
 10
8738.600000000001
 20
6281.9077779302
 30
0.0
 11
8738.600000000001
 21
6681.907777930199
 31
0.0
  0
LINE
  5
24200
330
747D
100
AcDbEntity
  8
センター
 48
2.0
100
AcDbLine
 10
8588.600000000001
 20
6481.907777930199
 30
0.0
 11
8688.6
 21
6481.907777930199
 31
0.0
  0
LINE
  5
24201
330
747D
100
AcDbEntity
  8
部品1
 48
50.0
100
AcDbLine
 10
8738.600000000001
 20
6281.9077779302
 30
0.0
 11
8538.6
 21
6281.9077779302
 31
0.0
  0
LINE
  5
24202
330
747D
100
AcDbEntity
  8
部品1
 48
50.0
100
AcDbLine
 10
8738.600000000001
 20
6681.907777930199
 30
0.0
 11
8538.6
 21
6681.907777930199
 31
0.0
  0
LINE
  5
24203
330
747D
100
AcDbEntity
  8
部品1
 48
50.0
100
AcDbLine
 10
8738.600000000001
 20
7031.907777930199
 30
0.0
 11
8538.6
 21
7031.907777930199
 31
0.0
  0
LINE
  5
24204
330
747D
100
AcDbEntity
  8
センター
 48
2.0
100
AcDbLine
 10
8588.600000000001
 20
7231.907777930199
 30
0.0
 11
8688.6
 21
7231.907777930199
 31
0.0
  0
LINE
  5
24205
330
747D
100
AcDbEntity
  8
センター
 48
2.0
100
AcDbLine
 10
8638.600000000002
 20
7281.907777930199
 30
0.0
 11
8638.600000000002
 21
7181.907777930199
 31
0.0
  0
LINE
  5
24206
330
747D
100
AcDbEntity
  8
部品1
 48
50.0
100
AcDbLine
 10
7908.599999999999
 20
7431.907777930199
 30
0.0
 11
7708.6
 21
7431.907777930199
 31
0.0
  0
LINE
  5
24208
102
{ACAD_REACTORS
330
25B5D
102
}
330
747D
100
AcDbEntity
  8
部品1
 48
50.0
100
AcDbLine
 10
8123.599999999999
 20
7846.907777930198
 30
0.0
 11
8123.600000000001
 21
7966.9077779302
 31
0.0
  0
LINE
  5
24209
102
{ACAD_REACTORS
330
25B5D
102
}
330
747D
100
AcDbEntity
  8
部品1
 48
50.0
100
AcDbLine
 10
8323.599999999998
 20
7846.907777930198
 30
0.0
 11
8323.6
 21
7966.9077779302
 31
0.0
  0
LINE
  5
2420A
330
747D
100
AcDbEntity
  8
部品1
 48
50.0
100
AcDbLine
 10
8738.600000000001
 20
7431.907777930199
 30
0.0
 11
8538.6
 21
7431.907777930199
 31
0.0
  0
LINE
  5
2420C
102
{ACAD_REACTORS
330
25BA2
102
}
330
747D
100
AcDbEntity
  8
部品1
 48
50.0
100
AcDbLine
 10
9543.600000000001
 20
6756.907777930209
 30
0.0
 11
9423.6
 21
6756.907777930209
 31
0.0
  0
LINE
  5
2420D
102
{ACAD_REACTORS
330
25BA2
102
}
330
747D
100
AcDbEntity
  8
部品1
 48
50.0
100
AcDbLine
 10
9543.600000000001
 20
6956.907777930209
 30
0.0
 11
9423.6
 21
6956.907777930208
 31
0.0
  0
LINE
  5
24210
330
747D
100
AcDbEntity
  8
センター
 48
2.0
100
AcDbLine
 10
9370.600000000001
 20
7843.907777930199
 30
0.0
 11
9470.600000000001
 21
7843.907777930199
 31
0.0
  0
LINE
  5
24211
330
747D
100
AcDbEntity
  8
部品1
 48
50.0
100
AcDbLine
 10
9423.6
 20
7736.9077779302
 30
0.0
 11
9313.6
 21
7736.9077779302
 31
0.0
  0
LINE
  5
24212
330
747D
100
AcDbEntity
  8
部品1
 48
50.0
100
AcDbLine
 10
9313.6
 20
7736.9077779302
 30
0.0
 11
9313.6
 21
7846.907777930198
 31
0.0
  0
CIRCLE
  5
24213
330
747D
100
AcDbEntity
  8
部品1
 48
50.0
100
AcDbCircle
 10
9420.6
 20
7843.907777930199
 30
0.0
 40
35.0
  0
LINE
  5
24214
330
747D
100
AcDbEntity
  8
センター
 48
2.0
100
AcDbLine
 10
9420.6
 20
7893.907777930199
 30
0.0
 11
9420.6
 21
7793.9077779302
 31
0.0
  0
LEADER
  5
24763
330
747D
100
AcDbEntity
  8
寸法
 48
50.0
100
AcDbLeader
  3
INABA_S50G
 73
     0
 74
     0
 75
     1
 40
120.0
 41
994.3492424049171
 76
     3
 10
9420.680085757009
 20
7843.921501126406
 30
0.0
 10
9594.645988304973
 20
8132.88027227415
 30
0.0
 10
9719.645988304973
 20
8132.88027227415
 30
0.0
340
24764
1001
ACAD
1000
DSTYLE
1002
{
1070
   341
1005
0
1070
    40
1040
1.0
1070
   343
1005
0
1070
   344
1005
0
1002
}
  0
MTEXT
  5
24764
102
{ACAD_REACTORS
330
24763
102
}
330
747D
100
AcDbEntity
  8
部品1
 62
     7
 48
50.0
100
AcDbMText
 10
10738.99523070989
 20
8217.880272274149
 30
0.0
 40
120.0
 41
0.0
 71
     6
 72
     1
  1
アンカーボルト
  7
STYLE1
 73
     1
 44
1.0
1001
ACAD
1000
MTEXTBEGIN
1070
    73
1070
     1
1070
    44
1040
1.0
1070
    74
1070
     0
1000
MTEXTEND
  0
LEADER
  5
24765
330
747D
100
AcDbEntity
  8
寸法
 48
50.0
100
AcDbLeader
  3
INABA_S50G
 73
     0
 74
     0
 75
     1
 40
120.0
 41
720.0000000000001
 76
     3
 10
9543.695499614996
 20
6892.665324718874
 30
0.0
 10
9700.469074001279
 20
6631.651411151041
 30
0.0
 10
9825.469074001279
 20
6631.651411151041
 30
0.0
340
24766
1001
ACAD
1000
DSTYLE
1002
{
1070
   341
1005
0
1070
    40
1040
1.0
1070
   343
1005
0
1070
   344
1005
0
1002
}
  0
MTEXT
  5
24766
102
{ACAD_REACTORS
330
24765
102
}
330
747D
100
AcDbEntity
  8
部品1
 62
     7
 48
50.0
100
AcDbMText
 10
10570.46907400128
 20
6716.65141115104
 30
0.0
 40
120.0
 41
0.0
 71
     6
 72
     1
  1
\A1;床下換気口
  7
STYLE1
 73
     1
 44
1.0
1001
ACAD
1000
MTEXTBEGIN
1070
    73
1070
     1
1070
    44
1040
1.0
1070
    74
1070
     0
1000
MTEXTEND
  0
LEADER
  5
24767
330
747D
100
AcDbEntity
  8
寸法
 48
50.0
100
AcDbLeader
  3
INABA_S50G
 73
     0
 74
     0
 75
     1
 40
120.0
 41
672.0
 76
     3
 10
9593.698313503429
 20
5975.332001126502
 30
0.0
 10
9709.638325695472
 20
5716.442657662926
 30
0.0
 10
9834.638325695472
 20
5716.442657662926
 30
0.0
340
24768
1001
ACAD
1000
DSTYLE
1002
{
1070
   341
1005
0
1070
    40
1040
1.0
1070
   343
1005
0
1070
   344
1005
0
1002
}
  0
MTEXT
  5
24768
102
{ACAD_REACTORS
330
24767
102
}
330
747D
100
AcDbEntity
  8
部品1
 62
     7
 48
50.0
100
AcDbMText
 10
10531.63832569547
 20
5801.442657662926
 30
0.0
 40
120.0
 41
0.0
 71
     6
 72
     1
  1
\A1;屋根の外寸
  7
STYLE1
 73
     1
 44
1.0
1001
ACAD
1000
MTEXTBEGIN
1070
    73
1070
     1
1070
    44
1040
1.0
1070
    74
1070
     0
1000
MTEXTEND
  0
TEXT
  5
24769
330
747D
100
AcDbEntity
  8
部品1
 48
50.0
100
AcDbText
 10
9733.851129706863
 20
5622.13197072985
 30
0.0
 40
80.0
  1
※a,b,cは屋根の出幅です。
  7
STYLE1
100
AcDbText
  0
TEXT
  5
2476A
330
747D
100
AcDbEntity
  8
部品1
 48
50.0
100
AcDbText
 10
9892.430138461167
 20
5515.286749861096
 30
0.0
 40
80.0
  1
(a=45,b=55,c=75)
  7
STYLE1
100
AcDbText
  0
LWPOLYLINE
  5
24F19
330
747D
100
AcDbEntity
  8
寸法
 48
50.0
100
AcDbPolyline
 90
        3
 70
     0
 43
0.0
 10
8571.30121388956
 20
6958.227462080621
 10
8532.638137382852
 20
6810.517371308074
 10
8268.333180452888
 20
6810.517371308074
1001
ACAD
1000
DSTYLE
1002
{
1070
   341
1005
0
1070
   343
1005
0
1070
   344
1005
0
1002
}
  0
SOLID
  5
24F1A
330
747D
100
AcDbEntity
  8
寸法
 48
50.0
100
AcDbTrace
 10
8551.146860309694
 20
6963.50285870604
 30
0.0
 11
8602.953593642068
 21
7079.153583559826
 31
0.0
 12
8591.455567469427
 22
6952.952065455204
 32
0.0
 13
8591.455567469427
 23
6952.952065455204
 33
0.0
1001
ACAD
1000
DSTYLE
1002
{
1070
   341
1005
0
1070
   343
1005
0
1070
   344
1005
0
1002
}
  0
MTEXT
  5
24F1B
330
747D
100
AcDbEntity
  8
部品1
 62
     7
 48
50.0
100
AcDbMText
 10
8436.1912284328
 20
6901.307068355786
 30
0.0
 40
120.0
 41
0.0
 71
     6
 72
     1
  1
CB
  7
STYLE1
 73
     1
 44
1.0
1001
ACAD
1000
MTEXTBEGIN
1070
    73
1070
     1
1070
    44
1040
1.0
1070
    74
1070
     0
1000
MTEXTEND
  0
DIMENSION
  5
24F29
330
747D
100
AcDbEntity
  8
寸法
 48
50.0
100
AcDbDimension
  2
*D42
 10
9423.6
 20
7509.199110429827
 30
0.0
 11
9813.659055118112
 21
7509.199110429827
 31
0.0
 70
   160
 71
     5
 42
120.0
  3
INABA_S40G
100
AcDbAlignedDimension
 13
9543.600000000001
 23
7736.907777930202
 33
0.0
 14
9423.6
 24
7736.9077779302
 34
0.0
100
AcDbRotatedDimension
1001
ACAD
1000
DSTYLE
1002
{
1070
   174
1070
     0
1070
   272
1070
     1
1070
   341
1005
0
1002
}
  0
DIMENSION
  5
24F2B
330
747D
100
AcDbEntity
  8
寸法
 48
50.0
100
AcDbDimension
  2
*D43
 10
9313.6
 20
7509.199110429827
 30
0.0
 11
9043.54094488189
 21
7509.199110429827
 31
0.0
 70
   160
 71
     5
 42
110.0
  3
INABA_S40G
100
AcDbAlignedDimension
 13
9423.6
 23
7526.192374468658
 33
0.0
 14
9313.6
 24
7736.9077779302
 34
0.0
100
AcDbRotatedDimension
1001
ACAD
1000
DSTYLE
1002
{
1070
   174
1070
     0
1070
   272
1070
     1
1070
   341
1005
0
1002
}
  0
DIMENSION
  5
2535E
330
747D
100
AcDbEntity
  8
寸法
 48
50.0
100
AcDbDimension
  2
*D44
 10
7356.6
 20
5042.748662820248
 30
0.0
 11
8450.1
 21
5142.76047384387
 31
0.0
 70
    32
  1
扉の幅 <>
 71
     5
 42
2187.0
  3
INABA_S40G
100
AcDbAlignedDimension
 13
9543.600000000001
 23
5671.907777930219
 33
0.0
 14
7356.6
 24
5671.907777930216
 34
0.0
100
AcDbRotatedDimension
1001
ACAD
1000
DSTYLE
1002
{
1070
   341
1005
0
1002
}
  0
TEXT
  5
2535F
330
747D
100
AcDbEntity
  8
寸法
 62
     7
100
AcDbText
 10
7703.709332915251
 20
4588.079265415317
 30
0.0
 40
120.0
  1
扉位置 (2187x75)
  7
STYLE1
100
AcDbText
  0
SOLID
  5
25360
330
747D
100
AcDbEntity
  8
寸法
 48
50.0
100
AcDbTrace
 10
-7911.194632554883
 20
5546.316749025313
 30
0.0
 11
-7928.10383822487
 21
5671.9077779302
 31
0.0
 12
-7871.376418081405
 22
5558.589519994223
 32
0.0
 13
-7871.376418081405
 23
5558.589519994223
 33
0.0
210
0.0
220
0.0
230
-1.0
1001
ACAD
1000
DSTYLE
1002
{
1070
   341
1005
0
1070
    40
1040
1.0
1070
   343
1005
0
1070
   344
1005
0
1002
}
  0
LWPOLYLINE
  5
25361
330
747D
100
AcDbEntity
  8
寸法
 48
50.0
100
AcDbPolyline
 90
        3
 70
     0
 43
0.0
 10
-7928.10383822487
 20
5671.9077779302
 10
-7587.093373722497
 20
4565.811317866997
 10
-10401.15778665414
 20
4565.811317866997
210
0.0
220
0.0
230
-1.0
1001
ACAD
1000
DSTYLE
1002
{
1070
   341
1005
0
1070
    40
1040
1.0
1070
   343
1005
0
1070
   344
1005
0
1002
}
  0
TEXT
  5
25362
330
747D
100
AcDbEntity
  8
寸法
 62
     7
100
AcDbText
 10
7703.709332915251
 20
4416.475502531992
 30
0.0
 40
120.0
  1
扉の位置に合わせた基礎形状として下さい。
  7
STYLE1
100
AcDbText
  0
DIMENSION
  5
25363
330
747D
100
AcDbEntity
  8
寸法
 48
50.0
100
AcDbDimension
  2
*D45
 10
7625.743526793911
 20
5866.907777930205
 30
0.0
 11
7625.743526793911
 21
5433.212836726323
 31
0.0
 70
   160
 71
     5
 42
194.9999999999882
  3
INABA_S40G
100
AcDbAlignedDimension
 13
7356.6
 23
5671.907777930216
 33
0.0
 14
7356.6
 24
5866.907777930205
 34
0.0
 50
270.0
100
AcDbRotatedDimension
1001
ACAD
1000
DSTYLE
1002
{
1070
   341
1005
0
1002
}
  0
LINE
  5
257EC
330
747D
100
AcDbEntity
  8
想像線
 48
10.0
100
AcDbLine
 10
8797.790201497061
 20
8021.907777930204
 30
0.0
 11
9593.600000000002
 21
8021.907777930204
 31
0.0
  0
LINE
  5
25AD4
330
747D
100
AcDbEntity
  8
想像線
 48
10.0
100
AcDbLine
 10
8797.790201497056
 20
5671.907777930217
 30
0.0
 11
9593.6
 21
5671.907777930217
 31
0.0
  0
LINE
  5
25AE9
102
{ACAD_REACTORS
330
25BA2
102
}
330
747D
100
AcDbEntity
  8
部品1
 48
50.0
100
AcDbLine
 10
9423.6
 20
5976.907777930222
 30
0.0
 11
9423.6
 21
7736.9077779302
 31
0.0
  0
LINE
  5
25AEA
102
{ACAD_REACTORS
330
25B5D
102
}
330
747D
100
AcDbEntity
  8
部品1
 48
50.0
100
AcDbLine
 10
9313.6
 20
7846.9077779302
 30
0.0
 11
7133.6
 21
7846.9077779302
 31
0.0
  0
LINE
  5
25AEB
102
{ACAD_REACTORS
330
25B74
102
}
330
747D
100
AcDbEntity
  8
部品1
 48
50.0
100
AcDbLine
 10
7023.6
 20
5976.9077779302
 30
0.0
 11
7023.6
 21
7736.907777930196
 31
0.0
  0
LINE
  5
25AEC
102
{ACAD_REACTORS
330
25B8B
102
}
330
747D
100
AcDbEntity
  8
部品1
 48
50.0
100
AcDbLine
 10
9313.6
 20
5866.907777930214
 30
0.0
 11
7133.6
 21
5866.907777930204
 31
0.0
  0
HATCH
  5
25B5D
330
747D
100
AcDbEntity
  8
細線
 48
50.0
100
AcDbHatch
 10
0.0
 20
0.0
 30
0.0
210
0.0
220
0.0
230
1.0
  2
LINE
 70
     0
 71
     1
 91
        1
 92
        7
 72
     0
 73
     1
 93
        4
 10
8323.6
 20
7966.9077779302
 10
8123.600000000001
 20
7966.907777930201
 10
8123.599999999999
 20
7846.907777930198
 10
8323.599999999997
 20
7846.907777930198
 97
        4
330
241B5
330
24208
330
25AEA
330
24209
 75
     0
 76
     1
 52
45.0
 41
10.0
 77
     0
 78
     1
 53
45.0
 43
0.0
 44
0.0
 45
-22.45064030267288
 46
22.45064030267288
 79
     0
 47
3.520940175524444
 98
        1
 10
8200.044868380173
 20
7920.024814005493
  0
HATCH
  5
25B74
330
747D
100
AcDbEntity
  8
細線
 48
50.0
100
AcDbHatch
 10
0.0
 20
0.0
 30
0.0
210
0.0
220
0.0
230
1.0
  2
LINE
 70
     0
 71
     1
 91
        1
 92
        7
 72
     0
 73
     1
 93
        4
 10
7023.6
 20
6956.907777930208
 10
6903.6
 20
6956.907777930211
 10
6903.6
 20
6756.907777930209
 10
7023.600000000001
 20
6756.907777930209
 97
        4
330
241C8
330
241BC
330
241C7
330
25AEB
 75
     0
 76
     1
 52
45.0
 41
10.0
 77
     0
 78
     1
 53
45.0
 43
0.0
 44
0.0
 45
-22.45064030267288
 46
22.45064030267288
 79
     0
 47
3.520940175524444
 98
        1
 10
6942.483769533639
 20
6828.533355523916
  0
HATCH
  5
25B8B
330
747D
100
AcDbEntity
  8
細線
 48
50.0
100
AcDbHatch
 10
0.0
 20
0.0
 30
0.0
210
0.0
220
0.0
230
1.0
  2
LINE
 70
     0
 71
     1
 91
        1
 92
        7
 72
     0
 73
     1
 93
        4
 10
8323.600000000018
 20
5866.90777793021
 10
8123.600000000019
 20
5866.907777930208
 10
8123.600000000015
 20
5671.907777930207
 10
8323.600000000013
 20
5671.907777930209
 97
        4
330
25AEC
330
241E2
330
241DB
330
241E3
 75
     0
 76
     1
 52
45.0
 41
10.0
 77
     0
 78
     1
 53
45.0
 43
0.0
 44
0.0
 45
-22.45064030267288
 46
22.45064030267288
 79
     0
 47
4.4030049332622
 98
        1
 10
8232.780600574486
 20
5752.711278590963
  0
HATCH
  5
25BA2
330
747D
100
AcDbEntity
  8
細線
 48
50.0
100
AcDbHatch
 10
0.0
 20
0.0
 30
0.0
210
0.0
220
0.0
230
1.0
  2
LINE
 70
     0
 71
     1
 91
        1
 92
        7
 72
     0
 73
     1
 93
        4
 10
9543.600000000003
 20
6956.907777930211
 10
9423.6
 20
6956.907777930209
 10
9423.6
 20
6756.907777930208
 10
9543.600000000003
 20
6756.907777930209
 97
        4
330
2420D
330
25AE9
330
2420C
330
241D4
 75
     0
 76
     1
 52
45.0
 41
10.0
 77
     0
 78
     1
 53
45.0
 43
0.0
 44
0.0
 45
-22.45064030267288
 46
22.45064030267288
 79
     0
 47
4.4030049332622
 98
        1
 10
9475.006343583059
 20
6844.656510517082
  0
LINE
  5
25D2A
330
747D
100
AcDbEntity
  8
部品1
100
AcDbLine
 10
11298.31443935275
 20
3540.641144660138
 30
0.0
 11
5227.329253966491
 21
3540.641144660138
 31
0.0
  0
LINE
  5
25D2B
330
747D
100
AcDbEntity
  8
部品1
100
AcDbLine
 10
11298.31443935274
 20
3300.641144660136
 30
0.0
 11
5227.329253966495
 21
3300.641144660136
 31
0.0
  0
LINE
  5
25D2C
330
747D
100
AcDbEntity
  8
部品1
100
AcDbLine
 10
5227.329253966497
 20
576.3341750754907
 30
0.0
 11
11298.31443935274
 21
576.3341750754907
 31
0.0
  0
LEADER
  5
25D2D
330
747D
100
AcDbEntity
  8
寸法
 48
50.0
100
AcDbLeader
  3
INABA_S50G
 73
     0
 74
     0
 75
     1
 40
102.2727272727273
 41
680.0000000000001
 76
     3
 10
8235.437005952951
 20
2618.544805992436
 30
0.0
 10
8269.790977066309
 20
3028.997617098977
 30
0.0
 10
8394.790977066309
 20
3028.997617098977
 30
0.0
340
25D2E
1001
ACAD
1000
DSTYLE
1002
{
1070
   341
1005
0
1070
    40
1040
1.0
1070
   343
1005
0
1070
   344
1005
0
1002
}
  0
MTEXT
  5
25D2E
102
{ACAD_REACTORS
330
25D2D
102
}
330
747D
100
AcDbEntity
  8
部品1
 62
     7
 48
50.0
100
AcDbMText
 10
8419.790977066309
 20
3105.133980735341
 30
0.0
 40
80.0
 41
0.8
 71
     4
 72
     1
  1
\A1;ナット(市販品)
  7
STYLE2
 73
     1
 44
1.0
1001
ACAD
1000
MTEXTBEGIN
1070
    73
1070
     1
1070
    44
1040
1.0
1070
    74
1070
     0
1000
MTEXTEND
  0
LEADER
  5
25D2F
330
747D
100
AcDbEntity
  8
寸法
 48
50.0
100
AcDbLeader
  3
INABA_S50G
 73
     0
 74
     0
 75
     1
 40
102.2727272727273
 41
906.8181818181818
 76
     3
 10
8259.437005952952
 20
2488.792813327573
 30
0.0
 10
8301.308596321788
 20
2844.02853433419
 30
0.0
 10
8426.308596321788
 20
2844.02853433419
 30
0.0
340
25D30
1001
ACAD
1000
DSTYLE
1002
{
1070
   341
1005
0
1070
    40
1040
1.0
1070
   343
1005
0
1070
   344
1005
0
1002
}
  0
MTEXT
  5
25D30
102
{ACAD_REACTORS
330
25D2F
102
}
330
747D
100
AcDbEntity
  8
部品1
 62
     7
 48
50.0
100
AcDbMText
 10
8451.308596321789
 20
2920.164897970554
 30
0.0
 40
80.0
 41
0.8
 71
     4
 72
     1
  1
\A1;ワッシャー(市販品)
  7
STYLE2
 73
     1
 44
1.0
1001
ACAD
1000
MTEXTBEGIN
1070
    73
1070
     1
1070
    44
1040
1.0
1070
    74
1070
     0
1000
MTEXTEND
  0
LWPOLYLINE
  5
25D31
330
747D
100
AcDbEntity
  8
部品1
 48
50.0
100
AcDbPolyline
 90
        2
 70
     0
 43
8.0
 10
8412.037005952951
 20
1979.669524883294
 10
8705.739469352336
 20
1979.669524883294
  0
TEXT
  5
25D32
330
747D
100
AcDbEntity
  8
部品1
 48
50.0
100
AcDbText
 10
8416.39059023738
 20
2575.548205645493
 30
0.0
 40
80.0
  1
基礎ボルト(市販品)
  7
STYLE2
100
AcDbText
  0
DIMENSION
  5
25D33
330
747D
100
AcDbEntity
  8
寸法
 48
50.0
100
AcDbDimension
  2
*D46
 10
8913.905605721792
 20
1895.669524883292
 30
0.0
 11
8813.905605721792
 21
2057.669524883294
 31
0.0
 70
    32
  1
180
 71
     5
 42
324.0000000000009
  3
INABA_S40G
100
AcDbAlignedDimension
 13
8412.037005952951
 23
2219.669524883293
 33
0.0
 14
8412.037005952951
 24
1895.669524883292
 34
0.0
 50
90.0
100
AcDbRotatedDimension
1001
ACAD
1000
DSTYLE
1002
{
1070
   174
1070
     0
1070
   272
1070
     1
1070
   279
1070
     1
1070
   288
1070
     0
1070
   341
1005
0
1002
}
  0
DIMENSION
  5
25D34
330
747D
100
AcDbEntity
  8
寸法
 48
50.0
100
AcDbDimension
  2
*D47
 10
8913.905605721792
 20
2219.669524883293
 30
0.0
 11
9189.960271840821
 21
2194.545567279082
 31
0.0
 70
   160
  1
20～25
 71
     5
 42
52.76000000000113
  3
INABA_S40G
100
AcDbAlignedDimension
 13
8224.837005952952
 23
2272.429524883294
 33
0.0
 14
8412.037005952951
 24
2219.669524883293
 34
0.0
 50
90.0
100
AcDbRotatedDimension
1001
ACAD
1000
DSTYLE
1002
{
1070
   174
1070
     0
1070
   272
1070
     1
1070
   279
1070
     1
1070
   288
1070
     0
1070
   341
1005
0
1002
}
  0
MTEXT
  5
25D35
102
{ACAD_REACTORS
330
25D36
102
}
330
747D
100
AcDbEntity
  8
部品1
 62
     7
 48
50.0
100
AcDbMText
 10
8420.981468372268
 20
2484.052851036523
 30
0.0
 40
80.0
 41
0.8
 71
     4
 72
     1
  1
M10X160
  7
STYLE2
 73
     1
 44
1.0
1001
ACAD
1000
MTEXTBEGIN
1070
    73
1070
     1
1070
    44
1040
1.0
1070
    74
1070
     0
1000
MTEXTEND
  0
LEADER
  5
25D36
330
747D
100
AcDbEntity
  8
寸法
 48
50.0
100
AcDbLeader
  3
INABA_S50G
 73
     0
 74
     0
 75
     1
 40
80.0
 41
435.0
 76
     3
 10
8228.437005952951
 20
2268.829524883294
 30
0.0
 10
8270.981468372267
 20
2419.052851036523
 30
0.0
 10
8395.981468372267
 20
2419.052851036523
 30
0.0
340
25D35
1001
ACAD
1000
DSTYLE
1002
{
1070
   341
1005
0
1070
    40
1040
1.0
1070
   343
1005
0
1070
   344
1005
0
1002
}
  0
LINE
  5
25D37
330
747D
100
AcDbEntity
  8
部品1
100
AcDbLine
 10
5227.329253966494
 20
3540.641144660138
 30
0.0
 11
5227.329253966495
 21
576.3341750754907
 31
0.0
  0
LEADER
  5
25D38
330
747D
100
AcDbEntity
  8
寸法
 48
50.0
100
AcDbLeader
  3
INABA_S50G
 73
     0
 75
     1
 40
113.1818181818182
 41
608.6363636363635
 76
     3
 10
8188.173756091002
 20
2169.185198241572
 30
0.0
 10
8054.369927399653
 20
3020.56428059805
 30
0.0
 10
7929.369927399654
 20
3020.56428059805
 30
0.0
340
25D39
1001
ACAD
1000
DSTYLE
1002
{
1070
   341
1005
0
1070
    40
1040
1.0
1070
   343
1005
0
1070
   344
1005
0
1002
}
  0
MTEXT
  5
25D39
102
{ACAD_REACTORS
330
25D38
102
}
330
747D
100
AcDbEntity
  8
寸法
 62
     7
 48
50.0
100
AcDbMText
 10
7904.369927399653
 20
3102.155189688959
 30
0.0
 40
80.0
 41
0.8
 71
     6
 72
     1
  1
\A1;φ70スリーブ
  7
STYLE2
 73
     1
 44
1.0
1001
ACAD
1000
MTEXTBEGIN
1070
    73
1070
     1
1070
    44
1040
1.0
1070
    74
1070
     0
1000
MTEXTEND
  0
LWPOLYLINE
  5
25D3A
330
747D
100
AcDbEntity
  8
部品1
 48
50.0
100
AcDbPolyline
 90
        2
 70
     0
 43
8.0
 10
5883.8577909428
 20
1979.669524883294
 10
6297.997692775756
 20
1979.669524883294
  0
TEXT
  5
25D3B
330
747D
100
AcDbEntity
  8
部品1
 48
50.0
100
AcDbText
 10
5883.8577909428
 20
1990.908517166548
 30
0.0
 40
80.0
  1
▽G.L
  7
STYLE2
100
AcDbText
  0
DIMENSION
  5
25D3C
330
747D
100
AcDbEntity
  8
寸法
 48
50.0
100
AcDbDimension
  2
*D48
 10
6027.577379043297
 20
1435.669524883293
 30
0.0
 11
6027.577379043297
 21
1555.669524883293
 31
0.0
 70
   160
  1
150
 71
     5
 42
240.0
  3
INABA_S40G
100
AcDbAlignedDimension
 13
6169.997692775756
 23
1675.669524883293
 33
0.0
 14
6089.99769277576
 24
1435.669524883293
 34
0.0
 50
90.0
100
AcDbRotatedDimension
1001
ACAD
1000
DSTYLE
1002
{
1070
   174
1070
     0
1070
   272
1070
     1
1070
   279
1070
     1
1070
   288
1070
     0
1070
   341
1005
0
1002
}
  0
LEADER
  5
25D3D
330
747D
100
AcDbEntity
  8
寸法
 48
50.0
100
AcDbLeader
  3
INABA_S50G
 71
     0
 73
     0
 75
     1
 40
100.0
 41
225.0
 76
     3
 10
6265.900645127899
 20
1555.669524883293
 30
0.0
 10
6144.062666580563
 20
1292.146831264856
 30
0.0
 10
6019.062666580563
 20
1292.146831264856
 30
0.0
1001
ACAD
1000
DSTYLE
1002
{
1070
    40
1040
1.0
1070
   272
1070
     1
1070
   279
1070
     1
1070
   341
1005
0
1002
}
  0
LEADER
  5
25D3E
330
747D
100
AcDbEntity
  8
寸法
 48
50.0
100
AcDbLeader
  3
INABA_S50G
 71
     0
 73
     0
 75
     1
 40
100.0
 41
222.7272727272727
 76
     3
 10
6393.997692775756
 20
1555.669524883293
 30
0.0
 10
6172.185394137997
 20
1111.830678725413
 30
0.0
 10
6047.185394137997
 20
1111.830678725413
 30
0.0
1001
ACAD
1000
DSTYLE
1002
{
1070
    40
1040
1.0
1070
   272
1070
     1
1070
   279
1070
     1
1070
   341
1005
0
1002
}
  0
MTEXT
  5
25D3F
102
{ACAD_REACTORS
330
25D40
102
}
330
747D
100
AcDbEntity
  8
寸法
 62
     7
 48
50.0
100
AcDbMText
 10
6208.747638552952
 20
1820.97012770075
 30
0.0
 40
80.0
 41
0.8
 71
     6
 72
     1
  1
\A1;D10@300
  7
STYLE2
 73
     1
 44
1.0
1001
ACAD
1000
MTEXTBEGIN
1070
    73
1070
     1
1070
    44
1040
1.0
1070
    74
1070
     0
1000
MTEXTEND
  0
LEADER
  5
25D40
330
747D
100
AcDbEntity
  8
寸法
 48
50.0
100
AcDbLeader
  3
INABA_S50G
 71
     0
 73
     0
 75
     1
 40
100.0
 41
540.3409090909091
 76
     3
 10
6401.997692775757
 20
1977.796739580416
 30
0.0
 10
6344.015456247058
 20
1756.326411039611
 30
0.0
 10
6219.015456247058
 20
1756.326411039611
 30
0.0
213
-9.732182305893367
223
-4.643716661138569
233
0.0
1001
ACAD
1000
DSTYLE
1002
{
1070
    40
1040
1.0
1070
   272
1070
     1
1070
   279
1070
     1
1070
   341
1005
0
1002
}
  0
LEADER
  5
25D41
330
747D
100
AcDbEntity
  8
寸法
 48
50.0
100
AcDbLeader
  3
INABA_S50G
 71
     0
 73
     0
 75
     1
 40
130.1136363636363
 41
651.1363636363636
 76
     3
 10
6377.997692775757
 20
2219.669524883293
 30
0.0
 10
6265.57311261174
 20
2360.140290339881
 30
0.0
 10
6140.57311261174
 20
2360.140290339881
 30
0.0
1001
ACAD
1000
DSTYLE
1002
{
1070
    40
1040
1.0
1070
   272
1070
     1
1070
   279
1070
     1
1070
   341
1005
0
1002
}
  0
MTEXT
  5
25D42
102
{ACAD_REACTORS
330
25D41
102
}
330
747D
100
AcDbEntity
  8
寸法
 62
     7
 48
50.0
100
AcDbMText
 10
6077.899213292483
 20
2432.185744885336
 30
0.0
 40
80.0
 41
0.8
 71
     6
 72
     1
  1
\A1;金コテ押エ
  7
STYLE2
 73
     1
 44
1.0
1001
ACAD
1000
MTEXTBEGIN
1070
    73
1070
     1
1070
    44
1040
1.0
1070
    74
1070
     0
1000
MTEXTEND
  0
DIMENSION
  5
25D43
330
747D
100
AcDbEntity
  8
寸法
 48
50.0
100
AcDbDimension
  2
*D49
 10
5562.960454214015
 20
1435.669524883293
 30
0.0
 11
5562.960454214016
 21
1807.209674539294
 31
0.0
 70
   160
  1
540
 71
     5
 42
784.0
  3
INABA_S40G
100
AcDbAlignedDimension
 13
6297.997692775756
 23
2219.669524883293
 33
0.0
 14
6089.99769277576
 24
1435.669524883293
 34
0.0
 50
90.0
100
AcDbRotatedDimension
1001
ACAD
1000
DSTYLE
1002
{
1070
   174
1070
     0
1070
   272
1070
     1
1070
   279
1070
     1
1070
   288
1070
     0
1070
   341
1005
0
1002
}
  0
MTEXT
  5
25D44
102
{ACAD_REACTORS
330
25D3E
102
}
330
747D
100
AcDbEntity
  8
寸法
 62
     7
 48
50.0
100
AcDbMText
 10
6027.185394137997
 20
1171.830678725413
 30
0.0
 40
80.0
 41
0.8
 71
     6
 72
     1
  1
D13
  7
STYLE2
 73
     1
 44
1.0
1001
ACAD
1000
MTEXTBEGIN
1070
    73
1070
     1
1070
    44
1040
1.0
1070
    74
1070
     0
1000
MTEXTEND
  0
MTEXT
  5
25D45
102
{ACAD_REACTORS
330
25D3D
102
}
330
747D
100
AcDbEntity
  8
寸法
 62
     7
 48
50.0
100
AcDbMText
 10
5999.062666580562
 20
1352.146831264857
 30
0.0
 40
80.0
 41
0.8
 71
     6
 72
     1
  1
D10
  7
STYLE2
 73
     1
 44
1.0
1001
ACAD
1000
MTEXTBEGIN
1070
    73
1070
     1
1070
    44
1040
1.0
1070
    74
1070
     0
1000
MTEXTEND
  0
DIMENSION
  5
25D46
330
747D
100
AcDbEntity
  8
寸法
 48
50.0
100
AcDbDimension
  2
*D50
 10
6617.997692775756
 20
897.2398868781329
 30
0.0
 11
6373.900934097533
 21
897.2398868781329
 31
0.0
 70
   160
  1
300
 71
     5
 42
448.0
  3
INABA_S40G
100
AcDbAlignedDimension
 13
6169.997692775756
 23
1307.669524883293
 33
0.0
 14
6617.997692775756
 24
1307.669524883293
 34
0.0
100
AcDbRotatedDimension
1001
ACAD
1000
DSTYLE
1002
{
1070
   174
1070
     0
1070
   272
1070
     1
1070
   279
1070
     1
1070
   288
1070
     0
1070
   341
1005
0
1002
}
  0
MTEXT
  5
25D47
102
{ACAD_REACTORS
330
25D48
102
}
330
747D
100
AcDbEntity
  8
寸法
 62
     7
 48
50.0
100
AcDbMText
 10
7931.012933608013
 20
2741.470917781445
 30
0.0
 40
80.0
 41
0.8
 71
     6
 72
     1
  1
アンカープレート {\fArial|b0|i0|c0|p32;U}
  7
STYLE2
 73
     1
 44
1.0
1001
ACAD
1000
MTEXTBEGIN
1070
    73
1070
     1
1070
    44
1040
1.0
1070
    74
1070
     0
1000
MTEXTEND
  0
LEADER
  5
25D48
330
747D
100
AcDbEntity
  8
寸法
 48
50.0
100
AcDbLeader
  3
INABA_S50G
 73
     0
 75
     1
 40
106.3636363636363
 41
903.5235024184547
 76
     3
 10
8129.437005952949
 20
2289.229524883294
 30
0.0
 10
8081.012933608013
 20
2663.289099599627
 30
0.0
 10
7956.012933608012
 20
2663.289099599627
 30
0.0
340
25D47
1001
ACAD
1000
DSTYLE
1002
{
1070
   341
1005
0
1070
    40
1040
1.0
1070
   343
1005
0
1070
   344
1005
0
1002
}
  0
LINE
  5
25D49
330
747D
100
AcDbEntity
  8
細線
 48
50.0
100
AcDbLine
 10
6417.997692775756
 20
2058.042417551124
 30
0.0
 11
6489.997692775758
 21
2130.042417551123
 31
0.0
  0
ARC
  5
25D4A
330
747D
100
AcDbEntity
  8
部品1
 48
50.0
100
AcDbCircle
 10
6393.997692775757
 20
2079.923954277539
 30
0.0
 40
24.0
100
AcDbArc
 50
0.0
 51
180.0
  0
CIRCLE
  5
25D4B
330
747D
100
AcDbEntity
  8
部品1
 48
50.0
100
AcDbCircle
 10
6393.997692775757
 20
2079.923954277539
 30
0.0
 40
8.0
  0
LINE
  5
25D4C
330
747D
100
AcDbEntity
  8
部品1
 48
50.0
100
AcDbLine
 10
6297.997692775757
 20
1675.669524883293
 30
0.0
 11
6297.997692775757
 21
2219.669524883293
 31
0.0
  0
LINE
  5
25D4D
330
747D
100
AcDbEntity
  8
部品1
 48
50.0
100
AcDbLine
 10
6489.997692775758
 20
2219.669524883293
 30
0.0
 11
6489.997692775758
 21
1675.669524883293
 31
0.0
  0
MTEXT
  5
25D4E
102
{ACAD_REACTORS
330
25D53
102
}
330
747D
100
AcDbEntity
  8
寸法
 62
     7
 48
50.0
100
AcDbMText
 10
6572.88362980315
 20
2080.937086182221
 30
0.0
 40
80.0
 41
0.8
 71
     4
 72
     1
  1
D13
  7
STYLE2
 73
     1
 44
1.0
1001
ACAD
1000
MTEXTBEGIN
1070
    73
1070
     1
1070
    44
1040
1.0
1070
    74
1070
     0
1000
MTEXTEND
  0
LEADER
  5
25D4F
330
747D
100
AcDbEntity
  8
寸法
 48
50.0
100
AcDbLeader
  3
INABA_S50G
 71
     0
 73
     0
 74
     0
 75
     1
 40
100.0
 41
225.0
 76
     3
 10
6521.9006451279
 20
1555.669524883293
 30
0.0
 10
6576.325352582441
 20
1460.27245594032
 30
0.0
 10
6701.325352582441
 20
1460.27245594032
 30
0.0
1001
ACAD
1000
DSTYLE
1002
{
1070
    40
1040
1.0
1070
   272
1070
     1
1070
   279
1070
     1
1070
   341
1005
0
1002
}
  0
LEADER
  5
25D50
330
747D
100
AcDbEntity
  8
寸法
 48
50.0
100
AcDbLeader
  3
INABA_S50G
 71
     0
 73
     0
 74
     0
 75
     1
 40
100.0
 41
540.3409090909091
 76
     3
 10
6467.942861788931
 20
1538.928994469767
 30
0.0
 10
6586.736148637007
 20
1197.29817647487
 30
0.0
 10
6711.736148637007
 20
1197.29817647487
 30
0.0
213
0.0
223
-1.022262676269383
233
0.0
1001
ACAD
1000
DSTYLE
1002
{
1070
    40
1040
1.0
1070
   272
1070
     1
1070
   279
1070
     1
1070
   341
1005
0
1002
}
  0
MTEXT
  5
25D51
102
{ACAD_REACTORS
330
25D4F
102
}
330
747D
100
AcDbEntity
  8
寸法
 62
     7
 48
50.0
100
AcDbMText
 10
6721.325352582441
 20
1520.27245594032
 30
0.0
 40
80.0
 41
0.8
 71
     4
 72
     1
  1
D10
  7
STYLE2
 73
     1
 44
1.0
1001
ACAD
1000
MTEXTBEGIN
1070
    73
1070
     1
1070
    44
1040
1.0
1070
    74
1070
     0
1000
MTEXTEND
  0
LWPOLYLINE
  5
25D52
330
747D
100
AcDbEntity
  8
部品1
 48
50.0
100
AcDbPolyline
 90
        2
 70
     0
 43
8.0
 10
6489.997692775756
 20
1979.669524883294
 10
6904.137594608714
 20
1979.669524883294
  0
LEADER
  5
25D53
330
747D
100
AcDbEntity
  8
寸法
 48
50.0
100
AcDbLeader
  3
INABA_S50G
 71
     0
 73
     0
 74
     0
 75
     1
 40
100.0
 41
222.7272727272727
 76
     3
 10
6393.997692775756
 20
2079.923954277539
 30
0.0
 10
6427.883629803151
 20
2020.937086182221
 30
0.0
 10
6552.883629803151
 20
2020.937086182221
 30
0.0
1001
ACAD
1000
DSTYLE
1002
{
1070
    40
1040
1.0
1070
   272
1070
     1
1070
   279
1070
     1
1070
   341
1005
0
1002
}
  0
LINE
  5
25D54
330
747D
100
AcDbEntity
  8
細線
 48
50.0
100
AcDbLine
 10
6169.99769277575
 20
1594.516270645464
 30
0.0
 11
6251.150947013585
 21
1675.669524883293
 31
0.0
  0
LINE
  5
25D55
330
747D
100
AcDbEntity
  8
細線
 48
50.0
100
AcDbLine
 10
6377.863540253161
 20
1613.796739580415
 30
0.0
 11
6401.997692775762
 21
1637.930892103014
 31
0.0
  0
LINE
  5
25D56
330
747D
100
AcDbEntity
  8
細線
 48
50.0
100
AcDbLine
 10
6284.795557192829
 20
1547.669524883293
 30
0.0
 11
6401.997692775757
 21
1664.871660466219
 31
0.0
  0
LINE
  5
25D57
330
747D
100
AcDbEntity
  8
部品1
 48
50.0
100
AcDbLine
 10
6169.997692775758
 20
1435.669524883293
 30
0.0
 11
6169.997692775758
 21
1675.669524883293
 31
0.0
  0
LINE
  5
25D58
330
747D
100
AcDbEntity
  8
細線
 48
50.0
100
AcDbLine
 10
6527.2624724617
 20
1547.669524883293
 30
0.0
 11
6617.997692775756
 21
1638.404745197352
 31
0.0
  0
LINE
  5
25D59
330
747D
100
AcDbEntity
  8
細線
 48
50.0
100
AcDbLine
 10
6500.321704098485
 20
1547.669524883293
 30
0.0
 11
6617.997692775756
 21
1665.345513560559
 31
0.0
  0
LINE
  5
25D5A
330
747D
100
AcDbEntity
  8
部品1
 48
50.0
100
AcDbLine
 10
6617.997692775756
 20
1675.669524883293
 30
0.0
 11
6617.997692775756
 21
1435.669524883293
 31
0.0
  0
LINE
  5
25D5B
330
747D
100
AcDbEntity
  8
部品1
 48
50.0
100
AcDbLine
 10
6417.997692775762
 20
1555.669524883293
 30
0.0
 11
6417.997692775756
 21
2079.923954277539
 31
0.0
  0
LINE
  5
25D5C
330
747D
100
AcDbEntity
  8
部品1
 48
50.0
100
AcDbLine
 10
6401.997692775762
 20
1555.669524883293
 30
0.0
 11
6401.99769277575
 21
2079.923954277539
 31
0.0
  0
LINE
  5
25D5D
330
747D
100
AcDbEntity
  8
細線
 48
50.0
100
AcDbLine
 10
6385.997692775757
 20
1594.990123739804
 30
0.0
 11
6401.997692775762
 21
1610.990123739804
 31
0.0
  0
LINE
  5
25D5E
330
747D
100
AcDbEntity
  8
細線
 48
50.0
100
AcDbLine
 10
6375.18053227177
 20
1307.669524883293
 30
0.0
 11
6409.478028902954
 21
1435.669524883293
 31
0.0
  0
LINE
  5
25D5F
330
747D
100
AcDbEntity
  8
部品1
 48
50.0
100
AcDbLine
 10
6697.997692775761
 20
1307.669524883293
 30
0.0
 11
6089.997692775759
 21
1307.669524883293
 31
0.0
  0
LINE
  5
25D60
330
747D
100
AcDbEntity
  8
部品1
 48
50.0
100
AcDbLine
 10
6225.997692775757
 20
1531.669524883293
 30
0.0
 11
6561.997692775758
 21
1531.669524883293
 31
0.0
  0
LINE
  5
25D61
330
747D
100
AcDbEntity
  8
部品1
 48
50.0
100
AcDbLine
 10
6225.997692775757
 20
1547.669524883293
 30
0.0
 11
6561.997692775758
 21
1547.669524883293
 31
0.0
  0
LINE
  5
25D62
330
747D
100
AcDbEntity
  8
部品1
 48
50.0
100
AcDbLine
 10
6697.997692775761
 20
1435.669524883293
 30
0.0
 11
6089.997692775759
 21
1435.669524883293
 31
0.0
  0
CIRCLE
  5
25D63
330
747D
100
AcDbEntity
  8
部品1
 48
50.0
100
AcDbCircle
 10
6393.997692775757
 20
1555.669524883293
 30
0.0
 40
8.0
  0
LINE
  5
25D64
330
747D
100
AcDbEntity
  8
細線
 48
50.0
100
AcDbLine
 10
6388.32170409849
 20
1435.669524883293
 30
0.0
 11
6484.32170409849
 21
1531.669524883293
 31
0.0
  0
LINE
  5
25D65
330
747D
100
AcDbEntity
  8
細線
 48
50.0
100
AcDbLine
 10
6217.404442377273
 20
1307.669524883293
 30
0.0
 11
6251.701939008456
 21
1435.669524883293
 31
0.0
  0
LINE
  5
25D66
330
747D
100
AcDbEntity
  8
細線
 48
50.0
100
AcDbLine
 10
6296.292487324518
 20
1307.669524883291
 30
0.0
 11
6330.589983955701
 21
1435.669524883291
 31
0.0
  0
LINE
  5
25D67
330
747D
100
AcDbEntity
  8
細線
 48
50.0
100
AcDbLine
 10
6138.516397430015
 20
1307.669524883291
 30
0.0
 11
6172.813894061198
 21
1435.669524883291
 31
0.0
  0
LINE
  5
25D68
330
747D
100
AcDbEntity
  8
部品1
 48
50.0
100
AcDbLine
 10
6089.997692775759
 20
1307.669524883293
 30
0.0
 11
6089.997692775759
 21
1435.669524883293
 31
0.0
  0
LINE
  5
25D69
330
747D
100
AcDbEntity
  8
細線
 48
50.0
100
AcDbLine
 10
6223.835222995619
 20
1331.669524883293
 30
0.0
 11
6230.266003613967
 21
1307.669524883293
 31
0.0
  0
LINE
  5
25D6A
330
747D
100
AcDbEntity
  8
細線
 48
50.0
100
AcDbLine
 10
6144.947178048369
 20
1331.669524883293
 30
0.0
 11
6151.377958666714
 21
1307.669524883293
 31
0.0
  0
LINE
  5
25D6B
330
747D
100
AcDbEntity
  8
細線
 48
50.0
100
AcDbLine
 10
6381.611312890124
 20
1331.669524883293
 30
0.0
 11
6388.04209350847
 21
1307.669524883293
 31
0.0
  0
LINE
  5
25D6C
330
747D
100
AcDbEntity
  8
細線
 48
50.0
100
AcDbLine
 10
6302.723267942872
 20
1331.669524883293
 30
0.0
 11
6309.154048561218
 21
1307.669524883293
 31
0.0
  0
LINE
  5
25D6D
330
747D
100
AcDbEntity
  8
細線
 48
50.0
100
AcDbLine
 10
6199.736325556041
 20
1435.669524883293
 30
0.0
 11
6295.73632555604
 21
1531.669524883293
 31
0.0
  0
LINE
  5
25D6E
330
747D
100
AcDbEntity
  8
細線
 48
50.0
100
AcDbLine
 10
6172.79555719283
 20
1435.669524883293
 30
0.0
 11
6268.79555719283
 21
1531.669524883293
 31
0.0
  0
LINE
  5
25D6F
330
747D
100
AcDbEntity
  8
部品1
 48
50.0
100
AcDbLine
 10
6225.997692775757
 20
1547.669524883293
 30
0.0
 11
6225.997692775757
 21
1531.669524883293
 31
0.0
  0
LINE
  5
25D70
330
747D
100
AcDbEntity
  8
細線
 48
50.0
100
AcDbLine
 10
6166.383113442858
 20
1411.669524883293
 30
0.0
 11
6159.952332824509
 21
1435.669524883293
 31
0.0
  0
LINE
  5
25D71
330
747D
100
AcDbEntity
  8
細線
 48
50.0
100
AcDbLine
 10
6089.997692775757
 20
1421.009445849073
 30
0.0
 11
6093.925849113952
 21
1435.669524883293
 31
0.0
  0
LINE
  5
25D72
330
747D
100
AcDbEntity
  8
部品1
 48
50.0
100
AcDbLine
 10
6385.997692775757
 20
1613.796739580415
 30
0.0
 11
6369.997692775758
 21
1613.796739580415
 31
0.0
  0
CIRCLE
  5
25D73
330
747D
100
AcDbEntity
  8
部品1
 48
50.0
100
AcDbCircle
 10
6265.997692775757
 20
1555.669524883293
 30
0.0
 40
8.0
  0
LINE
  5
25D74
330
747D
100
AcDbEntity
  8
細線
 48
50.0
100
AcDbLine
 10
6338.677093919246
 20
1547.669524883293
 30
0.0
 11
6369.997692775758
 21
1578.990123739804
 31
0.0
  0
ARC
  5
25D75
330
747D
100
AcDbEntity
  8
部品1
 48
50.0
100
AcDbCircle
 10
6393.997692775757
 20
1555.669524883293
 30
0.0
 40
24.0
100
AcDbArc
 50
180.0
 51
199.4712206344897
  0
LINE
  5
25D76
330
747D
100
AcDbEntity
  8
細線
 48
50.0
100
AcDbLine
 10
6245.271158390108
 20
1411.669524883293
 30
0.0
 11
6238.840377771762
 21
1435.669524883293
 31
0.0
  0
LINE
  5
25D77
330
747D
100
AcDbEntity
  8
細線
 48
50.0
100
AcDbLine
 10
6324.159203337361
 20
1411.669524883293
 30
0.0
 11
6317.728422719015
 21
1435.669524883293
 31
0.0
  0
LINE
  5
25D78
330
747D
100
AcDbEntity
  8
細線
 48
50.0
100
AcDbLine
 10
6226.677093919246
 20
1435.669524883293
 30
0.0
 11
6322.677093919246
 21
1531.669524883293
 31
0.0
  0
LINE
  5
25D79
330
747D
100
AcDbEntity
  8
部品1
 48
50.0
100
AcDbLine
 10
6369.997692775758
 20
1613.796739580415
 30
0.0
 11
6369.997692775758
 21
1555.669524883293
 31
0.0
  0
LINE
  5
25D7A
330
747D
100
AcDbEntity
  8
細線
 48
50.0
100
AcDbLine
 10
6311.73632555604
 20
1547.669524883293
 30
0.0
 11
6369.997692775758
 21
1605.930892103011
 31
0.0
  0
LINE
  5
25D7B
330
747D
100
AcDbEntity
  8
部品1
 48
50.0
100
AcDbLine
 10
6385.997692775757
 20
1613.796739580415
 30
0.0
 11
6385.997692775757
 21
1555.669524883293
 31
0.0
  0
LINE
  5
25D7C
330
747D
100
AcDbEntity
  8
部品1
 48
50.0
100
AcDbLine
 10
6697.997692775761
 20
1435.669524883293
 30
0.0
 11
6697.997692775761
 21
1307.669524883293
 31
0.0
  0
LINE
  5
25D7D
330
747D
100
AcDbEntity
  8
細線
 48
50.0
100
AcDbLine
 10
6611.84466711351
 20
1307.669524883293
 30
0.0
 11
6646.142163744696
 21
1435.669524883291
 31
0.0
  0
LINE
  5
25D7E
330
747D
100
AcDbEntity
  8
細線
 48
50.0
100
AcDbLine
 10
6454.068577219016
 20
1307.669524883293
 30
0.0
 11
6488.366073850203
 21
1435.669524883291
 31
0.0
  0
LINE
  5
25D7F
330
747D
100
AcDbEntity
  8
細線
 48
50.0
100
AcDbLine
 10
6532.956622166266
 20
1307.669524883291
 30
0.0
 11
6567.25411879745
 21
1435.669524883291
 31
0.0
  0
LINE
  5
25D80
330
747D
100
AcDbEntity
  8
細線
 48
50.0
100
AcDbLine
 10
6539.387402784615
 20
1331.669524883293
 30
0.0
 11
6545.818183402963
 21
1307.669524883293
 31
0.0
  0
LINE
  5
25D81
330
747D
100
AcDbEntity
  8
細線
 48
50.0
100
AcDbLine
 10
6460.499357837369
 20
1331.669524883293
 30
0.0
 11
6466.930138455715
 21
1307.669524883293
 31
0.0
  0
LINE
  5
25D82
330
747D
100
AcDbEntity
  8
細線
 48
50.0
100
AcDbLine
 10
6618.275447731862
 20
1331.669524883293
 30
0.0
 11
6624.70622835021
 21
1307.669524883293
 31
0.0
  0
LINE
  5
25D83
330
747D
100
AcDbEntity
  8
細線
 48
50.0
100
AcDbLine
 10
6697.163492679109
 20
1331.669524883293
 30
0.0
 11
6697.997692775757
 21
1328.556247738928
 31
0.0
  0
LINE
  5
25D84
330
747D
100
AcDbEntity
  8
細線
 48
50.0
100
AcDbLine
 10
6690.732712060761
 20
1307.669524883291
 30
0.0
 11
6697.997692775757
 21
1334.782802027681
 31
0.0
  0
LINE
  5
25D85
330
747D
100
AcDbEntity
  8
細線
 48
50.0
100
AcDbLine
 10
6554.203240824904
 20
1547.669524883293
 30
0.0
 11
6617.997692775756
 21
1611.463976834144
 31
0.0
  0
CIRCLE
  5
25D86
330
747D
100
AcDbEntity
  8
部品1
 48
50.0
100
AcDbCircle
 10
6521.997692775757
 20
1555.669524883293
 30
0.0
 40
8.0
  0
ARC
  5
25D87
330
747D
100
AcDbEntity
  8
部品1
 48
50.0
100
AcDbCircle
 10
6393.997692775757
 20
1555.669524883293
 30
0.0
 40
24.0
100
AcDbArc
 50
340.5287793655103
 51
0.0
  0
LINE
  5
25D88
330
747D
100
AcDbEntity
  8
細線
 48
50.0
100
AcDbLine
 10
6403.047248284614
 20
1411.669524883293
 30
0.0
 11
6396.616467666266
 21
1435.669524883293
 31
0.0
  0
LINE
  5
25D89
330
747D
100
AcDbEntity
  8
細線
 48
50.0
100
AcDbLine
 10
6481.93529323186
 20
1411.669524883293
 30
0.0
 11
6475.504512613513
 21
1435.669524883293
 31
0.0
  0
LINE
  5
25D8A
330
747D
100
AcDbEntity
  8
細線
 48
50.0
100
AcDbLine
 10
6415.262472461702
 20
1435.669524883293
 30
0.0
 11
6511.262472461701
 21
1531.669524883293
 31
0.0
  0
LINE
  5
25D8B
330
747D
100
AcDbEntity
  8
細線
 48
50.0
100
AcDbLine
 10
6442.203240824904
 20
1435.669524883293
 30
0.0
 11
6538.204128670042
 21
1531.670412728432
 31
0.0
  0
LINE
  5
25D8C
330
747D
100
AcDbEntity
  8
部品1
 48
50.0
100
AcDbLine
 10
6561.997692775758
 20
1547.669524883293
 30
0.0
 11
6561.997692775758
 21
1531.669524883293
 31
0.0
  0
LINE
  5
25D8D
330
747D
100
AcDbEntity
  8
細線
 48
50.0
100
AcDbLine
 10
6639.711383126351
 20
1411.669524883293
 30
0.0
 11
6633.280602508003
 21
1435.669524883293
 31
0.0
  0
LINE
  5
25D8E
330
747D
100
AcDbEntity
  8
細線
 48
50.0
100
AcDbLine
 10
6603.84785100415
 20
1435.669524883293
 30
0.0
 11
6617.997692775756
 21
1449.819366654899
 31
0.0
  0
LINE
  5
25D8F
330
747D
100
AcDbEntity
  8
細線
 48
50.0
100
AcDbLine
 10
6560.823338179104
 20
1411.669524883293
 30
0.0
 11
6554.392557560759
 21
1435.669524883293
 31
0.0
  0
LINE
  5
25D90
330
747D
100
AcDbEntity
  8
細線
 48
50.0
100
AcDbLine
 10
6297.997692775757
 20
1749.457039008671
 30
0.0
 11
6401.997692775762
 21
1853.457039008674
 31
0.0
  0
LINE
  5
25D91
330
747D
100
AcDbEntity
  8
細線
 48
50.0
100
AcDbLine
 10
6297.997692775757
 20
1776.397807371879
 30
0.0
 11
6401.997692775757
 21
1880.397807371879
 31
0.0
  0
LINE
  5
25D92
330
747D
100
AcDbEntity
  8
細線
 48
50.0
100
AcDbLine
 10
6297.997692775757
 20
1722.516270645464
 30
0.0
 11
6401.997692775762
 21
1826.516270645464
 31
0.0
  0
LINE
  5
25D93
330
747D
100
AcDbEntity
  8
細線
 48
50.0
100
AcDbLine
 10
6385.997692775757
 20
2026.042417551124
 30
0.0
 11
6401.997692775757
 21
2042.042417551124
 31
0.0
  0
LINE
  5
25D94
330
747D
100
AcDbEntity
  8
細線
 48
50.0
100
AcDbLine
 10
6385.997692775757
 20
2052.983185914331
 30
0.0
 11
6401.997692775757
 21
2068.983185914331
 31
0.0
  0
LINE
  5
25D95
330
747D
100
AcDbEntity
  8
部品1
 48
50.0
100
AcDbLine
 10
6169.997692775758
 20
1675.669524883293
 30
0.0
 11
6297.997692775757
 21
1675.669524883293
 31
0.0
  0
LINE
  5
25D96
330
747D
100
AcDbEntity
  8
細線
 48
50.0
100
AcDbLine
 10
6169.99769277575
 20
1621.457039008668
 30
0.0
 11
6224.210178650381
 21
1675.669524883293
 31
0.0
  0
LINE
  5
25D97
330
747D
100
AcDbEntity
  8
細線
 48
50.0
100
AcDbLine
 10
6169.99769277575
 20
1648.397807371879
 30
0.0
 11
6197.269410287171
 21
1675.669524883293
 31
0.0
  0
LINE
  5
25D98
330
747D
100
AcDbEntity
  8
部品1
 48
50.0
100
AcDbLine
 10
6385.997692775757
 20
2021.796739580415
 30
0.0
 11
6369.997692775758
 21
2021.796739580419
 31
0.0
  0
LINE
  5
25D99
330
747D
100
AcDbEntity
  8
細線
 48
50.0
100
AcDbLine
 10
6297.997692775757
 20
1938.042417551123
 30
0.0
 11
6381.752014805051
 21
2021.796739580415
 31
0.0
  0
LINE
  5
25D9A
330
747D
100
AcDbEntity
  8
細線
 48
50.0
100
AcDbLine
 10
6297.997692775757
 20
1964.98318591433
 30
0.0
 11
6369.997692775758
 21
2036.983185914331
 31
0.0
  0
LINE
  5
25D9B
330
747D
100
AcDbEntity
  8
部品1
 48
50.0
100
AcDbLine
 10
6369.997692775758
 20
2021.796739580419
 30
0.0
 11
6369.997692775758
 21
2079.923954277539
 31
0.0
  0
LINE
  5
25D9C
330
747D
100
AcDbEntity
  8
細線
 48
50.0
100
AcDbLine
 10
6297.997692775757
 20
1991.923954277538
 30
0.0
 11
6369.997692775758
 21
2063.923954277539
 31
0.0
  0
LINE
  5
25D9D
330
747D
100
AcDbEntity
  8
部品1
 48
50.0
100
AcDbLine
 10
6385.997692775757
 20
2021.796739580415
 30
0.0
 11
6385.997692775757
 21
2079.923954277539
 31
0.0
  0
LINE
  5
25D9E
330
747D
100
AcDbEntity
  8
細線
 48
50.0
100
AcDbLine
 10
6417.997692775762
 20
1842.516270645464
 30
0.0
 11
6489.997692775749
 21
1914.516270645464
 31
0.0
  0
LINE
  5
25D9F
330
747D
100
AcDbEntity
  8
部品1
 48
50.0
100
AcDbLine
 10
6489.997692775758
 20
1675.669524883293
 30
0.0
 11
6617.997692775756
 21
1675.669524883293
 31
0.0
  0
LINE
  5
25DA0
330
747D
100
AcDbEntity
  8
細線
 48
50.0
100
AcDbLine
 10
6417.997692775762
 20
1653.930892103014
 30
0.0
 11
6489.997692775749
 21
1725.930892103009
 31
0.0
  0
LINE
  5
25DA1
330
747D
100
AcDbEntity
  8
細線
 48
50.0
100
AcDbLine
 10
6417.997692775762
 20
1680.871660466222
 30
0.0
 11
6489.997692775749
 21
1752.871660466218
 31
0.0
  0
LINE
  5
25DA2
330
747D
100
AcDbEntity
  8
細線
 48
50.0
100
AcDbLine
 10
6417.997692775762
 20
1626.990123739804
 30
0.0
 11
6489.997692775749
 21
1698.990123739804
 31
0.0
  0
LINE
  5
25DA3
330
747D
100
AcDbEntity
  8
細線
 48
50.0
100
AcDbLine
 10
6417.997692775756
 20
1896.397807371879
 30
0.0
 11
6489.997692775758
 21
1968.397807371879
 31
0.0
  0
LINE
  5
25DA4
330
747D
100
AcDbEntity
  8
細線
 48
50.0
100
AcDbLine
 10
6417.997692775762
 20
1869.457039008674
 30
0.0
 11
6489.997692775749
 21
1941.457039008668
 31
0.0
  0
MTEXT
  5
25DA5
102
{ACAD_REACTORS
330
25D50
102
}
330
747D
100
AcDbEntity
  8
寸法
 62
     7
 48
50.0
100
AcDbMText
 10
6731.736148637008
 20
1258.32043915114
 30
0.0
 40
80.0
 41
0.8
 71
     4
 72
     1
  1
\A1;D10@300
  7
STYLE2
 73
     1
 44
1.0
1001
ACAD
1000
MTEXTBEGIN
1070
    73
1070
     1
1070
    44
1040
1.0
1070
    74
1070
     0
1000
MTEXTEND
  0
DIMENSION
  5
25DA6
330
747D
100
AcDbEntity
  8
寸法
 48
50.0
100
AcDbDimension
  2
*D51
 10
6297.997692775756
 20
2539.669524883293
 30
0.0
 11
6405.224023120954
 21
2639.337332799673
 31
0.0
 70
   160
  1
120\P195
 71
     5
 42
192.0
  3
INABA_S40G
100
AcDbAlignedDimension
 13
6489.997692775756
 23
2219.669524883293
 33
0.0
 14
6297.997692775756
 24
2219.669524883293
 34
0.0
100
AcDbRotatedDimension
1001
ACAD
1000
DSTYLE
1002
{
1070
   174
1070
     0
1070
   272
1070
     1
1070
   279
1070
     1
1070
   288
1070
     0
1070
   341
1005
0
1002
}
  0
LINE
  5
25DA7
330
747D
100
AcDbEntity
  8
部品1
 48
50.0
100
AcDbLine
 10
6297.997692775757
 20
2219.669524883293
 30
0.0
 11
6489.997692775758
 21
2219.669524883293
 31
0.0
  0
LINE
  5
25DA8
330
747D
100
AcDbEntity
  8
細線
 48
50.0
100
AcDbLine
 10
6297.997692775757
 20
2180.509332819991
 30
0.0
 11
6337.157884839061
 21
2219.669524883293
 31
0.0
  0
LINE
  5
25DA9
330
747D
100
AcDbEntity
  8
細線
 48
50.0
100
AcDbLine
 10
6297.997692775757
 20
2153.568564456783
 30
0.0
 11
6364.098653202266
 21
2219.669524883293
 31
0.0
  0
LINE
  5
25DAA
330
747D
100
AcDbEntity
  8
細線
 48
50.0
100
AcDbLine
 10
6297.997692775757
 20
2207.450101183198
 30
0.0
 11
6310.217116475852
 21
2219.669524883293
 31
0.0
  0
LINE
  5
25DAB
330
747D
100
AcDbEntity
  8
細線
 48
50.0
100
AcDbLine
 10
6417.550400041744
 20
2084.535893180315
 30
0.0
 11
6489.997692775758
 21
2156.983185914331
 31
0.0
  0
LINE
  5
25DAC
330
747D
100
AcDbEntity
  8
細線
 48
50.0
100
AcDbLine
 10
6406.490115278227
 20
2100.416376780009
 30
0.0
 11
6489.997692775758
 21
2183.923954277538
 31
0.0
  0
LINE
  5
25DAD
330
747D
100
AcDbEntity
  8
細線
 48
50.0
100
AcDbLine
 10
8282.437005952953
 20
2060.797807371882
 30
0.0
 11
8412.037005952951
 21
2190.39780737188
 31
0.0
  0
LINE
  5
25DAE
330
747D
100
AcDbEntity
  8
部品1
100
AcDbLine
 10
8412.037005952949
 20
1675.669524883293
 30
0.0
 11
8412.037005952951
 21
2219.669524883293
 31
0.0
  0
LINE
  5
25DAF
330
747D
100
AcDbEntity
  8
部品1
 48
50.0
100
AcDbLine
 10
7998.037005952951
 20
1675.669524883293
 30
0.0
 11
7998.037005952951
 21
2219.669524883293
 31
0.0
  0
LINE
  5
25DB0
330
747D
100
AcDbEntity
  8
細線
 48
50.0
100
AcDbLine
 10
7998.037005952951
 20
1991.923954277538
 30
0.0
 11
8156.43700595295
 21
2150.323954277535
 31
0.0
  0
LINE
  5
25DB1
330
747D
100
AcDbEntity
  8
細線
 48
50.0
100
AcDbLine
 10
7998.037005952951
 20
1964.98318591433
 30
0.0
 11
8156.43700595295
 21
2123.383185914328
 31
0.0
  0
LINE
  5
25DB2
330
747D
100
AcDbEntity
  8
細線
 48
50.0
100
AcDbLine
 10
7998.037005952951
 20
1938.042417551123
 30
0.0
 11
8156.437005952946
 21
2096.442417551116
 31
0.0
  0
TEXT
  5
25DB3
330
747D
100
AcDbEntity
  8
部品1
 48
50.0
100
AcDbText
 10
7583.897104119995
 20
1990.908517166548
 30
0.0
 40
80.0
  1
▽G.L
  7
STYLE2
100
AcDbText
  0
LINE
  5
25DB4
330
747D
100
AcDbEntity
  8
部品1
100
AcDbLine
 10
8228.437005952951
 20
1994.669524883293
 30
0.0
 11
8228.437005952946
 21
2268.829524883294
 31
0.0
  0
LINE
  5
25DB5
330
747D
100
AcDbEntity
  8
部品1
100
AcDbLine
 10
8210.43700595295
 20
1994.669524883293
 30
0.0
 11
8210.437005952947
 21
2268.829524883294
 31
0.0
  0
LINE
  5
25DB6
330
747D
100
AcDbEntity
  8
細線
 48
50.0
100
AcDbLine
 10
8282.437005952953
 20
2006.916270645452
 30
0.0
 11
8412.037005952951
 21
2136.516270645443
 31
0.0
  0
LINE
  5
25DB7
330
747D
100
AcDbEntity
  8
細線
 48
50.0
100
AcDbLine
 10
8282.437005952953
 20
2033.857039008664
 30
0.0
 11
8412.037005952951
 21
2163.457039008661
 31
0.0
  0
LINE
  5
25DB8
330
747D
100
AcDbEntity
  8
部品1
100
AcDbLine
 10
8282.437005952949
 20
1895.669524883293
 30
0.0
 11
8282.437005952949
 21
2219.669524883293
 31
0.0
  0
LINE
  5
25DB9
330
747D
100
AcDbEntity
  8
部品1
100
AcDbLine
 10
8156.437005952945
 20
1895.669524883293
 30
0.0
 11
8156.43700595295
 21
2219.669524883293
 31
0.0
  0
LINE
  5
25DBA
330
747D
100
AcDbEntity
  8
細線
 48
50.0
100
AcDbLine
 10
7998.037005952951
 20
1749.457039008671
 30
0.0
 11
8156.437005952943
 21
1907.85703900866
 31
0.0
  0
LINE
  5
25DBB
330
747D
100
AcDbEntity
  8
細線
 48
50.0
100
AcDbLine
 10
7998.037005952951
 20
1722.516270645464
 30
0.0
 11
8171.190260190787
 21
1895.669524883291
 31
0.0
  0
LINE
  5
25DBC
330
747D
100
AcDbEntity
  8
細線
 48
50.0
100
AcDbLine
 10
7998.037005952951
 20
1776.397807371879
 30
0.0
 11
8156.437005952943
 21
1934.797807371874
 31
0.0
  0
LINE
  5
25DBD
330
747D
100
AcDbEntity
  8
細線
 48
50.0
100
AcDbLine
 10
7926.716407096439
 20
1435.669524883293
 30
0.0
 11
8412.037005952951
 21
1920.990123739801
 31
0.0
  0
LINE
  5
25DBE
330
747D
100
AcDbEntity
  8
細線
 48
50.0
100
AcDbLine
 10
7899.775638733235
 20
1435.669524883293
 30
0.0
 11
8412.037005952951
 21
1947.930892103007
 31
0.0
  0
LINE
  5
25DBF
330
747D
100
AcDbEntity
  8
細線
 48
50.0
100
AcDbLine
 10
7872.834870370025
 20
1435.669524883293
 30
0.0
 11
8412.037005952949
 21
1974.871660466218
 31
0.0
  0
LINE
  5
25DC0
330
747D
100
AcDbEntity
  8
部品1
 48
50.0
100
AcDbLine
 10
8620.037005952951
 20
1435.669524883293
 30
0.0
 11
7790.037005952952
 21
1435.669524883293
 31
0.0
  0
LINE
  5
25DC1
330
747D
100
AcDbEntity
  8
部品1
 48
50.0
100
AcDbLine
 10
8620.037005952951
 20
1307.669524883293
 30
0.0
 11
7790.037005952952
 21
1307.669524883293
 31
0.0
  0
LINE
  5
25DC2
330
747D
100
AcDbEntity
  8
細線
 48
50.0
100
AcDbLine
 10
7870.037005952944
 20
1594.516270645464
 30
0.0
 11
7951.190260190779
 21
1675.669524883293
 31
0.0
  0
LINE
  5
25DC3
330
747D
100
AcDbEntity
  8
部品1
 48
50.0
100
AcDbLine
 10
7870.03700595295
 20
1435.669524883293
 30
0.0
 11
7870.03700595295
 21
1675.669524883293
 31
0.0
  0
LINE
  5
25DC4
330
747D
100
AcDbEntity
  8
細線
 48
50.0
100
AcDbLine
 10
7917.443755554469
 20
1307.669524883293
 30
0.0
 11
7951.74125218565
 21
1435.669524883293
 31
0.0
  0
LINE
  5
25DC5
330
747D
100
AcDbEntity
  8
部品1
 48
50.0
100
AcDbLine
 10
7790.037005952952
 20
1307.669524883293
 30
0.0
 11
7790.037005952952
 21
1435.669524883293
 31
0.0
  0
LINE
  5
25DC6
330
747D
100
AcDbEntity
  8
細線
 48
50.0
100
AcDbLine
 10
7838.555710607209
 20
1307.669524883291
 30
0.0
 11
7872.853207238392
 21
1435.669524883291
 31
0.0
  0
LINE
  5
25DC7
330
747D
100
AcDbEntity
  8
細線
 48
50.0
100
AcDbLine
 10
7996.331800501714
 20
1307.669524883291
 30
0.0
 11
8030.629297132895
 21
1435.669524883291
 31
0.0
  0
LINE
  5
25DC8
330
747D
100
AcDbEntity
  8
細線
 48
50.0
100
AcDbLine
 10
7844.986491225562
 20
1331.669524883293
 30
0.0
 11
7851.417271843908
 21
1307.669524883293
 31
0.0
  0
LINE
  5
25DC9
330
747D
100
AcDbEntity
  8
細線
 48
50.0
100
AcDbLine
 10
8002.762581120066
 20
1331.669524883293
 30
0.0
 11
8009.193361738413
 21
1307.669524883293
 31
0.0
  0
LINE
  5
25DCA
330
747D
100
AcDbEntity
  8
細線
 48
50.0
100
AcDbLine
 10
7923.874536172815
 20
1331.669524883293
 30
0.0
 11
7930.30531679116
 21
1307.669524883293
 31
0.0
  0
LINE
  5
25DCB
330
747D
100
AcDbEntity
  8
細線
 48
50.0
100
AcDbLine
 10
7790.03700595295
 20
1421.009445849073
 30
0.0
 11
7793.965162291145
 21
1435.669524883293
 31
0.0
  0
LINE
  5
25DCC
330
747D
100
AcDbEntity
  8
細線
 48
50.0
100
AcDbLine
 10
7866.422426620051
 20
1411.669524883293
 30
0.0
 11
7859.991646001706
 21
1435.669524883293
 31
0.0
  0
LINE
  5
25DCD
330
747D
100
AcDbEntity
  8
細線
 48
50.0
100
AcDbLine
 10
8024.198516514557
 20
1411.669524883293
 30
0.0
 11
8017.767735896208
 21
1435.669524883293
 31
0.0
  0
LINE
  5
25DCE
330
747D
100
AcDbEntity
  8
細線
 48
50.0
100
AcDbLine
 10
7945.310471567303
 20
1411.669524883293
 30
0.0
 11
7938.879690948957
 21
1435.669524883293
 31
0.0
  0
LWPOLYLINE
  5
25DCF
330
747D
100
AcDbEntity
  8
部品1
 48
50.0
100
AcDbPolyline
 90
        2
 70
     0
 43
8.0
 10
7583.897104119995
 20
1979.669524883294
 10
7998.037005952951
 20
1979.669524883294
  0
LINE
  5
25DD0
330
747D
100
AcDbEntity
  8
細線
 48
50.0
100
AcDbLine
 10
7870.037005952944
 20
1621.457039008668
 30
0.0
 11
7924.249491827575
 21
1675.669524883293
 31
0.0
  0
LINE
  5
25DD1
330
747D
100
AcDbEntity
  8
部品1
 48
50.0
100
AcDbLine
 10
7870.03700595295
 20
1675.669524883293
 30
0.0
 11
7998.037005952951
 21
1675.669524883293
 31
0.0
  0
LINE
  5
25DD2
330
747D
100
AcDbEntity
  8
細線
 48
50.0
100
AcDbLine
 10
7870.037005952944
 20
1648.397807371879
 30
0.0
 11
7897.308723464364
 21
1675.669524883293
 31
0.0
  0
LINE
  5
25DD3
330
747D
100
AcDbEntity
  8
細線
 48
50.0
100
AcDbLine
 10
8115.301785638894
 20
1435.669524883293
 30
0.0
 11
8412.037005952951
 21
1732.404745197345
 31
0.0
  0
LINE
  5
25DD4
330
747D
100
AcDbEntity
  8
細線
 48
50.0
100
AcDbLine
 10
8142.2425540021
 20
1435.669524883293
 30
0.0
 11
8412.037005952951
 21
1705.46397683415
 31
0.0
  0
LINE
  5
25DD5
330
747D
100
AcDbEntity
  8
細線
 48
50.0
100
AcDbLine
 10
8088.361017275685
 20
1435.669524883293
 30
0.0
 11
8412.037005952949
 21
1759.345513560559
 31
0.0
  0
LINE
  5
25DD6
330
747D
100
AcDbEntity
  8
細線
 48
50.0
100
AcDbLine
 10
8303.887164181345
 20
1435.669524883293
 30
0.0
 11
8540.03700595295
 21
1671.819366654901
 31
0.0
  0
LINE
  5
25DD7
330
747D
100
AcDbEntity
  8
細線
 48
50.0
100
AcDbLine
 10
8330.827932544556
 20
1435.669524883293
 30
0.0
 11
8540.03700595295
 21
1644.878598291686
 31
0.0
  0
LINE
  5
25DD8
330
747D
100
AcDbEntity
  8
部品1
 48
50.0
100
AcDbLine
 10
8540.03700595295
 20
1675.669524883293
 30
0.0
 11
8540.03700595295
 21
1435.669524883293
 31
0.0
  0
LINE
  5
25DD9
330
747D
100
AcDbEntity
  8
細線
 48
50.0
100
AcDbLine
 10
8357.76870090776
 20
1435.669524883293
 30
0.0
 11
8540.03700595295
 21
1617.937829928489
 31
0.0
  0
LINE
  5
25DDA
330
747D
100
AcDbEntity
  8
細線
 48
50.0
100
AcDbLine
 10
8232.99593534346
 20
1307.669524883291
 30
0.0
 11
8267.293431974641
 21
1435.669524883291
 31
0.0
  0
LINE
  5
25DDB
330
747D
100
AcDbEntity
  8
細線
 48
50.0
100
AcDbLine
 10
8075.219845448966
 20
1307.669524883293
 30
0.0
 11
8109.517342080147
 21
1435.669524883293
 31
0.0
  0
LINE
  5
25DDC
330
747D
100
AcDbEntity
  8
細線
 48
50.0
100
AcDbLine
 10
8154.107890396211
 20
1307.669524883293
 30
0.0
 11
8188.405387027398
 21
1435.669524883291
 31
0.0
  0
LINE
  5
25DDD
330
747D
100
AcDbEntity
  8
細線
 48
50.0
100
AcDbLine
 10
8311.883980290701
 20
1307.669524883293
 30
0.0
 11
8346.18147692189
 21
1435.669524883291
 31
0.0
  0
LINE
  5
25DDE
330
747D
100
AcDbEntity
  8
細線
 48
50.0
100
AcDbLine
 10
8160.538671014565
 20
1331.669524883293
 30
0.0
 11
8166.969451632912
 21
1307.669524883293
 31
0.0
  0
LINE
  5
25DDF
330
747D
100
AcDbEntity
  8
細線
 48
50.0
100
AcDbLine
 10
8081.650626067318
 20
1331.669524883293
 30
0.0
 11
8088.081406685665
 21
1307.669524883293
 31
0.0
  0
LINE
  5
25DE0
330
747D
100
AcDbEntity
  8
細線
 48
50.0
100
AcDbLine
 10
8318.314760909055
 20
1331.669524883293
 30
0.0
 11
8324.745541527402
 21
1307.669524883293
 31
0.0
  0
LINE
  5
25DE1
330
747D
100
AcDbEntity
  8
細線
 48
50.0
100
AcDbLine
 10
8239.42671596181
 20
1331.669524883293
 30
0.0
 11
8245.857496580155
 21
1307.669524883293
 31
0.0
  0
LINE
  5
25DE2
330
747D
100
AcDbEntity
  8
細線
 48
50.0
100
AcDbLine
 10
8181.974606409054
 20
1411.669524883293
 30
0.0
 11
8175.543825790706
 21
1435.669524883293
 31
0.0
  0
LINE
  5
25DE3
330
747D
100
AcDbEntity
  8
細線
 48
50.0
100
AcDbLine
 10
8103.086561461806
 20
1411.669524883293
 30
0.0
 11
8096.655780843459
 21
1435.669524883293
 31
0.0
  0
LINE
  5
25DE4
330
747D
100
AcDbEntity
  8
細線
 48
50.0
100
AcDbLine
 10
8260.862651356299
 20
1411.669524883293
 30
0.0
 11
8254.431870737953
 21
1435.669524883293
 31
0.0
  0
LINE
  5
25DE5
330
747D
100
AcDbEntity
  8
細線
 48
50.0
100
AcDbLine
 10
8339.750696303545
 20
1411.669524883293
 30
0.0
 11
8333.3199156852
 21
1435.669524883293
 31
0.0
  0
LINE
  5
25DE6
330
747D
100
AcDbEntity
  8
部品1
 48
50.0
100
AcDbLine
 10
8620.037005952951
 20
1435.669524883293
 30
0.0
 11
8620.037005952951
 21
1307.669524883293
 31
0.0
  0
LINE
  5
25DE7
330
747D
100
AcDbEntity
  8
細線
 48
50.0
100
AcDbLine
 10
8548.548115132446
 20
1307.669524883291
 30
0.0
 11
8582.84561176363
 21
1435.66952488329
 31
0.0
  0
LINE
  5
25DE8
330
747D
100
AcDbEntity
  8
細線
 48
50.0
100
AcDbLine
 10
8390.772025237952
 20
1307.669524883291
 30
0.0
 11
8425.069521869124
 21
1435.669524883293
 31
0.0
  0
LINE
  5
25DE9
330
747D
100
AcDbEntity
  8
細線
 48
50.0
100
AcDbLine
 10
8469.6600701852
 20
1307.66952488329
 30
0.0
 11
8503.957566816385
 21
1435.66952488329
 31
0.0
  0
LINE
  5
25DEA
330
747D
100
AcDbEntity
  8
細線
 48
50.0
100
AcDbLine
 10
8397.2028058563
 20
1331.669524883293
 30
0.0
 11
8403.633586474658
 21
1307.669524883293
 31
0.0
  0
LINE
  5
25DEB
330
747D
100
AcDbEntity
  8
細線
 48
50.0
100
AcDbLine
 10
8476.090850803549
 20
1331.669524883291
 30
0.0
 11
8482.521631421896
 21
1307.669524883291
 31
0.0
  0
LINE
  5
25DEC
330
747D
100
AcDbEntity
  8
細線
 48
50.0
100
AcDbLine
 10
8554.978895750796
 20
1331.669524883291
 30
0.0
 11
8561.409676369144
 21
1307.669524883291
 31
0.0
  0
LINE
  5
25DED
330
747D
100
AcDbEntity
  8
細線
 48
50.0
100
AcDbLine
 10
8418.638741250783
 20
1411.669524883293
 30
0.0
 11
8412.207960632438
 21
1435.669524883293
 31
0.0
  0
LINE
  5
25DEE
330
747D
100
AcDbEntity
  8
細線
 48
50.0
100
AcDbLine
 10
8497.52678619804
 20
1411.669524883291
 30
0.0
 11
8491.096005579693
 21
1435.669524883291
 31
0.0
  0
LINE
  5
25DEF
330
747D
100
AcDbEntity
  8
細線
 48
50.0
100
AcDbLine
 10
8576.414831145283
 20
1411.669524883291
 30
0.0
 11
8569.984050526938
 21
1435.669524883291
 31
0.0
  0
LINE
  5
25DF0
330
747D
100
AcDbEntity
  8
部品1
100
AcDbLine
 10
8282.437005952949
 20
1895.669524883291
 30
0.0
 11
8156.437005952945
 21
1895.669524883291
 31
0.0
  0
LINE
  5
25DF1
330
747D
100
AcDbEntity
  8
部品1
100
AcDbLine
 10
8264.437005952951
 20
1976.669524883293
 30
0.0
 11
8264.437005952951
 21
1994.669524883293
 31
0.0
  0
ARC
  5
25DF2
330
747D
100
AcDbEntity
  8
部品1
100
AcDbCircle
 10
8228.437005952951
 20
1994.669524883293
 30
0.0
 40
18.0
100
AcDbArc
 50
180.0
 51
270.0
  0
LINE
  5
25DF3
330
747D
100
AcDbEntity
  8
部品1
100
AcDbLine
 10
8228.437005952951
 20
1976.669524883293
 30
0.0
 11
8264.437005952951
 21
1976.669524883293
 31
0.0
  0
LINE
  5
25DF4
330
747D
100
AcDbEntity
  8
部品1
100
AcDbLine
 10
8228.437005952951
 20
1994.669524883293
 30
0.0
 11
8264.437005952951
 21
1994.669524883293
 31
0.0
  0
LINE
  5
25DF5
330
747D
100
AcDbEntity
  8
部品1
 48
50.0
100
AcDbLine
 10
8412.037005952951
 20
1675.669524883293
 30
0.0
 11
8540.03700595295
 21
1675.669524883293
 31
0.0
  0
LINE
  5
25DF6
330
747D
100
AcDbEntity
  8
部品1
100
AcDbLine
 10
8017.837005952952
 20
2309.669524883293
 30
0.0
 11
8055.63700595295
 21
2309.669524883293
 31
0.0
  0
LINE
  5
25DF7
330
747D
100
AcDbEntity
  8
細線
 48
50.0
100
AcDbLine
 10
7998.037005952951
 20
2180.509332819991
 30
0.0
 11
8037.197198016256
 21
2219.669524883293
 31
0.0
  0
LINE
  5
25DF8
330
747D
100
AcDbEntity
  8
細線
 48
50.0
100
AcDbLine
 10
7998.037005952951
 20
2153.568564456783
 30
0.0
 11
8064.13796637946
 21
2219.669524883293
 31
0.0
  0
LINE
  5
25DF9
330
747D
100
AcDbEntity
  8
部品1
 48
50.0
100
AcDbLine
 10
7998.037005952951
 20
2219.669524883293
 30
0.0
 11
8412.037005952951
 21
2219.669524883293
 31
0.0
  0
TEXT
  5
25DFA
330
747D
100
AcDbEntity
  8
部品1
 48
50.0
100
AcDbText
 10
7571.590909373459
 20
2550.230045983769
 30
0.0
 40
80.0
  1
※(別売)
  7
STYLE2
100
AcDbText
  0
LINE
  5
25DFB
330
747D
100
AcDbEntity
  8
部品1
100
AcDbLine
 10
8015.137005952951
 20
2298.869524883293
 30
0.0
 11
8015.137005952951
 21
2306.969524883293
 31
0.0
  0
ARC
  5
25DFC
330
747D
100
AcDbEntity
  8
部品1
100
AcDbCircle
 10
8017.837005952952
 20
2306.969524883293
 30
0.0
 40
2.7
100
AcDbArc
 50
90.0
 51
180.0
  0
ARC
  5
25DFD
330
747D
100
AcDbEntity
  8
部品1
100
AcDbCircle
 10
8007.03700595295
 20
2294.061428586001
 30
0.0
 40
2.7
100
AcDbArc
 50
104.0362434679059
 51
180.0
  0
LINE
  5
25DFE
330
747D
100
AcDbEntity
  8
部品1
100
AcDbLine
 10
8006.382159765351
 20
2296.680813336393
 30
0.0
 11
8015.137005952951
 21
2298.869524883293
 31
0.0
  0
ARC
  5
25DFF
330
747D
100
AcDbEntity
  8
部品1
100
AcDbCircle
 10
8007.03700595295
 20
2231.929524883293
 30
0.0
 40
2.7
100
AcDbArc
 50
180.0
 51
270.0
  0
LINE
  5
25E00
330
747D
100
AcDbEntity
  8
細線
 48
50.0
100
AcDbLine
 10
7998.037005952951
 20
2207.450101183198
 30
0.0
 11
8010.256429653045
 21
2219.669524883293
 31
0.0
  0
LINE
  5
25E01
330
747D
100
AcDbEntity
  8
部品1
100
AcDbLine
 10
8007.03700595295
 20
2229.229524883294
 30
0.0
 11
8018.737005952946
 21
2229.229524883294
 31
0.0
  0
LINE
  5
25E02
330
747D
100
AcDbEntity
  8
部品1
100
AcDbLine
 10
8004.337005952953
 20
2231.929524883293
 30
0.0
 11
8004.337005952953
 21
2294.061428586001
 31
0.0
  0
LINE
  5
25E03
330
747D
100
AcDbEntity
  8
部品1
100
AcDbLine
 10
8162.997005952943
 20
2229.229524883294
 30
0.0
 11
8364.337005952945
 21
2229.229524883294
 31
0.0
  0
LINE
  5
25E04
330
747D
100
AcDbEntity
  8
部品1
100
AcDbLine
 10
8055.63700595295
 20
2309.669524883293
 30
0.0
 11
8055.63700595295
 21
2317.769524883293
 31
0.0
  0
LINE
  5
25E05
330
747D
100
AcDbEntity
  8
部品1
100
AcDbLine
 10
8106.03700595295
 20
2328.56952488329
 30
0.0
 11
8106.03700595295
 21
2277.269524883294
 31
0.0
  0
LINE
  5
25E06
330
747D
100
AcDbEntity
  8
部品1
100
AcDbLine
 10
8129.437005952949
 20
2289.229524883293
 30
0.0
 11
8157.597005952949
 21
2289.229524883293
 31
0.0
  0
ARC
  5
25E07
330
747D
100
AcDbEntity
  8
部品1
100
AcDbCircle
 10
8129.437005952949
 20
2286.529524883293
 30
0.0
 40
2.7
100
AcDbArc
 50
90.0
 51
180.0
  0
ARC
  5
25E08
330
747D
100
AcDbEntity
  8
部品1
100
AcDbCircle
 10
8157.597005952949
 20
2286.529524883293
 30
0.0
 40
2.7
100
AcDbArc
 50
0.0
 51
90.0
  0
LINE
  5
25E09
330
747D
100
AcDbEntity
  8
部品1
100
AcDbLine
 10
8148.337005952951
 20
2274.569524883293
 30
0.0
 11
8148.337005952951
 21
2231.929524883293
 31
0.0
  0
LINE
  5
25E0A
330
747D
100
AcDbEntity
  8
部品1
100
AcDbLine
 10
8133.937005952949
 20
2229.229524883294
 30
0.0
 11
8145.63700595295
 21
2229.229524883294
 31
0.0
  0
ARC
  5
25E0B
330
747D
100
AcDbEntity
  8
部品1
100
AcDbCircle
 10
8162.997005952943
 20
2231.929524883293
 30
0.0
 40
2.7
100
AcDbArc
 50
180.0
 51
270.0
  0
ARC
  5
25E0C
330
747D
100
AcDbEntity
  8
部品1
100
AcDbCircle
 10
8145.63700595295
 20
2231.929524883293
 30
0.0
 40
2.7
100
AcDbArc
 50
270.0
 51
0.0
  0
LINE
  5
25E0D
330
747D
100
AcDbEntity
  8
部品1
100
AcDbLine
 10
8106.03700595295
 20
2277.269524883294
 30
0.0
 11
8145.63700595295
 21
2277.269524883294
 31
0.0
  0
ARC
  5
25E0E
330
747D
100
AcDbEntity
  8
部品1
100
AcDbCircle
 10
8145.63700595295
 20
2274.569524883293
 30
0.0
 40
2.7
100
AcDbArc
 50
0.0
 51
90.0
  0
LINE
  5
25E0F
330
747D
100
AcDbEntity
  8
部品1
100
AcDbLine
 10
8160.297005952951
 20
2286.529524883293
 30
0.0
 11
8160.297005952946
 21
2231.929524883293
 31
0.0
  0
LINE
  5
25E10
330
747D
100
AcDbEntity
  8
部品1
100
AcDbLine
 10
8126.73700595295
 20
2286.529524883293
 30
0.0
 11
8126.73700595295
 21
2269.429524883293
 31
0.0
  0
LINE
  5
25E11
330
747D
100
AcDbEntity
  8
細線
100
AcDbLine
 10
8224.837005952952
 20
2229.229524883294
 30
0.0
 11
8224.837005952952
 21
2272.429524883293
 31
0.0
  0
LINE
  5
25E12
330
747D
100
AcDbEntity
  8
細線
100
AcDbLine
 10
8214.037005952953
 20
2229.229524883294
 30
0.0
 11
8214.037005952951
 21
2272.429524883293
 31
0.0
  0
LINE
  5
25E13
330
747D
100
AcDbEntity
  8
部品1
100
AcDbLine
 10
8210.43700595295
 20
2268.829524883294
 30
0.0
 11
8228.437005952951
 21
2268.829524883294
 31
0.0
  0
LINE
  5
25E14
330
747D
100
AcDbEntity
  8
部品1
100
AcDbLine
 10
8214.037005952951
 20
2272.429524883293
 30
0.0
 11
8224.837005952952
 21
2272.429524883293
 31
0.0
  0
ELLIPSE
  5
25E15
330
747D
100
AcDbEntity
  8
部品1
 48
50.0
100
AcDbEllipse
 10
8219.437005952951
 20
2488.792813327565
 30
0.0
 11
40.0
 21
0.0
 31
0.0
210
0.0
220
0.0
230
1.0
 40
0.4
 41
0.0
 42
6.283185307179586
  0
ELLIPSE
  5
25E16
330
747D
100
AcDbEntity
  8
部品1
 48
50.0
100
AcDbEllipse
 10
8219.437005952951
 20
2479.192813327566
 30
0.0
 11
40.0
 21
0.0
 31
0.0
210
0.0
220
0.0
230
1.0
 40
0.4
 41
3.141592653589793
 42
6.283185307179586
  0
LINE
  5
25E17
330
747D
100
AcDbEntity
  8
部品1
 48
50.0
100
AcDbLine
 10
8179.43700595295
 20
2488.792813327565
 30
0.0
 11
8179.43700595295
 21
2479.192813327565
 31
0.0
  0
ARC
  5
25E18
330
747D
100
AcDbEntity
  8
部品1
100
AcDbCircle
 10
8103.337005952951
 20
2328.56952488329
 30
0.0
 40
2.7
100
AcDbArc
 50
0.0
 51
90.0
  0
ARC
  5
25E19
330
747D
100
AcDbEntity
  8
部品1
100
AcDbCircle
 10
8061.03700595295
 20
2328.569524883293
 30
0.0
 40
2.7
100
AcDbArc
 50
90.0
 51
180.0
  0
LINE
  5
25E1A
330
747D
100
AcDbEntity
  8
部品1
100
AcDbLine
 10
8058.337005952951
 20
2320.469524883293
 30
0.0
 11
8058.337005952951
 21
2320.469524883293
 31
0.0
  0
LINE
  5
25E1B
330
747D
100
AcDbEntity
  8
部品1
100
AcDbLine
 10
8058.337005952951
 20
2320.469524883293
 30
0.0
 11
8058.337005952951
 21
2328.569524883293
 31
0.0
  0
LINE
  5
25E1C
330
747D
100
AcDbEntity
  8
部品1
100
AcDbLine
 10
8061.03700595295
 20
2331.269524883293
 30
0.0
 11
8103.337005952951
 21
2331.26952488329
 31
0.0
  0
ARC
  5
25E1D
330
747D
100
AcDbEntity
  8
部品1
100
AcDbCircle
 10
8058.337005952951
 20
2317.769524883293
 30
0.0
 40
2.7
100
AcDbArc
 50
90.0
 51
180.0
  0
ELLIPSE
  5
25E1E
330
747D
100
AcDbEntity
  8
部品1
 48
50.0
100
AcDbEllipse
 10
8219.437005952951
 20
2488.792813327565
 30
0.0
 11
18.4
 21
0.0
 31
0.0
210
0.0
220
0.0
230
1.0
 40
0.3478260869565217
 41
0.0
 42
6.283185307179586
  0
LINE
  5
25E1F
330
747D
100
AcDbEntity
  8
部品1
 48
50.0
100
AcDbLine
 10
8259.437005952952
 20
2479.192813327565
 30
0.0
 11
8259.437005952952
 21
2488.792813327565
 31
0.0
  0
LINE
  5
25E20
330
747D
100
AcDbEntity
  8
部品1
 48
50.0
100
AcDbLine
 10
8187.437005952949
 20
2610.544805992436
 30
0.0
 11
8203.437005952951
 21
2602.544805992436
 31
0.0
  0
LINE
  5
25E21
330
747D
100
AcDbEntity
  8
部品1
 48
50.0
100
AcDbLine
 10
8187.437005952949
 20
2578.544805992436
 30
0.0
 11
8203.437005952951
 21
2570.544805992436
 31
0.0
  0
LINE
  5
25E22
330
747D
100
AcDbEntity
  8
部品1
 48
50.0
100
AcDbLine
 10
8187.437005952949
 20
2610.544805992436
 30
0.0
 11
8203.437005952951
 21
2618.544805992436
 31
0.0
  0
LINE
  5
25E23
330
747D
100
AcDbEntity
  8
部品1
 48
50.0
100
AcDbLine
 10
8187.437005952949
 20
2578.544805992436
 30
0.0
 11
8187.437005952949
 21
2610.544805992436
 31
0.0
  0
LINE
  5
25E24
330
747D
100
AcDbEntity
  8
部品1
 48
50.0
100
AcDbLine
 10
8203.437005952951
 20
2618.544805992436
 30
0.0
 11
8235.437005952951
 21
2618.544805992436
 31
0.0
  0
ELLIPSE
  5
25E25
330
747D
100
AcDbEntity
  8
細線
 48
50.0
100
AcDbEllipse
 10
8219.437005952951
 20
2610.544805992436
 30
0.0
 11
14.76670786606846
 21
0.0
 31
0.0
210
0.0
220
0.0
230
1.0
 40
0.2071254069489396
 41
0.0
 42
6.283185307179586
  0
LINE
  5
25E26
330
747D
100
AcDbEntity
  8
部品1
 48
50.0
100
AcDbLine
 10
8203.437005952951
 20
2570.544805992436
 30
0.0
 11
8235.437005952951
 21
2570.544805992436
 31
0.0
  0
LINE
  5
25E27
330
747D
100
AcDbEntity
  8
部品1
 48
50.0
100
AcDbLine
 10
8235.437005952951
 20
2570.544805992436
 30
0.0
 11
8251.437005952949
 21
2578.544805992436
 31
0.0
  0
LINE
  5
25E28
330
747D
100
AcDbEntity
  8
部品1
 48
50.0
100
AcDbLine
 10
8203.437005952951
 20
2602.544805992436
 30
0.0
 11
8235.437005952951
 21
2602.544805992436
 31
0.0
  0
LINE
  5
25E29
330
747D
100
AcDbEntity
  8
部品1
 48
50.0
100
AcDbLine
 10
8235.437005952951
 20
2602.544805992436
 30
0.0
 11
8251.437005952949
 21
2610.544805992436
 31
0.0
  0
LINE
  5
25E2A
330
747D
100
AcDbEntity
  8
細線
 48
50.0
100
AcDbLine
 10
8235.437005952951
 20
2570.544805992436
 30
0.0
 11
8235.437005952951
 21
2602.544805992436
 31
0.0
  0
LINE
  5
25E2B
330
747D
100
AcDbEntity
  8
部品1
 48
50.0
100
AcDbLine
 10
8251.437005952949
 20
2578.544805992436
 30
0.0
 11
8251.437005952949
 21
2610.544805992436
 31
0.0
  0
LINE
  5
25E2C
330
747D
100
AcDbEntity
  8
細線
 48
50.0
100
AcDbLine
 10
8203.437005952951
 20
2570.544805992436
 30
0.0
 11
8203.437005952951
 21
2602.544805992436
 31
0.0
  0
LINE
  5
25E2D
330
747D
100
AcDbEntity
  8
部品1
 48
50.0
100
AcDbLine
 10
8235.437005952951
 20
2618.544805992436
 30
0.0
 11
8251.437005952949
 21
2610.544805992436
 31
0.0
  0
TEXT
  5
25E2E
330
747D
100
AcDbEntity
  8
部品1
100
AcDbText
 10
7920.20925514488
 20
3361.08921270871
 30
0.0
 40
120.0
  1
基礎詳細
  7
STYLE2
100
AcDbText
  0
LINE
  5
25E2F
330
747D
100
AcDbEntity
  8
部品1
100
AcDbLine
 10
11298.31443935274
 20
576.3341750754907
 30
0.0
 11
11298.31443935275
 21
3540.641144660138
 31
0.0
  0
LINE
  5
25E30
330
747D
100
AcDbEntity
  8
細線
100
AcDbLine
 10
10306.20627193249
 20
1979.669524883293
 30
0.0
 11
10111.57293825571
 21
2174.302858560076
 31
0.0
  0
LINE
  5
25E31
330
747D
100
AcDbEntity
  8
部品1
100
AcDbLine
 10
10111.57293825571
 20
2219.669524883293
 30
0.0
 11
10591.57293825571
 21
2219.669524883293
 31
0.0
  0
LINE
  5
25E32
330
747D
100
AcDbEntity
  8
細線
 48
50.0
100
AcDbLine
 10
10245.64382269896
 20
1759.970609229943
 30
0.0
 11
10279.94131933015
 21
1887.970609229942
 31
0.0
  0
LINE
  5
25E33
330
747D
100
AcDbEntity
  8
部品1
100
AcDbLine
 10
9991.572938255707
 20
1759.970609229939
 30
0.0
 11
10711.57293825571
 21
1759.970609229943
 31
0.0
  0
LINE
  5
25E34
330
747D
100
AcDbEntity
  8
部品1
100
AcDbLine
 10
9991.572938255707
 20
1887.970609229943
 30
0.0
 11
10711.57293825571
 21
1887.970609229945
 31
0.0
  0
LINE
  5
25E35
330
747D
100
AcDbEntity
  8
細線
100
AcDbLine
 10
10172.49158374895
 20
1887.970609229943
 30
0.0
 11
10264.19049940229
 21
1979.669524883293
 31
0.0
  0
LWPOLYLINE
  5
25E36
330
747D
100
AcDbEntity
  8
部品1
 48
50.0
100
AcDbPolyline
 90
        2
 70
     0
 43
12.0
 10
9726.961676155319
 20
1979.669524883293
 10
10928.05397928694
 20
1979.669524883293
  0
LINE
  5
25E37
330
747D
100
AcDbEntity
  8
細線
100
AcDbLine
 10
10255.29458368706
 20
1979.669524883293
 30
0.0
 11
10111.57293825571
 21
2123.391170314646
 31
0.0
  0
TEXT
  5
25E38
330
747D
100
AcDbEntity
  8
部品1
 48
50.0
100
AcDbText
 10
9347.454851497206
 20
1712.869784245984
 30
0.0
 40
80.0
  1
ボルトの出
 50
90.0
  7
STYLE2
100
AcDbText
  0
LINE
  5
25E39
330
747D
100
AcDbEntity
  8
部品1
100
AcDbLine
 10
10111.57293825571
 20
1979.669524883293
 30
0.0
 11
10111.57293825571
 21
2219.669524883293
 31
0.0
  0
LINE
  5
25E3A
330
747D
100
AcDbEntity
  8
細線
 48
50.0
100
AcDbLine
 10
10087.86773280447
 20
1759.970609229942
 30
0.0
 11
10122.16522943565
 21
1887.970609229942
 31
0.0
  0
LINE
  5
25E3B
330
747D
100
AcDbEntity
  8
細線
 48
50.0
100
AcDbLine
 10
10166.75577775172
 20
1759.970609229943
 30
0.0
 11
10201.0532743829
 21
1887.970609229943
 31
0.0
  0
LINE
  5
25E3C
330
747D
100
AcDbEntity
  8
細線
 48
50.0
100
AcDbLine
 10
10008.97968785722
 20
1759.970609229943
 30
0.0
 11
10043.2771844884
 21
1887.970609229943
 31
0.0
  0
LINE
  5
25E3D
330
747D
100
AcDbEntity
  8
部品1
100
AcDbLine
 10
9991.572938255707
 20
1759.970609229939
 30
0.0
 11
9991.572938255707
 21
1979.669524883293
 31
0.0
  0
LINE
  5
25E3E
330
747D
100
AcDbEntity
  8
細線
 48
50.0
100
AcDbLine
 10
10094.29851342282
 20
1783.970609229943
 30
0.0
 11
10100.72929404117
 21
1759.970609229943
 31
0.0
  0
LINE
  5
25E3F
330
747D
100
AcDbEntity
  8
細線
 48
50.0
100
AcDbLine
 10
10015.41046847557
 20
1783.970609229943
 30
0.0
 11
10021.84124909391
 21
1759.970609229943
 31
0.0
  0
LINE
  5
25E40
330
747D
100
AcDbEntity
  8
細線
 48
50.0
100
AcDbLine
 10
10173.18655837007
 20
1783.970609229943
 30
0.0
 11
10179.61733898842
 21
1759.970609229943
 31
0.0
  0
LINE
  5
25E41
330
747D
100
AcDbEntity
  8
細線
 48
50.0
100
AcDbLine
 10
10252.07460331731
 20
1783.970609229943
 30
0.0
 11
10258.50538393566
 21
1759.970609229943
 31
0.0
  0
LINE
  5
25E42
330
747D
100
AcDbEntity
  8
細線
 48
50.0
100
AcDbLine
 10
10036.84640387006
 20
1863.970609229943
 30
0.0
 11
10030.41562325171
 21
1887.970609229943
 31
0.0
  0
LINE
  5
25E43
330
747D
100
AcDbEntity
  8
細線
 48
50.0
100
AcDbLine
 10
10194.62249376456
 20
1863.970609229943
 30
0.0
 11
10188.19171314621
 21
1887.970609229943
 31
0.0
  0
LINE
  5
25E44
330
747D
100
AcDbEntity
  8
細線
 48
50.0
100
AcDbLine
 10
10115.73444881731
 20
1863.970609229943
 30
0.0
 11
10109.30366819896
 21
1887.970609229943
 31
0.0
  0
LINE
  5
25E45
330
747D
100
AcDbEntity
  8
細線
100
AcDbLine
 10
10104.60933275503
 20
1887.970609229943
 30
0.0
 11
10196.30824840838
 21
1979.669524883293
 31
0.0
  0
LINE
  5
25E46
330
747D
100
AcDbEntity
  8
細線
100
AcDbLine
 10
10138.55045825199
 20
1887.970609229943
 30
0.0
 11
10230.24937390534
 21
1979.669524883293
 31
0.0
  0
LINE
  5
25E47
330
747D
100
AcDbEntity
  8
細線
100
AcDbLine
 10
10526.82358766269
 20
1979.669524883293
 30
0.0
 11
10286.82358766269
 21
2219.669524883293
 31
0.0
  0
LINE
  5
25E48
330
747D
100
AcDbEntity
  8
細線
100
AcDbLine
 10
10577.73527590812
 20
1979.669524883295
 30
0.0
 11
10337.73527590813
 21
2219.669524883293
 31
0.0
  0
LINE
  5
25E49
330
747D
100
AcDbEntity
  8
部品1
100
AcDbLine
 10
10591.57293825571
 20
2219.669524883293
 30
0.0
 11
10591.57293825571
 21
1979.669524883293
 31
0.0
  0
LINE
  5
25E4A
330
747D
100
AcDbEntity
  8
細線
 48
50.0
100
AcDbLine
 10
10561.19600248795
 20
1759.97060922994
 30
0.0
 11
10595.49349911914
 21
1887.97060922994
 31
0.0
  0
LINE
  5
25E4B
330
747D
100
AcDbEntity
  8
細線
100
AcDbLine
 10
10532.49158374895
 20
1887.970609229945
 30
0.0
 11
10624.19049940229
 21
1979.669524883293
 31
0.0
  0
LINE
  5
25E4C
330
747D
100
AcDbEntity
  8
細線
 48
50.0
100
AcDbLine
 10
10482.3079575407
 20
1759.970609229942
 30
0.0
 11
10516.60545417188
 21
1887.970609229943
 31
0.0
  0
LINE
  5
25E4D
330
747D
100
AcDbEntity
  8
細線
 48
50.0
100
AcDbLine
 10
10324.53186764621
 20
1759.970609229942
 30
0.0
 11
10358.82936427739
 21
1887.970609229942
 31
0.0
  0
LINE
  5
25E4E
330
747D
100
AcDbEntity
  8
細線
 48
50.0
100
AcDbLine
 10
10403.41991259346
 20
1759.970609229943
 30
0.0
 11
10437.71740922464
 21
1887.970609229942
 31
0.0
  0
LINE
  5
25E4F
330
747D
100
AcDbEntity
  8
細線
 48
50.0
100
AcDbLine
 10
10409.85069321181
 20
1783.970609229943
 30
0.0
 11
10416.28147383016
 21
1759.970609229943
 31
0.0
  0
LINE
  5
25E50
330
747D
100
AcDbEntity
  8
細線
 48
50.0
100
AcDbLine
 10
10330.96264826456
 20
1783.970609229943
 30
0.0
 11
10337.39342888291
 21
1759.970609229943
 31
0.0
  0
LINE
  5
25E51
330
747D
100
AcDbEntity
  8
細線
 48
50.0
100
AcDbLine
 10
10488.73873815905
 20
1783.970609229943
 30
0.0
 11
10495.16951877741
 21
1759.970609229943
 31
0.0
  0
LINE
  5
25E52
330
747D
100
AcDbEntity
  8
細線
 48
50.0
100
AcDbLine
 10
10567.6267831063
 20
1783.970609229942
 30
0.0
 11
10574.05756372465
 21
1759.970609229942
 31
0.0
  0
LINE
  5
25E53
330
747D
100
AcDbEntity
  8
細線
 48
50.0
100
AcDbLine
 10
10431.2866286063
 20
1863.970609229943
 30
0.0
 11
10424.85584798795
 21
1887.970609229943
 31
0.0
  0
LINE
  5
25E54
330
747D
100
AcDbEntity
  8
細線
 48
50.0
100
AcDbLine
 10
10352.39858365905
 20
1863.970609229943
 30
0.0
 11
10345.96780304071
 21
1887.970609229943
 31
0.0
  0
LINE
  5
25E55
330
747D
100
AcDbEntity
  8
細線
 48
50.0
100
AcDbLine
 10
10273.5105387118
 20
1863.970609229943
 30
0.0
 11
10267.07975809346
 21
1887.970609229943
 31
0.0
  0
LINE
  5
25E56
330
747D
100
AcDbEntity
  8
細線
100
AcDbLine
 10
10498.550458252
 20
1887.970609229945
 30
0.0
 11
10590.24937390534
 21
1979.669524883293
 31
0.0
  0
LINE
  5
25E57
330
747D
100
AcDbEntity
  8
細線
 48
50.0
100
AcDbLine
 10
10510.17467355354
 20
1863.970609229943
 30
0.0
 11
10503.74389293519
 21
1887.970609229943
 31
0.0
  0
LINE
  5
25E58
330
747D
100
AcDbEntity
  8
細線
100
AcDbLine
 10
10464.60933275504
 20
1887.970609229945
 30
0.0
 11
10556.30824840838
 21
1979.669524883293
 31
0.0
  0
LINE
  5
25E59
330
747D
100
AcDbEntity
  8
細線
 48
50.0
100
AcDbLine
 10
10589.06271850079
 20
1863.970609229942
 30
0.0
 11
10582.63193788245
 21
1887.970609229942
 31
0.0
  0
LINE
  5
25E5A
330
747D
100
AcDbEntity
  8
細線
 48
50.0
100
AcDbLine
 10
10640.0840474352
 20
1759.970609229942
 30
0.0
 11
10674.38154406638
 21
1887.97060922994
 31
0.0
  0
LINE
  5
25E5B
330
747D
100
AcDbEntity
  8
部品1
100
AcDbLine
 10
10711.57293825571
 20
1979.669524883293
 30
0.0
 11
10711.57293825571
 21
1759.970609229943
 31
0.0
  0
LINE
  5
25E5C
330
747D
100
AcDbEntity
  8
細線
 48
50.0
100
AcDbLine
 10
10646.51482805355
 20
1783.970609229942
 30
0.0
 11
10652.9456086719
 21
1759.970609229942
 31
0.0
  0
LINE
  5
25E5D
330
747D
100
AcDbEntity
  8
細線
 48
50.0
100
AcDbLine
 10
10667.95076344804
 20
1863.970609229942
 30
0.0
 11
10661.51998282969
 21
1887.970609229942
 31
0.0
  0
LEADER
  5
25E5E
330
747D
100
AcDbEntity
  8
寸法
 48
50.0
100
AcDbLeader
  3
INABA_S50G
 73
     0
 74
     0
 75
     1
 40
120.0
 41
185.591883092037
 76
     3
 10
10522.29734987163
 20
2219.669524883293
 30
0.0
 10
10555.43555650527
 20
2391.815845564431
 30
0.0
 10
10680.43555650527
 20
2391.815845564431
 30
0.0
340
25E5F
1001
ACAD
1000
DSTYLE
1002
{
1070
    40
1040
1.0
1002
}
  0
MTEXT
  5
25E5F
102
{ACAD_REACTORS
330
25E5E
102
}
330
747D
100
AcDbEntity
  8
寸法
 62
     7
 48
50.0
100
AcDbMText
 10
10705.43555650527
 20
2476.815845564431
 30
0.0
 40
120.0
 41
0.8
 71
     4
 72
     1
  1
\A1;C.B
  7
STYLE1
 73
     1
 44
1.0
1001
ACAD
1000
MTEXTBEGIN
1070
    73
1070
     1
1070
    44
1040
1.0
1070
    74
1070
     0
1000
MTEXTEND
  0
ENDSEC
  0
SECTION
  2
OBJECTS
  0
DICTIONARY
  5
7471
330
0
100
AcDbDictionary
281
     1
  3
ACAD_COLOR
350
173D2
  3
ACAD_GROUP
350
7472
  3
ACAD_LAYOUT
350
173D3
  3
ACAD_MATERIAL
350
173D1
  3
ACAD_MLINESTYLE
350
7473
  3
ACAD_PLOTSETTINGS
350
173D4
  3
ACAD_PLOTSTYLENAME
350
173CF
  3
ACDBHEADERROUNDTRIPXREC
350
25F01
  3
AcDbVariableDictionary
350
25EFD
  3
CONTENTDICTIONARY
350
E71C
  3
DRAWINGVARIABLESDICT
350
F3B9
  0
DICTIONARY
  5
1758F
330
7467
100
AcDbDictionary
280
     1
281
     1
  3
ACAD_LAYERSTATES
360
17590
  0
DICTIONARY
  5
173D2
102
{ACAD_REACTORS
330
7471
102
}
330
7471
100
AcDbDictionary
281
     1
  0
DICTIONARY
  5
7472
102
{ACAD_REACTORS
330
7471
102
}
330
7471
100
AcDbDictionary
281
     1
  3
*A1
350
1D2A9
  0
DICTIONARY
  5
173D3
102
{ACAD_REACTORS
330
7471
102
}
330
7471
100
AcDbDictionary
281
     1
  3
Model
350
173D5
  3
レイアウト1
350
173D6
  0
DICTIONARY
  5
173D1
102
{ACAD_REACTORS
330
7471
102
}
330
7471
100
AcDbDictionary
281
     1
  0
DICTIONARY
  5
7473
102
{ACAD_REACTORS
330
7471
102
}
330
7471
100
AcDbDictionary
281
     1
  3
STANDARD
350
7480
  0
DICTIONARY
  5
173D4
102
{ACAD_REACTORS
330
7471
102
}
330
7471
100
AcDbDictionary
281
     1
  0
ACDBDICTIONARYWDFLT
  5
173CF
102
{ACAD_REACTORS
330
7471
102
}
330
7471
100
AcDbDictionary
281
     1
  3
Normal
350
173D0
100
AcDbDictionaryWithDefault
340
173D0
  0
DICTIONARY
  5
25F01
102
{ACAD_REACTORS
330
7471
102
}
330
7471
100
AcDbDictionary
281
     1
  3
COLORDICT
350
25F03
  3
MATERIALDICT
350
25F02
  0
DICTIONARY
  5
25EFD
102
{ACAD_REACTORS
330
7471
102
}
330
7471
100
AcDbDictionary
281
     1
  3
DIMASSOC
350
25EFE
  3
PROJECTNAME
350
25EFF
  0
DICTIONARY
  5
E71C
102
{ACAD_REACTORS
330
7471
102
}
330
7471
100
AcDbDictionary
281
     1
  0
DICTIONARY
  5
F3B9
102
{ACAD_REACTORS
330
7471
102
}
330
7471
100
AcDbDictionary
281
     1
1001
DRAWINGVARIABLESXDATA
1000
POLARMODE
1000
1
  0
DICTIONARY
  5
17590
102
{ACAD_REACTORS
330
1758F
102
}
330
1758F
100
AcDbDictionary
281
     1
  0
GROUP
  5
1D2A9
102
{ACAD_REACTORS
330
7472
102
}
330
7472
100
AcDbGroup
300

 70
     1
 71
     1
  0
LAYOUT
  5
173D5
102
{ACAD_XDICTIONARY
360
25F04
102
}
102
{ACAD_REACTORS
330
173D3
102
}
330
173D3
100
AcDbPlotSettings
  1

  2
Microsoft Office Document Image Writer
  4

  6

 40
0.0
 41
0.0
 42
0.0
 43
0.0
 44
0.0
 45
0.0
 46
0.0
 47
0.0
 48
0.0
 49
0.0
140
0.0
141
0.0
142
1.0
143
1.0
 70
  1712
 72
     0
 73
     0
 74
     0
  7

 75
     0
147
1.0
148
0.0
149
0.0
100
AcDbLayout
  1
Model
 70
     1
 71
     0
 10
0.0
 20
0.0
 11
12.0
 21
9.0
 12
0.0
 22
0.0
 32
0.0
 14
0.0
 24
0.0
 34
0.0
 15
0.0
 25
0.0
 35
0.0
146
0.0
 13
0.0
 23
0.0
 33
0.0
 16
1.0
 26
0.0
 36
0.0
 17
0.0
 27
1.0
 37
0.0
 76
     0
330
747D
  0
LAYOUT
  5
173D6
102
{ACAD_XDICTIONARY
360
25F06
102
}
102
{ACAD_REACTORS
330
173D3
102
}
330
173D3
100
AcDbPlotSettings
  1

  2
Microsoft Office Document Image Writer
  4

  6

 40
0.0
 41
0.0
 42
0.0
 43
0.0
 44
0.0
 45
0.0
 46
0.0
 47
0.0
 48
0.0
 49
0.0
140
0.0
141
0.0
142
1.0
143
1.0
 70
   688
 72
     0
 73
     0
 74
     5
  7

 75
    16
147
1.0
148
0.0
149
0.0
100
AcDbLayout
  1
レイアウト1
 70
     0
 71
     1
 10
0.0
 20
0.0
 11
420.0
 21
297.0
 12
0.0
 22
0.0
 32
0.0
 14
1.000000000000000E+20
 24
1.000000000000000E+20
 34
1.000000000000000E+20
 15
-1.000000000000000E+20
 25
-1.000000000000000E+20
 35
-1.000000000000000E+20
146
0.0
 13
0.0
 23
0.0
 33
0.0
 16
1.0
 26
0.0
 36
0.0
 17
0.0
 27
1.0
 37
0.0
 76
     0
330
747A
  0
MLINESTYLE
  5
7480
102
{ACAD_REACTORS
330
7473
102
}
330
7473
100
AcDbMlineStyle
  2
STANDARD
 70
     0
  3

 62
     0
 51
90.0
 52
90.0
 71
     2
 49
0.5
 62
   256
  6
BYLAYER
 49
-0.5
 62
   256
  6
BYLAYER
  0
ACDBPLACEHOLDER
  5
173D0
102
{ACAD_REACTORS
330
173CF
102
}
330
173CF
  0
XRECORD
  5
25F03
102
{ACAD_REACTORS
330
25F01
102
}
330
25F01
100
AcDbXrecord
280
     1
340
173D2
  0
XRECORD
  5
25F02
102
{ACAD_REACTORS
330
25F01
102
}
330
25F01
100
AcDbXrecord
280
     1
340
173D1
  0
DICTIONARYVAR
  5
25EFE
102
{ACAD_REACTORS
330
25EFD
102
}
330
25EFD
100
DictionaryVariables
280
     0
  1
1
  0
DICTIONARYVAR
  5
25EFF
102
{ACAD_REACTORS
330
25EFD
102
}
330
25EFD
100
DictionaryVariables
280
     0
  1

  0
DICTIONARY
  5
25F04
330
173D5
100
AcDbDictionary
280
     1
281
     1
  3
ACAD_XREC_ROUNDTRIP
360
25F05
  0
DICTIONARY
  5
25F06
330
173D6
100
AcDbDictionary
280
     1
281
     1
  3
ACAD_XREC_ROUNDTRIP
360
25F07
  0
XRECORD
  5
25F05
102
{ACAD_REACTORS
330
25F04
102
}
330
25F04
100
AcDbXrecord
280
     1
102
SHADEPLOT
 70
     0
102
SHADEPLOTRESLEVEL
 70
     2
102
SHADEPLOTCUSTOMDPI
 70
   300
  0
XRECORD
  5
25F07
102
{ACAD_REACTORS
330
25F06
102
}
330
25F06
100
AcDbXrecord
280
     1
102
SHADEPLOT
 70
     0
102
SHADEPLOTRESLEVEL
 70
     2
102
SHADEPLOTCUSTOMDPI
 70
   300
  0
ENDSEC
  0
EOF
