  0
SECTION
  2
HEADER
  9
$ACADVER
  1
AC1015
  9
$ACADMAINTVER
 70
    20
  9
$DWGCODEPAGE
  3
ANSI_932
  9
$INSBASE
 10
0.0
 20
0.0
 30
0.0
  9
$EXTMIN
 10
139.9999999999995
 20
-0.0000000000000909
 30
0.0
  9
$EXTMAX
 10
16307.2
 20
11409.6
 30
0.0
  9
$LIMMIN
 10
0.0
 20
0.0
  9
$LIMMAX
 10
16800.0
 20
11880.0
  9
$ORTHOMODE
 70
     0
  9
$REGENMODE
 70
     1
  9
$FILLMODE
 70
     1
  9
$QTEXTMODE
 70
     0
  9
$MIRRTEXT
 70
     1
  9
$LTSCALE
 40
20.0
  9
$ATTMODE
 70
     1
  9
$TEXTSIZE
 40
4.0
  9
$TRACEWID
 40
1.0
  9
$TEXTSTYLE
  7
STYLE1
  9
$CLAYER
  8
寸法
  9
$CELTYPE
  6
BYLAYER
  9
$CECOLOR
 62
   256
  9
$CELTSCALE
 40
50.0
  9
$DISPSILH
 70
     0
  9
$DIMSCALE
 40
40.0
  9
$DIMASZ
 40
2.5
  9
$DIMEXO
 40
0.5
  9
$DIMDLI
 40
7.0
  9
$DIMRND
 40
0.0
  9
$DIMDLE
 40
0.0
  9
$DIMEXE
 40
1.5
  9
$DIMTP
 40
0.0
  9
$DIMTM
 40
0.0
  9
$DIMTXT
 40
3.0
  9
$DIMCEN
 40
0.0
  9
$DIMTSZ
 40
0.0
  9
$DIMTOL
 70
     0
  9
$DIMLIM
 70
     0
  9
$DIMTIH
 70
     0
  9
$DIMTOH
 70
     0
  9
$DIMSE1
 70
     0
  9
$DIMSE2
 70
     0
  9
$DIMTAD
 70
     3
  9
$DIMZIN
 70
     8
  9
$DIMBLK
  1

  9
$DIMASO
 70
     1
  9
$DIMSHO
 70
     1
  9
$DIMPOST
  1

  9
$DIMAPOST
  1

  9
$DIMALT
 70
     0
  9
$DIMALTD
 70
     2
  9
$DIMALTF
 40
0.0394
  9
$DIMLFAC
 40
1.0
  9
$DIMTOFL
 70
     1
  9
$DIMTVP
 40
0.0
  9
$DIMTIX
 70
     1
  9
$DIMSOXD
 70
     0
  9
$DIMSAH
 70
     1
  9
$DIMBLK1
  1
DOTSMALL
  9
$DIMBLK2
  1
DOTSMALL
  9
$DIMSTYLE
  2
INABA_S40G
  9
$DIMCLRD
 70
     0
  9
$DIMCLRE
 70
     0
  9
$DIMCLRT
 70
     7
  9
$DIMTFAC
 40
1.0
  9
$DIMGAP
 40
1.0
  9
$DIMJUST
 70
     0
  9
$DIMSD1
 70
     0
  9
$DIMSD2
 70
     0
  9
$DIMTOLJ
 70
     1
  9
$DIMTZIN
 70
     0
  9
$DIMALTZ
 70
     0
  9
$DIMALTTZ
 70
     0
  9
$DIMUPT
 70
     0
  9
$DIMDEC
 70
     1
  9
$DIMTDEC
 70
     4
  9
$DIMALTU
 70
     2
  9
$DIMALTTD
 70
     2
  9
$DIMTXSTY
  7
STYLE1
  9
$DIMAUNIT
 70
     0
  9
$DIMADEC
 70
     0
  9
$DIMALTRND
 40
0.0
  9
$DIMAZIN
 70
     0
  9
$DIMDSEP
 70
    46
  9
$DIMATFIT
 70
     3
  9
$DIMFRAC
 70
     0
  9
$DIMLDRBLK
  1

  9
$DIMLUNIT
 70
     2
  9
$DIMLWD
 70
    -2
  9
$DIMLWE
 70
    -2
  9
$DIMTMOVE
 70
     0
  9
$LUNITS
 70
     2
  9
$LUPREC
 70
     1
  9
$SKETCHINC
 40
1.0
  9
$FILLETRAD
 40
0.0
  9
$AUNITS
 70
     0
  9
$AUPREC
 70
     0
  9
$MENU
  1
acad
  9
$ELEVATION
 40
0.0
  9
$PELEVATION
 40
0.0
  9
$THICKNESS
 40
0.0
  9
$LIMCHECK
 70
     0
  9
$CHAMFERA
 40
0.0
  9
$CHAMFERB
 40
0.0
  9
$CHAMFERC
 40
0.0
  9
$CHAMFERD
 40
0.0
  9
$SKPOLY
 70
     0
  9
$TDCREATE
 40
2451368.612993866
  9
$TDUCREATE
 40
2451368.237993866
  9
$TDUPDATE
 40
2455827.670888993
  9
$TDUUPDATE
 40
2455827.295888993
  9
$TDINDWG
 40
0.7186381944
  9
$TDUSRTIMER
 40
0.7186381944
  9
$USRTIMER
 70
     1
  9
$ANGBASE
 50
0.0
  9
$ANGDIR
 70
     0
  9
$PDMODE
 70
     3
  9
$PDSIZE
 40
2.0
  9
$PLINEWID
 40
0.0
  9
$SPLFRAME
 70
     0
  9
$SPLINETYPE
 70
     6
  9
$SPLINESEGS
 70
     8
  9
$HANDSEED
  5
218B6
  9
$SURFTAB1
 70
     6
  9
$SURFTAB2
 70
     6
  9
$SURFTYPE
 70
     6
  9
$SURFU
 70
     6
  9
$SURFV
 70
     6
  9
$UCSBASE
  2

  9
$UCSNAME
  2

  9
$UCSORG
 10
0.0
 20
0.0
 30
0.0
  9
$UCSXDIR
 10
1.0
 20
0.0
 30
0.0
  9
$UCSYDIR
 10
0.0
 20
1.0
 30
0.0
  9
$UCSORTHOREF
  2

  9
$UCSORTHOVIEW
 70
     0
  9
$UCSORGTOP
 10
0.0
 20
0.0
 30
0.0
  9
$UCSORGBOTTOM
 10
0.0
 20
0.0
 30
0.0
  9
$UCSORGLEFT
 10
0.0
 20
0.0
 30
0.0
  9
$UCSORGRIGHT
 10
0.0
 20
0.0
 30
0.0
  9
$UCSORGFRONT
 10
0.0
 20
0.0
 30
0.0
  9
$UCSORGBACK
 10
0.0
 20
0.0
 30
0.0
  9
$PUCSBASE
  2

  9
$PUCSNAME
  2

  9
$PUCSORG
 10
0.0
 20
0.0
 30
0.0
  9
$PUCSXDIR
 10
1.0
 20
0.0
 30
0.0
  9
$PUCSYDIR
 10
0.0
 20
1.0
 30
0.0
  9
$PUCSORTHOREF
  2

  9
$PUCSORTHOVIEW
 70
     0
  9
$PUCSORGTOP
 10
0.0
 20
0.0
 30
0.0
  9
$PUCSORGBOTTOM
 10
0.0
 20
0.0
 30
0.0
  9
$PUCSORGLEFT
 10
0.0
 20
0.0
 30
0.0
  9
$PUCSORGRIGHT
 10
0.0
 20
0.0
 30
0.0
  9
$PUCSORGFRONT
 10
0.0
 20
0.0
 30
0.0
  9
$PUCSORGBACK
 10
0.0
 20
0.0
 30
0.0
  9
$USERI1
 70
     0
  9
$USERI2
 70
     0
  9
$USERI3
 70
     0
  9
$USERI4
 70
     0
  9
$USERI5
 70
     0
  9
$USERR1
 40
0.0
  9
$USERR2
 40
0.0
  9
$USERR3
 40
0.0
  9
$USERR4
 40
0.0
  9
$USERR5
 40
0.0
  9
$WORLDVIEW
 70
     1
  9
$SHADEDGE
 70
     3
  9
$SHADEDIF
 70
    70
  9
$TILEMODE
 70
     1
  9
$MAXACTVP
 70
    16
  9
$PINSBASE
 10
0.0
 20
0.0
 30
0.0
  9
$PLIMCHECK
 70
     0
  9
$PEXTMIN
 10
1.000000000000000E+20
 20
1.000000000000000E+20
 30
1.000000000000000E+20
  9
$PEXTMAX
 10
-1.000000000000000E+20
 20
-1.000000000000000E+20
 30
-1.000000000000000E+20
  9
$PLIMMIN
 10
0.0
 20
0.0
  9
$PLIMMAX
 10
420.0
 20
297.0
  9
$UNITMODE
 70
     0
  9
$VISRETAIN
 70
     0
  9
$PLINEGEN
 70
     0
  9
$PSLTSCALE
 70
     0
  9
$TREEDEPTH
 70
  3020
  9
$CMLSTYLE
  2
STANDARD
  9
$CMLJUST
 70
     0
  9
$CMLSCALE
 40
1.0
  9
$PROXYGRAPHICS
 70
     1
  9
$MEASUREMENT
 70
     1
  9
$CELWEIGHT
370
    -1
  9
$ENDCAPS
280
     0
  9
$JOINSTYLE
280
     0
  9
$LWDISPLAY
290
     0
  9
$INSUNITS
 70
     0
  9
$HYPERLINKBASE
  1

  9
$STYLESHEET
  1
ACA3.ctb
  9
$XEDIT
290
     1
  9
$CEPSNTYPE
380
     0
  9
$PSTYLEMODE
290
     1
  9
$FINGERPRINTGUID
  2
{5EAC461A-2277-4BF8-9AB0-99C43BB394F0}
  9
$VERSIONGUID
  2
{3874FCC5-BE10-4305-B5F3-AE616361FBAD}
  9
$EXTNAMES
290
     1
  9
$PSVPSCALE
 40
0.0
  9
$OLESTARTUP
290
     0
  0
ENDSEC
  0
SECTION
  2
CLASSES
  0
CLASS
  1
ACDBDICTIONARYWDFLT
  2
AcDbDictionaryWithDefault
  3
ObjectDBX Classes
 90
        0
280
     0
281
     0
  0
CLASS
  1
DICTIONARYVAR
  2
AcDbDictionaryVar
  3
ObjectDBX Classes
 90
        0
280
     0
281
     0
  0
CLASS
  1
ACDBPLACEHOLDER
  2
AcDbPlaceHolder
  3
ObjectDBX Classes
 90
        0
280
     0
281
     0
  0
CLASS
  1
LAYOUT
  2
AcDbLayout
  3
ObjectDBX Classes
 90
        0
280
     0
281
     0
  0
ENDSEC
  0
SECTION
  2
TABLES
  0
TABLE
  2
VPORT
  5
746D
330
0
100
AcDbSymbolTable
 70
     2
  0
VPORT
  5
218AE
330
746D
100
AcDbSymbolTableRecord
100
AcDbViewportTableRecord
  2
*Active
 70
     0
 10
0.0
 20
0.0
 11
1.0
 21
1.0
 12
8399.999999999998
 22
6549.946086030115
 13
0.0
 23
0.0
 14
10.0
 24
10.0
 15
10.0
 25
10.0
 16
0.0
 26
0.0
 36
1.0
 17
0.0
 27
0.0
 37
0.0
 40
13195.53355943939
 41
1.522222222222222
 42
50.0
 43
0.0
 44
0.0
 50
0.0
 51
0.0
 71
     0
 72
     0
 73
     1
 74
     0
 75
     0
 76
     0
 77
     0
 78
     0
281
     0
 65
     1
110
0.0
120
0.0
130
0.0
111
1.0
121
0.0
131
0.0
112
0.0
122
1.0
132
0.0
 79
     0
146
0.0
  0
ENDTAB
  0
TABLE
  2
LTYPE
  5
746A
330
0
100
AcDbSymbolTable
 70
     5
  0
LTYPE
  5
7477
330
746A
100
AcDbSymbolTableRecord
100
AcDbLinetypeTableRecord
  2
BYBLOCK
 70
     0
  3

 72
    65
 73
     0
 40
0.0
  0
LTYPE
  5
7478
330
746A
100
AcDbSymbolTableRecord
100
AcDbLinetypeTableRecord
  2
BYLAYER
 70
     0
  3

 72
    65
 73
     0
 40
0.0
  0
LTYPE
  5
7479
330
746A
100
AcDbSymbolTableRecord
100
AcDbLinetypeTableRecord
  2
CONTINUOUS
 70
     0
  3
Solid line
 72
    65
 73
     0
 40
0.0
  0
LTYPE
  5
7816
330
746A
100
AcDbSymbolTableRecord
100
AcDbLinetypeTableRecord
  2
CENTER
 70
     0
  3
____ _ ____ _ ____ _ ____ _ ____ _ ____ _ ____ 
 72
    65
 73
     4
 40
2.0
 49
1.25
 74
     0
 49
-0.25
 74
     0
 49
0.25
 74
     0
 49
-0.25
 74
     0
  0
LTYPE
  5
781A
330
746A
100
AcDbSymbolTableRecord
100
AcDbLinetypeTableRecord
  2
HIDDEN
 70
     0
  3
__ __ __ __ __ __ __ __ __ __ __ __ __ __ __ __
 72
    65
 73
     2
 40
0.375
 49
0.25
 74
     0
 49
-0.125
 74
     0
  0
LTYPE
  5
781B
330
746A
100
AcDbSymbolTableRecord
100
AcDbLinetypeTableRecord
  2
PHANTOM
 70
     0
  3
______  __  __  ______  __  __  ______  __  __ 
 72
    65
 73
     6
 40
2.5
 49
1.25
 74
     0
 49
-0.25
 74
     0
 49
0.25
 74
     0
 49
-0.25
 74
     0
 49
0.25
 74
     0
 49
-0.25
 74
     0
  0
LTYPE
  5
12CC3
330
746A
100
AcDbSymbolTableRecord
100
AcDbLinetypeTableRecord
  2
HIDDENX2
 70
     0
  3
Hidden (2x) ____ ____ ____ ____ ____ ____ ____
 72
    65
 73
     2
 40
19.05
 49
12.7
 74
     0
 49
-6.349999999999999
 74
     0
  0
ENDTAB
  0
TABLE
  2
LAYER
  5
7467
102
{ACAD_XDICTIONARY
360
1758F
102
}
330
0
100
AcDbSymbolTable
 70
    12
  0
LAYER
  5
7474
330
7467
100
AcDbSymbolTableRecord
100
AcDbLayerTableRecord
  2
0
 70
     0
 62
     7
  6
CONTINUOUS
370
    -3
390
173D0
  0
LAYER
  5
DEB2
330
7467
100
AcDbSymbolTableRecord
100
AcDbLayerTableRecord
  2
センター
 70
     0
 62
     3
  6
CENTER
370
    -3
390
173D0
  0
LAYER
  5
DEB3
330
7467
100
AcDbSymbolTableRecord
100
AcDbLayerTableRecord
  2
寸法
 70
     0
 62
     4
  6
CONTINUOUS
370
    -3
390
173D0
  0
LAYER
  5
DEB4
330
7467
100
AcDbSymbolTableRecord
100
AcDbLayerTableRecord
  2
部品1
 70
     0
 62
     7
  6
CONTINUOUS
370
    -3
390
173D0
  0
LAYER
  5
DEB5
330
7467
100
AcDbSymbolTableRecord
100
AcDbLayerTableRecord
  2
補助
 70
     0
 62
    -1
  6
CONTINUOUS
370
    -3
390
173D0
  0
LAYER
  5
DEB6
330
7467
100
AcDbSymbolTableRecord
100
AcDbLayerTableRecord
  2
文字
 70
     0
 62
     7
  6
CONTINUOUS
370
    -3
390
173D0
  0
LAYER
  5
F255
330
7467
100
AcDbSymbolTableRecord
100
AcDbLayerTableRecord
  2
DEFPOINTS
 70
     0
 62
     7
  6
CONTINUOUS
290
     0
370
    -3
390
173D0
  0
LAYER
  5
10B54
330
7467
100
AcDbSymbolTableRecord
100
AcDbLayerTableRecord
  2
仕様書枠
 70
     0
 62
   230
  6
CONTINUOUS
370
    -3
390
173D0
  0
LAYER
  5
11729
330
7467
100
AcDbSymbolTableRecord
100
AcDbLayerTableRecord
  2
Ｇ．Ｌ
 70
     0
 62
    30
  6
CONTINUOUS
370
    -3
390
173D0
  0
LAYER
  5
1173F
330
7467
100
AcDbSymbolTableRecord
100
AcDbLayerTableRecord
  2
細線
 70
     0
 62
     5
  6
CONTINUOUS
370
    -3
390
173D0
  0
LAYER
  5
12CC4
330
7467
100
AcDbSymbolTableRecord
100
AcDbLayerTableRecord
  2
想像線
 70
     0
 62
     6
  6
PHANTOM
370
    -3
390
173D0
  0
LAYER
  5
142E2
330
7467
100
AcDbSymbolTableRecord
100
AcDbLayerTableRecord
  2
破線
 70
     0
 62
     2
  6
HIDDEN
370
    -3
390
173D0
  0
ENDTAB
  0
TABLE
  2
STYLE
  5
7468
330
0
100
AcDbSymbolTable
 70
     7
  0
STYLE
  5
7475
330
7468
100
AcDbSymbolTableRecord
100
AcDbTextStyleTableRecord
  2
STANDARD
 70
     0
 40
0.0
 41
1.0
 50
0.0
 71
     0
 42
4.0
  3
txt
  4
C:\AutoCAD LT\bigfont.shx
  0
STYLE
  5
763C
330
7468
100
AcDbSymbolTableRecord
100
AcDbTextStyleTableRecord
  2
MSMINCHO
 70
     0
 40
0.0
 41
1.0
 50
0.0
 71
     0
 42
1.199999999999999
  3
C:\AutoCAD LT\msminch2.TTF
  4

  0
STYLE
  5
F706
330
7468
100
AcDbSymbolTableRecord
100
AcDbTextStyleTableRecord
  2
STYLE1
 70
     0
 40
0.0
 41
1.0
 50
0.0
 71
     0
 42
4.0
  3
isocp.shx
  4
bigfont.shx
  0
STYLE
  5
103BF
330
7468
100
AcDbSymbolTableRecord
100
AcDbTextStyleTableRecord
  2
STYLE2
 70
     0
 40
0.0
 41
1.0
 50
0.0
 71
     0
 42
100.0
  3
MS PGothic.ttf
  4

1001
ACAD
1000
MS PGothic
1071
    32818
  0
STYLE
  5
10BAA
330
7468
100
AcDbSymbolTableRecord
100
AcDbTextStyleTableRecord
  2
STYLE3
 70
     0
 40
0.0
 41
1.0
 50
0.0
 71
     0
 42
100.0
  3

  4

1001
ACAD
1000
DFPGothic-EB
1071
    32818
  0
STYLE
  5
11A15
330
7468
100
AcDbSymbolTableRecord
100
AcDbTextStyleTableRecord
  2
MSGOTHIC
 70
     0
 40
0.0
 41
1.0
 50
0.0
 71
     0
 42
3.5
  3
msgothi2.ttf
  4

  0
STYLE
  5
13E96
330
7468
100
AcDbSymbolTableRecord
100
AcDbTextStyleTableRecord
  2
MSPゴシック
 70
     0
 40
0.0
 41
1.0
 50
0.0
 71
     0
 42
4.0
  3
MS PGothic.ttf
  4

1001
ACAD
1000
MS PGothic
1071
    32818
  0
ENDTAB
  0
TABLE
  2
VIEW
  5
746B
330
0
100
AcDbSymbolTable
 70
     0
  0
ENDTAB
  0
TABLE
  2
UCS
  5
746C
330
0
100
AcDbSymbolTable
 70
     0
  0
ENDTAB
  0
TABLE
  2
APPID
  5
746E
330
0
100
AcDbSymbolTable
 70
     6
  0
APPID
  5
7476
330
746E
100
AcDbSymbolTableRecord
100
AcDbRegAppTableRecord
  2
ACAD
 70
     0
  0
APPID
  5
DEA9
330
746E
100
AcDbSymbolTableRecord
100
AcDbRegAppTableRecord
  2
CONTENTBLOCKICON
 70
     0
  0
APPID
  5
DEAA
330
746E
100
AcDbSymbolTableRecord
100
AcDbRegAppTableRecord
  2
CONTENTBLOCKDESCRIPTION
 70
     0
  0
APPID
  5
E71D
330
746E
100
AcDbSymbolTableRecord
100
AcDbRegAppTableRecord
  2
CONTENTTABDATA
 70
     0
  0
APPID
  5
E71E
330
746E
100
AcDbSymbolTableRecord
100
AcDbRegAppTableRecord
  2
CONTENTCURRENTTAB
 70
     0
  0
APPID
  5
F3BA
330
746E
100
AcDbSymbolTableRecord
100
AcDbRegAppTableRecord
  2
DRAWINGVARIABLESXDATA
 70
     0
  0
ENDTAB
  0
TABLE
  2
DIMSTYLE
  5
746F
330
0
100
AcDbSymbolTable
 70
     6
100
AcDbDimStyleTable
 71
     1
340
F71F
  0
DIMSTYLE
105
7484
330
746F
100
AcDbSymbolTableRecord
100
AcDbDimStyleTableRecord
  2
JIS
 70
     0
 41
2.5
 42
1.0
 43
7.0
 44
1.0
 73
     0
 74
     0
 77
     1
 78
     8
140
2.5
141
0.0
143
0.0394
147
0.0
172
     1
174
     1
175
     1
340
7475
  0
DIMSTYLE
105
F236
330
746F
100
AcDbSymbolTableRecord
100
AcDbDimStyleTableRecord
  2
INABA_S40
 70
     0
 40
40.0
 41
2.5
 42
0.5
 43
7.0
 44
1.5
 73
     0
 74
     0
 77
     3
 78
     8
140
3.0
141
0.0
143
0.0394
147
1.0
172
     1
173
     1
174
     1
175
     1
178
     7
289
     0
340
7475
341
DEAC
343
DEAC
344
DEAC
  0
DIMSTYLE
105
F71F
102
{ACAD_REACTORS
330
1DD19
330
1DD17
330
1DD0F
330
1DCFB
330
1DCF9
330
1DCF8
330
1DCEF
330
1DD04
330
1DD03
330
1DCFD
330
1DD24
330
1DD2C
330
1EE10
330
1EE04
330
1EDBE
330
1E90B
330
1FC00
330
20D26
330
1DD22
330
1DD2A
330
1DCFE
330
1DD07
330
216EC
330
216ED
330
216F5
330
216FC
330
216FF
330
2175F
102
}
330
746F
100
AcDbSymbolTableRecord
100
AcDbDimStyleTableRecord
  2
INABA_S40G
 70
     0
 40
40.0
 41
2.5
 42
0.5
 43
7.0
 44
1.5
 73
     0
 74
     0
 77
     3
 78
     8
140
3.0
141
0.0
143
0.0394
147
1.0
172
     1
173
     1
174
     1
178
     7
271
     1
340
F706
341
F770
343
F770
344
F770
  0
DIMSTYLE
105
142E3
330
746F
100
AcDbSymbolTableRecord
100
AcDbDimStyleTableRecord
  2
INABA_S1
 70
     0
 40
0.0
 41
2.5
 42
0.5
 43
7.0
 44
1.5
 73
     0
 74
     0
 77
     3
 78
     8
140
3.0
141
0.0
143
0.0394
146
0.5
147
0.5
172
     1
173
     1
176
   256
177
   256
178
     7
271
     2
272
     2
284
     8
288
     1
340
7475
341
DEAC
343
DEAC
344
DEAC
  0
DIMSTYLE
105
14463
330
746F
100
AcDbSymbolTableRecord
100
AcDbDimStyleTableRecord
  2
INABA_S30G
 70
     0
 40
30.0
 41
2.5
 42
0.5
 43
7.0
 44
1.5
 73
     0
 74
     0
 77
     3
 78
     8
140
3.0
141
0.0
143
0.0394
147
1.0
172
     1
173
     1
174
     1
175
     1
178
     7
271
     1
340
F706
341
F770
343
F770
344
F770
  0
DIMSTYLE
105
1758E
330
746F
100
AcDbSymbolTableRecord
100
AcDbDimStyleTableRecord
  2
INABA_S50G
 70
     0
 41
125.0
 42
25.0
 43
7.0
 44
75.0
 73
     0
 74
     0
 77
     3
 78
     8
140
150.0
141
0.0
143
0.0394
147
25.0
172
     1
173
     1
174
     1
175
     1
178
     7
271
     1
340
F706
341
F770
343
F770
344
F770
  0
ENDTAB
  0
TABLE
  2
BLOCK_RECORD
  5
7466
330
0
100
AcDbSymbolTable
 70
    59
  0
BLOCK_RECORD
  5
747D
330
7466
100
AcDbSymbolTableRecord
100
AcDbBlockTableRecord
  2
*MODEL_SPACE
340
173D5
  0
BLOCK_RECORD
  5
747A
330
7466
100
AcDbSymbolTableRecord
100
AcDbBlockTableRecord
  2
*PAPER_SPACE
340
173D6
  0
BLOCK_RECORD
  5
DEAC
330
7466
100
AcDbSymbolTableRecord
100
AcDbBlockTableRecord
  2
_OPEN
340
0
  0
BLOCK_RECORD
  5
F770
330
7466
100
AcDbSymbolTableRecord
100
AcDbBlockTableRecord
  2
_DOTSMALL
340
0
102
{BLKREFS
331
18C65
331
18C66
331
18C59
331
18C5A
331
18C4D
331
18C4E
331
18C41
331
18C42
331
18C35
331
18C36
331
18C29
331
18C2A
331
18C1D
331
18C1E
331
18C0F
331
18C10
331
18C03
331
18C04
331
18BF5
331
18BF6
331
18BE7
331
18BE8
331
18BD9
331
18BDA
331
18BCD
331
18BCE
331
1F54A
331
1F54B
331
1F597
331
1F598
331
1F5A0
331
1F5A1
331
1F5A9
331
1F5AA
331
1F617
331
1F618
331
1F620
331
1F621
331
1F629
331
1F62A
331
1F6B0
331
1F6B1
331
1F6B9
331
1F6BA
331
1F6C2
331
1F6C3
331
1F6CB
331
1F6CC
331
1F6DE
331
1F6DF
331
1FC19
331
1FC1A
331
2005A
331
2005B
331
20CBC
331
20CBD
331
20CFE
331
20CFF
331
20D7C
331
20D7D
331
20D92
331
20D93
331
2118B
331
2118C
331
211B3
331
211B4
331
211BD
331
211BE
331
211C7
331
211C8
331
2151B
331
2151C
331
21524
331
21525
331
2152D
331
2152E
331
21536
331
21537
331
21544
331
21545
331
2154C
331
2154D
331
21596
331
21597
331
2158B
331
2158C
331
2157A
331
2157B
331
2156E
331
2156F
331
21562
331
21563
331
215A3
331
215A4
331
21869
331
2186A
331
21878
331
21879
331
21881
331
21882
331
2188A
331
2188B
331
21893
331
21894
331
2189C
331
2189D
102
}
  0
BLOCK_RECORD
  5
164B4
330
7466
100
AcDbSymbolTableRecord
100
AcDbBlockTableRecord
  2
_DOT
340
0
102
{BLKREFS
331
18C73
331
18C74
102
}
  0
BLOCK_RECORD
  5
18BC8
330
7466
100
AcDbSymbolTableRecord
100
AcDbBlockTableRecord
  2
*D3
340
0
  0
BLOCK_RECORD
  5
18BD4
330
7466
100
AcDbSymbolTableRecord
100
AcDbBlockTableRecord
  2
*D4
340
0
  0
BLOCK_RECORD
  5
18BE0
330
7466
100
AcDbSymbolTableRecord
100
AcDbBlockTableRecord
  2
*D5
340
0
  0
BLOCK_RECORD
  5
18BEE
330
7466
100
AcDbSymbolTableRecord
100
AcDbBlockTableRecord
  2
*D6
340
0
  0
BLOCK_RECORD
  5
18BFC
330
7466
100
AcDbSymbolTableRecord
100
AcDbBlockTableRecord
  2
*D7
340
0
  0
BLOCK_RECORD
  5
18C0A
330
7466
100
AcDbSymbolTableRecord
100
AcDbBlockTableRecord
  2
*D8
340
0
  0
BLOCK_RECORD
  5
18C16
330
7466
100
AcDbSymbolTableRecord
100
AcDbBlockTableRecord
  2
*D9
340
0
  0
BLOCK_RECORD
  5
18C24
330
7466
100
AcDbSymbolTableRecord
100
AcDbBlockTableRecord
  2
*D10
340
0
  0
BLOCK_RECORD
  5
18C30
330
7466
100
AcDbSymbolTableRecord
100
AcDbBlockTableRecord
  2
*D11
340
0
  0
BLOCK_RECORD
  5
18C3C
330
7466
100
AcDbSymbolTableRecord
100
AcDbBlockTableRecord
  2
*D12
340
0
  0
BLOCK_RECORD
  5
18C48
330
7466
100
AcDbSymbolTableRecord
100
AcDbBlockTableRecord
  2
*D13
340
0
  0
BLOCK_RECORD
  5
18C54
330
7466
100
AcDbSymbolTableRecord
100
AcDbBlockTableRecord
  2
*D14
340
0
  0
BLOCK_RECORD
  5
18C60
330
7466
100
AcDbSymbolTableRecord
100
AcDbBlockTableRecord
  2
*D15
340
0
  0
BLOCK_RECORD
  5
18C6C
330
7466
100
AcDbSymbolTableRecord
100
AcDbBlockTableRecord
  2
*D16
340
0
  0
BLOCK_RECORD
  5
18C7A
330
7466
100
AcDbSymbolTableRecord
100
AcDbBlockTableRecord
  2
A$C3B1A506B
340
0
  0
BLOCK_RECORD
  5
1C4CA
330
7466
100
AcDbSymbolTableRecord
100
AcDbBlockTableRecord
  2
_NONE
340
0
  0
BLOCK_RECORD
  5
1DD46
330
7466
100
AcDbSymbolTableRecord
100
AcDbBlockTableRecord
  2
*D19
340
0
  0
BLOCK_RECORD
  5
1DD6B
330
7466
100
AcDbSymbolTableRecord
100
AcDbBlockTableRecord
  2
*D20
340
0
  0
BLOCK_RECORD
  5
1DD76
330
7466
100
AcDbSymbolTableRecord
100
AcDbBlockTableRecord
  2
*D21
340
0
  0
BLOCK_RECORD
  5
1DD8E
330
7466
100
AcDbSymbolTableRecord
100
AcDbBlockTableRecord
  2
*D22
340
0
  0
BLOCK_RECORD
  5
1DDA8
330
7466
100
AcDbSymbolTableRecord
100
AcDbBlockTableRecord
  2
*D23
340
0
  0
BLOCK_RECORD
  5
1DDB5
330
7466
100
AcDbSymbolTableRecord
100
AcDbBlockTableRecord
  2
*D24
340
0
  0
BLOCK_RECORD
  5
1DDC2
330
7466
100
AcDbSymbolTableRecord
100
AcDbBlockTableRecord
  2
*D25
340
0
  0
BLOCK_RECORD
  5
1DDCD
330
7466
100
AcDbSymbolTableRecord
100
AcDbBlockTableRecord
  2
*D26
340
0
  0
BLOCK_RECORD
  5
1DDE3
330
7466
100
AcDbSymbolTableRecord
100
AcDbBlockTableRecord
  2
*D27
340
0
  0
BLOCK_RECORD
  5
1DDF0
330
7466
100
AcDbSymbolTableRecord
100
AcDbBlockTableRecord
  2
*D28
340
0
  0
BLOCK_RECORD
  5
1DE09
330
7466
100
AcDbSymbolTableRecord
100
AcDbBlockTableRecord
  2
*D29
340
0
  0
BLOCK_RECORD
  5
1DE22
330
7466
100
AcDbSymbolTableRecord
100
AcDbBlockTableRecord
  2
*D30
340
0
  0
BLOCK_RECORD
  5
1DE2F
330
7466
100
AcDbSymbolTableRecord
100
AcDbBlockTableRecord
  2
*D31
340
0
  0
BLOCK_RECORD
  5
1DE3C
330
7466
100
AcDbSymbolTableRecord
100
AcDbBlockTableRecord
  2
*D32
340
0
  0
BLOCK_RECORD
  5
1DE47
330
7466
100
AcDbSymbolTableRecord
100
AcDbBlockTableRecord
  2
*D33
340
0
  0
BLOCK_RECORD
  5
1DE54
330
7466
100
AcDbSymbolTableRecord
100
AcDbBlockTableRecord
  2
*D34
340
0
  0
BLOCK_RECORD
  5
1E963
330
7466
100
AcDbSymbolTableRecord
100
AcDbBlockTableRecord
  2
*D35
340
0
  0
BLOCK_RECORD
  5
1EE9F
330
7466
100
AcDbSymbolTableRecord
100
AcDbBlockTableRecord
  2
*D36
340
0
  0
BLOCK_RECORD
  5
1EEE2
330
7466
100
AcDbSymbolTableRecord
100
AcDbBlockTableRecord
  2
*D37
340
0
  0
BLOCK_RECORD
  5
1EF6C
330
7466
100
AcDbSymbolTableRecord
100
AcDbBlockTableRecord
  2
*D38
340
0
  0
BLOCK_RECORD
  5
1FC01
330
7466
100
AcDbSymbolTableRecord
100
AcDbBlockTableRecord
  2
*D39
340
0
  0
BLOCK_RECORD
  5
20D27
330
7466
100
AcDbSymbolTableRecord
100
AcDbBlockTableRecord
  2
*D40
340
0
  0
BLOCK_RECORD
  5
21819
330
7466
100
AcDbSymbolTableRecord
100
AcDbBlockTableRecord
  2
*D53
340
0
  0
BLOCK_RECORD
  5
21825
330
7466
100
AcDbSymbolTableRecord
100
AcDbBlockTableRecord
  2
*D54
340
0
  0
BLOCK_RECORD
  5
21836
330
7466
100
AcDbSymbolTableRecord
100
AcDbBlockTableRecord
  2
*D55
340
0
  0
BLOCK_RECORD
  5
21842
330
7466
100
AcDbSymbolTableRecord
100
AcDbBlockTableRecord
  2
*D56
340
0
  0
BLOCK_RECORD
  5
2184E
330
7466
100
AcDbSymbolTableRecord
100
AcDbBlockTableRecord
  2
*D57
340
0
  0
BLOCK_RECORD
  5
2185A
330
7466
100
AcDbSymbolTableRecord
100
AcDbBlockTableRecord
  2
*D58
340
0
  0
ENDTAB
  0
ENDSEC
  0
SECTION
  2
BLOCKS
  0
BLOCK
  5
7489
330
747D
100
AcDbEntity
  8
0
100
AcDbBlockBegin
  2
*MODEL_SPACE
 70
     0
 10
0.0
 20
0.0
 30
0.0
  3
*MODEL_SPACE
  1

  0
ENDBLK
  5
748A
330
747D
100
AcDbEntity
  8
0
100
AcDbBlockEnd
  0
BLOCK
  5
7487
330
747A
100
AcDbEntity
 67
     1
  8
0
100
AcDbBlockBegin
  2
*PAPER_SPACE
 70
     0
 10
0.0
 20
0.0
 30
0.0
  3
*PAPER_SPACE
  1

  0
ENDBLK
  5
7488
330
747A
100
AcDbEntity
 67
     1
  8
0
100
AcDbBlockEnd
  0
BLOCK
  5
DEAD
330
DEAC
100
AcDbEntity
  8
0
100
AcDbBlockBegin
  2
_OPEN
 70
     0
 10
0.0
 20
0.0
 30
0.0
  3
_OPEN
  1

  0
LINE
  5
DEAE
330
DEAC
100
AcDbEntity
  8
0
  6
ByBlock
 62
     0
100
AcDbLine
 10
-1.0
 20
0.1666666666666666
 30
0.0
 11
0.0
 21
0.0
 31
0.0
  0
LINE
  5
DEAF
330
DEAC
100
AcDbEntity
  8
0
  6
ByBlock
 62
     0
100
AcDbLine
 10
0.0
 20
0.0
 30
0.0
 11
-1.0
 21
-0.1666666666666666
 31
0.0
  0
LINE
  5
DEB0
330
DEAC
100
AcDbEntity
  8
0
  6
ByBlock
 62
     0
100
AcDbLine
 10
0.0
 20
0.0
 30
0.0
 11
-1.0
 21
0.0
 31
0.0
  0
ENDBLK
  5
DEB1
330
DEAC
100
AcDbEntity
  8
0
100
AcDbBlockEnd
  0
BLOCK
  5
F771
330
F770
100
AcDbEntity
  8
0
 48
50.0
100
AcDbBlockBegin
  2
_DOTSMALL
 70
     0
 10
0.0
 20
0.0
 30
0.0
  3
_DOTSMALL
  1

  0
LWPOLYLINE
  5
F772
330
F770
100
AcDbEntity
  8
0
  6
ByBlock
 62
     0
 48
50.0
100
AcDbPolyline
 90
        2
 70
     1
 43
0.5
 10
-0.0625
 20
0.0
 42
1.0
 10
0.0625
 20
0.0
 42
1.0
  0
ENDBLK
  5
F776
330
F770
100
AcDbEntity
  8
0
 48
50.0
100
AcDbBlockEnd
  0
BLOCK
  5
164BA
330
164B4
100
AcDbEntity
  8
0
 48
50.0
100
AcDbBlockBegin
  2
_DOT
 70
     0
 10
0.0
 20
0.0
 30
0.0
  3
_DOT
  1

  0
LWPOLYLINE
  5
164B5
330
164B4
100
AcDbEntity
  8
0
  6
ByBlock
 62
     0
 48
50.0
100
AcDbPolyline
 90
        2
 70
     1
 43
0.5
 10
-0.25
 20
0.0
 42
1.0
 10
0.25
 20
0.0
 42
1.0
  0
LINE
  5
164B9
330
164B4
100
AcDbEntity
  8
0
  6
ByBlock
 62
     0
 48
50.0
100
AcDbLine
 10
-0.5
 20
0.0
 30
0.0
 11
-1.0
 21
0.0
 31
0.0
  0
ENDBLK
  5
164BB
330
164B4
100
AcDbEntity
  8
0
 48
50.0
100
AcDbBlockEnd
  0
BLOCK
  5
18BC9
330
18BC8
100
AcDbEntity
  8
0
 48
50.0
100
AcDbBlockBegin
  2
*D3
 70
     1
 10
0.0
 20
0.0
 30
0.0
  3
*D3
  1

  0
LINE
  5
18BCA
330
18BC8
100
AcDbEntity
  8
寸法
 62
     0
 48
50.0
370
    -2
100
AcDbLine
 10
7649.896575106999
 20
9636.123139034717
 30
0.0
 11
8702.429862581047
 21
9636.123139034717
 31
0.0
  0
LINE
  5
18BCB
330
18BC8
100
AcDbEntity
  8
寸法
 62
     0
 48
50.0
370
    -2
100
AcDbLine
 10
7649.896575106973
 20
7846.123139034709
 30
0.0
 11
8702.429862581047
 21
7846.123139034709
 31
0.0
  0
LINE
  5
18BCC
330
18BC8
100
AcDbEntity
  8
寸法
 62
     0
 48
50.0
370
    -2
100
AcDbLine
 10
8642.429862581046
 20
9636.123139034717
 30
0.0
 11
8642.429862581046
 21
7846.123139034709
 31
0.0
  0
INSERT
  5
18BCD
330
18BC8
100
AcDbEntity
  8
寸法
 62
     0
 48
50.0
370
    -2
100
AcDbBlockReference
  2
_DOTSMALL
 10
8642.429862581046
 20
9636.123139034717
 30
0.0
 41
100.0
 42
100.0
 43
100.0
 50
90.0
  0
INSERT
  5
18BCE
330
18BC8
100
AcDbEntity
  8
寸法
 62
     0
 48
50.0
370
    -2
100
AcDbBlockReference
  2
_DOTSMALL
 10
8642.429862581046
 20
7846.123139034709
 30
0.0
 41
100.0
 42
100.0
 43
100.0
 50
270.0
  0
MTEXT
  5
18BCF
330
18BC8
100
AcDbEntity
  8
寸法
 62
     7
 48
50.0
100
AcDbMText
 10
8542.429862581045
 20
8741.123139034712
 30
0.0
 40
120.0
 41
0.0
 71
     5
 72
     1
  1
\A1;1790
  7
STYLE1
 11
0.0000000000000001
 21
1.0
 31
0.0
 73
     1
 44
1.0
1001
ACAD
1000
MTEXTBEGIN
1070
    73
1070
     1
1070
    44
1040
1.0
1070
    74
1070
     0
1000
MTEXTEND
  0
POINT
  5
18BD0
330
18BC8
100
AcDbEntity
  8
DEFPOINTS
 62
     0
 48
50.0
100
AcDbPoint
 10
7629.896575106998
 20
9636.123139034717
 30
0.0
  0
POINT
  5
18BD1
330
18BC8
100
AcDbEntity
  8
DEFPOINTS
 62
     0
 48
50.0
100
AcDbPoint
 10
7629.896575106974
 20
7846.123139034709
 30
0.0
  0
POINT
  5
18BD2
330
18BC8
100
AcDbEntity
  8
DEFPOINTS
 62
     0
 48
50.0
100
AcDbPoint
 10
8642.429862581046
 20
7846.123139034709
 30
0.0
  0
ENDBLK
  5
18BD3
330
18BC8
100
AcDbEntity
  8
0
 48
50.0
100
AcDbBlockEnd
  0
BLOCK
  5
18BD5
330
18BD4
100
AcDbEntity
  8
0
 48
50.0
100
AcDbBlockBegin
  2
*D4
 70
     1
 10
0.0
 20
0.0
 30
0.0
  3
*D4
  1

  0
LINE
  5
18BD6
330
18BD4
100
AcDbEntity
  8
寸法
 62
     0
 48
50.0
370
    -2
100
AcDbLine
 10
4214.896575106998
 20
9656.123139034622
 30
0.0
 11
4214.896575106998
 21
10211.93135865972
 31
0.0
  0
LINE
  5
18BD7
330
18BD4
100
AcDbEntity
  8
寸法
 62
     0
 48
50.0
370
    -2
100
AcDbLine
 10
7574.896575106999
 20
9656.123139034718
 30
0.0
 11
7574.896575106999
 21
10211.93135865972
 31
0.0
  0
LINE
  5
18BD8
330
18BD4
100
AcDbEntity
  8
寸法
 62
     0
 48
50.0
370
    -2
100
AcDbLine
 10
4214.896575106998
 20
10151.93135865972
 30
0.0
 11
7574.896575106999
 21
10151.93135865972
 31
0.0
  0
INSERT
  5
18BD9
330
18BD4
100
AcDbEntity
  8
寸法
 62
     0
 48
50.0
370
    -2
100
AcDbBlockReference
  2
_DOTSMALL
 10
4214.896575106998
 20
10151.93135865972
 30
0.0
 41
100.0
 42
100.0
 43
100.0
 50
180.0
  0
INSERT
  5
18BDA
330
18BD4
100
AcDbEntity
  8
寸法
 62
     0
 48
50.0
370
    -2
100
AcDbBlockReference
  2
_DOTSMALL
 10
7574.896575106999
 20
10151.93135865972
 30
0.0
 41
100.0
 42
100.0
 43
100.0
  0
MTEXT
  5
18BDB
330
18BD4
100
AcDbEntity
  8
寸法
 62
     7
 48
50.0
100
AcDbMText
 10
5894.896575106997
 20
10251.94316968334
 30
0.0
 40
120.0
 41
0.0
 71
     5
 72
     1
  1
\A1;8X420=3360
  7
STYLE1
 73
     1
 44
1.0
1001
ACAD
1000
MTEXTBEGIN
1070
    73
1070
     1
1070
    44
1040
1.0
1070
    74
1070
     0
1000
MTEXTEND
  0
POINT
  5
18BDC
330
18BD4
100
AcDbEntity
  8
DEFPOINTS
 62
     0
 48
50.0
100
AcDbPoint
 10
4214.896575106998
 20
9636.123139034623
 30
0.0
  0
POINT
  5
18BDD
330
18BD4
100
AcDbEntity
  8
DEFPOINTS
 62
     0
 48
50.0
100
AcDbPoint
 10
7574.896575106999
 20
9636.123139034717
 30
0.0
  0
POINT
  5
18BDE
330
18BD4
100
AcDbEntity
  8
DEFPOINTS
 62
     0
 48
50.0
100
AcDbPoint
 10
7574.896575106999
 20
10151.93135865972
 30
0.0
  0
ENDBLK
  5
18BDF
330
18BD4
100
AcDbEntity
  8
0
 48
50.0
100
AcDbBlockEnd
  0
BLOCK
  5
18BE1
330
18BE0
100
AcDbEntity
  8
0
 48
50.0
100
AcDbBlockBegin
  2
*D5
 70
     1
 10
0.0
 20
0.0
 30
0.0
  3
*D5
  1

  0
LINE
  5
18BE2
330
18BE0
100
AcDbEntity
  8
寸法
 62
     0
 48
50.0
370
    -2
100
AcDbLine
 10
7574.896575106999
 20
9656.123139034718
 30
0.0
 11
7574.896575106999
 21
10211.9313586597
 31
0.0
  0
LINE
  5
18BE3
330
18BE0
100
AcDbEntity
  8
寸法
 62
     0
 48
50.0
370
    -2
100
AcDbLine
 10
7629.896575106998
 20
9656.123139034718
 30
0.0
 11
7629.896575106998
 21
10211.9313586597
 31
0.0
  0
LINE
  5
18BE4
330
18BE0
100
AcDbEntity
  8
寸法
 62
     0
 48
50.0
370
    -2
100
AcDbLine
 10
7574.896575106999
 20
10151.9313586597
 30
0.0
 11
7474.896575106999
 21
10151.9313586597
 31
0.0
  0
LINE
  5
18BE5
330
18BE0
100
AcDbEntity
  8
寸法
 62
     0
 48
50.0
370
    -2
100
AcDbLine
 10
7629.896575106998
 20
10151.9313586597
 30
0.0
 11
8046.867137855477
 21
10151.9313586597
 31
0.0
  0
LINE
  5
18BE6
330
18BE0
100
AcDbEntity
  8
寸法
 62
     0
 48
50.0
370
    -2
100
AcDbLine
 10
7574.896575106999
 20
10151.9313586597
 30
0.0
 11
7629.896575106998
 21
10151.9313586597
 31
0.0
  0
INSERT
  5
18BE7
330
18BE0
100
AcDbEntity
  8
寸法
 62
     0
 48
50.0
370
    -2
100
AcDbBlockReference
  2
_DOTSMALL
 10
7574.896575106999
 20
10151.9313586597
 30
0.0
 41
100.0
 42
100.0
 43
100.0
  0
INSERT
  5
18BE8
330
18BE0
100
AcDbEntity
  8
寸法
 62
     0
 48
50.0
370
    -2
100
AcDbBlockReference
  2
_DOTSMALL
 10
7629.896575106998
 20
10151.9313586597
 30
0.0
 41
100.0
 42
100.0
 43
100.0
 50
180.0
  0
MTEXT
  5
18BE9
330
18BE0
100
AcDbEntity
  8
寸法
 62
     7
 48
50.0
100
AcDbMText
 10
7938.381856481237
 20
10251.9313586597
 30
0.0
 40
120.0
 41
0.0
 71
     5
 72
     1
  1
\A1;55
  7
STYLE1
 73
     1
 44
1.0
1001
ACAD
1000
MTEXTBEGIN
1070
    73
1070
     1
1070
    44
1040
1.0
1070
    74
1070
     0
1000
MTEXTEND
  0
POINT
  5
18BEA
330
18BE0
100
AcDbEntity
  8
DEFPOINTS
 62
     0
 48
50.0
100
AcDbPoint
 10
7574.896575106999
 20
9636.123139034717
 30
0.0
  0
POINT
  5
18BEB
330
18BE0
100
AcDbEntity
  8
DEFPOINTS
 62
     0
 48
50.0
100
AcDbPoint
 10
7629.896575106998
 20
9636.123139034717
 30
0.0
  0
POINT
  5
18BEC
330
18BE0
100
AcDbEntity
  8
DEFPOINTS
 62
     0
 48
50.0
100
AcDbPoint
 10
7629.896575106998
 20
10151.9313586597
 30
0.0
  0
ENDBLK
  5
18BED
330
18BE0
100
AcDbEntity
  8
0
 48
50.0
100
AcDbBlockEnd
  0
BLOCK
  5
18BEF
330
18BEE
100
AcDbEntity
  8
0
 48
50.0
100
AcDbBlockBegin
  2
*D6
 70
     1
 10
0.0
 20
0.0
 30
0.0
  3
*D6
  1

  0
LINE
  5
18BF0
330
18BEE
100
AcDbEntity
  8
寸法
 62
     0
 48
50.0
370
    -2
100
AcDbLine
 10
7649.896575106999
 20
9636.123139034717
 30
0.0
 11
8337.32292084141
 21
9636.123139034717
 31
0.0
  0
LINE
  5
18BF1
330
18BEE
100
AcDbEntity
  8
寸法
 62
     0
 48
50.0
370
    -2
100
AcDbLine
 10
7649.896575106999
 20
9581.123139034721
 30
0.0
 11
8337.32292084141
 21
9581.123139034721
 31
0.0
  0
LINE
  5
18BF2
330
18BEE
100
AcDbEntity
  8
寸法
 62
     0
 48
50.0
370
    -2
100
AcDbLine
 10
8277.322920841411
 20
9581.123139034721
 30
0.0
 11
8277.322920841411
 21
9481.123139034719
 31
0.0
  0
LINE
  5
18BF3
330
18BEE
100
AcDbEntity
  8
寸法
 62
     0
 48
50.0
370
    -2
100
AcDbLine
 10
8277.322920841411
 20
9636.123139034717
 30
0.0
 11
8277.322920841411
 21
10053.09370178319
 31
0.0
  0
LINE
  5
18BF4
330
18BEE
100
AcDbEntity
  8
寸法
 62
     0
 48
50.0
370
    -2
100
AcDbLine
 10
8277.322920841411
 20
9581.123139034721
 30
0.0
 11
8277.322920841411
 21
9636.123139034717
 31
0.0
  0
INSERT
  5
18BF5
330
18BEE
100
AcDbEntity
  8
寸法
 62
     0
 48
50.0
370
    -2
100
AcDbBlockReference
  2
_DOTSMALL
 10
8277.322920841411
 20
9581.123139034721
 30
0.0
 41
100.0
 42
100.0
 43
100.0
 50
90.0
  0
INSERT
  5
18BF6
330
18BEE
100
AcDbEntity
  8
寸法
 62
     0
 48
50.0
370
    -2
100
AcDbBlockReference
  2
_DOTSMALL
 10
8277.322920841411
 20
9636.123139034717
 30
0.0
 41
100.0
 42
100.0
 43
100.0
 50
270.0
  0
MTEXT
  5
18BF7
330
18BEE
100
AcDbEntity
  8
寸法
 62
     7
 48
50.0
100
AcDbMText
 10
8177.32292084141
 20
9944.608420408957
 30
0.0
 40
120.0
 41
0.0
 71
     5
 72
     1
  1
\A1;55
  7
STYLE1
 11
0.0000000000000001
 21
1.0
 31
0.0
 73
     1
 44
1.0
1001
ACAD
1000
MTEXTBEGIN
1070
    73
1070
     1
1070
    44
1040
1.0
1070
    74
1070
     0
1000
MTEXTEND
  0
POINT
  5
18BF8
330
18BEE
100
AcDbEntity
  8
DEFPOINTS
 62
     0
 48
50.0
100
AcDbPoint
 10
7629.896575106998
 20
9636.123139034717
 30
0.0
  0
POINT
  5
18BF9
330
18BEE
100
AcDbEntity
  8
DEFPOINTS
 62
     0
 48
50.0
100
AcDbPoint
 10
7629.896575106998
 20
9581.123139034721
 30
0.0
  0
POINT
  5
18BFA
330
18BEE
100
AcDbEntity
  8
DEFPOINTS
 62
     0
 48
50.0
100
AcDbPoint
 10
8277.322920841411
 20
9581.123139034721
 30
0.0
  0
ENDBLK
  5
18BFB
330
18BEE
100
AcDbEntity
  8
0
 48
50.0
100
AcDbBlockEnd
  0
BLOCK
  5
18BFD
330
18BFC
100
AcDbEntity
  8
0
 48
50.0
100
AcDbBlockBegin
  2
*D7
 70
     1
 10
0.0
 20
0.0
 30
0.0
  3
*D7
  1

  0
LINE
  5
18BFE
330
18BFC
100
AcDbEntity
  8
寸法
 62
     0
 48
50.0
370
    -2
100
AcDbLine
 10
4159.896575106963
 20
9656.123139034622
 30
0.0
 11
4159.896575106963
 21
10211.9313586596
 31
0.0
  0
LINE
  5
18BFF
330
18BFC
100
AcDbEntity
  8
寸法
 62
     0
 48
50.0
370
    -2
100
AcDbLine
 10
4214.896575106998
 20
9656.123139034622
 30
0.0
 11
4214.896575106998
 21
10211.9313586596
 31
0.0
  0
LINE
  5
18C00
330
18BFC
100
AcDbEntity
  8
寸法
 62
     0
 48
50.0
370
    -2
100
AcDbLine
 10
4214.896575106998
 20
10151.9313586596
 30
0.0
 11
4314.896575106998
 21
10151.9313586596
 31
0.0
  0
LINE
  5
18C01
330
18BFC
100
AcDbEntity
  8
寸法
 62
     0
 48
50.0
370
    -2
100
AcDbLine
 10
4159.896575106963
 20
10151.9313586596
 30
0.0
 11
3742.926012358486
 21
10151.9313586596
 31
0.0
  0
LINE
  5
18C02
330
18BFC
100
AcDbEntity
  8
寸法
 62
     0
 48
50.0
370
    -2
100
AcDbLine
 10
4214.896575106998
 20
10151.9313586596
 30
0.0
 11
4159.896575106963
 21
10151.9313586596
 31
0.0
  0
INSERT
  5
18C03
330
18BFC
100
AcDbEntity
  8
寸法
 62
     0
 48
50.0
370
    -2
100
AcDbBlockReference
  2
_DOTSMALL
 10
4214.896575106998
 20
10151.9313586596
 30
0.0
 41
100.0
 42
100.0
 43
100.0
 50
180.0
  0
INSERT
  5
18C04
330
18BFC
100
AcDbEntity
  8
寸法
 62
     0
 48
50.0
370
    -2
100
AcDbBlockReference
  2
_DOTSMALL
 10
4159.896575106963
 20
10151.9313586596
 30
0.0
 41
100.0
 42
100.0
 43
100.0
  0
MTEXT
  5
18C05
330
18BFC
100
AcDbEntity
  8
寸法
 62
     7
 48
50.0
100
AcDbMText
 10
3851.411293732725
 20
10251.9313586596
 30
0.0
 40
120.0
 41
0.0
 71
     5
 72
     1
  1
\A1;55
  7
STYLE1
 73
     1
 44
1.0
1001
ACAD
1000
MTEXTBEGIN
1070
    73
1070
     1
1070
    44
1040
1.0
1070
    74
1070
     0
1000
MTEXTEND
  0
POINT
  5
18C06
330
18BFC
100
AcDbEntity
  8
DEFPOINTS
 62
     0
 48
50.0
100
AcDbPoint
 10
4159.896575106963
 20
9636.123139034623
 30
0.0
  0
POINT
  5
18C07
330
18BFC
100
AcDbEntity
  8
DEFPOINTS
 62
     0
 48
50.0
100
AcDbPoint
 10
4214.896575106998
 20
9636.123139034623
 30
0.0
  0
POINT
  5
18C08
330
18BFC
100
AcDbEntity
  8
DEFPOINTS
 62
     0
 48
50.0
100
AcDbPoint
 10
4214.896575106998
 20
10151.9313586596
 30
0.0
  0
ENDBLK
  5
18C09
330
18BFC
100
AcDbEntity
  8
0
 48
50.0
100
AcDbBlockEnd
  0
BLOCK
  5
18C0B
330
18C0A
100
AcDbEntity
  8
0
 48
50.0
100
AcDbBlockBegin
  2
*D8
 70
     1
 10
0.0
 20
0.0
 30
0.0
  3
*D8
  1

  0
LINE
  5
18C0C
330
18C0A
100
AcDbEntity
  8
寸法
 62
     0
 48
50.0
370
    -2
100
AcDbLine
 10
4159.896575106992
 20
7826.123139034546
 30
0.0
 11
4159.896575106992
 21
6804.372203245664
 31
0.0
  0
LINE
  5
18C0D
330
18C0A
100
AcDbEntity
  8
寸法
 62
     0
 48
50.0
370
    -2
100
AcDbLine
 10
7629.896575106974
 20
7826.123139034674
 30
0.0
 11
7629.896575106974
 21
6804.372203245664
 31
0.0
  0
LINE
  5
18C0E
330
18C0A
100
AcDbEntity
  8
寸法
 62
     0
 48
50.0
370
    -2
100
AcDbLine
 10
4159.896575106992
 20
6864.372203245665
 30
0.0
 11
7629.896575106974
 21
6864.372203245665
 31
0.0
  0
INSERT
  5
18C0F
330
18C0A
100
AcDbEntity
  8
寸法
 62
     0
 48
50.0
370
    -2
100
AcDbBlockReference
  2
_DOTSMALL
 10
4159.896575106992
 20
6864.372203245665
 30
0.0
 41
100.0
 42
100.0
 43
100.0
 50
180.0
  0
INSERT
  5
18C10
330
18C0A
100
AcDbEntity
  8
寸法
 62
     0
 48
50.0
370
    -2
100
AcDbBlockReference
  2
_DOTSMALL
 10
7629.896575106974
 20
6864.372203245665
 30
0.0
 41
100.0
 42
100.0
 43
100.0
  0
MTEXT
  5
18C11
330
18C0A
100
AcDbEntity
  8
寸法
 62
     7
 48
50.0
100
AcDbMText
 10
5911.12376113973
 20
6964.372203245665
 30
0.0
 40
120.0
 41
0.0
 71
     5
 72
     1
  1
\A1;3470
  7
STYLE1
 73
     1
 44
1.0
1001
ACAD
1000
MTEXTBEGIN
1070
    73
1070
     1
1070
    44
1040
1.0
1070
    74
1070
     0
1000
MTEXTEND
  0
POINT
  5
18C12
330
18C0A
100
AcDbEntity
  8
DEFPOINTS
 62
     0
 48
50.0
100
AcDbPoint
 10
4159.896575106992
 20
7846.123139034546
 30
0.0
  0
POINT
  5
18C13
330
18C0A
100
AcDbEntity
  8
DEFPOINTS
 62
     0
 48
50.0
100
AcDbPoint
 10
7629.896575106974
 20
7846.123139034673
 30
0.0
  0
POINT
  5
18C14
330
18C0A
100
AcDbEntity
  8
DEFPOINTS
 62
     0
 48
50.0
100
AcDbPoint
 10
7629.896575106974
 20
6864.372203245665
 30
0.0
  0
ENDBLK
  5
18C15
330
18C0A
100
AcDbEntity
  8
0
 48
50.0
100
AcDbBlockEnd
  0
BLOCK
  5
18C17
330
18C16
100
AcDbEntity
  8
0
 48
50.0
100
AcDbBlockBegin
  2
*D9
 70
     1
 10
0.0
 20
0.0
 30
0.0
  3
*D9
  1

  0
LINE
  5
18C18
330
18C16
100
AcDbEntity
  8
寸法
 62
     0
 48
50.0
370
    -2
100
AcDbLine
 10
7649.896575106973
 20
7901.123139034706
 30
0.0
 11
8337.322920841385
 21
7901.123139034706
 31
0.0
  0
LINE
  5
18C19
330
18C16
100
AcDbEntity
  8
寸法
 62
     0
 48
50.0
370
    -2
100
AcDbLine
 10
7649.896575106973
 20
7846.123139034709
 30
0.0
 11
8337.322920841385
 21
7846.123139034709
 31
0.0
  0
LINE
  5
18C1A
330
18C16
100
AcDbEntity
  8
寸法
 62
     0
 48
50.0
370
    -2
100
AcDbLine
 10
8277.322920841385
 20
7901.123139034706
 30
0.0
 11
8277.322920841385
 21
8001.123139034707
 31
0.0
  0
LINE
  5
18C1B
330
18C16
100
AcDbEntity
  8
寸法
 62
     0
 48
50.0
370
    -2
100
AcDbLine
 10
8277.322920841385
 20
7846.123139034709
 30
0.0
 11
8277.322920841385
 21
7429.152576286229
 31
0.0
  0
LINE
  5
18C1C
330
18C16
100
AcDbEntity
  8
寸法
 62
     0
 48
50.0
370
    -2
100
AcDbLine
 10
8277.322920841385
 20
7901.123139034706
 30
0.0
 11
8277.322920841385
 21
7846.123139034709
 31
0.0
  0
INSERT
  5
18C1D
330
18C16
100
AcDbEntity
  8
寸法
 62
     0
 48
50.0
370
    -2
100
AcDbBlockReference
  2
_DOTSMALL
 10
8277.322920841385
 20
7901.123139034706
 30
0.0
 41
100.0
 42
100.0
 43
100.0
 50
270.0
  0
INSERT
  5
18C1E
330
18C16
100
AcDbEntity
  8
寸法
 62
     0
 48
50.0
370
    -2
100
AcDbBlockReference
  2
_DOTSMALL
 10
8277.322920841385
 20
7846.123139034709
 30
0.0
 41
100.0
 42
100.0
 43
100.0
 50
90.0
  0
MTEXT
  5
18C1F
330
18C16
100
AcDbEntity
  8
寸法
 62
     7
 48
50.0
100
AcDbMText
 10
8177.322920841383
 20
7537.637857660469
 30
0.0
 40
120.0
 41
0.0
 71
     5
 72
     1
  1
\A1;55
  7
STYLE1
 11
0.0000000000000001
 21
1.0
 31
0.0
 73
     1
 44
1.0
1001
ACAD
1000
MTEXTBEGIN
1070
    73
1070
     1
1070
    44
1040
1.0
1070
    74
1070
     0
1000
MTEXTEND
  0
POINT
  5
18C20
330
18C16
100
AcDbEntity
  8
DEFPOINTS
 62
     0
 48
50.0
100
AcDbPoint
 10
7629.896575106974
 20
7901.123139034706
 30
0.0
  0
POINT
  5
18C21
330
18C16
100
AcDbEntity
  8
DEFPOINTS
 62
     0
 48
50.0
100
AcDbPoint
 10
7629.896575106974
 20
7846.123139034709
 30
0.0
  0
POINT
  5
18C22
330
18C16
100
AcDbEntity
  8
DEFPOINTS
 62
     0
 48
50.0
100
AcDbPoint
 10
8277.322920841385
 20
7846.123139034709
 30
0.0
  0
ENDBLK
  5
18C23
330
18C16
100
AcDbEntity
  8
0
 48
50.0
100
AcDbBlockEnd
  0
BLOCK
  5
18C25
330
18C24
100
AcDbEntity
  8
0
 48
50.0
100
AcDbBlockBegin
  2
*D10
 70
     1
 10
0.0
 20
0.0
 30
0.0
  3
*D10
  1

  0
LINE
  5
18C26
330
18C24
100
AcDbEntity
  8
寸法
 62
     0
 48
50.0
370
    -2
100
AcDbLine
 10
6533.037591258376
 20
9136.123139034728
 30
0.0
 11
6465.083950562664
 21
8882.516699399049
 31
0.0
  0
LINE
  5
18C27
330
18C24
100
AcDbEntity
  8
寸法
 62
     0
 48
50.0
370
    -2
100
AcDbLine
 10
7596.037591258388
 20
9136.123139034721
 30
0.0
 11
7528.083950562677
 21
8882.516699399049
 31
0.0
  0
LINE
  5
18C28
330
18C24
100
AcDbEntity
  8
寸法
 62
     0
 48
50.0
370
    -2
100
AcDbLine
 10
6481.160902108531
 20
8942.51669939905
 30
0.0
 11
7544.160902108544
 21
8942.51669939905
 31
0.0
  0
INSERT
  5
18C29
330
18C24
100
AcDbEntity
  8
寸法
 62
     0
 48
50.0
370
    -2
100
AcDbBlockReference
  2
_DOTSMALL
 10
6481.160902108531
 20
8942.51669939905
 30
0.0
 41
100.0
 42
100.0
 43
100.0
 50
180.0
  0
INSERT
  5
18C2A
330
18C24
100
AcDbEntity
  8
寸法
 62
     0
 48
50.0
370
    -2
100
AcDbBlockReference
  2
_DOTSMALL
 10
7544.160902108544
 20
8942.51669939905
 30
0.0
 41
100.0
 42
100.0
 43
100.0
  0
MTEXT
  5
18C2B
330
18C24
100
AcDbEntity
  8
寸法
 62
     7
 48
50.0
100
AcDbMText
 10
7061.28653022935
 20
9042.516699399049
 30
0.0
 40
120.0
 41
0.0
 71
     5
 72
     1
  1
\A1;1063
  7
STYLE1
 73
     1
 44
1.0
1001
ACAD
1000
MTEXTBEGIN
1070
    73
1070
     1
1070
    44
1040
1.0
1070
    74
1070
     0
1000
MTEXTEND
  0
POINT
  5
18C2C
330
18C24
100
AcDbEntity
  8
DEFPOINTS
 62
     0
 48
50.0
100
AcDbPoint
 10
6538.396575106998
 20
9156.123139034727
 30
0.0
  0
POINT
  5
18C2D
330
18C24
100
AcDbEntity
  8
DEFPOINTS
 62
     0
 48
50.0
100
AcDbPoint
 10
7601.39657510701
 20
9156.12313903472
 30
0.0
  0
POINT
  5
18C2E
330
18C24
100
AcDbEntity
  8
DEFPOINTS
 62
     0
 48
50.0
100
AcDbPoint
 10
7544.160902108544
 20
8942.51669939905
 30
0.0
  0
ENDBLK
  5
18C2F
330
18C24
100
AcDbEntity
  8
0
 48
50.0
100
AcDbBlockEnd
  0
BLOCK
  5
18C31
330
18C30
100
AcDbEntity
  8
0
 48
50.0
100
AcDbBlockBegin
  2
*D11
 70
     1
 10
0.0
 20
0.0
 30
0.0
  3
*D11
  1

  0
LINE
  5
18C32
330
18C30
100
AcDbEntity
  8
寸法
 62
     0
 48
50.0
370
    -2
100
AcDbLine
 10
7621.396575106999
 20
9600.764155186094
 30
0.0
 11
8016.754300969024
 21
9494.828371819961
 31
0.0
  0
LINE
  5
18C33
330
18C30
100
AcDbEntity
  8
寸法
 62
     0
 48
50.0
370
    -2
100
AcDbLine
 10
7621.396575106999
 20
9150.764155186099
 30
0.0
 11
8016.754300969024
 21
9044.828371819964
 31
0.0
  0
LINE
  5
18C34
330
18C30
100
AcDbEntity
  8
寸法
 62
     0
 48
50.0
370
    -2
100
AcDbLine
 10
7956.754300969024
 20
9510.905323365827
 30
0.0
 11
7956.754300969024
 21
9060.90532336583
 31
0.0
  0
INSERT
  5
18C35
330
18C30
100
AcDbEntity
  8
寸法
 62
     0
 48
50.0
370
    -2
100
AcDbBlockReference
  2
_DOTSMALL
 10
7956.754300969024
 20
9510.905323365827
 30
0.0
 41
100.0
 42
100.0
 43
100.0
 50
90.0
  0
INSERT
  5
18C36
330
18C30
100
AcDbEntity
  8
寸法
 62
     0
 48
50.0
370
    -2
100
AcDbBlockReference
  2
_DOTSMALL
 10
7956.754300969024
 20
9060.90532336583
 30
0.0
 41
100.0
 42
100.0
 43
100.0
 50
270.0
  0
MTEXT
  5
18C37
330
18C30
100
AcDbEntity
  8
寸法
 62
     7
 48
50.0
100
AcDbMText
 10
7856.754300969022
 20
9285.905323365829
 30
0.0
 40
120.0
 41
0.0
 71
     5
 72
     1
  1
\A1;450
  7
STYLE1
 11
0.0000000000000001
 21
1.0
 31
0.0
 73
     1
 44
1.0
1001
ACAD
1000
MTEXTBEGIN
1070
    73
1070
     1
1070
    44
1040
1.0
1070
    74
1070
     0
1000
MTEXTEND
  0
POINT
  5
18C38
330
18C30
100
AcDbEntity
  8
DEFPOINTS
 62
     0
 48
50.0
100
AcDbPoint
 10
7601.396575106999
 20
9606.123139034718
 30
0.0
  0
POINT
  5
18C39
330
18C30
100
AcDbEntity
  8
DEFPOINTS
 62
     0
 48
50.0
100
AcDbPoint
 10
7601.396575106999
 20
9156.12313903472
 30
0.0
  0
POINT
  5
18C3A
330
18C30
100
AcDbEntity
  8
DEFPOINTS
 62
     0
 48
50.0
100
AcDbPoint
 10
7956.754300969024
 20
9060.90532336583
 30
0.0
  0
ENDBLK
  5
18C3B
330
18C30
100
AcDbEntity
  8
0
 48
50.0
100
AcDbBlockEnd
  0
BLOCK
  5
18C3D
330
18C3C
100
AcDbEntity
  8
0
 48
50.0
100
AcDbBlockBegin
  2
*D12
 70
     1
 10
0.0
 20
0.0
 30
0.0
  3
*D12
  1

  0
LINE
  5
18C3E
330
18C3C
100
AcDbEntity
  8
寸法
 62
     0
 48
50.0
370
    -2
100
AcDbLine
 10
7649.896575106999
 20
9581.123139034721
 30
0.0
 11
8337.32292084141
 21
9581.123139034721
 31
0.0
  0
LINE
  5
18C3F
330
18C3C
100
AcDbEntity
  8
寸法
 62
     0
 48
50.0
370
    -2
100
AcDbLine
 10
7649.896575106973
 20
7901.123139034706
 30
0.0
 11
8337.32292084141
 21
7901.123139034706
 31
0.0
  0
LINE
  5
18C40
330
18C3C
100
AcDbEntity
  8
寸法
 62
     0
 48
50.0
370
    -2
100
AcDbLine
 10
8277.322920841411
 20
9581.123139034721
 30
0.0
 11
8277.322920841411
 21
7901.123139034706
 31
0.0
  0
INSERT
  5
18C41
330
18C3C
100
AcDbEntity
  8
寸法
 62
     0
 48
50.0
370
    -2
100
AcDbBlockReference
  2
_DOTSMALL
 10
8277.322920841411
 20
9581.123139034721
 30
0.0
 41
100.0
 42
100.0
 43
100.0
 50
90.0
  0
INSERT
  5
18C42
330
18C3C
100
AcDbEntity
  8
寸法
 62
     0
 48
50.0
370
    -2
100
AcDbBlockReference
  2
_DOTSMALL
 10
8277.322920841411
 20
7901.123139034706
 30
0.0
 41
100.0
 42
100.0
 43
100.0
 50
270.0
  0
MTEXT
  5
18C43
330
18C3C
100
AcDbEntity
  8
寸法
 62
     7
 48
50.0
100
AcDbMText
 10
8177.311109817788
 20
8741.123139034712
 30
0.0
 40
120.0
 41
0.0
 71
     5
 72
     1
  1
\A1;4X420=1680
  7
STYLE1
 11
0.0000000000000001
 21
1.0
 31
0.0
 73
     1
 44
1.0
1001
ACAD
1000
MTEXTBEGIN
1070
    73
1070
     1
1070
    44
1040
1.0
1070
    74
1070
     0
1000
MTEXTEND
  0
POINT
  5
18C44
330
18C3C
100
AcDbEntity
  8
DEFPOINTS
 62
     0
 48
50.0
100
AcDbPoint
 10
7629.896575106998
 20
9581.123139034721
 30
0.0
  0
POINT
  5
18C45
330
18C3C
100
AcDbEntity
  8
DEFPOINTS
 62
     0
 48
50.0
100
AcDbPoint
 10
7629.896575106974
 20
7901.123139034706
 30
0.0
  0
POINT
  5
18C46
330
18C3C
100
AcDbEntity
  8
DEFPOINTS
 62
     0
 48
50.0
100
AcDbPoint
 10
8277.322920841411
 20
7901.123139034706
 30
0.0
  0
ENDBLK
  5
18C47
330
18C3C
100
AcDbEntity
  8
0
 48
50.0
100
AcDbBlockEnd
  0
BLOCK
  5
18C49
330
18C48
100
AcDbEntity
  8
0
 48
50.0
100
AcDbBlockBegin
  2
*D13
 70
     1
 10
0.0
 20
0.0
 30
0.0
  3
*D13
  1

  0
LINE
  5
18C4A
330
18C48
100
AcDbEntity
  8
寸法
 62
     0
 48
50.0
370
    -2
100
AcDbLine
 10
4183.037591258377
 20
9136.123139034619
 30
0.0
 11
4115.083950562663
 21
8882.516699398941
 31
0.0
  0
LINE
  5
18C4B
330
18C48
100
AcDbEntity
  8
寸法
 62
     0
 48
50.0
370
    -2
100
AcDbLine
 10
5246.037591258307
 20
9136.123139034671
 30
0.0
 11
5178.08395056258
 21
8882.516699398941
 31
0.0
  0
LINE
  5
18C4C
330
18C48
100
AcDbEntity
  8
寸法
 62
     0
 48
50.0
370
    -2
100
AcDbLine
 10
4131.160902108532
 20
8942.516699398941
 30
0.0
 11
5194.160902108448
 21
8942.516699398941
 31
0.0
  0
INSERT
  5
18C4D
330
18C48
100
AcDbEntity
  8
寸法
 62
     0
 48
50.0
370
    -2
100
AcDbBlockReference
  2
_DOTSMALL
 10
4131.160902108532
 20
8942.516699398941
 30
0.0
 41
100.0
 42
100.0
 43
100.0
 50
180.0
  0
INSERT
  5
18C4E
330
18C48
100
AcDbEntity
  8
寸法
 62
     0
 48
50.0
370
    -2
100
AcDbBlockReference
  2
_DOTSMALL
 10
5194.160902108448
 20
8942.516699398941
 30
0.0
 41
100.0
 42
100.0
 43
100.0
  0
MTEXT
  5
18C4F
330
18C48
100
AcDbEntity
  8
寸法
 62
     7
 48
50.0
100
AcDbMText
 10
4658.986452655306
 20
9042.516699398941
 30
0.0
 40
120.0
 41
0.0
 71
     5
 72
     1
  1
\A1;1063
  7
STYLE1
 73
     1
 44
1.0
1001
ACAD
1000
MTEXTBEGIN
1070
    73
1070
     1
1070
    44
1040
1.0
1070
    74
1070
     0
1000
MTEXTEND
  0
POINT
  5
18C50
330
18C48
100
AcDbEntity
  8
DEFPOINTS
 62
     0
 48
50.0
100
AcDbPoint
 10
4188.396575106999
 20
9156.123139034617
 30
0.0
  0
POINT
  5
18C51
330
18C48
100
AcDbEntity
  8
DEFPOINTS
 62
     0
 48
50.0
100
AcDbPoint
 10
5251.396575106929
 20
9156.123139034672
 30
0.0
  0
POINT
  5
18C52
330
18C48
100
AcDbEntity
  8
DEFPOINTS
 62
     0
 48
50.0
100
AcDbPoint
 10
5194.160902108448
 20
8942.516699398941
 30
0.0
  0
ENDBLK
  5
18C53
330
18C48
100
AcDbEntity
  8
0
 48
50.0
100
AcDbBlockEnd
  0
BLOCK
  5
18C55
330
18C54
100
AcDbEntity
  8
0
 48
50.0
100
AcDbBlockBegin
  2
*D14
 70
     1
 10
0.0
 20
0.0
 30
0.0
  3
*D14
  1

  0
LINE
  5
18C56
330
18C54
100
AcDbEntity
  8
寸法
 62
     0
 48
50.0
370
    -2
100
AcDbLine
 10
5274.037591258307
 20
9136.123139034669
 30
0.0
 11
5206.08395056258
 21
8882.516699398941
 31
0.0
  0
LINE
  5
18C57
330
18C54
100
AcDbEntity
  8
寸法
 62
     0
 48
50.0
370
    -2
100
AcDbLine
 10
6505.037591258377
 20
9136.123139034662
 30
0.0
 11
6437.083950562653
 21
8882.516699398941
 31
0.0
  0
LINE
  5
18C58
330
18C54
100
AcDbEntity
  8
寸法
 62
     0
 48
50.0
370
    -2
100
AcDbLine
 10
5222.160902108448
 20
8942.516699398941
 30
0.0
 11
6453.16090210852
 21
8942.516699398941
 31
0.0
  0
INSERT
  5
18C59
330
18C54
100
AcDbEntity
  8
寸法
 62
     0
 48
50.0
370
    -2
100
AcDbBlockReference
  2
_DOTSMALL
 10
5222.160902108448
 20
8942.516699398941
 30
0.0
 41
100.0
 42
100.0
 43
100.0
 50
180.0
  0
INSERT
  5
18C5A
330
18C54
100
AcDbEntity
  8
寸法
 62
     0
 48
50.0
370
    -2
100
AcDbBlockReference
  2
_DOTSMALL
 10
6453.16090210852
 20
8942.516699398941
 30
0.0
 41
100.0
 42
100.0
 43
100.0
  0
MTEXT
  5
18C5B
330
18C54
100
AcDbEntity
  8
寸法
 62
     7
 48
50.0
100
AcDbMText
 10
6081.244808320626
 20
9042.528510422561
 30
0.0
 40
120.0
 41
0.0
 71
     5
 72
     1
  1
\A1;1231
  7
STYLE1
 73
     1
 44
1.0
1001
ACAD
1000
MTEXTBEGIN
1070
    73
1070
     1
1070
    44
1040
1.0
1070
    74
1070
     0
1000
MTEXTEND
  0
POINT
  5
18C5C
330
18C54
100
AcDbEntity
  8
DEFPOINTS
 62
     0
 48
50.0
100
AcDbPoint
 10
5279.396575106929
 20
9156.123139034669
 30
0.0
  0
POINT
  5
18C5D
330
18C54
100
AcDbEntity
  8
DEFPOINTS
 62
     0
 48
50.0
100
AcDbPoint
 10
6510.396575106999
 20
9156.123139034662
 30
0.0
  0
POINT
  5
18C5E
330
18C54
100
AcDbEntity
  8
DEFPOINTS
 62
     0
 48
50.0
100
AcDbPoint
 10
6453.16090210852
 20
8942.516699398941
 30
0.0
  0
ENDBLK
  5
18C5F
330
18C54
100
AcDbEntity
  8
0
 48
50.0
100
AcDbBlockEnd
  0
BLOCK
  5
18C61
330
18C60
100
AcDbEntity
  8
0
 48
50.0
100
AcDbBlockBegin
  2
*D15
 70
     1
 10
0.0
 20
0.0
 30
0.0
  3
*D15
  1

  0
LINE
  5
18C62
330
18C60
100
AcDbEntity
  8
寸法
 62
     0
 48
50.0
370
    -2
100
AcDbLine
 10
5065.896575106966
 20
7749.123139034579
 30
0.0
 11
5065.896575106966
 21
7099.952920982538
 31
0.0
  0
LINE
  5
18C63
330
18C60
100
AcDbEntity
  8
寸法
 62
     0
 48
50.0
370
    -2
100
AcDbLine
 10
6331.896575106966
 20
7749.123139034579
 30
0.0
 11
6331.896575106966
 21
7099.952920982538
 31
0.0
  0
LINE
  5
18C64
330
18C60
100
AcDbEntity
  8
寸法
 62
     0
 48
50.0
370
    -2
100
AcDbLine
 10
5065.896575106966
 20
7159.952920982537
 30
0.0
 11
6331.896575106966
 21
7159.952920982537
 31
0.0
  0
INSERT
  5
18C65
330
18C60
100
AcDbEntity
  8
寸法
 62
     0
 48
50.0
370
    -2
100
AcDbBlockReference
  2
_DOTSMALL
 10
5065.896575106966
 20
7159.952920982537
 30
0.0
 41
100.0
 42
100.0
 43
100.0
 50
180.0
  0
INSERT
  5
18C66
330
18C60
100
AcDbEntity
  8
寸法
 62
     0
 48
50.0
370
    -2
100
AcDbBlockReference
  2
_DOTSMALL
 10
6331.896575106966
 20
7159.952920982537
 30
0.0
 41
100.0
 42
100.0
 43
100.0
  0
MTEXT
  5
18C67
330
18C60
100
AcDbEntity
  8
寸法
 62
     7
 48
50.0
100
AcDbMText
 10
5711.986008735934
 20
7359.964732006159
 30
0.0
 40
120.0
 41
0.0
 71
     5
 72
     1
  1
\A1;有効開口部間口\P1266
  7
STYLE1
 73
     1
 44
1.0
1001
ACAD
1000
MTEXTBEGIN
1070
    73
1070
     1
1070
    44
1040
1.0
1070
    74
1070
     0
1000
MTEXTEND
  0
POINT
  5
18C68
330
18C60
100
AcDbEntity
  8
DEFPOINTS
 62
     0
 48
50.0
100
AcDbPoint
 10
5065.896575106966
 20
7769.123139034579
 30
0.0
  0
POINT
  5
18C69
330
18C60
100
AcDbEntity
  8
DEFPOINTS
 62
     0
 48
50.0
100
AcDbPoint
 10
6331.896575106966
 20
7769.123139034579
 30
0.0
  0
POINT
  5
18C6A
330
18C60
100
AcDbEntity
  8
DEFPOINTS
 62
     0
 48
50.0
100
AcDbPoint
 10
6331.896575106966
 20
7159.952920982537
 30
0.0
  0
ENDBLK
  5
18C6B
330
18C60
100
AcDbEntity
  8
0
 48
50.0
100
AcDbBlockEnd
  0
BLOCK
  5
18C6D
330
18C6C
100
AcDbEntity
  8
0
 48
50.0
100
AcDbBlockBegin
  2
*D16
 70
     1
 10
0.0
 20
0.0
 30
0.0
  3
*D16
  1

  0
LINE
  5
18C6E
330
18C6C
100
AcDbEntity
  8
寸法
 62
     0
 48
50.0
370
    -2
100
AcDbLine
 10
7200.896575106966
 20
7846.123139034578
 30
0.0
 11
7457.192158500191
 21
7846.123139034578
 31
0.0
  0
LINE
  5
18C6F
330
18C6C
100
AcDbEntity
  8
寸法
 62
     0
 48
50.0
370
    -2
100
AcDbLine
 10
7199.896575106966
 20
7769.123139034579
 30
0.0
 11
7457.192158500191
 21
7769.123139034579
 31
0.0
  0
LINE
  5
18C70
330
18C6C
100
AcDbEntity
  8
寸法
 62
     0
 48
50.0
370
    -2
100
AcDbLine
 10
7417.192158500192
 20
7866.123139034579
 30
0.0
 11
7417.192158500192
 21
7886.123139034578
 31
0.0
  0
LINE
  5
18C71
330
18C6C
100
AcDbEntity
  8
寸法
 62
     0
 48
50.0
370
    -2
100
AcDbLine
 10
7417.192158500192
 20
7749.123139034579
 30
0.0
 11
7417.192158500192
 21
7533.123139034573
 31
0.0
  0
LINE
  5
18C72
330
18C6C
100
AcDbEntity
  8
寸法
 62
     0
 48
50.0
370
    -2
100
AcDbLine
 10
7417.192158500192
 20
7846.123139034578
 30
0.0
 11
7417.192158500192
 21
7769.123139034579
 31
0.0
  0
INSERT
  5
18C73
330
18C6C
100
AcDbEntity
  8
寸法
 62
     0
 48
50.0
370
    -2
100
AcDbBlockReference
  2
_DOT
 10
7417.192158500192
 20
7846.123139034578
 30
0.0
 41
20.0
 42
20.0
 43
20.0
 50
270.0
  0
INSERT
  5
18C74
330
18C6C
100
AcDbEntity
  8
寸法
 62
     0
 48
50.0
370
    -2
100
AcDbBlockReference
  2
_DOT
 10
7417.192158500192
 20
7769.123139034579
 30
0.0
 41
20.0
 42
20.0
 43
20.0
 50
90.0
  0
MTEXT
  5
18C75
330
18C6C
100
AcDbEntity
  8
寸法
 62
     7
 48
50.0
100
AcDbMText
 10
7325.192158500191
 20
7631.123139034575
 30
0.0
 40
120.0
 41
0.0
 71
     5
 72
     1
  1
\A1;77
  7
STYLE1
 11
0.0000000000000001
 21
1.0
 31
0.0
 73
     1
 44
1.0
1001
ACAD
1000
MTEXTBEGIN
1070
    73
1070
     1
1070
    44
1040
1.0
1070
    74
1070
     0
1000
MTEXTEND
  0
POINT
  5
18C76
330
18C6C
100
AcDbEntity
  8
DEFPOINTS
 62
     0
 48
50.0
100
AcDbPoint
 10
7180.896575106967
 20
7846.123139034578
 30
0.0
  0
POINT
  5
18C77
330
18C6C
100
AcDbEntity
  8
DEFPOINTS
 62
     0
 48
50.0
100
AcDbPoint
 10
7179.896575106965
 20
7769.123139034579
 30
0.0
  0
POINT
  5
18C78
330
18C6C
100
AcDbEntity
  8
DEFPOINTS
 62
     0
 48
50.0
100
AcDbPoint
 10
7417.192158500192
 20
7769.123139034579
 30
0.0
  0
ENDBLK
  5
18C79
330
18C6C
100
AcDbEntity
  8
0
 48
50.0
100
AcDbBlockEnd
  0
BLOCK
  5
18DA0
330
18C7A
100
AcDbEntity
  8
0
 48
50.0
100
AcDbBlockBegin
  2
A$C3B1A506B
 70
     0
 10
0.0
 20
0.0
 30
0.0
  3
A$C3B1A506B
  1

  0
MTEXT
  5
18C7B
330
18C7A
100
AcDbEntity
  8
寸法
 62
     7
 48
50.0
100
AcDbMText
 10
3342.250386887194
 20
2778.329429134012
 30
0.0
 40
96.0
 41
0.0
 71
     5
 72
     1
  1
棚 2段
  7
STYLE1
 73
     1
 44
1.0
1001
ACAD
1000
MTEXTBEGIN
1070
    73
1070
     1
1070
    44
1040
1.0
1070
    74
1070
     0
1000
MTEXTEND
  0
MTEXT
  5
18C7C
330
18C7A
100
AcDbEntity
  8
寸法
 62
     7
 48
50.0
100
AcDbMText
 10
2167.25038688716
 20
2778.329429133986
 30
0.0
 40
96.0
 41
0.0
 71
     5
 72
     1
  1
棚 2段
  7
STYLE1
 73
     1
 44
1.0
1001
ACAD
1000
MTEXTBEGIN
1070
    73
1070
     1
1070
    44
1040
1.0
1070
    74
1070
     0
1000
MTEXTEND
  0
MTEXT
  5
18C7D
330
18C7A
100
AcDbEntity
  8
寸法
 62
     7
 48
50.0
100
AcDbMText
 10
992.2503868871608
 20
2778.329429133935
 30
0.0
 40
96.0
 41
0.0
 71
     5
 72
     1
  1
棚 2段
  7
STYLE1
 73
     1
 44
1.0
1001
ACAD
1000
MTEXTBEGIN
1070
    73
1070
     1
1070
    44
1040
1.0
1070
    74
1070
     0
1000
MTEXTEND
  0
LINE
  5
18C7E
330
18C7A
100
AcDbEntity
  8
細線
 48
50.0
100
AcDbLine
 10
2771.970589276527
 20
1368.994384123192
 30
0.0
 11
3398.970589276523
 21
1368.994384123192
 31
0.0
  0
LINE
  5
18C7F
330
18C7A
100
AcDbEntity
  8
細線
 48
50.0
100
AcDbLine
 10
2117.970593930113
 20
1335.285615569113
 30
0.0
 11
3398.970589276523
 21
1335.285615569113
 31
0.0
  0
LINE
  5
18C80
330
18C7A
100
AcDbEntity
  8
細線
 48
50.0
100
AcDbLine
 10
2076.970593930115
 20
1364.690523565368
 30
0.0
 11
1322.970589276523
 21
1364.690523565367
 31
0.0
  0
LINE
  5
18C81
330
18C7A
100
AcDbEntity
  8
細線
100
AcDbLine
 10
3170.720579860066
 20
1388.494284088199
 30
0.0
 11
3173.052119381877
 21
1393.494286728162
 31
0.0
  0
LINE
  5
18C82
330
18C7A
100
AcDbEntity
  8
細線
100
AcDbLine
 10
3240.720589276525
 20
1388.494269174465
 30
0.0
 11
3238.389042800336
 21
1393.494286728144
 31
0.0
  0
LINE
  5
18C83
330
18C7A
100
AcDbEntity
  8
細線
100
AcDbLine
 10
3238.389042800336
 20
1393.494286728144
 30
0.0
 11
3173.052119381862
 21
1393.494286728133
 31
0.0
  0
LINE
  5
18C84
330
18C7A
100
AcDbEntity
  8
細線
100
AcDbLine
 10
3098.389042800336
 20
1393.494286728144
 30
0.0
 11
3033.052119381862
 21
1393.494286728133
 31
0.0
  0
LINE
  5
18C85
330
18C7A
100
AcDbEntity
  8
細線
100
AcDbLine
 10
3100.720589276523
 20
1388.494269174465
 30
0.0
 11
3098.389042800336
 21
1393.494286728144
 31
0.0
  0
LINE
  5
18C86
330
18C7A
100
AcDbEntity
  8
細線
100
AcDbLine
 10
3030.720579860066
 20
1388.494284088199
 30
0.0
 11
3033.052119381875
 21
1393.494286728162
 31
0.0
  0
LINE
  5
18C87
330
18C7A
100
AcDbEntity
  8
細線
100
AcDbLine
 10
2890.720589276525
 20
1388.494269174465
 30
0.0
 11
2893.052128798336
 21
1393.494271814428
 31
0.0
  0
LINE
  5
18C88
330
18C7A
100
AcDbEntity
  8
細線
100
AcDbLine
 10
2960.720598692984
 20
1388.494254260731
 30
0.0
 11
2958.389052216793
 21
1393.49427181441
 31
0.0
  0
LINE
  5
18C89
330
18C7A
100
AcDbEntity
  8
細線
100
AcDbLine
 10
2958.389052216795
 20
1393.49427181441
 30
0.0
 11
2893.052128798321
 21
1393.494271814399
 31
0.0
  0
LINE
  5
18C8A
330
18C7A
100
AcDbEntity
  8
細線
100
AcDbLine
 10
2667.139038146739
 20
1359.494298590735
 30
0.0
 11
2601.802114728263
 21
1359.494298590724
 31
0.0
  0
LINE
  5
18C8B
330
18C7A
100
AcDbEntity
  8
細線
100
AcDbLine
 10
2669.470584622926
 20
1354.494281037055
 30
0.0
 11
2667.139038146737
 21
1359.494298590735
 31
0.0
  0
LINE
  5
18C8C
330
18C7A
100
AcDbEntity
  8
細線
100
AcDbLine
 10
2599.470575206469
 20
1354.49429595079
 30
0.0
 11
2601.802114728278
 21
1359.494298590752
 31
0.0
  0
LINE
  5
18C8D
330
18C7A
100
AcDbEntity
  8
細線
 48
50.0
100
AcDbLine
 10
2440.853968524536
 20
1372.765132327548
 30
0.0
 11
2446.609486107205
 21
1354.494281037057
 31
0.0
  0
LINE
  5
18C8E
330
18C7A
100
AcDbEntity
  8
細線
 48
50.0
100
AcDbLine
 10
2429.925520044106
 20
1372.765132327546
 30
0.0
 11
2440.853968524536
 21
1372.765132327548
 31
0.0
  0
ARC
  5
18C8F
330
18C7A
100
AcDbEntity
  8
細線
 48
50.0
100
AcDbCircle
 10
2424.471163986787
 20
1374.265132327546
 30
0.0
 40
5.0
100
AcDbArc
 50
204.6243183520723
 51
335.3756816479278
  0
ARC
  5
18C90
330
18C7A
100
AcDbEntity
  8
細線
 48
50.0
100
AcDbCircle
 10
2429.925520044106
 20
1371.765132327546
 30
0.0
 40
1.0
100
AcDbArc
 50
90.0
 51
155.3756816479277
  0
ARC
  5
18C91
330
18C7A
100
AcDbEntity
  8
細線
 48
50.0
100
AcDbCircle
 10
2419.016807929469
 20
1371.765132327546
 30
0.0
 40
1.0
100
AcDbArc
 50
24.62431835207225
 51
90.0
  0
LINE
  5
18C92
330
18C7A
100
AcDbEntity
  8
細線
 48
50.0
100
AcDbLine
 10
2408.088359449037
 20
1372.765132327548
 30
0.0
 11
2419.016807929469
 21
1372.765132327546
 31
0.0
  0
LINE
  5
18C93
330
18C7A
100
AcDbEntity
  8
細線
 48
50.0
100
AcDbLine
 10
2402.33284186637
 20
1354.494281037054
 30
0.0
 11
2408.088359449037
 21
1372.765132327548
 31
0.0
  0
LINE
  5
18C94
330
18C7A
100
AcDbEntity
  8
細線
100
AcDbLine
 10
2458.070304175992
 20
1354.494278397076
 30
0.0
 11
2460.401843697802
 21
1359.494281037039
 31
0.0
  0
LINE
  5
18C95
330
18C7A
100
AcDbEntity
  8
細線
100
AcDbLine
 10
2528.070313592451
 20
1354.494263483342
 30
0.0
 11
2525.738767116262
 21
1359.494281037021
 31
0.0
  0
LINE
  5
18C96
330
18C7A
100
AcDbEntity
  8
細線
100
AcDbLine
 10
2525.738767116262
 20
1359.494281037021
 30
0.0
 11
2460.40184369779
 21
1359.49428103701
 31
0.0
  0
LINE
  5
18C97
330
18C7A
100
AcDbEntity
  8
細線
100
AcDbLine
 10
2387.139046332155
 20
1359.494281037021
 30
0.0
 11
2321.80212291368
 21
1359.49428103701
 31
0.0
  0
LINE
  5
18C98
330
18C7A
100
AcDbEntity
  8
細線
100
AcDbLine
 10
2389.470592808342
 20
1354.494263483342
 30
0.0
 11
2387.139046332153
 21
1359.494281037021
 31
0.0
  0
LINE
  5
18C99
330
18C7A
100
AcDbEntity
  8
細線
100
AcDbLine
 10
2319.470584622926
 20
1354.494281037054
 30
0.0
 11
2321.802122913694
 21
1359.494281037039
 31
0.0
  0
LINE
  5
18C9A
330
18C7A
100
AcDbEntity
  8
細線
100
AcDbLine
 10
2179.47061994182
 20
1354.494289224422
 30
0.0
 11
2181.802158232587
 21
1359.494289224407
 31
0.0
  0
LINE
  5
18C9B
330
18C7A
100
AcDbEntity
  8
細線
100
AcDbLine
 10
2249.470628127236
 20
1354.49427167071
 30
0.0
 11
2247.139081651047
 21
1359.494289224389
 31
0.0
  0
LINE
  5
18C9C
330
18C7A
100
AcDbEntity
  8
細線
100
AcDbLine
 10
2247.139081651047
 20
1359.494289224389
 30
0.0
 11
2181.802158232573
 21
1359.494289224378
 31
0.0
  0
LINE
  5
18C9D
330
18C7A
100
AcDbEntity
  8
細線
100
AcDbLine
 10
1807.970585744697
 20
1320.494460905133
 30
0.0
 11
1810.302124035464
 21
1325.494460905118
 31
0.0
  0
LINE
  5
18C9E
330
18C7A
100
AcDbEntity
  8
細線
100
AcDbLine
 10
1877.970593930113
 20
1320.494443351421
 30
0.0
 11
1875.639047453926
 21
1325.4944609051
 31
0.0
  0
LINE
  5
18C9F
330
18C7A
100
AcDbEntity
  8
細線
100
AcDbLine
 10
1875.639047453926
 20
1325.4944609051
 30
0.0
 11
1810.302124035452
 21
1325.494460905089
 31
0.0
  0
LINE
  5
18CA0
330
18C7A
100
AcDbEntity
  8
細線
100
AcDbLine
 10
2015.639047453926
 20
1325.4944609051
 30
0.0
 11
1950.302124035452
 21
1325.494460905089
 31
0.0
  0
LINE
  5
18CA1
330
18C7A
100
AcDbEntity
  8
細線
100
AcDbLine
 10
2017.970593930113
 20
1320.494443351421
 30
0.0
 11
2015.639047453924
 21
1325.4944609051
 31
0.0
  0
LINE
  5
18CA2
330
18C7A
100
AcDbEntity
  8
細線
100
AcDbLine
 10
1947.970585744697
 20
1320.494460905133
 30
0.0
 11
1950.302124035465
 21
1325.494460905118
 31
0.0
  0
LINE
  5
18CA3
330
18C7A
100
AcDbEntity
  8
細線
100
AcDbLine
 10
1735.639047453926
 20
1325.494460905098
 30
0.0
 11
1670.302124035454
 21
1325.494460905087
 31
0.0
  0
LINE
  5
18CA4
330
18C7A
100
AcDbEntity
  8
細線
100
AcDbLine
 10
1737.970593930113
 20
1320.494443351419
 30
0.0
 11
1735.639047453926
 21
1325.494460905098
 31
0.0
  0
LINE
  5
18CA5
330
18C7A
100
AcDbEntity
  8
細線
100
AcDbLine
 10
1667.970585744697
 20
1320.494460905131
 30
0.0
 11
1670.302124035465
 21
1325.494460905116
 31
0.0
  0
LINE
  5
18CA6
330
18C7A
100
AcDbEntity
  8
細線
100
AcDbLine
 10
1527.970593930113
 20
1320.494460905133
 30
0.0
 11
1530.302132220881
 21
1325.494460905118
 31
0.0
  0
LINE
  5
18CA7
330
18C7A
100
AcDbEntity
  8
細線
100
AcDbLine
 10
1597.970602115529
 20
1320.494443351421
 30
0.0
 11
1595.639055639342
 21
1325.4944609051
 31
0.0
  0
LINE
  5
18CA8
330
18C7A
100
AcDbEntity
  8
細線
100
AcDbLine
 10
1595.639055639342
 20
1325.4944609051
 30
0.0
 11
1530.302132220869
 21
1325.494460905089
 31
0.0
  0
ARC
  5
18CA9
330
18C7A
100
AcDbEntity
  8
部品1
 48
0.01
100
AcDbCircle
 10
1483.470482677778
 20
1319.493338720063
 30
0.0
 40
0.5
100
AcDbArc
 50
270.0
 51
0.0
  0
LINE
  5
18CAA
330
18C7A
100
AcDbEntity
  8
部品1
 48
0.01
100
AcDbLine
 10
1483.970482677778
 20
1320.493338720063
 30
0.0
 11
1483.970482677778
 21
1319.493338720063
 31
0.0
  0
LINE
  5
18CAB
330
18C7A
100
AcDbEntity
  8
部品1
 48
0.01
100
AcDbLine
 10
1483.970482677778
 20
1320.493338720063
 30
0.0
 11
1483.970482677778
 21
1319.493338720063
 31
0.0
  0
LINE
  5
18CAC
330
18C7A
100
AcDbEntity
  8
部品1
 48
0.01
100
AcDbLine
 10
1483.470482677778
 20
1318.993338720063
 30
0.0
 11
1476.857977247713
 21
1318.993338720062
 31
0.0
  0
ARC
  5
18CAD
330
18C7A
100
AcDbEntity
  8
部品1
100
AcDbCircle
 10
1476.926326800494
 20
1319.993338720062
 30
0.0
 40
1.0
100
AcDbArc
 50
160.5287793655865
 51
270.0
  0
ARC
  5
18CAE
330
18C7A
100
AcDbEntity
  8
部品1
100
AcDbCircle
 10
1451.470482677778
 20
1328.993338720062
 30
0.0
 40
26.0
100
AcDbArc
 50
340.5287793655865
 51
0.0
  0
LINE
  5
18CAF
330
18C7A
100
AcDbEntity
  8
部品1
100
AcDbLine
 10
1477.470482677778
 20
1328.993338720062
 30
0.0
 11
1477.470482677778
 21
1333.993338720061
 31
0.0
  0
ARC
  5
18CB0
330
18C7A
100
AcDbEntity
  8
部品1
 48
0.01
100
AcDbCircle
 10
1475.470482677778
 20
1333.993338720061
 30
0.0
 40
2.0
100
AcDbArc
 50
0.0
 51
90.0
  0
ARC
  5
18CB1
330
18C7A
100
AcDbEntity
  8
部品1
100
AcDbCircle
 10
1473.862091052968
 20
1332.993338720062
 30
0.0
 40
3.0
100
AcDbArc
 50
90.0
 51
141.6069559808035
  0
LINE
  5
18CB2
330
18C7A
100
AcDbEntity
  8
部品1
 48
0.01
100
AcDbLine
 10
1475.470482677778
 20
1335.993338720062
 30
0.0
 11
1473.862091052968
 21
1335.993338720062
 31
0.0
  0
ARC
  5
18CB3
330
18C7A
100
AcDbEntity
  8
部品1
100
AcDbCircle
 10
1455.399768463507
 20
1332.293338720065
 30
0.0
 40
3.0
100
AcDbArc
 50
254.0576313943215
 51
270.0
  0
ARC
  5
18CB4
330
18C7A
100
AcDbEntity
  8
部品1
100
AcDbCircle
 10
1462.541196892049
 20
1332.293338720065
 30
0.0
 40
3.0
100
AcDbArc
 50
270.0
 51
285.9423686056786
  0
LINE
  5
18CB5
330
18C7A
100
AcDbEntity
  8
部品1
100
AcDbLine
 10
1462.541196892049
 20
1329.293338720064
 30
0.0
 11
1455.399768463507
 21
1329.293338720064
 31
0.0
  0
ARC
  5
18CB6
330
18C7A
100
AcDbEntity
  8
部品1
100
AcDbCircle
 10
1458.970482677778
 20
1344.793338720065
 30
0.0
 40
16.0
100
AcDbArc
 50
285.9423686056786
 51
321.6069559808035
  0
LINE
  5
18CB7
330
18C7A
100
AcDbEntity
  8
部品1
 48
0.01
100
AcDbLine
 10
1442.470482677778
 20
1335.993338720062
 30
0.0
 11
1444.078874302588
 21
1335.993338720062
 31
0.0
  0
ARC
  5
18CB8
330
18C7A
100
AcDbEntity
  8
部品1
100
AcDbCircle
 10
1444.078874302588
 20
1332.993338720062
 30
0.0
 40
3.0
100
AcDbArc
 50
38.39304401919648
 51
90.0
  0
ARC
  5
18CB9
330
18C7A
100
AcDbEntity
  8
部品1
100
AcDbCircle
 10
1458.970482677778
 20
1344.793338720065
 30
0.0
 40
16.0
100
AcDbArc
 50
218.3930440191965
 51
254.0576313943215
  0
LINE
  5
18CBA
330
18C7A
100
AcDbEntity
  8
部品1
100
AcDbLine
 10
1440.470482677778
 20
1328.993338720062
 30
0.0
 11
1440.470482677778
 21
1333.993338720061
 31
0.0
  0
ARC
  5
18CBB
330
18C7A
100
AcDbEntity
  8
部品1
 48
0.01
100
AcDbCircle
 10
1442.470482677778
 20
1333.993338720061
 30
0.0
 40
2.0
100
AcDbArc
 50
90.0
 51
180.0
  0
ARC
  5
18CBC
330
18C7A
100
AcDbEntity
  8
部品1
100
AcDbCircle
 10
1466.470482677778
 20
1328.993338720062
 30
0.0
 40
26.0
100
AcDbArc
 50
180.0
 51
199.4712206344134
  0
ARC
  5
18CBD
330
18C7A
100
AcDbEntity
  8
部品1
 48
0.01
100
AcDbCircle
 10
1434.470482677778
 20
1319.493338720063
 30
0.0
 40
0.5
100
AcDbArc
 50
180.0
 51
270.0
  0
LINE
  5
18CBE
330
18C7A
100
AcDbEntity
  8
部品1
 48
0.01
100
AcDbLine
 10
1434.470482677778
 20
1318.993338720063
 30
0.0
 11
1441.014638555061
 21
1318.993338720062
 31
0.0
  0
LINE
  5
18CBF
330
18C7A
100
AcDbEntity
  8
部品1
 48
0.01
100
AcDbLine
 10
1433.970482677778
 20
1320.493338720063
 30
0.0
 11
1433.970482677778
 21
1319.493338720063
 31
0.0
  0
ARC
  5
18CC0
330
18C7A
100
AcDbEntity
  8
部品1
100
AcDbCircle
 10
1441.014638555061
 20
1319.993338720062
 30
0.0
 40
1.0
100
AcDbArc
 50
270.0
 51
19.47122063441346
  0
LINE
  5
18CC1
330
18C7A
100
AcDbEntity
  8
細線
100
AcDbLine
 10
1479.470482677785
 20
1338.493338720065
 30
0.0
 11
1438.470482677785
 21
1338.493338720058
 31
0.0
  0
LINE
  5
18CC2
330
18C7A
100
AcDbEntity
  8
細線
100
AcDbLine
 10
1438.470482677785
 20
1338.493338720058
 30
0.0
 11
1438.470482677785
 21
1320.49333872004
 31
0.0
  0
LINE
  5
18CC3
330
18C7A
100
AcDbEntity
  8
細線
100
AcDbLine
 10
1479.470482677785
 20
1338.493338720065
 30
0.0
 11
1479.470482677785
 21
1320.49333872004
 31
0.0
  0
LINE
  5
18CC4
330
18C7A
100
AcDbEntity
  8
細線
100
AcDbLine
 10
1322.970589276523
 20
1324.494269174465
 30
0.0
 11
1322.970589276523
 21
1320.494269174513
 31
0.0
  0
LINE
  5
18CC5
330
18C7A
100
AcDbEntity
  8
寸法
 48
50.0
100
AcDbLine
 10
1746.17359555837
 20
1170.531020743327
 30
0.0
 11
1694.767587648266
 21
1170.531020743327
 31
0.0
  0
LINE
  5
18CC6
330
18C7A
100
AcDbEntity
  8
寸法
 48
50.0
100
AcDbLine
 10
1694.767587648266
 20
1170.531020743327
 30
0.0
 11
1694.767587648266
 21
1201.841179395494
 31
0.0
  0
LINE
  5
18CC7
330
18C7A
100
AcDbEntity
  8
寸法
 48
50.0
100
AcDbLine
 10
1694.767587648266
 20
1201.841179395494
 30
0.0
 11
1665.006255656843
 21
1201.841179395494
 31
0.0
  0
LINE
  5
18CC8
330
18C7A
100
AcDbEntity
  8
寸法
 48
50.0
100
AcDbLine
 10
1665.006255656843
 20
1201.841179395494
 30
0.0
 11
1720.470591603318
 21
1239.420630324105
 31
0.0
  0
LINE
  5
18CC9
330
18C7A
100
AcDbEntity
  8
寸法
 48
50.0
100
AcDbLine
 10
1775.934927549793
 20
1201.841179395494
 30
0.0
 11
1720.470591603318
 21
1239.420630324105
 31
0.0
  0
LINE
  5
18CCA
330
18C7A
100
AcDbEntity
  8
寸法
 48
50.0
100
AcDbLine
 10
1746.17359555837
 20
1201.841179395494
 30
0.0
 11
1775.934927549793
 21
1201.841179395494
 31
0.0
  0
LINE
  5
18CCB
330
18C7A
100
AcDbEntity
  8
寸法
 48
50.0
100
AcDbLine
 10
1746.17359555837
 20
1170.531020743327
 30
0.0
 11
1746.17359555837
 21
1201.841179395494
 31
0.0
  0
LINE
  5
18CCC
330
18C7A
100
AcDbEntity
  8
寸法
 48
50.0
100
AcDbLine
 10
1694.767587648266
 20
1170.531020743327
 30
0.0
 11
1746.17359555837
 21
1170.531020743327
 31
0.0
  0
LINE
  5
18CCD
330
18C7A
100
AcDbEntity
  8
寸法
 48
50.0
100
AcDbLine
 10
2025.339129835225
 20
1227.676611498152
 30
0.0
 11
2025.339129835225
 21
1174.01297691636
 31
0.0
  0
LINE
  5
18CCE
330
18C7A
100
AcDbEntity
  8
寸法
 48
50.0
100
AcDbLine
 10
2114.623348430647
 20
1203.752977228664
 30
0.0
 11
2025.339129835225
 21
1227.676611498152
 31
0.0
  0
LINE
  5
18CCF
330
18C7A
100
AcDbEntity
  8
寸法
 48
50.0
100
AcDbLine
 10
1895.471408254923
 20
1203.752977228664
 30
0.0
 11
2114.623348430647
 21
1203.752977228664
 31
0.0
  0
DIMENSION
  5
18CD0
330
18C7A
100
AcDbEntity
  8
寸法
 48
50.0
100
AcDbDimension
  2
*D15
 10
2588.970589276523
 20
706.3240511224249
 30
0.0
 11
1969.060022905491
 21
706.3240511224249
 31
0.0
 12
-3742.925985830444
 22
-6453.628869860112
 32
0.0
 70
   128
  1
有効開口部間口\P<>
 71
     5
 42
1266.0
  3
INABA_S40G
100
AcDbAlignedDimension
 13
1322.970589276523
 23
1315.494269174465
 33
0.0
 14
2588.970589276523
 24
1315.494269174465
 34
0.0
100
AcDbRotatedDimension
1001
ACAD
1000
DSTYLE
1002
{
1070
   341
1005
0
1002
}
  0
LINE
  5
18CD1
330
18C7A
100
AcDbEntity
  8
部品1
100
AcDbLine
 10
3409.970589276524
 20
1392.494269174465
 30
0.0
 11
3437.970589276523
 21
1392.494269174465
 31
0.0
  0
DIMENSION
  5
18CD2
330
18C7A
100
AcDbEntity
  8
寸法
100
AcDbDimension
  2
*D16
 10
3674.266172669749
 20
1315.494269174465
 30
0.0
 11
3674.266172669748
 21
1177.494269174462
 31
0.0
 12
-3742.925985830444
 22
-6453.628869860112
 32
0.0
 70
   128
 71
     5
 42
77.0
  3
INABA_S40
100
AcDbAlignedDimension
 13
3437.970589276523
 23
1392.494269174465
 33
0.0
 14
3436.970589276523
 24
1315.494269174465
 34
0.0
 50
90.0
100
AcDbRotatedDimension
1001
ACAD
1000
DSTYLE
1002
{
1070
    41
1040
0.5
1070
    44
1040
1.0
1070
   147
1040
0.8
1070
   271
1070
     2
1070
   272
1070
     2
1070
   289
1070
     3
1070
   340
1005
F706
1070
   343
1005
164B4
1070
   344
1005
164B4
1002
}
  0
LINE
  5
18CD3
330
18C7A
100
AcDbEntity
  8
部品1
100
AcDbLine
 10
3437.970589276523
 20
1315.494269174465
 30
0.0
 11
3437.970589276523
 21
1392.494269174465
 31
0.0
  0
LINE
  5
18CD4
330
18C7A
100
AcDbEntity
  8
部品1
100
AcDbLine
 10
3398.970589276523
 20
1388.494269174465
 30
0.0
 11
3409.970589276524
 21
1388.494269174465
 31
0.0
  0
LINE
  5
18CD5
330
18C7A
100
AcDbEntity
  8
部品1
100
AcDbLine
 10
3407.970589276523
 20
1324.494269174465
 30
0.0
 11
3407.970589276523
 21
1315.494269174465
 31
0.0
  0
LINE
  5
18CD6
330
18C7A
100
AcDbEntity
  8
部品1
100
AcDbLine
 10
3398.970589276523
 20
1324.494269174465
 30
0.0
 11
3407.970589276523
 21
1324.494269174465
 31
0.0
  0
LINE
  5
18CD7
330
18C7A
100
AcDbEntity
  8
部品1
100
AcDbLine
 10
3398.970589276523
 20
1388.494269174465
 30
0.0
 11
3398.970589276523
 21
1324.494269174465
 31
0.0
  0
LINE
  5
18CD8
330
18C7A
100
AcDbEntity
  8
部品1
100
AcDbLine
 10
3409.970589276524
 20
1419.494269174465
 30
0.0
 11
3409.970589276524
 21
1388.494269174465
 31
0.0
  0
LINE
  5
18CD9
330
18C7A
100
AcDbEntity
  8
部品1
100
AcDbLine
 10
1322.970589276523
 20
1388.494269174465
 30
0.0
 11
1311.970589276523
 21
1388.494269174465
 31
0.0
  0
LINE
  5
18CDA
330
18C7A
100
AcDbEntity
  8
部品1
100
AcDbLine
 10
1283.970589276523
 20
1392.494269174465
 30
0.0
 11
1311.970589276523
 21
1392.494269174465
 31
0.0
  0
LINE
  5
18CDB
330
18C7A
100
AcDbEntity
  8
部品1
100
AcDbLine
 10
1313.970589276523
 20
1324.494269174465
 30
0.0
 11
1313.970589276523
 21
1315.494269174465
 31
0.0
  0
LINE
  5
18CDC
330
18C7A
100
AcDbEntity
  8
部品1
100
AcDbLine
 10
1322.970589276523
 20
1324.494269174465
 30
0.0
 11
1313.970589276523
 21
1324.494269174465
 31
0.0
  0
LINE
  5
18CDD
330
18C7A
100
AcDbEntity
  8
部品1
100
AcDbLine
 10
1313.970589276523
 20
1315.494269174465
 30
0.0
 11
1283.970589276523
 21
1315.494269174465
 31
0.0
  0
LINE
  5
18CDE
330
18C7A
100
AcDbEntity
  8
部品1
100
AcDbLine
 10
1283.970589276523
 20
1315.494269174465
 30
0.0
 11
1283.970589276523
 21
1392.494269174465
 31
0.0
  0
LINE
  5
18CDF
330
18C7A
100
AcDbEntity
  8
部品1
100
AcDbLine
 10
1322.970589276523
 20
1388.494269174465
 30
0.0
 11
1322.970589276523
 21
1324.494269174465
 31
0.0
  0
LINE
  5
18CE0
330
18C7A
100
AcDbEntity
  8
部品1
100
AcDbLine
 10
1311.970589276523
 20
1419.494269174462
 30
0.0
 11
1311.970589276523
 21
1388.494269174465
 31
0.0
  0
LINE
  5
18CE1
330
18C7A
100
AcDbEntity
  8
部品1
100
AcDbLine
 10
1311.970589276523
 20
1419.494269174462
 30
0.0
 11
3409.970589276524
 21
1419.494269174465
 31
0.0
  0
LINE
  5
18CE2
330
18C7A
100
AcDbEntity
  8
部品1
100
AcDbLine
 10
3407.970589276523
 20
1315.494269174465
 30
0.0
 11
3437.970589276523
 21
1315.494269174465
 31
0.0
  0
LINE
  5
18CE3
330
18C7A
100
AcDbEntity
  8
部品1
100
AcDbLine
 10
1313.970589276523
 20
1315.494269174465
 30
0.0
 11
3410.970589276523
 21
1315.494269174465
 31
0.0
  0
LINE
  5
18CE4
330
18C7A
100
AcDbEntity
  8
細線
  6
Continuous
 62
     5
100
AcDbLine
 10
2689.970589276527
 20
1354.494269174462
 30
0.0
 11
2689.970589276527
 21
1354.494269174462
 31
0.0
  0
LINE
  5
18CE5
330
18C7A
100
AcDbEntity
  8
細線
  6
Continuous
 62
     5
100
AcDbLine
 10
2682.470589276527
 20
1354.494269174462
 30
0.0
 11
2682.470589276527
 21
1354.494269174462
 31
0.0
  0
LINE
  5
18CE6
330
18C7A
100
AcDbEntity
  8
細線
  6
Continuous
 62
     5
100
AcDbLine
 10
2676.470589276527
 20
1354.494269174462
 30
0.0
 11
2676.470589276527
 21
1354.494269174462
 31
0.0
  0
LINE
  5
18CE7
330
18C7A
100
AcDbEntity
  8
細線
  6
Continuous
 62
     5
100
AcDbLine
 10
2743.970589276527
 20
1373.494269174462
 30
0.0
 11
2743.970589276527
 21
1373.494269174462
 31
0.0
  0
LINE
  5
18CE8
330
18C7A
100
AcDbEntity
  8
細線
 48
50.0
100
AcDbLine
 10
1336.970593930116
 20
1341.094443351418
 30
0.0
 11
1336.970593930113
 21
1349.490593759059
 31
0.0
  0
LINE
  5
18CE9
330
18C7A
100
AcDbEntity
  8
細線
 48
50.0
100
AcDbLine
 10
1336.970593930113
 20
1349.490593759059
 30
0.0
 11
1322.970589276523
 21
1349.490593759057
 31
0.0
  0
LINE
  5
18CEA
330
18C7A
100
AcDbEntity
  8
細線
 48
50.0
100
AcDbLine
 10
2087.970593930113
 20
1337.644443351419
 30
0.0
 11
2087.970593930113
 21
1342.494443351421
 31
0.0
  0
LINE
  5
18CEB
330
18C7A
100
AcDbEntity
  8
細線
 48
50.0
100
AcDbLine
 10
2087.970593930113
 20
1342.494443351421
 30
0.0
 11
2102.970593930113
 21
1342.494443351421
 31
0.0
  0
LINE
  5
18CEC
330
18C7A
100
AcDbEntity
  8
細線
 48
50.0
100
AcDbLine
 10
2102.970593930113
 20
1342.494443351421
 30
0.0
 11
2102.970593930115
 21
1349.494443351419
 31
0.0
  0
LINE
  5
18CED
330
18C7A
100
AcDbEntity
  8
細線
 48
50.0
100
AcDbLine
 10
2102.970593930115
 20
1349.494443351419
 30
0.0
 11
2117.970593930113
 21
1349.494443351419
 31
0.0
  0
LINE
  5
18CEE
330
18C7A
100
AcDbEntity
  8
細線
 48
50.0
100
AcDbLine
 10
2117.970593930113
 20
1349.494443351419
 30
0.0
 11
2117.970593930113
 21
1320.494443351421
 31
0.0
  0
LINE
  5
18CEF
330
18C7A
100
AcDbEntity
  8
細線
 48
50.0
100
AcDbLine
 10
1313.970589276523
 20
1320.491777694889
 30
0.0
 11
1527.970593930113
 21
1320.494460905133
 31
0.0
  0
LINE
  5
18CF0
330
18C7A
100
AcDbEntity
  8
細線
 48
50.0
100
AcDbLine
 10
2017.970593930113
 20
1320.494443351421
 30
0.0
 11
2117.970593930113
 21
1320.494443351421
 31
0.0
  0
LINE
  5
18CF1
330
18C7A
100
AcDbEntity
  8
細線
 48
50.0
100
AcDbLine
 10
1737.970593930113
 20
1320.494443351419
 30
0.0
 11
1807.970593930113
 21
1320.494443351423
 31
0.0
  0
LINE
  5
18CF2
330
18C7A
100
AcDbEntity
  8
細線
 48
50.0
100
AcDbLine
 10
1750.832558942642
 20
1320.494443351419
 30
0.0
 11
1756.588076525309
 21
1338.765294641913
 31
0.0
  0
LINE
  5
18CF3
330
18C7A
100
AcDbEntity
  8
細線
 48
50.0
100
AcDbLine
 10
1756.588076525309
 20
1338.765294641913
 30
0.0
 11
1767.516525005743
 21
1338.765294641911
 31
0.0
  0
ARC
  5
18CF4
330
18C7A
100
AcDbEntity
  8
細線
 48
50.0
100
AcDbCircle
 10
1767.516525005743
 20
1337.765294641911
 30
0.0
 40
1.0
100
AcDbArc
 50
24.62431835207225
 51
90.0
  0
ARC
  5
18CF5
330
18C7A
100
AcDbEntity
  8
細線
 48
50.0
100
AcDbCircle
 10
1778.425237120377
 20
1337.765294641911
 30
0.0
 40
1.0
100
AcDbArc
 50
90.0
 51
155.3756816479277
  0
ARC
  5
18CF6
330
18C7A
100
AcDbEntity
  8
細線
 48
50.0
100
AcDbCircle
 10
1772.970881063058
 20
1340.265294641911
 30
0.0
 40
5.0
100
AcDbArc
 50
204.6243183520723
 51
335.3756816479278
  0
LINE
  5
18CF7
330
18C7A
100
AcDbEntity
  8
細線
 48
50.0
100
AcDbLine
 10
1778.425237120377
 20
1338.765294641911
 30
0.0
 11
1789.35368560081
 21
1338.765294641913
 31
0.0
  0
LINE
  5
18CF8
330
18C7A
100
AcDbEntity
  8
細線
 48
50.0
100
AcDbLine
 10
1789.35368560081
 20
1338.765294641913
 30
0.0
 11
1795.109203183478
 21
1320.494443351423
 31
0.0
  0
LINE
  5
18CF9
330
18C7A
100
AcDbEntity
  8
細線
 48
50.0
100
AcDbLine
 10
2087.970593930113
 20
1341.094443351419
 30
0.0
 11
1336.970593930116
 21
1341.094443351418
 31
0.0
  0
LINE
  5
18CFA
330
18C7A
100
AcDbEntity
  8
細線
 48
50.0
100
AcDbLine
 10
1947.970593930113
 20
1320.494443351421
 30
0.0
 11
1877.970593930113
 21
1320.494443351421
 31
0.0
  0
LINE
  5
18CFB
330
18C7A
100
AcDbEntity
  8
細線
100
AcDbLine
 10
1667.970593930113
 20
1320.494443351421
 30
0.0
 11
1597.970602115529
 21
1320.494443351421
 31
0.0
  0
LINE
  5
18CFC
330
18C7A
100
AcDbEntity
  8
細線
 48
50.0
100
AcDbLine
 10
2741.970584622936
 20
1375.094487209288
 30
0.0
 11
2106.970593930113
 21
1375.094487209284
 31
0.0
  0
LINE
  5
18CFD
330
18C7A
100
AcDbEntity
  8
細線
 48
50.0
100
AcDbLine
 10
2106.970593930113
 20
1371.990637616925
 30
0.0
 11
2106.970593930113
 21
1376.490637616925
 31
0.0
  0
LINE
  5
18CFE
330
18C7A
100
AcDbEntity
  8
細線
 48
50.0
100
AcDbLine
 10
2106.970593930113
 20
1376.490637616925
 30
0.0
 11
2091.970593930113
 21
1376.490637616925
 31
0.0
  0
LINE
  5
18CFF
330
18C7A
100
AcDbEntity
  8
細線
 48
50.0
100
AcDbLine
 10
2091.970593930113
 20
1376.490637616925
 30
0.0
 11
2091.970593930113
 21
1383.490637616927
 31
0.0
  0
LINE
  5
18D00
330
18C7A
100
AcDbEntity
  8
細線
 48
50.0
100
AcDbLine
 10
2091.970593930113
 20
1383.490637616927
 30
0.0
 11
2076.970593930115
 21
1383.490637616924
 31
0.0
  0
LINE
  5
18D01
330
18C7A
100
AcDbEntity
  8
細線
 48
50.0
100
AcDbLine
 10
2076.970593930115
 20
1383.490637616924
 30
0.0
 11
2076.970593930115
 21
1345.890409513813
 31
0.0
  0
LINE
  5
18D02
330
18C7A
100
AcDbEntity
  8
細線
 48
50.0
100
AcDbLine
 10
2076.970593930115
 20
1345.890409513813
 30
0.0
 11
2096.970601231289
 21
1345.890451063353
 31
0.0
  0
LINE
  5
18D03
330
18C7A
100
AcDbEntity
  8
細線
 48
50.0
100
AcDbLine
 10
2096.970556362348
 20
1354.493912699161
 30
0.0
 11
2096.970601231289
 21
1345.890451063353
 31
0.0
  0
LINE
  5
18D04
330
18C7A
100
AcDbEntity
  8
細線
 48
50.0
100
AcDbLine
 10
2741.970584622936
 20
1371.644487209287
 30
0.0
 11
2741.970584622936
 21
1376.494487209284
 31
0.0
  0
LINE
  5
18D05
330
18C7A
100
AcDbEntity
  8
細線
 48
50.0
100
AcDbLine
 10
2741.970584622936
 20
1376.494487209284
 30
0.0
 11
2756.970584622934
 21
1376.494487209285
 31
0.0
  0
LINE
  5
18D06
330
18C7A
100
AcDbEntity
  8
細線
 48
50.0
100
AcDbLine
 10
2756.970584622934
 20
1376.494487209285
 30
0.0
 11
2756.970596256909
 21
1383.494487209331
 31
0.0
  0
LINE
  5
18D07
330
18C7A
100
AcDbEntity
  8
細線
 48
50.0
100
AcDbLine
 10
2756.970596256909
 20
1383.494487209331
 30
0.0
 11
2771.970594427439
 21
1383.494487209329
 31
0.0
  0
LINE
  5
18D08
330
18C7A
100
AcDbEntity
  8
細線
 48
50.0
100
AcDbLine
 10
2771.970594427439
 20
1383.494487209329
 30
0.0
 11
2771.970584125617
 21
1354.494281037055
 31
0.0
  0
LINE
  5
18D09
330
18C7A
100
AcDbEntity
  8
細線
 48
50.0
100
AcDbLine
 10
2458.070304175992
 20
1354.494278397076
 30
0.0
 11
2389.470863838818
 21
1354.494283787084
 31
0.0
  0
LINE
  5
18D0A
330
18C7A
100
AcDbEntity
  8
細線
 48
50.0
100
AcDbLine
 10
2096.970556362348
 20
1354.493912699161
 30
0.0
 11
2108.203245717057
 21
1354.494095652309
 31
0.0
  0
ARC
  5
18D0B
330
18C7A
100
AcDbEntity
  8
細線
 48
50.0
100
AcDbCircle
 10
2114.785538024393
 20
1353.294259565922
 30
0.0
 40
1.8
100
AcDbArc
 50
270.0006665777295
 51
345.000555481349
  0
LINE
  5
18D0C
330
18C7A
100
AcDbEntity
  8
細線
 48
50.0
100
AcDbLine
 10
2116.771971470473
 20
1353.753100023201
 30
0.0
 11
2116.524209028273
 21
1352.828402141094
 31
0.0
  0
LINE
  5
18D0D
330
18C7A
100
AcDbEntity
  8
細線
 48
50.0
100
AcDbLine
 10
2114.785558965548
 20
1351.494259566043
 30
0.0
 11
2111.155631546781
 21
1351.494217335563
 31
0.0
  0
ARC
  5
18D0E
330
18C7A
100
AcDbEntity
  8
細線
 48
50.0
100
AcDbCircle
 10
2111.155610605627
 20
1353.29421733544
 30
0.0
 40
1.8
100
AcDbArc
 50
195.0010443049965
 51
270.0006665777295
  0
LINE
  5
18D0F
330
18C7A
100
AcDbEntity
  8
細線
 48
50.0
100
AcDbLine
 10
2109.169183113368
 20
1353.752932303007
 30
0.0
 11
2109.416952609882
 21
1352.828311364425
 31
0.0
  0
ARC
  5
18D10
330
18C7A
100
AcDbEntity
  8
細線
 48
50.0
100
AcDbCircle
 10
2108.203262004622
 20
1353.494095652444
 30
0.0
 40
1.0
100
AcDbArc
 50
15.00104430499651
 51
90.00093320877969
  0
LINE
  5
18D11
330
18C7A
100
AcDbEntity
  8
細線
 48
50.0
100
AcDbLine
 10
2117.737892825577
 20
1354.494290342714
 30
0.0
 11
2118.679652976481
 21
1354.494296916564
 31
0.0
  0
ARC
  5
18D12
330
18C7A
100
AcDbEntity
  8
細線
 48
50.0
100
AcDbCircle
 10
2117.737899805961
 20
1353.49429034274
 30
0.0
 40
1.0
100
AcDbArc
 50
90.0003999466794
 51
165.000555481349
  0
LINE
  5
18D13
330
18C7A
100
AcDbEntity
  8
細線
 48
50.0
100
AcDbLine
 10
2669.470584622926
 20
1354.494281037055
 30
0.0
 11
2771.970584125617
 21
1354.494281037055
 31
0.0
  0
LINE
  5
18D14
330
18C7A
100
AcDbEntity
  8
細線
 48
50.0
100
AcDbLine
 10
2179.47061994182
 20
1354.494289224422
 30
0.0
 11
2118.370558714898
 21
1354.494296916564
 31
0.0
  0
LINE
  5
18D15
330
18C7A
100
AcDbEntity
  8
細線
 48
50.0
100
AcDbLine
 10
2599.470584622926
 20
1354.494281037057
 30
0.0
 11
2529.470584622926
 21
1354.494281037055
 31
0.0
  0
LINE
  5
18D16
330
18C7A
100
AcDbEntity
  8
細線
 48
50.0
100
AcDbLine
 10
2319.470584622926
 20
1354.494281037054
 30
0.0
 11
2249.470567335051
 21
1354.494281037057
 31
0.0
  0
ARC
  5
18D17
330
18C7A
100
AcDbEntity
  8
細線
 48
50.0
100
AcDbCircle
 10
2756.170589276533
 20
1387.694269174466
 30
0.0
 40
0.8
100
AcDbArc
 50
359.9997333689499
 51
89.99986668437072
  0
ARC
  5
18D18
330
18C7A
100
AcDbEntity
  8
細線
 48
50.0
100
AcDbCircle
 10
2763.770596101631
 20
1387.694280343081
 30
0.0
 40
0.8
100
AcDbArc
 50
90.00014387753465
 51
179.9997333689498
  0
LINE
  5
18D19
330
18C7A
100
AcDbEntity
  8
細線
 48
50.0
100
AcDbLine
 10
2756.170591137969
 20
1388.494269174465
 30
0.0
 11
2750.970589276525
 21
1388.494269174465
 31
0.0
  0
ARC
  5
18D1A
330
18C7A
100
AcDbEntity
  8
細線
 48
50.0
100
AcDbCircle
 10
2757.670589276524
 20
1386.194269174464
 30
0.0
 40
0.7
100
AcDbArc
 50
180.0
 51
270.0
  0
ARC
  5
18D1B
330
18C7A
100
AcDbEntity
  8
細線
 48
50.0
100
AcDbCircle
 10
2762.270589276524
 20
1386.194269174464
 30
0.0
 40
0.7
100
AcDbArc
 50
270.0
 51
0.0
  0
LINE
  5
18D1C
330
18C7A
100
AcDbEntity
  8
細線
 48
50.0
100
AcDbLine
 10
2762.970589276525
 20
1386.194269174464
 30
0.0
 11
2762.970596101639
 21
1387.694284065954
 31
0.0
  0
LINE
  5
18D1D
330
18C7A
100
AcDbEntity
  8
細線
 48
50.0
100
AcDbLine
 10
2757.670589276524
 20
1385.494269174465
 30
0.0
 11
2762.270589276524
 21
1385.494269174465
 31
0.0
  0
LINE
  5
18D1E
330
18C7A
100
AcDbEntity
  8
細線
 48
50.0
100
AcDbLine
 10
2756.970589276525
 20
1387.694269174466
 30
0.0
 11
2756.970589276525
 21
1386.194269174464
 31
0.0
  0
LINE
  5
18D1F
330
18C7A
100
AcDbEntity
  8
細線
 48
50.0
100
AcDbLine
 10
3382.570589276527
 20
1418.494269174465
 30
0.0
 11
2745.970589276525
 21
1418.494269174463
 31
0.0
  0
LINE
  5
18D20
330
18C7A
100
AcDbEntity
  8
細線
 48
50.0
100
AcDbLine
 10
3408.470589276525
 20
1413.494269174467
 30
0.0
 11
3392.570589276527
 21
1413.494269174465
 31
0.0
  0
LINE
  5
18D21
330
18C7A
100
AcDbEntity
  8
細線
 48
50.0
100
AcDbLine
 10
3392.570589276526
 20
1413.494269174465
 30
0.0
 11
3382.570589276527
 21
1418.494269174465
 31
0.0
  0
LINE
  5
18D22
330
18C7A
100
AcDbEntity
  8
細線
100
AcDbLine
 10
2993.470589276525
 20
1388.494269174465
 30
0.0
 11
2993.470589276525
 21
1417.794269174464
 31
0.0
  0
LINE
  5
18D23
330
18C7A
100
AcDbEntity
  8
細線
100
AcDbLine
 10
2993.470589276525
 20
1417.794269174464
 30
0.0
 11
3013.470589276525
 21
1417.794269174464
 31
0.0
  0
LINE
  5
18D24
330
18C7A
100
AcDbEntity
  8
細線
100
AcDbLine
 10
3013.470589276525
 20
1388.494269174465
 30
0.0
 11
3013.470589276525
 21
1417.794269174464
 31
0.0
  0
LINE
  5
18D25
330
18C7A
100
AcDbEntity
  8
細線
100
AcDbLine
 10
3170.720589276524
 20
1388.494269174465
 30
0.0
 11
3100.720589276523
 21
1388.494269174465
 31
0.0
  0
LINE
  5
18D26
330
18C7A
100
AcDbEntity
  8
細線
 48
50.0
100
AcDbLine
 10
2890.720589276525
 20
1388.494269174465
 30
0.0
 11
2763.766368849365
 21
1388.494269174465
 31
0.0
  0
LINE
  5
18D27
330
18C7A
100
AcDbEntity
  8
細線
100
AcDbLine
 10
3030.720589276525
 20
1388.494269174465
 30
0.0
 11
2960.720589276525
 21
1388.494269174465
 31
0.0
  0
LINE
  5
18D28
330
18C7A
100
AcDbEntity
  8
細線
 48
50.0
100
AcDbLine
 10
2750.970589276525
 20
1380.494269174465
 30
0.0
 11
2750.970589276525
 21
1388.494269174465
 31
0.0
  0
LINE
  5
18D29
330
18C7A
100
AcDbEntity
  8
細線
 48
50.0
100
AcDbLine
 10
2730.970589276524
 20
1380.494269174467
 30
0.0
 11
2750.970589276525
 21
1380.494269174465
 31
0.0
  0
LINE
  5
18D2A
330
18C7A
100
AcDbEntity
  8
細線
 48
50.0
100
AcDbLine
 10
2745.970589276525
 20
1418.494269174465
 30
0.0
 11
2745.970589276525
 21
1413.494269174465
 31
0.0
  0
LINE
  5
18D2B
330
18C7A
100
AcDbEntity
  8
細線
 48
50.0
100
AcDbLine
 10
2730.970589276525
 20
1418.494269174463
 30
0.0
 11
2745.970589276525
 21
1418.494269174465
 31
0.0
  0
LINE
  5
18D2C
330
18C7A
100
AcDbEntity
  8
細線
 48
50.0
100
AcDbLine
 10
2730.970589276524
 20
1380.494269174467
 30
0.0
 11
2730.970589276525
 21
1418.494269174463
 31
0.0
  0
LINE
  5
18D2D
330
18C7A
100
AcDbEntity
  8
細線
100
AcDbLine
 10
3398.970589276523
 20
1388.494269174465
 30
0.0
 11
3240.720589276525
 21
1388.494269174465
 31
0.0
  0
LINE
  5
18D2E
330
18C7A
100
AcDbEntity
  8
細線
 48
50.0
100
AcDbLine
 10
3408.470589276525
 20
1413.494269174467
 30
0.0
 11
3408.470589276524
 21
1388.494269174465
 31
0.0
  0
TEXT
  5
18D2F
330
18C7A
100
AcDbEntity
  8
部品1
100
AcDbText
 10
1860.154865991392
 20
46.99880823813145
 30
0.0
 40
135.0
  1
平面図
  7
STYLE2
100
AcDbText
  0
LWPOLYLINE
  5
18D30
330
18C7A
100
AcDbEntity
  8
部品1
100
AcDbPolyline
 90
        4
 70
     1
 43
0.0
 10
1770.23525616235
 20
239.8923374566548
 10
1770.23525616235
 20
0.0000159111223184
 10
2533.705922390791
 20
0.0000159111223184
 10
2533.705922390791
 20
239.8923374566548
  0
LINE
  5
18D31
330
18C7A
100
AcDbEntity
  8
部品1
100
AcDbLine
 10
1534.470589276487
 20
3154.494269174626
 30
0.0
 11
2769.470589276552
 21
3154.494269174626
 31
0.0
  0
LINE
  5
18D32
330
18C7A
100
AcDbEntity
  8
部品1
 48
50.0
100
AcDbLine
 10
1311.970589276523
 20
1420.494269174462
 30
0.0
 11
3411.970589276523
 21
1420.494269174465
 31
0.0
  0
LINE
  5
18D33
330
18C7A
100
AcDbEntity
  8
部品1
 48
50.0
100
AcDbLine
 10
471.9705892765232
 20
1392.494269174465
 30
0.0
 11
1311.970589276523
 21
1392.494269174465
 31
0.0
  0
DIMENSION
  5
18D34
330
18C7A
100
AcDbEntity
  8
寸法
100
AcDbDimension
  2
*D14
 10
2710.234916278077
 20
2488.887829538828
 30
0.0
 11
2338.318822490183
 21
2488.887829538828
 31
0.0
 12
-3742.925985830444
 22
-6453.628869860112
 32
0.0
 70
   128
 71
     5
 42
1231.00000000007
  3
INABA_S40G
100
AcDbAlignedDimension
 13
1536.470589276486
 23
2702.494269174557
 33
0.0
 14
2767.470589276556
 24
2702.494269174549
 34
0.0
100
AcDbRotatedDimension
1001
ACAD
1000
DSTYLE
1002
{
1002
}
  0
LINE
  5
18D35
330
18C7A
100
AcDbEntity
  8
部品1
100
AcDbLine
 10
1536.470589276487
 20
2702.494269174557
 30
0.0
 11
2767.470589276554
 21
2702.494269174615
 31
0.0
  0
LINE
  5
18D36
330
18C7A
100
AcDbEntity
  8
部品1
100
AcDbLine
 10
1536.470589276487
 20
3152.494269174557
 30
0.0
 11
2767.470589276556
 21
3152.494269174615
 31
0.0
  0
LINE
  5
18D37
330
18C7A
100
AcDbEntity
  8
細線
 48
50.0
100
AcDbLine
 10
1508.470589276487
 20
3152.494269174558
 30
0.0
 11
445.4705892765559
 21
2702.494269174509
 31
0.0
  0
LINE
  5
18D38
330
18C7A
100
AcDbEntity
  8
細線
 48
50.0
100
AcDbLine
 10
1508.470589276487
 20
2702.494269174558
 30
0.0
 11
445.4705892765542
 21
3152.494269174509
 31
0.0
  0
LINE
  5
18D39
330
18C7A
100
AcDbEntity
  8
部品1
100
AcDbLine
 10
1556.970589276487
 20
3172.494269174611
 30
0.0
 11
1556.970589276487
 21
3154.494269174611
 31
0.0
  0
LINE
  5
18D3A
330
18C7A
100
AcDbEntity
  8
部品1
100
AcDbLine
 10
1556.970589276487
 20
3172.494269174611
 30
0.0
 11
1550.970589276487
 21
3172.494269174611
 31
0.0
  0
LINE
  5
18D3B
330
18C7A
100
AcDbEntity
  8
部品1
100
AcDbLine
 10
1534.470589276487
 20
3146.494269174608
 30
0.0
 11
1509.470589276487
 21
3146.494269174611
 31
0.0
  0
LINE
  5
18D3C
330
18C7A
100
AcDbEntity
  8
部品1
100
AcDbLine
 10
1486.970589276487
 20
3172.494269174611
 30
0.0
 11
1486.970589276487
 21
3154.494269174611
 31
0.0
  0
LINE
  5
18D3D
330
18C7A
100
AcDbEntity
  8
部品1
100
AcDbLine
 10
1492.970589276487
 20
3172.494269174611
 30
0.0
 11
1486.970589276487
 21
3172.494269174611
 31
0.0
  0
LINE
  5
18D3E
330
18C7A
100
AcDbEntity
  8
部品1
100
AcDbLine
 10
1534.470589276487
 20
2702.494269174615
 30
0.0
 11
1509.470589276487
 21
2702.494269174615
 31
0.0
  0
LINE
  5
18D3F
330
18C7A
100
AcDbEntity
  8
部品1
 48
50.0
100
AcDbLine
 10
1536.470589276487
 20
3152.494269174611
 30
0.0
 11
1536.470589276487
 21
2702.494269174615
 31
0.0
  0
LINE
  5
18D40
330
18C7A
100
AcDbEntity
  8
部品1
 48
50.0
100
AcDbLine
 10
1508.470589276487
 20
3152.494269174607
 30
0.0
 11
1508.470589276487
 21
2702.494269174615
 31
0.0
  0
LINE
  5
18D41
330
18C7A
100
AcDbEntity
  8
部品1
 48
50.0
100
AcDbLine
 10
1534.470589276487
 20
3154.494269174618
 30
0.0
 11
1534.470589276487
 21
2702.494269174615
 31
0.0
  0
LINE
  5
18D42
330
18C7A
100
AcDbEntity
  8
部品1
 48
50.0
100
AcDbLine
 10
1509.470589276487
 20
3154.494269174615
 30
0.0
 11
1509.470589276487
 21
2702.494269174615
 31
0.0
  0
LINE
  5
18D43
330
18C7A
100
AcDbEntity
  8
部品1
100
AcDbLine
 10
3411.970589276556
 20
1392.494269174582
 30
0.0
 11
3411.970589276556
 21
1420.494269174596
 31
0.0
  0
LINE
  5
18D44
330
18C7A
100
AcDbEntity
  8
部品1
100
AcDbLine
 10
1311.970589276523
 20
1392.494269174596
 30
0.0
 11
1311.970589276523
 21
1420.494269174596
 31
0.0
  0
LINE
  5
18D45
330
18C7A
100
AcDbEntity
  8
部品1
100
AcDbLine
 10
891.9705892765232
 20
1392.494269174596
 30
0.0
 11
891.9705892765232
 21
1420.494269174596
 31
0.0
  0
LINE
  5
18D46
330
18C7A
100
AcDbEntity
  8
部品1
100
AcDbLine
 10
3411.97058927652
 20
3182.494269174477
 30
0.0
 11
3411.970589276523
 21
3154.494269174477
 31
0.0
  0
LINE
  5
18D47
330
18C7A
100
AcDbEntity
  8
部品1
100
AcDbLine
 10
2571.97058927652
 20
3182.494269174477
 30
0.0
 11
2571.970589276523
 21
3154.494269174477
 31
0.0
  0
LINE
  5
18D48
330
18C7A
100
AcDbEntity
  8
部品1
100
AcDbLine
 10
2991.97058927652
 20
3182.494269174477
 30
0.0
 11
2991.970589276523
 21
3154.494269174477
 31
0.0
  0
LINE
  5
18D49
330
18C7A
100
AcDbEntity
  8
部品1
100
AcDbLine
 10
2151.970589276519
 20
3182.494269174477
 30
0.0
 11
2151.970589276523
 21
3154.494269174477
 31
0.0
  0
LINE
  5
18D4A
330
18C7A
100
AcDbEntity
  8
部品1
100
AcDbLine
 10
1731.970589276519
 20
3182.494269174477
 30
0.0
 11
1731.970589276523
 21
3154.494269174477
 31
0.0
  0
LINE
  5
18D4B
330
18C7A
100
AcDbEntity
  8
部品1
100
AcDbLine
 10
1311.970589276519
 20
3182.494269174477
 30
0.0
 11
1311.970589276523
 21
3154.494269174477
 31
0.0
  0
LINE
  5
18D4C
330
18C7A
100
AcDbEntity
  8
部品1
100
AcDbLine
 10
891.9705892765195
 20
3182.494269174477
 30
0.0
 11
891.9705892765232
 21
3154.494269174477
 31
0.0
  0
LINE
  5
18D4D
330
18C7A
100
AcDbEntity
  8
部品1
100
AcDbLine
 10
471.9705892765232
 20
1392.494269174596
 30
0.0
 11
471.9705892765232
 21
1420.494269174596
 31
0.0
  0
LINE
  5
18D4E
330
18C7A
100
AcDbEntity
  8
部品1
100
AcDbLine
 10
444.9705892765305
 20
1420.494269174558
 30
0.0
 11
3858.970589276556
 21
1420.494269174596
 31
0.0
  0
LINE
  5
18D4F
330
18C7A
100
AcDbEntity
  8
部品1
100
AcDbLine
 10
3831.970589276556
 20
1392.494269174596
 30
0.0
 11
3831.970589276556
 21
1420.494269174596
 31
0.0
  0
LINE
  5
18D50
330
18C7A
100
AcDbEntity
  8
部品1
100
AcDbLine
 10
3858.970589276556
 20
1447.494269174593
 30
0.0
 11
3886.970589276556
 21
1447.494269174593
 31
0.0
  0
LINE
  5
18D51
330
18C7A
100
AcDbEntity
  8
部品1
100
AcDbLine
 10
3858.970589276556
 20
1867.494269174607
 30
0.0
 11
3886.970589276556
 21
1867.494269174607
 31
0.0
  0
LINE
  5
18D52
330
18C7A
100
AcDbEntity
  8
部品1
100
AcDbLine
 10
444.9705892765305
 20
1867.49426917448
 30
0.0
 11
416.9705892765305
 21
1867.49426917448
 31
0.0
  0
LINE
  5
18D53
330
18C7A
100
AcDbEntity
  8
部品1
100
AcDbLine
 10
3830.470589276541
 20
1867.49426917458
 30
0.0
 11
473.4705892765396
 21
1867.49426917448
 31
0.0
  0
LINE
  5
18D54
330
18C7A
100
AcDbEntity
  8
部品1
100
AcDbLine
 10
3830.470589276541
 20
2287.49426917458
 30
0.0
 11
473.4705892765396
 21
2287.49426917448
 31
0.0
  0
LINE
  5
18D55
330
18C7A
100
AcDbEntity
  8
部品1
100
AcDbLine
 10
444.9705892765305
 20
2287.49426917448
 30
0.0
 11
416.9705892765305
 21
2287.49426917448
 31
0.0
  0
LINE
  5
18D56
330
18C7A
100
AcDbEntity
  8
部品1
100
AcDbLine
 10
3858.970589276556
 20
2287.494269174608
 30
0.0
 11
3886.970589276556
 21
2287.494269174608
 31
0.0
  0
LINE
  5
18D57
330
18C7A
100
AcDbEntity
  8
部品1
 48
50.0
100
AcDbLine
 10
2151.970589276551
 20
2702.494269174586
 30
0.0
 11
2151.970589276581
 21
1448.994269174494
 31
0.0
  0
LINE
  5
18D58
330
18C7A
100
AcDbEntity
  8
破線
 48
10.0
100
AcDbLine
 10
2959.470589276535
 20
1472.494269174522
 30
0.0
 11
2176.970589276532
 21
1472.494269174505
 31
0.0
  0
LINE
  5
18D59
330
18C7A
100
AcDbEntity
  8
破線
 48
10.0
100
AcDbLine
 10
3009.47058927653
 20
1448.994269174509
 30
0.0
 11
3009.47058927653
 21
2702.494269174615
 31
0.0
  0
LINE
  5
18D5A
330
18C7A
100
AcDbEntity
  8
破線
 48
10.0
100
AcDbLine
 10
2959.470589276535
 20
1448.994269174505
 30
0.0
 11
2959.470589276531
 21
2702.494269174615
 31
0.0
  0
LINE
  5
18D5B
330
18C7A
100
AcDbEntity
  8
破線
 48
10.0
100
AcDbLine
 10
1344.47058927653
 20
1448.994269174509
 30
0.0
 11
1344.47058927653
 21
2702.494269174615
 31
0.0
  0
LINE
  5
18D5C
330
18C7A
100
AcDbEntity
  8
破線
 48
10.0
100
AcDbLine
 10
1294.470589276534
 20
1448.994269174505
 30
0.0
 11
1294.47058927653
 21
2702.494269174615
 31
0.0
  0
DIMENSION
  5
18D5D
330
18C7A
100
AcDbEntity
  8
寸法
100
AcDbDimension
  2
*D13
 10
1451.234916278005
 20
2488.887829538828
 30
0.0
 11
916.0604668248634
 21
2488.887829538828
 31
0.0
 12
-3742.925985830444
 22
-6453.628869860112
 32
0.0
 70
   128
 71
     5
 42
1062.99999999993
  3
INABA_S40G
100
AcDbAlignedDimension
 13
445.4705892765559
 23
2702.494269174505
 33
0.0
 14
1508.470589276486
 24
2702.494269174558
 34
0.0
100
AcDbRotatedDimension
1001
ACAD
1000
DSTYLE
1002
{
1002
}
  0
LINE
  5
18D5E
330
18C7A
100
AcDbEntity
  8
破線
 48
10.0
100
AcDbLine
 10
1294.470589276534
 20
1472.494269174469
 30
0.0
 11
496.9705892765414
 21
1472.494269174476
 31
0.0
  0
LINE
  5
18D5F
330
18C7A
100
AcDbEntity
  8
部品1
100
AcDbLine
 10
3831.970589276556
 20
3182.494269174604
 30
0.0
 11
3831.970589276556
 21
3154.494269174604
 31
0.0
  0
LINE
  5
18D60
330
18C7A
100
AcDbEntity
  8
部品1
100
AcDbLine
 10
3831.970589276556
 20
3182.494269174626
 30
0.0
 11
3831.970589276556
 21
3154.494269174626
 31
0.0
  0
LINE
  5
18D61
330
18C7A
100
AcDbEntity
  8
部品1
100
AcDbLine
 10
3858.970589276556
 20
3127.494269174607
 30
0.0
 11
3886.970589276556
 21
3127.494269174607
 31
0.0
  0
LINE
  5
18D62
330
18C7A
100
AcDbEntity
  8
部品1
100
AcDbLine
 10
3858.970589276556
 20
2707.494269174608
 30
0.0
 11
3886.970589276556
 21
2707.494269174608
 31
0.0
  0
LINE
  5
18D63
330
18C7A
100
AcDbEntity
  8
部品1
100
AcDbLine
 10
3858.470589276556
 20
3152.494269174604
 30
0.0
 11
3858.470589276556
 21
2702.494269174608
 31
0.0
  0
LINE
  5
18D64
330
18C7A
100
AcDbEntity
  8
部品1
100
AcDbLine
 10
3886.970589276533
 20
1447.494269174593
 30
0.0
 11
3886.970589276531
 21
1392.494269174596
 31
0.0
  0
LINE
  5
18D65
330
18C7A
100
AcDbEntity
  8
部品1
 48
50.0
100
AcDbLine
 10
3830.470589276556
 20
1448.994269174596
 30
0.0
 11
3858.970589276554
 21
1420.494269174596
 31
0.0
  0
LINE
  5
18D66
330
18C7A
100
AcDbEntity
  8
部品1
100
AcDbLine
 10
3886.970589276531
 20
1392.494269174596
 30
0.0
 11
3835.970589276531
 21
1392.494269174596
 31
0.0
  0
LINE
  5
18D67
330
18C7A
100
AcDbEntity
  8
部品1
100
AcDbLine
 10
3858.970589276533
 20
1447.494269174593
 30
0.0
 11
3886.970589276531
 21
1447.494269174593
 31
0.0
  0
LINE
  5
18D68
330
18C7A
100
AcDbEntity
  8
部品1
100
AcDbLine
 10
3886.970589276556
 20
3182.494269174604
 30
0.0
 11
3886.970589276531
 21
1392.494269174596
 31
0.0
  0
DIMENSION
  5
18D69
330
18C7A
100
AcDbEntity
  8
寸法
100
AcDbDimension
  2
*D12
 10
4534.396935010967
 20
1447.494269174593
 30
0.0
 11
4534.396935010965
 21
2287.4942691746
 31
0.0
 12
-3742.925985830444
 22
-6453.628869860112
 32
0.0
 70
   128
  1
4X420=<>
 71
     5
 42
1680.000000000014
  3
INABA_S40G
100
AcDbAlignedDimension
 13
3886.970589276556
 23
3127.494269174607
 33
0.0
 14
3886.970589276531
 24
1447.494269174593
 34
0.0
 50
90.0
100
AcDbRotatedDimension
1001
ACAD
1000
DSTYLE
1002
{
1002
}
  0
LINE
  5
18D6A
330
18C7A
100
AcDbEntity
  8
部品1
100
AcDbLine
 10
3858.970589276556
 20
3154.494269174604
 30
0.0
 11
3858.970589276534
 21
1420.494269174596
 31
0.0
  0
DIMENSION
  5
18D6B
330
18C7A
100
AcDbEntity
  8
寸法
100
AcDbDimension
  2
*D11
 10
4213.82831513858
 20
2607.276453505718
 30
0.0
 11
4113.828315138579
 21
2832.276453505718
 31
0.0
 12
-3742.925985830444
 22
-6453.628869860112
 32
0.0
 71
     5
 42
449.9999999999963
  3
INABA_S40G
100
AcDbAlignedDimension
 13
3858.470589276556
 23
3152.494269174604
 33
0.0
 14
3858.470589276556
 24
2702.494269174608
 34
0.0
 50
90.0
100
AcDbRotatedDimension
1001
ACAD
1000
DSTYLE
1002
{
1002
}
  0
LINE
  5
18D6C
330
18C7A
100
AcDbEntity
  8
部品1
100
AcDbLine
 10
3830.470589276547
 20
2702.494269174608
 30
0.0
 11
3830.470589276556
 21
1448.994269174596
 31
0.0
  0
LINE
  5
18D6D
330
18C7A
100
AcDbEntity
  8
破線
 48
10.0
100
AcDbLine
 10
3806.970589276549
 20
2702.494269174608
 30
0.0
 11
3806.970589276558
 21
1472.494269174593
 31
0.0
  0
LINE
  5
18D6E
330
18C7A
100
AcDbEntity
  8
部品1
100
AcDbLine
 10
2769.470589276556
 20
3146.494269174608
 30
0.0
 11
2794.470589276556
 21
3146.494269174611
 31
0.0
  0
LINE
  5
18D6F
330
18C7A
100
AcDbEntity
  8
部品1
100
AcDbLine
 10
2810.970589276556
 20
3172.494269174611
 30
0.0
 11
2816.970589276556
 21
3172.494269174611
 31
0.0
  0
LINE
  5
18D70
330
18C7A
100
AcDbEntity
  8
部品1
100
AcDbLine
 10
2816.970589276556
 20
3172.494269174611
 30
0.0
 11
2816.970589276556
 21
3154.494269174611
 31
0.0
  0
LINE
  5
18D71
330
18C7A
100
AcDbEntity
  8
部品1
100
AcDbLine
 10
2746.970589276556
 20
3172.494269174611
 30
0.0
 11
2752.970589276556
 21
3172.494269174611
 31
0.0
  0
LINE
  5
18D72
330
18C7A
100
AcDbEntity
  8
部品1
100
AcDbLine
 10
2746.970589276556
 20
3172.494269174611
 30
0.0
 11
2746.970589276556
 21
3154.494269174611
 31
0.0
  0
LINE
  5
18D73
330
18C7A
100
AcDbEntity
  8
部品1
100
AcDbLine
 10
2769.470589276556
 20
2702.494269174615
 30
0.0
 11
2794.470589276556
 21
2702.494269174615
 31
0.0
  0
LINE
  5
18D74
330
18C7A
100
AcDbEntity
  8
部品1
 48
50.0
100
AcDbLine
 10
2794.470589276556
 20
3154.494269174615
 30
0.0
 11
2794.470589276556
 21
2702.494269174615
 31
0.0
  0
LINE
  5
18D75
330
18C7A
100
AcDbEntity
  8
部品1
 48
50.0
100
AcDbLine
 10
2769.470589276554
 20
3154.494269174618
 30
0.0
 11
2769.470589276556
 21
2702.494269174615
 31
0.0
  0
LINE
  5
18D76
330
18C7A
100
AcDbEntity
  8
部品1
 48
50.0
100
AcDbLine
 10
2795.470589276556
 20
3152.494269174607
 30
0.0
 11
2795.470589276556
 21
2702.494269174615
 31
0.0
  0
LINE
  5
18D77
330
18C7A
100
AcDbEntity
  8
部品1
 48
50.0
100
AcDbLine
 10
2767.470589276556
 20
3152.494269174611
 30
0.0
 11
2767.470589276556
 21
2702.494269174615
 31
0.0
  0
LINE
  5
18D78
330
18C7A
100
AcDbEntity
  8
破線
 48
10.0
100
AcDbLine
 10
2176.97058927653
 20
1448.994269174509
 30
0.0
 11
2176.97058927653
 21
2702.494269174588
 31
0.0
  0
LINE
  5
18D79
330
18C7A
100
AcDbEntity
  8
破線
 48
10.0
100
AcDbLine
 10
2126.970589276534
 20
1448.994269174505
 30
0.0
 11
2126.970589276531
 21
2702.494269174586
 31
0.0
  0
LINE
  5
18D7A
330
18C7A
100
AcDbEntity
  8
部品1
100
AcDbLine
 10
2794.470589276556
 20
3154.494269174622
 30
0.0
 11
3858.970589276556
 21
3154.494269174604
 31
0.0
  0
LINE
  5
18D7B
330
18C7A
100
AcDbEntity
  8
細線
 48
50.0
100
AcDbLine
 10
3858.470589276556
 20
2702.494269174608
 30
0.0
 11
2795.470589276556
 21
3152.494269174607
 31
0.0
  0
LINE
  5
18D7C
330
18C7A
100
AcDbEntity
  8
部品1
100
AcDbLine
 10
2795.470589276555
 20
2702.494269174615
 30
0.0
 11
3858.470589276556
 21
2702.494269174608
 31
0.0
  0
LINE
  5
18D7D
330
18C7A
100
AcDbEntity
  8
部品1
100
AcDbLine
 10
2795.470589276556
 20
3152.494269174611
 30
0.0
 11
3858.470589276556
 21
3152.494269174604
 31
0.0
  0
LINE
  5
18D7E
330
18C7A
100
AcDbEntity
  8
細線
 48
50.0
100
AcDbLine
 10
3858.470589276556
 20
3152.494269174604
 30
0.0
 11
2795.470589276555
 21
2702.494269174615
 31
0.0
  0
DIMENSION
  5
18D7F
330
18C7A
100
AcDbEntity
  8
寸法
100
AcDbDimension
  2
*D10
 10
3801.234916278101
 20
2488.887829538937
 30
0.0
 11
3318.360544398907
 21
2488.887829538937
 31
0.0
 12
-3742.925985830444
 22
-6453.628869860112
 32
0.0
 70
   128
 71
     5
 42
1063.000000000012
  3
INABA_S40G
100
AcDbAlignedDimension
 13
2795.470589276555
 23
2702.494269174615
 33
0.0
 14
3858.470589276567
 24
2702.494269174608
 34
0.0
100
AcDbRotatedDimension
1001
ACAD
1000
DSTYLE
1002
{
1002
}
  0
LINE
  5
18D80
330
18C7A
100
AcDbEntity
  8
破線
 48
10.0
100
AcDbLine
 10
3806.970589276556
 20
1472.494269174594
 30
0.0
 11
3009.47058927653
 21
1472.494269174523
 31
0.0
  0
DIMENSION
  5
18D81
330
18C7A
100
AcDbEntity
  8
寸法
100
AcDbDimension
  2
*D9
 10
4534.396935010941
 20
1392.494269174596
 30
0.0
 11
4534.39693501094
 21
1084.008987800356
 31
0.0
 12
-3742.925985830444
 22
-6453.628869860112
 32
0.0
 70
   128
 71
     5
 42
54.99999999999636
  3
INABA_S40G
100
AcDbAlignedDimension
 13
3886.970589276531
 23
1447.494269174593
 33
0.0
 14
3886.970589276531
 24
1392.494269174596
 34
0.0
 50
90.0
100
AcDbRotatedDimension
1001
ACAD
1000
DSTYLE
1002
{
1002
}
  0
LINE
  5
18D82
330
18C7A
100
AcDbEntity
  8
部品1
100
AcDbLine
 10
471.9705892765196
 20
3182.494269174477
 30
0.0
 11
471.9705892765232
 21
3154.494269174477
 31
0.0
  0
LINE
  5
18D83
330
18C7A
100
AcDbEntity
  8
部品1
100
AcDbLine
 10
471.9705892765559
 20
3182.494269174509
 30
0.0
 11
471.9705892765559
 21
3154.494269174509
 31
0.0
  0
LINE
  5
18D84
330
18C7A
100
AcDbEntity
  8
部品1
100
AcDbLine
 10
444.9705892765232
 20
3127.49426917448
 30
0.0
 11
416.9705892765232
 21
3127.49426917448
 31
0.0
  0
LINE
  5
18D85
330
18C7A
100
AcDbEntity
  8
部品1
100
AcDbLine
 10
444.9705892765305
 20
2707.49426917448
 30
0.0
 11
416.9705892765305
 21
2707.49426917448
 31
0.0
  0
LINE
  5
18D86
330
18C7A
100
AcDbEntity
  8
部品1
 48
50.0
100
AcDbLine
 10
445.4705892765542
 20
3152.494269174506
 30
0.0
 11
445.4705892765559
 21
2702.494269174505
 31
0.0
  0
LINE
  5
18D87
330
18C7A
100
AcDbEntity
  8
部品1
 48
50.0
100
AcDbLine
 10
473.470589276545
 20
1448.994269174573
 30
0.0
 11
444.970589276545
 21
1420.494269174574
 31
0.0
  0
LINE
  5
18D88
330
18C7A
100
AcDbEntity
  8
部品1
100
AcDbLine
 10
471.9705892765232
 20
1392.494269174465
 30
0.0
 11
416.9705892765486
 21
1392.494269174465
 31
0.0
  0
LINE
  5
18D89
330
18C7A
100
AcDbEntity
  8
部品1
100
AcDbLine
 10
444.9705892765305
 20
1447.494269174429
 30
0.0
 11
416.9705892765469
 21
1447.494269174429
 31
0.0
  0
LINE
  5
18D8A
330
18C7A
100
AcDbEntity
  8
部品1
100
AcDbLine
 10
444.9705892765305
 20
1447.494269174465
 30
0.0
 11
416.9705892765469
 21
1447.494269174465
 31
0.0
  0
LINE
  5
18D8B
330
18C7A
100
AcDbEntity
  8
部品1
100
AcDbLine
 10
444.9705892765469
 20
1447.49426917448
 30
0.0
 11
416.9705892765469
 21
1447.49426917448
 31
0.0
  0
LINE
  5
18D8C
330
18C7A
100
AcDbEntity
  8
部品1
100
AcDbLine
 10
416.9705892765469
 20
1447.494269174429
 30
0.0
 11
416.9705892765486
 21
1392.494269174433
 31
0.0
  0
LINE
  5
18D8D
330
18C7A
100
AcDbEntity
  8
部品1
100
AcDbLine
 10
416.9705892765196
 20
3182.494269174477
 30
0.0
 11
416.9705892765486
 21
1392.494269174465
 31
0.0
  0
LINE
  5
18D8E
330
18C7A
100
AcDbEntity
  8
部品1
100
AcDbLine
 10
444.9705892765305
 20
1420.494269174556
 30
0.0
 11
444.9705892765559
 21
3154.494269174509
 31
0.0
  0
LINE
  5
18D8F
330
18C7A
100
AcDbEntity
  8
部品1
100
AcDbLine
 10
473.4705892765323
 20
2702.494269174608
 30
0.0
 11
473.470589276545
 21
1448.994269174571
 31
0.0
  0
LINE
  5
18D90
330
18C7A
100
AcDbEntity
  8
破線
 48
10.0
100
AcDbLine
 10
496.9705892765305
 20
2702.494269174608
 30
0.0
 11
496.9705892765451
 21
1472.494269174476
 31
0.0
  0
DIMENSION
  5
18D91
330
18C7A
100
AcDbEntity
  8
寸法
100
AcDbDimension
  2
*D8
 10
3886.970589276531
 20
410.7433333855515
 30
0.0
 11
2168.197775309287
 21
410.7433333855515
 31
0.0
 12
-3742.925985830444
 22
-6453.628869860112
 32
0.0
 70
   128
 71
     5
 42
3469.999999999982
  3
INABA_S40G
100
AcDbAlignedDimension
 13
416.9705892765486
 23
1392.494269174433
 33
0.0
 14
3886.970589276531
 24
1392.49426917456
 34
0.0
100
AcDbRotatedDimension
1001
ACAD
1000
DSTYLE
1002
{
1070
   341
1005
0
1002
}
  0
LINE
  5
18D92
330
18C7A
100
AcDbEntity
  8
部品1
100
AcDbLine
 10
444.9705892765559
 20
3154.494269174624
 30
0.0
 11
1509.470589276487
 21
3154.494269174626
 31
0.0
  0
LINE
  5
18D93
330
18C7A
100
AcDbEntity
  8
部品1
100
AcDbLine
 10
3886.970589276531
 20
1392.494269174596
 30
0.0
 11
3411.970589276556
 21
1392.494269174582
 31
0.0
  0
LINE
  5
18D94
330
18C7A
100
AcDbEntity
  8
部品1
100
AcDbLine
 10
416.9705892765559
 20
3182.494269174509
 30
0.0
 11
3886.970589276556
 21
3182.494269174604
 31
0.0
  0
LINE
  5
18D95
330
18C7A
100
AcDbEntity
  8
部品1
100
AcDbLine
 10
445.4705892765559
 20
2702.494269174509
 30
0.0
 11
1508.470589276487
 21
2702.494269174558
 31
0.0
  0
LINE
  5
18D96
330
18C7A
100
AcDbEntity
  8
細線
 48
50.0
100
AcDbLine
 10
2767.470589276556
 20
3152.494269174611
 30
0.0
 11
1536.470589276487
 21
2702.494269174558
 31
0.0
  0
LINE
  5
18D97
330
18C7A
100
AcDbEntity
  8
部品1
100
AcDbLine
 10
445.4705892765542
 20
3152.494269174509
 30
0.0
 11
1508.470589276485
 21
3152.494269174558
 31
0.0
  0
LINE
  5
18D98
330
18C7A
100
AcDbEntity
  8
細線
 48
50.0
100
AcDbLine
 10
2767.470589276554
 20
2702.494269174615
 30
0.0
 11
1536.470589276485
 21
3152.494269174558
 31
0.0
  0
LINE
  5
18D99
330
18C7A
100
AcDbEntity
  8
破線
 48
10.0
100
AcDbLine
 10
2126.970589276534
 20
1472.494269174502
 30
0.0
 11
1344.47058927653
 21
1472.494269174473
 31
0.0
  0
LINE
  5
18D9A
330
18C7A
100
AcDbEntity
  8
部品1
100
AcDbLine
 10
3830.470589276556
 20
1448.994269174596
 30
0.0
 11
473.4705892764487
 21
1448.994269174476
 31
0.0
  0
DIMENSION
  5
18D9B
330
18C7A
100
AcDbEntity
  8
寸法
100
AcDbDimension
  2
*D7
 10
471.970589276555
 20
3698.302488799491
 30
0.0
 11
108.4853079022819
 21
3698.302488799491
 31
0.0
 12
-3742.925985830444
 22
-6453.628869860112
 32
0.0
 70
   128
 71
     5
 42
55.00000000003456
  3
INABA_S40G
100
AcDbAlignedDimension
 13
416.9705892765205
 23
3182.494269174509
 33
0.0
 14
471.970589276555
 24
3182.494269174509
 34
0.0
100
AcDbRotatedDimension
1001
ACAD
1000
DSTYLE
1002
{
1002
}
  0
DIMENSION
  5
18D9C
330
18C7A
100
AcDbEntity
  8
寸法
100
AcDbDimension
  2
*D6
 10
4534.396935010967
 20
3127.494269174607
 30
0.0
 11
4534.396935010965
 21
3490.979550548844
 31
0.0
 12
-3742.925985830444
 22
-6453.628869860112
 32
0.0
 70
   128
 71
     5
 42
54.99999999999636
  3
INABA_S40G
100
AcDbAlignedDimension
 13
3886.970589276556
 23
3182.494269174604
 33
0.0
 14
3886.970589276556
 24
3127.494269174607
 34
0.0
 50
90.0
100
AcDbRotatedDimension
1001
ACAD
1000
DSTYLE
1002
{
1002
}
  0
DIMENSION
  5
18D9D
330
18C7A
100
AcDbEntity
  8
寸法
100
AcDbDimension
  2
*D5
 10
3886.970589276556
 20
3698.302488799589
 30
0.0
 11
4195.455870650794
 21
3698.302488799589
 31
0.0
 12
-3742.925985830444
 22
-6453.628869860112
 32
0.0
 70
   128
 71
     5
 42
55.0
  3
INABA_S40G
100
AcDbAlignedDimension
 13
3831.970589276556
 23
3182.494269174604
 33
0.0
 14
3886.970589276556
 24
3182.494269174604
 34
0.0
100
AcDbRotatedDimension
1001
ACAD
1000
DSTYLE
1002
{
1002
}
  0
DIMENSION
  5
18D9E
330
18C7A
100
AcDbEntity
  8
寸法
100
AcDbDimension
  2
*D4
 10
3831.970589276556
 20
3698.302488799607
 30
0.0
 11
2151.970589276555
 21
3698.302488799607
 31
0.0
 12
-3742.925985830444
 22
-6453.628869860112
 32
0.0
 70
   128
  1
8X420=<>
 71
     5
 42
3360.000000000001
  3
INABA_S40G
100
AcDbAlignedDimension
 13
471.970589276555
 23
3182.494269174509
 33
0.0
 14
3831.970589276556
 24
3182.494269174604
 34
0.0
100
AcDbRotatedDimension
1001
ACAD
1000
DSTYLE
1002
{
1002
}
  0
DIMENSION
  5
18D9F
330
18C7A
100
AcDbEntity
  8
寸法
100
AcDbDimension
  2
*D3
 10
4899.503876750603
 20
1392.494269174596
 30
0.0
 11
4899.503876750601
 21
2287.4942691746
 31
0.0
 12
-3742.925985830444
 22
-6453.628869860112
 32
0.0
 70
   128
 71
     5
 42
1790.000000000007
  3
INABA_S40G
100
AcDbAlignedDimension
 13
3886.970589276556
 23
3182.494269174604
 33
0.0
 14
3886.970589276531
 24
1392.494269174596
 34
0.0
 50
90.0
100
AcDbRotatedDimension
1001
ACAD
1000
DSTYLE
1002
{
1002
}
  0
ENDBLK
  5
18DA1
330
18C7A
100
AcDbEntity
  8
0
 48
50.0
100
AcDbBlockEnd
  0
BLOCK
  5
1C4CB
330
1C4CA
100
AcDbEntity
  8
0
 48
50.0
100
AcDbBlockBegin
  2
_NONE
 70
     0
 10
0.0
 20
0.0
 30
0.0
  3
_NONE
  1

  0
CIRCLE
  5
1C4CC
330
1C4CA
100
AcDbEntity
  8
0
  6
ByBlock
 62
     0
 48
50.0
100
AcDbCircle
 10
0.0
 20
0.0
 30
0.0
 40
0.25
  0
ENDBLK
  5
1C4CD
330
1C4CA
100
AcDbEntity
  8
0
 48
50.0
100
AcDbBlockEnd
  0
BLOCK
  5
1DD4F
330
1DD46
100
AcDbEntity
  8
0
 48
50.0
100
AcDbBlockBegin
  2
*D19
 70
     1
 10
0.0
 20
0.0
 30
0.0
  3
*D19
  1

  0
LINE
  5
1F6B6
330
1DD46
100
AcDbEntity
  8
寸法
 62
     0
 48
50.0
370
    -2
100
AcDbLine
 10
8103.6
 20
6762.375394111462
 30
0.0
 11
6946.690234351672
 21
6762.375394111462
 31
0.0
  0
LINE
  5
1F6B7
330
1DD46
100
AcDbEntity
  8
寸法
 62
     0
 48
50.0
370
    -2
100
AcDbLine
 10
7513.600000000001
 20
7662.375394111461
 30
0.0
 11
6946.690234351672
 21
7662.375394111461
 31
0.0
  0
LINE
  5
1F6B8
330
1DD46
100
AcDbEntity
  8
寸法
 62
     0
 48
50.0
370
    -2
100
AcDbLine
 10
7006.690234351673
 20
6762.375394111462
 30
0.0
 11
7006.690234351673
 21
7662.375394111461
 31
0.0
  0
INSERT
  5
1F6B9
330
1DD46
100
AcDbEntity
  8
寸法
 62
     0
 48
50.0
370
    -2
100
AcDbBlockReference
  2
_DOTSMALL
 10
7006.690234351673
 20
6762.375394111462
 30
0.0
 41
100.0
 42
100.0
 43
100.0
 50
270.0
  0
INSERT
  5
1F6BA
330
1DD46
100
AcDbEntity
  8
寸法
 62
     0
 48
50.0
370
    -2
100
AcDbBlockReference
  2
_DOTSMALL
 10
7006.690234351673
 20
7662.375394111461
 30
0.0
 41
100.0
 42
100.0
 43
100.0
 50
90.0
  0
MTEXT
  5
1F6BB
330
1DD46
100
AcDbEntity
  8
寸法
 62
     7
 48
50.0
100
AcDbMText
 10
6906.69023435167
 20
7212.375394111464
 30
0.0
 40
120.0
 41
0.0
 71
     5
 72
     1
  1
\A1;900
  7
STYLE1
 11
0.0000000000000001
 21
1.0
 31
0.0
 73
     1
 44
1.0
1001
ACAD
1000
MTEXTBEGIN
1070
    73
1070
     1
1070
    44
1040
1.0
1070
    74
1070
     0
1000
MTEXTEND
  0
POINT
  5
1F6BC
330
1DD46
100
AcDbEntity
  8
DEFPOINTS
 62
     0
 48
50.0
100
AcDbPoint
 10
8123.600000000001
 20
6762.375394111462
 30
0.0
  0
POINT
  5
1F6BD
330
1DD46
100
AcDbEntity
  8
DEFPOINTS
 62
     0
 48
50.0
100
AcDbPoint
 10
7533.599999999999
 20
7662.375394111461
 30
0.0
  0
POINT
  5
1F6BE
330
1DD46
100
AcDbEntity
  8
DEFPOINTS
 62
     0
 48
50.0
100
AcDbPoint
 10
7006.690234351673
 20
7662.375394111461
 30
0.0
  0
ENDBLK
  5
1DD50
330
1DD46
100
AcDbEntity
  8
0
 48
50.0
100
AcDbBlockEnd
  0
BLOCK
  5
1DD74
330
1DD6B
100
AcDbEntity
  8
0
 48
50.0
100
AcDbBlockBegin
  2
*D20
 70
     1
 10
0.0
 20
0.0
 30
0.0
  3
*D20
  1

  0
LINE
  5
1F5A6
330
1DD6B
100
AcDbEntity
  8
寸法
 62
     0
 48
50.0
370
    -2
100
AcDbLine
 10
7513.600000000001
 20
7662.375394111461
 30
0.0
 11
6515.379677941083
 21
7662.375394111461
 31
0.0
  0
LINE
  5
1F5A7
330
1DD6B
100
AcDbEntity
  8
寸法
 62
     0
 48
50.0
370
    -2
100
AcDbLine
 10
7513.600000000001
 20
5862.375394111462
 30
0.0
 11
6515.379677941081
 21
5862.375394111462
 31
0.0
  0
LINE
  5
1F5A8
330
1DD6B
100
AcDbEntity
  8
寸法
 62
     0
 48
50.0
370
    -2
100
AcDbLine
 10
6575.379677941082
 20
7662.375394111461
 30
0.0
 11
6575.379677941082
 21
5862.375394111462
 31
0.0
  0
INSERT
  5
1F5A9
330
1DD6B
100
AcDbEntity
  8
寸法
 62
     0
 48
50.0
370
    -2
100
AcDbBlockReference
  2
_DOTSMALL
 10
6575.379677941082
 20
7662.375394111461
 30
0.0
 41
100.0
 42
100.0
 43
100.0
 50
90.0
  0
INSERT
  5
1F5AA
330
1DD6B
100
AcDbEntity
  8
寸法
 62
     0
 48
50.0
370
    -2
100
AcDbBlockReference
  2
_DOTSMALL
 10
6575.379677941082
 20
5862.375394111462
 30
0.0
 41
100.0
 42
100.0
 43
100.0
 50
270.0
  0
MTEXT
  5
1F5AB
330
1DD6B
100
AcDbEntity
  8
寸法
 62
     7
 48
50.0
100
AcDbMText
 10
6475.379677941081
 20
6762.375394111464
 30
0.0
 40
120.0
 41
0.0
 71
     5
 72
     1
  1
\A1;1800
  7
STYLE1
 11
0.0000000000000001
 21
1.0
 31
0.0
 73
     1
 44
1.0
1001
ACAD
1000
MTEXTBEGIN
1070
    73
1070
     1
1070
    44
1040
1.0
1070
    74
1070
     0
1000
MTEXTEND
  0
POINT
  5
1F5AC
330
1DD6B
100
AcDbEntity
  8
DEFPOINTS
 62
     0
 48
50.0
100
AcDbPoint
 10
7533.599999999999
 20
7662.375394111461
 30
0.0
  0
POINT
  5
1F5AD
330
1DD6B
100
AcDbEntity
  8
DEFPOINTS
 62
     0
 48
50.0
100
AcDbPoint
 10
7533.600000000001
 20
5862.375394111462
 30
0.0
  0
POINT
  5
1F5AE
330
1DD6B
100
AcDbEntity
  8
DEFPOINTS
 62
     0
 48
50.0
100
AcDbPoint
 10
6575.379677941082
 20
5862.375394111462
 30
0.0
  0
ENDBLK
  5
1DD75
330
1DD6B
100
AcDbEntity
  8
0
 48
50.0
100
AcDbBlockEnd
  0
BLOCK
  5
1DD7F
330
1DD76
100
AcDbEntity
  8
0
 48
50.0
100
AcDbBlockBegin
  2
*D21
 70
     1
 10
0.0
 20
0.0
 30
0.0
  3
*D21
  1

  0
LINE
  5
1F59D
330
1DD76
100
AcDbEntity
  8
寸法
 62
     0
 48
50.0
370
    -2
100
AcDbLine
 10
7586.600000000001
 20
5985.375394111462
 30
0.0
 11
6727.840373457915
 21
5985.375394111462
 31
0.0
  0
LINE
  5
1F59E
330
1DD76
100
AcDbEntity
  8
寸法
 62
     0
 48
50.0
370
    -2
100
AcDbLine
 10
7586.6
 20
7539.375394111463
 30
0.0
 11
6727.840373457917
 21
7539.375394111463
 31
0.0
  0
LINE
  5
1F59F
330
1DD76
100
AcDbEntity
  8
寸法
 62
     0
 48
50.0
370
    -2
100
AcDbLine
 10
6787.840373457917
 20
5985.375394111462
 30
0.0
 11
6787.840373457917
 21
7539.375394111463
 31
0.0
  0
INSERT
  5
1F5A0
330
1DD76
100
AcDbEntity
  8
寸法
 62
     0
 48
50.0
370
    -2
100
AcDbBlockReference
  2
_DOTSMALL
 10
6787.840373457917
 20
5985.375394111462
 30
0.0
 41
100.0
 42
100.0
 43
100.0
 50
270.0
  0
INSERT
  5
1F5A1
330
1DD76
100
AcDbEntity
  8
寸法
 62
     0
 48
50.0
370
    -2
100
AcDbBlockReference
  2
_DOTSMALL
 10
6787.840373457917
 20
7539.375394111463
 30
0.0
 41
100.0
 42
100.0
 43
100.0
 50
90.0
  0
MTEXT
  5
1F5A2
330
1DD76
100
AcDbEntity
  8
寸法
 62
     7
 48
50.0
100
AcDbMText
 10
6687.840373457915
 20
6762.375394111464
 30
0.0
 40
120.0
 41
0.0
 71
     5
 72
     1
  1
\A1;1554
  7
STYLE1
 11
0.0000000000000001
 21
1.0
 31
0.0
 73
     1
 44
1.0
1001
ACAD
1000
MTEXTBEGIN
1070
    73
1070
     1
1070
    44
1040
1.0
1070
    74
1070
     0
1000
MTEXTEND
  0
POINT
  5
1F5A3
330
1DD76
100
AcDbEntity
  8
DEFPOINTS
 62
     0
 48
50.0
100
AcDbPoint
 10
7606.600000000002
 20
5985.375394111462
 30
0.0
  0
POINT
  5
1F5A4
330
1DD76
100
AcDbEntity
  8
DEFPOINTS
 62
     0
 48
50.0
100
AcDbPoint
 10
7606.6
 20
7539.375394111463
 30
0.0
  0
POINT
  5
1F5A5
330
1DD76
100
AcDbEntity
  8
DEFPOINTS
 62
     0
 48
50.0
100
AcDbPoint
 10
6787.840373457917
 20
7539.375394111463
 30
0.0
  0
ENDBLK
  5
1DD80
330
1DD76
100
AcDbEntity
  8
0
 48
50.0
100
AcDbBlockEnd
  0
BLOCK
  5
1DD99
330
1DD8E
100
AcDbEntity
  8
0
 48
50.0
100
AcDbBlockBegin
  2
*D22
 70
     1
 10
0.0
 20
0.0
 30
0.0
  3
*D22
  1

  0
LINE
  5
1F593
330
1DD8E
100
AcDbEntity
  8
寸法
 62
     0
 48
50.0
370
    -2
100
AcDbLine
 10
7586.6
 20
7539.375394111463
 30
0.0
 11
6727.840373457919
 21
7539.375394111463
 31
0.0
  0
LINE
  5
1F594
330
1DD8E
100
AcDbEntity
  8
寸法
 62
     0
 48
50.0
370
    -2
100
AcDbLine
 10
7513.600000000001
 20
7662.375394111461
 30
0.0
 11
6727.840373457919
 21
7662.375394111461
 31
0.0
  0
LINE
  5
1F595
330
1DD8E
100
AcDbEntity
  8
寸法
 62
     0
 48
50.0
370
    -2
100
AcDbLine
 10
6787.840373457918
 20
7539.375394111463
 30
0.0
 11
6787.840373457918
 21
7662.375394111461
 31
0.0
  0
LINE
  5
1F596
330
1DD8E
100
AcDbEntity
  8
寸法
 62
     0
 48
50.0
370
    -2
100
AcDbLine
 10
6787.840373457918
 20
7662.375394111461
 30
0.0
 11
6787.840373457918
 21
8073.967277203497
 31
0.0
  0
INSERT
  5
1F597
330
1DD8E
100
AcDbEntity
  8
寸法
 62
     0
 48
50.0
370
    -2
100
AcDbBlockReference
  2
_DOTSMALL
 10
6787.840373457918
 20
7539.375394111463
 30
0.0
 41
100.0
 42
100.0
 43
100.0
 50
270.0
  0
INSERT
  5
1F598
330
1DD8E
100
AcDbEntity
  8
寸法
 62
     0
 48
50.0
370
    -2
100
AcDbBlockReference
  2
_DOTSMALL
 10
6787.840373457918
 20
7662.375394111461
 30
0.0
 41
100.0
 42
100.0
 43
100.0
 50
90.0
  0
MTEXT
  5
1F599
330
1DD8E
100
AcDbEntity
  8
寸法
 62
     7
 48
50.0
100
AcDbMText
 10
6687.828562434295
 20
7935.48199582926
 30
0.0
 40
120.0
 41
0.0
 71
     5
 72
     1
  1
\A1;123
  7
STYLE1
 11
0.0000000000000001
 21
1.0
 31
0.0
 73
     1
 44
1.0
1001
ACAD
1000
MTEXTBEGIN
1070
    73
1070
     1
1070
    44
1040
1.0
1070
    74
1070
     0
1000
MTEXTEND
  0
POINT
  5
1F59A
330
1DD8E
100
AcDbEntity
  8
DEFPOINTS
 62
     0
 48
50.0
100
AcDbPoint
 10
7606.6
 20
7539.375394111463
 30
0.0
  0
POINT
  5
1F59B
330
1DD8E
100
AcDbEntity
  8
DEFPOINTS
 62
     0
 48
50.0
100
AcDbPoint
 10
7533.599999999999
 20
7662.375394111461
 30
0.0
  0
POINT
  5
1F59C
330
1DD8E
100
AcDbEntity
  8
DEFPOINTS
 62
     0
 48
50.0
100
AcDbPoint
 10
6787.840373457918
 20
7662.375394111461
 30
0.0
  0
ENDBLK
  5
1DD9A
330
1DD8E
100
AcDbEntity
  8
0
 48
50.0
100
AcDbBlockEnd
  0
BLOCK
  5
1DDB3
330
1DDA8
100
AcDbEntity
  8
0
 48
50.0
100
AcDbBlockBegin
  2
*D23
 70
     1
 10
0.0
 20
0.0
 30
0.0
  3
*D23
  1

  0
LINE
  5
1F6DA
330
1DDA8
100
AcDbEntity
  8
寸法
 62
     0
 48
50.0
370
    -2
100
AcDbLine
 10
8790.599999999999
 20
7609.375394111456
 30
0.0
 11
8790.599999999999
 21
8493.017164835816
 31
0.0
  0
LINE
  5
1F6DB
330
1DDA8
100
AcDbEntity
  8
寸法
 62
     0
 48
50.0
370
    -2
100
AcDbLine
 10
8913.6
 20
7682.375394111462
 30
0.0
 11
8913.6
 21
8493.017164835816
 31
0.0
  0
LINE
  5
1F6DC
330
1DDA8
100
AcDbEntity
  8
寸法
 62
     0
 48
50.0
370
    -2
100
AcDbLine
 10
8790.599999999999
 20
8433.017164835815
 30
0.0
 11
8913.6
 21
8433.017164835815
 31
0.0
  0
LINE
  5
1F6DD
330
1DDA8
100
AcDbEntity
  8
寸法
 62
     0
 48
50.0
370
    -2
100
AcDbLine
 10
8913.6
 20
8433.017164835815
 30
0.0
 11
9290.570562748476
 21
8433.017164835815
 31
0.0
  0
INSERT
  5
1F6DE
330
1DDA8
100
AcDbEntity
  8
寸法
 62
     0
 48
50.0
370
    -2
100
AcDbBlockReference
  2
_DOTSMALL
 10
8790.599999999999
 20
8433.017164835815
 30
0.0
 41
100.0
 42
100.0
 43
100.0
 50
180.0
  0
INSERT
  5
1F6DF
330
1DDA8
100
AcDbEntity
  8
寸法
 62
     0
 48
50.0
370
    -2
100
AcDbBlockReference
  2
_DOTSMALL
 10
8913.6
 20
8433.017164835815
 30
0.0
 41
100.0
 42
100.0
 43
100.0
  0
MTEXT
  5
1F6E0
330
1DDA8
100
AcDbEntity
  8
寸法
 62
     7
 48
50.0
100
AcDbMText
 10
9152.085281374239
 20
8533.028975859437
 30
0.0
 40
120.0
 41
0.0
 71
     5
 72
     1
  1
\A1;123
  7
STYLE1
 73
     1
 44
1.0
1001
ACAD
1000
MTEXTBEGIN
1070
    73
1070
     1
1070
    44
1040
1.0
1070
    74
1070
     0
1000
MTEXTEND
  0
POINT
  5
1F6E1
330
1DDA8
100
AcDbEntity
  8
DEFPOINTS
 62
     0
 48
50.0
100
AcDbPoint
 10
8790.599999999999
 20
7589.375394111455
 30
0.0
  0
POINT
  5
1F6E2
330
1DDA8
100
AcDbEntity
  8
DEFPOINTS
 62
     0
 48
50.0
100
AcDbPoint
 10
8913.6
 20
7662.375394111461
 30
0.0
  0
POINT
  5
1F6E3
330
1DDA8
100
AcDbEntity
  8
DEFPOINTS
 62
     0
 48
50.0
100
AcDbPoint
 10
8913.6
 20
8433.017164835815
 30
0.0
  0
ENDBLK
  5
1DDB4
330
1DDA8
100
AcDbEntity
  8
0
 48
50.0
100
AcDbBlockEnd
  0
BLOCK
  5
1DDC0
330
1DDB5
100
AcDbEntity
  8
0
 48
50.0
100
AcDbBlockBegin
  2
*D24
 70
     1
 10
0.0
 20
0.0
 30
0.0
  3
*D24
  1

  0
LINE
  5
211AF
330
1DDB5
100
AcDbEntity
  8
寸法
 62
     0
 48
50.0
370
    -2
100
AcDbLine
 10
8793.599999999996
 20
7412.375394111461
 30
0.0
 11
8793.599999999996
 21
7201.573824624967
 31
0.0
  0
LINE
  5
211B0
330
1DDB5
100
AcDbEntity
  8
寸法
 62
     0
 48
50.0
370
    -2
100
AcDbLine
 10
8913.599999999989
 20
7381.974609368214
 30
0.0
 11
8913.599999999989
 21
7201.573824624967
 31
0.0
  0
LINE
  5
211B1
330
1DDB5
100
AcDbEntity
  8
寸法
 62
     0
 48
50.0
370
    -2
100
AcDbLine
 10
8793.599999999996
 20
7261.573824624966
 30
0.0
 11
8913.599999999989
 21
7261.573824624966
 31
0.0
  0
LINE
  5
211B2
330
1DDB5
100
AcDbEntity
  8
寸法
 62
     0
 48
50.0
370
    -2
100
AcDbLine
 10
8913.599999999989
 20
7261.573824624966
 30
0.0
 11
9327.73078736737
 21
7261.573824624966
 31
0.0
  0
INSERT
  5
211B3
330
1DDB5
100
AcDbEntity
  8
寸法
 62
     0
 48
50.0
370
    -2
100
AcDbBlockReference
  2
_DOTSMALL
 10
8793.599999999996
 20
7261.573824624966
 30
0.0
 41
100.0
 42
100.0
 43
100.0
 50
180.0
  0
INSERT
  5
211B4
330
1DDB5
100
AcDbEntity
  8
寸法
 62
     0
 48
50.0
370
    -2
100
AcDbBlockReference
  2
_DOTSMALL
 10
8913.599999999989
 20
7261.573824624966
 30
0.0
 41
100.0
 42
100.0
 43
100.0
  0
MTEXT
  5
211B5
330
1DDB5
100
AcDbEntity
  8
寸法
 62
     7
 48
50.0
100
AcDbMText
 10
9191.68354327288
 20
7361.585635648587
 30
0.0
 40
120.0
 41
0.0
 71
     5
 72
     1
  1
\A1;120
  7
STYLE1
 73
     1
 44
1.0
1001
ACAD
1000
MTEXTBEGIN
1070
    73
1070
     1
1070
    44
1040
1.0
1070
    74
1070
     0
1000
MTEXTEND
  0
POINT
  5
211B6
330
1DDB5
100
AcDbEntity
  8
DEFPOINTS
 62
     0
 48
50.0
100
AcDbPoint
 10
8793.599999999996
 20
7432.375394111462
 30
0.0
  0
POINT
  5
211B7
330
1DDB5
100
AcDbEntity
  8
DEFPOINTS
 62
     0
 48
50.0
100
AcDbPoint
 10
8913.599999999989
 20
7401.974609368214
 30
0.0
  0
POINT
  5
211B8
330
1DDB5
100
AcDbEntity
  8
DEFPOINTS
 62
     0
 48
50.0
100
AcDbPoint
 10
8913.599999999989
 20
7261.573824624966
 30
0.0
  0
ENDBLK
  5
1DDC1
330
1DDB5
100
AcDbEntity
  8
0
 48
50.0
100
AcDbBlockEnd
  0
BLOCK
  5
1DDCB
330
1DDC2
100
AcDbEntity
  8
0
 48
50.0
100
AcDbBlockBegin
  2
*D25
 70
     1
 10
0.0
 20
0.0
 30
0.0
  3
*D25
  1

  0
LINE
  5
1F626
330
1DDC2
100
AcDbEntity
  8
寸法
 62
     0
 48
50.0
370
    -2
100
AcDbLine
 10
8913.6
 20
7682.375394111462
 30
0.0
 11
8913.6
 21
8738.509966973783
 31
0.0
  0
LINE
  5
1F627
330
1DDC2
100
AcDbEntity
  8
寸法
 62
     0
 48
50.0
370
    -2
100
AcDbLine
 10
7533.599999999999
 20
7682.375394111462
 30
0.0
 11
7533.599999999999
 21
8738.509966973783
 31
0.0
  0
LINE
  5
1F628
330
1DDC2
100
AcDbEntity
  8
寸法
 62
     0
 48
50.0
370
    -2
100
AcDbLine
 10
8913.6
 20
8678.509966973782
 30
0.0
 11
7533.599999999999
 21
8678.509966973782
 31
0.0
  0
INSERT
  5
1F629
330
1DDC2
100
AcDbEntity
  8
寸法
 62
     0
 48
50.0
370
    -2
100
AcDbBlockReference
  2
_DOTSMALL
 10
8913.6
 20
8678.509966973782
 30
0.0
 41
100.0
 42
100.0
 43
100.0
  0
INSERT
  5
1F62A
330
1DDC2
100
AcDbEntity
  8
寸法
 62
     0
 48
50.0
370
    -2
100
AcDbBlockReference
  2
_DOTSMALL
 10
7533.599999999999
 20
8678.509966973782
 30
0.0
 41
100.0
 42
100.0
 43
100.0
 50
180.0
  0
MTEXT
  5
1F62B
330
1DDC2
100
AcDbEntity
  8
寸法
 62
     7
 48
50.0
100
AcDbMText
 10
8223.600000000001
 20
8778.509966973784
 30
0.0
 40
120.0
 41
0.0
 71
     5
 72
     1
  1
\A1;1380
  7
STYLE1
 73
     1
 44
1.0
1001
ACAD
1000
MTEXTBEGIN
1070
    73
1070
     1
1070
    44
1040
1.0
1070
    74
1070
     0
1000
MTEXTEND
  0
POINT
  5
1F62C
330
1DDC2
100
AcDbEntity
  8
DEFPOINTS
 62
     0
 48
50.0
100
AcDbPoint
 10
8913.6
 20
7662.375394111461
 30
0.0
  0
POINT
  5
1F62D
330
1DDC2
100
AcDbEntity
  8
DEFPOINTS
 62
     0
 48
50.0
100
AcDbPoint
 10
7533.599999999999
 20
7662.375394111461
 30
0.0
  0
POINT
  5
1F62E
330
1DDC2
100
AcDbEntity
  8
DEFPOINTS
 62
     0
 48
50.0
100
AcDbPoint
 10
7533.599999999999
 20
8678.509966973782
 30
0.0
  0
ENDBLK
  5
1DDCC
330
1DDC2
100
AcDbEntity
  8
0
 48
50.0
100
AcDbBlockEnd
  0
BLOCK
  5
1DDD7
330
1DDCD
100
AcDbEntity
  8
0
 48
50.0
100
AcDbBlockBegin
  2
*D26
 70
     1
 10
0.0
 20
0.0
 30
0.0
  3
*D26
  1

  0
LINE
  5
1F61D
330
1DDCD
100
AcDbEntity
  8
寸法
 62
     0
 48
50.0
370
    -2
100
AcDbLine
 10
7656.6
 20
7609.375394111463
 30
0.0
 11
7656.6
 21
8493.017164835816
 31
0.0
  0
LINE
  5
1F61E
330
1DDCD
100
AcDbEntity
  8
寸法
 62
     0
 48
50.0
370
    -2
100
AcDbLine
 10
8790.599999999999
 20
7609.375394111456
 30
0.0
 11
8790.599999999999
 21
8493.017164835816
 31
0.0
  0
LINE
  5
1F61F
330
1DDCD
100
AcDbEntity
  8
寸法
 62
     0
 48
50.0
370
    -2
100
AcDbLine
 10
7656.6
 20
8433.017164835815
 30
0.0
 11
8790.599999999999
 21
8433.017164835815
 31
0.0
  0
INSERT
  5
1F620
330
1DDCD
100
AcDbEntity
  8
寸法
 62
     0
 48
50.0
370
    -2
100
AcDbBlockReference
  2
_DOTSMALL
 10
7656.6
 20
8433.017164835815
 30
0.0
 41
100.0
 42
100.0
 43
100.0
 50
180.0
  0
INSERT
  5
1F621
330
1DDCD
100
AcDbEntity
  8
寸法
 62
     0
 48
50.0
370
    -2
100
AcDbBlockReference
  2
_DOTSMALL
 10
8790.599999999999
 20
8433.017164835815
 30
0.0
 41
100.0
 42
100.0
 43
100.0
  0
MTEXT
  5
1F622
330
1DDCD
100
AcDbEntity
  8
寸法
 62
     7
 48
50.0
100
AcDbMText
 10
8223.599999999999
 20
8533.017164835817
 30
0.0
 40
120.0
 41
0.0
 71
     5
 72
     1
  1
\A1;1134
  7
STYLE1
 73
     1
 44
1.0
1001
ACAD
1000
MTEXTBEGIN
1070
    73
1070
     1
1070
    44
1040
1.0
1070
    74
1070
     0
1000
MTEXTEND
  0
POINT
  5
1F623
330
1DDCD
100
AcDbEntity
  8
DEFPOINTS
 62
     0
 48
50.0
100
AcDbPoint
 10
7656.6
 20
7589.375394111463
 30
0.0
  0
POINT
  5
1F624
330
1DDCD
100
AcDbEntity
  8
DEFPOINTS
 62
     0
 48
50.0
100
AcDbPoint
 10
8790.599999999999
 20
7589.375394111455
 30
0.0
  0
POINT
  5
1F625
330
1DDCD
100
AcDbEntity
  8
DEFPOINTS
 62
     0
 48
50.0
100
AcDbPoint
 10
8790.599999999999
 20
8433.017164835815
 30
0.0
  0
ENDBLK
  5
1DDD8
330
1DDCD
100
AcDbEntity
  8
0
 48
50.0
100
AcDbBlockEnd
  0
BLOCK
  5
1DDEE
330
1DDE3
100
AcDbEntity
  8
0
 48
50.0
100
AcDbBlockBegin
  2
*D27
 70
     1
 10
0.0
 20
0.0
 30
0.0
  3
*D27
  1

  0
LINE
  5
21187
330
1DDE3
100
AcDbEntity
  8
寸法
 62
     0
 48
50.0
370
    -2
100
AcDbLine
 10
8793.599999999996
 20
7412.375394111461
 30
0.0
 11
8793.599999999996
 21
7201.573824624967
 31
0.0
  0
LINE
  5
21188
330
1DDE3
100
AcDbEntity
  8
寸法
 62
     0
 48
50.0
370
    -2
100
AcDbLine
 10
8683.599999999996
 20
7412.375394111461
 30
0.0
 11
8683.599999999996
 21
7201.573824624967
 31
0.0
  0
LINE
  5
21189
330
1DDE3
100
AcDbEntity
  8
寸法
 62
     0
 48
50.0
370
    -2
100
AcDbLine
 10
8793.599999999996
 20
7261.573824624966
 30
0.0
 11
8683.599999999996
 21
7261.573824624966
 31
0.0
  0
LINE
  5
2118A
330
1DDE3
100
AcDbEntity
  8
寸法
 62
     0
 48
50.0
370
    -2
100
AcDbLine
 10
8683.599999999996
 20
7261.573824624966
 30
0.0
 11
8288.796146023541
 21
7261.573824624966
 31
0.0
  0
INSERT
  5
2118B
330
1DDE3
100
AcDbEntity
  8
寸法
 62
     0
 48
50.0
370
    -2
100
AcDbBlockReference
  2
_DOTSMALL
 10
8793.599999999996
 20
7261.573824624966
 30
0.0
 41
100.0
 42
100.0
 43
100.0
  0
INSERT
  5
2118C
330
1DDE3
100
AcDbEntity
  8
寸法
 62
     0
 48
50.0
370
    -2
100
AcDbBlockReference
  2
_DOTSMALL
 10
8683.599999999996
 20
7261.573824624966
 30
0.0
 41
100.0
 42
100.0
 43
100.0
 50
180.0
  0
MTEXT
  5
2118D
330
1DDE3
100
AcDbEntity
  8
寸法
 62
     7
 48
50.0
100
AcDbMText
 10
8412.843390118029
 20
7361.573824624966
 30
0.0
 40
120.0
 41
0.0
 71
     5
 72
     1
  1
\A1;110
  7
STYLE1
 73
     1
 44
1.0
1001
ACAD
1000
MTEXTBEGIN
1070
    73
1070
     1
1070
    44
1040
1.0
1070
    74
1070
     0
1000
MTEXTEND
  0
POINT
  5
2118E
330
1DDE3
100
AcDbEntity
  8
DEFPOINTS
 62
     0
 48
50.0
100
AcDbPoint
 10
8793.599999999996
 20
7432.375394111462
 30
0.0
  0
POINT
  5
2118F
330
1DDE3
100
AcDbEntity
  8
DEFPOINTS
 62
     0
 48
50.0
100
AcDbPoint
 10
8683.599999999996
 20
7432.375394111462
 30
0.0
  0
POINT
  5
21190
330
1DDE3
100
AcDbEntity
  8
DEFPOINTS
 62
     0
 48
50.0
100
AcDbPoint
 10
8683.599999999996
 20
7261.573824624966
 30
0.0
  0
ENDBLK
  5
1DDEF
330
1DDE3
100
AcDbEntity
  8
0
 48
50.0
100
AcDbBlockEnd
  0
BLOCK
  5
1DDFB
330
1DDF0
100
AcDbEntity
  8
0
 48
50.0
100
AcDbBlockBegin
  2
*D28
 70
     1
 10
0.0
 20
0.0
 30
0.0
  3
*D28
  1

  0
LINE
  5
1F613
330
1DDF0
100
AcDbEntity
  8
寸法
 62
     0
 48
50.0
370
    -2
100
AcDbLine
 10
7533.599999999999
 20
7682.375394111462
 30
0.0
 11
7533.599999999999
 21
8493.017164835816
 31
0.0
  0
LINE
  5
1F614
330
1DDF0
100
AcDbEntity
  8
寸法
 62
     0
 48
50.0
370
    -2
100
AcDbLine
 10
7656.6
 20
7609.375394111463
 30
0.0
 11
7656.6
 21
8493.017164835816
 31
0.0
  0
LINE
  5
1F615
330
1DDF0
100
AcDbEntity
  8
寸法
 62
     0
 48
50.0
370
    -2
100
AcDbLine
 10
7656.6
 20
8433.017164835815
 30
0.0
 11
7533.599999999999
 21
8433.017164835815
 31
0.0
  0
LINE
  5
1F616
330
1DDF0
100
AcDbEntity
  8
寸法
 62
     0
 48
50.0
370
    -2
100
AcDbLine
 10
7533.599999999999
 20
8433.017164835815
 30
0.0
 11
7082.008116907963
 21
8433.017164835815
 31
0.0
  0
INSERT
  5
1F617
330
1DDF0
100
AcDbEntity
  8
寸法
 62
     0
 48
50.0
370
    -2
100
AcDbBlockReference
  2
_DOTSMALL
 10
7656.6
 20
8433.017164835815
 30
0.0
 41
100.0
 42
100.0
 43
100.0
  0
INSERT
  5
1F618
330
1DDF0
100
AcDbEntity
  8
寸法
 62
     0
 48
50.0
370
    -2
100
AcDbBlockReference
  2
_DOTSMALL
 10
7533.599999999999
 20
8433.017164835815
 30
0.0
 41
100.0
 42
100.0
 43
100.0
 50
180.0
  0
MTEXT
  5
1F619
330
1DDF0
100
AcDbEntity
  8
寸法
 62
     7
 48
50.0
100
AcDbMText
 10
7220.493398282203
 20
8533.028975859437
 30
0.0
 40
120.0
 41
0.0
 71
     5
 72
     1
  1
\A1;123
  7
STYLE1
 73
     1
 44
1.0
1001
ACAD
1000
MTEXTBEGIN
1070
    73
1070
     1
1070
    44
1040
1.0
1070
    74
1070
     0
1000
MTEXTEND
  0
POINT
  5
1F61A
330
1DDF0
100
AcDbEntity
  8
DEFPOINTS
 62
     0
 48
50.0
100
AcDbPoint
 10
7533.599999999999
 20
7662.375394111461
 30
0.0
  0
POINT
  5
1F61B
330
1DDF0
100
AcDbEntity
  8
DEFPOINTS
 62
     0
 48
50.0
100
AcDbPoint
 10
7656.6
 20
7589.375394111463
 30
0.0
  0
POINT
  5
1F61C
330
1DDF0
100
AcDbEntity
  8
DEFPOINTS
 62
     0
 48
50.0
100
AcDbPoint
 10
7656.6
 20
8433.017164835815
 30
0.0
  0
ENDBLK
  5
1DDFC
330
1DDF0
100
AcDbEntity
  8
0
 48
50.0
100
AcDbBlockEnd
  0
BLOCK
  5
1DE13
330
1DE09
100
AcDbEntity
  8
0
 48
50.0
100
AcDbBlockBegin
  2
*D29
 70
     1
 10
0.0
 20
0.0
 30
0.0
  3
*D29
  1

  0
LINE
  5
1F6AD
330
1DE09
100
AcDbEntity
  8
寸法
 62
     0
 48
50.0
370
    -2
100
AcDbLine
 10
7513.600000000001
 20
5862.375394111462
 30
0.0
 11
6946.690234351674
 21
5862.375394111462
 31
0.0
  0
LINE
  5
1F6AE
330
1DE09
100
AcDbEntity
  8
寸法
 62
     0
 48
50.0
370
    -2
100
AcDbLine
 10
8103.6
 20
6762.375394111462
 30
0.0
 11
6946.690234351675
 21
6762.375394111462
 31
0.0
  0
LINE
  5
1F6AF
330
1DE09
100
AcDbEntity
  8
寸法
 62
     0
 48
50.0
370
    -2
100
AcDbLine
 10
7006.690234351674
 20
5862.375394111462
 30
0.0
 11
7006.690234351674
 21
6762.375394111462
 31
0.0
  0
INSERT
  5
1F6B0
330
1DE09
100
AcDbEntity
  8
寸法
 62
     0
 48
50.0
370
    -2
100
AcDbBlockReference
  2
_DOTSMALL
 10
7006.690234351674
 20
5862.375394111462
 30
0.0
 41
100.0
 42
100.0
 43
100.0
 50
270.0
  0
INSERT
  5
1F6B1
330
1DE09
100
AcDbEntity
  8
寸法
 62
     0
 48
50.0
370
    -2
100
AcDbBlockReference
  2
_DOTSMALL
 10
7006.690234351674
 20
6762.375394111462
 30
0.0
 41
100.0
 42
100.0
 43
100.0
 50
90.0
  0
MTEXT
  5
1F6B2
330
1DE09
100
AcDbEntity
  8
寸法
 62
     7
 48
50.0
100
AcDbMText
 10
6906.690234351673
 20
6291.456872105182
 30
0.0
 40
120.0
 41
0.0
 71
     5
 72
     1
  1
\A1;900
  7
STYLE1
 11
0.0000000000000001
 21
1.0
 31
0.0
 73
     1
 44
1.0
1001
ACAD
1000
MTEXTBEGIN
1070
    73
1070
     1
1070
    44
1040
1.0
1070
    74
1070
     0
1000
MTEXTEND
  0
POINT
  5
1F6B3
330
1DE09
100
AcDbEntity
  8
DEFPOINTS
 62
     0
 48
50.0
100
AcDbPoint
 10
7533.600000000001
 20
5862.375394111462
 30
0.0
  0
POINT
  5
1F6B4
330
1DE09
100
AcDbEntity
  8
DEFPOINTS
 62
     0
 48
50.0
100
AcDbPoint
 10
8123.600000000001
 20
6762.375394111462
 30
0.0
  0
POINT
  5
1F6B5
330
1DE09
100
AcDbEntity
  8
DEFPOINTS
 62
     0
 48
50.0
100
AcDbPoint
 10
7006.690234351674
 20
6762.375394111462
 30
0.0
  0
ENDBLK
  5
1DE14
330
1DE09
100
AcDbEntity
  8
0
 48
50.0
100
AcDbBlockEnd
  0
BLOCK
  5
1DE2D
330
1DE22
100
AcDbEntity
  8
0
 48
50.0
100
AcDbBlockBegin
  2
*D30
 70
     1
 10
0.0
 20
0.0
 30
0.0
  3
*D30
  1

  0
LINE
  5
1F546
330
1DE22
100
AcDbEntity
  8
寸法
 62
     0
 48
50.0
370
    -2
100
AcDbLine
 10
7513.600000000001
 20
5862.375394111462
 30
0.0
 11
6727.840373457919
 21
5862.375394111462
 31
0.0
  0
LINE
  5
1F547
330
1DE22
100
AcDbEntity
  8
寸法
 62
     0
 48
50.0
370
    -2
100
AcDbLine
 10
7586.600000000001
 20
5985.375394111462
 30
0.0
 11
6727.840373457919
 21
5985.375394111462
 31
0.0
  0
LINE
  5
1F548
330
1DE22
100
AcDbEntity
  8
寸法
 62
     0
 48
50.0
370
    -2
100
AcDbLine
 10
6787.840373457919
 20
5985.375394111462
 30
0.0
 11
6787.840373457919
 21
5862.375394111462
 31
0.0
  0
LINE
  5
1F549
330
1DE22
100
AcDbEntity
  8
寸法
 62
     0
 48
50.0
370
    -2
100
AcDbLine
 10
6787.840373457919
 20
5862.375394111462
 30
0.0
 11
6787.840373457919
 21
5450.783511019423
 31
0.0
  0
INSERT
  5
1F54A
330
1DE22
100
AcDbEntity
  8
寸法
 62
     0
 48
50.0
370
    -2
100
AcDbBlockReference
  2
_DOTSMALL
 10
6787.840373457919
 20
5985.375394111462
 30
0.0
 41
100.0
 42
100.0
 43
100.0
 50
90.0
  0
INSERT
  5
1F54B
330
1DE22
100
AcDbEntity
  8
寸法
 62
     0
 48
50.0
370
    -2
100
AcDbBlockReference
  2
_DOTSMALL
 10
6787.840373457919
 20
5862.375394111462
 30
0.0
 41
100.0
 42
100.0
 43
100.0
 50
270.0
  0
MTEXT
  5
1F54C
330
1DE22
100
AcDbEntity
  8
寸法
 62
     7
 48
50.0
100
AcDbMText
 10
6687.828562434297
 20
5589.268792393664
 30
0.0
 40
120.0
 41
0.0
 71
     5
 72
     1
  1
\A1;123
  7
STYLE1
 11
0.0000000000000001
 21
1.0
 31
0.0
 73
     1
 44
1.0
1001
ACAD
1000
MTEXTBEGIN
1070
    73
1070
     1
1070
    44
1040
1.0
1070
    74
1070
     0
1000
MTEXTEND
  0
POINT
  5
1F54D
330
1DE22
100
AcDbEntity
  8
DEFPOINTS
 62
     0
 48
50.0
100
AcDbPoint
 10
7533.600000000001
 20
5862.375394111462
 30
0.0
  0
POINT
  5
1F54E
330
1DE22
100
AcDbEntity
  8
DEFPOINTS
 62
     0
 48
50.0
100
AcDbPoint
 10
7606.600000000002
 20
5985.375394111462
 30
0.0
  0
POINT
  5
1F54F
330
1DE22
100
AcDbEntity
  8
DEFPOINTS
 62
     0
 48
50.0
100
AcDbPoint
 10
6787.840373457919
 20
5985.375394111462
 30
0.0
  0
ENDBLK
  5
1DE2E
330
1DE22
100
AcDbEntity
  8
0
 48
50.0
100
AcDbBlockEnd
  0
BLOCK
  5
1DE3A
330
1DE2F
100
AcDbEntity
  8
0
 48
50.0
100
AcDbBlockBegin
  2
*D31
 70
     1
 10
0.0
 20
0.0
 30
0.0
  3
*D31
  1

  0
LINE
  5
211C3
330
1DE2F
100
AcDbEntity
  8
寸法
 62
     0
 48
50.0
370
    -2
100
AcDbLine
 10
7783.600000000001
 20
5787.375394111462
 30
0.0
 11
8052.938460046267
 21
5787.375394111462
 31
0.0
  0
LINE
  5
211C4
330
1DE2F
100
AcDbEntity
  8
寸法
 62
     0
 48
50.0
370
    -2
100
AcDbLine
 10
7783.600000000003
 20
5982.375394111445
 30
0.0
 11
8052.938460046267
 21
5982.375394111445
 31
0.0
  0
LINE
  5
211C5
330
1DE2F
100
AcDbEntity
  8
寸法
 62
     0
 48
50.0
370
    -2
100
AcDbLine
 10
7992.938460046267
 20
5982.375394111445
 30
0.0
 11
7992.938460046267
 21
5787.375394111462
 31
0.0
  0
LINE
  5
211C6
330
1DE2F
100
AcDbEntity
  8
寸法
 62
     0
 48
50.0
370
    -2
100
AcDbLine
 10
7992.938460046267
 20
5787.375394111462
 30
0.0
 11
7992.938460046267
 21
5409.985511703672
 31
0.0
  0
INSERT
  5
211C7
330
1DE2F
100
AcDbEntity
  8
寸法
 62
     0
 48
50.0
370
    -2
100
AcDbBlockReference
  2
_DOTSMALL
 10
7992.938460046267
 20
5982.375394111445
 30
0.0
 41
100.0
 42
100.0
 43
100.0
 50
90.0
  0
INSERT
  5
211C8
330
1DE2F
100
AcDbEntity
  8
寸法
 62
     0
 48
50.0
370
    -2
100
AcDbBlockReference
  2
_DOTSMALL
 10
7992.938460046267
 20
5787.375394111462
 30
0.0
 41
100.0
 42
100.0
 43
100.0
 50
270.0
  0
MTEXT
  5
211C9
330
1DE2F
100
AcDbEntity
  8
寸法
 62
     7
 48
50.0
100
AcDbMText
 10
7892.938460046265
 20
5548.680452907568
 30
0.0
 40
120.0
 41
0.0
 71
     5
 72
     1
  1
\A1;195
  7
STYLE1
 11
0.0000000000000001
 21
1.0
 31
0.0
 73
     1
 44
1.0
1001
ACAD
1000
MTEXTBEGIN
1070
    73
1070
     1
1070
    44
1040
1.0
1070
    74
1070
     0
1000
MTEXTEND
  0
POINT
  5
211CA
330
1DE2F
100
AcDbEntity
  8
DEFPOINTS
 62
     0
 48
50.0
100
AcDbPoint
 10
7763.600000000001
 20
5787.375394111462
 30
0.0
  0
POINT
  5
211CB
330
1DE2F
100
AcDbEntity
  8
DEFPOINTS
 62
     0
 48
50.0
100
AcDbPoint
 10
7763.600000000003
 20
5982.375394111445
 30
0.0
  0
POINT
  5
211CC
330
1DE2F
100
AcDbEntity
  8
DEFPOINTS
 62
     0
 48
50.0
100
AcDbPoint
 10
7992.938460046267
 20
5982.375394111445
 30
0.0
  0
ENDBLK
  5
1DE3B
330
1DE2F
100
AcDbEntity
  8
0
 48
50.0
100
AcDbBlockEnd
  0
BLOCK
  5
1DE45
330
1DE3C
100
AcDbEntity
  8
0
 48
50.0
100
AcDbBlockBegin
  2
*D32
 70
     1
 10
0.0
 20
0.0
 30
0.0
  3
*D32
  1

  0
LINE
  5
1F6C8
330
1DE3C
100
AcDbEntity
  8
寸法
 62
     0
 48
50.0
370
    -2
100
AcDbLine
 10
8223.600000000001
 20
6882.375394111462
 30
0.0
 11
8223.600000000001
 21
8252.688586008066
 31
0.0
  0
LINE
  5
1F6C9
330
1DE3C
100
AcDbEntity
  8
寸法
 62
     0
 48
50.0
370
    -2
100
AcDbLine
 10
7533.599999999999
 20
7681.763289968571
 30
0.0
 11
7533.599999999999
 21
8252.688586008066
 31
0.0
  0
LINE
  5
1F6CA
330
1DE3C
100
AcDbEntity
  8
寸法
 62
     0
 48
50.0
370
    -2
100
AcDbLine
 10
8223.600000000001
 20
8192.688586008065
 30
0.0
 11
7533.599999999999
 21
8192.688586008065
 31
0.0
  0
INSERT
  5
1F6CB
330
1DE3C
100
AcDbEntity
  8
寸法
 62
     0
 48
50.0
370
    -2
100
AcDbBlockReference
  2
_DOTSMALL
 10
8223.600000000001
 20
8192.688586008065
 30
0.0
 41
100.0
 42
100.0
 43
100.0
  0
INSERT
  5
1F6CC
330
1DE3C
100
AcDbEntity
  8
寸法
 62
     0
 48
50.0
370
    -2
100
AcDbBlockReference
  2
_DOTSMALL
 10
7533.599999999999
 20
8192.688586008065
 30
0.0
 41
100.0
 42
100.0
 43
100.0
 50
180.0
  0
MTEXT
  5
1F6CD
330
1DE3C
100
AcDbEntity
  8
寸法
 62
     7
 48
50.0
100
AcDbMText
 10
7878.6
 20
8292.688586008067
 30
0.0
 40
120.0
 41
0.0
 71
     5
 72
     1
  1
\A1;690
  7
STYLE1
 73
     1
 44
1.0
1001
ACAD
1000
MTEXTBEGIN
1070
    73
1070
     1
1070
    44
1040
1.0
1070
    74
1070
     0
1000
MTEXTEND
  0
POINT
  5
1F6CE
330
1DE3C
100
AcDbEntity
  8
DEFPOINTS
 62
     0
 48
50.0
100
AcDbPoint
 10
8223.600000000001
 20
6862.375394111461
 30
0.0
  0
POINT
  5
1F6CF
330
1DE3C
100
AcDbEntity
  8
DEFPOINTS
 62
     0
 48
50.0
100
AcDbPoint
 10
7533.599999999999
 20
7661.76328996857
 30
0.0
  0
POINT
  5
1F6D0
330
1DE3C
100
AcDbEntity
  8
DEFPOINTS
 62
     0
 48
50.0
100
AcDbPoint
 10
7533.599999999999
 20
8192.688586008065
 30
0.0
  0
ENDBLK
  5
1DE46
330
1DE3C
100
AcDbEntity
  8
0
 48
50.0
100
AcDbBlockEnd
  0
BLOCK
  5
1DE52
330
1DE47
100
AcDbEntity
  8
0
 48
50.0
100
AcDbBlockBegin
  2
*D33
 70
     1
 10
0.0
 20
0.0
 30
0.0
  3
*D33
  1

  0
LINE
  5
211B9
330
1DE47
100
AcDbEntity
  8
寸法
 62
     0
 48
50.0
370
    -2
100
AcDbLine
 10
7783.600000000001
 20
5982.375394111461
 30
0.0
 11
8052.938460046267
 21
5982.375394111461
 31
0.0
  0
LINE
  5
211BA
330
1DE47
100
AcDbEntity
  8
寸法
 62
     0
 48
50.0
370
    -2
100
AcDbLine
 10
7783.600000000003
 20
6092.375394111462
 30
0.0
 11
8052.938460046267
 21
6092.375394111462
 31
0.0
  0
LINE
  5
211BB
330
1DE47
100
AcDbEntity
  8
寸法
 62
     0
 48
50.0
370
    -2
100
AcDbLine
 10
7992.938460046267
 20
5982.375394111461
 30
0.0
 11
7992.938460046267
 21
6092.375394111462
 31
0.0
  0
LINE
  5
211BC
330
1DE47
100
AcDbEntity
  8
寸法
 62
     0
 48
50.0
370
    -2
100
AcDbLine
 10
7992.938460046267
 20
6092.375394111462
 30
0.0
 11
7992.938460046267
 21
6452.469882300438
 31
0.0
  0
INSERT
  5
211BD
330
1DE47
100
AcDbEntity
  8
寸法
 62
     0
 48
50.0
370
    -2
100
AcDbBlockReference
  2
_DOTSMALL
 10
7992.938460046267
 20
5982.375394111461
 30
0.0
 41
100.0
 42
100.0
 43
100.0
 50
270.0
  0
INSERT
  5
211BE
330
1DE47
100
AcDbEntity
  8
寸法
 62
     0
 48
50.0
370
    -2
100
AcDbBlockReference
  2
_DOTSMALL
 10
7992.938460046267
 20
6092.375394111462
 30
0.0
 41
100.0
 42
100.0
 43
100.0
 50
90.0
  0
MTEXT
  5
211BF
330
1DE47
100
AcDbEntity
  8
寸法
 62
     7
 48
50.0
100
AcDbMText
 10
7892.938460046265
 20
6328.422638205951
 30
0.0
 40
120.0
 41
0.0
 71
     5
 72
     1
  1
\A1;110
  7
STYLE1
 11
0.0000000000000001
 21
1.0
 31
0.0
 73
     1
 44
1.0
1001
ACAD
1000
MTEXTBEGIN
1070
    73
1070
     1
1070
    44
1040
1.0
1070
    74
1070
     0
1000
MTEXTEND
  0
POINT
  5
211C0
330
1DE47
100
AcDbEntity
  8
DEFPOINTS
 62
     0
 48
50.0
100
AcDbPoint
 10
7763.600000000001
 20
5982.375394111461
 30
0.0
  0
POINT
  5
211C1
330
1DE47
100
AcDbEntity
  8
DEFPOINTS
 62
     0
 48
50.0
100
AcDbPoint
 10
7763.600000000003
 20
6092.375394111462
 30
0.0
  0
POINT
  5
211C2
330
1DE47
100
AcDbEntity
  8
DEFPOINTS
 62
     0
 48
50.0
100
AcDbPoint
 10
7992.938460046267
 20
6092.375394111462
 30
0.0
  0
ENDBLK
  5
1DE53
330
1DE47
100
AcDbEntity
  8
0
 48
50.0
100
AcDbBlockEnd
  0
BLOCK
  5
1DE5E
330
1DE54
100
AcDbEntity
  8
0
 48
50.0
100
AcDbBlockBegin
  2
*D34
 70
     1
 10
0.0
 20
0.0
 30
0.0
  3
*D34
  1

  0
LINE
  5
1F6BF
330
1DE54
100
AcDbEntity
  8
寸法
 62
     0
 48
50.0
370
    -2
100
AcDbLine
 10
8913.599999999989
 20
7682.375394111462
 30
0.0
 11
8913.599999999989
 21
8252.688586008066
 31
0.0
  0
LINE
  5
1F6C0
330
1DE54
100
AcDbEntity
  8
寸法
 62
     0
 48
50.0
370
    -2
100
AcDbLine
 10
8223.600000000001
 20
6882.375394111462
 30
0.0
 11
8223.600000000001
 21
8252.688586008066
 31
0.0
  0
LINE
  5
1F6C1
330
1DE54
100
AcDbEntity
  8
寸法
 62
     0
 48
50.0
370
    -2
100
AcDbLine
 10
8913.599999999989
 20
8192.688586008065
 30
0.0
 11
8223.600000000001
 21
8192.688586008065
 31
0.0
  0
INSERT
  5
1F6C2
330
1DE54
100
AcDbEntity
  8
寸法
 62
     0
 48
50.0
370
    -2
100
AcDbBlockReference
  2
_DOTSMALL
 10
8913.599999999989
 20
8192.688586008065
 30
0.0
 41
100.0
 42
100.0
 43
100.0
  0
INSERT
  5
1F6C3
330
1DE54
100
AcDbEntity
  8
寸法
 62
     0
 48
50.0
370
    -2
100
AcDbBlockReference
  2
_DOTSMALL
 10
8223.600000000001
 20
8192.688586008065
 30
0.0
 41
100.0
 42
100.0
 43
100.0
 50
180.0
  0
MTEXT
  5
1F6C4
330
1DE54
100
AcDbEntity
  8
寸法
 62
     7
 48
50.0
100
AcDbMText
 10
8638.127837399094
 20
8292.688586008067
 30
0.0
 40
120.0
 41
0.0
 71
     5
 72
     1
  1
\A1;690
  7
STYLE1
 73
     1
 44
1.0
1001
ACAD
1000
MTEXTBEGIN
1070
    73
1070
     1
1070
    44
1040
1.0
1070
    74
1070
     0
1000
MTEXTEND
  0
POINT
  5
1F6C5
330
1DE54
100
AcDbEntity
  8
DEFPOINTS
 62
     0
 48
50.0
100
AcDbPoint
 10
8913.599999999989
 20
7662.375394111461
 30
0.0
  0
POINT
  5
1F6C6
330
1DE54
100
AcDbEntity
  8
DEFPOINTS
 62
     0
 48
50.0
100
AcDbPoint
 10
8223.600000000001
 20
6862.375394111461
 30
0.0
  0
POINT
  5
1F6C7
330
1DE54
100
AcDbEntity
  8
DEFPOINTS
 62
     0
 48
50.0
100
AcDbPoint
 10
8223.600000000001
 20
8192.688586008065
 30
0.0
  0
ENDBLK
  5
1DE5F
330
1DE54
100
AcDbEntity
  8
0
 48
50.0
100
AcDbBlockEnd
  0
BLOCK
  5
1E96F
330
1E963
100
AcDbEntity
  8
0
 48
50.0
100
AcDbBlockBegin
  2
*D35
 70
     1
 10
0.0
 20
0.0
 30
0.0
  3
*D35
  1

  0
LINE
  5
20055
330
1E963
100
AcDbEntity
  8
寸法
 62
     0
 48
50.0
370
    -2
100
AcDbLine
 10
7513.600000000001
 20
5787.375394111449
 30
0.0
 11
7162.886924528547
 21
5787.375394111449
 31
0.0
  0
LINE
  5
20056
330
1E963
100
AcDbEntity
  8
寸法
 62
     0
 48
50.0
370
    -2
100
AcDbLine
 10
7513.600000000001
 20
5862.375394111447
 30
0.0
 11
7162.886924528547
 21
5862.375394111447
 31
0.0
  0
LINE
  5
20057
330
1E963
100
AcDbEntity
  8
寸法
 62
     0
 48
50.0
370
    -2
100
AcDbLine
 10
7222.886924528546
 20
5862.375394111447
 30
0.0
 11
7222.886924528546
 21
5962.375394111447
 31
0.0
  0
LINE
  5
20058
330
1E963
100
AcDbEntity
  8
寸法
 62
     0
 48
50.0
370
    -2
100
AcDbLine
 10
7222.886924528546
 20
5787.375394111449
 30
0.0
 11
7222.886924528546
 21
4920.404831362969
 31
0.0
  0
LINE
  5
20059
330
1E963
100
AcDbEntity
  8
寸法
 62
     0
 48
50.0
370
    -2
100
AcDbLine
 10
7222.886924528546
 20
5862.375394111447
 30
0.0
 11
7222.886924528546
 21
5787.375394111449
 31
0.0
  0
INSERT
  5
2005A
330
1E963
100
AcDbEntity
  8
寸法
 62
     0
 48
50.0
370
    -2
100
AcDbBlockReference
  2
_DOTSMALL
 10
7222.886924528546
 20
5862.375394111447
 30
0.0
 41
100.0
 42
100.0
 43
100.0
 50
270.0
  0
INSERT
  5
2005B
330
1E963
100
AcDbEntity
  8
寸法
 62
     0
 48
50.0
370
    -2
100
AcDbBlockReference
  2
_DOTSMALL
 10
7222.886924528546
 20
5787.375394111449
 30
0.0
 41
100.0
 42
100.0
 43
100.0
 50
90.0
  0
MTEXT
  5
2005C
330
1E963
100
AcDbEntity
  8
寸法
 62
     7
 48
50.0
100
AcDbMText
 10
7122.886924528547
 20
5253.890112737209
 30
0.0
 40
120.0
 41
0.0
 71
     5
 72
     1
  1
\A1;扉の出75
  7
STYLE1
 11
0.0000000000000001
 21
1.0
 31
0.0
 73
     1
 44
1.0
1001
ACAD
1000
MTEXTBEGIN
1070
    73
1070
     1
1070
    44
1040
1.0
1070
    74
1070
     0
1000
MTEXTEND
  0
POINT
  5
2005D
330
1E963
100
AcDbEntity
  8
DEFPOINTS
 62
     0
 48
50.0
100
AcDbPoint
 10
7533.600000000001
 20
5787.375394111449
 30
0.0
  0
POINT
  5
2005E
330
1E963
100
AcDbEntity
  8
DEFPOINTS
 62
     0
 48
50.0
100
AcDbPoint
 10
7533.600000000001
 20
5862.375394111447
 30
0.0
  0
POINT
  5
2005F
330
1E963
100
AcDbEntity
  8
DEFPOINTS
 62
     0
 48
50.0
100
AcDbPoint
 10
7222.886924528546
 20
5862.375394111447
 30
0.0
  0
ENDBLK
  5
1E970
330
1E963
100
AcDbEntity
  8
0
 48
50.0
100
AcDbBlockEnd
  0
BLOCK
  5
1EEAB
330
1EE9F
100
AcDbEntity
  8
0
 48
50.0
100
AcDbBlockBegin
  2
*D36
 70
     1
 10
0.0
 20
0.0
 30
0.0
  3
*D36
  1

  0
LINE
  5
20CF9
330
1EE9F
100
AcDbEntity
  8
寸法
 62
     0
 48
50.0
370
    -2
100
AcDbLine
 10
7533.599999999999
 20
7681.763289968571
 30
0.0
 11
7533.599999999999
 21
8738.509966973783
 31
0.0
  0
LINE
  5
20CFA
330
1EE9F
100
AcDbEntity
  8
寸法
 62
     0
 48
50.0
370
    -2
100
AcDbLine
 10
7478.600000000013
 20
8453.017164835816
 30
0.0
 11
7478.600000000013
 21
8738.509966973783
 31
0.0
  0
LINE
  5
20CFB
330
1EE9F
100
AcDbEntity
  8
寸法
 62
     0
 48
50.0
370
    -2
100
AcDbLine
 10
7533.599999999999
 20
8678.509966973782
 30
0.0
 11
7633.6
 21
8678.509966973782
 31
0.0
  0
LINE
  5
20CFC
330
1EE9F
100
AcDbEntity
  8
寸法
 62
     0
 48
50.0
370
    -2
100
AcDbLine
 10
7478.600000000013
 20
8678.509966973782
 30
0.0
 11
7378.600000000012
 21
8678.509966973782
 31
0.0
  0
LINE
  5
20CFD
330
1EE9F
100
AcDbEntity
  8
寸法
 62
     0
 48
50.0
370
    -2
100
AcDbLine
 10
7533.599999999999
 20
8678.509966973782
 30
0.0
 11
7478.600000000013
 21
8678.509966973782
 31
0.0
  0
INSERT
  5
20CFE
330
1EE9F
100
AcDbEntity
  8
寸法
 62
     0
 48
50.0
370
    -2
100
AcDbBlockReference
  2
_DOTSMALL
 10
7533.599999999999
 20
8678.509966973782
 30
0.0
 41
100.0
 42
100.0
 43
100.0
 50
180.0
  0
INSERT
  5
20CFF
330
1EE9F
100
AcDbEntity
  8
寸法
 62
     0
 48
50.0
370
    -2
100
AcDbBlockReference
  2
_DOTSMALL
 10
7478.600000000013
 20
8678.509966973782
 30
0.0
 41
100.0
 42
100.0
 43
100.0
  0
MTEXT
  5
20D00
330
1EE9F
100
AcDbEntity
  8
寸法
 62
     7
 48
50.0
100
AcDbMText
 10
7506.100000000007
 20
8778.509966973784
 30
0.0
 40
120.0
 41
0.0
 71
     5
 72
     1
  1
\A1;b
  7
STYLE1
 73
     1
 44
1.0
1001
ACAD
1000
MTEXTBEGIN
1070
    73
1070
     1
1070
    44
1040
1.0
1070
    74
1070
     0
1000
MTEXTEND
  0
POINT
  5
20D01
330
1EE9F
100
AcDbEntity
  8
DEFPOINTS
 62
     0
 48
50.0
100
AcDbPoint
 10
7533.599999999999
 20
7661.76328996857
 30
0.0
  0
POINT
  5
20D02
330
1EE9F
100
AcDbEntity
  8
DEFPOINTS
 62
     0
 48
50.0
100
AcDbPoint
 10
7478.600000000013
 20
8433.017164835815
 30
0.0
  0
POINT
  5
20D03
330
1EE9F
100
AcDbEntity
  8
DEFPOINTS
 62
     0
 48
50.0
100
AcDbPoint
 10
7478.600000000013
 20
8678.509966973782
 30
0.0
  0
ENDBLK
  5
1EEAC
330
1EE9F
100
AcDbEntity
  8
0
 48
50.0
100
AcDbBlockEnd
  0
BLOCK
  5
1EEEE
330
1EEE2
100
AcDbEntity
  8
0
 48
50.0
100
AcDbBlockBegin
  2
*D37
 70
     1
 10
0.0
 20
0.0
 30
0.0
  3
*D37
  1

  0
LINE
  5
20CB7
330
1EEE2
100
AcDbEntity
  8
寸法
 62
     0
 48
50.0
370
    -2
100
AcDbLine
 10
8988.600000000003
 20
8453.017164835816
 30
0.0
 11
8988.600000000003
 21
8738.509966973783
 31
0.0
  0
LINE
  5
20CB8
330
1EEE2
100
AcDbEntity
  8
寸法
 62
     0
 48
50.0
370
    -2
100
AcDbLine
 10
8913.6
 20
7682.375394111462
 30
0.0
 11
8913.6
 21
8738.509966973783
 31
0.0
  0
LINE
  5
20CB9
330
1EEE2
100
AcDbEntity
  8
寸法
 62
     0
 48
50.0
370
    -2
100
AcDbLine
 10
8988.600000000003
 20
8678.509966973782
 30
0.0
 11
9088.600000000003
 21
8678.509966973782
 31
0.0
  0
LINE
  5
20CBA
330
1EEE2
100
AcDbEntity
  8
寸法
 62
     0
 48
50.0
370
    -2
100
AcDbLine
 10
8913.6
 20
8678.509966973782
 30
0.0
 11
8813.6
 21
8678.509966973782
 31
0.0
  0
LINE
  5
20CBB
330
1EEE2
100
AcDbEntity
  8
寸法
 62
     0
 48
50.0
370
    -2
100
AcDbLine
 10
8988.600000000003
 20
8678.509966973782
 30
0.0
 11
8913.6
 21
8678.509966973782
 31
0.0
  0
INSERT
  5
20CBC
330
1EEE2
100
AcDbEntity
  8
寸法
 62
     0
 48
50.0
370
    -2
100
AcDbBlockReference
  2
_DOTSMALL
 10
8988.600000000003
 20
8678.509966973782
 30
0.0
 41
100.0
 42
100.0
 43
100.0
 50
180.0
  0
INSERT
  5
20CBD
330
1EEE2
100
AcDbEntity
  8
寸法
 62
     0
 48
50.0
370
    -2
100
AcDbBlockReference
  2
_DOTSMALL
 10
8913.6
 20
8678.509966973782
 30
0.0
 41
100.0
 42
100.0
 43
100.0
  0
MTEXT
  5
20CBE
330
1EEE2
100
AcDbEntity
  8
寸法
 62
     7
 48
50.0
100
AcDbMText
 10
8951.100000000002
 20
8778.509966973784
 30
0.0
 40
120.0
 41
0.0
 71
     5
 72
     1
  1
\A1;c
  7
STYLE1
 73
     1
 44
1.0
1001
ACAD
1000
MTEXTBEGIN
1070
    73
1070
     1
1070
    44
1040
1.0
1070
    74
1070
     0
1000
MTEXTEND
  0
POINT
  5
20CBF
330
1EEE2
100
AcDbEntity
  8
DEFPOINTS
 62
     0
 48
50.0
100
AcDbPoint
 10
8988.600000000003
 20
8433.017164835815
 30
0.0
  0
POINT
  5
20CC0
330
1EEE2
100
AcDbEntity
  8
DEFPOINTS
 62
     0
 48
50.0
100
AcDbPoint
 10
8913.6
 20
7662.375394111461
 30
0.0
  0
POINT
  5
20CC1
330
1EEE2
100
AcDbEntity
  8
DEFPOINTS
 62
     0
 48
50.0
100
AcDbPoint
 10
8913.6
 20
8678.509966973782
 30
0.0
  0
ENDBLK
  5
1EEEF
330
1EEE2
100
AcDbEntity
  8
0
 48
50.0
100
AcDbBlockEnd
  0
BLOCK
  5
1EF78
330
1EF6C
100
AcDbEntity
  8
0
 48
50.0
100
AcDbBlockBegin
  2
*D38
 70
     1
 10
0.0
 20
0.0
 30
0.0
  3
*D38
  1

  0
LINE
  5
20D8D
330
1EF6C
100
AcDbEntity
  8
寸法
 62
     0
 48
50.0
370
    -2
100
AcDbLine
 10
7513.600000000001
 20
7662.375394111461
 30
0.0
 11
6515.379677941083
 21
7662.375394111461
 31
0.0
  0
LINE
  5
20D8E
330
1EF6C
100
AcDbEntity
  8
寸法
 62
     0
 48
50.0
370
    -2
100
AcDbLine
 10
6767.840373457918
 20
7707.987498254365
 30
0.0
 11
6515.379677941083
 21
7707.987498254365
 31
0.0
  0
LINE
  5
20D8F
330
1EF6C
100
AcDbEntity
  8
寸法
 62
     0
 48
50.0
370
    -2
100
AcDbLine
 10
6575.379677941082
 20
7662.375394111461
 30
0.0
 11
6575.379677941082
 21
7562.375394111461
 31
0.0
  0
LINE
  5
20D90
330
1EF6C
100
AcDbEntity
  8
寸法
 62
     0
 48
50.0
370
    -2
100
AcDbLine
 10
6575.379677941082
 20
7707.987498254365
 30
0.0
 11
6575.379677941082
 21
8045.33674065928
 31
0.0
  0
LINE
  5
20D91
330
1EF6C
100
AcDbEntity
  8
寸法
 62
     0
 48
50.0
370
    -2
100
AcDbLine
 10
6575.379677941082
 20
7662.375394111461
 30
0.0
 11
6575.379677941082
 21
7707.987498254365
 31
0.0
  0
INSERT
  5
20D92
330
1EF6C
100
AcDbEntity
  8
寸法
 62
     0
 48
50.0
370
    -2
100
AcDbBlockReference
  2
_DOTSMALL
 10
6575.379677941082
 20
7662.375394111461
 30
0.0
 41
100.0
 42
100.0
 43
100.0
 50
90.0
  0
INSERT
  5
20D93
330
1EF6C
100
AcDbEntity
  8
寸法
 62
     0
 48
50.0
370
    -2
100
AcDbBlockReference
  2
_DOTSMALL
 10
6575.379677941082
 20
7707.987498254365
 30
0.0
 41
100.0
 42
100.0
 43
100.0
 50
270.0
  0
MTEXT
  5
20D94
330
1EF6C
100
AcDbEntity
  8
寸法
 62
     7
 48
50.0
100
AcDbMText
 10
6475.379677941082
 20
7979.162119456823
 30
0.0
 40
120.0
 41
0.0
 71
     5
 72
     1
  1
\A1;a
  7
STYLE1
 11
0.0000000000000001
 21
1.0
 31
0.0
 73
     1
 44
1.0
1001
ACAD
1000
MTEXTBEGIN
1070
    73
1070
     1
1070
    44
1040
1.0
1070
    74
1070
     0
1000
MTEXTEND
  0
POINT
  5
20D95
330
1EF6C
100
AcDbEntity
  8
DEFPOINTS
 62
     0
 48
50.0
100
AcDbPoint
 10
7533.599999999999
 20
7662.375394111461
 30
0.0
  0
POINT
  5
20D96
330
1EF6C
100
AcDbEntity
  8
DEFPOINTS
 62
     0
 48
50.0
100
AcDbPoint
 10
6787.840373457918
 20
7707.987498254365
 30
0.0
  0
POINT
  5
20D97
330
1EF6C
100
AcDbEntity
  8
DEFPOINTS
 62
     0
 48
50.0
100
AcDbPoint
 10
6575.379677941082
 20
7707.987498254365
 30
0.0
  0
ENDBLK
  5
1EF79
330
1EF6C
100
AcDbEntity
  8
0
 48
50.0
100
AcDbBlockEnd
  0
BLOCK
  5
1FC0B
330
1FC01
100
AcDbEntity
  8
0
 48
50.0
100
AcDbBlockBegin
  2
*D39
 70
     1
 10
0.0
 20
0.0
 30
0.0
  3
*D39
  1

  0
LINE
  5
1FC16
330
1FC01
100
AcDbEntity
  8
寸法
 62
     0
 48
50.0
370
    -2
100
AcDbLine
 10
8913.599999999984
 20
5767.375394111464
 30
0.0
 11
8913.599999999984
 21
5012.511090687337
 31
0.0
  0
LINE
  5
1FC17
330
1FC01
100
AcDbEntity
  8
寸法
 62
     0
 48
50.0
370
    -2
100
AcDbLine
 10
7533.600000000001
 20
5767.375394111447
 30
0.0
 11
7533.600000000001
 21
5012.511090687337
 31
0.0
  0
LINE
  5
1FC18
330
1FC01
100
AcDbEntity
  8
寸法
 62
     0
 48
50.0
370
    -2
100
AcDbLine
 10
8913.599999999984
 20
5072.511090687337
 30
0.0
 11
7533.600000000001
 21
5072.511090687337
 31
0.0
  0
INSERT
  5
1FC19
330
1FC01
100
AcDbEntity
  8
寸法
 62
     0
 48
50.0
370
    -2
100
AcDbBlockReference
  2
_DOTSMALL
 10
8913.599999999984
 20
5072.511090687337
 30
0.0
 41
100.0
 42
100.0
 43
100.0
  0
INSERT
  5
1FC1A
330
1FC01
100
AcDbEntity
  8
寸法
 62
     0
 48
50.0
370
    -2
100
AcDbBlockReference
  2
_DOTSMALL
 10
7533.600000000001
 20
5072.511090687337
 30
0.0
 41
100.0
 42
100.0
 43
100.0
 50
180.0
  0
MTEXT
  5
1FC1B
330
1FC01
100
AcDbEntity
  8
寸法
 62
     7
 48
50.0
100
AcDbMText
 10
8223.599999999994
 20
5172.511090687336
 30
0.0
 40
120.0
 41
0.0
 71
     5
 72
     1
  1
\A1;扉の幅 1380
  7
STYLE1
 73
     1
 44
1.0
1001
ACAD
1000
MTEXTBEGIN
1070
    73
1070
     1
1070
    44
1040
1.0
1070
    74
1070
     0
1000
MTEXTEND
  0
POINT
  5
1FC1C
330
1FC01
100
AcDbEntity
  8
DEFPOINTS
 62
     0
 48
50.0
100
AcDbPoint
 10
8913.599999999984
 20
5787.375394111464
 30
0.0
  0
POINT
  5
1FC1D
330
1FC01
100
AcDbEntity
  8
DEFPOINTS
 62
     0
 48
50.0
100
AcDbPoint
 10
7533.600000000001
 20
5787.375394111447
 30
0.0
  0
POINT
  5
1FC1E
330
1FC01
100
AcDbEntity
  8
DEFPOINTS
 62
     0
 48
50.0
100
AcDbPoint
 10
7533.600000000001
 20
5072.511090687337
 30
0.0
  0
ENDBLK
  5
1FC0C
330
1FC01
100
AcDbEntity
  8
0
 48
50.0
100
AcDbBlockEnd
  0
BLOCK
  5
20D33
330
20D27
100
AcDbEntity
  8
0
 48
50.0
100
AcDbBlockBegin
  2
*D40
 70
     1
 10
0.0
 20
0.0
 30
0.0
  3
*D40
  1

  0
LINE
  5
20D77
330
20D27
100
AcDbEntity
  8
寸法
 62
     0
 48
50.0
370
    -2
100
AcDbLine
 10
6767.840373457919
 20
5816.763289968561
 30
0.0
 11
6515.379677941081
 21
5816.763289968561
 31
0.0
  0
LINE
  5
20D78
330
20D27
100
AcDbEntity
  8
寸法
 62
     0
 48
50.0
370
    -2
100
AcDbLine
 10
7513.600000000001
 20
5862.375394111462
 30
0.0
 11
6515.379677941081
 21
5862.375394111462
 31
0.0
  0
LINE
  5
20D79
330
20D27
100
AcDbEntity
  8
寸法
 62
     0
 48
50.0
370
    -2
100
AcDbLine
 10
6575.379677941082
 20
5862.375394111462
 30
0.0
 11
6575.379677941082
 21
5962.375394111462
 31
0.0
  0
LINE
  5
20D7A
330
20D27
100
AcDbEntity
  8
寸法
 62
     0
 48
50.0
370
    -2
100
AcDbLine
 10
6575.379677941082
 20
5816.763289968561
 30
0.0
 11
6575.379677941082
 21
5484.414047563642
 31
0.0
  0
LINE
  5
20D7B
330
20D27
100
AcDbEntity
  8
寸法
 62
     0
 48
50.0
370
    -2
100
AcDbLine
 10
6575.379677941082
 20
5862.375394111462
 30
0.0
 11
6575.379677941082
 21
5816.763289968561
 31
0.0
  0
INSERT
  5
20D7C
330
20D27
100
AcDbEntity
  8
寸法
 62
     0
 48
50.0
370
    -2
100
AcDbBlockReference
  2
_DOTSMALL
 10
6575.379677941082
 20
5862.375394111462
 30
0.0
 41
100.0
 42
100.0
 43
100.0
 50
270.0
  0
INSERT
  5
20D7D
330
20D27
100
AcDbEntity
  8
寸法
 62
     0
 48
50.0
370
    -2
100
AcDbBlockReference
  2
_DOTSMALL
 10
6575.379677941082
 20
5816.763289968561
 30
0.0
 41
100.0
 42
100.0
 43
100.0
 50
90.0
  0
MTEXT
  5
20D7E
330
20D27
100
AcDbEntity
  8
寸法
 62
     7
 48
50.0
100
AcDbMText
 10
6475.379677941081
 20
5550.588668766103
 30
0.0
 40
120.0
 41
0.0
 71
     5
 72
     1
  1
\A1;a
  7
STYLE1
 11
0.0000000000000001
 21
1.0
 31
0.0
 73
     1
 44
1.0
1001
ACAD
1000
MTEXTBEGIN
1070
    73
1070
     1
1070
    44
1040
1.0
1070
    74
1070
     0
1000
MTEXTEND
  0
POINT
  5
20D7F
330
20D27
100
AcDbEntity
  8
DEFPOINTS
 62
     0
 48
50.0
100
AcDbPoint
 10
6787.840373457919
 20
5816.763289968561
 30
0.0
  0
POINT
  5
20D80
330
20D27
100
AcDbEntity
  8
DEFPOINTS
 62
     0
 48
50.0
100
AcDbPoint
 10
7533.600000000001
 20
5862.375394111462
 30
0.0
  0
POINT
  5
20D81
330
20D27
100
AcDbEntity
  8
DEFPOINTS
 62
     0
 48
50.0
100
AcDbPoint
 10
6575.379677941082
 20
5862.375394111462
 30
0.0
  0
ENDBLK
  5
20D34
330
20D27
100
AcDbEntity
  8
0
 48
50.0
100
AcDbBlockEnd
  0
BLOCK
  5
21823
330
21819
100
AcDbEntity
  8
0
 48
50.0
100
AcDbBlockBegin
  2
*D53
 70
     1
 10
0.0
 20
0.0
 30
0.0
  3
*D53
  1

  0
LINE
  5
21866
330
21819
100
AcDbEntity
  8
寸法
 62
     0
 48
50.0
370
    -2
100
AcDbLine
 10
8489.053996295622
 20
2083.245344425215
 30
0.0
 11
9030.922596064465
 21
2083.245344425215
 31
0.0
  0
LINE
  5
21867
330
21819
100
AcDbEntity
  8
寸法
 62
     0
 48
50.0
370
    -2
100
AcDbLine
 10
8489.053996295622
 20
1759.245344425214
 30
0.0
 11
9030.922596064465
 21
1759.245344425214
 31
0.0
  0
LINE
  5
21868
330
21819
100
AcDbEntity
  8
寸法
 62
     0
 48
50.0
370
    -2
100
AcDbLine
 10
8970.922596064466
 20
2083.245344425215
 30
0.0
 11
8970.922596064466
 21
1759.245344425214
 31
0.0
  0
INSERT
  5
21869
330
21819
100
AcDbEntity
  8
寸法
 62
     0
 48
50.0
370
    -2
100
AcDbBlockReference
  2
_DOTSMALL
 10
8970.922596064466
 20
2083.245344425215
 30
0.0
 41
100.0
 42
100.0
 43
100.0
 50
90.0
  0
INSERT
  5
2186A
330
21819
100
AcDbEntity
  8
寸法
 62
     0
 48
50.0
370
    -2
100
AcDbBlockReference
  2
_DOTSMALL
 10
8970.922596064466
 20
1759.245344425214
 30
0.0
 41
100.0
 42
100.0
 43
100.0
 50
270.0
  0
MTEXT
  5
2186B
330
21819
100
AcDbEntity
  8
寸法
 62
     7
 48
50.0
100
AcDbMText
 10
8870.922596064465
 20
1921.245344425216
 30
0.0
 40
120.0
 41
0.0
 71
     5
 72
     1
  1
\A1;180
  7
STYLE1
 11
0.0000000000000001
 21
1.0
 31
0.0
 73
     1
 44
1.0
1001
ACAD
1000
MTEXTBEGIN
1070
    73
1070
     1
1070
    44
1040
1.0
1070
    74
1070
     0
1000
MTEXTEND
  0
POINT
  5
2186C
330
21819
100
AcDbEntity
  8
DEFPOINTS
 62
     0
 48
50.0
100
AcDbPoint
 10
8469.053996295622
 20
2083.245344425215
 30
0.0
  0
POINT
  5
2186D
330
21819
100
AcDbEntity
  8
DEFPOINTS
 62
     0
 48
50.0
100
AcDbPoint
 10
8469.053996295622
 20
1759.245344425214
 30
0.0
  0
POINT
  5
2186E
330
21819
100
AcDbEntity
  8
DEFPOINTS
 62
     0
 48
50.0
100
AcDbPoint
 10
8970.922596064466
 20
1759.245344425214
 30
0.0
  0
ENDBLK
  5
21824
330
21819
100
AcDbEntity
  8
0
 48
50.0
100
AcDbBlockEnd
  0
BLOCK
  5
21834
330
21825
100
AcDbEntity
  8
0
 48
50.0
100
AcDbBlockBegin
  2
*D54
 70
     1
 10
0.0
 20
0.0
 30
0.0
  3
*D54
  1

  0
LINE
  5
2186F
330
21825
100
AcDbEntity
  8
寸法
 62
     0
 48
50.0
370
    -2
100
AcDbLine
 10
8301.853996295625
 20
2136.005344425216
 30
0.0
 11
9030.922596064465
 21
2136.005344425216
 31
0.0
  0
LINE
  5
21870
330
21825
100
AcDbEntity
  8
寸法
 62
     0
 48
50.0
370
    -2
100
AcDbLine
 10
8489.053996295622
 20
2083.245344425215
 30
0.0
 11
9030.922596064465
 21
2083.245344425215
 31
0.0
  0
LINE
  5
21871
330
21825
100
AcDbEntity
  8
寸法
 62
     0
 48
50.0
370
    -2
100
AcDbLine
 10
8970.922596064466
 20
2136.005344425216
 30
0.0
 11
8970.922596064466
 21
2236.005344425216
 31
0.0
  0
LINE
  5
21872
330
21825
100
AcDbEntity
  8
寸法
 62
     0
 48
50.0
370
    -2
100
AcDbLine
 10
8970.922596064466
 20
2083.245344425215
 30
0.0
 11
8970.922596064466
 21
1983.245344425215
 31
0.0
  0
LINE
  5
21873
330
21825
100
AcDbEntity
  8
寸法
 62
     0
 48
50.0
370
    -2
100
AcDbLine
 10
8970.922596064466
 20
2109.625344425216
 30
0.0
 11
9246.977262183493
 21
2098.121386821002
 31
0.0
  0
LINE
  5
21874
330
21825
100
AcDbEntity
  8
寸法
 62
     0
 48
50.0
370
    -2
100
AcDbLine
 10
9246.977262183493
 20
2098.121386821002
 30
0.0
 11
9246.977262183493
 21
1566.103579978036
 31
0.0
  0
MTEXT
  5
21875
330
21825
100
AcDbEntity
  8
寸法
 62
     7
 48
50.0
100
AcDbMText
 10
9146.96545115987
 20
1832.11248339952
 30
0.0
 40
120.0
 41
0.0
 71
     5
 72
     1
  1
\A1;20～25
  7
STYLE1
 11
0.0000000000000001
 21
1.0
 31
0.0
 73
     1
 44
1.0
1001
ACAD
1000
MTEXTBEGIN
1070
    73
1070
     1
1070
    44
1040
1.0
1070
    74
1070
     0
1000
MTEXTEND
  0
LINE
  5
21876
330
21825
100
AcDbEntity
  8
寸法
 62
     0
 48
50.0
370
    -2
100
AcDbLine
 10
8970.922596064466
 20
2136.005344425216
 30
0.0
 11
8970.922596064466
 21
2083.245344425215
 31
0.0
  0
LINE
  5
21877
330
21825
100
AcDbEntity
  8
寸法
 62
     0
 48
50.0
370
    -2
100
AcDbLine
 10
8970.922596064466
 20
2136.005344425216
 30
0.0
 11
8970.922596064466
 21
2083.245344425215
 31
0.0
  0
INSERT
  5
21878
330
21825
100
AcDbEntity
  8
寸法
 62
     0
 48
50.0
370
    -2
100
AcDbBlockReference
  2
_DOTSMALL
 10
8970.922596064466
 20
2136.005344425216
 30
0.0
 41
100.0
 42
100.0
 43
100.0
 50
270.0
  0
INSERT
  5
21879
330
21825
100
AcDbEntity
  8
寸法
 62
     0
 48
50.0
370
    -2
100
AcDbBlockReference
  2
_DOTSMALL
 10
8970.922596064466
 20
2083.245344425215
 30
0.0
 41
100.0
 42
100.0
 43
100.0
 50
90.0
  0
POINT
  5
2187A
330
21825
100
AcDbEntity
  8
DEFPOINTS
 62
     0
 48
50.0
100
AcDbPoint
 10
8281.853996295623
 20
2136.005344425216
 30
0.0
  0
POINT
  5
2187B
330
21825
100
AcDbEntity
  8
DEFPOINTS
 62
     0
 48
50.0
100
AcDbPoint
 10
8469.053996295622
 20
2083.245344425215
 30
0.0
  0
POINT
  5
2187C
330
21825
100
AcDbEntity
  8
DEFPOINTS
 62
     0
 48
50.0
100
AcDbPoint
 10
8970.922596064466
 20
2083.245344425215
 30
0.0
  0
ENDBLK
  5
21835
330
21825
100
AcDbEntity
  8
0
 48
50.0
100
AcDbBlockEnd
  0
BLOCK
  5
21840
330
21836
100
AcDbEntity
  8
0
 48
50.0
100
AcDbBlockBegin
  2
*D55
 70
     1
 10
0.0
 20
0.0
 30
0.0
  3
*D55
  1

  0
LINE
  5
2187D
330
21836
100
AcDbEntity
  8
寸法
 62
     0
 48
50.0
370
    -2
100
AcDbLine
 10
6207.014683118428
 20
1539.245344425215
 30
0.0
 11
6024.594369385969
 21
1539.245344425215
 31
0.0
  0
LINE
  5
2187E
330
21836
100
AcDbEntity
  8
寸法
 62
     0
 48
50.0
370
    -2
100
AcDbLine
 10
6127.014683118432
 20
1299.245344425215
 30
0.0
 11
6024.594369385969
 21
1299.245344425215
 31
0.0
  0
LINE
  5
2187F
330
21836
100
AcDbEntity
  8
寸法
 62
     0
 48
50.0
370
    -2
100
AcDbLine
 10
6084.594369385968
 20
1539.245344425215
 30
0.0
 11
6084.594369385968
 21
1299.245344425215
 31
0.0
  0
MTEXT
  5
21880
330
21836
100
AcDbEntity
  8
寸法
 62
     7
 48
50.0
100
AcDbMText
 10
5984.594369385969
 20
1419.245344425215
 30
0.0
 40
120.0
 41
0.0
 71
     5
 72
     1
  1
\A1;150
  7
STYLE1
 11
0.0000000000000001
 21
1.0
 31
0.0
 73
     1
 44
1.0
1001
ACAD
1000
MTEXTBEGIN
1070
    73
1070
     1
1070
    44
1040
1.0
1070
    74
1070
     0
1000
MTEXTEND
  0
INSERT
  5
21881
330
21836
100
AcDbEntity
  8
寸法
 62
     0
 48
50.0
370
    -2
100
AcDbBlockReference
  2
_DOTSMALL
 10
6084.594369385968
 20
1539.245344425215
 30
0.0
 41
100.0
 42
100.0
 43
100.0
 50
90.0
  0
INSERT
  5
21882
330
21836
100
AcDbEntity
  8
寸法
 62
     0
 48
50.0
370
    -2
100
AcDbBlockReference
  2
_DOTSMALL
 10
6084.594369385968
 20
1299.245344425215
 30
0.0
 41
100.0
 42
100.0
 43
100.0
 50
270.0
  0
POINT
  5
21883
330
21836
100
AcDbEntity
  8
DEFPOINTS
 62
     0
 48
50.0
100
AcDbPoint
 10
6227.014683118428
 20
1539.245344425215
 30
0.0
  0
POINT
  5
21884
330
21836
100
AcDbEntity
  8
DEFPOINTS
 62
     0
 48
50.0
100
AcDbPoint
 10
6147.014683118432
 20
1299.245344425215
 30
0.0
  0
POINT
  5
21885
330
21836
100
AcDbEntity
  8
DEFPOINTS
 62
     0
 48
50.0
100
AcDbPoint
 10
6084.594369385968
 20
1299.245344425215
 30
0.0
  0
ENDBLK
  5
21841
330
21836
100
AcDbEntity
  8
0
 48
50.0
100
AcDbBlockEnd
  0
BLOCK
  5
2184C
330
21842
100
AcDbEntity
  8
0
 48
50.0
100
AcDbBlockBegin
  2
*D56
 70
     1
 10
0.0
 20
0.0
 30
0.0
  3
*D56
  1

  0
LINE
  5
21886
330
21842
100
AcDbEntity
  8
寸法
 62
     0
 48
50.0
370
    -2
100
AcDbLine
 10
6335.014683118428
 20
2083.245344425215
 30
0.0
 11
5559.977444556688
 21
2083.245344425215
 31
0.0
  0
LINE
  5
21887
330
21842
100
AcDbEntity
  8
寸法
 62
     0
 48
50.0
370
    -2
100
AcDbLine
 10
6127.014683118432
 20
1299.245344425215
 30
0.0
 11
5559.977444556687
 21
1299.245344425215
 31
0.0
  0
LINE
  5
21888
330
21842
100
AcDbEntity
  8
寸法
 62
     0
 48
50.0
370
    -2
100
AcDbLine
 10
5619.977444556688
 20
2083.245344425215
 30
0.0
 11
5619.977444556687
 21
1299.245344425215
 31
0.0
  0
MTEXT
  5
21889
330
21842
100
AcDbEntity
  8
寸法
 62
     7
 48
50.0
100
AcDbMText
 10
5519.977444556688
 20
1670.785494081216
 30
0.0
 40
120.0
 41
0.0
 71
     5
 72
     1
  1
\A1;540
  7
STYLE1
 11
0.0000000000000001
 21
1.0
 31
0.0
 73
     1
 44
1.0
1001
ACAD
1000
MTEXTBEGIN
1070
    73
1070
     1
1070
    44
1040
1.0
1070
    74
1070
     0
1000
MTEXTEND
  0
INSERT
  5
2188A
330
21842
100
AcDbEntity
  8
寸法
 62
     0
 48
50.0
370
    -2
100
AcDbBlockReference
  2
_DOTSMALL
 10
5619.977444556688
 20
2083.245344425215
 30
0.0
 41
100.0
 42
100.0
 43
100.0
 50
90.0
  0
INSERT
  5
2188B
330
21842
100
AcDbEntity
  8
寸法
 62
     0
 48
50.0
370
    -2
100
AcDbBlockReference
  2
_DOTSMALL
 10
5619.977444556687
 20
1299.245344425215
 30
0.0
 41
100.0
 42
100.0
 43
100.0
 50
270.0
  0
POINT
  5
2188C
330
21842
100
AcDbEntity
  8
DEFPOINTS
 62
     0
 48
50.0
100
AcDbPoint
 10
6355.014683118429
 20
2083.245344425215
 30
0.0
  0
POINT
  5
2188D
330
21842
100
AcDbEntity
  8
DEFPOINTS
 62
     0
 48
50.0
100
AcDbPoint
 10
6147.014683118432
 20
1299.245344425215
 30
0.0
  0
POINT
  5
2188E
330
21842
100
AcDbEntity
  8
DEFPOINTS
 62
     0
 48
50.0
100
AcDbPoint
 10
5619.977444556687
 20
1299.245344425215
 30
0.0
  0
ENDBLK
  5
2184D
330
21842
100
AcDbEntity
  8
0
 48
50.0
100
AcDbBlockEnd
  0
BLOCK
  5
21858
330
2184E
100
AcDbEntity
  8
0
 48
50.0
100
AcDbBlockBegin
  2
*D57
 70
     1
 10
0.0
 20
0.0
 30
0.0
  3
*D57
  1

  0
LINE
  5
2188F
330
2184E
100
AcDbEntity
  8
寸法
 62
     0
 48
50.0
370
    -2
100
AcDbLine
 10
6227.014683118428
 20
1151.245344425215
 30
0.0
 11
6227.014683118428
 21
700.815706420055
 31
0.0
  0
LINE
  5
21890
330
2184E
100
AcDbEntity
  8
寸法
 62
     0
 48
50.0
370
    -2
100
AcDbLine
 10
6675.014683118428
 20
1151.245344425215
 30
0.0
 11
6675.014683118428
 21
700.815706420055
 31
0.0
  0
LINE
  5
21891
330
2184E
100
AcDbEntity
  8
寸法
 62
     0
 48
50.0
370
    -2
100
AcDbLine
 10
6227.014683118428
 20
760.815706420055
 30
0.0
 11
6675.014683118428
 21
760.815706420055
 31
0.0
  0
MTEXT
  5
21892
330
2184E
100
AcDbEntity
  8
寸法
 62
     7
 48
50.0
100
AcDbMText
 10
6430.917924440205
 20
860.815706420055
 30
0.0
 40
120.0
 41
0.0
 71
     5
 72
     1
  1
\A1;300
  7
STYLE1
 73
     1
 44
1.0
1001
ACAD
1000
MTEXTBEGIN
1070
    73
1070
     1
1070
    44
1040
1.0
1070
    74
1070
     0
1000
MTEXTEND
  0
INSERT
  5
21893
330
2184E
100
AcDbEntity
  8
寸法
 62
     0
 48
50.0
370
    -2
100
AcDbBlockReference
  2
_DOTSMALL
 10
6227.014683118428
 20
760.815706420055
 30
0.0
 41
100.0
 42
100.0
 43
100.0
 50
180.0
  0
INSERT
  5
21894
330
2184E
100
AcDbEntity
  8
寸法
 62
     0
 48
50.0
370
    -2
100
AcDbBlockReference
  2
_DOTSMALL
 10
6675.014683118428
 20
760.815706420055
 30
0.0
 41
100.0
 42
100.0
 43
100.0
  0
POINT
  5
21895
330
2184E
100
AcDbEntity
  8
DEFPOINTS
 62
     0
 48
50.0
100
AcDbPoint
 10
6227.014683118428
 20
1171.245344425215
 30
0.0
  0
POINT
  5
21896
330
2184E
100
AcDbEntity
  8
DEFPOINTS
 62
     0
 48
50.0
100
AcDbPoint
 10
6675.014683118428
 20
1171.245344425215
 30
0.0
  0
POINT
  5
21897
330
2184E
100
AcDbEntity
  8
DEFPOINTS
 62
     0
 48
50.0
100
AcDbPoint
 10
6675.014683118428
 20
760.815706420055
 30
0.0
  0
ENDBLK
  5
21859
330
2184E
100
AcDbEntity
  8
0
 48
50.0
100
AcDbBlockEnd
  0
BLOCK
  5
21864
330
2185A
100
AcDbEntity
  8
0
 48
50.0
100
AcDbBlockBegin
  2
*D58
 70
     1
 10
0.0
 20
0.0
 30
0.0
  3
*D58
  1

  0
LINE
  5
21898
330
2185A
100
AcDbEntity
  8
寸法
 62
     0
 48
50.0
370
    -2
100
AcDbLine
 10
6547.014683118428
 20
2103.245344425215
 30
0.0
 11
6547.014683118428
 21
2463.245344425215
 31
0.0
  0
LINE
  5
21899
330
2185A
100
AcDbEntity
  8
寸法
 62
     0
 48
50.0
370
    -2
100
AcDbLine
 10
6355.014683118429
 20
2103.245344425215
 30
0.0
 11
6355.014683118429
 21
2463.245344425215
 31
0.0
  0
LINE
  5
2189A
330
2185A
100
AcDbEntity
  8
寸法
 62
     0
 48
50.0
370
    -2
100
AcDbLine
 10
6547.014683118428
 20
2403.245344425215
 30
0.0
 11
6355.014683118429
 21
2403.245344425215
 31
0.0
  0
MTEXT
  5
2189B
330
2185A
100
AcDbEntity
  8
寸法
 62
     7
 48
50.0
100
AcDbMText
 10
6462.241013463625
 20
2702.924963365218
 30
0.0
 40
120.0
 41
0.0
 71
     5
 72
     1
  1
\A1;120\P195
  7
STYLE1
 73
     1
 44
1.0
1001
ACAD
1000
MTEXTBEGIN
1070
    73
1070
     1
1070
    44
1040
1.0
1070
    74
1070
     0
1000
MTEXTEND
  0
INSERT
  5
2189C
330
2185A
100
AcDbEntity
  8
寸法
 62
     0
 48
50.0
370
    -2
100
AcDbBlockReference
  2
_DOTSMALL
 10
6547.014683118428
 20
2403.245344425215
 30
0.0
 41
100.0
 42
100.0
 43
100.0
  0
INSERT
  5
2189D
330
2185A
100
AcDbEntity
  8
寸法
 62
     0
 48
50.0
370
    -2
100
AcDbBlockReference
  2
_DOTSMALL
 10
6355.014683118429
 20
2403.245344425215
 30
0.0
 41
100.0
 42
100.0
 43
100.0
 50
180.0
  0
POINT
  5
2189E
330
2185A
100
AcDbEntity
  8
DEFPOINTS
 62
     0
 48
50.0
100
AcDbPoint
 10
6547.014683118428
 20
2083.245344425215
 30
0.0
  0
POINT
  5
2189F
330
2185A
100
AcDbEntity
  8
DEFPOINTS
 62
     0
 48
50.0
100
AcDbPoint
 10
6355.014683118429
 20
2083.245344425215
 30
0.0
  0
POINT
  5
218A0
330
2185A
100
AcDbEntity
  8
DEFPOINTS
 62
     0
 48
50.0
100
AcDbPoint
 10
6355.014683118429
 20
2403.245344425215
 30
0.0
  0
ENDBLK
  5
21865
330
2185A
100
AcDbEntity
  8
0
 48
50.0
100
AcDbBlockEnd
  0
ENDSEC
  0
SECTION
  2
ENTITIES
  0
MTEXT
  5
763F
330
747D
100
AcDbEntity
  8
0
100
AcDbMText
 10
302.846345836809
 20
280.1983726409901
 30
0.0
 40
3.5
 41
5.323721266742722
 71
     1
 72
     5
  1

  7
MSMINCHO
 73
     1
 44
1.0
1001
ACAD
1000
MTEXTBEGIN
1070
    73
1070
     1
1070
    44
1040
1.0
1070
    74
1070
     0
1000
MTEXTEND
  0
LINE
  5
10B57
330
747D
100
AcDbEntity
  8
補助
  6
PHANTOM
 62
   230
 48
50.0
100
AcDbLine
 10
139.9999999999995
 20
11409.6
 30
0.0
 11
16307.2
 21
11409.6
 31
0.0
  0
LINE
  5
10B59
330
747D
100
AcDbEntity
  8
仕様書枠
  6
Continuous
 48
50.0
100
AcDbLine
 10
13107.2
 20
1200.0
 30
0.0
 11
13107.2
 21
-0.0000000000000729
 31
0.0
  0
LINE
  5
10B5D
330
747D
100
AcDbEntity
  8
仕様書枠
 48
50.0
100
AcDbLine
 10
140.0
 20
0.0
 30
0.0
 11
16307.2
 21
-0.0000000000000909
 31
0.0
  0
LINE
  5
10B5E
330
747D
100
AcDbEntity
  8
補助
  6
PHANTOM
 62
   230
 48
50.0
100
AcDbLine
 10
16307.2
 20
11409.6
 30
0.0
 11
16307.2
 21
1200.0
 31
0.0
  0
LINE
  5
10B6C
330
747D
100
AcDbEntity
  8
仕様書枠
 48
50.0
100
AcDbLine
 10
13107.2
 20
1200.0
 30
0.0
 11
16307.2
 21
1200.0
 31
0.0
  0
TEXT
  5
10B73
330
747D
100
AcDbEntity
  8
文字
 62
     7
 48
50.0
100
AcDbText
 10
13162.9790565769
 20
895.0906074299405
 30
0.0
 40
200.0
  1
基 礎 図
  7
STYLE2
100
AcDbText
  0
LINE
  5
10B7B
330
747D
100
AcDbEntity
  8
仕様書枠
 48
50.0
100
AcDbLine
 10
13107.2
 20
800.0
 30
0.0
 11
14251.2
 21
800.0
 31
0.0
  0
LINE
  5
10B88
330
747D
100
AcDbEntity
  8
仕様書枠
  6
Continuous
 48
50.0
100
AcDbLine
 10
14251.2
 20
1200.0
 30
0.0
 11
14251.2
 21
800.0
 31
0.0
  0
LINE
  5
16462
330
747D
100
AcDbEntity
  8
仕様書枠
 48
50.0
100
AcDbLine
 10
16307.2
 20
1200.0
 30
0.0
 11
16307.2
 21
-0.0000000000000909
 31
0.0
  0
LINE
  5
1903B
330
747D
100
AcDbEntity
  8
補助
  6
PHANTOM
 62
   230
 48
50.0
100
AcDbLine
 10
140.0
 20
0.0
 30
0.0
 11
139.9999999999995
 21
11409.6
 31
0.0
  0
TEXT
  5
1C7A1
330
747D
100
AcDbEntity
  8
文字
 62
     7
 48
50.0
100
AcDbText
 10
13188.16259899338
 20
79.80631269190417
 30
0.0
 40
80.0
  1
※布基礎には換気口を設けてください。
  7
STYLE2
100
AcDbText
  0
TEXT
  5
1C7E7
330
747D
100
AcDbEntity
  8
文字
 62
     7
 48
50.0
100
AcDbText
 10
13188.16259899338
 20
246.7109242801889
 30
0.0
 40
80.0
  1
※寒冷地等は地域の実情に合わせた基礎にして下さい。
  7
STYLE2
100
AcDbText
  0
TEXT
  5
1C7E8
330
747D
100
AcDbEntity
  8
文字
 62
     7
 48
50.0
100
AcDbText
 10
14478.98566430227
 20
499.5983841039506
 30
0.0
 40
160.0
  1
ＮＸＮ－２５ＣＳＢ
  7
STYLE2
100
AcDbText
  0
TEXT
  5
1C7E9
330
747D
100
AcDbEntity
  8
文字
 62
     7
 48
50.0
100
AcDbText
 10
14641.2525855784
 20
871.1744590657927
 30
0.0
 40
100.0
  1
～一般型・多雪地型～
  7
STYLE2
100
AcDbText
  0
TEXT
  5
1C7EC
330
747D
100
AcDbEntity
  8
文字
 62
     7
 48
50.0
100
AcDbText
 10
14524.131837222
 20
1031.557706291229
 30
0.0
 40
100.0
  1
           <縮尺> S=1/40
  7
STYLE2
100
AcDbText
  0
TEXT
  5
1C7ED
330
747D
100
AcDbEntity
  8
文字
 62
     7
 48
50.0
100
AcDbText
 10
13201.43669998441
 20
477.2740661031257
 30
0.0
 40
160.0
  1
機種名
  7
STYLE2
100
AcDbText
  0
LINE
  5
1C7EF
330
747D
100
AcDbEntity
  8
文字
 62
     7
 48
50.0
100
AcDbLine
 10
13187.2
 20
400.0
 30
0.0
 11
16227.2
 21
400.0
 31
0.0
  0
LINE
  5
1D2D1
330
747D
100
AcDbEntity
  8
想像線
 48
10.0
100
AcDbLine
 10
8988.600000000003
 20
7707.987498254367
 30
0.0
 11
8988.600000000003
 21
7148.181244111448
 31
0.0
  0
DIMENSION
  5
1DCEF
330
747D
100
AcDbEntity
  8
寸法
 48
50.0
100
AcDbDimension
  2
*D19
 10
7006.690234351673
 20
7662.375394111461
 30
0.0
 11
6906.69023435167
 21
7212.375394111464
 31
0.0
 70
    32
 71
     5
 42
900.0
  3
INABA_S40G
100
AcDbAlignedDimension
 13
8123.600000000001
 23
6762.375394111462
 33
0.0
 14
7533.599999999999
 24
7662.375394111461
 34
0.0
 50
270.0
100
AcDbRotatedDimension
1001
ACAD
1000
DSTYLE
1002
{
1070
   341
1005
0
1002
}
  0
LINE
  5
1DCF2
330
747D
100
AcDbEntity
  8
部品1
 48
50.0
100
AcDbLine
 10
7533.600000000004
 20
7054.773595173412
 30
0.0
 11
7533.599999999999
 21
7662.375394111461
 31
0.0
  0
LINE
  5
1DCF5
102
{ACAD_REACTORS
330
211E5
102
}
330
747D
100
AcDbEntity
  8
部品1
 48
50.0
100
AcDbLine
 10
7533.600000000001
 20
5787.375394111447
 30
0.0
 11
7533.599999999999
 21
7662.375394111461
 31
0.0
  0
DIMENSION
  5
1DCF8
330
747D
100
AcDbEntity
  8
寸法
 48
50.0
100
AcDbDimension
  2
*D20
 10
6575.379677941082
 20
5862.375394111462
 30
0.0
 11
6475.379677941081
 21
6762.375394111464
 31
0.0
 70
    32
 71
     5
 42
1800.0
  3
INABA_S40G
100
AcDbAlignedDimension
 13
7533.599999999999
 23
7662.375394111461
 33
0.0
 14
7533.600000000001
 24
5862.375394111462
 34
0.0
 50
270.0
100
AcDbRotatedDimension
1001
ACAD
1000
DSTYLE
1002
{
1070
   341
1005
0
1002
}
  0
DIMENSION
  5
1DCF9
330
747D
100
AcDbEntity
  8
寸法
 48
50.0
100
AcDbDimension
  2
*D21
 10
6787.840373457917
 20
7539.375394111463
 30
0.0
 11
6687.840373457915
 21
6762.375394111464
 31
0.0
 70
    32
 71
     5
 42
1554.0
  3
INABA_S40G
100
AcDbAlignedDimension
 13
7606.600000000002
 23
5985.375394111462
 33
0.0
 14
7606.6
 24
7539.375394111463
 34
0.0
 50
270.0
100
AcDbRotatedDimension
1001
ACAD
1000
DSTYLE
1002
{
1070
   341
1005
0
1002
}
  0
DIMENSION
  5
1DCFB
330
747D
100
AcDbEntity
  8
寸法
 48
50.0
100
AcDbDimension
  2
*D22
 10
6787.840373457918
 20
7662.375394111461
 30
0.0
 11
6787.840373457917
 21
7935.48199582926
 31
0.0
 70
   160
 71
     5
 42
123.0
  3
INABA_S40G
100
AcDbAlignedDimension
 13
7606.6
 23
7539.375394111463
 33
0.0
 14
7533.599999999999
 24
7662.375394111461
 34
0.0
 50
270.0
100
AcDbRotatedDimension
1001
ACAD
1000
DSTYLE
1002
{
1070
   341
1005
0
1002
}
  0
DIMENSION
  5
1DCFD
330
747D
100
AcDbEntity
  8
寸法
 48
50.0
100
AcDbDimension
  2
*D23
 10
8913.6
 20
8433.017164835815
 30
0.0
 11
9152.085281374239
 21
8433.017164835815
 31
0.0
 70
   160
 71
     5
 42
123.0000000000018
  3
INABA_S40G
100
AcDbAlignedDimension
 13
8790.599999999999
 23
7589.375394111455
 33
0.0
 14
8913.6
 24
7662.375394111461
 34
0.0
 50
180.0
100
AcDbRotatedDimension
1001
ACAD
1000
DSTYLE
1002
{
1070
   341
1005
0
1002
}
  0
DIMENSION
  5
1DCFE
330
747D
100
AcDbEntity
  8
寸法
 48
50.0
100
AcDbDimension
  2
*D24
 10
8913.599999999989
 20
7261.573824624966
 30
0.0
 11
9191.68354327288
 21
7261.573824624966
 31
0.0
 70
   160
 71
     5
 42
119.9999999999945
  3
INABA_S40G
100
AcDbAlignedDimension
 13
8793.599999999996
 23
7432.375394111462
 33
0.0
 14
8913.599999999989
 24
7401.974609368214
 34
0.0
 50
180.0
100
AcDbRotatedDimension
1001
ACAD
1000
DSTYLE
1002
{
1070
   341
1005
0
1002
}
  0
LINE
  5
1DD01
102
{ACAD_REACTORS
330
21186
102
}
330
747D
100
AcDbEntity
  8
部品1
 48
50.0
100
AcDbLine
 10
8913.6
 20
7662.375394111461
 30
0.0
 11
7533.599999999999
 21
7662.375394111461
 31
0.0
  0
DIMENSION
  5
1DD03
330
747D
100
AcDbEntity
  8
寸法
 48
50.0
100
AcDbDimension
  2
*D25
 10
7533.599999999999
 20
8678.509966973782
 30
0.0
 11
8223.600000000001
 21
8778.509966973784
 31
0.0
 70
    32
 71
     5
 42
1380.0
  3
INABA_S40G
100
AcDbAlignedDimension
 13
8913.6
 23
7662.375394111461
 33
0.0
 14
7533.599999999999
 24
7662.375394111461
 34
0.0
 50
180.0
100
AcDbRotatedDimension
1001
ACAD
1000
DSTYLE
1002
{
1070
   341
1005
0
1002
}
  0
DIMENSION
  5
1DD04
330
747D
100
AcDbEntity
  8
寸法
 48
50.0
100
AcDbDimension
  2
*D26
 10
8790.599999999999
 20
8433.017164835815
 30
0.0
 11
8223.599999999999
 21
8533.017164835817
 31
0.0
 70
    32
 71
     5
 42
1133.999999999998
  3
INABA_S40G
100
AcDbAlignedDimension
 13
7656.6
 23
7589.375394111463
 33
0.0
 14
8790.599999999999
 24
7589.375394111455
 34
0.0
 50
180.0
100
AcDbRotatedDimension
1001
ACAD
1000
DSTYLE
1002
{
1070
   341
1005
0
1002
}
  0
LINE
  5
1DD06
330
747D
100
AcDbEntity
  8
部品1
 48
50.0
100
AcDbLine
 10
8793.599999999996
 20
7432.375394111462
 30
0.0
 11
8683.599999999996
 21
7432.375394111462
 31
0.0
  0
DIMENSION
  5
1DD07
330
747D
100
AcDbEntity
  8
寸法
 48
50.0
100
AcDbDimension
  2
*D27
 10
8683.599999999996
 20
7261.573824624966
 30
0.0
 11
8412.843390118029
 21
7261.573824624966
 31
0.0
 70
   160
 71
     5
 42
110.0
  3
INABA_S40G
100
AcDbAlignedDimension
 13
8793.599999999996
 23
7432.375394111462
 33
0.0
 14
8683.599999999996
 24
7432.375394111462
 34
0.0
 50
180.0
100
AcDbRotatedDimension
1001
ACAD
1000
DSTYLE
1002
{
1070
   341
1005
0
1002
}
  0
LINE
  5
1DD08
102
{ACAD_REACTORS
330
211E5
102
}
330
747D
100
AcDbEntity
  8
部品1
 48
50.0
100
AcDbLine
 10
8913.599999999965
 20
5862.375394111463
 30
0.0
 11
8913.599999999989
 21
7662.375394111461
 31
0.0
  0
CIRCLE
  5
1DD0A
330
747D
100
AcDbEntity
  8
部品1
 48
50.0
100
AcDbCircle
 10
8790.599999999999
 20
7539.375394111456
 30
0.0
 40
35.0
  0
LINE
  5
1DD0B
330
747D
100
AcDbEntity
  8
センター
 48
2.0
100
AcDbLine
 10
8790.599999999999
 20
7589.375394111455
 30
0.0
 11
8790.599999999999
 21
7489.375394111455
 31
0.0
  0
LINE
  5
1DD0C
330
747D
100
AcDbEntity
  8
センター
 48
2.0
100
AcDbLine
 10
8740.599999999998
 20
7539.375394111456
 30
0.0
 11
8840.6
 21
7539.375394111456
 31
0.0
  0
LINE
  5
1DD0D
102
{ACAD_REACTORS
330
21186
102
}
330
747D
100
AcDbEntity
  8
部品1
 48
50.0
100
AcDbLine
 10
8323.599999999991
 20
7542.375394111463
 30
0.0
 11
8323.599999999991
 21
7662.375394111461
 31
0.0
  0
LINE
  5
1DD0E
330
747D
100
AcDbEntity
  8
部品1
 48
50.0
100
AcDbLine
 10
8683.599999999996
 20
7432.375394111462
 30
0.0
 11
8683.599999999998
 21
7542.375394111463
 31
0.0
  0
DIMENSION
  5
1DD0F
330
747D
100
AcDbEntity
  8
寸法
 48
50.0
100
AcDbDimension
  2
*D28
 10
7656.6
 20
8433.017164835815
 30
0.0
 11
7220.493398282203
 21
8433.017164835815
 31
0.0
 70
   160
 71
     5
 42
123.0
  3
INABA_S40G
100
AcDbAlignedDimension
 13
7533.599999999999
 23
7662.375394111461
 33
0.0
 14
7656.6
 24
7589.375394111463
 34
0.0
 50
180.0
100
AcDbRotatedDimension
1001
ACAD
1000
DSTYLE
1002
{
1070
   341
1005
0
1002
}
  0
LINE
  5
1DD11
102
{ACAD_REACTORS
330
21186
102
}
330
747D
100
AcDbEntity
  8
部品1
 48
50.0
100
AcDbLine
 10
8123.599999999992
 20
7542.375394111463
 30
0.0
 11
8123.599999999992
 21
7662.375394111461
 31
0.0
  0
LINE
  5
1DD12
330
747D
100
AcDbEntity
  8
部品1
 48
50.0
100
AcDbLine
 10
7763.600000000003
 20
7432.375394111464
 30
0.0
 11
7653.6
 21
7432.375394111462
 31
0.0
  0
LINE
  5
1DD13
330
747D
100
AcDbEntity
  8
部品1
 48
50.0
100
AcDbLine
 10
7763.600000000003
 20
7432.375394111464
 30
0.0
 11
7763.600000000001
 21
7542.375394111463
 31
0.0
  0
CIRCLE
  5
1DD14
330
747D
100
AcDbEntity
  8
部品1
 48
50.0
100
AcDbCircle
 10
7656.6
 20
7539.375394111461
 30
0.0
 40
35.0
  0
LINE
  5
1DD15
330
747D
100
AcDbEntity
  8
センター
 48
2.0
100
AcDbLine
 10
7606.6
 20
7539.375394111463
 30
0.0
 11
7706.6
 21
7539.375394111463
 31
0.0
  0
LINE
  5
1DD16
330
747D
100
AcDbEntity
  8
センター
 48
2.0
100
AcDbLine
 10
7656.6
 20
7589.375394111463
 30
0.0
 11
7656.6
 21
7489.375394111462
 31
0.0
  0
DIMENSION
  5
1DD17
330
747D
100
AcDbEntity
  8
寸法
 48
50.0
100
AcDbDimension
  2
*D29
 10
7006.690234351674
 20
6762.375394111462
 30
0.0
 11
7006.690234351673
 21
6291.456872105182
 31
0.0
 70
   160
 71
     5
 42
900.0
  3
INABA_S40G
100
AcDbAlignedDimension
 13
7533.600000000001
 23
5862.375394111462
 33
0.0
 14
8123.600000000001
 24
6762.375394111462
 34
0.0
 50
270.0
100
AcDbRotatedDimension
1001
ACAD
1000
DSTYLE
1002
{
1070
   341
1005
0
1002
}
  0
DIMENSION
  5
1DD19
330
747D
100
AcDbEntity
  8
寸法
 48
50.0
100
AcDbDimension
  2
*D30
 10
6787.840373457919
 20
5985.375394111462
 30
0.0
 11
6787.840373457918
 21
5589.268792393664
 31
0.0
 70
   160
 71
     5
 42
123.0
  3
INABA_S40G
100
AcDbAlignedDimension
 13
7533.600000000001
 23
5862.375394111462
 33
0.0
 14
7606.600000000002
 24
5985.375394111462
 34
0.0
 50
270.0
100
AcDbRotatedDimension
1001
ACAD
1000
DSTYLE
1002
{
1070
   341
1005
0
1002
}
  0
DIMENSION
  5
1DD22
330
747D
100
AcDbEntity
  8
寸法
 48
50.0
100
AcDbDimension
  2
*D31
 10
7992.938460046267
 20
5982.375394111445
 30
0.0
 11
7992.938460046265
 21
5548.680452907568
 31
0.0
 70
   160
 71
     5
 42
194.9999999999836
  3
INABA_S40G
100
AcDbAlignedDimension
 13
7763.600000000001
 23
5787.375394111462
 33
0.0
 14
7763.600000000003
 24
5982.375394111445
 34
0.0
 50
270.0
100
AcDbRotatedDimension
1001
ACAD
1000
DSTYLE
1002
{
1070
   341
1005
0
1002
}
  0
DIMENSION
  5
1DD24
330
747D
100
AcDbEntity
  8
寸法
 48
50.0
100
AcDbDimension
  2
*D32
 10
7533.599999999999
 20
8192.688586008065
 30
0.0
 11
7878.6
 21
8292.688586008067
 31
0.0
 70
    32
 71
     5
 42
690.0
  3
INABA_S40G
100
AcDbAlignedDimension
 13
8223.600000000001
 23
6862.375394111461
 33
0.0
 14
7533.599999999999
 24
7661.76328996857
 34
0.0
 50
180.0
100
AcDbRotatedDimension
1001
ACAD
1000
DSTYLE
1002
{
1070
   341
1005
0
1002
}
  0
LINE
  5
1DD25
330
747D
100
AcDbEntity
  8
部品1
 48
50.0
100
AcDbLine
 10
8323.600000000002
 20
6662.375394111461
 30
0.0
 11
8123.600000000001
 21
6662.375394111461
 31
0.0
  0
LINE
  5
1DD26
330
747D
100
AcDbEntity
  8
部品1
 48
50.0
100
AcDbLine
 10
8323.6
 20
6862.375394111461
 30
0.0
 11
8123.600000000001
 21
6862.375394111461
 31
0.0
  0
DIMENSION
  5
1DD2A
330
747D
100
AcDbEntity
  8
寸法
 48
50.0
100
AcDbDimension
  2
*D33
 10
7992.938460046267
 20
6092.375394111462
 30
0.0
 11
7992.938460046265
 21
6328.422638205951
 31
0.0
 70
   160
 71
     5
 42
110.0
  3
INABA_S40G
100
AcDbAlignedDimension
 13
7763.600000000001
 23
5982.375394111461
 33
0.0
 14
7763.600000000003
 24
6092.375394111462
 34
0.0
 50
270.0
100
AcDbRotatedDimension
1001
ACAD
1000
DSTYLE
1002
{
1070
   341
1005
0
1002
}
  0
DIMENSION
  5
1DD2C
330
747D
100
AcDbEntity
  8
寸法
 48
50.0
100
AcDbDimension
  2
*D34
 10
8223.600000000001
 20
8192.688586008065
 30
0.0
 11
8638.127837399094
 21
8192.688586008065
 31
0.0
 70
   160
 71
     5
 42
689.9999999999891
  3
INABA_S40G
100
AcDbAlignedDimension
 13
8913.599999999989
 23
7662.375394111461
 33
0.0
 14
8223.600000000001
 24
6862.375394111461
 34
0.0
 50
180.0
100
AcDbRotatedDimension
1001
ACAD
1000
DSTYLE
1002
{
1070
   341
1005
0
1002
}
  0
LINE
  5
1DD30
102
{ACAD_REACTORS
330
211E5
102
}
330
747D
100
AcDbEntity
  8
部品1
 48
50.0
100
AcDbLine
 10
8913.599999999979
 20
6862.375394111445
 30
0.0
 11
8793.599999999994
 21
6862.375394111444
 31
0.0
  0
LINE
  5
1DD31
102
{ACAD_REACTORS
330
211E5
102
}
330
747D
100
AcDbEntity
  8
部品1
 48
50.0
100
AcDbLine
 10
8913.599999999977
 20
6662.375394111444
 30
0.0
 11
8793.599999999988
 21
6662.375394111442
 31
0.0
  0
LINE
  5
1DD32
330
747D
100
AcDbEntity
  8
センター
 48
2.0
100
AcDbLine
 10
8223.600000000001
 20
6812.375394111461
 30
0.0
 11
8223.600000000001
 21
6712.375394111461
 31
0.0
  0
LINE
  5
1DD33
330
747D
100
AcDbEntity
  8
部品1
 48
50.0
100
AcDbLine
 10
8323.600000000002
 20
6662.375394111461
 30
0.0
 11
8323.600000000002
 21
6862.375394111461
 31
0.0
  0
LINE
  5
1DD34
330
747D
100
AcDbEntity
  8
センター
 48
2.0
100
AcDbLine
 10
8173.6
 20
6762.375394111462
 30
0.0
 11
8273.6
 21
6762.375394111462
 31
0.0
  0
LINE
  5
1DD35
330
747D
100
AcDbEntity
  8
部品1
 48
50.0
100
AcDbLine
 10
8793.599999999983
 20
6092.375394111461
 30
0.0
 11
8683.599999999984
 21
6092.375394111461
 31
0.0
  0
CIRCLE
  5
1DD36
330
747D
100
AcDbEntity
  8
部品1
 48
50.0
100
AcDbCircle
 10
8790.599999999999
 20
5985.375394111455
 30
0.0
 40
35.0
  0
LINE
  5
1DD37
330
747D
100
AcDbEntity
  8
センター
 48
2.0
100
AcDbLine
 10
8790.599999999999
 20
6035.375394111455
 30
0.0
 11
8790.599999999999
 21
5935.375394111455
 31
0.0
  0
LINE
  5
1DD39
330
747D
100
AcDbEntity
  8
センター
 48
2.0
100
AcDbLine
 10
8740.599999999998
 20
5985.375394111455
 30
0.0
 11
8840.6
 21
5985.375394111455
 31
0.0
  0
LINE
  5
1DD3A
330
747D
100
AcDbEntity
  8
部品1
 48
50.0
100
AcDbLine
 10
8683.599999999984
 20
5982.375394111461
 30
0.0
 11
8683.599999999984
 21
6092.375394111461
 31
0.0
  0
LINE
  5
1DD3B
102
{ACAD_REACTORS
330
211E5
102
}
330
747D
100
AcDbEntity
  8
部品1
 48
50.0
100
AcDbLine
 10
8323.599999999991
 20
5787.375394111457
 30
0.0
 11
8323.599999999991
 21
5982.375394111461
 31
0.0
  0
LINE
  5
1DD3C
102
{ACAD_REACTORS
330
211E5
102
}
330
747D
100
AcDbEntity
  8
部品1
 48
50.0
100
AcDbLine
 10
7653.600000000003
 20
6662.375394111461
 30
0.0
 11
7533.599999999999
 21
6662.375394111461
 31
0.0
  0
LINE
  5
1DD3D
102
{ACAD_REACTORS
330
211E5
102
}
330
747D
100
AcDbEntity
  8
部品1
 48
50.0
100
AcDbLine
 10
7653.600000000001
 20
6862.375394111461
 30
0.0
 11
7533.599999999999
 21
6862.375394111461
 31
0.0
  0
LINE
  5
1DD3F
330
747D
100
AcDbEntity
  8
部品1
 48
50.0
100
AcDbLine
 10
8123.600000000001
 20
6662.375394111461
 30
0.0
 11
8123.600000000001
 21
6862.375394111461
 31
0.0
  0
LINE
  5
1DD40
330
747D
100
AcDbEntity
  8
部品1
 48
50.0
100
AcDbLine
 10
7763.6
 20
5982.375394111461
 30
0.0
 11
7763.600000000003
 21
6092.375394111462
 31
0.0
  0
CIRCLE
  5
1DD41
330
747D
100
AcDbEntity
  8
部品1
 48
50.0
100
AcDbCircle
 10
7656.6
 20
5985.375394111461
 30
0.0
 40
35.0
  0
LINE
  5
1DD42
330
747D
100
AcDbEntity
  8
センター
 48
2.0
100
AcDbLine
 10
7656.600000000001
 20
6035.375394111461
 30
0.0
 11
7656.600000000001
 21
5935.375394111462
 31
0.0
  0
LINE
  5
1DD43
330
747D
100
AcDbEntity
  8
部品1
 48
50.0
100
AcDbLine
 10
7763.600000000003
 20
6092.375394111462
 30
0.0
 11
7653.600000000003
 21
6092.375394111462
 31
0.0
  0
LINE
  5
1DD44
102
{ACAD_REACTORS
330
211E5
102
}
330
747D
100
AcDbEntity
  8
部品1
 48
50.0
100
AcDbLine
 10
8123.599999999992
 20
5787.375394111453
 30
0.0
 11
8123.599999999994
 21
5982.375394111461
 31
0.0
  0
LINE
  5
1DD45
330
747D
100
AcDbEntity
  8
センター
 48
2.0
100
AcDbLine
 10
7606.600000000002
 20
5985.375394111462
 30
0.0
 11
7706.600000000001
 21
5985.375394111462
 31
0.0
  0
DIMENSION
  5
1E90B
330
747D
100
AcDbEntity
  8
寸法
 48
50.0
100
AcDbDimension
  2
*D35
 10
7222.886924528546
 20
5862.375394111447
 30
0.0
 11
7222.886924528546
 21
5253.890112737209
 31
0.0
 70
   160
  1
扉の出<>
 71
     5
 42
74.99999999999909
  3
INABA_S40G
100
AcDbAlignedDimension
 13
7533.600000000001
 23
5787.375394111449
 33
0.0
 14
7533.600000000001
 24
5862.375394111447
 34
0.0
 50
90.0
100
AcDbRotatedDimension
1001
ACAD
1000
DSTYLE
1002
{
1070
   341
1005
0
1002
}
  0
LINE
  5
1EC46
330
747D
100
AcDbEntity
  8
部品1
 48
50.0
100
AcDbLine
 10
8913.599999999984
 20
5787.375394111466
 30
0.0
 11
8913.599999999984
 21
5862.375394111462
 31
0.0
  0
LINE
  5
1EC47
102
{ACAD_REACTORS
330
211E5
102
}
330
747D
100
AcDbEntity
  8
部品1
 48
50.0
100
AcDbLine
 10
8913.599999999984
 20
5787.375394111464
 30
0.0
 11
7533.600000000001
 21
5787.375394111447
 31
0.0
  0
MTEXT
  5
1EDAF
330
747D
100
AcDbEntity
  8
部品1
 62
     7
 48
50.0
100
AcDbMText
 10
8594.381794195884
 20
7088.907638387965
 30
0.0
 40
120.0
 41
0.0
 71
     6
 72
     1
  1
CB
  7
STYLE1
 73
     1
 44
1.0
1001
ACAD
1000
MTEXTBEGIN
1070
    73
1070
     1
1070
    44
1040
1.0
1070
    74
1070
     0
1000
MTEXTEND
  0
LEADER
  5
1EDB1
330
747D
100
AcDbEntity
  8
寸法
 48
50.0
100
AcDbLeader
  3
INABA_S50G
 73
     0
 74
     0
 75
     1
 40
120.0
 41
994.3492424049171
 76
     3
 10
8790.680085756997
 20
7539.38911730767
 30
0.0
 10
8964.645988304964
 20
7828.347888455411
 30
0.0
 10
9089.645988304964
 20
7828.347888455411
 30
0.0
340
1EDB2
1001
ACAD
1000
DSTYLE
1002
{
1070
   341
1005
0
1070
    40
1040
1.0
1070
   343
1005
0
1070
   344
1005
0
1002
}
  0
MTEXT
  5
1EDB2
102
{ACAD_REACTORS
330
1EDB1
102
}
330
747D
100
AcDbEntity
  8
部品1
 62
     7
 48
50.0
100
AcDbMText
 10
10108.99523070988
 20
7913.347888455412
 30
0.0
 40
120.0
 41
0.0
 71
     6
 72
     1
  1
アンカーボルト
  7
STYLE1
 73
     1
 44
1.0
1001
ACAD
1000
MTEXTBEGIN
1070
    73
1070
     1
1070
    44
1040
1.0
1070
    74
1070
     0
1000
MTEXTEND
  0
DIMENSION
  5
1EDBE
330
747D
100
AcDbEntity
  8
寸法
 48
50.0
100
AcDbDimension
  2
*D38
 10
6575.379677941082
 20
7707.987498254365
 30
0.0
 11
6575.379677941082
 21
7979.162119456823
 31
0.0
 70
   160
  1
a
 71
     5
 42
45.61210414290235
  3
INABA_S40G
100
AcDbAlignedDimension
 13
7533.599999999999
 23
7662.375394111461
 33
0.0
 14
6787.840373457918
 24
7707.987498254365
 34
0.0
 50
90.0
100
AcDbRotatedDimension
1001
ACAD
1000
DSTYLE
1002
{
1070
   341
1005
0
1002
}
  0
LEADER
  5
1EDEF
330
747D
100
AcDbEntity
  8
寸法
 48
50.0
100
AcDbLeader
  3
INABA_S50G
 73
     0
 74
     0
 75
     1
 40
120.0
 41
672.0
 76
     3
 10
8988.602603499785
 20
7196.479818800845
 30
0.0
 10
9104.542615691824
 20
6937.590475337271
 30
0.0
 10
9229.542615691824
 20
6937.590475337271
 30
0.0
340
1EDF0
1001
ACAD
1000
DSTYLE
1002
{
1070
   341
1005
0
1070
    40
1040
1.0
1070
   343
1005
0
1070
   344
1005
0
1002
}
  0
MTEXT
  5
1EDF0
102
{ACAD_REACTORS
330
1EDEF
102
}
330
747D
100
AcDbEntity
  8
部品1
 62
     7
 48
50.0
100
AcDbMText
 10
9926.542615691825
 20
7022.59047533727
 30
0.0
 40
120.0
 41
0.0
 71
     6
 72
     1
  1
\A1;屋根の外寸
  7
STYLE1
 73
     1
 44
1.0
1001
ACAD
1000
MTEXTBEGIN
1070
    73
1070
     1
1070
    44
1040
1.0
1070
    74
1070
     0
1000
MTEXTEND
  0
TEXT
  5
1EDF1
330
747D
100
AcDbEntity
  8
部品1
 48
50.0
100
AcDbText
 10
9128.755419703219
 20
6843.279788404196
 30
0.0
 40
80.0
  1
※a,b,cは屋根の出幅です。
  7
STYLE1
100
AcDbText
  0
TEXT
  5
1EDF2
330
747D
100
AcDbEntity
  8
部品1
 48
50.0
100
AcDbText
 10
9287.334428457521
 20
6736.434567535441
 30
0.0
 40
80.0
  1
(a=45,b=55,c=75)
  7
STYLE1
100
AcDbText
  0
MTEXT
  5
1EDF3
102
{ACAD_REACTORS
330
1EDF4
102
}
330
747D
100
AcDbEntity
  8
部品1
 62
     7
 48
50.0
100
AcDbMText
 10
9940.469074001256
 20
6572.868795868456
 30
0.0
 40
120.0
 41
0.0
 71
     6
 72
     1
  1
\A1;床下換気口
  7
STYLE1
 73
     1
 44
1.0
1001
ACAD
1000
MTEXTBEGIN
1070
    73
1070
     1
1070
    44
1040
1.0
1070
    74
1070
     0
1000
MTEXTEND
  0
LEADER
  5
1EDF4
330
747D
100
AcDbEntity
  8
寸法
 48
50.0
100
AcDbLeader
  3
INABA_S50G
 73
     0
 74
     0
 75
     1
 40
120.0
 41
720.0000000000001
 76
     3
 10
8913.695499614972
 20
6748.882709436289
 30
0.0
 10
9070.469074001255
 20
6487.868795868457
 30
0.0
 10
9195.469074001255
 20
6487.868795868457
 30
0.0
340
1EDF3
1001
ACAD
1000
DSTYLE
1002
{
1070
   341
1005
0
1070
    40
1040
1.0
1070
   343
1005
0
1070
   344
1005
0
1002
}
  0
DIMENSION
  5
1EE04
330
747D
100
AcDbEntity
  8
寸法
 48
50.0
100
AcDbDimension
  2
*D37
 10
8913.6
 20
8678.509966973782
 30
0.0
 11
8951.100000000002
 21
8778.509966973784
 31
0.0
 70
    32
  1
c
 71
     5
 42
75.00000000000182
  3
INABA_S40G
100
AcDbAlignedDimension
 13
8988.600000000003
 23
8433.017164835815
 33
0.0
 14
8913.6
 24
7662.375394111461
 34
0.0
100
AcDbRotatedDimension
1001
ACAD
1000
DSTYLE
1002
{
1070
   341
1005
0
1002
}
  0
DIMENSION
  5
1EE10
330
747D
100
AcDbEntity
  8
寸法
 48
50.0
100
AcDbDimension
  2
*D36
 10
7478.600000000013
 20
8678.509966973782
 30
0.0
 11
7506.100000000007
 21
8778.509966973784
 31
0.0
 70
    32
  1
b
 71
     5
 42
54.99999999998817
  3
INABA_S40G
100
AcDbAlignedDimension
 13
7533.599999999999
 23
7661.76328996857
 33
0.0
 14
7478.600000000013
 24
8433.017164835815
 34
0.0
100
AcDbRotatedDimension
1001
ACAD
1000
DSTYLE
1002
{
1070
   341
1005
0
1002
}
  0
SOLID
  5
1F65E
330
747D
100
AcDbEntity
  8
寸法
 48
50.0
100
AcDbTrace
 10
8366.158345401002
 20
6875.629216544261
 30
0.0
 11
8282.446997869088
 21
6780.490170552781
 31
0.0
 12
8330.777500888526
 22
6897.636191636152
 32
0.0
 13
8330.777500888526
 23
6897.636191636152
 33
0.0
1001
ACAD
1000
DSTYLE
1002
{
1070
   341
1005
0
1070
    40
1040
1.0
1070
   343
1005
0
1070
   344
1005
0
1002
}
  0
LWPOLYLINE
  5
1F65F
330
747D
100
AcDbEntity
  8
寸法
 48
50.0
100
AcDbPolyline
 90
        3
 70
     0
 43
0.0
 10
8348.467923144765
 20
6886.632704090208
 10
8421.413229950088
 20
7003.907638387966
 10
8620.578376394711
 20
7003.907638387966
1001
ACAD
1000
DSTYLE
1002
{
1070
   341
1005
0
1070
    40
1040
1.0
1070
   343
1005
0
1070
   344
1005
0
1002
}
  0
TEXT
  5
1F904
330
747D
100
AcDbEntity
  8
寸法
 62
     7
100
AcDbText
 10
7616.285760402144
 20
4531.943118713253
 30
0.0
 40
120.0
  1
扉の位置に合わせた基礎形状として下さい。
  7
STYLE1
100
AcDbText
  0
LWPOLYLINE
  5
1F905
330
747D
100
AcDbEntity
  8
寸法
 48
50.0
100
AcDbPolyline
 90
        3
 70
     0
 43
0.0
 10
-7840.680265711764
 20
5787.375394111461
 10
-7499.66980120939
 20
4681.278934048259
 10
-10313.73421414103
 20
4681.278934048259
210
0.0
220
0.0
230
-1.0
1001
ACAD
1000
DSTYLE
1002
{
1070
   341
1005
0
1070
    40
1040
1.0
1070
   343
1005
0
1070
   344
1005
0
1002
}
  0
SOLID
  5
1F906
330
747D
100
AcDbEntity
  8
寸法
 48
50.0
100
AcDbTrace
 10
-7823.771060041775
 20
5661.784365206575
 30
0.0
 11
-7840.680265711764
 21
5787.375394111461
 31
0.0
 12
-7783.952845568298
 22
5674.057136175484
 32
0.0
 13
-7783.952845568298
 23
5674.057136175484
 33
0.0
210
0.0
220
0.0
230
-1.0
1001
ACAD
1000
DSTYLE
1002
{
1070
   341
1005
0
1070
    40
1040
1.0
1070
   343
1005
0
1070
   344
1005
0
1002
}
  0
TEXT
  5
1F907
330
747D
100
AcDbEntity
  8
寸法
 62
     7
100
AcDbText
 10
7616.285760402144
 20
4703.546881596579
 30
0.0
 40
120.0
  1
扉位置 (1380x75)
  7
STYLE1
100
AcDbText
  0
DIMENSION
  5
1FC00
330
747D
100
AcDbEntity
  8
寸法
 48
50.0
100
AcDbDimension
  2
*D39
 10
7533.600000000001
 20
5072.511090687337
 30
0.0
 11
8223.599999999994
 21
5172.511090687336
 31
0.0
 70
    32
  1
扉の幅 <>
 71
     5
 42
1379.999999999983
  3
INABA_S40G
100
AcDbAlignedDimension
 13
8913.599999999984
 23
5787.375394111464
 33
0.0
 14
7533.600000000001
 24
5787.375394111447
 34
0.0
100
AcDbRotatedDimension
1001
ACAD
1000
DSTYLE
1002
{
1070
   341
1005
0
1002
}
  0
LINE
  5
20060
330
747D
100
AcDbEntity
  8
想像線
 48
10.0
100
AcDbLine
 10
7478.600000000011
 20
7707.987498254365
 30
0.0
 11
8988.600000000003
 21
7707.987498254367
 31
0.0
  0
LINE
  5
20D04
330
747D
100
AcDbEntity
  8
想像線
 48
10.0
100
AcDbLine
 10
7478.600000000011
 20
7707.987498254365
 30
0.0
 11
7478.600000000011
 21
7148.181244111448
 31
0.0
  0
DIMENSION
  5
20D26
330
747D
100
AcDbEntity
  8
寸法
 48
50.0
100
AcDbDimension
  2
*D40
 10
6575.379677941082
 20
5862.375394111462
 30
0.0
 11
6575.37967794108
 21
5550.588668766103
 31
0.0
 70
   160
  1
a
 71
     5
 42
45.61210414290144
  3
INABA_S40G
100
AcDbAlignedDimension
 13
6787.840373457919
 23
5816.763289968561
 33
0.0
 14
7533.600000000001
 24
5862.375394111462
 34
0.0
 50
90.0
100
AcDbRotatedDimension
1001
ACAD
1000
DSTYLE
1002
{
1070
   341
1005
0
1002
}
  0
LINE
  5
2112E
102
{ACAD_REACTORS
330
21186
102
}
330
747D
100
AcDbEntity
  8
部品1
 48
50.0
100
AcDbLine
 10
8683.599999999998
 20
7542.375394111463
 30
0.0
 11
7763.600000000003
 21
7542.375394111463
 31
0.0
  0
LINE
  5
21131
102
{ACAD_REACTORS
330
211E5
102
}
330
747D
100
AcDbEntity
  8
部品1
 48
50.0
100
AcDbLine
 10
8793.599999999983
 20
6092.375394111461
 30
0.0
 11
8793.599999999996
 21
7432.375394111462
 31
0.0
  0
LINE
  5
21134
102
{ACAD_REACTORS
330
211E5
102
}
330
747D
100
AcDbEntity
  8
部品1
 48
50.0
100
AcDbLine
 10
7653.600000000003
 20
6092.375394111462
 30
0.0
 11
7653.6
 21
7432.375394111462
 31
0.0
  0
LINE
  5
21137
102
{ACAD_REACTORS
330
211E5
102
}
330
747D
100
AcDbEntity
  8
部品1
 48
50.0
100
AcDbLine
 10
8683.59999999998
 20
5982.375394111461
 30
0.0
 11
7763.600000000001
 21
5982.375394111461
 31
0.0
  0
HATCH
  5
21186
330
747D
100
AcDbEntity
  8
細線
 48
50.0
100
AcDbHatch
 10
0.0
 20
0.0
 30
0.0
210
0.0
220
0.0
230
1.0
  2
LINE
 70
     0
 71
     1
 91
        1
 92
        7
 72
     0
 73
     1
 93
        4
 10
8323.599999999991
 20
7662.375394111461
 10
8123.599999999992
 20
7662.375394111461
 10
8123.599999999992
 20
7542.375394111463
 10
8323.599999999991
 20
7542.375394111463
 97
        4
330
1DD01
330
1DD11
330
2112E
330
1DD0D
 75
     0
 76
     1
 52
45.0
 41
10.0
 77
     0
 78
     1
 53
45.0
 43
0.0
 44
0.0
 45
-22.45064030267288
 46
22.45064030267288
 79
     0
 47
1.054320776538552
 98
        1
 10
8291.69188134068
 20
7587.006907044473
  0
HATCH
  5
211E5
330
747D
100
AcDbEntity
  8
細線
 48
50.0
100
AcDbHatch
 10
0.0
 20
0.0
 30
0.0
210
0.0
220
0.0
230
1.0
  2
LINE
 70
     0
 71
     1
 91
        3
 92
        7
 72
     0
 73
     1
 93
        4
 10
8913.599999999981
 20
6862.375394111445
 10
8793.599999999994
 20
6862.375394111445
 10
8793.599999999988
 20
6662.375394111442
 10
8913.599999999977
 20
6662.375394111446
 97
        4
330
1DD30
330
21131
330
1DD31
330
1DD08
 92
        7
 72
     0
 73
     1
 93
        4
 10
8323.599999999991
 20
5982.375394111461
 10
8123.599999999994
 20
5982.375394111461
 10
8123.599999999994
 20
5787.375394111455
 10
8323.599999999993
 20
5787.375394111459
 97
        4
330
21137
330
1DD44
330
1EC47
330
1DD3B
 92
        7
 72
     0
 73
     1
 93
        4
 10
7653.600000000001
 20
6862.375394111461
 10
7533.600000000001
 20
6862.375394111461
 10
7533.600000000001
 20
6662.375394111463
 10
7653.6
 20
6662.375394111461
 97
        4
330
1DD3D
330
1DCF5
330
1DD3C
330
21134
 75
     0
 76
     1
 52
45.0
 41
10.0
 77
     0
 78
     1
 53
45.0
 43
0.0
 44
0.0
 45
-22.45064030267288
 46
22.45064030267288
 79
     0
 47
2.360603038962793
 98
        3
 10
8843.2008158775
 20
6739.067382646746
 10
8248.010920835769
 20
5912.856295676782
 10
7574.879446421175
 20
6800.443053135656
  0
LINE
  5
216E3
330
747D
100
AcDbEntity
  8
部品1
100
AcDbLine
 10
11355.33142969542
 20
3404.21696420206
 30
0.0
 11
5284.346244309164
 21
3404.21696420206
 31
0.0
  0
LINE
  5
216E4
330
747D
100
AcDbEntity
  8
部品1
100
AcDbLine
 10
11355.33142969541
 20
3164.216964202058
 30
0.0
 11
5284.346244309167
 21
3164.216964202059
 31
0.0
  0
LINE
  5
216E5
330
747D
100
AcDbEntity
  8
部品1
100
AcDbLine
 10
5284.346244309169
 20
439.9099946174128
 30
0.0
 11
11355.33142969541
 21
439.9099946174128
 31
0.0
  0
LEADER
  5
216E6
330
747D
100
AcDbEntity
  8
寸法
 48
50.0
100
AcDbLeader
  3
INABA_S50G
 73
     0
 74
     0
 75
     1
 40
102.2727272727273
 41
680.0000000000001
 76
     3
 10
8292.453996295623
 20
2482.120625534358
 30
0.0
 10
8326.80796740898
 20
2892.573436640899
 30
0.0
 10
8451.80796740898
 20
2892.573436640899
 30
0.0
340
216E7
1001
ACAD
1000
DSTYLE
1002
{
1070
   341
1005
0
1070
    40
1040
1.0
1070
   343
1005
0
1070
   344
1005
0
1002
}
  0
MTEXT
  5
216E7
102
{ACAD_REACTORS
330
216E6
102
}
330
747D
100
AcDbEntity
  8
部品1
 62
     7
 48
50.0
100
AcDbMText
 10
8476.80796740898
 20
2968.709800277263
 30
0.0
 40
80.0
 41
0.8
 71
     4
 72
     1
  1
\A1;ナット(市販品)
  7
STYLE2
 73
     1
 44
1.0
1001
ACAD
1000
MTEXTBEGIN
1070
    73
1070
     1
1070
    44
1040
1.0
1070
    74
1070
     0
1000
MTEXTEND
  0
LEADER
  5
216E8
330
747D
100
AcDbEntity
  8
寸法
 48
50.0
100
AcDbLeader
  3
INABA_S50G
 73
     0
 74
     0
 75
     1
 40
102.2727272727273
 41
906.8181818181818
 76
     3
 10
8316.453996295622
 20
2352.368632869495
 30
0.0
 10
8358.325586664461
 20
2707.604353876112
 30
0.0
 10
8483.325586664461
 20
2707.604353876112
 30
0.0
340
216E9
1001
ACAD
1000
DSTYLE
1002
{
1070
   341
1005
0
1070
    40
1040
1.0
1070
   343
1005
0
1070
   344
1005
0
1002
}
  0
MTEXT
  5
216E9
102
{ACAD_REACTORS
330
216E8
102
}
330
747D
100
AcDbEntity
  8
部品1
 62
     7
 48
50.0
100
AcDbMText
 10
8508.325586664462
 20
2783.740717512475
 30
0.0
 40
80.0
 41
0.8
 71
     4
 72
     1
  1
\A1;ワッシャー(市販品)
  7
STYLE2
 73
     1
 44
1.0
1001
ACAD
1000
MTEXTBEGIN
1070
    73
1070
     1
1070
    44
1040
1.0
1070
    74
1070
     0
1000
MTEXTEND
  0
LWPOLYLINE
  5
216EA
330
747D
100
AcDbEntity
  8
部品1
 48
50.0
100
AcDbPolyline
 90
        2
 70
     0
 43
8.0
 10
8469.053996295622
 20
1843.245344425216
 10
8762.756459695006
 20
1843.245344425216
  0
TEXT
  5
216EB
330
747D
100
AcDbEntity
  8
部品1
 48
50.0
100
AcDbText
 10
8473.407580580051
 20
2439.124025187415
 30
0.0
 40
80.0
  1
基礎ボルト(市販品)
  7
STYLE2
100
AcDbText
  0
DIMENSION
  5
216EC
330
747D
100
AcDbEntity
  8
寸法
 48
50.0
100
AcDbDimension
  2
*D53
 10
8970.922596064466
 20
1759.245344425214
 30
0.0
 11
8870.922596064465
 21
1921.245344425216
 31
0.0
 70
    32
  1
180
 71
     5
 42
324.0000000000009
  3
INABA_S40G
100
AcDbAlignedDimension
 13
8469.053996295622
 23
2083.245344425215
 33
0.0
 14
8469.053996295622
 24
1759.245344425214
 34
0.0
 50
90.0
100
AcDbRotatedDimension
1001
ACAD
1000
DSTYLE
1002
{
1070
   174
1070
     0
1070
   272
1070
     1
1070
   279
1070
     1
1070
   288
1070
     0
1070
   341
1005
0
1002
}
  0
DIMENSION
  5
216ED
330
747D
100
AcDbEntity
  8
寸法
 48
50.0
100
AcDbDimension
  2
*D54
 10
8970.922596064466
 20
2083.245344425215
 30
0.0
 11
9246.977262183493
 21
2058.121386821003
 31
0.0
 70
   160
  1
20～25
 71
     5
 42
52.76000000000113
  3
INABA_S40G
100
AcDbAlignedDimension
 13
8281.853996295623
 23
2136.005344425216
 33
0.0
 14
8469.053996295622
 24
2083.245344425215
 34
0.0
 50
90.0
100
AcDbRotatedDimension
1001
ACAD
1000
DSTYLE
1002
{
1070
   174
1070
     0
1070
   272
1070
     1
1070
   279
1070
     1
1070
   288
1070
     0
1070
   341
1005
0
1002
}
  0
MTEXT
  5
216EE
102
{ACAD_REACTORS
330
216EF
102
}
330
747D
100
AcDbEntity
  8
部品1
 62
     7
 48
50.0
100
AcDbMText
 10
8477.998458714941
 20
2347.628670578445
 30
0.0
 40
80.0
 41
0.8
 71
     4
 72
     1
  1
M10X160
  7
STYLE2
 73
     1
 44
1.0
1001
ACAD
1000
MTEXTBEGIN
1070
    73
1070
     1
1070
    44
1040
1.0
1070
    74
1070
     0
1000
MTEXTEND
  0
LEADER
  5
216EF
330
747D
100
AcDbEntity
  8
寸法
 48
50.0
100
AcDbLeader
  3
INABA_S50G
 73
     0
 74
     0
 75
     1
 40
80.0
 41
435.0
 76
     3
 10
8285.453996295622
 20
2132.405344425216
 30
0.0
 10
8327.998458714942
 20
2282.628670578445
 30
0.0
 10
8452.998458714942
 20
2282.628670578445
 30
0.0
340
216EE
1001
ACAD
1000
DSTYLE
1002
{
1070
   341
1005
0
1070
    40
1040
1.0
1070
   343
1005
0
1070
   344
1005
0
1002
}
  0
LINE
  5
216F0
330
747D
100
AcDbEntity
  8
部品1
100
AcDbLine
 10
5284.346244309165
 20
3404.21696420206
 30
0.0
 11
5284.346244309167
 21
439.9099946174128
 31
0.0
  0
LEADER
  5
216F1
330
747D
100
AcDbEntity
  8
寸法
 48
50.0
100
AcDbLeader
  3
INABA_S50G
 73
     0
 75
     1
 40
113.1818181818182
 41
608.6363636363635
 76
     3
 10
8245.190746433673
 20
2032.761017783494
 30
0.0
 10
8111.386917742326
 20
2884.140100139972
 30
0.0
 10
7986.386917742326
 20
2884.140100139972
 30
0.0
340
216F2
1001
ACAD
1000
DSTYLE
1002
{
1070
   341
1005
0
1070
    40
1040
1.0
1070
   343
1005
0
1070
   344
1005
0
1002
}
  0
MTEXT
  5
216F2
102
{ACAD_REACTORS
330
216F1
102
}
330
747D
100
AcDbEntity
  8
寸法
 62
     7
 48
50.0
100
AcDbMText
 10
7961.386917742325
 20
2965.731009230881
 30
0.0
 40
80.0
 41
0.8
 71
     6
 72
     1
  1
\A1;φ70スリーブ
  7
STYLE2
 73
     1
 44
1.0
1001
ACAD
1000
MTEXTBEGIN
1070
    73
1070
     1
1070
    44
1040
1.0
1070
    74
1070
     0
1000
MTEXTEND
  0
LWPOLYLINE
  5
216F3
330
747D
100
AcDbEntity
  8
部品1
 48
50.0
100
AcDbPolyline
 90
        2
 70
     0
 43
8.0
 10
5940.874781285472
 20
1843.245344425216
 10
6355.014683118429
 20
1843.245344425216
  0
TEXT
  5
216F4
330
747D
100
AcDbEntity
  8
部品1
 48
50.0
100
AcDbText
 10
5940.874781285472
 20
1854.48433670847
 30
0.0
 40
80.0
  1
▽G.L
  7
STYLE2
100
AcDbText
  0
DIMENSION
  5
216F5
330
747D
100
AcDbEntity
  8
寸法
 48
50.0
100
AcDbDimension
  2
*D55
 10
6084.594369385968
 20
1299.245344425215
 30
0.0
 11
6084.594369385968
 21
1419.245344425215
 31
0.0
 70
   160
  1
150
 71
     5
 42
240.0
  3
INABA_S40G
100
AcDbAlignedDimension
 13
6227.014683118428
 23
1539.245344425215
 33
0.0
 14
6147.014683118432
 24
1299.245344425215
 34
0.0
 50
90.0
100
AcDbRotatedDimension
1001
ACAD
1000
DSTYLE
1002
{
1070
   174
1070
     0
1070
   272
1070
     1
1070
   279
1070
     1
1070
   288
1070
     0
1070
   341
1005
0
1002
}
  0
LEADER
  5
216F6
330
747D
100
AcDbEntity
  8
寸法
 48
50.0
100
AcDbLeader
  3
INABA_S50G
 71
     0
 73
     0
 75
     1
 40
100.0
 41
225.0
 76
     3
 10
6322.917635470571
 20
1419.245344425215
 30
0.0
 10
6201.079656923234
 20
1155.722650806779
 30
0.0
 10
6076.079656923234
 20
1155.722650806779
 30
0.0
1001
ACAD
1000
DSTYLE
1002
{
1070
    40
1040
1.0
1070
   272
1070
     1
1070
   279
1070
     1
1070
   341
1005
0
1002
}
  0
LEADER
  5
216F7
330
747D
100
AcDbEntity
  8
寸法
 48
50.0
100
AcDbLeader
  3
INABA_S50G
 71
     0
 73
     0
 75
     1
 40
100.0
 41
222.7272727272727
 76
     3
 10
6451.014683118429
 20
1419.245344425215
 30
0.0
 10
6229.202384480669
 20
975.4064982673353
 30
0.0
 10
6104.202384480669
 20
975.4064982673353
 30
0.0
1001
ACAD
1000
DSTYLE
1002
{
1070
    40
1040
1.0
1070
   272
1070
     1
1070
   279
1070
     1
1070
   341
1005
0
1002
}
  0
MTEXT
  5
216F8
102
{ACAD_REACTORS
330
216F9
102
}
330
747D
100
AcDbEntity
  8
寸法
 62
     7
 48
50.0
100
AcDbMText
 10
6265.764628895624
 20
1684.545947242671
 30
0.0
 40
80.0
 41
0.8
 71
     6
 72
     1
  1
\A1;D10@300
  7
STYLE2
 73
     1
 44
1.0
1001
ACAD
1000
MTEXTBEGIN
1070
    73
1070
     1
1070
    44
1040
1.0
1070
    74
1070
     0
1000
MTEXTEND
  0
LEADER
  5
216F9
330
747D
100
AcDbEntity
  8
寸法
 48
50.0
100
AcDbLeader
  3
INABA_S50G
 71
     0
 73
     0
 75
     1
 40
100.0
 41
540.3409090909091
 76
     3
 10
6459.014683118429
 20
1841.372559122338
 30
0.0
 10
6401.03244658973
 20
1619.902230581533
 30
0.0
 10
6276.032446589731
 20
1619.902230581533
 30
0.0
213
-9.732182305893367
223
-4.643716661138569
233
0.0
1001
ACAD
1000
DSTYLE
1002
{
1070
    40
1040
1.0
1070
   272
1070
     1
1070
   279
1070
     1
1070
   341
1005
0
1002
}
  0
LEADER
  5
216FA
330
747D
100
AcDbEntity
  8
寸法
 48
50.0
100
AcDbLeader
  3
INABA_S50G
 71
     0
 73
     0
 75
     1
 40
130.1136363636363
 41
651.1363636363636
 76
     3
 10
6435.014683118429
 20
2083.245344425215
 30
0.0
 10
6322.590102954412
 20
2223.716109881803
 30
0.0
 10
6197.590102954412
 20
2223.716109881803
 30
0.0
1001
ACAD
1000
DSTYLE
1002
{
1070
    40
1040
1.0
1070
   272
1070
     1
1070
   279
1070
     1
1070
   341
1005
0
1002
}
  0
MTEXT
  5
216FB
102
{ACAD_REACTORS
330
216FA
102
}
330
747D
100
AcDbEntity
  8
寸法
 62
     7
 48
50.0
100
AcDbMText
 10
6134.916203635156
 20
2295.761564427257
 30
0.0
 40
80.0
 41
0.8
 71
     6
 72
     1
  1
\A1;金コテ押エ
  7
STYLE2
 73
     1
 44
1.0
1001
ACAD
1000
MTEXTBEGIN
1070
    73
1070
     1
1070
    44
1040
1.0
1070
    74
1070
     0
1000
MTEXTEND
  0
DIMENSION
  5
216FC
330
747D
100
AcDbEntity
  8
寸法
 48
50.0
100
AcDbDimension
  2
*D56
 10
5619.977444556687
 20
1299.245344425215
 30
0.0
 11
5619.977444556688
 21
1670.785494081216
 31
0.0
 70
   160
  1
540
 71
     5
 42
784.0
  3
INABA_S40G
100
AcDbAlignedDimension
 13
6355.014683118429
 23
2083.245344425215
 33
0.0
 14
6147.014683118432
 24
1299.245344425215
 34
0.0
 50
90.0
100
AcDbRotatedDimension
1001
ACAD
1000
DSTYLE
1002
{
1070
   174
1070
     0
1070
   272
1070
     1
1070
   279
1070
     1
1070
   288
1070
     0
1070
   341
1005
0
1002
}
  0
MTEXT
  5
216FD
102
{ACAD_REACTORS
330
216F7
102
}
330
747D
100
AcDbEntity
  8
寸法
 62
     7
 48
50.0
100
AcDbMText
 10
6084.202384480668
 20
1035.406498267335
 30
0.0
 40
80.0
 41
0.8
 71
     6
 72
     1
  1
D13
  7
STYLE2
 73
     1
 44
1.0
1001
ACAD
1000
MTEXTBEGIN
1070
    73
1070
     1
1070
    44
1040
1.0
1070
    74
1070
     0
1000
MTEXTEND
  0
MTEXT
  5
216FE
102
{ACAD_REACTORS
330
216F6
102
}
330
747D
100
AcDbEntity
  8
寸法
 62
     7
 48
50.0
100
AcDbMText
 10
6056.079656923234
 20
1215.722650806779
 30
0.0
 40
80.0
 41
0.8
 71
     6
 72
     1
  1
D10
  7
STYLE2
 73
     1
 44
1.0
1001
ACAD
1000
MTEXTBEGIN
1070
    73
1070
     1
1070
    44
1040
1.0
1070
    74
1070
     0
1000
MTEXTEND
  0
DIMENSION
  5
216FF
330
747D
100
AcDbEntity
  8
寸法
 48
50.0
100
AcDbDimension
  2
*D57
 10
6675.014683118428
 20
760.815706420055
 30
0.0
 11
6430.917924440205
 21
760.815706420055
 31
0.0
 70
   160
  1
300
 71
     5
 42
448.0
  3
INABA_S40G
100
AcDbAlignedDimension
 13
6227.014683118428
 23
1171.245344425215
 33
0.0
 14
6675.014683118428
 24
1171.245344425215
 34
0.0
100
AcDbRotatedDimension
1001
ACAD
1000
DSTYLE
1002
{
1070
   174
1070
     0
1070
   272
1070
     1
1070
   279
1070
     1
1070
   288
1070
     0
1070
   341
1005
0
1002
}
  0
MTEXT
  5
21700
102
{ACAD_REACTORS
330
21701
102
}
330
747D
100
AcDbEntity
  8
寸法
 62
     7
 48
50.0
100
AcDbMText
 10
7988.029923950684
 20
2605.046737323367
 30
0.0
 40
80.0
 41
0.8
 71
     6
 72
     1
  1
アンカープレート Ｕ
  7
STYLE2
 73
     1
 44
1.0
1001
ACAD
1000
MTEXTBEGIN
1070
    73
1070
     1
1070
    44
1040
1.0
1070
    74
1070
     0
1000
MTEXTEND
  0
LEADER
  5
21701
330
747D
100
AcDbEntity
  8
寸法
 48
50.0
100
AcDbLeader
  3
INABA_S50G
 73
     0
 75
     1
 40
106.3636363636363
 41
920.0
 76
     3
 10
8186.453996295623
 20
2152.805344425217
 30
0.0
 10
8138.029923950684
 20
2526.864919141548
 30
0.0
 10
8013.029923950684
 20
2526.864919141548
 30
0.0
340
21700
1001
ACAD
1000
DSTYLE
1002
{
1070
   341
1005
0
1070
    40
1040
1.0
1070
   343
1005
0
1070
   344
1005
0
1002
}
  0
LINE
  5
21702
330
747D
100
AcDbEntity
  8
細線
 48
50.0
100
AcDbLine
 10
6475.01468311843
 20
1921.618237093045
 30
0.0
 11
6547.01468311843
 21
1993.618237093046
 31
0.0
  0
ARC
  5
21703
330
747D
100
AcDbEntity
  8
部品1
 48
50.0
100
AcDbCircle
 10
6451.01468311843
 20
1943.499773819461
 30
0.0
 40
24.0
100
AcDbArc
 50
0.0
 51
180.0
  0
CIRCLE
  5
21704
330
747D
100
AcDbEntity
  8
部品1
 48
50.0
100
AcDbCircle
 10
6451.01468311843
 20
1943.499773819461
 30
0.0
 40
8.0
  0
LINE
  5
21705
330
747D
100
AcDbEntity
  8
部品1
 48
50.0
100
AcDbLine
 10
6355.014683118429
 20
1539.245344425215
 30
0.0
 11
6355.014683118429
 21
2083.245344425215
 31
0.0
  0
LINE
  5
21706
330
747D
100
AcDbEntity
  8
部品1
 48
50.0
100
AcDbLine
 10
6547.01468311843
 20
2083.245344425215
 30
0.0
 11
6547.01468311843
 21
1539.245344425215
 31
0.0
  0
MTEXT
  5
21707
102
{ACAD_REACTORS
330
2170C
102
}
330
747D
100
AcDbEntity
  8
寸法
 62
     7
 48
50.0
100
AcDbMText
 10
6629.900620145824
 20
1944.512905724143
 30
0.0
 40
80.0
 41
0.8
 71
     4
 72
     1
  1
D13
  7
STYLE2
 73
     1
 44
1.0
1001
ACAD
1000
MTEXTBEGIN
1070
    73
1070
     1
1070
    44
1040
1.0
1070
    74
1070
     0
1000
MTEXTEND
  0
LEADER
  5
21708
330
747D
100
AcDbEntity
  8
寸法
 48
50.0
100
AcDbLeader
  3
INABA_S50G
 71
     0
 73
     0
 74
     0
 75
     1
 40
100.0
 41
225.0
 76
     3
 10
6578.917635470571
 20
1419.245344425215
 30
0.0
 10
6633.342342925114
 20
1323.848275482242
 30
0.0
 10
6758.342342925114
 20
1323.848275482242
 30
0.0
1001
ACAD
1000
DSTYLE
1002
{
1070
    40
1040
1.0
1070
   272
1070
     1
1070
   279
1070
     1
1070
   341
1005
0
1002
}
  0
LEADER
  5
21709
330
747D
100
AcDbEntity
  8
寸法
 48
50.0
100
AcDbLeader
  3
INABA_S50G
 71
     0
 73
     0
 74
     0
 75
     1
 40
100.0
 41
540.3409090909091
 76
     3
 10
6524.959852131603
 20
1402.504814011689
 30
0.0
 10
6643.75313897968
 20
1060.873996016792
 30
0.0
 10
6768.75313897968
 20
1060.873996016792
 30
0.0
213
0.0
223
-1.022262676269383
233
0.0
1001
ACAD
1000
DSTYLE
1002
{
1070
    40
1040
1.0
1070
   272
1070
     1
1070
   279
1070
     1
1070
   341
1005
0
1002
}
  0
MTEXT
  5
2170A
102
{ACAD_REACTORS
330
21708
102
}
330
747D
100
AcDbEntity
  8
寸法
 62
     7
 48
50.0
100
AcDbMText
 10
6778.342342925113
 20
1383.848275482242
 30
0.0
 40
80.0
 41
0.8
 71
     4
 72
     1
  1
D10
  7
STYLE2
 73
     1
 44
1.0
1001
ACAD
1000
MTEXTBEGIN
1070
    73
1070
     1
1070
    44
1040
1.0
1070
    74
1070
     0
1000
MTEXTEND
  0
LWPOLYLINE
  5
2170B
330
747D
100
AcDbEntity
  8
部品1
 48
50.0
100
AcDbPolyline
 90
        2
 70
     0
 43
8.0
 10
6547.014683118428
 20
1843.245344425216
 10
6961.154584951386
 20
1843.245344425216
  0
LEADER
  5
2170C
330
747D
100
AcDbEntity
  8
寸法
 48
50.0
100
AcDbLeader
  3
INABA_S50G
 71
     0
 73
     0
 74
     0
 75
     1
 40
100.0
 41
222.7272727272727
 76
     3
 10
6451.014683118429
 20
1943.499773819461
 30
0.0
 10
6484.900620145824
 20
1884.512905724143
 30
0.0
 10
6609.900620145824
 20
1884.512905724143
 30
0.0
1001
ACAD
1000
DSTYLE
1002
{
1070
    40
1040
1.0
1070
   272
1070
     1
1070
   279
1070
     1
1070
   341
1005
0
1002
}
  0
LINE
  5
2170D
330
747D
100
AcDbEntity
  8
細線
 48
50.0
100
AcDbLine
 10
6227.014683118422
 20
1458.092090187386
 30
0.0
 11
6308.167937356257
 21
1539.245344425215
 31
0.0
  0
LINE
  5
2170E
330
747D
100
AcDbEntity
  8
細線
 48
50.0
100
AcDbLine
 10
6434.880530595833
 20
1477.372559122337
 30
0.0
 11
6459.014683118434
 21
1501.506711644936
 31
0.0
  0
LINE
  5
2170F
330
747D
100
AcDbEntity
  8
細線
 48
50.0
100
AcDbLine
 10
6341.812547535502
 20
1411.245344425215
 30
0.0
 11
6459.01468311843
 21
1528.44748000814
 31
0.0
  0
LINE
  5
21710
330
747D
100
AcDbEntity
  8
部品1
 48
50.0
100
AcDbLine
 10
6227.014683118429
 20
1299.245344425215
 30
0.0
 11
6227.014683118429
 21
1539.245344425215
 31
0.0
  0
LINE
  5
21711
330
747D
100
AcDbEntity
  8
細線
 48
50.0
100
AcDbLine
 10
6584.279462804373
 20
1411.245344425215
 30
0.0
 11
6675.01468311843
 21
1501.980564739274
 31
0.0
  0
LINE
  5
21712
330
747D
100
AcDbEntity
  8
細線
 48
50.0
100
AcDbLine
 10
6557.338694441156
 20
1411.245344425215
 30
0.0
 11
6675.01468311843
 21
1528.921333102481
 31
0.0
  0
LINE
  5
21713
330
747D
100
AcDbEntity
  8
部品1
 48
50.0
100
AcDbLine
 10
6675.01468311843
 20
1539.245344425215
 30
0.0
 11
6675.01468311843
 21
1299.245344425215
 31
0.0
  0
LINE
  5
21714
330
747D
100
AcDbEntity
  8
部品1
 48
50.0
100
AcDbLine
 10
6475.014683118435
 20
1419.245344425215
 30
0.0
 11
6475.01468311843
 21
1943.499773819461
 31
0.0
  0
LINE
  5
21715
330
747D
100
AcDbEntity
  8
部品1
 48
50.0
100
AcDbLine
 10
6459.014683118434
 20
1419.245344425215
 30
0.0
 11
6459.014683118422
 21
1943.499773819461
 31
0.0
  0
LINE
  5
21716
330
747D
100
AcDbEntity
  8
細線
 48
50.0
100
AcDbLine
 10
6443.014683118429
 20
1458.565943281726
 30
0.0
 11
6459.014683118434
 21
1474.565943281726
 31
0.0
  0
LINE
  5
21717
330
747D
100
AcDbEntity
  8
細線
 48
50.0
100
AcDbLine
 10
6432.197522614443
 20
1171.245344425215
 30
0.0
 11
6466.495019245626
 21
1299.245344425215
 31
0.0
  0
LINE
  5
21718
330
747D
100
AcDbEntity
  8
部品1
 48
50.0
100
AcDbLine
 10
6755.014683118433
 20
1171.245344425215
 30
0.0
 11
6147.014683118431
 21
1171.245344425215
 31
0.0
  0
LINE
  5
21719
330
747D
100
AcDbEntity
  8
部品1
 48
50.0
100
AcDbLine
 10
6283.014683118429
 20
1395.245344425215
 30
0.0
 11
6619.014683118429
 21
1395.245344425215
 31
0.0
  0
LINE
  5
2171A
330
747D
100
AcDbEntity
  8
部品1
 48
50.0
100
AcDbLine
 10
6283.014683118429
 20
1411.245344425215
 30
0.0
 11
6619.014683118429
 21
1411.245344425215
 31
0.0
  0
LINE
  5
2171B
330
747D
100
AcDbEntity
  8
部品1
 48
50.0
100
AcDbLine
 10
6755.014683118433
 20
1299.245344425215
 30
0.0
 11
6147.014683118431
 21
1299.245344425215
 31
0.0
  0
CIRCLE
  5
2171C
330
747D
100
AcDbEntity
  8
部品1
 48
50.0
100
AcDbCircle
 10
6451.01468311843
 20
1419.245344425215
 30
0.0
 40
8.0
  0
LINE
  5
2171D
330
747D
100
AcDbEntity
  8
細線
 48
50.0
100
AcDbLine
 10
6445.338694441161
 20
1299.245344425215
 30
0.0
 11
6541.338694441162
 21
1395.245344425215
 31
0.0
  0
LINE
  5
2171E
330
747D
100
AcDbEntity
  8
細線
 48
50.0
100
AcDbLine
 10
6274.421432719945
 20
1171.245344425215
 30
0.0
 11
6308.718929351129
 21
1299.245344425215
 31
0.0
  0
LINE
  5
2171F
330
747D
100
AcDbEntity
  8
細線
 48
50.0
100
AcDbLine
 10
6353.309477667191
 20
1171.245344425213
 30
0.0
 11
6387.606974298374
 21
1299.245344425213
 31
0.0
  0
LINE
  5
21720
330
747D
100
AcDbEntity
  8
細線
 48
50.0
100
AcDbLine
 10
6195.533387772687
 20
1171.245344425213
 30
0.0
 11
6229.83088440387
 21
1299.245344425213
 31
0.0
  0
LINE
  5
21721
330
747D
100
AcDbEntity
  8
部品1
 48
50.0
100
AcDbLine
 10
6147.014683118431
 20
1171.245344425215
 30
0.0
 11
6147.014683118431
 21
1299.245344425215
 31
0.0
  0
LINE
  5
21722
330
747D
100
AcDbEntity
  8
細線
 48
50.0
100
AcDbLine
 10
6280.852213338292
 20
1195.245344425215
 30
0.0
 11
6287.282993956639
 21
1171.245344425215
 31
0.0
  0
LINE
  5
21723
330
747D
100
AcDbEntity
  8
細線
 48
50.0
100
AcDbLine
 10
6201.96416839104
 20
1195.245344425215
 30
0.0
 11
6208.394949009386
 21
1171.245344425215
 31
0.0
  0
LINE
  5
21724
330
747D
100
AcDbEntity
  8
細線
 48
50.0
100
AcDbLine
 10
6438.628303232796
 20
1195.245344425215
 30
0.0
 11
6445.059083851143
 21
1171.245344425215
 31
0.0
  0
LINE
  5
21725
330
747D
100
AcDbEntity
  8
細線
 48
50.0
100
AcDbLine
 10
6359.740258285544
 20
1195.245344425215
 30
0.0
 11
6366.17103890389
 21
1171.245344425215
 31
0.0
  0
LINE
  5
21726
330
747D
100
AcDbEntity
  8
細線
 48
50.0
100
AcDbLine
 10
6256.753315898713
 20
1299.245344425215
 30
0.0
 11
6352.753315898713
 21
1395.245344425215
 31
0.0
  0
LINE
  5
21727
330
747D
100
AcDbEntity
  8
細線
 48
50.0
100
AcDbLine
 10
6229.812547535502
 20
1299.245344425215
 30
0.0
 11
6325.812547535502
 21
1395.245344425215
 31
0.0
  0
LINE
  5
21728
330
747D
100
AcDbEntity
  8
部品1
 48
50.0
100
AcDbLine
 10
6283.014683118429
 20
1411.245344425215
 30
0.0
 11
6283.014683118429
 21
1395.245344425215
 31
0.0
  0
LINE
  5
21729
330
747D
100
AcDbEntity
  8
細線
 48
50.0
100
AcDbLine
 10
6223.40010378553
 20
1275.245344425215
 30
0.0
 11
6216.969323167182
 21
1299.245344425215
 31
0.0
  0
LINE
  5
2172A
330
747D
100
AcDbEntity
  8
細線
 48
50.0
100
AcDbLine
 10
6147.014683118429
 20
1284.585265390995
 30
0.0
 11
6150.942839456625
 21
1299.245344425215
 31
0.0
  0
LINE
  5
2172B
330
747D
100
AcDbEntity
  8
部品1
 48
50.0
100
AcDbLine
 10
6443.014683118429
 20
1477.372559122337
 30
0.0
 11
6427.014683118429
 21
1477.372559122337
 31
0.0
  0
CIRCLE
  5
2172C
330
747D
100
AcDbEntity
  8
部品1
 48
50.0
100
AcDbCircle
 10
6323.014683118429
 20
1419.245344425215
 30
0.0
 40
8.0
  0
LINE
  5
2172D
330
747D
100
AcDbEntity
  8
細線
 48
50.0
100
AcDbLine
 10
6395.694084261918
 20
1411.245344425215
 30
0.0
 11
6427.014683118429
 21
1442.565943281726
 31
0.0
  0
ARC
  5
2172E
330
747D
100
AcDbEntity
  8
部品1
 48
50.0
100
AcDbCircle
 10
6451.01468311843
 20
1419.245344425215
 30
0.0
 40
24.0
100
AcDbArc
 50
180.0
 51
199.4712206345112
  0
LINE
  5
2172F
330
747D
100
AcDbEntity
  8
細線
 48
50.0
100
AcDbLine
 10
6302.288148732781
 20
1275.245344425215
 30
0.0
 11
6295.857368114434
 21
1299.245344425215
 31
0.0
  0
LINE
  5
21730
330
747D
100
AcDbEntity
  8
細線
 48
50.0
100
AcDbLine
 10
6381.176193680033
 20
1275.245344425215
 30
0.0
 11
6374.745413061687
 21
1299.245344425215
 31
0.0
  0
LINE
  5
21731
330
747D
100
AcDbEntity
  8
細線
 48
50.0
100
AcDbLine
 10
6283.694084261918
 20
1299.245344425215
 30
0.0
 11
6379.694084261918
 21
1395.245344425215
 31
0.0
  0
LINE
  5
21732
330
747D
100
AcDbEntity
  8
部品1
 48
50.0
100
AcDbLine
 10
6427.014683118429
 20
1477.372559122337
 30
0.0
 11
6427.014683118429
 21
1419.245344425215
 31
0.0
  0
LINE
  5
21733
330
747D
100
AcDbEntity
  8
細線
 48
50.0
100
AcDbLine
 10
6368.753315898713
 20
1411.245344425215
 30
0.0
 11
6427.014683118429
 21
1469.506711644934
 31
0.0
  0
LINE
  5
21734
330
747D
100
AcDbEntity
  8
部品1
 48
50.0
100
AcDbLine
 10
6443.014683118429
 20
1477.372559122337
 30
0.0
 11
6443.014683118429
 21
1419.245344425215
 31
0.0
  0
LINE
  5
21735
330
747D
100
AcDbEntity
  8
部品1
 48
50.0
100
AcDbLine
 10
6755.014683118433
 20
1299.245344425215
 30
0.0
 11
6755.014683118433
 21
1171.245344425215
 31
0.0
  0
LINE
  5
21736
330
747D
100
AcDbEntity
  8
細線
 48
50.0
100
AcDbLine
 10
6668.861657456183
 20
1171.245344425215
 30
0.0
 11
6703.159154087368
 21
1299.245344425213
 31
0.0
  0
LINE
  5
21737
330
747D
100
AcDbEntity
  8
細線
 48
50.0
100
AcDbLine
 10
6511.085567561689
 20
1171.245344425215
 30
0.0
 11
6545.383064192876
 21
1299.245344425213
 31
0.0
  0
LINE
  5
21738
330
747D
100
AcDbEntity
  8
細線
 48
50.0
100
AcDbLine
 10
6589.973612508938
 20
1171.245344425213
 30
0.0
 11
6624.271109140122
 21
1299.245344425213
 31
0.0
  0
LINE
  5
21739
330
747D
100
AcDbEntity
  8
細線
 48
50.0
100
AcDbLine
 10
6596.404393127286
 20
1195.245344425215
 30
0.0
 11
6602.835173745635
 21
1171.245344425215
 31
0.0
  0
LINE
  5
2173A
330
747D
100
AcDbEntity
  8
細線
 48
50.0
100
AcDbLine
 10
6517.516348180042
 20
1195.245344425215
 30
0.0
 11
6523.947128798387
 21
1171.245344425215
 31
0.0
  0
LINE
  5
2173B
330
747D
100
AcDbEntity
  8
細線
 48
50.0
100
AcDbLine
 10
6675.292438074534
 20
1195.245344425215
 30
0.0
 11
6681.723218692882
 21
1171.245344425215
 31
0.0
  0
LINE
  5
2173C
330
747D
100
AcDbEntity
  8
細線
 48
50.0
100
AcDbLine
 10
6754.180483021781
 20
1195.245344425215
 30
0.0
 11
6755.014683118429
 21
1192.13206728085
 31
0.0
  0
LINE
  5
2173D
330
747D
100
AcDbEntity
  8
細線
 48
50.0
100
AcDbLine
 10
6747.749702403432
 20
1171.245344425213
 30
0.0
 11
6755.014683118429
 21
1198.358621569603
 31
0.0
  0
LINE
  5
2173E
330
747D
100
AcDbEntity
  8
細線
 48
50.0
100
AcDbLine
 10
6611.220231167576
 20
1411.245344425215
 30
0.0
 11
6675.01468311843
 21
1475.039796376066
 31
0.0
  0
CIRCLE
  5
2173F
330
747D
100
AcDbEntity
  8
部品1
 48
50.0
100
AcDbCircle
 10
6579.014683118429
 20
1419.245344425215
 30
0.0
 40
8.0
  0
ARC
  5
21740
330
747D
100
AcDbEntity
  8
部品1
 48
50.0
100
AcDbCircle
 10
6451.01468311843
 20
1419.245344425215
 30
0.0
 40
24.0
100
AcDbArc
 50
340.5287793654888
 51
0.0
  0
LINE
  5
21741
330
747D
100
AcDbEntity
  8
細線
 48
50.0
100
AcDbLine
 10
6460.064238627285
 20
1275.245344425215
 30
0.0
 11
6453.633458008937
 21
1299.245344425215
 31
0.0
  0
LINE
  5
21742
330
747D
100
AcDbEntity
  8
細線
 48
50.0
100
AcDbLine
 10
6538.952283574531
 20
1275.245344425215
 30
0.0
 11
6532.521502956185
 21
1299.245344425215
 31
0.0
  0
LINE
  5
21743
330
747D
100
AcDbEntity
  8
細線
 48
50.0
100
AcDbLine
 10
6472.279462804372
 20
1299.245344425215
 30
0.0
 11
6568.279462804373
 21
1395.245344425215
 31
0.0
  0
LINE
  5
21744
330
747D
100
AcDbEntity
  8
細線
 48
50.0
100
AcDbLine
 10
6499.220231167576
 20
1299.245344425215
 30
0.0
 11
6595.221119012714
 21
1395.246232270354
 31
0.0
  0
LINE
  5
21745
330
747D
100
AcDbEntity
  8
部品1
 48
50.0
100
AcDbLine
 10
6619.014683118429
 20
1411.245344425215
 30
0.0
 11
6619.014683118429
 21
1395.245344425215
 31
0.0
  0
LINE
  5
21746
330
747D
100
AcDbEntity
  8
細線
 48
50.0
100
AcDbLine
 10
6696.728373469024
 20
1275.245344425215
 30
0.0
 11
6690.297592850676
 21
1299.245344425215
 31
0.0
  0
LINE
  5
21747
330
747D
100
AcDbEntity
  8
細線
 48
50.0
100
AcDbLine
 10
6660.864841346823
 20
1299.245344425215
 30
0.0
 11
6675.01468311843
 21
1313.395186196822
 31
0.0
  0
LINE
  5
21748
330
747D
100
AcDbEntity
  8
細線
 48
50.0
100
AcDbLine
 10
6617.840328521777
 20
1275.245344425215
 30
0.0
 11
6611.409547903431
 21
1299.245344425215
 31
0.0
  0
LINE
  5
21749
330
747D
100
AcDbEntity
  8
細線
 48
50.0
100
AcDbLine
 10
6355.014683118429
 20
1613.032858550593
 30
0.0
 11
6459.014683118434
 21
1717.032858550596
 31
0.0
  0
LINE
  5
2174A
330
747D
100
AcDbEntity
  8
細線
 48
50.0
100
AcDbLine
 10
6355.014683118429
 20
1639.973626913801
 30
0.0
 11
6459.01468311843
 21
1743.973626913801
 31
0.0
  0
LINE
  5
2174B
330
747D
100
AcDbEntity
  8
細線
 48
50.0
100
AcDbLine
 10
6355.014683118429
 20
1586.092090187386
 30
0.0
 11
6459.014683118434
 21
1690.092090187386
 31
0.0
  0
LINE
  5
2174C
330
747D
100
AcDbEntity
  8
細線
 48
50.0
100
AcDbLine
 10
6443.014683118429
 20
1889.618237093046
 30
0.0
 11
6459.01468311843
 21
1905.618237093045
 31
0.0
  0
LINE
  5
2174D
330
747D
100
AcDbEntity
  8
細線
 48
50.0
100
AcDbLine
 10
6443.014683118429
 20
1916.559005456252
 30
0.0
 11
6459.01468311843
 21
1932.559005456252
 31
0.0
  0
LINE
  5
2174E
330
747D
100
AcDbEntity
  8
部品1
 48
50.0
100
AcDbLine
 10
6227.014683118429
 20
1539.245344425215
 30
0.0
 11
6355.014683118429
 21
1539.245344425215
 31
0.0
  0
LINE
  5
2174F
330
747D
100
AcDbEntity
  8
細線
 48
50.0
100
AcDbLine
 10
6227.014683118422
 20
1485.03285855059
 30
0.0
 11
6281.227168993054
 21
1539.245344425215
 31
0.0
  0
LINE
  5
21750
330
747D
100
AcDbEntity
  8
細線
 48
50.0
100
AcDbLine
 10
6227.014683118422
 20
1511.973626913801
 30
0.0
 11
6254.286400629844
 21
1539.245344425215
 31
0.0
  0
LINE
  5
21751
330
747D
100
AcDbEntity
  8
部品1
 48
50.0
100
AcDbLine
 10
6443.014683118429
 20
1885.372559122337
 30
0.0
 11
6427.014683118429
 21
1885.372559122341
 31
0.0
  0
LINE
  5
21752
330
747D
100
AcDbEntity
  8
細線
 48
50.0
100
AcDbLine
 10
6355.014683118429
 20
1801.618237093045
 30
0.0
 11
6438.769005147723
 21
1885.372559122337
 31
0.0
  0
LINE
  5
21753
330
747D
100
AcDbEntity
  8
細線
 48
50.0
100
AcDbLine
 10
6355.014683118429
 20
1828.559005456252
 30
0.0
 11
6427.014683118429
 21
1900.559005456253
 31
0.0
  0
LINE
  5
21754
330
747D
100
AcDbEntity
  8
部品1
 48
50.0
100
AcDbLine
 10
6427.014683118429
 20
1885.372559122341
 30
0.0
 11
6427.014683118429
 21
1943.499773819461
 31
0.0
  0
LINE
  5
21755
330
747D
100
AcDbEntity
  8
細線
 48
50.0
100
AcDbLine
 10
6355.014683118429
 20
1855.499773819461
 30
0.0
 11
6427.014683118429
 21
1927.499773819461
 31
0.0
  0
LINE
  5
21756
330
747D
100
AcDbEntity
  8
部品1
 48
50.0
100
AcDbLine
 10
6443.014683118429
 20
1885.372559122337
 30
0.0
 11
6443.014683118429
 21
1943.499773819461
 31
0.0
  0
LINE
  5
21757
330
747D
100
AcDbEntity
  8
細線
 48
50.0
100
AcDbLine
 10
6475.014683118435
 20
1706.092090187386
 30
0.0
 11
6547.014683118423
 21
1778.092090187386
 31
0.0
  0
LINE
  5
21758
330
747D
100
AcDbEntity
  8
部品1
 48
50.0
100
AcDbLine
 10
6547.01468311843
 20
1539.245344425215
 30
0.0
 11
6675.01468311843
 21
1539.245344425215
 31
0.0
  0
LINE
  5
21759
330
747D
100
AcDbEntity
  8
細線
 48
50.0
100
AcDbLine
 10
6475.014683118435
 20
1517.506711644936
 30
0.0
 11
6547.014683118423
 21
1589.506711644931
 31
0.0
  0
LINE
  5
2175A
330
747D
100
AcDbEntity
  8
細線
 48
50.0
100
AcDbLine
 10
6475.014683118435
 20
1544.447480008144
 30
0.0
 11
6547.014683118423
 21
1616.44748000814
 31
0.0
  0
LINE
  5
2175B
330
747D
100
AcDbEntity
  8
細線
 48
50.0
100
AcDbLine
 10
6475.014683118435
 20
1490.565943281726
 30
0.0
 11
6547.014683118423
 21
1562.565943281726
 31
0.0
  0
LINE
  5
2175C
330
747D
100
AcDbEntity
  8
細線
 48
50.0
100
AcDbLine
 10
6475.01468311843
 20
1759.973626913801
 30
0.0
 11
6547.01468311843
 21
1831.973626913801
 31
0.0
  0
LINE
  5
2175D
330
747D
100
AcDbEntity
  8
細線
 48
50.0
100
AcDbLine
 10
6475.014683118435
 20
1733.032858550596
 30
0.0
 11
6547.014683118423
 21
1805.03285855059
 31
0.0
  0
MTEXT
  5
2175E
102
{ACAD_REACTORS
330
21709
102
}
330
747D
100
AcDbEntity
  8
寸法
 62
     7
 48
50.0
100
AcDbMText
 10
6788.753138979679
 20
1121.896258693062
 30
0.0
 40
80.0
 41
0.8
 71
     4
 72
     1
  1
\A1;D10@300
  7
STYLE2
 73
     1
 44
1.0
1001
ACAD
1000
MTEXTBEGIN
1070
    73
1070
     1
1070
    44
1040
1.0
1070
    74
1070
     0
1000
MTEXTEND
  0
DIMENSION
  5
2175F
330
747D
100
AcDbEntity
  8
寸法
 48
50.0
100
AcDbDimension
  2
*D58
 10
6355.014683118429
 20
2403.245344425215
 30
0.0
 11
6462.241013463625
 21
2502.913152341596
 31
0.0
 70
   160
  1
120\P195
 71
     5
 42
192.0
  3
INABA_S40G
100
AcDbAlignedDimension
 13
6547.014683118428
 23
2083.245344425215
 33
0.0
 14
6355.014683118429
 24
2083.245344425215
 34
0.0
100
AcDbRotatedDimension
1001
ACAD
1000
DSTYLE
1002
{
1070
   174
1070
     0
1070
   272
1070
     1
1070
   279
1070
     1
1070
   288
1070
     0
1070
   341
1005
0
1002
}
  0
LINE
  5
21760
330
747D
100
AcDbEntity
  8
部品1
 48
50.0
100
AcDbLine
 10
6355.014683118429
 20
2083.245344425215
 30
0.0
 11
6547.01468311843
 21
2083.245344425215
 31
0.0
  0
LINE
  5
21761
330
747D
100
AcDbEntity
  8
細線
 48
50.0
100
AcDbLine
 10
6355.014683118429
 20
2044.085152361913
 30
0.0
 11
6394.174875181733
 21
2083.245344425215
 31
0.0
  0
LINE
  5
21762
330
747D
100
AcDbEntity
  8
細線
 48
50.0
100
AcDbLine
 10
6355.014683118429
 20
2017.144383998705
 30
0.0
 11
6421.115643544938
 21
2083.245344425215
 31
0.0
  0
LINE
  5
21763
330
747D
100
AcDbEntity
  8
細線
 48
50.0
100
AcDbLine
 10
6355.014683118429
 20
2071.02592072512
 30
0.0
 11
6367.234106818524
 21
2083.245344425215
 31
0.0
  0
LINE
  5
21764
330
747D
100
AcDbEntity
  8
細線
 48
50.0
100
AcDbLine
 10
6474.567390384414
 20
1948.111712722237
 30
0.0
 11
6547.01468311843
 21
2020.559005456253
 31
0.0
  0
LINE
  5
21765
330
747D
100
AcDbEntity
  8
細線
 48
50.0
100
AcDbLine
 10
6463.507105620898
 20
1963.992196321931
 30
0.0
 11
6547.01468311843
 21
2047.499773819461
 31
0.0
  0
LINE
  5
21766
330
747D
100
AcDbEntity
  8
細線
 48
50.0
100
AcDbLine
 10
8339.453996295624
 20
1924.373626913803
 30
0.0
 11
8469.053996295622
 21
2053.973626913802
 31
0.0
  0
LINE
  5
21767
330
747D
100
AcDbEntity
  8
部品1
100
AcDbLine
 10
8469.05399629562
 20
1539.245344425215
 30
0.0
 11
8469.053996295622
 21
2083.245344425215
 31
0.0
  0
LINE
  5
21768
330
747D
100
AcDbEntity
  8
部品1
 48
50.0
100
AcDbLine
 10
8055.053996295622
 20
1539.245344425215
 30
0.0
 11
8055.053996295622
 21
2083.245344425215
 31
0.0
  0
LINE
  5
21769
330
747D
100
AcDbEntity
  8
細線
 48
50.0
100
AcDbLine
 10
8055.053996295622
 20
1855.499773819461
 30
0.0
 11
8213.453996295623
 21
2013.899773819458
 31
0.0
  0
LINE
  5
2176A
330
747D
100
AcDbEntity
  8
細線
 48
50.0
100
AcDbLine
 10
8055.053996295622
 20
1828.559005456252
 30
0.0
 11
8213.453996295623
 21
1986.95900545625
 31
0.0
  0
LINE
  5
2176B
330
747D
100
AcDbEntity
  8
細線
 48
50.0
100
AcDbLine
 10
8055.053996295622
 20
1801.618237093045
 30
0.0
 11
8213.453996295617
 21
1960.018237093038
 31
0.0
  0
TEXT
  5
2176C
330
747D
100
AcDbEntity
  8
部品1
 48
50.0
100
AcDbText
 10
7640.914094462667
 20
1854.48433670847
 30
0.0
 40
80.0
  1
▽G.L
  7
STYLE2
100
AcDbText
  0
LINE
  5
2176D
330
747D
100
AcDbEntity
  8
部品1
100
AcDbLine
 10
8285.453996295622
 20
1858.245344425215
 30
0.0
 11
8285.45399629562
 21
2132.405344425216
 31
0.0
  0
LINE
  5
2176E
330
747D
100
AcDbEntity
  8
部品1
100
AcDbLine
 10
8267.453996295623
 20
1858.245344425215
 30
0.0
 11
8267.453996295619
 21
2132.405344425216
 31
0.0
  0
LINE
  5
2176F
330
747D
100
AcDbEntity
  8
細線
 48
50.0
100
AcDbLine
 10
8339.453996295624
 20
1870.492090187374
 30
0.0
 11
8469.053996295622
 21
2000.092090187365
 31
0.0
  0
LINE
  5
21770
330
747D
100
AcDbEntity
  8
細線
 48
50.0
100
AcDbLine
 10
8339.453996295624
 20
1897.432858550586
 30
0.0
 11
8469.053996295622
 21
2027.032858550583
 31
0.0
  0
LINE
  5
21771
330
747D
100
AcDbEntity
  8
部品1
100
AcDbLine
 10
8339.453996295622
 20
1759.245344425215
 30
0.0
 11
8339.453996295622
 21
2083.245344425215
 31
0.0
  0
LINE
  5
21772
330
747D
100
AcDbEntity
  8
部品1
100
AcDbLine
 10
8213.453996295617
 20
1759.245344425215
 30
0.0
 11
8213.453996295623
 21
2083.245344425215
 31
0.0
  0
LINE
  5
21773
330
747D
100
AcDbEntity
  8
細線
 48
50.0
100
AcDbLine
 10
8055.053996295622
 20
1613.032858550593
 30
0.0
 11
8213.453996295616
 21
1771.432858550582
 31
0.0
  0
LINE
  5
21774
330
747D
100
AcDbEntity
  8
細線
 48
50.0
100
AcDbLine
 10
8055.053996295622
 20
1586.092090187386
 30
0.0
 11
8228.207250533458
 21
1759.245344425213
 31
0.0
  0
LINE
  5
21775
330
747D
100
AcDbEntity
  8
細線
 48
50.0
100
AcDbLine
 10
8055.053996295622
 20
1639.973626913801
 30
0.0
 11
8213.453996295616
 21
1798.373626913796
 31
0.0
  0
LINE
  5
21776
330
747D
100
AcDbEntity
  8
細線
 48
50.0
100
AcDbLine
 10
7983.733397439111
 20
1299.245344425215
 30
0.0
 11
8469.053996295622
 21
1784.565943281723
 31
0.0
  0
LINE
  5
21777
330
747D
100
AcDbEntity
  8
細線
 48
50.0
100
AcDbLine
 10
7956.792629075906
 20
1299.245344425215
 30
0.0
 11
8469.053996295626
 21
1811.506711644929
 31
0.0
  0
LINE
  5
21778
330
747D
100
AcDbEntity
  8
細線
 48
50.0
100
AcDbLine
 10
7929.851860712698
 20
1299.245344425215
 30
0.0
 11
8469.05399629562
 21
1838.44748000814
 31
0.0
  0
LINE
  5
21779
330
747D
100
AcDbEntity
  8
部品1
 48
50.0
100
AcDbLine
 10
8677.053996295624
 20
1299.245344425215
 30
0.0
 11
7847.053996295625
 21
1299.245344425215
 31
0.0
  0
LINE
  5
2177A
330
747D
100
AcDbEntity
  8
部品1
 48
50.0
100
AcDbLine
 10
8677.053996295624
 20
1171.245344425215
 30
0.0
 11
7847.053996295625
 21
1171.245344425215
 31
0.0
  0
LINE
  5
2177B
330
747D
100
AcDbEntity
  8
細線
 48
50.0
100
AcDbLine
 10
7927.053996295618
 20
1458.092090187386
 30
0.0
 11
8008.20725053345
 21
1539.245344425215
 31
0.0
  0
LINE
  5
2177C
330
747D
100
AcDbEntity
  8
部品1
 48
50.0
100
AcDbLine
 10
7927.053996295623
 20
1299.245344425215
 30
0.0
 11
7927.053996295623
 21
1539.245344425215
 31
0.0
  0
LINE
  5
2177D
330
747D
100
AcDbEntity
  8
細線
 48
50.0
100
AcDbLine
 10
7974.46074589714
 20
1171.245344425215
 30
0.0
 11
8008.758242528321
 21
1299.245344425215
 31
0.0
  0
LINE
  5
2177E
330
747D
100
AcDbEntity
  8
部品1
 48
50.0
100
AcDbLine
 10
7847.053996295625
 20
1171.245344425215
 30
0.0
 11
7847.053996295625
 21
1299.245344425215
 31
0.0
  0
LINE
  5
2177F
330
747D
100
AcDbEntity
  8
細線
 48
50.0
100
AcDbLine
 10
7895.57270094988
 20
1171.245344425213
 30
0.0
 11
7929.870197581066
 21
1299.245344425213
 31
0.0
  0
LINE
  5
21780
330
747D
100
AcDbEntity
  8
細線
 48
50.0
100
AcDbLine
 10
8053.348790844387
 20
1171.245344425213
 30
0.0
 11
8087.646287475568
 21
1299.245344425213
 31
0.0
  0
LINE
  5
21781
330
747D
100
AcDbEntity
  8
細線
 48
50.0
100
AcDbLine
 10
7902.003481568233
 20
1195.245344425215
 30
0.0
 11
7908.43426218658
 21
1171.245344425215
 31
0.0
  0
LINE
  5
21782
330
747D
100
AcDbEntity
  8
細線
 48
50.0
100
AcDbLine
 10
8059.779571462739
 20
1195.245344425215
 30
0.0
 11
8066.210352081085
 21
1171.245344425215
 31
0.0
  0
LINE
  5
21783
330
747D
100
AcDbEntity
  8
細線
 48
50.0
100
AcDbLine
 10
7980.891526515486
 20
1195.245344425215
 30
0.0
 11
7987.322307133833
 21
1171.245344425215
 31
0.0
  0
LINE
  5
21784
330
747D
100
AcDbEntity
  8
細線
 48
50.0
100
AcDbLine
 10
7847.053996295622
 20
1284.585265390995
 30
0.0
 11
7850.982152633818
 21
1299.245344425215
 31
0.0
  0
LINE
  5
21785
330
747D
100
AcDbEntity
  8
細線
 48
50.0
100
AcDbLine
 10
7923.439416962724
 20
1275.245344425215
 30
0.0
 11
7917.008636344377
 21
1299.245344425215
 31
0.0
  0
LINE
  5
21786
330
747D
100
AcDbEntity
  8
細線
 48
50.0
100
AcDbLine
 10
8081.215506857228
 20
1275.245344425215
 30
0.0
 11
8074.784726238879
 21
1299.245344425215
 31
0.0
  0
LINE
  5
21787
330
747D
100
AcDbEntity
  8
細線
 48
50.0
100
AcDbLine
 10
8002.327461909976
 20
1275.245344425215
 30
0.0
 11
7995.89668129163
 21
1299.245344425215
 31
0.0
  0
LWPOLYLINE
  5
21788
330
747D
100
AcDbEntity
  8
部品1
 48
50.0
100
AcDbPolyline
 90
        2
 70
     0
 43
8.0
 10
7640.914094462667
 20
1843.245344425216
 10
8055.053996295622
 20
1843.245344425216
  0
LINE
  5
21789
330
747D
100
AcDbEntity
  8
細線
 48
50.0
100
AcDbLine
 10
7927.053996295618
 20
1485.03285855059
 30
0.0
 11
7981.266482170247
 21
1539.245344425215
 31
0.0
  0
LINE
  5
2178A
330
747D
100
AcDbEntity
  8
部品1
 48
50.0
100
AcDbLine
 10
7927.053996295623
 20
1539.245344425215
 30
0.0
 11
8055.053996295622
 21
1539.245344425215
 31
0.0
  0
LINE
  5
2178B
330
747D
100
AcDbEntity
  8
細線
 48
50.0
100
AcDbLine
 10
7927.053996295618
 20
1511.973626913801
 30
0.0
 11
7954.325713807037
 21
1539.245344425215
 31
0.0
  0
LINE
  5
2178C
330
747D
100
AcDbEntity
  8
細線
 48
50.0
100
AcDbLine
 10
8172.318775981567
 20
1299.245344425215
 30
0.0
 11
8469.053996295622
 21
1595.980564739267
 31
0.0
  0
LINE
  5
2178D
330
747D
100
AcDbEntity
  8
細線
 48
50.0
100
AcDbLine
 10
8199.259544344771
 20
1299.245344425215
 30
0.0
 11
8469.053996295622
 21
1569.039796376072
 31
0.0
  0
LINE
  5
2178E
330
747D
100
AcDbEntity
  8
細線
 48
50.0
100
AcDbLine
 10
8145.378007618358
 20
1299.245344425215
 30
0.0
 11
8469.05399629562
 21
1622.921333102481
 31
0.0
  0
LINE
  5
2178F
330
747D
100
AcDbEntity
  8
細線
 48
50.0
100
AcDbLine
 10
8360.904154524016
 20
1299.245344425215
 30
0.0
 11
8597.05399629562
 21
1535.395186196823
 31
0.0
  0
LINE
  5
21790
330
747D
100
AcDbEntity
  8
細線
 48
50.0
100
AcDbLine
 10
8387.844922887227
 20
1299.245344425215
 30
0.0
 11
8597.05399629562
 21
1508.454417833608
 31
0.0
  0
LINE
  5
21791
330
747D
100
AcDbEntity
  8
部品1
 48
50.0
100
AcDbLine
 10
8597.05399629562
 20
1539.245344425215
 30
0.0
 11
8597.05399629562
 21
1299.245344425215
 31
0.0
  0
LINE
  5
21792
330
747D
100
AcDbEntity
  8
細線
 48
50.0
100
AcDbLine
 10
8414.785691250433
 20
1299.245344425215
 30
0.0
 11
8597.05399629562
 21
1481.513649470411
 31
0.0
  0
LINE
  5
21793
330
747D
100
AcDbEntity
  8
細線
 48
50.0
100
AcDbLine
 10
8290.012925686133
 20
1171.245344425213
 30
0.0
 11
8324.310422317315
 21
1299.245344425213
 31
0.0
  0
LINE
  5
21794
330
747D
100
AcDbEntity
  8
細線
 48
50.0
100
AcDbLine
 10
8132.236835791639
 20
1171.245344425215
 30
0.0
 11
8166.53433242282
 21
1299.245344425215
 31
0.0
  0
LINE
  5
21795
330
747D
100
AcDbEntity
  8
細線
 48
50.0
100
AcDbLine
 10
8211.124880738884
 20
1171.245344425215
 30
0.0
 11
8245.422377370069
 21
1299.245344425213
 31
0.0
  0
LINE
  5
21796
330
747D
100
AcDbEntity
  8
細線
 48
50.0
100
AcDbLine
 10
8368.900970633374
 20
1171.245344425215
 30
0.0
 11
8403.198467264562
 21
1299.245344425213
 31
0.0
  0
LINE
  5
21797
330
747D
100
AcDbEntity
  8
細線
 48
50.0
100
AcDbLine
 10
8217.555661357236
 20
1195.245344425215
 30
0.0
 11
8223.986441975583
 21
1171.245344425215
 31
0.0
  0
LINE
  5
21798
330
747D
100
AcDbEntity
  8
細線
 48
50.0
100
AcDbLine
 10
8138.667616409989
 20
1195.245344425215
 30
0.0
 11
8145.098397028338
 21
1171.245344425215
 31
0.0
  0
LINE
  5
21799
330
747D
100
AcDbEntity
  8
細線
 48
50.0
100
AcDbLine
 10
8375.331751251728
 20
1195.245344425215
 30
0.0
 11
8381.762531870073
 21
1171.245344425215
 31
0.0
  0
LINE
  5
2179A
330
747D
100
AcDbEntity
  8
細線
 48
50.0
100
AcDbLine
 10
8296.443706304483
 20
1195.245344425215
 30
0.0
 11
8302.87448692283
 21
1171.245344425215
 31
0.0
  0
LINE
  5
2179B
330
747D
100
AcDbEntity
  8
細線
 48
50.0
100
AcDbLine
 10
8238.991596751727
 20
1275.245344425215
 30
0.0
 11
8232.560816133378
 21
1299.245344425215
 31
0.0
  0
LINE
  5
2179C
330
747D
100
AcDbEntity
  8
細線
 48
50.0
100
AcDbLine
 10
8160.10355180448
 20
1275.245344425215
 30
0.0
 11
8153.672771186132
 21
1299.245344425215
 31
0.0
  0
LINE
  5
2179D
330
747D
100
AcDbEntity
  8
細線
 48
50.0
100
AcDbLine
 10
8317.87964169897
 20
1275.245344425215
 30
0.0
 11
8311.448861080625
 21
1299.245344425215
 31
0.0
  0
LINE
  5
2179E
330
747D
100
AcDbEntity
  8
細線
 48
50.0
100
AcDbLine
 10
8396.767686646217
 20
1275.245344425215
 30
0.0
 11
8390.33690602787
 21
1299.245344425215
 31
0.0
  0
LINE
  5
2179F
330
747D
100
AcDbEntity
  8
部品1
 48
50.0
100
AcDbLine
 10
8677.053996295624
 20
1299.245344425215
 30
0.0
 11
8677.053996295624
 21
1171.245344425215
 31
0.0
  0
LINE
  5
217A0
330
747D
100
AcDbEntity
  8
細線
 48
50.0
100
AcDbLine
 10
8605.565105475118
 20
1171.245344425213
 30
0.0
 11
8639.862602106303
 21
1299.245344425212
 31
0.0
  0
LINE
  5
217A1
330
747D
100
AcDbEntity
  8
細線
 48
50.0
100
AcDbLine
 10
8447.789015580623
 20
1171.245344425213
 30
0.0
 11
8482.086512211798
 21
1299.245344425215
 31
0.0
  0
LINE
  5
217A2
330
747D
100
AcDbEntity
  8
細線
 48
50.0
100
AcDbLine
 10
8526.677060527871
 20
1171.245344425212
 30
0.0
 11
8560.974557159058
 21
1299.245344425212
 31
0.0
  0
LINE
  5
217A3
330
747D
100
AcDbEntity
  8
細線
 48
50.0
100
AcDbLine
 10
8454.219796198973
 20
1195.245344425215
 30
0.0
 11
8460.650576817331
 21
1171.245344425215
 31
0.0
  0
LINE
  5
217A4
330
747D
100
AcDbEntity
  8
細線
 48
50.0
100
AcDbLine
 10
8533.107841146224
 20
1195.245344425213
 30
0.0
 11
8539.538621764569
 21
1171.245344425213
 31
0.0
  0
LINE
  5
217A5
330
747D
100
AcDbEntity
  8
細線
 48
50.0
100
AcDbLine
 10
8611.995886093467
 20
1195.245344425213
 30
0.0
 11
8618.426666711817
 21
1171.245344425213
 31
0.0
  0
LINE
  5
217A6
330
747D
100
AcDbEntity
  8
細線
 48
50.0
100
AcDbLine
 10
8475.655731593455
 20
1275.245344425215
 30
0.0
 11
8469.224950975108
 21
1299.245344425215
 31
0.0
  0
LINE
  5
217A7
330
747D
100
AcDbEntity
  8
細線
 48
50.0
100
AcDbLine
 10
8554.543776540711
 20
1275.245344425213
 30
0.0
 11
8548.112995922364
 21
1299.245344425213
 31
0.0
  0
LINE
  5
217A8
330
747D
100
AcDbEntity
  8
細線
 48
50.0
100
AcDbLine
 10
8633.431821487958
 20
1275.245344425213
 30
0.0
 11
8627.001040869611
 21
1299.245344425213
 31
0.0
  0
LINE
  5
217A9
330
747D
100
AcDbEntity
  8
部品1
100
AcDbLine
 10
8339.453996295622
 20
1759.245344425213
 30
0.0
 11
8213.453996295617
 21
1759.245344425213
 31
0.0
  0
LINE
  5
217AA
330
747D
100
AcDbEntity
  8
部品1
100
AcDbLine
 10
8321.453996295621
 20
1840.245344425215
 30
0.0
 11
8321.453996295621
 21
1858.245344425215
 31
0.0
  0
ARC
  5
217AB
330
747D
100
AcDbEntity
  8
部品1
100
AcDbCircle
 10
8285.453996295622
 20
1858.245344425215
 30
0.0
 40
18.0
100
AcDbArc
 50
180.0
 51
270.0
  0
LINE
  5
217AC
330
747D
100
AcDbEntity
  8
部品1
100
AcDbLine
 10
8285.453996295622
 20
1840.245344425215
 30
0.0
 11
8321.453996295621
 21
1840.245344425215
 31
0.0
  0
LINE
  5
217AD
330
747D
100
AcDbEntity
  8
部品1
100
AcDbLine
 10
8285.453996295622
 20
1858.245344425215
 30
0.0
 11
8321.453996295621
 21
1858.245344425215
 31
0.0
  0
LINE
  5
217AE
330
747D
100
AcDbEntity
  8
部品1
 48
50.0
100
AcDbLine
 10
8469.053996295622
 20
1539.245344425215
 30
0.0
 11
8597.05399629562
 21
1539.245344425215
 31
0.0
  0
LINE
  5
217AF
330
747D
100
AcDbEntity
  8
部品1
100
AcDbLine
 10
8074.853996295624
 20
2173.245344425215
 30
0.0
 11
8112.653996295623
 21
2173.245344425215
 31
0.0
  0
LINE
  5
217B0
330
747D
100
AcDbEntity
  8
細線
 48
50.0
100
AcDbLine
 10
8055.053996295622
 20
2044.085152361913
 30
0.0
 11
8094.214188358929
 21
2083.245344425215
 31
0.0
  0
LINE
  5
217B1
330
747D
100
AcDbEntity
  8
細線
 48
50.0
100
AcDbLine
 10
8055.053996295622
 20
2017.144383998705
 30
0.0
 11
8121.154956722135
 21
2083.245344425215
 31
0.0
  0
LINE
  5
217B2
330
747D
100
AcDbEntity
  8
部品1
 48
50.0
100
AcDbLine
 10
8055.053996295622
 20
2083.245344425215
 30
0.0
 11
8469.053996295626
 21
2083.245344425215
 31
0.0
  0
TEXT
  5
217B3
330
747D
100
AcDbEntity
  8
部品1
 48
50.0
100
AcDbText
 10
7628.607899716131
 20
2413.805865525691
 30
0.0
 40
80.0
  1
※(別売)
  7
STYLE2
100
AcDbText
  0
LINE
  5
217B4
330
747D
100
AcDbEntity
  8
部品1
100
AcDbLine
 10
8072.153996295623
 20
2162.445344425215
 30
0.0
 11
8072.153996295623
 21
2170.545344425216
 31
0.0
  0
ARC
  5
217B5
330
747D
100
AcDbEntity
  8
部品1
100
AcDbCircle
 10
8074.853996295624
 20
2170.545344425216
 30
0.0
 40
2.7
100
AcDbArc
 50
90.0
 51
180.0
  0
ARC
  5
217B6
330
747D
100
AcDbEntity
  8
部品1
100
AcDbCircle
 10
8064.053996295623
 20
2157.637248127923
 30
0.0
 40
2.7
100
AcDbArc
 50
104.0362434679067
 51
180.0
  0
LINE
  5
217B7
330
747D
100
AcDbEntity
  8
部品1
100
AcDbLine
 10
8063.399150108024
 20
2160.256632878315
 30
0.0
 11
8072.153996295623
 21
2162.445344425215
 31
0.0
  0
ARC
  5
217B8
330
747D
100
AcDbEntity
  8
部品1
100
AcDbCircle
 10
8064.053996295623
 20
2095.505344425216
 30
0.0
 40
2.7
100
AcDbArc
 50
180.0
 51
270.0
  0
LINE
  5
217B9
330
747D
100
AcDbEntity
  8
細線
 48
50.0
100
AcDbLine
 10
8055.053996295622
 20
2071.02592072512
 30
0.0
 11
8067.273419995718
 21
2083.245344425215
 31
0.0
  0
LINE
  5
217BA
330
747D
100
AcDbEntity
  8
部品1
100
AcDbLine
 10
8064.053996295623
 20
2092.805344425215
 30
0.0
 11
8075.753996295619
 21
2092.805344425215
 31
0.0
  0
LINE
  5
217BB
330
747D
100
AcDbEntity
  8
部品1
100
AcDbLine
 10
8061.353996295624
 20
2095.505344425216
 30
0.0
 11
8061.353996295624
 21
2157.637248127923
 31
0.0
  0
LINE
  5
217BC
330
747D
100
AcDbEntity
  8
部品1
100
AcDbLine
 10
8220.013996295618
 20
2092.805344425215
 30
0.0
 11
8421.353996295616
 21
2092.805344425215
 31
0.0
  0
LINE
  5
217BD
330
747D
100
AcDbEntity
  8
部品1
100
AcDbLine
 10
8112.653996295623
 20
2173.245344425215
 30
0.0
 11
8112.653996295623
 21
2181.345344425215
 31
0.0
  0
LINE
  5
217BE
330
747D
100
AcDbEntity
  8
部品1
100
AcDbLine
 10
8163.053996295623
 20
2192.145344425212
 30
0.0
 11
8163.053996295623
 21
2140.845344425216
 31
0.0
  0
LINE
  5
217BF
330
747D
100
AcDbEntity
  8
部品1
100
AcDbLine
 10
8186.453996295623
 20
2152.805344425216
 30
0.0
 11
8214.613996295623
 21
2152.805344425216
 31
0.0
  0
ARC
  5
217C0
330
747D
100
AcDbEntity
  8
部品1
100
AcDbCircle
 10
8186.453996295623
 20
2150.105344425216
 30
0.0
 40
2.7
100
AcDbArc
 50
90.0
 51
180.0
  0
ARC
  5
217C1
330
747D
100
AcDbEntity
  8
部品1
100
AcDbCircle
 10
8214.613996295623
 20
2150.105344425216
 30
0.0
 40
2.7
100
AcDbArc
 50
0.0
 51
90.0
  0
LINE
  5
217C2
330
747D
100
AcDbEntity
  8
部品1
100
AcDbLine
 10
8205.353996295624
 20
2138.145344425215
 30
0.0
 11
8205.353996295624
 21
2095.505344425216
 31
0.0
  0
LINE
  5
217C3
330
747D
100
AcDbEntity
  8
部品1
100
AcDbLine
 10
8190.953996295624
 20
2092.805344425215
 30
0.0
 11
8202.653996295623
 21
2092.805344425215
 31
0.0
  0
ARC
  5
217C4
330
747D
100
AcDbEntity
  8
部品1
100
AcDbCircle
 10
8220.013996295618
 20
2095.505344425216
 30
0.0
 40
2.7
100
AcDbArc
 50
180.0
 51
270.0
  0
ARC
  5
217C5
330
747D
100
AcDbEntity
  8
部品1
100
AcDbCircle
 10
8202.653996295623
 20
2095.505344425216
 30
0.0
 40
2.7
100
AcDbArc
 50
270.0
 51
0.0
  0
LINE
  5
217C6
330
747D
100
AcDbEntity
  8
部品1
100
AcDbLine
 10
8163.053996295623
 20
2140.845344425216
 30
0.0
 11
8202.653996295623
 21
2140.845344425216
 31
0.0
  0
ARC
  5
217C7
330
747D
100
AcDbEntity
  8
部品1
100
AcDbCircle
 10
8202.653996295623
 20
2138.145344425215
 30
0.0
 40
2.7
100
AcDbArc
 50
0.0
 51
90.0
  0
LINE
  5
217C8
330
747D
100
AcDbEntity
  8
部品1
100
AcDbLine
 10
8217.313996295622
 20
2150.105344425216
 30
0.0
 11
8217.31399629562
 21
2095.505344425216
 31
0.0
  0
LINE
  5
217C9
330
747D
100
AcDbEntity
  8
部品1
100
AcDbLine
 10
8183.753996295621
 20
2150.105344425216
 30
0.0
 11
8183.753996295621
 21
2133.005344425216
 31
0.0
  0
LINE
  5
217CA
330
747D
100
AcDbEntity
  8
細線
100
AcDbLine
 10
8281.853996295623
 20
2092.805344425215
 30
0.0
 11
8281.853996295623
 21
2136.005344425215
 31
0.0
  0
LINE
  5
217CB
330
747D
100
AcDbEntity
  8
細線
100
AcDbLine
 10
8271.053996295625
 20
2092.805344425215
 30
0.0
 11
8271.053996295623
 21
2136.005344425215
 31
0.0
  0
LINE
  5
217CC
330
747D
100
AcDbEntity
  8
部品1
100
AcDbLine
 10
8267.453996295623
 20
2132.405344425216
 30
0.0
 11
8285.453996295622
 21
2132.405344425216
 31
0.0
  0
LINE
  5
217CD
330
747D
100
AcDbEntity
  8
部品1
100
AcDbLine
 10
8271.053996295623
 20
2136.005344425215
 30
0.0
 11
8281.853996295623
 21
2136.005344425215
 31
0.0
  0
ELLIPSE
  5
217CE
330
747D
100
AcDbEntity
  8
部品1
 48
50.0
100
AcDbEllipse
 10
8276.453996295622
 20
2352.368632869488
 30
0.0
 11
40.0
 21
0.0
 31
0.0
210
0.0
220
0.0
230
1.0
 40
0.4
 41
0.0
 42
6.283185307179586
  0
ELLIPSE
  5
217CF
330
747D
100
AcDbEntity
  8
部品1
 48
50.0
100
AcDbEllipse
 10
8276.453996295622
 20
2342.768632869488
 30
0.0
 11
40.0
 21
0.0
 31
0.0
210
0.0
220
0.0
230
1.0
 40
0.4
 41
3.141592653589793
 42
6.283185307179586
  0
LINE
  5
217D0
330
747D
100
AcDbEntity
  8
部品1
 48
50.0
100
AcDbLine
 10
8236.453996295622
 20
2352.368632869488
 30
0.0
 11
8236.453996295622
 21
2342.768632869487
 31
0.0
  0
ARC
  5
217D1
330
747D
100
AcDbEntity
  8
部品1
100
AcDbCircle
 10
8160.353996295624
 20
2192.145344425212
 30
0.0
 40
2.7
100
AcDbArc
 50
0.0
 51
90.0
  0
ARC
  5
217D2
330
747D
100
AcDbEntity
  8
部品1
100
AcDbCircle
 10
8118.053996295623
 20
2192.145344425215
 30
0.0
 40
2.7
100
AcDbArc
 50
90.0
 51
180.0
  0
LINE
  5
217D3
330
747D
100
AcDbEntity
  8
部品1
100
AcDbLine
 10
8115.353996295624
 20
2184.045344425215
 30
0.0
 11
8115.353996295624
 21
2184.045344425215
 31
0.0
  0
LINE
  5
217D4
330
747D
100
AcDbEntity
  8
部品1
100
AcDbLine
 10
8115.353996295624
 20
2184.045344425215
 30
0.0
 11
8115.353996295624
 21
2192.145344425215
 31
0.0
  0
LINE
  5
217D5
330
747D
100
AcDbEntity
  8
部品1
100
AcDbLine
 10
8118.053996295623
 20
2194.845344425216
 30
0.0
 11
8160.353996295624
 21
2194.845344425212
 31
0.0
  0
ARC
  5
217D6
330
747D
100
AcDbEntity
  8
部品1
100
AcDbCircle
 10
8115.353996295624
 20
2181.345344425215
 30
0.0
 40
2.7
100
AcDbArc
 50
90.0
 51
180.0
  0
ELLIPSE
  5
217D7
330
747D
100
AcDbEntity
  8
部品1
 48
50.0
100
AcDbEllipse
 10
8276.453996295622
 20
2352.368632869488
 30
0.0
 11
18.4
 21
0.0
 31
0.0
210
0.0
220
0.0
230
1.0
 40
0.3478260869565217
 41
0.0
 42
6.283185307179586
  0
LINE
  5
217D8
330
747D
100
AcDbEntity
  8
部品1
 48
50.0
100
AcDbLine
 10
8316.453996295622
 20
2342.768632869487
 30
0.0
 11
8316.453996295622
 21
2352.368632869488
 31
0.0
  0
LINE
  5
217D9
330
747D
100
AcDbEntity
  8
部品1
 48
50.0
100
AcDbLine
 10
8244.453996295623
 20
2474.120625534358
 30
0.0
 11
8260.453996295622
 21
2466.120625534358
 31
0.0
  0
LINE
  5
217DA
330
747D
100
AcDbEntity
  8
部品1
 48
50.0
100
AcDbLine
 10
8244.453996295623
 20
2442.120625534358
 30
0.0
 11
8260.453996295622
 21
2434.120625534358
 31
0.0
  0
LINE
  5
217DB
330
747D
100
AcDbEntity
  8
部品1
 48
50.0
100
AcDbLine
 10
8244.453996295623
 20
2474.120625534358
 30
0.0
 11
8260.453996295622
 21
2482.120625534358
 31
0.0
  0
LINE
  5
217DC
330
747D
100
AcDbEntity
  8
部品1
 48
50.0
100
AcDbLine
 10
8244.453996295623
 20
2442.120625534358
 30
0.0
 11
8244.453996295623
 21
2474.120625534358
 31
0.0
  0
LINE
  5
217DD
330
747D
100
AcDbEntity
  8
部品1
 48
50.0
100
AcDbLine
 10
8260.453996295622
 20
2482.120625534358
 30
0.0
 11
8292.453996295623
 21
2482.120625534358
 31
0.0
  0
ELLIPSE
  5
217DE
330
747D
100
AcDbEntity
  8
細線
 48
50.0
100
AcDbEllipse
 10
8276.453996295622
 20
2474.120625534358
 30
0.0
 11
14.76670786606846
 21
0.0
 31
0.0
210
0.0
220
0.0
230
1.0
 40
0.2071254069489396
 41
0.0
 42
6.283185307179586
  0
LINE
  5
217DF
330
747D
100
AcDbEntity
  8
部品1
 48
50.0
100
AcDbLine
 10
8260.453996295622
 20
2434.120625534358
 30
0.0
 11
8292.453996295623
 21
2434.120625534358
 31
0.0
  0
LINE
  5
217E0
330
747D
100
AcDbEntity
  8
部品1
 48
50.0
100
AcDbLine
 10
8292.453996295623
 20
2434.120625534358
 30
0.0
 11
8308.453996295623
 21
2442.120625534358
 31
0.0
  0
LINE
  5
217E1
330
747D
100
AcDbEntity
  8
部品1
 48
50.0
100
AcDbLine
 10
8260.453996295622
 20
2466.120625534358
 30
0.0
 11
8292.453996295623
 21
2466.120625534358
 31
0.0
  0
LINE
  5
217E2
330
747D
100
AcDbEntity
  8
部品1
 48
50.0
100
AcDbLine
 10
8292.453996295623
 20
2466.120625534358
 30
0.0
 11
8308.453996295623
 21
2474.120625534358
 31
0.0
  0
LINE
  5
217E3
330
747D
100
AcDbEntity
  8
細線
 48
50.0
100
AcDbLine
 10
8292.453996295623
 20
2434.120625534358
 30
0.0
 11
8292.453996295623
 21
2466.120625534358
 31
0.0
  0
LINE
  5
217E4
330
747D
100
AcDbEntity
  8
部品1
 48
50.0
100
AcDbLine
 10
8308.453996295623
 20
2442.120625534358
 30
0.0
 11
8308.453996295623
 21
2474.120625534358
 31
0.0
  0
LINE
  5
217E5
330
747D
100
AcDbEntity
  8
細線
 48
50.0
100
AcDbLine
 10
8260.453996295622
 20
2434.120625534358
 30
0.0
 11
8260.453996295622
 21
2466.120625534358
 31
0.0
  0
LINE
  5
217E6
330
747D
100
AcDbEntity
  8
部品1
 48
50.0
100
AcDbLine
 10
8292.453996295623
 20
2482.120625534358
 30
0.0
 11
8308.453996295623
 21
2474.120625534358
 31
0.0
  0
TEXT
  5
217E7
330
747D
100
AcDbEntity
  8
部品1
100
AcDbText
 10
7977.226245487553
 20
3224.665032250632
 30
0.0
 40
120.0
  1
基礎詳細
  7
STYLE2
100
AcDbText
  0
LINE
  5
217E8
330
747D
100
AcDbEntity
  8
部品1
100
AcDbLine
 10
11355.33142969541
 20
439.9099946174128
 30
0.0
 11
11355.33142969542
 21
3404.21696420206
 31
0.0
  0
LINE
  5
217E9
330
747D
100
AcDbEntity
  8
細線
100
AcDbLine
 10
10363.22326227516
 20
1843.245344425215
 30
0.0
 11
10168.58992859838
 21
2037.878678101998
 31
0.0
  0
LINE
  5
217EA
330
747D
100
AcDbEntity
  8
部品1
100
AcDbLine
 10
10168.58992859838
 20
2083.245344425215
 30
0.0
 11
10648.58992859838
 21
2083.245344425215
 31
0.0
  0
LINE
  5
217EB
330
747D
100
AcDbEntity
  8
細線
 48
50.0
100
AcDbLine
 10
10302.66081304164
 20
1623.546428771865
 30
0.0
 11
10336.95830967282
 21
1751.546428771864
 31
0.0
  0
LINE
  5
217EC
330
747D
100
AcDbEntity
  8
部品1
100
AcDbLine
 10
10048.58992859838
 20
1623.546428771861
 30
0.0
 11
10768.58992859838
 21
1623.546428771865
 31
0.0
  0
LINE
  5
217ED
330
747D
100
AcDbEntity
  8
部品1
100
AcDbLine
 10
10048.58992859838
 20
1751.546428771865
 30
0.0
 11
10768.58992859838
 21
1751.546428771868
 31
0.0
  0
LINE
  5
217EE
330
747D
100
AcDbEntity
  8
細線
100
AcDbLine
 10
10229.50857409162
 20
1751.546428771865
 30
0.0
 11
10321.20748974497
 21
1843.245344425215
 31
0.0
  0
LWPOLYLINE
  5
217EF
330
747D
100
AcDbEntity
  8
部品1
 48
50.0
100
AcDbPolyline
 90
        2
 70
     0
 43
12.0
 10
9783.978666497992
 20
1843.245344425215
 10
10985.07096962961
 20
1843.245344425215
  0
LINE
  5
217F0
330
747D
100
AcDbEntity
  8
細線
100
AcDbLine
 10
10312.31157402973
 20
1843.245344425215
 30
0.0
 11
10168.58992859838
 21
1986.966989856568
 31
0.0
  0
TEXT
  5
217F1
330
747D
100
AcDbEntity
  8
部品1
 48
50.0
100
AcDbText
 10
9404.471841839876
 20
1576.445603787906
 30
0.0
 40
80.0
  1
ボルトの出
 50
90.0
  7
STYLE2
100
AcDbText
  0
LINE
  5
217F2
330
747D
100
AcDbEntity
  8
部品1
100
AcDbLine
 10
10168.58992859838
 20
1843.245344425215
 30
0.0
 11
10168.58992859838
 21
2083.245344425215
 31
0.0
  0
LINE
  5
217F3
330
747D
100
AcDbEntity
  8
細線
 48
50.0
100
AcDbLine
 10
10144.88472314714
 20
1623.546428771864
 30
0.0
 11
10179.18221977832
 21
1751.546428771864
 31
0.0
  0
LINE
  5
217F4
330
747D
100
AcDbEntity
  8
細線
 48
50.0
100
AcDbLine
 10
10223.77276809439
 20
1623.546428771865
 30
0.0
 11
10258.07026472557
 21
1751.546428771865
 31
0.0
  0
LINE
  5
217F5
330
747D
100
AcDbEntity
  8
細線
 48
50.0
100
AcDbLine
 10
10065.99667819989
 20
1623.546428771865
 30
0.0
 11
10100.29417483107
 21
1751.546428771865
 31
0.0
  0
LINE
  5
217F6
330
747D
100
AcDbEntity
  8
部品1
100
AcDbLine
 10
10048.58992859838
 20
1623.546428771861
 30
0.0
 11
10048.58992859838
 21
1843.245344425215
 31
0.0
  0
LINE
  5
217F7
330
747D
100
AcDbEntity
  8
細線
 48
50.0
100
AcDbLine
 10
10151.31550376549
 20
1647.546428771865
 30
0.0
 11
10157.74628438384
 21
1623.546428771865
 31
0.0
  0
LINE
  5
217F8
330
747D
100
AcDbEntity
  8
細線
 48
50.0
100
AcDbLine
 10
10072.42745881824
 20
1647.546428771865
 30
0.0
 11
10078.85823943658
 21
1623.546428771865
 31
0.0
  0
LINE
  5
217F9
330
747D
100
AcDbEntity
  8
細線
 48
50.0
100
AcDbLine
 10
10230.20354871274
 20
1647.546428771865
 30
0.0
 11
10236.63432933109
 21
1623.546428771865
 31
0.0
  0
LINE
  5
217FA
330
747D
100
AcDbEntity
  8
細線
 48
50.0
100
AcDbLine
 10
10309.09159365999
 20
1647.546428771865
 30
0.0
 11
10315.52237427834
 21
1623.546428771865
 31
0.0
  0
LINE
  5
217FB
330
747D
100
AcDbEntity
  8
細線
 48
50.0
100
AcDbLine
 10
10093.86339421273
 20
1727.546428771865
 30
0.0
 11
10087.43261359438
 21
1751.546428771865
 31
0.0
  0
LINE
  5
217FC
330
747D
100
AcDbEntity
  8
細線
 48
50.0
100
AcDbLine
 10
10251.63948410723
 20
1727.546428771865
 30
0.0
 11
10245.20870348888
 21
1751.546428771865
 31
0.0
  0
LINE
  5
217FD
330
747D
100
AcDbEntity
  8
細線
 48
50.0
100
AcDbLine
 10
10172.75143915998
 20
1727.546428771865
 30
0.0
 11
10166.32065854163
 21
1751.546428771865
 31
0.0
  0
LINE
  5
217FE
330
747D
100
AcDbEntity
  8
細線
100
AcDbLine
 10
10161.62632309771
 20
1751.546428771865
 30
0.0
 11
10253.32523875106
 21
1843.245344425215
 31
0.0
  0
LINE
  5
217FF
330
747D
100
AcDbEntity
  8
細線
100
AcDbLine
 10
10195.56744859466
 20
1751.546428771865
 30
0.0
 11
10287.26636424801
 21
1843.245344425215
 31
0.0
  0
LINE
  5
21800
330
747D
100
AcDbEntity
  8
細線
100
AcDbLine
 10
10583.84057800537
 20
1843.245344425215
 30
0.0
 11
10343.84057800537
 21
2083.245344425215
 31
0.0
  0
LINE
  5
21801
330
747D
100
AcDbEntity
  8
細線
100
AcDbLine
 10
10634.75226625079
 20
1843.245344425216
 30
0.0
 11
10394.7522662508
 21
2083.245344425215
 31
0.0
  0
LINE
  5
21802
330
747D
100
AcDbEntity
  8
部品1
100
AcDbLine
 10
10648.58992859838
 20
2083.245344425215
 30
0.0
 11
10648.58992859838
 21
1843.245344425215
 31
0.0
  0
LINE
  5
21803
330
747D
100
AcDbEntity
  8
細線
 48
50.0
100
AcDbLine
 10
10618.21299283063
 20
1623.546428771862
 30
0.0
 11
10652.51048946181
 21
1751.546428771862
 31
0.0
  0
LINE
  5
21804
330
747D
100
AcDbEntity
  8
細線
100
AcDbLine
 10
10589.50857409162
 20
1751.546428771867
 30
0.0
 11
10681.20748974497
 21
1843.245344425215
 31
0.0
  0
LINE
  5
21805
330
747D
100
AcDbEntity
  8
細線
 48
50.0
100
AcDbLine
 10
10539.32494788338
 20
1623.546428771864
 30
0.0
 11
10573.62244451455
 21
1751.546428771865
 31
0.0
  0
LINE
  5
21806
330
747D
100
AcDbEntity
  8
細線
 48
50.0
100
AcDbLine
 10
10381.54885798889
 20
1623.546428771864
 30
0.0
 11
10415.84635462007
 21
1751.546428771864
 31
0.0
  0
LINE
  5
21807
330
747D
100
AcDbEntity
  8
細線
 48
50.0
100
AcDbLine
 10
10460.43690293613
 20
1623.546428771865
 30
0.0
 11
10494.73439956731
 21
1751.546428771864
 31
0.0
  0
LINE
  5
21808
330
747D
100
AcDbEntity
  8
細線
 48
50.0
100
AcDbLine
 10
10466.86768355448
 20
1647.546428771865
 30
0.0
 11
10473.29846417283
 21
1623.546428771865
 31
0.0
  0
LINE
  5
21809
330
747D
100
AcDbEntity
  8
細線
 48
50.0
100
AcDbLine
 10
10387.97963860724
 20
1647.546428771865
 30
0.0
 11
10394.41041922558
 21
1623.546428771865
 31
0.0
  0
LINE
  5
2180A
330
747D
100
AcDbEntity
  8
細線
 48
50.0
100
AcDbLine
 10
10545.75572850173
 20
1647.546428771865
 30
0.0
 11
10552.18650912008
 21
1623.546428771865
 31
0.0
  0
LINE
  5
2180B
330
747D
100
AcDbEntity
  8
細線
 48
50.0
100
AcDbLine
 10
10624.64377344898
 20
1647.546428771864
 30
0.0
 11
10631.07455406732
 21
1623.546428771864
 31
0.0
  0
LINE
  5
2180C
330
747D
100
AcDbEntity
  8
細線
 48
50.0
100
AcDbLine
 10
10488.30361894897
 20
1727.546428771865
 30
0.0
 11
10481.87283833062
 21
1751.546428771865
 31
0.0
  0
LINE
  5
2180D
330
747D
100
AcDbEntity
  8
細線
 48
50.0
100
AcDbLine
 10
10409.41557400173
 20
1727.546428771865
 30
0.0
 11
10402.98479338338
 21
1751.546428771865
 31
0.0
  0
LINE
  5
2180E
330
747D
100
AcDbEntity
  8
細線
 48
50.0
100
AcDbLine
 10
10330.52752905448
 20
1727.546428771865
 30
0.0
 11
10324.09674843613
 21
1751.546428771865
 31
0.0
  0
LINE
  5
2180F
330
747D
100
AcDbEntity
  8
細線
100
AcDbLine
 10
10555.56744859467
 20
1751.546428771867
 30
0.0
 11
10647.26636424801
 21
1843.245344425215
 31
0.0
  0
LINE
  5
21810
330
747D
100
AcDbEntity
  8
細線
 48
50.0
100
AcDbLine
 10
10567.19166389621
 20
1727.546428771865
 30
0.0
 11
10560.76088327786
 21
1751.546428771865
 31
0.0
  0
LINE
  5
21811
330
747D
100
AcDbEntity
  8
細線
100
AcDbLine
 10
10521.62632309771
 20
1751.546428771867
 30
0.0
 11
10613.32523875106
 21
1843.245344425215
 31
0.0
  0
LINE
  5
21812
330
747D
100
AcDbEntity
  8
細線
 48
50.0
100
AcDbLine
 10
10646.07970884346
 20
1727.546428771864
 30
0.0
 11
10639.64892822512
 21
1751.546428771864
 31
0.0
  0
LINE
  5
21813
330
747D
100
AcDbEntity
  8
細線
 48
50.0
100
AcDbLine
 10
10697.10103777787
 20
1623.546428771864
 30
0.0
 11
10731.39853440906
 21
1751.546428771862
 31
0.0
  0
LINE
  5
21814
330
747D
100
AcDbEntity
  8
部品1
100
AcDbLine
 10
10768.58992859838
 20
1843.245344425215
 30
0.0
 11
10768.58992859838
 21
1623.546428771865
 31
0.0
  0
LINE
  5
21815
330
747D
100
AcDbEntity
  8
細線
 48
50.0
100
AcDbLine
 10
10703.53181839622
 20
1647.546428771864
 30
0.0
 11
10709.96259901457
 21
1623.546428771864
 31
0.0
  0
LINE
  5
21816
330
747D
100
AcDbEntity
  8
細線
 48
50.0
100
AcDbLine
 10
10724.96775379071
 20
1727.546428771864
 30
0.0
 11
10718.53697317236
 21
1751.546428771864
 31
0.0
  0
LEADER
  5
21817
330
747D
100
AcDbEntity
  8
寸法
 48
50.0
100
AcDbLeader
  3
INABA_S50G
 73
     0
 74
     0
 75
     1
 40
120.0
 41
185.591883092037
 76
     3
 10
10579.3143402143
 20
2083.245344425215
 30
0.0
 10
10612.45254684795
 20
2255.391665106353
 30
0.0
 10
10737.45254684794
 20
2255.391665106353
 30
0.0
340
21818
1001
ACAD
1000
DSTYLE
1002
{
1070
    40
1040
1.0
1002
}
  0
MTEXT
  5
21818
102
{ACAD_REACTORS
330
21817
102
}
330
747D
100
AcDbEntity
  8
寸法
 62
     7
 48
50.0
100
AcDbMText
 10
10762.45254684795
 20
2340.391665106353
 30
0.0
 40
120.0
 41
0.8
 71
     4
 72
     1
  1
\A1;C.B
  7
STYLE1
 73
     1
 44
1.0
1001
ACAD
1000
MTEXTBEGIN
1070
    73
1070
     1
1070
    44
1040
1.0
1070
    74
1070
     0
1000
MTEXTEND
  0
ENDSEC
  0
SECTION
  2
OBJECTS
  0
DICTIONARY
  5
7471
330
0
100
AcDbDictionary
281
     1
  3
ACAD_COLOR
350
173D2
  3
ACAD_GROUP
350
7472
  3
ACAD_LAYOUT
350
173D3
  3
ACAD_MATERIAL
350
173D1
  3
ACAD_MLINESTYLE
350
7473
  3
ACAD_PLOTSETTINGS
350
173D4
  3
ACAD_PLOTSTYLENAME
350
173CF
  3
ACDBHEADERROUNDTRIPXREC
350
218AF
  3
AcDbVariableDictionary
350
218AB
  3
CONTENTDICTIONARY
350
E71C
  3
DRAWINGVARIABLESDICT
350
F3B9
  0
DICTIONARY
  5
1758F
330
7467
100
AcDbDictionary
280
     1
281
     1
  3
ACAD_LAYERSTATES
360
17590
  0
DICTIONARY
  5
173D2
102
{ACAD_REACTORS
330
7471
102
}
330
7471
100
AcDbDictionary
281
     1
  0
DICTIONARY
  5
7472
102
{ACAD_REACTORS
330
7471
102
}
330
7471
100
AcDbDictionary
281
     1
  3
*A1
350
1D2A9
  0
DICTIONARY
  5
173D3
102
{ACAD_REACTORS
330
7471
102
}
330
7471
100
AcDbDictionary
281
     1
  3
Model
350
173D5
  3
レイアウト1
350
173D6
  0
DICTIONARY
  5
173D1
102
{ACAD_REACTORS
330
7471
102
}
330
7471
100
AcDbDictionary
281
     1
  0
DICTIONARY
  5
7473
102
{ACAD_REACTORS
330
7471
102
}
330
7471
100
AcDbDictionary
281
     1
  3
STANDARD
350
7480
  0
DICTIONARY
  5
173D4
102
{ACAD_REACTORS
330
7471
102
}
330
7471
100
AcDbDictionary
281
     1
  0
ACDBDICTIONARYWDFLT
  5
173CF
102
{ACAD_REACTORS
330
7471
102
}
330
7471
100
AcDbDictionary
281
     1
  3
Normal
350
173D0
100
AcDbDictionaryWithDefault
340
173D0
  0
DICTIONARY
  5
218AF
102
{ACAD_REACTORS
330
7471
102
}
330
7471
100
AcDbDictionary
281
     1
  3
COLORDICT
350
218B1
  3
MATERIALDICT
350
218B0
  0
DICTIONARY
  5
218AB
102
{ACAD_REACTORS
330
7471
102
}
330
7471
100
AcDbDictionary
281
     1
  3
DIMASSOC
350
218AC
  3
PROJECTNAME
350
218AD
  0
DICTIONARY
  5
E71C
102
{ACAD_REACTORS
330
7471
102
}
330
7471
100
AcDbDictionary
281
     1
  0
DICTIONARY
  5
F3B9
102
{ACAD_REACTORS
330
7471
102
}
330
7471
100
AcDbDictionary
281
     1
1001
DRAWINGVARIABLESXDATA
1000
POLARMODE
1000
1
  0
DICTIONARY
  5
17590
102
{ACAD_REACTORS
330
1758F
102
}
330
1758F
100
AcDbDictionary
281
     1
  0
GROUP
  5
1D2A9
102
{ACAD_REACTORS
330
7472
102
}
330
7472
100
AcDbGroup
300

 70
     1
 71
     1
  0
LAYOUT
  5
173D5
102
{ACAD_XDICTIONARY
360
218B2
102
}
102
{ACAD_REACTORS
330
173D3
102
}
330
173D3
100
AcDbPlotSettings
  1

  2
クセロPDFよこ.pc3
  4
A3
  6

 40
3.174999952316284
 41
3.174999952316284
 42
3.17498779296875
 43
3.17498779296875
 44
419.9466552734374
 45
296.9259948730469
 46
0.0
 47
0.0
 48
0.0
 49
0.0
140
0.0
141
0.0
142
1.0
143
40.0
 70
 11952
 72
     1
 73
     0
 74
     2
  7
ACA3.ctb
 75
    24
147
0.025
148
0.0
149
0.0
100
AcDbLayout
  1
Model
 70
     1
 71
     0
 10
0.0
 20
0.0
 11
12.0
 21
9.0
 12
0.0
 22
0.0
 32
0.0
 14
0.0
 24
0.0
 34
0.0
 15
0.0
 25
0.0
 35
0.0
146
0.0
 13
0.0
 23
0.0
 33
0.0
 16
1.0
 26
0.0
 36
0.0
 17
0.0
 27
1.0
 37
0.0
 76
     0
330
747D
  0
LAYOUT
  5
173D6
102
{ACAD_XDICTIONARY
360
218B4
102
}
102
{ACAD_REACTORS
330
173D3
102
}
330
173D3
100
AcDbPlotSettings
  1

  2
Microsoft Office Document Image Writer
  4

  6

 40
0.0
 41
0.0
 42
0.0
 43
0.0
 44
0.0
 45
0.0
 46
0.0
 47
0.0
 48
0.0
 49
0.0
140
0.0
141
0.0
142
1.0
143
1.0
 70
   688
 72
     0
 73
     0
 74
     5
  7
ACA3.ctb
 75
    16
147
1.0
148
0.0
149
0.0
100
AcDbLayout
  1
レイアウト1
 70
     0
 71
     1
 10
0.0
 20
0.0
 11
420.0
 21
297.0
 12
0.0
 22
0.0
 32
0.0
 14
1.000000000000000E+20
 24
1.000000000000000E+20
 34
1.000000000000000E+20
 15
-1.000000000000000E+20
 25
-1.000000000000000E+20
 35
-1.000000000000000E+20
146
0.0
 13
0.0
 23
0.0
 33
0.0
 16
1.0
 26
0.0
 36
0.0
 17
0.0
 27
1.0
 37
0.0
 76
     0
330
747A
  0
MLINESTYLE
  5
7480
102
{ACAD_REACTORS
330
7473
102
}
330
7473
100
AcDbMlineStyle
  2
STANDARD
 70
     0
  3

 62
     0
 51
90.0
 52
90.0
 71
     2
 49
0.5
 62
   256
  6
BYLAYER
 49
-0.5
 62
   256
  6
BYLAYER
  0
ACDBPLACEHOLDER
  5
173D0
102
{ACAD_REACTORS
330
173CF
102
}
330
173CF
  0
XRECORD
  5
218B1
102
{ACAD_REACTORS
330
218AF
102
}
330
218AF
100
AcDbXrecord
280
     1
340
173D2
  0
XRECORD
  5
218B0
102
{ACAD_REACTORS
330
218AF
102
}
330
218AF
100
AcDbXrecord
280
     1
340
173D1
  0
DICTIONARYVAR
  5
218AC
102
{ACAD_REACTORS
330
218AB
102
}
330
218AB
100
DictionaryVariables
280
     0
  1
1
  0
DICTIONARYVAR
  5
218AD
102
{ACAD_REACTORS
330
218AB
102
}
330
218AB
100
DictionaryVariables
280
     0
  1

  0
DICTIONARY
  5
218B2
330
173D5
100
AcDbDictionary
280
     1
281
     1
  3
ACAD_XREC_ROUNDTRIP
360
218B3
  0
DICTIONARY
  5
218B4
330
173D6
100
AcDbDictionary
280
     1
281
     1
  3
ACAD_XREC_ROUNDTRIP
360
218B5
  0
XRECORD
  5
218B3
102
{ACAD_REACTORS
330
218B2
102
}
330
218B2
100
AcDbXrecord
280
     1
102
SHADEPLOT
 70
     0
102
SHADEPLOTRESLEVEL
 70
     2
102
SHADEPLOTCUSTOMDPI
 70
   150
  0
XRECORD
  5
218B5
102
{ACAD_REACTORS
330
218B4
102
}
330
218B4
100
AcDbXrecord
280
     1
102
SHADEPLOT
 70
     0
102
SHADEPLOTRESLEVEL
 70
     2
102
SHADEPLOTCUSTOMDPI
 70
   300
  0
ENDSEC
  0
EOF
