  0
SECTION
  2
HEADER
  9
$ACADVER
  1
AC1015
  9
$ACADMAINTVER
 70
    20
  9
$DWGCODEPAGE
  3
ANSI_932
  9
$INSBASE
 10
0.0
 20
0.0
 30
0.0
  9
$EXTMIN
 10
139.9999999999995
 20
-0.0000000000000909
 30
0.0
  9
$EXTMAX
 10
16307.2
 20
11409.6
 30
0.0
  9
$LIMMIN
 10
0.0
 20
0.0
  9
$LIMMAX
 10
16800.0
 20
11880.0
  9
$ORTHOMODE
 70
     0
  9
$REGENMODE
 70
     1
  9
$FILLMODE
 70
     1
  9
$QTEXTMODE
 70
     0
  9
$MIRRTEXT
 70
     1
  9
$LTSCALE
 40
20.0
  9
$ATTMODE
 70
     1
  9
$TEXTSIZE
 40
100.0
  9
$TRACEWID
 40
1.0
  9
$TEXTSTYLE
  7
STYLE2
  9
$CLAYER
  8
細線
  9
$CELTYPE
  6
BYLAYER
  9
$CECOLOR
 62
   256
  9
$CELTSCALE
 40
50.0
  9
$DISPSILH
 70
     0
  9
$DIMSCALE
 40
40.0
  9
$DIMASZ
 40
2.5
  9
$DIMEXO
 40
0.5
  9
$DIMDLI
 40
7.0
  9
$DIMRND
 40
0.0
  9
$DIMDLE
 40
0.0
  9
$DIMEXE
 40
1.5
  9
$DIMTP
 40
0.0
  9
$DIMTM
 40
0.0
  9
$DIMTXT
 40
3.0
  9
$DIMCEN
 40
0.0
  9
$DIMTSZ
 40
0.0
  9
$DIMTOL
 70
     0
  9
$DIMLIM
 70
     0
  9
$DIMTIH
 70
     0
  9
$DIMTOH
 70
     0
  9
$DIMSE1
 70
     0
  9
$DIMSE2
 70
     0
  9
$DIMTAD
 70
     3
  9
$DIMZIN
 70
     8
  9
$DIMBLK
  1

  9
$DIMASO
 70
     1
  9
$DIMSHO
 70
     1
  9
$DIMPOST
  1

  9
$DIMAPOST
  1

  9
$DIMALT
 70
     0
  9
$DIMALTD
 70
     2
  9
$DIMALTF
 40
0.0394
  9
$DIMLFAC
 40
1.0
  9
$DIMTOFL
 70
     1
  9
$DIMTVP
 40
0.0
  9
$DIMTIX
 70
     1
  9
$DIMSOXD
 70
     0
  9
$DIMSAH
 70
     1
  9
$DIMBLK1
  1
DOTSMALL
  9
$DIMBLK2
  1
DOTSMALL
  9
$DIMSTYLE
  2
INABA_S40G
  9
$DIMCLRD
 70
     0
  9
$DIMCLRE
 70
     0
  9
$DIMCLRT
 70
     7
  9
$DIMTFAC
 40
1.0
  9
$DIMGAP
 40
1.0
  9
$DIMJUST
 70
     0
  9
$DIMSD1
 70
     0
  9
$DIMSD2
 70
     0
  9
$DIMTOLJ
 70
     1
  9
$DIMTZIN
 70
     0
  9
$DIMALTZ
 70
     0
  9
$DIMALTTZ
 70
     0
  9
$DIMUPT
 70
     1
  9
$DIMDEC
 70
     1
  9
$DIMTDEC
 70
     4
  9
$DIMALTU
 70
     2
  9
$DIMALTTD
 70
     2
  9
$DIMTXSTY
  7
STYLE1
  9
$DIMAUNIT
 70
     0
  9
$DIMADEC
 70
     0
  9
$DIMALTRND
 40
0.0
  9
$DIMAZIN
 70
     0
  9
$DIMDSEP
 70
    46
  9
$DIMATFIT
 70
     3
  9
$DIMFRAC
 70
     0
  9
$DIMLDRBLK
  1
DOTSMALL
  9
$DIMLUNIT
 70
     2
  9
$DIMLWD
 70
    -2
  9
$DIMLWE
 70
    -2
  9
$DIMTMOVE
 70
     0
  9
$LUNITS
 70
     2
  9
$LUPREC
 70
     1
  9
$SKETCHINC
 40
1.0
  9
$FILLETRAD
 40
2.299999999999999
  9
$AUNITS
 70
     0
  9
$AUPREC
 70
     0
  9
$MENU
  1
acad
  9
$ELEVATION
 40
0.0
  9
$PELEVATION
 40
0.0
  9
$THICKNESS
 40
0.0
  9
$LIMCHECK
 70
     0
  9
$CHAMFERA
 40
3.0
  9
$CHAMFERB
 40
3.0
  9
$CHAMFERC
 40
0.0
  9
$CHAMFERD
 40
0.0
  9
$SKPOLY
 70
     0
  9
$TDCREATE
 40
2451368.612993866
  9
$TDUCREATE
 40
2451368.237993866
  9
$TDUPDATE
 40
2455817.623798102
  9
$TDUUPDATE
 40
2455817.248798102
  9
$TDINDWG
 40
1.6435228704
  9
$TDUSRTIMER
 40
1.6435228704
  9
$USRTIMER
 70
     1
  9
$ANGBASE
 50
0.0
  9
$ANGDIR
 70
     0
  9
$PDMODE
 70
     3
  9
$PDSIZE
 40
2.0
  9
$PLINEWID
 40
0.0
  9
$SPLFRAME
 70
     0
  9
$SPLINETYPE
 70
     6
  9
$SPLINESEGS
 70
     8
  9
$HANDSEED
  5
1ED60
  9
$SURFTAB1
 70
     6
  9
$SURFTAB2
 70
     6
  9
$SURFTYPE
 70
     6
  9
$SURFU
 70
     6
  9
$SURFV
 70
     6
  9
$UCSBASE
  2

  9
$UCSNAME
  2

  9
$UCSORG
 10
0.0
 20
0.0
 30
0.0
  9
$UCSXDIR
 10
1.0
 20
0.0
 30
0.0
  9
$UCSYDIR
 10
0.0
 20
1.0
 30
0.0
  9
$UCSORTHOREF
  2

  9
$UCSORTHOVIEW
 70
     0
  9
$UCSORGTOP
 10
0.0
 20
0.0
 30
0.0
  9
$UCSORGBOTTOM
 10
0.0
 20
0.0
 30
0.0
  9
$UCSORGLEFT
 10
0.0
 20
0.0
 30
0.0
  9
$UCSORGRIGHT
 10
0.0
 20
0.0
 30
0.0
  9
$UCSORGFRONT
 10
0.0
 20
0.0
 30
0.0
  9
$UCSORGBACK
 10
0.0
 20
0.0
 30
0.0
  9
$PUCSBASE
  2

  9
$PUCSNAME
  2

  9
$PUCSORG
 10
0.0
 20
0.0
 30
0.0
  9
$PUCSXDIR
 10
1.0
 20
0.0
 30
0.0
  9
$PUCSYDIR
 10
0.0
 20
1.0
 30
0.0
  9
$PUCSORTHOREF
  2

  9
$PUCSORTHOVIEW
 70
     0
  9
$PUCSORGTOP
 10
0.0
 20
0.0
 30
0.0
  9
$PUCSORGBOTTOM
 10
0.0
 20
0.0
 30
0.0
  9
$PUCSORGLEFT
 10
0.0
 20
0.0
 30
0.0
  9
$PUCSORGRIGHT
 10
0.0
 20
0.0
 30
0.0
  9
$PUCSORGFRONT
 10
0.0
 20
0.0
 30
0.0
  9
$PUCSORGBACK
 10
0.0
 20
0.0
 30
0.0
  9
$USERI1
 70
     0
  9
$USERI2
 70
     0
  9
$USERI3
 70
     0
  9
$USERI4
 70
     0
  9
$USERI5
 70
     0
  9
$USERR1
 40
0.0
  9
$USERR2
 40
0.0
  9
$USERR3
 40
0.0
  9
$USERR4
 40
0.0
  9
$USERR5
 40
0.0
  9
$WORLDVIEW
 70
     1
  9
$SHADEDGE
 70
     3
  9
$SHADEDIF
 70
    70
  9
$TILEMODE
 70
     1
  9
$MAXACTVP
 70
    16
  9
$PINSBASE
 10
0.0
 20
0.0
 30
0.0
  9
$PLIMCHECK
 70
     0
  9
$PEXTMIN
 10
1.000000000000000E+20
 20
1.000000000000000E+20
 30
1.000000000000000E+20
  9
$PEXTMAX
 10
-1.000000000000000E+20
 20
-1.000000000000000E+20
 30
-1.000000000000000E+20
  9
$PLIMMIN
 10
0.0
 20
0.0
  9
$PLIMMAX
 10
420.0
 20
297.0
  9
$UNITMODE
 70
     0
  9
$VISRETAIN
 70
     0
  9
$PLINEGEN
 70
     0
  9
$PSLTSCALE
 70
     0
  9
$TREEDEPTH
 70
  3020
  9
$CMLSTYLE
  2
STANDARD
  9
$CMLJUST
 70
     0
  9
$CMLSCALE
 40
1.0
  9
$PROXYGRAPHICS
 70
     1
  9
$MEASUREMENT
 70
     1
  9
$CELWEIGHT
370
    -1
  9
$ENDCAPS
280
     0
  9
$JOINSTYLE
280
     0
  9
$LWDISPLAY
290
     0
  9
$INSUNITS
 70
     0
  9
$HYPERLINKBASE
  1

  9
$STYLESHEET
  1
inaba.ctb
  9
$XEDIT
290
     1
  9
$CEPSNTYPE
380
     0
  9
$PSTYLEMODE
290
     1
  9
$FINGERPRINTGUID
  2
{3B57B35E-7D77-4BBF-81B7-6C583B9EB24C}
  9
$VERSIONGUID
  2
{62D2E945-5A53-4219-939B-AC98271C2D11}
  9
$EXTNAMES
290
     1
  9
$PSVPSCALE
 40
0.0
  9
$OLESTARTUP
290
     0
  0
ENDSEC
  0
SECTION
  2
CLASSES
  0
CLASS
  1
ACDBDICTIONARYWDFLT
  2
AcDbDictionaryWithDefault
  3
ObjectDBX Classes
 90
        0
280
     0
281
     0
  0
CLASS
  1
DICTIONARYVAR
  2
AcDbDictionaryVar
  3
ObjectDBX Classes
 90
        0
280
     0
281
     0
  0
CLASS
  1
ACDBPLACEHOLDER
  2
AcDbPlaceHolder
  3
ObjectDBX Classes
 90
        0
280
     0
281
     0
  0
CLASS
  1
LAYOUT
  2
AcDbLayout
  3
ObjectDBX Classes
 90
        0
280
     0
281
     0
  0
ENDSEC
  0
SECTION
  2
TABLES
  0
TABLE
  2
VPORT
  5
746D
330
0
100
AcDbSymbolTable
 70
     2
  0
VPORT
  5
1ED58
330
746D
100
AcDbSymbolTableRecord
100
AcDbViewportTableRecord
  2
*Active
 70
     0
 10
0.0
 20
0.0
 11
1.0
 21
1.0
 12
8565.07827984614
 22
5704.513862896348
 13
0.0
 23
0.0
 14
10.0
 24
10.0
 15
10.0
 25
10.0
 16
0.0
 26
0.0
 36
1.0
 17
0.0
 27
0.0
 37
0.0
 40
11495.26071262171
 41
1.58160621761658
 42
50.0
 43
0.0
 44
0.0
 50
0.0
 51
0.0
 71
     0
 72
     0
 73
     1
 74
     0
 75
     0
 76
     0
 77
     0
 78
     0
281
     0
 65
     1
110
0.0
120
0.0
130
0.0
111
1.0
121
0.0
131
0.0
112
0.0
122
1.0
132
0.0
 79
     0
146
0.0
  0
ENDTAB
  0
TABLE
  2
LTYPE
  5
746A
330
0
100
AcDbSymbolTable
 70
     3
  0
LTYPE
  5
7477
330
746A
100
AcDbSymbolTableRecord
100
AcDbLinetypeTableRecord
  2
BYBLOCK
 70
     0
  3

 72
    65
 73
     0
 40
0.0
  0
LTYPE
  5
7478
330
746A
100
AcDbSymbolTableRecord
100
AcDbLinetypeTableRecord
  2
BYLAYER
 70
     0
  3

 72
    65
 73
     0
 40
0.0
  0
LTYPE
  5
7479
330
746A
100
AcDbSymbolTableRecord
100
AcDbLinetypeTableRecord
  2
CONTINUOUS
 70
     0
  3
Solid line
 72
    65
 73
     0
 40
0.0
  0
LTYPE
  5
7816
330
746A
100
AcDbSymbolTableRecord
100
AcDbLinetypeTableRecord
  2
CENTER
 70
     0
  3
____ _ ____ _ ____ _ ____ _ ____ _ ____ _ ____ 
 72
    65
 73
     4
 40
2.0
 49
1.25
 74
     0
 49
-0.25
 74
     0
 49
0.25
 74
     0
 49
-0.25
 74
     0
  0
LTYPE
  5
781B
330
746A
100
AcDbSymbolTableRecord
100
AcDbLinetypeTableRecord
  2
PHANTOM
 70
     0
  3
______  __  __  ______  __  __  ______  __  __ 
 72
    65
 73
     6
 40
2.5
 49
1.25
 74
     0
 49
-0.25
 74
     0
 49
0.25
 74
     0
 49
-0.25
 74
     0
 49
0.25
 74
     0
 49
-0.25
 74
     0
  0
ENDTAB
  0
TABLE
  2
LAYER
  5
7467
102
{ACAD_XDICTIONARY
360
1E899
102
}
330
0
100
AcDbSymbolTable
 70
    10
  0
LAYER
  5
7474
330
7467
100
AcDbSymbolTableRecord
100
AcDbLayerTableRecord
  2
0
 70
     0
 62
     7
  6
CONTINUOUS
370
    -3
390
159AE
  0
LAYER
  5
DEB2
330
7467
100
AcDbSymbolTableRecord
100
AcDbLayerTableRecord
  2
センター
 70
     0
 62
     3
  6
CENTER
370
    -3
390
159AE
  0
LAYER
  5
DEB3
330
7467
100
AcDbSymbolTableRecord
100
AcDbLayerTableRecord
  2
寸法
 70
     0
 62
     4
  6
CONTINUOUS
370
    -3
390
159AE
  0
LAYER
  5
DEB4
330
7467
100
AcDbSymbolTableRecord
100
AcDbLayerTableRecord
  2
部品1
 70
     0
 62
     7
  6
CONTINUOUS
370
    -3
390
159AE
  0
LAYER
  5
DEB5
330
7467
100
AcDbSymbolTableRecord
100
AcDbLayerTableRecord
  2
補助
 70
     0
 62
    -1
  6
CONTINUOUS
370
    -3
390
159AE
  0
LAYER
  5
DEB6
330
7467
100
AcDbSymbolTableRecord
100
AcDbLayerTableRecord
  2
文字
 70
     0
 62
     7
  6
CONTINUOUS
370
    -3
390
159AE
  0
LAYER
  5
F255
330
7467
100
AcDbSymbolTableRecord
100
AcDbLayerTableRecord
  2
DEFPOINTS
 70
     0
 62
     7
  6
CONTINUOUS
290
     0
370
    -3
390
159AE
  0
LAYER
  5
10B54
330
7467
100
AcDbSymbolTableRecord
100
AcDbLayerTableRecord
  2
仕様書枠
 70
     0
 62
   230
  6
CONTINUOUS
370
    -3
390
159AE
  0
LAYER
  5
1173F
330
7467
100
AcDbSymbolTableRecord
100
AcDbLayerTableRecord
  2
細線
 70
     0
 62
     5
  6
CONTINUOUS
370
    -3
390
159AE
  0
LAYER
  5
12CC4
330
7467
100
AcDbSymbolTableRecord
100
AcDbLayerTableRecord
  2
想像線
 70
     0
 62
     6
  6
PHANTOM
370
    -3
390
159AE
  0
ENDTAB
  0
TABLE
  2
STYLE
  5
7468
330
0
100
AcDbSymbolTable
 70
     3
  0
STYLE
  5
7475
330
7468
100
AcDbSymbolTableRecord
100
AcDbTextStyleTableRecord
  2
STANDARD
 70
     0
 40
0.0
 41
1.0
 50
0.0
 71
     0
 42
4.0
  3
txt
  4
C:\AutoCAD LT\bigfont.shx
  0
STYLE
  5
F706
330
7468
100
AcDbSymbolTableRecord
100
AcDbTextStyleTableRecord
  2
STYLE1
 70
     0
 40
0.0
 41
1.0
 50
0.0
 71
     0
 42
100.0
  3
isocp.shx
  4
bigfont.shx
  0
STYLE
  5
103BF
330
7468
100
AcDbSymbolTableRecord
100
AcDbTextStyleTableRecord
  2
STYLE2
 70
     0
 40
0.0
 41
1.0
 50
0.0
 71
     0
 42
100.0
  3
MS PGothic.ttf
  4

1001
ACAD
1000
MS PGothic
1071
    32818
  0
ENDTAB
  0
TABLE
  2
VIEW
  5
746B
330
0
100
AcDbSymbolTable
 70
     0
  0
ENDTAB
  0
TABLE
  2
UCS
  5
746C
330
0
100
AcDbSymbolTable
 70
     0
  0
ENDTAB
  0
TABLE
  2
APPID
  5
746E
330
0
100
AcDbSymbolTable
 70
     6
  0
APPID
  5
7476
330
746E
100
AcDbSymbolTableRecord
100
AcDbRegAppTableRecord
  2
ACAD
 70
     0
  0
APPID
  5
DEA9
330
746E
100
AcDbSymbolTableRecord
100
AcDbRegAppTableRecord
  2
CONTENTBLOCKICON
 70
     0
  0
APPID
  5
DEAA
330
746E
100
AcDbSymbolTableRecord
100
AcDbRegAppTableRecord
  2
CONTENTBLOCKDESCRIPTION
 70
     0
  0
APPID
  5
E71D
330
746E
100
AcDbSymbolTableRecord
100
AcDbRegAppTableRecord
  2
CONTENTTABDATA
 70
     0
  0
APPID
  5
E71E
330
746E
100
AcDbSymbolTableRecord
100
AcDbRegAppTableRecord
  2
CONTENTCURRENTTAB
 70
     0
  0
APPID
  5
F3BA
330
746E
100
AcDbSymbolTableRecord
100
AcDbRegAppTableRecord
  2
DRAWINGVARIABLESXDATA
 70
     0
  0
ENDTAB
  0
TABLE
  2
DIMSTYLE
  5
746F
330
0
100
AcDbSymbolTable
 70
     1
100
AcDbDimStyleTable
 71
     1
340
F71F
  0
DIMSTYLE
105
F71F
102
{ACAD_REACTORS
330
1EA51
330
1E9FE
330
1E9FB
330
1E9FA
330
1E9F3
330
1E9F1
330
1E9EE
330
1E9EC
330
1E9EB
330
1E9E9
330
1E9E8
330
1E9E7
330
1E9E3
330
1E9E1
330
1E9DF
330
1E9DE
330
1E9DA
330
1E9D8
330
1E701
330
1D959
330
1D948
330
1D947
330
1D946
330
1D942
330
1D940
330
1D93F
330
1D93E
330
1D934
330
1D933
330
1D92D
330
1D92C
330
1D929
330
1D927
330
1D926
330
1D925
330
1D920
330
1D91D
330
1D91C
330
1D91B
102
}
330
746F
100
AcDbSymbolTableRecord
100
AcDbDimStyleTableRecord
  2
INABA_S40G
 70
     0
 40
40.0
 41
2.5
 42
0.5
 43
7.0
 44
1.5
 73
     0
 74
     0
 77
     3
 78
     8
140
3.0
141
0.0
143
0.0394
147
1.0
172
     1
173
     1
174
     1
178
     7
271
     1
288
     1
340
F706
341
F770
343
F770
344
F770
  0
ENDTAB
  0
TABLE
  2
BLOCK_RECORD
  5
7466
330
0
100
AcDbSymbolTable
 70
    25
  0
BLOCK_RECORD
  5
747D
330
7466
100
AcDbSymbolTableRecord
100
AcDbBlockTableRecord
  2
*MODEL_SPACE
340
159B3
  0
BLOCK_RECORD
  5
747A
330
7466
100
AcDbSymbolTableRecord
100
AcDbBlockTableRecord
  2
*PAPER_SPACE
340
159B4
  0
BLOCK_RECORD
  5
F770
330
7466
100
AcDbSymbolTableRecord
100
AcDbBlockTableRecord
  2
_DOTSMALL
340
0
102
{BLKREFS
331
1EC40
331
1EC41
331
1EC49
331
1EC4A
331
1EC52
331
1EC53
331
1EC5B
331
1EC5C
331
1EC66
331
1EC67
331
1EC6F
331
1EC70
331
1EC79
331
1EC7A
331
1EC83
331
1EC84
331
1EC8D
331
1EC8E
331
1EC97
331
1EC98
331
1ECA2
331
1ECA3
331
1ECAC
331
1ECAD
331
1ECB7
331
1ECB8
331
1ECC1
331
1ECC2
331
1ECCC
331
1ECCD
331
1ECD6
331
1ECD7
331
1ECDF
331
1ECE0
331
1ECE8
331
1ECE9
331
1ECF3
331
1ECF4
331
1ECFD
331
1ECFE
331
1ED06
331
1ED07
331
1ED0F
331
1ED10
331
1ED19
331
1ED1A
331
1ED23
331
1ED24
102
}
  0
BLOCK_RECORD
  5
1DA44
330
7466
100
AcDbSymbolTableRecord
100
AcDbBlockTableRecord
  2
*D1
340
0
  0
BLOCK_RECORD
  5
1DA51
330
7466
100
AcDbSymbolTableRecord
100
AcDbBlockTableRecord
  2
*D2
340
0
  0
BLOCK_RECORD
  5
1DA5E
330
7466
100
AcDbSymbolTableRecord
100
AcDbBlockTableRecord
  2
*D3
340
0
  0
BLOCK_RECORD
  5
1DA69
330
7466
100
AcDbSymbolTableRecord
100
AcDbBlockTableRecord
  2
*D4
340
0
  0
BLOCK_RECORD
  5
1DA74
330
7466
100
AcDbSymbolTableRecord
100
AcDbBlockTableRecord
  2
*D5
340
0
  0
BLOCK_RECORD
  5
1DA81
330
7466
100
AcDbSymbolTableRecord
100
AcDbBlockTableRecord
  2
*D6
340
0
  0
BLOCK_RECORD
  5
1DA8E
330
7466
100
AcDbSymbolTableRecord
100
AcDbBlockTableRecord
  2
*D7
340
0
  0
BLOCK_RECORD
  5
1DA9A
330
7466
100
AcDbSymbolTableRecord
100
AcDbBlockTableRecord
  2
*D8
340
0
  0
BLOCK_RECORD
  5
1DAA5
330
7466
100
AcDbSymbolTableRecord
100
AcDbBlockTableRecord
  2
*D9
340
0
  0
BLOCK_RECORD
  5
1DAB2
330
7466
100
AcDbSymbolTableRecord
100
AcDbBlockTableRecord
  2
*D10
340
0
  0
BLOCK_RECORD
  5
1DABE
330
7466
100
AcDbSymbolTableRecord
100
AcDbBlockTableRecord
  2
*D11
340
0
  0
BLOCK_RECORD
  5
1DACB
330
7466
100
AcDbSymbolTableRecord
100
AcDbBlockTableRecord
  2
*D12
340
0
  0
BLOCK_RECORD
  5
1DAD9
330
7466
100
AcDbSymbolTableRecord
100
AcDbBlockTableRecord
  2
*D13
340
0
  0
BLOCK_RECORD
  5
1DAE6
330
7466
100
AcDbSymbolTableRecord
100
AcDbBlockTableRecord
  2
*D14
340
0
  0
BLOCK_RECORD
  5
1DAF3
330
7466
100
AcDbSymbolTableRecord
100
AcDbBlockTableRecord
  2
*D15
340
0
  0
BLOCK_RECORD
  5
1DB00
330
7466
100
AcDbSymbolTableRecord
100
AcDbBlockTableRecord
  2
*D16
340
0
  0
BLOCK_RECORD
  5
1DB0D
330
7466
100
AcDbSymbolTableRecord
100
AcDbBlockTableRecord
  2
*D17
340
0
  0
BLOCK_RECORD
  5
1DB1A
330
7466
100
AcDbSymbolTableRecord
100
AcDbBlockTableRecord
  2
*D18
340
0
  0
BLOCK_RECORD
  5
1EB0B
330
7466
100
AcDbSymbolTableRecord
100
AcDbBlockTableRecord
  2
*D19
340
0
  0
BLOCK_RECORD
  5
1EB16
330
7466
100
AcDbSymbolTableRecord
100
AcDbBlockTableRecord
  2
*D20
340
0
  0
BLOCK_RECORD
  5
1EB24
330
7466
100
AcDbSymbolTableRecord
100
AcDbBlockTableRecord
  2
*D21
340
0
  0
BLOCK_RECORD
  5
1EB30
330
7466
100
AcDbSymbolTableRecord
100
AcDbBlockTableRecord
  2
*D22
340
0
  0
BLOCK_RECORD
  5
1EB3C
330
7466
100
AcDbSymbolTableRecord
100
AcDbBlockTableRecord
  2
*D23
340
0
  0
BLOCK_RECORD
  5
1EB48
330
7466
100
AcDbSymbolTableRecord
100
AcDbBlockTableRecord
  2
*D24
340
0
  0
ENDTAB
  0
ENDSEC
  0
SECTION
  2
BLOCKS
  0
BLOCK
  5
7489
330
747D
100
AcDbEntity
  8
0
100
AcDbBlockBegin
  2
*MODEL_SPACE
 70
     0
 10
0.0
 20
0.0
 30
0.0
  3
*MODEL_SPACE
  1

  0
ENDBLK
  5
748A
330
747D
100
AcDbEntity
  8
0
100
AcDbBlockEnd
  0
BLOCK
  5
7487
330
747A
100
AcDbEntity
 67
     1
  8
0
100
AcDbBlockBegin
  2
*PAPER_SPACE
 70
     0
 10
0.0
 20
0.0
 30
0.0
  3
*PAPER_SPACE
  1

  0
ENDBLK
  5
7488
330
747A
100
AcDbEntity
 67
     1
  8
0
100
AcDbBlockEnd
  0
BLOCK
  5
F771
330
F770
100
AcDbEntity
  8
0
 48
50.0
100
AcDbBlockBegin
  2
_DOTSMALL
 70
     0
 10
0.0
 20
0.0
 30
0.0
  3
_DOTSMALL
  1

  0
LWPOLYLINE
  5
F772
330
F770
100
AcDbEntity
  8
0
  6
ByBlock
 62
     0
 48
50.0
100
AcDbPolyline
 90
        2
 70
     1
 43
0.5
 10
-0.0625
 20
0.0
 42
1.0
 10
0.0625
 20
0.0
 42
1.0
  0
ENDBLK
  5
F776
330
F770
100
AcDbEntity
  8
0
 48
50.0
100
AcDbBlockEnd
  0
BLOCK
  5
1DA4F
330
1DA44
100
AcDbEntity
  8
0
 48
50.0
100
AcDbBlockBegin
  2
*D1
 70
     1
 10
0.0
 20
0.0
 30
0.0
  3
*D1
  1

  0
LINE
  5
1ED1F
330
1DA44
100
AcDbEntity
  8
寸法
 62
     0
 48
50.0
370
    -2
100
AcDbLine
 10
7573.599999999998
 20
5669.999999999993
 30
0.0
 11
7830.307249876097
 21
5669.999999999993
 31
0.0
  0
LINE
  5
1ED20
330
1DA44
100
AcDbEntity
  8
寸法
 62
     0
 48
50.0
370
    -2
100
AcDbLine
 10
7573.599999999998
 20
5799.999999999994
 30
0.0
 11
7830.307249876097
 21
5799.999999999994
 31
0.0
  0
LINE
  5
1ED21
330
1DA44
100
AcDbEntity
  8
寸法
 62
     0
 48
50.0
370
    -2
100
AcDbLine
 10
7770.307249876097
 20
5669.999999999993
 30
0.0
 11
7770.307249876097
 21
5799.999999999994
 31
0.0
  0
LINE
  5
1ED22
330
1DA44
100
AcDbEntity
  8
寸法
 62
     0
 48
50.0
370
    -2
100
AcDbLine
 10
7770.307249876097
 20
5799.999999999994
 30
0.0
 11
7770.307249876097
 21
6172.094488188971
 31
0.0
  0
INSERT
  5
1ED23
330
1DA44
100
AcDbEntity
  8
寸法
 62
     0
 48
50.0
370
    -2
100
AcDbBlockReference
  2
_DOTSMALL
 10
7770.307249876097
 20
5669.999999999993
 30
0.0
 41
100.0
 42
100.0
 43
100.0
 50
270.0
  0
INSERT
  5
1ED24
330
1DA44
100
AcDbEntity
  8
寸法
 62
     0
 48
50.0
370
    -2
100
AcDbBlockReference
  2
_DOTSMALL
 10
7770.307249876097
 20
5799.999999999994
 30
0.0
 41
100.0
 42
100.0
 43
100.0
 50
90.0
  0
MTEXT
  5
1ED25
330
1DA44
100
AcDbEntity
  8
寸法
 62
     7
 48
50.0
100
AcDbMText
 10
7670.307249876096
 20
6036.047244094484
 30
0.0
 40
120.0
 41
0.0
 71
     5
 72
     1
  1
\A1;130
  7
STYLE1
 11
0.0000000000000001
 21
1.0
 31
0.0
 73
     1
 44
1.0
1001
ACAD
1000
MTEXTBEGIN
1070
    73
1070
     1
1070
    44
1040
1.0
1070
    74
1070
     0
1000
MTEXTEND
  0
POINT
  5
1ED26
330
1DA44
100
AcDbEntity
  8
DEFPOINTS
 62
     0
 48
50.0
100
AcDbPoint
 10
7553.599999999999
 20
5669.999999999993
 30
0.0
  0
POINT
  5
1ED27
330
1DA44
100
AcDbEntity
  8
DEFPOINTS
 62
     0
 48
50.0
100
AcDbPoint
 10
7553.599999999999
 20
5799.999999999994
 30
0.0
  0
POINT
  5
1ED28
330
1DA44
100
AcDbEntity
  8
DEFPOINTS
 62
     0
 48
50.0
100
AcDbPoint
 10
7770.307249876097
 20
5799.999999999994
 30
0.0
  0
ENDBLK
  5
1DA50
330
1DA44
100
AcDbEntity
  8
0
 48
50.0
100
AcDbBlockEnd
  0
BLOCK
  5
1DA5C
330
1DA51
100
AcDbEntity
  8
0
 48
50.0
100
AcDbBlockBegin
  2
*D2
 70
     1
 10
0.0
 20
0.0
 30
0.0
  3
*D2
  1

  0
LINE
  5
1ED15
330
1DA51
100
AcDbEntity
  8
寸法
 62
     0
 48
50.0
370
    -2
100
AcDbLine
 10
7573.599999999998
 20
5669.999999999994
 30
0.0
 11
7830.307249876097
 21
5669.999999999994
 31
0.0
  0
LINE
  5
1ED16
330
1DA51
100
AcDbEntity
  8
寸法
 62
     0
 48
50.0
370
    -2
100
AcDbLine
 10
7573.599999999998
 20
5499.999999999992
 30
0.0
 11
7830.307249876097
 21
5499.999999999992
 31
0.0
  0
LINE
  5
1ED17
330
1DA51
100
AcDbEntity
  8
寸法
 62
     0
 48
50.0
370
    -2
100
AcDbLine
 10
7770.307249876097
 20
5669.999999999994
 30
0.0
 11
7770.307249876097
 21
5499.999999999992
 31
0.0
  0
LINE
  5
1ED18
330
1DA51
100
AcDbEntity
  8
寸法
 62
     0
 48
50.0
370
    -2
100
AcDbLine
 10
7770.307249876097
 20
5499.999999999992
 30
0.0
 11
7770.307249876097
 21
5127.905511811016
 31
0.0
  0
INSERT
  5
1ED19
330
1DA51
100
AcDbEntity
  8
寸法
 62
     0
 48
50.0
370
    -2
100
AcDbBlockReference
  2
_DOTSMALL
 10
7770.307249876097
 20
5669.999999999994
 30
0.0
 41
100.0
 42
100.0
 43
100.0
 50
90.0
  0
INSERT
  5
1ED1A
330
1DA51
100
AcDbEntity
  8
寸法
 62
     0
 48
50.0
370
    -2
100
AcDbBlockReference
  2
_DOTSMALL
 10
7770.307249876097
 20
5499.999999999992
 30
0.0
 41
100.0
 42
100.0
 43
100.0
 50
270.0
  0
MTEXT
  5
1ED1B
330
1DA51
100
AcDbEntity
  8
寸法
 62
     7
 48
50.0
100
AcDbMText
 10
7670.307249876096
 20
5263.952755905505
 30
0.0
 40
120.0
 41
0.0
 71
     5
 72
     1
  1
\A1;170
  7
STYLE1
 11
0.0000000000000001
 21
1.0
 31
0.0
 73
     1
 44
1.0
1001
ACAD
1000
MTEXTBEGIN
1070
    73
1070
     1
1070
    44
1040
1.0
1070
    74
1070
     0
1000
MTEXTEND
  0
POINT
  5
1ED1C
330
1DA51
100
AcDbEntity
  8
DEFPOINTS
 62
     0
 48
50.0
100
AcDbPoint
 10
7553.599999999999
 20
5669.999999999994
 30
0.0
  0
POINT
  5
1ED1D
330
1DA51
100
AcDbEntity
  8
DEFPOINTS
 62
     0
 48
50.0
100
AcDbPoint
 10
7553.599999999999
 20
5499.999999999992
 30
0.0
  0
POINT
  5
1ED1E
330
1DA51
100
AcDbEntity
  8
DEFPOINTS
 62
     0
 48
50.0
100
AcDbPoint
 10
7770.307249876097
 20
5499.999999999992
 30
0.0
  0
ENDBLK
  5
1DA5D
330
1DA51
100
AcDbEntity
  8
0
 48
50.0
100
AcDbBlockEnd
  0
BLOCK
  5
1DA67
330
1DA5E
100
AcDbEntity
  8
0
 48
50.0
100
AcDbBlockBegin
  2
*D3
 70
     1
 10
0.0
 20
0.0
 30
0.0
  3
*D3
  1

  0
LINE
  5
1ED0C
330
1DA5E
100
AcDbEntity
  8
寸法
 62
     0
 48
50.0
370
    -2
100
AcDbLine
 10
9000.599999999998
 20
6406.999999999991
 30
0.0
 11
9000.599999999998
 21
7125.060610389922
 31
0.0
  0
LINE
  5
1ED0D
330
1DA5E
100
AcDbEntity
  8
寸法
 62
     0
 48
50.0
370
    -2
100
AcDbLine
 10
7446.6
 20
6406.999999999991
 30
0.0
 11
7446.6
 21
7125.060610389922
 31
0.0
  0
LINE
  5
1ED0E
330
1DA5E
100
AcDbEntity
  8
寸法
 62
     0
 48
50.0
370
    -2
100
AcDbLine
 10
9000.599999999998
 20
7065.06061038992
 30
0.0
 11
7446.6
 21
7065.06061038992
 31
0.0
  0
INSERT
  5
1ED0F
330
1DA5E
100
AcDbEntity
  8
寸法
 62
     0
 48
50.0
370
    -2
100
AcDbBlockReference
  2
_DOTSMALL
 10
9000.599999999998
 20
7065.06061038992
 30
0.0
 41
100.0
 42
100.0
 43
100.0
  0
INSERT
  5
1ED10
330
1DA5E
100
AcDbEntity
  8
寸法
 62
     0
 48
50.0
370
    -2
100
AcDbBlockReference
  2
_DOTSMALL
 10
7446.6
 20
7065.06061038992
 30
0.0
 41
100.0
 42
100.0
 43
100.0
 50
180.0
  0
MTEXT
  5
1ED11
330
1DA5E
100
AcDbEntity
  8
寸法
 62
     7
 48
50.0
100
AcDbMText
 10
8223.599999999999
 20
7165.060610389921
 30
0.0
 40
120.0
 41
0.0
 71
     5
 72
     1
  1
\A1;1554
  7
STYLE1
 73
     1
 44
1.0
1001
ACAD
1000
MTEXTBEGIN
1070
    73
1070
     1
1070
    44
1040
1.0
1070
    74
1070
     0
1000
MTEXTEND
  0
POINT
  5
1ED12
330
1DA5E
100
AcDbEntity
  8
DEFPOINTS
 62
     0
 48
50.0
100
AcDbPoint
 10
9000.599999999998
 20
6386.999999999991
 30
0.0
  0
POINT
  5
1ED13
330
1DA5E
100
AcDbEntity
  8
DEFPOINTS
 62
     0
 48
50.0
100
AcDbPoint
 10
7446.6
 20
6386.999999999991
 30
0.0
  0
POINT
  5
1ED14
330
1DA5E
100
AcDbEntity
  8
DEFPOINTS
 62
     0
 48
50.0
100
AcDbPoint
 10
7446.6
 20
7065.06061038992
 30
0.0
  0
ENDBLK
  5
1DA68
330
1DA5E
100
AcDbEntity
  8
0
 48
50.0
100
AcDbBlockEnd
  0
BLOCK
  5
1DA72
330
1DA69
100
AcDbEntity
  8
0
 48
50.0
100
AcDbBlockBegin
  2
*D4
 70
     1
 10
0.0
 20
0.0
 30
0.0
  3
*D4
  1

  0
LINE
  5
1ED03
330
1DA69
100
AcDbEntity
  8
寸法
 62
     0
 48
50.0
370
    -2
100
AcDbLine
 10
7323.599999999998
 20
6479.999999999991
 30
0.0
 11
7323.599999999998
 21
7337.521305906758
 31
0.0
  0
LINE
  5
1ED04
330
1DA69
100
AcDbEntity
  8
寸法
 62
     0
 48
50.0
370
    -2
100
AcDbLine
 10
9123.599999999999
 20
6479.999999999991
 30
0.0
 11
9123.599999999999
 21
7337.521305906758
 31
0.0
  0
LINE
  5
1ED05
330
1DA69
100
AcDbEntity
  8
寸法
 62
     0
 48
50.0
370
    -2
100
AcDbLine
 10
7323.599999999998
 20
7277.521305906758
 30
0.0
 11
9123.599999999999
 21
7277.521305906758
 31
0.0
  0
INSERT
  5
1ED06
330
1DA69
100
AcDbEntity
  8
寸法
 62
     0
 48
50.0
370
    -2
100
AcDbBlockReference
  2
_DOTSMALL
 10
7323.599999999998
 20
7277.521305906758
 30
0.0
 41
100.0
 42
100.0
 43
100.0
 50
180.0
  0
INSERT
  5
1ED07
330
1DA69
100
AcDbEntity
  8
寸法
 62
     0
 48
50.0
370
    -2
100
AcDbBlockReference
  2
_DOTSMALL
 10
9123.599999999999
 20
7277.521305906758
 30
0.0
 41
100.0
 42
100.0
 43
100.0
  0
MTEXT
  5
1ED08
330
1DA69
100
AcDbEntity
  8
寸法
 62
     7
 48
50.0
100
AcDbMText
 10
8223.599999999999
 20
7377.521305906758
 30
0.0
 40
120.0
 41
0.0
 71
     5
 72
     1
  1
\A1;1800
  7
STYLE1
 73
     1
 44
1.0
1001
ACAD
1000
MTEXTBEGIN
1070
    73
1070
     1
1070
    44
1040
1.0
1070
    74
1070
     0
1000
MTEXTEND
  0
POINT
  5
1ED09
330
1DA69
100
AcDbEntity
  8
DEFPOINTS
 62
     0
 48
50.0
100
AcDbPoint
 10
7323.599999999998
 20
6459.999999999991
 30
0.0
  0
POINT
  5
1ED0A
330
1DA69
100
AcDbEntity
  8
DEFPOINTS
 62
     0
 48
50.0
100
AcDbPoint
 10
9123.599999999999
 20
6459.999999999991
 30
0.0
  0
POINT
  5
1ED0B
330
1DA69
100
AcDbEntity
  8
DEFPOINTS
 62
     0
 48
50.0
100
AcDbPoint
 10
9123.599999999999
 20
7277.521305906758
 30
0.0
  0
ENDBLK
  5
1DA73
330
1DA69
100
AcDbEntity
  8
0
 48
50.0
100
AcDbBlockEnd
  0
BLOCK
  5
1DA7F
330
1DA74
100
AcDbEntity
  8
0
 48
50.0
100
AcDbBlockBegin
  2
*D5
 70
     1
 10
0.0
 20
0.0
 30
0.0
  3
*D5
  1

  0
LINE
  5
1ECF9
330
1DA74
100
AcDbEntity
  8
寸法
 62
     0
 48
50.0
370
    -2
100
AcDbLine
 10
7446.6
 20
6406.999999999991
 30
0.0
 11
7446.6
 21
7125.060610389922
 31
0.0
  0
LINE
  5
1ECFA
330
1DA74
100
AcDbEntity
  8
寸法
 62
     0
 48
50.0
370
    -2
100
AcDbLine
 10
7323.599999999998
 20
6479.999999999991
 30
0.0
 11
7323.599999999998
 21
7125.060610389922
 31
0.0
  0
LINE
  5
1ECFB
330
1DA74
100
AcDbEntity
  8
寸法
 62
     0
 48
50.0
370
    -2
100
AcDbLine
 10
7446.6
 20
7065.06061038992
 30
0.0
 11
7323.599999999998
 21
7065.06061038992
 31
0.0
  0
LINE
  5
1ECFC
330
1DA74
100
AcDbEntity
  8
寸法
 62
     0
 48
50.0
370
    -2
100
AcDbLine
 10
7323.599999999998
 20
7065.06061038992
 30
0.0
 11
6946.62943725152
 21
7065.06061038992
 31
0.0
  0
INSERT
  5
1ECFD
330
1DA74
100
AcDbEntity
  8
寸法
 62
     0
 48
50.0
370
    -2
100
AcDbBlockReference
  2
_DOTSMALL
 10
7446.6
 20
7065.06061038992
 30
0.0
 41
100.0
 42
100.0
 43
100.0
  0
INSERT
  5
1ECFE
330
1DA74
100
AcDbEntity
  8
寸法
 62
     0
 48
50.0
370
    -2
100
AcDbBlockReference
  2
_DOTSMALL
 10
7323.599999999998
 20
7065.06061038992
 30
0.0
 41
100.0
 42
100.0
 43
100.0
 50
180.0
  0
MTEXT
  5
1ECFF
330
1DA74
100
AcDbEntity
  8
寸法
 62
     7
 48
50.0
100
AcDbMText
 10
7085.11471862576
 20
7165.072421413542
 30
0.0
 40
120.0
 41
0.0
 71
     5
 72
     1
  1
\A1;123
  7
STYLE1
 73
     1
 44
1.0
1001
ACAD
1000
MTEXTBEGIN
1070
    73
1070
     1
1070
    44
1040
1.0
1070
    74
1070
     0
1000
MTEXTEND
  0
POINT
  5
1ED00
330
1DA74
100
AcDbEntity
  8
DEFPOINTS
 62
     0
 48
50.0
100
AcDbPoint
 10
7446.6
 20
6386.999999999991
 30
0.0
  0
POINT
  5
1ED01
330
1DA74
100
AcDbEntity
  8
DEFPOINTS
 62
     0
 48
50.0
100
AcDbPoint
 10
7323.599999999998
 20
6459.999999999991
 30
0.0
  0
POINT
  5
1ED02
330
1DA74
100
AcDbEntity
  8
DEFPOINTS
 62
     0
 48
50.0
100
AcDbPoint
 10
7323.599999999998
 20
7065.06061038992
 30
0.0
  0
ENDBLK
  5
1DA80
330
1DA74
100
AcDbEntity
  8
0
 48
50.0
100
AcDbBlockEnd
  0
BLOCK
  5
1DA8C
330
1DA81
100
AcDbEntity
  8
0
 48
50.0
100
AcDbBlockBegin
  2
*D6
 70
     1
 10
0.0
 20
0.0
 30
0.0
  3
*D6
  1

  0
LINE
  5
1ECEE
330
1DA81
100
AcDbEntity
  8
寸法
 62
     0
 48
50.0
370
    -2
100
AcDbLine
 10
7278.599999999994
 20
7085.060610389921
 30
0.0
 11
7278.599999999994
 21
7337.521305906759
 31
0.0
  0
LINE
  5
1ECEF
330
1DA81
100
AcDbEntity
  8
寸法
 62
     0
 48
50.0
370
    -2
100
AcDbLine
 10
7323.599999999998
 20
6479.999999999991
 30
0.0
 11
7323.599999999998
 21
7337.521305906759
 31
0.0
  0
LINE
  5
1ECF0
330
1DA81
100
AcDbEntity
  8
寸法
 62
     0
 48
50.0
370
    -2
100
AcDbLine
 10
7278.599999999994
 20
7277.521305906759
 30
0.0
 11
7178.599999999994
 21
7277.521305906759
 31
0.0
  0
LINE
  5
1ECF1
330
1DA81
100
AcDbEntity
  8
寸法
 62
     0
 48
50.0
370
    -2
100
AcDbLine
 10
7323.599999999998
 20
7277.521305906759
 30
0.0
 11
7423.599999999999
 21
7277.521305906759
 31
0.0
  0
LINE
  5
1ECF2
330
1DA81
100
AcDbEntity
  8
寸法
 62
     0
 48
50.0
370
    -2
100
AcDbLine
 10
7278.599999999994
 20
7277.521305906759
 30
0.0
 11
7323.599999999998
 21
7277.521305906759
 31
0.0
  0
INSERT
  5
1ECF3
330
1DA81
100
AcDbEntity
  8
寸法
 62
     0
 48
50.0
370
    -2
100
AcDbBlockReference
  2
_DOTSMALL
 10
7278.599999999994
 20
7277.521305906759
 30
0.0
 41
100.0
 42
100.0
 43
100.0
  0
INSERT
  5
1ECF4
330
1DA81
100
AcDbEntity
  8
寸法
 62
     0
 48
50.0
370
    -2
100
AcDbBlockReference
  2
_DOTSMALL
 10
7323.599999999998
 20
7277.521305906759
 30
0.0
 41
100.0
 42
100.0
 43
100.0
 50
180.0
  0
MTEXT
  5
1ECF5
330
1DA81
100
AcDbEntity
  8
寸法
 62
     7
 48
50.0
100
AcDbMText
 10
7301.099999999997
 20
7377.52130590676
 30
0.0
 40
120.0
 41
0.0
 71
     5
 72
     1
  1
\A1;a
  7
STYLE1
 73
     1
 44
1.0
1001
ACAD
1000
MTEXTBEGIN
1070
    73
1070
     1
1070
    44
1040
1.0
1070
    74
1070
     0
1000
MTEXTEND
  0
POINT
  5
1ECF6
330
1DA81
100
AcDbEntity
  8
DEFPOINTS
 62
     0
 48
50.0
100
AcDbPoint
 10
7278.599999999994
 20
7065.06061038992
 30
0.0
  0
POINT
  5
1ECF7
330
1DA81
100
AcDbEntity
  8
DEFPOINTS
 62
     0
 48
50.0
100
AcDbPoint
 10
7323.599999999998
 20
6459.999999999991
 30
0.0
  0
POINT
  5
1ECF8
330
1DA81
100
AcDbEntity
  8
DEFPOINTS
 62
     0
 48
50.0
100
AcDbPoint
 10
7323.599999999998
 20
7277.521305906759
 30
0.0
  0
ENDBLK
  5
1DA8D
330
1DA81
100
AcDbEntity
  8
0
 48
50.0
100
AcDbBlockEnd
  0
BLOCK
  5
1DA98
330
1DA8E
100
AcDbEntity
  8
0
 48
50.0
100
AcDbBlockBegin
  2
*D7
 70
     1
 10
0.0
 20
0.0
 30
0.0
  3
*D7
  1

  0
LINE
  5
1ECE5
330
1DA8E
100
AcDbEntity
  8
寸法
 62
     0
 48
50.0
370
    -2
100
AcDbLine
 10
7376.599999999999
 20
6336.999999999991
 30
0.0
 11
6767.657733986178
 21
6336.999999999991
 31
0.0
  0
LINE
  5
1ECE6
330
1DA8E
100
AcDbEntity
  8
寸法
 62
     0
 48
50.0
370
    -2
100
AcDbLine
 10
7376.600000000006
 20
5697.999999999993
 30
0.0
 11
6767.657733986176
 21
5697.999999999993
 31
0.0
  0
LINE
  5
1ECE7
330
1DA8E
100
AcDbEntity
  8
寸法
 62
     0
 48
50.0
370
    -2
100
AcDbLine
 10
6827.657733986177
 20
6336.999999999991
 30
0.0
 11
6827.657733986177
 21
5697.999999999993
 31
0.0
  0
INSERT
  5
1ECE8
330
1DA8E
100
AcDbEntity
  8
寸法
 62
     0
 48
50.0
370
    -2
100
AcDbBlockReference
  2
_DOTSMALL
 10
6827.657733986177
 20
6336.999999999991
 30
0.0
 41
100.0
 42
100.0
 43
100.0
 50
90.0
  0
INSERT
  5
1ECE9
330
1DA8E
100
AcDbEntity
  8
寸法
 62
     0
 48
50.0
370
    -2
100
AcDbBlockReference
  2
_DOTSMALL
 10
6827.657733986177
 20
5697.999999999993
 30
0.0
 41
100.0
 42
100.0
 43
100.0
 50
270.0
  0
MTEXT
  5
1ECEA
330
1DA8E
100
AcDbEntity
  8
寸法
 62
     7
 48
50.0
100
AcDbMText
 10
6727.657733986176
 20
6024.668633536565
 30
0.0
 40
120.0
 41
0.0
 71
     5
 72
     1
  1
\A1;639
  7
STYLE1
 11
0.0000000000000001
 21
1.0
 31
0.0
 73
     1
 44
1.0
1001
ACAD
1000
MTEXTBEGIN
1070
    73
1070
     1
1070
    44
1040
1.0
1070
    74
1070
     0
1000
MTEXTEND
  0
POINT
  5
1ECEB
330
1DA8E
100
AcDbEntity
  8
DEFPOINTS
 62
     0
 48
50.0
100
AcDbPoint
 10
7396.599999999999
 20
6336.999999999991
 30
0.0
  0
POINT
  5
1ECEC
330
1DA8E
100
AcDbEntity
  8
DEFPOINTS
 62
     0
 48
50.0
100
AcDbPoint
 10
7396.600000000006
 20
5697.999999999993
 30
0.0
  0
POINT
  5
1ECED
330
1DA8E
100
AcDbEntity
  8
DEFPOINTS
 62
     0
 48
50.0
100
AcDbPoint
 10
6827.657733986177
 20
5697.999999999993
 30
0.0
  0
ENDBLK
  5
1DA99
330
1DA8E
100
AcDbEntity
  8
0
 48
50.0
100
AcDbBlockEnd
  0
BLOCK
  5
1DAA3
330
1DA9A
100
AcDbEntity
  8
0
 48
50.0
100
AcDbBlockBegin
  2
*D8
 70
     1
 10
0.0
 20
0.0
 30
0.0
  3
*D8
  1

  0
LINE
  5
1ECDC
330
1DA9A
100
AcDbEntity
  8
寸法
 62
     0
 48
50.0
370
    -2
100
AcDbLine
 10
7303.599999999999
 20
6459.999999999991
 30
0.0
 11
6522.164931848211
 21
6459.999999999991
 31
0.0
  0
LINE
  5
1ECDD
330
1DA9A
100
AcDbEntity
  8
寸法
 62
     0
 48
50.0
370
    -2
100
AcDbLine
 10
7303.599999999999
 20
5499.999999999991
 30
0.0
 11
6522.164931848209
 21
5499.999999999991
 31
0.0
  0
LINE
  5
1ECDE
330
1DA9A
100
AcDbEntity
  8
寸法
 62
     0
 48
50.0
370
    -2
100
AcDbLine
 10
6582.16493184821
 20
6459.999999999991
 30
0.0
 11
6582.16493184821
 21
5499.999999999991
 31
0.0
  0
INSERT
  5
1ECDF
330
1DA9A
100
AcDbEntity
  8
寸法
 62
     0
 48
50.0
370
    -2
100
AcDbBlockReference
  2
_DOTSMALL
 10
6582.16493184821
 20
6459.999999999991
 30
0.0
 41
100.0
 42
100.0
 43
100.0
 50
90.0
  0
INSERT
  5
1ECE0
330
1DA9A
100
AcDbEntity
  8
寸法
 62
     0
 48
50.0
370
    -2
100
AcDbBlockReference
  2
_DOTSMALL
 10
6582.16493184821
 20
5499.999999999991
 30
0.0
 41
100.0
 42
100.0
 43
100.0
 50
270.0
  0
MTEXT
  5
1ECE1
330
1DA9A
100
AcDbEntity
  8
寸法
 62
     7
 48
50.0
100
AcDbMText
 10
6482.164931848209
 20
6024.668633536565
 30
0.0
 40
120.0
 41
0.0
 71
     5
 72
     1
  1
\A1;960
  7
STYLE1
 11
0.0000000000000001
 21
1.0
 31
0.0
 73
     1
 44
1.0
1001
ACAD
1000
MTEXTBEGIN
1070
    73
1070
     1
1070
    44
1040
1.0
1070
    74
1070
     0
1000
MTEXTEND
  0
POINT
  5
1ECE2
330
1DA9A
100
AcDbEntity
  8
DEFPOINTS
 62
     0
 48
50.0
100
AcDbPoint
 10
7323.599999999998
 20
6459.999999999991
 30
0.0
  0
POINT
  5
1ECE3
330
1DA9A
100
AcDbEntity
  8
DEFPOINTS
 62
     0
 48
50.0
100
AcDbPoint
 10
7323.599999999998
 20
5499.999999999991
 30
0.0
  0
POINT
  5
1ECE4
330
1DA9A
100
AcDbEntity
  8
DEFPOINTS
 62
     0
 48
50.0
100
AcDbPoint
 10
6582.16493184821
 20
5499.999999999991
 30
0.0
  0
ENDBLK
  5
1DAA4
330
1DA9A
100
AcDbEntity
  8
0
 48
50.0
100
AcDbBlockEnd
  0
BLOCK
  5
1DAB0
330
1DAA5
100
AcDbEntity
  8
0
 48
50.0
100
AcDbBlockBegin
  2
*D9
 70
     1
 10
0.0
 20
0.0
 30
0.0
  3
*D9
  1

  0
LINE
  5
1ECD2
330
1DAA5
100
AcDbEntity
  8
寸法
 62
     0
 48
50.0
370
    -2
100
AcDbLine
 10
7376.600000000006
 20
5697.999999999993
 30
0.0
 11
6767.657733986176
 21
5697.999999999993
 31
0.0
  0
LINE
  5
1ECD3
330
1DAA5
100
AcDbEntity
  8
寸法
 62
     0
 48
50.0
370
    -2
100
AcDbLine
 10
7303.599999999999
 20
5499.999999999991
 30
0.0
 11
6767.657733986176
 21
5499.999999999991
 31
0.0
  0
LINE
  5
1ECD4
330
1DAA5
100
AcDbEntity
  8
寸法
 62
     0
 48
50.0
370
    -2
100
AcDbLine
 10
6827.657733986177
 20
5697.999999999993
 30
0.0
 11
6827.657733986177
 21
5499.999999999991
 31
0.0
  0
LINE
  5
1ECD5
330
1DAA5
100
AcDbEntity
  8
寸法
 62
     0
 48
50.0
370
    -2
100
AcDbLine
 10
6827.657733986177
 20
5499.999999999991
 30
0.0
 11
6827.657733986177
 21
5127.580680340678
 31
0.0
  0
INSERT
  5
1ECD6
330
1DAA5
100
AcDbEntity
  8
寸法
 62
     0
 48
50.0
370
    -2
100
AcDbBlockReference
  2
_DOTSMALL
 10
6827.657733986177
 20
5697.999999999993
 30
0.0
 41
100.0
 42
100.0
 43
100.0
 50
90.0
  0
INSERT
  5
1ECD7
330
1DAA5
100
AcDbEntity
  8
寸法
 62
     0
 48
50.0
370
    -2
100
AcDbBlockReference
  2
_DOTSMALL
 10
6827.657733986177
 20
5499.999999999991
 30
0.0
 41
100.0
 42
100.0
 43
100.0
 50
270.0
  0
MTEXT
  5
1ECD8
330
1DAA5
100
AcDbEntity
  8
寸法
 62
     7
 48
50.0
100
AcDbMText
 10
6727.657733986176
 20
5263.790340170336
 30
0.0
 40
120.0
 41
0.0
 71
     5
 72
     1
  1
\A1;198
  7
STYLE1
 11
0.0000000000000001
 21
1.0
 31
0.0
 73
     1
 44
1.0
1001
ACAD
1000
MTEXTBEGIN
1070
    73
1070
     1
1070
    44
1040
1.0
1070
    74
1070
     0
1000
MTEXTEND
  0
POINT
  5
1ECD9
330
1DAA5
100
AcDbEntity
  8
DEFPOINTS
 62
     0
 48
50.0
100
AcDbPoint
 10
7396.600000000006
 20
5697.999999999993
 30
0.0
  0
POINT
  5
1ECDA
330
1DAA5
100
AcDbEntity
  8
DEFPOINTS
 62
     0
 48
50.0
100
AcDbPoint
 10
7323.599999999998
 20
5499.999999999991
 30
0.0
  0
POINT
  5
1ECDB
330
1DAA5
100
AcDbEntity
  8
DEFPOINTS
 62
     0
 48
50.0
100
AcDbPoint
 10
6827.657733986177
 20
5499.999999999991
 30
0.0
  0
ENDBLK
  5
1DAB1
330
1DAA5
100
AcDbEntity
  8
0
 48
50.0
100
AcDbBlockEnd
  0
BLOCK
  5
1DABC
330
1DAB2
100
AcDbEntity
  8
0
 48
50.0
100
AcDbBlockBegin
  2
*D10
 70
     1
 10
0.0
 20
0.0
 30
0.0
  3
*D10
  1

  0
LINE
  5
1ECC7
330
1DAB2
100
AcDbEntity
  8
寸法
 62
     0
 48
50.0
370
    -2
100
AcDbLine
 10
7303.599999999999
 20
5499.999999999991
 30
0.0
 11
6522.164931848211
 21
5499.999999999991
 31
0.0
  0
LINE
  5
1ECC8
330
1DAB2
100
AcDbEntity
  8
寸法
 62
     0
 48
50.0
370
    -2
100
AcDbLine
 10
6807.657733986177
 20
5444.999999999991
 30
0.0
 11
6522.164931848211
 21
5444.999999999991
 31
0.0
  0
LINE
  5
1ECC9
330
1DAB2
100
AcDbEntity
  8
寸法
 62
     0
 48
50.0
370
    -2
100
AcDbLine
 10
6582.16493184821
 20
5499.999999999991
 30
0.0
 11
6582.16493184821
 21
5599.99999999999
 31
0.0
  0
LINE
  5
1ECCA
330
1DAB2
100
AcDbEntity
  8
寸法
 62
     0
 48
50.0
370
    -2
100
AcDbLine
 10
6582.16493184821
 20
5444.999999999991
 30
0.0
 11
6582.16493184821
 21
5344.999999999991
 31
0.0
  0
LINE
  5
1ECCB
330
1DAB2
100
AcDbEntity
  8
寸法
 62
     0
 48
50.0
370
    -2
100
AcDbLine
 10
6582.16493184821
 20
5499.999999999991
 30
0.0
 11
6582.16493184821
 21
5444.999999999991
 31
0.0
  0
INSERT
  5
1ECCC
330
1DAB2
100
AcDbEntity
  8
寸法
 62
     0
 48
50.0
370
    -2
100
AcDbBlockReference
  2
_DOTSMALL
 10
6582.16493184821
 20
5499.999999999991
 30
0.0
 41
100.0
 42
100.0
 43
100.0
 50
270.0
  0
INSERT
  5
1ECCD
330
1DAB2
100
AcDbEntity
  8
寸法
 62
     0
 48
50.0
370
    -2
100
AcDbBlockReference
  2
_DOTSMALL
 10
6582.16493184821
 20
5444.999999999991
 30
0.0
 41
100.0
 42
100.0
 43
100.0
 50
90.0
  0
MTEXT
  5
1ECCE
330
1DAB2
100
AcDbEntity
  8
寸法
 62
     7
 48
50.0
100
AcDbMText
 10
6482.16493184821
 20
5472.499999999993
 30
0.0
 40
120.0
 41
0.0
 71
     5
 72
     1
  1
\A1;b
  7
STYLE1
 11
0.0000000000000001
 21
1.0
 31
0.0
 73
     1
 44
1.0
1001
ACAD
1000
MTEXTBEGIN
1070
    73
1070
     1
1070
    44
1040
1.0
1070
    74
1070
     0
1000
MTEXTEND
  0
POINT
  5
1ECCF
330
1DAB2
100
AcDbEntity
  8
DEFPOINTS
 62
     0
 48
50.0
100
AcDbPoint
 10
7323.599999999998
 20
5499.999999999991
 30
0.0
  0
POINT
  5
1ECD0
330
1DAB2
100
AcDbEntity
  8
DEFPOINTS
 62
     0
 48
50.0
100
AcDbPoint
 10
6827.657733986177
 20
5444.999999999991
 30
0.0
  0
POINT
  5
1ECD1
330
1DAB2
100
AcDbEntity
  8
DEFPOINTS
 62
     0
 48
50.0
100
AcDbPoint
 10
6582.16493184821
 20
5444.999999999991
 30
0.0
  0
ENDBLK
  5
1DABD
330
1DAB2
100
AcDbEntity
  8
0
 48
50.0
100
AcDbBlockEnd
  0
BLOCK
  5
1DAC9
330
1DABE
100
AcDbEntity
  8
0
 48
50.0
100
AcDbBlockBegin
  2
*D11
 70
     1
 10
0.0
 20
0.0
 30
0.0
  3
*D11
  1

  0
LINE
  5
1ECBD
330
1DABE
100
AcDbEntity
  8
寸法
 62
     0
 48
50.0
370
    -2
100
AcDbLine
 10
7303.599999999999
 20
6459.999999999991
 30
0.0
 11
6767.657733986178
 21
6459.999999999991
 31
0.0
  0
LINE
  5
1ECBE
330
1DABE
100
AcDbEntity
  8
寸法
 62
     0
 48
50.0
370
    -2
100
AcDbLine
 10
7376.599999999999
 20
6336.999999999991
 30
0.0
 11
6767.657733986178
 21
6336.999999999991
 31
0.0
  0
LINE
  5
1ECBF
330
1DABE
100
AcDbEntity
  8
寸法
 62
     0
 48
50.0
370
    -2
100
AcDbLine
 10
6827.657733986177
 20
6336.999999999991
 30
0.0
 11
6827.657733986177
 21
6459.999999999991
 31
0.0
  0
LINE
  5
1ECC0
330
1DABE
100
AcDbEntity
  8
寸法
 62
     0
 48
50.0
370
    -2
100
AcDbLine
 10
6827.657733986177
 20
6459.999999999991
 30
0.0
 11
6827.657733986177
 21
6836.970562748468
 31
0.0
  0
INSERT
  5
1ECC1
330
1DABE
100
AcDbEntity
  8
寸法
 62
     0
 48
50.0
370
    -2
100
AcDbBlockReference
  2
_DOTSMALL
 10
6827.657733986177
 20
6336.999999999991
 30
0.0
 41
100.0
 42
100.0
 43
100.0
 50
270.0
  0
INSERT
  5
1ECC2
330
1DABE
100
AcDbEntity
  8
寸法
 62
     0
 48
50.0
370
    -2
100
AcDbBlockReference
  2
_DOTSMALL
 10
6827.657733986177
 20
6459.999999999991
 30
0.0
 41
100.0
 42
100.0
 43
100.0
 50
90.0
  0
MTEXT
  5
1ECC3
330
1DABE
100
AcDbEntity
  8
寸法
 62
     7
 48
50.0
100
AcDbMText
 10
6727.645922962555
 20
6698.485281374231
 30
0.0
 40
120.0
 41
0.0
 71
     5
 72
     1
  1
\A1;123
  7
STYLE1
 11
0.0000000000000001
 21
1.0
 31
0.0
 73
     1
 44
1.0
1001
ACAD
1000
MTEXTBEGIN
1070
    73
1070
     1
1070
    44
1040
1.0
1070
    74
1070
     0
1000
MTEXTEND
  0
POINT
  5
1ECC4
330
1DABE
100
AcDbEntity
  8
DEFPOINTS
 62
     0
 48
50.0
100
AcDbPoint
 10
7323.599999999998
 20
6459.999999999991
 30
0.0
  0
POINT
  5
1ECC5
330
1DABE
100
AcDbEntity
  8
DEFPOINTS
 62
     0
 48
50.0
100
AcDbPoint
 10
7396.599999999999
 20
6336.999999999991
 30
0.0
  0
POINT
  5
1ECC6
330
1DABE
100
AcDbEntity
  8
DEFPOINTS
 62
     0
 48
50.0
100
AcDbPoint
 10
6827.657733986177
 20
6336.999999999991
 30
0.0
  0
ENDBLK
  5
1DACA
330
1DABE
100
AcDbEntity
  8
0
 48
50.0
100
AcDbBlockEnd
  0
BLOCK
  5
1DAD7
330
1DACB
100
AcDbEntity
  8
0
 48
50.0
100
AcDbBlockBegin
  2
*D12
 70
     1
 10
0.0
 20
0.0
 30
0.0
  3
*D12
  1

  0
LINE
  5
1ECB2
330
1DACB
100
AcDbEntity
  8
寸法
 62
     0
 48
50.0
370
    -2
100
AcDbLine
 10
6807.657733986179
 20
6534.999999999991
 30
0.0
 11
6522.164931848211
 21
6534.999999999991
 31
0.0
  0
LINE
  5
1ECB3
330
1DACB
100
AcDbEntity
  8
寸法
 62
     0
 48
50.0
370
    -2
100
AcDbLine
 10
7303.599999999999
 20
6459.999999999991
 30
0.0
 11
6522.164931848211
 21
6459.999999999991
 31
0.0
  0
LINE
  5
1ECB4
330
1DACB
100
AcDbEntity
  8
寸法
 62
     0
 48
50.0
370
    -2
100
AcDbLine
 10
6582.16493184821
 20
6534.999999999991
 30
0.0
 11
6582.16493184821
 21
6634.99999999999
 31
0.0
  0
LINE
  5
1ECB5
330
1DACB
100
AcDbEntity
  8
寸法
 62
     0
 48
50.0
370
    -2
100
AcDbLine
 10
6582.16493184821
 20
6459.999999999991
 30
0.0
 11
6582.16493184821
 21
6359.999999999991
 31
0.0
  0
LINE
  5
1ECB6
330
1DACB
100
AcDbEntity
  8
寸法
 62
     0
 48
50.0
370
    -2
100
AcDbLine
 10
6582.16493184821
 20
6534.999999999991
 30
0.0
 11
6582.16493184821
 21
6459.999999999991
 31
0.0
  0
INSERT
  5
1ECB7
330
1DACB
100
AcDbEntity
  8
寸法
 62
     0
 48
50.0
370
    -2
100
AcDbBlockReference
  2
_DOTSMALL
 10
6582.16493184821
 20
6534.999999999991
 30
0.0
 41
100.0
 42
100.0
 43
100.0
 50
270.0
  0
INSERT
  5
1ECB8
330
1DACB
100
AcDbEntity
  8
寸法
 62
     0
 48
50.0
370
    -2
100
AcDbBlockReference
  2
_DOTSMALL
 10
6582.16493184821
 20
6459.999999999991
 30
0.0
 41
100.0
 42
100.0
 43
100.0
 50
90.0
  0
MTEXT
  5
1ECB9
330
1DACB
100
AcDbEntity
  8
寸法
 62
     7
 48
50.0
100
AcDbMText
 10
6482.164931848209
 20
6497.499999999992
 30
0.0
 40
120.0
 41
0.0
 71
     5
 72
     1
  1
\A1;c
  7
STYLE1
 11
0.0000000000000001
 21
1.0
 31
0.0
 73
     1
 44
1.0
1001
ACAD
1000
MTEXTBEGIN
1070
    73
1070
     1
1070
    44
1040
1.0
1070
    74
1070
     0
1000
MTEXTEND
  0
POINT
  5
1ECBA
330
1DACB
100
AcDbEntity
  8
DEFPOINTS
 62
     0
 48
50.0
100
AcDbPoint
 10
6827.657733986177
 20
6534.999999999991
 30
0.0
  0
POINT
  5
1ECBB
330
1DACB
100
AcDbEntity
  8
DEFPOINTS
 62
     0
 48
50.0
100
AcDbPoint
 10
7323.599999999998
 20
6459.999999999991
 30
0.0
  0
POINT
  5
1ECBC
330
1DACB
100
AcDbEntity
  8
DEFPOINTS
 62
     0
 48
50.0
100
AcDbPoint
 10
6582.16493184821
 20
6459.999999999991
 30
0.0
  0
ENDBLK
  5
1DAD8
330
1DACB
100
AcDbEntity
  8
0
 48
50.0
100
AcDbBlockEnd
  0
BLOCK
  5
1DAE4
330
1DAD9
100
AcDbEntity
  8
0
 48
50.0
100
AcDbBlockBegin
  2
*D13
 70
     1
 10
0.0
 20
0.0
 30
0.0
  3
*D13
  1

  0
LINE
  5
1ECA8
330
1DAD9
100
AcDbEntity
  8
寸法
 62
     0
 48
50.0
370
    -2
100
AcDbLine
 10
9123.599999999999
 20
6479.999999999991
 30
0.0
 11
9123.599999999999
 21
7125.060610389922
 31
0.0
  0
LINE
  5
1ECA9
330
1DAD9
100
AcDbEntity
  8
寸法
 62
     0
 48
50.0
370
    -2
100
AcDbLine
 10
9000.599999999998
 20
6406.999999999991
 30
0.0
 11
9000.599999999998
 21
7125.060610389922
 31
0.0
  0
LINE
  5
1ECAA
330
1DAD9
100
AcDbEntity
  8
寸法
 62
     0
 48
50.0
370
    -2
100
AcDbLine
 10
9000.599999999998
 20
7065.06061038992
 30
0.0
 11
9123.599999999999
 21
7065.06061038992
 31
0.0
  0
LINE
  5
1ECAB
330
1DAD9
100
AcDbEntity
  8
寸法
 62
     0
 48
50.0
370
    -2
100
AcDbLine
 10
9123.599999999999
 20
7065.06061038992
 30
0.0
 11
9500.570562748475
 21
7065.06061038992
 31
0.0
  0
INSERT
  5
1ECAC
330
1DAD9
100
AcDbEntity
  8
寸法
 62
     0
 48
50.0
370
    -2
100
AcDbBlockReference
  2
_DOTSMALL
 10
9000.599999999998
 20
7065.06061038992
 30
0.0
 41
100.0
 42
100.0
 43
100.0
 50
180.0
  0
INSERT
  5
1ECAD
330
1DAD9
100
AcDbEntity
  8
寸法
 62
     0
 48
50.0
370
    -2
100
AcDbBlockReference
  2
_DOTSMALL
 10
9123.599999999999
 20
7065.06061038992
 30
0.0
 41
100.0
 42
100.0
 43
100.0
  0
MTEXT
  5
1ECAE
330
1DAD9
100
AcDbEntity
  8
寸法
 62
     7
 48
50.0
100
AcDbMText
 10
9362.085281374238
 20
7165.072421413542
 30
0.0
 40
120.0
 41
0.0
 71
     5
 72
     1
  1
\A1;123
  7
STYLE1
 73
     1
 44
1.0
1001
ACAD
1000
MTEXTBEGIN
1070
    73
1070
     1
1070
    44
1040
1.0
1070
    74
1070
     0
1000
MTEXTEND
  0
POINT
  5
1ECAF
330
1DAD9
100
AcDbEntity
  8
DEFPOINTS
 62
     0
 48
50.0
100
AcDbPoint
 10
9123.599999999999
 20
6459.999999999991
 30
0.0
  0
POINT
  5
1ECB0
330
1DAD9
100
AcDbEntity
  8
DEFPOINTS
 62
     0
 48
50.0
100
AcDbPoint
 10
9000.599999999998
 20
6386.999999999991
 30
0.0
  0
POINT
  5
1ECB1
330
1DAD9
100
AcDbEntity
  8
DEFPOINTS
 62
     0
 48
50.0
100
AcDbPoint
 10
9000.599999999998
 20
7065.06061038992
 30
0.0
  0
ENDBLK
  5
1DAE5
330
1DAD9
100
AcDbEntity
  8
0
 48
50.0
100
AcDbBlockEnd
  0
BLOCK
  5
1DAF1
330
1DAE6
100
AcDbEntity
  8
0
 48
50.0
100
AcDbBlockBegin
  2
*D14
 70
     1
 10
0.0
 20
0.0
 30
0.0
  3
*D14
  1

  0
LINE
  5
1EC9D
330
1DAE6
100
AcDbEntity
  8
寸法
 62
     0
 48
50.0
370
    -2
100
AcDbLine
 10
9123.599999999999
 20
6479.999999999991
 30
0.0
 11
9123.599999999999
 21
7337.521305906758
 31
0.0
  0
LINE
  5
1EC9E
330
1DAE6
100
AcDbEntity
  8
寸法
 62
     0
 48
50.0
370
    -2
100
AcDbLine
 10
9168.599999999999
 20
7085.060610389921
 30
0.0
 11
9168.599999999999
 21
7337.521305906758
 31
0.0
  0
LINE
  5
1EC9F
330
1DAE6
100
AcDbEntity
  8
寸法
 62
     0
 48
50.0
370
    -2
100
AcDbLine
 10
9123.599999999999
 20
7277.521305906758
 30
0.0
 11
9023.6
 21
7277.521305906758
 31
0.0
  0
LINE
  5
1ECA0
330
1DAE6
100
AcDbEntity
  8
寸法
 62
     0
 48
50.0
370
    -2
100
AcDbLine
 10
9168.599999999999
 20
7277.521305906758
 30
0.0
 11
9268.599999999999
 21
7277.521305906758
 31
0.0
  0
LINE
  5
1ECA1
330
1DAE6
100
AcDbEntity
  8
寸法
 62
     0
 48
50.0
370
    -2
100
AcDbLine
 10
9123.599999999999
 20
7277.521305906758
 30
0.0
 11
9168.599999999999
 21
7277.521305906758
 31
0.0
  0
INSERT
  5
1ECA2
330
1DAE6
100
AcDbEntity
  8
寸法
 62
     0
 48
50.0
370
    -2
100
AcDbBlockReference
  2
_DOTSMALL
 10
9123.599999999999
 20
7277.521305906758
 30
0.0
 41
100.0
 42
100.0
 43
100.0
  0
INSERT
  5
1ECA3
330
1DAE6
100
AcDbEntity
  8
寸法
 62
     0
 48
50.0
370
    -2
100
AcDbBlockReference
  2
_DOTSMALL
 10
9168.599999999999
 20
7277.521305906758
 30
0.0
 41
100.0
 42
100.0
 43
100.0
 50
180.0
  0
MTEXT
  5
1ECA4
330
1DAE6
100
AcDbEntity
  8
寸法
 62
     7
 48
50.0
100
AcDbMText
 10
9146.099999999998
 20
7377.521305906758
 30
0.0
 40
120.0
 41
0.0
 71
     5
 72
     1
  1
\A1;a
  7
STYLE1
 73
     1
 44
1.0
1001
ACAD
1000
MTEXTBEGIN
1070
    73
1070
     1
1070
    44
1040
1.0
1070
    74
1070
     0
1000
MTEXTEND
  0
POINT
  5
1ECA5
330
1DAE6
100
AcDbEntity
  8
DEFPOINTS
 62
     0
 48
50.0
100
AcDbPoint
 10
9123.599999999999
 20
6459.999999999991
 30
0.0
  0
POINT
  5
1ECA6
330
1DAE6
100
AcDbEntity
  8
DEFPOINTS
 62
     0
 48
50.0
100
AcDbPoint
 10
9168.599999999999
 20
7065.06061038992
 30
0.0
  0
POINT
  5
1ECA7
330
1DAE6
100
AcDbEntity
  8
DEFPOINTS
 62
     0
 48
50.0
100
AcDbPoint
 10
9168.599999999999
 20
7277.521305906758
 30
0.0
  0
ENDBLK
  5
1DAF2
330
1DAE6
100
AcDbEntity
  8
0
 48
50.0
100
AcDbBlockEnd
  0
BLOCK
  5
1DAFE
330
1DAF3
100
AcDbEntity
  8
0
 48
50.0
100
AcDbBlockBegin
  2
*D15
 70
     1
 10
0.0
 20
0.0
 30
0.0
  3
*D15
  1

  0
LINE
  5
1EC93
330
1DAF3
100
AcDbEntity
  8
寸法
 62
     0
 48
50.0
370
    -2
100
AcDbLine
 10
9123.599999999999
 20
5960.0
 30
0.0
 11
9123.599999999999
 21
5861.503367980584
 31
0.0
  0
LINE
  5
1EC94
330
1DAF3
100
AcDbEntity
  8
寸法
 62
     0
 48
50.0
370
    -2
100
AcDbLine
 10
9003.599999999998
 20
5970.617236035864
 30
0.0
 11
9003.599999999998
 21
5861.503367980584
 31
0.0
  0
LINE
  5
1EC95
330
1DAF3
100
AcDbEntity
  8
寸法
 62
     0
 48
50.0
370
    -2
100
AcDbLine
 10
9003.599999999998
 20
5921.503367980584
 30
0.0
 11
9123.599999999999
 21
5921.503367980584
 31
0.0
  0
LINE
  5
1EC96
330
1DAF3
100
AcDbEntity
  8
寸法
 62
     0
 48
50.0
370
    -2
100
AcDbLine
 10
9123.599999999999
 20
5921.503367980584
 30
0.0
 11
9495.694488188975
 21
5921.503367980584
 31
0.0
  0
INSERT
  5
1EC97
330
1DAF3
100
AcDbEntity
  8
寸法
 62
     0
 48
50.0
370
    -2
100
AcDbBlockReference
  2
_DOTSMALL
 10
9003.599999999998
 20
5921.503367980584
 30
0.0
 41
100.0
 42
100.0
 43
100.0
 50
180.0
  0
INSERT
  5
1EC98
330
1DAF3
100
AcDbEntity
  8
寸法
 62
     0
 48
50.0
370
    -2
100
AcDbBlockReference
  2
_DOTSMALL
 10
9123.599999999999
 20
5921.503367980584
 30
0.0
 41
100.0
 42
100.0
 43
100.0
  0
MTEXT
  5
1EC99
330
1DAF3
100
AcDbEntity
  8
寸法
 62
     7
 48
50.0
100
AcDbMText
 10
9359.647244094487
 20
6021.515179004206
 30
0.0
 40
120.0
 41
0.0
 71
     5
 72
     1
  1
\A1;120
  7
STYLE1
 73
     1
 44
1.0
1001
ACAD
1000
MTEXTBEGIN
1070
    73
1070
     1
1070
    44
1040
1.0
1070
    74
1070
     0
1000
MTEXTEND
  0
POINT
  5
1EC9A
330
1DAF3
100
AcDbEntity
  8
DEFPOINTS
 62
     0
 48
50.0
100
AcDbPoint
 10
9123.599999999999
 20
5980.0
 30
0.0
  0
POINT
  5
1EC9B
330
1DAF3
100
AcDbEntity
  8
DEFPOINTS
 62
     0
 48
50.0
100
AcDbPoint
 10
9003.599999999998
 20
5990.617236035864
 30
0.0
  0
POINT
  5
1EC9C
330
1DAF3
100
AcDbEntity
  8
DEFPOINTS
 62
     0
 48
50.0
100
AcDbPoint
 10
9003.599999999998
 20
5921.503367980584
 30
0.0
  0
ENDBLK
  5
1DAFF
330
1DAF3
100
AcDbEntity
  8
0
 48
50.0
100
AcDbBlockEnd
  0
BLOCK
  5
1DB0B
330
1DB00
100
AcDbEntity
  8
0
 48
50.0
100
AcDbBlockBegin
  2
*D16
 70
     1
 10
0.0
 20
0.0
 30
0.0
  3
*D16
  1

  0
LINE
  5
1EC89
330
1DB00
100
AcDbEntity
  8
寸法
 62
     0
 48
50.0
370
    -2
100
AcDbLine
 10
8243.599999999998
 20
6339.99999999999
 30
0.0
 11
8343.101130051229
 21
6339.99999999999
 31
0.0
  0
LINE
  5
1EC8A
330
1DB00
100
AcDbEntity
  8
寸法
 62
     0
 48
50.0
370
    -2
100
AcDbLine
 10
8873.599999999999
 20
6229.999999999989
 30
0.0
 11
8223.101130051228
 21
6229.999999999989
 31
0.0
  0
LINE
  5
1EC8B
330
1DB00
100
AcDbEntity
  8
寸法
 62
     0
 48
50.0
370
    -2
100
AcDbLine
 10
8283.101130051226
 20
6339.99999999999
 30
0.0
 11
8283.101130051226
 21
6229.999999999989
 31
0.0
  0
LINE
  5
1EC8C
330
1DB00
100
AcDbEntity
  8
寸法
 62
     0
 48
50.0
370
    -2
100
AcDbLine
 10
8283.101130051226
 20
6229.999999999989
 30
0.0
 11
8283.101130051226
 21
5869.905511811013
 31
0.0
  0
INSERT
  5
1EC8D
330
1DB00
100
AcDbEntity
  8
寸法
 62
     0
 48
50.0
370
    -2
100
AcDbBlockReference
  2
_DOTSMALL
 10
8283.101130051226
 20
6339.99999999999
 30
0.0
 41
100.0
 42
100.0
 43
100.0
 50
90.0
  0
INSERT
  5
1EC8E
330
1DB00
100
AcDbEntity
  8
寸法
 62
     0
 48
50.0
370
    -2
100
AcDbBlockReference
  2
_DOTSMALL
 10
8283.101130051226
 20
6229.999999999989
 30
0.0
 41
100.0
 42
100.0
 43
100.0
 50
270.0
  0
MTEXT
  5
1EC8F
330
1DB00
100
AcDbEntity
  8
寸法
 62
     7
 48
50.0
100
AcDbMText
 10
8183.101130051225
 20
5993.952755905501
 30
0.0
 40
120.0
 41
0.0
 71
     5
 72
     1
  1
\A1;110
  7
STYLE1
 11
0.0000000000000001
 21
1.0
 31
0.0
 73
     1
 44
1.0
1001
ACAD
1000
MTEXTBEGIN
1070
    73
1070
     1
1070
    44
1040
1.0
1070
    74
1070
     0
1000
MTEXTEND
  0
POINT
  5
1EC90
330
1DB00
100
AcDbEntity
  8
DEFPOINTS
 62
     0
 48
50.0
100
AcDbPoint
 10
8223.599999999999
 20
6339.99999999999
 30
0.0
  0
POINT
  5
1EC91
330
1DB00
100
AcDbEntity
  8
DEFPOINTS
 62
     0
 48
50.0
100
AcDbPoint
 10
8893.599999999999
 20
6229.999999999989
 30
0.0
  0
POINT
  5
1EC92
330
1DB00
100
AcDbEntity
  8
DEFPOINTS
 62
     0
 48
50.0
100
AcDbPoint
 10
8283.101130051226
 20
6229.999999999989
 30
0.0
  0
ENDBLK
  5
1DB0C
330
1DB00
100
AcDbEntity
  8
0
 48
50.0
100
AcDbBlockEnd
  0
BLOCK
  5
1DB18
330
1DB0D
100
AcDbEntity
  8
0
 48
50.0
100
AcDbBlockBegin
  2
*D17
 70
     1
 10
0.0
 20
0.0
 30
0.0
  3
*D17
  1

  0
LINE
  5
1EC7F
330
1DB0D
100
AcDbEntity
  8
寸法
 62
     0
 48
50.0
370
    -2
100
AcDbLine
 10
9003.599999999998
 20
5970.617236035864
 30
0.0
 11
9003.599999999998
 21
5861.503367980584
 31
0.0
  0
LINE
  5
1EC80
330
1DB0D
100
AcDbEntity
  8
寸法
 62
     0
 48
50.0
370
    -2
100
AcDbLine
 10
8893.599999999999
 20
6209.99999999999
 30
0.0
 11
8893.599999999999
 21
5861.503367980584
 31
0.0
  0
LINE
  5
1EC81
330
1DB0D
100
AcDbEntity
  8
寸法
 62
     0
 48
50.0
370
    -2
100
AcDbLine
 10
9003.599999999998
 20
5921.503367980584
 30
0.0
 11
8893.599999999999
 21
5921.503367980584
 31
0.0
  0
LINE
  5
1EC82
330
1DB0D
100
AcDbEntity
  8
寸法
 62
     0
 48
50.0
370
    -2
100
AcDbLine
 10
8893.599999999999
 20
5921.503367980584
 30
0.0
 11
8533.505511811021
 21
5921.503367980584
 31
0.0
  0
INSERT
  5
1EC83
330
1DB0D
100
AcDbEntity
  8
寸法
 62
     0
 48
50.0
370
    -2
100
AcDbBlockReference
  2
_DOTSMALL
 10
9003.599999999998
 20
5921.503367980584
 30
0.0
 41
100.0
 42
100.0
 43
100.0
  0
INSERT
  5
1EC84
330
1DB0D
100
AcDbEntity
  8
寸法
 62
     0
 48
50.0
370
    -2
100
AcDbBlockReference
  2
_DOTSMALL
 10
8893.599999999999
 20
5921.503367980584
 30
0.0
 41
100.0
 42
100.0
 43
100.0
 50
180.0
  0
MTEXT
  5
1EC85
330
1DB0D
100
AcDbEntity
  8
寸法
 62
     7
 48
50.0
100
AcDbMText
 10
8657.552755905511
 20
6021.503367980584
 30
0.0
 40
120.0
 41
0.0
 71
     5
 72
     1
  1
\A1;110
  7
STYLE1
 73
     1
 44
1.0
1001
ACAD
1000
MTEXTBEGIN
1070
    73
1070
     1
1070
    44
1040
1.0
1070
    74
1070
     0
1000
MTEXTEND
  0
POINT
  5
1EC86
330
1DB0D
100
AcDbEntity
  8
DEFPOINTS
 62
     0
 48
50.0
100
AcDbPoint
 10
9003.599999999998
 20
5990.617236035864
 30
0.0
  0
POINT
  5
1EC87
330
1DB0D
100
AcDbEntity
  8
DEFPOINTS
 62
     0
 48
50.0
100
AcDbPoint
 10
8893.599999999999
 20
6229.999999999989
 30
0.0
  0
POINT
  5
1EC88
330
1DB0D
100
AcDbEntity
  8
DEFPOINTS
 62
     0
 48
50.0
100
AcDbPoint
 10
8893.599999999999
 20
5921.503367980584
 30
0.0
  0
ENDBLK
  5
1DB19
330
1DB0D
100
AcDbEntity
  8
0
 48
50.0
100
AcDbBlockEnd
  0
BLOCK
  5
1DB25
330
1DB1A
100
AcDbEntity
  8
0
 48
50.0
100
AcDbBlockBegin
  2
*D18
 70
     1
 10
0.0
 20
0.0
 30
0.0
  3
*D18
  1

  0
LINE
  5
1EC75
330
1DB1A
100
AcDbEntity
  8
寸法
 62
     0
 48
50.0
370
    -2
100
AcDbLine
 10
8243.599999999998
 20
6459.999999999991
 30
0.0
 11
8343.101130051229
 21
6459.999999999991
 31
0.0
  0
LINE
  5
1EC76
330
1DB1A
100
AcDbEntity
  8
寸法
 62
     0
 48
50.0
370
    -2
100
AcDbLine
 10
8243.599999999998
 20
6339.99999999999
 30
0.0
 11
8343.101130051229
 21
6339.99999999999
 31
0.0
  0
LINE
  5
1EC77
330
1DB1A
100
AcDbEntity
  8
寸法
 62
     0
 48
50.0
370
    -2
100
AcDbLine
 10
8283.101130051226
 20
6339.99999999999
 30
0.0
 11
8283.101130051226
 21
6459.999999999991
 31
0.0
  0
LINE
  5
1EC78
330
1DB1A
100
AcDbEntity
  8
寸法
 62
     0
 48
50.0
370
    -2
100
AcDbLine
 10
8283.101130051226
 20
6459.999999999991
 30
0.0
 11
8283.101130051226
 21
6832.094488188968
 31
0.0
  0
INSERT
  5
1EC79
330
1DB1A
100
AcDbEntity
  8
寸法
 62
     0
 48
50.0
370
    -2
100
AcDbBlockReference
  2
_DOTSMALL
 10
8283.101130051226
 20
6339.99999999999
 30
0.0
 41
100.0
 42
100.0
 43
100.0
 50
270.0
  0
INSERT
  5
1EC7A
330
1DB1A
100
AcDbEntity
  8
寸法
 62
     0
 48
50.0
370
    -2
100
AcDbBlockReference
  2
_DOTSMALL
 10
8283.101130051226
 20
6459.999999999991
 30
0.0
 41
100.0
 42
100.0
 43
100.0
 50
90.0
  0
MTEXT
  5
1EC7B
330
1DB1A
100
AcDbEntity
  8
寸法
 62
     7
 48
50.0
100
AcDbMText
 10
8183.089319027605
 20
6696.047244094481
 30
0.0
 40
120.0
 41
0.0
 71
     5
 72
     1
  1
\A1;120
  7
STYLE1
 11
0.0000000000000001
 21
1.0
 31
0.0
 73
     1
 44
1.0
1001
ACAD
1000
MTEXTBEGIN
1070
    73
1070
     1
1070
    44
1040
1.0
1070
    74
1070
     0
1000
MTEXTEND
  0
POINT
  5
1EC7C
330
1DB1A
100
AcDbEntity
  8
DEFPOINTS
 62
     0
 48
50.0
100
AcDbPoint
 10
8223.599999999999
 20
6459.999999999991
 30
0.0
  0
POINT
  5
1EC7D
330
1DB1A
100
AcDbEntity
  8
DEFPOINTS
 62
     0
 48
50.0
100
AcDbPoint
 10
8223.599999999999
 20
6339.99999999999
 30
0.0
  0
POINT
  5
1EC7E
330
1DB1A
100
AcDbEntity
  8
DEFPOINTS
 62
     0
 48
50.0
100
AcDbPoint
 10
8283.101130051226
 20
6339.99999999999
 30
0.0
  0
ENDBLK
  5
1DB26
330
1DB1A
100
AcDbEntity
  8
0
 48
50.0
100
AcDbBlockEnd
  0
BLOCK
  5
1EB14
330
1EB0B
100
AcDbEntity
  8
0
 48
50.0
100
AcDbBlockBegin
  2
*D19
 70
     1
 10
0.0
 20
0.0
 30
0.0
  3
*D19
  1

  0
LINE
  5
1EC6C
330
1EB0B
100
AcDbEntity
  8
寸法
 62
     0
 48
50.0
370
    -2
100
AcDbLine
 10
8931.097966202234
 20
2247.535585818539
 30
0.0
 11
9472.966565971077
 21
2247.535585818539
 31
0.0
  0
LINE
  5
1EC6D
330
1EB0B
100
AcDbEntity
  8
寸法
 62
     0
 48
50.0
370
    -2
100
AcDbLine
 10
8931.097966202234
 20
1923.535585818538
 30
0.0
 11
9472.966565971077
 21
1923.535585818538
 31
0.0
  0
LINE
  5
1EC6E
330
1EB0B
100
AcDbEntity
  8
寸法
 62
     0
 48
50.0
370
    -2
100
AcDbLine
 10
9412.966565971077
 20
2247.535585818539
 30
0.0
 11
9412.966565971077
 21
1923.535585818538
 31
0.0
  0
INSERT
  5
1EC6F
330
1EB0B
100
AcDbEntity
  8
寸法
 62
     0
 48
50.0
370
    -2
100
AcDbBlockReference
  2
_DOTSMALL
 10
9412.966565971077
 20
2247.535585818539
 30
0.0
 41
100.0
 42
100.0
 43
100.0
 50
90.0
  0
INSERT
  5
1EC70
330
1EB0B
100
AcDbEntity
  8
寸法
 62
     0
 48
50.0
370
    -2
100
AcDbBlockReference
  2
_DOTSMALL
 10
9412.966565971077
 20
1923.535585818538
 30
0.0
 41
100.0
 42
100.0
 43
100.0
 50
270.0
  0
MTEXT
  5
1EC71
330
1EB0B
100
AcDbEntity
  8
寸法
 62
     7
 48
50.0
100
AcDbMText
 10
9312.966565971077
 20
2085.53558581854
 30
0.0
 40
120.0
 41
0.0
 71
     5
 72
     1
  1
\A1;180
  7
STYLE1
 11
0.0000000000000001
 21
1.0
 31
0.0
 73
     1
 44
1.0
1001
ACAD
1000
MTEXTBEGIN
1070
    73
1070
     1
1070
    44
1040
1.0
1070
    74
1070
     0
1000
MTEXTEND
  0
POINT
  5
1EC72
330
1EB0B
100
AcDbEntity
  8
DEFPOINTS
 62
     0
 48
50.0
100
AcDbPoint
 10
8911.097966202232
 20
2247.535585818539
 30
0.0
  0
POINT
  5
1EC73
330
1EB0B
100
AcDbEntity
  8
DEFPOINTS
 62
     0
 48
50.0
100
AcDbPoint
 10
8911.097966202232
 20
1923.535585818538
 30
0.0
  0
POINT
  5
1EC74
330
1EB0B
100
AcDbEntity
  8
DEFPOINTS
 62
     0
 48
50.0
100
AcDbPoint
 10
9412.966565971077
 20
1923.535585818538
 30
0.0
  0
ENDBLK
  5
1EB15
330
1EB0B
100
AcDbEntity
  8
0
 48
50.0
100
AcDbBlockEnd
  0
BLOCK
  5
1EB22
330
1EB16
100
AcDbEntity
  8
0
 48
50.0
100
AcDbBlockBegin
  2
*D20
 70
     1
 10
0.0
 20
0.0
 30
0.0
  3
*D20
  1

  0
LINE
  5
1EC61
330
1EB16
100
AcDbEntity
  8
寸法
 62
     0
 48
50.0
370
    -2
100
AcDbLine
 10
8743.897966202233
 20
2300.29558581854
 30
0.0
 11
9749.021232090106
 21
2300.29558581854
 31
0.0
  0
LINE
  5
1EC62
330
1EB16
100
AcDbEntity
  8
寸法
 62
     0
 48
50.0
370
    -2
100
AcDbLine
 10
8931.097966202234
 20
2247.535585818539
 30
0.0
 11
9749.021232090106
 21
2247.535585818539
 31
0.0
  0
LINE
  5
1EC63
330
1EB16
100
AcDbEntity
  8
寸法
 62
     0
 48
50.0
370
    -2
100
AcDbLine
 10
9689.021232090105
 20
2300.29558581854
 30
0.0
 11
9689.021232090105
 21
2400.29558581854
 31
0.0
  0
LINE
  5
1EC64
330
1EB16
100
AcDbEntity
  8
寸法
 62
     0
 48
50.0
370
    -2
100
AcDbLine
 10
9689.021232090105
 20
2247.535585818539
 30
0.0
 11
9689.021232090105
 21
1515.517778975574
 31
0.0
  0
LINE
  5
1EC65
330
1EB16
100
AcDbEntity
  8
寸法
 62
     0
 48
50.0
370
    -2
100
AcDbLine
 10
9689.021232090105
 20
2300.29558581854
 30
0.0
 11
9689.021232090105
 21
2247.535585818539
 31
0.0
  0
INSERT
  5
1EC66
330
1EB16
100
AcDbEntity
  8
寸法
 62
     0
 48
50.0
370
    -2
100
AcDbBlockReference
  2
_DOTSMALL
 10
9689.021232090105
 20
2300.29558581854
 30
0.0
 41
100.0
 42
100.0
 43
100.0
 50
270.0
  0
INSERT
  5
1EC67
330
1EB16
100
AcDbEntity
  8
寸法
 62
     0
 48
50.0
370
    -2
100
AcDbBlockReference
  2
_DOTSMALL
 10
9689.021232090105
 20
2247.535585818539
 30
0.0
 41
100.0
 42
100.0
 43
100.0
 50
90.0
  0
MTEXT
  5
1EC68
330
1EB16
100
AcDbEntity
  8
寸法
 62
     7
 48
50.0
100
AcDbMText
 10
9589.009421066483
 20
1781.526682397058
 30
0.0
 40
120.0
 41
0.0
 71
     5
 72
     1
  1
\A1;20～25
  7
STYLE1
 11
0.0000000000000001
 21
1.0
 31
0.0
 73
     1
 44
1.0
1001
ACAD
1000
MTEXTBEGIN
1070
    73
1070
     1
1070
    44
1040
1.0
1070
    74
1070
     0
1000
MTEXTEND
  0
POINT
  5
1EC69
330
1EB16
100
AcDbEntity
  8
DEFPOINTS
 62
     0
 48
50.0
100
AcDbPoint
 10
8723.897966202235
 20
2300.29558581854
 30
0.0
  0
POINT
  5
1EC6A
330
1EB16
100
AcDbEntity
  8
DEFPOINTS
 62
     0
 48
50.0
100
AcDbPoint
 10
8911.097966202232
 20
2247.535585818539
 30
0.0
  0
POINT
  5
1EC6B
330
1EB16
100
AcDbEntity
  8
DEFPOINTS
 62
     0
 48
50.0
100
AcDbPoint
 10
9689.021232090105
 20
2247.535585818539
 30
0.0
  0
ENDBLK
  5
1EB23
330
1EB16
100
AcDbEntity
  8
0
 48
50.0
100
AcDbBlockEnd
  0
BLOCK
  5
1EB2E
330
1EB24
100
AcDbEntity
  8
0
 48
50.0
100
AcDbBlockBegin
  2
*D21
 70
     1
 10
0.0
 20
0.0
 30
0.0
  3
*D21
  1

  0
LINE
  5
1EC58
330
1EB24
100
AcDbEntity
  8
寸法
 62
     0
 48
50.0
370
    -2
100
AcDbLine
 10
6649.05865302504
 20
1703.53558581854
 30
0.0
 11
6466.638339292579
 21
1703.53558581854
 31
0.0
  0
LINE
  5
1EC59
330
1EB24
100
AcDbEntity
  8
寸法
 62
     0
 48
50.0
370
    -2
100
AcDbLine
 10
6569.058653025042
 20
1463.535585818539
 30
0.0
 11
6466.638339292579
 21
1463.535585818539
 31
0.0
  0
LINE
  5
1EC5A
330
1EB24
100
AcDbEntity
  8
寸法
 62
     0
 48
50.0
370
    -2
100
AcDbLine
 10
6526.63833929258
 20
1703.53558581854
 30
0.0
 11
6526.63833929258
 21
1463.535585818539
 31
0.0
  0
INSERT
  5
1EC5B
330
1EB24
100
AcDbEntity
  8
寸法
 62
     0
 48
50.0
370
    -2
100
AcDbBlockReference
  2
_DOTSMALL
 10
6526.63833929258
 20
1703.53558581854
 30
0.0
 41
100.0
 42
100.0
 43
100.0
 50
90.0
  0
INSERT
  5
1EC5C
330
1EB24
100
AcDbEntity
  8
寸法
 62
     0
 48
50.0
370
    -2
100
AcDbBlockReference
  2
_DOTSMALL
 10
6526.63833929258
 20
1463.535585818539
 30
0.0
 41
100.0
 42
100.0
 43
100.0
 50
270.0
  0
MTEXT
  5
1EC5D
330
1EB24
100
AcDbEntity
  8
寸法
 62
     7
 48
50.0
100
AcDbMText
 10
6426.63833929258
 20
1583.53558581854
 30
0.0
 40
120.0
 41
0.0
 71
     5
 72
     1
  1
\A1;150
  7
STYLE1
 11
0.0000000000000001
 21
1.0
 31
0.0
 73
     1
 44
1.0
1001
ACAD
1000
MTEXTBEGIN
1070
    73
1070
     1
1070
    44
1040
1.0
1070
    74
1070
     0
1000
MTEXTEND
  0
POINT
  5
1EC5E
330
1EB24
100
AcDbEntity
  8
DEFPOINTS
 62
     0
 48
50.0
100
AcDbPoint
 10
6669.058653025039
 20
1703.535585818539
 30
0.0
  0
POINT
  5
1EC5F
330
1EB24
100
AcDbEntity
  8
DEFPOINTS
 62
     0
 48
50.0
100
AcDbPoint
 10
6589.058653025043
 20
1463.535585818539
 30
0.0
  0
POINT
  5
1EC60
330
1EB24
100
AcDbEntity
  8
DEFPOINTS
 62
     0
 48
50.0
100
AcDbPoint
 10
6526.63833929258
 20
1463.535585818539
 30
0.0
  0
ENDBLK
  5
1EB2F
330
1EB24
100
AcDbEntity
  8
0
 48
50.0
100
AcDbBlockEnd
  0
BLOCK
  5
1EB3A
330
1EB30
100
AcDbEntity
  8
0
 48
50.0
100
AcDbBlockBegin
  2
*D22
 70
     1
 10
0.0
 20
0.0
 30
0.0
  3
*D22
  1

  0
LINE
  5
1EC4F
330
1EB30
100
AcDbEntity
  8
寸法
 62
     0
 48
50.0
370
    -2
100
AcDbLine
 10
6777.05865302504
 20
2247.535585818539
 30
0.0
 11
6002.0214144633
 21
2247.535585818539
 31
0.0
  0
LINE
  5
1EC50
330
1EB30
100
AcDbEntity
  8
寸法
 62
     0
 48
50.0
370
    -2
100
AcDbLine
 10
6569.058653025042
 20
1463.535585818539
 30
0.0
 11
6002.0214144633
 21
1463.535585818539
 31
0.0
  0
LINE
  5
1EC51
330
1EB30
100
AcDbEntity
  8
寸法
 62
     0
 48
50.0
370
    -2
100
AcDbLine
 10
6062.0214144633
 20
2247.535585818539
 30
0.0
 11
6062.021414463299
 21
1463.535585818539
 31
0.0
  0
INSERT
  5
1EC52
330
1EB30
100
AcDbEntity
  8
寸法
 62
     0
 48
50.0
370
    -2
100
AcDbBlockReference
  2
_DOTSMALL
 10
6062.0214144633
 20
2247.535585818539
 30
0.0
 41
100.0
 42
100.0
 43
100.0
 50
90.0
  0
INSERT
  5
1EC53
330
1EB30
100
AcDbEntity
  8
寸法
 62
     0
 48
50.0
370
    -2
100
AcDbBlockReference
  2
_DOTSMALL
 10
6062.021414463299
 20
1463.535585818539
 30
0.0
 41
100.0
 42
100.0
 43
100.0
 50
270.0
  0
MTEXT
  5
1EC54
330
1EB30
100
AcDbEntity
  8
寸法
 62
     7
 48
50.0
100
AcDbMText
 10
5962.0214144633
 20
1835.07573547454
 30
0.0
 40
120.0
 41
0.0
 71
     5
 72
     1
  1
\A1;540
  7
STYLE1
 11
0.0000000000000001
 21
1.0
 31
0.0
 73
     1
 44
1.0
1001
ACAD
1000
MTEXTBEGIN
1070
    73
1070
     1
1070
    44
1040
1.0
1070
    74
1070
     0
1000
MTEXTEND
  0
POINT
  5
1EC55
330
1EB30
100
AcDbEntity
  8
DEFPOINTS
 62
     0
 48
50.0
100
AcDbPoint
 10
6797.05865302504
 20
2247.535585818539
 30
0.0
  0
POINT
  5
1EC56
330
1EB30
100
AcDbEntity
  8
DEFPOINTS
 62
     0
 48
50.0
100
AcDbPoint
 10
6589.058653025043
 20
1463.535585818539
 30
0.0
  0
POINT
  5
1EC57
330
1EB30
100
AcDbEntity
  8
DEFPOINTS
 62
     0
 48
50.0
100
AcDbPoint
 10
6062.021414463299
 20
1463.535585818539
 30
0.0
  0
ENDBLK
  5
1EB3B
330
1EB30
100
AcDbEntity
  8
0
 48
50.0
100
AcDbBlockEnd
  0
BLOCK
  5
1EB46
330
1EB3C
100
AcDbEntity
  8
0
 48
50.0
100
AcDbBlockBegin
  2
*D23
 70
     1
 10
0.0
 20
0.0
 30
0.0
  3
*D23
  1

  0
LINE
  5
1EC46
330
1EB3C
100
AcDbEntity
  8
寸法
 62
     0
 48
50.0
370
    -2
100
AcDbLine
 10
6669.058653025039
 20
1315.535585818539
 30
0.0
 11
6669.058653025039
 21
865.1059478133793
 31
0.0
  0
LINE
  5
1EC47
330
1EB3C
100
AcDbEntity
  8
寸法
 62
     0
 48
50.0
370
    -2
100
AcDbLine
 10
7117.058653025039
 20
1315.535585818539
 30
0.0
 11
7117.058653025039
 21
865.1059478133793
 31
0.0
  0
LINE
  5
1EC48
330
1EB3C
100
AcDbEntity
  8
寸法
 62
     0
 48
50.0
370
    -2
100
AcDbLine
 10
6669.058653025039
 20
925.1059478133793
 30
0.0
 11
7117.058653025039
 21
925.1059478133793
 31
0.0
  0
INSERT
  5
1EC49
330
1EB3C
100
AcDbEntity
  8
寸法
 62
     0
 48
50.0
370
    -2
100
AcDbBlockReference
  2
_DOTSMALL
 10
6669.058653025039
 20
925.1059478133793
 30
0.0
 41
100.0
 42
100.0
 43
100.0
 50
180.0
  0
INSERT
  5
1EC4A
330
1EB3C
100
AcDbEntity
  8
寸法
 62
     0
 48
50.0
370
    -2
100
AcDbBlockReference
  2
_DOTSMALL
 10
7117.058653025039
 20
925.1059478133793
 30
0.0
 41
100.0
 42
100.0
 43
100.0
  0
MTEXT
  5
1EC4B
330
1EB3C
100
AcDbEntity
  8
寸法
 62
     7
 48
50.0
100
AcDbMText
 10
6872.961894346815
 20
1025.105947813379
 30
0.0
 40
120.0
 41
0.0
 71
     5
 72
     1
  1
\A1;300
  7
STYLE1
 73
     1
 44
1.0
1001
ACAD
1000
MTEXTBEGIN
1070
    73
1070
     1
1070
    44
1040
1.0
1070
    74
1070
     0
1000
MTEXTEND
  0
POINT
  5
1EC4C
330
1EB3C
100
AcDbEntity
  8
DEFPOINTS
 62
     0
 48
50.0
100
AcDbPoint
 10
6669.058653025039
 20
1335.535585818539
 30
0.0
  0
POINT
  5
1EC4D
330
1EB3C
100
AcDbEntity
  8
DEFPOINTS
 62
     0
 48
50.0
100
AcDbPoint
 10
7117.058653025039
 20
1335.535585818539
 30
0.0
  0
POINT
  5
1EC4E
330
1EB3C
100
AcDbEntity
  8
DEFPOINTS
 62
     0
 48
50.0
100
AcDbPoint
 10
7117.058653025039
 20
925.1059478133793
 30
0.0
  0
ENDBLK
  5
1EB47
330
1EB3C
100
AcDbEntity
  8
0
 48
50.0
100
AcDbBlockEnd
  0
BLOCK
  5
1EB52
330
1EB48
100
AcDbEntity
  8
0
 48
50.0
100
AcDbBlockBegin
  2
*D24
 70
     1
 10
0.0
 20
0.0
 30
0.0
  3
*D24
  1

  0
LINE
  5
1EC3D
330
1EB48
100
AcDbEntity
  8
寸法
 62
     0
 48
50.0
370
    -2
100
AcDbLine
 10
6989.058653025039
 20
2267.535585818539
 30
0.0
 11
6989.058653025039
 21
2727.20339373492
 31
0.0
  0
LINE
  5
1EC3E
330
1EB48
100
AcDbEntity
  8
寸法
 62
     0
 48
50.0
370
    -2
100
AcDbLine
 10
6797.05865302504
 20
2267.535585818539
 30
0.0
 11
6797.05865302504
 21
2727.20339373492
 31
0.0
  0
LINE
  5
1EC3F
330
1EB48
100
AcDbEntity
  8
寸法
 62
     0
 48
50.0
370
    -2
100
AcDbLine
 10
6989.058653025039
 20
2667.20339373492
 30
0.0
 11
6797.05865302504
 21
2667.20339373492
 31
0.0
  0
INSERT
  5
1EC40
330
1EB48
100
AcDbEntity
  8
寸法
 62
     0
 48
50.0
370
    -2
100
AcDbBlockReference
  2
_DOTSMALL
 10
6989.058653025039
 20
2667.20339373492
 30
0.0
 41
100.0
 42
100.0
 43
100.0
  0
INSERT
  5
1EC41
330
1EB48
100
AcDbEntity
  8
寸法
 62
     0
 48
50.0
370
    -2
100
AcDbBlockReference
  2
_DOTSMALL
 10
6797.05865302504
 20
2667.20339373492
 30
0.0
 41
100.0
 42
100.0
 43
100.0
 50
180.0
  0
MTEXT
  5
1EC42
330
1EB48
100
AcDbEntity
  8
寸法
 62
     7
 48
50.0
100
AcDbMText
 10
6893.05865302504
 20
2867.215204758542
 30
0.0
 40
120.0
 41
0.0
 71
     5
 72
     1
  1
\A1;120\P170
  7
STYLE1
 73
     1
 44
1.0
1001
ACAD
1000
MTEXTBEGIN
1070
    73
1070
     1
1070
    44
1040
1.0
1070
    74
1070
     0
1000
MTEXTEND
  0
POINT
  5
1EC43
330
1EB48
100
AcDbEntity
  8
DEFPOINTS
 62
     0
 48
50.0
100
AcDbPoint
 10
6989.058653025039
 20
2247.535585818539
 30
0.0
  0
POINT
  5
1EC44
330
1EB48
100
AcDbEntity
  8
DEFPOINTS
 62
     0
 48
50.0
100
AcDbPoint
 10
6797.05865302504
 20
2247.535585818539
 30
0.0
  0
POINT
  5
1EC45
330
1EB48
100
AcDbEntity
  8
DEFPOINTS
 62
     0
 48
50.0
100
AcDbPoint
 10
6797.05865302504
 20
2667.20339373492
 30
0.0
  0
ENDBLK
  5
1EB53
330
1EB48
100
AcDbEntity
  8
0
 48
50.0
100
AcDbBlockEnd
  0
ENDSEC
  0
SECTION
  2
ENTITIES
  0
LINE
  5
10B57
330
747D
100
AcDbEntity
  8
補助
  6
PHANTOM
 62
   230
 48
50.0
100
AcDbLine
 10
139.9999999999995
 20
11409.6
 30
0.0
 11
16307.2
 21
11409.6
 31
0.0
  0
LINE
  5
10B59
330
747D
100
AcDbEntity
  8
仕様書枠
  6
Continuous
 48
50.0
100
AcDbLine
 10
13107.2
 20
1200.0
 30
0.0
 11
13107.2
 21
-0.0000000000000729
 31
0.0
  0
LINE
  5
10B5C
330
747D
100
AcDbEntity
  8
仕様書枠
 48
50.0
100
AcDbLine
 10
16307.2
 20
1200.0
 30
0.0
 11
16307.2
 21
-0.0000000000000909
 31
0.0
  0
LINE
  5
10B5D
330
747D
100
AcDbEntity
  8
仕様書枠
 48
50.0
100
AcDbLine
 10
140.0
 20
0.0
 30
0.0
 11
16307.2
 21
-0.0000000000000909
 31
0.0
  0
LINE
  5
10B5E
330
747D
100
AcDbEntity
  8
補助
  6
PHANTOM
 62
   230
 48
50.0
100
AcDbLine
 10
16307.2
 20
11409.6
 30
0.0
 11
16307.2
 21
1200.0
 31
0.0
  0
LINE
  5
10B6C
330
747D
100
AcDbEntity
  8
仕様書枠
 48
50.0
100
AcDbLine
 10
13107.2
 20
1200.0
 30
0.0
 11
16307.2
 21
1200.0
 31
0.0
  0
LINE
  5
10B6D
330
747D
100
AcDbEntity
  8
補助
  6
PHANTOM
 62
   230
 48
50.0
100
AcDbLine
 10
13107.2
 20
11409.6
 30
0.0
 11
13107.2
 21
4800.0
 31
0.0
  0
LINE
  5
10B6F
330
747D
100
AcDbEntity
  8
補助
  6
PHANTOM
 62
   230
 48
50.0
100
AcDbLine
 10
13107.2
 20
4800.0
 30
0.0
 11
16307.2
 21
4800.0
 31
0.0
  0
LINE
  5
10B72
330
747D
100
AcDbEntity
  8
文字
 62
     7
 48
50.0
100
AcDbLine
 10
13187.2
 20
400.0
 30
0.0
 11
16227.2
 21
400.0
 31
0.0
  0
TEXT
  5
10B73
330
747D
100
AcDbEntity
  8
文字
 62
     7
 48
50.0
100
AcDbText
 10
13162.9790565769
 20
895.0906074299405
 30
0.0
 40
200.0
  1
基 礎 図
  7
STYLE2
100
AcDbText
  0
TEXT
  5
10B74
330
747D
100
AcDbEntity
  8
文字
 62
     7
 48
50.0
100
AcDbText
 10
13201.43669998441
 20
477.2740661031255
 30
0.0
 40
160.0
  1
機種名
  7
STYLE2
100
AcDbText
  0
TEXT
  5
10B79
330
747D
100
AcDbEntity
  8
文字
 62
     7
 48
50.0
100
AcDbText
 10
14816.49629419351
 20
1031.557706291228
 30
0.0
 40
100.0
  1
 <縮尺> S=1/40
  7
STYLE2
100
AcDbText
  0
LINE
  5
10B7B
330
747D
100
AcDbEntity
  8
仕様書枠
 48
50.0
100
AcDbLine
 10
13107.2
 20
800.0
 30
0.0
 11
14251.2
 21
800.0
 31
0.0
  0
LINE
  5
10B88
330
747D
100
AcDbEntity
  8
仕様書枠
  6
Continuous
 48
50.0
100
AcDbLine
 10
14251.2
 20
1200.0
 30
0.0
 11
14251.2
 21
800.0
 31
0.0
  0
TEXT
  5
14DEF
330
747D
100
AcDbEntity
  8
文字
 62
     7
 48
50.0
100
AcDbText
 10
14641.2525855784
 20
871.1744590657925
 30
0.0
 40
100.0
  1
～一般型・多雪地型～
  7
STYLE2
100
AcDbText
  0
TEXT
  5
15A76
330
747D
100
AcDbEntity
  8
文字
 62
     7
 48
50.0
100
AcDbText
 10
14478.98566430227
 20
499.5983841039501
 30
0.0
 40
160.0
  1
ＮＸＮ－１７Ｓ
  7
STYLE2
100
AcDbText
  0
TEXT
  5
1D002
330
747D
100
AcDbEntity
  8
文字
 62
     7
 48
50.0
100
AcDbText
 10
13188.16259899338
 20
246.7109242801889
 30
0.0
 40
80.0
  1
※寒冷地等は地域の実情に合わせた基礎にして下さい。
  7
STYLE2
100
AcDbText
  0
DIMENSION
  5
1D91B
330
747D
100
AcDbEntity
  8
寸法
 48
50.0
100
AcDbDimension
  2
*D1
 10
7770.307249876097
 20
5799.999999999994
 30
0.0
 11
7770.307249876096
 21
6036.047244094484
 31
0.0
 70
   160
 71
     5
 42
130.0000000000018
  3
INABA_S40G
100
AcDbAlignedDimension
 13
7553.599999999999
 23
5669.999999999993
 33
0.0
 14
7553.599999999999
 24
5799.999999999994
 34
0.0
 50
90.0
100
AcDbRotatedDimension
  0
DIMENSION
  5
1D91C
330
747D
100
AcDbEntity
  8
寸法
 48
50.0
100
AcDbDimension
  2
*D2
 10
7770.307249876097
 20
5499.999999999992
 30
0.0
 11
7770.307249876096
 21
5263.952755905505
 31
0.0
 70
   160
 71
     5
 42
170.0000000000018
  3
INABA_S40G
100
AcDbAlignedDimension
 13
7553.599999999999
 23
5669.999999999994
 33
0.0
 14
7553.599999999999
 24
5499.999999999992
 34
0.0
 50
90.0
100
AcDbRotatedDimension
  0
DIMENSION
  5
1D91D
330
747D
100
AcDbEntity
  8
寸法
 48
50.0
100
AcDbDimension
  2
*D3
 10
7446.6
 20
7065.06061038992
 30
0.0
 11
8223.599999999999
 21
7165.060610389921
 31
0.0
 70
    32
 71
     5
 42
1554.0
  3
INABA_S40G
100
AcDbAlignedDimension
 13
9000.599999999998
 23
6386.999999999991
 33
0.0
 14
7446.6
 24
6386.999999999991
 34
0.0
100
AcDbRotatedDimension
  0
LINE
  5
1D91E
330
747D
100
AcDbEntity
  8
部品1
 48
50.0
100
AcDbLine
 10
8893.599999999999
 20
5670.000000000007
 30
0.0
 11
7553.599999999999
 21
5669.999999999994
 31
0.0
  0
LINE
  5
1D91F
330
747D
100
AcDbEntity
  8
部品1
 48
50.0
100
AcDbLine
 10
8893.599999999999
 20
6339.999999999989
 30
0.0
 11
7553.599999999999
 21
6339.999999999991
 31
0.0
  0
DIMENSION
  5
1D920
330
747D
100
AcDbEntity
  8
寸法
 48
50.0
100
AcDbDimension
  2
*D4
 10
9123.599999999999
 20
7277.521305906758
 30
0.0
 11
8223.599999999999
 21
7377.521305906758
 31
0.0
 70
    32
 71
     5
 42
1800.0
  3
INABA_S40G
100
AcDbAlignedDimension
 13
7323.599999999998
 23
6459.999999999991
 33
0.0
 14
9123.599999999999
 24
6459.999999999991
 34
0.0
100
AcDbRotatedDimension
  0
LINE
  5
1D921
330
747D
100
AcDbEntity
  8
部品1
 48
50.0
100
AcDbLine
 10
9123.599999999999
 20
5500.000000000009
 30
0.0
 11
7323.599999999998
 21
5499.999999999991
 31
0.0
  0
LINE
  5
1D922
330
747D
100
AcDbEntity
  8
部品1
 48
50.0
100
AcDbLine
 10
9123.599999999999
 20
6459.999999999991
 30
0.0
 11
7323.599999999998
 21
6459.999999999991
 31
0.0
  0
LINE
  5
1D923
330
747D
100
AcDbEntity
  8
想像線
 48
10.0
100
AcDbLine
 10
9168.599999999999
 20
5444.999999999987
 30
0.0
 11
7278.599999999999
 21
5444.999999999991
 31
0.0
  0
LINE
  5
1D924
330
747D
100
AcDbEntity
  8
想像線
 48
10.0
100
AcDbLine
 10
7278.599999999994
 20
6534.999999999991
 30
0.0
 11
9168.600000000003
 21
6534.999999999995
 31
0.0
  0
DIMENSION
  5
1D925
330
747D
100
AcDbEntity
  8
寸法
 48
50.0
100
AcDbDimension
  2
*D5
 10
7323.599999999998
 20
7065.06061038992
 30
0.0
 11
7085.11471862576
 21
7065.06061038992
 31
0.0
 70
   160
 71
     5
 42
123.0
  3
INABA_S40G
100
AcDbAlignedDimension
 13
7446.6
 23
6386.999999999991
 33
0.0
 14
7323.599999999998
 24
6459.999999999991
 34
0.0
100
AcDbRotatedDimension
  0
DIMENSION
  5
1D926
330
747D
100
AcDbEntity
  8
寸法
 48
50.0
100
AcDbDimension
  2
*D6
 10
7323.599999999998
 20
7277.521305906759
 30
0.0
 11
7301.099999999997
 21
7277.521305906759
 31
0.0
 70
   160
  1
a
 71
     5
 42
45.00000000000364
  3
INABA_S40G
100
AcDbAlignedDimension
 13
7278.599999999994
 23
7065.06061038992
 33
0.0
 14
7323.599999999998
 24
6459.999999999991
 34
0.0
100
AcDbRotatedDimension
  0
DIMENSION
  5
1D927
330
747D
100
AcDbEntity
  8
寸法
 48
50.0
100
AcDbDimension
  2
*D7
 10
6827.657733986177
 20
5697.999999999993
 30
0.0
 11
6827.657733986176
 21
6024.668633536565
 31
0.0
 70
   160
 71
     5
 42
638.9999999999981
  3
INABA_S40G
100
AcDbAlignedDimension
 13
7396.599999999999
 23
6336.999999999991
 33
0.0
 14
7396.600000000006
 24
5697.999999999993
 34
0.0
 50
90.0
100
AcDbRotatedDimension
  0
LINE
  5
1D928
330
747D
100
AcDbEntity
  8
部品1
 48
50.0
100
AcDbLine
 10
7443.599999999999
 20
5799.999999999993
 30
0.0
 11
7443.599999999999
 21
6229.999999999987
 31
0.0
  0
DIMENSION
  5
1D929
330
747D
100
AcDbEntity
  8
寸法
 48
50.0
100
AcDbDimension
  2
*D8
 10
6582.16493184821
 20
5499.999999999991
 30
0.0
 11
6582.164931848208
 21
6024.668633536565
 31
0.0
 70
   160
 71
     5
 42
960.0
  3
INABA_S40G
100
AcDbAlignedDimension
 13
7323.599999999998
 23
6459.999999999991
 33
0.0
 14
7323.599999999998
 24
5499.999999999991
 34
0.0
 50
90.0
100
AcDbRotatedDimension
  0
LINE
  5
1D92A
330
747D
100
AcDbEntity
  8
部品1
 48
50.0
100
AcDbLine
 10
7323.599999999998
 20
5499.999999999991
 30
0.0
 11
7323.599999999998
 21
6459.999999999991
 31
0.0
  0
LINE
  5
1D92B
330
747D
100
AcDbEntity
  8
想像線
 48
10.0
100
AcDbLine
 10
7278.599999999999
 20
5444.999999999991
 30
0.0
 11
7278.599999999999
 21
6534.999999999995
 31
0.0
  0
DIMENSION
  5
1D92C
330
747D
100
AcDbEntity
  8
寸法
 48
50.0
100
AcDbDimension
  2
*D9
 10
6827.657733986177
 20
5499.999999999991
 30
0.0
 11
6827.657733986176
 21
5263.790340170336
 31
0.0
 70
   160
 71
     5
 42
198.0000000000018
  3
INABA_S40G
100
AcDbAlignedDimension
 13
7396.600000000006
 23
5697.999999999993
 33
0.0
 14
7323.599999999998
 24
5499.999999999991
 34
0.0
 50
90.0
100
AcDbRotatedDimension
  0
DIMENSION
  5
1D92D
330
747D
100
AcDbEntity
  8
寸法
 48
50.0
100
AcDbDimension
  2
*D10
 10
6582.16493184821
 20
5444.999999999991
 30
0.0
 11
6582.16493184821
 21
5472.499999999993
 31
0.0
 70
   160
  1
b
 71
     5
 42
55.0
  3
INABA_S40G
100
AcDbAlignedDimension
 13
7323.599999999998
 23
5499.999999999991
 33
0.0
 14
6827.657733986177
 24
5444.999999999991
 34
0.0
 50
90.0
100
AcDbRotatedDimension
  0
LINE
  5
1D92E
330
747D
100
AcDbEntity
  8
センター
 48
2.0
100
AcDbLine
 10
7446.600000000007
 20
5747.999999999993
 30
0.0
 11
7446.600000000007
 21
5647.999999999992
 31
0.0
  0
LINE
  5
1D92F
330
747D
100
AcDbEntity
  8
センター
 48
2.0
100
AcDbLine
 10
7396.600000000006
 20
5697.999999999993
 30
0.0
 11
7496.600000000007
 21
5697.999999999993
 31
0.0
  0
CIRCLE
  5
1D930
330
747D
100
AcDbEntity
  8
部品1
 48
50.0
100
AcDbCircle
 10
7446.600000000007
 20
5697.999999999993
 30
0.0
 40
35.0
  0
LINE
  5
1D931
330
747D
100
AcDbEntity
  8
部品1
 48
50.0
100
AcDbLine
 10
7553.599999999999
 20
5799.999999999994
 30
0.0
 11
7443.599999999999
 21
5799.999999999993
 31
0.0
  0
LINE
  5
1D932
330
747D
100
AcDbEntity
  8
部品1
 48
50.0
100
AcDbLine
 10
7553.599999999999
 20
5669.999999999993
 30
0.0
 11
7553.599999999999
 21
5799.999999999994
 31
0.0
  0
DIMENSION
  5
1D933
330
747D
100
AcDbEntity
  8
寸法
 48
50.0
100
AcDbDimension
  2
*D11
 10
6827.657733986177
 20
6336.999999999991
 30
0.0
 11
6827.657733986176
 21
6698.485281374231
 31
0.0
 70
   160
 71
     5
 42
123.0
  3
INABA_S40G
100
AcDbAlignedDimension
 13
7323.599999999998
 23
6459.999999999991
 33
0.0
 14
7396.599999999999
 24
6336.999999999991
 34
0.0
 50
90.0
100
AcDbRotatedDimension
  0
DIMENSION
  5
1D934
330
747D
100
AcDbEntity
  8
寸法
 48
50.0
100
AcDbDimension
  2
*D12
 10
6582.16493184821
 20
6459.999999999991
 30
0.0
 11
6582.164931848208
 21
6497.499999999992
 31
0.0
 70
   160
  1
c
 71
     5
 42
75.0
  3
INABA_S40G
100
AcDbAlignedDimension
 13
6827.657733986177
 23
6534.999999999991
 33
0.0
 14
7323.599999999998
 24
6459.999999999991
 34
0.0
 50
90.0
100
AcDbRotatedDimension
  0
LINE
  5
1D935
330
747D
100
AcDbEntity
  8
部品1
 48
50.0
100
AcDbLine
 10
7443.599999999998
 20
6079.999999999991
 30
0.0
 11
7323.599999999998
 21
6079.999999999991
 31
0.0
  0
LINE
  5
1D936
330
747D
100
AcDbEntity
  8
部品1
 48
50.0
100
AcDbLine
 10
7443.599999999998
 20
5879.999999999991
 30
0.0
 11
7323.599999999998
 21
5879.999999999991
 31
0.0
  0
LINE
  5
1D938
330
747D
100
AcDbEntity
  8
センター
 48
2.0
100
AcDbLine
 10
7446.6
 20
6386.999999999991
 30
0.0
 11
7446.6
 21
6286.999999999991
 31
0.0
  0
LINE
  5
1D939
330
747D
100
AcDbEntity
  8
センター
 48
2.0
100
AcDbLine
 10
7396.599999999999
 20
6336.999999999991
 30
0.0
 11
7496.599999999999
 21
6336.999999999991
 31
0.0
  0
CIRCLE
  5
1D93A
330
747D
100
AcDbEntity
  8
部品1
 48
50.0
100
AcDbCircle
 10
7446.6
 20
6336.999999999991
 30
0.0
 40
35.0
  0
LINE
  5
1D93B
330
747D
100
AcDbEntity
  8
部品1
 48
50.0
100
AcDbLine
 10
7553.599999999999
 20
6229.999999999987
 30
0.0
 11
7443.599999999999
 21
6229.999999999991
 31
0.0
  0
LINE
  5
1D93C
330
747D
100
AcDbEntity
  8
部品1
 48
50.0
100
AcDbLine
 10
7553.599999999999
 20
6229.999999999987
 30
0.0
 11
7553.599999999997
 21
6339.999999999992
 31
0.0
  0
DIMENSION
  5
1D93E
330
747D
100
AcDbEntity
  8
寸法
 48
50.0
100
AcDbDimension
  2
*D13
 10
9000.599999999998
 20
7065.06061038992
 30
0.0
 11
9362.085281374238
 21
7065.06061038992
 31
0.0
 70
   160
 71
     5
 42
123.0
  3
INABA_S40G
100
AcDbAlignedDimension
 13
9123.599999999999
 23
6459.999999999991
 33
0.0
 14
9000.599999999998
 24
6386.999999999991
 34
0.0
100
AcDbRotatedDimension
  0
DIMENSION
  5
1D93F
330
747D
100
AcDbEntity
  8
寸法
 48
50.0
100
AcDbDimension
  2
*D14
 10
9168.599999999999
 20
7277.521305906758
 30
0.0
 11
9146.099999999998
 21
7277.521305906758
 31
0.0
 70
   160
  1
a
 71
     5
 42
45.0
  3
INABA_S40G
100
AcDbAlignedDimension
 13
9123.599999999999
 23
6459.999999999991
 33
0.0
 14
9168.599999999999
 24
7065.06061038992
 34
0.0
100
AcDbRotatedDimension
  0
LEADER
  5
1D940
330
747D
100
AcDbEntity
  8
寸法
 48
50.0
100
AcDbLeader
  3
INABA_S40G
 71
     0
 73
     0
 74
     0
 75
     1
 40
120.0
 41
720.0000000000001
 76
     3
 10
9123.599999999999
 20
5980.0
 30
0.0
 10
9373.148163484243
 20
6224.308542911245
 30
0.0
 10
9473.148163484243
 20
6224.308542911245
 30
0.0
340
1D941
  0
MTEXT
  5
1D941
102
{ACAD_REACTORS
330
1D940
102
}
330
747D
100
AcDbEntity
  8
部品1
 62
     7
 48
50.0
100
AcDbMText
 10
10233.14816348424
 20
6324.308542911246
 30
0.0
 40
120.0
 41
0.0
 71
     6
 72
     1
  1
\A1;床下換気口
  7
STYLE1
 73
     1
 44
1.0
1001
ACAD
1000
MTEXTBEGIN
1070
    73
1070
     1
1070
    44
1040
1.0
1070
    74
1070
     0
1000
MTEXTEND
  0
DIMENSION
  5
1D942
330
747D
100
AcDbEntity
  8
寸法
 48
50.0
100
AcDbDimension
  2
*D15
 10
9003.599999999998
 20
5921.503367980584
 30
0.0
 11
9359.647244094487
 21
5921.503367980584
 31
0.0
 70
   160
 71
     5
 42
120.0
  3
INABA_S40G
100
AcDbAlignedDimension
 13
9123.599999999999
 23
5980.0
 33
0.0
 14
9003.599999999998
 24
5990.617236035864
 34
0.0
100
AcDbRotatedDimension
  0
TEXT
  5
1D943
330
747D
100
AcDbEntity
  8
部品1
 48
50.0
100
AcDbText
 10
9210.4200666784
 20
4805.113203220717
 30
0.0
 40
80.0
  1
(a=45,b=55,c=75)
  7
STYLE1
100
AcDbText
  0
TEXT
  5
1D944
330
747D
100
AcDbEntity
  8
部品1
 48
50.0
100
AcDbText
 10
9140.543179073516
 20
4924.844249373856
 30
0.0
 40
80.0
  1
※a,b,cは屋根の出幅です。
  7
STYLE1
100
AcDbText
  0
MTEXT
  5
1D945
102
{ACAD_REACTORS
330
1D946
102
}
330
747D
100
AcDbEntity
  8
部品1
 62
     7
 48
50.0
100
AcDbMText
 10
10005.72577453832
 20
5148.982608040199
 30
0.0
 40
120.0
 41
0.0
 71
     6
 72
     1
  1
\A1;屋根の外寸
  7
STYLE1
 73
     1
 44
1.0
1001
ACAD
1000
MTEXTBEGIN
1070
    73
1070
     1
1070
    44
1040
1.0
1070
    74
1070
     0
1000
MTEXTEND
  0
LEADER
  5
1D946
330
747D
100
AcDbEntity
  8
寸法
 48
50.0
100
AcDbLeader
  3
INABA_S40G
 71
     0
 73
     0
 74
     0
 75
     1
 40
120.0
 41
672.0
 76
     3
 10
8935.488587933825
 20
5443.999999999991
 30
0.0
 10
9193.725774538318
 20
5048.9826080402
 30
0.0
 10
9293.725774538318
 20
5048.9826080402
 30
0.0
340
1D945
  0
DIMENSION
  5
1D947
330
747D
100
AcDbEntity
  8
寸法
 48
50.0
100
AcDbDimension
  2
*D16
 10
8283.101130051226
 20
6229.999999999989
 30
0.0
 11
8283.101130051226
 21
5993.952755905501
 31
0.0
 70
   160
 71
     5
 42
110.0000000000009
  3
INABA_S40G
100
AcDbAlignedDimension
 13
8223.599999999999
 23
6339.99999999999
 33
0.0
 14
8893.599999999999
 24
6229.999999999989
 34
0.0
 50
90.0
100
AcDbRotatedDimension
  0
DIMENSION
  5
1D948
330
747D
100
AcDbEntity
  8
寸法
 48
50.0
100
AcDbDimension
  2
*D17
 10
8893.599999999999
 20
5921.503367980584
 30
0.0
 11
8657.552755905511
 21
5921.503367980584
 31
0.0
 70
   160
 71
     5
 42
110.0
  3
INABA_S40G
100
AcDbAlignedDimension
 13
9003.599999999998
 23
5990.617236035864
 33
0.0
 14
8893.599999999999
 24
6229.999999999989
 34
0.0
100
AcDbRotatedDimension
  0
LINE
  5
1D949
330
747D
100
AcDbEntity
  8
部品1
 48
50.0
100
AcDbLine
 10
9003.599999999998
 20
5800.000000000011
 30
0.0
 11
9003.599999999998
 21
6229.999999999991
 31
0.0
  0
LINE
  5
1D94A
330
747D
100
AcDbEntity
  8
部品1
 48
50.0
100
AcDbLine
 10
9123.599999999999
 20
5500.000000000009
 30
0.0
 11
9123.599999999999
 21
6459.999999999991
 31
0.0
  0
LINE
  5
1D94B
330
747D
100
AcDbEntity
  8
想像線
 48
10.0
100
AcDbLine
 10
9168.599999999999
 20
6534.999999999995
 30
0.0
 11
9168.600000000003
 21
5444.999999999991
 31
0.0
  0
TEXT
  5
1D94C
330
747D
100
AcDbEntity
  8
部品1
 48
50.0
100
AcDbText
 10
8095.599999999999
 20
5238.547498596531
 30
0.0
 40
120.0
  1
扉面
  7
STYLE1
 72
     1
 11
8223.599999999999
 21
5222.547498596531
 31
0.0
100
AcDbText
 73
     1
  0
HATCH
  5
1D94E
330
747D
100
AcDbEntity
  8
細線
 48
50.0
100
AcDbHatch
 10
0.0
 20
0.0
 30
0.0
210
0.0
220
0.0
230
1.0
  2
LINE
 70
     0
 71
     0
 91
        1
 92
        7
 72
     0
 73
     1
 93
        4
 10
8323.600000000013
 20
5500.0
 10
8323.600000000013
 20
5669.999999999998
 10
8123.600000000013
 20
5669.999999999997
 10
8123.600000000013
 20
5499.999999999994
 97
        0
 75
     0
 76
     1
 52
45.0
 41
10.0
 77
     0
 78
     1
 53
45.0
 43
4620.48843901349
 44
-5651.541555076297
 45
-22.45064030267288
 46
22.45064030267288
 79
     0
 47
2.903594399684136
 98
        1
 10
8236.710000003098
 20
5539.027055432439
  0
LINE
  5
1D94F
330
747D
100
AcDbEntity
  8
部品1
 48
50.0
100
AcDbLine
 10
8123.600000000013
 20
5500.0
 30
0.0
 11
8123.600000000013
 21
5669.999999999994
 31
0.0
  0
LINE
  5
1D950
330
747D
100
AcDbEntity
  8
部品1
 48
50.0
100
AcDbLine
 10
8323.600000000013
 20
5500.0
 30
0.0
 11
8323.600000000013
 21
5669.999999999998
 31
0.0
  0
LINE
  5
1D951
330
747D
100
AcDbEntity
  8
センター
 48
2.0
100
AcDbLine
 10
8950.600000000006
 20
5697.999999999993
 30
0.0
 11
9050.600000000006
 21
5697.999999999993
 31
0.0
  0
CIRCLE
  5
1D952
330
747D
100
AcDbEntity
  8
部品1
 48
50.0
100
AcDbCircle
 10
9000.600000000005
 20
5697.999999999993
 30
0.0
 40
35.0
  0
LINE
  5
1D953
330
747D
100
AcDbEntity
  8
部品1
 48
50.0
100
AcDbLine
 10
9003.6
 20
5800.000000000009
 30
0.0
 11
8893.599999999999
 21
5800.000000000009
 31
0.0
  0
LINE
  5
1D954
330
747D
100
AcDbEntity
  8
部品1
 48
50.0
100
AcDbLine
 10
8893.599999999999
 20
5670.000000000007
 30
0.0
 11
8893.599999999999
 21
5800.000000000009
 31
0.0
  0
LINE
  5
1D955
330
747D
100
AcDbEntity
  8
センター
 48
2.0
100
AcDbLine
 10
9000.600000000005
 20
5747.999999999993
 30
0.0
 11
9000.600000000005
 21
5647.999999999992
 31
0.0
  0
LINE
  5
1D956
330
747D
100
AcDbEntity
  8
部品1
 48
50.0
100
AcDbLine
 10
8323.599999999998
 20
6339.99999999999
 30
0.0
 11
8323.599999999998
 21
6459.999999999991
 31
0.0
  0
LINE
  5
1D957
330
747D
100
AcDbEntity
  8
部品1
 48
50.0
100
AcDbLine
 10
8123.599999999999
 20
6339.999999999991
 30
0.0
 11
8123.599999999999
 21
6459.999999999991
 31
0.0
  0
DIMENSION
  5
1D959
330
747D
100
AcDbEntity
  8
寸法
 48
50.0
100
AcDbDimension
  2
*D18
 10
8283.101130051226
 20
6339.99999999999
 30
0.0
 11
8283.101130051226
 21
6696.047244094481
 31
0.0
 70
   160
 71
     5
 42
120.0000000000009
  3
INABA_S40G
100
AcDbAlignedDimension
 13
8223.599999999999
 23
6459.999999999991
 33
0.0
 14
8223.599999999999
 24
6339.99999999999
 34
0.0
 50
90.0
100
AcDbRotatedDimension
  0
LINE
  5
1D95A
330
747D
100
AcDbEntity
  8
センター
 48
2.0
100
AcDbLine
 10
8950.599999999999
 20
6336.999999999991
 30
0.0
 11
9050.599999999999
 21
6336.999999999991
 31
0.0
  0
CIRCLE
  5
1D95B
330
747D
100
AcDbEntity
  8
部品1
 48
50.0
100
AcDbCircle
 10
9000.599999999998
 20
6336.999999999991
 30
0.0
 40
35.0
  0
LINE
  5
1D95C
330
747D
100
AcDbEntity
  8
部品1
 48
50.0
100
AcDbLine
 10
9003.6
 20
6229.999999999993
 30
0.0
 11
8893.599999999999
 21
6229.999999999989
 31
0.0
  0
LINE
  5
1D95D
330
747D
100
AcDbEntity
  8
部品1
 48
50.0
100
AcDbLine
 10
8893.599999999999
 20
6229.999999999989
 30
0.0
 11
8893.599999999999
 21
6339.999999999989
 31
0.0
  0
LINE
  5
1D95E
330
747D
100
AcDbEntity
  8
部品1
 48
50.0
100
AcDbLine
 10
9123.599999999999
 20
6079.999999999991
 30
0.0
 11
9003.599999999998
 21
6079.999999999991
 31
0.0
  0
LINE
  5
1D95F
330
747D
100
AcDbEntity
  8
部品1
 48
50.0
100
AcDbLine
 10
9123.599999999999
 20
5879.999999999991
 30
0.0
 11
9003.599999999998
 21
5879.999999999991
 31
0.0
  0
LINE
  5
1D961
330
747D
100
AcDbEntity
  8
センター
 48
2.0
100
AcDbLine
 10
9000.599999999998
 20
6386.999999999991
 30
0.0
 11
9000.599999999998
 21
6286.999999999991
 31
0.0
  0
TEXT
  5
1DEDA
330
747D
100
AcDbEntity
  8
文字
 62
     7
 48
50.0
100
AcDbText
 10
13188.16259899338
 20
79.80631269190325
 30
0.0
 40
80.0
  1
※布基礎には換気口を設けてください。
  7
STYLE2
100
AcDbText
  0
MTEXT
  5
1E700
102
{ACAD_REACTORS
330
1E701
102
}
330
747D
100
AcDbEntity
  8
部品1
 62
     7
 48
50.0
100
AcDbMText
 10
10173.4169794361
 20
6703.025443807942
 30
0.0
 40
120.0
 41
0.0
 71
     6
 72
     1
  1
基礎ボルト芯
  7
STYLE1
 73
     1
 44
1.0
1001
ACAD
1000
MTEXTBEGIN
1070
    73
1070
     1
1070
    44
1040
1.0
1070
    74
1070
     0
1000
MTEXTEND
  0
LEADER
  5
1E701
330
747D
100
AcDbEntity
  8
寸法
 48
50.0
100
AcDbLeader
  3
INABA_S40G
 71
     0
 73
     0
 74
     0
 75
     1
 40
120.0
 41
846.0000000000002
 76
     3
 10
9000.599999999998
 20
6336.999999999991
 30
0.0
 10
9187.416979436106
 20
6603.025443807942
 30
0.0
 10
9287.416979436107
 20
6603.025443807942
 30
0.0
340
1E700
  0
LINE
  5
1E9D5
330
747D
100
AcDbEntity
  8
部品1
100
AcDbLine
 10
10377.63811485402
 20
3568.507205595385
 30
0.0
 11
5726.390214215775
 21
3568.507205595384
 31
0.0
  0
LINE
  5
1E9D6
330
747D
100
AcDbEntity
  8
部品1
100
AcDbLine
 10
10377.63811485402
 20
3328.507205595382
 30
0.0
 11
5726.390214215779
 21
3328.507205595383
 31
0.0
  0
LINE
  5
1E9D7
330
747D
100
AcDbEntity
  8
部品1
100
AcDbLine
 10
5726.39021421578
 20
721.3593351244051
 30
0.0
 11
10377.63811485402
 21
721.3593351244053
 31
0.0
  0
LEADER
  5
1E9D8
330
747D
100
AcDbEntity
  8
寸法
 48
50.0
100
AcDbLeader
  3
INABA_S40G
 73
     0
 74
     0
 75
     1
 40
102.2727272727273
 41
680.0000000000001
 76
     3
 10
8734.497966202233
 20
2646.410866927682
 30
0.0
 10
8778.851937315591
 20
3041.863678034224
 30
0.0
 10
8878.851937315591
 20
3041.863678034224
 30
0.0
340
1E9D9
  0
MTEXT
  5
1E9D9
102
{ACAD_REACTORS
330
1E9D8
102
}
330
747D
100
AcDbEntity
  8
部品1
 62
     7
 48
50.0
100
AcDbMText
 10
8918.851937315592
 20
3133.000041670587
 30
0.0
 40
80.0
 41
0.8
 71
     4
 72
     1
  1
\A1;ナット(市販品)
  7
STYLE2
 73
     1
 44
1.0
1001
ACAD
1000
MTEXTBEGIN
1070
    73
1070
     1
1070
    44
1040
1.0
1070
    74
1070
     0
1000
MTEXTEND
  0
LEADER
  5
1E9DA
330
747D
100
AcDbEntity
  8
寸法
 48
50.0
100
AcDbLeader
  3
INABA_S40G
 73
     0
 74
     0
 75
     1
 40
102.2727272727273
 41
906.8181818181818
 76
     3
 10
8758.497966202234
 20
2516.658874262819
 30
0.0
 10
8810.369556571073
 20
2856.894595269436
 30
0.0
 10
8910.369556571074
 20
2856.894595269436
 30
0.0
340
1E9DB
  0
MTEXT
  5
1E9DB
102
{ACAD_REACTORS
330
1E9DA
102
}
330
747D
100
AcDbEntity
  8
部品1
 62
     7
 48
50.0
100
AcDbMText
 10
8950.369556571073
 20
2948.0309589058
 30
0.0
 40
80.0
 41
0.8
 71
     4
 72
     1
  1
\A1;ワッシャー(市販品)
  7
STYLE2
 73
     1
 44
1.0
1001
ACAD
1000
MTEXTBEGIN
1070
    73
1070
     1
1070
    44
1040
1.0
1070
    74
1070
     0
1000
MTEXTEND
  0
LWPOLYLINE
  5
1E9DC
330
747D
100
AcDbEntity
  8
部品1
 48
50.0
100
AcDbPolyline
 90
        2
 70
     0
 43
8.0
 10
8911.097966202232
 20
2007.535585818541
 10
9204.800429601617
 20
2007.535585818541
  0
TEXT
  5
1E9DD
330
747D
100
AcDbEntity
  8
部品1
 48
50.0
100
AcDbText
 10
8915.451550486661
 20
2603.41426658074
 30
0.0
 40
80.0
  1
基礎ボルト(市販品)
  7
STYLE2
100
AcDbText
  0
DIMENSION
  5
1E9DE
330
747D
100
AcDbEntity
  8
寸法
 48
50.0
100
AcDbDimension
  2
*D19
 10
9412.966565971077
 20
1923.535585818538
 30
0.0
 11
9312.966565971077
 21
2085.53558581854
 31
0.0
 70
    32
  1
180
 71
     5
 42
324.0000000000007
  3
INABA_S40G
100
AcDbAlignedDimension
 13
8911.097966202232
 23
2247.535585818539
 33
0.0
 14
8911.097966202232
 24
1923.535585818538
 34
0.0
 50
90.0
100
AcDbRotatedDimension
  0
DIMENSION
  5
1E9DF
330
747D
100
AcDbEntity
  8
寸法
 48
50.0
100
AcDbDimension
  2
*D20
 10
9689.021232090105
 20
2247.535585818539
 30
0.0
 11
9689.021232090105
 21
1781.526682397058
 31
0.0
 70
   160
  1
20～25
 71
     5
 42
52.76000000000113
  3
INABA_S40G
100
AcDbAlignedDimension
 13
8723.897966202235
 23
2300.29558581854
 33
0.0
 14
8911.097966202232
 24
2247.535585818539
 34
0.0
 50
90.0
100
AcDbRotatedDimension
  0
MTEXT
  5
1E9E0
102
{ACAD_REACTORS
330
1E9E1
102
}
330
747D
100
AcDbEntity
  8
部品1
 62
     7
 48
50.0
100
AcDbMText
 10
8920.042428621554
 20
2511.91891197177
 30
0.0
 40
80.0
 41
0.8
 71
     4
 72
     1
  1
M10X160
  7
STYLE2
 73
     1
 44
1.0
1001
ACAD
1000
MTEXTBEGIN
1070
    73
1070
     1
1070
    44
1040
1.0
1070
    74
1070
     0
1000
MTEXTEND
  0
LEADER
  5
1E9E1
330
747D
100
AcDbEntity
  8
寸法
 48
50.0
100
AcDbLeader
  3
INABA_S40G
 73
     0
 74
     0
 75
     1
 40
80.0
 41
435.0
 76
     3
 10
8727.497966202234
 20
2296.69558581854
 30
0.0
 10
8780.042428621554
 20
2431.91891197177
 30
0.0
 10
8880.042428621553
 20
2431.91891197177
 30
0.0
340
1E9E0
  0
LINE
  5
1E9E2
330
747D
100
AcDbEntity
  8
部品1
100
AcDbLine
 10
5726.390214215776
 20
3568.507205595385
 30
0.0
 11
5726.390214215779
 21
721.3593351244051
 31
0.0
  0
LEADER
  5
1E9E3
330
747D
100
AcDbEntity
  8
寸法
 48
50.0
100
AcDbLeader
  3
INABA_S40G
 73
     0
 75
     1
 40
113.1818181818182
 41
608.6363636363635
 76
     3
 10
8687.234716340284
 20
2197.051259176818
 30
0.0
 10
8543.430887648936
 20
3033.430341533296
 30
0.0
 10
8443.430887648935
 20
3033.430341533296
 30
0.0
340
1E9E4
  0
MTEXT
  5
1E9E4
102
{ACAD_REACTORS
330
1E9E3
102
}
330
747D
100
AcDbEntity
  8
寸法
 62
     7
 48
50.0
100
AcDbMText
 10
8403.430887648935
 20
3130.021250624205
 30
0.0
 40
80.0
 41
0.8
 71
     6
 72
     1
  1
\A1;φ70スリーブ
  7
STYLE2
 73
     1
 44
1.0
1001
ACAD
1000
MTEXTBEGIN
1070
    73
1070
     1
1070
    44
1040
1.0
1070
    74
1070
     0
1000
MTEXTEND
  0
LWPOLYLINE
  5
1E9E5
330
747D
100
AcDbEntity
  8
部品1
 48
50.0
100
AcDbPolyline
 90
        2
 70
     0
 43
8.0
 10
6382.918751192082
 20
2007.535585818541
 10
6797.05865302504
 20
2007.535585818541
  0
TEXT
  5
1E9E6
330
747D
100
AcDbEntity
  8
部品1
 48
50.0
100
AcDbText
 10
6382.918751192082
 20
2018.774578101795
 30
0.0
 40
80.0
  1
▽G.L
  7
STYLE2
100
AcDbText
  0
DIMENSION
  5
1E9E7
330
747D
100
AcDbEntity
  8
寸法
 48
50.0
100
AcDbDimension
  2
*D21
 10
6526.63833929258
 20
1463.535585818539
 30
0.0
 11
6526.63833929258
 21
1583.53558581854
 31
0.0
 70
   160
  1
150
 71
     5
 42
240.0000000000002
  3
INABA_S40G
100
AcDbAlignedDimension
 13
6669.058653025039
 23
1703.535585818539
 33
0.0
 14
6589.058653025043
 24
1463.535585818539
 34
0.0
 50
90.0
100
AcDbRotatedDimension
  0
LEADER
  5
1E9E8
330
747D
100
AcDbEntity
  8
寸法
 48
50.0
100
AcDbLeader
  3
INABA_S40G
 71
     0
 73
     0
 75
     1
 40
100.0
 41
225.0
 76
     3
 10
6764.961605377182
 20
1583.535585818539
 30
0.0
 10
6618.123626829845
 20
1320.012892200103
 30
0.0
 10
6518.123626829845
 20
1320.012892200103
 30
0.0
  0
LEADER
  5
1E9E9
330
747D
100
AcDbEntity
  8
寸法
 48
50.0
100
AcDbLeader
  3
INABA_S40G
 71
     0
 73
     0
 75
     1
 40
100.0
 41
222.7272727272727
 76
     3
 10
6893.05865302504
 20
1583.535585818539
 30
0.0
 10
6646.24635438728
 20
1139.696739660659
 30
0.0
 10
6546.24635438728
 20
1139.696739660659
 30
0.0
  0
MTEXT
  5
1E9EA
102
{ACAD_REACTORS
330
1E9EB
102
}
330
747D
100
AcDbEntity
  8
寸法
 62
     7
 48
50.0
100
AcDbMText
 10
6707.808598802235
 20
1848.836188635996
 30
0.0
 40
80.0
 41
0.8
 71
     6
 72
     1
  1
\A1;D10@300
  7
STYLE2
 73
     1
 44
1.0
1001
ACAD
1000
MTEXTBEGIN
1070
    73
1070
     1
1070
    44
1040
1.0
1070
    74
1070
     0
1000
MTEXTEND
  0
LEADER
  5
1E9EB
330
747D
100
AcDbEntity
  8
寸法
 48
50.0
100
AcDbLeader
  3
INABA_S40G
 71
     0
 73
     0
 75
     1
 40
100.0
 41
540.3409090909091
 76
     3
 10
6901.058653025039
 20
2005.662800515663
 30
0.0
 10
6818.07641649634
 20
1784.192471974857
 30
0.0
 10
6718.076416496341
 20
1784.192471974857
 30
0.0
213
-9.732182305893367
223
-4.643716661138569
233
0.0
  0
LEADER
  5
1E9EC
330
747D
100
AcDbEntity
  8
寸法
 48
50.0
100
AcDbLeader
  3
INABA_S40G
 71
     0
 73
     0
 75
     1
 40
130.1136363636363
 41
651.1363636363636
 76
     3
 10
6877.05865302504
 20
2247.535585818539
 30
0.0
 10
6739.634072861022
 20
2388.006351275128
 30
0.0
 10
6639.634072861023
 20
2388.006351275128
 30
0.0
  0
MTEXT
  5
1E9ED
102
{ACAD_REACTORS
330
1E9EC
102
}
330
747D
100
AcDbEntity
  8
寸法
 62
     7
 48
50.0
100
AcDbMText
 10
6576.960173541767
 20
2460.051805820582
 30
0.0
 40
80.0
 41
0.8
 71
     6
 72
     1
  1
\A1;金コテ押エ
  7
STYLE2
 73
     1
 44
1.0
1001
ACAD
1000
MTEXTBEGIN
1070
    73
1070
     1
1070
    44
1040
1.0
1070
    74
1070
     0
1000
MTEXTEND
  0
DIMENSION
  5
1E9EE
330
747D
100
AcDbEntity
  8
寸法
 48
50.0
100
AcDbDimension
  2
*D22
 10
6062.021414463299
 20
1463.535585818539
 30
0.0
 11
6062.021414463299
 21
1835.07573547454
 31
0.0
 70
   160
  1
540
 71
     5
 42
784.0
  3
INABA_S40G
100
AcDbAlignedDimension
 13
6797.05865302504
 23
2247.535585818539
 33
0.0
 14
6589.058653025043
 24
1463.535585818539
 34
0.0
 50
90.0
100
AcDbRotatedDimension
  0
MTEXT
  5
1E9EF
102
{ACAD_REACTORS
330
1E9E9
102
}
330
747D
100
AcDbEntity
  8
寸法
 62
     7
 48
50.0
100
AcDbMText
 10
6526.246354387279
 20
1199.696739660659
 30
0.0
 40
80.0
 41
0.8
 71
     6
 72
     1
  1
D13
  7
STYLE2
 73
     1
 44
1.0
1001
ACAD
1000
MTEXTBEGIN
1070
    73
1070
     1
1070
    44
1040
1.0
1070
    74
1070
     0
1000
MTEXTEND
  0
MTEXT
  5
1E9F0
102
{ACAD_REACTORS
330
1E9E8
102
}
330
747D
100
AcDbEntity
  8
寸法
 62
     7
 48
50.0
100
AcDbMText
 10
6498.123626829846
 20
1380.012892200103
 30
0.0
 40
80.0
 41
0.8
 71
     6
 72
     1
  1
D10
  7
STYLE2
 73
     1
 44
1.0
1001
ACAD
1000
MTEXTBEGIN
1070
    73
1070
     1
1070
    44
1040
1.0
1070
    74
1070
     0
1000
MTEXTEND
  0
DIMENSION
  5
1E9F1
330
747D
100
AcDbEntity
  8
寸法
 48
50.0
100
AcDbDimension
  2
*D23
 10
7117.058653025039
 20
925.1059478133793
 30
0.0
 11
6872.961894346815
 21
925.1059478133793
 31
0.0
 70
   160
  1
300
 71
     5
 42
448.0
  3
INABA_S40G
100
AcDbAlignedDimension
 13
6669.058653025039
 23
1335.535585818539
 33
0.0
 14
7117.058653025039
 24
1335.535585818539
 34
0.0
100
AcDbRotatedDimension
  0
MTEXT
  5
1E9F2
102
{ACAD_REACTORS
330
1E9F3
102
}
330
747D
100
AcDbEntity
  8
寸法
 62
     7
 48
50.0
100
AcDbMText
 10
8430.073893857295
 20
2769.336978716691
 30
0.0
 40
80.0
 41
0.8
 71
     6
 72
     1
  1
アンカープレート {\fArial|b0|i0|c0|p32;U}
  7
STYLE2
 73
     1
 44
1.0
1001
ACAD
1000
MTEXTBEGIN
1070
    73
1070
     1
1070
    44
1040
1.0
1070
    74
1070
     0
1000
MTEXTEND
  0
LEADER
  5
1E9F3
330
747D
100
AcDbEntity
  8
寸法
 48
50.0
100
AcDbLeader
  3
INABA_S40G
 73
     0
 75
     1
 40
106.3636363636363
 41
903.5235024184547
 76
     3
 10
8628.497966202234
 20
2317.095585818541
 30
0.0
 10
8570.073893857294
 20
2676.155160534873
 30
0.0
 10
8470.073893857295
 20
2676.155160534873
 30
0.0
340
1E9F2
  0
LINE
  5
1E9F4
330
747D
100
AcDbEntity
  8
細線
 48
50.0
100
AcDbLine
 10
6917.058653025041
 20
2085.90847848637
 30
0.0
 11
6989.05865302504
 21
2157.90847848637
 31
0.0
  0
ARC
  5
1E9F5
330
747D
100
AcDbEntity
  8
部品1
 48
50.0
100
AcDbCircle
 10
6893.058653025041
 20
2107.790015212785
 30
0.0
 40
24.0
100
AcDbArc
 50
0.0
 51
180.0
  0
CIRCLE
  5
1E9F6
330
747D
100
AcDbEntity
  8
部品1
 48
50.0
100
AcDbCircle
 10
6893.058653025041
 20
2107.790015212785
 30
0.0
 40
8.0
  0
LINE
  5
1E9F7
330
747D
100
AcDbEntity
  8
部品1
 48
50.0
100
AcDbLine
 10
6797.05865302504
 20
1703.535585818539
 30
0.0
 11
6797.05865302504
 21
2247.535585818539
 31
0.0
  0
LINE
  5
1E9F8
330
747D
100
AcDbEntity
  8
部品1
 48
50.0
100
AcDbLine
 10
6989.05865302504
 20
2247.535585818539
 30
0.0
 11
6989.05865302504
 21
1703.535585818539
 31
0.0
  0
MTEXT
  5
1E9F9
102
{ACAD_REACTORS
330
1E9FE
102
}
330
747D
100
AcDbEntity
  8
寸法
 62
     7
 48
50.0
100
AcDbMText
 10
7071.944590052435
 20
2108.803147117467
 30
0.0
 40
80.0
 41
0.8
 71
     4
 72
     1
  1
D13
  7
STYLE2
 73
     1
 44
1.0
1001
ACAD
1000
MTEXTBEGIN
1070
    73
1070
     1
1070
    44
1040
1.0
1070
    74
1070
     0
1000
MTEXTEND
  0
LEADER
  5
1E9FA
330
747D
100
AcDbEntity
  8
寸法
 48
50.0
100
AcDbLeader
  3
INABA_S40G
 71
     0
 73
     0
 74
     0
 75
     1
 40
100.0
 41
225.0
 76
     3
 10
7020.961605377182
 20
1583.535585818539
 30
0.0
 10
7100.386312831725
 20
1488.138516875567
 30
0.0
 10
7200.386312831724
 20
1488.138516875567
 30
0.0
  0
LEADER
  5
1E9FB
330
747D
100
AcDbEntity
  8
寸法
 48
50.0
100
AcDbLeader
  3
INABA_S40G
 71
     0
 73
     0
 74
     0
 75
     1
 40
100.0
 41
540.3409090909091
 76
     3
 10
6967.003822038214
 20
1566.795055405014
 30
0.0
 10
7110.797108886291
 20
1225.164237410117
 30
0.0
 10
7210.797108886291
 20
1225.164237410117
 30
0.0
213
0.0
223
-1.022262676269383
233
0.0
  0
MTEXT
  5
1E9FC
102
{ACAD_REACTORS
330
1E9FA
102
}
330
747D
100
AcDbEntity
  8
寸法
 62
     7
 48
50.0
100
AcDbMText
 10
7220.386312831725
 20
1548.138516875567
 30
0.0
 40
80.0
 41
0.8
 71
     4
 72
     1
  1
D10
  7
STYLE2
 73
     1
 44
1.0
1001
ACAD
1000
MTEXTBEGIN
1070
    73
1070
     1
1070
    44
1040
1.0
1070
    74
1070
     0
1000
MTEXTEND
  0
LWPOLYLINE
  5
1E9FD
330
747D
100
AcDbEntity
  8
部品1
 48
50.0
100
AcDbPolyline
 90
        2
 70
     0
 43
8.0
 10
6989.058653025039
 20
2007.535585818541
 10
7403.198554857997
 20
2007.535585818541
  0
LEADER
  5
1E9FE
330
747D
100
AcDbEntity
  8
寸法
 48
50.0
100
AcDbLeader
  3
INABA_S40G
 71
     0
 73
     0
 74
     0
 75
     1
 40
100.0
 41
222.7272727272727
 76
     3
 10
6893.05865302504
 20
2107.790015212785
 30
0.0
 10
6951.944590052434
 20
2048.803147117467
 30
0.0
 10
7051.944590052435
 20
2048.803147117467
 30
0.0
  0
LINE
  5
1E9FF
330
747D
100
AcDbEntity
  8
細線
 48
50.0
100
AcDbLine
 10
6669.058653025032
 20
1622.38233158071
 30
0.0
 11
6750.211907262869
 21
1703.535585818539
 31
0.0
  0
LINE
  5
1EA00
330
747D
100
AcDbEntity
  8
細線
 48
50.0
100
AcDbLine
 10
6876.924500502444
 20
1641.662800515662
 30
0.0
 11
6901.058653025046
 21
1665.796953038261
 31
0.0
  0
LINE
  5
1EA01
330
747D
100
AcDbEntity
  8
細線
 48
50.0
100
AcDbLine
 10
6783.856517442114
 20
1575.535585818539
 30
0.0
 11
6901.058653025041
 21
1692.737721401465
 31
0.0
  0
LINE
  5
1EA02
330
747D
100
AcDbEntity
  8
部品1
 48
50.0
100
AcDbLine
 10
6669.058653025039
 20
1463.535585818539
 30
0.0
 11
6669.058653025039
 21
1703.535585818539
 31
0.0
  0
LINE
  5
1EA03
330
747D
100
AcDbEntity
  8
細線
 48
50.0
100
AcDbLine
 10
7026.323432710984
 20
1575.535585818539
 30
0.0
 11
7117.05865302504
 21
1666.270806132598
 31
0.0
  0
LINE
  5
1EA04
330
747D
100
AcDbEntity
  8
細線
 48
50.0
100
AcDbLine
 10
6999.382664347767
 20
1575.535585818539
 30
0.0
 11
7117.05865302504
 21
1693.211574495805
 31
0.0
  0
LINE
  5
1EA05
330
747D
100
AcDbEntity
  8
部品1
 48
50.0
100
AcDbLine
 10
7117.05865302504
 20
1703.535585818539
 30
0.0
 11
7117.05865302504
 21
1463.535585818539
 31
0.0
  0
LINE
  5
1EA06
330
747D
100
AcDbEntity
  8
部品1
 48
50.0
100
AcDbLine
 10
6917.058653025046
 20
1583.535585818539
 30
0.0
 11
6917.058653025041
 21
2107.790015212785
 31
0.0
  0
LINE
  5
1EA07
330
747D
100
AcDbEntity
  8
部品1
 48
50.0
100
AcDbLine
 10
6901.058653025046
 20
1583.535585818539
 30
0.0
 11
6901.058653025033
 21
2107.790015212785
 31
0.0
  0
LINE
  5
1EA08
330
747D
100
AcDbEntity
  8
細線
 48
50.0
100
AcDbLine
 10
6885.058653025041
 20
1622.856184675051
 30
0.0
 11
6901.058653025046
 21
1638.856184675051
 31
0.0
  0
LINE
  5
1EA09
330
747D
100
AcDbEntity
  8
細線
 48
50.0
100
AcDbLine
 10
6874.241492521054
 20
1335.535585818539
 30
0.0
 11
6908.538989152237
 21
1463.535585818539
 31
0.0
  0
LINE
  5
1EA0A
330
747D
100
AcDbEntity
  8
部品1
 48
50.0
100
AcDbLine
 10
7197.058653025044
 20
1335.535585818539
 30
0.0
 11
6589.058653025041
 21
1335.535585818539
 31
0.0
  0
LINE
  5
1EA0B
330
747D
100
AcDbEntity
  8
部品1
 48
50.0
100
AcDbLine
 10
6725.05865302504
 20
1559.535585818539
 30
0.0
 11
7061.05865302504
 21
1559.535585818539
 31
0.0
  0
LINE
  5
1EA0C
330
747D
100
AcDbEntity
  8
部品1
 48
50.0
100
AcDbLine
 10
6725.05865302504
 20
1575.535585818539
 30
0.0
 11
7061.05865302504
 21
1575.535585818539
 31
0.0
  0
LINE
  5
1EA0D
330
747D
100
AcDbEntity
  8
部品1
 48
50.0
100
AcDbLine
 10
7197.058653025044
 20
1463.535585818539
 30
0.0
 11
6589.058653025041
 21
1463.535585818539
 31
0.0
  0
CIRCLE
  5
1EA0E
330
747D
100
AcDbEntity
  8
部品1
 48
50.0
100
AcDbCircle
 10
6893.058653025041
 20
1583.535585818539
 30
0.0
 40
8.0
  0
LINE
  5
1EA0F
330
747D
100
AcDbEntity
  8
細線
 48
50.0
100
AcDbLine
 10
6887.382664347772
 20
1463.535585818539
 30
0.0
 11
6983.382664347773
 21
1559.535585818539
 31
0.0
  0
LINE
  5
1EA10
330
747D
100
AcDbEntity
  8
細線
 48
50.0
100
AcDbLine
 10
6716.465402626557
 20
1335.535585818539
 30
0.0
 11
6750.76289925774
 21
1463.535585818539
 31
0.0
  0
LINE
  5
1EA11
330
747D
100
AcDbEntity
  8
細線
 48
50.0
100
AcDbLine
 10
6795.353447573801
 20
1335.535585818538
 30
0.0
 11
6829.650944204985
 21
1463.535585818537
 31
0.0
  0
LINE
  5
1EA12
330
747D
100
AcDbEntity
  8
細線
 48
50.0
100
AcDbLine
 10
6637.577357679298
 20
1335.535585818538
 30
0.0
 11
6671.87485431048
 21
1463.535585818537
 31
0.0
  0
LINE
  5
1EA13
330
747D
100
AcDbEntity
  8
部品1
 48
50.0
100
AcDbLine
 10
6589.058653025041
 20
1335.535585818539
 30
0.0
 11
6589.058653025041
 21
1463.535585818539
 31
0.0
  0
LINE
  5
1EA14
330
747D
100
AcDbEntity
  8
細線
 48
50.0
100
AcDbLine
 10
6722.896183244902
 20
1359.535585818539
 30
0.0
 11
6729.32696386325
 21
1335.535585818539
 31
0.0
  0
LINE
  5
1EA15
330
747D
100
AcDbEntity
  8
細線
 48
50.0
100
AcDbLine
 10
6644.008138297651
 20
1359.535585818539
 30
0.0
 11
6650.438918915998
 21
1335.535585818539
 31
0.0
  0
LINE
  5
1EA16
330
747D
100
AcDbEntity
  8
細線
 48
50.0
100
AcDbLine
 10
6880.672273139407
 20
1359.535585818539
 30
0.0
 11
6887.103053757754
 21
1335.535585818539
 31
0.0
  0
LINE
  5
1EA17
330
747D
100
AcDbEntity
  8
細線
 48
50.0
100
AcDbLine
 10
6801.784228192154
 20
1359.535585818539
 30
0.0
 11
6808.215008810501
 21
1335.535585818539
 31
0.0
  0
LINE
  5
1EA18
330
747D
100
AcDbEntity
  8
細線
 48
50.0
100
AcDbLine
 10
6698.797285805324
 20
1463.535585818539
 30
0.0
 11
6794.797285805323
 21
1559.535585818539
 31
0.0
  0
LINE
  5
1EA19
330
747D
100
AcDbEntity
  8
細線
 48
50.0
100
AcDbLine
 10
6671.856517442113
 20
1463.535585818539
 30
0.0
 11
6767.856517442112
 21
1559.535585818539
 31
0.0
  0
LINE
  5
1EA1A
330
747D
100
AcDbEntity
  8
部品1
 48
50.0
100
AcDbLine
 10
6725.05865302504
 20
1575.535585818539
 30
0.0
 11
6725.05865302504
 21
1559.535585818539
 31
0.0
  0
LINE
  5
1EA1B
330
747D
100
AcDbEntity
  8
細線
 48
50.0
100
AcDbLine
 10
6665.44407369214
 20
1439.535585818539
 30
0.0
 11
6659.013293073792
 21
1463.535585818539
 31
0.0
  0
LINE
  5
1EA1C
330
747D
100
AcDbEntity
  8
細線
 48
50.0
100
AcDbLine
 10
6589.05865302504
 20
1448.875506784319
 30
0.0
 11
6592.986809363236
 21
1463.535585818539
 31
0.0
  0
LINE
  5
1EA1D
330
747D
100
AcDbEntity
  8
部品1
 48
50.0
100
AcDbLine
 10
6885.058653025041
 20
1641.662800515662
 30
0.0
 11
6869.05865302504
 21
1641.662800515662
 31
0.0
  0
CIRCLE
  5
1EA1E
330
747D
100
AcDbEntity
  8
部品1
 48
50.0
100
AcDbCircle
 10
6765.05865302504
 20
1583.535585818539
 30
0.0
 40
8.0
  0
LINE
  5
1EA1F
330
747D
100
AcDbEntity
  8
細線
 48
50.0
100
AcDbLine
 10
6837.738054168529
 20
1575.535585818539
 30
0.0
 11
6869.05865302504
 21
1606.856184675051
 31
0.0
  0
ARC
  5
1EA20
330
747D
100
AcDbEntity
  8
部品1
 48
50.0
100
AcDbCircle
 10
6893.058653025041
 20
1583.535585818539
 30
0.0
 40
24.0
100
AcDbArc
 50
180.0
 51
199.4712206344958
  0
LINE
  5
1EA21
330
747D
100
AcDbEntity
  8
細線
 48
50.0
100
AcDbLine
 10
6744.332118639391
 20
1439.535585818539
 30
0.0
 11
6737.901338021045
 21
1463.535585818539
 31
0.0
  0
LINE
  5
1EA22
330
747D
100
AcDbEntity
  8
細線
 48
50.0
100
AcDbLine
 10
6823.220163586644
 20
1439.535585818539
 30
0.0
 11
6816.789382968298
 21
1463.535585818539
 31
0.0
  0
LINE
  5
1EA23
330
747D
100
AcDbEntity
  8
細線
 48
50.0
100
AcDbLine
 10
6725.738054168529
 20
1463.535585818539
 30
0.0
 11
6821.738054168529
 21
1559.535585818539
 31
0.0
  0
LINE
  5
1EA24
330
747D
100
AcDbEntity
  8
部品1
 48
50.0
100
AcDbLine
 10
6869.05865302504
 20
1641.662800515662
 30
0.0
 11
6869.05865302504
 21
1583.535585818539
 31
0.0
  0
LINE
  5
1EA25
330
747D
100
AcDbEntity
  8
細線
 48
50.0
100
AcDbLine
 10
6810.797285805323
 20
1575.535585818539
 30
0.0
 11
6869.05865302504
 21
1633.796953038258
 31
0.0
  0
LINE
  5
1EA26
330
747D
100
AcDbEntity
  8
部品1
 48
50.0
100
AcDbLine
 10
6885.058653025041
 20
1641.662800515662
 30
0.0
 11
6885.058653025041
 21
1583.535585818539
 31
0.0
  0
LINE
  5
1EA27
330
747D
100
AcDbEntity
  8
部品1
 48
50.0
100
AcDbLine
 10
7197.058653025044
 20
1463.535585818539
 30
0.0
 11
7197.058653025044
 21
1335.535585818539
 31
0.0
  0
LINE
  5
1EA28
330
747D
100
AcDbEntity
  8
細線
 48
50.0
100
AcDbLine
 10
7110.905627362794
 20
1335.535585818539
 30
0.0
 11
7145.203123993979
 21
1463.535585818537
 31
0.0
  0
LINE
  5
1EA29
330
747D
100
AcDbEntity
  8
細線
 48
50.0
100
AcDbLine
 10
6953.129537468299
 20
1335.535585818539
 30
0.0
 11
6987.427034099487
 21
1463.535585818537
 31
0.0
  0
LINE
  5
1EA2A
330
747D
100
AcDbEntity
  8
細線
 48
50.0
100
AcDbLine
 10
7032.017582415548
 20
1335.535585818538
 30
0.0
 11
7066.315079046734
 21
1463.535585818537
 31
0.0
  0
LINE
  5
1EA2B
330
747D
100
AcDbEntity
  8
細線
 48
50.0
100
AcDbLine
 10
7038.448363033897
 20
1359.535585818539
 30
0.0
 11
7044.879143652245
 21
1335.535585818539
 31
0.0
  0
LINE
  5
1EA2C
330
747D
100
AcDbEntity
  8
細線
 48
50.0
100
AcDbLine
 10
6959.560318086653
 20
1359.535585818539
 30
0.0
 11
6965.991098705
 21
1335.535585818539
 31
0.0
  0
LINE
  5
1EA2D
330
747D
100
AcDbEntity
  8
細線
 48
50.0
100
AcDbLine
 10
7117.336407981145
 20
1359.535585818539
 30
0.0
 11
7123.767188599493
 21
1335.535585818539
 31
0.0
  0
LINE
  5
1EA2E
330
747D
100
AcDbEntity
  8
細線
 48
50.0
100
AcDbLine
 10
7196.224452928392
 20
1359.535585818539
 30
0.0
 11
7197.05865302504
 21
1356.422308674175
 31
0.0
  0
LINE
  5
1EA2F
330
747D
100
AcDbEntity
  8
細線
 48
50.0
100
AcDbLine
 10
7189.793672310043
 20
1335.535585818538
 30
0.0
 11
7197.05865302504
 21
1362.648862962927
 31
0.0
  0
LINE
  5
1EA30
330
747D
100
AcDbEntity
  8
細線
 48
50.0
100
AcDbLine
 10
7053.264201074188
 20
1575.535585818539
 30
0.0
 11
7117.05865302504
 21
1639.33003776939
 31
0.0
  0
CIRCLE
  5
1EA31
330
747D
100
AcDbEntity
  8
部品1
 48
50.0
100
AcDbCircle
 10
7021.058653025041
 20
1583.535585818539
 30
0.0
 40
8.0
  0
ARC
  5
1EA32
330
747D
100
AcDbEntity
  8
部品1
 48
50.0
100
AcDbCircle
 10
6893.058653025041
 20
1583.535585818539
 30
0.0
 40
24.0
100
AcDbArc
 50
340.5287793655042
 51
0.0
  0
LINE
  5
1EA33
330
747D
100
AcDbEntity
  8
細線
 48
50.0
100
AcDbLine
 10
6902.108208533897
 20
1439.535585818539
 30
0.0
 11
6895.67742791555
 21
1463.535585818539
 31
0.0
  0
LINE
  5
1EA34
330
747D
100
AcDbEntity
  8
細線
 48
50.0
100
AcDbLine
 10
6980.996253481142
 20
1439.535585818539
 30
0.0
 11
6974.565472862797
 21
1463.535585818539
 31
0.0
  0
LINE
  5
1EA35
330
747D
100
AcDbEntity
  8
細線
 48
50.0
100
AcDbLine
 10
6914.323432710983
 20
1463.535585818539
 30
0.0
 11
7010.323432710984
 21
1559.535585818539
 31
0.0
  0
LINE
  5
1EA36
330
747D
100
AcDbEntity
  8
細線
 48
50.0
100
AcDbLine
 10
6941.264201074187
 20
1463.535585818539
 30
0.0
 11
7037.265088919325
 21
1559.536473663678
 31
0.0
  0
LINE
  5
1EA37
330
747D
100
AcDbEntity
  8
部品1
 48
50.0
100
AcDbLine
 10
7061.05865302504
 20
1575.535585818539
 30
0.0
 11
7061.05865302504
 21
1559.535585818539
 31
0.0
  0
LINE
  5
1EA38
330
747D
100
AcDbEntity
  8
細線
 48
50.0
100
AcDbLine
 10
7138.772343375634
 20
1439.535585818539
 30
0.0
 11
7132.341562757287
 21
1463.535585818539
 31
0.0
  0
LINE
  5
1EA39
330
747D
100
AcDbEntity
  8
細線
 48
50.0
100
AcDbLine
 10
7102.908811253434
 20
1463.535585818539
 30
0.0
 11
7117.05865302504
 21
1477.685427590146
 31
0.0
  0
LINE
  5
1EA3A
330
747D
100
AcDbEntity
  8
細線
 48
50.0
100
AcDbLine
 10
7059.884298428388
 20
1439.535585818539
 30
0.0
 11
7053.453517810041
 21
1463.535585818539
 31
0.0
  0
LINE
  5
1EA3B
330
747D
100
AcDbEntity
  8
細線
 48
50.0
100
AcDbLine
 10
6797.05865302504
 20
1777.323099943917
 30
0.0
 11
6901.058653025046
 21
1881.32309994392
 31
0.0
  0
LINE
  5
1EA3C
330
747D
100
AcDbEntity
  8
細線
 48
50.0
100
AcDbLine
 10
6797.05865302504
 20
1804.263868307126
 30
0.0
 11
6901.058653025041
 21
1908.263868307125
 31
0.0
  0
LINE
  5
1EA3D
330
747D
100
AcDbEntity
  8
細線
 48
50.0
100
AcDbLine
 10
6797.05865302504
 20
1750.38233158071
 30
0.0
 11
6901.058653025046
 21
1854.38233158071
 31
0.0
  0
LINE
  5
1EA3E
330
747D
100
AcDbEntity
  8
細線
 48
50.0
100
AcDbLine
 10
6885.058653025041
 20
2053.90847848637
 30
0.0
 11
6901.058653025041
 21
2069.90847848637
 31
0.0
  0
LINE
  5
1EA3F
330
747D
100
AcDbEntity
  8
細線
 48
50.0
100
AcDbLine
 10
6885.058653025041
 20
2080.849246849577
 30
0.0
 11
6901.058653025041
 21
2096.849246849577
 31
0.0
  0
LINE
  5
1EA40
330
747D
100
AcDbEntity
  8
部品1
 48
50.0
100
AcDbLine
 10
6669.058653025039
 20
1703.535585818539
 30
0.0
 11
6797.05865302504
 21
1703.535585818539
 31
0.0
  0
LINE
  5
1EA41
330
747D
100
AcDbEntity
  8
細線
 48
50.0
100
AcDbLine
 10
6669.058653025032
 20
1649.323099943915
 30
0.0
 11
6723.271138899665
 21
1703.535585818539
 31
0.0
  0
LINE
  5
1EA42
330
747D
100
AcDbEntity
  8
細線
 48
50.0
100
AcDbLine
 10
6669.058653025032
 20
1676.263868307125
 30
0.0
 11
6696.330370536454
 21
1703.535585818539
 31
0.0
  0
LINE
  5
1EA43
330
747D
100
AcDbEntity
  8
部品1
 48
50.0
100
AcDbLine
 10
6885.058653025041
 20
2049.662800515662
 30
0.0
 11
6869.05865302504
 21
2049.662800515665
 31
0.0
  0
LINE
  5
1EA44
330
747D
100
AcDbEntity
  8
細線
 48
50.0
100
AcDbLine
 10
6797.05865302504
 20
1965.90847848637
 30
0.0
 11
6880.812975054334
 21
2049.662800515662
 31
0.0
  0
LINE
  5
1EA45
330
747D
100
AcDbEntity
  8
細線
 48
50.0
100
AcDbLine
 10
6797.05865302504
 20
1992.849246849577
 30
0.0
 11
6869.05865302504
 21
2064.849246849577
 31
0.0
  0
LINE
  5
1EA46
330
747D
100
AcDbEntity
  8
部品1
 48
50.0
100
AcDbLine
 10
6869.05865302504
 20
2049.662800515665
 30
0.0
 11
6869.05865302504
 21
2107.790015212785
 31
0.0
  0
LINE
  5
1EA47
330
747D
100
AcDbEntity
  8
細線
 48
50.0
100
AcDbLine
 10
6797.05865302504
 20
2019.790015212785
 30
0.0
 11
6869.05865302504
 21
2091.790015212785
 31
0.0
  0
LINE
  5
1EA48
330
747D
100
AcDbEntity
  8
部品1
 48
50.0
100
AcDbLine
 10
6885.058653025041
 20
2049.662800515662
 30
0.0
 11
6885.058653025041
 21
2107.790015212785
 31
0.0
  0
LINE
  5
1EA49
330
747D
100
AcDbEntity
  8
細線
 48
50.0
100
AcDbLine
 10
6917.058653025046
 20
1870.38233158071
 30
0.0
 11
6989.058653025033
 21
1942.38233158071
 31
0.0
  0
LINE
  5
1EA4A
330
747D
100
AcDbEntity
  8
部品1
 48
50.0
100
AcDbLine
 10
6989.05865302504
 20
1703.535585818539
 30
0.0
 11
7117.05865302504
 21
1703.535585818539
 31
0.0
  0
LINE
  5
1EA4B
330
747D
100
AcDbEntity
  8
細線
 48
50.0
100
AcDbLine
 10
6917.058653025046
 20
1681.79695303826
 30
0.0
 11
6989.058653025033
 21
1753.796953038255
 31
0.0
  0
LINE
  5
1EA4C
330
747D
100
AcDbEntity
  8
細線
 48
50.0
100
AcDbLine
 10
6917.058653025046
 20
1708.737721401468
 30
0.0
 11
6989.058653025033
 21
1780.737721401465
 31
0.0
  0
LINE
  5
1EA4D
330
747D
100
AcDbEntity
  8
細線
 48
50.0
100
AcDbLine
 10
6917.058653025046
 20
1654.856184675051
 30
0.0
 11
6989.058653025033
 21
1726.856184675051
 31
0.0
  0
LINE
  5
1EA4E
330
747D
100
AcDbEntity
  8
細線
 48
50.0
100
AcDbLine
 10
6917.058653025041
 20
1924.263868307125
 30
0.0
 11
6989.05865302504
 21
1996.263868307125
 31
0.0
  0
LINE
  5
1EA4F
330
747D
100
AcDbEntity
  8
細線
 48
50.0
100
AcDbLine
 10
6917.058653025046
 20
1897.32309994392
 30
0.0
 11
6989.058653025033
 21
1969.323099943915
 31
0.0
  0
MTEXT
  5
1EA50
102
{ACAD_REACTORS
330
1E9FB
102
}
330
747D
100
AcDbEntity
  8
寸法
 62
     7
 48
50.0
100
AcDbMText
 10
7230.797108886291
 20
1286.186500086386
 30
0.0
 40
80.0
 41
0.8
 71
     4
 72
     1
  1
\A1;D10@300
  7
STYLE2
 73
     1
 44
1.0
1001
ACAD
1000
MTEXTBEGIN
1070
    73
1070
     1
1070
    44
1040
1.0
1070
    74
1070
     0
1000
MTEXTEND
  0
DIMENSION
  5
1EA51
330
747D
100
AcDbEntity
  8
寸法
 48
50.0
100
AcDbDimension
  2
*D24
 10
6797.05865302504
 20
2667.20339373492
 30
0.0
 11
6893.05865302504
 21
2667.20339373492
 31
0.0
 70
   160
  1
120\P170
 71
     5
 42
192.0
  3
INABA_S40G
100
AcDbAlignedDimension
 13
6989.058653025039
 23
2247.535585818539
 33
0.0
 14
6797.05865302504
 24
2247.535585818539
 34
0.0
100
AcDbRotatedDimension
  0
LINE
  5
1EA52
330
747D
100
AcDbEntity
  8
部品1
 48
50.0
100
AcDbLine
 10
6797.05865302504
 20
2247.535585818539
 30
0.0
 11
6989.05865302504
 21
2247.535585818539
 31
0.0
  0
LINE
  5
1EA53
330
747D
100
AcDbEntity
  8
細線
 48
50.0
100
AcDbLine
 10
6797.05865302504
 20
2208.375393755237
 30
0.0
 11
6836.218845088343
 21
2247.535585818539
 31
0.0
  0
LINE
  5
1EA54
330
747D
100
AcDbEntity
  8
細線
 48
50.0
100
AcDbLine
 10
6797.05865302504
 20
2181.43462539203
 30
0.0
 11
6863.159613451549
 21
2247.535585818539
 31
0.0
  0
LINE
  5
1EA55
330
747D
100
AcDbEntity
  8
細線
 48
50.0
100
AcDbLine
 10
6797.05865302504
 20
2235.316162118444
 30
0.0
 11
6809.278076725135
 21
2247.535585818539
 31
0.0
  0
LINE
  5
1EA56
330
747D
100
AcDbEntity
  8
細線
 48
50.0
100
AcDbLine
 10
6916.611360291027
 20
2112.401954115561
 30
0.0
 11
6989.05865302504
 21
2184.849246849577
 31
0.0
  0
LINE
  5
1EA57
330
747D
100
AcDbEntity
  8
細線
 48
50.0
100
AcDbLine
 10
6905.551075527511
 20
2128.282437715256
 30
0.0
 11
6989.05865302504
 21
2211.790015212785
 31
0.0
  0
LINE
  5
1EA58
330
747D
100
AcDbEntity
  8
細線
 48
50.0
100
AcDbLine
 10
8781.497966202234
 20
2088.663868307128
 30
0.0
 11
8911.097966202232
 21
2218.263868307126
 31
0.0
  0
LINE
  5
1EA59
330
747D
100
AcDbEntity
  8
部品1
100
AcDbLine
 10
8911.097966202232
 20
1703.535585818539
 30
0.0
 11
8911.097966202232
 21
2247.535585818539
 31
0.0
  0
LINE
  5
1EA5A
330
747D
100
AcDbEntity
  8
部品1
 48
50.0
100
AcDbLine
 10
8497.097966202233
 20
1703.535585818539
 30
0.0
 11
8497.097966202233
 21
2247.535585818539
 31
0.0
  0
LINE
  5
1EA5B
330
747D
100
AcDbEntity
  8
細線
 48
50.0
100
AcDbLine
 10
8497.097966202233
 20
2019.790015212785
 30
0.0
 11
8655.497966202231
 21
2178.190015212782
 31
0.0
  0
LINE
  5
1EA5C
330
747D
100
AcDbEntity
  8
細線
 48
50.0
100
AcDbLine
 10
8497.097966202233
 20
1992.849246849577
 30
0.0
 11
8655.497966202231
 21
2151.249246849575
 31
0.0
  0
LINE
  5
1EA5D
330
747D
100
AcDbEntity
  8
細線
 48
50.0
100
AcDbLine
 10
8497.097966202233
 20
1965.90847848637
 30
0.0
 11
8655.497966202231
 21
2124.308478486362
 31
0.0
  0
TEXT
  5
1EA5E
330
747D
100
AcDbEntity
  8
部品1
 48
50.0
100
AcDbText
 10
8082.958064369277
 20
2018.774578101795
 30
0.0
 40
80.0
  1
▽G.L
  7
STYLE2
100
AcDbText
  0
LINE
  5
1EA5F
330
747D
100
AcDbEntity
  8
部品1
100
AcDbLine
 10
8727.497966202234
 20
2022.535585818539
 30
0.0
 11
8727.49796620223
 21
2296.69558581854
 31
0.0
  0
LINE
  5
1EA60
330
747D
100
AcDbEntity
  8
部品1
100
AcDbLine
 10
8709.497966202233
 20
2022.535585818539
 30
0.0
 11
8709.497966202231
 21
2296.69558581854
 31
0.0
  0
LINE
  5
1EA61
330
747D
100
AcDbEntity
  8
細線
 48
50.0
100
AcDbLine
 10
8781.497966202234
 20
2034.782331580698
 30
0.0
 11
8911.097966202232
 21
2164.382331580689
 31
0.0
  0
LINE
  5
1EA62
330
747D
100
AcDbEntity
  8
細線
 48
50.0
100
AcDbLine
 10
8781.497966202234
 20
2061.723099943911
 30
0.0
 11
8911.097966202232
 21
2191.323099943907
 31
0.0
  0
LINE
  5
1EA63
330
747D
100
AcDbEntity
  8
部品1
100
AcDbLine
 10
8781.497966202234
 20
1923.535585818539
 30
0.0
 11
8781.497966202234
 21
2247.535585818539
 31
0.0
  0
LINE
  5
1EA64
330
747D
100
AcDbEntity
  8
部品1
100
AcDbLine
 10
8655.497966202227
 20
1923.535585818539
 30
0.0
 11
8655.497966202235
 21
2247.535585818539
 31
0.0
  0
LINE
  5
1EA65
330
747D
100
AcDbEntity
  8
細線
 48
50.0
100
AcDbLine
 10
8497.097966202233
 20
1777.323099943917
 30
0.0
 11
8655.497966202227
 21
1935.723099943906
 31
0.0
  0
LINE
  5
1EA66
330
747D
100
AcDbEntity
  8
細線
 48
50.0
100
AcDbLine
 10
8497.097966202233
 20
1750.38233158071
 30
0.0
 11
8670.25122044007
 21
1923.535585818537
 31
0.0
  0
LINE
  5
1EA67
330
747D
100
AcDbEntity
  8
細線
 48
50.0
100
AcDbLine
 10
8497.097966202233
 20
1804.263868307126
 30
0.0
 11
8655.497966202227
 21
1962.663868307121
 31
0.0
  0
LINE
  5
1EA68
330
747D
100
AcDbEntity
  8
細線
 48
50.0
100
AcDbLine
 10
8425.777367345723
 20
1463.535585818539
 30
0.0
 11
8911.097966202232
 21
1948.856184675047
 31
0.0
  0
LINE
  5
1EA69
330
747D
100
AcDbEntity
  8
細線
 48
50.0
100
AcDbLine
 10
8398.836598982517
 20
1463.535585818539
 30
0.0
 11
8911.097966202236
 21
1975.796953038253
 31
0.0
  0
LINE
  5
1EA6A
330
747D
100
AcDbEntity
  8
細線
 48
50.0
100
AcDbLine
 10
8371.895830619308
 20
1463.535585818539
 30
0.0
 11
8911.097966202232
 21
2002.737721401465
 31
0.0
  0
LINE
  5
1EA6B
330
747D
100
AcDbEntity
  8
部品1
 48
50.0
100
AcDbLine
 10
9119.097966202238
 20
1463.535585818539
 30
0.0
 11
8289.097966202236
 21
1463.535585818539
 31
0.0
  0
LINE
  5
1EA6C
330
747D
100
AcDbEntity
  8
部品1
 48
50.0
100
AcDbLine
 10
9119.097966202238
 20
1335.535585818539
 30
0.0
 11
8289.097966202236
 21
1335.535585818539
 31
0.0
  0
LINE
  5
1EA6D
330
747D
100
AcDbEntity
  8
細線
 48
50.0
100
AcDbLine
 10
8369.097966202229
 20
1622.38233158071
 30
0.0
 11
8450.251220440064
 21
1703.535585818539
 31
0.0
  0
LINE
  5
1EA6E
330
747D
100
AcDbEntity
  8
部品1
 48
50.0
100
AcDbLine
 10
8369.097966202232
 20
1463.535585818539
 30
0.0
 11
8369.097966202232
 21
1703.535585818539
 31
0.0
  0
LINE
  5
1EA6F
330
747D
100
AcDbEntity
  8
細線
 48
50.0
100
AcDbLine
 10
8416.504715803752
 20
1335.535585818539
 30
0.0
 11
8450.802212434934
 21
1463.535585818539
 31
0.0
  0
LINE
  5
1EA70
330
747D
100
AcDbEntity
  8
部品1
 48
50.0
100
AcDbLine
 10
8289.097966202236
 20
1335.535585818539
 30
0.0
 11
8289.097966202236
 21
1463.535585818539
 31
0.0
  0
LINE
  5
1EA71
330
747D
100
AcDbEntity
  8
細線
 48
50.0
100
AcDbLine
 10
8337.616670856492
 20
1335.535585818538
 30
0.0
 11
8371.914167487675
 21
1463.535585818537
 31
0.0
  0
LINE
  5
1EA72
330
747D
100
AcDbEntity
  8
細線
 48
50.0
100
AcDbLine
 10
8495.392760750998
 20
1335.535585818538
 30
0.0
 11
8529.69025738218
 21
1463.535585818537
 31
0.0
  0
LINE
  5
1EA73
330
747D
100
AcDbEntity
  8
細線
 48
50.0
100
AcDbLine
 10
8344.047451474846
 20
1359.535585818539
 30
0.0
 11
8350.478232093193
 21
1335.535585818539
 31
0.0
  0
LINE
  5
1EA74
330
747D
100
AcDbEntity
  8
細線
 48
50.0
100
AcDbLine
 10
8501.823541369349
 20
1359.535585818539
 30
0.0
 11
8508.254321987697
 21
1335.535585818539
 31
0.0
  0
LINE
  5
1EA75
330
747D
100
AcDbEntity
  8
細線
 48
50.0
100
AcDbLine
 10
8422.935496422098
 20
1359.535585818539
 30
0.0
 11
8429.366277040445
 21
1335.535585818539
 31
0.0
  0
LINE
  5
1EA76
330
747D
100
AcDbEntity
  8
細線
 48
50.0
100
AcDbLine
 10
8289.097966202232
 20
1448.875506784319
 30
0.0
 11
8293.026122540428
 21
1463.535585818539
 31
0.0
  0
LINE
  5
1EA77
330
747D
100
AcDbEntity
  8
細線
 48
50.0
100
AcDbLine
 10
8365.483386869334
 20
1439.535585818539
 30
0.0
 11
8359.052606250989
 21
1463.535585818539
 31
0.0
  0
LINE
  5
1EA78
330
747D
100
AcDbEntity
  8
細線
 48
50.0
100
AcDbLine
 10
8523.259476763838
 20
1439.535585818539
 30
0.0
 11
8516.828696145491
 21
1463.535585818539
 31
0.0
  0
LINE
  5
1EA79
330
747D
100
AcDbEntity
  8
細線
 48
50.0
100
AcDbLine
 10
8444.371431816588
 20
1439.535585818539
 30
0.0
 11
8437.940651198239
 21
1463.535585818539
 31
0.0
  0
LWPOLYLINE
  5
1EA7A
330
747D
100
AcDbEntity
  8
部品1
 48
50.0
100
AcDbPolyline
 90
        2
 70
     0
 43
8.0
 10
8082.958064369277
 20
2007.535585818541
 10
8497.097966202233
 20
2007.535585818541
  0
LINE
  5
1EA7B
330
747D
100
AcDbEntity
  8
細線
 48
50.0
100
AcDbLine
 10
8369.097966202229
 20
1649.323099943915
 30
0.0
 11
8423.310452076858
 21
1703.535585818539
 31
0.0
  0
LINE
  5
1EA7C
330
747D
100
AcDbEntity
  8
部品1
 48
50.0
100
AcDbLine
 10
8369.097966202232
 20
1703.535585818539
 30
0.0
 11
8497.097966202233
 21
1703.535585818539
 31
0.0
  0
LINE
  5
1EA7D
330
747D
100
AcDbEntity
  8
細線
 48
50.0
100
AcDbLine
 10
8369.097966202229
 20
1676.263868307125
 30
0.0
 11
8396.369683713649
 21
1703.535585818539
 31
0.0
  0
LINE
  5
1EA7E
330
747D
100
AcDbEntity
  8
細線
 48
50.0
100
AcDbLine
 10
8614.362745888177
 20
1463.535585818539
 30
0.0
 11
8911.097966202232
 21
1760.270806132592
 31
0.0
  0
LINE
  5
1EA7F
330
747D
100
AcDbEntity
  8
細線
 48
50.0
100
AcDbLine
 10
8641.303514251383
 20
1463.535585818539
 30
0.0
 11
8911.097966202232
 21
1733.330037769397
 31
0.0
  0
LINE
  5
1EA80
330
747D
100
AcDbEntity
  8
細線
 48
50.0
100
AcDbLine
 10
8587.421977524966
 20
1463.535585818539
 30
0.0
 11
8911.097966202232
 21
1787.211574495805
 31
0.0
  0
LINE
  5
1EA81
330
747D
100
AcDbEntity
  8
細線
 48
50.0
100
AcDbLine
 10
8802.948124430626
 20
1463.535585818539
 30
0.0
 11
9039.097966202232
 21
1699.685427590148
 31
0.0
  0
LINE
  5
1EA82
330
747D
100
AcDbEntity
  8
細線
 48
50.0
100
AcDbLine
 10
8829.888892793839
 20
1463.535585818539
 30
0.0
 11
9039.097966202232
 21
1672.744659226932
 31
0.0
  0
LINE
  5
1EA83
330
747D
100
AcDbEntity
  8
部品1
 48
50.0
100
AcDbLine
 10
9039.097966202232
 20
1703.535585818539
 30
0.0
 11
9039.097966202232
 21
1463.535585818539
 31
0.0
  0
LINE
  5
1EA84
330
747D
100
AcDbEntity
  8
細線
 48
50.0
100
AcDbLine
 10
8856.829661157041
 20
1463.535585818539
 30
0.0
 11
9039.097966202232
 21
1645.803890863735
 31
0.0
  0
LINE
  5
1EA85
330
747D
100
AcDbEntity
  8
細線
 48
50.0
100
AcDbLine
 10
8732.056895592744
 20
1335.535585818538
 30
0.0
 11
8766.354392223925
 21
1463.535585818537
 31
0.0
  0
LINE
  5
1EA86
330
747D
100
AcDbEntity
  8
細線
 48
50.0
100
AcDbLine
 10
8574.280805698249
 20
1335.535585818539
 30
0.0
 11
8608.578302329432
 21
1463.535585818539
 31
0.0
  0
LINE
  5
1EA87
330
747D
100
AcDbEntity
  8
細線
 48
50.0
100
AcDbLine
 10
8653.168850645496
 20
1335.535585818539
 30
0.0
 11
8687.46634727668
 21
1463.535585818537
 31
0.0
  0
LINE
  5
1EA88
330
747D
100
AcDbEntity
  8
細線
 48
50.0
100
AcDbLine
 10
8810.944940539988
 20
1335.535585818539
 30
0.0
 11
8845.242437171171
 21
1463.535585818537
 31
0.0
  0
LINE
  5
1EA89
330
747D
100
AcDbEntity
  8
細線
 48
50.0
100
AcDbLine
 10
8659.599631263848
 20
1359.535585818539
 30
0.0
 11
8666.030411882195
 21
1335.535585818539
 31
0.0
  0
LINE
  5
1EA8A
330
747D
100
AcDbEntity
  8
細線
 48
50.0
100
AcDbLine
 10
8580.711586316601
 20
1359.535585818539
 30
0.0
 11
8587.142366934948
 21
1335.535585818539
 31
0.0
  0
LINE
  5
1EA8B
330
747D
100
AcDbEntity
  8
細線
 48
50.0
100
AcDbLine
 10
8817.37572115834
 20
1359.535585818539
 30
0.0
 11
8823.806501776685
 21
1335.535585818539
 31
0.0
  0
LINE
  5
1EA8C
330
747D
100
AcDbEntity
  8
細線
 48
50.0
100
AcDbLine
 10
8738.487676211095
 20
1359.535585818539
 30
0.0
 11
8744.91845682944
 21
1335.535585818539
 31
0.0
  0
LINE
  5
1EA8D
330
747D
100
AcDbEntity
  8
細線
 48
50.0
100
AcDbLine
 10
8681.035566658335
 20
1439.535585818539
 30
0.0
 11
8674.604786039989
 21
1463.535585818539
 31
0.0
  0
LINE
  5
1EA8E
330
747D
100
AcDbEntity
  8
細線
 48
50.0
100
AcDbLine
 10
8602.147521711088
 20
1439.535585818539
 30
0.0
 11
8595.716741092743
 21
1463.535585818539
 31
0.0
  0
LINE
  5
1EA8F
330
747D
100
AcDbEntity
  8
細線
 48
50.0
100
AcDbLine
 10
8759.923611605584
 20
1439.535585818539
 30
0.0
 11
8753.492830987235
 21
1463.535585818539
 31
0.0
  0
LINE
  5
1EA90
330
747D
100
AcDbEntity
  8
細線
 48
50.0
100
AcDbLine
 10
8838.811656552829
 20
1439.535585818539
 30
0.0
 11
8832.380875934482
 21
1463.535585818539
 31
0.0
  0
LINE
  5
1EA91
330
747D
100
AcDbEntity
  8
部品1
 48
50.0
100
AcDbLine
 10
9119.097966202238
 20
1463.535585818539
 30
0.0
 11
9119.097966202238
 21
1335.535585818539
 31
0.0
  0
LINE
  5
1EA92
330
747D
100
AcDbEntity
  8
細線
 48
50.0
100
AcDbLine
 10
9047.609075381727
 20
1335.535585818538
 30
0.0
 11
9081.906572012915
 21
1463.535585818537
 31
0.0
  0
LINE
  5
1EA93
330
747D
100
AcDbEntity
  8
細線
 48
50.0
100
AcDbLine
 10
8889.832985487236
 20
1335.535585818538
 30
0.0
 11
8924.13048211841
 21
1463.535585818539
 31
0.0
  0
LINE
  5
1EA94
330
747D
100
AcDbEntity
  8
細線
 48
50.0
100
AcDbLine
 10
8968.721030434485
 20
1335.535585818537
 30
0.0
 11
9003.018527065668
 21
1463.535585818537
 31
0.0
  0
LINE
  5
1EA95
330
747D
100
AcDbEntity
  8
細線
 48
50.0
100
AcDbLine
 10
8896.263766105585
 20
1359.535585818539
 30
0.0
 11
8902.694546723942
 21
1335.535585818539
 31
0.0
  0
LINE
  5
1EA96
330
747D
100
AcDbEntity
  8
細線
 48
50.0
100
AcDbLine
 10
8975.151811052834
 20
1359.535585818538
 30
0.0
 11
8981.58259167118
 21
1335.535585818538
 31
0.0
  0
LINE
  5
1EA97
330
747D
100
AcDbEntity
  8
細線
 48
50.0
100
AcDbLine
 10
9054.039856000079
 20
1359.535585818538
 30
0.0
 11
9060.470636618427
 21
1335.535585818538
 31
0.0
  0
LINE
  5
1EA98
330
747D
100
AcDbEntity
  8
細線
 48
50.0
100
AcDbLine
 10
8917.699701500067
 20
1439.535585818539
 30
0.0
 11
8911.268920881719
 21
1463.535585818539
 31
0.0
  0
LINE
  5
1EA99
330
747D
100
AcDbEntity
  8
細線
 48
50.0
100
AcDbLine
 10
8996.587746447323
 20
1439.535585818537
 30
0.0
 11
8990.156965828978
 21
1463.535585818537
 31
0.0
  0
LINE
  5
1EA9A
330
747D
100
AcDbEntity
  8
細線
 48
50.0
100
AcDbLine
 10
9075.475791394568
 20
1439.535585818537
 30
0.0
 11
9069.045010776223
 21
1463.535585818537
 31
0.0
  0
LINE
  5
1EA9B
330
747D
100
AcDbEntity
  8
部品1
100
AcDbLine
 10
8781.497966202234
 20
1923.535585818537
 30
0.0
 11
8655.497966202227
 21
1923.535585818537
 31
0.0
  0
LINE
  5
1EA9C
330
747D
100
AcDbEntity
  8
部品1
100
AcDbLine
 10
8763.497966202235
 20
2004.53558581854
 30
0.0
 11
8763.497966202235
 21
2022.535585818539
 31
0.0
  0
ARC
  5
1EA9D
330
747D
100
AcDbEntity
  8
部品1
100
AcDbCircle
 10
8727.497966202234
 20
2022.535585818539
 30
0.0
 40
18.0
100
AcDbArc
 50
180.0
 51
270.0
  0
LINE
  5
1EA9E
330
747D
100
AcDbEntity
  8
部品1
100
AcDbLine
 10
8727.497966202234
 20
2004.53558581854
 30
0.0
 11
8763.497966202235
 21
2004.53558581854
 31
0.0
  0
LINE
  5
1EA9F
330
747D
100
AcDbEntity
  8
部品1
100
AcDbLine
 10
8727.497966202234
 20
2022.535585818539
 30
0.0
 11
8763.497966202235
 21
2022.535585818539
 31
0.0
  0
LINE
  5
1EAA0
330
747D
100
AcDbEntity
  8
部品1
 48
50.0
100
AcDbLine
 10
8911.097966202232
 20
1703.535585818539
 30
0.0
 11
9039.097966202232
 21
1703.535585818539
 31
0.0
  0
LINE
  5
1EAA1
330
747D
100
AcDbEntity
  8
部品1
100
AcDbLine
 10
8516.897966202234
 20
2337.535585818539
 30
0.0
 11
8554.697966202235
 21
2337.535585818539
 31
0.0
  0
LINE
  5
1EAA2
330
747D
100
AcDbEntity
  8
細線
 48
50.0
100
AcDbLine
 10
8497.097966202233
 20
2208.375393755237
 30
0.0
 11
8536.258158265541
 21
2247.535585818539
 31
0.0
  0
LINE
  5
1EAA3
330
747D
100
AcDbEntity
  8
細線
 48
50.0
100
AcDbLine
 10
8497.097966202233
 20
2181.43462539203
 30
0.0
 11
8563.198926628743
 21
2247.535585818539
 31
0.0
  0
LINE
  5
1EAA4
330
747D
100
AcDbEntity
  8
部品1
 48
50.0
100
AcDbLine
 10
8497.097966202233
 20
2247.535585818539
 30
0.0
 11
8911.097966202236
 21
2247.535585818539
 31
0.0
  0
TEXT
  5
1EAA5
330
747D
100
AcDbEntity
  8
部品1
 48
50.0
100
AcDbText
 10
8070.651869622741
 20
2578.096106919015
 30
0.0
 40
80.0
  1
※(別売)
  7
STYLE2
100
AcDbText
  0
LINE
  5
1EAA6
330
747D
100
AcDbEntity
  8
部品1
100
AcDbLine
 10
8514.197966202235
 20
2326.735585818539
 30
0.0
 11
8514.197966202235
 21
2334.83558581854
 31
0.0
  0
ARC
  5
1EAA7
330
747D
100
AcDbEntity
  8
部品1
100
AcDbCircle
 10
8516.897966202234
 20
2334.83558581854
 30
0.0
 40
2.7
100
AcDbArc
 50
90.0
 51
180.0
  0
ARC
  5
1EAA8
330
747D
100
AcDbEntity
  8
部品1
100
AcDbCircle
 10
8506.097966202233
 20
2321.927489521248
 30
0.0
 40
2.7
100
AcDbArc
 50
104.0362434679059
 51
180.0
  0
LINE
  5
1EAA9
330
747D
100
AcDbEntity
  8
部品1
100
AcDbLine
 10
8505.443120014636
 20
2324.546874271639
 30
0.0
 11
8514.197966202235
 21
2326.735585818539
 31
0.0
  0
ARC
  5
1EAAA
330
747D
100
AcDbEntity
  8
部品1
100
AcDbCircle
 10
8506.097966202233
 20
2259.79558581854
 30
0.0
 40
2.7
100
AcDbArc
 50
180.0
 51
270.0
  0
LINE
  5
1EAAB
330
747D
100
AcDbEntity
  8
細線
 48
50.0
100
AcDbLine
 10
8497.097966202233
 20
2235.316162118444
 30
0.0
 11
8509.317389902328
 21
2247.535585818539
 31
0.0
  0
LINE
  5
1EAAC
330
747D
100
AcDbEntity
  8
部品1
100
AcDbLine
 10
8506.097966202233
 20
2257.09558581854
 30
0.0
 11
8517.797966202229
 21
2257.09558581854
 31
0.0
  0
LINE
  5
1EAAD
330
747D
100
AcDbEntity
  8
部品1
100
AcDbLine
 10
8503.397966202234
 20
2259.79558581854
 30
0.0
 11
8503.397966202234
 21
2321.927489521248
 31
0.0
  0
LINE
  5
1EAAE
330
747D
100
AcDbEntity
  8
部品1
100
AcDbLine
 10
8662.057966202228
 20
2257.09558581854
 30
0.0
 11
8863.397966202228
 21
2257.09558581854
 31
0.0
  0
LINE
  5
1EAAF
330
747D
100
AcDbEntity
  8
部品1
100
AcDbLine
 10
8554.697966202235
 20
2337.535585818539
 30
0.0
 11
8554.697966202235
 21
2345.63558581854
 31
0.0
  0
LINE
  5
1EAB0
330
747D
100
AcDbEntity
  8
部品1
100
AcDbLine
 10
8605.097966202233
 20
2356.435585818536
 30
0.0
 11
8605.097966202233
 21
2305.13558581854
 31
0.0
  0
LINE
  5
1EAB1
330
747D
100
AcDbEntity
  8
部品1
100
AcDbLine
 10
8628.497966202234
 20
2317.09558581854
 30
0.0
 11
8656.657966202235
 21
2317.09558581854
 31
0.0
  0
ARC
  5
1EAB2
330
747D
100
AcDbEntity
  8
部品1
100
AcDbCircle
 10
8628.497966202234
 20
2314.39558581854
 30
0.0
 40
2.7
100
AcDbArc
 50
90.0
 51
180.0
  0
ARC
  5
1EAB3
330
747D
100
AcDbEntity
  8
部品1
100
AcDbCircle
 10
8656.657966202235
 20
2314.39558581854
 30
0.0
 40
2.7
100
AcDbArc
 50
0.0
 51
90.0
  0
LINE
  5
1EAB4
330
747D
100
AcDbEntity
  8
部品1
100
AcDbLine
 10
8647.397966202234
 20
2302.435585818539
 30
0.0
 11
8647.397966202234
 21
2259.79558581854
 31
0.0
  0
LINE
  5
1EAB5
330
747D
100
AcDbEntity
  8
部品1
100
AcDbLine
 10
8632.997966202234
 20
2257.09558581854
 30
0.0
 11
8644.697966202235
 21
2257.09558581854
 31
0.0
  0
ARC
  5
1EAB6
330
747D
100
AcDbEntity
  8
部品1
100
AcDbCircle
 10
8662.057966202228
 20
2259.79558581854
 30
0.0
 40
2.7
100
AcDbArc
 50
180.0
 51
270.0
  0
ARC
  5
1EAB7
330
747D
100
AcDbEntity
  8
部品1
100
AcDbCircle
 10
8644.697966202235
 20
2259.79558581854
 30
0.0
 40
2.7
100
AcDbArc
 50
270.0
 51
0.0
  0
LINE
  5
1EAB8
330
747D
100
AcDbEntity
  8
部品1
100
AcDbLine
 10
8605.097966202233
 20
2305.13558581854
 30
0.0
 11
8644.697966202235
 21
2305.13558581854
 31
0.0
  0
ARC
  5
1EAB9
330
747D
100
AcDbEntity
  8
部品1
100
AcDbCircle
 10
8644.697966202235
 20
2302.435585818539
 30
0.0
 40
2.7
100
AcDbArc
 50
0.0
 51
90.0
  0
LINE
  5
1EABA
330
747D
100
AcDbEntity
  8
部品1
100
AcDbLine
 10
8659.357966202234
 20
2314.39558581854
 30
0.0
 11
8659.357966202231
 21
2259.79558581854
 31
0.0
  0
LINE
  5
1EABB
330
747D
100
AcDbEntity
  8
部品1
100
AcDbLine
 10
8625.797966202233
 20
2314.39558581854
 30
0.0
 11
8625.797966202233
 21
2297.29558581854
 31
0.0
  0
LINE
  5
1EABC
330
747D
100
AcDbEntity
  8
細線
100
AcDbLine
 10
8723.897966202235
 20
2257.09558581854
 30
0.0
 11
8723.897966202235
 21
2300.29558581854
 31
0.0
  0
LINE
  5
1EABD
330
747D
100
AcDbEntity
  8
細線
100
AcDbLine
 10
8713.097966202237
 20
2257.09558581854
 30
0.0
 11
8713.097966202232
 21
2300.29558581854
 31
0.0
  0
LINE
  5
1EABE
330
747D
100
AcDbEntity
  8
部品1
100
AcDbLine
 10
8709.497966202233
 20
2296.69558581854
 30
0.0
 11
8727.497966202234
 21
2296.69558581854
 31
0.0
  0
LINE
  5
1EABF
330
747D
100
AcDbEntity
  8
部品1
100
AcDbLine
 10
8713.097966202232
 20
2300.29558581854
 30
0.0
 11
8723.897966202235
 21
2300.29558581854
 31
0.0
  0
ELLIPSE
  5
1EAC0
330
747D
100
AcDbEntity
  8
部品1
 48
50.0
100
AcDbEllipse
 10
8718.497966202233
 20
2516.658874262812
 30
0.0
 11
40.0
 21
0.0
 31
0.0
210
0.0
220
0.0
230
1.0
 40
0.4
 41
0.0
 42
6.283185307179586
  0
ELLIPSE
  5
1EAC1
330
747D
100
AcDbEntity
  8
部品1
 48
50.0
100
AcDbEllipse
 10
8718.497966202233
 20
2507.058874262813
 30
0.0
 11
40.0
 21
0.0
 31
0.0
210
0.0
220
0.0
230
1.0
 40
0.4
 41
3.141592653589793
 42
6.283185307179586
  0
LINE
  5
1EAC2
330
747D
100
AcDbEntity
  8
部品1
 48
50.0
100
AcDbLine
 10
8678.497966202234
 20
2516.658874262812
 30
0.0
 11
8678.497966202234
 21
2507.058874262812
 31
0.0
  0
ARC
  5
1EAC3
330
747D
100
AcDbEntity
  8
部品1
100
AcDbCircle
 10
8602.397966202234
 20
2356.435585818536
 30
0.0
 40
2.7
100
AcDbArc
 50
0.0
 51
90.0
  0
ARC
  5
1EAC4
330
747D
100
AcDbEntity
  8
部品1
100
AcDbCircle
 10
8560.097966202233
 20
2356.435585818539
 30
0.0
 40
2.7
100
AcDbArc
 50
90.0
 51
180.0
  0
LINE
  5
1EAC5
330
747D
100
AcDbEntity
  8
部品1
100
AcDbLine
 10
8557.397966202234
 20
2348.33558581854
 30
0.0
 11
8557.397966202234
 21
2348.33558581854
 31
0.0
  0
LINE
  5
1EAC6
330
747D
100
AcDbEntity
  8
部品1
100
AcDbLine
 10
8557.397966202234
 20
2348.33558581854
 30
0.0
 11
8557.397966202234
 21
2356.435585818539
 31
0.0
  0
LINE
  5
1EAC7
330
747D
100
AcDbEntity
  8
部品1
100
AcDbLine
 10
8560.097966202233
 20
2359.13558581854
 30
0.0
 11
8602.397966202234
 21
2359.135585818536
 31
0.0
  0
ARC
  5
1EAC8
330
747D
100
AcDbEntity
  8
部品1
100
AcDbCircle
 10
8557.397966202234
 20
2345.63558581854
 30
0.0
 40
2.7
100
AcDbArc
 50
90.0
 51
180.0
  0
ELLIPSE
  5
1EAC9
330
747D
100
AcDbEntity
  8
部品1
 48
50.0
100
AcDbEllipse
 10
8718.497966202233
 20
2516.658874262812
 30
0.0
 11
18.4
 21
0.0
 31
0.0
210
0.0
220
0.0
230
1.0
 40
0.3478260869565217
 41
0.0
 42
6.283185307179586
  0
LINE
  5
1EACA
330
747D
100
AcDbEntity
  8
部品1
 48
50.0
100
AcDbLine
 10
8758.497966202234
 20
2507.058874262812
 30
0.0
 11
8758.497966202234
 21
2516.658874262812
 31
0.0
  0
LINE
  5
1EACB
330
747D
100
AcDbEntity
  8
部品1
 48
50.0
100
AcDbLine
 10
8686.497966202235
 20
2638.410866927682
 30
0.0
 11
8702.497966202235
 21
2630.410866927682
 31
0.0
  0
LINE
  5
1EACC
330
747D
100
AcDbEntity
  8
部品1
 48
50.0
100
AcDbLine
 10
8686.497966202235
 20
2606.410866927682
 30
0.0
 11
8702.497966202235
 21
2598.410866927682
 31
0.0
  0
LINE
  5
1EACD
330
747D
100
AcDbEntity
  8
部品1
 48
50.0
100
AcDbLine
 10
8686.497966202235
 20
2638.410866927682
 30
0.0
 11
8702.497966202235
 21
2646.410866927682
 31
0.0
  0
LINE
  5
1EACE
330
747D
100
AcDbEntity
  8
部品1
 48
50.0
100
AcDbLine
 10
8686.497966202235
 20
2606.410866927682
 30
0.0
 11
8686.497966202235
 21
2638.410866927682
 31
0.0
  0
LINE
  5
1EACF
330
747D
100
AcDbEntity
  8
部品1
 48
50.0
100
AcDbLine
 10
8702.497966202235
 20
2646.410866927682
 30
0.0
 11
8734.497966202233
 21
2646.410866927682
 31
0.0
  0
ELLIPSE
  5
1EAD0
330
747D
100
AcDbEntity
  8
細線
 48
50.0
100
AcDbEllipse
 10
8718.497966202233
 20
2638.410866927682
 30
0.0
 11
14.76670786606846
 21
0.0
 31
0.0
210
0.0
220
0.0
230
1.0
 40
0.2071254069489396
 41
0.0
 42
6.283185307179586
  0
LINE
  5
1EAD1
330
747D
100
AcDbEntity
  8
部品1
 48
50.0
100
AcDbLine
 10
8702.497966202235
 20
2598.410866927682
 30
0.0
 11
8734.497966202233
 21
2598.410866927682
 31
0.0
  0
LINE
  5
1EAD2
330
747D
100
AcDbEntity
  8
部品1
 48
50.0
100
AcDbLine
 10
8734.497966202233
 20
2598.410866927682
 30
0.0
 11
8750.497966202235
 21
2606.410866927682
 31
0.0
  0
LINE
  5
1EAD3
330
747D
100
AcDbEntity
  8
部品1
 48
50.0
100
AcDbLine
 10
8702.497966202235
 20
2630.410866927682
 30
0.0
 11
8734.497966202233
 21
2630.410866927682
 31
0.0
  0
LINE
  5
1EAD4
330
747D
100
AcDbEntity
  8
部品1
 48
50.0
100
AcDbLine
 10
8734.497966202233
 20
2630.410866927682
 30
0.0
 11
8750.497966202235
 21
2638.410866927682
 31
0.0
  0
LINE
  5
1EAD5
330
747D
100
AcDbEntity
  8
細線
 48
50.0
100
AcDbLine
 10
8734.497966202233
 20
2598.410866927682
 30
0.0
 11
8734.497966202233
 21
2630.410866927682
 31
0.0
  0
LINE
  5
1EAD6
330
747D
100
AcDbEntity
  8
部品1
 48
50.0
100
AcDbLine
 10
8750.497966202235
 20
2606.410866927682
 30
0.0
 11
8750.497966202235
 21
2638.410866927682
 31
0.0
  0
LINE
  5
1EAD7
330
747D
100
AcDbEntity
  8
細線
 48
50.0
100
AcDbLine
 10
8702.497966202235
 20
2598.410866927682
 30
0.0
 11
8702.497966202235
 21
2630.410866927682
 31
0.0
  0
LINE
  5
1EAD8
330
747D
100
AcDbEntity
  8
部品1
 48
50.0
100
AcDbLine
 10
8734.497966202233
 20
2646.410866927682
 30
0.0
 11
8750.497966202235
 21
2638.410866927682
 31
0.0
  0
TEXT
  5
1EAD9
330
747D
100
AcDbEntity
  8
部品1
100
AcDbText
 10
7706.328972479792
 20
3388.955273643956
 30
0.0
 40
120.0
  1
基礎詳細
  7
STYLE2
100
AcDbText
  0
LINE
  5
1EADA
330
747D
100
AcDbEntity
  8
部品1
100
AcDbLine
 10
10377.63811485402
 20
721.3593351244051
 30
0.0
 11
10377.63811485402
 21
3568.507205595385
 31
0.0
  0
TEXT
  5
1EAE3
330
747D
100
AcDbEntity
  8
部品1
 48
50.0
100
AcDbText
 10
9846.51581174649
 20
1740.73584518123
 30
0.0
 40
80.0
  1
ボルトの出
 50
90.0
  7
STYLE2
100
AcDbText
  0
HATCH
  5
1EC0E
330
747D
100
AcDbEntity
  8
細線
 48
50.0
100
AcDbHatch
 10
0.0
 20
0.0
 30
0.0
210
0.0
220
0.0
230
1.0
  2
LINE
 70
     0
 71
     0
 91
        1
 92
        7
 72
     0
 73
     1
 93
        4
 10
9123.599999999999
 20
6079.999999999991
 10
9003.599999999998
 20
6079.999999999992
 10
9003.599999999998
 20
5879.999999999991
 10
9123.599999999999
 20
5879.999999999991
 97
        0
 75
     0
 76
     1
 52
45.0
 41
10.0
 77
     0
 78
     1
 53
45.0
 43
0.0
 44
0.0
 45
-22.45064030267288
 46
22.45064030267288
 79
     0
 47
2.910811509441834
 98
        1
 10
9077.714330396979
 20
6011.32881808008
  0
HATCH
  5
1EC25
330
747D
100
AcDbEntity
  8
細線
 48
50.0
100
AcDbHatch
 10
0.0
 20
0.0
 30
0.0
210
0.0
220
0.0
230
1.0
  2
LINE
 70
     0
 71
     0
 91
        1
 92
        7
 72
     0
 73
     1
 93
        4
 10
8323.599999999998
 20
6459.999999999991
 10
8123.599999999999
 20
6459.999999999992
 10
8123.599999999999
 20
6339.99999999999
 10
8323.599999999998
 20
6339.99999999999
 97
        0
 75
     0
 76
     1
 52
45.0
 41
10.0
 77
     0
 78
     1
 53
45.0
 43
0.0
 44
0.0
 45
-22.45064030267288
 46
22.45064030267288
 79
     0
 47
2.910811509441834
 98
        1
 10
8230.308029702888
 20
6375.180245738199
  0
HATCH
  5
1EC3C
330
747D
100
AcDbEntity
  8
細線
 48
50.0
100
AcDbHatch
 10
0.0
 20
0.0
 30
0.0
210
0.0
220
0.0
230
1.0
  2
LINE
 70
     0
 71
     0
 91
        1
 92
        7
 72
     0
 73
     1
 93
        4
 10
7443.599999999999
 20
6079.999999999991
 10
7323.599999999998
 20
6079.999999999991
 10
7323.599999999998
 20
5879.999999999991
 10
7443.599999999999
 20
5879.999999999991
 97
        0
 75
     0
 76
     1
 52
45.0
 41
10.0
 77
     0
 78
     1
 53
45.0
 43
0.0
 44
0.0
 45
-22.45064030267288
 46
22.45064030267288
 79
     0
 47
2.910811509441834
 98
        1
 10
7417.84635283061
 20
5950.201762389665
  0
ENDSEC
  0
SECTION
  2
OBJECTS
  0
DICTIONARY
  5
7471
330
0
100
AcDbDictionary
281
     1
  3
ACAD_COLOR
350
159B0
  3
ACAD_GROUP
350
7472
  3
ACAD_LAYOUT
350
159B1
  3
ACAD_MATERIAL
350
159AF
  3
ACAD_MLINESTYLE
350
7473
  3
ACAD_PLOTSETTINGS
350
159B2
  3
ACAD_PLOTSTYLENAME
350
159AD
  3
ACDBHEADERROUNDTRIPXREC
350
1ED59
  3
AcDbVariableDictionary
350
1E83B
  3
CONTENTDICTIONARY
350
E71C
  3
DRAWINGVARIABLESDICT
350
F3B9
  0
DICTIONARY
  5
1E899
330
7467
100
AcDbDictionary
280
     1
281
     1
  3
ACAD_LAYERSTATES
360
1E89A
  0
DICTIONARY
  5
159B0
102
{ACAD_REACTORS
330
7471
102
}
330
7471
100
AcDbDictionary
281
     1
  0
DICTIONARY
  5
7472
102
{ACAD_REACTORS
330
7471
102
}
330
7471
100
AcDbDictionary
281
     1
  0
DICTIONARY
  5
159B1
102
{ACAD_REACTORS
330
7471
102
}
330
7471
100
AcDbDictionary
281
     1
  3
Model
350
159B3
  3
レイアウト1
350
159B4
  0
DICTIONARY
  5
159AF
102
{ACAD_REACTORS
330
7471
102
}
330
7471
100
AcDbDictionary
281
     1
  0
DICTIONARY
  5
7473
102
{ACAD_REACTORS
330
7471
102
}
330
7471
100
AcDbDictionary
281
     1
  3
STANDARD
350
7480
  0
DICTIONARY
  5
159B2
102
{ACAD_REACTORS
330
7471
102
}
330
7471
100
AcDbDictionary
281
     1
  0
ACDBDICTIONARYWDFLT
  5
159AD
102
{ACAD_REACTORS
330
7471
102
}
330
7471
100
AcDbDictionary
281
     1
  3
Normal
350
159AE
100
AcDbDictionaryWithDefault
340
159AE
  0
DICTIONARY
  5
1ED59
102
{ACAD_REACTORS
330
7471
102
}
330
7471
100
AcDbDictionary
281
     1
  3
COLORDICT
350
1ED5B
  3
MATERIALDICT
350
1ED5A
  0
DICTIONARY
  5
1E83B
102
{ACAD_REACTORS
330
7471
102
}
330
7471
100
AcDbDictionary
281
     1
  3
DIMASSOC
350
1E83C
  3
PROJECTNAME
350
1E83D
  0
DICTIONARY
  5
E71C
102
{ACAD_REACTORS
330
7471
102
}
330
7471
100
AcDbDictionary
281
     1
  0
DICTIONARY
  5
F3B9
102
{ACAD_REACTORS
330
7471
102
}
330
7471
100
AcDbDictionary
281
     1
1001
DRAWINGVARIABLESXDATA
1000
POLARMODE
1000
1
  0
DICTIONARY
  5
1E89A
102
{ACAD_REACTORS
330
1E899
102
}
330
1E899
100
AcDbDictionary
281
     1
  0
LAYOUT
  5
159B3
102
{ACAD_XDICTIONARY
360
1ED5C
102
}
102
{ACAD_REACTORS
330
159B1
102
}
330
159B1
100
AcDbPlotSettings
  1

  2
クセロPDF
  4
A3
  6

 40
3.174999952316284
 41
3.174999952316284
 42
3.17498779296875
 43
3.17498779296875
 44
419.9466552734374
 45
296.9259948730469
 46
0.0
 47
0.0
 48
0.0
 49
0.0
140
0.0
141
0.0
142
1.0
143
40.88431153497317
 70
 11952
 72
     1
 73
     0
 74
     2
  7
inaba.ctb
 75
     0
147
0.0244592598592392
148
0.0
149
0.0
100
AcDbLayout
  1
Model
 70
     1
 71
     0
 10
0.0
 20
0.0
 11
12.0
 21
9.0
 12
0.0
 22
0.0
 32
0.0
 14
0.0
 24
0.0
 34
0.0
 15
0.0
 25
0.0
 35
0.0
146
0.0
 13
0.0
 23
0.0
 33
0.0
 16
1.0
 26
0.0
 36
0.0
 17
0.0
 27
1.0
 37
0.0
 76
     0
330
747D
  0
LAYOUT
  5
159B4
102
{ACAD_XDICTIONARY
360
1ED5E
102
}
102
{ACAD_REACTORS
330
159B1
102
}
330
159B1
100
AcDbPlotSettings
  1

  2
自動 EPSON LP-8400FX (TATENO 上)
  4

  6

 40
0.0
 41
0.0
 42
0.0
 43
0.0
 44
0.0
 45
0.0
 46
0.0
 47
0.0
 48
0.0
 49
0.0
140
0.0
141
0.0
142
1.0
143
1.0
 70
   688
 72
     0
 73
     0
 74
     5
  7
inaba.ctb
 75
    16
147
1.0
148
0.0
149
0.0
100
AcDbLayout
  1
レイアウト1
 70
     0
 71
     1
 10
0.0
 20
0.0
 11
420.0
 21
297.0
 12
0.0
 22
0.0
 32
0.0
 14
1.000000000000000E+20
 24
1.000000000000000E+20
 34
1.000000000000000E+20
 15
-1.000000000000000E+20
 25
-1.000000000000000E+20
 35
-1.000000000000000E+20
146
0.0
 13
0.0
 23
0.0
 33
0.0
 16
1.0
 26
0.0
 36
0.0
 17
0.0
 27
1.0
 37
0.0
 76
     0
330
747A
  0
MLINESTYLE
  5
7480
102
{ACAD_REACTORS
330
7473
102
}
330
7473
100
AcDbMlineStyle
  2
STANDARD
 70
     0
  3

 62
     0
 51
90.0
 52
90.0
 71
     2
 49
0.5
 62
   256
  6
BYLAYER
 49
-0.5
 62
   256
  6
BYLAYER
  0
ACDBPLACEHOLDER
  5
159AE
102
{ACAD_REACTORS
330
159AD
102
}
330
159AD
  0
XRECORD
  5
1ED5B
102
{ACAD_REACTORS
330
1ED59
102
}
330
1ED59
100
AcDbXrecord
280
     1
340
159B0
  0
XRECORD
  5
1ED5A
102
{ACAD_REACTORS
330
1ED59
102
}
330
1ED59
100
AcDbXrecord
280
     1
340
159AF
  0
DICTIONARYVAR
  5
1E83C
102
{ACAD_REACTORS
330
1E83B
102
}
330
1E83B
100
DictionaryVariables
280
     0
  1
1
  0
DICTIONARYVAR
  5
1E83D
102
{ACAD_REACTORS
330
1E83B
102
}
330
1E83B
100
DictionaryVariables
280
     0
  1

  0
DICTIONARY
  5
1ED5C
330
159B3
100
AcDbDictionary
280
     1
281
     1
  3
ACAD_XREC_ROUNDTRIP
360
1ED5D
  0
DICTIONARY
  5
1ED5E
330
159B4
100
AcDbDictionary
280
     1
281
     1
  3
ACAD_XREC_ROUNDTRIP
360
1ED5F
  0
XRECORD
  5
1ED5D
102
{ACAD_REACTORS
330
1ED5C
102
}
330
1ED5C
100
AcDbXrecord
280
     1
102
SHADEPLOT
 70
     0
102
SHADEPLOTRESLEVEL
 70
     2
102
SHADEPLOTCUSTOMDPI
 70
   150
  0
XRECORD
  5
1ED5F
102
{ACAD_REACTORS
330
1ED5E
102
}
330
1ED5E
100
AcDbXrecord
280
     1
102
SHADEPLOT
 70
     0
102
SHADEPLOTRESLEVEL
 70
     2
102
SHADEPLOTCUSTOMDPI
 70
   300
  0
ENDSEC
  0
EOF
