  0
SECTION
  2
HEADER
  9
$ACADVER
  1
AC1015
  9
$ACADMAINTVER
 70
    20
  9
$DWGCODEPAGE
  3
ANSI_932
  9
$INSBASE
 10
0.0
 20
0.0
 30
0.0
  9
$EXTMIN
 10
139.9999999999995
 20
-0.0000000000000909
 30
0.0
  9
$EXTMAX
 10
16307.2
 20
11409.6
 30
0.0
  9
$LIMMIN
 10
-25.79074261211281
 20
-125.8223078213959
  9
$LIMMAX
 10
16471.10331197129
 20
11496.44801950658
  9
$ORTHOMODE
 70
     0
  9
$REGENMODE
 70
     1
  9
$FILLMODE
 70
     1
  9
$QTEXTMODE
 70
     0
  9
$MIRRTEXT
 70
     1
  9
$LTSCALE
 40
20.0
  9
$ATTMODE
 70
     1
  9
$TEXTSIZE
 40
100.0
  9
$TRACEWID
 40
1.0
  9
$TEXTSTYLE
  7
STYLE3
  9
$CLAYER
  8
寸法
  9
$CELTYPE
  6
BYLAYER
  9
$CECOLOR
 62
   256
  9
$CELTSCALE
 40
50.0
  9
$DISPSILH
 70
     0
  9
$DIMSCALE
 40
40.0
  9
$DIMASZ
 40
2.5
  9
$DIMEXO
 40
0.5
  9
$DIMDLI
 40
7.0
  9
$DIMRND
 40
0.0
  9
$DIMDLE
 40
0.0
  9
$DIMEXE
 40
1.5
  9
$DIMTP
 40
0.0
  9
$DIMTM
 40
0.0
  9
$DIMTXT
 40
3.0
  9
$DIMCEN
 40
0.0
  9
$DIMTSZ
 40
0.0
  9
$DIMTOL
 70
     0
  9
$DIMLIM
 70
     0
  9
$DIMTIH
 70
     0
  9
$DIMTOH
 70
     0
  9
$DIMSE1
 70
     0
  9
$DIMSE2
 70
     0
  9
$DIMTAD
 70
     3
  9
$DIMZIN
 70
     8
  9
$DIMBLK
  1

  9
$DIMASO
 70
     1
  9
$DIMSHO
 70
     1
  9
$DIMPOST
  1

  9
$DIMAPOST
  1

  9
$DIMALT
 70
     0
  9
$DIMALTD
 70
     2
  9
$DIMALTF
 40
0.0394
  9
$DIMLFAC
 40
1.0
  9
$DIMTOFL
 70
     1
  9
$DIMTVP
 40
0.0
  9
$DIMTIX
 70
     1
  9
$DIMSOXD
 70
     0
  9
$DIMSAH
 70
     1
  9
$DIMBLK1
  1
DOTSMALL
  9
$DIMBLK2
  1
DOTSMALL
  9
$DIMSTYLE
  2
INABA_S40G
  9
$DIMCLRD
 70
     0
  9
$DIMCLRE
 70
     0
  9
$DIMCLRT
 70
     7
  9
$DIMTFAC
 40
1.0
  9
$DIMGAP
 40
1.0
  9
$DIMJUST
 70
     0
  9
$DIMSD1
 70
     0
  9
$DIMSD2
 70
     0
  9
$DIMTOLJ
 70
     1
  9
$DIMTZIN
 70
     0
  9
$DIMALTZ
 70
     0
  9
$DIMALTTZ
 70
     0
  9
$DIMUPT
 70
     0
  9
$DIMDEC
 70
     1
  9
$DIMTDEC
 70
     4
  9
$DIMALTU
 70
     2
  9
$DIMALTTD
 70
     2
  9
$DIMTXSTY
  7
STYLE1
  9
$DIMAUNIT
 70
     0
  9
$DIMADEC
 70
     0
  9
$DIMALTRND
 40
0.0
  9
$DIMAZIN
 70
     0
  9
$DIMDSEP
 70
    46
  9
$DIMATFIT
 70
     3
  9
$DIMFRAC
 70
     0
  9
$DIMLDRBLK
  1

  9
$DIMLUNIT
 70
     2
  9
$DIMLWD
 70
    -2
  9
$DIMLWE
 70
    -2
  9
$DIMTMOVE
 70
     0
  9
$LUNITS
 70
     2
  9
$LUPREC
 70
     1
  9
$SKETCHINC
 40
1.0
  9
$FILLETRAD
 40
0.0
  9
$AUNITS
 70
     0
  9
$AUPREC
 70
     0
  9
$MENU
  1
acad
  9
$ELEVATION
 40
0.0
  9
$PELEVATION
 40
0.0
  9
$THICKNESS
 40
0.0
  9
$LIMCHECK
 70
     0
  9
$CHAMFERA
 40
0.0
  9
$CHAMFERB
 40
0.0
  9
$CHAMFERC
 40
0.0
  9
$CHAMFERD
 40
0.0
  9
$SKPOLY
 70
     0
  9
$TDCREATE
 40
2452116.684896065
  9
$TDUCREATE
 40
2452116.309896065
  9
$TDUPDATE
 40
2456304.612598553
  9
$TDUUPDATE
 40
2456304.237598553
  9
$TDINDWG
 40
1.0094393634
  9
$TDUSRTIMER
 40
1.0094393634
  9
$USRTIMER
 70
     1
  9
$ANGBASE
 50
0.0
  9
$ANGDIR
 70
     0
  9
$PDMODE
 70
     3
  9
$PDSIZE
 40
2.0
  9
$PLINEWID
 40
0.0
  9
$SPLFRAME
 70
     0
  9
$SPLINETYPE
 70
     6
  9
$SPLINESEGS
 70
     8
  9
$HANDSEED
  5
19CA4
  9
$SURFTAB1
 70
     6
  9
$SURFTAB2
 70
     6
  9
$SURFTYPE
 70
     6
  9
$SURFU
 70
     6
  9
$SURFV
 70
     6
  9
$UCSBASE
  2

  9
$UCSNAME
  2

  9
$UCSORG
 10
0.0
 20
0.0
 30
0.0
  9
$UCSXDIR
 10
1.0
 20
0.0
 30
0.0
  9
$UCSYDIR
 10
0.0
 20
1.0
 30
0.0
  9
$UCSORTHOREF
  2

  9
$UCSORTHOVIEW
 70
     0
  9
$UCSORGTOP
 10
0.0
 20
0.0
 30
0.0
  9
$UCSORGBOTTOM
 10
0.0
 20
0.0
 30
0.0
  9
$UCSORGLEFT
 10
0.0
 20
0.0
 30
0.0
  9
$UCSORGRIGHT
 10
0.0
 20
0.0
 30
0.0
  9
$UCSORGFRONT
 10
0.0
 20
0.0
 30
0.0
  9
$UCSORGBACK
 10
0.0
 20
0.0
 30
0.0
  9
$PUCSBASE
  2

  9
$PUCSNAME
  2

  9
$PUCSORG
 10
0.0
 20
0.0
 30
0.0
  9
$PUCSXDIR
 10
1.0
 20
0.0
 30
0.0
  9
$PUCSYDIR
 10
0.0
 20
1.0
 30
0.0
  9
$PUCSORTHOREF
  2

  9
$PUCSORTHOVIEW
 70
     0
  9
$PUCSORGTOP
 10
0.0
 20
0.0
 30
0.0
  9
$PUCSORGBOTTOM
 10
0.0
 20
0.0
 30
0.0
  9
$PUCSORGLEFT
 10
0.0
 20
0.0
 30
0.0
  9
$PUCSORGRIGHT
 10
0.0
 20
0.0
 30
0.0
  9
$PUCSORGFRONT
 10
0.0
 20
0.0
 30
0.0
  9
$PUCSORGBACK
 10
0.0
 20
0.0
 30
0.0
  9
$USERI1
 70
     0
  9
$USERI2
 70
     0
  9
$USERI3
 70
     0
  9
$USERI4
 70
     0
  9
$USERI5
 70
     0
  9
$USERR1
 40
0.0
  9
$USERR2
 40
0.0
  9
$USERR3
 40
0.0
  9
$USERR4
 40
0.0
  9
$USERR5
 40
0.0
  9
$WORLDVIEW
 70
     1
  9
$SHADEDGE
 70
     3
  9
$SHADEDIF
 70
    70
  9
$TILEMODE
 70
     1
  9
$MAXACTVP
 70
    16
  9
$PINSBASE
 10
0.0
 20
0.0
 30
0.0
  9
$PLIMCHECK
 70
     0
  9
$PEXTMIN
 10
1.000000000000000E+20
 20
1.000000000000000E+20
 30
1.000000000000000E+20
  9
$PEXTMAX
 10
-1.000000000000000E+20
 20
-1.000000000000000E+20
 30
-1.000000000000000E+20
  9
$PLIMMIN
 10
0.0
 20
0.0
  9
$PLIMMAX
 10
420.0
 20
297.0
  9
$UNITMODE
 70
     0
  9
$VISRETAIN
 70
     0
  9
$PLINEGEN
 70
     0
  9
$PSLTSCALE
 70
     0
  9
$TREEDEPTH
 70
  3020
  9
$CMLSTYLE
  2
STANDARD
  9
$CMLJUST
 70
     0
  9
$CMLSCALE
 40
1.0
  9
$PROXYGRAPHICS
 70
     1
  9
$MEASUREMENT
 70
     1
  9
$CELWEIGHT
370
    -1
  9
$ENDCAPS
280
     0
  9
$JOINSTYLE
280
     0
  9
$LWDISPLAY
290
     0
  9
$INSUNITS
 70
     0
  9
$HYPERLINKBASE
  1

  9
$STYLESHEET
  1
inabass.ctb
  9
$XEDIT
290
     1
  9
$CEPSNTYPE
380
     0
  9
$PSTYLEMODE
290
     1
  9
$FINGERPRINTGUID
  2
{AE2ADF1E-CF9A-4974-B35A-E143B020C9F5}
  9
$VERSIONGUID
  2
{1997F48B-7F41-4E75-ABB0-9C2E53BA9534}
  9
$EXTNAMES
290
     1
  9
$PSVPSCALE
 40
0.0
  9
$OLESTARTUP
290
     0
  0
ENDSEC
  0
SECTION
  2
CLASSES
  0
CLASS
  1
ACDBDICTIONARYWDFLT
  2
AcDbDictionaryWithDefault
  3
ObjectDBX Classes
 90
        0
280
     0
281
     0
  0
CLASS
  1
DICTIONARYVAR
  2
AcDbDictionaryVar
  3
ObjectDBX Classes
 90
        0
280
     0
281
     0
  0
CLASS
  1
ACDBPLACEHOLDER
  2
AcDbPlaceHolder
  3
ObjectDBX Classes
 90
        0
280
     0
281
     0
  0
CLASS
  1
LAYOUT
  2
AcDbLayout
  3
ObjectDBX Classes
 90
        0
280
     0
281
     0
  0
ENDSEC
  0
SECTION
  2
TABLES
  0
TABLE
  2
VPORT
  5
746D
330
0
100
AcDbSymbolTable
 70
     2
  0
VPORT
  5
19C9C
330
746D
100
AcDbSymbolTableRecord
100
AcDbViewportTableRecord
  2
*Active
 70
     0
 10
0.0
 20
0.0
 11
1.0
 21
1.0
 12
8321.501176900456
 22
5704.820477774237
 13
0.0
 23
0.0
 14
10.0
 24
10.0
 15
10.0
 25
10.0
 16
0.0
 26
0.0
 36
1.0
 17
0.0
 27
0.0
 37
0.0
 40
11500.3685374653
 41
1.607999999999999
 42
50.0
 43
0.0
 44
0.0
 50
0.0
 51
0.0
 71
     0
 72
     0
 73
     1
 74
     0
 75
     0
 76
     0
 77
     0
 78
     0
281
     0
 65
     1
110
0.0
120
0.0
130
0.0
111
1.0
121
0.0
131
0.0
112
0.0
122
1.0
132
0.0
 79
     0
146
0.0
  0
ENDTAB
  0
TABLE
  2
LTYPE
  5
746A
330
0
100
AcDbSymbolTable
 70
     4
  0
LTYPE
  5
7477
330
746A
100
AcDbSymbolTableRecord
100
AcDbLinetypeTableRecord
  2
BYBLOCK
 70
     0
  3

 72
    65
 73
     0
 40
0.0
  0
LTYPE
  5
7478
330
746A
100
AcDbSymbolTableRecord
100
AcDbLinetypeTableRecord
  2
BYLAYER
 70
     0
  3

 72
    65
 73
     0
 40
0.0
  0
LTYPE
  5
7479
330
746A
100
AcDbSymbolTableRecord
100
AcDbLinetypeTableRecord
  2
CONTINUOUS
 70
     0
  3
Solid line
 72
    65
 73
     0
 40
0.0
  0
LTYPE
  5
7816
330
746A
100
AcDbSymbolTableRecord
100
AcDbLinetypeTableRecord
  2
CENTER
 70
     0
  3
____ _ ____ _ ____ _ ____ _ ____ _ ____ _ ____ 
 72
    65
 73
     4
 40
2.0
 49
1.25
 74
     0
 49
-0.25
 74
     0
 49
0.25
 74
     0
 49
-0.25
 74
     0
  0
LTYPE
  5
781A
330
746A
100
AcDbSymbolTableRecord
100
AcDbLinetypeTableRecord
  2
HIDDEN
 70
     0
  3
__ __ __ __ __ __ __ __ __ __ __ __ __ __ __ __
 72
    65
 73
     2
 40
0.375
 49
0.25
 74
     0
 49
-0.125
 74
     0
  0
LTYPE
  5
781B
330
746A
100
AcDbSymbolTableRecord
100
AcDbLinetypeTableRecord
  2
PHANTOM
 70
     0
  3
______  __  __  ______  __  __  ______  __  __ 
 72
    65
 73
     6
 40
2.5
 49
1.25
 74
     0
 49
-0.25
 74
     0
 49
0.25
 74
     0
 49
-0.25
 74
     0
 49
0.25
 74
     0
 49
-0.25
 74
     0
  0
ENDTAB
  0
TABLE
  2
LAYER
  5
7467
102
{ACAD_XDICTIONARY
360
15EBF
102
}
330
0
100
AcDbSymbolTable
 70
    16
  0
LAYER
  5
7474
330
7467
100
AcDbSymbolTableRecord
100
AcDbLayerTableRecord
  2
0
 70
     0
 62
     7
  6
CONTINUOUS
370
    -3
390
15D41
  0
LAYER
  5
DEB2
330
7467
100
AcDbSymbolTableRecord
100
AcDbLayerTableRecord
  2
センター
 70
     0
 62
     3
  6
CENTER
370
    -3
390
15D41
  0
LAYER
  5
DEB3
330
7467
100
AcDbSymbolTableRecord
100
AcDbLayerTableRecord
  2
寸法
 70
     0
 62
     4
  6
CONTINUOUS
370
    -3
390
15D41
  0
LAYER
  5
DEB4
330
7467
100
AcDbSymbolTableRecord
100
AcDbLayerTableRecord
  2
部品1
 70
     0
 62
     7
  6
CONTINUOUS
370
    -3
390
15D41
  0
LAYER
  5
DEB5
330
7467
100
AcDbSymbolTableRecord
100
AcDbLayerTableRecord
  2
補助
 70
     0
 62
    -1
  6
CONTINUOUS
370
    -3
390
15D41
  0
LAYER
  5
DEB6
330
7467
100
AcDbSymbolTableRecord
100
AcDbLayerTableRecord
  2
文字
 70
     0
 62
     7
  6
CONTINUOUS
370
    -3
390
15D41
  0
LAYER
  5
F255
330
7467
100
AcDbSymbolTableRecord
100
AcDbLayerTableRecord
  2
DEFPOINTS
 70
     0
 62
     7
  6
CONTINUOUS
290
     0
370
    -3
390
15D41
  0
LAYER
  5
10B54
330
7467
100
AcDbSymbolTableRecord
100
AcDbLayerTableRecord
  2
仕様書枠
 70
     0
 62
   230
  6
CONTINUOUS
370
    -3
390
15D41
  0
LAYER
  5
11729
330
7467
100
AcDbSymbolTableRecord
100
AcDbLayerTableRecord
  2
Ｇ．Ｌ
 70
     0
 62
    30
  6
CONTINUOUS
370
    -3
390
15D41
  0
LAYER
  5
1173F
330
7467
100
AcDbSymbolTableRecord
100
AcDbLayerTableRecord
  2
細線
 70
     0
 62
     5
  6
CONTINUOUS
370
    -3
390
15D41
  0
LAYER
  5
11740
330
7467
100
AcDbSymbolTableRecord
100
AcDbLayerTableRecord
  2
点線
 70
     0
 62
     2
  6
HIDDEN
370
    -3
390
15D41
  0
LAYER
  5
118A1
330
7467
100
AcDbSymbolTableRecord
100
AcDbLayerTableRecord
  2
想像線
 70
     0
 62
     6
  6
PHANTOM
370
    -3
390
15D41
  0
LAYER
  5
123C1
330
7467
100
AcDbSymbolTableRecord
100
AcDbLayerTableRecord
  2
破線
 70
     0
 62
     2
  6
HIDDEN
370
    -3
390
15D41
  0
LAYER
  5
18649
330
7467
100
AcDbSymbolTableRecord
100
AcDbLayerTableRecord
  2
柱
 70
     0
 62
    21
  6
CONTINUOUS
370
    -3
390
15D41
  0
LAYER
  5
1864A
330
7467
100
AcDbSymbolTableRecord
100
AcDbLayerTableRecord
  2
AM_5
 70
     0
 62
     3
  6
CONTINUOUS
370
     9
390
15D41
  0
LAYER
  5
1864B
102
{ACAD_XDICTIONARY
360
1864C
102
}
330
7467
100
AcDbSymbolTableRecord
100
AcDbLayerTableRecord
  2
部品
 70
     0
 62
     7
  6
CONTINUOUS
370
    -3
390
15D41
  0
ENDTAB
  0
TABLE
  2
STYLE
  5
7468
330
0
100
AcDbSymbolTable
 70
     5
  0
STYLE
  5
7475
330
7468
100
AcDbSymbolTableRecord
100
AcDbTextStyleTableRecord
  2
STANDARD
 70
     0
 40
0.0
 41
1.0
 50
0.0
 71
     0
 42
4.0
  3
txt
  4
C:\AutoCAD LT\bigfont.shx
  0
STYLE
  5
F706
330
7468
100
AcDbSymbolTableRecord
100
AcDbTextStyleTableRecord
  2
STYLE1
 70
     0
 40
0.0
 41
1.0
 50
0.0
 71
     0
 42
4.0
  3
isocp.shx
  4
bigfont.shx
  0
STYLE
  5
103BF
330
7468
100
AcDbSymbolTableRecord
100
AcDbTextStyleTableRecord
  2
STYLE2
 70
     0
 40
0.0
 41
1.0
 50
0.0
 71
     0
 42
100.0
  3
MS PGothic.ttf
  4

1001
ACAD
1000
MS PGothic
1071
    32818
  0
STYLE
  5
10BAA
330
7468
100
AcDbSymbolTableRecord
100
AcDbTextStyleTableRecord
  2
STYLE3
 70
     0
 40
0.0
 41
1.0
 50
0.0
 71
     0
 42
100.0
  3
DFPGothic-EB.ttf
  4

1001
ACAD
1000
DFPGothic-EB
1071
    32818
  0
STYLE
  5
1864E
330
7468
100
AcDbSymbolTableRecord
100
AcDbTextStyleTableRecord
  2
スタイル1
 70
     0
 40
0.0
 41
1.0
 50
0.0
 71
     0
 42
4.0
  3
isocp.shx
  4
bigfont.shx
  0
ENDTAB
  0
TABLE
  2
VIEW
  5
746B
330
0
100
AcDbSymbolTable
 70
     0
  0
ENDTAB
  0
TABLE
  2
UCS
  5
746C
330
0
100
AcDbSymbolTable
 70
     0
  0
ENDTAB
  0
TABLE
  2
APPID
  5
746E
330
0
100
AcDbSymbolTable
 70
     6
  0
APPID
  5
7476
330
746E
100
AcDbSymbolTableRecord
100
AcDbRegAppTableRecord
  2
ACAD
 70
     0
  0
APPID
  5
DEA9
330
746E
100
AcDbSymbolTableRecord
100
AcDbRegAppTableRecord
  2
CONTENTBLOCKICON
 70
     0
  0
APPID
  5
DEAA
330
746E
100
AcDbSymbolTableRecord
100
AcDbRegAppTableRecord
  2
CONTENTBLOCKDESCRIPTION
 70
     0
  0
APPID
  5
E71D
330
746E
100
AcDbSymbolTableRecord
100
AcDbRegAppTableRecord
  2
CONTENTTABDATA
 70
     0
  0
APPID
  5
E71E
330
746E
100
AcDbSymbolTableRecord
100
AcDbRegAppTableRecord
  2
CONTENTCURRENTTAB
 70
     0
  0
APPID
  5
F3BA
330
746E
100
AcDbSymbolTableRecord
100
AcDbRegAppTableRecord
  2
DRAWINGVARIABLESXDATA
 70
     0
  0
ENDTAB
  0
TABLE
  2
DIMSTYLE
  5
746F
330
0
100
AcDbSymbolTable
 70
     5
100
AcDbDimStyleTable
 71
     1
340
F71F
  0
DIMSTYLE
105
7484
330
746F
100
AcDbSymbolTableRecord
100
AcDbDimStyleTableRecord
  2
JIS
 70
     0
 41
2.5
 42
1.0
 43
7.0
 44
1.0
 73
     0
 74
     0
 77
     1
 78
     8
140
2.5
141
0.0
143
0.0394
147
0.0
172
     1
174
     1
175
     1
340
7475
  0
DIMSTYLE
105
F71F
102
{ACAD_REACTORS
330
15673
330
1567B
330
1567C
330
1567D
330
15695
330
15696
330
15697
330
15698
330
1569A
330
1569B
330
1569C
330
1572B
330
15CF1
330
1709E
330
1709D
330
1709C
330
170F0
330
1796F
330
17970
330
179CE
330
179CF
330
179D0
330
179D1
330
179D2
330
179F0
330
17DB7
330
19677
330
1980B
330
1985C
330
1990E
330
1990D
330
1993E
330
1993D
330
19BBC
330
19BBF
330
19BF3
330
19C12
330
19C31
102
}
330
746F
100
AcDbSymbolTableRecord
100
AcDbDimStyleTableRecord
  2
INABA_S40G
 70
     0
 40
40.0
 41
2.5
 42
0.5
 43
7.0
 44
1.5
 73
     0
 74
     0
 77
     3
 78
     8
140
3.0
141
0.0
143
0.0394
147
1.0
172
     1
173
     1
174
     1
178
     7
271
     1
340
F706
341
F770
343
F770
344
F770
  0
DIMSTYLE
105
15EBE
102
{ACAD_REACTORS
330
179B9
102
}
330
746F
100
AcDbSymbolTableRecord
100
AcDbDimStyleTableRecord
  2
INABA_S40
 70
     0
 40
40.0
 41
2.5
 42
0.5
 43
7.0
 44
1.5
 73
     0
 74
     0
 77
     3
 78
     8
140
3.0
141
0.0
143
0.0394
147
1.0
172
     1
173
     1
174
     1
175
     1
178
     7
289
     0
340
7475
341
15E19
343
15E19
344
15E19
  0
DIMSTYLE
105
17E83
330
746F
100
AcDbSymbolTableRecord
100
AcDbDimStyleTableRecord
  2
INABA_S20G
 70
     0
 40
20.0
 41
2.5
 42
0.5
 43
7.0
 44
1.5
 73
     0
 74
     0
 77
     3
 78
     8
140
3.0
141
0.0
143
0.0394
147
1.0
172
     1
173
     1
174
     1
175
     1
178
     7
271
     1
340
F706
341
F770
343
F770
344
F770
  0
DIMSTYLE
105
1864F
330
746F
100
AcDbSymbolTableRecord
100
AcDbDimStyleTableRecord
  2
INABA_1／3
 70
     0
 40
3.0
 41
2.5
 42
0.5
 43
7.0
 44
1.5
 73
     0
 74
     0
 77
     3
 78
     8
140
3.0
141
0.0
143
0.0394
147
0.5
172
     1
173
     1
174
     1
175
     1
178
     7
289
     0
340
1864E
341
15E19
343
15E19
344
15E19
  0
ENDTAB
  0
TABLE
  2
BLOCK_RECORD
  5
7466
330
0
100
AcDbSymbolTable
 70
    45
  0
BLOCK_RECORD
  5
747D
330
7466
100
AcDbSymbolTableRecord
100
AcDbBlockTableRecord
  2
*MODEL_SPACE
340
15D46
  0
BLOCK_RECORD
  5
747A
330
7466
100
AcDbSymbolTableRecord
100
AcDbBlockTableRecord
  2
*PAPER_SPACE
340
15D47
  0
BLOCK_RECORD
  5
F770
330
7466
100
AcDbSymbolTableRecord
100
AcDbBlockTableRecord
  2
_DOTSMALL
340
0
102
{BLKREFS
331
19A46
331
19A47
331
19A4F
331
19A50
331
19A5A
331
19A5B
331
19A63
331
19A64
331
19A6C
331
19A6D
331
19A75
331
19A76
331
19A7E
331
19A7F
331
19A87
331
19A88
331
19A90
331
19A91
331
19A9A
331
19A9B
331
19AA5
331
19AA6
331
19AAE
331
19AAF
331
19AB7
331
19AB8
331
19AC1
331
19AC2
331
19AD3
331
19AD4
331
19ADE
331
19ADF
331
19AE9
331
19AEA
331
19AF4
331
19AF5
331
19AFD
331
19AFE
331
19B06
331
19B07
331
19B0F
331
19B10
331
19B18
331
19B19
331
19B21
331
19B22
331
19B2A
331
19B2B
331
19B35
331
19B36
331
19B3E
331
19B3F
331
19B49
331
19B4A
331
19B54
331
19B55
331
19B5F
331
19B60
331
19B6A
331
19B6B
331
19B73
331
19B74
331
19B7C
331
19B7D
331
19B85
331
19B86
331
19BE2
331
19BE3
331
19BEB
331
19BEC
331
19C0A
331
19C0B
331
19C29
331
19C2A
331
19C48
331
19C49
102
}
  0
BLOCK_RECORD
  5
1589B
330
7466
100
AcDbSymbolTableRecord
100
AcDbBlockTableRecord
  2
*D1
340
0
  0
BLOCK_RECORD
  5
158B3
330
7466
100
AcDbSymbolTableRecord
100
AcDbBlockTableRecord
  2
*D2
340
0
  0
BLOCK_RECORD
  5
158BF
330
7466
100
AcDbSymbolTableRecord
100
AcDbBlockTableRecord
  2
*D3
340
0
  0
BLOCK_RECORD
  5
158CB
330
7466
100
AcDbSymbolTableRecord
100
AcDbBlockTableRecord
  2
*D4
340
0
  0
BLOCK_RECORD
  5
158E5
330
7466
100
AcDbSymbolTableRecord
100
AcDbBlockTableRecord
  2
*D5
340
0
  0
BLOCK_RECORD
  5
158F3
330
7466
100
AcDbSymbolTableRecord
100
AcDbBlockTableRecord
  2
*D6
340
0
  0
BLOCK_RECORD
  5
15901
330
7466
100
AcDbSymbolTableRecord
100
AcDbBlockTableRecord
  2
*D7
340
0
  0
BLOCK_RECORD
  5
1590F
330
7466
100
AcDbSymbolTableRecord
100
AcDbBlockTableRecord
  2
*D8
340
0
  0
BLOCK_RECORD
  5
15929
330
7466
100
AcDbSymbolTableRecord
100
AcDbBlockTableRecord
  2
*D9
340
0
  0
BLOCK_RECORD
  5
15937
330
7466
100
AcDbSymbolTableRecord
100
AcDbBlockTableRecord
  2
*D10
340
0
  0
BLOCK_RECORD
  5
15943
330
7466
100
AcDbSymbolTableRecord
100
AcDbBlockTableRecord
  2
*D11
340
0
  0
BLOCK_RECORD
  5
1598B
330
7466
100
AcDbSymbolTableRecord
100
AcDbBlockTableRecord
  2
*D12
340
0
  0
BLOCK_RECORD
  5
15CF2
330
7466
100
AcDbSymbolTableRecord
100
AcDbBlockTableRecord
  2
*D13
340
0
  0
BLOCK_RECORD
  5
15E19
330
7466
100
AcDbSymbolTableRecord
100
AcDbBlockTableRecord
  2
_OPEN
340
0
  0
BLOCK_RECORD
  5
15E1F
330
7466
100
AcDbSymbolTableRecord
100
AcDbBlockTableRecord
  2
_DOT
340
0
102
{BLKREFS
331
19ACA
331
19ACB
102
}
  0
BLOCK_RECORD
  5
170AD
330
7466
100
AcDbSymbolTableRecord
100
AcDbBlockTableRecord
  2
*D16
340
0
  0
BLOCK_RECORD
  5
170BB
330
7466
100
AcDbSymbolTableRecord
100
AcDbBlockTableRecord
  2
*D17
340
0
  0
BLOCK_RECORD
  5
170C7
330
7466
100
AcDbSymbolTableRecord
100
AcDbBlockTableRecord
  2
*D18
340
0
  0
BLOCK_RECORD
  5
170FB
330
7466
100
AcDbSymbolTableRecord
100
AcDbBlockTableRecord
  2
*D19
340
0
  0
BLOCK_RECORD
  5
17A93
330
7466
100
AcDbSymbolTableRecord
100
AcDbBlockTableRecord
  2
*D20
340
0
  0
BLOCK_RECORD
  5
17AA1
330
7466
100
AcDbSymbolTableRecord
100
AcDbBlockTableRecord
  2
*D21
340
0
  0
BLOCK_RECORD
  5
17AE1
330
7466
100
AcDbSymbolTableRecord
100
AcDbBlockTableRecord
  2
*D22
340
0
  0
BLOCK_RECORD
  5
17AED
330
7466
100
AcDbSymbolTableRecord
100
AcDbBlockTableRecord
  2
*D23
340
0
  0
BLOCK_RECORD
  5
17AFA
330
7466
100
AcDbSymbolTableRecord
100
AcDbBlockTableRecord
  2
*D24
340
0
  0
BLOCK_RECORD
  5
17B06
330
7466
100
AcDbSymbolTableRecord
100
AcDbBlockTableRecord
  2
*D25
340
0
  0
BLOCK_RECORD
  5
17B12
330
7466
100
AcDbSymbolTableRecord
100
AcDbBlockTableRecord
  2
*D26
340
0
  0
BLOCK_RECORD
  5
17B20
330
7466
100
AcDbSymbolTableRecord
100
AcDbBlockTableRecord
  2
*D27
340
0
  0
BLOCK_RECORD
  5
17B2D
330
7466
100
AcDbSymbolTableRecord
100
AcDbBlockTableRecord
  2
*D28
340
0
  0
BLOCK_RECORD
  5
17C45
330
7466
100
AcDbSymbolTableRecord
100
AcDbBlockTableRecord
  2
A$C234373F2
340
0
  0
BLOCK_RECORD
  5
17DB8
330
7466
100
AcDbSymbolTableRecord
100
AcDbBlockTableRecord
  2
*D30
340
0
  0
BLOCK_RECORD
  5
19678
330
7466
100
AcDbSymbolTableRecord
100
AcDbBlockTableRecord
  2
*D31
340
0
  0
BLOCK_RECORD
  5
196A9
330
7466
100
AcDbSymbolTableRecord
100
AcDbBlockTableRecord
  2
A$C77305D78
340
0
  0
BLOCK_RECORD
  5
1972D
330
7466
100
AcDbSymbolTableRecord
100
AcDbBlockTableRecord
  2
A$C7B576BF7
340
0
  0
BLOCK_RECORD
  5
19847
330
7466
100
AcDbSymbolTableRecord
100
AcDbBlockTableRecord
  2
*D34
340
0
  0
BLOCK_RECORD
  5
19898
330
7466
100
AcDbSymbolTableRecord
100
AcDbBlockTableRecord
  2
*D35
340
0
  0
BLOCK_RECORD
  5
1990F
330
7466
100
AcDbSymbolTableRecord
100
AcDbBlockTableRecord
  2
*D36
340
0
  0
BLOCK_RECORD
  5
1991D
330
7466
100
AcDbSymbolTableRecord
100
AcDbBlockTableRecord
  2
*D37
340
0
  0
BLOCK_RECORD
  5
1993F
330
7466
100
AcDbSymbolTableRecord
100
AcDbBlockTableRecord
  2
*D38
340
0
  0
BLOCK_RECORD
  5
1994D
330
7466
100
AcDbSymbolTableRecord
100
AcDbBlockTableRecord
  2
*D39
340
0
  0
BLOCK_RECORD
  5
19BC7
330
7466
100
AcDbSymbolTableRecord
100
AcDbBlockTableRecord
  2
*D40
340
0
  0
BLOCK_RECORD
  5
19BD3
330
7466
100
AcDbSymbolTableRecord
100
AcDbBlockTableRecord
  2
*D41
340
0
  0
BLOCK_RECORD
  5
19BFB
330
7466
100
AcDbSymbolTableRecord
100
AcDbBlockTableRecord
  2
*D42
340
0
  0
BLOCK_RECORD
  5
19C1A
330
7466
100
AcDbSymbolTableRecord
100
AcDbBlockTableRecord
  2
*D43
340
0
  0
BLOCK_RECORD
  5
19C39
330
7466
100
AcDbSymbolTableRecord
100
AcDbBlockTableRecord
  2
*D44
340
0
  0
ENDTAB
  0
ENDSEC
  0
SECTION
  2
BLOCKS
  0
BLOCK
  5
7489
330
747D
100
AcDbEntity
  8
0
100
AcDbBlockBegin
  2
*MODEL_SPACE
 70
     0
 10
0.0
 20
0.0
 30
0.0
  3
*MODEL_SPACE
  1

  0
ENDBLK
  5
748A
330
747D
100
AcDbEntity
  8
0
100
AcDbBlockEnd
  0
BLOCK
  5
7487
330
747A
100
AcDbEntity
 67
     1
  8
0
100
AcDbBlockBegin
  2
*PAPER_SPACE
 70
     0
 10
0.0
 20
0.0
 30
0.0
  3
*PAPER_SPACE
  1

  0
ENDBLK
  5
7488
330
747A
100
AcDbEntity
 67
     1
  8
0
100
AcDbBlockEnd
  0
BLOCK
  5
F771
330
F770
100
AcDbEntity
  8
0
 48
50.0
100
AcDbBlockBegin
  2
_DOTSMALL
 70
     0
 10
0.0
 20
0.0
 30
0.0
  3
_DOTSMALL
  1

  0
LWPOLYLINE
  5
F772
330
F770
100
AcDbEntity
  8
0
  6
ByBlock
 62
     0
 48
50.0
100
AcDbPolyline
 90
        2
 70
     1
 43
0.5
 10
-0.0625
 20
0.0
 42
1.0
 10
0.0625
 20
0.0
 42
1.0
  0
ENDBLK
  5
F776
330
F770
100
AcDbEntity
  8
0
 48
50.0
100
AcDbBlockEnd
  0
BLOCK
  5
15A49
330
1589B
100
AcDbEntity
  8
0
 48
50.0
100
AcDbBlockBegin
  2
*D1
 70
     1
 10
0.0
 20
0.0
 30
0.0
  3
*D1
  1

  0
LINE
  5
19B82
330
1589B
100
AcDbEntity
  8
寸法
 62
     0
 48
50.0
370
    -2
100
AcDbLine
 10
7381.9147051724
 20
8340.766456979688
 30
0.0
 11
7381.9147051724
 21
7860.942789184609
 31
0.0
  0
LINE
  5
19B83
330
1589B
100
AcDbEntity
  8
寸法
 62
     0
 48
50.0
370
    -2
100
AcDbLine
 10
8066.914705172395
 20
8340.76645697965
 30
0.0
 11
8066.914705172395
 21
7860.942789184609
 31
0.0
  0
LINE
  5
19B84
330
1589B
100
AcDbEntity
  8
寸法
 62
     0
 48
50.0
370
    -2
100
AcDbLine
 10
7381.9147051724
 20
7920.942789184611
 30
0.0
 11
8066.914705172395
 21
7920.942789184611
 31
0.0
  0
INSERT
  5
19B85
330
1589B
100
AcDbEntity
  8
寸法
 62
     0
 48
50.0
370
    -2
100
AcDbBlockReference
  2
_DOTSMALL
 10
7381.9147051724
 20
7920.942789184611
 30
0.0
 41
100.0
 42
100.0
 43
100.0
 50
180.0
  0
INSERT
  5
19B86
330
1589B
100
AcDbEntity
  8
寸法
 62
     0
 48
50.0
370
    -2
100
AcDbBlockReference
  2
_DOTSMALL
 10
8066.914705172395
 20
7920.942789184611
 30
0.0
 41
100.0
 42
100.0
 43
100.0
  0
MTEXT
  5
19B87
330
1589B
100
AcDbEntity
  8
寸法
 62
     7
 48
50.0
100
AcDbMText
 10
7724.414705172397
 20
8120.94278918461
 30
0.0
 40
120.0
 41
0.0
 71
     5
 72
     1
  1
\A1;有効開口部間口\P685
  7
STYLE1
 73
     1
 44
1.0
1001
ACAD
1000
MTEXTBEGIN
1070
    73
1070
     1
1070
    44
1040
1.0
1070
    74
1070
     0
1000
MTEXTEND
  0
POINT
  5
19B88
330
1589B
100
AcDbEntity
  8
DEFPOINTS
 62
     0
 48
50.0
100
AcDbPoint
 10
7381.9147051724
 20
8360.766456979687
 30
0.0
  0
POINT
  5
19B89
330
1589B
100
AcDbEntity
  8
DEFPOINTS
 62
     0
 48
50.0
100
AcDbPoint
 10
8066.914705172395
 20
8360.766456979652
 30
0.0
  0
POINT
  5
19B8A
330
1589B
100
AcDbEntity
  8
DEFPOINTS
 62
     0
 48
50.0
100
AcDbPoint
 10
8066.914705172395
 20
7920.942789184611
 30
0.0
  0
ENDBLK
  5
15A53
330
1589B
100
AcDbEntity
  8
0
 48
50.0
100
AcDbBlockEnd
  0
BLOCK
  5
15A5F
330
158B3
100
AcDbEntity
  8
0
 48
50.0
100
AcDbBlockBegin
  2
*D2
 70
     1
 10
0.0
 20
0.0
 30
0.0
  3
*D2
  1

  0
LINE
  5
19B79
330
158B3
100
AcDbEntity
  8
寸法
 62
     0
 48
50.0
370
    -2
100
AcDbLine
 10
4866.914705172396
 20
8340.766456979613
 30
0.0
 11
4866.914705172396
 21
7313.664582119542
 31
0.0
  0
LINE
  5
19B7A
330
158B3
100
AcDbEntity
  8
寸法
 62
     0
 48
50.0
370
    -2
100
AcDbLine
 10
8146.914705172378
 20
8340.766456979746
 30
0.0
 11
8146.914705172378
 21
7313.664582119542
 31
0.0
  0
LINE
  5
19B7B
330
158B3
100
AcDbEntity
  8
寸法
 62
     0
 48
50.0
370
    -2
100
AcDbLine
 10
4866.914705172396
 20
7373.664582119542
 30
0.0
 11
8146.914705172378
 21
7373.664582119542
 31
0.0
  0
INSERT
  5
19B7C
330
158B3
100
AcDbEntity
  8
寸法
 62
     0
 48
50.0
370
    -2
100
AcDbBlockReference
  2
_DOTSMALL
 10
4866.914705172396
 20
7373.664582119542
 30
0.0
 41
100.0
 42
100.0
 43
100.0
 50
180.0
  0
INSERT
  5
19B7D
330
158B3
100
AcDbEntity
  8
寸法
 62
     0
 48
50.0
370
    -2
100
AcDbBlockReference
  2
_DOTSMALL
 10
8146.914705172378
 20
7373.664582119542
 30
0.0
 41
100.0
 42
100.0
 43
100.0
  0
MTEXT
  5
19B7E
330
158B3
100
AcDbEntity
  8
寸法
 62
     7
 48
50.0
100
AcDbMText
 10
6506.914705172388
 20
7473.676393143164
 30
0.0
 40
120.0
 41
0.0
 71
     5
 72
     1
  1
\A1;3280
  7
STYLE1
 73
     1
 44
1.0
1001
ACAD
1000
MTEXTBEGIN
1070
    73
1070
     1
1070
    44
1040
1.0
1070
    74
1070
     0
1000
MTEXTEND
  0
POINT
  5
19B7F
330
158B3
100
AcDbEntity
  8
DEFPOINTS
 62
     0
 48
50.0
100
AcDbPoint
 10
4866.914705172396
 20
8360.766456979614
 30
0.0
  0
POINT
  5
19B80
330
158B3
100
AcDbEntity
  8
DEFPOINTS
 62
     0
 48
50.0
100
AcDbPoint
 10
8146.914705172378
 20
8360.766456979744
 30
0.0
  0
POINT
  5
19B81
330
158B3
100
AcDbEntity
  8
DEFPOINTS
 62
     0
 48
50.0
100
AcDbPoint
 10
8146.914705172378
 20
7373.664582119542
 30
0.0
  0
ENDBLK
  5
15A69
330
158B3
100
AcDbEntity
  8
0
 48
50.0
100
AcDbBlockEnd
  0
BLOCK
  5
15A6A
330
158BF
100
AcDbEntity
  8
0
 48
50.0
100
AcDbBlockBegin
  2
*D3
 70
     1
 10
0.0
 20
0.0
 30
0.0
  3
*D3
  1

  0
LINE
  5
19B70
330
158BF
100
AcDbEntity
  8
寸法
 62
     0
 48
50.0
370
    -2
100
AcDbLine
 10
4921.914705172403
 20
9330.766456979723
 30
0.0
 11
4921.914705172403
 21
9586.574676604792
 31
0.0
  0
LINE
  5
19B71
330
158BF
100
AcDbEntity
  8
寸法
 62
     0
 48
50.0
370
    -2
100
AcDbLine
 10
5631.914705172402
 20
9330.76645697981
 30
0.0
 11
5631.914705172402
 21
9586.574676604792
 31
0.0
  0
LINE
  5
19B72
330
158BF
100
AcDbEntity
  8
寸法
 62
     0
 48
50.0
370
    -2
100
AcDbLine
 10
4921.914705172403
 20
9526.574676604793
 30
0.0
 11
5631.914705172402
 21
9526.574676604793
 31
0.0
  0
INSERT
  5
19B73
330
158BF
100
AcDbEntity
  8
寸法
 62
     0
 48
50.0
370
    -2
100
AcDbBlockReference
  2
_DOTSMALL
 10
4921.914705172403
 20
9526.574676604793
 30
0.0
 41
100.0
 42
100.0
 43
100.0
 50
180.0
  0
INSERT
  5
19B74
330
158BF
100
AcDbEntity
  8
寸法
 62
     0
 48
50.0
370
    -2
100
AcDbBlockReference
  2
_DOTSMALL
 10
5631.914705172402
 20
9526.574676604793
 30
0.0
 41
100.0
 42
100.0
 43
100.0
  0
MTEXT
  5
19B75
330
158BF
100
AcDbEntity
  8
寸法
 62
     7
 48
50.0
100
AcDbMText
 10
5277.164705172402
 20
9626.574676604793
 30
0.0
 40
120.0
 41
0.0
 71
     5
 72
     1
  1
\A1;710
  7
STYLE1
 73
     1
 44
1.0
1001
ACAD
1000
MTEXTBEGIN
1070
    73
1070
     1
1070
    44
1040
1.0
1070
    74
1070
     0
1000
MTEXTEND
  0
POINT
  5
19B76
330
158BF
100
AcDbEntity
  8
DEFPOINTS
 62
     0
 48
50.0
100
AcDbPoint
 10
4921.914705172403
 20
9310.766456979724
 30
0.0
  0
POINT
  5
19B77
330
158BF
100
AcDbEntity
  8
DEFPOINTS
 62
     0
 48
50.0
100
AcDbPoint
 10
5631.914705172402
 20
9310.766456979811
 30
0.0
  0
POINT
  5
19B78
330
158BF
100
AcDbEntity
  8
DEFPOINTS
 62
     0
 48
50.0
100
AcDbPoint
 10
5631.914705172402
 20
9526.574676604793
 30
0.0
  0
ENDBLK
  5
15A74
330
158BF
100
AcDbEntity
  8
0
 48
50.0
100
AcDbBlockEnd
  0
BLOCK
  5
15A75
330
158CB
100
AcDbEntity
  8
0
 48
50.0
100
AcDbBlockBegin
  2
*D4
 70
     1
 10
0.0
 20
0.0
 30
0.0
  3
*D4
  1

  0
LINE
  5
19B65
330
158CB
100
AcDbEntity
  8
寸法
 62
     0
 48
50.0
370
    -2
100
AcDbLine
 10
4866.914705172367
 20
9330.766456979693
 30
0.0
 11
4866.914705172367
 21
9586.574676604675
 31
0.0
  0
LINE
  5
19B66
330
158CB
100
AcDbEntity
  8
寸法
 62
     0
 48
50.0
370
    -2
100
AcDbLine
 10
4921.914705172403
 20
9330.766456979693
 30
0.0
 11
4921.914705172403
 21
9586.574676604675
 31
0.0
  0
LINE
  5
19B67
330
158CB
100
AcDbEntity
  8
寸法
 62
     0
 48
50.0
370
    -2
100
AcDbLine
 10
4921.914705172403
 20
9526.574676604676
 30
0.0
 11
5021.914705172402
 21
9526.574676604676
 31
0.0
  0
LINE
  5
19B68
330
158CB
100
AcDbEntity
  8
寸法
 62
     0
 48
50.0
370
    -2
100
AcDbLine
 10
4866.914705172367
 20
9526.574676604676
 30
0.0
 11
4449.944142423889
 21
9526.574676604676
 31
0.0
  0
LINE
  5
19B69
330
158CB
100
AcDbEntity
  8
寸法
 62
     0
 48
50.0
370
    -2
100
AcDbLine
 10
4921.914705172403
 20
9526.574676604676
 30
0.0
 11
4866.914705172367
 21
9526.574676604676
 31
0.0
  0
INSERT
  5
19B6A
330
158CB
100
AcDbEntity
  8
寸法
 62
     0
 48
50.0
370
    -2
100
AcDbBlockReference
  2
_DOTSMALL
 10
4921.914705172403
 20
9526.574676604676
 30
0.0
 41
100.0
 42
100.0
 43
100.0
 50
180.0
  0
INSERT
  5
19B6B
330
158CB
100
AcDbEntity
  8
寸法
 62
     0
 48
50.0
370
    -2
100
AcDbBlockReference
  2
_DOTSMALL
 10
4866.914705172367
 20
9526.574676604676
 30
0.0
 41
100.0
 42
100.0
 43
100.0
  0
MTEXT
  5
19B6C
330
158CB
100
AcDbEntity
  8
寸法
 62
     7
 48
50.0
100
AcDbMText
 10
4558.429423798128
 20
9626.574676604676
 30
0.0
 40
120.0
 41
0.0
 71
     5
 72
     1
  1
\A1;55
  7
STYLE1
 73
     1
 44
1.0
1001
ACAD
1000
MTEXTBEGIN
1070
    73
1070
     1
1070
    44
1040
1.0
1070
    74
1070
     0
1000
MTEXTEND
  0
POINT
  5
19B6D
330
158CB
100
AcDbEntity
  8
DEFPOINTS
 62
     0
 48
50.0
100
AcDbPoint
 10
4866.914705172367
 20
9310.766456979694
 30
0.0
  0
POINT
  5
19B6E
330
158CB
100
AcDbEntity
  8
DEFPOINTS
 62
     0
 48
50.0
100
AcDbPoint
 10
4921.914705172403
 20
9310.766456979694
 30
0.0
  0
POINT
  5
19B6F
330
158CB
100
AcDbEntity
  8
DEFPOINTS
 62
     0
 48
50.0
100
AcDbPoint
 10
4921.914705172403
 20
9526.574676604676
 30
0.0
  0
ENDBLK
  5
15A81
330
158CB
100
AcDbEntity
  8
0
 48
50.0
100
AcDbBlockEnd
  0
BLOCK
  5
15A8D
330
158E5
100
AcDbEntity
  8
0
 48
50.0
100
AcDbBlockBegin
  2
*D5
 70
     1
 10
0.0
 20
0.0
 30
0.0
  3
*D5
  1

  0
LINE
  5
19B5A
330
158E5
100
AcDbEntity
  8
寸法
 62
     0
 48
50.0
370
    -2
100
AcDbLine
 10
8091.914705172404
 20
9330.766456979789
 30
0.0
 11
8091.914705172404
 21
9586.574676604771
 31
0.0
  0
LINE
  5
19B5B
330
158E5
100
AcDbEntity
  8
寸法
 62
     0
 48
50.0
370
    -2
100
AcDbLine
 10
8146.914705172404
 20
9330.766456979789
 30
0.0
 11
8146.914705172404
 21
9586.574676604771
 31
0.0
  0
LINE
  5
19B5C
330
158E5
100
AcDbEntity
  8
寸法
 62
     0
 48
50.0
370
    -2
100
AcDbLine
 10
8091.914705172404
 20
9526.574676604772
 30
0.0
 11
7991.914705172404
 21
9526.574676604772
 31
0.0
  0
LINE
  5
19B5D
330
158E5
100
AcDbEntity
  8
寸法
 62
     0
 48
50.0
370
    -2
100
AcDbLine
 10
8146.914705172404
 20
9526.574676604772
 30
0.0
 11
8563.885267920879
 21
9526.574676604772
 31
0.0
  0
LINE
  5
19B5E
330
158E5
100
AcDbEntity
  8
寸法
 62
     0
 48
50.0
370
    -2
100
AcDbLine
 10
8091.914705172404
 20
9526.574676604772
 30
0.0
 11
8146.914705172404
 21
9526.574676604772
 31
0.0
  0
INSERT
  5
19B5F
330
158E5
100
AcDbEntity
  8
寸法
 62
     0
 48
50.0
370
    -2
100
AcDbBlockReference
  2
_DOTSMALL
 10
8091.914705172404
 20
9526.574676604772
 30
0.0
 41
100.0
 42
100.0
 43
100.0
  0
INSERT
  5
19B60
330
158E5
100
AcDbEntity
  8
寸法
 62
     0
 48
50.0
370
    -2
100
AcDbBlockReference
  2
_DOTSMALL
 10
8146.914705172404
 20
9526.574676604772
 30
0.0
 41
100.0
 42
100.0
 43
100.0
 50
180.0
  0
MTEXT
  5
19B61
330
158E5
100
AcDbEntity
  8
寸法
 62
     7
 48
50.0
100
AcDbMText
 10
8455.399986546641
 20
9626.574676604771
 30
0.0
 40
120.0
 41
0.0
 71
     5
 72
     1
  1
\A1;55
  7
STYLE1
 73
     1
 44
1.0
1001
ACAD
1000
MTEXTBEGIN
1070
    73
1070
     1
1070
    44
1040
1.0
1070
    74
1070
     0
1000
MTEXTEND
  0
POINT
  5
19B62
330
158E5
100
AcDbEntity
  8
DEFPOINTS
 62
     0
 48
50.0
100
AcDbPoint
 10
8091.914705172404
 20
9310.76645697979
 30
0.0
  0
POINT
  5
19B63
330
158E5
100
AcDbEntity
  8
DEFPOINTS
 62
     0
 48
50.0
100
AcDbPoint
 10
8146.914705172404
 20
9310.76645697979
 30
0.0
  0
POINT
  5
19B64
330
158E5
100
AcDbEntity
  8
DEFPOINTS
 62
     0
 48
50.0
100
AcDbPoint
 10
8146.914705172404
 20
9526.574676604772
 30
0.0
  0
ENDBLK
  5
15A99
330
158E5
100
AcDbEntity
  8
0
 48
50.0
100
AcDbBlockEnd
  0
BLOCK
  5
15A9A
330
158F3
100
AcDbEntity
  8
0
 48
50.0
100
AcDbBlockBegin
  2
*D6
 70
     1
 10
0.0
 20
0.0
 30
0.0
  3
*D6
  1

  0
LINE
  5
19B4F
330
158F3
100
AcDbEntity
  8
寸法
 62
     0
 48
50.0
370
    -2
100
AcDbLine
 10
8166.914705172404
 20
9310.76645697979
 30
0.0
 11
8854.341050906816
 21
9310.76645697979
 31
0.0
  0
LINE
  5
19B50
330
158F3
100
AcDbEntity
  8
寸法
 62
     0
 48
50.0
370
    -2
100
AcDbLine
 10
8166.914705172404
 20
9255.76645697979
 30
0.0
 11
8854.341050906816
 21
9255.76645697979
 31
0.0
  0
LINE
  5
19B51
330
158F3
100
AcDbEntity
  8
寸法
 62
     0
 48
50.0
370
    -2
100
AcDbLine
 10
8794.341050906814
 20
9255.76645697979
 30
0.0
 11
8794.341050906814
 21
9155.766456979788
 31
0.0
  0
LINE
  5
19B52
330
158F3
100
AcDbEntity
  8
寸法
 62
     0
 48
50.0
370
    -2
100
AcDbLine
 10
8794.341050906814
 20
9310.76645697979
 30
0.0
 11
8794.341050906814
 21
9727.737019728266
 31
0.0
  0
LINE
  5
19B53
330
158F3
100
AcDbEntity
  8
寸法
 62
     0
 48
50.0
370
    -2
100
AcDbLine
 10
8794.341050906814
 20
9255.76645697979
 30
0.0
 11
8794.341050906814
 21
9310.76645697979
 31
0.0
  0
INSERT
  5
19B54
330
158F3
100
AcDbEntity
  8
寸法
 62
     0
 48
50.0
370
    -2
100
AcDbBlockReference
  2
_DOTSMALL
 10
8794.341050906814
 20
9255.76645697979
 30
0.0
 41
100.0
 42
100.0
 43
100.0
 50
90.0
  0
INSERT
  5
19B55
330
158F3
100
AcDbEntity
  8
寸法
 62
     0
 48
50.0
370
    -2
100
AcDbBlockReference
  2
_DOTSMALL
 10
8794.341050906814
 20
9310.76645697979
 30
0.0
 41
100.0
 42
100.0
 43
100.0
 50
270.0
  0
MTEXT
  5
19B56
330
158F3
100
AcDbEntity
  8
寸法
 62
     7
 48
50.0
100
AcDbMText
 10
8694.341050906812
 20
9619.25173835403
 30
0.0
 40
120.0
 41
0.0
 71
     5
 72
     1
  1
\A1;55
  7
STYLE1
 11
0.0000000000000001
 21
1.0
 31
0.0
 73
     1
 44
1.0
1001
ACAD
1000
MTEXTBEGIN
1070
    73
1070
     1
1070
    44
1040
1.0
1070
    74
1070
     0
1000
MTEXTEND
  0
POINT
  5
19B57
330
158F3
100
AcDbEntity
  8
DEFPOINTS
 62
     0
 48
50.0
100
AcDbPoint
 10
8146.914705172404
 20
9310.76645697979
 30
0.0
  0
POINT
  5
19B58
330
158F3
100
AcDbEntity
  8
DEFPOINTS
 62
     0
 48
50.0
100
AcDbPoint
 10
8146.914705172404
 20
9255.76645697979
 30
0.0
  0
POINT
  5
19B59
330
158F3
100
AcDbEntity
  8
DEFPOINTS
 62
     0
 48
50.0
100
AcDbPoint
 10
8794.341050906814
 20
9255.76645697979
 30
0.0
  0
ENDBLK
  5
15AA6
330
158F3
100
AcDbEntity
  8
0
 48
50.0
100
AcDbBlockEnd
  0
BLOCK
  5
15AA7
330
15901
100
AcDbEntity
  8
0
 48
50.0
100
AcDbBlockBegin
  2
*D7
 70
     1
 10
0.0
 20
0.0
 30
0.0
  3
*D7
  1

  0
LINE
  5
19B44
330
15901
100
AcDbEntity
  8
寸法
 62
     0
 48
50.0
370
    -2
100
AcDbLine
 10
7271.914705172401
 20
9330.76645697981
 30
0.0
 11
7271.914705172401
 21
9586.574676604792
 31
0.0
  0
LINE
  5
19B45
330
15901
100
AcDbEntity
  8
寸法
 62
     0
 48
50.0
370
    -2
100
AcDbLine
 10
7381.914705172405
 20
9330.766456979789
 30
0.0
 11
7381.914705172405
 21
9586.574676604792
 31
0.0
  0
LINE
  5
19B46
330
15901
100
AcDbEntity
  8
寸法
 62
     0
 48
50.0
370
    -2
100
AcDbLine
 10
7271.914705172401
 20
9526.574676604793
 30
0.0
 11
7171.914705172401
 21
9526.574676604793
 31
0.0
  0
LINE
  5
19B47
330
15901
100
AcDbEntity
  8
寸法
 62
     0
 48
50.0
370
    -2
100
AcDbLine
 10
7381.914705172405
 20
9526.574676604793
 30
0.0
 11
7481.914705172404
 21
9526.574676604793
 31
0.0
  0
LINE
  5
19B48
330
15901
100
AcDbEntity
  8
寸法
 62
     0
 48
50.0
370
    -2
100
AcDbLine
 10
7271.914705172401
 20
9526.574676604793
 30
0.0
 11
7381.914705172405
 21
9526.574676604793
 31
0.0
  0
INSERT
  5
19B49
330
15901
100
AcDbEntity
  8
寸法
 62
     0
 48
50.0
370
    -2
100
AcDbBlockReference
  2
_DOTSMALL
 10
7271.914705172401
 20
9526.574676604793
 30
0.0
 41
100.0
 42
100.0
 43
100.0
  0
INSERT
  5
19B4A
330
15901
100
AcDbEntity
  8
寸法
 62
     0
 48
50.0
370
    -2
100
AcDbBlockReference
  2
_DOTSMALL
 10
7381.914705172405
 20
9526.574676604793
 30
0.0
 41
100.0
 42
100.0
 43
100.0
 50
180.0
  0
MTEXT
  5
19B4B
330
15901
100
AcDbEntity
  8
寸法
 62
     7
 48
50.0
100
AcDbMText
 10
7326.914705172403
 20
9626.574676604793
 30
0.0
 40
120.0
 41
0.0
 71
     5
 72
     1
  1
\A1;110
  7
STYLE1
 73
     1
 44
1.0
1001
ACAD
1000
MTEXTBEGIN
1070
    73
1070
     1
1070
    44
1040
1.0
1070
    74
1070
     0
1000
MTEXTEND
  0
POINT
  5
19B4C
330
15901
100
AcDbEntity
  8
DEFPOINTS
 62
     0
 48
50.0
100
AcDbPoint
 10
7271.914705172401
 20
9310.766456979811
 30
0.0
  0
POINT
  5
19B4D
330
15901
100
AcDbEntity
  8
DEFPOINTS
 62
     0
 48
50.0
100
AcDbPoint
 10
7381.914705172405
 20
9310.76645697979
 30
0.0
  0
POINT
  5
19B4E
330
15901
100
AcDbEntity
  8
DEFPOINTS
 62
     0
 48
50.0
100
AcDbPoint
 10
7381.914705172405
 20
9526.574676604793
 30
0.0
  0
ENDBLK
  5
15AB3
330
15901
100
AcDbEntity
  8
0
 48
50.0
100
AcDbBlockEnd
  0
BLOCK
  5
15AB4
330
1590F
100
AcDbEntity
  8
0
 48
50.0
100
AcDbBlockBegin
  2
*D8
 70
     1
 10
0.0
 20
0.0
 30
0.0
  3
*D8
  1

  0
LINE
  5
19B3B
330
1590F
100
AcDbEntity
  8
寸法
 62
     0
 48
50.0
370
    -2
100
AcDbLine
 10
8091.914705172404
 20
9330.766456979803
 30
0.0
 11
8091.914705172404
 21
9586.574676604792
 31
0.0
  0
LINE
  5
19B3C
330
1590F
100
AcDbEntity
  8
寸法
 62
     0
 48
50.0
370
    -2
100
AcDbLine
 10
7381.914705172405
 20
9330.766456979789
 30
0.0
 11
7381.914705172405
 21
9586.574676604792
 31
0.0
  0
LINE
  5
19B3D
330
1590F
100
AcDbEntity
  8
寸法
 62
     0
 48
50.0
370
    -2
100
AcDbLine
 10
8091.914705172404
 20
9526.574676604793
 30
0.0
 11
7381.914705172405
 21
9526.574676604793
 31
0.0
  0
INSERT
  5
19B3E
330
1590F
100
AcDbEntity
  8
寸法
 62
     0
 48
50.0
370
    -2
100
AcDbBlockReference
  2
_DOTSMALL
 10
8091.914705172404
 20
9526.574676604793
 30
0.0
 41
100.0
 42
100.0
 43
100.0
  0
INSERT
  5
19B3F
330
1590F
100
AcDbEntity
  8
寸法
 62
     0
 48
50.0
370
    -2
100
AcDbBlockReference
  2
_DOTSMALL
 10
7381.914705172405
 20
9526.574676604793
 30
0.0
 41
100.0
 42
100.0
 43
100.0
 50
180.0
  0
MTEXT
  5
19B40
330
1590F
100
AcDbEntity
  8
寸法
 62
     7
 48
50.0
100
AcDbMText
 10
7736.914705172404
 20
9626.574676604793
 30
0.0
 40
120.0
 41
0.0
 71
     5
 72
     1
  1
\A1;710
  7
STYLE1
 73
     1
 44
1.0
1001
ACAD
1000
MTEXTBEGIN
1070
    73
1070
     1
1070
    44
1040
1.0
1070
    74
1070
     0
1000
MTEXTEND
  0
POINT
  5
19B41
330
1590F
100
AcDbEntity
  8
DEFPOINTS
 62
     0
 48
50.0
100
AcDbPoint
 10
8091.914705172404
 20
9310.766456979804
 30
0.0
  0
POINT
  5
19B42
330
1590F
100
AcDbEntity
  8
DEFPOINTS
 62
     0
 48
50.0
100
AcDbPoint
 10
7381.914705172405
 20
9310.76645697979
 30
0.0
  0
POINT
  5
19B43
330
1590F
100
AcDbEntity
  8
DEFPOINTS
 62
     0
 48
50.0
100
AcDbPoint
 10
7381.914705172405
 20
9526.574676604793
 30
0.0
  0
ENDBLK
  5
15ABE
330
1590F
100
AcDbEntity
  8
0
 48
50.0
100
AcDbBlockEnd
  0
BLOCK
  5
15ACC
330
15929
100
AcDbEntity
  8
0
 48
50.0
100
AcDbBlockBegin
  2
*D9
 70
     1
 10
0.0
 20
0.0
 30
0.0
  3
*D9
  1

  0
LINE
  5
19B30
330
15929
100
AcDbEntity
  8
寸法
 62
     0
 48
50.0
370
    -2
100
AcDbLine
 10
8166.914705172379
 20
8415.766456979774
 30
0.0
 11
8854.341050906789
 21
8415.766456979774
 31
0.0
  0
LINE
  5
19B31
330
15929
100
AcDbEntity
  8
寸法
 62
     0
 48
50.0
370
    -2
100
AcDbLine
 10
8166.914705172379
 20
8360.766456979774
 30
0.0
 11
8854.341050906789
 21
8360.766456979774
 31
0.0
  0
LINE
  5
19B32
330
15929
100
AcDbEntity
  8
寸法
 62
     0
 48
50.0
370
    -2
100
AcDbLine
 10
8794.341050906789
 20
8415.766456979774
 30
0.0
 11
8794.341050906789
 21
8515.766456979774
 31
0.0
  0
LINE
  5
19B33
330
15929
100
AcDbEntity
  8
寸法
 62
     0
 48
50.0
370
    -2
100
AcDbLine
 10
8794.341050906789
 20
8360.766456979774
 30
0.0
 11
8794.341050906789
 21
7874.419708700677
 31
0.0
  0
LINE
  5
19B34
330
15929
100
AcDbEntity
  8
寸法
 62
     0
 48
50.0
370
    -2
100
AcDbLine
 10
8794.341050906789
 20
8415.766456979774
 30
0.0
 11
8794.341050906789
 21
8360.766456979774
 31
0.0
  0
INSERT
  5
19B35
330
15929
100
AcDbEntity
  8
寸法
 62
     0
 48
50.0
370
    -2
100
AcDbBlockReference
  2
_DOTSMALL
 10
8794.341050906789
 20
8415.766456979774
 30
0.0
 41
100.0
 42
100.0
 43
100.0
 50
270.0
  0
INSERT
  5
19B36
330
15929
100
AcDbEntity
  8
寸法
 62
     0
 48
50.0
370
    -2
100
AcDbBlockReference
  2
_DOTSMALL
 10
8794.341050906789
 20
8360.766456979774
 30
0.0
 41
100.0
 42
100.0
 43
100.0
 50
90.0
  0
MTEXT
  5
19B37
330
15929
100
AcDbEntity
  8
寸法
 62
     7
 48
50.0
100
AcDbMText
 10
8694.341050906787
 20
7982.904990074915
 30
0.0
 40
120.0
 41
0.0
 71
     5
 72
     1
  1
\A1;55
  7
STYLE1
 11
0.0000000000000001
 21
1.0
 31
0.0
 73
     1
 44
1.0
1001
ACAD
1000
MTEXTBEGIN
1070
    73
1070
     1
1070
    44
1040
1.0
1070
    74
1070
     0
1000
MTEXTEND
  0
POINT
  5
19B38
330
15929
100
AcDbEntity
  8
DEFPOINTS
 62
     0
 48
50.0
100
AcDbPoint
 10
8146.914705172378
 20
8415.766456979774
 30
0.0
  0
POINT
  5
19B39
330
15929
100
AcDbEntity
  8
DEFPOINTS
 62
     0
 48
50.0
100
AcDbPoint
 10
8146.914705172378
 20
8360.766456979774
 30
0.0
  0
POINT
  5
19B3A
330
15929
100
AcDbEntity
  8
DEFPOINTS
 62
     0
 48
50.0
100
AcDbPoint
 10
8794.341050906789
 20
8360.766456979774
 30
0.0
  0
ENDBLK
  5
15AD8
330
15929
100
AcDbEntity
  8
0
 48
50.0
100
AcDbBlockEnd
  0
BLOCK
  5
15AD9
330
15937
100
AcDbEntity
  8
0
 48
50.0
100
AcDbBlockBegin
  2
*D10
 70
     1
 10
0.0
 20
0.0
 30
0.0
  3
*D10
  1

  0
LINE
  5
19B27
330
15937
100
AcDbEntity
  8
寸法
 62
     0
 48
50.0
370
    -2
100
AcDbLine
 10
8166.914705172404
 20
9255.76645697979
 30
0.0
 11
8854.341050906816
 21
9255.76645697979
 31
0.0
  0
LINE
  5
19B28
330
15937
100
AcDbEntity
  8
寸法
 62
     0
 48
50.0
370
    -2
100
AcDbLine
 10
8166.914705172379
 20
8415.766456979774
 30
0.0
 11
8854.341050906816
 21
8415.766456979774
 31
0.0
  0
LINE
  5
19B29
330
15937
100
AcDbEntity
  8
寸法
 62
     0
 48
50.0
370
    -2
100
AcDbLine
 10
8794.341050906814
 20
9255.76645697979
 30
0.0
 11
8794.341050906814
 21
8415.766456979774
 31
0.0
  0
INSERT
  5
19B2A
330
15937
100
AcDbEntity
  8
寸法
 62
     0
 48
50.0
370
    -2
100
AcDbBlockReference
  2
_DOTSMALL
 10
8794.341050906814
 20
9255.76645697979
 30
0.0
 41
100.0
 42
100.0
 43
100.0
 50
90.0
  0
INSERT
  5
19B2B
330
15937
100
AcDbEntity
  8
寸法
 62
     0
 48
50.0
370
    -2
100
AcDbBlockReference
  2
_DOTSMALL
 10
8794.341050906814
 20
8415.766456979774
 30
0.0
 41
100.0
 42
100.0
 43
100.0
 50
270.0
  0
MTEXT
  5
19B2C
330
15937
100
AcDbEntity
  8
寸法
 62
     7
 48
50.0
100
AcDbMText
 10
8694.329239883192
 20
8835.766456979783
 30
0.0
 40
120.0
 41
0.0
 71
     5
 72
     1
  1
\A1;2X420=840
  7
STYLE1
 11
0.0000000000000001
 21
1.0
 31
0.0
 73
     1
 44
1.0
1001
ACAD
1000
MTEXTBEGIN
1070
    73
1070
     1
1070
    44
1040
1.0
1070
    74
1070
     0
1000
MTEXTEND
  0
POINT
  5
19B2D
330
15937
100
AcDbEntity
  8
DEFPOINTS
 62
     0
 48
50.0
100
AcDbPoint
 10
8146.914705172404
 20
9255.76645697979
 30
0.0
  0
POINT
  5
19B2E
330
15937
100
AcDbEntity
  8
DEFPOINTS
 62
     0
 48
50.0
100
AcDbPoint
 10
8146.914705172378
 20
8415.766456979774
 30
0.0
  0
POINT
  5
19B2F
330
15937
100
AcDbEntity
  8
DEFPOINTS
 62
     0
 48
50.0
100
AcDbPoint
 10
8794.341050906814
 20
8415.766456979774
 30
0.0
  0
ENDBLK
  5
15AE3
330
15937
100
AcDbEntity
  8
0
 48
50.0
100
AcDbBlockEnd
  0
BLOCK
  5
15AE4
330
15943
100
AcDbEntity
  8
0
 48
50.0
100
AcDbBlockBegin
  2
*D11
 70
     1
 10
0.0
 20
0.0
 30
0.0
  3
*D11
  1

  0
LINE
  5
19B1E
330
15943
100
AcDbEntity
  8
寸法
 62
     0
 48
50.0
370
    -2
100
AcDbLine
 10
8166.914705172404
 20
9310.76645697979
 30
0.0
 11
9163.452581722491
 21
9310.76645697979
 31
0.0
  0
LINE
  5
19B1F
330
15943
100
AcDbEntity
  8
寸法
 62
     0
 48
50.0
370
    -2
100
AcDbLine
 10
8166.914705172379
 20
8360.766456979774
 30
0.0
 11
9163.452581722491
 21
8360.766456979774
 31
0.0
  0
LINE
  5
19B20
330
15943
100
AcDbEntity
  8
寸法
 62
     0
 48
50.0
370
    -2
100
AcDbLine
 10
9103.452581722491
 20
9310.76645697979
 30
0.0
 11
9103.452581722491
 21
8360.766456979774
 31
0.0
  0
INSERT
  5
19B21
330
15943
100
AcDbEntity
  8
寸法
 62
     0
 48
50.0
370
    -2
100
AcDbBlockReference
  2
_DOTSMALL
 10
9103.452581722491
 20
9310.76645697979
 30
0.0
 41
100.0
 42
100.0
 43
100.0
 50
90.0
  0
INSERT
  5
19B22
330
15943
100
AcDbEntity
  8
寸法
 62
     0
 48
50.0
370
    -2
100
AcDbBlockReference
  2
_DOTSMALL
 10
9103.452581722491
 20
8360.766456979774
 30
0.0
 41
100.0
 42
100.0
 43
100.0
 50
270.0
  0
MTEXT
  5
19B23
330
15943
100
AcDbEntity
  8
寸法
 62
     7
 48
50.0
100
AcDbMText
 10
9003.452581722489
 20
8834.744175538693
 30
0.0
 40
120.0
 41
0.0
 71
     5
 72
     1
  1
\A1;950
  7
STYLE1
 11
0.0000000000000001
 21
1.0
 31
0.0
 73
     1
 44
1.0
1001
ACAD
1000
MTEXTBEGIN
1070
    73
1070
     1
1070
    44
1040
1.0
1070
    74
1070
     0
1000
MTEXTEND
  0
POINT
  5
19B24
330
15943
100
AcDbEntity
  8
DEFPOINTS
 62
     0
 48
50.0
100
AcDbPoint
 10
8146.914705172404
 20
9310.76645697979
 30
0.0
  0
POINT
  5
19B25
330
15943
100
AcDbEntity
  8
DEFPOINTS
 62
     0
 48
50.0
100
AcDbPoint
 10
8146.914705172378
 20
8360.766456979774
 30
0.0
  0
POINT
  5
19B26
330
15943
100
AcDbEntity
  8
DEFPOINTS
 62
     0
 48
50.0
100
AcDbPoint
 10
9103.452581722491
 20
8360.766456979774
 30
0.0
  0
ENDBLK
  5
15AEE
330
15943
100
AcDbEntity
  8
0
 48
50.0
100
AcDbBlockEnd
  0
BLOCK
  5
15B26
330
1598B
100
AcDbEntity
  8
0
 48
50.0
100
AcDbBlockBegin
  2
*D12
 70
     1
 10
0.0
 20
0.0
 30
0.0
  3
*D12
  1

  0
LINE
  5
19B15
330
1598B
100
AcDbEntity
  8
寸法
 62
     0
 48
50.0
370
    -2
100
AcDbLine
 10
4846.914705172379
 20
5391.07727689386
 30
0.0
 11
4488.810177564777
 21
5391.07727689386
 31
0.0
  0
LINE
  5
19B16
330
1598B
100
AcDbEntity
  8
寸法
 62
     0
 48
50.0
370
    -2
100
AcDbLine
 10
4846.914705172379
 20
4545.077276893864
 30
0.0
 11
4488.810177564777
 21
4545.077276893864
 31
0.0
  0
LINE
  5
19B17
330
1598B
100
AcDbEntity
  8
寸法
 62
     0
 48
50.0
370
    -2
100
AcDbLine
 10
4548.810177564776
 20
5391.07727689386
 30
0.0
 11
4548.810177564776
 21
4545.077276893864
 31
0.0
  0
INSERT
  5
19B18
330
1598B
100
AcDbEntity
  8
寸法
 62
     0
 48
50.0
370
    -2
100
AcDbBlockReference
  2
_DOTSMALL
 10
4548.810177564776
 20
5391.07727689386
 30
0.0
 41
100.0
 42
100.0
 43
100.0
 50
90.0
  0
INSERT
  5
19B19
330
1598B
100
AcDbEntity
  8
寸法
 62
     0
 48
50.0
370
    -2
100
AcDbBlockReference
  2
_DOTSMALL
 10
4548.810177564776
 20
4545.077276893864
 30
0.0
 41
100.0
 42
100.0
 43
100.0
 50
270.0
  0
MTEXT
  5
19B1A
330
1598B
100
AcDbEntity
  8
寸法
 62
     7
 48
50.0
100
AcDbMText
 10
4348.810177564775
 20
4971.077276893863
 30
0.0
 40
120.0
 41
0.0
 71
     5
 72
     1
  1
\A1;有効開口部\P高さ846
  7
STYLE1
 11
0.0000000000000001
 21
1.0
 31
0.0
 73
     1
 44
1.0
1001
ACAD
1000
MTEXTBEGIN
1070
    73
1070
     1
1070
    44
1040
1.0
1070
    74
1070
     0
1000
MTEXTEND
  0
POINT
  5
19B1B
330
1598B
100
AcDbEntity
  8
DEFPOINTS
 62
     0
 48
50.0
100
AcDbPoint
 10
4866.914705172378
 20
5391.07727689386
 30
0.0
  0
POINT
  5
19B1C
330
1598B
100
AcDbEntity
  8
DEFPOINTS
 62
     0
 48
50.0
100
AcDbPoint
 10
4866.914705172378
 20
4545.077276893864
 30
0.0
  0
POINT
  5
19B1D
330
1598B
100
AcDbEntity
  8
DEFPOINTS
 62
     0
 48
50.0
100
AcDbPoint
 10
4548.810177564776
 20
4545.077276893864
 30
0.0
  0
ENDBLK
  5
15B30
330
1598B
100
AcDbEntity
  8
0
 48
50.0
100
AcDbBlockEnd
  0
BLOCK
  5
15CF3
330
15CF2
100
AcDbEntity
  8
0
 48
50.0
100
AcDbBlockBegin
  2
*D13
 70
     1
 10
0.0
 20
0.0
 30
0.0
  3
*D13
  1

  0
LINE
  5
19B0C
330
15CF2
100
AcDbEntity
  8
寸法
 62
     0
 48
50.0
370
    -2
100
AcDbLine
 10
4921.914705172399
 20
8340.766456979688
 30
0.0
 11
4921.914705172399
 21
7860.942789184609
 31
0.0
  0
LINE
  5
19B0D
330
15CF2
100
AcDbEntity
  8
寸法
 62
     0
 48
50.0
370
    -2
100
AcDbLine
 10
5606.914705172395
 20
8340.76645697965
 30
0.0
 11
5606.914705172395
 21
7860.942789184609
 31
0.0
  0
LINE
  5
19B0E
330
15CF2
100
AcDbEntity
  8
寸法
 62
     0
 48
50.0
370
    -2
100
AcDbLine
 10
4921.914705172399
 20
7920.942789184611
 30
0.0
 11
5606.914705172395
 21
7920.942789184611
 31
0.0
  0
INSERT
  5
19B0F
330
15CF2
100
AcDbEntity
  8
寸法
 62
     0
 48
50.0
370
    -2
100
AcDbBlockReference
  2
_DOTSMALL
 10
4921.914705172399
 20
7920.942789184611
 30
0.0
 41
100.0
 42
100.0
 43
100.0
 50
180.0
  0
INSERT
  5
19B10
330
15CF2
100
AcDbEntity
  8
寸法
 62
     0
 48
50.0
370
    -2
100
AcDbBlockReference
  2
_DOTSMALL
 10
5606.914705172395
 20
7920.942789184611
 30
0.0
 41
100.0
 42
100.0
 43
100.0
  0
MTEXT
  5
19B11
330
15CF2
100
AcDbEntity
  8
寸法
 62
     7
 48
50.0
100
AcDbMText
 10
5264.414705172398
 20
8020.94278918461
 30
0.0
 40
120.0
 41
0.0
 71
     5
 72
     1
  1
\A1;685
  7
STYLE1
 73
     1
 44
1.0
1001
ACAD
1000
MTEXTBEGIN
1070
    73
1070
     1
1070
    44
1040
1.0
1070
    74
1070
     0
1000
MTEXTEND
  0
POINT
  5
19B12
330
15CF2
100
AcDbEntity
  8
DEFPOINTS
 62
     0
 48
50.0
100
AcDbPoint
 10
4921.914705172399
 20
8360.766456979687
 30
0.0
  0
POINT
  5
19B13
330
15CF2
100
AcDbEntity
  8
DEFPOINTS
 62
     0
 48
50.0
100
AcDbPoint
 10
5606.914705172395
 20
8360.766456979652
 30
0.0
  0
POINT
  5
19B14
330
15CF2
100
AcDbEntity
  8
DEFPOINTS
 62
     0
 48
50.0
100
AcDbPoint
 10
5606.914705172395
 20
7920.942789184611
 30
0.0
  0
ENDBLK
  5
15CFD
330
15CF2
100
AcDbEntity
  8
0
 48
50.0
100
AcDbBlockEnd
  0
BLOCK
  5
15E1A
330
15E19
100
AcDbEntity
  8
0
100
AcDbBlockBegin
  2
_OPEN
 70
     0
 10
0.0
 20
0.0
 30
0.0
  3
_OPEN
  1

  0
LINE
  5
15E1B
330
15E19
100
AcDbEntity
  8
0
  6
ByBlock
 62
     0
100
AcDbLine
 10
-1.0
 20
0.1666666666666666
 30
0.0
 11
0.0
 21
0.0
 31
0.0
  0
LINE
  5
15E1C
330
15E19
100
AcDbEntity
  8
0
  6
ByBlock
 62
     0
100
AcDbLine
 10
0.0
 20
0.0
 30
0.0
 11
-1.0
 21
-0.1666666666666666
 31
0.0
  0
LINE
  5
15E1D
330
15E19
100
AcDbEntity
  8
0
  6
ByBlock
 62
     0
100
AcDbLine
 10
0.0
 20
0.0
 30
0.0
 11
-1.0
 21
0.0
 31
0.0
  0
ENDBLK
  5
15E1E
330
15E19
100
AcDbEntity
  8
0
100
AcDbBlockEnd
  0
BLOCK
  5
15E20
330
15E1F
100
AcDbEntity
  8
0
 48
50.0
100
AcDbBlockBegin
  2
_DOT
 70
     0
 10
0.0
 20
0.0
 30
0.0
  3
_DOT
  1

  0
LWPOLYLINE
  5
15E21
330
15E1F
100
AcDbEntity
  8
0
  6
ByBlock
 62
     0
 48
50.0
100
AcDbPolyline
 90
        2
 70
     1
 43
0.5
 10
-0.25
 20
0.0
 42
1.0
 10
0.25
 20
0.0
 42
1.0
  0
LINE
  5
15E22
330
15E1F
100
AcDbEntity
  8
0
  6
ByBlock
 62
     0
 48
50.0
100
AcDbLine
 10
-0.5
 20
0.0
 30
0.0
 11
-1.0
 21
0.0
 31
0.0
  0
ENDBLK
  5
15E23
330
15E1F
100
AcDbEntity
  8
0
 48
50.0
100
AcDbBlockEnd
  0
BLOCK
  5
170B9
330
170AD
100
AcDbEntity
  8
0
 48
50.0
100
AcDbBlockBegin
  2
*D16
 70
     1
 10
0.0
 20
0.0
 30
0.0
  3
*D16
  1

  0
LINE
  5
19AEF
330
170AD
100
AcDbEntity
  8
寸法
 62
     0
 48
50.0
370
    -2
100
AcDbLine
 10
4866.914705172377
 20
5664.577276893869
 30
0.0
 11
4866.914705172377
 21
5917.118862152106
 31
0.0
  0
LINE
  5
19AF0
330
170AD
100
AcDbEntity
  8
寸法
 62
     0
 48
50.0
370
    -2
100
AcDbLine
 10
4816.914705172377
 20
5664.577276893867
 30
0.0
 11
4816.914705172377
 21
5917.118862152106
 31
0.0
  0
LINE
  5
19AF1
330
170AD
100
AcDbEntity
  8
寸法
 62
     0
 48
50.0
370
    -2
100
AcDbLine
 10
4866.914705172377
 20
5857.118862152105
 30
0.0
 11
4966.914705172378
 21
5857.118862152105
 31
0.0
  0
LINE
  5
19AF2
330
170AD
100
AcDbEntity
  8
寸法
 62
     0
 48
50.0
370
    -2
100
AcDbLine
 10
4816.914705172377
 20
5857.118862152105
 30
0.0
 11
4397.382179703643
 21
5857.118862152105
 31
0.0
  0
LINE
  5
19AF3
330
170AD
100
AcDbEntity
  8
寸法
 62
     0
 48
50.0
370
    -2
100
AcDbLine
 10
4866.914705172377
 20
5857.118862152105
 30
0.0
 11
4816.914705172377
 21
5857.118862152105
 31
0.0
  0
INSERT
  5
19AF4
330
170AD
100
AcDbEntity
  8
寸法
 62
     0
 48
50.0
370
    -2
100
AcDbBlockReference
  2
_DOTSMALL
 10
4866.914705172377
 20
5857.118862152105
 30
0.0
 41
100.0
 42
100.0
 43
100.0
 50
180.0
  0
INSERT
  5
19AF5
330
170AD
100
AcDbEntity
  8
寸法
 62
     0
 48
50.0
370
    -2
100
AcDbBlockReference
  2
_DOTSMALL
 10
4816.914705172377
 20
5857.118862152105
 30
0.0
 41
100.0
 42
100.0
 43
100.0
  0
MTEXT
  5
19AF6
330
170AD
100
AcDbEntity
  8
寸法
 62
     7
 48
50.0
100
AcDbMText
 10
4503.42942379813
 20
5957.118862152106
 30
0.0
 40
120.0
 41
0.0
 71
     5
 72
     1
  1
\A1;50
  7
STYLE1
 73
     1
 44
1.0
1001
ACAD
1000
MTEXTBEGIN
1070
    73
1070
     1
1070
    44
1040
1.0
1070
    74
1070
     0
1000
MTEXTEND
  0
POINT
  5
19AF7
330
170AD
100
AcDbEntity
  8
DEFPOINTS
 62
     0
 48
50.0
100
AcDbPoint
 10
4866.914705172377
 20
5644.577276893869
 30
0.0
  0
POINT
  5
19AF8
330
170AD
100
AcDbEntity
  8
DEFPOINTS
 62
     0
 48
50.0
100
AcDbPoint
 10
4816.914705172377
 20
5644.577276893866
 30
0.0
  0
POINT
  5
19AF9
330
170AD
100
AcDbEntity
  8
DEFPOINTS
 62
     0
 48
50.0
100
AcDbPoint
 10
4816.914705172377
 20
5857.118862152105
 30
0.0
  0
ENDBLK
  5
170BA
330
170AD
100
AcDbEntity
  8
0
 48
50.0
100
AcDbBlockEnd
  0
BLOCK
  5
170C5
330
170BB
100
AcDbEntity
  8
0
 48
50.0
100
AcDbBlockBegin
  2
*D17
 70
     1
 10
0.0
 20
0.0
 30
0.0
  3
*D17
  1

  0
LINE
  5
19AFA
330
170BB
100
AcDbEntity
  8
寸法
 62
     0
 48
50.0
370
    -2
100
AcDbLine
 10
8146.914705172381
 20
5664.577276893864
 30
0.0
 11
8146.914705172381
 21
5917.118862152106
 31
0.0
  0
LINE
  5
19AFB
330
170BB
100
AcDbEntity
  8
寸法
 62
     0
 48
50.0
370
    -2
100
AcDbLine
 10
4866.914705172377
 20
5664.577276893869
 30
0.0
 11
4866.914705172377
 21
5917.118862152106
 31
0.0
  0
LINE
  5
19AFC
330
170BB
100
AcDbEntity
  8
寸法
 62
     0
 48
50.0
370
    -2
100
AcDbLine
 10
8146.914705172381
 20
5857.118862152105
 30
0.0
 11
4866.914705172377
 21
5857.118862152105
 31
0.0
  0
INSERT
  5
19AFD
330
170BB
100
AcDbEntity
  8
寸法
 62
     0
 48
50.0
370
    -2
100
AcDbBlockReference
  2
_DOTSMALL
 10
8146.914705172381
 20
5857.118862152105
 30
0.0
 41
100.0
 42
100.0
 43
100.0
  0
INSERT
  5
19AFE
330
170BB
100
AcDbEntity
  8
寸法
 62
     0
 48
50.0
370
    -2
100
AcDbBlockReference
  2
_DOTSMALL
 10
4866.914705172377
 20
5857.118862152105
 30
0.0
 41
100.0
 42
100.0
 43
100.0
 50
180.0
  0
MTEXT
  5
19AFF
330
170BB
100
AcDbEntity
  8
寸法
 62
     7
 48
50.0
100
AcDbMText
 10
6506.914705172379
 20
5957.130673175727
 30
0.0
 40
120.0
 41
0.0
 71
     5
 72
     1
  1
\A1;柱外寸法3280
  7
STYLE1
 73
     1
 44
1.0
1001
ACAD
1000
MTEXTBEGIN
1070
    73
1070
     1
1070
    44
1040
1.0
1070
    74
1070
     0
1000
MTEXTEND
  0
POINT
  5
19B00
330
170BB
100
AcDbEntity
  8
DEFPOINTS
 62
     0
 48
50.0
100
AcDbPoint
 10
8146.914705172381
 20
5644.577276893864
 30
0.0
  0
POINT
  5
19B01
330
170BB
100
AcDbEntity
  8
DEFPOINTS
 62
     0
 48
50.0
100
AcDbPoint
 10
4866.914705172377
 20
5644.577276893869
 30
0.0
  0
POINT
  5
19B02
330
170BB
100
AcDbEntity
  8
DEFPOINTS
 62
     0
 48
50.0
100
AcDbPoint
 10
4866.914705172377
 20
5857.118862152105
 30
0.0
  0
ENDBLK
  5
170C6
330
170BB
100
AcDbEntity
  8
0
 48
50.0
100
AcDbBlockEnd
  0
BLOCK
  5
170D1
330
170C7
100
AcDbEntity
  8
0
 48
50.0
100
AcDbBlockBegin
  2
*D18
 70
     1
 10
0.0
 20
0.0
 30
0.0
  3
*D18
  1

  0
LINE
  5
19B03
330
170C7
100
AcDbEntity
  8
寸法
 62
     0
 48
50.0
370
    -2
100
AcDbLine
 10
4816.914705172377
 20
5664.577276893867
 30
0.0
 11
4816.914705172377
 21
6140.075840589954
 31
0.0
  0
LINE
  5
19B04
330
170C7
100
AcDbEntity
  8
寸法
 62
     0
 48
50.0
370
    -2
100
AcDbLine
 10
8196.91470517238
 20
5664.577276893862
 30
0.0
 11
8196.91470517238
 21
6140.075840589954
 31
0.0
  0
LINE
  5
19B05
330
170C7
100
AcDbEntity
  8
寸法
 62
     0
 48
50.0
370
    -2
100
AcDbLine
 10
4816.914705172377
 20
6080.075840589954
 30
0.0
 11
8196.91470517238
 21
6080.075840589954
 31
0.0
  0
INSERT
  5
19B06
330
170C7
100
AcDbEntity
  8
寸法
 62
     0
 48
50.0
370
    -2
100
AcDbBlockReference
  2
_DOTSMALL
 10
4816.914705172377
 20
6080.075840589954
 30
0.0
 41
100.0
 42
100.0
 43
100.0
 50
180.0
  0
INSERT
  5
19B07
330
170C7
100
AcDbEntity
  8
寸法
 62
     0
 48
50.0
370
    -2
100
AcDbBlockReference
  2
_DOTSMALL
 10
8196.91470517238
 20
6080.075840589954
 30
0.0
 41
100.0
 42
100.0
 43
100.0
  0
MTEXT
  5
19B08
330
170C7
100
AcDbEntity
  8
寸法
 62
     7
 48
50.0
100
AcDbMText
 10
6506.914705172379
 20
6180.075840589954
 30
0.0
 40
120.0
 41
0.0
 71
     5
 72
     1
  1
\A1;3380
  7
STYLE1
 73
     1
 44
1.0
1001
ACAD
1000
MTEXTBEGIN
1070
    73
1070
     1
1070
    44
1040
1.0
1070
    74
1070
     0
1000
MTEXTEND
  0
POINT
  5
19B09
330
170C7
100
AcDbEntity
  8
DEFPOINTS
 62
     0
 48
50.0
100
AcDbPoint
 10
4816.914705172377
 20
5644.577276893866
 30
0.0
  0
POINT
  5
19B0A
330
170C7
100
AcDbEntity
  8
DEFPOINTS
 62
     0
 48
50.0
100
AcDbPoint
 10
8196.91470517238
 20
5644.577276893862
 30
0.0
  0
POINT
  5
19B0B
330
170C7
100
AcDbEntity
  8
DEFPOINTS
 62
     0
 48
50.0
100
AcDbPoint
 10
8196.91470517238
 20
6080.075840589954
 30
0.0
  0
ENDBLK
  5
170D2
330
170C7
100
AcDbEntity
  8
0
 48
50.0
100
AcDbBlockEnd
  0
BLOCK
  5
17107
330
170FB
100
AcDbEntity
  8
0
 48
50.0
100
AcDbBlockBegin
  2
*D19
 70
     1
 10
0.0
 20
0.0
 30
0.0
  3
*D19
  1

  0
LINE
  5
19AE4
330
170FB
100
AcDbEntity
  8
寸法
 62
     0
 48
50.0
370
    -2
100
AcDbLine
 10
8196.91470517238
 20
5664.577276893862
 30
0.0
 11
8196.91470517238
 21
5917.118862152103
 31
0.0
  0
LINE
  5
19AE5
330
170FB
100
AcDbEntity
  8
寸法
 62
     0
 48
50.0
370
    -2
100
AcDbLine
 10
8146.914705172381
 20
5664.577276893864
 30
0.0
 11
8146.914705172381
 21
5917.118862152103
 31
0.0
  0
LINE
  5
19AE6
330
170FB
100
AcDbEntity
  8
寸法
 62
     0
 48
50.0
370
    -2
100
AcDbLine
 10
8146.914705172381
 20
5857.118862152103
 30
0.0
 11
8046.914705172381
 21
5857.118862152103
 31
0.0
  0
LINE
  5
19AE7
330
170FB
100
AcDbEntity
  8
寸法
 62
     0
 48
50.0
370
    -2
100
AcDbLine
 10
8196.91470517238
 20
5857.118862152103
 30
0.0
 11
8616.447230641105
 21
5857.118862152103
 31
0.0
  0
LINE
  5
19AE8
330
170FB
100
AcDbEntity
  8
寸法
 62
     0
 48
50.0
370
    -2
100
AcDbLine
 10
8146.914705172381
 20
5857.118862152103
 30
0.0
 11
8196.91470517238
 21
5857.118862152103
 31
0.0
  0
INSERT
  5
19AE9
330
170FB
100
AcDbEntity
  8
寸法
 62
     0
 48
50.0
370
    -2
100
AcDbBlockReference
  2
_DOTSMALL
 10
8146.914705172381
 20
5857.118862152103
 30
0.0
 41
100.0
 42
100.0
 43
100.0
  0
INSERT
  5
19AEA
330
170FB
100
AcDbEntity
  8
寸法
 62
     0
 48
50.0
370
    -2
100
AcDbBlockReference
  2
_DOTSMALL
 10
8196.91470517238
 20
5857.118862152103
 30
0.0
 41
100.0
 42
100.0
 43
100.0
 50
180.0
  0
MTEXT
  5
19AEB
330
170FB
100
AcDbEntity
  8
寸法
 62
     7
 48
50.0
100
AcDbMText
 10
8510.399986546618
 20
5957.118862152103
 30
0.0
 40
120.0
 41
0.0
 71
     5
 72
     1
  1
\A1;50
  7
STYLE1
 73
     1
 44
1.0
1001
ACAD
1000
MTEXTBEGIN
1070
    73
1070
     1
1070
    44
1040
1.0
1070
    74
1070
     0
1000
MTEXTEND
  0
POINT
  5
19AEC
330
170FB
100
AcDbEntity
  8
DEFPOINTS
 62
     0
 48
50.0
100
AcDbPoint
 10
8196.91470517238
 20
5644.577276893862
 30
0.0
  0
POINT
  5
19AED
330
170FB
100
AcDbEntity
  8
DEFPOINTS
 62
     0
 48
50.0
100
AcDbPoint
 10
8146.914705172381
 20
5644.577276893864
 30
0.0
  0
POINT
  5
19AEE
330
170FB
100
AcDbEntity
  8
DEFPOINTS
 62
     0
 48
50.0
100
AcDbPoint
 10
8146.914705172381
 20
5857.118862152103
 30
0.0
  0
ENDBLK
  5
17108
330
170FB
100
AcDbEntity
  8
0
 48
50.0
100
AcDbBlockEnd
  0
BLOCK
  5
17A9F
330
17A93
100
AcDbEntity
  8
0
 48
50.0
100
AcDbBlockBegin
  2
*D20
 70
     1
 10
0.0
 20
0.0
 30
0.0
  3
*D20
  1

  0
LINE
  5
19AD9
330
17A93
100
AcDbEntity
  8
寸法
 62
     0
 48
50.0
370
    -2
100
AcDbLine
 10
10506.78424768798
 20
3619.577276893864
 30
0.0
 11
9871.823527040557
 21
3619.577276893864
 31
0.0
  0
LINE
  5
19ADA
330
17A93
100
AcDbEntity
  8
寸法
 62
     0
 48
50.0
370
    -2
100
AcDbLine
 10
10458.78661773276
 20
3569.577276893863
 30
0.0
 11
9871.823527040557
 21
3569.577276893863
 31
0.0
  0
LINE
  5
19ADB
330
17A93
100
AcDbEntity
  8
寸法
 62
     0
 48
50.0
370
    -2
100
AcDbLine
 10
9931.823527040556
 20
3619.577276893864
 30
0.0
 11
9931.823527040556
 21
3719.577276893864
 31
0.0
  0
LINE
  5
19ADC
330
17A93
100
AcDbEntity
  8
寸法
 62
     0
 48
50.0
370
    -2
100
AcDbLine
 10
9931.823527040556
 20
3569.577276893863
 30
0.0
 11
9931.823527040556
 21
3157.482788704882
 31
0.0
  0
LINE
  5
19ADD
330
17A93
100
AcDbEntity
  8
寸法
 62
     0
 48
50.0
370
    -2
100
AcDbLine
 10
9931.823527040556
 20
3619.577276893864
 30
0.0
 11
9931.823527040556
 21
3569.577276893863
 31
0.0
  0
INSERT
  5
19ADE
330
17A93
100
AcDbEntity
  8
寸法
 62
     0
 48
50.0
370
    -2
100
AcDbBlockReference
  2
_DOTSMALL
 10
9931.823527040556
 20
3619.577276893864
 30
0.0
 41
100.0
 42
100.0
 43
100.0
 50
270.0
  0
INSERT
  5
19ADF
330
17A93
100
AcDbEntity
  8
寸法
 62
     0
 48
50.0
370
    -2
100
AcDbBlockReference
  2
_DOTSMALL
 10
9931.823527040556
 20
3569.577276893863
 30
0.0
 41
100.0
 42
100.0
 43
100.0
 50
90.0
  0
MTEXT
  5
19AE0
330
17A93
100
AcDbEntity
  8
寸法
 62
     7
 48
50.0
100
AcDbMText
 10
9831.823527040556
 20
3263.530032799372
 30
0.0
 40
120.0
 41
0.0
 71
     5
 72
     1
  1
\A1;50
  7
STYLE1
 11
0.0000000000000001
 21
1.0
 31
0.0
 73
     1
 44
1.0
1001
ACAD
1000
MTEXTBEGIN
1070
    73
1070
     1
1070
    44
1040
1.0
1070
    74
1070
     0
1000
MTEXTEND
  0
POINT
  5
19AE1
330
17A93
100
AcDbEntity
  8
DEFPOINTS
 62
     0
 48
50.0
100
AcDbPoint
 10
10526.78424768798
 20
3619.577276893864
 30
0.0
  0
POINT
  5
19AE2
330
17A93
100
AcDbEntity
  8
DEFPOINTS
 62
     0
 48
50.0
100
AcDbPoint
 10
10478.78661773276
 20
3569.577276893863
 30
0.0
  0
POINT
  5
19AE3
330
17A93
100
AcDbEntity
  8
DEFPOINTS
 62
     0
 48
50.0
100
AcDbPoint
 10
9931.823527040556
 20
3569.577276893863
 30
0.0
  0
ENDBLK
  5
17AA0
330
17A93
100
AcDbEntity
  8
0
 48
50.0
100
AcDbBlockEnd
  0
BLOCK
  5
17AAB
330
17AA1
100
AcDbEntity
  8
0
 48
50.0
100
AcDbBlockBegin
  2
*D21
 70
     1
 10
0.0
 20
0.0
 30
0.0
  3
*D21
  1

  0
LINE
  5
19AD0
330
17AA1
100
AcDbEntity
  8
寸法
 62
     0
 48
50.0
370
    -2
100
AcDbLine
 10
10506.78424768798
 20
5409.577276893862
 30
0.0
 11
9871.823527040559
 21
5409.577276893863
 31
0.0
  0
LINE
  5
19AD1
330
17AA1
100
AcDbEntity
  8
寸法
 62
     0
 48
50.0
370
    -2
100
AcDbLine
 10
10506.78424768798
 20
3619.577276893864
 30
0.0
 11
9871.823527040557
 21
3619.577276893864
 31
0.0
  0
LINE
  5
19AD2
330
17AA1
100
AcDbEntity
  8
寸法
 62
     0
 48
50.0
370
    -2
100
AcDbLine
 10
9931.823527040558
 20
5409.577276893863
 30
0.0
 11
9931.823527040556
 21
3619.577276893864
 31
0.0
  0
INSERT
  5
19AD3
330
17AA1
100
AcDbEntity
  8
寸法
 62
     0
 48
50.0
370
    -2
100
AcDbBlockReference
  2
_DOTSMALL
 10
9931.823527040558
 20
5409.577276893863
 30
0.0
 41
100.0
 42
100.0
 43
100.0
 50
90.0
  0
INSERT
  5
19AD4
330
17AA1
100
AcDbEntity
  8
寸法
 62
     0
 48
50.0
370
    -2
100
AcDbBlockReference
  2
_DOTSMALL
 10
9931.823527040556
 20
3619.577276893864
 30
0.0
 41
100.0
 42
100.0
 43
100.0
 50
270.0
  0
MTEXT
  5
19AD5
330
17AA1
100
AcDbEntity
  8
寸法
 62
     7
 48
50.0
100
AcDbMText
 10
9831.823527040556
 20
4524.612288770249
 30
0.0
 40
120.0
 41
0.0
 71
     5
 72
     1
  1
\A1;1790
  7
STYLE1
 11
0.0000000000000001
 21
1.0
 31
0.0
 73
     1
 44
1.0
1001
ACAD
1000
MTEXTBEGIN
1070
    73
1070
     1
1070
    44
1040
1.0
1070
    74
1070
     0
1000
MTEXTEND
  0
POINT
  5
19AD6
330
17AA1
100
AcDbEntity
  8
DEFPOINTS
 62
     0
 48
50.0
100
AcDbPoint
 10
10526.78424768798
 20
5409.577276893862
 30
0.0
  0
POINT
  5
19AD7
330
17AA1
100
AcDbEntity
  8
DEFPOINTS
 62
     0
 48
50.0
100
AcDbPoint
 10
10526.78424768798
 20
3619.577276893864
 30
0.0
  0
POINT
  5
19AD8
330
17AA1
100
AcDbEntity
  8
DEFPOINTS
 62
     0
 48
50.0
100
AcDbPoint
 10
9931.823527040556
 20
3619.577276893864
 30
0.0
  0
ENDBLK
  5
17AAC
330
17AA1
100
AcDbEntity
  8
0
 48
50.0
100
AcDbBlockEnd
  0
BLOCK
  5
17AEB
330
17AE1
100
AcDbEntity
  8
0
 48
50.0
100
AcDbBlockBegin
  2
*D22
 70
     1
 10
0.0
 20
0.0
 30
0.0
  3
*D22
  1

  0
LINE
  5
19AC7
330
17AE1
100
AcDbEntity
  8
寸法
 62
     0
 48
50.0
370
    -2
100
AcDbLine
 10
11503.78661773276
 20
3569.57727689386
 30
0.0
 11
12054.19515566659
 21
3569.57727689386
 31
0.0
  0
LINE
  5
19AC8
330
17AE1
100
AcDbEntity
  8
寸法
 62
     0
 48
50.0
370
    -2
100
AcDbLine
 10
11583.78661773277
 20
5589.57727689386
 30
0.0
 11
12054.19515566659
 21
5589.57727689386
 31
0.0
  0
LINE
  5
19AC9
330
17AE1
100
AcDbEntity
  8
寸法
 62
     0
 48
50.0
370
    -2
100
AcDbLine
 10
12014.19515566659
 20
3589.577276893861
 30
0.0
 11
12014.19515566659
 21
5569.57727689386
 31
0.0
  0
INSERT
  5
19ACA
330
17AE1
100
AcDbEntity
  8
寸法
 62
     0
 48
50.0
370
    -2
100
AcDbBlockReference
  2
_DOT
 10
12014.19515566659
 20
3569.57727689386
 30
0.0
 41
20.0
 42
20.0
 43
20.0
 50
270.0
  0
INSERT
  5
19ACB
330
17AE1
100
AcDbEntity
  8
寸法
 62
     0
 48
50.0
370
    -2
100
AcDbBlockReference
  2
_DOT
 10
12014.19515566659
 20
5589.57727689386
 30
0.0
 41
20.0
 42
20.0
 43
20.0
 50
90.0
  0
MTEXT
  5
19ACC
330
17AE1
100
AcDbEntity
  8
寸法
 62
     7
 48
50.0
100
AcDbMText
 10
11922.18334464296
 20
4521.501672958286
 30
0.0
 40
120.0
 41
0.0
 71
     5
 72
     1
  1
\A1;2020
  7
STYLE1
 11
0.0000000000000001
 21
1.0
 31
0.0
 73
     1
 44
1.0
1001
ACAD
1000
MTEXTBEGIN
1070
    73
1070
     1
1070
    44
1040
1.0
1070
    74
1070
     0
1000
MTEXTEND
  0
POINT
  5
19ACD
330
17AE1
100
AcDbEntity
  8
DEFPOINTS
 62
     0
 48
50.0
100
AcDbPoint
 10
11483.78661773276
 20
3569.57727689386
 30
0.0
  0
POINT
  5
19ACE
330
17AE1
100
AcDbEntity
  8
DEFPOINTS
 62
     0
 48
50.0
100
AcDbPoint
 10
11563.78661773277
 20
5589.57727689386
 30
0.0
  0
POINT
  5
19ACF
330
17AE1
100
AcDbEntity
  8
DEFPOINTS
 62
     0
 48
50.0
100
AcDbPoint
 10
12014.19515566659
 20
5589.57727689386
 30
0.0
  0
ENDBLK
  5
17AEC
330
17AE1
100
AcDbEntity
  8
0
 48
50.0
100
AcDbBlockEnd
  0
BLOCK
  5
17AF8
330
17AED
100
AcDbEntity
  8
0
 48
50.0
100
AcDbBlockBegin
  2
*D23
 70
     1
 10
0.0
 20
0.0
 30
0.0
  3
*D23
  1

  0
LINE
  5
19ABD
330
17AED
100
AcDbEntity
  8
寸法
 62
     0
 48
50.0
370
    -2
100
AcDbLine
 10
11483.78661773276
 20
5611.387956505514
 30
0.0
 11
11483.78661773276
 21
6103.234730473165
 31
0.0
  0
LINE
  5
19ABE
330
17AED
100
AcDbEntity
  8
寸法
 62
     0
 48
50.0
370
    -2
100
AcDbLine
 10
11563.78661773276
 20
5609.577276893862
 30
0.0
 11
11563.78661773276
 21
6103.234730473165
 31
0.0
  0
LINE
  5
19ABF
330
17AED
100
AcDbEntity
  8
寸法
 62
     0
 48
50.0
370
    -2
100
AcDbLine
 10
11483.78661773276
 20
6043.234730473165
 30
0.0
 11
11563.78661773276
 21
6043.234730473165
 31
0.0
  0
LINE
  5
19AC0
330
17AED
100
AcDbEntity
  8
寸法
 62
     0
 48
50.0
370
    -2
100
AcDbLine
 10
11563.78661773276
 20
6043.234730473165
 30
0.0
 11
11875.88110592174
 21
6043.234730473165
 31
0.0
  0
INSERT
  5
19AC1
330
17AED
100
AcDbEntity
  8
寸法
 62
     0
 48
50.0
370
    -2
100
AcDbBlockReference
  2
_DOTSMALL
 10
11483.78661773276
 20
6043.234730473165
 30
0.0
 41
100.0
 42
100.0
 43
100.0
 50
180.0
  0
INSERT
  5
19AC2
330
17AED
100
AcDbEntity
  8
寸法
 62
     0
 48
50.0
370
    -2
100
AcDbBlockReference
  2
_DOTSMALL
 10
11563.78661773276
 20
6043.234730473165
 30
0.0
 41
100.0
 42
100.0
 43
100.0
  0
MTEXT
  5
19AC3
330
17AED
100
AcDbEntity
  8
寸法
 62
     7
 48
50.0
100
AcDbMText
 10
11769.83386182725
 20
6143.234730473165
 30
0.0
 40
120.0
 41
0.0
 71
     5
 72
     1
  1
\A1;80
  7
STYLE1
 73
     1
 44
1.0
1001
ACAD
1000
MTEXTBEGIN
1070
    73
1070
     1
1070
    44
1040
1.0
1070
    74
1070
     0
1000
MTEXTEND
  0
POINT
  5
19AC4
330
17AED
100
AcDbEntity
  8
DEFPOINTS
 62
     0
 48
50.0
100
AcDbPoint
 10
11483.78661773276
 20
5591.387956505514
 30
0.0
  0
POINT
  5
19AC5
330
17AED
100
AcDbEntity
  8
DEFPOINTS
 62
     0
 48
50.0
100
AcDbPoint
 10
11563.78661773276
 20
5589.577276893862
 30
0.0
  0
POINT
  5
19AC6
330
17AED
100
AcDbEntity
  8
DEFPOINTS
 62
     0
 48
50.0
100
AcDbPoint
 10
11563.78661773276
 20
6043.234730473165
 30
0.0
  0
ENDBLK
  5
17AF9
330
17AED
100
AcDbEntity
  8
0
 48
50.0
100
AcDbBlockEnd
  0
BLOCK
  5
17B04
330
17AFA
100
AcDbEntity
  8
0
 48
50.0
100
AcDbBlockBegin
  2
*D24
 70
     1
 10
0.0
 20
0.0
 30
0.0
  3
*D24
  1

  0
LINE
  5
19AB4
330
17AFA
100
AcDbEntity
  8
寸法
 62
     0
 48
50.0
370
    -2
100
AcDbLine
 10
11563.78661773276
 20
5609.577276893862
 30
0.0
 11
11563.78661773276
 21
6337.937939113255
 31
0.0
  0
LINE
  5
19AB5
330
17AFA
100
AcDbEntity
  8
寸法
 62
     0
 48
50.0
370
    -2
100
AcDbLine
 10
10473.78661773276
 20
5664.577276893866
 30
0.0
 11
10473.78661773276
 21
6337.937939113255
 31
0.0
  0
LINE
  5
19AB6
330
17AFA
100
AcDbEntity
  8
寸法
 62
     0
 48
50.0
370
    -2
100
AcDbLine
 10
11563.78661773276
 20
6277.937939113255
 30
0.0
 11
10473.78661773276
 21
6277.937939113255
 31
0.0
  0
INSERT
  5
19AB7
330
17AFA
100
AcDbEntity
  8
寸法
 62
     0
 48
50.0
370
    -2
100
AcDbBlockReference
  2
_DOTSMALL
 10
11563.78661773276
 20
6277.937939113255
 30
0.0
 41
100.0
 42
100.0
 43
100.0
  0
INSERT
  5
19AB8
330
17AFA
100
AcDbEntity
  8
寸法
 62
     0
 48
50.0
370
    -2
100
AcDbBlockReference
  2
_DOTSMALL
 10
10473.78661773276
 20
6277.937939113255
 30
0.0
 41
100.0
 42
100.0
 43
100.0
 50
180.0
  0
MTEXT
  5
19AB9
330
17AFA
100
AcDbEntity
  8
寸法
 62
     7
 48
50.0
100
AcDbMText
 10
11020.70357814712
 20
6377.937939113255
 30
0.0
 40
120.0
 41
0.0
 71
     5
 72
     1
  1
\A1;1090
  7
STYLE1
 73
     1
 44
1.0
1001
ACAD
1000
MTEXTBEGIN
1070
    73
1070
     1
1070
    44
1040
1.0
1070
    74
1070
     0
1000
MTEXTEND
  0
POINT
  5
19ABA
330
17AFA
100
AcDbEntity
  8
DEFPOINTS
 62
     0
 48
50.0
100
AcDbPoint
 10
11563.78661773276
 20
5589.577276893862
 30
0.0
  0
POINT
  5
19ABB
330
17AFA
100
AcDbEntity
  8
DEFPOINTS
 62
     0
 48
50.0
100
AcDbPoint
 10
10473.78661773276
 20
5644.577276893866
 30
0.0
  0
POINT
  5
19ABC
330
17AFA
100
AcDbEntity
  8
DEFPOINTS
 62
     0
 48
50.0
100
AcDbPoint
 10
10473.78661773276
 20
6277.937939113255
 30
0.0
  0
ENDBLK
  5
17B05
330
17AFA
100
AcDbEntity
  8
0
 48
50.0
100
AcDbBlockEnd
  0
BLOCK
  5
17B10
330
17B06
100
AcDbEntity
  8
0
 48
50.0
100
AcDbBlockBegin
  2
*D25
 70
     1
 10
0.0
 20
0.0
 30
0.0
  3
*D25
  1

  0
LINE
  5
19AAB
330
17B06
100
AcDbEntity
  8
寸法
 62
     0
 48
50.0
370
    -2
100
AcDbLine
 10
11483.78661773276
 20
5611.387956505514
 30
0.0
 11
11483.78661773276
 21
6103.234730473165
 31
0.0
  0
LINE
  5
19AAC
330
17B06
100
AcDbEntity
  8
寸法
 62
     0
 48
50.0
370
    -2
100
AcDbLine
 10
10533.78661773276
 20
5660.578895016837
 30
0.0
 11
10533.78661773276
 21
6103.234730473165
 31
0.0
  0
LINE
  5
19AAD
330
17B06
100
AcDbEntity
  8
寸法
 62
     0
 48
50.0
370
    -2
100
AcDbLine
 10
11483.78661773276
 20
6043.234730473165
 30
0.0
 11
10533.78661773276
 21
6043.234730473165
 31
0.0
  0
INSERT
  5
19AAE
330
17B06
100
AcDbEntity
  8
寸法
 62
     0
 48
50.0
370
    -2
100
AcDbBlockReference
  2
_DOTSMALL
 10
11483.78661773276
 20
6043.234730473165
 30
0.0
 41
100.0
 42
100.0
 43
100.0
  0
INSERT
  5
19AAF
330
17B06
100
AcDbEntity
  8
寸法
 62
     0
 48
50.0
370
    -2
100
AcDbBlockReference
  2
_DOTSMALL
 10
10533.78661773276
 20
6043.234730473165
 30
0.0
 41
100.0
 42
100.0
 43
100.0
 50
180.0
  0
MTEXT
  5
19AB0
330
17B06
100
AcDbEntity
  8
寸法
 62
     7
 48
50.0
100
AcDbMText
 10
11030.49841996365
 20
6143.234730473165
 30
0.0
 40
120.0
 41
0.0
 71
     5
 72
     1
  1
\A1;柱外寸法950
  7
STYLE1
 73
     1
 44
1.0
1001
ACAD
1000
MTEXTBEGIN
1070
    73
1070
     1
1070
    44
1040
1.0
1070
    74
1070
     0
1000
MTEXTEND
  0
POINT
  5
19AB1
330
17B06
100
AcDbEntity
  8
DEFPOINTS
 62
     0
 48
50.0
100
AcDbPoint
 10
11483.78661773276
 20
5591.387956505514
 30
0.0
  0
POINT
  5
19AB2
330
17B06
100
AcDbEntity
  8
DEFPOINTS
 62
     0
 48
50.0
100
AcDbPoint
 10
10533.78661773276
 20
5640.578895016837
 30
0.0
  0
POINT
  5
19AB3
330
17B06
100
AcDbEntity
  8
DEFPOINTS
 62
     0
 48
50.0
100
AcDbPoint
 10
10533.78661773276
 20
6043.234730473165
 30
0.0
  0
ENDBLK
  5
17B11
330
17B06
100
AcDbEntity
  8
0
 48
50.0
100
AcDbBlockEnd
  0
BLOCK
  5
17B1E
330
17B12
100
AcDbEntity
  8
0
 48
50.0
100
AcDbBlockBegin
  2
*D26
 70
     1
 10
0.0
 20
0.0
 30
0.0
  3
*D26
  1

  0
LINE
  5
19AA0
330
17B12
100
AcDbEntity
  8
寸法
 62
     0
 48
50.0
370
    -2
100
AcDbLine
 10
10533.78661773276
 20
5660.578895016837
 30
0.0
 11
10533.78661773276
 21
6103.234730473165
 31
0.0
  0
LINE
  5
19AA1
330
17B12
100
AcDbEntity
  8
寸法
 62
     0
 48
50.0
370
    -2
100
AcDbLine
 10
10473.78661773276
 20
5664.577276893866
 30
0.0
 11
10473.78661773276
 21
6103.234730473165
 31
0.0
  0
LINE
  5
19AA2
330
17B12
100
AcDbEntity
  8
寸法
 62
     0
 48
50.0
370
    -2
100
AcDbLine
 10
10533.78661773276
 20
6043.234730473165
 30
0.0
 11
10633.78661773276
 21
6043.234730473165
 31
0.0
  0
LINE
  5
19AA3
330
17B12
100
AcDbEntity
  8
寸法
 62
     0
 48
50.0
370
    -2
100
AcDbLine
 10
10473.78661773276
 20
6043.234730473165
 30
0.0
 11
10054.51102718158
 21
6043.234730473165
 31
0.0
  0
LINE
  5
19AA4
330
17B12
100
AcDbEntity
  8
寸法
 62
     0
 48
50.0
370
    -2
100
AcDbLine
 10
10533.78661773276
 20
6043.234730473165
 30
0.0
 11
10473.78661773276
 21
6043.234730473165
 31
0.0
  0
INSERT
  5
19AA5
330
17B12
100
AcDbEntity
  8
寸法
 62
     0
 48
50.0
370
    -2
100
AcDbBlockReference
  2
_DOTSMALL
 10
10533.78661773276
 20
6043.234730473165
 30
0.0
 41
100.0
 42
100.0
 43
100.0
 50
180.0
  0
INSERT
  5
19AA6
330
17B12
100
AcDbEntity
  8
寸法
 62
     0
 48
50.0
370
    -2
100
AcDbBlockReference
  2
_DOTSMALL
 10
10473.78661773276
 20
6043.234730473165
 30
0.0
 41
100.0
 42
100.0
 43
100.0
  0
MTEXT
  5
19AA7
330
17B12
100
AcDbEntity
  8
寸法
 62
     7
 48
50.0
100
AcDbMText
 10
10164.14882245717
 20
6143.234730473165
 30
0.0
 40
120.0
 41
0.0
 71
     5
 72
     1
  1
\A1;60
  7
STYLE1
 73
     1
 44
1.0
1001
ACAD
1000
MTEXTBEGIN
1070
    73
1070
     1
1070
    44
1040
1.0
1070
    74
1070
     0
1000
MTEXTEND
  0
POINT
  5
19AA8
330
17B12
100
AcDbEntity
  8
DEFPOINTS
 62
     0
 48
50.0
100
AcDbPoint
 10
10533.78661773276
 20
5640.578895016837
 30
0.0
  0
POINT
  5
19AA9
330
17B12
100
AcDbEntity
  8
DEFPOINTS
 62
     0
 48
50.0
100
AcDbPoint
 10
10473.78661773276
 20
5644.577276893866
 30
0.0
  0
POINT
  5
19AAA
330
17B12
100
AcDbEntity
  8
DEFPOINTS
 62
     0
 48
50.0
100
AcDbPoint
 10
10473.78661773276
 20
6043.234730473165
 30
0.0
  0
ENDBLK
  5
17B1F
330
17B12
100
AcDbEntity
  8
0
 48
50.0
100
AcDbBlockEnd
  0
BLOCK
  5
17B2B
330
17B20
100
AcDbEntity
  8
0
 48
50.0
100
AcDbBlockBegin
  2
*D27
 70
     1
 10
0.0
 20
0.0
 30
0.0
  3
*D27
  1

  0
LINE
  5
19A96
330
17B20
100
AcDbEntity
  8
寸法
 62
     0
 48
50.0
370
    -2
100
AcDbLine
 10
10473.19090402386
 20
5643.874983963523
 30
0.0
 11
9857.25646491859
 21
5661.589134237853
 31
0.0
  0
LINE
  5
19A97
330
17B20
100
AcDbEntity
  8
寸法
 62
     0
 48
50.0
370
    -2
100
AcDbLine
 10
10469.13744846723
 20
5502.93326019781
 30
0.0
 11
9853.203009361964
 21
5520.64741047214
 31
0.0
  0
LINE
  5
19A98
330
17B20
100
AcDbEntity
  8
寸法
 62
     0
 48
50.0
370
    -2
100
AcDbLine
 10
9913.178210964394
 20
5518.922535767192
 30
0.0
 11
9917.23166652102
 21
5659.864259532905
 31
0.0
  0
LINE
  5
19A99
330
17B20
100
AcDbEntity
  8
寸法
 62
     0
 48
50.0
370
    -2
100
AcDbLine
 10
9917.23166652102
 20
5659.864259532905
 30
0.0
 11
9927.580914750706
 21
6019.71546914749
 31
0.0
  0
INSERT
  5
19A9A
330
17B20
100
AcDbEntity
  8
寸法
 62
     0
 48
50.0
370
    -2
100
AcDbBlockReference
  2
_DOTSMALL
 10
9913.178210964394
 20
5518.922535767192
 30
0.0
 41
100.0
 42
100.0
 43
100.0
 50
268.3526390256378
  0
INSERT
  5
19A9B
330
17B20
100
AcDbEntity
  8
寸法
 62
     0
 48
50.0
370
    -2
100
AcDbBlockReference
  2
_DOTSMALL
 10
9917.23166652102
 20
5659.864259532905
 30
0.0
 41
100.0
 42
100.0
 43
100.0
 50
88.35263902563776
  0
MTEXT
  5
19A9C
330
17B20
100
AcDbEntity
  8
寸法
 62
     7
 48
50.0
100
AcDbMText
 10
9823.885016885936
 20
5892.643990183803
 30
0.0
 40
120.0
 41
0.0
 71
     5
 72
     1
  1
\A1;141
  7
STYLE1
 11
0.0287479117491237
 21
0.9995866933738488
 31
0.0
 73
     1
 44
1.0
1001
ACAD
1000
MTEXTBEGIN
1070
    73
1070
     1
1070
    44
1040
1.0
1070
    74
1070
     0
1000
MTEXTEND
  0
POINT
  5
19A9D
330
17B20
100
AcDbEntity
  8
DEFPOINTS
 62
     0
 48
50.0
100
AcDbPoint
 10
10493.18263789134
 20
5643.300025728541
 30
0.0
  0
POINT
  5
19A9E
330
17B20
100
AcDbEntity
  8
DEFPOINTS
 62
     0
 48
50.0
100
AcDbPoint
 10
10489.12918233471
 20
5502.358301962827
 30
0.0
  0
POINT
  5
19A9F
330
17B20
100
AcDbEntity
  8
DEFPOINTS
 62
     0
 48
50.0
100
AcDbPoint
 10
9913.178210964394
 20
5518.922535767192
 30
0.0
  0
ENDBLK
  5
17B2C
330
17B20
100
AcDbEntity
  8
0
 48
50.0
100
AcDbBlockEnd
  0
BLOCK
  5
17B37
330
17B2D
100
AcDbEntity
  8
0
 48
50.0
100
AcDbBlockBegin
  2
*D28
 70
     1
 10
0.0
 20
0.0
 30
0.0
  3
*D28
  1

  0
LINE
  5
19A8D
330
17B2D
100
AcDbEntity
  8
寸法
 62
     0
 48
50.0
370
    -2
100
AcDbLine
 10
10513.78661773276
 20
3569.57727689386
 30
0.0
 11
9612.192739577469
 21
3569.57727689386
 31
0.0
  0
LINE
  5
19A8E
330
17B2D
100
AcDbEntity
  8
寸法
 62
     0
 48
50.0
370
    -2
100
AcDbLine
 10
10453.78661773276
 20
5644.577276893866
 30
0.0
 11
9612.192739577473
 21
5644.577276893866
 31
0.0
  0
LINE
  5
19A8F
330
17B2D
100
AcDbEntity
  8
寸法
 62
     0
 48
50.0
370
    -2
100
AcDbLine
 10
9672.19273957747
 20
3569.57727689386
 30
0.0
 11
9672.192739577472
 21
5644.577276893866
 31
0.0
  0
INSERT
  5
19A90
330
17B2D
100
AcDbEntity
  8
寸法
 62
     0
 48
50.0
370
    -2
100
AcDbBlockReference
  2
_DOTSMALL
 10
9672.19273957747
 20
3569.57727689386
 30
0.0
 41
100.0
 42
100.0
 43
100.0
 50
270.0
  0
INSERT
  5
19A91
330
17B2D
100
AcDbEntity
  8
寸法
 62
     0
 48
50.0
370
    -2
100
AcDbBlockReference
  2
_DOTSMALL
 10
9672.192739577472
 20
5644.577276893866
 30
0.0
 41
100.0
 42
100.0
 43
100.0
 50
90.0
  0
MTEXT
  5
19A92
330
17B2D
100
AcDbEntity
  8
寸法
 62
     7
 48
50.0
100
AcDbMText
 10
9572.180928553848
 20
4597.155906173022
 30
0.0
 40
120.0
 41
0.0
 71
     5
 72
     1
  1
\A1;2075
  7
STYLE1
 11
0.0000000000000001
 21
1.0
 31
0.0
 73
     1
 44
1.0
1001
ACAD
1000
MTEXTBEGIN
1070
    73
1070
     1
1070
    44
1040
1.0
1070
    74
1070
     0
1000
MTEXTEND
  0
POINT
  5
19A93
330
17B2D
100
AcDbEntity
  8
DEFPOINTS
 62
     0
 48
50.0
100
AcDbPoint
 10
10533.78661773276
 20
3569.57727689386
 30
0.0
  0
POINT
  5
19A94
330
17B2D
100
AcDbEntity
  8
DEFPOINTS
 62
     0
 48
50.0
100
AcDbPoint
 10
10473.78661773276
 20
5644.577276893866
 30
0.0
  0
POINT
  5
19A95
330
17B2D
100
AcDbEntity
  8
DEFPOINTS
 62
     0
 48
50.0
100
AcDbPoint
 10
9672.192739577472
 20
5644.577276893866
 30
0.0
  0
ENDBLK
  5
17B38
330
17B2D
100
AcDbEntity
  8
0
 48
50.0
100
AcDbBlockEnd
  0
BLOCK
  5
17C47
330
17C45
100
AcDbEntity
  8
0
 48
50.0
100
AcDbBlockBegin
  2
A$C234373F2
 70
     0
 10
0.0
 20
0.0
 30
0.0
  3
A$C234373F2
  1

  0
TEXT
  5
17C46
330
17C45
100
AcDbEntity
  8
文字
 62
     7
 48
50.0
100
AcDbText
 10
-1705.259705948188
 20
-361.7472729270812
 30
0.0
 40
100.0
  1
～一般型・多雪地型～
  7
STYLE2
100
AcDbText
  0
ENDBLK
  5
17C48
330
17C45
100
AcDbEntity
  8
0
 48
50.0
100
AcDbBlockEnd
  0
BLOCK
  5
17DC2
330
17DB8
100
AcDbEntity
  8
0
 48
50.0
100
AcDbBlockBegin
  2
*D30
 70
     1
 10
0.0
 20
0.0
 30
0.0
  3
*D30
  1

  0
LINE
  5
19A84
330
17DB8
100
AcDbEntity
  8
寸法
 62
     0
 48
50.0
370
    -2
100
AcDbLine
 10
4846.914705172385
 20
4477.077276893864
 30
0.0
 11
4488.810177564783
 21
4477.077276893864
 31
0.0
  0
LINE
  5
19A85
330
17DB8
100
AcDbEntity
  8
寸法
 62
     0
 48
50.0
370
    -2
100
AcDbLine
 10
4846.914705172385
 20
3631.077276893868
 30
0.0
 11
4488.810177564783
 21
3631.077276893868
 31
0.0
  0
LINE
  5
19A86
330
17DB8
100
AcDbEntity
  8
寸法
 62
     0
 48
50.0
370
    -2
100
AcDbLine
 10
4548.810177564782
 20
4477.077276893864
 30
0.0
 11
4548.810177564782
 21
3631.077276893868
 31
0.0
  0
INSERT
  5
19A87
330
17DB8
100
AcDbEntity
  8
寸法
 62
     0
 48
50.0
370
    -2
100
AcDbBlockReference
  2
_DOTSMALL
 10
4548.810177564782
 20
4477.077276893864
 30
0.0
 41
100.0
 42
100.0
 43
100.0
 50
90.0
  0
INSERT
  5
19A88
330
17DB8
100
AcDbEntity
  8
寸法
 62
     0
 48
50.0
370
    -2
100
AcDbBlockReference
  2
_DOTSMALL
 10
4548.810177564782
 20
3631.077276893868
 30
0.0
 41
100.0
 42
100.0
 43
100.0
 50
270.0
  0
MTEXT
  5
19A89
330
17DB8
100
AcDbEntity
  8
寸法
 62
     7
 48
50.0
100
AcDbMText
 10
4348.810177564781
 20
4051.077276893866
 30
0.0
 40
120.0
 41
0.0
 71
     5
 72
     1
  1
\A1;有効開口部\P高さ846
  7
STYLE1
 11
0.0000000000000001
 21
1.0
 31
0.0
 73
     1
 44
1.0
1001
ACAD
1000
MTEXTBEGIN
1070
    73
1070
     1
1070
    44
1040
1.0
1070
    74
1070
     0
1000
MTEXTEND
  0
POINT
  5
19A8A
330
17DB8
100
AcDbEntity
  8
DEFPOINTS
 62
     0
 48
50.0
100
AcDbPoint
 10
4866.914705172384
 20
4477.077276893864
 30
0.0
  0
POINT
  5
19A8B
330
17DB8
100
AcDbEntity
  8
DEFPOINTS
 62
     0
 48
50.0
100
AcDbPoint
 10
4866.914705172384
 20
3631.077276893868
 30
0.0
  0
POINT
  5
19A8C
330
17DB8
100
AcDbEntity
  8
DEFPOINTS
 62
     0
 48
50.0
100
AcDbPoint
 10
4548.810177564782
 20
3631.077276893868
 30
0.0
  0
ENDBLK
  5
17DC3
330
17DB8
100
AcDbEntity
  8
0
 48
50.0
100
AcDbBlockEnd
  0
BLOCK
  5
19682
330
19678
100
AcDbEntity
  8
0
 48
50.0
100
AcDbBlockBegin
  2
*D31
 70
     1
 10
0.0
 20
0.0
 30
0.0
  3
*D31
  1

  0
LINE
  5
19A7B
330
19678
100
AcDbEntity
  8
寸法
 62
     0
 48
50.0
370
    -2
100
AcDbLine
 10
4978.698647961762
 20
5409.577276893861
 30
0.0
 11
3903.128368633654
 21
5409.577276893861
 31
0.0
  0
LINE
  5
19A7C
330
19678
100
AcDbEntity
  8
寸法
 62
     0
 48
50.0
370
    -2
100
AcDbLine
 10
5097.861224201899
 20
3569.57727689386
 30
0.0
 11
3903.128368633654
 21
3569.57727689386
 31
0.0
  0
LINE
  5
19A7D
330
19678
100
AcDbEntity
  8
寸法
 62
     0
 48
50.0
370
    -2
100
AcDbLine
 10
3963.128368633654
 20
5409.577276893861
 30
0.0
 11
3963.128368633654
 21
3569.57727689386
 31
0.0
  0
INSERT
  5
19A7E
330
19678
100
AcDbEntity
  8
寸法
 62
     0
 48
50.0
370
    -2
100
AcDbBlockReference
  2
_DOTSMALL
 10
3963.128368633654
 20
5409.577276893861
 30
0.0
 41
100.0
 42
100.0
 43
100.0
 50
90.0
  0
INSERT
  5
19A7F
330
19678
100
AcDbEntity
  8
寸法
 62
     0
 48
50.0
370
    -2
100
AcDbBlockReference
  2
_DOTSMALL
 10
3963.128368633654
 20
3569.57727689386
 30
0.0
 41
100.0
 42
100.0
 43
100.0
 50
270.0
  0
MTEXT
  5
19A80
330
19678
100
AcDbEntity
  8
寸法
 62
     7
 48
50.0
100
AcDbMText
 10
3863.128368633653
 20
4489.577276893861
 30
0.0
 40
120.0
 41
0.0
 71
     5
 72
     1
  1
\A1;1840
  7
STYLE1
 11
0.0000000000000001
 21
1.0
 31
0.0
 73
     1
 44
1.0
1001
ACAD
1000
MTEXTBEGIN
1070
    73
1070
     1
1070
    44
1040
1.0
1070
    74
1070
     0
1000
MTEXTEND
  0
POINT
  5
19A81
330
19678
100
AcDbEntity
  8
DEFPOINTS
 62
     0
 48
50.0
100
AcDbPoint
 10
4998.698647961762
 20
5409.577276893861
 30
0.0
  0
POINT
  5
19A82
330
19678
100
AcDbEntity
  8
DEFPOINTS
 62
     0
 48
50.0
100
AcDbPoint
 10
5117.8612242019
 20
3569.57727689386
 30
0.0
  0
POINT
  5
19A83
330
19678
100
AcDbEntity
  8
DEFPOINTS
 62
     0
 48
50.0
100
AcDbPoint
 10
3963.128368633654
 20
3569.57727689386
 30
0.0
  0
ENDBLK
  5
19683
330
19678
100
AcDbEntity
  8
0
 48
50.0
100
AcDbBlockEnd
  0
BLOCK
  5
196AE
330
196A9
100
AcDbEntity
  8
0
 48
50.0
100
AcDbBlockBegin
  2
A$C77305D78
 70
     0
 10
0.0
 20
0.0
 30
0.0
  3
A$C77305D78
  1

  0
TEXT
  5
196AA
330
196A9
100
AcDbEntity
  8
文字
 62
     7
 48
50.0
100
AcDbText
 10
121.5774736644744
 20
370.4137458837286
 30
0.0
 40
100.0
  1
11
  7
STYLE1
100
AcDbText
  0
TEXT
  5
196AB
330
196A9
100
AcDbEntity
  8
文字
 62
     7
 48
50.0
100
AcDbText
 10
121.5774736644744
 20
200.4137458837286
 30
0.0
 40
100.0
  1
12
  7
STYLE1
100
AcDbText
  0
TEXT
  5
196AC
330
196A9
100
AcDbEntity
  8
文字
 62
     7
 48
50.0
100
AcDbText
 10
121.5774736644744
 20
30.41374588372856
 30
0.0
 40
100.0
  1
13
  7
STYLE1
100
AcDbText
  0
TEXT
  5
196AD
330
196A9
100
AcDbEntity
  8
文字
 62
     7
 48
50.0
100
AcDbText
 10
121.5774736644744
 20
-139.5862541162714
 30
0.0
 40
100.0
  1
14
  7
STYLE1
100
AcDbText
  0
ENDBLK
  5
196AF
330
196A9
100
AcDbEntity
  8
0
 48
50.0
100
AcDbBlockEnd
  0
BLOCK
  5
19730
330
1972D
100
AcDbEntity
  8
0
 48
50.0
100
AcDbBlockBegin
  2
A$C7B576BF7
 70
     0
 10
0.0
 20
0.0
 30
0.0
  3
A$C7B576BF7
  1

  0
LINE
  5
1972E
330
1972D
100
AcDbEntity
  8
細線
 48
50.0
100
AcDbLine
 10
-1639.999999999998
 20
0.000000000001819
 30
0.0
 11
-1639.999999999999
 21
-93.99999999999909
 31
0.0
  0
LINE
  5
1972F
330
1972D
100
AcDbEntity
  8
細線
 48
50.0
100
AcDbLine
 10
-1649.999999999999
 20
0.0000000000027285
 30
0.0
 11
-1649.999999999999
 21
141.0000000000027
 31
0.0
  0
ENDBLK
  5
19731
330
1972D
100
AcDbEntity
  8
0
 48
50.0
100
AcDbBlockEnd
  0
BLOCK
  5
19851
330
19847
100
AcDbEntity
  8
0
 48
50.0
100
AcDbBlockBegin
  2
*D34
 70
     1
 10
0.0
 20
0.0
 30
0.0
  3
*D34
  1

  0
LINE
  5
19A72
330
19847
100
AcDbEntity
  8
寸法
 62
     0
 48
50.0
370
    -2
100
AcDbLine
 10
5741.914705172399
 20
8340.766456979688
 30
0.0
 11
5741.914705172399
 21
7860.942789184609
 31
0.0
  0
LINE
  5
19A73
330
19847
100
AcDbEntity
  8
寸法
 62
     0
 48
50.0
370
    -2
100
AcDbLine
 10
6426.914705172395
 20
8340.76645697965
 30
0.0
 11
6426.914705172395
 21
7860.942789184609
 31
0.0
  0
LINE
  5
19A74
330
19847
100
AcDbEntity
  8
寸法
 62
     0
 48
50.0
370
    -2
100
AcDbLine
 10
5741.914705172399
 20
7920.942789184611
 30
0.0
 11
6426.914705172395
 21
7920.942789184611
 31
0.0
  0
INSERT
  5
19A75
330
19847
100
AcDbEntity
  8
寸法
 62
     0
 48
50.0
370
    -2
100
AcDbBlockReference
  2
_DOTSMALL
 10
5741.914705172399
 20
7920.942789184611
 30
0.0
 41
100.0
 42
100.0
 43
100.0
 50
180.0
  0
INSERT
  5
19A76
330
19847
100
AcDbEntity
  8
寸法
 62
     0
 48
50.0
370
    -2
100
AcDbBlockReference
  2
_DOTSMALL
 10
6426.914705172395
 20
7920.942789184611
 30
0.0
 41
100.0
 42
100.0
 43
100.0
  0
MTEXT
  5
19A77
330
19847
100
AcDbEntity
  8
寸法
 62
     7
 48
50.0
100
AcDbMText
 10
6084.414705172398
 20
8020.94278918461
 30
0.0
 40
120.0
 41
0.0
 71
     5
 72
     1
  1
\A1;685
  7
STYLE1
 73
     1
 44
1.0
1001
ACAD
1000
MTEXTBEGIN
1070
    73
1070
     1
1070
    44
1040
1.0
1070
    74
1070
     0
1000
MTEXTEND
  0
POINT
  5
19A78
330
19847
100
AcDbEntity
  8
DEFPOINTS
 62
     0
 48
50.0
100
AcDbPoint
 10
5741.914705172399
 20
8360.766456979687
 30
0.0
  0
POINT
  5
19A79
330
19847
100
AcDbEntity
  8
DEFPOINTS
 62
     0
 48
50.0
100
AcDbPoint
 10
6426.914705172395
 20
8360.766456979652
 30
0.0
  0
POINT
  5
19A7A
330
19847
100
AcDbEntity
  8
DEFPOINTS
 62
     0
 48
50.0
100
AcDbPoint
 10
6426.914705172395
 20
7920.942789184611
 30
0.0
  0
ENDBLK
  5
19852
330
19847
100
AcDbEntity
  8
0
 48
50.0
100
AcDbBlockEnd
  0
BLOCK
  5
198A2
330
19898
100
AcDbEntity
  8
0
 48
50.0
100
AcDbBlockBegin
  2
*D35
 70
     1
 10
0.0
 20
0.0
 30
0.0
  3
*D35
  1

  0
LINE
  5
19A69
330
19898
100
AcDbEntity
  8
寸法
 62
     0
 48
50.0
370
    -2
100
AcDbLine
 10
6561.9147051724
 20
8340.766456979688
 30
0.0
 11
6561.9147051724
 21
7860.942789184609
 31
0.0
  0
LINE
  5
19A6A
330
19898
100
AcDbEntity
  8
寸法
 62
     0
 48
50.0
370
    -2
100
AcDbLine
 10
7246.914705172395
 20
8340.76645697965
 30
0.0
 11
7246.914705172395
 21
7860.942789184609
 31
0.0
  0
LINE
  5
19A6B
330
19898
100
AcDbEntity
  8
寸法
 62
     0
 48
50.0
370
    -2
100
AcDbLine
 10
6561.9147051724
 20
7920.942789184611
 30
0.0
 11
7246.914705172395
 21
7920.942789184611
 31
0.0
  0
INSERT
  5
19A6C
330
19898
100
AcDbEntity
  8
寸法
 62
     0
 48
50.0
370
    -2
100
AcDbBlockReference
  2
_DOTSMALL
 10
6561.9147051724
 20
7920.942789184611
 30
0.0
 41
100.0
 42
100.0
 43
100.0
 50
180.0
  0
INSERT
  5
19A6D
330
19898
100
AcDbEntity
  8
寸法
 62
     0
 48
50.0
370
    -2
100
AcDbBlockReference
  2
_DOTSMALL
 10
7246.914705172395
 20
7920.942789184611
 30
0.0
 41
100.0
 42
100.0
 43
100.0
  0
MTEXT
  5
19A6E
330
19898
100
AcDbEntity
  8
寸法
 62
     7
 48
50.0
100
AcDbMText
 10
6904.414705172398
 20
8020.94278918461
 30
0.0
 40
120.0
 41
0.0
 71
     5
 72
     1
  1
\A1;685
  7
STYLE1
 73
     1
 44
1.0
1001
ACAD
1000
MTEXTBEGIN
1070
    73
1070
     1
1070
    44
1040
1.0
1070
    74
1070
     0
1000
MTEXTEND
  0
POINT
  5
19A6F
330
19898
100
AcDbEntity
  8
DEFPOINTS
 62
     0
 48
50.0
100
AcDbPoint
 10
6561.9147051724
 20
8360.766456979687
 30
0.0
  0
POINT
  5
19A70
330
19898
100
AcDbEntity
  8
DEFPOINTS
 62
     0
 48
50.0
100
AcDbPoint
 10
7246.914705172395
 20
8360.766456979652
 30
0.0
  0
POINT
  5
19A71
330
19898
100
AcDbEntity
  8
DEFPOINTS
 62
     0
 48
50.0
100
AcDbPoint
 10
7246.914705172395
 20
7920.942789184611
 30
0.0
  0
ENDBLK
  5
198A3
330
19898
100
AcDbEntity
  8
0
 48
50.0
100
AcDbBlockEnd
  0
BLOCK
  5
1991B
330
1990F
100
AcDbEntity
  8
0
 48
50.0
100
AcDbBlockBegin
  2
*D36
 70
     1
 10
0.0
 20
0.0
 30
0.0
  3
*D36
  1

  0
LINE
  5
19A55
330
1990F
100
AcDbEntity
  8
寸法
 62
     0
 48
50.0
370
    -2
100
AcDbLine
 10
6451.914705172402
 20
9330.76645697981
 30
0.0
 11
6451.914705172402
 21
9586.574676604792
 31
0.0
  0
LINE
  5
19A56
330
1990F
100
AcDbEntity
  8
寸法
 62
     0
 48
50.0
370
    -2
100
AcDbLine
 10
6561.914705172405
 20
9330.766456979789
 30
0.0
 11
6561.914705172405
 21
9586.574676604792
 31
0.0
  0
LINE
  5
19A57
330
1990F
100
AcDbEntity
  8
寸法
 62
     0
 48
50.0
370
    -2
100
AcDbLine
 10
6451.914705172402
 20
9526.574676604793
 30
0.0
 11
6351.914705172401
 21
9526.574676604793
 31
0.0
  0
LINE
  5
19A58
330
1990F
100
AcDbEntity
  8
寸法
 62
     0
 48
50.0
370
    -2
100
AcDbLine
 10
6561.914705172405
 20
9526.574676604793
 30
0.0
 11
6661.914705172406
 21
9526.574676604793
 31
0.0
  0
LINE
  5
19A59
330
1990F
100
AcDbEntity
  8
寸法
 62
     0
 48
50.0
370
    -2
100
AcDbLine
 10
6451.914705172402
 20
9526.574676604793
 30
0.0
 11
6561.914705172405
 21
9526.574676604793
 31
0.0
  0
INSERT
  5
19A5A
330
1990F
100
AcDbEntity
  8
寸法
 62
     0
 48
50.0
370
    -2
100
AcDbBlockReference
  2
_DOTSMALL
 10
6451.914705172402
 20
9526.574676604793
 30
0.0
 41
100.0
 42
100.0
 43
100.0
  0
INSERT
  5
19A5B
330
1990F
100
AcDbEntity
  8
寸法
 62
     0
 48
50.0
370
    -2
100
AcDbBlockReference
  2
_DOTSMALL
 10
6561.914705172405
 20
9526.574676604793
 30
0.0
 41
100.0
 42
100.0
 43
100.0
 50
180.0
  0
MTEXT
  5
19A5C
330
1990F
100
AcDbEntity
  8
寸法
 62
     7
 48
50.0
100
AcDbMText
 10
6506.914705172403
 20
9626.574676604793
 30
0.0
 40
120.0
 41
0.0
 71
     5
 72
     1
  1
\A1;110
  7
STYLE1
 73
     1
 44
1.0
1001
ACAD
1000
MTEXTBEGIN
1070
    73
1070
     1
1070
    44
1040
1.0
1070
    74
1070
     0
1000
MTEXTEND
  0
POINT
  5
19A5D
330
1990F
100
AcDbEntity
  8
DEFPOINTS
 62
     0
 48
50.0
100
AcDbPoint
 10
6451.914705172402
 20
9310.766456979811
 30
0.0
  0
POINT
  5
19A5E
330
1990F
100
AcDbEntity
  8
DEFPOINTS
 62
     0
 48
50.0
100
AcDbPoint
 10
6561.914705172405
 20
9310.76645697979
 30
0.0
  0
POINT
  5
19A5F
330
1990F
100
AcDbEntity
  8
DEFPOINTS
 62
     0
 48
50.0
100
AcDbPoint
 10
6561.914705172405
 20
9526.574676604793
 30
0.0
  0
ENDBLK
  5
1991C
330
1990F
100
AcDbEntity
  8
0
 48
50.0
100
AcDbBlockEnd
  0
BLOCK
  5
19927
330
1991D
100
AcDbEntity
  8
0
 48
50.0
100
AcDbBlockBegin
  2
*D37
 70
     1
 10
0.0
 20
0.0
 30
0.0
  3
*D37
  1

  0
LINE
  5
19A60
330
1991D
100
AcDbEntity
  8
寸法
 62
     0
 48
50.0
370
    -2
100
AcDbLine
 10
7271.914705172403
 20
9330.766456979803
 30
0.0
 11
7271.914705172403
 21
9586.574676604792
 31
0.0
  0
LINE
  5
19A61
330
1991D
100
AcDbEntity
  8
寸法
 62
     0
 48
50.0
370
    -2
100
AcDbLine
 10
6561.914705172405
 20
9330.766456979789
 30
0.0
 11
6561.914705172405
 21
9586.574676604792
 31
0.0
  0
LINE
  5
19A62
330
1991D
100
AcDbEntity
  8
寸法
 62
     0
 48
50.0
370
    -2
100
AcDbLine
 10
7271.914705172403
 20
9526.574676604793
 30
0.0
 11
6561.914705172405
 21
9526.574676604793
 31
0.0
  0
INSERT
  5
19A63
330
1991D
100
AcDbEntity
  8
寸法
 62
     0
 48
50.0
370
    -2
100
AcDbBlockReference
  2
_DOTSMALL
 10
7271.914705172403
 20
9526.574676604793
 30
0.0
 41
100.0
 42
100.0
 43
100.0
  0
INSERT
  5
19A64
330
1991D
100
AcDbEntity
  8
寸法
 62
     0
 48
50.0
370
    -2
100
AcDbBlockReference
  2
_DOTSMALL
 10
6561.914705172405
 20
9526.574676604793
 30
0.0
 41
100.0
 42
100.0
 43
100.0
 50
180.0
  0
MTEXT
  5
19A65
330
1991D
100
AcDbEntity
  8
寸法
 62
     7
 48
50.0
100
AcDbMText
 10
6916.914705172404
 20
9626.574676604793
 30
0.0
 40
120.0
 41
0.0
 71
     5
 72
     1
  1
\A1;710
  7
STYLE1
 73
     1
 44
1.0
1001
ACAD
1000
MTEXTBEGIN
1070
    73
1070
     1
1070
    44
1040
1.0
1070
    74
1070
     0
1000
MTEXTEND
  0
POINT
  5
19A66
330
1991D
100
AcDbEntity
  8
DEFPOINTS
 62
     0
 48
50.0
100
AcDbPoint
 10
7271.914705172403
 20
9310.766456979804
 30
0.0
  0
POINT
  5
19A67
330
1991D
100
AcDbEntity
  8
DEFPOINTS
 62
     0
 48
50.0
100
AcDbPoint
 10
6561.914705172405
 20
9310.76645697979
 30
0.0
  0
POINT
  5
19A68
330
1991D
100
AcDbEntity
  8
DEFPOINTS
 62
     0
 48
50.0
100
AcDbPoint
 10
6561.914705172405
 20
9526.574676604793
 30
0.0
  0
ENDBLK
  5
19928
330
1991D
100
AcDbEntity
  8
0
 48
50.0
100
AcDbBlockEnd
  0
BLOCK
  5
1994B
330
1993F
100
AcDbEntity
  8
0
 48
50.0
100
AcDbBlockBegin
  2
*D38
 70
     1
 10
0.0
 20
0.0
 30
0.0
  3
*D38
  1

  0
LINE
  5
19A41
330
1993F
100
AcDbEntity
  8
寸法
 62
     0
 48
50.0
370
    -2
100
AcDbLine
 10
5631.914705172402
 20
9330.76645697981
 30
0.0
 11
5631.914705172402
 21
9586.574676604792
 31
0.0
  0
LINE
  5
19A42
330
1993F
100
AcDbEntity
  8
寸法
 62
     0
 48
50.0
370
    -2
100
AcDbLine
 10
5741.914705172405
 20
9330.766456979789
 30
0.0
 11
5741.914705172405
 21
9586.574676604792
 31
0.0
  0
LINE
  5
19A43
330
1993F
100
AcDbEntity
  8
寸法
 62
     0
 48
50.0
370
    -2
100
AcDbLine
 10
5631.914705172402
 20
9526.574676604793
 30
0.0
 11
5531.914705172401
 21
9526.574676604793
 31
0.0
  0
LINE
  5
19A44
330
1993F
100
AcDbEntity
  8
寸法
 62
     0
 48
50.0
370
    -2
100
AcDbLine
 10
5741.914705172405
 20
9526.574676604793
 30
0.0
 11
5841.914705172405
 21
9526.574676604793
 31
0.0
  0
LINE
  5
19A45
330
1993F
100
AcDbEntity
  8
寸法
 62
     0
 48
50.0
370
    -2
100
AcDbLine
 10
5631.914705172402
 20
9526.574676604793
 30
0.0
 11
5741.914705172405
 21
9526.574676604793
 31
0.0
  0
INSERT
  5
19A46
330
1993F
100
AcDbEntity
  8
寸法
 62
     0
 48
50.0
370
    -2
100
AcDbBlockReference
  2
_DOTSMALL
 10
5631.914705172402
 20
9526.574676604793
 30
0.0
 41
100.0
 42
100.0
 43
100.0
  0
INSERT
  5
19A47
330
1993F
100
AcDbEntity
  8
寸法
 62
     0
 48
50.0
370
    -2
100
AcDbBlockReference
  2
_DOTSMALL
 10
5741.914705172405
 20
9526.574676604793
 30
0.0
 41
100.0
 42
100.0
 43
100.0
 50
180.0
  0
MTEXT
  5
19A48
330
1993F
100
AcDbEntity
  8
寸法
 62
     7
 48
50.0
100
AcDbMText
 10
5686.914705172403
 20
9626.574676604793
 30
0.0
 40
120.0
 41
0.0
 71
     5
 72
     1
  1
\A1;110
  7
STYLE1
 73
     1
 44
1.0
1001
ACAD
1000
MTEXTBEGIN
1070
    73
1070
     1
1070
    44
1040
1.0
1070
    74
1070
     0
1000
MTEXTEND
  0
POINT
  5
19A49
330
1993F
100
AcDbEntity
  8
DEFPOINTS
 62
     0
 48
50.0
100
AcDbPoint
 10
5631.914705172402
 20
9310.766456979811
 30
0.0
  0
POINT
  5
19A4A
330
1993F
100
AcDbEntity
  8
DEFPOINTS
 62
     0
 48
50.0
100
AcDbPoint
 10
5741.914705172405
 20
9310.76645697979
 30
0.0
  0
POINT
  5
19A4B
330
1993F
100
AcDbEntity
  8
DEFPOINTS
 62
     0
 48
50.0
100
AcDbPoint
 10
5741.914705172405
 20
9526.574676604793
 30
0.0
  0
ENDBLK
  5
1994C
330
1993F
100
AcDbEntity
  8
0
 48
50.0
100
AcDbBlockEnd
  0
BLOCK
  5
19957
330
1994D
100
AcDbEntity
  8
0
 48
50.0
100
AcDbBlockBegin
  2
*D39
 70
     1
 10
0.0
 20
0.0
 30
0.0
  3
*D39
  1

  0
LINE
  5
19A4C
330
1994D
100
AcDbEntity
  8
寸法
 62
     0
 48
50.0
370
    -2
100
AcDbLine
 10
6451.914705172403
 20
9330.766456979803
 30
0.0
 11
6451.914705172403
 21
9586.574676604792
 31
0.0
  0
LINE
  5
19A4D
330
1994D
100
AcDbEntity
  8
寸法
 62
     0
 48
50.0
370
    -2
100
AcDbLine
 10
5741.914705172405
 20
9330.766456979789
 30
0.0
 11
5741.914705172405
 21
9586.574676604792
 31
0.0
  0
LINE
  5
19A4E
330
1994D
100
AcDbEntity
  8
寸法
 62
     0
 48
50.0
370
    -2
100
AcDbLine
 10
6451.914705172403
 20
9526.574676604793
 30
0.0
 11
5741.914705172405
 21
9526.574676604793
 31
0.0
  0
INSERT
  5
19A4F
330
1994D
100
AcDbEntity
  8
寸法
 62
     0
 48
50.0
370
    -2
100
AcDbBlockReference
  2
_DOTSMALL
 10
6451.914705172403
 20
9526.574676604793
 30
0.0
 41
100.0
 42
100.0
 43
100.0
  0
INSERT
  5
19A50
330
1994D
100
AcDbEntity
  8
寸法
 62
     0
 48
50.0
370
    -2
100
AcDbBlockReference
  2
_DOTSMALL
 10
5741.914705172405
 20
9526.574676604793
 30
0.0
 41
100.0
 42
100.0
 43
100.0
 50
180.0
  0
MTEXT
  5
19A51
330
1994D
100
AcDbEntity
  8
寸法
 62
     7
 48
50.0
100
AcDbMText
 10
6096.914705172404
 20
9626.574676604793
 30
0.0
 40
120.0
 41
0.0
 71
     5
 72
     1
  1
\A1;710
  7
STYLE1
 73
     1
 44
1.0
1001
ACAD
1000
MTEXTBEGIN
1070
    73
1070
     1
1070
    44
1040
1.0
1070
    74
1070
     0
1000
MTEXTEND
  0
POINT
  5
19A52
330
1994D
100
AcDbEntity
  8
DEFPOINTS
 62
     0
 48
50.0
100
AcDbPoint
 10
6451.914705172403
 20
9310.766456979804
 30
0.0
  0
POINT
  5
19A53
330
1994D
100
AcDbEntity
  8
DEFPOINTS
 62
     0
 48
50.0
100
AcDbPoint
 10
5741.914705172405
 20
9310.76645697979
 30
0.0
  0
POINT
  5
19A54
330
1994D
100
AcDbEntity
  8
DEFPOINTS
 62
     0
 48
50.0
100
AcDbPoint
 10
5741.914705172405
 20
9526.574676604793
 30
0.0
  0
ENDBLK
  5
19958
330
1994D
100
AcDbEntity
  8
0
 48
50.0
100
AcDbBlockEnd
  0
BLOCK
  5
19BD1
330
19BC7
100
AcDbEntity
  8
0
 48
50.0
100
AcDbBlockBegin
  2
*D40
 70
     1
 10
0.0
 20
0.0
 30
0.0
  3
*D40
  1

  0
LINE
  5
19BDF
330
19BC7
100
AcDbEntity
  8
寸法
 62
     0
 48
50.0
370
    -2
100
AcDbLine
 10
8137.414705172338
 20
9275.907473131075
 30
0.0
 11
8532.772431034363
 21
9169.97168976494
 31
0.0
  0
LINE
  5
19BE0
330
19BC7
100
AcDbEntity
  8
寸法
 62
     0
 48
50.0
370
    -2
100
AcDbLine
 10
8137.414705172338
 20
8825.907473131074
 30
0.0
 11
8532.772431034363
 21
8719.971689764939
 31
0.0
  0
LINE
  5
19BE1
330
19BC7
100
AcDbEntity
  8
寸法
 62
     0
 48
50.0
370
    -2
100
AcDbLine
 10
8472.772431034362
 20
9186.048641310806
 30
0.0
 11
8472.772431034362
 21
8736.048641310807
 31
0.0
  0
INSERT
  5
19BE2
330
19BC7
100
AcDbEntity
  8
寸法
 62
     0
 48
50.0
370
    -2
100
AcDbBlockReference
  2
_DOTSMALL
 10
8472.772431034362
 20
9186.048641310806
 30
0.0
 41
100.0
 42
100.0
 43
100.0
 50
90.0
  0
INSERT
  5
19BE3
330
19BC7
100
AcDbEntity
  8
寸法
 62
     0
 48
50.0
370
    -2
100
AcDbBlockReference
  2
_DOTSMALL
 10
8472.772431034362
 20
8736.048641310807
 30
0.0
 41
100.0
 42
100.0
 43
100.0
 50
270.0
  0
MTEXT
  5
19BE4
330
19BC7
100
AcDbEntity
  8
寸法
 62
     7
 48
50.0
100
AcDbMText
 10
8372.772431034361
 20
8961.048641310808
 30
0.0
 40
120.0
 41
0.0
 71
     5
 72
     1
  1
\A1;450
  7
STYLE1
 11
0.0000000000000001
 21
1.0
 31
0.0
 73
     1
 44
1.0
1001
ACAD
1000
MTEXTBEGIN
1070
    73
1070
     1
1070
    44
1040
1.0
1070
    74
1070
     0
1000
MTEXTEND
  0
POINT
  5
19BE5
330
19BC7
100
AcDbEntity
  8
DEFPOINTS
 62
     0
 48
50.0
100
AcDbPoint
 10
8117.414705172336
 20
9281.266456979697
 30
0.0
  0
POINT
  5
19BE6
330
19BC7
100
AcDbEntity
  8
DEFPOINTS
 62
     0
 48
50.0
100
AcDbPoint
 10
8117.414705172336
 20
8831.266456979696
 30
0.0
  0
POINT
  5
19BE7
330
19BC7
100
AcDbEntity
  8
DEFPOINTS
 62
     0
 48
50.0
100
AcDbPoint
 10
8472.772431034362
 20
8736.048641310807
 30
0.0
  0
ENDBLK
  5
19BD2
330
19BC7
100
AcDbEntity
  8
0
 48
50.0
100
AcDbBlockEnd
  0
BLOCK
  5
19BDD
330
19BD3
100
AcDbEntity
  8
0
 48
50.0
100
AcDbBlockBegin
  2
*D41
 70
     1
 10
0.0
 20
0.0
 30
0.0
  3
*D41
  1

  0
LINE
  5
19BE8
330
19BD3
100
AcDbEntity
  8
寸法
 62
     0
 48
50.0
370
    -2
100
AcDbLine
 10
7351.055721323714
 20
8811.266456979703
 30
0.0
 11
7281.644257332489
 21
8552.21934673672
 31
0.0
  0
LINE
  5
19BE9
330
19BD3
100
AcDbEntity
  8
寸法
 62
     0
 48
50.0
370
    -2
100
AcDbLine
 10
8112.055721323725
 20
8811.2664569797
 30
0.0
 11
8042.644257332502
 21
8552.21934673672
 31
0.0
  0
LINE
  5
19BEA
330
19BD3
100
AcDbEntity
  8
寸法
 62
     0
 48
50.0
370
    -2
100
AcDbLine
 10
7297.721208878357
 20
8612.21934673672
 30
0.0
 11
8058.72120887837
 21
8612.21934673672
 31
0.0
  0
INSERT
  5
19BEB
330
19BD3
100
AcDbEntity
  8
寸法
 62
     0
 48
50.0
370
    -2
100
AcDbBlockReference
  2
_DOTSMALL
 10
7297.721208878357
 20
8612.21934673672
 30
0.0
 41
100.0
 42
100.0
 43
100.0
 50
180.0
  0
INSERT
  5
19BEC
330
19BD3
100
AcDbEntity
  8
寸法
 62
     0
 48
50.0
370
    -2
100
AcDbBlockReference
  2
_DOTSMALL
 10
8058.72120887837
 20
8612.21934673672
 30
0.0
 41
100.0
 42
100.0
 43
100.0
  0
MTEXT
  5
19BED
330
19BD3
100
AcDbEntity
  8
寸法
 62
     7
 48
50.0
100
AcDbMText
 10
7735.761767290604
 20
8712.21934673672
 30
0.0
 40
120.0
 41
0.0
 71
     5
 72
     1
  1
\A1;761
  7
STYLE1
 73
     1
 44
1.0
1001
ACAD
1000
MTEXTBEGIN
1070
    73
1070
     1
1070
    44
1040
1.0
1070
    74
1070
     0
1000
MTEXTEND
  0
POINT
  5
19BEE
330
19BD3
100
AcDbEntity
  8
DEFPOINTS
 62
     0
 48
50.0
100
AcDbPoint
 10
7356.414705172335
 20
8831.266456979703
 30
0.0
  0
POINT
  5
19BEF
330
19BD3
100
AcDbEntity
  8
DEFPOINTS
 62
     0
 48
50.0
100
AcDbPoint
 10
8117.414705172349
 20
8831.266456979699
 30
0.0
  0
POINT
  5
19BF0
330
19BD3
100
AcDbEntity
  8
DEFPOINTS
 62
     0
 48
50.0
100
AcDbPoint
 10
8058.72120887837
 20
8612.21934673672
 30
0.0
  0
ENDBLK
  5
19BDE
330
19BD3
100
AcDbEntity
  8
0
 48
50.0
100
AcDbBlockEnd
  0
BLOCK
  5
19C05
330
19BFB
100
AcDbEntity
  8
0
 48
50.0
100
AcDbBlockBegin
  2
*D42
 70
     1
 10
0.0
 20
0.0
 30
0.0
  3
*D42
  1

  0
LINE
  5
19C07
330
19BFB
100
AcDbEntity
  8
寸法
 62
     0
 48
50.0
370
    -2
100
AcDbLine
 10
6531.055721323713
 20
8811.266456979703
 30
0.0
 11
6461.644257332489
 21
8552.21934673672
 31
0.0
  0
LINE
  5
19C08
330
19BFB
100
AcDbEntity
  8
寸法
 62
     0
 48
50.0
370
    -2
100
AcDbLine
 10
7292.055721323726
 20
8811.2664569797
 30
0.0
 11
7222.644257332501
 21
8552.21934673672
 31
0.0
  0
LINE
  5
19C09
330
19BFB
100
AcDbEntity
  8
寸法
 62
     0
 48
50.0
370
    -2
100
AcDbLine
 10
6477.721208878357
 20
8612.21934673672
 30
0.0
 11
7238.72120887837
 21
8612.21934673672
 31
0.0
  0
INSERT
  5
19C0A
330
19BFB
100
AcDbEntity
  8
寸法
 62
     0
 48
50.0
370
    -2
100
AcDbBlockReference
  2
_DOTSMALL
 10
6477.721208878357
 20
8612.21934673672
 30
0.0
 41
100.0
 42
100.0
 43
100.0
 50
180.0
  0
INSERT
  5
19C0B
330
19BFB
100
AcDbEntity
  8
寸法
 62
     0
 48
50.0
370
    -2
100
AcDbBlockReference
  2
_DOTSMALL
 10
7238.72120887837
 20
8612.21934673672
 30
0.0
 41
100.0
 42
100.0
 43
100.0
  0
MTEXT
  5
19C0C
330
19BFB
100
AcDbEntity
  8
寸法
 62
     7
 48
50.0
100
AcDbMText
 10
6915.761767290604
 20
8712.21934673672
 30
0.0
 40
120.0
 41
0.0
 71
     5
 72
     1
  1
\A1;761
  7
STYLE1
 73
     1
 44
1.0
1001
ACAD
1000
MTEXTBEGIN
1070
    73
1070
     1
1070
    44
1040
1.0
1070
    74
1070
     0
1000
MTEXTEND
  0
POINT
  5
19C0D
330
19BFB
100
AcDbEntity
  8
DEFPOINTS
 62
     0
 48
50.0
100
AcDbPoint
 10
6536.414705172337
 20
8831.266456979703
 30
0.0
  0
POINT
  5
19C0E
330
19BFB
100
AcDbEntity
  8
DEFPOINTS
 62
     0
 48
50.0
100
AcDbPoint
 10
7297.414705172347
 20
8831.266456979699
 30
0.0
  0
POINT
  5
19C0F
330
19BFB
100
AcDbEntity
  8
DEFPOINTS
 62
     0
 48
50.0
100
AcDbPoint
 10
7238.72120887837
 20
8612.21934673672
 30
0.0
  0
ENDBLK
  5
19C06
330
19BFB
100
AcDbEntity
  8
0
 48
50.0
100
AcDbBlockEnd
  0
BLOCK
  5
19C24
330
19C1A
100
AcDbEntity
  8
0
 48
50.0
100
AcDbBlockBegin
  2
*D43
 70
     1
 10
0.0
 20
0.0
 30
0.0
  3
*D43
  1

  0
LINE
  5
19C26
330
19C1A
100
AcDbEntity
  8
寸法
 62
     0
 48
50.0
370
    -2
100
AcDbLine
 10
5711.055721323713
 20
8811.266456979703
 30
0.0
 11
5641.644257332489
 21
8552.21934673672
 31
0.0
  0
LINE
  5
19C27
330
19C1A
100
AcDbEntity
  8
寸法
 62
     0
 48
50.0
370
    -2
100
AcDbLine
 10
6472.055721323726
 20
8811.2664569797
 30
0.0
 11
6402.644257332503
 21
8552.21934673672
 31
0.0
  0
LINE
  5
19C28
330
19C1A
100
AcDbEntity
  8
寸法
 62
     0
 48
50.0
370
    -2
100
AcDbLine
 10
5657.721208878357
 20
8612.21934673672
 30
0.0
 11
6418.72120887837
 21
8612.21934673672
 31
0.0
  0
INSERT
  5
19C29
330
19C1A
100
AcDbEntity
  8
寸法
 62
     0
 48
50.0
370
    -2
100
AcDbBlockReference
  2
_DOTSMALL
 10
5657.721208878357
 20
8612.21934673672
 30
0.0
 41
100.0
 42
100.0
 43
100.0
 50
180.0
  0
INSERT
  5
19C2A
330
19C1A
100
AcDbEntity
  8
寸法
 62
     0
 48
50.0
370
    -2
100
AcDbBlockReference
  2
_DOTSMALL
 10
6418.72120887837
 20
8612.21934673672
 30
0.0
 41
100.0
 42
100.0
 43
100.0
  0
MTEXT
  5
19C2B
330
19C1A
100
AcDbEntity
  8
寸法
 62
     7
 48
50.0
100
AcDbMText
 10
6095.761767290604
 20
8712.21934673672
 30
0.0
 40
120.0
 41
0.0
 71
     5
 72
     1
  1
\A1;761
  7
STYLE1
 73
     1
 44
1.0
1001
ACAD
1000
MTEXTBEGIN
1070
    73
1070
     1
1070
    44
1040
1.0
1070
    74
1070
     0
1000
MTEXTEND
  0
POINT
  5
19C2C
330
19C1A
100
AcDbEntity
  8
DEFPOINTS
 62
     0
 48
50.0
100
AcDbPoint
 10
5716.414705172336
 20
8831.266456979703
 30
0.0
  0
POINT
  5
19C2D
330
19C1A
100
AcDbEntity
  8
DEFPOINTS
 62
     0
 48
50.0
100
AcDbPoint
 10
6477.414705172347
 20
8831.266456979699
 30
0.0
  0
POINT
  5
19C2E
330
19C1A
100
AcDbEntity
  8
DEFPOINTS
 62
     0
 48
50.0
100
AcDbPoint
 10
6418.72120887837
 20
8612.21934673672
 30
0.0
  0
ENDBLK
  5
19C25
330
19C1A
100
AcDbEntity
  8
0
 48
50.0
100
AcDbBlockEnd
  0
BLOCK
  5
19C43
330
19C39
100
AcDbEntity
  8
0
 48
50.0
100
AcDbBlockBegin
  2
*D44
 70
     1
 10
0.0
 20
0.0
 30
0.0
  3
*D44
  1

  0
LINE
  5
19C45
330
19C39
100
AcDbEntity
  8
寸法
 62
     0
 48
50.0
370
    -2
100
AcDbLine
 10
4891.055721323713
 20
8811.266456979703
 30
0.0
 11
4821.64425733249
 21
8552.21934673672
 31
0.0
  0
LINE
  5
19C46
330
19C39
100
AcDbEntity
  8
寸法
 62
     0
 48
50.0
370
    -2
100
AcDbLine
 10
5652.055721323725
 20
8811.2664569797
 30
0.0
 11
5582.644257332503
 21
8552.21934673672
 31
0.0
  0
LINE
  5
19C47
330
19C39
100
AcDbEntity
  8
寸法
 62
     0
 48
50.0
370
    -2
100
AcDbLine
 10
4837.721208878357
 20
8612.21934673672
 30
0.0
 11
5598.721208878369
 21
8612.21934673672
 31
0.0
  0
INSERT
  5
19C48
330
19C39
100
AcDbEntity
  8
寸法
 62
     0
 48
50.0
370
    -2
100
AcDbBlockReference
  2
_DOTSMALL
 10
4837.721208878357
 20
8612.21934673672
 30
0.0
 41
100.0
 42
100.0
 43
100.0
 50
180.0
  0
INSERT
  5
19C49
330
19C39
100
AcDbEntity
  8
寸法
 62
     0
 48
50.0
370
    -2
100
AcDbBlockReference
  2
_DOTSMALL
 10
5598.721208878369
 20
8612.21934673672
 30
0.0
 41
100.0
 42
100.0
 43
100.0
  0
MTEXT
  5
19C4A
330
19C39
100
AcDbEntity
  8
寸法
 62
     7
 48
50.0
100
AcDbMText
 10
5275.761767290604
 20
8712.21934673672
 30
0.0
 40
120.0
 41
0.0
 71
     5
 72
     1
  1
\A1;761
  7
STYLE1
 73
     1
 44
1.0
1001
ACAD
1000
MTEXTBEGIN
1070
    73
1070
     1
1070
    44
1040
1.0
1070
    74
1070
     0
1000
MTEXTEND
  0
POINT
  5
19C4B
330
19C39
100
AcDbEntity
  8
DEFPOINTS
 62
     0
 48
50.0
100
AcDbPoint
 10
4896.414705172336
 20
8831.266456979703
 30
0.0
  0
POINT
  5
19C4C
330
19C39
100
AcDbEntity
  8
DEFPOINTS
 62
     0
 48
50.0
100
AcDbPoint
 10
5657.414705172348
 20
8831.266456979699
 30
0.0
  0
POINT
  5
19C4D
330
19C39
100
AcDbEntity
  8
DEFPOINTS
 62
     0
 48
50.0
100
AcDbPoint
 10
5598.721208878369
 20
8612.21934673672
 30
0.0
  0
ENDBLK
  5
19C44
330
19C39
100
AcDbEntity
  8
0
 48
50.0
100
AcDbBlockEnd
  0
ENDSEC
  0
SECTION
  2
ENTITIES
  0
LINE
  5
10B56
330
747D
100
AcDbEntity
  8
補助
  6
PHANTOM
 62
   230
 48
50.0
100
AcDbLine
 10
140.0
 20
0.0
 30
0.0
 11
139.9999999999995
 21
11409.6
 31
0.0
  0
LINE
  5
10B57
330
747D
100
AcDbEntity
  8
補助
  6
PHANTOM
 62
   230
 48
50.0
100
AcDbLine
 10
139.9999999999995
 20
11409.6
 30
0.0
 11
16307.2
 21
11409.6
 31
0.0
  0
LINE
  5
10B59
330
747D
100
AcDbEntity
  8
仕様書枠
  6
Continuous
 48
50.0
100
AcDbLine
 10
13107.2
 20
1200.0
 30
0.0
 11
13107.2
 21
-0.0000000000000729
 31
0.0
  0
LINE
  5
10B5C
330
747D
100
AcDbEntity
  8
仕様書枠
 48
50.0
100
AcDbLine
 10
16307.2
 20
1200.0
 30
0.0
 11
16307.2
 21
-0.0000000000000909
 31
0.0
  0
LINE
  5
10B5D
330
747D
100
AcDbEntity
  8
仕様書枠
 48
50.0
100
AcDbLine
 10
140.0
 20
0.0
 30
0.0
 11
16307.2
 21
-0.0000000000000909
 31
0.0
  0
LINE
  5
10B5E
330
747D
100
AcDbEntity
  8
補助
  6
PHANTOM
 62
   230
 48
50.0
100
AcDbLine
 10
16307.2
 20
11409.6
 30
0.0
 11
16307.2
 21
1200.0
 31
0.0
  0
LINE
  5
10B6C
330
747D
100
AcDbEntity
  8
仕様書枠
 48
50.0
100
AcDbLine
 10
13107.2
 20
1200.0
 30
0.0
 11
16307.2
 21
1200.0
 31
0.0
  0
LINE
  5
10B6D
330
747D
100
AcDbEntity
  8
補助
  6
PHANTOM
 62
   230
 48
50.0
100
AcDbLine
 10
13107.2
 20
11409.6
 30
0.0
 11
13107.2
 21
4800.0
 31
0.0
  0
LINE
  5
10B6F
330
747D
100
AcDbEntity
  8
補助
  6
PHANTOM
 62
   230
 48
50.0
100
AcDbLine
 10
13107.2
 20
4800.0
 30
0.0
 11
16307.2
 21
4800.0
 31
0.0
  0
LINE
  5
10B72
330
747D
100
AcDbEntity
  8
文字
 62
     7
 48
50.0
100
AcDbLine
 10
13187.2
 20
400.0
 30
0.0
 11
16227.2
 21
400.0
 31
0.0
  0
TEXT
  5
10B73
330
747D
100
AcDbEntity
  8
文字
 62
     7
 48
50.0
100
AcDbText
 10
13162.9790565769
 20
895.0906074299405
 30
0.0
 40
200.0
  1
外 形 図
  7
STYLE2
100
AcDbText
  0
TEXT
  5
10B74
330
747D
100
AcDbEntity
  8
文字
 62
     7
 48
50.0
100
AcDbText
 10
13201.43669998441
 20
477.2740661031255
 30
0.0
 40
160.0
  1
機種名
  7
STYLE2
100
AcDbText
  0
TEXT
  5
10B75
330
747D
100
AcDbEntity
  8
文字
 62
     7
 48
50.0
100
AcDbText
 10
13209.4053442172
 20
228.5435242569016
 30
0.0
 40
100.0
  1
○有効開口寸法 ： 685×846(mm)
  7
STYLE2
100
AcDbText
  0
TEXT
  5
10B76
330
747D
100
AcDbEntity
  8
文字
 62
     7
 48
50.0
100
AcDbText
 10
13209.4053442172
 20
76.09434707649343
 30
0.0
 40
100.0
  1
○床面積 ： 3.12㎡(0.94坪) 　
  7
STYLE2
100
AcDbText
  0
TEXT
  5
10B79
330
747D
100
AcDbEntity
  8
文字
 62
     7
 48
50.0
100
AcDbText
 10
14524.131837222
 20
1031.557706291228
 30
0.0
 40
100.0
  1
NO.03     <縮尺> S=1/40
  7
STYLE2
100
AcDbText
  0
LINE
  5
10B7B
330
747D
100
AcDbEntity
  8
仕様書枠
 48
50.0
100
AcDbLine
 10
13107.2
 20
800.0
 30
0.0
 11
14251.2
 21
800.0
 31
0.0
  0
LINE
  5
10B88
330
747D
100
AcDbEntity
  8
仕様書枠
  6
Continuous
 48
50.0
100
AcDbLine
 10
14251.2
 20
1200.0
 30
0.0
 11
14251.2
 21
800.0
 31
0.0
  0
TEXT
  5
10EA8
330
747D
100
AcDbEntity
  8
文字
 62
     7
 48
50.0
100
AcDbText
 10
14251.2
 20
838.2527270729188
 30
0.0
 40
100.0
  1
～一般型・多雪地型・豪雪地型～
  7
STYLE2
100
AcDbText
  0
LINE
  5
13A41
330
747D
100
AcDbEntity
  8
Ｇ．Ｌ
100
AcDbLine
 10
3208.883733855168
 20
3469.57727689386
 30
0.0
 11
12355.8676782443
 21
3469.577276893861
 31
0.0
  0
TEXT
  5
13A63
330
747D
100
AcDbEntity
  8
部品1
100
AcDbText
 10
3376.473543009794
 20
3505.684180499762
 30
0.0
 40
125.0
  1
▽G.L
  7
STYLE2
100
AcDbText
  0
TEXT
  5
14E82
330
747D
100
AcDbEntity
  8
部品1
100
AcDbText
 10
6250.562039116244
 20
6830.294238961444
 30
0.0
 40
135.0
  1
平面図
  7
STYLE2
100
AcDbText
  0
LWPOLYLINE
  5
14E83
330
747D
100
AcDbEntity
  8
部品1
100
AcDbPolyline
 90
        4
 70
     1
 43
0.0
 10
6160.642429287207
 20
7023.18776817997
 10
6160.642429287207
 20
6783.295446634435
 10
6924.113095515648
 20
6783.295446634435
 10
6924.113095515648
 20
7023.18776817997
  0
LINE
  5
1566C
330
747D
100
AcDbEntity
  8
部品1
100
AcDbLine
 10
4894.914705172404
 20
9282.766456979695
 30
0.0
 11
5684.295408191025
 21
9282.766456979716
 31
0.0
  0
LINE
  5
15671
330
747D
100
AcDbEntity
  8
部品1
100
AcDbLine
 10
5737.914705172396
 20
8360.76645697968
 30
0.0
 11
4866.914705172396
 21
8360.766456979652
 31
0.0
  0
LINE
  5
15672
330
747D
100
AcDbEntity
  8
部品1
 48
5.0
100
AcDbLine
 10
4909.914705172396
 20
8390.266456979615
 30
0.0
 11
5662.914705172397
 21
8390.266456979672
 31
0.0
  0
DIMENSION
  5
15673
330
747D
100
AcDbEntity
  8
寸法
 48
50.0
100
AcDbDimension
  2
*D1
 10
8066.914705172395
 20
7920.942789184611
 30
0.0
 11
7724.414705172397
 21
7920.942789184611
 31
0.0
 70
   160
  1
有効開口部間口\P<>
 71
     5
 42
684.9999999999954
  3
INABA_S40G
100
AcDbAlignedDimension
 13
7381.9147051724
 23
8360.766456979687
 33
0.0
 14
8066.914705172395
 24
8360.766456979652
 34
0.0
100
AcDbRotatedDimension
  0
LINE
  5
15674
330
747D
100
AcDbEntity
  8
部品1
100
AcDbLine
 10
5641.914705172396
 20
8386.766456979746
 30
0.0
 11
4911.914705172396
 21
8386.766456979716
 31
0.0
  0
LINE
  5
15675
330
747D
100
AcDbEntity
  8
破線
 48
10.0
100
AcDbLine
 10
5607.914705172388
 20
8515.76645697972
 30
0.0
 11
4946.914705172389
 21
8515.766456979703
 31
0.0
  0
LINE
  5
15676
330
747D
100
AcDbEntity
  8
部品1
100
AcDbLine
 10
5631.41527562056
 20
8492.265876159775
 30
0.0
 11
4923.41567659879
 21
8492.265374671253
 31
0.0
  0
ARC
  5
15678
330
747D
100
AcDbEntity
  8
想像線
 48
10.0
100
AcDbCircle
 10
5634.562654495236
 20
8362.461350355301
 30
0.0
 40
722.6499369155582
100
AcDbArc
 50
180.1343808685482
 51
270.5829222700354
  0
LINE
  5
15679
330
747D
100
AcDbEntity
  8
部品1
100
AcDbLine
 10
4866.914705172403
 20
9310.766456979694
 30
0.0
 11
8146.914705172404
 21
9310.76645697979
 31
0.0
  0
LINE
  5
1567A
330
747D
100
AcDbEntity
  8
部品1
100
AcDbLine
 10
8146.914705172378
 20
8360.766456979774
 30
0.0
 11
4866.914705172396
 21
8360.76645697968
 31
0.0
  0
DIMENSION
  5
1567B
330
747D
100
AcDbEntity
  8
寸法
100
AcDbDimension
  2
*D2
 10
8146.914705172378
 20
7373.664582119542
 30
0.0
 11
6506.914705172388
 21
7473.676393143164
 31
0.0
 70
    32
 71
     5
 42
3279.999999999982
  3
INABA_S40G
100
AcDbAlignedDimension
 13
4866.914705172396
 23
8360.766456979614
 33
0.0
 14
8146.914705172378
 24
8360.766456979744
 34
0.0
100
AcDbRotatedDimension
1001
ACAD
1000
DSTYLE
1002
{
1002
}
  0
DIMENSION
  5
1567C
330
747D
100
AcDbEntity
  8
寸法
100
AcDbDimension
  2
*D3
 10
5631.914705172402
 20
9526.574676604793
 30
0.0
 11
5277.164705172402
 21
9526.574676604793
 31
0.0
 70
   160
 71
     5
 42
709.9999999999981
  3
INABA_S40G
100
AcDbAlignedDimension
 13
4921.914705172403
 23
9310.766456979724
 33
0.0
 14
5631.914705172402
 24
9310.766456979811
 34
0.0
100
AcDbRotatedDimension
1001
ACAD
1000
DSTYLE
1002
{
1002
}
  0
DIMENSION
  5
1567D
330
747D
100
AcDbEntity
  8
寸法
100
AcDbDimension
  2
*D4
 10
4921.914705172403
 20
9526.574676604676
 30
0.0
 11
4558.429423798128
 21
9526.574676604676
 31
0.0
 70
   160
 71
     5
 42
55.00000000003637
  3
INABA_S40G
100
AcDbAlignedDimension
 13
4866.914705172367
 23
9310.766456979694
 33
0.0
 14
4921.914705172403
 24
9310.766456979694
 34
0.0
100
AcDbRotatedDimension
1001
ACAD
1000
DSTYLE
1002
{
1002
}
  0
LINE
  5
1567E
330
747D
100
AcDbEntity
  8
部品1
100
AcDbLine
 10
4894.914705172378
 20
8415.766456979644
 30
0.0
 11
4894.914705172404
 21
9282.766456979695
 31
0.0
  0
LINE
  5
1567F
330
747D
100
AcDbEntity
  8
部品1
100
AcDbLine
 10
4866.914705172367
 20
9310.766456979658
 30
0.0
 11
4866.914705172396
 21
8360.766456979652
 31
0.0
  0
LINE
  5
15681
330
747D
100
AcDbEntity
  8
部品1
 48
5.0
100
AcDbLine
 10
4923.41567659736
 20
8492.266456979789
 30
0.0
 11
4923.415183666049
 21
8831.266456979703
 31
0.0
  0
LINE
  5
15682
330
747D
100
AcDbEntity
  8
部品1
 48
2.83
100
AcDbLine
 10
4909.914705172396
 20
8390.266456979615
 30
0.0
 11
4909.914705172396
 21
8360.766456979614
 31
0.0
  0
LINE
  5
15685
330
747D
100
AcDbEntity
  8
部品1
100
AcDbLine
 10
4911.914705172396
 20
8386.766456979716
 30
0.0
 11
4911.914705172396
 21
8360.76645697968
 31
0.0
  0
LINE
  5
15686
330
747D
100
AcDbEntity
  8
部品1
 48
2.83
100
AcDbLine
 10
4909.914705172396
 20
8360.766456979614
 30
0.0
 11
4866.914705172396
 21
8360.766456979614
 31
0.0
  0
LINE
  5
15687
330
747D
100
AcDbEntity
  8
部品1
 48
2.83
100
AcDbLine
 10
4921.914705172396
 20
8415.766456979614
 30
0.0
 11
4921.914705172399
 21
8390.266456979615
 31
0.0
  0
LINE
  5
15688
330
747D
100
AcDbEntity
  8
部品1
100
AcDbLine
 10
4894.914705172394
 20
8415.766456979659
 30
0.0
 11
4866.914705172394
 21
8415.766456979659
 31
0.0
  0
LINE
  5
15689
330
747D
100
AcDbEntity
  8
部品1
100
AcDbLine
 10
4894.914705172378
 20
8415.766456979644
 30
0.0
 11
4866.914705172394
 21
8415.766456979644
 31
0.0
  0
LINE
  5
1568A
330
747D
100
AcDbEntity
  8
部品1
100
AcDbLine
 10
4894.914705172378
 20
8415.766456979614
 30
0.0
 11
4866.914705172394
 21
8415.766456979614
 31
0.0
  0
LINE
  5
1568B
330
747D
100
AcDbEntity
  8
部品1
 48
2.83
100
AcDbLine
 10
4866.914705172396
 20
8415.766456979614
 30
0.0
 11
4889.914705172396
 21
8415.766456979614
 31
0.0
  0
LINE
  5
1568C
330
747D
100
AcDbEntity
  8
部品1
 48
2.83
100
AcDbLine
 10
4898.914705172396
 20
8415.766456979614
 30
0.0
 11
4921.914705172396
 21
8415.766456979614
 31
0.0
  0
LINE
  5
1568D
330
747D
100
AcDbEntity
  8
部品1
 48
50.0
100
AcDbLine
 10
4923.41567659879
 20
8492.265374671253
 30
0.0
 11
4894.914705172378
 21
8463.246203738789
 31
0.0
  0
LINE
  5
1568F
330
747D
100
AcDbEntity
  8
部品1
100
AcDbLine
 10
4894.914705172378
 20
8835.766456979659
 30
0.0
 11
4866.914705172377
 21
8835.766456979659
 31
0.0
  0
LINE
  5
15690
330
747D
100
AcDbEntity
  8
部品1
100
AcDbLine
 10
4921.914705172403
 20
9310.766456979694
 30
0.0
 11
4921.914705172403
 21
9282.766456979695
 31
0.0
  0
LINE
  5
15691
330
747D
100
AcDbEntity
  8
部品1
100
AcDbLine
 10
4921.914705172366
 20
9310.766456979658
 30
0.0
 11
4921.91470517237
 21
9282.766456979658
 31
0.0
  0
LINE
  5
15692
330
747D
100
AcDbEntity
  8
部品1
100
AcDbLine
 10
4894.914705172371
 20
9255.766456979666
 30
0.0
 11
4866.91470517237
 21
9255.766456979666
 31
0.0
  0
LINE
  5
15693
330
747D
100
AcDbEntity
  8
部品1
 48
50.0
100
AcDbLine
 10
4896.414721512385
 20
9281.266447317385
 30
0.0
 11
4894.914705172404
 21
9282.766456979695
 31
0.0
  0
DIMENSION
  5
15695
330
747D
100
AcDbEntity
  8
寸法
100
AcDbDimension
  2
*D5
 10
8146.914705172404
 20
9526.574676604772
 30
0.0
 11
8455.399986546641
 21
9526.574676604772
 31
0.0
 70
   160
 71
     5
 42
55.0
  3
INABA_S40G
100
AcDbAlignedDimension
 13
8091.914705172404
 23
9310.76645697979
 33
0.0
 14
8146.914705172404
 24
9310.76645697979
 34
0.0
100
AcDbRotatedDimension
1001
ACAD
1000
DSTYLE
1002
{
1002
}
  0
DIMENSION
  5
15696
330
747D
100
AcDbEntity
  8
寸法
100
AcDbDimension
  2
*D6
 10
8794.341050906814
 20
9255.76645697979
 30
0.0
 11
8794.341050906814
 21
9619.25173835403
 31
0.0
 70
   160
 71
     5
 42
55.0
  3
INABA_S40G
100
AcDbAlignedDimension
 13
8146.914705172404
 23
9310.76645697979
 33
0.0
 14
8146.914705172404
 24
9255.76645697979
 34
0.0
 50
90.0
100
AcDbRotatedDimension
1001
ACAD
1000
DSTYLE
1002
{
1002
}
  0
DIMENSION
  5
15697
330
747D
100
AcDbEntity
  8
寸法
 48
50.0
100
AcDbDimension
  2
*D7
 10
7381.914705172405
 20
9526.574676604793
 30
0.0
 11
7326.914705172403
 21
9626.574676604793
 31
0.0
 70
    32
 71
     5
 42
110.0000000000036
  3
INABA_S40G
100
AcDbAlignedDimension
 13
7271.914705172401
 23
9310.766456979811
 33
0.0
 14
7381.914705172405
 24
9310.76645697979
 34
0.0
100
AcDbRotatedDimension
  0
DIMENSION
  5
15698
330
747D
100
AcDbEntity
  8
寸法
 48
50.0
100
AcDbDimension
  2
*D8
 10
7381.914705172405
 20
9526.574676604793
 30
0.0
 11
7736.914705172404
 21
9626.574676604793
 31
0.0
 70
    32
 71
     5
 42
709.9999999999981
  3
INABA_S40G
100
AcDbAlignedDimension
 13
8091.914705172404
 23
9310.766456979804
 33
0.0
 14
7381.914705172405
 24
9310.76645697979
 34
0.0
100
AcDbRotatedDimension
  0
DIMENSION
  5
1569A
330
747D
100
AcDbEntity
  8
寸法
100
AcDbDimension
  2
*D9
 10
8794.341050906789
 20
8360.766456979774
 30
0.0
 11
8794.341050906787
 21
7982.904990074915
 31
0.0
 70
   160
 71
     5
 42
55.0
  3
INABA_S40G
100
AcDbAlignedDimension
 13
8146.914705172378
 23
8415.766456979774
 33
0.0
 14
8146.914705172378
 24
8360.766456979774
 34
0.0
 50
90.0
100
AcDbRotatedDimension
1001
ACAD
1000
DSTYLE
1002
{
1002
}
  0
DIMENSION
  5
1569B
330
747D
100
AcDbEntity
  8
寸法
100
AcDbDimension
  2
*D10
 10
8794.341050906814
 20
8415.766456979774
 30
0.0
 11
8794.341050906814
 21
8835.766456979783
 31
0.0
 70
   160
  1
2X420=<>
 71
     5
 42
840.0000000000146
  3
INABA_S40G
100
AcDbAlignedDimension
 13
8146.914705172404
 23
9255.76645697979
 33
0.0
 14
8146.914705172378
 24
8415.766456979774
 34
0.0
 50
90.0
100
AcDbRotatedDimension
1001
ACAD
1000
DSTYLE
1002
{
1002
}
  0
DIMENSION
  5
1569C
330
747D
100
AcDbEntity
  8
寸法
100
AcDbDimension
  2
*D11
 10
9103.452581722491
 20
8360.766456979774
 30
0.0
 11
9103.452581722489
 21
8834.744175538693
 31
0.0
 70
   160
 71
     5
 42
950.0000000000145
  3
INABA_S40G
100
AcDbAlignedDimension
 13
8146.914705172404
 23
9310.76645697979
 33
0.0
 14
8146.914705172378
 24
8360.766456979774
 34
0.0
 50
90.0
100
AcDbRotatedDimension
1001
ACAD
1000
DSTYLE
1002
{
1002
}
  0
LINE
  5
1569F
330
747D
100
AcDbEntity
  8
想像線
 48
10.0
100
AcDbLine
 10
8101.914705172395
 20
8360.766456979742
 30
0.0
 11
8101.914705172395
 21
7639.848813323948
 31
0.0
  0
ARC
  5
156A0
330
747D
100
AcDbEntity
  8
想像線
 48
10.0
100
AcDbCircle
 10
8094.562654495238
 20
8362.461350355317
 30
0.0
 40
722.6499369155629
100
AcDbArc
 50
180.1343808685487
 51
270.5829222700353
  0
LINE
  5
156A1
330
747D
100
AcDbEntity
  8
想像線
 48
10.0
100
AcDbLine
 10
5641.914705172396
 20
8360.76645697973
 30
0.0
 11
5641.914705172396
 21
7639.848813323941
 31
0.0
  0
LINE
  5
156A6
330
747D
100
AcDbEntity
  8
部品1
 48
5.0
100
AcDbLine
 10
7294.914705172399
 20
8415.76645697973
 30
0.0
 11
7271.914705172396
 21
8415.76645697973
 31
0.0
  0
ARC
  5
156A7
330
747D
100
AcDbEntity
  8
細線
 48
0.2
100
AcDbCircle
 10
7273.977153001073
 20
8361.764086934952
 30
0.0
 40
4.049999999999999
100
AcDbArc
 50
194.2603506853988
 51
345.7396493146012
  0
LINE
  5
156A8
330
747D
100
AcDbEntity
  8
部品1
 48
0.2
100
AcDbLine
 10
7268.977153001073
 20
8353.764086934953
 30
0.0
 11
7273.977153001073
 21
8353.764086934953
 31
0.0
  0
LINE
  5
156A9
330
747D
100
AcDbEntity
  8
部品1
 48
50.0
100
AcDbLine
 10
7298.914705172382
 20
8464.26645697973
 30
0.0
 11
7271.414705172381
 21
8492.266456979738
 31
0.0
  0
LINE
  5
156B2
330
747D
100
AcDbEntity
  8
点線
 48
10.0
100
AcDbLine
 10
7247.914705172388
 20
8515.766456979738
 30
0.0
 11
7247.914696817836
 21
8831.266456979696
 31
0.0
  0
LINE
  5
156B3
330
747D
100
AcDbEntity
  8
部品1
 48
50.0
100
AcDbLine
 10
7271.414705172381
 20
8492.266456979738
 30
0.0
 11
7271.414705172358
 21
8831.266456979696
 31
0.0
  0
LINE
  5
156B5
330
747D
100
AcDbEntity
  8
点線
 48
10.0
100
AcDbLine
 10
5607.914705172388
 20
8515.766456979738
 30
0.0
 11
5607.914696817836
 21
8831.266456979696
 31
0.0
  0
LINE
  5
156B6
330
747D
100
AcDbEntity
  8
部品1
 48
50.0
100
AcDbLine
 10
5714.914705172382
 20
8415.76645697973
 30
0.0
 11
5714.914705172327
 21
9310.766456979738
 31
0.0
  0
LINE
  5
156B8
330
747D
100
AcDbEntity
  8
部品1
 48
50.0
100
AcDbLine
 10
5631.414705172382
 20
8492.266456979738
 30
0.0
 11
5631.414705172359
 21
8831.266456979696
 31
0.0
  0
LINE
  5
156BA
330
747D
100
AcDbEntity
  8
部品1
 48
50.0
100
AcDbLine
 10
5686.914705172381
 20
8415.76645697973
 30
0.0
 11
5686.914705172381
 21
9255.766456979738
 31
0.0
  0
LINE
  5
156BD
330
747D
100
AcDbEntity
  8
部品1
100
AcDbLine
 10
5729.914705172395
 20
8390.266456979684
 30
0.0
 11
5729.914705172397
 21
8360.76645697973
 31
0.0
  0
LINE
  5
156BE
330
747D
100
AcDbEntity
  8
部品1
 48
5.0
100
AcDbLine
 10
5729.914705172397
 20
8390.26645697973
 30
0.0
 11
5729.914705172397
 21
8360.76645697973
 31
0.0
  0
LINE
  5
156BF
330
747D
100
AcDbEntity
  8
部品1
100
AcDbLine
 10
5643.914705172395
 20
8390.266456979677
 30
0.0
 11
5643.914705172392
 21
8360.766456979723
 31
0.0
  0
LINE
  5
156C0
330
747D
100
AcDbEntity
  8
部品1
 48
5.0
100
AcDbLine
 10
5643.914705172398
 20
8390.26645697973
 30
0.0
 11
5643.914705172398
 21
8360.76645697973
 31
0.0
  0
LINE
  5
156C1
330
747D
100
AcDbEntity
  8
部品1
100
AcDbLine
 10
5731.914705172396
 20
8386.766456979753
 30
0.0
 11
5731.914705172396
 21
8360.766456979716
 31
0.0
  0
LINE
  5
156C2
330
747D
100
AcDbEntity
  8
部品1
100
AcDbLine
 10
5641.914705172396
 20
8386.766456979783
 30
0.0
 11
5641.914705172396
 21
8360.766456979728
 31
0.0
  0
ARC
  5
156C3
330
747D
100
AcDbEntity
  8
部品1
 48
0.2
100
AcDbCircle
 10
5633.977153001072
 20
8361.764086934952
 30
0.0
 40
8.0
100
AcDbArc
 50
270.0
 51
352.8363522778074
  0
ARC
  5
156C4
330
747D
100
AcDbEntity
  8
部品1
 48
0.2
100
AcDbCircle
 10
5628.977153001073
 20
8361.764086934952
 30
0.0
 40
8.0
100
AcDbArc
 50
187.1636477221926
 51
269.9999999999992
  0
ARC
  5
156C5
330
747D
100
AcDbEntity
  8
細線
 48
0.2
100
AcDbCircle
 10
5633.977153001072
 20
8361.764086934952
 30
0.0
 40
4.049999999999999
100
AcDbArc
 50
194.2603506853988
 51
345.7396493146012
  0
LINE
  5
156C6
330
747D
100
AcDbEntity
  8
部品1
 48
0.2
100
AcDbLine
 10
5628.977153001073
 20
8353.764086934953
 30
0.0
 11
5633.977153001072
 21
8353.764086934953
 31
0.0
  0
LINE
  5
156C7
330
747D
100
AcDbEntity
  8
部品1
 48
5.0
100
AcDbLine
 10
5643.914705172398
 20
8360.76645697973
 30
0.0
 11
5729.914705172397
 21
8360.76645697973
 31
0.0
  0
LINE
  5
156C8
330
747D
100
AcDbEntity
  8
部品1
 48
5.0
100
AcDbLine
 10
5741.914705172398
 20
8415.76645697973
 30
0.0
 11
5741.914705172399
 21
8390.26645697973
 31
0.0
  0
LINE
  5
156C9
330
747D
100
AcDbEntity
  8
部品1
 48
5.0
100
AcDbLine
 10
5710.914705172399
 20
8415.76645697973
 30
0.0
 11
5710.914705172398
 21
8390.26645697973
 31
0.0
  0
LINE
  5
156CA
330
747D
100
AcDbEntity
  8
部品1
 48
5.0
100
AcDbLine
 10
5662.914705172397
 20
8415.76645697973
 30
0.0
 11
5662.914705172397
 21
8390.26645697973
 31
0.0
  0
LINE
  5
156CB
330
747D
100
AcDbEntity
  8
部品1
 48
5.0
100
AcDbLine
 10
5631.914705172397
 20
8415.76645697973
 30
0.0
 11
5631.914705172399
 21
8390.26645697973
 31
0.0
  0
LINE
  5
156CC
330
747D
100
AcDbEntity
  8
部品1
 48
5.0
100
AcDbLine
 10
5654.914705172398
 20
8415.76645697973
 30
0.0
 11
5631.914705172396
 21
8415.76645697973
 31
0.0
  0
LINE
  5
156CD
330
747D
100
AcDbEntity
  8
部品1
 48
50.0
100
AcDbLine
 10
5658.914705172382
 20
8464.26645697973
 30
0.0
 11
5631.414705172382
 21
8492.266456979738
 31
0.0
  0
LINE
  5
156CE
330
747D
100
AcDbEntity
  8
部品1
 48
5.0
100
AcDbLine
 10
5658.914705172382
 20
8415.76645697973
 30
0.0
 11
5714.914705172382
 21
8415.76645697973
 31
0.0
  0
LINE
  5
156CF
330
747D
100
AcDbEntity
  8
部品1
 48
5.0
100
AcDbLine
 10
5718.914705172398
 20
8415.76645697973
 30
0.0
 11
5741.914705172398
 21
8415.76645697973
 31
0.0
  0
LINE
  5
156D0
330
747D
100
AcDbEntity
  8
部品1
 48
50.0
100
AcDbLine
 10
5743.41567659879
 20
8492.265374671253
 30
0.0
 11
5714.914705172382
 21
8464.26645697973
 31
0.0
  0
ARC
  5
156D1
330
747D
100
AcDbEntity
  8
部品1
 48
0.2
100
AcDbCircle
 10
7268.977153001073
 20
8361.764086934952
 30
0.0
 40
8.0
100
AcDbArc
 50
187.1636477221926
 51
269.9999999999992
  0
LINE
  5
156D2
330
747D
100
AcDbEntity
  8
部品1
 48
5.0
100
AcDbLine
 10
7271.914705172398
 20
8415.76645697973
 30
0.0
 11
7271.914705172399
 21
8390.26645697973
 31
0.0
  0
LINE
  5
156D5
330
747D
100
AcDbEntity
  8
部品1
 48
5.0
100
AcDbLine
 10
5686.914705172381
 20
8835.766456979735
 30
0.0
 11
5658.91470517233
 21
8835.766456979738
 31
0.0
  0
LINE
  5
156D8
330
747D
100
AcDbEntity
  8
部品1
 48
5.0
100
AcDbLine
 10
5741.914705172405
 20
9310.766456979742
 30
0.0
 11
5741.914705172399
 21
9282.766456979745
 31
0.0
  0
LINE
  5
156D9
330
747D
100
AcDbEntity
  8
部品1
 48
50.0
100
AcDbLine
 10
5716.414705172336
 20
9281.266449867768
 30
0.0
 11
5714.914705172328
 21
9282.766456979738
 31
0.0
  0
LINE
  5
156DA
330
747D
100
AcDbEntity
  8
部品1
 48
50.0
100
AcDbLine
 10
5657.414705172335
 20
9281.211937399577
 30
0.0
 11
5658.914705172328
 21
9282.766456979738
 31
0.0
  0
LINE
  5
156DB
330
747D
100
AcDbEntity
  8
部品1
 48
5.0
100
AcDbLine
 10
5631.914705172399
 20
9282.766456979738
 30
0.0
 11
5631.914705172402
 21
9310.766456979738
 31
0.0
  0
LINE
  5
156DD
330
747D
100
AcDbEntity
  8
部品1
 48
5.0
100
AcDbLine
 10
5714.91470517233
 20
9255.766456979738
 30
0.0
 11
5658.91470517233
 21
9255.766456979738
 31
0.0
  0
LINE
  5
156DE
330
747D
100
AcDbEntity
  8
部品1
 48
5.0
100
AcDbLine
 10
7271.914705172399
 20
9282.766456979738
 30
0.0
 11
7271.914705172401
 21
9310.766456979738
 31
0.0
  0
LINE
  5
156E0
330
747D
100
AcDbEntity
  8
部品1
100
AcDbLine
 10
8118.914705172404
 20
9282.766456979789
 30
0.0
 11
8118.914705172379
 21
8415.766456979774
 31
0.0
  0
LINE
  5
156E1
330
747D
100
AcDbEntity
  8
部品1
100
AcDbLine
 10
8146.914705172404
 20
9310.76645697979
 30
0.0
 11
8146.914705172378
 21
8360.766456979774
 31
0.0
  0
LINE
  5
156E3
330
747D
100
AcDbEntity
  8
点線
 48
10.0
100
AcDbLine
 10
7405.914705172389
 20
8515.766456979745
 30
0.0
 11
7405.914692741278
 21
8831.266456979703
 31
0.0
  0
LINE
  5
156E4
330
747D
100
AcDbEntity
  8
部品1
 48
50.0
100
AcDbLine
 10
7354.91470517238
 20
8415.76645697973
 30
0.0
 11
7354.914705172326
 21
9310.766456979738
 31
0.0
  0
LINE
  5
156E5
330
747D
100
AcDbEntity
  8
部品1
 48
50.0
100
AcDbLine
 10
7298.914705172382
 20
8415.76645697973
 30
0.0
 11
7298.914705172329
 21
9282.766456979738
 31
0.0
  0
LINE
  5
156E6
330
747D
100
AcDbEntity
  8
部品1
 48
5.0
100
AcDbLine
 10
8090.413733747446
 20
8492.266456979789
 30
0.0
 11
8090.414226678758
 21
8831.266456979696
 31
0.0
  0
LINE
  5
156E7
330
747D
100
AcDbEntity
  8
部品1
 48
50.0
100
AcDbLine
 10
7382.414698828096
 20
8492.266457004401
 30
0.0
 11
7382.41470180096
 21
8831.266456979703
 31
0.0
  0
LINE
  5
156E8
330
747D
100
AcDbEntity
  8
部品1
 48
50.0
100
AcDbLine
 10
7326.914705172382
 20
8415.76645697973
 30
0.0
 11
7326.914705172382
 21
9255.766456979738
 31
0.0
  0
LINE
  5
156EA
330
747D
100
AcDbEntity
  8
部品1
100
AcDbLine
 10
8090.413733747586
 20
8492.266562692629
 30
0.0
 11
7382.414705172379
 21
8492.266457004403
 31
0.0
  0
LINE
  5
156EB
330
747D
100
AcDbEntity
  8
破線
 48
10.0
100
AcDbLine
 10
8066.914705172381
 20
8515.766456979781
 30
0.0
 11
7405.914705172389
 21
8515.766456979745
 31
0.0
  0
LINE
  5
156EC
330
747D
100
AcDbEntity
  8
部品1
100
AcDbLine
 10
8101.914705172395
 20
8386.766456979783
 30
0.0
 11
7371.914705172397
 21
8386.766456979724
 31
0.0
  0
LINE
  5
156ED
330
747D
100
AcDbEntity
  8
部品1
 48
5.0
100
AcDbLine
 10
8103.914705172376
 20
8390.26645697973
 30
0.0
 11
7350.914705172397
 21
8390.26645697973
 31
0.0
  0
LINE
  5
156EE
330
747D
100
AcDbEntity
  8
部品1
100
AcDbLine
 10
7369.914705172395
 20
8390.266456979684
 30
0.0
 11
7369.914705172398
 21
8360.76645697973
 31
0.0
  0
LINE
  5
156EF
330
747D
100
AcDbEntity
  8
部品1
 48
5.0
100
AcDbLine
 10
7369.914705172398
 20
8390.26645697973
 30
0.0
 11
7369.914705172398
 21
8360.76645697973
 31
0.0
  0
LINE
  5
156F0
330
747D
100
AcDbEntity
  8
部品1
100
AcDbLine
 10
7283.914705172396
 20
8390.266456979677
 30
0.0
 11
7283.914705172392
 21
8360.766456979723
 31
0.0
  0
LINE
  5
156F1
330
747D
100
AcDbEntity
  8
部品1
 48
5.0
100
AcDbLine
 10
7283.914705172398
 20
8390.26645697973
 30
0.0
 11
7283.914705172398
 21
8360.76645697973
 31
0.0
  0
LINE
  5
156F2
330
747D
100
AcDbEntity
  8
部品1
100
AcDbLine
 10
7371.914705172397
 20
8386.766456979724
 30
0.0
 11
7371.914705172393
 21
8360.76645697973
 31
0.0
  0
LINE
  5
156F3
330
747D
100
AcDbEntity
  8
部品1
100
AcDbLine
 10
7281.914705172396
 20
8386.766456979783
 30
0.0
 11
7281.914705172396
 21
8360.766456979728
 31
0.0
  0
ARC
  5
156F4
330
747D
100
AcDbEntity
  8
部品1
 48
0.2
100
AcDbCircle
 10
7273.977153001073
 20
8361.764086934952
 30
0.0
 40
8.0
100
AcDbArc
 50
270.0
 51
352.8363522778074
  0
LINE
  5
156F5
330
747D
100
AcDbEntity
  8
部品1
 48
5.0
100
AcDbLine
 10
7283.914705172398
 20
8360.76645697973
 30
0.0
 11
7369.914705172398
 21
8360.76645697973
 31
0.0
  0
LINE
  5
156F6
330
747D
100
AcDbEntity
  8
部品1
 48
5.0
100
AcDbLine
 10
7381.914705172397
 20
8415.76645697973
 30
0.0
 11
7381.9147051724
 21
8390.26645697973
 31
0.0
  0
LINE
  5
156F7
330
747D
100
AcDbEntity
  8
部品1
 48
5.0
100
AcDbLine
 10
7350.914705172399
 20
8415.76645697973
 30
0.0
 11
7350.914705172397
 21
8390.26645697973
 31
0.0
  0
LINE
  5
156F8
330
747D
100
AcDbEntity
  8
部品1
 48
5.0
100
AcDbLine
 10
7302.914705172398
 20
8415.76645697973
 30
0.0
 11
7302.914705172398
 21
8390.26645697973
 31
0.0
  0
LINE
  5
156F9
330
747D
100
AcDbEntity
  8
部品1
 48
5.0
100
AcDbLine
 10
7298.914705172382
 20
8415.76645697973
 30
0.0
 11
7354.91470517238
 21
8415.76645697973
 31
0.0
  0
LINE
  5
156FA
330
747D
100
AcDbEntity
  8
部品1
 48
5.0
100
AcDbLine
 10
7358.914705172399
 20
8415.76645697973
 30
0.0
 11
7381.914705172397
 21
8415.76645697973
 31
0.0
  0
LINE
  5
156FB
330
747D
100
AcDbEntity
  8
部品1
 48
50.0
100
AcDbLine
 10
7382.414705172379
 20
8492.266457004403
 30
0.0
 11
7354.91470517238
 21
8464.26645697973
 31
0.0
  0
LINE
  5
156FC
330
747D
100
AcDbEntity
  8
部品1
 48
2.83
100
AcDbLine
 10
8103.914705172376
 20
8390.266456979745
 30
0.0
 11
8103.914705172376
 21
8360.766456979744
 31
0.0
  0
LINE
  5
156FD
330
747D
100
AcDbEntity
  8
部品1
100
AcDbLine
 10
8101.914705172395
 20
8386.766456979783
 30
0.0
 11
8101.914705172395
 21
8360.766456979774
 31
0.0
  0
LINE
  5
156FE
330
747D
100
AcDbEntity
  8
部品1
 48
0.2
100
AcDbLine
 10
8088.977153001074
 20
8353.764086934971
 30
0.0
 11
8093.977153001075
 21
8353.764086934971
 31
0.0
  0
ARC
  5
156FF
330
747D
100
AcDbEntity
  8
部品1
 48
0.2
100
AcDbCircle
 10
8093.977153001075
 20
8361.764086934972
 30
0.0
 40
8.0
100
AcDbArc
 50
270.0
 51
352.8363522778074
  0
ARC
  5
15700
330
747D
100
AcDbEntity
  8
部品1
 48
0.2
100
AcDbCircle
 10
8088.977153001074
 20
8361.764086934972
 30
0.0
 40
8.0
100
AcDbArc
 50
187.1636477221926
 51
269.9999999999992
  0
ARC
  5
15701
330
747D
100
AcDbEntity
  8
細線
 48
0.2
100
AcDbCircle
 10
8093.977153001075
 20
8361.764086934972
 30
0.0
 40
4.049999999999999
100
AcDbArc
 50
194.2603506853988
 51
345.7396493146012
  0
LINE
  5
15702
330
747D
100
AcDbEntity
  8
部品1
100
AcDbLine
 10
8118.914705172411
 20
8415.766456979788
 30
0.0
 11
8146.914705172411
 21
8415.766456979788
 31
0.0
  0
LINE
  5
15703
330
747D
100
AcDbEntity
  8
部品1
100
AcDbLine
 10
8118.914705172379
 20
8415.766456979774
 30
0.0
 11
8146.914705172378
 21
8415.766456979774
 31
0.0
  0
LINE
  5
15704
330
747D
100
AcDbEntity
  8
部品1
 48
2.83
100
AcDbLine
 10
8114.914705172378
 20
8415.766456979746
 30
0.0
 11
8091.914705172376
 21
8415.766456979746
 31
0.0
  0
LINE
  5
15705
330
747D
100
AcDbEntity
  8
部品1
 48
2.83
100
AcDbLine
 10
8146.914705172376
 20
8415.766456979746
 30
0.0
 11
8123.914705172376
 21
8415.766456979746
 31
0.0
  0
LINE
  5
15706
330
747D
100
AcDbEntity
  8
部品1
 48
2.83
100
AcDbLine
 10
8091.914705172378
 20
8415.766456979746
 30
0.0
 11
8091.914705172376
 21
8390.266456979745
 31
0.0
  0
LINE
  5
15707
330
747D
100
AcDbEntity
  8
部品1
 48
50.0
100
AcDbLine
 10
8118.914705172379
 20
8463.247391787374
 30
0.0
 11
8090.413733747586
 21
8492.266562692629
 31
0.0
  0
LINE
  5
1570C
330
747D
100
AcDbEntity
  8
部品1
100
AcDbLine
 10
7354.914705172326
 20
9282.766456979741
 30
0.0
 11
8118.914705172404
 21
9282.766456979789
 31
0.0
  0
LINE
  5
1570F
330
747D
100
AcDbEntity
  8
部品1
 48
5.0
100
AcDbLine
 10
7326.914705172382
 20
8835.766456979735
 30
0.0
 11
7298.914705172331
 21
8835.766456979738
 31
0.0
  0
LINE
  5
15712
330
747D
100
AcDbEntity
  8
部品1
 48
5.0
100
AcDbLine
 10
7381.914705172405
 20
9310.766456979742
 30
0.0
 11
7381.9147051724
 21
9282.766456979745
 31
0.0
  0
LINE
  5
15713
330
747D
100
AcDbEntity
  8
部品1
 48
50.0
100
AcDbLine
 10
7356.414705172335
 20
9281.211935459479
 30
0.0
 11
7354.914705172328
 21
9282.766456979738
 31
0.0
  0
LINE
  5
15714
330
747D
100
AcDbEntity
  8
部品1
 48
50.0
100
AcDbLine
 10
7297.414705172338
 20
9281.21193739958
 30
0.0
 11
7298.914705172329
 21
9282.766456979738
 31
0.0
  0
LINE
  5
15716
330
747D
100
AcDbEntity
  8
部品1
 48
5.0
100
AcDbLine
 10
7354.914705172331
 20
9255.766456979738
 30
0.0
 11
7298.914705172331
 21
9255.766456979738
 31
0.0
  0
LINE
  5
15718
330
747D
100
AcDbEntity
  8
部品1
100
AcDbLine
 10
8118.914705172404
 20
8835.766456979788
 30
0.0
 11
8146.914705172404
 21
8835.766456979788
 31
0.0
  0
LINE
  5
15719
330
747D
100
AcDbEntity
  8
部品1
100
AcDbLine
 10
8091.914705172404
 20
9310.766456979804
 30
0.0
 11
8091.914705172404
 21
9282.766456979803
 31
0.0
  0
LINE
  5
1571A
330
747D
100
AcDbEntity
  8
部品1
100
AcDbLine
 10
8091.914705172404
 20
9310.76645697979
 30
0.0
 11
8091.914705172404
 21
9282.766456979789
 31
0.0
  0
LINE
  5
1571B
330
747D
100
AcDbEntity
  8
部品1
100
AcDbLine
 10
8118.914705172404
 20
9255.76645697979
 30
0.0
 11
8146.914705172404
 21
9255.76645697979
 31
0.0
  0
LINE
  5
1571C
330
747D
100
AcDbEntity
  8
部品1
 48
50.0
100
AcDbLine
 10
8117.414688832388
 20
9281.26644731744
 30
0.0
 11
8118.914705172404
 21
9282.766456979789
 31
0.0
  0
LINE
  5
1571D
330
747D
100
AcDbEntity
  8
部品1
100
AcDbLine
 10
6463.914705172378
 20
5409.577276893861
 30
0.0
 11
6463.914705172378
 21
4523.077276893871
 31
0.0
  0
LINE
  5
1571E
330
747D
100
AcDbEntity
  8
部品1
100
AcDbLine
 10
6461.914705172377
 20
5407.07727689386
 30
0.0
 11
6461.91470517238
 21
4530.07727689388
 31
0.0
  0
LINE
  5
1571F
330
747D
100
AcDbEntity
  8
部品1
100
AcDbLine
 10
5731.914705172377
 20
5407.077276893859
 30
0.0
 11
5731.914705172377
 21
4530.077276893873
 31
0.0
  0
LINE
  5
15720
330
747D
100
AcDbEntity
  8
部品1
100
AcDbLine
 10
5729.914705172378
 20
5409.577276893861
 30
0.0
 11
5729.914705172381
 21
4523.077276893865
 31
0.0
  0
LINE
  5
15721
330
747D
100
AcDbEntity
  8
部品1
100
AcDbLine
 10
4911.914705172378
 20
5407.077276893862
 30
0.0
 11
4911.914705172378
 21
4530.077276893865
 31
0.0
  0
LINE
  5
15722
330
747D
100
AcDbEntity
  8
部品1
100
AcDbLine
 10
8103.914705172378
 20
5409.577276893861
 30
0.0
 11
8103.914705172376
 21
4523.077276893874
 31
0.0
  0
LINE
  5
15723
330
747D
100
AcDbEntity
  8
部品1
100
AcDbLine
 10
4866.914705172377
 20
5503.577276893864
 30
0.0
 11
4866.914705172377
 21
3469.57727689386
 31
0.0
  0
LINE
  5
15724
330
747D
100
AcDbEntity
  8
部品1
100
AcDbLine
 10
8146.914705172378
 20
5503.577276893862
 30
0.0
 11
8146.914705172378
 21
3469.57727689386
 31
0.0
  0
LINE
  5
15725
330
747D
100
AcDbEntity
  8
部品1
100
AcDbLine
 10
8101.914705172378
 20
5407.07727689386
 30
0.0
 11
8101.914705172379
 21
4530.07727689388
 31
0.0
  0
LINE
  5
15726
330
747D
100
AcDbEntity
  8
部品1
100
AcDbLine
 10
7371.914705172378
 20
5407.07727689386
 30
0.0
 11
7371.914705172379
 21
4530.077276893873
 31
0.0
  0
LINE
  5
15727
330
747D
100
AcDbEntity
  8
部品1
100
AcDbLine
 10
7369.914705172378
 20
5409.577276893861
 30
0.0
 11
7369.914705172381
 21
4523.07727689387
 31
0.0
  0
LINE
  5
15728
330
747D
100
AcDbEntity
  8
部品1
100
AcDbLine
 10
5643.914705172377
 20
5409.577276893861
 30
0.0
 11
5643.914705172377
 21
4523.077276893871
 31
0.0
  0
LINE
  5
15729
330
747D
100
AcDbEntity
  8
部品1
100
AcDbLine
 10
5641.914705172378
 20
5407.07727689386
 30
0.0
 11
5641.914705172379
 21
4530.077276893871
 31
0.0
  0
LINE
  5
1572A
330
747D
100
AcDbEntity
  8
部品1
100
AcDbLine
 10
4909.914705172377
 20
5409.577276893861
 30
0.0
 11
4909.914705172377
 21
4523.077276893865
 31
0.0
  0
DIMENSION
  5
1572B
330
747D
100
AcDbEntity
  8
寸法
100
AcDbDimension
  2
*D12
 10
4548.810177564776
 20
4545.077276893864
 30
0.0
 11
4548.810177564775
 21
4971.077276893863
 31
0.0
 70
   160
  1
有効開口部\P高さ<>
 71
     5
 42
845.9999999999963
  3
INABA_S40G
100
AcDbAlignedDimension
 13
4866.914705172378
 23
5391.07727689386
 33
0.0
 14
4866.914705172378
 24
4545.077276893864
 34
0.0
 50
90.0
100
AcDbRotatedDimension
1001
ACAD
1000
DSTYLE
1002
{
1070
   288
1070
     1
1002
}
  0
LINE
  5
1572D
330
747D
100
AcDbEntity
  8
部品1
100
AcDbLine
 10
5731.914705172377
 20
4530.077276893873
 30
0.0
 11
6441.852257343697
 21
4530.07727689388
 31
0.0
  0
LINE
  5
1572E
330
747D
100
AcDbEntity
  8
部品1
100
AcDbLine
 10
4866.914705172377
 20
3612.577276893864
 30
0.0
 11
8146.914705172378
 21
3612.577276893881
 31
0.0
  0
LINE
  5
1572F
330
747D
100
AcDbEntity
  8
部品1
100
AcDbLine
 10
4866.914705172377
 20
3569.57727689386
 30
0.0
 11
8146.914705172378
 21
3569.57727689386
 31
0.0
  0
LINE
  5
15732
330
747D
100
AcDbEntity
  8
部品1
100
AcDbLine
 10
4911.914705172378
 20
4530.077276893865
 30
0.0
 11
5621.852257343697
 21
4530.077276893871
 31
0.0
  0
LINE
  5
15734
330
747D
100
AcDbEntity
  8
細線
 48
0.2
100
AcDbLine
 10
5641.852257343696
 20
4534.327276893878
 30
0.0
 11
5621.852257343697
 21
4534.327276893878
 31
0.0
  0
LINE
  5
15735
330
747D
100
AcDbEntity
  8
部品1
 48
0.2
100
AcDbLine
 10
5641.852257343696
 20
4536.827276893879
 30
0.0
 11
5621.852257343697
 21
4536.827276893879
 31
0.0
  0
ARC
  5
15736
330
747D
100
AcDbEntity
  8
細線
 48
0.2
100
AcDbCircle
 10
5638.852257343696
 20
4529.85676706263
 30
0.0
 40
1.0
100
AcDbArc
 50
286.6015495990217
 51
0.0
  0
LINE
  5
15737
330
747D
100
AcDbEntity
  8
細線
 48
0.2
100
AcDbLine
 10
5641.852257343696
 20
4529.827276893878
 30
0.0
 11
5621.852257343697
 21
4529.827276893878
 31
0.0
  0
LINE
  5
15738
330
747D
100
AcDbEntity
  8
細線
 48
0.2
100
AcDbLine
 10
5641.852257343696
 20
4532.327276893878
 30
0.0
 11
5621.852257343697
 21
4532.32727689388
 31
0.0
  0
ARC
  5
15739
330
747D
100
AcDbEntity
  8
細線
 48
0.2
100
AcDbCircle
 10
5628.852257343697
 20
4529.85676706263
 30
0.0
 40
1.0
100
AcDbArc
 50
179.9999999999984
 51
253.3984504009775
  0
ARC
  5
1573A
330
747D
100
AcDbEntity
  8
細線
 48
0.2
100
AcDbCircle
 10
5633.852257343697
 20
4546.627276893876
 30
0.0
 40
18.49999999999796
100
AcDbArc
 50
253.3984504009772
 51
286.6015495990217
  0
LINE
  5
1573B
330
747D
100
AcDbEntity
  8
細線
 48
0.2
100
AcDbLine
 10
5639.536248640204
 20
4529.127276893878
 30
0.0
 11
5628.168266047192
 21
4529.127276893878
 31
0.0
  0
LINE
  5
1573C
330
747D
100
AcDbEntity
  8
細線
 48
50.0
100
AcDbLine
 10
5621.852257343697
 20
4530.07727689388
 30
0.0
 11
5621.852257343697
 21
4529.827276893878
 31
0.0
  0
LINE
  5
1573D
330
747D
100
AcDbEntity
  8
部品1
100
AcDbLine
 10
5641.852257343696
 20
4530.07727689388
 30
0.0
 11
5641.914705172378
 21
4530.07727689388
 31
0.0
  0
LINE
  5
1573E
330
747D
100
AcDbEntity
  8
部品1
100
AcDbLine
 10
5641.852257343696
 20
4530.077276893871
 30
0.0
 11
5641.914705172378
 21
4530.077276893871
 31
0.0
  0
LINE
  5
1573F
330
747D
100
AcDbEntity
  8
細線
 48
0.1
100
AcDbLine
 10
5641.852257343696
 20
4529.827276893878
 30
0.0
 11
5641.852257343696
 21
4536.827276893879
 31
0.0
  0
LINE
  5
15740
330
747D
100
AcDbEntity
  8
細線
 48
50.0
100
AcDbLine
 10
5629.989500149394
 20
4532.32727689388
 30
0.0
 11
5629.989500149394
 21
4534.327276893878
 31
0.0
  0
LINE
  5
15741
330
747D
100
AcDbEntity
  8
細線
 48
50.0
100
AcDbLine
 10
5637.839910195358
 20
4532.32727689388
 30
0.0
 11
5637.839910195358
 21
4534.327276893878
 31
0.0
  0
LINE
  5
15742
330
747D
100
AcDbEntity
  8
部品1
 48
50.0
100
AcDbLine
 10
5621.852257343697
 20
4536.827276893879
 30
0.0
 11
5621.852257343697
 21
4530.07727689388
 31
0.0
  0
LINE
  5
15745
330
747D
100
AcDbEntity
  8
部品1
100
AcDbLine
 10
7371.914705172378
 20
4530.077276893873
 30
0.0
 11
8081.852257343697
 21
4530.07727689388
 31
0.0
  0
LINE
  5
15746
330
747D
100
AcDbEntity
  8
部品1
 48
0.2
100
AcDbLine
 10
6461.852257343696
 20
4536.827276893879
 30
0.0
 11
6441.852257343697
 21
4536.827276893879
 31
0.0
  0
LINE
  5
15747
330
747D
100
AcDbEntity
  8
細線
 48
0.2
100
AcDbLine
 10
6461.852257343696
 20
4534.327276893878
 30
0.0
 11
6441.852257343697
 21
4534.327276893878
 31
0.0
  0
LINE
  5
15748
330
747D
100
AcDbEntity
  8
部品1
100
AcDbLine
 10
6461.852257343696
 20
4530.077276893882
 30
0.0
 11
6461.914705172377
 21
4530.077276893882
 31
0.0
  0
LINE
  5
15749
330
747D
100
AcDbEntity
  8
部品1
100
AcDbLine
 10
6461.852257343696
 20
4530.07727689388
 30
0.0
 11
6461.914705172377
 21
4530.07727689388
 31
0.0
  0
LINE
  5
1574A
330
747D
100
AcDbEntity
  8
細線
 48
50.0
100
AcDbLine
 10
6441.852257343697
 20
4530.07727689388
 30
0.0
 11
6441.852257343697
 21
4529.827276893878
 31
0.0
  0
LINE
  5
1574B
330
747D
100
AcDbEntity
  8
細線
 48
0.2
100
AcDbLine
 10
6459.536248640205
 20
4529.127276893878
 30
0.0
 11
6448.168266047193
 21
4529.127276893878
 31
0.0
  0
ARC
  5
1574C
330
747D
100
AcDbEntity
  8
細線
 48
0.2
100
AcDbCircle
 10
6453.852257343696
 20
4546.627276893876
 30
0.0
 40
18.49999999999796
100
AcDbArc
 50
253.3984504009772
 51
286.6015495990217
  0
ARC
  5
1574D
330
747D
100
AcDbEntity
  8
細線
 48
0.2
100
AcDbCircle
 10
6448.852257343697
 20
4529.85676706263
 30
0.0
 40
1.0
100
AcDbArc
 50
179.9999999999984
 51
253.3984504009775
  0
LINE
  5
1574E
330
747D
100
AcDbEntity
  8
細線
 48
0.2
100
AcDbLine
 10
6461.852257343696
 20
4532.327276893878
 30
0.0
 11
6441.852257343697
 21
4532.32727689388
 31
0.0
  0
LINE
  5
1574F
330
747D
100
AcDbEntity
  8
細線
 48
0.2
100
AcDbLine
 10
6461.852257343696
 20
4529.827276893878
 30
0.0
 11
6441.852257343697
 21
4529.827276893878
 31
0.0
  0
ARC
  5
15750
330
747D
100
AcDbEntity
  8
細線
 48
0.2
100
AcDbCircle
 10
6458.852257343696
 20
4529.85676706263
 30
0.0
 40
1.0
100
AcDbArc
 50
286.6015495990217
 51
0.0
  0
LINE
  5
15751
330
747D
100
AcDbEntity
  8
部品1
100
AcDbLine
 10
6461.852257343696
 20
4530.07727689388
 30
0.0
 11
6461.914705172377
 21
4530.07727689388
 31
0.0
  0
LINE
  5
15752
330
747D
100
AcDbEntity
  8
部品1
 48
50.0
100
AcDbLine
 10
6441.852257343697
 20
4536.827276893879
 30
0.0
 11
6441.852257343697
 21
4530.07727689388
 31
0.0
  0
LINE
  5
15753
330
747D
100
AcDbEntity
  8
細線
 48
50.0
100
AcDbLine
 10
6457.839910195358
 20
4532.32727689388
 30
0.0
 11
6457.839910195358
 21
4534.327276893878
 31
0.0
  0
LINE
  5
15754
330
747D
100
AcDbEntity
  8
細線
 48
50.0
100
AcDbLine
 10
6449.989500149394
 20
4532.32727689388
 30
0.0
 11
6449.989500149394
 21
4534.327276893878
 31
0.0
  0
LINE
  5
15755
330
747D
100
AcDbEntity
  8
細線
 48
0.1
100
AcDbLine
 10
6461.852257343696
 20
4529.827276893878
 30
0.0
 11
6461.852257343696
 21
4536.827276893879
 31
0.0
  0
LINE
  5
15759
330
747D
100
AcDbEntity
  8
部品1
 48
0.2
100
AcDbLine
 10
8101.852257343697
 20
4536.827276893879
 30
0.0
 11
8081.852257343696
 21
4536.827276893879
 31
0.0
  0
LINE
  5
1575A
330
747D
100
AcDbEntity
  8
細線
 48
0.2
100
AcDbLine
 10
8101.852257343697
 20
4534.327276893878
 30
0.0
 11
8081.852257343697
 21
4534.327276893878
 31
0.0
  0
LINE
  5
1575B
330
747D
100
AcDbEntity
  8
部品1
100
AcDbLine
 10
8101.852257343699
 20
4530.077276893882
 30
0.0
 11
8101.914705172379
 21
4530.077276893882
 31
0.0
  0
LINE
  5
1575C
330
747D
100
AcDbEntity
  8
部品1
100
AcDbLine
 10
8101.852257343699
 20
4530.07727689388
 30
0.0
 11
8101.914705172379
 21
4530.07727689388
 31
0.0
  0
LINE
  5
1575D
330
747D
100
AcDbEntity
  8
細線
 48
50.0
100
AcDbLine
 10
8081.852257343696
 20
4530.07727689388
 30
0.0
 11
8081.852257343696
 21
4529.827276893878
 31
0.0
  0
LINE
  5
1575E
330
747D
100
AcDbEntity
  8
細線
 48
0.2
100
AcDbLine
 10
8099.536248640204
 20
4529.127276893878
 30
0.0
 11
8088.168266047192
 21
4529.127276893878
 31
0.0
  0
ARC
  5
1575F
330
747D
100
AcDbEntity
  8
細線
 48
0.2
100
AcDbCircle
 10
8093.852257343696
 20
4546.627276893876
 30
0.0
 40
18.49999999999796
100
AcDbArc
 50
253.3984504009772
 51
286.6015495990217
  0
ARC
  5
15760
330
747D
100
AcDbEntity
  8
細線
 48
0.2
100
AcDbCircle
 10
8088.852257343697
 20
4529.85676706263
 30
0.0
 40
1.0
100
AcDbArc
 50
179.9999999999984
 51
253.3984504009775
  0
LINE
  5
15761
330
747D
100
AcDbEntity
  8
細線
 48
0.2
100
AcDbLine
 10
8101.852257343697
 20
4532.327276893878
 30
0.0
 11
8081.852257343697
 21
4532.32727689388
 31
0.0
  0
LINE
  5
15762
330
747D
100
AcDbEntity
  8
細線
 48
0.2
100
AcDbLine
 10
8101.852257343697
 20
4529.827276893878
 30
0.0
 11
8081.852257343697
 21
4529.827276893878
 31
0.0
  0
ARC
  5
15763
330
747D
100
AcDbEntity
  8
細線
 48
0.2
100
AcDbCircle
 10
8098.852257343697
 20
4529.85676706263
 30
0.0
 40
1.0
100
AcDbArc
 50
286.6015495990217
 51
0.0
  0
LINE
  5
15764
330
747D
100
AcDbEntity
  8
部品1
100
AcDbLine
 10
8101.852257343699
 20
4530.07727689388
 30
0.0
 11
8101.914705172378
 21
4530.07727689388
 31
0.0
  0
LINE
  5
15765
330
747D
100
AcDbEntity
  8
部品1
 48
50.0
100
AcDbLine
 10
8081.852257343696
 20
4536.827276893879
 30
0.0
 11
8081.852257343696
 21
4530.07727689388
 31
0.0
  0
LINE
  5
15766
330
747D
100
AcDbEntity
  8
細線
 48
50.0
100
AcDbLine
 10
8097.839910195357
 20
4532.32727689388
 30
0.0
 11
8097.839910195357
 21
4534.327276893878
 31
0.0
  0
LINE
  5
15767
330
747D
100
AcDbEntity
  8
細線
 48
50.0
100
AcDbLine
 10
8089.989500149393
 20
4532.32727689388
 30
0.0
 11
8089.989500149394
 21
4534.327276893878
 31
0.0
  0
LINE
  5
15768
330
747D
100
AcDbEntity
  8
細線
 48
0.1
100
AcDbLine
 10
8101.852257343697
 20
4529.827276893878
 30
0.0
 11
8101.852257343697
 21
4536.827276893879
 31
0.0
  0
LINE
  5
157E0
330
747D
100
AcDbEntity
  8
部品1
100
AcDbLine
 10
5731.914705172377
 20
5407.077276893859
 30
0.0
 11
6441.852257343697
 21
5407.07727689386
 31
0.0
  0
LINE
  5
157E9
330
747D
100
AcDbEntity
  8
部品1
100
AcDbLine
 10
4866.914705172377
 20
5409.577276893861
 30
0.0
 11
8146.914705172378
 21
5409.577276893861
 31
0.0
  0
LINE
  5
157EE
330
747D
100
AcDbEntity
  8
部品1
100
AcDbLine
 10
4911.914705172378
 20
5407.077276893862
 30
0.0
 11
5621.852257343697
 21
5407.077276893862
 31
0.0
  0
LINE
  5
15808
330
747D
100
AcDbEntity
  8
細線
 48
0.2
100
AcDbLine
 10
5639.536248640204
 20
5408.027276893863
 30
0.0
 11
5628.168266047192
 21
5408.027276893863
 31
0.0
  0
ARC
  5
15809
330
747D
100
AcDbEntity
  8
細線
 48
0.2
100
AcDbCircle
 10
5633.852257343697
 20
5390.527276893865
 30
0.0
 40
18.49999999999796
100
AcDbArc
 50
73.39845040097829
 51
106.6015495990228
  0
ARC
  5
1580A
330
747D
100
AcDbEntity
  8
細線
 48
0.2
100
AcDbCircle
 10
5638.852257343696
 20
5407.29778672511
 30
0.0
 40
1.0
100
AcDbArc
 50
0.0
 51
73.39845040097829
  0
ARC
  5
1580B
330
747D
100
AcDbEntity
  8
細線
 48
0.2
100
AcDbCircle
 10
5628.852257343697
 20
5407.29778672511
 30
0.0
 40
1.0
100
AcDbArc
 50
106.6015495990225
 51
180.0000000000016
  0
LINE
  5
1580C
330
747D
100
AcDbEntity
  8
細線
 48
0.2
100
AcDbLine
 10
5641.852257343696
 20
5404.827276893862
 30
0.0
 11
5621.852257343697
 21
5404.827276893862
 31
0.0
  0
LINE
  5
1580D
330
747D
100
AcDbEntity
  8
細線
 48
0.2
100
AcDbLine
 10
5641.852257343696
 20
5407.327276893862
 30
0.0
 11
5621.852257343697
 21
5407.327276893862
 31
0.0
  0
LINE
  5
1580E
330
747D
100
AcDbEntity
  8
部品1
100
AcDbLine
 10
5641.852257343696
 20
5407.077276893862
 30
0.0
 11
5641.914705172378
 21
5407.07727689386
 31
0.0
  0
LINE
  5
1580F
330
747D
100
AcDbEntity
  8
細線
 48
50.0
100
AcDbLine
 10
5621.852257343697
 20
5407.077276893862
 30
0.0
 11
5621.852257343697
 21
5407.327276893862
 31
0.0
  0
LINE
  5
15810
330
747D
100
AcDbEntity
  8
部品1
 48
0.2
100
AcDbLine
 10
5641.852257343696
 20
5400.327276893862
 30
0.0
 11
5621.852257343697
 21
5400.327276893862
 31
0.0
  0
LINE
  5
15811
330
747D
100
AcDbEntity
  8
細線
 48
0.2
100
AcDbLine
 10
5641.852257343696
 20
5402.827276893862
 30
0.0
 11
5621.852257343697
 21
5402.827276893862
 31
0.0
  0
LINE
  5
15812
330
747D
100
AcDbEntity
  8
細線
 48
50.0
100
AcDbLine
 10
5637.839910195358
 20
5404.827276893862
 30
0.0
 11
5637.839910195358
 21
5402.827276893862
 31
0.0
  0
LINE
  5
15813
330
747D
100
AcDbEntity
  8
細線
 48
50.0
100
AcDbLine
 10
5629.989500149394
 20
5404.827276893862
 30
0.0
 11
5629.989500149394
 21
5402.827276893862
 31
0.0
  0
LINE
  5
15814
330
747D
100
AcDbEntity
  8
細線
 48
0.1
100
AcDbLine
 10
5641.852257343696
 20
5407.327276893862
 30
0.0
 11
5641.852257343696
 21
5400.327276893862
 31
0.0
  0
LINE
  5
15815
330
747D
100
AcDbEntity
  8
部品1
 48
50.0
100
AcDbLine
 10
5621.852257343697
 20
5400.327276893862
 30
0.0
 11
5621.852257343697
 21
5407.077276893862
 31
0.0
  0
LINE
  5
1581A
330
747D
100
AcDbEntity
  8
部品1
100
AcDbLine
 10
7371.914705172378
 20
5407.07727689386
 30
0.0
 11
8081.852257343696
 21
5407.07727689386
 31
0.0
  0
ARC
  5
1581B
330
747D
100
AcDbEntity
  8
細線
 48
0.2
100
AcDbCircle
 10
6458.852257343696
 20
5407.29778672511
 30
0.0
 40
1.0
100
AcDbArc
 50
0.0
 51
73.39845040097829
  0
LINE
  5
1581C
330
747D
100
AcDbEntity
  8
細線
 48
0.2
100
AcDbLine
 10
6461.852257343696
 20
5407.327276893862
 30
0.0
 11
6441.852257343697
 21
5407.327276893862
 31
0.0
  0
LINE
  5
1581D
330
747D
100
AcDbEntity
  8
細線
 48
0.2
100
AcDbLine
 10
6461.852257343696
 20
5404.827276893862
 30
0.0
 11
6441.852257343697
 21
5404.827276893862
 31
0.0
  0
ARC
  5
1581E
330
747D
100
AcDbEntity
  8
細線
 48
0.2
100
AcDbCircle
 10
6448.852257343697
 20
5407.29778672511
 30
0.0
 40
1.0
100
AcDbArc
 50
106.6015495990225
 51
180.0000000000016
  0
ARC
  5
1581F
330
747D
100
AcDbEntity
  8
細線
 48
0.2
100
AcDbCircle
 10
6453.852257343696
 20
5390.527276893865
 30
0.0
 40
18.49999999999796
100
AcDbArc
 50
73.39845040097829
 51
106.6015495990228
  0
LINE
  5
15820
330
747D
100
AcDbEntity
  8
細線
 48
0.2
100
AcDbLine
 10
6459.536248640205
 20
5408.027276893863
 30
0.0
 11
6448.168266047193
 21
5408.027276893863
 31
0.0
  0
LINE
  5
15821
330
747D
100
AcDbEntity
  8
細線
 48
50.0
100
AcDbLine
 10
6441.852257343697
 20
5407.077276893862
 30
0.0
 11
6441.852257343697
 21
5407.327276893862
 31
0.0
  0
LINE
  5
15822
330
747D
100
AcDbEntity
  8
部品1
100
AcDbLine
 10
6461.852257343696
 20
5407.077276893862
 30
0.0
 11
6461.914705172377
 21
5407.07727689386
 31
0.0
  0
LINE
  5
15823
330
747D
100
AcDbEntity
  8
部品1
100
AcDbLine
 10
6461.852257343696
 20
5407.077276893859
 30
0.0
 11
6461.914705172377
 21
5407.07727689386
 31
0.0
  0
LINE
  5
15824
330
747D
100
AcDbEntity
  8
細線
 48
0.2
100
AcDbLine
 10
6461.852257343696
 20
5402.827276893862
 30
0.0
 11
6441.852257343697
 21
5402.827276893862
 31
0.0
  0
LINE
  5
15825
330
747D
100
AcDbEntity
  8
部品1
 48
0.2
100
AcDbLine
 10
6461.852257343696
 20
5400.327276893862
 30
0.0
 11
6441.852257343697
 21
5400.327276893862
 31
0.0
  0
LINE
  5
15826
330
747D
100
AcDbEntity
  8
細線
 48
0.1
100
AcDbLine
 10
6461.852257343696
 20
5407.327276893862
 30
0.0
 11
6461.852257343696
 21
5400.327276893862
 31
0.0
  0
LINE
  5
15827
330
747D
100
AcDbEntity
  8
細線
 48
50.0
100
AcDbLine
 10
6449.989500149394
 20
5404.827276893862
 30
0.0
 11
6449.989500149394
 21
5402.827276893862
 31
0.0
  0
LINE
  5
15828
330
747D
100
AcDbEntity
  8
細線
 48
50.0
100
AcDbLine
 10
6457.839910195358
 20
5404.827276893862
 30
0.0
 11
6457.839910195358
 21
5402.827276893862
 31
0.0
  0
LINE
  5
15829
330
747D
100
AcDbEntity
  8
部品1
 48
50.0
100
AcDbLine
 10
6441.852257343697
 20
5400.327276893862
 30
0.0
 11
6441.852257343697
 21
5407.077276893862
 31
0.0
  0
ARC
  5
15844
330
747D
100
AcDbEntity
  8
細線
 48
0.2
100
AcDbCircle
 10
8098.852257343697
 20
5407.29778672511
 30
0.0
 40
1.0
100
AcDbArc
 50
0.0
 51
73.39845040097829
  0
LINE
  5
15845
330
747D
100
AcDbEntity
  8
細線
 48
0.2
100
AcDbLine
 10
8101.852257343697
 20
5407.327276893862
 30
0.0
 11
8081.852257343697
 21
5407.327276893862
 31
0.0
  0
LINE
  5
15846
330
747D
100
AcDbEntity
  8
細線
 48
0.2
100
AcDbLine
 10
8101.852257343697
 20
5404.827276893862
 30
0.0
 11
8081.852257343697
 21
5404.827276893862
 31
0.0
  0
ARC
  5
15847
330
747D
100
AcDbEntity
  8
細線
 48
0.2
100
AcDbCircle
 10
8088.852257343697
 20
5407.29778672511
 30
0.0
 40
1.0
100
AcDbArc
 50
106.6015495990225
 51
180.0000000000016
  0
ARC
  5
15848
330
747D
100
AcDbEntity
  8
細線
 48
0.2
100
AcDbCircle
 10
8093.852257343696
 20
5390.527276893865
 30
0.0
 40
18.49999999999796
100
AcDbArc
 50
73.39845040097829
 51
106.6015495990228
  0
LINE
  5
15849
330
747D
100
AcDbEntity
  8
細線
 48
0.2
100
AcDbLine
 10
8099.536248640204
 20
5408.027276893863
 30
0.0
 11
8088.168266047192
 21
5408.027276893863
 31
0.0
  0
LINE
  5
1584A
330
747D
100
AcDbEntity
  8
細線
 48
50.0
100
AcDbLine
 10
8081.852257343696
 20
5407.077276893862
 30
0.0
 11
8081.852257343696
 21
5407.327276893862
 31
0.0
  0
LINE
  5
1584B
330
747D
100
AcDbEntity
  8
部品1
100
AcDbLine
 10
8101.852257343699
 20
5407.077276893862
 30
0.0
 11
8101.914705172379
 21
5407.07727689386
 31
0.0
  0
LINE
  5
1584C
330
747D
100
AcDbEntity
  8
部品1
100
AcDbLine
 10
8101.852257343699
 20
5407.077276893859
 30
0.0
 11
8101.914705172379
 21
5407.07727689386
 31
0.0
  0
LINE
  5
1584D
330
747D
100
AcDbEntity
  8
細線
 48
0.2
100
AcDbLine
 10
8101.852257343697
 20
5402.827276893862
 30
0.0
 11
8081.852257343697
 21
5402.827276893862
 31
0.0
  0
LINE
  5
1584E
330
747D
100
AcDbEntity
  8
部品1
 48
0.2
100
AcDbLine
 10
8101.852257343697
 20
5400.327276893862
 30
0.0
 11
8081.852257343696
 21
5400.327276893862
 31
0.0
  0
LINE
  5
1584F
330
747D
100
AcDbEntity
  8
細線
 48
0.1
100
AcDbLine
 10
8101.852257343697
 20
5407.327276893862
 30
0.0
 11
8101.852257343697
 21
5400.327276893862
 31
0.0
  0
LINE
  5
15850
330
747D
100
AcDbEntity
  8
細線
 48
50.0
100
AcDbLine
 10
8089.989500149393
 20
5404.827276893862
 30
0.0
 11
8089.989500149394
 21
5402.827276893862
 31
0.0
  0
LINE
  5
15851
330
747D
100
AcDbEntity
  8
細線
 48
50.0
100
AcDbLine
 10
8097.839910195357
 20
5404.827276893862
 30
0.0
 11
8097.839910195357
 21
5402.827276893862
 31
0.0
  0
LINE
  5
15852
330
747D
100
AcDbEntity
  8
部品1
 48
50.0
100
AcDbLine
 10
8081.852257343696
 20
5400.327276893862
 30
0.0
 11
8081.852257343696
 21
5407.077276893862
 31
0.0
  0
LINE
  5
15BFA
330
747D
100
AcDbEntity
  8
細線
 48
50.0
100
AcDbLine
 10
5035.914705172396
 20
8386.766456979763
 30
0.0
 11
5035.914705172396
 21
8360.766456979716
 31
0.0
  0
LINE
  5
15BFB
330
747D
100
AcDbEntity
  8
細線
 48
50.0
100
AcDbLine
 10
5261.914705172396
 20
8386.766456979753
 30
0.0
 11
5261.914705172396
 21
8360.766456979716
 31
0.0
  0
LINE
  5
15BFC
330
747D
100
AcDbEntity
  8
細線
 48
50.0
100
AcDbLine
 10
5221.914705172395
 20
8386.766456979753
 30
0.0
 11
5221.914705172395
 21
8360.766456979716
 31
0.0
  0
LINE
  5
15BFD
330
747D
100
AcDbEntity
  8
細線
 48
50.0
100
AcDbLine
 10
5448.914705172396
 20
8386.766456979966
 30
0.0
 11
5448.914705172396
 21
8360.766456979929
 31
0.0
  0
LINE
  5
15BFE
330
747D
100
AcDbEntity
  8
細線
 48
50.0
100
AcDbLine
 10
5488.914705172396
 20
8386.766456979966
 30
0.0
 11
5488.914705172396
 21
8360.766456979929
 31
0.0
  0
LINE
  5
15C10
330
747D
100
AcDbEntity
  8
細線
 48
50.0
100
AcDbLine
 10
7495.914705172395
 20
8386.766456979763
 30
0.0
 11
7495.914705172395
 21
8360.766456979716
 31
0.0
  0
LINE
  5
15C11
330
747D
100
AcDbEntity
  8
細線
 48
50.0
100
AcDbLine
 10
7681.914705172395
 20
8386.766456979753
 30
0.0
 11
7681.914705172395
 21
8360.766456979716
 31
0.0
  0
LINE
  5
15C12
330
747D
100
AcDbEntity
  8
細線
 48
50.0
100
AcDbLine
 10
7721.914705172396
 20
8386.766456979753
 30
0.0
 11
7721.914705172396
 21
8360.766456979716
 31
0.0
  0
LINE
  5
15C13
330
747D
100
AcDbEntity
  8
細線
 48
50.0
100
AcDbLine
 10
7948.914705172396
 20
8386.766456979966
 30
0.0
 11
7948.914705172396
 21
8360.766456979929
 31
0.0
  0
LINE
  5
15C14
330
747D
100
AcDbEntity
  8
細線
 48
50.0
100
AcDbLine
 10
7908.914705172396
 20
8386.766456979966
 30
0.0
 11
7908.914705172396
 21
8360.766456979929
 31
0.0
  0
LINE
  5
15C21
330
747D
100
AcDbEntity
  8
細線
 48
50.0
100
AcDbLine
 10
5306.914705172369
 20
9289.266456979728
 30
0.0
 11
5306.914705172367
 21
9310.766456979729
 31
0.0
  0
LINE
  5
15C22
330
747D
100
AcDbEntity
  8
細線
 48
50.0
100
AcDbLine
 10
5246.914705172368
 20
9289.266456979722
 30
0.0
 11
5246.914705172367
 21
9310.766456979722
 31
0.0
  0
LINE
  5
15C23
330
747D
100
AcDbEntity
  8
細線
 48
50.0
100
AcDbLine
 10
5306.914705172369
 20
9289.266456979728
 30
0.0
 11
5246.914705172367
 21
9289.266456979722
 31
0.0
  0
LINE
  5
15C29
330
747D
100
AcDbEntity
  8
細線
 48
50.0
100
AcDbLine
 10
7706.914705172369
 20
9289.266456979806
 30
0.0
 11
7706.914705172367
 21
9310.766456979804
 31
0.0
  0
LINE
  5
15C2A
330
747D
100
AcDbEntity
  8
細線
 48
50.0
100
AcDbLine
 10
7766.914705172368
 20
9289.266456979808
 30
0.0
 11
7766.914705172367
 21
9310.766456979809
 31
0.0
  0
LINE
  5
15C2B
330
747D
100
AcDbEntity
  8
細線
 48
50.0
100
AcDbLine
 10
7766.914705172368
 20
9289.266456979808
 30
0.0
 11
7706.914705172367
 21
9289.266456979804
 31
0.0
  0
DIMENSION
  5
15CF1
330
747D
100
AcDbEntity
  8
寸法
 48
50.0
100
AcDbDimension
  2
*D13
 10
5606.914705172395
 20
7920.942789184611
 30
0.0
 11
5264.414705172398
 21
7920.942789184611
 31
0.0
 70
   160
 71
     5
 42
684.9999999999954
  3
INABA_S40G
100
AcDbAlignedDimension
 13
4921.914705172399
 23
8360.766456979687
 33
0.0
 14
5606.914705172395
 24
8360.766456979652
 34
0.0
100
AcDbRotatedDimension
  0
TEXT
  5
160B7
330
747D
100
AcDbEntity
  8
文字
 62
     7
 48
50.0
100
AcDbText
 10
13583.11819016569
 20
9910.01374588373
 30
0.0
 40
100.0
  1
梁中央
 41
0.9
  7
STYLE1
100
AcDbText
  0
TEXT
  5
160B8
330
747D
100
AcDbEntity
  8
文字
 62
     7
 48
50.0
100
AcDbText
 10
15022.63965474516
 20
9910.01374588373
 30
0.0
 40
100.0
  1
F12,Y10       0.7+1.0
  7
STYLE1
100
AcDbText
  0
TEXT
  5
160B9
330
747D
100
AcDbEntity
  8
文字
 62
     7
 48
50.0
100
AcDbText
 10
13583.11819016568
 20
8550.013745883729
 30
0.0
 40
100.0
  1
アンカープレート
  7
STYLE1
100
AcDbText
  0
TEXT
  5
160BA
330
747D
100
AcDbEntity
  8
文字
 62
     7
 48
50.0
100
AcDbText
 10
15022.63965474514
 20
8550.013745883722
 30
0.0
 40
100.0
  1
F12            2.3
  7
STYLE1
100
AcDbText
  0
LINE
  5
160BB
330
747D
100
AcDbEntity
  8
仕様書枠
 48
50.0
100
AcDbLine
 10
16307.19999999999
 20
10049.6
 30
0.0
 11
13127.19999999999
 21
10049.6
 31
0.0
  0
LINE
  5
160BC
330
747D
100
AcDbEntity
  8
仕様書枠
 48
50.0
100
AcDbLine
 10
16307.19999999999
 20
11409.6
 30
0.0
 11
13127.2
 21
11409.6
 31
0.0
  0
LINE
  5
160BD
330
747D
100
AcDbEntity
  8
仕様書枠
 48
50.0
100
AcDbLine
 10
16307.19999999999
 20
7839.600000000007
 30
0.0
 11
16307.2
 21
11409.6
 31
0.0
  0
LINE
  5
160BE
330
747D
100
AcDbEntity
  8
仕様書枠
 48
50.0
100
AcDbLine
 10
14785.2
 20
11409.59999999999
 30
0.0
 11
14785.19999999999
 21
8349.6
 31
0.0
  0
LINE
  5
160BF
330
747D
100
AcDbEntity
  8
仕様書枠
 48
50.0
100
AcDbLine
 10
13490.2
 20
11409.6
 30
0.0
 11
13490.20000000001
 21
8349.6
 31
0.0
  0
LINE
  5
160C0
330
747D
100
AcDbEntity
  8
仕様書枠
 48
50.0
100
AcDbLine
 10
16307.19999999999
 20
11239.6
 30
0.0
 11
13127.2
 21
11239.6
 31
0.0
  0
LINE
  5
160C1
330
747D
100
AcDbEntity
  8
仕様書枠
 48
50.0
100
AcDbLine
 10
16307.19999999999
 20
10899.6
 30
0.0
 11
13127.2
 21
10899.6
 31
0.0
  0
LINE
  5
160C2
330
747D
100
AcDbEntity
  8
仕様書枠
 48
50.0
100
AcDbLine
 10
16307.19999999999
 20
11069.6
 30
0.0
 11
13127.2
 21
11069.6
 31
0.0
  0
LINE
  5
160C3
330
747D
100
AcDbEntity
  8
仕様書枠
 48
50.0
100
AcDbLine
 10
16307.19999999999
 20
10559.6
 30
0.0
 11
13127.19999999999
 21
10559.6
 31
0.0
  0
LINE
  5
160C4
330
747D
100
AcDbEntity
  8
仕様書枠
 48
50.0
100
AcDbLine
 10
16307.19999999999
 20
10389.6
 30
0.0
 11
13127.19999999999
 21
10389.6
 31
0.0
  0
LINE
  5
160C5
330
747D
100
AcDbEntity
  8
仕様書枠
 48
50.0
100
AcDbLine
 10
16307.19999999999
 20
10729.6
 30
0.0
 11
13127.19999999999
 21
10729.6
 31
0.0
  0
TEXT
  5
160C6
330
747D
100
AcDbEntity
  8
文字
 62
     7
 48
50.0
100
AcDbText
 10
13197.42518560407
 20
11270.01374588373
 30
0.0
 40
100.0
  1
品番
  7
STYLE1
100
AcDbText
  0
TEXT
  5
160C7
330
747D
100
AcDbEntity
  8
文字
 62
     7
 48
50.0
100
AcDbText
 10
13271.19032244792
 20
11100.01374588373
 30
0.0
 40
100.0
  1
1
  7
STYLE1
100
AcDbText
  0
TEXT
  5
160C8
330
747D
100
AcDbEntity
  8
文字
 62
     7
 48
50.0
100
AcDbText
 10
13271.19032244792
 20
10930.01374588373
 30
0.0
 40
100.0
  1
2
  7
STYLE1
100
AcDbText
  0
TEXT
  5
160C9
330
747D
100
AcDbEntity
  8
文字
 62
     7
 48
50.0
100
AcDbText
 10
13271.19032244792
 20
10590.01374588373
 30
0.0
 40
100.0
  1
4
  7
STYLE1
100
AcDbText
  0
TEXT
  5
160CA
330
747D
100
AcDbEntity
  8
文字
 62
     7
 48
50.0
100
AcDbText
 10
13271.19032244792
 20
10760.01374588373
 30
0.0
 40
100.0
  1
3
  7
STYLE1
100
AcDbText
  0
TEXT
  5
160CB
330
747D
100
AcDbEntity
  8
文字
 62
     7
 48
50.0
100
AcDbText
 10
13732.03840939434
 20
11270.01374588373
 30
0.0
 40
100.0
  1
部　　品　　名
  7
STYLE1
100
AcDbText
  0
TEXT
  5
160CC
330
747D
100
AcDbEntity
  8
文字
 62
     7
 48
50.0
100
AcDbText
 10
14859.79774614482
 20
11270.01374588373
 30
0.0
 40
100.0
  1
材料（材質）　　単位mm
  7
STYLE1
100
AcDbText
  0
TEXT
  5
160CD
330
747D
100
AcDbEntity
  8
文字
 62
     7
 48
50.0
100
AcDbText
 10
13583.11819016569
 20
11100.01374588373
 30
0.0
 40
100.0
  1
土台枠
  7
STYLE1
100
AcDbText
  0
TEXT
  5
160CE
330
747D
100
AcDbEntity
  8
文字
 62
     7
 48
50.0
100
AcDbText
 10
13583.1181901657
 20
10930.01374588373
 30
0.0
 40
100.0
  1
柱
  7
STYLE1
100
AcDbText
  0
TEXT
  5
160CF
330
747D
100
AcDbEntity
  8
文字
 62
     7
 48
50.0
100
AcDbText
 10
13583.11819016569
 20
10590.01374588373
 30
0.0
 40
100.0
  1
鴨居
  7
STYLE1
100
AcDbText
  0
TEXT
  5
160D0
330
747D
100
AcDbEntity
  8
文字
 62
     7
 48
50.0
100
AcDbText
 10
13583.11819016569
 20
10420.01374588373
 30
0.0
 40
100.0
  1
桁後
  7
STYLE1
100
AcDbText
  0
TEXT
  5
160D1
330
747D
100
AcDbEntity
  8
文字
 62
     7
 48
50.0
100
AcDbText
 10
13271.19032244792
 20
10420.01374588373
 30
0.0
 40
100.0
  1
5
  7
STYLE1
100
AcDbText
  0
TEXT
  5
160D2
330
747D
100
AcDbEntity
  8
文字
 62
     7
 48
50.0
100
AcDbText
 10
13583.11819016569
 20
10250.01374588373
 30
0.0
 40
100.0
  1
妻板左右
  7
STYLE1
100
AcDbText
  0
TEXT
  5
160D3
330
747D
100
AcDbEntity
  8
文字
 62
     7
 48
50.0
100
AcDbText
 10
13248.77747366447
 20
9570.013745883729
 30
0.0
 40
100.0
  1
10
  7
STYLE1
100
AcDbText
  0
TEXT
  5
160D4
330
747D
100
AcDbEntity
  8
文字
 62
     7
 48
50.0
100
AcDbText
 10
13583.11819016568
 20
9570.013745883729
 30
0.0
 40
100.0
  1
中土台受板
  7
STYLE1
100
AcDbText
  0
TEXT
  5
160D5
330
747D
100
AcDbEntity
  8
文字
 62
     7
 48
50.0
100
AcDbText
 10
13583.11819016569
 20
9740.013745883729
 30
0.0
 40
100.0
  1
屋根パネル
  7
STYLE1
100
AcDbText
  0
TEXT
  5
160D6
330
747D
100
AcDbEntity
  8
文字
 62
     7
 48
50.0
100
AcDbText
 10
13583.11819016569
 20
10080.01374588373
 30
0.0
 40
100.0
  1
鼻隠シ前後
  7
STYLE1
100
AcDbText
  0
TEXT
  5
160D7
330
747D
100
AcDbEntity
  8
文字
 62
     7
 48
50.0
100
AcDbText
 10
13271.19032244792
 20
9910.01374588373
 30
0.0
 40
100.0
  1
8
  7
STYLE1
100
AcDbText
  0
TEXT
  5
160D8
330
747D
100
AcDbEntity
  8
文字
 62
     7
 48
50.0
100
AcDbText
 10
13271.19032244792
 20
9740.013745883729
 30
0.0
 40
100.0
  1
9
  7
STYLE1
100
AcDbText
  0
TEXT
  5
160D9
330
747D
100
AcDbEntity
  8
文字
 62
     7
 48
50.0
100
AcDbText
 10
13271.19032244792
 20
10080.01374588373
 30
0.0
 40
100.0
  1
7
  7
STYLE1
100
AcDbText
  0
TEXT
  5
160DA
330
747D
100
AcDbEntity
  8
文字
 62
     7
 48
50.0
100
AcDbText
 10
13271.19032244792
 20
10250.01374588373
 30
0.0
 40
100.0
  1
6
  7
STYLE1
100
AcDbText
  0
LINE
  5
160DB
330
747D
100
AcDbEntity
  8
仕様書枠
 48
50.0
100
AcDbLine
 10
16307.19999999999
 20
9709.600000000001
 30
0.0
 11
13127.19999999999
 21
9709.600000000001
 31
0.0
  0
LINE
  5
160DC
330
747D
100
AcDbEntity
  8
仕様書枠
 48
50.0
100
AcDbLine
 10
16307.19999999999
 20
8859.6
 30
0.0
 11
13127.19999999999
 21
8859.6
 31
0.0
  0
LINE
  5
160DD
330
747D
100
AcDbEntity
  8
仕様書枠
 48
50.0
100
AcDbLine
 10
16307.19999999999
 20
9539.6
 30
0.0
 11
13127.19999999999
 21
9539.6
 31
0.0
  0
LINE
  5
160DE
330
747D
100
AcDbEntity
  8
仕様書枠
 48
50.0
100
AcDbLine
 10
16307.19999999999
 20
10219.6
 30
0.0
 11
13127.2
 21
10219.6
 31
0.0
  0
LINE
  5
160DF
330
747D
100
AcDbEntity
  8
仕様書枠
 48
50.0
100
AcDbLine
 10
16307.19999999999
 20
9879.600000000001
 30
0.0
 11
13127.19999999999
 21
9879.600000000001
 31
0.0
  0
LINE
  5
160E1
330
747D
100
AcDbEntity
  8
仕様書枠
 48
50.0
100
AcDbLine
 10
16307.19999999999
 20
8689.6
 30
0.0
 11
13127.19999999999
 21
8689.6
 31
0.0
  0
LINE
  5
160E2
330
747D
100
AcDbEntity
  8
仕様書枠
 48
50.0
100
AcDbLine
 10
16307.19999999999
 20
8009.600000000004
 30
0.0
 11
13127.19999999999
 21
8009.600000000007
 31
0.0
  0
TEXT
  5
160E3
330
747D
100
AcDbEntity
  8
文字
 62
     7
 48
50.0
100
AcDbText
 10
13248.77747366447
 20
8550.013745883729
 30
0.0
 40
100.0
  1
16
  7
STYLE1
100
AcDbText
  0
TEXT
  5
160E4
330
747D
100
AcDbEntity
  8
文字
 62
     7
 48
50.0
100
AcDbText
 10
13248.77747366447
 20
8720.013745883729
 30
0.0
 40
100.0
  1
15
  7
STYLE1
100
AcDbText
  0
TEXT
  5
160E5
330
747D
100
AcDbEntity
  8
文字
 62
     7
 48
50.0
100
AcDbText
 10
15022.63965474517
 20
11100.01374588372
 30
0.0
 40
100.0
  1
F12            1.2
  7
STYLE1
100
AcDbText
  0
TEXT
  5
160E6
330
747D
100
AcDbEntity
  8
文字
 62
     7
 48
50.0
100
AcDbText
 10
15022.63965474518
 20
10930.01374588372
 30
0.0
 40
100.0
  1
F12            1.0
  7
STYLE1
100
AcDbText
  0
TEXT
  5
160E7
330
747D
100
AcDbEntity
  8
文字
 62
     7
 48
50.0
100
AcDbText
 10
15022.63965474517
 20
10590.01374588372
 30
0.0
 40
100.0
  1
Y10            1.0
  7
STYLE1
100
AcDbText
  0
TEXT
  5
160E8
330
747D
100
AcDbEntity
  8
文字
 62
     7
 48
50.0
100
AcDbText
 10
15022.63965474516
 20
10420.01374588372
 30
0.0
 40
100.0
  1
Y10            1.0
  7
STYLE1
100
AcDbText
  0
TEXT
  5
160E9
330
747D
100
AcDbEntity
  8
文字
 62
     7
 48
50.0
100
AcDbText
 10
15022.63965474517
 20
10250.01374588372
 30
0.0
 40
100.0
  1
Y10            0.7
  7
STYLE1
100
AcDbText
  0
TEXT
  5
160EA
330
747D
100
AcDbEntity
  8
文字
 62
     7
 48
50.0
100
AcDbText
 10
15022.63965474516
 20
10080.01374588372
 30
0.0
 40
100.0
  1
Y10            0.7
  7
STYLE1
100
AcDbText
  0
TEXT
  5
160EB
330
747D
100
AcDbEntity
  8
文字
 62
     7
 48
50.0
100
AcDbText
 10
15022.63965474517
 20
9740.013745883725
 30
0.0
 40
100.0
  1
Y10            0.5
  7
STYLE1
100
AcDbText
  0
TEXT
  5
160EC
330
747D
100
AcDbEntity
  8
文字
 62
     7
 48
50.0
100
AcDbText
 10
15022.63965474515
 20
9570.013745883725
 30
0.0
 40
100.0
  1
F12            2.3
  7
STYLE1
100
AcDbText
  0
LINE
  5
160ED
330
747D
100
AcDbEntity
  8
仕様書枠
 48
50.0
100
AcDbLine
 10
16307.19999999998
 20
7839.600000000007
 30
0.0
 11
13127.19999999999
 21
7839.600000000007
 31
0.0
  0
TEXT
  5
160EE
330
747D
100
AcDbEntity
  8
文字
 62
     7
 48
50.0
100
AcDbText
 10
13229.83081656554
 20
8040.013745883731
 30
0.0
 40
100.0
  1
F12→溶融亜鉛めっき鋼板(JIS G 3302)
  7
STYLE1
100
AcDbText
  0
TEXT
  5
160EF
330
747D
100
AcDbEntity
  8
文字
 62
     7
 48
50.0
100
AcDbText
 10
13229.83081656554
 20
7870.013745883733
 30
0.0
 40
100.0
  1
Y10→溶融亜鉛-5％アルミニウム合金めっき鋼板(JIS G 3317)
 41
0.9
  7
STYLE1
100
AcDbText
  0
LINE
  5
160F0
330
747D
100
AcDbEntity
  8
仕様書枠
 48
50.0
100
AcDbLine
 10
13127.2
 20
11409.6
 30
0.0
 11
13127.19999999999
 21
7839.600000000007
 31
0.0
  0
LINE
  5
160F1
330
747D
100
AcDbEntity
  8
仕様書枠
 48
50.0
100
AcDbLine
 10
16307.19999999999
 20
8179.600000000004
 30
0.0
 11
13127.19999999999
 21
8179.600000000007
 31
0.0
  0
TEXT
  5
160F2
330
747D
100
AcDbEntity
  8
文字
 62
     7
 48
50.0
100
AcDbText
 10
13583.1181901657
 20
10760.01374588373
 30
0.0
 40
100.0
  1
床パネル
 41
0.9
  7
STYLE1
100
AcDbText
  0
TEXT
  5
160F3
330
747D
100
AcDbEntity
  8
文字
 62
     7
 48
50.0
100
AcDbText
 10
15022.63965474517
 20
10760.01374588372
 30
0.0
 40
100.0
  1
F12            1.0
  7
STYLE1
100
AcDbText
  0
TEXT
  5
160F4
330
747D
100
AcDbEntity
  8
文字
 62
     7
 48
50.0
100
AcDbText
 10
15022.63965474515
 20
8890.013745883726
 30
0.0
 40
100.0
  1
F12            0.8
  7
STYLE1
100
AcDbText
  0
TEXT
  5
160F5
330
747D
100
AcDbEntity
  8
文字
 62
     7
 48
50.0
100
AcDbText
 10
13583.11819016568
 20
8890.013745883729
 30
0.0
 40
100.0
  1
扉
  7
STYLE1
100
AcDbText
  0
TEXT
  5
160F6
330
747D
100
AcDbEntity
  8
文字
 62
     7
 48
50.0
100
AcDbText
 10
15022.63965474515
 20
8720.013745883729
 30
0.0
 40
100.0
  1
F12            0.6
  7
STYLE1
100
AcDbText
  0
TEXT
  5
160F7
330
747D
100
AcDbEntity
  8
文字
 62
     7
 48
50.0
100
AcDbText
 10
13583.11819016568
 20
8720.013745883733
 30
0.0
 40
100.0
  1
棚板
  7
STYLE1
100
AcDbText
  0
TEXT
  5
16102
330
747D
100
AcDbEntity
  8
文字
 62
     7
 48
50.0
100
AcDbText
 10
14271.39351435261
 20
483.8967129911411
 30
0.0
 40
160.0
  1
NXN-08WL-4
  7
STYLE2
100
AcDbText
  0
TEXT
  5
16A3C
330
747D
100
AcDbEntity
  8
部品1
100
AcDbText
 10
6243.969442681893
 20
2673.607166858619
 30
0.0
 40
135.0
  1
正面図
  7
STYLE2
100
AcDbText
  0
LWPOLYLINE
  5
16A3D
330
747D
100
AcDbEntity
  8
部品1
100
AcDbPolyline
 90
        4
 70
     1
 43
0.0
 10
6153.44403894394
 20
2866.500696077143
 10
6153.44403894394
 20
2626.60837453161
 10
6916.914705172378
 20
2626.60837453161
 10
6916.914705172378
 20
2866.500696077143
  0
DIMENSION
  5
1709C
330
747D
100
AcDbEntity
  8
寸法
 48
50.0
100
AcDbDimension
  2
*D18
 10
8196.91470517238
 20
6080.075840589954
 30
0.0
 11
6506.914705172379
 21
6180.075840589954
 31
0.0
 70
    32
 71
     5
 42
3380.000000000004
  3
INABA_S40G
100
AcDbAlignedDimension
 13
4816.914705172377
 23
5644.577276893866
 33
0.0
 14
8196.91470517238
 24
5644.577276893862
 34
0.0
100
AcDbRotatedDimension
  0
DIMENSION
  5
1709D
330
747D
100
AcDbEntity
  8
寸法
 48
50.0
100
AcDbDimension
  2
*D17
 10
4866.914705172377
 20
5857.118862152105
 30
0.0
 11
6506.914705172379
 21
5957.130673175727
 31
0.0
 70
    32
  1
柱外寸法<>
 71
     5
 42
3280.000000000004
  3
INABA_S40G
100
AcDbAlignedDimension
 13
8146.914705172381
 23
5644.577276893864
 33
0.0
 14
4866.914705172377
 24
5644.577276893869
 34
0.0
100
AcDbRotatedDimension
  0
DIMENSION
  5
1709E
330
747D
100
AcDbEntity
  8
寸法
 48
50.0
100
AcDbDimension
  2
*D16
 10
4816.914705172377
 20
5857.118862152105
 30
0.0
 11
4503.42942379813
 21
5857.118862152105
 31
0.0
 70
   160
 71
     5
 42
50.0
  3
INABA_S40G
100
AcDbAlignedDimension
 13
4866.914705172377
 23
5644.577276893869
 33
0.0
 14
4816.914705172377
 24
5644.577276893866
 34
0.0
100
AcDbRotatedDimension
1001
ACAD
1000
DSTYLE
1002
{
1002
}
  0
LINE
  5
1709F
330
747D
100
AcDbEntity
  8
細線
 48
50.0
100
AcDbLine
 10
4849.914705172377
 20
5644.577276893866
 30
0.0
 11
4849.914705172377
 21
5503.577276893864
 31
0.0
  0
ARC
  5
170A0
330
747D
100
AcDbEntity
  8
部品1
100
AcDbCircle
 10
4824.323126278807
 20
5637.577276893866
 30
0.0
 40
7.0
100
AcDbArc
 50
90.0
 51
183.2473427903377
  0
ARC
  5
170A1
330
747D
100
AcDbEntity
  8
部品1
100
AcDbCircle
 10
4837.538449739841
 20
5510.577276893868
 30
0.0
 40
7.0
100
AcDbArc
 50
183.2473427903377
 51
270.0
  0
ARC
  5
170A2
330
747D
100
AcDbEntity
  8
部品1
 48
50.0
100
AcDbCircle
 10
4819.166639529164
 20
5617.244276055553
 30
0.0
 40
0.7
100
AcDbArc
 50
183.2473427903897
 51
262.3418727926349
  0
ARC
  5
170A3
330
747D
100
AcDbEntity
  8
部品1
 48
50.0
100
AcDbCircle
 10
4827.402670054006
 20
5525.044276055549
 30
0.0
 40
0.7
100
AcDbArc
 50
183.2473427902856
 51
262.3418727926349
  0
ARC
  5
170A4
330
747D
100
AcDbEntity
  8
部品1
 48
50.0
100
AcDbCircle
 10
4826.909600945445
 20
5521.377276893865
 30
0.0
 40
3.0
100
AcDbArc
 50
3.247342790337682
 51
82.3418727926348
  0
ARC
  5
170A5
330
747D
100
AcDbEntity
  8
部品1
 48
50.0
100
AcDbCircle
 10
4818.6735704206
 20
5613.577276893866
 30
0.0
 40
3.0
100
AcDbArc
 50
3.247342790337682
 51
82.3418727926348
  0
LINE
  5
170A6
330
747D
100
AcDbEntity
  8
部品1
100
AcDbLine
 10
4821.668753316786
 20
5613.747216348969
 30
0.0
 11
4826.703794044897
 21
5525.004623516026
 31
0.0
  0
LINE
  5
170A7
330
747D
100
AcDbEntity
  8
部品1
100
AcDbLine
 10
4829.904783841634
 20
5521.547216348968
 30
0.0
 11
4830.549689648742
 21
5510.180751498626
 31
0.0
  0
LINE
  5
170A8
330
747D
100
AcDbEntity
  8
部品1
100
AcDbLine
 10
4817.334366187708
 20
5637.180751498625
 30
0.0
 11
4818.467763520057
 21
5617.204623516027
 31
0.0
  0
LINE
  5
170A9
330
747D
100
AcDbEntity
  8
部品1
 48
50.0
100
AcDbLine
 10
8189.506284065949
 20
5644.577276893862
 30
0.0
 11
4824.323126278807
 21
5644.577276893862
 31
0.0
  0
LINE
  5
170AA
330
747D
100
AcDbEntity
  8
細線
 48
50.0
100
AcDbLine
 10
8194.756054159734
 20
5616.55051945756
 30
0.0
 11
4819.073356182791
 21
5616.550519457862
 31
0.0
  0
LINE
  5
170AB
330
747D
100
AcDbEntity
  8
細線
 48
50.0
100
AcDbLine
 10
8186.520023634923
 20
5524.350519457561
 30
0.0
 11
4827.309386707624
 21
5524.350519457861
 31
0.0
  0
LINE
  5
170AC
330
747D
100
AcDbEntity
  8
部品1
 48
50.0
100
AcDbLine
 10
8176.290960604914
 20
5503.577276893862
 30
0.0
 11
4837.538449739841
 21
5503.577276893864
 31
0.0
  0
DIMENSION
  5
170F0
330
747D
100
AcDbEntity
  8
寸法
 48
50.0
100
AcDbDimension
  2
*D19
 10
8146.914705172381
 20
5857.118862152103
 30
0.0
 11
8510.399986546618
 21
5857.118862152103
 31
0.0
 70
   160
 71
     5
 42
50.0
  3
INABA_S40G
100
AcDbAlignedDimension
 13
8196.91470517238
 23
5644.577276893862
 33
0.0
 14
8146.914705172381
 24
5644.577276893864
 34
0.0
100
AcDbRotatedDimension
  0
LINE
  5
170F1
330
747D
100
AcDbEntity
  8
部品1
100
AcDbLine
 10
8196.495044157048
 20
5637.180751498623
 30
0.0
 11
8195.361646824702
 21
5617.204623516023
 31
0.0
  0
LINE
  5
170F2
330
747D
100
AcDbEntity
  8
細線
 48
50.0
100
AcDbLine
 10
8163.914705172381
 20
5644.577276893862
 30
0.0
 11
8163.914705172381
 21
5503.577276893862
 31
0.0
  0
LINE
  5
170F3
330
747D
100
AcDbEntity
  8
部品1
100
AcDbLine
 10
8183.924626503126
 20
5521.547216348965
 30
0.0
 11
8183.279720696013
 21
5510.180751498625
 31
0.0
  0
LINE
  5
170F4
330
747D
100
AcDbEntity
  8
部品1
100
AcDbLine
 10
8192.160657027969
 20
5613.747216348965
 30
0.0
 11
8187.125616299857
 21
5525.004623516022
 31
0.0
  0
ARC
  5
170F5
330
747D
100
AcDbEntity
  8
部品1
 48
50.0
100
AcDbCircle
 10
8195.155839924154
 20
5613.577276893864
 30
0.0
 40
3.0
100
AcDbArc
 50
97.65812720736519
 51
176.7526572096623
  0
ARC
  5
170F6
330
747D
100
AcDbEntity
  8
部品1
 48
50.0
100
AcDbCircle
 10
8186.919809399311
 20
5521.377276893861
 30
0.0
 40
3.0
100
AcDbArc
 50
97.65812720736519
 51
176.7526572096623
  0
ARC
  5
170F7
330
747D
100
AcDbEntity
  8
部品1
 48
50.0
100
AcDbCircle
 10
8186.42674029075
 20
5525.044276055545
 30
0.0
 40
0.7
100
AcDbArc
 50
277.6581272073652
 51
356.7526572097143
  0
ARC
  5
170F8
330
747D
100
AcDbEntity
  8
部品1
 48
50.0
100
AcDbCircle
 10
8194.662770815595
 20
5617.24427605555
 30
0.0
 40
0.7
100
AcDbArc
 50
277.6581272073652
 51
356.7526572096103
  0
ARC
  5
170F9
330
747D
100
AcDbEntity
  8
部品1
100
AcDbCircle
 10
8176.290960604914
 20
5510.577276893864
 30
0.0
 40
7.0
100
AcDbArc
 50
270.0
 51
356.7526572096623
  0
ARC
  5
170FA
330
747D
100
AcDbEntity
  8
部品1
100
AcDbCircle
 10
8189.506284065949
 20
5637.577276893862
 30
0.0
 40
7.0
100
AcDbArc
 50
356.7526572096623
 51
90.0
  0
ARC
  5
1718B
330
747D
100
AcDbEntity
  8
部品1
 48
0.01
100
AcDbCircle
 10
5364.914705172385
 20
5442.077276893859
 30
0.0
 40
2.0
100
AcDbArc
 50
270.0
 51
0.0
  0
ARC
  5
1718C
330
747D
100
AcDbEntity
  8
部品1
 48
0.01
100
AcDbCircle
 10
5364.914705172385
 20
5473.577276893859
 30
0.0
 40
2.0
100
AcDbArc
 50
0.0
 51
90.0
  0
ARC
  5
1718D
330
747D
100
AcDbEntity
  8
部品1
 48
0.01
100
AcDbCircle
 10
5188.914705172385
 20
5442.077276893859
 30
0.0
 40
2.0
100
AcDbArc
 50
180.0
 51
270.0
  0
ARC
  5
1718E
330
747D
100
AcDbEntity
  8
部品1
 48
0.01
100
AcDbCircle
 10
5188.914705172385
 20
5473.577276893859
 30
0.0
 40
2.0
100
AcDbArc
 50
90.0
 51
180.0
  0
LINE
  5
1718F
330
747D
100
AcDbEntity
  8
細線
100
AcDbLine
 10
5276.914705172385
 20
5446.077276893859
 30
0.0
 11
5350.914705172385
 21
5446.077276893859
 31
0.0
  0
LINE
  5
17190
330
747D
100
AcDbEntity
  8
細線
100
AcDbLine
 10
5276.914705172385
 20
5469.077276893859
 30
0.0
 11
5202.914705172385
 21
5469.077276893859
 31
0.0
  0
LINE
  5
17191
330
747D
100
AcDbEntity
  8
細線
100
AcDbLine
 10
5202.914705172385
 20
5446.077276893859
 30
0.0
 11
5276.914705172385
 21
5446.077276893859
 31
0.0
  0
LINE
  5
17192
330
747D
100
AcDbEntity
  8
細線
100
AcDbLine
 10
5350.914705172385
 20
5469.077276893859
 30
0.0
 11
5276.914705172385
 21
5469.077276893859
 31
0.0
  0
LINE
  5
17193
330
747D
100
AcDbEntity
  8
細線
100
AcDbLine
 10
5350.914705172385
 20
5446.077276893859
 30
0.0
 11
5350.914705172385
 21
5469.077276893859
 31
0.0
  0
LINE
  5
17194
330
747D
100
AcDbEntity
  8
細線
100
AcDbLine
 10
5202.914705172385
 20
5469.077276893859
 30
0.0
 11
5202.914705172385
 21
5446.077276893859
 31
0.0
  0
LINE
  5
17195
330
747D
100
AcDbEntity
  8
部品1
 48
0.01
100
AcDbLine
 10
5366.914705172384
 20
5442.077276893859
 30
0.0
 11
5366.914705172384
 21
5473.577276893859
 31
0.0
  0
LINE
  5
17196
330
747D
100
AcDbEntity
  8
部品1
 48
0.01
100
AcDbLine
 10
5188.914705172385
 20
5440.077276893859
 30
0.0
 11
5364.914705172385
 21
5440.077276893859
 31
0.0
  0
LINE
  5
17197
330
747D
100
AcDbEntity
  8
部品1
 48
0.01
100
AcDbLine
 10
5186.914705172385
 20
5473.577276893859
 30
0.0
 11
5186.914705172385
 21
5442.077276893859
 31
0.0
  0
LINE
  5
17198
330
747D
100
AcDbEntity
  8
部品1
 48
0.01
100
AcDbLine
 10
5364.914705172385
 20
5475.577276893858
 30
0.0
 11
5188.914705172385
 21
5475.577276893858
 31
0.0
  0
LINE
  5
17199
330
747D
100
AcDbEntity
  8
細線
100
AcDbLine
 10
5202.914705172385
 20
5463.077276893859
 30
0.0
 11
5276.914705172385
 21
5463.077276893859
 31
0.0
  0
LINE
  5
1719A
330
747D
100
AcDbEntity
  8
細線
100
AcDbLine
 10
5202.914705172385
 20
5457.077276893858
 30
0.0
 11
5276.914705172385
 21
5457.077276893858
 31
0.0
  0
LINE
  5
1719B
330
747D
100
AcDbEntity
  8
細線
100
AcDbLine
 10
5202.914705172385
 20
5451.077276893858
 30
0.0
 11
5276.914705172385
 21
5451.077276893858
 31
0.0
  0
LINE
  5
1719C
330
747D
100
AcDbEntity
  8
細線
100
AcDbLine
 10
5202.914705172385
 20
5463.077276893859
 30
0.0
 11
5271.914705172385
 21
5463.077276893859
 31
0.0
  0
LINE
  5
1719D
330
747D
100
AcDbEntity
  8
細線
100
AcDbLine
 10
5350.914705172385
 20
5463.077276893859
 30
0.0
 11
5276.914705172385
 21
5463.077276893859
 31
0.0
  0
LINE
  5
1719E
330
747D
100
AcDbEntity
  8
細線
100
AcDbLine
 10
5350.914705172385
 20
5451.077276893858
 30
0.0
 11
5276.914705172385
 21
5451.077276893858
 31
0.0
  0
LINE
  5
1719F
330
747D
100
AcDbEntity
  8
細線
100
AcDbLine
 10
5350.914705172385
 20
5457.077276893858
 30
0.0
 11
5276.914705172385
 21
5457.077276893858
 31
0.0
  0
LINE
  5
171A0
330
747D
100
AcDbEntity
  8
細線
100
AcDbLine
 10
5276.914705172385
 20
5469.077276893859
 30
0.0
 11
5276.914705172385
 21
5446.077276893859
 31
0.0
  0
LINE
  5
171A1
330
747D
100
AcDbEntity
  8
細線
100
AcDbLine
 10
6096.914705172385
 20
5469.077276893859
 30
0.0
 11
6096.914705172385
 21
5446.077276893859
 31
0.0
  0
LINE
  5
171A2
330
747D
100
AcDbEntity
  8
細線
100
AcDbLine
 10
6170.914705172386
 20
5457.077276893858
 30
0.0
 11
6096.914705172385
 21
5457.077276893858
 31
0.0
  0
LINE
  5
171A3
330
747D
100
AcDbEntity
  8
細線
100
AcDbLine
 10
6170.914705172386
 20
5451.077276893858
 30
0.0
 11
6096.914705172385
 21
5451.077276893858
 31
0.0
  0
LINE
  5
171A4
330
747D
100
AcDbEntity
  8
細線
100
AcDbLine
 10
6170.914705172386
 20
5463.077276893859
 30
0.0
 11
6096.914705172385
 21
5463.077276893859
 31
0.0
  0
LINE
  5
171A5
330
747D
100
AcDbEntity
  8
細線
100
AcDbLine
 10
6022.914705172385
 20
5463.077276893859
 30
0.0
 11
6091.914705172385
 21
5463.077276893859
 31
0.0
  0
LINE
  5
171A6
330
747D
100
AcDbEntity
  8
細線
100
AcDbLine
 10
6022.914705172385
 20
5451.077276893858
 30
0.0
 11
6096.914705172385
 21
5451.077276893858
 31
0.0
  0
LINE
  5
171A7
330
747D
100
AcDbEntity
  8
細線
100
AcDbLine
 10
6022.914705172385
 20
5457.077276893858
 30
0.0
 11
6096.914705172385
 21
5457.077276893858
 31
0.0
  0
LINE
  5
171A8
330
747D
100
AcDbEntity
  8
細線
100
AcDbLine
 10
6022.914705172385
 20
5463.077276893859
 30
0.0
 11
6096.914705172385
 21
5463.077276893859
 31
0.0
  0
LINE
  5
171A9
330
747D
100
AcDbEntity
  8
部品1
 48
0.01
100
AcDbLine
 10
6184.914705172385
 20
5475.577276893858
 30
0.0
 11
6008.914705172385
 21
5475.577276893858
 31
0.0
  0
LINE
  5
171AA
330
747D
100
AcDbEntity
  8
部品1
 48
0.01
100
AcDbLine
 10
6006.914705172385
 20
5473.577276893859
 30
0.0
 11
6006.914705172385
 21
5442.077276893859
 31
0.0
  0
LINE
  5
171AB
330
747D
100
AcDbEntity
  8
部品1
 48
0.01
100
AcDbLine
 10
6008.914705172385
 20
5440.077276893859
 30
0.0
 11
6184.914705172385
 21
5440.077276893859
 31
0.0
  0
LINE
  5
171AC
330
747D
100
AcDbEntity
  8
部品1
 48
0.01
100
AcDbLine
 10
6186.914705172385
 20
5442.077276893859
 30
0.0
 11
6186.914705172385
 21
5473.577276893859
 31
0.0
  0
LINE
  5
171AD
330
747D
100
AcDbEntity
  8
細線
100
AcDbLine
 10
6022.914705172385
 20
5469.077276893859
 30
0.0
 11
6022.914705172385
 21
5446.077276893859
 31
0.0
  0
LINE
  5
171AE
330
747D
100
AcDbEntity
  8
細線
100
AcDbLine
 10
6170.914705172386
 20
5446.077276893859
 30
0.0
 11
6170.914705172386
 21
5469.077276893859
 31
0.0
  0
LINE
  5
171AF
330
747D
100
AcDbEntity
  8
細線
100
AcDbLine
 10
6170.914705172386
 20
5469.077276893859
 30
0.0
 11
6096.914705172385
 21
5469.077276893859
 31
0.0
  0
LINE
  5
171B0
330
747D
100
AcDbEntity
  8
細線
100
AcDbLine
 10
6022.914705172385
 20
5446.077276893859
 30
0.0
 11
6096.914705172385
 21
5446.077276893859
 31
0.0
  0
LINE
  5
171B1
330
747D
100
AcDbEntity
  8
細線
100
AcDbLine
 10
6096.914705172385
 20
5469.077276893859
 30
0.0
 11
6022.914705172385
 21
5469.077276893859
 31
0.0
  0
LINE
  5
171B2
330
747D
100
AcDbEntity
  8
細線
100
AcDbLine
 10
6096.914705172385
 20
5446.077276893859
 30
0.0
 11
6170.914705172386
 21
5446.077276893859
 31
0.0
  0
ARC
  5
171B3
330
747D
100
AcDbEntity
  8
部品1
 48
0.01
100
AcDbCircle
 10
6008.914705172385
 20
5473.577276893859
 30
0.0
 40
2.0
100
AcDbArc
 50
90.0
 51
180.0
  0
ARC
  5
171B4
330
747D
100
AcDbEntity
  8
部品1
 48
0.01
100
AcDbCircle
 10
6008.914705172385
 20
5442.077276893859
 30
0.0
 40
2.0
100
AcDbArc
 50
180.0
 51
270.0
  0
ARC
  5
171B5
330
747D
100
AcDbEntity
  8
部品1
 48
0.01
100
AcDbCircle
 10
6184.914705172385
 20
5473.577276893859
 30
0.0
 40
2.0
100
AcDbArc
 50
0.0
 51
90.0
  0
ARC
  5
171B6
330
747D
100
AcDbEntity
  8
部品1
 48
0.01
100
AcDbCircle
 10
6184.914705172385
 20
5442.077276893859
 30
0.0
 40
2.0
100
AcDbArc
 50
270.0
 51
0.0
  0
ARC
  5
171B7
330
747D
100
AcDbEntity
  8
部品1
 48
0.01
100
AcDbCircle
 10
7824.914705172386
 20
5442.077276893859
 30
0.0
 40
2.0
100
AcDbArc
 50
270.0
 51
0.0
  0
ARC
  5
171B8
330
747D
100
AcDbEntity
  8
部品1
 48
0.01
100
AcDbCircle
 10
7824.914705172386
 20
5473.577276893859
 30
0.0
 40
2.0
100
AcDbArc
 50
0.0
 51
90.0
  0
ARC
  5
171B9
330
747D
100
AcDbEntity
  8
部品1
 48
0.01
100
AcDbCircle
 10
7648.914705172386
 20
5442.077276893859
 30
0.0
 40
2.0
100
AcDbArc
 50
180.0
 51
270.0
  0
ARC
  5
171BA
330
747D
100
AcDbEntity
  8
部品1
 48
0.01
100
AcDbCircle
 10
7648.914705172386
 20
5473.577276893859
 30
0.0
 40
2.0
100
AcDbArc
 50
90.0
 51
180.0
  0
LINE
  5
171BB
330
747D
100
AcDbEntity
  8
細線
100
AcDbLine
 10
7736.914705172387
 20
5446.077276893859
 30
0.0
 11
7810.914705172386
 21
5446.077276893859
 31
0.0
  0
LINE
  5
171BC
330
747D
100
AcDbEntity
  8
細線
100
AcDbLine
 10
7736.914705172387
 20
5469.077276893859
 30
0.0
 11
7662.914705172386
 21
5469.077276893859
 31
0.0
  0
LINE
  5
171BD
330
747D
100
AcDbEntity
  8
細線
100
AcDbLine
 10
7662.914705172386
 20
5446.077276893859
 30
0.0
 11
7736.914705172387
 21
5446.077276893859
 31
0.0
  0
LINE
  5
171BE
330
747D
100
AcDbEntity
  8
細線
100
AcDbLine
 10
7810.914705172386
 20
5469.077276893859
 30
0.0
 11
7736.914705172387
 21
5469.077276893859
 31
0.0
  0
LINE
  5
171BF
330
747D
100
AcDbEntity
  8
細線
100
AcDbLine
 10
7810.914705172386
 20
5446.077276893859
 30
0.0
 11
7810.914705172386
 21
5469.077276893859
 31
0.0
  0
LINE
  5
171C0
330
747D
100
AcDbEntity
  8
細線
100
AcDbLine
 10
7662.914705172386
 20
5469.077276893859
 30
0.0
 11
7662.914705172386
 21
5446.077276893859
 31
0.0
  0
LINE
  5
171C1
330
747D
100
AcDbEntity
  8
部品1
 48
0.01
100
AcDbLine
 10
7826.914705172386
 20
5442.077276893859
 30
0.0
 11
7826.914705172386
 21
5473.577276893859
 31
0.0
  0
LINE
  5
171C2
330
747D
100
AcDbEntity
  8
部品1
 48
0.01
100
AcDbLine
 10
7648.914705172386
 20
5440.077276893859
 30
0.0
 11
7824.914705172386
 21
5440.077276893859
 31
0.0
  0
LINE
  5
171C3
330
747D
100
AcDbEntity
  8
部品1
 48
0.01
100
AcDbLine
 10
7646.914705172386
 20
5473.577276893859
 30
0.0
 11
7646.914705172386
 21
5442.077276893859
 31
0.0
  0
LINE
  5
171C4
330
747D
100
AcDbEntity
  8
部品1
 48
0.01
100
AcDbLine
 10
7824.914705172386
 20
5475.577276893858
 30
0.0
 11
7648.914705172386
 21
5475.577276893858
 31
0.0
  0
LINE
  5
171C5
330
747D
100
AcDbEntity
  8
細線
100
AcDbLine
 10
7662.914705172386
 20
5463.077276893859
 30
0.0
 11
7736.914705172387
 21
5463.077276893859
 31
0.0
  0
LINE
  5
171C6
330
747D
100
AcDbEntity
  8
細線
100
AcDbLine
 10
7662.914705172386
 20
5457.077276893858
 30
0.0
 11
7736.914705172387
 21
5457.077276893858
 31
0.0
  0
LINE
  5
171C7
330
747D
100
AcDbEntity
  8
細線
100
AcDbLine
 10
7662.914705172386
 20
5451.077276893858
 30
0.0
 11
7736.914705172387
 21
5451.077276893858
 31
0.0
  0
LINE
  5
171C8
330
747D
100
AcDbEntity
  8
細線
100
AcDbLine
 10
7662.914705172386
 20
5463.077276893859
 30
0.0
 11
7731.914705172387
 21
5463.077276893859
 31
0.0
  0
LINE
  5
171C9
330
747D
100
AcDbEntity
  8
細線
100
AcDbLine
 10
7810.914705172386
 20
5463.077276893859
 30
0.0
 11
7736.914705172387
 21
5463.077276893859
 31
0.0
  0
LINE
  5
171CA
330
747D
100
AcDbEntity
  8
細線
100
AcDbLine
 10
7810.914705172386
 20
5451.077276893858
 30
0.0
 11
7736.914705172387
 21
5451.077276893858
 31
0.0
  0
LINE
  5
171CB
330
747D
100
AcDbEntity
  8
細線
100
AcDbLine
 10
7810.914705172386
 20
5457.077276893858
 30
0.0
 11
7736.914705172387
 21
5457.077276893858
 31
0.0
  0
LINE
  5
171CC
330
747D
100
AcDbEntity
  8
細線
100
AcDbLine
 10
7736.914705172387
 20
5469.077276893859
 30
0.0
 11
7736.914705172387
 21
5446.077276893859
 31
0.0
  0
LINE
  5
1796A
330
747D
100
AcDbEntity
  8
部品1
 48
50.0
100
AcDbLine
 10
10526.78424768798
 20
5398.827276893861
 30
0.0
 11
10533.78661773276
 21
5398.827276893861
 31
0.0
  0
LINE
  5
1796B
330
747D
100
AcDbEntity
  8
部品1
 48
0.2
100
AcDbLine
 10
10526.78424768798
 20
5409.577276893861
 30
0.0
 11
10526.78424768798
 21
5398.827276893862
 31
0.0
  0
LINE
  5
1796C
330
747D
100
AcDbEntity
  8
部品1
 48
50.0
100
AcDbLine
 10
10526.78424768798
 20
3619.577276893864
 30
0.0
 11
10533.78661773276
 21
3619.577276893864
 31
0.0
  0
LINE
  5
1796D
330
747D
100
AcDbEntity
  8
部品1
 48
0.2
100
AcDbLine
 10
10526.78424768798
 20
3630.327276893864
 30
0.0
 11
10526.78424768798
 21
3619.577276893864
 31
0.0
  0
LINE
  5
1796E
330
747D
100
AcDbEntity
  8
部品1
 48
50.0
100
AcDbLine
 10
10526.78424768798
 20
3630.327276893864
 30
0.0
 11
10533.78661773276
 21
3630.327276893864
 31
0.0
  0
DIMENSION
  5
1796F
330
747D
100
AcDbEntity
  8
寸法
100
AcDbDimension
  2
*D20
 10
9931.823527040556
 20
3569.577276893863
 30
0.0
 11
9931.823527040556
 21
3263.530032799372
 31
0.0
 70
   160
 71
     5
 42
50.00000000000182
  3
INABA_S40G
100
AcDbAlignedDimension
 13
10526.78424768798
 23
3619.577276893864
 33
0.0
 14
10478.78661773276
 24
3569.577276893863
 34
0.0
 50
90.0
100
AcDbRotatedDimension
1001
ACAD
1000
DSTYLE
1002
{
1070
   174
1070
     0
1070
   272
1070
     1
1070
   288
1070
     0
1070
   341
1005
0
1002
}
  0
DIMENSION
  5
17970
330
747D
100
AcDbEntity
  8
寸法
100
AcDbDimension
  2
*D21
 10
9931.823527040556
 20
3619.577276893864
 30
0.0
 11
9931.823527040556
 21
4524.612288770249
 31
0.0
 70
   160
 71
     5
 42
1789.999999999998
  3
INABA_S40G
100
AcDbAlignedDimension
 13
10526.78424768798
 23
5409.577276893862
 33
0.0
 14
10526.78424768798
 24
3619.577276893864
 34
0.0
 50
90.0
100
AcDbRotatedDimension
1001
ACAD
1000
DSTYLE
1002
{
1070
   288
1070
     1
1002
}
  0
DIMENSION
  5
179B9
330
747D
100
AcDbEntity
  8
寸法
 48
50.0
100
AcDbDimension
  2
*D22
 10
12014.19515566659
 20
5589.57727689386
 30
0.0
 11
12014.19515566659
 21
4521.501672958286
 31
0.0
 70
   160
 71
     5
 42
2020.0
  3
INABA_S40
100
AcDbAlignedDimension
 13
11483.78661773276
 23
3569.57727689386
 33
0.0
 14
11563.78661773277
 24
5589.57727689386
 34
0.0
 50
90.0
100
AcDbRotatedDimension
1001
ACAD
1000
DSTYLE
1002
{
1070
    41
1040
0.5
1070
    44
1040
1.0
1070
   147
1040
0.8
1070
   271
1070
     2
1070
   272
1070
     2
1070
   289
1070
     3
1070
   340
1005
F706
1070
   343
1005
15E1F
1070
   344
1005
15E1F
1002
}
  0
LINE
  5
179BA
330
747D
100
AcDbEntity
  8
部品1
100
AcDbLine
 10
11483.78661773276
 20
5465.363037099148
 30
0.0
 11
11483.78661773276
 21
3469.57727689386
 31
0.0
  0
LINE
  5
179BB
330
747D
100
AcDbEntity
  8
部品1
100
AcDbLine
 10
10533.78661773276
 20
5500.697314378673
 30
0.0
 11
10533.78661773276
 21
3469.57727689386
 31
0.0
  0
LINE
  5
179BC
330
747D
100
AcDbEntity
  8
部品1
100
AcDbLine
 10
11428.78661773276
 20
5409.577276893861
 30
0.0
 11
11428.78661773276
 21
3619.57727689386
 31
0.0
  0
LINE
  5
179BD
330
747D
100
AcDbEntity
  8
部品1
100
AcDbLine
 10
10588.78661773276
 20
5409.577276893861
 30
0.0
 11
10588.78661773276
 21
3619.57727689386
 31
0.0
  0
LINE
  5
179BE
330
747D
100
AcDbEntity
  8
部品1
100
AcDbLine
 10
11008.78661773276
 20
5409.577276893861
 30
0.0
 11
11008.78661773276
 21
3619.57727689386
 31
0.0
  0
LINE
  5
179BF
330
747D
100
AcDbEntity
  8
部品1
100
AcDbLine
 10
10533.78661773276
 20
3619.57727689386
 30
0.0
 11
11483.78661773276
 21
3619.57727689386
 31
0.0
  0
LINE
  5
179C0
330
747D
100
AcDbEntity
  8
部品1
100
AcDbLine
 10
10533.78661773276
 20
3569.57727689386
 30
0.0
 11
11483.78661773276
 21
3569.57727689386
 31
0.0
  0
LINE
  5
179C1
330
747D
100
AcDbEntity
  8
部品1
100
AcDbLine
 10
10526.78424768798
 20
5409.577276893861
 30
0.0
 11
11483.78661773276
 21
5409.577276893861
 31
0.0
  0
LINE
  5
179C2
330
747D
100
AcDbEntity
  8
細線
 48
50.0
100
AcDbLine
 10
11351.28661773276
 20
5409.577276893861
 30
0.0
 11
11351.28661773276
 21
3619.57727689386
 31
0.0
  0
LINE
  5
179C3
330
747D
100
AcDbEntity
  8
細線
 48
50.0
100
AcDbLine
 10
11366.28661773276
 20
5409.577276893861
 30
0.0
 11
11366.28661773276
 21
3619.57727689386
 31
0.0
  0
LINE
  5
179C4
330
747D
100
AcDbEntity
  8
細線
 48
50.0
100
AcDbLine
 10
11226.28661773276
 20
5409.577276893861
 30
0.0
 11
11226.28661773276
 21
3619.57727689386
 31
0.0
  0
LINE
  5
179C5
330
747D
100
AcDbEntity
  8
細線
 48
50.0
100
AcDbLine
 10
11211.28661773276
 20
5409.577276893861
 30
0.0
 11
11211.28661773276
 21
3619.57727689386
 31
0.0
  0
LINE
  5
179C6
330
747D
100
AcDbEntity
  8
細線
 48
50.0
100
AcDbLine
 10
11071.28661773276
 20
5409.577276893861
 30
0.0
 11
11071.28661773276
 21
3619.57727689386
 31
0.0
  0
LINE
  5
179C7
330
747D
100
AcDbEntity
  8
細線
 48
50.0
100
AcDbLine
 10
11086.28661773276
 20
5409.577276893861
 30
0.0
 11
11086.28661773276
 21
3619.57727689386
 31
0.0
  0
LINE
  5
179C8
330
747D
100
AcDbEntity
  8
細線
 48
50.0
100
AcDbLine
 10
10931.28661773276
 20
5409.577276893861
 30
0.0
 11
10931.28661773276
 21
3619.57727689386
 31
0.0
  0
LINE
  5
179C9
330
747D
100
AcDbEntity
  8
細線
 48
50.0
100
AcDbLine
 10
10946.28661773276
 20
5409.577276893861
 30
0.0
 11
10946.28661773276
 21
3619.57727689386
 31
0.0
  0
LINE
  5
179CA
330
747D
100
AcDbEntity
  8
細線
 48
50.0
100
AcDbLine
 10
10806.28661773276
 20
5409.577276893861
 30
0.0
 11
10806.28661773276
 21
3619.57727689386
 31
0.0
  0
LINE
  5
179CB
330
747D
100
AcDbEntity
  8
細線
 48
50.0
100
AcDbLine
 10
10791.28661773276
 20
5409.577276893861
 30
0.0
 11
10791.28661773276
 21
3619.57727689386
 31
0.0
  0
LINE
  5
179CC
330
747D
100
AcDbEntity
  8
細線
 48
50.0
100
AcDbLine
 10
10651.28661773276
 20
5409.577276893861
 30
0.0
 11
10651.28661773276
 21
3619.57727689386
 31
0.0
  0
LINE
  5
179CD
330
747D
100
AcDbEntity
  8
細線
 48
50.0
100
AcDbLine
 10
10666.28661773276
 20
5409.577276893861
 30
0.0
 11
10666.28661773276
 21
3619.57727689386
 31
0.0
  0
DIMENSION
  5
179CE
330
747D
100
AcDbEntity
  8
寸法
 48
50.0
100
AcDbDimension
  2
*D23
 10
11563.78661773276
 20
6043.234730473165
 30
0.0
 11
11769.83386182725
 21
6043.234730473165
 31
0.0
 70
   160
 71
     5
 42
80.0
  3
INABA_S40G
100
AcDbAlignedDimension
 13
11483.78661773276
 23
5591.387956505514
 33
0.0
 14
11563.78661773276
 24
5589.577276893862
 34
0.0
100
AcDbRotatedDimension
1001
ACAD
1000
DSTYLE
1002
{
1070
   174
1070
     0
1070
   272
1070
     1
1070
   288
1070
     0
1070
   341
1005
0
1002
}
  0
DIMENSION
  5
179CF
330
747D
100
AcDbEntity
  8
寸法
 48
50.0
100
AcDbDimension
  2
*D24
 10
10473.78661773276
 20
6277.937939113255
 30
0.0
 11
11020.70357814712
 21
6277.937939113255
 31
0.0
 70
   160
 71
     5
 42
1090.0
  3
INABA_S40G
100
AcDbAlignedDimension
 13
11563.78661773276
 23
5589.577276893862
 33
0.0
 14
10473.78661773276
 24
5644.577276893866
 34
0.0
100
AcDbRotatedDimension
1001
ACAD
1000
DSTYLE
1002
{
1070
   174
1070
     0
1070
   272
1070
     1
1070
   288
1070
     0
1070
   341
1005
0
1002
}
  0
DIMENSION
  5
179D0
330
747D
100
AcDbEntity
  8
寸法
 48
50.0
100
AcDbDimension
  2
*D25
 10
10533.78661773276
 20
6043.234730473165
 30
0.0
 11
11030.49841996365
 21
6043.234730473165
 31
0.0
 70
   160
  1
柱外寸法<>
 71
     5
 42
950.0
  3
INABA_S40G
100
AcDbAlignedDimension
 13
11483.78661773276
 23
5591.387956505514
 33
0.0
 14
10533.78661773276
 24
5640.578895016837
 34
0.0
100
AcDbRotatedDimension
1001
ACAD
1000
DSTYLE
1002
{
1070
   174
1070
     0
1070
   272
1070
     1
1070
   288
1070
     0
1070
   341
1005
0
1002
}
  0
DIMENSION
  5
179D1
330
747D
100
AcDbEntity
  8
寸法
 48
50.0
100
AcDbDimension
  2
*D26
 10
10473.78661773276
 20
6043.234730473165
 30
0.0
 11
10164.14882245717
 21
6043.234730473165
 31
0.0
 70
   160
 71
     5
 42
60.0
  3
INABA_S40G
100
AcDbAlignedDimension
 13
10533.78661773276
 23
5640.578895016837
 33
0.0
 14
10473.78661773276
 24
5644.577276893866
 34
0.0
100
AcDbRotatedDimension
1001
ACAD
1000
DSTYLE
1002
{
1070
   174
1070
     0
1070
   272
1070
     1
1070
   288
1070
     0
1070
   341
1005
0
1002
}
  0
DIMENSION
  5
179D2
330
747D
100
AcDbEntity
  8
寸法
 48
50.0
100
AcDbDimension
  2
*D27
 10
9913.178210964394
 20
5518.922535767192
 30
0.0
 11
9923.843686223321
 21
5889.769199008891
 31
0.0
 70
   161
 71
     5
 42
141.0000000000009
  3
INABA_S40G
100
AcDbAlignedDimension
 13
10493.18263789134
 23
5643.300025728541
 33
0.0
 14
10489.12918233471
 24
5502.358301962828
 34
0.0
1001
ACAD
1000
DSTYLE
1002
{
1070
   174
1070
     0
1070
   272
1070
     1
1070
   288
1070
     0
1070
   341
1005
0
1002
}
  0
LINE
  5
179D3
330
747D
100
AcDbEntity
  8
部品1
 48
50.0
100
AcDbLine
 10
10868.78661773276
 20
5775.44541599514
 30
0.0
 11
11168.78661773276
 21
5759.245415995142
 31
0.0
  0
TEXT
  5
179D4
330
747D
100
AcDbEntity
  8
部品1
 48
50.0
100
AcDbText
 10
11345.87946502062
 20
5673.828179929291
 30
0.0
 40
120.0
  1
104
 50
90.0
  7
STYLE1
100
AcDbText
  0
LINE
  5
179D5
330
747D
100
AcDbEntity
  8
部品1
 48
50.0
100
AcDbLine
 10
11168.78661773276
 20
5775.44541599514
 30
0.0
 11
11168.78661773276
 21
5759.245415995142
 31
0.0
  0
LINE
  5
179D6
330
747D
100
AcDbEntity
  8
部品1
 48
50.0
100
AcDbLine
 10
10868.78661773276
 20
5775.44541599514
 30
0.0
 11
11168.78661773276
 21
5775.44541599514
 31
0.0
  0
ARC
  5
179D7
330
747D
100
AcDbEntity
  8
部品1
100
AcDbCircle
 10
11549.41415354669
 20
5483.601034159654
 30
0.0
 40
0.7
100
AcDbArc
 50
275.0921697642079
 51
354.1866997667034
  0
ARC
  5
179D8
330
747D
100
AcDbEntity
  8
部品1
100
AcDbCircle
 10
11560.27349929602
 20
5560.644288977577
 30
0.0
 40
0.7
100
AcDbArc
 50
275.0921697642079
 51
354.1866997665479
  0
ARC
  5
179D9
330
747D
100
AcDbEntity
  8
部品1
100
AcDbCircle
 10
11560.60190453862
 20
5556.958892120487
 30
0.0
 40
3.0
100
AcDbArc
 50
95.09216976442012
 51
174.1866997665479
  0
ARC
  5
179DA
330
747D
100
AcDbEntity
  8
部品1
100
AcDbCircle
 10
11549.74255878929
 20
5479.915637302564
 30
0.0
 40
3.0
100
AcDbArc
 50
95.09216976420788
 51
174.1866997665479
  0
ARC
  5
179DB
330
747D
100
AcDbEntity
  8
部品1
 48
50.0
100
AcDbCircle
 10
11538.71442351419
 20
5470.32489269868
 30
0.0
 40
7.0
100
AcDbArc
 50
267.8377559871574
 51
354.1866997665479
  0
ARC
  5
179DC
330
747D
100
AcDbEntity
  8
部品1
 48
50.0
100
AcDbCircle
 10
11556.0365199787
 20
5581.227439840853
 30
0.0
 40
7.0
100
AcDbArc
 50
354.1866997665479
 51
87.03587545304044
  0
LINE
  5
179DD
330
747D
100
AcDbEntity
  8
部品1
 48
50.0
100
AcDbLine
 10
11546.75798711868
 20
5480.219499019465
 30
0.0
 11
11545.67842407894
 21
5469.615882025906
 31
0.0
  0
LINE
  5
179DE
330
747D
100
AcDbEntity
  8
部品1
 48
50.0
100
AcDbLine
 10
11557.61733286801
 20
5557.262753837391
 30
0.0
 11
11550.11055360317
 21
5483.530133092378
 31
0.0
  0
LINE
  5
179DF
330
747D
100
AcDbEntity
  8
部品1
 48
50.0
100
AcDbLine
 10
11563.00052054346
 20
5580.51842916808
 30
0.0
 11
11560.96989935249
 21
5560.573387910299
 31
0.0
  0
ARC
  5
179E0
330
747D
100
AcDbEntity
  8
部品1
100
AcDbCircle
 10
10479.82370960412
 20
5523.391435852765
 30
0.0
 40
0.7
100
AcDbArc
 50
181.0932240292114
 51
260.1877540314845
  0
ARC
  5
179E1
330
747D
100
AcDbEntity
  8
部品1
100
AcDbCircle
 10
10475.05103600651
 20
5616.257214052884
 30
0.0
 40
0.7
100
AcDbArc
 50
181.0932240292114
 51
260.1877540314845
  0
ARC
  5
179E2
330
747D
100
AcDbEntity
  8
部品1
100
AcDbCircle
 10
10474.42048160349
 20
5612.611339515486
 30
0.0
 40
3.0
100
AcDbArc
 50
1.093224029263536
 51
80.18775403148449
  0
ARC
  5
179E3
330
747D
100
AcDbEntity
  8
部品1
100
AcDbCircle
 10
10479.1931552011
 20
5519.745561315367
 30
0.0
 40
3.0
100
AcDbArc
 50
1.093224029263536
 51
80.18775403148449
  0
ARC
  5
179E4
330
747D
100
AcDbEntity
  8
部品1
 48
50.0
100
AcDbCircle
 10
10489.3932875763
 20
5509.353317932886
 30
0.0
 40
7.0
100
AcDbArc
 50
181.0932240292635
 51
267.8377559871574
  0
ARC
  5
179E5
330
747D
100
AcDbEntity
  8
部品1
 48
50.0
100
AcDbCircle
 10
10480.9696294742
 20
5636.304377465982
 30
0.0
 40
7.0
100
AcDbArc
 50
87.03587545304044
 51
181.0932240292635
  0
LINE
  5
179E6
330
747D
100
AcDbEntity
  8
部品1
 48
50.0
100
AcDbLine
 10
10482.19260912753
 20
5519.802798918551
 30
0.0
 11
10482.39456174796
 21
5509.219763525457
 31
0.0
  0
LINE
  5
179E7
330
747D
100
AcDbEntity
  8
細線
 48
50.0
100
AcDbLine
 10
10479.58651607086
 20
5522.73284703736
 30
0.0
 11
11549.59018050149
 21
5482.923528062865
 31
0.0
  0
LINE
  5
179E8
330
747D
100
AcDbEntity
  8
細線
 48
50.0
100
AcDbLine
 10
10474.82604083357
 20
5615.594358735223
 30
0.0
 11
11560.46202557874
 21
5559.970154094395
 31
0.0
  0
LINE
  5
179E9
330
747D
100
AcDbEntity
  8
部品1
 48
50.0
100
AcDbLine
 10
10477.41993552992
 20
5612.668577118669
 30
0.0
 11
10479.12383702129
 21
5523.378080412023
 31
0.0
  0
LINE
  5
179EA
330
747D
100
AcDbEntity
  8
部品1
 48
50.0
100
AcDbLine
 10
10473.97090364586
 20
5636.170823058553
 30
0.0
 11
10474.35116342368
 21
5616.243858612143
 31
0.0
  0
LINE
  5
179EB
330
747D
100
AcDbEntity
  8
細線
 48
50.0
100
AcDbLine
 10
11530.78661773276
 20
5589.544255929157
 30
0.0
 11
11526.03893484476
 21
5463.798483438413
 31
0.0
  0
LINE
  5
179EC
330
747D
100
AcDbEntity
  8
細線
 48
50.0
100
AcDbLine
 10
10506.78661773276
 20
5641.976953269266
 30
0.0
 11
10501.49751617725
 21
5501.891320641911
 31
0.0
  0
LINE
  5
179ED
330
747D
100
AcDbEntity
  8
部品1
100
AcDbLine
 10
10489.12918233471
 20
5502.358301962828
 30
0.0
 11
11538.4503182726
 21
5463.329876728623
 31
0.0
  0
LINE
  5
179EE
330
747D
100
AcDbEntity
  8
部品1
100
AcDbLine
 10
10481.33160408972
 20
5643.295012228128
 30
0.0
 11
11556.39849459422
 21
5588.218074603001
 31
0.0
  0
TEXT
  5
179EF
330
747D
100
AcDbEntity
  8
部品1
 48
50.0
100
AcDbText
 10
10857.05445295648
 20
5811.329438147573
 30
0.0
 40
120.0
  1
1000
  7
STYLE1
100
AcDbText
  0
DIMENSION
  5
179F0
330
747D
100
AcDbEntity
  8
寸法
100
AcDbDimension
  2
*D28
 10
9672.192739577472
 20
5644.577276893866
 30
0.0
 11
9672.19273957747
 21
4597.155906173022
 31
0.0
 70
   160
 71
     5
 42
2075.000000000006
  3
INABA_S40G
100
AcDbAlignedDimension
 13
10533.78661773276
 23
3569.57727689386
 33
0.0
 14
10473.78661773276
 24
5644.577276893866
 34
0.0
 50
90.0
100
AcDbRotatedDimension
1001
ACAD
1000
DSTYLE
1002
{
1070
   174
1070
     0
1070
   272
1070
     1
1070
   288
1070
     0
1070
   341
1005
0
1002
}
  0
TEXT
  5
17A85
330
747D
100
AcDbEntity
  8
部品1
100
AcDbText
 10
10716.49738604215
 20
2673.607166858619
 30
0.0
 40
135.0
  1
側面図
  7
STYLE2
100
AcDbText
  0
LWPOLYLINE
  5
17A86
330
747D
100
AcDbEntity
  8
部品1
100
AcDbPolyline
 90
        4
 70
     1
 43
0.0
 10
10627.05128461854
 20
2866.500696077143
 10
10627.05128461854
 20
2626.60837453161
 10
11390.52195084698
 20
2626.60837453161
 10
11390.52195084698
 20
2866.500696077143
  0
TEXT
  5
17C51
330
747D
100
AcDbEntity
  8
文字
 62
     7
 48
50.0
100
AcDbText
 10
13583.11819016568
 20
8380.013745883728
 30
0.0
 40
100.0
  1
※豪雪補強
  7
STYLE1
100
AcDbText
  0
TEXT
  5
17C52
330
747D
100
AcDbEntity
  8
文字
 62
     7
 48
50.0
100
AcDbText
 10
13229.83081656553
 20
8210.013745883726
 30
0.0
 40
100.0
  1
※豪雪補強は豪雪地型のみ取付
 41
0.9
  7
STYLE1
100
AcDbText
  0
TEXT
  5
17C53
330
747D
100
AcDbEntity
  8
文字
 62
     7
 48
50.0
100
AcDbText
 10
13248.77747366447
 20
8380.013745883728
 30
0.0
 40
100.0
  1
17
  7
STYLE1
100
AcDbText
  0
TEXT
  5
17C54
330
747D
100
AcDbEntity
  8
文字
 62
     7
 48
50.0
100
AcDbText
 10
15022.63965474514
 20
8380.01374588372
 30
0.0
 40
100.0
  1
F12            1.0
  7
STYLE1
100
AcDbText
  0
LINE
  5
17C55
330
747D
100
AcDbEntity
  8
仕様書枠
 48
50.0
100
AcDbLine
 10
16307.19999999999
 20
8519.600000000002
 30
0.0
 11
13127.19999999999
 21
8519.600000000002
 31
0.0
  0
LINE
  5
17C56
330
747D
100
AcDbEntity
  8
仕様書枠
 48
50.0
100
AcDbLine
 10
16307.19999999999
 20
8349.6
 30
0.0
 11
13127.19999999999
 21
8349.6
 31
0.0
  0
LINE
  5
17C8B
330
747D
100
AcDbEntity
  8
部品1
100
AcDbLine
 10
4909.914705172377
 20
4526.577276893866
 30
0.0
 11
5643.914705172377
 21
4526.57727689387
 31
0.0
  0
LINE
  5
17C8C
330
747D
100
AcDbEntity
  8
部品1
100
AcDbLine
 10
4879.914705172379
 20
4523.077276893864
 30
0.0
 11
5673.914705172378
 21
4523.077276893871
 31
0.0
  0
LINE
  5
17C8D
330
747D
100
AcDbEntity
  8
部品1
100
AcDbLine
 10
4884.914705172377
 20
4497.077276893864
 30
0.0
 11
5668.914705172378
 21
4497.077276893873
 31
0.0
  0
LINE
  5
17C8E
330
747D
100
AcDbEntity
  8
部品1
100
AcDbLine
 10
4909.914705172377
 20
4495.577276893865
 30
0.0
 11
5643.914705172377
 21
4495.577276893871
 31
0.0
  0
LINE
  5
17C8F
330
747D
100
AcDbEntity
  8
部品1
100
AcDbLine
 10
4911.914705172378
 20
4493.077276893866
 30
0.0
 11
5621.852257343697
 21
4493.077276893871
 31
0.0
  0
LINE
  5
17CDE
330
747D
100
AcDbEntity
  8
部品1
 48
50.0
100
AcDbLine
 10
8081.852257343703
 20
4486.327276893865
 30
0.0
 11
8081.852257343703
 21
4493.077276893865
 31
0.0
  0
LINE
  5
17CDF
330
747D
100
AcDbEntity
  8
細線
 48
50.0
100
AcDbLine
 10
8097.839910195364
 20
4490.827276893865
 30
0.0
 11
8097.839910195364
 21
4488.827276893864
 31
0.0
  0
LINE
  5
17CE0
330
747D
100
AcDbEntity
  8
細線
 48
50.0
100
AcDbLine
 10
8089.9895001494
 20
4490.827276893865
 30
0.0
 11
8089.9895001494
 21
4488.827276893864
 31
0.0
  0
LINE
  5
17CE1
330
747D
100
AcDbEntity
  8
細線
 48
0.1
100
AcDbLine
 10
8101.852257343704
 20
4493.327276893865
 30
0.0
 11
8101.852257343704
 21
4486.327276893865
 31
0.0
  0
LINE
  5
17CE2
330
747D
100
AcDbEntity
  8
部品1
 48
0.2
100
AcDbLine
 10
8101.852257343704
 20
4486.327276893865
 30
0.0
 11
8081.852257343703
 21
4486.327276893865
 31
0.0
  0
LINE
  5
17CE3
330
747D
100
AcDbEntity
  8
細線
 48
0.2
100
AcDbLine
 10
8101.852257343704
 20
4488.827276893864
 30
0.0
 11
8081.852257343703
 21
4488.827276893864
 31
0.0
  0
LINE
  5
17CE4
330
747D
100
AcDbEntity
  8
部品1
100
AcDbLine
 10
8101.852257343704
 20
4493.077276893862
 30
0.0
 11
8101.914705172385
 21
4493.077276893862
 31
0.0
  0
LINE
  5
17CE5
330
747D
100
AcDbEntity
  8
部品1
100
AcDbLine
 10
8101.852257343704
 20
4493.077276893865
 30
0.0
 11
8101.914705172385
 21
4493.077276893862
 31
0.0
  0
LINE
  5
17CE6
330
747D
100
AcDbEntity
  8
細線
 48
50.0
100
AcDbLine
 10
8081.852257343703
 20
4493.077276893865
 30
0.0
 11
8081.852257343703
 21
4493.327276893865
 31
0.0
  0
LINE
  5
17CE7
330
747D
100
AcDbEntity
  8
細線
 48
0.2
100
AcDbLine
 10
8099.536248640211
 20
4494.027276893866
 30
0.0
 11
8088.168266047199
 21
4494.027276893866
 31
0.0
  0
ARC
  5
17CE8
330
747D
100
AcDbEntity
  8
細線
 48
0.2
100
AcDbCircle
 10
8093.852257343703
 20
4476.527276893867
 30
0.0
 40
18.49999999999796
100
AcDbArc
 50
73.39845040097829
 51
106.6015495990228
  0
ARC
  5
17CE9
330
747D
100
AcDbEntity
  8
細線
 48
0.2
100
AcDbCircle
 10
8088.852257343702
 20
4493.297786725113
 30
0.0
 40
1.0
100
AcDbArc
 50
106.6015495990225
 51
180.0000000000016
  0
LINE
  5
17CEA
330
747D
100
AcDbEntity
  8
細線
 48
0.2
100
AcDbLine
 10
8101.852257343704
 20
4490.827276893865
 30
0.0
 11
8081.852257343703
 21
4490.827276893865
 31
0.0
  0
LINE
  5
17CEB
330
747D
100
AcDbEntity
  8
細線
 48
0.2
100
AcDbLine
 10
8101.852257343704
 20
4493.327276893865
 30
0.0
 11
8081.852257343703
 21
4493.327276893865
 31
0.0
  0
ARC
  5
17CEC
330
747D
100
AcDbEntity
  8
細線
 48
0.2
100
AcDbCircle
 10
8098.852257343704
 20
4493.297786725113
 30
0.0
 40
1.0
100
AcDbArc
 50
0.0
 51
73.39845040097829
  0
LINE
  5
17CED
330
747D
100
AcDbEntity
  8
部品1
 48
50.0
100
AcDbLine
 10
6441.852257343704
 20
4486.327276893865
 30
0.0
 11
6441.852257343704
 21
4493.077276893865
 31
0.0
  0
LINE
  5
17CEE
330
747D
100
AcDbEntity
  8
細線
 48
50.0
100
AcDbLine
 10
6457.839910195364
 20
4490.827276893865
 30
0.0
 11
6457.839910195364
 21
4488.827276893864
 31
0.0
  0
LINE
  5
17CEF
330
747D
100
AcDbEntity
  8
細線
 48
50.0
100
AcDbLine
 10
6449.989500149401
 20
4490.827276893865
 30
0.0
 11
6449.989500149401
 21
4488.827276893864
 31
0.0
  0
LINE
  5
17CF0
330
747D
100
AcDbEntity
  8
細線
 48
0.1
100
AcDbLine
 10
6461.852257343704
 20
4493.327276893865
 30
0.0
 11
6461.852257343704
 21
4486.327276893865
 31
0.0
  0
LINE
  5
17CF1
330
747D
100
AcDbEntity
  8
部品1
 48
0.2
100
AcDbLine
 10
6461.852257343704
 20
4486.327276893865
 30
0.0
 11
6441.852257343704
 21
4486.327276893865
 31
0.0
  0
LINE
  5
17CF2
330
747D
100
AcDbEntity
  8
細線
 48
0.2
100
AcDbLine
 10
6461.852257343704
 20
4488.827276893864
 30
0.0
 11
6441.852257343704
 21
4488.827276893864
 31
0.0
  0
LINE
  5
17CF3
330
747D
100
AcDbEntity
  8
部品1
100
AcDbLine
 10
6461.852257343704
 20
4493.077276893862
 30
0.0
 11
6461.914705172384
 21
4493.077276893862
 31
0.0
  0
LINE
  5
17CF4
330
747D
100
AcDbEntity
  8
部品1
100
AcDbLine
 10
6461.852257343704
 20
4493.077276893865
 30
0.0
 11
6461.914705172384
 21
4493.077276893862
 31
0.0
  0
LINE
  5
17CF5
330
747D
100
AcDbEntity
  8
細線
 48
50.0
100
AcDbLine
 10
6441.852257343704
 20
4493.077276893865
 30
0.0
 11
6441.852257343704
 21
4493.327276893865
 31
0.0
  0
LINE
  5
17CF6
330
747D
100
AcDbEntity
  8
細線
 48
0.2
100
AcDbLine
 10
6459.536248640212
 20
4494.027276893866
 30
0.0
 11
6448.168266047201
 21
4494.027276893866
 31
0.0
  0
ARC
  5
17CF7
330
747D
100
AcDbEntity
  8
細線
 48
0.2
100
AcDbCircle
 10
6453.852257343704
 20
4476.527276893867
 30
0.0
 40
18.49999999999796
100
AcDbArc
 50
73.39845040097829
 51
106.6015495990228
  0
ARC
  5
17CF8
330
747D
100
AcDbEntity
  8
細線
 48
0.2
100
AcDbCircle
 10
6448.852257343704
 20
4493.297786725113
 30
0.0
 40
1.0
100
AcDbArc
 50
106.6015495990225
 51
180.0000000000016
  0
LINE
  5
17CF9
330
747D
100
AcDbEntity
  8
細線
 48
0.2
100
AcDbLine
 10
6461.852257343704
 20
4490.827276893865
 30
0.0
 11
6441.852257343704
 21
4490.827276893865
 31
0.0
  0
LINE
  5
17CFA
330
747D
100
AcDbEntity
  8
細線
 48
0.2
100
AcDbLine
 10
6461.852257343704
 20
4493.327276893865
 30
0.0
 11
6441.852257343704
 21
4493.327276893865
 31
0.0
  0
ARC
  5
17CFB
330
747D
100
AcDbEntity
  8
細線
 48
0.2
100
AcDbCircle
 10
6458.852257343704
 20
4493.297786725113
 30
0.0
 40
1.0
100
AcDbArc
 50
0.0
 51
73.39845040097829
  0
LINE
  5
17CFC
330
747D
100
AcDbEntity
  8
部品1
100
AcDbLine
 10
7371.914705172385
 20
4493.077276893862
 30
0.0
 11
8081.852257343703
 21
4493.077276893862
 31
0.0
  0
LINE
  5
17CFD
330
747D
100
AcDbEntity
  8
部品1
 48
50.0
100
AcDbLine
 10
5621.852257343704
 20
4486.327276893865
 30
0.0
 11
5621.852257343704
 21
4493.077276893865
 31
0.0
  0
LINE
  5
17CFE
330
747D
100
AcDbEntity
  8
細線
 48
0.1
100
AcDbLine
 10
5641.852257343703
 20
4493.327276893865
 30
0.0
 11
5641.852257343703
 21
4486.327276893865
 31
0.0
  0
LINE
  5
17CFF
330
747D
100
AcDbEntity
  8
細線
 48
50.0
100
AcDbLine
 10
5629.989500149401
 20
4490.827276893865
 30
0.0
 11
5629.989500149401
 21
4488.827276893864
 31
0.0
  0
LINE
  5
17D00
330
747D
100
AcDbEntity
  8
細線
 48
50.0
100
AcDbLine
 10
5637.839910195364
 20
4490.827276893865
 30
0.0
 11
5637.839910195364
 21
4488.827276893864
 31
0.0
  0
LINE
  5
17D01
330
747D
100
AcDbEntity
  8
細線
 48
0.2
100
AcDbLine
 10
5641.852257343703
 20
4488.827276893864
 30
0.0
 11
5621.852257343704
 21
4488.827276893864
 31
0.0
  0
LINE
  5
17D02
330
747D
100
AcDbEntity
  8
部品1
 48
0.2
100
AcDbLine
 10
5641.852257343703
 20
4486.327276893865
 30
0.0
 11
5621.852257343704
 21
4486.327276893865
 31
0.0
  0
LINE
  5
17D03
330
747D
100
AcDbEntity
  8
細線
 48
50.0
100
AcDbLine
 10
5621.852257343704
 20
4493.077276893865
 30
0.0
 11
5621.852257343704
 21
4493.327276893865
 31
0.0
  0
LINE
  5
17D04
330
747D
100
AcDbEntity
  8
部品1
100
AcDbLine
 10
5641.852257343703
 20
4493.077276893865
 30
0.0
 11
5641.914705172385
 21
4493.077276893862
 31
0.0
  0
LINE
  5
17D05
330
747D
100
AcDbEntity
  8
細線
 48
0.2
100
AcDbLine
 10
5641.852257343703
 20
4493.327276893865
 30
0.0
 11
5621.852257343704
 21
4493.327276893865
 31
0.0
  0
LINE
  5
17D06
330
747D
100
AcDbEntity
  8
細線
 48
0.2
100
AcDbLine
 10
5641.852257343703
 20
4490.827276893865
 30
0.0
 11
5621.852257343704
 21
4490.827276893865
 31
0.0
  0
ARC
  5
17D07
330
747D
100
AcDbEntity
  8
細線
 48
0.2
100
AcDbCircle
 10
5628.852257343704
 20
4493.297786725113
 30
0.0
 40
1.0
100
AcDbArc
 50
106.6015495990225
 51
180.0000000000016
  0
ARC
  5
17D08
330
747D
100
AcDbEntity
  8
細線
 48
0.2
100
AcDbCircle
 10
5638.852257343704
 20
4493.297786725113
 30
0.0
 40
1.0
100
AcDbArc
 50
0.0
 51
73.39845040097829
  0
ARC
  5
17D09
330
747D
100
AcDbEntity
  8
細線
 48
0.2
100
AcDbCircle
 10
5633.852257343704
 20
4476.527276893867
 30
0.0
 40
18.49999999999796
100
AcDbArc
 50
73.39845040097829
 51
106.6015495990228
  0
LINE
  5
17D0A
330
747D
100
AcDbEntity
  8
細線
 48
0.2
100
AcDbLine
 10
5639.536248640212
 20
4494.027276893866
 30
0.0
 11
5628.1682660472
 21
4494.027276893866
 31
0.0
  0
LINE
  5
17D0B
330
747D
100
AcDbEntity
  8
部品1
100
AcDbLine
 10
4911.914705172385
 20
4493.077276893865
 30
0.0
 11
5621.852257343704
 21
4493.077276893865
 31
0.0
  0
LINE
  5
17D0C
330
747D
100
AcDbEntity
  8
部品1
100
AcDbLine
 10
5731.914705172385
 20
4493.077276893862
 30
0.0
 11
6441.852257343704
 21
4493.077276893862
 31
0.0
  0
LINE
  5
17D34
330
747D
100
AcDbEntity
  8
細線
 48
0.1
100
AcDbLine
 10
8101.852257343704
 20
3615.827276893881
 30
0.0
 11
8101.852257343704
 21
3622.827276893882
 31
0.0
  0
LINE
  5
17D35
330
747D
100
AcDbEntity
  8
細線
 48
50.0
100
AcDbLine
 10
8089.9895001494
 20
3618.327276893884
 30
0.0
 11
8089.9895001494
 21
3620.327276893882
 31
0.0
  0
LINE
  5
17D36
330
747D
100
AcDbEntity
  8
細線
 48
50.0
100
AcDbLine
 10
8097.839910195364
 20
3618.327276893884
 30
0.0
 11
8097.839910195364
 21
3620.327276893882
 31
0.0
  0
LINE
  5
17D37
330
747D
100
AcDbEntity
  8
部品1
 48
50.0
100
AcDbLine
 10
8081.852257343703
 20
3622.827276893882
 30
0.0
 11
8081.852257343703
 21
3616.077276893884
 31
0.0
  0
LINE
  5
17D38
330
747D
100
AcDbEntity
  8
部品1
100
AcDbLine
 10
8101.852257343704
 20
3616.077276893884
 30
0.0
 11
8101.914705172383
 21
3616.077276893884
 31
0.0
  0
ARC
  5
17D39
330
747D
100
AcDbEntity
  8
細線
 48
0.2
100
AcDbCircle
 10
8098.852257343704
 20
3615.856767062633
 30
0.0
 40
1.0
100
AcDbArc
 50
286.6015495990217
 51
0.0
  0
LINE
  5
17D3A
330
747D
100
AcDbEntity
  8
細線
 48
0.2
100
AcDbLine
 10
8101.852257343704
 20
3615.827276893881
 30
0.0
 11
8081.852257343703
 21
3615.827276893881
 31
0.0
  0
LINE
  5
17D3B
330
747D
100
AcDbEntity
  8
細線
 48
0.2
100
AcDbLine
 10
8101.852257343704
 20
3618.327276893881
 30
0.0
 11
8081.852257343703
 21
3618.327276893884
 31
0.0
  0
ARC
  5
17D3C
330
747D
100
AcDbEntity
  8
細線
 48
0.2
100
AcDbCircle
 10
8088.852257343702
 20
3615.856767062633
 30
0.0
 40
1.0
100
AcDbArc
 50
179.9999999999984
 51
253.3984504009775
  0
ARC
  5
17D3D
330
747D
100
AcDbEntity
  8
細線
 48
0.2
100
AcDbCircle
 10
8093.852257343703
 20
3632.627276893879
 30
0.0
 40
18.49999999999796
100
AcDbArc
 50
253.3984504009772
 51
286.6015495990217
  0
LINE
  5
17D3E
330
747D
100
AcDbEntity
  8
細線
 48
0.2
100
AcDbLine
 10
8099.536248640211
 20
3615.127276893881
 30
0.0
 11
8088.168266047199
 21
3615.127276893881
 31
0.0
  0
LINE
  5
17D3F
330
747D
100
AcDbEntity
  8
細線
 48
50.0
100
AcDbLine
 10
8081.852257343703
 20
3616.077276893884
 30
0.0
 11
8081.852257343703
 21
3615.827276893881
 31
0.0
  0
LINE
  5
17D40
330
747D
100
AcDbEntity
  8
部品1
100
AcDbLine
 10
8101.852257343704
 20
3616.077276893884
 30
0.0
 11
8101.914705172385
 21
3616.077276893884
 31
0.0
  0
LINE
  5
17D41
330
747D
100
AcDbEntity
  8
部品1
100
AcDbLine
 10
8101.852257343704
 20
3616.077276893885
 30
0.0
 11
8101.914705172385
 21
3616.077276893885
 31
0.0
  0
LINE
  5
17D42
330
747D
100
AcDbEntity
  8
細線
 48
0.2
100
AcDbLine
 10
8101.852257343704
 20
3620.327276893882
 30
0.0
 11
8081.852257343703
 21
3620.327276893882
 31
0.0
  0
LINE
  5
17D43
330
747D
100
AcDbEntity
  8
部品1
 48
0.2
100
AcDbLine
 10
8101.852257343704
 20
3622.827276893882
 30
0.0
 11
8081.852257343703
 21
3622.827276893882
 31
0.0
  0
LINE
  5
17D44
330
747D
100
AcDbEntity
  8
細線
 48
0.1
100
AcDbLine
 10
6461.852257343704
 20
3615.827276893881
 30
0.0
 11
6461.852257343704
 21
3622.827276893882
 31
0.0
  0
LINE
  5
17D45
330
747D
100
AcDbEntity
  8
細線
 48
50.0
100
AcDbLine
 10
6449.989500149401
 20
3618.327276893884
 30
0.0
 11
6449.989500149401
 21
3620.327276893882
 31
0.0
  0
LINE
  5
17D46
330
747D
100
AcDbEntity
  8
細線
 48
50.0
100
AcDbLine
 10
6457.839910195364
 20
3618.327276893884
 30
0.0
 11
6457.839910195364
 21
3620.327276893882
 31
0.0
  0
LINE
  5
17D47
330
747D
100
AcDbEntity
  8
部品1
 48
50.0
100
AcDbLine
 10
6441.852257343704
 20
3622.827276893882
 30
0.0
 11
6441.852257343704
 21
3616.077276893884
 31
0.0
  0
LINE
  5
17D48
330
747D
100
AcDbEntity
  8
部品1
100
AcDbLine
 10
6461.852257343704
 20
3616.077276893884
 30
0.0
 11
6461.914705172384
 21
3616.077276893884
 31
0.0
  0
ARC
  5
17D49
330
747D
100
AcDbEntity
  8
細線
 48
0.2
100
AcDbCircle
 10
6458.852257343704
 20
3615.856767062633
 30
0.0
 40
1.0
100
AcDbArc
 50
286.6015495990217
 51
0.0
  0
LINE
  5
17D4A
330
747D
100
AcDbEntity
  8
細線
 48
0.2
100
AcDbLine
 10
6461.852257343704
 20
3615.827276893881
 30
0.0
 11
6441.852257343704
 21
3615.827276893881
 31
0.0
  0
LINE
  5
17D4B
330
747D
100
AcDbEntity
  8
細線
 48
0.2
100
AcDbLine
 10
6461.852257343704
 20
3618.327276893881
 30
0.0
 11
6441.852257343704
 21
3618.327276893884
 31
0.0
  0
ARC
  5
17D4C
330
747D
100
AcDbEntity
  8
細線
 48
0.2
100
AcDbCircle
 10
6448.852257343704
 20
3615.856767062633
 30
0.0
 40
1.0
100
AcDbArc
 50
179.9999999999984
 51
253.3984504009775
  0
ARC
  5
17D4D
330
747D
100
AcDbEntity
  8
細線
 48
0.2
100
AcDbCircle
 10
6453.852257343704
 20
3632.627276893879
 30
0.0
 40
18.49999999999796
100
AcDbArc
 50
253.3984504009772
 51
286.6015495990217
  0
LINE
  5
17D4E
330
747D
100
AcDbEntity
  8
細線
 48
0.2
100
AcDbLine
 10
6459.536248640212
 20
3615.127276893881
 30
0.0
 11
6448.168266047201
 21
3615.127276893881
 31
0.0
  0
LINE
  5
17D4F
330
747D
100
AcDbEntity
  8
細線
 48
50.0
100
AcDbLine
 10
6441.852257343704
 20
3616.077276893884
 30
0.0
 11
6441.852257343704
 21
3615.827276893881
 31
0.0
  0
LINE
  5
17D50
330
747D
100
AcDbEntity
  8
部品1
100
AcDbLine
 10
6461.852257343704
 20
3616.077276893884
 30
0.0
 11
6461.914705172384
 21
3616.077276893884
 31
0.0
  0
LINE
  5
17D51
330
747D
100
AcDbEntity
  8
部品1
100
AcDbLine
 10
6461.852257343704
 20
3616.077276893885
 30
0.0
 11
6461.914705172384
 21
3616.077276893885
 31
0.0
  0
LINE
  5
17D52
330
747D
100
AcDbEntity
  8
細線
 48
0.2
100
AcDbLine
 10
6461.852257343704
 20
3620.327276893882
 30
0.0
 11
6441.852257343704
 21
3620.327276893882
 31
0.0
  0
LINE
  5
17D53
330
747D
100
AcDbEntity
  8
部品1
 48
0.2
100
AcDbLine
 10
6461.852257343704
 20
3622.827276893882
 30
0.0
 11
6441.852257343704
 21
3622.827276893882
 31
0.0
  0
LINE
  5
17D54
330
747D
100
AcDbEntity
  8
部品1
100
AcDbLine
 10
7371.914705172385
 20
3616.077276893876
 30
0.0
 11
8081.852257343703
 21
3616.077276893884
 31
0.0
  0
LINE
  5
17D55
330
747D
100
AcDbEntity
  8
部品1
 48
50.0
100
AcDbLine
 10
5621.852257343704
 20
3622.827276893882
 30
0.0
 11
5621.852257343704
 21
3616.077276893884
 31
0.0
  0
LINE
  5
17D56
330
747D
100
AcDbEntity
  8
細線
 48
50.0
100
AcDbLine
 10
5637.839910195364
 20
3618.327276893884
 30
0.0
 11
5637.839910195364
 21
3620.327276893882
 31
0.0
  0
LINE
  5
17D57
330
747D
100
AcDbEntity
  8
細線
 48
50.0
100
AcDbLine
 10
5629.989500149401
 20
3618.327276893884
 30
0.0
 11
5629.989500149401
 21
3620.327276893882
 31
0.0
  0
LINE
  5
17D58
330
747D
100
AcDbEntity
  8
細線
 48
0.1
100
AcDbLine
 10
5641.852257343703
 20
3615.827276893881
 30
0.0
 11
5641.852257343703
 21
3622.827276893882
 31
0.0
  0
LINE
  5
17D59
330
747D
100
AcDbEntity
  8
部品1
100
AcDbLine
 10
5641.852257343703
 20
3616.077276893874
 30
0.0
 11
5641.914705172385
 21
3616.077276893874
 31
0.0
  0
LINE
  5
17D5A
330
747D
100
AcDbEntity
  8
部品1
100
AcDbLine
 10
5641.852257343703
 20
3616.077276893884
 30
0.0
 11
5641.914705172385
 21
3616.077276893884
 31
0.0
  0
LINE
  5
17D5B
330
747D
100
AcDbEntity
  8
細線
 48
50.0
100
AcDbLine
 10
5621.852257343704
 20
3616.077276893884
 30
0.0
 11
5621.852257343704
 21
3615.827276893881
 31
0.0
  0
LINE
  5
17D5C
330
747D
100
AcDbEntity
  8
細線
 48
0.2
100
AcDbLine
 10
5639.536248640212
 20
3615.127276893881
 30
0.0
 11
5628.1682660472
 21
3615.127276893881
 31
0.0
  0
ARC
  5
17D5D
330
747D
100
AcDbEntity
  8
細線
 48
0.2
100
AcDbCircle
 10
5633.852257343704
 20
3632.627276893879
 30
0.0
 40
18.49999999999796
100
AcDbArc
 50
253.3984504009772
 51
286.6015495990217
  0
ARC
  5
17D5E
330
747D
100
AcDbEntity
  8
細線
 48
0.2
100
AcDbCircle
 10
5628.852257343704
 20
3615.856767062633
 30
0.0
 40
1.0
100
AcDbArc
 50
179.9999999999984
 51
253.3984504009775
  0
LINE
  5
17D5F
330
747D
100
AcDbEntity
  8
細線
 48
0.2
100
AcDbLine
 10
5641.852257343703
 20
3618.327276893881
 30
0.0
 11
5621.852257343704
 21
3618.327276893884
 31
0.0
  0
LINE
  5
17D60
330
747D
100
AcDbEntity
  8
細線
 48
0.2
100
AcDbLine
 10
5641.852257343703
 20
3615.827276893881
 30
0.0
 11
5621.852257343704
 21
3615.827276893881
 31
0.0
  0
ARC
  5
17D61
330
747D
100
AcDbEntity
  8
細線
 48
0.2
100
AcDbCircle
 10
5638.852257343704
 20
3615.856767062633
 30
0.0
 40
1.0
100
AcDbArc
 50
286.6015495990217
 51
0.0
  0
LINE
  5
17D62
330
747D
100
AcDbEntity
  8
部品1
 48
0.2
100
AcDbLine
 10
5641.852257343703
 20
3622.827276893882
 30
0.0
 11
5621.852257343704
 21
3622.827276893882
 31
0.0
  0
LINE
  5
17D63
330
747D
100
AcDbEntity
  8
細線
 48
0.2
100
AcDbLine
 10
5641.852257343703
 20
3620.327276893882
 30
0.0
 11
5621.852257343704
 21
3620.327276893882
 31
0.0
  0
LINE
  5
17D64
330
747D
100
AcDbEntity
  8
部品1
100
AcDbLine
 10
4911.914705172385
 20
3616.077276893868
 30
0.0
 11
5621.852257343704
 21
3616.077276893874
 31
0.0
  0
LINE
  5
17D65
330
747D
100
AcDbEntity
  8
部品1
100
AcDbLine
 10
5731.914705172385
 20
3616.077276893876
 30
0.0
 11
6441.852257343704
 21
3616.077276893884
 31
0.0
  0
LINE
  5
17D66
330
747D
100
AcDbEntity
  8
部品1
100
AcDbLine
 10
5641.914705172385
 20
4493.077276893862
 30
0.0
 11
5641.914705172385
 21
3616.077276893874
 31
0.0
  0
LINE
  5
17D67
330
747D
100
AcDbEntity
  8
部品1
100
AcDbLine
 10
7371.914705172385
 20
4493.077276893862
 30
0.0
 11
7371.914705172385
 21
3616.077276893876
 31
0.0
  0
LINE
  5
17D68
330
747D
100
AcDbEntity
  8
部品1
100
AcDbLine
 10
8101.914705172383
 20
4493.077276893862
 30
0.0
 11
8101.914705172386
 21
3616.077276893884
 31
0.0
  0
LINE
  5
17D69
330
747D
100
AcDbEntity
  8
部品1
100
AcDbLine
 10
4911.914705172385
 20
4493.077276893865
 30
0.0
 11
4911.914705172385
 21
3616.077276893868
 31
0.0
  0
LINE
  5
17D6A
330
747D
100
AcDbEntity
  8
部品1
100
AcDbLine
 10
5731.914705172385
 20
4493.077276893862
 30
0.0
 11
5731.914705172385
 21
3616.077276893876
 31
0.0
  0
LINE
  5
17D6B
330
747D
100
AcDbEntity
  8
部品1
100
AcDbLine
 10
6461.914705172384
 20
4493.077276893862
 30
0.0
 11
6461.914705172384
 21
3616.077276893884
 31
0.0
  0
LINE
  5
17D6D
330
747D
100
AcDbEntity
  8
部品1
100
AcDbLine
 10
4879.914705172379
 20
4523.077276893864
 30
0.0
 11
4879.914705172378
 21
4502.077276893864
 31
0.0
  0
LINE
  5
17D6E
330
747D
100
AcDbEntity
  8
部品1
100
AcDbLine
 10
5673.914705172378
 20
4523.077276893871
 30
0.0
 11
5673.914705172378
 21
4502.077276893873
 31
0.0
  0
ARC
  5
17D6F
330
747D
100
AcDbEntity
  8
部品1
100
AcDbCircle
 10
4884.914705172377
 20
4502.077276893864
 30
0.0
 40
5.0
100
AcDbArc
 50
180.0
 51
270.0000000000007
  0
ARC
  5
17D70
330
747D
100
AcDbEntity
  8
部品1
100
AcDbCircle
 10
5668.914705172378
 20
4502.077276893873
 30
0.0
 40
5.0
100
AcDbArc
 50
270.0000000000007
 51
0.0
  0
LINE
  5
17D71
330
747D
100
AcDbEntity
  8
部品1
100
AcDbLine
 10
4909.914705172377
 20
4497.077276893864
 30
0.0
 11
4909.914705172377
 21
3612.577276893865
 31
0.0
  0
LINE
  5
17D72
330
747D
100
AcDbEntity
  8
部品1
100
AcDbLine
 10
5643.914705172377
 20
4497.077276893873
 30
0.0
 11
5643.914705172377
 21
3612.577276893869
 31
0.0
  0
ARC
  5
17D74
330
747D
100
AcDbEntity
  8
部品1
100
AcDbCircle
 10
6488.914705172375
 20
4502.077276893873
 30
0.0
 40
5.0
100
AcDbArc
 50
270.0000000000007
 51
0.0
  0
LINE
  5
17D75
330
747D
100
AcDbEntity
  8
部品1
100
AcDbLine
 10
6493.914705172376
 20
4523.077276893871
 30
0.0
 11
6493.914705172376
 21
4502.077276893873
 31
0.0
  0
LINE
  5
17D76
330
747D
100
AcDbEntity
  8
部品1
100
AcDbLine
 10
5704.914705172377
 20
4497.077276893864
 30
0.0
 11
6488.914705172375
 21
4497.077276893873
 31
0.0
  0
LINE
  5
17D77
330
747D
100
AcDbEntity
  8
部品1
100
AcDbLine
 10
5699.914705172377
 20
4523.077276893864
 30
0.0
 11
6493.914705172376
 21
4523.077276893871
 31
0.0
  0
LINE
  5
17D78
330
747D
100
AcDbEntity
  8
部品1
100
AcDbLine
 10
5729.914705172378
 20
4526.577276893866
 30
0.0
 11
6463.914705172378
 21
4526.57727689387
 31
0.0
  0
LINE
  5
17D79
330
747D
100
AcDbEntity
  8
部品1
100
AcDbLine
 10
5729.914705172378
 20
4495.577276893865
 30
0.0
 11
6463.914705172378
 21
4495.577276893871
 31
0.0
  0
ARC
  5
17D7A
330
747D
100
AcDbEntity
  8
部品1
100
AcDbCircle
 10
5704.914705172377
 20
4502.077276893864
 30
0.0
 40
5.0
100
AcDbArc
 50
180.0
 51
270.0000000000007
  0
LINE
  5
17D7B
330
747D
100
AcDbEntity
  8
部品1
100
AcDbLine
 10
5699.914705172377
 20
4523.077276893864
 30
0.0
 11
5699.914705172377
 21
4502.077276893864
 31
0.0
  0
ARC
  5
17D7C
330
747D
100
AcDbEntity
  8
部品1
100
AcDbCircle
 10
8128.914705172377
 20
4502.077276893877
 30
0.0
 40
5.0
100
AcDbArc
 50
270.0000000000007
 51
0.0
  0
LINE
  5
17D7D
330
747D
100
AcDbEntity
  8
部品1
100
AcDbLine
 10
8133.914705172378
 20
4523.077276893874
 30
0.0
 11
8133.914705172378
 21
4502.077276893877
 31
0.0
  0
LINE
  5
17D7E
330
747D
100
AcDbEntity
  8
部品1
100
AcDbLine
 10
7344.91470517238
 20
4497.077276893867
 30
0.0
 11
8128.914705172377
 21
4497.077276893877
 31
0.0
  0
LINE
  5
17D7F
330
747D
100
AcDbEntity
  8
部品1
100
AcDbLine
 10
7339.914705172382
 20
4523.077276893868
 30
0.0
 11
8133.914705172378
 21
4523.077276893874
 31
0.0
  0
LINE
  5
17D80
330
747D
100
AcDbEntity
  8
部品1
100
AcDbLine
 10
7369.914705172378
 20
4526.57727689387
 30
0.0
 11
8103.914705172378
 21
4526.577276893873
 31
0.0
  0
LINE
  5
17D81
330
747D
100
AcDbEntity
  8
部品1
100
AcDbLine
 10
7369.914705172378
 20
4495.577276893869
 30
0.0
 11
8103.914705172378
 21
4495.577276893874
 31
0.0
  0
ARC
  5
17D82
330
747D
100
AcDbEntity
  8
部品1
100
AcDbCircle
 10
7344.91470517238
 20
4502.077276893867
 30
0.0
 40
5.0
100
AcDbArc
 50
180.0
 51
270.0000000000007
  0
LINE
  5
17D83
330
747D
100
AcDbEntity
  8
部品1
100
AcDbLine
 10
7339.914705172382
 20
4523.077276893868
 30
0.0
 11
7339.91470517238
 21
4502.077276893867
 31
0.0
  0
LINE
  5
17D84
330
747D
100
AcDbEntity
  8
部品1
100
AcDbLine
 10
8103.914705172378
 20
4497.077276893877
 30
0.0
 11
8103.914705172378
 21
3612.577276893881
 31
0.0
  0
LINE
  5
17D85
330
747D
100
AcDbEntity
  8
部品1
100
AcDbLine
 10
7369.914705172378
 20
4497.077276893867
 30
0.0
 11
7369.91470517238
 21
3612.577276893876
 31
0.0
  0
LINE
  5
17D86
330
747D
100
AcDbEntity
  8
部品1
100
AcDbLine
 10
6463.914705172378
 20
4497.077276893873
 30
0.0
 11
6463.914705172379
 21
3612.577276893875
 31
0.0
  0
LINE
  5
17D87
330
747D
100
AcDbEntity
  8
部品1
100
AcDbLine
 10
5729.914705172379
 20
4497.077276893864
 30
0.0
 11
5729.914705172379
 21
3612.57727689387
 31
0.0
  0
DIMENSION
  5
17DB7
330
747D
100
AcDbEntity
  8
寸法
100
AcDbDimension
  2
*D30
 10
4548.810177564782
 20
3631.077276893868
 30
0.0
 11
4548.810177564782
 21
4051.077276893866
 31
0.0
 70
   160
  1
有効開口部\P高さ<>
 71
     5
 42
845.9999999999963
  3
INABA_S40G
100
AcDbAlignedDimension
 13
4866.914705172384
 23
4477.077276893864
 33
0.0
 14
4866.914705172384
 24
3631.077276893868
 34
0.0
 50
90.0
100
AcDbRotatedDimension
1001
ACAD
1000
DSTYLE
1002
{
1070
   288
1070
     1
1002
}
  0
CIRCLE
  5
18338
330
747D
100
AcDbEntity
  8
細線
100
AcDbCircle
 10
7422.91470517238
 20
5219.077276893838
 30
0.0
 40
10.0
  0
CIRCLE
  5
18339
330
747D
100
AcDbEntity
  8
細線
100
AcDbCircle
 10
7422.91470517238
 20
5219.077276893838
 30
0.0
 40
11.52627944162938
  0
CIRCLE
  5
1833A
330
747D
100
AcDbEntity
  8
細線
100
AcDbCircle
 10
7422.91470517238
 20
5219.077276893838
 30
0.0
 40
13.0
  0
CIRCLE
  5
1833B
330
747D
100
AcDbEntity
  8
細線
100
AcDbCircle
 10
7422.91470517238
 20
5219.077276893838
 30
0.0
 40
20.0
  0
CIRCLE
  5
1833C
330
747D
100
AcDbEntity
  8
細線
100
AcDbCircle
 10
7422.91470517238
 20
5219.077276893838
 30
0.0
 40
19.19615242270703
  0
ARC
  5
1833D
330
747D
100
AcDbEntity
  8
細線
100
AcDbCircle
 10
7427.584871693652
 20
5154.0908364213
 30
0.0
 40
6.0
100
AcDbArc
 50
0.5115363837211788
 51
90.0
  0
ARC
  5
1833E
330
747D
100
AcDbEntity
  8
細線
100
AcDbCircle
 10
6626.414705172378
 20
5074.577276893839
 30
0.0
 40
800.0
100
AcDbArc
 50
0.3603531902116055
 51
6.122234843093669
  0
ARC
  5
1833F
330
747D
100
AcDbEntity
  8
細線
100
AcDbCircle
 10
3449.914705172377
 20
5118.577276893838
 30
0.0
 40
3994.0
100
AcDbArc
 50
359.4037568288795
 51
0.5962431711204776
  0
LINE
  5
18340
330
747D
100
AcDbEntity
  8
細線
100
AcDbLine
 10
7421.398981746449
 20
5074.577276893839
 30
0.0
 11
7415.914705172378
 21
5074.577276893839
 31
0.0
  0
ARC
  5
18341
330
747D
100
AcDbEntity
  8
細線
100
AcDbCircle
 10
7421.398981746449
 20
5079.577276893838
 30
0.0
 40
5.0
100
AcDbArc
 50
270.0
 51
0.3603531902116055
  0
LINE
  5
18342
330
747D
100
AcDbEntity
  8
細線
100
AcDbLine
 10
7427.584871693652
 20
5077.063717366376
 30
0.0
 11
7425.721251809959
 21
5077.063717366376
 31
0.0
  0
ARC
  5
18343
330
747D
100
AcDbEntity
  8
細線
100
AcDbCircle
 10
7427.584871693652
 20
5083.063717366377
 30
0.0
 40
6.0
100
AcDbArc
 50
270.0
 51
359.4884636162267
  0
ARC
  5
18344
330
747D
100
AcDbEntity
  8
細線
100
AcDbCircle
 10
3449.914705172377
 20
5118.577276893838
 30
0.0
 40
3983.8287
100
AcDbArc
 50
359.4884636162788
 51
0.5115363837211788
  0
ARC
  5
18345
330
747D
100
AcDbEntity
  8
細線
100
AcDbCircle
 10
7418.869120265134
 20
5159.577276893839
 30
0.0
 40
3.0
100
AcDbArc
 50
6.122234843093669
 51
90.0
  0
LINE
  5
18346
330
747D
100
AcDbEntity
  8
細線
100
AcDbLine
 10
7402.916435281364
 20
5178.577276893839
 30
0.0
 11
7443.549640917009
 21
5178.577276893839
 31
0.0
  0
LINE
  5
18347
330
747D
100
AcDbEntity
  8
細線
100
AcDbLine
 10
7415.914705172378
 20
5166.077276893838
 30
0.0
 11
7437.698770289246
 21
5166.077276893838
 31
0.0
  0
LINE
  5
18348
330
747D
100
AcDbEntity
  8
細線
100
AcDbLine
 10
7407.295661536855
 20
5168.577276893838
 30
0.0
 11
7414.914705172377
 21
5168.577276893838
 31
0.0
  0
LINE
  5
18349
330
747D
100
AcDbEntity
  8
細線
100
AcDbLine
 10
7418.869120265134
 20
5162.577276893839
 30
0.0
 11
7415.914705172379
 21
5162.577276893839
 31
0.0
  0
ARC
  5
1834A
330
747D
100
AcDbEntity
  8
細線
100
AcDbCircle
 10
7414.914705172377
 20
5167.577276893839
 30
0.0
 40
1.0
100
AcDbArc
 50
0.0
 51
90.0
  0
ARC
  5
1834B
330
747D
100
AcDbEntity
  8
細線
100
AcDbCircle
 10
7443.549640917009
 20
5172.577276893838
 30
0.0
 40
6.0
100
AcDbArc
 50
0.7746786087583476
 51
90.0
  0
ARC
  5
1834C
330
747D
100
AcDbEntity
  8
細線
100
AcDbCircle
 10
7437.698770289246
 20
5160.077276893838
 30
0.0
 40
6.0
100
AcDbArc
 50
0.5962431711204776
 51
90.0
  0
LINE
  5
1834D
330
747D
100
AcDbEntity
  8
細線
100
AcDbLine
 10
7427.584871693652
 20
5160.090836421299
 30
0.0
 11
7421.824836187167
 21
5160.090836421299
 31
0.0
  0
ARC
  5
1834E
330
747D
100
AcDbEntity
  8
細線
100
AcDbCircle
 10
7691.914705172378
 20
5118.577276893838
 30
0.0
 40
294.0
100
AcDbArc
 50
171.2120626773852
 51
188.7879373226147
  0
ARC
  5
1834F
330
747D
100
AcDbEntity
  8
細線
100
AcDbCircle
 10
7402.916435281364
 20
5172.577276893838
 30
0.0
 40
6.0
100
AcDbArc
 50
90.0
 51
169.4161974034797
  0
ARC
  5
18350
330
747D
100
AcDbEntity
  8
細線
100
AcDbCircle
 10
7407.295661536855
 20
5162.577276893839
 30
0.0
 40
6.0
100
AcDbArc
 50
90.0
 51
171.2120626773852
  0
LINE
  5
18351
330
747D
100
AcDbEntity
  8
細線
100
AcDbLine
 10
7443.549640917009
 20
5058.577276893839
 30
0.0
 11
7402.916435281364
 21
5058.577276893839
 31
0.0
  0
LINE
  5
18352
330
747D
100
AcDbEntity
  8
細線
100
AcDbLine
 10
7437.698770289246
 20
5071.077276893839
 30
0.0
 11
7415.914705172378
 21
5071.077276893839
 31
0.0
  0
LINE
  5
18353
330
747D
100
AcDbEntity
  8
細線
100
AcDbLine
 10
7414.914705172377
 20
5068.577276893838
 30
0.0
 11
7407.295661536855
 21
5068.577276893838
 31
0.0
  0
ARC
  5
18354
330
747D
100
AcDbEntity
  8
細線
100
AcDbCircle
 10
7414.914705172377
 20
5069.577276893839
 30
0.0
 40
1.0
100
AcDbArc
 50
270.0
 51
0.0
  0
ARC
  5
18355
330
747D
100
AcDbEntity
  8
細線
100
AcDbCircle
 10
7443.549640917009
 20
5064.577276893839
 30
0.0
 40
6.0
100
AcDbArc
 50
270.0
 51
359.2253213912417
  0
ARC
  5
18356
330
747D
100
AcDbEntity
  8
細線
100
AcDbCircle
 10
7402.916435281364
 20
5064.577276893839
 30
0.0
 40
6.0
100
AcDbArc
 50
190.5838025965202
 51
270.0
  0
ARC
  5
18357
330
747D
100
AcDbEntity
  8
細線
100
AcDbCircle
 10
3449.914705172377
 20
5118.577276893838
 30
0.0
 40
4000.0
100
AcDbArc
 50
359.2253213912417
 51
0.7746786087583476
  0
LINE
  5
18358
330
747D
100
AcDbEntity
  8
細線
100
AcDbLine
 10
7415.914705172378
 20
5069.577276893839
 30
0.0
 11
7415.914705172378
 21
5167.577276893839
 31
0.0
  0
ARC
  5
18359
330
747D
100
AcDbEntity
  8
細線
100
AcDbCircle
 10
7691.914705172378
 20
5118.577276893838
 30
0.0
 40
300.0
100
AcDbArc
 50
169.4161974034797
 51
190.5838025965202
  0
ARC
  5
1835A
330
747D
100
AcDbEntity
  8
細線
100
AcDbCircle
 10
7407.295661536855
 20
5074.577276893839
 30
0.0
 40
6.0
100
AcDbArc
 50
188.7879373226147
 51
270.0
  0
ARC
  5
1835B
330
747D
100
AcDbEntity
  8
細線
100
AcDbCircle
 10
7437.698770289246
 20
5077.077276893838
 30
0.0
 40
6.0
100
AcDbArc
 50
270.0
 51
359.4037568288275
  0
CIRCLE
  5
18384
330
747D
100
AcDbEntity
  8
細線
100
AcDbCircle
 10
5782.914705172379
 20
5219.077276893837
 30
0.0
 40
10.0
  0
CIRCLE
  5
18385
330
747D
100
AcDbEntity
  8
細線
100
AcDbCircle
 10
5782.914705172379
 20
5219.077276893837
 30
0.0
 40
11.52627944162938
  0
CIRCLE
  5
18386
330
747D
100
AcDbEntity
  8
細線
100
AcDbCircle
 10
5782.914705172379
 20
5219.077276893837
 30
0.0
 40
13.0
  0
CIRCLE
  5
18387
330
747D
100
AcDbEntity
  8
細線
100
AcDbCircle
 10
5782.914705172379
 20
5219.077276893837
 30
0.0
 40
20.0
  0
CIRCLE
  5
18388
330
747D
100
AcDbEntity
  8
細線
100
AcDbCircle
 10
5782.914705172379
 20
5219.077276893837
 30
0.0
 40
19.19615242270703
  0
ARC
  5
18389
330
747D
100
AcDbEntity
  8
細線
100
AcDbCircle
 10
5787.584871693653
 20
5154.090836421297
 30
0.0
 40
6.0
100
AcDbArc
 50
0.5115363837211788
 51
90.0
  0
ARC
  5
1838A
330
747D
100
AcDbEntity
  8
細線
100
AcDbCircle
 10
4986.414705172378
 20
5074.577276893837
 30
0.0
 40
800.0
100
AcDbArc
 50
0.3603531902116055
 51
6.122234843093669
  0
ARC
  5
1838B
330
747D
100
AcDbEntity
  8
細線
100
AcDbCircle
 10
1809.914705172377
 20
5118.577276893837
 30
0.0
 40
3994.0
100
AcDbArc
 50
359.4037568288795
 51
0.5962431711204776
  0
LINE
  5
1838C
330
747D
100
AcDbEntity
  8
細線
100
AcDbLine
 10
5781.39898174645
 20
5074.577276893837
 30
0.0
 11
5775.914705172378
 21
5074.577276893837
 31
0.0
  0
ARC
  5
1838D
330
747D
100
AcDbEntity
  8
細線
100
AcDbCircle
 10
5781.39898174645
 20
5079.577276893837
 30
0.0
 40
5.0
100
AcDbArc
 50
270.0
 51
0.3603531902116055
  0
LINE
  5
1838E
330
747D
100
AcDbEntity
  8
細線
100
AcDbLine
 10
5787.584871693653
 20
5077.063717366375
 30
0.0
 11
5785.721251809959
 21
5077.063717366375
 31
0.0
  0
ARC
  5
1838F
330
747D
100
AcDbEntity
  8
細線
100
AcDbCircle
 10
5787.584871693653
 20
5083.063717366375
 30
0.0
 40
6.0
100
AcDbArc
 50
270.0
 51
359.4884636162267
  0
ARC
  5
18390
330
747D
100
AcDbEntity
  8
細線
100
AcDbCircle
 10
1809.914705172377
 20
5118.577276893837
 30
0.0
 40
3983.8287
100
AcDbArc
 50
359.4884636162788
 51
0.5115363837211788
  0
ARC
  5
18391
330
747D
100
AcDbEntity
  8
細線
100
AcDbCircle
 10
5778.869120265134
 20
5159.577276893837
 30
0.0
 40
3.0
100
AcDbArc
 50
6.122234843093669
 51
90.0
  0
LINE
  5
18392
330
747D
100
AcDbEntity
  8
細線
100
AcDbLine
 10
5762.916435281364
 20
5178.577276893837
 30
0.0
 11
5803.549640917008
 21
5178.577276893837
 31
0.0
  0
LINE
  5
18393
330
747D
100
AcDbEntity
  8
細線
100
AcDbLine
 10
5775.914705172378
 20
5166.077276893837
 30
0.0
 11
5797.698770289246
 21
5166.077276893837
 31
0.0
  0
LINE
  5
18394
330
747D
100
AcDbEntity
  8
細線
100
AcDbLine
 10
5767.295661536855
 20
5168.577276893837
 30
0.0
 11
5774.914705172378
 21
5168.577276893837
 31
0.0
  0
LINE
  5
18395
330
747D
100
AcDbEntity
  8
細線
100
AcDbLine
 10
5778.869120265134
 20
5162.577276893837
 30
0.0
 11
5775.914705172379
 21
5162.577276893837
 31
0.0
  0
ARC
  5
18396
330
747D
100
AcDbEntity
  8
細線
100
AcDbCircle
 10
5774.914705172378
 20
5167.577276893837
 30
0.0
 40
1.0
100
AcDbArc
 50
0.0
 51
90.0
  0
ARC
  5
18397
330
747D
100
AcDbEntity
  8
細線
100
AcDbCircle
 10
5803.549640917008
 20
5172.577276893837
 30
0.0
 40
6.0
100
AcDbArc
 50
0.7746786087583476
 51
90.0
  0
ARC
  5
18398
330
747D
100
AcDbEntity
  8
細線
100
AcDbCircle
 10
5797.698770289246
 20
5160.077276893836
 30
0.0
 40
6.0
100
AcDbArc
 50
0.5962431711204776
 51
90.0
  0
LINE
  5
18399
330
747D
100
AcDbEntity
  8
細線
100
AcDbLine
 10
5787.584871693653
 20
5160.090836421297
 30
0.0
 11
5781.824836187166
 21
5160.090836421297
 31
0.0
  0
ARC
  5
1839A
330
747D
100
AcDbEntity
  8
細線
100
AcDbCircle
 10
6051.914705172378
 20
5118.577276893837
 30
0.0
 40
294.0
100
AcDbArc
 50
171.2120626773852
 51
188.7879373226147
  0
ARC
  5
1839B
330
747D
100
AcDbEntity
  8
細線
100
AcDbCircle
 10
5762.916435281364
 20
5172.577276893837
 30
0.0
 40
6.0
100
AcDbArc
 50
90.0
 51
169.4161974034797
  0
ARC
  5
1839C
330
747D
100
AcDbEntity
  8
細線
100
AcDbCircle
 10
5767.295661536855
 20
5162.577276893837
 30
0.0
 40
6.0
100
AcDbArc
 50
90.0
 51
171.2120626773852
  0
LINE
  5
1839D
330
747D
100
AcDbEntity
  8
細線
100
AcDbLine
 10
5803.549640917008
 20
5058.577276893837
 30
0.0
 11
5762.916435281364
 21
5058.577276893837
 31
0.0
  0
LINE
  5
1839E
330
747D
100
AcDbEntity
  8
細線
100
AcDbLine
 10
5797.698770289246
 20
5071.077276893837
 30
0.0
 11
5775.914705172378
 21
5071.077276893837
 31
0.0
  0
LINE
  5
1839F
330
747D
100
AcDbEntity
  8
細線
100
AcDbLine
 10
5774.914705172378
 20
5068.577276893837
 30
0.0
 11
5767.295661536855
 21
5068.577276893837
 31
0.0
  0
ARC
  5
183A0
330
747D
100
AcDbEntity
  8
細線
100
AcDbCircle
 10
5774.914705172378
 20
5069.577276893837
 30
0.0
 40
1.0
100
AcDbArc
 50
270.0
 51
0.0
  0
ARC
  5
183A1
330
747D
100
AcDbEntity
  8
細線
100
AcDbCircle
 10
5803.549640917008
 20
5064.577276893837
 30
0.0
 40
6.0
100
AcDbArc
 50
270.0
 51
359.2253213912417
  0
ARC
  5
183A2
330
747D
100
AcDbEntity
  8
細線
100
AcDbCircle
 10
5762.916435281364
 20
5064.577276893837
 30
0.0
 40
6.0
100
AcDbArc
 50
190.5838025965202
 51
270.0
  0
ARC
  5
183A3
330
747D
100
AcDbEntity
  8
細線
100
AcDbCircle
 10
1809.914705172377
 20
5118.577276893837
 30
0.0
 40
4000.0
100
AcDbArc
 50
359.2253213912417
 51
0.7746786087583476
  0
LINE
  5
183A4
330
747D
100
AcDbEntity
  8
細線
100
AcDbLine
 10
5775.914705172378
 20
5069.577276893837
 30
0.0
 11
5775.914705172378
 21
5167.577276893837
 31
0.0
  0
ARC
  5
183A5
330
747D
100
AcDbEntity
  8
細線
100
AcDbCircle
 10
6051.914705172378
 20
5118.577276893837
 30
0.0
 40
300.0
100
AcDbArc
 50
169.4161974034797
 51
190.5838025965202
  0
ARC
  5
183A6
330
747D
100
AcDbEntity
  8
細線
100
AcDbCircle
 10
5767.295661536855
 20
5074.577276893837
 30
0.0
 40
6.0
100
AcDbArc
 50
188.7879373226147
 51
270.0
  0
ARC
  5
183A7
330
747D
100
AcDbEntity
  8
細線
100
AcDbCircle
 10
5797.698770289246
 20
5077.077276893837
 30
0.0
 40
6.0
100
AcDbArc
 50
270.0
 51
359.4037568288275
  0
CIRCLE
  5
183D0
330
747D
100
AcDbEntity
  8
細線
100
AcDbCircle
 10
4962.914705172381
 20
5219.077276893837
 30
0.0
 40
10.0
  0
CIRCLE
  5
183D1
330
747D
100
AcDbEntity
  8
細線
100
AcDbCircle
 10
4962.914705172381
 20
5219.077276893837
 30
0.0
 40
11.52627944162938
  0
CIRCLE
  5
183D2
330
747D
100
AcDbEntity
  8
細線
100
AcDbCircle
 10
4962.914705172381
 20
5219.077276893837
 30
0.0
 40
13.0
  0
CIRCLE
  5
183D3
330
747D
100
AcDbEntity
  8
細線
100
AcDbCircle
 10
4962.914705172381
 20
5219.077276893837
 30
0.0
 40
20.0
  0
CIRCLE
  5
183D4
330
747D
100
AcDbEntity
  8
細線
100
AcDbCircle
 10
4962.914705172381
 20
5219.077276893837
 30
0.0
 40
19.19615242270703
  0
ARC
  5
183D5
330
747D
100
AcDbEntity
  8
細線
100
AcDbCircle
 10
4967.584871693652
 20
5154.090836421297
 30
0.0
 40
6.0
100
AcDbArc
 50
0.5115363837211788
 51
90.0
  0
ARC
  5
183D6
330
747D
100
AcDbEntity
  8
細線
100
AcDbCircle
 10
4166.414705172377
 20
5074.577276893837
 30
0.0
 40
800.0
100
AcDbArc
 50
0.3603531902116055
 51
6.122234843093669
  0
ARC
  5
183D7
330
747D
100
AcDbEntity
  8
細線
100
AcDbCircle
 10
989.9147051723776
 20
5118.577276893837
 30
0.0
 40
3994.0
100
AcDbArc
 50
359.4037568288795
 51
0.5962431711204776
  0
LINE
  5
183D8
330
747D
100
AcDbEntity
  8
細線
100
AcDbLine
 10
4961.39898174645
 20
5074.577276893837
 30
0.0
 11
4955.914705172378
 21
5074.577276893837
 31
0.0
  0
ARC
  5
183D9
330
747D
100
AcDbEntity
  8
細線
100
AcDbCircle
 10
4961.39898174645
 20
5079.577276893837
 30
0.0
 40
5.0
100
AcDbArc
 50
270.0
 51
0.3603531902116055
  0
LINE
  5
183DA
330
747D
100
AcDbEntity
  8
細線
100
AcDbLine
 10
4967.584871693652
 20
5077.063717366375
 30
0.0
 11
4965.721251809958
 21
5077.063717366375
 31
0.0
  0
ARC
  5
183DB
330
747D
100
AcDbEntity
  8
細線
100
AcDbCircle
 10
4967.584871693652
 20
5083.063717366375
 30
0.0
 40
6.0
100
AcDbArc
 50
270.0
 51
359.4884636162267
  0
ARC
  5
183DC
330
747D
100
AcDbEntity
  8
細線
100
AcDbCircle
 10
989.9147051723776
 20
5118.577276893837
 30
0.0
 40
3983.8287
100
AcDbArc
 50
359.4884636162788
 51
0.5115363837211788
  0
ARC
  5
183DD
330
747D
100
AcDbEntity
  8
細線
100
AcDbCircle
 10
4958.869120265135
 20
5159.577276893837
 30
0.0
 40
3.0
100
AcDbArc
 50
6.122234843093669
 51
90.0
  0
LINE
  5
183DE
330
747D
100
AcDbEntity
  8
細線
100
AcDbLine
 10
4942.916435281365
 20
5178.577276893837
 30
0.0
 11
4983.549640917008
 21
5178.577276893837
 31
0.0
  0
LINE
  5
183DF
330
747D
100
AcDbEntity
  8
細線
100
AcDbLine
 10
4955.914705172378
 20
5166.077276893837
 30
0.0
 11
4977.698770289247
 21
5166.077276893837
 31
0.0
  0
LINE
  5
183E0
330
747D
100
AcDbEntity
  8
細線
100
AcDbLine
 10
4947.295661536856
 20
5168.577276893837
 30
0.0
 11
4954.914705172377
 21
5168.577276893837
 31
0.0
  0
LINE
  5
183E1
330
747D
100
AcDbEntity
  8
細線
100
AcDbLine
 10
4958.869120265135
 20
5162.577276893837
 30
0.0
 11
4955.914705172381
 21
5162.577276893837
 31
0.0
  0
ARC
  5
183E2
330
747D
100
AcDbEntity
  8
細線
100
AcDbCircle
 10
4954.914705172377
 20
5167.577276893837
 30
0.0
 40
1.0
100
AcDbArc
 50
0.0
 51
90.0
  0
ARC
  5
183E3
330
747D
100
AcDbEntity
  8
細線
100
AcDbCircle
 10
4983.549640917008
 20
5172.577276893837
 30
0.0
 40
6.0
100
AcDbArc
 50
0.7746786087583476
 51
90.0
  0
ARC
  5
183E4
330
747D
100
AcDbEntity
  8
細線
100
AcDbCircle
 10
4977.698770289247
 20
5160.077276893836
 30
0.0
 40
6.0
100
AcDbArc
 50
0.5962431711204776
 51
90.0
  0
LINE
  5
183E5
330
747D
100
AcDbEntity
  8
細線
100
AcDbLine
 10
4967.584871693652
 20
5160.090836421297
 30
0.0
 11
4961.824836187166
 21
5160.090836421297
 31
0.0
  0
ARC
  5
183E6
330
747D
100
AcDbEntity
  8
細線
100
AcDbCircle
 10
5231.914705172377
 20
5118.577276893837
 30
0.0
 40
294.0
100
AcDbArc
 50
171.2120626773852
 51
188.7879373226147
  0
ARC
  5
183E7
330
747D
100
AcDbEntity
  8
細線
100
AcDbCircle
 10
4942.916435281365
 20
5172.577276893837
 30
0.0
 40
6.0
100
AcDbArc
 50
90.0
 51
169.4161974034797
  0
ARC
  5
183E8
330
747D
100
AcDbEntity
  8
細線
100
AcDbCircle
 10
4947.295661536856
 20
5162.577276893837
 30
0.0
 40
6.0
100
AcDbArc
 50
90.0
 51
171.2120626773852
  0
LINE
  5
183E9
330
747D
100
AcDbEntity
  8
細線
100
AcDbLine
 10
4983.549640917008
 20
5058.577276893837
 30
0.0
 11
4942.916435281365
 21
5058.577276893837
 31
0.0
  0
LINE
  5
183EA
330
747D
100
AcDbEntity
  8
細線
100
AcDbLine
 10
4977.698770289247
 20
5071.077276893837
 30
0.0
 11
4955.914705172378
 21
5071.077276893837
 31
0.0
  0
LINE
  5
183EB
330
747D
100
AcDbEntity
  8
細線
100
AcDbLine
 10
4954.914705172377
 20
5068.577276893837
 30
0.0
 11
4947.295661536856
 21
5068.577276893837
 31
0.0
  0
ARC
  5
183EC
330
747D
100
AcDbEntity
  8
細線
100
AcDbCircle
 10
4954.914705172377
 20
5069.577276893837
 30
0.0
 40
1.0
100
AcDbArc
 50
270.0
 51
0.0
  0
ARC
  5
183ED
330
747D
100
AcDbEntity
  8
細線
100
AcDbCircle
 10
4983.549640917008
 20
5064.577276893837
 30
0.0
 40
6.0
100
AcDbArc
 50
270.0
 51
359.2253213912417
  0
ARC
  5
183EE
330
747D
100
AcDbEntity
  8
細線
100
AcDbCircle
 10
4942.916435281365
 20
5064.577276893837
 30
0.0
 40
6.0
100
AcDbArc
 50
190.5838025965202
 51
270.0
  0
ARC
  5
183EF
330
747D
100
AcDbEntity
  8
細線
100
AcDbCircle
 10
989.9147051723776
 20
5118.577276893837
 30
0.0
 40
4000.0
100
AcDbArc
 50
359.2253213912417
 51
0.7746786087583476
  0
LINE
  5
183F0
330
747D
100
AcDbEntity
  8
細線
100
AcDbLine
 10
4955.914705172378
 20
5069.577276893837
 30
0.0
 11
4955.914705172378
 21
5167.577276893837
 31
0.0
  0
ARC
  5
183F1
330
747D
100
AcDbEntity
  8
細線
100
AcDbCircle
 10
5231.914705172377
 20
5118.577276893837
 30
0.0
 40
300.0
100
AcDbArc
 50
169.4161974034797
 51
190.5838025965202
  0
ARC
  5
183F2
330
747D
100
AcDbEntity
  8
細線
100
AcDbCircle
 10
4947.295661536856
 20
5074.577276893837
 30
0.0
 40
6.0
100
AcDbArc
 50
188.7879373226147
 51
270.0
  0
ARC
  5
183F3
330
747D
100
AcDbEntity
  8
細線
100
AcDbCircle
 10
4977.698770289247
 20
5077.077276893837
 30
0.0
 40
6.0
100
AcDbArc
 50
270.0
 51
359.4037568288275
  0
CIRCLE
  5
1841C
330
747D
100
AcDbEntity
  8
細線
100
AcDbCircle
 10
4962.914705172381
 20
4305.077276893842
 30
0.0
 40
10.0
  0
CIRCLE
  5
1841D
330
747D
100
AcDbEntity
  8
細線
100
AcDbCircle
 10
4962.914705172381
 20
4305.077276893842
 30
0.0
 40
11.52627944162938
  0
CIRCLE
  5
1841E
330
747D
100
AcDbEntity
  8
細線
100
AcDbCircle
 10
4962.914705172381
 20
4305.077276893842
 30
0.0
 40
13.0
  0
CIRCLE
  5
1841F
330
747D
100
AcDbEntity
  8
細線
100
AcDbCircle
 10
4962.914705172381
 20
4305.077276893842
 30
0.0
 40
20.0
  0
CIRCLE
  5
18420
330
747D
100
AcDbEntity
  8
細線
100
AcDbCircle
 10
4962.914705172381
 20
4305.077276893842
 30
0.0
 40
19.19615242270703
  0
ARC
  5
18421
330
747D
100
AcDbEntity
  8
細線
100
AcDbCircle
 10
4967.584871693652
 20
4240.090836421304
 30
0.0
 40
6.0
100
AcDbArc
 50
0.5115363837211788
 51
90.0
  0
ARC
  5
18422
330
747D
100
AcDbEntity
  8
細線
100
AcDbCircle
 10
4166.414705172377
 20
4160.577276893842
 30
0.0
 40
800.0
100
AcDbArc
 50
0.3603531902116055
 51
6.122234843093669
  0
ARC
  5
18423
330
747D
100
AcDbEntity
  8
細線
100
AcDbCircle
 10
989.9147051723776
 20
4204.577276893843
 30
0.0
 40
3994.0
100
AcDbArc
 50
359.4037568288795
 51
0.5962431711204776
  0
LINE
  5
18424
330
747D
100
AcDbEntity
  8
細線
100
AcDbLine
 10
4961.39898174645
 20
4160.577276893842
 30
0.0
 11
4955.914705172378
 21
4160.577276893842
 31
0.0
  0
ARC
  5
18425
330
747D
100
AcDbEntity
  8
細線
100
AcDbCircle
 10
4961.39898174645
 20
4165.577276893843
 30
0.0
 40
5.0
100
AcDbArc
 50
270.0
 51
0.3603531902116055
  0
LINE
  5
18426
330
747D
100
AcDbEntity
  8
細線
100
AcDbLine
 10
4967.584871693652
 20
4163.06371736638
 30
0.0
 11
4965.721251809958
 21
4163.06371736638
 31
0.0
  0
ARC
  5
18427
330
747D
100
AcDbEntity
  8
細線
100
AcDbCircle
 10
4967.584871693652
 20
4169.06371736638
 30
0.0
 40
6.0
100
AcDbArc
 50
270.0
 51
359.4884636162267
  0
ARC
  5
18428
330
747D
100
AcDbEntity
  8
細線
100
AcDbCircle
 10
989.9147051723776
 20
4204.577276893843
 30
0.0
 40
3983.8287
100
AcDbArc
 50
359.4884636162788
 51
0.5115363837211788
  0
ARC
  5
18429
330
747D
100
AcDbEntity
  8
細線
100
AcDbCircle
 10
4958.869120265135
 20
4245.577276893842
 30
0.0
 40
3.0
100
AcDbArc
 50
6.122234843093669
 51
90.0
  0
LINE
  5
1842A
330
747D
100
AcDbEntity
  8
細線
100
AcDbLine
 10
4942.916435281365
 20
4264.577276893843
 30
0.0
 11
4983.549640917008
 21
4264.577276893843
 31
0.0
  0
LINE
  5
1842B
330
747D
100
AcDbEntity
  8
細線
100
AcDbLine
 10
4955.914705172378
 20
4252.077276893843
 30
0.0
 11
4977.698770289247
 21
4252.077276893843
 31
0.0
  0
LINE
  5
1842C
330
747D
100
AcDbEntity
  8
細線
100
AcDbLine
 10
4947.295661536856
 20
4254.577276893843
 30
0.0
 11
4954.914705172377
 21
4254.577276893843
 31
0.0
  0
LINE
  5
1842D
330
747D
100
AcDbEntity
  8
細線
100
AcDbLine
 10
4958.869120265135
 20
4248.577276893843
 30
0.0
 11
4955.914705172381
 21
4248.577276893843
 31
0.0
  0
ARC
  5
1842E
330
747D
100
AcDbEntity
  8
細線
100
AcDbCircle
 10
4954.914705172377
 20
4253.577276893843
 30
0.0
 40
1.0
100
AcDbArc
 50
0.0
 51
90.0
  0
ARC
  5
1842F
330
747D
100
AcDbEntity
  8
細線
100
AcDbCircle
 10
4983.549640917008
 20
4258.577276893843
 30
0.0
 40
6.0
100
AcDbArc
 50
0.7746786087583476
 51
90.0
  0
ARC
  5
18430
330
747D
100
AcDbEntity
  8
細線
100
AcDbCircle
 10
4977.698770289247
 20
4246.077276893843
 30
0.0
 40
6.0
100
AcDbArc
 50
0.5962431711204776
 51
90.0
  0
LINE
  5
18431
330
747D
100
AcDbEntity
  8
細線
100
AcDbLine
 10
4967.584871693652
 20
4246.090836421304
 30
0.0
 11
4961.824836187166
 21
4246.090836421304
 31
0.0
  0
ARC
  5
18432
330
747D
100
AcDbEntity
  8
細線
100
AcDbCircle
 10
5231.914705172377
 20
4204.577276893843
 30
0.0
 40
294.0
100
AcDbArc
 50
171.2120626773852
 51
188.7879373226147
  0
ARC
  5
18433
330
747D
100
AcDbEntity
  8
細線
100
AcDbCircle
 10
4942.916435281365
 20
4258.577276893843
 30
0.0
 40
6.0
100
AcDbArc
 50
90.0
 51
169.4161974034797
  0
ARC
  5
18434
330
747D
100
AcDbEntity
  8
細線
100
AcDbCircle
 10
4947.295661536856
 20
4248.577276893843
 30
0.0
 40
6.0
100
AcDbArc
 50
90.0
 51
171.2120626773852
  0
LINE
  5
18435
330
747D
100
AcDbEntity
  8
細線
100
AcDbLine
 10
4983.549640917008
 20
4144.577276893843
 30
0.0
 11
4942.916435281365
 21
4144.577276893843
 31
0.0
  0
LINE
  5
18436
330
747D
100
AcDbEntity
  8
細線
100
AcDbLine
 10
4977.698770289247
 20
4157.077276893843
 30
0.0
 11
4955.914705172378
 21
4157.077276893843
 31
0.0
  0
LINE
  5
18437
330
747D
100
AcDbEntity
  8
細線
100
AcDbLine
 10
4954.914705172377
 20
4154.577276893843
 30
0.0
 11
4947.295661536856
 21
4154.577276893843
 31
0.0
  0
ARC
  5
18438
330
747D
100
AcDbEntity
  8
細線
100
AcDbCircle
 10
4954.914705172377
 20
4155.577276893843
 30
0.0
 40
1.0
100
AcDbArc
 50
270.0
 51
0.0
  0
ARC
  5
18439
330
747D
100
AcDbEntity
  8
細線
100
AcDbCircle
 10
4983.549640917008
 20
4150.577276893844
 30
0.0
 40
6.0
100
AcDbArc
 50
270.0
 51
359.2253213912417
  0
ARC
  5
1843A
330
747D
100
AcDbEntity
  8
細線
100
AcDbCircle
 10
4942.916435281365
 20
4150.577276893844
 30
0.0
 40
6.0
100
AcDbArc
 50
190.5838025965202
 51
270.0
  0
ARC
  5
1843B
330
747D
100
AcDbEntity
  8
細線
100
AcDbCircle
 10
989.9147051723776
 20
4204.577276893843
 30
0.0
 40
4000.0
100
AcDbArc
 50
359.2253213912417
 51
0.7746786087583476
  0
LINE
  5
1843C
330
747D
100
AcDbEntity
  8
細線
100
AcDbLine
 10
4955.914705172378
 20
4155.577276893843
 30
0.0
 11
4955.914705172378
 21
4253.577276893843
 31
0.0
  0
ARC
  5
1843D
330
747D
100
AcDbEntity
  8
細線
100
AcDbCircle
 10
5231.914705172377
 20
4204.577276893843
 30
0.0
 40
300.0
100
AcDbArc
 50
169.4161974034797
 51
190.5838025965202
  0
ARC
  5
1843E
330
747D
100
AcDbEntity
  8
細線
100
AcDbCircle
 10
4947.295661536856
 20
4160.577276893842
 30
0.0
 40
6.0
100
AcDbArc
 50
188.7879373226147
 51
270.0
  0
ARC
  5
1843F
330
747D
100
AcDbEntity
  8
細線
100
AcDbCircle
 10
4977.698770289247
 20
4163.077276893843
 30
0.0
 40
6.0
100
AcDbArc
 50
270.0
 51
359.4037568288275
  0
CIRCLE
  5
18468
330
747D
100
AcDbEntity
  8
細線
100
AcDbCircle
 10
5782.914705172385
 20
4305.077276893839
 30
0.0
 40
10.0
  0
CIRCLE
  5
18469
330
747D
100
AcDbEntity
  8
細線
100
AcDbCircle
 10
5782.914705172385
 20
4305.077276893839
 30
0.0
 40
11.52627944162938
  0
CIRCLE
  5
1846A
330
747D
100
AcDbEntity
  8
細線
100
AcDbCircle
 10
5782.914705172385
 20
4305.077276893839
 30
0.0
 40
13.0
  0
CIRCLE
  5
1846B
330
747D
100
AcDbEntity
  8
細線
100
AcDbCircle
 10
5782.914705172385
 20
4305.077276893839
 30
0.0
 40
20.0
  0
CIRCLE
  5
1846C
330
747D
100
AcDbEntity
  8
細線
100
AcDbCircle
 10
5782.914705172385
 20
4305.077276893839
 30
0.0
 40
19.19615242270703
  0
ARC
  5
1846D
330
747D
100
AcDbEntity
  8
細線
100
AcDbCircle
 10
5787.58487169366
 20
4240.0908364213
 30
0.0
 40
6.0
100
AcDbArc
 50
0.5115363837211788
 51
90.0
  0
ARC
  5
1846E
330
747D
100
AcDbEntity
  8
細線
100
AcDbCircle
 10
4986.414705172385
 20
4160.577276893839
 30
0.0
 40
800.0
100
AcDbArc
 50
0.3603531902116055
 51
6.122234843093669
  0
ARC
  5
1846F
330
747D
100
AcDbEntity
  8
細線
100
AcDbCircle
 10
1809.914705172383
 20
4204.577276893839
 30
0.0
 40
3994.0
100
AcDbArc
 50
359.4037568288795
 51
0.5962431711204776
  0
LINE
  5
18470
330
747D
100
AcDbEntity
  8
細線
100
AcDbLine
 10
5781.398981746457
 20
4160.577276893839
 30
0.0
 11
5775.914705172385
 21
4160.577276893839
 31
0.0
  0
ARC
  5
18471
330
747D
100
AcDbEntity
  8
細線
100
AcDbCircle
 10
5781.398981746457
 20
4165.57727689384
 30
0.0
 40
5.0
100
AcDbArc
 50
270.0
 51
0.3603531902116055
  0
LINE
  5
18472
330
747D
100
AcDbEntity
  8
細線
100
AcDbLine
 10
5787.58487169366
 20
4163.063717366377
 30
0.0
 11
5785.721251809966
 21
4163.063717366377
 31
0.0
  0
ARC
  5
18473
330
747D
100
AcDbEntity
  8
細線
100
AcDbCircle
 10
5787.58487169366
 20
4169.063717366377
 30
0.0
 40
6.0
100
AcDbArc
 50
270.0
 51
359.4884636162267
  0
ARC
  5
18474
330
747D
100
AcDbEntity
  8
細線
100
AcDbCircle
 10
1809.914705172383
 20
4204.577276893839
 30
0.0
 40
3983.8287
100
AcDbArc
 50
359.4884636162788
 51
0.5115363837211788
  0
ARC
  5
18475
330
747D
100
AcDbEntity
  8
細線
100
AcDbCircle
 10
5778.869120265139
 20
4245.577276893839
 30
0.0
 40
3.0
100
AcDbArc
 50
6.122234843093669
 51
90.0
  0
LINE
  5
18476
330
747D
100
AcDbEntity
  8
細線
100
AcDbLine
 10
5762.916435281372
 20
4264.577276893839
 30
0.0
 11
5803.549640917015
 21
4264.577276893839
 31
0.0
  0
LINE
  5
18477
330
747D
100
AcDbEntity
  8
細線
100
AcDbLine
 10
5775.914705172385
 20
4252.077276893839
 30
0.0
 11
5797.698770289251
 21
4252.077276893839
 31
0.0
  0
LINE
  5
18478
330
747D
100
AcDbEntity
  8
細線
100
AcDbLine
 10
5767.29566153686
 20
4254.577276893839
 30
0.0
 11
5774.914705172385
 21
4254.577276893839
 31
0.0
  0
LINE
  5
18479
330
747D
100
AcDbEntity
  8
細線
100
AcDbLine
 10
5778.869120265139
 20
4248.577276893839
 30
0.0
 11
5775.914705172385
 21
4248.577276893839
 31
0.0
  0
ARC
  5
1847A
330
747D
100
AcDbEntity
  8
細線
100
AcDbCircle
 10
5774.914705172385
 20
4253.577276893839
 30
0.0
 40
1.0
100
AcDbArc
 50
0.0
 51
90.0
  0
ARC
  5
1847B
330
747D
100
AcDbEntity
  8
細線
100
AcDbCircle
 10
5803.549640917015
 20
4258.57727689384
 30
0.0
 40
6.0
100
AcDbArc
 50
0.7746786087583476
 51
90.0
  0
ARC
  5
1847C
330
747D
100
AcDbEntity
  8
細線
100
AcDbCircle
 10
5797.698770289251
 20
4246.077276893839
 30
0.0
 40
6.0
100
AcDbArc
 50
0.5962431711204776
 51
90.0
  0
LINE
  5
1847D
330
747D
100
AcDbEntity
  8
細線
100
AcDbLine
 10
5787.58487169366
 20
4246.0908364213
 30
0.0
 11
5781.824836187174
 21
4246.0908364213
 31
0.0
  0
ARC
  5
1847E
330
747D
100
AcDbEntity
  8
細線
100
AcDbCircle
 10
6051.914705172385
 20
4204.577276893839
 30
0.0
 40
294.0
100
AcDbArc
 50
171.2120626773852
 51
188.7879373226147
  0
ARC
  5
1847F
330
747D
100
AcDbEntity
  8
細線
100
AcDbCircle
 10
5762.916435281372
 20
4258.57727689384
 30
0.0
 40
6.0
100
AcDbArc
 50
90.0
 51
169.4161974034797
  0
ARC
  5
18480
330
747D
100
AcDbEntity
  8
細線
100
AcDbCircle
 10
5767.29566153686
 20
4248.577276893839
 30
0.0
 40
6.0
100
AcDbArc
 50
90.0
 51
171.2120626773852
  0
LINE
  5
18481
330
747D
100
AcDbEntity
  8
細線
100
AcDbLine
 10
5803.549640917015
 20
4144.57727689384
 30
0.0
 11
5762.916435281372
 21
4144.57727689384
 31
0.0
  0
LINE
  5
18482
330
747D
100
AcDbEntity
  8
細線
100
AcDbLine
 10
5797.698770289251
 20
4157.077276893839
 30
0.0
 11
5775.914705172385
 21
4157.077276893839
 31
0.0
  0
LINE
  5
18483
330
747D
100
AcDbEntity
  8
細線
100
AcDbLine
 10
5774.914705172385
 20
4154.57727689384
 30
0.0
 11
5767.29566153686
 21
4154.57727689384
 31
0.0
  0
ARC
  5
18484
330
747D
100
AcDbEntity
  8
細線
100
AcDbCircle
 10
5774.914705172385
 20
4155.577276893839
 30
0.0
 40
1.0
100
AcDbArc
 50
270.0
 51
0.0
  0
ARC
  5
18485
330
747D
100
AcDbEntity
  8
細線
100
AcDbCircle
 10
5803.549640917015
 20
4150.57727689384
 30
0.0
 40
6.0
100
AcDbArc
 50
270.0
 51
359.2253213912417
  0
ARC
  5
18486
330
747D
100
AcDbEntity
  8
細線
100
AcDbCircle
 10
5762.916435281372
 20
4150.57727689384
 30
0.0
 40
6.0
100
AcDbArc
 50
190.5838025965202
 51
270.0
  0
ARC
  5
18487
330
747D
100
AcDbEntity
  8
細線
100
AcDbCircle
 10
1809.914705172383
 20
4204.577276893839
 30
0.0
 40
4000.0
100
AcDbArc
 50
359.2253213912417
 51
0.7746786087583476
  0
LINE
  5
18488
330
747D
100
AcDbEntity
  8
細線
100
AcDbLine
 10
5775.914705172385
 20
4155.577276893839
 30
0.0
 11
5775.914705172385
 21
4253.577276893839
 31
0.0
  0
ARC
  5
18489
330
747D
100
AcDbEntity
  8
細線
100
AcDbCircle
 10
6051.914705172385
 20
4204.577276893839
 30
0.0
 40
300.0
100
AcDbArc
 50
169.4161974034797
 51
190.5838025965202
  0
ARC
  5
1848A
330
747D
100
AcDbEntity
  8
細線
100
AcDbCircle
 10
5767.29566153686
 20
4160.577276893839
 30
0.0
 40
6.0
100
AcDbArc
 50
188.7879373226147
 51
270.0
  0
ARC
  5
1848B
330
747D
100
AcDbEntity
  8
細線
100
AcDbCircle
 10
5797.698770289251
 20
4163.077276893839
 30
0.0
 40
6.0
100
AcDbArc
 50
270.0
 51
359.4037568288275
  0
CIRCLE
  5
184B4
330
747D
100
AcDbEntity
  8
細線
100
AcDbCircle
 10
7422.914705172385
 20
4305.077276893841
 30
0.0
 40
10.0
  0
CIRCLE
  5
184B5
330
747D
100
AcDbEntity
  8
細線
100
AcDbCircle
 10
7422.914705172385
 20
4305.077276893841
 30
0.0
 40
11.52627944162938
  0
CIRCLE
  5
184B6
330
747D
100
AcDbEntity
  8
細線
100
AcDbCircle
 10
7422.914705172385
 20
4305.077276893841
 30
0.0
 40
13.0
  0
CIRCLE
  5
184B7
330
747D
100
AcDbEntity
  8
細線
100
AcDbCircle
 10
7422.914705172385
 20
4305.077276893841
 30
0.0
 40
20.0
  0
CIRCLE
  5
184B8
330
747D
100
AcDbEntity
  8
細線
100
AcDbCircle
 10
7422.914705172385
 20
4305.077276893841
 30
0.0
 40
19.19615242270703
  0
ARC
  5
184B9
330
747D
100
AcDbEntity
  8
細線
100
AcDbCircle
 10
7427.584871693659
 20
4240.090836421301
 30
0.0
 40
6.0
100
AcDbArc
 50
0.5115363837211788
 51
90.0
  0
ARC
  5
184BA
330
747D
100
AcDbEntity
  8
細線
100
AcDbCircle
 10
6626.414705172385
 20
4160.577276893842
 30
0.0
 40
800.0
100
AcDbArc
 50
0.3603531902116055
 51
6.122234843093669
  0
ARC
  5
184BB
330
747D
100
AcDbEntity
  8
細線
100
AcDbCircle
 10
3449.914705172383
 20
4204.577276893841
 30
0.0
 40
3994.0
100
AcDbArc
 50
359.4037568288795
 51
0.5962431711204776
  0
LINE
  5
184BC
330
747D
100
AcDbEntity
  8
細線
100
AcDbLine
 10
7421.398981746458
 20
4160.577276893842
 30
0.0
 11
7415.914705172385
 21
4160.577276893842
 31
0.0
  0
ARC
  5
184BD
330
747D
100
AcDbEntity
  8
細線
100
AcDbCircle
 10
7421.398981746458
 20
4165.577276893841
 30
0.0
 40
5.0
100
AcDbArc
 50
270.0
 51
0.3603531902116055
  0
LINE
  5
184BE
330
747D
100
AcDbEntity
  8
細線
100
AcDbLine
 10
7427.584871693659
 20
4163.063717366379
 30
0.0
 11
7425.721251809966
 21
4163.063717366379
 31
0.0
  0
ARC
  5
184BF
330
747D
100
AcDbEntity
  8
細線
100
AcDbCircle
 10
7427.584871693659
 20
4169.063717366379
 30
0.0
 40
6.0
100
AcDbArc
 50
270.0
 51
359.4884636162267
  0
ARC
  5
184C0
330
747D
100
AcDbEntity
  8
細線
100
AcDbCircle
 10
3449.914705172383
 20
4204.577276893841
 30
0.0
 40
3983.8287
100
AcDbArc
 50
359.4884636162788
 51
0.5115363837211788
  0
ARC
  5
184C1
330
747D
100
AcDbEntity
  8
細線
100
AcDbCircle
 10
7418.869120265139
 20
4245.577276893842
 30
0.0
 40
3.0
100
AcDbArc
 50
6.122234843093669
 51
90.0
  0
LINE
  5
184C2
330
747D
100
AcDbEntity
  8
細線
100
AcDbLine
 10
7402.916435281371
 20
4264.577276893841
 30
0.0
 11
7443.549640917016
 21
4264.577276893841
 31
0.0
  0
LINE
  5
184C3
330
747D
100
AcDbEntity
  8
細線
100
AcDbLine
 10
7415.914705172385
 20
4252.077276893841
 30
0.0
 11
7437.698770289251
 21
4252.077276893841
 31
0.0
  0
LINE
  5
184C4
330
747D
100
AcDbEntity
  8
細線
100
AcDbLine
 10
7407.295661536861
 20
4254.577276893841
 30
0.0
 11
7414.914705172384
 21
4254.577276893841
 31
0.0
  0
LINE
  5
184C5
330
747D
100
AcDbEntity
  8
細線
100
AcDbLine
 10
7418.869120265139
 20
4248.577276893842
 30
0.0
 11
7415.914705172385
 21
4248.577276893842
 31
0.0
  0
ARC
  5
184C6
330
747D
100
AcDbEntity
  8
細線
100
AcDbCircle
 10
7414.914705172384
 20
4253.577276893842
 30
0.0
 40
1.0
100
AcDbArc
 50
0.0
 51
90.0
  0
ARC
  5
184C7
330
747D
100
AcDbEntity
  8
細線
100
AcDbCircle
 10
7443.549640917016
 20
4258.577276893841
 30
0.0
 40
6.0
100
AcDbArc
 50
0.7746786087583476
 51
90.0
  0
ARC
  5
184C8
330
747D
100
AcDbEntity
  8
細線
100
AcDbCircle
 10
7437.698770289251
 20
4246.077276893841
 30
0.0
 40
6.0
100
AcDbArc
 50
0.5962431711204776
 51
90.0
  0
LINE
  5
184C9
330
747D
100
AcDbEntity
  8
細線
100
AcDbLine
 10
7427.584871693659
 20
4246.090836421301
 30
0.0
 11
7421.824836187174
 21
4246.090836421301
 31
0.0
  0
ARC
  5
184CA
330
747D
100
AcDbEntity
  8
細線
100
AcDbCircle
 10
7691.914705172385
 20
4204.577276893841
 30
0.0
 40
294.0
100
AcDbArc
 50
171.2120626773852
 51
188.7879373226147
  0
ARC
  5
184CB
330
747D
100
AcDbEntity
  8
細線
100
AcDbCircle
 10
7402.916435281371
 20
4258.577276893841
 30
0.0
 40
6.0
100
AcDbArc
 50
90.0
 51
169.4161974034797
  0
ARC
  5
184CC
330
747D
100
AcDbEntity
  8
細線
100
AcDbCircle
 10
7407.295661536861
 20
4248.577276893842
 30
0.0
 40
6.0
100
AcDbArc
 50
90.0
 51
171.2120626773852
  0
LINE
  5
184CD
330
747D
100
AcDbEntity
  8
細線
100
AcDbLine
 10
7443.549640917016
 20
4144.577276893841
 30
0.0
 11
7402.916435281371
 21
4144.577276893841
 31
0.0
  0
LINE
  5
184CE
330
747D
100
AcDbEntity
  8
細線
100
AcDbLine
 10
7437.698770289251
 20
4157.077276893841
 30
0.0
 11
7415.914705172385
 21
4157.077276893841
 31
0.0
  0
LINE
  5
184CF
330
747D
100
AcDbEntity
  8
細線
100
AcDbLine
 10
7414.914705172384
 20
4154.577276893841
 30
0.0
 11
7407.295661536861
 21
4154.577276893841
 31
0.0
  0
ARC
  5
184D0
330
747D
100
AcDbEntity
  8
細線
100
AcDbCircle
 10
7414.914705172384
 20
4155.577276893842
 30
0.0
 40
1.0
100
AcDbArc
 50
270.0
 51
0.0
  0
ARC
  5
184D1
330
747D
100
AcDbEntity
  8
細線
100
AcDbCircle
 10
7443.549640917016
 20
4150.577276893841
 30
0.0
 40
6.0
100
AcDbArc
 50
270.0
 51
359.2253213912417
  0
ARC
  5
184D2
330
747D
100
AcDbEntity
  8
細線
100
AcDbCircle
 10
7402.916435281371
 20
4150.577276893841
 30
0.0
 40
6.0
100
AcDbArc
 50
190.5838025965202
 51
270.0
  0
ARC
  5
184D3
330
747D
100
AcDbEntity
  8
細線
100
AcDbCircle
 10
3449.914705172383
 20
4204.577276893841
 30
0.0
 40
4000.0
100
AcDbArc
 50
359.2253213912417
 51
0.7746786087583476
  0
LINE
  5
184D4
330
747D
100
AcDbEntity
  8
細線
100
AcDbLine
 10
7415.914705172385
 20
4155.577276893842
 30
0.0
 11
7415.914705172385
 21
4253.577276893842
 31
0.0
  0
ARC
  5
184D5
330
747D
100
AcDbEntity
  8
細線
100
AcDbCircle
 10
7691.914705172385
 20
4204.577276893841
 30
0.0
 40
300.0
100
AcDbArc
 50
169.4161974034797
 51
190.5838025965202
  0
ARC
  5
184D6
330
747D
100
AcDbEntity
  8
細線
100
AcDbCircle
 10
7407.295661536861
 20
4160.577276893842
 30
0.0
 40
6.0
100
AcDbArc
 50
188.7879373226147
 51
270.0
  0
ARC
  5
184D7
330
747D
100
AcDbEntity
  8
細線
100
AcDbCircle
 10
7437.698770289251
 20
4163.077276893841
 30
0.0
 40
6.0
100
AcDbArc
 50
270.0
 51
359.4037568288275
  0
DIMENSION
  5
19677
330
747D
100
AcDbEntity
  8
寸法
 48
50.0
100
AcDbDimension
  2
*D31
 10
3963.128368633654
 20
3569.57727689386
 30
0.0
 11
3863.128368633653
 21
4489.577276893861
 31
0.0
 70
    32
 71
     5
 42
1840.0
  3
INABA_S40G
100
AcDbAlignedDimension
 13
4998.698647961762
 23
5409.577276893861
 33
0.0
 14
5117.8612242019
 24
3569.57727689386
 34
0.0
 50
90.0
100
AcDbRotatedDimension
1001
ACAD
1000
DSTYLE
1002
{
1070
   341
1005
0
1002
}
  0
TEXT
  5
196B9
330
747D
100
AcDbEntity
  8
文字
 62
     7
 48
50.0
100
AcDbText
 10
13248.77747366447
 20
9230.013745883729
 30
0.0
 40
100.0
  1
12
  7
STYLE1
100
AcDbText
  0
TEXT
  5
196BA
330
747D
100
AcDbEntity
  8
文字
 62
     7
 48
50.0
100
AcDbText
 10
13248.77747366447
 20
9400.013745883729
 30
0.0
 40
100.0
  1
11
  7
STYLE1
100
AcDbText
  0
TEXT
  5
196BB
330
747D
100
AcDbEntity
  8
文字
 62
     7
 48
50.0
100
AcDbText
 10
13248.77747366447
 20
9060.013745883729
 30
0.0
 40
100.0
  1
13
  7
STYLE1
100
AcDbText
  0
TEXT
  5
196BC
330
747D
100
AcDbEntity
  8
文字
 62
     7
 48
50.0
100
AcDbText
 10
13248.77747366447
 20
8890.013745883729
 30
0.0
 40
100.0
  1
14
  7
STYLE1
100
AcDbText
  0
LINE
  5
196C5
330
747D
100
AcDbEntity
  8
仕様書枠
 48
50.0
100
AcDbLine
 10
16307.19999999999
 20
9029.6
 30
0.0
 11
13127.2
 21
9029.6
 31
0.0
  0
LINE
  5
196C6
330
747D
100
AcDbEntity
  8
仕様書枠
 48
50.0
100
AcDbLine
 10
16307.19999999999
 20
9199.600000000001
 30
0.0
 11
13127.2
 21
9199.600000000001
 31
0.0
  0
LINE
  5
196C7
330
747D
100
AcDbEntity
  8
仕様書枠
 48
50.0
100
AcDbLine
 10
16307.19999999999
 20
9369.600000000001
 30
0.0
 11
13127.2
 21
9369.600000000001
 31
0.0
  0
TEXT
  5
196CF
330
747D
100
AcDbEntity
  8
文字
 62
     7
 48
50.0
100
AcDbText
 10
13583.11819016568
 20
9400.013745883729
 30
0.0
 40
100.0
  1
中鴨居
  7
STYLE1
100
AcDbText
  0
TEXT
  5
196D0
330
747D
100
AcDbEntity
  8
文字
 62
     7
 48
50.0
100
AcDbText
 10
15022.63965474515
 20
9400.013745883725
 30
0.0
 40
100.0
  1
F12            1.0
  7
STYLE1
100
AcDbText
  0
TEXT
  5
196D7
330
747D
100
AcDbEntity
  8
文字
 62
     7
 48
50.0
100
AcDbText
 10
13583.11819016568
 20
9230.013745883729
 30
0.0
 40
100.0
  1
中土台前後
  7
STYLE1
100
AcDbText
  0
TEXT
  5
196D8
330
747D
100
AcDbEntity
  8
文字
 62
     7
 48
50.0
100
AcDbText
 10
15022.63965474515
 20
9230.013745883725
 30
0.0
 40
100.0
  1
F12            1.2
  7
STYLE1
100
AcDbText
  0
TEXT
  5
196DF
330
747D
100
AcDbEntity
  8
文字
 62
     7
 48
50.0
100
AcDbText
 10
13583.11819016569
 20
9060.013745883729
 30
0.0
 40
100.0
  1
中土台幕板
  7
STYLE1
100
AcDbText
  0
TEXT
  5
196E0
330
747D
100
AcDbEntity
  8
文字
 62
     7
 48
50.0
100
AcDbText
 10
15022.63965474516
 20
9060.013745883725
 30
0.0
 40
100.0
  1
F12            0.7
  7
STYLE1
100
AcDbText
  0
LINE
  5
19733
330
747D
100
AcDbEntity
  8
細線
 48
50.0
100
AcDbLine
 10
6506.914705172379
 20
5503.577276893864
 30
0.0
 11
6506.914705172377
 21
5409.577276893863
 31
0.0
  0
LINE
  5
19734
330
747D
100
AcDbEntity
  8
細線
 48
50.0
100
AcDbLine
 10
6496.914705172378
 20
5503.577276893865
 30
0.0
 11
6496.914705172378
 21
5644.577276893866
 31
0.0
  0
ARC
  5
19735
330
747D
100
AcDbEntity
  8
細線
100
AcDbCircle
 10
6617.698770289251
 20
4163.077276893839
 30
0.0
 40
6.0
100
AcDbArc
 50
270.0
 51
359.4037568288275
  0
ARC
  5
19736
330
747D
100
AcDbEntity
  8
細線
100
AcDbCircle
 10
6587.29566153686
 20
4160.577276893839
 30
0.0
 40
6.0
100
AcDbArc
 50
188.7879373226147
 51
270.0
  0
ARC
  5
19737
330
747D
100
AcDbEntity
  8
細線
100
AcDbCircle
 10
6871.914705172385
 20
4204.577276893839
 30
0.0
 40
300.0
100
AcDbArc
 50
169.4161974034797
 51
190.5838025965202
  0
LINE
  5
19738
330
747D
100
AcDbEntity
  8
細線
100
AcDbLine
 10
6595.914705172384
 20
4155.577276893839
 30
0.0
 11
6595.914705172384
 21
4253.577276893839
 31
0.0
  0
ARC
  5
19739
330
747D
100
AcDbEntity
  8
細線
100
AcDbCircle
 10
2629.914705172383
 20
4204.577276893839
 30
0.0
 40
4000.0
100
AcDbArc
 50
359.2253213912417
 51
0.7746786087583476
  0
ARC
  5
1973A
330
747D
100
AcDbEntity
  8
細線
100
AcDbCircle
 10
6582.916435281372
 20
4150.57727689384
 30
0.0
 40
6.0
100
AcDbArc
 50
190.5838025965202
 51
270.0
  0
ARC
  5
1973B
330
747D
100
AcDbEntity
  8
細線
100
AcDbCircle
 10
6623.549640917016
 20
4150.57727689384
 30
0.0
 40
6.0
100
AcDbArc
 50
270.0
 51
359.2253213912417
  0
ARC
  5
1973C
330
747D
100
AcDbEntity
  8
細線
100
AcDbCircle
 10
6594.914705172385
 20
4155.577276893839
 30
0.0
 40
1.0
100
AcDbArc
 50
270.0
 51
0.0
  0
LINE
  5
1973D
330
747D
100
AcDbEntity
  8
細線
100
AcDbLine
 10
6594.914705172385
 20
4154.57727689384
 30
0.0
 11
6587.29566153686
 21
4154.57727689384
 31
0.0
  0
LINE
  5
1973E
330
747D
100
AcDbEntity
  8
細線
100
AcDbLine
 10
6617.698770289251
 20
4157.077276893839
 30
0.0
 11
6595.914705172384
 21
4157.077276893839
 31
0.0
  0
LINE
  5
1973F
330
747D
100
AcDbEntity
  8
細線
100
AcDbLine
 10
6623.549640917016
 20
4144.57727689384
 30
0.0
 11
6582.916435281372
 21
4144.57727689384
 31
0.0
  0
ARC
  5
19740
330
747D
100
AcDbEntity
  8
細線
100
AcDbCircle
 10
6587.29566153686
 20
4248.577276893839
 30
0.0
 40
6.0
100
AcDbArc
 50
90.0
 51
171.2120626773852
  0
ARC
  5
19741
330
747D
100
AcDbEntity
  8
細線
100
AcDbCircle
 10
6582.916435281372
 20
4258.57727689384
 30
0.0
 40
6.0
100
AcDbArc
 50
90.0
 51
169.4161974034797
  0
ARC
  5
19742
330
747D
100
AcDbEntity
  8
細線
100
AcDbCircle
 10
6871.914705172385
 20
4204.577276893839
 30
0.0
 40
294.0
100
AcDbArc
 50
171.2120626773852
 51
188.7879373226147
  0
LINE
  5
19743
330
747D
100
AcDbEntity
  8
細線
100
AcDbLine
 10
6607.58487169366
 20
4246.0908364213
 30
0.0
 11
6601.824836187174
 21
4246.0908364213
 31
0.0
  0
ARC
  5
19744
330
747D
100
AcDbEntity
  8
細線
100
AcDbCircle
 10
6617.698770289251
 20
4246.077276893839
 30
0.0
 40
6.0
100
AcDbArc
 50
0.5962431711204776
 51
90.0
  0
ARC
  5
19745
330
747D
100
AcDbEntity
  8
細線
100
AcDbCircle
 10
6623.549640917016
 20
4258.57727689384
 30
0.0
 40
6.0
100
AcDbArc
 50
0.7746786087583476
 51
90.0
  0
ARC
  5
19746
330
747D
100
AcDbEntity
  8
細線
100
AcDbCircle
 10
6594.914705172385
 20
4253.577276893839
 30
0.0
 40
1.0
100
AcDbArc
 50
0.0
 51
90.0
  0
LINE
  5
19747
330
747D
100
AcDbEntity
  8
細線
100
AcDbLine
 10
6598.869120265139
 20
4248.577276893839
 30
0.0
 11
6595.914705172384
 21
4248.577276893839
 31
0.0
  0
LINE
  5
19748
330
747D
100
AcDbEntity
  8
細線
100
AcDbLine
 10
6587.29566153686
 20
4254.577276893839
 30
0.0
 11
6594.914705172385
 21
4254.577276893839
 31
0.0
  0
LINE
  5
19749
330
747D
100
AcDbEntity
  8
細線
100
AcDbLine
 10
6595.914705172384
 20
4252.077276893839
 30
0.0
 11
6617.698770289251
 21
4252.077276893839
 31
0.0
  0
LINE
  5
1974A
330
747D
100
AcDbEntity
  8
細線
100
AcDbLine
 10
6582.916435281372
 20
4264.577276893839
 30
0.0
 11
6623.549640917016
 21
4264.577276893839
 31
0.0
  0
ARC
  5
1974B
330
747D
100
AcDbEntity
  8
細線
100
AcDbCircle
 10
6598.869120265139
 20
4245.577276893839
 30
0.0
 40
3.0
100
AcDbArc
 50
6.122234843093669
 51
90.0
  0
ARC
  5
1974C
330
747D
100
AcDbEntity
  8
細線
100
AcDbCircle
 10
2629.914705172383
 20
4204.577276893839
 30
0.0
 40
3983.8287
100
AcDbArc
 50
359.4884636162788
 51
0.5115363837211788
  0
ARC
  5
1974D
330
747D
100
AcDbEntity
  8
細線
100
AcDbCircle
 10
6607.58487169366
 20
4169.063717366377
 30
0.0
 40
6.0
100
AcDbArc
 50
270.0
 51
359.4884636162267
  0
LINE
  5
1974E
330
747D
100
AcDbEntity
  8
細線
100
AcDbLine
 10
6607.58487169366
 20
4163.063717366377
 30
0.0
 11
6605.721251809966
 21
4163.063717366377
 31
0.0
  0
ARC
  5
1974F
330
747D
100
AcDbEntity
  8
細線
100
AcDbCircle
 10
6601.398981746458
 20
4165.57727689384
 30
0.0
 40
5.0
100
AcDbArc
 50
270.0
 51
0.3603531902116055
  0
LINE
  5
19750
330
747D
100
AcDbEntity
  8
細線
100
AcDbLine
 10
6601.398981746458
 20
4160.577276893839
 30
0.0
 11
6595.914705172384
 21
4160.577276893839
 31
0.0
  0
ARC
  5
19751
330
747D
100
AcDbEntity
  8
細線
100
AcDbCircle
 10
2629.914705172383
 20
4204.577276893839
 30
0.0
 40
3994.0
100
AcDbArc
 50
359.4037568288795
 51
0.5962431711204776
  0
ARC
  5
19752
330
747D
100
AcDbEntity
  8
細線
100
AcDbCircle
 10
5806.414705172385
 20
4160.577276893839
 30
0.0
 40
800.0
100
AcDbArc
 50
0.3603531902116055
 51
6.122234843093669
  0
ARC
  5
19753
330
747D
100
AcDbEntity
  8
細線
100
AcDbCircle
 10
6607.58487169366
 20
4240.0908364213
 30
0.0
 40
6.0
100
AcDbArc
 50
0.5115363837211788
 51
90.0
  0
CIRCLE
  5
19754
330
747D
100
AcDbEntity
  8
細線
100
AcDbCircle
 10
6602.914705172385
 20
4305.077276893839
 30
0.0
 40
19.19615242270703
  0
CIRCLE
  5
19755
330
747D
100
AcDbEntity
  8
細線
100
AcDbCircle
 10
6602.914705172385
 20
4305.077276893839
 30
0.0
 40
20.0
  0
CIRCLE
  5
19756
330
747D
100
AcDbEntity
  8
細線
100
AcDbCircle
 10
6602.914705172385
 20
4305.077276893839
 30
0.0
 40
13.0
  0
CIRCLE
  5
19757
330
747D
100
AcDbEntity
  8
細線
100
AcDbCircle
 10
6602.914705172385
 20
4305.077276893839
 30
0.0
 40
11.52627944162938
  0
CIRCLE
  5
19758
330
747D
100
AcDbEntity
  8
細線
100
AcDbCircle
 10
6602.914705172385
 20
4305.077276893839
 30
0.0
 40
10.0
  0
ARC
  5
19759
330
747D
100
AcDbEntity
  8
細線
100
AcDbCircle
 10
6617.698770289246
 20
5077.077276893837
 30
0.0
 40
6.0
100
AcDbArc
 50
270.0
 51
359.4037568288275
  0
ARC
  5
1975A
330
747D
100
AcDbEntity
  8
細線
100
AcDbCircle
 10
6587.295661536855
 20
5074.577276893837
 30
0.0
 40
6.0
100
AcDbArc
 50
188.7879373226147
 51
270.0
  0
ARC
  5
1975B
330
747D
100
AcDbEntity
  8
細線
100
AcDbCircle
 10
6871.914705172378
 20
5118.577276893837
 30
0.0
 40
300.0
100
AcDbArc
 50
169.4161974034797
 51
190.5838025965202
  0
LINE
  5
1975C
330
747D
100
AcDbEntity
  8
細線
100
AcDbLine
 10
6595.914705172377
 20
5069.577276893837
 30
0.0
 11
6595.914705172377
 21
5167.577276893837
 31
0.0
  0
ARC
  5
1975D
330
747D
100
AcDbEntity
  8
細線
100
AcDbCircle
 10
2629.914705172378
 20
5118.577276893837
 30
0.0
 40
4000.0
100
AcDbArc
 50
359.2253213912417
 51
0.7746786087583476
  0
ARC
  5
1975E
330
747D
100
AcDbEntity
  8
細線
100
AcDbCircle
 10
6582.916435281365
 20
5064.577276893837
 30
0.0
 40
6.0
100
AcDbArc
 50
190.5838025965202
 51
270.0
  0
ARC
  5
1975F
330
747D
100
AcDbEntity
  8
細線
100
AcDbCircle
 10
6623.549640917008
 20
5064.577276893837
 30
0.0
 40
6.0
100
AcDbArc
 50
270.0
 51
359.2253213912417
  0
ARC
  5
19760
330
747D
100
AcDbEntity
  8
細線
100
AcDbCircle
 10
6594.914705172377
 20
5069.577276893837
 30
0.0
 40
1.0
100
AcDbArc
 50
270.0
 51
0.0
  0
LINE
  5
19761
330
747D
100
AcDbEntity
  8
細線
100
AcDbLine
 10
6594.914705172377
 20
5068.577276893837
 30
0.0
 11
6587.295661536855
 21
5068.577276893837
 31
0.0
  0
LINE
  5
19762
330
747D
100
AcDbEntity
  8
細線
100
AcDbLine
 10
6617.698770289246
 20
5071.077276893837
 30
0.0
 11
6595.914705172377
 21
5071.077276893837
 31
0.0
  0
LINE
  5
19763
330
747D
100
AcDbEntity
  8
細線
100
AcDbLine
 10
6623.549640917008
 20
5058.577276893837
 30
0.0
 11
6582.916435281365
 21
5058.577276893837
 31
0.0
  0
ARC
  5
19764
330
747D
100
AcDbEntity
  8
細線
100
AcDbCircle
 10
6587.295661536855
 20
5162.577276893837
 30
0.0
 40
6.0
100
AcDbArc
 50
90.0
 51
171.2120626773852
  0
ARC
  5
19765
330
747D
100
AcDbEntity
  8
細線
100
AcDbCircle
 10
6582.916435281365
 20
5172.577276893837
 30
0.0
 40
6.0
100
AcDbArc
 50
90.0
 51
169.4161974034797
  0
ARC
  5
19766
330
747D
100
AcDbEntity
  8
細線
100
AcDbCircle
 10
6871.914705172378
 20
5118.577276893837
 30
0.0
 40
294.0
100
AcDbArc
 50
171.2120626773852
 51
188.7879373226147
  0
LINE
  5
19767
330
747D
100
AcDbEntity
  8
細線
100
AcDbLine
 10
6607.584871693652
 20
5160.090836421297
 30
0.0
 11
6601.824836187167
 21
5160.090836421297
 31
0.0
  0
ARC
  5
19768
330
747D
100
AcDbEntity
  8
細線
100
AcDbCircle
 10
6617.698770289246
 20
5160.077276893836
 30
0.0
 40
6.0
100
AcDbArc
 50
0.5962431711204776
 51
90.0
  0
ARC
  5
19769
330
747D
100
AcDbEntity
  8
細線
100
AcDbCircle
 10
6623.549640917008
 20
5172.577276893837
 30
0.0
 40
6.0
100
AcDbArc
 50
0.7746786087583476
 51
90.0
  0
ARC
  5
1976A
330
747D
100
AcDbEntity
  8
細線
100
AcDbCircle
 10
6594.914705172377
 20
5167.577276893837
 30
0.0
 40
1.0
100
AcDbArc
 50
0.0
 51
90.0
  0
LINE
  5
1976B
330
747D
100
AcDbEntity
  8
細線
100
AcDbLine
 10
6598.869120265134
 20
5162.577276893837
 30
0.0
 11
6595.914705172379
 21
5162.577276893837
 31
0.0
  0
LINE
  5
1976C
330
747D
100
AcDbEntity
  8
細線
100
AcDbLine
 10
6587.295661536855
 20
5168.577276893837
 30
0.0
 11
6594.914705172377
 21
5168.577276893837
 31
0.0
  0
LINE
  5
1976D
330
747D
100
AcDbEntity
  8
細線
100
AcDbLine
 10
6595.914705172377
 20
5166.077276893837
 30
0.0
 11
6617.698770289246
 21
5166.077276893837
 31
0.0
  0
LINE
  5
1976E
330
747D
100
AcDbEntity
  8
細線
100
AcDbLine
 10
6582.916435281365
 20
5178.577276893837
 30
0.0
 11
6623.549640917008
 21
5178.577276893837
 31
0.0
  0
ARC
  5
1976F
330
747D
100
AcDbEntity
  8
細線
100
AcDbCircle
 10
6598.869120265134
 20
5159.577276893837
 30
0.0
 40
3.0
100
AcDbArc
 50
6.122234843093669
 51
90.0
  0
ARC
  5
19770
330
747D
100
AcDbEntity
  8
細線
100
AcDbCircle
 10
2629.914705172378
 20
5118.577276893837
 30
0.0
 40
3983.8287
100
AcDbArc
 50
359.4884636162788
 51
0.5115363837211788
  0
ARC
  5
19771
330
747D
100
AcDbEntity
  8
細線
100
AcDbCircle
 10
6607.584871693652
 20
5083.063717366375
 30
0.0
 40
6.0
100
AcDbArc
 50
270.0
 51
359.4884636162267
  0
LINE
  5
19772
330
747D
100
AcDbEntity
  8
細線
100
AcDbLine
 10
6607.584871693652
 20
5077.063717366375
 30
0.0
 11
6605.721251809959
 21
5077.063717366375
 31
0.0
  0
ARC
  5
19773
330
747D
100
AcDbEntity
  8
細線
100
AcDbCircle
 10
6601.39898174645
 20
5079.577276893837
 30
0.0
 40
5.0
100
AcDbArc
 50
270.0
 51
0.3603531902116055
  0
LINE
  5
19774
330
747D
100
AcDbEntity
  8
細線
100
AcDbLine
 10
6601.39898174645
 20
5074.577276893837
 30
0.0
 11
6595.914705172377
 21
5074.577276893837
 31
0.0
  0
ARC
  5
19775
330
747D
100
AcDbEntity
  8
細線
100
AcDbCircle
 10
2629.914705172378
 20
5118.577276893837
 30
0.0
 40
3994.0
100
AcDbArc
 50
359.4037568288795
 51
0.5962431711204776
  0
ARC
  5
19776
330
747D
100
AcDbEntity
  8
細線
100
AcDbCircle
 10
5806.414705172378
 20
5074.577276893837
 30
0.0
 40
800.0
100
AcDbArc
 50
0.3603531902116055
 51
6.122234843093669
  0
ARC
  5
19777
330
747D
100
AcDbEntity
  8
細線
100
AcDbCircle
 10
6607.584871693652
 20
5154.090836421297
 30
0.0
 40
6.0
100
AcDbArc
 50
0.5115363837211788
 51
90.0
  0
CIRCLE
  5
19778
330
747D
100
AcDbEntity
  8
細線
100
AcDbCircle
 10
6602.91470517238
 20
5219.077276893837
 30
0.0
 40
19.19615242270703
  0
CIRCLE
  5
19779
330
747D
100
AcDbEntity
  8
細線
100
AcDbCircle
 10
6602.91470517238
 20
5219.077276893837
 30
0.0
 40
20.0
  0
CIRCLE
  5
1977A
330
747D
100
AcDbEntity
  8
細線
100
AcDbCircle
 10
6602.91470517238
 20
5219.077276893837
 30
0.0
 40
13.0
  0
CIRCLE
  5
1977B
330
747D
100
AcDbEntity
  8
細線
100
AcDbCircle
 10
6602.91470517238
 20
5219.077276893837
 30
0.0
 40
11.52627944162938
  0
CIRCLE
  5
1977C
330
747D
100
AcDbEntity
  8
細線
100
AcDbCircle
 10
6602.91470517238
 20
5219.077276893837
 30
0.0
 40
10.0
  0
LINE
  5
1977D
330
747D
100
AcDbEntity
  8
部品1
100
AcDbLine
 10
6549.91470517238
 20
4497.077276893864
 30
0.0
 11
6549.91470517238
 21
3612.57727689387
 31
0.0
  0
LINE
  5
1977E
330
747D
100
AcDbEntity
  8
部品1
100
AcDbLine
 10
7283.914705172377
 20
4497.077276893873
 30
0.0
 11
7283.91470517238
 21
3612.577276893875
 31
0.0
  0
LINE
  5
1977F
330
747D
100
AcDbEntity
  8
部品1
100
AcDbLine
 10
6549.914705172378
 20
4495.577276893865
 30
0.0
 11
7283.914705172377
 21
4495.577276893871
 31
0.0
  0
LINE
  5
19780
330
747D
100
AcDbEntity
  8
部品1
100
AcDbLine
 10
6549.914705172378
 20
4526.577276893866
 30
0.0
 11
7283.914705172377
 21
4526.57727689387
 31
0.0
  0
LINE
  5
19781
330
747D
100
AcDbEntity
  8
部品1
100
AcDbLine
 10
6524.914705172378
 20
4497.077276893864
 30
0.0
 11
7308.914705172376
 21
4497.077276893873
 31
0.0
  0
LINE
  5
19782
330
747D
100
AcDbEntity
  8
部品1
100
AcDbLine
 10
7313.914705172376
 20
4523.077276893871
 30
0.0
 11
7313.914705172376
 21
4502.077276893873
 31
0.0
  0
ARC
  5
19783
330
747D
100
AcDbEntity
  8
部品1
100
AcDbCircle
 10
7308.914705172376
 20
4502.077276893873
 30
0.0
 40
5.0
100
AcDbArc
 50
270.0000000000007
 51
0.0
  0
LINE
  5
19784
330
747D
100
AcDbEntity
  8
部品1
100
AcDbLine
 10
7281.914705172384
 20
4493.077276893862
 30
0.0
 11
7281.914705172384
 21
3616.077276893884
 31
0.0
  0
LINE
  5
19785
330
747D
100
AcDbEntity
  8
部品1
100
AcDbLine
 10
6551.914705172385
 20
4493.077276893862
 30
0.0
 11
6551.914705172385
 21
3616.077276893876
 31
0.0
  0
LINE
  5
19786
330
747D
100
AcDbEntity
  8
部品1
100
AcDbLine
 10
6551.914705172385
 20
3616.077276893876
 30
0.0
 11
7261.852257343704
 21
3616.077276893884
 31
0.0
  0
LINE
  5
19787
330
747D
100
AcDbEntity
  8
部品1
 48
0.2
100
AcDbLine
 10
7281.852257343704
 20
3622.827276893882
 30
0.0
 11
7261.852257343704
 21
3622.827276893882
 31
0.0
  0
LINE
  5
19788
330
747D
100
AcDbEntity
  8
細線
 48
0.2
100
AcDbLine
 10
7281.852257343704
 20
3620.327276893882
 30
0.0
 11
7261.852257343704
 21
3620.327276893882
 31
0.0
  0
LINE
  5
19789
330
747D
100
AcDbEntity
  8
部品1
100
AcDbLine
 10
7281.852257343704
 20
3616.077276893885
 30
0.0
 11
7281.914705172384
 21
3616.077276893885
 31
0.0
  0
LINE
  5
1978A
330
747D
100
AcDbEntity
  8
部品1
100
AcDbLine
 10
7281.852257343704
 20
3616.077276893884
 30
0.0
 11
7281.914705172384
 21
3616.077276893884
 31
0.0
  0
LINE
  5
1978B
330
747D
100
AcDbEntity
  8
細線
 48
50.0
100
AcDbLine
 10
7261.852257343704
 20
3616.077276893884
 30
0.0
 11
7261.852257343704
 21
3615.827276893881
 31
0.0
  0
LINE
  5
1978C
330
747D
100
AcDbEntity
  8
細線
 48
0.2
100
AcDbLine
 10
7279.536248640212
 20
3615.127276893881
 30
0.0
 11
7268.168266047199
 21
3615.127276893881
 31
0.0
  0
ARC
  5
1978D
330
747D
100
AcDbEntity
  8
細線
 48
0.2
100
AcDbCircle
 10
7273.852257343704
 20
3632.627276893879
 30
0.0
 40
18.49999999999796
100
AcDbArc
 50
253.3984504009772
 51
286.6015495990217
  0
ARC
  5
1978E
330
747D
100
AcDbEntity
  8
細線
 48
0.2
100
AcDbCircle
 10
7268.852257343704
 20
3615.856767062633
 30
0.0
 40
1.0
100
AcDbArc
 50
179.9999999999984
 51
253.3984504009775
  0
LINE
  5
1978F
330
747D
100
AcDbEntity
  8
細線
 48
0.2
100
AcDbLine
 10
7281.852257343704
 20
3618.327276893881
 30
0.0
 11
7261.852257343704
 21
3618.327276893884
 31
0.0
  0
LINE
  5
19790
330
747D
100
AcDbEntity
  8
細線
 48
0.2
100
AcDbLine
 10
7281.852257343704
 20
3615.827276893881
 30
0.0
 11
7261.852257343704
 21
3615.827276893881
 31
0.0
  0
ARC
  5
19791
330
747D
100
AcDbEntity
  8
細線
 48
0.2
100
AcDbCircle
 10
7278.852257343704
 20
3615.856767062633
 30
0.0
 40
1.0
100
AcDbArc
 50
286.6015495990217
 51
0.0
  0
LINE
  5
19792
330
747D
100
AcDbEntity
  8
部品1
100
AcDbLine
 10
7281.852257343704
 20
3616.077276893884
 30
0.0
 11
7281.914705172384
 21
3616.077276893884
 31
0.0
  0
LINE
  5
19793
330
747D
100
AcDbEntity
  8
部品1
 48
50.0
100
AcDbLine
 10
7261.852257343704
 20
3622.827276893882
 30
0.0
 11
7261.852257343704
 21
3616.077276893884
 31
0.0
  0
LINE
  5
19794
330
747D
100
AcDbEntity
  8
細線
 48
50.0
100
AcDbLine
 10
7277.839910195364
 20
3618.327276893884
 30
0.0
 11
7277.839910195364
 21
3620.327276893882
 31
0.0
  0
LINE
  5
19795
330
747D
100
AcDbEntity
  8
細線
 48
50.0
100
AcDbLine
 10
7269.989500149401
 20
3618.327276893884
 30
0.0
 11
7269.989500149401
 21
3620.327276893882
 31
0.0
  0
LINE
  5
19796
330
747D
100
AcDbEntity
  8
細線
 48
0.1
100
AcDbLine
 10
7281.852257343704
 20
3615.827276893881
 30
0.0
 11
7281.852257343704
 21
3622.827276893882
 31
0.0
  0
LINE
  5
19797
330
747D
100
AcDbEntity
  8
部品1
100
AcDbLine
 10
6551.914705172385
 20
4493.077276893862
 30
0.0
 11
7261.852257343704
 21
4493.077276893862
 31
0.0
  0
ARC
  5
19798
330
747D
100
AcDbEntity
  8
細線
 48
0.2
100
AcDbCircle
 10
7278.852257343704
 20
4493.297786725113
 30
0.0
 40
1.0
100
AcDbArc
 50
0.0
 51
73.39845040097829
  0
LINE
  5
19799
330
747D
100
AcDbEntity
  8
細線
 48
0.2
100
AcDbLine
 10
7281.852257343704
 20
4493.327276893865
 30
0.0
 11
7261.852257343704
 21
4493.327276893865
 31
0.0
  0
LINE
  5
1979A
330
747D
100
AcDbEntity
  8
細線
 48
0.2
100
AcDbLine
 10
7281.852257343704
 20
4490.827276893865
 30
0.0
 11
7261.852257343704
 21
4490.827276893865
 31
0.0
  0
ARC
  5
1979B
330
747D
100
AcDbEntity
  8
細線
 48
0.2
100
AcDbCircle
 10
7268.852257343704
 20
4493.297786725113
 30
0.0
 40
1.0
100
AcDbArc
 50
106.6015495990225
 51
180.0000000000016
  0
ARC
  5
1979C
330
747D
100
AcDbEntity
  8
細線
 48
0.2
100
AcDbCircle
 10
7273.852257343704
 20
4476.527276893867
 30
0.0
 40
18.49999999999796
100
AcDbArc
 50
73.39845040097829
 51
106.6015495990228
  0
LINE
  5
1979D
330
747D
100
AcDbEntity
  8
細線
 48
0.2
100
AcDbLine
 10
7279.536248640212
 20
4494.027276893866
 30
0.0
 11
7268.168266047199
 21
4494.027276893866
 31
0.0
  0
LINE
  5
1979E
330
747D
100
AcDbEntity
  8
細線
 48
50.0
100
AcDbLine
 10
7261.852257343704
 20
4493.077276893865
 30
0.0
 11
7261.852257343704
 21
4493.327276893865
 31
0.0
  0
LINE
  5
1979F
330
747D
100
AcDbEntity
  8
部品1
100
AcDbLine
 10
7281.852257343704
 20
4493.077276893865
 30
0.0
 11
7281.914705172384
 21
4493.077276893862
 31
0.0
  0
LINE
  5
197A0
330
747D
100
AcDbEntity
  8
部品1
100
AcDbLine
 10
7281.852257343704
 20
4493.077276893862
 30
0.0
 11
7281.914705172384
 21
4493.077276893862
 31
0.0
  0
LINE
  5
197A1
330
747D
100
AcDbEntity
  8
細線
 48
0.2
100
AcDbLine
 10
7281.852257343704
 20
4488.827276893864
 30
0.0
 11
7261.852257343704
 21
4488.827276893864
 31
0.0
  0
LINE
  5
197A2
330
747D
100
AcDbEntity
  8
部品1
 48
0.2
100
AcDbLine
 10
7281.852257343704
 20
4486.327276893865
 30
0.0
 11
7261.852257343704
 21
4486.327276893865
 31
0.0
  0
LINE
  5
197A3
330
747D
100
AcDbEntity
  8
細線
 48
0.1
100
AcDbLine
 10
7281.852257343704
 20
4493.327276893865
 30
0.0
 11
7281.852257343704
 21
4486.327276893865
 31
0.0
  0
LINE
  5
197A4
330
747D
100
AcDbEntity
  8
細線
 48
50.0
100
AcDbLine
 10
7269.989500149401
 20
4490.827276893865
 30
0.0
 11
7269.989500149401
 21
4488.827276893864
 31
0.0
  0
LINE
  5
197A5
330
747D
100
AcDbEntity
  8
細線
 48
50.0
100
AcDbLine
 10
7277.839910195364
 20
4490.827276893865
 30
0.0
 11
7277.839910195364
 21
4488.827276893864
 31
0.0
  0
LINE
  5
197A6
330
747D
100
AcDbEntity
  8
部品1
 48
50.0
100
AcDbLine
 10
7261.852257343704
 20
4486.327276893865
 30
0.0
 11
7261.852257343704
 21
4493.077276893865
 31
0.0
  0
ARC
  5
197A7
330
747D
100
AcDbEntity
  8
部品1
 48
0.01
100
AcDbCircle
 10
7004.914705172385
 20
5442.077276893859
 30
0.0
 40
2.0
100
AcDbArc
 50
270.0
 51
0.0
  0
ARC
  5
197A8
330
747D
100
AcDbEntity
  8
部品1
 48
0.01
100
AcDbCircle
 10
7004.914705172385
 20
5473.577276893859
 30
0.0
 40
2.0
100
AcDbArc
 50
0.0
 51
90.0
  0
ARC
  5
197A9
330
747D
100
AcDbEntity
  8
部品1
 48
0.01
100
AcDbCircle
 10
6828.914705172384
 20
5442.077276893859
 30
0.0
 40
2.0
100
AcDbArc
 50
180.0
 51
270.0
  0
ARC
  5
197AA
330
747D
100
AcDbEntity
  8
部品1
 48
0.01
100
AcDbCircle
 10
6828.914705172384
 20
5473.577276893859
 30
0.0
 40
2.0
100
AcDbArc
 50
90.0
 51
180.0
  0
LINE
  5
197AB
330
747D
100
AcDbEntity
  8
細線
100
AcDbLine
 10
6916.914705172385
 20
5446.077276893859
 30
0.0
 11
6990.914705172385
 21
5446.077276893859
 31
0.0
  0
LINE
  5
197AC
330
747D
100
AcDbEntity
  8
細線
100
AcDbLine
 10
6916.914705172385
 20
5469.077276893859
 30
0.0
 11
6842.914705172384
 21
5469.077276893859
 31
0.0
  0
LINE
  5
197AD
330
747D
100
AcDbEntity
  8
細線
100
AcDbLine
 10
6842.914705172384
 20
5446.077276893859
 30
0.0
 11
6916.914705172385
 21
5446.077276893859
 31
0.0
  0
LINE
  5
197AE
330
747D
100
AcDbEntity
  8
細線
100
AcDbLine
 10
6990.914705172385
 20
5469.077276893859
 30
0.0
 11
6916.914705172385
 21
5469.077276893859
 31
0.0
  0
LINE
  5
197AF
330
747D
100
AcDbEntity
  8
細線
100
AcDbLine
 10
6990.914705172385
 20
5446.077276893859
 30
0.0
 11
6990.914705172385
 21
5469.077276893859
 31
0.0
  0
LINE
  5
197B0
330
747D
100
AcDbEntity
  8
細線
100
AcDbLine
 10
6842.914705172384
 20
5469.077276893859
 30
0.0
 11
6842.914705172384
 21
5446.077276893859
 31
0.0
  0
LINE
  5
197B1
330
747D
100
AcDbEntity
  8
部品1
 48
0.01
100
AcDbLine
 10
7006.914705172384
 20
5442.077276893859
 30
0.0
 11
7006.914705172384
 21
5473.577276893859
 31
0.0
  0
LINE
  5
197B2
330
747D
100
AcDbEntity
  8
部品1
 48
0.01
100
AcDbLine
 10
6828.914705172384
 20
5440.077276893859
 30
0.0
 11
7004.914705172385
 21
5440.077276893859
 31
0.0
  0
LINE
  5
197B3
330
747D
100
AcDbEntity
  8
部品1
 48
0.01
100
AcDbLine
 10
6826.914705172384
 20
5473.577276893859
 30
0.0
 11
6826.914705172384
 21
5442.077276893859
 31
0.0
  0
LINE
  5
197B4
330
747D
100
AcDbEntity
  8
部品1
 48
0.01
100
AcDbLine
 10
7004.914705172385
 20
5475.577276893858
 30
0.0
 11
6828.914705172384
 21
5475.577276893858
 31
0.0
  0
LINE
  5
197B5
330
747D
100
AcDbEntity
  8
細線
100
AcDbLine
 10
6842.914705172384
 20
5463.077276893859
 30
0.0
 11
6916.914705172385
 21
5463.077276893859
 31
0.0
  0
LINE
  5
197B6
330
747D
100
AcDbEntity
  8
細線
100
AcDbLine
 10
6842.914705172384
 20
5457.077276893858
 30
0.0
 11
6916.914705172385
 21
5457.077276893858
 31
0.0
  0
LINE
  5
197B7
330
747D
100
AcDbEntity
  8
細線
100
AcDbLine
 10
6842.914705172384
 20
5451.077276893858
 30
0.0
 11
6916.914705172385
 21
5451.077276893858
 31
0.0
  0
LINE
  5
197B8
330
747D
100
AcDbEntity
  8
細線
100
AcDbLine
 10
6842.914705172384
 20
5463.077276893859
 30
0.0
 11
6911.914705172385
 21
5463.077276893859
 31
0.0
  0
LINE
  5
197B9
330
747D
100
AcDbEntity
  8
細線
100
AcDbLine
 10
6990.914705172385
 20
5463.077276893859
 30
0.0
 11
6916.914705172385
 21
5463.077276893859
 31
0.0
  0
LINE
  5
197BA
330
747D
100
AcDbEntity
  8
細線
100
AcDbLine
 10
6990.914705172385
 20
5451.077276893858
 30
0.0
 11
6916.914705172385
 21
5451.077276893858
 31
0.0
  0
LINE
  5
197BB
330
747D
100
AcDbEntity
  8
細線
100
AcDbLine
 10
6990.914705172385
 20
5457.077276893858
 30
0.0
 11
6916.914705172385
 21
5457.077276893858
 31
0.0
  0
LINE
  5
197BC
330
747D
100
AcDbEntity
  8
細線
100
AcDbLine
 10
6916.914705172385
 20
5469.077276893859
 30
0.0
 11
6916.914705172385
 21
5446.077276893859
 31
0.0
  0
LINE
  5
197BD
330
747D
100
AcDbEntity
  8
部品1
 48
50.0
100
AcDbLine
 10
7261.852257343696
 20
5400.327276893862
 30
0.0
 11
7261.852257343696
 21
5407.077276893862
 31
0.0
  0
LINE
  5
197BE
330
747D
100
AcDbEntity
  8
細線
 48
50.0
100
AcDbLine
 10
7277.839910195358
 20
5404.827276893862
 30
0.0
 11
7277.839910195358
 21
5402.827276893862
 31
0.0
  0
LINE
  5
197BF
330
747D
100
AcDbEntity
  8
細線
 48
50.0
100
AcDbLine
 10
7269.989500149392
 20
5404.827276893862
 30
0.0
 11
7269.989500149392
 21
5402.827276893862
 31
0.0
  0
LINE
  5
197C0
330
747D
100
AcDbEntity
  8
細線
 48
0.1
100
AcDbLine
 10
7281.852257343697
 20
5407.327276893862
 30
0.0
 11
7281.852257343697
 21
5400.327276893862
 31
0.0
  0
LINE
  5
197C1
330
747D
100
AcDbEntity
  8
部品1
 48
0.2
100
AcDbLine
 10
7281.852257343697
 20
5400.327276893862
 30
0.0
 11
7261.852257343696
 21
5400.327276893862
 31
0.0
  0
LINE
  5
197C2
330
747D
100
AcDbEntity
  8
細線
 48
0.2
100
AcDbLine
 10
7281.852257343697
 20
5402.827276893862
 30
0.0
 11
7261.852257343696
 21
5402.827276893862
 31
0.0
  0
LINE
  5
197C3
330
747D
100
AcDbEntity
  8
部品1
100
AcDbLine
 10
7281.852257343697
 20
5407.077276893859
 30
0.0
 11
7281.914705172377
 21
5407.07727689386
 31
0.0
  0
LINE
  5
197C4
330
747D
100
AcDbEntity
  8
部品1
100
AcDbLine
 10
7281.852257343697
 20
5407.077276893862
 30
0.0
 11
7281.914705172377
 21
5407.07727689386
 31
0.0
  0
LINE
  5
197C5
330
747D
100
AcDbEntity
  8
細線
 48
50.0
100
AcDbLine
 10
7261.852257343696
 20
5407.077276893862
 30
0.0
 11
7261.852257343696
 21
5407.327276893862
 31
0.0
  0
LINE
  5
197C6
330
747D
100
AcDbEntity
  8
細線
 48
0.2
100
AcDbLine
 10
7279.536248640204
 20
5408.027276893863
 30
0.0
 11
7268.168266047192
 21
5408.027276893863
 31
0.0
  0
ARC
  5
197C7
330
747D
100
AcDbEntity
  8
細線
 48
0.2
100
AcDbCircle
 10
7273.852257343697
 20
5390.527276893865
 30
0.0
 40
18.49999999999796
100
AcDbArc
 50
73.39845040097829
 51
106.6015495990228
  0
ARC
  5
197C8
330
747D
100
AcDbEntity
  8
細線
 48
0.2
100
AcDbCircle
 10
7268.852257343697
 20
5407.29778672511
 30
0.0
 40
1.0
100
AcDbArc
 50
106.6015495990225
 51
180.0000000000016
  0
LINE
  5
197C9
330
747D
100
AcDbEntity
  8
細線
 48
0.2
100
AcDbLine
 10
7281.852257343697
 20
5404.827276893862
 30
0.0
 11
7261.852257343696
 21
5404.827276893862
 31
0.0
  0
LINE
  5
197CA
330
747D
100
AcDbEntity
  8
細線
 48
0.2
100
AcDbLine
 10
7281.852257343697
 20
5407.327276893862
 30
0.0
 11
7261.852257343696
 21
5407.327276893862
 31
0.0
  0
ARC
  5
197CB
330
747D
100
AcDbEntity
  8
細線
 48
0.2
100
AcDbCircle
 10
7278.852257343697
 20
5407.29778672511
 30
0.0
 40
1.0
100
AcDbArc
 50
0.0
 51
73.39845040097829
  0
LINE
  5
197CC
330
747D
100
AcDbEntity
  8
部品1
100
AcDbLine
 10
6551.914705172378
 20
5407.077276893859
 30
0.0
 11
7261.852257343696
 21
5407.07727689386
 31
0.0
  0
LINE
  5
197CD
330
747D
100
AcDbEntity
  8
細線
 48
0.1
100
AcDbLine
 10
7281.852257343697
 20
4529.827276893878
 30
0.0
 11
7281.852257343697
 21
4536.827276893879
 31
0.0
  0
LINE
  5
197CE
330
747D
100
AcDbEntity
  8
細線
 48
50.0
100
AcDbLine
 10
7269.989500149392
 20
4532.32727689388
 30
0.0
 11
7269.989500149392
 21
4534.327276893878
 31
0.0
  0
LINE
  5
197CF
330
747D
100
AcDbEntity
  8
細線
 48
50.0
100
AcDbLine
 10
7277.839910195358
 20
4532.32727689388
 30
0.0
 11
7277.839910195358
 21
4534.327276893878
 31
0.0
  0
LINE
  5
197D0
330
747D
100
AcDbEntity
  8
部品1
 48
50.0
100
AcDbLine
 10
7261.852257343696
 20
4536.827276893879
 30
0.0
 11
7261.852257343696
 21
4530.07727689388
 31
0.0
  0
LINE
  5
197D1
330
747D
100
AcDbEntity
  8
部品1
100
AcDbLine
 10
7281.852257343697
 20
4530.07727689388
 30
0.0
 11
7281.914705172377
 21
4530.07727689388
 31
0.0
  0
ARC
  5
197D2
330
747D
100
AcDbEntity
  8
細線
 48
0.2
100
AcDbCircle
 10
7278.852257343697
 20
4529.85676706263
 30
0.0
 40
1.0
100
AcDbArc
 50
286.6015495990217
 51
0.0
  0
LINE
  5
197D3
330
747D
100
AcDbEntity
  8
細線
 48
0.2
100
AcDbLine
 10
7281.852257343697
 20
4529.827276893878
 30
0.0
 11
7261.852257343696
 21
4529.827276893878
 31
0.0
  0
LINE
  5
197D4
330
747D
100
AcDbEntity
  8
細線
 48
0.2
100
AcDbLine
 10
7281.852257343697
 20
4532.327276893878
 30
0.0
 11
7261.852257343696
 21
4532.32727689388
 31
0.0
  0
ARC
  5
197D5
330
747D
100
AcDbEntity
  8
細線
 48
0.2
100
AcDbCircle
 10
7268.852257343697
 20
4529.85676706263
 30
0.0
 40
1.0
100
AcDbArc
 50
179.9999999999984
 51
253.3984504009775
  0
ARC
  5
197D6
330
747D
100
AcDbEntity
  8
細線
 48
0.2
100
AcDbCircle
 10
7273.852257343697
 20
4546.627276893876
 30
0.0
 40
18.49999999999796
100
AcDbArc
 50
253.3984504009772
 51
286.6015495990217
  0
LINE
  5
197D7
330
747D
100
AcDbEntity
  8
細線
 48
0.2
100
AcDbLine
 10
7279.536248640204
 20
4529.127276893878
 30
0.0
 11
7268.168266047192
 21
4529.127276893878
 31
0.0
  0
LINE
  5
197D8
330
747D
100
AcDbEntity
  8
細線
 48
50.0
100
AcDbLine
 10
7261.852257343696
 20
4530.07727689388
 30
0.0
 11
7261.852257343696
 21
4529.827276893878
 31
0.0
  0
LINE
  5
197D9
330
747D
100
AcDbEntity
  8
部品1
100
AcDbLine
 10
7281.852257343697
 20
4530.07727689388
 30
0.0
 11
7281.914705172377
 21
4530.07727689388
 31
0.0
  0
LINE
  5
197DA
330
747D
100
AcDbEntity
  8
部品1
100
AcDbLine
 10
7281.852257343697
 20
4530.077276893882
 30
0.0
 11
7281.914705172377
 21
4530.077276893882
 31
0.0
  0
LINE
  5
197DB
330
747D
100
AcDbEntity
  8
細線
 48
0.2
100
AcDbLine
 10
7281.852257343697
 20
4534.327276893878
 30
0.0
 11
7261.852257343696
 21
4534.327276893878
 31
0.0
  0
LINE
  5
197DC
330
747D
100
AcDbEntity
  8
部品1
 48
0.2
100
AcDbLine
 10
7281.852257343697
 20
4536.827276893879
 30
0.0
 11
7261.852257343696
 21
4536.827276893879
 31
0.0
  0
LINE
  5
197DD
330
747D
100
AcDbEntity
  8
部品1
100
AcDbLine
 10
6551.914705172378
 20
4530.077276893873
 30
0.0
 11
7261.852257343696
 21
4530.07727689388
 31
0.0
  0
LINE
  5
197DE
330
747D
100
AcDbEntity
  8
部品1
100
AcDbLine
 10
6549.914705172378
 20
5409.577276893861
 30
0.0
 11
6549.914705172381
 21
4523.077276893865
 31
0.0
  0
LINE
  5
197DF
330
747D
100
AcDbEntity
  8
部品1
100
AcDbLine
 10
6551.914705172378
 20
5407.077276893859
 30
0.0
 11
6551.914705172378
 21
4530.077276893873
 31
0.0
  0
LINE
  5
197E0
330
747D
100
AcDbEntity
  8
部品1
100
AcDbLine
 10
7281.914705172377
 20
5407.07727689386
 30
0.0
 11
7281.914705172379
 21
4530.07727689388
 31
0.0
  0
LINE
  5
197E1
330
747D
100
AcDbEntity
  8
部品1
100
AcDbLine
 10
7283.914705172377
 20
5409.577276893861
 30
0.0
 11
7283.914705172377
 21
4523.077276893871
 31
0.0
  0
LINE
  5
197E2
330
747D
100
AcDbEntity
  8
部品1
100
AcDbLine
 10
6519.914705172377
 20
4523.077276893864
 30
0.0
 11
6519.914705172377
 21
4502.077276893864
 31
0.0
  0
ARC
  5
197E3
330
747D
100
AcDbEntity
  8
部品1
100
AcDbCircle
 10
6524.914705172378
 20
4502.077276893864
 30
0.0
 40
5.0
100
AcDbArc
 50
180.0
 51
270.0000000000007
  0
LINE
  5
197E4
330
747D
100
AcDbEntity
  8
部品1
100
AcDbLine
 10
6519.914705172377
 20
4523.077276893864
 30
0.0
 11
7313.914705172376
 21
4523.077276893871
 31
0.0
  0
DIMENSION
  5
1980B
330
747D
100
AcDbEntity
  8
寸法
 48
50.0
100
AcDbDimension
  2
*D34
 10
6426.914705172395
 20
7920.942789184611
 30
0.0
 11
6084.414705172398
 21
7920.942789184611
 31
0.0
 70
   160
 71
     5
 42
684.9999999999954
  3
INABA_S40G
100
AcDbAlignedDimension
 13
5741.914705172399
 23
8360.766456979687
 33
0.0
 14
6426.914705172395
 24
8360.766456979652
 34
0.0
100
AcDbRotatedDimension
  0
LINE
  5
1980C
330
747D
100
AcDbEntity
  8
想像線
 48
10.0
100
AcDbLine
 10
6461.914705172396
 20
8360.76645697973
 30
0.0
 11
6461.914705172396
 21
7639.848813323941
 31
0.0
  0
ARC
  5
1980D
330
747D
100
AcDbEntity
  8
想像線
 48
10.0
100
AcDbCircle
 10
6454.562654495235
 20
8362.461350355301
 30
0.0
 40
722.6499369155582
100
AcDbArc
 50
180.1343808685482
 51
270.5829222700354
  0
LINE
  5
19810
330
747D
100
AcDbEntity
  8
細線
 48
50.0
100
AcDbLine
 10
6126.914705172368
 20
9289.266456979728
 30
0.0
 11
6066.914705172367
 21
9289.266456979722
 31
0.0
  0
LINE
  5
19811
330
747D
100
AcDbEntity
  8
細線
 48
50.0
100
AcDbLine
 10
6066.914705172369
 20
9289.266456979722
 30
0.0
 11
6066.914705172367
 21
9310.766456979722
 31
0.0
  0
LINE
  5
19812
330
747D
100
AcDbEntity
  8
細線
 48
50.0
100
AcDbLine
 10
6126.914705172368
 20
9289.266456979728
 30
0.0
 11
6126.914705172367
 21
9310.766456979729
 31
0.0
  0
LINE
  5
19813
330
747D
100
AcDbEntity
  8
細線
 48
50.0
100
AcDbLine
 10
6308.914705172396
 20
8386.766456979966
 30
0.0
 11
6308.914705172396
 21
8360.766456979929
 31
0.0
  0
LINE
  5
19814
330
747D
100
AcDbEntity
  8
細線
 48
50.0
100
AcDbLine
 10
6268.914705172395
 20
8386.766456979966
 30
0.0
 11
6268.914705172395
 21
8360.766456979929
 31
0.0
  0
LINE
  5
19815
330
747D
100
AcDbEntity
  8
細線
 48
50.0
100
AcDbLine
 10
6041.914705172396
 20
8386.766456979753
 30
0.0
 11
6041.914705172396
 21
8360.766456979716
 31
0.0
  0
LINE
  5
19816
330
747D
100
AcDbEntity
  8
細線
 48
50.0
100
AcDbLine
 10
6081.914705172396
 20
8386.766456979753
 30
0.0
 11
6081.914705172396
 21
8360.766456979716
 31
0.0
  0
LINE
  5
19817
330
747D
100
AcDbEntity
  8
細線
 48
50.0
100
AcDbLine
 10
5855.914705172396
 20
8386.766456979763
 30
0.0
 11
5855.914705172396
 21
8360.766456979716
 31
0.0
  0
LINE
  5
19818
330
747D
100
AcDbEntity
  8
部品1
 48
5.0
100
AcDbLine
 10
6534.91470517233
 20
9255.766456979738
 30
0.0
 11
6478.91470517233
 21
9255.766456979738
 31
0.0
  0
LINE
  5
1981A
330
747D
100
AcDbEntity
  8
部品1
 48
5.0
100
AcDbLine
 10
6451.914705172399
 20
9282.766456979738
 30
0.0
 11
6451.914705172402
 21
9310.766456979738
 31
0.0
  0
LINE
  5
1981B
330
747D
100
AcDbEntity
  8
部品1
 48
50.0
100
AcDbLine
 10
6477.414705172336
 20
9281.211937399577
 30
0.0
 11
6478.914705172329
 21
9282.766456979738
 31
0.0
  0
LINE
  5
1981C
330
747D
100
AcDbEntity
  8
部品1
 48
50.0
100
AcDbLine
 10
6536.414705172337
 20
9281.26644979128
 30
0.0
 11
6534.914705172329
 21
9282.766456979738
 31
0.0
  0
LINE
  5
1981D
330
747D
100
AcDbEntity
  8
部品1
 48
5.0
100
AcDbLine
 10
6561.914705172405
 20
9310.766456979742
 30
0.0
 11
6561.9147051724
 21
9282.766456979745
 31
0.0
  0
LINE
  5
1981E
330
747D
100
AcDbEntity
  8
部品1
 48
5.0
100
AcDbLine
 10
6506.914705172381
 20
8835.766456979735
 30
0.0
 11
6478.91470517233
 21
8835.766456979738
 31
0.0
  0
LINE
  5
1981F
330
747D
100
AcDbEntity
  8
部品1
 48
50.0
100
AcDbLine
 10
6563.41567659879
 20
8492.265374671253
 30
0.0
 11
6534.914705172382
 21
8464.26645697973
 31
0.0
  0
LINE
  5
19820
330
747D
100
AcDbEntity
  8
部品1
 48
5.0
100
AcDbLine
 10
6538.914705172398
 20
8415.76645697973
 30
0.0
 11
6561.914705172397
 21
8415.76645697973
 31
0.0
  0
LINE
  5
19821
330
747D
100
AcDbEntity
  8
部品1
 48
5.0
100
AcDbLine
 10
6478.914705172382
 20
8415.76645697973
 30
0.0
 11
6534.914705172382
 21
8415.76645697973
 31
0.0
  0
LINE
  5
19822
330
747D
100
AcDbEntity
  8
部品1
 48
50.0
100
AcDbLine
 10
6478.914705172382
 20
8464.26645697973
 30
0.0
 11
6451.414705172381
 21
8492.266456979738
 31
0.0
  0
LINE
  5
19823
330
747D
100
AcDbEntity
  8
部品1
 48
5.0
100
AcDbLine
 10
6474.914705172398
 20
8415.76645697973
 30
0.0
 11
6451.914705172396
 21
8415.76645697973
 31
0.0
  0
LINE
  5
19824
330
747D
100
AcDbEntity
  8
部品1
 48
5.0
100
AcDbLine
 10
6451.914705172398
 20
8415.76645697973
 30
0.0
 11
6451.914705172399
 21
8390.26645697973
 31
0.0
  0
LINE
  5
19825
330
747D
100
AcDbEntity
  8
部品1
 48
5.0
100
AcDbLine
 10
6482.914705172397
 20
8415.76645697973
 30
0.0
 11
6482.914705172397
 21
8390.26645697973
 31
0.0
  0
LINE
  5
19826
330
747D
100
AcDbEntity
  8
部品1
 48
5.0
100
AcDbLine
 10
6530.914705172399
 20
8415.76645697973
 30
0.0
 11
6530.914705172398
 21
8390.26645697973
 31
0.0
  0
LINE
  5
19827
330
747D
100
AcDbEntity
  8
部品1
 48
5.0
100
AcDbLine
 10
6561.914705172397
 20
8415.76645697973
 30
0.0
 11
6561.9147051724
 21
8390.26645697973
 31
0.0
  0
LINE
  5
19828
330
747D
100
AcDbEntity
  8
部品1
 48
5.0
100
AcDbLine
 10
6463.914705172398
 20
8360.76645697973
 30
0.0
 11
6549.914705172398
 21
8360.76645697973
 31
0.0
  0
LINE
  5
19829
330
747D
100
AcDbEntity
  8
部品1
 48
0.2
100
AcDbLine
 10
6448.977153001073
 20
8353.764086934953
 30
0.0
 11
6453.977153001073
 21
8353.764086934953
 31
0.0
  0
ARC
  5
1982A
330
747D
100
AcDbEntity
  8
細線
 48
0.2
100
AcDbCircle
 10
6453.977153001073
 20
8361.764086934952
 30
0.0
 40
4.049999999999999
100
AcDbArc
 50
194.2603506853988
 51
345.7396493146012
  0
ARC
  5
1982B
330
747D
100
AcDbEntity
  8
部品1
 48
0.2
100
AcDbCircle
 10
6448.977153001073
 20
8361.764086934952
 30
0.0
 40
8.0
100
AcDbArc
 50
187.1636477221926
 51
269.9999999999992
  0
ARC
  5
1982C
330
747D
100
AcDbEntity
  8
部品1
 48
0.2
100
AcDbCircle
 10
6453.977153001073
 20
8361.764086934952
 30
0.0
 40
8.0
100
AcDbArc
 50
270.0
 51
352.8363522778074
  0
LINE
  5
1982D
330
747D
100
AcDbEntity
  8
部品1
100
AcDbLine
 10
6461.914705172396
 20
8386.766456979783
 30
0.0
 11
6461.914705172396
 21
8360.766456979728
 31
0.0
  0
LINE
  5
1982E
330
747D
100
AcDbEntity
  8
部品1
100
AcDbLine
 10
6551.914705172396
 20
8386.766456979753
 30
0.0
 11
6551.914705172396
 21
8360.766456979716
 31
0.0
  0
LINE
  5
1982F
330
747D
100
AcDbEntity
  8
部品1
 48
5.0
100
AcDbLine
 10
6463.914705172398
 20
8390.26645697973
 30
0.0
 11
6463.914705172398
 21
8360.76645697973
 31
0.0
  0
LINE
  5
19830
330
747D
100
AcDbEntity
  8
部品1
100
AcDbLine
 10
6463.914705172395
 20
8390.266456979677
 30
0.0
 11
6463.914705172392
 21
8360.766456979723
 31
0.0
  0
LINE
  5
19831
330
747D
100
AcDbEntity
  8
部品1
 48
5.0
100
AcDbLine
 10
6549.914705172398
 20
8390.26645697973
 30
0.0
 11
6549.914705172398
 21
8360.76645697973
 31
0.0
  0
LINE
  5
19832
330
747D
100
AcDbEntity
  8
部品1
100
AcDbLine
 10
6549.914705172395
 20
8390.266456979684
 30
0.0
 11
6549.914705172398
 21
8360.76645697973
 31
0.0
  0
LINE
  5
19833
330
747D
100
AcDbEntity
  8
部品1
 48
50.0
100
AcDbLine
 10
6506.914705172381
 20
8415.76645697973
 30
0.0
 11
6506.914705172381
 21
9255.766456979738
 31
0.0
  0
LINE
  5
19835
330
747D
100
AcDbEntity
  8
部品1
 48
50.0
100
AcDbLine
 10
6451.414705172381
 20
8492.266456979738
 30
0.0
 11
6451.414705172358
 21
8831.266456979696
 31
0.0
  0
LINE
  5
19837
330
747D
100
AcDbEntity
  8
部品1
 48
50.0
100
AcDbLine
 10
6534.914705172382
 20
8415.76645697973
 30
0.0
 11
6534.914705172326
 21
9310.766456979738
 31
0.0
  0
LINE
  5
19838
330
747D
100
AcDbEntity
  8
点線
 48
10.0
100
AcDbLine
 10
6427.914705172388
 20
8515.766456979738
 30
0.0
 11
6427.914696817836
 21
8831.266456979696
 31
0.0
  0
LINE
  5
1983A
330
747D
100
AcDbEntity
  8
部品1
100
AcDbLine
 10
5741.914705172367
 20
9310.766456979658
 30
0.0
 11
5741.91470517237
 21
9282.766456979658
 31
0.0
  0
LINE
  5
1983B
330
747D
100
AcDbEntity
  8
部品1
100
AcDbLine
 10
5741.914705172403
 20
9310.766456979694
 30
0.0
 11
5741.914705172403
 21
9282.766456979695
 31
0.0
  0
LINE
  5
1983C
330
747D
100
AcDbEntity
  8
部品1
 48
2.83
100
AcDbLine
 10
5718.914705172395
 20
8415.766456979614
 30
0.0
 11
5741.914705172396
 21
8415.766456979614
 31
0.0
  0
LINE
  5
1983D
330
747D
100
AcDbEntity
  8
部品1
 48
2.83
100
AcDbLine
 10
5741.914705172396
 20
8415.766456979614
 30
0.0
 11
5741.914705172399
 21
8390.266456979615
 31
0.0
  0
LINE
  5
1983E
330
747D
100
AcDbEntity
  8
部品1
100
AcDbLine
 10
5731.914705172396
 20
8386.766456979716
 30
0.0
 11
5731.914705172396
 21
8360.76645697968
 31
0.0
  0
LINE
  5
1983F
330
747D
100
AcDbEntity
  8
部品1
 48
2.83
100
AcDbLine
 10
5729.914705172395
 20
8390.266456979615
 30
0.0
 11
5729.914705172395
 21
8360.766456979614
 31
0.0
  0
LINE
  5
19840
330
747D
100
AcDbEntity
  8
部品1
 48
5.0
100
AcDbLine
 10
5743.41567659736
 20
8492.266456979789
 30
0.0
 11
5743.41518366605
 21
8831.266456979705
 31
0.0
  0
LINE
  5
19842
330
747D
100
AcDbEntity
  8
部品1
100
AcDbLine
 10
6451.41527562056
 20
8492.265876159775
 30
0.0
 11
5743.41567659879
 21
8492.265374671253
 31
0.0
  0
LINE
  5
19843
330
747D
100
AcDbEntity
  8
破線
 48
10.0
100
AcDbLine
 10
6427.914705172388
 20
8515.76645697972
 30
0.0
 11
5766.914705172388
 21
8515.766456979703
 31
0.0
  0
LINE
  5
19844
330
747D
100
AcDbEntity
  8
部品1
100
AcDbLine
 10
6461.914705172396
 20
8386.766456979746
 30
0.0
 11
5731.914705172396
 21
8386.766456979716
 31
0.0
  0
LINE
  5
19845
330
747D
100
AcDbEntity
  8
部品1
 48
5.0
100
AcDbLine
 10
5710.914705172398
 20
8390.266456979613
 30
0.0
 11
6482.914705172397
 21
8390.266456979672
 31
0.0
  0
LINE
  5
19846
330
747D
100
AcDbEntity
  8
部品1
100
AcDbLine
 10
5714.914705172403
 20
9282.766456979695
 30
0.0
 11
6504.295408191025
 21
9282.766456979716
 31
0.0
  0
DIMENSION
  5
1985C
330
747D
100
AcDbEntity
  8
寸法
 48
50.0
100
AcDbDimension
  2
*D35
 10
7246.914705172395
 20
7920.942789184611
 30
0.0
 11
6904.414705172398
 21
7920.942789184611
 31
0.0
 70
   160
 71
     5
 42
684.9999999999954
  3
INABA_S40G
100
AcDbAlignedDimension
 13
6561.9147051724
 23
8360.766456979687
 33
0.0
 14
7246.914705172395
 24
8360.766456979652
 34
0.0
100
AcDbRotatedDimension
  0
LINE
  5
1985D
330
747D
100
AcDbEntity
  8
想像線
 48
10.0
100
AcDbLine
 10
7281.914705172396
 20
8360.76645697973
 30
0.0
 11
7281.914705172396
 21
7639.848813323941
 31
0.0
  0
ARC
  5
1985E
330
747D
100
AcDbEntity
  8
想像線
 48
10.0
100
AcDbCircle
 10
7274.562654495236
 20
8362.461350355301
 30
0.0
 40
722.6499369155582
100
AcDbArc
 50
180.1343808685482
 51
270.5829222700354
  0
LINE
  5
19861
330
747D
100
AcDbEntity
  8
細線
 48
50.0
100
AcDbLine
 10
6946.914705172368
 20
9289.266456979728
 30
0.0
 11
6886.914705172367
 21
9289.266456979722
 31
0.0
  0
LINE
  5
19862
330
747D
100
AcDbEntity
  8
細線
 48
50.0
100
AcDbLine
 10
6886.914705172369
 20
9289.266456979722
 30
0.0
 11
6886.914705172367
 21
9310.766456979722
 31
0.0
  0
LINE
  5
19863
330
747D
100
AcDbEntity
  8
細線
 48
50.0
100
AcDbLine
 10
6946.914705172368
 20
9289.266456979728
 30
0.0
 11
6946.914705172367
 21
9310.766456979729
 31
0.0
  0
LINE
  5
19864
330
747D
100
AcDbEntity
  8
細線
 48
50.0
100
AcDbLine
 10
7128.914705172396
 20
8386.766456979966
 30
0.0
 11
7128.914705172396
 21
8360.766456979929
 31
0.0
  0
LINE
  5
19865
330
747D
100
AcDbEntity
  8
細線
 48
50.0
100
AcDbLine
 10
7088.914705172395
 20
8386.766456979966
 30
0.0
 11
7088.914705172395
 21
8360.766456979929
 31
0.0
  0
LINE
  5
19866
330
747D
100
AcDbEntity
  8
細線
 48
50.0
100
AcDbLine
 10
6861.914705172395
 20
8386.766456979753
 30
0.0
 11
6861.914705172395
 21
8360.766456979716
 31
0.0
  0
LINE
  5
19867
330
747D
100
AcDbEntity
  8
細線
 48
50.0
100
AcDbLine
 10
6901.914705172396
 20
8386.766456979753
 30
0.0
 11
6901.914705172396
 21
8360.766456979716
 31
0.0
  0
LINE
  5
19868
330
747D
100
AcDbEntity
  8
細線
 48
50.0
100
AcDbLine
 10
6675.914705172395
 20
8386.766456979763
 30
0.0
 11
6675.914705172395
 21
8360.766456979716
 31
0.0
  0
LINE
  5
19869
330
747D
100
AcDbEntity
  8
部品1
 48
5.0
100
AcDbLine
 10
7354.914705172331
 20
9255.766456979738
 30
0.0
 11
7298.914705172331
 21
9255.766456979738
 31
0.0
  0
LINE
  5
1986B
330
747D
100
AcDbEntity
  8
部品1
 48
5.0
100
AcDbLine
 10
7271.914705172399
 20
9282.766456979738
 30
0.0
 11
7271.914705172401
 21
9310.766456979738
 31
0.0
  0
LINE
  5
1986C
330
747D
100
AcDbEntity
  8
部品1
 48
50.0
100
AcDbLine
 10
7297.414705172336
 20
9281.211937399577
 30
0.0
 11
7298.914705172329
 21
9282.766456979738
 31
0.0
  0
LINE
  5
1986D
330
747D
100
AcDbEntity
  8
部品1
 48
50.0
100
AcDbLine
 10
7356.414705172337
 20
9281.211935459479
 30
0.0
 11
7354.914705172328
 21
9282.766456979738
 31
0.0
  0
LINE
  5
1986E
330
747D
100
AcDbEntity
  8
部品1
 48
5.0
100
AcDbLine
 10
7381.914705172405
 20
9310.766456979742
 30
0.0
 11
7381.9147051724
 21
9282.766456979745
 31
0.0
  0
LINE
  5
1986F
330
747D
100
AcDbEntity
  8
部品1
 48
5.0
100
AcDbLine
 10
7326.914705172382
 20
8835.766456979735
 30
0.0
 11
7298.914705172331
 21
8835.766456979738
 31
0.0
  0
LINE
  5
19870
330
747D
100
AcDbEntity
  8
部品1
 48
50.0
100
AcDbLine
 10
7382.414705172379
 20
8492.266457004403
 30
0.0
 11
7354.91470517238
 21
8464.26645697973
 31
0.0
  0
LINE
  5
19871
330
747D
100
AcDbEntity
  8
部品1
 48
5.0
100
AcDbLine
 10
7358.914705172399
 20
8415.76645697973
 30
0.0
 11
7381.914705172397
 21
8415.76645697973
 31
0.0
  0
LINE
  5
19872
330
747D
100
AcDbEntity
  8
部品1
 48
5.0
100
AcDbLine
 10
7298.914705172382
 20
8415.76645697973
 30
0.0
 11
7354.91470517238
 21
8415.76645697973
 31
0.0
  0
LINE
  5
19873
330
747D
100
AcDbEntity
  8
部品1
 48
50.0
100
AcDbLine
 10
7298.914705172382
 20
8464.26645697973
 30
0.0
 11
7271.414705172381
 21
8492.266456979738
 31
0.0
  0
LINE
  5
19874
330
747D
100
AcDbEntity
  8
部品1
 48
5.0
100
AcDbLine
 10
7294.914705172399
 20
8415.76645697973
 30
0.0
 11
7271.914705172396
 21
8415.76645697973
 31
0.0
  0
LINE
  5
19875
330
747D
100
AcDbEntity
  8
部品1
 48
5.0
100
AcDbLine
 10
7271.914705172398
 20
8415.76645697973
 30
0.0
 11
7271.914705172399
 21
8390.26645697973
 31
0.0
  0
LINE
  5
19876
330
747D
100
AcDbEntity
  8
部品1
 48
5.0
100
AcDbLine
 10
7302.914705172398
 20
8415.76645697973
 30
0.0
 11
7302.914705172398
 21
8390.26645697973
 31
0.0
  0
LINE
  5
19877
330
747D
100
AcDbEntity
  8
部品1
 48
5.0
100
AcDbLine
 10
7350.914705172399
 20
8415.76645697973
 30
0.0
 11
7350.914705172397
 21
8390.26645697973
 31
0.0
  0
LINE
  5
19878
330
747D
100
AcDbEntity
  8
部品1
 48
5.0
100
AcDbLine
 10
7381.914705172397
 20
8415.76645697973
 30
0.0
 11
7381.9147051724
 21
8390.26645697973
 31
0.0
  0
LINE
  5
19879
330
747D
100
AcDbEntity
  8
部品1
 48
5.0
100
AcDbLine
 10
7283.914705172398
 20
8360.76645697973
 30
0.0
 11
7369.914705172398
 21
8360.76645697973
 31
0.0
  0
LINE
  5
1987A
330
747D
100
AcDbEntity
  8
部品1
 48
0.2
100
AcDbLine
 10
7268.977153001073
 20
8353.764086934953
 30
0.0
 11
7273.977153001073
 21
8353.764086934953
 31
0.0
  0
ARC
  5
1987B
330
747D
100
AcDbEntity
  8
細線
 48
0.2
100
AcDbCircle
 10
7273.977153001073
 20
8361.764086934952
 30
0.0
 40
4.049999999999999
100
AcDbArc
 50
194.2603506853988
 51
345.7396493146012
  0
ARC
  5
1987C
330
747D
100
AcDbEntity
  8
部品1
 48
0.2
100
AcDbCircle
 10
7268.977153001073
 20
8361.764086934952
 30
0.0
 40
8.0
100
AcDbArc
 50
187.1636477221926
 51
269.9999999999992
  0
ARC
  5
1987D
330
747D
100
AcDbEntity
  8
部品1
 48
0.2
100
AcDbCircle
 10
7273.977153001073
 20
8361.764086934952
 30
0.0
 40
8.0
100
AcDbArc
 50
270.0
 51
352.8363522778074
  0
LINE
  5
1987E
330
747D
100
AcDbEntity
  8
部品1
100
AcDbLine
 10
7281.914705172396
 20
8386.766456979783
 30
0.0
 11
7281.914705172396
 21
8360.766456979728
 31
0.0
  0
LINE
  5
1987F
330
747D
100
AcDbEntity
  8
部品1
100
AcDbLine
 10
7371.914705172397
 20
8386.766456979753
 30
0.0
 11
7371.914705172397
 21
8360.766456979716
 31
0.0
  0
LINE
  5
19880
330
747D
100
AcDbEntity
  8
部品1
 48
5.0
100
AcDbLine
 10
7283.914705172398
 20
8390.26645697973
 30
0.0
 11
7283.914705172398
 21
8360.76645697973
 31
0.0
  0
LINE
  5
19881
330
747D
100
AcDbEntity
  8
部品1
100
AcDbLine
 10
7283.914705172396
 20
8390.266456979677
 30
0.0
 11
7283.914705172392
 21
8360.766456979723
 31
0.0
  0
LINE
  5
19882
330
747D
100
AcDbEntity
  8
部品1
 48
5.0
100
AcDbLine
 10
7369.914705172398
 20
8390.26645697973
 30
0.0
 11
7369.914705172398
 21
8360.76645697973
 31
0.0
  0
LINE
  5
19883
330
747D
100
AcDbEntity
  8
部品1
100
AcDbLine
 10
7369.914705172395
 20
8390.266456979684
 30
0.0
 11
7369.914705172398
 21
8360.76645697973
 31
0.0
  0
LINE
  5
19884
330
747D
100
AcDbEntity
  8
部品1
 48
50.0
100
AcDbLine
 10
7326.914705172382
 20
8415.76645697973
 30
0.0
 11
7326.914705172382
 21
9255.766456979738
 31
0.0
  0
LINE
  5
19885
330
747D
100
AcDbEntity
  8
部品1
 48
50.0
100
AcDbLine
 10
7382.414698828096
 20
8492.266457004401
 30
0.0
 11
7382.414701800957
 21
8831.266456979703
 31
0.0
  0
LINE
  5
19886
330
747D
100
AcDbEntity
  8
部品1
 48
50.0
100
AcDbLine
 10
7271.414705172381
 20
8492.266456979738
 30
0.0
 11
7271.414705172358
 21
8831.266456979697
 31
0.0
  0
LINE
  5
19887
330
747D
100
AcDbEntity
  8
部品1
 48
50.0
100
AcDbLine
 10
7298.914705172382
 20
8415.76645697973
 30
0.0
 11
7298.914705172329
 21
9310.766456979765
 31
0.0
  0
LINE
  5
19888
330
747D
100
AcDbEntity
  8
部品1
 48
50.0
100
AcDbLine
 10
7354.91470517238
 20
8415.76645697973
 30
0.0
 11
7354.914705172326
 21
9310.766456979738
 31
0.0
  0
LINE
  5
19889
330
747D
100
AcDbEntity
  8
点線
 48
10.0
100
AcDbLine
 10
7247.914705172388
 20
8515.766456979738
 30
0.0
 11
7247.914696817836
 21
8831.266456979696
 31
0.0
  0
LINE
  5
1988A
330
747D
100
AcDbEntity
  8
点線
 48
10.0
100
AcDbLine
 10
7405.914705172389
 20
8515.766456979745
 30
0.0
 11
7405.914692741278
 21
8831.266456979703
 31
0.0
  0
LINE
  5
1988B
330
747D
100
AcDbEntity
  8
部品1
100
AcDbLine
 10
6561.914705172367
 20
9310.766456979658
 30
0.0
 11
6561.91470517237
 21
9282.766456979658
 31
0.0
  0
LINE
  5
1988C
330
747D
100
AcDbEntity
  8
部品1
100
AcDbLine
 10
6561.914705172402
 20
9310.766456979694
 30
0.0
 11
6561.914705172402
 21
9282.766456979695
 31
0.0
  0
LINE
  5
1988D
330
747D
100
AcDbEntity
  8
部品1
 48
2.83
100
AcDbLine
 10
6538.914705172395
 20
8415.766456979614
 30
0.0
 11
6561.914705172395
 21
8415.766456979614
 31
0.0
  0
LINE
  5
1988E
330
747D
100
AcDbEntity
  8
部品1
 48
2.83
100
AcDbLine
 10
6561.914705172395
 20
8415.766456979614
 30
0.0
 11
6561.9147051724
 21
8390.266456979615
 31
0.0
  0
LINE
  5
1988F
330
747D
100
AcDbEntity
  8
部品1
100
AcDbLine
 10
6551.914705172396
 20
8386.766456979716
 30
0.0
 11
6551.914705172396
 21
8360.76645697968
 31
0.0
  0
LINE
  5
19890
330
747D
100
AcDbEntity
  8
部品1
 48
2.83
100
AcDbLine
 10
6549.914705172395
 20
8390.266456979615
 30
0.0
 11
6549.914705172395
 21
8360.766456979614
 31
0.0
  0
LINE
  5
19891
330
747D
100
AcDbEntity
  8
部品1
 48
5.0
100
AcDbLine
 10
6563.41567659736
 20
8492.266456979789
 30
0.0
 11
6563.415183666049
 21
8831.266456979703
 31
0.0
  0
LINE
  5
19893
330
747D
100
AcDbEntity
  8
部品1
100
AcDbLine
 10
7271.415275620561
 20
8492.265876159775
 30
0.0
 11
6563.41567659879
 21
8492.265374671253
 31
0.0
  0
LINE
  5
19894
330
747D
100
AcDbEntity
  8
破線
 48
10.0
100
AcDbLine
 10
7247.914705172388
 20
8515.76645697972
 30
0.0
 11
6586.914705172389
 21
8515.766456979703
 31
0.0
  0
LINE
  5
19895
330
747D
100
AcDbEntity
  8
部品1
100
AcDbLine
 10
7281.914705172396
 20
8386.766456979746
 30
0.0
 11
6551.914705172396
 21
8386.766456979716
 31
0.0
  0
LINE
  5
19896
330
747D
100
AcDbEntity
  8
部品1
 48
5.0
100
AcDbLine
 10
6530.914705172398
 20
8390.266456979613
 30
0.0
 11
7302.914705172398
 21
8390.266456979672
 31
0.0
  0
LINE
  5
19897
330
747D
100
AcDbEntity
  8
部品1
100
AcDbLine
 10
6534.914705172403
 20
9282.766456979695
 30
0.0
 11
7324.295408191026
 21
9282.766456979716
 31
0.0
  0
DIMENSION
  5
1990D
330
747D
100
AcDbEntity
  8
寸法
 48
50.0
100
AcDbDimension
  2
*D37
 10
6561.914705172405
 20
9526.574676604793
 30
0.0
 11
6916.914705172404
 21
9626.574676604793
 31
0.0
 70
    32
 71
     5
 42
709.9999999999981
  3
INABA_S40G
100
AcDbAlignedDimension
 13
7271.914705172403
 23
9310.766456979804
 33
0.0
 14
6561.914705172405
 24
9310.76645697979
 34
0.0
100
AcDbRotatedDimension
  0
DIMENSION
  5
1990E
330
747D
100
AcDbEntity
  8
寸法
 48
50.0
100
AcDbDimension
  2
*D36
 10
6561.914705172405
 20
9526.574676604793
 30
0.0
 11
6506.914705172403
 21
9626.574676604793
 31
0.0
 70
    32
 71
     5
 42
110.0000000000036
  3
INABA_S40G
100
AcDbAlignedDimension
 13
6451.914705172402
 23
9310.766456979811
 33
0.0
 14
6561.914705172405
 24
9310.76645697979
 34
0.0
100
AcDbRotatedDimension
  0
DIMENSION
  5
1993D
330
747D
100
AcDbEntity
  8
寸法
 48
50.0
100
AcDbDimension
  2
*D39
 10
5741.914705172405
 20
9526.574676604793
 30
0.0
 11
6096.914705172404
 21
9626.574676604793
 31
0.0
 70
    32
 71
     5
 42
709.9999999999981
  3
INABA_S40G
100
AcDbAlignedDimension
 13
6451.914705172403
 23
9310.766456979804
 33
0.0
 14
5741.914705172405
 24
9310.76645697979
 34
0.0
100
AcDbRotatedDimension
  0
DIMENSION
  5
1993E
330
747D
100
AcDbEntity
  8
寸法
 48
50.0
100
AcDbDimension
  2
*D38
 10
5741.914705172405
 20
9526.574676604793
 30
0.0
 11
5686.914705172403
 21
9626.574676604793
 31
0.0
 70
    32
 71
     5
 42
110.0000000000036
  3
INABA_S40G
100
AcDbAlignedDimension
 13
5631.914705172402
 23
9310.766456979811
 33
0.0
 14
5741.914705172405
 24
9310.76645697979
 34
0.0
100
AcDbRotatedDimension
  0
DIMENSION
  5
19BBC
330
747D
100
AcDbEntity
  8
寸法
100
AcDbDimension
  2
*D40
 10
8472.772431034362
 20
8736.048641310807
 30
0.0
 11
8372.772431034361
 21
8961.048641310808
 31
0.0
 70
    32
 71
     5
 42
450.0
  3
INABA_S40G
100
AcDbAlignedDimension
 13
8117.414705172336
 23
9281.266456979697
 33
0.0
 14
8117.414705172336
 24
8831.266456979696
 34
0.0
 50
90.0
100
AcDbRotatedDimension
1001
ACAD
1000
DSTYLE
1002
{
1002
}
  0
MTEXT
  5
19BBD
330
747D
100
AcDbEntity
  8
寸法
 62
     7
 48
50.0
100
AcDbMText
 10
7757.683419762168
 20
9022.952155350827
 30
0.0
 40
96.0
 41
0.0
 71
     5
 72
     1
  1
棚上下\P各1段
  7
STYLE1
 73
     1
 44
1.0
1001
ACAD
1000
MTEXTBEGIN
1070
    73
1070
     1
1070
    44
1040
1.0
1070
    74
1070
     0
1000
MTEXTEND
  0
LINE
  5
19BBE
330
747D
100
AcDbEntity
  8
細線
 48
50.0
100
AcDbLine
 10
8117.414705172336
 20
8831.266456979696
 30
0.0
 11
7356.414705172335
 21
9281.266456979698
 31
0.0
  0
DIMENSION
  5
19BBF
330
747D
100
AcDbEntity
  8
寸法
100
AcDbDimension
  2
*D41
 10
8058.72120887837
 20
8612.21934673672
 30
0.0
 11
7735.761767290604
 21
8612.21934673672
 31
0.0
 70
   160
 71
     5
 42
761.0000000000118
  3
INABA_S40G
100
AcDbAlignedDimension
 13
7356.414705172335
 23
8831.266456979703
 33
0.0
 14
8117.414705172349
 24
8831.266456979699
 34
0.0
100
AcDbRotatedDimension
1001
ACAD
1000
DSTYLE
1002
{
1002
}
  0
LINE
  5
19BC0
330
747D
100
AcDbEntity
  8
部品1
100
AcDbLine
 10
7356.414705172335
 20
8831.266456979703
 30
0.0
 11
8117.414705172336
 21
8831.266456979696
 31
0.0
  0
LINE
  5
19BC1
330
747D
100
AcDbEntity
  8
部品1
 48
50.0
100
AcDbLine
 10
7326.914705172383
 20
8835.766456979703
 30
0.0
 11
7354.914705172366
 21
8835.766456979706
 31
0.0
  0
LINE
  5
19BC2
330
747D
100
AcDbEntity
  8
部品1
 48
50.0
100
AcDbLine
 10
7326.914705172383
 20
8873.766456979703
 30
0.0
 11
7354.914705172366
 21
8873.766456979707
 31
0.0
  0
LINE
  5
19BC3
330
747D
100
AcDbEntity
  8
細線
 48
50.0
100
AcDbLine
 10
8117.414705172336
 20
9281.266456979697
 30
0.0
 11
7356.414705172335
 21
8831.266456979703
 31
0.0
  0
LINE
  5
19BC4
330
747D
100
AcDbEntity
  8
部品1
100
AcDbLine
 10
7356.414705172335
 20
9281.266456979704
 30
0.0
 11
8117.414705172336
 21
9281.266456979697
 31
0.0
  0
LINE
  5
19BC5
330
747D
100
AcDbEntity
  8
部品1
 48
50.0
100
AcDbLine
 10
7356.414705172335
 20
9281.266456979698
 30
0.0
 11
7356.414705172335
 21
8831.266456979703
 31
0.0
  0
LINE
  5
19BC6
330
747D
100
AcDbEntity
  8
部品1
100
AcDbLine
 10
8117.414705172336
 20
9281.266456979697
 30
0.0
 11
8117.414705172336
 21
8831.266456979696
 31
0.0
  0
LINE
  5
19BF1
330
747D
100
AcDbEntity
  8
細線
 48
50.0
100
AcDbLine
 10
7297.414705172336
 20
9281.266456979697
 30
0.0
 11
6536.414705172335
 21
8831.266456979703
 31
0.0
  0
LINE
  5
19BF2
330
747D
100
AcDbEntity
  8
部品1
100
AcDbLine
 10
6536.414705172335
 20
8831.266456979703
 30
0.0
 11
7297.414705172336
 21
8831.266456979696
 31
0.0
  0
DIMENSION
  5
19BF3
330
747D
100
AcDbEntity
  8
寸法
100
AcDbDimension
  2
*D42
 10
7238.72120887837
 20
8612.21934673672
 30
0.0
 11
6915.761767290604
 21
8612.21934673672
 31
0.0
 70
   160
 71
     5
 42
761.0000000000118
  3
INABA_S40G
100
AcDbAlignedDimension
 13
6536.414705172337
 23
8831.266456979703
 33
0.0
 14
7297.414705172347
 24
8831.266456979699
 34
0.0
100
AcDbRotatedDimension
1001
ACAD
1000
DSTYLE
1002
{
1002
}
  0
LINE
  5
19BF4
330
747D
100
AcDbEntity
  8
細線
 48
50.0
100
AcDbLine
 10
7297.414705172336
 20
8831.266456979696
 30
0.0
 11
6536.414705172337
 21
9281.266456979698
 31
0.0
  0
MTEXT
  5
19BF5
330
747D
100
AcDbEntity
  8
寸法
 62
     7
 48
50.0
100
AcDbMText
 10
6937.683419762169
 20
9022.952155350827
 30
0.0
 40
96.0
 41
0.0
 71
     5
 72
     1
  1
棚上下\P各1段
  7
STYLE1
 73
     1
 44
1.0
1001
ACAD
1000
MTEXTBEGIN
1070
    73
1070
     1
1070
    44
1040
1.0
1070
    74
1070
     0
1000
MTEXTEND
  0
LINE
  5
19BF6
330
747D
100
AcDbEntity
  8
部品1
 48
50.0
100
AcDbLine
 10
6506.914705172383
 20
8873.766456979703
 30
0.0
 11
6534.914705172366
 21
8873.766456979707
 31
0.0
  0
LINE
  5
19BF7
330
747D
100
AcDbEntity
  8
部品1
 48
50.0
100
AcDbLine
 10
6506.914705172383
 20
8835.766456979703
 30
0.0
 11
6534.914705172366
 21
8835.766456979706
 31
0.0
  0
LINE
  5
19BF8
330
747D
100
AcDbEntity
  8
部品1
 48
50.0
100
AcDbLine
 10
6536.414705172337
 20
9281.266456979698
 30
0.0
 11
6536.414705172337
 21
8831.266456979703
 31
0.0
  0
LINE
  5
19BF9
330
747D
100
AcDbEntity
  8
部品1
100
AcDbLine
 10
7297.414705172336
 20
9281.266456979697
 30
0.0
 11
7297.414705172336
 21
8831.266456979696
 31
0.0
  0
LINE
  5
19BFA
330
747D
100
AcDbEntity
  8
部品1
100
AcDbLine
 10
6536.414705172337
 20
9281.266456979704
 30
0.0
 11
7297.414705172336
 21
9281.266456979697
 31
0.0
  0
LINE
  5
19C10
330
747D
100
AcDbEntity
  8
細線
 48
50.0
100
AcDbLine
 10
6477.414705172336
 20
9281.266456979697
 30
0.0
 11
5716.414705172335
 21
8831.266456979703
 31
0.0
  0
LINE
  5
19C11
330
747D
100
AcDbEntity
  8
部品1
100
AcDbLine
 10
5716.414705172335
 20
8831.266456979703
 30
0.0
 11
6477.414705172336
 21
8831.266456979696
 31
0.0
  0
DIMENSION
  5
19C12
330
747D
100
AcDbEntity
  8
寸法
100
AcDbDimension
  2
*D43
 10
6418.72120887837
 20
8612.21934673672
 30
0.0
 11
6095.761767290604
 21
8612.21934673672
 31
0.0
 70
   160
 71
     5
 42
761.0000000000118
  3
INABA_S40G
100
AcDbAlignedDimension
 13
5716.414705172336
 23
8831.266456979703
 33
0.0
 14
6477.414705172347
 24
8831.266456979699
 34
0.0
100
AcDbRotatedDimension
1001
ACAD
1000
DSTYLE
1002
{
1002
}
  0
LINE
  5
19C13
330
747D
100
AcDbEntity
  8
細線
 48
50.0
100
AcDbLine
 10
6477.414705172336
 20
8831.266456979696
 30
0.0
 11
5716.414705172336
 21
9281.266456979698
 31
0.0
  0
MTEXT
  5
19C14
330
747D
100
AcDbEntity
  8
寸法
 62
     7
 48
50.0
100
AcDbMText
 10
6117.683419762169
 20
9022.952155350827
 30
0.0
 40
96.0
 41
0.0
 71
     5
 72
     1
  1
棚上下\P各1段
  7
STYLE1
 73
     1
 44
1.0
1001
ACAD
1000
MTEXTBEGIN
1070
    73
1070
     1
1070
    44
1040
1.0
1070
    74
1070
     0
1000
MTEXTEND
  0
LINE
  5
19C15
330
747D
100
AcDbEntity
  8
部品1
 48
50.0
100
AcDbLine
 10
5686.914705172383
 20
8873.766456979703
 30
0.0
 11
5714.914705172366
 21
8873.766456979707
 31
0.0
  0
LINE
  5
19C16
330
747D
100
AcDbEntity
  8
部品1
 48
50.0
100
AcDbLine
 10
5686.914705172383
 20
8835.766456979703
 30
0.0
 11
5714.914705172366
 21
8835.766456979706
 31
0.0
  0
LINE
  5
19C17
330
747D
100
AcDbEntity
  8
部品1
 48
50.0
100
AcDbLine
 10
5716.414705172336
 20
9281.266456979698
 30
0.0
 11
5716.414705172336
 21
8831.266456979703
 31
0.0
  0
LINE
  5
19C18
330
747D
100
AcDbEntity
  8
部品1
100
AcDbLine
 10
6477.414705172336
 20
9281.266456979697
 30
0.0
 11
6477.414705172336
 21
8831.266456979696
 31
0.0
  0
LINE
  5
19C19
330
747D
100
AcDbEntity
  8
部品1
100
AcDbLine
 10
5716.414705172336
 20
9281.266456979704
 30
0.0
 11
6477.414705172336
 21
9281.266456979697
 31
0.0
  0
LINE
  5
19C2F
330
747D
100
AcDbEntity
  8
細線
 48
50.0
100
AcDbLine
 10
5657.414705172336
 20
9281.266456979697
 30
0.0
 11
4896.414705172335
 21
8831.266456979703
 31
0.0
  0
LINE
  5
19C30
330
747D
100
AcDbEntity
  8
部品1
100
AcDbLine
 10
4896.414705172335
 20
8831.266456979703
 30
0.0
 11
5657.414705172336
 21
8831.266456979696
 31
0.0
  0
DIMENSION
  5
19C31
330
747D
100
AcDbEntity
  8
寸法
100
AcDbDimension
  2
*D44
 10
5598.721208878369
 20
8612.21934673672
 30
0.0
 11
5275.761767290604
 21
8612.21934673672
 31
0.0
 70
   160
 71
     5
 42
761.0000000000118
  3
INABA_S40G
100
AcDbAlignedDimension
 13
4896.414705172336
 23
8831.266456979703
 33
0.0
 14
5657.414705172348
 24
8831.266456979699
 34
0.0
100
AcDbRotatedDimension
1001
ACAD
1000
DSTYLE
1002
{
1002
}
  0
LINE
  5
19C32
330
747D
100
AcDbEntity
  8
細線
 48
50.0
100
AcDbLine
 10
5657.414705172336
 20
8831.266456979696
 30
0.0
 11
4896.414705172336
 21
9281.266456979698
 31
0.0
  0
MTEXT
  5
19C33
330
747D
100
AcDbEntity
  8
寸法
 62
     7
 48
50.0
100
AcDbMText
 10
5297.683419762169
 20
9022.952155350827
 30
0.0
 40
96.0
 41
0.0
 71
     5
 72
     1
  1
棚上下\P各1段
  7
STYLE1
 73
     1
 44
1.0
1001
ACAD
1000
MTEXTBEGIN
1070
    73
1070
     1
1070
    44
1040
1.0
1070
    74
1070
     0
1000
MTEXTEND
  0
LINE
  5
19C35
330
747D
100
AcDbEntity
  8
部品1
 48
50.0
100
AcDbLine
 10
4866.914705172384
 20
8835.766456979703
 30
0.0
 11
4894.914705172367
 21
8835.766456979706
 31
0.0
  0
LINE
  5
19C36
330
747D
100
AcDbEntity
  8
部品1
 48
50.0
100
AcDbLine
 10
4896.414705172336
 20
9281.266456979698
 30
0.0
 11
4896.414705172336
 21
8831.266456979703
 31
0.0
  0
LINE
  5
19C37
330
747D
100
AcDbEntity
  8
部品1
100
AcDbLine
 10
5657.414705172336
 20
9281.266456979697
 30
0.0
 11
5657.414705172336
 21
8831.266456979696
 31
0.0
  0
LINE
  5
19C38
330
747D
100
AcDbEntity
  8
部品1
100
AcDbLine
 10
4896.414705172336
 20
9281.266456979704
 30
0.0
 11
5657.414705172336
 21
9281.266456979697
 31
0.0
  0
LINE
  5
19C4F
330
747D
100
AcDbEntity
  8
破線
 48
10.0
100
AcDbLine
 10
8066.914770097069
 20
8831.266456979696
 30
0.0
 11
8066.914705172385
 21
8515.766456979781
 31
0.0
  0
LINE
  5
19C58
330
747D
100
AcDbEntity
  8
破線
 48
10.0
100
AcDbLine
 10
6586.914770097106
 20
8831.266456979703
 30
0.0
 11
6586.914705172389
 21
8515.766456979703
 31
0.0
  0
LINE
  5
19C5C
330
747D
100
AcDbEntity
  8
破線
 48
10.0
100
AcDbLine
 10
5766.914770097105
 20
8831.266456979705
 30
0.0
 11
5766.914705172388
 21
8515.766456979703
 31
0.0
  0
LINE
  5
19C60
330
747D
100
AcDbEntity
  8
破線
 48
10.0
100
AcDbLine
 10
4946.914770097105
 20
8831.266456979703
 30
0.0
 11
4946.914705172389
 21
8515.766456979703
 31
0.0
  0
LINE
  5
19C72
330
747D
100
AcDbEntity
  8
部品1
 48
5.0
100
AcDbLine
 10
7298.914705172329
 20
9310.766456979765
 30
0.0
 11
7324.295408191005
 21
9282.766456979745
 31
0.0
  0
LINE
  5
19C7A
330
747D
100
AcDbEntity
  8
部品1
 48
5.0
100
AcDbLine
 10
6478.914705172321
 20
9310.766456979765
 30
0.0
 11
6504.295408190998
 21
9282.766456979745
 31
0.0
  0
LINE
  5
19C7B
330
747D
100
AcDbEntity
  8
部品1
 48
50.0
100
AcDbLine
 10
6478.914705172375
 20
8415.76645697973
 30
0.0
 11
6478.914705172321
 21
9310.766456979765
 31
0.0
  0
LINE
  5
19C82
330
747D
100
AcDbEntity
  8
部品1
 48
5.0
100
AcDbLine
 10
5658.914705172321
 20
9310.766456979765
 30
0.0
 11
5684.295408190998
 21
9282.766456979745
 31
0.0
  0
LINE
  5
19C83
330
747D
100
AcDbEntity
  8
部品1
 48
50.0
100
AcDbLine
 10
5658.914705172374
 20
8415.76645697973
 30
0.0
 11
5658.914705172321
 21
9310.766456979765
 31
0.0
  0
ENDSEC
  0
SECTION
  2
OBJECTS
  0
DICTIONARY
  5
7471
330
0
100
AcDbDictionary
281
     1
  3
ACAD_COLOR
350
15D43
  3
ACAD_GROUP
350
7472
  3
ACAD_LAYOUT
350
15D44
  3
ACAD_MATERIAL
350
15D42
  3
ACAD_MLINESTYLE
350
7473
  3
ACAD_PLOTSETTINGS
350
15D45
  3
ACAD_PLOTSTYLENAME
350
15D40
  3
ACDBHEADERROUNDTRIPXREC
350
19C9D
  3
AcDbVariableDictionary
350
19C99
  3
CONTENTDICTIONARY
350
E71C
  3
DRAWINGVARIABLESDICT
350
F3B9
  0
DICTIONARY
  5
15EBF
330
7467
100
AcDbDictionary
280
     1
281
     1
  3
ACAD_LAYERSTATES
360
15EC0
  0
DICTIONARY
  5
1864C
330
1864B
100
AcDbDictionary
280
     1
281
     1
  3
ADSK_XREC_LAYER_RECONCILED
360
1864D
  0
DICTIONARY
  5
15D43
102
{ACAD_REACTORS
330
7471
102
}
330
7471
100
AcDbDictionary
281
     1
  0
DICTIONARY
  5
7472
102
{ACAD_REACTORS
330
7471
102
}
330
7471
100
AcDbDictionary
281
     1
  0
DICTIONARY
  5
15D44
102
{ACAD_REACTORS
330
7471
102
}
330
7471
100
AcDbDictionary
281
     1
  3
Model
350
15D46
  3
レイアウト1
350
15D47
  0
DICTIONARY
  5
15D42
102
{ACAD_REACTORS
330
7471
102
}
330
7471
100
AcDbDictionary
281
     1
  0
DICTIONARY
  5
7473
102
{ACAD_REACTORS
330
7471
102
}
330
7471
100
AcDbDictionary
281
     1
  3
STANDARD
350
7480
  0
DICTIONARY
  5
15D45
102
{ACAD_REACTORS
330
7471
102
}
330
7471
100
AcDbDictionary
281
     1
  0
ACDBDICTIONARYWDFLT
  5
15D40
102
{ACAD_REACTORS
330
7471
102
}
330
7471
100
AcDbDictionary
281
     1
  3
Normal
350
15D41
100
AcDbDictionaryWithDefault
340
15D41
  0
DICTIONARY
  5
19C9D
102
{ACAD_REACTORS
330
7471
102
}
330
7471
100
AcDbDictionary
281
     1
  3
COLORDICT
350
19C9F
  3
MATERIALDICT
350
19C9E
  0
DICTIONARY
  5
19C99
102
{ACAD_REACTORS
330
7471
102
}
330
7471
100
AcDbDictionary
281
     1
  3
DIMASSOC
350
19C9A
  3
PROJECTNAME
350
19C9B
  0
DICTIONARY
  5
E71C
102
{ACAD_REACTORS
330
7471
102
}
330
7471
100
AcDbDictionary
281
     1
  0
DICTIONARY
  5
F3B9
102
{ACAD_REACTORS
330
7471
102
}
330
7471
100
AcDbDictionary
281
     1
1001
DRAWINGVARIABLESXDATA
1000
POLARMODE
1000
1
  0
DICTIONARY
  5
15EC0
102
{ACAD_REACTORS
330
15EBF
102
}
330
15EBF
100
AcDbDictionary
281
     1
  0
XRECORD
  5
1864D
102
{ACAD_REACTORS
330
1864C
102
}
330
1864C
100
AcDbXrecord
280
     1
290
     1
  0
LAYOUT
  5
15D46
102
{ACAD_XDICTIONARY
360
19CA0
102
}
102
{ACAD_REACTORS
330
15D44
102
}
330
15D44
100
AcDbPlotSettings
  1

  2
iR C3880
  4
A3
  6

 40
5.873749732971191
 41
5.873747825622558
 42
5.873748779296875
 43
5.873748779296875
 44
296.9259948730469
 45
419.9466552734374
 46
0.0
 47
0.0
 48
3.619012999999999
 49
-4.192116999999999
140
820.022926
141
573.23922
142
1.0
143
40.75437129952697
 70
 11952
 72
     1
 73
     1
 74
     2
  7
inabass.ctb
 75
     0
147
0.0245372451620081
148
25.79074261211281
149
125.8223078213959
100
AcDbLayout
  1
Model
 70
     1
 71
     0
 10
0.0
 20
0.0
 11
12.0
 21
9.0
 12
0.0
 22
0.0
 32
0.0
 14
0.0
 24
0.0
 34
0.0
 15
0.0
 25
0.0
 35
0.0
146
0.0
 13
0.0
 23
0.0
 33
0.0
 16
1.0
 26
0.0
 36
0.0
 17
0.0
 27
1.0
 37
0.0
 76
     0
330
747D
  0
LAYOUT
  5
15D47
102
{ACAD_XDICTIONARY
360
19CA2
102
}
102
{ACAD_REACTORS
330
15D44
102
}
330
15D44
100
AcDbPlotSettings
  1

  2
Microsoft Office Document Image Writer
  4

  6

 40
0.0
 41
0.0
 42
0.0
 43
0.0
 44
0.0
 45
0.0
 46
0.0
 47
0.0
 48
0.0
 49
0.0
140
0.0
141
0.0
142
1.0
143
1.0
 70
   688
 72
     0
 73
     0
 74
     5
  7
inabass.ctb
 75
    16
147
1.0
148
0.0
149
0.0
100
AcDbLayout
  1
レイアウト1
 70
     0
 71
     1
 10
0.0
 20
0.0
 11
420.0
 21
297.0
 12
0.0
 22
0.0
 32
0.0
 14
1.000000000000000E+20
 24
1.000000000000000E+20
 34
1.000000000000000E+20
 15
-1.000000000000000E+20
 25
-1.000000000000000E+20
 35
-1.000000000000000E+20
146
0.0
 13
0.0
 23
0.0
 33
0.0
 16
1.0
 26
0.0
 36
0.0
 17
0.0
 27
1.0
 37
0.0
 76
     0
330
747A
  0
MLINESTYLE
  5
7480
102
{ACAD_REACTORS
330
7473
102
}
330
7473
100
AcDbMlineStyle
  2
STANDARD
 70
     0
  3

 62
     0
 51
90.0
 52
90.0
 71
     2
 49
0.5
 62
   256
  6
BYLAYER
 49
-0.5
 62
   256
  6
BYLAYER
  0
ACDBPLACEHOLDER
  5
15D41
102
{ACAD_REACTORS
330
15D40
102
}
330
15D40
  0
XRECORD
  5
19C9F
102
{ACAD_REACTORS
330
19C9D
102
}
330
19C9D
100
AcDbXrecord
280
     1
340
15D43
  0
XRECORD
  5
19C9E
102
{ACAD_REACTORS
330
19C9D
102
}
330
19C9D
100
AcDbXrecord
280
     1
340
15D42
  0
DICTIONARYVAR
  5
19C9A
102
{ACAD_REACTORS
330
19C99
102
}
330
19C99
100
DictionaryVariables
280
     0
  1
1
  0
DICTIONARYVAR
  5
19C9B
102
{ACAD_REACTORS
330
19C99
102
}
330
19C99
100
DictionaryVariables
280
     0
  1

  0
DICTIONARY
  5
19CA0
330
15D46
100
AcDbDictionary
280
     1
281
     1
  3
ACAD_XREC_ROUNDTRIP
360
19CA1
  0
DICTIONARY
  5
19CA2
330
15D47
100
AcDbDictionary
280
     1
281
     1
  3
ACAD_XREC_ROUNDTRIP
360
19CA3
  0
XRECORD
  5
19CA1
102
{ACAD_REACTORS
330
19CA0
102
}
330
19CA0
100
AcDbXrecord
280
     1
102
SHADEPLOT
 70
     1
102
SHADEPLOTRESLEVEL
 70
     2
102
SHADEPLOTCUSTOMDPI
 70
   300
  0
XRECORD
  5
19CA3
102
{ACAD_REACTORS
330
19CA2
102
}
330
19CA2
100
AcDbXrecord
280
     1
102
SHADEPLOT
 70
     0
102
SHADEPLOTRESLEVEL
 70
     2
102
SHADEPLOTCUSTOMDPI
 70
   300
  0
ENDSEC
  0
EOF
