  0
SECTION
  2
HEADER
  9
$ACADVER
  1
AC1015
  9
$ACADMAINTVER
 70
    20
  9
$DWGCODEPAGE
  3
ANSI_932
  9
$INSBASE
 10
0.0
 20
0.0
 30
0.0
  9
$EXTMIN
 10
139.9999999999995
 20
-0.0000000000000909
 30
0.0
  9
$EXTMAX
 10
16307.2
 20
11409.6
 30
0.0
  9
$LIMMIN
 10
-25.79074261211281
 20
-125.8223078213959
  9
$LIMMAX
 10
16471.10331197129
 20
11496.44801950658
  9
$ORTHOMODE
 70
     0
  9
$REGENMODE
 70
     1
  9
$FILLMODE
 70
     1
  9
$QTEXTMODE
 70
     0
  9
$MIRRTEXT
 70
     1
  9
$LTSCALE
 40
20.0
  9
$ATTMODE
 70
     1
  9
$TEXTSIZE
 40
100.0
  9
$TRACEWID
 40
1.0
  9
$TEXTSTYLE
  7
STYLE3
  9
$CLAYER
  8
寸法
  9
$CELTYPE
  6
BYLAYER
  9
$CECOLOR
 62
   256
  9
$CELTSCALE
 40
50.0
  9
$DISPSILH
 70
     0
  9
$DIMSCALE
 40
40.0
  9
$DIMASZ
 40
2.5
  9
$DIMEXO
 40
0.5
  9
$DIMDLI
 40
7.0
  9
$DIMRND
 40
0.0
  9
$DIMDLE
 40
0.0
  9
$DIMEXE
 40
1.5
  9
$DIMTP
 40
0.0
  9
$DIMTM
 40
0.0
  9
$DIMTXT
 40
3.0
  9
$DIMCEN
 40
0.0
  9
$DIMTSZ
 40
0.0
  9
$DIMTOL
 70
     0
  9
$DIMLIM
 70
     0
  9
$DIMTIH
 70
     0
  9
$DIMTOH
 70
     0
  9
$DIMSE1
 70
     0
  9
$DIMSE2
 70
     0
  9
$DIMTAD
 70
     3
  9
$DIMZIN
 70
     8
  9
$DIMBLK
  1

  9
$DIMASO
 70
     1
  9
$DIMSHO
 70
     1
  9
$DIMPOST
  1

  9
$DIMAPOST
  1

  9
$DIMALT
 70
     0
  9
$DIMALTD
 70
     2
  9
$DIMALTF
 40
0.0394
  9
$DIMLFAC
 40
1.0
  9
$DIMTOFL
 70
     1
  9
$DIMTVP
 40
0.0
  9
$DIMTIX
 70
     1
  9
$DIMSOXD
 70
     0
  9
$DIMSAH
 70
     1
  9
$DIMBLK1
  1
DOTSMALL
  9
$DIMBLK2
  1
DOTSMALL
  9
$DIMSTYLE
  2
INABA_S40G
  9
$DIMCLRD
 70
     0
  9
$DIMCLRE
 70
     0
  9
$DIMCLRT
 70
     7
  9
$DIMTFAC
 40
1.0
  9
$DIMGAP
 40
1.0
  9
$DIMJUST
 70
     0
  9
$DIMSD1
 70
     0
  9
$DIMSD2
 70
     0
  9
$DIMTOLJ
 70
     1
  9
$DIMTZIN
 70
     0
  9
$DIMALTZ
 70
     0
  9
$DIMALTTZ
 70
     0
  9
$DIMUPT
 70
     0
  9
$DIMDEC
 70
     1
  9
$DIMTDEC
 70
     4
  9
$DIMALTU
 70
     2
  9
$DIMALTTD
 70
     2
  9
$DIMTXSTY
  7
STYLE1
  9
$DIMAUNIT
 70
     0
  9
$DIMADEC
 70
     0
  9
$DIMALTRND
 40
0.0
  9
$DIMAZIN
 70
     0
  9
$DIMDSEP
 70
    46
  9
$DIMATFIT
 70
     3
  9
$DIMFRAC
 70
     0
  9
$DIMLDRBLK
  1

  9
$DIMLUNIT
 70
     2
  9
$DIMLWD
 70
    -2
  9
$DIMLWE
 70
    -2
  9
$DIMTMOVE
 70
     0
  9
$LUNITS
 70
     2
  9
$LUPREC
 70
     1
  9
$SKETCHINC
 40
1.0
  9
$FILLETRAD
 40
0.0
  9
$AUNITS
 70
     0
  9
$AUPREC
 70
     0
  9
$MENU
  1
acad
  9
$ELEVATION
 40
0.0
  9
$PELEVATION
 40
0.0
  9
$THICKNESS
 40
0.0
  9
$LIMCHECK
 70
     0
  9
$CHAMFERA
 40
0.0
  9
$CHAMFERB
 40
0.0
  9
$CHAMFERC
 40
0.0
  9
$CHAMFERD
 40
0.0
  9
$SKPOLY
 70
     0
  9
$TDCREATE
 40
2452116.684896065
  9
$TDUCREATE
 40
2452116.309896065
  9
$TDUPDATE
 40
2456304.612569804
  9
$TDUUPDATE
 40
2456304.237569804
  9
$TDINDWG
 40
0.9958656829
  9
$TDUSRTIMER
 40
0.9958656829
  9
$USRTIMER
 70
     1
  9
$ANGBASE
 50
0.0
  9
$ANGDIR
 70
     0
  9
$PDMODE
 70
     3
  9
$PDSIZE
 40
2.0
  9
$PLINEWID
 40
0.0
  9
$SPLFRAME
 70
     0
  9
$SPLINETYPE
 70
     6
  9
$SPLINESEGS
 70
     8
  9
$HANDSEED
  5
19BDF
  9
$SURFTAB1
 70
     6
  9
$SURFTAB2
 70
     6
  9
$SURFTYPE
 70
     6
  9
$SURFU
 70
     6
  9
$SURFV
 70
     6
  9
$UCSBASE
  2

  9
$UCSNAME
  2

  9
$UCSORG
 10
0.0
 20
0.0
 30
0.0
  9
$UCSXDIR
 10
1.0
 20
0.0
 30
0.0
  9
$UCSYDIR
 10
0.0
 20
1.0
 30
0.0
  9
$UCSORTHOREF
  2

  9
$UCSORTHOVIEW
 70
     0
  9
$UCSORGTOP
 10
0.0
 20
0.0
 30
0.0
  9
$UCSORGBOTTOM
 10
0.0
 20
0.0
 30
0.0
  9
$UCSORGLEFT
 10
0.0
 20
0.0
 30
0.0
  9
$UCSORGRIGHT
 10
0.0
 20
0.0
 30
0.0
  9
$UCSORGFRONT
 10
0.0
 20
0.0
 30
0.0
  9
$UCSORGBACK
 10
0.0
 20
0.0
 30
0.0
  9
$PUCSBASE
  2

  9
$PUCSNAME
  2

  9
$PUCSORG
 10
0.0
 20
0.0
 30
0.0
  9
$PUCSXDIR
 10
1.0
 20
0.0
 30
0.0
  9
$PUCSYDIR
 10
0.0
 20
1.0
 30
0.0
  9
$PUCSORTHOREF
  2

  9
$PUCSORTHOVIEW
 70
     0
  9
$PUCSORGTOP
 10
0.0
 20
0.0
 30
0.0
  9
$PUCSORGBOTTOM
 10
0.0
 20
0.0
 30
0.0
  9
$PUCSORGLEFT
 10
0.0
 20
0.0
 30
0.0
  9
$PUCSORGRIGHT
 10
0.0
 20
0.0
 30
0.0
  9
$PUCSORGFRONT
 10
0.0
 20
0.0
 30
0.0
  9
$PUCSORGBACK
 10
0.0
 20
0.0
 30
0.0
  9
$USERI1
 70
     0
  9
$USERI2
 70
     0
  9
$USERI3
 70
     0
  9
$USERI4
 70
     0
  9
$USERI5
 70
     0
  9
$USERR1
 40
0.0
  9
$USERR2
 40
0.0
  9
$USERR3
 40
0.0
  9
$USERR4
 40
0.0
  9
$USERR5
 40
0.0
  9
$WORLDVIEW
 70
     1
  9
$SHADEDGE
 70
     3
  9
$SHADEDIF
 70
    70
  9
$TILEMODE
 70
     1
  9
$MAXACTVP
 70
    16
  9
$PINSBASE
 10
0.0
 20
0.0
 30
0.0
  9
$PLIMCHECK
 70
     0
  9
$PEXTMIN
 10
1.000000000000000E+20
 20
1.000000000000000E+20
 30
1.000000000000000E+20
  9
$PEXTMAX
 10
-1.000000000000000E+20
 20
-1.000000000000000E+20
 30
-1.000000000000000E+20
  9
$PLIMMIN
 10
0.0
 20
0.0
  9
$PLIMMAX
 10
420.0
 20
297.0
  9
$UNITMODE
 70
     0
  9
$VISRETAIN
 70
     0
  9
$PLINEGEN
 70
     0
  9
$PSLTSCALE
 70
     0
  9
$TREEDEPTH
 70
  3020
  9
$CMLSTYLE
  2
STANDARD
  9
$CMLJUST
 70
     0
  9
$CMLSCALE
 40
1.0
  9
$PROXYGRAPHICS
 70
     1
  9
$MEASUREMENT
 70
     1
  9
$CELWEIGHT
370
    -1
  9
$ENDCAPS
280
     0
  9
$JOINSTYLE
280
     0
  9
$LWDISPLAY
290
     0
  9
$INSUNITS
 70
     0
  9
$HYPERLINKBASE
  1

  9
$STYLESHEET
  1
inabass.ctb
  9
$XEDIT
290
     1
  9
$CEPSNTYPE
380
     0
  9
$PSTYLEMODE
290
     1
  9
$FINGERPRINTGUID
  2
{AE2ADF1E-CF9A-4974-B35A-E143B020C9F5}
  9
$VERSIONGUID
  2
{2A89664D-7D6A-4447-BE4C-3536081996D9}
  9
$EXTNAMES
290
     1
  9
$PSVPSCALE
 40
0.0
  9
$OLESTARTUP
290
     0
  0
ENDSEC
  0
SECTION
  2
CLASSES
  0
CLASS
  1
ACDBDICTIONARYWDFLT
  2
AcDbDictionaryWithDefault
  3
ObjectDBX Classes
 90
        0
280
     0
281
     0
  0
CLASS
  1
DICTIONARYVAR
  2
AcDbDictionaryVar
  3
ObjectDBX Classes
 90
        0
280
     0
281
     0
  0
CLASS
  1
ACDBPLACEHOLDER
  2
AcDbPlaceHolder
  3
ObjectDBX Classes
 90
        0
280
     0
281
     0
  0
CLASS
  1
LAYOUT
  2
AcDbLayout
  3
ObjectDBX Classes
 90
        0
280
     0
281
     0
  0
ENDSEC
  0
SECTION
  2
TABLES
  0
TABLE
  2
VPORT
  5
746D
330
0
100
AcDbSymbolTable
 70
     2
  0
VPORT
  5
19BD7
330
746D
100
AcDbSymbolTableRecord
100
AcDbViewportTableRecord
  2
*Active
 70
     0
 10
0.0
 20
0.0
 11
1.0
 21
1.0
 12
8321.501176900456
 22
5704.820477774237
 13
0.0
 23
0.0
 14
10.0
 24
10.0
 15
10.0
 25
10.0
 16
0.0
 26
0.0
 36
1.0
 17
0.0
 27
0.0
 37
0.0
 40
11500.3685374653
 41
1.607999999999999
 42
50.0
 43
0.0
 44
0.0
 50
0.0
 51
0.0
 71
     0
 72
     0
 73
     1
 74
     0
 75
     0
 76
     0
 77
     0
 78
     0
281
     0
 65
     1
110
0.0
120
0.0
130
0.0
111
1.0
121
0.0
131
0.0
112
0.0
122
1.0
132
0.0
 79
     0
146
0.0
  0
ENDTAB
  0
TABLE
  2
LTYPE
  5
746A
330
0
100
AcDbSymbolTable
 70
     4
  0
LTYPE
  5
7477
330
746A
100
AcDbSymbolTableRecord
100
AcDbLinetypeTableRecord
  2
BYBLOCK
 70
     0
  3

 72
    65
 73
     0
 40
0.0
  0
LTYPE
  5
7478
330
746A
100
AcDbSymbolTableRecord
100
AcDbLinetypeTableRecord
  2
BYLAYER
 70
     0
  3

 72
    65
 73
     0
 40
0.0
  0
LTYPE
  5
7479
330
746A
100
AcDbSymbolTableRecord
100
AcDbLinetypeTableRecord
  2
CONTINUOUS
 70
     0
  3
Solid line
 72
    65
 73
     0
 40
0.0
  0
LTYPE
  5
7816
330
746A
100
AcDbSymbolTableRecord
100
AcDbLinetypeTableRecord
  2
CENTER
 70
     0
  3
____ _ ____ _ ____ _ ____ _ ____ _ ____ _ ____ 
 72
    65
 73
     4
 40
2.0
 49
1.25
 74
     0
 49
-0.25
 74
     0
 49
0.25
 74
     0
 49
-0.25
 74
     0
  0
LTYPE
  5
781A
330
746A
100
AcDbSymbolTableRecord
100
AcDbLinetypeTableRecord
  2
HIDDEN
 70
     0
  3
__ __ __ __ __ __ __ __ __ __ __ __ __ __ __ __
 72
    65
 73
     2
 40
0.375
 49
0.25
 74
     0
 49
-0.125
 74
     0
  0
LTYPE
  5
781B
330
746A
100
AcDbSymbolTableRecord
100
AcDbLinetypeTableRecord
  2
PHANTOM
 70
     0
  3
______  __  __  ______  __  __  ______  __  __ 
 72
    65
 73
     6
 40
2.5
 49
1.25
 74
     0
 49
-0.25
 74
     0
 49
0.25
 74
     0
 49
-0.25
 74
     0
 49
0.25
 74
     0
 49
-0.25
 74
     0
  0
ENDTAB
  0
TABLE
  2
LAYER
  5
7467
102
{ACAD_XDICTIONARY
360
15EBF
102
}
330
0
100
AcDbSymbolTable
 70
    16
  0
LAYER
  5
7474
330
7467
100
AcDbSymbolTableRecord
100
AcDbLayerTableRecord
  2
0
 70
     0
 62
     7
  6
CONTINUOUS
370
    -3
390
15D41
  0
LAYER
  5
DEB2
330
7467
100
AcDbSymbolTableRecord
100
AcDbLayerTableRecord
  2
センター
 70
     0
 62
     3
  6
CENTER
370
    -3
390
15D41
  0
LAYER
  5
DEB3
330
7467
100
AcDbSymbolTableRecord
100
AcDbLayerTableRecord
  2
寸法
 70
     0
 62
     4
  6
CONTINUOUS
370
    -3
390
15D41
  0
LAYER
  5
DEB4
330
7467
100
AcDbSymbolTableRecord
100
AcDbLayerTableRecord
  2
部品1
 70
     0
 62
     7
  6
CONTINUOUS
370
    -3
390
15D41
  0
LAYER
  5
DEB5
330
7467
100
AcDbSymbolTableRecord
100
AcDbLayerTableRecord
  2
補助
 70
     0
 62
    -1
  6
CONTINUOUS
370
    -3
390
15D41
  0
LAYER
  5
DEB6
330
7467
100
AcDbSymbolTableRecord
100
AcDbLayerTableRecord
  2
文字
 70
     0
 62
     7
  6
CONTINUOUS
370
    -3
390
15D41
  0
LAYER
  5
F255
330
7467
100
AcDbSymbolTableRecord
100
AcDbLayerTableRecord
  2
DEFPOINTS
 70
     0
 62
     7
  6
CONTINUOUS
290
     0
370
    -3
390
15D41
  0
LAYER
  5
10B54
330
7467
100
AcDbSymbolTableRecord
100
AcDbLayerTableRecord
  2
仕様書枠
 70
     0
 62
   230
  6
CONTINUOUS
370
    -3
390
15D41
  0
LAYER
  5
11729
330
7467
100
AcDbSymbolTableRecord
100
AcDbLayerTableRecord
  2
Ｇ．Ｌ
 70
     0
 62
    30
  6
CONTINUOUS
370
    -3
390
15D41
  0
LAYER
  5
1173F
330
7467
100
AcDbSymbolTableRecord
100
AcDbLayerTableRecord
  2
細線
 70
     0
 62
     5
  6
CONTINUOUS
370
    -3
390
15D41
  0
LAYER
  5
11740
330
7467
100
AcDbSymbolTableRecord
100
AcDbLayerTableRecord
  2
点線
 70
     0
 62
     2
  6
HIDDEN
370
    -3
390
15D41
  0
LAYER
  5
118A1
330
7467
100
AcDbSymbolTableRecord
100
AcDbLayerTableRecord
  2
想像線
 70
     0
 62
     6
  6
PHANTOM
370
    -3
390
15D41
  0
LAYER
  5
123C1
330
7467
100
AcDbSymbolTableRecord
100
AcDbLayerTableRecord
  2
破線
 70
     0
 62
     2
  6
HIDDEN
370
    -3
390
15D41
  0
LAYER
  5
18649
330
7467
100
AcDbSymbolTableRecord
100
AcDbLayerTableRecord
  2
柱
 70
     0
 62
    21
  6
CONTINUOUS
370
    -3
390
15D41
  0
LAYER
  5
1864A
330
7467
100
AcDbSymbolTableRecord
100
AcDbLayerTableRecord
  2
AM_5
 70
     0
 62
     3
  6
CONTINUOUS
370
     9
390
15D41
  0
LAYER
  5
1864B
102
{ACAD_XDICTIONARY
360
1864C
102
}
330
7467
100
AcDbSymbolTableRecord
100
AcDbLayerTableRecord
  2
部品
 70
     0
 62
     7
  6
CONTINUOUS
370
    -3
390
15D41
  0
ENDTAB
  0
TABLE
  2
STYLE
  5
7468
330
0
100
AcDbSymbolTable
 70
     5
  0
STYLE
  5
7475
330
7468
100
AcDbSymbolTableRecord
100
AcDbTextStyleTableRecord
  2
STANDARD
 70
     0
 40
0.0
 41
1.0
 50
0.0
 71
     0
 42
4.0
  3
txt
  4
C:\AutoCAD LT\bigfont.shx
  0
STYLE
  5
F706
330
7468
100
AcDbSymbolTableRecord
100
AcDbTextStyleTableRecord
  2
STYLE1
 70
     0
 40
0.0
 41
1.0
 50
0.0
 71
     0
 42
4.0
  3
isocp.shx
  4
bigfont.shx
  0
STYLE
  5
103BF
330
7468
100
AcDbSymbolTableRecord
100
AcDbTextStyleTableRecord
  2
STYLE2
 70
     0
 40
0.0
 41
1.0
 50
0.0
 71
     0
 42
100.0
  3
MS PGothic.ttf
  4

1001
ACAD
1000
MS PGothic
1071
    32818
  0
STYLE
  5
10BAA
330
7468
100
AcDbSymbolTableRecord
100
AcDbTextStyleTableRecord
  2
STYLE3
 70
     0
 40
0.0
 41
1.0
 50
0.0
 71
     0
 42
100.0
  3
DFPGothic-EB.ttf
  4

1001
ACAD
1000
DFPGothic-EB
1071
    32818
  0
STYLE
  5
1864E
330
7468
100
AcDbSymbolTableRecord
100
AcDbTextStyleTableRecord
  2
スタイル1
 70
     0
 40
0.0
 41
1.0
 50
0.0
 71
     0
 42
4.0
  3
isocp.shx
  4
bigfont.shx
  0
ENDTAB
  0
TABLE
  2
VIEW
  5
746B
330
0
100
AcDbSymbolTable
 70
     0
  0
ENDTAB
  0
TABLE
  2
UCS
  5
746C
330
0
100
AcDbSymbolTable
 70
     0
  0
ENDTAB
  0
TABLE
  2
APPID
  5
746E
330
0
100
AcDbSymbolTable
 70
     6
  0
APPID
  5
7476
330
746E
100
AcDbSymbolTableRecord
100
AcDbRegAppTableRecord
  2
ACAD
 70
     0
  0
APPID
  5
DEA9
330
746E
100
AcDbSymbolTableRecord
100
AcDbRegAppTableRecord
  2
CONTENTBLOCKICON
 70
     0
  0
APPID
  5
DEAA
330
746E
100
AcDbSymbolTableRecord
100
AcDbRegAppTableRecord
  2
CONTENTBLOCKDESCRIPTION
 70
     0
  0
APPID
  5
E71D
330
746E
100
AcDbSymbolTableRecord
100
AcDbRegAppTableRecord
  2
CONTENTTABDATA
 70
     0
  0
APPID
  5
E71E
330
746E
100
AcDbSymbolTableRecord
100
AcDbRegAppTableRecord
  2
CONTENTCURRENTTAB
 70
     0
  0
APPID
  5
F3BA
330
746E
100
AcDbSymbolTableRecord
100
AcDbRegAppTableRecord
  2
DRAWINGVARIABLESXDATA
 70
     0
  0
ENDTAB
  0
TABLE
  2
DIMSTYLE
  5
746F
330
0
100
AcDbSymbolTable
 70
     5
100
AcDbDimStyleTable
 71
     1
340
F71F
  0
DIMSTYLE
105
7484
330
746F
100
AcDbSymbolTableRecord
100
AcDbDimStyleTableRecord
  2
JIS
 70
     0
 41
2.5
 42
1.0
 43
7.0
 44
1.0
 73
     0
 74
     0
 77
     1
 78
     8
140
2.5
141
0.0
143
0.0394
147
0.0
172
     1
174
     1
175
     1
340
7475
  0
DIMSTYLE
105
F71F
102
{ACAD_REACTORS
330
1572B
330
1709E
330
1709D
330
1709C
330
170F0
330
1796F
330
17970
330
179CE
330
179CF
330
179D0
330
179D1
330
179D2
330
179F0
330
17DB7
330
19677
330
1567B
330
198A5
330
198AC
330
198AD
330
198C2
330
198C3
330
198C4
330
198C5
330
198C6
330
198C7
330
198C8
330
198C9
330
198CA
330
1990B
330
19912
330
1995E
330
1995F
330
19960
330
19961
102
}
330
746F
100
AcDbSymbolTableRecord
100
AcDbDimStyleTableRecord
  2
INABA_S40G
 70
     0
 40
40.0
 41
2.5
 42
0.5
 43
7.0
 44
1.5
 73
     0
 74
     0
 77
     3
 78
     8
140
3.0
141
0.0
143
0.0394
147
1.0
172
     1
173
     1
174
     1
178
     7
271
     1
340
F706
341
F770
343
F770
344
F770
  0
DIMSTYLE
105
15EBE
102
{ACAD_REACTORS
330
179B9
102
}
330
746F
100
AcDbSymbolTableRecord
100
AcDbDimStyleTableRecord
  2
INABA_S40
 70
     0
 40
40.0
 41
2.5
 42
0.5
 43
7.0
 44
1.5
 73
     0
 74
     0
 77
     3
 78
     8
140
3.0
141
0.0
143
0.0394
147
1.0
172
     1
173
     1
174
     1
175
     1
178
     7
289
     0
340
7475
341
15E19
343
15E19
344
15E19
  0
DIMSTYLE
105
17E83
330
746F
100
AcDbSymbolTableRecord
100
AcDbDimStyleTableRecord
  2
INABA_S20G
 70
     0
 40
20.0
 41
2.5
 42
0.5
 43
7.0
 44
1.5
 73
     0
 74
     0
 77
     3
 78
     8
140
3.0
141
0.0
143
0.0394
147
1.0
172
     1
173
     1
174
     1
175
     1
178
     7
271
     1
340
F706
341
F770
343
F770
344
F770
  0
DIMSTYLE
105
1864F
330
746F
100
AcDbSymbolTableRecord
100
AcDbDimStyleTableRecord
  2
INABA_1／3
 70
     0
 40
3.0
 41
2.5
 42
0.5
 43
7.0
 44
1.5
 73
     0
 74
     0
 77
     3
 78
     8
140
3.0
141
0.0
143
0.0394
147
0.5
172
     1
173
     1
174
     1
175
     1
178
     7
289
     0
340
1864E
341
15E19
343
15E19
344
15E19
  0
ENDTAB
  0
TABLE
  2
BLOCK_RECORD
  5
7466
330
0
100
AcDbSymbolTable
 70
    40
  0
BLOCK_RECORD
  5
747D
330
7466
100
AcDbSymbolTableRecord
100
AcDbBlockTableRecord
  2
*MODEL_SPACE
340
15D46
  0
BLOCK_RECORD
  5
747A
330
7466
100
AcDbSymbolTableRecord
100
AcDbBlockTableRecord
  2
*PAPER_SPACE
340
15D47
  0
BLOCK_RECORD
  5
F770
330
7466
100
AcDbSymbolTableRecord
100
AcDbBlockTableRecord
  2
_DOTSMALL
340
0
102
{BLKREFS
331
17308
331
17309
331
17313
331
17314
331
1731C
331
1731D
331
17325
331
17326
331
1742A
331
1742B
331
17BD0
331
17BD1
331
17BDA
331
17BDB
331
17BE5
331
17BE6
331
17BEE
331
17BEF
331
17BF7
331
17BF8
331
17C01
331
17C02
331
17C13
331
17C14
331
17C1E
331
17C1F
331
17E00
331
17E01
331
17E09
331
17E0A
331
1967C
331
1967D
331
19AF8
331
19AF9
331
19B01
331
19B02
331
19B0A
331
19B0B
331
19B13
331
19B14
331
19B1C
331
19B1D
331
19B25
331
19B26
331
19B2E
331
19B2F
331
19B37
331
19B38
331
19B42
331
19B43
331
19B4D
331
19B4E
331
19B56
331
19B57
331
19B61
331
19B62
331
19B6C
331
19B6D
331
19B77
331
19B78
331
19B80
331
19B81
331
19B8B
331
19B8C
331
19B94
331
19B95
331
19B9D
331
19B9E
102
}
  0
BLOCK_RECORD
  5
158B3
330
7466
100
AcDbSymbolTableRecord
100
AcDbBlockTableRecord
  2
*D1
340
0
  0
BLOCK_RECORD
  5
1598B
330
7466
100
AcDbSymbolTableRecord
100
AcDbBlockTableRecord
  2
*D2
340
0
  0
BLOCK_RECORD
  5
15E19
330
7466
100
AcDbSymbolTableRecord
100
AcDbBlockTableRecord
  2
_OPEN
340
0
  0
BLOCK_RECORD
  5
15E1F
330
7466
100
AcDbSymbolTableRecord
100
AcDbBlockTableRecord
  2
_DOT
340
0
102
{BLKREFS
331
17C0A
331
17C0B
102
}
  0
BLOCK_RECORD
  5
170AD
330
7466
100
AcDbSymbolTableRecord
100
AcDbBlockTableRecord
  2
*D5
340
0
  0
BLOCK_RECORD
  5
170BB
330
7466
100
AcDbSymbolTableRecord
100
AcDbBlockTableRecord
  2
*D6
340
0
  0
BLOCK_RECORD
  5
170C7
330
7466
100
AcDbSymbolTableRecord
100
AcDbBlockTableRecord
  2
*D7
340
0
  0
BLOCK_RECORD
  5
170FB
330
7466
100
AcDbSymbolTableRecord
100
AcDbBlockTableRecord
  2
*D8
340
0
  0
BLOCK_RECORD
  5
17A93
330
7466
100
AcDbSymbolTableRecord
100
AcDbBlockTableRecord
  2
*D9
340
0
  0
BLOCK_RECORD
  5
17AA1
330
7466
100
AcDbSymbolTableRecord
100
AcDbBlockTableRecord
  2
*D10
340
0
  0
BLOCK_RECORD
  5
17AE1
330
7466
100
AcDbSymbolTableRecord
100
AcDbBlockTableRecord
  2
*D11
340
0
  0
BLOCK_RECORD
  5
17AED
330
7466
100
AcDbSymbolTableRecord
100
AcDbBlockTableRecord
  2
*D12
340
0
  0
BLOCK_RECORD
  5
17AFA
330
7466
100
AcDbSymbolTableRecord
100
AcDbBlockTableRecord
  2
*D13
340
0
  0
BLOCK_RECORD
  5
17B06
330
7466
100
AcDbSymbolTableRecord
100
AcDbBlockTableRecord
  2
*D14
340
0
  0
BLOCK_RECORD
  5
17B12
330
7466
100
AcDbSymbolTableRecord
100
AcDbBlockTableRecord
  2
*D15
340
0
  0
BLOCK_RECORD
  5
17B20
330
7466
100
AcDbSymbolTableRecord
100
AcDbBlockTableRecord
  2
*D16
340
0
  0
BLOCK_RECORD
  5
17B2D
330
7466
100
AcDbSymbolTableRecord
100
AcDbBlockTableRecord
  2
*D17
340
0
  0
BLOCK_RECORD
  5
17C45
330
7466
100
AcDbSymbolTableRecord
100
AcDbBlockTableRecord
  2
A$C234373F2
340
0
  0
BLOCK_RECORD
  5
17DB8
330
7466
100
AcDbSymbolTableRecord
100
AcDbBlockTableRecord
  2
*D19
340
0
  0
BLOCK_RECORD
  5
19678
330
7466
100
AcDbSymbolTableRecord
100
AcDbBlockTableRecord
  2
*D20
340
0
  0
BLOCK_RECORD
  5
196A9
330
7466
100
AcDbSymbolTableRecord
100
AcDbBlockTableRecord
  2
A$C77305D78
340
0
  0
BLOCK_RECORD
  5
19963
330
7466
100
AcDbSymbolTableRecord
100
AcDbBlockTableRecord
  2
*D22
340
0
  0
BLOCK_RECORD
  5
1996F
330
7466
100
AcDbSymbolTableRecord
100
AcDbBlockTableRecord
  2
*D23
340
0
  0
BLOCK_RECORD
  5
1997B
330
7466
100
AcDbSymbolTableRecord
100
AcDbBlockTableRecord
  2
*D24
340
0
  0
BLOCK_RECORD
  5
19989
330
7466
100
AcDbSymbolTableRecord
100
AcDbBlockTableRecord
  2
*D25
340
0
  0
BLOCK_RECORD
  5
19995
330
7466
100
AcDbSymbolTableRecord
100
AcDbBlockTableRecord
  2
*D26
340
0
  0
BLOCK_RECORD
  5
199A3
330
7466
100
AcDbSymbolTableRecord
100
AcDbBlockTableRecord
  2
*D27
340
0
  0
BLOCK_RECORD
  5
199B1
330
7466
100
AcDbSymbolTableRecord
100
AcDbBlockTableRecord
  2
*D28
340
0
  0
BLOCK_RECORD
  5
199BF
330
7466
100
AcDbSymbolTableRecord
100
AcDbBlockTableRecord
  2
*D29
340
0
  0
BLOCK_RECORD
  5
199CB
330
7466
100
AcDbSymbolTableRecord
100
AcDbBlockTableRecord
  2
*D30
340
0
  0
BLOCK_RECORD
  5
199D9
330
7466
100
AcDbSymbolTableRecord
100
AcDbBlockTableRecord
  2
*D31
340
0
  0
BLOCK_RECORD
  5
199E7
330
7466
100
AcDbSymbolTableRecord
100
AcDbBlockTableRecord
  2
*D32
340
0
  0
BLOCK_RECORD
  5
199F3
330
7466
100
AcDbSymbolTableRecord
100
AcDbBlockTableRecord
  2
*D33
340
0
  0
BLOCK_RECORD
  5
199FF
330
7466
100
AcDbSymbolTableRecord
100
AcDbBlockTableRecord
  2
*D34
340
0
  0
BLOCK_RECORD
  5
19A0B
330
7466
100
AcDbSymbolTableRecord
100
AcDbBlockTableRecord
  2
*D35
340
0
  0
BLOCK_RECORD
  5
19A17
330
7466
100
AcDbSymbolTableRecord
100
AcDbBlockTableRecord
  2
*D36
340
0
  0
BLOCK_RECORD
  5
19A23
330
7466
100
AcDbSymbolTableRecord
100
AcDbBlockTableRecord
  2
*D37
340
0
  0
BLOCK_RECORD
  5
19A2F
330
7466
100
AcDbSymbolTableRecord
100
AcDbBlockTableRecord
  2
*D38
340
0
  0
BLOCK_RECORD
  5
19A3B
330
7466
100
AcDbSymbolTableRecord
100
AcDbBlockTableRecord
  2
*D39
340
0
  0
ENDTAB
  0
ENDSEC
  0
SECTION
  2
BLOCKS
  0
BLOCK
  5
7489
330
747D
100
AcDbEntity
  8
0
100
AcDbBlockBegin
  2
*MODEL_SPACE
 70
     0
 10
0.0
 20
0.0
 30
0.0
  3
*MODEL_SPACE
  1

  0
ENDBLK
  5
748A
330
747D
100
AcDbEntity
  8
0
100
AcDbBlockEnd
  0
BLOCK
  5
7487
330
747A
100
AcDbEntity
 67
     1
  8
0
100
AcDbBlockBegin
  2
*PAPER_SPACE
 70
     0
 10
0.0
 20
0.0
 30
0.0
  3
*PAPER_SPACE
  1

  0
ENDBLK
  5
7488
330
747A
100
AcDbEntity
 67
     1
  8
0
100
AcDbBlockEnd
  0
BLOCK
  5
F771
330
F770
100
AcDbEntity
  8
0
 48
50.0
100
AcDbBlockBegin
  2
_DOTSMALL
 70
     0
 10
0.0
 20
0.0
 30
0.0
  3
_DOTSMALL
  1

  0
LWPOLYLINE
  5
F772
330
F770
100
AcDbEntity
  8
0
  6
ByBlock
 62
     0
 48
50.0
100
AcDbPolyline
 90
        2
 70
     1
 43
0.5
 10
-0.0625
 20
0.0
 42
1.0
 10
0.0625
 20
0.0
 42
1.0
  0
ENDBLK
  5
F776
330
F770
100
AcDbEntity
  8
0
 48
50.0
100
AcDbBlockEnd
  0
BLOCK
  5
15A5F
330
158B3
100
AcDbEntity
  8
0
 48
50.0
100
AcDbBlockBegin
  2
*D1
 70
     1
 10
0.0
 20
0.0
 30
0.0
  3
*D1
  1

  0
LINE
  5
17427
330
158B3
100
AcDbEntity
  8
寸法
 62
     0
 48
50.0
370
    -2
100
AcDbLine
 10
4814.375560876356
 20
8340.766456979613
 30
0.0
 11
4814.375560876356
 21
7313.664582119542
 31
0.0
  0
LINE
  5
17428
330
158B3
100
AcDbEntity
  8
寸法
 62
     0
 48
50.0
370
    -2
100
AcDbLine
 10
7274.37556087634
 20
8340.766456979746
 30
0.0
 11
7274.37556087634
 21
7313.664582119542
 31
0.0
  0
LINE
  5
17429
330
158B3
100
AcDbEntity
  8
寸法
 62
     0
 48
50.0
370
    -2
100
AcDbLine
 10
4814.375560876356
 20
7373.664582119542
 30
0.0
 11
7274.37556087634
 21
7373.664582119542
 31
0.0
  0
INSERT
  5
1742A
330
158B3
100
AcDbEntity
  8
寸法
 62
     0
 48
50.0
370
    -2
100
AcDbBlockReference
  2
_DOTSMALL
 10
4814.375560876356
 20
7373.664582119542
 30
0.0
 41
100.0
 42
100.0
 43
100.0
 50
180.0
  0
INSERT
  5
1742B
330
158B3
100
AcDbEntity
  8
寸法
 62
     0
 48
50.0
370
    -2
100
AcDbBlockReference
  2
_DOTSMALL
 10
7274.37556087634
 20
7373.664582119542
 30
0.0
 41
100.0
 42
100.0
 43
100.0
  0
MTEXT
  5
1742C
330
158B3
100
AcDbEntity
  8
寸法
 62
     7
 48
50.0
100
AcDbMText
 10
6044.375560876347
 20
7473.676393143164
 30
0.0
 40
120.0
 41
0.0
 71
     5
 72
     1
  1
\A1;2460
  7
STYLE1
 73
     1
 44
1.0
1001
ACAD
1000
MTEXTBEGIN
1070
    73
1070
     1
1070
    44
1040
1.0
1070
    74
1070
     0
1000
MTEXTEND
  0
POINT
  5
1742D
330
158B3
100
AcDbEntity
  8
DEFPOINTS
 62
     0
 48
50.0
100
AcDbPoint
 10
4814.375560876356
 20
8360.766456979614
 30
0.0
  0
POINT
  5
1742E
330
158B3
100
AcDbEntity
  8
DEFPOINTS
 62
     0
 48
50.0
100
AcDbPoint
 10
7274.37556087634
 20
8360.766456979744
 30
0.0
  0
POINT
  5
1742F
330
158B3
100
AcDbEntity
  8
DEFPOINTS
 62
     0
 48
50.0
100
AcDbPoint
 10
7274.37556087634
 20
7373.664582119542
 30
0.0
  0
ENDBLK
  5
15A69
330
158B3
100
AcDbEntity
  8
0
 48
50.0
100
AcDbBlockEnd
  0
BLOCK
  5
15B26
330
1598B
100
AcDbEntity
  8
0
 48
50.0
100
AcDbBlockBegin
  2
*D2
 70
     1
 10
0.0
 20
0.0
 30
0.0
  3
*D2
  1

  0
LINE
  5
17E06
330
1598B
100
AcDbEntity
  8
寸法
 62
     0
 48
50.0
370
    -2
100
AcDbLine
 10
4794.375560876339
 20
5391.07727689386
 30
0.0
 11
4436.271033268737
 21
5391.07727689386
 31
0.0
  0
LINE
  5
17E07
330
1598B
100
AcDbEntity
  8
寸法
 62
     0
 48
50.0
370
    -2
100
AcDbLine
 10
4794.375560876339
 20
4545.077276893864
 30
0.0
 11
4436.271033268737
 21
4545.077276893864
 31
0.0
  0
LINE
  5
17E08
330
1598B
100
AcDbEntity
  8
寸法
 62
     0
 48
50.0
370
    -2
100
AcDbLine
 10
4496.271033268737
 20
5391.07727689386
 30
0.0
 11
4496.271033268737
 21
4545.077276893864
 31
0.0
  0
INSERT
  5
17E09
330
1598B
100
AcDbEntity
  8
寸法
 62
     0
 48
50.0
370
    -2
100
AcDbBlockReference
  2
_DOTSMALL
 10
4496.271033268737
 20
5391.07727689386
 30
0.0
 41
100.0
 42
100.0
 43
100.0
 50
90.0
  0
INSERT
  5
17E0A
330
1598B
100
AcDbEntity
  8
寸法
 62
     0
 48
50.0
370
    -2
100
AcDbBlockReference
  2
_DOTSMALL
 10
4496.271033268737
 20
4545.077276893864
 30
0.0
 41
100.0
 42
100.0
 43
100.0
 50
270.0
  0
MTEXT
  5
17E0B
330
1598B
100
AcDbEntity
  8
寸法
 62
     7
 48
50.0
100
AcDbMText
 10
4296.271033268737
 20
4971.077276893863
 30
0.0
 40
120.0
 41
0.0
 71
     5
 72
     1
  1
\A1;有効開口部\P高さ846
  7
STYLE1
 11
0.0000000000000001
 21
1.0
 31
0.0
 73
     1
 44
1.0
1001
ACAD
1000
MTEXTBEGIN
1070
    73
1070
     1
1070
    44
1040
1.0
1070
    74
1070
     0
1000
MTEXTEND
  0
POINT
  5
17E0C
330
1598B
100
AcDbEntity
  8
DEFPOINTS
 62
     0
 48
50.0
100
AcDbPoint
 10
4814.37556087634
 20
5391.07727689386
 30
0.0
  0
POINT
  5
17E0D
330
1598B
100
AcDbEntity
  8
DEFPOINTS
 62
     0
 48
50.0
100
AcDbPoint
 10
4814.37556087634
 20
4545.077276893864
 30
0.0
  0
POINT
  5
17E0E
330
1598B
100
AcDbEntity
  8
DEFPOINTS
 62
     0
 48
50.0
100
AcDbPoint
 10
4496.271033268737
 20
4545.077276893864
 30
0.0
  0
ENDBLK
  5
15B30
330
1598B
100
AcDbEntity
  8
0
 48
50.0
100
AcDbBlockEnd
  0
BLOCK
  5
15E1A
330
15E19
100
AcDbEntity
  8
0
100
AcDbBlockBegin
  2
_OPEN
 70
     0
 10
0.0
 20
0.0
 30
0.0
  3
_OPEN
  1

  0
LINE
  5
15E1B
330
15E19
100
AcDbEntity
  8
0
  6
ByBlock
 62
     0
100
AcDbLine
 10
-1.0
 20
0.1666666666666666
 30
0.0
 11
0.0
 21
0.0
 31
0.0
  0
LINE
  5
15E1C
330
15E19
100
AcDbEntity
  8
0
  6
ByBlock
 62
     0
100
AcDbLine
 10
0.0
 20
0.0
 30
0.0
 11
-1.0
 21
-0.1666666666666666
 31
0.0
  0
LINE
  5
15E1D
330
15E19
100
AcDbEntity
  8
0
  6
ByBlock
 62
     0
100
AcDbLine
 10
0.0
 20
0.0
 30
0.0
 11
-1.0
 21
0.0
 31
0.0
  0
ENDBLK
  5
15E1E
330
15E19
100
AcDbEntity
  8
0
100
AcDbBlockEnd
  0
BLOCK
  5
15E20
330
15E1F
100
AcDbEntity
  8
0
 48
50.0
100
AcDbBlockBegin
  2
_DOT
 70
     0
 10
0.0
 20
0.0
 30
0.0
  3
_DOT
  1

  0
LWPOLYLINE
  5
15E21
330
15E1F
100
AcDbEntity
  8
0
  6
ByBlock
 62
     0
 48
50.0
100
AcDbPolyline
 90
        2
 70
     1
 43
0.5
 10
-0.25
 20
0.0
 42
1.0
 10
0.25
 20
0.0
 42
1.0
  0
LINE
  5
15E22
330
15E1F
100
AcDbEntity
  8
0
  6
ByBlock
 62
     0
 48
50.0
100
AcDbLine
 10
-0.5
 20
0.0
 30
0.0
 11
-1.0
 21
0.0
 31
0.0
  0
ENDBLK
  5
15E23
330
15E1F
100
AcDbEntity
  8
0
 48
50.0
100
AcDbBlockEnd
  0
BLOCK
  5
170B9
330
170AD
100
AcDbEntity
  8
0
 48
50.0
100
AcDbBlockBegin
  2
*D5
 70
     1
 10
0.0
 20
0.0
 30
0.0
  3
*D5
  1

  0
LINE
  5
1730E
330
170AD
100
AcDbEntity
  8
寸法
 62
     0
 48
50.0
370
    -2
100
AcDbLine
 10
4814.375560876339
 20
5664.577276893869
 30
0.0
 11
4814.375560876339
 21
5917.118862152106
 31
0.0
  0
LINE
  5
1730F
330
170AD
100
AcDbEntity
  8
寸法
 62
     0
 48
50.0
370
    -2
100
AcDbLine
 10
4764.375560876338
 20
5664.577276893867
 30
0.0
 11
4764.375560876338
 21
5917.118862152106
 31
0.0
  0
LINE
  5
17310
330
170AD
100
AcDbEntity
  8
寸法
 62
     0
 48
50.0
370
    -2
100
AcDbLine
 10
4814.375560876339
 20
5857.118862152105
 30
0.0
 11
4914.375560876338
 21
5857.118862152105
 31
0.0
  0
LINE
  5
17311
330
170AD
100
AcDbEntity
  8
寸法
 62
     0
 48
50.0
370
    -2
100
AcDbLine
 10
4764.375560876338
 20
5857.118862152105
 30
0.0
 11
4344.843035407603
 21
5857.118862152105
 31
0.0
  0
LINE
  5
17312
330
170AD
100
AcDbEntity
  8
寸法
 62
     0
 48
50.0
370
    -2
100
AcDbLine
 10
4814.375560876339
 20
5857.118862152105
 30
0.0
 11
4764.375560876338
 21
5857.118862152105
 31
0.0
  0
INSERT
  5
17313
330
170AD
100
AcDbEntity
  8
寸法
 62
     0
 48
50.0
370
    -2
100
AcDbBlockReference
  2
_DOTSMALL
 10
4814.375560876339
 20
5857.118862152105
 30
0.0
 41
100.0
 42
100.0
 43
100.0
 50
180.0
  0
INSERT
  5
17314
330
170AD
100
AcDbEntity
  8
寸法
 62
     0
 48
50.0
370
    -2
100
AcDbBlockReference
  2
_DOTSMALL
 10
4764.375560876338
 20
5857.118862152105
 30
0.0
 41
100.0
 42
100.0
 43
100.0
  0
MTEXT
  5
17315
330
170AD
100
AcDbEntity
  8
寸法
 62
     7
 48
50.0
100
AcDbMText
 10
4450.890279502091
 20
5957.118862152106
 30
0.0
 40
120.0
 41
0.0
 71
     5
 72
     1
  1
\A1;50
  7
STYLE1
 73
     1
 44
1.0
1001
ACAD
1000
MTEXTBEGIN
1070
    73
1070
     1
1070
    44
1040
1.0
1070
    74
1070
     0
1000
MTEXTEND
  0
POINT
  5
17316
330
170AD
100
AcDbEntity
  8
DEFPOINTS
 62
     0
 48
50.0
100
AcDbPoint
 10
4814.375560876339
 20
5644.577276893869
 30
0.0
  0
POINT
  5
17317
330
170AD
100
AcDbEntity
  8
DEFPOINTS
 62
     0
 48
50.0
100
AcDbPoint
 10
4764.375560876338
 20
5644.577276893866
 30
0.0
  0
POINT
  5
17318
330
170AD
100
AcDbEntity
  8
DEFPOINTS
 62
     0
 48
50.0
100
AcDbPoint
 10
4764.375560876338
 20
5857.118862152105
 30
0.0
  0
ENDBLK
  5
170BA
330
170AD
100
AcDbEntity
  8
0
 48
50.0
100
AcDbBlockEnd
  0
BLOCK
  5
170C5
330
170BB
100
AcDbEntity
  8
0
 48
50.0
100
AcDbBlockBegin
  2
*D6
 70
     1
 10
0.0
 20
0.0
 30
0.0
  3
*D6
  1

  0
LINE
  5
17319
330
170BB
100
AcDbEntity
  8
寸法
 62
     0
 48
50.0
370
    -2
100
AcDbLine
 10
7274.375560876342
 20
5664.577276893864
 30
0.0
 11
7274.375560876342
 21
5917.118862152106
 31
0.0
  0
LINE
  5
1731A
330
170BB
100
AcDbEntity
  8
寸法
 62
     0
 48
50.0
370
    -2
100
AcDbLine
 10
4814.375560876339
 20
5664.577276893869
 30
0.0
 11
4814.375560876339
 21
5917.118862152106
 31
0.0
  0
LINE
  5
1731B
330
170BB
100
AcDbEntity
  8
寸法
 62
     0
 48
50.0
370
    -2
100
AcDbLine
 10
7274.375560876342
 20
5857.118862152105
 30
0.0
 11
4814.375560876339
 21
5857.118862152105
 31
0.0
  0
INSERT
  5
1731C
330
170BB
100
AcDbEntity
  8
寸法
 62
     0
 48
50.0
370
    -2
100
AcDbBlockReference
  2
_DOTSMALL
 10
7274.375560876342
 20
5857.118862152105
 30
0.0
 41
100.0
 42
100.0
 43
100.0
  0
INSERT
  5
1731D
330
170BB
100
AcDbEntity
  8
寸法
 62
     0
 48
50.0
370
    -2
100
AcDbBlockReference
  2
_DOTSMALL
 10
4814.375560876339
 20
5857.118862152105
 30
0.0
 41
100.0
 42
100.0
 43
100.0
 50
180.0
  0
MTEXT
  5
1731E
330
170BB
100
AcDbEntity
  8
寸法
 62
     7
 48
50.0
100
AcDbMText
 10
6044.37556087634
 20
5957.130673175727
 30
0.0
 40
120.0
 41
0.0
 71
     5
 72
     1
  1
\A1;柱外寸法2460
  7
STYLE1
 73
     1
 44
1.0
1001
ACAD
1000
MTEXTBEGIN
1070
    73
1070
     1
1070
    44
1040
1.0
1070
    74
1070
     0
1000
MTEXTEND
  0
POINT
  5
1731F
330
170BB
100
AcDbEntity
  8
DEFPOINTS
 62
     0
 48
50.0
100
AcDbPoint
 10
7274.375560876342
 20
5644.577276893864
 30
0.0
  0
POINT
  5
17320
330
170BB
100
AcDbEntity
  8
DEFPOINTS
 62
     0
 48
50.0
100
AcDbPoint
 10
4814.375560876339
 20
5644.577276893869
 30
0.0
  0
POINT
  5
17321
330
170BB
100
AcDbEntity
  8
DEFPOINTS
 62
     0
 48
50.0
100
AcDbPoint
 10
4814.375560876339
 20
5857.118862152105
 30
0.0
  0
ENDBLK
  5
170C6
330
170BB
100
AcDbEntity
  8
0
 48
50.0
100
AcDbBlockEnd
  0
BLOCK
  5
170D1
330
170C7
100
AcDbEntity
  8
0
 48
50.0
100
AcDbBlockBegin
  2
*D7
 70
     1
 10
0.0
 20
0.0
 30
0.0
  3
*D7
  1

  0
LINE
  5
17322
330
170C7
100
AcDbEntity
  8
寸法
 62
     0
 48
50.0
370
    -2
100
AcDbLine
 10
4764.375560876338
 20
5664.577276893867
 30
0.0
 11
4764.375560876338
 21
6140.075840589954
 31
0.0
  0
LINE
  5
17323
330
170C7
100
AcDbEntity
  8
寸法
 62
     0
 48
50.0
370
    -2
100
AcDbLine
 10
7324.375560876342
 20
5664.577276893862
 30
0.0
 11
7324.375560876342
 21
6140.075840589954
 31
0.0
  0
LINE
  5
17324
330
170C7
100
AcDbEntity
  8
寸法
 62
     0
 48
50.0
370
    -2
100
AcDbLine
 10
4764.375560876338
 20
6080.075840589954
 30
0.0
 11
7324.375560876342
 21
6080.075840589954
 31
0.0
  0
INSERT
  5
17325
330
170C7
100
AcDbEntity
  8
寸法
 62
     0
 48
50.0
370
    -2
100
AcDbBlockReference
  2
_DOTSMALL
 10
4764.375560876338
 20
6080.075840589954
 30
0.0
 41
100.0
 42
100.0
 43
100.0
 50
180.0
  0
INSERT
  5
17326
330
170C7
100
AcDbEntity
  8
寸法
 62
     0
 48
50.0
370
    -2
100
AcDbBlockReference
  2
_DOTSMALL
 10
7324.375560876342
 20
6080.075840589954
 30
0.0
 41
100.0
 42
100.0
 43
100.0
  0
MTEXT
  5
17327
330
170C7
100
AcDbEntity
  8
寸法
 62
     7
 48
50.0
100
AcDbMText
 10
6044.37556087634
 20
6180.087651613575
 30
0.0
 40
120.0
 41
0.0
 71
     5
 72
     1
  1
\A1;2560
  7
STYLE1
 73
     1
 44
1.0
1001
ACAD
1000
MTEXTBEGIN
1070
    73
1070
     1
1070
    44
1040
1.0
1070
    74
1070
     0
1000
MTEXTEND
  0
POINT
  5
17328
330
170C7
100
AcDbEntity
  8
DEFPOINTS
 62
     0
 48
50.0
100
AcDbPoint
 10
4764.375560876338
 20
5644.577276893866
 30
0.0
  0
POINT
  5
17329
330
170C7
100
AcDbEntity
  8
DEFPOINTS
 62
     0
 48
50.0
100
AcDbPoint
 10
7324.375560876342
 20
5644.577276893862
 30
0.0
  0
POINT
  5
1732A
330
170C7
100
AcDbEntity
  8
DEFPOINTS
 62
     0
 48
50.0
100
AcDbPoint
 10
7324.375560876342
 20
6080.075840589954
 30
0.0
  0
ENDBLK
  5
170D2
330
170C7
100
AcDbEntity
  8
0
 48
50.0
100
AcDbBlockEnd
  0
BLOCK
  5
17107
330
170FB
100
AcDbEntity
  8
0
 48
50.0
100
AcDbBlockBegin
  2
*D8
 70
     1
 10
0.0
 20
0.0
 30
0.0
  3
*D8
  1

  0
LINE
  5
17303
330
170FB
100
AcDbEntity
  8
寸法
 62
     0
 48
50.0
370
    -2
100
AcDbLine
 10
7324.375560876342
 20
5664.577276893862
 30
0.0
 11
7324.375560876342
 21
5917.118862152103
 31
0.0
  0
LINE
  5
17304
330
170FB
100
AcDbEntity
  8
寸法
 62
     0
 48
50.0
370
    -2
100
AcDbLine
 10
7274.375560876342
 20
5664.577276893864
 30
0.0
 11
7274.375560876342
 21
5917.118862152103
 31
0.0
  0
LINE
  5
17305
330
170FB
100
AcDbEntity
  8
寸法
 62
     0
 48
50.0
370
    -2
100
AcDbLine
 10
7274.375560876342
 20
5857.118862152103
 30
0.0
 11
7174.375560876342
 21
5857.118862152103
 31
0.0
  0
LINE
  5
17306
330
170FB
100
AcDbEntity
  8
寸法
 62
     0
 48
50.0
370
    -2
100
AcDbLine
 10
7324.375560876342
 20
5857.118862152103
 30
0.0
 11
7743.908086345067
 21
5857.118862152103
 31
0.0
  0
LINE
  5
17307
330
170FB
100
AcDbEntity
  8
寸法
 62
     0
 48
50.0
370
    -2
100
AcDbLine
 10
7274.375560876342
 20
5857.118862152103
 30
0.0
 11
7324.375560876342
 21
5857.118862152103
 31
0.0
  0
INSERT
  5
17308
330
170FB
100
AcDbEntity
  8
寸法
 62
     0
 48
50.0
370
    -2
100
AcDbBlockReference
  2
_DOTSMALL
 10
7274.375560876342
 20
5857.118862152103
 30
0.0
 41
100.0
 42
100.0
 43
100.0
  0
INSERT
  5
17309
330
170FB
100
AcDbEntity
  8
寸法
 62
     0
 48
50.0
370
    -2
100
AcDbBlockReference
  2
_DOTSMALL
 10
7324.375560876342
 20
5857.118862152103
 30
0.0
 41
100.0
 42
100.0
 43
100.0
 50
180.0
  0
MTEXT
  5
1730A
330
170FB
100
AcDbEntity
  8
寸法
 62
     7
 48
50.0
100
AcDbMText
 10
7637.860842250579
 20
5957.118862152103
 30
0.0
 40
120.0
 41
0.0
 71
     5
 72
     1
  1
\A1;50
  7
STYLE1
 73
     1
 44
1.0
1001
ACAD
1000
MTEXTBEGIN
1070
    73
1070
     1
1070
    44
1040
1.0
1070
    74
1070
     0
1000
MTEXTEND
  0
POINT
  5
1730B
330
170FB
100
AcDbEntity
  8
DEFPOINTS
 62
     0
 48
50.0
100
AcDbPoint
 10
7324.375560876342
 20
5644.577276893862
 30
0.0
  0
POINT
  5
1730C
330
170FB
100
AcDbEntity
  8
DEFPOINTS
 62
     0
 48
50.0
100
AcDbPoint
 10
7274.375560876342
 20
5644.577276893864
 30
0.0
  0
POINT
  5
1730D
330
170FB
100
AcDbEntity
  8
DEFPOINTS
 62
     0
 48
50.0
100
AcDbPoint
 10
7274.375560876342
 20
5857.118862152103
 30
0.0
  0
ENDBLK
  5
17108
330
170FB
100
AcDbEntity
  8
0
 48
50.0
100
AcDbBlockEnd
  0
BLOCK
  5
17A9F
330
17A93
100
AcDbEntity
  8
0
 48
50.0
100
AcDbBlockBegin
  2
*D9
 70
     1
 10
0.0
 20
0.0
 30
0.0
  3
*D9
  1

  0
LINE
  5
17C19
330
17A93
100
AcDbEntity
  8
寸法
 62
     0
 48
50.0
370
    -2
100
AcDbLine
 10
9634.245103391943
 20
3619.577276893864
 30
0.0
 11
8999.284382744518
 21
3619.577276893865
 31
0.0
  0
LINE
  5
17C1A
330
17A93
100
AcDbEntity
  8
寸法
 62
     0
 48
50.0
370
    -2
100
AcDbLine
 10
9586.247473436721
 20
3569.577276893863
 30
0.0
 11
8999.284382744518
 21
3569.577276893863
 31
0.0
  0
LINE
  5
17C1B
330
17A93
100
AcDbEntity
  8
寸法
 62
     0
 48
50.0
370
    -2
100
AcDbLine
 10
9059.284382744518
 20
3619.577276893865
 30
0.0
 11
9059.284382744518
 21
3719.577276893865
 31
0.0
  0
LINE
  5
17C1C
330
17A93
100
AcDbEntity
  8
寸法
 62
     0
 48
50.0
370
    -2
100
AcDbLine
 10
9059.284382744518
 20
3569.577276893863
 30
0.0
 11
9059.284382744518
 21
3157.482788704883
 31
0.0
  0
LINE
  5
17C1D
330
17A93
100
AcDbEntity
  8
寸法
 62
     0
 48
50.0
370
    -2
100
AcDbLine
 10
9059.284382744518
 20
3619.577276893865
 30
0.0
 11
9059.284382744518
 21
3569.577276893863
 31
0.0
  0
INSERT
  5
17C1E
330
17A93
100
AcDbEntity
  8
寸法
 62
     0
 48
50.0
370
    -2
100
AcDbBlockReference
  2
_DOTSMALL
 10
9059.284382744518
 20
3619.577276893865
 30
0.0
 41
100.0
 42
100.0
 43
100.0
 50
270.0
  0
INSERT
  5
17C1F
330
17A93
100
AcDbEntity
  8
寸法
 62
     0
 48
50.0
370
    -2
100
AcDbBlockReference
  2
_DOTSMALL
 10
9059.284382744518
 20
3569.577276893863
 30
0.0
 41
100.0
 42
100.0
 43
100.0
 50
90.0
  0
MTEXT
  5
17C20
330
17A93
100
AcDbEntity
  8
寸法
 62
     7
 48
50.0
100
AcDbMText
 10
8959.284382744518
 20
3263.530032799372
 30
0.0
 40
120.0
 41
0.0
 71
     5
 72
     1
  1
\A1;50
  7
STYLE1
 11
0.0000000000000001
 21
1.0
 31
0.0
 73
     1
 44
1.0
1001
ACAD
1000
MTEXTBEGIN
1070
    73
1070
     1
1070
    44
1040
1.0
1070
    74
1070
     0
1000
MTEXTEND
  0
POINT
  5
17C21
330
17A93
100
AcDbEntity
  8
DEFPOINTS
 62
     0
 48
50.0
100
AcDbPoint
 10
9654.245103391943
 20
3619.577276893864
 30
0.0
  0
POINT
  5
17C22
330
17A93
100
AcDbEntity
  8
DEFPOINTS
 62
     0
 48
50.0
100
AcDbPoint
 10
9606.247473436722
 20
3569.577276893863
 30
0.0
  0
POINT
  5
17C23
330
17A93
100
AcDbEntity
  8
DEFPOINTS
 62
     0
 48
50.0
100
AcDbPoint
 10
9059.284382744518
 20
3569.577276893863
 30
0.0
  0
ENDBLK
  5
17AA0
330
17A93
100
AcDbEntity
  8
0
 48
50.0
100
AcDbBlockEnd
  0
BLOCK
  5
17AAB
330
17AA1
100
AcDbEntity
  8
0
 48
50.0
100
AcDbBlockBegin
  2
*D10
 70
     1
 10
0.0
 20
0.0
 30
0.0
  3
*D10
  1

  0
LINE
  5
17C10
330
17AA1
100
AcDbEntity
  8
寸法
 62
     0
 48
50.0
370
    -2
100
AcDbLine
 10
9634.245103391943
 20
5409.577276893862
 30
0.0
 11
8999.284382744519
 21
5409.577276893862
 31
0.0
  0
LINE
  5
17C11
330
17AA1
100
AcDbEntity
  8
寸法
 62
     0
 48
50.0
370
    -2
100
AcDbLine
 10
9634.245103391943
 20
3619.577276893864
 30
0.0
 11
8999.284382744518
 21
3619.577276893865
 31
0.0
  0
LINE
  5
17C12
330
17AA1
100
AcDbEntity
  8
寸法
 62
     0
 48
50.0
370
    -2
100
AcDbLine
 10
9059.28438274452
 20
5409.577276893862
 30
0.0
 11
9059.284382744518
 21
3619.577276893865
 31
0.0
  0
INSERT
  5
17C13
330
17AA1
100
AcDbEntity
  8
寸法
 62
     0
 48
50.0
370
    -2
100
AcDbBlockReference
  2
_DOTSMALL
 10
9059.28438274452
 20
5409.577276893862
 30
0.0
 41
100.0
 42
100.0
 43
100.0
 50
90.0
  0
INSERT
  5
17C14
330
17AA1
100
AcDbEntity
  8
寸法
 62
     0
 48
50.0
370
    -2
100
AcDbBlockReference
  2
_DOTSMALL
 10
9059.284382744518
 20
3619.577276893865
 30
0.0
 41
100.0
 42
100.0
 43
100.0
 50
270.0
  0
MTEXT
  5
17C15
330
17AA1
100
AcDbEntity
  8
寸法
 62
     7
 48
50.0
100
AcDbMText
 10
8959.284382744518
 20
4524.612288770249
 30
0.0
 40
120.0
 41
0.0
 71
     5
 72
     1
  1
\A1;1790
  7
STYLE1
 11
0.0000000000000001
 21
1.0
 31
0.0
 73
     1
 44
1.0
1001
ACAD
1000
MTEXTBEGIN
1070
    73
1070
     1
1070
    44
1040
1.0
1070
    74
1070
     0
1000
MTEXTEND
  0
POINT
  5
17C16
330
17AA1
100
AcDbEntity
  8
DEFPOINTS
 62
     0
 48
50.0
100
AcDbPoint
 10
9654.245103391943
 20
5409.577276893862
 30
0.0
  0
POINT
  5
17C17
330
17AA1
100
AcDbEntity
  8
DEFPOINTS
 62
     0
 48
50.0
100
AcDbPoint
 10
9654.245103391943
 20
3619.577276893864
 30
0.0
  0
POINT
  5
17C18
330
17AA1
100
AcDbEntity
  8
DEFPOINTS
 62
     0
 48
50.0
100
AcDbPoint
 10
9059.284382744518
 20
3619.577276893865
 30
0.0
  0
ENDBLK
  5
17AAC
330
17AA1
100
AcDbEntity
  8
0
 48
50.0
100
AcDbBlockEnd
  0
BLOCK
  5
17AEB
330
17AE1
100
AcDbEntity
  8
0
 48
50.0
100
AcDbBlockBegin
  2
*D11
 70
     1
 10
0.0
 20
0.0
 30
0.0
  3
*D11
  1

  0
LINE
  5
17C07
330
17AE1
100
AcDbEntity
  8
寸法
 62
     0
 48
50.0
370
    -2
100
AcDbLine
 10
10631.24747343672
 20
3569.57727689386
 30
0.0
 11
11181.65601137055
 21
3569.57727689386
 31
0.0
  0
LINE
  5
17C08
330
17AE1
100
AcDbEntity
  8
寸法
 62
     0
 48
50.0
370
    -2
100
AcDbLine
 10
10711.24747343673
 20
5589.57727689386
 30
0.0
 11
11181.65601137055
 21
5589.57727689386
 31
0.0
  0
LINE
  5
17C09
330
17AE1
100
AcDbEntity
  8
寸法
 62
     0
 48
50.0
370
    -2
100
AcDbLine
 10
11141.65601137055
 20
3589.577276893861
 30
0.0
 11
11141.65601137055
 21
5569.57727689386
 31
0.0
  0
INSERT
  5
17C0A
330
17AE1
100
AcDbEntity
  8
寸法
 62
     0
 48
50.0
370
    -2
100
AcDbBlockReference
  2
_DOT
 10
11141.65601137055
 20
3569.57727689386
 30
0.0
 41
20.0
 42
20.0
 43
20.0
 50
270.0
  0
INSERT
  5
17C0B
330
17AE1
100
AcDbEntity
  8
寸法
 62
     0
 48
50.0
370
    -2
100
AcDbBlockReference
  2
_DOT
 10
11141.65601137055
 20
5589.57727689386
 30
0.0
 41
20.0
 42
20.0
 43
20.0
 50
90.0
  0
MTEXT
  5
17C0C
330
17AE1
100
AcDbEntity
  8
寸法
 62
     7
 48
50.0
100
AcDbMText
 10
11049.64420034693
 20
4521.501672958286
 30
0.0
 40
120.0
 41
0.0
 71
     5
 72
     1
  1
\A1;2020
  7
STYLE1
 11
0.0000000000000001
 21
1.0
 31
0.0
 73
     1
 44
1.0
1001
ACAD
1000
MTEXTBEGIN
1070
    73
1070
     1
1070
    44
1040
1.0
1070
    74
1070
     0
1000
MTEXTEND
  0
POINT
  5
17C0D
330
17AE1
100
AcDbEntity
  8
DEFPOINTS
 62
     0
 48
50.0
100
AcDbPoint
 10
10611.24747343672
 20
3569.57727689386
 30
0.0
  0
POINT
  5
17C0E
330
17AE1
100
AcDbEntity
  8
DEFPOINTS
 62
     0
 48
50.0
100
AcDbPoint
 10
10691.24747343673
 20
5589.57727689386
 30
0.0
  0
POINT
  5
17C0F
330
17AE1
100
AcDbEntity
  8
DEFPOINTS
 62
     0
 48
50.0
100
AcDbPoint
 10
11141.65601137055
 20
5589.57727689386
 30
0.0
  0
ENDBLK
  5
17AEC
330
17AE1
100
AcDbEntity
  8
0
 48
50.0
100
AcDbBlockEnd
  0
BLOCK
  5
17AF8
330
17AED
100
AcDbEntity
  8
0
 48
50.0
100
AcDbBlockBegin
  2
*D12
 70
     1
 10
0.0
 20
0.0
 30
0.0
  3
*D12
  1

  0
LINE
  5
17BFD
330
17AED
100
AcDbEntity
  8
寸法
 62
     0
 48
50.0
370
    -2
100
AcDbLine
 10
10611.24747343672
 20
5611.387956505514
 30
0.0
 11
10611.24747343672
 21
6103.234730473165
 31
0.0
  0
LINE
  5
17BFE
330
17AED
100
AcDbEntity
  8
寸法
 62
     0
 48
50.0
370
    -2
100
AcDbLine
 10
10691.24747343672
 20
5609.577276893862
 30
0.0
 11
10691.24747343672
 21
6103.234730473165
 31
0.0
  0
LINE
  5
17BFF
330
17AED
100
AcDbEntity
  8
寸法
 62
     0
 48
50.0
370
    -2
100
AcDbLine
 10
10611.24747343672
 20
6043.234730473165
 30
0.0
 11
10691.24747343672
 21
6043.234730473165
 31
0.0
  0
LINE
  5
17C00
330
17AED
100
AcDbEntity
  8
寸法
 62
     0
 48
50.0
370
    -2
100
AcDbLine
 10
10691.24747343672
 20
6043.234730473165
 30
0.0
 11
11003.3419616257
 21
6043.234730473165
 31
0.0
  0
INSERT
  5
17C01
330
17AED
100
AcDbEntity
  8
寸法
 62
     0
 48
50.0
370
    -2
100
AcDbBlockReference
  2
_DOTSMALL
 10
10611.24747343672
 20
6043.234730473165
 30
0.0
 41
100.0
 42
100.0
 43
100.0
 50
180.0
  0
INSERT
  5
17C02
330
17AED
100
AcDbEntity
  8
寸法
 62
     0
 48
50.0
370
    -2
100
AcDbBlockReference
  2
_DOTSMALL
 10
10691.24747343672
 20
6043.234730473165
 30
0.0
 41
100.0
 42
100.0
 43
100.0
  0
MTEXT
  5
17C03
330
17AED
100
AcDbEntity
  8
寸法
 62
     7
 48
50.0
100
AcDbMText
 10
10897.29471753121
 20
6143.234730473165
 30
0.0
 40
120.0
 41
0.0
 71
     5
 72
     1
  1
\A1;80
  7
STYLE1
 73
     1
 44
1.0
1001
ACAD
1000
MTEXTBEGIN
1070
    73
1070
     1
1070
    44
1040
1.0
1070
    74
1070
     0
1000
MTEXTEND
  0
POINT
  5
17C04
330
17AED
100
AcDbEntity
  8
DEFPOINTS
 62
     0
 48
50.0
100
AcDbPoint
 10
10611.24747343672
 20
5591.387956505514
 30
0.0
  0
POINT
  5
17C05
330
17AED
100
AcDbEntity
  8
DEFPOINTS
 62
     0
 48
50.0
100
AcDbPoint
 10
10691.24747343672
 20
5589.577276893862
 30
0.0
  0
POINT
  5
17C06
330
17AED
100
AcDbEntity
  8
DEFPOINTS
 62
     0
 48
50.0
100
AcDbPoint
 10
10691.24747343672
 20
6043.234730473165
 30
0.0
  0
ENDBLK
  5
17AF9
330
17AED
100
AcDbEntity
  8
0
 48
50.0
100
AcDbBlockEnd
  0
BLOCK
  5
17B04
330
17AFA
100
AcDbEntity
  8
0
 48
50.0
100
AcDbBlockBegin
  2
*D13
 70
     1
 10
0.0
 20
0.0
 30
0.0
  3
*D13
  1

  0
LINE
  5
17BF4
330
17AFA
100
AcDbEntity
  8
寸法
 62
     0
 48
50.0
370
    -2
100
AcDbLine
 10
10691.24747343672
 20
5609.577276893862
 30
0.0
 11
10691.24747343672
 21
6337.937939113255
 31
0.0
  0
LINE
  5
17BF5
330
17AFA
100
AcDbEntity
  8
寸法
 62
     0
 48
50.0
370
    -2
100
AcDbLine
 10
9601.247473436721
 20
5664.577276893866
 30
0.0
 11
9601.247473436721
 21
6337.937939113255
 31
0.0
  0
LINE
  5
17BF6
330
17AFA
100
AcDbEntity
  8
寸法
 62
     0
 48
50.0
370
    -2
100
AcDbLine
 10
10691.24747343672
 20
6277.937939113255
 30
0.0
 11
9601.247473436721
 21
6277.937939113255
 31
0.0
  0
INSERT
  5
17BF7
330
17AFA
100
AcDbEntity
  8
寸法
 62
     0
 48
50.0
370
    -2
100
AcDbBlockReference
  2
_DOTSMALL
 10
10691.24747343672
 20
6277.937939113255
 30
0.0
 41
100.0
 42
100.0
 43
100.0
  0
INSERT
  5
17BF8
330
17AFA
100
AcDbEntity
  8
寸法
 62
     0
 48
50.0
370
    -2
100
AcDbBlockReference
  2
_DOTSMALL
 10
9601.247473436721
 20
6277.937939113255
 30
0.0
 41
100.0
 42
100.0
 43
100.0
 50
180.0
  0
MTEXT
  5
17BF9
330
17AFA
100
AcDbEntity
  8
寸法
 62
     7
 48
50.0
100
AcDbMText
 10
10148.16443385108
 20
6377.937939113255
 30
0.0
 40
120.0
 41
0.0
 71
     5
 72
     1
  1
\A1;1090
  7
STYLE1
 73
     1
 44
1.0
1001
ACAD
1000
MTEXTBEGIN
1070
    73
1070
     1
1070
    44
1040
1.0
1070
    74
1070
     0
1000
MTEXTEND
  0
POINT
  5
17BFA
330
17AFA
100
AcDbEntity
  8
DEFPOINTS
 62
     0
 48
50.0
100
AcDbPoint
 10
10691.24747343672
 20
5589.577276893862
 30
0.0
  0
POINT
  5
17BFB
330
17AFA
100
AcDbEntity
  8
DEFPOINTS
 62
     0
 48
50.0
100
AcDbPoint
 10
9601.247473436721
 20
5644.577276893866
 30
0.0
  0
POINT
  5
17BFC
330
17AFA
100
AcDbEntity
  8
DEFPOINTS
 62
     0
 48
50.0
100
AcDbPoint
 10
9601.247473436721
 20
6277.937939113255
 30
0.0
  0
ENDBLK
  5
17B05
330
17AFA
100
AcDbEntity
  8
0
 48
50.0
100
AcDbBlockEnd
  0
BLOCK
  5
17B10
330
17B06
100
AcDbEntity
  8
0
 48
50.0
100
AcDbBlockBegin
  2
*D14
 70
     1
 10
0.0
 20
0.0
 30
0.0
  3
*D14
  1

  0
LINE
  5
17BEB
330
17B06
100
AcDbEntity
  8
寸法
 62
     0
 48
50.0
370
    -2
100
AcDbLine
 10
10611.24747343672
 20
5611.387956505514
 30
0.0
 11
10611.24747343672
 21
6103.234730473165
 31
0.0
  0
LINE
  5
17BEC
330
17B06
100
AcDbEntity
  8
寸法
 62
     0
 48
50.0
370
    -2
100
AcDbLine
 10
9661.247473436722
 20
5660.578895016837
 30
0.0
 11
9661.247473436722
 21
6103.234730473165
 31
0.0
  0
LINE
  5
17BED
330
17B06
100
AcDbEntity
  8
寸法
 62
     0
 48
50.0
370
    -2
100
AcDbLine
 10
10611.24747343672
 20
6043.234730473165
 30
0.0
 11
9661.247473436722
 21
6043.234730473165
 31
0.0
  0
INSERT
  5
17BEE
330
17B06
100
AcDbEntity
  8
寸法
 62
     0
 48
50.0
370
    -2
100
AcDbBlockReference
  2
_DOTSMALL
 10
10611.24747343672
 20
6043.234730473165
 30
0.0
 41
100.0
 42
100.0
 43
100.0
  0
INSERT
  5
17BEF
330
17B06
100
AcDbEntity
  8
寸法
 62
     0
 48
50.0
370
    -2
100
AcDbBlockReference
  2
_DOTSMALL
 10
9661.247473436722
 20
6043.234730473165
 30
0.0
 41
100.0
 42
100.0
 43
100.0
 50
180.0
  0
MTEXT
  5
17BF0
330
17B06
100
AcDbEntity
  8
寸法
 62
     7
 48
50.0
100
AcDbMText
 10
10157.95927566761
 20
6143.234730473165
 30
0.0
 40
120.0
 41
0.0
 71
     5
 72
     1
  1
\A1;柱外寸法950
  7
STYLE1
 73
     1
 44
1.0
1001
ACAD
1000
MTEXTBEGIN
1070
    73
1070
     1
1070
    44
1040
1.0
1070
    74
1070
     0
1000
MTEXTEND
  0
POINT
  5
17BF1
330
17B06
100
AcDbEntity
  8
DEFPOINTS
 62
     0
 48
50.0
100
AcDbPoint
 10
10611.24747343672
 20
5591.387956505514
 30
0.0
  0
POINT
  5
17BF2
330
17B06
100
AcDbEntity
  8
DEFPOINTS
 62
     0
 48
50.0
100
AcDbPoint
 10
9661.247473436722
 20
5640.578895016837
 30
0.0
  0
POINT
  5
17BF3
330
17B06
100
AcDbEntity
  8
DEFPOINTS
 62
     0
 48
50.0
100
AcDbPoint
 10
9661.247473436722
 20
6043.234730473165
 30
0.0
  0
ENDBLK
  5
17B11
330
17B06
100
AcDbEntity
  8
0
 48
50.0
100
AcDbBlockEnd
  0
BLOCK
  5
17B1E
330
17B12
100
AcDbEntity
  8
0
 48
50.0
100
AcDbBlockBegin
  2
*D15
 70
     1
 10
0.0
 20
0.0
 30
0.0
  3
*D15
  1

  0
LINE
  5
17BE0
330
17B12
100
AcDbEntity
  8
寸法
 62
     0
 48
50.0
370
    -2
100
AcDbLine
 10
9661.247473436722
 20
5660.578895016837
 30
0.0
 11
9661.247473436722
 21
6103.234730473165
 31
0.0
  0
LINE
  5
17BE1
330
17B12
100
AcDbEntity
  8
寸法
 62
     0
 48
50.0
370
    -2
100
AcDbLine
 10
9601.247473436721
 20
5664.577276893866
 30
0.0
 11
9601.247473436721
 21
6103.234730473165
 31
0.0
  0
LINE
  5
17BE2
330
17B12
100
AcDbEntity
  8
寸法
 62
     0
 48
50.0
370
    -2
100
AcDbLine
 10
9661.247473436722
 20
6043.234730473165
 30
0.0
 11
9761.247473436721
 21
6043.234730473165
 31
0.0
  0
LINE
  5
17BE3
330
17B12
100
AcDbEntity
  8
寸法
 62
     0
 48
50.0
370
    -2
100
AcDbLine
 10
9601.247473436721
 20
6043.234730473165
 30
0.0
 11
9181.971882885539
 21
6043.234730473165
 31
0.0
  0
LINE
  5
17BE4
330
17B12
100
AcDbEntity
  8
寸法
 62
     0
 48
50.0
370
    -2
100
AcDbLine
 10
9661.247473436722
 20
6043.234730473165
 30
0.0
 11
9601.247473436721
 21
6043.234730473165
 31
0.0
  0
INSERT
  5
17BE5
330
17B12
100
AcDbEntity
  8
寸法
 62
     0
 48
50.0
370
    -2
100
AcDbBlockReference
  2
_DOTSMALL
 10
9661.247473436722
 20
6043.234730473165
 30
0.0
 41
100.0
 42
100.0
 43
100.0
 50
180.0
  0
INSERT
  5
17BE6
330
17B12
100
AcDbEntity
  8
寸法
 62
     0
 48
50.0
370
    -2
100
AcDbBlockReference
  2
_DOTSMALL
 10
9601.247473436721
 20
6043.234730473165
 30
0.0
 41
100.0
 42
100.0
 43
100.0
  0
MTEXT
  5
17BE7
330
17B12
100
AcDbEntity
  8
寸法
 62
     7
 48
50.0
100
AcDbMText
 10
9291.60967816113
 20
6143.234730473165
 30
0.0
 40
120.0
 41
0.0
 71
     5
 72
     1
  1
\A1;60
  7
STYLE1
 73
     1
 44
1.0
1001
ACAD
1000
MTEXTBEGIN
1070
    73
1070
     1
1070
    44
1040
1.0
1070
    74
1070
     0
1000
MTEXTEND
  0
POINT
  5
17BE8
330
17B12
100
AcDbEntity
  8
DEFPOINTS
 62
     0
 48
50.0
100
AcDbPoint
 10
9661.247473436722
 20
5640.578895016837
 30
0.0
  0
POINT
  5
17BE9
330
17B12
100
AcDbEntity
  8
DEFPOINTS
 62
     0
 48
50.0
100
AcDbPoint
 10
9601.247473436721
 20
5644.577276893866
 30
0.0
  0
POINT
  5
17BEA
330
17B12
100
AcDbEntity
  8
DEFPOINTS
 62
     0
 48
50.0
100
AcDbPoint
 10
9601.247473436721
 20
6043.234730473165
 30
0.0
  0
ENDBLK
  5
17B1F
330
17B12
100
AcDbEntity
  8
0
 48
50.0
100
AcDbBlockEnd
  0
BLOCK
  5
17B2B
330
17B20
100
AcDbEntity
  8
0
 48
50.0
100
AcDbBlockBegin
  2
*D16
 70
     1
 10
0.0
 20
0.0
 30
0.0
  3
*D16
  1

  0
LINE
  5
17BD6
330
17B20
100
AcDbEntity
  8
寸法
 62
     0
 48
50.0
370
    -2
100
AcDbLine
 10
9600.651759727824
 20
5643.874983963523
 30
0.0
 11
8984.717320622552
 21
5661.589134237852
 31
0.0
  0
LINE
  5
17BD7
330
17B20
100
AcDbEntity
  8
寸法
 62
     0
 48
50.0
370
    -2
100
AcDbLine
 10
9596.598304171198
 20
5502.93326019781
 30
0.0
 11
8980.663865065926
 21
5520.647410472139
 31
0.0
  0
LINE
  5
17BD8
330
17B20
100
AcDbEntity
  8
寸法
 62
     0
 48
50.0
370
    -2
100
AcDbLine
 10
9040.639066668356
 20
5518.922535767192
 30
0.0
 11
9044.692522224982
 21
5659.864259532905
 31
0.0
  0
LINE
  5
17BD9
330
17B20
100
AcDbEntity
  8
寸法
 62
     0
 48
50.0
370
    -2
100
AcDbLine
 10
9044.692522224982
 20
5659.864259532905
 30
0.0
 11
9055.041770454668
 21
6019.715469147491
 31
0.0
  0
INSERT
  5
17BDA
330
17B20
100
AcDbEntity
  8
寸法
 62
     0
 48
50.0
370
    -2
100
AcDbBlockReference
  2
_DOTSMALL
 10
9040.639066668356
 20
5518.922535767192
 30
0.0
 41
100.0
 42
100.0
 43
100.0
 50
268.3526390256378
  0
INSERT
  5
17BDB
330
17B20
100
AcDbEntity
  8
寸法
 62
     0
 48
50.0
370
    -2
100
AcDbBlockReference
  2
_DOTSMALL
 10
9044.692522224982
 20
5659.864259532905
 30
0.0
 41
100.0
 42
100.0
 43
100.0
 50
88.35263902563776
  0
MTEXT
  5
17BDC
330
17B20
100
AcDbEntity
  8
寸法
 62
     7
 48
50.0
100
AcDbMText
 10
8951.345872589897
 20
5892.643990183803
 30
0.0
 40
120.0
 41
0.0
 71
     5
 72
     1
  1
\A1;141
  7
STYLE1
 11
0.0287479117491237
 21
0.9995866933738488
 31
0.0
 73
     1
 44
1.0
1001
ACAD
1000
MTEXTBEGIN
1070
    73
1070
     1
1070
    44
1040
1.0
1070
    74
1070
     0
1000
MTEXTEND
  0
POINT
  5
17BDD
330
17B20
100
AcDbEntity
  8
DEFPOINTS
 62
     0
 48
50.0
100
AcDbPoint
 10
9620.6434935953
 20
5643.300025728541
 30
0.0
  0
POINT
  5
17BDE
330
17B20
100
AcDbEntity
  8
DEFPOINTS
 62
     0
 48
50.0
100
AcDbPoint
 10
9616.590038038674
 20
5502.358301962827
 30
0.0
  0
POINT
  5
17BDF
330
17B20
100
AcDbEntity
  8
DEFPOINTS
 62
     0
 48
50.0
100
AcDbPoint
 10
9040.639066668356
 20
5518.922535767192
 30
0.0
  0
ENDBLK
  5
17B2C
330
17B20
100
AcDbEntity
  8
0
 48
50.0
100
AcDbBlockEnd
  0
BLOCK
  5
17B37
330
17B2D
100
AcDbEntity
  8
0
 48
50.0
100
AcDbBlockBegin
  2
*D17
 70
     1
 10
0.0
 20
0.0
 30
0.0
  3
*D17
  1

  0
LINE
  5
17BCD
330
17B2D
100
AcDbEntity
  8
寸法
 62
     0
 48
50.0
370
    -2
100
AcDbLine
 10
9641.24747343672
 20
3569.57727689386
 30
0.0
 11
8739.65359528143
 21
3569.577276893861
 31
0.0
  0
LINE
  5
17BCE
330
17B2D
100
AcDbEntity
  8
寸法
 62
     0
 48
50.0
370
    -2
100
AcDbLine
 10
9581.247473436723
 20
5644.577276893866
 30
0.0
 11
8739.653595281431
 21
5644.577276893866
 31
0.0
  0
LINE
  5
17BCF
330
17B2D
100
AcDbEntity
  8
寸法
 62
     0
 48
50.0
370
    -2
100
AcDbLine
 10
8799.65359528143
 20
3569.577276893861
 30
0.0
 11
8799.653595281432
 21
5644.577276893866
 31
0.0
  0
INSERT
  5
17BD0
330
17B2D
100
AcDbEntity
  8
寸法
 62
     0
 48
50.0
370
    -2
100
AcDbBlockReference
  2
_DOTSMALL
 10
8799.65359528143
 20
3569.577276893861
 30
0.0
 41
100.0
 42
100.0
 43
100.0
 50
270.0
  0
INSERT
  5
17BD1
330
17B2D
100
AcDbEntity
  8
寸法
 62
     0
 48
50.0
370
    -2
100
AcDbBlockReference
  2
_DOTSMALL
 10
8799.653595281432
 20
5644.577276893866
 30
0.0
 41
100.0
 42
100.0
 43
100.0
 50
90.0
  0
MTEXT
  5
17BD2
330
17B2D
100
AcDbEntity
  8
寸法
 62
     7
 48
50.0
100
AcDbMText
 10
8699.641784257808
 20
4597.155906173022
 30
0.0
 40
120.0
 41
0.0
 71
     5
 72
     1
  1
\A1;2075
  7
STYLE1
 11
0.0000000000000001
 21
1.0
 31
0.0
 73
     1
 44
1.0
1001
ACAD
1000
MTEXTBEGIN
1070
    73
1070
     1
1070
    44
1040
1.0
1070
    74
1070
     0
1000
MTEXTEND
  0
POINT
  5
17BD3
330
17B2D
100
AcDbEntity
  8
DEFPOINTS
 62
     0
 48
50.0
100
AcDbPoint
 10
9661.247473436722
 20
3569.57727689386
 30
0.0
  0
POINT
  5
17BD4
330
17B2D
100
AcDbEntity
  8
DEFPOINTS
 62
     0
 48
50.0
100
AcDbPoint
 10
9601.247473436725
 20
5644.577276893866
 30
0.0
  0
POINT
  5
17BD5
330
17B2D
100
AcDbEntity
  8
DEFPOINTS
 62
     0
 48
50.0
100
AcDbPoint
 10
8799.653595281432
 20
5644.577276893866
 30
0.0
  0
ENDBLK
  5
17B38
330
17B2D
100
AcDbEntity
  8
0
 48
50.0
100
AcDbBlockEnd
  0
BLOCK
  5
17C47
330
17C45
100
AcDbEntity
  8
0
 48
50.0
100
AcDbBlockBegin
  2
A$C234373F2
 70
     0
 10
0.0
 20
0.0
 30
0.0
  3
A$C234373F2
  1

  0
TEXT
  5
17C46
330
17C45
100
AcDbEntity
  8
文字
 62
     7
 48
50.0
100
AcDbText
 10
-1705.259705948188
 20
-361.7472729270812
 30
0.0
 40
100.0
  1
～一般型・多雪地型～
  7
STYLE2
100
AcDbText
  0
ENDBLK
  5
17C48
330
17C45
100
AcDbEntity
  8
0
 48
50.0
100
AcDbBlockEnd
  0
BLOCK
  5
17DC2
330
17DB8
100
AcDbEntity
  8
0
 48
50.0
100
AcDbBlockBegin
  2
*D19
 70
     1
 10
0.0
 20
0.0
 30
0.0
  3
*D19
  1

  0
LINE
  5
17DFD
330
17DB8
100
AcDbEntity
  8
寸法
 62
     0
 48
50.0
370
    -2
100
AcDbLine
 10
4794.375560876345
 20
4477.077276893864
 30
0.0
 11
4436.271033268744
 21
4477.077276893864
 31
0.0
  0
LINE
  5
17DFE
330
17DB8
100
AcDbEntity
  8
寸法
 62
     0
 48
50.0
370
    -2
100
AcDbLine
 10
4794.375560876345
 20
3631.077276893868
 30
0.0
 11
4436.271033268744
 21
3631.077276893868
 31
0.0
  0
LINE
  5
17DFF
330
17DB8
100
AcDbEntity
  8
寸法
 62
     0
 48
50.0
370
    -2
100
AcDbLine
 10
4496.271033268743
 20
4477.077276893864
 30
0.0
 11
4496.271033268743
 21
3631.077276893868
 31
0.0
  0
INSERT
  5
17E00
330
17DB8
100
AcDbEntity
  8
寸法
 62
     0
 48
50.0
370
    -2
100
AcDbBlockReference
  2
_DOTSMALL
 10
4496.271033268743
 20
4477.077276893864
 30
0.0
 41
100.0
 42
100.0
 43
100.0
 50
90.0
  0
INSERT
  5
17E01
330
17DB8
100
AcDbEntity
  8
寸法
 62
     0
 48
50.0
370
    -2
100
AcDbBlockReference
  2
_DOTSMALL
 10
4496.271033268743
 20
3631.077276893868
 30
0.0
 41
100.0
 42
100.0
 43
100.0
 50
270.0
  0
MTEXT
  5
17E02
330
17DB8
100
AcDbEntity
  8
寸法
 62
     7
 48
50.0
100
AcDbMText
 10
4296.271033268743
 20
4051.077276893866
 30
0.0
 40
120.0
 41
0.0
 71
     5
 72
     1
  1
\A1;有効開口部\P高さ846
  7
STYLE1
 11
0.0000000000000001
 21
1.0
 31
0.0
 73
     1
 44
1.0
1001
ACAD
1000
MTEXTBEGIN
1070
    73
1070
     1
1070
    44
1040
1.0
1070
    74
1070
     0
1000
MTEXTEND
  0
POINT
  5
17E03
330
17DB8
100
AcDbEntity
  8
DEFPOINTS
 62
     0
 48
50.0
100
AcDbPoint
 10
4814.375560876346
 20
4477.077276893864
 30
0.0
  0
POINT
  5
17E04
330
17DB8
100
AcDbEntity
  8
DEFPOINTS
 62
     0
 48
50.0
100
AcDbPoint
 10
4814.375560876346
 20
3631.077276893868
 30
0.0
  0
POINT
  5
17E05
330
17DB8
100
AcDbEntity
  8
DEFPOINTS
 62
     0
 48
50.0
100
AcDbPoint
 10
4496.271033268743
 20
3631.077276893868
 30
0.0
  0
ENDBLK
  5
17DC3
330
17DB8
100
AcDbEntity
  8
0
 48
50.0
100
AcDbBlockEnd
  0
BLOCK
  5
19682
330
19678
100
AcDbEntity
  8
0
 48
50.0
100
AcDbBlockBegin
  2
*D20
 70
     1
 10
0.0
 20
0.0
 30
0.0
  3
*D20
  1

  0
LINE
  5
19679
330
19678
100
AcDbEntity
  8
寸法
 62
     0
 48
50.0
370
    -2
100
AcDbLine
 10
4926.159503665722
 20
5409.577276893861
 30
0.0
 11
3850.589224337615
 21
5409.577276893861
 31
0.0
  0
LINE
  5
1967A
330
19678
100
AcDbEntity
  8
寸法
 62
     0
 48
50.0
370
    -2
100
AcDbLine
 10
5045.322079905862
 20
3569.57727689386
 30
0.0
 11
3850.589224337614
 21
3569.57727689386
 31
0.0
  0
LINE
  5
1967B
330
19678
100
AcDbEntity
  8
寸法
 62
     0
 48
50.0
370
    -2
100
AcDbLine
 10
3910.589224337615
 20
5409.577276893861
 30
0.0
 11
3910.589224337615
 21
3569.57727689386
 31
0.0
  0
INSERT
  5
1967C
330
19678
100
AcDbEntity
  8
寸法
 62
     0
 48
50.0
370
    -2
100
AcDbBlockReference
  2
_DOTSMALL
 10
3910.589224337615
 20
5409.577276893861
 30
0.0
 41
100.0
 42
100.0
 43
100.0
 50
90.0
  0
INSERT
  5
1967D
330
19678
100
AcDbEntity
  8
寸法
 62
     0
 48
50.0
370
    -2
100
AcDbBlockReference
  2
_DOTSMALL
 10
3910.589224337615
 20
3569.57727689386
 30
0.0
 41
100.0
 42
100.0
 43
100.0
 50
270.0
  0
MTEXT
  5
1967E
330
19678
100
AcDbEntity
  8
寸法
 62
     7
 48
50.0
100
AcDbMText
 10
3810.589224337615
 20
4489.577276893861
 30
0.0
 40
120.0
 41
0.0
 71
     5
 72
     1
  1
\A1;1840
  7
STYLE1
 11
0.0000000000000001
 21
1.0
 31
0.0
 73
     1
 44
1.0
1001
ACAD
1000
MTEXTBEGIN
1070
    73
1070
     1
1070
    44
1040
1.0
1070
    74
1070
     0
1000
MTEXTEND
  0
POINT
  5
1967F
330
19678
100
AcDbEntity
  8
DEFPOINTS
 62
     0
 48
50.0
100
AcDbPoint
 10
4946.159503665723
 20
5409.577276893861
 30
0.0
  0
POINT
  5
19680
330
19678
100
AcDbEntity
  8
DEFPOINTS
 62
     0
 48
50.0
100
AcDbPoint
 10
5065.322079905861
 20
3569.57727689386
 30
0.0
  0
POINT
  5
19681
330
19678
100
AcDbEntity
  8
DEFPOINTS
 62
     0
 48
50.0
100
AcDbPoint
 10
3910.589224337615
 20
3569.57727689386
 30
0.0
  0
ENDBLK
  5
19683
330
19678
100
AcDbEntity
  8
0
 48
50.0
100
AcDbBlockEnd
  0
BLOCK
  5
196AE
330
196A9
100
AcDbEntity
  8
0
 48
50.0
100
AcDbBlockBegin
  2
A$C77305D78
 70
     0
 10
0.0
 20
0.0
 30
0.0
  3
A$C77305D78
  1

  0
TEXT
  5
196AA
330
196A9
100
AcDbEntity
  8
文字
 62
     7
 48
50.0
100
AcDbText
 10
121.5774736644744
 20
370.4137458837286
 30
0.0
 40
100.0
  1
11
  7
STYLE1
100
AcDbText
  0
TEXT
  5
196AB
330
196A9
100
AcDbEntity
  8
文字
 62
     7
 48
50.0
100
AcDbText
 10
121.5774736644744
 20
200.4137458837286
 30
0.0
 40
100.0
  1
12
  7
STYLE1
100
AcDbText
  0
TEXT
  5
196AC
330
196A9
100
AcDbEntity
  8
文字
 62
     7
 48
50.0
100
AcDbText
 10
121.5774736644744
 20
30.41374588372856
 30
0.0
 40
100.0
  1
13
  7
STYLE1
100
AcDbText
  0
TEXT
  5
196AD
330
196A9
100
AcDbEntity
  8
文字
 62
     7
 48
50.0
100
AcDbText
 10
121.5774736644744
 20
-139.5862541162714
 30
0.0
 40
100.0
  1
14
  7
STYLE1
100
AcDbText
  0
ENDBLK
  5
196AF
330
196A9
100
AcDbEntity
  8
0
 48
50.0
100
AcDbBlockEnd
  0
BLOCK
  5
1996D
330
19963
100
AcDbEntity
  8
0
 48
50.0
100
AcDbBlockBegin
  2
*D22
 70
     1
 10
0.0
 20
0.0
 30
0.0
  3
*D22
  1

  0
LINE
  5
19B9A
330
19963
100
AcDbEntity
  8
寸法
 62
     0
 48
50.0
370
    -2
100
AcDbLine
 10
6509.37556087636
 20
8340.766456979658
 30
0.0
 11
6509.37556087636
 21
7860.942789184581
 31
0.0
  0
LINE
  5
19B9B
330
19963
100
AcDbEntity
  8
寸法
 62
     0
 48
50.0
370
    -2
100
AcDbLine
 10
7194.375560876356
 20
8340.76645697962
 30
0.0
 11
7194.375560876356
 21
7860.942789184581
 31
0.0
  0
LINE
  5
19B9C
330
19963
100
AcDbEntity
  8
寸法
 62
     0
 48
50.0
370
    -2
100
AcDbLine
 10
6509.37556087636
 20
7920.94278918458
 30
0.0
 11
7194.375560876356
 21
7920.94278918458
 31
0.0
  0
INSERT
  5
19B9D
330
19963
100
AcDbEntity
  8
寸法
 62
     0
 48
50.0
370
    -2
100
AcDbBlockReference
  2
_DOTSMALL
 10
6509.37556087636
 20
7920.94278918458
 30
0.0
 41
100.0
 42
100.0
 43
100.0
 50
180.0
  0
INSERT
  5
19B9E
330
19963
100
AcDbEntity
  8
寸法
 62
     0
 48
50.0
370
    -2
100
AcDbBlockReference
  2
_DOTSMALL
 10
7194.375560876356
 20
7920.94278918458
 30
0.0
 41
100.0
 42
100.0
 43
100.0
  0
MTEXT
  5
19B9F
330
19963
100
AcDbEntity
  8
寸法
 62
     7
 48
50.0
100
AcDbMText
 10
6851.875560876358
 20
8120.94278918458
 30
0.0
 40
120.0
 41
0.0
 71
     5
 72
     1
  1
\A1;有効開口部間口\P685
  7
STYLE1
 73
     1
 44
1.0
1001
ACAD
1000
MTEXTBEGIN
1070
    73
1070
     1
1070
    44
1040
1.0
1070
    74
1070
     0
1000
MTEXTEND
  0
POINT
  5
19BA0
330
19963
100
AcDbEntity
  8
DEFPOINTS
 62
     0
 48
50.0
100
AcDbPoint
 10
6509.37556087636
 20
8360.766456979659
 30
0.0
  0
POINT
  5
19BA1
330
19963
100
AcDbEntity
  8
DEFPOINTS
 62
     0
 48
50.0
100
AcDbPoint
 10
7194.375560876356
 20
8360.766456979622
 30
0.0
  0
POINT
  5
19BA2
330
19963
100
AcDbEntity
  8
DEFPOINTS
 62
     0
 48
50.0
100
AcDbPoint
 10
7194.375560876356
 20
7920.94278918458
 30
0.0
  0
ENDBLK
  5
1996E
330
19963
100
AcDbEntity
  8
0
 48
50.0
100
AcDbBlockEnd
  0
BLOCK
  5
19979
330
1996F
100
AcDbEntity
  8
0
 48
50.0
100
AcDbBlockBegin
  2
*D23
 70
     1
 10
0.0
 20
0.0
 30
0.0
  3
*D23
  1

  0
LINE
  5
19B91
330
1996F
100
AcDbEntity
  8
寸法
 62
     0
 48
50.0
370
    -2
100
AcDbLine
 10
4869.375560876363
 20
9330.766456979693
 30
0.0
 11
4869.375560876363
 21
9586.574676604763
 31
0.0
  0
LINE
  5
19B92
330
1996F
100
AcDbEntity
  8
寸法
 62
     0
 48
50.0
370
    -2
100
AcDbLine
 10
5579.375560876362
 20
9330.766456979782
 30
0.0
 11
5579.375560876362
 21
9586.574676604763
 31
0.0
  0
LINE
  5
19B93
330
1996F
100
AcDbEntity
  8
寸法
 62
     0
 48
50.0
370
    -2
100
AcDbLine
 10
4869.375560876363
 20
9526.574676604763
 30
0.0
 11
5579.375560876362
 21
9526.574676604763
 31
0.0
  0
INSERT
  5
19B94
330
1996F
100
AcDbEntity
  8
寸法
 62
     0
 48
50.0
370
    -2
100
AcDbBlockReference
  2
_DOTSMALL
 10
4869.375560876363
 20
9526.574676604763
 30
0.0
 41
100.0
 42
100.0
 43
100.0
 50
180.0
  0
INSERT
  5
19B95
330
1996F
100
AcDbEntity
  8
寸法
 62
     0
 48
50.0
370
    -2
100
AcDbBlockReference
  2
_DOTSMALL
 10
5579.375560876362
 20
9526.574676604763
 30
0.0
 41
100.0
 42
100.0
 43
100.0
  0
MTEXT
  5
19B96
330
1996F
100
AcDbEntity
  8
寸法
 62
     7
 48
50.0
100
AcDbMText
 10
5224.625560876362
 20
9626.574676604764
 30
0.0
 40
120.0
 41
0.0
 71
     5
 72
     1
  1
\A1;710
  7
STYLE1
 73
     1
 44
1.0
1001
ACAD
1000
MTEXTBEGIN
1070
    73
1070
     1
1070
    44
1040
1.0
1070
    74
1070
     0
1000
MTEXTEND
  0
POINT
  5
19B97
330
1996F
100
AcDbEntity
  8
DEFPOINTS
 62
     0
 48
50.0
100
AcDbPoint
 10
4869.375560876363
 20
9310.766456979694
 30
0.0
  0
POINT
  5
19B98
330
1996F
100
AcDbEntity
  8
DEFPOINTS
 62
     0
 48
50.0
100
AcDbPoint
 10
5579.375560876362
 20
9310.766456979783
 30
0.0
  0
POINT
  5
19B99
330
1996F
100
AcDbEntity
  8
DEFPOINTS
 62
     0
 48
50.0
100
AcDbPoint
 10
5579.375560876362
 20
9526.574676604763
 30
0.0
  0
ENDBLK
  5
1997A
330
1996F
100
AcDbEntity
  8
0
 48
50.0
100
AcDbBlockEnd
  0
BLOCK
  5
19987
330
1997B
100
AcDbEntity
  8
0
 48
50.0
100
AcDbBlockBegin
  2
*D24
 70
     1
 10
0.0
 20
0.0
 30
0.0
  3
*D24
  1

  0
LINE
  5
19B86
330
1997B
100
AcDbEntity
  8
寸法
 62
     0
 48
50.0
370
    -2
100
AcDbLine
 10
4814.375560876328
 20
9330.766456979665
 30
0.0
 11
4814.375560876328
 21
9586.574676604646
 31
0.0
  0
LINE
  5
19B87
330
1997B
100
AcDbEntity
  8
寸法
 62
     0
 48
50.0
370
    -2
100
AcDbLine
 10
4869.375560876363
 20
9330.766456979665
 30
0.0
 11
4869.375560876363
 21
9586.574676604646
 31
0.0
  0
LINE
  5
19B88
330
1997B
100
AcDbEntity
  8
寸法
 62
     0
 48
50.0
370
    -2
100
AcDbLine
 10
4869.375560876363
 20
9526.574676604647
 30
0.0
 11
4969.375560876364
 21
9526.574676604647
 31
0.0
  0
LINE
  5
19B89
330
1997B
100
AcDbEntity
  8
寸法
 62
     0
 48
50.0
370
    -2
100
AcDbLine
 10
4814.375560876328
 20
9526.574676604647
 30
0.0
 11
4397.40499812785
 21
9526.574676604647
 31
0.0
  0
LINE
  5
19B8A
330
1997B
100
AcDbEntity
  8
寸法
 62
     0
 48
50.0
370
    -2
100
AcDbLine
 10
4869.375560876363
 20
9526.574676604647
 30
0.0
 11
4814.375560876328
 21
9526.574676604647
 31
0.0
  0
INSERT
  5
19B8B
330
1997B
100
AcDbEntity
  8
寸法
 62
     0
 48
50.0
370
    -2
100
AcDbBlockReference
  2
_DOTSMALL
 10
4869.375560876363
 20
9526.574676604647
 30
0.0
 41
100.0
 42
100.0
 43
100.0
 50
180.0
  0
INSERT
  5
19B8C
330
1997B
100
AcDbEntity
  8
寸法
 62
     0
 48
50.0
370
    -2
100
AcDbBlockReference
  2
_DOTSMALL
 10
4814.375560876328
 20
9526.574676604647
 30
0.0
 41
100.0
 42
100.0
 43
100.0
  0
MTEXT
  5
19B8D
330
1997B
100
AcDbEntity
  8
寸法
 62
     7
 48
50.0
100
AcDbMText
 10
4505.890279502089
 20
9626.574676604647
 30
0.0
 40
120.0
 41
0.0
 71
     5
 72
     1
  1
\A1;55
  7
STYLE1
 73
     1
 44
1.0
1001
ACAD
1000
MTEXTBEGIN
1070
    73
1070
     1
1070
    44
1040
1.0
1070
    74
1070
     0
1000
MTEXTEND
  0
POINT
  5
19B8E
330
1997B
100
AcDbEntity
  8
DEFPOINTS
 62
     0
 48
50.0
100
AcDbPoint
 10
4814.375560876328
 20
9310.766456979665
 30
0.0
  0
POINT
  5
19B8F
330
1997B
100
AcDbEntity
  8
DEFPOINTS
 62
     0
 48
50.0
100
AcDbPoint
 10
4869.375560876363
 20
9310.766456979665
 30
0.0
  0
POINT
  5
19B90
330
1997B
100
AcDbEntity
  8
DEFPOINTS
 62
     0
 48
50.0
100
AcDbPoint
 10
4869.375560876363
 20
9526.574676604647
 30
0.0
  0
ENDBLK
  5
19988
330
1997B
100
AcDbEntity
  8
0
 48
50.0
100
AcDbBlockEnd
  0
BLOCK
  5
19993
330
19989
100
AcDbEntity
  8
0
 48
50.0
100
AcDbBlockBegin
  2
*D25
 70
     1
 10
0.0
 20
0.0
 30
0.0
  3
*D25
  1

  0
LINE
  5
19B7D
330
19989
100
AcDbEntity
  8
寸法
 62
     0
 48
50.0
370
    -2
100
AcDbLine
 10
5689.375560876364
 20
9330.766456979693
 30
0.0
 11
5689.375560876364
 21
9586.574676604763
 31
0.0
  0
LINE
  5
19B7E
330
19989
100
AcDbEntity
  8
寸法
 62
     0
 48
50.0
370
    -2
100
AcDbLine
 10
6399.375560876362
 20
9330.766456979782
 30
0.0
 11
6399.375560876362
 21
9586.574676604763
 31
0.0
  0
LINE
  5
19B7F
330
19989
100
AcDbEntity
  8
寸法
 62
     0
 48
50.0
370
    -2
100
AcDbLine
 10
5689.375560876364
 20
9526.574676604763
 30
0.0
 11
6399.375560876362
 21
9526.574676604763
 31
0.0
  0
INSERT
  5
19B80
330
19989
100
AcDbEntity
  8
寸法
 62
     0
 48
50.0
370
    -2
100
AcDbBlockReference
  2
_DOTSMALL
 10
5689.375560876364
 20
9526.574676604763
 30
0.0
 41
100.0
 42
100.0
 43
100.0
 50
180.0
  0
INSERT
  5
19B81
330
19989
100
AcDbEntity
  8
寸法
 62
     0
 48
50.0
370
    -2
100
AcDbBlockReference
  2
_DOTSMALL
 10
6399.375560876362
 20
9526.574676604763
 30
0.0
 41
100.0
 42
100.0
 43
100.0
  0
MTEXT
  5
19B82
330
19989
100
AcDbEntity
  8
寸法
 62
     7
 48
50.0
100
AcDbMText
 10
6044.625560876362
 20
9626.574676604764
 30
0.0
 40
120.0
 41
0.0
 71
     5
 72
     1
  1
\A1;710
  7
STYLE1
 73
     1
 44
1.0
1001
ACAD
1000
MTEXTBEGIN
1070
    73
1070
     1
1070
    44
1040
1.0
1070
    74
1070
     0
1000
MTEXTEND
  0
POINT
  5
19B83
330
19989
100
AcDbEntity
  8
DEFPOINTS
 62
     0
 48
50.0
100
AcDbPoint
 10
5689.375560876364
 20
9310.766456979694
 30
0.0
  0
POINT
  5
19B84
330
19989
100
AcDbEntity
  8
DEFPOINTS
 62
     0
 48
50.0
100
AcDbPoint
 10
6399.375560876362
 20
9310.766456979783
 30
0.0
  0
POINT
  5
19B85
330
19989
100
AcDbEntity
  8
DEFPOINTS
 62
     0
 48
50.0
100
AcDbPoint
 10
6399.375560876362
 20
9526.574676604763
 30
0.0
  0
ENDBLK
  5
19994
330
19989
100
AcDbEntity
  8
0
 48
50.0
100
AcDbBlockEnd
  0
BLOCK
  5
199A1
330
19995
100
AcDbEntity
  8
0
 48
50.0
100
AcDbBlockBegin
  2
*D26
 70
     1
 10
0.0
 20
0.0
 30
0.0
  3
*D26
  1

  0
LINE
  5
19B72
330
19995
100
AcDbEntity
  8
寸法
 62
     0
 48
50.0
370
    -2
100
AcDbLine
 10
7219.375560876364
 20
9330.766456979759
 30
0.0
 11
7219.375560876364
 21
9586.574676604742
 31
0.0
  0
LINE
  5
19B73
330
19995
100
AcDbEntity
  8
寸法
 62
     0
 48
50.0
370
    -2
100
AcDbLine
 10
7274.375560876364
 20
9330.766456979759
 30
0.0
 11
7274.375560876364
 21
9586.574676604742
 31
0.0
  0
LINE
  5
19B74
330
19995
100
AcDbEntity
  8
寸法
 62
     0
 48
50.0
370
    -2
100
AcDbLine
 10
7219.375560876364
 20
9526.574676604742
 30
0.0
 11
7119.375560876363
 21
9526.574676604742
 31
0.0
  0
LINE
  5
19B75
330
19995
100
AcDbEntity
  8
寸法
 62
     0
 48
50.0
370
    -2
100
AcDbLine
 10
7274.375560876364
 20
9526.574676604742
 30
0.0
 11
7691.346123624841
 21
9526.574676604742
 31
0.0
  0
LINE
  5
19B76
330
19995
100
AcDbEntity
  8
寸法
 62
     0
 48
50.0
370
    -2
100
AcDbLine
 10
7219.375560876364
 20
9526.574676604742
 30
0.0
 11
7274.375560876364
 21
9526.574676604742
 31
0.0
  0
INSERT
  5
19B77
330
19995
100
AcDbEntity
  8
寸法
 62
     0
 48
50.0
370
    -2
100
AcDbBlockReference
  2
_DOTSMALL
 10
7219.375560876364
 20
9526.574676604742
 30
0.0
 41
100.0
 42
100.0
 43
100.0
  0
INSERT
  5
19B78
330
19995
100
AcDbEntity
  8
寸法
 62
     0
 48
50.0
370
    -2
100
AcDbBlockReference
  2
_DOTSMALL
 10
7274.375560876364
 20
9526.574676604742
 30
0.0
 41
100.0
 42
100.0
 43
100.0
 50
180.0
  0
MTEXT
  5
19B79
330
19995
100
AcDbEntity
  8
寸法
 62
     7
 48
50.0
100
AcDbMText
 10
7582.860842250602
 20
9626.574676604741
 30
0.0
 40
120.0
 41
0.0
 71
     5
 72
     1
  1
\A1;55
  7
STYLE1
 73
     1
 44
1.0
1001
ACAD
1000
MTEXTBEGIN
1070
    73
1070
     1
1070
    44
1040
1.0
1070
    74
1070
     0
1000
MTEXTEND
  0
POINT
  5
19B7A
330
19995
100
AcDbEntity
  8
DEFPOINTS
 62
     0
 48
50.0
100
AcDbPoint
 10
7219.375560876364
 20
9310.766456979761
 30
0.0
  0
POINT
  5
19B7B
330
19995
100
AcDbEntity
  8
DEFPOINTS
 62
     0
 48
50.0
100
AcDbPoint
 10
7274.375560876364
 20
9310.766456979761
 30
0.0
  0
POINT
  5
19B7C
330
19995
100
AcDbEntity
  8
DEFPOINTS
 62
     0
 48
50.0
100
AcDbPoint
 10
7274.375560876364
 20
9526.574676604742
 30
0.0
  0
ENDBLK
  5
199A2
330
19995
100
AcDbEntity
  8
0
 48
50.0
100
AcDbBlockEnd
  0
BLOCK
  5
199AF
330
199A3
100
AcDbEntity
  8
0
 48
50.0
100
AcDbBlockBegin
  2
*D27
 70
     1
 10
0.0
 20
0.0
 30
0.0
  3
*D27
  1

  0
LINE
  5
19B67
330
199A3
100
AcDbEntity
  8
寸法
 62
     0
 48
50.0
370
    -2
100
AcDbLine
 10
7294.375560876364
 20
9310.766456979761
 30
0.0
 11
7981.801906610775
 21
9310.766456979761
 31
0.0
  0
LINE
  5
19B68
330
199A3
100
AcDbEntity
  8
寸法
 62
     0
 48
50.0
370
    -2
100
AcDbLine
 10
7294.375560876364
 20
9255.76645697976
 30
0.0
 11
7981.801906610775
 21
9255.76645697976
 31
0.0
  0
LINE
  5
19B69
330
199A3
100
AcDbEntity
  8
寸法
 62
     0
 48
50.0
370
    -2
100
AcDbLine
 10
7921.801906610774
 20
9255.76645697976
 30
0.0
 11
7921.801906610774
 21
9155.76645697976
 31
0.0
  0
LINE
  5
19B6A
330
199A3
100
AcDbEntity
  8
寸法
 62
     0
 48
50.0
370
    -2
100
AcDbLine
 10
7921.801906610774
 20
9310.766456979761
 30
0.0
 11
7921.801906610774
 21
9727.737019728238
 31
0.0
  0
LINE
  5
19B6B
330
199A3
100
AcDbEntity
  8
寸法
 62
     0
 48
50.0
370
    -2
100
AcDbLine
 10
7921.801906610774
 20
9255.76645697976
 30
0.0
 11
7921.801906610774
 21
9310.766456979761
 31
0.0
  0
INSERT
  5
19B6C
330
199A3
100
AcDbEntity
  8
寸法
 62
     0
 48
50.0
370
    -2
100
AcDbBlockReference
  2
_DOTSMALL
 10
7921.801906610774
 20
9255.76645697976
 30
0.0
 41
100.0
 42
100.0
 43
100.0
 50
90.0
  0
INSERT
  5
19B6D
330
199A3
100
AcDbEntity
  8
寸法
 62
     0
 48
50.0
370
    -2
100
AcDbBlockReference
  2
_DOTSMALL
 10
7921.801906610774
 20
9310.766456979761
 30
0.0
 41
100.0
 42
100.0
 43
100.0
 50
270.0
  0
MTEXT
  5
19B6E
330
199A3
100
AcDbEntity
  8
寸法
 62
     7
 48
50.0
100
AcDbMText
 10
7821.801906610774
 20
9619.251738354002
 30
0.0
 40
120.0
 41
0.0
 71
     5
 72
     1
  1
\A1;55
  7
STYLE1
 11
0.0000000000000001
 21
1.0
 31
0.0
 73
     1
 44
1.0
1001
ACAD
1000
MTEXTBEGIN
1070
    73
1070
     1
1070
    44
1040
1.0
1070
    74
1070
     0
1000
MTEXTEND
  0
POINT
  5
19B6F
330
199A3
100
AcDbEntity
  8
DEFPOINTS
 62
     0
 48
50.0
100
AcDbPoint
 10
7274.375560876364
 20
9310.766456979761
 30
0.0
  0
POINT
  5
19B70
330
199A3
100
AcDbEntity
  8
DEFPOINTS
 62
     0
 48
50.0
100
AcDbPoint
 10
7274.375560876364
 20
9255.76645697976
 30
0.0
  0
POINT
  5
19B71
330
199A3
100
AcDbEntity
  8
DEFPOINTS
 62
     0
 48
50.0
100
AcDbPoint
 10
7921.801906610774
 20
9255.76645697976
 30
0.0
  0
ENDBLK
  5
199B0
330
199A3
100
AcDbEntity
  8
0
 48
50.0
100
AcDbBlockEnd
  0
BLOCK
  5
199BD
330
199B1
100
AcDbEntity
  8
0
 48
50.0
100
AcDbBlockBegin
  2
*D28
 70
     1
 10
0.0
 20
0.0
 30
0.0
  3
*D28
  1

  0
LINE
  5
19B5C
330
199B1
100
AcDbEntity
  8
寸法
 62
     0
 48
50.0
370
    -2
100
AcDbLine
 10
6399.375560876362
 20
9330.766456979782
 30
0.0
 11
6399.375560876362
 21
9586.574676604763
 31
0.0
  0
LINE
  5
19B5D
330
199B1
100
AcDbEntity
  8
寸法
 62
     0
 48
50.0
370
    -2
100
AcDbLine
 10
6509.375560876366
 20
9330.766456979759
 30
0.0
 11
6509.375560876366
 21
9586.574676604763
 31
0.0
  0
LINE
  5
19B5E
330
199B1
100
AcDbEntity
  8
寸法
 62
     0
 48
50.0
370
    -2
100
AcDbLine
 10
6399.375560876362
 20
9526.574676604763
 30
0.0
 11
6299.375560876362
 21
9526.574676604763
 31
0.0
  0
LINE
  5
19B5F
330
199B1
100
AcDbEntity
  8
寸法
 62
     0
 48
50.0
370
    -2
100
AcDbLine
 10
6509.375560876366
 20
9526.574676604763
 30
0.0
 11
6609.375560876365
 21
9526.574676604763
 31
0.0
  0
LINE
  5
19B60
330
199B1
100
AcDbEntity
  8
寸法
 62
     0
 48
50.0
370
    -2
100
AcDbLine
 10
6399.375560876362
 20
9526.574676604763
 30
0.0
 11
6509.375560876366
 21
9526.574676604763
 31
0.0
  0
INSERT
  5
19B61
330
199B1
100
AcDbEntity
  8
寸法
 62
     0
 48
50.0
370
    -2
100
AcDbBlockReference
  2
_DOTSMALL
 10
6399.375560876362
 20
9526.574676604763
 30
0.0
 41
100.0
 42
100.0
 43
100.0
  0
INSERT
  5
19B62
330
199B1
100
AcDbEntity
  8
寸法
 62
     0
 48
50.0
370
    -2
100
AcDbBlockReference
  2
_DOTSMALL
 10
6509.375560876366
 20
9526.574676604763
 30
0.0
 41
100.0
 42
100.0
 43
100.0
 50
180.0
  0
MTEXT
  5
19B63
330
199B1
100
AcDbEntity
  8
寸法
 62
     7
 48
50.0
100
AcDbMText
 10
6454.375560876364
 20
9626.574676604764
 30
0.0
 40
120.0
 41
0.0
 71
     5
 72
     1
  1
\A1;110
  7
STYLE1
 73
     1
 44
1.0
1001
ACAD
1000
MTEXTBEGIN
1070
    73
1070
     1
1070
    44
1040
1.0
1070
    74
1070
     0
1000
MTEXTEND
  0
POINT
  5
19B64
330
199B1
100
AcDbEntity
  8
DEFPOINTS
 62
     0
 48
50.0
100
AcDbPoint
 10
6399.375560876362
 20
9310.766456979783
 30
0.0
  0
POINT
  5
19B65
330
199B1
100
AcDbEntity
  8
DEFPOINTS
 62
     0
 48
50.0
100
AcDbPoint
 10
6509.375560876366
 20
9310.766456979761
 30
0.0
  0
POINT
  5
19B66
330
199B1
100
AcDbEntity
  8
DEFPOINTS
 62
     0
 48
50.0
100
AcDbPoint
 10
6509.375560876366
 20
9526.574676604763
 30
0.0
  0
ENDBLK
  5
199BE
330
199B1
100
AcDbEntity
  8
0
 48
50.0
100
AcDbBlockEnd
  0
BLOCK
  5
199C9
330
199BF
100
AcDbEntity
  8
0
 48
50.0
100
AcDbBlockBegin
  2
*D29
 70
     1
 10
0.0
 20
0.0
 30
0.0
  3
*D29
  1

  0
LINE
  5
19B53
330
199BF
100
AcDbEntity
  8
寸法
 62
     0
 48
50.0
370
    -2
100
AcDbLine
 10
7219.375560876364
 20
9330.766456979775
 30
0.0
 11
7219.375560876364
 21
9586.574676604763
 31
0.0
  0
LINE
  5
19B54
330
199BF
100
AcDbEntity
  8
寸法
 62
     0
 48
50.0
370
    -2
100
AcDbLine
 10
6509.375560876366
 20
9330.766456979759
 30
0.0
 11
6509.375560876366
 21
9586.574676604763
 31
0.0
  0
LINE
  5
19B55
330
199BF
100
AcDbEntity
  8
寸法
 62
     0
 48
50.0
370
    -2
100
AcDbLine
 10
7219.375560876364
 20
9526.574676604763
 30
0.0
 11
6509.375560876366
 21
9526.574676604763
 31
0.0
  0
INSERT
  5
19B56
330
199BF
100
AcDbEntity
  8
寸法
 62
     0
 48
50.0
370
    -2
100
AcDbBlockReference
  2
_DOTSMALL
 10
7219.375560876364
 20
9526.574676604763
 30
0.0
 41
100.0
 42
100.0
 43
100.0
  0
INSERT
  5
19B57
330
199BF
100
AcDbEntity
  8
寸法
 62
     0
 48
50.0
370
    -2
100
AcDbBlockReference
  2
_DOTSMALL
 10
6509.375560876366
 20
9526.574676604763
 30
0.0
 41
100.0
 42
100.0
 43
100.0
 50
180.0
  0
MTEXT
  5
19B58
330
199BF
100
AcDbEntity
  8
寸法
 62
     7
 48
50.0
100
AcDbMText
 10
6864.375560876365
 20
9626.574676604764
 30
0.0
 40
120.0
 41
0.0
 71
     5
 72
     1
  1
\A1;710
  7
STYLE1
 73
     1
 44
1.0
1001
ACAD
1000
MTEXTBEGIN
1070
    73
1070
     1
1070
    44
1040
1.0
1070
    74
1070
     0
1000
MTEXTEND
  0
POINT
  5
19B59
330
199BF
100
AcDbEntity
  8
DEFPOINTS
 62
     0
 48
50.0
100
AcDbPoint
 10
7219.375560876364
 20
9310.766456979775
 30
0.0
  0
POINT
  5
19B5A
330
199BF
100
AcDbEntity
  8
DEFPOINTS
 62
     0
 48
50.0
100
AcDbPoint
 10
6509.375560876366
 20
9310.766456979761
 30
0.0
  0
POINT
  5
19B5B
330
199BF
100
AcDbEntity
  8
DEFPOINTS
 62
     0
 48
50.0
100
AcDbPoint
 10
6509.375560876366
 20
9526.574676604763
 30
0.0
  0
ENDBLK
  5
199CA
330
199BF
100
AcDbEntity
  8
0
 48
50.0
100
AcDbBlockEnd
  0
BLOCK
  5
199D7
330
199CB
100
AcDbEntity
  8
0
 48
50.0
100
AcDbBlockBegin
  2
*D30
 70
     1
 10
0.0
 20
0.0
 30
0.0
  3
*D30
  1

  0
LINE
  5
19B48
330
199CB
100
AcDbEntity
  8
寸法
 62
     0
 48
50.0
370
    -2
100
AcDbLine
 10
5579.375560876362
 20
9330.766456979782
 30
0.0
 11
5579.375560876362
 21
9586.574676604763
 31
0.0
  0
LINE
  5
19B49
330
199CB
100
AcDbEntity
  8
寸法
 62
     0
 48
50.0
370
    -2
100
AcDbLine
 10
5689.375560876366
 20
9330.766456979759
 30
0.0
 11
5689.375560876366
 21
9586.574676604763
 31
0.0
  0
LINE
  5
19B4A
330
199CB
100
AcDbEntity
  8
寸法
 62
     0
 48
50.0
370
    -2
100
AcDbLine
 10
5579.375560876362
 20
9526.574676604763
 30
0.0
 11
5479.375560876363
 21
9526.574676604763
 31
0.0
  0
LINE
  5
19B4B
330
199CB
100
AcDbEntity
  8
寸法
 62
     0
 48
50.0
370
    -2
100
AcDbLine
 10
5689.375560876366
 20
9526.574676604763
 30
0.0
 11
5789.375560876366
 21
9526.574676604763
 31
0.0
  0
LINE
  5
19B4C
330
199CB
100
AcDbEntity
  8
寸法
 62
     0
 48
50.0
370
    -2
100
AcDbLine
 10
5579.375560876362
 20
9526.574676604763
 30
0.0
 11
5689.375560876366
 21
9526.574676604763
 31
0.0
  0
INSERT
  5
19B4D
330
199CB
100
AcDbEntity
  8
寸法
 62
     0
 48
50.0
370
    -2
100
AcDbBlockReference
  2
_DOTSMALL
 10
5579.375560876362
 20
9526.574676604763
 30
0.0
 41
100.0
 42
100.0
 43
100.0
  0
INSERT
  5
19B4E
330
199CB
100
AcDbEntity
  8
寸法
 62
     0
 48
50.0
370
    -2
100
AcDbBlockReference
  2
_DOTSMALL
 10
5689.375560876366
 20
9526.574676604763
 30
0.0
 41
100.0
 42
100.0
 43
100.0
 50
180.0
  0
MTEXT
  5
19B4F
330
199CB
100
AcDbEntity
  8
寸法
 62
     7
 48
50.0
100
AcDbMText
 10
5634.375560876364
 20
9626.574676604764
 30
0.0
 40
120.0
 41
0.0
 71
     5
 72
     1
  1
\A1;110
  7
STYLE1
 73
     1
 44
1.0
1001
ACAD
1000
MTEXTBEGIN
1070
    73
1070
     1
1070
    44
1040
1.0
1070
    74
1070
     0
1000
MTEXTEND
  0
POINT
  5
19B50
330
199CB
100
AcDbEntity
  8
DEFPOINTS
 62
     0
 48
50.0
100
AcDbPoint
 10
5579.375560876362
 20
9310.766456979783
 30
0.0
  0
POINT
  5
19B51
330
199CB
100
AcDbEntity
  8
DEFPOINTS
 62
     0
 48
50.0
100
AcDbPoint
 10
5689.375560876366
 20
9310.766456979761
 30
0.0
  0
POINT
  5
19B52
330
199CB
100
AcDbEntity
  8
DEFPOINTS
 62
     0
 48
50.0
100
AcDbPoint
 10
5689.375560876366
 20
9526.574676604763
 30
0.0
  0
ENDBLK
  5
199D8
330
199CB
100
AcDbEntity
  8
0
 48
50.0
100
AcDbBlockEnd
  0
BLOCK
  5
199E5
330
199D9
100
AcDbEntity
  8
0
 48
50.0
100
AcDbBlockBegin
  2
*D31
 70
     1
 10
0.0
 20
0.0
 30
0.0
  3
*D31
  1

  0
LINE
  5
19B3D
330
199D9
100
AcDbEntity
  8
寸法
 62
     0
 48
50.0
370
    -2
100
AcDbLine
 10
7294.375560876338
 20
8415.766456979746
 30
0.0
 11
7981.801906610749
 21
8415.766456979746
 31
0.0
  0
LINE
  5
19B3E
330
199D9
100
AcDbEntity
  8
寸法
 62
     0
 48
50.0
370
    -2
100
AcDbLine
 10
7294.375560876338
 20
8360.766456979744
 30
0.0
 11
7981.801906610749
 21
8360.766456979744
 31
0.0
  0
LINE
  5
19B3F
330
199D9
100
AcDbEntity
  8
寸法
 62
     0
 48
50.0
370
    -2
100
AcDbLine
 10
7921.801906610749
 20
8415.766456979746
 30
0.0
 11
7921.801906610749
 21
8515.766456979745
 31
0.0
  0
LINE
  5
19B40
330
199D9
100
AcDbEntity
  8
寸法
 62
     0
 48
50.0
370
    -2
100
AcDbLine
 10
7921.801906610749
 20
8360.766456979744
 30
0.0
 11
7921.801906610749
 21
7874.419708700647
 31
0.0
  0
LINE
  5
19B41
330
199D9
100
AcDbEntity
  8
寸法
 62
     0
 48
50.0
370
    -2
100
AcDbLine
 10
7921.801906610749
 20
8415.766456979746
 30
0.0
 11
7921.801906610749
 21
8360.766456979744
 31
0.0
  0
INSERT
  5
19B42
330
199D9
100
AcDbEntity
  8
寸法
 62
     0
 48
50.0
370
    -2
100
AcDbBlockReference
  2
_DOTSMALL
 10
7921.801906610749
 20
8415.766456979746
 30
0.0
 41
100.0
 42
100.0
 43
100.0
 50
270.0
  0
INSERT
  5
19B43
330
199D9
100
AcDbEntity
  8
寸法
 62
     0
 48
50.0
370
    -2
100
AcDbBlockReference
  2
_DOTSMALL
 10
7921.801906610749
 20
8360.766456979744
 30
0.0
 41
100.0
 42
100.0
 43
100.0
 50
90.0
  0
MTEXT
  5
19B44
330
199D9
100
AcDbEntity
  8
寸法
 62
     7
 48
50.0
100
AcDbMText
 10
7821.801906610748
 20
7982.904990074887
 30
0.0
 40
120.0
 41
0.0
 71
     5
 72
     1
  1
\A1;55
  7
STYLE1
 11
0.0000000000000001
 21
1.0
 31
0.0
 73
     1
 44
1.0
1001
ACAD
1000
MTEXTBEGIN
1070
    73
1070
     1
1070
    44
1040
1.0
1070
    74
1070
     0
1000
MTEXTEND
  0
POINT
  5
19B45
330
199D9
100
AcDbEntity
  8
DEFPOINTS
 62
     0
 48
50.0
100
AcDbPoint
 10
7274.37556087634
 20
8415.766456979746
 30
0.0
  0
POINT
  5
19B46
330
199D9
100
AcDbEntity
  8
DEFPOINTS
 62
     0
 48
50.0
100
AcDbPoint
 10
7274.37556087634
 20
8360.766456979744
 30
0.0
  0
POINT
  5
19B47
330
199D9
100
AcDbEntity
  8
DEFPOINTS
 62
     0
 48
50.0
100
AcDbPoint
 10
7921.801906610749
 20
8360.766456979744
 30
0.0
  0
ENDBLK
  5
199E6
330
199D9
100
AcDbEntity
  8
0
 48
50.0
100
AcDbBlockEnd
  0
BLOCK
  5
199F1
330
199E7
100
AcDbEntity
  8
0
 48
50.0
100
AcDbBlockBegin
  2
*D32
 70
     1
 10
0.0
 20
0.0
 30
0.0
  3
*D32
  1

  0
LINE
  5
19B34
330
199E7
100
AcDbEntity
  8
寸法
 62
     0
 48
50.0
370
    -2
100
AcDbLine
 10
7294.375560876364
 20
9255.76645697976
 30
0.0
 11
7981.801906610775
 21
9255.76645697976
 31
0.0
  0
LINE
  5
19B35
330
199E7
100
AcDbEntity
  8
寸法
 62
     0
 48
50.0
370
    -2
100
AcDbLine
 10
7294.375560876338
 20
8415.766456979746
 30
0.0
 11
7981.801906610775
 21
8415.766456979746
 31
0.0
  0
LINE
  5
19B36
330
199E7
100
AcDbEntity
  8
寸法
 62
     0
 48
50.0
370
    -2
100
AcDbLine
 10
7921.801906610774
 20
9255.76645697976
 30
0.0
 11
7921.801906610774
 21
8415.766456979746
 31
0.0
  0
INSERT
  5
19B37
330
199E7
100
AcDbEntity
  8
寸法
 62
     0
 48
50.0
370
    -2
100
AcDbBlockReference
  2
_DOTSMALL
 10
7921.801906610774
 20
9255.76645697976
 30
0.0
 41
100.0
 42
100.0
 43
100.0
 50
90.0
  0
INSERT
  5
19B38
330
199E7
100
AcDbEntity
  8
寸法
 62
     0
 48
50.0
370
    -2
100
AcDbBlockReference
  2
_DOTSMALL
 10
7921.801906610774
 20
8415.766456979746
 30
0.0
 41
100.0
 42
100.0
 43
100.0
 50
270.0
  0
MTEXT
  5
19B39
330
199E7
100
AcDbEntity
  8
寸法
 62
     7
 48
50.0
100
AcDbMText
 10
7821.790095587151
 20
8835.766456979754
 30
0.0
 40
120.0
 41
0.0
 71
     5
 72
     1
  1
\A1;2X420=840
  7
STYLE1
 11
0.0000000000000001
 21
1.0
 31
0.0
 73
     1
 44
1.0
1001
ACAD
1000
MTEXTBEGIN
1070
    73
1070
     1
1070
    44
1040
1.0
1070
    74
1070
     0
1000
MTEXTEND
  0
POINT
  5
19B3A
330
199E7
100
AcDbEntity
  8
DEFPOINTS
 62
     0
 48
50.0
100
AcDbPoint
 10
7274.375560876364
 20
9255.76645697976
 30
0.0
  0
POINT
  5
19B3B
330
199E7
100
AcDbEntity
  8
DEFPOINTS
 62
     0
 48
50.0
100
AcDbPoint
 10
7274.37556087634
 20
8415.766456979746
 30
0.0
  0
POINT
  5
19B3C
330
199E7
100
AcDbEntity
  8
DEFPOINTS
 62
     0
 48
50.0
100
AcDbPoint
 10
7921.801906610774
 20
8415.766456979746
 30
0.0
  0
ENDBLK
  5
199F2
330
199E7
100
AcDbEntity
  8
0
 48
50.0
100
AcDbBlockEnd
  0
BLOCK
  5
199FD
330
199F3
100
AcDbEntity
  8
0
 48
50.0
100
AcDbBlockBegin
  2
*D33
 70
     1
 10
0.0
 20
0.0
 30
0.0
  3
*D33
  1

  0
LINE
  5
19B2B
330
199F3
100
AcDbEntity
  8
寸法
 62
     0
 48
50.0
370
    -2
100
AcDbLine
 10
7294.375560876364
 20
9310.766456979761
 30
0.0
 11
8290.913437426452
 21
9310.766456979761
 31
0.0
  0
LINE
  5
19B2C
330
199F3
100
AcDbEntity
  8
寸法
 62
     0
 48
50.0
370
    -2
100
AcDbLine
 10
7294.375560876338
 20
8360.766456979744
 30
0.0
 11
8290.913437426452
 21
8360.766456979744
 31
0.0
  0
LINE
  5
19B2D
330
199F3
100
AcDbEntity
  8
寸法
 62
     0
 48
50.0
370
    -2
100
AcDbLine
 10
8230.913437426453
 20
9310.766456979761
 30
0.0
 11
8230.913437426453
 21
8360.766456979744
 31
0.0
  0
INSERT
  5
19B2E
330
199F3
100
AcDbEntity
  8
寸法
 62
     0
 48
50.0
370
    -2
100
AcDbBlockReference
  2
_DOTSMALL
 10
8230.913437426453
 20
9310.766456979761
 30
0.0
 41
100.0
 42
100.0
 43
100.0
 50
90.0
  0
INSERT
  5
19B2F
330
199F3
100
AcDbEntity
  8
寸法
 62
     0
 48
50.0
370
    -2
100
AcDbBlockReference
  2
_DOTSMALL
 10
8230.913437426453
 20
8360.766456979744
 30
0.0
 41
100.0
 42
100.0
 43
100.0
 50
270.0
  0
MTEXT
  5
19B30
330
199F3
100
AcDbEntity
  8
寸法
 62
     7
 48
50.0
100
AcDbMText
 10
8130.913437426452
 20
8834.744175538665
 30
0.0
 40
120.0
 41
0.0
 71
     5
 72
     1
  1
\A1;950
  7
STYLE1
 11
0.0000000000000001
 21
1.0
 31
0.0
 73
     1
 44
1.0
1001
ACAD
1000
MTEXTBEGIN
1070
    73
1070
     1
1070
    44
1040
1.0
1070
    74
1070
     0
1000
MTEXTEND
  0
POINT
  5
19B31
330
199F3
100
AcDbEntity
  8
DEFPOINTS
 62
     0
 48
50.0
100
AcDbPoint
 10
7274.375560876364
 20
9310.766456979761
 30
0.0
  0
POINT
  5
19B32
330
199F3
100
AcDbEntity
  8
DEFPOINTS
 62
     0
 48
50.0
100
AcDbPoint
 10
7274.37556087634
 20
8360.766456979744
 30
0.0
  0
POINT
  5
19B33
330
199F3
100
AcDbEntity
  8
DEFPOINTS
 62
     0
 48
50.0
100
AcDbPoint
 10
8230.913437426453
 20
8360.766456979744
 30
0.0
  0
ENDBLK
  5
199FE
330
199F3
100
AcDbEntity
  8
0
 48
50.0
100
AcDbBlockEnd
  0
BLOCK
  5
19A09
330
199FF
100
AcDbEntity
  8
0
 48
50.0
100
AcDbBlockBegin
  2
*D34
 70
     1
 10
0.0
 20
0.0
 30
0.0
  3
*D34
  1

  0
LINE
  5
19B22
330
199FF
100
AcDbEntity
  8
寸法
 62
     0
 48
50.0
370
    -2
100
AcDbLine
 10
6478.516577027673
 20
8811.266456979714
 30
0.0
 11
6409.105113036449
 21
8552.219346736729
 31
0.0
  0
LINE
  5
19B23
330
199FF
100
AcDbEntity
  8
寸法
 62
     0
 48
50.0
370
    -2
100
AcDbLine
 10
7239.516577027686
 20
8811.266456979709
 30
0.0
 11
7170.105113036462
 21
8552.219346736729
 31
0.0
  0
LINE
  5
19B24
330
199FF
100
AcDbEntity
  8
寸法
 62
     0
 48
50.0
370
    -2
100
AcDbLine
 10
6425.182064582317
 20
8612.219346736729
 30
0.0
 11
7186.18206458233
 21
8612.219346736729
 31
0.0
  0
INSERT
  5
19B25
330
199FF
100
AcDbEntity
  8
寸法
 62
     0
 48
50.0
370
    -2
100
AcDbBlockReference
  2
_DOTSMALL
 10
6425.182064582317
 20
8612.219346736729
 30
0.0
 41
100.0
 42
100.0
 43
100.0
 50
180.0
  0
INSERT
  5
19B26
330
199FF
100
AcDbEntity
  8
寸法
 62
     0
 48
50.0
370
    -2
100
AcDbBlockReference
  2
_DOTSMALL
 10
7186.18206458233
 20
8612.219346736729
 30
0.0
 41
100.0
 42
100.0
 43
100.0
  0
MTEXT
  5
19B27
330
199FF
100
AcDbEntity
  8
寸法
 62
     7
 48
50.0
100
AcDbMText
 10
6863.222622994564
 20
8712.219346736729
 30
0.0
 40
120.0
 41
0.0
 71
     5
 72
     1
  1
\A1;761
  7
STYLE1
 73
     1
 44
1.0
1001
ACAD
1000
MTEXTBEGIN
1070
    73
1070
     1
1070
    44
1040
1.0
1070
    74
1070
     0
1000
MTEXTEND
  0
POINT
  5
19B28
330
199FF
100
AcDbEntity
  8
DEFPOINTS
 62
     0
 48
50.0
100
AcDbPoint
 10
6483.875560876296
 20
8831.266456979712
 30
0.0
  0
POINT
  5
19B29
330
199FF
100
AcDbEntity
  8
DEFPOINTS
 62
     0
 48
50.0
100
AcDbPoint
 10
7244.875560876308
 20
8831.26645697971
 30
0.0
  0
POINT
  5
19B2A
330
199FF
100
AcDbEntity
  8
DEFPOINTS
 62
     0
 48
50.0
100
AcDbPoint
 10
7186.18206458233
 20
8612.219346736729
 30
0.0
  0
ENDBLK
  5
19A0A
330
199FF
100
AcDbEntity
  8
0
 48
50.0
100
AcDbBlockEnd
  0
BLOCK
  5
19A15
330
19A0B
100
AcDbEntity
  8
0
 48
50.0
100
AcDbBlockBegin
  2
*D35
 70
     1
 10
0.0
 20
0.0
 30
0.0
  3
*D35
  1

  0
LINE
  5
19B19
330
19A0B
100
AcDbEntity
  8
寸法
 62
     0
 48
50.0
370
    -2
100
AcDbLine
 10
7264.875560876297
 20
9275.907473131082
 30
0.0
 11
7660.233286738321
 21
9169.971689764949
 31
0.0
  0
LINE
  5
19B1A
330
19A0B
100
AcDbEntity
  8
寸法
 62
     0
 48
50.0
370
    -2
100
AcDbLine
 10
7264.875560876297
 20
8825.907473131083
 30
0.0
 11
7660.233286738321
 21
8719.97168976495
 31
0.0
  0
LINE
  5
19B1B
330
19A0B
100
AcDbEntity
  8
寸法
 62
     0
 48
50.0
370
    -2
100
AcDbLine
 10
7600.233286738322
 20
9186.048641310817
 30
0.0
 11
7600.233286738322
 21
8736.048641310816
 31
0.0
  0
INSERT
  5
19B1C
330
19A0B
100
AcDbEntity
  8
寸法
 62
     0
 48
50.0
370
    -2
100
AcDbBlockReference
  2
_DOTSMALL
 10
7600.233286738322
 20
9186.048641310817
 30
0.0
 41
100.0
 42
100.0
 43
100.0
 50
90.0
  0
INSERT
  5
19B1D
330
19A0B
100
AcDbEntity
  8
寸法
 62
     0
 48
50.0
370
    -2
100
AcDbBlockReference
  2
_DOTSMALL
 10
7600.233286738322
 20
8736.048641310816
 30
0.0
 41
100.0
 42
100.0
 43
100.0
 50
270.0
  0
MTEXT
  5
19B1E
330
19A0B
100
AcDbEntity
  8
寸法
 62
     7
 48
50.0
100
AcDbMText
 10
7500.23328673832
 20
8961.048641310817
 30
0.0
 40
120.0
 41
0.0
 71
     5
 72
     1
  1
\A1;450
  7
STYLE1
 11
0.0000000000000001
 21
1.0
 31
0.0
 73
     1
 44
1.0
1001
ACAD
1000
MTEXTBEGIN
1070
    73
1070
     1
1070
    44
1040
1.0
1070
    74
1070
     0
1000
MTEXTEND
  0
POINT
  5
19B1F
330
19A0B
100
AcDbEntity
  8
DEFPOINTS
 62
     0
 48
50.0
100
AcDbPoint
 10
7244.875560876296
 20
9281.266456979706
 30
0.0
  0
POINT
  5
19B20
330
19A0B
100
AcDbEntity
  8
DEFPOINTS
 62
     0
 48
50.0
100
AcDbPoint
 10
7244.875560876296
 20
8831.266456979705
 30
0.0
  0
POINT
  5
19B21
330
19A0B
100
AcDbEntity
  8
DEFPOINTS
 62
     0
 48
50.0
100
AcDbPoint
 10
7600.233286738322
 20
8736.048641310816
 30
0.0
  0
ENDBLK
  5
19A16
330
19A0B
100
AcDbEntity
  8
0
 48
50.0
100
AcDbBlockEnd
  0
BLOCK
  5
19A21
330
19A17
100
AcDbEntity
  8
0
 48
50.0
100
AcDbBlockBegin
  2
*D36
 70
     1
 10
0.0
 20
0.0
 30
0.0
  3
*D36
  1

  0
LINE
  5
19B10
330
19A17
100
AcDbEntity
  8
寸法
 62
     0
 48
50.0
370
    -2
100
AcDbLine
 10
5689.37556087636
 20
8340.766456979658
 30
0.0
 11
5689.37556087636
 21
7860.942789184581
 31
0.0
  0
LINE
  5
19B11
330
19A17
100
AcDbEntity
  8
寸法
 62
     0
 48
50.0
370
    -2
100
AcDbLine
 10
6374.375560876355
 20
8340.76645697962
 30
0.0
 11
6374.375560876355
 21
7860.942789184581
 31
0.0
  0
LINE
  5
19B12
330
19A17
100
AcDbEntity
  8
寸法
 62
     0
 48
50.0
370
    -2
100
AcDbLine
 10
5689.37556087636
 20
7920.94278918458
 30
0.0
 11
6374.375560876355
 21
7920.94278918458
 31
0.0
  0
INSERT
  5
19B13
330
19A17
100
AcDbEntity
  8
寸法
 62
     0
 48
50.0
370
    -2
100
AcDbBlockReference
  2
_DOTSMALL
 10
5689.37556087636
 20
7920.94278918458
 30
0.0
 41
100.0
 42
100.0
 43
100.0
 50
180.0
  0
INSERT
  5
19B14
330
19A17
100
AcDbEntity
  8
寸法
 62
     0
 48
50.0
370
    -2
100
AcDbBlockReference
  2
_DOTSMALL
 10
6374.375560876355
 20
7920.94278918458
 30
0.0
 41
100.0
 42
100.0
 43
100.0
  0
MTEXT
  5
19B15
330
19A17
100
AcDbEntity
  8
寸法
 62
     7
 48
50.0
100
AcDbMText
 10
6031.875560876359
 20
8020.94278918458
 30
0.0
 40
120.0
 41
0.0
 71
     5
 72
     1
  1
\A1;685
  7
STYLE1
 73
     1
 44
1.0
1001
ACAD
1000
MTEXTBEGIN
1070
    73
1070
     1
1070
    44
1040
1.0
1070
    74
1070
     0
1000
MTEXTEND
  0
POINT
  5
19B16
330
19A17
100
AcDbEntity
  8
DEFPOINTS
 62
     0
 48
50.0
100
AcDbPoint
 10
5689.37556087636
 20
8360.766456979659
 30
0.0
  0
POINT
  5
19B17
330
19A17
100
AcDbEntity
  8
DEFPOINTS
 62
     0
 48
50.0
100
AcDbPoint
 10
6374.375560876355
 20
8360.766456979622
 30
0.0
  0
POINT
  5
19B18
330
19A17
100
AcDbEntity
  8
DEFPOINTS
 62
     0
 48
50.0
100
AcDbPoint
 10
6374.375560876355
 20
7920.94278918458
 30
0.0
  0
ENDBLK
  5
19A22
330
19A17
100
AcDbEntity
  8
0
 48
50.0
100
AcDbBlockEnd
  0
BLOCK
  5
19A2D
330
19A23
100
AcDbEntity
  8
0
 48
50.0
100
AcDbBlockBegin
  2
*D37
 70
     1
 10
0.0
 20
0.0
 30
0.0
  3
*D37
  1

  0
LINE
  5
19B07
330
19A23
100
AcDbEntity
  8
寸法
 62
     0
 48
50.0
370
    -2
100
AcDbLine
 10
4869.37556087636
 20
8340.766456979658
 30
0.0
 11
4869.37556087636
 21
7860.942789184581
 31
0.0
  0
LINE
  5
19B08
330
19A23
100
AcDbEntity
  8
寸法
 62
     0
 48
50.0
370
    -2
100
AcDbLine
 10
5554.375560876356
 20
8340.76645697962
 30
0.0
 11
5554.375560876356
 21
7860.942789184581
 31
0.0
  0
LINE
  5
19B09
330
19A23
100
AcDbEntity
  8
寸法
 62
     0
 48
50.0
370
    -2
100
AcDbLine
 10
4869.37556087636
 20
7920.94278918458
 30
0.0
 11
5554.375560876356
 21
7920.94278918458
 31
0.0
  0
INSERT
  5
19B0A
330
19A23
100
AcDbEntity
  8
寸法
 62
     0
 48
50.0
370
    -2
100
AcDbBlockReference
  2
_DOTSMALL
 10
4869.37556087636
 20
7920.94278918458
 30
0.0
 41
100.0
 42
100.0
 43
100.0
 50
180.0
  0
INSERT
  5
19B0B
330
19A23
100
AcDbEntity
  8
寸法
 62
     0
 48
50.0
370
    -2
100
AcDbBlockReference
  2
_DOTSMALL
 10
5554.375560876356
 20
7920.94278918458
 30
0.0
 41
100.0
 42
100.0
 43
100.0
  0
MTEXT
  5
19B0C
330
19A23
100
AcDbEntity
  8
寸法
 62
     7
 48
50.0
100
AcDbMText
 10
5211.875560876358
 20
8020.94278918458
 30
0.0
 40
120.0
 41
0.0
 71
     5
 72
     1
  1
\A1;685
  7
STYLE1
 73
     1
 44
1.0
1001
ACAD
1000
MTEXTBEGIN
1070
    73
1070
     1
1070
    44
1040
1.0
1070
    74
1070
     0
1000
MTEXTEND
  0
POINT
  5
19B0D
330
19A23
100
AcDbEntity
  8
DEFPOINTS
 62
     0
 48
50.0
100
AcDbPoint
 10
4869.37556087636
 20
8360.766456979659
 30
0.0
  0
POINT
  5
19B0E
330
19A23
100
AcDbEntity
  8
DEFPOINTS
 62
     0
 48
50.0
100
AcDbPoint
 10
5554.375560876356
 20
8360.766456979622
 30
0.0
  0
POINT
  5
19B0F
330
19A23
100
AcDbEntity
  8
DEFPOINTS
 62
     0
 48
50.0
100
AcDbPoint
 10
5554.375560876356
 20
7920.94278918458
 30
0.0
  0
ENDBLK
  5
19A2E
330
19A23
100
AcDbEntity
  8
0
 48
50.0
100
AcDbBlockEnd
  0
BLOCK
  5
19A39
330
19A2F
100
AcDbEntity
  8
0
 48
50.0
100
AcDbBlockBegin
  2
*D38
 70
     1
 10
0.0
 20
0.0
 30
0.0
  3
*D38
  1

  0
LINE
  5
19AFE
330
19A2F
100
AcDbEntity
  8
寸法
 62
     0
 48
50.0
370
    -2
100
AcDbLine
 10
5658.516577027674
 20
8811.266456979714
 30
0.0
 11
5589.105113036449
 21
8552.219346736729
 31
0.0
  0
LINE
  5
19AFF
330
19A2F
100
AcDbEntity
  8
寸法
 62
     0
 48
50.0
370
    -2
100
AcDbLine
 10
6419.516577027685
 20
8811.266456979709
 30
0.0
 11
6350.105113036462
 21
8552.219346736729
 31
0.0
  0
LINE
  5
19B00
330
19A2F
100
AcDbEntity
  8
寸法
 62
     0
 48
50.0
370
    -2
100
AcDbLine
 10
5605.182064582317
 20
8612.219346736729
 30
0.0
 11
6366.18206458233
 21
8612.219346736729
 31
0.0
  0
INSERT
  5
19B01
330
19A2F
100
AcDbEntity
  8
寸法
 62
     0
 48
50.0
370
    -2
100
AcDbBlockReference
  2
_DOTSMALL
 10
5605.182064582317
 20
8612.219346736729
 30
0.0
 41
100.0
 42
100.0
 43
100.0
 50
180.0
  0
INSERT
  5
19B02
330
19A2F
100
AcDbEntity
  8
寸法
 62
     0
 48
50.0
370
    -2
100
AcDbBlockReference
  2
_DOTSMALL
 10
6366.18206458233
 20
8612.219346736729
 30
0.0
 41
100.0
 42
100.0
 43
100.0
  0
MTEXT
  5
19B03
330
19A2F
100
AcDbEntity
  8
寸法
 62
     7
 48
50.0
100
AcDbMText
 10
6043.222622994565
 20
8712.219346736729
 30
0.0
 40
120.0
 41
0.0
 71
     5
 72
     1
  1
\A1;761
  7
STYLE1
 73
     1
 44
1.0
1001
ACAD
1000
MTEXTBEGIN
1070
    73
1070
     1
1070
    44
1040
1.0
1070
    74
1070
     0
1000
MTEXTEND
  0
POINT
  5
19B04
330
19A2F
100
AcDbEntity
  8
DEFPOINTS
 62
     0
 48
50.0
100
AcDbPoint
 10
5663.875560876295
 20
8831.266456979712
 30
0.0
  0
POINT
  5
19B05
330
19A2F
100
AcDbEntity
  8
DEFPOINTS
 62
     0
 48
50.0
100
AcDbPoint
 10
6424.875560876308
 20
8831.26645697971
 30
0.0
  0
POINT
  5
19B06
330
19A2F
100
AcDbEntity
  8
DEFPOINTS
 62
     0
 48
50.0
100
AcDbPoint
 10
6366.18206458233
 20
8612.219346736729
 30
0.0
  0
ENDBLK
  5
19A3A
330
19A2F
100
AcDbEntity
  8
0
 48
50.0
100
AcDbBlockEnd
  0
BLOCK
  5
19A45
330
19A3B
100
AcDbEntity
  8
0
 48
50.0
100
AcDbBlockBegin
  2
*D39
 70
     1
 10
0.0
 20
0.0
 30
0.0
  3
*D39
  1

  0
LINE
  5
19AF5
330
19A3B
100
AcDbEntity
  8
寸法
 62
     0
 48
50.0
370
    -2
100
AcDbLine
 10
4838.516577027673
 20
8811.266456979714
 30
0.0
 11
4769.105113036449
 21
8552.219346736729
 31
0.0
  0
LINE
  5
19AF6
330
19A3B
100
AcDbEntity
  8
寸法
 62
     0
 48
50.0
370
    -2
100
AcDbLine
 10
5599.516577027685
 20
8811.266456979709
 30
0.0
 11
5530.105113036462
 21
8552.219346736729
 31
0.0
  0
LINE
  5
19AF7
330
19A3B
100
AcDbEntity
  8
寸法
 62
     0
 48
50.0
370
    -2
100
AcDbLine
 10
4785.182064582317
 20
8612.219346736729
 30
0.0
 11
5546.18206458233
 21
8612.219346736729
 31
0.0
  0
INSERT
  5
19AF8
330
19A3B
100
AcDbEntity
  8
寸法
 62
     0
 48
50.0
370
    -2
100
AcDbBlockReference
  2
_DOTSMALL
 10
4785.182064582317
 20
8612.219346736729
 30
0.0
 41
100.0
 42
100.0
 43
100.0
 50
180.0
  0
INSERT
  5
19AF9
330
19A3B
100
AcDbEntity
  8
寸法
 62
     0
 48
50.0
370
    -2
100
AcDbBlockReference
  2
_DOTSMALL
 10
5546.18206458233
 20
8612.219346736729
 30
0.0
 41
100.0
 42
100.0
 43
100.0
  0
MTEXT
  5
19AFA
330
19A3B
100
AcDbEntity
  8
寸法
 62
     7
 48
50.0
100
AcDbMText
 10
5223.222622994565
 20
8712.219346736729
 30
0.0
 40
120.0
 41
0.0
 71
     5
 72
     1
  1
\A1;761
  7
STYLE1
 73
     1
 44
1.0
1001
ACAD
1000
MTEXTBEGIN
1070
    73
1070
     1
1070
    44
1040
1.0
1070
    74
1070
     0
1000
MTEXTEND
  0
POINT
  5
19AFB
330
19A3B
100
AcDbEntity
  8
DEFPOINTS
 62
     0
 48
50.0
100
AcDbPoint
 10
4843.875560876296
 20
8831.266456979712
 30
0.0
  0
POINT
  5
19AFC
330
19A3B
100
AcDbEntity
  8
DEFPOINTS
 62
     0
 48
50.0
100
AcDbPoint
 10
5604.875560876308
 20
8831.26645697971
 30
0.0
  0
POINT
  5
19AFD
330
19A3B
100
AcDbEntity
  8
DEFPOINTS
 62
     0
 48
50.0
100
AcDbPoint
 10
5546.18206458233
 20
8612.219346736729
 30
0.0
  0
ENDBLK
  5
19A46
330
19A3B
100
AcDbEntity
  8
0
 48
50.0
100
AcDbBlockEnd
  0
ENDSEC
  0
SECTION
  2
ENTITIES
  0
LINE
  5
10B56
330
747D
100
AcDbEntity
  8
補助
  6
PHANTOM
 62
   230
 48
50.0
100
AcDbLine
 10
140.0
 20
0.0
 30
0.0
 11
139.9999999999995
 21
11409.6
 31
0.0
  0
LINE
  5
10B57
330
747D
100
AcDbEntity
  8
補助
  6
PHANTOM
 62
   230
 48
50.0
100
AcDbLine
 10
139.9999999999995
 20
11409.6
 30
0.0
 11
16307.2
 21
11409.6
 31
0.0
  0
LINE
  5
10B59
330
747D
100
AcDbEntity
  8
仕様書枠
  6
Continuous
 48
50.0
100
AcDbLine
 10
13107.2
 20
1200.0
 30
0.0
 11
13107.2
 21
-0.0000000000000729
 31
0.0
  0
LINE
  5
10B5C
330
747D
100
AcDbEntity
  8
仕様書枠
 48
50.0
100
AcDbLine
 10
16307.2
 20
1200.0
 30
0.0
 11
16307.2
 21
-0.0000000000000909
 31
0.0
  0
LINE
  5
10B5D
330
747D
100
AcDbEntity
  8
仕様書枠
 48
50.0
100
AcDbLine
 10
140.0
 20
0.0
 30
0.0
 11
16307.2
 21
-0.0000000000000909
 31
0.0
  0
LINE
  5
10B5E
330
747D
100
AcDbEntity
  8
補助
  6
PHANTOM
 62
   230
 48
50.0
100
AcDbLine
 10
16307.2
 20
11409.6
 30
0.0
 11
16307.2
 21
1200.0
 31
0.0
  0
LINE
  5
10B6C
330
747D
100
AcDbEntity
  8
仕様書枠
 48
50.0
100
AcDbLine
 10
13107.2
 20
1200.0
 30
0.0
 11
16307.2
 21
1200.0
 31
0.0
  0
LINE
  5
10B6D
330
747D
100
AcDbEntity
  8
補助
  6
PHANTOM
 62
   230
 48
50.0
100
AcDbLine
 10
13107.2
 20
11409.6
 30
0.0
 11
13107.2
 21
4800.0
 31
0.0
  0
LINE
  5
10B6F
330
747D
100
AcDbEntity
  8
補助
  6
PHANTOM
 62
   230
 48
50.0
100
AcDbLine
 10
13107.2
 20
4800.0
 30
0.0
 11
16307.2
 21
4800.0
 31
0.0
  0
LINE
  5
10B72
330
747D
100
AcDbEntity
  8
文字
 62
     7
 48
50.0
100
AcDbLine
 10
13187.2
 20
400.0
 30
0.0
 11
16227.2
 21
400.0
 31
0.0
  0
TEXT
  5
10B73
330
747D
100
AcDbEntity
  8
文字
 62
     7
 48
50.0
100
AcDbText
 10
13162.9790565769
 20
895.0906074299405
 30
0.0
 40
200.0
  1
外 形 図
  7
STYLE2
100
AcDbText
  0
TEXT
  5
10B74
330
747D
100
AcDbEntity
  8
文字
 62
     7
 48
50.0
100
AcDbText
 10
13201.43669998441
 20
477.2740661031255
 30
0.0
 40
160.0
  1
機種名
  7
STYLE2
100
AcDbText
  0
TEXT
  5
10B75
330
747D
100
AcDbEntity
  8
文字
 62
     7
 48
50.0
100
AcDbText
 10
13209.4053442172
 20
228.5435242569016
 30
0.0
 40
100.0
  1
○有効開口寸法 ： 685×846(mm)
  7
STYLE2
100
AcDbText
  0
TEXT
  5
10B76
330
747D
100
AcDbEntity
  8
文字
 62
     7
 48
50.0
100
AcDbText
 10
13209.4053442172
 20
76.09434707649343
 30
0.0
 40
100.0
  1
○床面積 ： 2.34㎡(0.71坪) 　
  7
STYLE2
100
AcDbText
  0
TEXT
  5
10B79
330
747D
100
AcDbEntity
  8
文字
 62
     7
 48
50.0
100
AcDbText
 10
14524.131837222
 20
1031.557706291228
 30
0.0
 40
100.0
  1
NO.02     <縮尺> S=1/40
  7
STYLE2
100
AcDbText
  0
LINE
  5
10B7B
330
747D
100
AcDbEntity
  8
仕様書枠
 48
50.0
100
AcDbLine
 10
13107.2
 20
800.0
 30
0.0
 11
14251.2
 21
800.0
 31
0.0
  0
LINE
  5
10B88
330
747D
100
AcDbEntity
  8
仕様書枠
  6
Continuous
 48
50.0
100
AcDbLine
 10
14251.2
 20
1200.0
 30
0.0
 11
14251.2
 21
800.0
 31
0.0
  0
TEXT
  5
10EA8
330
747D
100
AcDbEntity
  8
文字
 62
     7
 48
50.0
100
AcDbText
 10
14251.2
 20
838.2527270729188
 30
0.0
 40
100.0
  1
～一般型・多雪地型・豪雪地型～
  7
STYLE2
100
AcDbText
  0
LINE
  5
13A41
330
747D
100
AcDbEntity
  8
Ｇ．Ｌ
100
AcDbLine
 10
3156.344589559129
 20
3469.57727689386
 30
0.0
 11
11483.32853394827
 21
3469.577276893861
 31
0.0
  0
TEXT
  5
13A63
330
747D
100
AcDbEntity
  8
部品1
100
AcDbText
 10
3323.934398713754
 20
3505.684180499762
 30
0.0
 40
125.0
  1
▽G.L
  7
STYLE2
100
AcDbText
  0
TEXT
  5
14E82
330
747D
100
AcDbEntity
  8
部品1
100
AcDbText
 10
5759.758227934426
 20
6830.294238961444
 30
0.0
 40
135.0
  1
平面図
  7
STYLE2
100
AcDbText
  0
LWPOLYLINE
  5
14E83
330
747D
100
AcDbEntity
  8
部品1
100
AcDbPolyline
 90
        4
 70
     1
 43
0.0
 10
5669.838618105388
 20
7023.18776817997
 10
5669.838618105388
 20
6783.295446634435
 10
6433.309284333829
 20
6783.295446634435
 10
6433.309284333829
 20
7023.18776817997
  0
DIMENSION
  5
1567B
330
747D
100
AcDbEntity
  8
寸法
100
AcDbDimension
  2
*D1
 10
7274.37556087634
 20
7373.664582119542
 30
0.0
 11
6044.375560876347
 21
7373.664582119542
 31
0.0
 70
   160
 71
     5
 42
2459.999999999982
  3
INABA_S40G
100
AcDbAlignedDimension
 13
4814.375560876356
 23
8360.766456979614
 33
0.0
 14
7274.37556087634
 24
8360.766456979744
 34
0.0
100
AcDbRotatedDimension
1001
ACAD
1000
DSTYLE
1002
{
1002
}
  0
LINE
  5
1571D
330
747D
100
AcDbEntity
  8
部品1
100
AcDbLine
 10
6411.37556087634
 20
5409.577276893861
 30
0.0
 11
6411.37556087634
 21
4523.077276893871
 31
0.0
  0
LINE
  5
1571E
330
747D
100
AcDbEntity
  8
部品1
100
AcDbLine
 10
6409.375560876338
 20
5407.07727689386
 30
0.0
 11
6409.37556087634
 21
4530.07727689388
 31
0.0
  0
LINE
  5
1571F
330
747D
100
AcDbEntity
  8
部品1
100
AcDbLine
 10
5679.375560876338
 20
5407.077276893859
 30
0.0
 11
5679.375560876338
 21
4530.077276893873
 31
0.0
  0
LINE
  5
15720
330
747D
100
AcDbEntity
  8
部品1
100
AcDbLine
 10
5677.375560876339
 20
5409.577276893861
 30
0.0
 11
5677.375560876342
 21
4523.077276893865
 31
0.0
  0
LINE
  5
15721
330
747D
100
AcDbEntity
  8
部品1
100
AcDbLine
 10
4859.37556087634
 20
5407.077276893862
 30
0.0
 11
4859.37556087634
 21
4530.077276893865
 31
0.0
  0
LINE
  5
15722
330
747D
100
AcDbEntity
  8
部品1
100
AcDbLine
 10
7231.37556087634
 20
5409.577276893861
 30
0.0
 11
7231.375560876339
 21
4523.077276893874
 31
0.0
  0
LINE
  5
15723
330
747D
100
AcDbEntity
  8
部品1
100
AcDbLine
 10
4814.375560876339
 20
5503.577276893864
 30
0.0
 11
4814.37556087634
 21
3469.57727689386
 31
0.0
  0
LINE
  5
15724
330
747D
100
AcDbEntity
  8
部品1
100
AcDbLine
 10
7274.37556087634
 20
5503.577276893862
 30
0.0
 11
7274.37556087634
 21
3469.57727689386
 31
0.0
  0
LINE
  5
15725
330
747D
100
AcDbEntity
  8
部品1
100
AcDbLine
 10
7229.375560876339
 20
5407.07727689386
 30
0.0
 11
7229.375560876341
 21
4530.07727689388
 31
0.0
  0
LINE
  5
15726
330
747D
100
AcDbEntity
  8
部品1
100
AcDbLine
 10
6499.375560876339
 20
5407.07727689386
 30
0.0
 11
6499.375560876341
 21
4530.077276893873
 31
0.0
  0
LINE
  5
15727
330
747D
100
AcDbEntity
  8
部品1
100
AcDbLine
 10
6497.375560876339
 20
5409.577276893861
 30
0.0
 11
6497.375560876341
 21
4523.07727689387
 31
0.0
  0
LINE
  5
15728
330
747D
100
AcDbEntity
  8
部品1
100
AcDbLine
 10
5591.37556087634
 20
5409.577276893861
 30
0.0
 11
5591.375560876339
 21
4523.077276893871
 31
0.0
  0
LINE
  5
15729
330
747D
100
AcDbEntity
  8
部品1
100
AcDbLine
 10
5589.375560876338
 20
5407.07727689386
 30
0.0
 11
5589.375560876341
 21
4530.077276893871
 31
0.0
  0
LINE
  5
1572A
330
747D
100
AcDbEntity
  8
部品1
100
AcDbLine
 10
4857.37556087634
 20
5409.577276893861
 30
0.0
 11
4857.37556087634
 21
4523.077276893865
 31
0.0
  0
DIMENSION
  5
1572B
330
747D
100
AcDbEntity
  8
寸法
100
AcDbDimension
  2
*D2
 10
4496.271033268737
 20
4545.077276893864
 30
0.0
 11
4496.271033268736
 21
4971.077276893863
 31
0.0
 70
   160
  1
有効開口部\P高さ<>
 71
     5
 42
845.9999999999963
  3
INABA_S40G
100
AcDbAlignedDimension
 13
4814.37556087634
 23
5391.07727689386
 33
0.0
 14
4814.37556087634
 24
4545.077276893864
 34
0.0
 50
90.0
100
AcDbRotatedDimension
1001
ACAD
1000
DSTYLE
1002
{
1070
   288
1070
     1
1002
}
  0
LINE
  5
1572D
330
747D
100
AcDbEntity
  8
部品1
100
AcDbLine
 10
5679.375560876338
 20
4530.077276893873
 30
0.0
 11
6389.313113047659
 21
4530.07727689388
 31
0.0
  0
LINE
  5
1572E
330
747D
100
AcDbEntity
  8
部品1
100
AcDbLine
 10
4814.37556087634
 20
3612.577276893864
 30
0.0
 11
7274.37556087634
 21
3612.577276893881
 31
0.0
  0
LINE
  5
1572F
330
747D
100
AcDbEntity
  8
部品1
100
AcDbLine
 10
4814.37556087634
 20
3569.57727689386
 30
0.0
 11
7274.37556087634
 21
3569.57727689386
 31
0.0
  0
LINE
  5
15732
330
747D
100
AcDbEntity
  8
部品1
100
AcDbLine
 10
4859.375560876339
 20
4530.077276893865
 30
0.0
 11
5569.313113047659
 21
4530.077276893871
 31
0.0
  0
LINE
  5
15734
330
747D
100
AcDbEntity
  8
細線
 48
0.2
100
AcDbLine
 10
5589.313113047658
 20
4534.327276893878
 30
0.0
 11
5569.313113047659
 21
4534.327276893878
 31
0.0
  0
LINE
  5
15735
330
747D
100
AcDbEntity
  8
部品1
 48
0.2
100
AcDbLine
 10
5589.313113047658
 20
4536.827276893879
 30
0.0
 11
5569.313113047658
 21
4536.827276893879
 31
0.0
  0
ARC
  5
15736
330
747D
100
AcDbEntity
  8
細線
 48
0.2
100
AcDbCircle
 10
5586.313113047657
 20
4529.85676706263
 30
0.0
 40
1.0
100
AcDbArc
 50
286.6015495990217
 51
0.0
  0
LINE
  5
15737
330
747D
100
AcDbEntity
  8
細線
 48
0.2
100
AcDbLine
 10
5589.313113047658
 20
4529.827276893878
 30
0.0
 11
5569.313113047659
 21
4529.827276893878
 31
0.0
  0
LINE
  5
15738
330
747D
100
AcDbEntity
  8
細線
 48
0.2
100
AcDbLine
 10
5589.313113047658
 20
4532.327276893878
 30
0.0
 11
5569.313113047659
 21
4532.32727689388
 31
0.0
  0
ARC
  5
15739
330
747D
100
AcDbEntity
  8
細線
 48
0.2
100
AcDbCircle
 10
5576.313113047658
 20
4529.85676706263
 30
0.0
 40
1.0
100
AcDbArc
 50
179.9999999999984
 51
253.3984504009775
  0
ARC
  5
1573A
330
747D
100
AcDbEntity
  8
細線
 48
0.2
100
AcDbCircle
 10
5581.313113047658
 20
4546.627276893876
 30
0.0
 40
18.49999999999796
100
AcDbArc
 50
253.3984504009772
 51
286.6015495990217
  0
LINE
  5
1573B
330
747D
100
AcDbEntity
  8
細線
 48
0.2
100
AcDbLine
 10
5586.997104344166
 20
4529.127276893878
 30
0.0
 11
5575.629121751154
 21
4529.127276893878
 31
0.0
  0
LINE
  5
1573C
330
747D
100
AcDbEntity
  8
細線
 48
50.0
100
AcDbLine
 10
5569.313113047658
 20
4530.07727689388
 30
0.0
 11
5569.313113047658
 21
4529.827276893878
 31
0.0
  0
LINE
  5
1573D
330
747D
100
AcDbEntity
  8
部品1
100
AcDbLine
 10
5589.313113047658
 20
4530.07727689388
 30
0.0
 11
5589.37556087634
 21
4530.07727689388
 31
0.0
  0
LINE
  5
1573E
330
747D
100
AcDbEntity
  8
部品1
100
AcDbLine
 10
5589.313113047658
 20
4530.077276893871
 30
0.0
 11
5589.37556087634
 21
4530.077276893871
 31
0.0
  0
LINE
  5
1573F
330
747D
100
AcDbEntity
  8
細線
 48
0.1
100
AcDbLine
 10
5589.313113047658
 20
4529.827276893878
 30
0.0
 11
5589.313113047658
 21
4536.827276893879
 31
0.0
  0
LINE
  5
15740
330
747D
100
AcDbEntity
  8
細線
 48
50.0
100
AcDbLine
 10
5577.450355853354
 20
4532.32727689388
 30
0.0
 11
5577.450355853355
 21
4534.327276893878
 31
0.0
  0
LINE
  5
15741
330
747D
100
AcDbEntity
  8
細線
 48
50.0
100
AcDbLine
 10
5585.300765899319
 20
4532.32727689388
 30
0.0
 11
5585.300765899319
 21
4534.327276893878
 31
0.0
  0
LINE
  5
15742
330
747D
100
AcDbEntity
  8
部品1
 48
50.0
100
AcDbLine
 10
5569.313113047658
 20
4536.827276893879
 30
0.0
 11
5569.313113047658
 21
4530.07727689388
 31
0.0
  0
LINE
  5
15745
330
747D
100
AcDbEntity
  8
部品1
100
AcDbLine
 10
6499.375560876339
 20
4530.077276893873
 30
0.0
 11
7209.313113047659
 21
4530.07727689388
 31
0.0
  0
LINE
  5
15746
330
747D
100
AcDbEntity
  8
部品1
 48
0.2
100
AcDbLine
 10
6409.313113047658
 20
4536.827276893879
 30
0.0
 11
6389.313113047657
 21
4536.827276893879
 31
0.0
  0
LINE
  5
15747
330
747D
100
AcDbEntity
  8
細線
 48
0.2
100
AcDbLine
 10
6409.313113047658
 20
4534.327276893878
 30
0.0
 11
6389.313113047659
 21
4534.327276893878
 31
0.0
  0
LINE
  5
15748
330
747D
100
AcDbEntity
  8
部品1
100
AcDbLine
 10
6409.313113047659
 20
4530.077276893882
 30
0.0
 11
6409.37556087634
 21
4530.077276893882
 31
0.0
  0
LINE
  5
15749
330
747D
100
AcDbEntity
  8
部品1
100
AcDbLine
 10
6409.313113047659
 20
4530.07727689388
 30
0.0
 11
6409.37556087634
 21
4530.07727689388
 31
0.0
  0
LINE
  5
1574A
330
747D
100
AcDbEntity
  8
細線
 48
50.0
100
AcDbLine
 10
6389.313113047657
 20
4530.07727689388
 30
0.0
 11
6389.313113047657
 21
4529.827276893878
 31
0.0
  0
LINE
  5
1574B
330
747D
100
AcDbEntity
  8
細線
 48
0.2
100
AcDbLine
 10
6406.997104344165
 20
4529.127276893878
 30
0.0
 11
6395.629121751153
 21
4529.127276893878
 31
0.0
  0
ARC
  5
1574C
330
747D
100
AcDbEntity
  8
細線
 48
0.2
100
AcDbCircle
 10
6401.313113047658
 20
4546.627276893876
 30
0.0
 40
18.49999999999796
100
AcDbArc
 50
253.3984504009772
 51
286.6015495990217
  0
ARC
  5
1574D
330
747D
100
AcDbEntity
  8
細線
 48
0.2
100
AcDbCircle
 10
6396.313113047657
 20
4529.85676706263
 30
0.0
 40
1.0
100
AcDbArc
 50
179.9999999999984
 51
253.3984504009775
  0
LINE
  5
1574E
330
747D
100
AcDbEntity
  8
細線
 48
0.2
100
AcDbLine
 10
6409.313113047658
 20
4532.327276893878
 30
0.0
 11
6389.313113047659
 21
4532.32727689388
 31
0.0
  0
LINE
  5
1574F
330
747D
100
AcDbEntity
  8
細線
 48
0.2
100
AcDbLine
 10
6409.313113047658
 20
4529.827276893878
 30
0.0
 11
6389.313113047659
 21
4529.827276893878
 31
0.0
  0
ARC
  5
15750
330
747D
100
AcDbEntity
  8
細線
 48
0.2
100
AcDbCircle
 10
6406.313113047658
 20
4529.85676706263
 30
0.0
 40
1.0
100
AcDbArc
 50
286.6015495990217
 51
0.0
  0
LINE
  5
15751
330
747D
100
AcDbEntity
  8
部品1
100
AcDbLine
 10
6409.313113047659
 20
4530.07727689388
 30
0.0
 11
6409.375560876338
 21
4530.07727689388
 31
0.0
  0
LINE
  5
15752
330
747D
100
AcDbEntity
  8
部品1
 48
50.0
100
AcDbLine
 10
6389.313113047657
 20
4536.827276893879
 30
0.0
 11
6389.313113047657
 21
4530.07727689388
 31
0.0
  0
LINE
  5
15753
330
747D
100
AcDbEntity
  8
細線
 48
50.0
100
AcDbLine
 10
6405.300765899318
 20
4532.32727689388
 30
0.0
 11
6405.300765899318
 21
4534.327276893878
 31
0.0
  0
LINE
  5
15754
330
747D
100
AcDbEntity
  8
細線
 48
50.0
100
AcDbLine
 10
6397.450355853354
 20
4532.32727689388
 30
0.0
 11
6397.450355853355
 21
4534.327276893878
 31
0.0
  0
LINE
  5
15755
330
747D
100
AcDbEntity
  8
細線
 48
0.1
100
AcDbLine
 10
6409.313113047658
 20
4529.827276893878
 30
0.0
 11
6409.313113047658
 21
4536.827276893879
 31
0.0
  0
LINE
  5
15759
330
747D
100
AcDbEntity
  8
部品1
 48
0.2
100
AcDbLine
 10
7229.313113047658
 20
4536.827276893879
 30
0.0
 11
7209.313113047658
 21
4536.827276893879
 31
0.0
  0
LINE
  5
1575A
330
747D
100
AcDbEntity
  8
細線
 48
0.2
100
AcDbLine
 10
7229.313113047658
 20
4534.327276893878
 30
0.0
 11
7209.313113047659
 21
4534.327276893878
 31
0.0
  0
LINE
  5
1575B
330
747D
100
AcDbEntity
  8
部品1
100
AcDbLine
 10
7229.313113047658
 20
4530.077276893882
 30
0.0
 11
7229.375560876339
 21
4530.077276893882
 31
0.0
  0
LINE
  5
1575C
330
747D
100
AcDbEntity
  8
部品1
100
AcDbLine
 10
7229.313113047658
 20
4530.07727689388
 30
0.0
 11
7229.375560876339
 21
4530.07727689388
 31
0.0
  0
LINE
  5
1575D
330
747D
100
AcDbEntity
  8
細線
 48
50.0
100
AcDbLine
 10
7209.313113047658
 20
4530.07727689388
 30
0.0
 11
7209.313113047658
 21
4529.827276893878
 31
0.0
  0
LINE
  5
1575E
330
747D
100
AcDbEntity
  8
細線
 48
0.2
100
AcDbLine
 10
7226.997104344166
 20
4529.127276893878
 30
0.0
 11
7215.629121751153
 21
4529.127276893878
 31
0.0
  0
ARC
  5
1575F
330
747D
100
AcDbEntity
  8
細線
 48
0.2
100
AcDbCircle
 10
7221.313113047658
 20
4546.627276893876
 30
0.0
 40
18.49999999999796
100
AcDbArc
 50
253.3984504009772
 51
286.6015495990217
  0
ARC
  5
15760
330
747D
100
AcDbEntity
  8
細線
 48
0.2
100
AcDbCircle
 10
7216.313113047657
 20
4529.85676706263
 30
0.0
 40
1.0
100
AcDbArc
 50
179.9999999999984
 51
253.3984504009775
  0
LINE
  5
15761
330
747D
100
AcDbEntity
  8
細線
 48
0.2
100
AcDbLine
 10
7229.313113047658
 20
4532.327276893878
 30
0.0
 11
7209.313113047659
 21
4532.32727689388
 31
0.0
  0
LINE
  5
15762
330
747D
100
AcDbEntity
  8
細線
 48
0.2
100
AcDbLine
 10
7229.313113047658
 20
4529.827276893878
 30
0.0
 11
7209.313113047659
 21
4529.827276893878
 31
0.0
  0
ARC
  5
15763
330
747D
100
AcDbEntity
  8
細線
 48
0.2
100
AcDbCircle
 10
7226.313113047658
 20
4529.85676706263
 30
0.0
 40
1.0
100
AcDbArc
 50
286.6015495990217
 51
0.0
  0
LINE
  5
15764
330
747D
100
AcDbEntity
  8
部品1
100
AcDbLine
 10
7229.313113047658
 20
4530.07727689388
 30
0.0
 11
7229.375560876339
 21
4530.07727689388
 31
0.0
  0
LINE
  5
15765
330
747D
100
AcDbEntity
  8
部品1
 48
50.0
100
AcDbLine
 10
7209.313113047658
 20
4536.827276893879
 30
0.0
 11
7209.313113047658
 21
4530.07727689388
 31
0.0
  0
LINE
  5
15766
330
747D
100
AcDbEntity
  8
細線
 48
50.0
100
AcDbLine
 10
7225.300765899318
 20
4532.32727689388
 30
0.0
 11
7225.300765899318
 21
4534.327276893878
 31
0.0
  0
LINE
  5
15767
330
747D
100
AcDbEntity
  8
細線
 48
50.0
100
AcDbLine
 10
7217.450355853355
 20
4532.32727689388
 30
0.0
 11
7217.450355853356
 21
4534.327276893878
 31
0.0
  0
LINE
  5
15768
330
747D
100
AcDbEntity
  8
細線
 48
0.1
100
AcDbLine
 10
7229.313113047658
 20
4529.827276893878
 30
0.0
 11
7229.313113047658
 21
4536.827276893879
 31
0.0
  0
LINE
  5
157E0
330
747D
100
AcDbEntity
  8
部品1
100
AcDbLine
 10
5679.375560876338
 20
5407.077276893859
 30
0.0
 11
6389.313113047657
 21
5407.07727689386
 31
0.0
  0
LINE
  5
157E9
330
747D
100
AcDbEntity
  8
部品1
100
AcDbLine
 10
4814.37556087634
 20
5409.577276893861
 30
0.0
 11
7274.37556087634
 21
5409.577276893861
 31
0.0
  0
LINE
  5
157EE
330
747D
100
AcDbEntity
  8
部品1
100
AcDbLine
 10
4859.375560876339
 20
5407.077276893862
 30
0.0
 11
5569.313113047659
 21
5407.077276893862
 31
0.0
  0
LINE
  5
15808
330
747D
100
AcDbEntity
  8
細線
 48
0.2
100
AcDbLine
 10
5586.997104344166
 20
5408.027276893863
 30
0.0
 11
5575.629121751154
 21
5408.027276893863
 31
0.0
  0
ARC
  5
15809
330
747D
100
AcDbEntity
  8
細線
 48
0.2
100
AcDbCircle
 10
5581.313113047658
 20
5390.527276893865
 30
0.0
 40
18.49999999999796
100
AcDbArc
 50
73.39845040097829
 51
106.6015495990228
  0
ARC
  5
1580A
330
747D
100
AcDbEntity
  8
細線
 48
0.2
100
AcDbCircle
 10
5586.313113047657
 20
5407.29778672511
 30
0.0
 40
1.0
100
AcDbArc
 50
0.0
 51
73.39845040097829
  0
ARC
  5
1580B
330
747D
100
AcDbEntity
  8
細線
 48
0.2
100
AcDbCircle
 10
5576.313113047658
 20
5407.29778672511
 30
0.0
 40
1.0
100
AcDbArc
 50
106.6015495990225
 51
180.0000000000016
  0
LINE
  5
1580C
330
747D
100
AcDbEntity
  8
細線
 48
0.2
100
AcDbLine
 10
5589.313113047658
 20
5404.827276893862
 30
0.0
 11
5569.313113047659
 21
5404.827276893862
 31
0.0
  0
LINE
  5
1580D
330
747D
100
AcDbEntity
  8
細線
 48
0.2
100
AcDbLine
 10
5589.313113047658
 20
5407.327276893862
 30
0.0
 11
5569.313113047659
 21
5407.327276893862
 31
0.0
  0
LINE
  5
1580E
330
747D
100
AcDbEntity
  8
部品1
100
AcDbLine
 10
5589.313113047658
 20
5407.077276893862
 30
0.0
 11
5589.37556087634
 21
5407.07727689386
 31
0.0
  0
LINE
  5
1580F
330
747D
100
AcDbEntity
  8
細線
 48
50.0
100
AcDbLine
 10
5569.313113047658
 20
5407.077276893862
 30
0.0
 11
5569.313113047658
 21
5407.327276893862
 31
0.0
  0
LINE
  5
15810
330
747D
100
AcDbEntity
  8
部品1
 48
0.2
100
AcDbLine
 10
5589.313113047658
 20
5400.327276893862
 30
0.0
 11
5569.313113047658
 21
5400.327276893862
 31
0.0
  0
LINE
  5
15811
330
747D
100
AcDbEntity
  8
細線
 48
0.2
100
AcDbLine
 10
5589.313113047658
 20
5402.827276893862
 30
0.0
 11
5569.313113047659
 21
5402.827276893862
 31
0.0
  0
LINE
  5
15812
330
747D
100
AcDbEntity
  8
細線
 48
50.0
100
AcDbLine
 10
5585.300765899319
 20
5404.827276893862
 30
0.0
 11
5585.300765899319
 21
5402.827276893862
 31
0.0
  0
LINE
  5
15813
330
747D
100
AcDbEntity
  8
細線
 48
50.0
100
AcDbLine
 10
5577.450355853354
 20
5404.827276893862
 30
0.0
 11
5577.450355853355
 21
5402.827276893862
 31
0.0
  0
LINE
  5
15814
330
747D
100
AcDbEntity
  8
細線
 48
0.1
100
AcDbLine
 10
5589.313113047658
 20
5407.327276893862
 30
0.0
 11
5589.313113047658
 21
5400.327276893862
 31
0.0
  0
LINE
  5
15815
330
747D
100
AcDbEntity
  8
部品1
 48
50.0
100
AcDbLine
 10
5569.313113047658
 20
5400.327276893862
 30
0.0
 11
5569.313113047658
 21
5407.077276893862
 31
0.0
  0
LINE
  5
1581A
330
747D
100
AcDbEntity
  8
部品1
100
AcDbLine
 10
6499.375560876339
 20
5407.07727689386
 30
0.0
 11
7209.313113047658
 21
5407.07727689386
 31
0.0
  0
ARC
  5
1581B
330
747D
100
AcDbEntity
  8
細線
 48
0.2
100
AcDbCircle
 10
6406.313113047658
 20
5407.29778672511
 30
0.0
 40
1.0
100
AcDbArc
 50
0.0
 51
73.39845040097829
  0
LINE
  5
1581C
330
747D
100
AcDbEntity
  8
細線
 48
0.2
100
AcDbLine
 10
6409.313113047658
 20
5407.327276893862
 30
0.0
 11
6389.313113047659
 21
5407.327276893862
 31
0.0
  0
LINE
  5
1581D
330
747D
100
AcDbEntity
  8
細線
 48
0.2
100
AcDbLine
 10
6409.313113047658
 20
5404.827276893862
 30
0.0
 11
6389.313113047659
 21
5404.827276893862
 31
0.0
  0
ARC
  5
1581E
330
747D
100
AcDbEntity
  8
細線
 48
0.2
100
AcDbCircle
 10
6396.313113047657
 20
5407.29778672511
 30
0.0
 40
1.0
100
AcDbArc
 50
106.6015495990225
 51
180.0000000000016
  0
ARC
  5
1581F
330
747D
100
AcDbEntity
  8
細線
 48
0.2
100
AcDbCircle
 10
6401.313113047658
 20
5390.527276893865
 30
0.0
 40
18.49999999999796
100
AcDbArc
 50
73.39845040097829
 51
106.6015495990228
  0
LINE
  5
15820
330
747D
100
AcDbEntity
  8
細線
 48
0.2
100
AcDbLine
 10
6406.997104344165
 20
5408.027276893863
 30
0.0
 11
6395.629121751153
 21
5408.027276893863
 31
0.0
  0
LINE
  5
15821
330
747D
100
AcDbEntity
  8
細線
 48
50.0
100
AcDbLine
 10
6389.313113047657
 20
5407.077276893862
 30
0.0
 11
6389.313113047657
 21
5407.327276893862
 31
0.0
  0
LINE
  5
15822
330
747D
100
AcDbEntity
  8
部品1
100
AcDbLine
 10
6409.313113047659
 20
5407.077276893862
 30
0.0
 11
6409.37556087634
 21
5407.07727689386
 31
0.0
  0
LINE
  5
15823
330
747D
100
AcDbEntity
  8
部品1
100
AcDbLine
 10
6409.313113047659
 20
5407.077276893859
 30
0.0
 11
6409.37556087634
 21
5407.07727689386
 31
0.0
  0
LINE
  5
15824
330
747D
100
AcDbEntity
  8
細線
 48
0.2
100
AcDbLine
 10
6409.313113047658
 20
5402.827276893862
 30
0.0
 11
6389.313113047659
 21
5402.827276893862
 31
0.0
  0
LINE
  5
15825
330
747D
100
AcDbEntity
  8
部品1
 48
0.2
100
AcDbLine
 10
6409.313113047658
 20
5400.327276893862
 30
0.0
 11
6389.313113047657
 21
5400.327276893862
 31
0.0
  0
LINE
  5
15826
330
747D
100
AcDbEntity
  8
細線
 48
0.1
100
AcDbLine
 10
6409.313113047658
 20
5407.327276893862
 30
0.0
 11
6409.313113047658
 21
5400.327276893862
 31
0.0
  0
LINE
  5
15827
330
747D
100
AcDbEntity
  8
細線
 48
50.0
100
AcDbLine
 10
6397.450355853354
 20
5404.827276893862
 30
0.0
 11
6397.450355853355
 21
5402.827276893862
 31
0.0
  0
LINE
  5
15828
330
747D
100
AcDbEntity
  8
細線
 48
50.0
100
AcDbLine
 10
6405.300765899318
 20
5404.827276893862
 30
0.0
 11
6405.300765899318
 21
5402.827276893862
 31
0.0
  0
LINE
  5
15829
330
747D
100
AcDbEntity
  8
部品1
 48
50.0
100
AcDbLine
 10
6389.313113047657
 20
5400.327276893862
 30
0.0
 11
6389.313113047657
 21
5407.077276893862
 31
0.0
  0
ARC
  5
15844
330
747D
100
AcDbEntity
  8
細線
 48
0.2
100
AcDbCircle
 10
7226.313113047658
 20
5407.29778672511
 30
0.0
 40
1.0
100
AcDbArc
 50
0.0
 51
73.39845040097829
  0
LINE
  5
15845
330
747D
100
AcDbEntity
  8
細線
 48
0.2
100
AcDbLine
 10
7229.313113047658
 20
5407.327276893862
 30
0.0
 11
7209.313113047659
 21
5407.327276893862
 31
0.0
  0
LINE
  5
15846
330
747D
100
AcDbEntity
  8
細線
 48
0.2
100
AcDbLine
 10
7229.313113047658
 20
5404.827276893862
 30
0.0
 11
7209.313113047659
 21
5404.827276893862
 31
0.0
  0
ARC
  5
15847
330
747D
100
AcDbEntity
  8
細線
 48
0.2
100
AcDbCircle
 10
7216.313113047657
 20
5407.29778672511
 30
0.0
 40
1.0
100
AcDbArc
 50
106.6015495990225
 51
180.0000000000016
  0
ARC
  5
15848
330
747D
100
AcDbEntity
  8
細線
 48
0.2
100
AcDbCircle
 10
7221.313113047658
 20
5390.527276893865
 30
0.0
 40
18.49999999999796
100
AcDbArc
 50
73.39845040097829
 51
106.6015495990228
  0
LINE
  5
15849
330
747D
100
AcDbEntity
  8
細線
 48
0.2
100
AcDbLine
 10
7226.997104344166
 20
5408.027276893863
 30
0.0
 11
7215.629121751153
 21
5408.027276893863
 31
0.0
  0
LINE
  5
1584A
330
747D
100
AcDbEntity
  8
細線
 48
50.0
100
AcDbLine
 10
7209.313113047658
 20
5407.077276893862
 30
0.0
 11
7209.313113047658
 21
5407.327276893862
 31
0.0
  0
LINE
  5
1584B
330
747D
100
AcDbEntity
  8
部品1
100
AcDbLine
 10
7229.313113047658
 20
5407.077276893862
 30
0.0
 11
7229.375560876339
 21
5407.07727689386
 31
0.0
  0
LINE
  5
1584C
330
747D
100
AcDbEntity
  8
部品1
100
AcDbLine
 10
7229.313113047658
 20
5407.077276893859
 30
0.0
 11
7229.375560876339
 21
5407.07727689386
 31
0.0
  0
LINE
  5
1584D
330
747D
100
AcDbEntity
  8
細線
 48
0.2
100
AcDbLine
 10
7229.313113047658
 20
5402.827276893862
 30
0.0
 11
7209.313113047659
 21
5402.827276893862
 31
0.0
  0
LINE
  5
1584E
330
747D
100
AcDbEntity
  8
部品1
 48
0.2
100
AcDbLine
 10
7229.313113047658
 20
5400.327276893862
 30
0.0
 11
7209.313113047658
 21
5400.327276893862
 31
0.0
  0
LINE
  5
1584F
330
747D
100
AcDbEntity
  8
細線
 48
0.1
100
AcDbLine
 10
7229.313113047658
 20
5407.327276893862
 30
0.0
 11
7229.313113047658
 21
5400.327276893862
 31
0.0
  0
LINE
  5
15850
330
747D
100
AcDbEntity
  8
細線
 48
50.0
100
AcDbLine
 10
7217.450355853355
 20
5404.827276893862
 30
0.0
 11
7217.450355853356
 21
5402.827276893862
 31
0.0
  0
LINE
  5
15851
330
747D
100
AcDbEntity
  8
細線
 48
50.0
100
AcDbLine
 10
7225.300765899318
 20
5404.827276893862
 30
0.0
 11
7225.300765899318
 21
5402.827276893862
 31
0.0
  0
LINE
  5
15852
330
747D
100
AcDbEntity
  8
部品1
 48
50.0
100
AcDbLine
 10
7209.313113047658
 20
5400.327276893862
 30
0.0
 11
7209.313113047658
 21
5407.077276893862
 31
0.0
  0
TEXT
  5
160B7
330
747D
100
AcDbEntity
  8
文字
 62
     7
 48
50.0
100
AcDbText
 10
13583.11819016569
 20
9910.01374588373
 30
0.0
 40
100.0
  1
梁中央
 41
0.9
  7
STYLE1
100
AcDbText
  0
TEXT
  5
160B8
330
747D
100
AcDbEntity
  8
文字
 62
     7
 48
50.0
100
AcDbText
 10
15022.63965474516
 20
9910.01374588373
 30
0.0
 40
100.0
  1
F12,Y10       0.7+1.0
  7
STYLE1
100
AcDbText
  0
TEXT
  5
160B9
330
747D
100
AcDbEntity
  8
文字
 62
     7
 48
50.0
100
AcDbText
 10
13583.11819016568
 20
8550.013745883729
 30
0.0
 40
100.0
  1
アンカープレート
  7
STYLE1
100
AcDbText
  0
TEXT
  5
160BA
330
747D
100
AcDbEntity
  8
文字
 62
     7
 48
50.0
100
AcDbText
 10
15022.63965474514
 20
8550.013745883722
 30
0.0
 40
100.0
  1
F12            2.3
  7
STYLE1
100
AcDbText
  0
LINE
  5
160BB
330
747D
100
AcDbEntity
  8
仕様書枠
 48
50.0
100
AcDbLine
 10
16307.19999999999
 20
10049.6
 30
0.0
 11
13127.19999999999
 21
10049.6
 31
0.0
  0
LINE
  5
160BC
330
747D
100
AcDbEntity
  8
仕様書枠
 48
50.0
100
AcDbLine
 10
16307.19999999999
 20
11409.6
 30
0.0
 11
13127.2
 21
11409.6
 31
0.0
  0
LINE
  5
160BD
330
747D
100
AcDbEntity
  8
仕様書枠
 48
50.0
100
AcDbLine
 10
16307.19999999999
 20
7839.600000000007
 30
0.0
 11
16307.2
 21
11409.6
 31
0.0
  0
LINE
  5
160BE
330
747D
100
AcDbEntity
  8
仕様書枠
 48
50.0
100
AcDbLine
 10
14785.2
 20
11409.59999999999
 30
0.0
 11
14785.19999999999
 21
8349.6
 31
0.0
  0
LINE
  5
160BF
330
747D
100
AcDbEntity
  8
仕様書枠
 48
50.0
100
AcDbLine
 10
13490.2
 20
11409.6
 30
0.0
 11
13490.20000000001
 21
8349.6
 31
0.0
  0
LINE
  5
160C0
330
747D
100
AcDbEntity
  8
仕様書枠
 48
50.0
100
AcDbLine
 10
16307.19999999999
 20
11239.6
 30
0.0
 11
13127.2
 21
11239.6
 31
0.0
  0
LINE
  5
160C1
330
747D
100
AcDbEntity
  8
仕様書枠
 48
50.0
100
AcDbLine
 10
16307.19999999999
 20
10899.6
 30
0.0
 11
13127.2
 21
10899.6
 31
0.0
  0
LINE
  5
160C2
330
747D
100
AcDbEntity
  8
仕様書枠
 48
50.0
100
AcDbLine
 10
16307.19999999999
 20
11069.6
 30
0.0
 11
13127.2
 21
11069.6
 31
0.0
  0
LINE
  5
160C3
330
747D
100
AcDbEntity
  8
仕様書枠
 48
50.0
100
AcDbLine
 10
16307.19999999999
 20
10559.6
 30
0.0
 11
13127.19999999999
 21
10559.6
 31
0.0
  0
LINE
  5
160C4
330
747D
100
AcDbEntity
  8
仕様書枠
 48
50.0
100
AcDbLine
 10
16307.19999999999
 20
10389.6
 30
0.0
 11
13127.19999999999
 21
10389.6
 31
0.0
  0
LINE
  5
160C5
330
747D
100
AcDbEntity
  8
仕様書枠
 48
50.0
100
AcDbLine
 10
16307.19999999999
 20
10729.6
 30
0.0
 11
13127.19999999999
 21
10729.6
 31
0.0
  0
TEXT
  5
160C6
330
747D
100
AcDbEntity
  8
文字
 62
     7
 48
50.0
100
AcDbText
 10
13197.42518560407
 20
11270.01374588373
 30
0.0
 40
100.0
  1
品番
  7
STYLE1
100
AcDbText
  0
TEXT
  5
160C7
330
747D
100
AcDbEntity
  8
文字
 62
     7
 48
50.0
100
AcDbText
 10
13271.19032244792
 20
11100.01374588373
 30
0.0
 40
100.0
  1
1
  7
STYLE1
100
AcDbText
  0
TEXT
  5
160C8
330
747D
100
AcDbEntity
  8
文字
 62
     7
 48
50.0
100
AcDbText
 10
13271.19032244792
 20
10930.01374588373
 30
0.0
 40
100.0
  1
2
  7
STYLE1
100
AcDbText
  0
TEXT
  5
160C9
330
747D
100
AcDbEntity
  8
文字
 62
     7
 48
50.0
100
AcDbText
 10
13271.19032244792
 20
10590.01374588373
 30
0.0
 40
100.0
  1
4
  7
STYLE1
100
AcDbText
  0
TEXT
  5
160CA
330
747D
100
AcDbEntity
  8
文字
 62
     7
 48
50.0
100
AcDbText
 10
13271.19032244792
 20
10760.01374588373
 30
0.0
 40
100.0
  1
3
  7
STYLE1
100
AcDbText
  0
TEXT
  5
160CB
330
747D
100
AcDbEntity
  8
文字
 62
     7
 48
50.0
100
AcDbText
 10
13732.03840939434
 20
11270.01374588373
 30
0.0
 40
100.0
  1
部　　品　　名
  7
STYLE1
100
AcDbText
  0
TEXT
  5
160CC
330
747D
100
AcDbEntity
  8
文字
 62
     7
 48
50.0
100
AcDbText
 10
14859.79774614482
 20
11270.01374588373
 30
0.0
 40
100.0
  1
材料（材質）　　単位mm
  7
STYLE1
100
AcDbText
  0
TEXT
  5
160CD
330
747D
100
AcDbEntity
  8
文字
 62
     7
 48
50.0
100
AcDbText
 10
13583.11819016569
 20
11100.01374588373
 30
0.0
 40
100.0
  1
土台枠
  7
STYLE1
100
AcDbText
  0
TEXT
  5
160CE
330
747D
100
AcDbEntity
  8
文字
 62
     7
 48
50.0
100
AcDbText
 10
13583.1181901657
 20
10930.01374588373
 30
0.0
 40
100.0
  1
柱
  7
STYLE1
100
AcDbText
  0
TEXT
  5
160CF
330
747D
100
AcDbEntity
  8
文字
 62
     7
 48
50.0
100
AcDbText
 10
13583.11819016569
 20
10590.01374588373
 30
0.0
 40
100.0
  1
鴨居
  7
STYLE1
100
AcDbText
  0
TEXT
  5
160D0
330
747D
100
AcDbEntity
  8
文字
 62
     7
 48
50.0
100
AcDbText
 10
13583.11819016569
 20
10420.01374588373
 30
0.0
 40
100.0
  1
桁後
  7
STYLE1
100
AcDbText
  0
TEXT
  5
160D1
330
747D
100
AcDbEntity
  8
文字
 62
     7
 48
50.0
100
AcDbText
 10
13271.19032244792
 20
10420.01374588373
 30
0.0
 40
100.0
  1
5
  7
STYLE1
100
AcDbText
  0
TEXT
  5
160D2
330
747D
100
AcDbEntity
  8
文字
 62
     7
 48
50.0
100
AcDbText
 10
13583.11819016569
 20
10250.01374588373
 30
0.0
 40
100.0
  1
妻板左右
  7
STYLE1
100
AcDbText
  0
TEXT
  5
160D3
330
747D
100
AcDbEntity
  8
文字
 62
     7
 48
50.0
100
AcDbText
 10
13248.77747366447
 20
9570.013745883729
 30
0.0
 40
100.0
  1
10
  7
STYLE1
100
AcDbText
  0
TEXT
  5
160D4
330
747D
100
AcDbEntity
  8
文字
 62
     7
 48
50.0
100
AcDbText
 10
13583.11819016568
 20
9570.013745883729
 30
0.0
 40
100.0
  1
中土台受板
  7
STYLE1
100
AcDbText
  0
TEXT
  5
160D5
330
747D
100
AcDbEntity
  8
文字
 62
     7
 48
50.0
100
AcDbText
 10
13583.11819016569
 20
9740.013745883729
 30
0.0
 40
100.0
  1
屋根パネル
  7
STYLE1
100
AcDbText
  0
TEXT
  5
160D6
330
747D
100
AcDbEntity
  8
文字
 62
     7
 48
50.0
100
AcDbText
 10
13583.11819016569
 20
10080.01374588373
 30
0.0
 40
100.0
  1
鼻隠シ前後
  7
STYLE1
100
AcDbText
  0
TEXT
  5
160D7
330
747D
100
AcDbEntity
  8
文字
 62
     7
 48
50.0
100
AcDbText
 10
13271.19032244792
 20
9910.01374588373
 30
0.0
 40
100.0
  1
8
  7
STYLE1
100
AcDbText
  0
TEXT
  5
160D8
330
747D
100
AcDbEntity
  8
文字
 62
     7
 48
50.0
100
AcDbText
 10
13271.19032244792
 20
9740.013745883729
 30
0.0
 40
100.0
  1
9
  7
STYLE1
100
AcDbText
  0
TEXT
  5
160D9
330
747D
100
AcDbEntity
  8
文字
 62
     7
 48
50.0
100
AcDbText
 10
13271.19032244792
 20
10080.01374588373
 30
0.0
 40
100.0
  1
7
  7
STYLE1
100
AcDbText
  0
TEXT
  5
160DA
330
747D
100
AcDbEntity
  8
文字
 62
     7
 48
50.0
100
AcDbText
 10
13271.19032244792
 20
10250.01374588373
 30
0.0
 40
100.0
  1
6
  7
STYLE1
100
AcDbText
  0
LINE
  5
160DB
330
747D
100
AcDbEntity
  8
仕様書枠
 48
50.0
100
AcDbLine
 10
16307.19999999999
 20
9709.600000000001
 30
0.0
 11
13127.19999999999
 21
9709.600000000001
 31
0.0
  0
LINE
  5
160DC
330
747D
100
AcDbEntity
  8
仕様書枠
 48
50.0
100
AcDbLine
 10
16307.19999999999
 20
8859.6
 30
0.0
 11
13127.19999999999
 21
8859.6
 31
0.0
  0
LINE
  5
160DD
330
747D
100
AcDbEntity
  8
仕様書枠
 48
50.0
100
AcDbLine
 10
16307.19999999999
 20
9539.6
 30
0.0
 11
13127.19999999999
 21
9539.6
 31
0.0
  0
LINE
  5
160DE
330
747D
100
AcDbEntity
  8
仕様書枠
 48
50.0
100
AcDbLine
 10
16307.19999999999
 20
10219.6
 30
0.0
 11
13127.2
 21
10219.6
 31
0.0
  0
LINE
  5
160DF
330
747D
100
AcDbEntity
  8
仕様書枠
 48
50.0
100
AcDbLine
 10
16307.19999999999
 20
9879.600000000001
 30
0.0
 11
13127.19999999999
 21
9879.600000000001
 31
0.0
  0
LINE
  5
160E1
330
747D
100
AcDbEntity
  8
仕様書枠
 48
50.0
100
AcDbLine
 10
16307.19999999999
 20
8689.6
 30
0.0
 11
13127.19999999999
 21
8689.6
 31
0.0
  0
LINE
  5
160E2
330
747D
100
AcDbEntity
  8
仕様書枠
 48
50.0
100
AcDbLine
 10
16307.19999999999
 20
8009.600000000004
 30
0.0
 11
13127.19999999999
 21
8009.600000000007
 31
0.0
  0
TEXT
  5
160E3
330
747D
100
AcDbEntity
  8
文字
 62
     7
 48
50.0
100
AcDbText
 10
13248.77747366447
 20
8550.013745883729
 30
0.0
 40
100.0
  1
16
  7
STYLE1
100
AcDbText
  0
TEXT
  5
160E4
330
747D
100
AcDbEntity
  8
文字
 62
     7
 48
50.0
100
AcDbText
 10
13248.77747366447
 20
8720.013745883729
 30
0.0
 40
100.0
  1
15
  7
STYLE1
100
AcDbText
  0
TEXT
  5
160E5
330
747D
100
AcDbEntity
  8
文字
 62
     7
 48
50.0
100
AcDbText
 10
15022.63965474517
 20
11100.01374588372
 30
0.0
 40
100.0
  1
F12            1.2
  7
STYLE1
100
AcDbText
  0
TEXT
  5
160E6
330
747D
100
AcDbEntity
  8
文字
 62
     7
 48
50.0
100
AcDbText
 10
15022.63965474518
 20
10930.01374588372
 30
0.0
 40
100.0
  1
F12            1.0
  7
STYLE1
100
AcDbText
  0
TEXT
  5
160E7
330
747D
100
AcDbEntity
  8
文字
 62
     7
 48
50.0
100
AcDbText
 10
15022.63965474517
 20
10590.01374588372
 30
0.0
 40
100.0
  1
Y10            1.0
  7
STYLE1
100
AcDbText
  0
TEXT
  5
160E8
330
747D
100
AcDbEntity
  8
文字
 62
     7
 48
50.0
100
AcDbText
 10
15022.63965474516
 20
10420.01374588372
 30
0.0
 40
100.0
  1
Y10            1.0
  7
STYLE1
100
AcDbText
  0
TEXT
  5
160E9
330
747D
100
AcDbEntity
  8
文字
 62
     7
 48
50.0
100
AcDbText
 10
15022.63965474517
 20
10250.01374588372
 30
0.0
 40
100.0
  1
Y10            0.7
  7
STYLE1
100
AcDbText
  0
TEXT
  5
160EA
330
747D
100
AcDbEntity
  8
文字
 62
     7
 48
50.0
100
AcDbText
 10
15022.63965474516
 20
10080.01374588372
 30
0.0
 40
100.0
  1
Y10            0.7
  7
STYLE1
100
AcDbText
  0
TEXT
  5
160EB
330
747D
100
AcDbEntity
  8
文字
 62
     7
 48
50.0
100
AcDbText
 10
15022.63965474517
 20
9740.013745883725
 30
0.0
 40
100.0
  1
Y10            0.5
  7
STYLE1
100
AcDbText
  0
TEXT
  5
160EC
330
747D
100
AcDbEntity
  8
文字
 62
     7
 48
50.0
100
AcDbText
 10
15022.63965474515
 20
9570.013745883725
 30
0.0
 40
100.0
  1
F12            2.3
  7
STYLE1
100
AcDbText
  0
LINE
  5
160ED
330
747D
100
AcDbEntity
  8
仕様書枠
 48
50.0
100
AcDbLine
 10
16307.19999999998
 20
7839.600000000007
 30
0.0
 11
13127.19999999999
 21
7839.600000000007
 31
0.0
  0
TEXT
  5
160EE
330
747D
100
AcDbEntity
  8
文字
 62
     7
 48
50.0
100
AcDbText
 10
13229.83081656554
 20
8040.013745883731
 30
0.0
 40
100.0
  1
F12→溶融亜鉛めっき鋼板(JIS G 3302)
  7
STYLE1
100
AcDbText
  0
TEXT
  5
160EF
330
747D
100
AcDbEntity
  8
文字
 62
     7
 48
50.0
100
AcDbText
 10
13229.83081656554
 20
7870.013745883733
 30
0.0
 40
100.0
  1
Y10→溶融亜鉛-5％アルミニウム合金めっき鋼板(JIS G 3317)
 41
0.9
  7
STYLE1
100
AcDbText
  0
LINE
  5
160F0
330
747D
100
AcDbEntity
  8
仕様書枠
 48
50.0
100
AcDbLine
 10
13127.2
 20
11409.6
 30
0.0
 11
13127.19999999999
 21
7839.600000000007
 31
0.0
  0
LINE
  5
160F1
330
747D
100
AcDbEntity
  8
仕様書枠
 48
50.0
100
AcDbLine
 10
16307.19999999999
 20
8179.600000000004
 30
0.0
 11
13127.19999999999
 21
8179.600000000007
 31
0.0
  0
TEXT
  5
160F2
330
747D
100
AcDbEntity
  8
文字
 62
     7
 48
50.0
100
AcDbText
 10
13583.1181901657
 20
10760.01374588373
 30
0.0
 40
100.0
  1
床パネル
 41
0.9
  7
STYLE1
100
AcDbText
  0
TEXT
  5
160F3
330
747D
100
AcDbEntity
  8
文字
 62
     7
 48
50.0
100
AcDbText
 10
15022.63965474517
 20
10760.01374588372
 30
0.0
 40
100.0
  1
F12            1.0
  7
STYLE1
100
AcDbText
  0
TEXT
  5
160F4
330
747D
100
AcDbEntity
  8
文字
 62
     7
 48
50.0
100
AcDbText
 10
15022.63965474515
 20
8890.013745883726
 30
0.0
 40
100.0
  1
F12            0.8
  7
STYLE1
100
AcDbText
  0
TEXT
  5
160F5
330
747D
100
AcDbEntity
  8
文字
 62
     7
 48
50.0
100
AcDbText
 10
13583.11819016568
 20
8890.013745883729
 30
0.0
 40
100.0
  1
扉
  7
STYLE1
100
AcDbText
  0
TEXT
  5
160F6
330
747D
100
AcDbEntity
  8
文字
 62
     7
 48
50.0
100
AcDbText
 10
15022.63965474515
 20
8720.013745883729
 30
0.0
 40
100.0
  1
F12            0.6
  7
STYLE1
100
AcDbText
  0
TEXT
  5
160F7
330
747D
100
AcDbEntity
  8
文字
 62
     7
 48
50.0
100
AcDbText
 10
13583.11819016568
 20
8720.013745883733
 30
0.0
 40
100.0
  1
棚板
  7
STYLE1
100
AcDbText
  0
TEXT
  5
16102
330
747D
100
AcDbEntity
  8
文字
 62
     7
 48
50.0
100
AcDbText
 10
14271.39351435261
 20
483.8967129911411
 30
0.0
 40
160.0
  1
NXN-08WL-3
  7
STYLE2
100
AcDbText
  0
TEXT
  5
16A3C
330
747D
100
AcDbEntity
  8
部品1
100
AcDbText
 10
5753.165631500074
 20
2673.607166858619
 30
0.0
 40
135.0
  1
正面図
  7
STYLE2
100
AcDbText
  0
LWPOLYLINE
  5
16A3D
330
747D
100
AcDbEntity
  8
部品1
100
AcDbPolyline
 90
        4
 70
     1
 43
0.0
 10
5662.640227762121
 20
2866.500696077143
 10
5662.640227762121
 20
2626.60837453161
 10
6426.11089399056
 20
2626.60837453161
 10
6426.11089399056
 20
2866.500696077143
  0
DIMENSION
  5
1709C
330
747D
100
AcDbEntity
  8
寸法
 48
50.0
100
AcDbDimension
  2
*D7
 10
7324.375560876342
 20
6080.075840589954
 30
0.0
 11
6044.37556087634
 21
6080.075840589954
 31
0.0
 70
   160
 71
     5
 42
2560.000000000004
  3
INABA_S40G
100
AcDbAlignedDimension
 13
4764.375560876338
 23
5644.577276893866
 33
0.0
 14
7324.375560876342
 24
5644.577276893862
 34
0.0
100
AcDbRotatedDimension
  0
DIMENSION
  5
1709D
330
747D
100
AcDbEntity
  8
寸法
 48
50.0
100
AcDbDimension
  2
*D6
 10
4814.375560876339
 20
5857.118862152105
 30
0.0
 11
6044.37556087634
 21
5857.118862152105
 31
0.0
 70
   160
  1
柱外寸法<>
 71
     5
 42
2460.000000000004
  3
INABA_S40G
100
AcDbAlignedDimension
 13
7274.375560876342
 23
5644.577276893864
 33
0.0
 14
4814.375560876339
 24
5644.577276893869
 34
0.0
100
AcDbRotatedDimension
  0
DIMENSION
  5
1709E
330
747D
100
AcDbEntity
  8
寸法
 48
50.0
100
AcDbDimension
  2
*D5
 10
4764.375560876338
 20
5857.118862152105
 30
0.0
 11
4450.890279502091
 21
5857.118862152105
 31
0.0
 70
   160
 71
     5
 42
50.0
  3
INABA_S40G
100
AcDbAlignedDimension
 13
4814.375560876339
 23
5644.577276893869
 33
0.0
 14
4764.375560876338
 24
5644.577276893866
 34
0.0
100
AcDbRotatedDimension
1001
ACAD
1000
DSTYLE
1002
{
1002
}
  0
LINE
  5
1709F
330
747D
100
AcDbEntity
  8
細線
 48
50.0
100
AcDbLine
 10
4797.375560876338
 20
5644.577276893866
 30
0.0
 11
4797.375560876338
 21
5503.577276893864
 31
0.0
  0
ARC
  5
170A0
330
747D
100
AcDbEntity
  8
部品1
100
AcDbCircle
 10
4771.783981982768
 20
5637.577276893866
 30
0.0
 40
7.0
100
AcDbArc
 50
90.0
 51
183.2473427903377
  0
ARC
  5
170A1
330
747D
100
AcDbEntity
  8
部品1
100
AcDbCircle
 10
4784.999305443801
 20
5510.577276893868
 30
0.0
 40
7.0
100
AcDbArc
 50
183.2473427903377
 51
270.0
  0
ARC
  5
170A2
330
747D
100
AcDbEntity
  8
部品1
 48
50.0
100
AcDbCircle
 10
4766.627495233126
 20
5617.244276055553
 30
0.0
 40
0.7
100
AcDbArc
 50
183.2473427903897
 51
262.3418727926349
  0
ARC
  5
170A3
330
747D
100
AcDbEntity
  8
部品1
 48
50.0
100
AcDbCircle
 10
4774.863525757966
 20
5525.044276055549
 30
0.0
 40
0.7
100
AcDbArc
 50
183.2473427902856
 51
262.3418727926349
  0
ARC
  5
170A4
330
747D
100
AcDbEntity
  8
部品1
 48
50.0
100
AcDbCircle
 10
4774.370456649405
 20
5521.377276893865
 30
0.0
 40
3.0
100
AcDbArc
 50
3.247342790337682
 51
82.3418727926348
  0
ARC
  5
170A5
330
747D
100
AcDbEntity
  8
部品1
 48
50.0
100
AcDbCircle
 10
4766.134426124561
 20
5613.577276893866
 30
0.0
 40
3.0
100
AcDbArc
 50
3.247342790337682
 51
82.3418727926348
  0
LINE
  5
170A6
330
747D
100
AcDbEntity
  8
部品1
100
AcDbLine
 10
4769.129609020747
 20
5613.747216348969
 30
0.0
 11
4774.164649748858
 21
5525.004623516026
 31
0.0
  0
LINE
  5
170A7
330
747D
100
AcDbEntity
  8
部品1
100
AcDbLine
 10
4777.365639545594
 20
5521.547216348968
 30
0.0
 11
4778.010545352702
 21
5510.180751498626
 31
0.0
  0
LINE
  5
170A8
330
747D
100
AcDbEntity
  8
部品1
100
AcDbLine
 10
4764.795221891669
 20
5637.180751498625
 30
0.0
 11
4765.928619224018
 21
5617.204623516027
 31
0.0
  0
LINE
  5
170A9
330
747D
100
AcDbEntity
  8
部品1
 48
50.0
100
AcDbLine
 10
7316.967139769909
 20
5644.577276893862
 30
0.0
 11
4771.783981982768
 21
5644.577276893862
 31
0.0
  0
LINE
  5
170AA
330
747D
100
AcDbEntity
  8
細線
 48
50.0
100
AcDbLine
 10
7322.216909863695
 20
5616.55051945756
 30
0.0
 11
4766.534211886752
 21
5616.550519457862
 31
0.0
  0
LINE
  5
170AB
330
747D
100
AcDbEntity
  8
細線
 48
50.0
100
AcDbLine
 10
7313.980879338884
 20
5524.350519457561
 30
0.0
 11
4774.770242411585
 21
5524.350519457861
 31
0.0
  0
LINE
  5
170AC
330
747D
100
AcDbEntity
  8
部品1
 48
50.0
100
AcDbLine
 10
7303.751816308874
 20
5503.577276893862
 30
0.0
 11
4784.999305443801
 21
5503.577276893864
 31
0.0
  0
DIMENSION
  5
170F0
330
747D
100
AcDbEntity
  8
寸法
 48
50.0
100
AcDbDimension
  2
*D8
 10
7274.375560876342
 20
5857.118862152103
 30
0.0
 11
7637.860842250579
 21
5857.118862152103
 31
0.0
 70
   160
 71
     5
 42
50.0
  3
INABA_S40G
100
AcDbAlignedDimension
 13
7324.375560876342
 23
5644.577276893862
 33
0.0
 14
7274.375560876342
 24
5644.577276893864
 34
0.0
100
AcDbRotatedDimension
  0
LINE
  5
170F1
330
747D
100
AcDbEntity
  8
部品1
100
AcDbLine
 10
7323.955899861008
 20
5637.180751498623
 30
0.0
 11
7322.822502528663
 21
5617.204623516023
 31
0.0
  0
LINE
  5
170F2
330
747D
100
AcDbEntity
  8
細線
 48
50.0
100
AcDbLine
 10
7291.375560876343
 20
5644.577276893862
 30
0.0
 11
7291.375560876343
 21
5503.577276893862
 31
0.0
  0
LINE
  5
170F3
330
747D
100
AcDbEntity
  8
部品1
100
AcDbLine
 10
7311.385482207086
 20
5521.547216348965
 30
0.0
 11
7310.740576399973
 21
5510.180751498625
 31
0.0
  0
LINE
  5
170F4
330
747D
100
AcDbEntity
  8
部品1
100
AcDbLine
 10
7319.621512731931
 20
5613.747216348965
 30
0.0
 11
7314.586472003819
 21
5525.004623516022
 31
0.0
  0
ARC
  5
170F5
330
747D
100
AcDbEntity
  8
部品1
 48
50.0
100
AcDbCircle
 10
7322.616695628116
 20
5613.577276893864
 30
0.0
 40
3.0
100
AcDbArc
 50
97.65812720736519
 51
176.7526572096623
  0
ARC
  5
170F6
330
747D
100
AcDbEntity
  8
部品1
 48
50.0
100
AcDbCircle
 10
7314.380665103271
 20
5521.377276893861
 30
0.0
 40
3.0
100
AcDbArc
 50
97.65812720736519
 51
176.7526572096623
  0
ARC
  5
170F7
330
747D
100
AcDbEntity
  8
部品1
 48
50.0
100
AcDbCircle
 10
7313.887595994711
 20
5525.044276055545
 30
0.0
 40
0.7
100
AcDbArc
 50
277.6581272073652
 51
356.7526572097143
  0
ARC
  5
170F8
330
747D
100
AcDbEntity
  8
部品1
 48
50.0
100
AcDbCircle
 10
7322.123626519554
 20
5617.24427605555
 30
0.0
 40
0.7
100
AcDbArc
 50
277.6581272073652
 51
356.7526572096103
  0
ARC
  5
170F9
330
747D
100
AcDbEntity
  8
部品1
100
AcDbCircle
 10
7303.751816308874
 20
5510.577276893864
 30
0.0
 40
7.0
100
AcDbArc
 50
270.0
 51
356.7526572096623
  0
ARC
  5
170FA
330
747D
100
AcDbEntity
  8
部品1
100
AcDbCircle
 10
7316.967139769909
 20
5637.577276893862
 30
0.0
 40
7.0
100
AcDbArc
 50
356.7526572096623
 51
90.0
  0
ARC
  5
1718B
330
747D
100
AcDbEntity
  8
部品1
 48
0.01
100
AcDbCircle
 10
5312.375560876346
 20
5442.077276893859
 30
0.0
 40
2.0
100
AcDbArc
 50
270.0
 51
0.0
  0
ARC
  5
1718C
330
747D
100
AcDbEntity
  8
部品1
 48
0.01
100
AcDbCircle
 10
5312.375560876346
 20
5473.577276893859
 30
0.0
 40
2.0
100
AcDbArc
 50
0.0
 51
90.0
  0
ARC
  5
1718D
330
747D
100
AcDbEntity
  8
部品1
 48
0.01
100
AcDbCircle
 10
5136.375560876346
 20
5442.077276893859
 30
0.0
 40
2.0
100
AcDbArc
 50
180.0
 51
270.0
  0
ARC
  5
1718E
330
747D
100
AcDbEntity
  8
部品1
 48
0.01
100
AcDbCircle
 10
5136.375560876346
 20
5473.577276893859
 30
0.0
 40
2.0
100
AcDbArc
 50
90.0
 51
180.0
  0
LINE
  5
1718F
330
747D
100
AcDbEntity
  8
細線
100
AcDbLine
 10
5224.375560876346
 20
5446.077276893859
 30
0.0
 11
5298.375560876346
 21
5446.077276893859
 31
0.0
  0
LINE
  5
17190
330
747D
100
AcDbEntity
  8
細線
100
AcDbLine
 10
5224.375560876346
 20
5469.077276893859
 30
0.0
 11
5150.375560876346
 21
5469.077276893859
 31
0.0
  0
LINE
  5
17191
330
747D
100
AcDbEntity
  8
細線
100
AcDbLine
 10
5150.375560876346
 20
5446.077276893859
 30
0.0
 11
5224.375560876346
 21
5446.077276893859
 31
0.0
  0
LINE
  5
17192
330
747D
100
AcDbEntity
  8
細線
100
AcDbLine
 10
5298.375560876346
 20
5469.077276893859
 30
0.0
 11
5224.375560876346
 21
5469.077276893859
 31
0.0
  0
LINE
  5
17193
330
747D
100
AcDbEntity
  8
細線
100
AcDbLine
 10
5298.375560876346
 20
5446.077276893859
 30
0.0
 11
5298.375560876346
 21
5469.077276893859
 31
0.0
  0
LINE
  5
17194
330
747D
100
AcDbEntity
  8
細線
100
AcDbLine
 10
5150.375560876346
 20
5469.077276893859
 30
0.0
 11
5150.375560876346
 21
5446.077276893859
 31
0.0
  0
LINE
  5
17195
330
747D
100
AcDbEntity
  8
部品1
 48
0.01
100
AcDbLine
 10
5314.375560876346
 20
5442.077276893859
 30
0.0
 11
5314.375560876346
 21
5473.577276893859
 31
0.0
  0
LINE
  5
17196
330
747D
100
AcDbEntity
  8
部品1
 48
0.01
100
AcDbLine
 10
5136.375560876346
 20
5440.077276893859
 30
0.0
 11
5312.375560876346
 21
5440.077276893859
 31
0.0
  0
LINE
  5
17197
330
747D
100
AcDbEntity
  8
部品1
 48
0.01
100
AcDbLine
 10
5134.375560876346
 20
5473.577276893859
 30
0.0
 11
5134.375560876346
 21
5442.077276893859
 31
0.0
  0
LINE
  5
17198
330
747D
100
AcDbEntity
  8
部品1
 48
0.01
100
AcDbLine
 10
5312.375560876346
 20
5475.577276893858
 30
0.0
 11
5136.375560876346
 21
5475.577276893858
 31
0.0
  0
LINE
  5
17199
330
747D
100
AcDbEntity
  8
細線
100
AcDbLine
 10
5150.375560876346
 20
5463.077276893859
 30
0.0
 11
5224.375560876346
 21
5463.077276893859
 31
0.0
  0
LINE
  5
1719A
330
747D
100
AcDbEntity
  8
細線
100
AcDbLine
 10
5150.375560876346
 20
5457.077276893858
 30
0.0
 11
5224.375560876346
 21
5457.077276893858
 31
0.0
  0
LINE
  5
1719B
330
747D
100
AcDbEntity
  8
細線
100
AcDbLine
 10
5150.375560876346
 20
5451.077276893858
 30
0.0
 11
5224.375560876346
 21
5451.077276893858
 31
0.0
  0
LINE
  5
1719C
330
747D
100
AcDbEntity
  8
細線
100
AcDbLine
 10
5150.375560876346
 20
5463.077276893859
 30
0.0
 11
5219.375560876346
 21
5463.077276893859
 31
0.0
  0
LINE
  5
1719D
330
747D
100
AcDbEntity
  8
細線
100
AcDbLine
 10
5298.375560876346
 20
5463.077276893859
 30
0.0
 11
5224.375560876346
 21
5463.077276893859
 31
0.0
  0
LINE
  5
1719E
330
747D
100
AcDbEntity
  8
細線
100
AcDbLine
 10
5298.375560876346
 20
5451.077276893858
 30
0.0
 11
5224.375560876346
 21
5451.077276893858
 31
0.0
  0
LINE
  5
1719F
330
747D
100
AcDbEntity
  8
細線
100
AcDbLine
 10
5298.375560876346
 20
5457.077276893858
 30
0.0
 11
5224.375560876346
 21
5457.077276893858
 31
0.0
  0
LINE
  5
171A0
330
747D
100
AcDbEntity
  8
細線
100
AcDbLine
 10
5224.375560876346
 20
5469.077276893859
 30
0.0
 11
5224.375560876346
 21
5446.077276893859
 31
0.0
  0
LINE
  5
171A1
330
747D
100
AcDbEntity
  8
細線
100
AcDbLine
 10
6044.375560876345
 20
5469.077276893859
 30
0.0
 11
6044.375560876345
 21
5446.077276893859
 31
0.0
  0
LINE
  5
171A2
330
747D
100
AcDbEntity
  8
細線
100
AcDbLine
 10
6118.375560876344
 20
5457.077276893858
 30
0.0
 11
6044.375560876345
 21
5457.077276893858
 31
0.0
  0
LINE
  5
171A3
330
747D
100
AcDbEntity
  8
細線
100
AcDbLine
 10
6118.375560876344
 20
5451.077276893858
 30
0.0
 11
6044.375560876345
 21
5451.077276893858
 31
0.0
  0
LINE
  5
171A4
330
747D
100
AcDbEntity
  8
細線
100
AcDbLine
 10
6118.375560876344
 20
5463.077276893859
 30
0.0
 11
6044.375560876345
 21
5463.077276893859
 31
0.0
  0
LINE
  5
171A5
330
747D
100
AcDbEntity
  8
細線
100
AcDbLine
 10
5970.375560876345
 20
5463.077276893859
 30
0.0
 11
6039.375560876345
 21
5463.077276893859
 31
0.0
  0
LINE
  5
171A6
330
747D
100
AcDbEntity
  8
細線
100
AcDbLine
 10
5970.375560876345
 20
5451.077276893858
 30
0.0
 11
6044.375560876345
 21
5451.077276893858
 31
0.0
  0
LINE
  5
171A7
330
747D
100
AcDbEntity
  8
細線
100
AcDbLine
 10
5970.375560876345
 20
5457.077276893858
 30
0.0
 11
6044.375560876345
 21
5457.077276893858
 31
0.0
  0
LINE
  5
171A8
330
747D
100
AcDbEntity
  8
細線
100
AcDbLine
 10
5970.375560876345
 20
5463.077276893859
 30
0.0
 11
6044.375560876345
 21
5463.077276893859
 31
0.0
  0
LINE
  5
171A9
330
747D
100
AcDbEntity
  8
部品1
 48
0.01
100
AcDbLine
 10
6132.375560876345
 20
5475.577276893858
 30
0.0
 11
5956.375560876345
 21
5475.577276893858
 31
0.0
  0
LINE
  5
171AA
330
747D
100
AcDbEntity
  8
部品1
 48
0.01
100
AcDbLine
 10
5954.375560876345
 20
5473.577276893859
 30
0.0
 11
5954.375560876345
 21
5442.077276893859
 31
0.0
  0
LINE
  5
171AB
330
747D
100
AcDbEntity
  8
部品1
 48
0.01
100
AcDbLine
 10
5956.375560876345
 20
5440.077276893859
 30
0.0
 11
6132.375560876345
 21
5440.077276893859
 31
0.0
  0
LINE
  5
171AC
330
747D
100
AcDbEntity
  8
部品1
 48
0.01
100
AcDbLine
 10
6134.375560876345
 20
5442.077276893859
 30
0.0
 11
6134.375560876345
 21
5473.577276893859
 31
0.0
  0
LINE
  5
171AD
330
747D
100
AcDbEntity
  8
細線
100
AcDbLine
 10
5970.375560876345
 20
5469.077276893859
 30
0.0
 11
5970.375560876345
 21
5446.077276893859
 31
0.0
  0
LINE
  5
171AE
330
747D
100
AcDbEntity
  8
細線
100
AcDbLine
 10
6118.375560876344
 20
5446.077276893859
 30
0.0
 11
6118.375560876344
 21
5469.077276893859
 31
0.0
  0
LINE
  5
171AF
330
747D
100
AcDbEntity
  8
細線
100
AcDbLine
 10
6118.375560876344
 20
5469.077276893859
 30
0.0
 11
6044.375560876345
 21
5469.077276893859
 31
0.0
  0
LINE
  5
171B0
330
747D
100
AcDbEntity
  8
細線
100
AcDbLine
 10
5970.375560876345
 20
5446.077276893859
 30
0.0
 11
6044.375560876345
 21
5446.077276893859
 31
0.0
  0
LINE
  5
171B1
330
747D
100
AcDbEntity
  8
細線
100
AcDbLine
 10
6044.375560876345
 20
5469.077276893859
 30
0.0
 11
5970.375560876345
 21
5469.077276893859
 31
0.0
  0
LINE
  5
171B2
330
747D
100
AcDbEntity
  8
細線
100
AcDbLine
 10
6044.375560876345
 20
5446.077276893859
 30
0.0
 11
6118.375560876344
 21
5446.077276893859
 31
0.0
  0
ARC
  5
171B3
330
747D
100
AcDbEntity
  8
部品1
 48
0.01
100
AcDbCircle
 10
5956.375560876345
 20
5473.577276893859
 30
0.0
 40
2.0
100
AcDbArc
 50
90.0
 51
180.0
  0
ARC
  5
171B4
330
747D
100
AcDbEntity
  8
部品1
 48
0.01
100
AcDbCircle
 10
5956.375560876345
 20
5442.077276893859
 30
0.0
 40
2.0
100
AcDbArc
 50
180.0
 51
270.0
  0
ARC
  5
171B5
330
747D
100
AcDbEntity
  8
部品1
 48
0.01
100
AcDbCircle
 10
6132.375560876345
 20
5473.577276893859
 30
0.0
 40
2.0
100
AcDbArc
 50
0.0
 51
90.0
  0
ARC
  5
171B6
330
747D
100
AcDbEntity
  8
部品1
 48
0.01
100
AcDbCircle
 10
6132.375560876345
 20
5442.077276893859
 30
0.0
 40
2.0
100
AcDbArc
 50
270.0
 51
0.0
  0
ARC
  5
171B7
330
747D
100
AcDbEntity
  8
部品1
 48
0.01
100
AcDbCircle
 10
6952.375560876348
 20
5442.077276893859
 30
0.0
 40
2.0
100
AcDbArc
 50
270.0
 51
0.0
  0
ARC
  5
171B8
330
747D
100
AcDbEntity
  8
部品1
 48
0.01
100
AcDbCircle
 10
6952.375560876348
 20
5473.577276893859
 30
0.0
 40
2.0
100
AcDbArc
 50
0.0
 51
90.0
  0
ARC
  5
171B9
330
747D
100
AcDbEntity
  8
部品1
 48
0.01
100
AcDbCircle
 10
6776.375560876347
 20
5442.077276893859
 30
0.0
 40
2.0
100
AcDbArc
 50
180.0
 51
270.0
  0
ARC
  5
171BA
330
747D
100
AcDbEntity
  8
部品1
 48
0.01
100
AcDbCircle
 10
6776.375560876347
 20
5473.577276893859
 30
0.0
 40
2.0
100
AcDbArc
 50
90.0
 51
180.0
  0
LINE
  5
171BB
330
747D
100
AcDbEntity
  8
細線
100
AcDbLine
 10
6864.375560876348
 20
5446.077276893859
 30
0.0
 11
6938.375560876348
 21
5446.077276893859
 31
0.0
  0
LINE
  5
171BC
330
747D
100
AcDbEntity
  8
細線
100
AcDbLine
 10
6864.375560876348
 20
5469.077276893859
 30
0.0
 11
6790.375560876348
 21
5469.077276893859
 31
0.0
  0
LINE
  5
171BD
330
747D
100
AcDbEntity
  8
細線
100
AcDbLine
 10
6790.375560876348
 20
5446.077276893859
 30
0.0
 11
6864.375560876348
 21
5446.077276893859
 31
0.0
  0
LINE
  5
171BE
330
747D
100
AcDbEntity
  8
細線
100
AcDbLine
 10
6938.375560876348
 20
5469.077276893859
 30
0.0
 11
6864.375560876348
 21
5469.077276893859
 31
0.0
  0
LINE
  5
171BF
330
747D
100
AcDbEntity
  8
細線
100
AcDbLine
 10
6938.375560876348
 20
5446.077276893859
 30
0.0
 11
6938.375560876348
 21
5469.077276893859
 31
0.0
  0
LINE
  5
171C0
330
747D
100
AcDbEntity
  8
細線
100
AcDbLine
 10
6790.375560876348
 20
5469.077276893859
 30
0.0
 11
6790.375560876348
 21
5446.077276893859
 31
0.0
  0
LINE
  5
171C1
330
747D
100
AcDbEntity
  8
部品1
 48
0.01
100
AcDbLine
 10
6954.375560876347
 20
5442.077276893859
 30
0.0
 11
6954.375560876347
 21
5473.577276893859
 31
0.0
  0
LINE
  5
171C2
330
747D
100
AcDbEntity
  8
部品1
 48
0.01
100
AcDbLine
 10
6776.375560876347
 20
5440.077276893859
 30
0.0
 11
6952.375560876348
 21
5440.077276893859
 31
0.0
  0
LINE
  5
171C3
330
747D
100
AcDbEntity
  8
部品1
 48
0.01
100
AcDbLine
 10
6774.375560876348
 20
5473.577276893859
 30
0.0
 11
6774.375560876348
 21
5442.077276893859
 31
0.0
  0
LINE
  5
171C4
330
747D
100
AcDbEntity
  8
部品1
 48
0.01
100
AcDbLine
 10
6952.375560876348
 20
5475.577276893858
 30
0.0
 11
6776.375560876347
 21
5475.577276893858
 31
0.0
  0
LINE
  5
171C5
330
747D
100
AcDbEntity
  8
細線
100
AcDbLine
 10
6790.375560876348
 20
5463.077276893859
 30
0.0
 11
6864.375560876348
 21
5463.077276893859
 31
0.0
  0
LINE
  5
171C6
330
747D
100
AcDbEntity
  8
細線
100
AcDbLine
 10
6790.375560876348
 20
5457.077276893858
 30
0.0
 11
6864.375560876348
 21
5457.077276893858
 31
0.0
  0
LINE
  5
171C7
330
747D
100
AcDbEntity
  8
細線
100
AcDbLine
 10
6790.375560876348
 20
5451.077276893858
 30
0.0
 11
6864.375560876348
 21
5451.077276893858
 31
0.0
  0
LINE
  5
171C8
330
747D
100
AcDbEntity
  8
細線
100
AcDbLine
 10
6790.375560876348
 20
5463.077276893859
 30
0.0
 11
6859.375560876348
 21
5463.077276893859
 31
0.0
  0
LINE
  5
171C9
330
747D
100
AcDbEntity
  8
細線
100
AcDbLine
 10
6938.375560876348
 20
5463.077276893859
 30
0.0
 11
6864.375560876348
 21
5463.077276893859
 31
0.0
  0
LINE
  5
171CA
330
747D
100
AcDbEntity
  8
細線
100
AcDbLine
 10
6938.375560876348
 20
5451.077276893858
 30
0.0
 11
6864.375560876348
 21
5451.077276893858
 31
0.0
  0
LINE
  5
171CB
330
747D
100
AcDbEntity
  8
細線
100
AcDbLine
 10
6938.375560876348
 20
5457.077276893858
 30
0.0
 11
6864.375560876348
 21
5457.077276893858
 31
0.0
  0
LINE
  5
171CC
330
747D
100
AcDbEntity
  8
細線
100
AcDbLine
 10
6864.375560876348
 20
5469.077276893859
 30
0.0
 11
6864.375560876348
 21
5446.077276893859
 31
0.0
  0
LINE
  5
1796A
330
747D
100
AcDbEntity
  8
部品1
 48
50.0
100
AcDbLine
 10
9654.245103391943
 20
5398.827276893861
 30
0.0
 11
9661.247473436722
 21
5398.827276893861
 31
0.0
  0
LINE
  5
1796B
330
747D
100
AcDbEntity
  8
部品1
 48
0.2
100
AcDbLine
 10
9654.245103391943
 20
5409.577276893861
 30
0.0
 11
9654.245103391943
 21
5398.827276893862
 31
0.0
  0
LINE
  5
1796C
330
747D
100
AcDbEntity
  8
部品1
 48
50.0
100
AcDbLine
 10
9654.245103391943
 20
3619.577276893864
 30
0.0
 11
9661.247473436722
 21
3619.577276893864
 31
0.0
  0
LINE
  5
1796D
330
747D
100
AcDbEntity
  8
部品1
 48
0.2
100
AcDbLine
 10
9654.245103391943
 20
3630.327276893864
 30
0.0
 11
9654.245103391943
 21
3619.577276893864
 31
0.0
  0
LINE
  5
1796E
330
747D
100
AcDbEntity
  8
部品1
 48
50.0
100
AcDbLine
 10
9654.245103391943
 20
3630.327276893864
 30
0.0
 11
9661.247473436722
 21
3630.327276893864
 31
0.0
  0
DIMENSION
  5
1796F
330
747D
100
AcDbEntity
  8
寸法
100
AcDbDimension
  2
*D9
 10
9059.284382744518
 20
3569.577276893863
 30
0.0
 11
9059.284382744518
 21
3263.530032799372
 31
0.0
 70
   160
 71
     5
 42
50.00000000000182
  3
INABA_S40G
100
AcDbAlignedDimension
 13
9654.245103391943
 23
3619.577276893864
 33
0.0
 14
9606.247473436722
 24
3569.577276893863
 34
0.0
 50
90.0
100
AcDbRotatedDimension
1001
ACAD
1000
DSTYLE
1002
{
1070
   174
1070
     0
1070
   272
1070
     1
1070
   288
1070
     0
1070
   341
1005
0
1002
}
  0
DIMENSION
  5
17970
330
747D
100
AcDbEntity
  8
寸法
100
AcDbDimension
  2
*D10
 10
9059.284382744518
 20
3619.577276893865
 30
0.0
 11
9059.284382744518
 21
4524.612288770249
 31
0.0
 70
   160
 71
     5
 42
1789.999999999997
  3
INABA_S40G
100
AcDbAlignedDimension
 13
9654.245103391943
 23
5409.577276893862
 33
0.0
 14
9654.245103391943
 24
3619.577276893864
 34
0.0
 50
90.0
100
AcDbRotatedDimension
1001
ACAD
1000
DSTYLE
1002
{
1070
   288
1070
     1
1002
}
  0
DIMENSION
  5
179B9
330
747D
100
AcDbEntity
  8
寸法
 48
50.0
100
AcDbDimension
  2
*D11
 10
11141.65601137055
 20
5589.57727689386
 30
0.0
 11
11141.65601137055
 21
4521.501672958286
 31
0.0
 70
   160
 71
     5
 42
2020.000000000001
  3
INABA_S40
100
AcDbAlignedDimension
 13
10611.24747343672
 23
3569.57727689386
 33
0.0
 14
10691.24747343673
 24
5589.57727689386
 34
0.0
 50
90.0
100
AcDbRotatedDimension
1001
ACAD
1000
DSTYLE
1002
{
1070
    41
1040
0.5
1070
    44
1040
1.0
1070
   147
1040
0.8
1070
   271
1070
     2
1070
   272
1070
     2
1070
   289
1070
     3
1070
   340
1005
F706
1070
   343
1005
15E1F
1070
   344
1005
15E1F
1002
}
  0
LINE
  5
179BA
330
747D
100
AcDbEntity
  8
部品1
100
AcDbLine
 10
10611.24747343672
 20
5465.363037099148
 30
0.0
 11
10611.24747343672
 21
3469.57727689386
 31
0.0
  0
LINE
  5
179BB
330
747D
100
AcDbEntity
  8
部品1
100
AcDbLine
 10
9661.247473436722
 20
5500.697314378673
 30
0.0
 11
9661.247473436722
 21
3469.57727689386
 31
0.0
  0
LINE
  5
179BC
330
747D
100
AcDbEntity
  8
部品1
100
AcDbLine
 10
10556.24747343672
 20
5409.577276893861
 30
0.0
 11
10556.24747343672
 21
3619.57727689386
 31
0.0
  0
LINE
  5
179BD
330
747D
100
AcDbEntity
  8
部品1
100
AcDbLine
 10
9716.247473436721
 20
5409.577276893861
 30
0.0
 11
9716.247473436721
 21
3619.57727689386
 31
0.0
  0
LINE
  5
179BE
330
747D
100
AcDbEntity
  8
部品1
100
AcDbLine
 10
10136.24747343672
 20
5409.577276893861
 30
0.0
 11
10136.24747343672
 21
3619.57727689386
 31
0.0
  0
LINE
  5
179BF
330
747D
100
AcDbEntity
  8
部品1
100
AcDbLine
 10
9661.247473436722
 20
3619.57727689386
 30
0.0
 11
10611.24747343672
 21
3619.57727689386
 31
0.0
  0
LINE
  5
179C0
330
747D
100
AcDbEntity
  8
部品1
100
AcDbLine
 10
9661.247473436722
 20
3569.57727689386
 30
0.0
 11
10611.24747343672
 21
3569.57727689386
 31
0.0
  0
LINE
  5
179C1
330
747D
100
AcDbEntity
  8
部品1
100
AcDbLine
 10
9654.245103391943
 20
5409.577276893861
 30
0.0
 11
10611.24747343672
 21
5409.577276893861
 31
0.0
  0
LINE
  5
179C2
330
747D
100
AcDbEntity
  8
細線
 48
50.0
100
AcDbLine
 10
10478.74747343672
 20
5409.577276893861
 30
0.0
 11
10478.74747343672
 21
3619.57727689386
 31
0.0
  0
LINE
  5
179C3
330
747D
100
AcDbEntity
  8
細線
 48
50.0
100
AcDbLine
 10
10493.74747343672
 20
5409.577276893861
 30
0.0
 11
10493.74747343672
 21
3619.57727689386
 31
0.0
  0
LINE
  5
179C4
330
747D
100
AcDbEntity
  8
細線
 48
50.0
100
AcDbLine
 10
10353.74747343672
 20
5409.577276893861
 30
0.0
 11
10353.74747343672
 21
3619.57727689386
 31
0.0
  0
LINE
  5
179C5
330
747D
100
AcDbEntity
  8
細線
 48
50.0
100
AcDbLine
 10
10338.74747343672
 20
5409.577276893861
 30
0.0
 11
10338.74747343672
 21
3619.57727689386
 31
0.0
  0
LINE
  5
179C6
330
747D
100
AcDbEntity
  8
細線
 48
50.0
100
AcDbLine
 10
10198.74747343672
 20
5409.577276893861
 30
0.0
 11
10198.74747343672
 21
3619.57727689386
 31
0.0
  0
LINE
  5
179C7
330
747D
100
AcDbEntity
  8
細線
 48
50.0
100
AcDbLine
 10
10213.74747343672
 20
5409.577276893861
 30
0.0
 11
10213.74747343672
 21
3619.57727689386
 31
0.0
  0
LINE
  5
179C8
330
747D
100
AcDbEntity
  8
細線
 48
50.0
100
AcDbLine
 10
10058.74747343672
 20
5409.577276893861
 30
0.0
 11
10058.74747343672
 21
3619.57727689386
 31
0.0
  0
LINE
  5
179C9
330
747D
100
AcDbEntity
  8
細線
 48
50.0
100
AcDbLine
 10
10073.74747343672
 20
5409.577276893861
 30
0.0
 11
10073.74747343672
 21
3619.57727689386
 31
0.0
  0
LINE
  5
179CA
330
747D
100
AcDbEntity
  8
細線
 48
50.0
100
AcDbLine
 10
9933.747473436724
 20
5409.577276893861
 30
0.0
 11
9933.747473436724
 21
3619.57727689386
 31
0.0
  0
LINE
  5
179CB
330
747D
100
AcDbEntity
  8
細線
 48
50.0
100
AcDbLine
 10
9918.747473436724
 20
5409.577276893861
 30
0.0
 11
9918.747473436724
 21
3619.57727689386
 31
0.0
  0
LINE
  5
179CC
330
747D
100
AcDbEntity
  8
細線
 48
50.0
100
AcDbLine
 10
9778.747473436725
 20
5409.577276893861
 30
0.0
 11
9778.747473436725
 21
3619.57727689386
 31
0.0
  0
LINE
  5
179CD
330
747D
100
AcDbEntity
  8
細線
 48
50.0
100
AcDbLine
 10
9793.747473436724
 20
5409.577276893861
 30
0.0
 11
9793.747473436724
 21
3619.57727689386
 31
0.0
  0
DIMENSION
  5
179CE
330
747D
100
AcDbEntity
  8
寸法
 48
50.0
100
AcDbDimension
  2
*D12
 10
10691.24747343672
 20
6043.234730473165
 30
0.0
 11
10897.29471753121
 21
6043.234730473165
 31
0.0
 70
   160
 71
     5
 42
80.0
  3
INABA_S40G
100
AcDbAlignedDimension
 13
10611.24747343672
 23
5591.387956505514
 33
0.0
 14
10691.24747343672
 24
5589.577276893862
 34
0.0
100
AcDbRotatedDimension
1001
ACAD
1000
DSTYLE
1002
{
1070
   174
1070
     0
1070
   272
1070
     1
1070
   288
1070
     0
1070
   341
1005
0
1002
}
  0
DIMENSION
  5
179CF
330
747D
100
AcDbEntity
  8
寸法
 48
50.0
100
AcDbDimension
  2
*D13
 10
9601.247473436721
 20
6277.937939113255
 30
0.0
 11
10148.16443385108
 21
6277.937939113255
 31
0.0
 70
   160
 71
     5
 42
1090.0
  3
INABA_S40G
100
AcDbAlignedDimension
 13
10691.24747343672
 23
5589.577276893862
 33
0.0
 14
9601.247473436721
 24
5644.577276893866
 34
0.0
100
AcDbRotatedDimension
1001
ACAD
1000
DSTYLE
1002
{
1070
   174
1070
     0
1070
   272
1070
     1
1070
   288
1070
     0
1070
   341
1005
0
1002
}
  0
DIMENSION
  5
179D0
330
747D
100
AcDbEntity
  8
寸法
 48
50.0
100
AcDbDimension
  2
*D14
 10
9661.247473436722
 20
6043.234730473165
 30
0.0
 11
10157.95927566761
 21
6043.234730473165
 31
0.0
 70
   160
  1
柱外寸法<>
 71
     5
 42
950.0
  3
INABA_S40G
100
AcDbAlignedDimension
 13
10611.24747343672
 23
5591.387956505514
 33
0.0
 14
9661.247473436722
 24
5640.578895016837
 34
0.0
100
AcDbRotatedDimension
1001
ACAD
1000
DSTYLE
1002
{
1070
   174
1070
     0
1070
   272
1070
     1
1070
   288
1070
     0
1070
   341
1005
0
1002
}
  0
DIMENSION
  5
179D1
330
747D
100
AcDbEntity
  8
寸法
 48
50.0
100
AcDbDimension
  2
*D15
 10
9601.247473436721
 20
6043.234730473165
 30
0.0
 11
9291.60967816113
 21
6043.234730473165
 31
0.0
 70
   160
 71
     5
 42
60.0
  3
INABA_S40G
100
AcDbAlignedDimension
 13
9661.247473436722
 23
5640.578895016837
 33
0.0
 14
9601.247473436721
 24
5644.577276893866
 34
0.0
100
AcDbRotatedDimension
1001
ACAD
1000
DSTYLE
1002
{
1070
   174
1070
     0
1070
   272
1070
     1
1070
   288
1070
     0
1070
   341
1005
0
1002
}
  0
DIMENSION
  5
179D2
330
747D
100
AcDbEntity
  8
寸法
 48
50.0
100
AcDbDimension
  2
*D16
 10
9040.639066668356
 20
5518.922535767192
 30
0.0
 11
9051.304541927279
 21
5889.769199008892
 31
0.0
 70
   161
 71
     5
 42
141.0000000000009
  3
INABA_S40G
100
AcDbAlignedDimension
 13
9620.6434935953
 23
5643.300025728541
 33
0.0
 14
9616.590038038674
 24
5502.358301962828
 34
0.0
1001
ACAD
1000
DSTYLE
1002
{
1070
   174
1070
     0
1070
   272
1070
     1
1070
   288
1070
     0
1070
   341
1005
0
1002
}
  0
LINE
  5
179D3
330
747D
100
AcDbEntity
  8
部品1
 48
50.0
100
AcDbLine
 10
9996.247473436721
 20
5775.44541599514
 30
0.0
 11
10296.24747343672
 21
5759.245415995142
 31
0.0
  0
TEXT
  5
179D4
330
747D
100
AcDbEntity
  8
部品1
 48
50.0
100
AcDbText
 10
10473.34032072458
 20
5673.828179929291
 30
0.0
 40
120.0
  1
104
 50
90.0
  7
STYLE1
100
AcDbText
  0
LINE
  5
179D5
330
747D
100
AcDbEntity
  8
部品1
 48
50.0
100
AcDbLine
 10
10296.24747343672
 20
5775.44541599514
 30
0.0
 11
10296.24747343672
 21
5759.245415995142
 31
0.0
  0
LINE
  5
179D6
330
747D
100
AcDbEntity
  8
部品1
 48
50.0
100
AcDbLine
 10
9996.247473436721
 20
5775.44541599514
 30
0.0
 11
10296.24747343672
 21
5775.44541599514
 31
0.0
  0
ARC
  5
179D7
330
747D
100
AcDbEntity
  8
部品1
100
AcDbCircle
 10
10676.87500925065
 20
5483.601034159654
 30
0.0
 40
0.7
100
AcDbArc
 50
275.0921697642079
 51
354.1866997667034
  0
ARC
  5
179D8
330
747D
100
AcDbEntity
  8
部品1
100
AcDbCircle
 10
10687.73435499998
 20
5560.644288977577
 30
0.0
 40
0.7
100
AcDbArc
 50
275.0921697642079
 51
354.1866997665479
  0
ARC
  5
179D9
330
747D
100
AcDbEntity
  8
部品1
100
AcDbCircle
 10
10688.06276024258
 20
5556.958892120487
 30
0.0
 40
3.0
100
AcDbArc
 50
95.09216976442012
 51
174.1866997665479
  0
ARC
  5
179DA
330
747D
100
AcDbEntity
  8
部品1
100
AcDbCircle
 10
10677.20341449325
 20
5479.915637302564
 30
0.0
 40
3.0
100
AcDbArc
 50
95.09216976420788
 51
174.1866997665479
  0
ARC
  5
179DB
330
747D
100
AcDbEntity
  8
部品1
 48
50.0
100
AcDbCircle
 10
10666.17527921815
 20
5470.32489269868
 30
0.0
 40
7.0
100
AcDbArc
 50
267.8377559871574
 51
354.1866997665479
  0
ARC
  5
179DC
330
747D
100
AcDbEntity
  8
部品1
 48
50.0
100
AcDbCircle
 10
10683.49737568266
 20
5581.227439840853
 30
0.0
 40
7.0
100
AcDbArc
 50
354.1866997665479
 51
87.03587545304044
  0
LINE
  5
179DD
330
747D
100
AcDbEntity
  8
部品1
 48
50.0
100
AcDbLine
 10
10674.21884282264
 20
5480.219499019465
 30
0.0
 11
10673.1392797829
 21
5469.615882025906
 31
0.0
  0
LINE
  5
179DE
330
747D
100
AcDbEntity
  8
部品1
 48
50.0
100
AcDbLine
 10
10685.07818857197
 20
5557.262753837391
 30
0.0
 11
10677.57140930713
 21
5483.530133092378
 31
0.0
  0
LINE
  5
179DF
330
747D
100
AcDbEntity
  8
部品1
 48
50.0
100
AcDbLine
 10
10690.46137624742
 20
5580.51842916808
 30
0.0
 11
10688.43075505645
 21
5560.573387910299
 31
0.0
  0
ARC
  5
179E0
330
747D
100
AcDbEntity
  8
部品1
100
AcDbCircle
 10
9607.284565308084
 20
5523.391435852765
 30
0.0
 40
0.7
100
AcDbArc
 50
181.0932240292114
 51
260.1877540314845
  0
ARC
  5
179E1
330
747D
100
AcDbEntity
  8
部品1
100
AcDbCircle
 10
9602.511891710477
 20
5616.257214052884
 30
0.0
 40
0.7
100
AcDbArc
 50
181.0932240292114
 51
260.1877540314845
  0
ARC
  5
179E2
330
747D
100
AcDbEntity
  8
部品1
100
AcDbCircle
 10
9601.881337307455
 20
5612.611339515486
 30
0.0
 40
3.0
100
AcDbArc
 50
1.093224029263536
 51
80.18775403148449
  0
ARC
  5
179E3
330
747D
100
AcDbEntity
  8
部品1
100
AcDbCircle
 10
9606.65401090506
 20
5519.745561315367
 30
0.0
 40
3.0
100
AcDbArc
 50
1.093224029263536
 51
80.18775403148449
  0
ARC
  5
179E4
330
747D
100
AcDbEntity
  8
部品1
 48
50.0
100
AcDbCircle
 10
9616.854143280264
 20
5509.353317932886
 30
0.0
 40
7.0
100
AcDbArc
 50
181.0932240292635
 51
267.8377559871574
  0
ARC
  5
179E5
330
747D
100
AcDbEntity
  8
部品1
 48
50.0
100
AcDbCircle
 10
9608.430485178168
 20
5636.304377465982
 30
0.0
 40
7.0
100
AcDbArc
 50
87.03587545304044
 51
181.0932240292635
  0
LINE
  5
179E6
330
747D
100
AcDbEntity
  8
部品1
 48
50.0
100
AcDbLine
 10
9609.653464831492
 20
5519.802798918551
 30
0.0
 11
9609.855417451925
 21
5509.219763525457
 31
0.0
  0
LINE
  5
179E7
330
747D
100
AcDbEntity
  8
細線
 48
50.0
100
AcDbLine
 10
9607.047371774822
 20
5522.73284703736
 30
0.0
 11
10677.05103620545
 21
5482.923528062865
 31
0.0
  0
LINE
  5
179E8
330
747D
100
AcDbEntity
  8
細線
 48
50.0
100
AcDbLine
 10
9602.286896537535
 20
5615.594358735223
 30
0.0
 11
10687.9228812827
 21
5559.970154094395
 31
0.0
  0
LINE
  5
179E9
330
747D
100
AcDbEntity
  8
部品1
 48
50.0
100
AcDbLine
 10
9604.880791233886
 20
5612.668577118669
 30
0.0
 11
9606.584692725249
 21
5523.378080412023
 31
0.0
  0
LINE
  5
179EA
330
747D
100
AcDbEntity
  8
部品1
 48
50.0
100
AcDbLine
 10
9601.431759349829
 20
5636.170823058553
 30
0.0
 11
9601.81201912764
 21
5616.243858612143
 31
0.0
  0
LINE
  5
179EB
330
747D
100
AcDbEntity
  8
細線
 48
50.0
100
AcDbLine
 10
10658.24747343672
 20
5589.544255929157
 30
0.0
 11
10653.49979054872
 21
5463.798483438413
 31
0.0
  0
LINE
  5
179EC
330
747D
100
AcDbEntity
  8
細線
 48
50.0
100
AcDbLine
 10
9634.247473436722
 20
5641.976953269266
 30
0.0
 11
9628.958371881211
 21
5501.891320641911
 31
0.0
  0
LINE
  5
179ED
330
747D
100
AcDbEntity
  8
部品1
100
AcDbLine
 10
9616.590038038674
 20
5502.358301962828
 30
0.0
 11
10665.91117397656
 21
5463.329876728623
 31
0.0
  0
LINE
  5
179EE
330
747D
100
AcDbEntity
  8
部品1
100
AcDbLine
 10
9608.792459793683
 20
5643.295012228128
 30
0.0
 11
10683.85935029818
 21
5588.218074603001
 31
0.0
  0
TEXT
  5
179EF
330
747D
100
AcDbEntity
  8
部品1
 48
50.0
100
AcDbText
 10
9984.515308660448
 20
5811.329438147573
 30
0.0
 40
120.0
  1
1000
  7
STYLE1
100
AcDbText
  0
DIMENSION
  5
179F0
330
747D
100
AcDbEntity
  8
寸法
100
AcDbDimension
  2
*D17
 10
8799.653595281432
 20
5644.577276893866
 30
0.0
 11
8799.65359528143
 21
4597.155906173022
 31
0.0
 70
   160
 71
     5
 42
2075.000000000005
  3
INABA_S40G
100
AcDbAlignedDimension
 13
9661.247473436722
 23
3569.57727689386
 33
0.0
 14
9601.247473436725
 24
5644.577276893866
 34
0.0
 50
90.0
100
AcDbRotatedDimension
1001
ACAD
1000
DSTYLE
1002
{
1070
   174
1070
     0
1070
   272
1070
     1
1070
   288
1070
     0
1070
   341
1005
0
1002
}
  0
TEXT
  5
17A85
330
747D
100
AcDbEntity
  8
部品1
100
AcDbText
 10
9843.95824174611
 20
2673.607166858619
 30
0.0
 40
135.0
  1
側面図
  7
STYLE2
100
AcDbText
  0
LWPOLYLINE
  5
17A86
330
747D
100
AcDbEntity
  8
部品1
100
AcDbPolyline
 90
        4
 70
     1
 43
0.0
 10
9754.512140322503
 20
2866.500696077143
 10
9754.512140322503
 20
2626.60837453161
 10
10517.98280655094
 20
2626.60837453161
 10
10517.98280655094
 20
2866.500696077143
  0
TEXT
  5
17C51
330
747D
100
AcDbEntity
  8
文字
 62
     7
 48
50.0
100
AcDbText
 10
13583.11819016568
 20
8380.013745883728
 30
0.0
 40
100.0
  1
※豪雪補強
  7
STYLE1
100
AcDbText
  0
TEXT
  5
17C52
330
747D
100
AcDbEntity
  8
文字
 62
     7
 48
50.0
100
AcDbText
 10
13229.83081656553
 20
8210.013745883726
 30
0.0
 40
100.0
  1
※豪雪補強は豪雪地型のみ取付
 41
0.9
  7
STYLE1
100
AcDbText
  0
TEXT
  5
17C53
330
747D
100
AcDbEntity
  8
文字
 62
     7
 48
50.0
100
AcDbText
 10
13248.77747366447
 20
8380.013745883728
 30
0.0
 40
100.0
  1
17
  7
STYLE1
100
AcDbText
  0
TEXT
  5
17C54
330
747D
100
AcDbEntity
  8
文字
 62
     7
 48
50.0
100
AcDbText
 10
15022.63965474514
 20
8380.01374588372
 30
0.0
 40
100.0
  1
F12            1.0
  7
STYLE1
100
AcDbText
  0
LINE
  5
17C55
330
747D
100
AcDbEntity
  8
仕様書枠
 48
50.0
100
AcDbLine
 10
16307.19999999999
 20
8519.600000000002
 30
0.0
 11
13127.19999999999
 21
8519.600000000002
 31
0.0
  0
LINE
  5
17C56
330
747D
100
AcDbEntity
  8
仕様書枠
 48
50.0
100
AcDbLine
 10
16307.19999999999
 20
8349.6
 30
0.0
 11
13127.19999999999
 21
8349.6
 31
0.0
  0
LINE
  5
17C8B
330
747D
100
AcDbEntity
  8
部品1
100
AcDbLine
 10
4857.375560876338
 20
4526.577276893866
 30
0.0
 11
5591.375560876339
 21
4526.57727689387
 31
0.0
  0
LINE
  5
17C8C
330
747D
100
AcDbEntity
  8
部品1
100
AcDbLine
 10
4827.37556087634
 20
4523.077276893864
 30
0.0
 11
5621.375560876337
 21
4523.077276893871
 31
0.0
  0
LINE
  5
17C8D
330
747D
100
AcDbEntity
  8
部品1
100
AcDbLine
 10
4832.375560876339
 20
4497.077276893864
 30
0.0
 11
5616.375560876338
 21
4497.077276893873
 31
0.0
  0
LINE
  5
17C8E
330
747D
100
AcDbEntity
  8
部品1
100
AcDbLine
 10
4857.375560876338
 20
4495.577276893865
 30
0.0
 11
5591.375560876339
 21
4495.577276893871
 31
0.0
  0
LINE
  5
17C8F
330
747D
100
AcDbEntity
  8
部品1
100
AcDbLine
 10
4859.375560876339
 20
4493.077276893866
 30
0.0
 11
5569.313113047659
 21
4493.077276893871
 31
0.0
  0
LINE
  5
17CDE
330
747D
100
AcDbEntity
  8
部品1
 48
50.0
100
AcDbLine
 10
7209.313113047663
 20
4486.327276893865
 30
0.0
 11
7209.313113047663
 21
4493.077276893865
 31
0.0
  0
LINE
  5
17CDF
330
747D
100
AcDbEntity
  8
細線
 48
50.0
100
AcDbLine
 10
7225.300765899326
 20
4490.827276893865
 30
0.0
 11
7225.300765899326
 21
4488.827276893864
 31
0.0
  0
LINE
  5
17CE0
330
747D
100
AcDbEntity
  8
細線
 48
50.0
100
AcDbLine
 10
7217.45035585336
 20
4490.827276893865
 30
0.0
 11
7217.450355853362
 21
4488.827276893864
 31
0.0
  0
LINE
  5
17CE1
330
747D
100
AcDbEntity
  8
細線
 48
0.1
100
AcDbLine
 10
7229.313113047663
 20
4493.327276893865
 30
0.0
 11
7229.313113047663
 21
4486.327276893865
 31
0.0
  0
LINE
  5
17CE2
330
747D
100
AcDbEntity
  8
部品1
 48
0.2
100
AcDbLine
 10
7229.313113047663
 20
4486.327276893865
 30
0.0
 11
7209.313113047663
 21
4486.327276893865
 31
0.0
  0
LINE
  5
17CE3
330
747D
100
AcDbEntity
  8
細線
 48
0.2
100
AcDbLine
 10
7229.313113047663
 20
4488.827276893864
 30
0.0
 11
7209.313113047665
 21
4488.827276893864
 31
0.0
  0
LINE
  5
17CE4
330
747D
100
AcDbEntity
  8
部品1
100
AcDbLine
 10
7229.313113047665
 20
4493.077276893862
 30
0.0
 11
7229.375560876346
 21
4493.077276893862
 31
0.0
  0
LINE
  5
17CE5
330
747D
100
AcDbEntity
  8
部品1
100
AcDbLine
 10
7229.313113047665
 20
4493.077276893865
 30
0.0
 11
7229.375560876346
 21
4493.077276893862
 31
0.0
  0
LINE
  5
17CE6
330
747D
100
AcDbEntity
  8
細線
 48
50.0
100
AcDbLine
 10
7209.313113047663
 20
4493.077276893865
 30
0.0
 11
7209.313113047663
 21
4493.327276893865
 31
0.0
  0
LINE
  5
17CE7
330
747D
100
AcDbEntity
  8
細線
 48
0.2
100
AcDbLine
 10
7226.997104344171
 20
4494.027276893866
 30
0.0
 11
7215.62912175116
 21
4494.027276893866
 31
0.0
  0
ARC
  5
17CE8
330
747D
100
AcDbEntity
  8
細線
 48
0.2
100
AcDbCircle
 10
7221.313113047663
 20
4476.527276893867
 30
0.0
 40
18.49999999999796
100
AcDbArc
 50
73.39845040097829
 51
106.6015495990228
  0
ARC
  5
17CE9
330
747D
100
AcDbEntity
  8
細線
 48
0.2
100
AcDbCircle
 10
7216.313113047664
 20
4493.297786725113
 30
0.0
 40
1.0
100
AcDbArc
 50
106.6015495990225
 51
180.0000000000016
  0
LINE
  5
17CEA
330
747D
100
AcDbEntity
  8
細線
 48
0.2
100
AcDbLine
 10
7229.313113047663
 20
4490.827276893865
 30
0.0
 11
7209.313113047665
 21
4490.827276893865
 31
0.0
  0
LINE
  5
17CEB
330
747D
100
AcDbEntity
  8
細線
 48
0.2
100
AcDbLine
 10
7229.313113047663
 20
4493.327276893865
 30
0.0
 11
7209.313113047665
 21
4493.327276893865
 31
0.0
  0
ARC
  5
17CEC
330
747D
100
AcDbEntity
  8
細線
 48
0.2
100
AcDbCircle
 10
7226.313113047663
 20
4493.297786725113
 30
0.0
 40
1.0
100
AcDbArc
 50
0.0
 51
73.39845040097829
  0
LINE
  5
17CED
330
747D
100
AcDbEntity
  8
部品1
 48
50.0
100
AcDbLine
 10
6389.313113047664
 20
4486.327276893865
 30
0.0
 11
6389.313113047664
 21
4493.077276893865
 31
0.0
  0
LINE
  5
17CEE
330
747D
100
AcDbEntity
  8
細線
 48
50.0
100
AcDbLine
 10
6405.300765899325
 20
4490.827276893865
 30
0.0
 11
6405.300765899325
 21
4488.827276893864
 31
0.0
  0
LINE
  5
17CEF
330
747D
100
AcDbEntity
  8
細線
 48
50.0
100
AcDbLine
 10
6397.450355853361
 20
4490.827276893865
 30
0.0
 11
6397.450355853361
 21
4488.827276893864
 31
0.0
  0
LINE
  5
17CF0
330
747D
100
AcDbEntity
  8
細線
 48
0.1
100
AcDbLine
 10
6409.313113047663
 20
4493.327276893865
 30
0.0
 11
6409.313113047663
 21
4486.327276893865
 31
0.0
  0
LINE
  5
17CF1
330
747D
100
AcDbEntity
  8
部品1
 48
0.2
100
AcDbLine
 10
6409.313113047663
 20
4486.327276893865
 30
0.0
 11
6389.313113047664
 21
4486.327276893865
 31
0.0
  0
LINE
  5
17CF2
330
747D
100
AcDbEntity
  8
細線
 48
0.2
100
AcDbLine
 10
6409.313113047663
 20
4488.827276893864
 30
0.0
 11
6389.313113047665
 21
4488.827276893864
 31
0.0
  0
LINE
  5
17CF3
330
747D
100
AcDbEntity
  8
部品1
100
AcDbLine
 10
6409.313113047665
 20
4493.077276893862
 30
0.0
 11
6409.375560876346
 21
4493.077276893862
 31
0.0
  0
LINE
  5
17CF4
330
747D
100
AcDbEntity
  8
部品1
100
AcDbLine
 10
6409.313113047665
 20
4493.077276893865
 30
0.0
 11
6409.375560876346
 21
4493.077276893862
 31
0.0
  0
LINE
  5
17CF5
330
747D
100
AcDbEntity
  8
細線
 48
50.0
100
AcDbLine
 10
6389.313113047664
 20
4493.077276893865
 30
0.0
 11
6389.313113047664
 21
4493.327276893865
 31
0.0
  0
LINE
  5
17CF6
330
747D
100
AcDbEntity
  8
細線
 48
0.2
100
AcDbLine
 10
6406.997104344172
 20
4494.027276893866
 30
0.0
 11
6395.629121751159
 21
4494.027276893866
 31
0.0
  0
ARC
  5
17CF7
330
747D
100
AcDbEntity
  8
細線
 48
0.2
100
AcDbCircle
 10
6401.313113047663
 20
4476.527276893867
 30
0.0
 40
18.49999999999796
100
AcDbArc
 50
73.39845040097829
 51
106.6015495990228
  0
ARC
  5
17CF8
330
747D
100
AcDbEntity
  8
細線
 48
0.2
100
AcDbCircle
 10
6396.313113047664
 20
4493.297786725113
 30
0.0
 40
1.0
100
AcDbArc
 50
106.6015495990225
 51
180.0000000000016
  0
LINE
  5
17CF9
330
747D
100
AcDbEntity
  8
細線
 48
0.2
100
AcDbLine
 10
6409.313113047663
 20
4490.827276893865
 30
0.0
 11
6389.313113047665
 21
4490.827276893865
 31
0.0
  0
LINE
  5
17CFA
330
747D
100
AcDbEntity
  8
細線
 48
0.2
100
AcDbLine
 10
6409.313113047663
 20
4493.327276893865
 30
0.0
 11
6389.313113047665
 21
4493.327276893865
 31
0.0
  0
ARC
  5
17CFB
330
747D
100
AcDbEntity
  8
細線
 48
0.2
100
AcDbCircle
 10
6406.313113047665
 20
4493.297786725113
 30
0.0
 40
1.0
100
AcDbArc
 50
0.0
 51
73.39845040097829
  0
LINE
  5
17CFC
330
747D
100
AcDbEntity
  8
部品1
100
AcDbLine
 10
6499.375560876345
 20
4493.077276893862
 30
0.0
 11
7209.313113047663
 21
4493.077276893862
 31
0.0
  0
LINE
  5
17CFD
330
747D
100
AcDbEntity
  8
部品1
 48
50.0
100
AcDbLine
 10
5569.313113047664
 20
4486.327276893865
 30
0.0
 11
5569.313113047664
 21
4493.077276893865
 31
0.0
  0
LINE
  5
17CFE
330
747D
100
AcDbEntity
  8
細線
 48
0.1
100
AcDbLine
 10
5589.313113047664
 20
4493.327276893865
 30
0.0
 11
5589.313113047664
 21
4486.327276893865
 31
0.0
  0
LINE
  5
17CFF
330
747D
100
AcDbEntity
  8
細線
 48
50.0
100
AcDbLine
 10
5577.450355853361
 20
4490.827276893865
 30
0.0
 11
5577.450355853361
 21
4488.827276893864
 31
0.0
  0
LINE
  5
17D00
330
747D
100
AcDbEntity
  8
細線
 48
50.0
100
AcDbLine
 10
5585.300765899325
 20
4490.827276893865
 30
0.0
 11
5585.300765899325
 21
4488.827276893864
 31
0.0
  0
LINE
  5
17D01
330
747D
100
AcDbEntity
  8
細線
 48
0.2
100
AcDbLine
 10
5589.313113047664
 20
4488.827276893864
 30
0.0
 11
5569.313113047665
 21
4488.827276893864
 31
0.0
  0
LINE
  5
17D02
330
747D
100
AcDbEntity
  8
部品1
 48
0.2
100
AcDbLine
 10
5589.313113047664
 20
4486.327276893865
 30
0.0
 11
5569.313113047664
 21
4486.327276893865
 31
0.0
  0
LINE
  5
17D03
330
747D
100
AcDbEntity
  8
細線
 48
50.0
100
AcDbLine
 10
5569.313113047664
 20
4493.077276893865
 30
0.0
 11
5569.313113047664
 21
4493.327276893865
 31
0.0
  0
LINE
  5
17D04
330
747D
100
AcDbEntity
  8
部品1
100
AcDbLine
 10
5589.313113047666
 20
4493.077276893865
 30
0.0
 11
5589.375560876345
 21
4493.077276893862
 31
0.0
  0
LINE
  5
17D05
330
747D
100
AcDbEntity
  8
細線
 48
0.2
100
AcDbLine
 10
5589.313113047664
 20
4493.327276893865
 30
0.0
 11
5569.313113047665
 21
4493.327276893865
 31
0.0
  0
LINE
  5
17D06
330
747D
100
AcDbEntity
  8
細線
 48
0.2
100
AcDbLine
 10
5589.313113047664
 20
4490.827276893865
 30
0.0
 11
5569.313113047665
 21
4490.827276893865
 31
0.0
  0
ARC
  5
17D07
330
747D
100
AcDbEntity
  8
細線
 48
0.2
100
AcDbCircle
 10
5576.313113047664
 20
4493.297786725113
 30
0.0
 40
1.0
100
AcDbArc
 50
106.6015495990225
 51
180.0000000000016
  0
ARC
  5
17D08
330
747D
100
AcDbEntity
  8
細線
 48
0.2
100
AcDbCircle
 10
5586.313113047664
 20
4493.297786725113
 30
0.0
 40
1.0
100
AcDbArc
 50
0.0
 51
73.39845040097829
  0
ARC
  5
17D09
330
747D
100
AcDbEntity
  8
細線
 48
0.2
100
AcDbCircle
 10
5581.313113047664
 20
4476.527276893867
 30
0.0
 40
18.49999999999796
100
AcDbArc
 50
73.39845040097829
 51
106.6015495990228
  0
LINE
  5
17D0A
330
747D
100
AcDbEntity
  8
細線
 48
0.2
100
AcDbLine
 10
5586.997104344172
 20
4494.027276893866
 30
0.0
 11
5575.62912175116
 21
4494.027276893866
 31
0.0
  0
LINE
  5
17D0B
330
747D
100
AcDbEntity
  8
部品1
100
AcDbLine
 10
4859.375560876345
 20
4493.077276893865
 30
0.0
 11
5569.313113047665
 21
4493.077276893865
 31
0.0
  0
LINE
  5
17D0C
330
747D
100
AcDbEntity
  8
部品1
100
AcDbLine
 10
5679.375560876344
 20
4493.077276893862
 30
0.0
 11
6389.313113047664
 21
4493.077276893862
 31
0.0
  0
LINE
  5
17D34
330
747D
100
AcDbEntity
  8
細線
 48
0.1
100
AcDbLine
 10
7229.313113047663
 20
3615.827276893881
 30
0.0
 11
7229.313113047663
 21
3622.827276893882
 31
0.0
  0
LINE
  5
17D35
330
747D
100
AcDbEntity
  8
細線
 48
50.0
100
AcDbLine
 10
7217.45035585336
 20
3618.327276893884
 30
0.0
 11
7217.450355853362
 21
3620.327276893882
 31
0.0
  0
LINE
  5
17D36
330
747D
100
AcDbEntity
  8
細線
 48
50.0
100
AcDbLine
 10
7225.300765899326
 20
3618.327276893884
 30
0.0
 11
7225.300765899326
 21
3620.327276893882
 31
0.0
  0
LINE
  5
17D37
330
747D
100
AcDbEntity
  8
部品1
 48
50.0
100
AcDbLine
 10
7209.313113047663
 20
3622.827276893882
 30
0.0
 11
7209.313113047663
 21
3616.077276893884
 31
0.0
  0
LINE
  5
17D38
330
747D
100
AcDbEntity
  8
部品1
100
AcDbLine
 10
7229.313113047665
 20
3616.077276893884
 30
0.0
 11
7229.375560876345
 21
3616.077276893884
 31
0.0
  0
ARC
  5
17D39
330
747D
100
AcDbEntity
  8
細線
 48
0.2
100
AcDbCircle
 10
7226.313113047663
 20
3615.856767062633
 30
0.0
 40
1.0
100
AcDbArc
 50
286.6015495990217
 51
0.0
  0
LINE
  5
17D3A
330
747D
100
AcDbEntity
  8
細線
 48
0.2
100
AcDbLine
 10
7229.313113047663
 20
3615.827276893881
 30
0.0
 11
7209.313113047665
 21
3615.827276893881
 31
0.0
  0
LINE
  5
17D3B
330
747D
100
AcDbEntity
  8
細線
 48
0.2
100
AcDbLine
 10
7229.313113047663
 20
3618.327276893881
 30
0.0
 11
7209.313113047665
 21
3618.327276893884
 31
0.0
  0
ARC
  5
17D3C
330
747D
100
AcDbEntity
  8
細線
 48
0.2
100
AcDbCircle
 10
7216.313113047664
 20
3615.856767062633
 30
0.0
 40
1.0
100
AcDbArc
 50
179.9999999999984
 51
253.3984504009775
  0
ARC
  5
17D3D
330
747D
100
AcDbEntity
  8
細線
 48
0.2
100
AcDbCircle
 10
7221.313113047663
 20
3632.627276893879
 30
0.0
 40
18.49999999999796
100
AcDbArc
 50
253.3984504009772
 51
286.6015495990217
  0
LINE
  5
17D3E
330
747D
100
AcDbEntity
  8
細線
 48
0.2
100
AcDbLine
 10
7226.997104344171
 20
3615.127276893881
 30
0.0
 11
7215.62912175116
 21
3615.127276893881
 31
0.0
  0
LINE
  5
17D3F
330
747D
100
AcDbEntity
  8
細線
 48
50.0
100
AcDbLine
 10
7209.313113047663
 20
3616.077276893884
 30
0.0
 11
7209.313113047663
 21
3615.827276893881
 31
0.0
  0
LINE
  5
17D40
330
747D
100
AcDbEntity
  8
部品1
100
AcDbLine
 10
7229.313113047665
 20
3616.077276893884
 30
0.0
 11
7229.375560876346
 21
3616.077276893884
 31
0.0
  0
LINE
  5
17D41
330
747D
100
AcDbEntity
  8
部品1
100
AcDbLine
 10
7229.313113047665
 20
3616.077276893885
 30
0.0
 11
7229.375560876346
 21
3616.077276893885
 31
0.0
  0
LINE
  5
17D42
330
747D
100
AcDbEntity
  8
細線
 48
0.2
100
AcDbLine
 10
7229.313113047663
 20
3620.327276893882
 30
0.0
 11
7209.313113047665
 21
3620.327276893882
 31
0.0
  0
LINE
  5
17D43
330
747D
100
AcDbEntity
  8
部品1
 48
0.2
100
AcDbLine
 10
7229.313113047663
 20
3622.827276893882
 30
0.0
 11
7209.313113047663
 21
3622.827276893882
 31
0.0
  0
LINE
  5
17D44
330
747D
100
AcDbEntity
  8
細線
 48
0.1
100
AcDbLine
 10
6409.313113047663
 20
3615.827276893881
 30
0.0
 11
6409.313113047663
 21
3622.827276893882
 31
0.0
  0
LINE
  5
17D45
330
747D
100
AcDbEntity
  8
細線
 48
50.0
100
AcDbLine
 10
6397.450355853361
 20
3618.327276893884
 30
0.0
 11
6397.450355853361
 21
3620.327276893882
 31
0.0
  0
LINE
  5
17D46
330
747D
100
AcDbEntity
  8
細線
 48
50.0
100
AcDbLine
 10
6405.300765899325
 20
3618.327276893884
 30
0.0
 11
6405.300765899325
 21
3620.327276893882
 31
0.0
  0
LINE
  5
17D47
330
747D
100
AcDbEntity
  8
部品1
 48
50.0
100
AcDbLine
 10
6389.313113047664
 20
3622.827276893882
 30
0.0
 11
6389.313113047664
 21
3616.077276893884
 31
0.0
  0
LINE
  5
17D48
330
747D
100
AcDbEntity
  8
部品1
100
AcDbLine
 10
6409.313113047665
 20
3616.077276893884
 30
0.0
 11
6409.375560876345
 21
3616.077276893884
 31
0.0
  0
ARC
  5
17D49
330
747D
100
AcDbEntity
  8
細線
 48
0.2
100
AcDbCircle
 10
6406.313113047665
 20
3615.856767062633
 30
0.0
 40
1.0
100
AcDbArc
 50
286.6015495990217
 51
0.0
  0
LINE
  5
17D4A
330
747D
100
AcDbEntity
  8
細線
 48
0.2
100
AcDbLine
 10
6409.313113047663
 20
3615.827276893881
 30
0.0
 11
6389.313113047665
 21
3615.827276893881
 31
0.0
  0
LINE
  5
17D4B
330
747D
100
AcDbEntity
  8
細線
 48
0.2
100
AcDbLine
 10
6409.313113047663
 20
3618.327276893881
 30
0.0
 11
6389.313113047665
 21
3618.327276893884
 31
0.0
  0
ARC
  5
17D4C
330
747D
100
AcDbEntity
  8
細線
 48
0.2
100
AcDbCircle
 10
6396.313113047664
 20
3615.856767062633
 30
0.0
 40
1.0
100
AcDbArc
 50
179.9999999999984
 51
253.3984504009775
  0
ARC
  5
17D4D
330
747D
100
AcDbEntity
  8
細線
 48
0.2
100
AcDbCircle
 10
6401.313113047663
 20
3632.627276893879
 30
0.0
 40
18.49999999999796
100
AcDbArc
 50
253.3984504009772
 51
286.6015495990217
  0
LINE
  5
17D4E
330
747D
100
AcDbEntity
  8
細線
 48
0.2
100
AcDbLine
 10
6406.997104344172
 20
3615.127276893881
 30
0.0
 11
6395.629121751159
 21
3615.127276893881
 31
0.0
  0
LINE
  5
17D4F
330
747D
100
AcDbEntity
  8
細線
 48
50.0
100
AcDbLine
 10
6389.313113047664
 20
3616.077276893884
 30
0.0
 11
6389.313113047664
 21
3615.827276893881
 31
0.0
  0
LINE
  5
17D50
330
747D
100
AcDbEntity
  8
部品1
100
AcDbLine
 10
6409.313113047665
 20
3616.077276893884
 30
0.0
 11
6409.375560876346
 21
3616.077276893884
 31
0.0
  0
LINE
  5
17D51
330
747D
100
AcDbEntity
  8
部品1
100
AcDbLine
 10
6409.313113047665
 20
3616.077276893885
 30
0.0
 11
6409.375560876346
 21
3616.077276893885
 31
0.0
  0
LINE
  5
17D52
330
747D
100
AcDbEntity
  8
細線
 48
0.2
100
AcDbLine
 10
6409.313113047663
 20
3620.327276893882
 30
0.0
 11
6389.313113047665
 21
3620.327276893882
 31
0.0
  0
LINE
  5
17D53
330
747D
100
AcDbEntity
  8
部品1
 48
0.2
100
AcDbLine
 10
6409.313113047663
 20
3622.827276893882
 30
0.0
 11
6389.313113047664
 21
3622.827276893882
 31
0.0
  0
LINE
  5
17D54
330
747D
100
AcDbEntity
  8
部品1
100
AcDbLine
 10
6499.375560876346
 20
3616.077276893876
 30
0.0
 11
7209.313113047665
 21
3616.077276893884
 31
0.0
  0
LINE
  5
17D55
330
747D
100
AcDbEntity
  8
部品1
 48
50.0
100
AcDbLine
 10
5569.313113047664
 20
3622.827276893882
 30
0.0
 11
5569.313113047664
 21
3616.077276893884
 31
0.0
  0
LINE
  5
17D56
330
747D
100
AcDbEntity
  8
細線
 48
50.0
100
AcDbLine
 10
5585.300765899325
 20
3618.327276893884
 30
0.0
 11
5585.300765899325
 21
3620.327276893882
 31
0.0
  0
LINE
  5
17D57
330
747D
100
AcDbEntity
  8
細線
 48
50.0
100
AcDbLine
 10
5577.450355853361
 20
3618.327276893884
 30
0.0
 11
5577.450355853361
 21
3620.327276893882
 31
0.0
  0
LINE
  5
17D58
330
747D
100
AcDbEntity
  8
細線
 48
0.1
100
AcDbLine
 10
5589.313113047664
 20
3615.827276893881
 30
0.0
 11
5589.313113047664
 21
3622.827276893882
 31
0.0
  0
LINE
  5
17D59
330
747D
100
AcDbEntity
  8
部品1
100
AcDbLine
 10
5589.313113047666
 20
3616.077276893874
 30
0.0
 11
5589.375560876345
 21
3616.077276893874
 31
0.0
  0
LINE
  5
17D5A
330
747D
100
AcDbEntity
  8
部品1
100
AcDbLine
 10
5589.313113047666
 20
3616.077276893884
 30
0.0
 11
5589.375560876345
 21
3616.077276893884
 31
0.0
  0
LINE
  5
17D5B
330
747D
100
AcDbEntity
  8
細線
 48
50.0
100
AcDbLine
 10
5569.313113047664
 20
3616.077276893884
 30
0.0
 11
5569.313113047664
 21
3615.827276893881
 31
0.0
  0
LINE
  5
17D5C
330
747D
100
AcDbEntity
  8
細線
 48
0.2
100
AcDbLine
 10
5586.997104344172
 20
3615.127276893881
 30
0.0
 11
5575.62912175116
 21
3615.127276893881
 31
0.0
  0
ARC
  5
17D5D
330
747D
100
AcDbEntity
  8
細線
 48
0.2
100
AcDbCircle
 10
5581.313113047664
 20
3632.627276893879
 30
0.0
 40
18.49999999999796
100
AcDbArc
 50
253.3984504009772
 51
286.6015495990217
  0
ARC
  5
17D5E
330
747D
100
AcDbEntity
  8
細線
 48
0.2
100
AcDbCircle
 10
5576.313113047664
 20
3615.856767062633
 30
0.0
 40
1.0
100
AcDbArc
 50
179.9999999999984
 51
253.3984504009775
  0
LINE
  5
17D5F
330
747D
100
AcDbEntity
  8
細線
 48
0.2
100
AcDbLine
 10
5589.313113047664
 20
3618.327276893881
 30
0.0
 11
5569.313113047665
 21
3618.327276893884
 31
0.0
  0
LINE
  5
17D60
330
747D
100
AcDbEntity
  8
細線
 48
0.2
100
AcDbLine
 10
5589.313113047664
 20
3615.827276893881
 30
0.0
 11
5569.313113047665
 21
3615.827276893881
 31
0.0
  0
ARC
  5
17D61
330
747D
100
AcDbEntity
  8
細線
 48
0.2
100
AcDbCircle
 10
5586.313113047664
 20
3615.856767062633
 30
0.0
 40
1.0
100
AcDbArc
 50
286.6015495990217
 51
0.0
  0
LINE
  5
17D62
330
747D
100
AcDbEntity
  8
部品1
 48
0.2
100
AcDbLine
 10
5589.313113047664
 20
3622.827276893882
 30
0.0
 11
5569.313113047664
 21
3622.827276893882
 31
0.0
  0
LINE
  5
17D63
330
747D
100
AcDbEntity
  8
細線
 48
0.2
100
AcDbLine
 10
5589.313113047664
 20
3620.327276893882
 30
0.0
 11
5569.313113047665
 21
3620.327276893882
 31
0.0
  0
LINE
  5
17D64
330
747D
100
AcDbEntity
  8
部品1
100
AcDbLine
 10
4859.375560876345
 20
3616.077276893868
 30
0.0
 11
5569.313113047665
 21
3616.077276893874
 31
0.0
  0
LINE
  5
17D65
330
747D
100
AcDbEntity
  8
部品1
100
AcDbLine
 10
5679.375560876344
 20
3616.077276893876
 30
0.0
 11
6389.313113047665
 21
3616.077276893884
 31
0.0
  0
LINE
  5
17D66
330
747D
100
AcDbEntity
  8
部品1
100
AcDbLine
 10
5589.375560876344
 20
4493.077276893862
 30
0.0
 11
5589.375560876347
 21
3616.077276893874
 31
0.0
  0
LINE
  5
17D67
330
747D
100
AcDbEntity
  8
部品1
100
AcDbLine
 10
6499.375560876345
 20
4493.077276893862
 30
0.0
 11
6499.375560876346
 21
3616.077276893876
 31
0.0
  0
LINE
  5
17D68
330
747D
100
AcDbEntity
  8
部品1
100
AcDbLine
 10
7229.375560876345
 20
4493.077276893862
 30
0.0
 11
7229.375560876348
 21
3616.077276893884
 31
0.0
  0
LINE
  5
17D69
330
747D
100
AcDbEntity
  8
部品1
100
AcDbLine
 10
4859.375560876346
 20
4493.077276893865
 30
0.0
 11
4859.375560876346
 21
3616.077276893868
 31
0.0
  0
LINE
  5
17D6A
330
747D
100
AcDbEntity
  8
部品1
100
AcDbLine
 10
5679.375560876344
 20
4493.077276893862
 30
0.0
 11
5679.375560876344
 21
3616.077276893876
 31
0.0
  0
LINE
  5
17D6B
330
747D
100
AcDbEntity
  8
部品1
100
AcDbLine
 10
6409.375560876345
 20
4493.077276893862
 30
0.0
 11
6409.375560876347
 21
3616.077276893884
 31
0.0
  0
LINE
  5
17D6D
330
747D
100
AcDbEntity
  8
部品1
100
AcDbLine
 10
4827.37556087634
 20
4523.077276893864
 30
0.0
 11
4827.37556087634
 21
4502.077276893864
 31
0.0
  0
LINE
  5
17D6E
330
747D
100
AcDbEntity
  8
部品1
100
AcDbLine
 10
5621.375560876337
 20
4523.077276893871
 30
0.0
 11
5621.375560876337
 21
4502.077276893873
 31
0.0
  0
ARC
  5
17D6F
330
747D
100
AcDbEntity
  8
部品1
100
AcDbCircle
 10
4832.375560876339
 20
4502.077276893864
 30
0.0
 40
5.0
100
AcDbArc
 50
180.0
 51
270.0000000000007
  0
ARC
  5
17D70
330
747D
100
AcDbEntity
  8
部品1
100
AcDbCircle
 10
5616.375560876338
 20
4502.077276893873
 30
0.0
 40
5.0
100
AcDbArc
 50
270.0000000000007
 51
0.0
  0
LINE
  5
17D71
330
747D
100
AcDbEntity
  8
部品1
100
AcDbLine
 10
4857.375560876338
 20
4497.077276893864
 30
0.0
 11
4857.37556087634
 21
3612.577276893865
 31
0.0
  0
LINE
  5
17D72
330
747D
100
AcDbEntity
  8
部品1
100
AcDbLine
 10
5591.37556087634
 20
4497.077276893873
 30
0.0
 11
5591.375560876339
 21
3612.577276893869
 31
0.0
  0
ARC
  5
17D74
330
747D
100
AcDbEntity
  8
部品1
100
AcDbCircle
 10
6436.375560876337
 20
4502.077276893873
 30
0.0
 40
5.0
100
AcDbArc
 50
270.0000000000007
 51
0.0
  0
LINE
  5
17D75
330
747D
100
AcDbEntity
  8
部品1
100
AcDbLine
 10
6441.375560876337
 20
4523.077276893871
 30
0.0
 11
6441.375560876337
 21
4502.077276893873
 31
0.0
  0
LINE
  5
17D76
330
747D
100
AcDbEntity
  8
部品1
100
AcDbLine
 10
5652.375560876339
 20
4497.077276893864
 30
0.0
 11
6436.375560876337
 21
4497.077276893873
 31
0.0
  0
LINE
  5
17D77
330
747D
100
AcDbEntity
  8
部品1
100
AcDbLine
 10
5647.37556087634
 20
4523.077276893864
 30
0.0
 11
6441.375560876337
 21
4523.077276893871
 31
0.0
  0
LINE
  5
17D78
330
747D
100
AcDbEntity
  8
部品1
100
AcDbLine
 10
5677.375560876338
 20
4526.577276893866
 30
0.0
 11
6411.375560876338
 21
4526.57727689387
 31
0.0
  0
LINE
  5
17D79
330
747D
100
AcDbEntity
  8
部品1
100
AcDbLine
 10
5677.375560876338
 20
4495.577276893865
 30
0.0
 11
6411.375560876338
 21
4495.577276893871
 31
0.0
  0
ARC
  5
17D7A
330
747D
100
AcDbEntity
  8
部品1
100
AcDbCircle
 10
5652.375560876339
 20
4502.077276893864
 30
0.0
 40
5.0
100
AcDbArc
 50
180.0
 51
270.0000000000007
  0
LINE
  5
17D7B
330
747D
100
AcDbEntity
  8
部品1
100
AcDbLine
 10
5647.37556087634
 20
4523.077276893864
 30
0.0
 11
5647.375560876338
 21
4502.077276893864
 31
0.0
  0
ARC
  5
17D7C
330
747D
100
AcDbEntity
  8
部品1
100
AcDbCircle
 10
7256.375560876339
 20
4502.077276893877
 30
0.0
 40
5.0
100
AcDbArc
 50
270.0000000000007
 51
0.0
  0
LINE
  5
17D7D
330
747D
100
AcDbEntity
  8
部品1
100
AcDbLine
 10
7261.375560876338
 20
4523.077276893874
 30
0.0
 11
7261.375560876338
 21
4502.077276893877
 31
0.0
  0
LINE
  5
17D7E
330
747D
100
AcDbEntity
  8
部品1
100
AcDbLine
 10
6472.375560876341
 20
4497.077276893867
 30
0.0
 11
7256.375560876339
 21
4497.077276893877
 31
0.0
  0
LINE
  5
17D7F
330
747D
100
AcDbEntity
  8
部品1
100
AcDbLine
 10
6467.375560876341
 20
4523.077276893868
 30
0.0
 11
7261.375560876338
 21
4523.077276893874
 31
0.0
  0
LINE
  5
17D80
330
747D
100
AcDbEntity
  8
部品1
100
AcDbLine
 10
6497.375560876339
 20
4526.57727689387
 30
0.0
 11
7231.37556087634
 21
4526.577276893873
 31
0.0
  0
LINE
  5
17D81
330
747D
100
AcDbEntity
  8
部品1
100
AcDbLine
 10
6497.375560876339
 20
4495.577276893869
 30
0.0
 11
7231.37556087634
 21
4495.577276893874
 31
0.0
  0
ARC
  5
17D82
330
747D
100
AcDbEntity
  8
部品1
100
AcDbCircle
 10
6472.375560876341
 20
4502.077276893867
 30
0.0
 40
5.0
100
AcDbArc
 50
180.0
 51
270.0000000000007
  0
LINE
  5
17D83
330
747D
100
AcDbEntity
  8
部品1
100
AcDbLine
 10
6467.375560876341
 20
4523.077276893868
 30
0.0
 11
6467.37556087634
 21
4502.077276893867
 31
0.0
  0
LINE
  5
17D84
330
747D
100
AcDbEntity
  8
部品1
100
AcDbLine
 10
7231.37556087634
 20
4497.077276893877
 30
0.0
 11
7231.37556087634
 21
3612.577276893881
 31
0.0
  0
LINE
  5
17D85
330
747D
100
AcDbEntity
  8
部品1
100
AcDbLine
 10
6497.375560876339
 20
4497.077276893867
 30
0.0
 11
6497.375560876341
 21
3612.577276893876
 31
0.0
  0
LINE
  5
17D86
330
747D
100
AcDbEntity
  8
部品1
100
AcDbLine
 10
6411.37556087634
 20
4497.077276893873
 30
0.0
 11
6411.37556087634
 21
3612.577276893875
 31
0.0
  0
LINE
  5
17D87
330
747D
100
AcDbEntity
  8
部品1
100
AcDbLine
 10
5677.37556087634
 20
4497.077276893864
 30
0.0
 11
5677.37556087634
 21
3612.57727689387
 31
0.0
  0
DIMENSION
  5
17DB7
330
747D
100
AcDbEntity
  8
寸法
100
AcDbDimension
  2
*D19
 10
4496.271033268743
 20
3631.077276893868
 30
0.0
 11
4496.271033268743
 21
4051.077276893866
 31
0.0
 70
   160
  1
有効開口部\P高さ<>
 71
     5
 42
845.9999999999963
  3
INABA_S40G
100
AcDbAlignedDimension
 13
4814.375560876346
 23
4477.077276893864
 33
0.0
 14
4814.375560876346
 24
3631.077276893868
 34
0.0
 50
90.0
100
AcDbRotatedDimension
1001
ACAD
1000
DSTYLE
1002
{
1070
   288
1070
     1
1002
}
  0
CIRCLE
  5
18338
330
747D
100
AcDbEntity
  8
細線
100
AcDbCircle
 10
6550.375560876339
 20
5219.077276893838
 30
0.0
 40
10.0
  0
CIRCLE
  5
18339
330
747D
100
AcDbEntity
  8
細線
100
AcDbCircle
 10
6550.375560876339
 20
5219.077276893838
 30
0.0
 40
11.52627944162938
  0
CIRCLE
  5
1833A
330
747D
100
AcDbEntity
  8
細線
100
AcDbCircle
 10
6550.375560876339
 20
5219.077276893838
 30
0.0
 40
13.0
  0
CIRCLE
  5
1833B
330
747D
100
AcDbEntity
  8
細線
100
AcDbCircle
 10
6550.375560876339
 20
5219.077276893838
 30
0.0
 40
20.0
  0
CIRCLE
  5
1833C
330
747D
100
AcDbEntity
  8
細線
100
AcDbCircle
 10
6550.375560876339
 20
5219.077276893838
 30
0.0
 40
19.19615242270703
  0
ARC
  5
1833D
330
747D
100
AcDbEntity
  8
細線
100
AcDbCircle
 10
6555.045727397613
 20
5154.0908364213
 30
0.0
 40
6.0
100
AcDbArc
 50
0.5115363837211788
 51
90.0
  0
ARC
  5
1833E
330
747D
100
AcDbEntity
  8
細線
100
AcDbCircle
 10
5753.875560876339
 20
5074.577276893839
 30
0.0
 40
800.0
100
AcDbArc
 50
0.3603531902116055
 51
6.122234843093669
  0
ARC
  5
1833F
330
747D
100
AcDbEntity
  8
細線
100
AcDbCircle
 10
2577.375560876338
 20
5118.577276893838
 30
0.0
 40
3994.0
100
AcDbArc
 50
359.4037568288795
 51
0.5962431711204776
  0
LINE
  5
18340
330
747D
100
AcDbEntity
  8
細線
100
AcDbLine
 10
6548.859837450411
 20
5074.577276893839
 30
0.0
 11
6543.375560876339
 21
5074.577276893839
 31
0.0
  0
ARC
  5
18341
330
747D
100
AcDbEntity
  8
細線
100
AcDbCircle
 10
6548.859837450411
 20
5079.577276893838
 30
0.0
 40
5.0
100
AcDbArc
 50
270.0
 51
0.3603531902116055
  0
LINE
  5
18342
330
747D
100
AcDbEntity
  8
細線
100
AcDbLine
 10
6555.045727397613
 20
5077.063717366376
 30
0.0
 11
6553.182107513919
 21
5077.063717366376
 31
0.0
  0
ARC
  5
18343
330
747D
100
AcDbEntity
  8
細線
100
AcDbCircle
 10
6555.045727397613
 20
5083.063717366377
 30
0.0
 40
6.0
100
AcDbArc
 50
270.0
 51
359.4884636162267
  0
ARC
  5
18344
330
747D
100
AcDbEntity
  8
細線
100
AcDbCircle
 10
2577.375560876338
 20
5118.577276893838
 30
0.0
 40
3983.8287
100
AcDbArc
 50
359.4884636162788
 51
0.5115363837211788
  0
ARC
  5
18345
330
747D
100
AcDbEntity
  8
細線
100
AcDbCircle
 10
6546.329975969094
 20
5159.577276893839
 30
0.0
 40
3.0
100
AcDbArc
 50
6.122234843093669
 51
90.0
  0
LINE
  5
18346
330
747D
100
AcDbEntity
  8
細線
100
AcDbLine
 10
6530.377290985325
 20
5178.577276893839
 30
0.0
 11
6571.01049662097
 21
5178.577276893839
 31
0.0
  0
LINE
  5
18347
330
747D
100
AcDbEntity
  8
細線
100
AcDbLine
 10
6543.375560876339
 20
5166.077276893838
 30
0.0
 11
6565.159625993207
 21
5166.077276893838
 31
0.0
  0
LINE
  5
18348
330
747D
100
AcDbEntity
  8
細線
100
AcDbLine
 10
6534.756517240815
 20
5168.577276893838
 30
0.0
 11
6542.375560876338
 21
5168.577276893838
 31
0.0
  0
LINE
  5
18349
330
747D
100
AcDbEntity
  8
細線
100
AcDbLine
 10
6546.329975969094
 20
5162.577276893839
 30
0.0
 11
6543.375560876341
 21
5162.577276893839
 31
0.0
  0
ARC
  5
1834A
330
747D
100
AcDbEntity
  8
細線
100
AcDbCircle
 10
6542.375560876338
 20
5167.577276893839
 30
0.0
 40
1.0
100
AcDbArc
 50
0.0
 51
90.0
  0
ARC
  5
1834B
330
747D
100
AcDbEntity
  8
細線
100
AcDbCircle
 10
6571.01049662097
 20
5172.577276893838
 30
0.0
 40
6.0
100
AcDbArc
 50
0.7746786087583476
 51
90.0
  0
ARC
  5
1834C
330
747D
100
AcDbEntity
  8
細線
100
AcDbCircle
 10
6565.159625993207
 20
5160.077276893838
 30
0.0
 40
6.0
100
AcDbArc
 50
0.5962431711204776
 51
90.0
  0
LINE
  5
1834D
330
747D
100
AcDbEntity
  8
細線
100
AcDbLine
 10
6555.045727397613
 20
5160.090836421299
 30
0.0
 11
6549.285691891127
 21
5160.090836421299
 31
0.0
  0
ARC
  5
1834E
330
747D
100
AcDbEntity
  8
細線
100
AcDbCircle
 10
6819.375560876338
 20
5118.577276893838
 30
0.0
 40
294.0
100
AcDbArc
 50
171.2120626773852
 51
188.7879373226147
  0
ARC
  5
1834F
330
747D
100
AcDbEntity
  8
細線
100
AcDbCircle
 10
6530.377290985325
 20
5172.577276893838
 30
0.0
 40
6.0
100
AcDbArc
 50
90.0
 51
169.4161974034797
  0
ARC
  5
18350
330
747D
100
AcDbEntity
  8
細線
100
AcDbCircle
 10
6534.756517240815
 20
5162.577276893839
 30
0.0
 40
6.0
100
AcDbArc
 50
90.0
 51
171.2120626773852
  0
LINE
  5
18351
330
747D
100
AcDbEntity
  8
細線
100
AcDbLine
 10
6571.01049662097
 20
5058.577276893839
 30
0.0
 11
6530.377290985325
 21
5058.577276893839
 31
0.0
  0
LINE
  5
18352
330
747D
100
AcDbEntity
  8
細線
100
AcDbLine
 10
6565.159625993207
 20
5071.077276893839
 30
0.0
 11
6543.375560876339
 21
5071.077276893839
 31
0.0
  0
LINE
  5
18353
330
747D
100
AcDbEntity
  8
細線
100
AcDbLine
 10
6542.375560876338
 20
5068.577276893838
 30
0.0
 11
6534.756517240815
 21
5068.577276893838
 31
0.0
  0
ARC
  5
18354
330
747D
100
AcDbEntity
  8
細線
100
AcDbCircle
 10
6542.375560876338
 20
5069.577276893839
 30
0.0
 40
1.0
100
AcDbArc
 50
270.0
 51
0.0
  0
ARC
  5
18355
330
747D
100
AcDbEntity
  8
細線
100
AcDbCircle
 10
6571.01049662097
 20
5064.577276893839
 30
0.0
 40
6.0
100
AcDbArc
 50
270.0
 51
359.2253213912417
  0
ARC
  5
18356
330
747D
100
AcDbEntity
  8
細線
100
AcDbCircle
 10
6530.377290985325
 20
5064.577276893839
 30
0.0
 40
6.0
100
AcDbArc
 50
190.5838025965202
 51
270.0
  0
ARC
  5
18357
330
747D
100
AcDbEntity
  8
細線
100
AcDbCircle
 10
2577.375560876338
 20
5118.577276893838
 30
0.0
 40
4000.0
100
AcDbArc
 50
359.2253213912417
 51
0.7746786087583476
  0
LINE
  5
18358
330
747D
100
AcDbEntity
  8
細線
100
AcDbLine
 10
6543.375560876339
 20
5069.577276893839
 30
0.0
 11
6543.375560876339
 21
5167.577276893839
 31
0.0
  0
ARC
  5
18359
330
747D
100
AcDbEntity
  8
細線
100
AcDbCircle
 10
6819.375560876338
 20
5118.577276893838
 30
0.0
 40
300.0
100
AcDbArc
 50
169.4161974034797
 51
190.5838025965202
  0
ARC
  5
1835A
330
747D
100
AcDbEntity
  8
細線
100
AcDbCircle
 10
6534.756517240815
 20
5074.577276893839
 30
0.0
 40
6.0
100
AcDbArc
 50
188.7879373226147
 51
270.0
  0
ARC
  5
1835B
330
747D
100
AcDbEntity
  8
細線
100
AcDbCircle
 10
6565.159625993207
 20
5077.077276893838
 30
0.0
 40
6.0
100
AcDbArc
 50
270.0
 51
359.4037568288275
  0
CIRCLE
  5
18384
330
747D
100
AcDbEntity
  8
細線
100
AcDbCircle
 10
5730.37556087634
 20
5219.077276893837
 30
0.0
 40
10.0
  0
CIRCLE
  5
18385
330
747D
100
AcDbEntity
  8
細線
100
AcDbCircle
 10
5730.37556087634
 20
5219.077276893837
 30
0.0
 40
11.52627944162938
  0
CIRCLE
  5
18386
330
747D
100
AcDbEntity
  8
細線
100
AcDbCircle
 10
5730.37556087634
 20
5219.077276893837
 30
0.0
 40
13.0
  0
CIRCLE
  5
18387
330
747D
100
AcDbEntity
  8
細線
100
AcDbCircle
 10
5730.37556087634
 20
5219.077276893837
 30
0.0
 40
20.0
  0
CIRCLE
  5
18388
330
747D
100
AcDbEntity
  8
細線
100
AcDbCircle
 10
5730.37556087634
 20
5219.077276893837
 30
0.0
 40
19.19615242270703
  0
ARC
  5
18389
330
747D
100
AcDbEntity
  8
細線
100
AcDbCircle
 10
5735.045727397613
 20
5154.090836421297
 30
0.0
 40
6.0
100
AcDbArc
 50
0.5115363837211788
 51
90.0
  0
ARC
  5
1838A
330
747D
100
AcDbEntity
  8
細線
100
AcDbCircle
 10
4933.875560876338
 20
5074.577276893837
 30
0.0
 40
800.0
100
AcDbArc
 50
0.3603531902116055
 51
6.122234843093669
  0
ARC
  5
1838B
330
747D
100
AcDbEntity
  8
細線
100
AcDbCircle
 10
1757.375560876338
 20
5118.577276893837
 30
0.0
 40
3994.0
100
AcDbArc
 50
359.4037568288795
 51
0.5962431711204776
  0
LINE
  5
1838C
330
747D
100
AcDbEntity
  8
細線
100
AcDbLine
 10
5728.859837450411
 20
5074.577276893837
 30
0.0
 11
5723.375560876339
 21
5074.577276893837
 31
0.0
  0
ARC
  5
1838D
330
747D
100
AcDbEntity
  8
細線
100
AcDbCircle
 10
5728.859837450411
 20
5079.577276893837
 30
0.0
 40
5.0
100
AcDbArc
 50
270.0
 51
0.3603531902116055
  0
LINE
  5
1838E
330
747D
100
AcDbEntity
  8
細線
100
AcDbLine
 10
5735.045727397613
 20
5077.063717366375
 30
0.0
 11
5733.182107513919
 21
5077.063717366375
 31
0.0
  0
ARC
  5
1838F
330
747D
100
AcDbEntity
  8
細線
100
AcDbCircle
 10
5735.045727397613
 20
5083.063717366375
 30
0.0
 40
6.0
100
AcDbArc
 50
270.0
 51
359.4884636162267
  0
ARC
  5
18390
330
747D
100
AcDbEntity
  8
細線
100
AcDbCircle
 10
1757.375560876338
 20
5118.577276893837
 30
0.0
 40
3983.8287
100
AcDbArc
 50
359.4884636162788
 51
0.5115363837211788
  0
ARC
  5
18391
330
747D
100
AcDbEntity
  8
細線
100
AcDbCircle
 10
5726.329975969094
 20
5159.577276893837
 30
0.0
 40
3.0
100
AcDbArc
 50
6.122234843093669
 51
90.0
  0
LINE
  5
18392
330
747D
100
AcDbEntity
  8
細線
100
AcDbLine
 10
5710.377290985325
 20
5178.577276893837
 30
0.0
 11
5751.01049662097
 21
5178.577276893837
 31
0.0
  0
LINE
  5
18393
330
747D
100
AcDbEntity
  8
細線
100
AcDbLine
 10
5723.375560876339
 20
5166.077276893837
 30
0.0
 11
5745.159625993206
 21
5166.077276893837
 31
0.0
  0
LINE
  5
18394
330
747D
100
AcDbEntity
  8
細線
100
AcDbLine
 10
5714.756517240815
 20
5168.577276893837
 30
0.0
 11
5722.375560876338
 21
5168.577276893837
 31
0.0
  0
LINE
  5
18395
330
747D
100
AcDbEntity
  8
細線
100
AcDbLine
 10
5726.329975969094
 20
5162.577276893837
 30
0.0
 11
5723.37556087634
 21
5162.577276893837
 31
0.0
  0
ARC
  5
18396
330
747D
100
AcDbEntity
  8
細線
100
AcDbCircle
 10
5722.375560876338
 20
5167.577276893837
 30
0.0
 40
1.0
100
AcDbArc
 50
0.0
 51
90.0
  0
ARC
  5
18397
330
747D
100
AcDbEntity
  8
細線
100
AcDbCircle
 10
5751.01049662097
 20
5172.577276893837
 30
0.0
 40
6.0
100
AcDbArc
 50
0.7746786087583476
 51
90.0
  0
ARC
  5
18398
330
747D
100
AcDbEntity
  8
細線
100
AcDbCircle
 10
5745.159625993206
 20
5160.077276893836
 30
0.0
 40
6.0
100
AcDbArc
 50
0.5962431711204776
 51
90.0
  0
LINE
  5
18399
330
747D
100
AcDbEntity
  8
細線
100
AcDbLine
 10
5735.045727397613
 20
5160.090836421297
 30
0.0
 11
5729.285691891128
 21
5160.090836421297
 31
0.0
  0
ARC
  5
1839A
330
747D
100
AcDbEntity
  8
細線
100
AcDbCircle
 10
5999.375560876338
 20
5118.577276893837
 30
0.0
 40
294.0
100
AcDbArc
 50
171.2120626773852
 51
188.7879373226147
  0
ARC
  5
1839B
330
747D
100
AcDbEntity
  8
細線
100
AcDbCircle
 10
5710.377290985325
 20
5172.577276893837
 30
0.0
 40
6.0
100
AcDbArc
 50
90.0
 51
169.4161974034797
  0
ARC
  5
1839C
330
747D
100
AcDbEntity
  8
細線
100
AcDbCircle
 10
5714.756517240815
 20
5162.577276893837
 30
0.0
 40
6.0
100
AcDbArc
 50
90.0
 51
171.2120626773852
  0
LINE
  5
1839D
330
747D
100
AcDbEntity
  8
細線
100
AcDbLine
 10
5751.01049662097
 20
5058.577276893837
 30
0.0
 11
5710.377290985325
 21
5058.577276893837
 31
0.0
  0
LINE
  5
1839E
330
747D
100
AcDbEntity
  8
細線
100
AcDbLine
 10
5745.159625993206
 20
5071.077276893837
 30
0.0
 11
5723.375560876339
 21
5071.077276893837
 31
0.0
  0
LINE
  5
1839F
330
747D
100
AcDbEntity
  8
細線
100
AcDbLine
 10
5722.375560876338
 20
5068.577276893837
 30
0.0
 11
5714.756517240815
 21
5068.577276893837
 31
0.0
  0
ARC
  5
183A0
330
747D
100
AcDbEntity
  8
細線
100
AcDbCircle
 10
5722.375560876338
 20
5069.577276893837
 30
0.0
 40
1.0
100
AcDbArc
 50
270.0
 51
0.0
  0
ARC
  5
183A1
330
747D
100
AcDbEntity
  8
細線
100
AcDbCircle
 10
5751.01049662097
 20
5064.577276893837
 30
0.0
 40
6.0
100
AcDbArc
 50
270.0
 51
359.2253213912417
  0
ARC
  5
183A2
330
747D
100
AcDbEntity
  8
細線
100
AcDbCircle
 10
5710.377290985325
 20
5064.577276893837
 30
0.0
 40
6.0
100
AcDbArc
 50
190.5838025965202
 51
270.0
  0
ARC
  5
183A3
330
747D
100
AcDbEntity
  8
細線
100
AcDbCircle
 10
1757.375560876338
 20
5118.577276893837
 30
0.0
 40
4000.0
100
AcDbArc
 50
359.2253213912417
 51
0.7746786087583476
  0
LINE
  5
183A4
330
747D
100
AcDbEntity
  8
細線
100
AcDbLine
 10
5723.375560876339
 20
5069.577276893837
 30
0.0
 11
5723.375560876339
 21
5167.577276893837
 31
0.0
  0
ARC
  5
183A5
330
747D
100
AcDbEntity
  8
細線
100
AcDbCircle
 10
5999.375560876338
 20
5118.577276893837
 30
0.0
 40
300.0
100
AcDbArc
 50
169.4161974034797
 51
190.5838025965202
  0
ARC
  5
183A6
330
747D
100
AcDbEntity
  8
細線
100
AcDbCircle
 10
5714.756517240815
 20
5074.577276893837
 30
0.0
 40
6.0
100
AcDbArc
 50
188.7879373226147
 51
270.0
  0
ARC
  5
183A7
330
747D
100
AcDbEntity
  8
細線
100
AcDbCircle
 10
5745.159625993206
 20
5077.077276893837
 30
0.0
 40
6.0
100
AcDbArc
 50
270.0
 51
359.4037568288275
  0
CIRCLE
  5
183D0
330
747D
100
AcDbEntity
  8
細線
100
AcDbCircle
 10
4910.375560876341
 20
5219.077276893837
 30
0.0
 40
10.0
  0
CIRCLE
  5
183D1
330
747D
100
AcDbEntity
  8
細線
100
AcDbCircle
 10
4910.375560876341
 20
5219.077276893837
 30
0.0
 40
11.52627944162938
  0
CIRCLE
  5
183D2
330
747D
100
AcDbEntity
  8
細線
100
AcDbCircle
 10
4910.375560876341
 20
5219.077276893837
 30
0.0
 40
13.0
  0
CIRCLE
  5
183D3
330
747D
100
AcDbEntity
  8
細線
100
AcDbCircle
 10
4910.375560876341
 20
5219.077276893837
 30
0.0
 40
20.0
  0
CIRCLE
  5
183D4
330
747D
100
AcDbEntity
  8
細線
100
AcDbCircle
 10
4910.375560876341
 20
5219.077276893837
 30
0.0
 40
19.19615242270703
  0
ARC
  5
183D5
330
747D
100
AcDbEntity
  8
細線
100
AcDbCircle
 10
4915.045727397615
 20
5154.090836421297
 30
0.0
 40
6.0
100
AcDbArc
 50
0.5115363837211788
 51
90.0
  0
ARC
  5
183D6
330
747D
100
AcDbEntity
  8
細線
100
AcDbCircle
 10
4113.87556087634
 20
5074.577276893837
 30
0.0
 40
800.0
100
AcDbArc
 50
0.3603531902116055
 51
6.122234843093669
  0
ARC
  5
183D7
330
747D
100
AcDbEntity
  8
細線
100
AcDbCircle
 10
937.3755608763385
 20
5118.577276893837
 30
0.0
 40
3994.0
100
AcDbArc
 50
359.4037568288795
 51
0.5962431711204776
  0
LINE
  5
183D8
330
747D
100
AcDbEntity
  8
細線
100
AcDbLine
 10
4908.859837450411
 20
5074.577276893837
 30
0.0
 11
4903.375560876339
 21
5074.577276893837
 31
0.0
  0
ARC
  5
183D9
330
747D
100
AcDbEntity
  8
細線
100
AcDbCircle
 10
4908.859837450411
 20
5079.577276893837
 30
0.0
 40
5.0
100
AcDbArc
 50
270.0
 51
0.3603531902116055
  0
LINE
  5
183DA
330
747D
100
AcDbEntity
  8
細線
100
AcDbLine
 10
4915.045727397615
 20
5077.063717366375
 30
0.0
 11
4913.182107513921
 21
5077.063717366375
 31
0.0
  0
ARC
  5
183DB
330
747D
100
AcDbEntity
  8
細線
100
AcDbCircle
 10
4915.045727397615
 20
5083.063717366375
 30
0.0
 40
6.0
100
AcDbArc
 50
270.0
 51
359.4884636162267
  0
ARC
  5
183DC
330
747D
100
AcDbEntity
  8
細線
100
AcDbCircle
 10
937.3755608763385
 20
5118.577276893837
 30
0.0
 40
3983.8287
100
AcDbArc
 50
359.4884636162788
 51
0.5115363837211788
  0
ARC
  5
183DD
330
747D
100
AcDbEntity
  8
細線
100
AcDbCircle
 10
4906.329975969096
 20
5159.577276893837
 30
0.0
 40
3.0
100
AcDbArc
 50
6.122234843093669
 51
90.0
  0
LINE
  5
183DE
330
747D
100
AcDbEntity
  8
細線
100
AcDbLine
 10
4890.377290985326
 20
5178.577276893837
 30
0.0
 11
4931.01049662097
 21
5178.577276893837
 31
0.0
  0
LINE
  5
183DF
330
747D
100
AcDbEntity
  8
細線
100
AcDbLine
 10
4903.375560876339
 20
5166.077276893837
 30
0.0
 11
4925.159625993208
 21
5166.077276893837
 31
0.0
  0
LINE
  5
183E0
330
747D
100
AcDbEntity
  8
細線
100
AcDbLine
 10
4894.756517240817
 20
5168.577276893837
 30
0.0
 11
4902.37556087634
 21
5168.577276893837
 31
0.0
  0
LINE
  5
183E1
330
747D
100
AcDbEntity
  8
細線
100
AcDbLine
 10
4906.329975969096
 20
5162.577276893837
 30
0.0
 11
4903.375560876341
 21
5162.577276893837
 31
0.0
  0
ARC
  5
183E2
330
747D
100
AcDbEntity
  8
細線
100
AcDbCircle
 10
4902.37556087634
 20
5167.577276893837
 30
0.0
 40
1.0
100
AcDbArc
 50
0.0
 51
90.0
  0
ARC
  5
183E3
330
747D
100
AcDbEntity
  8
細線
100
AcDbCircle
 10
4931.01049662097
 20
5172.577276893837
 30
0.0
 40
6.0
100
AcDbArc
 50
0.7746786087583476
 51
90.0
  0
ARC
  5
183E4
330
747D
100
AcDbEntity
  8
細線
100
AcDbCircle
 10
4925.159625993208
 20
5160.077276893836
 30
0.0
 40
6.0
100
AcDbArc
 50
0.5962431711204776
 51
90.0
  0
LINE
  5
183E5
330
747D
100
AcDbEntity
  8
細線
100
AcDbLine
 10
4915.045727397615
 20
5160.090836421297
 30
0.0
 11
4909.285691891128
 21
5160.090836421297
 31
0.0
  0
ARC
  5
183E6
330
747D
100
AcDbEntity
  8
細線
100
AcDbCircle
 10
5179.37556087634
 20
5118.577276893837
 30
0.0
 40
294.0
100
AcDbArc
 50
171.2120626773852
 51
188.7879373226147
  0
ARC
  5
183E7
330
747D
100
AcDbEntity
  8
細線
100
AcDbCircle
 10
4890.377290985326
 20
5172.577276893837
 30
0.0
 40
6.0
100
AcDbArc
 50
90.0
 51
169.4161974034797
  0
ARC
  5
183E8
330
747D
100
AcDbEntity
  8
細線
100
AcDbCircle
 10
4894.756517240817
 20
5162.577276893837
 30
0.0
 40
6.0
100
AcDbArc
 50
90.0
 51
171.2120626773852
  0
LINE
  5
183E9
330
747D
100
AcDbEntity
  8
細線
100
AcDbLine
 10
4931.01049662097
 20
5058.577276893837
 30
0.0
 11
4890.377290985326
 21
5058.577276893837
 31
0.0
  0
LINE
  5
183EA
330
747D
100
AcDbEntity
  8
細線
100
AcDbLine
 10
4925.159625993208
 20
5071.077276893837
 30
0.0
 11
4903.375560876339
 21
5071.077276893837
 31
0.0
  0
LINE
  5
183EB
330
747D
100
AcDbEntity
  8
細線
100
AcDbLine
 10
4902.37556087634
 20
5068.577276893837
 30
0.0
 11
4894.756517240817
 21
5068.577276893837
 31
0.0
  0
ARC
  5
183EC
330
747D
100
AcDbEntity
  8
細線
100
AcDbCircle
 10
4902.37556087634
 20
5069.577276893837
 30
0.0
 40
1.0
100
AcDbArc
 50
270.0
 51
0.0
  0
ARC
  5
183ED
330
747D
100
AcDbEntity
  8
細線
100
AcDbCircle
 10
4931.01049662097
 20
5064.577276893837
 30
0.0
 40
6.0
100
AcDbArc
 50
270.0
 51
359.2253213912417
  0
ARC
  5
183EE
330
747D
100
AcDbEntity
  8
細線
100
AcDbCircle
 10
4890.377290985326
 20
5064.577276893837
 30
0.0
 40
6.0
100
AcDbArc
 50
190.5838025965202
 51
270.0
  0
ARC
  5
183EF
330
747D
100
AcDbEntity
  8
細線
100
AcDbCircle
 10
937.3755608763385
 20
5118.577276893837
 30
0.0
 40
4000.0
100
AcDbArc
 50
359.2253213912417
 51
0.7746786087583476
  0
LINE
  5
183F0
330
747D
100
AcDbEntity
  8
細線
100
AcDbLine
 10
4903.375560876339
 20
5069.577276893837
 30
0.0
 11
4903.375560876339
 21
5167.577276893837
 31
0.0
  0
ARC
  5
183F1
330
747D
100
AcDbEntity
  8
細線
100
AcDbCircle
 10
5179.37556087634
 20
5118.577276893837
 30
0.0
 40
300.0
100
AcDbArc
 50
169.4161974034797
 51
190.5838025965202
  0
ARC
  5
183F2
330
747D
100
AcDbEntity
  8
細線
100
AcDbCircle
 10
4894.756517240817
 20
5074.577276893837
 30
0.0
 40
6.0
100
AcDbArc
 50
188.7879373226147
 51
270.0
  0
ARC
  5
183F3
330
747D
100
AcDbEntity
  8
細線
100
AcDbCircle
 10
4925.159625993208
 20
5077.077276893837
 30
0.0
 40
6.0
100
AcDbArc
 50
270.0
 51
359.4037568288275
  0
CIRCLE
  5
1841C
330
747D
100
AcDbEntity
  8
細線
100
AcDbCircle
 10
4910.375560876341
 20
4305.077276893842
 30
0.0
 40
10.0
  0
CIRCLE
  5
1841D
330
747D
100
AcDbEntity
  8
細線
100
AcDbCircle
 10
4910.375560876341
 20
4305.077276893842
 30
0.0
 40
11.52627944162938
  0
CIRCLE
  5
1841E
330
747D
100
AcDbEntity
  8
細線
100
AcDbCircle
 10
4910.375560876341
 20
4305.077276893842
 30
0.0
 40
13.0
  0
CIRCLE
  5
1841F
330
747D
100
AcDbEntity
  8
細線
100
AcDbCircle
 10
4910.375560876341
 20
4305.077276893842
 30
0.0
 40
20.0
  0
CIRCLE
  5
18420
330
747D
100
AcDbEntity
  8
細線
100
AcDbCircle
 10
4910.375560876341
 20
4305.077276893842
 30
0.0
 40
19.19615242270703
  0
ARC
  5
18421
330
747D
100
AcDbEntity
  8
細線
100
AcDbCircle
 10
4915.045727397615
 20
4240.090836421304
 30
0.0
 40
6.0
100
AcDbArc
 50
0.5115363837211788
 51
90.0
  0
ARC
  5
18422
330
747D
100
AcDbEntity
  8
細線
100
AcDbCircle
 10
4113.87556087634
 20
4160.577276893842
 30
0.0
 40
800.0
100
AcDbArc
 50
0.3603531902116055
 51
6.122234843093669
  0
ARC
  5
18423
330
747D
100
AcDbEntity
  8
細線
100
AcDbCircle
 10
937.3755608763385
 20
4204.577276893843
 30
0.0
 40
3994.0
100
AcDbArc
 50
359.4037568288795
 51
0.5962431711204776
  0
LINE
  5
18424
330
747D
100
AcDbEntity
  8
細線
100
AcDbLine
 10
4908.859837450411
 20
4160.577276893842
 30
0.0
 11
4903.375560876339
 21
4160.577276893842
 31
0.0
  0
ARC
  5
18425
330
747D
100
AcDbEntity
  8
細線
100
AcDbCircle
 10
4908.859837450411
 20
4165.577276893843
 30
0.0
 40
5.0
100
AcDbArc
 50
270.0
 51
0.3603531902116055
  0
LINE
  5
18426
330
747D
100
AcDbEntity
  8
細線
100
AcDbLine
 10
4915.045727397615
 20
4163.06371736638
 30
0.0
 11
4913.182107513921
 21
4163.06371736638
 31
0.0
  0
ARC
  5
18427
330
747D
100
AcDbEntity
  8
細線
100
AcDbCircle
 10
4915.045727397615
 20
4169.06371736638
 30
0.0
 40
6.0
100
AcDbArc
 50
270.0
 51
359.4884636162267
  0
ARC
  5
18428
330
747D
100
AcDbEntity
  8
細線
100
AcDbCircle
 10
937.3755608763385
 20
4204.577276893843
 30
0.0
 40
3983.8287
100
AcDbArc
 50
359.4884636162788
 51
0.5115363837211788
  0
ARC
  5
18429
330
747D
100
AcDbEntity
  8
細線
100
AcDbCircle
 10
4906.329975969096
 20
4245.577276893842
 30
0.0
 40
3.0
100
AcDbArc
 50
6.122234843093669
 51
90.0
  0
LINE
  5
1842A
330
747D
100
AcDbEntity
  8
細線
100
AcDbLine
 10
4890.377290985326
 20
4264.577276893843
 30
0.0
 11
4931.01049662097
 21
4264.577276893843
 31
0.0
  0
LINE
  5
1842B
330
747D
100
AcDbEntity
  8
細線
100
AcDbLine
 10
4903.375560876339
 20
4252.077276893843
 30
0.0
 11
4925.159625993208
 21
4252.077276893843
 31
0.0
  0
LINE
  5
1842C
330
747D
100
AcDbEntity
  8
細線
100
AcDbLine
 10
4894.756517240817
 20
4254.577276893843
 30
0.0
 11
4902.37556087634
 21
4254.577276893843
 31
0.0
  0
LINE
  5
1842D
330
747D
100
AcDbEntity
  8
細線
100
AcDbLine
 10
4906.329975969096
 20
4248.577276893843
 30
0.0
 11
4903.375560876341
 21
4248.577276893843
 31
0.0
  0
ARC
  5
1842E
330
747D
100
AcDbEntity
  8
細線
100
AcDbCircle
 10
4902.37556087634
 20
4253.577276893843
 30
0.0
 40
1.0
100
AcDbArc
 50
0.0
 51
90.0
  0
ARC
  5
1842F
330
747D
100
AcDbEntity
  8
細線
100
AcDbCircle
 10
4931.01049662097
 20
4258.577276893843
 30
0.0
 40
6.0
100
AcDbArc
 50
0.7746786087583476
 51
90.0
  0
ARC
  5
18430
330
747D
100
AcDbEntity
  8
細線
100
AcDbCircle
 10
4925.159625993208
 20
4246.077276893843
 30
0.0
 40
6.0
100
AcDbArc
 50
0.5962431711204776
 51
90.0
  0
LINE
  5
18431
330
747D
100
AcDbEntity
  8
細線
100
AcDbLine
 10
4915.045727397615
 20
4246.090836421304
 30
0.0
 11
4909.285691891128
 21
4246.090836421304
 31
0.0
  0
ARC
  5
18432
330
747D
100
AcDbEntity
  8
細線
100
AcDbCircle
 10
5179.37556087634
 20
4204.577276893843
 30
0.0
 40
294.0
100
AcDbArc
 50
171.2120626773852
 51
188.7879373226147
  0
ARC
  5
18433
330
747D
100
AcDbEntity
  8
細線
100
AcDbCircle
 10
4890.377290985326
 20
4258.577276893843
 30
0.0
 40
6.0
100
AcDbArc
 50
90.0
 51
169.4161974034797
  0
ARC
  5
18434
330
747D
100
AcDbEntity
  8
細線
100
AcDbCircle
 10
4894.756517240817
 20
4248.577276893843
 30
0.0
 40
6.0
100
AcDbArc
 50
90.0
 51
171.2120626773852
  0
LINE
  5
18435
330
747D
100
AcDbEntity
  8
細線
100
AcDbLine
 10
4931.01049662097
 20
4144.577276893843
 30
0.0
 11
4890.377290985326
 21
4144.577276893843
 31
0.0
  0
LINE
  5
18436
330
747D
100
AcDbEntity
  8
細線
100
AcDbLine
 10
4925.159625993208
 20
4157.077276893843
 30
0.0
 11
4903.375560876339
 21
4157.077276893843
 31
0.0
  0
LINE
  5
18437
330
747D
100
AcDbEntity
  8
細線
100
AcDbLine
 10
4902.37556087634
 20
4154.577276893843
 30
0.0
 11
4894.756517240817
 21
4154.577276893843
 31
0.0
  0
ARC
  5
18438
330
747D
100
AcDbEntity
  8
細線
100
AcDbCircle
 10
4902.37556087634
 20
4155.577276893843
 30
0.0
 40
1.0
100
AcDbArc
 50
270.0
 51
0.0
  0
ARC
  5
18439
330
747D
100
AcDbEntity
  8
細線
100
AcDbCircle
 10
4931.01049662097
 20
4150.577276893844
 30
0.0
 40
6.0
100
AcDbArc
 50
270.0
 51
359.2253213912417
  0
ARC
  5
1843A
330
747D
100
AcDbEntity
  8
細線
100
AcDbCircle
 10
4890.377290985326
 20
4150.577276893844
 30
0.0
 40
6.0
100
AcDbArc
 50
190.5838025965202
 51
270.0
  0
ARC
  5
1843B
330
747D
100
AcDbEntity
  8
細線
100
AcDbCircle
 10
937.3755608763385
 20
4204.577276893843
 30
0.0
 40
4000.0
100
AcDbArc
 50
359.2253213912417
 51
0.7746786087583476
  0
LINE
  5
1843C
330
747D
100
AcDbEntity
  8
細線
100
AcDbLine
 10
4903.375560876339
 20
4155.577276893843
 30
0.0
 11
4903.375560876339
 21
4253.577276893843
 31
0.0
  0
ARC
  5
1843D
330
747D
100
AcDbEntity
  8
細線
100
AcDbCircle
 10
5179.37556087634
 20
4204.577276893843
 30
0.0
 40
300.0
100
AcDbArc
 50
169.4161974034797
 51
190.5838025965202
  0
ARC
  5
1843E
330
747D
100
AcDbEntity
  8
細線
100
AcDbCircle
 10
4894.756517240817
 20
4160.577276893842
 30
0.0
 40
6.0
100
AcDbArc
 50
188.7879373226147
 51
270.0
  0
ARC
  5
1843F
330
747D
100
AcDbEntity
  8
細線
100
AcDbCircle
 10
4925.159625993208
 20
4163.077276893843
 30
0.0
 40
6.0
100
AcDbArc
 50
270.0
 51
359.4037568288275
  0
CIRCLE
  5
18468
330
747D
100
AcDbEntity
  8
細線
100
AcDbCircle
 10
5730.375560876346
 20
4305.077276893839
 30
0.0
 40
10.0
  0
CIRCLE
  5
18469
330
747D
100
AcDbEntity
  8
細線
100
AcDbCircle
 10
5730.375560876346
 20
4305.077276893839
 30
0.0
 40
11.52627944162938
  0
CIRCLE
  5
1846A
330
747D
100
AcDbEntity
  8
細線
100
AcDbCircle
 10
5730.375560876346
 20
4305.077276893839
 30
0.0
 40
13.0
  0
CIRCLE
  5
1846B
330
747D
100
AcDbEntity
  8
細線
100
AcDbCircle
 10
5730.375560876346
 20
4305.077276893839
 30
0.0
 40
20.0
  0
CIRCLE
  5
1846C
330
747D
100
AcDbEntity
  8
細線
100
AcDbCircle
 10
5730.375560876346
 20
4305.077276893839
 30
0.0
 40
19.19615242270703
  0
ARC
  5
1846D
330
747D
100
AcDbEntity
  8
細線
100
AcDbCircle
 10
5735.045727397619
 20
4240.0908364213
 30
0.0
 40
6.0
100
AcDbArc
 50
0.5115363837211788
 51
90.0
  0
ARC
  5
1846E
330
747D
100
AcDbEntity
  8
細線
100
AcDbCircle
 10
4933.875560876344
 20
4160.577276893839
 30
0.0
 40
800.0
100
AcDbArc
 50
0.3603531902116055
 51
6.122234843093669
  0
ARC
  5
1846F
330
747D
100
AcDbEntity
  8
細線
100
AcDbCircle
 10
1757.375560876344
 20
4204.577276893839
 30
0.0
 40
3994.0
100
AcDbArc
 50
359.4037568288795
 51
0.5962431711204776
  0
LINE
  5
18470
330
747D
100
AcDbEntity
  8
細線
100
AcDbLine
 10
5728.859837450418
 20
4160.577276893839
 30
0.0
 11
5723.375560876345
 21
4160.577276893839
 31
0.0
  0
ARC
  5
18471
330
747D
100
AcDbEntity
  8
細線
100
AcDbCircle
 10
5728.859837450418
 20
4165.57727689384
 30
0.0
 40
5.0
100
AcDbArc
 50
270.0
 51
0.3603531902116055
  0
LINE
  5
18472
330
747D
100
AcDbEntity
  8
細線
100
AcDbLine
 10
5735.045727397619
 20
4163.063717366377
 30
0.0
 11
5733.182107513925
 21
4163.063717366377
 31
0.0
  0
ARC
  5
18473
330
747D
100
AcDbEntity
  8
細線
100
AcDbCircle
 10
5735.045727397619
 20
4169.063717366377
 30
0.0
 40
6.0
100
AcDbArc
 50
270.0
 51
359.4884636162267
  0
ARC
  5
18474
330
747D
100
AcDbEntity
  8
細線
100
AcDbCircle
 10
1757.375560876344
 20
4204.577276893839
 30
0.0
 40
3983.8287
100
AcDbArc
 50
359.4884636162788
 51
0.5115363837211788
  0
ARC
  5
18475
330
747D
100
AcDbEntity
  8
細線
100
AcDbCircle
 10
5726.3299759691
 20
4245.577276893839
 30
0.0
 40
3.0
100
AcDbArc
 50
6.122234843093669
 51
90.0
  0
LINE
  5
18476
330
747D
100
AcDbEntity
  8
細線
100
AcDbLine
 10
5710.377290985332
 20
4264.577276893839
 30
0.0
 11
5751.010496620976
 21
4264.577276893839
 31
0.0
  0
LINE
  5
18477
330
747D
100
AcDbEntity
  8
細線
100
AcDbLine
 10
5723.375560876345
 20
4252.077276893839
 30
0.0
 11
5745.159625993213
 21
4252.077276893839
 31
0.0
  0
LINE
  5
18478
330
747D
100
AcDbEntity
  8
細線
100
AcDbLine
 10
5714.756517240822
 20
4254.577276893839
 30
0.0
 11
5722.375560876344
 21
4254.577276893839
 31
0.0
  0
LINE
  5
18479
330
747D
100
AcDbEntity
  8
細線
100
AcDbLine
 10
5726.3299759691
 20
4248.577276893839
 30
0.0
 11
5723.375560876347
 21
4248.577276893839
 31
0.0
  0
ARC
  5
1847A
330
747D
100
AcDbEntity
  8
細線
100
AcDbCircle
 10
5722.375560876344
 20
4253.577276893839
 30
0.0
 40
1.0
100
AcDbArc
 50
0.0
 51
90.0
  0
ARC
  5
1847B
330
747D
100
AcDbEntity
  8
細線
100
AcDbCircle
 10
5751.010496620976
 20
4258.57727689384
 30
0.0
 40
6.0
100
AcDbArc
 50
0.7746786087583476
 51
90.0
  0
ARC
  5
1847C
330
747D
100
AcDbEntity
  8
細線
100
AcDbCircle
 10
5745.159625993213
 20
4246.077276893839
 30
0.0
 40
6.0
100
AcDbArc
 50
0.5962431711204776
 51
90.0
  0
LINE
  5
1847D
330
747D
100
AcDbEntity
  8
細線
100
AcDbLine
 10
5735.045727397619
 20
4246.0908364213
 30
0.0
 11
5729.285691891134
 21
4246.0908364213
 31
0.0
  0
ARC
  5
1847E
330
747D
100
AcDbEntity
  8
細線
100
AcDbCircle
 10
5999.375560876345
 20
4204.577276893839
 30
0.0
 40
294.0
100
AcDbArc
 50
171.2120626773852
 51
188.7879373226147
  0
ARC
  5
1847F
330
747D
100
AcDbEntity
  8
細線
100
AcDbCircle
 10
5710.377290985332
 20
4258.57727689384
 30
0.0
 40
6.0
100
AcDbArc
 50
90.0
 51
169.4161974034797
  0
ARC
  5
18480
330
747D
100
AcDbEntity
  8
細線
100
AcDbCircle
 10
5714.756517240822
 20
4248.577276893839
 30
0.0
 40
6.0
100
AcDbArc
 50
90.0
 51
171.2120626773852
  0
LINE
  5
18481
330
747D
100
AcDbEntity
  8
細線
100
AcDbLine
 10
5751.010496620976
 20
4144.57727689384
 30
0.0
 11
5710.377290985332
 21
4144.57727689384
 31
0.0
  0
LINE
  5
18482
330
747D
100
AcDbEntity
  8
細線
100
AcDbLine
 10
5745.159625993213
 20
4157.077276893839
 30
0.0
 11
5723.375560876345
 21
4157.077276893839
 31
0.0
  0
LINE
  5
18483
330
747D
100
AcDbEntity
  8
細線
100
AcDbLine
 10
5722.375560876344
 20
4154.57727689384
 30
0.0
 11
5714.756517240822
 21
4154.57727689384
 31
0.0
  0
ARC
  5
18484
330
747D
100
AcDbEntity
  8
細線
100
AcDbCircle
 10
5722.375560876344
 20
4155.577276893839
 30
0.0
 40
1.0
100
AcDbArc
 50
270.0
 51
0.0
  0
ARC
  5
18485
330
747D
100
AcDbEntity
  8
細線
100
AcDbCircle
 10
5751.010496620976
 20
4150.57727689384
 30
0.0
 40
6.0
100
AcDbArc
 50
270.0
 51
359.2253213912417
  0
ARC
  5
18486
330
747D
100
AcDbEntity
  8
細線
100
AcDbCircle
 10
5710.377290985332
 20
4150.57727689384
 30
0.0
 40
6.0
100
AcDbArc
 50
190.5838025965202
 51
270.0
  0
ARC
  5
18487
330
747D
100
AcDbEntity
  8
細線
100
AcDbCircle
 10
1757.375560876344
 20
4204.577276893839
 30
0.0
 40
4000.0
100
AcDbArc
 50
359.2253213912417
 51
0.7746786087583476
  0
LINE
  5
18488
330
747D
100
AcDbEntity
  8
細線
100
AcDbLine
 10
5723.375560876345
 20
4155.577276893839
 30
0.0
 11
5723.375560876345
 21
4253.577276893839
 31
0.0
  0
ARC
  5
18489
330
747D
100
AcDbEntity
  8
細線
100
AcDbCircle
 10
5999.375560876345
 20
4204.577276893839
 30
0.0
 40
300.0
100
AcDbArc
 50
169.4161974034797
 51
190.5838025965202
  0
ARC
  5
1848A
330
747D
100
AcDbEntity
  8
細線
100
AcDbCircle
 10
5714.756517240822
 20
4160.577276893839
 30
0.0
 40
6.0
100
AcDbArc
 50
188.7879373226147
 51
270.0
  0
ARC
  5
1848B
330
747D
100
AcDbEntity
  8
細線
100
AcDbCircle
 10
5745.159625993213
 20
4163.077276893839
 30
0.0
 40
6.0
100
AcDbArc
 50
270.0
 51
359.4037568288275
  0
CIRCLE
  5
184B4
330
747D
100
AcDbEntity
  8
細線
100
AcDbCircle
 10
6550.375560876346
 20
4305.077276893841
 30
0.0
 40
10.0
  0
CIRCLE
  5
184B5
330
747D
100
AcDbEntity
  8
細線
100
AcDbCircle
 10
6550.375560876346
 20
4305.077276893841
 30
0.0
 40
11.52627944162938
  0
CIRCLE
  5
184B6
330
747D
100
AcDbEntity
  8
細線
100
AcDbCircle
 10
6550.375560876346
 20
4305.077276893841
 30
0.0
 40
13.0
  0
CIRCLE
  5
184B7
330
747D
100
AcDbEntity
  8
細線
100
AcDbCircle
 10
6550.375560876346
 20
4305.077276893841
 30
0.0
 40
20.0
  0
CIRCLE
  5
184B8
330
747D
100
AcDbEntity
  8
細線
100
AcDbCircle
 10
6550.375560876346
 20
4305.077276893841
 30
0.0
 40
19.19615242270703
  0
ARC
  5
184B9
330
747D
100
AcDbEntity
  8
細線
100
AcDbCircle
 10
6555.045727397621
 20
4240.090836421301
 30
0.0
 40
6.0
100
AcDbArc
 50
0.5115363837211788
 51
90.0
  0
ARC
  5
184BA
330
747D
100
AcDbEntity
  8
細線
100
AcDbCircle
 10
5753.875560876345
 20
4160.577276893842
 30
0.0
 40
800.0
100
AcDbArc
 50
0.3603531902116055
 51
6.122234843093669
  0
ARC
  5
184BB
330
747D
100
AcDbEntity
  8
細線
100
AcDbCircle
 10
2577.375560876344
 20
4204.577276893841
 30
0.0
 40
3994.0
100
AcDbArc
 50
359.4037568288795
 51
0.5962431711204776
  0
LINE
  5
184BC
330
747D
100
AcDbEntity
  8
細線
100
AcDbLine
 10
6548.859837450418
 20
4160.577276893842
 30
0.0
 11
6543.375560876345
 21
4160.577276893842
 31
0.0
  0
ARC
  5
184BD
330
747D
100
AcDbEntity
  8
細線
100
AcDbCircle
 10
6548.859837450418
 20
4165.577276893841
 30
0.0
 40
5.0
100
AcDbArc
 50
270.0
 51
0.3603531902116055
  0
LINE
  5
184BE
330
747D
100
AcDbEntity
  8
細線
100
AcDbLine
 10
6555.045727397621
 20
4163.063717366379
 30
0.0
 11
6553.182107513926
 21
4163.063717366379
 31
0.0
  0
ARC
  5
184BF
330
747D
100
AcDbEntity
  8
細線
100
AcDbCircle
 10
6555.045727397621
 20
4169.063717366379
 30
0.0
 40
6.0
100
AcDbArc
 50
270.0
 51
359.4884636162267
  0
ARC
  5
184C0
330
747D
100
AcDbEntity
  8
細線
100
AcDbCircle
 10
2577.375560876344
 20
4204.577276893841
 30
0.0
 40
3983.8287
100
AcDbArc
 50
359.4884636162788
 51
0.5115363837211788
  0
ARC
  5
184C1
330
747D
100
AcDbEntity
  8
細線
100
AcDbCircle
 10
6546.329975969101
 20
4245.577276893842
 30
0.0
 40
3.0
100
AcDbArc
 50
6.122234843093669
 51
90.0
  0
LINE
  5
184C2
330
747D
100
AcDbEntity
  8
細線
100
AcDbLine
 10
6530.377290985332
 20
4264.577276893841
 30
0.0
 11
6571.010496620975
 21
4264.577276893841
 31
0.0
  0
LINE
  5
184C3
330
747D
100
AcDbEntity
  8
細線
100
AcDbLine
 10
6543.375560876345
 20
4252.077276893841
 30
0.0
 11
6565.159625993214
 21
4252.077276893841
 31
0.0
  0
LINE
  5
184C4
330
747D
100
AcDbEntity
  8
細線
100
AcDbLine
 10
6534.756517240822
 20
4254.577276893841
 30
0.0
 11
6542.375560876346
 21
4254.577276893841
 31
0.0
  0
LINE
  5
184C5
330
747D
100
AcDbEntity
  8
細線
100
AcDbLine
 10
6546.329975969101
 20
4248.577276893842
 30
0.0
 11
6543.375560876346
 21
4248.577276893842
 31
0.0
  0
ARC
  5
184C6
330
747D
100
AcDbEntity
  8
細線
100
AcDbCircle
 10
6542.375560876346
 20
4253.577276893842
 30
0.0
 40
1.0
100
AcDbArc
 50
0.0
 51
90.0
  0
ARC
  5
184C7
330
747D
100
AcDbEntity
  8
細線
100
AcDbCircle
 10
6571.010496620975
 20
4258.577276893841
 30
0.0
 40
6.0
100
AcDbArc
 50
0.7746786087583476
 51
90.0
  0
ARC
  5
184C8
330
747D
100
AcDbEntity
  8
細線
100
AcDbCircle
 10
6565.159625993214
 20
4246.077276893841
 30
0.0
 40
6.0
100
AcDbArc
 50
0.5962431711204776
 51
90.0
  0
LINE
  5
184C9
330
747D
100
AcDbEntity
  8
細線
100
AcDbLine
 10
6555.045727397621
 20
4246.090836421301
 30
0.0
 11
6549.285691891134
 21
4246.090836421301
 31
0.0
  0
ARC
  5
184CA
330
747D
100
AcDbEntity
  8
細線
100
AcDbCircle
 10
6819.375560876345
 20
4204.577276893841
 30
0.0
 40
294.0
100
AcDbArc
 50
171.2120626773852
 51
188.7879373226147
  0
ARC
  5
184CB
330
747D
100
AcDbEntity
  8
細線
100
AcDbCircle
 10
6530.377290985332
 20
4258.577276893841
 30
0.0
 40
6.0
100
AcDbArc
 50
90.0
 51
169.4161974034797
  0
ARC
  5
184CC
330
747D
100
AcDbEntity
  8
細線
100
AcDbCircle
 10
6534.756517240822
 20
4248.577276893842
 30
0.0
 40
6.0
100
AcDbArc
 50
90.0
 51
171.2120626773852
  0
LINE
  5
184CD
330
747D
100
AcDbEntity
  8
細線
100
AcDbLine
 10
6571.010496620975
 20
4144.577276893841
 30
0.0
 11
6530.377290985332
 21
4144.577276893841
 31
0.0
  0
LINE
  5
184CE
330
747D
100
AcDbEntity
  8
細線
100
AcDbLine
 10
6565.159625993214
 20
4157.077276893841
 30
0.0
 11
6543.375560876345
 21
4157.077276893841
 31
0.0
  0
LINE
  5
184CF
330
747D
100
AcDbEntity
  8
細線
100
AcDbLine
 10
6542.375560876346
 20
4154.577276893841
 30
0.0
 11
6534.756517240822
 21
4154.577276893841
 31
0.0
  0
ARC
  5
184D0
330
747D
100
AcDbEntity
  8
細線
100
AcDbCircle
 10
6542.375560876346
 20
4155.577276893842
 30
0.0
 40
1.0
100
AcDbArc
 50
270.0
 51
0.0
  0
ARC
  5
184D1
330
747D
100
AcDbEntity
  8
細線
100
AcDbCircle
 10
6571.010496620975
 20
4150.577276893841
 30
0.0
 40
6.0
100
AcDbArc
 50
270.0
 51
359.2253213912417
  0
ARC
  5
184D2
330
747D
100
AcDbEntity
  8
細線
100
AcDbCircle
 10
6530.377290985332
 20
4150.577276893841
 30
0.0
 40
6.0
100
AcDbArc
 50
190.5838025965202
 51
270.0
  0
ARC
  5
184D3
330
747D
100
AcDbEntity
  8
細線
100
AcDbCircle
 10
2577.375560876344
 20
4204.577276893841
 30
0.0
 40
4000.0
100
AcDbArc
 50
359.2253213912417
 51
0.7746786087583476
  0
LINE
  5
184D4
330
747D
100
AcDbEntity
  8
細線
100
AcDbLine
 10
6543.375560876345
 20
4155.577276893842
 30
0.0
 11
6543.375560876345
 21
4253.577276893842
 31
0.0
  0
ARC
  5
184D5
330
747D
100
AcDbEntity
  8
細線
100
AcDbCircle
 10
6819.375560876345
 20
4204.577276893841
 30
0.0
 40
300.0
100
AcDbArc
 50
169.4161974034797
 51
190.5838025965202
  0
ARC
  5
184D6
330
747D
100
AcDbEntity
  8
細線
100
AcDbCircle
 10
6534.756517240822
 20
4160.577276893842
 30
0.0
 40
6.0
100
AcDbArc
 50
188.7879373226147
 51
270.0
  0
ARC
  5
184D7
330
747D
100
AcDbEntity
  8
細線
100
AcDbCircle
 10
6565.159625993214
 20
4163.077276893841
 30
0.0
 40
6.0
100
AcDbArc
 50
270.0
 51
359.4037568288275
  0
DIMENSION
  5
19677
330
747D
100
AcDbEntity
  8
寸法
 48
50.0
100
AcDbDimension
  2
*D20
 10
3910.589224337615
 20
3569.57727689386
 30
0.0
 11
3810.589224337615
 21
4489.577276893861
 31
0.0
 70
    32
 71
     5
 42
1840.0
  3
INABA_S40G
100
AcDbAlignedDimension
 13
4946.159503665723
 23
5409.577276893861
 33
0.0
 14
5065.322079905861
 24
3569.57727689386
 34
0.0
 50
90.0
100
AcDbRotatedDimension
1001
ACAD
1000
DSTYLE
1002
{
1070
   341
1005
0
1002
}
  0
TEXT
  5
196B9
330
747D
100
AcDbEntity
  8
文字
 62
     7
 48
50.0
100
AcDbText
 10
13248.77747366447
 20
9230.013745883729
 30
0.0
 40
100.0
  1
12
  7
STYLE1
100
AcDbText
  0
TEXT
  5
196BA
330
747D
100
AcDbEntity
  8
文字
 62
     7
 48
50.0
100
AcDbText
 10
13248.77747366447
 20
9400.013745883729
 30
0.0
 40
100.0
  1
11
  7
STYLE1
100
AcDbText
  0
TEXT
  5
196BB
330
747D
100
AcDbEntity
  8
文字
 62
     7
 48
50.0
100
AcDbText
 10
13248.77747366447
 20
9060.013745883729
 30
0.0
 40
100.0
  1
13
  7
STYLE1
100
AcDbText
  0
TEXT
  5
196BC
330
747D
100
AcDbEntity
  8
文字
 62
     7
 48
50.0
100
AcDbText
 10
13248.77747366447
 20
8890.013745883729
 30
0.0
 40
100.0
  1
14
  7
STYLE1
100
AcDbText
  0
LINE
  5
196C5
330
747D
100
AcDbEntity
  8
仕様書枠
 48
50.0
100
AcDbLine
 10
16307.19999999999
 20
9029.6
 30
0.0
 11
13127.2
 21
9029.6
 31
0.0
  0
LINE
  5
196C6
330
747D
100
AcDbEntity
  8
仕様書枠
 48
50.0
100
AcDbLine
 10
16307.19999999999
 20
9199.600000000001
 30
0.0
 11
13127.2
 21
9199.600000000001
 31
0.0
  0
LINE
  5
196C7
330
747D
100
AcDbEntity
  8
仕様書枠
 48
50.0
100
AcDbLine
 10
16307.19999999999
 20
9369.600000000001
 30
0.0
 11
13127.2
 21
9369.600000000001
 31
0.0
  0
TEXT
  5
196CF
330
747D
100
AcDbEntity
  8
文字
 62
     7
 48
50.0
100
AcDbText
 10
13583.11819016568
 20
9400.013745883729
 30
0.0
 40
100.0
  1
中鴨居
  7
STYLE1
100
AcDbText
  0
TEXT
  5
196D0
330
747D
100
AcDbEntity
  8
文字
 62
     7
 48
50.0
100
AcDbText
 10
15022.63965474515
 20
9400.013745883725
 30
0.0
 40
100.0
  1
F12            1.0
  7
STYLE1
100
AcDbText
  0
TEXT
  5
196D7
330
747D
100
AcDbEntity
  8
文字
 62
     7
 48
50.0
100
AcDbText
 10
13583.11819016568
 20
9230.013745883729
 30
0.0
 40
100.0
  1
中土台前後
  7
STYLE1
100
AcDbText
  0
TEXT
  5
196D8
330
747D
100
AcDbEntity
  8
文字
 62
     7
 48
50.0
100
AcDbText
 10
15022.63965474515
 20
9230.013745883725
 30
0.0
 40
100.0
  1
F12            1.2
  7
STYLE1
100
AcDbText
  0
TEXT
  5
196DF
330
747D
100
AcDbEntity
  8
文字
 62
     7
 48
50.0
100
AcDbText
 10
13583.11819016569
 20
9060.013745883729
 30
0.0
 40
100.0
  1
中土台幕板
  7
STYLE1
100
AcDbText
  0
TEXT
  5
196E0
330
747D
100
AcDbEntity
  8
文字
 62
     7
 48
50.0
100
AcDbText
 10
15022.63965474516
 20
9060.013745883725
 30
0.0
 40
100.0
  1
F12            0.7
  7
STYLE1
100
AcDbText
  0
MTEXT
  5
1989C
330
747D
100
AcDbEntity
  8
寸法
 62
     7
 48
50.0
100
AcDbMText
 10
6885.144275466129
 20
9022.952155350834
 30
0.0
 40
96.0
 41
0.0
 71
     5
 72
     1
  1
棚上下\P各1段
  7
STYLE1
 73
     1
 44
1.0
1001
ACAD
1000
MTEXTBEGIN
1070
    73
1070
     1
1070
    44
1040
1.0
1070
    74
1070
     0
1000
MTEXTEND
  0
MTEXT
  5
1989D
330
747D
100
AcDbEntity
  8
寸法
 62
     7
 48
50.0
100
AcDbMText
 10
6065.144282143826
 20
9022.952155350875
 30
0.0
 40
96.0
 41
0.0
 71
     5
 72
     1
  1
棚上下\P各1段
  7
STYLE1
 73
     1
 44
1.0
1001
ACAD
1000
MTEXTBEGIN
1070
    73
1070
     1
1070
    44
1040
1.0
1070
    74
1070
     0
1000
MTEXTEND
  0
LINE
  5
1989E
330
747D
100
AcDbEntity
  8
部品1
100
AcDbLine
 10
4842.375560876364
 20
9282.766456979665
 30
0.0
 11
5631.756263894986
 21
9282.766456979686
 31
0.0
  0
LINE
  5
1989F
330
747D
100
AcDbEntity
  8
細線
 48
50.0
100
AcDbLine
 10
5604.875567553992
 20
8831.266456979774
 30
0.0
 11
4843.875567553992
 21
9281.266456979723
 31
0.0
  0
LINE
  5
198A0
330
747D
100
AcDbEntity
  8
部品1
100
AcDbLine
 10
4843.875567553994
 20
8831.266456979724
 30
0.0
 11
5604.875567553992
 21
8831.266456979774
 31
0.0
  0
LINE
  5
198A1
330
747D
100
AcDbEntity
  8
細線
 48
50.0
100
AcDbLine
 10
5604.875567553993
 20
9281.266456979775
 30
0.0
 11
4843.875567553994
 21
8831.266456979724
 31
0.0
  0
LINE
  5
198A2
330
747D
100
AcDbEntity
  8
部品1
100
AcDbLine
 10
4843.875567553992
 20
9281.266456979723
 30
0.0
 11
5604.875567553993
 21
9281.266456979775
 31
0.0
  0
LINE
  5
198A3
330
747D
100
AcDbEntity
  8
部品1
100
AcDbLine
 10
5685.375560876357
 20
8360.766456979652
 30
0.0
 11
4814.375560876356
 21
8360.766456979622
 31
0.0
  0
LINE
  5
198A4
330
747D
100
AcDbEntity
  8
部品1
 48
5.0
100
AcDbLine
 10
4857.375560876357
 20
8390.266456979587
 30
0.0
 11
5610.375560876359
 21
8390.266456979643
 31
0.0
  0
DIMENSION
  5
198A5
330
747D
100
AcDbEntity
  8
寸法
 48
50.0
100
AcDbDimension
  2
*D22
 10
7194.375560876356
 20
7920.94278918458
 30
0.0
 11
6851.875560876358
 21
7920.94278918458
 31
0.0
 70
   160
  1
有効開口部間口\P<>
 71
     5
 42
684.9999999999964
  3
INABA_S40G
100
AcDbAlignedDimension
 13
6509.37556087636
 23
8360.766456979659
 33
0.0
 14
7194.375560876356
 24
8360.766456979622
 34
0.0
100
AcDbRotatedDimension
  0
LINE
  5
198A6
330
747D
100
AcDbEntity
  8
部品1
100
AcDbLine
 10
5589.375560876356
 20
8386.766456979716
 30
0.0
 11
4859.375560876356
 21
8386.766456979687
 31
0.0
  0
LINE
  5
198A7
330
747D
100
AcDbEntity
  8
破線
 48
10.0
100
AcDbLine
 10
5555.37556087635
 20
8515.76645697969
 30
0.0
 11
4894.375560876349
 21
8515.766456979672
 31
0.0
  0
LINE
  5
198A8
330
747D
100
AcDbEntity
  8
部品1
100
AcDbLine
 10
5578.876131324522
 20
8492.265876159745
 30
0.0
 11
4870.876532302752
 21
8492.265374671225
 31
0.0
  0
ARC
  5
198A9
330
747D
100
AcDbEntity
  8
想像線
 48
10.0
100
AcDbCircle
 10
5582.023510199197
 20
8362.461350355273
 30
0.0
 40
722.6499369155582
100
AcDbArc
 50
180.1343808685616
 51
270.5829222700225
  0
LINE
  5
198AA
330
747D
100
AcDbEntity
  8
部品1
100
AcDbLine
 10
4814.375560876364
 20
9310.766456979665
 30
0.0
 11
7274.375560876364
 21
9310.766456979761
 31
0.0
  0
LINE
  5
198AB
330
747D
100
AcDbEntity
  8
部品1
100
AcDbLine
 10
7274.37556087634
 20
8360.766456979744
 30
0.0
 11
4814.375560876356
 21
8360.766456979652
 31
0.0
  0
DIMENSION
  5
198AC
330
747D
100
AcDbEntity
  8
寸法
100
AcDbDimension
  2
*D23
 10
5579.375560876362
 20
9526.574676604763
 30
0.0
 11
5224.625560876362
 21
9526.574676604763
 31
0.0
 70
   160
 71
     5
 42
709.9999999999981
  3
INABA_S40G
100
AcDbAlignedDimension
 13
4869.375560876363
 23
9310.766456979694
 33
0.0
 14
5579.375560876362
 24
9310.766456979783
 34
0.0
100
AcDbRotatedDimension
1001
ACAD
1000
DSTYLE
1002
{
1002
}
  0
DIMENSION
  5
198AD
330
747D
100
AcDbEntity
  8
寸法
100
AcDbDimension
  2
*D24
 10
4869.375560876363
 20
9526.574676604647
 30
0.0
 11
4505.890279502089
 21
9526.574676604647
 31
0.0
 70
   160
 71
     5
 42
55.00000000003637
  3
INABA_S40G
100
AcDbAlignedDimension
 13
4814.375560876328
 23
9310.766456979665
 33
0.0
 14
4869.375560876363
 24
9310.766456979665
 34
0.0
100
AcDbRotatedDimension
1001
ACAD
1000
DSTYLE
1002
{
1002
}
  0
LINE
  5
198AE
330
747D
100
AcDbEntity
  8
部品1
100
AcDbLine
 10
4842.375560876338
 20
8415.766456979614
 30
0.0
 11
4842.375560876364
 21
9282.766456979665
 31
0.0
  0
LINE
  5
198AF
330
747D
100
AcDbEntity
  8
部品1
100
AcDbLine
 10
4814.375560876328
 20
9310.766456979628
 30
0.0
 11
4814.375560876356
 21
8360.766456979622
 31
0.0
  0
LINE
  5
198B0
330
747D
100
AcDbEntity
  8
破線
 48
10.0
100
AcDbLine
 10
4894.375625801065
 20
8831.266456979673
 30
0.0
 11
4894.375560876349
 21
8515.766456979672
 31
0.0
  0
LINE
  5
198B1
330
747D
100
AcDbEntity
  8
部品1
 48
5.0
100
AcDbLine
 10
4870.876532301321
 20
8492.266456979761
 30
0.0
 11
4870.87603937001
 21
8831.266456979673
 31
0.0
  0
LINE
  5
198B2
330
747D
100
AcDbEntity
  8
部品1
 48
2.83
100
AcDbLine
 10
4857.375560876357
 20
8390.266456979587
 30
0.0
 11
4857.375560876357
 21
8360.766456979586
 31
0.0
  0
LINE
  5
198B3
330
747D
100
AcDbEntity
  8
部品1
100
AcDbLine
 10
4859.375560876356
 20
8386.766456979687
 30
0.0
 11
4859.375560876356
 21
8360.766456979652
 31
0.0
  0
LINE
  5
198B4
330
747D
100
AcDbEntity
  8
部品1
 48
2.83
100
AcDbLine
 10
4857.375560876357
 20
8360.766456979586
 30
0.0
 11
4814.375560876356
 21
8360.766456979586
 31
0.0
  0
LINE
  5
198B5
330
747D
100
AcDbEntity
  8
部品1
 48
2.83
100
AcDbLine
 10
4869.375560876356
 20
8415.766456979586
 30
0.0
 11
4869.37556087636
 21
8390.266456979587
 31
0.0
  0
LINE
  5
198B6
330
747D
100
AcDbEntity
  8
部品1
100
AcDbLine
 10
4842.375560876355
 20
8415.76645697963
 30
0.0
 11
4814.375560876355
 21
8415.76645697963
 31
0.0
  0
LINE
  5
198B7
330
747D
100
AcDbEntity
  8
部品1
100
AcDbLine
 10
4842.375560876338
 20
8415.766456979614
 30
0.0
 11
4814.375560876355
 21
8415.766456979614
 31
0.0
  0
LINE
  5
198B8
330
747D
100
AcDbEntity
  8
部品1
100
AcDbLine
 10
4842.375560876338
 20
8415.766456979586
 30
0.0
 11
4814.375560876355
 21
8415.766456979586
 31
0.0
  0
LINE
  5
198B9
330
747D
100
AcDbEntity
  8
部品1
 48
2.83
100
AcDbLine
 10
4814.375560876356
 20
8415.766456979586
 30
0.0
 11
4837.375560876356
 21
8415.766456979586
 31
0.0
  0
LINE
  5
198BA
330
747D
100
AcDbEntity
  8
部品1
 48
2.83
100
AcDbLine
 10
4846.375560876357
 20
8415.766456979586
 30
0.0
 11
4869.375560876356
 21
8415.766456979586
 31
0.0
  0
LINE
  5
198BB
330
747D
100
AcDbEntity
  8
部品1
 48
50.0
100
AcDbLine
 10
4870.876532302752
 20
8492.265374671225
 30
0.0
 11
4842.375560876338
 21
8463.24620373876
 31
0.0
  0
LINE
  5
198BC
330
747D
100
AcDbEntity
  8
部品1
 48
50.0
100
AcDbLine
 10
4843.875567553992
 20
9281.266456979723
 30
0.0
 11
4843.875567553994
 21
8831.266456979724
 31
0.0
  0
LINE
  5
198BD
330
747D
100
AcDbEntity
  8
部品1
100
AcDbLine
 10
4842.375560876338
 20
8835.766456979628
 30
0.0
 11
4814.375560876339
 21
8835.766456979628
 31
0.0
  0
LINE
  5
198BE
330
747D
100
AcDbEntity
  8
部品1
100
AcDbLine
 10
4869.375560876363
 20
9310.766456979665
 30
0.0
 11
4869.375560876363
 21
9282.766456979665
 31
0.0
  0
LINE
  5
198BF
330
747D
100
AcDbEntity
  8
部品1
100
AcDbLine
 10
4869.375560876328
 20
9310.766456979628
 30
0.0
 11
4869.375560876331
 21
9282.766456979627
 31
0.0
  0
LINE
  5
198C0
330
747D
100
AcDbEntity
  8
部品1
100
AcDbLine
 10
4842.375560876331
 20
9255.766456979635
 30
0.0
 11
4814.375560876332
 21
9255.766456979635
 31
0.0
  0
LINE
  5
198C1
330
747D
100
AcDbEntity
  8
部品1
 48
50.0
100
AcDbLine
 10
4843.875567553987
 20
9281.266456979672
 30
0.0
 11
4842.375560876364
 21
9282.766456979665
 31
0.0
  0
DIMENSION
  5
198C2
330
747D
100
AcDbEntity
  8
寸法
100
AcDbDimension
  2
*D25
 10
6399.375560876362
 20
9526.574676604763
 30
0.0
 11
6044.625560876362
 21
9526.574676604763
 31
0.0
 70
   160
 71
     5
 42
709.999999999999
  3
INABA_S40G
100
AcDbAlignedDimension
 13
5689.375560876364
 23
9310.766456979694
 33
0.0
 14
6399.375560876362
 24
9310.766456979783
 34
0.0
100
AcDbRotatedDimension
1001
ACAD
1000
DSTYLE
1002
{
1002
}
  0
DIMENSION
  5
198C3
330
747D
100
AcDbEntity
  8
寸法
100
AcDbDimension
  2
*D26
 10
7274.375560876364
 20
9526.574676604742
 30
0.0
 11
7582.860842250602
 21
9526.574676604742
 31
0.0
 70
   160
 71
     5
 42
55.0
  3
INABA_S40G
100
AcDbAlignedDimension
 13
7219.375560876364
 23
9310.766456979761
 33
0.0
 14
7274.375560876364
 24
9310.766456979761
 34
0.0
100
AcDbRotatedDimension
1001
ACAD
1000
DSTYLE
1002
{
1002
}
  0
DIMENSION
  5
198C4
330
747D
100
AcDbEntity
  8
寸法
100
AcDbDimension
  2
*D27
 10
7921.801906610774
 20
9255.76645697976
 30
0.0
 11
7921.801906610774
 21
9619.251738354002
 31
0.0
 70
   160
 71
     5
 42
55.0
  3
INABA_S40G
100
AcDbAlignedDimension
 13
7274.375560876364
 23
9310.766456979761
 33
0.0
 14
7274.375560876364
 24
9255.76645697976
 34
0.0
 50
90.0
100
AcDbRotatedDimension
1001
ACAD
1000
DSTYLE
1002
{
1002
}
  0
DIMENSION
  5
198C5
330
747D
100
AcDbEntity
  8
寸法
 48
50.0
100
AcDbDimension
  2
*D28
 10
6509.375560876366
 20
9526.574676604763
 30
0.0
 11
6454.375560876364
 21
9626.574676604764
 31
0.0
 70
    32
 71
     5
 42
110.0000000000036
  3
INABA_S40G
100
AcDbAlignedDimension
 13
6399.375560876362
 23
9310.766456979783
 33
0.0
 14
6509.375560876366
 24
9310.766456979761
 34
0.0
100
AcDbRotatedDimension
  0
DIMENSION
  5
198C6
330
747D
100
AcDbEntity
  8
寸法
 48
50.0
100
AcDbDimension
  2
*D29
 10
6509.375560876366
 20
9526.574676604763
 30
0.0
 11
6864.375560876365
 21
9626.574676604764
 31
0.0
 70
    32
 71
     5
 42
709.9999999999981
  3
INABA_S40G
100
AcDbAlignedDimension
 13
7219.375560876364
 23
9310.766456979775
 33
0.0
 14
6509.375560876366
 24
9310.766456979761
 34
0.0
100
AcDbRotatedDimension
  0
DIMENSION
  5
198C7
330
747D
100
AcDbEntity
  8
寸法
 48
50.0
100
AcDbDimension
  2
*D30
 10
5689.375560876366
 20
9526.574676604763
 30
0.0
 11
5634.375560876364
 21
9626.574676604764
 31
0.0
 70
    32
 71
     5
 42
110.0000000000036
  3
INABA_S40G
100
AcDbAlignedDimension
 13
5579.375560876362
 23
9310.766456979783
 33
0.0
 14
5689.375560876366
 24
9310.766456979761
 34
0.0
100
AcDbRotatedDimension
  0
DIMENSION
  5
198C8
330
747D
100
AcDbEntity
  8
寸法
100
AcDbDimension
  2
*D31
 10
7921.801906610749
 20
8360.766456979744
 30
0.0
 11
7921.801906610749
 21
7982.904990074887
 31
0.0
 70
   160
 71
     5
 42
55.0
  3
INABA_S40G
100
AcDbAlignedDimension
 13
7274.37556087634
 23
8415.766456979746
 33
0.0
 14
7274.37556087634
 24
8360.766456979744
 34
0.0
 50
90.0
100
AcDbRotatedDimension
1001
ACAD
1000
DSTYLE
1002
{
1002
}
  0
DIMENSION
  5
198C9
330
747D
100
AcDbEntity
  8
寸法
100
AcDbDimension
  2
*D32
 10
7921.801906610774
 20
8415.766456979746
 30
0.0
 11
7921.801906610774
 21
8835.766456979754
 31
0.0
 70
   160
  1
2X420=<>
 71
     5
 42
840.0000000000146
  3
INABA_S40G
100
AcDbAlignedDimension
 13
7274.375560876364
 23
9255.76645697976
 33
0.0
 14
7274.37556087634
 24
8415.766456979746
 34
0.0
 50
90.0
100
AcDbRotatedDimension
1001
ACAD
1000
DSTYLE
1002
{
1002
}
  0
DIMENSION
  5
198CA
330
747D
100
AcDbEntity
  8
寸法
100
AcDbDimension
  2
*D33
 10
8230.913437426453
 20
8360.766456979744
 30
0.0
 11
8230.913437426449
 21
8834.744175538665
 31
0.0
 70
   160
 71
     5
 42
950.0000000000145
  3
INABA_S40G
100
AcDbAlignedDimension
 13
7274.375560876364
 23
9310.766456979761
 33
0.0
 14
7274.37556087634
 24
8360.766456979744
 34
0.0
 50
90.0
100
AcDbRotatedDimension
1001
ACAD
1000
DSTYLE
1002
{
1002
}
  0
LINE
  5
198CB
330
747D
100
AcDbEntity
  8
想像線
 48
10.0
100
AcDbLine
 10
6409.375560876355
 20
8360.766456979701
 30
0.0
 11
6409.375560876355
 21
7639.848813323911
 31
0.0
  0
LINE
  5
198CC
330
747D
100
AcDbEntity
  8
想像線
 48
10.0
100
AcDbLine
 10
7229.375560876357
 20
8360.766456979712
 30
0.0
 11
7229.375560876357
 21
7639.848813323919
 31
0.0
  0
ARC
  5
198CD
330
747D
100
AcDbEntity
  8
想像線
 48
10.0
100
AcDbCircle
 10
7222.023510199199
 20
8362.461350355287
 30
0.0
 40
722.6499369155629
100
AcDbArc
 50
180.1343808685616
 51
270.5829222700225
  0
LINE
  5
198CE
330
747D
100
AcDbEntity
  8
想像線
 48
10.0
100
AcDbLine
 10
5589.375560876356
 20
8360.766456979701
 30
0.0
 11
5589.375560876356
 21
7639.848813323911
 31
0.0
  0
ARC
  5
198CF
330
747D
100
AcDbEntity
  8
想像線
 48
10.0
100
AcDbCircle
 10
6402.023510199197
 20
8362.461350355273
 30
0.0
 40
722.6499369155592
100
AcDbArc
 50
180.1343808685616
 51
270.5829222700225
  0
LINE
  5
198D0
330
747D
100
AcDbEntity
  8
部品1
 48
5.0
100
AcDbLine
 10
6422.375560876358
 20
8415.766456979701
 30
0.0
 11
6399.375560876357
 21
8415.766456979701
 31
0.0
  0
ARC
  5
198D1
330
747D
100
AcDbEntity
  8
細線
 48
0.2
100
AcDbCircle
 10
6401.438008705035
 20
8361.764086934924
 30
0.0
 40
4.049999999999999
100
AcDbArc
 50
194.26035068539
 51
345.73964931461
  0
LINE
  5
198D2
330
747D
100
AcDbEntity
  8
部品1
 48
0.2
100
AcDbLine
 10
6396.438008705035
 20
8353.764086934923
 30
0.0
 11
6401.438008705035
 21
8353.764086934923
 31
0.0
  0
LINE
  5
198D3
330
747D
100
AcDbEntity
  8
部品1
 48
50.0
100
AcDbLine
 10
6426.375560876343
 20
8464.266456979702
 30
0.0
 11
6398.875560876341
 21
8492.266456979709
 31
0.0
  0
LINE
  5
198D4
330
747D
100
AcDbEntity
  8
部品1
100
AcDbLine
 10
5663.875567553993
 20
9281.266456979723
 30
0.0
 11
6424.875567553994
 21
9281.266456979775
 31
0.0
  0
LINE
  5
198D5
330
747D
100
AcDbEntity
  8
部品1
100
AcDbLine
 10
5663.875567553994
 20
8831.266456979724
 30
0.0
 11
6424.875567553993
 21
8831.266456979774
 31
0.0
  0
LINE
  5
198D6
330
747D
100
AcDbEntity
  8
細線
 48
50.0
100
AcDbLine
 10
6424.875567553993
 20
8831.266456979774
 30
0.0
 11
5663.875567553993
 21
9281.266456979723
 31
0.0
  0
LINE
  5
198D7
330
747D
100
AcDbEntity
  8
細線
 48
50.0
100
AcDbLine
 10
6424.875567553994
 20
9281.266456979775
 30
0.0
 11
5663.875567553994
 21
8831.266456979724
 31
0.0
  0
LINE
  5
198D8
330
747D
100
AcDbEntity
  8
部品1
100
AcDbLine
 10
6409.375560876355
 20
8386.766456979753
 30
0.0
 11
5679.375560876357
 21
8386.766456979724
 31
0.0
  0
LINE
  5
198D9
330
747D
100
AcDbEntity
  8
部品1
100
AcDbLine
 10
5662.375560876311
 20
9282.766456979686
 30
0.0
 11
6451.756263894965
 21
9282.766456979709
 31
0.0
  0
LINE
  5
198DA
330
747D
100
AcDbEntity
  8
部品1
 48
5.0
100
AcDbLine
 10
5658.375560876359
 20
8390.266456979643
 30
0.0
 11
6430.375560876358
 21
8390.2664569797
 31
0.0
  0
LINE
  5
198DB
330
747D
100
AcDbEntity
  8
点線
 48
10.0
100
AcDbLine
 10
6375.37556087635
 20
8515.76645697971
 30
0.0
 11
6375.375552521798
 21
8831.266456979767
 31
0.0
  0
LINE
  5
198DC
330
747D
100
AcDbEntity
  8
部品1
 48
50.0
100
AcDbLine
 10
6398.875560876341
 20
8492.266456979709
 30
0.0
 11
6398.875560876318
 21
8831.266456979767
 31
0.0
  0
LINE
  5
198DD
330
747D
100
AcDbEntity
  8
点線
 48
10.0
100
AcDbLine
 10
5713.375560876349
 20
8515.766456979717
 30
0.0
 11
5713.375548445239
 21
8831.266456979712
 31
0.0
  0
LINE
  5
198DE
330
747D
100
AcDbEntity
  8
点線
 48
10.0
100
AcDbLine
 10
5555.37556087635
 20
8515.76645697971
 30
0.0
 11
5555.375552521798
 21
8831.266456979767
 31
0.0
  0
LINE
  5
198DF
330
747D
100
AcDbEntity
  8
部品1
 48
50.0
100
AcDbLine
 10
5662.375560876343
 20
8415.766456979701
 30
0.0
 11
5662.375560876288
 21
9310.76645697971
 31
0.0
  0
LINE
  5
198E0
330
747D
100
AcDbEntity
  8
部品1
 48
50.0
100
AcDbLine
 10
5606.375560876343
 20
8415.766456979701
 30
0.0
 11
5606.37556087629
 21
9310.766456979697
 31
0.0
  0
LINE
  5
198E1
330
747D
100
AcDbEntity
  8
部品1
 48
50.0
100
AcDbLine
 10
5578.875560876341
 20
8492.266456979709
 30
0.0
 11
5578.875560876317
 21
8831.266456979767
 31
0.0
  0
LINE
  5
198E2
330
747D
100
AcDbEntity
  8
部品1
 48
50.0
100
AcDbLine
 10
5689.875554532055
 20
8492.266457004371
 30
0.0
 11
5689.875557504919
 21
8831.266456979712
 31
0.0
  0
LINE
  5
198E3
330
747D
100
AcDbEntity
  8
部品1
 48
50.0
100
AcDbLine
 10
5634.375560876343
 20
8415.766456979701
 30
0.0
 11
5634.375560876343
 21
9255.76645697971
 31
0.0
  0
LINE
  5
198E4
330
747D
100
AcDbEntity
  8
破線
 48
10.0
100
AcDbLine
 10
6375.37556087635
 20
8515.76645697971
 30
0.0
 11
5713.375560876349
 21
8515.766456979696
 31
0.0
  0
LINE
  5
198E5
330
747D
100
AcDbEntity
  8
部品1
100
AcDbLine
 10
6398.875560876341
 20
8492.266456979709
 30
0.0
 11
5689.875067622459
 21
8492.265954782237
 31
0.0
  0
LINE
  5
198E6
330
747D
100
AcDbEntity
  8
部品1
100
AcDbLine
 10
5677.375560876358
 20
8390.266456979654
 30
0.0
 11
5677.375560876359
 21
8360.766456979701
 31
0.0
  0
LINE
  5
198E7
330
747D
100
AcDbEntity
  8
部品1
 48
5.0
100
AcDbLine
 10
5677.375560876359
 20
8390.2664569797
 30
0.0
 11
5677.375560876359
 21
8360.766456979701
 31
0.0
  0
LINE
  5
198E8
330
747D
100
AcDbEntity
  8
部品1
100
AcDbLine
 10
5591.375560876356
 20
8390.266456979647
 30
0.0
 11
5591.375560876354
 21
8360.766456979694
 31
0.0
  0
LINE
  5
198E9
330
747D
100
AcDbEntity
  8
部品1
 48
5.0
100
AcDbLine
 10
5591.375560876358
 20
8390.2664569797
 30
0.0
 11
5591.375560876358
 21
8360.766456979701
 31
0.0
  0
LINE
  5
198EA
330
747D
100
AcDbEntity
  8
部品1
100
AcDbLine
 10
5679.375560876357
 20
8386.766456979724
 30
0.0
 11
5679.375560876357
 21
8360.766456979687
 31
0.0
  0
LINE
  5
198EB
330
747D
100
AcDbEntity
  8
部品1
100
AcDbLine
 10
5589.375560876356
 20
8386.766456979753
 30
0.0
 11
5589.375560876356
 21
8360.766456979698
 31
0.0
  0
ARC
  5
198EC
330
747D
100
AcDbEntity
  8
部品1
 48
0.2
100
AcDbCircle
 10
5581.438008705035
 20
8361.764086934924
 30
0.0
 40
8.0
100
AcDbArc
 50
270.0
 51
352.8363522778349
  0
ARC
  5
198ED
330
747D
100
AcDbEntity
  8
部品1
 48
0.2
100
AcDbCircle
 10
5576.438008705035
 20
8361.764086934924
 30
0.0
 40
8.0
100
AcDbArc
 50
187.1636477221651
 51
270.0
  0
ARC
  5
198EE
330
747D
100
AcDbEntity
  8
細線
 48
0.2
100
AcDbCircle
 10
5581.438008705035
 20
8361.764086934924
 30
0.0
 40
4.049999999999999
100
AcDbArc
 50
194.26035068539
 51
345.73964931461
  0
LINE
  5
198EF
330
747D
100
AcDbEntity
  8
部品1
 48
0.2
100
AcDbLine
 10
5576.438008705035
 20
8353.764086934923
 30
0.0
 11
5581.438008705035
 21
8353.764086934923
 31
0.0
  0
LINE
  5
198F0
330
747D
100
AcDbEntity
  8
部品1
 48
5.0
100
AcDbLine
 10
5591.375560876358
 20
8360.766456979701
 30
0.0
 11
5677.375560876359
 21
8360.766456979701
 31
0.0
  0
LINE
  5
198F1
330
747D
100
AcDbEntity
  8
部品1
 48
5.0
100
AcDbLine
 10
5689.375560876358
 20
8415.766456979701
 30
0.0
 11
5689.37556087636
 21
8390.2664569797
 31
0.0
  0
LINE
  5
198F2
330
747D
100
AcDbEntity
  8
部品1
 48
5.0
100
AcDbLine
 10
5658.375560876359
 20
8415.766456979701
 30
0.0
 11
5658.375560876359
 21
8390.2664569797
 31
0.0
  0
LINE
  5
198F3
330
747D
100
AcDbEntity
  8
部品1
 48
5.0
100
AcDbLine
 10
5610.375560876359
 20
8415.766456979701
 30
0.0
 11
5610.375560876359
 21
8390.2664569797
 31
0.0
  0
LINE
  5
198F4
330
747D
100
AcDbEntity
  8
部品1
 48
5.0
100
AcDbLine
 10
5579.375560876359
 20
8415.766456979701
 30
0.0
 11
5579.37556087636
 21
8390.2664569797
 31
0.0
  0
LINE
  5
198F5
330
747D
100
AcDbEntity
  8
部品1
 48
5.0
100
AcDbLine
 10
5602.375560876359
 20
8415.766456979701
 30
0.0
 11
5579.375560876357
 21
8415.766456979701
 31
0.0
  0
LINE
  5
198F6
330
747D
100
AcDbEntity
  8
部品1
 48
50.0
100
AcDbLine
 10
5606.375560876343
 20
8464.266456979702
 30
0.0
 11
5578.875560876341
 21
8492.266456979709
 31
0.0
  0
LINE
  5
198F7
330
747D
100
AcDbEntity
  8
部品1
 48
5.0
100
AcDbLine
 10
5606.375560876343
 20
8415.766456979701
 30
0.0
 11
5662.375560876343
 21
8415.766456979701
 31
0.0
  0
LINE
  5
198F8
330
747D
100
AcDbEntity
  8
部品1
 48
5.0
100
AcDbLine
 10
5666.375560876359
 20
8415.766456979701
 30
0.0
 11
5689.375560876358
 21
8415.766456979701
 31
0.0
  0
LINE
  5
198F9
330
747D
100
AcDbEntity
  8
部品1
 48
50.0
100
AcDbLine
 10
5689.87556087634
 20
8492.266457004374
 30
0.0
 11
5662.375560876343
 21
8464.266456979702
 31
0.0
  0
ARC
  5
198FA
330
747D
100
AcDbEntity
  8
部品1
 48
0.2
100
AcDbCircle
 10
6396.438008705035
 20
8361.764086934924
 30
0.0
 40
8.0
100
AcDbArc
 50
187.1636477221651
 51
270.0
  0
LINE
  5
198FB
330
747D
100
AcDbEntity
  8
部品1
 48
5.0
100
AcDbLine
 10
6399.375560876358
 20
8415.766456979701
 30
0.0
 11
6399.37556087636
 21
8390.2664569797
 31
0.0
  0
LINE
  5
198FC
330
747D
100
AcDbEntity
  8
部品1
 48
50.0
100
AcDbLine
 10
5663.875567553993
 20
9281.266456979723
 30
0.0
 11
5663.875567553994
 21
8831.266456979724
 31
0.0
  0
LINE
  5
198FD
330
747D
100
AcDbEntity
  8
部品1
 48
50.0
100
AcDbLine
 10
5604.875567553993
 20
9281.266456979775
 30
0.0
 11
5604.875567553993
 21
8831.266456979774
 31
0.0
  0
LINE
  5
198FE
330
747D
100
AcDbEntity
  8
部品1
 48
5.0
100
AcDbLine
 10
5634.375560876343
 20
8835.766456979705
 30
0.0
 11
5606.375560876291
 21
8835.76645697971
 31
0.0
  0
LINE
  5
198FF
330
747D
100
AcDbEntity
  8
部品1
 48
50.0
100
AcDbLine
 10
5634.375560876334
 20
8835.76645697971
 30
0.0
 11
5662.375560876317
 21
8835.766456979712
 31
0.0
  0
LINE
  5
19900
330
747D
100
AcDbEntity
  8
部品1
 48
50.0
100
AcDbLine
 10
5634.375560876334
 20
8873.766456979709
 30
0.0
 11
5662.375560876317
 21
8873.766456979714
 31
0.0
  0
LINE
  5
19901
330
747D
100
AcDbEntity
  8
部品1
 48
5.0
100
AcDbLine
 10
5689.375560876366
 20
9310.766456979711
 30
0.0
 11
5689.37556087636
 21
9282.766456979716
 31
0.0
  0
LINE
  5
19902
330
747D
100
AcDbEntity
  8
部品1
 48
50.0
100
AcDbLine
 10
5663.875560876295
 20
9281.211935459451
 30
0.0
 11
5662.37556087629
 21
9282.766456979709
 31
0.0
  0
LINE
  5
19903
330
747D
100
AcDbEntity
  8
部品1
 48
50.0
100
AcDbLine
 10
5604.875567553994
 20
9281.211944319954
 30
0.0
 11
5606.37556087629
 21
9282.766456979709
 31
0.0
  0
LINE
  5
19904
330
747D
100
AcDbEntity
  8
部品1
 48
5.0
100
AcDbLine
 10
5579.375560876361
 20
9282.766456979709
 30
0.0
 11
5579.375560876362
 21
9310.76645697971
 31
0.0
  0
LINE
  5
19906
330
747D
100
AcDbEntity
  8
部品1
 48
5.0
100
AcDbLine
 10
5662.375560876292
 20
9255.76645697971
 30
0.0
 11
5606.375560876291
 21
9255.76645697971
 31
0.0
  0
LINE
  5
19907
330
747D
100
AcDbEntity
  8
部品1
 48
5.0
100
AcDbLine
 10
6399.375560876361
 20
9282.766456979709
 30
0.0
 11
6399.375560876362
 21
9310.76645697971
 31
0.0
  0
LINE
  5
19908
330
747D
100
AcDbEntity
  8
破線
 48
10.0
100
AcDbLine
 10
7194.375625801033
 20
8831.26645697971
 30
0.0
 11
7194.375560876345
 21
8515.766456979752
 31
0.0
  0
LINE
  5
19909
330
747D
100
AcDbEntity
  8
部品1
100
AcDbLine
 10
7246.375560876365
 20
9282.766456979761
 30
0.0
 11
7246.375560876341
 21
8415.766456979746
 31
0.0
  0
LINE
  5
1990A
330
747D
100
AcDbEntity
  8
部品1
100
AcDbLine
 10
7274.375560876364
 20
9310.766456979761
 30
0.0
 11
7274.37556087634
 21
8360.766456979744
 31
0.0
  0
DIMENSION
  5
1990B
330
747D
100
AcDbEntity
  8
寸法
100
AcDbDimension
  2
*D34
 10
7186.18206458233
 20
8612.219346736729
 30
0.0
 11
6863.222622994564
 21
8612.219346736729
 31
0.0
 70
   160
 71
     5
 42
761.0000000000118
  3
INABA_S40G
100
AcDbAlignedDimension
 13
6483.875560876296
 23
8831.266456979712
 33
0.0
 14
7244.875560876308
 24
8831.26645697971
 34
0.0
100
AcDbRotatedDimension
1001
ACAD
1000
DSTYLE
1002
{
1002
}
  0
LINE
  5
1990C
330
747D
100
AcDbEntity
  8
点線
 48
10.0
100
AcDbLine
 10
6533.37556087635
 20
8515.766456979717
 30
0.0
 11
6533.375548445239
 21
8831.266456979712
 31
0.0
  0
LINE
  5
1990D
330
747D
100
AcDbEntity
  8
部品1
 48
50.0
100
AcDbLine
 10
6482.375560876343
 20
8415.766456979701
 30
0.0
 11
6482.375560876288
 21
9310.76645697971
 31
0.0
  0
LINE
  5
1990E
330
747D
100
AcDbEntity
  8
部品1
 48
50.0
100
AcDbLine
 10
6426.375560876343
 20
8415.766456979701
 30
0.0
 11
6426.375560876289
 21
9310.766456979729
 31
0.0
  0
LINE
  5
1990F
330
747D
100
AcDbEntity
  8
部品1
 48
5.0
100
AcDbLine
 10
7217.874589451406
 20
8492.266456979761
 30
0.0
 11
7217.875082382717
 21
8831.266456979705
 31
0.0
  0
LINE
  5
19910
330
747D
100
AcDbEntity
  8
部品1
 48
50.0
100
AcDbLine
 10
6509.875554532055
 20
8492.266457004371
 30
0.0
 11
6509.875557504919
 21
8831.266456979712
 31
0.0
  0
LINE
  5
19911
330
747D
100
AcDbEntity
  8
部品1
 48
50.0
100
AcDbLine
 10
6454.375560876343
 20
8415.766456979701
 30
0.0
 11
6454.375560876343
 21
9255.76645697971
 31
0.0
  0
DIMENSION
  5
19912
330
747D
100
AcDbEntity
  8
寸法
100
AcDbDimension
  2
*D35
 10
7600.233286738322
 20
8736.048641310816
 30
0.0
 11
7500.23328673832
 21
8961.048641310817
 31
0.0
 70
    32
 71
     5
 42
450.0
  3
INABA_S40G
100
AcDbAlignedDimension
 13
7244.875560876296
 23
9281.266456979706
 33
0.0
 14
7244.875560876296
 24
8831.266456979705
 34
0.0
 50
90.0
100
AcDbRotatedDimension
1001
ACAD
1000
DSTYLE
1002
{
1002
}
  0
LINE
  5
19913
330
747D
100
AcDbEntity
  8
部品1
100
AcDbLine
 10
7217.874589451549
 20
8492.266562692599
 30
0.0
 11
6509.875560876341
 21
8492.266457004374
 31
0.0
  0
LINE
  5
19914
330
747D
100
AcDbEntity
  8
破線
 48
10.0
100
AcDbLine
 10
7194.375560876342
 20
8515.766456979752
 30
0.0
 11
6533.37556087635
 21
8515.766456979717
 31
0.0
  0
LINE
  5
19915
330
747D
100
AcDbEntity
  8
部品1
100
AcDbLine
 10
7229.375560876357
 20
8386.766456979753
 30
0.0
 11
6499.375560876356
 21
8386.766456979694
 31
0.0
  0
LINE
  5
19916
330
747D
100
AcDbEntity
  8
部品1
 48
5.0
100
AcDbLine
 10
7231.375560876339
 20
8390.2664569797
 30
0.0
 11
6478.375560876358
 21
8390.2664569797
 31
0.0
  0
LINE
  5
19917
330
747D
100
AcDbEntity
  8
部品1
100
AcDbLine
 10
6497.375560876358
 20
8390.266456979654
 30
0.0
 11
6497.375560876358
 21
8360.766456979701
 31
0.0
  0
LINE
  5
19918
330
747D
100
AcDbEntity
  8
部品1
 48
5.0
100
AcDbLine
 10
6497.375560876358
 20
8390.2664569797
 30
0.0
 11
6497.375560876358
 21
8360.766456979701
 31
0.0
  0
LINE
  5
19919
330
747D
100
AcDbEntity
  8
部品1
100
AcDbLine
 10
6411.375560876355
 20
8390.266456979647
 30
0.0
 11
6411.375560876354
 21
8360.766456979694
 31
0.0
  0
LINE
  5
1991A
330
747D
100
AcDbEntity
  8
部品1
 48
5.0
100
AcDbLine
 10
6411.375560876358
 20
8390.2664569797
 30
0.0
 11
6411.375560876358
 21
8360.766456979701
 31
0.0
  0
LINE
  5
1991B
330
747D
100
AcDbEntity
  8
部品1
100
AcDbLine
 10
6499.375560876356
 20
8386.766456979694
 30
0.0
 11
6499.375560876355
 21
8360.766456979701
 31
0.0
  0
LINE
  5
1991C
330
747D
100
AcDbEntity
  8
部品1
100
AcDbLine
 10
6409.375560876355
 20
8386.766456979753
 30
0.0
 11
6409.375560876355
 21
8360.766456979698
 31
0.0
  0
ARC
  5
1991D
330
747D
100
AcDbEntity
  8
部品1
 48
0.2
100
AcDbCircle
 10
6401.438008705035
 20
8361.764086934924
 30
0.0
 40
8.0
100
AcDbArc
 50
270.0
 51
352.8363522778349
  0
LINE
  5
1991E
330
747D
100
AcDbEntity
  8
部品1
 48
5.0
100
AcDbLine
 10
6411.375560876358
 20
8360.766456979701
 30
0.0
 11
6497.375560876358
 21
8360.766456979701
 31
0.0
  0
LINE
  5
1991F
330
747D
100
AcDbEntity
  8
部品1
 48
5.0
100
AcDbLine
 10
6509.375560876359
 20
8415.766456979701
 30
0.0
 11
6509.37556087636
 21
8390.2664569797
 31
0.0
  0
LINE
  5
19920
330
747D
100
AcDbEntity
  8
部品1
 48
5.0
100
AcDbLine
 10
6478.37556087636
 20
8415.766456979701
 30
0.0
 11
6478.375560876358
 21
8390.2664569797
 31
0.0
  0
LINE
  5
19921
330
747D
100
AcDbEntity
  8
部品1
 48
5.0
100
AcDbLine
 10
6430.375560876358
 20
8415.766456979701
 30
0.0
 11
6430.375560876358
 21
8390.2664569797
 31
0.0
  0
LINE
  5
19922
330
747D
100
AcDbEntity
  8
部品1
 48
5.0
100
AcDbLine
 10
6426.375560876343
 20
8415.766456979701
 30
0.0
 11
6482.375560876343
 21
8415.766456979701
 31
0.0
  0
LINE
  5
19923
330
747D
100
AcDbEntity
  8
部品1
 48
5.0
100
AcDbLine
 10
6486.375560876358
 20
8415.766456979701
 30
0.0
 11
6509.375560876359
 21
8415.766456979701
 31
0.0
  0
LINE
  5
19924
330
747D
100
AcDbEntity
  8
部品1
 48
50.0
100
AcDbLine
 10
6509.875560876341
 20
8492.266457004374
 30
0.0
 11
6482.375560876343
 21
8464.266456979702
 31
0.0
  0
LINE
  5
19925
330
747D
100
AcDbEntity
  8
部品1
 48
2.83
100
AcDbLine
 10
7231.375560876339
 20
8390.266456979716
 30
0.0
 11
7231.375560876339
 21
8360.766456979716
 31
0.0
  0
LINE
  5
19926
330
747D
100
AcDbEntity
  8
部品1
100
AcDbLine
 10
7229.375560876357
 20
8386.766456979753
 30
0.0
 11
7229.375560876357
 21
8360.766456979744
 31
0.0
  0
LINE
  5
19927
330
747D
100
AcDbEntity
  8
部品1
 48
0.2
100
AcDbLine
 10
7216.438008705036
 20
8353.764086934942
 30
0.0
 11
7221.438008705035
 21
8353.764086934942
 31
0.0
  0
ARC
  5
19928
330
747D
100
AcDbEntity
  8
部品1
 48
0.2
100
AcDbCircle
 10
7221.438008705035
 20
8361.764086934941
 30
0.0
 40
8.0
100
AcDbArc
 50
270.0
 51
352.8363522778349
  0
ARC
  5
19929
330
747D
100
AcDbEntity
  8
部品1
 48
0.2
100
AcDbCircle
 10
7216.438008705036
 20
8361.764086934941
 30
0.0
 40
8.0
100
AcDbArc
 50
187.1636477221651
 51
270.0
  0
ARC
  5
1992A
330
747D
100
AcDbEntity
  8
細線
 48
0.2
100
AcDbCircle
 10
7221.438008705035
 20
8361.764086934941
 30
0.0
 40
4.049999999999999
100
AcDbArc
 50
194.26035068539
 51
345.73964931461
  0
LINE
  5
1992B
330
747D
100
AcDbEntity
  8
部品1
100
AcDbLine
 10
7246.375560876372
 20
8415.76645697976
 30
0.0
 11
7274.375560876372
 21
8415.76645697976
 31
0.0
  0
LINE
  5
1992C
330
747D
100
AcDbEntity
  8
部品1
100
AcDbLine
 10
7246.375560876341
 20
8415.766456979746
 30
0.0
 11
7274.37556087634
 21
8415.766456979746
 31
0.0
  0
LINE
  5
1992D
330
747D
100
AcDbEntity
  8
部品1
 48
2.83
100
AcDbLine
 10
7242.375560876339
 20
8415.766456979715
 30
0.0
 11
7219.375560876338
 21
8415.766456979715
 31
0.0
  0
LINE
  5
1992E
330
747D
100
AcDbEntity
  8
部品1
 48
2.83
100
AcDbLine
 10
7274.37556087634
 20
8415.766456979715
 30
0.0
 11
7251.375560876339
 21
8415.766456979715
 31
0.0
  0
LINE
  5
1992F
330
747D
100
AcDbEntity
  8
部品1
 48
2.83
100
AcDbLine
 10
7219.375560876338
 20
8415.766456979715
 30
0.0
 11
7219.375560876338
 21
8390.266456979716
 31
0.0
  0
LINE
  5
19930
330
747D
100
AcDbEntity
  8
部品1
 48
50.0
100
AcDbLine
 10
7246.375560876341
 20
8463.247391787346
 30
0.0
 11
7217.874589451549
 21
8492.266562692599
 31
0.0
  0
LINE
  5
19931
330
747D
100
AcDbEntity
  8
部品1
100
AcDbLine
 10
6483.875560876296
 20
9281.266456979713
 30
0.0
 11
7244.875560876296
 21
9281.266456979706
 31
0.0
  0
LINE
  5
19932
330
747D
100
AcDbEntity
  8
細線
 48
50.0
100
AcDbLine
 10
7244.875560876296
 20
8831.266456979705
 30
0.0
 11
6483.875560876296
 21
9281.266456979709
 31
0.0
  0
LINE
  5
19933
330
747D
100
AcDbEntity
  8
細線
 48
50.0
100
AcDbLine
 10
7244.875560876296
 20
9281.266456979706
 30
0.0
 11
6483.875560876295
 21
8831.266456979712
 31
0.0
  0
LINE
  5
19934
330
747D
100
AcDbEntity
  8
部品1
100
AcDbLine
 10
6483.875560876295
 20
8831.266456979712
 30
0.0
 11
7244.875560876296
 21
8831.266456979705
 31
0.0
  0
LINE
  5
19935
330
747D
100
AcDbEntity
  8
部品1
100
AcDbLine
 10
6482.375560876288
 20
9282.766456979713
 30
0.0
 11
7246.375560876365
 21
9282.766456979761
 31
0.0
  0
LINE
  5
19936
330
747D
100
AcDbEntity
  8
部品1
 48
50.0
100
AcDbLine
 10
6424.875567553994
 20
9281.266456979775
 30
0.0
 11
6424.875567553994
 21
8831.266456979774
 31
0.0
  0
LINE
  5
19937
330
747D
100
AcDbEntity
  8
部品1
 48
50.0
100
AcDbLine
 10
6483.875560876296
 20
9281.266456979709
 30
0.0
 11
6483.875560876296
 21
8831.266456979712
 31
0.0
  0
LINE
  5
19938
330
747D
100
AcDbEntity
  8
部品1
 48
5.0
100
AcDbLine
 10
6454.375560876343
 20
8835.766456979705
 30
0.0
 11
6426.375560876291
 21
8835.76645697971
 31
0.0
  0
LINE
  5
19939
330
747D
100
AcDbEntity
  8
部品1
 48
50.0
100
AcDbLine
 10
6454.375560876335
 20
8835.76645697971
 30
0.0
 11
6482.375560876318
 21
8835.766456979712
 31
0.0
  0
LINE
  5
1993A
330
747D
100
AcDbEntity
  8
部品1
 48
50.0
100
AcDbLine
 10
6454.375560876335
 20
8873.766456979709
 30
0.0
 11
6482.375560876318
 21
8873.766456979714
 31
0.0
  0
LINE
  5
1993B
330
747D
100
AcDbEntity
  8
部品1
 48
5.0
100
AcDbLine
 10
6509.375560876366
 20
9310.766456979711
 30
0.0
 11
6509.37556087636
 21
9282.766456979716
 31
0.0
  0
LINE
  5
1993C
330
747D
100
AcDbEntity
  8
部品1
 48
50.0
100
AcDbLine
 10
6483.875560876296
 20
9281.211935459451
 30
0.0
 11
6482.375560876289
 21
9282.766456979709
 31
0.0
  0
LINE
  5
1993D
330
747D
100
AcDbEntity
  8
部品1
 48
50.0
100
AcDbLine
 10
6424.875567553994
 20
9281.211944319954
 30
0.0
 11
6426.375560876289
 21
9282.766456979709
 31
0.0
  0
LINE
  5
1993E
330
747D
100
AcDbEntity
  8
部品1
 48
5.0
100
AcDbLine
 10
6426.375560876289
 20
9310.766456979729
 30
0.0
 11
6451.756263894965
 21
9282.766456979709
 31
0.0
  0
LINE
  5
1993F
330
747D
100
AcDbEntity
  8
部品1
 48
5.0
100
AcDbLine
 10
6482.375560876291
 20
9255.76645697971
 30
0.0
 11
6426.375560876291
 21
9255.76645697971
 31
0.0
  0
LINE
  5
19940
330
747D
100
AcDbEntity
  8
部品1
100
AcDbLine
 10
7244.875560876296
 20
9281.266456979706
 30
0.0
 11
7244.875560876296
 21
8831.266456979705
 31
0.0
  0
LINE
  5
19941
330
747D
100
AcDbEntity
  8
部品1
100
AcDbLine
 10
7246.375560876365
 20
8835.76645697976
 30
0.0
 11
7274.375560876364
 21
8835.76645697976
 31
0.0
  0
LINE
  5
19942
330
747D
100
AcDbEntity
  8
部品1
100
AcDbLine
 10
7219.375560876364
 20
9310.766456979775
 30
0.0
 11
7219.375560876364
 21
9282.766456979775
 31
0.0
  0
LINE
  5
19943
330
747D
100
AcDbEntity
  8
部品1
100
AcDbLine
 10
7219.375560876364
 20
9310.766456979761
 30
0.0
 11
7219.375560876364
 21
9282.766456979761
 31
0.0
  0
LINE
  5
19944
330
747D
100
AcDbEntity
  8
部品1
100
AcDbLine
 10
7246.375560876365
 20
9255.76645697976
 30
0.0
 11
7274.375560876364
 21
9255.76645697976
 31
0.0
  0
LINE
  5
19945
330
747D
100
AcDbEntity
  8
部品1
 48
50.0
100
AcDbLine
 10
7244.875554198689
 20
9281.266456979709
 30
0.0
 11
7246.375560876365
 21
9282.766456979761
 31
0.0
  0
LINE
  5
19946
330
747D
100
AcDbEntity
  8
細線
 48
50.0
100
AcDbLine
 10
4983.375560876357
 20
8386.766456979733
 30
0.0
 11
4983.375560876357
 21
8360.766456979687
 31
0.0
  0
LINE
  5
19947
330
747D
100
AcDbEntity
  8
細線
 48
50.0
100
AcDbLine
 10
5209.375560876356
 20
8386.766456979724
 30
0.0
 11
5209.375560876356
 21
8360.766456979687
 31
0.0
  0
LINE
  5
19948
330
747D
100
AcDbEntity
  8
細線
 48
50.0
100
AcDbLine
 10
5169.375560876357
 20
8386.766456979724
 30
0.0
 11
5169.375560876357
 21
8360.766456979687
 31
0.0
  0
LINE
  5
19949
330
747D
100
AcDbEntity
  8
細線
 48
50.0
100
AcDbLine
 10
5396.375560876357
 20
8386.766456979936
 30
0.0
 11
5396.375560876357
 21
8360.7664569799
 31
0.0
  0
LINE
  5
1994A
330
747D
100
AcDbEntity
  8
細線
 48
50.0
100
AcDbLine
 10
5436.375560876356
 20
8386.766456979936
 30
0.0
 11
5436.375560876356
 21
8360.7664569799
 31
0.0
  0
LINE
  5
1994B
330
747D
100
AcDbEntity
  8
細線
 48
50.0
100
AcDbLine
 10
5803.375560876357
 20
8386.766456979733
 30
0.0
 11
5803.375560876357
 21
8360.766456979687
 31
0.0
  0
LINE
  5
1994C
330
747D
100
AcDbEntity
  8
細線
 48
50.0
100
AcDbLine
 10
5989.375560876357
 20
8386.766456979724
 30
0.0
 11
5989.375560876357
 21
8360.766456979687
 31
0.0
  0
LINE
  5
1994D
330
747D
100
AcDbEntity
  8
細線
 48
50.0
100
AcDbLine
 10
6029.375560876356
 20
8386.766456979724
 30
0.0
 11
6029.375560876356
 21
8360.766456979687
 31
0.0
  0
LINE
  5
1994E
330
747D
100
AcDbEntity
  8
細線
 48
50.0
100
AcDbLine
 10
6256.375560876357
 20
8386.766456979936
 30
0.0
 11
6256.375560876357
 21
8360.7664569799
 31
0.0
  0
LINE
  5
1994F
330
747D
100
AcDbEntity
  8
細線
 48
50.0
100
AcDbLine
 10
6216.375560876357
 20
8386.766456979936
 30
0.0
 11
6216.375560876357
 21
8360.7664569799
 31
0.0
  0
LINE
  5
19950
330
747D
100
AcDbEntity
  8
細線
 48
50.0
100
AcDbLine
 10
6623.375560876358
 20
8386.766456979733
 30
0.0
 11
6623.375560876358
 21
8360.766456979687
 31
0.0
  0
LINE
  5
19951
330
747D
100
AcDbEntity
  8
細線
 48
50.0
100
AcDbLine
 10
6809.375560876357
 20
8386.766456979724
 30
0.0
 11
6809.375560876357
 21
8360.766456979687
 31
0.0
  0
LINE
  5
19952
330
747D
100
AcDbEntity
  8
細線
 48
50.0
100
AcDbLine
 10
6849.375560876357
 20
8386.766456979724
 30
0.0
 11
6849.375560876357
 21
8360.766456979687
 31
0.0
  0
LINE
  5
19953
330
747D
100
AcDbEntity
  8
細線
 48
50.0
100
AcDbLine
 10
7076.375560876357
 20
8386.766456979936
 30
0.0
 11
7076.375560876357
 21
8360.7664569799
 31
0.0
  0
LINE
  5
19954
330
747D
100
AcDbEntity
  8
細線
 48
50.0
100
AcDbLine
 10
7036.375560876357
 20
8386.766456979936
 30
0.0
 11
7036.375560876357
 21
8360.7664569799
 31
0.0
  0
LINE
  5
19955
330
747D
100
AcDbEntity
  8
細線
 48
50.0
100
AcDbLine
 10
5254.375560876329
 20
9289.266456979698
 30
0.0
 11
5254.375560876327
 21
9310.766456979699
 31
0.0
  0
LINE
  5
19956
330
747D
100
AcDbEntity
  8
細線
 48
50.0
100
AcDbLine
 10
5194.37556087633
 20
9289.266456979694
 30
0.0
 11
5194.375560876327
 21
9310.766456979692
 31
0.0
  0
LINE
  5
19957
330
747D
100
AcDbEntity
  8
細線
 48
50.0
100
AcDbLine
 10
5254.375560876329
 20
9289.266456979698
 30
0.0
 11
5194.375560876329
 21
9289.266456979692
 31
0.0
  0
LINE
  5
19958
330
747D
100
AcDbEntity
  8
細線
 48
50.0
100
AcDbLine
 10
6014.375560876329
 20
9289.266456979776
 30
0.0
 11
6014.375560876327
 21
9310.766456979775
 31
0.0
  0
LINE
  5
19959
330
747D
100
AcDbEntity
  8
細線
 48
50.0
100
AcDbLine
 10
6074.37556087633
 20
9289.266456979779
 30
0.0
 11
6074.375560876326
 21
9310.766456979781
 31
0.0
  0
LINE
  5
1995A
330
747D
100
AcDbEntity
  8
細線
 48
50.0
100
AcDbLine
 10
6074.37556087633
 20
9289.266456979779
 30
0.0
 11
6014.375560876328
 21
9289.266456979774
 31
0.0
  0
LINE
  5
1995B
330
747D
100
AcDbEntity
  8
細線
 48
50.0
100
AcDbLine
 10
6834.37556087633
 20
9289.266456979776
 30
0.0
 11
6834.375560876328
 21
9310.766456979775
 31
0.0
  0
LINE
  5
1995C
330
747D
100
AcDbEntity
  8
細線
 48
50.0
100
AcDbLine
 10
6894.37556087633
 20
9289.266456979779
 30
0.0
 11
6894.375560876326
 21
9310.766456979781
 31
0.0
  0
LINE
  5
1995D
330
747D
100
AcDbEntity
  8
細線
 48
50.0
100
AcDbLine
 10
6894.37556087633
 20
9289.266456979779
 30
0.0
 11
6834.375560876329
 21
9289.266456979774
 31
0.0
  0
DIMENSION
  5
1995E
330
747D
100
AcDbEntity
  8
寸法
 48
50.0
100
AcDbDimension
  2
*D36
 10
6374.375560876355
 20
7920.94278918458
 30
0.0
 11
6031.875560876359
 21
7920.94278918458
 31
0.0
 70
   160
 71
     5
 42
684.9999999999954
  3
INABA_S40G
100
AcDbAlignedDimension
 13
5689.37556087636
 23
8360.766456979659
 33
0.0
 14
6374.375560876355
 24
8360.766456979622
 34
0.0
100
AcDbRotatedDimension
  0
DIMENSION
  5
1995F
330
747D
100
AcDbEntity
  8
寸法
 48
50.0
100
AcDbDimension
  2
*D37
 10
5554.375560876356
 20
7920.94278918458
 30
0.0
 11
5211.875560876358
 21
7920.94278918458
 31
0.0
 70
   160
 71
     5
 42
684.9999999999954
  3
INABA_S40G
100
AcDbAlignedDimension
 13
4869.37556087636
 23
8360.766456979659
 33
0.0
 14
5554.375560876356
 24
8360.766456979622
 34
0.0
100
AcDbRotatedDimension
  0
DIMENSION
  5
19960
330
747D
100
AcDbEntity
  8
寸法
100
AcDbDimension
  2
*D38
 10
6366.18206458233
 20
8612.219346736729
 30
0.0
 11
6043.222622994565
 21
8612.219346736729
 31
0.0
 70
   160
 71
     5
 42
761.0000000000118
  3
INABA_S40G
100
AcDbAlignedDimension
 13
5663.875560876295
 23
8831.266456979712
 33
0.0
 14
6424.875560876308
 24
8831.26645697971
 34
0.0
100
AcDbRotatedDimension
1001
ACAD
1000
DSTYLE
1002
{
1002
}
  0
DIMENSION
  5
19961
330
747D
100
AcDbEntity
  8
寸法
100
AcDbDimension
  2
*D39
 10
5546.18206458233
 20
8612.219346736729
 30
0.0
 11
5223.222622994565
 21
8612.219346736729
 31
0.0
 70
   160
 71
     5
 42
761.0000000000118
  3
INABA_S40G
100
AcDbAlignedDimension
 13
4843.875560876296
 23
8831.266456979712
 33
0.0
 14
5604.875560876308
 24
8831.26645697971
 34
0.0
100
AcDbRotatedDimension
1001
ACAD
1000
DSTYLE
1002
{
1002
}
  0
MTEXT
  5
19962
330
747D
100
AcDbEntity
  8
寸法
 62
     7
 48
50.0
100
AcDbMText
 10
5239.655371842331
 20
9019.706413385469
 30
0.0
 40
96.0
 41
0.0
 71
     5
 72
     1
  1
棚上下\P各1段
  7
STYLE1
 73
     1
 44
1.0
1001
ACAD
1000
MTEXTBEGIN
1070
    73
1070
     1
1070
    44
1040
1.0
1070
    74
1070
     0
1000
MTEXTEND
  0
LINE
  5
19BBE
330
747D
100
AcDbEntity
  8
部品1
 48
5.0
100
AcDbLine
 10
5606.37556087629
 20
9310.766456979697
 30
0.0
 11
5631.756263894967
 21
9282.766456979677
 31
0.0
  0
ENDSEC
  0
SECTION
  2
OBJECTS
  0
DICTIONARY
  5
7471
330
0
100
AcDbDictionary
281
     1
  3
ACAD_COLOR
350
15D43
  3
ACAD_GROUP
350
7472
  3
ACAD_LAYOUT
350
15D44
  3
ACAD_MATERIAL
350
15D42
  3
ACAD_MLINESTYLE
350
7473
  3
ACAD_PLOTSETTINGS
350
15D45
  3
ACAD_PLOTSTYLENAME
350
15D40
  3
ACDBHEADERROUNDTRIPXREC
350
19BD8
  3
AcDbVariableDictionary
350
19BD4
  3
CONTENTDICTIONARY
350
E71C
  3
DRAWINGVARIABLESDICT
350
F3B9
  0
DICTIONARY
  5
15EBF
330
7467
100
AcDbDictionary
280
     1
281
     1
  3
ACAD_LAYERSTATES
360
15EC0
  0
DICTIONARY
  5
1864C
330
1864B
100
AcDbDictionary
280
     1
281
     1
  3
ADSK_XREC_LAYER_RECONCILED
360
1864D
  0
DICTIONARY
  5
15D43
102
{ACAD_REACTORS
330
7471
102
}
330
7471
100
AcDbDictionary
281
     1
  0
DICTIONARY
  5
7472
102
{ACAD_REACTORS
330
7471
102
}
330
7471
100
AcDbDictionary
281
     1
  0
DICTIONARY
  5
15D44
102
{ACAD_REACTORS
330
7471
102
}
330
7471
100
AcDbDictionary
281
     1
  3
Model
350
15D46
  3
レイアウト1
350
15D47
  0
DICTIONARY
  5
15D42
102
{ACAD_REACTORS
330
7471
102
}
330
7471
100
AcDbDictionary
281
     1
  0
DICTIONARY
  5
7473
102
{ACAD_REACTORS
330
7471
102
}
330
7471
100
AcDbDictionary
281
     1
  3
STANDARD
350
7480
  0
DICTIONARY
  5
15D45
102
{ACAD_REACTORS
330
7471
102
}
330
7471
100
AcDbDictionary
281
     1
  0
ACDBDICTIONARYWDFLT
  5
15D40
102
{ACAD_REACTORS
330
7471
102
}
330
7471
100
AcDbDictionary
281
     1
  3
Normal
350
15D41
100
AcDbDictionaryWithDefault
340
15D41
  0
DICTIONARY
  5
19BD8
102
{ACAD_REACTORS
330
7471
102
}
330
7471
100
AcDbDictionary
281
     1
  3
COLORDICT
350
19BDA
  3
MATERIALDICT
350
19BD9
  0
DICTIONARY
  5
19BD4
102
{ACAD_REACTORS
330
7471
102
}
330
7471
100
AcDbDictionary
281
     1
  3
DIMASSOC
350
19BD5
  3
PROJECTNAME
350
19BD6
  0
DICTIONARY
  5
E71C
102
{ACAD_REACTORS
330
7471
102
}
330
7471
100
AcDbDictionary
281
     1
  0
DICTIONARY
  5
F3B9
102
{ACAD_REACTORS
330
7471
102
}
330
7471
100
AcDbDictionary
281
     1
1001
DRAWINGVARIABLESXDATA
1000
POLARMODE
1000
1
  0
DICTIONARY
  5
15EC0
102
{ACAD_REACTORS
330
15EBF
102
}
330
15EBF
100
AcDbDictionary
281
     1
  0
XRECORD
  5
1864D
102
{ACAD_REACTORS
330
1864C
102
}
330
1864C
100
AcDbXrecord
280
     1
290
     1
  0
LAYOUT
  5
15D46
102
{ACAD_XDICTIONARY
360
19BDB
102
}
102
{ACAD_REACTORS
330
15D44
102
}
330
15D44
100
AcDbPlotSettings
  1

  2
iR C3880
  4
A3
  6

 40
5.873749732971191
 41
5.873747825622558
 42
5.873748779296875
 43
5.873748779296875
 44
296.9259948730469
 45
419.9466552734374
 46
0.0
 47
0.0
 48
3.619012999999999
 49
-4.192116999999999
140
820.022926
141
573.23922
142
1.0
143
40.75437129952697
 70
 11952
 72
     1
 73
     1
 74
     2
  7
inabass.ctb
 75
     0
147
0.0245372451620081
148
25.79074261211281
149
125.8223078213959
100
AcDbLayout
  1
Model
 70
     1
 71
     0
 10
0.0
 20
0.0
 11
12.0
 21
9.0
 12
0.0
 22
0.0
 32
0.0
 14
0.0
 24
0.0
 34
0.0
 15
0.0
 25
0.0
 35
0.0
146
0.0
 13
0.0
 23
0.0
 33
0.0
 16
1.0
 26
0.0
 36
0.0
 17
0.0
 27
1.0
 37
0.0
 76
     0
330
747D
  0
LAYOUT
  5
15D47
102
{ACAD_XDICTIONARY
360
19BDD
102
}
102
{ACAD_REACTORS
330
15D44
102
}
330
15D44
100
AcDbPlotSettings
  1

  2
Microsoft Office Document Image Writer
  4

  6

 40
0.0
 41
0.0
 42
0.0
 43
0.0
 44
0.0
 45
0.0
 46
0.0
 47
0.0
 48
0.0
 49
0.0
140
0.0
141
0.0
142
1.0
143
1.0
 70
   688
 72
     0
 73
     0
 74
     5
  7
inabass.ctb
 75
    16
147
1.0
148
0.0
149
0.0
100
AcDbLayout
  1
レイアウト1
 70
     0
 71
     1
 10
0.0
 20
0.0
 11
420.0
 21
297.0
 12
0.0
 22
0.0
 32
0.0
 14
1.000000000000000E+20
 24
1.000000000000000E+20
 34
1.000000000000000E+20
 15
-1.000000000000000E+20
 25
-1.000000000000000E+20
 35
-1.000000000000000E+20
146
0.0
 13
0.0
 23
0.0
 33
0.0
 16
1.0
 26
0.0
 36
0.0
 17
0.0
 27
1.0
 37
0.0
 76
     0
330
747A
  0
MLINESTYLE
  5
7480
102
{ACAD_REACTORS
330
7473
102
}
330
7473
100
AcDbMlineStyle
  2
STANDARD
 70
     0
  3

 62
     0
 51
90.0
 52
90.0
 71
     2
 49
0.5
 62
   256
  6
BYLAYER
 49
-0.5
 62
   256
  6
BYLAYER
  0
ACDBPLACEHOLDER
  5
15D41
102
{ACAD_REACTORS
330
15D40
102
}
330
15D40
  0
XRECORD
  5
19BDA
102
{ACAD_REACTORS
330
19BD8
102
}
330
19BD8
100
AcDbXrecord
280
     1
340
15D43
  0
XRECORD
  5
19BD9
102
{ACAD_REACTORS
330
19BD8
102
}
330
19BD8
100
AcDbXrecord
280
     1
340
15D42
  0
DICTIONARYVAR
  5
19BD5
102
{ACAD_REACTORS
330
19BD4
102
}
330
19BD4
100
DictionaryVariables
280
     0
  1
1
  0
DICTIONARYVAR
  5
19BD6
102
{ACAD_REACTORS
330
19BD4
102
}
330
19BD4
100
DictionaryVariables
280
     0
  1

  0
DICTIONARY
  5
19BDB
330
15D46
100
AcDbDictionary
280
     1
281
     1
  3
ACAD_XREC_ROUNDTRIP
360
19BDC
  0
DICTIONARY
  5
19BDD
330
15D47
100
AcDbDictionary
280
     1
281
     1
  3
ACAD_XREC_ROUNDTRIP
360
19BDE
  0
XRECORD
  5
19BDC
102
{ACAD_REACTORS
330
19BDB
102
}
330
19BDB
100
AcDbXrecord
280
     1
102
SHADEPLOT
 70
     1
102
SHADEPLOTRESLEVEL
 70
     2
102
SHADEPLOTCUSTOMDPI
 70
   300
  0
XRECORD
  5
19BDE
102
{ACAD_REACTORS
330
19BDD
102
}
330
19BDD
100
AcDbXrecord
280
     1
102
SHADEPLOT
 70
     0
102
SHADEPLOTRESLEVEL
 70
     2
102
SHADEPLOTCUSTOMDPI
 70
   300
  0
ENDSEC
  0
EOF
