  0
SECTION
  2
HEADER
  9
$ACADVER
  1
AC1015
  9
$ACADMAINTVER
 70
    20
  9
$DWGCODEPAGE
  3
ANSI_932
  9
$INSBASE
 10
0.0
 20
0.0
 30
0.0
  9
$EXTMIN
 10
139.196816621341
 20
-0.9062337598370504
 30
-0.000000000000013
  9
$EXTMAX
 10
16308.32523385566
 20
11409.93395955253
 30
0.0000000000000023
  9
$LIMMIN
 10
0.0
 20
0.0
  9
$LIMMAX
 10
16800.0
 20
11880.0
  9
$ORTHOMODE
 70
     0
  9
$REGENMODE
 70
     1
  9
$FILLMODE
 70
     1
  9
$QTEXTMODE
 70
     0
  9
$MIRRTEXT
 70
     1
  9
$LTSCALE
 40
20.0
  9
$ATTMODE
 70
     1
  9
$TEXTSIZE
 40
4.0
  9
$TRACEWID
 40
1.0
  9
$TEXTSTYLE
  7
STYLE1
  9
$CLAYER
  8
寸法
  9
$CELTYPE
  6
BYLAYER
  9
$CECOLOR
 62
   256
  9
$CELTSCALE
 40
50.0
  9
$DISPSILH
 70
     0
  9
$DIMSCALE
 40
40.0
  9
$DIMASZ
 40
2.5
  9
$DIMEXO
 40
0.5
  9
$DIMDLI
 40
7.0
  9
$DIMRND
 40
0.0
  9
$DIMDLE
 40
0.0
  9
$DIMEXE
 40
1.5
  9
$DIMTP
 40
0.0
  9
$DIMTM
 40
0.0
  9
$DIMTXT
 40
3.0
  9
$DIMCEN
 40
0.0
  9
$DIMTSZ
 40
0.0
  9
$DIMTOL
 70
     0
  9
$DIMLIM
 70
     0
  9
$DIMTIH
 70
     0
  9
$DIMTOH
 70
     0
  9
$DIMSE1
 70
     0
  9
$DIMSE2
 70
     0
  9
$DIMTAD
 70
     3
  9
$DIMZIN
 70
     8
  9
$DIMBLK
  1

  9
$DIMASO
 70
     1
  9
$DIMSHO
 70
     1
  9
$DIMPOST
  1

  9
$DIMAPOST
  1

  9
$DIMALT
 70
     0
  9
$DIMALTD
 70
     2
  9
$DIMALTF
 40
0.0394
  9
$DIMLFAC
 40
1.0
  9
$DIMTOFL
 70
     1
  9
$DIMTVP
 40
0.0
  9
$DIMTIX
 70
     1
  9
$DIMSOXD
 70
     0
  9
$DIMSAH
 70
     1
  9
$DIMBLK1
  1
DOTSMALL
  9
$DIMBLK2
  1
DOTSMALL
  9
$DIMSTYLE
  2
INABA_S40G
  9
$DIMCLRD
 70
     0
  9
$DIMCLRE
 70
     0
  9
$DIMCLRT
 70
     7
  9
$DIMTFAC
 40
1.0
  9
$DIMGAP
 40
1.0
  9
$DIMJUST
 70
     0
  9
$DIMSD1
 70
     0
  9
$DIMSD2
 70
     0
  9
$DIMTOLJ
 70
     1
  9
$DIMTZIN
 70
     0
  9
$DIMALTZ
 70
     0
  9
$DIMALTTZ
 70
     0
  9
$DIMUPT
 70
     0
  9
$DIMDEC
 70
     1
  9
$DIMTDEC
 70
     4
  9
$DIMALTU
 70
     2
  9
$DIMALTTD
 70
     2
  9
$DIMTXSTY
  7
STYLE1
  9
$DIMAUNIT
 70
     0
  9
$DIMADEC
 70
     0
  9
$DIMALTRND
 40
0.0
  9
$DIMAZIN
 70
     0
  9
$DIMDSEP
 70
    46
  9
$DIMATFIT
 70
     3
  9
$DIMFRAC
 70
     0
  9
$DIMLDRBLK
  1

  9
$DIMLUNIT
 70
     2
  9
$DIMLWD
 70
    -2
  9
$DIMLWE
 70
    -2
  9
$DIMTMOVE
 70
     0
  9
$LUNITS
 70
     2
  9
$LUPREC
 70
     1
  9
$SKETCHINC
 40
1.0
  9
$FILLETRAD
 40
3.0
  9
$AUNITS
 70
     0
  9
$AUPREC
 70
     0
  9
$MENU
  1
acad
  9
$ELEVATION
 40
0.0
  9
$PELEVATION
 40
0.0
  9
$THICKNESS
 40
0.0
  9
$LIMCHECK
 70
     0
  9
$CHAMFERA
 40
0.0
  9
$CHAMFERB
 40
0.0
  9
$CHAMFERC
 40
0.0
  9
$CHAMFERD
 40
0.0
  9
$SKPOLY
 70
     0
  9
$TDCREATE
 40
2451368.612993866
  9
$TDUCREATE
 40
2451368.237993866
  9
$TDUPDATE
 40
2456276.478804433
  9
$TDUUPDATE
 40
2456276.103804433
  9
$TDINDWG
 40
0.7980245023
  9
$TDUSRTIMER
 40
0.7980245023
  9
$USRTIMER
 70
     1
  9
$ANGBASE
 50
0.0
  9
$ANGDIR
 70
     0
  9
$PDMODE
 70
     3
  9
$PDSIZE
 40
2.0
  9
$PLINEWID
 40
0.0
  9
$SPLFRAME
 70
     0
  9
$SPLINETYPE
 70
     6
  9
$SPLINESEGS
 70
     8
  9
$HANDSEED
  5
284CF
  9
$SURFTAB1
 70
     6
  9
$SURFTAB2
 70
     6
  9
$SURFTYPE
 70
     6
  9
$SURFU
 70
     6
  9
$SURFV
 70
     6
  9
$UCSBASE
  2

  9
$UCSNAME
  2

  9
$UCSORG
 10
0.0
 20
0.0
 30
0.0
  9
$UCSXDIR
 10
1.0
 20
0.0
 30
0.0
  9
$UCSYDIR
 10
0.0
 20
1.0
 30
0.0
  9
$UCSORTHOREF
  2

  9
$UCSORTHOVIEW
 70
     0
  9
$UCSORGTOP
 10
0.0
 20
0.0
 30
0.0
  9
$UCSORGBOTTOM
 10
0.0
 20
0.0
 30
0.0
  9
$UCSORGLEFT
 10
0.0
 20
0.0
 30
0.0
  9
$UCSORGRIGHT
 10
0.0
 20
0.0
 30
0.0
  9
$UCSORGFRONT
 10
0.0
 20
0.0
 30
0.0
  9
$UCSORGBACK
 10
0.0
 20
0.0
 30
0.0
  9
$PUCSBASE
  2

  9
$PUCSNAME
  2

  9
$PUCSORG
 10
0.0
 20
0.0
 30
0.0
  9
$PUCSXDIR
 10
1.0
 20
0.0
 30
0.0
  9
$PUCSYDIR
 10
0.0
 20
1.0
 30
0.0
  9
$PUCSORTHOREF
  2

  9
$PUCSORTHOVIEW
 70
     0
  9
$PUCSORGTOP
 10
0.0
 20
0.0
 30
0.0
  9
$PUCSORGBOTTOM
 10
0.0
 20
0.0
 30
0.0
  9
$PUCSORGLEFT
 10
0.0
 20
0.0
 30
0.0
  9
$PUCSORGRIGHT
 10
0.0
 20
0.0
 30
0.0
  9
$PUCSORGFRONT
 10
0.0
 20
0.0
 30
0.0
  9
$PUCSORGBACK
 10
0.0
 20
0.0
 30
0.0
  9
$USERI1
 70
     0
  9
$USERI2
 70
     0
  9
$USERI3
 70
     0
  9
$USERI4
 70
     0
  9
$USERI5
 70
     0
  9
$USERR1
 40
0.0
  9
$USERR2
 40
0.0
  9
$USERR3
 40
0.0
  9
$USERR4
 40
0.0
  9
$USERR5
 40
0.0
  9
$WORLDVIEW
 70
     1
  9
$SHADEDGE
 70
     3
  9
$SHADEDIF
 70
    70
  9
$TILEMODE
 70
     1
  9
$MAXACTVP
 70
    16
  9
$PINSBASE
 10
0.0
 20
0.0
 30
0.0
  9
$PLIMCHECK
 70
     0
  9
$PEXTMIN
 10
1.000000000000000E+20
 20
1.000000000000000E+20
 30
1.000000000000000E+20
  9
$PEXTMAX
 10
-1.000000000000000E+20
 20
-1.000000000000000E+20
 30
-1.000000000000000E+20
  9
$PLIMMIN
 10
0.0
 20
0.0
  9
$PLIMMAX
 10
420.0
 20
297.0
  9
$UNITMODE
 70
     0
  9
$VISRETAIN
 70
     0
  9
$PLINEGEN
 70
     0
  9
$PSLTSCALE
 70
     0
  9
$TREEDEPTH
 70
  3020
  9
$CMLSTYLE
  2
STANDARD
  9
$CMLJUST
 70
     0
  9
$CMLSCALE
 40
1.0
  9
$PROXYGRAPHICS
 70
     1
  9
$MEASUREMENT
 70
     1
  9
$CELWEIGHT
370
    -1
  9
$ENDCAPS
280
     0
  9
$JOINSTYLE
280
     0
  9
$LWDISPLAY
290
     0
  9
$INSUNITS
 70
     0
  9
$HYPERLINKBASE
  1

  9
$STYLESHEET
  1
inabass.ctb
  9
$XEDIT
290
     1
  9
$CEPSNTYPE
380
     0
  9
$PSTYLEMODE
290
     1
  9
$FINGERPRINTGUID
  2
{5EAC461A-2277-4BF8-9AB0-99C43BB394F0}
  9
$VERSIONGUID
  2
{085704BF-3666-4D2D-BE87-7787F9F41BFE}
  9
$EXTNAMES
290
     1
  9
$PSVPSCALE
 40
0.0
  9
$OLESTARTUP
290
     0
  0
ENDSEC
  0
SECTION
  2
CLASSES
  0
CLASS
  1
ACDBDICTIONARYWDFLT
  2
AcDbDictionaryWithDefault
  3
ObjectDBX Classes
 90
        0
280
     0
281
     0
  0
CLASS
  1
DICTIONARYVAR
  2
AcDbDictionaryVar
  3
ObjectDBX Classes
 90
        0
280
     0
281
     0
  0
CLASS
  1
ACDBPLACEHOLDER
  2
AcDbPlaceHolder
  3
ObjectDBX Classes
 90
        0
280
     0
281
     0
  0
CLASS
  1
LAYOUT
  2
AcDbLayout
  3
ObjectDBX Classes
 90
        0
280
     0
281
     0
  0
ENDSEC
  0
SECTION
  2
TABLES
  0
TABLE
  2
VPORT
  5
746D
330
0
100
AcDbSymbolTable
 70
     3
  0
VPORT
  5
284C7
330
746D
100
AcDbSymbolTableRecord
100
AcDbViewportTableRecord
  2
*Active
 70
     0
 10
0.0
 20
0.0
 11
1.0
 21
1.0
 12
8400.0
 22
6181.289053663096
 13
0.0
 23
0.0
 14
10.0
 24
10.0
 15
10.0
 25
10.0
 16
0.0
 26
0.0
 36
1.0
 17
0.0
 27
0.0
 37
0.0
 40
12458.33118614802
 41
1.608
 42
50.0
 43
0.0
 44
0.0
 50
0.0
 51
0.0
 71
     0
 72
     0
 73
     1
 74
     0
 75
     0
 76
     0
 77
     0
 78
     0
281
     0
 65
     1
110
0.0
120
0.0
130
0.0
111
1.0
121
0.0
131
0.0
112
0.0
122
1.0
132
0.0
 79
     0
146
0.0
  0
ENDTAB
  0
TABLE
  2
LTYPE
  5
746A
330
0
100
AcDbSymbolTable
 70
     5
  0
LTYPE
  5
7477
330
746A
100
AcDbSymbolTableRecord
100
AcDbLinetypeTableRecord
  2
BYBLOCK
 70
     0
  3

 72
    65
 73
     0
 40
0.0
  0
LTYPE
  5
7478
330
746A
100
AcDbSymbolTableRecord
100
AcDbLinetypeTableRecord
  2
BYLAYER
 70
     0
  3

 72
    65
 73
     0
 40
0.0
  0
LTYPE
  5
7479
330
746A
100
AcDbSymbolTableRecord
100
AcDbLinetypeTableRecord
  2
CONTINUOUS
 70
     0
  3
Solid line
 72
    65
 73
     0
 40
0.0
  0
LTYPE
  5
7816
330
746A
100
AcDbSymbolTableRecord
100
AcDbLinetypeTableRecord
  2
CENTER
 70
     0
  3
____ _ ____ _ ____ _ ____ _ ____ _ ____ _ ____ 
 72
    65
 73
     4
 40
2.0
 49
1.25
 74
     0
 49
-0.25
 74
     0
 49
0.25
 74
     0
 49
-0.25
 74
     0
  0
LTYPE
  5
781A
330
746A
100
AcDbSymbolTableRecord
100
AcDbLinetypeTableRecord
  2
HIDDEN
 70
     0
  3
__ __ __ __ __ __ __ __ __ __ __ __ __ __ __ __
 72
    65
 73
     2
 40
0.375
 49
0.25
 74
     0
 49
-0.125
 74
     0
  0
LTYPE
  5
781B
330
746A
100
AcDbSymbolTableRecord
100
AcDbLinetypeTableRecord
  2
PHANTOM
 70
     0
  3
______  __  __  ______  __  __  ______  __  __ 
 72
    65
 73
     6
 40
2.5
 49
1.25
 74
     0
 49
-0.25
 74
     0
 49
0.25
 74
     0
 49
-0.25
 74
     0
 49
0.25
 74
     0
 49
-0.25
 74
     0
  0
LTYPE
  5
12CC3
330
746A
100
AcDbSymbolTableRecord
100
AcDbLinetypeTableRecord
  2
HIDDENX2
 70
     0
  3
Hidden (2x) ____ ____ ____ ____ ____ ____ ____
 72
    65
 73
     2
 40
19.05
 49
12.7
 74
     0
 49
-6.349999999999999
 74
     0
  0
ENDTAB
  0
TABLE
  2
LAYER
  5
7467
102
{ACAD_XDICTIONARY
360
1758F
102
}
330
0
100
AcDbSymbolTable
 70
    12
  0
LAYER
  5
7474
330
7467
100
AcDbSymbolTableRecord
100
AcDbLayerTableRecord
  2
0
 70
     0
 62
     7
  6
CONTINUOUS
370
    -3
390
173D0
  0
LAYER
  5
DEB2
330
7467
100
AcDbSymbolTableRecord
100
AcDbLayerTableRecord
  2
センター
 70
     0
 62
     3
  6
CENTER
370
    -3
390
173D0
  0
LAYER
  5
DEB3
330
7467
100
AcDbSymbolTableRecord
100
AcDbLayerTableRecord
  2
寸法
 70
     0
 62
     4
  6
CONTINUOUS
370
    -3
390
173D0
  0
LAYER
  5
DEB4
330
7467
100
AcDbSymbolTableRecord
100
AcDbLayerTableRecord
  2
部品1
 70
     0
 62
     7
  6
CONTINUOUS
370
    -3
390
173D0
  0
LAYER
  5
DEB5
330
7467
100
AcDbSymbolTableRecord
100
AcDbLayerTableRecord
  2
補助
 70
     0
 62
    -1
  6
CONTINUOUS
370
    -3
390
173D0
  0
LAYER
  5
DEB6
330
7467
100
AcDbSymbolTableRecord
100
AcDbLayerTableRecord
  2
文字
 70
     0
 62
     7
  6
CONTINUOUS
370
    -3
390
173D0
  0
LAYER
  5
F255
330
7467
100
AcDbSymbolTableRecord
100
AcDbLayerTableRecord
  2
DEFPOINTS
 70
     0
 62
     7
  6
CONTINUOUS
290
     0
370
    -3
390
173D0
  0
LAYER
  5
10B54
330
7467
100
AcDbSymbolTableRecord
100
AcDbLayerTableRecord
  2
仕様書枠
 70
     0
 62
   230
  6
CONTINUOUS
370
    -3
390
173D0
  0
LAYER
  5
11729
330
7467
100
AcDbSymbolTableRecord
100
AcDbLayerTableRecord
  2
Ｇ．Ｌ
 70
     0
 62
    30
  6
CONTINUOUS
370
    -3
390
173D0
  0
LAYER
  5
1173F
330
7467
100
AcDbSymbolTableRecord
100
AcDbLayerTableRecord
  2
細線
 70
     0
 62
     5
  6
CONTINUOUS
370
    -3
390
173D0
  0
LAYER
  5
12CC4
330
7467
100
AcDbSymbolTableRecord
100
AcDbLayerTableRecord
  2
想像線
 70
     0
 62
     6
  6
PHANTOM
370
    -3
390
173D0
  0
LAYER
  5
142E2
330
7467
100
AcDbSymbolTableRecord
100
AcDbLayerTableRecord
  2
破線
 70
     0
 62
     2
  6
HIDDEN
370
    -3
390
173D0
  0
ENDTAB
  0
TABLE
  2
STYLE
  5
7468
330
0
100
AcDbSymbolTable
 70
     7
  0
STYLE
  5
7475
330
7468
100
AcDbSymbolTableRecord
100
AcDbTextStyleTableRecord
  2
STANDARD
 70
     0
 40
0.0
 41
1.0
 50
0.0
 71
     0
 42
4.0
  3
txt
  4
C:\AutoCAD LT\bigfont.shx
  0
STYLE
  5
763C
330
7468
100
AcDbSymbolTableRecord
100
AcDbTextStyleTableRecord
  2
MSMINCHO
 70
     0
 40
0.0
 41
1.0
 50
0.0
 71
     0
 42
1.199999999999999
  3
C:\AutoCAD LT\msminch2.TTF
  4

  0
STYLE
  5
F706
330
7468
100
AcDbSymbolTableRecord
100
AcDbTextStyleTableRecord
  2
STYLE1
 70
     0
 40
0.0
 41
1.0
 50
0.0
 71
     0
 42
4.0
  3
isocp.shx
  4
bigfont.shx
  0
STYLE
  5
103BF
330
7468
100
AcDbSymbolTableRecord
100
AcDbTextStyleTableRecord
  2
STYLE2
 70
     0
 40
0.0
 41
1.0
 50
0.0
 71
     0
 42
100.0
  3
MS PGothic.ttf
  4

1001
ACAD
1000
MS PGothic
1071
    32818
  0
STYLE
  5
10BAA
330
7468
100
AcDbSymbolTableRecord
100
AcDbTextStyleTableRecord
  2
STYLE3
 70
     0
 40
0.0
 41
1.0
 50
0.0
 71
     0
 42
100.0
  3

  4

1001
ACAD
1000
DFPGothic-EB
1071
    32818
  0
STYLE
  5
11A15
330
7468
100
AcDbSymbolTableRecord
100
AcDbTextStyleTableRecord
  2
MSGOTHIC
 70
     0
 40
0.0
 41
1.0
 50
0.0
 71
     0
 42
3.5
  3
msgothi2.ttf
  4

  0
STYLE
  5
13E96
330
7468
100
AcDbSymbolTableRecord
100
AcDbTextStyleTableRecord
  2
MSPゴシック
 70
     0
 40
0.0
 41
1.0
 50
0.0
 71
     0
 42
4.0
  3
MS PGothic.ttf
  4

1001
ACAD
1000
MS PGothic
1071
    32818
  0
ENDTAB
  0
TABLE
  2
VIEW
  5
746B
330
0
100
AcDbSymbolTable
 70
     0
  0
ENDTAB
  0
TABLE
  2
UCS
  5
746C
330
0
100
AcDbSymbolTable
 70
     0
  0
ENDTAB
  0
TABLE
  2
APPID
  5
746E
330
0
100
AcDbSymbolTable
 70
     6
  0
APPID
  5
7476
330
746E
100
AcDbSymbolTableRecord
100
AcDbRegAppTableRecord
  2
ACAD
 70
     0
  0
APPID
  5
DEA9
330
746E
100
AcDbSymbolTableRecord
100
AcDbRegAppTableRecord
  2
CONTENTBLOCKICON
 70
     0
  0
APPID
  5
DEAA
330
746E
100
AcDbSymbolTableRecord
100
AcDbRegAppTableRecord
  2
CONTENTBLOCKDESCRIPTION
 70
     0
  0
APPID
  5
E71D
330
746E
100
AcDbSymbolTableRecord
100
AcDbRegAppTableRecord
  2
CONTENTTABDATA
 70
     0
  0
APPID
  5
E71E
330
746E
100
AcDbSymbolTableRecord
100
AcDbRegAppTableRecord
  2
CONTENTCURRENTTAB
 70
     0
  0
APPID
  5
F3BA
330
746E
100
AcDbSymbolTableRecord
100
AcDbRegAppTableRecord
  2
DRAWINGVARIABLESXDATA
 70
     0
  0
ENDTAB
  0
TABLE
  2
DIMSTYLE
  5
746F
330
0
100
AcDbSymbolTable
 70
     6
100
AcDbDimStyleTable
 71
     1
340
F71F
  0
DIMSTYLE
105
7484
330
746F
100
AcDbSymbolTableRecord
100
AcDbDimStyleTableRecord
  2
JIS
 70
     0
 41
2.5
 42
1.0
 43
7.0
 44
1.0
 73
     0
 74
     0
 77
     1
 78
     8
140
2.5
141
0.0
143
0.0394
147
0.0
172
     1
174
     1
175
     1
340
7475
  0
DIMSTYLE
105
F236
330
746F
100
AcDbSymbolTableRecord
100
AcDbDimStyleTableRecord
  2
INABA_S40
 70
     0
 40
40.0
 41
2.5
 42
0.5
 43
7.0
 44
1.5
 73
     0
 74
     0
 77
     3
 78
     8
140
3.0
141
0.0
143
0.0394
147
1.0
172
     1
173
     1
174
     1
175
     1
178
     7
289
     0
340
7475
341
DEAC
343
DEAC
344
DEAC
  0
DIMSTYLE
105
F71F
102
{ACAD_REACTORS
330
20DFB
330
22741
330
2275B
330
22A81
330
22A76
330
22A98
330
26591
330
2656D
330
26545
330
26544
330
26541
330
26540
330
26457
330
26432
330
26431
330
26417
330
26414
330
26413
330
26412
330
2634D
330
26419
330
263C6
330
26364
330
26363
330
263C7
330
26360
330
27EAC
330
282F3
330
282F4
330
282FC
330
28303
330
28306
330
28366
102
}
330
746F
100
AcDbSymbolTableRecord
100
AcDbDimStyleTableRecord
  2
INABA_S40G
 70
     0
 40
40.0
 41
2.5
 42
0.5
 43
7.0
 44
1.5
 73
     0
 74
     0
 77
     3
 78
     8
140
3.0
141
0.0
143
0.0394
147
1.0
172
     1
173
     1
174
     1
178
     7
271
     1
340
F706
341
F770
343
F770
344
F770
  0
DIMSTYLE
105
142E3
330
746F
100
AcDbSymbolTableRecord
100
AcDbDimStyleTableRecord
  2
INABA_S1
 70
     0
 40
0.0
 41
2.5
 42
0.5
 43
7.0
 44
1.5
 73
     0
 74
     0
 77
     3
 78
     8
140
3.0
141
0.0
143
0.0394
146
0.5
147
0.5
172
     1
173
     1
176
   256
177
   256
178
     7
271
     2
272
     2
284
     8
288
     1
340
7475
341
DEAC
343
DEAC
344
DEAC
  0
DIMSTYLE
105
14463
330
746F
100
AcDbSymbolTableRecord
100
AcDbDimStyleTableRecord
  2
INABA_S30G
 70
     0
 40
30.0
 41
2.5
 42
0.5
 43
7.0
 44
1.5
 73
     0
 74
     0
 77
     3
 78
     8
140
3.0
141
0.0
143
0.0394
147
1.0
172
     1
173
     1
174
     1
175
     1
178
     7
271
     1
340
F706
341
F770
343
F770
344
F770
  0
DIMSTYLE
105
1758E
330
746F
100
AcDbSymbolTableRecord
100
AcDbDimStyleTableRecord
  2
INABA_S50G
 70
     0
 41
125.0
 42
25.0
 43
7.0
 44
75.0
 73
     0
 74
     0
 77
     3
 78
     8
140
150.0
141
0.0
143
0.0394
147
25.0
172
     1
173
     1
174
     1
175
     1
178
     7
271
     1
340
F706
341
F770
343
F770
344
F770
  0
ENDTAB
  0
TABLE
  2
BLOCK_RECORD
  5
7466
330
0
100
AcDbSymbolTable
 70
    52
  0
BLOCK_RECORD
  5
747D
330
7466
100
AcDbSymbolTableRecord
100
AcDbBlockTableRecord
  2
*MODEL_SPACE
340
173D5
  0
BLOCK_RECORD
  5
747A
330
7466
100
AcDbSymbolTableRecord
100
AcDbBlockTableRecord
  2
*PAPER_SPACE
340
173D6
  0
BLOCK_RECORD
  5
DEAC
330
7466
100
AcDbSymbolTableRecord
100
AcDbBlockTableRecord
  2
_OPEN
340
0
  0
BLOCK_RECORD
  5
F770
330
7466
100
AcDbSymbolTableRecord
100
AcDbBlockTableRecord
  2
_DOTSMALL
340
0
102
{BLKREFS
331
18C65
331
18C66
331
18C59
331
18C5A
331
18C4D
331
18C4E
331
18C41
331
18C42
331
18C35
331
18C36
331
18C29
331
18C2A
331
18C1D
331
18C1E
331
18C0F
331
18C10
331
18C03
331
18C04
331
18BF5
331
18BF6
331
18BE7
331
18BE8
331
18BD9
331
18BDA
331
18BCD
331
18BCE
331
27FCF
331
27FD0
331
27FD9
331
27FDA
331
27FE2
331
27FE3
331
27FEB
331
27FEC
331
27FF4
331
27FF5
331
27FFD
331
27FFE
331
28006
331
28007
331
2800F
331
28010
331
28018
331
28019
331
28021
331
28022
331
2802B
331
2802C
331
28035
331
28036
331
2803E
331
2803F
331
28047
331
28048
331
28051
331
28052
331
2805A
331
2805B
331
2806D
331
2806E
331
28080
331
28081
331
28089
331
2808A
331
2809D
331
2809E
331
280B2
331
280B3
331
280BD
331
280BE
331
280C8
331
280C9
331
280EC
331
280ED
331
280F5
331
280F6
331
28142
331
28143
331
28161
331
28162
331
2846C
331
2846D
331
28477
331
28478
331
28480
331
28481
331
28489
331
2848A
331
28492
331
28493
331
2849B
331
2849C
102
}
  0
BLOCK_RECORD
  5
164B4
330
7466
100
AcDbSymbolTableRecord
100
AcDbBlockTableRecord
  2
_DOT
340
0
102
{BLKREFS
331
18C73
331
18C74
102
}
  0
BLOCK_RECORD
  5
18BC8
330
7466
100
AcDbSymbolTableRecord
100
AcDbBlockTableRecord
  2
*D3
340
0
  0
BLOCK_RECORD
  5
18BD4
330
7466
100
AcDbSymbolTableRecord
100
AcDbBlockTableRecord
  2
*D4
340
0
  0
BLOCK_RECORD
  5
18BE0
330
7466
100
AcDbSymbolTableRecord
100
AcDbBlockTableRecord
  2
*D5
340
0
  0
BLOCK_RECORD
  5
18BEE
330
7466
100
AcDbSymbolTableRecord
100
AcDbBlockTableRecord
  2
*D6
340
0
  0
BLOCK_RECORD
  5
18BFC
330
7466
100
AcDbSymbolTableRecord
100
AcDbBlockTableRecord
  2
*D7
340
0
  0
BLOCK_RECORD
  5
18C0A
330
7466
100
AcDbSymbolTableRecord
100
AcDbBlockTableRecord
  2
*D8
340
0
  0
BLOCK_RECORD
  5
18C16
330
7466
100
AcDbSymbolTableRecord
100
AcDbBlockTableRecord
  2
*D9
340
0
  0
BLOCK_RECORD
  5
18C24
330
7466
100
AcDbSymbolTableRecord
100
AcDbBlockTableRecord
  2
*D10
340
0
  0
BLOCK_RECORD
  5
18C30
330
7466
100
AcDbSymbolTableRecord
100
AcDbBlockTableRecord
  2
*D11
340
0
  0
BLOCK_RECORD
  5
18C3C
330
7466
100
AcDbSymbolTableRecord
100
AcDbBlockTableRecord
  2
*D12
340
0
  0
BLOCK_RECORD
  5
18C48
330
7466
100
AcDbSymbolTableRecord
100
AcDbBlockTableRecord
  2
*D13
340
0
  0
BLOCK_RECORD
  5
18C54
330
7466
100
AcDbSymbolTableRecord
100
AcDbBlockTableRecord
  2
*D14
340
0
  0
BLOCK_RECORD
  5
18C60
330
7466
100
AcDbSymbolTableRecord
100
AcDbBlockTableRecord
  2
*D15
340
0
  0
BLOCK_RECORD
  5
18C6C
330
7466
100
AcDbSymbolTableRecord
100
AcDbBlockTableRecord
  2
*D16
340
0
  0
BLOCK_RECORD
  5
18C7A
330
7466
100
AcDbSymbolTableRecord
100
AcDbBlockTableRecord
  2
A$C3B1A506B
340
0
  0
BLOCK_RECORD
  5
1C4CA
330
7466
100
AcDbSymbolTableRecord
100
AcDbBlockTableRecord
  2
_NONE
340
0
  0
BLOCK_RECORD
  5
20DFC
330
7466
100
AcDbSymbolTableRecord
100
AcDbBlockTableRecord
  2
*D19
340
0
  0
BLOCK_RECORD
  5
22742
330
7466
100
AcDbSymbolTableRecord
100
AcDbBlockTableRecord
  2
*D20
340
0
  0
BLOCK_RECORD
  5
2275C
330
7466
100
AcDbSymbolTableRecord
100
AcDbBlockTableRecord
  2
*D21
340
0
  0
BLOCK_RECORD
  5
22B5A
330
7466
100
AcDbSymbolTableRecord
100
AcDbBlockTableRecord
  2
*D22
340
0
  0
BLOCK_RECORD
  5
22B74
330
7466
100
AcDbSymbolTableRecord
100
AcDbBlockTableRecord
  2
*D23
340
0
  0
BLOCK_RECORD
  5
22B9A
330
7466
100
AcDbSymbolTableRecord
100
AcDbBlockTableRecord
  2
*D24
340
0
  0
BLOCK_RECORD
  5
2659F
330
7466
100
AcDbSymbolTableRecord
100
AcDbBlockTableRecord
  2
*D25
340
0
  0
BLOCK_RECORD
  5
265AB
330
7466
100
AcDbSymbolTableRecord
100
AcDbBlockTableRecord
  2
*D26
340
0
  0
BLOCK_RECORD
  5
265B8
330
7466
100
AcDbSymbolTableRecord
100
AcDbBlockTableRecord
  2
*D27
340
0
  0
BLOCK_RECORD
  5
265C4
330
7466
100
AcDbSymbolTableRecord
100
AcDbBlockTableRecord
  2
*D28
340
0
  0
BLOCK_RECORD
  5
265F2
330
7466
100
AcDbSymbolTableRecord
100
AcDbBlockTableRecord
  2
*D29
340
0
  0
BLOCK_RECORD
  5
265FF
330
7466
100
AcDbSymbolTableRecord
100
AcDbBlockTableRecord
  2
*D30
340
0
  0
BLOCK_RECORD
  5
26618
330
7466
100
AcDbSymbolTableRecord
100
AcDbBlockTableRecord
  2
*D31
340
0
  0
BLOCK_RECORD
  5
26625
330
7466
100
AcDbSymbolTableRecord
100
AcDbBlockTableRecord
  2
*D32
340
0
  0
BLOCK_RECORD
  5
26631
330
7466
100
AcDbSymbolTableRecord
100
AcDbBlockTableRecord
  2
*D33
340
0
  0
BLOCK_RECORD
  5
2664A
330
7466
100
AcDbSymbolTableRecord
100
AcDbBlockTableRecord
  2
*D34
340
0
  0
BLOCK_RECORD
  5
26661
330
7466
100
AcDbSymbolTableRecord
100
AcDbBlockTableRecord
  2
*D35
340
0
  0
BLOCK_RECORD
  5
2666E
330
7466
100
AcDbSymbolTableRecord
100
AcDbBlockTableRecord
  2
*D36
340
0
  0
BLOCK_RECORD
  5
26679
330
7466
100
AcDbSymbolTableRecord
100
AcDbBlockTableRecord
  2
*D37
340
0
  0
BLOCK_RECORD
  5
26691
330
7466
100
AcDbSymbolTableRecord
100
AcDbBlockTableRecord
  2
*D38
340
0
  0
BLOCK_RECORD
  5
266B6
330
7466
100
AcDbSymbolTableRecord
100
AcDbBlockTableRecord
  2
*D39
340
0
  0
BLOCK_RECORD
  5
266C2
330
7466
100
AcDbSymbolTableRecord
100
AcDbBlockTableRecord
  2
*D40
340
0
  0
BLOCK_RECORD
  5
266CE
330
7466
100
AcDbSymbolTableRecord
100
AcDbBlockTableRecord
  2
*D41
340
0
  0
BLOCK_RECORD
  5
266DA
330
7466
100
AcDbSymbolTableRecord
100
AcDbBlockTableRecord
  2
*D42
340
0
  0
BLOCK_RECORD
  5
266E5
330
7466
100
AcDbSymbolTableRecord
100
AcDbBlockTableRecord
  2
*D43
340
0
  0
BLOCK_RECORD
  5
266FE
330
7466
100
AcDbSymbolTableRecord
100
AcDbBlockTableRecord
  2
*D44
340
0
  0
BLOCK_RECORD
  5
27EAD
330
7466
100
AcDbSymbolTableRecord
100
AcDbBlockTableRecord
  2
*D45
340
0
  0
BLOCK_RECORD
  5
2841F
330
7466
100
AcDbSymbolTableRecord
100
AcDbBlockTableRecord
  2
*D46
340
0
  0
BLOCK_RECORD
  5
2842B
330
7466
100
AcDbSymbolTableRecord
100
AcDbBlockTableRecord
  2
*D47
340
0
  0
BLOCK_RECORD
  5
28439
330
7466
100
AcDbSymbolTableRecord
100
AcDbBlockTableRecord
  2
*D48
340
0
  0
BLOCK_RECORD
  5
28445
330
7466
100
AcDbSymbolTableRecord
100
AcDbBlockTableRecord
  2
*D49
340
0
  0
BLOCK_RECORD
  5
28451
330
7466
100
AcDbSymbolTableRecord
100
AcDbBlockTableRecord
  2
*D50
340
0
  0
BLOCK_RECORD
  5
2845D
330
7466
100
AcDbSymbolTableRecord
100
AcDbBlockTableRecord
  2
*D51
340
0
  0
ENDTAB
  0
ENDSEC
  0
SECTION
  2
BLOCKS
  0
BLOCK
  5
7489
330
747D
100
AcDbEntity
  8
0
100
AcDbBlockBegin
  2
*MODEL_SPACE
 70
     0
 10
0.0
 20
0.0
 30
0.0
  3
*MODEL_SPACE
  1

  0
ENDBLK
  5
748A
330
747D
100
AcDbEntity
  8
0
100
AcDbBlockEnd
  0
BLOCK
  5
7487
330
747A
100
AcDbEntity
 67
     1
  8
0
100
AcDbBlockBegin
  2
*PAPER_SPACE
 70
     0
 10
0.0
 20
0.0
 30
0.0
  3
*PAPER_SPACE
  1

  0
ENDBLK
  5
7488
330
747A
100
AcDbEntity
 67
     1
  8
0
100
AcDbBlockEnd
  0
BLOCK
  5
DEAD
330
DEAC
100
AcDbEntity
  8
0
100
AcDbBlockBegin
  2
_OPEN
 70
     0
 10
0.0
 20
0.0
 30
0.0
  3
_OPEN
  1

  0
LINE
  5
DEAE
330
DEAC
100
AcDbEntity
  8
0
  6
ByBlock
 62
     0
100
AcDbLine
 10
-1.0
 20
0.1666666666666666
 30
0.0
 11
0.0
 21
0.0
 31
0.0
  0
LINE
  5
DEAF
330
DEAC
100
AcDbEntity
  8
0
  6
ByBlock
 62
     0
100
AcDbLine
 10
0.0
 20
0.0
 30
0.0
 11
-1.0
 21
-0.1666666666666666
 31
0.0
  0
LINE
  5
DEB0
330
DEAC
100
AcDbEntity
  8
0
  6
ByBlock
 62
     0
100
AcDbLine
 10
0.0
 20
0.0
 30
0.0
 11
-1.0
 21
0.0
 31
0.0
  0
ENDBLK
  5
DEB1
330
DEAC
100
AcDbEntity
  8
0
100
AcDbBlockEnd
  0
BLOCK
  5
F771
330
F770
100
AcDbEntity
  8
0
 48
50.0
100
AcDbBlockBegin
  2
_DOTSMALL
 70
     0
 10
0.0
 20
0.0
 30
0.0
  3
_DOTSMALL
  1

  0
LWPOLYLINE
  5
F772
330
F770
100
AcDbEntity
  8
0
  6
ByBlock
 62
     0
 48
50.0
100
AcDbPolyline
 90
        2
 70
     1
 43
0.5
 10
-0.0625
 20
0.0
 42
1.0
 10
0.0625
 20
0.0
 42
1.0
  0
ENDBLK
  5
F776
330
F770
100
AcDbEntity
  8
0
 48
50.0
100
AcDbBlockEnd
  0
BLOCK
  5
164BA
330
164B4
100
AcDbEntity
  8
0
 48
50.0
100
AcDbBlockBegin
  2
_DOT
 70
     0
 10
0.0
 20
0.0
 30
0.0
  3
_DOT
  1

  0
LWPOLYLINE
  5
164B5
330
164B4
100
AcDbEntity
  8
0
  6
ByBlock
 62
     0
 48
50.0
100
AcDbPolyline
 90
        2
 70
     1
 43
0.5
 10
-0.25
 20
0.0
 42
1.0
 10
0.25
 20
0.0
 42
1.0
  0
LINE
  5
164B9
330
164B4
100
AcDbEntity
  8
0
  6
ByBlock
 62
     0
 48
50.0
100
AcDbLine
 10
-0.5
 20
0.0
 30
0.0
 11
-1.0
 21
0.0
 31
0.0
  0
ENDBLK
  5
164BB
330
164B4
100
AcDbEntity
  8
0
 48
50.0
100
AcDbBlockEnd
  0
BLOCK
  5
18BC9
330
18BC8
100
AcDbEntity
  8
0
 48
50.0
100
AcDbBlockBegin
  2
*D3
 70
     1
 10
0.0
 20
0.0
 30
0.0
  3
*D3
  1

  0
LINE
  5
18BCA
330
18BC8
100
AcDbEntity
  8
寸法
 62
     0
 48
50.0
370
    -2
100
AcDbLine
 10
7649.896575106999
 20
9636.123139034717
 30
0.0
 11
8702.429862581047
 21
9636.123139034717
 31
0.0
  0
LINE
  5
18BCB
330
18BC8
100
AcDbEntity
  8
寸法
 62
     0
 48
50.0
370
    -2
100
AcDbLine
 10
7649.896575106973
 20
7846.123139034709
 30
0.0
 11
8702.429862581047
 21
7846.123139034709
 31
0.0
  0
LINE
  5
18BCC
330
18BC8
100
AcDbEntity
  8
寸法
 62
     0
 48
50.0
370
    -2
100
AcDbLine
 10
8642.429862581046
 20
9636.123139034717
 30
0.0
 11
8642.429862581046
 21
7846.123139034709
 31
0.0
  0
INSERT
  5
18BCD
330
18BC8
100
AcDbEntity
  8
寸法
 62
     0
 48
50.0
370
    -2
100
AcDbBlockReference
  2
_DOTSMALL
 10
8642.429862581046
 20
9636.123139034717
 30
0.0
 41
100.0
 42
100.0
 43
100.0
 50
90.0
  0
INSERT
  5
18BCE
330
18BC8
100
AcDbEntity
  8
寸法
 62
     0
 48
50.0
370
    -2
100
AcDbBlockReference
  2
_DOTSMALL
 10
8642.429862581046
 20
7846.123139034709
 30
0.0
 41
100.0
 42
100.0
 43
100.0
 50
270.0
  0
MTEXT
  5
18BCF
330
18BC8
100
AcDbEntity
  8
寸法
 62
     7
 48
50.0
100
AcDbMText
 10
8542.429862581045
 20
8741.123139034712
 30
0.0
 40
120.0
 41
0.0
 71
     5
 72
     1
  1
\A1;1790
  7
STYLE1
 11
0.0000000000000001
 21
1.0
 31
0.0
 73
     1
 44
1.0
1001
ACAD
1000
MTEXTBEGIN
1070
    73
1070
     1
1070
    44
1040
1.0
1070
    74
1070
     0
1000
MTEXTEND
  0
POINT
  5
18BD0
330
18BC8
100
AcDbEntity
  8
DEFPOINTS
 62
     0
 48
50.0
100
AcDbPoint
 10
7629.896575106998
 20
9636.123139034717
 30
0.0
  0
POINT
  5
18BD1
330
18BC8
100
AcDbEntity
  8
DEFPOINTS
 62
     0
 48
50.0
100
AcDbPoint
 10
7629.896575106974
 20
7846.123139034709
 30
0.0
  0
POINT
  5
18BD2
330
18BC8
100
AcDbEntity
  8
DEFPOINTS
 62
     0
 48
50.0
100
AcDbPoint
 10
8642.429862581046
 20
7846.123139034709
 30
0.0
  0
ENDBLK
  5
18BD3
330
18BC8
100
AcDbEntity
  8
0
 48
50.0
100
AcDbBlockEnd
  0
BLOCK
  5
18BD5
330
18BD4
100
AcDbEntity
  8
0
 48
50.0
100
AcDbBlockBegin
  2
*D4
 70
     1
 10
0.0
 20
0.0
 30
0.0
  3
*D4
  1

  0
LINE
  5
18BD6
330
18BD4
100
AcDbEntity
  8
寸法
 62
     0
 48
50.0
370
    -2
100
AcDbLine
 10
4214.896575106998
 20
9656.123139034622
 30
0.0
 11
4214.896575106998
 21
10211.93135865972
 31
0.0
  0
LINE
  5
18BD7
330
18BD4
100
AcDbEntity
  8
寸法
 62
     0
 48
50.0
370
    -2
100
AcDbLine
 10
7574.896575106999
 20
9656.123139034718
 30
0.0
 11
7574.896575106999
 21
10211.93135865972
 31
0.0
  0
LINE
  5
18BD8
330
18BD4
100
AcDbEntity
  8
寸法
 62
     0
 48
50.0
370
    -2
100
AcDbLine
 10
4214.896575106998
 20
10151.93135865972
 30
0.0
 11
7574.896575106999
 21
10151.93135865972
 31
0.0
  0
INSERT
  5
18BD9
330
18BD4
100
AcDbEntity
  8
寸法
 62
     0
 48
50.0
370
    -2
100
AcDbBlockReference
  2
_DOTSMALL
 10
4214.896575106998
 20
10151.93135865972
 30
0.0
 41
100.0
 42
100.0
 43
100.0
 50
180.0
  0
INSERT
  5
18BDA
330
18BD4
100
AcDbEntity
  8
寸法
 62
     0
 48
50.0
370
    -2
100
AcDbBlockReference
  2
_DOTSMALL
 10
7574.896575106999
 20
10151.93135865972
 30
0.0
 41
100.0
 42
100.0
 43
100.0
  0
MTEXT
  5
18BDB
330
18BD4
100
AcDbEntity
  8
寸法
 62
     7
 48
50.0
100
AcDbMText
 10
5894.896575106997
 20
10251.94316968334
 30
0.0
 40
120.0
 41
0.0
 71
     5
 72
     1
  1
\A1;8X420=3360
  7
STYLE1
 73
     1
 44
1.0
1001
ACAD
1000
MTEXTBEGIN
1070
    73
1070
     1
1070
    44
1040
1.0
1070
    74
1070
     0
1000
MTEXTEND
  0
POINT
  5
18BDC
330
18BD4
100
AcDbEntity
  8
DEFPOINTS
 62
     0
 48
50.0
100
AcDbPoint
 10
4214.896575106998
 20
9636.123139034623
 30
0.0
  0
POINT
  5
18BDD
330
18BD4
100
AcDbEntity
  8
DEFPOINTS
 62
     0
 48
50.0
100
AcDbPoint
 10
7574.896575106999
 20
9636.123139034717
 30
0.0
  0
POINT
  5
18BDE
330
18BD4
100
AcDbEntity
  8
DEFPOINTS
 62
     0
 48
50.0
100
AcDbPoint
 10
7574.896575106999
 20
10151.93135865972
 30
0.0
  0
ENDBLK
  5
18BDF
330
18BD4
100
AcDbEntity
  8
0
 48
50.0
100
AcDbBlockEnd
  0
BLOCK
  5
18BE1
330
18BE0
100
AcDbEntity
  8
0
 48
50.0
100
AcDbBlockBegin
  2
*D5
 70
     1
 10
0.0
 20
0.0
 30
0.0
  3
*D5
  1

  0
LINE
  5
18BE2
330
18BE0
100
AcDbEntity
  8
寸法
 62
     0
 48
50.0
370
    -2
100
AcDbLine
 10
7574.896575106999
 20
9656.123139034718
 30
0.0
 11
7574.896575106999
 21
10211.9313586597
 31
0.0
  0
LINE
  5
18BE3
330
18BE0
100
AcDbEntity
  8
寸法
 62
     0
 48
50.0
370
    -2
100
AcDbLine
 10
7629.896575106998
 20
9656.123139034718
 30
0.0
 11
7629.896575106998
 21
10211.9313586597
 31
0.0
  0
LINE
  5
18BE4
330
18BE0
100
AcDbEntity
  8
寸法
 62
     0
 48
50.0
370
    -2
100
AcDbLine
 10
7574.896575106999
 20
10151.9313586597
 30
0.0
 11
7474.896575106999
 21
10151.9313586597
 31
0.0
  0
LINE
  5
18BE5
330
18BE0
100
AcDbEntity
  8
寸法
 62
     0
 48
50.0
370
    -2
100
AcDbLine
 10
7629.896575106998
 20
10151.9313586597
 30
0.0
 11
8046.867137855477
 21
10151.9313586597
 31
0.0
  0
LINE
  5
18BE6
330
18BE0
100
AcDbEntity
  8
寸法
 62
     0
 48
50.0
370
    -2
100
AcDbLine
 10
7574.896575106999
 20
10151.9313586597
 30
0.0
 11
7629.896575106998
 21
10151.9313586597
 31
0.0
  0
INSERT
  5
18BE7
330
18BE0
100
AcDbEntity
  8
寸法
 62
     0
 48
50.0
370
    -2
100
AcDbBlockReference
  2
_DOTSMALL
 10
7574.896575106999
 20
10151.9313586597
 30
0.0
 41
100.0
 42
100.0
 43
100.0
  0
INSERT
  5
18BE8
330
18BE0
100
AcDbEntity
  8
寸法
 62
     0
 48
50.0
370
    -2
100
AcDbBlockReference
  2
_DOTSMALL
 10
7629.896575106998
 20
10151.9313586597
 30
0.0
 41
100.0
 42
100.0
 43
100.0
 50
180.0
  0
MTEXT
  5
18BE9
330
18BE0
100
AcDbEntity
  8
寸法
 62
     7
 48
50.0
100
AcDbMText
 10
7938.381856481237
 20
10251.9313586597
 30
0.0
 40
120.0
 41
0.0
 71
     5
 72
     1
  1
\A1;55
  7
STYLE1
 73
     1
 44
1.0
1001
ACAD
1000
MTEXTBEGIN
1070
    73
1070
     1
1070
    44
1040
1.0
1070
    74
1070
     0
1000
MTEXTEND
  0
POINT
  5
18BEA
330
18BE0
100
AcDbEntity
  8
DEFPOINTS
 62
     0
 48
50.0
100
AcDbPoint
 10
7574.896575106999
 20
9636.123139034717
 30
0.0
  0
POINT
  5
18BEB
330
18BE0
100
AcDbEntity
  8
DEFPOINTS
 62
     0
 48
50.0
100
AcDbPoint
 10
7629.896575106998
 20
9636.123139034717
 30
0.0
  0
POINT
  5
18BEC
330
18BE0
100
AcDbEntity
  8
DEFPOINTS
 62
     0
 48
50.0
100
AcDbPoint
 10
7629.896575106998
 20
10151.9313586597
 30
0.0
  0
ENDBLK
  5
18BED
330
18BE0
100
AcDbEntity
  8
0
 48
50.0
100
AcDbBlockEnd
  0
BLOCK
  5
18BEF
330
18BEE
100
AcDbEntity
  8
0
 48
50.0
100
AcDbBlockBegin
  2
*D6
 70
     1
 10
0.0
 20
0.0
 30
0.0
  3
*D6
  1

  0
LINE
  5
18BF0
330
18BEE
100
AcDbEntity
  8
寸法
 62
     0
 48
50.0
370
    -2
100
AcDbLine
 10
7649.896575106999
 20
9636.123139034717
 30
0.0
 11
8337.32292084141
 21
9636.123139034717
 31
0.0
  0
LINE
  5
18BF1
330
18BEE
100
AcDbEntity
  8
寸法
 62
     0
 48
50.0
370
    -2
100
AcDbLine
 10
7649.896575106999
 20
9581.123139034721
 30
0.0
 11
8337.32292084141
 21
9581.123139034721
 31
0.0
  0
LINE
  5
18BF2
330
18BEE
100
AcDbEntity
  8
寸法
 62
     0
 48
50.0
370
    -2
100
AcDbLine
 10
8277.322920841411
 20
9581.123139034721
 30
0.0
 11
8277.322920841411
 21
9481.123139034719
 31
0.0
  0
LINE
  5
18BF3
330
18BEE
100
AcDbEntity
  8
寸法
 62
     0
 48
50.0
370
    -2
100
AcDbLine
 10
8277.322920841411
 20
9636.123139034717
 30
0.0
 11
8277.322920841411
 21
10053.09370178319
 31
0.0
  0
LINE
  5
18BF4
330
18BEE
100
AcDbEntity
  8
寸法
 62
     0
 48
50.0
370
    -2
100
AcDbLine
 10
8277.322920841411
 20
9581.123139034721
 30
0.0
 11
8277.322920841411
 21
9636.123139034717
 31
0.0
  0
INSERT
  5
18BF5
330
18BEE
100
AcDbEntity
  8
寸法
 62
     0
 48
50.0
370
    -2
100
AcDbBlockReference
  2
_DOTSMALL
 10
8277.322920841411
 20
9581.123139034721
 30
0.0
 41
100.0
 42
100.0
 43
100.0
 50
90.0
  0
INSERT
  5
18BF6
330
18BEE
100
AcDbEntity
  8
寸法
 62
     0
 48
50.0
370
    -2
100
AcDbBlockReference
  2
_DOTSMALL
 10
8277.322920841411
 20
9636.123139034717
 30
0.0
 41
100.0
 42
100.0
 43
100.0
 50
270.0
  0
MTEXT
  5
18BF7
330
18BEE
100
AcDbEntity
  8
寸法
 62
     7
 48
50.0
100
AcDbMText
 10
8177.32292084141
 20
9944.608420408957
 30
0.0
 40
120.0
 41
0.0
 71
     5
 72
     1
  1
\A1;55
  7
STYLE1
 11
0.0000000000000001
 21
1.0
 31
0.0
 73
     1
 44
1.0
1001
ACAD
1000
MTEXTBEGIN
1070
    73
1070
     1
1070
    44
1040
1.0
1070
    74
1070
     0
1000
MTEXTEND
  0
POINT
  5
18BF8
330
18BEE
100
AcDbEntity
  8
DEFPOINTS
 62
     0
 48
50.0
100
AcDbPoint
 10
7629.896575106998
 20
9636.123139034717
 30
0.0
  0
POINT
  5
18BF9
330
18BEE
100
AcDbEntity
  8
DEFPOINTS
 62
     0
 48
50.0
100
AcDbPoint
 10
7629.896575106998
 20
9581.123139034721
 30
0.0
  0
POINT
  5
18BFA
330
18BEE
100
AcDbEntity
  8
DEFPOINTS
 62
     0
 48
50.0
100
AcDbPoint
 10
8277.322920841411
 20
9581.123139034721
 30
0.0
  0
ENDBLK
  5
18BFB
330
18BEE
100
AcDbEntity
  8
0
 48
50.0
100
AcDbBlockEnd
  0
BLOCK
  5
18BFD
330
18BFC
100
AcDbEntity
  8
0
 48
50.0
100
AcDbBlockBegin
  2
*D7
 70
     1
 10
0.0
 20
0.0
 30
0.0
  3
*D7
  1

  0
LINE
  5
18BFE
330
18BFC
100
AcDbEntity
  8
寸法
 62
     0
 48
50.0
370
    -2
100
AcDbLine
 10
4159.896575106963
 20
9656.123139034622
 30
0.0
 11
4159.896575106963
 21
10211.9313586596
 31
0.0
  0
LINE
  5
18BFF
330
18BFC
100
AcDbEntity
  8
寸法
 62
     0
 48
50.0
370
    -2
100
AcDbLine
 10
4214.896575106998
 20
9656.123139034622
 30
0.0
 11
4214.896575106998
 21
10211.9313586596
 31
0.0
  0
LINE
  5
18C00
330
18BFC
100
AcDbEntity
  8
寸法
 62
     0
 48
50.0
370
    -2
100
AcDbLine
 10
4214.896575106998
 20
10151.9313586596
 30
0.0
 11
4314.896575106998
 21
10151.9313586596
 31
0.0
  0
LINE
  5
18C01
330
18BFC
100
AcDbEntity
  8
寸法
 62
     0
 48
50.0
370
    -2
100
AcDbLine
 10
4159.896575106963
 20
10151.9313586596
 30
0.0
 11
3742.926012358486
 21
10151.9313586596
 31
0.0
  0
LINE
  5
18C02
330
18BFC
100
AcDbEntity
  8
寸法
 62
     0
 48
50.0
370
    -2
100
AcDbLine
 10
4214.896575106998
 20
10151.9313586596
 30
0.0
 11
4159.896575106963
 21
10151.9313586596
 31
0.0
  0
INSERT
  5
18C03
330
18BFC
100
AcDbEntity
  8
寸法
 62
     0
 48
50.0
370
    -2
100
AcDbBlockReference
  2
_DOTSMALL
 10
4214.896575106998
 20
10151.9313586596
 30
0.0
 41
100.0
 42
100.0
 43
100.0
 50
180.0
  0
INSERT
  5
18C04
330
18BFC
100
AcDbEntity
  8
寸法
 62
     0
 48
50.0
370
    -2
100
AcDbBlockReference
  2
_DOTSMALL
 10
4159.896575106963
 20
10151.9313586596
 30
0.0
 41
100.0
 42
100.0
 43
100.0
  0
MTEXT
  5
18C05
330
18BFC
100
AcDbEntity
  8
寸法
 62
     7
 48
50.0
100
AcDbMText
 10
3851.411293732725
 20
10251.9313586596
 30
0.0
 40
120.0
 41
0.0
 71
     5
 72
     1
  1
\A1;55
  7
STYLE1
 73
     1
 44
1.0
1001
ACAD
1000
MTEXTBEGIN
1070
    73
1070
     1
1070
    44
1040
1.0
1070
    74
1070
     0
1000
MTEXTEND
  0
POINT
  5
18C06
330
18BFC
100
AcDbEntity
  8
DEFPOINTS
 62
     0
 48
50.0
100
AcDbPoint
 10
4159.896575106963
 20
9636.123139034623
 30
0.0
  0
POINT
  5
18C07
330
18BFC
100
AcDbEntity
  8
DEFPOINTS
 62
     0
 48
50.0
100
AcDbPoint
 10
4214.896575106998
 20
9636.123139034623
 30
0.0
  0
POINT
  5
18C08
330
18BFC
100
AcDbEntity
  8
DEFPOINTS
 62
     0
 48
50.0
100
AcDbPoint
 10
4214.896575106998
 20
10151.9313586596
 30
0.0
  0
ENDBLK
  5
18C09
330
18BFC
100
AcDbEntity
  8
0
 48
50.0
100
AcDbBlockEnd
  0
BLOCK
  5
18C0B
330
18C0A
100
AcDbEntity
  8
0
 48
50.0
100
AcDbBlockBegin
  2
*D8
 70
     1
 10
0.0
 20
0.0
 30
0.0
  3
*D8
  1

  0
LINE
  5
18C0C
330
18C0A
100
AcDbEntity
  8
寸法
 62
     0
 48
50.0
370
    -2
100
AcDbLine
 10
4159.896575106992
 20
7826.123139034546
 30
0.0
 11
4159.896575106992
 21
6804.372203245664
 31
0.0
  0
LINE
  5
18C0D
330
18C0A
100
AcDbEntity
  8
寸法
 62
     0
 48
50.0
370
    -2
100
AcDbLine
 10
7629.896575106974
 20
7826.123139034674
 30
0.0
 11
7629.896575106974
 21
6804.372203245664
 31
0.0
  0
LINE
  5
18C0E
330
18C0A
100
AcDbEntity
  8
寸法
 62
     0
 48
50.0
370
    -2
100
AcDbLine
 10
4159.896575106992
 20
6864.372203245665
 30
0.0
 11
7629.896575106974
 21
6864.372203245665
 31
0.0
  0
INSERT
  5
18C0F
330
18C0A
100
AcDbEntity
  8
寸法
 62
     0
 48
50.0
370
    -2
100
AcDbBlockReference
  2
_DOTSMALL
 10
4159.896575106992
 20
6864.372203245665
 30
0.0
 41
100.0
 42
100.0
 43
100.0
 50
180.0
  0
INSERT
  5
18C10
330
18C0A
100
AcDbEntity
  8
寸法
 62
     0
 48
50.0
370
    -2
100
AcDbBlockReference
  2
_DOTSMALL
 10
7629.896575106974
 20
6864.372203245665
 30
0.0
 41
100.0
 42
100.0
 43
100.0
  0
MTEXT
  5
18C11
330
18C0A
100
AcDbEntity
  8
寸法
 62
     7
 48
50.0
100
AcDbMText
 10
5911.12376113973
 20
6964.372203245665
 30
0.0
 40
120.0
 41
0.0
 71
     5
 72
     1
  1
\A1;3470
  7
STYLE1
 73
     1
 44
1.0
1001
ACAD
1000
MTEXTBEGIN
1070
    73
1070
     1
1070
    44
1040
1.0
1070
    74
1070
     0
1000
MTEXTEND
  0
POINT
  5
18C12
330
18C0A
100
AcDbEntity
  8
DEFPOINTS
 62
     0
 48
50.0
100
AcDbPoint
 10
4159.896575106992
 20
7846.123139034546
 30
0.0
  0
POINT
  5
18C13
330
18C0A
100
AcDbEntity
  8
DEFPOINTS
 62
     0
 48
50.0
100
AcDbPoint
 10
7629.896575106974
 20
7846.123139034673
 30
0.0
  0
POINT
  5
18C14
330
18C0A
100
AcDbEntity
  8
DEFPOINTS
 62
     0
 48
50.0
100
AcDbPoint
 10
7629.896575106974
 20
6864.372203245665
 30
0.0
  0
ENDBLK
  5
18C15
330
18C0A
100
AcDbEntity
  8
0
 48
50.0
100
AcDbBlockEnd
  0
BLOCK
  5
18C17
330
18C16
100
AcDbEntity
  8
0
 48
50.0
100
AcDbBlockBegin
  2
*D9
 70
     1
 10
0.0
 20
0.0
 30
0.0
  3
*D9
  1

  0
LINE
  5
18C18
330
18C16
100
AcDbEntity
  8
寸法
 62
     0
 48
50.0
370
    -2
100
AcDbLine
 10
7649.896575106973
 20
7901.123139034706
 30
0.0
 11
8337.322920841385
 21
7901.123139034706
 31
0.0
  0
LINE
  5
18C19
330
18C16
100
AcDbEntity
  8
寸法
 62
     0
 48
50.0
370
    -2
100
AcDbLine
 10
7649.896575106973
 20
7846.123139034709
 30
0.0
 11
8337.322920841385
 21
7846.123139034709
 31
0.0
  0
LINE
  5
18C1A
330
18C16
100
AcDbEntity
  8
寸法
 62
     0
 48
50.0
370
    -2
100
AcDbLine
 10
8277.322920841385
 20
7901.123139034706
 30
0.0
 11
8277.322920841385
 21
8001.123139034707
 31
0.0
  0
LINE
  5
18C1B
330
18C16
100
AcDbEntity
  8
寸法
 62
     0
 48
50.0
370
    -2
100
AcDbLine
 10
8277.322920841385
 20
7846.123139034709
 30
0.0
 11
8277.322920841385
 21
7429.152576286229
 31
0.0
  0
LINE
  5
18C1C
330
18C16
100
AcDbEntity
  8
寸法
 62
     0
 48
50.0
370
    -2
100
AcDbLine
 10
8277.322920841385
 20
7901.123139034706
 30
0.0
 11
8277.322920841385
 21
7846.123139034709
 31
0.0
  0
INSERT
  5
18C1D
330
18C16
100
AcDbEntity
  8
寸法
 62
     0
 48
50.0
370
    -2
100
AcDbBlockReference
  2
_DOTSMALL
 10
8277.322920841385
 20
7901.123139034706
 30
0.0
 41
100.0
 42
100.0
 43
100.0
 50
270.0
  0
INSERT
  5
18C1E
330
18C16
100
AcDbEntity
  8
寸法
 62
     0
 48
50.0
370
    -2
100
AcDbBlockReference
  2
_DOTSMALL
 10
8277.322920841385
 20
7846.123139034709
 30
0.0
 41
100.0
 42
100.0
 43
100.0
 50
90.0
  0
MTEXT
  5
18C1F
330
18C16
100
AcDbEntity
  8
寸法
 62
     7
 48
50.0
100
AcDbMText
 10
8177.322920841383
 20
7537.637857660469
 30
0.0
 40
120.0
 41
0.0
 71
     5
 72
     1
  1
\A1;55
  7
STYLE1
 11
0.0000000000000001
 21
1.0
 31
0.0
 73
     1
 44
1.0
1001
ACAD
1000
MTEXTBEGIN
1070
    73
1070
     1
1070
    44
1040
1.0
1070
    74
1070
     0
1000
MTEXTEND
  0
POINT
  5
18C20
330
18C16
100
AcDbEntity
  8
DEFPOINTS
 62
     0
 48
50.0
100
AcDbPoint
 10
7629.896575106974
 20
7901.123139034706
 30
0.0
  0
POINT
  5
18C21
330
18C16
100
AcDbEntity
  8
DEFPOINTS
 62
     0
 48
50.0
100
AcDbPoint
 10
7629.896575106974
 20
7846.123139034709
 30
0.0
  0
POINT
  5
18C22
330
18C16
100
AcDbEntity
  8
DEFPOINTS
 62
     0
 48
50.0
100
AcDbPoint
 10
8277.322920841385
 20
7846.123139034709
 30
0.0
  0
ENDBLK
  5
18C23
330
18C16
100
AcDbEntity
  8
0
 48
50.0
100
AcDbBlockEnd
  0
BLOCK
  5
18C25
330
18C24
100
AcDbEntity
  8
0
 48
50.0
100
AcDbBlockBegin
  2
*D10
 70
     1
 10
0.0
 20
0.0
 30
0.0
  3
*D10
  1

  0
LINE
  5
18C26
330
18C24
100
AcDbEntity
  8
寸法
 62
     0
 48
50.0
370
    -2
100
AcDbLine
 10
6533.037591258376
 20
9136.123139034728
 30
0.0
 11
6465.083950562664
 21
8882.516699399049
 31
0.0
  0
LINE
  5
18C27
330
18C24
100
AcDbEntity
  8
寸法
 62
     0
 48
50.0
370
    -2
100
AcDbLine
 10
7596.037591258388
 20
9136.123139034721
 30
0.0
 11
7528.083950562677
 21
8882.516699399049
 31
0.0
  0
LINE
  5
18C28
330
18C24
100
AcDbEntity
  8
寸法
 62
     0
 48
50.0
370
    -2
100
AcDbLine
 10
6481.160902108531
 20
8942.51669939905
 30
0.0
 11
7544.160902108544
 21
8942.51669939905
 31
0.0
  0
INSERT
  5
18C29
330
18C24
100
AcDbEntity
  8
寸法
 62
     0
 48
50.0
370
    -2
100
AcDbBlockReference
  2
_DOTSMALL
 10
6481.160902108531
 20
8942.51669939905
 30
0.0
 41
100.0
 42
100.0
 43
100.0
 50
180.0
  0
INSERT
  5
18C2A
330
18C24
100
AcDbEntity
  8
寸法
 62
     0
 48
50.0
370
    -2
100
AcDbBlockReference
  2
_DOTSMALL
 10
7544.160902108544
 20
8942.51669939905
 30
0.0
 41
100.0
 42
100.0
 43
100.0
  0
MTEXT
  5
18C2B
330
18C24
100
AcDbEntity
  8
寸法
 62
     7
 48
50.0
100
AcDbMText
 10
7061.28653022935
 20
9042.516699399049
 30
0.0
 40
120.0
 41
0.0
 71
     5
 72
     1
  1
\A1;1063
  7
STYLE1
 73
     1
 44
1.0
1001
ACAD
1000
MTEXTBEGIN
1070
    73
1070
     1
1070
    44
1040
1.0
1070
    74
1070
     0
1000
MTEXTEND
  0
POINT
  5
18C2C
330
18C24
100
AcDbEntity
  8
DEFPOINTS
 62
     0
 48
50.0
100
AcDbPoint
 10
6538.396575106998
 20
9156.123139034727
 30
0.0
  0
POINT
  5
18C2D
330
18C24
100
AcDbEntity
  8
DEFPOINTS
 62
     0
 48
50.0
100
AcDbPoint
 10
7601.39657510701
 20
9156.12313903472
 30
0.0
  0
POINT
  5
18C2E
330
18C24
100
AcDbEntity
  8
DEFPOINTS
 62
     0
 48
50.0
100
AcDbPoint
 10
7544.160902108544
 20
8942.51669939905
 30
0.0
  0
ENDBLK
  5
18C2F
330
18C24
100
AcDbEntity
  8
0
 48
50.0
100
AcDbBlockEnd
  0
BLOCK
  5
18C31
330
18C30
100
AcDbEntity
  8
0
 48
50.0
100
AcDbBlockBegin
  2
*D11
 70
     1
 10
0.0
 20
0.0
 30
0.0
  3
*D11
  1

  0
LINE
  5
18C32
330
18C30
100
AcDbEntity
  8
寸法
 62
     0
 48
50.0
370
    -2
100
AcDbLine
 10
7621.396575106999
 20
9600.764155186094
 30
0.0
 11
8016.754300969024
 21
9494.828371819961
 31
0.0
  0
LINE
  5
18C33
330
18C30
100
AcDbEntity
  8
寸法
 62
     0
 48
50.0
370
    -2
100
AcDbLine
 10
7621.396575106999
 20
9150.764155186099
 30
0.0
 11
8016.754300969024
 21
9044.828371819964
 31
0.0
  0
LINE
  5
18C34
330
18C30
100
AcDbEntity
  8
寸法
 62
     0
 48
50.0
370
    -2
100
AcDbLine
 10
7956.754300969024
 20
9510.905323365827
 30
0.0
 11
7956.754300969024
 21
9060.90532336583
 31
0.0
  0
INSERT
  5
18C35
330
18C30
100
AcDbEntity
  8
寸法
 62
     0
 48
50.0
370
    -2
100
AcDbBlockReference
  2
_DOTSMALL
 10
7956.754300969024
 20
9510.905323365827
 30
0.0
 41
100.0
 42
100.0
 43
100.0
 50
90.0
  0
INSERT
  5
18C36
330
18C30
100
AcDbEntity
  8
寸法
 62
     0
 48
50.0
370
    -2
100
AcDbBlockReference
  2
_DOTSMALL
 10
7956.754300969024
 20
9060.90532336583
 30
0.0
 41
100.0
 42
100.0
 43
100.0
 50
270.0
  0
MTEXT
  5
18C37
330
18C30
100
AcDbEntity
  8
寸法
 62
     7
 48
50.0
100
AcDbMText
 10
7856.754300969022
 20
9285.905323365829
 30
0.0
 40
120.0
 41
0.0
 71
     5
 72
     1
  1
\A1;450
  7
STYLE1
 11
0.0000000000000001
 21
1.0
 31
0.0
 73
     1
 44
1.0
1001
ACAD
1000
MTEXTBEGIN
1070
    73
1070
     1
1070
    44
1040
1.0
1070
    74
1070
     0
1000
MTEXTEND
  0
POINT
  5
18C38
330
18C30
100
AcDbEntity
  8
DEFPOINTS
 62
     0
 48
50.0
100
AcDbPoint
 10
7601.396575106999
 20
9606.123139034718
 30
0.0
  0
POINT
  5
18C39
330
18C30
100
AcDbEntity
  8
DEFPOINTS
 62
     0
 48
50.0
100
AcDbPoint
 10
7601.396575106999
 20
9156.12313903472
 30
0.0
  0
POINT
  5
18C3A
330
18C30
100
AcDbEntity
  8
DEFPOINTS
 62
     0
 48
50.0
100
AcDbPoint
 10
7956.754300969024
 20
9060.90532336583
 30
0.0
  0
ENDBLK
  5
18C3B
330
18C30
100
AcDbEntity
  8
0
 48
50.0
100
AcDbBlockEnd
  0
BLOCK
  5
18C3D
330
18C3C
100
AcDbEntity
  8
0
 48
50.0
100
AcDbBlockBegin
  2
*D12
 70
     1
 10
0.0
 20
0.0
 30
0.0
  3
*D12
  1

  0
LINE
  5
18C3E
330
18C3C
100
AcDbEntity
  8
寸法
 62
     0
 48
50.0
370
    -2
100
AcDbLine
 10
7649.896575106999
 20
9581.123139034721
 30
0.0
 11
8337.32292084141
 21
9581.123139034721
 31
0.0
  0
LINE
  5
18C3F
330
18C3C
100
AcDbEntity
  8
寸法
 62
     0
 48
50.0
370
    -2
100
AcDbLine
 10
7649.896575106973
 20
7901.123139034706
 30
0.0
 11
8337.32292084141
 21
7901.123139034706
 31
0.0
  0
LINE
  5
18C40
330
18C3C
100
AcDbEntity
  8
寸法
 62
     0
 48
50.0
370
    -2
100
AcDbLine
 10
8277.322920841411
 20
9581.123139034721
 30
0.0
 11
8277.322920841411
 21
7901.123139034706
 31
0.0
  0
INSERT
  5
18C41
330
18C3C
100
AcDbEntity
  8
寸法
 62
     0
 48
50.0
370
    -2
100
AcDbBlockReference
  2
_DOTSMALL
 10
8277.322920841411
 20
9581.123139034721
 30
0.0
 41
100.0
 42
100.0
 43
100.0
 50
90.0
  0
INSERT
  5
18C42
330
18C3C
100
AcDbEntity
  8
寸法
 62
     0
 48
50.0
370
    -2
100
AcDbBlockReference
  2
_DOTSMALL
 10
8277.322920841411
 20
7901.123139034706
 30
0.0
 41
100.0
 42
100.0
 43
100.0
 50
270.0
  0
MTEXT
  5
18C43
330
18C3C
100
AcDbEntity
  8
寸法
 62
     7
 48
50.0
100
AcDbMText
 10
8177.311109817788
 20
8741.123139034712
 30
0.0
 40
120.0
 41
0.0
 71
     5
 72
     1
  1
\A1;4X420=1680
  7
STYLE1
 11
0.0000000000000001
 21
1.0
 31
0.0
 73
     1
 44
1.0
1001
ACAD
1000
MTEXTBEGIN
1070
    73
1070
     1
1070
    44
1040
1.0
1070
    74
1070
     0
1000
MTEXTEND
  0
POINT
  5
18C44
330
18C3C
100
AcDbEntity
  8
DEFPOINTS
 62
     0
 48
50.0
100
AcDbPoint
 10
7629.896575106998
 20
9581.123139034721
 30
0.0
  0
POINT
  5
18C45
330
18C3C
100
AcDbEntity
  8
DEFPOINTS
 62
     0
 48
50.0
100
AcDbPoint
 10
7629.896575106974
 20
7901.123139034706
 30
0.0
  0
POINT
  5
18C46
330
18C3C
100
AcDbEntity
  8
DEFPOINTS
 62
     0
 48
50.0
100
AcDbPoint
 10
8277.322920841411
 20
7901.123139034706
 30
0.0
  0
ENDBLK
  5
18C47
330
18C3C
100
AcDbEntity
  8
0
 48
50.0
100
AcDbBlockEnd
  0
BLOCK
  5
18C49
330
18C48
100
AcDbEntity
  8
0
 48
50.0
100
AcDbBlockBegin
  2
*D13
 70
     1
 10
0.0
 20
0.0
 30
0.0
  3
*D13
  1

  0
LINE
  5
18C4A
330
18C48
100
AcDbEntity
  8
寸法
 62
     0
 48
50.0
370
    -2
100
AcDbLine
 10
4183.037591258377
 20
9136.123139034619
 30
0.0
 11
4115.083950562663
 21
8882.516699398941
 31
0.0
  0
LINE
  5
18C4B
330
18C48
100
AcDbEntity
  8
寸法
 62
     0
 48
50.0
370
    -2
100
AcDbLine
 10
5246.037591258307
 20
9136.123139034671
 30
0.0
 11
5178.08395056258
 21
8882.516699398941
 31
0.0
  0
LINE
  5
18C4C
330
18C48
100
AcDbEntity
  8
寸法
 62
     0
 48
50.0
370
    -2
100
AcDbLine
 10
4131.160902108532
 20
8942.516699398941
 30
0.0
 11
5194.160902108448
 21
8942.516699398941
 31
0.0
  0
INSERT
  5
18C4D
330
18C48
100
AcDbEntity
  8
寸法
 62
     0
 48
50.0
370
    -2
100
AcDbBlockReference
  2
_DOTSMALL
 10
4131.160902108532
 20
8942.516699398941
 30
0.0
 41
100.0
 42
100.0
 43
100.0
 50
180.0
  0
INSERT
  5
18C4E
330
18C48
100
AcDbEntity
  8
寸法
 62
     0
 48
50.0
370
    -2
100
AcDbBlockReference
  2
_DOTSMALL
 10
5194.160902108448
 20
8942.516699398941
 30
0.0
 41
100.0
 42
100.0
 43
100.0
  0
MTEXT
  5
18C4F
330
18C48
100
AcDbEntity
  8
寸法
 62
     7
 48
50.0
100
AcDbMText
 10
4658.986452655306
 20
9042.516699398941
 30
0.0
 40
120.0
 41
0.0
 71
     5
 72
     1
  1
\A1;1063
  7
STYLE1
 73
     1
 44
1.0
1001
ACAD
1000
MTEXTBEGIN
1070
    73
1070
     1
1070
    44
1040
1.0
1070
    74
1070
     0
1000
MTEXTEND
  0
POINT
  5
18C50
330
18C48
100
AcDbEntity
  8
DEFPOINTS
 62
     0
 48
50.0
100
AcDbPoint
 10
4188.396575106999
 20
9156.123139034617
 30
0.0
  0
POINT
  5
18C51
330
18C48
100
AcDbEntity
  8
DEFPOINTS
 62
     0
 48
50.0
100
AcDbPoint
 10
5251.396575106929
 20
9156.123139034672
 30
0.0
  0
POINT
  5
18C52
330
18C48
100
AcDbEntity
  8
DEFPOINTS
 62
     0
 48
50.0
100
AcDbPoint
 10
5194.160902108448
 20
8942.516699398941
 30
0.0
  0
ENDBLK
  5
18C53
330
18C48
100
AcDbEntity
  8
0
 48
50.0
100
AcDbBlockEnd
  0
BLOCK
  5
18C55
330
18C54
100
AcDbEntity
  8
0
 48
50.0
100
AcDbBlockBegin
  2
*D14
 70
     1
 10
0.0
 20
0.0
 30
0.0
  3
*D14
  1

  0
LINE
  5
18C56
330
18C54
100
AcDbEntity
  8
寸法
 62
     0
 48
50.0
370
    -2
100
AcDbLine
 10
5274.037591258307
 20
9136.123139034669
 30
0.0
 11
5206.08395056258
 21
8882.516699398941
 31
0.0
  0
LINE
  5
18C57
330
18C54
100
AcDbEntity
  8
寸法
 62
     0
 48
50.0
370
    -2
100
AcDbLine
 10
6505.037591258377
 20
9136.123139034662
 30
0.0
 11
6437.083950562653
 21
8882.516699398941
 31
0.0
  0
LINE
  5
18C58
330
18C54
100
AcDbEntity
  8
寸法
 62
     0
 48
50.0
370
    -2
100
AcDbLine
 10
5222.160902108448
 20
8942.516699398941
 30
0.0
 11
6453.16090210852
 21
8942.516699398941
 31
0.0
  0
INSERT
  5
18C59
330
18C54
100
AcDbEntity
  8
寸法
 62
     0
 48
50.0
370
    -2
100
AcDbBlockReference
  2
_DOTSMALL
 10
5222.160902108448
 20
8942.516699398941
 30
0.0
 41
100.0
 42
100.0
 43
100.0
 50
180.0
  0
INSERT
  5
18C5A
330
18C54
100
AcDbEntity
  8
寸法
 62
     0
 48
50.0
370
    -2
100
AcDbBlockReference
  2
_DOTSMALL
 10
6453.16090210852
 20
8942.516699398941
 30
0.0
 41
100.0
 42
100.0
 43
100.0
  0
MTEXT
  5
18C5B
330
18C54
100
AcDbEntity
  8
寸法
 62
     7
 48
50.0
100
AcDbMText
 10
6081.244808320626
 20
9042.528510422561
 30
0.0
 40
120.0
 41
0.0
 71
     5
 72
     1
  1
\A1;1231
  7
STYLE1
 73
     1
 44
1.0
1001
ACAD
1000
MTEXTBEGIN
1070
    73
1070
     1
1070
    44
1040
1.0
1070
    74
1070
     0
1000
MTEXTEND
  0
POINT
  5
18C5C
330
18C54
100
AcDbEntity
  8
DEFPOINTS
 62
     0
 48
50.0
100
AcDbPoint
 10
5279.396575106929
 20
9156.123139034669
 30
0.0
  0
POINT
  5
18C5D
330
18C54
100
AcDbEntity
  8
DEFPOINTS
 62
     0
 48
50.0
100
AcDbPoint
 10
6510.396575106999
 20
9156.123139034662
 30
0.0
  0
POINT
  5
18C5E
330
18C54
100
AcDbEntity
  8
DEFPOINTS
 62
     0
 48
50.0
100
AcDbPoint
 10
6453.16090210852
 20
8942.516699398941
 30
0.0
  0
ENDBLK
  5
18C5F
330
18C54
100
AcDbEntity
  8
0
 48
50.0
100
AcDbBlockEnd
  0
BLOCK
  5
18C61
330
18C60
100
AcDbEntity
  8
0
 48
50.0
100
AcDbBlockBegin
  2
*D15
 70
     1
 10
0.0
 20
0.0
 30
0.0
  3
*D15
  1

  0
LINE
  5
18C62
330
18C60
100
AcDbEntity
  8
寸法
 62
     0
 48
50.0
370
    -2
100
AcDbLine
 10
5065.896575106966
 20
7749.123139034579
 30
0.0
 11
5065.896575106966
 21
7099.952920982538
 31
0.0
  0
LINE
  5
18C63
330
18C60
100
AcDbEntity
  8
寸法
 62
     0
 48
50.0
370
    -2
100
AcDbLine
 10
6331.896575106966
 20
7749.123139034579
 30
0.0
 11
6331.896575106966
 21
7099.952920982538
 31
0.0
  0
LINE
  5
18C64
330
18C60
100
AcDbEntity
  8
寸法
 62
     0
 48
50.0
370
    -2
100
AcDbLine
 10
5065.896575106966
 20
7159.952920982537
 30
0.0
 11
6331.896575106966
 21
7159.952920982537
 31
0.0
  0
INSERT
  5
18C65
330
18C60
100
AcDbEntity
  8
寸法
 62
     0
 48
50.0
370
    -2
100
AcDbBlockReference
  2
_DOTSMALL
 10
5065.896575106966
 20
7159.952920982537
 30
0.0
 41
100.0
 42
100.0
 43
100.0
 50
180.0
  0
INSERT
  5
18C66
330
18C60
100
AcDbEntity
  8
寸法
 62
     0
 48
50.0
370
    -2
100
AcDbBlockReference
  2
_DOTSMALL
 10
6331.896575106966
 20
7159.952920982537
 30
0.0
 41
100.0
 42
100.0
 43
100.0
  0
MTEXT
  5
18C67
330
18C60
100
AcDbEntity
  8
寸法
 62
     7
 48
50.0
100
AcDbMText
 10
5711.986008735934
 20
7359.964732006159
 30
0.0
 40
120.0
 41
0.0
 71
     5
 72
     1
  1
\A1;有効開口部間口\P1266
  7
STYLE1
 73
     1
 44
1.0
1001
ACAD
1000
MTEXTBEGIN
1070
    73
1070
     1
1070
    44
1040
1.0
1070
    74
1070
     0
1000
MTEXTEND
  0
POINT
  5
18C68
330
18C60
100
AcDbEntity
  8
DEFPOINTS
 62
     0
 48
50.0
100
AcDbPoint
 10
5065.896575106966
 20
7769.123139034579
 30
0.0
  0
POINT
  5
18C69
330
18C60
100
AcDbEntity
  8
DEFPOINTS
 62
     0
 48
50.0
100
AcDbPoint
 10
6331.896575106966
 20
7769.123139034579
 30
0.0
  0
POINT
  5
18C6A
330
18C60
100
AcDbEntity
  8
DEFPOINTS
 62
     0
 48
50.0
100
AcDbPoint
 10
6331.896575106966
 20
7159.952920982537
 30
0.0
  0
ENDBLK
  5
18C6B
330
18C60
100
AcDbEntity
  8
0
 48
50.0
100
AcDbBlockEnd
  0
BLOCK
  5
18C6D
330
18C6C
100
AcDbEntity
  8
0
 48
50.0
100
AcDbBlockBegin
  2
*D16
 70
     1
 10
0.0
 20
0.0
 30
0.0
  3
*D16
  1

  0
LINE
  5
18C6E
330
18C6C
100
AcDbEntity
  8
寸法
 62
     0
 48
50.0
370
    -2
100
AcDbLine
 10
7200.896575106966
 20
7846.123139034578
 30
0.0
 11
7457.192158500191
 21
7846.123139034578
 31
0.0
  0
LINE
  5
18C6F
330
18C6C
100
AcDbEntity
  8
寸法
 62
     0
 48
50.0
370
    -2
100
AcDbLine
 10
7199.896575106966
 20
7769.123139034579
 30
0.0
 11
7457.192158500191
 21
7769.123139034579
 31
0.0
  0
LINE
  5
18C70
330
18C6C
100
AcDbEntity
  8
寸法
 62
     0
 48
50.0
370
    -2
100
AcDbLine
 10
7417.192158500192
 20
7866.123139034579
 30
0.0
 11
7417.192158500192
 21
7886.123139034578
 31
0.0
  0
LINE
  5
18C71
330
18C6C
100
AcDbEntity
  8
寸法
 62
     0
 48
50.0
370
    -2
100
AcDbLine
 10
7417.192158500192
 20
7749.123139034579
 30
0.0
 11
7417.192158500192
 21
7533.123139034573
 31
0.0
  0
LINE
  5
18C72
330
18C6C
100
AcDbEntity
  8
寸法
 62
     0
 48
50.0
370
    -2
100
AcDbLine
 10
7417.192158500192
 20
7846.123139034578
 30
0.0
 11
7417.192158500192
 21
7769.123139034579
 31
0.0
  0
INSERT
  5
18C73
330
18C6C
100
AcDbEntity
  8
寸法
 62
     0
 48
50.0
370
    -2
100
AcDbBlockReference
  2
_DOT
 10
7417.192158500192
 20
7846.123139034578
 30
0.0
 41
20.0
 42
20.0
 43
20.0
 50
270.0
  0
INSERT
  5
18C74
330
18C6C
100
AcDbEntity
  8
寸法
 62
     0
 48
50.0
370
    -2
100
AcDbBlockReference
  2
_DOT
 10
7417.192158500192
 20
7769.123139034579
 30
0.0
 41
20.0
 42
20.0
 43
20.0
 50
90.0
  0
MTEXT
  5
18C75
330
18C6C
100
AcDbEntity
  8
寸法
 62
     7
 48
50.0
100
AcDbMText
 10
7325.192158500191
 20
7631.123139034575
 30
0.0
 40
120.0
 41
0.0
 71
     5
 72
     1
  1
\A1;77
  7
STYLE1
 11
0.0000000000000001
 21
1.0
 31
0.0
 73
     1
 44
1.0
1001
ACAD
1000
MTEXTBEGIN
1070
    73
1070
     1
1070
    44
1040
1.0
1070
    74
1070
     0
1000
MTEXTEND
  0
POINT
  5
18C76
330
18C6C
100
AcDbEntity
  8
DEFPOINTS
 62
     0
 48
50.0
100
AcDbPoint
 10
7180.896575106967
 20
7846.123139034578
 30
0.0
  0
POINT
  5
18C77
330
18C6C
100
AcDbEntity
  8
DEFPOINTS
 62
     0
 48
50.0
100
AcDbPoint
 10
7179.896575106965
 20
7769.123139034579
 30
0.0
  0
POINT
  5
18C78
330
18C6C
100
AcDbEntity
  8
DEFPOINTS
 62
     0
 48
50.0
100
AcDbPoint
 10
7417.192158500192
 20
7769.123139034579
 30
0.0
  0
ENDBLK
  5
18C79
330
18C6C
100
AcDbEntity
  8
0
 48
50.0
100
AcDbBlockEnd
  0
BLOCK
  5
18DA0
330
18C7A
100
AcDbEntity
  8
0
 48
50.0
100
AcDbBlockBegin
  2
A$C3B1A506B
 70
     0
 10
0.0
 20
0.0
 30
0.0
  3
A$C3B1A506B
  1

  0
MTEXT
  5
18C7B
330
18C7A
100
AcDbEntity
  8
寸法
 62
     7
 48
50.0
100
AcDbMText
 10
3342.250386887194
 20
2778.329429134012
 30
0.0
 40
96.0
 41
0.0
 71
     5
 72
     1
  1
棚 2段
  7
STYLE1
 73
     1
 44
1.0
1001
ACAD
1000
MTEXTBEGIN
1070
    73
1070
     1
1070
    44
1040
1.0
1070
    74
1070
     0
1000
MTEXTEND
  0
MTEXT
  5
18C7C
330
18C7A
100
AcDbEntity
  8
寸法
 62
     7
 48
50.0
100
AcDbMText
 10
2167.25038688716
 20
2778.329429133986
 30
0.0
 40
96.0
 41
0.0
 71
     5
 72
     1
  1
棚 2段
  7
STYLE1
 73
     1
 44
1.0
1001
ACAD
1000
MTEXTBEGIN
1070
    73
1070
     1
1070
    44
1040
1.0
1070
    74
1070
     0
1000
MTEXTEND
  0
MTEXT
  5
18C7D
330
18C7A
100
AcDbEntity
  8
寸法
 62
     7
 48
50.0
100
AcDbMText
 10
992.2503868871608
 20
2778.329429133935
 30
0.0
 40
96.0
 41
0.0
 71
     5
 72
     1
  1
棚 2段
  7
STYLE1
 73
     1
 44
1.0
1001
ACAD
1000
MTEXTBEGIN
1070
    73
1070
     1
1070
    44
1040
1.0
1070
    74
1070
     0
1000
MTEXTEND
  0
LINE
  5
18C7E
330
18C7A
100
AcDbEntity
  8
細線
 48
50.0
100
AcDbLine
 10
2771.970589276527
 20
1368.994384123192
 30
0.0
 11
3398.970589276523
 21
1368.994384123192
 31
0.0
  0
LINE
  5
18C7F
330
18C7A
100
AcDbEntity
  8
細線
 48
50.0
100
AcDbLine
 10
2117.970593930113
 20
1335.285615569113
 30
0.0
 11
3398.970589276523
 21
1335.285615569113
 31
0.0
  0
LINE
  5
18C80
330
18C7A
100
AcDbEntity
  8
細線
 48
50.0
100
AcDbLine
 10
2076.970593930115
 20
1364.690523565368
 30
0.0
 11
1322.970589276523
 21
1364.690523565367
 31
0.0
  0
LINE
  5
18C81
330
18C7A
100
AcDbEntity
  8
細線
100
AcDbLine
 10
3170.720579860066
 20
1388.494284088199
 30
0.0
 11
3173.052119381877
 21
1393.494286728162
 31
0.0
  0
LINE
  5
18C82
330
18C7A
100
AcDbEntity
  8
細線
100
AcDbLine
 10
3240.720589276525
 20
1388.494269174465
 30
0.0
 11
3238.389042800336
 21
1393.494286728144
 31
0.0
  0
LINE
  5
18C83
330
18C7A
100
AcDbEntity
  8
細線
100
AcDbLine
 10
3238.389042800336
 20
1393.494286728144
 30
0.0
 11
3173.052119381862
 21
1393.494286728133
 31
0.0
  0
LINE
  5
18C84
330
18C7A
100
AcDbEntity
  8
細線
100
AcDbLine
 10
3098.389042800336
 20
1393.494286728144
 30
0.0
 11
3033.052119381862
 21
1393.494286728133
 31
0.0
  0
LINE
  5
18C85
330
18C7A
100
AcDbEntity
  8
細線
100
AcDbLine
 10
3100.720589276523
 20
1388.494269174465
 30
0.0
 11
3098.389042800336
 21
1393.494286728144
 31
0.0
  0
LINE
  5
18C86
330
18C7A
100
AcDbEntity
  8
細線
100
AcDbLine
 10
3030.720579860066
 20
1388.494284088199
 30
0.0
 11
3033.052119381875
 21
1393.494286728162
 31
0.0
  0
LINE
  5
18C87
330
18C7A
100
AcDbEntity
  8
細線
100
AcDbLine
 10
2890.720589276525
 20
1388.494269174465
 30
0.0
 11
2893.052128798336
 21
1393.494271814428
 31
0.0
  0
LINE
  5
18C88
330
18C7A
100
AcDbEntity
  8
細線
100
AcDbLine
 10
2960.720598692984
 20
1388.494254260731
 30
0.0
 11
2958.389052216793
 21
1393.49427181441
 31
0.0
  0
LINE
  5
18C89
330
18C7A
100
AcDbEntity
  8
細線
100
AcDbLine
 10
2958.389052216795
 20
1393.49427181441
 30
0.0
 11
2893.052128798321
 21
1393.494271814399
 31
0.0
  0
LINE
  5
18C8A
330
18C7A
100
AcDbEntity
  8
細線
100
AcDbLine
 10
2667.139038146739
 20
1359.494298590735
 30
0.0
 11
2601.802114728263
 21
1359.494298590724
 31
0.0
  0
LINE
  5
18C8B
330
18C7A
100
AcDbEntity
  8
細線
100
AcDbLine
 10
2669.470584622926
 20
1354.494281037055
 30
0.0
 11
2667.139038146737
 21
1359.494298590735
 31
0.0
  0
LINE
  5
18C8C
330
18C7A
100
AcDbEntity
  8
細線
100
AcDbLine
 10
2599.470575206469
 20
1354.49429595079
 30
0.0
 11
2601.802114728278
 21
1359.494298590752
 31
0.0
  0
LINE
  5
18C8D
330
18C7A
100
AcDbEntity
  8
細線
 48
50.0
100
AcDbLine
 10
2440.853968524536
 20
1372.765132327548
 30
0.0
 11
2446.609486107205
 21
1354.494281037057
 31
0.0
  0
LINE
  5
18C8E
330
18C7A
100
AcDbEntity
  8
細線
 48
50.0
100
AcDbLine
 10
2429.925520044106
 20
1372.765132327546
 30
0.0
 11
2440.853968524536
 21
1372.765132327548
 31
0.0
  0
ARC
  5
18C8F
330
18C7A
100
AcDbEntity
  8
細線
 48
50.0
100
AcDbCircle
 10
2424.471163986787
 20
1374.265132327546
 30
0.0
 40
5.0
100
AcDbArc
 50
204.6243183520723
 51
335.3756816479278
  0
ARC
  5
18C90
330
18C7A
100
AcDbEntity
  8
細線
 48
50.0
100
AcDbCircle
 10
2429.925520044106
 20
1371.765132327546
 30
0.0
 40
1.0
100
AcDbArc
 50
90.0
 51
155.3756816479277
  0
ARC
  5
18C91
330
18C7A
100
AcDbEntity
  8
細線
 48
50.0
100
AcDbCircle
 10
2419.016807929469
 20
1371.765132327546
 30
0.0
 40
1.0
100
AcDbArc
 50
24.62431835207225
 51
90.0
  0
LINE
  5
18C92
330
18C7A
100
AcDbEntity
  8
細線
 48
50.0
100
AcDbLine
 10
2408.088359449037
 20
1372.765132327548
 30
0.0
 11
2419.016807929469
 21
1372.765132327546
 31
0.0
  0
LINE
  5
18C93
330
18C7A
100
AcDbEntity
  8
細線
 48
50.0
100
AcDbLine
 10
2402.33284186637
 20
1354.494281037054
 30
0.0
 11
2408.088359449037
 21
1372.765132327548
 31
0.0
  0
LINE
  5
18C94
330
18C7A
100
AcDbEntity
  8
細線
100
AcDbLine
 10
2458.070304175992
 20
1354.494278397076
 30
0.0
 11
2460.401843697802
 21
1359.494281037039
 31
0.0
  0
LINE
  5
18C95
330
18C7A
100
AcDbEntity
  8
細線
100
AcDbLine
 10
2528.070313592451
 20
1354.494263483342
 30
0.0
 11
2525.738767116262
 21
1359.494281037021
 31
0.0
  0
LINE
  5
18C96
330
18C7A
100
AcDbEntity
  8
細線
100
AcDbLine
 10
2525.738767116262
 20
1359.494281037021
 30
0.0
 11
2460.40184369779
 21
1359.49428103701
 31
0.0
  0
LINE
  5
18C97
330
18C7A
100
AcDbEntity
  8
細線
100
AcDbLine
 10
2387.139046332155
 20
1359.494281037021
 30
0.0
 11
2321.80212291368
 21
1359.49428103701
 31
0.0
  0
LINE
  5
18C98
330
18C7A
100
AcDbEntity
  8
細線
100
AcDbLine
 10
2389.470592808342
 20
1354.494263483342
 30
0.0
 11
2387.139046332153
 21
1359.494281037021
 31
0.0
  0
LINE
  5
18C99
330
18C7A
100
AcDbEntity
  8
細線
100
AcDbLine
 10
2319.470584622926
 20
1354.494281037054
 30
0.0
 11
2321.802122913694
 21
1359.494281037039
 31
0.0
  0
LINE
  5
18C9A
330
18C7A
100
AcDbEntity
  8
細線
100
AcDbLine
 10
2179.47061994182
 20
1354.494289224422
 30
0.0
 11
2181.802158232587
 21
1359.494289224407
 31
0.0
  0
LINE
  5
18C9B
330
18C7A
100
AcDbEntity
  8
細線
100
AcDbLine
 10
2249.470628127236
 20
1354.49427167071
 30
0.0
 11
2247.139081651047
 21
1359.494289224389
 31
0.0
  0
LINE
  5
18C9C
330
18C7A
100
AcDbEntity
  8
細線
100
AcDbLine
 10
2247.139081651047
 20
1359.494289224389
 30
0.0
 11
2181.802158232573
 21
1359.494289224378
 31
0.0
  0
LINE
  5
18C9D
330
18C7A
100
AcDbEntity
  8
細線
100
AcDbLine
 10
1807.970585744697
 20
1320.494460905133
 30
0.0
 11
1810.302124035464
 21
1325.494460905118
 31
0.0
  0
LINE
  5
18C9E
330
18C7A
100
AcDbEntity
  8
細線
100
AcDbLine
 10
1877.970593930113
 20
1320.494443351421
 30
0.0
 11
1875.639047453926
 21
1325.4944609051
 31
0.0
  0
LINE
  5
18C9F
330
18C7A
100
AcDbEntity
  8
細線
100
AcDbLine
 10
1875.639047453926
 20
1325.4944609051
 30
0.0
 11
1810.302124035452
 21
1325.494460905089
 31
0.0
  0
LINE
  5
18CA0
330
18C7A
100
AcDbEntity
  8
細線
100
AcDbLine
 10
2015.639047453926
 20
1325.4944609051
 30
0.0
 11
1950.302124035452
 21
1325.494460905089
 31
0.0
  0
LINE
  5
18CA1
330
18C7A
100
AcDbEntity
  8
細線
100
AcDbLine
 10
2017.970593930113
 20
1320.494443351421
 30
0.0
 11
2015.639047453924
 21
1325.4944609051
 31
0.0
  0
LINE
  5
18CA2
330
18C7A
100
AcDbEntity
  8
細線
100
AcDbLine
 10
1947.970585744697
 20
1320.494460905133
 30
0.0
 11
1950.302124035465
 21
1325.494460905118
 31
0.0
  0
LINE
  5
18CA3
330
18C7A
100
AcDbEntity
  8
細線
100
AcDbLine
 10
1735.639047453926
 20
1325.494460905098
 30
0.0
 11
1670.302124035454
 21
1325.494460905087
 31
0.0
  0
LINE
  5
18CA4
330
18C7A
100
AcDbEntity
  8
細線
100
AcDbLine
 10
1737.970593930113
 20
1320.494443351419
 30
0.0
 11
1735.639047453926
 21
1325.494460905098
 31
0.0
  0
LINE
  5
18CA5
330
18C7A
100
AcDbEntity
  8
細線
100
AcDbLine
 10
1667.970585744697
 20
1320.494460905131
 30
0.0
 11
1670.302124035465
 21
1325.494460905116
 31
0.0
  0
LINE
  5
18CA6
330
18C7A
100
AcDbEntity
  8
細線
100
AcDbLine
 10
1527.970593930113
 20
1320.494460905133
 30
0.0
 11
1530.302132220881
 21
1325.494460905118
 31
0.0
  0
LINE
  5
18CA7
330
18C7A
100
AcDbEntity
  8
細線
100
AcDbLine
 10
1597.970602115529
 20
1320.494443351421
 30
0.0
 11
1595.639055639342
 21
1325.4944609051
 31
0.0
  0
LINE
  5
18CA8
330
18C7A
100
AcDbEntity
  8
細線
100
AcDbLine
 10
1595.639055639342
 20
1325.4944609051
 30
0.0
 11
1530.302132220869
 21
1325.494460905089
 31
0.0
  0
ARC
  5
18CA9
330
18C7A
100
AcDbEntity
  8
部品1
 48
0.01
100
AcDbCircle
 10
1483.470482677778
 20
1319.493338720063
 30
0.0
 40
0.5
100
AcDbArc
 50
270.0
 51
0.0
  0
LINE
  5
18CAA
330
18C7A
100
AcDbEntity
  8
部品1
 48
0.01
100
AcDbLine
 10
1483.970482677778
 20
1320.493338720063
 30
0.0
 11
1483.970482677778
 21
1319.493338720063
 31
0.0
  0
LINE
  5
18CAB
330
18C7A
100
AcDbEntity
  8
部品1
 48
0.01
100
AcDbLine
 10
1483.970482677778
 20
1320.493338720063
 30
0.0
 11
1483.970482677778
 21
1319.493338720063
 31
0.0
  0
LINE
  5
18CAC
330
18C7A
100
AcDbEntity
  8
部品1
 48
0.01
100
AcDbLine
 10
1483.470482677778
 20
1318.993338720063
 30
0.0
 11
1476.857977247713
 21
1318.993338720062
 31
0.0
  0
ARC
  5
18CAD
330
18C7A
100
AcDbEntity
  8
部品1
100
AcDbCircle
 10
1476.926326800494
 20
1319.993338720062
 30
0.0
 40
1.0
100
AcDbArc
 50
160.5287793655865
 51
270.0
  0
ARC
  5
18CAE
330
18C7A
100
AcDbEntity
  8
部品1
100
AcDbCircle
 10
1451.470482677778
 20
1328.993338720062
 30
0.0
 40
26.0
100
AcDbArc
 50
340.5287793655865
 51
0.0
  0
LINE
  5
18CAF
330
18C7A
100
AcDbEntity
  8
部品1
100
AcDbLine
 10
1477.470482677778
 20
1328.993338720062
 30
0.0
 11
1477.470482677778
 21
1333.993338720061
 31
0.0
  0
ARC
  5
18CB0
330
18C7A
100
AcDbEntity
  8
部品1
 48
0.01
100
AcDbCircle
 10
1475.470482677778
 20
1333.993338720061
 30
0.0
 40
2.0
100
AcDbArc
 50
0.0
 51
90.0
  0
ARC
  5
18CB1
330
18C7A
100
AcDbEntity
  8
部品1
100
AcDbCircle
 10
1473.862091052968
 20
1332.993338720062
 30
0.0
 40
3.0
100
AcDbArc
 50
90.0
 51
141.6069559808035
  0
LINE
  5
18CB2
330
18C7A
100
AcDbEntity
  8
部品1
 48
0.01
100
AcDbLine
 10
1475.470482677778
 20
1335.993338720062
 30
0.0
 11
1473.862091052968
 21
1335.993338720062
 31
0.0
  0
ARC
  5
18CB3
330
18C7A
100
AcDbEntity
  8
部品1
100
AcDbCircle
 10
1455.399768463507
 20
1332.293338720065
 30
0.0
 40
3.0
100
AcDbArc
 50
254.0576313943215
 51
270.0
  0
ARC
  5
18CB4
330
18C7A
100
AcDbEntity
  8
部品1
100
AcDbCircle
 10
1462.541196892049
 20
1332.293338720065
 30
0.0
 40
3.0
100
AcDbArc
 50
270.0
 51
285.9423686056786
  0
LINE
  5
18CB5
330
18C7A
100
AcDbEntity
  8
部品1
100
AcDbLine
 10
1462.541196892049
 20
1329.293338720064
 30
0.0
 11
1455.399768463507
 21
1329.293338720064
 31
0.0
  0
ARC
  5
18CB6
330
18C7A
100
AcDbEntity
  8
部品1
100
AcDbCircle
 10
1458.970482677778
 20
1344.793338720065
 30
0.0
 40
16.0
100
AcDbArc
 50
285.9423686056786
 51
321.6069559808035
  0
LINE
  5
18CB7
330
18C7A
100
AcDbEntity
  8
部品1
 48
0.01
100
AcDbLine
 10
1442.470482677778
 20
1335.993338720062
 30
0.0
 11
1444.078874302588
 21
1335.993338720062
 31
0.0
  0
ARC
  5
18CB8
330
18C7A
100
AcDbEntity
  8
部品1
100
AcDbCircle
 10
1444.078874302588
 20
1332.993338720062
 30
0.0
 40
3.0
100
AcDbArc
 50
38.39304401919648
 51
90.0
  0
ARC
  5
18CB9
330
18C7A
100
AcDbEntity
  8
部品1
100
AcDbCircle
 10
1458.970482677778
 20
1344.793338720065
 30
0.0
 40
16.0
100
AcDbArc
 50
218.3930440191965
 51
254.0576313943215
  0
LINE
  5
18CBA
330
18C7A
100
AcDbEntity
  8
部品1
100
AcDbLine
 10
1440.470482677778
 20
1328.993338720062
 30
0.0
 11
1440.470482677778
 21
1333.993338720061
 31
0.0
  0
ARC
  5
18CBB
330
18C7A
100
AcDbEntity
  8
部品1
 48
0.01
100
AcDbCircle
 10
1442.470482677778
 20
1333.993338720061
 30
0.0
 40
2.0
100
AcDbArc
 50
90.0
 51
180.0
  0
ARC
  5
18CBC
330
18C7A
100
AcDbEntity
  8
部品1
100
AcDbCircle
 10
1466.470482677778
 20
1328.993338720062
 30
0.0
 40
26.0
100
AcDbArc
 50
180.0
 51
199.4712206344134
  0
ARC
  5
18CBD
330
18C7A
100
AcDbEntity
  8
部品1
 48
0.01
100
AcDbCircle
 10
1434.470482677778
 20
1319.493338720063
 30
0.0
 40
0.5
100
AcDbArc
 50
180.0
 51
270.0
  0
LINE
  5
18CBE
330
18C7A
100
AcDbEntity
  8
部品1
 48
0.01
100
AcDbLine
 10
1434.470482677778
 20
1318.993338720063
 30
0.0
 11
1441.014638555061
 21
1318.993338720062
 31
0.0
  0
LINE
  5
18CBF
330
18C7A
100
AcDbEntity
  8
部品1
 48
0.01
100
AcDbLine
 10
1433.970482677778
 20
1320.493338720063
 30
0.0
 11
1433.970482677778
 21
1319.493338720063
 31
0.0
  0
ARC
  5
18CC0
330
18C7A
100
AcDbEntity
  8
部品1
100
AcDbCircle
 10
1441.014638555061
 20
1319.993338720062
 30
0.0
 40
1.0
100
AcDbArc
 50
270.0
 51
19.47122063441346
  0
LINE
  5
18CC1
330
18C7A
100
AcDbEntity
  8
細線
100
AcDbLine
 10
1479.470482677785
 20
1338.493338720065
 30
0.0
 11
1438.470482677785
 21
1338.493338720058
 31
0.0
  0
LINE
  5
18CC2
330
18C7A
100
AcDbEntity
  8
細線
100
AcDbLine
 10
1438.470482677785
 20
1338.493338720058
 30
0.0
 11
1438.470482677785
 21
1320.49333872004
 31
0.0
  0
LINE
  5
18CC3
330
18C7A
100
AcDbEntity
  8
細線
100
AcDbLine
 10
1479.470482677785
 20
1338.493338720065
 30
0.0
 11
1479.470482677785
 21
1320.49333872004
 31
0.0
  0
LINE
  5
18CC4
330
18C7A
100
AcDbEntity
  8
細線
100
AcDbLine
 10
1322.970589276523
 20
1324.494269174465
 30
0.0
 11
1322.970589276523
 21
1320.494269174513
 31
0.0
  0
LINE
  5
18CC5
330
18C7A
100
AcDbEntity
  8
寸法
 48
50.0
100
AcDbLine
 10
1746.17359555837
 20
1170.531020743327
 30
0.0
 11
1694.767587648266
 21
1170.531020743327
 31
0.0
  0
LINE
  5
18CC6
330
18C7A
100
AcDbEntity
  8
寸法
 48
50.0
100
AcDbLine
 10
1694.767587648266
 20
1170.531020743327
 30
0.0
 11
1694.767587648266
 21
1201.841179395494
 31
0.0
  0
LINE
  5
18CC7
330
18C7A
100
AcDbEntity
  8
寸法
 48
50.0
100
AcDbLine
 10
1694.767587648266
 20
1201.841179395494
 30
0.0
 11
1665.006255656843
 21
1201.841179395494
 31
0.0
  0
LINE
  5
18CC8
330
18C7A
100
AcDbEntity
  8
寸法
 48
50.0
100
AcDbLine
 10
1665.006255656843
 20
1201.841179395494
 30
0.0
 11
1720.470591603318
 21
1239.420630324105
 31
0.0
  0
LINE
  5
18CC9
330
18C7A
100
AcDbEntity
  8
寸法
 48
50.0
100
AcDbLine
 10
1775.934927549793
 20
1201.841179395494
 30
0.0
 11
1720.470591603318
 21
1239.420630324105
 31
0.0
  0
LINE
  5
18CCA
330
18C7A
100
AcDbEntity
  8
寸法
 48
50.0
100
AcDbLine
 10
1746.17359555837
 20
1201.841179395494
 30
0.0
 11
1775.934927549793
 21
1201.841179395494
 31
0.0
  0
LINE
  5
18CCB
330
18C7A
100
AcDbEntity
  8
寸法
 48
50.0
100
AcDbLine
 10
1746.17359555837
 20
1170.531020743327
 30
0.0
 11
1746.17359555837
 21
1201.841179395494
 31
0.0
  0
LINE
  5
18CCC
330
18C7A
100
AcDbEntity
  8
寸法
 48
50.0
100
AcDbLine
 10
1694.767587648266
 20
1170.531020743327
 30
0.0
 11
1746.17359555837
 21
1170.531020743327
 31
0.0
  0
LINE
  5
18CCD
330
18C7A
100
AcDbEntity
  8
寸法
 48
50.0
100
AcDbLine
 10
2025.339129835225
 20
1227.676611498152
 30
0.0
 11
2025.339129835225
 21
1174.01297691636
 31
0.0
  0
LINE
  5
18CCE
330
18C7A
100
AcDbEntity
  8
寸法
 48
50.0
100
AcDbLine
 10
2114.623348430647
 20
1203.752977228664
 30
0.0
 11
2025.339129835225
 21
1227.676611498152
 31
0.0
  0
LINE
  5
18CCF
330
18C7A
100
AcDbEntity
  8
寸法
 48
50.0
100
AcDbLine
 10
1895.471408254923
 20
1203.752977228664
 30
0.0
 11
2114.623348430647
 21
1203.752977228664
 31
0.0
  0
DIMENSION
  5
18CD0
330
18C7A
100
AcDbEntity
  8
寸法
 48
50.0
100
AcDbDimension
  2
*D15
 10
2588.970589276523
 20
706.3240511224249
 30
0.0
 11
1969.060022905491
 21
706.3240511224249
 31
0.0
 12
-3742.925985830444
 22
-6453.628869860112
 32
0.0
 70
   128
  1
有効開口部間口\P<>
 71
     5
 42
1266.0
  3
INABA_S40G
100
AcDbAlignedDimension
 13
1322.970589276523
 23
1315.494269174465
 33
0.0
 14
2588.970589276523
 24
1315.494269174465
 34
0.0
100
AcDbRotatedDimension
1001
ACAD
1000
DSTYLE
1002
{
1070
   341
1005
0
1002
}
  0
LINE
  5
18CD1
330
18C7A
100
AcDbEntity
  8
部品1
100
AcDbLine
 10
3409.970589276524
 20
1392.494269174465
 30
0.0
 11
3437.970589276523
 21
1392.494269174465
 31
0.0
  0
DIMENSION
  5
18CD2
330
18C7A
100
AcDbEntity
  8
寸法
100
AcDbDimension
  2
*D16
 10
3674.266172669749
 20
1315.494269174465
 30
0.0
 11
3674.266172669748
 21
1177.494269174462
 31
0.0
 12
-3742.925985830444
 22
-6453.628869860112
 32
0.0
 70
   128
 71
     5
 42
77.0
  3
INABA_S40
100
AcDbAlignedDimension
 13
3437.970589276523
 23
1392.494269174465
 33
0.0
 14
3436.970589276523
 24
1315.494269174465
 34
0.0
 50
90.0
100
AcDbRotatedDimension
1001
ACAD
1000
DSTYLE
1002
{
1070
    41
1040
0.5
1070
    44
1040
1.0
1070
   147
1040
0.8
1070
   271
1070
     2
1070
   272
1070
     2
1070
   289
1070
     3
1070
   340
1005
F706
1070
   343
1005
164B4
1070
   344
1005
164B4
1002
}
  0
LINE
  5
18CD3
330
18C7A
100
AcDbEntity
  8
部品1
100
AcDbLine
 10
3437.970589276523
 20
1315.494269174465
 30
0.0
 11
3437.970589276523
 21
1392.494269174465
 31
0.0
  0
LINE
  5
18CD4
330
18C7A
100
AcDbEntity
  8
部品1
100
AcDbLine
 10
3398.970589276523
 20
1388.494269174465
 30
0.0
 11
3409.970589276524
 21
1388.494269174465
 31
0.0
  0
LINE
  5
18CD5
330
18C7A
100
AcDbEntity
  8
部品1
100
AcDbLine
 10
3407.970589276523
 20
1324.494269174465
 30
0.0
 11
3407.970589276523
 21
1315.494269174465
 31
0.0
  0
LINE
  5
18CD6
330
18C7A
100
AcDbEntity
  8
部品1
100
AcDbLine
 10
3398.970589276523
 20
1324.494269174465
 30
0.0
 11
3407.970589276523
 21
1324.494269174465
 31
0.0
  0
LINE
  5
18CD7
330
18C7A
100
AcDbEntity
  8
部品1
100
AcDbLine
 10
3398.970589276523
 20
1388.494269174465
 30
0.0
 11
3398.970589276523
 21
1324.494269174465
 31
0.0
  0
LINE
  5
18CD8
330
18C7A
100
AcDbEntity
  8
部品1
100
AcDbLine
 10
3409.970589276524
 20
1419.494269174465
 30
0.0
 11
3409.970589276524
 21
1388.494269174465
 31
0.0
  0
LINE
  5
18CD9
330
18C7A
100
AcDbEntity
  8
部品1
100
AcDbLine
 10
1322.970589276523
 20
1388.494269174465
 30
0.0
 11
1311.970589276523
 21
1388.494269174465
 31
0.0
  0
LINE
  5
18CDA
330
18C7A
100
AcDbEntity
  8
部品1
100
AcDbLine
 10
1283.970589276523
 20
1392.494269174465
 30
0.0
 11
1311.970589276523
 21
1392.494269174465
 31
0.0
  0
LINE
  5
18CDB
330
18C7A
100
AcDbEntity
  8
部品1
100
AcDbLine
 10
1313.970589276523
 20
1324.494269174465
 30
0.0
 11
1313.970589276523
 21
1315.494269174465
 31
0.0
  0
LINE
  5
18CDC
330
18C7A
100
AcDbEntity
  8
部品1
100
AcDbLine
 10
1322.970589276523
 20
1324.494269174465
 30
0.0
 11
1313.970589276523
 21
1324.494269174465
 31
0.0
  0
LINE
  5
18CDD
330
18C7A
100
AcDbEntity
  8
部品1
100
AcDbLine
 10
1313.970589276523
 20
1315.494269174465
 30
0.0
 11
1283.970589276523
 21
1315.494269174465
 31
0.0
  0
LINE
  5
18CDE
330
18C7A
100
AcDbEntity
  8
部品1
100
AcDbLine
 10
1283.970589276523
 20
1315.494269174465
 30
0.0
 11
1283.970589276523
 21
1392.494269174465
 31
0.0
  0
LINE
  5
18CDF
330
18C7A
100
AcDbEntity
  8
部品1
100
AcDbLine
 10
1322.970589276523
 20
1388.494269174465
 30
0.0
 11
1322.970589276523
 21
1324.494269174465
 31
0.0
  0
LINE
  5
18CE0
330
18C7A
100
AcDbEntity
  8
部品1
100
AcDbLine
 10
1311.970589276523
 20
1419.494269174462
 30
0.0
 11
1311.970589276523
 21
1388.494269174465
 31
0.0
  0
LINE
  5
18CE1
330
18C7A
100
AcDbEntity
  8
部品1
100
AcDbLine
 10
1311.970589276523
 20
1419.494269174462
 30
0.0
 11
3409.970589276524
 21
1419.494269174465
 31
0.0
  0
LINE
  5
18CE2
330
18C7A
100
AcDbEntity
  8
部品1
100
AcDbLine
 10
3407.970589276523
 20
1315.494269174465
 30
0.0
 11
3437.970589276523
 21
1315.494269174465
 31
0.0
  0
LINE
  5
18CE3
330
18C7A
100
AcDbEntity
  8
部品1
100
AcDbLine
 10
1313.970589276523
 20
1315.494269174465
 30
0.0
 11
3410.970589276523
 21
1315.494269174465
 31
0.0
  0
LINE
  5
18CE4
330
18C7A
100
AcDbEntity
  8
細線
  6
Continuous
 62
     5
100
AcDbLine
 10
2689.970589276527
 20
1354.494269174462
 30
0.0
 11
2689.970589276527
 21
1354.494269174462
 31
0.0
  0
LINE
  5
18CE5
330
18C7A
100
AcDbEntity
  8
細線
  6
Continuous
 62
     5
100
AcDbLine
 10
2682.470589276527
 20
1354.494269174462
 30
0.0
 11
2682.470589276527
 21
1354.494269174462
 31
0.0
  0
LINE
  5
18CE6
330
18C7A
100
AcDbEntity
  8
細線
  6
Continuous
 62
     5
100
AcDbLine
 10
2676.470589276527
 20
1354.494269174462
 30
0.0
 11
2676.470589276527
 21
1354.494269174462
 31
0.0
  0
LINE
  5
18CE7
330
18C7A
100
AcDbEntity
  8
細線
  6
Continuous
 62
     5
100
AcDbLine
 10
2743.970589276527
 20
1373.494269174462
 30
0.0
 11
2743.970589276527
 21
1373.494269174462
 31
0.0
  0
LINE
  5
18CE8
330
18C7A
100
AcDbEntity
  8
細線
 48
50.0
100
AcDbLine
 10
1336.970593930116
 20
1341.094443351418
 30
0.0
 11
1336.970593930113
 21
1349.490593759059
 31
0.0
  0
LINE
  5
18CE9
330
18C7A
100
AcDbEntity
  8
細線
 48
50.0
100
AcDbLine
 10
1336.970593930113
 20
1349.490593759059
 30
0.0
 11
1322.970589276523
 21
1349.490593759057
 31
0.0
  0
LINE
  5
18CEA
330
18C7A
100
AcDbEntity
  8
細線
 48
50.0
100
AcDbLine
 10
2087.970593930113
 20
1337.644443351419
 30
0.0
 11
2087.970593930113
 21
1342.494443351421
 31
0.0
  0
LINE
  5
18CEB
330
18C7A
100
AcDbEntity
  8
細線
 48
50.0
100
AcDbLine
 10
2087.970593930113
 20
1342.494443351421
 30
0.0
 11
2102.970593930113
 21
1342.494443351421
 31
0.0
  0
LINE
  5
18CEC
330
18C7A
100
AcDbEntity
  8
細線
 48
50.0
100
AcDbLine
 10
2102.970593930113
 20
1342.494443351421
 30
0.0
 11
2102.970593930115
 21
1349.494443351419
 31
0.0
  0
LINE
  5
18CED
330
18C7A
100
AcDbEntity
  8
細線
 48
50.0
100
AcDbLine
 10
2102.970593930115
 20
1349.494443351419
 30
0.0
 11
2117.970593930113
 21
1349.494443351419
 31
0.0
  0
LINE
  5
18CEE
330
18C7A
100
AcDbEntity
  8
細線
 48
50.0
100
AcDbLine
 10
2117.970593930113
 20
1349.494443351419
 30
0.0
 11
2117.970593930113
 21
1320.494443351421
 31
0.0
  0
LINE
  5
18CEF
330
18C7A
100
AcDbEntity
  8
細線
 48
50.0
100
AcDbLine
 10
1313.970589276523
 20
1320.491777694889
 30
0.0
 11
1527.970593930113
 21
1320.494460905133
 31
0.0
  0
LINE
  5
18CF0
330
18C7A
100
AcDbEntity
  8
細線
 48
50.0
100
AcDbLine
 10
2017.970593930113
 20
1320.494443351421
 30
0.0
 11
2117.970593930113
 21
1320.494443351421
 31
0.0
  0
LINE
  5
18CF1
330
18C7A
100
AcDbEntity
  8
細線
 48
50.0
100
AcDbLine
 10
1737.970593930113
 20
1320.494443351419
 30
0.0
 11
1807.970593930113
 21
1320.494443351423
 31
0.0
  0
LINE
  5
18CF2
330
18C7A
100
AcDbEntity
  8
細線
 48
50.0
100
AcDbLine
 10
1750.832558942642
 20
1320.494443351419
 30
0.0
 11
1756.588076525309
 21
1338.765294641913
 31
0.0
  0
LINE
  5
18CF3
330
18C7A
100
AcDbEntity
  8
細線
 48
50.0
100
AcDbLine
 10
1756.588076525309
 20
1338.765294641913
 30
0.0
 11
1767.516525005743
 21
1338.765294641911
 31
0.0
  0
ARC
  5
18CF4
330
18C7A
100
AcDbEntity
  8
細線
 48
50.0
100
AcDbCircle
 10
1767.516525005743
 20
1337.765294641911
 30
0.0
 40
1.0
100
AcDbArc
 50
24.62431835207225
 51
90.0
  0
ARC
  5
18CF5
330
18C7A
100
AcDbEntity
  8
細線
 48
50.0
100
AcDbCircle
 10
1778.425237120377
 20
1337.765294641911
 30
0.0
 40
1.0
100
AcDbArc
 50
90.0
 51
155.3756816479277
  0
ARC
  5
18CF6
330
18C7A
100
AcDbEntity
  8
細線
 48
50.0
100
AcDbCircle
 10
1772.970881063058
 20
1340.265294641911
 30
0.0
 40
5.0
100
AcDbArc
 50
204.6243183520723
 51
335.3756816479278
  0
LINE
  5
18CF7
330
18C7A
100
AcDbEntity
  8
細線
 48
50.0
100
AcDbLine
 10
1778.425237120377
 20
1338.765294641911
 30
0.0
 11
1789.35368560081
 21
1338.765294641913
 31
0.0
  0
LINE
  5
18CF8
330
18C7A
100
AcDbEntity
  8
細線
 48
50.0
100
AcDbLine
 10
1789.35368560081
 20
1338.765294641913
 30
0.0
 11
1795.109203183478
 21
1320.494443351423
 31
0.0
  0
LINE
  5
18CF9
330
18C7A
100
AcDbEntity
  8
細線
 48
50.0
100
AcDbLine
 10
2087.970593930113
 20
1341.094443351419
 30
0.0
 11
1336.970593930116
 21
1341.094443351418
 31
0.0
  0
LINE
  5
18CFA
330
18C7A
100
AcDbEntity
  8
細線
 48
50.0
100
AcDbLine
 10
1947.970593930113
 20
1320.494443351421
 30
0.0
 11
1877.970593930113
 21
1320.494443351421
 31
0.0
  0
LINE
  5
18CFB
330
18C7A
100
AcDbEntity
  8
細線
100
AcDbLine
 10
1667.970593930113
 20
1320.494443351421
 30
0.0
 11
1597.970602115529
 21
1320.494443351421
 31
0.0
  0
LINE
  5
18CFC
330
18C7A
100
AcDbEntity
  8
細線
 48
50.0
100
AcDbLine
 10
2741.970584622936
 20
1375.094487209288
 30
0.0
 11
2106.970593930113
 21
1375.094487209284
 31
0.0
  0
LINE
  5
18CFD
330
18C7A
100
AcDbEntity
  8
細線
 48
50.0
100
AcDbLine
 10
2106.970593930113
 20
1371.990637616925
 30
0.0
 11
2106.970593930113
 21
1376.490637616925
 31
0.0
  0
LINE
  5
18CFE
330
18C7A
100
AcDbEntity
  8
細線
 48
50.0
100
AcDbLine
 10
2106.970593930113
 20
1376.490637616925
 30
0.0
 11
2091.970593930113
 21
1376.490637616925
 31
0.0
  0
LINE
  5
18CFF
330
18C7A
100
AcDbEntity
  8
細線
 48
50.0
100
AcDbLine
 10
2091.970593930113
 20
1376.490637616925
 30
0.0
 11
2091.970593930113
 21
1383.490637616927
 31
0.0
  0
LINE
  5
18D00
330
18C7A
100
AcDbEntity
  8
細線
 48
50.0
100
AcDbLine
 10
2091.970593930113
 20
1383.490637616927
 30
0.0
 11
2076.970593930115
 21
1383.490637616924
 31
0.0
  0
LINE
  5
18D01
330
18C7A
100
AcDbEntity
  8
細線
 48
50.0
100
AcDbLine
 10
2076.970593930115
 20
1383.490637616924
 30
0.0
 11
2076.970593930115
 21
1345.890409513813
 31
0.0
  0
LINE
  5
18D02
330
18C7A
100
AcDbEntity
  8
細線
 48
50.0
100
AcDbLine
 10
2076.970593930115
 20
1345.890409513813
 30
0.0
 11
2096.970601231289
 21
1345.890451063353
 31
0.0
  0
LINE
  5
18D03
330
18C7A
100
AcDbEntity
  8
細線
 48
50.0
100
AcDbLine
 10
2096.970556362348
 20
1354.493912699161
 30
0.0
 11
2096.970601231289
 21
1345.890451063353
 31
0.0
  0
LINE
  5
18D04
330
18C7A
100
AcDbEntity
  8
細線
 48
50.0
100
AcDbLine
 10
2741.970584622936
 20
1371.644487209287
 30
0.0
 11
2741.970584622936
 21
1376.494487209284
 31
0.0
  0
LINE
  5
18D05
330
18C7A
100
AcDbEntity
  8
細線
 48
50.0
100
AcDbLine
 10
2741.970584622936
 20
1376.494487209284
 30
0.0
 11
2756.970584622934
 21
1376.494487209285
 31
0.0
  0
LINE
  5
18D06
330
18C7A
100
AcDbEntity
  8
細線
 48
50.0
100
AcDbLine
 10
2756.970584622934
 20
1376.494487209285
 30
0.0
 11
2756.970596256909
 21
1383.494487209331
 31
0.0
  0
LINE
  5
18D07
330
18C7A
100
AcDbEntity
  8
細線
 48
50.0
100
AcDbLine
 10
2756.970596256909
 20
1383.494487209331
 30
0.0
 11
2771.970594427439
 21
1383.494487209329
 31
0.0
  0
LINE
  5
18D08
330
18C7A
100
AcDbEntity
  8
細線
 48
50.0
100
AcDbLine
 10
2771.970594427439
 20
1383.494487209329
 30
0.0
 11
2771.970584125617
 21
1354.494281037055
 31
0.0
  0
LINE
  5
18D09
330
18C7A
100
AcDbEntity
  8
細線
 48
50.0
100
AcDbLine
 10
2458.070304175992
 20
1354.494278397076
 30
0.0
 11
2389.470863838818
 21
1354.494283787084
 31
0.0
  0
LINE
  5
18D0A
330
18C7A
100
AcDbEntity
  8
細線
 48
50.0
100
AcDbLine
 10
2096.970556362348
 20
1354.493912699161
 30
0.0
 11
2108.203245717057
 21
1354.494095652309
 31
0.0
  0
ARC
  5
18D0B
330
18C7A
100
AcDbEntity
  8
細線
 48
50.0
100
AcDbCircle
 10
2114.785538024393
 20
1353.294259565922
 30
0.0
 40
1.8
100
AcDbArc
 50
270.0006665777295
 51
345.000555481349
  0
LINE
  5
18D0C
330
18C7A
100
AcDbEntity
  8
細線
 48
50.0
100
AcDbLine
 10
2116.771971470473
 20
1353.753100023201
 30
0.0
 11
2116.524209028273
 21
1352.828402141094
 31
0.0
  0
LINE
  5
18D0D
330
18C7A
100
AcDbEntity
  8
細線
 48
50.0
100
AcDbLine
 10
2114.785558965548
 20
1351.494259566043
 30
0.0
 11
2111.155631546781
 21
1351.494217335563
 31
0.0
  0
ARC
  5
18D0E
330
18C7A
100
AcDbEntity
  8
細線
 48
50.0
100
AcDbCircle
 10
2111.155610605627
 20
1353.29421733544
 30
0.0
 40
1.8
100
AcDbArc
 50
195.0010443049965
 51
270.0006665777295
  0
LINE
  5
18D0F
330
18C7A
100
AcDbEntity
  8
細線
 48
50.0
100
AcDbLine
 10
2109.169183113368
 20
1353.752932303007
 30
0.0
 11
2109.416952609882
 21
1352.828311364425
 31
0.0
  0
ARC
  5
18D10
330
18C7A
100
AcDbEntity
  8
細線
 48
50.0
100
AcDbCircle
 10
2108.203262004622
 20
1353.494095652444
 30
0.0
 40
1.0
100
AcDbArc
 50
15.00104430499651
 51
90.00093320877969
  0
LINE
  5
18D11
330
18C7A
100
AcDbEntity
  8
細線
 48
50.0
100
AcDbLine
 10
2117.737892825577
 20
1354.494290342714
 30
0.0
 11
2118.679652976481
 21
1354.494296916564
 31
0.0
  0
ARC
  5
18D12
330
18C7A
100
AcDbEntity
  8
細線
 48
50.0
100
AcDbCircle
 10
2117.737899805961
 20
1353.49429034274
 30
0.0
 40
1.0
100
AcDbArc
 50
90.0003999466794
 51
165.000555481349
  0
LINE
  5
18D13
330
18C7A
100
AcDbEntity
  8
細線
 48
50.0
100
AcDbLine
 10
2669.470584622926
 20
1354.494281037055
 30
0.0
 11
2771.970584125617
 21
1354.494281037055
 31
0.0
  0
LINE
  5
18D14
330
18C7A
100
AcDbEntity
  8
細線
 48
50.0
100
AcDbLine
 10
2179.47061994182
 20
1354.494289224422
 30
0.0
 11
2118.370558714898
 21
1354.494296916564
 31
0.0
  0
LINE
  5
18D15
330
18C7A
100
AcDbEntity
  8
細線
 48
50.0
100
AcDbLine
 10
2599.470584622926
 20
1354.494281037057
 30
0.0
 11
2529.470584622926
 21
1354.494281037055
 31
0.0
  0
LINE
  5
18D16
330
18C7A
100
AcDbEntity
  8
細線
 48
50.0
100
AcDbLine
 10
2319.470584622926
 20
1354.494281037054
 30
0.0
 11
2249.470567335051
 21
1354.494281037057
 31
0.0
  0
ARC
  5
18D17
330
18C7A
100
AcDbEntity
  8
細線
 48
50.0
100
AcDbCircle
 10
2756.170589276533
 20
1387.694269174466
 30
0.0
 40
0.8
100
AcDbArc
 50
359.9997333689499
 51
89.99986668437072
  0
ARC
  5
18D18
330
18C7A
100
AcDbEntity
  8
細線
 48
50.0
100
AcDbCircle
 10
2763.770596101631
 20
1387.694280343081
 30
0.0
 40
0.8
100
AcDbArc
 50
90.00014387753465
 51
179.9997333689498
  0
LINE
  5
18D19
330
18C7A
100
AcDbEntity
  8
細線
 48
50.0
100
AcDbLine
 10
2756.170591137969
 20
1388.494269174465
 30
0.0
 11
2750.970589276525
 21
1388.494269174465
 31
0.0
  0
ARC
  5
18D1A
330
18C7A
100
AcDbEntity
  8
細線
 48
50.0
100
AcDbCircle
 10
2757.670589276524
 20
1386.194269174464
 30
0.0
 40
0.7
100
AcDbArc
 50
180.0
 51
270.0
  0
ARC
  5
18D1B
330
18C7A
100
AcDbEntity
  8
細線
 48
50.0
100
AcDbCircle
 10
2762.270589276524
 20
1386.194269174464
 30
0.0
 40
0.7
100
AcDbArc
 50
270.0
 51
0.0
  0
LINE
  5
18D1C
330
18C7A
100
AcDbEntity
  8
細線
 48
50.0
100
AcDbLine
 10
2762.970589276525
 20
1386.194269174464
 30
0.0
 11
2762.970596101639
 21
1387.694284065954
 31
0.0
  0
LINE
  5
18D1D
330
18C7A
100
AcDbEntity
  8
細線
 48
50.0
100
AcDbLine
 10
2757.670589276524
 20
1385.494269174465
 30
0.0
 11
2762.270589276524
 21
1385.494269174465
 31
0.0
  0
LINE
  5
18D1E
330
18C7A
100
AcDbEntity
  8
細線
 48
50.0
100
AcDbLine
 10
2756.970589276525
 20
1387.694269174466
 30
0.0
 11
2756.970589276525
 21
1386.194269174464
 31
0.0
  0
LINE
  5
18D1F
330
18C7A
100
AcDbEntity
  8
細線
 48
50.0
100
AcDbLine
 10
3382.570589276527
 20
1418.494269174465
 30
0.0
 11
2745.970589276525
 21
1418.494269174463
 31
0.0
  0
LINE
  5
18D20
330
18C7A
100
AcDbEntity
  8
細線
 48
50.0
100
AcDbLine
 10
3408.470589276525
 20
1413.494269174467
 30
0.0
 11
3392.570589276527
 21
1413.494269174465
 31
0.0
  0
LINE
  5
18D21
330
18C7A
100
AcDbEntity
  8
細線
 48
50.0
100
AcDbLine
 10
3392.570589276526
 20
1413.494269174465
 30
0.0
 11
3382.570589276527
 21
1418.494269174465
 31
0.0
  0
LINE
  5
18D22
330
18C7A
100
AcDbEntity
  8
細線
100
AcDbLine
 10
2993.470589276525
 20
1388.494269174465
 30
0.0
 11
2993.470589276525
 21
1417.794269174464
 31
0.0
  0
LINE
  5
18D23
330
18C7A
100
AcDbEntity
  8
細線
100
AcDbLine
 10
2993.470589276525
 20
1417.794269174464
 30
0.0
 11
3013.470589276525
 21
1417.794269174464
 31
0.0
  0
LINE
  5
18D24
330
18C7A
100
AcDbEntity
  8
細線
100
AcDbLine
 10
3013.470589276525
 20
1388.494269174465
 30
0.0
 11
3013.470589276525
 21
1417.794269174464
 31
0.0
  0
LINE
  5
18D25
330
18C7A
100
AcDbEntity
  8
細線
100
AcDbLine
 10
3170.720589276524
 20
1388.494269174465
 30
0.0
 11
3100.720589276523
 21
1388.494269174465
 31
0.0
  0
LINE
  5
18D26
330
18C7A
100
AcDbEntity
  8
細線
 48
50.0
100
AcDbLine
 10
2890.720589276525
 20
1388.494269174465
 30
0.0
 11
2763.766368849365
 21
1388.494269174465
 31
0.0
  0
LINE
  5
18D27
330
18C7A
100
AcDbEntity
  8
細線
100
AcDbLine
 10
3030.720589276525
 20
1388.494269174465
 30
0.0
 11
2960.720589276525
 21
1388.494269174465
 31
0.0
  0
LINE
  5
18D28
330
18C7A
100
AcDbEntity
  8
細線
 48
50.0
100
AcDbLine
 10
2750.970589276525
 20
1380.494269174465
 30
0.0
 11
2750.970589276525
 21
1388.494269174465
 31
0.0
  0
LINE
  5
18D29
330
18C7A
100
AcDbEntity
  8
細線
 48
50.0
100
AcDbLine
 10
2730.970589276524
 20
1380.494269174467
 30
0.0
 11
2750.970589276525
 21
1380.494269174465
 31
0.0
  0
LINE
  5
18D2A
330
18C7A
100
AcDbEntity
  8
細線
 48
50.0
100
AcDbLine
 10
2745.970589276525
 20
1418.494269174465
 30
0.0
 11
2745.970589276525
 21
1413.494269174465
 31
0.0
  0
LINE
  5
18D2B
330
18C7A
100
AcDbEntity
  8
細線
 48
50.0
100
AcDbLine
 10
2730.970589276525
 20
1418.494269174463
 30
0.0
 11
2745.970589276525
 21
1418.494269174465
 31
0.0
  0
LINE
  5
18D2C
330
18C7A
100
AcDbEntity
  8
細線
 48
50.0
100
AcDbLine
 10
2730.970589276524
 20
1380.494269174467
 30
0.0
 11
2730.970589276525
 21
1418.494269174463
 31
0.0
  0
LINE
  5
18D2D
330
18C7A
100
AcDbEntity
  8
細線
100
AcDbLine
 10
3398.970589276523
 20
1388.494269174465
 30
0.0
 11
3240.720589276525
 21
1388.494269174465
 31
0.0
  0
LINE
  5
18D2E
330
18C7A
100
AcDbEntity
  8
細線
 48
50.0
100
AcDbLine
 10
3408.470589276525
 20
1413.494269174467
 30
0.0
 11
3408.470589276524
 21
1388.494269174465
 31
0.0
  0
TEXT
  5
18D2F
330
18C7A
100
AcDbEntity
  8
部品1
100
AcDbText
 10
1860.154865991392
 20
46.99880823813145
 30
0.0
 40
135.0
  1
平面図
  7
STYLE2
100
AcDbText
  0
LWPOLYLINE
  5
18D30
330
18C7A
100
AcDbEntity
  8
部品1
100
AcDbPolyline
 90
        4
 70
     1
 43
0.0
 10
1770.23525616235
 20
239.8923374566548
 10
1770.23525616235
 20
0.0000159111223184
 10
2533.705922390791
 20
0.0000159111223184
 10
2533.705922390791
 20
239.8923374566548
  0
LINE
  5
18D31
330
18C7A
100
AcDbEntity
  8
部品1
100
AcDbLine
 10
1534.470589276487
 20
3154.494269174626
 30
0.0
 11
2769.470589276552
 21
3154.494269174626
 31
0.0
  0
LINE
  5
18D32
330
18C7A
100
AcDbEntity
  8
部品1
 48
50.0
100
AcDbLine
 10
1311.970589276523
 20
1420.494269174462
 30
0.0
 11
3411.970589276523
 21
1420.494269174465
 31
0.0
  0
LINE
  5
18D33
330
18C7A
100
AcDbEntity
  8
部品1
 48
50.0
100
AcDbLine
 10
471.9705892765232
 20
1392.494269174465
 30
0.0
 11
1311.970589276523
 21
1392.494269174465
 31
0.0
  0
DIMENSION
  5
18D34
330
18C7A
100
AcDbEntity
  8
寸法
100
AcDbDimension
  2
*D14
 10
2710.234916278077
 20
2488.887829538828
 30
0.0
 11
2338.318822490183
 21
2488.887829538828
 31
0.0
 12
-3742.925985830444
 22
-6453.628869860112
 32
0.0
 70
   128
 71
     5
 42
1231.00000000007
  3
INABA_S40G
100
AcDbAlignedDimension
 13
1536.470589276486
 23
2702.494269174557
 33
0.0
 14
2767.470589276556
 24
2702.494269174549
 34
0.0
100
AcDbRotatedDimension
1001
ACAD
1000
DSTYLE
1002
{
1002
}
  0
LINE
  5
18D35
330
18C7A
100
AcDbEntity
  8
部品1
100
AcDbLine
 10
1536.470589276487
 20
2702.494269174557
 30
0.0
 11
2767.470589276554
 21
2702.494269174615
 31
0.0
  0
LINE
  5
18D36
330
18C7A
100
AcDbEntity
  8
部品1
100
AcDbLine
 10
1536.470589276487
 20
3152.494269174557
 30
0.0
 11
2767.470589276556
 21
3152.494269174615
 31
0.0
  0
LINE
  5
18D37
330
18C7A
100
AcDbEntity
  8
細線
 48
50.0
100
AcDbLine
 10
1508.470589276487
 20
3152.494269174558
 30
0.0
 11
445.4705892765559
 21
2702.494269174509
 31
0.0
  0
LINE
  5
18D38
330
18C7A
100
AcDbEntity
  8
細線
 48
50.0
100
AcDbLine
 10
1508.470589276487
 20
2702.494269174558
 30
0.0
 11
445.4705892765542
 21
3152.494269174509
 31
0.0
  0
LINE
  5
18D39
330
18C7A
100
AcDbEntity
  8
部品1
100
AcDbLine
 10
1556.970589276487
 20
3172.494269174611
 30
0.0
 11
1556.970589276487
 21
3154.494269174611
 31
0.0
  0
LINE
  5
18D3A
330
18C7A
100
AcDbEntity
  8
部品1
100
AcDbLine
 10
1556.970589276487
 20
3172.494269174611
 30
0.0
 11
1550.970589276487
 21
3172.494269174611
 31
0.0
  0
LINE
  5
18D3B
330
18C7A
100
AcDbEntity
  8
部品1
100
AcDbLine
 10
1534.470589276487
 20
3146.494269174608
 30
0.0
 11
1509.470589276487
 21
3146.494269174611
 31
0.0
  0
LINE
  5
18D3C
330
18C7A
100
AcDbEntity
  8
部品1
100
AcDbLine
 10
1486.970589276487
 20
3172.494269174611
 30
0.0
 11
1486.970589276487
 21
3154.494269174611
 31
0.0
  0
LINE
  5
18D3D
330
18C7A
100
AcDbEntity
  8
部品1
100
AcDbLine
 10
1492.970589276487
 20
3172.494269174611
 30
0.0
 11
1486.970589276487
 21
3172.494269174611
 31
0.0
  0
LINE
  5
18D3E
330
18C7A
100
AcDbEntity
  8
部品1
100
AcDbLine
 10
1534.470589276487
 20
2702.494269174615
 30
0.0
 11
1509.470589276487
 21
2702.494269174615
 31
0.0
  0
LINE
  5
18D3F
330
18C7A
100
AcDbEntity
  8
部品1
 48
50.0
100
AcDbLine
 10
1536.470589276487
 20
3152.494269174611
 30
0.0
 11
1536.470589276487
 21
2702.494269174615
 31
0.0
  0
LINE
  5
18D40
330
18C7A
100
AcDbEntity
  8
部品1
 48
50.0
100
AcDbLine
 10
1508.470589276487
 20
3152.494269174607
 30
0.0
 11
1508.470589276487
 21
2702.494269174615
 31
0.0
  0
LINE
  5
18D41
330
18C7A
100
AcDbEntity
  8
部品1
 48
50.0
100
AcDbLine
 10
1534.470589276487
 20
3154.494269174618
 30
0.0
 11
1534.470589276487
 21
2702.494269174615
 31
0.0
  0
LINE
  5
18D42
330
18C7A
100
AcDbEntity
  8
部品1
 48
50.0
100
AcDbLine
 10
1509.470589276487
 20
3154.494269174615
 30
0.0
 11
1509.470589276487
 21
2702.494269174615
 31
0.0
  0
LINE
  5
18D43
330
18C7A
100
AcDbEntity
  8
部品1
100
AcDbLine
 10
3411.970589276556
 20
1392.494269174582
 30
0.0
 11
3411.970589276556
 21
1420.494269174596
 31
0.0
  0
LINE
  5
18D44
330
18C7A
100
AcDbEntity
  8
部品1
100
AcDbLine
 10
1311.970589276523
 20
1392.494269174596
 30
0.0
 11
1311.970589276523
 21
1420.494269174596
 31
0.0
  0
LINE
  5
18D45
330
18C7A
100
AcDbEntity
  8
部品1
100
AcDbLine
 10
891.9705892765232
 20
1392.494269174596
 30
0.0
 11
891.9705892765232
 21
1420.494269174596
 31
0.0
  0
LINE
  5
18D46
330
18C7A
100
AcDbEntity
  8
部品1
100
AcDbLine
 10
3411.97058927652
 20
3182.494269174477
 30
0.0
 11
3411.970589276523
 21
3154.494269174477
 31
0.0
  0
LINE
  5
18D47
330
18C7A
100
AcDbEntity
  8
部品1
100
AcDbLine
 10
2571.97058927652
 20
3182.494269174477
 30
0.0
 11
2571.970589276523
 21
3154.494269174477
 31
0.0
  0
LINE
  5
18D48
330
18C7A
100
AcDbEntity
  8
部品1
100
AcDbLine
 10
2991.97058927652
 20
3182.494269174477
 30
0.0
 11
2991.970589276523
 21
3154.494269174477
 31
0.0
  0
LINE
  5
18D49
330
18C7A
100
AcDbEntity
  8
部品1
100
AcDbLine
 10
2151.970589276519
 20
3182.494269174477
 30
0.0
 11
2151.970589276523
 21
3154.494269174477
 31
0.0
  0
LINE
  5
18D4A
330
18C7A
100
AcDbEntity
  8
部品1
100
AcDbLine
 10
1731.970589276519
 20
3182.494269174477
 30
0.0
 11
1731.970589276523
 21
3154.494269174477
 31
0.0
  0
LINE
  5
18D4B
330
18C7A
100
AcDbEntity
  8
部品1
100
AcDbLine
 10
1311.970589276519
 20
3182.494269174477
 30
0.0
 11
1311.970589276523
 21
3154.494269174477
 31
0.0
  0
LINE
  5
18D4C
330
18C7A
100
AcDbEntity
  8
部品1
100
AcDbLine
 10
891.9705892765195
 20
3182.494269174477
 30
0.0
 11
891.9705892765232
 21
3154.494269174477
 31
0.0
  0
LINE
  5
18D4D
330
18C7A
100
AcDbEntity
  8
部品1
100
AcDbLine
 10
471.9705892765232
 20
1392.494269174596
 30
0.0
 11
471.9705892765232
 21
1420.494269174596
 31
0.0
  0
LINE
  5
18D4E
330
18C7A
100
AcDbEntity
  8
部品1
100
AcDbLine
 10
444.9705892765305
 20
1420.494269174558
 30
0.0
 11
3858.970589276556
 21
1420.494269174596
 31
0.0
  0
LINE
  5
18D4F
330
18C7A
100
AcDbEntity
  8
部品1
100
AcDbLine
 10
3831.970589276556
 20
1392.494269174596
 30
0.0
 11
3831.970589276556
 21
1420.494269174596
 31
0.0
  0
LINE
  5
18D50
330
18C7A
100
AcDbEntity
  8
部品1
100
AcDbLine
 10
3858.970589276556
 20
1447.494269174593
 30
0.0
 11
3886.970589276556
 21
1447.494269174593
 31
0.0
  0
LINE
  5
18D51
330
18C7A
100
AcDbEntity
  8
部品1
100
AcDbLine
 10
3858.970589276556
 20
1867.494269174607
 30
0.0
 11
3886.970589276556
 21
1867.494269174607
 31
0.0
  0
LINE
  5
18D52
330
18C7A
100
AcDbEntity
  8
部品1
100
AcDbLine
 10
444.9705892765305
 20
1867.49426917448
 30
0.0
 11
416.9705892765305
 21
1867.49426917448
 31
0.0
  0
LINE
  5
18D53
330
18C7A
100
AcDbEntity
  8
部品1
100
AcDbLine
 10
3830.470589276541
 20
1867.49426917458
 30
0.0
 11
473.4705892765396
 21
1867.49426917448
 31
0.0
  0
LINE
  5
18D54
330
18C7A
100
AcDbEntity
  8
部品1
100
AcDbLine
 10
3830.470589276541
 20
2287.49426917458
 30
0.0
 11
473.4705892765396
 21
2287.49426917448
 31
0.0
  0
LINE
  5
18D55
330
18C7A
100
AcDbEntity
  8
部品1
100
AcDbLine
 10
444.9705892765305
 20
2287.49426917448
 30
0.0
 11
416.9705892765305
 21
2287.49426917448
 31
0.0
  0
LINE
  5
18D56
330
18C7A
100
AcDbEntity
  8
部品1
100
AcDbLine
 10
3858.970589276556
 20
2287.494269174608
 30
0.0
 11
3886.970589276556
 21
2287.494269174608
 31
0.0
  0
LINE
  5
18D57
330
18C7A
100
AcDbEntity
  8
部品1
 48
50.0
100
AcDbLine
 10
2151.970589276551
 20
2702.494269174586
 30
0.0
 11
2151.970589276581
 21
1448.994269174494
 31
0.0
  0
LINE
  5
18D58
330
18C7A
100
AcDbEntity
  8
破線
 48
10.0
100
AcDbLine
 10
2959.470589276535
 20
1472.494269174522
 30
0.0
 11
2176.970589276532
 21
1472.494269174505
 31
0.0
  0
LINE
  5
18D59
330
18C7A
100
AcDbEntity
  8
破線
 48
10.0
100
AcDbLine
 10
3009.47058927653
 20
1448.994269174509
 30
0.0
 11
3009.47058927653
 21
2702.494269174615
 31
0.0
  0
LINE
  5
18D5A
330
18C7A
100
AcDbEntity
  8
破線
 48
10.0
100
AcDbLine
 10
2959.470589276535
 20
1448.994269174505
 30
0.0
 11
2959.470589276531
 21
2702.494269174615
 31
0.0
  0
LINE
  5
18D5B
330
18C7A
100
AcDbEntity
  8
破線
 48
10.0
100
AcDbLine
 10
1344.47058927653
 20
1448.994269174509
 30
0.0
 11
1344.47058927653
 21
2702.494269174615
 31
0.0
  0
LINE
  5
18D5C
330
18C7A
100
AcDbEntity
  8
破線
 48
10.0
100
AcDbLine
 10
1294.470589276534
 20
1448.994269174505
 30
0.0
 11
1294.47058927653
 21
2702.494269174615
 31
0.0
  0
DIMENSION
  5
18D5D
330
18C7A
100
AcDbEntity
  8
寸法
100
AcDbDimension
  2
*D13
 10
1451.234916278005
 20
2488.887829538828
 30
0.0
 11
916.0604668248634
 21
2488.887829538828
 31
0.0
 12
-3742.925985830444
 22
-6453.628869860112
 32
0.0
 70
   128
 71
     5
 42
1062.99999999993
  3
INABA_S40G
100
AcDbAlignedDimension
 13
445.4705892765559
 23
2702.494269174505
 33
0.0
 14
1508.470589276486
 24
2702.494269174558
 34
0.0
100
AcDbRotatedDimension
1001
ACAD
1000
DSTYLE
1002
{
1002
}
  0
LINE
  5
18D5E
330
18C7A
100
AcDbEntity
  8
破線
 48
10.0
100
AcDbLine
 10
1294.470589276534
 20
1472.494269174469
 30
0.0
 11
496.9705892765414
 21
1472.494269174476
 31
0.0
  0
LINE
  5
18D5F
330
18C7A
100
AcDbEntity
  8
部品1
100
AcDbLine
 10
3831.970589276556
 20
3182.494269174604
 30
0.0
 11
3831.970589276556
 21
3154.494269174604
 31
0.0
  0
LINE
  5
18D60
330
18C7A
100
AcDbEntity
  8
部品1
100
AcDbLine
 10
3831.970589276556
 20
3182.494269174626
 30
0.0
 11
3831.970589276556
 21
3154.494269174626
 31
0.0
  0
LINE
  5
18D61
330
18C7A
100
AcDbEntity
  8
部品1
100
AcDbLine
 10
3858.970589276556
 20
3127.494269174607
 30
0.0
 11
3886.970589276556
 21
3127.494269174607
 31
0.0
  0
LINE
  5
18D62
330
18C7A
100
AcDbEntity
  8
部品1
100
AcDbLine
 10
3858.970589276556
 20
2707.494269174608
 30
0.0
 11
3886.970589276556
 21
2707.494269174608
 31
0.0
  0
LINE
  5
18D63
330
18C7A
100
AcDbEntity
  8
部品1
100
AcDbLine
 10
3858.470589276556
 20
3152.494269174604
 30
0.0
 11
3858.470589276556
 21
2702.494269174608
 31
0.0
  0
LINE
  5
18D64
330
18C7A
100
AcDbEntity
  8
部品1
100
AcDbLine
 10
3886.970589276533
 20
1447.494269174593
 30
0.0
 11
3886.970589276531
 21
1392.494269174596
 31
0.0
  0
LINE
  5
18D65
330
18C7A
100
AcDbEntity
  8
部品1
 48
50.0
100
AcDbLine
 10
3830.470589276556
 20
1448.994269174596
 30
0.0
 11
3858.970589276554
 21
1420.494269174596
 31
0.0
  0
LINE
  5
18D66
330
18C7A
100
AcDbEntity
  8
部品1
100
AcDbLine
 10
3886.970589276531
 20
1392.494269174596
 30
0.0
 11
3835.970589276531
 21
1392.494269174596
 31
0.0
  0
LINE
  5
18D67
330
18C7A
100
AcDbEntity
  8
部品1
100
AcDbLine
 10
3858.970589276533
 20
1447.494269174593
 30
0.0
 11
3886.970589276531
 21
1447.494269174593
 31
0.0
  0
LINE
  5
18D68
330
18C7A
100
AcDbEntity
  8
部品1
100
AcDbLine
 10
3886.970589276556
 20
3182.494269174604
 30
0.0
 11
3886.970589276531
 21
1392.494269174596
 31
0.0
  0
DIMENSION
  5
18D69
330
18C7A
100
AcDbEntity
  8
寸法
100
AcDbDimension
  2
*D12
 10
4534.396935010967
 20
1447.494269174593
 30
0.0
 11
4534.396935010965
 21
2287.4942691746
 31
0.0
 12
-3742.925985830444
 22
-6453.628869860112
 32
0.0
 70
   128
  1
4X420=<>
 71
     5
 42
1680.000000000014
  3
INABA_S40G
100
AcDbAlignedDimension
 13
3886.970589276556
 23
3127.494269174607
 33
0.0
 14
3886.970589276531
 24
1447.494269174593
 34
0.0
 50
90.0
100
AcDbRotatedDimension
1001
ACAD
1000
DSTYLE
1002
{
1002
}
  0
LINE
  5
18D6A
330
18C7A
100
AcDbEntity
  8
部品1
100
AcDbLine
 10
3858.970589276556
 20
3154.494269174604
 30
0.0
 11
3858.970589276534
 21
1420.494269174596
 31
0.0
  0
DIMENSION
  5
18D6B
330
18C7A
100
AcDbEntity
  8
寸法
100
AcDbDimension
  2
*D11
 10
4213.82831513858
 20
2607.276453505718
 30
0.0
 11
4113.828315138579
 21
2832.276453505718
 31
0.0
 12
-3742.925985830444
 22
-6453.628869860112
 32
0.0
 71
     5
 42
449.9999999999963
  3
INABA_S40G
100
AcDbAlignedDimension
 13
3858.470589276556
 23
3152.494269174604
 33
0.0
 14
3858.470589276556
 24
2702.494269174608
 34
0.0
 50
90.0
100
AcDbRotatedDimension
1001
ACAD
1000
DSTYLE
1002
{
1002
}
  0
LINE
  5
18D6C
330
18C7A
100
AcDbEntity
  8
部品1
100
AcDbLine
 10
3830.470589276547
 20
2702.494269174608
 30
0.0
 11
3830.470589276556
 21
1448.994269174596
 31
0.0
  0
LINE
  5
18D6D
330
18C7A
100
AcDbEntity
  8
破線
 48
10.0
100
AcDbLine
 10
3806.970589276549
 20
2702.494269174608
 30
0.0
 11
3806.970589276558
 21
1472.494269174593
 31
0.0
  0
LINE
  5
18D6E
330
18C7A
100
AcDbEntity
  8
部品1
100
AcDbLine
 10
2769.470589276556
 20
3146.494269174608
 30
0.0
 11
2794.470589276556
 21
3146.494269174611
 31
0.0
  0
LINE
  5
18D6F
330
18C7A
100
AcDbEntity
  8
部品1
100
AcDbLine
 10
2810.970589276556
 20
3172.494269174611
 30
0.0
 11
2816.970589276556
 21
3172.494269174611
 31
0.0
  0
LINE
  5
18D70
330
18C7A
100
AcDbEntity
  8
部品1
100
AcDbLine
 10
2816.970589276556
 20
3172.494269174611
 30
0.0
 11
2816.970589276556
 21
3154.494269174611
 31
0.0
  0
LINE
  5
18D71
330
18C7A
100
AcDbEntity
  8
部品1
100
AcDbLine
 10
2746.970589276556
 20
3172.494269174611
 30
0.0
 11
2752.970589276556
 21
3172.494269174611
 31
0.0
  0
LINE
  5
18D72
330
18C7A
100
AcDbEntity
  8
部品1
100
AcDbLine
 10
2746.970589276556
 20
3172.494269174611
 30
0.0
 11
2746.970589276556
 21
3154.494269174611
 31
0.0
  0
LINE
  5
18D73
330
18C7A
100
AcDbEntity
  8
部品1
100
AcDbLine
 10
2769.470589276556
 20
2702.494269174615
 30
0.0
 11
2794.470589276556
 21
2702.494269174615
 31
0.0
  0
LINE
  5
18D74
330
18C7A
100
AcDbEntity
  8
部品1
 48
50.0
100
AcDbLine
 10
2794.470589276556
 20
3154.494269174615
 30
0.0
 11
2794.470589276556
 21
2702.494269174615
 31
0.0
  0
LINE
  5
18D75
330
18C7A
100
AcDbEntity
  8
部品1
 48
50.0
100
AcDbLine
 10
2769.470589276554
 20
3154.494269174618
 30
0.0
 11
2769.470589276556
 21
2702.494269174615
 31
0.0
  0
LINE
  5
18D76
330
18C7A
100
AcDbEntity
  8
部品1
 48
50.0
100
AcDbLine
 10
2795.470589276556
 20
3152.494269174607
 30
0.0
 11
2795.470589276556
 21
2702.494269174615
 31
0.0
  0
LINE
  5
18D77
330
18C7A
100
AcDbEntity
  8
部品1
 48
50.0
100
AcDbLine
 10
2767.470589276556
 20
3152.494269174611
 30
0.0
 11
2767.470589276556
 21
2702.494269174615
 31
0.0
  0
LINE
  5
18D78
330
18C7A
100
AcDbEntity
  8
破線
 48
10.0
100
AcDbLine
 10
2176.97058927653
 20
1448.994269174509
 30
0.0
 11
2176.97058927653
 21
2702.494269174588
 31
0.0
  0
LINE
  5
18D79
330
18C7A
100
AcDbEntity
  8
破線
 48
10.0
100
AcDbLine
 10
2126.970589276534
 20
1448.994269174505
 30
0.0
 11
2126.970589276531
 21
2702.494269174586
 31
0.0
  0
LINE
  5
18D7A
330
18C7A
100
AcDbEntity
  8
部品1
100
AcDbLine
 10
2794.470589276556
 20
3154.494269174622
 30
0.0
 11
3858.970589276556
 21
3154.494269174604
 31
0.0
  0
LINE
  5
18D7B
330
18C7A
100
AcDbEntity
  8
細線
 48
50.0
100
AcDbLine
 10
3858.470589276556
 20
2702.494269174608
 30
0.0
 11
2795.470589276556
 21
3152.494269174607
 31
0.0
  0
LINE
  5
18D7C
330
18C7A
100
AcDbEntity
  8
部品1
100
AcDbLine
 10
2795.470589276555
 20
2702.494269174615
 30
0.0
 11
3858.470589276556
 21
2702.494269174608
 31
0.0
  0
LINE
  5
18D7D
330
18C7A
100
AcDbEntity
  8
部品1
100
AcDbLine
 10
2795.470589276556
 20
3152.494269174611
 30
0.0
 11
3858.470589276556
 21
3152.494269174604
 31
0.0
  0
LINE
  5
18D7E
330
18C7A
100
AcDbEntity
  8
細線
 48
50.0
100
AcDbLine
 10
3858.470589276556
 20
3152.494269174604
 30
0.0
 11
2795.470589276555
 21
2702.494269174615
 31
0.0
  0
DIMENSION
  5
18D7F
330
18C7A
100
AcDbEntity
  8
寸法
100
AcDbDimension
  2
*D10
 10
3801.234916278101
 20
2488.887829538937
 30
0.0
 11
3318.360544398907
 21
2488.887829538937
 31
0.0
 12
-3742.925985830444
 22
-6453.628869860112
 32
0.0
 70
   128
 71
     5
 42
1063.000000000012
  3
INABA_S40G
100
AcDbAlignedDimension
 13
2795.470589276555
 23
2702.494269174615
 33
0.0
 14
3858.470589276567
 24
2702.494269174608
 34
0.0
100
AcDbRotatedDimension
1001
ACAD
1000
DSTYLE
1002
{
1002
}
  0
LINE
  5
18D80
330
18C7A
100
AcDbEntity
  8
破線
 48
10.0
100
AcDbLine
 10
3806.970589276556
 20
1472.494269174594
 30
0.0
 11
3009.47058927653
 21
1472.494269174523
 31
0.0
  0
DIMENSION
  5
18D81
330
18C7A
100
AcDbEntity
  8
寸法
100
AcDbDimension
  2
*D9
 10
4534.396935010941
 20
1392.494269174596
 30
0.0
 11
4534.39693501094
 21
1084.008987800356
 31
0.0
 12
-3742.925985830444
 22
-6453.628869860112
 32
0.0
 70
   128
 71
     5
 42
54.99999999999636
  3
INABA_S40G
100
AcDbAlignedDimension
 13
3886.970589276531
 23
1447.494269174593
 33
0.0
 14
3886.970589276531
 24
1392.494269174596
 34
0.0
 50
90.0
100
AcDbRotatedDimension
1001
ACAD
1000
DSTYLE
1002
{
1002
}
  0
LINE
  5
18D82
330
18C7A
100
AcDbEntity
  8
部品1
100
AcDbLine
 10
471.9705892765196
 20
3182.494269174477
 30
0.0
 11
471.9705892765232
 21
3154.494269174477
 31
0.0
  0
LINE
  5
18D83
330
18C7A
100
AcDbEntity
  8
部品1
100
AcDbLine
 10
471.9705892765559
 20
3182.494269174509
 30
0.0
 11
471.9705892765559
 21
3154.494269174509
 31
0.0
  0
LINE
  5
18D84
330
18C7A
100
AcDbEntity
  8
部品1
100
AcDbLine
 10
444.9705892765232
 20
3127.49426917448
 30
0.0
 11
416.9705892765232
 21
3127.49426917448
 31
0.0
  0
LINE
  5
18D85
330
18C7A
100
AcDbEntity
  8
部品1
100
AcDbLine
 10
444.9705892765305
 20
2707.49426917448
 30
0.0
 11
416.9705892765305
 21
2707.49426917448
 31
0.0
  0
LINE
  5
18D86
330
18C7A
100
AcDbEntity
  8
部品1
 48
50.0
100
AcDbLine
 10
445.4705892765542
 20
3152.494269174506
 30
0.0
 11
445.4705892765559
 21
2702.494269174505
 31
0.0
  0
LINE
  5
18D87
330
18C7A
100
AcDbEntity
  8
部品1
 48
50.0
100
AcDbLine
 10
473.470589276545
 20
1448.994269174573
 30
0.0
 11
444.970589276545
 21
1420.494269174574
 31
0.0
  0
LINE
  5
18D88
330
18C7A
100
AcDbEntity
  8
部品1
100
AcDbLine
 10
471.9705892765232
 20
1392.494269174465
 30
0.0
 11
416.9705892765486
 21
1392.494269174465
 31
0.0
  0
LINE
  5
18D89
330
18C7A
100
AcDbEntity
  8
部品1
100
AcDbLine
 10
444.9705892765305
 20
1447.494269174429
 30
0.0
 11
416.9705892765469
 21
1447.494269174429
 31
0.0
  0
LINE
  5
18D8A
330
18C7A
100
AcDbEntity
  8
部品1
100
AcDbLine
 10
444.9705892765305
 20
1447.494269174465
 30
0.0
 11
416.9705892765469
 21
1447.494269174465
 31
0.0
  0
LINE
  5
18D8B
330
18C7A
100
AcDbEntity
  8
部品1
100
AcDbLine
 10
444.9705892765469
 20
1447.49426917448
 30
0.0
 11
416.9705892765469
 21
1447.49426917448
 31
0.0
  0
LINE
  5
18D8C
330
18C7A
100
AcDbEntity
  8
部品1
100
AcDbLine
 10
416.9705892765469
 20
1447.494269174429
 30
0.0
 11
416.9705892765486
 21
1392.494269174433
 31
0.0
  0
LINE
  5
18D8D
330
18C7A
100
AcDbEntity
  8
部品1
100
AcDbLine
 10
416.9705892765196
 20
3182.494269174477
 30
0.0
 11
416.9705892765486
 21
1392.494269174465
 31
0.0
  0
LINE
  5
18D8E
330
18C7A
100
AcDbEntity
  8
部品1
100
AcDbLine
 10
444.9705892765305
 20
1420.494269174556
 30
0.0
 11
444.9705892765559
 21
3154.494269174509
 31
0.0
  0
LINE
  5
18D8F
330
18C7A
100
AcDbEntity
  8
部品1
100
AcDbLine
 10
473.4705892765323
 20
2702.494269174608
 30
0.0
 11
473.470589276545
 21
1448.994269174571
 31
0.0
  0
LINE
  5
18D90
330
18C7A
100
AcDbEntity
  8
破線
 48
10.0
100
AcDbLine
 10
496.9705892765305
 20
2702.494269174608
 30
0.0
 11
496.9705892765451
 21
1472.494269174476
 31
0.0
  0
DIMENSION
  5
18D91
330
18C7A
100
AcDbEntity
  8
寸法
100
AcDbDimension
  2
*D8
 10
3886.970589276531
 20
410.7433333855515
 30
0.0
 11
2168.197775309287
 21
410.7433333855515
 31
0.0
 12
-3742.925985830444
 22
-6453.628869860112
 32
0.0
 70
   128
 71
     5
 42
3469.999999999982
  3
INABA_S40G
100
AcDbAlignedDimension
 13
416.9705892765486
 23
1392.494269174433
 33
0.0
 14
3886.970589276531
 24
1392.49426917456
 34
0.0
100
AcDbRotatedDimension
1001
ACAD
1000
DSTYLE
1002
{
1070
   341
1005
0
1002
}
  0
LINE
  5
18D92
330
18C7A
100
AcDbEntity
  8
部品1
100
AcDbLine
 10
444.9705892765559
 20
3154.494269174624
 30
0.0
 11
1509.470589276487
 21
3154.494269174626
 31
0.0
  0
LINE
  5
18D93
330
18C7A
100
AcDbEntity
  8
部品1
100
AcDbLine
 10
3886.970589276531
 20
1392.494269174596
 30
0.0
 11
3411.970589276556
 21
1392.494269174582
 31
0.0
  0
LINE
  5
18D94
330
18C7A
100
AcDbEntity
  8
部品1
100
AcDbLine
 10
416.9705892765559
 20
3182.494269174509
 30
0.0
 11
3886.970589276556
 21
3182.494269174604
 31
0.0
  0
LINE
  5
18D95
330
18C7A
100
AcDbEntity
  8
部品1
100
AcDbLine
 10
445.4705892765559
 20
2702.494269174509
 30
0.0
 11
1508.470589276487
 21
2702.494269174558
 31
0.0
  0
LINE
  5
18D96
330
18C7A
100
AcDbEntity
  8
細線
 48
50.0
100
AcDbLine
 10
2767.470589276556
 20
3152.494269174611
 30
0.0
 11
1536.470589276487
 21
2702.494269174558
 31
0.0
  0
LINE
  5
18D97
330
18C7A
100
AcDbEntity
  8
部品1
100
AcDbLine
 10
445.4705892765542
 20
3152.494269174509
 30
0.0
 11
1508.470589276485
 21
3152.494269174558
 31
0.0
  0
LINE
  5
18D98
330
18C7A
100
AcDbEntity
  8
細線
 48
50.0
100
AcDbLine
 10
2767.470589276554
 20
2702.494269174615
 30
0.0
 11
1536.470589276485
 21
3152.494269174558
 31
0.0
  0
LINE
  5
18D99
330
18C7A
100
AcDbEntity
  8
破線
 48
10.0
100
AcDbLine
 10
2126.970589276534
 20
1472.494269174502
 30
0.0
 11
1344.47058927653
 21
1472.494269174473
 31
0.0
  0
LINE
  5
18D9A
330
18C7A
100
AcDbEntity
  8
部品1
100
AcDbLine
 10
3830.470589276556
 20
1448.994269174596
 30
0.0
 11
473.4705892764487
 21
1448.994269174476
 31
0.0
  0
DIMENSION
  5
18D9B
330
18C7A
100
AcDbEntity
  8
寸法
100
AcDbDimension
  2
*D7
 10
471.970589276555
 20
3698.302488799491
 30
0.0
 11
108.4853079022819
 21
3698.302488799491
 31
0.0
 12
-3742.925985830444
 22
-6453.628869860112
 32
0.0
 70
   128
 71
     5
 42
55.00000000003456
  3
INABA_S40G
100
AcDbAlignedDimension
 13
416.9705892765205
 23
3182.494269174509
 33
0.0
 14
471.970589276555
 24
3182.494269174509
 34
0.0
100
AcDbRotatedDimension
1001
ACAD
1000
DSTYLE
1002
{
1002
}
  0
DIMENSION
  5
18D9C
330
18C7A
100
AcDbEntity
  8
寸法
100
AcDbDimension
  2
*D6
 10
4534.396935010967
 20
3127.494269174607
 30
0.0
 11
4534.396935010965
 21
3490.979550548844
 31
0.0
 12
-3742.925985830444
 22
-6453.628869860112
 32
0.0
 70
   128
 71
     5
 42
54.99999999999636
  3
INABA_S40G
100
AcDbAlignedDimension
 13
3886.970589276556
 23
3182.494269174604
 33
0.0
 14
3886.970589276556
 24
3127.494269174607
 34
0.0
 50
90.0
100
AcDbRotatedDimension
1001
ACAD
1000
DSTYLE
1002
{
1002
}
  0
DIMENSION
  5
18D9D
330
18C7A
100
AcDbEntity
  8
寸法
100
AcDbDimension
  2
*D5
 10
3886.970589276556
 20
3698.302488799589
 30
0.0
 11
4195.455870650794
 21
3698.302488799589
 31
0.0
 12
-3742.925985830444
 22
-6453.628869860112
 32
0.0
 70
   128
 71
     5
 42
55.0
  3
INABA_S40G
100
AcDbAlignedDimension
 13
3831.970589276556
 23
3182.494269174604
 33
0.0
 14
3886.970589276556
 24
3182.494269174604
 34
0.0
100
AcDbRotatedDimension
1001
ACAD
1000
DSTYLE
1002
{
1002
}
  0
DIMENSION
  5
18D9E
330
18C7A
100
AcDbEntity
  8
寸法
100
AcDbDimension
  2
*D4
 10
3831.970589276556
 20
3698.302488799607
 30
0.0
 11
2151.970589276555
 21
3698.302488799607
 31
0.0
 12
-3742.925985830444
 22
-6453.628869860112
 32
0.0
 70
   128
  1
8X420=<>
 71
     5
 42
3360.000000000001
  3
INABA_S40G
100
AcDbAlignedDimension
 13
471.970589276555
 23
3182.494269174509
 33
0.0
 14
3831.970589276556
 24
3182.494269174604
 34
0.0
100
AcDbRotatedDimension
1001
ACAD
1000
DSTYLE
1002
{
1002
}
  0
DIMENSION
  5
18D9F
330
18C7A
100
AcDbEntity
  8
寸法
100
AcDbDimension
  2
*D3
 10
4899.503876750603
 20
1392.494269174596
 30
0.0
 11
4899.503876750601
 21
2287.4942691746
 31
0.0
 12
-3742.925985830444
 22
-6453.628869860112
 32
0.0
 70
   128
 71
     5
 42
1790.000000000007
  3
INABA_S40G
100
AcDbAlignedDimension
 13
3886.970589276556
 23
3182.494269174604
 33
0.0
 14
3886.970589276531
 24
1392.494269174596
 34
0.0
 50
90.0
100
AcDbRotatedDimension
1001
ACAD
1000
DSTYLE
1002
{
1002
}
  0
ENDBLK
  5
18DA1
330
18C7A
100
AcDbEntity
  8
0
 48
50.0
100
AcDbBlockEnd
  0
BLOCK
  5
1C4CB
330
1C4CA
100
AcDbEntity
  8
0
 48
50.0
100
AcDbBlockBegin
  2
_NONE
 70
     0
 10
0.0
 20
0.0
 30
0.0
  3
_NONE
  1

  0
CIRCLE
  5
1C4CC
330
1C4CA
100
AcDbEntity
  8
0
  6
ByBlock
 62
     0
 48
50.0
100
AcDbCircle
 10
0.0
 20
0.0
 30
0.0
 40
0.25
  0
ENDBLK
  5
1C4CD
330
1C4CA
100
AcDbEntity
  8
0
 48
50.0
100
AcDbBlockEnd
  0
BLOCK
  5
20E08
330
20DFC
100
AcDbEntity
  8
0
 48
50.0
100
AcDbBlockBegin
  2
*D19
 70
     1
 10
0.0
 20
0.0
 30
0.0
  3
*D19
  1

  0
LINE
  5
280C3
330
20DFC
100
AcDbEntity
  8
寸法
 62
     0
 48
50.0
370
    -2
100
AcDbLine
 10
4483.600000000001
 20
8232.618928386099
 30
0.0
 11
4483.600000000001
 21
8504.572792351108
 31
0.0
  0
LINE
  5
280C4
330
20DFC
100
AcDbEntity
  8
寸法
 62
     0
 48
50.0
370
    -2
100
AcDbLine
 10
4528.599999999999
 20
7506.352470292187
 30
0.0
 11
4528.599999999999
 21
8504.572792351108
 31
0.0
  0
LINE
  5
280C5
330
20DFC
100
AcDbEntity
  8
寸法
 62
     0
 48
50.0
370
    -2
100
AcDbLine
 10
4528.599999999999
 20
8444.572792351108
 30
0.0
 11
4628.599999999998
 21
8444.572792351108
 31
0.0
  0
LINE
  5
280C6
330
20DFC
100
AcDbEntity
  8
寸法
 62
     0
 48
50.0
370
    -2
100
AcDbLine
 10
4483.600000000001
 20
8444.572792351108
 30
0.0
 11
4146.250757595081
 21
8444.572792351108
 31
0.0
  0
LINE
  5
280C7
330
20DFC
100
AcDbEntity
  8
寸法
 62
     0
 48
50.0
370
    -2
100
AcDbLine
 10
4528.599999999999
 20
8444.572792351108
 30
0.0
 11
4483.600000000001
 21
8444.572792351108
 31
0.0
  0
INSERT
  5
280C8
330
20DFC
100
AcDbEntity
  8
寸法
 62
     0
 48
50.0
370
    -2
100
AcDbBlockReference
  2
_DOTSMALL
 10
4528.599999999999
 20
8444.572792351108
 30
0.0
 41
100.0
 42
100.0
 43
100.0
 50
180.0
  0
INSERT
  5
280C9
330
20DFC
100
AcDbEntity
  8
寸法
 62
     0
 48
50.0
370
    -2
100
AcDbBlockReference
  2
_DOTSMALL
 10
4483.600000000001
 20
8444.572792351108
 30
0.0
 41
100.0
 42
100.0
 43
100.0
  0
MTEXT
  5
280CA
330
20DFC
100
AcDbEntity
  8
寸法
 62
     7
 48
50.0
100
AcDbMText
 10
4212.425378797539
 20
8544.572792351107
 30
0.0
 40
120.0
 41
0.0
 71
     5
 72
     1
  1
\A1;a
  7
STYLE1
 73
     1
 44
1.0
1001
ACAD
1000
MTEXTBEGIN
1070
    73
1070
     1
1070
    44
1040
1.0
1070
    74
1070
     0
1000
MTEXTEND
  0
POINT
  5
280CB
330
20DFC
100
AcDbEntity
  8
DEFPOINTS
 62
     0
 48
50.0
100
AcDbPoint
 10
4483.600000000001
 20
8212.618928386097
 30
0.0
  0
POINT
  5
280CC
330
20DFC
100
AcDbEntity
  8
DEFPOINTS
 62
     0
 48
50.0
100
AcDbPoint
 10
4528.599999999999
 20
7486.352470292186
 30
0.0
  0
POINT
  5
280CD
330
20DFC
100
AcDbEntity
  8
DEFPOINTS
 62
     0
 48
50.0
100
AcDbPoint
 10
4528.599999999999
 20
8444.572792351108
 30
0.0
  0
ENDBLK
  5
20E09
330
20DFC
100
AcDbEntity
  8
0
 48
50.0
100
AcDbBlockEnd
  0
BLOCK
  5
2274E
330
22742
100
AcDbEntity
  8
0
 48
50.0
100
AcDbBlockBegin
  2
*D20
 70
     1
 10
0.0
 20
0.0
 30
0.0
  3
*D20
  1

  0
LINE
  5
280B8
330
22742
100
AcDbEntity
  8
寸法
 62
     0
 48
50.0
370
    -2
100
AcDbLine
 10
3885.665006330071
 20
7561.352470292202
 30
0.0
 11
3593.721909610673
 21
7561.352470292202
 31
0.0
  0
LINE
  5
280B9
330
22742
100
AcDbEntity
  8
寸法
 62
     0
 48
50.0
370
    -2
100
AcDbLine
 10
4375.156977762463
 20
7486.352470292199
 30
0.0
 11
3593.721909610673
 21
7486.352470292199
 31
0.0
  0
LINE
  5
280BA
330
22742
100
AcDbEntity
  8
寸法
 62
     0
 48
50.0
370
    -2
100
AcDbLine
 10
3653.721909610673
 20
7561.352470292202
 30
0.0
 11
3653.721909610673
 21
7661.352470292202
 31
0.0
  0
LINE
  5
280BB
330
22742
100
AcDbEntity
  8
寸法
 62
     0
 48
50.0
370
    -2
100
AcDbLine
 10
3653.721909610673
 20
7486.352470292199
 30
0.0
 11
3653.721909610673
 21
7386.352470292199
 31
0.0
  0
LINE
  5
280BC
330
22742
100
AcDbEntity
  8
寸法
 62
     0
 48
50.0
370
    -2
100
AcDbLine
 10
3653.721909610673
 20
7561.352470292202
 30
0.0
 11
3653.721909610673
 21
7486.352470292199
 31
0.0
  0
INSERT
  5
280BD
330
22742
100
AcDbEntity
  8
寸法
 62
     0
 48
50.0
370
    -2
100
AcDbBlockReference
  2
_DOTSMALL
 10
3653.721909610673
 20
7561.352470292202
 30
0.0
 41
100.0
 42
100.0
 43
100.0
 50
270.0
  0
INSERT
  5
280BE
330
22742
100
AcDbEntity
  8
寸法
 62
     0
 48
50.0
370
    -2
100
AcDbBlockReference
  2
_DOTSMALL
 10
3653.721909610673
 20
7486.352470292199
 30
0.0
 41
100.0
 42
100.0
 43
100.0
 50
90.0
  0
MTEXT
  5
280BF
330
22742
100
AcDbEntity
  8
寸法
 62
     7
 48
50.0
100
AcDbMText
 10
3553.721909610672
 20
7523.852470292202
 30
0.0
 40
120.0
 41
0.0
 71
     5
 72
     1
  1
\A1;c
  7
STYLE1
 11
0.0000000000000001
 21
1.0
 31
0.0
 73
     1
 44
1.0
1001
ACAD
1000
MTEXTBEGIN
1070
    73
1070
     1
1070
    44
1040
1.0
1070
    74
1070
     0
1000
MTEXTEND
  0
POINT
  5
280C0
330
22742
100
AcDbEntity
  8
DEFPOINTS
 62
     0
 48
50.0
100
AcDbPoint
 10
3905.665006330071
 20
7561.352470292202
 30
0.0
  0
POINT
  5
280C1
330
22742
100
AcDbEntity
  8
DEFPOINTS
 62
     0
 48
50.0
100
AcDbPoint
 10
4395.156977762463
 20
7486.352470292199
 30
0.0
  0
POINT
  5
280C2
330
22742
100
AcDbEntity
  8
DEFPOINTS
 62
     0
 48
50.0
100
AcDbPoint
 10
3653.721909610673
 20
7486.352470292199
 30
0.0
  0
ENDBLK
  5
2274F
330
22742
100
AcDbEntity
  8
0
 48
50.0
100
AcDbBlockEnd
  0
BLOCK
  5
22768
330
2275C
100
AcDbEntity
  8
0
 48
50.0
100
AcDbBlockBegin
  2
*D21
 70
     1
 10
0.0
 20
0.0
 30
0.0
  3
*D21
  1

  0
LINE
  5
280AD
330
2275C
100
AcDbEntity
  8
寸法
 62
     0
 48
50.0
370
    -2
100
AcDbLine
 10
4381.607272343893
 20
6526.352470292188
 30
0.0
 11
3593.721909610673
 21
6526.352470292188
 31
0.0
  0
LINE
  5
280AE
330
2275C
100
AcDbEntity
  8
寸法
 62
     0
 48
50.0
370
    -2
100
AcDbLine
 10
3885.665006330071
 20
6471.35247029221
 30
0.0
 11
3593.721909610673
 21
6471.35247029221
 31
0.0
  0
LINE
  5
280AF
330
2275C
100
AcDbEntity
  8
寸法
 62
     0
 48
50.0
370
    -2
100
AcDbLine
 10
3653.721909610673
 20
6526.352470292188
 30
0.0
 11
3653.721909610673
 21
6626.352470292188
 31
0.0
  0
LINE
  5
280B0
330
2275C
100
AcDbEntity
  8
寸法
 62
     0
 48
50.0
370
    -2
100
AcDbLine
 10
3653.721909610673
 20
6471.35247029221
 30
0.0
 11
3653.721909610673
 21
6371.352470292209
 31
0.0
  0
LINE
  5
280B1
330
2275C
100
AcDbEntity
  8
寸法
 62
     0
 48
50.0
370
    -2
100
AcDbLine
 10
3653.721909610673
 20
6526.352470292188
 30
0.0
 11
3653.721909610673
 21
6471.35247029221
 31
0.0
  0
INSERT
  5
280B2
330
2275C
100
AcDbEntity
  8
寸法
 62
     0
 48
50.0
370
    -2
100
AcDbBlockReference
  2
_DOTSMALL
 10
3653.721909610673
 20
6526.352470292188
 30
0.0
 41
100.0
 42
100.0
 43
100.0
 50
270.0
  0
INSERT
  5
280B3
330
2275C
100
AcDbEntity
  8
寸法
 62
     0
 48
50.0
370
    -2
100
AcDbBlockReference
  2
_DOTSMALL
 10
3653.721909610673
 20
6471.35247029221
 30
0.0
 41
100.0
 42
100.0
 43
100.0
 50
90.0
  0
MTEXT
  5
280B4
330
2275C
100
AcDbEntity
  8
寸法
 62
     7
 48
50.0
100
AcDbMText
 10
3553.721909610672
 20
6498.852470292199
 30
0.0
 40
120.0
 41
0.0
 71
     5
 72
     1
  1
\A1;b
  7
STYLE1
 11
0.0000000000000001
 21
1.0
 31
0.0
 73
     1
 44
1.0
1001
ACAD
1000
MTEXTBEGIN
1070
    73
1070
     1
1070
    44
1040
1.0
1070
    74
1070
     0
1000
MTEXTEND
  0
POINT
  5
280B5
330
2275C
100
AcDbEntity
  8
DEFPOINTS
 62
     0
 48
50.0
100
AcDbPoint
 10
4401.607272343894
 20
6526.352470292188
 30
0.0
  0
POINT
  5
280B6
330
2275C
100
AcDbEntity
  8
DEFPOINTS
 62
     0
 48
50.0
100
AcDbPoint
 10
3905.665006330071
 20
6471.35247029221
 30
0.0
  0
POINT
  5
280B7
330
2275C
100
AcDbEntity
  8
DEFPOINTS
 62
     0
 48
50.0
100
AcDbPoint
 10
3653.721909610673
 20
6471.35247029221
 30
0.0
  0
ENDBLK
  5
22769
330
2275C
100
AcDbEntity
  8
0
 48
50.0
100
AcDbBlockEnd
  0
BLOCK
  5
22B65
330
22B5A
100
AcDbEntity
  8
0
 48
50.0
100
AcDbBlockBegin
  2
*D22
 70
     1
 10
0.0
 20
0.0
 30
0.0
  3
*D22
  1

  0
LINE
  5
2813E
330
22B5A
100
AcDbEntity
  8
寸法
 62
     0
 48
50.0
370
    -2
100
AcDbLine
 10
11455.09540071171
 20
6806.352470292218
 30
0.0
 11
11261.82138901162
 21
6806.352470292218
 31
0.0
  0
LINE
  5
2813F
330
22B5A
100
AcDbEntity
  8
寸法
 62
     0
 48
50.0
370
    -2
100
AcDbLine
 10
11311.41910651595
 20
6526.352470292223
 30
0.0
 11
11381.82138901162
 21
6526.352470292223
 31
0.0
  0
LINE
  5
28140
330
22B5A
100
AcDbEntity
  8
寸法
 62
     0
 48
50.0
370
    -2
100
AcDbLine
 10
11321.82138901162
 20
6806.352470292218
 30
0.0
 11
11321.82138901162
 21
6526.352470292223
 31
0.0
  0
LINE
  5
28141
330
22B5A
100
AcDbEntity
  8
寸法
 62
     0
 48
50.0
370
    -2
100
AcDbLine
 10
11321.82138901162
 20
6526.352470292223
 30
0.0
 11
11321.82138901162
 21
6089.818021473323
 31
0.0
  0
INSERT
  5
28142
330
22B5A
100
AcDbEntity
  8
寸法
 62
     0
 48
50.0
370
    -2
100
AcDbBlockReference
  2
_DOTSMALL
 10
11321.82138901162
 20
6806.352470292218
 30
0.0
 41
100.0
 42
100.0
 43
100.0
 50
90.0
  0
INSERT
  5
28143
330
22B5A
100
AcDbEntity
  8
寸法
 62
     0
 48
50.0
370
    -2
100
AcDbBlockReference
  2
_DOTSMALL
 10
11321.82138901162
 20
6526.352470292223
 30
0.0
 41
100.0
 42
100.0
 43
100.0
 50
270.0
  0
MTEXT
  5
28144
330
22B5A
100
AcDbEntity
  8
寸法
 62
     7
 48
50.0
100
AcDbMText
 10
11221.809577988
 20
6239.388887615057
 30
0.0
 40
120.0
 41
0.0
 71
     5
 72
     1
  1
\A1;280
  7
STYLE1
 11
0.0000000000000001
 21
1.0
 31
0.0
 73
     1
 44
1.0
1001
ACAD
1000
MTEXTBEGIN
1070
    73
1070
     1
1070
    44
1040
1.0
1070
    74
1070
     0
1000
MTEXTEND
  0
POINT
  5
28145
330
22B5A
100
AcDbEntity
  8
DEFPOINTS
 62
     0
 48
50.0
100
AcDbPoint
 10
11475.09540071171
 20
6806.352470292218
 30
0.0
  0
POINT
  5
28146
330
22B5A
100
AcDbEntity
  8
DEFPOINTS
 62
     0
 48
50.0
100
AcDbPoint
 10
11291.41910651595
 20
6526.352470292223
 30
0.0
  0
POINT
  5
28147
330
22B5A
100
AcDbEntity
  8
DEFPOINTS
 62
     0
 48
50.0
100
AcDbPoint
 10
11321.82138901162
 20
6526.352470292223
 30
0.0
  0
ENDBLK
  5
22B66
330
22B5A
100
AcDbEntity
  8
0
 48
50.0
100
AcDbBlockEnd
  0
BLOCK
  5
22B7F
330
22B74
100
AcDbEntity
  8
0
 48
50.0
100
AcDbBlockBegin
  2
*D23
 70
     1
 10
0.0
 20
0.0
 30
0.0
  3
*D23
  1

  0
LINE
  5
28099
330
22B74
100
AcDbEntity
  8
寸法
 62
     0
 48
50.0
370
    -2
100
AcDbLine
 10
11335.85634570468
 20
7486.352470292193
 30
0.0
 11
11381.82138901162
 21
7486.352470292193
 31
0.0
  0
LINE
  5
2809A
330
22B74
100
AcDbEntity
  8
寸法
 62
     0
 48
50.0
370
    -2
100
AcDbLine
 10
11275.60166369304
 20
7286.352470292108
 30
0.0
 11
11381.82138901162
 21
7286.352470292108
 31
0.0
  0
LINE
  5
2809B
330
22B74
100
AcDbEntity
  8
寸法
 62
     0
 48
50.0
370
    -2
100
AcDbLine
 10
11321.82138901162
 20
7286.352470292108
 30
0.0
 11
11321.82138901162
 21
7486.352470292193
 31
0.0
  0
LINE
  5
2809C
330
22B74
100
AcDbEntity
  8
寸法
 62
     0
 48
50.0
370
    -2
100
AcDbLine
 10
11321.82138901162
 20
7486.352470292193
 30
0.0
 11
11321.82138901162
 21
7922.88691911109
 31
0.0
  0
INSERT
  5
2809D
330
22B74
100
AcDbEntity
  8
寸法
 62
     0
 48
50.0
370
    -2
100
AcDbBlockReference
  2
_DOTSMALL
 10
11321.82138901162
 20
7286.352470292108
 30
0.0
 41
100.0
 42
100.0
 43
100.0
 50
270.0
  0
INSERT
  5
2809E
330
22B74
100
AcDbEntity
  8
寸法
 62
     0
 48
50.0
370
    -2
100
AcDbBlockReference
  2
_DOTSMALL
 10
11321.82138901162
 20
7486.352470292193
 30
0.0
 41
100.0
 42
100.0
 43
100.0
 50
90.0
  0
MTEXT
  5
2809F
330
22B74
100
AcDbEntity
  8
寸法
 62
     7
 48
50.0
100
AcDbMText
 10
11221.809577988
 20
7773.316052969359
 30
0.0
 40
120.0
 41
0.0
 71
     5
 72
     1
  1
\A1;200
  7
STYLE1
 11
0.0000000000000001
 21
1.0
 31
0.0
 73
     1
 44
1.0
1001
ACAD
1000
MTEXTBEGIN
1070
    73
1070
     1
1070
    44
1040
1.0
1070
    74
1070
     0
1000
MTEXTEND
  0
POINT
  5
280A0
330
22B74
100
AcDbEntity
  8
DEFPOINTS
 62
     0
 48
50.0
100
AcDbPoint
 10
11315.85634570468
 20
7486.352470292193
 30
0.0
  0
POINT
  5
280A1
330
22B74
100
AcDbEntity
  8
DEFPOINTS
 62
     0
 48
50.0
100
AcDbPoint
 10
11255.60166369304
 20
7286.352470292108
 30
0.0
  0
POINT
  5
280A2
330
22B74
100
AcDbEntity
  8
DEFPOINTS
 62
     0
 48
50.0
100
AcDbPoint
 10
11321.82138901162
 20
7286.352470292108
 30
0.0
  0
ENDBLK
  5
22B80
330
22B74
100
AcDbEntity
  8
0
 48
50.0
100
AcDbBlockEnd
  0
BLOCK
  5
22BA5
330
22B9A
100
AcDbEntity
  8
0
 48
50.0
100
AcDbBlockBegin
  2
*D24
 70
     1
 10
0.0
 20
0.0
 30
0.0
  3
*D24
  1

  0
LINE
  5
2815D
330
22B9A
100
AcDbEntity
  8
寸法
 62
     0
 48
50.0
370
    -2
100
AcDbLine
 10
11918.6
 20
7151.352470292223
 30
0.0
 11
11918.6
 21
7270.74413884743
 31
0.0
  0
LINE
  5
2815E
330
22B9A
100
AcDbEntity
  8
寸法
 62
     0
 48
50.0
370
    -2
100
AcDbLine
 10
11798.6
 20
7151.352463797275
 30
0.0
 11
11798.6
 21
7270.74413884743
 31
0.0
  0
LINE
  5
2815F
330
22B9A
100
AcDbEntity
  8
寸法
 62
     0
 48
50.0
370
    -2
100
AcDbLine
 10
11798.6
 20
7210.744138847428
 30
0.0
 11
11918.6
 21
7210.744138847428
 31
0.0
  0
LINE
  5
28160
330
22B9A
100
AcDbEntity
  8
寸法
 62
     0
 48
50.0
370
    -2
100
AcDbLine
 10
11918.6
 20
7210.744138847428
 30
0.0
 11
12324.70629921259
 21
7210.744138847428
 31
0.0
  0
INSERT
  5
28161
330
22B9A
100
AcDbEntity
  8
寸法
 62
     0
 48
50.0
370
    -2
100
AcDbBlockReference
  2
_DOTSMALL
 10
11798.6
 20
7210.744138847428
 30
0.0
 41
100.0
 42
100.0
 43
100.0
 50
180.0
  0
INSERT
  5
28162
330
22B9A
100
AcDbEntity
  8
寸法
 62
     0
 48
50.0
370
    -2
100
AcDbBlockReference
  2
_DOTSMALL
 10
11918.6
 20
7210.744138847428
 30
0.0
 41
100.0
 42
100.0
 43
100.0
  0
MTEXT
  5
28163
330
22B9A
100
AcDbEntity
  8
寸法
 62
     7
 48
50.0
100
AcDbMText
 10
12188.6590551181
 20
7310.755949871051
 30
0.0
 40
120.0
 41
0.0
 71
     5
 72
     1
  1
\A1;120
  7
STYLE1
 73
     1
 44
1.0
1001
ACAD
1000
MTEXTBEGIN
1070
    73
1070
     1
1070
    44
1040
1.0
1070
    74
1070
     0
1000
MTEXTEND
  0
POINT
  5
28164
330
22B9A
100
AcDbEntity
  8
DEFPOINTS
 62
     0
 48
50.0
100
AcDbPoint
 10
11918.6
 20
7131.352470292222
 30
0.0
  0
POINT
  5
28165
330
22B9A
100
AcDbEntity
  8
DEFPOINTS
 62
     0
 48
50.0
100
AcDbPoint
 10
11798.6
 20
7131.352463797274
 30
0.0
  0
POINT
  5
28166
330
22B9A
100
AcDbEntity
  8
DEFPOINTS
 62
     0
 48
50.0
100
AcDbPoint
 10
11798.6
 20
7210.744138847428
 30
0.0
  0
ENDBLK
  5
22BA6
330
22B9A
100
AcDbEntity
  8
0
 48
50.0
100
AcDbBlockEnd
  0
BLOCK
  5
265A9
330
2659F
100
AcDbEntity
  8
0
 48
50.0
100
AcDbBlockBegin
  2
*D25
 70
     1
 10
0.0
 20
0.0
 30
0.0
  3
*D25
  1

  0
LINE
  5
28086
330
2659F
100
AcDbEntity
  8
寸法
 62
     0
 48
50.0
370
    -2
100
AcDbLine
 10
4528.599999999999
 20
7506.352470292189
 30
0.0
 11
4528.599999999999
 21
8504.572792351108
 31
0.0
  0
LINE
  5
28087
330
2659F
100
AcDbEntity
  8
寸法
 62
     0
 48
50.0
370
    -2
100
AcDbLine
 10
11918.6
 20
7506.352470292189
 30
0.0
 11
11918.6
 21
8504.572792351108
 31
0.0
  0
LINE
  5
28088
330
2659F
100
AcDbEntity
  8
寸法
 62
     0
 48
50.0
370
    -2
100
AcDbLine
 10
4528.599999999999
 20
8444.572792351108
 30
0.0
 11
11918.6
 21
8444.572792351108
 31
0.0
  0
INSERT
  5
28089
330
2659F
100
AcDbEntity
  8
寸法
 62
     0
 48
50.0
370
    -2
100
AcDbBlockReference
  2
_DOTSMALL
 10
4528.599999999999
 20
8444.572792351108
 30
0.0
 41
100.0
 42
100.0
 43
100.0
 50
180.0
  0
INSERT
  5
2808A
330
2659F
100
AcDbEntity
  8
寸法
 62
     0
 48
50.0
370
    -2
100
AcDbBlockReference
  2
_DOTSMALL
 10
11918.6
 20
8444.572792351108
 30
0.0
 41
100.0
 42
100.0
 43
100.0
  0
MTEXT
  5
2808B
330
2659F
100
AcDbEntity
  8
寸法
 62
     7
 48
50.0
100
AcDbMText
 10
8223.599999999999
 20
8544.58460337473
 30
0.0
 40
120.0
 41
0.0
 71
     5
 72
     1
  1
\A1;N X 820+10
  7
STYLE1
 73
     1
 44
1.0
1001
ACAD
1000
MTEXTBEGIN
1070
    73
1070
     1
1070
    44
1040
1.0
1070
    74
1070
     0
1000
MTEXTEND
  0
POINT
  5
2808C
330
2659F
100
AcDbEntity
  8
DEFPOINTS
 62
     0
 48
50.0
100
AcDbPoint
 10
4528.599999999999
 20
7486.352470292189
 30
0.0
  0
POINT
  5
2808D
330
2659F
100
AcDbEntity
  8
DEFPOINTS
 62
     0
 48
50.0
100
AcDbPoint
 10
11918.6
 20
7486.352470292189
 30
0.0
  0
POINT
  5
2808E
330
2659F
100
AcDbEntity
  8
DEFPOINTS
 62
     0
 48
50.0
100
AcDbPoint
 10
11918.6
 20
8444.572792351108
 30
0.0
  0
ENDBLK
  5
265AA
330
2659F
100
AcDbEntity
  8
0
 48
50.0
100
AcDbBlockEnd
  0
BLOCK
  5
265B6
330
265AB
100
AcDbEntity
  8
0
 48
50.0
100
AcDbBlockBegin
  2
*D26
 70
     1
 10
0.0
 20
0.0
 30
0.0
  3
*D26
  1

  0
LINE
  5
2807C
330
265AB
100
AcDbEntity
  8
寸法
 62
     0
 48
50.0
370
    -2
100
AcDbLine
 10
5082.765475140899
 20
6526.352470292201
 30
0.0
 11
4951.285990614301
 21
6526.352470292201
 31
0.0
  0
LINE
  5
2807D
330
265AB
100
AcDbEntity
  8
寸法
 62
     0
 48
50.0
370
    -2
100
AcDbLine
 10
5283.600000000006
 20
7006.352470292189
 30
0.0
 11
4951.285990614301
 21
7006.352470292189
 31
0.0
  0
LINE
  5
2807E
330
265AB
100
AcDbEntity
  8
寸法
 62
     0
 48
50.0
370
    -2
100
AcDbLine
 10
5011.2859906143
 20
7006.352470292189
 30
0.0
 11
5011.2859906143
 21
6526.352470292201
 31
0.0
  0
LINE
  5
2807F
330
265AB
100
AcDbEntity
  8
寸法
 62
     0
 48
50.0
370
    -2
100
AcDbLine
 10
5011.2859906143
 20
6526.352470292201
 30
0.0
 11
5011.285990614299
 21
6079.7461710796
 31
0.0
  0
INSERT
  5
28080
330
265AB
100
AcDbEntity
  8
寸法
 62
     0
 48
50.0
370
    -2
100
AcDbBlockReference
  2
_DOTSMALL
 10
5011.2859906143
 20
7006.352470292189
 30
0.0
 41
100.0
 42
100.0
 43
100.0
 50
90.0
  0
INSERT
  5
28081
330
265AB
100
AcDbEntity
  8
寸法
 62
     0
 48
50.0
370
    -2
100
AcDbBlockReference
  2
_DOTSMALL
 10
5011.2859906143
 20
6526.352470292201
 30
0.0
 41
100.0
 42
100.0
 43
100.0
 50
270.0
  0
MTEXT
  5
28082
330
265AB
100
AcDbEntity
  8
寸法
 62
     7
 48
50.0
100
AcDbMText
 10
4911.285990614299
 20
6233.793415174088
 30
0.0
 40
120.0
 41
0.0
 71
     5
 72
     1
  1
\A1;480
  7
STYLE1
 11
0.0000000000000001
 21
1.0
 31
0.0
 73
     1
 44
1.0
1001
ACAD
1000
MTEXTBEGIN
1070
    73
1070
     1
1070
    44
1040
1.0
1070
    74
1070
     0
1000
MTEXTEND
  0
POINT
  5
28083
330
265AB
100
AcDbEntity
  8
DEFPOINTS
 62
     0
 48
50.0
100
AcDbPoint
 10
5102.765475140898
 20
6526.352470292201
 30
0.0
  0
POINT
  5
28084
330
265AB
100
AcDbEntity
  8
DEFPOINTS
 62
     0
 48
50.0
100
AcDbPoint
 10
5303.600000000006
 20
7006.352470292189
 30
0.0
  0
POINT
  5
28085
330
265AB
100
AcDbEntity
  8
DEFPOINTS
 62
     0
 48
50.0
100
AcDbPoint
 10
5011.2859906143
 20
7006.352470292189
 30
0.0
  0
ENDBLK
  5
265B7
330
265AB
100
AcDbEntity
  8
0
 48
50.0
100
AcDbBlockEnd
  0
BLOCK
  5
265C2
330
265B8
100
AcDbEntity
  8
0
 48
50.0
100
AcDbBlockBegin
  2
*D27
 70
     1
 10
0.0
 20
0.0
 30
0.0
  3
*D27
  1

  0
LINE
  5
280F2
330
265B8
100
AcDbEntity
  8
寸法
 62
     0
 48
50.0
370
    -2
100
AcDbLine
 10
4581.599999999999
 20
7363.35247029219
 30
0.0
 11
3845.665006330071
 21
7363.35247029219
 31
0.0
  0
LINE
  5
280F3
330
265B8
100
AcDbEntity
  8
寸法
 62
     0
 48
50.0
370
    -2
100
AcDbLine
 10
4581.600000000006
 20
6724.352470292193
 30
0.0
 11
3845.665006330071
 21
6724.352470292193
 31
0.0
  0
LINE
  5
280F4
330
265B8
100
AcDbEntity
  8
寸法
 62
     0
 48
50.0
370
    -2
100
AcDbLine
 10
3905.665006330071
 20
7363.35247029219
 30
0.0
 11
3905.66500633007
 21
6724.352470292193
 31
0.0
  0
INSERT
  5
280F5
330
265B8
100
AcDbEntity
  8
寸法
 62
     0
 48
50.0
370
    -2
100
AcDbBlockReference
  2
_DOTSMALL
 10
3905.665006330071
 20
7363.35247029219
 30
0.0
 41
100.0
 42
100.0
 43
100.0
 50
90.0
  0
INSERT
  5
280F6
330
265B8
100
AcDbEntity
  8
寸法
 62
     0
 48
50.0
370
    -2
100
AcDbBlockReference
  2
_DOTSMALL
 10
3905.66500633007
 20
6724.352470292193
 30
0.0
 41
100.0
 42
100.0
 43
100.0
 50
270.0
  0
MTEXT
  5
280F7
330
265B8
100
AcDbEntity
  8
寸法
 62
     7
 48
50.0
100
AcDbMText
 10
3805.66500633007
 20
7043.85247029219
 30
0.0
 40
120.0
 41
0.0
 71
     5
 72
     1
  1
\A1;639
  7
STYLE1
 11
0.0000000000000001
 21
1.0
 31
0.0
 73
     1
 44
1.0
1001
ACAD
1000
MTEXTBEGIN
1070
    73
1070
     1
1070
    44
1040
1.0
1070
    74
1070
     0
1000
MTEXTEND
  0
POINT
  5
280F8
330
265B8
100
AcDbEntity
  8
DEFPOINTS
 62
     0
 48
50.0
100
AcDbPoint
 10
4601.599999999998
 20
7363.35247029219
 30
0.0
  0
POINT
  5
280F9
330
265B8
100
AcDbEntity
  8
DEFPOINTS
 62
     0
 48
50.0
100
AcDbPoint
 10
4601.600000000006
 20
6724.352470292193
 30
0.0
  0
POINT
  5
280FA
330
265B8
100
AcDbEntity
  8
DEFPOINTS
 62
     0
 48
50.0
100
AcDbPoint
 10
3905.66500633007
 20
6724.352470292193
 30
0.0
  0
ENDBLK
  5
265C3
330
265B8
100
AcDbEntity
  8
0
 48
50.0
100
AcDbBlockEnd
  0
BLOCK
  5
265CE
330
265C4
100
AcDbEntity
  8
0
 48
50.0
100
AcDbBlockBegin
  2
*D28
 70
     1
 10
0.0
 20
0.0
 30
0.0
  3
*D28
  1

  0
LINE
  5
2806A
330
265C4
100
AcDbEntity
  8
寸法
 62
     0
 48
50.0
370
    -2
100
AcDbLine
 10
4508.599999999998
 20
7486.352470292189
 30
0.0
 11
3593.721909610672
 21
7486.352470292189
 31
0.0
  0
LINE
  5
2806B
330
265C4
100
AcDbEntity
  8
寸法
 62
     0
 48
50.0
370
    -2
100
AcDbLine
 10
4508.599999999998
 20
6526.35247029219
 30
0.0
 11
3593.721909610672
 21
6526.35247029219
 31
0.0
  0
LINE
  5
2806C
330
265C4
100
AcDbEntity
  8
寸法
 62
     0
 48
50.0
370
    -2
100
AcDbLine
 10
3653.721909610673
 20
7486.352470292189
 30
0.0
 11
3653.721909610672
 21
6526.35247029219
 31
0.0
  0
INSERT
  5
2806D
330
265C4
100
AcDbEntity
  8
寸法
 62
     0
 48
50.0
370
    -2
100
AcDbBlockReference
  2
_DOTSMALL
 10
3653.721909610673
 20
7486.352470292189
 30
0.0
 41
100.0
 42
100.0
 43
100.0
 50
90.0
  0
INSERT
  5
2806E
330
265C4
100
AcDbEntity
  8
寸法
 62
     0
 48
50.0
370
    -2
100
AcDbBlockReference
  2
_DOTSMALL
 10
3653.721909610672
 20
6526.35247029219
 30
0.0
 41
100.0
 42
100.0
 43
100.0
 50
270.0
  0
MTEXT
  5
2806F
330
265C4
100
AcDbEntity
  8
寸法
 62
     7
 48
50.0
100
AcDbMText
 10
3553.721909610671
 20
7043.85247029219
 30
0.0
 40
120.0
 41
0.0
 71
     5
 72
     1
  1
\A1;960
  7
STYLE1
 11
0.0000000000000001
 21
1.0
 31
0.0
 73
     1
 44
1.0
1001
ACAD
1000
MTEXTBEGIN
1070
    73
1070
     1
1070
    44
1040
1.0
1070
    74
1070
     0
1000
MTEXTEND
  0
POINT
  5
28070
330
265C4
100
AcDbEntity
  8
DEFPOINTS
 62
     0
 48
50.0
100
AcDbPoint
 10
4528.599999999999
 20
7486.352470292189
 30
0.0
  0
POINT
  5
28071
330
265C4
100
AcDbEntity
  8
DEFPOINTS
 62
     0
 48
50.0
100
AcDbPoint
 10
4528.599999999999
 20
6526.35247029219
 30
0.0
  0
POINT
  5
28072
330
265C4
100
AcDbEntity
  8
DEFPOINTS
 62
     0
 48
50.0
100
AcDbPoint
 10
3653.721909610672
 20
6526.35247029219
 30
0.0
  0
ENDBLK
  5
265CF
330
265C4
100
AcDbEntity
  8
0
 48
50.0
100
AcDbBlockEnd
  0
BLOCK
  5
265FD
330
265F2
100
AcDbEntity
  8
0
 48
50.0
100
AcDbBlockBegin
  2
*D29
 70
     1
 10
0.0
 20
0.0
 30
0.0
  3
*D29
  1

  0
LINE
  5
280E8
330
265F2
100
AcDbEntity
  8
寸法
 62
     0
 48
50.0
370
    -2
100
AcDbLine
 10
4581.600000000006
 20
6724.352470292193
 30
0.0
 11
3845.665006330071
 21
6724.352470292193
 31
0.0
  0
LINE
  5
280E9
330
265F2
100
AcDbEntity
  8
寸法
 62
     0
 48
50.0
370
    -2
100
AcDbLine
 10
4508.599999999998
 20
6526.35247029219
 30
0.0
 11
3845.665006330071
 21
6526.35247029219
 31
0.0
  0
LINE
  5
280EA
330
265F2
100
AcDbEntity
  8
寸法
 62
     0
 48
50.0
370
    -2
100
AcDbLine
 10
3905.66500633007
 20
6724.352470292193
 30
0.0
 11
3905.66500633007
 21
6526.35247029219
 31
0.0
  0
LINE
  5
280EB
330
265F2
100
AcDbEntity
  8
寸法
 62
     0
 48
50.0
370
    -2
100
AcDbLine
 10
3905.66500633007
 20
6526.35247029219
 30
0.0
 11
3905.66500633007
 21
6054.61186161994
 31
0.0
  0
INSERT
  5
280EC
330
265F2
100
AcDbEntity
  8
寸法
 62
     0
 48
50.0
370
    -2
100
AcDbBlockReference
  2
_DOTSMALL
 10
3905.66500633007
 20
6724.352470292193
 30
0.0
 41
100.0
 42
100.0
 43
100.0
 50
90.0
  0
INSERT
  5
280ED
330
265F2
100
AcDbEntity
  8
寸法
 62
     0
 48
50.0
370
    -2
100
AcDbBlockReference
  2
_DOTSMALL
 10
3905.66500633007
 20
6526.35247029219
 30
0.0
 41
100.0
 42
100.0
 43
100.0
 50
270.0
  0
MTEXT
  5
280EE
330
265F2
100
AcDbEntity
  8
寸法
 62
     7
 48
50.0
100
AcDbMText
 10
3805.66500633007
 20
6190.821521449597
 30
0.0
 40
120.0
 41
0.0
 71
     5
 72
     1
  1
\A1;198
  7
STYLE1
 11
0.0000000000000001
 21
1.0
 31
0.0
 73
     1
 44
1.0
1001
ACAD
1000
MTEXTBEGIN
1070
    73
1070
     1
1070
    44
1040
1.0
1070
    74
1070
     0
1000
MTEXTEND
  0
POINT
  5
280EF
330
265F2
100
AcDbEntity
  8
DEFPOINTS
 62
     0
 48
50.0
100
AcDbPoint
 10
4601.600000000006
 20
6724.352470292193
 30
0.0
  0
POINT
  5
280F0
330
265F2
100
AcDbEntity
  8
DEFPOINTS
 62
     0
 48
50.0
100
AcDbPoint
 10
4528.599999999999
 20
6526.35247029219
 30
0.0
  0
POINT
  5
280F1
330
265F2
100
AcDbEntity
  8
DEFPOINTS
 62
     0
 48
50.0
100
AcDbPoint
 10
3905.66500633007
 20
6526.35247029219
 30
0.0
  0
ENDBLK
  5
265FE
330
265F2
100
AcDbEntity
  8
0
 48
50.0
100
AcDbBlockEnd
  0
BLOCK
  5
26609
330
265FF
100
AcDbEntity
  8
0
 48
50.0
100
AcDbBlockBegin
  2
*D30
 70
     1
 10
0.0
 20
0.0
 30
0.0
  3
*D30
  1

  0
LINE
  5
28057
330
265FF
100
AcDbEntity
  8
寸法
 62
     0
 48
50.0
370
    -2
100
AcDbLine
 10
4508.600000000002
 20
6526.352470292185
 30
0.0
 11
4355.512673767882
 21
6526.352470292185
 31
0.0
  0
LINE
  5
28058
330
265FF
100
AcDbEntity
  8
寸法
 62
     0
 48
50.0
370
    -2
100
AcDbLine
 10
4864.325326928807
 20
5806.352470292186
 30
0.0
 11
4355.512673767881
 21
5806.352470292186
 31
0.0
  0
LINE
  5
28059
330
265FF
100
AcDbEntity
  8
寸法
 62
     0
 48
50.0
370
    -2
100
AcDbLine
 10
4415.512673767882
 20
6526.352470292185
 30
0.0
 11
4415.512673767881
 21
5806.352470292186
 31
0.0
  0
INSERT
  5
2805A
330
265FF
100
AcDbEntity
  8
寸法
 62
     0
 48
50.0
370
    -2
100
AcDbBlockReference
  2
_DOTSMALL
 10
4415.512673767882
 20
6526.352470292185
 30
0.0
 41
100.0
 42
100.0
 43
100.0
 50
90.0
  0
INSERT
  5
2805B
330
265FF
100
AcDbEntity
  8
寸法
 62
     0
 48
50.0
370
    -2
100
AcDbBlockReference
  2
_DOTSMALL
 10
4415.512673767881
 20
5806.352470292186
 30
0.0
 41
100.0
 42
100.0
 43
100.0
 50
270.0
  0
MTEXT
  5
2805C
330
265FF
100
AcDbEntity
  8
寸法
 62
     7
 48
50.0
100
AcDbMText
 10
4315.500862744258
 20
6166.352470292187
 30
0.0
 40
120.0
 41
0.0
 71
     5
 72
     1
  1
\A1;扉の出720
  7
STYLE1
 11
0.0000000000000001
 21
1.0
 31
0.0
 73
     1
 44
1.0
1001
ACAD
1000
MTEXTBEGIN
1070
    73
1070
     1
1070
    44
1040
1.0
1070
    74
1070
     0
1000
MTEXTEND
  0
POINT
  5
2805D
330
265FF
100
AcDbEntity
  8
DEFPOINTS
 62
     0
 48
50.0
100
AcDbPoint
 10
4528.600000000002
 20
6526.352470292185
 30
0.0
  0
POINT
  5
2805E
330
265FF
100
AcDbEntity
  8
DEFPOINTS
 62
     0
 48
50.0
100
AcDbPoint
 10
4884.325326928807
 20
5806.352470292186
 30
0.0
  0
POINT
  5
2805F
330
265FF
100
AcDbEntity
  8
DEFPOINTS
 62
     0
 48
50.0
100
AcDbPoint
 10
4415.512673767881
 20
5806.352470292186
 30
0.0
  0
ENDBLK
  5
2660A
330
265FF
100
AcDbEntity
  8
0
 48
50.0
100
AcDbBlockEnd
  0
BLOCK
  5
26623
330
26618
100
AcDbEntity
  8
0
 48
50.0
100
AcDbBlockBegin
  2
*D31
 70
     1
 10
0.0
 20
0.0
 30
0.0
  3
*D31
  1

  0
LINE
  5
2804D
330
26618
100
AcDbEntity
  8
寸法
 62
     0
 48
50.0
370
    -2
100
AcDbLine
 10
5283.600000000006
 20
7006.352470292189
 30
0.0
 11
4951.285990614299
 21
7006.352470292189
 31
0.0
  0
LINE
  5
2804E
330
26618
100
AcDbEntity
  8
寸法
 62
     0
 48
50.0
370
    -2
100
AcDbLine
 10
5082.765475140899
 20
7486.352470292189
 30
0.0
 11
4951.285990614299
 21
7486.352470292189
 31
0.0
  0
LINE
  5
2804F
330
26618
100
AcDbEntity
  8
寸法
 62
     0
 48
50.0
370
    -2
100
AcDbLine
 10
5011.285990614299
 20
7006.352470292189
 30
0.0
 11
5011.285990614299
 21
7486.352470292189
 31
0.0
  0
LINE
  5
28050
330
26618
100
AcDbEntity
  8
寸法
 62
     0
 48
50.0
370
    -2
100
AcDbLine
 10
5011.285990614299
 20
7486.352470292189
 30
0.0
 11
5011.285990614299
 21
7932.958769504789
 31
0.0
  0
INSERT
  5
28051
330
26618
100
AcDbEntity
  8
寸法
 62
     0
 48
50.0
370
    -2
100
AcDbBlockReference
  2
_DOTSMALL
 10
5011.285990614299
 20
7006.352470292189
 30
0.0
 41
100.0
 42
100.0
 43
100.0
 50
270.0
  0
INSERT
  5
28052
330
26618
100
AcDbEntity
  8
寸法
 62
     0
 48
50.0
370
    -2
100
AcDbBlockReference
  2
_DOTSMALL
 10
5011.285990614299
 20
7486.352470292189
 30
0.0
 41
100.0
 42
100.0
 43
100.0
 50
90.0
  0
MTEXT
  5
28053
330
26618
100
AcDbEntity
  8
寸法
 62
     7
 48
50.0
100
AcDbMText
 10
4911.285990614299
 20
7778.911525410302
 30
0.0
 40
120.0
 41
0.0
 71
     5
 72
     1
  1
\A1;480
  7
STYLE1
 11
0.0000000000000001
 21
1.0
 31
0.0
 73
     1
 44
1.0
1001
ACAD
1000
MTEXTBEGIN
1070
    73
1070
     1
1070
    44
1040
1.0
1070
    74
1070
     0
1000
MTEXTEND
  0
POINT
  5
28054
330
26618
100
AcDbEntity
  8
DEFPOINTS
 62
     0
 48
50.0
100
AcDbPoint
 10
5303.600000000006
 20
7006.352470292189
 30
0.0
  0
POINT
  5
28055
330
26618
100
AcDbEntity
  8
DEFPOINTS
 62
     0
 48
50.0
100
AcDbPoint
 10
5102.765475140898
 20
7486.352470292189
 30
0.0
  0
POINT
  5
28056
330
26618
100
AcDbEntity
  8
DEFPOINTS
 62
     0
 48
50.0
100
AcDbPoint
 10
5011.285990614299
 20
7486.352470292189
 30
0.0
  0
ENDBLK
  5
26624
330
26618
100
AcDbEntity
  8
0
 48
50.0
100
AcDbBlockEnd
  0
BLOCK
  5
2662F
330
26625
100
AcDbEntity
  8
0
 48
50.0
100
AcDbBlockBegin
  2
*D32
 70
     1
 10
0.0
 20
0.0
 30
0.0
  3
*D32
  1

  0
LINE
  5
28044
330
26625
100
AcDbEntity
  8
寸法
 62
     0
 48
50.0
370
    -2
100
AcDbLine
 10
6875.599999999998
 20
7433.352470292189
 30
0.0
 11
6875.599999999998
 21
8272.618928386101
 31
0.0
  0
LINE
  5
28045
330
26625
100
AcDbEntity
  8
寸法
 62
     0
 48
50.0
370
    -2
100
AcDbLine
 10
4651.599999999998
 20
7433.352470292189
 30
0.0
 11
4651.599999999998
 21
8272.618928386101
 31
0.0
  0
LINE
  5
28046
330
26625
100
AcDbEntity
  8
寸法
 62
     0
 48
50.0
370
    -2
100
AcDbLine
 10
6875.599999999998
 20
8212.618928386103
 30
0.0
 11
4651.599999999998
 21
8212.618928386103
 31
0.0
  0
INSERT
  5
28047
330
26625
100
AcDbEntity
  8
寸法
 62
     0
 48
50.0
370
    -2
100
AcDbBlockReference
  2
_DOTSMALL
 10
6875.599999999998
 20
8212.618928386103
 30
0.0
 41
100.0
 42
100.0
 43
100.0
  0
INSERT
  5
28048
330
26625
100
AcDbEntity
  8
寸法
 62
     0
 48
50.0
370
    -2
100
AcDbBlockReference
  2
_DOTSMALL
 10
4651.599999999998
 20
8212.618928386103
 30
0.0
 41
100.0
 42
100.0
 43
100.0
 50
180.0
  0
MTEXT
  5
28049
330
26625
100
AcDbEntity
  8
寸法
 62
     7
 48
50.0
100
AcDbMText
 10
5763.599999999999
 20
8312.630739409724
 30
0.0
 40
120.0
 41
0.0
 71
     5
 72
     1
  1
\A1;2224
  7
STYLE1
 73
     1
 44
1.0
1001
ACAD
1000
MTEXTBEGIN
1070
    73
1070
     1
1070
    44
1040
1.0
1070
    74
1070
     0
1000
MTEXTEND
  0
POINT
  5
2804A
330
26625
100
AcDbEntity
  8
DEFPOINTS
 62
     0
 48
50.0
100
AcDbPoint
 10
6875.599999999998
 20
7413.35247029219
 30
0.0
  0
POINT
  5
2804B
330
26625
100
AcDbEntity
  8
DEFPOINTS
 62
     0
 48
50.0
100
AcDbPoint
 10
4651.599999999998
 20
7413.35247029219
 30
0.0
  0
POINT
  5
2804C
330
26625
100
AcDbEntity
  8
DEFPOINTS
 62
     0
 48
50.0
100
AcDbPoint
 10
4651.599999999998
 20
8212.618928386103
 30
0.0
  0
ENDBLK
  5
26630
330
26625
100
AcDbEntity
  8
0
 48
50.0
100
AcDbBlockEnd
  0
BLOCK
  5
2663B
330
26631
100
AcDbEntity
  8
0
 48
50.0
100
AcDbBlockBegin
  2
*D33
 70
     1
 10
0.0
 20
0.0
 30
0.0
  3
*D33
  1

  0
LINE
  5
2803B
330
26631
100
AcDbEntity
  8
寸法
 62
     0
 48
50.0
370
    -2
100
AcDbLine
 10
5353.600000000006
 20
7076.35247029219
 30
0.0
 11
5353.600000000006
 21
8028.96128696244
 31
0.0
  0
LINE
  5
2803C
330
26631
100
AcDbEntity
  8
寸法
 62
     0
 48
50.0
370
    -2
100
AcDbLine
 10
4528.599999999999
 20
7506.352470292189
 30
0.0
 11
4528.599999999999
 21
8028.96128696244
 31
0.0
  0
LINE
  5
2803D
330
26631
100
AcDbEntity
  8
寸法
 62
     0
 48
50.0
370
    -2
100
AcDbLine
 10
5353.600000000006
 20
7968.961286962439
 30
0.0
 11
4528.599999999999
 21
7968.961286962439
 31
0.0
  0
INSERT
  5
2803E
330
26631
100
AcDbEntity
  8
寸法
 62
     0
 48
50.0
370
    -2
100
AcDbBlockReference
  2
_DOTSMALL
 10
5353.600000000006
 20
7968.961286962439
 30
0.0
 41
100.0
 42
100.0
 43
100.0
  0
INSERT
  5
2803F
330
26631
100
AcDbEntity
  8
寸法
 62
     0
 48
50.0
370
    -2
100
AcDbBlockReference
  2
_DOTSMALL
 10
4528.599999999999
 20
7968.961286962439
 30
0.0
 41
100.0
 42
100.0
 43
100.0
 50
180.0
  0
MTEXT
  5
28040
330
26631
100
AcDbEntity
  8
寸法
 62
     7
 48
50.0
100
AcDbMText
 10
4941.100000000002
 20
8068.973097986061
 30
0.0
 40
120.0
 41
0.0
 71
     5
 72
     1
  1
\A1;825
  7
STYLE1
 73
     1
 44
1.0
1001
ACAD
1000
MTEXTBEGIN
1070
    73
1070
     1
1070
    44
1040
1.0
1070
    74
1070
     0
1000
MTEXTEND
  0
POINT
  5
28041
330
26631
100
AcDbEntity
  8
DEFPOINTS
 62
     0
 48
50.0
100
AcDbPoint
 10
5353.600000000006
 20
7056.352470292189
 30
0.0
  0
POINT
  5
28042
330
26631
100
AcDbEntity
  8
DEFPOINTS
 62
     0
 48
50.0
100
AcDbPoint
 10
4528.599999999999
 20
7486.352470292189
 30
0.0
  0
POINT
  5
28043
330
26631
100
AcDbEntity
  8
DEFPOINTS
 62
     0
 48
50.0
100
AcDbPoint
 10
4528.599999999999
 20
7968.961286962439
 30
0.0
  0
ENDBLK
  5
2663C
330
26631
100
AcDbEntity
  8
0
 48
50.0
100
AcDbBlockEnd
  0
BLOCK
  5
26655
330
2664A
100
AcDbEntity
  8
0
 48
50.0
100
AcDbBlockBegin
  2
*D34
 70
     1
 10
0.0
 20
0.0
 30
0.0
  3
*D34
  1

  0
LINE
  5
28031
330
2664A
100
AcDbEntity
  8
寸法
 62
     0
 48
50.0
370
    -2
100
AcDbLine
 10
4651.599999999998
 20
7433.352470292189
 30
0.0
 11
4651.599999999998
 21
8272.618928386101
 31
0.0
  0
LINE
  5
28032
330
2664A
100
AcDbEntity
  8
寸法
 62
     0
 48
50.0
370
    -2
100
AcDbLine
 10
4528.599999999999
 20
7506.352470292189
 30
0.0
 11
4528.599999999999
 21
8272.618928386101
 31
0.0
  0
LINE
  5
28033
330
2664A
100
AcDbEntity
  8
寸法
 62
     0
 48
50.0
370
    -2
100
AcDbLine
 10
4651.599999999998
 20
8212.618928386103
 30
0.0
 11
4528.599999999999
 21
8212.618928386103
 31
0.0
  0
LINE
  5
28034
330
2664A
100
AcDbEntity
  8
寸法
 62
     0
 48
50.0
370
    -2
100
AcDbLine
 10
4528.599999999999
 20
8212.618928386103
 30
0.0
 11
4117.008116907961
 21
8212.618928386103
 31
0.0
  0
INSERT
  5
28035
330
2664A
100
AcDbEntity
  8
寸法
 62
     0
 48
50.0
370
    -2
100
AcDbBlockReference
  2
_DOTSMALL
 10
4651.599999999998
 20
8212.618928386103
 30
0.0
 41
100.0
 42
100.0
 43
100.0
  0
INSERT
  5
28036
330
2664A
100
AcDbEntity
  8
寸法
 62
     0
 48
50.0
370
    -2
100
AcDbBlockReference
  2
_DOTSMALL
 10
4528.599999999999
 20
8212.618928386103
 30
0.0
 41
100.0
 42
100.0
 43
100.0
 50
180.0
  0
MTEXT
  5
28037
330
2664A
100
AcDbEntity
  8
寸法
 62
     7
 48
50.0
100
AcDbMText
 10
4255.4933982822
 20
8312.630739409724
 30
0.0
 40
120.0
 41
0.0
 71
     5
 72
     1
  1
\A1;123
  7
STYLE1
 73
     1
 44
1.0
1001
ACAD
1000
MTEXTBEGIN
1070
    73
1070
     1
1070
    44
1040
1.0
1070
    74
1070
     0
1000
MTEXTEND
  0
POINT
  5
28038
330
2664A
100
AcDbEntity
  8
DEFPOINTS
 62
     0
 48
50.0
100
AcDbPoint
 10
4651.599999999998
 20
7413.35247029219
 30
0.0
  0
POINT
  5
28039
330
2664A
100
AcDbEntity
  8
DEFPOINTS
 62
     0
 48
50.0
100
AcDbPoint
 10
4528.599999999999
 20
7486.352470292189
 30
0.0
  0
POINT
  5
2803A
330
2664A
100
AcDbEntity
  8
DEFPOINTS
 62
     0
 48
50.0
100
AcDbPoint
 10
4528.599999999999
 20
8212.618928386103
 30
0.0
  0
ENDBLK
  5
26656
330
2664A
100
AcDbEntity
  8
0
 48
50.0
100
AcDbBlockEnd
  0
BLOCK
  5
2666C
330
26661
100
AcDbEntity
  8
0
 48
50.0
100
AcDbBlockBegin
  2
*D35
 70
     1
 10
0.0
 20
0.0
 30
0.0
  3
*D35
  1

  0
LINE
  5
28027
330
26661
100
AcDbEntity
  8
寸法
 62
     0
 48
50.0
370
    -2
100
AcDbLine
 10
4508.599999999998
 20
7486.352470292189
 30
0.0
 11
3845.665006330071
 21
7486.352470292189
 31
0.0
  0
LINE
  5
28028
330
26661
100
AcDbEntity
  8
寸法
 62
     0
 48
50.0
370
    -2
100
AcDbLine
 10
4581.599999999999
 20
7363.35247029219
 30
0.0
 11
3845.665006330071
 21
7363.35247029219
 31
0.0
  0
LINE
  5
28029
330
26661
100
AcDbEntity
  8
寸法
 62
     0
 48
50.0
370
    -2
100
AcDbLine
 10
3905.665006330071
 20
7363.35247029219
 30
0.0
 11
3905.665006330071
 21
7486.352470292189
 31
0.0
  0
LINE
  5
2802A
330
26661
100
AcDbEntity
  8
寸法
 62
     0
 48
50.0
370
    -2
100
AcDbLine
 10
3905.665006330071
 20
7486.352470292189
 30
0.0
 11
3905.665006330071
 21
7897.944353384229
 31
0.0
  0
INSERT
  5
2802B
330
26661
100
AcDbEntity
  8
寸法
 62
     0
 48
50.0
370
    -2
100
AcDbBlockReference
  2
_DOTSMALL
 10
3905.665006330071
 20
7363.35247029219
 30
0.0
 41
100.0
 42
100.0
 43
100.0
 50
270.0
  0
INSERT
  5
2802C
330
26661
100
AcDbEntity
  8
寸法
 62
     0
 48
50.0
370
    -2
100
AcDbBlockReference
  2
_DOTSMALL
 10
3905.665006330071
 20
7486.352470292189
 30
0.0
 41
100.0
 42
100.0
 43
100.0
 50
90.0
  0
MTEXT
  5
2802D
330
26661
100
AcDbEntity
  8
寸法
 62
     7
 48
50.0
100
AcDbMText
 10
3805.653195306447
 20
7759.45907200999
 30
0.0
 40
120.0
 41
0.0
 71
     5
 72
     1
  1
\A1;123
  7
STYLE1
 11
0.0000000000000001
 21
1.0
 31
0.0
 73
     1
 44
1.0
1001
ACAD
1000
MTEXTBEGIN
1070
    73
1070
     1
1070
    44
1040
1.0
1070
    74
1070
     0
1000
MTEXTEND
  0
POINT
  5
2802E
330
26661
100
AcDbEntity
  8
DEFPOINTS
 62
     0
 48
50.0
100
AcDbPoint
 10
4528.599999999999
 20
7486.352470292189
 30
0.0
  0
POINT
  5
2802F
330
26661
100
AcDbEntity
  8
DEFPOINTS
 62
     0
 48
50.0
100
AcDbPoint
 10
4601.599999999998
 20
7363.35247029219
 30
0.0
  0
POINT
  5
28030
330
26661
100
AcDbEntity
  8
DEFPOINTS
 62
     0
 48
50.0
100
AcDbPoint
 10
3905.665006330071
 20
7363.35247029219
 30
0.0
  0
ENDBLK
  5
2666D
330
26661
100
AcDbEntity
  8
0
 48
50.0
100
AcDbBlockEnd
  0
BLOCK
  5
26677
330
2666E
100
AcDbEntity
  8
0
 48
50.0
100
AcDbBlockBegin
  2
*D36
 70
     1
 10
0.0
 20
0.0
 30
0.0
  3
*D36
  1

  0
LINE
  5
2801E
330
2666E
100
AcDbEntity
  8
寸法
 62
     0
 48
50.0
370
    -2
100
AcDbLine
 10
6993.600000000006
 20
7076.35247029219
 30
0.0
 11
6993.600000000006
 21
8028.96128696244
 31
0.0
  0
LINE
  5
2801F
330
2666E
100
AcDbEntity
  8
寸法
 62
     0
 48
50.0
370
    -2
100
AcDbLine
 10
6173.600000000006
 20
7076.35247029219
 30
0.0
 11
6173.600000000006
 21
8028.96128696244
 31
0.0
  0
LINE
  5
28020
330
2666E
100
AcDbEntity
  8
寸法
 62
     0
 48
50.0
370
    -2
100
AcDbLine
 10
6993.600000000006
 20
7968.961286962439
 30
0.0
 11
6173.600000000006
 21
7968.961286962439
 31
0.0
  0
INSERT
  5
28021
330
2666E
100
AcDbEntity
  8
寸法
 62
     0
 48
50.0
370
    -2
100
AcDbBlockReference
  2
_DOTSMALL
 10
6993.600000000006
 20
7968.961286962439
 30
0.0
 41
100.0
 42
100.0
 43
100.0
  0
INSERT
  5
28022
330
2666E
100
AcDbEntity
  8
寸法
 62
     0
 48
50.0
370
    -2
100
AcDbBlockReference
  2
_DOTSMALL
 10
6173.600000000006
 20
7968.961286962439
 30
0.0
 41
100.0
 42
100.0
 43
100.0
 50
180.0
  0
MTEXT
  5
28023
330
2666E
100
AcDbEntity
  8
寸法
 62
     7
 48
50.0
100
AcDbMText
 10
6583.600000000005
 20
8068.973097986061
 30
0.0
 40
120.0
 41
0.0
 71
     5
 72
     1
  1
\A1;820
  7
STYLE1
 73
     1
 44
1.0
1001
ACAD
1000
MTEXTBEGIN
1070
    73
1070
     1
1070
    44
1040
1.0
1070
    74
1070
     0
1000
MTEXTEND
  0
POINT
  5
28024
330
2666E
100
AcDbEntity
  8
DEFPOINTS
 62
     0
 48
50.0
100
AcDbPoint
 10
6993.600000000006
 20
7056.352470292189
 30
0.0
  0
POINT
  5
28025
330
2666E
100
AcDbEntity
  8
DEFPOINTS
 62
     0
 48
50.0
100
AcDbPoint
 10
6173.600000000006
 20
7056.352470292189
 30
0.0
  0
POINT
  5
28026
330
2666E
100
AcDbEntity
  8
DEFPOINTS
 62
     0
 48
50.0
100
AcDbPoint
 10
6173.600000000006
 20
7968.961286962439
 30
0.0
  0
ENDBLK
  5
26678
330
2666E
100
AcDbEntity
  8
0
 48
50.0
100
AcDbBlockEnd
  0
BLOCK
  5
26682
330
26679
100
AcDbEntity
  8
0
 48
50.0
100
AcDbBlockBegin
  2
*D37
 70
     1
 10
0.0
 20
0.0
 30
0.0
  3
*D37
  1

  0
LINE
  5
28015
330
26679
100
AcDbEntity
  8
寸法
 62
     0
 48
50.0
370
    -2
100
AcDbLine
 10
6173.600000000006
 20
7076.35247029219
 30
0.0
 11
6173.600000000006
 21
8028.96128696244
 31
0.0
  0
LINE
  5
28016
330
26679
100
AcDbEntity
  8
寸法
 62
     0
 48
50.0
370
    -2
100
AcDbLine
 10
5353.600000000006
 20
7076.35247029219
 30
0.0
 11
5353.600000000006
 21
8028.96128696244
 31
0.0
  0
LINE
  5
28017
330
26679
100
AcDbEntity
  8
寸法
 62
     0
 48
50.0
370
    -2
100
AcDbLine
 10
6173.600000000006
 20
7968.961286962439
 30
0.0
 11
5353.600000000006
 21
7968.961286962439
 31
0.0
  0
INSERT
  5
28018
330
26679
100
AcDbEntity
  8
寸法
 62
     0
 48
50.0
370
    -2
100
AcDbBlockReference
  2
_DOTSMALL
 10
6173.600000000006
 20
7968.961286962439
 30
0.0
 41
100.0
 42
100.0
 43
100.0
  0
INSERT
  5
28019
330
26679
100
AcDbEntity
  8
寸法
 62
     0
 48
50.0
370
    -2
100
AcDbBlockReference
  2
_DOTSMALL
 10
5353.600000000006
 20
7968.961286962439
 30
0.0
 41
100.0
 42
100.0
 43
100.0
 50
180.0
  0
MTEXT
  5
2801A
330
26679
100
AcDbEntity
  8
寸法
 62
     7
 48
50.0
100
AcDbMText
 10
5763.600000000006
 20
8068.973097986061
 30
0.0
 40
120.0
 41
0.0
 71
     5
 72
     1
  1
\A1;820
  7
STYLE1
 73
     1
 44
1.0
1001
ACAD
1000
MTEXTBEGIN
1070
    73
1070
     1
1070
    44
1040
1.0
1070
    74
1070
     0
1000
MTEXTEND
  0
POINT
  5
2801B
330
26679
100
AcDbEntity
  8
DEFPOINTS
 62
     0
 48
50.0
100
AcDbPoint
 10
6173.600000000006
 20
7056.352470292189
 30
0.0
  0
POINT
  5
2801C
330
26679
100
AcDbEntity
  8
DEFPOINTS
 62
     0
 48
50.0
100
AcDbPoint
 10
5353.600000000006
 20
7056.352470292189
 30
0.0
  0
POINT
  5
2801D
330
26679
100
AcDbEntity
  8
DEFPOINTS
 62
     0
 48
50.0
100
AcDbPoint
 10
5353.600000000006
 20
7968.961286962439
 30
0.0
  0
ENDBLK
  5
26683
330
26679
100
AcDbEntity
  8
0
 48
50.0
100
AcDbBlockEnd
  0
BLOCK
  5
2669B
330
26691
100
AcDbEntity
  8
0
 48
50.0
100
AcDbBlockBegin
  2
*D38
 70
     1
 10
0.0
 20
0.0
 30
0.0
  3
*D38
  1

  0
LINE
  5
2800C
330
26691
100
AcDbEntity
  8
寸法
 62
     0
 48
50.0
370
    -2
100
AcDbLine
 10
7813.600000000007
 20
7076.35247029219
 30
0.0
 11
7813.600000000007
 21
8028.96128696244
 31
0.0
  0
LINE
  5
2800D
330
26691
100
AcDbEntity
  8
寸法
 62
     0
 48
50.0
370
    -2
100
AcDbLine
 10
6993.600000000006
 20
7076.35247029219
 30
0.0
 11
6993.600000000006
 21
8028.96128696244
 31
0.0
  0
LINE
  5
2800E
330
26691
100
AcDbEntity
  8
寸法
 62
     0
 48
50.0
370
    -2
100
AcDbLine
 10
7813.600000000007
 20
7968.961286962439
 30
0.0
 11
6993.600000000006
 21
7968.961286962439
 31
0.0
  0
INSERT
  5
2800F
330
26691
100
AcDbEntity
  8
寸法
 62
     0
 48
50.0
370
    -2
100
AcDbBlockReference
  2
_DOTSMALL
 10
7813.600000000007
 20
7968.961286962439
 30
0.0
 41
100.0
 42
100.0
 43
100.0
  0
INSERT
  5
28010
330
26691
100
AcDbEntity
  8
寸法
 62
     0
 48
50.0
370
    -2
100
AcDbBlockReference
  2
_DOTSMALL
 10
6993.600000000006
 20
7968.961286962439
 30
0.0
 41
100.0
 42
100.0
 43
100.0
 50
180.0
  0
MTEXT
  5
28011
330
26691
100
AcDbEntity
  8
寸法
 62
     7
 48
50.0
100
AcDbMText
 10
7403.600000000006
 20
8068.973097986061
 30
0.0
 40
120.0
 41
0.0
 71
     5
 72
     1
  1
\A1;820
  7
STYLE1
 73
     1
 44
1.0
1001
ACAD
1000
MTEXTBEGIN
1070
    73
1070
     1
1070
    44
1040
1.0
1070
    74
1070
     0
1000
MTEXTEND
  0
POINT
  5
28012
330
26691
100
AcDbEntity
  8
DEFPOINTS
 62
     0
 48
50.0
100
AcDbPoint
 10
7813.600000000007
 20
7056.352470292189
 30
0.0
  0
POINT
  5
28013
330
26691
100
AcDbEntity
  8
DEFPOINTS
 62
     0
 48
50.0
100
AcDbPoint
 10
6993.600000000006
 20
7056.352470292189
 30
0.0
  0
POINT
  5
28014
330
26691
100
AcDbEntity
  8
DEFPOINTS
 62
     0
 48
50.0
100
AcDbPoint
 10
6993.600000000006
 20
7968.961286962439
 30
0.0
  0
ENDBLK
  5
2669C
330
26691
100
AcDbEntity
  8
0
 48
50.0
100
AcDbBlockEnd
  0
BLOCK
  5
266C0
330
266B6
100
AcDbEntity
  8
0
 48
50.0
100
AcDbBlockBegin
  2
*D39
 70
     1
 10
0.0
 20
0.0
 30
0.0
  3
*D39
  1

  0
LINE
  5
28003
330
266B6
100
AcDbEntity
  8
寸法
 62
     0
 48
50.0
370
    -2
100
AcDbLine
 10
11795.6
 20
7433.352470292189
 30
0.0
 11
11795.6
 21
8272.618928386101
 31
0.0
  0
LINE
  5
28004
330
266B6
100
AcDbEntity
  8
寸法
 62
     0
 48
50.0
370
    -2
100
AcDbLine
 10
9335.599999999997
 20
7433.352470292189
 30
0.0
 11
9335.599999999997
 21
8272.618928386101
 31
0.0
  0
LINE
  5
28005
330
266B6
100
AcDbEntity
  8
寸法
 62
     0
 48
50.0
370
    -2
100
AcDbLine
 10
11795.6
 20
8212.618928386103
 30
0.0
 11
9335.599999999997
 21
8212.618928386103
 31
0.0
  0
INSERT
  5
28006
330
266B6
100
AcDbEntity
  8
寸法
 62
     0
 48
50.0
370
    -2
100
AcDbBlockReference
  2
_DOTSMALL
 10
11795.6
 20
8212.618928386103
 30
0.0
 41
100.0
 42
100.0
 43
100.0
  0
INSERT
  5
28007
330
266B6
100
AcDbEntity
  8
寸法
 62
     0
 48
50.0
370
    -2
100
AcDbBlockReference
  2
_DOTSMALL
 10
9335.599999999997
 20
8212.618928386103
 30
0.0
 41
100.0
 42
100.0
 43
100.0
 50
180.0
  0
MTEXT
  5
28008
330
266B6
100
AcDbEntity
  8
寸法
 62
     7
 48
50.0
100
AcDbMText
 10
10565.6
 20
8312.630739409724
 30
0.0
 40
120.0
 41
0.0
 71
     5
 72
     1
  1
\A1;2460
  7
STYLE1
 73
     1
 44
1.0
1001
ACAD
1000
MTEXTBEGIN
1070
    73
1070
     1
1070
    44
1040
1.0
1070
    74
1070
     0
1000
MTEXTEND
  0
POINT
  5
28009
330
266B6
100
AcDbEntity
  8
DEFPOINTS
 62
     0
 48
50.0
100
AcDbPoint
 10
11795.6
 20
7413.35247029219
 30
0.0
  0
POINT
  5
2800A
330
266B6
100
AcDbEntity
  8
DEFPOINTS
 62
     0
 48
50.0
100
AcDbPoint
 10
9335.599999999997
 20
7413.35247029219
 30
0.0
  0
POINT
  5
2800B
330
266B6
100
AcDbEntity
  8
DEFPOINTS
 62
     0
 48
50.0
100
AcDbPoint
 10
9335.599999999997
 20
8212.618928386103
 30
0.0
  0
ENDBLK
  5
266C1
330
266B6
100
AcDbEntity
  8
0
 48
50.0
100
AcDbBlockEnd
  0
BLOCK
  5
266CC
330
266C2
100
AcDbEntity
  8
0
 48
50.0
100
AcDbBlockBegin
  2
*D40
 70
     1
 10
0.0
 20
0.0
 30
0.0
  3
*D40
  1

  0
LINE
  5
27FFA
330
266C2
100
AcDbEntity
  8
寸法
 62
     0
 48
50.0
370
    -2
100
AcDbLine
 10
11918.6
 20
7506.352470292189
 30
0.0
 11
11918.6
 21
8028.96128696244
 31
0.0
  0
LINE
  5
27FFB
330
266C2
100
AcDbEntity
  8
寸法
 62
     0
 48
50.0
370
    -2
100
AcDbLine
 10
11093.6
 20
7076.35247029219
 30
0.0
 11
11093.6
 21
8028.96128696244
 31
0.0
  0
LINE
  5
27FFC
330
266C2
100
AcDbEntity
  8
寸法
 62
     0
 48
50.0
370
    -2
100
AcDbLine
 10
11918.6
 20
7968.961286962439
 30
0.0
 11
11093.6
 21
7968.961286962439
 31
0.0
  0
INSERT
  5
27FFD
330
266C2
100
AcDbEntity
  8
寸法
 62
     0
 48
50.0
370
    -2
100
AcDbBlockReference
  2
_DOTSMALL
 10
11918.6
 20
7968.961286962439
 30
0.0
 41
100.0
 42
100.0
 43
100.0
  0
INSERT
  5
27FFE
330
266C2
100
AcDbEntity
  8
寸法
 62
     0
 48
50.0
370
    -2
100
AcDbBlockReference
  2
_DOTSMALL
 10
11093.6
 20
7968.961286962439
 30
0.0
 41
100.0
 42
100.0
 43
100.0
 50
180.0
  0
MTEXT
  5
27FFF
330
266C2
100
AcDbEntity
  8
寸法
 62
     7
 48
50.0
100
AcDbMText
 10
11506.1
 20
8068.973097986061
 30
0.0
 40
120.0
 41
0.0
 71
     5
 72
     1
  1
\A1;825
  7
STYLE1
 73
     1
 44
1.0
1001
ACAD
1000
MTEXTBEGIN
1070
    73
1070
     1
1070
    44
1040
1.0
1070
    74
1070
     0
1000
MTEXTEND
  0
POINT
  5
28000
330
266C2
100
AcDbEntity
  8
DEFPOINTS
 62
     0
 48
50.0
100
AcDbPoint
 10
11918.6
 20
7486.352470292189
 30
0.0
  0
POINT
  5
28001
330
266C2
100
AcDbEntity
  8
DEFPOINTS
 62
     0
 48
50.0
100
AcDbPoint
 10
11093.6
 20
7056.352470292189
 30
0.0
  0
POINT
  5
28002
330
266C2
100
AcDbEntity
  8
DEFPOINTS
 62
     0
 48
50.0
100
AcDbPoint
 10
11093.6
 20
7968.961286962439
 30
0.0
  0
ENDBLK
  5
266CD
330
266C2
100
AcDbEntity
  8
0
 48
50.0
100
AcDbBlockEnd
  0
BLOCK
  5
266D8
330
266CE
100
AcDbEntity
  8
0
 48
50.0
100
AcDbBlockBegin
  2
*D41
 70
     1
 10
0.0
 20
0.0
 30
0.0
  3
*D41
  1

  0
LINE
  5
27FF1
330
266CE
100
AcDbEntity
  8
寸法
 62
     0
 48
50.0
370
    -2
100
AcDbLine
 10
10273.6
 20
7076.35247029219
 30
0.0
 11
10273.6
 21
8028.96128696244
 31
0.0
  0
LINE
  5
27FF2
330
266CE
100
AcDbEntity
  8
寸法
 62
     0
 48
50.0
370
    -2
100
AcDbLine
 10
9453.600000000006
 20
7076.35247029219
 30
0.0
 11
9453.600000000006
 21
8028.96128696244
 31
0.0
  0
LINE
  5
27FF3
330
266CE
100
AcDbEntity
  8
寸法
 62
     0
 48
50.0
370
    -2
100
AcDbLine
 10
10273.6
 20
7968.961286962439
 30
0.0
 11
9453.600000000006
 21
7968.961286962439
 31
0.0
  0
INSERT
  5
27FF4
330
266CE
100
AcDbEntity
  8
寸法
 62
     0
 48
50.0
370
    -2
100
AcDbBlockReference
  2
_DOTSMALL
 10
10273.6
 20
7968.961286962439
 30
0.0
 41
100.0
 42
100.0
 43
100.0
  0
INSERT
  5
27FF5
330
266CE
100
AcDbEntity
  8
寸法
 62
     0
 48
50.0
370
    -2
100
AcDbBlockReference
  2
_DOTSMALL
 10
9453.600000000006
 20
7968.961286962439
 30
0.0
 41
100.0
 42
100.0
 43
100.0
 50
180.0
  0
MTEXT
  5
27FF6
330
266CE
100
AcDbEntity
  8
寸法
 62
     7
 48
50.0
100
AcDbMText
 10
9863.600000000007
 20
8068.973097986061
 30
0.0
 40
120.0
 41
0.0
 71
     5
 72
     1
  1
\A1;820
  7
STYLE1
 73
     1
 44
1.0
1001
ACAD
1000
MTEXTBEGIN
1070
    73
1070
     1
1070
    44
1040
1.0
1070
    74
1070
     0
1000
MTEXTEND
  0
POINT
  5
27FF7
330
266CE
100
AcDbEntity
  8
DEFPOINTS
 62
     0
 48
50.0
100
AcDbPoint
 10
10273.6
 20
7056.352470292189
 30
0.0
  0
POINT
  5
27FF8
330
266CE
100
AcDbEntity
  8
DEFPOINTS
 62
     0
 48
50.0
100
AcDbPoint
 10
9453.600000000006
 20
7056.352470292189
 30
0.0
  0
POINT
  5
27FF9
330
266CE
100
AcDbEntity
  8
DEFPOINTS
 62
     0
 48
50.0
100
AcDbPoint
 10
9453.600000000006
 20
7968.961286962439
 30
0.0
  0
ENDBLK
  5
266D9
330
266CE
100
AcDbEntity
  8
0
 48
50.0
100
AcDbBlockEnd
  0
BLOCK
  5
266E3
330
266DA
100
AcDbEntity
  8
0
 48
50.0
100
AcDbBlockBegin
  2
*D42
 70
     1
 10
0.0
 20
0.0
 30
0.0
  3
*D42
  1

  0
LINE
  5
27FE8
330
266DA
100
AcDbEntity
  8
寸法
 62
     0
 48
50.0
370
    -2
100
AcDbLine
 10
9453.600000000006
 20
7076.35247029219
 30
0.0
 11
9453.600000000006
 21
8028.96128696244
 31
0.0
  0
LINE
  5
27FE9
330
266DA
100
AcDbEntity
  8
寸法
 62
     0
 48
50.0
370
    -2
100
AcDbLine
 10
8633.600000000006
 20
7076.35247029219
 30
0.0
 11
8633.600000000006
 21
8028.96128696244
 31
0.0
  0
LINE
  5
27FEA
330
266DA
100
AcDbEntity
  8
寸法
 62
     0
 48
50.0
370
    -2
100
AcDbLine
 10
9453.600000000006
 20
7968.961286962439
 30
0.0
 11
8633.600000000006
 21
7968.961286962439
 31
0.0
  0
INSERT
  5
27FEB
330
266DA
100
AcDbEntity
  8
寸法
 62
     0
 48
50.0
370
    -2
100
AcDbBlockReference
  2
_DOTSMALL
 10
9453.600000000006
 20
7968.961286962439
 30
0.0
 41
100.0
 42
100.0
 43
100.0
  0
INSERT
  5
27FEC
330
266DA
100
AcDbEntity
  8
寸法
 62
     0
 48
50.0
370
    -2
100
AcDbBlockReference
  2
_DOTSMALL
 10
8633.600000000006
 20
7968.961286962439
 30
0.0
 41
100.0
 42
100.0
 43
100.0
 50
180.0
  0
MTEXT
  5
27FED
330
266DA
100
AcDbEntity
  8
寸法
 62
     7
 48
50.0
100
AcDbMText
 10
9043.600000000006
 20
8068.973097986061
 30
0.0
 40
120.0
 41
0.0
 71
     5
 72
     1
  1
\A1;820
  7
STYLE1
 73
     1
 44
1.0
1001
ACAD
1000
MTEXTBEGIN
1070
    73
1070
     1
1070
    44
1040
1.0
1070
    74
1070
     0
1000
MTEXTEND
  0
POINT
  5
27FEE
330
266DA
100
AcDbEntity
  8
DEFPOINTS
 62
     0
 48
50.0
100
AcDbPoint
 10
9453.600000000006
 20
7056.352470292189
 30
0.0
  0
POINT
  5
27FEF
330
266DA
100
AcDbEntity
  8
DEFPOINTS
 62
     0
 48
50.0
100
AcDbPoint
 10
8633.600000000006
 20
7056.352470292189
 30
0.0
  0
POINT
  5
27FF0
330
266DA
100
AcDbEntity
  8
DEFPOINTS
 62
     0
 48
50.0
100
AcDbPoint
 10
8633.600000000006
 20
7968.961286962439
 30
0.0
  0
ENDBLK
  5
266E4
330
266DA
100
AcDbEntity
  8
0
 48
50.0
100
AcDbBlockEnd
  0
BLOCK
  5
266EF
330
266E5
100
AcDbEntity
  8
0
 48
50.0
100
AcDbBlockBegin
  2
*D43
 70
     1
 10
0.0
 20
0.0
 30
0.0
  3
*D43
  1

  0
LINE
  5
27FDF
330
266E5
100
AcDbEntity
  8
寸法
 62
     0
 48
50.0
370
    -2
100
AcDbLine
 10
11093.6
 20
7076.35247029219
 30
0.0
 11
11093.6
 21
8028.96128696244
 31
0.0
  0
LINE
  5
27FE0
330
266E5
100
AcDbEntity
  8
寸法
 62
     0
 48
50.0
370
    -2
100
AcDbLine
 10
10273.6
 20
7076.35247029219
 30
0.0
 11
10273.6
 21
8028.96128696244
 31
0.0
  0
LINE
  5
27FE1
330
266E5
100
AcDbEntity
  8
寸法
 62
     0
 48
50.0
370
    -2
100
AcDbLine
 10
11093.6
 20
7968.961286962439
 30
0.0
 11
10273.6
 21
7968.961286962439
 31
0.0
  0
INSERT
  5
27FE2
330
266E5
100
AcDbEntity
  8
寸法
 62
     0
 48
50.0
370
    -2
100
AcDbBlockReference
  2
_DOTSMALL
 10
11093.6
 20
7968.961286962439
 30
0.0
 41
100.0
 42
100.0
 43
100.0
  0
INSERT
  5
27FE3
330
266E5
100
AcDbEntity
  8
寸法
 62
     0
 48
50.0
370
    -2
100
AcDbBlockReference
  2
_DOTSMALL
 10
10273.6
 20
7968.961286962439
 30
0.0
 41
100.0
 42
100.0
 43
100.0
 50
180.0
  0
MTEXT
  5
27FE4
330
266E5
100
AcDbEntity
  8
寸法
 62
     7
 48
50.0
100
AcDbMText
 10
10683.6
 20
8068.973097986061
 30
0.0
 40
120.0
 41
0.0
 71
     5
 72
     1
  1
\A1;820
  7
STYLE1
 73
     1
 44
1.0
1001
ACAD
1000
MTEXTBEGIN
1070
    73
1070
     1
1070
    44
1040
1.0
1070
    74
1070
     0
1000
MTEXTEND
  0
POINT
  5
27FE5
330
266E5
100
AcDbEntity
  8
DEFPOINTS
 62
     0
 48
50.0
100
AcDbPoint
 10
11093.6
 20
7056.352470292189
 30
0.0
  0
POINT
  5
27FE6
330
266E5
100
AcDbEntity
  8
DEFPOINTS
 62
     0
 48
50.0
100
AcDbPoint
 10
10273.6
 20
7056.352470292189
 30
0.0
  0
POINT
  5
27FE7
330
266E5
100
AcDbEntity
  8
DEFPOINTS
 62
     0
 48
50.0
100
AcDbPoint
 10
10273.6
 20
7968.961286962439
 30
0.0
  0
ENDBLK
  5
266F0
330
266E5
100
AcDbEntity
  8
0
 48
50.0
100
AcDbBlockEnd
  0
BLOCK
  5
26709
330
266FE
100
AcDbEntity
  8
0
 48
50.0
100
AcDbBlockBegin
  2
*D44
 70
     1
 10
0.0
 20
0.0
 30
0.0
  3
*D44
  1

  0
LINE
  5
27FD5
330
266FE
100
AcDbEntity
  8
寸法
 62
     0
 48
50.0
370
    -2
100
AcDbLine
 10
11918.6
 20
7506.352470292189
 30
0.0
 11
11918.6
 21
8272.618928386101
 31
0.0
  0
LINE
  5
27FD6
330
266FE
100
AcDbEntity
  8
寸法
 62
     0
 48
50.0
370
    -2
100
AcDbLine
 10
11795.6
 20
7433.352470292189
 30
0.0
 11
11795.6
 21
8272.618928386101
 31
0.0
  0
LINE
  5
27FD7
330
266FE
100
AcDbEntity
  8
寸法
 62
     0
 48
50.0
370
    -2
100
AcDbLine
 10
11795.6
 20
8212.618928386103
 30
0.0
 11
11918.6
 21
8212.618928386103
 31
0.0
  0
LINE
  5
27FD8
330
266FE
100
AcDbEntity
  8
寸法
 62
     0
 48
50.0
370
    -2
100
AcDbLine
 10
11918.6
 20
8212.618928386103
 30
0.0
 11
12330.19188309203
 21
8212.618928386103
 31
0.0
  0
INSERT
  5
27FD9
330
266FE
100
AcDbEntity
  8
寸法
 62
     0
 48
50.0
370
    -2
100
AcDbBlockReference
  2
_DOTSMALL
 10
11795.6
 20
8212.618928386103
 30
0.0
 41
100.0
 42
100.0
 43
100.0
 50
180.0
  0
INSERT
  5
27FDA
330
266FE
100
AcDbEntity
  8
寸法
 62
     0
 48
50.0
370
    -2
100
AcDbBlockReference
  2
_DOTSMALL
 10
11918.6
 20
8212.618928386103
 30
0.0
 41
100.0
 42
100.0
 43
100.0
  0
MTEXT
  5
27FDB
330
266FE
100
AcDbEntity
  8
寸法
 62
     7
 48
50.0
100
AcDbMText
 10
12191.70660171779
 20
8312.630739409724
 30
0.0
 40
120.0
 41
0.0
 71
     5
 72
     1
  1
\A1;123
  7
STYLE1
 73
     1
 44
1.0
1001
ACAD
1000
MTEXTBEGIN
1070
    73
1070
     1
1070
    44
1040
1.0
1070
    74
1070
     0
1000
MTEXTEND
  0
POINT
  5
27FDC
330
266FE
100
AcDbEntity
  8
DEFPOINTS
 62
     0
 48
50.0
100
AcDbPoint
 10
11918.6
 20
7486.352470292189
 30
0.0
  0
POINT
  5
27FDD
330
266FE
100
AcDbEntity
  8
DEFPOINTS
 62
     0
 48
50.0
100
AcDbPoint
 10
11795.6
 20
7413.35247029219
 30
0.0
  0
POINT
  5
27FDE
330
266FE
100
AcDbEntity
  8
DEFPOINTS
 62
     0
 48
50.0
100
AcDbPoint
 10
11795.6
 20
8212.618928386103
 30
0.0
  0
ENDBLK
  5
2670A
330
266FE
100
AcDbEntity
  8
0
 48
50.0
100
AcDbBlockEnd
  0
BLOCK
  5
27EB9
330
27EAD
100
AcDbEntity
  8
0
 48
50.0
100
AcDbBlockBegin
  2
*D45
 70
     1
 10
0.0
 20
0.0
 30
0.0
  3
*D45
  1

  0
LINE
  5
27FCA
330
27EAD
100
AcDbEntity
  8
寸法
 62
     0
 48
50.0
370
    -2
100
AcDbLine
 10
11918.6
 20
7506.352470292187
 30
0.0
 11
11918.6
 21
8504.572792351108
 31
0.0
  0
LINE
  5
27FCB
330
27EAD
100
AcDbEntity
  8
寸法
 62
     0
 48
50.0
370
    -2
100
AcDbLine
 10
11963.6
 20
8232.618928386097
 30
0.0
 11
11963.6
 21
8504.572792351108
 31
0.0
  0
LINE
  5
27FCC
330
27EAD
100
AcDbEntity
  8
寸法
 62
     0
 48
50.0
370
    -2
100
AcDbLine
 10
11918.6
 20
8444.572792351108
 30
0.0
 11
11818.6
 21
8444.572792351108
 31
0.0
  0
LINE
  5
27FCD
330
27EAD
100
AcDbEntity
  8
寸法
 62
     0
 48
50.0
370
    -2
100
AcDbLine
 10
11963.6
 20
8444.572792351108
 30
0.0
 11
12300.94924240491
 21
8444.572792351108
 31
0.0
  0
LINE
  5
27FCE
330
27EAD
100
AcDbEntity
  8
寸法
 62
     0
 48
50.0
370
    -2
100
AcDbLine
 10
11918.6
 20
8444.572792351108
 30
0.0
 11
11963.6
 21
8444.572792351108
 31
0.0
  0
INSERT
  5
27FCF
330
27EAD
100
AcDbEntity
  8
寸法
 62
     0
 48
50.0
370
    -2
100
AcDbBlockReference
  2
_DOTSMALL
 10
11918.6
 20
8444.572792351108
 30
0.0
 41
100.0
 42
100.0
 43
100.0
  0
INSERT
  5
27FD0
330
27EAD
100
AcDbEntity
  8
寸法
 62
     0
 48
50.0
370
    -2
100
AcDbBlockReference
  2
_DOTSMALL
 10
11963.6
 20
8444.572792351108
 30
0.0
 41
100.0
 42
100.0
 43
100.0
 50
180.0
  0
MTEXT
  5
27FD1
330
27EAD
100
AcDbEntity
  8
寸法
 62
     7
 48
50.0
100
AcDbMText
 10
12234.77462120245
 20
8544.572792351107
 30
0.0
 40
120.0
 41
0.0
 71
     5
 72
     1
  1
\A1;a
  7
STYLE1
 73
     1
 44
1.0
1001
ACAD
1000
MTEXTBEGIN
1070
    73
1070
     1
1070
    44
1040
1.0
1070
    74
1070
     0
1000
MTEXTEND
  0
POINT
  5
27FD2
330
27EAD
100
AcDbEntity
  8
DEFPOINTS
 62
     0
 48
50.0
100
AcDbPoint
 10
11918.6
 20
7486.352470292186
 30
0.0
  0
POINT
  5
27FD3
330
27EAD
100
AcDbEntity
  8
DEFPOINTS
 62
     0
 48
50.0
100
AcDbPoint
 10
11963.6
 20
8212.618928386097
 30
0.0
  0
POINT
  5
27FD4
330
27EAD
100
AcDbEntity
  8
DEFPOINTS
 62
     0
 48
50.0
100
AcDbPoint
 10
11963.6
 20
8444.572792351108
 30
0.0
  0
ENDBLK
  5
27EBA
330
27EAD
100
AcDbEntity
  8
0
 48
50.0
100
AcDbBlockEnd
  0
BLOCK
  5
28429
330
2841F
100
AcDbEntity
  8
0
 48
50.0
100
AcDbBlockBegin
  2
*D46
 70
     1
 10
0.0
 20
0.0
 30
0.0
  3
*D46
  1

  0
LINE
  5
28469
330
2841F
100
AcDbEntity
  8
寸法
 62
     0
 48
50.0
370
    -2
100
AcDbLine
 10
8437.038798243982
 20
1957.617168320541
 30
0.0
 11
8978.907398012827
 21
1957.617168320541
 31
0.0
  0
LINE
  5
2846A
330
2841F
100
AcDbEntity
  8
寸法
 62
     0
 48
50.0
370
    -2
100
AcDbLine
 10
8437.038798243982
 20
1633.61716832054
 30
0.0
 11
8978.907398012827
 21
1633.61716832054
 31
0.0
  0
LINE
  5
2846B
330
2841F
100
AcDbEntity
  8
寸法
 62
     0
 48
50.0
370
    -2
100
AcDbLine
 10
8918.907398012827
 20
1957.617168320541
 30
0.0
 11
8918.907398012827
 21
1633.61716832054
 31
0.0
  0
INSERT
  5
2846C
330
2841F
100
AcDbEntity
  8
寸法
 62
     0
 48
50.0
370
    -2
100
AcDbBlockReference
  2
_DOTSMALL
 10
8918.907398012827
 20
1957.617168320541
 30
0.0
 41
100.0
 42
100.0
 43
100.0
 50
90.0
  0
INSERT
  5
2846D
330
2841F
100
AcDbEntity
  8
寸法
 62
     0
 48
50.0
370
    -2
100
AcDbBlockReference
  2
_DOTSMALL
 10
8918.907398012827
 20
1633.61716832054
 30
0.0
 41
100.0
 42
100.0
 43
100.0
 50
270.0
  0
MTEXT
  5
2846E
330
2841F
100
AcDbEntity
  8
寸法
 62
     7
 48
50.0
100
AcDbMText
 10
8818.907398012827
 20
1795.617168320542
 30
0.0
 40
120.0
 41
0.0
 71
     5
 72
     1
  1
\A1;180
  7
STYLE1
 11
0.0000000000000001
 21
1.0
 31
0.0
 73
     1
 44
1.0
1001
ACAD
1000
MTEXTBEGIN
1070
    73
1070
     1
1070
    44
1040
1.0
1070
    74
1070
     0
1000
MTEXTEND
  0
POINT
  5
2846F
330
2841F
100
AcDbEntity
  8
DEFPOINTS
 62
     0
 48
50.0
100
AcDbPoint
 10
8417.038798243982
 20
1957.617168320541
 30
0.0
  0
POINT
  5
28470
330
2841F
100
AcDbEntity
  8
DEFPOINTS
 62
     0
 48
50.0
100
AcDbPoint
 10
8417.038798243982
 20
1633.61716832054
 30
0.0
  0
POINT
  5
28471
330
2841F
100
AcDbEntity
  8
DEFPOINTS
 62
     0
 48
50.0
100
AcDbPoint
 10
8918.907398012827
 20
1633.61716832054
 30
0.0
  0
ENDBLK
  5
2842A
330
2841F
100
AcDbEntity
  8
0
 48
50.0
100
AcDbBlockEnd
  0
BLOCK
  5
28437
330
2842B
100
AcDbEntity
  8
0
 48
50.0
100
AcDbBlockBegin
  2
*D47
 70
     1
 10
0.0
 20
0.0
 30
0.0
  3
*D47
  1

  0
LINE
  5
28472
330
2842B
100
AcDbEntity
  8
寸法
 62
     0
 48
50.0
370
    -2
100
AcDbLine
 10
8249.838798243983
 20
2010.377168320542
 30
0.0
 11
9254.962064131854
 21
2010.377168320542
 31
0.0
  0
LINE
  5
28473
330
2842B
100
AcDbEntity
  8
寸法
 62
     0
 48
50.0
370
    -2
100
AcDbLine
 10
8437.038798243982
 20
1957.617168320541
 30
0.0
 11
9254.962064131854
 21
1957.617168320541
 31
0.0
  0
LINE
  5
28474
330
2842B
100
AcDbEntity
  8
寸法
 62
     0
 48
50.0
370
    -2
100
AcDbLine
 10
9194.962064131855
 20
2010.377168320542
 30
0.0
 11
9194.962064131855
 21
2110.377168320543
 31
0.0
  0
LINE
  5
28475
330
2842B
100
AcDbEntity
  8
寸法
 62
     0
 48
50.0
370
    -2
100
AcDbLine
 10
9194.962064131855
 20
1957.617168320541
 30
0.0
 11
9194.962064131855
 21
1225.599361477575
 31
0.0
  0
LINE
  5
28476
330
2842B
100
AcDbEntity
  8
寸法
 62
     0
 48
50.0
370
    -2
100
AcDbLine
 10
9194.962064131855
 20
2010.377168320542
 30
0.0
 11
9194.962064131855
 21
1957.617168320541
 31
0.0
  0
INSERT
  5
28477
330
2842B
100
AcDbEntity
  8
寸法
 62
     0
 48
50.0
370
    -2
100
AcDbBlockReference
  2
_DOTSMALL
 10
9194.962064131855
 20
2010.377168320542
 30
0.0
 41
100.0
 42
100.0
 43
100.0
 50
270.0
  0
INSERT
  5
28478
330
2842B
100
AcDbEntity
  8
寸法
 62
     0
 48
50.0
370
    -2
100
AcDbBlockReference
  2
_DOTSMALL
 10
9194.962064131855
 20
1957.617168320541
 30
0.0
 41
100.0
 42
100.0
 43
100.0
 50
90.0
  0
MTEXT
  5
28479
330
2842B
100
AcDbEntity
  8
寸法
 62
     7
 48
50.0
100
AcDbMText
 10
9094.950253108233
 20
1491.608264899058
 30
0.0
 40
120.0
 41
0.0
 71
     5
 72
     1
  1
\A1;20～25
  7
STYLE1
 11
0.0000000000000001
 21
1.0
 31
0.0
 73
     1
 44
1.0
1001
ACAD
1000
MTEXTBEGIN
1070
    73
1070
     1
1070
    44
1040
1.0
1070
    74
1070
     0
1000
MTEXTEND
  0
POINT
  5
2847A
330
2842B
100
AcDbEntity
  8
DEFPOINTS
 62
     0
 48
50.0
100
AcDbPoint
 10
8229.838798243983
 20
2010.377168320542
 30
0.0
  0
POINT
  5
2847B
330
2842B
100
AcDbEntity
  8
DEFPOINTS
 62
     0
 48
50.0
100
AcDbPoint
 10
8417.038798243982
 20
1957.617168320541
 30
0.0
  0
POINT
  5
2847C
330
2842B
100
AcDbEntity
  8
DEFPOINTS
 62
     0
 48
50.0
100
AcDbPoint
 10
9194.962064131855
 20
1957.617168320541
 30
0.0
  0
ENDBLK
  5
28438
330
2842B
100
AcDbEntity
  8
0
 48
50.0
100
AcDbBlockEnd
  0
BLOCK
  5
28443
330
28439
100
AcDbEntity
  8
0
 48
50.0
100
AcDbBlockBegin
  2
*D48
 70
     1
 10
0.0
 20
0.0
 30
0.0
  3
*D48
  1

  0
LINE
  5
2847D
330
28439
100
AcDbEntity
  8
寸法
 62
     0
 48
50.0
370
    -2
100
AcDbLine
 10
6154.999485066789
 20
1413.617168320541
 30
0.0
 11
5972.57917133433
 21
1413.617168320541
 31
0.0
  0
LINE
  5
2847E
330
28439
100
AcDbEntity
  8
寸法
 62
     0
 48
50.0
370
    -2
100
AcDbLine
 10
6074.999485066792
 20
1173.617168320541
 30
0.0
 11
5972.57917133433
 21
1173.617168320541
 31
0.0
  0
LINE
  5
2847F
330
28439
100
AcDbEntity
  8
寸法
 62
     0
 48
50.0
370
    -2
100
AcDbLine
 10
6032.579171334329
 20
1413.617168320541
 30
0.0
 11
6032.579171334329
 21
1173.617168320541
 31
0.0
  0
INSERT
  5
28480
330
28439
100
AcDbEntity
  8
寸法
 62
     0
 48
50.0
370
    -2
100
AcDbBlockReference
  2
_DOTSMALL
 10
6032.579171334329
 20
1413.617168320541
 30
0.0
 41
100.0
 42
100.0
 43
100.0
 50
90.0
  0
INSERT
  5
28481
330
28439
100
AcDbEntity
  8
寸法
 62
     0
 48
50.0
370
    -2
100
AcDbBlockReference
  2
_DOTSMALL
 10
6032.579171334329
 20
1173.617168320541
 30
0.0
 41
100.0
 42
100.0
 43
100.0
 50
270.0
  0
MTEXT
  5
28482
330
28439
100
AcDbEntity
  8
寸法
 62
     7
 48
50.0
100
AcDbMText
 10
5932.57917133433
 20
1293.617168320542
 30
0.0
 40
120.0
 41
0.0
 71
     5
 72
     1
  1
\A1;150
  7
STYLE1
 11
0.0000000000000001
 21
1.0
 31
0.0
 73
     1
 44
1.0
1001
ACAD
1000
MTEXTBEGIN
1070
    73
1070
     1
1070
    44
1040
1.0
1070
    74
1070
     0
1000
MTEXTEND
  0
POINT
  5
28483
330
28439
100
AcDbEntity
  8
DEFPOINTS
 62
     0
 48
50.0
100
AcDbPoint
 10
6174.999485066789
 20
1413.617168320541
 30
0.0
  0
POINT
  5
28484
330
28439
100
AcDbEntity
  8
DEFPOINTS
 62
     0
 48
50.0
100
AcDbPoint
 10
6094.999485066793
 20
1173.617168320541
 30
0.0
  0
POINT
  5
28485
330
28439
100
AcDbEntity
  8
DEFPOINTS
 62
     0
 48
50.0
100
AcDbPoint
 10
6032.579171334329
 20
1173.617168320541
 30
0.0
  0
ENDBLK
  5
28444
330
28439
100
AcDbEntity
  8
0
 48
50.0
100
AcDbBlockEnd
  0
BLOCK
  5
2844F
330
28445
100
AcDbEntity
  8
0
 48
50.0
100
AcDbBlockBegin
  2
*D49
 70
     1
 10
0.0
 20
0.0
 30
0.0
  3
*D49
  1

  0
LINE
  5
28486
330
28445
100
AcDbEntity
  8
寸法
 62
     0
 48
50.0
370
    -2
100
AcDbLine
 10
6282.999485066789
 20
1957.617168320541
 30
0.0
 11
5507.962246505049
 21
1957.617168320541
 31
0.0
  0
LINE
  5
28487
330
28445
100
AcDbEntity
  8
寸法
 62
     0
 48
50.0
370
    -2
100
AcDbLine
 10
6074.999485066792
 20
1173.617168320541
 30
0.0
 11
5507.962246505049
 21
1173.617168320541
 31
0.0
  0
LINE
  5
28488
330
28445
100
AcDbEntity
  8
寸法
 62
     0
 48
50.0
370
    -2
100
AcDbLine
 10
5567.962246505049
 20
1957.617168320541
 30
0.0
 11
5567.962246505049
 21
1173.617168320541
 31
0.0
  0
INSERT
  5
28489
330
28445
100
AcDbEntity
  8
寸法
 62
     0
 48
50.0
370
    -2
100
AcDbBlockReference
  2
_DOTSMALL
 10
5567.962246505049
 20
1957.617168320541
 30
0.0
 41
100.0
 42
100.0
 43
100.0
 50
90.0
  0
INSERT
  5
2848A
330
28445
100
AcDbEntity
  8
寸法
 62
     0
 48
50.0
370
    -2
100
AcDbBlockReference
  2
_DOTSMALL
 10
5567.962246505049
 20
1173.617168320541
 30
0.0
 41
100.0
 42
100.0
 43
100.0
 50
270.0
  0
MTEXT
  5
2848B
330
28445
100
AcDbEntity
  8
寸法
 62
     7
 48
50.0
100
AcDbMText
 10
5467.962246505049
 20
1545.157317976542
 30
0.0
 40
120.0
 41
0.0
 71
     5
 72
     1
  1
\A1;540
  7
STYLE1
 11
0.0000000000000001
 21
1.0
 31
0.0
 73
     1
 44
1.0
1001
ACAD
1000
MTEXTBEGIN
1070
    73
1070
     1
1070
    44
1040
1.0
1070
    74
1070
     0
1000
MTEXTEND
  0
POINT
  5
2848C
330
28445
100
AcDbEntity
  8
DEFPOINTS
 62
     0
 48
50.0
100
AcDbPoint
 10
6302.999485066789
 20
1957.617168320541
 30
0.0
  0
POINT
  5
2848D
330
28445
100
AcDbEntity
  8
DEFPOINTS
 62
     0
 48
50.0
100
AcDbPoint
 10
6094.999485066793
 20
1173.617168320541
 30
0.0
  0
POINT
  5
2848E
330
28445
100
AcDbEntity
  8
DEFPOINTS
 62
     0
 48
50.0
100
AcDbPoint
 10
5567.962246505049
 20
1173.617168320541
 30
0.0
  0
ENDBLK
  5
28450
330
28445
100
AcDbEntity
  8
0
 48
50.0
100
AcDbBlockEnd
  0
BLOCK
  5
2845B
330
28451
100
AcDbEntity
  8
0
 48
50.0
100
AcDbBlockBegin
  2
*D50
 70
     1
 10
0.0
 20
0.0
 30
0.0
  3
*D50
  1

  0
LINE
  5
2848F
330
28451
100
AcDbEntity
  8
寸法
 62
     0
 48
50.0
370
    -2
100
AcDbLine
 10
6174.999485066789
 20
1025.617168320541
 30
0.0
 11
6174.999485066789
 21
575.187530315381
 31
0.0
  0
LINE
  5
28490
330
28451
100
AcDbEntity
  8
寸法
 62
     0
 48
50.0
370
    -2
100
AcDbLine
 10
6622.999485066789
 20
1025.617168320541
 30
0.0
 11
6622.999485066789
 21
575.187530315381
 31
0.0
  0
LINE
  5
28491
330
28451
100
AcDbEntity
  8
寸法
 62
     0
 48
50.0
370
    -2
100
AcDbLine
 10
6174.999485066789
 20
635.1875303153811
 30
0.0
 11
6622.999485066789
 21
635.1875303153811
 31
0.0
  0
INSERT
  5
28492
330
28451
100
AcDbEntity
  8
寸法
 62
     0
 48
50.0
370
    -2
100
AcDbBlockReference
  2
_DOTSMALL
 10
6174.999485066789
 20
635.1875303153811
 30
0.0
 41
100.0
 42
100.0
 43
100.0
 50
180.0
  0
INSERT
  5
28493
330
28451
100
AcDbEntity
  8
寸法
 62
     0
 48
50.0
370
    -2
100
AcDbBlockReference
  2
_DOTSMALL
 10
6622.999485066789
 20
635.1875303153811
 30
0.0
 41
100.0
 42
100.0
 43
100.0
  0
MTEXT
  5
28494
330
28451
100
AcDbEntity
  8
寸法
 62
     7
 48
50.0
100
AcDbMText
 10
6378.902726388566
 20
735.1875303153811
 30
0.0
 40
120.0
 41
0.0
 71
     5
 72
     1
  1
\A1;300
  7
STYLE1
 73
     1
 44
1.0
1001
ACAD
1000
MTEXTBEGIN
1070
    73
1070
     1
1070
    44
1040
1.0
1070
    74
1070
     0
1000
MTEXTEND
  0
POINT
  5
28495
330
28451
100
AcDbEntity
  8
DEFPOINTS
 62
     0
 48
50.0
100
AcDbPoint
 10
6174.999485066789
 20
1045.617168320541
 30
0.0
  0
POINT
  5
28496
330
28451
100
AcDbEntity
  8
DEFPOINTS
 62
     0
 48
50.0
100
AcDbPoint
 10
6622.999485066789
 20
1045.617168320541
 30
0.0
  0
POINT
  5
28497
330
28451
100
AcDbEntity
  8
DEFPOINTS
 62
     0
 48
50.0
100
AcDbPoint
 10
6622.999485066789
 20
635.1875303153811
 30
0.0
  0
ENDBLK
  5
2845C
330
28451
100
AcDbEntity
  8
0
 48
50.0
100
AcDbBlockEnd
  0
BLOCK
  5
28467
330
2845D
100
AcDbEntity
  8
0
 48
50.0
100
AcDbBlockBegin
  2
*D51
 70
     1
 10
0.0
 20
0.0
 30
0.0
  3
*D51
  1

  0
LINE
  5
28498
330
2845D
100
AcDbEntity
  8
寸法
 62
     0
 48
50.0
370
    -2
100
AcDbLine
 10
6494.999485066789
 20
1977.617168320541
 30
0.0
 11
6494.999485066789
 21
2437.284976236921
 31
0.0
  0
LINE
  5
28499
330
2845D
100
AcDbEntity
  8
寸法
 62
     0
 48
50.0
370
    -2
100
AcDbLine
 10
6302.999485066789
 20
1977.617168320541
 30
0.0
 11
6302.999485066789
 21
2437.284976236921
 31
0.0
  0
LINE
  5
2849A
330
2845D
100
AcDbEntity
  8
寸法
 62
     0
 48
50.0
370
    -2
100
AcDbLine
 10
6494.999485066789
 20
2377.284976236921
 30
0.0
 11
6302.999485066789
 21
2377.284976236921
 31
0.0
  0
INSERT
  5
2849B
330
2845D
100
AcDbEntity
  8
寸法
 62
     0
 48
50.0
370
    -2
100
AcDbBlockReference
  2
_DOTSMALL
 10
6494.999485066789
 20
2377.284976236921
 30
0.0
 41
100.0
 42
100.0
 43
100.0
  0
INSERT
  5
2849C
330
2845D
100
AcDbEntity
  8
寸法
 62
     0
 48
50.0
370
    -2
100
AcDbBlockReference
  2
_DOTSMALL
 10
6302.999485066789
 20
2377.284976236921
 30
0.0
 41
100.0
 42
100.0
 43
100.0
 50
180.0
  0
MTEXT
  5
2849D
330
2845D
100
AcDbEntity
  8
寸法
 62
     7
 48
50.0
100
AcDbMText
 10
6398.999485066789
 20
2677.320409307788
 30
0.0
 40
120.0
 41
0.0
 71
     5
 72
     1
  1
\A1;120\P200\P280
  7
STYLE1
 73
     1
 44
1.0
1001
ACAD
1000
MTEXTBEGIN
1070
    73
1070
     1
1070
    44
1040
1.0
1070
    74
1070
     0
1000
MTEXTEND
  0
POINT
  5
2849E
330
2845D
100
AcDbEntity
  8
DEFPOINTS
 62
     0
 48
50.0
100
AcDbPoint
 10
6494.999485066789
 20
1957.617168320541
 30
0.0
  0
POINT
  5
2849F
330
2845D
100
AcDbEntity
  8
DEFPOINTS
 62
     0
 48
50.0
100
AcDbPoint
 10
6302.999485066789
 20
1957.617168320541
 30
0.0
  0
POINT
  5
284A0
330
2845D
100
AcDbEntity
  8
DEFPOINTS
 62
     0
 48
50.0
100
AcDbPoint
 10
6302.999485066789
 20
2377.284976236921
 30
0.0
  0
ENDBLK
  5
28468
330
2845D
100
AcDbEntity
  8
0
 48
50.0
100
AcDbBlockEnd
  0
ENDSEC
  0
SECTION
  2
ENTITIES
  0
MTEXT
  5
763F
330
747D
100
AcDbEntity
  8
0
100
AcDbMText
 10
302.846345836809
 20
280.1983726409901
 30
0.0
 40
3.5
 41
5.323721266742722
 71
     1
 72
     5
  1

  7
MSMINCHO
 73
     1
 44
1.0
1001
ACAD
1000
MTEXTBEGIN
1070
    73
1070
     1
1070
    44
1040
1.0
1070
    74
1070
     0
1000
MTEXTEND
  0
LINE
  5
10B57
330
747D
100
AcDbEntity
  8
補助
  6
PHANTOM
 62
   230
 48
50.0
100
AcDbLine
 10
139.9999999999995
 20
11409.6
 30
0.0
 11
16307.2
 21
11409.6
 31
0.0
  0
LINE
  5
10B59
330
747D
100
AcDbEntity
  8
仕様書枠
  6
Continuous
 48
50.0
100
AcDbLine
 10
13107.2
 20
1200.0
 30
0.0
 11
13107.2
 21
-0.0000000000000729
 31
0.0
  0
LINE
  5
10B5D
330
747D
100
AcDbEntity
  8
仕様書枠
 48
50.0
100
AcDbLine
 10
140.0
 20
0.0
 30
0.0
 11
16307.2
 21
-0.0000000000000909
 31
0.0
  0
LINE
  5
10B5E
330
747D
100
AcDbEntity
  8
補助
  6
PHANTOM
 62
   230
 48
50.0
100
AcDbLine
 10
16307.2
 20
11409.6
 30
0.0
 11
16307.2
 21
1200.0
 31
0.0
  0
LINE
  5
10B6C
330
747D
100
AcDbEntity
  8
仕様書枠
 48
50.0
100
AcDbLine
 10
13107.2
 20
1200.0
 30
0.0
 11
16307.2
 21
1200.0
 31
0.0
  0
TEXT
  5
10B73
330
747D
100
AcDbEntity
  8
文字
 62
     7
 48
50.0
100
AcDbText
 10
13162.9790565769
 20
895.0906074299405
 30
0.0
 40
200.0
  1
基 礎 図
  7
STYLE2
100
AcDbText
  0
LINE
  5
10B7B
330
747D
100
AcDbEntity
  8
仕様書枠
 48
50.0
100
AcDbLine
 10
13107.2
 20
800.0
 30
0.0
 11
14251.2
 21
800.0
 31
0.0
  0
LINE
  5
10B88
330
747D
100
AcDbEntity
  8
仕様書枠
  6
Continuous
 48
50.0
100
AcDbLine
 10
14251.2
 20
1200.0
 30
0.0
 11
14251.2
 21
800.0
 31
0.0
  0
LINE
  5
16462
330
747D
100
AcDbEntity
  8
仕様書枠
 48
50.0
100
AcDbLine
 10
16307.2
 20
1200.0
 30
0.0
 11
16307.2
 21
-0.0000000000000909
 31
0.0
  0
LINE
  5
1903B
330
747D
100
AcDbEntity
  8
補助
  6
PHANTOM
 62
   230
 48
50.0
100
AcDbLine
 10
140.0
 20
0.0
 30
0.0
 11
139.9999999999995
 21
11409.6
 31
0.0
  0
LEADER
  5
1AC27
330
747D
100
AcDbEntity
  8
寸法
 48
50.0
100
AcDbLeader
  3
INABA_S50G
 73
     0
 74
     0
 75
     1
 40
120.0
 41
720.0000000000001
 76
     3
 10
11918.69549961499
 20
7090.455921479382
 30
0.0
 10
12075.46907400127
 20
6829.442007911549
 30
0.0
 10
12200.46907400128
 20
6829.442007911549
 30
0.0
340
1AC28
1001
ACAD
1000
DSTYLE
1002
{
1070
   341
1005
0
1070
    40
1040
1.0
1070
   343
1005
0
1070
   344
1005
0
1002
}
  0
MTEXT
  5
1AC28
102
{ACAD_REACTORS
330
1AC27
102
}
330
747D
100
AcDbEntity
  8
部品1
 62
     7
 48
50.0
100
AcDbMText
 10
12945.46907400128
 20
6914.442007911549
 30
0.0
 40
120.0
 41
0.0
 71
     6
 72
     1
  1
\A1;床下換気口
  7
STYLE1
 73
     1
 44
1.0
1001
ACAD
1000
MTEXTBEGIN
1070
    73
1070
     1
1070
    44
1040
1.0
1070
    74
1070
     0
1000
MTEXTEND
  0
TEXT
  5
1AC29
330
747D
100
AcDbEntity
  8
部品1
 48
50.0
100
AcDbText
 10
12267.43013846117
 20
6251.261568955422
 30
0.0
 40
80.0
  1
(a=45,b=55,c=75)
  7
STYLE1
100
AcDbText
  0
TEXT
  5
1AC2A
330
747D
100
AcDbEntity
  8
部品1
 48
50.0
100
AcDbText
 10
12108.85112970687
 20
6358.106789824176
 30
0.0
 40
80.0
  1
※a,b,cは屋根の出幅です。
  7
STYLE1
100
AcDbText
  0
MTEXT
  5
1AC2B
102
{ACAD_REACTORS
330
1AC2C
102
}
330
747D
100
AcDbEntity
  8
部品1
 62
     7
 48
50.0
100
AcDbMText
 10
12906.63832569547
 20
6537.417476757251
 30
0.0
 40
120.0
 41
0.0
 71
     6
 72
     1
  1
\A1;屋根の外寸
  7
STYLE1
 73
     1
 44
1.0
1001
ACAD
1000
MTEXTBEGIN
1070
    73
1070
     1
1070
    44
1040
1.0
1070
    74
1070
     0
1000
MTEXTEND
  0
LEADER
  5
1AC2C
330
747D
100
AcDbEntity
  8
寸法
 48
50.0
100
AcDbLeader
  3
INABA_S50G
 73
     0
 74
     0
 75
     1
 40
120.0
 41
672.0
 76
     3
 10
11968.69831350344
 20
6711.306820220826
 30
0.0
 10
12084.63832569547
 20
6452.417476757251
 30
0.0
 10
12209.63832569547
 20
6452.417476757251
 30
0.0
340
1AC2B
1001
ACAD
1000
DSTYLE
1002
{
1070
   341
1005
0
1070
    40
1040
1.0
1070
   343
1005
0
1070
   344
1005
0
1002
}
  0
TEXT
  5
1C7A1
330
747D
100
AcDbEntity
  8
文字
 62
     7
 48
50.0
100
AcDbText
 10
13188.16259899338
 20
79.80631269190417
 30
0.0
 40
80.0
  1
※布基礎には換気口を設けてください。
  7
STYLE2
100
AcDbText
  0
TEXT
  5
1C7E7
330
747D
100
AcDbEntity
  8
文字
 62
     7
 48
50.0
100
AcDbText
 10
13188.16259899338
 20
246.7109242801889
 30
0.0
 40
80.0
  1
※寒冷地等は地域の実情に合わせた基礎にして下さい。
  7
STYLE2
100
AcDbText
  0
TEXT
  5
1C7EC
330
747D
100
AcDbEntity
  8
文字
 62
     7
 48
50.0
100
AcDbText
 10
14524.131837222
 20
1031.557706291229
 30
0.0
 40
100.0
  1
<縮尺> S=1/40
  7
STYLE2
100
AcDbText
  0
TEXT
  5
1C7ED
330
747D
100
AcDbEntity
  8
文字
 62
     7
 48
50.0
100
AcDbText
 10
13201.43669998441
 20
477.2740661031257
 30
0.0
 40
160.0
  1
機種名
  7
STYLE2
100
AcDbText
  0
LINE
  5
1C7EF
330
747D
100
AcDbEntity
  8
文字
 62
     7
 48
50.0
100
AcDbLine
 10
13187.2
 20
400.0
 30
0.0
 11
16227.2
 21
400.0
 31
0.0
  0
MTEXT
  5
1D2D5
102
{ACAD_REACTORS
330
1D2D6
102
}
330
747D
100
AcDbEntity
  8
部品1
 62
     7
 48
50.0
100
AcDbMText
 10
13113.99523070987
 20
7801.965214534719
 30
0.0
 40
120.0
 41
0.0
 71
     6
 72
     1
  1
アンカーボルト
  7
STYLE1
 73
     1
 44
1.0
1001
ACAD
1000
MTEXTBEGIN
1070
    73
1070
     1
1070
    44
1040
1.0
1070
    74
1070
     0
1000
MTEXTEND
  0
LEADER
  5
1D2D6
330
747D
100
AcDbEntity
  8
寸法
 48
50.0
100
AcDbLeader
  3
INABA_S50G
 73
     0
 74
     0
 75
     1
 40
120.0
 41
994.3492424049171
 76
     3
 10
11795.680085757
 20
7363.560314650922
 30
0.0
 10
11969.64598830496
 20
7716.965214534718
 30
0.0
 10
12094.64598830496
 20
7716.965214534718
 30
0.0
340
1D2D5
1001
ACAD
1000
DSTYLE
1002
{
1070
   341
1005
0
1070
    40
1040
1.0
1070
   343
1005
0
1070
   344
1005
0
1002
}
  0
MTEXT
  5
1D332
102
{ACAD_REACTORS
330
1D333
102
}
330
747D
100
AcDbEntity
  8
部品1
 62
     7
 48
50.0
100
AcDbMText
 10
11608.82869701569
 20
6927.857829972895
 30
0.0
 40
120.0
 41
0.0
 71
     6
 72
     1
  1
CB
  7
STYLE1
 73
     1
 44
1.0
1001
ACAD
1000
MTEXTBEGIN
1070
    73
1070
     1
1070
    44
1040
1.0
1070
    74
1070
     0
1000
MTEXTEND
  0
LEADER
  5
1D333
330
747D
100
AcDbEntity
  8
寸法
 48
50.0
100
AcDbLeader
  3
INABA_S50G
 73
     0
 74
     0
 75
     1
 40
120.0
 41
149.591883092037
 76
     3
 10
11181.95401106101
 20
7065.576143527721
 30
0.0
 10
11309.23681392365
 20
6842.857829972896
 30
0.0
 10
11434.23681392365
 20
6842.857829972896
 30
0.0
340
1D332
1001
ACAD
1000
DSTYLE
1002
{
1070
   341
1005
0
1070
    40
1040
1.0
1070
   343
1005
0
1070
   344
1005
0
1002
}
  0
DIMENSION
  5
20DFB
330
747D
100
AcDbEntity
  8
寸法
 48
50.0
100
AcDbDimension
  2
*D19
 10
4528.599999999999
 20
8444.572792351108
 30
0.0
 11
4212.425378797539
 21
8444.572792351108
 31
0.0
 70
   160
  1
a
 71
     5
 42
44.99999999999636
  3
INABA_S40G
100
AcDbAlignedDimension
 13
4483.600000000001
 23
8212.618928386097
 33
0.0
 14
4528.599999999999
 24
7486.352470292186
 34
0.0
100
AcDbRotatedDimension
1001
ACAD
1000
DSTYLE
1002
{
1070
   341
1005
0
1002
}
  0
LINE
  5
22712
330
747D
100
AcDbEntity
  8
想像線
 48
10.0
100
AcDbLine
 10
4483.600000000027
 20
6471.352470292181
 30
0.0
 11
4483.600000000027
 21
7561.352470292241
 31
0.0
  0
LINE
  5
22713
330
747D
100
AcDbEntity
  8
想像線
 48
10.0
100
AcDbLine
 10
11963.59999999999
 20
6471.352470292187
 30
0.0
 11
11963.6
 21
7561.352470292213
 31
0.0
  0
DIMENSION
  5
22741
330
747D
100
AcDbEntity
  8
寸法
 48
50.0
100
AcDbDimension
  2
*D20
 10
3653.721909610673
 20
7486.352470292199
 30
0.0
 11
3553.721909610672
 21
7523.852470292202
 31
0.0
 70
    32
  1
c
 71
     5
 42
75.00000000000364
  3
INABA_S40G
100
AcDbAlignedDimension
 13
3905.665006330071
 23
7561.352470292202
 33
0.0
 14
4395.156977762463
 24
7486.352470292199
 34
0.0
 50
90.0
100
AcDbRotatedDimension
1001
ACAD
1000
DSTYLE
1002
{
1070
   341
1005
0
1002
}
  0
DIMENSION
  5
2275B
330
747D
100
AcDbEntity
  8
寸法
 48
50.0
100
AcDbDimension
  2
*D21
 10
3653.721909610673
 20
6471.35247029221
 30
0.0
 11
3553.721909610672
 21
6498.852470292199
 31
0.0
 70
    32
  1
b
 71
     5
 42
54.99999999997817
  3
INABA_S40G
100
AcDbAlignedDimension
 13
4401.607272343894
 23
6526.352470292188
 33
0.0
 14
3905.665006330071
 24
6471.35247029221
 34
0.0
 50
90.0
100
AcDbRotatedDimension
1001
ACAD
1000
DSTYLE
1002
{
1070
   341
1005
0
1002
}
  0
DIMENSION
  5
22A76
330
747D
100
AcDbEntity
  8
寸法
 48
50.0
100
AcDbDimension
  2
*D22
 10
11321.82138901162
 20
6526.352470292223
 30
0.0
 11
11321.82138901162
 21
6239.388887615057
 31
0.0
 70
   160
 71
     5
 42
279.9999999999954
  3
INABA_S40G
100
AcDbAlignedDimension
 13
11475.09540071171
 23
6806.352470292218
 33
0.0
 14
11291.41910651595
 24
6526.352470292223
 34
0.0
 50
90.0
100
AcDbRotatedDimension
1001
ACAD
1000
DSTYLE
1002
{
1070
   341
1005
0
1002
}
  0
DIMENSION
  5
22A81
330
747D
100
AcDbEntity
  8
寸法
 48
50.0
100
AcDbDimension
  2
*D23
 10
11321.82138901162
 20
7286.352470292108
 30
0.0
 11
11321.82138901162
 21
7773.316052969359
 31
0.0
 70
   160
 71
     5
 42
200.0000000000855
  3
INABA_S40G
100
AcDbAlignedDimension
 13
11315.85634570468
 23
7486.352470292193
 33
0.0
 14
11255.60166369304
 24
7286.352470292108
 34
0.0
 50
90.0
100
AcDbRotatedDimension
1001
ACAD
1000
DSTYLE
1002
{
1070
   341
1005
0
1002
}
  0
DIMENSION
  5
22A98
330
747D
100
AcDbEntity
  8
寸法
 48
50.0
100
AcDbDimension
  2
*D24
 10
11798.6
 20
7210.744138847428
 30
0.0
 11
12188.6590551181
 21
7210.744138847428
 31
0.0
 70
   160
 71
     5
 42
120.0
  3
INABA_S40G
100
AcDbAlignedDimension
 13
11918.6
 23
7131.352470292222
 33
0.0
 14
11798.6
 24
7131.352463797274
 34
0.0
100
AcDbRotatedDimension
1001
ACAD
1000
DSTYLE
1002
{
1070
   341
1005
0
1002
}
  0
LINE
  5
26347
330
747D
100
AcDbEntity
  8
寸法
 48
50.0
100
AcDbLine
 10
8353.600000000005
 20
7968.961286962439
 30
0.0
 11
8633.600000000006
 21
7968.961286962439
 31
0.0
  0
TEXT
  5
26349
330
747D
100
AcDbEntity
  8
寸法
 48
50.0
100
AcDbText
 10
8376.169165710326
 20
6545.033761084927
 30
0.0
 40
120.0
  1
扉面
  7
STYLE1
100
AcDbText
  0
DIMENSION
  5
2634D
330
747D
100
AcDbEntity
  8
寸法
 48
50.0
100
AcDbDimension
  2
*D25
 10
11918.6
 20
8444.572792351108
 30
0.0
 11
8223.599999999999
 21
8544.58460337473
 31
0.0
 70
    32
  1
N X 820+10
 71
     5
 42
7390.0
  3
INABA_S40G
100
AcDbAlignedDimension
 13
4528.599999999999
 23
7486.352470292189
 33
0.0
 14
11918.6
 24
7486.352470292189
 34
0.0
100
AcDbRotatedDimension
1001
ACAD
1000
DSTYLE
1002
{
1070
   341
1005
0
1002
}
  0
DIMENSION
  5
26360
330
747D
100
AcDbEntity
  8
寸法
 48
50.0
100
AcDbDimension
  2
*D26
 10
5011.2859906143
 20
7006.352470292189
 30
0.0
 11
5011.285990614299
 21
6233.793415174088
 31
0.0
 70
   160
 71
     5
 42
479.999999999989
  3
INABA_S40G
100
AcDbAlignedDimension
 13
5102.765475140898
 23
6526.352470292201
 33
0.0
 14
5303.600000000006
 24
7006.352470292189
 34
0.0
 50
90.0
100
AcDbRotatedDimension
1001
ACAD
1000
DSTYLE
1002
{
1070
   341
1005
0
1002
}
  0
LINE
  5
26361
330
747D
100
AcDbEntity
  8
部品1
 48
50.0
100
AcDbLine
 10
4528.599999999999
 20
6526.35247029219
 30
0.0
 11
4528.599999999999
 21
7486.352470292189
 31
0.0
  0
DIMENSION
  5
26363
330
747D
100
AcDbEntity
  8
寸法
 48
50.0
100
AcDbDimension
  2
*D27
 10
3905.66500633007
 20
6724.352470292193
 30
0.0
 11
3905.66500633007
 21
7043.85247029219
 31
0.0
 70
   160
 71
     5
 42
638.9999999999964
  3
INABA_S40G
100
AcDbAlignedDimension
 13
4601.599999999998
 23
7363.35247029219
 33
0.0
 14
4601.600000000006
 24
6724.352470292193
 34
0.0
 50
90.0
100
AcDbRotatedDimension
1001
ACAD
1000
DSTYLE
1002
{
1070
   341
1005
0
1002
}
  0
DIMENSION
  5
26364
330
747D
100
AcDbEntity
  8
寸法
 48
50.0
100
AcDbDimension
  2
*D28
 10
3653.721909610672
 20
6526.35247029219
 30
0.0
 11
3653.721909610671
 21
7043.85247029219
 31
0.0
 70
   160
 71
     5
 42
960.0
  3
INABA_S40G
100
AcDbAlignedDimension
 13
4528.599999999999
 23
7486.352470292189
 33
0.0
 14
4528.599999999999
 24
6526.35247029219
 34
0.0
 50
90.0
100
AcDbRotatedDimension
1001
ACAD
1000
DSTYLE
1002
{
1070
   341
1005
0
1002
}
  0
LINE
  5
263C2
330
747D
100
AcDbEntity
  8
部品1
 48
50.0
100
AcDbLine
 10
11918.6
 20
6526.352470292223
 30
0.0
 11
4528.599999999999
 21
6526.352470292178
 31
0.0
  0
ARC
  5
263C4
330
747D
100
AcDbEntity
  8
想像線
 48
5.0
100
AcDbCircle
 10
5298.600000000003
 20
6526.352470292192
 30
0.0
 40
720.0
100
AcDbArc
 50
180.0
 51
270.0
  0
DIMENSION
  5
263C6
330
747D
100
AcDbEntity
  8
寸法
 48
50.0
100
AcDbDimension
  2
*D29
 10
3905.66500633007
 20
6526.35247029219
 30
0.0
 11
3905.66500633007
 21
6190.821521449597
 31
0.0
 70
   160
 71
     5
 42
198.0000000000036
  3
INABA_S40G
100
AcDbAlignedDimension
 13
4601.600000000006
 23
6724.352470292193
 33
0.0
 14
4528.599999999999
 24
6526.35247029219
 34
0.0
 50
90.0
100
AcDbRotatedDimension
1001
ACAD
1000
DSTYLE
1002
{
1070
   341
1005
0
1002
}
  0
DIMENSION
  5
263C7
330
747D
100
AcDbEntity
  8
寸法
 48
50.0
100
AcDbDimension
  2
*D30
 10
4415.512673767881
 20
5806.352470292186
 30
0.0
 11
4415.512673767881
 21
6166.352470292187
 31
0.0
 70
   160
  1
扉の出<>
 71
     5
 42
720.0
  3
INABA_S40G
100
AcDbAlignedDimension
 13
4528.600000000002
 23
6526.352470292185
 33
0.0
 14
4884.325326928807
 24
5806.352470292186
 34
0.0
 50
90.0
100
AcDbRotatedDimension
1001
ACAD
1000
DSTYLE
1002
{
1070
   341
1005
0
1002
}
  0
LINE
  5
263C8
330
747D
100
AcDbEntity
  8
センター
 48
2.0
100
AcDbLine
 10
4601.600000000006
 20
6724.352470292193
 30
0.0
 11
4701.600000000006
 21
6724.352470292193
 31
0.0
  0
CIRCLE
  5
263C9
330
747D
100
AcDbEntity
  8
部品1
 48
50.0
100
AcDbCircle
 10
4651.599999999991
 20
6724.352470292193
 30
0.0
 40
35.0
  0
LINE
  5
263CA
330
747D
100
AcDbEntity
  8
センター
 48
2.0
100
AcDbLine
 10
4651.600000000006
 20
6774.352470292193
 30
0.0
 11
4651.600000000006
 21
6674.352470292193
 31
0.0
  0
LINE
  5
263CB
330
747D
100
AcDbEntity
  8
細線
 48
50.0
100
AcDbLine
 10
4979.404359938233
 20
6526.352463797255
 30
0.0
 11
5043.599994989123
 21
6590.548098848143
 31
0.0
  0
LINE
  5
263CC
330
747D
100
AcDbEntity
  8
細線
 48
50.0
100
AcDbLine
 10
4934.503079332888
 20
6526.352463797254
 30
0.0
 11
5043.599994989119
 21
6635.449379453486
 31
0.0
  0
LINE
  5
263CD
330
747D
100
AcDbEntity
  8
細線
 48
50.0
100
AcDbLine
 10
4889.60179872754
 20
6526.352463797254
 30
0.0
 11
5043.599994989119
 21
6680.350660058834
 31
0.0
  0
LINE
  5
263CE
330
747D
100
AcDbEntity
  8
細線
 48
50.0
100
AcDbLine
 10
4844.700518122196
 20
6526.352463797251
 30
0.0
 11
5043.599994989119
 21
6725.251940664178
 31
0.0
  0
LINE
  5
263CF
330
747D
100
AcDbEntity
  8
細線
 48
50.0
100
AcDbLine
 10
4843.599994989123
 20
6570.153221269525
 30
0.0
 11
5043.599994989115
 21
6770.153221269518
 31
0.0
  0
LINE
  5
263D0
330
747D
100
AcDbEntity
  8
部品1
 48
50.0
100
AcDbLine
 10
4843.599994989115
 20
6806.352470292184
 30
0.0
 11
4843.599994989123
 21
6526.352463797251
 31
0.0
  0
LINE
  5
263D1
330
747D
100
AcDbEntity
  8
部品1
 48
50.0
100
AcDbLine
 10
5043.599994989115
 20
6806.352470292184
 30
0.0
 11
5043.599994989123
 21
6526.352463797255
 31
0.0
  0
LINE
  5
263D2
330
747D
100
AcDbEntity
  8
細線
 48
50.0
100
AcDbLine
 10
5024.30564054358
 20
6526.352463797255
 30
0.0
 11
5043.599994989123
 21
6545.646818242798
 31
0.0
  0
LINE
  5
263D3
330
747D
100
AcDbEntity
  8
細線
 48
50.0
100
AcDbLine
 10
4843.599994989119
 20
6615.054501874872
 30
0.0
 11
5034.897963406437
 21
6806.352470292184
 31
0.0
  0
LINE
  5
263D4
330
747D
100
AcDbEntity
  8
細線
 48
50.0
100
AcDbLine
 10
4843.599994989119
 20
6659.955782480214
 30
0.0
 11
4989.99668280109
 21
6806.352470292186
 31
0.0
  0
LINE
  5
263D5
330
747D
100
AcDbEntity
  8
細線
 48
50.0
100
AcDbLine
 10
4843.599994989117
 20
6749.758343690903
 30
0.0
 11
4900.194121590403
 21
6806.352470292184
 31
0.0
  0
LINE
  5
263D6
330
747D
100
AcDbEntity
  8
細線
 48
50.0
100
AcDbLine
 10
4843.599994989119
 20
6704.857063085559
 30
0.0
 11
4945.095402195741
 21
6806.352470292184
 31
0.0
  0
LINE
  5
263D7
330
747D
100
AcDbEntity
  8
想像線
 48
5.0
100
AcDbLine
 10
5298.600000000003
 20
6526.352470292204
 30
0.0
 11
5298.600000000003
 21
5806.352470292193
 31
0.0
  0
LINE
  5
263D8
330
747D
100
AcDbEntity
  8
細線
 48
50.0
100
AcDbLine
 10
5799.404359938235
 20
6526.352463797268
 30
0.0
 11
5863.599994989122
 21
6590.548098848154
 31
0.0
  0
LINE
  5
263D9
330
747D
100
AcDbEntity
  8
細線
 48
50.0
100
AcDbLine
 10
5754.503079332888
 20
6526.352463797266
 30
0.0
 11
5863.599994989119
 21
6635.449379453499
 31
0.0
  0
LINE
  5
263DA
330
747D
100
AcDbEntity
  8
細線
 48
50.0
100
AcDbLine
 10
5709.601798727541
 20
6526.352463797266
 30
0.0
 11
5863.599994989115
 21
6680.350660058841
 31
0.0
  0
LINE
  5
263DB
330
747D
100
AcDbEntity
  8
細線
 48
50.0
100
AcDbLine
 10
5664.700518122195
 20
6526.352463797266
 30
0.0
 11
5863.599994989115
 21
6725.251940664186
 31
0.0
  0
LINE
  5
263DC
330
747D
100
AcDbEntity
  8
細線
 48
50.0
100
AcDbLine
 10
5663.599994989123
 20
6570.153221269539
 30
0.0
 11
5863.599994989115
 21
6770.153221269533
 31
0.0
  0
LINE
  5
263DD
330
747D
100
AcDbEntity
  8
部品1
 48
50.0
100
AcDbLine
 10
5663.599994989119
 20
6806.352470292188
 30
0.0
 11
5663.599994989123
 21
6526.352463797263
 31
0.0
  0
LINE
  5
263DE
330
747D
100
AcDbEntity
  8
部品1
 48
50.0
100
AcDbLine
 10
5863.599994989118
 20
6806.352470292188
 30
0.0
 11
5863.599994989122
 21
6526.352463797268
 31
0.0
  0
LINE
  5
263DF
330
747D
100
AcDbEntity
  8
細線
 48
50.0
100
AcDbLine
 10
5844.305640543582
 20
6526.35246379727
 30
0.0
 11
5863.599994989122
 21
6545.646818242811
 31
0.0
  0
LINE
  5
263E0
330
747D
100
AcDbEntity
  8
細線
 48
50.0
100
AcDbLine
 10
5663.59999498912
 20
6615.054501874881
 30
0.0
 11
5854.897963406426
 21
6806.352470292188
 31
0.0
  0
LINE
  5
263E1
330
747D
100
AcDbEntity
  8
細線
 48
50.0
100
AcDbLine
 10
5663.59999498912
 20
6659.955782480228
 30
0.0
 11
5809.996682801078
 21
6806.352470292186
 31
0.0
  0
LINE
  5
263E2
330
747D
100
AcDbEntity
  8
細線
 48
50.0
100
AcDbLine
 10
5663.599994989118
 20
6749.758337195965
 30
0.0
 11
5720.194128085346
 21
6806.352470292186
 31
0.0
  0
LINE
  5
263E3
330
747D
100
AcDbEntity
  8
細線
 48
50.0
100
AcDbLine
 10
5663.59999498912
 20
6704.857056590622
 30
0.0
 11
5765.095408690683
 21
6806.352470292188
 31
0.0
  0
LINE
  5
263E5
330
747D
100
AcDbEntity
  8
細線
 48
50.0
100
AcDbLine
 10
6619.404359938233
 20
6526.352463797255
 30
0.0
 11
6683.599994989123
 21
6590.548098848143
 31
0.0
  0
LINE
  5
263E6
330
747D
100
AcDbEntity
  8
細線
 48
50.0
100
AcDbLine
 10
6574.503079332888
 20
6526.352463797254
 30
0.0
 11
6683.599994989119
 21
6635.449379453486
 31
0.0
  0
LINE
  5
263E7
330
747D
100
AcDbEntity
  8
細線
 48
50.0
100
AcDbLine
 10
6529.60179872754
 20
6526.352463797254
 30
0.0
 11
6683.599994989119
 21
6680.350660058832
 31
0.0
  0
LINE
  5
263E8
330
747D
100
AcDbEntity
  8
細線
 48
50.0
100
AcDbLine
 10
6484.700518122195
 20
6526.352463797251
 30
0.0
 11
6683.599994989119
 21
6725.251940664176
 31
0.0
  0
LINE
  5
263E9
330
747D
100
AcDbEntity
  8
細線
 48
50.0
100
AcDbLine
 10
6483.599994989123
 20
6570.153221269525
 30
0.0
 11
6683.599994989119
 21
6770.153221269524
 31
0.0
  0
LINE
  5
263EA
330
747D
100
AcDbEntity
  8
部品1
 48
50.0
100
AcDbLine
 10
6483.599994989117
 20
6806.352470292191
 30
0.0
 11
6483.599994989123
 21
6526.352463797251
 31
0.0
  0
LINE
  5
263EB
330
747D
100
AcDbEntity
  8
部品1
 48
50.0
100
AcDbLine
 10
6683.599994989115
 20
6806.352470292193
 30
0.0
 11
6683.599994989123
 21
6526.352463797255
 31
0.0
  0
LINE
  5
263EC
330
747D
100
AcDbEntity
  8
細線
 48
50.0
100
AcDbLine
 10
6664.30564054358
 20
6526.352463797255
 30
0.0
 11
6683.599994989123
 21
6545.646818242798
 31
0.0
  0
LINE
  5
263ED
330
747D
100
AcDbEntity
  8
細線
 48
50.0
100
AcDbLine
 10
6483.599994989119
 20
6615.054501874872
 30
0.0
 11
6674.897963406445
 21
6806.352470292193
 31
0.0
  0
LINE
  5
263EE
330
747D
100
AcDbEntity
  8
細線
 48
50.0
100
AcDbLine
 10
6483.599994989119
 20
6659.955782480214
 30
0.0
 11
6629.996682801098
 21
6806.352470292191
 31
0.0
  0
LINE
  5
263EF
330
747D
100
AcDbEntity
  8
細線
 48
50.0
100
AcDbLine
 10
6483.599994989119
 20
6704.857056590622
 30
0.0
 11
6585.095408690685
 21
6806.352470292191
 31
0.0
  0
LINE
  5
263F0
330
747D
100
AcDbEntity
  8
細線
 48
50.0
100
AcDbLine
 10
6483.599994989117
 20
6749.758337195965
 30
0.0
 11
6540.194128085349
 21
6806.352470292191
 31
0.0
  0
LINE
  5
263F1
330
747D
100
AcDbEntity
  8
センター
 48
2.0
100
AcDbLine
 10
6875.600000000005
 20
6774.352470292193
 30
0.0
 11
6875.600000000005
 21
6674.352470292193
 31
0.0
  0
CIRCLE
  5
263F2
330
747D
100
AcDbEntity
  8
部品1
 48
50.0
100
AcDbCircle
 10
6875.600000000005
 20
6724.352470292193
 30
0.0
 40
35.0
  0
LINE
  5
263F3
330
747D
100
AcDbEntity
  8
センター
 48
2.0
100
AcDbLine
 10
6825.600000000005
 20
6724.352470292193
 30
0.0
 11
6925.600000000006
 21
6724.352470292193
 31
0.0
  0
LINE
  5
263F4
330
747D
100
AcDbEntity
  8
細線
 48
50.0
100
AcDbLine
 10
7439.404359938233
 20
6526.352463797266
 30
0.0
 11
7503.599994989123
 21
6590.548098848154
 31
0.0
  0
LINE
  5
263F5
330
747D
100
AcDbEntity
  8
細線
 48
50.0
100
AcDbLine
 10
7394.503079332888
 20
6526.352463797266
 30
0.0
 11
7503.599994989119
 21
6635.449379453499
 31
0.0
  0
LINE
  5
263F6
330
747D
100
AcDbEntity
  8
細線
 48
50.0
100
AcDbLine
 10
7349.60179872754
 20
6526.352463797266
 30
0.0
 11
7503.599994989118
 21
6680.350660058841
 31
0.0
  0
LINE
  5
263F7
330
747D
100
AcDbEntity
  8
細線
 48
50.0
100
AcDbLine
 10
7304.700518122196
 20
6526.352463797266
 30
0.0
 11
7503.599994989116
 21
6725.251940664186
 31
0.0
  0
LINE
  5
263F8
330
747D
100
AcDbEntity
  8
細線
 48
50.0
100
AcDbLine
 10
7303.599994989124
 20
6570.153221269539
 30
0.0
 11
7503.599994989119
 21
6770.153221269538
 31
0.0
  0
LINE
  5
263F9
330
747D
100
AcDbEntity
  8
部品1
 48
50.0
100
AcDbLine
 10
7303.599994989117
 20
6806.352470292194
 30
0.0
 11
7303.599994989124
 21
6526.352463797263
 31
0.0
  0
LINE
  5
263FA
330
747D
100
AcDbEntity
  8
部品1
 48
50.0
100
AcDbLine
 10
7503.599994989118
 20
6806.352470292195
 30
0.0
 11
7503.599994989123
 21
6526.352463797268
 31
0.0
  0
LINE
  5
263FB
330
747D
100
AcDbEntity
  8
細線
 48
50.0
100
AcDbLine
 10
7484.30564054358
 20
6526.35246379727
 30
0.0
 11
7503.599994989123
 21
6545.646818242811
 31
0.0
  0
LINE
  5
263FC
330
747D
100
AcDbEntity
  8
細線
 48
50.0
100
AcDbLine
 10
7303.599994989119
 20
6615.054501874881
 30
0.0
 11
7494.897963406434
 21
6806.352470292196
 31
0.0
  0
LINE
  5
263FD
330
747D
100
AcDbEntity
  8
細線
 48
50.0
100
AcDbLine
 10
7303.599994989119
 20
6659.955782480228
 30
0.0
 11
7449.996682801085
 21
6806.352470292196
 31
0.0
  0
LINE
  5
263FE
330
747D
100
AcDbEntity
  8
細線
 48
50.0
100
AcDbLine
 10
7303.599994989117
 20
6749.758337195965
 30
0.0
 11
7360.194128085353
 21
6806.352470292194
 31
0.0
  0
LINE
  5
263FF
330
747D
100
AcDbEntity
  8
細線
 48
50.0
100
AcDbLine
 10
7303.599994989119
 20
6704.857056590622
 30
0.0
 11
7405.09540869069
 21
6806.352470292195
 31
0.0
  0
LINE
  5
26400
330
747D
100
AcDbEntity
  8
細線
 48
50.0
100
AcDbLine
 10
8259.404359938235
 20
6526.352463797268
 30
0.0
 11
8323.599994989121
 21
6590.548098848154
 31
0.0
  0
LINE
  5
26401
330
747D
100
AcDbEntity
  8
細線
 48
50.0
100
AcDbLine
 10
8214.503079332889
 20
6526.352463797266
 30
0.0
 11
8323.59999498912
 21
6635.449379453499
 31
0.0
  0
LINE
  5
26402
330
747D
100
AcDbEntity
  8
細線
 48
50.0
100
AcDbLine
 10
8169.601805222475
 20
6526.352470292201
 30
0.0
 11
8323.59999498912
 21
6680.350660058845
 31
0.0
  0
LINE
  5
26404
330
747D
100
AcDbEntity
  8
部品1
 48
50.0
100
AcDbLine
 10
8123.599994989113
 20
6806.3524702922
 30
0.0
 11
8123.599994989124
 21
6526.352463797263
 31
0.0
  0
LINE
  5
26405
330
747D
100
AcDbEntity
  8
部品1
 48
50.0
100
AcDbLine
 10
8323.599994989114
 20
6806.352470292201
 30
0.0
 11
8323.599994989123
 21
6526.352463797268
 31
0.0
  0
LINE
  5
26407
330
747D
100
AcDbEntity
  8
細線
 48
50.0
100
AcDbLine
 10
8304.305640543582
 20
6526.35246379727
 30
0.0
 11
8323.599994989123
 21
6545.646818242811
 31
0.0
  0
LINE
  5
26408
330
747D
100
AcDbEntity
  8
細線
 48
50.0
100
AcDbLine
 10
8123.599994989119
 20
6659.955782480247
 30
0.0
 11
8269.996682801098
 21
6806.352470292201
 31
0.0
  0
LINE
  5
26409
330
747D
100
AcDbEntity
  8
細線
 48
50.0
100
AcDbLine
 10
8123.59999498912
 20
6615.054501874886
 30
0.0
 11
8314.897963406439
 21
6806.352470292201
 31
0.0
  0
LINE
  5
2640A
330
747D
100
AcDbEntity
  8
細線
 48
50.0
100
AcDbLine
 10
8124.700524617127
 20
6526.352470292201
 30
0.0
 11
8323.59999498912
 21
6725.251940664188
 31
0.0
  0
LINE
  5
2640B
330
747D
100
AcDbEntity
  8
細線
 48
50.0
100
AcDbLine
 10
8123.599994989122
 20
6570.153221269539
 30
0.0
 11
8323.599994989114
 21
6770.153221269533
 31
0.0
  0
LINE
  5
2640D
330
747D
100
AcDbEntity
  8
細線
 48
50.0
100
AcDbLine
 10
8123.599994989115
 20
6749.758337195942
 30
0.0
 11
8180.194128085371
 21
6806.352470292198
 31
0.0
  0
LINE
  5
2640E
330
747D
100
AcDbEntity
  8
細線
 48
50.0
100
AcDbLine
 10
8123.599994989115
 20
6704.857056590599
 30
0.0
 11
8225.095408690723
 21
6806.3524702922
 31
0.0
  0
LINE
  5
26410
330
747D
100
AcDbEntity
  8
部品1
 48
50.0
100
AcDbLine
 10
11798.6
 20
7286.352470292192
 30
0.0
 11
4648.599999999994
 21
7286.35247029219
 31
0.0
  0
LINE
  5
26411
330
747D
100
AcDbEntity
  8
部品1
 48
50.0
100
AcDbLine
 10
11918.59999999999
 20
7486.352470292189
 30
0.0
 11
4528.599999999999
 21
7486.352470292189
 31
0.0
  0
DIMENSION
  5
26412
330
747D
100
AcDbEntity
  8
寸法
 48
50.0
100
AcDbDimension
  2
*D31
 10
5011.285990614299
 20
7486.352470292189
 30
0.0
 11
5011.285990614299
 21
7778.911525410302
 31
0.0
 70
   160
 71
     5
 42
480.0
  3
INABA_S40G
100
AcDbAlignedDimension
 13
5303.600000000006
 23
7006.352470292189
 33
0.0
 14
5102.765475140898
 24
7486.352470292189
 34
0.0
 50
90.0
100
AcDbRotatedDimension
1001
ACAD
1000
DSTYLE
1002
{
1070
   341
1005
0
1002
}
  0
DIMENSION
  5
26413
330
747D
100
AcDbEntity
  8
寸法
 48
50.0
100
AcDbDimension
  2
*D32
 10
4651.599999999998
 20
8212.618928386103
 30
0.0
 11
5763.599999999999
 21
8312.630739409724
 31
0.0
 70
    32
 71
     5
 42
2224.0
  3
INABA_S40G
100
AcDbAlignedDimension
 13
6875.599999999998
 23
7413.35247029219
 33
0.0
 14
4651.599999999998
 24
7413.35247029219
 34
0.0
100
AcDbRotatedDimension
1001
ACAD
1000
DSTYLE
1002
{
1070
   341
1005
0
1002
}
  0
DIMENSION
  5
26414
330
747D
100
AcDbEntity
  8
寸法
 48
50.0
100
AcDbDimension
  2
*D33
 10
4528.599999999999
 20
7968.961286962439
 30
0.0
 11
4941.100000000002
 21
8068.973097986061
 31
0.0
 70
    32
 71
     5
 42
825.0000000000072
  3
INABA_S40G
100
AcDbAlignedDimension
 13
5353.600000000006
 23
7056.352470292189
 33
0.0
 14
4528.599999999999
 24
7486.352470292189
 34
0.0
100
AcDbRotatedDimension
1001
ACAD
1000
DSTYLE
1002
{
1070
   341
1005
0
1002
}
  0
DIMENSION
  5
26417
330
747D
100
AcDbEntity
  8
寸法
 48
50.0
100
AcDbDimension
  2
*D34
 10
4528.599999999999
 20
8212.618928386103
 30
0.0
 11
4255.4933982822
 21
8212.618928386103
 31
0.0
 70
   160
 71
     5
 42
123.0
  3
INABA_S40G
100
AcDbAlignedDimension
 13
4651.599999999998
 23
7413.35247029219
 33
0.0
 14
4528.599999999999
 24
7486.352470292189
 34
0.0
100
AcDbRotatedDimension
1001
ACAD
1000
DSTYLE
1002
{
1070
   341
1005
0
1002
}
  0
DIMENSION
  5
26419
330
747D
100
AcDbEntity
  8
寸法
 48
50.0
100
AcDbDimension
  2
*D35
 10
3905.665006330071
 20
7363.35247029219
 30
0.0
 11
3905.66500633007
 21
7759.45907200999
 31
0.0
 70
   160
 71
     5
 42
123.0
  3
INABA_S40G
100
AcDbAlignedDimension
 13
4528.599999999999
 23
7486.352470292189
 33
0.0
 14
4601.599999999998
 24
7363.35247029219
 34
0.0
 50
90.0
100
AcDbRotatedDimension
1001
ACAD
1000
DSTYLE
1002
{
1070
   341
1005
0
1002
}
  0
LINE
  5
2641A
330
747D
100
AcDbEntity
  8
細線
 48
50.0
100
AcDbLine
 10
4843.599994989123
 20
7288.573710955057
 30
0.0
 11
5041.378747831316
 21
7486.352463797252
 31
0.0
  0
LINE
  5
2641B
330
747D
100
AcDbEntity
  8
細線
 48
50.0
100
AcDbLine
 10
4843.599994989123
 20
7333.474991560405
 30
0.0
 11
4996.47746722597
 21
7486.352463797252
 31
0.0
  0
LINE
  5
2641C
330
747D
100
AcDbEntity
  8
細線
 48
50.0
100
AcDbLine
 10
4843.599994989121
 20
7378.376272165748
 30
0.0
 11
4951.576186620624
 21
7486.352463797252
 31
0.0
  0
LINE
  5
2641D
330
747D
100
AcDbEntity
  8
細線
 48
50.0
100
AcDbLine
 10
4843.599994989119
 20
7423.277552771093
 30
0.0
 11
4906.67490601528
 21
7486.352463797252
 31
0.0
  0
LINE
  5
2641E
330
747D
100
AcDbEntity
  8
部品1
 48
50.0
100
AcDbLine
 10
5043.599994989119
 20
7486.352463797252
 30
0.0
 11
5043.599994989123
 21
7286.352470292192
 31
0.0
  0
LINE
  5
2641F
330
747D
100
AcDbEntity
  8
部品1
 48
50.0
100
AcDbLine
 10
4843.599994989119
 20
7486.352463797252
 30
0.0
 11
4843.599994989123
 21
7286.352470292192
 31
0.0
  0
LINE
  5
26420
330
747D
100
AcDbEntity
  8
細線
 48
50.0
100
AcDbLine
 10
4531.280028436674
 20
6931.352463797274
 30
0.0
 11
4648.599999999996
 21
7048.672435360599
 31
0.0
  0
LINE
  5
26421
330
747D
100
AcDbEntity
  8
細線
 48
50.0
100
AcDbLine
 10
4528.599994989114
 20
6973.573710955061
 30
0.0
 11
4648.599999999996
 21
7093.573715965941
 31
0.0
  0
LINE
  5
26422
330
747D
100
AcDbEntity
  8
細線
 48
50.0
100
AcDbLine
 10
4528.599994989115
 20
7018.474991560409
 30
0.0
 11
4641.477467225985
 21
7131.352463797274
 31
0.0
  0
LINE
  5
26423
330
747D
100
AcDbEntity
  8
細線
 48
50.0
100
AcDbLine
 10
4528.599994989114
 20
7063.376272165753
 30
0.0
 11
4596.576186620636
 21
7131.352463797274
 31
0.0
  0
LINE
  5
26424
330
747D
100
AcDbEntity
  8
細線
 48
50.0
100
AcDbLine
 10
4528.599994989115
 20
7108.277552771098
 30
0.0
 11
4551.67490601529
 21
7131.352463797274
 31
0.0
  0
LINE
  5
26425
330
747D
100
AcDbEntity
  8
部品1
 48
50.0
100
AcDbLine
 10
4648.599999999996
 20
7131.352463797276
 30
0.0
 11
4528.599994989114
 21
7131.352463797274
 31
0.0
  0
LINE
  5
26426
330
747D
100
AcDbEntity
  8
部品1
 48
50.0
100
AcDbLine
 10
4648.599999999997
 20
6931.352463797278
 30
0.0
 11
4528.599994989114
 21
6931.352463797274
 31
0.0
  0
LINE
  5
26427
330
747D
100
AcDbEntity
  8
細線
 48
50.0
100
AcDbLine
 10
4621.082589647361
 20
6931.352463797273
 30
0.0
 11
4648.599999999997
 21
6958.869874149897
 31
0.0
  0
LINE
  5
26428
330
747D
100
AcDbEntity
  8
細線
 48
50.0
100
AcDbLine
 10
4576.181309042018
 20
6931.352463797273
 30
0.0
 11
4648.599999999997
 21
7003.771154755255
 31
0.0
  0
LINE
  5
26429
330
747D
100
AcDbEntity
  8
センター
 48
2.0
100
AcDbLine
 10
4601.599999999998
 20
7363.35247029219
 30
0.0
 11
4701.599999999998
 21
7363.35247029219
 31
0.0
  0
CIRCLE
  5
2642A
330
747D
100
AcDbEntity
  8
部品1
 48
50.0
100
AcDbCircle
 10
4651.599999999998
 20
7363.35247029219
 30
0.0
 40
35.0
  0
LINE
  5
2642B
330
747D
100
AcDbEntity
  8
センター
 48
2.0
100
AcDbLine
 10
4651.599999999998
 20
7413.35247029219
 30
0.0
 11
4651.599999999998
 21
7313.352470292191
 31
0.0
  0
LINE
  5
2642C
330
747D
100
AcDbEntity
  8
細線
 48
50.0
100
AcDbLine
 10
4931.181315536964
 20
7286.352470292192
 30
0.0
 11
5043.599994989119
 21
7398.771149744364
 31
0.0
  0
LINE
  5
2642D
330
747D
100
AcDbEntity
  8
細線
 48
50.0
100
AcDbLine
 10
4886.280034931594
 20
7286.352470292192
 30
0.0
 11
5043.599994989119
 21
7443.672430349709
 31
0.0
  0
LINE
  5
2642E
330
747D
100
AcDbEntity
  8
細線
 48
50.0
100
AcDbLine
 10
4976.082596142296
 20
7286.35247029219
 30
0.0
 11
5043.599994989121
 21
7353.869869139012
 31
0.0
  0
LINE
  5
2642F
330
747D
100
AcDbEntity
  8
細線
 48
50.0
100
AcDbLine
 10
5020.983876747656
 20
7286.35247029219
 30
0.0
 11
5043.599994989123
 21
7308.968588533661
 31
0.0
  0
LINE
  5
26430
330
747D
100
AcDbEntity
  8
細線
 48
50.0
100
AcDbLine
 10
4843.599994989119
 20
7468.178833376438
 30
0.0
 11
4861.773625409933
 21
7486.352463797252
 31
0.0
  0
DIMENSION
  5
26431
330
747D
100
AcDbEntity
  8
寸法
 48
50.0
100
AcDbDimension
  2
*D36
 10
6173.600000000006
 20
7968.961286962439
 30
0.0
 11
6583.600000000005
 21
8068.973097986061
 31
0.0
 70
    32
 71
     5
 42
820.0
  3
INABA_S40G
100
AcDbAlignedDimension
 13
6993.600000000006
 23
7056.352470292189
 33
0.0
 14
6173.600000000006
 24
7056.352470292189
 34
0.0
100
AcDbRotatedDimension
1001
ACAD
1000
DSTYLE
1002
{
1070
   341
1005
0
1002
}
  0
DIMENSION
  5
26432
330
747D
100
AcDbEntity
  8
寸法
 48
50.0
100
AcDbDimension
  2
*D37
 10
5353.600000000006
 20
7968.961286962439
 30
0.0
 11
5763.600000000006
 21
8068.973097986061
 31
0.0
 70
    32
 71
     5
 42
820.0
  3
INABA_S40G
100
AcDbAlignedDimension
 13
6173.600000000006
 23
7056.352470292189
 33
0.0
 14
5353.600000000006
 24
7056.352470292189
 34
0.0
100
AcDbRotatedDimension
1001
ACAD
1000
DSTYLE
1002
{
1070
   341
1005
0
1002
}
  0
LINE
  5
26433
330
747D
100
AcDbEntity
  8
細線
 48
50.0
100
AcDbLine
 10
5663.599994989125
 20
7288.573710955073
 30
0.0
 11
5861.378747831317
 21
7486.352463797264
 31
0.0
  0
LINE
  5
26434
330
747D
100
AcDbEntity
  8
細線
 48
50.0
100
AcDbLine
 10
5663.599994989125
 20
7333.474991560419
 30
0.0
 11
5816.47746722597
 21
7486.352463797266
 31
0.0
  0
LINE
  5
26435
330
747D
100
AcDbEntity
  8
細線
 48
50.0
100
AcDbLine
 10
5663.599994989123
 20
7378.376272165763
 30
0.0
 11
5771.576186620625
 21
7486.352463797264
 31
0.0
  0
LINE
  5
26436
330
747D
100
AcDbEntity
  8
細線
 48
50.0
100
AcDbLine
 10
5663.59999498912
 20
7423.277552771105
 30
0.0
 11
5726.674906015279
 21
7486.352463797264
 31
0.0
  0
LINE
  5
26437
330
747D
100
AcDbEntity
  8
部品1
 48
50.0
100
AcDbLine
 10
5863.599994989119
 20
7486.352463797264
 30
0.0
 11
5863.599994989125
 21
7286.35247029219
 31
0.0
  0
LINE
  5
26438
330
747D
100
AcDbEntity
  8
部品1
 48
50.0
100
AcDbLine
 10
5663.59999498912
 20
7486.352463797264
 30
0.0
 11
5663.599994989125
 21
7286.352470292192
 31
0.0
  0
LINE
  5
26439
330
747D
100
AcDbEntity
  8
センター
 48
2.0
100
AcDbLine
 10
5303.600000000006
 20
7006.352470292189
 30
0.0
 11
5403.600000000006
 21
7006.352470292189
 31
0.0
  0
LINE
  5
2643A
330
747D
100
AcDbEntity
  8
部品1
 48
50.0
100
AcDbLine
 10
5453.600000000005
 20
7106.35247029219
 30
0.0
 11
5253.600000000005
 21
7106.35247029219
 31
0.0
  0
LINE
  5
2643B
330
747D
100
AcDbEntity
  8
部品1
 48
50.0
100
AcDbLine
 10
5453.600000000005
 20
6906.35247029219
 30
0.0
 11
5253.600000000005
 21
6906.35247029219
 31
0.0
  0
LINE
  5
2643C
330
747D
100
AcDbEntity
  8
センター
 48
2.0
100
AcDbLine
 10
5353.600000000006
 20
7056.352470292189
 30
0.0
 11
5353.600000000006
 21
6956.352470292189
 31
0.0
  0
LINE
  5
2643D
330
747D
100
AcDbEntity
  8
部品1
 48
50.0
100
AcDbLine
 10
5253.600000000005
 20
6906.35247029219
 30
0.0
 11
5253.600000000005
 21
7106.35247029219
 31
0.0
  0
LINE
  5
2643E
330
747D
100
AcDbEntity
  8
部品1
 48
50.0
100
AcDbLine
 10
5453.600000000005
 20
6906.35247029219
 30
0.0
 11
5453.600000000005
 21
7106.35247029219
 31
0.0
  0
LINE
  5
2643F
330
747D
100
AcDbEntity
  8
細線
 48
50.0
100
AcDbLine
 10
5751.18131553695
 20
7286.352470292192
 30
0.0
 11
5863.599994989119
 21
7398.771149744378
 31
0.0
  0
LINE
  5
26440
330
747D
100
AcDbEntity
  8
細線
 48
50.0
100
AcDbLine
 10
5706.280034931584
 20
7286.352470292192
 30
0.0
 11
5863.599994989119
 21
7443.672430349721
 31
0.0
  0
LINE
  5
26441
330
747D
100
AcDbEntity
  8
細線
 48
50.0
100
AcDbLine
 10
5840.983876747656
 20
7286.352463797252
 30
0.0
 11
5863.599994989122
 21
7308.968582038722
 31
0.0
  0
LINE
  5
26442
330
747D
100
AcDbEntity
  8
細線
 48
50.0
100
AcDbLine
 10
5796.082596142296
 20
7286.352463797252
 30
0.0
 11
5863.599994989121
 21
7353.869862644074
 31
0.0
  0
LINE
  5
26443
330
747D
100
AcDbEntity
  8
細線
 48
50.0
100
AcDbLine
 10
5663.59999498912
 20
7468.178833376448
 30
0.0
 11
5681.773625409933
 21
7486.352463797266
 31
0.0
  0
LINE
  5
26444
330
747D
100
AcDbEntity
  8
細線
 48
50.0
100
AcDbLine
 10
6483.599994989124
 20
7288.573710955063
 30
0.0
 11
6681.378747831317
 21
7486.352463797252
 31
0.0
  0
LINE
  5
26445
330
747D
100
AcDbEntity
  8
細線
 48
50.0
100
AcDbLine
 10
6483.599994989124
 20
7333.474991560405
 30
0.0
 11
6636.47746722597
 21
7486.352463797252
 31
0.0
  0
LINE
  5
26446
330
747D
100
AcDbEntity
  8
細線
 48
50.0
100
AcDbLine
 10
6483.599994989123
 20
7378.376272165751
 30
0.0
 11
6591.576186620622
 21
7486.35246379725
 31
0.0
  0
LINE
  5
26447
330
747D
100
AcDbEntity
  8
細線
 48
50.0
100
AcDbLine
 10
6483.599994989119
 20
7423.277552771093
 30
0.0
 11
6546.67490601528
 21
7486.352463797252
 31
0.0
  0
LINE
  5
26448
330
747D
100
AcDbEntity
  8
部品1
 48
50.0
100
AcDbLine
 10
6683.599994989119
 20
7486.352463797252
 30
0.0
 11
6683.599994989123
 21
7286.35247029219
 31
0.0
  0
LINE
  5
26449
330
747D
100
AcDbEntity
  8
部品1
 48
50.0
100
AcDbLine
 10
6483.599994989119
 20
7486.352463797252
 30
0.0
 11
6483.599994989124
 21
7286.35247029219
 31
0.0
  0
LINE
  5
2644B
330
747D
100
AcDbEntity
  8
センター
 48
2.0
100
AcDbLine
 10
6123.600000000006
 20
7006.352470292189
 30
0.0
 11
6223.600000000006
 21
7006.352470292189
 31
0.0
  0
LINE
  5
2644C
330
747D
100
AcDbEntity
  8
部品1
 48
50.0
100
AcDbLine
 10
6273.600000000006
 20
7106.35247029219
 30
0.0
 11
6073.600000000006
 21
7106.35247029219
 31
0.0
  0
LINE
  5
2644D
330
747D
100
AcDbEntity
  8
部品1
 48
50.0
100
AcDbLine
 10
6273.600000000006
 20
6906.35247029219
 30
0.0
 11
6073.600000000006
 21
6906.35247029219
 31
0.0
  0
LINE
  5
2644E
330
747D
100
AcDbEntity
  8
センター
 48
2.0
100
AcDbLine
 10
6173.600000000006
 20
7056.352470292189
 30
0.0
 11
6173.600000000006
 21
6956.352470292189
 31
0.0
  0
LINE
  5
2644F
330
747D
100
AcDbEntity
  8
部品1
 48
50.0
100
AcDbLine
 10
6073.600000000006
 20
6906.35247029219
 30
0.0
 11
6073.600000000006
 21
7106.35247029219
 31
0.0
  0
LINE
  5
26450
330
747D
100
AcDbEntity
  8
部品1
 48
50.0
100
AcDbLine
 10
6273.600000000006
 20
6906.35247029219
 30
0.0
 11
6273.600000000006
 21
7106.35247029219
 31
0.0
  0
LINE
  5
26451
330
747D
100
AcDbEntity
  8
細線
 48
50.0
100
AcDbLine
 10
6571.181315536965
 20
7286.352470292192
 30
0.0
 11
6683.599994989119
 21
7398.771149744364
 31
0.0
  0
LINE
  5
26452
330
747D
100
AcDbEntity
  8
細線
 48
50.0
100
AcDbLine
 10
6526.280034931598
 20
7286.35247029219
 30
0.0
 11
6683.599994989119
 21
7443.672430349709
 31
0.0
  0
LINE
  5
26453
330
747D
100
AcDbEntity
  8
細線
 48
50.0
100
AcDbLine
 10
6660.983876747656
 20
7286.352463797252
 30
0.0
 11
6683.599994989123
 21
7308.968582038722
 31
0.0
  0
LINE
  5
26454
330
747D
100
AcDbEntity
  8
細線
 48
50.0
100
AcDbLine
 10
6616.082596142295
 20
7286.352463797252
 30
0.0
 11
6683.599994989122
 21
7353.869862644074
 31
0.0
  0
LINE
  5
26455
330
747D
100
AcDbEntity
  8
細線
 48
50.0
100
AcDbLine
 10
6483.599994989119
 20
7468.178833376438
 30
0.0
 11
6501.773625409933
 21
7486.352463797252
 31
0.0
  0
DIMENSION
  5
26457
330
747D
100
AcDbEntity
  8
寸法
 48
50.0
100
AcDbDimension
  2
*D38
 10
6993.600000000006
 20
7968.961286962439
 30
0.0
 11
7403.600000000006
 21
8068.973097986061
 31
0.0
 70
    32
 71
     5
 42
820.0
  3
INABA_S40G
100
AcDbAlignedDimension
 13
7813.600000000007
 23
7056.352470292189
 33
0.0
 14
6993.600000000006
 24
7056.352470292189
 34
0.0
100
AcDbRotatedDimension
1001
ACAD
1000
DSTYLE
1002
{
1070
   341
1005
0
1002
}
  0
LINE
  5
26458
330
747D
100
AcDbEntity
  8
細線
 48
50.0
100
AcDbLine
 10
7303.599994989124
 20
7288.573710955073
 30
0.0
 11
7501.378747831317
 21
7486.352463797264
 31
0.0
  0
LINE
  5
26459
330
747D
100
AcDbEntity
  8
細線
 48
50.0
100
AcDbLine
 10
7303.599994989124
 20
7333.474991560414
 30
0.0
 11
7456.47746722597
 21
7486.352463797266
 31
0.0
  0
LINE
  5
2645A
330
747D
100
AcDbEntity
  8
細線
 48
50.0
100
AcDbLine
 10
7303.59999498912
 20
7378.376272165761
 30
0.0
 11
7411.576186620623
 21
7486.352463797263
 31
0.0
  0
LINE
  5
2645B
330
747D
100
AcDbEntity
  8
細線
 48
50.0
100
AcDbLine
 10
7303.599994989119
 20
7423.277552771105
 30
0.0
 11
7366.67490601528
 21
7486.352463797264
 31
0.0
  0
LINE
  5
2645C
330
747D
100
AcDbEntity
  8
部品1
 48
50.0
100
AcDbLine
 10
7503.599994989119
 20
7486.352463797264
 30
0.0
 11
7503.599994989125
 21
7286.35247029219
 31
0.0
  0
LINE
  5
2645D
330
747D
100
AcDbEntity
  8
部品1
 48
50.0
100
AcDbLine
 10
7303.599994989119
 20
7486.352463797264
 30
0.0
 11
7303.599994989124
 21
7286.35247029219
 31
0.0
  0
LINE
  5
2645E
330
747D
100
AcDbEntity
  8
センター
 48
2.0
100
AcDbLine
 10
6943.600000000007
 20
7006.352470292189
 30
0.0
 11
7043.600000000006
 21
7006.352470292189
 31
0.0
  0
LINE
  5
2645F
330
747D
100
AcDbEntity
  8
部品1
 48
50.0
100
AcDbLine
 10
7093.600000000006
 20
7106.35247029219
 30
0.0
 11
6893.600000000006
 21
7106.35247029219
 31
0.0
  0
LINE
  5
26460
330
747D
100
AcDbEntity
  8
部品1
 48
50.0
100
AcDbLine
 10
7093.600000000006
 20
6906.35247029219
 30
0.0
 11
6893.600000000006
 21
6906.35247029219
 31
0.0
  0
LINE
  5
26461
330
747D
100
AcDbEntity
  8
センター
 48
2.0
100
AcDbLine
 10
6993.600000000006
 20
7056.352470292189
 30
0.0
 11
6993.600000000006
 21
6956.352470292189
 31
0.0
  0
LINE
  5
26462
330
747D
100
AcDbEntity
  8
部品1
 48
50.0
100
AcDbLine
 10
6893.600000000006
 20
6906.35247029219
 30
0.0
 11
6893.600000000006
 21
7106.35247029219
 31
0.0
  0
LINE
  5
26463
330
747D
100
AcDbEntity
  8
部品1
 48
50.0
100
AcDbLine
 10
7093.600000000006
 20
6906.35247029219
 30
0.0
 11
7093.600000000006
 21
7106.35247029219
 31
0.0
  0
LINE
  5
26464
330
747D
100
AcDbEntity
  8
センター
 48
2.0
100
AcDbLine
 10
6875.599999999998
 20
7413.35247029219
 30
0.0
 11
6875.599999999998
 21
7313.352470292191
 31
0.0
  0
CIRCLE
  5
26465
330
747D
100
AcDbEntity
  8
部品1
 48
50.0
100
AcDbCircle
 10
6875.599999999998
 20
7363.35247029219
 30
0.0
 40
35.0
  0
LINE
  5
26466
330
747D
100
AcDbEntity
  8
センター
 48
2.0
100
AcDbLine
 10
6825.599999999998
 20
7363.35247029219
 30
0.0
 11
6925.599999999999
 21
7363.35247029219
 31
0.0
  0
LINE
  5
26467
330
747D
100
AcDbEntity
  8
細線
 48
50.0
100
AcDbLine
 10
7391.181315536951
 20
7286.352470292192
 30
0.0
 11
7503.599994989119
 21
7398.771149744378
 31
0.0
  0
LINE
  5
26468
330
747D
100
AcDbEntity
  8
細線
 48
50.0
100
AcDbLine
 10
7346.280034931588
 20
7286.35247029219
 30
0.0
 11
7503.599994989119
 21
7443.672430349721
 31
0.0
  0
LINE
  5
26469
330
747D
100
AcDbEntity
  8
細線
 48
50.0
100
AcDbLine
 10
7480.983876747656
 20
7286.352463797252
 30
0.0
 11
7503.599994989123
 21
7308.968582038722
 31
0.0
  0
LINE
  5
2646A
330
747D
100
AcDbEntity
  8
細線
 48
50.0
100
AcDbLine
 10
7436.082596142296
 20
7286.352463797252
 30
0.0
 11
7503.59999498912
 21
7353.869862644074
 31
0.0
  0
LINE
  5
2646B
330
747D
100
AcDbEntity
  8
細線
 48
50.0
100
AcDbLine
 10
7303.599994989119
 20
7468.178833376448
 30
0.0
 11
7321.773625409933
 21
7486.352463797266
 31
0.0
  0
LINE
  5
2646C
330
747D
100
AcDbEntity
  8
細線
 48
50.0
100
AcDbLine
 10
8123.599994989124
 20
7333.474991560418
 30
0.0
 11
8276.477467225971
 21
7486.352463797266
 31
0.0
  0
LINE
  5
2646D
330
747D
100
AcDbEntity
  8
細線
 48
50.0
100
AcDbLine
 10
8123.59999498912
 20
7378.376272165763
 30
0.0
 11
8231.576186620625
 21
7486.352463797264
 31
0.0
  0
LINE
  5
2646E
330
747D
100
AcDbEntity
  8
細線
 48
50.0
100
AcDbLine
 10
8123.599994989119
 20
7423.277552771105
 30
0.0
 11
8186.67490601528
 21
7486.352463797264
 31
0.0
  0
LINE
  5
2646F
330
747D
100
AcDbEntity
  8
部品1
 48
50.0
100
AcDbLine
 10
8323.59999498912
 20
7486.352463797264
 30
0.0
 11
8323.599994989123
 21
7286.352470292192
 31
0.0
  0
LINE
  5
26470
330
747D
100
AcDbEntity
  8
部品1
 48
50.0
100
AcDbLine
 10
8123.599994989119
 20
7486.352463797264
 30
0.0
 11
8123.599994989124
 21
7286.35247029219
 31
0.0
  0
LINE
  5
26475
330
747D
100
AcDbEntity
  8
部品1
 48
50.0
100
AcDbLine
 10
7913.600000000006
 20
7106.35247029219
 30
0.0
 11
7713.600000000006
 21
7106.35247029219
 31
0.0
  0
LINE
  5
26476
330
747D
100
AcDbEntity
  8
センター
 48
2.0
100
AcDbLine
 10
7763.600000000007
 20
7006.352470292189
 30
0.0
 11
7863.600000000007
 21
7006.352470292189
 31
0.0
  0
LINE
  5
26477
330
747D
100
AcDbEntity
  8
部品1
 48
50.0
100
AcDbLine
 10
7913.600000000006
 20
6906.35247029219
 30
0.0
 11
7713.600000000006
 21
6906.35247029219
 31
0.0
  0
LINE
  5
26478
330
747D
100
AcDbEntity
  8
センター
 48
2.0
100
AcDbLine
 10
7813.600000000007
 20
7056.352470292189
 30
0.0
 11
7813.600000000007
 21
6956.352470292189
 31
0.0
  0
LINE
  5
26479
330
747D
100
AcDbEntity
  8
部品1
 48
50.0
100
AcDbLine
 10
7713.600000000006
 20
6906.35247029219
 30
0.0
 11
7713.600000000006
 21
7106.35247029219
 31
0.0
  0
LINE
  5
2647A
330
747D
100
AcDbEntity
  8
部品1
 48
50.0
100
AcDbLine
 10
7913.600000000006
 20
6906.35247029219
 30
0.0
 11
7913.600000000006
 21
7106.35247029219
 31
0.0
  0
LINE
  5
26480
330
747D
100
AcDbEntity
  8
細線
 48
50.0
100
AcDbLine
 10
8166.280034931586
 20
7286.35247029219
 30
0.0
 11
8323.599994989121
 21
7443.672430349725
 31
0.0
  0
LINE
  5
26481
330
747D
100
AcDbEntity
  8
細線
 48
50.0
100
AcDbLine
 10
8211.181315536947
 20
7286.35247029219
 30
0.0
 11
8323.599994989121
 21
7398.771149744376
 31
0.0
  0
LINE
  5
26482
330
747D
100
AcDbEntity
  8
細線
 48
50.0
100
AcDbLine
 10
8123.599994989126
 20
7288.57371095507
 30
0.0
 11
8321.378754326241
 21
7486.352470292189
 31
0.0
  0
LINE
  5
26485
330
747D
100
AcDbEntity
  8
細線
 48
50.0
100
AcDbLine
 10
8256.082602637254
 20
7286.352470292188
 30
0.0
 11
8323.59999498912
 21
7353.869862644053
 31
0.0
  0
LINE
  5
26486
330
747D
100
AcDbEntity
  8
細線
 48
50.0
100
AcDbLine
 10
8300.983876747654
 20
7286.35246379723
 30
0.0
 11
8323.59999498912
 21
7308.9685820387
 31
0.0
  0
LINE
  5
26487
330
747D
100
AcDbEntity
  8
寸法
 48
50.0
100
AcDbLine
 10
7813.600000000007
 20
7968.961286962323
 30
0.0
 11
8093.600000000007
 21
7968.961286962323
 31
0.0
  0
LINE
  5
26488
330
747D
100
AcDbEntity
  8
細線
 48
50.0
100
AcDbLine
 10
8123.599994989119
 20
7468.178833376448
 30
0.0
 11
8141.773625409932
 21
7486.352463797266
 31
0.0
  0
LINE
  5
26489
330
747D
100
AcDbEntity
  8
細線
 48
50.0
100
AcDbLine
 10
8316.476413573296
 20
7481.450129539246
 30
0.0
 11
8321.378747831316
 21
7486.352463797266
 31
0.0
  0
LINE
  5
2648A
330
747D
100
AcDbEntity
  8
寸法
 48
50.0
100
AcDbLine
 10
6875.599999999998
 20
8212.618928385987
 30
0.0
 11
7575.644554822069
 21
8212.618928385987
 31
0.0
  0
LINE
  5
26490
330
747D
100
AcDbEntity
  8
部品1
 48
50.0
100
AcDbLine
 10
11918.6
 20
6526.352470292208
 30
0.0
 11
11918.6
 21
7486.352470292189
 31
0.0
  0
LINE
  5
26505
330
747D
100
AcDbEntity
  8
細線
 48
50.0
100
AcDbLine
 10
9079.404359938234
 20
6526.352463797266
 30
0.0
 11
9143.599994989122
 21
6590.548098848154
 31
0.0
  0
LINE
  5
26506
330
747D
100
AcDbEntity
  8
細線
 48
50.0
100
AcDbLine
 10
9034.503079332887
 20
6526.352463797266
 30
0.0
 11
9143.59999498912
 21
6635.449379453499
 31
0.0
  0
LINE
  5
26507
330
747D
100
AcDbEntity
  8
細線
 48
50.0
100
AcDbLine
 10
8989.601798727541
 20
6526.352463797266
 30
0.0
 11
9143.599994989115
 21
6680.350660058842
 31
0.0
  0
LINE
  5
26508
330
747D
100
AcDbEntity
  8
細線
 48
50.0
100
AcDbLine
 10
8944.700518122195
 20
6526.352463797266
 30
0.0
 11
9143.599994989115
 21
6725.251940664183
 31
0.0
  0
LINE
  5
26509
330
747D
100
AcDbEntity
  8
細線
 48
50.0
100
AcDbLine
 10
8943.599994989122
 20
6570.153221269539
 30
0.0
 11
9143.599994989118
 21
6770.153221269535
 31
0.0
  0
LINE
  5
2650A
330
747D
100
AcDbEntity
  8
部品1
 48
50.0
100
AcDbLine
 10
8943.599994989115
 20
6806.352470292205
 30
0.0
 11
8943.599994989122
 21
6526.352463797263
 31
0.0
  0
LINE
  5
2650B
330
747D
100
AcDbEntity
  8
部品1
 48
50.0
100
AcDbLine
 10
9143.599994989115
 20
6806.352470292207
 30
0.0
 11
9143.599994989122
 21
6526.352463797268
 31
0.0
  0
LINE
  5
2650C
330
747D
100
AcDbEntity
  8
細線
 48
50.0
100
AcDbLine
 10
9124.30564054358
 20
6526.35246379727
 30
0.0
 11
9143.599994989122
 21
6545.646818242811
 31
0.0
  0
LINE
  5
2650D
330
747D
100
AcDbEntity
  8
細線
 48
50.0
100
AcDbLine
 10
8943.599994989119
 20
6615.054501874881
 30
0.0
 11
9134.897963406443
 21
6806.352470292207
 31
0.0
  0
LINE
  5
2650E
330
747D
100
AcDbEntity
  8
細線
 48
50.0
100
AcDbLine
 10
8943.599994989119
 20
6659.955782480228
 30
0.0
 11
9089.9966828011
 21
6806.352470292205
 31
0.0
  0
LINE
  5
2650F
330
747D
100
AcDbEntity
  8
細線
 48
50.0
100
AcDbLine
 10
8943.599994989115
 20
6704.857056590597
 30
0.0
 11
9045.095408690725
 21
6806.352470292203
 31
0.0
  0
LINE
  5
26510
330
747D
100
AcDbEntity
  8
細線
 48
50.0
100
AcDbLine
 10
8943.599994989115
 20
6749.758337195941
 30
0.0
 11
9000.19412808538
 21
6806.352470292205
 31
0.0
  0
LINE
  5
26511
330
747D
100
AcDbEntity
  8
センター
 48
2.0
100
AcDbLine
 10
9285.600000000007
 20
6724.352470292193
 30
0.0
 11
9385.600000000007
 21
6724.352470292193
 31
0.0
  0
LINE
  5
26512
330
747D
100
AcDbEntity
  8
センター
 48
2.0
100
AcDbLine
 10
9335.600000000006
 20
6774.352470292193
 30
0.0
 11
9335.600000000006
 21
6674.352470292193
 31
0.0
  0
CIRCLE
  5
26513
330
747D
100
AcDbEntity
  8
部品1
 48
50.0
100
AcDbCircle
 10
9335.600000000006
 20
6724.352470292193
 30
0.0
 40
35.0
  0
LINE
  5
26514
330
747D
100
AcDbEntity
  8
細線
 48
50.0
100
AcDbLine
 10
9899.404359938234
 20
6526.352463797266
 30
0.0
 11
9963.599994989124
 21
6590.548098848154
 31
0.0
  0
LINE
  5
26515
330
747D
100
AcDbEntity
  8
細線
 48
50.0
100
AcDbLine
 10
9854.503079332888
 20
6526.352463797266
 30
0.0
 11
9963.59999498912
 21
6635.449379453499
 31
0.0
  0
LINE
  5
26516
330
747D
100
AcDbEntity
  8
細線
 48
50.0
100
AcDbLine
 10
9809.601798727541
 20
6526.352463797266
 30
0.0
 11
9963.599994989115
 21
6680.350660058838
 31
0.0
  0
LINE
  5
26517
330
747D
100
AcDbEntity
  8
細線
 48
50.0
100
AcDbLine
 10
9764.700518122197
 20
6526.352463797266
 30
0.0
 11
9963.599994989115
 21
6725.251940664183
 31
0.0
  0
LINE
  5
26518
330
747D
100
AcDbEntity
  8
細線
 48
50.0
100
AcDbLine
 10
9763.599994989123
 20
6570.153221269539
 30
0.0
 11
9963.599994989113
 21
6770.15322126953
 31
0.0
  0
LINE
  5
26519
330
747D
100
AcDbEntity
  8
部品1
 48
50.0
100
AcDbLine
 10
9763.599994989117
 20
6806.35247029221
 30
0.0
 11
9763.599994989123
 21
6526.352463797263
 31
0.0
  0
LINE
  5
2651A
330
747D
100
AcDbEntity
  8
部品1
 48
50.0
100
AcDbLine
 10
9963.599994989113
 20
6806.35247029221
 30
0.0
 11
9963.599994989124
 21
6526.352463797268
 31
0.0
  0
LINE
  5
2651B
330
747D
100
AcDbEntity
  8
細線
 48
50.0
100
AcDbLine
 10
9944.30564054358
 20
6526.35246379727
 30
0.0
 11
9963.599994989124
 21
6545.646818242811
 31
0.0
  0
LINE
  5
2651C
330
747D
100
AcDbEntity
  8
細線
 48
50.0
100
AcDbLine
 10
9763.599994989121
 20
6615.054501874881
 30
0.0
 11
9954.897963406448
 21
6806.35247029221
 31
0.0
  0
LINE
  5
2651D
330
747D
100
AcDbEntity
  8
細線
 48
50.0
100
AcDbLine
 10
9763.599994989121
 20
6659.955782480228
 30
0.0
 11
9909.996682801107
 21
6806.35247029221
 31
0.0
  0
LINE
  5
2651E
330
747D
100
AcDbEntity
  8
細線
 48
50.0
100
AcDbLine
 10
9763.599994989116
 20
6749.758337195965
 30
0.0
 11
9820.194128085361
 21
6806.352470292208
 31
0.0
  0
LINE
  5
2651F
330
747D
100
AcDbEntity
  8
細線
 48
50.0
100
AcDbLine
 10
9763.599994989116
 20
6704.857056590622
 30
0.0
 11
9865.095408690708
 21
6806.352470292208
 31
0.0
  0
LINE
  5
26520
330
747D
100
AcDbEntity
  8
細線
 48
50.0
100
AcDbLine
 10
10719.40435993823
 20
6526.352463797268
 30
0.0
 11
10783.59999498912
 21
6590.548098848154
 31
0.0
  0
LINE
  5
26521
330
747D
100
AcDbEntity
  8
細線
 48
50.0
100
AcDbLine
 10
10674.50307933289
 20
6526.352463797266
 30
0.0
 11
10783.59999498912
 21
6635.449379453499
 31
0.0
  0
LINE
  5
26522
330
747D
100
AcDbEntity
  8
細線
 48
50.0
100
AcDbLine
 10
10629.60179872754
 20
6526.352463797266
 30
0.0
 11
10783.59999498911
 21
6680.350660058841
 31
0.0
  0
LINE
  5
26523
330
747D
100
AcDbEntity
  8
細線
 48
50.0
100
AcDbLine
 10
10584.70051812219
 20
6526.352463797266
 30
0.0
 11
10783.59999498911
 21
6725.251940664183
 31
0.0
  0
LINE
  5
26524
330
747D
100
AcDbEntity
  8
細線
 48
50.0
100
AcDbLine
 10
10583.59999498912
 20
6570.153221269539
 30
0.0
 11
10783.59999498911
 21
6770.153221269531
 31
0.0
  0
LINE
  5
26525
330
747D
100
AcDbEntity
  8
部品1
 48
50.0
100
AcDbLine
 10
10583.59999498911
 20
6806.352470292214
 30
0.0
 11
10583.59999498912
 21
6526.352463797263
 31
0.0
  0
LINE
  5
26526
330
747D
100
AcDbEntity
  8
部品1
 48
50.0
100
AcDbLine
 10
10783.59999498911
 20
6806.352470292215
 30
0.0
 11
10783.59999498912
 21
6526.352463797268
 31
0.0
  0
LINE
  5
26527
330
747D
100
AcDbEntity
  8
細線
 48
50.0
100
AcDbLine
 10
10764.30564054358
 20
6526.35246379727
 30
0.0
 11
10783.59999498912
 21
6545.646818242811
 31
0.0
  0
LINE
  5
26528
330
747D
100
AcDbEntity
  8
細線
 48
50.0
100
AcDbLine
 10
10583.59999498912
 20
6615.054501874881
 30
0.0
 11
10774.89796340645
 21
6806.352470292215
 31
0.0
  0
LINE
  5
26529
330
747D
100
AcDbEntity
  8
細線
 48
50.0
100
AcDbLine
 10
10583.59999498912
 20
6659.955782480224
 30
0.0
 11
10729.99668280109
 21
6806.352470292215
 31
0.0
  0
LINE
  5
2652A
330
747D
100
AcDbEntity
  8
細線
 48
50.0
100
AcDbLine
 10
10583.59999498911
 20
6704.857056590622
 30
0.0
 11
10685.09540869071
 21
6806.352470292214
 31
0.0
  0
LINE
  5
2652B
330
747D
100
AcDbEntity
  8
細線
 48
50.0
100
AcDbLine
 10
10583.59999498911
 20
6749.758337195965
 30
0.0
 11
10640.19412808536
 21
6806.352470292214
 31
0.0
  0
LINE
  5
2652C
330
747D
100
AcDbEntity
  8
細線
 48
50.0
100
AcDbLine
 10
11539.40435993823
 20
6526.352463797268
 30
0.0
 11
11603.59999498912
 21
6590.548098848154
 31
0.0
  0
LINE
  5
2652D
330
747D
100
AcDbEntity
  8
細線
 48
50.0
100
AcDbLine
 10
11494.50307933289
 20
6526.352463797266
 30
0.0
 11
11603.59999498912
 21
6635.449379453499
 31
0.0
  0
LINE
  5
2652E
330
747D
100
AcDbEntity
  8
細線
 48
50.0
100
AcDbLine
 10
11449.60179872754
 20
6526.352463797266
 30
0.0
 11
11603.59999498911
 21
6680.350660058838
 31
0.0
  0
LINE
  5
2652F
330
747D
100
AcDbEntity
  8
細線
 48
50.0
100
AcDbLine
 10
11404.70051812219
 20
6526.352463797266
 30
0.0
 11
11603.59999498911
 21
6725.251940664183
 31
0.0
  0
LINE
  5
26530
330
747D
100
AcDbEntity
  8
細線
 48
50.0
100
AcDbLine
 10
11403.59999498912
 20
6570.153221269539
 30
0.0
 11
11603.59999498911
 21
6770.153221269525
 31
0.0
  0
LINE
  5
26531
330
747D
100
AcDbEntity
  8
部品1
 48
50.0
100
AcDbLine
 10
11403.59999498911
 20
6806.352470292219
 30
0.0
 11
11403.59999498912
 21
6526.352463797263
 31
0.0
  0
LINE
  5
26532
330
747D
100
AcDbEntity
  8
部品1
 48
50.0
100
AcDbLine
 10
11603.59999498911
 20
6806.352470292219
 30
0.0
 11
11603.59999498912
 21
6526.352463797268
 31
0.0
  0
LINE
  5
26533
330
747D
100
AcDbEntity
  8
細線
 48
50.0
100
AcDbLine
 10
11584.30564054358
 20
6526.35246379727
 30
0.0
 11
11603.59999498912
 21
6545.646818242811
 31
0.0
  0
LINE
  5
26534
330
747D
100
AcDbEntity
  8
細線
 48
50.0
100
AcDbLine
 10
11403.59999498912
 20
6615.054501874881
 30
0.0
 11
11594.89796340645
 21
6806.352470292219
 31
0.0
  0
LINE
  5
26535
330
747D
100
AcDbEntity
  8
細線
 48
50.0
100
AcDbLine
 10
11403.59999498911
 20
6749.758337195965
 30
0.0
 11
11460.19412808537
 21
6806.352470292219
 31
0.0
  0
LINE
  5
26536
330
747D
100
AcDbEntity
  8
細線
 48
50.0
100
AcDbLine
 10
11403.59999498911
 20
6704.857056590622
 30
0.0
 11
11505.09540869071
 21
6806.352470292219
 31
0.0
  0
LINE
  5
26537
330
747D
100
AcDbEntity
  8
細線
 48
50.0
100
AcDbLine
 10
11403.59999498912
 20
6659.955782480224
 30
0.0
 11
11549.9966828011
 21
6806.352470292219
 31
0.0
  0
LINE
  5
26539
330
747D
100
AcDbEntity
  8
センター
 48
2.0
100
AcDbLine
 10
11745.6
 20
6724.352470292193
 30
0.0
 11
11845.6
 21
6724.352470292193
 31
0.0
  0
CIRCLE
  5
2653A
330
747D
100
AcDbEntity
  8
部品1
 48
50.0
100
AcDbCircle
 10
11795.6
 20
6724.352470292193
 30
0.0
 40
35.0
  0
LINE
  5
2653B
330
747D
100
AcDbEntity
  8
センター
 48
2.0
100
AcDbLine
 10
11795.6
 20
6774.352470292193
 30
0.0
 11
11795.6
 21
6674.352470292193
 31
0.0
  0
DIMENSION
  5
26540
330
747D
100
AcDbEntity
  8
寸法
 48
50.0
100
AcDbDimension
  2
*D39
 10
9335.599999999997
 20
8212.618928386103
 30
0.0
 11
10565.6
 21
8312.630739409724
 31
0.0
 70
    32
 71
     5
 42
2460.0
  3
INABA_S40G
100
AcDbAlignedDimension
 13
11795.6
 23
7413.35247029219
 33
0.0
 14
9335.599999999997
 24
7413.35247029219
 34
0.0
100
AcDbRotatedDimension
1001
ACAD
1000
DSTYLE
1002
{
1070
   341
1005
0
1002
}
  0
DIMENSION
  5
26541
330
747D
100
AcDbEntity
  8
寸法
 48
50.0
100
AcDbDimension
  2
*D40
 10
11093.6
 20
7968.961286962439
 30
0.0
 11
11506.1
 21
8068.973097986061
 31
0.0
 70
    32
 71
     5
 42
824.9999999999927
  3
INABA_S40G
100
AcDbAlignedDimension
 13
11918.6
 23
7486.352470292189
 33
0.0
 14
11093.6
 24
7056.352470292189
 34
0.0
100
AcDbRotatedDimension
1001
ACAD
1000
DSTYLE
1002
{
1070
   341
1005
0
1002
}
  0
DIMENSION
  5
26544
330
747D
100
AcDbEntity
  8
寸法
 48
50.0
100
AcDbDimension
  2
*D41
 10
9453.600000000006
 20
7968.961286962439
 30
0.0
 11
9863.600000000007
 21
8068.973097986061
 31
0.0
 70
    32
 71
     5
 42
820.0
  3
INABA_S40G
100
AcDbAlignedDimension
 13
10273.6
 23
7056.352470292189
 33
0.0
 14
9453.600000000006
 24
7056.352470292189
 34
0.0
100
AcDbRotatedDimension
1001
ACAD
1000
DSTYLE
1002
{
1070
   341
1005
0
1002
}
  0
DIMENSION
  5
26545
330
747D
100
AcDbEntity
  8
寸法
 48
50.0
100
AcDbDimension
  2
*D42
 10
8633.600000000006
 20
7968.961286962439
 30
0.0
 11
9043.600000000006
 21
8068.973097986061
 31
0.0
 70
    32
 71
     5
 42
820.0
  3
INABA_S40G
100
AcDbAlignedDimension
 13
9453.600000000006
 23
7056.352470292189
 33
0.0
 14
8633.600000000006
 24
7056.352470292189
 34
0.0
100
AcDbRotatedDimension
1001
ACAD
1000
DSTYLE
1002
{
1070
   341
1005
0
1002
}
  0
LINE
  5
26546
330
747D
100
AcDbEntity
  8
細線
 48
50.0
100
AcDbLine
 10
8943.599994989126
 20
7288.573710955073
 30
0.0
 11
9141.378747831316
 21
7486.352463797264
 31
0.0
  0
LINE
  5
26547
330
747D
100
AcDbEntity
  8
細線
 48
50.0
100
AcDbLine
 10
8943.599994989122
 20
7333.474991560418
 30
0.0
 11
9096.477467225971
 21
7486.352463797266
 31
0.0
  0
LINE
  5
26548
330
747D
100
AcDbEntity
  8
細線
 48
50.0
100
AcDbLine
 10
8943.599994989121
 20
7378.376272165761
 30
0.0
 11
9051.576186620623
 21
7486.352463797263
 31
0.0
  0
LINE
  5
26549
330
747D
100
AcDbEntity
  8
細線
 48
50.0
100
AcDbLine
 10
8943.599994989119
 20
7423.277552771105
 30
0.0
 11
9006.67490601528
 21
7486.352463797264
 31
0.0
  0
LINE
  5
2654A
330
747D
100
AcDbEntity
  8
部品1
 48
50.0
100
AcDbLine
 10
9143.59999498912
 20
7486.352463797264
 30
0.0
 11
9143.599994989122
 21
7286.352470292192
 31
0.0
  0
LINE
  5
2654B
330
747D
100
AcDbEntity
  8
部品1
 48
50.0
100
AcDbLine
 10
8943.599994989119
 20
7486.352463797264
 30
0.0
 11
8943.599994989126
 21
7286.352470292192
 31
0.0
  0
LINE
  5
2654C
330
747D
100
AcDbEntity
  8
センター
 48
2.0
100
AcDbLine
 10
8583.600000000005
 20
7006.352470292189
 30
0.0
 11
8683.600000000005
 21
7006.352470292189
 31
0.0
  0
LINE
  5
2654D
330
747D
100
AcDbEntity
  8
部品1
 48
50.0
100
AcDbLine
 10
8733.600000000006
 20
7106.35247029219
 30
0.0
 11
8533.600000000005
 21
7106.35247029219
 31
0.0
  0
LINE
  5
2654E
330
747D
100
AcDbEntity
  8
部品1
 48
50.0
100
AcDbLine
 10
8733.600000000006
 20
6906.35247029219
 30
0.0
 11
8533.600000000005
 21
6906.35247029219
 31
0.0
  0
LINE
  5
2654F
330
747D
100
AcDbEntity
  8
センター
 48
2.0
100
AcDbLine
 10
8633.600000000006
 20
7056.352470292189
 30
0.0
 11
8633.600000000006
 21
6956.352470292189
 31
0.0
  0
LINE
  5
26550
330
747D
100
AcDbEntity
  8
部品1
 48
50.0
100
AcDbLine
 10
8533.600000000005
 20
6906.35247029219
 30
0.0
 11
8533.600000000005
 21
7106.35247029219
 31
0.0
  0
LINE
  5
26551
330
747D
100
AcDbEntity
  8
部品1
 48
50.0
100
AcDbLine
 10
8733.600000000006
 20
6906.35247029219
 30
0.0
 11
8733.600000000006
 21
7106.35247029219
 31
0.0
  0
LINE
  5
26552
330
747D
100
AcDbEntity
  8
細線
 48
50.0
100
AcDbLine
 10
9031.181315536947
 20
7286.352470292188
 30
0.0
 11
9143.59999498912
 21
7398.771149744378
 31
0.0
  0
LINE
  5
26553
330
747D
100
AcDbEntity
  8
細線
 48
50.0
100
AcDbLine
 10
8986.280034931587
 20
7286.352470292188
 30
0.0
 11
9143.59999498912
 21
7443.672430349721
 31
0.0
  0
LINE
  5
26554
330
747D
100
AcDbEntity
  8
細線
 48
50.0
100
AcDbLine
 10
9120.983876747654
 20
7286.352463797228
 30
0.0
 11
9143.59999498912
 21
7308.968582038699
 31
0.0
  0
LINE
  5
26555
330
747D
100
AcDbEntity
  8
細線
 48
50.0
100
AcDbLine
 10
9076.082596142292
 20
7286.352463797228
 30
0.0
 11
9143.59999498912
 21
7353.86986264405
 31
0.0
  0
LINE
  5
26556
330
747D
100
AcDbEntity
  8
細線
 48
50.0
100
AcDbLine
 10
8943.599994989119
 20
7468.178833376448
 30
0.0
 11
8961.773625409932
 21
7486.352463797266
 31
0.0
  0
LINE
  5
26557
330
747D
100
AcDbEntity
  8
細線
 48
50.0
100
AcDbLine
 10
9763.599994989121
 20
7288.57371095507
 30
0.0
 11
9961.378747831318
 21
7486.352463797264
 31
0.0
  0
LINE
  5
26558
330
747D
100
AcDbEntity
  8
細線
 48
50.0
100
AcDbLine
 10
9763.599994989123
 20
7333.474991560414
 30
0.0
 11
9916.47746722597
 21
7486.352463797266
 31
0.0
  0
LINE
  5
26559
330
747D
100
AcDbEntity
  8
細線
 48
50.0
100
AcDbLine
 10
9763.599994989121
 20
7378.376272165763
 30
0.0
 11
9871.576186620625
 21
7486.352463797264
 31
0.0
  0
LINE
  5
2655A
330
747D
100
AcDbEntity
  8
細線
 48
50.0
100
AcDbLine
 10
9763.599994989121
 20
7423.277552771105
 30
0.0
 11
9826.674906015281
 21
7486.352463797264
 31
0.0
  0
LINE
  5
2655B
330
747D
100
AcDbEntity
  8
部品1
 48
50.0
100
AcDbLine
 10
9963.599994989117
 20
7486.352463797264
 30
0.0
 11
9963.599994989127
 21
7286.352470292192
 31
0.0
  0
LINE
  5
2655C
330
747D
100
AcDbEntity
  8
部品1
 48
50.0
100
AcDbLine
 10
9763.599994989121
 20
7486.352463797264
 30
0.0
 11
9763.599994989123
 21
7286.352470292192
 31
0.0
  0
LINE
  5
2655D
330
747D
100
AcDbEntity
  8
部品1
 48
50.0
100
AcDbLine
 10
9553.600000000006
 20
7106.35247029219
 30
0.0
 11
9353.600000000005
 21
7106.35247029219
 31
0.0
  0
LINE
  5
2655E
330
747D
100
AcDbEntity
  8
センター
 48
2.0
100
AcDbLine
 10
9403.600000000006
 20
7006.352470292189
 30
0.0
 11
9503.600000000005
 21
7006.352470292189
 31
0.0
  0
LINE
  5
2655F
330
747D
100
AcDbEntity
  8
部品1
 48
50.0
100
AcDbLine
 10
9553.600000000006
 20
6906.35247029219
 30
0.0
 11
9353.600000000005
 21
6906.35247029219
 31
0.0
  0
LINE
  5
26560
330
747D
100
AcDbEntity
  8
センター
 48
2.0
100
AcDbLine
 10
9453.600000000006
 20
7056.352470292189
 30
0.0
 11
9453.600000000006
 21
6956.352470292189
 31
0.0
  0
LINE
  5
26561
330
747D
100
AcDbEntity
  8
部品1
 48
50.0
100
AcDbLine
 10
9353.600000000005
 20
6906.35247029219
 30
0.0
 11
9353.600000000005
 21
7106.35247029219
 31
0.0
  0
LINE
  5
26562
330
747D
100
AcDbEntity
  8
部品1
 48
50.0
100
AcDbLine
 10
9553.600000000006
 20
6906.35247029219
 30
0.0
 11
9553.600000000006
 21
7106.35247029219
 31
0.0
  0
LINE
  5
26563
330
747D
100
AcDbEntity
  8
センター
 48
2.0
100
AcDbLine
 10
9335.599999999997
 20
7413.35247029219
 30
0.0
 11
9335.599999999997
 21
7313.352470292191
 31
0.0
  0
LINE
  5
26564
330
747D
100
AcDbEntity
  8
センター
 48
2.0
100
AcDbLine
 10
9285.599999999998
 20
7363.35247029219
 30
0.0
 11
9385.599999999998
 21
7363.35247029219
 31
0.0
  0
CIRCLE
  5
26565
330
747D
100
AcDbEntity
  8
部品1
 48
50.0
100
AcDbCircle
 10
9335.599999999997
 20
7363.35247029219
 30
0.0
 40
35.0
  0
LINE
  5
26566
330
747D
100
AcDbEntity
  8
細線
 48
50.0
100
AcDbLine
 10
9851.181315536933
 20
7286.35247029219
 30
0.0
 11
9963.599994989117
 21
7398.771149744374
 31
0.0
  0
LINE
  5
26567
330
747D
100
AcDbEntity
  8
細線
 48
50.0
100
AcDbLine
 10
9806.280034931582
 20
7286.352470292188
 30
0.0
 11
9963.599994989117
 21
7443.67243034972
 31
0.0
  0
LINE
  5
26568
330
747D
100
AcDbEntity
  8
細線
 48
50.0
100
AcDbLine
 10
9940.983876747655
 20
7286.352463797252
 30
0.0
 11
9963.59999498912
 21
7308.968582038722
 31
0.0
  0
LINE
  5
26569
330
747D
100
AcDbEntity
  8
細線
 48
50.0
100
AcDbLine
 10
9896.082596142292
 20
7286.352463797252
 30
0.0
 11
9963.59999498912
 21
7353.869862644074
 31
0.0
  0
LINE
  5
2656A
330
747D
100
AcDbEntity
  8
細線
 48
50.0
100
AcDbLine
 10
9763.599994989121
 20
7468.178833376448
 30
0.0
 11
9781.773625409933
 21
7486.352463797266
 31
0.0
  0
LINE
  5
2656B
330
747D
100
AcDbEntity
  8
寸法
 48
50.0
100
AcDbLine
 10
8635.555445177928
 20
8212.618928386103
 30
0.0
 11
9335.599999999997
 21
8212.618928386103
 31
0.0
  0
DIMENSION
  5
2656D
330
747D
100
AcDbEntity
  8
寸法
 48
50.0
100
AcDbDimension
  2
*D43
 10
10273.6
 20
7968.961286962439
 30
0.0
 11
10683.6
 21
8068.973097986061
 31
0.0
 70
    32
 71
     5
 42
820.0
  3
INABA_S40G
100
AcDbAlignedDimension
 13
11093.6
 23
7056.352470292189
 33
0.0
 14
10273.6
 24
7056.352470292189
 34
0.0
100
AcDbRotatedDimension
1001
ACAD
1000
DSTYLE
1002
{
1070
   341
1005
0
1002
}
  0
LINE
  5
2656E
330
747D
100
AcDbEntity
  8
細線
 48
50.0
100
AcDbLine
 10
10583.59999498913
 20
7288.573710955076
 30
0.0
 11
10781.37874783132
 21
7486.352463797264
 31
0.0
  0
LINE
  5
2656F
330
747D
100
AcDbEntity
  8
細線
 48
50.0
100
AcDbLine
 10
10583.59999498912
 20
7333.474991560421
 30
0.0
 11
10736.47746722597
 21
7486.352463797266
 31
0.0
  0
LINE
  5
26570
330
747D
100
AcDbEntity
  8
細線
 48
50.0
100
AcDbLine
 10
10583.59999498912
 20
7378.376272165763
 30
0.0
 11
10691.57618662062
 21
7486.352463797264
 31
0.0
  0
LINE
  5
26571
330
747D
100
AcDbEntity
  8
細線
 48
50.0
100
AcDbLine
 10
10583.59999498912
 20
7423.277552771104
 30
0.0
 11
10646.67490601528
 21
7486.352463797266
 31
0.0
  0
LINE
  5
26572
330
747D
100
AcDbEntity
  8
部品1
 48
50.0
100
AcDbLine
 10
10783.59999498911
 20
7486.352463797264
 30
0.0
 11
10783.59999498912
 21
7286.352470292192
 31
0.0
  0
LINE
  5
26573
330
747D
100
AcDbEntity
  8
部品1
 48
50.0
100
AcDbLine
 10
10583.59999498912
 20
7486.352463797264
 30
0.0
 11
10583.59999498913
 21
7286.352470292192
 31
0.0
  0
LINE
  5
26574
330
747D
100
AcDbEntity
  8
センター
 48
2.0
100
AcDbLine
 10
10223.6
 20
7006.352470292189
 30
0.0
 11
10323.6
 21
7006.352470292189
 31
0.0
  0
LINE
  5
26575
330
747D
100
AcDbEntity
  8
部品1
 48
50.0
100
AcDbLine
 10
10373.6
 20
7106.35247029219
 30
0.0
 11
10173.6
 21
7106.35247029219
 31
0.0
  0
LINE
  5
26576
330
747D
100
AcDbEntity
  8
部品1
 48
50.0
100
AcDbLine
 10
10373.6
 20
6906.35247029219
 30
0.0
 11
10173.6
 21
6906.35247029219
 31
0.0
  0
LINE
  5
26577
330
747D
100
AcDbEntity
  8
センター
 48
2.0
100
AcDbLine
 10
10273.6
 20
7056.352470292189
 30
0.0
 11
10273.6
 21
6956.352470292189
 31
0.0
  0
LINE
  5
26578
330
747D
100
AcDbEntity
  8
部品1
 48
50.0
100
AcDbLine
 10
10173.6
 20
6906.35247029219
 30
0.0
 11
10173.6
 21
7106.35247029219
 31
0.0
  0
LINE
  5
26579
330
747D
100
AcDbEntity
  8
部品1
 48
50.0
100
AcDbLine
 10
10373.6
 20
6906.35247029219
 30
0.0
 11
10373.6
 21
7106.35247029219
 31
0.0
  0
LINE
  5
2657A
330
747D
100
AcDbEntity
  8
細線
 48
50.0
100
AcDbLine
 10
10671.18131553693
 20
7286.35247029219
 30
0.0
 11
10783.59999498911
 21
7398.771149744374
 31
0.0
  0
LINE
  5
2657B
330
747D
100
AcDbEntity
  8
細線
 48
50.0
100
AcDbLine
 10
10626.28003493158
 20
7286.352470292188
 30
0.0
 11
10783.59999498911
 21
7443.67243034972
 31
0.0
  0
LINE
  5
2657C
330
747D
100
AcDbEntity
  8
細線
 48
50.0
100
AcDbLine
 10
10760.98387674765
 20
7286.352463797252
 30
0.0
 11
10783.59999498912
 21
7308.968582038722
 31
0.0
  0
LINE
  5
2657D
330
747D
100
AcDbEntity
  8
細線
 48
50.0
100
AcDbLine
 10
10716.08259614229
 20
7286.352463797252
 30
0.0
 11
10783.59999498912
 21
7353.869862644074
 31
0.0
  0
LINE
  5
2657E
330
747D
100
AcDbEntity
  8
細線
 48
50.0
100
AcDbLine
 10
10583.59999498912
 20
7468.178833376448
 30
0.0
 11
10601.77362540993
 21
7486.352463797266
 31
0.0
  0
LINE
  5
2657F
330
747D
100
AcDbEntity
  8
細線
 48
50.0
100
AcDbLine
 10
11403.59999498912
 20
7288.573710955076
 30
0.0
 11
11601.37874783131
 21
7486.352463797264
 31
0.0
  0
LINE
  5
26580
330
747D
100
AcDbEntity
  8
細線
 48
50.0
100
AcDbLine
 10
11403.59999498912
 20
7333.474991560421
 30
0.0
 11
11556.47746722597
 21
7486.352463797263
 31
0.0
  0
LINE
  5
26581
330
747D
100
AcDbEntity
  8
細線
 48
50.0
100
AcDbLine
 10
11403.59999498912
 20
7378.376272165763
 30
0.0
 11
11511.57618662062
 21
7486.352463797263
 31
0.0
  0
LINE
  5
26582
330
747D
100
AcDbEntity
  8
細線
 48
50.0
100
AcDbLine
 10
11403.59999498912
 20
7423.277552771104
 30
0.0
 11
11466.67490601528
 21
7486.352463797264
 31
0.0
  0
LINE
  5
26583
330
747D
100
AcDbEntity
  8
部品1
 48
50.0
100
AcDbLine
 10
11603.59999498911
 20
7486.352463797264
 30
0.0
 11
11603.59999498912
 21
7286.352470292192
 31
0.0
  0
LINE
  5
26584
330
747D
100
AcDbEntity
  8
部品1
 48
50.0
100
AcDbLine
 10
11403.59999498911
 20
7486.352463797264
 30
0.0
 11
11403.59999498912
 21
7286.352470292192
 31
0.0
  0
LINE
  5
26585
330
747D
100
AcDbEntity
  8
センター
 48
2.0
100
AcDbLine
 10
11043.6
 20
7006.352470292189
 30
0.0
 11
11143.6
 21
7006.352470292189
 31
0.0
  0
LINE
  5
26586
330
747D
100
AcDbEntity
  8
部品1
 48
50.0
100
AcDbLine
 10
11193.6
 20
7106.35247029219
 30
0.0
 11
10993.6
 21
7106.35247029219
 31
0.0
  0
LINE
  5
26587
330
747D
100
AcDbEntity
  8
部品1
 48
50.0
100
AcDbLine
 10
11193.6
 20
6906.35247029219
 30
0.0
 11
10993.6
 21
6906.35247029219
 31
0.0
  0
LINE
  5
26588
330
747D
100
AcDbEntity
  8
センター
 48
2.0
100
AcDbLine
 10
11093.6
 20
7056.352470292189
 30
0.0
 11
11093.6
 21
6956.352470292189
 31
0.0
  0
LINE
  5
26589
330
747D
100
AcDbEntity
  8
部品1
 48
50.0
100
AcDbLine
 10
10993.6
 20
6906.35247029219
 30
0.0
 11
10993.6
 21
7106.35247029219
 31
0.0
  0
LINE
  5
2658A
330
747D
100
AcDbEntity
  8
部品1
 48
50.0
100
AcDbLine
 10
11193.6
 20
6906.35247029219
 30
0.0
 11
11193.6
 21
7106.35247029219
 31
0.0
  0
LINE
  5
2658B
330
747D
100
AcDbEntity
  8
細線
 48
50.0
100
AcDbLine
 10
11491.18131553692
 20
7286.35247029219
 30
0.0
 11
11603.59999498912
 21
7398.771149744374
 31
0.0
  0
LINE
  5
2658C
330
747D
100
AcDbEntity
  8
細線
 48
50.0
100
AcDbLine
 10
11446.28003493159
 20
7286.35247029219
 30
0.0
 11
11603.59999498911
 21
7443.67243034972
 31
0.0
  0
LINE
  5
2658D
330
747D
100
AcDbEntity
  8
細線
 48
50.0
100
AcDbLine
 10
11580.98387674765
 20
7286.352463797252
 30
0.0
 11
11603.59999498912
 21
7308.968582038722
 31
0.0
  0
LINE
  5
2658E
330
747D
100
AcDbEntity
  8
細線
 48
50.0
100
AcDbLine
 10
11536.08259614229
 20
7286.352463797252
 30
0.0
 11
11603.59999498912
 21
7353.869862644074
 31
0.0
  0
LINE
  5
2658F
330
747D
100
AcDbEntity
  8
細線
 48
50.0
100
AcDbLine
 10
11403.59999498911
 20
7468.178833376448
 30
0.0
 11
11421.77362540993
 21
7486.352463797266
 31
0.0
  0
DIMENSION
  5
26591
330
747D
100
AcDbEntity
  8
寸法
 48
50.0
100
AcDbDimension
  2
*D44
 10
11795.6
 20
8212.618928386103
 30
0.0
 11
12191.70660171779
 21
8212.618928386103
 31
0.0
 70
   160
 71
     5
 42
123.0
  3
INABA_S40G
100
AcDbAlignedDimension
 13
11918.6
 23
7486.352470292189
 33
0.0
 14
11795.6
 24
7413.35247029219
 34
0.0
100
AcDbRotatedDimension
1001
ACAD
1000
DSTYLE
1002
{
1070
   341
1005
0
1002
}
  0
LINE
  5
26593
330
747D
100
AcDbEntity
  8
細線
 48
50.0
100
AcDbLine
 10
11908.40256121068
 20
6931.352463797273
 30
0.0
 11
11915.91996655244
 21
6938.869869139023
 31
0.0
  0
LINE
  5
26594
330
747D
100
AcDbEntity
  8
細線
 48
50.0
100
AcDbLine
 10
11863.50128060534
 20
6931.352463797274
 30
0.0
 11
11915.91996655243
 21
6983.771149744367
 31
0.0
  0
LINE
  5
26595
330
747D
100
AcDbEntity
  8
細線
 48
50.0
100
AcDbLine
 10
11818.6
 20
6931.352463797274
 30
0.0
 11
11915.91996655243
 21
7028.672430349714
 31
0.0
  0
LINE
  5
26596
330
747D
100
AcDbEntity
  8
細線
 48
50.0
100
AcDbLine
 10
11798.6
 20
6956.253744402622
 30
0.0
 11
11915.91996655243
 21
7073.573710955057
 31
0.0
  0
LINE
  5
26597
330
747D
100
AcDbEntity
  8
細線
 48
50.0
100
AcDbLine
 10
11798.6
 20
7001.155025007967
 30
0.0
 11
11915.91996655243
 21
7118.474991560404
 31
0.0
  0
LINE
  5
26598
330
747D
100
AcDbEntity
  8
細線
 48
50.0
100
AcDbLine
 10
11798.6
 20
7046.056305613314
 30
0.0
 11
11883.89615818396
 21
7131.352463797274
 31
0.0
  0
LINE
  5
26599
330
747D
100
AcDbEntity
  8
細線
 48
50.0
100
AcDbLine
 10
11798.6
 20
7090.957586218654
 30
0.0
 11
11838.99487757861
 21
7131.352463797274
 31
0.0
  0
LINE
  5
2659A
330
747D
100
AcDbEntity
  8
部品1
 48
50.0
100
AcDbLine
 10
11918.6
 20
7131.352463797274
 30
0.0
 11
11798.6
 21
7131.352463797274
 31
0.0
  0
LINE
  5
2659B
330
747D
100
AcDbEntity
  8
部品1
 48
50.0
100
AcDbLine
 10
11918.6
 20
6931.352463797274
 30
0.0
 11
11798.6
 21
6931.352463797274
 31
0.0
  0
CIRCLE
  5
2659C
330
747D
100
AcDbEntity
  8
部品1
 48
50.0
100
AcDbCircle
 10
11795.6
 20
7363.35247029219
 30
0.0
 40
35.0
  0
LINE
  5
2659D
330
747D
100
AcDbEntity
  8
センター
 48
2.0
100
AcDbLine
 10
11745.6
 20
7363.35247029219
 30
0.0
 11
11845.6
 21
7363.35247029219
 31
0.0
  0
LINE
  5
2659E
330
747D
100
AcDbEntity
  8
センター
 48
2.0
100
AcDbLine
 10
11795.6
 20
7413.35247029219
 30
0.0
 11
11795.6
 21
7313.352470292191
 31
0.0
  0
TEXT
  5
271E7
330
747D
100
AcDbEntity
  8
部品1
100
AcDbText
 10
7020.398178799904
 20
5498.820507724023
 30
0.0
 40
135.0
  1
9連棟・12連棟・15連棟・18連棟
  7
STYLE2
100
AcDbText
  0
TEXT
  5
27754
330
747D
100
AcDbEntity
  8
文字
 62
     7
 48
50.0
100
AcDbText
 10
14271.39351435261
 20
483.8967129911416
 30
0.0
 40
160.0
  1
ＮＸＮ－０８WＬ-Ｎ
  7
STYLE2
100
AcDbText
  0
MTEXT
  5
27DA8
330
747D
100
AcDbEntity
  8
寸法
 62
     7
 48
50.0
100
AcDbMText
 10
7976.984919384901
 20
8065.789758569176
 30
0.0
 40
120.0
 41
0.0
 71
     5
 72
     1
  1
\A1;820
  7
STYLE1
 73
     1
 44
1.0
1001
ACAD
1000
MTEXTBEGIN
1070
    73
1070
     1
1070
    44
1040
1.0
1070
    74
1070
     0
1000
MTEXTEND
  0
MTEXT
  5
27DAE
330
747D
100
AcDbEntity
  8
寸法
 62
     7
 48
50.0
100
AcDbMText
 10
7265.036898755091
 20
8300.09631751546
 30
0.0
 40
120.0
 41
0.0
 71
     5
 72
     1
  1
\A1;2460
  7
STYLE1
 73
     1
 44
1.0
1001
ACAD
1000
MTEXTBEGIN
1070
    73
1070
     1
1070
    44
1040
1.0
1070
    74
1070
     0
1000
MTEXTEND
  0
MTEXT
  5
27DAF
330
747D
100
AcDbEntity
  8
寸法
 62
     7
 48
50.0
100
AcDbMText
 10
8480.386216567458
 20
8065.789758569176
 30
0.0
 40
120.0
 41
0.0
 71
     5
 72
     1
  1
\A1;820
  7
STYLE1
 73
     1
 44
1.0
1001
ACAD
1000
MTEXTBEGIN
1070
    73
1070
     1
1070
    44
1040
1.0
1070
    74
1070
     0
1000
MTEXTEND
  0
MTEXT
  5
27DB0
330
747D
100
AcDbEntity
  8
寸法
 62
     7
 48
50.0
100
AcDbMText
 10
9000.799137359472
 20
8300.09631751546
 30
0.0
 40
120.0
 41
0.0
 71
     5
 72
     1
  1
\A1;2460
  7
STYLE1
 73
     1
 44
1.0
1001
ACAD
1000
MTEXTBEGIN
1070
    73
1070
     1
1070
    44
1040
1.0
1070
    74
1070
     0
1000
MTEXTEND
  0
LINE
  5
27E89
330
747D
100
AcDbEntity
  8
想像線
 48
10.0
100
AcDbLine
 10
11963.6
 20
7561.352470292212
 30
0.0
 11
4483.600000000027
 21
7561.352470292239
 31
0.0
  0
LINE
  5
27E8A
330
747D
100
AcDbEntity
  8
想像線
 48
10.0
100
AcDbLine
 10
11963.6
 20
6471.35247029219
 30
0.0
 11
4483.600000000027
 21
6471.352470292174
 31
0.0
  0
DIMENSION
  5
27EAC
330
747D
100
AcDbEntity
  8
寸法
 48
50.0
100
AcDbDimension
  2
*D45
 10
11963.6
 20
8444.572792351108
 30
0.0
 11
12234.77462120245
 21
8444.572792351108
 31
0.0
 70
   160
  1
a
 71
     5
 42
45.0
  3
INABA_S40G
100
AcDbAlignedDimension
 13
11918.6
 23
7486.352470292186
 33
0.0
 14
11963.6
 24
8212.618928386097
 34
0.0
100
AcDbRotatedDimension
1001
ACAD
1000
DSTYLE
1002
{
1070
   341
1005
0
1002
}
  0
TEXT
  5
2810B
330
747D
100
AcDbEntity
  8
文字
 62
     7
 48
50.0
100
AcDbText
 10
7615.315996161943
 20
4570.537453863297
 30
0.0
 40
200.0
  1
〈参 考 図〉
  7
STYLE2
100
AcDbText
  0
TEXT
  5
2811C
330
747D
100
AcDbEntity
  8
文字
 62
     7
 48
50.0
100
AcDbText
 10
14251.2
 20
838.2527270729188
 30
0.0
 40
100.0
  1
～一般型・多雪地型・豪雪地型～
  7
STYLE2
100
AcDbText
  0
LINE
  5
2813C
330
747D
100
AcDbEntity
  8
部品1
 48
50.0
100
AcDbLine
 10
11798.59999999999
 20
6806.352470292214
 30
0.0
 11
4648.599999999998
 21
6806.352470292182
 31
0.0
  0
LINE
  5
2815B
330
747D
100
AcDbEntity
  8
部品1
 48
50.0
100
AcDbLine
 10
11798.59999999999
 20
6806.352470292219
 30
0.0
 11
11798.6
 21
7286.352470292192
 31
0.0
  0
LINE
  5
2815C
330
747D
100
AcDbEntity
  8
部品1
 48
50.0
100
AcDbLine
 10
4648.599999999998
 20
6806.352470292182
 30
0.0
 11
4648.599999999994
 21
7286.352470292192
 31
0.0
  0
LINE
  5
282EA
330
747D
100
AcDbEntity
  8
部品1
100
AcDbLine
 10
11303.31623164378
 20
3356.955835521127
 30
0.0
 11
5232.331046257525
 21
3356.955835521127
 31
0.0
  0
LINE
  5
282EB
330
747D
100
AcDbEntity
  8
部品1
100
AcDbLine
 10
11303.31623164377
 20
3116.955835521125
 30
0.0
 11
5232.331046257528
 21
3116.955835521125
 31
0.0
  0
LINE
  5
282EC
330
747D
100
AcDbEntity
  8
部品1
100
AcDbLine
 10
5232.33104625753
 20
392.6488659364795
 30
0.0
 11
11303.31623164377
 21
392.6488659364795
 31
0.0
  0
LEADER
  5
282ED
330
747D
100
AcDbEntity
  8
寸法
 48
50.0
100
AcDbLeader
  3
INABA_S50G
 73
     0
 74
     0
 75
     1
 40
102.2727272727273
 41
680.0000000000001
 76
     3
 10
8240.438798243983
 20
2356.492449429684
 30
0.0
 10
8274.79276935734
 20
2766.945260536225
 30
0.0
 10
8399.79276935734
 20
2766.945260536225
 30
0.0
340
282EE
1001
ACAD
1000
DSTYLE
1002
{
1070
   341
1005
0
1070
    40
1040
1.0
1070
   343
1005
0
1070
   344
1005
0
1002
}
  0
MTEXT
  5
282EE
102
{ACAD_REACTORS
330
282ED
102
}
330
747D
100
AcDbEntity
  8
部品1
 62
     7
 48
50.0
100
AcDbMText
 10
8424.79276935734
 20
2843.081624172589
 30
0.0
 40
80.0
 41
0.8
 71
     4
 72
     1
  1
\A1;ナット(市販品)
  7
STYLE2
 73
     1
 44
1.0
1001
ACAD
1000
MTEXTBEGIN
1070
    73
1070
     1
1070
    44
1040
1.0
1070
    74
1070
     0
1000
MTEXTEND
  0
LEADER
  5
282EF
330
747D
100
AcDbEntity
  8
寸法
 48
50.0
100
AcDbLeader
  3
INABA_S50G
 73
     0
 74
     0
 75
     1
 40
102.2727272727273
 41
906.8181818181818
 76
     3
 10
8264.438798243984
 20
2226.740456764821
 30
0.0
 10
8306.310388612823
 20
2581.976177771438
 30
0.0
 10
8431.310388612823
 20
2581.976177771438
 30
0.0
340
282F0
1001
ACAD
1000
DSTYLE
1002
{
1070
   341
1005
0
1070
    40
1040
1.0
1070
   343
1005
0
1070
   344
1005
0
1002
}
  0
MTEXT
  5
282F0
102
{ACAD_REACTORS
330
282EF
102
}
330
747D
100
AcDbEntity
  8
部品1
 62
     7
 48
50.0
100
AcDbMText
 10
8456.310388612823
 20
2658.112541407802
 30
0.0
 40
80.0
 41
0.8
 71
     4
 72
     1
  1
\A1;ワッシャー(市販品)
  7
STYLE2
 73
     1
 44
1.0
1001
ACAD
1000
MTEXTBEGIN
1070
    73
1070
     1
1070
    44
1040
1.0
1070
    74
1070
     0
1000
MTEXTEND
  0
LWPOLYLINE
  5
282F1
330
747D
100
AcDbEntity
  8
部品1
 48
50.0
100
AcDbPolyline
 90
        2
 70
     0
 43
8.0
 10
8417.038798243982
 20
1717.617168320542
 10
8710.741261643367
 20
1717.617168320542
  0
TEXT
  5
282F2
330
747D
100
AcDbEntity
  8
部品1
 48
50.0
100
AcDbText
 10
8421.392382528411
 20
2313.495849082741
 30
0.0
 40
80.0
  1
基礎ボルト(市販品)
  7
STYLE2
100
AcDbText
  0
DIMENSION
  5
282F3
330
747D
100
AcDbEntity
  8
寸法
 48
50.0
100
AcDbDimension
  2
*D46
 10
8918.907398012827
 20
1633.61716832054
 30
0.0
 11
8818.907398012827
 21
1795.617168320542
 31
0.0
 70
    32
  1
180
 71
     5
 42
324.0000000000009
  3
INABA_S40G
100
AcDbAlignedDimension
 13
8417.038798243982
 23
1957.617168320541
 33
0.0
 14
8417.038798243982
 24
1633.61716832054
 34
0.0
 50
90.0
100
AcDbRotatedDimension
1001
ACAD
1000
DSTYLE
1002
{
1070
   341
1005
0
1002
}
  0
DIMENSION
  5
282F4
330
747D
100
AcDbEntity
  8
寸法
 48
50.0
100
AcDbDimension
  2
*D47
 10
9194.962064131855
 20
1957.617168320541
 30
0.0
 11
9194.962064131855
 21
1491.608264899058
 31
0.0
 70
   160
  1
20～25
 71
     5
 42
52.76000000000113
  3
INABA_S40G
100
AcDbAlignedDimension
 13
8229.838798243983
 23
2010.377168320542
 33
0.0
 14
8417.038798243982
 24
1957.617168320541
 34
0.0
 50
90.0
100
AcDbRotatedDimension
1001
ACAD
1000
DSTYLE
1002
{
1070
   341
1005
0
1002
}
  0
MTEXT
  5
282F5
102
{ACAD_REACTORS
330
282F6
102
}
330
747D
100
AcDbEntity
  8
部品1
 62
     7
 48
50.0
100
AcDbMText
 10
8425.983260663302
 20
2222.000494473771
 30
0.0
 40
80.0
 41
0.8
 71
     4
 72
     1
  1
M10X160
  7
STYLE2
 73
     1
 44
1.0
1001
ACAD
1000
MTEXTBEGIN
1070
    73
1070
     1
1070
    44
1040
1.0
1070
    74
1070
     0
1000
MTEXTEND
  0
LEADER
  5
282F6
330
747D
100
AcDbEntity
  8
寸法
 48
50.0
100
AcDbLeader
  3
INABA_S50G
 73
     0
 74
     0
 75
     1
 40
80.0
 41
435.0
 76
     3
 10
8233.438798243984
 20
2006.777168320542
 30
0.0
 10
8275.983260663302
 20
2157.000494473771
 30
0.0
 10
8400.983260663302
 20
2157.000494473771
 30
0.0
340
282F5
1001
ACAD
1000
DSTYLE
1002
{
1070
   341
1005
0
1070
    40
1040
1.0
1070
   343
1005
0
1070
   344
1005
0
1002
}
  0
LINE
  5
282F7
330
747D
100
AcDbEntity
  8
部品1
100
AcDbLine
 10
5232.331046257526
 20
3356.955835521127
 30
0.0
 11
5232.331046257528
 21
392.6488659364795
 31
0.0
  0
LEADER
  5
282F8
330
747D
100
AcDbEntity
  8
寸法
 48
50.0
100
AcDbLeader
  3
INABA_S50G
 73
     0
 75
     1
 40
113.1818181818182
 41
608.6363636363635
 76
     3
 10
8193.175548382034
 20
1907.13284167882
 30
0.0
 10
8059.371719690686
 20
2758.511924035298
 30
0.0
 10
7934.371719690685
 20
2758.511924035298
 30
0.0
340
282F9
1001
ACAD
1000
DSTYLE
1002
{
1070
   341
1005
0
1070
    40
1040
1.0
1070
   343
1005
0
1070
   344
1005
0
1002
}
  0
MTEXT
  5
282F9
102
{ACAD_REACTORS
330
282F8
102
}
330
747D
100
AcDbEntity
  8
寸法
 62
     7
 48
50.0
100
AcDbMText
 10
7909.371719690685
 20
2840.102833126207
 30
0.0
 40
80.0
 41
0.8
 71
     6
 72
     1
  1
\A1;φ70スリーブ
  7
STYLE2
 73
     1
 44
1.0
1001
ACAD
1000
MTEXTBEGIN
1070
    73
1070
     1
1070
    44
1040
1.0
1070
    74
1070
     0
1000
MTEXTEND
  0
LWPOLYLINE
  5
282FA
330
747D
100
AcDbEntity
  8
部品1
 48
50.0
100
AcDbPolyline
 90
        2
 70
     0
 43
8.0
 10
5888.859583233832
 20
1717.617168320542
 10
6302.999485066789
 20
1717.617168320542
  0
TEXT
  5
282FB
330
747D
100
AcDbEntity
  8
部品1
 48
50.0
100
AcDbText
 10
5888.859583233832
 20
1728.856160603796
 30
0.0
 40
80.0
  1
▽G.L
  7
STYLE2
100
AcDbText
  0
DIMENSION
  5
282FC
330
747D
100
AcDbEntity
  8
寸法
 48
50.0
100
AcDbDimension
  2
*D48
 10
6032.579171334329
 20
1173.617168320541
 30
0.0
 11
6032.579171334329
 21
1293.617168320542
 31
0.0
 70
   160
  1
150
 71
     5
 42
240.0
  3
INABA_S40G
100
AcDbAlignedDimension
 13
6174.999485066789
 23
1413.617168320541
 33
0.0
 14
6094.999485066793
 24
1173.617168320541
 34
0.0
 50
90.0
100
AcDbRotatedDimension
1001
ACAD
1000
DSTYLE
1002
{
1070
   341
1005
0
1002
}
  0
LEADER
  5
282FD
330
747D
100
AcDbEntity
  8
寸法
 48
50.0
100
AcDbLeader
  3
INABA_S50G
 71
     0
 73
     0
 75
     1
 40
100.0
 41
225.0
 76
     3
 10
6270.902437418932
 20
1293.617168320541
 30
0.0
 10
6149.064458871595
 20
1030.094474702105
 30
0.0
 10
6024.064458871595
 20
1030.094474702105
 30
0.0
1001
ACAD
1000
DSTYLE
1002
{
1070
    40
1040
1.0
1070
   272
1070
     1
1070
   279
1070
     1
1070
   341
1005
0
1002
}
  0
LEADER
  5
282FE
330
747D
100
AcDbEntity
  8
寸法
 48
50.0
100
AcDbLeader
  3
INABA_S50G
 71
     0
 73
     0
 75
     1
 40
100.0
 41
222.7272727272727
 76
     3
 10
6398.999485066789
 20
1293.617168320541
 30
0.0
 10
6177.18718642903
 20
849.7783221626614
 30
0.0
 10
6052.18718642903
 20
849.7783221626614
 30
0.0
1001
ACAD
1000
DSTYLE
1002
{
1070
    40
1040
1.0
1070
   272
1070
     1
1070
   279
1070
     1
1070
   341
1005
0
1002
}
  0
MTEXT
  5
282FF
102
{ACAD_REACTORS
330
28300
102
}
330
747D
100
AcDbEntity
  8
寸法
 62
     7
 48
50.0
100
AcDbMText
 10
6213.749430843985
 20
1558.917771137998
 30
0.0
 40
80.0
 41
0.8
 71
     6
 72
     1
  1
\A1;D10@300
  7
STYLE2
 73
     1
 44
1.0
1001
ACAD
1000
MTEXTBEGIN
1070
    73
1070
     1
1070
    44
1040
1.0
1070
    74
1070
     0
1000
MTEXTEND
  0
LEADER
  5
28300
330
747D
100
AcDbEntity
  8
寸法
 48
50.0
100
AcDbLeader
  3
INABA_S50G
 71
     0
 73
     0
 75
     1
 40
100.0
 41
540.3409090909091
 76
     3
 10
6406.99948506679
 20
1715.744383017664
 30
0.0
 10
6349.017248538091
 20
1494.274054476859
 30
0.0
 10
6224.017248538091
 20
1494.274054476859
 30
0.0
213
-9.732182305893367
223
-4.643716661138569
233
0.0
1001
ACAD
1000
DSTYLE
1002
{
1070
    40
1040
1.0
1070
   272
1070
     1
1070
   279
1070
     1
1070
   341
1005
0
1002
}
  0
LEADER
  5
28301
330
747D
100
AcDbEntity
  8
寸法
 48
50.0
100
AcDbLeader
  3
INABA_S50G
 71
     0
 73
     0
 75
     1
 40
130.1136363636363
 41
651.1363636363636
 76
     3
 10
6382.99948506679
 20
1957.617168320541
 30
0.0
 10
6270.574904902773
 20
2098.087933777129
 30
0.0
 10
6145.574904902773
 20
2098.087933777129
 30
0.0
1001
ACAD
1000
DSTYLE
1002
{
1070
    40
1040
1.0
1070
   272
1070
     1
1070
   279
1070
     1
1070
   341
1005
0
1002
}
  0
MTEXT
  5
28302
102
{ACAD_REACTORS
330
28301
102
}
330
747D
100
AcDbEntity
  8
寸法
 62
     7
 48
50.0
100
AcDbMText
 10
6082.901005583516
 20
2170.133388322584
 30
0.0
 40
80.0
 41
0.8
 71
     6
 72
     1
  1
\A1;金コテ押エ
  7
STYLE2
 73
     1
 44
1.0
1001
ACAD
1000
MTEXTBEGIN
1070
    73
1070
     1
1070
    44
1040
1.0
1070
    74
1070
     0
1000
MTEXTEND
  0
DIMENSION
  5
28303
330
747D
100
AcDbEntity
  8
寸法
 48
50.0
100
AcDbDimension
  2
*D49
 10
5567.962246505049
 20
1173.617168320541
 30
0.0
 11
5567.962246505049
 21
1545.157317976542
 31
0.0
 70
   160
  1
540
 71
     5
 42
784.0
  3
INABA_S40G
100
AcDbAlignedDimension
 13
6302.999485066789
 23
1957.617168320541
 33
0.0
 14
6094.999485066793
 24
1173.617168320541
 34
0.0
 50
90.0
100
AcDbRotatedDimension
1001
ACAD
1000
DSTYLE
1002
{
1070
   341
1005
0
1002
}
  0
MTEXT
  5
28304
102
{ACAD_REACTORS
330
282FE
102
}
330
747D
100
AcDbEntity
  8
寸法
 62
     7
 48
50.0
100
AcDbMText
 10
6032.18718642903
 20
909.7783221626613
 30
0.0
 40
80.0
 41
0.8
 71
     6
 72
     1
  1
D13
  7
STYLE2
 73
     1
 44
1.0
1001
ACAD
1000
MTEXTBEGIN
1070
    73
1070
     1
1070
    44
1040
1.0
1070
    74
1070
     0
1000
MTEXTEND
  0
MTEXT
  5
28305
102
{ACAD_REACTORS
330
282FD
102
}
330
747D
100
AcDbEntity
  8
寸法
 62
     7
 48
50.0
100
AcDbMText
 10
6004.064458871595
 20
1090.094474702105
 30
0.0
 40
80.0
 41
0.8
 71
     6
 72
     1
  1
D10
  7
STYLE2
 73
     1
 44
1.0
1001
ACAD
1000
MTEXTBEGIN
1070
    73
1070
     1
1070
    44
1040
1.0
1070
    74
1070
     0
1000
MTEXTEND
  0
DIMENSION
  5
28306
330
747D
100
AcDbEntity
  8
寸法
 48
50.0
100
AcDbDimension
  2
*D50
 10
6622.999485066789
 20
635.1875303153811
 30
0.0
 11
6378.902726388566
 21
635.1875303153811
 31
0.0
 70
   160
  1
300
 71
     5
 42
448.0
  3
INABA_S40G
100
AcDbAlignedDimension
 13
6174.999485066789
 23
1045.617168320541
 33
0.0
 14
6622.999485066789
 24
1045.617168320541
 34
0.0
100
AcDbRotatedDimension
1001
ACAD
1000
DSTYLE
1002
{
1070
   341
1005
0
1002
}
  0
MTEXT
  5
28307
102
{ACAD_REACTORS
330
28308
102
}
330
747D
100
AcDbEntity
  8
寸法
 62
     7
 48
50.0
100
AcDbMText
 10
7936.014725899044
 20
2479.418561218693
 30
0.0
 40
80.0
 41
0.8
 71
     6
 72
     1
  1
\A1;アンカープレート L
  7
STYLE2
 73
     1
 44
1.0
1001
ACAD
1000
MTEXTBEGIN
1070
    73
1070
     1
1070
    44
1040
1.0
1070
    74
1070
     0
1000
MTEXTEND
  0
LEADER
  5
28308
330
747D
100
AcDbEntity
  8
寸法
 48
50.0
100
AcDbLeader
  3
INABA_S50G
 73
     0
 75
     1
 40
106.3636363636363
 41
893.1818181818181
 76
     3
 10
8134.438798243984
 20
2027.177168320543
 30
0.0
 10
8086.014725899044
 20
2401.236743036875
 30
0.0
 10
7961.014725899044
 20
2401.236743036875
 30
0.0
340
28307
1001
ACAD
1000
DSTYLE
1002
{
1070
   341
1005
0
1070
    40
1040
1.0
1070
   343
1005
0
1070
   344
1005
0
1002
}
  0
LINE
  5
28309
330
747D
100
AcDbEntity
  8
細線
 48
50.0
100
AcDbLine
 10
6422.999485066791
 20
1795.990060988372
 30
0.0
 11
6494.999485066791
 21
1867.990060988372
 31
0.0
  0
ARC
  5
2830A
330
747D
100
AcDbEntity
  8
部品1
 48
50.0
100
AcDbCircle
 10
6398.99948506679
 20
1817.871597714787
 30
0.0
 40
24.0
100
AcDbArc
 50
0.0
 51
180.0
  0
CIRCLE
  5
2830B
330
747D
100
AcDbEntity
  8
部品1
 48
50.0
100
AcDbCircle
 10
6398.99948506679
 20
1817.871597714787
 30
0.0
 40
8.0
  0
LINE
  5
2830C
330
747D
100
AcDbEntity
  8
部品1
 48
50.0
100
AcDbLine
 10
6302.99948506679
 20
1413.617168320541
 30
0.0
 11
6302.99948506679
 21
1957.617168320541
 31
0.0
  0
LINE
  5
2830D
330
747D
100
AcDbEntity
  8
部品1
 48
50.0
100
AcDbLine
 10
6494.999485066791
 20
1957.617168320541
 30
0.0
 11
6494.999485066791
 21
1413.617168320541
 31
0.0
  0
MTEXT
  5
2830E
102
{ACAD_REACTORS
330
28313
102
}
330
747D
100
AcDbEntity
  8
寸法
 62
     7
 48
50.0
100
AcDbMText
 10
6577.885422094183
 20
1980.173067613352
 30
0.0
 40
80.0
 41
0.8
 71
     4
 72
     1
  1
D13
  7
STYLE2
 73
     1
 44
1.0
1001
ACAD
1000
MTEXTBEGIN
1070
    73
1070
     1
1070
    44
1040
1.0
1070
    74
1070
     0
1000
MTEXTEND
  0
LEADER
  5
2830F
330
747D
100
AcDbEntity
  8
寸法
 48
50.0
100
AcDbLeader
  3
INABA_S50G
 71
     0
 73
     0
 74
     0
 75
     1
 40
100.0
 41
225.0
 76
     3
 10
6526.902437418932
 20
1293.617168320541
 30
0.0
 10
6581.327144873474
 20
1198.220099377568
 30
0.0
 10
6706.327144873474
 20
1198.220099377568
 30
0.0
1001
ACAD
1000
DSTYLE
1002
{
1070
    40
1040
1.0
1070
   272
1070
     1
1070
   279
1070
     1
1070
   341
1005
0
1002
}
  0
LEADER
  5
28310
330
747D
100
AcDbEntity
  8
寸法
 48
50.0
100
AcDbLeader
  3
INABA_S50G
 71
     0
 73
     0
 74
     0
 75
     1
 40
100.0
 41
540.3409090909091
 76
     3
 10
6472.944654079964
 20
1276.876637907015
 30
0.0
 10
6591.73794092804
 20
935.2458199121183
 30
0.0
 10
6716.73794092804
 20
935.2458199121183
 30
0.0
213
0.0
223
-1.022262676269383
233
0.0
1001
ACAD
1000
DSTYLE
1002
{
1070
    40
1040
1.0
1070
   272
1070
     1
1070
   279
1070
     1
1070
   341
1005
0
1002
}
  0
MTEXT
  5
28311
102
{ACAD_REACTORS
330
2830F
102
}
330
747D
100
AcDbEntity
  8
寸法
 62
     7
 48
50.0
100
AcDbMText
 10
6726.327144873474
 20
1258.220099377568
 30
0.0
 40
80.0
 41
0.8
 71
     4
 72
     1
  1
D10
  7
STYLE2
 73
     1
 44
1.0
1001
ACAD
1000
MTEXTBEGIN
1070
    73
1070
     1
1070
    44
1040
1.0
1070
    74
1070
     0
1000
MTEXTEND
  0
LWPOLYLINE
  5
28312
330
747D
100
AcDbEntity
  8
部品1
 48
50.0
100
AcDbPolyline
 90
        2
 70
     0
 43
8.0
 10
6494.999485066789
 20
1717.617168320542
 10
6909.139386899747
 20
1717.617168320542
  0
LEADER
  5
28313
330
747D
100
AcDbEntity
  8
寸法
 48
50.0
100
AcDbLeader
  3
INABA_S50G
 71
     0
 73
     0
 74
     0
 75
     1
 40
100.0
 41
222.7272727272727
 76
     3
 10
6398.999485066789
 20
1817.871597714787
 30
0.0
 10
6452.885422094183
 20
1917.10717056796
 30
0.0
 10
6577.885422094183
 20
1917.10717056796
 30
0.0
1001
ACAD
1000
DSTYLE
1002
{
1070
    40
1040
1.0
1070
   272
1070
     1
1070
   279
1070
     1
1070
   341
1005
0
1002
}
  0
LINE
  5
28314
330
747D
100
AcDbEntity
  8
細線
 48
50.0
100
AcDbLine
 10
6174.999485066782
 20
1332.463914082712
 30
0.0
 11
6256.152739304618
 21
1413.617168320541
 31
0.0
  0
LINE
  5
28315
330
747D
100
AcDbEntity
  8
細線
 48
50.0
100
AcDbLine
 10
6382.865332544194
 20
1351.744383017663
 30
0.0
 11
6406.999485066795
 21
1375.878535540262
 31
0.0
  0
LINE
  5
28316
330
747D
100
AcDbEntity
  8
細線
 48
50.0
100
AcDbLine
 10
6289.797349483862
 20
1285.617168320541
 30
0.0
 11
6406.99948506679
 21
1402.819303903467
 31
0.0
  0
LINE
  5
28317
330
747D
100
AcDbEntity
  8
部品1
 48
50.0
100
AcDbLine
 10
6174.99948506679
 20
1173.617168320541
 30
0.0
 11
6174.99948506679
 21
1413.617168320541
 31
0.0
  0
LINE
  5
28318
330
747D
100
AcDbEntity
  8
細線
 48
50.0
100
AcDbLine
 10
6532.264264752733
 20
1285.617168320541
 30
0.0
 11
6622.999485066791
 21
1376.3523886346
 31
0.0
  0
LINE
  5
28319
330
747D
100
AcDbEntity
  8
細線
 48
50.0
100
AcDbLine
 10
6505.323496389518
 20
1285.617168320541
 30
0.0
 11
6622.999485066791
 21
1403.293156997807
 31
0.0
  0
LINE
  5
2831A
330
747D
100
AcDbEntity
  8
部品1
 48
50.0
100
AcDbLine
 10
6622.999485066791
 20
1413.617168320541
 30
0.0
 11
6622.999485066791
 21
1173.617168320541
 31
0.0
  0
LINE
  5
2831B
330
747D
100
AcDbEntity
  8
部品1
 48
50.0
100
AcDbLine
 10
6422.999485066795
 20
1293.617168320541
 30
0.0
 11
6422.999485066791
 21
1817.871597714787
 31
0.0
  0
LINE
  5
2831C
330
747D
100
AcDbEntity
  8
部品1
 48
50.0
100
AcDbLine
 10
6406.999485066795
 20
1293.617168320541
 30
0.0
 11
6406.999485066783
 21
1817.871597714787
 31
0.0
  0
LINE
  5
2831D
330
747D
100
AcDbEntity
  8
細線
 48
50.0
100
AcDbLine
 10
6390.99948506679
 20
1332.937767177053
 30
0.0
 11
6406.999485066795
 21
1348.937767177053
 31
0.0
  0
LINE
  5
2831E
330
747D
100
AcDbEntity
  8
細線
 48
50.0
100
AcDbLine
 10
6380.182324562804
 20
1045.617168320541
 30
0.0
 11
6414.479821193987
 21
1173.617168320541
 31
0.0
  0
LINE
  5
2831F
330
747D
100
AcDbEntity
  8
部品1
 48
50.0
100
AcDbLine
 10
6702.999485066793
 20
1045.617168320541
 30
0.0
 11
6094.999485066792
 21
1045.617168320541
 31
0.0
  0
LINE
  5
28320
330
747D
100
AcDbEntity
  8
部品1
 48
50.0
100
AcDbLine
 10
6230.99948506679
 20
1269.617168320541
 30
0.0
 11
6566.999485066791
 21
1269.617168320541
 31
0.0
  0
LINE
  5
28321
330
747D
100
AcDbEntity
  8
部品1
 48
50.0
100
AcDbLine
 10
6230.99948506679
 20
1285.617168320541
 30
0.0
 11
6566.999485066791
 21
1285.617168320541
 31
0.0
  0
LINE
  5
28322
330
747D
100
AcDbEntity
  8
部品1
 48
50.0
100
AcDbLine
 10
6702.999485066793
 20
1173.617168320541
 30
0.0
 11
6094.999485066792
 21
1173.617168320541
 31
0.0
  0
CIRCLE
  5
28323
330
747D
100
AcDbEntity
  8
部品1
 48
50.0
100
AcDbCircle
 10
6398.99948506679
 20
1293.617168320541
 30
0.0
 40
8.0
  0
LINE
  5
28324
330
747D
100
AcDbEntity
  8
細線
 48
50.0
100
AcDbLine
 10
6393.323496389523
 20
1173.617168320541
 30
0.0
 11
6489.323496389522
 21
1269.617168320541
 31
0.0
  0
LINE
  5
28325
330
747D
100
AcDbEntity
  8
細線
 48
50.0
100
AcDbLine
 10
6222.406234668306
 20
1045.617168320541
 30
0.0
 11
6256.703731299489
 21
1173.617168320541
 31
0.0
  0
LINE
  5
28326
330
747D
100
AcDbEntity
  8
細線
 48
50.0
100
AcDbLine
 10
6301.294279615551
 20
1045.617168320539
 30
0.0
 11
6335.591776246734
 21
1173.617168320539
 31
0.0
  0
LINE
  5
28327
330
747D
100
AcDbEntity
  8
細線
 48
50.0
100
AcDbLine
 10
6143.518189721048
 20
1045.617168320539
 30
0.0
 11
6177.815686352231
 21
1173.617168320539
 31
0.0
  0
LINE
  5
28328
330
747D
100
AcDbEntity
  8
部品1
 48
50.0
100
AcDbLine
 10
6094.999485066792
 20
1045.617168320541
 30
0.0
 11
6094.999485066792
 21
1173.617168320541
 31
0.0
  0
LINE
  5
28329
330
747D
100
AcDbEntity
  8
細線
 48
50.0
100
AcDbLine
 10
6228.837015286652
 20
1069.617168320541
 30
0.0
 11
6235.267795905
 21
1045.617168320541
 31
0.0
  0
LINE
  5
2832A
330
747D
100
AcDbEntity
  8
細線
 48
50.0
100
AcDbLine
 10
6149.948970339401
 20
1069.617168320541
 30
0.0
 11
6156.379750957746
 21
1045.617168320541
 31
0.0
  0
LINE
  5
2832B
330
747D
100
AcDbEntity
  8
細線
 48
50.0
100
AcDbLine
 10
6386.613105181157
 20
1069.617168320541
 30
0.0
 11
6393.043885799503
 21
1045.617168320541
 31
0.0
  0
LINE
  5
2832C
330
747D
100
AcDbEntity
  8
細線
 48
50.0
100
AcDbLine
 10
6307.725060233905
 20
1069.617168320541
 30
0.0
 11
6314.155840852251
 21
1045.617168320541
 31
0.0
  0
LINE
  5
2832D
330
747D
100
AcDbEntity
  8
細線
 48
50.0
100
AcDbLine
 10
6204.738117847074
 20
1173.617168320541
 30
0.0
 11
6300.738117847073
 21
1269.617168320541
 31
0.0
  0
LINE
  5
2832E
330
747D
100
AcDbEntity
  8
細線
 48
50.0
100
AcDbLine
 10
6177.797349483863
 20
1173.617168320541
 30
0.0
 11
6273.797349483863
 21
1269.617168320541
 31
0.0
  0
LINE
  5
2832F
330
747D
100
AcDbEntity
  8
部品1
 48
50.0
100
AcDbLine
 10
6230.99948506679
 20
1285.617168320541
 30
0.0
 11
6230.99948506679
 21
1269.617168320541
 31
0.0
  0
LINE
  5
28330
330
747D
100
AcDbEntity
  8
細線
 48
50.0
100
AcDbLine
 10
6171.384905733891
 20
1149.617168320541
 30
0.0
 11
6164.954125115542
 21
1173.617168320541
 31
0.0
  0
LINE
  5
28331
330
747D
100
AcDbEntity
  8
細線
 48
50.0
100
AcDbLine
 10
6094.999485066789
 20
1158.957089286321
 30
0.0
 11
6098.927641404985
 21
1173.617168320541
 31
0.0
  0
LINE
  5
28332
330
747D
100
AcDbEntity
  8
部品1
 48
50.0
100
AcDbLine
 10
6390.99948506679
 20
1351.744383017663
 30
0.0
 11
6374.999485066791
 21
1351.744383017663
 31
0.0
  0
CIRCLE
  5
28333
330
747D
100
AcDbEntity
  8
部品1
 48
50.0
100
AcDbCircle
 10
6270.99948506679
 20
1293.617168320541
 30
0.0
 40
8.0
  0
LINE
  5
28334
330
747D
100
AcDbEntity
  8
細線
 48
50.0
100
AcDbLine
 10
6343.678886210279
 20
1285.617168320541
 30
0.0
 11
6374.999485066791
 21
1316.937767177053
 31
0.0
  0
ARC
  5
28335
330
747D
100
AcDbEntity
  8
部品1
 48
50.0
100
AcDbCircle
 10
6398.99948506679
 20
1293.617168320541
 30
0.0
 40
24.0
100
AcDbArc
 50
180.0
 51
199.4712206344866
  0
LINE
  5
28336
330
747D
100
AcDbEntity
  8
細線
 48
50.0
100
AcDbLine
 10
6250.272950681141
 20
1149.617168320541
 30
0.0
 11
6243.842170062794
 21
1173.617168320541
 31
0.0
  0
LINE
  5
28337
330
747D
100
AcDbEntity
  8
細線
 48
50.0
100
AcDbLine
 10
6329.160995628394
 20
1149.617168320541
 30
0.0
 11
6322.730215010047
 21
1173.617168320541
 31
0.0
  0
LINE
  5
28338
330
747D
100
AcDbEntity
  8
細線
 48
50.0
100
AcDbLine
 10
6231.678886210278
 20
1173.617168320541
 30
0.0
 11
6327.678886210279
 21
1269.617168320541
 31
0.0
  0
LINE
  5
28339
330
747D
100
AcDbEntity
  8
部品1
 48
50.0
100
AcDbLine
 10
6374.999485066791
 20
1351.744383017663
 30
0.0
 11
6374.999485066791
 21
1293.617168320541
 31
0.0
  0
LINE
  5
2833A
330
747D
100
AcDbEntity
  8
細線
 48
50.0
100
AcDbLine
 10
6316.738117847073
 20
1285.617168320541
 30
0.0
 11
6374.999485066791
 21
1343.87853554026
 31
0.0
  0
LINE
  5
2833B
330
747D
100
AcDbEntity
  8
部品1
 48
50.0
100
AcDbLine
 10
6390.99948506679
 20
1351.744383017663
 30
0.0
 11
6390.99948506679
 21
1293.617168320541
 31
0.0
  0
LINE
  5
2833C
330
747D
100
AcDbEntity
  8
部品1
 48
50.0
100
AcDbLine
 10
6702.999485066793
 20
1173.617168320541
 30
0.0
 11
6702.999485066793
 21
1045.617168320541
 31
0.0
  0
LINE
  5
2833D
330
747D
100
AcDbEntity
  8
細線
 48
50.0
100
AcDbLine
 10
6616.846459404543
 20
1045.617168320541
 30
0.0
 11
6651.143956035729
 21
1173.617168320539
 31
0.0
  0
LINE
  5
2833E
330
747D
100
AcDbEntity
  8
細線
 48
50.0
100
AcDbLine
 10
6459.070369510048
 20
1045.617168320541
 30
0.0
 11
6493.367866141236
 21
1173.617168320539
 31
0.0
  0
LINE
  5
2833F
330
747D
100
AcDbEntity
  8
細線
 48
50.0
100
AcDbLine
 10
6537.958414457299
 20
1045.617168320539
 30
0.0
 11
6572.255911088483
 21
1173.617168320539
 31
0.0
  0
LINE
  5
28340
330
747D
100
AcDbEntity
  8
細線
 48
50.0
100
AcDbLine
 10
6544.389195075648
 20
1069.617168320541
 30
0.0
 11
6550.819975693996
 21
1045.617168320541
 31
0.0
  0
LINE
  5
28341
330
747D
100
AcDbEntity
  8
細線
 48
50.0
100
AcDbLine
 10
6465.501150128402
 20
1069.617168320541
 30
0.0
 11
6471.931930746748
 21
1045.617168320541
 31
0.0
  0
LINE
  5
28342
330
747D
100
AcDbEntity
  8
細線
 48
50.0
100
AcDbLine
 10
6623.277240022895
 20
1069.617168320541
 30
0.0
 11
6629.708020641243
 21
1045.617168320541
 31
0.0
  0
LINE
  5
28343
330
747D
100
AcDbEntity
  8
細線
 48
50.0
100
AcDbLine
 10
6702.165284970142
 20
1069.617168320541
 30
0.0
 11
6702.99948506679
 21
1066.503891176177
 31
0.0
  0
LINE
  5
28344
330
747D
100
AcDbEntity
  8
細線
 48
50.0
100
AcDbLine
 10
6695.734504351793
 20
1045.617168320539
 30
0.0
 11
6702.99948506679
 21
1072.730445464929
 31
0.0
  0
LINE
  5
28345
330
747D
100
AcDbEntity
  8
細線
 48
50.0
100
AcDbLine
 10
6559.205033115937
 20
1285.617168320541
 30
0.0
 11
6622.999485066791
 21
1349.411620271392
 31
0.0
  0
CIRCLE
  5
28346
330
747D
100
AcDbEntity
  8
部品1
 48
50.0
100
AcDbCircle
 10
6526.99948506679
 20
1293.617168320541
 30
0.0
 40
8.0
  0
ARC
  5
28347
330
747D
100
AcDbEntity
  8
部品1
 48
50.0
100
AcDbCircle
 10
6398.99948506679
 20
1293.617168320541
 30
0.0
 40
24.0
100
AcDbArc
 50
340.5287793655134
 51
0.0
  0
LINE
  5
28348
330
747D
100
AcDbEntity
  8
細線
 48
50.0
100
AcDbLine
 10
6408.049040575646
 20
1149.617168320541
 30
0.0
 11
6401.618259957299
 21
1173.617168320541
 31
0.0
  0
LINE
  5
28349
330
747D
100
AcDbEntity
  8
細線
 48
50.0
100
AcDbLine
 10
6486.937085522892
 20
1149.617168320541
 30
0.0
 11
6480.506304904546
 21
1173.617168320541
 31
0.0
  0
LINE
  5
2834A
330
747D
100
AcDbEntity
  8
細線
 48
50.0
100
AcDbLine
 10
6420.264264752734
 20
1173.617168320541
 30
0.0
 11
6516.264264752734
 21
1269.617168320541
 31
0.0
  0
LINE
  5
2834B
330
747D
100
AcDbEntity
  8
細線
 48
50.0
100
AcDbLine
 10
6447.205033115936
 20
1173.617168320541
 30
0.0
 11
6543.205920961074
 21
1269.61805616568
 31
0.0
  0
LINE
  5
2834C
330
747D
100
AcDbEntity
  8
部品1
 48
50.0
100
AcDbLine
 10
6566.999485066791
 20
1285.617168320541
 30
0.0
 11
6566.999485066791
 21
1269.617168320541
 31
0.0
  0
LINE
  5
2834D
330
747D
100
AcDbEntity
  8
細線
 48
50.0
100
AcDbLine
 10
6644.713175417384
 20
1149.617168320541
 30
0.0
 11
6638.282394799036
 21
1173.617168320541
 31
0.0
  0
LINE
  5
2834E
330
747D
100
AcDbEntity
  8
細線
 48
50.0
100
AcDbLine
 10
6608.849643295183
 20
1173.617168320541
 30
0.0
 11
6622.999485066791
 21
1187.767010092148
 31
0.0
  0
LINE
  5
2834F
330
747D
100
AcDbEntity
  8
細線
 48
50.0
100
AcDbLine
 10
6565.825130470137
 20
1149.617168320541
 30
0.0
 11
6559.394349851792
 21
1173.617168320541
 31
0.0
  0
LINE
  5
28350
330
747D
100
AcDbEntity
  8
細線
 48
50.0
100
AcDbLine
 10
6302.99948506679
 20
1487.404682445919
 30
0.0
 11
6406.999485066795
 21
1591.404682445922
 31
0.0
  0
LINE
  5
28351
330
747D
100
AcDbEntity
  8
細線
 48
50.0
100
AcDbLine
 10
6302.99948506679
 20
1514.345450809127
 30
0.0
 11
6406.99948506679
 21
1618.345450809127
 31
0.0
  0
LINE
  5
28352
330
747D
100
AcDbEntity
  8
細線
 48
50.0
100
AcDbLine
 10
6302.99948506679
 20
1460.463914082712
 30
0.0
 11
6406.999485066795
 21
1564.463914082712
 31
0.0
  0
LINE
  5
28353
330
747D
100
AcDbEntity
  8
細線
 48
50.0
100
AcDbLine
 10
6390.99948506679
 20
1763.990060988372
 30
0.0
 11
6406.99948506679
 21
1779.990060988372
 31
0.0
  0
LINE
  5
28354
330
747D
100
AcDbEntity
  8
細線
 48
50.0
100
AcDbLine
 10
6390.99948506679
 20
1790.930829351579
 30
0.0
 11
6406.99948506679
 21
1806.930829351579
 31
0.0
  0
LINE
  5
28355
330
747D
100
AcDbEntity
  8
部品1
 48
50.0
100
AcDbLine
 10
6174.99948506679
 20
1413.617168320541
 30
0.0
 11
6302.99948506679
 21
1413.617168320541
 31
0.0
  0
LINE
  5
28356
330
747D
100
AcDbEntity
  8
細線
 48
50.0
100
AcDbLine
 10
6174.999485066782
 20
1359.404682445916
 30
0.0
 11
6229.211970941414
 21
1413.617168320541
 31
0.0
  0
LINE
  5
28357
330
747D
100
AcDbEntity
  8
細線
 48
50.0
100
AcDbLine
 10
6174.999485066782
 20
1386.345450809127
 30
0.0
 11
6202.271202578204
 21
1413.617168320541
 31
0.0
  0
LINE
  5
28358
330
747D
100
AcDbEntity
  8
部品1
 48
50.0
100
AcDbLine
 10
6390.99948506679
 20
1759.744383017664
 30
0.0
 11
6374.999485066791
 21
1759.744383017667
 31
0.0
  0
LINE
  5
28359
330
747D
100
AcDbEntity
  8
細線
 48
50.0
100
AcDbLine
 10
6302.99948506679
 20
1675.990060988371
 30
0.0
 11
6386.753807096084
 21
1759.744383017664
 31
0.0
  0
LINE
  5
2835A
330
747D
100
AcDbEntity
  8
細線
 48
50.0
100
AcDbLine
 10
6302.99948506679
 20
1702.930829351578
 30
0.0
 11
6374.999485066791
 21
1774.930829351579
 31
0.0
  0
LINE
  5
2835B
330
747D
100
AcDbEntity
  8
部品1
 48
50.0
100
AcDbLine
 10
6374.999485066791
 20
1759.744383017667
 30
0.0
 11
6374.999485066791
 21
1817.871597714787
 31
0.0
  0
LINE
  5
2835C
330
747D
100
AcDbEntity
  8
細線
 48
50.0
100
AcDbLine
 10
6302.99948506679
 20
1729.871597714787
 30
0.0
 11
6374.999485066791
 21
1801.871597714787
 31
0.0
  0
LINE
  5
2835D
330
747D
100
AcDbEntity
  8
部品1
 48
50.0
100
AcDbLine
 10
6390.99948506679
 20
1759.744383017664
 30
0.0
 11
6390.99948506679
 21
1817.871597714787
 31
0.0
  0
LINE
  5
2835E
330
747D
100
AcDbEntity
  8
細線
 48
50.0
100
AcDbLine
 10
6422.999485066795
 20
1580.463914082712
 30
0.0
 11
6494.999485066782
 21
1652.463914082712
 31
0.0
  0
LINE
  5
2835F
330
747D
100
AcDbEntity
  8
部品1
 48
50.0
100
AcDbLine
 10
6494.999485066791
 20
1413.617168320541
 30
0.0
 11
6622.999485066791
 21
1413.617168320541
 31
0.0
  0
LINE
  5
28360
330
747D
100
AcDbEntity
  8
細線
 48
50.0
100
AcDbLine
 10
6422.999485066795
 20
1391.878535540262
 30
0.0
 11
6494.999485066782
 21
1463.878535540257
 31
0.0
  0
LINE
  5
28361
330
747D
100
AcDbEntity
  8
細線
 48
50.0
100
AcDbLine
 10
6422.999485066795
 20
1418.81930390347
 30
0.0
 11
6494.999485066782
 21
1490.819303903467
 31
0.0
  0
LINE
  5
28362
330
747D
100
AcDbEntity
  8
細線
 48
50.0
100
AcDbLine
 10
6422.999485066795
 20
1364.937767177053
 30
0.0
 11
6494.999485066782
 21
1436.937767177052
 31
0.0
  0
LINE
  5
28363
330
747D
100
AcDbEntity
  8
細線
 48
50.0
100
AcDbLine
 10
6422.999485066791
 20
1634.345450809127
 30
0.0
 11
6494.999485066791
 21
1706.345450809127
 31
0.0
  0
LINE
  5
28364
330
747D
100
AcDbEntity
  8
細線
 48
50.0
100
AcDbLine
 10
6422.999485066795
 20
1607.404682445922
 30
0.0
 11
6494.999485066782
 21
1679.404682445916
 31
0.0
  0
MTEXT
  5
28365
102
{ACAD_REACTORS
330
28310
102
}
330
747D
100
AcDbEntity
  8
寸法
 62
     7
 48
50.0
100
AcDbMText
 10
6736.737940928041
 20
996.2680825883881
 30
0.0
 40
80.0
 41
0.8
 71
     4
 72
     1
  1
\A1;D10@300
  7
STYLE2
 73
     1
 44
1.0
1001
ACAD
1000
MTEXTBEGIN
1070
    73
1070
     1
1070
    44
1040
1.0
1070
    74
1070
     0
1000
MTEXTEND
  0
DIMENSION
  5
28366
330
747D
100
AcDbEntity
  8
寸法
 48
50.0
100
AcDbDimension
  2
*D51
 10
6302.999485066789
 20
2377.284976236921
 30
0.0
 11
6398.999485066789
 21
2377.284976236921
 31
0.0
 70
   160
  1
120\P200\P280
 71
     5
 42
192.0
  3
INABA_S40G
100
AcDbAlignedDimension
 13
6494.999485066789
 23
1957.617168320541
 33
0.0
 14
6302.999485066789
 24
1957.617168320541
 34
0.0
100
AcDbRotatedDimension
1001
ACAD
1000
DSTYLE
1002
{
1070
   341
1005
0
1002
}
  0
LINE
  5
28367
330
747D
100
AcDbEntity
  8
部品1
 48
50.0
100
AcDbLine
 10
6302.99948506679
 20
1957.617168320541
 30
0.0
 11
6494.999485066791
 21
1957.617168320541
 31
0.0
  0
LINE
  5
28368
330
747D
100
AcDbEntity
  8
細線
 48
50.0
100
AcDbLine
 10
6302.99948506679
 20
1918.456976257239
 30
0.0
 11
6342.159677130094
 21
1957.617168320541
 31
0.0
  0
LINE
  5
28369
330
747D
100
AcDbEntity
  8
細線
 48
50.0
100
AcDbLine
 10
6302.99948506679
 20
1891.516207894031
 30
0.0
 11
6369.100445493299
 21
1957.617168320541
 31
0.0
  0
LINE
  5
2836A
330
747D
100
AcDbEntity
  8
細線
 48
50.0
100
AcDbLine
 10
6302.99948506679
 20
1945.397744620446
 30
0.0
 11
6315.218908766885
 21
1957.617168320541
 31
0.0
  0
LINE
  5
2836B
330
747D
100
AcDbEntity
  8
細線
 48
50.0
100
AcDbLine
 10
6422.552192332776
 20
1822.483536617563
 30
0.0
 11
6494.999485066791
 21
1894.930829351579
 31
0.0
  0
LINE
  5
2836C
330
747D
100
AcDbEntity
  8
細線
 48
50.0
100
AcDbLine
 10
6411.49190756926
 20
1838.364020217257
 30
0.0
 11
6494.999485066791
 21
1921.871597714786
 31
0.0
  0
LINE
  5
2836D
330
747D
100
AcDbEntity
  8
細線
 48
50.0
100
AcDbLine
 10
8287.438798243984
 20
1798.74545080913
 30
0.0
 11
8417.038798243982
 21
1928.345450809128
 31
0.0
  0
LINE
  5
2836E
330
747D
100
AcDbEntity
  8
部品1
100
AcDbLine
 10
8417.038798243982
 20
1413.617168320541
 30
0.0
 11
8417.038798243982
 21
1957.617168320541
 31
0.0
  0
LINE
  5
2836F
330
747D
100
AcDbEntity
  8
部品1
 48
50.0
100
AcDbLine
 10
8003.038798243983
 20
1413.617168320541
 30
0.0
 11
8003.038798243983
 21
1957.617168320541
 31
0.0
  0
LINE
  5
28370
330
747D
100
AcDbEntity
  8
細線
 48
50.0
100
AcDbLine
 10
8003.038798243983
 20
1729.871597714787
 30
0.0
 11
8161.438798243983
 21
1888.271597714783
 31
0.0
  0
LINE
  5
28371
330
747D
100
AcDbEntity
  8
細線
 48
50.0
100
AcDbLine
 10
8003.038798243983
 20
1702.930829351578
 30
0.0
 11
8161.438798243983
 21
1861.330829351576
 31
0.0
  0
LINE
  5
28372
330
747D
100
AcDbEntity
  8
細線
 48
50.0
100
AcDbLine
 10
8003.038798243983
 20
1675.990060988371
 30
0.0
 11
8161.438798243981
 21
1834.390060988364
 31
0.0
  0
TEXT
  5
28373
330
747D
100
AcDbEntity
  8
部品1
 48
50.0
100
AcDbText
 10
7588.898896411027
 20
1728.856160603796
 30
0.0
 40
80.0
  1
▽G.L
  7
STYLE2
100
AcDbText
  0
LINE
  5
28374
330
747D
100
AcDbEntity
  8
部品1
100
AcDbLine
 10
8233.438798243984
 20
1732.617168320541
 30
0.0
 11
8233.43879824398
 21
2006.777168320542
 31
0.0
  0
LINE
  5
28375
330
747D
100
AcDbEntity
  8
部品1
100
AcDbLine
 10
8215.438798243985
 20
1732.617168320541
 30
0.0
 11
8215.43879824398
 21
2006.777168320542
 31
0.0
  0
LINE
  5
28376
330
747D
100
AcDbEntity
  8
細線
 48
50.0
100
AcDbLine
 10
8287.438798243984
 20
1744.863914082699
 30
0.0
 11
8417.038798243982
 21
1874.463914082691
 31
0.0
  0
LINE
  5
28377
330
747D
100
AcDbEntity
  8
細線
 48
50.0
100
AcDbLine
 10
8287.438798243984
 20
1771.804682445912
 30
0.0
 11
8417.038798243982
 21
1901.404682445909
 31
0.0
  0
LINE
  5
28378
330
747D
100
AcDbEntity
  8
部品1
100
AcDbLine
 10
8287.438798243984
 20
1633.617168320541
 30
0.0
 11
8287.438798243984
 21
1957.617168320541
 31
0.0
  0
LINE
  5
28379
330
747D
100
AcDbEntity
  8
部品1
100
AcDbLine
 10
8161.438798243976
 20
1633.617168320541
 30
0.0
 11
8161.438798243983
 21
1957.617168320541
 31
0.0
  0
LINE
  5
2837A
330
747D
100
AcDbEntity
  8
細線
 48
50.0
100
AcDbLine
 10
8003.038798243983
 20
1487.404682445919
 30
0.0
 11
8161.438798243976
 21
1645.804682445908
 31
0.0
  0
LINE
  5
2837B
330
747D
100
AcDbEntity
  8
細線
 48
50.0
100
AcDbLine
 10
8003.038798243983
 20
1460.463914082712
 30
0.0
 11
8176.19205248182
 21
1633.617168320539
 31
0.0
  0
LINE
  5
2837C
330
747D
100
AcDbEntity
  8
細線
 48
50.0
100
AcDbLine
 10
8003.038798243983
 20
1514.345450809127
 30
0.0
 11
8161.438798243976
 21
1672.745450809122
 31
0.0
  0
LINE
  5
2837D
330
747D
100
AcDbEntity
  8
細線
 48
50.0
100
AcDbLine
 10
7931.718199387472
 20
1173.617168320541
 30
0.0
 11
8417.038798243982
 21
1658.937767177049
 31
0.0
  0
LINE
  5
2837E
330
747D
100
AcDbEntity
  8
細線
 48
50.0
100
AcDbLine
 10
7904.777431024267
 20
1173.617168320541
 30
0.0
 11
8417.038798243986
 21
1685.878535540255
 31
0.0
  0
LINE
  5
2837F
330
747D
100
AcDbEntity
  8
細線
 48
50.0
100
AcDbLine
 10
7877.836662661059
 20
1173.617168320541
 30
0.0
 11
8417.038798243982
 21
1712.819303903466
 31
0.0
  0
LINE
  5
28380
330
747D
100
AcDbEntity
  8
部品1
 48
50.0
100
AcDbLine
 10
8625.038798243986
 20
1173.617168320541
 30
0.0
 11
7795.038798243986
 21
1173.617168320541
 31
0.0
  0
LINE
  5
28381
330
747D
100
AcDbEntity
  8
部品1
 48
50.0
100
AcDbLine
 10
8625.038798243986
 20
1045.617168320541
 30
0.0
 11
7795.038798243986
 21
1045.617168320541
 31
0.0
  0
LINE
  5
28382
330
747D
100
AcDbEntity
  8
細線
 48
50.0
100
AcDbLine
 10
7875.038798243979
 20
1332.463914082712
 30
0.0
 11
7956.192052481812
 21
1413.617168320541
 31
0.0
  0
LINE
  5
28383
330
747D
100
AcDbEntity
  8
部品1
 48
50.0
100
AcDbLine
 10
7875.038798243983
 20
1173.617168320541
 30
0.0
 11
7875.038798243983
 21
1413.617168320541
 31
0.0
  0
LINE
  5
28384
330
747D
100
AcDbEntity
  8
細線
 48
50.0
100
AcDbLine
 10
7922.4455478455
 20
1045.617168320541
 30
0.0
 11
7956.743044476683
 21
1173.617168320541
 31
0.0
  0
LINE
  5
28385
330
747D
100
AcDbEntity
  8
部品1
 48
50.0
100
AcDbLine
 10
7795.038798243986
 20
1045.617168320541
 30
0.0
 11
7795.038798243986
 21
1173.617168320541
 31
0.0
  0
LINE
  5
28386
330
747D
100
AcDbEntity
  8
細線
 48
50.0
100
AcDbLine
 10
7843.557502898242
 20
1045.617168320539
 30
0.0
 11
7877.854999529425
 21
1173.617168320539
 31
0.0
  0
LINE
  5
28387
330
747D
100
AcDbEntity
  8
細線
 48
50.0
100
AcDbLine
 10
8001.333592792747
 20
1045.617168320539
 30
0.0
 11
8035.631089423928
 21
1173.617168320539
 31
0.0
  0
LINE
  5
28388
330
747D
100
AcDbEntity
  8
細線
 48
50.0
100
AcDbLine
 10
7849.988283516596
 20
1069.617168320541
 30
0.0
 11
7856.419064134941
 21
1045.617168320541
 31
0.0
  0
LINE
  5
28389
330
747D
100
AcDbEntity
  8
細線
 48
50.0
100
AcDbLine
 10
8007.764373411099
 20
1069.617168320541
 30
0.0
 11
8014.195154029447
 21
1045.617168320541
 31
0.0
  0
LINE
  5
2838A
330
747D
100
AcDbEntity
  8
細線
 48
50.0
100
AcDbLine
 10
7928.876328463847
 20
1069.617168320541
 30
0.0
 11
7935.307109082194
 21
1045.617168320541
 31
0.0
  0
LINE
  5
2838B
330
747D
100
AcDbEntity
  8
細線
 48
50.0
100
AcDbLine
 10
7795.038798243982
 20
1158.957089286321
 30
0.0
 11
7798.966954582178
 21
1173.617168320541
 31
0.0
  0
LINE
  5
2838C
330
747D
100
AcDbEntity
  8
細線
 48
50.0
100
AcDbLine
 10
7871.424218911085
 20
1149.617168320541
 30
0.0
 11
7864.993438292739
 21
1173.617168320541
 31
0.0
  0
LINE
  5
2838D
330
747D
100
AcDbEntity
  8
細線
 48
50.0
100
AcDbLine
 10
8029.200308805588
 20
1149.617168320541
 30
0.0
 11
8022.769528187239
 21
1173.617168320541
 31
0.0
  0
LINE
  5
2838E
330
747D
100
AcDbEntity
  8
細線
 48
50.0
100
AcDbLine
 10
7950.312263858338
 20
1149.617168320541
 30
0.0
 11
7943.88148323999
 21
1173.617168320541
 31
0.0
  0
LWPOLYLINE
  5
2838F
330
747D
100
AcDbEntity
  8
部品1
 48
50.0
100
AcDbPolyline
 90
        2
 70
     0
 43
8.0
 10
7588.898896411027
 20
1717.617168320542
 10
8003.038798243983
 20
1717.617168320542
  0
LINE
  5
28390
330
747D
100
AcDbEntity
  8
細線
 48
50.0
100
AcDbLine
 10
7875.038798243979
 20
1359.404682445916
 30
0.0
 11
7929.251284118606
 21
1413.617168320541
 31
0.0
  0
LINE
  5
28391
330
747D
100
AcDbEntity
  8
部品1
 48
50.0
100
AcDbLine
 10
7875.038798243983
 20
1413.617168320541
 30
0.0
 11
8003.038798243983
 21
1413.617168320541
 31
0.0
  0
LINE
  5
28392
330
747D
100
AcDbEntity
  8
細線
 48
50.0
100
AcDbLine
 10
7875.038798243979
 20
1386.345450809127
 30
0.0
 11
7902.310515755399
 21
1413.617168320541
 31
0.0
  0
LINE
  5
28393
330
747D
100
AcDbEntity
  8
細線
 48
50.0
100
AcDbLine
 10
8120.303577929929
 20
1173.617168320541
 30
0.0
 11
8417.038798243982
 21
1470.352388634594
 31
0.0
  0
LINE
  5
28394
330
747D
100
AcDbEntity
  8
細線
 48
50.0
100
AcDbLine
 10
8147.244346293133
 20
1173.617168320541
 30
0.0
 11
8417.038798243982
 21
1443.411620271398
 31
0.0
  0
LINE
  5
28395
330
747D
100
AcDbEntity
  8
細線
 48
50.0
100
AcDbLine
 10
8093.362809566718
 20
1173.617168320541
 30
0.0
 11
8417.038798243982
 21
1497.293156997807
 31
0.0
  0
LINE
  5
28396
330
747D
100
AcDbEntity
  8
細線
 48
50.0
100
AcDbLine
 10
8308.888956472376
 20
1173.617168320541
 30
0.0
 11
8545.038798243982
 21
1409.767010092149
 31
0.0
  0
LINE
  5
28397
330
747D
100
AcDbEntity
  8
細線
 48
50.0
100
AcDbLine
 10
8335.829724835589
 20
1173.617168320541
 30
0.0
 11
8545.038798243982
 21
1382.826241728934
 31
0.0
  0
LINE
  5
28398
330
747D
100
AcDbEntity
  8
部品1
 48
50.0
100
AcDbLine
 10
8545.038798243982
 20
1413.617168320541
 30
0.0
 11
8545.038798243982
 21
1173.617168320541
 31
0.0
  0
LINE
  5
28399
330
747D
100
AcDbEntity
  8
細線
 48
50.0
100
AcDbLine
 10
8362.770493198793
 20
1173.617168320541
 30
0.0
 11
8545.038798243982
 21
1355.885473365737
 31
0.0
  0
LINE
  5
2839A
330
747D
100
AcDbEntity
  8
細線
 48
50.0
100
AcDbLine
 10
8237.997727634494
 20
1045.617168320539
 30
0.0
 11
8272.295224265675
 21
1173.617168320539
 31
0.0
  0
LINE
  5
2839B
330
747D
100
AcDbEntity
  8
細線
 48
50.0
100
AcDbLine
 10
8080.221637739999
 20
1045.617168320541
 30
0.0
 11
8114.519134371182
 21
1173.617168320541
 31
0.0
  0
LINE
  5
2839C
330
747D
100
AcDbEntity
  8
細線
 48
50.0
100
AcDbLine
 10
8159.109682687246
 20
1045.617168320541
 30
0.0
 11
8193.40717931843
 21
1173.617168320539
 31
0.0
  0
LINE
  5
2839D
330
747D
100
AcDbEntity
  8
細線
 48
50.0
100
AcDbLine
 10
8316.885772581736
 20
1045.617168320541
 30
0.0
 11
8351.183269212922
 21
1173.617168320539
 31
0.0
  0
LINE
  5
2839E
330
747D
100
AcDbEntity
  8
細線
 48
50.0
100
AcDbLine
 10
8165.540463305596
 20
1069.617168320541
 30
0.0
 11
8171.971243923945
 21
1045.617168320541
 31
0.0
  0
LINE
  5
2839F
330
747D
100
AcDbEntity
  8
細線
 48
50.0
100
AcDbLine
 10
8086.652418358349
 20
1069.617168320541
 30
0.0
 11
8093.083198976698
 21
1045.617168320541
 31
0.0
  0
LINE
  5
283A0
330
747D
100
AcDbEntity
  8
細線
 48
50.0
100
AcDbLine
 10
8323.31655320009
 20
1069.617168320541
 30
0.0
 11
8329.747333818437
 21
1045.617168320541
 31
0.0
  0
LINE
  5
283A1
330
747D
100
AcDbEntity
  8
細線
 48
50.0
100
AcDbLine
 10
8244.428508252843
 20
1069.617168320541
 30
0.0
 11
8250.85928887119
 21
1045.617168320541
 31
0.0
  0
LINE
  5
283A2
330
747D
100
AcDbEntity
  8
細線
 48
50.0
100
AcDbLine
 10
8186.976398700087
 20
1149.617168320541
 30
0.0
 11
8180.545618081739
 21
1173.617168320541
 31
0.0
  0
LINE
  5
283A3
330
747D
100
AcDbEntity
  8
細線
 48
50.0
100
AcDbLine
 10
8108.088353752838
 20
1149.617168320541
 30
0.0
 11
8101.657573134493
 21
1173.617168320541
 31
0.0
  0
LINE
  5
283A4
330
747D
100
AcDbEntity
  8
細線
 48
50.0
100
AcDbLine
 10
8265.864443647334
 20
1149.617168320541
 30
0.0
 11
8259.433663028985
 21
1173.617168320541
 31
0.0
  0
LINE
  5
283A5
330
747D
100
AcDbEntity
  8
細線
 48
50.0
100
AcDbLine
 10
8344.752488594577
 20
1149.617168320541
 30
0.0
 11
8338.321707976232
 21
1173.617168320541
 31
0.0
  0
LINE
  5
283A6
330
747D
100
AcDbEntity
  8
部品1
 48
50.0
100
AcDbLine
 10
8625.038798243986
 20
1173.617168320541
 30
0.0
 11
8625.038798243986
 21
1045.617168320541
 31
0.0
  0
LINE
  5
283A7
330
747D
100
AcDbEntity
  8
細線
 48
50.0
100
AcDbLine
 10
8553.549907423478
 20
1045.617168320539
 30
0.0
 11
8587.847404054665
 21
1173.617168320538
 31
0.0
  0
LINE
  5
283A8
330
747D
100
AcDbEntity
  8
細線
 48
50.0
100
AcDbLine
 10
8395.773817528985
 20
1045.617168320539
 30
0.0
 11
8430.071314160159
 21
1173.617168320541
 31
0.0
  0
LINE
  5
283A9
330
747D
100
AcDbEntity
  8
細線
 48
50.0
100
AcDbLine
 10
8474.661862476235
 20
1045.617168320538
 30
0.0
 11
8508.959359107418
 21
1173.617168320538
 31
0.0
  0
LINE
  5
283AA
330
747D
100
AcDbEntity
  8
細線
 48
50.0
100
AcDbLine
 10
8402.204598147335
 20
1069.617168320541
 30
0.0
 11
8408.635378765692
 21
1045.617168320541
 31
0.0
  0
LINE
  5
283AB
330
747D
100
AcDbEntity
  8
細線
 48
50.0
100
AcDbLine
 10
8481.092643094584
 20
1069.617168320539
 30
0.0
 11
8487.52342371293
 21
1045.617168320539
 31
0.0
  0
LINE
  5
283AC
330
747D
100
AcDbEntity
  8
細線
 48
50.0
100
AcDbLine
 10
8559.98068804183
 20
1069.617168320539
 30
0.0
 11
8566.411468660177
 21
1045.617168320539
 31
0.0
  0
LINE
  5
283AD
330
747D
100
AcDbEntity
  8
細線
 48
50.0
100
AcDbLine
 10
8423.640533541817
 20
1149.617168320541
 30
0.0
 11
8417.209752923469
 21
1173.617168320541
 31
0.0
  0
LINE
  5
283AE
330
747D
100
AcDbEntity
  8
細線
 48
50.0
100
AcDbLine
 10
8502.528578489073
 20
1149.617168320539
 30
0.0
 11
8496.097797870728
 21
1173.617168320539
 31
0.0
  0
LINE
  5
283AF
330
747D
100
AcDbEntity
  8
細線
 48
50.0
100
AcDbLine
 10
8581.416623436318
 20
1149.617168320539
 30
0.0
 11
8574.985842817971
 21
1173.617168320539
 31
0.0
  0
LINE
  5
283B0
330
747D
100
AcDbEntity
  8
部品1
100
AcDbLine
 10
8287.438798243984
 20
1633.617168320539
 30
0.0
 11
8161.438798243976
 21
1633.617168320539
 31
0.0
  0
LINE
  5
283B1
330
747D
100
AcDbEntity
  8
部品1
100
AcDbLine
 10
8269.438798243983
 20
1714.617168320541
 30
0.0
 11
8269.438798243983
 21
1732.617168320541
 31
0.0
  0
ARC
  5
283B2
330
747D
100
AcDbEntity
  8
部品1
100
AcDbCircle
 10
8233.438798243984
 20
1732.617168320541
 30
0.0
 40
18.0
100
AcDbArc
 50
180.0
 51
270.0
  0
LINE
  5
283B3
330
747D
100
AcDbEntity
  8
部品1
100
AcDbLine
 10
8233.438798243984
 20
1714.617168320541
 30
0.0
 11
8269.438798243983
 21
1714.617168320541
 31
0.0
  0
LINE
  5
283B4
330
747D
100
AcDbEntity
  8
部品1
100
AcDbLine
 10
8233.438798243984
 20
1732.617168320541
 30
0.0
 11
8269.438798243983
 21
1732.617168320541
 31
0.0
  0
LINE
  5
283B5
330
747D
100
AcDbEntity
  8
部品1
 48
50.0
100
AcDbLine
 10
8417.038798243982
 20
1413.617168320541
 30
0.0
 11
8545.038798243982
 21
1413.617168320541
 31
0.0
  0
LINE
  5
283B6
330
747D
100
AcDbEntity
  8
部品1
100
AcDbLine
 10
8022.838798243984
 20
2047.617168320541
 30
0.0
 11
8060.638798243983
 21
2047.617168320541
 31
0.0
  0
LINE
  5
283B7
330
747D
100
AcDbEntity
  8
細線
 48
50.0
100
AcDbLine
 10
8003.038798243983
 20
1918.456976257239
 30
0.0
 11
8042.198990307289
 21
1957.617168320541
 31
0.0
  0
LINE
  5
283B8
330
747D
100
AcDbEntity
  8
細線
 48
50.0
100
AcDbLine
 10
8003.038798243983
 20
1891.516207894031
 30
0.0
 11
8069.139758670493
 21
1957.617168320541
 31
0.0
  0
LINE
  5
283B9
330
747D
100
AcDbEntity
  8
部品1
 48
50.0
100
AcDbLine
 10
8003.038798243983
 20
1957.617168320541
 30
0.0
 11
8417.038798243986
 21
1957.617168320541
 31
0.0
  0
LINE
  5
283BA
330
747D
100
AcDbEntity
  8
部品1
100
AcDbLine
 10
8020.138798243985
 20
2036.817168320541
 30
0.0
 11
8020.138798243985
 21
2044.917168320541
 31
0.0
  0
ARC
  5
283BB
330
747D
100
AcDbEntity
  8
部品1
100
AcDbCircle
 10
8022.838798243984
 20
2044.917168320541
 30
0.0
 40
2.7
100
AcDbArc
 50
90.0
 51
180.0
  0
ARC
  5
283BC
330
747D
100
AcDbEntity
  8
部品1
100
AcDbCircle
 10
8012.038798243983
 20
2032.009072023249
 30
0.0
 40
2.7
100
AcDbArc
 50
104.0362434679067
 51
180.0
  0
LINE
  5
283BD
330
747D
100
AcDbEntity
  8
部品1
100
AcDbLine
 10
8011.383952056386
 20
2034.628456773641
 30
0.0
 11
8020.138798243985
 21
2036.817168320541
 31
0.0
  0
ARC
  5
283BE
330
747D
100
AcDbEntity
  8
部品1
100
AcDbCircle
 10
8012.038798243983
 20
1969.877168320541
 30
0.0
 40
2.7
100
AcDbArc
 50
180.0
 51
270.0
  0
LINE
  5
283BF
330
747D
100
AcDbEntity
  8
細線
 48
50.0
100
AcDbLine
 10
8003.038798243983
 20
1945.397744620446
 30
0.0
 11
8015.258221944078
 21
1957.617168320541
 31
0.0
  0
LINE
  5
283C0
330
747D
100
AcDbEntity
  8
部品1
100
AcDbLine
 10
8012.038798243983
 20
1967.177168320542
 30
0.0
 11
8023.738798243979
 21
1967.177168320542
 31
0.0
  0
LINE
  5
283C1
330
747D
100
AcDbEntity
  8
部品1
100
AcDbLine
 10
8009.338798243984
 20
1969.877168320541
 30
0.0
 11
8009.338798243984
 21
2032.009072023249
 31
0.0
  0
LINE
  5
283C2
330
747D
100
AcDbEntity
  8
部品1
100
AcDbLine
 10
8167.998798243978
 20
1967.177168320542
 30
0.0
 11
8369.338798243978
 21
1967.177168320542
 31
0.0
  0
LINE
  5
283C3
330
747D
100
AcDbEntity
  8
部品1
100
AcDbLine
 10
8060.638798243983
 20
2047.617168320541
 30
0.0
 11
8060.638798243983
 21
2055.717168320541
 31
0.0
  0
LINE
  5
283C4
330
747D
100
AcDbEntity
  8
部品1
100
AcDbLine
 10
8111.038798243983
 20
2066.517168320538
 30
0.0
 11
8111.038798243983
 21
2015.217168320542
 31
0.0
  0
LINE
  5
283C5
330
747D
100
AcDbEntity
  8
部品1
100
AcDbLine
 10
8134.438798243984
 20
2027.177168320541
 30
0.0
 11
8162.598798243983
 21
2027.177168320541
 31
0.0
  0
ARC
  5
283C6
330
747D
100
AcDbEntity
  8
部品1
100
AcDbCircle
 10
8134.438798243984
 20
2024.477168320542
 30
0.0
 40
2.7
100
AcDbArc
 50
90.0
 51
180.0
  0
ARC
  5
283C7
330
747D
100
AcDbEntity
  8
部品1
100
AcDbCircle
 10
8162.598798243983
 20
2024.477168320542
 30
0.0
 40
2.7
100
AcDbArc
 50
0.0
 51
90.0
  0
LINE
  5
283C8
330
747D
100
AcDbEntity
  8
部品1
100
AcDbLine
 10
8153.338798243984
 20
2012.517168320541
 30
0.0
 11
8153.338798243984
 21
1969.877168320541
 31
0.0
  0
LINE
  5
283C9
330
747D
100
AcDbEntity
  8
部品1
100
AcDbLine
 10
8138.938798243984
 20
1967.177168320542
 30
0.0
 11
8150.638798243985
 21
1967.177168320542
 31
0.0
  0
ARC
  5
283CA
330
747D
100
AcDbEntity
  8
部品1
100
AcDbCircle
 10
8167.998798243978
 20
1969.877168320541
 30
0.0
 40
2.7
100
AcDbArc
 50
180.0
 51
270.0
  0
ARC
  5
283CB
330
747D
100
AcDbEntity
  8
部品1
100
AcDbCircle
 10
8150.638798243985
 20
1969.877168320541
 30
0.0
 40
2.7
100
AcDbArc
 50
270.0
 51
0.0
  0
LINE
  5
283CC
330
747D
100
AcDbEntity
  8
部品1
100
AcDbLine
 10
8111.038798243983
 20
2015.217168320542
 30
0.0
 11
8150.638798243985
 21
2015.217168320542
 31
0.0
  0
ARC
  5
283CD
330
747D
100
AcDbEntity
  8
部品1
100
AcDbCircle
 10
8150.638798243985
 20
2012.517168320541
 30
0.0
 40
2.7
100
AcDbArc
 50
0.0
 51
90.0
  0
LINE
  5
283CE
330
747D
100
AcDbEntity
  8
部品1
100
AcDbLine
 10
8165.298798243986
 20
2024.477168320542
 30
0.0
 11
8165.298798243981
 21
1969.877168320541
 31
0.0
  0
LINE
  5
283CF
330
747D
100
AcDbEntity
  8
部品1
100
AcDbLine
 10
8131.738798243985
 20
2024.477168320542
 30
0.0
 11
8131.738798243985
 21
2007.377168320541
 31
0.0
  0
LINE
  5
283D0
330
747D
100
AcDbEntity
  8
細線
100
AcDbLine
 10
8229.838798243983
 20
1967.177168320542
 30
0.0
 11
8229.838798243983
 21
2010.377168320542
 31
0.0
  0
LINE
  5
283D1
330
747D
100
AcDbEntity
  8
細線
100
AcDbLine
 10
8219.038798243985
 20
1967.177168320542
 30
0.0
 11
8219.038798243984
 21
2010.377168320542
 31
0.0
  0
LINE
  5
283D2
330
747D
100
AcDbEntity
  8
部品1
100
AcDbLine
 10
8215.438798243985
 20
2006.777168320542
 30
0.0
 11
8233.438798243984
 21
2006.777168320542
 31
0.0
  0
LINE
  5
283D3
330
747D
100
AcDbEntity
  8
部品1
100
AcDbLine
 10
8219.038798243984
 20
2010.377168320542
 30
0.0
 11
8229.838798243983
 21
2010.377168320542
 31
0.0
  0
ELLIPSE
  5
283D4
330
747D
100
AcDbEntity
  8
部品1
 48
50.0
100
AcDbEllipse
 10
8224.438798243985
 20
2226.740456764813
 30
0.0
 11
40.0
 21
0.0
 31
0.0
210
0.0
220
0.0
230
1.0
 40
0.4
 41
0.0
 42
6.283185307179586
  0
ELLIPSE
  5
283D5
330
747D
100
AcDbEntity
  8
部品1
 48
50.0
100
AcDbEllipse
 10
8224.438798243985
 20
2217.140456764814
 30
0.0
 11
40.0
 21
0.0
 31
0.0
210
0.0
220
0.0
230
1.0
 40
0.4
 41
3.141592653589793
 42
6.283185307179586
  0
LINE
  5
283D6
330
747D
100
AcDbEntity
  8
部品1
 48
50.0
100
AcDbLine
 10
8184.438798243984
 20
2226.740456764813
 30
0.0
 11
8184.438798243984
 21
2217.140456764813
 31
0.0
  0
ARC
  5
283D7
330
747D
100
AcDbEntity
  8
部品1
100
AcDbCircle
 10
8108.338798243982
 20
2066.517168320538
 30
0.0
 40
2.7
100
AcDbArc
 50
0.0
 51
90.0
  0
ARC
  5
283D8
330
747D
100
AcDbEntity
  8
部品1
100
AcDbCircle
 10
8066.038798243983
 20
2066.517168320541
 30
0.0
 40
2.7
100
AcDbArc
 50
90.0
 51
180.0
  0
LINE
  5
283D9
330
747D
100
AcDbEntity
  8
部品1
100
AcDbLine
 10
8063.338798243984
 20
2058.417168320541
 30
0.0
 11
8063.338798243984
 21
2058.417168320541
 31
0.0
  0
LINE
  5
283DA
330
747D
100
AcDbEntity
  8
部品1
100
AcDbLine
 10
8063.338798243984
 20
2058.417168320541
 30
0.0
 11
8063.338798243984
 21
2066.517168320541
 31
0.0
  0
LINE
  5
283DB
330
747D
100
AcDbEntity
  8
部品1
100
AcDbLine
 10
8066.038798243983
 20
2069.217168320542
 30
0.0
 11
8108.338798243982
 21
2069.217168320538
 31
0.0
  0
ARC
  5
283DC
330
747D
100
AcDbEntity
  8
部品1
100
AcDbCircle
 10
8063.338798243984
 20
2055.717168320541
 30
0.0
 40
2.7
100
AcDbArc
 50
90.0
 51
180.0
  0
ELLIPSE
  5
283DD
330
747D
100
AcDbEntity
  8
部品1
 48
50.0
100
AcDbEllipse
 10
8224.438798243985
 20
2226.740456764813
 30
0.0
 11
18.4
 21
0.0
 31
0.0
210
0.0
220
0.0
230
1.0
 40
0.3478260869565217
 41
0.0
 42
6.283185307179586
  0
LINE
  5
283DE
330
747D
100
AcDbEntity
  8
部品1
 48
50.0
100
AcDbLine
 10
8264.438798243984
 20
2217.140456764813
 30
0.0
 11
8264.438798243984
 21
2226.740456764813
 31
0.0
  0
LINE
  5
283DF
330
747D
100
AcDbEntity
  8
部品1
 48
50.0
100
AcDbLine
 10
8192.438798243983
 20
2348.492449429684
 30
0.0
 11
8208.438798243983
 21
2340.492449429684
 31
0.0
  0
LINE
  5
283E0
330
747D
100
AcDbEntity
  8
部品1
 48
50.0
100
AcDbLine
 10
8192.438798243983
 20
2316.492449429684
 30
0.0
 11
8208.438798243983
 21
2308.492449429684
 31
0.0
  0
LINE
  5
283E1
330
747D
100
AcDbEntity
  8
部品1
 48
50.0
100
AcDbLine
 10
8192.438798243983
 20
2348.492449429684
 30
0.0
 11
8208.438798243983
 21
2356.492449429684
 31
0.0
  0
LINE
  5
283E2
330
747D
100
AcDbEntity
  8
部品1
 48
50.0
100
AcDbLine
 10
8192.438798243983
 20
2316.492449429684
 30
0.0
 11
8192.438798243983
 21
2348.492449429684
 31
0.0
  0
LINE
  5
283E3
330
747D
100
AcDbEntity
  8
部品1
 48
50.0
100
AcDbLine
 10
8208.438798243983
 20
2356.492449429684
 30
0.0
 11
8240.438798243983
 21
2356.492449429684
 31
0.0
  0
ELLIPSE
  5
283E4
330
747D
100
AcDbEntity
  8
細線
 48
50.0
100
AcDbEllipse
 10
8224.438798243985
 20
2348.492449429684
 30
0.0
 11
14.76670786606846
 21
0.0
 31
0.0
210
0.0
220
0.0
230
1.0
 40
0.2071254069489396
 41
0.0
 42
6.283185307179586
  0
LINE
  5
283E5
330
747D
100
AcDbEntity
  8
部品1
 48
50.0
100
AcDbLine
 10
8208.438798243983
 20
2308.492449429684
 30
0.0
 11
8240.438798243983
 21
2308.492449429684
 31
0.0
  0
LINE
  5
283E6
330
747D
100
AcDbEntity
  8
部品1
 48
50.0
100
AcDbLine
 10
8240.438798243983
 20
2308.492449429684
 30
0.0
 11
8256.438798243983
 21
2316.492449429684
 31
0.0
  0
LINE
  5
283E7
330
747D
100
AcDbEntity
  8
部品1
 48
50.0
100
AcDbLine
 10
8208.438798243983
 20
2340.492449429684
 30
0.0
 11
8240.438798243983
 21
2340.492449429684
 31
0.0
  0
LINE
  5
283E8
330
747D
100
AcDbEntity
  8
部品1
 48
50.0
100
AcDbLine
 10
8240.438798243983
 20
2340.492449429684
 30
0.0
 11
8256.438798243983
 21
2348.492449429684
 31
0.0
  0
LINE
  5
283E9
330
747D
100
AcDbEntity
  8
細線
 48
50.0
100
AcDbLine
 10
8240.438798243983
 20
2308.492449429684
 30
0.0
 11
8240.438798243983
 21
2340.492449429684
 31
0.0
  0
LINE
  5
283EA
330
747D
100
AcDbEntity
  8
部品1
 48
50.0
100
AcDbLine
 10
8256.438798243983
 20
2316.492449429684
 30
0.0
 11
8256.438798243983
 21
2348.492449429684
 31
0.0
  0
LINE
  5
283EB
330
747D
100
AcDbEntity
  8
細線
 48
50.0
100
AcDbLine
 10
8208.438798243983
 20
2308.492449429684
 30
0.0
 11
8208.438798243983
 21
2340.492449429684
 31
0.0
  0
LINE
  5
283EC
330
747D
100
AcDbEntity
  8
部品1
 48
50.0
100
AcDbLine
 10
8240.438798243983
 20
2356.492449429684
 30
0.0
 11
8256.438798243983
 21
2348.492449429684
 31
0.0
  0
TEXT
  5
283ED
330
747D
100
AcDbEntity
  8
部品1
100
AcDbText
 10
7925.211047435914
 20
3177.403903569699
 30
0.0
 40
120.0
  1
基礎詳細
  7
STYLE2
100
AcDbText
  0
LINE
  5
283EE
330
747D
100
AcDbEntity
  8
部品1
100
AcDbLine
 10
11303.31623164377
 20
392.6488659364795
 30
0.0
 11
11303.31623164378
 21
3356.955835521127
 31
0.0
  0
LINE
  5
283EF
330
747D
100
AcDbEntity
  8
細線
100
AcDbLine
 10
10311.20806422352
 20
1717.617168320541
 30
0.0
 11
10116.57473054674
 21
1912.250501997324
 31
0.0
  0
LINE
  5
283F0
330
747D
100
AcDbEntity
  8
部品1
100
AcDbLine
 10
10116.57473054674
 20
1957.617168320541
 30
0.0
 11
10596.57473054674
 21
1957.617168320541
 31
0.0
  0
LINE
  5
283F1
330
747D
100
AcDbEntity
  8
細線
 48
50.0
100
AcDbLine
 10
10250.64561499
 20
1497.918252667191
 30
0.0
 11
10284.94311162118
 21
1625.91825266719
 31
0.0
  0
LINE
  5
283F2
330
747D
100
AcDbEntity
  8
部品1
100
AcDbLine
 10
9996.574730546742
 20
1497.918252667187
 30
0.0
 11
10716.57473054674
 21
1497.918252667191
 31
0.0
  0
LINE
  5
283F3
330
747D
100
AcDbEntity
  8
部品1
100
AcDbLine
 10
9996.574730546742
 20
1625.918252667191
 30
0.0
 11
10716.57473054674
 21
1625.918252667194
 31
0.0
  0
LINE
  5
283F4
330
747D
100
AcDbEntity
  8
細線
100
AcDbLine
 10
10177.49337603998
 20
1625.918252667191
 30
0.0
 11
10269.19229169333
 21
1717.617168320541
 31
0.0
  0
LWPOLYLINE
  5
283F5
330
747D
100
AcDbEntity
  8
部品1
 48
50.0
100
AcDbPolyline
 90
        2
 70
     0
 43
12.0
 10
9731.963468446352
 20
1717.617168320541
 10
10933.05577157797
 20
1717.617168320541
  0
LINE
  5
283F6
330
747D
100
AcDbEntity
  8
細線
100
AcDbLine
 10
10260.29637597809
 20
1717.617168320541
 30
0.0
 11
10116.57473054674
 21
1861.338813751894
 31
0.0
  0
TEXT
  5
283F7
330
747D
100
AcDbEntity
  8
部品1
 48
50.0
100
AcDbText
 10
9352.456643788238
 20
1450.817427683232
 30
0.0
 40
80.0
  1
ボルトの出
 50
90.0
  7
STYLE2
100
AcDbText
  0
LINE
  5
283F8
330
747D
100
AcDbEntity
  8
部品1
100
AcDbLine
 10
10116.57473054674
 20
1717.617168320541
 30
0.0
 11
10116.57473054674
 21
1957.617168320541
 31
0.0
  0
LINE
  5
283F9
330
747D
100
AcDbEntity
  8
細線
 48
50.0
100
AcDbLine
 10
10092.8695250955
 20
1497.91825266719
 30
0.0
 11
10127.16702172668
 21
1625.91825266719
 31
0.0
  0
LINE
  5
283FA
330
747D
100
AcDbEntity
  8
細線
 48
50.0
100
AcDbLine
 10
10171.75757004275
 20
1497.918252667191
 30
0.0
 11
10206.05506667393
 21
1625.918252667191
 31
0.0
  0
LINE
  5
283FB
330
747D
100
AcDbEntity
  8
細線
 48
50.0
100
AcDbLine
 10
10013.98148014825
 20
1497.918252667191
 30
0.0
 11
10048.27897677944
 21
1625.918252667191
 31
0.0
  0
LINE
  5
283FC
330
747D
100
AcDbEntity
  8
部品1
100
AcDbLine
 10
9996.574730546742
 20
1497.918252667187
 30
0.0
 11
9996.574730546742
 21
1717.617168320541
 31
0.0
  0
LINE
  5
283FD
330
747D
100
AcDbEntity
  8
細線
 48
50.0
100
AcDbLine
 10
10099.30030571385
 20
1521.918252667191
 30
0.0
 11
10105.7310863322
 21
1497.918252667191
 31
0.0
  0
LINE
  5
283FE
330
747D
100
AcDbEntity
  8
細線
 48
50.0
100
AcDbLine
 10
10020.4122607666
 20
1521.918252667191
 30
0.0
 11
10026.84304138495
 21
1497.918252667191
 31
0.0
  0
LINE
  5
283FF
330
747D
100
AcDbEntity
  8
細線
 48
50.0
100
AcDbLine
 10
10178.1883506611
 20
1521.918252667191
 30
0.0
 11
10184.61913127945
 21
1497.918252667191
 31
0.0
  0
LINE
  5
28400
330
747D
100
AcDbEntity
  8
細線
 48
50.0
100
AcDbLine
 10
10257.07639560835
 20
1521.918252667191
 30
0.0
 11
10263.5071762267
 21
1497.918252667191
 31
0.0
  0
LINE
  5
28401
330
747D
100
AcDbEntity
  8
細線
 48
50.0
100
AcDbLine
 10
10041.84819616109
 20
1601.918252667191
 30
0.0
 11
10035.41741554274
 21
1625.918252667191
 31
0.0
  0
LINE
  5
28402
330
747D
100
AcDbEntity
  8
細線
 48
50.0
100
AcDbLine
 10
10199.62428605559
 20
1601.918252667191
 30
0.0
 11
10193.19350543725
 21
1625.918252667191
 31
0.0
  0
LINE
  5
28403
330
747D
100
AcDbEntity
  8
細線
 48
50.0
100
AcDbLine
 10
10120.73624110834
 20
1601.918252667191
 30
0.0
 11
10114.30546048999
 21
1625.918252667191
 31
0.0
  0
LINE
  5
28404
330
747D
100
AcDbEntity
  8
細線
100
AcDbLine
 10
10109.61112504607
 20
1625.918252667191
 30
0.0
 11
10201.31004069942
 21
1717.617168320541
 31
0.0
  0
LINE
  5
28405
330
747D
100
AcDbEntity
  8
細線
100
AcDbLine
 10
10143.55225054303
 20
1625.918252667191
 30
0.0
 11
10235.25116619637
 21
1717.617168320541
 31
0.0
  0
LINE
  5
28406
330
747D
100
AcDbEntity
  8
細線
100
AcDbLine
 10
10531.82537995373
 20
1717.617168320541
 30
0.0
 11
10291.82537995373
 21
1957.617168320541
 31
0.0
  0
LINE
  5
28407
330
747D
100
AcDbEntity
  8
細線
100
AcDbLine
 10
10582.73706819916
 20
1717.617168320543
 30
0.0
 11
10342.73706819916
 21
1957.617168320541
 31
0.0
  0
LINE
  5
28408
330
747D
100
AcDbEntity
  8
部品1
100
AcDbLine
 10
10596.57473054674
 20
1957.617168320541
 30
0.0
 11
10596.57473054674
 21
1717.617168320541
 31
0.0
  0
LINE
  5
28409
330
747D
100
AcDbEntity
  8
細線
 48
50.0
100
AcDbLine
 10
10566.19779477899
 20
1497.918252667188
 30
0.0
 11
10600.49529141017
 21
1625.918252667188
 31
0.0
  0
LINE
  5
2840A
330
747D
100
AcDbEntity
  8
細線
100
AcDbLine
 10
10537.49337603998
 20
1625.918252667193
 30
0.0
 11
10629.19229169333
 21
1717.617168320541
 31
0.0
  0
LINE
  5
2840B
330
747D
100
AcDbEntity
  8
細線
 48
50.0
100
AcDbLine
 10
10487.30974983174
 20
1497.91825266719
 30
0.0
 11
10521.60724646291
 21
1625.918252667191
 31
0.0
  0
LINE
  5
2840C
330
747D
100
AcDbEntity
  8
細線
 48
50.0
100
AcDbLine
 10
10329.53365993725
 20
1497.91825266719
 30
0.0
 11
10363.83115656843
 21
1625.91825266719
 31
0.0
  0
LINE
  5
2840D
330
747D
100
AcDbEntity
  8
細線
 48
50.0
100
AcDbLine
 10
10408.42170488449
 20
1497.918252667191
 30
0.0
 11
10442.71920151567
 21
1625.91825266719
 31
0.0
  0
LINE
  5
2840E
330
747D
100
AcDbEntity
  8
細線
 48
50.0
100
AcDbLine
 10
10414.85248550284
 20
1521.918252667191
 30
0.0
 11
10421.28326612119
 21
1497.918252667191
 31
0.0
  0
LINE
  5
2840F
330
747D
100
AcDbEntity
  8
細線
 48
50.0
100
AcDbLine
 10
10335.9644405556
 20
1521.918252667191
 30
0.0
 11
10342.39522117394
 21
1497.918252667191
 31
0.0
  0
LINE
  5
28410
330
747D
100
AcDbEntity
  8
細線
 48
50.0
100
AcDbLine
 10
10493.74053045009
 20
1521.918252667191
 30
0.0
 11
10500.17131106844
 21
1497.918252667191
 31
0.0
  0
LINE
  5
28411
330
747D
100
AcDbEntity
  8
細線
 48
50.0
100
AcDbLine
 10
10572.62857539734
 20
1521.91825266719
 30
0.0
 11
10579.05935601568
 21
1497.91825266719
 31
0.0
  0
LINE
  5
28412
330
747D
100
AcDbEntity
  8
細線
 48
50.0
100
AcDbLine
 10
10436.28842089733
 20
1601.918252667191
 30
0.0
 11
10429.85764027898
 21
1625.918252667191
 31
0.0
  0
LINE
  5
28413
330
747D
100
AcDbEntity
  8
細線
 48
50.0
100
AcDbLine
 10
10357.40037595008
 20
1601.918252667191
 30
0.0
 11
10350.96959533174
 21
1625.918252667191
 31
0.0
  0
LINE
  5
28414
330
747D
100
AcDbEntity
  8
細線
 48
50.0
100
AcDbLine
 10
10278.51233100284
 20
1601.918252667191
 30
0.0
 11
10272.08155038449
 21
1625.918252667191
 31
0.0
  0
LINE
  5
28415
330
747D
100
AcDbEntity
  8
細線
100
AcDbLine
 10
10503.55225054303
 20
1625.918252667193
 30
0.0
 11
10595.25116619637
 21
1717.617168320541
 31
0.0
  0
LINE
  5
28416
330
747D
100
AcDbEntity
  8
細線
 48
50.0
100
AcDbLine
 10
10515.17646584457
 20
1601.918252667191
 30
0.0
 11
10508.74568522622
 21
1625.918252667191
 31
0.0
  0
LINE
  5
28417
330
747D
100
AcDbEntity
  8
細線
100
AcDbLine
 10
10469.61112504607
 20
1625.918252667193
 30
0.0
 11
10561.31004069942
 21
1717.617168320541
 31
0.0
  0
LINE
  5
28418
330
747D
100
AcDbEntity
  8
細線
 48
50.0
100
AcDbLine
 10
10594.06451079183
 20
1601.91825266719
 30
0.0
 11
10587.63373017348
 21
1625.91825266719
 31
0.0
  0
LINE
  5
28419
330
747D
100
AcDbEntity
  8
細線
 48
50.0
100
AcDbLine
 10
10645.08583972623
 20
1497.91825266719
 30
0.0
 11
10679.38333635741
 21
1625.918252667188
 31
0.0
  0
LINE
  5
2841A
330
747D
100
AcDbEntity
  8
部品1
100
AcDbLine
 10
10716.57473054674
 20
1717.617168320541
 30
0.0
 11
10716.57473054674
 21
1497.918252667191
 31
0.0
  0
LINE
  5
2841B
330
747D
100
AcDbEntity
  8
細線
 48
50.0
100
AcDbLine
 10
10651.51662034458
 20
1521.91825266719
 30
0.0
 11
10657.94740096293
 21
1497.91825266719
 31
0.0
  0
LINE
  5
2841C
330
747D
100
AcDbEntity
  8
細線
 48
50.0
100
AcDbLine
 10
10672.95255573907
 20
1601.91825266719
 30
0.0
 11
10666.52177512072
 21
1625.91825266719
 31
0.0
  0
LEADER
  5
2841D
330
747D
100
AcDbEntity
  8
寸法
 48
50.0
100
AcDbLeader
  3
INABA_S50G
 73
     0
 74
     0
 75
     1
 40
120.0
 41
185.591883092037
 76
     3
 10
10527.29914216266
 20
1957.617168320541
 30
0.0
 10
10560.4373487963
 20
2129.763489001679
 30
0.0
 10
10685.4373487963
 20
2129.763489001679
 30
0.0
340
2841E
1001
ACAD
1000
DSTYLE
1002
{
1070
    40
1040
1.0
1002
}
  0
MTEXT
  5
2841E
102
{ACAD_REACTORS
330
2841D
102
}
330
747D
100
AcDbEntity
  8
寸法
 62
     7
 48
50.0
100
AcDbMText
 10
10710.43734879631
 20
2214.763489001679
 30
0.0
 40
120.0
 41
0.8
 71
     4
 72
     1
  1
\A1;C.B
  7
STYLE1
 73
     1
 44
1.0
1001
ACAD
1000
MTEXTBEGIN
1070
    73
1070
     1
1070
    44
1040
1.0
1070
    74
1070
     0
1000
MTEXTEND
  0
SPLINE
  5
284B1
330
747D
100
AcDbEntity
  8
細線
 48
50.0
100
AcDbSpline
210
0.0
220
0.0
230
1.0
 70
     8
 71
     3
 72
    10
 73
     6
 74
     4
 42
0.0000000001
 43
0.0000000001
 44
0.0000000001
 40
0.0
 40
0.0
 40
0.0
 40
0.0
 40
192.2397835813012
 40
392.3518421163208
 40
606.4563990014053
 40
606.4563990014053
 40
606.4563990014053
 40
606.4563990014053
 10
8185.531451986557
 20
7111.446994778425
 30
0.0
 10
8085.58526474327
 20
7099.871231023235
 30
0.0
 10
7881.600064870109
 20
7076.245672626105
 30
0.0
 10
8301.257497797754
 20
6942.96891259496
 30
0.0
 10
8080.462092227566
 20
6918.743297269095
 30
0.0
 10
7966.335085458602
 20
6906.221311328595
 30
0.0
 11
8185.531451986557
 21
7111.446994778425
 31
0.0
 11
7999.842080185157
 21
7061.691677561197
 31
0.0
 11
8173.144206480083
 21
6961.635648293688
 31
0.0
 11
7966.335085458602
 21
6906.221311328595
 31
0.0
  0
LINE
  5
284B2
330
747D
100
AcDbEntity
  8
細線
 48
50.0
100
AcDbLine
 10
8255.266041986265
 20
8042.012251328349
 30
0.0
 11
7925.98310588669
 21
6100.980595740413
 31
0.0
  0
ENDSEC
  0
SECTION
  2
OBJECTS
  0
DICTIONARY
  5
7471
330
0
100
AcDbDictionary
281
     1
  3
ACAD_COLOR
350
173D2
  3
ACAD_GROUP
350
7472
  3
ACAD_LAYOUT
350
173D3
  3
ACAD_MATERIAL
350
173D1
  3
ACAD_MLINESTYLE
350
7473
  3
ACAD_PLOTSETTINGS
350
173D4
  3
ACAD_PLOTSTYLENAME
350
173CF
  3
ACDBHEADERROUNDTRIPXREC
350
284C8
  3
AcDbVariableDictionary
350
280DC
  3
CONTENTDICTIONARY
350
E71C
  3
DRAWINGVARIABLESDICT
350
F3B9
  0
DICTIONARY
  5
1758F
330
7467
100
AcDbDictionary
280
     1
281
     1
  3
ACAD_LAYERSTATES
360
17590
  0
DICTIONARY
  5
173D2
102
{ACAD_REACTORS
330
7471
102
}
330
7471
100
AcDbDictionary
281
     1
  0
DICTIONARY
  5
7472
102
{ACAD_REACTORS
330
7471
102
}
330
7471
100
AcDbDictionary
281
     1
  3
*A1
350
1D2A9
  0
DICTIONARY
  5
173D3
102
{ACAD_REACTORS
330
7471
102
}
330
7471
100
AcDbDictionary
281
     1
  3
Model
350
173D5
  3
レイアウト1
350
173D6
  0
DICTIONARY
  5
173D1
102
{ACAD_REACTORS
330
7471
102
}
330
7471
100
AcDbDictionary
281
     1
  0
DICTIONARY
  5
7473
102
{ACAD_REACTORS
330
7471
102
}
330
7471
100
AcDbDictionary
281
     1
  3
STANDARD
350
7480
  0
DICTIONARY
  5
173D4
102
{ACAD_REACTORS
330
7471
102
}
330
7471
100
AcDbDictionary
281
     1
  0
ACDBDICTIONARYWDFLT
  5
173CF
102
{ACAD_REACTORS
330
7471
102
}
330
7471
100
AcDbDictionary
281
     1
  3
Normal
350
173D0
100
AcDbDictionaryWithDefault
340
173D0
  0
DICTIONARY
  5
284C8
102
{ACAD_REACTORS
330
7471
102
}
330
7471
100
AcDbDictionary
281
     1
  3
COLORDICT
350
284CA
  3
MATERIALDICT
350
284C9
  0
DICTIONARY
  5
280DC
102
{ACAD_REACTORS
330
7471
102
}
330
7471
100
AcDbDictionary
281
     1
  3
DIMASSOC
350
280DD
  3
PROJECTNAME
350
280DE
  0
DICTIONARY
  5
E71C
102
{ACAD_REACTORS
330
7471
102
}
330
7471
100
AcDbDictionary
281
     1
  0
DICTIONARY
  5
F3B9
102
{ACAD_REACTORS
330
7471
102
}
330
7471
100
AcDbDictionary
281
     1
1001
DRAWINGVARIABLESXDATA
1000
POLARMODE
1000
1
  0
DICTIONARY
  5
17590
102
{ACAD_REACTORS
330
1758F
102
}
330
1758F
100
AcDbDictionary
281
     1
  0
GROUP
  5
1D2A9
102
{ACAD_REACTORS
330
7472
102
}
330
7472
100
AcDbGroup
300

 70
     1
 71
     1
  0
LAYOUT
  5
173D5
102
{ACAD_XDICTIONARY
360
284CB
102
}
102
{ACAD_REACTORS
330
173D3
102
}
330
173D3
100
AcDbPlotSettings
  1

  2
クセロPDF
  4
A3
  6

 40
3.174999952316284
 41
3.174999952316284
 42
3.17498779296875
 43
3.17498779296875
 44
419.9466552734374
 45
296.9259948730469
 46
0.0
 47
0.0
 48
0.0
 49
0.0
140
0.0
141
0.0
142
1.0
143
40.88431153497317
 70
 11952
 72
     1
 73
     0
 74
     2
  7
inabass.ctb
 75
     0
147
0.0244592598592392
148
0.0
149
0.0
100
AcDbLayout
  1
Model
 70
     1
 71
     0
 10
0.0
 20
0.0
 11
12.0
 21
9.0
 12
0.0
 22
0.0
 32
0.0
 14
0.0
 24
0.0
 34
0.0
 15
0.0
 25
0.0
 35
0.0
146
0.0
 13
0.0
 23
0.0
 33
0.0
 16
1.0
 26
0.0
 36
0.0
 17
0.0
 27
1.0
 37
0.0
 76
     0
330
747D
  0
LAYOUT
  5
173D6
102
{ACAD_XDICTIONARY
360
284CD
102
}
102
{ACAD_REACTORS
330
173D3
102
}
330
173D3
100
AcDbPlotSettings
  1

  2
Microsoft Office Document Image Writer
  4

  6

 40
0.0
 41
0.0
 42
0.0
 43
0.0
 44
0.0
 45
0.0
 46
0.0
 47
0.0
 48
0.0
 49
0.0
140
0.0
141
0.0
142
1.0
143
1.0
 70
   688
 72
     0
 73
     0
 74
     5
  7
inabass.ctb
 75
    16
147
1.0
148
0.0
149
0.0
100
AcDbLayout
  1
レイアウト1
 70
     0
 71
     1
 10
0.0
 20
0.0
 11
420.0
 21
297.0
 12
0.0
 22
0.0
 32
0.0
 14
1.000000000000000E+20
 24
1.000000000000000E+20
 34
1.000000000000000E+20
 15
-1.000000000000000E+20
 25
-1.000000000000000E+20
 35
-1.000000000000000E+20
146
0.0
 13
0.0
 23
0.0
 33
0.0
 16
1.0
 26
0.0
 36
0.0
 17
0.0
 27
1.0
 37
0.0
 76
     0
330
747A
  0
MLINESTYLE
  5
7480
102
{ACAD_REACTORS
330
7473
102
}
330
7473
100
AcDbMlineStyle
  2
STANDARD
 70
     0
  3

 62
     0
 51
90.0
 52
90.0
 71
     2
 49
0.5
 62
   256
  6
BYLAYER
 49
-0.5
 62
   256
  6
BYLAYER
  0
ACDBPLACEHOLDER
  5
173D0
102
{ACAD_REACTORS
330
173CF
102
}
330
173CF
  0
XRECORD
  5
284CA
102
{ACAD_REACTORS
330
284C8
102
}
330
284C8
100
AcDbXrecord
280
     1
340
173D2
  0
XRECORD
  5
284C9
102
{ACAD_REACTORS
330
284C8
102
}
330
284C8
100
AcDbXrecord
280
     1
340
173D1
  0
DICTIONARYVAR
  5
280DD
102
{ACAD_REACTORS
330
280DC
102
}
330
280DC
100
DictionaryVariables
280
     0
  1
1
  0
DICTIONARYVAR
  5
280DE
102
{ACAD_REACTORS
330
280DC
102
}
330
280DC
100
DictionaryVariables
280
     0
  1

  0
DICTIONARY
  5
284CB
330
173D5
100
AcDbDictionary
280
     1
281
     1
  3
ACAD_XREC_ROUNDTRIP
360
284CC
  0
DICTIONARY
  5
284CD
330
173D6
100
AcDbDictionary
280
     1
281
     1
  3
ACAD_XREC_ROUNDTRIP
360
284CE
  0
XRECORD
  5
284CC
102
{ACAD_REACTORS
330
284CB
102
}
330
284CB
100
AcDbXrecord
280
     1
102
SHADEPLOT
 70
     0
102
SHADEPLOTRESLEVEL
 70
     2
102
SHADEPLOTCUSTOMDPI
 70
   150
  0
XRECORD
  5
284CE
102
{ACAD_REACTORS
330
284CD
102
}
330
284CD
100
AcDbXrecord
280
     1
102
SHADEPLOT
 70
     0
102
SHADEPLOTRESLEVEL
 70
     2
102
SHADEPLOTCUSTOMDPI
 70
   300
  0
ENDSEC
  0
EOF
