  0
SECTION
  2
HEADER
  9
$ACADVER
  1
AC1015
  9
$ACADMAINTVER
 70
    20
  9
$DWGCODEPAGE
  3
ANSI_932
  9
$INSBASE
 10
0.0
 20
0.0
 30
0.0
  9
$EXTMIN
 10
139.196816621341
 20
-0.1811693038616795
 30
-0.0000000000112498
  9
$EXTMAX
 10
16308.32523385566
 20
11409.92678395885
 30
0.0000000000002956
  9
$LIMMIN
 10
0.0
 20
0.0
  9
$LIMMAX
 10
16800.0
 20
11880.0
  9
$ORTHOMODE
 70
     0
  9
$REGENMODE
 70
     1
  9
$FILLMODE
 70
     1
  9
$QTEXTMODE
 70
     0
  9
$MIRRTEXT
 70
     1
  9
$LTSCALE
 40
20.0
  9
$ATTMODE
 70
     1
  9
$TEXTSIZE
 40
4.0
  9
$TRACEWID
 40
1.0
  9
$TEXTSTYLE
  7
STYLE1
  9
$CLAYER
  8
細線
  9
$CELTYPE
  6
BYLAYER
  9
$CECOLOR
 62
   256
  9
$CELTSCALE
 40
50.0
  9
$DISPSILH
 70
     0
  9
$DIMSCALE
 40
40.0
  9
$DIMASZ
 40
2.5
  9
$DIMEXO
 40
0.5
  9
$DIMDLI
 40
7.0
  9
$DIMRND
 40
0.0
  9
$DIMDLE
 40
0.0
  9
$DIMEXE
 40
1.5
  9
$DIMTP
 40
0.0
  9
$DIMTM
 40
0.0
  9
$DIMTXT
 40
3.0
  9
$DIMCEN
 40
0.0
  9
$DIMTSZ
 40
0.0
  9
$DIMTOL
 70
     0
  9
$DIMLIM
 70
     0
  9
$DIMTIH
 70
     0
  9
$DIMTOH
 70
     0
  9
$DIMSE1
 70
     0
  9
$DIMSE2
 70
     0
  9
$DIMTAD
 70
     3
  9
$DIMZIN
 70
     8
  9
$DIMBLK
  1

  9
$DIMASO
 70
     1
  9
$DIMSHO
 70
     1
  9
$DIMPOST
  1

  9
$DIMAPOST
  1

  9
$DIMALT
 70
     0
  9
$DIMALTD
 70
     2
  9
$DIMALTF
 40
0.0394
  9
$DIMLFAC
 40
1.0
  9
$DIMTOFL
 70
     1
  9
$DIMTVP
 40
0.0
  9
$DIMTIX
 70
     1
  9
$DIMSOXD
 70
     0
  9
$DIMSAH
 70
     1
  9
$DIMBLK1
  1
DOTSMALL
  9
$DIMBLK2
  1
DOTSMALL
  9
$DIMSTYLE
  2
INABA_S40G
  9
$DIMCLRD
 70
     0
  9
$DIMCLRE
 70
     0
  9
$DIMCLRT
 70
     7
  9
$DIMTFAC
 40
1.0
  9
$DIMGAP
 40
1.0
  9
$DIMJUST
 70
     0
  9
$DIMSD1
 70
     0
  9
$DIMSD2
 70
     0
  9
$DIMTOLJ
 70
     1
  9
$DIMTZIN
 70
     0
  9
$DIMALTZ
 70
     0
  9
$DIMALTTZ
 70
     0
  9
$DIMUPT
 70
     0
  9
$DIMDEC
 70
     1
  9
$DIMTDEC
 70
     4
  9
$DIMALTU
 70
     2
  9
$DIMALTTD
 70
     2
  9
$DIMTXSTY
  7
STYLE1
  9
$DIMAUNIT
 70
     0
  9
$DIMADEC
 70
     0
  9
$DIMALTRND
 40
0.0
  9
$DIMAZIN
 70
     0
  9
$DIMDSEP
 70
    46
  9
$DIMATFIT
 70
     3
  9
$DIMFRAC
 70
     0
  9
$DIMLDRBLK
  1

  9
$DIMLUNIT
 70
     2
  9
$DIMLWD
 70
    -2
  9
$DIMLWE
 70
    -2
  9
$DIMTMOVE
 70
     0
  9
$LUNITS
 70
     2
  9
$LUPREC
 70
     1
  9
$SKETCHINC
 40
1.0
  9
$FILLETRAD
 40
3.0
  9
$AUNITS
 70
     0
  9
$AUPREC
 70
     0
  9
$MENU
  1
acad
  9
$ELEVATION
 40
0.0
  9
$PELEVATION
 40
0.0
  9
$THICKNESS
 40
0.0
  9
$LIMCHECK
 70
     0
  9
$CHAMFERA
 40
0.0
  9
$CHAMFERB
 40
0.0
  9
$CHAMFERC
 40
0.0
  9
$CHAMFERD
 40
0.0
  9
$SKPOLY
 70
     0
  9
$TDCREATE
 40
2451368.612993866
  9
$TDUCREATE
 40
2451368.237993866
  9
$TDUPDATE
 40
2456276.477550995
  9
$TDUUPDATE
 40
2456276.102550996
  9
$TDINDWG
 40
0.7824050000
  9
$TDUSRTIMER
 40
0.7824050000
  9
$USRTIMER
 70
     1
  9
$ANGBASE
 50
0.0
  9
$ANGDIR
 70
     0
  9
$PDMODE
 70
     3
  9
$PDSIZE
 40
2.0
  9
$PLINEWID
 40
0.0
  9
$SPLFRAME
 70
     0
  9
$SPLINETYPE
 70
     6
  9
$SPLINESEGS
 70
     8
  9
$HANDSEED
  5
25C47
  9
$SURFTAB1
 70
     6
  9
$SURFTAB2
 70
     6
  9
$SURFTYPE
 70
     6
  9
$SURFU
 70
     6
  9
$SURFV
 70
     6
  9
$UCSBASE
  2

  9
$UCSNAME
  2

  9
$UCSORG
 10
0.0
 20
0.0
 30
0.0
  9
$UCSXDIR
 10
1.0
 20
0.0
 30
0.0
  9
$UCSYDIR
 10
0.0
 20
1.0
 30
0.0
  9
$UCSORTHOREF
  2

  9
$UCSORTHOVIEW
 70
     0
  9
$UCSORGTOP
 10
0.0
 20
0.0
 30
0.0
  9
$UCSORGBOTTOM
 10
0.0
 20
0.0
 30
0.0
  9
$UCSORGLEFT
 10
0.0
 20
0.0
 30
0.0
  9
$UCSORGRIGHT
 10
0.0
 20
0.0
 30
0.0
  9
$UCSORGFRONT
 10
0.0
 20
0.0
 30
0.0
  9
$UCSORGBACK
 10
0.0
 20
0.0
 30
0.0
  9
$PUCSBASE
  2

  9
$PUCSNAME
  2

  9
$PUCSORG
 10
0.0
 20
0.0
 30
0.0
  9
$PUCSXDIR
 10
1.0
 20
0.0
 30
0.0
  9
$PUCSYDIR
 10
0.0
 20
1.0
 30
0.0
  9
$PUCSORTHOREF
  2

  9
$PUCSORTHOVIEW
 70
     0
  9
$PUCSORGTOP
 10
0.0
 20
0.0
 30
0.0
  9
$PUCSORGBOTTOM
 10
0.0
 20
0.0
 30
0.0
  9
$PUCSORGLEFT
 10
0.0
 20
0.0
 30
0.0
  9
$PUCSORGRIGHT
 10
0.0
 20
0.0
 30
0.0
  9
$PUCSORGFRONT
 10
0.0
 20
0.0
 30
0.0
  9
$PUCSORGBACK
 10
0.0
 20
0.0
 30
0.0
  9
$USERI1
 70
     0
  9
$USERI2
 70
     0
  9
$USERI3
 70
     0
  9
$USERI4
 70
     0
  9
$USERI5
 70
     0
  9
$USERR1
 40
0.0
  9
$USERR2
 40
0.0
  9
$USERR3
 40
0.0
  9
$USERR4
 40
0.0
  9
$USERR5
 40
0.0
  9
$WORLDVIEW
 70
     1
  9
$SHADEDGE
 70
     3
  9
$SHADEDIF
 70
    70
  9
$TILEMODE
 70
     1
  9
$MAXACTVP
 70
    16
  9
$PINSBASE
 10
0.0
 20
0.0
 30
0.0
  9
$PLIMCHECK
 70
     0
  9
$PEXTMIN
 10
1.000000000000000E+20
 20
1.000000000000000E+20
 30
1.000000000000000E+20
  9
$PEXTMAX
 10
-1.000000000000000E+20
 20
-1.000000000000000E+20
 30
-1.000000000000000E+20
  9
$PLIMMIN
 10
0.0
 20
0.0
  9
$PLIMMAX
 10
420.0
 20
297.0
  9
$UNITMODE
 70
     0
  9
$VISRETAIN
 70
     0
  9
$PLINEGEN
 70
     0
  9
$PSLTSCALE
 70
     0
  9
$TREEDEPTH
 70
  3020
  9
$CMLSTYLE
  2
STANDARD
  9
$CMLJUST
 70
     0
  9
$CMLSCALE
 40
1.0
  9
$PROXYGRAPHICS
 70
     1
  9
$MEASUREMENT
 70
     1
  9
$CELWEIGHT
370
    -1
  9
$ENDCAPS
280
     0
  9
$JOINSTYLE
280
     0
  9
$LWDISPLAY
290
     0
  9
$INSUNITS
 70
     0
  9
$HYPERLINKBASE
  1

  9
$STYLESHEET
  1
inabass.ctb
  9
$XEDIT
290
     1
  9
$CEPSNTYPE
380
     0
  9
$PSTYLEMODE
290
     1
  9
$FINGERPRINTGUID
  2
{5EAC461A-2277-4BF8-9AB0-99C43BB394F0}
  9
$VERSIONGUID
  2
{4ACAB9BC-B561-493D-96C2-DD9EC0C4522A}
  9
$EXTNAMES
290
     1
  9
$PSVPSCALE
 40
0.0
  9
$OLESTARTUP
290
     0
  0
ENDSEC
  0
SECTION
  2
CLASSES
  0
CLASS
  1
ACDBDICTIONARYWDFLT
  2
AcDbDictionaryWithDefault
  3
ObjectDBX Classes
 90
        0
280
     0
281
     0
  0
CLASS
  1
DICTIONARYVAR
  2
AcDbDictionaryVar
  3
ObjectDBX Classes
 90
        0
280
     0
281
     0
  0
CLASS
  1
ACDBPLACEHOLDER
  2
AcDbPlaceHolder
  3
ObjectDBX Classes
 90
        0
280
     0
281
     0
  0
CLASS
  1
LAYOUT
  2
AcDbLayout
  3
ObjectDBX Classes
 90
        0
280
     0
281
     0
  0
ENDSEC
  0
SECTION
  2
TABLES
  0
TABLE
  2
VPORT
  5
746D
330
0
100
AcDbSymbolTable
 70
     3
  0
VPORT
  5
25C3F
330
746D
100
AcDbSymbolTableRecord
100
AcDbViewportTableRecord
  2
*Active
 70
     0
 10
0.0
 20
0.0
 11
1.0
 21
1.0
 12
8400.0
 22
6181.20206240933
 13
0.0
 23
0.0
 14
10.0
 24
10.0
 15
10.0
 25
10.0
 16
0.0
 26
0.0
 36
1.0
 17
0.0
 27
0.0
 37
0.0
 40
12458.52136351618
 41
1.608
 42
50.0
 43
0.0
 44
0.0
 50
0.0
 51
0.0
 71
     0
 72
     0
 73
     1
 74
     0
 75
     0
 76
     0
 77
     0
 78
     0
281
     0
 65
     1
110
0.0
120
0.0
130
0.0
111
1.0
121
0.0
131
0.0
112
0.0
122
1.0
132
0.0
 79
     0
146
0.0
  0
ENDTAB
  0
TABLE
  2
LTYPE
  5
746A
330
0
100
AcDbSymbolTable
 70
     5
  0
LTYPE
  5
7477
330
746A
100
AcDbSymbolTableRecord
100
AcDbLinetypeTableRecord
  2
BYBLOCK
 70
     0
  3

 72
    65
 73
     0
 40
0.0
  0
LTYPE
  5
7478
330
746A
100
AcDbSymbolTableRecord
100
AcDbLinetypeTableRecord
  2
BYLAYER
 70
     0
  3

 72
    65
 73
     0
 40
0.0
  0
LTYPE
  5
7479
330
746A
100
AcDbSymbolTableRecord
100
AcDbLinetypeTableRecord
  2
CONTINUOUS
 70
     0
  3
Solid line
 72
    65
 73
     0
 40
0.0
  0
LTYPE
  5
7816
330
746A
100
AcDbSymbolTableRecord
100
AcDbLinetypeTableRecord
  2
CENTER
 70
     0
  3
____ _ ____ _ ____ _ ____ _ ____ _ ____ _ ____ 
 72
    65
 73
     4
 40
2.0
 49
1.25
 74
     0
 49
-0.25
 74
     0
 49
0.25
 74
     0
 49
-0.25
 74
     0
  0
LTYPE
  5
781A
330
746A
100
AcDbSymbolTableRecord
100
AcDbLinetypeTableRecord
  2
HIDDEN
 70
     0
  3
__ __ __ __ __ __ __ __ __ __ __ __ __ __ __ __
 72
    65
 73
     2
 40
0.375
 49
0.25
 74
     0
 49
-0.125
 74
     0
  0
LTYPE
  5
781B
330
746A
100
AcDbSymbolTableRecord
100
AcDbLinetypeTableRecord
  2
PHANTOM
 70
     0
  3
______  __  __  ______  __  __  ______  __  __ 
 72
    65
 73
     6
 40
2.5
 49
1.25
 74
     0
 49
-0.25
 74
     0
 49
0.25
 74
     0
 49
-0.25
 74
     0
 49
0.25
 74
     0
 49
-0.25
 74
     0
  0
LTYPE
  5
12CC3
330
746A
100
AcDbSymbolTableRecord
100
AcDbLinetypeTableRecord
  2
HIDDENX2
 70
     0
  3
Hidden (2x) ____ ____ ____ ____ ____ ____ ____
 72
    65
 73
     2
 40
19.05
 49
12.7
 74
     0
 49
-6.349999999999999
 74
     0
  0
ENDTAB
  0
TABLE
  2
LAYER
  5
7467
102
{ACAD_XDICTIONARY
360
1758F
102
}
330
0
100
AcDbSymbolTable
 70
    12
  0
LAYER
  5
7474
330
7467
100
AcDbSymbolTableRecord
100
AcDbLayerTableRecord
  2
0
 70
     0
 62
     7
  6
CONTINUOUS
370
    -3
390
173D0
  0
LAYER
  5
DEB2
330
7467
100
AcDbSymbolTableRecord
100
AcDbLayerTableRecord
  2
センター
 70
     0
 62
     3
  6
CENTER
370
    -3
390
173D0
  0
LAYER
  5
DEB3
330
7467
100
AcDbSymbolTableRecord
100
AcDbLayerTableRecord
  2
寸法
 70
     0
 62
     4
  6
CONTINUOUS
370
    -3
390
173D0
  0
LAYER
  5
DEB4
330
7467
100
AcDbSymbolTableRecord
100
AcDbLayerTableRecord
  2
部品1
 70
     0
 62
     7
  6
CONTINUOUS
370
    -3
390
173D0
  0
LAYER
  5
DEB5
330
7467
100
AcDbSymbolTableRecord
100
AcDbLayerTableRecord
  2
補助
 70
     0
 62
    -1
  6
CONTINUOUS
370
    -3
390
173D0
  0
LAYER
  5
DEB6
330
7467
100
AcDbSymbolTableRecord
100
AcDbLayerTableRecord
  2
文字
 70
     0
 62
     7
  6
CONTINUOUS
370
    -3
390
173D0
  0
LAYER
  5
F255
330
7467
100
AcDbSymbolTableRecord
100
AcDbLayerTableRecord
  2
DEFPOINTS
 70
     0
 62
     7
  6
CONTINUOUS
290
     0
370
    -3
390
173D0
  0
LAYER
  5
10B54
330
7467
100
AcDbSymbolTableRecord
100
AcDbLayerTableRecord
  2
仕様書枠
 70
     0
 62
   230
  6
CONTINUOUS
370
    -3
390
173D0
  0
LAYER
  5
11729
330
7467
100
AcDbSymbolTableRecord
100
AcDbLayerTableRecord
  2
Ｇ．Ｌ
 70
     0
 62
    30
  6
CONTINUOUS
370
    -3
390
173D0
  0
LAYER
  5
1173F
330
7467
100
AcDbSymbolTableRecord
100
AcDbLayerTableRecord
  2
細線
 70
     0
 62
     5
  6
CONTINUOUS
370
    -3
390
173D0
  0
LAYER
  5
12CC4
330
7467
100
AcDbSymbolTableRecord
100
AcDbLayerTableRecord
  2
想像線
 70
     0
 62
     6
  6
PHANTOM
370
    -3
390
173D0
  0
LAYER
  5
142E2
330
7467
100
AcDbSymbolTableRecord
100
AcDbLayerTableRecord
  2
破線
 70
     0
 62
     2
  6
HIDDEN
370
    -3
390
173D0
  0
ENDTAB
  0
TABLE
  2
STYLE
  5
7468
330
0
100
AcDbSymbolTable
 70
     7
  0
STYLE
  5
7475
330
7468
100
AcDbSymbolTableRecord
100
AcDbTextStyleTableRecord
  2
STANDARD
 70
     0
 40
0.0
 41
1.0
 50
0.0
 71
     0
 42
4.0
  3
txt
  4
C:\AutoCAD LT\bigfont.shx
  0
STYLE
  5
763C
330
7468
100
AcDbSymbolTableRecord
100
AcDbTextStyleTableRecord
  2
MSMINCHO
 70
     0
 40
0.0
 41
1.0
 50
0.0
 71
     0
 42
1.199999999999999
  3
C:\AutoCAD LT\msminch2.TTF
  4

  0
STYLE
  5
F706
330
7468
100
AcDbSymbolTableRecord
100
AcDbTextStyleTableRecord
  2
STYLE1
 70
     0
 40
0.0
 41
1.0
 50
0.0
 71
     0
 42
4.0
  3
isocp.shx
  4
bigfont.shx
  0
STYLE
  5
103BF
330
7468
100
AcDbSymbolTableRecord
100
AcDbTextStyleTableRecord
  2
STYLE2
 70
     0
 40
0.0
 41
1.0
 50
0.0
 71
     0
 42
100.0
  3
MS PGothic.ttf
  4

1001
ACAD
1000
MS PGothic
1071
    32818
  0
STYLE
  5
10BAA
330
7468
100
AcDbSymbolTableRecord
100
AcDbTextStyleTableRecord
  2
STYLE3
 70
     0
 40
0.0
 41
1.0
 50
0.0
 71
     0
 42
100.0
  3

  4

1001
ACAD
1000
DFPGothic-EB
1071
    32818
  0
STYLE
  5
11A15
330
7468
100
AcDbSymbolTableRecord
100
AcDbTextStyleTableRecord
  2
MSGOTHIC
 70
     0
 40
0.0
 41
1.0
 50
0.0
 71
     0
 42
3.5
  3
msgothi2.ttf
  4

  0
STYLE
  5
13E96
330
7468
100
AcDbSymbolTableRecord
100
AcDbTextStyleTableRecord
  2
MSPゴシック
 70
     0
 40
0.0
 41
1.0
 50
0.0
 71
     0
 42
4.0
  3
MS PGothic.ttf
  4

1001
ACAD
1000
MS PGothic
1071
    32818
  0
ENDTAB
  0
TABLE
  2
VIEW
  5
746B
330
0
100
AcDbSymbolTable
 70
     0
  0
ENDTAB
  0
TABLE
  2
UCS
  5
746C
330
0
100
AcDbSymbolTable
 70
     0
  0
ENDTAB
  0
TABLE
  2
APPID
  5
746E
330
0
100
AcDbSymbolTable
 70
     6
  0
APPID
  5
7476
330
746E
100
AcDbSymbolTableRecord
100
AcDbRegAppTableRecord
  2
ACAD
 70
     0
  0
APPID
  5
DEA9
330
746E
100
AcDbSymbolTableRecord
100
AcDbRegAppTableRecord
  2
CONTENTBLOCKICON
 70
     0
  0
APPID
  5
DEAA
330
746E
100
AcDbSymbolTableRecord
100
AcDbRegAppTableRecord
  2
CONTENTBLOCKDESCRIPTION
 70
     0
  0
APPID
  5
E71D
330
746E
100
AcDbSymbolTableRecord
100
AcDbRegAppTableRecord
  2
CONTENTTABDATA
 70
     0
  0
APPID
  5
E71E
330
746E
100
AcDbSymbolTableRecord
100
AcDbRegAppTableRecord
  2
CONTENTCURRENTTAB
 70
     0
  0
APPID
  5
F3BA
330
746E
100
AcDbSymbolTableRecord
100
AcDbRegAppTableRecord
  2
DRAWINGVARIABLESXDATA
 70
     0
  0
ENDTAB
  0
TABLE
  2
DIMSTYLE
  5
746F
330
0
100
AcDbSymbolTable
 70
     6
100
AcDbDimStyleTable
 71
     1
340
F71F
  0
DIMSTYLE
105
7484
330
746F
100
AcDbSymbolTableRecord
100
AcDbDimStyleTableRecord
  2
JIS
 70
     0
 41
2.5
 42
1.0
 43
7.0
 44
1.0
 73
     0
 74
     0
 77
     1
 78
     8
140
2.5
141
0.0
143
0.0394
147
0.0
172
     1
174
     1
175
     1
340
7475
  0
DIMSTYLE
105
F236
330
746F
100
AcDbSymbolTableRecord
100
AcDbDimStyleTableRecord
  2
INABA_S40
 70
     0
 40
40.0
 41
2.5
 42
0.5
 43
7.0
 44
1.5
 73
     0
 74
     0
 77
     3
 78
     8
140
3.0
141
0.0
143
0.0394
147
1.0
172
     1
173
     1
174
     1
175
     1
178
     7
289
     0
340
7475
341
DEAC
343
DEAC
344
DEAC
  0
DIMSTYLE
105
F71F
102
{ACAD_REACTORS
330
20DE1
330
20DFB
330
22741
330
2275B
330
22A81
330
22A76
330
22A98
330
24CAE
330
24CAD
330
24C84
330
24C83
330
24C82
330
24C29
330
24C05
330
24C04
330
24C03
330
24C02
330
24C00
330
24BB6
330
24BB5
330
24BB4
330
24BFE
330
24BC1
330
24BBD
330
24BBC
330
24BC2
330
24BBB
330
25B35
330
25B95
330
25B98
330
25B9F
330
25BA7
330
25BA8
102
}
330
746F
100
AcDbSymbolTableRecord
100
AcDbDimStyleTableRecord
  2
INABA_S40G
 70
     0
 40
40.0
 41
2.5
 42
0.5
 43
7.0
 44
1.5
 73
     0
 74
     0
 77
     3
 78
     8
140
3.0
141
0.0
143
0.0394
147
1.0
172
     1
173
     1
174
     1
178
     7
271
     1
340
F706
341
F770
343
F770
344
F770
  0
DIMSTYLE
105
142E3
330
746F
100
AcDbSymbolTableRecord
100
AcDbDimStyleTableRecord
  2
INABA_S1
 70
     0
 40
0.0
 41
2.5
 42
0.5
 43
7.0
 44
1.5
 73
     0
 74
     0
 77
     3
 78
     8
140
3.0
141
0.0
143
0.0394
146
0.5
147
0.5
172
     1
173
     1
176
   256
177
   256
178
     7
271
     2
272
     2
284
     8
288
     1
340
7475
341
DEAC
343
DEAC
344
DEAC
  0
DIMSTYLE
105
14463
330
746F
100
AcDbSymbolTableRecord
100
AcDbDimStyleTableRecord
  2
INABA_S30G
 70
     0
 40
30.0
 41
2.5
 42
0.5
 43
7.0
 44
1.5
 73
     0
 74
     0
 77
     3
 78
     8
140
3.0
141
0.0
143
0.0394
147
1.0
172
     1
173
     1
174
     1
175
     1
178
     7
271
     1
340
F706
341
F770
343
F770
344
F770
  0
DIMSTYLE
105
1758E
330
746F
100
AcDbSymbolTableRecord
100
AcDbDimStyleTableRecord
  2
INABA_S50G
 70
     0
 41
125.0
 42
25.0
 43
7.0
 44
75.0
 73
     0
 74
     0
 77
     3
 78
     8
140
150.0
141
0.0
143
0.0394
147
25.0
172
     1
173
     1
174
     1
175
     1
178
     7
271
     1
340
F706
341
F770
343
F770
344
F770
  0
ENDTAB
  0
TABLE
  2
BLOCK_RECORD
  5
7466
330
0
100
AcDbSymbolTable
 70
    74
  0
BLOCK_RECORD
  5
747D
330
7466
100
AcDbSymbolTableRecord
100
AcDbBlockTableRecord
  2
*MODEL_SPACE
340
173D5
  0
BLOCK_RECORD
  5
747A
330
7466
100
AcDbSymbolTableRecord
100
AcDbBlockTableRecord
  2
*PAPER_SPACE
340
173D6
  0
BLOCK_RECORD
  5
DEAC
330
7466
100
AcDbSymbolTableRecord
100
AcDbBlockTableRecord
  2
_OPEN
340
0
  0
BLOCK_RECORD
  5
F770
330
7466
100
AcDbSymbolTableRecord
100
AcDbBlockTableRecord
  2
_DOTSMALL
340
0
102
{BLKREFS
331
18C65
331
18C66
331
18C59
331
18C5A
331
18C4D
331
18C4E
331
18C41
331
18C42
331
18C35
331
18C36
331
18C29
331
18C2A
331
18C1D
331
18C1E
331
18C0F
331
18C10
331
18C03
331
18C04
331
18BF5
331
18BF6
331
18BE7
331
18BE8
331
18BD9
331
18BDA
331
18BCD
331
18BCE
331
21316
331
21317
331
21321
331
21322
331
2132A
331
2132B
331
25407
331
25408
331
25411
331
25412
331
2541A
331
2541B
331
25423
331
25424
331
2542C
331
2542D
331
25435
331
25436
331
2543F
331
25440
331
25448
331
25449
331
25451
331
25452
331
2545A
331
2545B
331
25464
331
25465
331
2546E
331
2546F
331
25477
331
25478
331
25493
331
25494
331
2549D
331
2549E
331
254A6
331
254A7
331
254AF
331
254B0
331
254B8
331
254B9
331
254CC
331
254CD
331
254E1
331
254E2
331
254EC
331
254ED
331
254F7
331
254F8
331
25502
331
25503
331
25532
331
25533
331
2553B
331
2553C
331
25576
331
25577
331
25580
331
25581
331
255BA
331
255BB
331
25603
331
25604
331
255F7
331
255F8
331
255EB
331
255EC
331
255DF
331
255E0
331
255D3
331
255D4
331
255C5
331
255C6
331
258C5
331
258C6
331
258CE
331
258CF
331
258D7
331
258D8
331
258E0
331
258E1
331
258EB
331
258EC
331
258F4
331
258F5
331
2593D
331
2593E
331
25931
331
25932
331
25925
331
25926
331
25919
331
2591A
331
2590D
331
2590E
331
258FF
331
25900
331
25BFF
331
25C00
331
25C08
331
25C09
331
25C11
331
25C12
331
25C1A
331
25C1B
331
25C25
331
25C26
331
25C2E
331
25C2F
102
}
  0
BLOCK_RECORD
  5
164B4
330
7466
100
AcDbSymbolTableRecord
100
AcDbBlockTableRecord
  2
_DOT
340
0
102
{BLKREFS
331
18C73
331
18C74
102
}
  0
BLOCK_RECORD
  5
18BC8
330
7466
100
AcDbSymbolTableRecord
100
AcDbBlockTableRecord
  2
*D3
340
0
  0
BLOCK_RECORD
  5
18BD4
330
7466
100
AcDbSymbolTableRecord
100
AcDbBlockTableRecord
  2
*D4
340
0
  0
BLOCK_RECORD
  5
18BE0
330
7466
100
AcDbSymbolTableRecord
100
AcDbBlockTableRecord
  2
*D5
340
0
  0
BLOCK_RECORD
  5
18BEE
330
7466
100
AcDbSymbolTableRecord
100
AcDbBlockTableRecord
  2
*D6
340
0
  0
BLOCK_RECORD
  5
18BFC
330
7466
100
AcDbSymbolTableRecord
100
AcDbBlockTableRecord
  2
*D7
340
0
  0
BLOCK_RECORD
  5
18C0A
330
7466
100
AcDbSymbolTableRecord
100
AcDbBlockTableRecord
  2
*D8
340
0
  0
BLOCK_RECORD
  5
18C16
330
7466
100
AcDbSymbolTableRecord
100
AcDbBlockTableRecord
  2
*D9
340
0
  0
BLOCK_RECORD
  5
18C24
330
7466
100
AcDbSymbolTableRecord
100
AcDbBlockTableRecord
  2
*D10
340
0
  0
BLOCK_RECORD
  5
18C30
330
7466
100
AcDbSymbolTableRecord
100
AcDbBlockTableRecord
  2
*D11
340
0
  0
BLOCK_RECORD
  5
18C3C
330
7466
100
AcDbSymbolTableRecord
100
AcDbBlockTableRecord
  2
*D12
340
0
  0
BLOCK_RECORD
  5
18C48
330
7466
100
AcDbSymbolTableRecord
100
AcDbBlockTableRecord
  2
*D13
340
0
  0
BLOCK_RECORD
  5
18C54
330
7466
100
AcDbSymbolTableRecord
100
AcDbBlockTableRecord
  2
*D14
340
0
  0
BLOCK_RECORD
  5
18C60
330
7466
100
AcDbSymbolTableRecord
100
AcDbBlockTableRecord
  2
*D15
340
0
  0
BLOCK_RECORD
  5
18C6C
330
7466
100
AcDbSymbolTableRecord
100
AcDbBlockTableRecord
  2
*D16
340
0
  0
BLOCK_RECORD
  5
18C7A
330
7466
100
AcDbSymbolTableRecord
100
AcDbBlockTableRecord
  2
A$C3B1A506B
340
0
  0
BLOCK_RECORD
  5
1C4CA
330
7466
100
AcDbSymbolTableRecord
100
AcDbBlockTableRecord
  2
_NONE
340
0
  0
BLOCK_RECORD
  5
20DE2
330
7466
100
AcDbSymbolTableRecord
100
AcDbBlockTableRecord
  2
*D19
340
0
  0
BLOCK_RECORD
  5
20DFC
330
7466
100
AcDbSymbolTableRecord
100
AcDbBlockTableRecord
  2
*D20
340
0
  0
BLOCK_RECORD
  5
22742
330
7466
100
AcDbSymbolTableRecord
100
AcDbBlockTableRecord
  2
*D25
340
0
  0
BLOCK_RECORD
  5
2275C
330
7466
100
AcDbSymbolTableRecord
100
AcDbBlockTableRecord
  2
*D26
340
0
  0
BLOCK_RECORD
  5
22B5A
330
7466
100
AcDbSymbolTableRecord
100
AcDbBlockTableRecord
  2
*D27
340
0
  0
BLOCK_RECORD
  5
22B74
330
7466
100
AcDbSymbolTableRecord
100
AcDbBlockTableRecord
  2
*D28
340
0
  0
BLOCK_RECORD
  5
22B9A
330
7466
100
AcDbSymbolTableRecord
100
AcDbBlockTableRecord
  2
*D29
340
0
  0
BLOCK_RECORD
  5
24CC7
330
7466
100
AcDbSymbolTableRecord
100
AcDbBlockTableRecord
  2
*D30
340
0
  0
BLOCK_RECORD
  5
24CD2
330
7466
100
AcDbSymbolTableRecord
100
AcDbBlockTableRecord
  2
*D31
340
0
  0
BLOCK_RECORD
  5
24CDE
330
7466
100
AcDbSymbolTableRecord
100
AcDbBlockTableRecord
  2
*D32
340
0
  0
BLOCK_RECORD
  5
24CEA
330
7466
100
AcDbSymbolTableRecord
100
AcDbBlockTableRecord
  2
*D33
340
0
  0
BLOCK_RECORD
  5
24CF7
330
7466
100
AcDbSymbolTableRecord
100
AcDbBlockTableRecord
  2
*D34
340
0
  0
BLOCK_RECORD
  5
24D03
330
7466
100
AcDbSymbolTableRecord
100
AcDbBlockTableRecord
  2
*D35
340
0
  0
BLOCK_RECORD
  5
24D0F
330
7466
100
AcDbSymbolTableRecord
100
AcDbBlockTableRecord
  2
*D36
340
0
  0
BLOCK_RECORD
  5
24D1C
330
7466
100
AcDbSymbolTableRecord
100
AcDbBlockTableRecord
  2
*D37
340
0
  0
BLOCK_RECORD
  5
24D41
330
7466
100
AcDbSymbolTableRecord
100
AcDbBlockTableRecord
  2
*D38
340
0
  0
BLOCK_RECORD
  5
24D5B
330
7466
100
AcDbSymbolTableRecord
100
AcDbBlockTableRecord
  2
*D39
340
0
  0
BLOCK_RECORD
  5
24D72
330
7466
100
AcDbSymbolTableRecord
100
AcDbBlockTableRecord
  2
*D40
340
0
  0
BLOCK_RECORD
  5
24D7D
330
7466
100
AcDbSymbolTableRecord
100
AcDbBlockTableRecord
  2
*D41
340
0
  0
BLOCK_RECORD
  5
24D88
330
7466
100
AcDbSymbolTableRecord
100
AcDbBlockTableRecord
  2
*D42
340
0
  0
BLOCK_RECORD
  5
24D94
330
7466
100
AcDbSymbolTableRecord
100
AcDbBlockTableRecord
  2
*D43
340
0
  0
BLOCK_RECORD
  5
24DAE
330
7466
100
AcDbSymbolTableRecord
100
AcDbBlockTableRecord
  2
*D44
340
0
  0
BLOCK_RECORD
  5
24DBA
330
7466
100
AcDbSymbolTableRecord
100
AcDbBlockTableRecord
  2
*D45
340
0
  0
BLOCK_RECORD
  5
24DC6
330
7466
100
AcDbSymbolTableRecord
100
AcDbBlockTableRecord
  2
*D46
340
0
  0
BLOCK_RECORD
  5
24DD2
330
7466
100
AcDbSymbolTableRecord
100
AcDbBlockTableRecord
  2
*D47
340
0
  0
BLOCK_RECORD
  5
24DEB
330
7466
100
AcDbSymbolTableRecord
100
AcDbBlockTableRecord
  2
*D48
340
0
  0
BLOCK_RECORD
  5
24DF8
330
7466
100
AcDbSymbolTableRecord
100
AcDbBlockTableRecord
  2
*D49
340
0
  0
BLOCK_RECORD
  5
25BB2
330
7466
100
AcDbSymbolTableRecord
100
AcDbBlockTableRecord
  2
*D68
340
0
  0
BLOCK_RECORD
  5
25BBE
330
7466
100
AcDbSymbolTableRecord
100
AcDbBlockTableRecord
  2
*D69
340
0
  0
BLOCK_RECORD
  5
25BCA
330
7466
100
AcDbSymbolTableRecord
100
AcDbBlockTableRecord
  2
*D70
340
0
  0
BLOCK_RECORD
  5
25BD6
330
7466
100
AcDbSymbolTableRecord
100
AcDbBlockTableRecord
  2
*D71
340
0
  0
BLOCK_RECORD
  5
25BE2
330
7466
100
AcDbSymbolTableRecord
100
AcDbBlockTableRecord
  2
*D72
340
0
  0
BLOCK_RECORD
  5
25BF0
330
7466
100
AcDbSymbolTableRecord
100
AcDbBlockTableRecord
  2
*D73
340
0
  0
ENDTAB
  0
ENDSEC
  0
SECTION
  2
BLOCKS
  0
BLOCK
  5
7489
330
747D
100
AcDbEntity
  8
0
100
AcDbBlockBegin
  2
*MODEL_SPACE
 70
     0
 10
0.0
 20
0.0
 30
0.0
  3
*MODEL_SPACE
  1

  0
ENDBLK
  5
748A
330
747D
100
AcDbEntity
  8
0
100
AcDbBlockEnd
  0
BLOCK
  5
7487
330
747A
100
AcDbEntity
 67
     1
  8
0
100
AcDbBlockBegin
  2
*PAPER_SPACE
 70
     0
 10
0.0
 20
0.0
 30
0.0
  3
*PAPER_SPACE
  1

  0
ENDBLK
  5
7488
330
747A
100
AcDbEntity
 67
     1
  8
0
100
AcDbBlockEnd
  0
BLOCK
  5
DEAD
330
DEAC
100
AcDbEntity
  8
0
100
AcDbBlockBegin
  2
_OPEN
 70
     0
 10
0.0
 20
0.0
 30
0.0
  3
_OPEN
  1

  0
LINE
  5
DEAE
330
DEAC
100
AcDbEntity
  8
0
  6
ByBlock
 62
     0
100
AcDbLine
 10
-1.0
 20
0.1666666666666666
 30
0.0
 11
0.0
 21
0.0
 31
0.0
  0
LINE
  5
DEAF
330
DEAC
100
AcDbEntity
  8
0
  6
ByBlock
 62
     0
100
AcDbLine
 10
0.0
 20
0.0
 30
0.0
 11
-1.0
 21
-0.1666666666666666
 31
0.0
  0
LINE
  5
DEB0
330
DEAC
100
AcDbEntity
  8
0
  6
ByBlock
 62
     0
100
AcDbLine
 10
0.0
 20
0.0
 30
0.0
 11
-1.0
 21
0.0
 31
0.0
  0
ENDBLK
  5
DEB1
330
DEAC
100
AcDbEntity
  8
0
100
AcDbBlockEnd
  0
BLOCK
  5
F771
330
F770
100
AcDbEntity
  8
0
 48
50.0
100
AcDbBlockBegin
  2
_DOTSMALL
 70
     0
 10
0.0
 20
0.0
 30
0.0
  3
_DOTSMALL
  1

  0
LWPOLYLINE
  5
F772
330
F770
100
AcDbEntity
  8
0
  6
ByBlock
 62
     0
 48
50.0
100
AcDbPolyline
 90
        2
 70
     1
 43
0.5
 10
-0.0625
 20
0.0
 42
1.0
 10
0.0625
 20
0.0
 42
1.0
  0
ENDBLK
  5
F776
330
F770
100
AcDbEntity
  8
0
 48
50.0
100
AcDbBlockEnd
  0
BLOCK
  5
164BA
330
164B4
100
AcDbEntity
  8
0
 48
50.0
100
AcDbBlockBegin
  2
_DOT
 70
     0
 10
0.0
 20
0.0
 30
0.0
  3
_DOT
  1

  0
LWPOLYLINE
  5
164B5
330
164B4
100
AcDbEntity
  8
0
  6
ByBlock
 62
     0
 48
50.0
100
AcDbPolyline
 90
        2
 70
     1
 43
0.5
 10
-0.25
 20
0.0
 42
1.0
 10
0.25
 20
0.0
 42
1.0
  0
LINE
  5
164B9
330
164B4
100
AcDbEntity
  8
0
  6
ByBlock
 62
     0
 48
50.0
100
AcDbLine
 10
-0.5
 20
0.0
 30
0.0
 11
-1.0
 21
0.0
 31
0.0
  0
ENDBLK
  5
164BB
330
164B4
100
AcDbEntity
  8
0
 48
50.0
100
AcDbBlockEnd
  0
BLOCK
  5
18BC9
330
18BC8
100
AcDbEntity
  8
0
 48
50.0
100
AcDbBlockBegin
  2
*D3
 70
     1
 10
0.0
 20
0.0
 30
0.0
  3
*D3
  1

  0
LINE
  5
18BCA
330
18BC8
100
AcDbEntity
  8
寸法
 62
     0
 48
50.0
370
    -2
100
AcDbLine
 10
7649.896575106999
 20
9636.123139034717
 30
0.0
 11
8702.429862581047
 21
9636.123139034717
 31
0.0
  0
LINE
  5
18BCB
330
18BC8
100
AcDbEntity
  8
寸法
 62
     0
 48
50.0
370
    -2
100
AcDbLine
 10
7649.896575106973
 20
7846.123139034709
 30
0.0
 11
8702.429862581047
 21
7846.123139034709
 31
0.0
  0
LINE
  5
18BCC
330
18BC8
100
AcDbEntity
  8
寸法
 62
     0
 48
50.0
370
    -2
100
AcDbLine
 10
8642.429862581046
 20
9636.123139034717
 30
0.0
 11
8642.429862581046
 21
7846.123139034709
 31
0.0
  0
INSERT
  5
18BCD
330
18BC8
100
AcDbEntity
  8
寸法
 62
     0
 48
50.0
370
    -2
100
AcDbBlockReference
  2
_DOTSMALL
 10
8642.429862581046
 20
9636.123139034717
 30
0.0
 41
100.0
 42
100.0
 43
100.0
 50
90.0
  0
INSERT
  5
18BCE
330
18BC8
100
AcDbEntity
  8
寸法
 62
     0
 48
50.0
370
    -2
100
AcDbBlockReference
  2
_DOTSMALL
 10
8642.429862581046
 20
7846.123139034709
 30
0.0
 41
100.0
 42
100.0
 43
100.0
 50
270.0
  0
MTEXT
  5
18BCF
330
18BC8
100
AcDbEntity
  8
寸法
 62
     7
 48
50.0
100
AcDbMText
 10
8542.429862581045
 20
8741.123139034712
 30
0.0
 40
120.0
 41
0.0
 71
     5
 72
     1
  1
\A1;1790
  7
STYLE1
 11
0.0000000000000001
 21
1.0
 31
0.0
 73
     1
 44
1.0
1001
ACAD
1000
MTEXTBEGIN
1070
    73
1070
     1
1070
    44
1040
1.0
1070
    74
1070
     0
1000
MTEXTEND
  0
POINT
  5
18BD0
330
18BC8
100
AcDbEntity
  8
DEFPOINTS
 62
     0
 48
50.0
100
AcDbPoint
 10
7629.896575106998
 20
9636.123139034717
 30
0.0
  0
POINT
  5
18BD1
330
18BC8
100
AcDbEntity
  8
DEFPOINTS
 62
     0
 48
50.0
100
AcDbPoint
 10
7629.896575106974
 20
7846.123139034709
 30
0.0
  0
POINT
  5
18BD2
330
18BC8
100
AcDbEntity
  8
DEFPOINTS
 62
     0
 48
50.0
100
AcDbPoint
 10
8642.429862581046
 20
7846.123139034709
 30
0.0
  0
ENDBLK
  5
18BD3
330
18BC8
100
AcDbEntity
  8
0
 48
50.0
100
AcDbBlockEnd
  0
BLOCK
  5
18BD5
330
18BD4
100
AcDbEntity
  8
0
 48
50.0
100
AcDbBlockBegin
  2
*D4
 70
     1
 10
0.0
 20
0.0
 30
0.0
  3
*D4
  1

  0
LINE
  5
18BD6
330
18BD4
100
AcDbEntity
  8
寸法
 62
     0
 48
50.0
370
    -2
100
AcDbLine
 10
4214.896575106998
 20
9656.123139034622
 30
0.0
 11
4214.896575106998
 21
10211.93135865972
 31
0.0
  0
LINE
  5
18BD7
330
18BD4
100
AcDbEntity
  8
寸法
 62
     0
 48
50.0
370
    -2
100
AcDbLine
 10
7574.896575106999
 20
9656.123139034718
 30
0.0
 11
7574.896575106999
 21
10211.93135865972
 31
0.0
  0
LINE
  5
18BD8
330
18BD4
100
AcDbEntity
  8
寸法
 62
     0
 48
50.0
370
    -2
100
AcDbLine
 10
4214.896575106998
 20
10151.93135865972
 30
0.0
 11
7574.896575106999
 21
10151.93135865972
 31
0.0
  0
INSERT
  5
18BD9
330
18BD4
100
AcDbEntity
  8
寸法
 62
     0
 48
50.0
370
    -2
100
AcDbBlockReference
  2
_DOTSMALL
 10
4214.896575106998
 20
10151.93135865972
 30
0.0
 41
100.0
 42
100.0
 43
100.0
 50
180.0
  0
INSERT
  5
18BDA
330
18BD4
100
AcDbEntity
  8
寸法
 62
     0
 48
50.0
370
    -2
100
AcDbBlockReference
  2
_DOTSMALL
 10
7574.896575106999
 20
10151.93135865972
 30
0.0
 41
100.0
 42
100.0
 43
100.0
  0
MTEXT
  5
18BDB
330
18BD4
100
AcDbEntity
  8
寸法
 62
     7
 48
50.0
100
AcDbMText
 10
5894.896575106997
 20
10251.94316968334
 30
0.0
 40
120.0
 41
0.0
 71
     5
 72
     1
  1
\A1;8X420=3360
  7
STYLE1
 73
     1
 44
1.0
1001
ACAD
1000
MTEXTBEGIN
1070
    73
1070
     1
1070
    44
1040
1.0
1070
    74
1070
     0
1000
MTEXTEND
  0
POINT
  5
18BDC
330
18BD4
100
AcDbEntity
  8
DEFPOINTS
 62
     0
 48
50.0
100
AcDbPoint
 10
4214.896575106998
 20
9636.123139034623
 30
0.0
  0
POINT
  5
18BDD
330
18BD4
100
AcDbEntity
  8
DEFPOINTS
 62
     0
 48
50.0
100
AcDbPoint
 10
7574.896575106999
 20
9636.123139034717
 30
0.0
  0
POINT
  5
18BDE
330
18BD4
100
AcDbEntity
  8
DEFPOINTS
 62
     0
 48
50.0
100
AcDbPoint
 10
7574.896575106999
 20
10151.93135865972
 30
0.0
  0
ENDBLK
  5
18BDF
330
18BD4
100
AcDbEntity
  8
0
 48
50.0
100
AcDbBlockEnd
  0
BLOCK
  5
18BE1
330
18BE0
100
AcDbEntity
  8
0
 48
50.0
100
AcDbBlockBegin
  2
*D5
 70
     1
 10
0.0
 20
0.0
 30
0.0
  3
*D5
  1

  0
LINE
  5
18BE2
330
18BE0
100
AcDbEntity
  8
寸法
 62
     0
 48
50.0
370
    -2
100
AcDbLine
 10
7574.896575106999
 20
9656.123139034718
 30
0.0
 11
7574.896575106999
 21
10211.9313586597
 31
0.0
  0
LINE
  5
18BE3
330
18BE0
100
AcDbEntity
  8
寸法
 62
     0
 48
50.0
370
    -2
100
AcDbLine
 10
7629.896575106998
 20
9656.123139034718
 30
0.0
 11
7629.896575106998
 21
10211.9313586597
 31
0.0
  0
LINE
  5
18BE4
330
18BE0
100
AcDbEntity
  8
寸法
 62
     0
 48
50.0
370
    -2
100
AcDbLine
 10
7574.896575106999
 20
10151.9313586597
 30
0.0
 11
7474.896575106999
 21
10151.9313586597
 31
0.0
  0
LINE
  5
18BE5
330
18BE0
100
AcDbEntity
  8
寸法
 62
     0
 48
50.0
370
    -2
100
AcDbLine
 10
7629.896575106998
 20
10151.9313586597
 30
0.0
 11
8046.867137855477
 21
10151.9313586597
 31
0.0
  0
LINE
  5
18BE6
330
18BE0
100
AcDbEntity
  8
寸法
 62
     0
 48
50.0
370
    -2
100
AcDbLine
 10
7574.896575106999
 20
10151.9313586597
 30
0.0
 11
7629.896575106998
 21
10151.9313586597
 31
0.0
  0
INSERT
  5
18BE7
330
18BE0
100
AcDbEntity
  8
寸法
 62
     0
 48
50.0
370
    -2
100
AcDbBlockReference
  2
_DOTSMALL
 10
7574.896575106999
 20
10151.9313586597
 30
0.0
 41
100.0
 42
100.0
 43
100.0
  0
INSERT
  5
18BE8
330
18BE0
100
AcDbEntity
  8
寸法
 62
     0
 48
50.0
370
    -2
100
AcDbBlockReference
  2
_DOTSMALL
 10
7629.896575106998
 20
10151.9313586597
 30
0.0
 41
100.0
 42
100.0
 43
100.0
 50
180.0
  0
MTEXT
  5
18BE9
330
18BE0
100
AcDbEntity
  8
寸法
 62
     7
 48
50.0
100
AcDbMText
 10
7938.381856481237
 20
10251.9313586597
 30
0.0
 40
120.0
 41
0.0
 71
     5
 72
     1
  1
\A1;55
  7
STYLE1
 73
     1
 44
1.0
1001
ACAD
1000
MTEXTBEGIN
1070
    73
1070
     1
1070
    44
1040
1.0
1070
    74
1070
     0
1000
MTEXTEND
  0
POINT
  5
18BEA
330
18BE0
100
AcDbEntity
  8
DEFPOINTS
 62
     0
 48
50.0
100
AcDbPoint
 10
7574.896575106999
 20
9636.123139034717
 30
0.0
  0
POINT
  5
18BEB
330
18BE0
100
AcDbEntity
  8
DEFPOINTS
 62
     0
 48
50.0
100
AcDbPoint
 10
7629.896575106998
 20
9636.123139034717
 30
0.0
  0
POINT
  5
18BEC
330
18BE0
100
AcDbEntity
  8
DEFPOINTS
 62
     0
 48
50.0
100
AcDbPoint
 10
7629.896575106998
 20
10151.9313586597
 30
0.0
  0
ENDBLK
  5
18BED
330
18BE0
100
AcDbEntity
  8
0
 48
50.0
100
AcDbBlockEnd
  0
BLOCK
  5
18BEF
330
18BEE
100
AcDbEntity
  8
0
 48
50.0
100
AcDbBlockBegin
  2
*D6
 70
     1
 10
0.0
 20
0.0
 30
0.0
  3
*D6
  1

  0
LINE
  5
18BF0
330
18BEE
100
AcDbEntity
  8
寸法
 62
     0
 48
50.0
370
    -2
100
AcDbLine
 10
7649.896575106999
 20
9636.123139034717
 30
0.0
 11
8337.32292084141
 21
9636.123139034717
 31
0.0
  0
LINE
  5
18BF1
330
18BEE
100
AcDbEntity
  8
寸法
 62
     0
 48
50.0
370
    -2
100
AcDbLine
 10
7649.896575106999
 20
9581.123139034721
 30
0.0
 11
8337.32292084141
 21
9581.123139034721
 31
0.0
  0
LINE
  5
18BF2
330
18BEE
100
AcDbEntity
  8
寸法
 62
     0
 48
50.0
370
    -2
100
AcDbLine
 10
8277.322920841411
 20
9581.123139034721
 30
0.0
 11
8277.322920841411
 21
9481.123139034719
 31
0.0
  0
LINE
  5
18BF3
330
18BEE
100
AcDbEntity
  8
寸法
 62
     0
 48
50.0
370
    -2
100
AcDbLine
 10
8277.322920841411
 20
9636.123139034717
 30
0.0
 11
8277.322920841411
 21
10053.09370178319
 31
0.0
  0
LINE
  5
18BF4
330
18BEE
100
AcDbEntity
  8
寸法
 62
     0
 48
50.0
370
    -2
100
AcDbLine
 10
8277.322920841411
 20
9581.123139034721
 30
0.0
 11
8277.322920841411
 21
9636.123139034717
 31
0.0
  0
INSERT
  5
18BF5
330
18BEE
100
AcDbEntity
  8
寸法
 62
     0
 48
50.0
370
    -2
100
AcDbBlockReference
  2
_DOTSMALL
 10
8277.322920841411
 20
9581.123139034721
 30
0.0
 41
100.0
 42
100.0
 43
100.0
 50
90.0
  0
INSERT
  5
18BF6
330
18BEE
100
AcDbEntity
  8
寸法
 62
     0
 48
50.0
370
    -2
100
AcDbBlockReference
  2
_DOTSMALL
 10
8277.322920841411
 20
9636.123139034717
 30
0.0
 41
100.0
 42
100.0
 43
100.0
 50
270.0
  0
MTEXT
  5
18BF7
330
18BEE
100
AcDbEntity
  8
寸法
 62
     7
 48
50.0
100
AcDbMText
 10
8177.32292084141
 20
9944.608420408957
 30
0.0
 40
120.0
 41
0.0
 71
     5
 72
     1
  1
\A1;55
  7
STYLE1
 11
0.0000000000000001
 21
1.0
 31
0.0
 73
     1
 44
1.0
1001
ACAD
1000
MTEXTBEGIN
1070
    73
1070
     1
1070
    44
1040
1.0
1070
    74
1070
     0
1000
MTEXTEND
  0
POINT
  5
18BF8
330
18BEE
100
AcDbEntity
  8
DEFPOINTS
 62
     0
 48
50.0
100
AcDbPoint
 10
7629.896575106998
 20
9636.123139034717
 30
0.0
  0
POINT
  5
18BF9
330
18BEE
100
AcDbEntity
  8
DEFPOINTS
 62
     0
 48
50.0
100
AcDbPoint
 10
7629.896575106998
 20
9581.123139034721
 30
0.0
  0
POINT
  5
18BFA
330
18BEE
100
AcDbEntity
  8
DEFPOINTS
 62
     0
 48
50.0
100
AcDbPoint
 10
8277.322920841411
 20
9581.123139034721
 30
0.0
  0
ENDBLK
  5
18BFB
330
18BEE
100
AcDbEntity
  8
0
 48
50.0
100
AcDbBlockEnd
  0
BLOCK
  5
18BFD
330
18BFC
100
AcDbEntity
  8
0
 48
50.0
100
AcDbBlockBegin
  2
*D7
 70
     1
 10
0.0
 20
0.0
 30
0.0
  3
*D7
  1

  0
LINE
  5
18BFE
330
18BFC
100
AcDbEntity
  8
寸法
 62
     0
 48
50.0
370
    -2
100
AcDbLine
 10
4159.896575106963
 20
9656.123139034622
 30
0.0
 11
4159.896575106963
 21
10211.9313586596
 31
0.0
  0
LINE
  5
18BFF
330
18BFC
100
AcDbEntity
  8
寸法
 62
     0
 48
50.0
370
    -2
100
AcDbLine
 10
4214.896575106998
 20
9656.123139034622
 30
0.0
 11
4214.896575106998
 21
10211.9313586596
 31
0.0
  0
LINE
  5
18C00
330
18BFC
100
AcDbEntity
  8
寸法
 62
     0
 48
50.0
370
    -2
100
AcDbLine
 10
4214.896575106998
 20
10151.9313586596
 30
0.0
 11
4314.896575106998
 21
10151.9313586596
 31
0.0
  0
LINE
  5
18C01
330
18BFC
100
AcDbEntity
  8
寸法
 62
     0
 48
50.0
370
    -2
100
AcDbLine
 10
4159.896575106963
 20
10151.9313586596
 30
0.0
 11
3742.926012358486
 21
10151.9313586596
 31
0.0
  0
LINE
  5
18C02
330
18BFC
100
AcDbEntity
  8
寸法
 62
     0
 48
50.0
370
    -2
100
AcDbLine
 10
4214.896575106998
 20
10151.9313586596
 30
0.0
 11
4159.896575106963
 21
10151.9313586596
 31
0.0
  0
INSERT
  5
18C03
330
18BFC
100
AcDbEntity
  8
寸法
 62
     0
 48
50.0
370
    -2
100
AcDbBlockReference
  2
_DOTSMALL
 10
4214.896575106998
 20
10151.9313586596
 30
0.0
 41
100.0
 42
100.0
 43
100.0
 50
180.0
  0
INSERT
  5
18C04
330
18BFC
100
AcDbEntity
  8
寸法
 62
     0
 48
50.0
370
    -2
100
AcDbBlockReference
  2
_DOTSMALL
 10
4159.896575106963
 20
10151.9313586596
 30
0.0
 41
100.0
 42
100.0
 43
100.0
  0
MTEXT
  5
18C05
330
18BFC
100
AcDbEntity
  8
寸法
 62
     7
 48
50.0
100
AcDbMText
 10
3851.411293732725
 20
10251.9313586596
 30
0.0
 40
120.0
 41
0.0
 71
     5
 72
     1
  1
\A1;55
  7
STYLE1
 73
     1
 44
1.0
1001
ACAD
1000
MTEXTBEGIN
1070
    73
1070
     1
1070
    44
1040
1.0
1070
    74
1070
     0
1000
MTEXTEND
  0
POINT
  5
18C06
330
18BFC
100
AcDbEntity
  8
DEFPOINTS
 62
     0
 48
50.0
100
AcDbPoint
 10
4159.896575106963
 20
9636.123139034623
 30
0.0
  0
POINT
  5
18C07
330
18BFC
100
AcDbEntity
  8
DEFPOINTS
 62
     0
 48
50.0
100
AcDbPoint
 10
4214.896575106998
 20
9636.123139034623
 30
0.0
  0
POINT
  5
18C08
330
18BFC
100
AcDbEntity
  8
DEFPOINTS
 62
     0
 48
50.0
100
AcDbPoint
 10
4214.896575106998
 20
10151.9313586596
 30
0.0
  0
ENDBLK
  5
18C09
330
18BFC
100
AcDbEntity
  8
0
 48
50.0
100
AcDbBlockEnd
  0
BLOCK
  5
18C0B
330
18C0A
100
AcDbEntity
  8
0
 48
50.0
100
AcDbBlockBegin
  2
*D8
 70
     1
 10
0.0
 20
0.0
 30
0.0
  3
*D8
  1

  0
LINE
  5
18C0C
330
18C0A
100
AcDbEntity
  8
寸法
 62
     0
 48
50.0
370
    -2
100
AcDbLine
 10
4159.896575106992
 20
7826.123139034546
 30
0.0
 11
4159.896575106992
 21
6804.372203245664
 31
0.0
  0
LINE
  5
18C0D
330
18C0A
100
AcDbEntity
  8
寸法
 62
     0
 48
50.0
370
    -2
100
AcDbLine
 10
7629.896575106974
 20
7826.123139034674
 30
0.0
 11
7629.896575106974
 21
6804.372203245664
 31
0.0
  0
LINE
  5
18C0E
330
18C0A
100
AcDbEntity
  8
寸法
 62
     0
 48
50.0
370
    -2
100
AcDbLine
 10
4159.896575106992
 20
6864.372203245665
 30
0.0
 11
7629.896575106974
 21
6864.372203245665
 31
0.0
  0
INSERT
  5
18C0F
330
18C0A
100
AcDbEntity
  8
寸法
 62
     0
 48
50.0
370
    -2
100
AcDbBlockReference
  2
_DOTSMALL
 10
4159.896575106992
 20
6864.372203245665
 30
0.0
 41
100.0
 42
100.0
 43
100.0
 50
180.0
  0
INSERT
  5
18C10
330
18C0A
100
AcDbEntity
  8
寸法
 62
     0
 48
50.0
370
    -2
100
AcDbBlockReference
  2
_DOTSMALL
 10
7629.896575106974
 20
6864.372203245665
 30
0.0
 41
100.0
 42
100.0
 43
100.0
  0
MTEXT
  5
18C11
330
18C0A
100
AcDbEntity
  8
寸法
 62
     7
 48
50.0
100
AcDbMText
 10
5911.12376113973
 20
6964.372203245665
 30
0.0
 40
120.0
 41
0.0
 71
     5
 72
     1
  1
\A1;3470
  7
STYLE1
 73
     1
 44
1.0
1001
ACAD
1000
MTEXTBEGIN
1070
    73
1070
     1
1070
    44
1040
1.0
1070
    74
1070
     0
1000
MTEXTEND
  0
POINT
  5
18C12
330
18C0A
100
AcDbEntity
  8
DEFPOINTS
 62
     0
 48
50.0
100
AcDbPoint
 10
4159.896575106992
 20
7846.123139034546
 30
0.0
  0
POINT
  5
18C13
330
18C0A
100
AcDbEntity
  8
DEFPOINTS
 62
     0
 48
50.0
100
AcDbPoint
 10
7629.896575106974
 20
7846.123139034673
 30
0.0
  0
POINT
  5
18C14
330
18C0A
100
AcDbEntity
  8
DEFPOINTS
 62
     0
 48
50.0
100
AcDbPoint
 10
7629.896575106974
 20
6864.372203245665
 30
0.0
  0
ENDBLK
  5
18C15
330
18C0A
100
AcDbEntity
  8
0
 48
50.0
100
AcDbBlockEnd
  0
BLOCK
  5
18C17
330
18C16
100
AcDbEntity
  8
0
 48
50.0
100
AcDbBlockBegin
  2
*D9
 70
     1
 10
0.0
 20
0.0
 30
0.0
  3
*D9
  1

  0
LINE
  5
18C18
330
18C16
100
AcDbEntity
  8
寸法
 62
     0
 48
50.0
370
    -2
100
AcDbLine
 10
7649.896575106973
 20
7901.123139034706
 30
0.0
 11
8337.322920841385
 21
7901.123139034706
 31
0.0
  0
LINE
  5
18C19
330
18C16
100
AcDbEntity
  8
寸法
 62
     0
 48
50.0
370
    -2
100
AcDbLine
 10
7649.896575106973
 20
7846.123139034709
 30
0.0
 11
8337.322920841385
 21
7846.123139034709
 31
0.0
  0
LINE
  5
18C1A
330
18C16
100
AcDbEntity
  8
寸法
 62
     0
 48
50.0
370
    -2
100
AcDbLine
 10
8277.322920841385
 20
7901.123139034706
 30
0.0
 11
8277.322920841385
 21
8001.123139034707
 31
0.0
  0
LINE
  5
18C1B
330
18C16
100
AcDbEntity
  8
寸法
 62
     0
 48
50.0
370
    -2
100
AcDbLine
 10
8277.322920841385
 20
7846.123139034709
 30
0.0
 11
8277.322920841385
 21
7429.152576286229
 31
0.0
  0
LINE
  5
18C1C
330
18C16
100
AcDbEntity
  8
寸法
 62
     0
 48
50.0
370
    -2
100
AcDbLine
 10
8277.322920841385
 20
7901.123139034706
 30
0.0
 11
8277.322920841385
 21
7846.123139034709
 31
0.0
  0
INSERT
  5
18C1D
330
18C16
100
AcDbEntity
  8
寸法
 62
     0
 48
50.0
370
    -2
100
AcDbBlockReference
  2
_DOTSMALL
 10
8277.322920841385
 20
7901.123139034706
 30
0.0
 41
100.0
 42
100.0
 43
100.0
 50
270.0
  0
INSERT
  5
18C1E
330
18C16
100
AcDbEntity
  8
寸法
 62
     0
 48
50.0
370
    -2
100
AcDbBlockReference
  2
_DOTSMALL
 10
8277.322920841385
 20
7846.123139034709
 30
0.0
 41
100.0
 42
100.0
 43
100.0
 50
90.0
  0
MTEXT
  5
18C1F
330
18C16
100
AcDbEntity
  8
寸法
 62
     7
 48
50.0
100
AcDbMText
 10
8177.322920841383
 20
7537.637857660469
 30
0.0
 40
120.0
 41
0.0
 71
     5
 72
     1
  1
\A1;55
  7
STYLE1
 11
0.0000000000000001
 21
1.0
 31
0.0
 73
     1
 44
1.0
1001
ACAD
1000
MTEXTBEGIN
1070
    73
1070
     1
1070
    44
1040
1.0
1070
    74
1070
     0
1000
MTEXTEND
  0
POINT
  5
18C20
330
18C16
100
AcDbEntity
  8
DEFPOINTS
 62
     0
 48
50.0
100
AcDbPoint
 10
7629.896575106974
 20
7901.123139034706
 30
0.0
  0
POINT
  5
18C21
330
18C16
100
AcDbEntity
  8
DEFPOINTS
 62
     0
 48
50.0
100
AcDbPoint
 10
7629.896575106974
 20
7846.123139034709
 30
0.0
  0
POINT
  5
18C22
330
18C16
100
AcDbEntity
  8
DEFPOINTS
 62
     0
 48
50.0
100
AcDbPoint
 10
8277.322920841385
 20
7846.123139034709
 30
0.0
  0
ENDBLK
  5
18C23
330
18C16
100
AcDbEntity
  8
0
 48
50.0
100
AcDbBlockEnd
  0
BLOCK
  5
18C25
330
18C24
100
AcDbEntity
  8
0
 48
50.0
100
AcDbBlockBegin
  2
*D10
 70
     1
 10
0.0
 20
0.0
 30
0.0
  3
*D10
  1

  0
LINE
  5
18C26
330
18C24
100
AcDbEntity
  8
寸法
 62
     0
 48
50.0
370
    -2
100
AcDbLine
 10
6533.037591258376
 20
9136.123139034728
 30
0.0
 11
6465.083950562664
 21
8882.516699399049
 31
0.0
  0
LINE
  5
18C27
330
18C24
100
AcDbEntity
  8
寸法
 62
     0
 48
50.0
370
    -2
100
AcDbLine
 10
7596.037591258388
 20
9136.123139034721
 30
0.0
 11
7528.083950562677
 21
8882.516699399049
 31
0.0
  0
LINE
  5
18C28
330
18C24
100
AcDbEntity
  8
寸法
 62
     0
 48
50.0
370
    -2
100
AcDbLine
 10
6481.160902108531
 20
8942.51669939905
 30
0.0
 11
7544.160902108544
 21
8942.51669939905
 31
0.0
  0
INSERT
  5
18C29
330
18C24
100
AcDbEntity
  8
寸法
 62
     0
 48
50.0
370
    -2
100
AcDbBlockReference
  2
_DOTSMALL
 10
6481.160902108531
 20
8942.51669939905
 30
0.0
 41
100.0
 42
100.0
 43
100.0
 50
180.0
  0
INSERT
  5
18C2A
330
18C24
100
AcDbEntity
  8
寸法
 62
     0
 48
50.0
370
    -2
100
AcDbBlockReference
  2
_DOTSMALL
 10
7544.160902108544
 20
8942.51669939905
 30
0.0
 41
100.0
 42
100.0
 43
100.0
  0
MTEXT
  5
18C2B
330
18C24
100
AcDbEntity
  8
寸法
 62
     7
 48
50.0
100
AcDbMText
 10
7061.28653022935
 20
9042.516699399049
 30
0.0
 40
120.0
 41
0.0
 71
     5
 72
     1
  1
\A1;1063
  7
STYLE1
 73
     1
 44
1.0
1001
ACAD
1000
MTEXTBEGIN
1070
    73
1070
     1
1070
    44
1040
1.0
1070
    74
1070
     0
1000
MTEXTEND
  0
POINT
  5
18C2C
330
18C24
100
AcDbEntity
  8
DEFPOINTS
 62
     0
 48
50.0
100
AcDbPoint
 10
6538.396575106998
 20
9156.123139034727
 30
0.0
  0
POINT
  5
18C2D
330
18C24
100
AcDbEntity
  8
DEFPOINTS
 62
     0
 48
50.0
100
AcDbPoint
 10
7601.39657510701
 20
9156.12313903472
 30
0.0
  0
POINT
  5
18C2E
330
18C24
100
AcDbEntity
  8
DEFPOINTS
 62
     0
 48
50.0
100
AcDbPoint
 10
7544.160902108544
 20
8942.51669939905
 30
0.0
  0
ENDBLK
  5
18C2F
330
18C24
100
AcDbEntity
  8
0
 48
50.0
100
AcDbBlockEnd
  0
BLOCK
  5
18C31
330
18C30
100
AcDbEntity
  8
0
 48
50.0
100
AcDbBlockBegin
  2
*D11
 70
     1
 10
0.0
 20
0.0
 30
0.0
  3
*D11
  1

  0
LINE
  5
18C32
330
18C30
100
AcDbEntity
  8
寸法
 62
     0
 48
50.0
370
    -2
100
AcDbLine
 10
7621.396575106999
 20
9600.764155186094
 30
0.0
 11
8016.754300969024
 21
9494.828371819961
 31
0.0
  0
LINE
  5
18C33
330
18C30
100
AcDbEntity
  8
寸法
 62
     0
 48
50.0
370
    -2
100
AcDbLine
 10
7621.396575106999
 20
9150.764155186099
 30
0.0
 11
8016.754300969024
 21
9044.828371819964
 31
0.0
  0
LINE
  5
18C34
330
18C30
100
AcDbEntity
  8
寸法
 62
     0
 48
50.0
370
    -2
100
AcDbLine
 10
7956.754300969024
 20
9510.905323365827
 30
0.0
 11
7956.754300969024
 21
9060.90532336583
 31
0.0
  0
INSERT
  5
18C35
330
18C30
100
AcDbEntity
  8
寸法
 62
     0
 48
50.0
370
    -2
100
AcDbBlockReference
  2
_DOTSMALL
 10
7956.754300969024
 20
9510.905323365827
 30
0.0
 41
100.0
 42
100.0
 43
100.0
 50
90.0
  0
INSERT
  5
18C36
330
18C30
100
AcDbEntity
  8
寸法
 62
     0
 48
50.0
370
    -2
100
AcDbBlockReference
  2
_DOTSMALL
 10
7956.754300969024
 20
9060.90532336583
 30
0.0
 41
100.0
 42
100.0
 43
100.0
 50
270.0
  0
MTEXT
  5
18C37
330
18C30
100
AcDbEntity
  8
寸法
 62
     7
 48
50.0
100
AcDbMText
 10
7856.754300969022
 20
9285.905323365829
 30
0.0
 40
120.0
 41
0.0
 71
     5
 72
     1
  1
\A1;450
  7
STYLE1
 11
0.0000000000000001
 21
1.0
 31
0.0
 73
     1
 44
1.0
1001
ACAD
1000
MTEXTBEGIN
1070
    73
1070
     1
1070
    44
1040
1.0
1070
    74
1070
     0
1000
MTEXTEND
  0
POINT
  5
18C38
330
18C30
100
AcDbEntity
  8
DEFPOINTS
 62
     0
 48
50.0
100
AcDbPoint
 10
7601.396575106999
 20
9606.123139034718
 30
0.0
  0
POINT
  5
18C39
330
18C30
100
AcDbEntity
  8
DEFPOINTS
 62
     0
 48
50.0
100
AcDbPoint
 10
7601.396575106999
 20
9156.12313903472
 30
0.0
  0
POINT
  5
18C3A
330
18C30
100
AcDbEntity
  8
DEFPOINTS
 62
     0
 48
50.0
100
AcDbPoint
 10
7956.754300969024
 20
9060.90532336583
 30
0.0
  0
ENDBLK
  5
18C3B
330
18C30
100
AcDbEntity
  8
0
 48
50.0
100
AcDbBlockEnd
  0
BLOCK
  5
18C3D
330
18C3C
100
AcDbEntity
  8
0
 48
50.0
100
AcDbBlockBegin
  2
*D12
 70
     1
 10
0.0
 20
0.0
 30
0.0
  3
*D12
  1

  0
LINE
  5
18C3E
330
18C3C
100
AcDbEntity
  8
寸法
 62
     0
 48
50.0
370
    -2
100
AcDbLine
 10
7649.896575106999
 20
9581.123139034721
 30
0.0
 11
8337.32292084141
 21
9581.123139034721
 31
0.0
  0
LINE
  5
18C3F
330
18C3C
100
AcDbEntity
  8
寸法
 62
     0
 48
50.0
370
    -2
100
AcDbLine
 10
7649.896575106973
 20
7901.123139034706
 30
0.0
 11
8337.32292084141
 21
7901.123139034706
 31
0.0
  0
LINE
  5
18C40
330
18C3C
100
AcDbEntity
  8
寸法
 62
     0
 48
50.0
370
    -2
100
AcDbLine
 10
8277.322920841411
 20
9581.123139034721
 30
0.0
 11
8277.322920841411
 21
7901.123139034706
 31
0.0
  0
INSERT
  5
18C41
330
18C3C
100
AcDbEntity
  8
寸法
 62
     0
 48
50.0
370
    -2
100
AcDbBlockReference
  2
_DOTSMALL
 10
8277.322920841411
 20
9581.123139034721
 30
0.0
 41
100.0
 42
100.0
 43
100.0
 50
90.0
  0
INSERT
  5
18C42
330
18C3C
100
AcDbEntity
  8
寸法
 62
     0
 48
50.0
370
    -2
100
AcDbBlockReference
  2
_DOTSMALL
 10
8277.322920841411
 20
7901.123139034706
 30
0.0
 41
100.0
 42
100.0
 43
100.0
 50
270.0
  0
MTEXT
  5
18C43
330
18C3C
100
AcDbEntity
  8
寸法
 62
     7
 48
50.0
100
AcDbMText
 10
8177.311109817788
 20
8741.123139034712
 30
0.0
 40
120.0
 41
0.0
 71
     5
 72
     1
  1
\A1;4X420=1680
  7
STYLE1
 11
0.0000000000000001
 21
1.0
 31
0.0
 73
     1
 44
1.0
1001
ACAD
1000
MTEXTBEGIN
1070
    73
1070
     1
1070
    44
1040
1.0
1070
    74
1070
     0
1000
MTEXTEND
  0
POINT
  5
18C44
330
18C3C
100
AcDbEntity
  8
DEFPOINTS
 62
     0
 48
50.0
100
AcDbPoint
 10
7629.896575106998
 20
9581.123139034721
 30
0.0
  0
POINT
  5
18C45
330
18C3C
100
AcDbEntity
  8
DEFPOINTS
 62
     0
 48
50.0
100
AcDbPoint
 10
7629.896575106974
 20
7901.123139034706
 30
0.0
  0
POINT
  5
18C46
330
18C3C
100
AcDbEntity
  8
DEFPOINTS
 62
     0
 48
50.0
100
AcDbPoint
 10
8277.322920841411
 20
7901.123139034706
 30
0.0
  0
ENDBLK
  5
18C47
330
18C3C
100
AcDbEntity
  8
0
 48
50.0
100
AcDbBlockEnd
  0
BLOCK
  5
18C49
330
18C48
100
AcDbEntity
  8
0
 48
50.0
100
AcDbBlockBegin
  2
*D13
 70
     1
 10
0.0
 20
0.0
 30
0.0
  3
*D13
  1

  0
LINE
  5
18C4A
330
18C48
100
AcDbEntity
  8
寸法
 62
     0
 48
50.0
370
    -2
100
AcDbLine
 10
4183.037591258377
 20
9136.123139034619
 30
0.0
 11
4115.083950562663
 21
8882.516699398941
 31
0.0
  0
LINE
  5
18C4B
330
18C48
100
AcDbEntity
  8
寸法
 62
     0
 48
50.0
370
    -2
100
AcDbLine
 10
5246.037591258307
 20
9136.123139034671
 30
0.0
 11
5178.08395056258
 21
8882.516699398941
 31
0.0
  0
LINE
  5
18C4C
330
18C48
100
AcDbEntity
  8
寸法
 62
     0
 48
50.0
370
    -2
100
AcDbLine
 10
4131.160902108532
 20
8942.516699398941
 30
0.0
 11
5194.160902108448
 21
8942.516699398941
 31
0.0
  0
INSERT
  5
18C4D
330
18C48
100
AcDbEntity
  8
寸法
 62
     0
 48
50.0
370
    -2
100
AcDbBlockReference
  2
_DOTSMALL
 10
4131.160902108532
 20
8942.516699398941
 30
0.0
 41
100.0
 42
100.0
 43
100.0
 50
180.0
  0
INSERT
  5
18C4E
330
18C48
100
AcDbEntity
  8
寸法
 62
     0
 48
50.0
370
    -2
100
AcDbBlockReference
  2
_DOTSMALL
 10
5194.160902108448
 20
8942.516699398941
 30
0.0
 41
100.0
 42
100.0
 43
100.0
  0
MTEXT
  5
18C4F
330
18C48
100
AcDbEntity
  8
寸法
 62
     7
 48
50.0
100
AcDbMText
 10
4658.986452655306
 20
9042.516699398941
 30
0.0
 40
120.0
 41
0.0
 71
     5
 72
     1
  1
\A1;1063
  7
STYLE1
 73
     1
 44
1.0
1001
ACAD
1000
MTEXTBEGIN
1070
    73
1070
     1
1070
    44
1040
1.0
1070
    74
1070
     0
1000
MTEXTEND
  0
POINT
  5
18C50
330
18C48
100
AcDbEntity
  8
DEFPOINTS
 62
     0
 48
50.0
100
AcDbPoint
 10
4188.396575106999
 20
9156.123139034617
 30
0.0
  0
POINT
  5
18C51
330
18C48
100
AcDbEntity
  8
DEFPOINTS
 62
     0
 48
50.0
100
AcDbPoint
 10
5251.396575106929
 20
9156.123139034672
 30
0.0
  0
POINT
  5
18C52
330
18C48
100
AcDbEntity
  8
DEFPOINTS
 62
     0
 48
50.0
100
AcDbPoint
 10
5194.160902108448
 20
8942.516699398941
 30
0.0
  0
ENDBLK
  5
18C53
330
18C48
100
AcDbEntity
  8
0
 48
50.0
100
AcDbBlockEnd
  0
BLOCK
  5
18C55
330
18C54
100
AcDbEntity
  8
0
 48
50.0
100
AcDbBlockBegin
  2
*D14
 70
     1
 10
0.0
 20
0.0
 30
0.0
  3
*D14
  1

  0
LINE
  5
18C56
330
18C54
100
AcDbEntity
  8
寸法
 62
     0
 48
50.0
370
    -2
100
AcDbLine
 10
5274.037591258307
 20
9136.123139034669
 30
0.0
 11
5206.08395056258
 21
8882.516699398941
 31
0.0
  0
LINE
  5
18C57
330
18C54
100
AcDbEntity
  8
寸法
 62
     0
 48
50.0
370
    -2
100
AcDbLine
 10
6505.037591258377
 20
9136.123139034662
 30
0.0
 11
6437.083950562653
 21
8882.516699398941
 31
0.0
  0
LINE
  5
18C58
330
18C54
100
AcDbEntity
  8
寸法
 62
     0
 48
50.0
370
    -2
100
AcDbLine
 10
5222.160902108448
 20
8942.516699398941
 30
0.0
 11
6453.16090210852
 21
8942.516699398941
 31
0.0
  0
INSERT
  5
18C59
330
18C54
100
AcDbEntity
  8
寸法
 62
     0
 48
50.0
370
    -2
100
AcDbBlockReference
  2
_DOTSMALL
 10
5222.160902108448
 20
8942.516699398941
 30
0.0
 41
100.0
 42
100.0
 43
100.0
 50
180.0
  0
INSERT
  5
18C5A
330
18C54
100
AcDbEntity
  8
寸法
 62
     0
 48
50.0
370
    -2
100
AcDbBlockReference
  2
_DOTSMALL
 10
6453.16090210852
 20
8942.516699398941
 30
0.0
 41
100.0
 42
100.0
 43
100.0
  0
MTEXT
  5
18C5B
330
18C54
100
AcDbEntity
  8
寸法
 62
     7
 48
50.0
100
AcDbMText
 10
6081.244808320626
 20
9042.528510422561
 30
0.0
 40
120.0
 41
0.0
 71
     5
 72
     1
  1
\A1;1231
  7
STYLE1
 73
     1
 44
1.0
1001
ACAD
1000
MTEXTBEGIN
1070
    73
1070
     1
1070
    44
1040
1.0
1070
    74
1070
     0
1000
MTEXTEND
  0
POINT
  5
18C5C
330
18C54
100
AcDbEntity
  8
DEFPOINTS
 62
     0
 48
50.0
100
AcDbPoint
 10
5279.396575106929
 20
9156.123139034669
 30
0.0
  0
POINT
  5
18C5D
330
18C54
100
AcDbEntity
  8
DEFPOINTS
 62
     0
 48
50.0
100
AcDbPoint
 10
6510.396575106999
 20
9156.123139034662
 30
0.0
  0
POINT
  5
18C5E
330
18C54
100
AcDbEntity
  8
DEFPOINTS
 62
     0
 48
50.0
100
AcDbPoint
 10
6453.16090210852
 20
8942.516699398941
 30
0.0
  0
ENDBLK
  5
18C5F
330
18C54
100
AcDbEntity
  8
0
 48
50.0
100
AcDbBlockEnd
  0
BLOCK
  5
18C61
330
18C60
100
AcDbEntity
  8
0
 48
50.0
100
AcDbBlockBegin
  2
*D15
 70
     1
 10
0.0
 20
0.0
 30
0.0
  3
*D15
  1

  0
LINE
  5
18C62
330
18C60
100
AcDbEntity
  8
寸法
 62
     0
 48
50.0
370
    -2
100
AcDbLine
 10
5065.896575106966
 20
7749.123139034579
 30
0.0
 11
5065.896575106966
 21
7099.952920982538
 31
0.0
  0
LINE
  5
18C63
330
18C60
100
AcDbEntity
  8
寸法
 62
     0
 48
50.0
370
    -2
100
AcDbLine
 10
6331.896575106966
 20
7749.123139034579
 30
0.0
 11
6331.896575106966
 21
7099.952920982538
 31
0.0
  0
LINE
  5
18C64
330
18C60
100
AcDbEntity
  8
寸法
 62
     0
 48
50.0
370
    -2
100
AcDbLine
 10
5065.896575106966
 20
7159.952920982537
 30
0.0
 11
6331.896575106966
 21
7159.952920982537
 31
0.0
  0
INSERT
  5
18C65
330
18C60
100
AcDbEntity
  8
寸法
 62
     0
 48
50.0
370
    -2
100
AcDbBlockReference
  2
_DOTSMALL
 10
5065.896575106966
 20
7159.952920982537
 30
0.0
 41
100.0
 42
100.0
 43
100.0
 50
180.0
  0
INSERT
  5
18C66
330
18C60
100
AcDbEntity
  8
寸法
 62
     0
 48
50.0
370
    -2
100
AcDbBlockReference
  2
_DOTSMALL
 10
6331.896575106966
 20
7159.952920982537
 30
0.0
 41
100.0
 42
100.0
 43
100.0
  0
MTEXT
  5
18C67
330
18C60
100
AcDbEntity
  8
寸法
 62
     7
 48
50.0
100
AcDbMText
 10
5711.986008735934
 20
7359.964732006159
 30
0.0
 40
120.0
 41
0.0
 71
     5
 72
     1
  1
\A1;有効開口部間口\P1266
  7
STYLE1
 73
     1
 44
1.0
1001
ACAD
1000
MTEXTBEGIN
1070
    73
1070
     1
1070
    44
1040
1.0
1070
    74
1070
     0
1000
MTEXTEND
  0
POINT
  5
18C68
330
18C60
100
AcDbEntity
  8
DEFPOINTS
 62
     0
 48
50.0
100
AcDbPoint
 10
5065.896575106966
 20
7769.123139034579
 30
0.0
  0
POINT
  5
18C69
330
18C60
100
AcDbEntity
  8
DEFPOINTS
 62
     0
 48
50.0
100
AcDbPoint
 10
6331.896575106966
 20
7769.123139034579
 30
0.0
  0
POINT
  5
18C6A
330
18C60
100
AcDbEntity
  8
DEFPOINTS
 62
     0
 48
50.0
100
AcDbPoint
 10
6331.896575106966
 20
7159.952920982537
 30
0.0
  0
ENDBLK
  5
18C6B
330
18C60
100
AcDbEntity
  8
0
 48
50.0
100
AcDbBlockEnd
  0
BLOCK
  5
18C6D
330
18C6C
100
AcDbEntity
  8
0
 48
50.0
100
AcDbBlockBegin
  2
*D16
 70
     1
 10
0.0
 20
0.0
 30
0.0
  3
*D16
  1

  0
LINE
  5
18C6E
330
18C6C
100
AcDbEntity
  8
寸法
 62
     0
 48
50.0
370
    -2
100
AcDbLine
 10
7200.896575106966
 20
7846.123139034578
 30
0.0
 11
7457.192158500191
 21
7846.123139034578
 31
0.0
  0
LINE
  5
18C6F
330
18C6C
100
AcDbEntity
  8
寸法
 62
     0
 48
50.0
370
    -2
100
AcDbLine
 10
7199.896575106966
 20
7769.123139034579
 30
0.0
 11
7457.192158500191
 21
7769.123139034579
 31
0.0
  0
LINE
  5
18C70
330
18C6C
100
AcDbEntity
  8
寸法
 62
     0
 48
50.0
370
    -2
100
AcDbLine
 10
7417.192158500192
 20
7866.123139034579
 30
0.0
 11
7417.192158500192
 21
7886.123139034578
 31
0.0
  0
LINE
  5
18C71
330
18C6C
100
AcDbEntity
  8
寸法
 62
     0
 48
50.0
370
    -2
100
AcDbLine
 10
7417.192158500192
 20
7749.123139034579
 30
0.0
 11
7417.192158500192
 21
7533.123139034573
 31
0.0
  0
LINE
  5
18C72
330
18C6C
100
AcDbEntity
  8
寸法
 62
     0
 48
50.0
370
    -2
100
AcDbLine
 10
7417.192158500192
 20
7846.123139034578
 30
0.0
 11
7417.192158500192
 21
7769.123139034579
 31
0.0
  0
INSERT
  5
18C73
330
18C6C
100
AcDbEntity
  8
寸法
 62
     0
 48
50.0
370
    -2
100
AcDbBlockReference
  2
_DOT
 10
7417.192158500192
 20
7846.123139034578
 30
0.0
 41
20.0
 42
20.0
 43
20.0
 50
270.0
  0
INSERT
  5
18C74
330
18C6C
100
AcDbEntity
  8
寸法
 62
     0
 48
50.0
370
    -2
100
AcDbBlockReference
  2
_DOT
 10
7417.192158500192
 20
7769.123139034579
 30
0.0
 41
20.0
 42
20.0
 43
20.0
 50
90.0
  0
MTEXT
  5
18C75
330
18C6C
100
AcDbEntity
  8
寸法
 62
     7
 48
50.0
100
AcDbMText
 10
7325.192158500191
 20
7631.123139034575
 30
0.0
 40
120.0
 41
0.0
 71
     5
 72
     1
  1
\A1;77
  7
STYLE1
 11
0.0000000000000001
 21
1.0
 31
0.0
 73
     1
 44
1.0
1001
ACAD
1000
MTEXTBEGIN
1070
    73
1070
     1
1070
    44
1040
1.0
1070
    74
1070
     0
1000
MTEXTEND
  0
POINT
  5
18C76
330
18C6C
100
AcDbEntity
  8
DEFPOINTS
 62
     0
 48
50.0
100
AcDbPoint
 10
7180.896575106967
 20
7846.123139034578
 30
0.0
  0
POINT
  5
18C77
330
18C6C
100
AcDbEntity
  8
DEFPOINTS
 62
     0
 48
50.0
100
AcDbPoint
 10
7179.896575106965
 20
7769.123139034579
 30
0.0
  0
POINT
  5
18C78
330
18C6C
100
AcDbEntity
  8
DEFPOINTS
 62
     0
 48
50.0
100
AcDbPoint
 10
7417.192158500192
 20
7769.123139034579
 30
0.0
  0
ENDBLK
  5
18C79
330
18C6C
100
AcDbEntity
  8
0
 48
50.0
100
AcDbBlockEnd
  0
BLOCK
  5
18DA0
330
18C7A
100
AcDbEntity
  8
0
 48
50.0
100
AcDbBlockBegin
  2
A$C3B1A506B
 70
     0
 10
0.0
 20
0.0
 30
0.0
  3
A$C3B1A506B
  1

  0
MTEXT
  5
18C7B
330
18C7A
100
AcDbEntity
  8
寸法
 62
     7
 48
50.0
100
AcDbMText
 10
3342.250386887194
 20
2778.329429134012
 30
0.0
 40
96.0
 41
0.0
 71
     5
 72
     1
  1
棚 2段
  7
STYLE1
 73
     1
 44
1.0
1001
ACAD
1000
MTEXTBEGIN
1070
    73
1070
     1
1070
    44
1040
1.0
1070
    74
1070
     0
1000
MTEXTEND
  0
MTEXT
  5
18C7C
330
18C7A
100
AcDbEntity
  8
寸法
 62
     7
 48
50.0
100
AcDbMText
 10
2167.25038688716
 20
2778.329429133986
 30
0.0
 40
96.0
 41
0.0
 71
     5
 72
     1
  1
棚 2段
  7
STYLE1
 73
     1
 44
1.0
1001
ACAD
1000
MTEXTBEGIN
1070
    73
1070
     1
1070
    44
1040
1.0
1070
    74
1070
     0
1000
MTEXTEND
  0
MTEXT
  5
18C7D
330
18C7A
100
AcDbEntity
  8
寸法
 62
     7
 48
50.0
100
AcDbMText
 10
992.2503868871608
 20
2778.329429133935
 30
0.0
 40
96.0
 41
0.0
 71
     5
 72
     1
  1
棚 2段
  7
STYLE1
 73
     1
 44
1.0
1001
ACAD
1000
MTEXTBEGIN
1070
    73
1070
     1
1070
    44
1040
1.0
1070
    74
1070
     0
1000
MTEXTEND
  0
LINE
  5
18C7E
330
18C7A
100
AcDbEntity
  8
細線
 48
50.0
100
AcDbLine
 10
2771.970589276527
 20
1368.994384123192
 30
0.0
 11
3398.970589276523
 21
1368.994384123192
 31
0.0
  0
LINE
  5
18C7F
330
18C7A
100
AcDbEntity
  8
細線
 48
50.0
100
AcDbLine
 10
2117.970593930113
 20
1335.285615569113
 30
0.0
 11
3398.970589276523
 21
1335.285615569113
 31
0.0
  0
LINE
  5
18C80
330
18C7A
100
AcDbEntity
  8
細線
 48
50.0
100
AcDbLine
 10
2076.970593930115
 20
1364.690523565368
 30
0.0
 11
1322.970589276523
 21
1364.690523565367
 31
0.0
  0
LINE
  5
18C81
330
18C7A
100
AcDbEntity
  8
細線
100
AcDbLine
 10
3170.720579860066
 20
1388.494284088199
 30
0.0
 11
3173.052119381877
 21
1393.494286728162
 31
0.0
  0
LINE
  5
18C82
330
18C7A
100
AcDbEntity
  8
細線
100
AcDbLine
 10
3240.720589276525
 20
1388.494269174465
 30
0.0
 11
3238.389042800336
 21
1393.494286728144
 31
0.0
  0
LINE
  5
18C83
330
18C7A
100
AcDbEntity
  8
細線
100
AcDbLine
 10
3238.389042800336
 20
1393.494286728144
 30
0.0
 11
3173.052119381862
 21
1393.494286728133
 31
0.0
  0
LINE
  5
18C84
330
18C7A
100
AcDbEntity
  8
細線
100
AcDbLine
 10
3098.389042800336
 20
1393.494286728144
 30
0.0
 11
3033.052119381862
 21
1393.494286728133
 31
0.0
  0
LINE
  5
18C85
330
18C7A
100
AcDbEntity
  8
細線
100
AcDbLine
 10
3100.720589276523
 20
1388.494269174465
 30
0.0
 11
3098.389042800336
 21
1393.494286728144
 31
0.0
  0
LINE
  5
18C86
330
18C7A
100
AcDbEntity
  8
細線
100
AcDbLine
 10
3030.720579860066
 20
1388.494284088199
 30
0.0
 11
3033.052119381875
 21
1393.494286728162
 31
0.0
  0
LINE
  5
18C87
330
18C7A
100
AcDbEntity
  8
細線
100
AcDbLine
 10
2890.720589276525
 20
1388.494269174465
 30
0.0
 11
2893.052128798336
 21
1393.494271814428
 31
0.0
  0
LINE
  5
18C88
330
18C7A
100
AcDbEntity
  8
細線
100
AcDbLine
 10
2960.720598692984
 20
1388.494254260731
 30
0.0
 11
2958.389052216793
 21
1393.49427181441
 31
0.0
  0
LINE
  5
18C89
330
18C7A
100
AcDbEntity
  8
細線
100
AcDbLine
 10
2958.389052216795
 20
1393.49427181441
 30
0.0
 11
2893.052128798321
 21
1393.494271814399
 31
0.0
  0
LINE
  5
18C8A
330
18C7A
100
AcDbEntity
  8
細線
100
AcDbLine
 10
2667.139038146739
 20
1359.494298590735
 30
0.0
 11
2601.802114728263
 21
1359.494298590724
 31
0.0
  0
LINE
  5
18C8B
330
18C7A
100
AcDbEntity
  8
細線
100
AcDbLine
 10
2669.470584622926
 20
1354.494281037055
 30
0.0
 11
2667.139038146737
 21
1359.494298590735
 31
0.0
  0
LINE
  5
18C8C
330
18C7A
100
AcDbEntity
  8
細線
100
AcDbLine
 10
2599.470575206469
 20
1354.49429595079
 30
0.0
 11
2601.802114728278
 21
1359.494298590752
 31
0.0
  0
LINE
  5
18C8D
330
18C7A
100
AcDbEntity
  8
細線
 48
50.0
100
AcDbLine
 10
2440.853968524536
 20
1372.765132327548
 30
0.0
 11
2446.609486107205
 21
1354.494281037057
 31
0.0
  0
LINE
  5
18C8E
330
18C7A
100
AcDbEntity
  8
細線
 48
50.0
100
AcDbLine
 10
2429.925520044106
 20
1372.765132327546
 30
0.0
 11
2440.853968524536
 21
1372.765132327548
 31
0.0
  0
ARC
  5
18C8F
330
18C7A
100
AcDbEntity
  8
細線
 48
50.0
100
AcDbCircle
 10
2424.471163986787
 20
1374.265132327546
 30
0.0
 40
5.0
100
AcDbArc
 50
204.6243183520723
 51
335.3756816479278
  0
ARC
  5
18C90
330
18C7A
100
AcDbEntity
  8
細線
 48
50.0
100
AcDbCircle
 10
2429.925520044106
 20
1371.765132327546
 30
0.0
 40
1.0
100
AcDbArc
 50
90.0
 51
155.3756816479277
  0
ARC
  5
18C91
330
18C7A
100
AcDbEntity
  8
細線
 48
50.0
100
AcDbCircle
 10
2419.016807929469
 20
1371.765132327546
 30
0.0
 40
1.0
100
AcDbArc
 50
24.62431835207225
 51
90.0
  0
LINE
  5
18C92
330
18C7A
100
AcDbEntity
  8
細線
 48
50.0
100
AcDbLine
 10
2408.088359449037
 20
1372.765132327548
 30
0.0
 11
2419.016807929469
 21
1372.765132327546
 31
0.0
  0
LINE
  5
18C93
330
18C7A
100
AcDbEntity
  8
細線
 48
50.0
100
AcDbLine
 10
2402.33284186637
 20
1354.494281037054
 30
0.0
 11
2408.088359449037
 21
1372.765132327548
 31
0.0
  0
LINE
  5
18C94
330
18C7A
100
AcDbEntity
  8
細線
100
AcDbLine
 10
2458.070304175992
 20
1354.494278397076
 30
0.0
 11
2460.401843697802
 21
1359.494281037039
 31
0.0
  0
LINE
  5
18C95
330
18C7A
100
AcDbEntity
  8
細線
100
AcDbLine
 10
2528.070313592451
 20
1354.494263483342
 30
0.0
 11
2525.738767116262
 21
1359.494281037021
 31
0.0
  0
LINE
  5
18C96
330
18C7A
100
AcDbEntity
  8
細線
100
AcDbLine
 10
2525.738767116262
 20
1359.494281037021
 30
0.0
 11
2460.40184369779
 21
1359.49428103701
 31
0.0
  0
LINE
  5
18C97
330
18C7A
100
AcDbEntity
  8
細線
100
AcDbLine
 10
2387.139046332155
 20
1359.494281037021
 30
0.0
 11
2321.80212291368
 21
1359.49428103701
 31
0.0
  0
LINE
  5
18C98
330
18C7A
100
AcDbEntity
  8
細線
100
AcDbLine
 10
2389.470592808342
 20
1354.494263483342
 30
0.0
 11
2387.139046332153
 21
1359.494281037021
 31
0.0
  0
LINE
  5
18C99
330
18C7A
100
AcDbEntity
  8
細線
100
AcDbLine
 10
2319.470584622926
 20
1354.494281037054
 30
0.0
 11
2321.802122913694
 21
1359.494281037039
 31
0.0
  0
LINE
  5
18C9A
330
18C7A
100
AcDbEntity
  8
細線
100
AcDbLine
 10
2179.47061994182
 20
1354.494289224422
 30
0.0
 11
2181.802158232587
 21
1359.494289224407
 31
0.0
  0
LINE
  5
18C9B
330
18C7A
100
AcDbEntity
  8
細線
100
AcDbLine
 10
2249.470628127236
 20
1354.49427167071
 30
0.0
 11
2247.139081651047
 21
1359.494289224389
 31
0.0
  0
LINE
  5
18C9C
330
18C7A
100
AcDbEntity
  8
細線
100
AcDbLine
 10
2247.139081651047
 20
1359.494289224389
 30
0.0
 11
2181.802158232573
 21
1359.494289224378
 31
0.0
  0
LINE
  5
18C9D
330
18C7A
100
AcDbEntity
  8
細線
100
AcDbLine
 10
1807.970585744697
 20
1320.494460905133
 30
0.0
 11
1810.302124035464
 21
1325.494460905118
 31
0.0
  0
LINE
  5
18C9E
330
18C7A
100
AcDbEntity
  8
細線
100
AcDbLine
 10
1877.970593930113
 20
1320.494443351421
 30
0.0
 11
1875.639047453926
 21
1325.4944609051
 31
0.0
  0
LINE
  5
18C9F
330
18C7A
100
AcDbEntity
  8
細線
100
AcDbLine
 10
1875.639047453926
 20
1325.4944609051
 30
0.0
 11
1810.302124035452
 21
1325.494460905089
 31
0.0
  0
LINE
  5
18CA0
330
18C7A
100
AcDbEntity
  8
細線
100
AcDbLine
 10
2015.639047453926
 20
1325.4944609051
 30
0.0
 11
1950.302124035452
 21
1325.494460905089
 31
0.0
  0
LINE
  5
18CA1
330
18C7A
100
AcDbEntity
  8
細線
100
AcDbLine
 10
2017.970593930113
 20
1320.494443351421
 30
0.0
 11
2015.639047453924
 21
1325.4944609051
 31
0.0
  0
LINE
  5
18CA2
330
18C7A
100
AcDbEntity
  8
細線
100
AcDbLine
 10
1947.970585744697
 20
1320.494460905133
 30
0.0
 11
1950.302124035465
 21
1325.494460905118
 31
0.0
  0
LINE
  5
18CA3
330
18C7A
100
AcDbEntity
  8
細線
100
AcDbLine
 10
1735.639047453926
 20
1325.494460905098
 30
0.0
 11
1670.302124035454
 21
1325.494460905087
 31
0.0
  0
LINE
  5
18CA4
330
18C7A
100
AcDbEntity
  8
細線
100
AcDbLine
 10
1737.970593930113
 20
1320.494443351419
 30
0.0
 11
1735.639047453926
 21
1325.494460905098
 31
0.0
  0
LINE
  5
18CA5
330
18C7A
100
AcDbEntity
  8
細線
100
AcDbLine
 10
1667.970585744697
 20
1320.494460905131
 30
0.0
 11
1670.302124035465
 21
1325.494460905116
 31
0.0
  0
LINE
  5
18CA6
330
18C7A
100
AcDbEntity
  8
細線
100
AcDbLine
 10
1527.970593930113
 20
1320.494460905133
 30
0.0
 11
1530.302132220881
 21
1325.494460905118
 31
0.0
  0
LINE
  5
18CA7
330
18C7A
100
AcDbEntity
  8
細線
100
AcDbLine
 10
1597.970602115529
 20
1320.494443351421
 30
0.0
 11
1595.639055639342
 21
1325.4944609051
 31
0.0
  0
LINE
  5
18CA8
330
18C7A
100
AcDbEntity
  8
細線
100
AcDbLine
 10
1595.639055639342
 20
1325.4944609051
 30
0.0
 11
1530.302132220869
 21
1325.494460905089
 31
0.0
  0
ARC
  5
18CA9
330
18C7A
100
AcDbEntity
  8
部品1
 48
0.01
100
AcDbCircle
 10
1483.470482677778
 20
1319.493338720063
 30
0.0
 40
0.5
100
AcDbArc
 50
270.0
 51
0.0
  0
LINE
  5
18CAA
330
18C7A
100
AcDbEntity
  8
部品1
 48
0.01
100
AcDbLine
 10
1483.970482677778
 20
1320.493338720063
 30
0.0
 11
1483.970482677778
 21
1319.493338720063
 31
0.0
  0
LINE
  5
18CAB
330
18C7A
100
AcDbEntity
  8
部品1
 48
0.01
100
AcDbLine
 10
1483.970482677778
 20
1320.493338720063
 30
0.0
 11
1483.970482677778
 21
1319.493338720063
 31
0.0
  0
LINE
  5
18CAC
330
18C7A
100
AcDbEntity
  8
部品1
 48
0.01
100
AcDbLine
 10
1483.470482677778
 20
1318.993338720063
 30
0.0
 11
1476.857977247713
 21
1318.993338720062
 31
0.0
  0
ARC
  5
18CAD
330
18C7A
100
AcDbEntity
  8
部品1
100
AcDbCircle
 10
1476.926326800494
 20
1319.993338720062
 30
0.0
 40
1.0
100
AcDbArc
 50
160.5287793655865
 51
270.0
  0
ARC
  5
18CAE
330
18C7A
100
AcDbEntity
  8
部品1
100
AcDbCircle
 10
1451.470482677778
 20
1328.993338720062
 30
0.0
 40
26.0
100
AcDbArc
 50
340.5287793655865
 51
0.0
  0
LINE
  5
18CAF
330
18C7A
100
AcDbEntity
  8
部品1
100
AcDbLine
 10
1477.470482677778
 20
1328.993338720062
 30
0.0
 11
1477.470482677778
 21
1333.993338720061
 31
0.0
  0
ARC
  5
18CB0
330
18C7A
100
AcDbEntity
  8
部品1
 48
0.01
100
AcDbCircle
 10
1475.470482677778
 20
1333.993338720061
 30
0.0
 40
2.0
100
AcDbArc
 50
0.0
 51
90.0
  0
ARC
  5
18CB1
330
18C7A
100
AcDbEntity
  8
部品1
100
AcDbCircle
 10
1473.862091052968
 20
1332.993338720062
 30
0.0
 40
3.0
100
AcDbArc
 50
90.0
 51
141.6069559808035
  0
LINE
  5
18CB2
330
18C7A
100
AcDbEntity
  8
部品1
 48
0.01
100
AcDbLine
 10
1475.470482677778
 20
1335.993338720062
 30
0.0
 11
1473.862091052968
 21
1335.993338720062
 31
0.0
  0
ARC
  5
18CB3
330
18C7A
100
AcDbEntity
  8
部品1
100
AcDbCircle
 10
1455.399768463507
 20
1332.293338720065
 30
0.0
 40
3.0
100
AcDbArc
 50
254.0576313943215
 51
270.0
  0
ARC
  5
18CB4
330
18C7A
100
AcDbEntity
  8
部品1
100
AcDbCircle
 10
1462.541196892049
 20
1332.293338720065
 30
0.0
 40
3.0
100
AcDbArc
 50
270.0
 51
285.9423686056786
  0
LINE
  5
18CB5
330
18C7A
100
AcDbEntity
  8
部品1
100
AcDbLine
 10
1462.541196892049
 20
1329.293338720064
 30
0.0
 11
1455.399768463507
 21
1329.293338720064
 31
0.0
  0
ARC
  5
18CB6
330
18C7A
100
AcDbEntity
  8
部品1
100
AcDbCircle
 10
1458.970482677778
 20
1344.793338720065
 30
0.0
 40
16.0
100
AcDbArc
 50
285.9423686056786
 51
321.6069559808035
  0
LINE
  5
18CB7
330
18C7A
100
AcDbEntity
  8
部品1
 48
0.01
100
AcDbLine
 10
1442.470482677778
 20
1335.993338720062
 30
0.0
 11
1444.078874302588
 21
1335.993338720062
 31
0.0
  0
ARC
  5
18CB8
330
18C7A
100
AcDbEntity
  8
部品1
100
AcDbCircle
 10
1444.078874302588
 20
1332.993338720062
 30
0.0
 40
3.0
100
AcDbArc
 50
38.39304401919648
 51
90.0
  0
ARC
  5
18CB9
330
18C7A
100
AcDbEntity
  8
部品1
100
AcDbCircle
 10
1458.970482677778
 20
1344.793338720065
 30
0.0
 40
16.0
100
AcDbArc
 50
218.3930440191965
 51
254.0576313943215
  0
LINE
  5
18CBA
330
18C7A
100
AcDbEntity
  8
部品1
100
AcDbLine
 10
1440.470482677778
 20
1328.993338720062
 30
0.0
 11
1440.470482677778
 21
1333.993338720061
 31
0.0
  0
ARC
  5
18CBB
330
18C7A
100
AcDbEntity
  8
部品1
 48
0.01
100
AcDbCircle
 10
1442.470482677778
 20
1333.993338720061
 30
0.0
 40
2.0
100
AcDbArc
 50
90.0
 51
180.0
  0
ARC
  5
18CBC
330
18C7A
100
AcDbEntity
  8
部品1
100
AcDbCircle
 10
1466.470482677778
 20
1328.993338720062
 30
0.0
 40
26.0
100
AcDbArc
 50
180.0
 51
199.4712206344134
  0
ARC
  5
18CBD
330
18C7A
100
AcDbEntity
  8
部品1
 48
0.01
100
AcDbCircle
 10
1434.470482677778
 20
1319.493338720063
 30
0.0
 40
0.5
100
AcDbArc
 50
180.0
 51
270.0
  0
LINE
  5
18CBE
330
18C7A
100
AcDbEntity
  8
部品1
 48
0.01
100
AcDbLine
 10
1434.470482677778
 20
1318.993338720063
 30
0.0
 11
1441.014638555061
 21
1318.993338720062
 31
0.0
  0
LINE
  5
18CBF
330
18C7A
100
AcDbEntity
  8
部品1
 48
0.01
100
AcDbLine
 10
1433.970482677778
 20
1320.493338720063
 30
0.0
 11
1433.970482677778
 21
1319.493338720063
 31
0.0
  0
ARC
  5
18CC0
330
18C7A
100
AcDbEntity
  8
部品1
100
AcDbCircle
 10
1441.014638555061
 20
1319.993338720062
 30
0.0
 40
1.0
100
AcDbArc
 50
270.0
 51
19.47122063441346
  0
LINE
  5
18CC1
330
18C7A
100
AcDbEntity
  8
細線
100
AcDbLine
 10
1479.470482677785
 20
1338.493338720065
 30
0.0
 11
1438.470482677785
 21
1338.493338720058
 31
0.0
  0
LINE
  5
18CC2
330
18C7A
100
AcDbEntity
  8
細線
100
AcDbLine
 10
1438.470482677785
 20
1338.493338720058
 30
0.0
 11
1438.470482677785
 21
1320.49333872004
 31
0.0
  0
LINE
  5
18CC3
330
18C7A
100
AcDbEntity
  8
細線
100
AcDbLine
 10
1479.470482677785
 20
1338.493338720065
 30
0.0
 11
1479.470482677785
 21
1320.49333872004
 31
0.0
  0
LINE
  5
18CC4
330
18C7A
100
AcDbEntity
  8
細線
100
AcDbLine
 10
1322.970589276523
 20
1324.494269174465
 30
0.0
 11
1322.970589276523
 21
1320.494269174513
 31
0.0
  0
LINE
  5
18CC5
330
18C7A
100
AcDbEntity
  8
寸法
 48
50.0
100
AcDbLine
 10
1746.17359555837
 20
1170.531020743327
 30
0.0
 11
1694.767587648266
 21
1170.531020743327
 31
0.0
  0
LINE
  5
18CC6
330
18C7A
100
AcDbEntity
  8
寸法
 48
50.0
100
AcDbLine
 10
1694.767587648266
 20
1170.531020743327
 30
0.0
 11
1694.767587648266
 21
1201.841179395494
 31
0.0
  0
LINE
  5
18CC7
330
18C7A
100
AcDbEntity
  8
寸法
 48
50.0
100
AcDbLine
 10
1694.767587648266
 20
1201.841179395494
 30
0.0
 11
1665.006255656843
 21
1201.841179395494
 31
0.0
  0
LINE
  5
18CC8
330
18C7A
100
AcDbEntity
  8
寸法
 48
50.0
100
AcDbLine
 10
1665.006255656843
 20
1201.841179395494
 30
0.0
 11
1720.470591603318
 21
1239.420630324105
 31
0.0
  0
LINE
  5
18CC9
330
18C7A
100
AcDbEntity
  8
寸法
 48
50.0
100
AcDbLine
 10
1775.934927549793
 20
1201.841179395494
 30
0.0
 11
1720.470591603318
 21
1239.420630324105
 31
0.0
  0
LINE
  5
18CCA
330
18C7A
100
AcDbEntity
  8
寸法
 48
50.0
100
AcDbLine
 10
1746.17359555837
 20
1201.841179395494
 30
0.0
 11
1775.934927549793
 21
1201.841179395494
 31
0.0
  0
LINE
  5
18CCB
330
18C7A
100
AcDbEntity
  8
寸法
 48
50.0
100
AcDbLine
 10
1746.17359555837
 20
1170.531020743327
 30
0.0
 11
1746.17359555837
 21
1201.841179395494
 31
0.0
  0
LINE
  5
18CCC
330
18C7A
100
AcDbEntity
  8
寸法
 48
50.0
100
AcDbLine
 10
1694.767587648266
 20
1170.531020743327
 30
0.0
 11
1746.17359555837
 21
1170.531020743327
 31
0.0
  0
LINE
  5
18CCD
330
18C7A
100
AcDbEntity
  8
寸法
 48
50.0
100
AcDbLine
 10
2025.339129835225
 20
1227.676611498152
 30
0.0
 11
2025.339129835225
 21
1174.01297691636
 31
0.0
  0
LINE
  5
18CCE
330
18C7A
100
AcDbEntity
  8
寸法
 48
50.0
100
AcDbLine
 10
2114.623348430647
 20
1203.752977228664
 30
0.0
 11
2025.339129835225
 21
1227.676611498152
 31
0.0
  0
LINE
  5
18CCF
330
18C7A
100
AcDbEntity
  8
寸法
 48
50.0
100
AcDbLine
 10
1895.471408254923
 20
1203.752977228664
 30
0.0
 11
2114.623348430647
 21
1203.752977228664
 31
0.0
  0
DIMENSION
  5
18CD0
330
18C7A
100
AcDbEntity
  8
寸法
 48
50.0
100
AcDbDimension
  2
*D15
 10
2588.970589276523
 20
706.3240511224249
 30
0.0
 11
1969.060022905491
 21
706.3240511224249
 31
0.0
 12
-3742.925985830444
 22
-6453.628869860112
 32
0.0
 70
   128
  1
有効開口部間口\P<>
 71
     5
 42
1266.0
  3
INABA_S40G
100
AcDbAlignedDimension
 13
1322.970589276523
 23
1315.494269174465
 33
0.0
 14
2588.970589276523
 24
1315.494269174465
 34
0.0
100
AcDbRotatedDimension
1001
ACAD
1000
DSTYLE
1002
{
1070
   341
1005
0
1002
}
  0
LINE
  5
18CD1
330
18C7A
100
AcDbEntity
  8
部品1
100
AcDbLine
 10
3409.970589276524
 20
1392.494269174465
 30
0.0
 11
3437.970589276523
 21
1392.494269174465
 31
0.0
  0
DIMENSION
  5
18CD2
330
18C7A
100
AcDbEntity
  8
寸法
100
AcDbDimension
  2
*D16
 10
3674.266172669749
 20
1315.494269174465
 30
0.0
 11
3674.266172669748
 21
1177.494269174462
 31
0.0
 12
-3742.925985830444
 22
-6453.628869860112
 32
0.0
 70
   128
 71
     5
 42
77.0
  3
INABA_S40
100
AcDbAlignedDimension
 13
3437.970589276523
 23
1392.494269174465
 33
0.0
 14
3436.970589276523
 24
1315.494269174465
 34
0.0
 50
90.0
100
AcDbRotatedDimension
1001
ACAD
1000
DSTYLE
1002
{
1070
    41
1040
0.5
1070
    44
1040
1.0
1070
   147
1040
0.8
1070
   271
1070
     2
1070
   272
1070
     2
1070
   289
1070
     3
1070
   340
1005
F706
1070
   343
1005
164B4
1070
   344
1005
164B4
1002
}
  0
LINE
  5
18CD3
330
18C7A
100
AcDbEntity
  8
部品1
100
AcDbLine
 10
3437.970589276523
 20
1315.494269174465
 30
0.0
 11
3437.970589276523
 21
1392.494269174465
 31
0.0
  0
LINE
  5
18CD4
330
18C7A
100
AcDbEntity
  8
部品1
100
AcDbLine
 10
3398.970589276523
 20
1388.494269174465
 30
0.0
 11
3409.970589276524
 21
1388.494269174465
 31
0.0
  0
LINE
  5
18CD5
330
18C7A
100
AcDbEntity
  8
部品1
100
AcDbLine
 10
3407.970589276523
 20
1324.494269174465
 30
0.0
 11
3407.970589276523
 21
1315.494269174465
 31
0.0
  0
LINE
  5
18CD6
330
18C7A
100
AcDbEntity
  8
部品1
100
AcDbLine
 10
3398.970589276523
 20
1324.494269174465
 30
0.0
 11
3407.970589276523
 21
1324.494269174465
 31
0.0
  0
LINE
  5
18CD7
330
18C7A
100
AcDbEntity
  8
部品1
100
AcDbLine
 10
3398.970589276523
 20
1388.494269174465
 30
0.0
 11
3398.970589276523
 21
1324.494269174465
 31
0.0
  0
LINE
  5
18CD8
330
18C7A
100
AcDbEntity
  8
部品1
100
AcDbLine
 10
3409.970589276524
 20
1419.494269174465
 30
0.0
 11
3409.970589276524
 21
1388.494269174465
 31
0.0
  0
LINE
  5
18CD9
330
18C7A
100
AcDbEntity
  8
部品1
100
AcDbLine
 10
1322.970589276523
 20
1388.494269174465
 30
0.0
 11
1311.970589276523
 21
1388.494269174465
 31
0.0
  0
LINE
  5
18CDA
330
18C7A
100
AcDbEntity
  8
部品1
100
AcDbLine
 10
1283.970589276523
 20
1392.494269174465
 30
0.0
 11
1311.970589276523
 21
1392.494269174465
 31
0.0
  0
LINE
  5
18CDB
330
18C7A
100
AcDbEntity
  8
部品1
100
AcDbLine
 10
1313.970589276523
 20
1324.494269174465
 30
0.0
 11
1313.970589276523
 21
1315.494269174465
 31
0.0
  0
LINE
  5
18CDC
330
18C7A
100
AcDbEntity
  8
部品1
100
AcDbLine
 10
1322.970589276523
 20
1324.494269174465
 30
0.0
 11
1313.970589276523
 21
1324.494269174465
 31
0.0
  0
LINE
  5
18CDD
330
18C7A
100
AcDbEntity
  8
部品1
100
AcDbLine
 10
1313.970589276523
 20
1315.494269174465
 30
0.0
 11
1283.970589276523
 21
1315.494269174465
 31
0.0
  0
LINE
  5
18CDE
330
18C7A
100
AcDbEntity
  8
部品1
100
AcDbLine
 10
1283.970589276523
 20
1315.494269174465
 30
0.0
 11
1283.970589276523
 21
1392.494269174465
 31
0.0
  0
LINE
  5
18CDF
330
18C7A
100
AcDbEntity
  8
部品1
100
AcDbLine
 10
1322.970589276523
 20
1388.494269174465
 30
0.0
 11
1322.970589276523
 21
1324.494269174465
 31
0.0
  0
LINE
  5
18CE0
330
18C7A
100
AcDbEntity
  8
部品1
100
AcDbLine
 10
1311.970589276523
 20
1419.494269174462
 30
0.0
 11
1311.970589276523
 21
1388.494269174465
 31
0.0
  0
LINE
  5
18CE1
330
18C7A
100
AcDbEntity
  8
部品1
100
AcDbLine
 10
1311.970589276523
 20
1419.494269174462
 30
0.0
 11
3409.970589276524
 21
1419.494269174465
 31
0.0
  0
LINE
  5
18CE2
330
18C7A
100
AcDbEntity
  8
部品1
100
AcDbLine
 10
3407.970589276523
 20
1315.494269174465
 30
0.0
 11
3437.970589276523
 21
1315.494269174465
 31
0.0
  0
LINE
  5
18CE3
330
18C7A
100
AcDbEntity
  8
部品1
100
AcDbLine
 10
1313.970589276523
 20
1315.494269174465
 30
0.0
 11
3410.970589276523
 21
1315.494269174465
 31
0.0
  0
LINE
  5
18CE4
330
18C7A
100
AcDbEntity
  8
細線
  6
Continuous
 62
     5
100
AcDbLine
 10
2689.970589276527
 20
1354.494269174462
 30
0.0
 11
2689.970589276527
 21
1354.494269174462
 31
0.0
  0
LINE
  5
18CE5
330
18C7A
100
AcDbEntity
  8
細線
  6
Continuous
 62
     5
100
AcDbLine
 10
2682.470589276527
 20
1354.494269174462
 30
0.0
 11
2682.470589276527
 21
1354.494269174462
 31
0.0
  0
LINE
  5
18CE6
330
18C7A
100
AcDbEntity
  8
細線
  6
Continuous
 62
     5
100
AcDbLine
 10
2676.470589276527
 20
1354.494269174462
 30
0.0
 11
2676.470589276527
 21
1354.494269174462
 31
0.0
  0
LINE
  5
18CE7
330
18C7A
100
AcDbEntity
  8
細線
  6
Continuous
 62
     5
100
AcDbLine
 10
2743.970589276527
 20
1373.494269174462
 30
0.0
 11
2743.970589276527
 21
1373.494269174462
 31
0.0
  0
LINE
  5
18CE8
330
18C7A
100
AcDbEntity
  8
細線
 48
50.0
100
AcDbLine
 10
1336.970593930116
 20
1341.094443351418
 30
0.0
 11
1336.970593930113
 21
1349.490593759059
 31
0.0
  0
LINE
  5
18CE9
330
18C7A
100
AcDbEntity
  8
細線
 48
50.0
100
AcDbLine
 10
1336.970593930113
 20
1349.490593759059
 30
0.0
 11
1322.970589276523
 21
1349.490593759057
 31
0.0
  0
LINE
  5
18CEA
330
18C7A
100
AcDbEntity
  8
細線
 48
50.0
100
AcDbLine
 10
2087.970593930113
 20
1337.644443351419
 30
0.0
 11
2087.970593930113
 21
1342.494443351421
 31
0.0
  0
LINE
  5
18CEB
330
18C7A
100
AcDbEntity
  8
細線
 48
50.0
100
AcDbLine
 10
2087.970593930113
 20
1342.494443351421
 30
0.0
 11
2102.970593930113
 21
1342.494443351421
 31
0.0
  0
LINE
  5
18CEC
330
18C7A
100
AcDbEntity
  8
細線
 48
50.0
100
AcDbLine
 10
2102.970593930113
 20
1342.494443351421
 30
0.0
 11
2102.970593930115
 21
1349.494443351419
 31
0.0
  0
LINE
  5
18CED
330
18C7A
100
AcDbEntity
  8
細線
 48
50.0
100
AcDbLine
 10
2102.970593930115
 20
1349.494443351419
 30
0.0
 11
2117.970593930113
 21
1349.494443351419
 31
0.0
  0
LINE
  5
18CEE
330
18C7A
100
AcDbEntity
  8
細線
 48
50.0
100
AcDbLine
 10
2117.970593930113
 20
1349.494443351419
 30
0.0
 11
2117.970593930113
 21
1320.494443351421
 31
0.0
  0
LINE
  5
18CEF
330
18C7A
100
AcDbEntity
  8
細線
 48
50.0
100
AcDbLine
 10
1313.970589276523
 20
1320.491777694889
 30
0.0
 11
1527.970593930113
 21
1320.494460905133
 31
0.0
  0
LINE
  5
18CF0
330
18C7A
100
AcDbEntity
  8
細線
 48
50.0
100
AcDbLine
 10
2017.970593930113
 20
1320.494443351421
 30
0.0
 11
2117.970593930113
 21
1320.494443351421
 31
0.0
  0
LINE
  5
18CF1
330
18C7A
100
AcDbEntity
  8
細線
 48
50.0
100
AcDbLine
 10
1737.970593930113
 20
1320.494443351419
 30
0.0
 11
1807.970593930113
 21
1320.494443351423
 31
0.0
  0
LINE
  5
18CF2
330
18C7A
100
AcDbEntity
  8
細線
 48
50.0
100
AcDbLine
 10
1750.832558942642
 20
1320.494443351419
 30
0.0
 11
1756.588076525309
 21
1338.765294641913
 31
0.0
  0
LINE
  5
18CF3
330
18C7A
100
AcDbEntity
  8
細線
 48
50.0
100
AcDbLine
 10
1756.588076525309
 20
1338.765294641913
 30
0.0
 11
1767.516525005743
 21
1338.765294641911
 31
0.0
  0
ARC
  5
18CF4
330
18C7A
100
AcDbEntity
  8
細線
 48
50.0
100
AcDbCircle
 10
1767.516525005743
 20
1337.765294641911
 30
0.0
 40
1.0
100
AcDbArc
 50
24.62431835207225
 51
90.0
  0
ARC
  5
18CF5
330
18C7A
100
AcDbEntity
  8
細線
 48
50.0
100
AcDbCircle
 10
1778.425237120377
 20
1337.765294641911
 30
0.0
 40
1.0
100
AcDbArc
 50
90.0
 51
155.3756816479277
  0
ARC
  5
18CF6
330
18C7A
100
AcDbEntity
  8
細線
 48
50.0
100
AcDbCircle
 10
1772.970881063058
 20
1340.265294641911
 30
0.0
 40
5.0
100
AcDbArc
 50
204.6243183520723
 51
335.3756816479278
  0
LINE
  5
18CF7
330
18C7A
100
AcDbEntity
  8
細線
 48
50.0
100
AcDbLine
 10
1778.425237120377
 20
1338.765294641911
 30
0.0
 11
1789.35368560081
 21
1338.765294641913
 31
0.0
  0
LINE
  5
18CF8
330
18C7A
100
AcDbEntity
  8
細線
 48
50.0
100
AcDbLine
 10
1789.35368560081
 20
1338.765294641913
 30
0.0
 11
1795.109203183478
 21
1320.494443351423
 31
0.0
  0
LINE
  5
18CF9
330
18C7A
100
AcDbEntity
  8
細線
 48
50.0
100
AcDbLine
 10
2087.970593930113
 20
1341.094443351419
 30
0.0
 11
1336.970593930116
 21
1341.094443351418
 31
0.0
  0
LINE
  5
18CFA
330
18C7A
100
AcDbEntity
  8
細線
 48
50.0
100
AcDbLine
 10
1947.970593930113
 20
1320.494443351421
 30
0.0
 11
1877.970593930113
 21
1320.494443351421
 31
0.0
  0
LINE
  5
18CFB
330
18C7A
100
AcDbEntity
  8
細線
100
AcDbLine
 10
1667.970593930113
 20
1320.494443351421
 30
0.0
 11
1597.970602115529
 21
1320.494443351421
 31
0.0
  0
LINE
  5
18CFC
330
18C7A
100
AcDbEntity
  8
細線
 48
50.0
100
AcDbLine
 10
2741.970584622936
 20
1375.094487209288
 30
0.0
 11
2106.970593930113
 21
1375.094487209284
 31
0.0
  0
LINE
  5
18CFD
330
18C7A
100
AcDbEntity
  8
細線
 48
50.0
100
AcDbLine
 10
2106.970593930113
 20
1371.990637616925
 30
0.0
 11
2106.970593930113
 21
1376.490637616925
 31
0.0
  0
LINE
  5
18CFE
330
18C7A
100
AcDbEntity
  8
細線
 48
50.0
100
AcDbLine
 10
2106.970593930113
 20
1376.490637616925
 30
0.0
 11
2091.970593930113
 21
1376.490637616925
 31
0.0
  0
LINE
  5
18CFF
330
18C7A
100
AcDbEntity
  8
細線
 48
50.0
100
AcDbLine
 10
2091.970593930113
 20
1376.490637616925
 30
0.0
 11
2091.970593930113
 21
1383.490637616927
 31
0.0
  0
LINE
  5
18D00
330
18C7A
100
AcDbEntity
  8
細線
 48
50.0
100
AcDbLine
 10
2091.970593930113
 20
1383.490637616927
 30
0.0
 11
2076.970593930115
 21
1383.490637616924
 31
0.0
  0
LINE
  5
18D01
330
18C7A
100
AcDbEntity
  8
細線
 48
50.0
100
AcDbLine
 10
2076.970593930115
 20
1383.490637616924
 30
0.0
 11
2076.970593930115
 21
1345.890409513813
 31
0.0
  0
LINE
  5
18D02
330
18C7A
100
AcDbEntity
  8
細線
 48
50.0
100
AcDbLine
 10
2076.970593930115
 20
1345.890409513813
 30
0.0
 11
2096.970601231289
 21
1345.890451063353
 31
0.0
  0
LINE
  5
18D03
330
18C7A
100
AcDbEntity
  8
細線
 48
50.0
100
AcDbLine
 10
2096.970556362348
 20
1354.493912699161
 30
0.0
 11
2096.970601231289
 21
1345.890451063353
 31
0.0
  0
LINE
  5
18D04
330
18C7A
100
AcDbEntity
  8
細線
 48
50.0
100
AcDbLine
 10
2741.970584622936
 20
1371.644487209287
 30
0.0
 11
2741.970584622936
 21
1376.494487209284
 31
0.0
  0
LINE
  5
18D05
330
18C7A
100
AcDbEntity
  8
細線
 48
50.0
100
AcDbLine
 10
2741.970584622936
 20
1376.494487209284
 30
0.0
 11
2756.970584622934
 21
1376.494487209285
 31
0.0
  0
LINE
  5
18D06
330
18C7A
100
AcDbEntity
  8
細線
 48
50.0
100
AcDbLine
 10
2756.970584622934
 20
1376.494487209285
 30
0.0
 11
2756.970596256909
 21
1383.494487209331
 31
0.0
  0
LINE
  5
18D07
330
18C7A
100
AcDbEntity
  8
細線
 48
50.0
100
AcDbLine
 10
2756.970596256909
 20
1383.494487209331
 30
0.0
 11
2771.970594427439
 21
1383.494487209329
 31
0.0
  0
LINE
  5
18D08
330
18C7A
100
AcDbEntity
  8
細線
 48
50.0
100
AcDbLine
 10
2771.970594427439
 20
1383.494487209329
 30
0.0
 11
2771.970584125617
 21
1354.494281037055
 31
0.0
  0
LINE
  5
18D09
330
18C7A
100
AcDbEntity
  8
細線
 48
50.0
100
AcDbLine
 10
2458.070304175992
 20
1354.494278397076
 30
0.0
 11
2389.470863838818
 21
1354.494283787084
 31
0.0
  0
LINE
  5
18D0A
330
18C7A
100
AcDbEntity
  8
細線
 48
50.0
100
AcDbLine
 10
2096.970556362348
 20
1354.493912699161
 30
0.0
 11
2108.203245717057
 21
1354.494095652309
 31
0.0
  0
ARC
  5
18D0B
330
18C7A
100
AcDbEntity
  8
細線
 48
50.0
100
AcDbCircle
 10
2114.785538024393
 20
1353.294259565922
 30
0.0
 40
1.8
100
AcDbArc
 50
270.0006665777295
 51
345.000555481349
  0
LINE
  5
18D0C
330
18C7A
100
AcDbEntity
  8
細線
 48
50.0
100
AcDbLine
 10
2116.771971470473
 20
1353.753100023201
 30
0.0
 11
2116.524209028273
 21
1352.828402141094
 31
0.0
  0
LINE
  5
18D0D
330
18C7A
100
AcDbEntity
  8
細線
 48
50.0
100
AcDbLine
 10
2114.785558965548
 20
1351.494259566043
 30
0.0
 11
2111.155631546781
 21
1351.494217335563
 31
0.0
  0
ARC
  5
18D0E
330
18C7A
100
AcDbEntity
  8
細線
 48
50.0
100
AcDbCircle
 10
2111.155610605627
 20
1353.29421733544
 30
0.0
 40
1.8
100
AcDbArc
 50
195.0010443049965
 51
270.0006665777295
  0
LINE
  5
18D0F
330
18C7A
100
AcDbEntity
  8
細線
 48
50.0
100
AcDbLine
 10
2109.169183113368
 20
1353.752932303007
 30
0.0
 11
2109.416952609882
 21
1352.828311364425
 31
0.0
  0
ARC
  5
18D10
330
18C7A
100
AcDbEntity
  8
細線
 48
50.0
100
AcDbCircle
 10
2108.203262004622
 20
1353.494095652444
 30
0.0
 40
1.0
100
AcDbArc
 50
15.00104430499651
 51
90.00093320877969
  0
LINE
  5
18D11
330
18C7A
100
AcDbEntity
  8
細線
 48
50.0
100
AcDbLine
 10
2117.737892825577
 20
1354.494290342714
 30
0.0
 11
2118.679652976481
 21
1354.494296916564
 31
0.0
  0
ARC
  5
18D12
330
18C7A
100
AcDbEntity
  8
細線
 48
50.0
100
AcDbCircle
 10
2117.737899805961
 20
1353.49429034274
 30
0.0
 40
1.0
100
AcDbArc
 50
90.0003999466794
 51
165.000555481349
  0
LINE
  5
18D13
330
18C7A
100
AcDbEntity
  8
細線
 48
50.0
100
AcDbLine
 10
2669.470584622926
 20
1354.494281037055
 30
0.0
 11
2771.970584125617
 21
1354.494281037055
 31
0.0
  0
LINE
  5
18D14
330
18C7A
100
AcDbEntity
  8
細線
 48
50.0
100
AcDbLine
 10
2179.47061994182
 20
1354.494289224422
 30
0.0
 11
2118.370558714898
 21
1354.494296916564
 31
0.0
  0
LINE
  5
18D15
330
18C7A
100
AcDbEntity
  8
細線
 48
50.0
100
AcDbLine
 10
2599.470584622926
 20
1354.494281037057
 30
0.0
 11
2529.470584622926
 21
1354.494281037055
 31
0.0
  0
LINE
  5
18D16
330
18C7A
100
AcDbEntity
  8
細線
 48
50.0
100
AcDbLine
 10
2319.470584622926
 20
1354.494281037054
 30
0.0
 11
2249.470567335051
 21
1354.494281037057
 31
0.0
  0
ARC
  5
18D17
330
18C7A
100
AcDbEntity
  8
細線
 48
50.0
100
AcDbCircle
 10
2756.170589276533
 20
1387.694269174466
 30
0.0
 40
0.8
100
AcDbArc
 50
359.9997333689499
 51
89.99986668437072
  0
ARC
  5
18D18
330
18C7A
100
AcDbEntity
  8
細線
 48
50.0
100
AcDbCircle
 10
2763.770596101631
 20
1387.694280343081
 30
0.0
 40
0.8
100
AcDbArc
 50
90.00014387753465
 51
179.9997333689498
  0
LINE
  5
18D19
330
18C7A
100
AcDbEntity
  8
細線
 48
50.0
100
AcDbLine
 10
2756.170591137969
 20
1388.494269174465
 30
0.0
 11
2750.970589276525
 21
1388.494269174465
 31
0.0
  0
ARC
  5
18D1A
330
18C7A
100
AcDbEntity
  8
細線
 48
50.0
100
AcDbCircle
 10
2757.670589276524
 20
1386.194269174464
 30
0.0
 40
0.7
100
AcDbArc
 50
180.0
 51
270.0
  0
ARC
  5
18D1B
330
18C7A
100
AcDbEntity
  8
細線
 48
50.0
100
AcDbCircle
 10
2762.270589276524
 20
1386.194269174464
 30
0.0
 40
0.7
100
AcDbArc
 50
270.0
 51
0.0
  0
LINE
  5
18D1C
330
18C7A
100
AcDbEntity
  8
細線
 48
50.0
100
AcDbLine
 10
2762.970589276525
 20
1386.194269174464
 30
0.0
 11
2762.970596101639
 21
1387.694284065954
 31
0.0
  0
LINE
  5
18D1D
330
18C7A
100
AcDbEntity
  8
細線
 48
50.0
100
AcDbLine
 10
2757.670589276524
 20
1385.494269174465
 30
0.0
 11
2762.270589276524
 21
1385.494269174465
 31
0.0
  0
LINE
  5
18D1E
330
18C7A
100
AcDbEntity
  8
細線
 48
50.0
100
AcDbLine
 10
2756.970589276525
 20
1387.694269174466
 30
0.0
 11
2756.970589276525
 21
1386.194269174464
 31
0.0
  0
LINE
  5
18D1F
330
18C7A
100
AcDbEntity
  8
細線
 48
50.0
100
AcDbLine
 10
3382.570589276527
 20
1418.494269174465
 30
0.0
 11
2745.970589276525
 21
1418.494269174463
 31
0.0
  0
LINE
  5
18D20
330
18C7A
100
AcDbEntity
  8
細線
 48
50.0
100
AcDbLine
 10
3408.470589276525
 20
1413.494269174467
 30
0.0
 11
3392.570589276527
 21
1413.494269174465
 31
0.0
  0
LINE
  5
18D21
330
18C7A
100
AcDbEntity
  8
細線
 48
50.0
100
AcDbLine
 10
3392.570589276526
 20
1413.494269174465
 30
0.0
 11
3382.570589276527
 21
1418.494269174465
 31
0.0
  0
LINE
  5
18D22
330
18C7A
100
AcDbEntity
  8
細線
100
AcDbLine
 10
2993.470589276525
 20
1388.494269174465
 30
0.0
 11
2993.470589276525
 21
1417.794269174464
 31
0.0
  0
LINE
  5
18D23
330
18C7A
100
AcDbEntity
  8
細線
100
AcDbLine
 10
2993.470589276525
 20
1417.794269174464
 30
0.0
 11
3013.470589276525
 21
1417.794269174464
 31
0.0
  0
LINE
  5
18D24
330
18C7A
100
AcDbEntity
  8
細線
100
AcDbLine
 10
3013.470589276525
 20
1388.494269174465
 30
0.0
 11
3013.470589276525
 21
1417.794269174464
 31
0.0
  0
LINE
  5
18D25
330
18C7A
100
AcDbEntity
  8
細線
100
AcDbLine
 10
3170.720589276524
 20
1388.494269174465
 30
0.0
 11
3100.720589276523
 21
1388.494269174465
 31
0.0
  0
LINE
  5
18D26
330
18C7A
100
AcDbEntity
  8
細線
 48
50.0
100
AcDbLine
 10
2890.720589276525
 20
1388.494269174465
 30
0.0
 11
2763.766368849365
 21
1388.494269174465
 31
0.0
  0
LINE
  5
18D27
330
18C7A
100
AcDbEntity
  8
細線
100
AcDbLine
 10
3030.720589276525
 20
1388.494269174465
 30
0.0
 11
2960.720589276525
 21
1388.494269174465
 31
0.0
  0
LINE
  5
18D28
330
18C7A
100
AcDbEntity
  8
細線
 48
50.0
100
AcDbLine
 10
2750.970589276525
 20
1380.494269174465
 30
0.0
 11
2750.970589276525
 21
1388.494269174465
 31
0.0
  0
LINE
  5
18D29
330
18C7A
100
AcDbEntity
  8
細線
 48
50.0
100
AcDbLine
 10
2730.970589276524
 20
1380.494269174467
 30
0.0
 11
2750.970589276525
 21
1380.494269174465
 31
0.0
  0
LINE
  5
18D2A
330
18C7A
100
AcDbEntity
  8
細線
 48
50.0
100
AcDbLine
 10
2745.970589276525
 20
1418.494269174465
 30
0.0
 11
2745.970589276525
 21
1413.494269174465
 31
0.0
  0
LINE
  5
18D2B
330
18C7A
100
AcDbEntity
  8
細線
 48
50.0
100
AcDbLine
 10
2730.970589276525
 20
1418.494269174463
 30
0.0
 11
2745.970589276525
 21
1418.494269174465
 31
0.0
  0
LINE
  5
18D2C
330
18C7A
100
AcDbEntity
  8
細線
 48
50.0
100
AcDbLine
 10
2730.970589276524
 20
1380.494269174467
 30
0.0
 11
2730.970589276525
 21
1418.494269174463
 31
0.0
  0
LINE
  5
18D2D
330
18C7A
100
AcDbEntity
  8
細線
100
AcDbLine
 10
3398.970589276523
 20
1388.494269174465
 30
0.0
 11
3240.720589276525
 21
1388.494269174465
 31
0.0
  0
LINE
  5
18D2E
330
18C7A
100
AcDbEntity
  8
細線
 48
50.0
100
AcDbLine
 10
3408.470589276525
 20
1413.494269174467
 30
0.0
 11
3408.470589276524
 21
1388.494269174465
 31
0.0
  0
TEXT
  5
18D2F
330
18C7A
100
AcDbEntity
  8
部品1
100
AcDbText
 10
1860.154865991392
 20
46.99880823813145
 30
0.0
 40
135.0
  1
平面図
  7
STYLE2
100
AcDbText
  0
LWPOLYLINE
  5
18D30
330
18C7A
100
AcDbEntity
  8
部品1
100
AcDbPolyline
 90
        4
 70
     1
 43
0.0
 10
1770.23525616235
 20
239.8923374566548
 10
1770.23525616235
 20
0.0000159111223184
 10
2533.705922390791
 20
0.0000159111223184
 10
2533.705922390791
 20
239.8923374566548
  0
LINE
  5
18D31
330
18C7A
100
AcDbEntity
  8
部品1
100
AcDbLine
 10
1534.470589276487
 20
3154.494269174626
 30
0.0
 11
2769.470589276552
 21
3154.494269174626
 31
0.0
  0
LINE
  5
18D32
330
18C7A
100
AcDbEntity
  8
部品1
 48
50.0
100
AcDbLine
 10
1311.970589276523
 20
1420.494269174462
 30
0.0
 11
3411.970589276523
 21
1420.494269174465
 31
0.0
  0
LINE
  5
18D33
330
18C7A
100
AcDbEntity
  8
部品1
 48
50.0
100
AcDbLine
 10
471.9705892765232
 20
1392.494269174465
 30
0.0
 11
1311.970589276523
 21
1392.494269174465
 31
0.0
  0
DIMENSION
  5
18D34
330
18C7A
100
AcDbEntity
  8
寸法
100
AcDbDimension
  2
*D14
 10
2710.234916278077
 20
2488.887829538828
 30
0.0
 11
2338.318822490183
 21
2488.887829538828
 31
0.0
 12
-3742.925985830444
 22
-6453.628869860112
 32
0.0
 70
   128
 71
     5
 42
1231.00000000007
  3
INABA_S40G
100
AcDbAlignedDimension
 13
1536.470589276486
 23
2702.494269174557
 33
0.0
 14
2767.470589276556
 24
2702.494269174549
 34
0.0
100
AcDbRotatedDimension
1001
ACAD
1000
DSTYLE
1002
{
1002
}
  0
LINE
  5
18D35
330
18C7A
100
AcDbEntity
  8
部品1
100
AcDbLine
 10
1536.470589276487
 20
2702.494269174557
 30
0.0
 11
2767.470589276554
 21
2702.494269174615
 31
0.0
  0
LINE
  5
18D36
330
18C7A
100
AcDbEntity
  8
部品1
100
AcDbLine
 10
1536.470589276487
 20
3152.494269174557
 30
0.0
 11
2767.470589276556
 21
3152.494269174615
 31
0.0
  0
LINE
  5
18D37
330
18C7A
100
AcDbEntity
  8
細線
 48
50.0
100
AcDbLine
 10
1508.470589276487
 20
3152.494269174558
 30
0.0
 11
445.4705892765559
 21
2702.494269174509
 31
0.0
  0
LINE
  5
18D38
330
18C7A
100
AcDbEntity
  8
細線
 48
50.0
100
AcDbLine
 10
1508.470589276487
 20
2702.494269174558
 30
0.0
 11
445.4705892765542
 21
3152.494269174509
 31
0.0
  0
LINE
  5
18D39
330
18C7A
100
AcDbEntity
  8
部品1
100
AcDbLine
 10
1556.970589276487
 20
3172.494269174611
 30
0.0
 11
1556.970589276487
 21
3154.494269174611
 31
0.0
  0
LINE
  5
18D3A
330
18C7A
100
AcDbEntity
  8
部品1
100
AcDbLine
 10
1556.970589276487
 20
3172.494269174611
 30
0.0
 11
1550.970589276487
 21
3172.494269174611
 31
0.0
  0
LINE
  5
18D3B
330
18C7A
100
AcDbEntity
  8
部品1
100
AcDbLine
 10
1534.470589276487
 20
3146.494269174608
 30
0.0
 11
1509.470589276487
 21
3146.494269174611
 31
0.0
  0
LINE
  5
18D3C
330
18C7A
100
AcDbEntity
  8
部品1
100
AcDbLine
 10
1486.970589276487
 20
3172.494269174611
 30
0.0
 11
1486.970589276487
 21
3154.494269174611
 31
0.0
  0
LINE
  5
18D3D
330
18C7A
100
AcDbEntity
  8
部品1
100
AcDbLine
 10
1492.970589276487
 20
3172.494269174611
 30
0.0
 11
1486.970589276487
 21
3172.494269174611
 31
0.0
  0
LINE
  5
18D3E
330
18C7A
100
AcDbEntity
  8
部品1
100
AcDbLine
 10
1534.470589276487
 20
2702.494269174615
 30
0.0
 11
1509.470589276487
 21
2702.494269174615
 31
0.0
  0
LINE
  5
18D3F
330
18C7A
100
AcDbEntity
  8
部品1
 48
50.0
100
AcDbLine
 10
1536.470589276487
 20
3152.494269174611
 30
0.0
 11
1536.470589276487
 21
2702.494269174615
 31
0.0
  0
LINE
  5
18D40
330
18C7A
100
AcDbEntity
  8
部品1
 48
50.0
100
AcDbLine
 10
1508.470589276487
 20
3152.494269174607
 30
0.0
 11
1508.470589276487
 21
2702.494269174615
 31
0.0
  0
LINE
  5
18D41
330
18C7A
100
AcDbEntity
  8
部品1
 48
50.0
100
AcDbLine
 10
1534.470589276487
 20
3154.494269174618
 30
0.0
 11
1534.470589276487
 21
2702.494269174615
 31
0.0
  0
LINE
  5
18D42
330
18C7A
100
AcDbEntity
  8
部品1
 48
50.0
100
AcDbLine
 10
1509.470589276487
 20
3154.494269174615
 30
0.0
 11
1509.470589276487
 21
2702.494269174615
 31
0.0
  0
LINE
  5
18D43
330
18C7A
100
AcDbEntity
  8
部品1
100
AcDbLine
 10
3411.970589276556
 20
1392.494269174582
 30
0.0
 11
3411.970589276556
 21
1420.494269174596
 31
0.0
  0
LINE
  5
18D44
330
18C7A
100
AcDbEntity
  8
部品1
100
AcDbLine
 10
1311.970589276523
 20
1392.494269174596
 30
0.0
 11
1311.970589276523
 21
1420.494269174596
 31
0.0
  0
LINE
  5
18D45
330
18C7A
100
AcDbEntity
  8
部品1
100
AcDbLine
 10
891.9705892765232
 20
1392.494269174596
 30
0.0
 11
891.9705892765232
 21
1420.494269174596
 31
0.0
  0
LINE
  5
18D46
330
18C7A
100
AcDbEntity
  8
部品1
100
AcDbLine
 10
3411.97058927652
 20
3182.494269174477
 30
0.0
 11
3411.970589276523
 21
3154.494269174477
 31
0.0
  0
LINE
  5
18D47
330
18C7A
100
AcDbEntity
  8
部品1
100
AcDbLine
 10
2571.97058927652
 20
3182.494269174477
 30
0.0
 11
2571.970589276523
 21
3154.494269174477
 31
0.0
  0
LINE
  5
18D48
330
18C7A
100
AcDbEntity
  8
部品1
100
AcDbLine
 10
2991.97058927652
 20
3182.494269174477
 30
0.0
 11
2991.970589276523
 21
3154.494269174477
 31
0.0
  0
LINE
  5
18D49
330
18C7A
100
AcDbEntity
  8
部品1
100
AcDbLine
 10
2151.970589276519
 20
3182.494269174477
 30
0.0
 11
2151.970589276523
 21
3154.494269174477
 31
0.0
  0
LINE
  5
18D4A
330
18C7A
100
AcDbEntity
  8
部品1
100
AcDbLine
 10
1731.970589276519
 20
3182.494269174477
 30
0.0
 11
1731.970589276523
 21
3154.494269174477
 31
0.0
  0
LINE
  5
18D4B
330
18C7A
100
AcDbEntity
  8
部品1
100
AcDbLine
 10
1311.970589276519
 20
3182.494269174477
 30
0.0
 11
1311.970589276523
 21
3154.494269174477
 31
0.0
  0
LINE
  5
18D4C
330
18C7A
100
AcDbEntity
  8
部品1
100
AcDbLine
 10
891.9705892765195
 20
3182.494269174477
 30
0.0
 11
891.9705892765232
 21
3154.494269174477
 31
0.0
  0
LINE
  5
18D4D
330
18C7A
100
AcDbEntity
  8
部品1
100
AcDbLine
 10
471.9705892765232
 20
1392.494269174596
 30
0.0
 11
471.9705892765232
 21
1420.494269174596
 31
0.0
  0
LINE
  5
18D4E
330
18C7A
100
AcDbEntity
  8
部品1
100
AcDbLine
 10
444.9705892765305
 20
1420.494269174558
 30
0.0
 11
3858.970589276556
 21
1420.494269174596
 31
0.0
  0
LINE
  5
18D4F
330
18C7A
100
AcDbEntity
  8
部品1
100
AcDbLine
 10
3831.970589276556
 20
1392.494269174596
 30
0.0
 11
3831.970589276556
 21
1420.494269174596
 31
0.0
  0
LINE
  5
18D50
330
18C7A
100
AcDbEntity
  8
部品1
100
AcDbLine
 10
3858.970589276556
 20
1447.494269174593
 30
0.0
 11
3886.970589276556
 21
1447.494269174593
 31
0.0
  0
LINE
  5
18D51
330
18C7A
100
AcDbEntity
  8
部品1
100
AcDbLine
 10
3858.970589276556
 20
1867.494269174607
 30
0.0
 11
3886.970589276556
 21
1867.494269174607
 31
0.0
  0
LINE
  5
18D52
330
18C7A
100
AcDbEntity
  8
部品1
100
AcDbLine
 10
444.9705892765305
 20
1867.49426917448
 30
0.0
 11
416.9705892765305
 21
1867.49426917448
 31
0.0
  0
LINE
  5
18D53
330
18C7A
100
AcDbEntity
  8
部品1
100
AcDbLine
 10
3830.470589276541
 20
1867.49426917458
 30
0.0
 11
473.4705892765396
 21
1867.49426917448
 31
0.0
  0
LINE
  5
18D54
330
18C7A
100
AcDbEntity
  8
部品1
100
AcDbLine
 10
3830.470589276541
 20
2287.49426917458
 30
0.0
 11
473.4705892765396
 21
2287.49426917448
 31
0.0
  0
LINE
  5
18D55
330
18C7A
100
AcDbEntity
  8
部品1
100
AcDbLine
 10
444.9705892765305
 20
2287.49426917448
 30
0.0
 11
416.9705892765305
 21
2287.49426917448
 31
0.0
  0
LINE
  5
18D56
330
18C7A
100
AcDbEntity
  8
部品1
100
AcDbLine
 10
3858.970589276556
 20
2287.494269174608
 30
0.0
 11
3886.970589276556
 21
2287.494269174608
 31
0.0
  0
LINE
  5
18D57
330
18C7A
100
AcDbEntity
  8
部品1
 48
50.0
100
AcDbLine
 10
2151.970589276551
 20
2702.494269174586
 30
0.0
 11
2151.970589276581
 21
1448.994269174494
 31
0.0
  0
LINE
  5
18D58
330
18C7A
100
AcDbEntity
  8
破線
 48
10.0
100
AcDbLine
 10
2959.470589276535
 20
1472.494269174522
 30
0.0
 11
2176.970589276532
 21
1472.494269174505
 31
0.0
  0
LINE
  5
18D59
330
18C7A
100
AcDbEntity
  8
破線
 48
10.0
100
AcDbLine
 10
3009.47058927653
 20
1448.994269174509
 30
0.0
 11
3009.47058927653
 21
2702.494269174615
 31
0.0
  0
LINE
  5
18D5A
330
18C7A
100
AcDbEntity
  8
破線
 48
10.0
100
AcDbLine
 10
2959.470589276535
 20
1448.994269174505
 30
0.0
 11
2959.470589276531
 21
2702.494269174615
 31
0.0
  0
LINE
  5
18D5B
330
18C7A
100
AcDbEntity
  8
破線
 48
10.0
100
AcDbLine
 10
1344.47058927653
 20
1448.994269174509
 30
0.0
 11
1344.47058927653
 21
2702.494269174615
 31
0.0
  0
LINE
  5
18D5C
330
18C7A
100
AcDbEntity
  8
破線
 48
10.0
100
AcDbLine
 10
1294.470589276534
 20
1448.994269174505
 30
0.0
 11
1294.47058927653
 21
2702.494269174615
 31
0.0
  0
DIMENSION
  5
18D5D
330
18C7A
100
AcDbEntity
  8
寸法
100
AcDbDimension
  2
*D13
 10
1451.234916278005
 20
2488.887829538828
 30
0.0
 11
916.0604668248634
 21
2488.887829538828
 31
0.0
 12
-3742.925985830444
 22
-6453.628869860112
 32
0.0
 70
   128
 71
     5
 42
1062.99999999993
  3
INABA_S40G
100
AcDbAlignedDimension
 13
445.4705892765559
 23
2702.494269174505
 33
0.0
 14
1508.470589276486
 24
2702.494269174558
 34
0.0
100
AcDbRotatedDimension
1001
ACAD
1000
DSTYLE
1002
{
1002
}
  0
LINE
  5
18D5E
330
18C7A
100
AcDbEntity
  8
破線
 48
10.0
100
AcDbLine
 10
1294.470589276534
 20
1472.494269174469
 30
0.0
 11
496.9705892765414
 21
1472.494269174476
 31
0.0
  0
LINE
  5
18D5F
330
18C7A
100
AcDbEntity
  8
部品1
100
AcDbLine
 10
3831.970589276556
 20
3182.494269174604
 30
0.0
 11
3831.970589276556
 21
3154.494269174604
 31
0.0
  0
LINE
  5
18D60
330
18C7A
100
AcDbEntity
  8
部品1
100
AcDbLine
 10
3831.970589276556
 20
3182.494269174626
 30
0.0
 11
3831.970589276556
 21
3154.494269174626
 31
0.0
  0
LINE
  5
18D61
330
18C7A
100
AcDbEntity
  8
部品1
100
AcDbLine
 10
3858.970589276556
 20
3127.494269174607
 30
0.0
 11
3886.970589276556
 21
3127.494269174607
 31
0.0
  0
LINE
  5
18D62
330
18C7A
100
AcDbEntity
  8
部品1
100
AcDbLine
 10
3858.970589276556
 20
2707.494269174608
 30
0.0
 11
3886.970589276556
 21
2707.494269174608
 31
0.0
  0
LINE
  5
18D63
330
18C7A
100
AcDbEntity
  8
部品1
100
AcDbLine
 10
3858.470589276556
 20
3152.494269174604
 30
0.0
 11
3858.470589276556
 21
2702.494269174608
 31
0.0
  0
LINE
  5
18D64
330
18C7A
100
AcDbEntity
  8
部品1
100
AcDbLine
 10
3886.970589276533
 20
1447.494269174593
 30
0.0
 11
3886.970589276531
 21
1392.494269174596
 31
0.0
  0
LINE
  5
18D65
330
18C7A
100
AcDbEntity
  8
部品1
 48
50.0
100
AcDbLine
 10
3830.470589276556
 20
1448.994269174596
 30
0.0
 11
3858.970589276554
 21
1420.494269174596
 31
0.0
  0
LINE
  5
18D66
330
18C7A
100
AcDbEntity
  8
部品1
100
AcDbLine
 10
3886.970589276531
 20
1392.494269174596
 30
0.0
 11
3835.970589276531
 21
1392.494269174596
 31
0.0
  0
LINE
  5
18D67
330
18C7A
100
AcDbEntity
  8
部品1
100
AcDbLine
 10
3858.970589276533
 20
1447.494269174593
 30
0.0
 11
3886.970589276531
 21
1447.494269174593
 31
0.0
  0
LINE
  5
18D68
330
18C7A
100
AcDbEntity
  8
部品1
100
AcDbLine
 10
3886.970589276556
 20
3182.494269174604
 30
0.0
 11
3886.970589276531
 21
1392.494269174596
 31
0.0
  0
DIMENSION
  5
18D69
330
18C7A
100
AcDbEntity
  8
寸法
100
AcDbDimension
  2
*D12
 10
4534.396935010967
 20
1447.494269174593
 30
0.0
 11
4534.396935010965
 21
2287.4942691746
 31
0.0
 12
-3742.925985830444
 22
-6453.628869860112
 32
0.0
 70
   128
  1
4X420=<>
 71
     5
 42
1680.000000000014
  3
INABA_S40G
100
AcDbAlignedDimension
 13
3886.970589276556
 23
3127.494269174607
 33
0.0
 14
3886.970589276531
 24
1447.494269174593
 34
0.0
 50
90.0
100
AcDbRotatedDimension
1001
ACAD
1000
DSTYLE
1002
{
1002
}
  0
LINE
  5
18D6A
330
18C7A
100
AcDbEntity
  8
部品1
100
AcDbLine
 10
3858.970589276556
 20
3154.494269174604
 30
0.0
 11
3858.970589276534
 21
1420.494269174596
 31
0.0
  0
DIMENSION
  5
18D6B
330
18C7A
100
AcDbEntity
  8
寸法
100
AcDbDimension
  2
*D11
 10
4213.82831513858
 20
2607.276453505718
 30
0.0
 11
4113.828315138579
 21
2832.276453505718
 31
0.0
 12
-3742.925985830444
 22
-6453.628869860112
 32
0.0
 71
     5
 42
449.9999999999963
  3
INABA_S40G
100
AcDbAlignedDimension
 13
3858.470589276556
 23
3152.494269174604
 33
0.0
 14
3858.470589276556
 24
2702.494269174608
 34
0.0
 50
90.0
100
AcDbRotatedDimension
1001
ACAD
1000
DSTYLE
1002
{
1002
}
  0
LINE
  5
18D6C
330
18C7A
100
AcDbEntity
  8
部品1
100
AcDbLine
 10
3830.470589276547
 20
2702.494269174608
 30
0.0
 11
3830.470589276556
 21
1448.994269174596
 31
0.0
  0
LINE
  5
18D6D
330
18C7A
100
AcDbEntity
  8
破線
 48
10.0
100
AcDbLine
 10
3806.970589276549
 20
2702.494269174608
 30
0.0
 11
3806.970589276558
 21
1472.494269174593
 31
0.0
  0
LINE
  5
18D6E
330
18C7A
100
AcDbEntity
  8
部品1
100
AcDbLine
 10
2769.470589276556
 20
3146.494269174608
 30
0.0
 11
2794.470589276556
 21
3146.494269174611
 31
0.0
  0
LINE
  5
18D6F
330
18C7A
100
AcDbEntity
  8
部品1
100
AcDbLine
 10
2810.970589276556
 20
3172.494269174611
 30
0.0
 11
2816.970589276556
 21
3172.494269174611
 31
0.0
  0
LINE
  5
18D70
330
18C7A
100
AcDbEntity
  8
部品1
100
AcDbLine
 10
2816.970589276556
 20
3172.494269174611
 30
0.0
 11
2816.970589276556
 21
3154.494269174611
 31
0.0
  0
LINE
  5
18D71
330
18C7A
100
AcDbEntity
  8
部品1
100
AcDbLine
 10
2746.970589276556
 20
3172.494269174611
 30
0.0
 11
2752.970589276556
 21
3172.494269174611
 31
0.0
  0
LINE
  5
18D72
330
18C7A
100
AcDbEntity
  8
部品1
100
AcDbLine
 10
2746.970589276556
 20
3172.494269174611
 30
0.0
 11
2746.970589276556
 21
3154.494269174611
 31
0.0
  0
LINE
  5
18D73
330
18C7A
100
AcDbEntity
  8
部品1
100
AcDbLine
 10
2769.470589276556
 20
2702.494269174615
 30
0.0
 11
2794.470589276556
 21
2702.494269174615
 31
0.0
  0
LINE
  5
18D74
330
18C7A
100
AcDbEntity
  8
部品1
 48
50.0
100
AcDbLine
 10
2794.470589276556
 20
3154.494269174615
 30
0.0
 11
2794.470589276556
 21
2702.494269174615
 31
0.0
  0
LINE
  5
18D75
330
18C7A
100
AcDbEntity
  8
部品1
 48
50.0
100
AcDbLine
 10
2769.470589276554
 20
3154.494269174618
 30
0.0
 11
2769.470589276556
 21
2702.494269174615
 31
0.0
  0
LINE
  5
18D76
330
18C7A
100
AcDbEntity
  8
部品1
 48
50.0
100
AcDbLine
 10
2795.470589276556
 20
3152.494269174607
 30
0.0
 11
2795.470589276556
 21
2702.494269174615
 31
0.0
  0
LINE
  5
18D77
330
18C7A
100
AcDbEntity
  8
部品1
 48
50.0
100
AcDbLine
 10
2767.470589276556
 20
3152.494269174611
 30
0.0
 11
2767.470589276556
 21
2702.494269174615
 31
0.0
  0
LINE
  5
18D78
330
18C7A
100
AcDbEntity
  8
破線
 48
10.0
100
AcDbLine
 10
2176.97058927653
 20
1448.994269174509
 30
0.0
 11
2176.97058927653
 21
2702.494269174588
 31
0.0
  0
LINE
  5
18D79
330
18C7A
100
AcDbEntity
  8
破線
 48
10.0
100
AcDbLine
 10
2126.970589276534
 20
1448.994269174505
 30
0.0
 11
2126.970589276531
 21
2702.494269174586
 31
0.0
  0
LINE
  5
18D7A
330
18C7A
100
AcDbEntity
  8
部品1
100
AcDbLine
 10
2794.470589276556
 20
3154.494269174622
 30
0.0
 11
3858.970589276556
 21
3154.494269174604
 31
0.0
  0
LINE
  5
18D7B
330
18C7A
100
AcDbEntity
  8
細線
 48
50.0
100
AcDbLine
 10
3858.470589276556
 20
2702.494269174608
 30
0.0
 11
2795.470589276556
 21
3152.494269174607
 31
0.0
  0
LINE
  5
18D7C
330
18C7A
100
AcDbEntity
  8
部品1
100
AcDbLine
 10
2795.470589276555
 20
2702.494269174615
 30
0.0
 11
3858.470589276556
 21
2702.494269174608
 31
0.0
  0
LINE
  5
18D7D
330
18C7A
100
AcDbEntity
  8
部品1
100
AcDbLine
 10
2795.470589276556
 20
3152.494269174611
 30
0.0
 11
3858.470589276556
 21
3152.494269174604
 31
0.0
  0
LINE
  5
18D7E
330
18C7A
100
AcDbEntity
  8
細線
 48
50.0
100
AcDbLine
 10
3858.470589276556
 20
3152.494269174604
 30
0.0
 11
2795.470589276555
 21
2702.494269174615
 31
0.0
  0
DIMENSION
  5
18D7F
330
18C7A
100
AcDbEntity
  8
寸法
100
AcDbDimension
  2
*D10
 10
3801.234916278101
 20
2488.887829538937
 30
0.0
 11
3318.360544398907
 21
2488.887829538937
 31
0.0
 12
-3742.925985830444
 22
-6453.628869860112
 32
0.0
 70
   128
 71
     5
 42
1063.000000000012
  3
INABA_S40G
100
AcDbAlignedDimension
 13
2795.470589276555
 23
2702.494269174615
 33
0.0
 14
3858.470589276567
 24
2702.494269174608
 34
0.0
100
AcDbRotatedDimension
1001
ACAD
1000
DSTYLE
1002
{
1002
}
  0
LINE
  5
18D80
330
18C7A
100
AcDbEntity
  8
破線
 48
10.0
100
AcDbLine
 10
3806.970589276556
 20
1472.494269174594
 30
0.0
 11
3009.47058927653
 21
1472.494269174523
 31
0.0
  0
DIMENSION
  5
18D81
330
18C7A
100
AcDbEntity
  8
寸法
100
AcDbDimension
  2
*D9
 10
4534.396935010941
 20
1392.494269174596
 30
0.0
 11
4534.39693501094
 21
1084.008987800356
 31
0.0
 12
-3742.925985830444
 22
-6453.628869860112
 32
0.0
 70
   128
 71
     5
 42
54.99999999999636
  3
INABA_S40G
100
AcDbAlignedDimension
 13
3886.970589276531
 23
1447.494269174593
 33
0.0
 14
3886.970589276531
 24
1392.494269174596
 34
0.0
 50
90.0
100
AcDbRotatedDimension
1001
ACAD
1000
DSTYLE
1002
{
1002
}
  0
LINE
  5
18D82
330
18C7A
100
AcDbEntity
  8
部品1
100
AcDbLine
 10
471.9705892765196
 20
3182.494269174477
 30
0.0
 11
471.9705892765232
 21
3154.494269174477
 31
0.0
  0
LINE
  5
18D83
330
18C7A
100
AcDbEntity
  8
部品1
100
AcDbLine
 10
471.9705892765559
 20
3182.494269174509
 30
0.0
 11
471.9705892765559
 21
3154.494269174509
 31
0.0
  0
LINE
  5
18D84
330
18C7A
100
AcDbEntity
  8
部品1
100
AcDbLine
 10
444.9705892765232
 20
3127.49426917448
 30
0.0
 11
416.9705892765232
 21
3127.49426917448
 31
0.0
  0
LINE
  5
18D85
330
18C7A
100
AcDbEntity
  8
部品1
100
AcDbLine
 10
444.9705892765305
 20
2707.49426917448
 30
0.0
 11
416.9705892765305
 21
2707.49426917448
 31
0.0
  0
LINE
  5
18D86
330
18C7A
100
AcDbEntity
  8
部品1
 48
50.0
100
AcDbLine
 10
445.4705892765542
 20
3152.494269174506
 30
0.0
 11
445.4705892765559
 21
2702.494269174505
 31
0.0
  0
LINE
  5
18D87
330
18C7A
100
AcDbEntity
  8
部品1
 48
50.0
100
AcDbLine
 10
473.470589276545
 20
1448.994269174573
 30
0.0
 11
444.970589276545
 21
1420.494269174574
 31
0.0
  0
LINE
  5
18D88
330
18C7A
100
AcDbEntity
  8
部品1
100
AcDbLine
 10
471.9705892765232
 20
1392.494269174465
 30
0.0
 11
416.9705892765486
 21
1392.494269174465
 31
0.0
  0
LINE
  5
18D89
330
18C7A
100
AcDbEntity
  8
部品1
100
AcDbLine
 10
444.9705892765305
 20
1447.494269174429
 30
0.0
 11
416.9705892765469
 21
1447.494269174429
 31
0.0
  0
LINE
  5
18D8A
330
18C7A
100
AcDbEntity
  8
部品1
100
AcDbLine
 10
444.9705892765305
 20
1447.494269174465
 30
0.0
 11
416.9705892765469
 21
1447.494269174465
 31
0.0
  0
LINE
  5
18D8B
330
18C7A
100
AcDbEntity
  8
部品1
100
AcDbLine
 10
444.9705892765469
 20
1447.49426917448
 30
0.0
 11
416.9705892765469
 21
1447.49426917448
 31
0.0
  0
LINE
  5
18D8C
330
18C7A
100
AcDbEntity
  8
部品1
100
AcDbLine
 10
416.9705892765469
 20
1447.494269174429
 30
0.0
 11
416.9705892765486
 21
1392.494269174433
 31
0.0
  0
LINE
  5
18D8D
330
18C7A
100
AcDbEntity
  8
部品1
100
AcDbLine
 10
416.9705892765196
 20
3182.494269174477
 30
0.0
 11
416.9705892765486
 21
1392.494269174465
 31
0.0
  0
LINE
  5
18D8E
330
18C7A
100
AcDbEntity
  8
部品1
100
AcDbLine
 10
444.9705892765305
 20
1420.494269174556
 30
0.0
 11
444.9705892765559
 21
3154.494269174509
 31
0.0
  0
LINE
  5
18D8F
330
18C7A
100
AcDbEntity
  8
部品1
100
AcDbLine
 10
473.4705892765323
 20
2702.494269174608
 30
0.0
 11
473.470589276545
 21
1448.994269174571
 31
0.0
  0
LINE
  5
18D90
330
18C7A
100
AcDbEntity
  8
破線
 48
10.0
100
AcDbLine
 10
496.9705892765305
 20
2702.494269174608
 30
0.0
 11
496.9705892765451
 21
1472.494269174476
 31
0.0
  0
DIMENSION
  5
18D91
330
18C7A
100
AcDbEntity
  8
寸法
100
AcDbDimension
  2
*D8
 10
3886.970589276531
 20
410.7433333855515
 30
0.0
 11
2168.197775309287
 21
410.7433333855515
 31
0.0
 12
-3742.925985830444
 22
-6453.628869860112
 32
0.0
 70
   128
 71
     5
 42
3469.999999999982
  3
INABA_S40G
100
AcDbAlignedDimension
 13
416.9705892765486
 23
1392.494269174433
 33
0.0
 14
3886.970589276531
 24
1392.49426917456
 34
0.0
100
AcDbRotatedDimension
1001
ACAD
1000
DSTYLE
1002
{
1070
   341
1005
0
1002
}
  0
LINE
  5
18D92
330
18C7A
100
AcDbEntity
  8
部品1
100
AcDbLine
 10
444.9705892765559
 20
3154.494269174624
 30
0.0
 11
1509.470589276487
 21
3154.494269174626
 31
0.0
  0
LINE
  5
18D93
330
18C7A
100
AcDbEntity
  8
部品1
100
AcDbLine
 10
3886.970589276531
 20
1392.494269174596
 30
0.0
 11
3411.970589276556
 21
1392.494269174582
 31
0.0
  0
LINE
  5
18D94
330
18C7A
100
AcDbEntity
  8
部品1
100
AcDbLine
 10
416.9705892765559
 20
3182.494269174509
 30
0.0
 11
3886.970589276556
 21
3182.494269174604
 31
0.0
  0
LINE
  5
18D95
330
18C7A
100
AcDbEntity
  8
部品1
100
AcDbLine
 10
445.4705892765559
 20
2702.494269174509
 30
0.0
 11
1508.470589276487
 21
2702.494269174558
 31
0.0
  0
LINE
  5
18D96
330
18C7A
100
AcDbEntity
  8
細線
 48
50.0
100
AcDbLine
 10
2767.470589276556
 20
3152.494269174611
 30
0.0
 11
1536.470589276487
 21
2702.494269174558
 31
0.0
  0
LINE
  5
18D97
330
18C7A
100
AcDbEntity
  8
部品1
100
AcDbLine
 10
445.4705892765542
 20
3152.494269174509
 30
0.0
 11
1508.470589276485
 21
3152.494269174558
 31
0.0
  0
LINE
  5
18D98
330
18C7A
100
AcDbEntity
  8
細線
 48
50.0
100
AcDbLine
 10
2767.470589276554
 20
2702.494269174615
 30
0.0
 11
1536.470589276485
 21
3152.494269174558
 31
0.0
  0
LINE
  5
18D99
330
18C7A
100
AcDbEntity
  8
破線
 48
10.0
100
AcDbLine
 10
2126.970589276534
 20
1472.494269174502
 30
0.0
 11
1344.47058927653
 21
1472.494269174473
 31
0.0
  0
LINE
  5
18D9A
330
18C7A
100
AcDbEntity
  8
部品1
100
AcDbLine
 10
3830.470589276556
 20
1448.994269174596
 30
0.0
 11
473.4705892764487
 21
1448.994269174476
 31
0.0
  0
DIMENSION
  5
18D9B
330
18C7A
100
AcDbEntity
  8
寸法
100
AcDbDimension
  2
*D7
 10
471.970589276555
 20
3698.302488799491
 30
0.0
 11
108.4853079022819
 21
3698.302488799491
 31
0.0
 12
-3742.925985830444
 22
-6453.628869860112
 32
0.0
 70
   128
 71
     5
 42
55.00000000003456
  3
INABA_S40G
100
AcDbAlignedDimension
 13
416.9705892765205
 23
3182.494269174509
 33
0.0
 14
471.970589276555
 24
3182.494269174509
 34
0.0
100
AcDbRotatedDimension
1001
ACAD
1000
DSTYLE
1002
{
1002
}
  0
DIMENSION
  5
18D9C
330
18C7A
100
AcDbEntity
  8
寸法
100
AcDbDimension
  2
*D6
 10
4534.396935010967
 20
3127.494269174607
 30
0.0
 11
4534.396935010965
 21
3490.979550548844
 31
0.0
 12
-3742.925985830444
 22
-6453.628869860112
 32
0.0
 70
   128
 71
     5
 42
54.99999999999636
  3
INABA_S40G
100
AcDbAlignedDimension
 13
3886.970589276556
 23
3182.494269174604
 33
0.0
 14
3886.970589276556
 24
3127.494269174607
 34
0.0
 50
90.0
100
AcDbRotatedDimension
1001
ACAD
1000
DSTYLE
1002
{
1002
}
  0
DIMENSION
  5
18D9D
330
18C7A
100
AcDbEntity
  8
寸法
100
AcDbDimension
  2
*D5
 10
3886.970589276556
 20
3698.302488799589
 30
0.0
 11
4195.455870650794
 21
3698.302488799589
 31
0.0
 12
-3742.925985830444
 22
-6453.628869860112
 32
0.0
 70
   128
 71
     5
 42
55.0
  3
INABA_S40G
100
AcDbAlignedDimension
 13
3831.970589276556
 23
3182.494269174604
 33
0.0
 14
3886.970589276556
 24
3182.494269174604
 34
0.0
100
AcDbRotatedDimension
1001
ACAD
1000
DSTYLE
1002
{
1002
}
  0
DIMENSION
  5
18D9E
330
18C7A
100
AcDbEntity
  8
寸法
100
AcDbDimension
  2
*D4
 10
3831.970589276556
 20
3698.302488799607
 30
0.0
 11
2151.970589276555
 21
3698.302488799607
 31
0.0
 12
-3742.925985830444
 22
-6453.628869860112
 32
0.0
 70
   128
  1
8X420=<>
 71
     5
 42
3360.000000000001
  3
INABA_S40G
100
AcDbAlignedDimension
 13
471.970589276555
 23
3182.494269174509
 33
0.0
 14
3831.970589276556
 24
3182.494269174604
 34
0.0
100
AcDbRotatedDimension
1001
ACAD
1000
DSTYLE
1002
{
1002
}
  0
DIMENSION
  5
18D9F
330
18C7A
100
AcDbEntity
  8
寸法
100
AcDbDimension
  2
*D3
 10
4899.503876750603
 20
1392.494269174596
 30
0.0
 11
4899.503876750601
 21
2287.4942691746
 31
0.0
 12
-3742.925985830444
 22
-6453.628869860112
 32
0.0
 70
   128
 71
     5
 42
1790.000000000007
  3
INABA_S40G
100
AcDbAlignedDimension
 13
3886.970589276556
 23
3182.494269174604
 33
0.0
 14
3886.970589276531
 24
1392.494269174596
 34
0.0
 50
90.0
100
AcDbRotatedDimension
1001
ACAD
1000
DSTYLE
1002
{
1002
}
  0
ENDBLK
  5
18DA1
330
18C7A
100
AcDbEntity
  8
0
 48
50.0
100
AcDbBlockEnd
  0
BLOCK
  5
1C4CB
330
1C4CA
100
AcDbEntity
  8
0
 48
50.0
100
AcDbBlockBegin
  2
_NONE
 70
     0
 10
0.0
 20
0.0
 30
0.0
  3
_NONE
  1

  0
CIRCLE
  5
1C4CC
330
1C4CA
100
AcDbEntity
  8
0
  6
ByBlock
 62
     0
 48
50.0
100
AcDbCircle
 10
0.0
 20
0.0
 30
0.0
 40
0.25
  0
ENDBLK
  5
1C4CD
330
1C4CA
100
AcDbEntity
  8
0
 48
50.0
100
AcDbBlockEnd
  0
BLOCK
  5
20DEE
330
20DE2
100
AcDbEntity
  8
0
 48
50.0
100
AcDbBlockBegin
  2
*D19
 70
     1
 10
0.0
 20
0.0
 30
0.0
  3
*D19
  1

  0
LINE
  5
254FD
330
20DE2
100
AcDbEntity
  8
寸法
 62
     0
 48
50.0
370
    -2
100
AcDbLine
 10
11098.6
 20
7162.304988885508
 30
0.0
 11
11098.6
 21
8160.525310944429
 31
0.0
  0
LINE
  5
254FE
330
20DE2
100
AcDbEntity
  8
寸法
 62
     0
 48
50.0
370
    -2
100
AcDbLine
 10
11143.6
 20
7888.571446979418
 30
0.0
 11
11143.6
 21
8160.525310944429
 31
0.0
  0
LINE
  5
254FF
330
20DE2
100
AcDbEntity
  8
寸法
 62
     0
 48
50.0
370
    -2
100
AcDbLine
 10
11098.6
 20
8100.52531094443
 30
0.0
 11
10998.6
 21
8100.52531094443
 31
0.0
  0
LINE
  5
25500
330
20DE2
100
AcDbEntity
  8
寸法
 62
     0
 48
50.0
370
    -2
100
AcDbLine
 10
11143.6
 20
8100.52531094443
 30
0.0
 11
11480.94924240491
 21
8100.52531094443
 31
0.0
  0
LINE
  5
25501
330
20DE2
100
AcDbEntity
  8
寸法
 62
     0
 48
50.0
370
    -2
100
AcDbLine
 10
11098.6
 20
8100.52531094443
 30
0.0
 11
11143.6
 21
8100.52531094443
 31
0.0
  0
INSERT
  5
25502
330
20DE2
100
AcDbEntity
  8
寸法
 62
     0
 48
50.0
370
    -2
100
AcDbBlockReference
  2
_DOTSMALL
 10
11098.6
 20
8100.52531094443
 30
0.0
 41
100.0
 42
100.0
 43
100.0
  0
INSERT
  5
25503
330
20DE2
100
AcDbEntity
  8
寸法
 62
     0
 48
50.0
370
    -2
100
AcDbBlockReference
  2
_DOTSMALL
 10
11143.6
 20
8100.52531094443
 30
0.0
 41
100.0
 42
100.0
 43
100.0
 50
180.0
  0
MTEXT
  5
25504
330
20DE2
100
AcDbEntity
  8
寸法
 62
     7
 48
50.0
100
AcDbMText
 10
11414.77462120246
 20
8200.52531094443
 30
0.0
 40
120.0
 41
0.0
 71
     5
 72
     1
  1
\A1;a
  7
STYLE1
 73
     1
 44
1.0
1001
ACAD
1000
MTEXTBEGIN
1070
    73
1070
     1
1070
    44
1040
1.0
1070
    74
1070
     0
1000
MTEXTEND
  0
POINT
  5
25505
330
20DE2
100
AcDbEntity
  8
DEFPOINTS
 62
     0
 48
50.0
100
AcDbPoint
 10
11098.6
 20
7142.304988885507
 30
0.0
  0
POINT
  5
25506
330
20DE2
100
AcDbEntity
  8
DEFPOINTS
 62
     0
 48
50.0
100
AcDbPoint
 10
11143.6
 20
7868.571446979419
 30
0.0
  0
POINT
  5
25507
330
20DE2
100
AcDbEntity
  8
DEFPOINTS
 62
     0
 48
50.0
100
AcDbPoint
 10
11143.6
 20
8100.52531094443
 30
0.0
  0
ENDBLK
  5
20DEF
330
20DE2
100
AcDbEntity
  8
0
 48
50.0
100
AcDbBlockEnd
  0
BLOCK
  5
20E08
330
20DFC
100
AcDbEntity
  8
0
 48
50.0
100
AcDbBlockBegin
  2
*D20
 70
     1
 10
0.0
 20
0.0
 30
0.0
  3
*D20
  1

  0
LINE
  5
254F2
330
20DFC
100
AcDbEntity
  8
寸法
 62
     0
 48
50.0
370
    -2
100
AcDbLine
 10
5303.600000000002
 20
7888.571446979421
 30
0.0
 11
5303.600000000002
 21
8160.525310944429
 31
0.0
  0
LINE
  5
254F3
330
20DFC
100
AcDbEntity
  8
寸法
 62
     0
 48
50.0
370
    -2
100
AcDbLine
 10
5348.6
 20
7162.304988885508
 30
0.0
 11
5348.6
 21
8160.525310944429
 31
0.0
  0
LINE
  5
254F4
330
20DFC
100
AcDbEntity
  8
寸法
 62
     0
 48
50.0
370
    -2
100
AcDbLine
 10
5348.6
 20
8100.52531094443
 30
0.0
 11
5448.599999999999
 21
8100.52531094443
 31
0.0
  0
LINE
  5
254F5
330
20DFC
100
AcDbEntity
  8
寸法
 62
     0
 48
50.0
370
    -2
100
AcDbLine
 10
5303.600000000002
 20
8100.52531094443
 30
0.0
 11
4966.250757595083
 21
8100.52531094443
 31
0.0
  0
LINE
  5
254F6
330
20DFC
100
AcDbEntity
  8
寸法
 62
     0
 48
50.0
370
    -2
100
AcDbLine
 10
5348.6
 20
8100.52531094443
 30
0.0
 11
5303.600000000002
 21
8100.52531094443
 31
0.0
  0
INSERT
  5
254F7
330
20DFC
100
AcDbEntity
  8
寸法
 62
     0
 48
50.0
370
    -2
100
AcDbBlockReference
  2
_DOTSMALL
 10
5348.6
 20
8100.52531094443
 30
0.0
 41
100.0
 42
100.0
 43
100.0
 50
180.0
  0
INSERT
  5
254F8
330
20DFC
100
AcDbEntity
  8
寸法
 62
     0
 48
50.0
370
    -2
100
AcDbBlockReference
  2
_DOTSMALL
 10
5303.600000000002
 20
8100.52531094443
 30
0.0
 41
100.0
 42
100.0
 43
100.0
  0
MTEXT
  5
254F9
330
20DFC
100
AcDbEntity
  8
寸法
 62
     7
 48
50.0
100
AcDbMText
 10
5032.42537879754
 20
8200.52531094443
 30
0.0
 40
120.0
 41
0.0
 71
     5
 72
     1
  1
\A1;a
  7
STYLE1
 73
     1
 44
1.0
1001
ACAD
1000
MTEXTBEGIN
1070
    73
1070
     1
1070
    44
1040
1.0
1070
    74
1070
     0
1000
MTEXTEND
  0
POINT
  5
254FA
330
20DFC
100
AcDbEntity
  8
DEFPOINTS
 62
     0
 48
50.0
100
AcDbPoint
 10
5303.600000000002
 20
7868.57144697942
 30
0.0
  0
POINT
  5
254FB
330
20DFC
100
AcDbEntity
  8
DEFPOINTS
 62
     0
 48
50.0
100
AcDbPoint
 10
5348.6
 20
7142.304988885507
 30
0.0
  0
POINT
  5
254FC
330
20DFC
100
AcDbEntity
  8
DEFPOINTS
 62
     0
 48
50.0
100
AcDbPoint
 10
5348.6
 20
8100.52531094443
 30
0.0
  0
ENDBLK
  5
20E09
330
20DFC
100
AcDbEntity
  8
0
 48
50.0
100
AcDbBlockEnd
  0
BLOCK
  5
2274E
330
22742
100
AcDbEntity
  8
0
 48
50.0
100
AcDbBlockBegin
  2
*D25
 70
     1
 10
0.0
 20
0.0
 30
0.0
  3
*D25
  1

  0
LINE
  5
254E7
330
22742
100
AcDbEntity
  8
寸法
 62
     0
 48
50.0
370
    -2
100
AcDbLine
 10
4705.665006330068
 20
7217.304988885524
 30
0.0
 11
4413.721909610671
 21
7217.304988885524
 31
0.0
  0
LINE
  5
254E8
330
22742
100
AcDbEntity
  8
寸法
 62
     0
 48
50.0
370
    -2
100
AcDbLine
 10
5195.156977762461
 20
7142.304988885522
 30
0.0
 11
4413.721909610671
 21
7142.304988885522
 31
0.0
  0
LINE
  5
254E9
330
22742
100
AcDbEntity
  8
寸法
 62
     0
 48
50.0
370
    -2
100
AcDbLine
 10
4473.721909610672
 20
7217.304988885524
 30
0.0
 11
4473.721909610672
 21
7317.304988885524
 31
0.0
  0
LINE
  5
254EA
330
22742
100
AcDbEntity
  8
寸法
 62
     0
 48
50.0
370
    -2
100
AcDbLine
 10
4473.721909610672
 20
7142.304988885522
 30
0.0
 11
4473.721909610672
 21
7042.304988885522
 31
0.0
  0
LINE
  5
254EB
330
22742
100
AcDbEntity
  8
寸法
 62
     0
 48
50.0
370
    -2
100
AcDbLine
 10
4473.721909610672
 20
7217.304988885524
 30
0.0
 11
4473.721909610672
 21
7142.304988885522
 31
0.0
  0
INSERT
  5
254EC
330
22742
100
AcDbEntity
  8
寸法
 62
     0
 48
50.0
370
    -2
100
AcDbBlockReference
  2
_DOTSMALL
 10
4473.721909610672
 20
7217.304988885524
 30
0.0
 41
100.0
 42
100.0
 43
100.0
 50
270.0
  0
INSERT
  5
254ED
330
22742
100
AcDbEntity
  8
寸法
 62
     0
 48
50.0
370
    -2
100
AcDbBlockReference
  2
_DOTSMALL
 10
4473.721909610672
 20
7142.304988885522
 30
0.0
 41
100.0
 42
100.0
 43
100.0
 50
90.0
  0
MTEXT
  5
254EE
330
22742
100
AcDbEntity
  8
寸法
 62
     7
 48
50.0
100
AcDbMText
 10
4373.72190961067
 20
7179.804988885525
 30
0.0
 40
120.0
 41
0.0
 71
     5
 72
     1
  1
\A1;c
  7
STYLE1
 11
0.0000000000000001
 21
1.0
 31
0.0
 73
     1
 44
1.0
1001
ACAD
1000
MTEXTBEGIN
1070
    73
1070
     1
1070
    44
1040
1.0
1070
    74
1070
     0
1000
MTEXTEND
  0
POINT
  5
254EF
330
22742
100
AcDbEntity
  8
DEFPOINTS
 62
     0
 48
50.0
100
AcDbPoint
 10
4725.665006330069
 20
7217.304988885524
 30
0.0
  0
POINT
  5
254F0
330
22742
100
AcDbEntity
  8
DEFPOINTS
 62
     0
 48
50.0
100
AcDbPoint
 10
5215.156977762461
 20
7142.304988885522
 30
0.0
  0
POINT
  5
254F1
330
22742
100
AcDbEntity
  8
DEFPOINTS
 62
     0
 48
50.0
100
AcDbPoint
 10
4473.721909610672
 20
7142.304988885522
 30
0.0
  0
ENDBLK
  5
2274F
330
22742
100
AcDbEntity
  8
0
 48
50.0
100
AcDbBlockEnd
  0
BLOCK
  5
22768
330
2275C
100
AcDbEntity
  8
0
 48
50.0
100
AcDbBlockBegin
  2
*D26
 70
     1
 10
0.0
 20
0.0
 30
0.0
  3
*D26
  1

  0
LINE
  5
254DC
330
2275C
100
AcDbEntity
  8
寸法
 62
     0
 48
50.0
370
    -2
100
AcDbLine
 10
5201.607272343891
 20
6182.30498888551
 30
0.0
 11
4413.721909610672
 21
6182.30498888551
 31
0.0
  0
LINE
  5
254DD
330
2275C
100
AcDbEntity
  8
寸法
 62
     0
 48
50.0
370
    -2
100
AcDbLine
 10
4705.66500633007
 20
6127.304988885533
 30
0.0
 11
4413.721909610671
 21
6127.304988885533
 31
0.0
  0
LINE
  5
254DE
330
2275C
100
AcDbEntity
  8
寸法
 62
     0
 48
50.0
370
    -2
100
AcDbLine
 10
4473.721909610673
 20
6182.30498888551
 30
0.0
 11
4473.721909610673
 21
6282.30498888551
 31
0.0
  0
LINE
  5
254DF
330
2275C
100
AcDbEntity
  8
寸法
 62
     0
 48
50.0
370
    -2
100
AcDbLine
 10
4473.721909610672
 20
6127.304988885533
 30
0.0
 11
4473.721909610672
 21
6027.304988885532
 31
0.0
  0
LINE
  5
254E0
330
2275C
100
AcDbEntity
  8
寸法
 62
     0
 48
50.0
370
    -2
100
AcDbLine
 10
4473.721909610673
 20
6182.30498888551
 30
0.0
 11
4473.721909610672
 21
6127.304988885533
 31
0.0
  0
INSERT
  5
254E1
330
2275C
100
AcDbEntity
  8
寸法
 62
     0
 48
50.0
370
    -2
100
AcDbBlockReference
  2
_DOTSMALL
 10
4473.721909610673
 20
6182.30498888551
 30
0.0
 41
100.0
 42
100.0
 43
100.0
 50
270.0
  0
INSERT
  5
254E2
330
2275C
100
AcDbEntity
  8
寸法
 62
     0
 48
50.0
370
    -2
100
AcDbBlockReference
  2
_DOTSMALL
 10
4473.721909610672
 20
6127.304988885533
 30
0.0
 41
100.0
 42
100.0
 43
100.0
 50
90.0
  0
MTEXT
  5
254E3
330
2275C
100
AcDbEntity
  8
寸法
 62
     7
 48
50.0
100
AcDbMText
 10
4373.721909610671
 20
6154.804988885523
 30
0.0
 40
120.0
 41
0.0
 71
     5
 72
     1
  1
\A1;b
  7
STYLE1
 11
0.0000000000000001
 21
1.0
 31
0.0
 73
     1
 44
1.0
1001
ACAD
1000
MTEXTBEGIN
1070
    73
1070
     1
1070
    44
1040
1.0
1070
    74
1070
     0
1000
MTEXTEND
  0
POINT
  5
254E4
330
2275C
100
AcDbEntity
  8
DEFPOINTS
 62
     0
 48
50.0
100
AcDbPoint
 10
5221.607272343891
 20
6182.30498888551
 30
0.0
  0
POINT
  5
254E5
330
2275C
100
AcDbEntity
  8
DEFPOINTS
 62
     0
 48
50.0
100
AcDbPoint
 10
4725.66500633007
 20
6127.304988885533
 30
0.0
  0
POINT
  5
254E6
330
2275C
100
AcDbEntity
  8
DEFPOINTS
 62
     0
 48
50.0
100
AcDbPoint
 10
4473.721909610672
 20
6127.304988885533
 30
0.0
  0
ENDBLK
  5
22769
330
2275C
100
AcDbEntity
  8
0
 48
50.0
100
AcDbBlockEnd
  0
BLOCK
  5
22B65
330
22B5A
100
AcDbEntity
  8
0
 48
50.0
100
AcDbBlockBegin
  2
*D27
 70
     1
 10
0.0
 20
0.0
 30
0.0
  3
*D27
  1

  0
LINE
  5
25572
330
22B5A
100
AcDbEntity
  8
寸法
 62
     0
 48
50.0
370
    -2
100
AcDbLine
 10
10643.1338764846
 20
6462.304988885541
 30
0.0
 11
10441.82138901162
 21
6462.304988885541
 31
0.0
  0
LINE
  5
25573
330
22B5A
100
AcDbEntity
  8
寸法
 62
     0
 48
50.0
370
    -2
100
AcDbLine
 10
10491.41910651596
 20
6182.304988885537
 30
0.0
 11
10561.82138901162
 21
6182.304988885537
 31
0.0
  0
LINE
  5
25574
330
22B5A
100
AcDbEntity
  8
寸法
 62
     0
 48
50.0
370
    -2
100
AcDbLine
 10
10501.82138901162
 20
6462.304988885541
 30
0.0
 11
10501.82138901162
 21
6182.304988885537
 31
0.0
  0
LINE
  5
25575
330
22B5A
100
AcDbEntity
  8
寸法
 62
     0
 48
50.0
370
    -2
100
AcDbLine
 10
10501.82138901162
 20
6182.304988885537
 30
0.0
 11
10501.82138901162
 21
5745.770540066637
 31
0.0
  0
INSERT
  5
25576
330
22B5A
100
AcDbEntity
  8
寸法
 62
     0
 48
50.0
370
    -2
100
AcDbBlockReference
  2
_DOTSMALL
 10
10501.82138901162
 20
6462.304988885541
 30
0.0
 41
100.0
 42
100.0
 43
100.0
 50
90.0
  0
INSERT
  5
25577
330
22B5A
100
AcDbEntity
  8
寸法
 62
     0
 48
50.0
370
    -2
100
AcDbBlockReference
  2
_DOTSMALL
 10
10501.82138901162
 20
6182.304988885537
 30
0.0
 41
100.0
 42
100.0
 43
100.0
 50
270.0
  0
MTEXT
  5
25578
330
22B5A
100
AcDbEntity
  8
寸法
 62
     7
 48
50.0
100
AcDbMText
 10
10401.809577988
 20
5895.341406208372
 30
0.0
 40
120.0
 41
0.0
 71
     5
 72
     1
  1
\A1;280
  7
STYLE1
 11
0.0000000000000001
 21
1.0
 31
0.0
 73
     1
 44
1.0
1001
ACAD
1000
MTEXTBEGIN
1070
    73
1070
     1
1070
    44
1040
1.0
1070
    74
1070
     0
1000
MTEXTEND
  0
POINT
  5
25579
330
22B5A
100
AcDbEntity
  8
DEFPOINTS
 62
     0
 48
50.0
100
AcDbPoint
 10
10663.1338764846
 20
6462.304988885541
 30
0.0
  0
POINT
  5
2557A
330
22B5A
100
AcDbEntity
  8
DEFPOINTS
 62
     0
 48
50.0
100
AcDbPoint
 10
10471.41910651596
 20
6182.304988885537
 30
0.0
  0
POINT
  5
2557B
330
22B5A
100
AcDbEntity
  8
DEFPOINTS
 62
     0
 48
50.0
100
AcDbPoint
 10
10501.82138901162
 20
6182.304988885537
 30
0.0
  0
ENDBLK
  5
22B66
330
22B5A
100
AcDbEntity
  8
0
 48
50.0
100
AcDbBlockEnd
  0
BLOCK
  5
22B7F
330
22B74
100
AcDbEntity
  8
0
 48
50.0
100
AcDbBlockBegin
  2
*D28
 70
     1
 10
0.0
 20
0.0
 30
0.0
  3
*D28
  1

  0
LINE
  5
254C8
330
22B74
100
AcDbEntity
  8
寸法
 62
     0
 48
50.0
370
    -2
100
AcDbLine
 10
10515.85634570468
 20
7142.304988885515
 30
0.0
 11
10561.82138901162
 21
7142.304988885515
 31
0.0
  0
LINE
  5
254C9
330
22B74
100
AcDbEntity
  8
寸法
 62
     0
 48
50.0
370
    -2
100
AcDbLine
 10
10455.60166369305
 20
6942.304988885429
 30
0.0
 11
10561.82138901162
 21
6942.304988885429
 31
0.0
  0
LINE
  5
254CA
330
22B74
100
AcDbEntity
  8
寸法
 62
     0
 48
50.0
370
    -2
100
AcDbLine
 10
10501.82138901162
 20
6942.304988885429
 30
0.0
 11
10501.82138901162
 21
7142.304988885515
 31
0.0
  0
LINE
  5
254CB
330
22B74
100
AcDbEntity
  8
寸法
 62
     0
 48
50.0
370
    -2
100
AcDbLine
 10
10501.82138901162
 20
7142.304988885515
 30
0.0
 11
10501.82138901162
 21
7578.839437704413
 31
0.0
  0
INSERT
  5
254CC
330
22B74
100
AcDbEntity
  8
寸法
 62
     0
 48
50.0
370
    -2
100
AcDbBlockReference
  2
_DOTSMALL
 10
10501.82138901162
 20
6942.304988885429
 30
0.0
 41
100.0
 42
100.0
 43
100.0
 50
270.0
  0
INSERT
  5
254CD
330
22B74
100
AcDbEntity
  8
寸法
 62
     0
 48
50.0
370
    -2
100
AcDbBlockReference
  2
_DOTSMALL
 10
10501.82138901162
 20
7142.304988885515
 30
0.0
 41
100.0
 42
100.0
 43
100.0
 50
90.0
  0
MTEXT
  5
254CE
330
22B74
100
AcDbEntity
  8
寸法
 62
     7
 48
50.0
100
AcDbMText
 10
10401.809577988
 20
7429.268571562682
 30
0.0
 40
120.0
 41
0.0
 71
     5
 72
     1
  1
\A1;200
  7
STYLE1
 11
0.0000000000000001
 21
1.0
 31
0.0
 73
     1
 44
1.0
1001
ACAD
1000
MTEXTBEGIN
1070
    73
1070
     1
1070
    44
1040
1.0
1070
    74
1070
     0
1000
MTEXTEND
  0
POINT
  5
254CF
330
22B74
100
AcDbEntity
  8
DEFPOINTS
 62
     0
 48
50.0
100
AcDbPoint
 10
10495.85634570468
 20
7142.304988885515
 30
0.0
  0
POINT
  5
254D0
330
22B74
100
AcDbEntity
  8
DEFPOINTS
 62
     0
 48
50.0
100
AcDbPoint
 10
10435.60166369305
 20
6942.304988885429
 30
0.0
  0
POINT
  5
254D1
330
22B74
100
AcDbEntity
  8
DEFPOINTS
 62
     0
 48
50.0
100
AcDbPoint
 10
10501.82138901162
 20
6942.304988885429
 30
0.0
  0
ENDBLK
  5
22B80
330
22B74
100
AcDbEntity
  8
0
 48
50.0
100
AcDbBlockEnd
  0
BLOCK
  5
22BA5
330
22B9A
100
AcDbEntity
  8
0
 48
50.0
100
AcDbBlockBegin
  2
*D29
 70
     1
 10
0.0
 20
0.0
 30
0.0
  3
*D29
  1

  0
LINE
  5
255B6
330
22B9A
100
AcDbEntity
  8
寸法
 62
     0
 48
50.0
370
    -2
100
AcDbLine
 10
11098.6
 20
6807.304988885537
 30
0.0
 11
11098.6
 21
6926.696657440743
 31
0.0
  0
LINE
  5
255B7
330
22B9A
100
AcDbEntity
  8
寸法
 62
     0
 48
50.0
370
    -2
100
AcDbLine
 10
10978.6
 20
6807.304988885523
 30
0.0
 11
10978.6
 21
6926.696657440743
 31
0.0
  0
LINE
  5
255B8
330
22B9A
100
AcDbEntity
  8
寸法
 62
     0
 48
50.0
370
    -2
100
AcDbLine
 10
10978.6
 20
6866.696657440744
 30
0.0
 11
11098.6
 21
6866.696657440744
 31
0.0
  0
LINE
  5
255B9
330
22B9A
100
AcDbEntity
  8
寸法
 62
     0
 48
50.0
370
    -2
100
AcDbLine
 10
11098.6
 20
6866.696657440744
 30
0.0
 11
11504.7062992126
 21
6866.696657440744
 31
0.0
  0
INSERT
  5
255BA
330
22B9A
100
AcDbEntity
  8
寸法
 62
     0
 48
50.0
370
    -2
100
AcDbBlockReference
  2
_DOTSMALL
 10
10978.6
 20
6866.696657440744
 30
0.0
 41
100.0
 42
100.0
 43
100.0
 50
180.0
  0
INSERT
  5
255BB
330
22B9A
100
AcDbEntity
  8
寸法
 62
     0
 48
50.0
370
    -2
100
AcDbBlockReference
  2
_DOTSMALL
 10
11098.6
 20
6866.696657440744
 30
0.0
 41
100.0
 42
100.0
 43
100.0
  0
MTEXT
  5
255BC
330
22B9A
100
AcDbEntity
  8
寸法
 62
     7
 48
50.0
100
AcDbMText
 10
11368.65905511811
 20
6966.708468464365
 30
0.0
 40
120.0
 41
0.0
 71
     5
 72
     1
  1
\A1;120
  7
STYLE1
 73
     1
 44
1.0
1001
ACAD
1000
MTEXTBEGIN
1070
    73
1070
     1
1070
    44
1040
1.0
1070
    74
1070
     0
1000
MTEXTEND
  0
POINT
  5
255BD
330
22B9A
100
AcDbEntity
  8
DEFPOINTS
 62
     0
 48
50.0
100
AcDbPoint
 10
11098.6
 20
6787.304988885536
 30
0.0
  0
POINT
  5
255BE
330
22B9A
100
AcDbEntity
  8
DEFPOINTS
 62
     0
 48
50.0
100
AcDbPoint
 10
10978.6
 20
6787.304988885522
 30
0.0
  0
POINT
  5
255BF
330
22B9A
100
AcDbEntity
  8
DEFPOINTS
 62
     0
 48
50.0
100
AcDbPoint
 10
10978.6
 20
6866.696657440744
 30
0.0
  0
ENDBLK
  5
22BA6
330
22B9A
100
AcDbEntity
  8
0
 48
50.0
100
AcDbBlockEnd
  0
BLOCK
  5
24CD0
330
24CC7
100
AcDbEntity
  8
0
 48
50.0
100
AcDbBlockBegin
  2
*D30
 70
     1
 10
0.0
 20
0.0
 30
0.0
  3
*D30
  1

  0
LINE
  5
254B5
330
24CC7
100
AcDbEntity
  8
寸法
 62
     0
 48
50.0
370
    -2
100
AcDbLine
 10
8633.60000000001
 20
6732.304988885511
 30
0.0
 11
8633.60000000001
 21
7684.91380555576
 31
0.0
  0
LINE
  5
254B6
330
24CC7
100
AcDbEntity
  8
寸法
 62
     0
 48
50.0
370
    -2
100
AcDbLine
 10
7813.600000000008
 20
6732.304988885511
 30
0.0
 11
7813.600000000008
 21
7684.91380555576
 31
0.0
  0
LINE
  5
254B7
330
24CC7
100
AcDbEntity
  8
寸法
 62
     0
 48
50.0
370
    -2
100
AcDbLine
 10
8633.60000000001
 20
7624.91380555576
 30
0.0
 11
7813.600000000008
 21
7624.91380555576
 31
0.0
  0
INSERT
  5
254B8
330
24CC7
100
AcDbEntity
  8
寸法
 62
     0
 48
50.0
370
    -2
100
AcDbBlockReference
  2
_DOTSMALL
 10
8633.60000000001
 20
7624.91380555576
 30
0.0
 41
100.0
 42
100.0
 43
100.0
  0
INSERT
  5
254B9
330
24CC7
100
AcDbEntity
  8
寸法
 62
     0
 48
50.0
370
    -2
100
AcDbBlockReference
  2
_DOTSMALL
 10
7813.600000000008
 20
7624.91380555576
 30
0.0
 41
100.0
 42
100.0
 43
100.0
 50
180.0
  0
MTEXT
  5
254BA
330
24CC7
100
AcDbEntity
  8
寸法
 62
     7
 48
50.0
100
AcDbMText
 10
8223.60000000001
 20
7724.925616579381
 30
0.0
 40
120.0
 41
0.0
 71
     5
 72
     1
  1
\A1;820
  7
STYLE1
 73
     1
 44
1.0
1001
ACAD
1000
MTEXTBEGIN
1070
    73
1070
     1
1070
    44
1040
1.0
1070
    74
1070
     0
1000
MTEXTEND
  0
POINT
  5
254BB
330
24CC7
100
AcDbEntity
  8
DEFPOINTS
 62
     0
 48
50.0
100
AcDbPoint
 10
8633.60000000001
 20
6712.30498888551
 30
0.0
  0
POINT
  5
254BC
330
24CC7
100
AcDbEntity
  8
DEFPOINTS
 62
     0
 48
50.0
100
AcDbPoint
 10
7813.600000000008
 20
6712.30498888551
 30
0.0
  0
POINT
  5
254BD
330
24CC7
100
AcDbEntity
  8
DEFPOINTS
 62
     0
 48
50.0
100
AcDbPoint
 10
7813.600000000008
 20
7624.91380555576
 30
0.0
  0
ENDBLK
  5
24CD1
330
24CC7
100
AcDbEntity
  8
0
 48
50.0
100
AcDbBlockEnd
  0
BLOCK
  5
24CDC
330
24CD2
100
AcDbEntity
  8
0
 48
50.0
100
AcDbBlockBegin
  2
*D31
 70
     1
 10
0.0
 20
0.0
 30
0.0
  3
*D31
  1

  0
LINE
  5
254AC
330
24CD2
100
AcDbEntity
  8
寸法
 62
     0
 48
50.0
370
    -2
100
AcDbLine
 10
8515.600000000002
 20
7089.304988885512
 30
0.0
 11
8515.600000000002
 21
7928.571446979423
 31
0.0
  0
LINE
  5
254AD
330
24CD2
100
AcDbEntity
  8
寸法
 62
     0
 48
50.0
370
    -2
100
AcDbLine
 10
6875.600000000002
 20
7089.304988885512
 30
0.0
 11
6875.600000000002
 21
7928.571446979423
 31
0.0
  0
LINE
  5
254AE
330
24CD2
100
AcDbEntity
  8
寸法
 62
     0
 48
50.0
370
    -2
100
AcDbLine
 10
8515.600000000002
 20
7868.571446979422
 30
0.0
 11
6875.600000000002
 21
7868.571446979422
 31
0.0
  0
INSERT
  5
254AF
330
24CD2
100
AcDbEntity
  8
寸法
 62
     0
 48
50.0
370
    -2
100
AcDbBlockReference
  2
_DOTSMALL
 10
8515.600000000002
 20
7868.571446979422
 30
0.0
 41
100.0
 42
100.0
 43
100.0
  0
INSERT
  5
254B0
330
24CD2
100
AcDbEntity
  8
寸法
 62
     0
 48
50.0
370
    -2
100
AcDbBlockReference
  2
_DOTSMALL
 10
6875.600000000002
 20
7868.571446979422
 30
0.0
 41
100.0
 42
100.0
 43
100.0
 50
180.0
  0
MTEXT
  5
254B1
330
24CD2
100
AcDbEntity
  8
寸法
 62
     7
 48
50.0
100
AcDbMText
 10
7695.600000000002
 20
7968.571446979422
 30
0.0
 40
120.0
 41
0.0
 71
     5
 72
     1
  1
\A1;1640
  7
STYLE1
 73
     1
 44
1.0
1001
ACAD
1000
MTEXTBEGIN
1070
    73
1070
     1
1070
    44
1040
1.0
1070
    74
1070
     0
1000
MTEXTEND
  0
POINT
  5
254B2
330
24CD2
100
AcDbEntity
  8
DEFPOINTS
 62
     0
 48
50.0
100
AcDbPoint
 10
8515.600000000002
 20
7069.304988885511
 30
0.0
  0
POINT
  5
254B3
330
24CD2
100
AcDbEntity
  8
DEFPOINTS
 62
     0
 48
50.0
100
AcDbPoint
 10
6875.600000000002
 20
7069.304988885511
 30
0.0
  0
POINT
  5
254B4
330
24CD2
100
AcDbEntity
  8
DEFPOINTS
 62
     0
 48
50.0
100
AcDbPoint
 10
6875.600000000002
 20
7868.571446979422
 30
0.0
  0
ENDBLK
  5
24CDD
330
24CD2
100
AcDbEntity
  8
0
 48
50.0
100
AcDbBlockEnd
  0
BLOCK
  5
24CE8
330
24CDE
100
AcDbEntity
  8
0
 48
50.0
100
AcDbBlockBegin
  2
*D32
 70
     1
 10
0.0
 20
0.0
 30
0.0
  3
*D32
  1

  0
LINE
  5
254A3
330
24CDE
100
AcDbEntity
  8
寸法
 62
     0
 48
50.0
370
    -2
100
AcDbLine
 10
5348.6
 20
7162.304988885511
 30
0.0
 11
5348.6
 21
8160.525310944429
 31
0.0
  0
LINE
  5
254A4
330
24CDE
100
AcDbEntity
  8
寸法
 62
     0
 48
50.0
370
    -2
100
AcDbLine
 10
11098.6
 20
7162.304988885511
 30
0.0
 11
11098.6
 21
8160.525310944429
 31
0.0
  0
LINE
  5
254A5
330
24CDE
100
AcDbEntity
  8
寸法
 62
     0
 48
50.0
370
    -2
100
AcDbLine
 10
5348.6
 20
8100.52531094443
 30
0.0
 11
11098.6
 21
8100.52531094443
 31
0.0
  0
INSERT
  5
254A6
330
24CDE
100
AcDbEntity
  8
寸法
 62
     0
 48
50.0
370
    -2
100
AcDbBlockReference
  2
_DOTSMALL
 10
5348.6
 20
8100.52531094443
 30
0.0
 41
100.0
 42
100.0
 43
100.0
 50
180.0
  0
INSERT
  5
254A7
330
24CDE
100
AcDbEntity
  8
寸法
 62
     0
 48
50.0
370
    -2
100
AcDbBlockReference
  2
_DOTSMALL
 10
11098.6
 20
8100.52531094443
 30
0.0
 41
100.0
 42
100.0
 43
100.0
  0
MTEXT
  5
254A8
330
24CDE
100
AcDbEntity
  8
寸法
 62
     7
 48
50.0
100
AcDbMText
 10
8223.600000000001
 20
8200.52531094443
 30
0.0
 40
120.0
 41
0.0
 71
     5
 72
     1
  1
\A1;5750
  7
STYLE1
 73
     1
 44
1.0
1001
ACAD
1000
MTEXTBEGIN
1070
    73
1070
     1
1070
    44
1040
1.0
1070
    74
1070
     0
1000
MTEXTEND
  0
POINT
  5
254A9
330
24CDE
100
AcDbEntity
  8
DEFPOINTS
 62
     0
 48
50.0
100
AcDbPoint
 10
5348.6
 20
7142.304988885512
 30
0.0
  0
POINT
  5
254AA
330
24CDE
100
AcDbEntity
  8
DEFPOINTS
 62
     0
 48
50.0
100
AcDbPoint
 10
11098.6
 20
7142.304988885512
 30
0.0
  0
POINT
  5
254AB
330
24CDE
100
AcDbEntity
  8
DEFPOINTS
 62
     0
 48
50.0
100
AcDbPoint
 10
11098.6
 20
8100.52531094443
 30
0.0
  0
ENDBLK
  5
24CE9
330
24CDE
100
AcDbEntity
  8
0
 48
50.0
100
AcDbBlockEnd
  0
BLOCK
  5
24CF5
330
24CEA
100
AcDbEntity
  8
0
 48
50.0
100
AcDbBlockBegin
  2
*D33
 70
     1
 10
0.0
 20
0.0
 30
0.0
  3
*D33
  1

  0
LINE
  5
25499
330
24CEA
100
AcDbEntity
  8
寸法
 62
     0
 48
50.0
370
    -2
100
AcDbLine
 10
5812.7654751409
 20
6182.304988885523
 30
0.0
 11
5922.442995307155
 21
6182.304988885523
 31
0.0
  0
LINE
  5
2549A
330
24CEA
100
AcDbEntity
  8
寸法
 62
     0
 48
50.0
370
    -2
100
AcDbLine
 10
6103.600000000007
 20
6662.304988885511
 30
0.0
 11
5802.442995307155
 21
6662.304988885511
 31
0.0
  0
LINE
  5
2549B
330
24CEA
100
AcDbEntity
  8
寸法
 62
     0
 48
50.0
370
    -2
100
AcDbLine
 10
5862.442995307155
 20
6662.304988885511
 30
0.0
 11
5862.442995307155
 21
6182.304988885523
 31
0.0
  0
LINE
  5
2549C
330
24CEA
100
AcDbEntity
  8
寸法
 62
     0
 48
50.0
370
    -2
100
AcDbLine
 10
5862.442995307155
 20
6182.304988885523
 30
0.0
 11
5862.442995307154
 21
5735.698689672921
 31
0.0
  0
INSERT
  5
2549D
330
24CEA
100
AcDbEntity
  8
寸法
 62
     0
 48
50.0
370
    -2
100
AcDbBlockReference
  2
_DOTSMALL
 10
5862.442995307155
 20
6662.304988885511
 30
0.0
 41
100.0
 42
100.0
 43
100.0
 50
90.0
  0
INSERT
  5
2549E
330
24CEA
100
AcDbEntity
  8
寸法
 62
     0
 48
50.0
370
    -2
100
AcDbBlockReference
  2
_DOTSMALL
 10
5862.442995307155
 20
6182.304988885523
 30
0.0
 41
100.0
 42
100.0
 43
100.0
 50
270.0
  0
MTEXT
  5
2549F
330
24CEA
100
AcDbEntity
  8
寸法
 62
     7
 48
50.0
100
AcDbMText
 10
5762.442995307154
 20
5889.745933767411
 30
0.0
 40
120.0
 41
0.0
 71
     5
 72
     1
  1
\A1;480
  7
STYLE1
 11
0.0000000000000001
 21
1.0
 31
0.0
 73
     1
 44
1.0
1001
ACAD
1000
MTEXTBEGIN
1070
    73
1070
     1
1070
    44
1040
1.0
1070
    74
1070
     0
1000
MTEXTEND
  0
POINT
  5
254A0
330
24CEA
100
AcDbEntity
  8
DEFPOINTS
 62
     0
 48
50.0
100
AcDbPoint
 10
5792.7654751409
 20
6182.304988885523
 30
0.0
  0
POINT
  5
254A1
330
24CEA
100
AcDbEntity
  8
DEFPOINTS
 62
     0
 48
50.0
100
AcDbPoint
 10
6123.600000000006
 20
6662.304988885511
 30
0.0
  0
POINT
  5
254A2
330
24CEA
100
AcDbEntity
  8
DEFPOINTS
 62
     0
 48
50.0
100
AcDbPoint
 10
5862.442995307155
 20
6662.304988885511
 30
0.0
  0
ENDBLK
  5
24CF6
330
24CEA
100
AcDbEntity
  8
0
 48
50.0
100
AcDbBlockEnd
  0
BLOCK
  5
24D01
330
24CF7
100
AcDbEntity
  8
0
 48
50.0
100
AcDbBlockBegin
  2
*D34
 70
     1
 10
0.0
 20
0.0
 30
0.0
  3
*D34
  1

  0
LINE
  5
25490
330
24CF7
100
AcDbEntity
  8
寸法
 62
     0
 48
50.0
370
    -2
100
AcDbLine
 10
5328.599999999999
 20
7142.304988885512
 30
0.0
 11
4413.721909610674
 21
7142.304988885512
 31
0.0
  0
LINE
  5
25491
330
24CF7
100
AcDbEntity
  8
寸法
 62
     0
 48
50.0
370
    -2
100
AcDbLine
 10
5328.599999999999
 20
6182.304988885512
 30
0.0
 11
4413.721909610674
 21
6182.304988885512
 31
0.0
  0
LINE
  5
25492
330
24CF7
100
AcDbEntity
  8
寸法
 62
     0
 48
50.0
370
    -2
100
AcDbLine
 10
4473.721909610673
 20
7142.304988885512
 30
0.0
 11
4473.721909610673
 21
6182.304988885512
 31
0.0
  0
INSERT
  5
25493
330
24CF7
100
AcDbEntity
  8
寸法
 62
     0
 48
50.0
370
    -2
100
AcDbBlockReference
  2
_DOTSMALL
 10
4473.721909610673
 20
7142.304988885512
 30
0.0
 41
100.0
 42
100.0
 43
100.0
 50
90.0
  0
INSERT
  5
25494
330
24CF7
100
AcDbEntity
  8
寸法
 62
     0
 48
50.0
370
    -2
100
AcDbBlockReference
  2
_DOTSMALL
 10
4473.721909610673
 20
6182.304988885512
 30
0.0
 41
100.0
 42
100.0
 43
100.0
 50
270.0
  0
MTEXT
  5
25495
330
24CF7
100
AcDbEntity
  8
寸法
 62
     7
 48
50.0
100
AcDbMText
 10
4373.721909610671
 20
6699.80498888551
 30
0.0
 40
120.0
 41
0.0
 71
     5
 72
     1
  1
\A1;960
  7
STYLE1
 11
0.0000000000000001
 21
1.0
 31
0.0
 73
     1
 44
1.0
1001
ACAD
1000
MTEXTBEGIN
1070
    73
1070
     1
1070
    44
1040
1.0
1070
    74
1070
     0
1000
MTEXTEND
  0
POINT
  5
25496
330
24CF7
100
AcDbEntity
  8
DEFPOINTS
 62
     0
 48
50.0
100
AcDbPoint
 10
5348.6
 20
7142.304988885512
 30
0.0
  0
POINT
  5
25497
330
24CF7
100
AcDbEntity
  8
DEFPOINTS
 62
     0
 48
50.0
100
AcDbPoint
 10
5348.6
 20
6182.304988885512
 30
0.0
  0
POINT
  5
25498
330
24CF7
100
AcDbEntity
  8
DEFPOINTS
 62
     0
 48
50.0
100
AcDbPoint
 10
4473.721909610673
 20
6182.304988885512
 30
0.0
  0
ENDBLK
  5
24D02
330
24CF7
100
AcDbEntity
  8
0
 48
50.0
100
AcDbBlockEnd
  0
BLOCK
  5
24D0D
330
24D03
100
AcDbEntity
  8
0
 48
50.0
100
AcDbBlockBegin
  2
*D35
 70
     1
 10
0.0
 20
0.0
 30
0.0
  3
*D35
  1

  0
LINE
  5
25538
330
24D03
100
AcDbEntity
  8
寸法
 62
     0
 48
50.0
370
    -2
100
AcDbLine
 10
5401.6
 20
7019.304988885512
 30
0.0
 11
4665.665006330072
 21
7019.304988885512
 31
0.0
  0
LINE
  5
25539
330
24D03
100
AcDbEntity
  8
寸法
 62
     0
 48
50.0
370
    -2
100
AcDbLine
 10
5401.600000000006
 20
6380.304988885514
 30
0.0
 11
4665.665006330072
 21
6380.304988885514
 31
0.0
  0
LINE
  5
2553A
330
24D03
100
AcDbEntity
  8
寸法
 62
     0
 48
50.0
370
    -2
100
AcDbLine
 10
4725.665006330072
 20
7019.304988885512
 30
0.0
 11
4725.665006330072
 21
6380.304988885514
 31
0.0
  0
INSERT
  5
2553B
330
24D03
100
AcDbEntity
  8
寸法
 62
     0
 48
50.0
370
    -2
100
AcDbBlockReference
  2
_DOTSMALL
 10
4725.665006330072
 20
7019.304988885512
 30
0.0
 41
100.0
 42
100.0
 43
100.0
 50
90.0
  0
INSERT
  5
2553C
330
24D03
100
AcDbEntity
  8
寸法
 62
     0
 48
50.0
370
    -2
100
AcDbBlockReference
  2
_DOTSMALL
 10
4725.665006330072
 20
6380.304988885514
 30
0.0
 41
100.0
 42
100.0
 43
100.0
 50
270.0
  0
MTEXT
  5
2553D
330
24D03
100
AcDbEntity
  8
寸法
 62
     7
 48
50.0
100
AcDbMText
 10
4625.66500633007
 20
6699.80498888551
 30
0.0
 40
120.0
 41
0.0
 71
     5
 72
     1
  1
\A1;639
  7
STYLE1
 11
0.0000000000000001
 21
1.0
 31
0.0
 73
     1
 44
1.0
1001
ACAD
1000
MTEXTBEGIN
1070
    73
1070
     1
1070
    44
1040
1.0
1070
    74
1070
     0
1000
MTEXTEND
  0
POINT
  5
2553E
330
24D03
100
AcDbEntity
  8
DEFPOINTS
 62
     0
 48
50.0
100
AcDbPoint
 10
5421.599999999999
 20
7019.304988885512
 30
0.0
  0
POINT
  5
2553F
330
24D03
100
AcDbEntity
  8
DEFPOINTS
 62
     0
 48
50.0
100
AcDbPoint
 10
5421.600000000005
 20
6380.304988885514
 30
0.0
  0
POINT
  5
25540
330
24D03
100
AcDbEntity
  8
DEFPOINTS
 62
     0
 48
50.0
100
AcDbPoint
 10
4725.665006330072
 20
6380.304988885514
 30
0.0
  0
ENDBLK
  5
24D0E
330
24D03
100
AcDbEntity
  8
0
 48
50.0
100
AcDbBlockEnd
  0
BLOCK
  5
24D1A
330
24D0F
100
AcDbEntity
  8
0
 48
50.0
100
AcDbBlockBegin
  2
*D36
 70
     1
 10
0.0
 20
0.0
 30
0.0
  3
*D36
  1

  0
LINE
  5
2552E
330
24D0F
100
AcDbEntity
  8
寸法
 62
     0
 48
50.0
370
    -2
100
AcDbLine
 10
5401.600000000006
 20
6380.304988885514
 30
0.0
 11
4665.665006330072
 21
6380.304988885514
 31
0.0
  0
LINE
  5
2552F
330
24D0F
100
AcDbEntity
  8
寸法
 62
     0
 48
50.0
370
    -2
100
AcDbLine
 10
5328.599999999999
 20
6182.304988885512
 30
0.0
 11
4665.665006330072
 21
6182.304988885512
 31
0.0
  0
LINE
  5
25530
330
24D0F
100
AcDbEntity
  8
寸法
 62
     0
 48
50.0
370
    -2
100
AcDbLine
 10
4725.665006330072
 20
6380.304988885514
 30
0.0
 11
4725.665006330072
 21
6182.304988885512
 31
0.0
  0
LINE
  5
25531
330
24D0F
100
AcDbEntity
  8
寸法
 62
     0
 48
50.0
370
    -2
100
AcDbLine
 10
4725.665006330072
 20
6182.304988885512
 30
0.0
 11
4725.66500633007
 21
5710.564380213262
 31
0.0
  0
INSERT
  5
25532
330
24D0F
100
AcDbEntity
  8
寸法
 62
     0
 48
50.0
370
    -2
100
AcDbBlockReference
  2
_DOTSMALL
 10
4725.665006330072
 20
6380.304988885514
 30
0.0
 41
100.0
 42
100.0
 43
100.0
 50
90.0
  0
INSERT
  5
25533
330
24D0F
100
AcDbEntity
  8
寸法
 62
     0
 48
50.0
370
    -2
100
AcDbBlockReference
  2
_DOTSMALL
 10
4725.665006330072
 20
6182.304988885512
 30
0.0
 41
100.0
 42
100.0
 43
100.0
 50
270.0
  0
MTEXT
  5
25534
330
24D0F
100
AcDbEntity
  8
寸法
 62
     7
 48
50.0
100
AcDbMText
 10
4625.66500633007
 20
5846.77404004292
 30
0.0
 40
120.0
 41
0.0
 71
     5
 72
     1
  1
\A1;198
  7
STYLE1
 11
0.0000000000000001
 21
1.0
 31
0.0
 73
     1
 44
1.0
1001
ACAD
1000
MTEXTBEGIN
1070
    73
1070
     1
1070
    44
1040
1.0
1070
    74
1070
     0
1000
MTEXTEND
  0
POINT
  5
25535
330
24D0F
100
AcDbEntity
  8
DEFPOINTS
 62
     0
 48
50.0
100
AcDbPoint
 10
5421.600000000005
 20
6380.304988885514
 30
0.0
  0
POINT
  5
25536
330
24D0F
100
AcDbEntity
  8
DEFPOINTS
 62
     0
 48
50.0
100
AcDbPoint
 10
5348.6
 20
6182.304988885512
 30
0.0
  0
POINT
  5
25537
330
24D0F
100
AcDbEntity
  8
DEFPOINTS
 62
     0
 48
50.0
100
AcDbPoint
 10
4725.665006330072
 20
6182.304988885512
 30
0.0
  0
ENDBLK
  5
24D1B
330
24D0F
100
AcDbEntity
  8
0
 48
50.0
100
AcDbBlockEnd
  0
BLOCK
  5
24D26
330
24D1C
100
AcDbEntity
  8
0
 48
50.0
100
AcDbBlockBegin
  2
*D37
 70
     1
 10
0.0
 20
0.0
 30
0.0
  3
*D37
  1

  0
LINE
  5
25474
330
24D1C
100
AcDbEntity
  8
寸法
 62
     0
 48
50.0
370
    -2
100
AcDbLine
 10
5328.600000000006
 20
6182.304988885507
 30
0.0
 11
5175.512673767883
 21
6182.304988885507
 31
0.0
  0
LINE
  5
25475
330
24D1C
100
AcDbEntity
  8
寸法
 62
     0
 48
50.0
370
    -2
100
AcDbLine
 10
5684.325326928812
 20
5462.304988885508
 30
0.0
 11
5175.512673767882
 21
5462.304988885508
 31
0.0
  0
LINE
  5
25476
330
24D1C
100
AcDbEntity
  8
寸法
 62
     0
 48
50.0
370
    -2
100
AcDbLine
 10
5235.512673767883
 20
6182.304988885507
 30
0.0
 11
5235.512673767882
 21
5462.304988885508
 31
0.0
  0
INSERT
  5
25477
330
24D1C
100
AcDbEntity
  8
寸法
 62
     0
 48
50.0
370
    -2
100
AcDbBlockReference
  2
_DOTSMALL
 10
5235.512673767883
 20
6182.304988885507
 30
0.0
 41
100.0
 42
100.0
 43
100.0
 50
90.0
  0
INSERT
  5
25478
330
24D1C
100
AcDbEntity
  8
寸法
 62
     0
 48
50.0
370
    -2
100
AcDbBlockReference
  2
_DOTSMALL
 10
5235.512673767882
 20
5462.304988885508
 30
0.0
 41
100.0
 42
100.0
 43
100.0
 50
270.0
  0
MTEXT
  5
25479
330
24D1C
100
AcDbEntity
  8
寸法
 62
     7
 48
50.0
100
AcDbMText
 10
5135.500862744259
 20
5822.304988885509
 30
0.0
 40
120.0
 41
0.0
 71
     5
 72
     1
  1
\A1;扉の出720
  7
STYLE1
 11
0.0000000000000001
 21
1.0
 31
0.0
 73
     1
 44
1.0
1001
ACAD
1000
MTEXTBEGIN
1070
    73
1070
     1
1070
    44
1040
1.0
1070
    74
1070
     0
1000
MTEXTEND
  0
POINT
  5
2547A
330
24D1C
100
AcDbEntity
  8
DEFPOINTS
 62
     0
 48
50.0
100
AcDbPoint
 10
5348.600000000007
 20
6182.304988885507
 30
0.0
  0
POINT
  5
2547B
330
24D1C
100
AcDbEntity
  8
DEFPOINTS
 62
     0
 48
50.0
100
AcDbPoint
 10
5704.325326928811
 20
5462.304988885508
 30
0.0
  0
POINT
  5
2547C
330
24D1C
100
AcDbEntity
  8
DEFPOINTS
 62
     0
 48
50.0
100
AcDbPoint
 10
5235.512673767882
 20
5462.304988885508
 30
0.0
  0
ENDBLK
  5
24D27
330
24D1C
100
AcDbEntity
  8
0
 48
50.0
100
AcDbBlockEnd
  0
BLOCK
  5
24D4C
330
24D41
100
AcDbEntity
  8
0
 48
50.0
100
AcDbBlockBegin
  2
*D38
 70
     1
 10
0.0
 20
0.0
 30
0.0
  3
*D38
  1

  0
LINE
  5
2546A
330
24D41
100
AcDbEntity
  8
寸法
 62
     0
 48
50.0
370
    -2
100
AcDbLine
 10
5328.599999999999
 20
7142.304988885512
 30
0.0
 11
4665.665006330072
 21
7142.304988885512
 31
0.0
  0
LINE
  5
2546B
330
24D41
100
AcDbEntity
  8
寸法
 62
     0
 48
50.0
370
    -2
100
AcDbLine
 10
5401.6
 20
7019.304988885512
 30
0.0
 11
4665.665006330072
 21
7019.304988885512
 31
0.0
  0
LINE
  5
2546C
330
24D41
100
AcDbEntity
  8
寸法
 62
     0
 48
50.0
370
    -2
100
AcDbLine
 10
4725.665006330072
 20
7019.304988885512
 30
0.0
 11
4725.665006330072
 21
7142.304988885512
 31
0.0
  0
LINE
  5
2546D
330
24D41
100
AcDbEntity
  8
寸法
 62
     0
 48
50.0
370
    -2
100
AcDbLine
 10
4725.665006330072
 20
7142.304988885512
 30
0.0
 11
4725.665006330072
 21
7553.896871977549
 31
0.0
  0
INSERT
  5
2546E
330
24D41
100
AcDbEntity
  8
寸法
 62
     0
 48
50.0
370
    -2
100
AcDbBlockReference
  2
_DOTSMALL
 10
4725.665006330072
 20
7019.304988885512
 30
0.0
 41
100.0
 42
100.0
 43
100.0
 50
270.0
  0
INSERT
  5
2546F
330
24D41
100
AcDbEntity
  8
寸法
 62
     0
 48
50.0
370
    -2
100
AcDbBlockReference
  2
_DOTSMALL
 10
4725.665006330072
 20
7142.304988885512
 30
0.0
 41
100.0
 42
100.0
 43
100.0
 50
90.0
  0
MTEXT
  5
25470
330
24D41
100
AcDbEntity
  8
寸法
 62
     7
 48
50.0
100
AcDbMText
 10
4625.653195306449
 20
7415.411590603311
 30
0.0
 40
120.0
 41
0.0
 71
     5
 72
     1
  1
\A1;123
  7
STYLE1
 11
0.0000000000000001
 21
1.0
 31
0.0
 73
     1
 44
1.0
1001
ACAD
1000
MTEXTBEGIN
1070
    73
1070
     1
1070
    44
1040
1.0
1070
    74
1070
     0
1000
MTEXTEND
  0
POINT
  5
25471
330
24D41
100
AcDbEntity
  8
DEFPOINTS
 62
     0
 48
50.0
100
AcDbPoint
 10
5348.6
 20
7142.304988885512
 30
0.0
  0
POINT
  5
25472
330
24D41
100
AcDbEntity
  8
DEFPOINTS
 62
     0
 48
50.0
100
AcDbPoint
 10
5421.599999999999
 20
7019.304988885512
 30
0.0
  0
POINT
  5
25473
330
24D41
100
AcDbEntity
  8
DEFPOINTS
 62
     0
 48
50.0
100
AcDbPoint
 10
4725.665006330072
 20
7019.304988885512
 30
0.0
  0
ENDBLK
  5
24D4D
330
24D41
100
AcDbEntity
  8
0
 48
50.0
100
AcDbBlockEnd
  0
BLOCK
  5
24D66
330
24D5B
100
AcDbEntity
  8
0
 48
50.0
100
AcDbBlockBegin
  2
*D39
 70
     1
 10
0.0
 20
0.0
 30
0.0
  3
*D39
  1

  0
LINE
  5
25460
330
24D5B
100
AcDbEntity
  8
寸法
 62
     0
 48
50.0
370
    -2
100
AcDbLine
 10
5471.599999999999
 20
7089.304988885512
 30
0.0
 11
5471.599999999999
 21
7928.571446979423
 31
0.0
  0
LINE
  5
25461
330
24D5B
100
AcDbEntity
  8
寸法
 62
     0
 48
50.0
370
    -2
100
AcDbLine
 10
5348.6
 20
7162.304988885511
 30
0.0
 11
5348.6
 21
7928.571446979423
 31
0.0
  0
LINE
  5
25462
330
24D5B
100
AcDbEntity
  8
寸法
 62
     0
 48
50.0
370
    -2
100
AcDbLine
 10
5471.599999999999
 20
7868.571446979422
 30
0.0
 11
5348.6
 21
7868.571446979422
 31
0.0
  0
LINE
  5
25463
330
24D5B
100
AcDbEntity
  8
寸法
 62
     0
 48
50.0
370
    -2
100
AcDbLine
 10
5348.6
 20
7868.571446979422
 30
0.0
 11
4937.008116907962
 21
7868.571446979422
 31
0.0
  0
INSERT
  5
25464
330
24D5B
100
AcDbEntity
  8
寸法
 62
     0
 48
50.0
370
    -2
100
AcDbBlockReference
  2
_DOTSMALL
 10
5471.599999999999
 20
7868.571446979422
 30
0.0
 41
100.0
 42
100.0
 43
100.0
  0
INSERT
  5
25465
330
24D5B
100
AcDbEntity
  8
寸法
 62
     0
 48
50.0
370
    -2
100
AcDbBlockReference
  2
_DOTSMALL
 10
5348.6
 20
7868.571446979422
 30
0.0
 41
100.0
 42
100.0
 43
100.0
 50
180.0
  0
MTEXT
  5
25466
330
24D5B
100
AcDbEntity
  8
寸法
 62
     7
 48
50.0
100
AcDbMText
 10
5075.493398282201
 20
7968.583258003043
 30
0.0
 40
120.0
 41
0.0
 71
     5
 72
     1
  1
\A1;123
  7
STYLE1
 73
     1
 44
1.0
1001
ACAD
1000
MTEXTBEGIN
1070
    73
1070
     1
1070
    44
1040
1.0
1070
    74
1070
     0
1000
MTEXTEND
  0
POINT
  5
25467
330
24D5B
100
AcDbEntity
  8
DEFPOINTS
 62
     0
 48
50.0
100
AcDbPoint
 10
5471.599999999999
 20
7069.304988885511
 30
0.0
  0
POINT
  5
25468
330
24D5B
100
AcDbEntity
  8
DEFPOINTS
 62
     0
 48
50.0
100
AcDbPoint
 10
5348.6
 20
7142.304988885512
 30
0.0
  0
POINT
  5
25469
330
24D5B
100
AcDbEntity
  8
DEFPOINTS
 62
     0
 48
50.0
100
AcDbPoint
 10
5348.6
 20
7868.571446979422
 30
0.0
  0
ENDBLK
  5
24D67
330
24D5B
100
AcDbEntity
  8
0
 48
50.0
100
AcDbBlockEnd
  0
BLOCK
  5
24D7B
330
24D72
100
AcDbEntity
  8
0
 48
50.0
100
AcDbBlockBegin
  2
*D40
 70
     1
 10
0.0
 20
0.0
 30
0.0
  3
*D40
  1

  0
LINE
  5
25457
330
24D72
100
AcDbEntity
  8
寸法
 62
     0
 48
50.0
370
    -2
100
AcDbLine
 10
6993.600000000009
 20
6732.304988885511
 30
0.0
 11
6993.600000000009
 21
7684.91380555576
 31
0.0
  0
LINE
  5
25458
330
24D72
100
AcDbEntity
  8
寸法
 62
     0
 48
50.0
370
    -2
100
AcDbLine
 10
6173.600000000007
 20
6732.304988885511
 30
0.0
 11
6173.600000000007
 21
7684.91380555576
 31
0.0
  0
LINE
  5
25459
330
24D72
100
AcDbEntity
  8
寸法
 62
     0
 48
50.0
370
    -2
100
AcDbLine
 10
6993.600000000009
 20
7624.91380555576
 30
0.0
 11
6173.600000000007
 21
7624.91380555576
 31
0.0
  0
INSERT
  5
2545A
330
24D72
100
AcDbEntity
  8
寸法
 62
     0
 48
50.0
370
    -2
100
AcDbBlockReference
  2
_DOTSMALL
 10
6993.600000000009
 20
7624.91380555576
 30
0.0
 41
100.0
 42
100.0
 43
100.0
  0
INSERT
  5
2545B
330
24D72
100
AcDbEntity
  8
寸法
 62
     0
 48
50.0
370
    -2
100
AcDbBlockReference
  2
_DOTSMALL
 10
6173.600000000007
 20
7624.91380555576
 30
0.0
 41
100.0
 42
100.0
 43
100.0
 50
180.0
  0
MTEXT
  5
2545C
330
24D72
100
AcDbEntity
  8
寸法
 62
     7
 48
50.0
100
AcDbMText
 10
6583.600000000008
 20
7724.925616579381
 30
0.0
 40
120.0
 41
0.0
 71
     5
 72
     1
  1
\A1;820
  7
STYLE1
 73
     1
 44
1.0
1001
ACAD
1000
MTEXTBEGIN
1070
    73
1070
     1
1070
    44
1040
1.0
1070
    74
1070
     0
1000
MTEXTEND
  0
POINT
  5
2545D
330
24D72
100
AcDbEntity
  8
DEFPOINTS
 62
     0
 48
50.0
100
AcDbPoint
 10
6993.600000000009
 20
6712.30498888551
 30
0.0
  0
POINT
  5
2545E
330
24D72
100
AcDbEntity
  8
DEFPOINTS
 62
     0
 48
50.0
100
AcDbPoint
 10
6173.600000000007
 20
6712.30498888551
 30
0.0
  0
POINT
  5
2545F
330
24D72
100
AcDbEntity
  8
DEFPOINTS
 62
     0
 48
50.0
100
AcDbPoint
 10
6173.600000000007
 20
7624.91380555576
 30
0.0
  0
ENDBLK
  5
24D7C
330
24D72
100
AcDbEntity
  8
0
 48
50.0
100
AcDbBlockEnd
  0
BLOCK
  5
24D86
330
24D7D
100
AcDbEntity
  8
0
 48
50.0
100
AcDbBlockBegin
  2
*D41
 70
     1
 10
0.0
 20
0.0
 30
0.0
  3
*D41
  1

  0
LINE
  5
2544E
330
24D7D
100
AcDbEntity
  8
寸法
 62
     0
 48
50.0
370
    -2
100
AcDbLine
 10
6875.600000000002
 20
7089.304988885512
 30
0.0
 11
6875.600000000002
 21
7928.571446979423
 31
0.0
  0
LINE
  5
2544F
330
24D7D
100
AcDbEntity
  8
寸法
 62
     0
 48
50.0
370
    -2
100
AcDbLine
 10
5471.599999999999
 20
7089.304988885512
 30
0.0
 11
5471.599999999999
 21
7928.571446979423
 31
0.0
  0
LINE
  5
25450
330
24D7D
100
AcDbEntity
  8
寸法
 62
     0
 48
50.0
370
    -2
100
AcDbLine
 10
6875.600000000002
 20
7868.571446979422
 30
0.0
 11
5471.599999999999
 21
7868.571446979422
 31
0.0
  0
INSERT
  5
25451
330
24D7D
100
AcDbEntity
  8
寸法
 62
     0
 48
50.0
370
    -2
100
AcDbBlockReference
  2
_DOTSMALL
 10
6875.600000000002
 20
7868.571446979422
 30
0.0
 41
100.0
 42
100.0
 43
100.0
  0
INSERT
  5
25452
330
24D7D
100
AcDbEntity
  8
寸法
 62
     0
 48
50.0
370
    -2
100
AcDbBlockReference
  2
_DOTSMALL
 10
5471.599999999999
 20
7868.571446979422
 30
0.0
 41
100.0
 42
100.0
 43
100.0
 50
180.0
  0
MTEXT
  5
25453
330
24D7D
100
AcDbEntity
  8
寸法
 62
     7
 48
50.0
100
AcDbMText
 10
6173.6
 20
7968.571446979422
 30
0.0
 40
120.0
 41
0.0
 71
     5
 72
     1
  1
\A1;1404
  7
STYLE1
 73
     1
 44
1.0
1001
ACAD
1000
MTEXTBEGIN
1070
    73
1070
     1
1070
    44
1040
1.0
1070
    74
1070
     0
1000
MTEXTEND
  0
POINT
  5
25454
330
24D7D
100
AcDbEntity
  8
DEFPOINTS
 62
     0
 48
50.0
100
AcDbPoint
 10
6875.600000000002
 20
7069.304988885511
 30
0.0
  0
POINT
  5
25455
330
24D7D
100
AcDbEntity
  8
DEFPOINTS
 62
     0
 48
50.0
100
AcDbPoint
 10
5471.599999999999
 20
7069.304988885511
 30
0.0
  0
POINT
  5
25456
330
24D7D
100
AcDbEntity
  8
DEFPOINTS
 62
     0
 48
50.0
100
AcDbPoint
 10
5471.599999999999
 20
7868.571446979422
 30
0.0
  0
ENDBLK
  5
24D87
330
24D7D
100
AcDbEntity
  8
0
 48
50.0
100
AcDbBlockEnd
  0
BLOCK
  5
24D92
330
24D88
100
AcDbEntity
  8
0
 48
50.0
100
AcDbBlockBegin
  2
*D42
 70
     1
 10
0.0
 20
0.0
 30
0.0
  3
*D42
  1

  0
LINE
  5
25445
330
24D88
100
AcDbEntity
  8
寸法
 62
     0
 48
50.0
370
    -2
100
AcDbLine
 10
6173.600000000007
 20
6732.304988885511
 30
0.0
 11
6173.600000000007
 21
7684.91380555576
 31
0.0
  0
LINE
  5
25446
330
24D88
100
AcDbEntity
  8
寸法
 62
     0
 48
50.0
370
    -2
100
AcDbLine
 10
5348.6
 20
7162.304988885511
 30
0.0
 11
5348.6
 21
7684.91380555576
 31
0.0
  0
LINE
  5
25447
330
24D88
100
AcDbEntity
  8
寸法
 62
     0
 48
50.0
370
    -2
100
AcDbLine
 10
6173.600000000007
 20
7624.91380555576
 30
0.0
 11
5348.6
 21
7624.91380555576
 31
0.0
  0
INSERT
  5
25448
330
24D88
100
AcDbEntity
  8
寸法
 62
     0
 48
50.0
370
    -2
100
AcDbBlockReference
  2
_DOTSMALL
 10
6173.600000000007
 20
7624.91380555576
 30
0.0
 41
100.0
 42
100.0
 43
100.0
  0
INSERT
  5
25449
330
24D88
100
AcDbEntity
  8
寸法
 62
     0
 48
50.0
370
    -2
100
AcDbBlockReference
  2
_DOTSMALL
 10
5348.6
 20
7624.91380555576
 30
0.0
 41
100.0
 42
100.0
 43
100.0
 50
180.0
  0
MTEXT
  5
2544A
330
24D88
100
AcDbEntity
  8
寸法
 62
     7
 48
50.0
100
AcDbMText
 10
5761.100000000003
 20
7724.925616579381
 30
0.0
 40
120.0
 41
0.0
 71
     5
 72
     1
  1
\A1;825
  7
STYLE1
 73
     1
 44
1.0
1001
ACAD
1000
MTEXTBEGIN
1070
    73
1070
     1
1070
    44
1040
1.0
1070
    74
1070
     0
1000
MTEXTEND
  0
POINT
  5
2544B
330
24D88
100
AcDbEntity
  8
DEFPOINTS
 62
     0
 48
50.0
100
AcDbPoint
 10
6173.600000000007
 20
6712.30498888551
 30
0.0
  0
POINT
  5
2544C
330
24D88
100
AcDbEntity
  8
DEFPOINTS
 62
     0
 48
50.0
100
AcDbPoint
 10
5348.6
 20
7142.304988885512
 30
0.0
  0
POINT
  5
2544D
330
24D88
100
AcDbEntity
  8
DEFPOINTS
 62
     0
 48
50.0
100
AcDbPoint
 10
5348.6
 20
7624.91380555576
 30
0.0
  0
ENDBLK
  5
24D93
330
24D88
100
AcDbEntity
  8
0
 48
50.0
100
AcDbBlockEnd
  0
BLOCK
  5
24D9F
330
24D94
100
AcDbEntity
  8
0
 48
50.0
100
AcDbBlockBegin
  2
*D43
 70
     1
 10
0.0
 20
0.0
 30
0.0
  3
*D43
  1

  0
LINE
  5
2543B
330
24D94
100
AcDbEntity
  8
寸法
 62
     0
 48
50.0
370
    -2
100
AcDbLine
 10
6103.600000000007
 20
6662.304988885511
 30
0.0
 11
5802.442995307154
 21
6662.304988885511
 31
0.0
  0
LINE
  5
2543C
330
24D94
100
AcDbEntity
  8
寸法
 62
     0
 48
50.0
370
    -2
100
AcDbLine
 10
5812.7654751409
 20
7142.304988885512
 30
0.0
 11
5922.442995307154
 21
7142.304988885512
 31
0.0
  0
LINE
  5
2543D
330
24D94
100
AcDbEntity
  8
寸法
 62
     0
 48
50.0
370
    -2
100
AcDbLine
 10
5862.442995307154
 20
6662.304988885511
 30
0.0
 11
5862.442995307154
 21
7142.304988885512
 31
0.0
  0
LINE
  5
2543E
330
24D94
100
AcDbEntity
  8
寸法
 62
     0
 48
50.0
370
    -2
100
AcDbLine
 10
5862.442995307154
 20
7142.304988885512
 30
0.0
 11
5862.442995307154
 21
7588.91128809811
 31
0.0
  0
INSERT
  5
2543F
330
24D94
100
AcDbEntity
  8
寸法
 62
     0
 48
50.0
370
    -2
100
AcDbBlockReference
  2
_DOTSMALL
 10
5862.442995307154
 20
6662.304988885511
 30
0.0
 41
100.0
 42
100.0
 43
100.0
 50
270.0
  0
INSERT
  5
25440
330
24D94
100
AcDbEntity
  8
寸法
 62
     0
 48
50.0
370
    -2
100
AcDbBlockReference
  2
_DOTSMALL
 10
5862.442995307154
 20
7142.304988885512
 30
0.0
 41
100.0
 42
100.0
 43
100.0
 50
90.0
  0
MTEXT
  5
25441
330
24D94
100
AcDbEntity
  8
寸法
 62
     7
 48
50.0
100
AcDbMText
 10
5762.442995307154
 20
7434.864044003623
 30
0.0
 40
120.0
 41
0.0
 71
     5
 72
     1
  1
\A1;480
  7
STYLE1
 11
0.0000000000000001
 21
1.0
 31
0.0
 73
     1
 44
1.0
1001
ACAD
1000
MTEXTBEGIN
1070
    73
1070
     1
1070
    44
1040
1.0
1070
    74
1070
     0
1000
MTEXTEND
  0
POINT
  5
25442
330
24D94
100
AcDbEntity
  8
DEFPOINTS
 62
     0
 48
50.0
100
AcDbPoint
 10
6123.600000000006
 20
6662.304988885511
 30
0.0
  0
POINT
  5
25443
330
24D94
100
AcDbEntity
  8
DEFPOINTS
 62
     0
 48
50.0
100
AcDbPoint
 10
5792.7654751409
 20
7142.304988885512
 30
0.0
  0
POINT
  5
25444
330
24D94
100
AcDbEntity
  8
DEFPOINTS
 62
     0
 48
50.0
100
AcDbPoint
 10
5862.442995307154
 20
7142.304988885512
 30
0.0
  0
ENDBLK
  5
24DA0
330
24D94
100
AcDbEntity
  8
0
 48
50.0
100
AcDbBlockEnd
  0
BLOCK
  5
24DB8
330
24DAE
100
AcDbEntity
  8
0
 48
50.0
100
AcDbBlockBegin
  2
*D44
 70
     1
 10
0.0
 20
0.0
 30
0.0
  3
*D44
  1

  0
LINE
  5
25432
330
24DAE
100
AcDbEntity
  8
寸法
 62
     0
 48
50.0
370
    -2
100
AcDbLine
 10
7813.600000000008
 20
6732.304988885511
 30
0.0
 11
7813.600000000008
 21
7684.91380555576
 31
0.0
  0
LINE
  5
25433
330
24DAE
100
AcDbEntity
  8
寸法
 62
     0
 48
50.0
370
    -2
100
AcDbLine
 10
6993.600000000009
 20
6732.304988885511
 30
0.0
 11
6993.600000000009
 21
7684.91380555576
 31
0.0
  0
LINE
  5
25434
330
24DAE
100
AcDbEntity
  8
寸法
 62
     0
 48
50.0
370
    -2
100
AcDbLine
 10
7813.600000000008
 20
7624.91380555576
 30
0.0
 11
6993.600000000009
 21
7624.91380555576
 31
0.0
  0
INSERT
  5
25435
330
24DAE
100
AcDbEntity
  8
寸法
 62
     0
 48
50.0
370
    -2
100
AcDbBlockReference
  2
_DOTSMALL
 10
7813.600000000008
 20
7624.91380555576
 30
0.0
 41
100.0
 42
100.0
 43
100.0
  0
INSERT
  5
25436
330
24DAE
100
AcDbEntity
  8
寸法
 62
     0
 48
50.0
370
    -2
100
AcDbBlockReference
  2
_DOTSMALL
 10
6993.600000000009
 20
7624.91380555576
 30
0.0
 41
100.0
 42
100.0
 43
100.0
 50
180.0
  0
MTEXT
  5
25437
330
24DAE
100
AcDbEntity
  8
寸法
 62
     7
 48
50.0
100
AcDbMText
 10
7403.600000000008
 20
7724.925616579381
 30
0.0
 40
120.0
 41
0.0
 71
     5
 72
     1
  1
\A1;820
  7
STYLE1
 73
     1
 44
1.0
1001
ACAD
1000
MTEXTBEGIN
1070
    73
1070
     1
1070
    44
1040
1.0
1070
    74
1070
     0
1000
MTEXTEND
  0
POINT
  5
25438
330
24DAE
100
AcDbEntity
  8
DEFPOINTS
 62
     0
 48
50.0
100
AcDbPoint
 10
7813.600000000008
 20
6712.30498888551
 30
0.0
  0
POINT
  5
25439
330
24DAE
100
AcDbEntity
  8
DEFPOINTS
 62
     0
 48
50.0
100
AcDbPoint
 10
6993.600000000009
 20
6712.30498888551
 30
0.0
  0
POINT
  5
2543A
330
24DAE
100
AcDbEntity
  8
DEFPOINTS
 62
     0
 48
50.0
100
AcDbPoint
 10
6993.600000000009
 20
7624.91380555576
 30
0.0
  0
ENDBLK
  5
24DB9
330
24DAE
100
AcDbEntity
  8
0
 48
50.0
100
AcDbBlockEnd
  0
BLOCK
  5
24DC4
330
24DBA
100
AcDbEntity
  8
0
 48
50.0
100
AcDbBlockBegin
  2
*D45
 70
     1
 10
0.0
 20
0.0
 30
0.0
  3
*D45
  1

  0
LINE
  5
25429
330
24DBA
100
AcDbEntity
  8
寸法
 62
     0
 48
50.0
370
    -2
100
AcDbLine
 10
10273.60000000001
 20
6732.304988885511
 30
0.0
 11
10273.60000000001
 21
7684.91380555576
 31
0.0
  0
LINE
  5
2542A
330
24DBA
100
AcDbEntity
  8
寸法
 62
     0
 48
50.0
370
    -2
100
AcDbLine
 10
9453.60000000001
 20
6732.304988885511
 30
0.0
 11
9453.60000000001
 21
7684.91380555576
 31
0.0
  0
LINE
  5
2542B
330
24DBA
100
AcDbEntity
  8
寸法
 62
     0
 48
50.0
370
    -2
100
AcDbLine
 10
10273.60000000001
 20
7624.91380555576
 30
0.0
 11
9453.60000000001
 21
7624.91380555576
 31
0.0
  0
INSERT
  5
2542C
330
24DBA
100
AcDbEntity
  8
寸法
 62
     0
 48
50.0
370
    -2
100
AcDbBlockReference
  2
_DOTSMALL
 10
10273.60000000001
 20
7624.91380555576
 30
0.0
 41
100.0
 42
100.0
 43
100.0
  0
INSERT
  5
2542D
330
24DBA
100
AcDbEntity
  8
寸法
 62
     0
 48
50.0
370
    -2
100
AcDbBlockReference
  2
_DOTSMALL
 10
9453.60000000001
 20
7624.91380555576
 30
0.0
 41
100.0
 42
100.0
 43
100.0
 50
180.0
  0
MTEXT
  5
2542E
330
24DBA
100
AcDbEntity
  8
寸法
 62
     7
 48
50.0
100
AcDbMText
 10
9863.60000000001
 20
7724.925616579381
 30
0.0
 40
120.0
 41
0.0
 71
     5
 72
     1
  1
\A1;820
  7
STYLE1
 73
     1
 44
1.0
1001
ACAD
1000
MTEXTBEGIN
1070
    73
1070
     1
1070
    44
1040
1.0
1070
    74
1070
     0
1000
MTEXTEND
  0
POINT
  5
2542F
330
24DBA
100
AcDbEntity
  8
DEFPOINTS
 62
     0
 48
50.0
100
AcDbPoint
 10
10273.60000000001
 20
6712.30498888551
 30
0.0
  0
POINT
  5
25430
330
24DBA
100
AcDbEntity
  8
DEFPOINTS
 62
     0
 48
50.0
100
AcDbPoint
 10
9453.60000000001
 20
6712.30498888551
 30
0.0
  0
POINT
  5
25431
330
24DBA
100
AcDbEntity
  8
DEFPOINTS
 62
     0
 48
50.0
100
AcDbPoint
 10
9453.60000000001
 20
7624.91380555576
 30
0.0
  0
ENDBLK
  5
24DC5
330
24DBA
100
AcDbEntity
  8
0
 48
50.0
100
AcDbBlockEnd
  0
BLOCK
  5
24DD0
330
24DC6
100
AcDbEntity
  8
0
 48
50.0
100
AcDbBlockBegin
  2
*D46
 70
     1
 10
0.0
 20
0.0
 30
0.0
  3
*D46
  1

  0
LINE
  5
25420
330
24DC6
100
AcDbEntity
  8
寸法
 62
     0
 48
50.0
370
    -2
100
AcDbLine
 10
10975.6
 20
7089.304988885512
 30
0.0
 11
10975.6
 21
7928.571446979423
 31
0.0
  0
LINE
  5
25421
330
24DC6
100
AcDbEntity
  8
寸法
 62
     0
 48
50.0
370
    -2
100
AcDbLine
 10
8515.600000000002
 20
7089.304988885512
 30
0.0
 11
8515.600000000002
 21
7928.571446979423
 31
0.0
  0
LINE
  5
25422
330
24DC6
100
AcDbEntity
  8
寸法
 62
     0
 48
50.0
370
    -2
100
AcDbLine
 10
10975.6
 20
7868.571446979422
 30
0.0
 11
8515.600000000002
 21
7868.571446979422
 31
0.0
  0
INSERT
  5
25423
330
24DC6
100
AcDbEntity
  8
寸法
 62
     0
 48
50.0
370
    -2
100
AcDbBlockReference
  2
_DOTSMALL
 10
10975.6
 20
7868.571446979422
 30
0.0
 41
100.0
 42
100.0
 43
100.0
  0
INSERT
  5
25424
330
24DC6
100
AcDbEntity
  8
寸法
 62
     0
 48
50.0
370
    -2
100
AcDbBlockReference
  2
_DOTSMALL
 10
8515.600000000002
 20
7868.571446979422
 30
0.0
 41
100.0
 42
100.0
 43
100.0
 50
180.0
  0
MTEXT
  5
25425
330
24DC6
100
AcDbEntity
  8
寸法
 62
     7
 48
50.0
100
AcDbMText
 10
9745.600000000003
 20
7968.583258003043
 30
0.0
 40
120.0
 41
0.0
 71
     5
 72
     1
  1
\A1;2460
  7
STYLE1
 73
     1
 44
1.0
1001
ACAD
1000
MTEXTBEGIN
1070
    73
1070
     1
1070
    44
1040
1.0
1070
    74
1070
     0
1000
MTEXTEND
  0
POINT
  5
25426
330
24DC6
100
AcDbEntity
  8
DEFPOINTS
 62
     0
 48
50.0
100
AcDbPoint
 10
10975.6
 20
7069.304988885511
 30
0.0
  0
POINT
  5
25427
330
24DC6
100
AcDbEntity
  8
DEFPOINTS
 62
     0
 48
50.0
100
AcDbPoint
 10
8515.600000000002
 20
7069.304988885511
 30
0.0
  0
POINT
  5
25428
330
24DC6
100
AcDbEntity
  8
DEFPOINTS
 62
     0
 48
50.0
100
AcDbPoint
 10
8515.600000000002
 20
7868.571446979422
 30
0.0
  0
ENDBLK
  5
24DD1
330
24DC6
100
AcDbEntity
  8
0
 48
50.0
100
AcDbBlockEnd
  0
BLOCK
  5
24DDC
330
24DD2
100
AcDbEntity
  8
0
 48
50.0
100
AcDbBlockBegin
  2
*D47
 70
     1
 10
0.0
 20
0.0
 30
0.0
  3
*D47
  1

  0
LINE
  5
25417
330
24DD2
100
AcDbEntity
  8
寸法
 62
     0
 48
50.0
370
    -2
100
AcDbLine
 10
9453.60000000001
 20
6732.304988885511
 30
0.0
 11
9453.60000000001
 21
7684.91380555576
 31
0.0
  0
LINE
  5
25418
330
24DD2
100
AcDbEntity
  8
寸法
 62
     0
 48
50.0
370
    -2
100
AcDbLine
 10
8633.60000000001
 20
6732.304988885511
 30
0.0
 11
8633.60000000001
 21
7684.91380555576
 31
0.0
  0
LINE
  5
25419
330
24DD2
100
AcDbEntity
  8
寸法
 62
     0
 48
50.0
370
    -2
100
AcDbLine
 10
9453.60000000001
 20
7624.91380555576
 30
0.0
 11
8633.60000000001
 21
7624.91380555576
 31
0.0
  0
INSERT
  5
2541A
330
24DD2
100
AcDbEntity
  8
寸法
 62
     0
 48
50.0
370
    -2
100
AcDbBlockReference
  2
_DOTSMALL
 10
9453.60000000001
 20
7624.91380555576
 30
0.0
 41
100.0
 42
100.0
 43
100.0
  0
INSERT
  5
2541B
330
24DD2
100
AcDbEntity
  8
寸法
 62
     0
 48
50.0
370
    -2
100
AcDbBlockReference
  2
_DOTSMALL
 10
8633.60000000001
 20
7624.91380555576
 30
0.0
 41
100.0
 42
100.0
 43
100.0
 50
180.0
  0
MTEXT
  5
2541C
330
24DD2
100
AcDbEntity
  8
寸法
 62
     7
 48
50.0
100
AcDbMText
 10
9043.60000000001
 20
7724.925616579381
 30
0.0
 40
120.0
 41
0.0
 71
     5
 72
     1
  1
\A1;820
  7
STYLE1
 73
     1
 44
1.0
1001
ACAD
1000
MTEXTBEGIN
1070
    73
1070
     1
1070
    44
1040
1.0
1070
    74
1070
     0
1000
MTEXTEND
  0
POINT
  5
2541D
330
24DD2
100
AcDbEntity
  8
DEFPOINTS
 62
     0
 48
50.0
100
AcDbPoint
 10
9453.60000000001
 20
6712.30498888551
 30
0.0
  0
POINT
  5
2541E
330
24DD2
100
AcDbEntity
  8
DEFPOINTS
 62
     0
 48
50.0
100
AcDbPoint
 10
8633.60000000001
 20
6712.30498888551
 30
0.0
  0
POINT
  5
2541F
330
24DD2
100
AcDbEntity
  8
DEFPOINTS
 62
     0
 48
50.0
100
AcDbPoint
 10
8633.60000000001
 20
7624.91380555576
 30
0.0
  0
ENDBLK
  5
24DDD
330
24DD2
100
AcDbEntity
  8
0
 48
50.0
100
AcDbBlockEnd
  0
BLOCK
  5
24DF6
330
24DEB
100
AcDbEntity
  8
0
 48
50.0
100
AcDbBlockBegin
  2
*D48
 70
     1
 10
0.0
 20
0.0
 30
0.0
  3
*D48
  1

  0
LINE
  5
2540D
330
24DEB
100
AcDbEntity
  8
寸法
 62
     0
 48
50.0
370
    -2
100
AcDbLine
 10
11098.6
 20
7162.304988885511
 30
0.0
 11
11098.6
 21
7928.571446979423
 31
0.0
  0
LINE
  5
2540E
330
24DEB
100
AcDbEntity
  8
寸法
 62
     0
 48
50.0
370
    -2
100
AcDbLine
 10
10975.6
 20
7089.304988885512
 30
0.0
 11
10975.6
 21
7928.571446979423
 31
0.0
  0
LINE
  5
2540F
330
24DEB
100
AcDbEntity
  8
寸法
 62
     0
 48
50.0
370
    -2
100
AcDbLine
 10
10975.6
 20
7868.571446979422
 30
0.0
 11
11098.6
 21
7868.571446979422
 31
0.0
  0
LINE
  5
25410
330
24DEB
100
AcDbEntity
  8
寸法
 62
     0
 48
50.0
370
    -2
100
AcDbLine
 10
11098.6
 20
7868.571446979422
 30
0.0
 11
11510.19188309204
 21
7868.571446979422
 31
0.0
  0
INSERT
  5
25411
330
24DEB
100
AcDbEntity
  8
寸法
 62
     0
 48
50.0
370
    -2
100
AcDbBlockReference
  2
_DOTSMALL
 10
10975.6
 20
7868.571446979422
 30
0.0
 41
100.0
 42
100.0
 43
100.0
 50
180.0
  0
INSERT
  5
25412
330
24DEB
100
AcDbEntity
  8
寸法
 62
     0
 48
50.0
370
    -2
100
AcDbBlockReference
  2
_DOTSMALL
 10
11098.6
 20
7868.571446979422
 30
0.0
 41
100.0
 42
100.0
 43
100.0
  0
MTEXT
  5
25413
330
24DEB
100
AcDbEntity
  8
寸法
 62
     7
 48
50.0
100
AcDbMText
 10
11371.7066017178
 20
7968.583258003043
 30
0.0
 40
120.0
 41
0.0
 71
     5
 72
     1
  1
\A1;123
  7
STYLE1
 73
     1
 44
1.0
1001
ACAD
1000
MTEXTBEGIN
1070
    73
1070
     1
1070
    44
1040
1.0
1070
    74
1070
     0
1000
MTEXTEND
  0
POINT
  5
25414
330
24DEB
100
AcDbEntity
  8
DEFPOINTS
 62
     0
 48
50.0
100
AcDbPoint
 10
11098.6
 20
7142.304988885512
 30
0.0
  0
POINT
  5
25415
330
24DEB
100
AcDbEntity
  8
DEFPOINTS
 62
     0
 48
50.0
100
AcDbPoint
 10
10975.6
 20
7069.304988885511
 30
0.0
  0
POINT
  5
25416
330
24DEB
100
AcDbEntity
  8
DEFPOINTS
 62
     0
 48
50.0
100
AcDbPoint
 10
10975.6
 20
7868.571446979422
 30
0.0
  0
ENDBLK
  5
24DF7
330
24DEB
100
AcDbEntity
  8
0
 48
50.0
100
AcDbBlockEnd
  0
BLOCK
  5
24E02
330
24DF8
100
AcDbEntity
  8
0
 48
50.0
100
AcDbBlockBegin
  2
*D49
 70
     1
 10
0.0
 20
0.0
 30
0.0
  3
*D49
  1

  0
LINE
  5
25404
330
24DF8
100
AcDbEntity
  8
寸法
 62
     0
 48
50.0
370
    -2
100
AcDbLine
 10
11098.6
 20
7162.304988885511
 30
0.0
 11
11098.6
 21
7684.91380555576
 31
0.0
  0
LINE
  5
25405
330
24DF8
100
AcDbEntity
  8
寸法
 62
     0
 48
50.0
370
    -2
100
AcDbLine
 10
10273.60000000001
 20
6732.304988885511
 30
0.0
 11
10273.60000000001
 21
7684.91380555576
 31
0.0
  0
LINE
  5
25406
330
24DF8
100
AcDbEntity
  8
寸法
 62
     0
 48
50.0
370
    -2
100
AcDbLine
 10
11098.6
 20
7624.91380555576
 30
0.0
 11
10273.60000000001
 21
7624.91380555576
 31
0.0
  0
INSERT
  5
25407
330
24DF8
100
AcDbEntity
  8
寸法
 62
     0
 48
50.0
370
    -2
100
AcDbBlockReference
  2
_DOTSMALL
 10
11098.6
 20
7624.91380555576
 30
0.0
 41
100.0
 42
100.0
 43
100.0
  0
INSERT
  5
25408
330
24DF8
100
AcDbEntity
  8
寸法
 62
     0
 48
50.0
370
    -2
100
AcDbBlockReference
  2
_DOTSMALL
 10
10273.60000000001
 20
7624.91380555576
 30
0.0
 41
100.0
 42
100.0
 43
100.0
 50
180.0
  0
MTEXT
  5
25409
330
24DF8
100
AcDbEntity
  8
寸法
 62
     7
 48
50.0
100
AcDbMText
 10
10686.1
 20
7724.925616579381
 30
0.0
 40
120.0
 41
0.0
 71
     5
 72
     1
  1
\A1;825
  7
STYLE1
 73
     1
 44
1.0
1001
ACAD
1000
MTEXTBEGIN
1070
    73
1070
     1
1070
    44
1040
1.0
1070
    74
1070
     0
1000
MTEXTEND
  0
POINT
  5
2540A
330
24DF8
100
AcDbEntity
  8
DEFPOINTS
 62
     0
 48
50.0
100
AcDbPoint
 10
11098.6
 20
7142.304988885512
 30
0.0
  0
POINT
  5
2540B
330
24DF8
100
AcDbEntity
  8
DEFPOINTS
 62
     0
 48
50.0
100
AcDbPoint
 10
10273.60000000001
 20
6712.30498888551
 30
0.0
  0
POINT
  5
2540C
330
24DF8
100
AcDbEntity
  8
DEFPOINTS
 62
     0
 48
50.0
100
AcDbPoint
 10
10273.60000000001
 20
7624.91380555576
 30
0.0
  0
ENDBLK
  5
24E03
330
24DF8
100
AcDbEntity
  8
0
 48
50.0
100
AcDbBlockEnd
  0
BLOCK
  5
25BBC
330
25BB2
100
AcDbEntity
  8
0
 48
50.0
100
AcDbBlockBegin
  2
*D68
 70
     1
 10
0.0
 20
0.0
 30
0.0
  3
*D68
  1

  0
LINE
  5
25BFC
330
25BB2
100
AcDbEntity
  8
寸法
 62
     0
 48
50.0
370
    -2
100
AcDbLine
 10
6689.169463008507
 20
2106.398727274804
 30
0.0
 11
6689.169463008507
 21
2566.066535191184
 31
0.0
  0
LINE
  5
25BFD
330
25BB2
100
AcDbEntity
  8
寸法
 62
     0
 48
50.0
370
    -2
100
AcDbLine
 10
6497.169463008507
 20
2106.398727274804
 30
0.0
 11
6497.169463008507
 21
2566.066535191184
 31
0.0
  0
LINE
  5
25BFE
330
25BB2
100
AcDbEntity
  8
寸法
 62
     0
 48
50.0
370
    -2
100
AcDbLine
 10
6689.169463008507
 20
2506.066535191184
 30
0.0
 11
6497.169463008507
 21
2506.066535191184
 31
0.0
  0
INSERT
  5
25BFF
330
25BB2
100
AcDbEntity
  8
寸法
 62
     0
 48
50.0
370
    -2
100
AcDbBlockReference
  2
_DOTSMALL
 10
6689.169463008507
 20
2506.066535191184
 30
0.0
 41
100.0
 42
100.0
 43
100.0
  0
INSERT
  5
25C00
330
25BB2
100
AcDbEntity
  8
寸法
 62
     0
 48
50.0
370
    -2
100
AcDbBlockReference
  2
_DOTSMALL
 10
6497.169463008507
 20
2506.066535191184
 30
0.0
 41
100.0
 42
100.0
 43
100.0
 50
180.0
  0
MTEXT
  5
25C01
330
25BB2
100
AcDbEntity
  8
寸法
 62
     7
 48
50.0
100
AcDbMText
 10
6593.169463008506
 20
2806.10196826205
 30
0.0
 40
120.0
 41
0.0
 71
     5
 72
     1
  1
\A1;120\P200\P280
  7
STYLE1
 73
     1
 44
1.0
1001
ACAD
1000
MTEXTBEGIN
1070
    73
1070
     1
1070
    44
1040
1.0
1070
    74
1070
     0
1000
MTEXTEND
  0
POINT
  5
25C02
330
25BB2
100
AcDbEntity
  8
DEFPOINTS
 62
     0
 48
50.0
100
AcDbPoint
 10
6689.169463008507
 20
2086.398727274804
 30
0.0
  0
POINT
  5
25C03
330
25BB2
100
AcDbEntity
  8
DEFPOINTS
 62
     0
 48
50.0
100
AcDbPoint
 10
6497.169463008507
 20
2086.398727274804
 30
0.0
  0
POINT
  5
25C04
330
25BB2
100
AcDbEntity
  8
DEFPOINTS
 62
     0
 48
50.0
100
AcDbPoint
 10
6497.169463008507
 20
2506.066535191184
 30
0.0
  0
ENDBLK
  5
25BBD
330
25BB2
100
AcDbEntity
  8
0
 48
50.0
100
AcDbBlockEnd
  0
BLOCK
  5
25BC8
330
25BBE
100
AcDbEntity
  8
0
 48
50.0
100
AcDbBlockBegin
  2
*D69
 70
     1
 10
0.0
 20
0.0
 30
0.0
  3
*D69
  1

  0
LINE
  5
25C05
330
25BBE
100
AcDbEntity
  8
寸法
 62
     0
 48
50.0
370
    -2
100
AcDbLine
 10
6369.169463008507
 20
1154.398727274803
 30
0.0
 11
6369.169463008507
 21
703.9690892696435
 31
0.0
  0
LINE
  5
25C06
330
25BBE
100
AcDbEntity
  8
寸法
 62
     0
 48
50.0
370
    -2
100
AcDbLine
 10
6817.169463008507
 20
1154.398727274803
 30
0.0
 11
6817.169463008507
 21
703.9690892696435
 31
0.0
  0
LINE
  5
25C07
330
25BBE
100
AcDbEntity
  8
寸法
 62
     0
 48
50.0
370
    -2
100
AcDbLine
 10
6369.169463008507
 20
763.9690892696435
 30
0.0
 11
6817.169463008507
 21
763.9690892696435
 31
0.0
  0
INSERT
  5
25C08
330
25BBE
100
AcDbEntity
  8
寸法
 62
     0
 48
50.0
370
    -2
100
AcDbBlockReference
  2
_DOTSMALL
 10
6369.169463008507
 20
763.9690892696435
 30
0.0
 41
100.0
 42
100.0
 43
100.0
 50
180.0
  0
INSERT
  5
25C09
330
25BBE
100
AcDbEntity
  8
寸法
 62
     0
 48
50.0
370
    -2
100
AcDbBlockReference
  2
_DOTSMALL
 10
6817.169463008507
 20
763.9690892696435
 30
0.0
 41
100.0
 42
100.0
 43
100.0
  0
MTEXT
  5
25C0A
330
25BBE
100
AcDbEntity
  8
寸法
 62
     7
 48
50.0
100
AcDbMText
 10
6573.072704330283
 20
863.9690892696435
 30
0.0
 40
120.0
 41
0.0
 71
     5
 72
     1
  1
\A1;300
  7
STYLE1
 73
     1
 44
1.0
1001
ACAD
1000
MTEXTBEGIN
1070
    73
1070
     1
1070
    44
1040
1.0
1070
    74
1070
     0
1000
MTEXTEND
  0
POINT
  5
25C0B
330
25BBE
100
AcDbEntity
  8
DEFPOINTS
 62
     0
 48
50.0
100
AcDbPoint
 10
6369.169463008507
 20
1174.398727274803
 30
0.0
  0
POINT
  5
25C0C
330
25BBE
100
AcDbEntity
  8
DEFPOINTS
 62
     0
 48
50.0
100
AcDbPoint
 10
6817.169463008507
 20
1174.398727274803
 30
0.0
  0
POINT
  5
25C0D
330
25BBE
100
AcDbEntity
  8
DEFPOINTS
 62
     0
 48
50.0
100
AcDbPoint
 10
6817.169463008507
 20
763.9690892696435
 30
0.0
  0
ENDBLK
  5
25BC9
330
25BBE
100
AcDbEntity
  8
0
 48
50.0
100
AcDbBlockEnd
  0
BLOCK
  5
25BD4
330
25BCA
100
AcDbEntity
  8
0
 48
50.0
100
AcDbBlockBegin
  2
*D70
 70
     1
 10
0.0
 20
0.0
 30
0.0
  3
*D70
  1

  0
LINE
  5
25C0E
330
25BCA
100
AcDbEntity
  8
寸法
 62
     0
 48
50.0
370
    -2
100
AcDbLine
 10
6477.169463008507
 20
2086.398727274804
 30
0.0
 11
5702.132224446767
 21
2086.398727274804
 31
0.0
  0
LINE
  5
25C0F
330
25BCA
100
AcDbEntity
  8
寸法
 62
     0
 48
50.0
370
    -2
100
AcDbLine
 10
6269.16946300851
 20
1302.398727274803
 30
0.0
 11
5702.132224446767
 21
1302.398727274803
 31
0.0
  0
LINE
  5
25C10
330
25BCA
100
AcDbEntity
  8
寸法
 62
     0
 48
50.0
370
    -2
100
AcDbLine
 10
5762.132224446768
 20
2086.398727274804
 30
0.0
 11
5762.132224446766
 21
1302.398727274803
 31
0.0
  0
INSERT
  5
25C11
330
25BCA
100
AcDbEntity
  8
寸法
 62
     0
 48
50.0
370
    -2
100
AcDbBlockReference
  2
_DOTSMALL
 10
5762.132224446768
 20
2086.398727274804
 30
0.0
 41
100.0
 42
100.0
 43
100.0
 50
90.0
  0
INSERT
  5
25C12
330
25BCA
100
AcDbEntity
  8
寸法
 62
     0
 48
50.0
370
    -2
100
AcDbBlockReference
  2
_DOTSMALL
 10
5762.132224446766
 20
1302.398727274803
 30
0.0
 41
100.0
 42
100.0
 43
100.0
 50
270.0
  0
MTEXT
  5
25C13
330
25BCA
100
AcDbEntity
  8
寸法
 62
     7
 48
50.0
100
AcDbMText
 10
5662.132224446766
 20
1673.938876930804
 30
0.0
 40
120.0
 41
0.0
 71
     5
 72
     1
  1
\A1;540
  7
STYLE1
 11
0.0000000000000001
 21
1.0
 31
0.0
 73
     1
 44
1.0
1001
ACAD
1000
MTEXTBEGIN
1070
    73
1070
     1
1070
    44
1040
1.0
1070
    74
1070
     0
1000
MTEXTEND
  0
POINT
  5
25C14
330
25BCA
100
AcDbEntity
  8
DEFPOINTS
 62
     0
 48
50.0
100
AcDbPoint
 10
6497.169463008507
 20
2086.398727274804
 30
0.0
  0
POINT
  5
25C15
330
25BCA
100
AcDbEntity
  8
DEFPOINTS
 62
     0
 48
50.0
100
AcDbPoint
 10
6289.16946300851
 20
1302.398727274803
 30
0.0
  0
POINT
  5
25C16
330
25BCA
100
AcDbEntity
  8
DEFPOINTS
 62
     0
 48
50.0
100
AcDbPoint
 10
5762.132224446766
 20
1302.398727274803
 30
0.0
  0
ENDBLK
  5
25BD5
330
25BCA
100
AcDbEntity
  8
0
 48
50.0
100
AcDbBlockEnd
  0
BLOCK
  5
25BE0
330
25BD6
100
AcDbEntity
  8
0
 48
50.0
100
AcDbBlockBegin
  2
*D71
 70
     1
 10
0.0
 20
0.0
 30
0.0
  3
*D71
  1

  0
LINE
  5
25C17
330
25BD6
100
AcDbEntity
  8
寸法
 62
     0
 48
50.0
370
    -2
100
AcDbLine
 10
6349.169463008507
 20
1542.398727274803
 30
0.0
 11
6166.749149276047
 21
1542.398727274803
 31
0.0
  0
LINE
  5
25C18
330
25BD6
100
AcDbEntity
  8
寸法
 62
     0
 48
50.0
370
    -2
100
AcDbLine
 10
6269.16946300851
 20
1302.398727274803
 30
0.0
 11
6166.749149276047
 21
1302.398727274803
 31
0.0
  0
LINE
  5
25C19
330
25BD6
100
AcDbEntity
  8
寸法
 62
     0
 48
50.0
370
    -2
100
AcDbLine
 10
6226.749149276048
 20
1542.398727274803
 30
0.0
 11
6226.749149276048
 21
1302.398727274803
 31
0.0
  0
INSERT
  5
25C1A
330
25BD6
100
AcDbEntity
  8
寸法
 62
     0
 48
50.0
370
    -2
100
AcDbBlockReference
  2
_DOTSMALL
 10
6226.749149276048
 20
1542.398727274803
 30
0.0
 41
100.0
 42
100.0
 43
100.0
 50
90.0
  0
INSERT
  5
25C1B
330
25BD6
100
AcDbEntity
  8
寸法
 62
     0
 48
50.0
370
    -2
100
AcDbBlockReference
  2
_DOTSMALL
 10
6226.749149276048
 20
1302.398727274803
 30
0.0
 41
100.0
 42
100.0
 43
100.0
 50
270.0
  0
MTEXT
  5
25C1C
330
25BD6
100
AcDbEntity
  8
寸法
 62
     7
 48
50.0
100
AcDbMText
 10
6126.749149276047
 20
1422.398727274804
 30
0.0
 40
120.0
 41
0.0
 71
     5
 72
     1
  1
\A1;150
  7
STYLE1
 11
0.0000000000000001
 21
1.0
 31
0.0
 73
     1
 44
1.0
1001
ACAD
1000
MTEXTBEGIN
1070
    73
1070
     1
1070
    44
1040
1.0
1070
    74
1070
     0
1000
MTEXTEND
  0
POINT
  5
25C1D
330
25BD6
100
AcDbEntity
  8
DEFPOINTS
 62
     0
 48
50.0
100
AcDbPoint
 10
6369.169463008507
 20
1542.398727274803
 30
0.0
  0
POINT
  5
25C1E
330
25BD6
100
AcDbEntity
  8
DEFPOINTS
 62
     0
 48
50.0
100
AcDbPoint
 10
6289.16946300851
 20
1302.398727274803
 30
0.0
  0
POINT
  5
25C1F
330
25BD6
100
AcDbEntity
  8
DEFPOINTS
 62
     0
 48
50.0
100
AcDbPoint
 10
6226.749149276048
 20
1302.398727274803
 30
0.0
  0
ENDBLK
  5
25BE1
330
25BD6
100
AcDbEntity
  8
0
 48
50.0
100
AcDbBlockEnd
  0
BLOCK
  5
25BEE
330
25BE2
100
AcDbEntity
  8
0
 48
50.0
100
AcDbBlockBegin
  2
*D72
 70
     1
 10
0.0
 20
0.0
 30
0.0
  3
*D72
  1

  0
LINE
  5
25C20
330
25BE2
100
AcDbEntity
  8
寸法
 62
     0
 48
50.0
370
    -2
100
AcDbLine
 10
8444.008776185702
 20
2139.158727274805
 30
0.0
 11
9449.132042073571
 21
2139.158727274804
 31
0.0
  0
LINE
  5
25C21
330
25BE2
100
AcDbEntity
  8
寸法
 62
     0
 48
50.0
370
    -2
100
AcDbLine
 10
8631.208776185699
 20
2086.398727274804
 30
0.0
 11
9449.132042073571
 21
2086.398727274803
 31
0.0
  0
LINE
  5
25C22
330
25BE2
100
AcDbEntity
  8
寸法
 62
     0
 48
50.0
370
    -2
100
AcDbLine
 10
9389.132042073573
 20
2139.158727274804
 30
0.0
 11
9389.132042073573
 21
2239.158727274805
 31
0.0
  0
LINE
  5
25C23
330
25BE2
100
AcDbEntity
  8
寸法
 62
     0
 48
50.0
370
    -2
100
AcDbLine
 10
9389.132042073573
 20
2086.398727274803
 30
0.0
 11
9389.132042073573
 21
1354.380920431837
 31
0.0
  0
LINE
  5
25C24
330
25BE2
100
AcDbEntity
  8
寸法
 62
     0
 48
50.0
370
    -2
100
AcDbLine
 10
9389.132042073573
 20
2139.158727274804
 30
0.0
 11
9389.132042073573
 21
2086.398727274803
 31
0.0
  0
INSERT
  5
25C25
330
25BE2
100
AcDbEntity
  8
寸法
 62
     0
 48
50.0
370
    -2
100
AcDbBlockReference
  2
_DOTSMALL
 10
9389.132042073573
 20
2139.158727274804
 30
0.0
 41
100.0
 42
100.0
 43
100.0
 50
270.0
  0
INSERT
  5
25C26
330
25BE2
100
AcDbEntity
  8
寸法
 62
     0
 48
50.0
370
    -2
100
AcDbBlockReference
  2
_DOTSMALL
 10
9389.132042073573
 20
2086.398727274803
 30
0.0
 41
100.0
 42
100.0
 43
100.0
 50
90.0
  0
MTEXT
  5
25C27
330
25BE2
100
AcDbEntity
  8
寸法
 62
     7
 48
50.0
100
AcDbMText
 10
9289.120231049951
 20
1620.389823853321
 30
0.0
 40
120.0
 41
0.0
 71
     5
 72
     1
  1
\A1;20～25
  7
STYLE1
 11
0.0000000000000001
 21
1.0
 31
0.0
 73
     1
 44
1.0
1001
ACAD
1000
MTEXTBEGIN
1070
    73
1070
     1
1070
    44
1040
1.0
1070
    74
1070
     0
1000
MTEXTEND
  0
POINT
  5
25C28
330
25BE2
100
AcDbEntity
  8
DEFPOINTS
 62
     0
 48
50.0
100
AcDbPoint
 10
8424.008776185701
 20
2139.158727274805
 30
0.0
  0
POINT
  5
25C29
330
25BE2
100
AcDbEntity
  8
DEFPOINTS
 62
     0
 48
50.0
100
AcDbPoint
 10
8611.2087761857
 20
2086.398727274804
 30
0.0
  0
POINT
  5
25C2A
330
25BE2
100
AcDbEntity
  8
DEFPOINTS
 62
     0
 48
50.0
100
AcDbPoint
 10
9389.132042073573
 20
2086.398727274803
 30
0.0
  0
ENDBLK
  5
25BEF
330
25BE2
100
AcDbEntity
  8
0
 48
50.0
100
AcDbBlockEnd
  0
BLOCK
  5
25BFA
330
25BF0
100
AcDbEntity
  8
0
 48
50.0
100
AcDbBlockBegin
  2
*D73
 70
     1
 10
0.0
 20
0.0
 30
0.0
  3
*D73
  1

  0
LINE
  5
25C2B
330
25BF0
100
AcDbEntity
  8
寸法
 62
     0
 48
50.0
370
    -2
100
AcDbLine
 10
8631.208776185699
 20
2086.398727274804
 30
0.0
 11
9173.077375954544
 21
2086.398727274804
 31
0.0
  0
LINE
  5
25C2C
330
25BF0
100
AcDbEntity
  8
寸法
 62
     0
 48
50.0
370
    -2
100
AcDbLine
 10
8631.208776185699
 20
1762.398727274803
 30
0.0
 11
9173.077375954544
 21
1762.398727274802
 31
0.0
  0
LINE
  5
25C2D
330
25BF0
100
AcDbEntity
  8
寸法
 62
     0
 48
50.0
370
    -2
100
AcDbLine
 10
9113.077375954544
 20
2086.398727274804
 30
0.0
 11
9113.077375954544
 21
1762.398727274802
 31
0.0
  0
INSERT
  5
25C2E
330
25BF0
100
AcDbEntity
  8
寸法
 62
     0
 48
50.0
370
    -2
100
AcDbBlockReference
  2
_DOTSMALL
 10
9113.077375954544
 20
2086.398727274804
 30
0.0
 41
100.0
 42
100.0
 43
100.0
 50
90.0
  0
INSERT
  5
25C2F
330
25BF0
100
AcDbEntity
  8
寸法
 62
     0
 48
50.0
370
    -2
100
AcDbBlockReference
  2
_DOTSMALL
 10
9113.077375954544
 20
1762.398727274802
 30
0.0
 41
100.0
 42
100.0
 43
100.0
 50
270.0
  0
MTEXT
  5
25C30
330
25BF0
100
AcDbEntity
  8
寸法
 62
     7
 48
50.0
100
AcDbMText
 10
9013.077375954544
 20
1924.398727274805
 30
0.0
 40
120.0
 41
0.0
 71
     5
 72
     1
  1
\A1;180
  7
STYLE1
 11
0.0000000000000001
 21
1.0
 31
0.0
 73
     1
 44
1.0
1001
ACAD
1000
MTEXTBEGIN
1070
    73
1070
     1
1070
    44
1040
1.0
1070
    74
1070
     0
1000
MTEXTEND
  0
POINT
  5
25C31
330
25BF0
100
AcDbEntity
  8
DEFPOINTS
 62
     0
 48
50.0
100
AcDbPoint
 10
8611.2087761857
 20
2086.398727274804
 30
0.0
  0
POINT
  5
25C32
330
25BF0
100
AcDbEntity
  8
DEFPOINTS
 62
     0
 48
50.0
100
AcDbPoint
 10
8611.2087761857
 20
1762.398727274803
 30
0.0
  0
POINT
  5
25C33
330
25BF0
100
AcDbEntity
  8
DEFPOINTS
 62
     0
 48
50.0
100
AcDbPoint
 10
9113.077375954544
 20
1762.398727274802
 30
0.0
  0
ENDBLK
  5
25BFB
330
25BF0
100
AcDbEntity
  8
0
 48
50.0
100
AcDbBlockEnd
  0
ENDSEC
  0
SECTION
  2
ENTITIES
  0
MTEXT
  5
763F
330
747D
100
AcDbEntity
  8
0
100
AcDbMText
 10
302.846345836809
 20
280.1983726409901
 30
0.0
 40
3.5
 41
5.323721266742722
 71
     1
 72
     5
  1

  7
MSMINCHO
 73
     1
 44
1.0
1001
ACAD
1000
MTEXTBEGIN
1070
    73
1070
     1
1070
    44
1040
1.0
1070
    74
1070
     0
1000
MTEXTEND
  0
LINE
  5
10B57
330
747D
100
AcDbEntity
  8
補助
  6
PHANTOM
 62
   230
 48
50.0
100
AcDbLine
 10
139.9999999999995
 20
11409.6
 30
0.0
 11
16307.2
 21
11409.6
 31
0.0
  0
LINE
  5
10B59
330
747D
100
AcDbEntity
  8
仕様書枠
  6
Continuous
 48
50.0
100
AcDbLine
 10
13107.2
 20
1200.0
 30
0.0
 11
13107.2
 21
-0.0000000000000729
 31
0.0
  0
LINE
  5
10B5D
330
747D
100
AcDbEntity
  8
仕様書枠
 48
50.0
100
AcDbLine
 10
140.0
 20
0.0
 30
0.0
 11
16307.2
 21
-0.0000000000000909
 31
0.0
  0
LINE
  5
10B5E
330
747D
100
AcDbEntity
  8
補助
  6
PHANTOM
 62
   230
 48
50.0
100
AcDbLine
 10
16307.2
 20
11409.6
 30
0.0
 11
16307.2
 21
1200.0
 31
0.0
  0
LINE
  5
10B6C
330
747D
100
AcDbEntity
  8
仕様書枠
 48
50.0
100
AcDbLine
 10
13107.2
 20
1200.0
 30
0.0
 11
16307.2
 21
1200.0
 31
0.0
  0
TEXT
  5
10B73
330
747D
100
AcDbEntity
  8
文字
 62
     7
 48
50.0
100
AcDbText
 10
13162.9790565769
 20
895.0906074299405
 30
0.0
 40
200.0
  1
基 礎 図
  7
STYLE2
100
AcDbText
  0
LINE
  5
10B7B
330
747D
100
AcDbEntity
  8
仕様書枠
 48
50.0
100
AcDbLine
 10
13107.2
 20
800.0
 30
0.0
 11
14251.2
 21
800.0
 31
0.0
  0
LINE
  5
10B88
330
747D
100
AcDbEntity
  8
仕様書枠
  6
Continuous
 48
50.0
100
AcDbLine
 10
14251.2
 20
1200.0
 30
0.0
 11
14251.2
 21
800.0
 31
0.0
  0
LINE
  5
16462
330
747D
100
AcDbEntity
  8
仕様書枠
 48
50.0
100
AcDbLine
 10
16307.2
 20
1200.0
 30
0.0
 11
16307.2
 21
-0.0000000000000909
 31
0.0
  0
LINE
  5
1903B
330
747D
100
AcDbEntity
  8
補助
  6
PHANTOM
 62
   230
 48
50.0
100
AcDbLine
 10
140.0
 20
0.0
 30
0.0
 11
139.9999999999995
 21
11409.6
 31
0.0
  0
LEADER
  5
1AC27
330
747D
100
AcDbEntity
  8
寸法
 48
50.0
100
AcDbLeader
  3
INABA_S50G
 73
     0
 74
     0
 75
     1
 40
120.0
 41
720.0000000000001
 76
     3
 10
11098.695499615
 20
6746.408440072696
 30
0.0
 10
11255.46907400128
 20
6485.394526504864
 30
0.0
 10
11380.46907400128
 20
6485.394526504864
 30
0.0
340
1AC28
1001
ACAD
1000
DSTYLE
1002
{
1070
   341
1005
0
1070
    40
1040
1.0
1070
   343
1005
0
1070
   344
1005
0
1002
}
  0
MTEXT
  5
1AC28
102
{ACAD_REACTORS
330
1AC27
102
}
330
747D
100
AcDbEntity
  8
部品1
 62
     7
 48
50.0
100
AcDbMText
 10
12125.46907400128
 20
6570.394526504863
 30
0.0
 40
120.0
 41
0.0
 71
     6
 72
     1
  1
\A1;床下換気口
  7
STYLE1
 73
     1
 44
1.0
1001
ACAD
1000
MTEXTBEGIN
1070
    73
1070
     1
1070
    44
1040
1.0
1070
    74
1070
     0
1000
MTEXTEND
  0
TEXT
  5
1AC29
330
747D
100
AcDbEntity
  8
部品1
 48
50.0
100
AcDbText
 10
11447.43013846117
 20
5907.214087548737
 30
0.0
 40
80.0
  1
(a=45,b=55,c=75)
  7
STYLE1
100
AcDbText
  0
TEXT
  5
1AC2A
330
747D
100
AcDbEntity
  8
部品1
 48
50.0
100
AcDbText
 10
11288.85112970687
 20
6014.059308417491
 30
0.0
 40
80.0
  1
※a,b,cは屋根の出幅です。
  7
STYLE1
100
AcDbText
  0
MTEXT
  5
1AC2B
102
{ACAD_REACTORS
330
1AC2C
102
}
330
747D
100
AcDbEntity
  8
部品1
 62
     7
 48
50.0
100
AcDbMText
 10
12086.63832569548
 20
6193.369995350566
 30
0.0
 40
120.0
 41
0.0
 71
     6
 72
     1
  1
\A1;屋根の外寸
  7
STYLE1
 73
     1
 44
1.0
1001
ACAD
1000
MTEXTBEGIN
1070
    73
1070
     1
1070
    44
1040
1.0
1070
    74
1070
     0
1000
MTEXTEND
  0
LEADER
  5
1AC2C
330
747D
100
AcDbEntity
  8
寸法
 48
50.0
100
AcDbLeader
  3
INABA_S50G
 73
     0
 74
     0
 75
     1
 40
120.0
 41
672.0
 76
     3
 10
11148.69831350344
 20
6367.259338814141
 30
0.0
 10
11264.63832569548
 20
6108.369995350566
 30
0.0
 10
11389.63832569548
 20
6108.369995350566
 30
0.0
340
1AC2B
1001
ACAD
1000
DSTYLE
1002
{
1070
   341
1005
0
1070
    40
1040
1.0
1070
   343
1005
0
1070
   344
1005
0
1002
}
  0
TEXT
  5
1C7A1
330
747D
100
AcDbEntity
  8
文字
 62
     7
 48
50.0
100
AcDbText
 10
13188.16259899338
 20
79.80631269190417
 30
0.0
 40
80.0
  1
※布基礎には換気口を設けてください。
  7
STYLE2
100
AcDbText
  0
TEXT
  5
1C7E7
330
747D
100
AcDbEntity
  8
文字
 62
     7
 48
50.0
100
AcDbText
 10
13188.16259899338
 20
246.7109242801889
 30
0.0
 40
80.0
  1
※寒冷地等は地域の実情に合わせた基礎にして下さい。
  7
STYLE2
100
AcDbText
  0
TEXT
  5
1C7E8
330
747D
100
AcDbEntity
  8
文字
 62
     7
 48
50.0
100
AcDbText
 10
14325.79230300687
 20
499.5983841039506
 30
0.0
 40
160.0
  1
ＮＸＮ－０８WＬ－７
  7
STYLE2
100
AcDbText
  0
TEXT
  5
1C7EC
330
747D
100
AcDbEntity
  8
文字
 62
     7
 48
50.0
100
AcDbText
 10
14524.131837222
 20
1031.557706291229
 30
0.0
 40
100.0
  1
<縮尺> S=1/40
  7
STYLE2
100
AcDbText
  0
TEXT
  5
1C7ED
330
747D
100
AcDbEntity
  8
文字
 62
     7
 48
50.0
100
AcDbText
 10
13201.43669998441
 20
477.2740661031257
 30
0.0
 40
160.0
  1
機種名
  7
STYLE2
100
AcDbText
  0
LINE
  5
1C7EF
330
747D
100
AcDbEntity
  8
文字
 62
     7
 48
50.0
100
AcDbLine
 10
13187.2
 20
400.0
 30
0.0
 11
16227.2
 21
400.0
 31
0.0
  0
MTEXT
  5
1D2D5
102
{ACAD_REACTORS
330
1D2D6
102
}
330
747D
100
AcDbEntity
  8
部品1
 62
     7
 48
50.0
100
AcDbMText
 10
12293.99523070988
 20
7457.917733128033
 30
0.0
 40
120.0
 41
0.0
 71
     6
 72
     1
  1
アンカーボルト
  7
STYLE1
 73
     1
 44
1.0
1001
ACAD
1000
MTEXTBEGIN
1070
    73
1070
     1
1070
    44
1040
1.0
1070
    74
1070
     0
1000
MTEXTEND
  0
LEADER
  5
1D2D6
330
747D
100
AcDbEntity
  8
寸法
 48
50.0
100
AcDbLeader
  3
INABA_S50G
 73
     0
 74
     0
 75
     1
 40
120.0
 41
994.3492424049171
 76
     3
 10
10975.680085757
 20
7019.512833244236
 30
0.0
 10
11149.64598830496
 20
7372.917733128034
 30
0.0
 10
11274.64598830496
 20
7372.917733128034
 30
0.0
340
1D2D5
1001
ACAD
1000
DSTYLE
1002
{
1070
   341
1005
0
1070
    40
1040
1.0
1070
   343
1005
0
1070
   344
1005
0
1002
}
  0
MTEXT
  5
1D332
102
{ACAD_REACTORS
330
1D333
102
}
330
747D
100
AcDbEntity
  8
部品1
 62
     7
 48
50.0
100
AcDbMText
 10
10788.82869701569
 20
6583.81034856621
 30
0.0
 40
120.0
 41
0.0
 71
     6
 72
     1
  1
CB
  7
STYLE1
 73
     1
 44
1.0
1001
ACAD
1000
MTEXTBEGIN
1070
    73
1070
     1
1070
    44
1040
1.0
1070
    74
1070
     0
1000
MTEXTEND
  0
LEADER
  5
1D333
330
747D
100
AcDbEntity
  8
寸法
 48
50.0
100
AcDbLeader
  3
INABA_S50G
 73
     0
 74
     0
 75
     1
 40
120.0
 41
149.591883092037
 76
     3
 10
10361.95401106101
 20
6721.528662121035
 30
0.0
 10
10489.23681392366
 20
6498.810348566209
 30
0.0
 10
10614.23681392366
 20
6498.810348566209
 30
0.0
340
1D332
1001
ACAD
1000
DSTYLE
1002
{
1070
   341
1005
0
1070
    40
1040
1.0
1070
   343
1005
0
1070
   344
1005
0
1002
}
  0
DIMENSION
  5
20DE1
330
747D
100
AcDbEntity
  8
寸法
 48
50.0
100
AcDbDimension
  2
*D19
 10
11143.6
 20
8100.52531094443
 30
0.0
 11
11414.77462120246
 21
8100.52531094443
 31
0.0
 70
   160
  1
a
 71
     5
 42
45.0
  3
INABA_S40G
100
AcDbAlignedDimension
 13
11098.6
 23
7142.304988885507
 33
0.0
 14
11143.6
 24
7868.571446979419
 34
0.0
100
AcDbRotatedDimension
1001
ACAD
1000
DSTYLE
1002
{
1070
   341
1005
0
1002
}
  0
DIMENSION
  5
20DFB
330
747D
100
AcDbEntity
  8
寸法
 48
50.0
100
AcDbDimension
  2
*D20
 10
5348.6
 20
8100.52531094443
 30
0.0
 11
5032.42537879754
 21
8100.52531094443
 31
0.0
 70
   160
  1
a
 71
     5
 42
44.99999999999636
  3
INABA_S40G
100
AcDbAlignedDimension
 13
5303.600000000002
 23
7868.57144697942
 33
0.0
 14
5348.6
 24
7142.304988885507
 34
0.0
100
AcDbRotatedDimension
1001
ACAD
1000
DSTYLE
1002
{
1070
   341
1005
0
1002
}
  0
LINE
  5
22711
330
747D
100
AcDbEntity
  8
想像線
 48
10.0
100
AcDbLine
 10
11143.6
 20
7217.304988885527
 30
0.0
 11
5303.600000000027
 21
7217.304988885548
 31
0.0
  0
LINE
  5
22712
330
747D
100
AcDbEntity
  8
想像線
 48
10.0
100
AcDbLine
 10
5303.600000000027
 20
6127.304988885503
 30
0.0
 11
5303.600000000027
 21
7217.304988885548
 31
0.0
  0
LINE
  5
22713
330
747D
100
AcDbEntity
  8
想像線
 48
10.0
100
AcDbLine
 10
11143.6
 20
6127.304988885513
 30
0.0
 11
11143.6
 21
7217.304988885527
 31
0.0
  0
LINE
  5
22714
330
747D
100
AcDbEntity
  8
想像線
 48
10.0
100
AcDbLine
 10
11143.6
 20
6127.304988885513
 30
0.0
 11
5303.600000000027
 21
6127.304988885503
 31
0.0
  0
DIMENSION
  5
22741
330
747D
100
AcDbEntity
  8
寸法
 48
50.0
100
AcDbDimension
  2
*D25
 10
4473.721909610672
 20
7142.304988885522
 30
0.0
 11
4373.72190961067
 21
7179.804988885525
 31
0.0
 70
    32
  1
c
 71
     5
 42
75.00000000000364
  3
INABA_S40G
100
AcDbAlignedDimension
 13
4725.665006330069
 23
7217.304988885524
 33
0.0
 14
5215.156977762461
 24
7142.304988885522
 34
0.0
 50
90.0
100
AcDbRotatedDimension
1001
ACAD
1000
DSTYLE
1002
{
1070
   341
1005
0
1002
}
  0
DIMENSION
  5
2275B
330
747D
100
AcDbEntity
  8
寸法
 48
50.0
100
AcDbDimension
  2
*D26
 10
4473.721909610672
 20
6127.304988885533
 30
0.0
 11
4373.721909610671
 21
6154.804988885523
 31
0.0
 70
    32
  1
b
 71
     5
 42
54.99999999997817
  3
INABA_S40G
100
AcDbAlignedDimension
 13
5221.607272343891
 23
6182.30498888551
 33
0.0
 14
4725.66500633007
 24
6127.304988885533
 34
0.0
 50
90.0
100
AcDbRotatedDimension
1001
ACAD
1000
DSTYLE
1002
{
1070
   341
1005
0
1002
}
  0
DIMENSION
  5
22A76
330
747D
100
AcDbEntity
  8
寸法
 48
50.0
100
AcDbDimension
  2
*D27
 10
10501.82138901162
 20
6182.304988885537
 30
0.0
 11
10501.82138901162
 21
5895.341406208372
 31
0.0
 70
   160
 71
     5
 42
280.0000000000054
  3
INABA_S40G
100
AcDbAlignedDimension
 13
10663.1338764846
 23
6462.304988885541
 33
0.0
 14
10471.41910651596
 24
6182.304988885537
 34
0.0
 50
90.0
100
AcDbRotatedDimension
1001
ACAD
1000
DSTYLE
1002
{
1070
   341
1005
0
1002
}
  0
DIMENSION
  5
22A81
330
747D
100
AcDbEntity
  8
寸法
 48
50.0
100
AcDbDimension
  2
*D28
 10
10501.82138901162
 20
6942.304988885429
 30
0.0
 11
10501.82138901162
 21
7429.268571562682
 31
0.0
 70
   160
 71
     5
 42
200.0000000000855
  3
INABA_S40G
100
AcDbAlignedDimension
 13
10495.85634570468
 23
7142.304988885515
 33
0.0
 14
10435.60166369305
 24
6942.304988885429
 34
0.0
 50
90.0
100
AcDbRotatedDimension
1001
ACAD
1000
DSTYLE
1002
{
1070
   341
1005
0
1002
}
  0
DIMENSION
  5
22A98
330
747D
100
AcDbEntity
  8
寸法
 48
50.0
100
AcDbDimension
  2
*D29
 10
10978.6
 20
6866.696657440744
 30
0.0
 11
11368.65905511811
 21
6866.696657440744
 31
0.0
 70
   160
 71
     5
 42
120.0
  3
INABA_S40G
100
AcDbAlignedDimension
 13
11098.6
 23
6787.304988885536
 33
0.0
 14
10978.6
 24
6787.304988885522
 34
0.0
100
AcDbRotatedDimension
1001
ACAD
1000
DSTYLE
1002
{
1070
   341
1005
0
1002
}
  0
LINE
  5
24BB2
330
747D
100
AcDbEntity
  8
部品1
 48
50.0
100
AcDbLine
 10
10978.6
 20
6942.304988885509
 30
0.0
 11
5468.599999999999
 21
6942.304988885514
 31
0.0
  0
DIMENSION
  5
24BB4
330
747D
100
AcDbEntity
  8
寸法
 48
50.0
100
AcDbDimension
  2
*D30
 10
7813.600000000008
 20
7624.91380555576
 30
0.0
 11
8223.60000000001
 21
7724.925616579381
 31
0.0
 70
    32
 71
     5
 42
820.0000000000009
  3
INABA_S40G
100
AcDbAlignedDimension
 13
8633.60000000001
 23
6712.30498888551
 33
0.0
 14
7813.600000000008
 24
6712.30498888551
 34
0.0
100
AcDbRotatedDimension
1001
ACAD
1000
DSTYLE
1002
{
1070
   341
1005
0
1002
}
  0
DIMENSION
  5
24BB5
330
747D
100
AcDbEntity
  8
寸法
 48
50.0
100
AcDbDimension
  2
*D31
 10
6875.600000000002
 20
7868.571446979422
 30
0.0
 11
7695.600000000002
 21
7968.571446979422
 31
0.0
 70
    32
 71
     5
 42
1640.000000000001
  3
INABA_S40G
100
AcDbAlignedDimension
 13
8515.600000000002
 23
7069.304988885511
 33
0.0
 14
6875.600000000002
 24
7069.304988885511
 34
0.0
100
AcDbRotatedDimension
1001
ACAD
1000
DSTYLE
1002
{
1070
   341
1005
0
1002
}
  0
DIMENSION
  5
24BB6
330
747D
100
AcDbEntity
  8
寸法
 48
50.0
100
AcDbDimension
  2
*D32
 10
11098.6
 20
8100.52531094443
 30
0.0
 11
8223.600000000001
 21
8200.52531094443
 31
0.0
 70
    32
 71
     5
 42
5750.000000000003
  3
INABA_S40G
100
AcDbAlignedDimension
 13
5348.6
 23
7142.304988885512
 33
0.0
 14
11098.6
 24
7142.304988885512
 34
0.0
100
AcDbRotatedDimension
1001
ACAD
1000
DSTYLE
1002
{
1070
   341
1005
0
1002
}
  0
LINE
  5
24BB9
330
747D
100
AcDbEntity
  8
部品1
 48
50.0
100
AcDbLine
 10
11098.6
 20
6182.304988885544
 30
0.0
 11
5348.599999999999
 21
6182.304988885507
 31
0.0
  0
LINE
  5
24BBA
330
747D
100
AcDbEntity
  8
部品1
 48
50.0
100
AcDbLine
 10
11098.6
 20
7142.304988885512
 30
0.0
 11
5348.599999999999
 21
7142.304988885512
 31
0.0
  0
DIMENSION
  5
24BBB
330
747D
100
AcDbEntity
  8
寸法
 48
50.0
100
AcDbDimension
  2
*D33
 10
5862.442995307155
 20
6662.304988885511
 30
0.0
 11
5862.442995307153
 21
5889.745933767411
 31
0.0
 70
   160
 71
     5
 42
479.999999999989
  3
INABA_S40G
100
AcDbAlignedDimension
 13
5792.7654751409
 23
6182.304988885523
 33
0.0
 14
6123.600000000006
 24
6662.304988885511
 34
0.0
 50
90.0
100
AcDbRotatedDimension
1001
ACAD
1000
DSTYLE
1002
{
1070
   341
1005
0
1002
}
  0
DIMENSION
  5
24BBC
330
747D
100
AcDbEntity
  8
寸法
 48
50.0
100
AcDbDimension
  2
*D34
 10
4473.721909610673
 20
6182.304988885512
 30
0.0
 11
4473.721909610672
 21
6699.80498888551
 31
0.0
 70
   160
 71
     5
 42
960.0
  3
INABA_S40G
100
AcDbAlignedDimension
 13
5348.6
 23
7142.304988885512
 33
0.0
 14
5348.6
 24
6182.304988885512
 34
0.0
 50
90.0
100
AcDbRotatedDimension
1001
ACAD
1000
DSTYLE
1002
{
1070
   341
1005
0
1002
}
  0
DIMENSION
  5
24BBD
330
747D
100
AcDbEntity
  8
寸法
 48
50.0
100
AcDbDimension
  2
*D35
 10
4725.665006330072
 20
6380.304988885514
 30
0.0
 11
4725.66500633007
 21
6699.80498888551
 31
0.0
 70
   160
 71
     5
 42
638.9999999999973
  3
INABA_S40G
100
AcDbAlignedDimension
 13
5421.599999999999
 23
7019.304988885512
 33
0.0
 14
5421.600000000005
 24
6380.304988885514
 34
0.0
 50
90.0
100
AcDbRotatedDimension
1001
ACAD
1000
DSTYLE
1002
{
1070
   341
1005
0
1002
}
  0
LINE
  5
24BBF
102
{ACAD_REACTORS
330
255A3
102
}
330
747D
100
AcDbEntity
  8
部品1
 48
50.0
100
AcDbLine
 10
5348.599999999999
 20
6182.304988885512
 30
0.0
 11
5348.599999999999
 21
7142.304988885512
 31
0.0
  0
DIMENSION
  5
24BC1
330
747D
100
AcDbEntity
  8
寸法
 48
50.0
100
AcDbDimension
  2
*D36
 10
4725.665006330072
 20
6182.304988885512
 30
0.0
 11
4725.66500633007
 21
5846.77404004292
 31
0.0
 70
   160
 71
     5
 42
198.0000000000027
  3
INABA_S40G
100
AcDbAlignedDimension
 13
5421.600000000005
 23
6380.304988885514
 33
0.0
 14
5348.6
 24
6182.304988885512
 34
0.0
 50
90.0
100
AcDbRotatedDimension
1001
ACAD
1000
DSTYLE
1002
{
1070
   341
1005
0
1002
}
  0
DIMENSION
  5
24BC2
330
747D
100
AcDbEntity
  8
寸法
 48
50.0
100
AcDbDimension
  2
*D37
 10
5235.512673767882
 20
5462.304988885508
 30
0.0
 11
5235.512673767881
 21
5822.304988885509
 31
0.0
 70
   160
  1
扉の出<>
 71
     5
 42
720.0
  3
INABA_S40G
100
AcDbAlignedDimension
 13
5348.600000000007
 23
6182.304988885507
 33
0.0
 14
5704.325326928811
 24
5462.304988885508
 34
0.0
 50
90.0
100
AcDbRotatedDimension
1001
ACAD
1000
DSTYLE
1002
{
1070
   341
1005
0
1002
}
  0
ARC
  5
24BC4
330
747D
100
AcDbEntity
  8
想像線
 48
5.0
100
AcDbCircle
 10
6118.600000000007
 20
6182.304988885515
 30
0.0
 40
720.0
100
AcDbArc
 50
180.0
 51
270.0
  0
CIRCLE
  5
24BC5
330
747D
100
AcDbEntity
  8
部品1
 48
50.0
100
AcDbCircle
 10
5471.599999999991
 20
6380.304988885515
 30
0.0
 40
35.0
  0
LINE
  5
24BC6
330
747D
100
AcDbEntity
  8
センター
 48
2.0
100
AcDbLine
 10
5471.600000000005
 20
6430.304988885516
 30
0.0
 11
5471.600000000005
 21
6330.304988885515
 31
0.0
  0
LINE
  5
24BC7
330
747D
100
AcDbEntity
  8
センター
 48
2.0
100
AcDbLine
 10
5421.600000000005
 20
6380.304988885515
 30
0.0
 11
5521.600000000006
 21
6380.304988885515
 31
0.0
  0
LINE
  5
24BC8
330
747D
100
AcDbEntity
  8
細線
 48
50.0
100
AcDbLine
 10
5799.404364949126
 20
6182.304988885515
 30
0.0
 11
5863.600000000012
 21
6246.500623936403
 31
0.0
  0
LINE
  5
24BC9
330
747D
100
AcDbEntity
  8
細線
 48
50.0
100
AcDbLine
 10
5754.503084343777
 20
6182.304988885513
 30
0.0
 11
5863.600000000008
 21
6291.401904541746
 31
0.0
  0
LINE
  5
24BCA
330
747D
100
AcDbEntity
  8
細線
 48
50.0
100
AcDbLine
 10
5709.601803738428
 20
6182.304988885513
 30
0.0
 11
5863.600000000008
 21
6336.303185147091
 31
0.0
  0
LINE
  5
24BCB
330
747D
100
AcDbEntity
  8
細線
 48
50.0
100
AcDbLine
 10
5664.700523133085
 20
6182.304988885512
 30
0.0
 11
5863.600000000007
 21
6381.204465752436
 31
0.0
  0
LINE
  5
24BCC
330
747D
100
AcDbEntity
  8
細線
 48
50.0
100
AcDbLine
 10
5663.60000000001
 20
6226.105746357785
 30
0.0
 11
5863.600000000007
 21
6426.105746357778
 31
0.0
  0
LINE
  5
24BCD
330
747D
100
AcDbEntity
  8
部品1
 48
50.0
100
AcDbLine
 10
5863.600000000007
 20
6462.304988885513
 30
0.0
 11
5863.600000000012
 21
6182.304988885515
 31
0.0
  0
LINE
  5
24BCE
330
747D
100
AcDbEntity
  8
部品1
 48
50.0
100
AcDbLine
 10
5663.600000000005
 20
6462.304988885512
 30
0.0
 11
5663.600000000013
 21
6182.304988885512
 31
0.0
  0
LINE
  5
24BCF
330
747D
100
AcDbEntity
  8
細線
 48
50.0
100
AcDbLine
 10
5844.305645554469
 20
6182.304988885516
 30
0.0
 11
5863.600000000012
 21
6201.599343331057
 31
0.0
  0
LINE
  5
24BD0
330
747D
100
AcDbEntity
  8
細線
 48
50.0
100
AcDbLine
 10
5663.600000000009
 20
6271.007026963131
 30
0.0
 11
5854.897961922397
 21
6462.304988885513
 31
0.0
  0
LINE
  5
24BD1
330
747D
100
AcDbEntity
  8
細線
 48
50.0
100
AcDbLine
 10
5663.60000000001
 20
6315.908307568474
 30
0.0
 11
5809.996681317034
 21
6462.304988885513
 31
0.0
  0
LINE
  5
24BD2
330
747D
100
AcDbEntity
  8
細線
 48
50.0
100
AcDbLine
 10
5663.600000000006
 20
6405.710868779168
 30
0.0
 11
5720.194120106345
 21
6462.304988885512
 31
0.0
  0
LINE
  5
24BD3
330
747D
100
AcDbEntity
  8
細線
 48
50.0
100
AcDbLine
 10
5663.600000000006
 20
6360.809588173824
 30
0.0
 11
5765.095400711695
 21
6462.30498888551
 31
0.0
  0
LINE
  5
24BD5
330
747D
100
AcDbEntity
  8
想像線
 48
5.0
100
AcDbLine
 10
6118.600000000007
 20
6182.304988885526
 30
0.0
 11
6118.600000000007
 21
5462.304988885515
 31
0.0
  0
LINE
  5
24BD6
330
747D
100
AcDbEntity
  8
細線
 48
50.0
100
AcDbLine
 10
6619.404364949126
 20
6182.304988885515
 30
0.0
 11
6683.600000000012
 21
6246.500623936403
 31
0.0
  0
LINE
  5
24BD7
330
747D
100
AcDbEntity
  8
細線
 48
50.0
100
AcDbLine
 10
6574.503084343778
 20
6182.304988885513
 30
0.0
 11
6683.600000000009
 21
6291.401904541746
 31
0.0
  0
LINE
  5
24BD8
330
747D
100
AcDbEntity
  8
細線
 48
50.0
100
AcDbLine
 10
6529.601803738429
 20
6182.304988885513
 30
0.0
 11
6683.600000000009
 21
6336.303185147091
 31
0.0
  0
LINE
  5
24BD9
330
747D
100
AcDbEntity
  8
細線
 48
50.0
100
AcDbLine
 10
6484.700523133085
 20
6182.304988885512
 30
0.0
 11
6683.600000000007
 21
6381.204465752436
 31
0.0
  0
LINE
  5
24BDA
330
747D
100
AcDbEntity
  8
細線
 48
50.0
100
AcDbLine
 10
6483.600000000009
 20
6226.105746357785
 30
0.0
 11
6683.600000000007
 21
6426.105746357778
 31
0.0
  0
LINE
  5
24BDB
330
747D
100
AcDbEntity
  8
部品1
 48
50.0
100
AcDbLine
 10
6683.600000000005
 20
6462.304988885517
 30
0.0
 11
6683.600000000012
 21
6182.304988885515
 31
0.0
  0
LINE
  5
24BDC
330
747D
100
AcDbEntity
  8
部品1
 48
50.0
100
AcDbLine
 10
6483.600000000006
 20
6462.304988885517
 30
0.0
 11
6483.600000000013
 21
6182.304988885512
 31
0.0
  0
LINE
  5
24BDD
330
747D
100
AcDbEntity
  8
細線
 48
50.0
100
AcDbLine
 10
6664.30564555447
 20
6182.304988885516
 30
0.0
 11
6683.600000000012
 21
6201.599343331057
 31
0.0
  0
LINE
  5
24BDE
330
747D
100
AcDbEntity
  8
細線
 48
50.0
100
AcDbLine
 10
6483.600000000008
 20
6271.007026963131
 30
0.0
 11
6674.897961922397
 21
6462.304988885517
 31
0.0
  0
LINE
  5
24BDF
330
747D
100
AcDbEntity
  8
細線
 48
50.0
100
AcDbLine
 10
6483.600000000009
 20
6315.908307568474
 30
0.0
 11
6629.996681317031
 21
6462.304988885517
 31
0.0
  0
LINE
  5
24BE0
330
747D
100
AcDbEntity
  8
細線
 48
50.0
100
AcDbLine
 10
6483.600000000007
 20
6405.71086877917
 30
0.0
 11
6540.194120106351
 21
6462.304988885517
 31
0.0
  0
LINE
  5
24BE1
330
747D
100
AcDbEntity
  8
細線
 48
50.0
100
AcDbLine
 10
6483.600000000008
 20
6360.809588173826
 30
0.0
 11
6585.095400711701
 21
6462.304988885517
 31
0.0
  0
LINE
  5
24BE2
330
747D
100
AcDbEntity
  8
センター
 48
2.0
100
AcDbLine
 10
6875.600000000007
 20
6430.304988885516
 30
0.0
 11
6875.600000000007
 21
6330.304988885515
 31
0.0
  0
LINE
  5
24BE3
330
747D
100
AcDbEntity
  8
センター
 48
2.0
100
AcDbLine
 10
6825.600000000007
 20
6380.304988885515
 30
0.0
 11
6925.600000000007
 21
6380.304988885515
 31
0.0
  0
CIRCLE
  5
24BE4
330
747D
100
AcDbEntity
  8
部品1
 48
50.0
100
AcDbCircle
 10
6875.600000000007
 20
6380.304988885515
 30
0.0
 40
35.0
  0
LINE
  5
24BE5
330
747D
100
AcDbEntity
  8
細線
 48
50.0
100
AcDbLine
 10
7439.404364949123
 20
6182.304988885515
 30
0.0
 11
7503.600000000012
 21
6246.500623936403
 31
0.0
  0
LINE
  5
24BE6
330
747D
100
AcDbEntity
  8
細線
 48
50.0
100
AcDbLine
 10
7394.503084343778
 20
6182.304988885513
 30
0.0
 11
7503.60000000001
 21
6291.401904541746
 31
0.0
  0
LINE
  5
24BE7
330
747D
100
AcDbEntity
  8
細線
 48
50.0
100
AcDbLine
 10
7349.60180373843
 20
6182.304988885513
 30
0.0
 11
7503.60000000001
 21
6336.303185147094
 31
0.0
  0
LINE
  5
24BE8
330
747D
100
AcDbEntity
  8
細線
 48
50.0
100
AcDbLine
 10
7304.700523133085
 20
6182.304988885512
 30
0.0
 11
7503.600000000007
 21
6381.204465752439
 31
0.0
  0
LINE
  5
24BE9
330
747D
100
AcDbEntity
  8
細線
 48
50.0
100
AcDbLine
 10
7303.60000000001
 20
6226.105746357785
 30
0.0
 11
7503.600000000007
 21
6426.10574635778
 31
0.0
  0
LINE
  5
24BEA
330
747D
100
AcDbEntity
  8
部品1
 48
50.0
100
AcDbLine
 10
7503.600000000007
 20
6462.304988885524
 30
0.0
 11
7503.600000000012
 21
6182.304988885515
 31
0.0
  0
LINE
  5
24BEB
330
747D
100
AcDbEntity
  8
部品1
 48
50.0
100
AcDbLine
 10
7303.600000000007
 20
6462.30498888552
 30
0.0
 11
7303.600000000013
 21
6182.304988885512
 31
0.0
  0
LINE
  5
24BEC
330
747D
100
AcDbEntity
  8
細線
 48
50.0
100
AcDbLine
 10
7484.305645554471
 20
6182.304988885516
 30
0.0
 11
7503.600000000012
 21
6201.599343331057
 31
0.0
  0
LINE
  5
24BED
330
747D
100
AcDbEntity
  8
細線
 48
50.0
100
AcDbLine
 10
7303.600000000009
 20
6271.007026963131
 30
0.0
 11
7494.897961922403
 21
6462.304988885524
 31
0.0
  0
LINE
  5
24BEE
330
747D
100
AcDbEntity
  8
細線
 48
50.0
100
AcDbLine
 10
7303.60000000001
 20
6315.908307568474
 30
0.0
 11
7449.996681317045
 21
6462.304988885524
 31
0.0
  0
LINE
  5
24BEF
330
747D
100
AcDbEntity
  8
細線
 48
50.0
100
AcDbLine
 10
7303.600000000021
 20
6360.809588173832
 30
0.0
 11
7405.095400711712
 21
6462.30498888552
 31
0.0
  0
LINE
  5
24BF0
330
747D
100
AcDbEntity
  8
細線
 48
50.0
100
AcDbLine
 10
7303.60000000002
 20
6405.710868779175
 30
0.0
 11
7360.19412010636
 21
6462.304988885524
 31
0.0
  0
TEXT
  5
24BF1
330
747D
100
AcDbEntity
  8
寸法
 48
50.0
100
AcDbText
 10
7854.490660914497
 20
6200.986279678249
 30
0.0
 40
120.0
  1
扉面
  7
STYLE1
100
AcDbText
  0
LINE
  5
24BF2
330
747D
100
AcDbEntity
  8
細線
 48
50.0
100
AcDbLine
 10
8259.404364949121
 20
6182.304988885515
 30
0.0
 11
8323.600000000013
 21
6246.500623936403
 31
0.0
  0
LINE
  5
24BF3
330
747D
100
AcDbEntity
  8
細線
 48
50.0
100
AcDbLine
 10
8214.503084343778
 20
6182.304988885513
 30
0.0
 11
8323.600000000009
 21
6291.401904541746
 31
0.0
  0
LINE
  5
24BF4
330
747D
100
AcDbEntity
  8
細線
 48
50.0
100
AcDbLine
 10
8169.60180373843
 20
6182.304988885513
 30
0.0
 11
8319.601803738434
 21
6332.304988885518
 31
0.0
  0
LINE
  5
24BF5
330
747D
100
AcDbEntity
  8
細線
 48
50.0
100
AcDbLine
 10
8124.700523133084
 20
6182.304988885512
 30
0.0
 11
8323.600000000006
 21
6381.204465752435
 31
0.0
  0
LINE
  5
24BF6
330
747D
100
AcDbEntity
  8
細線
 48
50.0
100
AcDbLine
 10
8123.60000000001
 20
6226.105746357785
 30
0.0
 11
8323.600000000006
 21
6426.105746357778
 31
0.0
  0
LINE
  5
24BF7
330
747D
100
AcDbEntity
  8
部品1
 48
50.0
100
AcDbLine
 10
8323.600000000004
 20
6462.304988885529
 30
0.0
 11
8323.600000000013
 21
6182.304988885515
 31
0.0
  0
LINE
  5
24BF8
330
747D
100
AcDbEntity
  8
部品1
 48
50.0
100
AcDbLine
 10
8123.600000000006
 20
6462.304988885526
 30
0.0
 11
8123.600000000012
 21
6182.304988885512
 31
0.0
  0
LINE
  5
24BF9
330
747D
100
AcDbEntity
  8
細線
 48
50.0
100
AcDbLine
 10
8304.305645554469
 20
6182.304988885515
 30
0.0
 11
8323.600000000013
 21
6201.599343331057
 31
0.0
  0
LINE
  5
24BFA
330
747D
100
AcDbEntity
  8
細線
 48
50.0
100
AcDbLine
 10
8123.600000000008
 20
6271.007026963131
 30
0.0
 11
8314.897961922412
 21
6462.304988885529
 31
0.0
  0
LINE
  5
24BFB
330
747D
100
AcDbEntity
  8
細線
 48
50.0
100
AcDbLine
 10
8123.60000000001
 20
6315.908307568474
 30
0.0
 11
8269.996681317051
 21
6462.304988885529
 31
0.0
  0
LINE
  5
24BFC
330
747D
100
AcDbEntity
  8
細線
 48
50.0
100
AcDbLine
 10
8123.600000000021
 20
6405.710868779175
 30
0.0
 11
8180.194120106364
 21
6462.304988885527
 31
0.0
  0
LINE
  5
24BFD
330
747D
100
AcDbEntity
  8
細線
 48
50.0
100
AcDbLine
 10
8123.600000000022
 20
6360.809588173832
 30
0.0
 11
8225.095400711719
 21
6462.304988885526
 31
0.0
  0
DIMENSION
  5
24BFE
330
747D
100
AcDbEntity
  8
寸法
 48
50.0
100
AcDbDimension
  2
*D38
 10
4725.665006330072
 20
7019.304988885512
 30
0.0
 11
4725.66500633007
 21
7415.411590603311
 31
0.0
 70
   160
 71
     5
 42
123.0
  3
INABA_S40G
100
AcDbAlignedDimension
 13
5348.6
 23
7142.304988885512
 33
0.0
 14
5421.599999999999
 24
7019.304988885512
 34
0.0
 50
90.0
100
AcDbRotatedDimension
1001
ACAD
1000
DSTYLE
1002
{
1070
   341
1005
0
1002
}
  0
DIMENSION
  5
24C00
330
747D
100
AcDbEntity
  8
寸法
 48
50.0
100
AcDbDimension
  2
*D39
 10
5348.6
 20
7868.571446979422
 30
0.0
 11
5075.493398282201
 21
7868.571446979422
 31
0.0
 70
   160
 71
     5
 42
123.0
  3
INABA_S40G
100
AcDbAlignedDimension
 13
5471.599999999999
 23
7069.304988885511
 33
0.0
 14
5348.6
 24
7142.304988885512
 34
0.0
100
AcDbRotatedDimension
1001
ACAD
1000
DSTYLE
1002
{
1070
   341
1005
0
1002
}
  0
DIMENSION
  5
24C02
330
747D
100
AcDbEntity
  8
寸法
 48
50.0
100
AcDbDimension
  2
*D40
 10
6173.600000000007
 20
7624.91380555576
 30
0.0
 11
6583.600000000008
 21
7724.925616579381
 31
0.0
 70
    32
 71
     5
 42
820.0000000000018
  3
INABA_S40G
100
AcDbAlignedDimension
 13
6993.600000000009
 23
6712.30498888551
 33
0.0
 14
6173.600000000007
 24
6712.30498888551
 34
0.0
100
AcDbRotatedDimension
1001
ACAD
1000
DSTYLE
1002
{
1070
   341
1005
0
1002
}
  0
DIMENSION
  5
24C03
330
747D
100
AcDbEntity
  8
寸法
 48
50.0
100
AcDbDimension
  2
*D41
 10
5471.599999999999
 20
7868.571446979422
 30
0.0
 11
6173.6
 21
7968.571446979422
 31
0.0
 70
    32
 71
     5
 42
1404.000000000002
  3
INABA_S40G
100
AcDbAlignedDimension
 13
6875.600000000002
 23
7069.304988885511
 33
0.0
 14
5471.599999999999
 24
7069.304988885511
 34
0.0
100
AcDbRotatedDimension
1001
ACAD
1000
DSTYLE
1002
{
1070
   341
1005
0
1002
}
  0
DIMENSION
  5
24C04
330
747D
100
AcDbEntity
  8
寸法
 48
50.0
100
AcDbDimension
  2
*D42
 10
5348.6
 20
7624.91380555576
 30
0.0
 11
5761.100000000003
 21
7724.925616579381
 31
0.0
 70
    32
 71
     5
 42
825.0000000000072
  3
INABA_S40G
100
AcDbAlignedDimension
 13
6173.600000000007
 23
6712.30498888551
 33
0.0
 14
5348.6
 24
7142.304988885512
 34
0.0
100
AcDbRotatedDimension
1001
ACAD
1000
DSTYLE
1002
{
1070
   341
1005
0
1002
}
  0
DIMENSION
  5
24C05
330
747D
100
AcDbEntity
  8
寸法
 48
50.0
100
AcDbDimension
  2
*D43
 10
5862.442995307154
 20
7142.304988885512
 30
0.0
 11
5862.442995307153
 21
7434.864044003623
 31
0.0
 70
   160
 71
     5
 42
480.0
  3
INABA_S40G
100
AcDbAlignedDimension
 13
6123.600000000006
 23
6662.304988885511
 33
0.0
 14
5792.7654751409
 24
7142.304988885512
 34
0.0
 50
90.0
100
AcDbRotatedDimension
1001
ACAD
1000
DSTYLE
1002
{
1070
   341
1005
0
1002
}
  0
LINE
  5
24C06
330
747D
100
AcDbEntity
  8
細線
 48
50.0
100
AcDbLine
 10
5663.600000000013
 20
6944.526236043317
 30
0.0
 11
5861.378752842204
 21
7142.304988885512
 31
0.0
  0
LINE
  5
24C07
330
747D
100
AcDbEntity
  8
細線
 48
50.0
100
AcDbLine
 10
5663.60000000001
 20
6989.42751664866
 30
0.0
 11
5816.477472236859
 21
7142.304988885512
 31
0.0
  0
LINE
  5
24C08
330
747D
100
AcDbEntity
  8
細線
 48
50.0
100
AcDbLine
 10
5663.60000000001
 20
7034.328797254009
 30
0.0
 11
5771.576191631514
 21
7142.304988885512
 31
0.0
  0
LINE
  5
24C09
330
747D
100
AcDbEntity
  8
細線
 48
50.0
100
AcDbLine
 10
5663.60000000001
 20
7079.230077859353
 30
0.0
 11
5726.67491102617
 21
7142.304988885513
 31
0.0
  0
LINE
  5
24C0A
330
747D
100
AcDbEntity
  8
部品1
 48
50.0
100
AcDbLine
 10
5863.600000000008
 20
7142.304988885512
 30
0.0
 11
5863.600000000012
 21
6942.304988885513
 31
0.0
  0
LINE
  5
24C0B
330
747D
100
AcDbEntity
  8
部品1
 48
50.0
100
AcDbLine
 10
5663.600000000009
 20
7142.304988885512
 30
0.0
 11
5663.600000000013
 21
6942.304988885513
 31
0.0
  0
LINE
  5
24C0C
102
{ACAD_REACTORS
330
255A3
102
}
330
747D
100
AcDbEntity
  8
部品1
 48
50.0
100
AcDbLine
 10
5468.599999999999
 20
6787.304988885522
 30
0.0
 11
5348.600000000002
 21
6787.304988885522
 31
0.0
  0
LINE
  5
24C0D
102
{ACAD_REACTORS
330
255A3
102
}
330
747D
100
AcDbEntity
  8
部品1
 48
50.0
100
AcDbLine
 10
5468.599999999999
 20
6587.304988885522
 30
0.0
 11
5348.600000000002
 21
6587.304988885522
 31
0.0
  0
CIRCLE
  5
24C0F
330
747D
100
AcDbEntity
  8
部品1
 48
50.0
100
AcDbCircle
 10
5471.599999999998
 20
7019.304988885512
 30
0.0
 40
35.0
  0
LINE
  5
24C10
330
747D
100
AcDbEntity
  8
センター
 48
2.0
100
AcDbLine
 10
5421.599999999998
 20
7019.304988885512
 30
0.0
 11
5521.599999999999
 21
7019.304988885512
 31
0.0
  0
LINE
  5
24C11
330
747D
100
AcDbEntity
  8
センター
 48
2.0
100
AcDbLine
 10
5471.599999999998
 20
7069.304988885511
 30
0.0
 11
5471.599999999998
 21
6969.304988885511
 31
0.0
  0
LINE
  5
24C12
330
747D
100
AcDbEntity
  8
細線
 48
50.0
100
AcDbLine
 10
5751.181314052884
 20
6942.304988885512
 30
0.0
 11
5863.600000000008
 21
7054.723674832622
 31
0.0
  0
LINE
  5
24C13
330
747D
100
AcDbEntity
  8
細線
 48
50.0
100
AcDbLine
 10
5706.280033447551
 20
6942.304988885513
 30
0.0
 11
5863.600000000007
 21
7099.624955437969
 31
0.0
  0
LINE
  5
24C14
330
747D
100
AcDbEntity
  8
細線
 48
50.0
100
AcDbLine
 10
5840.983875263572
 20
6942.304988885513
 30
0.0
 11
5863.600000000012
 21
6964.921113621949
 31
0.0
  0
LINE
  5
24C15
330
747D
100
AcDbEntity
  8
細線
 48
50.0
100
AcDbLine
 10
5796.082594658234
 20
6942.304988885513
 30
0.0
 11
5863.600000000012
 21
7009.822394227289
 31
0.0
  0
LINE
  5
24C16
330
747D
100
AcDbEntity
  8
細線
 48
50.0
100
AcDbLine
 10
5663.600000000009
 20
7124.131358464698
 30
0.0
 11
5681.773630420824
 21
7142.304988885512
 31
0.0
  0
LINE
  5
24C17
330
747D
100
AcDbEntity
  8
細線
 48
50.0
100
AcDbLine
 10
6483.600000000013
 20
6944.526236043317
 30
0.0
 11
6681.378752842204
 21
7142.304988885509
 31
0.0
  0
LINE
  5
24C18
330
747D
100
AcDbEntity
  8
細線
 48
50.0
100
AcDbLine
 10
6483.600000000013
 20
6989.427516648659
 30
0.0
 11
6636.477472236859
 21
7142.304988885512
 31
0.0
  0
LINE
  5
24C19
330
747D
100
AcDbEntity
  8
細線
 48
50.0
100
AcDbLine
 10
6483.600000000009
 20
7034.328797254005
 30
0.0
 11
6591.576191631514
 21
7142.304988885512
 31
0.0
  0
LINE
  5
24C1A
330
747D
100
AcDbEntity
  8
細線
 48
50.0
100
AcDbLine
 10
6483.600000000009
 20
7079.230077859353
 30
0.0
 11
6546.674911026167
 21
7142.304988885512
 31
0.0
  0
LINE
  5
24C1B
330
747D
100
AcDbEntity
  8
部品1
 48
50.0
100
AcDbLine
 10
6683.600000000009
 20
7142.304988885512
 30
0.0
 11
6683.600000000012
 21
6942.304988885513
 31
0.0
  0
LINE
  5
24C1C
330
747D
100
AcDbEntity
  8
部品1
 48
50.0
100
AcDbLine
 10
6483.600000000008
 20
7142.304988885512
 30
0.0
 11
6483.600000000013
 21
6942.304988885513
 31
0.0
  0
LINE
  5
24C1E
330
747D
100
AcDbEntity
  8
部品1
 48
50.0
100
AcDbLine
 10
6273.600000000008
 20
6762.30498888551
 30
0.0
 11
6073.600000000006
 21
6762.30498888551
 31
0.0
  0
LINE
  5
24C1F
330
747D
100
AcDbEntity
  8
センター
 48
2.0
100
AcDbLine
 10
6123.600000000006
 20
6662.304988885511
 30
0.0
 11
6223.600000000007
 21
6662.304988885511
 31
0.0
  0
LINE
  5
24C20
330
747D
100
AcDbEntity
  8
部品1
 48
50.0
100
AcDbLine
 10
6273.600000000008
 20
6562.304988885511
 30
0.0
 11
6073.600000000006
 21
6562.304988885511
 31
0.0
  0
LINE
  5
24C21
330
747D
100
AcDbEntity
  8
部品1
 48
50.0
100
AcDbLine
 10
6073.600000000006
 20
6562.304988885511
 30
0.0
 11
6073.600000000006
 21
6762.30498888551
 31
0.0
  0
LINE
  5
24C22
330
747D
100
AcDbEntity
  8
センター
 48
2.0
100
AcDbLine
 10
6173.600000000007
 20
6712.30498888551
 30
0.0
 11
6173.600000000007
 21
6612.304988885511
 31
0.0
  0
LINE
  5
24C23
330
747D
100
AcDbEntity
  8
部品1
 48
50.0
100
AcDbLine
 10
6273.600000000008
 20
6562.304988885511
 30
0.0
 11
6273.600000000008
 21
6762.30498888551
 31
0.0
  0
LINE
  5
24C24
330
747D
100
AcDbEntity
  8
細線
 48
50.0
100
AcDbLine
 10
6571.181314052882
 20
6942.304988885512
 30
0.0
 11
6683.600000000009
 21
7054.723674832622
 31
0.0
  0
LINE
  5
24C25
330
747D
100
AcDbEntity
  8
細線
 48
50.0
100
AcDbLine
 10
6526.280033447548
 20
6942.304988885513
 30
0.0
 11
6683.600000000009
 21
7099.624955437969
 31
0.0
  0
LINE
  5
24C26
330
747D
100
AcDbEntity
  8
細線
 48
50.0
100
AcDbLine
 10
6660.983875263574
 20
6942.304988885514
 30
0.0
 11
6683.600000000014
 21
6964.921113621951
 31
0.0
  0
LINE
  5
24C27
330
747D
100
AcDbEntity
  8
細線
 48
50.0
100
AcDbLine
 10
6616.082594658235
 20
6942.304988885514
 30
0.0
 11
6683.600000000014
 21
7009.822394227291
 31
0.0
  0
LINE
  5
24C28
330
747D
100
AcDbEntity
  8
細線
 48
50.0
100
AcDbLine
 10
6483.600000000008
 20
7124.131358464698
 30
0.0
 11
6501.773630420824
 21
7142.304988885512
 31
0.0
  0
DIMENSION
  5
24C29
330
747D
100
AcDbEntity
  8
寸法
 48
50.0
100
AcDbDimension
  2
*D44
 10
6993.600000000009
 20
7624.91380555576
 30
0.0
 11
7403.600000000008
 21
7724.925616579381
 31
0.0
 70
    32
 71
     5
 42
820.0
  3
INABA_S40G
100
AcDbAlignedDimension
 13
7813.600000000008
 23
6712.30498888551
 33
0.0
 14
6993.600000000009
 24
6712.30498888551
 34
0.0
100
AcDbRotatedDimension
1001
ACAD
1000
DSTYLE
1002
{
1070
   341
1005
0
1002
}
  0
LINE
  5
24C2A
330
747D
100
AcDbEntity
  8
細線
 48
50.0
100
AcDbLine
 10
7303.600000000014
 20
6944.52623604332
 30
0.0
 11
7501.378752842204
 21
7142.304988885509
 31
0.0
  0
LINE
  5
24C2B
330
747D
100
AcDbEntity
  8
細線
 48
50.0
100
AcDbLine
 10
7303.600000000013
 20
6989.427516648662
 30
0.0
 11
7456.477472236859
 21
7142.304988885512
 31
0.0
  0
LINE
  5
24C2C
330
747D
100
AcDbEntity
  8
細線
 48
50.0
100
AcDbLine
 10
7303.600000000013
 20
7034.328797254009
 30
0.0
 11
7411.576191631514
 21
7142.304988885512
 31
0.0
  0
LINE
  5
24C2D
330
747D
100
AcDbEntity
  8
細線
 48
50.0
100
AcDbLine
 10
7303.60000000001
 20
7079.230077859353
 30
0.0
 11
7366.674911026168
 21
7142.304988885512
 31
0.0
  0
LINE
  5
24C2E
330
747D
100
AcDbEntity
  8
部品1
 48
50.0
100
AcDbLine
 10
7503.600000000009
 20
7142.304988885512
 30
0.0
 11
7503.600000000014
 21
6942.304988885513
 31
0.0
  0
LINE
  5
24C2F
330
747D
100
AcDbEntity
  8
部品1
 48
50.0
100
AcDbLine
 10
7303.600000000009
 20
7142.304988885512
 30
0.0
 11
7303.600000000014
 21
6942.304988885513
 31
0.0
  0
LINE
  5
24C30
330
747D
100
AcDbEntity
  8
部品1
 48
50.0
100
AcDbLine
 10
7093.600000000009
 20
6762.30498888551
 30
0.0
 11
6893.600000000009
 21
6762.30498888551
 31
0.0
  0
LINE
  5
24C31
330
747D
100
AcDbEntity
  8
センター
 48
2.0
100
AcDbLine
 10
6943.600000000009
 20
6662.304988885511
 30
0.0
 11
7043.600000000009
 21
6662.304988885511
 31
0.0
  0
LINE
  5
24C32
330
747D
100
AcDbEntity
  8
部品1
 48
50.0
100
AcDbLine
 10
7093.600000000009
 20
6562.304988885511
 30
0.0
 11
6893.600000000009
 21
6562.304988885511
 31
0.0
  0
LINE
  5
24C33
330
747D
100
AcDbEntity
  8
部品1
 48
50.0
100
AcDbLine
 10
6893.600000000009
 20
6562.304988885511
 30
0.0
 11
6893.600000000009
 21
6762.30498888551
 31
0.0
  0
LINE
  5
24C34
330
747D
100
AcDbEntity
  8
センター
 48
2.0
100
AcDbLine
 10
6993.600000000009
 20
6712.30498888551
 30
0.0
 11
6993.600000000009
 21
6612.304988885511
 31
0.0
  0
LINE
  5
24C35
330
747D
100
AcDbEntity
  8
部品1
 48
50.0
100
AcDbLine
 10
7093.600000000009
 20
6562.304988885511
 30
0.0
 11
7093.600000000009
 21
6762.30498888551
 31
0.0
  0
LINE
  5
24C36
330
747D
100
AcDbEntity
  8
センター
 48
2.0
100
AcDbLine
 10
6875.600000000002
 20
7069.304988885511
 30
0.0
 11
6875.600000000002
 21
6969.304988885511
 31
0.0
  0
LINE
  5
24C37
330
747D
100
AcDbEntity
  8
センター
 48
2.0
100
AcDbLine
 10
6825.600000000001
 20
7019.304988885512
 30
0.0
 11
6925.600000000001
 21
7019.304988885512
 31
0.0
  0
CIRCLE
  5
24C38
330
747D
100
AcDbEntity
  8
部品1
 48
50.0
100
AcDbCircle
 10
6875.600000000002
 20
7019.304988885512
 30
0.0
 40
35.0
  0
LINE
  5
24C39
330
747D
100
AcDbEntity
  8
細線
 48
50.0
100
AcDbLine
 10
7391.181314052914
 20
6942.304988885512
 30
0.0
 11
7503.600000000009
 21
7054.723674832622
 31
0.0
  0
LINE
  5
24C3A
330
747D
100
AcDbEntity
  8
細線
 48
50.0
100
AcDbLine
 10
7346.280033447552
 20
6942.304988885512
 30
0.0
 11
7503.600000000009
 21
7099.624955437969
 31
0.0
  0
LINE
  5
24C3B
330
747D
100
AcDbEntity
  8
細線
 48
50.0
100
AcDbLine
 10
7480.983875263586
 20
6942.304988885521
 30
0.0
 11
7503.600000000026
 21
6964.921113621956
 31
0.0
  0
LINE
  5
24C3C
330
747D
100
AcDbEntity
  8
細線
 48
50.0
100
AcDbLine
 10
7436.082594658248
 20
6942.304988885521
 30
0.0
 11
7503.600000000026
 21
7009.822394227296
 31
0.0
  0
LINE
  5
24C3D
330
747D
100
AcDbEntity
  8
細線
 48
50.0
100
AcDbLine
 10
7303.600000000009
 20
7124.131358464698
 30
0.0
 11
7321.773630420825
 21
7142.304988885512
 31
0.0
  0
LINE
  5
24C3E
330
747D
100
AcDbEntity
  8
細線
 48
50.0
100
AcDbLine
 10
8123.600000000012
 20
6944.526236043319
 30
0.0
 11
8321.378752842203
 21
7142.304988885512
 31
0.0
  0
LINE
  5
24C3F
330
747D
100
AcDbEntity
  8
細線
 48
50.0
100
AcDbLine
 10
8123.60000000001
 20
6989.42751664866
 30
0.0
 11
8276.477472236861
 21
7142.304988885512
 31
0.0
  0
LINE
  5
24C40
330
747D
100
AcDbEntity
  8
細線
 48
50.0
100
AcDbLine
 10
8123.60000000001
 20
7034.328797254009
 30
0.0
 11
8231.576191631514
 21
7142.304988885512
 31
0.0
  0
LINE
  5
24C41
330
747D
100
AcDbEntity
  8
細線
 48
50.0
100
AcDbLine
 10
8123.60000000001
 20
7079.230077859353
 30
0.0
 11
8186.674911026168
 21
7142.304988885512
 31
0.0
  0
LINE
  5
24C42
330
747D
100
AcDbEntity
  8
部品1
 48
50.0
100
AcDbLine
 10
8323.600000000009
 20
7142.304988885512
 30
0.0
 11
8323.600000000013
 21
6942.304988885513
 31
0.0
  0
LINE
  5
24C43
330
747D
100
AcDbEntity
  8
部品1
 48
50.0
100
AcDbLine
 10
8123.600000000008
 20
7142.304988885512
 30
0.0
 11
8123.600000000015
 21
6942.304988885513
 31
0.0
  0
LINE
  5
24C44
330
747D
100
AcDbEntity
  8
部品1
 48
50.0
100
AcDbLine
 10
7913.600000000008
 20
6762.30498888551
 30
0.0
 11
7713.600000000008
 21
6762.30498888551
 31
0.0
  0
LINE
  5
24C45
330
747D
100
AcDbEntity
  8
部品1
 48
50.0
100
AcDbLine
 10
7913.600000000008
 20
6562.304988885511
 30
0.0
 11
7713.600000000008
 21
6562.304988885511
 31
0.0
  0
LINE
  5
24C46
330
747D
100
AcDbEntity
  8
センター
 48
2.0
100
AcDbLine
 10
7763.600000000008
 20
6662.304988885511
 30
0.0
 11
7863.600000000008
 21
6662.304988885511
 31
0.0
  0
LINE
  5
24C47
330
747D
100
AcDbEntity
  8
部品1
 48
50.0
100
AcDbLine
 10
7713.600000000008
 20
6562.304988885511
 30
0.0
 11
7713.600000000008
 21
6762.30498888551
 31
0.0
  0
LINE
  5
24C48
330
747D
100
AcDbEntity
  8
センター
 48
2.0
100
AcDbLine
 10
7813.600000000008
 20
6712.30498888551
 30
0.0
 11
7813.600000000008
 21
6612.304988885511
 31
0.0
  0
LINE
  5
24C49
330
747D
100
AcDbEntity
  8
部品1
 48
50.0
100
AcDbLine
 10
7913.600000000008
 20
6562.304988885511
 30
0.0
 11
7913.600000000008
 21
6762.30498888551
 31
0.0
  0
LINE
  5
24C4A
330
747D
100
AcDbEntity
  8
細線
 48
50.0
100
AcDbLine
 10
8211.181314052916
 20
6942.304988885512
 30
0.0
 11
8323.600000000009
 21
7054.723674832622
 31
0.0
  0
LINE
  5
24C4B
330
747D
100
AcDbEntity
  8
細線
 48
50.0
100
AcDbLine
 10
8166.280033447554
 20
6942.304988885512
 30
0.0
 11
8323.600000000009
 21
7099.624955437969
 31
0.0
  0
LINE
  5
24C4C
330
747D
100
AcDbEntity
  8
細線
 48
50.0
100
AcDbLine
 10
8300.983875263584
 20
6942.304988885521
 30
0.0
 11
8323.600000000025
 21
6964.921113621956
 31
0.0
  0
LINE
  5
24C4D
330
747D
100
AcDbEntity
  8
細線
 48
50.0
100
AcDbLine
 10
8256.082594658249
 20
6942.304988885521
 30
0.0
 11
8323.600000000025
 21
7009.822394227296
 31
0.0
  0
LINE
  5
24C4E
330
747D
100
AcDbEntity
  8
細線
 48
50.0
100
AcDbLine
 10
8123.600000000008
 20
7124.131358464698
 30
0.0
 11
8141.773630420823
 21
7142.304988885512
 31
0.0
  0
LINE
  5
24C53
102
{ACAD_REACTORS
330
255B5
102
}
330
747D
100
AcDbEntity
  8
部品1
 48
50.0
100
AcDbLine
 10
11098.6
 20
6182.30498888553
 30
0.0
 11
11098.6
 21
7142.304988885512
 31
0.0
  0
LINE
  5
24C58
330
747D
100
AcDbEntity
  8
センター
 48
2.0
100
AcDbLine
 10
8515.600000000009
 20
6430.304988885516
 30
0.0
 11
8515.600000000009
 21
6330.304988885515
 31
0.0
  0
CIRCLE
  5
24C59
330
747D
100
AcDbEntity
  8
部品1
 48
50.0
100
AcDbCircle
 10
8515.600000000009
 20
6380.304988885515
 30
0.0
 40
35.0
  0
LINE
  5
24C5A
330
747D
100
AcDbEntity
  8
センター
 48
2.0
100
AcDbLine
 10
8465.600000000009
 20
6380.304988885515
 30
0.0
 11
8565.600000000008
 21
6380.304988885515
 31
0.0
  0
LINE
  5
24C5B
330
747D
100
AcDbEntity
  8
細線
 48
50.0
100
AcDbLine
 10
9079.404364949125
 20
6182.304988885515
 30
0.0
 11
9143.600000000013
 21
6246.500623936403
 31
0.0
  0
LINE
  5
24C5C
330
747D
100
AcDbEntity
  8
細線
 48
50.0
100
AcDbLine
 10
9034.503084343779
 20
6182.304988885513
 30
0.0
 11
9143.600000000009
 21
6291.401904541746
 31
0.0
  0
LINE
  5
24C5D
330
747D
100
AcDbEntity
  8
細線
 48
50.0
100
AcDbLine
 10
8989.60180373843
 20
6182.304988885513
 30
0.0
 11
9143.600000000006
 21
6336.303185147091
 31
0.0
  0
LINE
  5
24C5E
330
747D
100
AcDbEntity
  8
細線
 48
50.0
100
AcDbLine
 10
8944.700523133084
 20
6182.304988885512
 30
0.0
 11
9143.600000000006
 21
6381.204465752436
 31
0.0
  0
LINE
  5
24C5F
330
747D
100
AcDbEntity
  8
細線
 48
50.0
100
AcDbLine
 10
8943.600000000008
 20
6226.105746357785
 30
0.0
 11
9143.600000000006
 21
6426.10574635778
 31
0.0
  0
LINE
  5
24C60
330
747D
100
AcDbEntity
  8
部品1
 48
50.0
100
AcDbLine
 10
9143.600000000006
 20
6462.304988885532
 30
0.0
 11
9143.600000000013
 21
6182.304988885515
 31
0.0
  0
LINE
  5
24C61
330
747D
100
AcDbEntity
  8
部品1
 48
50.0
100
AcDbLine
 10
8943.600000000003
 20
6462.304988885532
 30
0.0
 11
8943.600000000014
 21
6182.304988885512
 31
0.0
  0
LINE
  5
24C62
330
747D
100
AcDbEntity
  8
細線
 48
50.0
100
AcDbLine
 10
9124.305645554471
 20
6182.304988885516
 30
0.0
 11
9143.600000000013
 21
6201.599343331057
 31
0.0
  0
LINE
  5
24C63
330
747D
100
AcDbEntity
  8
細線
 48
50.0
100
AcDbLine
 10
8943.600000000008
 20
6271.007026963131
 30
0.0
 11
9134.897961922415
 21
6462.304988885533
 31
0.0
  0
LINE
  5
24C64
330
747D
100
AcDbEntity
  8
細線
 48
50.0
100
AcDbLine
 10
8943.600000000008
 20
6315.908307568474
 30
0.0
 11
9089.996681317051
 21
6462.304988885532
 31
0.0
  0
LINE
  5
24C65
330
747D
100
AcDbEntity
  8
細線
 48
50.0
100
AcDbLine
 10
8943.599999999984
 20
6360.809588173833
 30
0.0
 11
9045.095400711684
 21
6462.304988885532
 31
0.0
  0
LINE
  5
24C66
330
747D
100
AcDbEntity
  8
細線
 48
50.0
100
AcDbLine
 10
8943.599999999984
 20
6405.710868779177
 30
0.0
 11
9000.194120106334
 21
6462.304988885533
 31
0.0
  0
LINE
  5
24C67
330
747D
100
AcDbEntity
  8
細線
 48
50.0
100
AcDbLine
 10
9899.404364949125
 20
6182.304988885515
 30
0.0
 11
9963.600000000013
 21
6246.500623936403
 31
0.0
  0
LINE
  5
24C68
330
747D
100
AcDbEntity
  8
細線
 48
50.0
100
AcDbLine
 10
9854.503084343779
 20
6182.304988885513
 30
0.0
 11
9963.60000000001
 21
6291.401904541746
 31
0.0
  0
LINE
  5
24C69
330
747D
100
AcDbEntity
  8
細線
 48
50.0
100
AcDbLine
 10
9809.601803738431
 20
6182.304988885513
 30
0.0
 11
9963.60000000001
 21
6336.303185147094
 31
0.0
  0
LINE
  5
24C6A
330
747D
100
AcDbEntity
  8
細線
 48
50.0
100
AcDbLine
 10
9764.700523133084
 20
6182.304988885512
 30
0.0
 11
9963.600000000006
 21
6381.204465752439
 31
0.0
  0
LINE
  5
24C6B
330
747D
100
AcDbEntity
  8
細線
 48
50.0
100
AcDbLine
 10
9763.60000000001
 20
6226.105746357785
 30
0.0
 11
9963.600000000006
 21
6426.105746357777
 31
0.0
  0
LINE
  5
24C6C
330
747D
100
AcDbEntity
  8
部品1
 48
50.0
100
AcDbLine
 10
9963.600000000006
 20
6462.304988885539
 30
0.0
 11
9963.600000000013
 21
6182.304988885515
 31
0.0
  0
LINE
  5
24C6D
330
747D
100
AcDbEntity
  8
部品1
 48
50.0
100
AcDbLine
 10
9763.600000000007
 20
6462.304988885536
 30
0.0
 11
9763.600000000014
 21
6182.304988885512
 31
0.0
  0
LINE
  5
24C6E
330
747D
100
AcDbEntity
  8
細線
 48
50.0
100
AcDbLine
 10
9944.305645554472
 20
6182.304988885516
 30
0.0
 11
9963.600000000013
 21
6201.599343331057
 31
0.0
  0
LINE
  5
24C6F
330
747D
100
AcDbEntity
  8
細線
 48
50.0
100
AcDbLine
 10
9763.60000000001
 20
6271.007026963131
 30
0.0
 11
9954.897961922418
 21
6462.304988885538
 31
0.0
  0
LINE
  5
24C70
330
747D
100
AcDbEntity
  8
細線
 48
50.0
100
AcDbLine
 10
9763.60000000001
 20
6315.908307568474
 30
0.0
 11
9909.996681317061
 21
6462.304988885539
 31
0.0
  0
LINE
  5
24C71
330
747D
100
AcDbEntity
  8
細線
 48
50.0
100
AcDbLine
 10
9763.599999999989
 20
6405.710868779181
 30
0.0
 11
9820.194120106339
 21
6462.304988885539
 31
0.0
  0
LINE
  5
24C72
330
747D
100
AcDbEntity
  8
細線
 48
50.0
100
AcDbLine
 10
9763.599999999989
 20
6360.809588173837
 30
0.0
 11
9865.095400711691
 21
6462.304988885536
 31
0.0
  0
LINE
  5
24C73
330
747D
100
AcDbEntity
  8
細線
 48
50.0
100
AcDbLine
 10
10719.40436494912
 20
6182.304988885515
 30
0.0
 11
10783.60000000001
 21
6246.500623936403
 31
0.0
  0
LINE
  5
24C74
330
747D
100
AcDbEntity
  8
細線
 48
50.0
100
AcDbLine
 10
10674.50308434378
 20
6182.304988885513
 30
0.0
 11
10783.60000000001
 21
6291.401904541746
 31
0.0
  0
LINE
  5
24C75
330
747D
100
AcDbEntity
  8
細線
 48
50.0
100
AcDbLine
 10
10629.60180373843
 20
6182.304988885513
 30
0.0
 11
10783.6
 21
6336.303185147091
 31
0.0
  0
LINE
  5
24C76
330
747D
100
AcDbEntity
  8
細線
 48
50.0
100
AcDbLine
 10
10584.70052313308
 20
6182.304988885512
 30
0.0
 11
10783.6
 21
6381.204465752436
 31
0.0
  0
LINE
  5
24C77
330
747D
100
AcDbEntity
  8
細線
 48
50.0
100
AcDbLine
 10
10583.60000000001
 20
6226.105746357785
 30
0.0
 11
10783.6
 21
6426.105746357778
 31
0.0
  0
LINE
  5
24C78
330
747D
100
AcDbEntity
  8
部品1
 48
50.0
100
AcDbLine
 10
10783.6
 20
6462.304988885543
 30
0.0
 11
10783.60000000001
 21
6182.304988885515
 31
0.0
  0
LINE
  5
24C79
330
747D
100
AcDbEntity
  8
部品1
 48
50.0
100
AcDbLine
 10
10583.6
 20
6462.304988885543
 30
0.0
 11
10583.60000000001
 21
6182.304988885512
 31
0.0
  0
LINE
  5
24C7A
330
747D
100
AcDbEntity
  8
細線
 48
50.0
100
AcDbLine
 10
10764.30564555447
 20
6182.304988885515
 30
0.0
 11
10783.60000000001
 21
6201.599343331057
 31
0.0
  0
LINE
  5
24C7B
330
747D
100
AcDbEntity
  8
細線
 48
50.0
100
AcDbLine
 10
10583.60000000001
 20
6271.007026963131
 30
0.0
 11
10774.89796192242
 21
6462.304988885543
 31
0.0
  0
LINE
  5
24C7C
330
747D
100
AcDbEntity
  8
細線
 48
50.0
100
AcDbLine
 10
10583.60000000001
 20
6315.908307568474
 30
0.0
 11
10729.99668131706
 21
6462.304988885543
 31
0.0
  0
LINE
  5
24C7D
330
747D
100
AcDbEntity
  8
細線
 48
50.0
100
AcDbLine
 10
10583.59999999999
 20
6360.809588173843
 30
0.0
 11
10685.09540071169
 21
6462.304988885541
 31
0.0
  0
LINE
  5
24C7E
330
747D
100
AcDbEntity
  8
細線
 48
50.0
100
AcDbLine
 10
10583.59999999999
 20
6405.710868779187
 30
0.0
 11
10640.19412010634
 21
6462.304988885543
 31
0.0
  0
LINE
  5
24C7F
330
747D
100
AcDbEntity
  8
センター
 48
2.0
100
AcDbLine
 10
10925.60000000001
 20
6380.304988885515
 30
0.0
 11
11025.60000000001
 21
6380.304988885515
 31
0.0
  0
CIRCLE
  5
24C80
330
747D
100
AcDbEntity
  8
部品1
 48
50.0
100
AcDbCircle
 10
10975.60000000001
 20
6380.304988885515
 30
0.0
 40
35.0
  0
LINE
  5
24C81
330
747D
100
AcDbEntity
  8
センター
 48
2.0
100
AcDbLine
 10
10975.60000000001
 20
6430.304988885516
 30
0.0
 11
10975.60000000001
 21
6330.304988885515
 31
0.0
  0
DIMENSION
  5
24C82
330
747D
100
AcDbEntity
  8
寸法
 48
50.0
100
AcDbDimension
  2
*D45
 10
9453.60000000001
 20
7624.91380555576
 30
0.0
 11
9863.60000000001
 21
7724.925616579381
 31
0.0
 70
    32
 71
     5
 42
820.0
  3
INABA_S40G
100
AcDbAlignedDimension
 13
10273.60000000001
 23
6712.30498888551
 33
0.0
 14
9453.60000000001
 24
6712.30498888551
 34
0.0
100
AcDbRotatedDimension
1001
ACAD
1000
DSTYLE
1002
{
1070
   341
1005
0
1002
}
  0
DIMENSION
  5
24C83
330
747D
100
AcDbEntity
  8
寸法
 48
50.0
100
AcDbDimension
  2
*D46
 10
8515.600000000002
 20
7868.571446979422
 30
0.0
 11
9745.600000000003
 21
7968.583258003043
 31
0.0
 70
    32
 71
     5
 42
2460.0
  3
INABA_S40G
100
AcDbAlignedDimension
 13
10975.6
 23
7069.304988885511
 33
0.0
 14
8515.600000000002
 24
7069.304988885511
 34
0.0
100
AcDbRotatedDimension
1001
ACAD
1000
DSTYLE
1002
{
1070
   341
1005
0
1002
}
  0
DIMENSION
  5
24C84
330
747D
100
AcDbEntity
  8
寸法
 48
50.0
100
AcDbDimension
  2
*D47
 10
8633.60000000001
 20
7624.91380555576
 30
0.0
 11
9043.60000000001
 21
7724.925616579381
 31
0.0
 70
    32
 71
     5
 42
820.0
  3
INABA_S40G
100
AcDbAlignedDimension
 13
9453.60000000001
 23
6712.30498888551
 33
0.0
 14
8633.60000000001
 24
6712.30498888551
 34
0.0
100
AcDbRotatedDimension
1001
ACAD
1000
DSTYLE
1002
{
1070
   341
1005
0
1002
}
  0
LINE
  5
24C87
330
747D
100
AcDbEntity
  8
細線
 48
50.0
100
AcDbLine
 10
8943.600000000014
 20
6944.526236043319
 30
0.0
 11
9141.378752842204
 21
7142.304988885512
 31
0.0
  0
LINE
  5
24C88
330
747D
100
AcDbEntity
  8
細線
 48
50.0
100
AcDbLine
 10
8943.600000000014
 20
6989.427516648659
 30
0.0
 11
9096.477472236861
 21
7142.304988885512
 31
0.0
  0
LINE
  5
24C89
330
747D
100
AcDbEntity
  8
細線
 48
50.0
100
AcDbLine
 10
8943.600000000014
 20
7034.328797254008
 30
0.0
 11
9051.576191631513
 21
7142.304988885512
 31
0.0
  0
LINE
  5
24C8A
330
747D
100
AcDbEntity
  8
細線
 48
50.0
100
AcDbLine
 10
8943.600000000008
 20
7079.230077859353
 30
0.0
 11
9006.674911026166
 21
7142.304988885512
 31
0.0
  0
LINE
  5
24C8B
330
747D
100
AcDbEntity
  8
部品1
 48
50.0
100
AcDbLine
 10
9143.600000000009
 20
7142.304988885512
 30
0.0
 11
9143.600000000013
 21
6942.304988885513
 31
0.0
  0
LINE
  5
24C8C
330
747D
100
AcDbEntity
  8
部品1
 48
50.0
100
AcDbLine
 10
8943.600000000008
 20
7142.304988885512
 30
0.0
 11
8943.600000000014
 21
6942.304988885513
 31
0.0
  0
LINE
  5
24C8D
330
747D
100
AcDbEntity
  8
部品1
 48
50.0
100
AcDbLine
 10
8733.600000000009
 20
6762.30498888551
 30
0.0
 11
8533.60000000001
 21
6762.30498888551
 31
0.0
  0
LINE
  5
24C8E
330
747D
100
AcDbEntity
  8
部品1
 48
50.0
100
AcDbLine
 10
8733.600000000009
 20
6562.304988885511
 30
0.0
 11
8533.60000000001
 21
6562.304988885511
 31
0.0
  0
LINE
  5
24C8F
330
747D
100
AcDbEntity
  8
センター
 48
2.0
100
AcDbLine
 10
8583.600000000009
 20
6662.304988885511
 30
0.0
 11
8683.60000000001
 21
6662.304988885511
 31
0.0
  0
LINE
  5
24C90
330
747D
100
AcDbEntity
  8
部品1
 48
50.0
100
AcDbLine
 10
8533.60000000001
 20
6562.304988885511
 30
0.0
 11
8533.60000000001
 21
6762.30498888551
 31
0.0
  0
LINE
  5
24C91
330
747D
100
AcDbEntity
  8
センター
 48
2.0
100
AcDbLine
 10
8633.60000000001
 20
6712.30498888551
 30
0.0
 11
8633.60000000001
 21
6612.304988885511
 31
0.0
  0
LINE
  5
24C92
330
747D
100
AcDbEntity
  8
部品1
 48
50.0
100
AcDbLine
 10
8733.600000000009
 20
6562.304988885511
 30
0.0
 11
8733.600000000009
 21
6762.30498888551
 31
0.0
  0
CIRCLE
  5
24C93
330
747D
100
AcDbEntity
  8
部品1
 48
50.0
100
AcDbCircle
 10
8515.600000000002
 20
7019.304988885512
 30
0.0
 40
35.0
  0
LINE
  5
24C94
330
747D
100
AcDbEntity
  8
センター
 48
2.0
100
AcDbLine
 10
8515.600000000002
 20
7069.304988885511
 30
0.0
 11
8515.600000000002
 21
6969.304988885511
 31
0.0
  0
LINE
  5
24C95
330
747D
100
AcDbEntity
  8
センター
 48
2.0
100
AcDbLine
 10
8465.600000000002
 20
7019.304988885512
 30
0.0
 11
8565.600000000001
 21
7019.304988885512
 31
0.0
  0
LINE
  5
24C96
330
747D
100
AcDbEntity
  8
細線
 48
50.0
100
AcDbLine
 10
9031.181314052879
 20
6942.304988885513
 30
0.0
 11
9143.600000000009
 21
7054.723674832627
 31
0.0
  0
LINE
  5
24C97
330
747D
100
AcDbEntity
  8
細線
 48
50.0
100
AcDbLine
 10
8986.280033447551
 20
6942.304988885512
 30
0.0
 11
9143.600000000006
 21
7099.624955437969
 31
0.0
  0
LINE
  5
24C98
330
747D
100
AcDbEntity
  8
細線
 48
50.0
100
AcDbLine
 10
9120.983875263547
 20
6942.304988885521
 30
0.0
 11
9143.599999999988
 21
6964.921113621959
 31
0.0
  0
LINE
  5
24C99
330
747D
100
AcDbEntity
  8
細線
 48
50.0
100
AcDbLine
 10
9076.082594658211
 20
6942.304988885521
 30
0.0
 11
9143.599999999988
 21
7009.822394227298
 31
0.0
  0
LINE
  5
24C9A
330
747D
100
AcDbEntity
  8
細線
 48
50.0
100
AcDbLine
 10
8943.600000000008
 20
7124.131358464698
 30
0.0
 11
8961.773630420823
 21
7142.304988885512
 31
0.0
  0
LINE
  5
24C9B
330
747D
100
AcDbEntity
  8
細線
 48
50.0
100
AcDbLine
 10
9763.600000000014
 20
6944.526236043319
 30
0.0
 11
9961.378752842204
 21
7142.304988885509
 31
0.0
  0
LINE
  5
24C9C
330
747D
100
AcDbEntity
  8
細線
 48
50.0
100
AcDbLine
 10
9763.60000000001
 20
6989.427516648659
 30
0.0
 11
9916.477472236861
 21
7142.304988885512
 31
0.0
  0
LINE
  5
24C9D
330
747D
100
AcDbEntity
  8
細線
 48
50.0
100
AcDbLine
 10
9763.60000000001
 20
7034.328797254005
 30
0.0
 11
9871.576191631513
 21
7142.304988885512
 31
0.0
  0
LINE
  5
24C9E
330
747D
100
AcDbEntity
  8
細線
 48
50.0
100
AcDbLine
 10
9763.60000000001
 20
7079.230077859353
 30
0.0
 11
9826.674911026167
 21
7142.304988885512
 31
0.0
  0
LINE
  5
24C9F
330
747D
100
AcDbEntity
  8
部品1
 48
50.0
100
AcDbLine
 10
9963.60000000001
 20
7142.304988885512
 30
0.0
 11
9963.600000000013
 21
6942.304988885513
 31
0.0
  0
LINE
  5
24CA0
330
747D
100
AcDbEntity
  8
部品1
 48
50.0
100
AcDbLine
 10
9763.60000000001
 20
7142.304988885512
 30
0.0
 11
9763.600000000014
 21
6942.304988885513
 31
0.0
  0
LINE
  5
24CA1
330
747D
100
AcDbEntity
  8
部品1
 48
50.0
100
AcDbLine
 10
9553.60000000001
 20
6762.30498888551
 30
0.0
 11
9353.60000000001
 21
6762.30498888551
 31
0.0
  0
LINE
  5
24CA2
330
747D
100
AcDbEntity
  8
部品1
 48
50.0
100
AcDbLine
 10
9553.60000000001
 20
6562.304988885511
 30
0.0
 11
9353.60000000001
 21
6562.304988885511
 31
0.0
  0
LINE
  5
24CA3
330
747D
100
AcDbEntity
  8
センター
 48
2.0
100
AcDbLine
 10
9403.600000000009
 20
6662.304988885511
 30
0.0
 11
9503.600000000011
 21
6662.304988885511
 31
0.0
  0
LINE
  5
24CA4
330
747D
100
AcDbEntity
  8
部品1
 48
50.0
100
AcDbLine
 10
9353.60000000001
 20
6562.304988885511
 30
0.0
 11
9353.60000000001
 21
6762.30498888551
 31
0.0
  0
LINE
  5
24CA5
330
747D
100
AcDbEntity
  8
センター
 48
2.0
100
AcDbLine
 10
9453.60000000001
 20
6712.30498888551
 30
0.0
 11
9453.60000000001
 21
6612.304988885511
 31
0.0
  0
LINE
  5
24CA6
330
747D
100
AcDbEntity
  8
部品1
 48
50.0
100
AcDbLine
 10
9553.60000000001
 20
6562.304988885511
 30
0.0
 11
9553.60000000001
 21
6762.30498888551
 31
0.0
  0
LINE
  5
24CA7
330
747D
100
AcDbEntity
  8
細線
 48
50.0
100
AcDbLine
 10
9851.181314052913
 20
6942.304988885512
 30
0.0
 11
9963.60000000001
 21
7054.723674832622
 31
0.0
  0
LINE
  5
24CA8
330
747D
100
AcDbEntity
  8
細線
 48
50.0
100
AcDbLine
 10
9806.280033447555
 20
6942.304988885512
 30
0.0
 11
9963.60000000001
 21
7099.624955437969
 31
0.0
  0
LINE
  5
24CA9
330
747D
100
AcDbEntity
  8
細線
 48
50.0
100
AcDbLine
 10
9940.983875263555
 20
6942.304988885526
 30
0.0
 11
9963.599999999996
 21
6964.921113621961
 31
0.0
  0
LINE
  5
24CAA
330
747D
100
AcDbEntity
  8
細線
 48
50.0
100
AcDbLine
 10
9896.082594658217
 20
6942.304988885526
 30
0.0
 11
9963.599999999996
 21
7009.822394227303
 31
0.0
  0
LINE
  5
24CAB
330
747D
100
AcDbEntity
  8
細線
 48
50.0
100
AcDbLine
 10
9763.60000000001
 20
7124.131358464698
 30
0.0
 11
9781.773630420822
 21
7142.304988885512
 31
0.0
  0
DIMENSION
  5
24CAD
330
747D
100
AcDbEntity
  8
寸法
 48
50.0
100
AcDbDimension
  2
*D48
 10
10975.6
 20
7868.571446979422
 30
0.0
 11
11371.7066017178
 21
7868.571446979422
 31
0.0
 70
   160
 71
     5
 42
123.0
  3
INABA_S40G
100
AcDbAlignedDimension
 13
11098.6
 23
7142.304988885512
 33
0.0
 14
10975.6
 24
7069.304988885511
 34
0.0
100
AcDbRotatedDimension
1001
ACAD
1000
DSTYLE
1002
{
1070
   341
1005
0
1002
}
  0
DIMENSION
  5
24CAE
330
747D
100
AcDbEntity
  8
寸法
 48
50.0
100
AcDbDimension
  2
*D49
 10
10273.60000000001
 20
7624.91380555576
 30
0.0
 11
10686.1
 21
7724.925616579381
 31
0.0
 70
    32
 71
     5
 42
824.9999999999927
  3
INABA_S40G
100
AcDbAlignedDimension
 13
11098.6
 23
7142.304988885512
 33
0.0
 14
10273.60000000001
 24
6712.30498888551
 34
0.0
100
AcDbRotatedDimension
1001
ACAD
1000
DSTYLE
1002
{
1070
   341
1005
0
1002
}
  0
LINE
  5
24CAF
330
747D
100
AcDbEntity
  8
細線
 48
50.0
100
AcDbLine
 10
10583.60000000001
 20
6944.526236043319
 30
0.0
 11
10781.3787528422
 21
7142.304988885509
 31
0.0
  0
LINE
  5
24CB0
330
747D
100
AcDbEntity
  8
細線
 48
50.0
100
AcDbLine
 10
10583.60000000001
 20
6989.42751664866
 30
0.0
 11
10736.47747223686
 21
7142.304988885512
 31
0.0
  0
LINE
  5
24CB1
330
747D
100
AcDbEntity
  8
細線
 48
50.0
100
AcDbLine
 10
10583.60000000001
 20
7034.328797254009
 30
0.0
 11
10691.57619163151
 21
7142.304988885512
 31
0.0
  0
LINE
  5
24CB2
330
747D
100
AcDbEntity
  8
細線
 48
50.0
100
AcDbLine
 10
10583.60000000001
 20
7079.230077859353
 30
0.0
 11
10646.67491102616
 21
7142.304988885512
 31
0.0
  0
LINE
  5
24CB3
330
747D
100
AcDbEntity
  8
部品1
 48
50.0
100
AcDbLine
 10
10783.60000000001
 20
7142.304988885512
 30
0.0
 11
10783.60000000001
 21
6942.304988885513
 31
0.0
  0
LINE
  5
24CB4
330
747D
100
AcDbEntity
  8
部品1
 48
50.0
100
AcDbLine
 10
10583.60000000001
 20
7142.304988885512
 30
0.0
 11
10583.60000000001
 21
6942.304988885513
 31
0.0
  0
LINE
  5
24CB5
330
747D
100
AcDbEntity
  8
部品1
 48
50.0
100
AcDbLine
 10
10373.60000000001
 20
6762.30498888551
 30
0.0
 11
10173.60000000001
 21
6762.30498888551
 31
0.0
  0
LINE
  5
24CB6
330
747D
100
AcDbEntity
  8
部品1
 48
50.0
100
AcDbLine
 10
10373.60000000001
 20
6562.304988885511
 30
0.0
 11
10173.60000000001
 21
6562.304988885511
 31
0.0
  0
LINE
  5
24CB7
330
747D
100
AcDbEntity
  8
センター
 48
2.0
100
AcDbLine
 10
10223.60000000001
 20
6662.304988885511
 30
0.0
 11
10323.60000000001
 21
6662.304988885511
 31
0.0
  0
LINE
  5
24CB8
330
747D
100
AcDbEntity
  8
部品1
 48
50.0
100
AcDbLine
 10
10173.60000000001
 20
6562.304988885511
 30
0.0
 11
10173.60000000001
 21
6762.30498888551
 31
0.0
  0
LINE
  5
24CB9
330
747D
100
AcDbEntity
  8
センター
 48
2.0
100
AcDbLine
 10
10273.60000000001
 20
6712.30498888551
 30
0.0
 11
10273.60000000001
 21
6612.304988885511
 31
0.0
  0
LINE
  5
24CBA
330
747D
100
AcDbEntity
  8
部品1
 48
50.0
100
AcDbLine
 10
10373.60000000001
 20
6562.304988885511
 30
0.0
 11
10373.60000000001
 21
6762.30498888551
 31
0.0
  0
LINE
  5
24CBB
330
747D
100
AcDbEntity
  8
細線
 48
50.0
100
AcDbLine
 10
10671.18131405291
 20
6942.304988885512
 30
0.0
 11
10783.60000000001
 21
7054.723674832622
 31
0.0
  0
LINE
  5
24CBC
330
747D
100
AcDbEntity
  8
細線
 48
50.0
100
AcDbLine
 10
10626.28003344755
 20
6942.304988885512
 30
0.0
 11
10783.60000000001
 21
7099.624955437969
 31
0.0
  0
LINE
  5
24CBD
330
747D
100
AcDbEntity
  8
細線
 48
50.0
100
AcDbLine
 10
10760.98387526356
 20
6942.304988885531
 30
0.0
 11
10783.6
 21
6964.921113621968
 31
0.0
  0
LINE
  5
24CBE
330
747D
100
AcDbEntity
  8
細線
 48
50.0
100
AcDbLine
 10
10716.08259465822
 20
6942.304988885531
 30
0.0
 11
10783.6
 21
7009.822394227306
 31
0.0
  0
LINE
  5
24CBF
330
747D
100
AcDbEntity
  8
細線
 48
50.0
100
AcDbLine
 10
10583.60000000001
 20
7124.131358464698
 30
0.0
 11
10601.77363042082
 21
7142.304988885512
 31
0.0
  0
LINE
  5
24CC1
102
{ACAD_REACTORS
330
255B5
102
}
330
747D
100
AcDbEntity
  8
部品1
 48
50.0
100
AcDbLine
 10
11098.6
 20
6787.304988885522
 30
0.0
 11
10978.6
 21
6787.304988885522
 31
0.0
  0
LINE
  5
24CC2
102
{ACAD_REACTORS
330
255B5
102
}
330
747D
100
AcDbEntity
  8
部品1
 48
50.0
100
AcDbLine
 10
11098.6
 20
6587.304988885522
 30
0.0
 11
10978.6
 21
6587.30498888552
 31
0.0
  0
CIRCLE
  5
24CC4
330
747D
100
AcDbEntity
  8
部品1
 48
50.0
100
AcDbCircle
 10
10975.6
 20
7019.304988885512
 30
0.0
 40
35.0
  0
LINE
  5
24CC5
330
747D
100
AcDbEntity
  8
センター
 48
2.0
100
AcDbLine
 10
10925.6
 20
7019.304988885512
 30
0.0
 11
11025.6
 21
7019.304988885512
 31
0.0
  0
LINE
  5
24CC6
330
747D
100
AcDbEntity
  8
センター
 48
2.0
100
AcDbLine
 10
10975.6
 20
7069.304988885511
 30
0.0
 11
10975.6
 21
6969.304988885511
 31
0.0
  0
TEXT
  5
25551
330
747D
100
AcDbEntity
  8
文字
 62
     7
 48
50.0
100
AcDbText
 10
14251.2
 20
838.2527270729188
 30
0.0
 40
100.0
  1
～一般型・多雪地型・豪雪地型～
  7
STYLE2
100
AcDbText
  0
LINE
  5
25571
330
747D
100
AcDbEntity
  8
部品1
 48
50.0
100
AcDbLine
 10
10978.6
 20
6462.304988885545
 30
0.0
 11
5468.599999999999
 21
6462.30498888551
 31
0.0
  0
LINE
  5
2558F
102
{ACAD_REACTORS
330
255B5
102
}
330
747D
100
AcDbEntity
  8
部品1
 48
50.0
100
AcDbLine
 10
10978.6
 20
6462.304988885545
 30
0.0
 11
10978.6
 21
6942.304988885512
 31
0.0
  0
LINE
  5
25590
102
{ACAD_REACTORS
330
255A3
102
}
330
747D
100
AcDbEntity
  8
部品1
 48
50.0
100
AcDbLine
 10
5468.599999999998
 20
6462.304988885509
 30
0.0
 11
5468.599999999998
 21
6942.304988885512
 31
0.0
  0
HATCH
  5
255A3
330
747D
100
AcDbEntity
  8
細線
 48
50.0
100
AcDbHatch
 10
0.0
 20
0.0
 30
0.0
210
0.0
220
0.0
230
1.0
  2
LINE
 70
     0
 71
     1
 91
        1
 92
        7
 72
     0
 73
     1
 93
        4
 10
5468.599999999998
 20
6787.304988885522
 10
5348.599999999997
 20
6787.304988885522
 10
5348.599999999997
 20
6587.30498888552
 10
5468.599999999998
 20
6587.304988885522
 97
        4
330
24C0C
330
24BBF
330
24C0D
330
25590
 75
     0
 76
     1
 52
45.0
 41
10.0
 77
     0
 78
     1
 53
45.0
 43
0.0
 44
0.0
 45
-22.45064030267288
 46
22.45064030267288
 79
     0
 47
1.81634203100207
 98
        1
 10
5404.85867684699
 20
6769.78676296612
  0
HATCH
  5
255B5
330
747D
100
AcDbEntity
  8
細線
 48
50.0
100
AcDbHatch
 10
0.0
 20
0.0
 30
0.0
210
0.0
220
0.0
230
1.0
  2
LINE
 70
     0
 71
     1
 91
        1
 92
        7
 72
     0
 73
     1
 93
        4
 10
11098.6
 20
6787.304988885523
 10
10978.6
 20
6787.304988885522
 10
10978.6
 20
6587.30498888552
 10
11098.6
 20
6587.304988885522
 97
        4
330
24CC1
330
2558F
330
24CC2
330
24C53
 75
     0
 76
     1
 52
45.0
 41
10.0
 77
     0
 78
     1
 53
45.0
 43
0.0
 44
0.0
 45
-22.45064030267288
 46
22.45064030267288
 79
     0
 47
4.64614010302725
 98
        1
 10
11009.50789481641
 20
6666.928646634861
  0
MTEXT
  5
25A7D
102
{ACAD_REACTORS
330
25A7E
102
}
330
747D
100
AcDbEntity
  8
寸法
 62
     7
 48
50.0
100
AcDbMText
 10
10904.60732673802
 20
2343.545047955942
 30
0.0
 40
120.0
 41
0.8
 71
     4
 72
     1
  1
\A1;C.B
  7
STYLE1
 73
     1
 44
1.0
1001
ACAD
1000
MTEXTBEGIN
1070
    73
1070
     1
1070
    44
1040
1.0
1070
    74
1070
     0
1000
MTEXTEND
  0
LEADER
  5
25A7E
330
747D
100
AcDbEntity
  8
寸法
 48
50.0
100
AcDbLeader
  3
INABA_S50G
 73
     0
 74
     0
 75
     1
 40
120.0
 41
185.591883092037
 76
     3
 10
10721.46912010438
 20
2086.398727274804
 30
0.0
 10
10754.60732673802
 20
2258.545047955941
 30
0.0
 10
10879.60732673802
 20
2258.545047955941
 30
0.0
340
25A7D
1001
ACAD
1000
DSTYLE
1002
{
1070
    40
1040
1.0
1002
}
  0
LINE
  5
25A7F
330
747D
100
AcDbEntity
  8
細線
 48
50.0
100
AcDbLine
 10
10867.12253368079
 20
1730.699811621452
 30
0.0
 11
10860.69175306244
 21
1754.699811621453
 31
0.0
  0
LINE
  5
25A80
330
747D
100
AcDbEntity
  8
細線
 48
50.0
100
AcDbLine
 10
10845.6865982863
 20
1650.699811621452
 30
0.0
 11
10852.11737890465
 21
1626.699811621453
 31
0.0
  0
LINE
  5
25A81
330
747D
100
AcDbEntity
  8
部品1
100
AcDbLine
 10
10910.74470848846
 20
1846.398727274803
 30
0.0
 11
10910.74470848846
 21
1626.699811621454
 31
0.0
  0
LINE
  5
25A82
330
747D
100
AcDbEntity
  8
細線
 48
50.0
100
AcDbLine
 10
10839.25581766795
 20
1626.699811621453
 30
0.0
 11
10873.55331429913
 21
1754.699811621451
 31
0.0
  0
LINE
  5
25A83
330
747D
100
AcDbEntity
  8
細線
 48
50.0
100
AcDbLine
 10
10788.23448873354
 20
1730.699811621452
 30
0.0
 11
10781.8037081152
 21
1754.699811621453
 31
0.0
  0
LINE
  5
25A84
330
747D
100
AcDbEntity
  8
細線
100
AcDbLine
 10
10663.78110298779
 20
1754.699811621455
 30
0.0
 11
10755.48001864113
 21
1846.398727274803
 31
0.0
  0
LINE
  5
25A85
330
747D
100
AcDbEntity
  8
細線
 48
50.0
100
AcDbLine
 10
10709.34644378628
 20
1730.699811621454
 30
0.0
 11
10702.91566316794
 21
1754.699811621453
 31
0.0
  0
LINE
  5
25A86
330
747D
100
AcDbEntity
  8
細線
100
AcDbLine
 10
10697.72222848475
 20
1754.699811621455
 30
0.0
 11
10789.42114413809
 21
1846.398727274803
 31
0.0
  0
LINE
  5
25A87
330
747D
100
AcDbEntity
  8
細線
 48
50.0
100
AcDbLine
 10
10472.68230894455
 20
1730.699811621454
 30
0.0
 11
10466.25152832621
 21
1754.699811621453
 31
0.0
  0
LINE
  5
25A88
330
747D
100
AcDbEntity
  8
細線
 48
50.0
100
AcDbLine
 10
10551.5703538918
 20
1730.699811621454
 30
0.0
 11
10545.13957327346
 21
1754.699811621453
 31
0.0
  0
LINE
  5
25A89
330
747D
100
AcDbEntity
  8
細線
 48
50.0
100
AcDbLine
 10
10630.45839883905
 20
1730.699811621454
 30
0.0
 11
10624.0276182207
 21
1754.699811621453
 31
0.0
  0
LINE
  5
25A8A
330
747D
100
AcDbEntity
  8
細線
 48
50.0
100
AcDbLine
 10
10766.79855333905
 20
1650.699811621452
 30
0.0
 11
10773.2293339574
 21
1626.699811621453
 31
0.0
  0
LINE
  5
25A8B
330
747D
100
AcDbEntity
  8
細線
 48
50.0
100
AcDbLine
 10
10687.91050839181
 20
1650.699811621453
 30
0.0
 11
10694.34128901016
 21
1626.699811621454
 31
0.0
  0
LINE
  5
25A8C
330
747D
100
AcDbEntity
  8
細線
 48
50.0
100
AcDbLine
 10
10530.13441849731
 20
1650.699811621453
 30
0.0
 11
10536.56519911566
 21
1626.699811621454
 31
0.0
  0
LINE
  5
25A8D
330
747D
100
AcDbEntity
  8
細線
 48
50.0
100
AcDbLine
 10
10609.02246344456
 20
1650.699811621453
 30
0.0
 11
10615.45324406291
 21
1626.699811621454
 31
0.0
  0
LINE
  5
25A8E
330
747D
100
AcDbEntity
  8
細線
 48
50.0
100
AcDbLine
 10
10602.59168282621
 20
1626.699811621454
 30
0.0
 11
10636.88917945739
 21
1754.699811621453
 31
0.0
  0
LINE
  5
25A8F
330
747D
100
AcDbEntity
  8
細線
 48
50.0
100
AcDbLine
 10
10523.70363787896
 20
1626.699811621453
 30
0.0
 11
10558.00113451015
 21
1754.699811621453
 31
0.0
  0
LINE
  5
25A90
330
747D
100
AcDbEntity
  8
細線
 48
50.0
100
AcDbLine
 10
10681.47972777345
 20
1626.699811621453
 30
0.0
 11
10715.77722440463
 21
1754.699811621453
 31
0.0
  0
LINE
  5
25A91
330
747D
100
AcDbEntity
  8
細線
100
AcDbLine
 10
10731.6633539817
 20
1754.699811621455
 30
0.0
 11
10823.36226963504
 21
1846.398727274803
 31
0.0
  0
LINE
  5
25A92
330
747D
100
AcDbEntity
  8
細線
 48
50.0
100
AcDbLine
 10
10760.3677727207
 20
1626.699811621451
 30
0.0
 11
10794.66526935189
 21
1754.699811621451
 31
0.0
  0
LINE
  5
25A93
330
747D
100
AcDbEntity
  8
部品1
100
AcDbLine
 10
10790.74470848846
 20
2086.398727274804
 30
0.0
 11
10790.74470848846
 21
1846.398727274803
 31
0.0
  0
LINE
  5
25A94
330
747D
100
AcDbEntity
  8
細線
100
AcDbLine
 10
10776.90704614088
 20
1846.398727274805
 30
0.0
 11
10536.90704614088
 21
2086.398727274804
 31
0.0
  0
LINE
  5
25A95
330
747D
100
AcDbEntity
  8
細線
100
AcDbLine
 10
10725.99535789544
 20
1846.398727274803
 30
0.0
 11
10485.99535789545
 21
2086.398727274804
 31
0.0
  0
LINE
  5
25A96
330
747D
100
AcDbEntity
  8
細線
100
AcDbLine
 10
10337.72222848474
 20
1754.699811621453
 30
0.0
 11
10429.42114413809
 21
1846.398727274803
 31
0.0
  0
LINE
  5
25A97
330
747D
100
AcDbEntity
  8
細線
100
AcDbLine
 10
10303.78110298779
 20
1754.699811621453
 30
0.0
 11
10395.48001864114
 21
1846.398727274803
 31
0.0
  0
LINE
  5
25A98
330
747D
100
AcDbEntity
  8
細線
 48
50.0
100
AcDbLine
 10
10314.90621905006
 20
1730.699811621454
 30
0.0
 11
10308.47543843171
 21
1754.699811621453
 31
0.0
  0
LINE
  5
25A99
330
747D
100
AcDbEntity
  8
細線
 48
50.0
100
AcDbLine
 10
10393.79426399731
 20
1730.699811621454
 30
0.0
 11
10387.36348337896
 21
1754.699811621453
 31
0.0
  0
LINE
  5
25A9A
330
747D
100
AcDbEntity
  8
細線
 48
50.0
100
AcDbLine
 10
10236.01817410281
 20
1730.699811621454
 30
0.0
 11
10229.58739348446
 21
1754.699811621453
 31
0.0
  0
LINE
  5
25A9B
330
747D
100
AcDbEntity
  8
細線
 48
50.0
100
AcDbLine
 10
10451.24637355007
 20
1650.699811621453
 30
0.0
 11
10457.67715416841
 21
1626.699811621454
 31
0.0
  0
LINE
  5
25A9C
330
747D
100
AcDbEntity
  8
細線
 48
50.0
100
AcDbLine
 10
10372.35832860282
 20
1650.699811621453
 30
0.0
 11
10378.78910922117
 21
1626.699811621454
 31
0.0
  0
LINE
  5
25A9D
330
747D
100
AcDbEntity
  8
細線
 48
50.0
100
AcDbLine
 10
10214.58223870832
 20
1650.699811621453
 30
0.0
 11
10221.01301932667
 21
1626.699811621454
 31
0.0
  0
LINE
  5
25A9E
330
747D
100
AcDbEntity
  8
細線
 48
50.0
100
AcDbLine
 10
10293.47028365557
 20
1650.699811621453
 30
0.0
 11
10299.90106427391
 21
1626.699811621454
 31
0.0
  0
LINE
  5
25A9F
330
747D
100
AcDbEntity
  8
部品1
100
AcDbLine
 10
10190.74470848846
 20
1626.69981162145
 30
0.0
 11
10190.74470848846
 21
1846.398727274803
 31
0.0
  0
LINE
  5
25AA0
330
747D
100
AcDbEntity
  8
細線
 48
50.0
100
AcDbLine
 10
10208.15145808997
 20
1626.699811621454
 30
0.0
 11
10242.44895472115
 21
1754.699811621453
 31
0.0
  0
LINE
  5
25AA1
330
747D
100
AcDbEntity
  8
細線
 48
50.0
100
AcDbLine
 10
10365.92754798447
 20
1626.699811621454
 30
0.0
 11
10400.22504461565
 21
1754.699811621453
 31
0.0
  0
LINE
  5
25AA2
330
747D
100
AcDbEntity
  8
細線
 48
50.0
100
AcDbLine
 10
10287.03950303722
 20
1626.699811621453
 30
0.0
 11
10321.3369996684
 21
1754.699811621453
 31
0.0
  0
LINE
  5
25AA3
330
747D
100
AcDbEntity
  8
部品1
100
AcDbLine
 10
10310.74470848846
 20
1846.398727274803
 30
0.0
 11
10310.74470848846
 21
2086.398727274804
 31
0.0
  0
TEXT
  5
25AA4
330
747D
100
AcDbEntity
  8
部品1
 48
50.0
100
AcDbText
 10
9546.626621729956
 20
1579.598986637495
 30
0.0
 40
80.0
  1
ボルトの出
 50
90.0
  7
STYLE2
100
AcDbText
  0
LINE
  5
25AA5
330
747D
100
AcDbEntity
  8
細線
100
AcDbLine
 10
10454.46635391981
 20
1846.398727274803
 30
0.0
 11
10310.74470848846
 21
1990.120372706156
 31
0.0
  0
LWPOLYLINE
  5
25AA6
330
747D
100
AcDbEntity
  8
部品1
 48
50.0
100
AcDbPolyline
 90
        2
 70
     0
 43
12.0
 10
9926.133446388071
 20
1846.398727274803
 10
11127.22574951969
 20
1846.398727274803
  0
LINE
  5
25AA7
330
747D
100
AcDbEntity
  8
細線
100
AcDbLine
 10
10371.6633539817
 20
1754.699811621453
 30
0.0
 11
10463.36226963505
 21
1846.398727274803
 31
0.0
  0
LINE
  5
25AA8
330
747D
100
AcDbEntity
  8
部品1
100
AcDbLine
 10
10190.74470848846
 20
1754.699811621453
 30
0.0
 11
10910.74470848846
 21
1754.699811621456
 31
0.0
  0
LINE
  5
25AA9
330
747D
100
AcDbEntity
  8
部品1
100
AcDbLine
 10
10190.74470848846
 20
1626.69981162145
 30
0.0
 11
10910.74470848846
 21
1626.699811621454
 31
0.0
  0
LINE
  5
25AAA
330
747D
100
AcDbEntity
  8
細線
 48
50.0
100
AcDbLine
 10
10444.81559293171
 20
1626.699811621454
 30
0.0
 11
10479.1130895629
 21
1754.699811621453
 31
0.0
  0
LINE
  5
25AAB
330
747D
100
AcDbEntity
  8
部品1
100
AcDbLine
 10
10310.74470848846
 20
2086.398727274804
 30
0.0
 11
10790.74470848846
 21
2086.398727274804
 31
0.0
  0
LINE
  5
25AAC
330
747D
100
AcDbEntity
  8
細線
100
AcDbLine
 10
10505.37804216524
 20
1846.398727274803
 30
0.0
 11
10310.74470848846
 21
2041.032060951587
 31
0.0
  0
LINE
  5
25AAD
330
747D
100
AcDbEntity
  8
部品1
100
AcDbLine
 10
11497.48620958549
 20
521.4304248907419
 30
0.0
 11
11497.48620958549
 21
3485.737394475389
 31
0.0
  0
TEXT
  5
25AAE
330
747D
100
AcDbEntity
  8
部品1
100
AcDbText
 10
8119.381025377633
 20
3306.185462523961
 30
0.0
 40
120.0
  1
基礎詳細
  7
STYLE2
100
AcDbText
  0
LINE
  5
25AAF
330
747D
100
AcDbEntity
  8
部品1
 48
50.0
100
AcDbLine
 10
8434.608776185703
 20
2485.274008383946
 30
0.0
 11
8450.608776185701
 21
2477.274008383946
 31
0.0
  0
LINE
  5
25AB0
330
747D
100
AcDbEntity
  8
細線
 48
50.0
100
AcDbLine
 10
8402.608776185701
 20
2437.274008383946
 30
0.0
 11
8402.608776185701
 21
2469.274008383946
 31
0.0
  0
LINE
  5
25AB1
330
747D
100
AcDbEntity
  8
部品1
 48
50.0
100
AcDbLine
 10
8450.608776185701
 20
2445.274008383946
 30
0.0
 11
8450.608776185701
 21
2477.274008383946
 31
0.0
  0
LINE
  5
25AB2
330
747D
100
AcDbEntity
  8
細線
 48
50.0
100
AcDbLine
 10
8434.608776185703
 20
2437.274008383946
 30
0.0
 11
8434.608776185703
 21
2469.274008383946
 31
0.0
  0
LINE
  5
25AB3
330
747D
100
AcDbEntity
  8
部品1
 48
50.0
100
AcDbLine
 10
8434.608776185703
 20
2469.274008383946
 30
0.0
 11
8450.608776185701
 21
2477.274008383946
 31
0.0
  0
LINE
  5
25AB4
330
747D
100
AcDbEntity
  8
部品1
 48
50.0
100
AcDbLine
 10
8402.608776185701
 20
2469.274008383946
 30
0.0
 11
8434.608776185703
 21
2469.274008383946
 31
0.0
  0
LINE
  5
25AB5
330
747D
100
AcDbEntity
  8
部品1
 48
50.0
100
AcDbLine
 10
8434.608776185703
 20
2437.274008383946
 30
0.0
 11
8450.608776185701
 21
2445.274008383946
 31
0.0
  0
LINE
  5
25AB6
330
747D
100
AcDbEntity
  8
部品1
 48
50.0
100
AcDbLine
 10
8402.608776185701
 20
2437.274008383946
 30
0.0
 11
8434.608776185703
 21
2437.274008383946
 31
0.0
  0
ELLIPSE
  5
25AB7
330
747D
100
AcDbEntity
  8
細線
 48
50.0
100
AcDbEllipse
 10
8418.608776185703
 20
2477.274008383946
 30
0.0
 11
14.76670786606846
 21
0.0
 31
0.0
210
0.0
220
0.0
230
1.0
 40
0.2071254069489396
 41
0.0
 42
6.283185307179586
  0
LINE
  5
25AB8
330
747D
100
AcDbEntity
  8
部品1
 48
50.0
100
AcDbLine
 10
8402.608776185701
 20
2485.274008383946
 30
0.0
 11
8434.608776185703
 21
2485.274008383946
 31
0.0
  0
LINE
  5
25AB9
330
747D
100
AcDbEntity
  8
部品1
 48
50.0
100
AcDbLine
 10
8386.608776185701
 20
2445.274008383946
 30
0.0
 11
8386.608776185701
 21
2477.274008383946
 31
0.0
  0
LINE
  5
25ABA
330
747D
100
AcDbEntity
  8
部品1
 48
50.0
100
AcDbLine
 10
8386.608776185701
 20
2477.274008383946
 30
0.0
 11
8402.608776185701
 21
2485.274008383946
 31
0.0
  0
LINE
  5
25ABB
330
747D
100
AcDbEntity
  8
部品1
 48
50.0
100
AcDbLine
 10
8386.608776185701
 20
2445.274008383946
 30
0.0
 11
8402.608776185701
 21
2437.274008383946
 31
0.0
  0
LINE
  5
25ABC
330
747D
100
AcDbEntity
  8
部品1
 48
50.0
100
AcDbLine
 10
8386.608776185701
 20
2477.274008383946
 30
0.0
 11
8402.608776185701
 21
2469.274008383946
 31
0.0
  0
LINE
  5
25ABD
330
747D
100
AcDbEntity
  8
部品1
 48
50.0
100
AcDbLine
 10
8458.608776185702
 20
2345.922015719076
 30
0.0
 11
8458.608776185702
 21
2355.522015719076
 31
0.0
  0
ELLIPSE
  5
25ABE
330
747D
100
AcDbEntity
  8
部品1
 48
50.0
100
AcDbEllipse
 10
8418.608776185703
 20
2355.522015719076
 30
0.0
 11
18.4
 21
0.0
 31
0.0
210
0.0
220
0.0
230
1.0
 40
0.3478260869565217
 41
0.0
 42
6.283185307179586
  0
ARC
  5
25ABF
330
747D
100
AcDbEntity
  8
部品1
100
AcDbCircle
 10
8257.508776185702
 20
2184.498727274804
 30
0.0
 40
2.7
100
AcDbArc
 50
90.0
 51
180.0
  0
LINE
  5
25AC0
330
747D
100
AcDbEntity
  8
部品1
100
AcDbLine
 10
8260.208776185701
 20
2197.998727274804
 30
0.0
 11
8302.508776185701
 21
2197.9987272748
 31
0.0
  0
LINE
  5
25AC1
330
747D
100
AcDbEntity
  8
部品1
100
AcDbLine
 10
8257.508776185702
 20
2187.198727274804
 30
0.0
 11
8257.508776185702
 21
2195.298727274803
 31
0.0
  0
LINE
  5
25AC2
330
747D
100
AcDbEntity
  8
部品1
100
AcDbLine
 10
8257.508776185702
 20
2187.198727274804
 30
0.0
 11
8257.508776185702
 21
2187.198727274804
 31
0.0
  0
ARC
  5
25AC3
330
747D
100
AcDbEntity
  8
部品1
100
AcDbCircle
 10
8260.208776185701
 20
2195.298727274803
 30
0.0
 40
2.7
100
AcDbArc
 50
90.0
 51
180.0
  0
ARC
  5
25AC4
330
747D
100
AcDbEntity
  8
部品1
100
AcDbCircle
 10
8302.508776185701
 20
2195.298727274801
 30
0.0
 40
2.7
100
AcDbArc
 50
0.0
 51
90.0
  0
LINE
  5
25AC5
330
747D
100
AcDbEntity
  8
部品1
 48
50.0
100
AcDbLine
 10
8378.608776185702
 20
2355.522015719076
 30
0.0
 11
8378.608776185702
 21
2345.922015719076
 31
0.0
  0
ELLIPSE
  5
25AC6
330
747D
100
AcDbEntity
  8
部品1
 48
50.0
100
AcDbEllipse
 10
8418.608776185703
 20
2345.922015719077
 30
0.0
 11
40.0
 21
0.0
 31
0.0
210
0.0
220
0.0
230
1.0
 40
0.4
 41
3.141592653589793
 42
6.283185307179586
  0
ELLIPSE
  5
25AC7
330
747D
100
AcDbEntity
  8
部品1
 48
50.0
100
AcDbEllipse
 10
8418.608776185703
 20
2355.522015719076
 30
0.0
 11
40.0
 21
0.0
 31
0.0
210
0.0
220
0.0
230
1.0
 40
0.4
 41
0.0
 42
6.283185307179586
  0
LINE
  5
25AC8
330
747D
100
AcDbEntity
  8
部品1
100
AcDbLine
 10
8413.208776185701
 20
2139.158727274804
 30
0.0
 11
8424.008776185701
 21
2139.158727274804
 31
0.0
  0
LINE
  5
25AC9
330
747D
100
AcDbEntity
  8
部品1
100
AcDbLine
 10
8409.608776185702
 20
2135.558727274804
 30
0.0
 11
8427.608776185701
 21
2135.558727274804
 31
0.0
  0
LINE
  5
25ACA
330
747D
100
AcDbEntity
  8
細線
100
AcDbLine
 10
8413.208776185703
 20
2095.958727274804
 30
0.0
 11
8413.208776185701
 21
2139.158727274804
 31
0.0
  0
LINE
  5
25ACB
330
747D
100
AcDbEntity
  8
細線
100
AcDbLine
 10
8424.008776185701
 20
2095.958727274804
 30
0.0
 11
8424.008776185701
 21
2139.158727274804
 31
0.0
  0
LINE
  5
25ACC
330
747D
100
AcDbEntity
  8
部品1
100
AcDbLine
 10
8325.9087761857
 20
2153.258727274804
 30
0.0
 11
8325.9087761857
 21
2136.158727274804
 31
0.0
  0
LINE
  5
25ACD
330
747D
100
AcDbEntity
  8
部品1
100
AcDbLine
 10
8359.468776185702
 20
2153.258727274804
 30
0.0
 11
8359.468776185698
 21
2098.658727274804
 31
0.0
  0
ARC
  5
25ACE
330
747D
100
AcDbEntity
  8
部品1
100
AcDbCircle
 10
8344.808776185702
 20
2141.298727274803
 30
0.0
 40
2.7
100
AcDbArc
 50
0.0
 51
90.0
  0
LINE
  5
25ACF
330
747D
100
AcDbEntity
  8
部品1
100
AcDbLine
 10
8305.2087761857
 20
2143.998727274804
 30
0.0
 11
8344.808776185702
 21
2143.998727274804
 31
0.0
  0
ARC
  5
25AD0
330
747D
100
AcDbEntity
  8
部品1
100
AcDbCircle
 10
8344.808776185702
 20
2098.658727274804
 30
0.0
 40
2.7
100
AcDbArc
 50
270.0
 51
0.0
  0
ARC
  5
25AD1
330
747D
100
AcDbEntity
  8
部品1
100
AcDbCircle
 10
8362.168776185695
 20
2098.658727274804
 30
0.0
 40
2.7
100
AcDbArc
 50
180.0
 51
270.0
  0
LINE
  5
25AD2
330
747D
100
AcDbEntity
  8
部品1
100
AcDbLine
 10
8333.108776185701
 20
2095.958727274804
 30
0.0
 11
8344.808776185702
 21
2095.958727274804
 31
0.0
  0
LINE
  5
25AD3
330
747D
100
AcDbEntity
  8
部品1
100
AcDbLine
 10
8347.508776185701
 20
2141.298727274803
 30
0.0
 11
8347.508776185701
 21
2098.658727274804
 31
0.0
  0
ARC
  5
25AD4
330
747D
100
AcDbEntity
  8
部品1
100
AcDbCircle
 10
8356.768776185701
 20
2153.258727274804
 30
0.0
 40
2.7
100
AcDbArc
 50
0.0
 51
90.0
  0
ARC
  5
25AD5
330
747D
100
AcDbEntity
  8
部品1
100
AcDbCircle
 10
8328.608776185701
 20
2153.258727274804
 30
0.0
 40
2.7
100
AcDbArc
 50
90.0
 51
180.0
  0
LINE
  5
25AD6
330
747D
100
AcDbEntity
  8
部品1
100
AcDbLine
 10
8328.608776185701
 20
2155.958727274804
 30
0.0
 11
8356.768776185701
 21
2155.958727274804
 31
0.0
  0
LINE
  5
25AD7
330
747D
100
AcDbEntity
  8
部品1
100
AcDbLine
 10
8305.2087761857
 20
2195.298727274801
 30
0.0
 11
8305.2087761857
 21
2143.998727274804
 31
0.0
  0
LINE
  5
25AD8
330
747D
100
AcDbEntity
  8
部品1
100
AcDbLine
 10
8254.808776185702
 20
2176.398727274804
 30
0.0
 11
8254.808776185702
 21
2184.498727274804
 31
0.0
  0
LINE
  5
25AD9
330
747D
100
AcDbEntity
  8
部品1
100
AcDbLine
 10
8362.168776185695
 20
2095.958727274804
 30
0.0
 11
8563.508776185697
 21
2095.958727274804
 31
0.0
  0
LINE
  5
25ADA
330
747D
100
AcDbEntity
  8
部品1
100
AcDbLine
 10
8203.508776185701
 20
2098.658727274804
 30
0.0
 11
8203.508776185701
 21
2160.790630977512
 31
0.0
  0
LINE
  5
25ADB
330
747D
100
AcDbEntity
  8
部品1
100
AcDbLine
 10
8206.2087761857
 20
2095.958727274804
 30
0.0
 11
8217.908776185696
 21
2095.958727274804
 31
0.0
  0
LINE
  5
25ADC
330
747D
100
AcDbEntity
  8
細線
 48
50.0
100
AcDbLine
 10
8197.2087761857
 20
2074.179303574709
 30
0.0
 11
8209.428199885795
 21
2086.398727274804
 31
0.0
  0
ARC
  5
25ADD
330
747D
100
AcDbEntity
  8
部品1
100
AcDbCircle
 10
8206.2087761857
 20
2098.658727274804
 30
0.0
 40
2.7
100
AcDbArc
 50
180.0
 51
270.0
  0
LINE
  5
25ADE
330
747D
100
AcDbEntity
  8
部品1
100
AcDbLine
 10
8205.553929998103
 20
2163.410015727904
 30
0.0
 11
8214.308776185701
 21
2165.598727274804
 31
0.0
  0
ARC
  5
25ADF
330
747D
100
AcDbEntity
  8
部品1
100
AcDbCircle
 10
8206.2087761857
 20
2160.790630977512
 30
0.0
 40
2.7
100
AcDbArc
 50
104.0362434679059
 51
180.0
  0
ARC
  5
25AE0
330
747D
100
AcDbEntity
  8
部品1
100
AcDbCircle
 10
8217.008776185702
 20
2173.698727274804
 30
0.0
 40
2.7
100
AcDbArc
 50
90.0
 51
180.0
  0
LINE
  5
25AE1
330
747D
100
AcDbEntity
  8
部品1
100
AcDbLine
 10
8214.308776185701
 20
2165.598727274804
 30
0.0
 11
8214.308776185701
 21
2173.698727274804
 31
0.0
  0
LINE
  5
25AE2
330
747D
100
AcDbEntity
  8
部品1
 48
50.0
100
AcDbLine
 10
8197.2087761857
 20
2086.398727274804
 30
0.0
 11
8611.208776185703
 21
2086.398727274804
 31
0.0
  0
LINE
  5
25AE3
330
747D
100
AcDbEntity
  8
細線
 48
50.0
100
AcDbLine
 10
8197.2087761857
 20
2020.297766848294
 30
0.0
 11
8263.309736612212
 21
2086.398727274804
 31
0.0
  0
LINE
  5
25AE4
330
747D
100
AcDbEntity
  8
細線
 48
50.0
100
AcDbLine
 10
8197.2087761857
 20
2047.238535211501
 30
0.0
 11
8236.368968249008
 21
2086.398727274804
 31
0.0
  0
LINE
  5
25AE5
330
747D
100
AcDbEntity
  8
部品1
100
AcDbLine
 10
8217.008776185702
 20
2176.398727274804
 30
0.0
 11
8254.808776185702
 21
2176.398727274804
 31
0.0
  0
LINE
  5
25AE6
330
747D
100
AcDbEntity
  8
部品1
 48
50.0
100
AcDbLine
 10
8611.2087761857
 20
1542.398727274803
 30
0.0
 11
8739.2087761857
 21
1542.398727274803
 31
0.0
  0
LINE
  5
25AE7
330
747D
100
AcDbEntity
  8
部品1
100
AcDbLine
 10
8427.608776185701
 20
1861.398727274804
 30
0.0
 11
8463.608776185701
 21
1861.398727274804
 31
0.0
  0
LINE
  5
25AE8
330
747D
100
AcDbEntity
  8
部品1
100
AcDbLine
 10
8427.608776185701
 20
1843.398727274804
 30
0.0
 11
8463.608776185701
 21
1843.398727274804
 31
0.0
  0
ARC
  5
25AE9
330
747D
100
AcDbEntity
  8
部品1
100
AcDbCircle
 10
8427.608776185701
 20
1861.398727274804
 30
0.0
 40
18.0
100
AcDbArc
 50
180.0
 51
270.0
  0
LINE
  5
25AEA
330
747D
100
AcDbEntity
  8
部品1
100
AcDbLine
 10
8463.608776185701
 20
1843.398727274804
 30
0.0
 11
8463.608776185701
 21
1861.398727274804
 31
0.0
  0
LINE
  5
25AEB
330
747D
100
AcDbEntity
  8
部品1
100
AcDbLine
 10
8481.608776185701
 20
1762.398727274802
 30
0.0
 11
8355.608776185695
 21
1762.398727274802
 31
0.0
  0
LINE
  5
25AEC
330
747D
100
AcDbEntity
  8
細線
 48
50.0
100
AcDbLine
 10
8775.586601378035
 20
1278.398727274802
 30
0.0
 11
8769.15582075969
 21
1302.398727274802
 31
0.0
  0
LINE
  5
25AED
330
747D
100
AcDbEntity
  8
細線
 48
50.0
100
AcDbLine
 10
8696.69855643079
 20
1278.398727274802
 30
0.0
 11
8690.267775812445
 21
1302.398727274802
 31
0.0
  0
LINE
  5
25AEE
330
747D
100
AcDbEntity
  8
細線
 48
50.0
100
AcDbLine
 10
8617.810511483535
 20
1278.398727274803
 30
0.0
 11
8611.379730865186
 21
1302.398727274803
 31
0.0
  0
LINE
  5
25AEF
330
747D
100
AcDbEntity
  8
細線
 48
50.0
100
AcDbLine
 10
8754.150665983546
 20
1198.398727274802
 30
0.0
 11
8760.581446601895
 21
1174.398727274802
 31
0.0
  0
LINE
  5
25AF0
330
747D
100
AcDbEntity
  8
細線
 48
50.0
100
AcDbLine
 10
8675.262621036301
 20
1198.398727274802
 30
0.0
 11
8681.693401654648
 21
1174.398727274802
 31
0.0
  0
LINE
  5
25AF1
330
747D
100
AcDbEntity
  8
細線
 48
50.0
100
AcDbLine
 10
8596.374576089052
 20
1198.398727274804
 30
0.0
 11
8602.80535670741
 21
1174.398727274803
 31
0.0
  0
LINE
  5
25AF2
330
747D
100
AcDbEntity
  8
細線
 48
50.0
100
AcDbLine
 10
8668.831840417952
 20
1174.398727274801
 30
0.0
 11
8703.129337049135
 21
1302.398727274801
 31
0.0
  0
LINE
  5
25AF3
330
747D
100
AcDbEntity
  8
細線
 48
50.0
100
AcDbLine
 10
8589.943795470702
 20
1174.398727274802
 30
0.0
 11
8624.241292101876
 21
1302.398727274803
 31
0.0
  0
LINE
  5
25AF4
330
747D
100
AcDbEntity
  8
細線
 48
50.0
100
AcDbLine
 10
8747.719885365196
 20
1174.398727274802
 30
0.0
 11
8782.017381996382
 21
1302.398727274801
 31
0.0
  0
LINE
  5
25AF5
330
747D
100
AcDbEntity
  8
部品1
 48
50.0
100
AcDbLine
 10
8819.208776185703
 20
1302.398727274803
 30
0.0
 11
8819.208776185703
 21
1174.398727274803
 31
0.0
  0
LINE
  5
25AF6
330
747D
100
AcDbEntity
  8
細線
 48
50.0
100
AcDbLine
 10
8538.922466536297
 20
1278.398727274803
 30
0.0
 11
8532.491685917952
 21
1302.398727274803
 31
0.0
  0
LINE
  5
25AF7
330
747D
100
AcDbEntity
  8
細線
 48
50.0
100
AcDbLine
 10
8460.034421589051
 20
1278.398727274803
 30
0.0
 11
8453.603640970703
 21
1302.398727274803
 31
0.0
  0
LINE
  5
25AF8
330
747D
100
AcDbEntity
  8
細線
 48
50.0
100
AcDbLine
 10
8302.258331694558
 20
1278.398727274803
 30
0.0
 11
8295.827551076211
 21
1302.398727274803
 31
0.0
  0
LINE
  5
25AF9
330
747D
100
AcDbEntity
  8
細線
 48
50.0
100
AcDbLine
 10
8381.146376641805
 20
1278.398727274803
 30
0.0
 11
8374.715596023456
 21
1302.398727274803
 31
0.0
  0
LINE
  5
25AFA
330
747D
100
AcDbEntity
  8
細線
 48
50.0
100
AcDbLine
 10
8438.598486194562
 20
1198.398727274804
 30
0.0
 11
8445.029266812907
 21
1174.398727274803
 31
0.0
  0
LINE
  5
25AFB
330
747D
100
AcDbEntity
  8
細線
 48
50.0
100
AcDbLine
 10
8517.486531141807
 20
1198.398727274804
 30
0.0
 11
8523.917311760154
 21
1174.398727274803
 31
0.0
  0
LINE
  5
25AFC
330
747D
100
AcDbEntity
  8
細線
 48
50.0
100
AcDbLine
 10
8280.822396300067
 20
1198.398727274804
 30
0.0
 11
8287.253176918415
 21
1174.398727274803
 31
0.0
  0
LINE
  5
25AFD
330
747D
100
AcDbEntity
  8
細線
 48
50.0
100
AcDbLine
 10
8359.710441247313
 20
1198.398727274804
 30
0.0
 11
8366.141221865662
 21
1174.398727274803
 31
0.0
  0
LINE
  5
25AFE
330
747D
100
AcDbEntity
  8
細線
 48
50.0
100
AcDbLine
 10
8511.055750523453
 20
1174.398727274803
 30
0.0
 11
8545.353247154638
 21
1302.398727274802
 31
0.0
  0
LINE
  5
25AFF
330
747D
100
AcDbEntity
  8
細線
 48
50.0
100
AcDbLine
 10
8353.279660628963
 20
1174.398727274803
 30
0.0
 11
8387.577157260148
 21
1302.398727274802
 31
0.0
  0
LINE
  5
25B00
330
747D
100
AcDbEntity
  8
細線
 48
50.0
100
AcDbLine
 10
8274.391615681716
 20
1174.398727274803
 30
0.0
 11
8308.689112312899
 21
1302.398727274803
 31
0.0
  0
LINE
  5
25B01
330
747D
100
AcDbEntity
  8
細線
 48
50.0
100
AcDbLine
 10
8432.167705576212
 20
1174.398727274802
 30
0.0
 11
8466.465202207393
 21
1302.398727274802
 31
0.0
  0
LINE
  5
25B02
330
747D
100
AcDbEntity
  8
細線
 48
50.0
100
AcDbLine
 10
8556.94047114051
 20
1302.398727274803
 30
0.0
 11
8739.2087761857
 21
1484.667032319999
 31
0.0
  0
LINE
  5
25B03
330
747D
100
AcDbEntity
  8
部品1
 48
50.0
100
AcDbLine
 10
8739.2087761857
 20
1542.398727274803
 30
0.0
 11
8739.2087761857
 21
1302.398727274803
 31
0.0
  0
LINE
  5
25B04
330
747D
100
AcDbEntity
  8
細線
 48
50.0
100
AcDbLine
 10
8529.999702777306
 20
1302.398727274803
 30
0.0
 11
8739.2087761857
 21
1511.607800683196
 31
0.0
  0
LINE
  5
25B05
330
747D
100
AcDbEntity
  8
細線
 48
50.0
100
AcDbLine
 10
8503.058934414093
 20
1302.398727274803
 30
0.0
 11
8739.2087761857
 21
1538.548569046412
 31
0.0
  0
LINE
  5
25B06
330
747D
100
AcDbEntity
  8
細線
 48
50.0
100
AcDbLine
 10
8287.532787508435
 20
1302.398727274803
 30
0.0
 11
8611.2087761857
 21
1626.07471595207
 31
0.0
  0
LINE
  5
25B07
330
747D
100
AcDbEntity
  8
細線
 48
50.0
100
AcDbLine
 10
8341.414324234852
 20
1302.398727274803
 30
0.0
 11
8611.2087761857
 21
1572.193179225661
 31
0.0
  0
LINE
  5
25B08
330
747D
100
AcDbEntity
  8
細線
 48
50.0
100
AcDbLine
 10
8314.473555871646
 20
1302.398727274803
 30
0.0
 11
8611.2087761857
 21
1599.133947588856
 31
0.0
  0
LINE
  5
25B09
330
747D
100
AcDbEntity
  8
細線
 48
50.0
100
AcDbLine
 10
8069.208776185696
 20
1515.127009763389
 30
0.0
 11
8096.480493697116
 21
1542.398727274803
 31
0.0
  0
LINE
  5
25B0A
330
747D
100
AcDbEntity
  8
部品1
 48
50.0
100
AcDbLine
 10
8069.2087761857
 20
1542.398727274803
 30
0.0
 11
8197.2087761857
 21
1542.398727274803
 31
0.0
  0
LINE
  5
25B0B
330
747D
100
AcDbEntity
  8
細線
 48
50.0
100
AcDbLine
 10
8069.208776185696
 20
1488.186241400179
 30
0.0
 11
8123.421262060324
 21
1542.398727274803
 31
0.0
  0
LWPOLYLINE
  5
25B0C
330
747D
100
AcDbEntity
  8
部品1
 48
50.0
100
AcDbPolyline
 90
        2
 70
     0
 43
8.0
 10
7783.068874352744
 20
1846.398727274804
 10
8197.2087761857
 20
1846.398727274804
  0
LINE
  5
25B0D
330
747D
100
AcDbEntity
  8
細線
 48
50.0
100
AcDbLine
 10
8144.482241800055
 20
1278.398727274803
 30
0.0
 11
8138.051461181708
 21
1302.398727274803
 31
0.0
  0
LINE
  5
25B0E
330
747D
100
AcDbEntity
  8
細線
 48
50.0
100
AcDbLine
 10
8223.370286747305
 20
1278.398727274803
 30
0.0
 11
8216.939506128957
 21
1302.398727274803
 31
0.0
  0
LINE
  5
25B0F
330
747D
100
AcDbEntity
  8
細線
 48
50.0
100
AcDbLine
 10
8065.594196852803
 20
1278.398727274803
 30
0.0
 11
8059.163416234456
 21
1302.398727274803
 31
0.0
  0
LINE
  5
25B10
330
747D
100
AcDbEntity
  8
細線
 48
50.0
100
AcDbLine
 10
7989.2087761857
 20
1287.738648240584
 30
0.0
 11
7993.136932523896
 21
1302.398727274803
 31
0.0
  0
LINE
  5
25B11
330
747D
100
AcDbEntity
  8
細線
 48
50.0
100
AcDbLine
 10
8123.046306405566
 20
1198.398727274804
 30
0.0
 11
8129.477087023913
 21
1174.398727274803
 31
0.0
  0
LINE
  5
25B12
330
747D
100
AcDbEntity
  8
細線
 48
50.0
100
AcDbLine
 10
8201.934351352816
 20
1198.398727274804
 30
0.0
 11
8208.365131971165
 21
1174.398727274803
 31
0.0
  0
LINE
  5
25B13
330
747D
100
AcDbEntity
  8
細線
 48
50.0
100
AcDbLine
 10
8044.158261458312
 20
1198.398727274804
 30
0.0
 11
8050.589042076659
 21
1174.398727274803
 31
0.0
  0
LINE
  5
25B14
330
747D
100
AcDbEntity
  8
細線
 48
50.0
100
AcDbLine
 10
8195.503570734464
 20
1174.398727274802
 30
0.0
 11
8229.801067365647
 21
1302.398727274802
 31
0.0
  0
LINE
  5
25B15
330
747D
100
AcDbEntity
  8
細線
 48
50.0
100
AcDbLine
 10
8037.72748083996
 20
1174.398727274802
 30
0.0
 11
8072.024977471143
 21
1302.398727274802
 31
0.0
  0
LINE
  5
25B16
330
747D
100
AcDbEntity
  8
部品1
 48
50.0
100
AcDbLine
 10
7989.208776185704
 20
1174.398727274803
 30
0.0
 11
7989.208776185704
 21
1302.398727274803
 31
0.0
  0
LINE
  5
25B17
330
747D
100
AcDbEntity
  8
細線
 48
50.0
100
AcDbLine
 10
8116.615525787217
 20
1174.398727274803
 30
0.0
 11
8150.9130224184
 21
1302.398727274803
 31
0.0
  0
LINE
  5
25B18
330
747D
100
AcDbEntity
  8
部品1
 48
50.0
100
AcDbLine
 10
8069.2087761857
 20
1302.398727274803
 30
0.0
 11
8069.2087761857
 21
1542.398727274803
 31
0.0
  0
LINE
  5
25B19
330
747D
100
AcDbEntity
  8
細線
 48
50.0
100
AcDbLine
 10
8069.208776185696
 20
1461.245473036975
 30
0.0
 11
8150.362030423529
 21
1542.398727274803
 31
0.0
  0
LINE
  5
25B1A
330
747D
100
AcDbEntity
  8
部品1
 48
50.0
100
AcDbLine
 10
8819.208776185703
 20
1174.398727274803
 30
0.0
 11
7989.208776185704
 21
1174.398727274803
 31
0.0
  0
LINE
  5
25B1B
330
747D
100
AcDbEntity
  8
部品1
 48
50.0
100
AcDbLine
 10
8819.208776185703
 20
1302.398727274803
 30
0.0
 11
7989.208776185704
 21
1302.398727274803
 31
0.0
  0
LINE
  5
25B1C
330
747D
100
AcDbEntity
  8
細線
 48
50.0
100
AcDbLine
 10
8072.006640602777
 20
1302.398727274803
 30
0.0
 11
8611.2087761857
 21
1841.600862857729
 31
0.0
  0
LINE
  5
25B1D
330
747D
100
AcDbEntity
  8
細線
 48
50.0
100
AcDbLine
 10
8098.947408965985
 20
1302.398727274803
 30
0.0
 11
8611.208776185703
 21
1814.660094494518
 31
0.0
  0
LINE
  5
25B1E
330
747D
100
AcDbEntity
  8
細線
 48
50.0
100
AcDbLine
 10
8125.888177329191
 20
1302.398727274803
 30
0.0
 11
8611.2087761857
 21
1787.719326131311
 31
0.0
  0
LINE
  5
25B1F
330
747D
100
AcDbEntity
  8
細線
 48
50.0
100
AcDbLine
 10
8197.2087761857
 20
1643.127009763389
 30
0.0
 11
8355.608776185695
 21
1801.527009763385
 31
0.0
  0
LINE
  5
25B20
330
747D
100
AcDbEntity
  8
細線
 48
50.0
100
AcDbLine
 10
8197.2087761857
 20
1589.245473036974
 30
0.0
 11
8370.362030423537
 21
1762.398727274802
 31
0.0
  0
LINE
  5
25B21
330
747D
100
AcDbEntity
  8
細線
 48
50.0
100
AcDbLine
 10
8197.2087761857
 20
1616.186241400181
 30
0.0
 11
8355.608776185695
 21
1774.58624140017
 31
0.0
  0
LINE
  5
25B22
330
747D
100
AcDbEntity
  8
部品1
100
AcDbLine
 10
8355.608776185695
 20
1762.398727274803
 30
0.0
 11
8355.608776185702
 21
2086.398727274804
 31
0.0
  0
LINE
  5
25B23
330
747D
100
AcDbEntity
  8
部品1
100
AcDbLine
 10
8481.608776185701
 20
1762.398727274803
 30
0.0
 11
8481.608776185701
 21
2086.398727274804
 31
0.0
  0
LINE
  5
25B24
330
747D
100
AcDbEntity
  8
細線
 48
50.0
100
AcDbLine
 10
8481.608776185701
 20
1900.586241400175
 30
0.0
 11
8611.2087761857
 21
2030.186241400172
 31
0.0
  0
LINE
  5
25B25
330
747D
100
AcDbEntity
  8
細線
 48
50.0
100
AcDbLine
 10
8481.608776185701
 20
1873.645473036962
 30
0.0
 11
8611.2087761857
 21
2003.245473036954
 31
0.0
  0
LINE
  5
25B26
330
747D
100
AcDbEntity
  8
部品1
100
AcDbLine
 10
8409.608776185702
 20
1861.398727274804
 30
0.0
 11
8409.608776185697
 21
2135.558727274804
 31
0.0
  0
LINE
  5
25B27
330
747D
100
AcDbEntity
  8
部品1
100
AcDbLine
 10
8427.608776185701
 20
1861.398727274804
 30
0.0
 11
8427.608776185698
 21
2135.558727274804
 31
0.0
  0
TEXT
  5
25B28
330
747D
100
AcDbEntity
  8
部品1
 48
50.0
100
AcDbText
 10
7783.068874352744
 20
1857.637719558059
 30
0.0
 40
80.0
  1
▽G.L
  7
STYLE2
100
AcDbText
  0
LINE
  5
25B29
330
747D
100
AcDbEntity
  8
細線
 48
50.0
100
AcDbLine
 10
8197.2087761857
 20
1804.771619942634
 30
0.0
 11
8355.608776185698
 21
1963.171619942626
 31
0.0
  0
LINE
  5
25B2A
330
747D
100
AcDbEntity
  8
細線
 48
50.0
100
AcDbLine
 10
8197.2087761857
 20
1831.712388305841
 30
0.0
 11
8355.6087761857
 21
1990.112388305839
 31
0.0
  0
LINE
  5
25B2B
330
747D
100
AcDbEntity
  8
細線
 48
50.0
100
AcDbLine
 10
8197.2087761857
 20
1858.653156669049
 30
0.0
 11
8355.6087761857
 21
2017.053156669046
 31
0.0
  0
LINE
  5
25B2C
330
747D
100
AcDbEntity
  8
部品1
 48
50.0
100
AcDbLine
 10
8197.2087761857
 20
1542.398727274803
 30
0.0
 11
8197.2087761857
 21
2086.398727274804
 31
0.0
  0
LINE
  5
25B2D
330
747D
100
AcDbEntity
  8
部品1
100
AcDbLine
 10
8611.2087761857
 20
1542.398727274803
 30
0.0
 11
8611.2087761857
 21
2086.398727274804
 31
0.0
  0
LINE
  5
25B2E
330
747D
100
AcDbEntity
  8
細線
 48
50.0
100
AcDbLine
 10
8481.608776185701
 20
1927.527009763392
 30
0.0
 11
8611.2087761857
 21
2057.127009763391
 31
0.0
  0
LINE
  5
25B2F
330
747D
100
AcDbEntity
  8
細線
 48
50.0
100
AcDbLine
 10
6605.661885510977
 20
1967.14557917152
 30
0.0
 11
6689.169463008508
 21
2050.653156669049
 31
0.0
  0
LINE
  5
25B30
330
747D
100
AcDbEntity
  8
細線
 48
50.0
100
AcDbLine
 10
6616.722170274494
 20
1951.265095571825
 30
0.0
 11
6689.169463008508
 21
2023.712388305841
 31
0.0
  0
LINE
  5
25B31
330
747D
100
AcDbEntity
  8
細線
 48
50.0
100
AcDbLine
 10
6497.169463008508
 20
2074.179303574709
 30
0.0
 11
6509.388886708602
 21
2086.398727274804
 31
0.0
  0
LINE
  5
25B32
330
747D
100
AcDbEntity
  8
細線
 48
50.0
100
AcDbLine
 10
6497.169463008508
 20
2020.297766848294
 30
0.0
 11
6563.270423435017
 21
2086.398727274804
 31
0.0
  0
LINE
  5
25B33
330
747D
100
AcDbEntity
  8
細線
 48
50.0
100
AcDbLine
 10
6497.169463008508
 20
2047.238535211501
 30
0.0
 11
6536.329655071812
 21
2086.398727274804
 31
0.0
  0
LINE
  5
25B34
330
747D
100
AcDbEntity
  8
部品1
 48
50.0
100
AcDbLine
 10
6497.169463008508
 20
2086.398727274804
 30
0.0
 11
6689.169463008508
 21
2086.398727274804
 31
0.0
  0
DIMENSION
  5
25B35
330
747D
100
AcDbEntity
  8
寸法
 48
50.0
100
AcDbDimension
  2
*D68
 10
6497.169463008507
 20
2506.066535191184
 30
0.0
 11
6593.169463008506
 21
2506.066535191184
 31
0.0
 70
   160
  1
120\P200\P280
 71
     5
 42
192.0
  3
INABA_S40G
100
AcDbAlignedDimension
 13
6689.169463008507
 23
2086.398727274804
 33
0.0
 14
6497.169463008507
 24
2086.398727274804
 34
0.0
100
AcDbRotatedDimension
1001
ACAD
1000
DSTYLE
1002
{
1070
   341
1005
0
1002
}
  0
MTEXT
  5
25B36
102
{ACAD_REACTORS
330
25B8B
102
}
330
747D
100
AcDbEntity
  8
寸法
 62
     7
 48
50.0
100
AcDbMText
 10
6930.907918869758
 20
1125.04964154265
 30
0.0
 40
80.0
 41
0.8
 71
     4
 72
     1
  1
\A1;D10@300
  7
STYLE2
 73
     1
 44
1.0
1001
ACAD
1000
MTEXTBEGIN
1070
    73
1070
     1
1070
    44
1040
1.0
1070
    74
1070
     0
1000
MTEXTEND
  0
LINE
  5
25B37
330
747D
100
AcDbEntity
  8
細線
 48
50.0
100
AcDbLine
 10
6617.169463008512
 20
1736.186241400184
 30
0.0
 11
6689.1694630085
 21
1808.186241400179
 31
0.0
  0
LINE
  5
25B38
330
747D
100
AcDbEntity
  8
細線
 48
50.0
100
AcDbLine
 10
6617.169463008507
 20
1763.12700976339
 30
0.0
 11
6689.169463008508
 21
1835.12700976339
 31
0.0
  0
LINE
  5
25B39
330
747D
100
AcDbEntity
  8
細線
 48
50.0
100
AcDbLine
 10
6617.169463008512
 20
1493.719326131315
 30
0.0
 11
6689.1694630085
 21
1565.719326131315
 31
0.0
  0
LINE
  5
25B3A
330
747D
100
AcDbEntity
  8
細線
 48
50.0
100
AcDbLine
 10
6617.169463008512
 20
1547.600862857733
 30
0.0
 11
6689.1694630085
 21
1619.600862857729
 31
0.0
  0
LINE
  5
25B3B
330
747D
100
AcDbEntity
  8
細線
 48
50.0
100
AcDbLine
 10
6617.169463008512
 20
1520.660094494525
 30
0.0
 11
6689.1694630085
 21
1592.660094494519
 31
0.0
  0
LINE
  5
25B3C
330
747D
100
AcDbEntity
  8
部品1
 48
50.0
100
AcDbLine
 10
6689.169463008508
 20
1542.398727274803
 30
0.0
 11
6817.169463008507
 21
1542.398727274803
 31
0.0
  0
LINE
  5
25B3D
330
747D
100
AcDbEntity
  8
細線
 48
50.0
100
AcDbLine
 10
6617.169463008512
 20
1709.245473036974
 30
0.0
 11
6689.1694630085
 21
1781.245473036975
 31
0.0
  0
LINE
  5
25B3E
330
747D
100
AcDbEntity
  8
部品1
 48
50.0
100
AcDbLine
 10
6585.169463008508
 20
1888.525941971925
 30
0.0
 11
6585.169463008508
 21
1946.653156669049
 31
0.0
  0
LINE
  5
25B3F
330
747D
100
AcDbEntity
  8
細線
 48
50.0
100
AcDbLine
 10
6497.169463008508
 20
1858.653156669049
 30
0.0
 11
6569.169463008508
 21
1930.653156669049
 31
0.0
  0
LINE
  5
25B40
330
747D
100
AcDbEntity
  8
部品1
 48
50.0
100
AcDbLine
 10
6569.169463008508
 20
1888.52594197193
 30
0.0
 11
6569.169463008508
 21
1946.653156669049
 31
0.0
  0
LINE
  5
25B41
330
747D
100
AcDbEntity
  8
細線
 48
50.0
100
AcDbLine
 10
6497.169463008508
 20
1831.712388305841
 30
0.0
 11
6569.169463008508
 21
1903.712388305841
 31
0.0
  0
LINE
  5
25B42
330
747D
100
AcDbEntity
  8
細線
 48
50.0
100
AcDbLine
 10
6497.169463008508
 20
1804.771619942634
 30
0.0
 11
6580.923785037801
 21
1888.525941971925
 31
0.0
  0
LINE
  5
25B43
330
747D
100
AcDbEntity
  8
部品1
 48
50.0
100
AcDbLine
 10
6585.169463008508
 20
1888.525941971925
 30
0.0
 11
6569.169463008508
 21
1888.52594197193
 31
0.0
  0
LINE
  5
25B44
330
747D
100
AcDbEntity
  8
細線
 48
50.0
100
AcDbLine
 10
6369.1694630085
 20
1515.127009763389
 30
0.0
 11
6396.441180519921
 21
1542.398727274803
 31
0.0
  0
LINE
  5
25B45
330
747D
100
AcDbEntity
  8
細線
 48
50.0
100
AcDbLine
 10
6369.1694630085
 20
1488.186241400179
 30
0.0
 11
6423.381948883132
 21
1542.398727274803
 31
0.0
  0
LINE
  5
25B46
330
747D
100
AcDbEntity
  8
部品1
 48
50.0
100
AcDbLine
 10
6369.169463008507
 20
1542.398727274803
 30
0.0
 11
6497.169463008508
 21
1542.398727274803
 31
0.0
  0
LINE
  5
25B47
330
747D
100
AcDbEntity
  8
細線
 48
50.0
100
AcDbLine
 10
6585.169463008508
 20
1919.712388305841
 30
0.0
 11
6601.169463008507
 21
1935.712388305841
 31
0.0
  0
LINE
  5
25B48
330
747D
100
AcDbEntity
  8
細線
 48
50.0
100
AcDbLine
 10
6585.169463008508
 20
1892.771619942634
 30
0.0
 11
6601.169463008507
 21
1908.771619942634
 31
0.0
  0
LINE
  5
25B49
330
747D
100
AcDbEntity
  8
細線
 48
50.0
100
AcDbLine
 10
6497.169463008508
 20
1589.245473036974
 30
0.0
 11
6601.169463008513
 21
1693.245473036974
 31
0.0
  0
LINE
  5
25B4A
330
747D
100
AcDbEntity
  8
細線
 48
50.0
100
AcDbLine
 10
6497.169463008508
 20
1643.127009763389
 30
0.0
 11
6601.169463008507
 21
1747.12700976339
 31
0.0
  0
LINE
  5
25B4B
330
747D
100
AcDbEntity
  8
細線
 48
50.0
100
AcDbLine
 10
6497.169463008508
 20
1616.186241400181
 30
0.0
 11
6601.169463008513
 21
1720.186241400184
 31
0.0
  0
LINE
  5
25B4C
330
747D
100
AcDbEntity
  8
細線
 48
50.0
100
AcDbLine
 10
6759.995108411854
 20
1278.398727274803
 30
0.0
 11
6753.564327793509
 21
1302.398727274803
 31
0.0
  0
LINE
  5
25B4D
330
747D
100
AcDbEntity
  8
細線
 48
50.0
100
AcDbLine
 10
6803.0196212369
 20
1302.398727274803
 30
0.0
 11
6817.169463008507
 21
1316.54856904641
 31
0.0
  0
LINE
  5
25B4E
330
747D
100
AcDbEntity
  8
細線
 48
50.0
100
AcDbLine
 10
6838.883153359102
 20
1278.398727274803
 30
0.0
 11
6832.452372740753
 21
1302.398727274803
 31
0.0
  0
LINE
  5
25B4F
330
747D
100
AcDbEntity
  8
部品1
 48
50.0
100
AcDbLine
 10
6761.169463008508
 20
1414.398727274804
 30
0.0
 11
6761.169463008508
 21
1398.398727274803
 31
0.0
  0
LINE
  5
25B50
330
747D
100
AcDbEntity
  8
細線
 48
50.0
100
AcDbLine
 10
6641.375011057654
 20
1302.398727274803
 30
0.0
 11
6737.375898902792
 21
1398.399615119942
 31
0.0
  0
LINE
  5
25B51
330
747D
100
AcDbEntity
  8
細線
 48
50.0
100
AcDbLine
 10
6614.434242694452
 20
1302.398727274803
 30
0.0
 11
6710.434242694451
 21
1398.398727274803
 31
0.0
  0
LINE
  5
25B52
330
747D
100
AcDbEntity
  8
細線
 48
50.0
100
AcDbLine
 10
6681.10706346461
 20
1278.398727274803
 30
0.0
 11
6674.676282846263
 21
1302.398727274803
 31
0.0
  0
LINE
  5
25B53
330
747D
100
AcDbEntity
  8
細線
 48
50.0
100
AcDbLine
 10
6602.219018517364
 20
1278.398727274803
 30
0.0
 11
6595.788237899016
 21
1302.398727274803
 31
0.0
  0
ARC
  5
25B54
330
747D
100
AcDbEntity
  8
部品1
 48
50.0
100
AcDbCircle
 10
6593.169463008507
 20
1422.398727274804
 30
0.0
 40
24.0
100
AcDbArc
 50
340.5287793655103
 51
0.0
  0
CIRCLE
  5
25B55
330
747D
100
AcDbEntity
  8
部品1
 48
50.0
100
AcDbCircle
 10
6721.169463008507
 20
1422.398727274804
 30
0.0
 40
8.0
  0
LINE
  5
25B56
330
747D
100
AcDbEntity
  8
細線
 48
50.0
100
AcDbLine
 10
6753.375011057655
 20
1414.398727274804
 30
0.0
 11
6817.169463008507
 21
1478.193179225655
 31
0.0
  0
LINE
  5
25B57
330
747D
100
AcDbEntity
  8
細線
 48
50.0
100
AcDbLine
 10
6889.904482293511
 20
1174.398727274802
 30
0.0
 11
6897.169463008508
 21
1201.512004419192
 31
0.0
  0
LINE
  5
25B58
330
747D
100
AcDbEntity
  8
細線
 48
50.0
100
AcDbLine
 10
6896.33526291186
 20
1198.398727274804
 30
0.0
 11
6897.169463008508
 21
1195.285450130439
 31
0.0
  0
LINE
  5
25B59
330
747D
100
AcDbEntity
  8
細線
 48
50.0
100
AcDbLine
 10
6817.447217964613
 20
1198.398727274804
 30
0.0
 11
6823.877998582961
 21
1174.398727274803
 31
0.0
  0
LINE
  5
25B5A
330
747D
100
AcDbEntity
  8
細線
 48
50.0
100
AcDbLine
 10
6659.67112807012
 20
1198.398727274804
 30
0.0
 11
6666.101908688466
 21
1174.398727274803
 31
0.0
  0
LINE
  5
25B5B
330
747D
100
AcDbEntity
  8
細線
 48
50.0
100
AcDbLine
 10
6738.559173017366
 20
1198.398727274804
 30
0.0
 11
6744.989953635713
 21
1174.398727274803
 31
0.0
  0
LINE
  5
25B5C
330
747D
100
AcDbEntity
  8
細線
 48
50.0
100
AcDbLine
 10
6732.128392399016
 20
1174.398727274802
 30
0.0
 11
6766.425889030201
 21
1302.398727274802
 31
0.0
  0
LINE
  5
25B5D
330
747D
100
AcDbEntity
  8
細線
 48
50.0
100
AcDbLine
 10
6653.240347451767
 20
1174.398727274803
 30
0.0
 11
6687.537844082953
 21
1302.398727274802
 31
0.0
  0
LINE
  5
25B5E
330
747D
100
AcDbEntity
  8
細線
 48
50.0
100
AcDbLine
 10
6811.01643734626
 20
1174.398727274803
 30
0.0
 11
6845.313933977447
 21
1302.398727274802
 31
0.0
  0
LINE
  5
25B5F
330
747D
100
AcDbEntity
  8
部品1
 48
50.0
100
AcDbLine
 10
6897.169463008511
 20
1302.398727274803
 30
0.0
 11
6897.169463008511
 21
1174.398727274803
 31
0.0
  0
LINE
  5
25B60
330
747D
100
AcDbEntity
  8
部品1
 48
50.0
100
AcDbLine
 10
6585.169463008508
 20
1480.525941971926
 30
0.0
 11
6585.169463008508
 21
1422.398727274804
 31
0.0
  0
LINE
  5
25B61
330
747D
100
AcDbEntity
  8
細線
 48
50.0
100
AcDbLine
 10
6510.908095788791
 20
1414.398727274804
 30
0.0
 11
6569.169463008508
 21
1472.660094494522
 31
0.0
  0
LINE
  5
25B62
330
747D
100
AcDbEntity
  8
部品1
 48
50.0
100
AcDbLine
 10
6569.169463008508
 20
1480.525941971926
 30
0.0
 11
6569.169463008508
 21
1422.398727274804
 31
0.0
  0
LINE
  5
25B63
330
747D
100
AcDbEntity
  8
細線
 48
50.0
100
AcDbLine
 10
6425.848864151996
 20
1302.398727274803
 30
0.0
 11
6521.848864151997
 21
1398.398727274803
 31
0.0
  0
LINE
  5
25B64
330
747D
100
AcDbEntity
  8
細線
 48
50.0
100
AcDbLine
 10
6523.330973570111
 20
1278.398727274803
 30
0.0
 11
6516.900192951765
 21
1302.398727274803
 31
0.0
  0
LINE
  5
25B65
330
747D
100
AcDbEntity
  8
細線
 48
50.0
100
AcDbLine
 10
6444.442928622859
 20
1278.398727274803
 30
0.0
 11
6438.012148004514
 21
1302.398727274803
 31
0.0
  0
ARC
  5
25B66
330
747D
100
AcDbEntity
  8
部品1
 48
50.0
100
AcDbCircle
 10
6593.169463008507
 20
1422.398727274804
 30
0.0
 40
24.0
100
AcDbArc
 50
180.0
 51
199.4712206344897
  0
LINE
  5
25B67
330
747D
100
AcDbEntity
  8
細線
 48
50.0
100
AcDbLine
 10
6537.848864151996
 20
1414.398727274804
 30
0.0
 11
6569.169463008508
 21
1445.719326131315
 31
0.0
  0
CIRCLE
  5
25B68
330
747D
100
AcDbEntity
  8
部品1
 48
50.0
100
AcDbCircle
 10
6465.169463008507
 20
1422.398727274804
 30
0.0
 40
8.0
  0
LINE
  5
25B69
330
747D
100
AcDbEntity
  8
部品1
 48
50.0
100
AcDbLine
 10
6585.169463008508
 20
1480.525941971926
 30
0.0
 11
6569.169463008508
 21
1480.525941971926
 31
0.0
  0
LINE
  5
25B6A
330
747D
100
AcDbEntity
  8
細線
 48
50.0
100
AcDbLine
 10
6289.169463008508
 20
1287.738648240584
 30
0.0
 11
6293.097619346703
 21
1302.398727274803
 31
0.0
  0
LINE
  5
25B6B
330
747D
100
AcDbEntity
  8
細線
 48
50.0
100
AcDbLine
 10
6365.554883675608
 20
1278.398727274803
 30
0.0
 11
6359.12410305726
 21
1302.398727274803
 31
0.0
  0
LINE
  5
25B6C
330
747D
100
AcDbEntity
  8
部品1
 48
50.0
100
AcDbLine
 10
6425.169463008508
 20
1414.398727274804
 30
0.0
 11
6425.169463008508
 21
1398.398727274803
 31
0.0
  0
LINE
  5
25B6D
330
747D
100
AcDbEntity
  8
細線
 48
50.0
100
AcDbLine
 10
6371.96732742558
 20
1302.398727274803
 30
0.0
 11
6467.96732742558
 21
1398.398727274803
 31
0.0
  0
LINE
  5
25B6E
330
747D
100
AcDbEntity
  8
細線
 48
50.0
100
AcDbLine
 10
6398.90809578879
 20
1302.398727274803
 30
0.0
 11
6494.908095788791
 21
1398.398727274803
 31
0.0
  0
LINE
  5
25B6F
330
747D
100
AcDbEntity
  8
細線
 48
50.0
100
AcDbLine
 10
6501.895038175622
 20
1198.398727274804
 30
0.0
 11
6508.325818793967
 21
1174.398727274803
 31
0.0
  0
LINE
  5
25B70
330
747D
100
AcDbEntity
  8
細線
 48
50.0
100
AcDbLine
 10
6580.783083122875
 20
1198.398727274804
 30
0.0
 11
6587.21386374122
 21
1174.398727274803
 31
0.0
  0
LINE
  5
25B71
330
747D
100
AcDbEntity
  8
細線
 48
50.0
100
AcDbLine
 10
6344.118948281119
 20
1198.398727274804
 30
0.0
 11
6350.549728899465
 21
1174.398727274803
 31
0.0
  0
LINE
  5
25B72
330
747D
100
AcDbEntity
  8
細線
 48
50.0
100
AcDbLine
 10
6423.006993228369
 20
1198.398727274804
 30
0.0
 11
6429.437773846718
 21
1174.398727274803
 31
0.0
  0
LINE
  5
25B73
330
747D
100
AcDbEntity
  8
部品1
 48
50.0
100
AcDbLine
 10
6289.169463008509
 20
1174.398727274803
 30
0.0
 11
6289.169463008509
 21
1302.398727274803
 31
0.0
  0
LINE
  5
25B74
330
747D
100
AcDbEntity
  8
細線
 48
50.0
100
AcDbLine
 10
6337.688167662765
 20
1174.398727274802
 30
0.0
 11
6371.985664293948
 21
1302.398727274802
 31
0.0
  0
LINE
  5
25B75
330
747D
100
AcDbEntity
  8
細線
 48
50.0
100
AcDbLine
 10
6495.464257557269
 20
1174.398727274802
 30
0.0
 11
6529.761754188452
 21
1302.398727274802
 31
0.0
  0
LINE
  5
25B76
330
747D
100
AcDbEntity
  8
細線
 48
50.0
100
AcDbLine
 10
6416.576212610023
 20
1174.398727274803
 30
0.0
 11
6450.873709241206
 21
1302.398727274803
 31
0.0
  0
LINE
  5
25B77
330
747D
100
AcDbEntity
  8
細線
 48
50.0
100
AcDbLine
 10
6587.493474331241
 20
1302.398727274803
 30
0.0
 11
6683.49347433124
 21
1398.398727274803
 31
0.0
  0
CIRCLE
  5
25B78
330
747D
100
AcDbEntity
  8
部品1
 48
50.0
100
AcDbCircle
 10
6593.169463008507
 20
1422.398727274804
 30
0.0
 40
8.0
  0
LINE
  5
25B79
330
747D
100
AcDbEntity
  8
部品1
 48
50.0
100
AcDbLine
 10
6897.169463008511
 20
1302.398727274803
 30
0.0
 11
6289.169463008509
 21
1302.398727274803
 31
0.0
  0
LINE
  5
25B7A
330
747D
100
AcDbEntity
  8
部品1
 48
50.0
100
AcDbLine
 10
6425.169463008508
 20
1414.398727274804
 30
0.0
 11
6761.169463008508
 21
1414.398727274804
 31
0.0
  0
LINE
  5
25B7B
330
747D
100
AcDbEntity
  8
部品1
 48
50.0
100
AcDbLine
 10
6425.169463008508
 20
1398.398727274803
 30
0.0
 11
6761.169463008508
 21
1398.398727274803
 31
0.0
  0
LINE
  5
25B7C
330
747D
100
AcDbEntity
  8
部品1
 48
50.0
100
AcDbLine
 10
6897.169463008511
 20
1174.398727274803
 30
0.0
 11
6289.169463008509
 21
1174.398727274803
 31
0.0
  0
LINE
  5
25B7D
330
747D
100
AcDbEntity
  8
細線
 48
50.0
100
AcDbLine
 10
6574.352302504522
 20
1174.398727274803
 30
0.0
 11
6608.649799135704
 21
1302.398727274803
 31
0.0
  0
LINE
  5
25B7E
330
747D
100
AcDbEntity
  8
細線
 48
50.0
100
AcDbLine
 10
6585.169463008508
 20
1461.719326131315
 30
0.0
 11
6601.169463008513
 21
1477.719326131315
 31
0.0
  0
LINE
  5
25B7F
330
747D
100
AcDbEntity
  8
部品1
 48
50.0
100
AcDbLine
 10
6601.169463008513
 20
1422.398727274804
 30
0.0
 11
6601.1694630085
 21
1946.653156669049
 31
0.0
  0
LINE
  5
25B80
330
747D
100
AcDbEntity
  8
部品1
 48
50.0
100
AcDbLine
 10
6617.169463008512
 20
1422.398727274804
 30
0.0
 11
6617.169463008507
 21
1946.653156669049
 31
0.0
  0
LINE
  5
25B81
330
747D
100
AcDbEntity
  8
部品1
 48
50.0
100
AcDbLine
 10
6817.169463008507
 20
1542.398727274803
 30
0.0
 11
6817.169463008507
 21
1302.398727274803
 31
0.0
  0
LINE
  5
25B82
330
747D
100
AcDbEntity
  8
細線
 48
50.0
100
AcDbLine
 10
6699.493474331235
 20
1414.398727274804
 30
0.0
 11
6817.169463008507
 21
1532.074715952069
 31
0.0
  0
LINE
  5
25B83
330
747D
100
AcDbEntity
  8
細線
 48
50.0
100
AcDbLine
 10
6726.434242694451
 20
1414.398727274804
 30
0.0
 11
6817.169463008507
 21
1505.133947588863
 31
0.0
  0
LINE
  5
25B84
330
747D
100
AcDbEntity
  8
部品1
 48
50.0
100
AcDbLine
 10
6369.169463008507
 20
1302.398727274803
 30
0.0
 11
6369.169463008507
 21
1542.398727274803
 31
0.0
  0
LINE
  5
25B85
330
747D
100
AcDbEntity
  8
細線
 48
50.0
100
AcDbLine
 10
6483.96732742558
 20
1414.398727274804
 30
0.0
 11
6601.169463008507
 21
1531.600862857729
 31
0.0
  0
LINE
  5
25B86
330
747D
100
AcDbEntity
  8
細線
 48
50.0
100
AcDbLine
 10
6577.035310485911
 20
1480.525941971926
 30
0.0
 11
6601.169463008513
 21
1504.660094494525
 31
0.0
  0
LINE
  5
25B87
330
747D
100
AcDbEntity
  8
細線
 48
50.0
100
AcDbLine
 10
6369.1694630085
 20
1461.245473036975
 30
0.0
 11
6450.322717246335
 21
1542.398727274803
 31
0.0
  0
LEADER
  5
25B88
330
747D
100
AcDbEntity
  8
寸法
 48
50.0
100
AcDbLeader
  3
INABA_S50G
 71
     0
 73
     0
 74
     0
 75
     1
 40
100.0
 41
222.7272727272727
 76
     3
 10
6593.169463008506
 20
1946.653156669049
 30
0.0
 10
6647.055400035902
 20
2045.888729522223
 30
0.0
 10
6772.055400035902
 20
2045.888729522223
 30
0.0
1001
ACAD
1000
DSTYLE
1002
{
1070
    40
1040
1.0
1070
   272
1070
     1
1070
   279
1070
     1
1070
   341
1005
0
1002
}
  0
LWPOLYLINE
  5
25B89
330
747D
100
AcDbEntity
  8
部品1
 48
50.0
100
AcDbPolyline
 90
        2
 70
     0
 43
8.0
 10
6689.169463008507
 20
1846.398727274804
 10
7103.309364841464
 20
1846.398727274804
  0
MTEXT
  5
25B8A
102
{ACAD_REACTORS
330
25B8C
102
}
330
747D
100
AcDbEntity
  8
寸法
 62
     7
 48
50.0
100
AcDbMText
 10
6920.497122815191
 20
1387.001658331831
 30
0.0
 40
80.0
 41
0.8
 71
     4
 72
     1
  1
D10
  7
STYLE2
 73
     1
 44
1.0
1001
ACAD
1000
MTEXTBEGIN
1070
    73
1070
     1
1070
    44
1040
1.0
1070
    74
1070
     0
1000
MTEXTEND
  0
LEADER
  5
25B8B
330
747D
100
AcDbEntity
  8
寸法
 48
50.0
100
AcDbLeader
  3
INABA_S50G
 71
     0
 73
     0
 74
     0
 75
     1
 40
100.0
 41
540.3409090909091
 76
     3
 10
6667.114632021682
 20
1405.658196861278
 30
0.0
 10
6785.907918869757
 20
1064.027378866381
 30
0.0
 10
6910.907918869757
 20
1064.027378866381
 30
0.0
213
0.0
223
-1.022262676269383
233
0.0
1001
ACAD
1000
DSTYLE
1002
{
1070
    40
1040
1.0
1070
   272
1070
     1
1070
   279
1070
     1
1070
   341
1005
0
1002
}
  0
LEADER
  5
25B8C
330
747D
100
AcDbEntity
  8
寸法
 48
50.0
100
AcDbLeader
  3
INABA_S50G
 71
     0
 73
     0
 74
     0
 75
     1
 40
100.0
 41
225.0
 76
     3
 10
6721.072415360649
 20
1422.398727274804
 30
0.0
 10
6775.497122815192
 20
1327.001658331831
 30
0.0
 10
6900.497122815192
 20
1327.001658331831
 30
0.0
1001
ACAD
1000
DSTYLE
1002
{
1070
    40
1040
1.0
1070
   272
1070
     1
1070
   279
1070
     1
1070
   341
1005
0
1002
}
  0
MTEXT
  5
25B8D
102
{ACAD_REACTORS
330
25B88
102
}
330
747D
100
AcDbEntity
  8
寸法
 62
     7
 48
50.0
100
AcDbMText
 10
6772.055400035902
 20
2108.954626567614
 30
0.0
 40
80.0
 41
0.8
 71
     4
 72
     1
  1
D13
  7
STYLE2
 73
     1
 44
1.0
1001
ACAD
1000
MTEXTBEGIN
1070
    73
1070
     1
1070
    44
1040
1.0
1070
    74
1070
     0
1000
MTEXTEND
  0
LINE
  5
25B8E
330
747D
100
AcDbEntity
  8
部品1
 48
50.0
100
AcDbLine
 10
6689.169463008508
 20
2086.398727274804
 30
0.0
 11
6689.169463008508
 21
1542.398727274803
 31
0.0
  0
LINE
  5
25B8F
330
747D
100
AcDbEntity
  8
部品1
 48
50.0
100
AcDbLine
 10
6497.169463008508
 20
1542.398727274803
 30
0.0
 11
6497.169463008508
 21
2086.398727274804
 31
0.0
  0
CIRCLE
  5
25B90
330
747D
100
AcDbEntity
  8
部品1
 48
50.0
100
AcDbCircle
 10
6593.169463008507
 20
1946.653156669049
 30
0.0
 40
8.0
  0
ARC
  5
25B91
330
747D
100
AcDbEntity
  8
部品1
 48
50.0
100
AcDbCircle
 10
6593.169463008507
 20
1946.653156669049
 30
0.0
 40
24.0
100
AcDbArc
 50
0.0
 51
180.0
  0
LINE
  5
25B92
330
747D
100
AcDbEntity
  8
細線
 48
50.0
100
AcDbLine
 10
6617.169463008507
 20
1924.771619942634
 30
0.0
 11
6689.169463008508
 21
1996.771619942634
 31
0.0
  0
LEADER
  5
25B93
330
747D
100
AcDbEntity
  8
寸法
 48
50.0
100
AcDbLeader
  3
INABA_S50G
 73
     0
 75
     1
 40
106.3636363636363
 41
893.1818181818181
 76
     3
 10
8328.608776185701
 20
2155.958727274805
 30
0.0
 10
8280.184703840761
 20
2530.018301991137
 30
0.0
 10
8155.184703840761
 20
2530.018301991137
 30
0.0
340
25B94
1001
ACAD
1000
DSTYLE
1002
{
1070
   341
1005
0
1070
    40
1040
1.0
1070
   343
1005
0
1070
   344
1005
0
1002
}
  0
MTEXT
  5
25B94
102
{ACAD_REACTORS
330
25B93
102
}
330
747D
100
AcDbEntity
  8
寸法
 62
     7
 48
50.0
100
AcDbMText
 10
8130.184703840761
 20
2608.200120172956
 30
0.0
 40
80.0
 41
0.8
 71
     6
 72
     1
  1
\A1;アンカープレート L
  7
STYLE2
 73
     1
 44
1.0
1001
ACAD
1000
MTEXTBEGIN
1070
    73
1070
     1
1070
    44
1040
1.0
1070
    74
1070
     0
1000
MTEXTEND
  0
DIMENSION
  5
25B95
330
747D
100
AcDbEntity
  8
寸法
 48
50.0
100
AcDbDimension
  2
*D69
 10
6817.169463008507
 20
763.9690892696435
 30
0.0
 11
6573.072704330283
 21
763.9690892696435
 31
0.0
 70
   160
  1
300
 71
     5
 42
448.0
  3
INABA_S40G
100
AcDbAlignedDimension
 13
6369.169463008507
 23
1174.398727274803
 33
0.0
 14
6817.169463008507
 24
1174.398727274803
 34
0.0
100
AcDbRotatedDimension
1001
ACAD
1000
DSTYLE
1002
{
1070
   341
1005
0
1002
}
  0
MTEXT
  5
25B96
102
{ACAD_REACTORS
330
25B9E
102
}
330
747D
100
AcDbEntity
  8
寸法
 62
     7
 48
50.0
100
AcDbMText
 10
6198.234436813312
 20
1218.876033656367
 30
0.0
 40
80.0
 41
0.8
 71
     6
 72
     1
  1
D10
  7
STYLE2
 73
     1
 44
1.0
1001
ACAD
1000
MTEXTBEGIN
1070
    73
1070
     1
1070
    44
1040
1.0
1070
    74
1070
     0
1000
MTEXTEND
  0
MTEXT
  5
25B97
102
{ACAD_REACTORS
330
25B9D
102
}
330
747D
100
AcDbEntity
  8
寸法
 62
     7
 48
50.0
100
AcDbMText
 10
6226.357164370747
 20
1038.559881116924
 30
0.0
 40
80.0
 41
0.8
 71
     6
 72
     1
  1
D13
  7
STYLE2
 73
     1
 44
1.0
1001
ACAD
1000
MTEXTBEGIN
1070
    73
1070
     1
1070
    44
1040
1.0
1070
    74
1070
     0
1000
MTEXTEND
  0
DIMENSION
  5
25B98
330
747D
100
AcDbEntity
  8
寸法
 48
50.0
100
AcDbDimension
  2
*D70
 10
5762.132224446766
 20
1302.398727274803
 30
0.0
 11
5762.132224446766
 21
1673.938876930804
 31
0.0
 70
   160
  1
540
 71
     5
 42
784.0
  3
INABA_S40G
100
AcDbAlignedDimension
 13
6497.169463008507
 23
2086.398727274804
 33
0.0
 14
6289.16946300851
 24
1302.398727274803
 34
0.0
 50
90.0
100
AcDbRotatedDimension
1001
ACAD
1000
DSTYLE
1002
{
1070
   341
1005
0
1002
}
  0
MTEXT
  5
25B99
102
{ACAD_REACTORS
330
25B9A
102
}
330
747D
100
AcDbEntity
  8
寸法
 62
     7
 48
50.0
100
AcDbMText
 10
6277.070983525234
 20
2298.914947276846
 30
0.0
 40
80.0
 41
0.8
 71
     6
 72
     1
  1
\A1;金コテ押エ
  7
STYLE2
 73
     1
 44
1.0
1001
ACAD
1000
MTEXTBEGIN
1070
    73
1070
     1
1070
    44
1040
1.0
1070
    74
1070
     0
1000
MTEXTEND
  0
LEADER
  5
25B9A
330
747D
100
AcDbEntity
  8
寸法
 48
50.0
100
AcDbLeader
  3
INABA_S50G
 71
     0
 73
     0
 75
     1
 40
130.1136363636363
 41
651.1363636363636
 76
     3
 10
6577.169463008506
 20
2086.398727274804
 30
0.0
 10
6464.744882844491
 20
2226.869492731392
 30
0.0
 10
6339.744882844491
 20
2226.869492731392
 30
0.0
1001
ACAD
1000
DSTYLE
1002
{
1070
    40
1040
1.0
1070
   272
1070
     1
1070
   279
1070
     1
1070
   341
1005
0
1002
}
  0
LEADER
  5
25B9B
330
747D
100
AcDbEntity
  8
寸法
 48
50.0
100
AcDbLeader
  3
INABA_S50G
 71
     0
 73
     0
 75
     1
 40
100.0
 41
540.3409090909091
 76
     3
 10
6601.169463008507
 20
1844.525941971927
 30
0.0
 10
6543.187226479808
 20
1623.055613431121
 30
0.0
 10
6418.187226479808
 20
1623.055613431121
 30
0.0
213
-9.732182305893367
223
-4.643716661138569
233
0.0
1001
ACAD
1000
DSTYLE
1002
{
1070
    40
1040
1.0
1070
   272
1070
     1
1070
   279
1070
     1
1070
   341
1005
0
1002
}
  0
MTEXT
  5
25B9C
102
{ACAD_REACTORS
330
25B9B
102
}
330
747D
100
AcDbEntity
  8
寸法
 62
     7
 48
50.0
100
AcDbMText
 10
6407.919408785701
 20
1687.69933009226
 30
0.0
 40
80.0
 41
0.8
 71
     6
 72
     1
  1
\A1;D10@300
  7
STYLE2
 73
     1
 44
1.0
1001
ACAD
1000
MTEXTBEGIN
1070
    73
1070
     1
1070
    44
1040
1.0
1070
    74
1070
     0
1000
MTEXTEND
  0
LEADER
  5
25B9D
330
747D
100
AcDbEntity
  8
寸法
 48
50.0
100
AcDbLeader
  3
INABA_S50G
 71
     0
 73
     0
 75
     1
 40
100.0
 41
222.7272727272727
 76
     3
 10
6593.169463008506
 20
1422.398727274804
 30
0.0
 10
6371.357164370747
 20
978.5598811169238
 30
0.0
 10
6246.357164370747
 20
978.5598811169238
 30
0.0
1001
ACAD
1000
DSTYLE
1002
{
1070
    40
1040
1.0
1070
   272
1070
     1
1070
   279
1070
     1
1070
   341
1005
0
1002
}
  0
LEADER
  5
25B9E
330
747D
100
AcDbEntity
  8
寸法
 48
50.0
100
AcDbLeader
  3
INABA_S50G
 71
     0
 73
     0
 75
     1
 40
100.0
 41
225.0
 76
     3
 10
6465.07241536065
 20
1422.398727274804
 30
0.0
 10
6343.234436813313
 20
1158.876033656367
 30
0.0
 10
6218.234436813313
 20
1158.876033656367
 30
0.0
1001
ACAD
1000
DSTYLE
1002
{
1070
    40
1040
1.0
1070
   272
1070
     1
1070
   279
1070
     1
1070
   341
1005
0
1002
}
  0
DIMENSION
  5
25B9F
330
747D
100
AcDbEntity
  8
寸法
 48
50.0
100
AcDbDimension
  2
*D71
 10
6226.749149276048
 20
1302.398727274803
 30
0.0
 11
6226.749149276048
 21
1422.398727274804
 31
0.0
 70
   160
  1
150
 71
     5
 42
240.0
  3
INABA_S40G
100
AcDbAlignedDimension
 13
6369.169463008507
 23
1542.398727274803
 33
0.0
 14
6289.16946300851
 24
1302.398727274803
 34
0.0
 50
90.0
100
AcDbRotatedDimension
1001
ACAD
1000
DSTYLE
1002
{
1070
   341
1005
0
1002
}
  0
TEXT
  5
25BA0
330
747D
100
AcDbEntity
  8
部品1
 48
50.0
100
AcDbText
 10
6083.02956117555
 20
1857.637719558059
 30
0.0
 40
80.0
  1
▽G.L
  7
STYLE2
100
AcDbText
  0
LWPOLYLINE
  5
25BA1
330
747D
100
AcDbEntity
  8
部品1
 48
50.0
100
AcDbPolyline
 90
        2
 70
     0
 43
8.0
 10
6083.02956117555
 20
1846.398727274804
 10
6497.169463008507
 20
1846.398727274804
  0
MTEXT
  5
25BA2
102
{ACAD_REACTORS
330
25BA3
102
}
330
747D
100
AcDbEntity
  8
寸法
 62
     7
 48
50.0
100
AcDbMText
 10
8103.541697632403
 20
2968.88439208047
 30
0.0
 40
80.0
 41
0.8
 71
     6
 72
     1
  1
\A1;φ70スリーブ
  7
STYLE2
 73
     1
 44
1.0
1001
ACAD
1000
MTEXTBEGIN
1070
    73
1070
     1
1070
    44
1040
1.0
1070
    74
1070
     0
1000
MTEXTEND
  0
LEADER
  5
25BA3
330
747D
100
AcDbEntity
  8
寸法
 48
50.0
100
AcDbLeader
  3
INABA_S50G
 73
     0
 75
     1
 40
113.1818181818182
 41
608.6363636363635
 76
     3
 10
8387.345526323752
 20
2035.914400633083
 30
0.0
 10
8253.541697632403
 20
2887.29348298956
 30
0.0
 10
8128.541697632403
 20
2887.29348298956
 30
0.0
340
25BA2
1001
ACAD
1000
DSTYLE
1002
{
1070
   341
1005
0
1070
    40
1040
1.0
1070
   343
1005
0
1070
   344
1005
0
1002
}
  0
LINE
  5
25BA4
330
747D
100
AcDbEntity
  8
部品1
100
AcDbLine
 10
5426.501024199244
 20
3485.737394475389
 30
0.0
 11
5426.501024199246
 21
521.4304248907419
 31
0.0
  0
LEADER
  5
25BA5
330
747D
100
AcDbEntity
  8
寸法
 48
50.0
100
AcDbLeader
  3
INABA_S50G
 73
     0
 74
     0
 75
     1
 40
80.0
 41
435.0
 76
     3
 10
8427.608776185701
 20
2135.558727274804
 30
0.0
 10
8470.15323860502
 20
2285.782053428034
 30
0.0
 10
8595.15323860502
 20
2285.782053428034
 30
0.0
340
25BA6
1001
ACAD
1000
DSTYLE
1002
{
1070
   341
1005
0
1070
    40
1040
1.0
1070
   343
1005
0
1070
   344
1005
0
1002
}
  0
MTEXT
  5
25BA6
102
{ACAD_REACTORS
330
25BA5
102
}
330
747D
100
AcDbEntity
  8
部品1
 62
     7
 48
50.0
100
AcDbMText
 10
8620.15323860502
 20
2350.782053428034
 30
0.0
 40
80.0
 41
0.8
 71
     4
 72
     1
  1
M10X160
  7
STYLE2
 73
     1
 44
1.0
1001
ACAD
1000
MTEXTBEGIN
1070
    73
1070
     1
1070
    44
1040
1.0
1070
    74
1070
     0
1000
MTEXTEND
  0
DIMENSION
  5
25BA7
330
747D
100
AcDbEntity
  8
寸法
 48
50.0
100
AcDbDimension
  2
*D72
 10
9389.132042073573
 20
2086.398727274803
 30
0.0
 11
9389.132042073573
 21
1620.389823853321
 31
0.0
 70
   160
  1
20～25
 71
     5
 42
52.76000000000113
  3
INABA_S40G
100
AcDbAlignedDimension
 13
8424.008776185701
 23
2139.158727274805
 33
0.0
 14
8611.2087761857
 24
2086.398727274804
 34
0.0
 50
90.0
100
AcDbRotatedDimension
1001
ACAD
1000
DSTYLE
1002
{
1070
   341
1005
0
1002
}
  0
DIMENSION
  5
25BA8
330
747D
100
AcDbEntity
  8
寸法
 48
50.0
100
AcDbDimension
  2
*D73
 10
9113.077375954544
 20
1762.398727274802
 30
0.0
 11
9013.077375954544
 21
1924.398727274805
 31
0.0
 70
    32
  1
180
 71
     5
 42
324.0000000000009
  3
INABA_S40G
100
AcDbAlignedDimension
 13
8611.2087761857
 23
2086.398727274804
 33
0.0
 14
8611.2087761857
 24
1762.398727274803
 34
0.0
 50
90.0
100
AcDbRotatedDimension
1001
ACAD
1000
DSTYLE
1002
{
1070
   341
1005
0
1002
}
  0
TEXT
  5
25BA9
330
747D
100
AcDbEntity
  8
部品1
 48
50.0
100
AcDbText
 10
8615.562360470129
 20
2442.277408037004
 30
0.0
 40
80.0
  1
基礎ボルト(市販品)
  7
STYLE2
100
AcDbText
  0
LWPOLYLINE
  5
25BAA
330
747D
100
AcDbEntity
  8
部品1
 48
50.0
100
AcDbPolyline
 90
        2
 70
     0
 43
8.0
 10
8611.2087761857
 20
1846.398727274804
 10
8904.911239585084
 20
1846.398727274804
  0
MTEXT
  5
25BAB
102
{ACAD_REACTORS
330
25BAC
102
}
330
747D
100
AcDbEntity
  8
部品1
 62
     7
 48
50.0
100
AcDbMText
 10
8650.480366554541
 20
2786.894100362064
 30
0.0
 40
80.0
 41
0.8
 71
     4
 72
     1
  1
\A1;ワッシャー(市販品)
  7
STYLE2
 73
     1
 44
1.0
1001
ACAD
1000
MTEXTBEGIN
1070
    73
1070
     1
1070
    44
1040
1.0
1070
    74
1070
     0
1000
MTEXTEND
  0
LEADER
  5
25BAC
330
747D
100
AcDbEntity
  8
寸法
 48
50.0
100
AcDbLeader
  3
INABA_S50G
 73
     0
 74
     0
 75
     1
 40
102.2727272727273
 41
906.8181818181818
 76
     3
 10
8458.608776185702
 20
2355.522015719083
 30
0.0
 10
8500.48036655454
 20
2710.7577367257
 30
0.0
 10
8625.48036655454
 20
2710.7577367257
 30
0.0
340
25BAB
1001
ACAD
1000
DSTYLE
1002
{
1070
   341
1005
0
1070
    40
1040
1.0
1070
   343
1005
0
1070
   344
1005
0
1002
}
  0
MTEXT
  5
25BAD
102
{ACAD_REACTORS
330
25BAE
102
}
330
747D
100
AcDbEntity
  8
部品1
 62
     7
 48
50.0
100
AcDbMText
 10
8618.962747299057
 20
2971.863183126851
 30
0.0
 40
80.0
 41
0.8
 71
     4
 72
     1
  1
\A1;ナット(市販品)
  7
STYLE2
 73
     1
 44
1.0
1001
ACAD
1000
MTEXTBEGIN
1070
    73
1070
     1
1070
    44
1040
1.0
1070
    74
1070
     0
1000
MTEXTEND
  0
LEADER
  5
25BAE
330
747D
100
AcDbEntity
  8
寸法
 48
50.0
100
AcDbLeader
  3
INABA_S50G
 73
     0
 74
     0
 75
     1
 40
102.2727272727273
 41
680.0000000000001
 76
     3
 10
8434.608776185703
 20
2485.274008383946
 30
0.0
 10
8468.962747299057
 20
2895.726819490488
 30
0.0
 10
8593.962747299057
 20
2895.726819490488
 30
0.0
340
25BAD
1001
ACAD
1000
DSTYLE
1002
{
1070
   341
1005
0
1070
    40
1040
1.0
1070
   343
1005
0
1070
   344
1005
0
1002
}
  0
LINE
  5
25BAF
330
747D
100
AcDbEntity
  8
部品1
100
AcDbLine
 10
5426.501024199247
 20
521.4304248907419
 30
0.0
 11
11497.48620958549
 21
521.4304248907419
 31
0.0
  0
LINE
  5
25BB0
330
747D
100
AcDbEntity
  8
部品1
100
AcDbLine
 10
11497.48620958549
 20
3245.737394475388
 30
0.0
 11
5426.501024199246
 21
3245.737394475388
 31
0.0
  0
LINE
  5
25BB1
330
747D
100
AcDbEntity
  8
部品1
100
AcDbLine
 10
11497.48620958549
 20
3485.737394475389
 30
0.0
 11
5426.501024199242
 21
3485.737394475389
 31
0.0
  0
ENDSEC
  0
SECTION
  2
OBJECTS
  0
DICTIONARY
  5
7471
330
0
100
AcDbDictionary
281
     1
  3
ACAD_COLOR
350
173D2
  3
ACAD_GROUP
350
7472
  3
ACAD_LAYOUT
350
173D3
  3
ACAD_MATERIAL
350
173D1
  3
ACAD_MLINESTYLE
350
7473
  3
ACAD_PLOTSETTINGS
350
173D4
  3
ACAD_PLOTSTYLENAME
350
173CF
  3
ACDBHEADERROUNDTRIPXREC
350
25C40
  3
AcDbVariableDictionary
350
25522
  3
CONTENTDICTIONARY
350
E71C
  3
DRAWINGVARIABLESDICT
350
F3B9
  0
DICTIONARY
  5
1758F
330
7467
100
AcDbDictionary
280
     1
281
     1
  3
ACAD_LAYERSTATES
360
17590
  0
DICTIONARY
  5
173D2
102
{ACAD_REACTORS
330
7471
102
}
330
7471
100
AcDbDictionary
281
     1
  0
DICTIONARY
  5
7472
102
{ACAD_REACTORS
330
7471
102
}
330
7471
100
AcDbDictionary
281
     1
  3
*A1
350
1D2A9
  0
DICTIONARY
  5
173D3
102
{ACAD_REACTORS
330
7471
102
}
330
7471
100
AcDbDictionary
281
     1
  3
Model
350
173D5
  3
レイアウト1
350
173D6
  0
DICTIONARY
  5
173D1
102
{ACAD_REACTORS
330
7471
102
}
330
7471
100
AcDbDictionary
281
     1
  0
DICTIONARY
  5
7473
102
{ACAD_REACTORS
330
7471
102
}
330
7471
100
AcDbDictionary
281
     1
  3
STANDARD
350
7480
  0
DICTIONARY
  5
173D4
102
{ACAD_REACTORS
330
7471
102
}
330
7471
100
AcDbDictionary
281
     1
  0
ACDBDICTIONARYWDFLT
  5
173CF
102
{ACAD_REACTORS
330
7471
102
}
330
7471
100
AcDbDictionary
281
     1
  3
Normal
350
173D0
100
AcDbDictionaryWithDefault
340
173D0
  0
DICTIONARY
  5
25C40
102
{ACAD_REACTORS
330
7471
102
}
330
7471
100
AcDbDictionary
281
     1
  3
COLORDICT
350
25C42
  3
MATERIALDICT
350
25C41
  0
DICTIONARY
  5
25522
102
{ACAD_REACTORS
330
7471
102
}
330
7471
100
AcDbDictionary
281
     1
  3
DIMASSOC
350
25523
  3
PROJECTNAME
350
25524
  0
DICTIONARY
  5
E71C
102
{ACAD_REACTORS
330
7471
102
}
330
7471
100
AcDbDictionary
281
     1
  0
DICTIONARY
  5
F3B9
102
{ACAD_REACTORS
330
7471
102
}
330
7471
100
AcDbDictionary
281
     1
1001
DRAWINGVARIABLESXDATA
1000
POLARMODE
1000
1
  0
DICTIONARY
  5
17590
102
{ACAD_REACTORS
330
1758F
102
}
330
1758F
100
AcDbDictionary
281
     1
  0
GROUP
  5
1D2A9
102
{ACAD_REACTORS
330
7472
102
}
330
7472
100
AcDbGroup
300

 70
     1
 71
     1
  0
LAYOUT
  5
173D5
102
{ACAD_XDICTIONARY
360
25C43
102
}
102
{ACAD_REACTORS
330
173D3
102
}
330
173D3
100
AcDbPlotSettings
  1

  2
クセロPDF
  4
A3
  6

 40
3.174999952316284
 41
3.174999952316284
 42
3.17498779296875
 43
3.17498779296875
 44
419.9466552734374
 45
296.9259948730469
 46
0.0
 47
0.0
 48
0.0
 49
0.0
140
0.0
141
0.0
142
1.0
143
40.88431153497317
 70
 11952
 72
     1
 73
     0
 74
     2
  7
inabass.ctb
 75
     0
147
0.0244592598592392
148
0.0
149
0.0
100
AcDbLayout
  1
Model
 70
     1
 71
     0
 10
0.0
 20
0.0
 11
12.0
 21
9.0
 12
0.0
 22
0.0
 32
0.0
 14
0.0
 24
0.0
 34
0.0
 15
0.0
 25
0.0
 35
0.0
146
0.0
 13
0.0
 23
0.0
 33
0.0
 16
1.0
 26
0.0
 36
0.0
 17
0.0
 27
1.0
 37
0.0
 76
     0
330
747D
  0
LAYOUT
  5
173D6
102
{ACAD_XDICTIONARY
360
25C45
102
}
102
{ACAD_REACTORS
330
173D3
102
}
330
173D3
100
AcDbPlotSettings
  1

  2
Microsoft Office Document Image Writer
  4

  6

 40
0.0
 41
0.0
 42
0.0
 43
0.0
 44
0.0
 45
0.0
 46
0.0
 47
0.0
 48
0.0
 49
0.0
140
0.0
141
0.0
142
1.0
143
1.0
 70
   688
 72
     0
 73
     0
 74
     5
  7
inabass.ctb
 75
    16
147
1.0
148
0.0
149
0.0
100
AcDbLayout
  1
レイアウト1
 70
     0
 71
     1
 10
0.0
 20
0.0
 11
420.0
 21
297.0
 12
0.0
 22
0.0
 32
0.0
 14
1.000000000000000E+20
 24
1.000000000000000E+20
 34
1.000000000000000E+20
 15
-1.000000000000000E+20
 25
-1.000000000000000E+20
 35
-1.000000000000000E+20
146
0.0
 13
0.0
 23
0.0
 33
0.0
 16
1.0
 26
0.0
 36
0.0
 17
0.0
 27
1.0
 37
0.0
 76
     0
330
747A
  0
MLINESTYLE
  5
7480
102
{ACAD_REACTORS
330
7473
102
}
330
7473
100
AcDbMlineStyle
  2
STANDARD
 70
     0
  3

 62
     0
 51
90.0
 52
90.0
 71
     2
 49
0.5
 62
   256
  6
BYLAYER
 49
-0.5
 62
   256
  6
BYLAYER
  0
ACDBPLACEHOLDER
  5
173D0
102
{ACAD_REACTORS
330
173CF
102
}
330
173CF
  0
XRECORD
  5
25C42
102
{ACAD_REACTORS
330
25C40
102
}
330
25C40
100
AcDbXrecord
280
     1
340
173D2
  0
XRECORD
  5
25C41
102
{ACAD_REACTORS
330
25C40
102
}
330
25C40
100
AcDbXrecord
280
     1
340
173D1
  0
DICTIONARYVAR
  5
25523
102
{ACAD_REACTORS
330
25522
102
}
330
25522
100
DictionaryVariables
280
     0
  1
1
  0
DICTIONARYVAR
  5
25524
102
{ACAD_REACTORS
330
25522
102
}
330
25522
100
DictionaryVariables
280
     0
  1

  0
DICTIONARY
  5
25C43
330
173D5
100
AcDbDictionary
280
     1
281
     1
  3
ACAD_XREC_ROUNDTRIP
360
25C44
  0
DICTIONARY
  5
25C45
330
173D6
100
AcDbDictionary
280
     1
281
     1
  3
ACAD_XREC_ROUNDTRIP
360
25C46
  0
XRECORD
  5
25C44
102
{ACAD_REACTORS
330
25C43
102
}
330
25C43
100
AcDbXrecord
280
     1
102
SHADEPLOT
 70
     0
102
SHADEPLOTRESLEVEL
 70
     2
102
SHADEPLOTCUSTOMDPI
 70
   150
  0
XRECORD
  5
25C46
102
{ACAD_REACTORS
330
25C45
102
}
330
25C45
100
AcDbXrecord
280
     1
102
SHADEPLOT
 70
     0
102
SHADEPLOTRESLEVEL
 70
     2
102
SHADEPLOTCUSTOMDPI
 70
   300
  0
ENDSEC
  0
EOF
