  0
SECTION
  2
HEADER
  9
$ACADVER
  1
AC1015
  9
$ACADMAINTVER
 70
    20
  9
$DWGCODEPAGE
  3
ANSI_932
  9
$INSBASE
 10
0.0
 20
0.0
 30
0.0
  9
$EXTMIN
 10
139.196816621341
 20
-0.5436960005536094
 30
-0.0000000000000058
  9
$EXTMAX
 10
16308.32523385566
 20
11409.94830329749
 30
0.0000000000000104
  9
$LIMMIN
 10
0.0
 20
0.0
  9
$LIMMAX
 10
16800.0
 20
11880.0
  9
$ORTHOMODE
 70
     0
  9
$REGENMODE
 70
     1
  9
$FILLMODE
 70
     1
  9
$QTEXTMODE
 70
     0
  9
$MIRRTEXT
 70
     1
  9
$LTSCALE
 40
20.0
  9
$ATTMODE
 70
     1
  9
$TEXTSIZE
 40
4.0
  9
$TRACEWID
 40
1.0
  9
$TEXTSTYLE
  7
STYLE1
  9
$CLAYER
  8
細線
  9
$CELTYPE
  6
BYLAYER
  9
$CECOLOR
 62
   256
  9
$CELTSCALE
 40
50.0
  9
$DISPSILH
 70
     0
  9
$DIMSCALE
 40
40.0
  9
$DIMASZ
 40
2.5
  9
$DIMEXO
 40
0.5
  9
$DIMDLI
 40
7.0
  9
$DIMRND
 40
0.0
  9
$DIMDLE
 40
0.0
  9
$DIMEXE
 40
1.5
  9
$DIMTP
 40
0.0
  9
$DIMTM
 40
0.0
  9
$DIMTXT
 40
3.0
  9
$DIMCEN
 40
0.0
  9
$DIMTSZ
 40
0.0
  9
$DIMTOL
 70
     0
  9
$DIMLIM
 70
     0
  9
$DIMTIH
 70
     0
  9
$DIMTOH
 70
     0
  9
$DIMSE1
 70
     0
  9
$DIMSE2
 70
     0
  9
$DIMTAD
 70
     3
  9
$DIMZIN
 70
     8
  9
$DIMBLK
  1

  9
$DIMASO
 70
     1
  9
$DIMSHO
 70
     1
  9
$DIMPOST
  1

  9
$DIMAPOST
  1

  9
$DIMALT
 70
     0
  9
$DIMALTD
 70
     2
  9
$DIMALTF
 40
0.0394
  9
$DIMLFAC
 40
1.0
  9
$DIMTOFL
 70
     1
  9
$DIMTVP
 40
0.0
  9
$DIMTIX
 70
     1
  9
$DIMSOXD
 70
     0
  9
$DIMSAH
 70
     1
  9
$DIMBLK1
  1
DOTSMALL
  9
$DIMBLK2
  1
DOTSMALL
  9
$DIMSTYLE
  2
INABA_S40G
  9
$DIMCLRD
 70
     0
  9
$DIMCLRE
 70
     0
  9
$DIMCLRT
 70
     7
  9
$DIMTFAC
 40
1.0
  9
$DIMGAP
 40
1.0
  9
$DIMJUST
 70
     0
  9
$DIMSD1
 70
     0
  9
$DIMSD2
 70
     0
  9
$DIMTOLJ
 70
     1
  9
$DIMTZIN
 70
     0
  9
$DIMALTZ
 70
     0
  9
$DIMALTTZ
 70
     0
  9
$DIMUPT
 70
     0
  9
$DIMDEC
 70
     1
  9
$DIMTDEC
 70
     4
  9
$DIMALTU
 70
     2
  9
$DIMALTTD
 70
     2
  9
$DIMTXSTY
  7
STYLE1
  9
$DIMAUNIT
 70
     0
  9
$DIMADEC
 70
     0
  9
$DIMALTRND
 40
0.0
  9
$DIMAZIN
 70
     0
  9
$DIMDSEP
 70
    46
  9
$DIMATFIT
 70
     3
  9
$DIMFRAC
 70
     0
  9
$DIMLDRBLK
  1

  9
$DIMLUNIT
 70
     2
  9
$DIMLWD
 70
    -2
  9
$DIMLWE
 70
    -2
  9
$DIMTMOVE
 70
     0
  9
$LUNITS
 70
     2
  9
$LUPREC
 70
     1
  9
$SKETCHINC
 40
1.0
  9
$FILLETRAD
 40
3.0
  9
$AUNITS
 70
     0
  9
$AUPREC
 70
     0
  9
$MENU
  1
acad
  9
$ELEVATION
 40
0.0
  9
$PELEVATION
 40
0.0
  9
$THICKNESS
 40
0.0
  9
$LIMCHECK
 70
     0
  9
$CHAMFERA
 40
0.0
  9
$CHAMFERB
 40
0.0
  9
$CHAMFERC
 40
0.0
  9
$CHAMFERD
 40
0.0
  9
$SKPOLY
 70
     0
  9
$TDCREATE
 40
2451368.612993866
  9
$TDUCREATE
 40
2451368.237993866
  9
$TDUPDATE
 40
2456276.477003935
  9
$TDUUPDATE
 40
2456276.102003935
  9
$TDINDWG
 40
0.7735938310
  9
$TDUSRTIMER
 40
0.7735938310
  9
$USRTIMER
 70
     1
  9
$ANGBASE
 50
0.0
  9
$ANGDIR
 70
     0
  9
$PDMODE
 70
     3
  9
$PDSIZE
 40
2.0
  9
$PLINEWID
 40
0.0
  9
$SPLFRAME
 70
     0
  9
$SPLINETYPE
 70
     6
  9
$SPLINESEGS
 70
     8
  9
$HANDSEED
  5
24D5A
  9
$SURFTAB1
 70
     6
  9
$SURFTAB2
 70
     6
  9
$SURFTYPE
 70
     6
  9
$SURFU
 70
     6
  9
$SURFV
 70
     6
  9
$UCSBASE
  2

  9
$UCSNAME
  2

  9
$UCSORG
 10
0.0
 20
0.0
 30
0.0
  9
$UCSXDIR
 10
1.0
 20
0.0
 30
0.0
  9
$UCSYDIR
 10
0.0
 20
1.0
 30
0.0
  9
$UCSORTHOREF
  2

  9
$UCSORTHOVIEW
 70
     0
  9
$UCSORGTOP
 10
0.0
 20
0.0
 30
0.0
  9
$UCSORGBOTTOM
 10
0.0
 20
0.0
 30
0.0
  9
$UCSORGLEFT
 10
0.0
 20
0.0
 30
0.0
  9
$UCSORGRIGHT
 10
0.0
 20
0.0
 30
0.0
  9
$UCSORGFRONT
 10
0.0
 20
0.0
 30
0.0
  9
$UCSORGBACK
 10
0.0
 20
0.0
 30
0.0
  9
$PUCSBASE
  2

  9
$PUCSNAME
  2

  9
$PUCSORG
 10
0.0
 20
0.0
 30
0.0
  9
$PUCSXDIR
 10
1.0
 20
0.0
 30
0.0
  9
$PUCSYDIR
 10
0.0
 20
1.0
 30
0.0
  9
$PUCSORTHOREF
  2

  9
$PUCSORTHOVIEW
 70
     0
  9
$PUCSORGTOP
 10
0.0
 20
0.0
 30
0.0
  9
$PUCSORGBOTTOM
 10
0.0
 20
0.0
 30
0.0
  9
$PUCSORGLEFT
 10
0.0
 20
0.0
 30
0.0
  9
$PUCSORGRIGHT
 10
0.0
 20
0.0
 30
0.0
  9
$PUCSORGFRONT
 10
0.0
 20
0.0
 30
0.0
  9
$PUCSORGBACK
 10
0.0
 20
0.0
 30
0.0
  9
$USERI1
 70
     0
  9
$USERI2
 70
     0
  9
$USERI3
 70
     0
  9
$USERI4
 70
     0
  9
$USERI5
 70
     0
  9
$USERR1
 40
0.0
  9
$USERR2
 40
0.0
  9
$USERR3
 40
0.0
  9
$USERR4
 40
0.0
  9
$USERR5
 40
0.0
  9
$WORLDVIEW
 70
     1
  9
$SHADEDGE
 70
     3
  9
$SHADEDIF
 70
    70
  9
$TILEMODE
 70
     1
  9
$MAXACTVP
 70
    16
  9
$PINSBASE
 10
0.0
 20
0.0
 30
0.0
  9
$PLIMCHECK
 70
     0
  9
$PEXTMIN
 10
1.000000000000000E+20
 20
1.000000000000000E+20
 30
1.000000000000000E+20
  9
$PEXTMAX
 10
-1.000000000000000E+20
 20
-1.000000000000000E+20
 30
-1.000000000000000E+20
  9
$PLIMMIN
 10
0.0
 20
0.0
  9
$PLIMMAX
 10
420.0
 20
297.0
  9
$UNITMODE
 70
     0
  9
$VISRETAIN
 70
     0
  9
$PLINEGEN
 70
     0
  9
$PSLTSCALE
 70
     0
  9
$TREEDEPTH
 70
  3020
  9
$CMLSTYLE
  2
STANDARD
  9
$CMLJUST
 70
     0
  9
$CMLSCALE
 40
1.0
  9
$PROXYGRAPHICS
 70
     1
  9
$MEASUREMENT
 70
     1
  9
$CELWEIGHT
370
    -1
  9
$ENDCAPS
280
     0
  9
$JOINSTYLE
280
     0
  9
$LWDISPLAY
290
     0
  9
$INSUNITS
 70
     0
  9
$HYPERLINKBASE
  1

  9
$STYLESHEET
  1
inabass.ctb
  9
$XEDIT
290
     1
  9
$CEPSNTYPE
380
     0
  9
$PSTYLEMODE
290
     1
  9
$FINGERPRINTGUID
  2
{5EAC461A-2277-4BF8-9AB0-99C43BB394F0}
  9
$VERSIONGUID
  2
{C2E17EB9-DEF6-41DD-8F26-D01FB5000CFF}
  9
$EXTNAMES
290
     1
  9
$PSVPSCALE
 40
0.0
  9
$OLESTARTUP
290
     0
  0
ENDSEC
  0
SECTION
  2
CLASSES
  0
CLASS
  1
ACDBDICTIONARYWDFLT
  2
AcDbDictionaryWithDefault
  3
ObjectDBX Classes
 90
        0
280
     0
281
     0
  0
CLASS
  1
DICTIONARYVAR
  2
AcDbDictionaryVar
  3
ObjectDBX Classes
 90
        0
280
     0
281
     0
  0
CLASS
  1
ACDBPLACEHOLDER
  2
AcDbPlaceHolder
  3
ObjectDBX Classes
 90
        0
280
     0
281
     0
  0
CLASS
  1
LAYOUT
  2
AcDbLayout
  3
ObjectDBX Classes
 90
        0
280
     0
281
     0
  0
ENDSEC
  0
SECTION
  2
TABLES
  0
TABLE
  2
VPORT
  5
746D
330
0
100
AcDbSymbolTable
 70
     3
  0
VPORT
  5
24D52
330
746D
100
AcDbSymbolTableRecord
100
AcDbViewportTableRecord
  2
*Active
 70
     0
 10
0.0
 20
0.0
 11
1.0
 21
1.0
 12
8400.000000000002
 22
6181.4629459451
 13
0.0
 23
0.0
 14
10.0
 24
10.0
 15
10.0
 25
10.0
 16
0.0
 26
0.0
 36
1.0
 17
0.0
 27
0.0
 37
0.0
 40
12457.95102865971
 41
1.608
 42
50.0
 43
0.0
 44
0.0
 50
0.0
 51
0.0
 71
     0
 72
     0
 73
     1
 74
     0
 75
     0
 76
     0
 77
     0
 78
     0
281
     0
 65
     1
110
0.0
120
0.0
130
0.0
111
1.0
121
0.0
131
0.0
112
0.0
122
1.0
132
0.0
 79
     0
146
0.0
  0
ENDTAB
  0
TABLE
  2
LTYPE
  5
746A
330
0
100
AcDbSymbolTable
 70
     5
  0
LTYPE
  5
7477
330
746A
100
AcDbSymbolTableRecord
100
AcDbLinetypeTableRecord
  2
BYBLOCK
 70
     0
  3

 72
    65
 73
     0
 40
0.0
  0
LTYPE
  5
7478
330
746A
100
AcDbSymbolTableRecord
100
AcDbLinetypeTableRecord
  2
BYLAYER
 70
     0
  3

 72
    65
 73
     0
 40
0.0
  0
LTYPE
  5
7479
330
746A
100
AcDbSymbolTableRecord
100
AcDbLinetypeTableRecord
  2
CONTINUOUS
 70
     0
  3
Solid line
 72
    65
 73
     0
 40
0.0
  0
LTYPE
  5
7816
330
746A
100
AcDbSymbolTableRecord
100
AcDbLinetypeTableRecord
  2
CENTER
 70
     0
  3
____ _ ____ _ ____ _ ____ _ ____ _ ____ _ ____ 
 72
    65
 73
     4
 40
2.0
 49
1.25
 74
     0
 49
-0.25
 74
     0
 49
0.25
 74
     0
 49
-0.25
 74
     0
  0
LTYPE
  5
781A
330
746A
100
AcDbSymbolTableRecord
100
AcDbLinetypeTableRecord
  2
HIDDEN
 70
     0
  3
__ __ __ __ __ __ __ __ __ __ __ __ __ __ __ __
 72
    65
 73
     2
 40
0.375
 49
0.25
 74
     0
 49
-0.125
 74
     0
  0
LTYPE
  5
781B
330
746A
100
AcDbSymbolTableRecord
100
AcDbLinetypeTableRecord
  2
PHANTOM
 70
     0
  3
______  __  __  ______  __  __  ______  __  __ 
 72
    65
 73
     6
 40
2.5
 49
1.25
 74
     0
 49
-0.25
 74
     0
 49
0.25
 74
     0
 49
-0.25
 74
     0
 49
0.25
 74
     0
 49
-0.25
 74
     0
  0
LTYPE
  5
12CC3
330
746A
100
AcDbSymbolTableRecord
100
AcDbLinetypeTableRecord
  2
HIDDENX2
 70
     0
  3
Hidden (2x) ____ ____ ____ ____ ____ ____ ____
 72
    65
 73
     2
 40
19.05
 49
12.7
 74
     0
 49
-6.349999999999999
 74
     0
  0
ENDTAB
  0
TABLE
  2
LAYER
  5
7467
102
{ACAD_XDICTIONARY
360
1758F
102
}
330
0
100
AcDbSymbolTable
 70
    12
  0
LAYER
  5
7474
330
7467
100
AcDbSymbolTableRecord
100
AcDbLayerTableRecord
  2
0
 70
     0
 62
     7
  6
CONTINUOUS
370
    -3
390
173D0
  0
LAYER
  5
DEB2
330
7467
100
AcDbSymbolTableRecord
100
AcDbLayerTableRecord
  2
センター
 70
     0
 62
     3
  6
CENTER
370
    -3
390
173D0
  0
LAYER
  5
DEB3
330
7467
100
AcDbSymbolTableRecord
100
AcDbLayerTableRecord
  2
寸法
 70
     0
 62
     4
  6
CONTINUOUS
370
    -3
390
173D0
  0
LAYER
  5
DEB4
330
7467
100
AcDbSymbolTableRecord
100
AcDbLayerTableRecord
  2
部品1
 70
     0
 62
     7
  6
CONTINUOUS
370
    -3
390
173D0
  0
LAYER
  5
DEB5
330
7467
100
AcDbSymbolTableRecord
100
AcDbLayerTableRecord
  2
補助
 70
     0
 62
    -1
  6
CONTINUOUS
370
    -3
390
173D0
  0
LAYER
  5
DEB6
330
7467
100
AcDbSymbolTableRecord
100
AcDbLayerTableRecord
  2
文字
 70
     0
 62
     7
  6
CONTINUOUS
370
    -3
390
173D0
  0
LAYER
  5
F255
330
7467
100
AcDbSymbolTableRecord
100
AcDbLayerTableRecord
  2
DEFPOINTS
 70
     0
 62
     7
  6
CONTINUOUS
290
     0
370
    -3
390
173D0
  0
LAYER
  5
10B54
330
7467
100
AcDbSymbolTableRecord
100
AcDbLayerTableRecord
  2
仕様書枠
 70
     0
 62
   230
  6
CONTINUOUS
370
    -3
390
173D0
  0
LAYER
  5
11729
330
7467
100
AcDbSymbolTableRecord
100
AcDbLayerTableRecord
  2
Ｇ．Ｌ
 70
     0
 62
    30
  6
CONTINUOUS
370
    -3
390
173D0
  0
LAYER
  5
1173F
330
7467
100
AcDbSymbolTableRecord
100
AcDbLayerTableRecord
  2
細線
 70
     0
 62
     5
  6
CONTINUOUS
370
    -3
390
173D0
  0
LAYER
  5
12CC4
330
7467
100
AcDbSymbolTableRecord
100
AcDbLayerTableRecord
  2
想像線
 70
     0
 62
     6
  6
PHANTOM
370
    -3
390
173D0
  0
LAYER
  5
142E2
330
7467
100
AcDbSymbolTableRecord
100
AcDbLayerTableRecord
  2
破線
 70
     0
 62
     2
  6
HIDDEN
370
    -3
390
173D0
  0
ENDTAB
  0
TABLE
  2
STYLE
  5
7468
330
0
100
AcDbSymbolTable
 70
     7
  0
STYLE
  5
7475
330
7468
100
AcDbSymbolTableRecord
100
AcDbTextStyleTableRecord
  2
STANDARD
 70
     0
 40
0.0
 41
1.0
 50
0.0
 71
     0
 42
4.0
  3
txt
  4
C:\AutoCAD LT\bigfont.shx
  0
STYLE
  5
763C
330
7468
100
AcDbSymbolTableRecord
100
AcDbTextStyleTableRecord
  2
MSMINCHO
 70
     0
 40
0.0
 41
1.0
 50
0.0
 71
     0
 42
1.199999999999999
  3
C:\AutoCAD LT\msminch2.TTF
  4

  0
STYLE
  5
F706
330
7468
100
AcDbSymbolTableRecord
100
AcDbTextStyleTableRecord
  2
STYLE1
 70
     0
 40
0.0
 41
1.0
 50
0.0
 71
     0
 42
4.0
  3
isocp.shx
  4
bigfont.shx
  0
STYLE
  5
103BF
330
7468
100
AcDbSymbolTableRecord
100
AcDbTextStyleTableRecord
  2
STYLE2
 70
     0
 40
0.0
 41
1.0
 50
0.0
 71
     0
 42
100.0
  3
MS PGothic.ttf
  4

1001
ACAD
1000
MS PGothic
1071
    32818
  0
STYLE
  5
10BAA
330
7468
100
AcDbSymbolTableRecord
100
AcDbTextStyleTableRecord
  2
STYLE3
 70
     0
 40
0.0
 41
1.0
 50
0.0
 71
     0
 42
100.0
  3

  4

1001
ACAD
1000
DFPGothic-EB
1071
    32818
  0
STYLE
  5
11A15
330
7468
100
AcDbSymbolTableRecord
100
AcDbTextStyleTableRecord
  2
MSGOTHIC
 70
     0
 40
0.0
 41
1.0
 50
0.0
 71
     0
 42
3.5
  3
msgothi2.ttf
  4

  0
STYLE
  5
13E96
330
7468
100
AcDbSymbolTableRecord
100
AcDbTextStyleTableRecord
  2
MSPゴシック
 70
     0
 40
0.0
 41
1.0
 50
0.0
 71
     0
 42
4.0
  3
MS PGothic.ttf
  4

1001
ACAD
1000
MS PGothic
1071
    32818
  0
ENDTAB
  0
TABLE
  2
VIEW
  5
746B
330
0
100
AcDbSymbolTable
 70
     0
  0
ENDTAB
  0
TABLE
  2
UCS
  5
746C
330
0
100
AcDbSymbolTable
 70
     0
  0
ENDTAB
  0
TABLE
  2
APPID
  5
746E
330
0
100
AcDbSymbolTable
 70
     6
  0
APPID
  5
7476
330
746E
100
AcDbSymbolTableRecord
100
AcDbRegAppTableRecord
  2
ACAD
 70
     0
  0
APPID
  5
DEA9
330
746E
100
AcDbSymbolTableRecord
100
AcDbRegAppTableRecord
  2
CONTENTBLOCKICON
 70
     0
  0
APPID
  5
DEAA
330
746E
100
AcDbSymbolTableRecord
100
AcDbRegAppTableRecord
  2
CONTENTBLOCKDESCRIPTION
 70
     0
  0
APPID
  5
E71D
330
746E
100
AcDbSymbolTableRecord
100
AcDbRegAppTableRecord
  2
CONTENTTABDATA
 70
     0
  0
APPID
  5
E71E
330
746E
100
AcDbSymbolTableRecord
100
AcDbRegAppTableRecord
  2
CONTENTCURRENTTAB
 70
     0
  0
APPID
  5
F3BA
330
746E
100
AcDbSymbolTableRecord
100
AcDbRegAppTableRecord
  2
DRAWINGVARIABLESXDATA
 70
     0
  0
ENDTAB
  0
TABLE
  2
DIMSTYLE
  5
746F
330
0
100
AcDbSymbolTable
 70
     6
100
AcDbDimStyleTable
 71
     1
340
F71F
  0
DIMSTYLE
105
7484
330
746F
100
AcDbSymbolTableRecord
100
AcDbDimStyleTableRecord
  2
JIS
 70
     0
 41
2.5
 42
1.0
 43
7.0
 44
1.0
 73
     0
 74
     0
 77
     1
 78
     8
140
2.5
141
0.0
143
0.0394
147
0.0
172
     1
174
     1
175
     1
340
7475
  0
DIMSTYLE
105
F236
330
746F
100
AcDbSymbolTableRecord
100
AcDbDimStyleTableRecord
  2
INABA_S40
 70
     0
 40
40.0
 41
2.5
 42
0.5
 43
7.0
 44
1.5
 73
     0
 74
     0
 77
     3
 78
     8
140
3.0
141
0.0
143
0.0394
147
1.0
172
     1
173
     1
174
     1
175
     1
178
     7
289
     0
340
7475
341
DEAC
343
DEAC
344
DEAC
  0
DIMSTYLE
105
F71F
102
{ACAD_REACTORS
330
20DE1
330
20DFB
330
22741
330
2275B
330
22A81
330
22A76
330
22A98
330
2426C
330
24249
330
24248
330
241EF
330
241E4
330
241D5
330
241D4
330
241D3
330
241D2
330
24199
330
24195
330
24192
330
241A2
330
241D0
330
241A0
330
2419F
330
2419E
330
2419C
330
24C35
330
24C95
330
24C98
330
24C9F
330
24CA7
330
24CA8
102
}
330
746F
100
AcDbSymbolTableRecord
100
AcDbDimStyleTableRecord
  2
INABA_S40G
 70
     0
 40
40.0
 41
2.5
 42
0.5
 43
7.0
 44
1.5
 73
     0
 74
     0
 77
     3
 78
     8
140
3.0
141
0.0
143
0.0394
147
1.0
172
     1
173
     1
174
     1
178
     7
271
     1
340
F706
341
F770
343
F770
344
F770
  0
DIMSTYLE
105
142E3
330
746F
100
AcDbSymbolTableRecord
100
AcDbDimStyleTableRecord
  2
INABA_S1
 70
     0
 40
0.0
 41
2.5
 42
0.5
 43
7.0
 44
1.5
 73
     0
 74
     0
 77
     3
 78
     8
140
3.0
141
0.0
143
0.0394
146
0.5
147
0.5
172
     1
173
     1
176
   256
177
   256
178
     7
271
     2
272
     2
284
     8
288
     1
340
7475
341
DEAC
343
DEAC
344
DEAC
  0
DIMSTYLE
105
14463
330
746F
100
AcDbSymbolTableRecord
100
AcDbDimStyleTableRecord
  2
INABA_S30G
 70
     0
 40
30.0
 41
2.5
 42
0.5
 43
7.0
 44
1.5
 73
     0
 74
     0
 77
     3
 78
     8
140
3.0
141
0.0
143
0.0394
147
1.0
172
     1
173
     1
174
     1
175
     1
178
     7
271
     1
340
F706
341
F770
343
F770
344
F770
  0
DIMSTYLE
105
1758E
330
746F
100
AcDbSymbolTableRecord
100
AcDbDimStyleTableRecord
  2
INABA_S50G
 70
     0
 41
125.0
 42
25.0
 43
7.0
 44
75.0
 73
     0
 74
     0
 77
     3
 78
     8
140
150.0
141
0.0
143
0.0394
147
25.0
172
     1
173
     1
174
     1
175
     1
178
     7
271
     1
340
F706
341
F770
343
F770
344
F770
  0
ENDTAB
  0
TABLE
  2
BLOCK_RECORD
  5
7466
330
0
100
AcDbSymbolTable
 70
    50
  0
BLOCK_RECORD
  5
747D
330
7466
100
AcDbSymbolTableRecord
100
AcDbBlockTableRecord
  2
*MODEL_SPACE
340
173D5
  0
BLOCK_RECORD
  5
747A
330
7466
100
AcDbSymbolTableRecord
100
AcDbBlockTableRecord
  2
*PAPER_SPACE
340
173D6
  0
BLOCK_RECORD
  5
DEAC
330
7466
100
AcDbSymbolTableRecord
100
AcDbBlockTableRecord
  2
_OPEN
340
0
  0
BLOCK_RECORD
  5
F770
330
7466
100
AcDbSymbolTableRecord
100
AcDbBlockTableRecord
  2
_DOTSMALL
340
0
102
{BLKREFS
331
18C65
331
18C66
331
18C59
331
18C5A
331
18C4D
331
18C4E
331
18C41
331
18C42
331
18C35
331
18C36
331
18C29
331
18C2A
331
18C1D
331
18C1E
331
18C0F
331
18C10
331
18C03
331
18C04
331
18BF5
331
18BF6
331
18BE7
331
18BE8
331
18BD9
331
18BDA
331
18BCD
331
18BCE
331
24852
331
24853
331
2485B
331
2485C
331
24864
331
24865
331
2486D
331
2486E
331
24877
331
24878
331
24881
331
24882
331
2488A
331
2488B
331
24893
331
24894
331
2489C
331
2489D
331
248A6
331
248A7
331
248AF
331
248B0
331
248CB
331
248CC
331
248D5
331
248D6
331
248DE
331
248DF
331
248E7
331
248E8
331
248F0
331
248F1
331
24904
331
24905
331
24919
331
2491A
331
24924
331
24925
331
2492F
331
24930
331
2493A
331
2493B
331
2495E
331
2495F
331
24967
331
24968
331
249A2
331
249A3
331
24CFF
331
24D00
331
24D08
331
24D09
331
24D11
331
24D12
331
24D1A
331
24D1B
331
24D25
331
24D26
331
24D2E
331
24D2F
331
24D41
331
24D42
102
}
  0
BLOCK_RECORD
  5
164B4
330
7466
100
AcDbSymbolTableRecord
100
AcDbBlockTableRecord
  2
_DOT
340
0
102
{BLKREFS
331
18C73
331
18C74
102
}
  0
BLOCK_RECORD
  5
18BC8
330
7466
100
AcDbSymbolTableRecord
100
AcDbBlockTableRecord
  2
*D3
340
0
  0
BLOCK_RECORD
  5
18BD4
330
7466
100
AcDbSymbolTableRecord
100
AcDbBlockTableRecord
  2
*D4
340
0
  0
BLOCK_RECORD
  5
18BE0
330
7466
100
AcDbSymbolTableRecord
100
AcDbBlockTableRecord
  2
*D5
340
0
  0
BLOCK_RECORD
  5
18BEE
330
7466
100
AcDbSymbolTableRecord
100
AcDbBlockTableRecord
  2
*D6
340
0
  0
BLOCK_RECORD
  5
18BFC
330
7466
100
AcDbSymbolTableRecord
100
AcDbBlockTableRecord
  2
*D7
340
0
  0
BLOCK_RECORD
  5
18C0A
330
7466
100
AcDbSymbolTableRecord
100
AcDbBlockTableRecord
  2
*D8
340
0
  0
BLOCK_RECORD
  5
18C16
330
7466
100
AcDbSymbolTableRecord
100
AcDbBlockTableRecord
  2
*D9
340
0
  0
BLOCK_RECORD
  5
18C24
330
7466
100
AcDbSymbolTableRecord
100
AcDbBlockTableRecord
  2
*D10
340
0
  0
BLOCK_RECORD
  5
18C30
330
7466
100
AcDbSymbolTableRecord
100
AcDbBlockTableRecord
  2
*D11
340
0
  0
BLOCK_RECORD
  5
18C3C
330
7466
100
AcDbSymbolTableRecord
100
AcDbBlockTableRecord
  2
*D12
340
0
  0
BLOCK_RECORD
  5
18C48
330
7466
100
AcDbSymbolTableRecord
100
AcDbBlockTableRecord
  2
*D13
340
0
  0
BLOCK_RECORD
  5
18C54
330
7466
100
AcDbSymbolTableRecord
100
AcDbBlockTableRecord
  2
*D14
340
0
  0
BLOCK_RECORD
  5
18C60
330
7466
100
AcDbSymbolTableRecord
100
AcDbBlockTableRecord
  2
*D15
340
0
  0
BLOCK_RECORD
  5
18C6C
330
7466
100
AcDbSymbolTableRecord
100
AcDbBlockTableRecord
  2
*D16
340
0
  0
BLOCK_RECORD
  5
18C7A
330
7466
100
AcDbSymbolTableRecord
100
AcDbBlockTableRecord
  2
A$C3B1A506B
340
0
  0
BLOCK_RECORD
  5
1C4CA
330
7466
100
AcDbSymbolTableRecord
100
AcDbBlockTableRecord
  2
_NONE
340
0
  0
BLOCK_RECORD
  5
20DE2
330
7466
100
AcDbSymbolTableRecord
100
AcDbBlockTableRecord
  2
*D19
340
0
  0
BLOCK_RECORD
  5
20DFC
330
7466
100
AcDbSymbolTableRecord
100
AcDbBlockTableRecord
  2
*D20
340
0
  0
BLOCK_RECORD
  5
22742
330
7466
100
AcDbSymbolTableRecord
100
AcDbBlockTableRecord
  2
*D21
340
0
  0
BLOCK_RECORD
  5
2275C
330
7466
100
AcDbSymbolTableRecord
100
AcDbBlockTableRecord
  2
*D22
340
0
  0
BLOCK_RECORD
  5
22B5A
330
7466
100
AcDbSymbolTableRecord
100
AcDbBlockTableRecord
  2
*D23
340
0
  0
BLOCK_RECORD
  5
22B74
330
7466
100
AcDbSymbolTableRecord
100
AcDbBlockTableRecord
  2
*D24
340
0
  0
BLOCK_RECORD
  5
22B9A
330
7466
100
AcDbSymbolTableRecord
100
AcDbBlockTableRecord
  2
*D25
340
0
  0
BLOCK_RECORD
  5
24280
330
7466
100
AcDbSymbolTableRecord
100
AcDbBlockTableRecord
  2
*D26
340
0
  0
BLOCK_RECORD
  5
24298
330
7466
100
AcDbSymbolTableRecord
100
AcDbBlockTableRecord
  2
*D27
340
0
  0
BLOCK_RECORD
  5
242A4
330
7466
100
AcDbSymbolTableRecord
100
AcDbBlockTableRecord
  2
*D28
340
0
  0
BLOCK_RECORD
  5
242B0
330
7466
100
AcDbSymbolTableRecord
100
AcDbBlockTableRecord
  2
*D29
340
0
  0
BLOCK_RECORD
  5
242D7
330
7466
100
AcDbSymbolTableRecord
100
AcDbBlockTableRecord
  2
*D30
340
0
  0
BLOCK_RECORD
  5
242E3
330
7466
100
AcDbSymbolTableRecord
100
AcDbBlockTableRecord
  2
*D31
340
0
  0
BLOCK_RECORD
  5
242EF
330
7466
100
AcDbSymbolTableRecord
100
AcDbBlockTableRecord
  2
*D32
340
0
  0
BLOCK_RECORD
  5
242FB
330
7466
100
AcDbSymbolTableRecord
100
AcDbBlockTableRecord
  2
*D33
340
0
  0
BLOCK_RECORD
  5
24308
330
7466
100
AcDbSymbolTableRecord
100
AcDbBlockTableRecord
  2
*D34
340
0
  0
BLOCK_RECORD
  5
24314
330
7466
100
AcDbSymbolTableRecord
100
AcDbBlockTableRecord
  2
*D35
340
0
  0
BLOCK_RECORD
  5
24320
330
7466
100
AcDbSymbolTableRecord
100
AcDbBlockTableRecord
  2
*D36
340
0
  0
BLOCK_RECORD
  5
24339
330
7466
100
AcDbSymbolTableRecord
100
AcDbBlockTableRecord
  2
*D37
340
0
  0
BLOCK_RECORD
  5
24352
330
7466
100
AcDbSymbolTableRecord
100
AcDbBlockTableRecord
  2
*D38
340
0
  0
BLOCK_RECORD
  5
24369
330
7466
100
AcDbSymbolTableRecord
100
AcDbBlockTableRecord
  2
*D39
340
0
  0
BLOCK_RECORD
  5
24374
330
7466
100
AcDbSymbolTableRecord
100
AcDbBlockTableRecord
  2
*D40
340
0
  0
BLOCK_RECORD
  5
2437F
330
7466
100
AcDbSymbolTableRecord
100
AcDbBlockTableRecord
  2
*D41
340
0
  0
BLOCK_RECORD
  5
2438B
330
7466
100
AcDbSymbolTableRecord
100
AcDbBlockTableRecord
  2
*D42
340
0
  0
BLOCK_RECORD
  5
243A5
330
7466
100
AcDbSymbolTableRecord
100
AcDbBlockTableRecord
  2
*D43
340
0
  0
BLOCK_RECORD
  5
24CB2
330
7466
100
AcDbSymbolTableRecord
100
AcDbBlockTableRecord
  2
*D44
340
0
  0
BLOCK_RECORD
  5
24CBE
330
7466
100
AcDbSymbolTableRecord
100
AcDbBlockTableRecord
  2
*D45
340
0
  0
BLOCK_RECORD
  5
24CCA
330
7466
100
AcDbSymbolTableRecord
100
AcDbBlockTableRecord
  2
*D46
340
0
  0
BLOCK_RECORD
  5
24CD6
330
7466
100
AcDbSymbolTableRecord
100
AcDbBlockTableRecord
  2
*D47
340
0
  0
BLOCK_RECORD
  5
24CE2
330
7466
100
AcDbSymbolTableRecord
100
AcDbBlockTableRecord
  2
*D48
340
0
  0
BLOCK_RECORD
  5
24CF0
330
7466
100
AcDbSymbolTableRecord
100
AcDbBlockTableRecord
  2
*D49
340
0
  0
ENDTAB
  0
ENDSEC
  0
SECTION
  2
BLOCKS
  0
BLOCK
  5
7489
330
747D
100
AcDbEntity
  8
0
100
AcDbBlockBegin
  2
*MODEL_SPACE
 70
     0
 10
0.0
 20
0.0
 30
0.0
  3
*MODEL_SPACE
  1

  0
ENDBLK
  5
748A
330
747D
100
AcDbEntity
  8
0
100
AcDbBlockEnd
  0
BLOCK
  5
7487
330
747A
100
AcDbEntity
 67
     1
  8
0
100
AcDbBlockBegin
  2
*PAPER_SPACE
 70
     0
 10
0.0
 20
0.0
 30
0.0
  3
*PAPER_SPACE
  1

  0
ENDBLK
  5
7488
330
747A
100
AcDbEntity
 67
     1
  8
0
100
AcDbBlockEnd
  0
BLOCK
  5
DEAD
330
DEAC
100
AcDbEntity
  8
0
100
AcDbBlockBegin
  2
_OPEN
 70
     0
 10
0.0
 20
0.0
 30
0.0
  3
_OPEN
  1

  0
LINE
  5
DEAE
330
DEAC
100
AcDbEntity
  8
0
  6
ByBlock
 62
     0
100
AcDbLine
 10
-1.0
 20
0.1666666666666666
 30
0.0
 11
0.0
 21
0.0
 31
0.0
  0
LINE
  5
DEAF
330
DEAC
100
AcDbEntity
  8
0
  6
ByBlock
 62
     0
100
AcDbLine
 10
0.0
 20
0.0
 30
0.0
 11
-1.0
 21
-0.1666666666666666
 31
0.0
  0
LINE
  5
DEB0
330
DEAC
100
AcDbEntity
  8
0
  6
ByBlock
 62
     0
100
AcDbLine
 10
0.0
 20
0.0
 30
0.0
 11
-1.0
 21
0.0
 31
0.0
  0
ENDBLK
  5
DEB1
330
DEAC
100
AcDbEntity
  8
0
100
AcDbBlockEnd
  0
BLOCK
  5
F771
330
F770
100
AcDbEntity
  8
0
 48
50.0
100
AcDbBlockBegin
  2
_DOTSMALL
 70
     0
 10
0.0
 20
0.0
 30
0.0
  3
_DOTSMALL
  1

  0
LWPOLYLINE
  5
F772
330
F770
100
AcDbEntity
  8
0
  6
ByBlock
 62
     0
 48
50.0
100
AcDbPolyline
 90
        2
 70
     1
 43
0.5
 10
-0.0625
 20
0.0
 42
1.0
 10
0.0625
 20
0.0
 42
1.0
  0
ENDBLK
  5
F776
330
F770
100
AcDbEntity
  8
0
 48
50.0
100
AcDbBlockEnd
  0
BLOCK
  5
164BA
330
164B4
100
AcDbEntity
  8
0
 48
50.0
100
AcDbBlockBegin
  2
_DOT
 70
     0
 10
0.0
 20
0.0
 30
0.0
  3
_DOT
  1

  0
LWPOLYLINE
  5
164B5
330
164B4
100
AcDbEntity
  8
0
  6
ByBlock
 62
     0
 48
50.0
100
AcDbPolyline
 90
        2
 70
     1
 43
0.5
 10
-0.25
 20
0.0
 42
1.0
 10
0.25
 20
0.0
 42
1.0
  0
LINE
  5
164B9
330
164B4
100
AcDbEntity
  8
0
  6
ByBlock
 62
     0
 48
50.0
100
AcDbLine
 10
-0.5
 20
0.0
 30
0.0
 11
-1.0
 21
0.0
 31
0.0
  0
ENDBLK
  5
164BB
330
164B4
100
AcDbEntity
  8
0
 48
50.0
100
AcDbBlockEnd
  0
BLOCK
  5
18BC9
330
18BC8
100
AcDbEntity
  8
0
 48
50.0
100
AcDbBlockBegin
  2
*D3
 70
     1
 10
0.0
 20
0.0
 30
0.0
  3
*D3
  1

  0
LINE
  5
18BCA
330
18BC8
100
AcDbEntity
  8
寸法
 62
     0
 48
50.0
370
    -2
100
AcDbLine
 10
7649.896575106999
 20
9636.123139034717
 30
0.0
 11
8702.429862581047
 21
9636.123139034717
 31
0.0
  0
LINE
  5
18BCB
330
18BC8
100
AcDbEntity
  8
寸法
 62
     0
 48
50.0
370
    -2
100
AcDbLine
 10
7649.896575106973
 20
7846.123139034709
 30
0.0
 11
8702.429862581047
 21
7846.123139034709
 31
0.0
  0
LINE
  5
18BCC
330
18BC8
100
AcDbEntity
  8
寸法
 62
     0
 48
50.0
370
    -2
100
AcDbLine
 10
8642.429862581046
 20
9636.123139034717
 30
0.0
 11
8642.429862581046
 21
7846.123139034709
 31
0.0
  0
INSERT
  5
18BCD
330
18BC8
100
AcDbEntity
  8
寸法
 62
     0
 48
50.0
370
    -2
100
AcDbBlockReference
  2
_DOTSMALL
 10
8642.429862581046
 20
9636.123139034717
 30
0.0
 41
100.0
 42
100.0
 43
100.0
 50
90.0
  0
INSERT
  5
18BCE
330
18BC8
100
AcDbEntity
  8
寸法
 62
     0
 48
50.0
370
    -2
100
AcDbBlockReference
  2
_DOTSMALL
 10
8642.429862581046
 20
7846.123139034709
 30
0.0
 41
100.0
 42
100.0
 43
100.0
 50
270.0
  0
MTEXT
  5
18BCF
330
18BC8
100
AcDbEntity
  8
寸法
 62
     7
 48
50.0
100
AcDbMText
 10
8542.429862581045
 20
8741.123139034712
 30
0.0
 40
120.0
 41
0.0
 71
     5
 72
     1
  1
\A1;1790
  7
STYLE1
 11
0.0000000000000001
 21
1.0
 31
0.0
 73
     1
 44
1.0
1001
ACAD
1000
MTEXTBEGIN
1070
    73
1070
     1
1070
    44
1040
1.0
1070
    74
1070
     0
1000
MTEXTEND
  0
POINT
  5
18BD0
330
18BC8
100
AcDbEntity
  8
DEFPOINTS
 62
     0
 48
50.0
100
AcDbPoint
 10
7629.896575106998
 20
9636.123139034717
 30
0.0
  0
POINT
  5
18BD1
330
18BC8
100
AcDbEntity
  8
DEFPOINTS
 62
     0
 48
50.0
100
AcDbPoint
 10
7629.896575106974
 20
7846.123139034709
 30
0.0
  0
POINT
  5
18BD2
330
18BC8
100
AcDbEntity
  8
DEFPOINTS
 62
     0
 48
50.0
100
AcDbPoint
 10
8642.429862581046
 20
7846.123139034709
 30
0.0
  0
ENDBLK
  5
18BD3
330
18BC8
100
AcDbEntity
  8
0
 48
50.0
100
AcDbBlockEnd
  0
BLOCK
  5
18BD5
330
18BD4
100
AcDbEntity
  8
0
 48
50.0
100
AcDbBlockBegin
  2
*D4
 70
     1
 10
0.0
 20
0.0
 30
0.0
  3
*D4
  1

  0
LINE
  5
18BD6
330
18BD4
100
AcDbEntity
  8
寸法
 62
     0
 48
50.0
370
    -2
100
AcDbLine
 10
4214.896575106998
 20
9656.123139034622
 30
0.0
 11
4214.896575106998
 21
10211.93135865972
 31
0.0
  0
LINE
  5
18BD7
330
18BD4
100
AcDbEntity
  8
寸法
 62
     0
 48
50.0
370
    -2
100
AcDbLine
 10
7574.896575106999
 20
9656.123139034718
 30
0.0
 11
7574.896575106999
 21
10211.93135865972
 31
0.0
  0
LINE
  5
18BD8
330
18BD4
100
AcDbEntity
  8
寸法
 62
     0
 48
50.0
370
    -2
100
AcDbLine
 10
4214.896575106998
 20
10151.93135865972
 30
0.0
 11
7574.896575106999
 21
10151.93135865972
 31
0.0
  0
INSERT
  5
18BD9
330
18BD4
100
AcDbEntity
  8
寸法
 62
     0
 48
50.0
370
    -2
100
AcDbBlockReference
  2
_DOTSMALL
 10
4214.896575106998
 20
10151.93135865972
 30
0.0
 41
100.0
 42
100.0
 43
100.0
 50
180.0
  0
INSERT
  5
18BDA
330
18BD4
100
AcDbEntity
  8
寸法
 62
     0
 48
50.0
370
    -2
100
AcDbBlockReference
  2
_DOTSMALL
 10
7574.896575106999
 20
10151.93135865972
 30
0.0
 41
100.0
 42
100.0
 43
100.0
  0
MTEXT
  5
18BDB
330
18BD4
100
AcDbEntity
  8
寸法
 62
     7
 48
50.0
100
AcDbMText
 10
5894.896575106997
 20
10251.94316968334
 30
0.0
 40
120.0
 41
0.0
 71
     5
 72
     1
  1
\A1;8X420=3360
  7
STYLE1
 73
     1
 44
1.0
1001
ACAD
1000
MTEXTBEGIN
1070
    73
1070
     1
1070
    44
1040
1.0
1070
    74
1070
     0
1000
MTEXTEND
  0
POINT
  5
18BDC
330
18BD4
100
AcDbEntity
  8
DEFPOINTS
 62
     0
 48
50.0
100
AcDbPoint
 10
4214.896575106998
 20
9636.123139034623
 30
0.0
  0
POINT
  5
18BDD
330
18BD4
100
AcDbEntity
  8
DEFPOINTS
 62
     0
 48
50.0
100
AcDbPoint
 10
7574.896575106999
 20
9636.123139034717
 30
0.0
  0
POINT
  5
18BDE
330
18BD4
100
AcDbEntity
  8
DEFPOINTS
 62
     0
 48
50.0
100
AcDbPoint
 10
7574.896575106999
 20
10151.93135865972
 30
0.0
  0
ENDBLK
  5
18BDF
330
18BD4
100
AcDbEntity
  8
0
 48
50.0
100
AcDbBlockEnd
  0
BLOCK
  5
18BE1
330
18BE0
100
AcDbEntity
  8
0
 48
50.0
100
AcDbBlockBegin
  2
*D5
 70
     1
 10
0.0
 20
0.0
 30
0.0
  3
*D5
  1

  0
LINE
  5
18BE2
330
18BE0
100
AcDbEntity
  8
寸法
 62
     0
 48
50.0
370
    -2
100
AcDbLine
 10
7574.896575106999
 20
9656.123139034718
 30
0.0
 11
7574.896575106999
 21
10211.9313586597
 31
0.0
  0
LINE
  5
18BE3
330
18BE0
100
AcDbEntity
  8
寸法
 62
     0
 48
50.0
370
    -2
100
AcDbLine
 10
7629.896575106998
 20
9656.123139034718
 30
0.0
 11
7629.896575106998
 21
10211.9313586597
 31
0.0
  0
LINE
  5
18BE4
330
18BE0
100
AcDbEntity
  8
寸法
 62
     0
 48
50.0
370
    -2
100
AcDbLine
 10
7574.896575106999
 20
10151.9313586597
 30
0.0
 11
7474.896575106999
 21
10151.9313586597
 31
0.0
  0
LINE
  5
18BE5
330
18BE0
100
AcDbEntity
  8
寸法
 62
     0
 48
50.0
370
    -2
100
AcDbLine
 10
7629.896575106998
 20
10151.9313586597
 30
0.0
 11
8046.867137855477
 21
10151.9313586597
 31
0.0
  0
LINE
  5
18BE6
330
18BE0
100
AcDbEntity
  8
寸法
 62
     0
 48
50.0
370
    -2
100
AcDbLine
 10
7574.896575106999
 20
10151.9313586597
 30
0.0
 11
7629.896575106998
 21
10151.9313586597
 31
0.0
  0
INSERT
  5
18BE7
330
18BE0
100
AcDbEntity
  8
寸法
 62
     0
 48
50.0
370
    -2
100
AcDbBlockReference
  2
_DOTSMALL
 10
7574.896575106999
 20
10151.9313586597
 30
0.0
 41
100.0
 42
100.0
 43
100.0
  0
INSERT
  5
18BE8
330
18BE0
100
AcDbEntity
  8
寸法
 62
     0
 48
50.0
370
    -2
100
AcDbBlockReference
  2
_DOTSMALL
 10
7629.896575106998
 20
10151.9313586597
 30
0.0
 41
100.0
 42
100.0
 43
100.0
 50
180.0
  0
MTEXT
  5
18BE9
330
18BE0
100
AcDbEntity
  8
寸法
 62
     7
 48
50.0
100
AcDbMText
 10
7938.381856481237
 20
10251.9313586597
 30
0.0
 40
120.0
 41
0.0
 71
     5
 72
     1
  1
\A1;55
  7
STYLE1
 73
     1
 44
1.0
1001
ACAD
1000
MTEXTBEGIN
1070
    73
1070
     1
1070
    44
1040
1.0
1070
    74
1070
     0
1000
MTEXTEND
  0
POINT
  5
18BEA
330
18BE0
100
AcDbEntity
  8
DEFPOINTS
 62
     0
 48
50.0
100
AcDbPoint
 10
7574.896575106999
 20
9636.123139034717
 30
0.0
  0
POINT
  5
18BEB
330
18BE0
100
AcDbEntity
  8
DEFPOINTS
 62
     0
 48
50.0
100
AcDbPoint
 10
7629.896575106998
 20
9636.123139034717
 30
0.0
  0
POINT
  5
18BEC
330
18BE0
100
AcDbEntity
  8
DEFPOINTS
 62
     0
 48
50.0
100
AcDbPoint
 10
7629.896575106998
 20
10151.9313586597
 30
0.0
  0
ENDBLK
  5
18BED
330
18BE0
100
AcDbEntity
  8
0
 48
50.0
100
AcDbBlockEnd
  0
BLOCK
  5
18BEF
330
18BEE
100
AcDbEntity
  8
0
 48
50.0
100
AcDbBlockBegin
  2
*D6
 70
     1
 10
0.0
 20
0.0
 30
0.0
  3
*D6
  1

  0
LINE
  5
18BF0
330
18BEE
100
AcDbEntity
  8
寸法
 62
     0
 48
50.0
370
    -2
100
AcDbLine
 10
7649.896575106999
 20
9636.123139034717
 30
0.0
 11
8337.32292084141
 21
9636.123139034717
 31
0.0
  0
LINE
  5
18BF1
330
18BEE
100
AcDbEntity
  8
寸法
 62
     0
 48
50.0
370
    -2
100
AcDbLine
 10
7649.896575106999
 20
9581.123139034721
 30
0.0
 11
8337.32292084141
 21
9581.123139034721
 31
0.0
  0
LINE
  5
18BF2
330
18BEE
100
AcDbEntity
  8
寸法
 62
     0
 48
50.0
370
    -2
100
AcDbLine
 10
8277.322920841411
 20
9581.123139034721
 30
0.0
 11
8277.322920841411
 21
9481.123139034719
 31
0.0
  0
LINE
  5
18BF3
330
18BEE
100
AcDbEntity
  8
寸法
 62
     0
 48
50.0
370
    -2
100
AcDbLine
 10
8277.322920841411
 20
9636.123139034717
 30
0.0
 11
8277.322920841411
 21
10053.09370178319
 31
0.0
  0
LINE
  5
18BF4
330
18BEE
100
AcDbEntity
  8
寸法
 62
     0
 48
50.0
370
    -2
100
AcDbLine
 10
8277.322920841411
 20
9581.123139034721
 30
0.0
 11
8277.322920841411
 21
9636.123139034717
 31
0.0
  0
INSERT
  5
18BF5
330
18BEE
100
AcDbEntity
  8
寸法
 62
     0
 48
50.0
370
    -2
100
AcDbBlockReference
  2
_DOTSMALL
 10
8277.322920841411
 20
9581.123139034721
 30
0.0
 41
100.0
 42
100.0
 43
100.0
 50
90.0
  0
INSERT
  5
18BF6
330
18BEE
100
AcDbEntity
  8
寸法
 62
     0
 48
50.0
370
    -2
100
AcDbBlockReference
  2
_DOTSMALL
 10
8277.322920841411
 20
9636.123139034717
 30
0.0
 41
100.0
 42
100.0
 43
100.0
 50
270.0
  0
MTEXT
  5
18BF7
330
18BEE
100
AcDbEntity
  8
寸法
 62
     7
 48
50.0
100
AcDbMText
 10
8177.32292084141
 20
9944.608420408957
 30
0.0
 40
120.0
 41
0.0
 71
     5
 72
     1
  1
\A1;55
  7
STYLE1
 11
0.0000000000000001
 21
1.0
 31
0.0
 73
     1
 44
1.0
1001
ACAD
1000
MTEXTBEGIN
1070
    73
1070
     1
1070
    44
1040
1.0
1070
    74
1070
     0
1000
MTEXTEND
  0
POINT
  5
18BF8
330
18BEE
100
AcDbEntity
  8
DEFPOINTS
 62
     0
 48
50.0
100
AcDbPoint
 10
7629.896575106998
 20
9636.123139034717
 30
0.0
  0
POINT
  5
18BF9
330
18BEE
100
AcDbEntity
  8
DEFPOINTS
 62
     0
 48
50.0
100
AcDbPoint
 10
7629.896575106998
 20
9581.123139034721
 30
0.0
  0
POINT
  5
18BFA
330
18BEE
100
AcDbEntity
  8
DEFPOINTS
 62
     0
 48
50.0
100
AcDbPoint
 10
8277.322920841411
 20
9581.123139034721
 30
0.0
  0
ENDBLK
  5
18BFB
330
18BEE
100
AcDbEntity
  8
0
 48
50.0
100
AcDbBlockEnd
  0
BLOCK
  5
18BFD
330
18BFC
100
AcDbEntity
  8
0
 48
50.0
100
AcDbBlockBegin
  2
*D7
 70
     1
 10
0.0
 20
0.0
 30
0.0
  3
*D7
  1

  0
LINE
  5
18BFE
330
18BFC
100
AcDbEntity
  8
寸法
 62
     0
 48
50.0
370
    -2
100
AcDbLine
 10
4159.896575106963
 20
9656.123139034622
 30
0.0
 11
4159.896575106963
 21
10211.9313586596
 31
0.0
  0
LINE
  5
18BFF
330
18BFC
100
AcDbEntity
  8
寸法
 62
     0
 48
50.0
370
    -2
100
AcDbLine
 10
4214.896575106998
 20
9656.123139034622
 30
0.0
 11
4214.896575106998
 21
10211.9313586596
 31
0.0
  0
LINE
  5
18C00
330
18BFC
100
AcDbEntity
  8
寸法
 62
     0
 48
50.0
370
    -2
100
AcDbLine
 10
4214.896575106998
 20
10151.9313586596
 30
0.0
 11
4314.896575106998
 21
10151.9313586596
 31
0.0
  0
LINE
  5
18C01
330
18BFC
100
AcDbEntity
  8
寸法
 62
     0
 48
50.0
370
    -2
100
AcDbLine
 10
4159.896575106963
 20
10151.9313586596
 30
0.0
 11
3742.926012358486
 21
10151.9313586596
 31
0.0
  0
LINE
  5
18C02
330
18BFC
100
AcDbEntity
  8
寸法
 62
     0
 48
50.0
370
    -2
100
AcDbLine
 10
4214.896575106998
 20
10151.9313586596
 30
0.0
 11
4159.896575106963
 21
10151.9313586596
 31
0.0
  0
INSERT
  5
18C03
330
18BFC
100
AcDbEntity
  8
寸法
 62
     0
 48
50.0
370
    -2
100
AcDbBlockReference
  2
_DOTSMALL
 10
4214.896575106998
 20
10151.9313586596
 30
0.0
 41
100.0
 42
100.0
 43
100.0
 50
180.0
  0
INSERT
  5
18C04
330
18BFC
100
AcDbEntity
  8
寸法
 62
     0
 48
50.0
370
    -2
100
AcDbBlockReference
  2
_DOTSMALL
 10
4159.896575106963
 20
10151.9313586596
 30
0.0
 41
100.0
 42
100.0
 43
100.0
  0
MTEXT
  5
18C05
330
18BFC
100
AcDbEntity
  8
寸法
 62
     7
 48
50.0
100
AcDbMText
 10
3851.411293732725
 20
10251.9313586596
 30
0.0
 40
120.0
 41
0.0
 71
     5
 72
     1
  1
\A1;55
  7
STYLE1
 73
     1
 44
1.0
1001
ACAD
1000
MTEXTBEGIN
1070
    73
1070
     1
1070
    44
1040
1.0
1070
    74
1070
     0
1000
MTEXTEND
  0
POINT
  5
18C06
330
18BFC
100
AcDbEntity
  8
DEFPOINTS
 62
     0
 48
50.0
100
AcDbPoint
 10
4159.896575106963
 20
9636.123139034623
 30
0.0
  0
POINT
  5
18C07
330
18BFC
100
AcDbEntity
  8
DEFPOINTS
 62
     0
 48
50.0
100
AcDbPoint
 10
4214.896575106998
 20
9636.123139034623
 30
0.0
  0
POINT
  5
18C08
330
18BFC
100
AcDbEntity
  8
DEFPOINTS
 62
     0
 48
50.0
100
AcDbPoint
 10
4214.896575106998
 20
10151.9313586596
 30
0.0
  0
ENDBLK
  5
18C09
330
18BFC
100
AcDbEntity
  8
0
 48
50.0
100
AcDbBlockEnd
  0
BLOCK
  5
18C0B
330
18C0A
100
AcDbEntity
  8
0
 48
50.0
100
AcDbBlockBegin
  2
*D8
 70
     1
 10
0.0
 20
0.0
 30
0.0
  3
*D8
  1

  0
LINE
  5
18C0C
330
18C0A
100
AcDbEntity
  8
寸法
 62
     0
 48
50.0
370
    -2
100
AcDbLine
 10
4159.896575106992
 20
7826.123139034546
 30
0.0
 11
4159.896575106992
 21
6804.372203245664
 31
0.0
  0
LINE
  5
18C0D
330
18C0A
100
AcDbEntity
  8
寸法
 62
     0
 48
50.0
370
    -2
100
AcDbLine
 10
7629.896575106974
 20
7826.123139034674
 30
0.0
 11
7629.896575106974
 21
6804.372203245664
 31
0.0
  0
LINE
  5
18C0E
330
18C0A
100
AcDbEntity
  8
寸法
 62
     0
 48
50.0
370
    -2
100
AcDbLine
 10
4159.896575106992
 20
6864.372203245665
 30
0.0
 11
7629.896575106974
 21
6864.372203245665
 31
0.0
  0
INSERT
  5
18C0F
330
18C0A
100
AcDbEntity
  8
寸法
 62
     0
 48
50.0
370
    -2
100
AcDbBlockReference
  2
_DOTSMALL
 10
4159.896575106992
 20
6864.372203245665
 30
0.0
 41
100.0
 42
100.0
 43
100.0
 50
180.0
  0
INSERT
  5
18C10
330
18C0A
100
AcDbEntity
  8
寸法
 62
     0
 48
50.0
370
    -2
100
AcDbBlockReference
  2
_DOTSMALL
 10
7629.896575106974
 20
6864.372203245665
 30
0.0
 41
100.0
 42
100.0
 43
100.0
  0
MTEXT
  5
18C11
330
18C0A
100
AcDbEntity
  8
寸法
 62
     7
 48
50.0
100
AcDbMText
 10
5911.12376113973
 20
6964.372203245665
 30
0.0
 40
120.0
 41
0.0
 71
     5
 72
     1
  1
\A1;3470
  7
STYLE1
 73
     1
 44
1.0
1001
ACAD
1000
MTEXTBEGIN
1070
    73
1070
     1
1070
    44
1040
1.0
1070
    74
1070
     0
1000
MTEXTEND
  0
POINT
  5
18C12
330
18C0A
100
AcDbEntity
  8
DEFPOINTS
 62
     0
 48
50.0
100
AcDbPoint
 10
4159.896575106992
 20
7846.123139034546
 30
0.0
  0
POINT
  5
18C13
330
18C0A
100
AcDbEntity
  8
DEFPOINTS
 62
     0
 48
50.0
100
AcDbPoint
 10
7629.896575106974
 20
7846.123139034673
 30
0.0
  0
POINT
  5
18C14
330
18C0A
100
AcDbEntity
  8
DEFPOINTS
 62
     0
 48
50.0
100
AcDbPoint
 10
7629.896575106974
 20
6864.372203245665
 30
0.0
  0
ENDBLK
  5
18C15
330
18C0A
100
AcDbEntity
  8
0
 48
50.0
100
AcDbBlockEnd
  0
BLOCK
  5
18C17
330
18C16
100
AcDbEntity
  8
0
 48
50.0
100
AcDbBlockBegin
  2
*D9
 70
     1
 10
0.0
 20
0.0
 30
0.0
  3
*D9
  1

  0
LINE
  5
18C18
330
18C16
100
AcDbEntity
  8
寸法
 62
     0
 48
50.0
370
    -2
100
AcDbLine
 10
7649.896575106973
 20
7901.123139034706
 30
0.0
 11
8337.322920841385
 21
7901.123139034706
 31
0.0
  0
LINE
  5
18C19
330
18C16
100
AcDbEntity
  8
寸法
 62
     0
 48
50.0
370
    -2
100
AcDbLine
 10
7649.896575106973
 20
7846.123139034709
 30
0.0
 11
8337.322920841385
 21
7846.123139034709
 31
0.0
  0
LINE
  5
18C1A
330
18C16
100
AcDbEntity
  8
寸法
 62
     0
 48
50.0
370
    -2
100
AcDbLine
 10
8277.322920841385
 20
7901.123139034706
 30
0.0
 11
8277.322920841385
 21
8001.123139034707
 31
0.0
  0
LINE
  5
18C1B
330
18C16
100
AcDbEntity
  8
寸法
 62
     0
 48
50.0
370
    -2
100
AcDbLine
 10
8277.322920841385
 20
7846.123139034709
 30
0.0
 11
8277.322920841385
 21
7429.152576286229
 31
0.0
  0
LINE
  5
18C1C
330
18C16
100
AcDbEntity
  8
寸法
 62
     0
 48
50.0
370
    -2
100
AcDbLine
 10
8277.322920841385
 20
7901.123139034706
 30
0.0
 11
8277.322920841385
 21
7846.123139034709
 31
0.0
  0
INSERT
  5
18C1D
330
18C16
100
AcDbEntity
  8
寸法
 62
     0
 48
50.0
370
    -2
100
AcDbBlockReference
  2
_DOTSMALL
 10
8277.322920841385
 20
7901.123139034706
 30
0.0
 41
100.0
 42
100.0
 43
100.0
 50
270.0
  0
INSERT
  5
18C1E
330
18C16
100
AcDbEntity
  8
寸法
 62
     0
 48
50.0
370
    -2
100
AcDbBlockReference
  2
_DOTSMALL
 10
8277.322920841385
 20
7846.123139034709
 30
0.0
 41
100.0
 42
100.0
 43
100.0
 50
90.0
  0
MTEXT
  5
18C1F
330
18C16
100
AcDbEntity
  8
寸法
 62
     7
 48
50.0
100
AcDbMText
 10
8177.322920841383
 20
7537.637857660469
 30
0.0
 40
120.0
 41
0.0
 71
     5
 72
     1
  1
\A1;55
  7
STYLE1
 11
0.0000000000000001
 21
1.0
 31
0.0
 73
     1
 44
1.0
1001
ACAD
1000
MTEXTBEGIN
1070
    73
1070
     1
1070
    44
1040
1.0
1070
    74
1070
     0
1000
MTEXTEND
  0
POINT
  5
18C20
330
18C16
100
AcDbEntity
  8
DEFPOINTS
 62
     0
 48
50.0
100
AcDbPoint
 10
7629.896575106974
 20
7901.123139034706
 30
0.0
  0
POINT
  5
18C21
330
18C16
100
AcDbEntity
  8
DEFPOINTS
 62
     0
 48
50.0
100
AcDbPoint
 10
7629.896575106974
 20
7846.123139034709
 30
0.0
  0
POINT
  5
18C22
330
18C16
100
AcDbEntity
  8
DEFPOINTS
 62
     0
 48
50.0
100
AcDbPoint
 10
8277.322920841385
 20
7846.123139034709
 30
0.0
  0
ENDBLK
  5
18C23
330
18C16
100
AcDbEntity
  8
0
 48
50.0
100
AcDbBlockEnd
  0
BLOCK
  5
18C25
330
18C24
100
AcDbEntity
  8
0
 48
50.0
100
AcDbBlockBegin
  2
*D10
 70
     1
 10
0.0
 20
0.0
 30
0.0
  3
*D10
  1

  0
LINE
  5
18C26
330
18C24
100
AcDbEntity
  8
寸法
 62
     0
 48
50.0
370
    -2
100
AcDbLine
 10
6533.037591258376
 20
9136.123139034728
 30
0.0
 11
6465.083950562664
 21
8882.516699399049
 31
0.0
  0
LINE
  5
18C27
330
18C24
100
AcDbEntity
  8
寸法
 62
     0
 48
50.0
370
    -2
100
AcDbLine
 10
7596.037591258388
 20
9136.123139034721
 30
0.0
 11
7528.083950562677
 21
8882.516699399049
 31
0.0
  0
LINE
  5
18C28
330
18C24
100
AcDbEntity
  8
寸法
 62
     0
 48
50.0
370
    -2
100
AcDbLine
 10
6481.160902108531
 20
8942.51669939905
 30
0.0
 11
7544.160902108544
 21
8942.51669939905
 31
0.0
  0
INSERT
  5
18C29
330
18C24
100
AcDbEntity
  8
寸法
 62
     0
 48
50.0
370
    -2
100
AcDbBlockReference
  2
_DOTSMALL
 10
6481.160902108531
 20
8942.51669939905
 30
0.0
 41
100.0
 42
100.0
 43
100.0
 50
180.0
  0
INSERT
  5
18C2A
330
18C24
100
AcDbEntity
  8
寸法
 62
     0
 48
50.0
370
    -2
100
AcDbBlockReference
  2
_DOTSMALL
 10
7544.160902108544
 20
8942.51669939905
 30
0.0
 41
100.0
 42
100.0
 43
100.0
  0
MTEXT
  5
18C2B
330
18C24
100
AcDbEntity
  8
寸法
 62
     7
 48
50.0
100
AcDbMText
 10
7061.28653022935
 20
9042.516699399049
 30
0.0
 40
120.0
 41
0.0
 71
     5
 72
     1
  1
\A1;1063
  7
STYLE1
 73
     1
 44
1.0
1001
ACAD
1000
MTEXTBEGIN
1070
    73
1070
     1
1070
    44
1040
1.0
1070
    74
1070
     0
1000
MTEXTEND
  0
POINT
  5
18C2C
330
18C24
100
AcDbEntity
  8
DEFPOINTS
 62
     0
 48
50.0
100
AcDbPoint
 10
6538.396575106998
 20
9156.123139034727
 30
0.0
  0
POINT
  5
18C2D
330
18C24
100
AcDbEntity
  8
DEFPOINTS
 62
     0
 48
50.0
100
AcDbPoint
 10
7601.39657510701
 20
9156.12313903472
 30
0.0
  0
POINT
  5
18C2E
330
18C24
100
AcDbEntity
  8
DEFPOINTS
 62
     0
 48
50.0
100
AcDbPoint
 10
7544.160902108544
 20
8942.51669939905
 30
0.0
  0
ENDBLK
  5
18C2F
330
18C24
100
AcDbEntity
  8
0
 48
50.0
100
AcDbBlockEnd
  0
BLOCK
  5
18C31
330
18C30
100
AcDbEntity
  8
0
 48
50.0
100
AcDbBlockBegin
  2
*D11
 70
     1
 10
0.0
 20
0.0
 30
0.0
  3
*D11
  1

  0
LINE
  5
18C32
330
18C30
100
AcDbEntity
  8
寸法
 62
     0
 48
50.0
370
    -2
100
AcDbLine
 10
7621.396575106999
 20
9600.764155186094
 30
0.0
 11
8016.754300969024
 21
9494.828371819961
 31
0.0
  0
LINE
  5
18C33
330
18C30
100
AcDbEntity
  8
寸法
 62
     0
 48
50.0
370
    -2
100
AcDbLine
 10
7621.396575106999
 20
9150.764155186099
 30
0.0
 11
8016.754300969024
 21
9044.828371819964
 31
0.0
  0
LINE
  5
18C34
330
18C30
100
AcDbEntity
  8
寸法
 62
     0
 48
50.0
370
    -2
100
AcDbLine
 10
7956.754300969024
 20
9510.905323365827
 30
0.0
 11
7956.754300969024
 21
9060.90532336583
 31
0.0
  0
INSERT
  5
18C35
330
18C30
100
AcDbEntity
  8
寸法
 62
     0
 48
50.0
370
    -2
100
AcDbBlockReference
  2
_DOTSMALL
 10
7956.754300969024
 20
9510.905323365827
 30
0.0
 41
100.0
 42
100.0
 43
100.0
 50
90.0
  0
INSERT
  5
18C36
330
18C30
100
AcDbEntity
  8
寸法
 62
     0
 48
50.0
370
    -2
100
AcDbBlockReference
  2
_DOTSMALL
 10
7956.754300969024
 20
9060.90532336583
 30
0.0
 41
100.0
 42
100.0
 43
100.0
 50
270.0
  0
MTEXT
  5
18C37
330
18C30
100
AcDbEntity
  8
寸法
 62
     7
 48
50.0
100
AcDbMText
 10
7856.754300969022
 20
9285.905323365829
 30
0.0
 40
120.0
 41
0.0
 71
     5
 72
     1
  1
\A1;450
  7
STYLE1
 11
0.0000000000000001
 21
1.0
 31
0.0
 73
     1
 44
1.0
1001
ACAD
1000
MTEXTBEGIN
1070
    73
1070
     1
1070
    44
1040
1.0
1070
    74
1070
     0
1000
MTEXTEND
  0
POINT
  5
18C38
330
18C30
100
AcDbEntity
  8
DEFPOINTS
 62
     0
 48
50.0
100
AcDbPoint
 10
7601.396575106999
 20
9606.123139034718
 30
0.0
  0
POINT
  5
18C39
330
18C30
100
AcDbEntity
  8
DEFPOINTS
 62
     0
 48
50.0
100
AcDbPoint
 10
7601.396575106999
 20
9156.12313903472
 30
0.0
  0
POINT
  5
18C3A
330
18C30
100
AcDbEntity
  8
DEFPOINTS
 62
     0
 48
50.0
100
AcDbPoint
 10
7956.754300969024
 20
9060.90532336583
 30
0.0
  0
ENDBLK
  5
18C3B
330
18C30
100
AcDbEntity
  8
0
 48
50.0
100
AcDbBlockEnd
  0
BLOCK
  5
18C3D
330
18C3C
100
AcDbEntity
  8
0
 48
50.0
100
AcDbBlockBegin
  2
*D12
 70
     1
 10
0.0
 20
0.0
 30
0.0
  3
*D12
  1

  0
LINE
  5
18C3E
330
18C3C
100
AcDbEntity
  8
寸法
 62
     0
 48
50.0
370
    -2
100
AcDbLine
 10
7649.896575106999
 20
9581.123139034721
 30
0.0
 11
8337.32292084141
 21
9581.123139034721
 31
0.0
  0
LINE
  5
18C3F
330
18C3C
100
AcDbEntity
  8
寸法
 62
     0
 48
50.0
370
    -2
100
AcDbLine
 10
7649.896575106973
 20
7901.123139034706
 30
0.0
 11
8337.32292084141
 21
7901.123139034706
 31
0.0
  0
LINE
  5
18C40
330
18C3C
100
AcDbEntity
  8
寸法
 62
     0
 48
50.0
370
    -2
100
AcDbLine
 10
8277.322920841411
 20
9581.123139034721
 30
0.0
 11
8277.322920841411
 21
7901.123139034706
 31
0.0
  0
INSERT
  5
18C41
330
18C3C
100
AcDbEntity
  8
寸法
 62
     0
 48
50.0
370
    -2
100
AcDbBlockReference
  2
_DOTSMALL
 10
8277.322920841411
 20
9581.123139034721
 30
0.0
 41
100.0
 42
100.0
 43
100.0
 50
90.0
  0
INSERT
  5
18C42
330
18C3C
100
AcDbEntity
  8
寸法
 62
     0
 48
50.0
370
    -2
100
AcDbBlockReference
  2
_DOTSMALL
 10
8277.322920841411
 20
7901.123139034706
 30
0.0
 41
100.0
 42
100.0
 43
100.0
 50
270.0
  0
MTEXT
  5
18C43
330
18C3C
100
AcDbEntity
  8
寸法
 62
     7
 48
50.0
100
AcDbMText
 10
8177.311109817788
 20
8741.123139034712
 30
0.0
 40
120.0
 41
0.0
 71
     5
 72
     1
  1
\A1;4X420=1680
  7
STYLE1
 11
0.0000000000000001
 21
1.0
 31
0.0
 73
     1
 44
1.0
1001
ACAD
1000
MTEXTBEGIN
1070
    73
1070
     1
1070
    44
1040
1.0
1070
    74
1070
     0
1000
MTEXTEND
  0
POINT
  5
18C44
330
18C3C
100
AcDbEntity
  8
DEFPOINTS
 62
     0
 48
50.0
100
AcDbPoint
 10
7629.896575106998
 20
9581.123139034721
 30
0.0
  0
POINT
  5
18C45
330
18C3C
100
AcDbEntity
  8
DEFPOINTS
 62
     0
 48
50.0
100
AcDbPoint
 10
7629.896575106974
 20
7901.123139034706
 30
0.0
  0
POINT
  5
18C46
330
18C3C
100
AcDbEntity
  8
DEFPOINTS
 62
     0
 48
50.0
100
AcDbPoint
 10
8277.322920841411
 20
7901.123139034706
 30
0.0
  0
ENDBLK
  5
18C47
330
18C3C
100
AcDbEntity
  8
0
 48
50.0
100
AcDbBlockEnd
  0
BLOCK
  5
18C49
330
18C48
100
AcDbEntity
  8
0
 48
50.0
100
AcDbBlockBegin
  2
*D13
 70
     1
 10
0.0
 20
0.0
 30
0.0
  3
*D13
  1

  0
LINE
  5
18C4A
330
18C48
100
AcDbEntity
  8
寸法
 62
     0
 48
50.0
370
    -2
100
AcDbLine
 10
4183.037591258377
 20
9136.123139034619
 30
0.0
 11
4115.083950562663
 21
8882.516699398941
 31
0.0
  0
LINE
  5
18C4B
330
18C48
100
AcDbEntity
  8
寸法
 62
     0
 48
50.0
370
    -2
100
AcDbLine
 10
5246.037591258307
 20
9136.123139034671
 30
0.0
 11
5178.08395056258
 21
8882.516699398941
 31
0.0
  0
LINE
  5
18C4C
330
18C48
100
AcDbEntity
  8
寸法
 62
     0
 48
50.0
370
    -2
100
AcDbLine
 10
4131.160902108532
 20
8942.516699398941
 30
0.0
 11
5194.160902108448
 21
8942.516699398941
 31
0.0
  0
INSERT
  5
18C4D
330
18C48
100
AcDbEntity
  8
寸法
 62
     0
 48
50.0
370
    -2
100
AcDbBlockReference
  2
_DOTSMALL
 10
4131.160902108532
 20
8942.516699398941
 30
0.0
 41
100.0
 42
100.0
 43
100.0
 50
180.0
  0
INSERT
  5
18C4E
330
18C48
100
AcDbEntity
  8
寸法
 62
     0
 48
50.0
370
    -2
100
AcDbBlockReference
  2
_DOTSMALL
 10
5194.160902108448
 20
8942.516699398941
 30
0.0
 41
100.0
 42
100.0
 43
100.0
  0
MTEXT
  5
18C4F
330
18C48
100
AcDbEntity
  8
寸法
 62
     7
 48
50.0
100
AcDbMText
 10
4658.986452655306
 20
9042.516699398941
 30
0.0
 40
120.0
 41
0.0
 71
     5
 72
     1
  1
\A1;1063
  7
STYLE1
 73
     1
 44
1.0
1001
ACAD
1000
MTEXTBEGIN
1070
    73
1070
     1
1070
    44
1040
1.0
1070
    74
1070
     0
1000
MTEXTEND
  0
POINT
  5
18C50
330
18C48
100
AcDbEntity
  8
DEFPOINTS
 62
     0
 48
50.0
100
AcDbPoint
 10
4188.396575106999
 20
9156.123139034617
 30
0.0
  0
POINT
  5
18C51
330
18C48
100
AcDbEntity
  8
DEFPOINTS
 62
     0
 48
50.0
100
AcDbPoint
 10
5251.396575106929
 20
9156.123139034672
 30
0.0
  0
POINT
  5
18C52
330
18C48
100
AcDbEntity
  8
DEFPOINTS
 62
     0
 48
50.0
100
AcDbPoint
 10
5194.160902108448
 20
8942.516699398941
 30
0.0
  0
ENDBLK
  5
18C53
330
18C48
100
AcDbEntity
  8
0
 48
50.0
100
AcDbBlockEnd
  0
BLOCK
  5
18C55
330
18C54
100
AcDbEntity
  8
0
 48
50.0
100
AcDbBlockBegin
  2
*D14
 70
     1
 10
0.0
 20
0.0
 30
0.0
  3
*D14
  1

  0
LINE
  5
18C56
330
18C54
100
AcDbEntity
  8
寸法
 62
     0
 48
50.0
370
    -2
100
AcDbLine
 10
5274.037591258307
 20
9136.123139034669
 30
0.0
 11
5206.08395056258
 21
8882.516699398941
 31
0.0
  0
LINE
  5
18C57
330
18C54
100
AcDbEntity
  8
寸法
 62
     0
 48
50.0
370
    -2
100
AcDbLine
 10
6505.037591258377
 20
9136.123139034662
 30
0.0
 11
6437.083950562653
 21
8882.516699398941
 31
0.0
  0
LINE
  5
18C58
330
18C54
100
AcDbEntity
  8
寸法
 62
     0
 48
50.0
370
    -2
100
AcDbLine
 10
5222.160902108448
 20
8942.516699398941
 30
0.0
 11
6453.16090210852
 21
8942.516699398941
 31
0.0
  0
INSERT
  5
18C59
330
18C54
100
AcDbEntity
  8
寸法
 62
     0
 48
50.0
370
    -2
100
AcDbBlockReference
  2
_DOTSMALL
 10
5222.160902108448
 20
8942.516699398941
 30
0.0
 41
100.0
 42
100.0
 43
100.0
 50
180.0
  0
INSERT
  5
18C5A
330
18C54
100
AcDbEntity
  8
寸法
 62
     0
 48
50.0
370
    -2
100
AcDbBlockReference
  2
_DOTSMALL
 10
6453.16090210852
 20
8942.516699398941
 30
0.0
 41
100.0
 42
100.0
 43
100.0
  0
MTEXT
  5
18C5B
330
18C54
100
AcDbEntity
  8
寸法
 62
     7
 48
50.0
100
AcDbMText
 10
6081.244808320626
 20
9042.528510422561
 30
0.0
 40
120.0
 41
0.0
 71
     5
 72
     1
  1
\A1;1231
  7
STYLE1
 73
     1
 44
1.0
1001
ACAD
1000
MTEXTBEGIN
1070
    73
1070
     1
1070
    44
1040
1.0
1070
    74
1070
     0
1000
MTEXTEND
  0
POINT
  5
18C5C
330
18C54
100
AcDbEntity
  8
DEFPOINTS
 62
     0
 48
50.0
100
AcDbPoint
 10
5279.396575106929
 20
9156.123139034669
 30
0.0
  0
POINT
  5
18C5D
330
18C54
100
AcDbEntity
  8
DEFPOINTS
 62
     0
 48
50.0
100
AcDbPoint
 10
6510.396575106999
 20
9156.123139034662
 30
0.0
  0
POINT
  5
18C5E
330
18C54
100
AcDbEntity
  8
DEFPOINTS
 62
     0
 48
50.0
100
AcDbPoint
 10
6453.16090210852
 20
8942.516699398941
 30
0.0
  0
ENDBLK
  5
18C5F
330
18C54
100
AcDbEntity
  8
0
 48
50.0
100
AcDbBlockEnd
  0
BLOCK
  5
18C61
330
18C60
100
AcDbEntity
  8
0
 48
50.0
100
AcDbBlockBegin
  2
*D15
 70
     1
 10
0.0
 20
0.0
 30
0.0
  3
*D15
  1

  0
LINE
  5
18C62
330
18C60
100
AcDbEntity
  8
寸法
 62
     0
 48
50.0
370
    -2
100
AcDbLine
 10
5065.896575106966
 20
7749.123139034579
 30
0.0
 11
5065.896575106966
 21
7099.952920982538
 31
0.0
  0
LINE
  5
18C63
330
18C60
100
AcDbEntity
  8
寸法
 62
     0
 48
50.0
370
    -2
100
AcDbLine
 10
6331.896575106966
 20
7749.123139034579
 30
0.0
 11
6331.896575106966
 21
7099.952920982538
 31
0.0
  0
LINE
  5
18C64
330
18C60
100
AcDbEntity
  8
寸法
 62
     0
 48
50.0
370
    -2
100
AcDbLine
 10
5065.896575106966
 20
7159.952920982537
 30
0.0
 11
6331.896575106966
 21
7159.952920982537
 31
0.0
  0
INSERT
  5
18C65
330
18C60
100
AcDbEntity
  8
寸法
 62
     0
 48
50.0
370
    -2
100
AcDbBlockReference
  2
_DOTSMALL
 10
5065.896575106966
 20
7159.952920982537
 30
0.0
 41
100.0
 42
100.0
 43
100.0
 50
180.0
  0
INSERT
  5
18C66
330
18C60
100
AcDbEntity
  8
寸法
 62
     0
 48
50.0
370
    -2
100
AcDbBlockReference
  2
_DOTSMALL
 10
6331.896575106966
 20
7159.952920982537
 30
0.0
 41
100.0
 42
100.0
 43
100.0
  0
MTEXT
  5
18C67
330
18C60
100
AcDbEntity
  8
寸法
 62
     7
 48
50.0
100
AcDbMText
 10
5711.986008735934
 20
7359.964732006159
 30
0.0
 40
120.0
 41
0.0
 71
     5
 72
     1
  1
\A1;有効開口部間口\P1266
  7
STYLE1
 73
     1
 44
1.0
1001
ACAD
1000
MTEXTBEGIN
1070
    73
1070
     1
1070
    44
1040
1.0
1070
    74
1070
     0
1000
MTEXTEND
  0
POINT
  5
18C68
330
18C60
100
AcDbEntity
  8
DEFPOINTS
 62
     0
 48
50.0
100
AcDbPoint
 10
5065.896575106966
 20
7769.123139034579
 30
0.0
  0
POINT
  5
18C69
330
18C60
100
AcDbEntity
  8
DEFPOINTS
 62
     0
 48
50.0
100
AcDbPoint
 10
6331.896575106966
 20
7769.123139034579
 30
0.0
  0
POINT
  5
18C6A
330
18C60
100
AcDbEntity
  8
DEFPOINTS
 62
     0
 48
50.0
100
AcDbPoint
 10
6331.896575106966
 20
7159.952920982537
 30
0.0
  0
ENDBLK
  5
18C6B
330
18C60
100
AcDbEntity
  8
0
 48
50.0
100
AcDbBlockEnd
  0
BLOCK
  5
18C6D
330
18C6C
100
AcDbEntity
  8
0
 48
50.0
100
AcDbBlockBegin
  2
*D16
 70
     1
 10
0.0
 20
0.0
 30
0.0
  3
*D16
  1

  0
LINE
  5
18C6E
330
18C6C
100
AcDbEntity
  8
寸法
 62
     0
 48
50.0
370
    -2
100
AcDbLine
 10
7200.896575106966
 20
7846.123139034578
 30
0.0
 11
7457.192158500191
 21
7846.123139034578
 31
0.0
  0
LINE
  5
18C6F
330
18C6C
100
AcDbEntity
  8
寸法
 62
     0
 48
50.0
370
    -2
100
AcDbLine
 10
7199.896575106966
 20
7769.123139034579
 30
0.0
 11
7457.192158500191
 21
7769.123139034579
 31
0.0
  0
LINE
  5
18C70
330
18C6C
100
AcDbEntity
  8
寸法
 62
     0
 48
50.0
370
    -2
100
AcDbLine
 10
7417.192158500192
 20
7866.123139034579
 30
0.0
 11
7417.192158500192
 21
7886.123139034578
 31
0.0
  0
LINE
  5
18C71
330
18C6C
100
AcDbEntity
  8
寸法
 62
     0
 48
50.0
370
    -2
100
AcDbLine
 10
7417.192158500192
 20
7749.123139034579
 30
0.0
 11
7417.192158500192
 21
7533.123139034573
 31
0.0
  0
LINE
  5
18C72
330
18C6C
100
AcDbEntity
  8
寸法
 62
     0
 48
50.0
370
    -2
100
AcDbLine
 10
7417.192158500192
 20
7846.123139034578
 30
0.0
 11
7417.192158500192
 21
7769.123139034579
 31
0.0
  0
INSERT
  5
18C73
330
18C6C
100
AcDbEntity
  8
寸法
 62
     0
 48
50.0
370
    -2
100
AcDbBlockReference
  2
_DOT
 10
7417.192158500192
 20
7846.123139034578
 30
0.0
 41
20.0
 42
20.0
 43
20.0
 50
270.0
  0
INSERT
  5
18C74
330
18C6C
100
AcDbEntity
  8
寸法
 62
     0
 48
50.0
370
    -2
100
AcDbBlockReference
  2
_DOT
 10
7417.192158500192
 20
7769.123139034579
 30
0.0
 41
20.0
 42
20.0
 43
20.0
 50
90.0
  0
MTEXT
  5
18C75
330
18C6C
100
AcDbEntity
  8
寸法
 62
     7
 48
50.0
100
AcDbMText
 10
7325.192158500191
 20
7631.123139034575
 30
0.0
 40
120.0
 41
0.0
 71
     5
 72
     1
  1
\A1;77
  7
STYLE1
 11
0.0000000000000001
 21
1.0
 31
0.0
 73
     1
 44
1.0
1001
ACAD
1000
MTEXTBEGIN
1070
    73
1070
     1
1070
    44
1040
1.0
1070
    74
1070
     0
1000
MTEXTEND
  0
POINT
  5
18C76
330
18C6C
100
AcDbEntity
  8
DEFPOINTS
 62
     0
 48
50.0
100
AcDbPoint
 10
7180.896575106967
 20
7846.123139034578
 30
0.0
  0
POINT
  5
18C77
330
18C6C
100
AcDbEntity
  8
DEFPOINTS
 62
     0
 48
50.0
100
AcDbPoint
 10
7179.896575106965
 20
7769.123139034579
 30
0.0
  0
POINT
  5
18C78
330
18C6C
100
AcDbEntity
  8
DEFPOINTS
 62
     0
 48
50.0
100
AcDbPoint
 10
7417.192158500192
 20
7769.123139034579
 30
0.0
  0
ENDBLK
  5
18C79
330
18C6C
100
AcDbEntity
  8
0
 48
50.0
100
AcDbBlockEnd
  0
BLOCK
  5
18DA0
330
18C7A
100
AcDbEntity
  8
0
 48
50.0
100
AcDbBlockBegin
  2
A$C3B1A506B
 70
     0
 10
0.0
 20
0.0
 30
0.0
  3
A$C3B1A506B
  1

  0
MTEXT
  5
18C7B
330
18C7A
100
AcDbEntity
  8
寸法
 62
     7
 48
50.0
100
AcDbMText
 10
3342.250386887194
 20
2778.329429134012
 30
0.0
 40
96.0
 41
0.0
 71
     5
 72
     1
  1
棚 2段
  7
STYLE1
 73
     1
 44
1.0
1001
ACAD
1000
MTEXTBEGIN
1070
    73
1070
     1
1070
    44
1040
1.0
1070
    74
1070
     0
1000
MTEXTEND
  0
MTEXT
  5
18C7C
330
18C7A
100
AcDbEntity
  8
寸法
 62
     7
 48
50.0
100
AcDbMText
 10
2167.25038688716
 20
2778.329429133986
 30
0.0
 40
96.0
 41
0.0
 71
     5
 72
     1
  1
棚 2段
  7
STYLE1
 73
     1
 44
1.0
1001
ACAD
1000
MTEXTBEGIN
1070
    73
1070
     1
1070
    44
1040
1.0
1070
    74
1070
     0
1000
MTEXTEND
  0
MTEXT
  5
18C7D
330
18C7A
100
AcDbEntity
  8
寸法
 62
     7
 48
50.0
100
AcDbMText
 10
992.2503868871608
 20
2778.329429133935
 30
0.0
 40
96.0
 41
0.0
 71
     5
 72
     1
  1
棚 2段
  7
STYLE1
 73
     1
 44
1.0
1001
ACAD
1000
MTEXTBEGIN
1070
    73
1070
     1
1070
    44
1040
1.0
1070
    74
1070
     0
1000
MTEXTEND
  0
LINE
  5
18C7E
330
18C7A
100
AcDbEntity
  8
細線
 48
50.0
100
AcDbLine
 10
2771.970589276527
 20
1368.994384123192
 30
0.0
 11
3398.970589276523
 21
1368.994384123192
 31
0.0
  0
LINE
  5
18C7F
330
18C7A
100
AcDbEntity
  8
細線
 48
50.0
100
AcDbLine
 10
2117.970593930113
 20
1335.285615569113
 30
0.0
 11
3398.970589276523
 21
1335.285615569113
 31
0.0
  0
LINE
  5
18C80
330
18C7A
100
AcDbEntity
  8
細線
 48
50.0
100
AcDbLine
 10
2076.970593930115
 20
1364.690523565368
 30
0.0
 11
1322.970589276523
 21
1364.690523565367
 31
0.0
  0
LINE
  5
18C81
330
18C7A
100
AcDbEntity
  8
細線
100
AcDbLine
 10
3170.720579860066
 20
1388.494284088199
 30
0.0
 11
3173.052119381877
 21
1393.494286728162
 31
0.0
  0
LINE
  5
18C82
330
18C7A
100
AcDbEntity
  8
細線
100
AcDbLine
 10
3240.720589276525
 20
1388.494269174465
 30
0.0
 11
3238.389042800336
 21
1393.494286728144
 31
0.0
  0
LINE
  5
18C83
330
18C7A
100
AcDbEntity
  8
細線
100
AcDbLine
 10
3238.389042800336
 20
1393.494286728144
 30
0.0
 11
3173.052119381862
 21
1393.494286728133
 31
0.0
  0
LINE
  5
18C84
330
18C7A
100
AcDbEntity
  8
細線
100
AcDbLine
 10
3098.389042800336
 20
1393.494286728144
 30
0.0
 11
3033.052119381862
 21
1393.494286728133
 31
0.0
  0
LINE
  5
18C85
330
18C7A
100
AcDbEntity
  8
細線
100
AcDbLine
 10
3100.720589276523
 20
1388.494269174465
 30
0.0
 11
3098.389042800336
 21
1393.494286728144
 31
0.0
  0
LINE
  5
18C86
330
18C7A
100
AcDbEntity
  8
細線
100
AcDbLine
 10
3030.720579860066
 20
1388.494284088199
 30
0.0
 11
3033.052119381875
 21
1393.494286728162
 31
0.0
  0
LINE
  5
18C87
330
18C7A
100
AcDbEntity
  8
細線
100
AcDbLine
 10
2890.720589276525
 20
1388.494269174465
 30
0.0
 11
2893.052128798336
 21
1393.494271814428
 31
0.0
  0
LINE
  5
18C88
330
18C7A
100
AcDbEntity
  8
細線
100
AcDbLine
 10
2960.720598692984
 20
1388.494254260731
 30
0.0
 11
2958.389052216793
 21
1393.49427181441
 31
0.0
  0
LINE
  5
18C89
330
18C7A
100
AcDbEntity
  8
細線
100
AcDbLine
 10
2958.389052216795
 20
1393.49427181441
 30
0.0
 11
2893.052128798321
 21
1393.494271814399
 31
0.0
  0
LINE
  5
18C8A
330
18C7A
100
AcDbEntity
  8
細線
100
AcDbLine
 10
2667.139038146739
 20
1359.494298590735
 30
0.0
 11
2601.802114728263
 21
1359.494298590724
 31
0.0
  0
LINE
  5
18C8B
330
18C7A
100
AcDbEntity
  8
細線
100
AcDbLine
 10
2669.470584622926
 20
1354.494281037055
 30
0.0
 11
2667.139038146737
 21
1359.494298590735
 31
0.0
  0
LINE
  5
18C8C
330
18C7A
100
AcDbEntity
  8
細線
100
AcDbLine
 10
2599.470575206469
 20
1354.49429595079
 30
0.0
 11
2601.802114728278
 21
1359.494298590752
 31
0.0
  0
LINE
  5
18C8D
330
18C7A
100
AcDbEntity
  8
細線
 48
50.0
100
AcDbLine
 10
2440.853968524536
 20
1372.765132327548
 30
0.0
 11
2446.609486107205
 21
1354.494281037057
 31
0.0
  0
LINE
  5
18C8E
330
18C7A
100
AcDbEntity
  8
細線
 48
50.0
100
AcDbLine
 10
2429.925520044106
 20
1372.765132327546
 30
0.0
 11
2440.853968524536
 21
1372.765132327548
 31
0.0
  0
ARC
  5
18C8F
330
18C7A
100
AcDbEntity
  8
細線
 48
50.0
100
AcDbCircle
 10
2424.471163986787
 20
1374.265132327546
 30
0.0
 40
5.0
100
AcDbArc
 50
204.6243183520723
 51
335.3756816479278
  0
ARC
  5
18C90
330
18C7A
100
AcDbEntity
  8
細線
 48
50.0
100
AcDbCircle
 10
2429.925520044106
 20
1371.765132327546
 30
0.0
 40
1.0
100
AcDbArc
 50
90.0
 51
155.3756816479277
  0
ARC
  5
18C91
330
18C7A
100
AcDbEntity
  8
細線
 48
50.0
100
AcDbCircle
 10
2419.016807929469
 20
1371.765132327546
 30
0.0
 40
1.0
100
AcDbArc
 50
24.62431835207225
 51
90.0
  0
LINE
  5
18C92
330
18C7A
100
AcDbEntity
  8
細線
 48
50.0
100
AcDbLine
 10
2408.088359449037
 20
1372.765132327548
 30
0.0
 11
2419.016807929469
 21
1372.765132327546
 31
0.0
  0
LINE
  5
18C93
330
18C7A
100
AcDbEntity
  8
細線
 48
50.0
100
AcDbLine
 10
2402.33284186637
 20
1354.494281037054
 30
0.0
 11
2408.088359449037
 21
1372.765132327548
 31
0.0
  0
LINE
  5
18C94
330
18C7A
100
AcDbEntity
  8
細線
100
AcDbLine
 10
2458.070304175992
 20
1354.494278397076
 30
0.0
 11
2460.401843697802
 21
1359.494281037039
 31
0.0
  0
LINE
  5
18C95
330
18C7A
100
AcDbEntity
  8
細線
100
AcDbLine
 10
2528.070313592451
 20
1354.494263483342
 30
0.0
 11
2525.738767116262
 21
1359.494281037021
 31
0.0
  0
LINE
  5
18C96
330
18C7A
100
AcDbEntity
  8
細線
100
AcDbLine
 10
2525.738767116262
 20
1359.494281037021
 30
0.0
 11
2460.40184369779
 21
1359.49428103701
 31
0.0
  0
LINE
  5
18C97
330
18C7A
100
AcDbEntity
  8
細線
100
AcDbLine
 10
2387.139046332155
 20
1359.494281037021
 30
0.0
 11
2321.80212291368
 21
1359.49428103701
 31
0.0
  0
LINE
  5
18C98
330
18C7A
100
AcDbEntity
  8
細線
100
AcDbLine
 10
2389.470592808342
 20
1354.494263483342
 30
0.0
 11
2387.139046332153
 21
1359.494281037021
 31
0.0
  0
LINE
  5
18C99
330
18C7A
100
AcDbEntity
  8
細線
100
AcDbLine
 10
2319.470584622926
 20
1354.494281037054
 30
0.0
 11
2321.802122913694
 21
1359.494281037039
 31
0.0
  0
LINE
  5
18C9A
330
18C7A
100
AcDbEntity
  8
細線
100
AcDbLine
 10
2179.47061994182
 20
1354.494289224422
 30
0.0
 11
2181.802158232587
 21
1359.494289224407
 31
0.0
  0
LINE
  5
18C9B
330
18C7A
100
AcDbEntity
  8
細線
100
AcDbLine
 10
2249.470628127236
 20
1354.49427167071
 30
0.0
 11
2247.139081651047
 21
1359.494289224389
 31
0.0
  0
LINE
  5
18C9C
330
18C7A
100
AcDbEntity
  8
細線
100
AcDbLine
 10
2247.139081651047
 20
1359.494289224389
 30
0.0
 11
2181.802158232573
 21
1359.494289224378
 31
0.0
  0
LINE
  5
18C9D
330
18C7A
100
AcDbEntity
  8
細線
100
AcDbLine
 10
1807.970585744697
 20
1320.494460905133
 30
0.0
 11
1810.302124035464
 21
1325.494460905118
 31
0.0
  0
LINE
  5
18C9E
330
18C7A
100
AcDbEntity
  8
細線
100
AcDbLine
 10
1877.970593930113
 20
1320.494443351421
 30
0.0
 11
1875.639047453926
 21
1325.4944609051
 31
0.0
  0
LINE
  5
18C9F
330
18C7A
100
AcDbEntity
  8
細線
100
AcDbLine
 10
1875.639047453926
 20
1325.4944609051
 30
0.0
 11
1810.302124035452
 21
1325.494460905089
 31
0.0
  0
LINE
  5
18CA0
330
18C7A
100
AcDbEntity
  8
細線
100
AcDbLine
 10
2015.639047453926
 20
1325.4944609051
 30
0.0
 11
1950.302124035452
 21
1325.494460905089
 31
0.0
  0
LINE
  5
18CA1
330
18C7A
100
AcDbEntity
  8
細線
100
AcDbLine
 10
2017.970593930113
 20
1320.494443351421
 30
0.0
 11
2015.639047453924
 21
1325.4944609051
 31
0.0
  0
LINE
  5
18CA2
330
18C7A
100
AcDbEntity
  8
細線
100
AcDbLine
 10
1947.970585744697
 20
1320.494460905133
 30
0.0
 11
1950.302124035465
 21
1325.494460905118
 31
0.0
  0
LINE
  5
18CA3
330
18C7A
100
AcDbEntity
  8
細線
100
AcDbLine
 10
1735.639047453926
 20
1325.494460905098
 30
0.0
 11
1670.302124035454
 21
1325.494460905087
 31
0.0
  0
LINE
  5
18CA4
330
18C7A
100
AcDbEntity
  8
細線
100
AcDbLine
 10
1737.970593930113
 20
1320.494443351419
 30
0.0
 11
1735.639047453926
 21
1325.494460905098
 31
0.0
  0
LINE
  5
18CA5
330
18C7A
100
AcDbEntity
  8
細線
100
AcDbLine
 10
1667.970585744697
 20
1320.494460905131
 30
0.0
 11
1670.302124035465
 21
1325.494460905116
 31
0.0
  0
LINE
  5
18CA6
330
18C7A
100
AcDbEntity
  8
細線
100
AcDbLine
 10
1527.970593930113
 20
1320.494460905133
 30
0.0
 11
1530.302132220881
 21
1325.494460905118
 31
0.0
  0
LINE
  5
18CA7
330
18C7A
100
AcDbEntity
  8
細線
100
AcDbLine
 10
1597.970602115529
 20
1320.494443351421
 30
0.0
 11
1595.639055639342
 21
1325.4944609051
 31
0.0
  0
LINE
  5
18CA8
330
18C7A
100
AcDbEntity
  8
細線
100
AcDbLine
 10
1595.639055639342
 20
1325.4944609051
 30
0.0
 11
1530.302132220869
 21
1325.494460905089
 31
0.0
  0
ARC
  5
18CA9
330
18C7A
100
AcDbEntity
  8
部品1
 48
0.01
100
AcDbCircle
 10
1483.470482677778
 20
1319.493338720063
 30
0.0
 40
0.5
100
AcDbArc
 50
270.0
 51
0.0
  0
LINE
  5
18CAA
330
18C7A
100
AcDbEntity
  8
部品1
 48
0.01
100
AcDbLine
 10
1483.970482677778
 20
1320.493338720063
 30
0.0
 11
1483.970482677778
 21
1319.493338720063
 31
0.0
  0
LINE
  5
18CAB
330
18C7A
100
AcDbEntity
  8
部品1
 48
0.01
100
AcDbLine
 10
1483.970482677778
 20
1320.493338720063
 30
0.0
 11
1483.970482677778
 21
1319.493338720063
 31
0.0
  0
LINE
  5
18CAC
330
18C7A
100
AcDbEntity
  8
部品1
 48
0.01
100
AcDbLine
 10
1483.470482677778
 20
1318.993338720063
 30
0.0
 11
1476.857977247713
 21
1318.993338720062
 31
0.0
  0
ARC
  5
18CAD
330
18C7A
100
AcDbEntity
  8
部品1
100
AcDbCircle
 10
1476.926326800494
 20
1319.993338720062
 30
0.0
 40
1.0
100
AcDbArc
 50
160.5287793655865
 51
270.0
  0
ARC
  5
18CAE
330
18C7A
100
AcDbEntity
  8
部品1
100
AcDbCircle
 10
1451.470482677778
 20
1328.993338720062
 30
0.0
 40
26.0
100
AcDbArc
 50
340.5287793655865
 51
0.0
  0
LINE
  5
18CAF
330
18C7A
100
AcDbEntity
  8
部品1
100
AcDbLine
 10
1477.470482677778
 20
1328.993338720062
 30
0.0
 11
1477.470482677778
 21
1333.993338720061
 31
0.0
  0
ARC
  5
18CB0
330
18C7A
100
AcDbEntity
  8
部品1
 48
0.01
100
AcDbCircle
 10
1475.470482677778
 20
1333.993338720061
 30
0.0
 40
2.0
100
AcDbArc
 50
0.0
 51
90.0
  0
ARC
  5
18CB1
330
18C7A
100
AcDbEntity
  8
部品1
100
AcDbCircle
 10
1473.862091052968
 20
1332.993338720062
 30
0.0
 40
3.0
100
AcDbArc
 50
90.0
 51
141.6069559808035
  0
LINE
  5
18CB2
330
18C7A
100
AcDbEntity
  8
部品1
 48
0.01
100
AcDbLine
 10
1475.470482677778
 20
1335.993338720062
 30
0.0
 11
1473.862091052968
 21
1335.993338720062
 31
0.0
  0
ARC
  5
18CB3
330
18C7A
100
AcDbEntity
  8
部品1
100
AcDbCircle
 10
1455.399768463507
 20
1332.293338720065
 30
0.0
 40
3.0
100
AcDbArc
 50
254.0576313943215
 51
270.0
  0
ARC
  5
18CB4
330
18C7A
100
AcDbEntity
  8
部品1
100
AcDbCircle
 10
1462.541196892049
 20
1332.293338720065
 30
0.0
 40
3.0
100
AcDbArc
 50
270.0
 51
285.9423686056786
  0
LINE
  5
18CB5
330
18C7A
100
AcDbEntity
  8
部品1
100
AcDbLine
 10
1462.541196892049
 20
1329.293338720064
 30
0.0
 11
1455.399768463507
 21
1329.293338720064
 31
0.0
  0
ARC
  5
18CB6
330
18C7A
100
AcDbEntity
  8
部品1
100
AcDbCircle
 10
1458.970482677778
 20
1344.793338720065
 30
0.0
 40
16.0
100
AcDbArc
 50
285.9423686056786
 51
321.6069559808035
  0
LINE
  5
18CB7
330
18C7A
100
AcDbEntity
  8
部品1
 48
0.01
100
AcDbLine
 10
1442.470482677778
 20
1335.993338720062
 30
0.0
 11
1444.078874302588
 21
1335.993338720062
 31
0.0
  0
ARC
  5
18CB8
330
18C7A
100
AcDbEntity
  8
部品1
100
AcDbCircle
 10
1444.078874302588
 20
1332.993338720062
 30
0.0
 40
3.0
100
AcDbArc
 50
38.39304401919648
 51
90.0
  0
ARC
  5
18CB9
330
18C7A
100
AcDbEntity
  8
部品1
100
AcDbCircle
 10
1458.970482677778
 20
1344.793338720065
 30
0.0
 40
16.0
100
AcDbArc
 50
218.3930440191965
 51
254.0576313943215
  0
LINE
  5
18CBA
330
18C7A
100
AcDbEntity
  8
部品1
100
AcDbLine
 10
1440.470482677778
 20
1328.993338720062
 30
0.0
 11
1440.470482677778
 21
1333.993338720061
 31
0.0
  0
ARC
  5
18CBB
330
18C7A
100
AcDbEntity
  8
部品1
 48
0.01
100
AcDbCircle
 10
1442.470482677778
 20
1333.993338720061
 30
0.0
 40
2.0
100
AcDbArc
 50
90.0
 51
180.0
  0
ARC
  5
18CBC
330
18C7A
100
AcDbEntity
  8
部品1
100
AcDbCircle
 10
1466.470482677778
 20
1328.993338720062
 30
0.0
 40
26.0
100
AcDbArc
 50
180.0
 51
199.4712206344134
  0
ARC
  5
18CBD
330
18C7A
100
AcDbEntity
  8
部品1
 48
0.01
100
AcDbCircle
 10
1434.470482677778
 20
1319.493338720063
 30
0.0
 40
0.5
100
AcDbArc
 50
180.0
 51
270.0
  0
LINE
  5
18CBE
330
18C7A
100
AcDbEntity
  8
部品1
 48
0.01
100
AcDbLine
 10
1434.470482677778
 20
1318.993338720063
 30
0.0
 11
1441.014638555061
 21
1318.993338720062
 31
0.0
  0
LINE
  5
18CBF
330
18C7A
100
AcDbEntity
  8
部品1
 48
0.01
100
AcDbLine
 10
1433.970482677778
 20
1320.493338720063
 30
0.0
 11
1433.970482677778
 21
1319.493338720063
 31
0.0
  0
ARC
  5
18CC0
330
18C7A
100
AcDbEntity
  8
部品1
100
AcDbCircle
 10
1441.014638555061
 20
1319.993338720062
 30
0.0
 40
1.0
100
AcDbArc
 50
270.0
 51
19.47122063441346
  0
LINE
  5
18CC1
330
18C7A
100
AcDbEntity
  8
細線
100
AcDbLine
 10
1479.470482677785
 20
1338.493338720065
 30
0.0
 11
1438.470482677785
 21
1338.493338720058
 31
0.0
  0
LINE
  5
18CC2
330
18C7A
100
AcDbEntity
  8
細線
100
AcDbLine
 10
1438.470482677785
 20
1338.493338720058
 30
0.0
 11
1438.470482677785
 21
1320.49333872004
 31
0.0
  0
LINE
  5
18CC3
330
18C7A
100
AcDbEntity
  8
細線
100
AcDbLine
 10
1479.470482677785
 20
1338.493338720065
 30
0.0
 11
1479.470482677785
 21
1320.49333872004
 31
0.0
  0
LINE
  5
18CC4
330
18C7A
100
AcDbEntity
  8
細線
100
AcDbLine
 10
1322.970589276523
 20
1324.494269174465
 30
0.0
 11
1322.970589276523
 21
1320.494269174513
 31
0.0
  0
LINE
  5
18CC5
330
18C7A
100
AcDbEntity
  8
寸法
 48
50.0
100
AcDbLine
 10
1746.17359555837
 20
1170.531020743327
 30
0.0
 11
1694.767587648266
 21
1170.531020743327
 31
0.0
  0
LINE
  5
18CC6
330
18C7A
100
AcDbEntity
  8
寸法
 48
50.0
100
AcDbLine
 10
1694.767587648266
 20
1170.531020743327
 30
0.0
 11
1694.767587648266
 21
1201.841179395494
 31
0.0
  0
LINE
  5
18CC7
330
18C7A
100
AcDbEntity
  8
寸法
 48
50.0
100
AcDbLine
 10
1694.767587648266
 20
1201.841179395494
 30
0.0
 11
1665.006255656843
 21
1201.841179395494
 31
0.0
  0
LINE
  5
18CC8
330
18C7A
100
AcDbEntity
  8
寸法
 48
50.0
100
AcDbLine
 10
1665.006255656843
 20
1201.841179395494
 30
0.0
 11
1720.470591603318
 21
1239.420630324105
 31
0.0
  0
LINE
  5
18CC9
330
18C7A
100
AcDbEntity
  8
寸法
 48
50.0
100
AcDbLine
 10
1775.934927549793
 20
1201.841179395494
 30
0.0
 11
1720.470591603318
 21
1239.420630324105
 31
0.0
  0
LINE
  5
18CCA
330
18C7A
100
AcDbEntity
  8
寸法
 48
50.0
100
AcDbLine
 10
1746.17359555837
 20
1201.841179395494
 30
0.0
 11
1775.934927549793
 21
1201.841179395494
 31
0.0
  0
LINE
  5
18CCB
330
18C7A
100
AcDbEntity
  8
寸法
 48
50.0
100
AcDbLine
 10
1746.17359555837
 20
1170.531020743327
 30
0.0
 11
1746.17359555837
 21
1201.841179395494
 31
0.0
  0
LINE
  5
18CCC
330
18C7A
100
AcDbEntity
  8
寸法
 48
50.0
100
AcDbLine
 10
1694.767587648266
 20
1170.531020743327
 30
0.0
 11
1746.17359555837
 21
1170.531020743327
 31
0.0
  0
LINE
  5
18CCD
330
18C7A
100
AcDbEntity
  8
寸法
 48
50.0
100
AcDbLine
 10
2025.339129835225
 20
1227.676611498152
 30
0.0
 11
2025.339129835225
 21
1174.01297691636
 31
0.0
  0
LINE
  5
18CCE
330
18C7A
100
AcDbEntity
  8
寸法
 48
50.0
100
AcDbLine
 10
2114.623348430647
 20
1203.752977228664
 30
0.0
 11
2025.339129835225
 21
1227.676611498152
 31
0.0
  0
LINE
  5
18CCF
330
18C7A
100
AcDbEntity
  8
寸法
 48
50.0
100
AcDbLine
 10
1895.471408254923
 20
1203.752977228664
 30
0.0
 11
2114.623348430647
 21
1203.752977228664
 31
0.0
  0
DIMENSION
  5
18CD0
330
18C7A
100
AcDbEntity
  8
寸法
 48
50.0
100
AcDbDimension
  2
*D15
 10
2588.970589276523
 20
706.3240511224249
 30
0.0
 11
1969.060022905491
 21
706.3240511224249
 31
0.0
 12
-3742.925985830444
 22
-6453.628869860112
 32
0.0
 70
   128
  1
有効開口部間口\P<>
 71
     5
 42
1266.0
  3
INABA_S40G
100
AcDbAlignedDimension
 13
1322.970589276523
 23
1315.494269174465
 33
0.0
 14
2588.970589276523
 24
1315.494269174465
 34
0.0
100
AcDbRotatedDimension
1001
ACAD
1000
DSTYLE
1002
{
1070
   341
1005
0
1002
}
  0
LINE
  5
18CD1
330
18C7A
100
AcDbEntity
  8
部品1
100
AcDbLine
 10
3409.970589276524
 20
1392.494269174465
 30
0.0
 11
3437.970589276523
 21
1392.494269174465
 31
0.0
  0
DIMENSION
  5
18CD2
330
18C7A
100
AcDbEntity
  8
寸法
100
AcDbDimension
  2
*D16
 10
3674.266172669749
 20
1315.494269174465
 30
0.0
 11
3674.266172669748
 21
1177.494269174462
 31
0.0
 12
-3742.925985830444
 22
-6453.628869860112
 32
0.0
 70
   128
 71
     5
 42
77.0
  3
INABA_S40
100
AcDbAlignedDimension
 13
3437.970589276523
 23
1392.494269174465
 33
0.0
 14
3436.970589276523
 24
1315.494269174465
 34
0.0
 50
90.0
100
AcDbRotatedDimension
1001
ACAD
1000
DSTYLE
1002
{
1070
    41
1040
0.5
1070
    44
1040
1.0
1070
   147
1040
0.8
1070
   271
1070
     2
1070
   272
1070
     2
1070
   289
1070
     3
1070
   340
1005
F706
1070
   343
1005
164B4
1070
   344
1005
164B4
1002
}
  0
LINE
  5
18CD3
330
18C7A
100
AcDbEntity
  8
部品1
100
AcDbLine
 10
3437.970589276523
 20
1315.494269174465
 30
0.0
 11
3437.970589276523
 21
1392.494269174465
 31
0.0
  0
LINE
  5
18CD4
330
18C7A
100
AcDbEntity
  8
部品1
100
AcDbLine
 10
3398.970589276523
 20
1388.494269174465
 30
0.0
 11
3409.970589276524
 21
1388.494269174465
 31
0.0
  0
LINE
  5
18CD5
330
18C7A
100
AcDbEntity
  8
部品1
100
AcDbLine
 10
3407.970589276523
 20
1324.494269174465
 30
0.0
 11
3407.970589276523
 21
1315.494269174465
 31
0.0
  0
LINE
  5
18CD6
330
18C7A
100
AcDbEntity
  8
部品1
100
AcDbLine
 10
3398.970589276523
 20
1324.494269174465
 30
0.0
 11
3407.970589276523
 21
1324.494269174465
 31
0.0
  0
LINE
  5
18CD7
330
18C7A
100
AcDbEntity
  8
部品1
100
AcDbLine
 10
3398.970589276523
 20
1388.494269174465
 30
0.0
 11
3398.970589276523
 21
1324.494269174465
 31
0.0
  0
LINE
  5
18CD8
330
18C7A
100
AcDbEntity
  8
部品1
100
AcDbLine
 10
3409.970589276524
 20
1419.494269174465
 30
0.0
 11
3409.970589276524
 21
1388.494269174465
 31
0.0
  0
LINE
  5
18CD9
330
18C7A
100
AcDbEntity
  8
部品1
100
AcDbLine
 10
1322.970589276523
 20
1388.494269174465
 30
0.0
 11
1311.970589276523
 21
1388.494269174465
 31
0.0
  0
LINE
  5
18CDA
330
18C7A
100
AcDbEntity
  8
部品1
100
AcDbLine
 10
1283.970589276523
 20
1392.494269174465
 30
0.0
 11
1311.970589276523
 21
1392.494269174465
 31
0.0
  0
LINE
  5
18CDB
330
18C7A
100
AcDbEntity
  8
部品1
100
AcDbLine
 10
1313.970589276523
 20
1324.494269174465
 30
0.0
 11
1313.970589276523
 21
1315.494269174465
 31
0.0
  0
LINE
  5
18CDC
330
18C7A
100
AcDbEntity
  8
部品1
100
AcDbLine
 10
1322.970589276523
 20
1324.494269174465
 30
0.0
 11
1313.970589276523
 21
1324.494269174465
 31
0.0
  0
LINE
  5
18CDD
330
18C7A
100
AcDbEntity
  8
部品1
100
AcDbLine
 10
1313.970589276523
 20
1315.494269174465
 30
0.0
 11
1283.970589276523
 21
1315.494269174465
 31
0.0
  0
LINE
  5
18CDE
330
18C7A
100
AcDbEntity
  8
部品1
100
AcDbLine
 10
1283.970589276523
 20
1315.494269174465
 30
0.0
 11
1283.970589276523
 21
1392.494269174465
 31
0.0
  0
LINE
  5
18CDF
330
18C7A
100
AcDbEntity
  8
部品1
100
AcDbLine
 10
1322.970589276523
 20
1388.494269174465
 30
0.0
 11
1322.970589276523
 21
1324.494269174465
 31
0.0
  0
LINE
  5
18CE0
330
18C7A
100
AcDbEntity
  8
部品1
100
AcDbLine
 10
1311.970589276523
 20
1419.494269174462
 30
0.0
 11
1311.970589276523
 21
1388.494269174465
 31
0.0
  0
LINE
  5
18CE1
330
18C7A
100
AcDbEntity
  8
部品1
100
AcDbLine
 10
1311.970589276523
 20
1419.494269174462
 30
0.0
 11
3409.970589276524
 21
1419.494269174465
 31
0.0
  0
LINE
  5
18CE2
330
18C7A
100
AcDbEntity
  8
部品1
100
AcDbLine
 10
3407.970589276523
 20
1315.494269174465
 30
0.0
 11
3437.970589276523
 21
1315.494269174465
 31
0.0
  0
LINE
  5
18CE3
330
18C7A
100
AcDbEntity
  8
部品1
100
AcDbLine
 10
1313.970589276523
 20
1315.494269174465
 30
0.0
 11
3410.970589276523
 21
1315.494269174465
 31
0.0
  0
LINE
  5
18CE4
330
18C7A
100
AcDbEntity
  8
細線
  6
Continuous
 62
     5
100
AcDbLine
 10
2689.970589276527
 20
1354.494269174462
 30
0.0
 11
2689.970589276527
 21
1354.494269174462
 31
0.0
  0
LINE
  5
18CE5
330
18C7A
100
AcDbEntity
  8
細線
  6
Continuous
 62
     5
100
AcDbLine
 10
2682.470589276527
 20
1354.494269174462
 30
0.0
 11
2682.470589276527
 21
1354.494269174462
 31
0.0
  0
LINE
  5
18CE6
330
18C7A
100
AcDbEntity
  8
細線
  6
Continuous
 62
     5
100
AcDbLine
 10
2676.470589276527
 20
1354.494269174462
 30
0.0
 11
2676.470589276527
 21
1354.494269174462
 31
0.0
  0
LINE
  5
18CE7
330
18C7A
100
AcDbEntity
  8
細線
  6
Continuous
 62
     5
100
AcDbLine
 10
2743.970589276527
 20
1373.494269174462
 30
0.0
 11
2743.970589276527
 21
1373.494269174462
 31
0.0
  0
LINE
  5
18CE8
330
18C7A
100
AcDbEntity
  8
細線
 48
50.0
100
AcDbLine
 10
1336.970593930116
 20
1341.094443351418
 30
0.0
 11
1336.970593930113
 21
1349.490593759059
 31
0.0
  0
LINE
  5
18CE9
330
18C7A
100
AcDbEntity
  8
細線
 48
50.0
100
AcDbLine
 10
1336.970593930113
 20
1349.490593759059
 30
0.0
 11
1322.970589276523
 21
1349.490593759057
 31
0.0
  0
LINE
  5
18CEA
330
18C7A
100
AcDbEntity
  8
細線
 48
50.0
100
AcDbLine
 10
2087.970593930113
 20
1337.644443351419
 30
0.0
 11
2087.970593930113
 21
1342.494443351421
 31
0.0
  0
LINE
  5
18CEB
330
18C7A
100
AcDbEntity
  8
細線
 48
50.0
100
AcDbLine
 10
2087.970593930113
 20
1342.494443351421
 30
0.0
 11
2102.970593930113
 21
1342.494443351421
 31
0.0
  0
LINE
  5
18CEC
330
18C7A
100
AcDbEntity
  8
細線
 48
50.0
100
AcDbLine
 10
2102.970593930113
 20
1342.494443351421
 30
0.0
 11
2102.970593930115
 21
1349.494443351419
 31
0.0
  0
LINE
  5
18CED
330
18C7A
100
AcDbEntity
  8
細線
 48
50.0
100
AcDbLine
 10
2102.970593930115
 20
1349.494443351419
 30
0.0
 11
2117.970593930113
 21
1349.494443351419
 31
0.0
  0
LINE
  5
18CEE
330
18C7A
100
AcDbEntity
  8
細線
 48
50.0
100
AcDbLine
 10
2117.970593930113
 20
1349.494443351419
 30
0.0
 11
2117.970593930113
 21
1320.494443351421
 31
0.0
  0
LINE
  5
18CEF
330
18C7A
100
AcDbEntity
  8
細線
 48
50.0
100
AcDbLine
 10
1313.970589276523
 20
1320.491777694889
 30
0.0
 11
1527.970593930113
 21
1320.494460905133
 31
0.0
  0
LINE
  5
18CF0
330
18C7A
100
AcDbEntity
  8
細線
 48
50.0
100
AcDbLine
 10
2017.970593930113
 20
1320.494443351421
 30
0.0
 11
2117.970593930113
 21
1320.494443351421
 31
0.0
  0
LINE
  5
18CF1
330
18C7A
100
AcDbEntity
  8
細線
 48
50.0
100
AcDbLine
 10
1737.970593930113
 20
1320.494443351419
 30
0.0
 11
1807.970593930113
 21
1320.494443351423
 31
0.0
  0
LINE
  5
18CF2
330
18C7A
100
AcDbEntity
  8
細線
 48
50.0
100
AcDbLine
 10
1750.832558942642
 20
1320.494443351419
 30
0.0
 11
1756.588076525309
 21
1338.765294641913
 31
0.0
  0
LINE
  5
18CF3
330
18C7A
100
AcDbEntity
  8
細線
 48
50.0
100
AcDbLine
 10
1756.588076525309
 20
1338.765294641913
 30
0.0
 11
1767.516525005743
 21
1338.765294641911
 31
0.0
  0
ARC
  5
18CF4
330
18C7A
100
AcDbEntity
  8
細線
 48
50.0
100
AcDbCircle
 10
1767.516525005743
 20
1337.765294641911
 30
0.0
 40
1.0
100
AcDbArc
 50
24.62431835207225
 51
90.0
  0
ARC
  5
18CF5
330
18C7A
100
AcDbEntity
  8
細線
 48
50.0
100
AcDbCircle
 10
1778.425237120377
 20
1337.765294641911
 30
0.0
 40
1.0
100
AcDbArc
 50
90.0
 51
155.3756816479277
  0
ARC
  5
18CF6
330
18C7A
100
AcDbEntity
  8
細線
 48
50.0
100
AcDbCircle
 10
1772.970881063058
 20
1340.265294641911
 30
0.0
 40
5.0
100
AcDbArc
 50
204.6243183520723
 51
335.3756816479278
  0
LINE
  5
18CF7
330
18C7A
100
AcDbEntity
  8
細線
 48
50.0
100
AcDbLine
 10
1778.425237120377
 20
1338.765294641911
 30
0.0
 11
1789.35368560081
 21
1338.765294641913
 31
0.0
  0
LINE
  5
18CF8
330
18C7A
100
AcDbEntity
  8
細線
 48
50.0
100
AcDbLine
 10
1789.35368560081
 20
1338.765294641913
 30
0.0
 11
1795.109203183478
 21
1320.494443351423
 31
0.0
  0
LINE
  5
18CF9
330
18C7A
100
AcDbEntity
  8
細線
 48
50.0
100
AcDbLine
 10
2087.970593930113
 20
1341.094443351419
 30
0.0
 11
1336.970593930116
 21
1341.094443351418
 31
0.0
  0
LINE
  5
18CFA
330
18C7A
100
AcDbEntity
  8
細線
 48
50.0
100
AcDbLine
 10
1947.970593930113
 20
1320.494443351421
 30
0.0
 11
1877.970593930113
 21
1320.494443351421
 31
0.0
  0
LINE
  5
18CFB
330
18C7A
100
AcDbEntity
  8
細線
100
AcDbLine
 10
1667.970593930113
 20
1320.494443351421
 30
0.0
 11
1597.970602115529
 21
1320.494443351421
 31
0.0
  0
LINE
  5
18CFC
330
18C7A
100
AcDbEntity
  8
細線
 48
50.0
100
AcDbLine
 10
2741.970584622936
 20
1375.094487209288
 30
0.0
 11
2106.970593930113
 21
1375.094487209284
 31
0.0
  0
LINE
  5
18CFD
330
18C7A
100
AcDbEntity
  8
細線
 48
50.0
100
AcDbLine
 10
2106.970593930113
 20
1371.990637616925
 30
0.0
 11
2106.970593930113
 21
1376.490637616925
 31
0.0
  0
LINE
  5
18CFE
330
18C7A
100
AcDbEntity
  8
細線
 48
50.0
100
AcDbLine
 10
2106.970593930113
 20
1376.490637616925
 30
0.0
 11
2091.970593930113
 21
1376.490637616925
 31
0.0
  0
LINE
  5
18CFF
330
18C7A
100
AcDbEntity
  8
細線
 48
50.0
100
AcDbLine
 10
2091.970593930113
 20
1376.490637616925
 30
0.0
 11
2091.970593930113
 21
1383.490637616927
 31
0.0
  0
LINE
  5
18D00
330
18C7A
100
AcDbEntity
  8
細線
 48
50.0
100
AcDbLine
 10
2091.970593930113
 20
1383.490637616927
 30
0.0
 11
2076.970593930115
 21
1383.490637616924
 31
0.0
  0
LINE
  5
18D01
330
18C7A
100
AcDbEntity
  8
細線
 48
50.0
100
AcDbLine
 10
2076.970593930115
 20
1383.490637616924
 30
0.0
 11
2076.970593930115
 21
1345.890409513813
 31
0.0
  0
LINE
  5
18D02
330
18C7A
100
AcDbEntity
  8
細線
 48
50.0
100
AcDbLine
 10
2076.970593930115
 20
1345.890409513813
 30
0.0
 11
2096.970601231289
 21
1345.890451063353
 31
0.0
  0
LINE
  5
18D03
330
18C7A
100
AcDbEntity
  8
細線
 48
50.0
100
AcDbLine
 10
2096.970556362348
 20
1354.493912699161
 30
0.0
 11
2096.970601231289
 21
1345.890451063353
 31
0.0
  0
LINE
  5
18D04
330
18C7A
100
AcDbEntity
  8
細線
 48
50.0
100
AcDbLine
 10
2741.970584622936
 20
1371.644487209287
 30
0.0
 11
2741.970584622936
 21
1376.494487209284
 31
0.0
  0
LINE
  5
18D05
330
18C7A
100
AcDbEntity
  8
細線
 48
50.0
100
AcDbLine
 10
2741.970584622936
 20
1376.494487209284
 30
0.0
 11
2756.970584622934
 21
1376.494487209285
 31
0.0
  0
LINE
  5
18D06
330
18C7A
100
AcDbEntity
  8
細線
 48
50.0
100
AcDbLine
 10
2756.970584622934
 20
1376.494487209285
 30
0.0
 11
2756.970596256909
 21
1383.494487209331
 31
0.0
  0
LINE
  5
18D07
330
18C7A
100
AcDbEntity
  8
細線
 48
50.0
100
AcDbLine
 10
2756.970596256909
 20
1383.494487209331
 30
0.0
 11
2771.970594427439
 21
1383.494487209329
 31
0.0
  0
LINE
  5
18D08
330
18C7A
100
AcDbEntity
  8
細線
 48
50.0
100
AcDbLine
 10
2771.970594427439
 20
1383.494487209329
 30
0.0
 11
2771.970584125617
 21
1354.494281037055
 31
0.0
  0
LINE
  5
18D09
330
18C7A
100
AcDbEntity
  8
細線
 48
50.0
100
AcDbLine
 10
2458.070304175992
 20
1354.494278397076
 30
0.0
 11
2389.470863838818
 21
1354.494283787084
 31
0.0
  0
LINE
  5
18D0A
330
18C7A
100
AcDbEntity
  8
細線
 48
50.0
100
AcDbLine
 10
2096.970556362348
 20
1354.493912699161
 30
0.0
 11
2108.203245717057
 21
1354.494095652309
 31
0.0
  0
ARC
  5
18D0B
330
18C7A
100
AcDbEntity
  8
細線
 48
50.0
100
AcDbCircle
 10
2114.785538024393
 20
1353.294259565922
 30
0.0
 40
1.8
100
AcDbArc
 50
270.0006665777295
 51
345.000555481349
  0
LINE
  5
18D0C
330
18C7A
100
AcDbEntity
  8
細線
 48
50.0
100
AcDbLine
 10
2116.771971470473
 20
1353.753100023201
 30
0.0
 11
2116.524209028273
 21
1352.828402141094
 31
0.0
  0
LINE
  5
18D0D
330
18C7A
100
AcDbEntity
  8
細線
 48
50.0
100
AcDbLine
 10
2114.785558965548
 20
1351.494259566043
 30
0.0
 11
2111.155631546781
 21
1351.494217335563
 31
0.0
  0
ARC
  5
18D0E
330
18C7A
100
AcDbEntity
  8
細線
 48
50.0
100
AcDbCircle
 10
2111.155610605627
 20
1353.29421733544
 30
0.0
 40
1.8
100
AcDbArc
 50
195.0010443049965
 51
270.0006665777295
  0
LINE
  5
18D0F
330
18C7A
100
AcDbEntity
  8
細線
 48
50.0
100
AcDbLine
 10
2109.169183113368
 20
1353.752932303007
 30
0.0
 11
2109.416952609882
 21
1352.828311364425
 31
0.0
  0
ARC
  5
18D10
330
18C7A
100
AcDbEntity
  8
細線
 48
50.0
100
AcDbCircle
 10
2108.203262004622
 20
1353.494095652444
 30
0.0
 40
1.0
100
AcDbArc
 50
15.00104430499651
 51
90.00093320877969
  0
LINE
  5
18D11
330
18C7A
100
AcDbEntity
  8
細線
 48
50.0
100
AcDbLine
 10
2117.737892825577
 20
1354.494290342714
 30
0.0
 11
2118.679652976481
 21
1354.494296916564
 31
0.0
  0
ARC
  5
18D12
330
18C7A
100
AcDbEntity
  8
細線
 48
50.0
100
AcDbCircle
 10
2117.737899805961
 20
1353.49429034274
 30
0.0
 40
1.0
100
AcDbArc
 50
90.0003999466794
 51
165.000555481349
  0
LINE
  5
18D13
330
18C7A
100
AcDbEntity
  8
細線
 48
50.0
100
AcDbLine
 10
2669.470584622926
 20
1354.494281037055
 30
0.0
 11
2771.970584125617
 21
1354.494281037055
 31
0.0
  0
LINE
  5
18D14
330
18C7A
100
AcDbEntity
  8
細線
 48
50.0
100
AcDbLine
 10
2179.47061994182
 20
1354.494289224422
 30
0.0
 11
2118.370558714898
 21
1354.494296916564
 31
0.0
  0
LINE
  5
18D15
330
18C7A
100
AcDbEntity
  8
細線
 48
50.0
100
AcDbLine
 10
2599.470584622926
 20
1354.494281037057
 30
0.0
 11
2529.470584622926
 21
1354.494281037055
 31
0.0
  0
LINE
  5
18D16
330
18C7A
100
AcDbEntity
  8
細線
 48
50.0
100
AcDbLine
 10
2319.470584622926
 20
1354.494281037054
 30
0.0
 11
2249.470567335051
 21
1354.494281037057
 31
0.0
  0
ARC
  5
18D17
330
18C7A
100
AcDbEntity
  8
細線
 48
50.0
100
AcDbCircle
 10
2756.170589276533
 20
1387.694269174466
 30
0.0
 40
0.8
100
AcDbArc
 50
359.9997333689499
 51
89.99986668437072
  0
ARC
  5
18D18
330
18C7A
100
AcDbEntity
  8
細線
 48
50.0
100
AcDbCircle
 10
2763.770596101631
 20
1387.694280343081
 30
0.0
 40
0.8
100
AcDbArc
 50
90.00014387753465
 51
179.9997333689498
  0
LINE
  5
18D19
330
18C7A
100
AcDbEntity
  8
細線
 48
50.0
100
AcDbLine
 10
2756.170591137969
 20
1388.494269174465
 30
0.0
 11
2750.970589276525
 21
1388.494269174465
 31
0.0
  0
ARC
  5
18D1A
330
18C7A
100
AcDbEntity
  8
細線
 48
50.0
100
AcDbCircle
 10
2757.670589276524
 20
1386.194269174464
 30
0.0
 40
0.7
100
AcDbArc
 50
180.0
 51
270.0
  0
ARC
  5
18D1B
330
18C7A
100
AcDbEntity
  8
細線
 48
50.0
100
AcDbCircle
 10
2762.270589276524
 20
1386.194269174464
 30
0.0
 40
0.7
100
AcDbArc
 50
270.0
 51
0.0
  0
LINE
  5
18D1C
330
18C7A
100
AcDbEntity
  8
細線
 48
50.0
100
AcDbLine
 10
2762.970589276525
 20
1386.194269174464
 30
0.0
 11
2762.970596101639
 21
1387.694284065954
 31
0.0
  0
LINE
  5
18D1D
330
18C7A
100
AcDbEntity
  8
細線
 48
50.0
100
AcDbLine
 10
2757.670589276524
 20
1385.494269174465
 30
0.0
 11
2762.270589276524
 21
1385.494269174465
 31
0.0
  0
LINE
  5
18D1E
330
18C7A
100
AcDbEntity
  8
細線
 48
50.0
100
AcDbLine
 10
2756.970589276525
 20
1387.694269174466
 30
0.0
 11
2756.970589276525
 21
1386.194269174464
 31
0.0
  0
LINE
  5
18D1F
330
18C7A
100
AcDbEntity
  8
細線
 48
50.0
100
AcDbLine
 10
3382.570589276527
 20
1418.494269174465
 30
0.0
 11
2745.970589276525
 21
1418.494269174463
 31
0.0
  0
LINE
  5
18D20
330
18C7A
100
AcDbEntity
  8
細線
 48
50.0
100
AcDbLine
 10
3408.470589276525
 20
1413.494269174467
 30
0.0
 11
3392.570589276527
 21
1413.494269174465
 31
0.0
  0
LINE
  5
18D21
330
18C7A
100
AcDbEntity
  8
細線
 48
50.0
100
AcDbLine
 10
3392.570589276526
 20
1413.494269174465
 30
0.0
 11
3382.570589276527
 21
1418.494269174465
 31
0.0
  0
LINE
  5
18D22
330
18C7A
100
AcDbEntity
  8
細線
100
AcDbLine
 10
2993.470589276525
 20
1388.494269174465
 30
0.0
 11
2993.470589276525
 21
1417.794269174464
 31
0.0
  0
LINE
  5
18D23
330
18C7A
100
AcDbEntity
  8
細線
100
AcDbLine
 10
2993.470589276525
 20
1417.794269174464
 30
0.0
 11
3013.470589276525
 21
1417.794269174464
 31
0.0
  0
LINE
  5
18D24
330
18C7A
100
AcDbEntity
  8
細線
100
AcDbLine
 10
3013.470589276525
 20
1388.494269174465
 30
0.0
 11
3013.470589276525
 21
1417.794269174464
 31
0.0
  0
LINE
  5
18D25
330
18C7A
100
AcDbEntity
  8
細線
100
AcDbLine
 10
3170.720589276524
 20
1388.494269174465
 30
0.0
 11
3100.720589276523
 21
1388.494269174465
 31
0.0
  0
LINE
  5
18D26
330
18C7A
100
AcDbEntity
  8
細線
 48
50.0
100
AcDbLine
 10
2890.720589276525
 20
1388.494269174465
 30
0.0
 11
2763.766368849365
 21
1388.494269174465
 31
0.0
  0
LINE
  5
18D27
330
18C7A
100
AcDbEntity
  8
細線
100
AcDbLine
 10
3030.720589276525
 20
1388.494269174465
 30
0.0
 11
2960.720589276525
 21
1388.494269174465
 31
0.0
  0
LINE
  5
18D28
330
18C7A
100
AcDbEntity
  8
細線
 48
50.0
100
AcDbLine
 10
2750.970589276525
 20
1380.494269174465
 30
0.0
 11
2750.970589276525
 21
1388.494269174465
 31
0.0
  0
LINE
  5
18D29
330
18C7A
100
AcDbEntity
  8
細線
 48
50.0
100
AcDbLine
 10
2730.970589276524
 20
1380.494269174467
 30
0.0
 11
2750.970589276525
 21
1380.494269174465
 31
0.0
  0
LINE
  5
18D2A
330
18C7A
100
AcDbEntity
  8
細線
 48
50.0
100
AcDbLine
 10
2745.970589276525
 20
1418.494269174465
 30
0.0
 11
2745.970589276525
 21
1413.494269174465
 31
0.0
  0
LINE
  5
18D2B
330
18C7A
100
AcDbEntity
  8
細線
 48
50.0
100
AcDbLine
 10
2730.970589276525
 20
1418.494269174463
 30
0.0
 11
2745.970589276525
 21
1418.494269174465
 31
0.0
  0
LINE
  5
18D2C
330
18C7A
100
AcDbEntity
  8
細線
 48
50.0
100
AcDbLine
 10
2730.970589276524
 20
1380.494269174467
 30
0.0
 11
2730.970589276525
 21
1418.494269174463
 31
0.0
  0
LINE
  5
18D2D
330
18C7A
100
AcDbEntity
  8
細線
100
AcDbLine
 10
3398.970589276523
 20
1388.494269174465
 30
0.0
 11
3240.720589276525
 21
1388.494269174465
 31
0.0
  0
LINE
  5
18D2E
330
18C7A
100
AcDbEntity
  8
細線
 48
50.0
100
AcDbLine
 10
3408.470589276525
 20
1413.494269174467
 30
0.0
 11
3408.470589276524
 21
1388.494269174465
 31
0.0
  0
TEXT
  5
18D2F
330
18C7A
100
AcDbEntity
  8
部品1
100
AcDbText
 10
1860.154865991392
 20
46.99880823813145
 30
0.0
 40
135.0
  1
平面図
  7
STYLE2
100
AcDbText
  0
LWPOLYLINE
  5
18D30
330
18C7A
100
AcDbEntity
  8
部品1
100
AcDbPolyline
 90
        4
 70
     1
 43
0.0
 10
1770.23525616235
 20
239.8923374566548
 10
1770.23525616235
 20
0.0000159111223184
 10
2533.705922390791
 20
0.0000159111223184
 10
2533.705922390791
 20
239.8923374566548
  0
LINE
  5
18D31
330
18C7A
100
AcDbEntity
  8
部品1
100
AcDbLine
 10
1534.470589276487
 20
3154.494269174626
 30
0.0
 11
2769.470589276552
 21
3154.494269174626
 31
0.0
  0
LINE
  5
18D32
330
18C7A
100
AcDbEntity
  8
部品1
 48
50.0
100
AcDbLine
 10
1311.970589276523
 20
1420.494269174462
 30
0.0
 11
3411.970589276523
 21
1420.494269174465
 31
0.0
  0
LINE
  5
18D33
330
18C7A
100
AcDbEntity
  8
部品1
 48
50.0
100
AcDbLine
 10
471.9705892765232
 20
1392.494269174465
 30
0.0
 11
1311.970589276523
 21
1392.494269174465
 31
0.0
  0
DIMENSION
  5
18D34
330
18C7A
100
AcDbEntity
  8
寸法
100
AcDbDimension
  2
*D14
 10
2710.234916278077
 20
2488.887829538828
 30
0.0
 11
2338.318822490183
 21
2488.887829538828
 31
0.0
 12
-3742.925985830444
 22
-6453.628869860112
 32
0.0
 70
   128
 71
     5
 42
1231.00000000007
  3
INABA_S40G
100
AcDbAlignedDimension
 13
1536.470589276486
 23
2702.494269174557
 33
0.0
 14
2767.470589276556
 24
2702.494269174549
 34
0.0
100
AcDbRotatedDimension
1001
ACAD
1000
DSTYLE
1002
{
1002
}
  0
LINE
  5
18D35
330
18C7A
100
AcDbEntity
  8
部品1
100
AcDbLine
 10
1536.470589276487
 20
2702.494269174557
 30
0.0
 11
2767.470589276554
 21
2702.494269174615
 31
0.0
  0
LINE
  5
18D36
330
18C7A
100
AcDbEntity
  8
部品1
100
AcDbLine
 10
1536.470589276487
 20
3152.494269174557
 30
0.0
 11
2767.470589276556
 21
3152.494269174615
 31
0.0
  0
LINE
  5
18D37
330
18C7A
100
AcDbEntity
  8
細線
 48
50.0
100
AcDbLine
 10
1508.470589276487
 20
3152.494269174558
 30
0.0
 11
445.4705892765559
 21
2702.494269174509
 31
0.0
  0
LINE
  5
18D38
330
18C7A
100
AcDbEntity
  8
細線
 48
50.0
100
AcDbLine
 10
1508.470589276487
 20
2702.494269174558
 30
0.0
 11
445.4705892765542
 21
3152.494269174509
 31
0.0
  0
LINE
  5
18D39
330
18C7A
100
AcDbEntity
  8
部品1
100
AcDbLine
 10
1556.970589276487
 20
3172.494269174611
 30
0.0
 11
1556.970589276487
 21
3154.494269174611
 31
0.0
  0
LINE
  5
18D3A
330
18C7A
100
AcDbEntity
  8
部品1
100
AcDbLine
 10
1556.970589276487
 20
3172.494269174611
 30
0.0
 11
1550.970589276487
 21
3172.494269174611
 31
0.0
  0
LINE
  5
18D3B
330
18C7A
100
AcDbEntity
  8
部品1
100
AcDbLine
 10
1534.470589276487
 20
3146.494269174608
 30
0.0
 11
1509.470589276487
 21
3146.494269174611
 31
0.0
  0
LINE
  5
18D3C
330
18C7A
100
AcDbEntity
  8
部品1
100
AcDbLine
 10
1486.970589276487
 20
3172.494269174611
 30
0.0
 11
1486.970589276487
 21
3154.494269174611
 31
0.0
  0
LINE
  5
18D3D
330
18C7A
100
AcDbEntity
  8
部品1
100
AcDbLine
 10
1492.970589276487
 20
3172.494269174611
 30
0.0
 11
1486.970589276487
 21
3172.494269174611
 31
0.0
  0
LINE
  5
18D3E
330
18C7A
100
AcDbEntity
  8
部品1
100
AcDbLine
 10
1534.470589276487
 20
2702.494269174615
 30
0.0
 11
1509.470589276487
 21
2702.494269174615
 31
0.0
  0
LINE
  5
18D3F
330
18C7A
100
AcDbEntity
  8
部品1
 48
50.0
100
AcDbLine
 10
1536.470589276487
 20
3152.494269174611
 30
0.0
 11
1536.470589276487
 21
2702.494269174615
 31
0.0
  0
LINE
  5
18D40
330
18C7A
100
AcDbEntity
  8
部品1
 48
50.0
100
AcDbLine
 10
1508.470589276487
 20
3152.494269174607
 30
0.0
 11
1508.470589276487
 21
2702.494269174615
 31
0.0
  0
LINE
  5
18D41
330
18C7A
100
AcDbEntity
  8
部品1
 48
50.0
100
AcDbLine
 10
1534.470589276487
 20
3154.494269174618
 30
0.0
 11
1534.470589276487
 21
2702.494269174615
 31
0.0
  0
LINE
  5
18D42
330
18C7A
100
AcDbEntity
  8
部品1
 48
50.0
100
AcDbLine
 10
1509.470589276487
 20
3154.494269174615
 30
0.0
 11
1509.470589276487
 21
2702.494269174615
 31
0.0
  0
LINE
  5
18D43
330
18C7A
100
AcDbEntity
  8
部品1
100
AcDbLine
 10
3411.970589276556
 20
1392.494269174582
 30
0.0
 11
3411.970589276556
 21
1420.494269174596
 31
0.0
  0
LINE
  5
18D44
330
18C7A
100
AcDbEntity
  8
部品1
100
AcDbLine
 10
1311.970589276523
 20
1392.494269174596
 30
0.0
 11
1311.970589276523
 21
1420.494269174596
 31
0.0
  0
LINE
  5
18D45
330
18C7A
100
AcDbEntity
  8
部品1
100
AcDbLine
 10
891.9705892765232
 20
1392.494269174596
 30
0.0
 11
891.9705892765232
 21
1420.494269174596
 31
0.0
  0
LINE
  5
18D46
330
18C7A
100
AcDbEntity
  8
部品1
100
AcDbLine
 10
3411.97058927652
 20
3182.494269174477
 30
0.0
 11
3411.970589276523
 21
3154.494269174477
 31
0.0
  0
LINE
  5
18D47
330
18C7A
100
AcDbEntity
  8
部品1
100
AcDbLine
 10
2571.97058927652
 20
3182.494269174477
 30
0.0
 11
2571.970589276523
 21
3154.494269174477
 31
0.0
  0
LINE
  5
18D48
330
18C7A
100
AcDbEntity
  8
部品1
100
AcDbLine
 10
2991.97058927652
 20
3182.494269174477
 30
0.0
 11
2991.970589276523
 21
3154.494269174477
 31
0.0
  0
LINE
  5
18D49
330
18C7A
100
AcDbEntity
  8
部品1
100
AcDbLine
 10
2151.970589276519
 20
3182.494269174477
 30
0.0
 11
2151.970589276523
 21
3154.494269174477
 31
0.0
  0
LINE
  5
18D4A
330
18C7A
100
AcDbEntity
  8
部品1
100
AcDbLine
 10
1731.970589276519
 20
3182.494269174477
 30
0.0
 11
1731.970589276523
 21
3154.494269174477
 31
0.0
  0
LINE
  5
18D4B
330
18C7A
100
AcDbEntity
  8
部品1
100
AcDbLine
 10
1311.970589276519
 20
3182.494269174477
 30
0.0
 11
1311.970589276523
 21
3154.494269174477
 31
0.0
  0
LINE
  5
18D4C
330
18C7A
100
AcDbEntity
  8
部品1
100
AcDbLine
 10
891.9705892765195
 20
3182.494269174477
 30
0.0
 11
891.9705892765232
 21
3154.494269174477
 31
0.0
  0
LINE
  5
18D4D
330
18C7A
100
AcDbEntity
  8
部品1
100
AcDbLine
 10
471.9705892765232
 20
1392.494269174596
 30
0.0
 11
471.9705892765232
 21
1420.494269174596
 31
0.0
  0
LINE
  5
18D4E
330
18C7A
100
AcDbEntity
  8
部品1
100
AcDbLine
 10
444.9705892765305
 20
1420.494269174558
 30
0.0
 11
3858.970589276556
 21
1420.494269174596
 31
0.0
  0
LINE
  5
18D4F
330
18C7A
100
AcDbEntity
  8
部品1
100
AcDbLine
 10
3831.970589276556
 20
1392.494269174596
 30
0.0
 11
3831.970589276556
 21
1420.494269174596
 31
0.0
  0
LINE
  5
18D50
330
18C7A
100
AcDbEntity
  8
部品1
100
AcDbLine
 10
3858.970589276556
 20
1447.494269174593
 30
0.0
 11
3886.970589276556
 21
1447.494269174593
 31
0.0
  0
LINE
  5
18D51
330
18C7A
100
AcDbEntity
  8
部品1
100
AcDbLine
 10
3858.970589276556
 20
1867.494269174607
 30
0.0
 11
3886.970589276556
 21
1867.494269174607
 31
0.0
  0
LINE
  5
18D52
330
18C7A
100
AcDbEntity
  8
部品1
100
AcDbLine
 10
444.9705892765305
 20
1867.49426917448
 30
0.0
 11
416.9705892765305
 21
1867.49426917448
 31
0.0
  0
LINE
  5
18D53
330
18C7A
100
AcDbEntity
  8
部品1
100
AcDbLine
 10
3830.470589276541
 20
1867.49426917458
 30
0.0
 11
473.4705892765396
 21
1867.49426917448
 31
0.0
  0
LINE
  5
18D54
330
18C7A
100
AcDbEntity
  8
部品1
100
AcDbLine
 10
3830.470589276541
 20
2287.49426917458
 30
0.0
 11
473.4705892765396
 21
2287.49426917448
 31
0.0
  0
LINE
  5
18D55
330
18C7A
100
AcDbEntity
  8
部品1
100
AcDbLine
 10
444.9705892765305
 20
2287.49426917448
 30
0.0
 11
416.9705892765305
 21
2287.49426917448
 31
0.0
  0
LINE
  5
18D56
330
18C7A
100
AcDbEntity
  8
部品1
100
AcDbLine
 10
3858.970589276556
 20
2287.494269174608
 30
0.0
 11
3886.970589276556
 21
2287.494269174608
 31
0.0
  0
LINE
  5
18D57
330
18C7A
100
AcDbEntity
  8
部品1
 48
50.0
100
AcDbLine
 10
2151.970589276551
 20
2702.494269174586
 30
0.0
 11
2151.970589276581
 21
1448.994269174494
 31
0.0
  0
LINE
  5
18D58
330
18C7A
100
AcDbEntity
  8
破線
 48
10.0
100
AcDbLine
 10
2959.470589276535
 20
1472.494269174522
 30
0.0
 11
2176.970589276532
 21
1472.494269174505
 31
0.0
  0
LINE
  5
18D59
330
18C7A
100
AcDbEntity
  8
破線
 48
10.0
100
AcDbLine
 10
3009.47058927653
 20
1448.994269174509
 30
0.0
 11
3009.47058927653
 21
2702.494269174615
 31
0.0
  0
LINE
  5
18D5A
330
18C7A
100
AcDbEntity
  8
破線
 48
10.0
100
AcDbLine
 10
2959.470589276535
 20
1448.994269174505
 30
0.0
 11
2959.470589276531
 21
2702.494269174615
 31
0.0
  0
LINE
  5
18D5B
330
18C7A
100
AcDbEntity
  8
破線
 48
10.0
100
AcDbLine
 10
1344.47058927653
 20
1448.994269174509
 30
0.0
 11
1344.47058927653
 21
2702.494269174615
 31
0.0
  0
LINE
  5
18D5C
330
18C7A
100
AcDbEntity
  8
破線
 48
10.0
100
AcDbLine
 10
1294.470589276534
 20
1448.994269174505
 30
0.0
 11
1294.47058927653
 21
2702.494269174615
 31
0.0
  0
DIMENSION
  5
18D5D
330
18C7A
100
AcDbEntity
  8
寸法
100
AcDbDimension
  2
*D13
 10
1451.234916278005
 20
2488.887829538828
 30
0.0
 11
916.0604668248634
 21
2488.887829538828
 31
0.0
 12
-3742.925985830444
 22
-6453.628869860112
 32
0.0
 70
   128
 71
     5
 42
1062.99999999993
  3
INABA_S40G
100
AcDbAlignedDimension
 13
445.4705892765559
 23
2702.494269174505
 33
0.0
 14
1508.470589276486
 24
2702.494269174558
 34
0.0
100
AcDbRotatedDimension
1001
ACAD
1000
DSTYLE
1002
{
1002
}
  0
LINE
  5
18D5E
330
18C7A
100
AcDbEntity
  8
破線
 48
10.0
100
AcDbLine
 10
1294.470589276534
 20
1472.494269174469
 30
0.0
 11
496.9705892765414
 21
1472.494269174476
 31
0.0
  0
LINE
  5
18D5F
330
18C7A
100
AcDbEntity
  8
部品1
100
AcDbLine
 10
3831.970589276556
 20
3182.494269174604
 30
0.0
 11
3831.970589276556
 21
3154.494269174604
 31
0.0
  0
LINE
  5
18D60
330
18C7A
100
AcDbEntity
  8
部品1
100
AcDbLine
 10
3831.970589276556
 20
3182.494269174626
 30
0.0
 11
3831.970589276556
 21
3154.494269174626
 31
0.0
  0
LINE
  5
18D61
330
18C7A
100
AcDbEntity
  8
部品1
100
AcDbLine
 10
3858.970589276556
 20
3127.494269174607
 30
0.0
 11
3886.970589276556
 21
3127.494269174607
 31
0.0
  0
LINE
  5
18D62
330
18C7A
100
AcDbEntity
  8
部品1
100
AcDbLine
 10
3858.970589276556
 20
2707.494269174608
 30
0.0
 11
3886.970589276556
 21
2707.494269174608
 31
0.0
  0
LINE
  5
18D63
330
18C7A
100
AcDbEntity
  8
部品1
100
AcDbLine
 10
3858.470589276556
 20
3152.494269174604
 30
0.0
 11
3858.470589276556
 21
2702.494269174608
 31
0.0
  0
LINE
  5
18D64
330
18C7A
100
AcDbEntity
  8
部品1
100
AcDbLine
 10
3886.970589276533
 20
1447.494269174593
 30
0.0
 11
3886.970589276531
 21
1392.494269174596
 31
0.0
  0
LINE
  5
18D65
330
18C7A
100
AcDbEntity
  8
部品1
 48
50.0
100
AcDbLine
 10
3830.470589276556
 20
1448.994269174596
 30
0.0
 11
3858.970589276554
 21
1420.494269174596
 31
0.0
  0
LINE
  5
18D66
330
18C7A
100
AcDbEntity
  8
部品1
100
AcDbLine
 10
3886.970589276531
 20
1392.494269174596
 30
0.0
 11
3835.970589276531
 21
1392.494269174596
 31
0.0
  0
LINE
  5
18D67
330
18C7A
100
AcDbEntity
  8
部品1
100
AcDbLine
 10
3858.970589276533
 20
1447.494269174593
 30
0.0
 11
3886.970589276531
 21
1447.494269174593
 31
0.0
  0
LINE
  5
18D68
330
18C7A
100
AcDbEntity
  8
部品1
100
AcDbLine
 10
3886.970589276556
 20
3182.494269174604
 30
0.0
 11
3886.970589276531
 21
1392.494269174596
 31
0.0
  0
DIMENSION
  5
18D69
330
18C7A
100
AcDbEntity
  8
寸法
100
AcDbDimension
  2
*D12
 10
4534.396935010967
 20
1447.494269174593
 30
0.0
 11
4534.396935010965
 21
2287.4942691746
 31
0.0
 12
-3742.925985830444
 22
-6453.628869860112
 32
0.0
 70
   128
  1
4X420=<>
 71
     5
 42
1680.000000000014
  3
INABA_S40G
100
AcDbAlignedDimension
 13
3886.970589276556
 23
3127.494269174607
 33
0.0
 14
3886.970589276531
 24
1447.494269174593
 34
0.0
 50
90.0
100
AcDbRotatedDimension
1001
ACAD
1000
DSTYLE
1002
{
1002
}
  0
LINE
  5
18D6A
330
18C7A
100
AcDbEntity
  8
部品1
100
AcDbLine
 10
3858.970589276556
 20
3154.494269174604
 30
0.0
 11
3858.970589276534
 21
1420.494269174596
 31
0.0
  0
DIMENSION
  5
18D6B
330
18C7A
100
AcDbEntity
  8
寸法
100
AcDbDimension
  2
*D11
 10
4213.82831513858
 20
2607.276453505718
 30
0.0
 11
4113.828315138579
 21
2832.276453505718
 31
0.0
 12
-3742.925985830444
 22
-6453.628869860112
 32
0.0
 71
     5
 42
449.9999999999963
  3
INABA_S40G
100
AcDbAlignedDimension
 13
3858.470589276556
 23
3152.494269174604
 33
0.0
 14
3858.470589276556
 24
2702.494269174608
 34
0.0
 50
90.0
100
AcDbRotatedDimension
1001
ACAD
1000
DSTYLE
1002
{
1002
}
  0
LINE
  5
18D6C
330
18C7A
100
AcDbEntity
  8
部品1
100
AcDbLine
 10
3830.470589276547
 20
2702.494269174608
 30
0.0
 11
3830.470589276556
 21
1448.994269174596
 31
0.0
  0
LINE
  5
18D6D
330
18C7A
100
AcDbEntity
  8
破線
 48
10.0
100
AcDbLine
 10
3806.970589276549
 20
2702.494269174608
 30
0.0
 11
3806.970589276558
 21
1472.494269174593
 31
0.0
  0
LINE
  5
18D6E
330
18C7A
100
AcDbEntity
  8
部品1
100
AcDbLine
 10
2769.470589276556
 20
3146.494269174608
 30
0.0
 11
2794.470589276556
 21
3146.494269174611
 31
0.0
  0
LINE
  5
18D6F
330
18C7A
100
AcDbEntity
  8
部品1
100
AcDbLine
 10
2810.970589276556
 20
3172.494269174611
 30
0.0
 11
2816.970589276556
 21
3172.494269174611
 31
0.0
  0
LINE
  5
18D70
330
18C7A
100
AcDbEntity
  8
部品1
100
AcDbLine
 10
2816.970589276556
 20
3172.494269174611
 30
0.0
 11
2816.970589276556
 21
3154.494269174611
 31
0.0
  0
LINE
  5
18D71
330
18C7A
100
AcDbEntity
  8
部品1
100
AcDbLine
 10
2746.970589276556
 20
3172.494269174611
 30
0.0
 11
2752.970589276556
 21
3172.494269174611
 31
0.0
  0
LINE
  5
18D72
330
18C7A
100
AcDbEntity
  8
部品1
100
AcDbLine
 10
2746.970589276556
 20
3172.494269174611
 30
0.0
 11
2746.970589276556
 21
3154.494269174611
 31
0.0
  0
LINE
  5
18D73
330
18C7A
100
AcDbEntity
  8
部品1
100
AcDbLine
 10
2769.470589276556
 20
2702.494269174615
 30
0.0
 11
2794.470589276556
 21
2702.494269174615
 31
0.0
  0
LINE
  5
18D74
330
18C7A
100
AcDbEntity
  8
部品1
 48
50.0
100
AcDbLine
 10
2794.470589276556
 20
3154.494269174615
 30
0.0
 11
2794.470589276556
 21
2702.494269174615
 31
0.0
  0
LINE
  5
18D75
330
18C7A
100
AcDbEntity
  8
部品1
 48
50.0
100
AcDbLine
 10
2769.470589276554
 20
3154.494269174618
 30
0.0
 11
2769.470589276556
 21
2702.494269174615
 31
0.0
  0
LINE
  5
18D76
330
18C7A
100
AcDbEntity
  8
部品1
 48
50.0
100
AcDbLine
 10
2795.470589276556
 20
3152.494269174607
 30
0.0
 11
2795.470589276556
 21
2702.494269174615
 31
0.0
  0
LINE
  5
18D77
330
18C7A
100
AcDbEntity
  8
部品1
 48
50.0
100
AcDbLine
 10
2767.470589276556
 20
3152.494269174611
 30
0.0
 11
2767.470589276556
 21
2702.494269174615
 31
0.0
  0
LINE
  5
18D78
330
18C7A
100
AcDbEntity
  8
破線
 48
10.0
100
AcDbLine
 10
2176.97058927653
 20
1448.994269174509
 30
0.0
 11
2176.97058927653
 21
2702.494269174588
 31
0.0
  0
LINE
  5
18D79
330
18C7A
100
AcDbEntity
  8
破線
 48
10.0
100
AcDbLine
 10
2126.970589276534
 20
1448.994269174505
 30
0.0
 11
2126.970589276531
 21
2702.494269174586
 31
0.0
  0
LINE
  5
18D7A
330
18C7A
100
AcDbEntity
  8
部品1
100
AcDbLine
 10
2794.470589276556
 20
3154.494269174622
 30
0.0
 11
3858.970589276556
 21
3154.494269174604
 31
0.0
  0
LINE
  5
18D7B
330
18C7A
100
AcDbEntity
  8
細線
 48
50.0
100
AcDbLine
 10
3858.470589276556
 20
2702.494269174608
 30
0.0
 11
2795.470589276556
 21
3152.494269174607
 31
0.0
  0
LINE
  5
18D7C
330
18C7A
100
AcDbEntity
  8
部品1
100
AcDbLine
 10
2795.470589276555
 20
2702.494269174615
 30
0.0
 11
3858.470589276556
 21
2702.494269174608
 31
0.0
  0
LINE
  5
18D7D
330
18C7A
100
AcDbEntity
  8
部品1
100
AcDbLine
 10
2795.470589276556
 20
3152.494269174611
 30
0.0
 11
3858.470589276556
 21
3152.494269174604
 31
0.0
  0
LINE
  5
18D7E
330
18C7A
100
AcDbEntity
  8
細線
 48
50.0
100
AcDbLine
 10
3858.470589276556
 20
3152.494269174604
 30
0.0
 11
2795.470589276555
 21
2702.494269174615
 31
0.0
  0
DIMENSION
  5
18D7F
330
18C7A
100
AcDbEntity
  8
寸法
100
AcDbDimension
  2
*D10
 10
3801.234916278101
 20
2488.887829538937
 30
0.0
 11
3318.360544398907
 21
2488.887829538937
 31
0.0
 12
-3742.925985830444
 22
-6453.628869860112
 32
0.0
 70
   128
 71
     5
 42
1063.000000000012
  3
INABA_S40G
100
AcDbAlignedDimension
 13
2795.470589276555
 23
2702.494269174615
 33
0.0
 14
3858.470589276567
 24
2702.494269174608
 34
0.0
100
AcDbRotatedDimension
1001
ACAD
1000
DSTYLE
1002
{
1002
}
  0
LINE
  5
18D80
330
18C7A
100
AcDbEntity
  8
破線
 48
10.0
100
AcDbLine
 10
3806.970589276556
 20
1472.494269174594
 30
0.0
 11
3009.47058927653
 21
1472.494269174523
 31
0.0
  0
DIMENSION
  5
18D81
330
18C7A
100
AcDbEntity
  8
寸法
100
AcDbDimension
  2
*D9
 10
4534.396935010941
 20
1392.494269174596
 30
0.0
 11
4534.39693501094
 21
1084.008987800356
 31
0.0
 12
-3742.925985830444
 22
-6453.628869860112
 32
0.0
 70
   128
 71
     5
 42
54.99999999999636
  3
INABA_S40G
100
AcDbAlignedDimension
 13
3886.970589276531
 23
1447.494269174593
 33
0.0
 14
3886.970589276531
 24
1392.494269174596
 34
0.0
 50
90.0
100
AcDbRotatedDimension
1001
ACAD
1000
DSTYLE
1002
{
1002
}
  0
LINE
  5
18D82
330
18C7A
100
AcDbEntity
  8
部品1
100
AcDbLine
 10
471.9705892765196
 20
3182.494269174477
 30
0.0
 11
471.9705892765232
 21
3154.494269174477
 31
0.0
  0
LINE
  5
18D83
330
18C7A
100
AcDbEntity
  8
部品1
100
AcDbLine
 10
471.9705892765559
 20
3182.494269174509
 30
0.0
 11
471.9705892765559
 21
3154.494269174509
 31
0.0
  0
LINE
  5
18D84
330
18C7A
100
AcDbEntity
  8
部品1
100
AcDbLine
 10
444.9705892765232
 20
3127.49426917448
 30
0.0
 11
416.9705892765232
 21
3127.49426917448
 31
0.0
  0
LINE
  5
18D85
330
18C7A
100
AcDbEntity
  8
部品1
100
AcDbLine
 10
444.9705892765305
 20
2707.49426917448
 30
0.0
 11
416.9705892765305
 21
2707.49426917448
 31
0.0
  0
LINE
  5
18D86
330
18C7A
100
AcDbEntity
  8
部品1
 48
50.0
100
AcDbLine
 10
445.4705892765542
 20
3152.494269174506
 30
0.0
 11
445.4705892765559
 21
2702.494269174505
 31
0.0
  0
LINE
  5
18D87
330
18C7A
100
AcDbEntity
  8
部品1
 48
50.0
100
AcDbLine
 10
473.470589276545
 20
1448.994269174573
 30
0.0
 11
444.970589276545
 21
1420.494269174574
 31
0.0
  0
LINE
  5
18D88
330
18C7A
100
AcDbEntity
  8
部品1
100
AcDbLine
 10
471.9705892765232
 20
1392.494269174465
 30
0.0
 11
416.9705892765486
 21
1392.494269174465
 31
0.0
  0
LINE
  5
18D89
330
18C7A
100
AcDbEntity
  8
部品1
100
AcDbLine
 10
444.9705892765305
 20
1447.494269174429
 30
0.0
 11
416.9705892765469
 21
1447.494269174429
 31
0.0
  0
LINE
  5
18D8A
330
18C7A
100
AcDbEntity
  8
部品1
100
AcDbLine
 10
444.9705892765305
 20
1447.494269174465
 30
0.0
 11
416.9705892765469
 21
1447.494269174465
 31
0.0
  0
LINE
  5
18D8B
330
18C7A
100
AcDbEntity
  8
部品1
100
AcDbLine
 10
444.9705892765469
 20
1447.49426917448
 30
0.0
 11
416.9705892765469
 21
1447.49426917448
 31
0.0
  0
LINE
  5
18D8C
330
18C7A
100
AcDbEntity
  8
部品1
100
AcDbLine
 10
416.9705892765469
 20
1447.494269174429
 30
0.0
 11
416.9705892765486
 21
1392.494269174433
 31
0.0
  0
LINE
  5
18D8D
330
18C7A
100
AcDbEntity
  8
部品1
100
AcDbLine
 10
416.9705892765196
 20
3182.494269174477
 30
0.0
 11
416.9705892765486
 21
1392.494269174465
 31
0.0
  0
LINE
  5
18D8E
330
18C7A
100
AcDbEntity
  8
部品1
100
AcDbLine
 10
444.9705892765305
 20
1420.494269174556
 30
0.0
 11
444.9705892765559
 21
3154.494269174509
 31
0.0
  0
LINE
  5
18D8F
330
18C7A
100
AcDbEntity
  8
部品1
100
AcDbLine
 10
473.4705892765323
 20
2702.494269174608
 30
0.0
 11
473.470589276545
 21
1448.994269174571
 31
0.0
  0
LINE
  5
18D90
330
18C7A
100
AcDbEntity
  8
破線
 48
10.0
100
AcDbLine
 10
496.9705892765305
 20
2702.494269174608
 30
0.0
 11
496.9705892765451
 21
1472.494269174476
 31
0.0
  0
DIMENSION
  5
18D91
330
18C7A
100
AcDbEntity
  8
寸法
100
AcDbDimension
  2
*D8
 10
3886.970589276531
 20
410.7433333855515
 30
0.0
 11
2168.197775309287
 21
410.7433333855515
 31
0.0
 12
-3742.925985830444
 22
-6453.628869860112
 32
0.0
 70
   128
 71
     5
 42
3469.999999999982
  3
INABA_S40G
100
AcDbAlignedDimension
 13
416.9705892765486
 23
1392.494269174433
 33
0.0
 14
3886.970589276531
 24
1392.49426917456
 34
0.0
100
AcDbRotatedDimension
1001
ACAD
1000
DSTYLE
1002
{
1070
   341
1005
0
1002
}
  0
LINE
  5
18D92
330
18C7A
100
AcDbEntity
  8
部品1
100
AcDbLine
 10
444.9705892765559
 20
3154.494269174624
 30
0.0
 11
1509.470589276487
 21
3154.494269174626
 31
0.0
  0
LINE
  5
18D93
330
18C7A
100
AcDbEntity
  8
部品1
100
AcDbLine
 10
3886.970589276531
 20
1392.494269174596
 30
0.0
 11
3411.970589276556
 21
1392.494269174582
 31
0.0
  0
LINE
  5
18D94
330
18C7A
100
AcDbEntity
  8
部品1
100
AcDbLine
 10
416.9705892765559
 20
3182.494269174509
 30
0.0
 11
3886.970589276556
 21
3182.494269174604
 31
0.0
  0
LINE
  5
18D95
330
18C7A
100
AcDbEntity
  8
部品1
100
AcDbLine
 10
445.4705892765559
 20
2702.494269174509
 30
0.0
 11
1508.470589276487
 21
2702.494269174558
 31
0.0
  0
LINE
  5
18D96
330
18C7A
100
AcDbEntity
  8
細線
 48
50.0
100
AcDbLine
 10
2767.470589276556
 20
3152.494269174611
 30
0.0
 11
1536.470589276487
 21
2702.494269174558
 31
0.0
  0
LINE
  5
18D97
330
18C7A
100
AcDbEntity
  8
部品1
100
AcDbLine
 10
445.4705892765542
 20
3152.494269174509
 30
0.0
 11
1508.470589276485
 21
3152.494269174558
 31
0.0
  0
LINE
  5
18D98
330
18C7A
100
AcDbEntity
  8
細線
 48
50.0
100
AcDbLine
 10
2767.470589276554
 20
2702.494269174615
 30
0.0
 11
1536.470589276485
 21
3152.494269174558
 31
0.0
  0
LINE
  5
18D99
330
18C7A
100
AcDbEntity
  8
破線
 48
10.0
100
AcDbLine
 10
2126.970589276534
 20
1472.494269174502
 30
0.0
 11
1344.47058927653
 21
1472.494269174473
 31
0.0
  0
LINE
  5
18D9A
330
18C7A
100
AcDbEntity
  8
部品1
100
AcDbLine
 10
3830.470589276556
 20
1448.994269174596
 30
0.0
 11
473.4705892764487
 21
1448.994269174476
 31
0.0
  0
DIMENSION
  5
18D9B
330
18C7A
100
AcDbEntity
  8
寸法
100
AcDbDimension
  2
*D7
 10
471.970589276555
 20
3698.302488799491
 30
0.0
 11
108.4853079022819
 21
3698.302488799491
 31
0.0
 12
-3742.925985830444
 22
-6453.628869860112
 32
0.0
 70
   128
 71
     5
 42
55.00000000003456
  3
INABA_S40G
100
AcDbAlignedDimension
 13
416.9705892765205
 23
3182.494269174509
 33
0.0
 14
471.970589276555
 24
3182.494269174509
 34
0.0
100
AcDbRotatedDimension
1001
ACAD
1000
DSTYLE
1002
{
1002
}
  0
DIMENSION
  5
18D9C
330
18C7A
100
AcDbEntity
  8
寸法
100
AcDbDimension
  2
*D6
 10
4534.396935010967
 20
3127.494269174607
 30
0.0
 11
4534.396935010965
 21
3490.979550548844
 31
0.0
 12
-3742.925985830444
 22
-6453.628869860112
 32
0.0
 70
   128
 71
     5
 42
54.99999999999636
  3
INABA_S40G
100
AcDbAlignedDimension
 13
3886.970589276556
 23
3182.494269174604
 33
0.0
 14
3886.970589276556
 24
3127.494269174607
 34
0.0
 50
90.0
100
AcDbRotatedDimension
1001
ACAD
1000
DSTYLE
1002
{
1002
}
  0
DIMENSION
  5
18D9D
330
18C7A
100
AcDbEntity
  8
寸法
100
AcDbDimension
  2
*D5
 10
3886.970589276556
 20
3698.302488799589
 30
0.0
 11
4195.455870650794
 21
3698.302488799589
 31
0.0
 12
-3742.925985830444
 22
-6453.628869860112
 32
0.0
 70
   128
 71
     5
 42
55.0
  3
INABA_S40G
100
AcDbAlignedDimension
 13
3831.970589276556
 23
3182.494269174604
 33
0.0
 14
3886.970589276556
 24
3182.494269174604
 34
0.0
100
AcDbRotatedDimension
1001
ACAD
1000
DSTYLE
1002
{
1002
}
  0
DIMENSION
  5
18D9E
330
18C7A
100
AcDbEntity
  8
寸法
100
AcDbDimension
  2
*D4
 10
3831.970589276556
 20
3698.302488799607
 30
0.0
 11
2151.970589276555
 21
3698.302488799607
 31
0.0
 12
-3742.925985830444
 22
-6453.628869860112
 32
0.0
 70
   128
  1
8X420=<>
 71
     5
 42
3360.000000000001
  3
INABA_S40G
100
AcDbAlignedDimension
 13
471.970589276555
 23
3182.494269174509
 33
0.0
 14
3831.970589276556
 24
3182.494269174604
 34
0.0
100
AcDbRotatedDimension
1001
ACAD
1000
DSTYLE
1002
{
1002
}
  0
DIMENSION
  5
18D9F
330
18C7A
100
AcDbEntity
  8
寸法
100
AcDbDimension
  2
*D3
 10
4899.503876750603
 20
1392.494269174596
 30
0.0
 11
4899.503876750601
 21
2287.4942691746
 31
0.0
 12
-3742.925985830444
 22
-6453.628869860112
 32
0.0
 70
   128
 71
     5
 42
1790.000000000007
  3
INABA_S40G
100
AcDbAlignedDimension
 13
3886.970589276556
 23
3182.494269174604
 33
0.0
 14
3886.970589276531
 24
1392.494269174596
 34
0.0
 50
90.0
100
AcDbRotatedDimension
1001
ACAD
1000
DSTYLE
1002
{
1002
}
  0
ENDBLK
  5
18DA1
330
18C7A
100
AcDbEntity
  8
0
 48
50.0
100
AcDbBlockEnd
  0
BLOCK
  5
1C4CB
330
1C4CA
100
AcDbEntity
  8
0
 48
50.0
100
AcDbBlockBegin
  2
_NONE
 70
     0
 10
0.0
 20
0.0
 30
0.0
  3
_NONE
  1

  0
CIRCLE
  5
1C4CC
330
1C4CA
100
AcDbEntity
  8
0
  6
ByBlock
 62
     0
 48
50.0
100
AcDbCircle
 10
0.0
 20
0.0
 30
0.0
 40
0.25
  0
ENDBLK
  5
1C4CD
330
1C4CA
100
AcDbEntity
  8
0
 48
50.0
100
AcDbBlockEnd
  0
BLOCK
  5
20DEE
330
20DE2
100
AcDbEntity
  8
0
 48
50.0
100
AcDbBlockBegin
  2
*D19
 70
     1
 10
0.0
 20
0.0
 30
0.0
  3
*D19
  1

  0
LINE
  5
24935
330
20DE2
100
AcDbEntity
  8
寸法
 62
     0
 48
50.0
370
    -2
100
AcDbLine
 10
10688.6
 20
7004.525642241562
 30
0.0
 11
10688.6
 21
8002.745964300485
 31
0.0
  0
LINE
  5
24936
330
20DE2
100
AcDbEntity
  8
寸法
 62
     0
 48
50.0
370
    -2
100
AcDbLine
 10
10733.6
 20
7730.792100335474
 30
0.0
 11
10733.6
 21
8002.745964300485
 31
0.0
  0
LINE
  5
24937
330
20DE2
100
AcDbEntity
  8
寸法
 62
     0
 48
50.0
370
    -2
100
AcDbLine
 10
10688.6
 20
7942.745964300484
 30
0.0
 11
10588.6
 21
7942.745964300484
 31
0.0
  0
LINE
  5
24938
330
20DE2
100
AcDbEntity
  8
寸法
 62
     0
 48
50.0
370
    -2
100
AcDbLine
 10
10733.6
 20
7942.745964300484
 30
0.0
 11
11070.94924240492
 21
7942.745964300484
 31
0.0
  0
LINE
  5
24939
330
20DE2
100
AcDbEntity
  8
寸法
 62
     0
 48
50.0
370
    -2
100
AcDbLine
 10
10688.6
 20
7942.745964300484
 30
0.0
 11
10733.6
 21
7942.745964300484
 31
0.0
  0
INSERT
  5
2493A
330
20DE2
100
AcDbEntity
  8
寸法
 62
     0
 48
50.0
370
    -2
100
AcDbBlockReference
  2
_DOTSMALL
 10
10688.6
 20
7942.745964300484
 30
0.0
 41
100.0
 42
100.0
 43
100.0
  0
INSERT
  5
2493B
330
20DE2
100
AcDbEntity
  8
寸法
 62
     0
 48
50.0
370
    -2
100
AcDbBlockReference
  2
_DOTSMALL
 10
10733.6
 20
7942.745964300484
 30
0.0
 41
100.0
 42
100.0
 43
100.0
 50
180.0
  0
MTEXT
  5
2493C
330
20DE2
100
AcDbEntity
  8
寸法
 62
     7
 48
50.0
100
AcDbMText
 10
11004.77462120246
 20
8042.745964300484
 30
0.0
 40
120.0
 41
0.0
 71
     5
 72
     1
  1
\A1;a
  7
STYLE1
 73
     1
 44
1.0
1001
ACAD
1000
MTEXTBEGIN
1070
    73
1070
     1
1070
    44
1040
1.0
1070
    74
1070
     0
1000
MTEXTEND
  0
POINT
  5
2493D
330
20DE2
100
AcDbEntity
  8
DEFPOINTS
 62
     0
 48
50.0
100
AcDbPoint
 10
10688.6
 20
6984.525642241563
 30
0.0
  0
POINT
  5
2493E
330
20DE2
100
AcDbEntity
  8
DEFPOINTS
 62
     0
 48
50.0
100
AcDbPoint
 10
10733.6
 20
7710.792100335473
 30
0.0
  0
POINT
  5
2493F
330
20DE2
100
AcDbEntity
  8
DEFPOINTS
 62
     0
 48
50.0
100
AcDbPoint
 10
10733.6
 20
7942.745964300484
 30
0.0
  0
ENDBLK
  5
20DEF
330
20DE2
100
AcDbEntity
  8
0
 48
50.0
100
AcDbBlockEnd
  0
BLOCK
  5
20E08
330
20DFC
100
AcDbEntity
  8
0
 48
50.0
100
AcDbBlockBegin
  2
*D20
 70
     1
 10
0.0
 20
0.0
 30
0.0
  3
*D20
  1

  0
LINE
  5
2492A
330
20DFC
100
AcDbEntity
  8
寸法
 62
     0
 48
50.0
370
    -2
100
AcDbLine
 10
5713.600000000004
 20
7730.792100335475
 30
0.0
 11
5713.600000000004
 21
8002.745964300485
 31
0.0
  0
LINE
  5
2492B
330
20DFC
100
AcDbEntity
  8
寸法
 62
     0
 48
50.0
370
    -2
100
AcDbLine
 10
5758.600000000001
 20
7004.525642241562
 30
0.0
 11
5758.600000000001
 21
8002.745964300485
 31
0.0
  0
LINE
  5
2492C
330
20DFC
100
AcDbEntity
  8
寸法
 62
     0
 48
50.0
370
    -2
100
AcDbLine
 10
5758.600000000001
 20
7942.745964300484
 30
0.0
 11
5858.6
 21
7942.745964300484
 31
0.0
  0
LINE
  5
2492D
330
20DFC
100
AcDbEntity
  8
寸法
 62
     0
 48
50.0
370
    -2
100
AcDbLine
 10
5713.600000000004
 20
7942.745964300484
 30
0.0
 11
5376.250757595084
 21
7942.745964300484
 31
0.0
  0
LINE
  5
2492E
330
20DFC
100
AcDbEntity
  8
寸法
 62
     0
 48
50.0
370
    -2
100
AcDbLine
 10
5758.600000000001
 20
7942.745964300484
 30
0.0
 11
5713.600000000004
 21
7942.745964300484
 31
0.0
  0
INSERT
  5
2492F
330
20DFC
100
AcDbEntity
  8
寸法
 62
     0
 48
50.0
370
    -2
100
AcDbBlockReference
  2
_DOTSMALL
 10
5758.600000000001
 20
7942.745964300484
 30
0.0
 41
100.0
 42
100.0
 43
100.0
 50
180.0
  0
INSERT
  5
24930
330
20DFC
100
AcDbEntity
  8
寸法
 62
     0
 48
50.0
370
    -2
100
AcDbBlockReference
  2
_DOTSMALL
 10
5713.600000000004
 20
7942.745964300484
 30
0.0
 41
100.0
 42
100.0
 43
100.0
  0
MTEXT
  5
24931
330
20DFC
100
AcDbEntity
  8
寸法
 62
     7
 48
50.0
100
AcDbMText
 10
5442.425378797541
 20
8042.745964300484
 30
0.0
 40
120.0
 41
0.0
 71
     5
 72
     1
  1
\A1;a
  7
STYLE1
 73
     1
 44
1.0
1001
ACAD
1000
MTEXTBEGIN
1070
    73
1070
     1
1070
    44
1040
1.0
1070
    74
1070
     0
1000
MTEXTEND
  0
POINT
  5
24932
330
20DFC
100
AcDbEntity
  8
DEFPOINTS
 62
     0
 48
50.0
100
AcDbPoint
 10
5713.600000000004
 20
7710.792100335474
 30
0.0
  0
POINT
  5
24933
330
20DFC
100
AcDbEntity
  8
DEFPOINTS
 62
     0
 48
50.0
100
AcDbPoint
 10
5758.600000000001
 20
6984.525642241563
 30
0.0
  0
POINT
  5
24934
330
20DFC
100
AcDbEntity
  8
DEFPOINTS
 62
     0
 48
50.0
100
AcDbPoint
 10
5758.600000000001
 20
7942.745964300484
 30
0.0
  0
ENDBLK
  5
20E09
330
20DFC
100
AcDbEntity
  8
0
 48
50.0
100
AcDbBlockEnd
  0
BLOCK
  5
2274E
330
22742
100
AcDbEntity
  8
0
 48
50.0
100
AcDbBlockBegin
  2
*D21
 70
     1
 10
0.0
 20
0.0
 30
0.0
  3
*D21
  1

  0
LINE
  5
2491F
330
22742
100
AcDbEntity
  8
寸法
 62
     0
 48
50.0
370
    -2
100
AcDbLine
 10
5115.665006330072
 20
7059.52564224158
 30
0.0
 11
4823.721909610675
 21
7059.52564224158
 31
0.0
  0
LINE
  5
24920
330
22742
100
AcDbEntity
  8
寸法
 62
     0
 48
50.0
370
    -2
100
AcDbLine
 10
5605.156977762465
 20
6984.525642241576
 30
0.0
 11
4823.721909610675
 21
6984.525642241576
 31
0.0
  0
LINE
  5
24921
330
22742
100
AcDbEntity
  8
寸法
 62
     0
 48
50.0
370
    -2
100
AcDbLine
 10
4883.721909610675
 20
7059.52564224158
 30
0.0
 11
4883.721909610675
 21
7159.52564224158
 31
0.0
  0
LINE
  5
24922
330
22742
100
AcDbEntity
  8
寸法
 62
     0
 48
50.0
370
    -2
100
AcDbLine
 10
4883.721909610675
 20
6984.525642241576
 30
0.0
 11
4883.721909610675
 21
6884.525642241576
 31
0.0
  0
LINE
  5
24923
330
22742
100
AcDbEntity
  8
寸法
 62
     0
 48
50.0
370
    -2
100
AcDbLine
 10
4883.721909610675
 20
7059.52564224158
 30
0.0
 11
4883.721909610675
 21
6984.525642241576
 31
0.0
  0
INSERT
  5
24924
330
22742
100
AcDbEntity
  8
寸法
 62
     0
 48
50.0
370
    -2
100
AcDbBlockReference
  2
_DOTSMALL
 10
4883.721909610675
 20
7059.52564224158
 30
0.0
 41
100.0
 42
100.0
 43
100.0
 50
270.0
  0
INSERT
  5
24925
330
22742
100
AcDbEntity
  8
寸法
 62
     0
 48
50.0
370
    -2
100
AcDbBlockReference
  2
_DOTSMALL
 10
4883.721909610675
 20
6984.525642241576
 30
0.0
 41
100.0
 42
100.0
 43
100.0
 50
90.0
  0
MTEXT
  5
24926
330
22742
100
AcDbEntity
  8
寸法
 62
     7
 48
50.0
100
AcDbMText
 10
4783.721909610672
 20
7022.025642241579
 30
0.0
 40
120.0
 41
0.0
 71
     5
 72
     1
  1
\A1;c
  7
STYLE1
 11
0.0000000000000001
 21
1.0
 31
0.0
 73
     1
 44
1.0
1001
ACAD
1000
MTEXTBEGIN
1070
    73
1070
     1
1070
    44
1040
1.0
1070
    74
1070
     0
1000
MTEXTEND
  0
POINT
  5
24927
330
22742
100
AcDbEntity
  8
DEFPOINTS
 62
     0
 48
50.0
100
AcDbPoint
 10
5135.665006330071
 20
7059.52564224158
 30
0.0
  0
POINT
  5
24928
330
22742
100
AcDbEntity
  8
DEFPOINTS
 62
     0
 48
50.0
100
AcDbPoint
 10
5625.156977762465
 20
6984.525642241576
 30
0.0
  0
POINT
  5
24929
330
22742
100
AcDbEntity
  8
DEFPOINTS
 62
     0
 48
50.0
100
AcDbPoint
 10
4883.721909610675
 20
6984.525642241576
 30
0.0
  0
ENDBLK
  5
2274F
330
22742
100
AcDbEntity
  8
0
 48
50.0
100
AcDbBlockEnd
  0
BLOCK
  5
22768
330
2275C
100
AcDbEntity
  8
0
 48
50.0
100
AcDbBlockBegin
  2
*D22
 70
     1
 10
0.0
 20
0.0
 30
0.0
  3
*D22
  1

  0
LINE
  5
24914
330
2275C
100
AcDbEntity
  8
寸法
 62
     0
 48
50.0
370
    -2
100
AcDbLine
 10
5611.607272343894
 20
6024.525642241565
 30
0.0
 11
4823.721909610675
 21
6024.525642241565
 31
0.0
  0
LINE
  5
24915
330
2275C
100
AcDbEntity
  8
寸法
 62
     0
 48
50.0
370
    -2
100
AcDbLine
 10
5115.665006330073
 20
5969.525642241586
 30
0.0
 11
4823.721909610675
 21
5969.525642241586
 31
0.0
  0
LINE
  5
24916
330
2275C
100
AcDbEntity
  8
寸法
 62
     0
 48
50.0
370
    -2
100
AcDbLine
 10
4883.721909610675
 20
6024.525642241565
 30
0.0
 11
4883.721909610675
 21
6124.525642241565
 31
0.0
  0
LINE
  5
24917
330
2275C
100
AcDbEntity
  8
寸法
 62
     0
 48
50.0
370
    -2
100
AcDbLine
 10
4883.721909610675
 20
5969.525642241586
 30
0.0
 11
4883.721909610675
 21
5869.525642241587
 31
0.0
  0
LINE
  5
24918
330
2275C
100
AcDbEntity
  8
寸法
 62
     0
 48
50.0
370
    -2
100
AcDbLine
 10
4883.721909610675
 20
6024.525642241565
 30
0.0
 11
4883.721909610675
 21
5969.525642241586
 31
0.0
  0
INSERT
  5
24919
330
2275C
100
AcDbEntity
  8
寸法
 62
     0
 48
50.0
370
    -2
100
AcDbBlockReference
  2
_DOTSMALL
 10
4883.721909610675
 20
6024.525642241565
 30
0.0
 41
100.0
 42
100.0
 43
100.0
 50
270.0
  0
INSERT
  5
2491A
330
2275C
100
AcDbEntity
  8
寸法
 62
     0
 48
50.0
370
    -2
100
AcDbBlockReference
  2
_DOTSMALL
 10
4883.721909610675
 20
5969.525642241586
 30
0.0
 41
100.0
 42
100.0
 43
100.0
 50
90.0
  0
MTEXT
  5
2491B
330
2275C
100
AcDbEntity
  8
寸法
 62
     7
 48
50.0
100
AcDbMText
 10
4783.721909610673
 20
5997.025642241577
 30
0.0
 40
120.0
 41
0.0
 71
     5
 72
     1
  1
\A1;b
  7
STYLE1
 11
0.0000000000000001
 21
1.0
 31
0.0
 73
     1
 44
1.0
1001
ACAD
1000
MTEXTBEGIN
1070
    73
1070
     1
1070
    44
1040
1.0
1070
    74
1070
     0
1000
MTEXTEND
  0
POINT
  5
2491C
330
2275C
100
AcDbEntity
  8
DEFPOINTS
 62
     0
 48
50.0
100
AcDbPoint
 10
5631.607272343893
 20
6024.525642241565
 30
0.0
  0
POINT
  5
2491D
330
2275C
100
AcDbEntity
  8
DEFPOINTS
 62
     0
 48
50.0
100
AcDbPoint
 10
5135.665006330073
 20
5969.525642241586
 30
0.0
  0
POINT
  5
2491E
330
2275C
100
AcDbEntity
  8
DEFPOINTS
 62
     0
 48
50.0
100
AcDbPoint
 10
4883.721909610675
 20
5969.525642241586
 30
0.0
  0
ENDBLK
  5
22769
330
2275C
100
AcDbEntity
  8
0
 48
50.0
100
AcDbBlockEnd
  0
BLOCK
  5
22B65
330
22B5A
100
AcDbEntity
  8
0
 48
50.0
100
AcDbBlockBegin
  2
*D23
 70
     1
 10
0.0
 20
0.0
 30
0.0
  3
*D23
  1

  0
LINE
  5
2499E
330
22B5A
100
AcDbEntity
  8
寸法
 62
     0
 48
50.0
370
    -2
100
AcDbLine
 10
10153.6
 20
6304.525642241586
 30
0.0
 11
10031.82138901162
 21
6304.525642241586
 31
0.0
  0
LINE
  5
2499F
330
22B5A
100
AcDbEntity
  8
寸法
 62
     0
 48
50.0
370
    -2
100
AcDbLine
 10
10081.41910651595
 20
6024.525642241588
 30
0.0
 11
10151.82138901162
 21
6024.525642241588
 31
0.0
  0
LINE
  5
249A0
330
22B5A
100
AcDbEntity
  8
寸法
 62
     0
 48
50.0
370
    -2
100
AcDbLine
 10
10091.82138901162
 20
6304.525642241586
 30
0.0
 11
10091.82138901162
 21
6024.525642241588
 31
0.0
  0
LINE
  5
249A1
330
22B5A
100
AcDbEntity
  8
寸法
 62
     0
 48
50.0
370
    -2
100
AcDbLine
 10
10091.82138901162
 20
6024.525642241588
 30
0.0
 11
10091.82138901162
 21
5587.99119342269
 31
0.0
  0
INSERT
  5
249A2
330
22B5A
100
AcDbEntity
  8
寸法
 62
     0
 48
50.0
370
    -2
100
AcDbBlockReference
  2
_DOTSMALL
 10
10091.82138901162
 20
6304.525642241586
 30
0.0
 41
100.0
 42
100.0
 43
100.0
 50
90.0
  0
INSERT
  5
249A3
330
22B5A
100
AcDbEntity
  8
寸法
 62
     0
 48
50.0
370
    -2
100
AcDbBlockReference
  2
_DOTSMALL
 10
10091.82138901162
 20
6024.525642241588
 30
0.0
 41
100.0
 42
100.0
 43
100.0
 50
270.0
  0
MTEXT
  5
249A4
330
22B5A
100
AcDbEntity
  8
寸法
 62
     7
 48
50.0
100
AcDbMText
 10
9991.809577988
 20
5737.562059564424
 30
0.0
 40
120.0
 41
0.0
 71
     5
 72
     1
  1
\A1;280
  7
STYLE1
 11
0.0000000000000001
 21
1.0
 31
0.0
 73
     1
 44
1.0
1001
ACAD
1000
MTEXTBEGIN
1070
    73
1070
     1
1070
    44
1040
1.0
1070
    74
1070
     0
1000
MTEXTEND
  0
POINT
  5
249A5
330
22B5A
100
AcDbEntity
  8
DEFPOINTS
 62
     0
 48
50.0
100
AcDbPoint
 10
10173.6
 20
6304.525642241586
 30
0.0
  0
POINT
  5
249A6
330
22B5A
100
AcDbEntity
  8
DEFPOINTS
 62
     0
 48
50.0
100
AcDbPoint
 10
10061.41910651595
 20
6024.525642241588
 30
0.0
  0
POINT
  5
249A7
330
22B5A
100
AcDbEntity
  8
DEFPOINTS
 62
     0
 48
50.0
100
AcDbPoint
 10
10091.82138901162
 20
6024.525642241588
 30
0.0
  0
ENDBLK
  5
22B66
330
22B5A
100
AcDbEntity
  8
0
 48
50.0
100
AcDbBlockEnd
  0
BLOCK
  5
22B7F
330
22B74
100
AcDbEntity
  8
0
 48
50.0
100
AcDbBlockBegin
  2
*D24
 70
     1
 10
0.0
 20
0.0
 30
0.0
  3
*D24
  1

  0
LINE
  5
24900
330
22B74
100
AcDbEntity
  8
寸法
 62
     0
 48
50.0
370
    -2
100
AcDbLine
 10
10105.85634570468
 20
6984.525642241566
 30
0.0
 11
10151.82138901162
 21
6984.525642241566
 31
0.0
  0
LINE
  5
24901
330
22B74
100
AcDbEntity
  8
寸法
 62
     0
 48
50.0
370
    -2
100
AcDbLine
 10
10045.60166369304
 20
6784.52564224148
 30
0.0
 11
10151.82138901162
 21
6784.52564224148
 31
0.0
  0
LINE
  5
24902
330
22B74
100
AcDbEntity
  8
寸法
 62
     0
 48
50.0
370
    -2
100
AcDbLine
 10
10091.82138901162
 20
6784.52564224148
 30
0.0
 11
10091.82138901162
 21
6984.525642241566
 31
0.0
  0
LINE
  5
24903
330
22B74
100
AcDbEntity
  8
寸法
 62
     0
 48
50.0
370
    -2
100
AcDbLine
 10
10091.82138901162
 20
6984.525642241566
 30
0.0
 11
10091.82138901162
 21
7421.060091060464
 31
0.0
  0
INSERT
  5
24904
330
22B74
100
AcDbEntity
  8
寸法
 62
     0
 48
50.0
370
    -2
100
AcDbBlockReference
  2
_DOTSMALL
 10
10091.82138901162
 20
6784.52564224148
 30
0.0
 41
100.0
 42
100.0
 43
100.0
 50
270.0
  0
INSERT
  5
24905
330
22B74
100
AcDbEntity
  8
寸法
 62
     0
 48
50.0
370
    -2
100
AcDbBlockReference
  2
_DOTSMALL
 10
10091.82138901162
 20
6984.525642241566
 30
0.0
 41
100.0
 42
100.0
 43
100.0
 50
90.0
  0
MTEXT
  5
24906
330
22B74
100
AcDbEntity
  8
寸法
 62
     7
 48
50.0
100
AcDbMText
 10
9991.809577988002
 20
7271.489224918733
 30
0.0
 40
120.0
 41
0.0
 71
     5
 72
     1
  1
\A1;200
  7
STYLE1
 11
0.0000000000000001
 21
1.0
 31
0.0
 73
     1
 44
1.0
1001
ACAD
1000
MTEXTBEGIN
1070
    73
1070
     1
1070
    44
1040
1.0
1070
    74
1070
     0
1000
MTEXTEND
  0
POINT
  5
24907
330
22B74
100
AcDbEntity
  8
DEFPOINTS
 62
     0
 48
50.0
100
AcDbPoint
 10
10085.85634570468
 20
6984.525642241566
 30
0.0
  0
POINT
  5
24908
330
22B74
100
AcDbEntity
  8
DEFPOINTS
 62
     0
 48
50.0
100
AcDbPoint
 10
10025.60166369304
 20
6784.52564224148
 30
0.0
  0
POINT
  5
24909
330
22B74
100
AcDbEntity
  8
DEFPOINTS
 62
     0
 48
50.0
100
AcDbPoint
 10
10091.82138901162
 20
6784.52564224148
 30
0.0
  0
ENDBLK
  5
22B80
330
22B74
100
AcDbEntity
  8
0
 48
50.0
100
AcDbBlockEnd
  0
BLOCK
  5
22BA5
330
22B9A
100
AcDbEntity
  8
0
 48
50.0
100
AcDbBlockBegin
  2
*D25
 70
     1
 10
0.0
 20
0.0
 30
0.0
  3
*D25
  1

  0
LINE
  5
24D3D
330
22B9A
100
AcDbEntity
  8
寸法
 62
     0
 48
50.0
370
    -2
100
AcDbLine
 10
10688.6
 20
6649.525642241588
 30
0.0
 11
10688.6
 21
6768.917310796794
 31
0.0
  0
LINE
  5
24D3E
330
22B9A
100
AcDbEntity
  8
寸法
 62
     0
 48
50.0
370
    -2
100
AcDbLine
 10
10568.6
 20
6649.525642241647
 30
0.0
 11
10568.6
 21
6768.917310796794
 31
0.0
  0
LINE
  5
24D3F
330
22B9A
100
AcDbEntity
  8
寸法
 62
     0
 48
50.0
370
    -2
100
AcDbLine
 10
10568.6
 20
6708.917310796795
 30
0.0
 11
10688.6
 21
6708.917310796795
 31
0.0
  0
LINE
  5
24D40
330
22B9A
100
AcDbEntity
  8
寸法
 62
     0
 48
50.0
370
    -2
100
AcDbLine
 10
10688.6
 20
6708.917310796795
 30
0.0
 11
11094.7062992126
 21
6708.917310796795
 31
0.0
  0
INSERT
  5
24D41
330
22B9A
100
AcDbEntity
  8
寸法
 62
     0
 48
50.0
370
    -2
100
AcDbBlockReference
  2
_DOTSMALL
 10
10568.6
 20
6708.917310796795
 30
0.0
 41
100.0
 42
100.0
 43
100.0
 50
180.0
  0
INSERT
  5
24D42
330
22B9A
100
AcDbEntity
  8
寸法
 62
     0
 48
50.0
370
    -2
100
AcDbBlockReference
  2
_DOTSMALL
 10
10688.6
 20
6708.917310796795
 30
0.0
 41
100.0
 42
100.0
 43
100.0
  0
MTEXT
  5
24D43
330
22B9A
100
AcDbEntity
  8
寸法
 62
     7
 48
50.0
100
AcDbMText
 10
10958.65905511811
 20
6808.929121820416
 30
0.0
 40
120.0
 41
0.0
 71
     5
 72
     1
  1
\A1;120
  7
STYLE1
 73
     1
 44
1.0
1001
ACAD
1000
MTEXTBEGIN
1070
    73
1070
     1
1070
    44
1040
1.0
1070
    74
1070
     0
1000
MTEXTEND
  0
POINT
  5
24D44
330
22B9A
100
AcDbEntity
  8
DEFPOINTS
 62
     0
 48
50.0
100
AcDbPoint
 10
10688.6
 20
6629.525642241588
 30
0.0
  0
POINT
  5
24D45
330
22B9A
100
AcDbEntity
  8
DEFPOINTS
 62
     0
 48
50.0
100
AcDbPoint
 10
10568.6
 20
6629.525642241647
 30
0.0
  0
POINT
  5
24D46
330
22B9A
100
AcDbEntity
  8
DEFPOINTS
 62
     0
 48
50.0
100
AcDbPoint
 10
10568.6
 20
6708.917310796795
 30
0.0
  0
ENDBLK
  5
22BA6
330
22B9A
100
AcDbEntity
  8
0
 48
50.0
100
AcDbBlockEnd
  0
BLOCK
  5
24289
330
24280
100
AcDbEntity
  8
0
 48
50.0
100
AcDbBlockBegin
  2
*D26
 70
     1
 10
0.0
 20
0.0
 30
0.0
  3
*D26
  1

  0
LINE
  5
2486A
330
24280
100
AcDbEntity
  8
寸法
 62
     0
 48
50.0
370
    -2
100
AcDbLine
 10
8223.600000000008
 20
6574.525642241566
 30
0.0
 11
8223.600000000008
 21
7527.134458911814
 31
0.0
  0
LINE
  5
2486B
330
24280
100
AcDbEntity
  8
寸法
 62
     0
 48
50.0
370
    -2
100
AcDbLine
 10
7403.600000000007
 20
6574.525642241566
 30
0.0
 11
7403.600000000007
 21
7527.134458911814
 31
0.0
  0
LINE
  5
2486C
330
24280
100
AcDbEntity
  8
寸法
 62
     0
 48
50.0
370
    -2
100
AcDbLine
 10
8223.600000000008
 20
7467.134458911814
 30
0.0
 11
7403.600000000007
 21
7467.134458911814
 31
0.0
  0
INSERT
  5
2486D
330
24280
100
AcDbEntity
  8
寸法
 62
     0
 48
50.0
370
    -2
100
AcDbBlockReference
  2
_DOTSMALL
 10
8223.600000000008
 20
7467.134458911814
 30
0.0
 41
100.0
 42
100.0
 43
100.0
  0
INSERT
  5
2486E
330
24280
100
AcDbEntity
  8
寸法
 62
     0
 48
50.0
370
    -2
100
AcDbBlockReference
  2
_DOTSMALL
 10
7403.600000000007
 20
7467.134458911814
 30
0.0
 41
100.0
 42
100.0
 43
100.0
 50
180.0
  0
MTEXT
  5
2486F
330
24280
100
AcDbEntity
  8
寸法
 62
     7
 48
50.0
100
AcDbMText
 10
7813.600000000008
 20
7567.146269935436
 30
0.0
 40
120.0
 41
0.0
 71
     5
 72
     1
  1
\A1;820
  7
STYLE1
 73
     1
 44
1.0
1001
ACAD
1000
MTEXTBEGIN
1070
    73
1070
     1
1070
    44
1040
1.0
1070
    74
1070
     0
1000
MTEXTEND
  0
POINT
  5
24870
330
24280
100
AcDbEntity
  8
DEFPOINTS
 62
     0
 48
50.0
100
AcDbPoint
 10
8223.600000000008
 20
6554.525642241566
 30
0.0
  0
POINT
  5
24871
330
24280
100
AcDbEntity
  8
DEFPOINTS
 62
     0
 48
50.0
100
AcDbPoint
 10
7403.600000000007
 20
6554.525642241566
 30
0.0
  0
POINT
  5
24872
330
24280
100
AcDbEntity
  8
DEFPOINTS
 62
     0
 48
50.0
100
AcDbPoint
 10
7403.600000000007
 20
7467.134458911814
 30
0.0
  0
ENDBLK
  5
2428A
330
24280
100
AcDbEntity
  8
0
 48
50.0
100
AcDbBlockEnd
  0
BLOCK
  5
242A2
330
24298
100
AcDbEntity
  8
0
 48
50.0
100
AcDbBlockBegin
  2
*D27
 70
     1
 10
0.0
 20
0.0
 30
0.0
  3
*D27
  1

  0
LINE
  5
24861
330
24298
100
AcDbEntity
  8
寸法
 62
     0
 48
50.0
370
    -2
100
AcDbLine
 10
10688.6
 20
7004.525642241566
 30
0.0
 11
10688.6
 21
7527.134458911814
 31
0.0
  0
LINE
  5
24862
330
24298
100
AcDbEntity
  8
寸法
 62
     0
 48
50.0
370
    -2
100
AcDbLine
 10
9863.600000000008
 20
6574.525642241566
 30
0.0
 11
9863.600000000008
 21
7527.134458911814
 31
0.0
  0
LINE
  5
24863
330
24298
100
AcDbEntity
  8
寸法
 62
     0
 48
50.0
370
    -2
100
AcDbLine
 10
10688.6
 20
7467.134458911814
 30
0.0
 11
9863.600000000008
 21
7467.134458911814
 31
0.0
  0
INSERT
  5
24864
330
24298
100
AcDbEntity
  8
寸法
 62
     0
 48
50.0
370
    -2
100
AcDbBlockReference
  2
_DOTSMALL
 10
10688.6
 20
7467.134458911814
 30
0.0
 41
100.0
 42
100.0
 43
100.0
  0
INSERT
  5
24865
330
24298
100
AcDbEntity
  8
寸法
 62
     0
 48
50.0
370
    -2
100
AcDbBlockReference
  2
_DOTSMALL
 10
9863.600000000008
 20
7467.134458911814
 30
0.0
 41
100.0
 42
100.0
 43
100.0
 50
180.0
  0
MTEXT
  5
24866
330
24298
100
AcDbEntity
  8
寸法
 62
     7
 48
50.0
100
AcDbMText
 10
10276.1
 20
7567.146269935436
 30
0.0
 40
120.0
 41
0.0
 71
     5
 72
     1
  1
\A1;825
  7
STYLE1
 73
     1
 44
1.0
1001
ACAD
1000
MTEXTBEGIN
1070
    73
1070
     1
1070
    44
1040
1.0
1070
    74
1070
     0
1000
MTEXTEND
  0
POINT
  5
24867
330
24298
100
AcDbEntity
  8
DEFPOINTS
 62
     0
 48
50.0
100
AcDbPoint
 10
10688.6
 20
6984.525642241566
 30
0.0
  0
POINT
  5
24868
330
24298
100
AcDbEntity
  8
DEFPOINTS
 62
     0
 48
50.0
100
AcDbPoint
 10
9863.600000000008
 20
6554.525642241566
 30
0.0
  0
POINT
  5
24869
330
24298
100
AcDbEntity
  8
DEFPOINTS
 62
     0
 48
50.0
100
AcDbPoint
 10
9863.600000000008
 20
7467.134458911814
 30
0.0
  0
ENDBLK
  5
242A3
330
24298
100
AcDbEntity
  8
0
 48
50.0
100
AcDbBlockEnd
  0
BLOCK
  5
242AE
330
242A4
100
AcDbEntity
  8
0
 48
50.0
100
AcDbBlockBegin
  2
*D28
 70
     1
 10
0.0
 20
0.0
 30
0.0
  3
*D28
  1

  0
LINE
  5
24858
330
242A4
100
AcDbEntity
  8
寸法
 62
     0
 48
50.0
370
    -2
100
AcDbLine
 10
9863.600000000008
 20
6574.525642241566
 30
0.0
 11
9863.600000000008
 21
7527.134458911814
 31
0.0
  0
LINE
  5
24859
330
242A4
100
AcDbEntity
  8
寸法
 62
     0
 48
50.0
370
    -2
100
AcDbLine
 10
9043.600000000008
 20
6574.525642241566
 30
0.0
 11
9043.600000000008
 21
7527.134458911814
 31
0.0
  0
LINE
  5
2485A
330
242A4
100
AcDbEntity
  8
寸法
 62
     0
 48
50.0
370
    -2
100
AcDbLine
 10
9863.600000000008
 20
7467.134458911814
 30
0.0
 11
9043.600000000008
 21
7467.134458911814
 31
0.0
  0
INSERT
  5
2485B
330
242A4
100
AcDbEntity
  8
寸法
 62
     0
 48
50.0
370
    -2
100
AcDbBlockReference
  2
_DOTSMALL
 10
9863.600000000008
 20
7467.134458911814
 30
0.0
 41
100.0
 42
100.0
 43
100.0
  0
INSERT
  5
2485C
330
242A4
100
AcDbEntity
  8
寸法
 62
     0
 48
50.0
370
    -2
100
AcDbBlockReference
  2
_DOTSMALL
 10
9043.600000000008
 20
7467.134458911814
 30
0.0
 41
100.0
 42
100.0
 43
100.0
 50
180.0
  0
MTEXT
  5
2485D
330
242A4
100
AcDbEntity
  8
寸法
 62
     7
 48
50.0
100
AcDbMText
 10
9453.600000000006
 20
7567.146269935436
 30
0.0
 40
120.0
 41
0.0
 71
     5
 72
     1
  1
\A1;820
  7
STYLE1
 73
     1
 44
1.0
1001
ACAD
1000
MTEXTBEGIN
1070
    73
1070
     1
1070
    44
1040
1.0
1070
    74
1070
     0
1000
MTEXTEND
  0
POINT
  5
2485E
330
242A4
100
AcDbEntity
  8
DEFPOINTS
 62
     0
 48
50.0
100
AcDbPoint
 10
9863.600000000008
 20
6554.525642241566
 30
0.0
  0
POINT
  5
2485F
330
242A4
100
AcDbEntity
  8
DEFPOINTS
 62
     0
 48
50.0
100
AcDbPoint
 10
9043.600000000008
 20
6554.525642241566
 30
0.0
  0
POINT
  5
24860
330
242A4
100
AcDbEntity
  8
DEFPOINTS
 62
     0
 48
50.0
100
AcDbPoint
 10
9043.600000000008
 20
7467.134458911814
 30
0.0
  0
ENDBLK
  5
242AF
330
242A4
100
AcDbEntity
  8
0
 48
50.0
100
AcDbBlockEnd
  0
BLOCK
  5
242BB
330
242B0
100
AcDbEntity
  8
0
 48
50.0
100
AcDbBlockBegin
  2
*D29
 70
     1
 10
0.0
 20
0.0
 30
0.0
  3
*D29
  1

  0
LINE
  5
2484E
330
242B0
100
AcDbEntity
  8
寸法
 62
     0
 48
50.0
370
    -2
100
AcDbLine
 10
10688.6
 20
7004.525642241566
 30
0.0
 11
10688.6
 21
7770.792100335476
 31
0.0
  0
LINE
  5
2484F
330
242B0
100
AcDbEntity
  8
寸法
 62
     0
 48
50.0
370
    -2
100
AcDbLine
 10
10565.6
 20
6931.525642241566
 30
0.0
 11
10565.6
 21
7770.792100335476
 31
0.0
  0
LINE
  5
24850
330
242B0
100
AcDbEntity
  8
寸法
 62
     0
 48
50.0
370
    -2
100
AcDbLine
 10
10565.6
 20
7710.792100335478
 30
0.0
 11
10688.6
 21
7710.792100335478
 31
0.0
  0
LINE
  5
24851
330
242B0
100
AcDbEntity
  8
寸法
 62
     0
 48
50.0
370
    -2
100
AcDbLine
 10
10688.6
 20
7710.792100335478
 30
0.0
 11
11100.19188309203
 21
7710.792100335478
 31
0.0
  0
INSERT
  5
24852
330
242B0
100
AcDbEntity
  8
寸法
 62
     0
 48
50.0
370
    -2
100
AcDbBlockReference
  2
_DOTSMALL
 10
10565.6
 20
7710.792100335478
 30
0.0
 41
100.0
 42
100.0
 43
100.0
 50
180.0
  0
INSERT
  5
24853
330
242B0
100
AcDbEntity
  8
寸法
 62
     0
 48
50.0
370
    -2
100
AcDbBlockReference
  2
_DOTSMALL
 10
10688.6
 20
7710.792100335478
 30
0.0
 41
100.0
 42
100.0
 43
100.0
  0
MTEXT
  5
24854
330
242B0
100
AcDbEntity
  8
寸法
 62
     7
 48
50.0
100
AcDbMText
 10
10961.7066017178
 20
7810.803911359099
 30
0.0
 40
120.0
 41
0.0
 71
     5
 72
     1
  1
\A1;123
  7
STYLE1
 73
     1
 44
1.0
1001
ACAD
1000
MTEXTBEGIN
1070
    73
1070
     1
1070
    44
1040
1.0
1070
    74
1070
     0
1000
MTEXTEND
  0
POINT
  5
24855
330
242B0
100
AcDbEntity
  8
DEFPOINTS
 62
     0
 48
50.0
100
AcDbPoint
 10
10688.6
 20
6984.525642241566
 30
0.0
  0
POINT
  5
24856
330
242B0
100
AcDbEntity
  8
DEFPOINTS
 62
     0
 48
50.0
100
AcDbPoint
 10
10565.6
 20
6911.525642241565
 30
0.0
  0
POINT
  5
24857
330
242B0
100
AcDbEntity
  8
DEFPOINTS
 62
     0
 48
50.0
100
AcDbPoint
 10
10565.6
 20
7710.792100335478
 30
0.0
  0
ENDBLK
  5
242BC
330
242B0
100
AcDbEntity
  8
0
 48
50.0
100
AcDbBlockEnd
  0
BLOCK
  5
242E1
330
242D7
100
AcDbEntity
  8
0
 48
50.0
100
AcDbBlockBegin
  2
*D30
 70
     1
 10
0.0
 20
0.0
 30
0.0
  3
*D30
  1

  0
LINE
  5
248ED
330
242D7
100
AcDbEntity
  8
寸法
 62
     0
 48
50.0
370
    -2
100
AcDbLine
 10
10565.6
 20
6931.525642241566
 30
0.0
 11
10565.6
 21
7770.792100335476
 31
0.0
  0
LINE
  5
248EE
330
242D7
100
AcDbEntity
  8
寸法
 62
     0
 48
50.0
370
    -2
100
AcDbLine
 10
8105.6
 20
6931.525642241566
 30
0.0
 11
8105.6
 21
7770.792100335476
 31
0.0
  0
LINE
  5
248EF
330
242D7
100
AcDbEntity
  8
寸法
 62
     0
 48
50.0
370
    -2
100
AcDbLine
 10
10565.6
 20
7710.792100335478
 30
0.0
 11
8105.6
 21
7710.792100335478
 31
0.0
  0
INSERT
  5
248F0
330
242D7
100
AcDbEntity
  8
寸法
 62
     0
 48
50.0
370
    -2
100
AcDbBlockReference
  2
_DOTSMALL
 10
10565.6
 20
7710.792100335478
 30
0.0
 41
100.0
 42
100.0
 43
100.0
  0
INSERT
  5
248F1
330
242D7
100
AcDbEntity
  8
寸法
 62
     0
 48
50.0
370
    -2
100
AcDbBlockReference
  2
_DOTSMALL
 10
8105.6
 20
7710.792100335478
 30
0.0
 41
100.0
 42
100.0
 43
100.0
 50
180.0
  0
MTEXT
  5
248F2
330
242D7
100
AcDbEntity
  8
寸法
 62
     7
 48
50.0
100
AcDbMText
 10
9335.600000000001
 20
7810.803911359099
 30
0.0
 40
120.0
 41
0.0
 71
     5
 72
     1
  1
\A1;2460
  7
STYLE1
 73
     1
 44
1.0
1001
ACAD
1000
MTEXTBEGIN
1070
    73
1070
     1
1070
    44
1040
1.0
1070
    74
1070
     0
1000
MTEXTEND
  0
POINT
  5
248F3
330
242D7
100
AcDbEntity
  8
DEFPOINTS
 62
     0
 48
50.0
100
AcDbPoint
 10
10565.6
 20
6911.525642241565
 30
0.0
  0
POINT
  5
248F4
330
242D7
100
AcDbEntity
  8
DEFPOINTS
 62
     0
 48
50.0
100
AcDbPoint
 10
8105.6
 20
6911.525642241565
 30
0.0
  0
POINT
  5
248F5
330
242D7
100
AcDbEntity
  8
DEFPOINTS
 62
     0
 48
50.0
100
AcDbPoint
 10
8105.6
 20
7710.792100335478
 30
0.0
  0
ENDBLK
  5
242E2
330
242D7
100
AcDbEntity
  8
0
 48
50.0
100
AcDbBlockEnd
  0
BLOCK
  5
242ED
330
242E3
100
AcDbEntity
  8
0
 48
50.0
100
AcDbBlockBegin
  2
*D31
 70
     1
 10
0.0
 20
0.0
 30
0.0
  3
*D31
  1

  0
LINE
  5
248E4
330
242E3
100
AcDbEntity
  8
寸法
 62
     0
 48
50.0
370
    -2
100
AcDbLine
 10
5758.600000000001
 20
7004.525642241566
 30
0.0
 11
5758.600000000001
 21
8002.745964300485
 31
0.0
  0
LINE
  5
248E5
330
242E3
100
AcDbEntity
  8
寸法
 62
     0
 48
50.0
370
    -2
100
AcDbLine
 10
10688.6
 20
7004.525642241566
 30
0.0
 11
10688.6
 21
8002.745964300485
 31
0.0
  0
LINE
  5
248E6
330
242E3
100
AcDbEntity
  8
寸法
 62
     0
 48
50.0
370
    -2
100
AcDbLine
 10
5758.600000000001
 20
7942.745964300484
 30
0.0
 11
10688.6
 21
7942.745964300484
 31
0.0
  0
INSERT
  5
248E7
330
242E3
100
AcDbEntity
  8
寸法
 62
     0
 48
50.0
370
    -2
100
AcDbBlockReference
  2
_DOTSMALL
 10
5758.600000000001
 20
7942.745964300484
 30
0.0
 41
100.0
 42
100.0
 43
100.0
 50
180.0
  0
INSERT
  5
248E8
330
242E3
100
AcDbEntity
  8
寸法
 62
     0
 48
50.0
370
    -2
100
AcDbBlockReference
  2
_DOTSMALL
 10
10688.6
 20
7942.745964300484
 30
0.0
 41
100.0
 42
100.0
 43
100.0
  0
MTEXT
  5
248E9
330
242E3
100
AcDbEntity
  8
寸法
 62
     7
 48
50.0
100
AcDbMText
 10
8223.600000000001
 20
8042.745964300484
 30
0.0
 40
120.0
 41
0.0
 71
     5
 72
     1
  1
\A1;4930
  7
STYLE1
 73
     1
 44
1.0
1001
ACAD
1000
MTEXTBEGIN
1070
    73
1070
     1
1070
    44
1040
1.0
1070
    74
1070
     0
1000
MTEXTEND
  0
POINT
  5
248EA
330
242E3
100
AcDbEntity
  8
DEFPOINTS
 62
     0
 48
50.0
100
AcDbPoint
 10
5758.600000000001
 20
6984.525642241566
 30
0.0
  0
POINT
  5
248EB
330
242E3
100
AcDbEntity
  8
DEFPOINTS
 62
     0
 48
50.0
100
AcDbPoint
 10
10688.6
 20
6984.525642241566
 30
0.0
  0
POINT
  5
248EC
330
242E3
100
AcDbEntity
  8
DEFPOINTS
 62
     0
 48
50.0
100
AcDbPoint
 10
10688.6
 20
7942.745964300484
 30
0.0
  0
ENDBLK
  5
242EE
330
242E3
100
AcDbEntity
  8
0
 48
50.0
100
AcDbBlockEnd
  0
BLOCK
  5
242F9
330
242EF
100
AcDbEntity
  8
0
 48
50.0
100
AcDbBlockBegin
  2
*D32
 70
     1
 10
0.0
 20
0.0
 30
0.0
  3
*D32
  1

  0
LINE
  5
248DB
330
242EF
100
AcDbEntity
  8
寸法
 62
     0
 48
50.0
370
    -2
100
AcDbLine
 10
9043.600000000008
 20
6574.525642241566
 30
0.0
 11
9043.600000000008
 21
7527.134458911814
 31
0.0
  0
LINE
  5
248DC
330
242EF
100
AcDbEntity
  8
寸法
 62
     0
 48
50.0
370
    -2
100
AcDbLine
 10
8223.600000000008
 20
6574.525642241566
 30
0.0
 11
8223.600000000008
 21
7527.134458911814
 31
0.0
  0
LINE
  5
248DD
330
242EF
100
AcDbEntity
  8
寸法
 62
     0
 48
50.0
370
    -2
100
AcDbLine
 10
9043.600000000008
 20
7467.134458911814
 30
0.0
 11
8223.600000000008
 21
7467.134458911814
 31
0.0
  0
INSERT
  5
248DE
330
242EF
100
AcDbEntity
  8
寸法
 62
     0
 48
50.0
370
    -2
100
AcDbBlockReference
  2
_DOTSMALL
 10
9043.600000000008
 20
7467.134458911814
 30
0.0
 41
100.0
 42
100.0
 43
100.0
  0
INSERT
  5
248DF
330
242EF
100
AcDbEntity
  8
寸法
 62
     0
 48
50.0
370
    -2
100
AcDbBlockReference
  2
_DOTSMALL
 10
8223.600000000008
 20
7467.134458911814
 30
0.0
 41
100.0
 42
100.0
 43
100.0
 50
180.0
  0
MTEXT
  5
248E0
330
242EF
100
AcDbEntity
  8
寸法
 62
     7
 48
50.0
100
AcDbMText
 10
8633.600000000008
 20
7567.146269935436
 30
0.0
 40
120.0
 41
0.0
 71
     5
 72
     1
  1
\A1;820
  7
STYLE1
 73
     1
 44
1.0
1001
ACAD
1000
MTEXTBEGIN
1070
    73
1070
     1
1070
    44
1040
1.0
1070
    74
1070
     0
1000
MTEXTEND
  0
POINT
  5
248E1
330
242EF
100
AcDbEntity
  8
DEFPOINTS
 62
     0
 48
50.0
100
AcDbPoint
 10
9043.600000000008
 20
6554.525642241566
 30
0.0
  0
POINT
  5
248E2
330
242EF
100
AcDbEntity
  8
DEFPOINTS
 62
     0
 48
50.0
100
AcDbPoint
 10
8223.600000000008
 20
6554.525642241566
 30
0.0
  0
POINT
  5
248E3
330
242EF
100
AcDbEntity
  8
DEFPOINTS
 62
     0
 48
50.0
100
AcDbPoint
 10
8223.600000000008
 20
7467.134458911814
 30
0.0
  0
ENDBLK
  5
242FA
330
242EF
100
AcDbEntity
  8
0
 48
50.0
100
AcDbBlockEnd
  0
BLOCK
  5
24306
330
242FB
100
AcDbEntity
  8
0
 48
50.0
100
AcDbBlockBegin
  2
*D33
 70
     1
 10
0.0
 20
0.0
 30
0.0
  3
*D33
  1

  0
LINE
  5
248D1
330
242FB
100
AcDbEntity
  8
寸法
 62
     0
 48
50.0
370
    -2
100
AcDbLine
 10
6312.765475140901
 20
6024.525642241577
 30
0.0
 11
6181.285990614301
 21
6024.525642241577
 31
0.0
  0
LINE
  5
248D2
330
242FB
100
AcDbEntity
  8
寸法
 62
     0
 48
50.0
370
    -2
100
AcDbLine
 10
6513.600000000008
 20
6504.525642241566
 30
0.0
 11
6181.285990614302
 21
6504.525642241566
 31
0.0
  0
LINE
  5
248D3
330
242FB
100
AcDbEntity
  8
寸法
 62
     0
 48
50.0
370
    -2
100
AcDbLine
 10
6241.285990614302
 20
6504.525642241566
 30
0.0
 11
6241.285990614301
 21
6024.525642241577
 31
0.0
  0
LINE
  5
248D4
330
242FB
100
AcDbEntity
  8
寸法
 62
     0
 48
50.0
370
    -2
100
AcDbLine
 10
6241.285990614301
 20
6024.525642241577
 30
0.0
 11
6241.285990614301
 21
5577.919343028977
 31
0.0
  0
INSERT
  5
248D5
330
242FB
100
AcDbEntity
  8
寸法
 62
     0
 48
50.0
370
    -2
100
AcDbBlockReference
  2
_DOTSMALL
 10
6241.285990614302
 20
6504.525642241566
 30
0.0
 41
100.0
 42
100.0
 43
100.0
 50
90.0
  0
INSERT
  5
248D6
330
242FB
100
AcDbEntity
  8
寸法
 62
     0
 48
50.0
370
    -2
100
AcDbBlockReference
  2
_DOTSMALL
 10
6241.285990614301
 20
6024.525642241577
 30
0.0
 41
100.0
 42
100.0
 43
100.0
 50
270.0
  0
MTEXT
  5
248D7
330
242FB
100
AcDbEntity
  8
寸法
 62
     7
 48
50.0
100
AcDbMText
 10
6141.2859906143
 20
5731.966587123467
 30
0.0
 40
120.0
 41
0.0
 71
     5
 72
     1
  1
\A1;480
  7
STYLE1
 11
0.0000000000000001
 21
1.0
 31
0.0
 73
     1
 44
1.0
1001
ACAD
1000
MTEXTBEGIN
1070
    73
1070
     1
1070
    44
1040
1.0
1070
    74
1070
     0
1000
MTEXTEND
  0
POINT
  5
248D8
330
242FB
100
AcDbEntity
  8
DEFPOINTS
 62
     0
 48
50.0
100
AcDbPoint
 10
6332.765475140901
 20
6024.525642241577
 30
0.0
  0
POINT
  5
248D9
330
242FB
100
AcDbEntity
  8
DEFPOINTS
 62
     0
 48
50.0
100
AcDbPoint
 10
6533.600000000008
 20
6504.525642241566
 30
0.0
  0
POINT
  5
248DA
330
242FB
100
AcDbEntity
  8
DEFPOINTS
 62
     0
 48
50.0
100
AcDbPoint
 10
6241.285990614302
 20
6504.525642241566
 30
0.0
  0
ENDBLK
  5
24307
330
242FB
100
AcDbEntity
  8
0
 48
50.0
100
AcDbBlockEnd
  0
BLOCK
  5
24312
330
24308
100
AcDbEntity
  8
0
 48
50.0
100
AcDbBlockBegin
  2
*D34
 70
     1
 10
0.0
 20
0.0
 30
0.0
  3
*D34
  1

  0
LINE
  5
248C8
330
24308
100
AcDbEntity
  8
寸法
 62
     0
 48
50.0
370
    -2
100
AcDbLine
 10
5738.6
 20
6984.525642241566
 30
0.0
 11
4823.721909610675
 21
6984.525642241566
 31
0.0
  0
LINE
  5
248C9
330
24308
100
AcDbEntity
  8
寸法
 62
     0
 48
50.0
370
    -2
100
AcDbLine
 10
5738.6
 20
6024.525642241566
 30
0.0
 11
4823.721909610674
 21
6024.525642241566
 31
0.0
  0
LINE
  5
248CA
330
24308
100
AcDbEntity
  8
寸法
 62
     0
 48
50.0
370
    -2
100
AcDbLine
 10
4883.721909610675
 20
6984.525642241566
 30
0.0
 11
4883.721909610674
 21
6024.525642241566
 31
0.0
  0
INSERT
  5
248CB
330
24308
100
AcDbEntity
  8
寸法
 62
     0
 48
50.0
370
    -2
100
AcDbBlockReference
  2
_DOTSMALL
 10
4883.721909610675
 20
6984.525642241566
 30
0.0
 41
100.0
 42
100.0
 43
100.0
 50
90.0
  0
INSERT
  5
248CC
330
24308
100
AcDbEntity
  8
寸法
 62
     0
 48
50.0
370
    -2
100
AcDbBlockReference
  2
_DOTSMALL
 10
4883.721909610674
 20
6024.525642241566
 30
0.0
 41
100.0
 42
100.0
 43
100.0
 50
270.0
  0
MTEXT
  5
248CD
330
24308
100
AcDbEntity
  8
寸法
 62
     7
 48
50.0
100
AcDbMText
 10
4783.721909610672
 20
6542.025642241566
 30
0.0
 40
120.0
 41
0.0
 71
     5
 72
     1
  1
\A1;960
  7
STYLE1
 11
0.0000000000000001
 21
1.0
 31
0.0
 73
     1
 44
1.0
1001
ACAD
1000
MTEXTBEGIN
1070
    73
1070
     1
1070
    44
1040
1.0
1070
    74
1070
     0
1000
MTEXTEND
  0
POINT
  5
248CE
330
24308
100
AcDbEntity
  8
DEFPOINTS
 62
     0
 48
50.0
100
AcDbPoint
 10
5758.600000000001
 20
6984.525642241566
 30
0.0
  0
POINT
  5
248CF
330
24308
100
AcDbEntity
  8
DEFPOINTS
 62
     0
 48
50.0
100
AcDbPoint
 10
5758.600000000001
 20
6024.525642241566
 30
0.0
  0
POINT
  5
248D0
330
24308
100
AcDbEntity
  8
DEFPOINTS
 62
     0
 48
50.0
100
AcDbPoint
 10
4883.721909610674
 20
6024.525642241566
 30
0.0
  0
ENDBLK
  5
24313
330
24308
100
AcDbEntity
  8
0
 48
50.0
100
AcDbBlockEnd
  0
BLOCK
  5
2431E
330
24314
100
AcDbEntity
  8
0
 48
50.0
100
AcDbBlockBegin
  2
*D35
 70
     1
 10
0.0
 20
0.0
 30
0.0
  3
*D35
  1

  0
LINE
  5
24964
330
24314
100
AcDbEntity
  8
寸法
 62
     0
 48
50.0
370
    -2
100
AcDbLine
 10
5811.600000000001
 20
6861.525642241566
 30
0.0
 11
5075.665006330073
 21
6861.525642241566
 31
0.0
  0
LINE
  5
24965
330
24314
100
AcDbEntity
  8
寸法
 62
     0
 48
50.0
370
    -2
100
AcDbLine
 10
5811.600000000008
 20
6222.52564224157
 30
0.0
 11
5075.665006330073
 21
6222.52564224157
 31
0.0
  0
LINE
  5
24966
330
24314
100
AcDbEntity
  8
寸法
 62
     0
 48
50.0
370
    -2
100
AcDbLine
 10
5135.665006330073
 20
6861.525642241566
 30
0.0
 11
5135.665006330073
 21
6222.52564224157
 31
0.0
  0
INSERT
  5
24967
330
24314
100
AcDbEntity
  8
寸法
 62
     0
 48
50.0
370
    -2
100
AcDbBlockReference
  2
_DOTSMALL
 10
5135.665006330073
 20
6861.525642241566
 30
0.0
 41
100.0
 42
100.0
 43
100.0
 50
90.0
  0
INSERT
  5
24968
330
24314
100
AcDbEntity
  8
寸法
 62
     0
 48
50.0
370
    -2
100
AcDbBlockReference
  2
_DOTSMALL
 10
5135.665006330073
 20
6222.52564224157
 30
0.0
 41
100.0
 42
100.0
 43
100.0
 50
270.0
  0
MTEXT
  5
24969
330
24314
100
AcDbEntity
  8
寸法
 62
     7
 48
50.0
100
AcDbMText
 10
5035.665006330071
 20
6542.025642241566
 30
0.0
 40
120.0
 41
0.0
 71
     5
 72
     1
  1
\A1;639
  7
STYLE1
 11
0.0000000000000001
 21
1.0
 31
0.0
 73
     1
 44
1.0
1001
ACAD
1000
MTEXTBEGIN
1070
    73
1070
     1
1070
    44
1040
1.0
1070
    74
1070
     0
1000
MTEXTEND
  0
POINT
  5
2496A
330
24314
100
AcDbEntity
  8
DEFPOINTS
 62
     0
 48
50.0
100
AcDbPoint
 10
5831.6
 20
6861.525642241566
 30
0.0
  0
POINT
  5
2496B
330
24314
100
AcDbEntity
  8
DEFPOINTS
 62
     0
 48
50.0
100
AcDbPoint
 10
5831.600000000008
 20
6222.52564224157
 30
0.0
  0
POINT
  5
2496C
330
24314
100
AcDbEntity
  8
DEFPOINTS
 62
     0
 48
50.0
100
AcDbPoint
 10
5135.665006330073
 20
6222.52564224157
 30
0.0
  0
ENDBLK
  5
2431F
330
24314
100
AcDbEntity
  8
0
 48
50.0
100
AcDbBlockEnd
  0
BLOCK
  5
2432B
330
24320
100
AcDbEntity
  8
0
 48
50.0
100
AcDbBlockBegin
  2
*D36
 70
     1
 10
0.0
 20
0.0
 30
0.0
  3
*D36
  1

  0
LINE
  5
2495A
330
24320
100
AcDbEntity
  8
寸法
 62
     0
 48
50.0
370
    -2
100
AcDbLine
 10
5811.600000000008
 20
6222.52564224157
 30
0.0
 11
5075.665006330073
 21
6222.52564224157
 31
0.0
  0
LINE
  5
2495B
330
24320
100
AcDbEntity
  8
寸法
 62
     0
 48
50.0
370
    -2
100
AcDbLine
 10
5738.6
 20
6024.525642241566
 30
0.0
 11
5075.665006330073
 21
6024.525642241566
 31
0.0
  0
LINE
  5
2495C
330
24320
100
AcDbEntity
  8
寸法
 62
     0
 48
50.0
370
    -2
100
AcDbLine
 10
5135.665006330073
 20
6222.52564224157
 30
0.0
 11
5135.665006330071
 21
6024.525642241566
 31
0.0
  0
LINE
  5
2495D
330
24320
100
AcDbEntity
  8
寸法
 62
     0
 48
50.0
370
    -2
100
AcDbLine
 10
5135.665006330071
 20
6024.525642241566
 30
0.0
 11
5135.665006330071
 21
5552.785033569317
 31
0.0
  0
INSERT
  5
2495E
330
24320
100
AcDbEntity
  8
寸法
 62
     0
 48
50.0
370
    -2
100
AcDbBlockReference
  2
_DOTSMALL
 10
5135.665006330073
 20
6222.52564224157
 30
0.0
 41
100.0
 42
100.0
 43
100.0
 50
90.0
  0
INSERT
  5
2495F
330
24320
100
AcDbEntity
  8
寸法
 62
     0
 48
50.0
370
    -2
100
AcDbBlockReference
  2
_DOTSMALL
 10
5135.665006330071
 20
6024.525642241566
 30
0.0
 41
100.0
 42
100.0
 43
100.0
 50
270.0
  0
MTEXT
  5
24960
330
24320
100
AcDbEntity
  8
寸法
 62
     7
 48
50.0
100
AcDbMText
 10
5035.665006330071
 20
5688.994693398974
 30
0.0
 40
120.0
 41
0.0
 71
     5
 72
     1
  1
\A1;198
  7
STYLE1
 11
0.0000000000000001
 21
1.0
 31
0.0
 73
     1
 44
1.0
1001
ACAD
1000
MTEXTBEGIN
1070
    73
1070
     1
1070
    44
1040
1.0
1070
    74
1070
     0
1000
MTEXTEND
  0
POINT
  5
24961
330
24320
100
AcDbEntity
  8
DEFPOINTS
 62
     0
 48
50.0
100
AcDbPoint
 10
5831.600000000008
 20
6222.52564224157
 30
0.0
  0
POINT
  5
24962
330
24320
100
AcDbEntity
  8
DEFPOINTS
 62
     0
 48
50.0
100
AcDbPoint
 10
5758.600000000001
 20
6024.525642241566
 30
0.0
  0
POINT
  5
24963
330
24320
100
AcDbEntity
  8
DEFPOINTS
 62
     0
 48
50.0
100
AcDbPoint
 10
5135.665006330071
 20
6024.525642241566
 30
0.0
  0
ENDBLK
  5
2432C
330
24320
100
AcDbEntity
  8
0
 48
50.0
100
AcDbBlockEnd
  0
BLOCK
  5
24343
330
24339
100
AcDbEntity
  8
0
 48
50.0
100
AcDbBlockBegin
  2
*D37
 70
     1
 10
0.0
 20
0.0
 30
0.0
  3
*D37
  1

  0
LINE
  5
248AC
330
24339
100
AcDbEntity
  8
寸法
 62
     0
 48
50.0
370
    -2
100
AcDbLine
 10
5738.600000000004
 20
6024.525642241562
 30
0.0
 11
5585.512673767883
 21
6024.525642241562
 31
0.0
  0
LINE
  5
248AD
330
24339
100
AcDbEntity
  8
寸法
 62
     0
 48
50.0
370
    -2
100
AcDbLine
 10
6094.325326928809
 20
5304.525642241562
 30
0.0
 11
5585.512673767883
 21
5304.525642241562
 31
0.0
  0
LINE
  5
248AE
330
24339
100
AcDbEntity
  8
寸法
 62
     0
 48
50.0
370
    -2
100
AcDbLine
 10
5645.512673767883
 20
6024.525642241562
 30
0.0
 11
5645.512673767883
 21
5304.525642241562
 31
0.0
  0
INSERT
  5
248AF
330
24339
100
AcDbEntity
  8
寸法
 62
     0
 48
50.0
370
    -2
100
AcDbBlockReference
  2
_DOTSMALL
 10
5645.512673767883
 20
6024.525642241562
 30
0.0
 41
100.0
 42
100.0
 43
100.0
 50
90.0
  0
INSERT
  5
248B0
330
24339
100
AcDbEntity
  8
寸法
 62
     0
 48
50.0
370
    -2
100
AcDbBlockReference
  2
_DOTSMALL
 10
5645.512673767883
 20
5304.525642241562
 30
0.0
 41
100.0
 42
100.0
 43
100.0
 50
270.0
  0
MTEXT
  5
248B1
330
24339
100
AcDbEntity
  8
寸法
 62
     7
 48
50.0
100
AcDbMText
 10
5545.50086274426
 20
5664.525642241564
 30
0.0
 40
120.0
 41
0.0
 71
     5
 72
     1
  1
\A1;扉の出720
  7
STYLE1
 11
0.0000000000000001
 21
1.0
 31
0.0
 73
     1
 44
1.0
1001
ACAD
1000
MTEXTBEGIN
1070
    73
1070
     1
1070
    44
1040
1.0
1070
    74
1070
     0
1000
MTEXTEND
  0
POINT
  5
248B2
330
24339
100
AcDbEntity
  8
DEFPOINTS
 62
     0
 48
50.0
100
AcDbPoint
 10
5758.600000000004
 20
6024.525642241562
 30
0.0
  0
POINT
  5
248B3
330
24339
100
AcDbEntity
  8
DEFPOINTS
 62
     0
 48
50.0
100
AcDbPoint
 10
6114.325326928809
 20
5304.525642241562
 30
0.0
  0
POINT
  5
248B4
330
24339
100
AcDbEntity
  8
DEFPOINTS
 62
     0
 48
50.0
100
AcDbPoint
 10
5645.512673767883
 20
5304.525642241562
 30
0.0
  0
ENDBLK
  5
24344
330
24339
100
AcDbEntity
  8
0
 48
50.0
100
AcDbBlockEnd
  0
BLOCK
  5
2435D
330
24352
100
AcDbEntity
  8
0
 48
50.0
100
AcDbBlockBegin
  2
*D38
 70
     1
 10
0.0
 20
0.0
 30
0.0
  3
*D38
  1

  0
LINE
  5
248A2
330
24352
100
AcDbEntity
  8
寸法
 62
     0
 48
50.0
370
    -2
100
AcDbLine
 10
5738.6
 20
6984.525642241566
 30
0.0
 11
5075.665006330073
 21
6984.525642241566
 31
0.0
  0
LINE
  5
248A3
330
24352
100
AcDbEntity
  8
寸法
 62
     0
 48
50.0
370
    -2
100
AcDbLine
 10
5811.600000000001
 20
6861.525642241566
 30
0.0
 11
5075.665006330073
 21
6861.525642241566
 31
0.0
  0
LINE
  5
248A4
330
24352
100
AcDbEntity
  8
寸法
 62
     0
 48
50.0
370
    -2
100
AcDbLine
 10
5135.665006330073
 20
6861.525642241566
 30
0.0
 11
5135.665006330073
 21
6984.525642241566
 31
0.0
  0
LINE
  5
248A5
330
24352
100
AcDbEntity
  8
寸法
 62
     0
 48
50.0
370
    -2
100
AcDbLine
 10
5135.665006330073
 20
6984.525642241566
 30
0.0
 11
5135.665006330073
 21
7396.117525333604
 31
0.0
  0
INSERT
  5
248A6
330
24352
100
AcDbEntity
  8
寸法
 62
     0
 48
50.0
370
    -2
100
AcDbBlockReference
  2
_DOTSMALL
 10
5135.665006330073
 20
6861.525642241566
 30
0.0
 41
100.0
 42
100.0
 43
100.0
 50
270.0
  0
INSERT
  5
248A7
330
24352
100
AcDbEntity
  8
寸法
 62
     0
 48
50.0
370
    -2
100
AcDbBlockReference
  2
_DOTSMALL
 10
5135.665006330073
 20
6984.525642241566
 30
0.0
 41
100.0
 42
100.0
 43
100.0
 50
90.0
  0
MTEXT
  5
248A8
330
24352
100
AcDbEntity
  8
寸法
 62
     7
 48
50.0
100
AcDbMText
 10
5035.65319530645
 20
7257.632243959367
 30
0.0
 40
120.0
 41
0.0
 71
     5
 72
     1
  1
\A1;123
  7
STYLE1
 11
0.0000000000000001
 21
1.0
 31
0.0
 73
     1
 44
1.0
1001
ACAD
1000
MTEXTBEGIN
1070
    73
1070
     1
1070
    44
1040
1.0
1070
    74
1070
     0
1000
MTEXTEND
  0
POINT
  5
248A9
330
24352
100
AcDbEntity
  8
DEFPOINTS
 62
     0
 48
50.0
100
AcDbPoint
 10
5758.600000000001
 20
6984.525642241566
 30
0.0
  0
POINT
  5
248AA
330
24352
100
AcDbEntity
  8
DEFPOINTS
 62
     0
 48
50.0
100
AcDbPoint
 10
5831.6
 20
6861.525642241566
 30
0.0
  0
POINT
  5
248AB
330
24352
100
AcDbEntity
  8
DEFPOINTS
 62
     0
 48
50.0
100
AcDbPoint
 10
5135.665006330073
 20
6861.525642241566
 30
0.0
  0
ENDBLK
  5
2435E
330
24352
100
AcDbEntity
  8
0
 48
50.0
100
AcDbBlockEnd
  0
BLOCK
  5
24372
330
24369
100
AcDbEntity
  8
0
 48
50.0
100
AcDbBlockBegin
  2
*D39
 70
     1
 10
0.0
 20
0.0
 30
0.0
  3
*D39
  1

  0
LINE
  5
24899
330
24369
100
AcDbEntity
  8
寸法
 62
     0
 48
50.0
370
    -2
100
AcDbLine
 10
8105.6
 20
6931.525642241566
 30
0.0
 11
8105.6
 21
7770.792100335476
 31
0.0
  0
LINE
  5
2489A
330
24369
100
AcDbEntity
  8
寸法
 62
     0
 48
50.0
370
    -2
100
AcDbLine
 10
5881.6
 20
6931.525642241566
 30
0.0
 11
5881.6
 21
7770.792100335476
 31
0.0
  0
LINE
  5
2489B
330
24369
100
AcDbEntity
  8
寸法
 62
     0
 48
50.0
370
    -2
100
AcDbLine
 10
8105.6
 20
7710.792100335478
 30
0.0
 11
5881.6
 21
7710.792100335478
 31
0.0
  0
INSERT
  5
2489C
330
24369
100
AcDbEntity
  8
寸法
 62
     0
 48
50.0
370
    -2
100
AcDbBlockReference
  2
_DOTSMALL
 10
8105.6
 20
7710.792100335478
 30
0.0
 41
100.0
 42
100.0
 43
100.0
  0
INSERT
  5
2489D
330
24369
100
AcDbEntity
  8
寸法
 62
     0
 48
50.0
370
    -2
100
AcDbBlockReference
  2
_DOTSMALL
 10
5881.6
 20
7710.792100335478
 30
0.0
 41
100.0
 42
100.0
 43
100.0
 50
180.0
  0
MTEXT
  5
2489E
330
24369
100
AcDbEntity
  8
寸法
 62
     7
 48
50.0
100
AcDbMText
 10
6993.6
 20
7810.803911359099
 30
0.0
 40
120.0
 41
0.0
 71
     5
 72
     1
  1
\A1;2224
  7
STYLE1
 73
     1
 44
1.0
1001
ACAD
1000
MTEXTBEGIN
1070
    73
1070
     1
1070
    44
1040
1.0
1070
    74
1070
     0
1000
MTEXTEND
  0
POINT
  5
2489F
330
24369
100
AcDbEntity
  8
DEFPOINTS
 62
     0
 48
50.0
100
AcDbPoint
 10
8105.6
 20
6911.525642241565
 30
0.0
  0
POINT
  5
248A0
330
24369
100
AcDbEntity
  8
DEFPOINTS
 62
     0
 48
50.0
100
AcDbPoint
 10
5881.6
 20
6911.525642241565
 30
0.0
  0
POINT
  5
248A1
330
24369
100
AcDbEntity
  8
DEFPOINTS
 62
     0
 48
50.0
100
AcDbPoint
 10
5881.6
 20
7710.792100335478
 30
0.0
  0
ENDBLK
  5
24373
330
24369
100
AcDbEntity
  8
0
 48
50.0
100
AcDbBlockEnd
  0
BLOCK
  5
2437D
330
24374
100
AcDbEntity
  8
0
 48
50.0
100
AcDbBlockBegin
  2
*D40
 70
     1
 10
0.0
 20
0.0
 30
0.0
  3
*D40
  1

  0
LINE
  5
24890
330
24374
100
AcDbEntity
  8
寸法
 62
     0
 48
50.0
370
    -2
100
AcDbLine
 10
7403.600000000007
 20
6574.525642241566
 30
0.0
 11
7403.600000000007
 21
7527.134458911814
 31
0.0
  0
LINE
  5
24891
330
24374
100
AcDbEntity
  8
寸法
 62
     0
 48
50.0
370
    -2
100
AcDbLine
 10
6583.600000000008
 20
6574.525642241566
 30
0.0
 11
6583.600000000008
 21
7527.134458911814
 31
0.0
  0
LINE
  5
24892
330
24374
100
AcDbEntity
  8
寸法
 62
     0
 48
50.0
370
    -2
100
AcDbLine
 10
7403.600000000007
 20
7467.134458911814
 30
0.0
 11
6583.600000000008
 21
7467.134458911814
 31
0.0
  0
INSERT
  5
24893
330
24374
100
AcDbEntity
  8
寸法
 62
     0
 48
50.0
370
    -2
100
AcDbBlockReference
  2
_DOTSMALL
 10
7403.600000000007
 20
7467.134458911814
 30
0.0
 41
100.0
 42
100.0
 43
100.0
  0
INSERT
  5
24894
330
24374
100
AcDbEntity
  8
寸法
 62
     0
 48
50.0
370
    -2
100
AcDbBlockReference
  2
_DOTSMALL
 10
6583.600000000008
 20
7467.134458911814
 30
0.0
 41
100.0
 42
100.0
 43
100.0
 50
180.0
  0
MTEXT
  5
24895
330
24374
100
AcDbEntity
  8
寸法
 62
     7
 48
50.0
100
AcDbMText
 10
6993.600000000007
 20
7567.146269935436
 30
0.0
 40
120.0
 41
0.0
 71
     5
 72
     1
  1
\A1;820
  7
STYLE1
 73
     1
 44
1.0
1001
ACAD
1000
MTEXTBEGIN
1070
    73
1070
     1
1070
    44
1040
1.0
1070
    74
1070
     0
1000
MTEXTEND
  0
POINT
  5
24896
330
24374
100
AcDbEntity
  8
DEFPOINTS
 62
     0
 48
50.0
100
AcDbPoint
 10
7403.600000000007
 20
6554.525642241566
 30
0.0
  0
POINT
  5
24897
330
24374
100
AcDbEntity
  8
DEFPOINTS
 62
     0
 48
50.0
100
AcDbPoint
 10
6583.600000000008
 20
6554.525642241566
 30
0.0
  0
POINT
  5
24898
330
24374
100
AcDbEntity
  8
DEFPOINTS
 62
     0
 48
50.0
100
AcDbPoint
 10
6583.600000000008
 20
7467.134458911814
 30
0.0
  0
ENDBLK
  5
2437E
330
24374
100
AcDbEntity
  8
0
 48
50.0
100
AcDbBlockEnd
  0
BLOCK
  5
24389
330
2437F
100
AcDbEntity
  8
0
 48
50.0
100
AcDbBlockBegin
  2
*D41
 70
     1
 10
0.0
 20
0.0
 30
0.0
  3
*D41
  1

  0
LINE
  5
24887
330
2437F
100
AcDbEntity
  8
寸法
 62
     0
 48
50.0
370
    -2
100
AcDbLine
 10
6583.600000000008
 20
6574.525642241566
 30
0.0
 11
6583.600000000008
 21
7527.134458911814
 31
0.0
  0
LINE
  5
24888
330
2437F
100
AcDbEntity
  8
寸法
 62
     0
 48
50.0
370
    -2
100
AcDbLine
 10
5758.600000000001
 20
7004.525642241566
 30
0.0
 11
5758.600000000001
 21
7527.134458911814
 31
0.0
  0
LINE
  5
24889
330
2437F
100
AcDbEntity
  8
寸法
 62
     0
 48
50.0
370
    -2
100
AcDbLine
 10
6583.600000000008
 20
7467.134458911814
 30
0.0
 11
5758.600000000001
 21
7467.134458911814
 31
0.0
  0
INSERT
  5
2488A
330
2437F
100
AcDbEntity
  8
寸法
 62
     0
 48
50.0
370
    -2
100
AcDbBlockReference
  2
_DOTSMALL
 10
6583.600000000008
 20
7467.134458911814
 30
0.0
 41
100.0
 42
100.0
 43
100.0
  0
INSERT
  5
2488B
330
2437F
100
AcDbEntity
  8
寸法
 62
     0
 48
50.0
370
    -2
100
AcDbBlockReference
  2
_DOTSMALL
 10
5758.600000000001
 20
7467.134458911814
 30
0.0
 41
100.0
 42
100.0
 43
100.0
 50
180.0
  0
MTEXT
  5
2488C
330
2437F
100
AcDbEntity
  8
寸法
 62
     7
 48
50.0
100
AcDbMText
 10
6171.100000000004
 20
7567.146269935436
 30
0.0
 40
120.0
 41
0.0
 71
     5
 72
     1
  1
\A1;825
  7
STYLE1
 73
     1
 44
1.0
1001
ACAD
1000
MTEXTBEGIN
1070
    73
1070
     1
1070
    44
1040
1.0
1070
    74
1070
     0
1000
MTEXTEND
  0
POINT
  5
2488D
330
2437F
100
AcDbEntity
  8
DEFPOINTS
 62
     0
 48
50.0
100
AcDbPoint
 10
6583.600000000008
 20
6554.525642241566
 30
0.0
  0
POINT
  5
2488E
330
2437F
100
AcDbEntity
  8
DEFPOINTS
 62
     0
 48
50.0
100
AcDbPoint
 10
5758.600000000001
 20
6984.525642241566
 30
0.0
  0
POINT
  5
2488F
330
2437F
100
AcDbEntity
  8
DEFPOINTS
 62
     0
 48
50.0
100
AcDbPoint
 10
5758.600000000001
 20
7467.134458911814
 30
0.0
  0
ENDBLK
  5
2438A
330
2437F
100
AcDbEntity
  8
0
 48
50.0
100
AcDbBlockEnd
  0
BLOCK
  5
24396
330
2438B
100
AcDbEntity
  8
0
 48
50.0
100
AcDbBlockBegin
  2
*D42
 70
     1
 10
0.0
 20
0.0
 30
0.0
  3
*D42
  1

  0
LINE
  5
2487D
330
2438B
100
AcDbEntity
  8
寸法
 62
     0
 48
50.0
370
    -2
100
AcDbLine
 10
5881.6
 20
6931.525642241566
 30
0.0
 11
5881.6
 21
7770.792100335476
 31
0.0
  0
LINE
  5
2487E
330
2438B
100
AcDbEntity
  8
寸法
 62
     0
 48
50.0
370
    -2
100
AcDbLine
 10
5758.600000000001
 20
7004.525642241566
 30
0.0
 11
5758.600000000001
 21
7770.792100335476
 31
0.0
  0
LINE
  5
2487F
330
2438B
100
AcDbEntity
  8
寸法
 62
     0
 48
50.0
370
    -2
100
AcDbLine
 10
5881.6
 20
7710.792100335478
 30
0.0
 11
5758.600000000001
 21
7710.792100335478
 31
0.0
  0
LINE
  5
24880
330
2438B
100
AcDbEntity
  8
寸法
 62
     0
 48
50.0
370
    -2
100
AcDbLine
 10
5758.600000000001
 20
7710.792100335478
 30
0.0
 11
5347.008116907963
 21
7710.792100335478
 31
0.0
  0
INSERT
  5
24881
330
2438B
100
AcDbEntity
  8
寸法
 62
     0
 48
50.0
370
    -2
100
AcDbBlockReference
  2
_DOTSMALL
 10
5881.6
 20
7710.792100335478
 30
0.0
 41
100.0
 42
100.0
 43
100.0
  0
INSERT
  5
24882
330
2438B
100
AcDbEntity
  8
寸法
 62
     0
 48
50.0
370
    -2
100
AcDbBlockReference
  2
_DOTSMALL
 10
5758.600000000001
 20
7710.792100335478
 30
0.0
 41
100.0
 42
100.0
 43
100.0
 50
180.0
  0
MTEXT
  5
24883
330
2438B
100
AcDbEntity
  8
寸法
 62
     7
 48
50.0
100
AcDbMText
 10
5485.493398282202
 20
7810.803911359099
 30
0.0
 40
120.0
 41
0.0
 71
     5
 72
     1
  1
\A1;123
  7
STYLE1
 73
     1
 44
1.0
1001
ACAD
1000
MTEXTBEGIN
1070
    73
1070
     1
1070
    44
1040
1.0
1070
    74
1070
     0
1000
MTEXTEND
  0
POINT
  5
24884
330
2438B
100
AcDbEntity
  8
DEFPOINTS
 62
     0
 48
50.0
100
AcDbPoint
 10
5881.6
 20
6911.525642241565
 30
0.0
  0
POINT
  5
24885
330
2438B
100
AcDbEntity
  8
DEFPOINTS
 62
     0
 48
50.0
100
AcDbPoint
 10
5758.600000000001
 20
6984.525642241566
 30
0.0
  0
POINT
  5
24886
330
2438B
100
AcDbEntity
  8
DEFPOINTS
 62
     0
 48
50.0
100
AcDbPoint
 10
5758.600000000001
 20
7710.792100335478
 30
0.0
  0
ENDBLK
  5
24397
330
2438B
100
AcDbEntity
  8
0
 48
50.0
100
AcDbBlockEnd
  0
BLOCK
  5
243B0
330
243A5
100
AcDbEntity
  8
0
 48
50.0
100
AcDbBlockBegin
  2
*D43
 70
     1
 10
0.0
 20
0.0
 30
0.0
  3
*D43
  1

  0
LINE
  5
24873
330
243A5
100
AcDbEntity
  8
寸法
 62
     0
 48
50.0
370
    -2
100
AcDbLine
 10
6513.600000000008
 20
6504.525642241566
 30
0.0
 11
6181.285990614302
 21
6504.525642241566
 31
0.0
  0
LINE
  5
24874
330
243A5
100
AcDbEntity
  8
寸法
 62
     0
 48
50.0
370
    -2
100
AcDbLine
 10
6312.765475140901
 20
6984.525642241566
 30
0.0
 11
6181.285990614302
 21
6984.525642241566
 31
0.0
  0
LINE
  5
24875
330
243A5
100
AcDbEntity
  8
寸法
 62
     0
 48
50.0
370
    -2
100
AcDbLine
 10
6241.285990614302
 20
6504.525642241566
 30
0.0
 11
6241.285990614302
 21
6984.525642241566
 31
0.0
  0
LINE
  5
24876
330
243A5
100
AcDbEntity
  8
寸法
 62
     0
 48
50.0
370
    -2
100
AcDbLine
 10
6241.285990614302
 20
6984.525642241566
 30
0.0
 11
6241.285990614302
 21
7431.131941454165
 31
0.0
  0
INSERT
  5
24877
330
243A5
100
AcDbEntity
  8
寸法
 62
     0
 48
50.0
370
    -2
100
AcDbBlockReference
  2
_DOTSMALL
 10
6241.285990614302
 20
6504.525642241566
 30
0.0
 41
100.0
 42
100.0
 43
100.0
 50
270.0
  0
INSERT
  5
24878
330
243A5
100
AcDbEntity
  8
寸法
 62
     0
 48
50.0
370
    -2
100
AcDbBlockReference
  2
_DOTSMALL
 10
6241.285990614302
 20
6984.525642241566
 30
0.0
 41
100.0
 42
100.0
 43
100.0
 50
90.0
  0
MTEXT
  5
24879
330
243A5
100
AcDbEntity
  8
寸法
 62
     7
 48
50.0
100
AcDbMText
 10
6141.2859906143
 20
7277.084697359679
 30
0.0
 40
120.0
 41
0.0
 71
     5
 72
     1
  1
\A1;480
  7
STYLE1
 11
0.0000000000000001
 21
1.0
 31
0.0
 73
     1
 44
1.0
1001
ACAD
1000
MTEXTBEGIN
1070
    73
1070
     1
1070
    44
1040
1.0
1070
    74
1070
     0
1000
MTEXTEND
  0
POINT
  5
2487A
330
243A5
100
AcDbEntity
  8
DEFPOINTS
 62
     0
 48
50.0
100
AcDbPoint
 10
6533.600000000008
 20
6504.525642241566
 30
0.0
  0
POINT
  5
2487B
330
243A5
100
AcDbEntity
  8
DEFPOINTS
 62
     0
 48
50.0
100
AcDbPoint
 10
6332.765475140901
 20
6984.525642241566
 30
0.0
  0
POINT
  5
2487C
330
243A5
100
AcDbEntity
  8
DEFPOINTS
 62
     0
 48
50.0
100
AcDbPoint
 10
6241.285990614302
 20
6984.525642241566
 30
0.0
  0
ENDBLK
  5
243B1
330
243A5
100
AcDbEntity
  8
0
 48
50.0
100
AcDbBlockEnd
  0
BLOCK
  5
24CBC
330
24CB2
100
AcDbEntity
  8
0
 48
50.0
100
AcDbBlockBegin
  2
*D44
 70
     1
 10
0.0
 20
0.0
 30
0.0
  3
*D44
  1

  0
LINE
  5
24CFC
330
24CB2
100
AcDbEntity
  8
寸法
 62
     0
 48
50.0
370
    -2
100
AcDbLine
 10
6312.872897278804
 20
1957.278006572263
 30
0.0
 11
6312.872897278804
 21
2416.945814488644
 31
0.0
  0
LINE
  5
24CFD
330
24CB2
100
AcDbEntity
  8
寸法
 62
     0
 48
50.0
370
    -2
100
AcDbLine
 10
6120.872897278804
 20
1957.278006572263
 30
0.0
 11
6120.872897278804
 21
2416.945814488644
 31
0.0
  0
LINE
  5
24CFE
330
24CB2
100
AcDbEntity
  8
寸法
 62
     0
 48
50.0
370
    -2
100
AcDbLine
 10
6312.872897278804
 20
2356.945814488644
 30
0.0
 11
6120.872897278804
 21
2356.945814488644
 31
0.0
  0
INSERT
  5
24CFF
330
24CB2
100
AcDbEntity
  8
寸法
 62
     0
 48
50.0
370
    -2
100
AcDbBlockReference
  2
_DOTSMALL
 10
6312.872897278804
 20
2356.945814488644
 30
0.0
 41
100.0
 42
100.0
 43
100.0
  0
INSERT
  5
24D00
330
24CB2
100
AcDbEntity
  8
寸法
 62
     0
 48
50.0
370
    -2
100
AcDbBlockReference
  2
_DOTSMALL
 10
6120.872897278804
 20
2356.945814488644
 30
0.0
 41
100.0
 42
100.0
 43
100.0
 50
180.0
  0
MTEXT
  5
24D01
330
24CB2
100
AcDbEntity
  8
寸法
 62
     7
 48
50.0
100
AcDbMText
 10
6216.872897278804
 20
2656.98124755951
 30
0.0
 40
120.0
 41
0.0
 71
     5
 72
     1
  1
\A1;120\P200\P280
  7
STYLE1
 73
     1
 44
1.0
1001
ACAD
1000
MTEXTBEGIN
1070
    73
1070
     1
1070
    44
1040
1.0
1070
    74
1070
     0
1000
MTEXTEND
  0
POINT
  5
24D02
330
24CB2
100
AcDbEntity
  8
DEFPOINTS
 62
     0
 48
50.0
100
AcDbPoint
 10
6312.872897278804
 20
1937.278006572263
 30
0.0
  0
POINT
  5
24D03
330
24CB2
100
AcDbEntity
  8
DEFPOINTS
 62
     0
 48
50.0
100
AcDbPoint
 10
6120.872897278804
 20
1937.278006572263
 30
0.0
  0
POINT
  5
24D04
330
24CB2
100
AcDbEntity
  8
DEFPOINTS
 62
     0
 48
50.0
100
AcDbPoint
 10
6120.872897278804
 20
2356.945814488644
 30
0.0
  0
ENDBLK
  5
24CBD
330
24CB2
100
AcDbEntity
  8
0
 48
50.0
100
AcDbBlockEnd
  0
BLOCK
  5
24CC8
330
24CBE
100
AcDbEntity
  8
0
 48
50.0
100
AcDbBlockBegin
  2
*D45
 70
     1
 10
0.0
 20
0.0
 30
0.0
  3
*D45
  1

  0
LINE
  5
24D05
330
24CBE
100
AcDbEntity
  8
寸法
 62
     0
 48
50.0
370
    -2
100
AcDbLine
 10
5992.872897278804
 20
1005.278006572263
 30
0.0
 11
5992.872897278804
 21
554.8483685671035
 31
0.0
  0
LINE
  5
24D06
330
24CBE
100
AcDbEntity
  8
寸法
 62
     0
 48
50.0
370
    -2
100
AcDbLine
 10
6440.872897278804
 20
1005.278006572263
 30
0.0
 11
6440.872897278804
 21
554.8483685671035
 31
0.0
  0
LINE
  5
24D07
330
24CBE
100
AcDbEntity
  8
寸法
 62
     0
 48
50.0
370
    -2
100
AcDbLine
 10
5992.872897278804
 20
614.8483685671035
 30
0.0
 11
6440.872897278804
 21
614.8483685671035
 31
0.0
  0
INSERT
  5
24D08
330
24CBE
100
AcDbEntity
  8
寸法
 62
     0
 48
50.0
370
    -2
100
AcDbBlockReference
  2
_DOTSMALL
 10
5992.872897278804
 20
614.8483685671035
 30
0.0
 41
100.0
 42
100.0
 43
100.0
 50
180.0
  0
INSERT
  5
24D09
330
24CBE
100
AcDbEntity
  8
寸法
 62
     0
 48
50.0
370
    -2
100
AcDbBlockReference
  2
_DOTSMALL
 10
6440.872897278804
 20
614.8483685671035
 30
0.0
 41
100.0
 42
100.0
 43
100.0
  0
MTEXT
  5
24D0A
330
24CBE
100
AcDbEntity
  8
寸法
 62
     7
 48
50.0
100
AcDbMText
 10
6196.77613860058
 20
714.8483685671035
 30
0.0
 40
120.0
 41
0.0
 71
     5
 72
     1
  1
\A1;300
  7
STYLE1
 73
     1
 44
1.0
1001
ACAD
1000
MTEXTBEGIN
1070
    73
1070
     1
1070
    44
1040
1.0
1070
    74
1070
     0
1000
MTEXTEND
  0
POINT
  5
24D0B
330
24CBE
100
AcDbEntity
  8
DEFPOINTS
 62
     0
 48
50.0
100
AcDbPoint
 10
5992.872897278804
 20
1025.278006572263
 30
0.0
  0
POINT
  5
24D0C
330
24CBE
100
AcDbEntity
  8
DEFPOINTS
 62
     0
 48
50.0
100
AcDbPoint
 10
6440.872897278804
 20
1025.278006572263
 30
0.0
  0
POINT
  5
24D0D
330
24CBE
100
AcDbEntity
  8
DEFPOINTS
 62
     0
 48
50.0
100
AcDbPoint
 10
6440.872897278804
 20
614.8483685671035
 30
0.0
  0
ENDBLK
  5
24CC9
330
24CBE
100
AcDbEntity
  8
0
 48
50.0
100
AcDbBlockEnd
  0
BLOCK
  5
24CD4
330
24CCA
100
AcDbEntity
  8
0
 48
50.0
100
AcDbBlockBegin
  2
*D46
 70
     1
 10
0.0
 20
0.0
 30
0.0
  3
*D46
  1

  0
LINE
  5
24D0E
330
24CCA
100
AcDbEntity
  8
寸法
 62
     0
 48
50.0
370
    -2
100
AcDbLine
 10
6100.872897278804
 20
1937.278006572263
 30
0.0
 11
5325.835658717064
 21
1937.278006572264
 31
0.0
  0
LINE
  5
24D0F
330
24CCA
100
AcDbEntity
  8
寸法
 62
     0
 48
50.0
370
    -2
100
AcDbLine
 10
5892.872897278808
 20
1153.278006572263
 30
0.0
 11
5325.835658717064
 21
1153.278006572264
 31
0.0
  0
LINE
  5
24D10
330
24CCA
100
AcDbEntity
  8
寸法
 62
     0
 48
50.0
370
    -2
100
AcDbLine
 10
5385.835658717064
 20
1937.278006572264
 30
0.0
 11
5385.835658717064
 21
1153.278006572264
 31
0.0
  0
INSERT
  5
24D11
330
24CCA
100
AcDbEntity
  8
寸法
 62
     0
 48
50.0
370
    -2
100
AcDbBlockReference
  2
_DOTSMALL
 10
5385.835658717064
 20
1937.278006572264
 30
0.0
 41
100.0
 42
100.0
 43
100.0
 50
90.0
  0
INSERT
  5
24D12
330
24CCA
100
AcDbEntity
  8
寸法
 62
     0
 48
50.0
370
    -2
100
AcDbBlockReference
  2
_DOTSMALL
 10
5385.835658717064
 20
1153.278006572264
 30
0.0
 41
100.0
 42
100.0
 43
100.0
 50
270.0
  0
MTEXT
  5
24D13
330
24CCA
100
AcDbEntity
  8
寸法
 62
     7
 48
50.0
100
AcDbMText
 10
5285.835658717064
 20
1524.818156228264
 30
0.0
 40
120.0
 41
0.0
 71
     5
 72
     1
  1
\A1;540
  7
STYLE1
 11
0.0000000000000001
 21
1.0
 31
0.0
 73
     1
 44
1.0
1001
ACAD
1000
MTEXTBEGIN
1070
    73
1070
     1
1070
    44
1040
1.0
1070
    74
1070
     0
1000
MTEXTEND
  0
POINT
  5
24D14
330
24CCA
100
AcDbEntity
  8
DEFPOINTS
 62
     0
 48
50.0
100
AcDbPoint
 10
6120.872897278804
 20
1937.278006572263
 30
0.0
  0
POINT
  5
24D15
330
24CCA
100
AcDbEntity
  8
DEFPOINTS
 62
     0
 48
50.0
100
AcDbPoint
 10
5912.872897278807
 20
1153.278006572263
 30
0.0
  0
POINT
  5
24D16
330
24CCA
100
AcDbEntity
  8
DEFPOINTS
 62
     0
 48
50.0
100
AcDbPoint
 10
5385.835658717064
 20
1153.278006572264
 30
0.0
  0
ENDBLK
  5
24CD5
330
24CCA
100
AcDbEntity
  8
0
 48
50.0
100
AcDbBlockEnd
  0
BLOCK
  5
24CE0
330
24CD6
100
AcDbEntity
  8
0
 48
50.0
100
AcDbBlockBegin
  2
*D47
 70
     1
 10
0.0
 20
0.0
 30
0.0
  3
*D47
  1

  0
LINE
  5
24D17
330
24CD6
100
AcDbEntity
  8
寸法
 62
     0
 48
50.0
370
    -2
100
AcDbLine
 10
5972.872897278804
 20
1393.278006572264
 30
0.0
 11
5790.452583546344
 21
1393.278006572264
 31
0.0
  0
LINE
  5
24D18
330
24CD6
100
AcDbEntity
  8
寸法
 62
     0
 48
50.0
370
    -2
100
AcDbLine
 10
5892.872897278808
 20
1153.278006572263
 30
0.0
 11
5790.452583546344
 21
1153.278006572263
 31
0.0
  0
LINE
  5
24D19
330
24CD6
100
AcDbEntity
  8
寸法
 62
     0
 48
50.0
370
    -2
100
AcDbLine
 10
5850.452583546345
 20
1393.278006572264
 30
0.0
 11
5850.452583546345
 21
1153.278006572263
 31
0.0
  0
INSERT
  5
24D1A
330
24CD6
100
AcDbEntity
  8
寸法
 62
     0
 48
50.0
370
    -2
100
AcDbBlockReference
  2
_DOTSMALL
 10
5850.452583546345
 20
1393.278006572264
 30
0.0
 41
100.0
 42
100.0
 43
100.0
 50
90.0
  0
INSERT
  5
24D1B
330
24CD6
100
AcDbEntity
  8
寸法
 62
     0
 48
50.0
370
    -2
100
AcDbBlockReference
  2
_DOTSMALL
 10
5850.452583546345
 20
1153.278006572263
 30
0.0
 41
100.0
 42
100.0
 43
100.0
 50
270.0
  0
MTEXT
  5
24D1C
330
24CD6
100
AcDbEntity
  8
寸法
 62
     7
 48
50.0
100
AcDbMText
 10
5750.452583546344
 20
1273.278006572264
 30
0.0
 40
120.0
 41
0.0
 71
     5
 72
     1
  1
\A1;150
  7
STYLE1
 11
0.0000000000000001
 21
1.0
 31
0.0
 73
     1
 44
1.0
1001
ACAD
1000
MTEXTBEGIN
1070
    73
1070
     1
1070
    44
1040
1.0
1070
    74
1070
     0
1000
MTEXTEND
  0
POINT
  5
24D1D
330
24CD6
100
AcDbEntity
  8
DEFPOINTS
 62
     0
 48
50.0
100
AcDbPoint
 10
5992.872897278804
 20
1393.278006572264
 30
0.0
  0
POINT
  5
24D1E
330
24CD6
100
AcDbEntity
  8
DEFPOINTS
 62
     0
 48
50.0
100
AcDbPoint
 10
5912.872897278807
 20
1153.278006572263
 30
0.0
  0
POINT
  5
24D1F
330
24CD6
100
AcDbEntity
  8
DEFPOINTS
 62
     0
 48
50.0
100
AcDbPoint
 10
5850.452583546345
 20
1153.278006572263
 30
0.0
  0
ENDBLK
  5
24CE1
330
24CD6
100
AcDbEntity
  8
0
 48
50.0
100
AcDbBlockEnd
  0
BLOCK
  5
24CEE
330
24CE2
100
AcDbEntity
  8
0
 48
50.0
100
AcDbBlockBegin
  2
*D48
 70
     1
 10
0.0
 20
0.0
 30
0.0
  3
*D48
  1

  0
LINE
  5
24D20
330
24CE2
100
AcDbEntity
  8
寸法
 62
     0
 48
50.0
370
    -2
100
AcDbLine
 10
8067.712210455999
 20
1990.038006572264
 30
0.0
 11
9072.835476343868
 21
1990.038006572264
 31
0.0
  0
LINE
  5
24D21
330
24CE2
100
AcDbEntity
  8
寸法
 62
     0
 48
50.0
370
    -2
100
AcDbLine
 10
8254.912210455996
 20
1937.278006572263
 30
0.0
 11
9072.835476343868
 21
1937.278006572263
 31
0.0
  0
LINE
  5
24D22
330
24CE2
100
AcDbEntity
  8
寸法
 62
     0
 48
50.0
370
    -2
100
AcDbLine
 10
9012.83547634387
 20
1990.038006572264
 30
0.0
 11
9012.83547634387
 21
2090.038006572265
 31
0.0
  0
LINE
  5
24D23
330
24CE2
100
AcDbEntity
  8
寸法
 62
     0
 48
50.0
370
    -2
100
AcDbLine
 10
9012.83547634387
 20
1937.278006572263
 30
0.0
 11
9012.83547634387
 21
1205.260199729297
 31
0.0
  0
LINE
  5
24D24
330
24CE2
100
AcDbEntity
  8
寸法
 62
     0
 48
50.0
370
    -2
100
AcDbLine
 10
9012.83547634387
 20
1990.038006572264
 30
0.0
 11
9012.83547634387
 21
1937.278006572263
 31
0.0
  0
INSERT
  5
24D25
330
24CE2
100
AcDbEntity
  8
寸法
 62
     0
 48
50.0
370
    -2
100
AcDbBlockReference
  2
_DOTSMALL
 10
9012.83547634387
 20
1990.038006572264
 30
0.0
 41
100.0
 42
100.0
 43
100.0
 50
270.0
  0
INSERT
  5
24D26
330
24CE2
100
AcDbEntity
  8
寸法
 62
     0
 48
50.0
370
    -2
100
AcDbBlockReference
  2
_DOTSMALL
 10
9012.83547634387
 20
1937.278006572263
 30
0.0
 41
100.0
 42
100.0
 43
100.0
 50
90.0
  0
MTEXT
  5
24D27
330
24CE2
100
AcDbEntity
  8
寸法
 62
     7
 48
50.0
100
AcDbMText
 10
8912.823665320248
 20
1471.269103150781
 30
0.0
 40
120.0
 41
0.0
 71
     5
 72
     1
  1
\A1;20～25
  7
STYLE1
 11
0.0000000000000001
 21
1.0
 31
0.0
 73
     1
 44
1.0
1001
ACAD
1000
MTEXTBEGIN
1070
    73
1070
     1
1070
    44
1040
1.0
1070
    74
1070
     0
1000
MTEXTEND
  0
POINT
  5
24D28
330
24CE2
100
AcDbEntity
  8
DEFPOINTS
 62
     0
 48
50.0
100
AcDbPoint
 10
8047.712210455998
 20
1990.038006572264
 30
0.0
  0
POINT
  5
24D29
330
24CE2
100
AcDbEntity
  8
DEFPOINTS
 62
     0
 48
50.0
100
AcDbPoint
 10
8234.912210455998
 20
1937.278006572263
 30
0.0
  0
POINT
  5
24D2A
330
24CE2
100
AcDbEntity
  8
DEFPOINTS
 62
     0
 48
50.0
100
AcDbPoint
 10
9012.83547634387
 20
1937.278006572263
 30
0.0
  0
ENDBLK
  5
24CEF
330
24CE2
100
AcDbEntity
  8
0
 48
50.0
100
AcDbBlockEnd
  0
BLOCK
  5
24CFA
330
24CF0
100
AcDbEntity
  8
0
 48
50.0
100
AcDbBlockBegin
  2
*D49
 70
     1
 10
0.0
 20
0.0
 30
0.0
  3
*D49
  1

  0
LINE
  5
24D2B
330
24CF0
100
AcDbEntity
  8
寸法
 62
     0
 48
50.0
370
    -2
100
AcDbLine
 10
8254.912210455996
 20
1937.278006572263
 30
0.0
 11
8796.780810224843
 21
1937.278006572263
 31
0.0
  0
LINE
  5
24D2C
330
24CF0
100
AcDbEntity
  8
寸法
 62
     0
 48
50.0
370
    -2
100
AcDbLine
 10
8254.912210455996
 20
1613.278006572263
 30
0.0
 11
8796.780810224843
 21
1613.278006572262
 31
0.0
  0
LINE
  5
24D2D
330
24CF0
100
AcDbEntity
  8
寸法
 62
     0
 48
50.0
370
    -2
100
AcDbLine
 10
8736.780810224841
 20
1937.278006572263
 30
0.0
 11
8736.780810224841
 21
1613.278006572262
 31
0.0
  0
INSERT
  5
24D2E
330
24CF0
100
AcDbEntity
  8
寸法
 62
     0
 48
50.0
370
    -2
100
AcDbBlockReference
  2
_DOTSMALL
 10
8736.780810224841
 20
1937.278006572263
 30
0.0
 41
100.0
 42
100.0
 43
100.0
 50
90.0
  0
INSERT
  5
24D2F
330
24CF0
100
AcDbEntity
  8
寸法
 62
     0
 48
50.0
370
    -2
100
AcDbBlockReference
  2
_DOTSMALL
 10
8736.780810224841
 20
1613.278006572262
 30
0.0
 41
100.0
 42
100.0
 43
100.0
 50
270.0
  0
MTEXT
  5
24D30
330
24CF0
100
AcDbEntity
  8
寸法
 62
     7
 48
50.0
100
AcDbMText
 10
8636.780810224841
 20
1775.278006572264
 30
0.0
 40
120.0
 41
0.0
 71
     5
 72
     1
  1
\A1;180
  7
STYLE1
 11
0.0000000000000001
 21
1.0
 31
0.0
 73
     1
 44
1.0
1001
ACAD
1000
MTEXTBEGIN
1070
    73
1070
     1
1070
    44
1040
1.0
1070
    74
1070
     0
1000
MTEXTEND
  0
POINT
  5
24D31
330
24CF0
100
AcDbEntity
  8
DEFPOINTS
 62
     0
 48
50.0
100
AcDbPoint
 10
8234.912210455998
 20
1937.278006572263
 30
0.0
  0
POINT
  5
24D32
330
24CF0
100
AcDbEntity
  8
DEFPOINTS
 62
     0
 48
50.0
100
AcDbPoint
 10
8234.912210455998
 20
1613.278006572263
 30
0.0
  0
POINT
  5
24D33
330
24CF0
100
AcDbEntity
  8
DEFPOINTS
 62
     0
 48
50.0
100
AcDbPoint
 10
8736.780810224841
 20
1613.278006572262
 30
0.0
  0
ENDBLK
  5
24CFB
330
24CF0
100
AcDbEntity
  8
0
 48
50.0
100
AcDbBlockEnd
  0
ENDSEC
  0
SECTION
  2
ENTITIES
  0
MTEXT
  5
763F
330
747D
100
AcDbEntity
  8
0
100
AcDbMText
 10
302.846345836809
 20
280.1983726409901
 30
0.0
 40
3.5
 41
5.323721266742722
 71
     1
 72
     5
  1

  7
MSMINCHO
 73
     1
 44
1.0
1001
ACAD
1000
MTEXTBEGIN
1070
    73
1070
     1
1070
    44
1040
1.0
1070
    74
1070
     0
1000
MTEXTEND
  0
LINE
  5
10B57
330
747D
100
AcDbEntity
  8
補助
  6
PHANTOM
 62
   230
 48
50.0
100
AcDbLine
 10
139.9999999999995
 20
11409.6
 30
0.0
 11
16307.2
 21
11409.6
 31
0.0
  0
LINE
  5
10B59
330
747D
100
AcDbEntity
  8
仕様書枠
  6
Continuous
 48
50.0
100
AcDbLine
 10
13107.2
 20
1200.0
 30
0.0
 11
13107.2
 21
-0.0000000000000729
 31
0.0
  0
LINE
  5
10B5D
330
747D
100
AcDbEntity
  8
仕様書枠
 48
50.0
100
AcDbLine
 10
140.0
 20
0.0
 30
0.0
 11
16307.2
 21
-0.0000000000000909
 31
0.0
  0
LINE
  5
10B5E
330
747D
100
AcDbEntity
  8
補助
  6
PHANTOM
 62
   230
 48
50.0
100
AcDbLine
 10
16307.2
 20
11409.6
 30
0.0
 11
16307.2
 21
1200.0
 31
0.0
  0
LINE
  5
10B6C
330
747D
100
AcDbEntity
  8
仕様書枠
 48
50.0
100
AcDbLine
 10
13107.2
 20
1200.0
 30
0.0
 11
16307.2
 21
1200.0
 31
0.0
  0
TEXT
  5
10B73
330
747D
100
AcDbEntity
  8
文字
 62
     7
 48
50.0
100
AcDbText
 10
13162.9790565769
 20
895.0906074299405
 30
0.0
 40
200.0
  1
基 礎 図
  7
STYLE2
100
AcDbText
  0
LINE
  5
10B7B
330
747D
100
AcDbEntity
  8
仕様書枠
 48
50.0
100
AcDbLine
 10
13107.2
 20
800.0
 30
0.0
 11
14251.2
 21
800.0
 31
0.0
  0
LINE
  5
10B88
330
747D
100
AcDbEntity
  8
仕様書枠
  6
Continuous
 48
50.0
100
AcDbLine
 10
14251.2
 20
1200.0
 30
0.0
 11
14251.2
 21
800.0
 31
0.0
  0
LINE
  5
16462
330
747D
100
AcDbEntity
  8
仕様書枠
 48
50.0
100
AcDbLine
 10
16307.2
 20
1200.0
 30
0.0
 11
16307.2
 21
-0.0000000000000909
 31
0.0
  0
LINE
  5
1903B
330
747D
100
AcDbEntity
  8
補助
  6
PHANTOM
 62
   230
 48
50.0
100
AcDbLine
 10
140.0
 20
0.0
 30
0.0
 11
139.9999999999995
 21
11409.6
 31
0.0
  0
LEADER
  5
1AC27
330
747D
100
AcDbEntity
  8
寸法
 48
50.0
100
AcDbLeader
  3
INABA_S50G
 73
     0
 74
     0
 75
     1
 40
120.0
 41
720.0000000000001
 76
     3
 10
10688.69549961499
 20
6588.629093428747
 30
0.0
 10
10845.46907400128
 20
6327.615179860914
 30
0.0
 10
10970.46907400128
 20
6327.615179860914
 30
0.0
340
1AC28
1001
ACAD
1000
DSTYLE
1002
{
1070
   341
1005
0
1070
    40
1040
1.0
1070
   343
1005
0
1070
   344
1005
0
1002
}
  0
MTEXT
  5
1AC28
102
{ACAD_REACTORS
330
1AC27
102
}
330
747D
100
AcDbEntity
  8
部品1
 62
     7
 48
50.0
100
AcDbMText
 10
11715.46907400128
 20
6412.615179860914
 30
0.0
 40
120.0
 41
0.0
 71
     6
 72
     1
  1
\A1;床下換気口
  7
STYLE1
 73
     1
 44
1.0
1001
ACAD
1000
MTEXTBEGIN
1070
    73
1070
     1
1070
    44
1040
1.0
1070
    74
1070
     0
1000
MTEXTEND
  0
TEXT
  5
1AC29
330
747D
100
AcDbEntity
  8
部品1
 48
50.0
100
AcDbText
 10
11037.43013846117
 20
5749.434740904788
 30
0.0
 40
80.0
  1
(a=45,b=55,c=75)
  7
STYLE1
100
AcDbText
  0
TEXT
  5
1AC2A
330
747D
100
AcDbEntity
  8
部品1
 48
50.0
100
AcDbText
 10
10878.85112970688
 20
5856.279961773542
 30
0.0
 40
80.0
  1
※a,b,cは屋根の出幅です。
  7
STYLE1
100
AcDbText
  0
MTEXT
  5
1AC2B
102
{ACAD_REACTORS
330
1AC2C
102
}
330
747D
100
AcDbEntity
  8
部品1
 62
     7
 48
50.0
100
AcDbMText
 10
11676.63832569548
 20
6035.590648706617
 30
0.0
 40
120.0
 41
0.0
 71
     6
 72
     1
  1
\A1;屋根の外寸
  7
STYLE1
 73
     1
 44
1.0
1001
ACAD
1000
MTEXTBEGIN
1070
    73
1070
     1
1070
    44
1040
1.0
1070
    74
1070
     0
1000
MTEXTEND
  0
LEADER
  5
1AC2C
330
747D
100
AcDbEntity
  8
寸法
 48
50.0
100
AcDbLeader
  3
INABA_S50G
 73
     0
 74
     0
 75
     1
 40
120.0
 41
672.0
 76
     3
 10
10738.69831350344
 20
6209.479992170193
 30
0.0
 10
10854.63832569548
 20
5950.590648706617
 30
0.0
 10
10979.63832569548
 20
5950.590648706617
 30
0.0
340
1AC2B
1001
ACAD
1000
DSTYLE
1002
{
1070
   341
1005
0
1070
    40
1040
1.0
1070
   343
1005
0
1070
   344
1005
0
1002
}
  0
TEXT
  5
1C7A1
330
747D
100
AcDbEntity
  8
文字
 62
     7
 48
50.0
100
AcDbText
 10
13188.16259899338
 20
79.80631269190417
 30
0.0
 40
80.0
  1
※布基礎には換気口を設けてください。
  7
STYLE2
100
AcDbText
  0
TEXT
  5
1C7E7
330
747D
100
AcDbEntity
  8
文字
 62
     7
 48
50.0
100
AcDbText
 10
13188.16259899338
 20
246.7109242801889
 30
0.0
 40
80.0
  1
※寒冷地等は地域の実情に合わせた基礎にして下さい。
  7
STYLE2
100
AcDbText
  0
TEXT
  5
1C7E8
330
747D
100
AcDbEntity
  8
文字
 62
     7
 48
50.0
100
AcDbText
 10
14325.79230300687
 20
499.5983841039506
 30
0.0
 40
160.0
  1
ＮＸＮ－０８WＬ－６
  7
STYLE2
100
AcDbText
  0
TEXT
  5
1C7EC
330
747D
100
AcDbEntity
  8
文字
 62
     7
 48
50.0
100
AcDbText
 10
14524.131837222
 20
1031.557706291229
 30
0.0
 40
100.0
  1
<縮尺> S=1/40
  7
STYLE2
100
AcDbText
  0
TEXT
  5
1C7ED
330
747D
100
AcDbEntity
  8
文字
 62
     7
 48
50.0
100
AcDbText
 10
13201.43669998441
 20
477.2740661031257
 30
0.0
 40
160.0
  1
機種名
  7
STYLE2
100
AcDbText
  0
LINE
  5
1C7EF
330
747D
100
AcDbEntity
  8
文字
 62
     7
 48
50.0
100
AcDbLine
 10
13187.2
 20
400.0
 30
0.0
 11
16227.2
 21
400.0
 31
0.0
  0
MTEXT
  5
1D2D5
102
{ACAD_REACTORS
330
1D2D6
102
}
330
747D
100
AcDbEntity
  8
部品1
 62
     7
 48
50.0
100
AcDbMText
 10
11883.99523070988
 20
7300.138386484085
 30
0.0
 40
120.0
 41
0.0
 71
     6
 72
     1
  1
アンカーボルト
  7
STYLE1
 73
     1
 44
1.0
1001
ACAD
1000
MTEXTBEGIN
1070
    73
1070
     1
1070
    44
1040
1.0
1070
    74
1070
     0
1000
MTEXTEND
  0
LEADER
  5
1D2D6
330
747D
100
AcDbEntity
  8
寸法
 48
50.0
100
AcDbLeader
  3
INABA_S50G
 73
     0
 74
     0
 75
     1
 40
120.0
 41
994.3492424049171
 76
     3
 10
10565.680085757
 20
6861.733486600288
 30
0.0
 10
10739.64598830496
 20
7215.138386484085
 30
0.0
 10
10864.64598830496
 20
7215.138386484085
 30
0.0
340
1D2D5
1001
ACAD
1000
DSTYLE
1002
{
1070
   341
1005
0
1070
    40
1040
1.0
1070
   343
1005
0
1070
   344
1005
0
1002
}
  0
MTEXT
  5
1D332
102
{ACAD_REACTORS
330
1D333
102
}
330
747D
100
AcDbEntity
  8
部品1
 62
     7
 48
50.0
100
AcDbMText
 10
10378.82869701569
 20
6426.031001922265
 30
0.0
 40
120.0
 41
0.0
 71
     6
 72
     1
  1
CB
  7
STYLE1
 73
     1
 44
1.0
1001
ACAD
1000
MTEXTBEGIN
1070
    73
1070
     1
1070
    44
1040
1.0
1070
    74
1070
     0
1000
MTEXTEND
  0
LEADER
  5
1D333
330
747D
100
AcDbEntity
  8
寸法
 48
50.0
100
AcDbLeader
  3
INABA_S50G
 73
     0
 74
     0
 75
     1
 40
120.0
 41
149.591883092037
 76
     3
 10
9951.954011061012
 20
6563.749315477091
 30
0.0
 10
10079.23681392365
 20
6341.031001922264
 30
0.0
 10
10204.23681392365
 20
6341.031001922264
 30
0.0
340
1D332
1001
ACAD
1000
DSTYLE
1002
{
1070
   341
1005
0
1070
    40
1040
1.0
1070
   343
1005
0
1070
   344
1005
0
1002
}
  0
DIMENSION
  5
20DE1
330
747D
100
AcDbEntity
  8
寸法
 48
50.0
100
AcDbDimension
  2
*D19
 10
10733.6
 20
7942.745964300484
 30
0.0
 11
11004.77462120246
 21
7942.745964300484
 31
0.0
 70
   160
  1
a
 71
     5
 42
45.0
  3
INABA_S40G
100
AcDbAlignedDimension
 13
10688.6
 23
6984.525642241563
 33
0.0
 14
10733.6
 24
7710.792100335473
 34
0.0
100
AcDbRotatedDimension
1001
ACAD
1000
DSTYLE
1002
{
1070
   341
1005
0
1002
}
  0
DIMENSION
  5
20DFB
330
747D
100
AcDbEntity
  8
寸法
 48
50.0
100
AcDbDimension
  2
*D20
 10
5758.600000000001
 20
7942.745964300484
 30
0.0
 11
5442.425378797541
 21
7942.745964300484
 31
0.0
 70
   160
  1
a
 71
     5
 42
44.99999999999636
  3
INABA_S40G
100
AcDbAlignedDimension
 13
5713.600000000004
 23
7710.792100335474
 33
0.0
 14
5758.600000000001
 24
6984.525642241563
 34
0.0
100
AcDbRotatedDimension
1001
ACAD
1000
DSTYLE
1002
{
1070
   341
1005
0
1002
}
  0
LINE
  5
22711
330
747D
100
AcDbEntity
  8
想像線
 48
10.0
100
AcDbLine
 10
10733.6
 20
7059.525642241578
 30
0.0
 11
5713.600000000019
 21
7059.525642241594
 31
0.0
  0
LINE
  5
22712
330
747D
100
AcDbEntity
  8
想像線
 48
10.0
100
AcDbLine
 10
5713.600000000017
 20
5969.525642241558
 30
0.0
 11
5713.600000000019
 21
7059.525642241594
 31
0.0
  0
LINE
  5
22713
330
747D
100
AcDbEntity
  8
想像線
 48
10.0
100
AcDbLine
 10
10733.6
 20
5969.525642241567
 30
0.0
 11
10733.6
 21
7059.525642241578
 31
0.0
  0
LINE
  5
22714
330
747D
100
AcDbEntity
  8
想像線
 48
10.0
100
AcDbLine
 10
10733.6
 20
5969.525642241567
 30
0.0
 11
5713.600000000017
 21
5969.525642241558
 31
0.0
  0
DIMENSION
  5
22741
330
747D
100
AcDbEntity
  8
寸法
 48
50.0
100
AcDbDimension
  2
*D21
 10
4883.721909610675
 20
6984.525642241576
 30
0.0
 11
4783.721909610672
 21
7022.025642241579
 31
0.0
 70
    32
  1
c
 71
     5
 42
75.00000000000364
  3
INABA_S40G
100
AcDbAlignedDimension
 13
5135.665006330071
 23
7059.52564224158
 33
0.0
 14
5625.156977762465
 24
6984.525642241576
 34
0.0
 50
90.0
100
AcDbRotatedDimension
1001
ACAD
1000
DSTYLE
1002
{
1070
   341
1005
0
1002
}
  0
DIMENSION
  5
2275B
330
747D
100
AcDbEntity
  8
寸法
 48
50.0
100
AcDbDimension
  2
*D22
 10
4883.721909610675
 20
5969.525642241586
 30
0.0
 11
4783.721909610673
 21
5997.025642241577
 31
0.0
 70
    32
  1
b
 71
     5
 42
54.99999999997817
  3
INABA_S40G
100
AcDbAlignedDimension
 13
5631.607272343893
 23
6024.525642241565
 33
0.0
 14
5135.665006330073
 24
5969.525642241586
 34
0.0
 50
90.0
100
AcDbRotatedDimension
1001
ACAD
1000
DSTYLE
1002
{
1070
   341
1005
0
1002
}
  0
DIMENSION
  5
22A76
330
747D
100
AcDbEntity
  8
寸法
 48
50.0
100
AcDbDimension
  2
*D23
 10
10091.82138901162
 20
6024.525642241588
 30
0.0
 11
10091.82138901162
 21
5737.562059564424
 31
0.0
 70
   160
 71
     5
 42
279.9999999999973
  3
INABA_S40G
100
AcDbAlignedDimension
 13
10173.6
 23
6304.525642241586
 33
0.0
 14
10061.41910651595
 24
6024.525642241588
 34
0.0
 50
90.0
100
AcDbRotatedDimension
1001
ACAD
1000
DSTYLE
1002
{
1070
   341
1005
0
1002
}
  0
DIMENSION
  5
22A81
330
747D
100
AcDbEntity
  8
寸法
 48
50.0
100
AcDbDimension
  2
*D24
 10
10091.82138901162
 20
6784.52564224148
 30
0.0
 11
10091.82138901162
 21
7271.489224918733
 31
0.0
 70
   160
 71
     5
 42
200.0000000000855
  3
INABA_S40G
100
AcDbAlignedDimension
 13
10085.85634570468
 23
6984.525642241566
 33
0.0
 14
10025.60166369304
 24
6784.52564224148
 34
0.0
 50
90.0
100
AcDbRotatedDimension
1001
ACAD
1000
DSTYLE
1002
{
1070
   341
1005
0
1002
}
  0
DIMENSION
  5
22A98
330
747D
100
AcDbEntity
  8
寸法
 48
50.0
100
AcDbDimension
  2
*D25
 10
10568.6
 20
6708.917310796795
 30
0.0
 11
10958.65905511811
 21
6708.917310796795
 31
0.0
 70
   160
 71
     5
 42
119.9999999999981
  3
INABA_S40G
100
AcDbAlignedDimension
 13
10688.6
 23
6629.525642241588
 33
0.0
 14
10568.6
 24
6629.525642241647
 34
0.0
100
AcDbRotatedDimension
1001
ACAD
1000
DSTYLE
1002
{
1070
   341
1005
0
1002
}
  0
LINE
  5
24190
330
747D
100
AcDbEntity
  8
部品1
 48
50.0
100
AcDbLine
 10
10568.6
 20
6784.52564224183
 30
0.0
 11
5878.599999999998
 21
6784.52564224157
 31
0.0
  0
DIMENSION
  5
24192
330
747D
100
AcDbEntity
  8
寸法
 48
50.0
100
AcDbDimension
  2
*D30
 10
8105.6
 20
7710.792100335478
 30
0.0
 11
9335.600000000001
 21
7810.803911359099
 31
0.0
 70
    32
 71
     5
 42
2460.0
  3
INABA_S40G
100
AcDbAlignedDimension
 13
10565.6
 23
6911.525642241565
 33
0.0
 14
8105.6
 24
6911.525642241565
 34
0.0
100
AcDbRotatedDimension
1001
ACAD
1000
DSTYLE
1002
{
1070
   341
1005
0
1002
}
  0
LINE
  5
24194
330
747D
100
AcDbEntity
  8
部品1
 48
50.0
100
AcDbLine
 10
10688.6
 20
6984.525642241566
 30
0.0
 11
5758.600000000001
 21
6984.525642241566
 31
0.0
  0
DIMENSION
  5
24195
330
747D
100
AcDbEntity
  8
寸法
 48
50.0
100
AcDbDimension
  2
*D31
 10
10688.6
 20
7942.745964300484
 30
0.0
 11
8223.600000000001
 21
8042.745964300484
 31
0.0
 70
    32
 71
     5
 42
4930.0
  3
INABA_S40G
100
AcDbAlignedDimension
 13
5758.600000000001
 23
6984.525642241566
 33
0.0
 14
10688.6
 24
6984.525642241566
 34
0.0
100
AcDbRotatedDimension
1001
ACAD
1000
DSTYLE
1002
{
1070
   341
1005
0
1002
}
  0
LINE
  5
24197
330
747D
100
AcDbEntity
  8
部品1
 48
50.0
100
AcDbLine
 10
10688.6
 20
6024.525642241584
 30
0.0
 11
5758.599999999997
 21
6024.525642241562
 31
0.0
  0
TEXT
  5
24198
330
747D
100
AcDbEntity
  8
寸法
 48
50.0
100
AcDbText
 10
8256.696499061648
 20
6043.206933034304
 30
0.0
 40
120.0
  1
扉面
  7
STYLE1
100
AcDbText
  0
DIMENSION
  5
24199
330
747D
100
AcDbEntity
  8
寸法
 48
50.0
100
AcDbDimension
  2
*D32
 10
8223.600000000008
 20
7467.134458911814
 30
0.0
 11
8633.600000000008
 21
7567.146269935436
 31
0.0
 70
    32
 71
     5
 42
820.0
  3
INABA_S40G
100
AcDbAlignedDimension
 13
9043.600000000008
 23
6554.525642241566
 33
0.0
 14
8223.600000000008
 24
6554.525642241566
 34
0.0
100
AcDbRotatedDimension
1001
ACAD
1000
DSTYLE
1002
{
1070
   341
1005
0
1002
}
  0
LINE
  5
2419B
102
{ACAD_REACTORS
330
249DB
102
}
330
747D
100
AcDbEntity
  8
部品1
 48
50.0
100
AcDbLine
 10
5758.600000000001
 20
6024.525642241566
 30
0.0
 11
5758.600000000001
 21
6984.525642241566
 31
0.0
  0
DIMENSION
  5
2419C
330
747D
100
AcDbEntity
  8
寸法
 48
50.0
100
AcDbDimension
  2
*D33
 10
6241.285990614302
 20
6504.525642241566
 30
0.0
 11
6241.285990614301
 21
5731.966587123467
 31
0.0
 70
   160
 71
     5
 42
479.999999999989
  3
INABA_S40G
100
AcDbAlignedDimension
 13
6332.765475140901
 23
6024.525642241577
 33
0.0
 14
6533.600000000008
 24
6504.525642241566
 34
0.0
 50
90.0
100
AcDbRotatedDimension
1001
ACAD
1000
DSTYLE
1002
{
1070
   341
1005
0
1002
}
  0
DIMENSION
  5
2419E
330
747D
100
AcDbEntity
  8
寸法
 48
50.0
100
AcDbDimension
  2
*D34
 10
4883.721909610674
 20
6024.525642241566
 30
0.0
 11
4883.721909610673
 21
6542.025642241566
 31
0.0
 70
   160
 71
     5
 42
960.0
  3
INABA_S40G
100
AcDbAlignedDimension
 13
5758.600000000001
 23
6984.525642241566
 33
0.0
 14
5758.600000000001
 24
6024.525642241566
 34
0.0
 50
90.0
100
AcDbRotatedDimension
1001
ACAD
1000
DSTYLE
1002
{
1070
   341
1005
0
1002
}
  0
DIMENSION
  5
2419F
330
747D
100
AcDbEntity
  8
寸法
 48
50.0
100
AcDbDimension
  2
*D35
 10
5135.665006330073
 20
6222.52564224157
 30
0.0
 11
5135.665006330071
 21
6542.025642241566
 31
0.0
 70
   160
 71
     5
 42
638.9999999999964
  3
INABA_S40G
100
AcDbAlignedDimension
 13
5831.6
 23
6861.525642241566
 33
0.0
 14
5831.600000000008
 24
6222.52564224157
 34
0.0
 50
90.0
100
AcDbRotatedDimension
1001
ACAD
1000
DSTYLE
1002
{
1070
   341
1005
0
1002
}
  0
DIMENSION
  5
241A0
330
747D
100
AcDbEntity
  8
寸法
 48
50.0
100
AcDbDimension
  2
*D36
 10
5135.665006330071
 20
6024.525642241566
 30
0.0
 11
5135.665006330071
 21
5688.994693398974
 31
0.0
 70
   160
 71
     5
 42
198.0000000000036
  3
INABA_S40G
100
AcDbAlignedDimension
 13
5831.600000000008
 23
6222.52564224157
 33
0.0
 14
5758.600000000001
 24
6024.525642241566
 34
0.0
 50
90.0
100
AcDbRotatedDimension
1001
ACAD
1000
DSTYLE
1002
{
1070
   341
1005
0
1002
}
  0
DIMENSION
  5
241A2
330
747D
100
AcDbEntity
  8
寸法
 48
50.0
100
AcDbDimension
  2
*D37
 10
5645.512673767883
 20
5304.525642241562
 30
0.0
 11
5645.512673767882
 21
5664.525642241564
 31
0.0
 70
   160
  1
扉の出<>
 71
     5
 42
720.0
  3
INABA_S40G
100
AcDbAlignedDimension
 13
5758.600000000004
 23
6024.525642241562
 33
0.0
 14
6114.325326928809
 24
5304.525642241562
 34
0.0
 50
90.0
100
AcDbRotatedDimension
1001
ACAD
1000
DSTYLE
1002
{
1070
   341
1005
0
1002
}
  0
ARC
  5
241A3
330
747D
100
AcDbEntity
  8
想像線
 48
5.0
100
AcDbCircle
 10
6528.600000000004
 20
6024.52564224157
 30
0.0
 40
720.0
100
AcDbArc
 50
180.0
 51
270.0
  0
LINE
  5
241A4
330
747D
100
AcDbEntity
  8
センター
 48
2.0
100
AcDbLine
 10
5881.600000000008
 20
6272.52564224157
 30
0.0
 11
5881.600000000008
 21
6172.52564224157
 31
0.0
  0
CIRCLE
  5
241A5
330
747D
100
AcDbEntity
  8
部品1
 48
50.0
100
AcDbCircle
 10
5881.599999999993
 20
6222.52564224157
 30
0.0
 40
35.0
  0
LINE
  5
241A6
330
747D
100
AcDbEntity
  8
センター
 48
2.0
100
AcDbLine
 10
5831.600000000008
 20
6222.52564224157
 30
0.0
 11
5931.600000000008
 21
6222.52564224157
 31
0.0
  0
LINE
  5
241A7
330
747D
100
AcDbEntity
  8
想像線
 48
5.0
100
AcDbLine
 10
6528.600000000004
 20
6024.525642241581
 30
0.0
 11
6528.600000000004
 21
5304.52564224157
 31
0.0
  0
LINE
  5
241A8
330
747D
100
AcDbEntity
  8
細線
 48
50.0
100
AcDbLine
 10
6164.503084343765
 20
6024.525642241626
 30
0.0
 11
6273.599999999997
 21
6133.622557897859
 31
0.0
  0
LINE
  5
241A9
330
747D
100
AcDbEntity
  8
細線
 48
50.0
100
AcDbLine
 10
6074.700523133071
 20
6024.525642241625
 30
0.0
 11
6273.6
 21
6223.425119108553
 31
0.0
  0
LINE
  5
241AA
330
747D
100
AcDbEntity
  8
細線
 48
50.0
100
AcDbLine
 10
6073.6
 20
6068.3263997139
 30
0.0
 11
6273.6
 21
6268.326399713895
 31
0.0
  0
LINE
  5
241AB
330
747D
100
AcDbEntity
  8
細線
 48
50.0
100
AcDbLine
 10
6073.599999999997
 20
6113.227680319242
 30
0.0
 11
6264.897961922343
 21
6304.525642241586
 31
0.0
  0
LINE
  5
241AC
330
747D
100
AcDbEntity
  8
細線
 48
50.0
100
AcDbLine
 10
6073.599999999997
 20
6158.128960924587
 30
0.0
 11
6219.996681316997
 21
6304.525642241584
 31
0.0
  0
LINE
  5
241AD
330
747D
100
AcDbEntity
  8
細線
 48
50.0
100
AcDbLine
 10
6119.601803738419
 20
6024.525642241626
 30
0.0
 11
6269.601803738425
 21
6174.525642241633
 31
0.0
  0
LINE
  5
241AE
330
747D
100
AcDbEntity
  8
部品1
 48
50.0
100
AcDbLine
 10
6073.599999999996
 20
6304.525642241584
 30
0.0
 11
6073.6
 21
6024.525642241635
 31
0.0
  0
LINE
  5
241AF
330
747D
100
AcDbEntity
  8
細線
 48
50.0
100
AcDbLine
 10
6073.599999999993
 20
6247.931522135275
 30
0.0
 11
6130.194120106304
 21
6304.525642241586
 31
0.0
  0
LINE
  5
241B0
330
747D
100
AcDbEntity
  8
細線
 48
50.0
100
AcDbLine
 10
6073.599999999997
 20
6203.030241529933
 30
0.0
 11
6175.095400711645
 21
6304.525642241584
 31
0.0
  0
LINE
  5
241B1
330
747D
100
AcDbEntity
  8
細線
 48
50.0
100
AcDbLine
 10
6254.30564555446
 20
6024.525642241629
 30
0.0
 11
6273.6
 21
6043.819996687171
 31
0.0
  0
LINE
  5
241B2
330
747D
100
AcDbEntity
  8
細線
 48
50.0
100
AcDbLine
 10
6209.404364949112
 20
6024.525642241627
 30
0.0
 11
6273.6
 21
6088.721277292517
 31
0.0
  0
LINE
  5
241B3
330
747D
100
AcDbEntity
  8
部品1
 48
50.0
100
AcDbLine
 10
6273.599999999994
 20
6304.525642241584
 30
0.0
 11
6273.6
 21
6024.525642241639
 31
0.0
  0
LINE
  5
241B5
330
747D
100
AcDbEntity
  8
細線
 48
50.0
100
AcDbLine
 10
6984.503084343765
 20
6024.525642241626
 30
0.0
 11
7093.599999999996
 21
6133.622557897859
 31
0.0
  0
LINE
  5
241B6
330
747D
100
AcDbEntity
  8
細線
 48
50.0
100
AcDbLine
 10
6939.601803738418
 20
6024.525642241626
 30
0.0
 11
7089.601803738425
 21
6174.525642241633
 31
0.0
  0
LINE
  5
241B7
330
747D
100
AcDbEntity
  8
細線
 48
50.0
100
AcDbLine
 10
6893.599999999996
 20
6158.128960924587
 30
0.0
 11
7039.996681316991
 21
6304.525642241584
 31
0.0
  0
LINE
  5
241B8
330
747D
100
AcDbEntity
  8
細線
 48
50.0
100
AcDbLine
 10
6893.599999999996
 20
6113.227680319242
 30
0.0
 11
7084.897961922341
 21
6304.525642241586
 31
0.0
  0
LINE
  5
241B9
330
747D
100
AcDbEntity
  8
細線
 48
50.0
100
AcDbLine
 10
6893.600000000001
 20
6068.3263997139
 30
0.0
 11
7093.600000000001
 21
6268.326399713895
 31
0.0
  0
LINE
  5
241BA
330
747D
100
AcDbEntity
  8
細線
 48
50.0
100
AcDbLine
 10
6894.700523133072
 20
6024.525642241625
 30
0.0
 11
7093.600000000001
 21
6223.425119108553
 31
0.0
  0
LINE
  5
241BB
330
747D
100
AcDbEntity
  8
細線
 48
50.0
100
AcDbLine
 10
6893.599999999993
 20
6247.931522135275
 30
0.0
 11
6950.194120106306
 21
6304.525642241583
 31
0.0
  0
LINE
  5
241BC
330
747D
100
AcDbEntity
  8
部品1
 48
50.0
100
AcDbLine
 10
6893.599999999995
 20
6304.525642241586
 30
0.0
 11
6893.600000000001
 21
6024.525642241635
 31
0.0
  0
LINE
  5
241BD
330
747D
100
AcDbEntity
  8
細線
 48
50.0
100
AcDbLine
 10
6893.599999999996
 20
6203.030241529933
 30
0.0
 11
6995.095400711644
 21
6304.525642241584
 31
0.0
  0
LINE
  5
241BE
330
747D
100
AcDbEntity
  8
細線
 48
50.0
100
AcDbLine
 10
7029.404364949113
 20
6024.525642241627
 30
0.0
 11
7093.600000000001
 21
6088.721277292517
 31
0.0
  0
LINE
  5
241BF
330
747D
100
AcDbEntity
  8
細線
 48
50.0
100
AcDbLine
 10
7074.305645554459
 20
6024.525642241629
 30
0.0
 11
7093.600000000001
 21
6043.819996687171
 31
0.0
  0
LINE
  5
241C0
330
747D
100
AcDbEntity
  8
部品1
 48
50.0
100
AcDbLine
 10
7093.599999999999
 20
6304.525642241584
 30
0.0
 11
7093.600000000001
 21
6024.525642241639
 31
0.0
  0
LINE
  5
241C1
330
747D
100
AcDbEntity
  8
細線
 48
50.0
100
AcDbLine
 10
7804.503084343766
 20
6024.525642241626
 30
0.0
 11
7913.599999999997
 21
6133.622557897859
 31
0.0
  0
LINE
  5
241C2
330
747D
100
AcDbEntity
  8
細線
 48
50.0
100
AcDbLine
 10
7714.700523133071
 20
6024.525642241625
 30
0.0
 11
7913.600000000001
 21
6223.425119108553
 31
0.0
  0
LINE
  5
241C3
330
747D
100
AcDbEntity
  8
細線
 48
50.0
100
AcDbLine
 10
7713.600000000001
 20
6068.3263997139
 30
0.0
 11
7913.600000000001
 21
6268.326399713895
 31
0.0
  0
LINE
  5
241C4
330
747D
100
AcDbEntity
  8
細線
 48
50.0
100
AcDbLine
 10
7713.599999999996
 20
6113.227680319242
 30
0.0
 11
7904.897961922346
 21
6304.525642241584
 31
0.0
  0
LINE
  5
241C5
330
747D
100
AcDbEntity
  8
細線
 48
50.0
100
AcDbLine
 10
7713.599999999996
 20
6158.128960924587
 30
0.0
 11
7859.99668131699
 21
6304.525642241584
 31
0.0
  0
LINE
  5
241C6
330
747D
100
AcDbEntity
  8
細線
 48
50.0
100
AcDbLine
 10
7759.601803738418
 20
6024.525642241626
 30
0.0
 11
7909.601803738425
 21
6174.525642241633
 31
0.0
  0
LINE
  5
241C7
330
747D
100
AcDbEntity
  8
部品1
 48
50.0
100
AcDbLine
 10
7713.599999999996
 20
6304.525642241586
 30
0.0
 11
7713.600000000001
 21
6024.525642241635
 31
0.0
  0
LINE
  5
241C8
330
747D
100
AcDbEntity
  8
細線
 48
50.0
100
AcDbLine
 10
7713.599999999994
 20
6247.931522135275
 30
0.0
 11
7770.194120106298
 21
6304.525642241583
 31
0.0
  0
LINE
  5
241C9
330
747D
100
AcDbEntity
  8
細線
 48
50.0
100
AcDbLine
 10
7713.599999999996
 20
6203.030241529933
 30
0.0
 11
7815.095400711647
 21
6304.525642241584
 31
0.0
  0
LINE
  5
241CA
330
747D
100
AcDbEntity
  8
細線
 48
50.0
100
AcDbLine
 10
7894.305645554459
 20
6024.525642241629
 30
0.0
 11
7913.600000000001
 21
6043.819996687171
 31
0.0
  0
LINE
  5
241CB
330
747D
100
AcDbEntity
  8
細線
 48
50.0
100
AcDbLine
 10
7849.404364949112
 20
6024.525642241627
 30
0.0
 11
7913.600000000001
 21
6088.721277292517
 31
0.0
  0
LINE
  5
241CC
330
747D
100
AcDbEntity
  8
部品1
 48
50.0
100
AcDbLine
 10
7913.599999999995
 20
6304.525642241584
 30
0.0
 11
7913.600000000001
 21
6024.525642241639
 31
0.0
  0
LINE
  5
241CD
330
747D
100
AcDbEntity
  8
センター
 48
2.0
100
AcDbLine
 10
8055.600000000008
 20
6222.52564224157
 30
0.0
 11
8155.600000000008
 21
6222.52564224157
 31
0.0
  0
LINE
  5
241CE
330
747D
100
AcDbEntity
  8
センター
 48
2.0
100
AcDbLine
 10
8105.600000000007
 20
6272.52564224157
 30
0.0
 11
8105.600000000007
 21
6172.52564224157
 31
0.0
  0
CIRCLE
  5
241CF
330
747D
100
AcDbEntity
  8
部品1
 48
50.0
100
AcDbCircle
 10
8105.600000000007
 20
6222.52564224157
 30
0.0
 40
35.0
  0
DIMENSION
  5
241D0
330
747D
100
AcDbEntity
  8
寸法
 48
50.0
100
AcDbDimension
  2
*D38
 10
5135.665006330073
 20
6861.525642241566
 30
0.0
 11
5135.665006330071
 21
7257.632243959367
 31
0.0
 70
   160
 71
     5
 42
123.0
  3
INABA_S40G
100
AcDbAlignedDimension
 13
5758.600000000001
 23
6984.525642241566
 33
0.0
 14
5831.6
 24
6861.525642241566
 34
0.0
 50
90.0
100
AcDbRotatedDimension
1001
ACAD
1000
DSTYLE
1002
{
1070
   341
1005
0
1002
}
  0
DIMENSION
  5
241D2
330
747D
100
AcDbEntity
  8
寸法
 48
50.0
100
AcDbDimension
  2
*D39
 10
5881.6
 20
7710.792100335478
 30
0.0
 11
6993.6
 21
7810.803911359099
 31
0.0
 70
    32
 71
     5
 42
2224.0
  3
INABA_S40G
100
AcDbAlignedDimension
 13
8105.6
 23
6911.525642241565
 33
0.0
 14
5881.6
 24
6911.525642241565
 34
0.0
100
AcDbRotatedDimension
1001
ACAD
1000
DSTYLE
1002
{
1070
   341
1005
0
1002
}
  0
DIMENSION
  5
241D3
330
747D
100
AcDbEntity
  8
寸法
 48
50.0
100
AcDbDimension
  2
*D40
 10
6583.600000000008
 20
7467.134458911814
 30
0.0
 11
6993.600000000007
 21
7567.146269935436
 31
0.0
 70
    32
 71
     5
 42
820.0
  3
INABA_S40G
100
AcDbAlignedDimension
 13
7403.600000000007
 23
6554.525642241566
 33
0.0
 14
6583.600000000008
 24
6554.525642241566
 34
0.0
100
AcDbRotatedDimension
1001
ACAD
1000
DSTYLE
1002
{
1070
   341
1005
0
1002
}
  0
DIMENSION
  5
241D4
330
747D
100
AcDbEntity
  8
寸法
 48
50.0
100
AcDbDimension
  2
*D41
 10
5758.600000000001
 20
7467.134458911814
 30
0.0
 11
6171.100000000004
 21
7567.146269935436
 31
0.0
 70
    32
 71
     5
 42
825.0000000000072
  3
INABA_S40G
100
AcDbAlignedDimension
 13
6583.600000000008
 23
6554.525642241566
 33
0.0
 14
5758.600000000001
 24
6984.525642241566
 34
0.0
100
AcDbRotatedDimension
1001
ACAD
1000
DSTYLE
1002
{
1070
   341
1005
0
1002
}
  0
DIMENSION
  5
241D5
330
747D
100
AcDbEntity
  8
寸法
 48
50.0
100
AcDbDimension
  2
*D42
 10
5758.600000000001
 20
7710.792100335478
 30
0.0
 11
5485.493398282202
 21
7710.792100335478
 31
0.0
 70
   160
 71
     5
 42
123.0
  3
INABA_S40G
100
AcDbAlignedDimension
 13
5881.6
 23
6911.525642241565
 33
0.0
 14
5758.600000000001
 24
6984.525642241566
 34
0.0
100
AcDbRotatedDimension
1001
ACAD
1000
DSTYLE
1002
{
1070
   341
1005
0
1002
}
  0
LINE
  5
241D7
330
747D
100
AcDbEntity
  8
センター
 48
2.0
100
AcDbLine
 10
5881.6
 20
6911.525642241565
 30
0.0
 11
5881.6
 21
6811.525642241566
 31
0.0
  0
CIRCLE
  5
241D8
330
747D
100
AcDbEntity
  8
部品1
 48
50.0
100
AcDbCircle
 10
5881.6
 20
6861.525642241566
 30
0.0
 40
35.0
  0
LINE
  5
241DA
102
{ACAD_REACTORS
330
249DB
102
}
330
747D
100
AcDbEntity
  8
部品1
 48
50.0
100
AcDbLine
 10
5878.6
 20
6429.525642241642
 30
0.0
 11
5758.599999999994
 21
6429.525642241642
 31
0.0
  0
LINE
  5
241DB
102
{ACAD_REACTORS
330
249DB
102
}
330
747D
100
AcDbEntity
  8
部品1
 48
50.0
100
AcDbLine
 10
5878.599999999999
 20
6629.525642241642
 30
0.0
 11
5758.599999999994
 21
6629.525642241643
 31
0.0
  0
LINE
  5
241DC
330
747D
100
AcDbEntity
  8
センター
 48
2.0
100
AcDbLine
 10
5831.6
 20
6861.525642241566
 30
0.0
 11
5931.6
 21
6861.525642241566
 31
0.0
  0
LINE
  5
241DD
330
747D
100
AcDbEntity
  8
部品1
 48
50.0
100
AcDbLine
 10
6273.599999999997
 20
6984.525642241635
 30
0.0
 11
6273.6
 21
6784.525642241596
 31
0.0
  0
LINE
  5
241DE
330
747D
100
AcDbEntity
  8
部品1
 48
50.0
100
AcDbLine
 10
6073.599999999997
 20
6984.525642241635
 30
0.0
 11
6073.599999999997
 21
6784.525642241582
 31
0.0
  0
LINE
  5
241DF
330
747D
100
AcDbEntity
  8
細線
 48
50.0
100
AcDbLine
 10
6073.599999999997
 20
6876.549450610117
 30
0.0
 11
6181.5761916315
 21
6984.525642241623
 31
0.0
  0
LINE
  5
241E0
330
747D
100
AcDbEntity
  8
細線
 48
50.0
100
AcDbLine
 10
6073.599999999997
 20
6831.648170004773
 30
0.0
 11
6226.477472236847
 21
6984.525642241624
 31
0.0
  0
LINE
  5
241E1
330
747D
100
AcDbEntity
  8
細線
 48
50.0
100
AcDbLine
 10
6073.599999999997
 20
6786.74688939943
 30
0.0
 11
6271.378752842195
 21
6984.525642241625
 31
0.0
  0
LINE
  5
241E2
330
747D
100
AcDbEntity
  8
細線
 48
50.0
100
AcDbLine
 10
6116.280033447499
 20
6784.525642241584
 30
0.0
 11
6273.599999999997
 21
6941.845608794081
 31
0.0
  0
LINE
  5
241E3
330
747D
100
AcDbEntity
  8
細線
 48
50.0
100
AcDbLine
 10
6161.181314052877
 20
6784.525642241586
 30
0.0
 11
6273.599999999997
 21
6896.944328188737
 31
0.0
  0
DIMENSION
  5
241E4
330
747D
100
AcDbEntity
  8
寸法
 48
50.0
100
AcDbDimension
  2
*D43
 10
6241.285990614302
 20
6984.525642241566
 30
0.0
 11
6241.285990614301
 21
7277.084697359679
 31
0.0
 70
   160
 71
     5
 42
480.0
  3
INABA_S40G
100
AcDbAlignedDimension
 13
6533.600000000008
 23
6504.525642241566
 33
0.0
 14
6332.765475140901
 24
6984.525642241566
 34
0.0
 50
90.0
100
AcDbRotatedDimension
1001
ACAD
1000
DSTYLE
1002
{
1070
   341
1005
0
1002
}
  0
LINE
  5
241E5
330
747D
100
AcDbEntity
  8
細線
 48
50.0
100
AcDbLine
 10
6250.983875263546
 20
6784.525642241591
 30
0.0
 11
6273.599999999997
 21
6807.14176697805
 31
0.0
  0
LINE
  5
241E6
330
747D
100
AcDbEntity
  8
細線
 48
50.0
100
AcDbLine
 10
6206.082594658213
 20
6784.525642241591
 30
0.0
 11
6273.599999999997
 21
6852.043047583393
 31
0.0
  0
LINE
  5
241E7
330
747D
100
AcDbEntity
  8
部品1
 48
50.0
100
AcDbLine
 10
6683.600000000009
 20
6404.525642241566
 30
0.0
 11
6683.600000000009
 21
6604.525642241566
 31
0.0
  0
LINE
  5
241E8
330
747D
100
AcDbEntity
  8
部品1
 48
50.0
100
AcDbLine
 10
6483.600000000008
 20
6404.525642241566
 30
0.0
 11
6483.600000000008
 21
6604.525642241566
 31
0.0
  0
LINE
  5
241E9
330
747D
100
AcDbEntity
  8
部品1
 48
50.0
100
AcDbLine
 10
6683.600000000009
 20
6404.525642241566
 30
0.0
 11
6483.600000000008
 21
6404.525642241566
 31
0.0
  0
LINE
  5
241EA
330
747D
100
AcDbEntity
  8
センター
 48
2.0
100
AcDbLine
 10
6533.600000000008
 20
6504.525642241566
 30
0.0
 11
6633.600000000008
 21
6504.525642241566
 31
0.0
  0
LINE
  5
241EB
330
747D
100
AcDbEntity
  8
センター
 48
2.0
100
AcDbLine
 10
6583.600000000008
 20
6554.525642241566
 30
0.0
 11
6583.600000000008
 21
6454.525642241566
 31
0.0
  0
LINE
  5
241EC
330
747D
100
AcDbEntity
  8
部品1
 48
50.0
100
AcDbLine
 10
6683.600000000009
 20
6604.525642241566
 30
0.0
 11
6483.600000000008
 21
6604.525642241566
 31
0.0
  0
LINE
  5
241ED
330
747D
100
AcDbEntity
  8
細線
 48
50.0
100
AcDbLine
 10
6073.599999999997
 20
6921.450731215465
 30
0.0
 11
6136.674911026157
 21
6984.525642241625
 31
0.0
  0
LINE
  5
241EE
330
747D
100
AcDbEntity
  8
細線
 48
50.0
100
AcDbLine
 10
6073.599999999997
 20
6966.352011820811
 30
0.0
 11
6091.77363042081
 21
6984.525642241624
 31
0.0
  0
DIMENSION
  5
241EF
330
747D
100
AcDbEntity
  8
寸法
 48
50.0
100
AcDbDimension
  2
*D26
 10
7403.600000000007
 20
7467.134458911814
 30
0.0
 11
7813.600000000008
 21
7567.146269935436
 31
0.0
 70
    32
 71
     5
 42
820.0
  3
INABA_S40G
100
AcDbAlignedDimension
 13
8223.600000000008
 23
6554.525642241566
 33
0.0
 14
7403.600000000007
 24
6554.525642241566
 34
0.0
100
AcDbRotatedDimension
1001
ACAD
1000
DSTYLE
1002
{
1070
   341
1005
0
1002
}
  0
LINE
  5
241F1
330
747D
100
AcDbEntity
  8
部品1
 48
50.0
100
AcDbLine
 10
7093.599999999996
 20
6984.525642241635
 30
0.0
 11
7093.599999999999
 21
6784.525642241638
 31
0.0
  0
LINE
  5
241F2
330
747D
100
AcDbEntity
  8
部品1
 48
50.0
100
AcDbLine
 10
6893.599999999996
 20
6984.525642241635
 30
0.0
 11
6893.599999999996
 21
6784.525642241629
 31
0.0
  0
LINE
  5
241F3
330
747D
100
AcDbEntity
  8
細線
 48
50.0
100
AcDbLine
 10
6981.181314052922
 20
6784.525642241631
 30
0.0
 11
7093.599999999996
 21
6896.944328188737
 31
0.0
  0
LINE
  5
241F4
330
747D
100
AcDbEntity
  8
細線
 48
50.0
100
AcDbLine
 10
6936.280033447545
 20
6784.52564224163
 30
0.0
 11
7093.599999999996
 21
6941.845608794081
 31
0.0
  0
LINE
  5
241F5
330
747D
100
AcDbEntity
  8
細線
 48
50.0
100
AcDbLine
 10
6893.599999999996
 20
6786.74688939943
 30
0.0
 11
7091.378752842195
 21
6984.525642241625
 31
0.0
  0
LINE
  5
241F6
330
747D
100
AcDbEntity
  8
細線
 48
50.0
100
AcDbLine
 10
6893.599999999996
 20
6831.648170004773
 30
0.0
 11
7046.477472236848
 21
6984.525642241624
 31
0.0
  0
LINE
  5
241F7
330
747D
100
AcDbEntity
  8
細線
 48
50.0
100
AcDbLine
 10
6893.599999999996
 20
6876.549450610117
 30
0.0
 11
7001.5761916315
 21
6984.525642241623
 31
0.0
  0
LINE
  5
241FA
330
747D
100
AcDbEntity
  8
細線
 48
50.0
100
AcDbLine
 10
7070.983875263593
 20
6784.525642241637
 30
0.0
 11
7093.599999999996
 21
6807.14176697805
 31
0.0
  0
LINE
  5
241FB
330
747D
100
AcDbEntity
  8
細線
 48
50.0
100
AcDbLine
 10
7026.082594658259
 20
6784.525642241636
 30
0.0
 11
7093.599999999996
 21
6852.043047583393
 31
0.0
  0
LINE
  5
241FC
330
747D
100
AcDbEntity
  8
部品1
 48
50.0
100
AcDbLine
 10
7503.600000000007
 20
6404.525642241566
 30
0.0
 11
7503.600000000007
 21
6604.525642241566
 31
0.0
  0
LINE
  5
241FD
330
747D
100
AcDbEntity
  8
部品1
 48
50.0
100
AcDbLine
 10
7303.600000000007
 20
6404.525642241566
 30
0.0
 11
7303.600000000007
 21
6604.525642241566
 31
0.0
  0
LINE
  5
241FE
330
747D
100
AcDbEntity
  8
部品1
 48
50.0
100
AcDbLine
 10
7503.600000000007
 20
6404.525642241566
 30
0.0
 11
7303.600000000007
 21
6404.525642241566
 31
0.0
  0
LINE
  5
241FF
330
747D
100
AcDbEntity
  8
センター
 48
2.0
100
AcDbLine
 10
7353.600000000007
 20
6504.525642241566
 30
0.0
 11
7453.600000000007
 21
6504.525642241566
 31
0.0
  0
LINE
  5
24200
330
747D
100
AcDbEntity
  8
センター
 48
2.0
100
AcDbLine
 10
7403.600000000007
 20
6554.525642241566
 30
0.0
 11
7403.600000000007
 21
6454.525642241566
 31
0.0
  0
LINE
  5
24201
330
747D
100
AcDbEntity
  8
部品1
 48
50.0
100
AcDbLine
 10
7503.600000000007
 20
6604.525642241566
 30
0.0
 11
7303.600000000007
 21
6604.525642241566
 31
0.0
  0
LINE
  5
24202
330
747D
100
AcDbEntity
  8
細線
 48
50.0
100
AcDbLine
 10
6893.599999999996
 20
6966.352011820811
 30
0.0
 11
6911.77363042081
 21
6984.525642241624
 31
0.0
  0
LINE
  5
24203
330
747D
100
AcDbEntity
  8
細線
 48
50.0
100
AcDbLine
 10
6893.599999999996
 20
6921.450731215465
 30
0.0
 11
6956.674911026157
 21
6984.525642241625
 31
0.0
  0
LINE
  5
24204
330
747D
100
AcDbEntity
  8
部品1
 48
50.0
100
AcDbLine
 10
7913.599999999997
 20
6984.525642241635
 30
0.0
 11
7913.599999999998
 21
6784.525642241684
 31
0.0
  0
LINE
  5
24205
330
747D
100
AcDbEntity
  8
部品1
 48
50.0
100
AcDbLine
 10
7713.599999999996
 20
6984.525642241635
 30
0.0
 11
7713.599999999996
 21
6784.525642241674
 31
0.0
  0
LINE
  5
24206
330
747D
100
AcDbEntity
  8
細線
 48
50.0
100
AcDbLine
 10
7713.599999999996
 20
6876.549450610117
 30
0.0
 11
7821.5761916315
 21
6984.525642241623
 31
0.0
  0
LINE
  5
24207
330
747D
100
AcDbEntity
  8
細線
 48
50.0
100
AcDbLine
 10
7713.599999999996
 20
6831.648170004773
 30
0.0
 11
7866.477472236848
 21
6984.525642241624
 31
0.0
  0
LINE
  5
24208
330
747D
100
AcDbEntity
  8
細線
 48
50.0
100
AcDbLine
 10
7713.599999999996
 20
6786.74688939943
 30
0.0
 11
7911.378752842195
 21
6984.525642241625
 31
0.0
  0
LINE
  5
24209
330
747D
100
AcDbEntity
  8
細線
 48
50.0
100
AcDbLine
 10
7756.280033447591
 20
6784.525642241675
 30
0.0
 11
7913.599999999997
 21
6941.845608794081
 31
0.0
  0
LINE
  5
2420A
330
747D
100
AcDbEntity
  8
細線
 48
50.0
100
AcDbLine
 10
7801.181314052967
 20
6784.525642241677
 30
0.0
 11
7913.599999999997
 21
6896.944328188737
 31
0.0
  0
LINE
  5
2420B
330
747D
100
AcDbEntity
  8
センター
 48
2.0
100
AcDbLine
 10
8105.6
 20
6911.525642241565
 30
0.0
 11
8105.6
 21
6811.525642241566
 31
0.0
  0
CIRCLE
  5
2420C
330
747D
100
AcDbEntity
  8
部品1
 48
50.0
100
AcDbCircle
 10
8105.6
 20
6861.525642241566
 30
0.0
 40
35.0
  0
LINE
  5
2420D
330
747D
100
AcDbEntity
  8
細線
 48
50.0
100
AcDbLine
 10
7890.983875263639
 20
6784.525642241682
 30
0.0
 11
7913.599999999997
 21
6807.14176697805
 31
0.0
  0
LINE
  5
2420E
330
747D
100
AcDbEntity
  8
細線
 48
50.0
100
AcDbLine
 10
7846.082594658307
 20
6784.525642241678
 30
0.0
 11
7913.599999999997
 21
6852.043047583393
 31
0.0
  0
LINE
  5
2420F
330
747D
100
AcDbEntity
  8
部品1
 48
50.0
100
AcDbLine
 10
8323.600000000007
 20
6404.525642241566
 30
0.0
 11
8323.600000000007
 21
6604.525642241566
 31
0.0
  0
LINE
  5
24210
330
747D
100
AcDbEntity
  8
部品1
 48
50.0
100
AcDbLine
 10
8123.600000000008
 20
6404.525642241566
 30
0.0
 11
8123.600000000008
 21
6604.525642241566
 31
0.0
  0
LINE
  5
24211
330
747D
100
AcDbEntity
  8
部品1
 48
50.0
100
AcDbLine
 10
8323.600000000007
 20
6404.525642241566
 30
0.0
 11
8123.600000000008
 21
6404.525642241566
 31
0.0
  0
LINE
  5
24212
330
747D
100
AcDbEntity
  8
センター
 48
2.0
100
AcDbLine
 10
8173.600000000007
 20
6504.525642241566
 30
0.0
 11
8273.600000000007
 21
6504.525642241566
 31
0.0
  0
LINE
  5
24213
330
747D
100
AcDbEntity
  8
センター
 48
2.0
100
AcDbLine
 10
8223.600000000008
 20
6554.525642241566
 30
0.0
 11
8223.600000000008
 21
6454.525642241566
 31
0.0
  0
LINE
  5
24214
330
747D
100
AcDbEntity
  8
部品1
 48
50.0
100
AcDbLine
 10
8323.600000000007
 20
6604.525642241566
 30
0.0
 11
8123.600000000008
 21
6604.525642241566
 31
0.0
  0
LINE
  5
24215
330
747D
100
AcDbEntity
  8
センター
 48
2.0
100
AcDbLine
 10
8055.600000000001
 20
6861.525642241566
 30
0.0
 11
8155.600000000001
 21
6861.525642241566
 31
0.0
  0
LINE
  5
24216
330
747D
100
AcDbEntity
  8
細線
 48
50.0
100
AcDbLine
 10
7713.599999999996
 20
6921.450731215465
 30
0.0
 11
7776.674911026157
 21
6984.525642241625
 31
0.0
  0
LINE
  5
24217
330
747D
100
AcDbEntity
  8
細線
 48
50.0
100
AcDbLine
 10
7713.599999999996
 20
6966.352011820811
 30
0.0
 11
7731.77363042081
 21
6984.525642241624
 31
0.0
  0
LINE
  5
2421A
102
{ACAD_REACTORS
330
249F9
102
}
330
747D
100
AcDbEntity
  8
部品1
 48
50.0
100
AcDbLine
 10
10688.6
 20
6024.525642241584
 30
0.0
 11
10688.6
 21
6984.525642241566
 31
0.0
  0
LINE
  5
2421F
330
747D
100
AcDbEntity
  8
細線
 48
50.0
100
AcDbLine
 10
8624.503084343766
 20
6024.525642241626
 30
0.0
 11
8733.599999999997
 21
6133.622557897859
 31
0.0
  0
LINE
  5
24220
330
747D
100
AcDbEntity
  8
細線
 48
50.0
100
AcDbLine
 10
8534.700523133071
 20
6024.525642241625
 30
0.0
 11
8733.6
 21
6223.425119108553
 31
0.0
  0
LINE
  5
24221
330
747D
100
AcDbEntity
  8
細線
 48
50.0
100
AcDbLine
 10
8533.599999999999
 20
6068.3263997139
 30
0.0
 11
8733.6
 21
6268.326399713895
 31
0.0
  0
LINE
  5
24222
330
747D
100
AcDbEntity
  8
細線
 48
50.0
100
AcDbLine
 10
8533.599999999998
 20
6113.227680319242
 30
0.0
 11
8724.897961922344
 21
6304.525642241584
 31
0.0
  0
LINE
  5
24223
330
747D
100
AcDbEntity
  8
細線
 48
50.0
100
AcDbLine
 10
8533.599999999998
 20
6158.128960924587
 30
0.0
 11
8679.996681316998
 21
6304.525642241584
 31
0.0
  0
LINE
  5
24224
330
747D
100
AcDbEntity
  8
細線
 48
50.0
100
AcDbLine
 10
8579.601803738418
 20
6024.525642241626
 30
0.0
 11
8729.601803738425
 21
6174.525642241633
 31
0.0
  0
LINE
  5
24225
330
747D
100
AcDbEntity
  8
部品1
 48
50.0
100
AcDbLine
 10
8533.599999999998
 20
6304.525642241586
 30
0.0
 11
8533.599999999999
 21
6024.525642241635
 31
0.0
  0
LINE
  5
24226
330
747D
100
AcDbEntity
  8
細線
 48
50.0
100
AcDbLine
 10
8533.599999999992
 20
6247.931522135275
 30
0.0
 11
8590.1941201063
 21
6304.525642241583
 31
0.0
  0
LINE
  5
24227
330
747D
100
AcDbEntity
  8
細線
 48
50.0
100
AcDbLine
 10
8533.599999999998
 20
6203.030241529933
 30
0.0
 11
8635.095400711646
 21
6304.525642241583
 31
0.0
  0
LINE
  5
24228
330
747D
100
AcDbEntity
  8
細線
 48
50.0
100
AcDbLine
 10
8714.305645554459
 20
6024.525642241629
 30
0.0
 11
8733.6
 21
6043.819996687171
 31
0.0
  0
LINE
  5
24229
330
747D
100
AcDbEntity
  8
細線
 48
50.0
100
AcDbLine
 10
8669.404364949112
 20
6024.525642241627
 30
0.0
 11
8733.6
 21
6088.721277292517
 31
0.0
  0
LINE
  5
2422A
330
747D
100
AcDbEntity
  8
部品1
 48
50.0
100
AcDbLine
 10
8733.599999999997
 20
6304.525642241584
 30
0.0
 11
8733.6
 21
6024.525642241639
 31
0.0
  0
LINE
  5
2422B
330
747D
100
AcDbEntity
  8
細線
 48
50.0
100
AcDbLine
 10
9444.503084343764
 20
6024.525642241626
 30
0.0
 11
9553.599999999997
 21
6133.622557897859
 31
0.0
  0
LINE
  5
2422C
330
747D
100
AcDbEntity
  8
細線
 48
50.0
100
AcDbLine
 10
9399.601803738418
 20
6024.525642241626
 30
0.0
 11
9549.601803738426
 21
6174.525642241633
 31
0.0
  0
LINE
  5
2422D
330
747D
100
AcDbEntity
  8
細線
 48
50.0
100
AcDbLine
 10
9353.599999999998
 20
6158.128960924587
 30
0.0
 11
9499.996681316991
 21
6304.525642241584
 31
0.0
  0
LINE
  5
2422E
330
747D
100
AcDbEntity
  8
細線
 48
50.0
100
AcDbLine
 10
9353.599999999998
 20
6113.227680319242
 30
0.0
 11
9544.897961922345
 21
6304.525642241584
 31
0.0
  0
LINE
  5
2422F
330
747D
100
AcDbEntity
  8
細線
 48
50.0
100
AcDbLine
 10
9353.6
 20
6068.3263997139
 30
0.0
 11
9553.600000000001
 21
6268.326399713895
 31
0.0
  0
LINE
  5
24230
330
747D
100
AcDbEntity
  8
細線
 48
50.0
100
AcDbLine
 10
9354.700523133072
 20
6024.525642241625
 30
0.0
 11
9553.600000000001
 21
6223.425119108553
 31
0.0
  0
LINE
  5
24231
330
747D
100
AcDbEntity
  8
細線
 48
50.0
100
AcDbLine
 10
9353.599999999993
 20
6247.931522135275
 30
0.0
 11
9410.1941201063
 21
6304.525642241582
 31
0.0
  0
LINE
  5
24232
330
747D
100
AcDbEntity
  8
細線
 48
50.0
100
AcDbLine
 10
9353.599999999998
 20
6203.030241529933
 30
0.0
 11
9455.095400711647
 21
6304.525642241583
 31
0.0
  0
LINE
  5
24233
330
747D
100
AcDbEntity
  8
部品1
 48
50.0
100
AcDbLine
 10
9353.599999999991
 20
6304.525642241586
 30
0.0
 11
9353.6
 21
6024.525642241635
 31
0.0
  0
LINE
  5
24234
330
747D
100
AcDbEntity
  8
細線
 48
50.0
100
AcDbLine
 10
9489.404364949113
 20
6024.525642241627
 30
0.0
 11
9553.600000000001
 21
6088.721277292517
 31
0.0
  0
LINE
  5
24235
330
747D
100
AcDbEntity
  8
細線
 48
50.0
100
AcDbLine
 10
9534.305645554459
 20
6024.525642241629
 30
0.0
 11
9553.600000000001
 21
6043.819996687171
 31
0.0
  0
LINE
  5
24236
330
747D
100
AcDbEntity
  8
部品1
 48
50.0
100
AcDbLine
 10
9553.600000000001
 20
6304.525642241584
 30
0.0
 11
9553.600000000001
 21
6024.525642241639
 31
0.0
  0
LINE
  5
24239
330
747D
100
AcDbEntity
  8
細線
 48
50.0
100
AcDbLine
 10
10264.50308434376
 20
6024.525642241637
 30
0.0
 11
10373.59999999999
 21
6133.62255789787
 31
0.0
  0
LINE
  5
2423A
330
747D
100
AcDbEntity
  8
細線
 48
50.0
100
AcDbLine
 10
10219.60180373842
 20
6024.525642241637
 30
0.0
 11
10369.60180373842
 21
6174.525642241644
 31
0.0
  0
LINE
  5
2423B
330
747D
100
AcDbEntity
  8
細線
 48
50.0
100
AcDbLine
 10
10174.70052313307
 20
6024.525642241636
 30
0.0
 11
10373.6
 21
6223.425119108563
 31
0.0
  0
LINE
  5
2423C
330
747D
100
AcDbEntity
  8
細線
 48
50.0
100
AcDbLine
 10
10173.6
 20
6068.326399713911
 30
0.0
 11
10373.6
 21
6268.326399713906
 31
0.0
  0
LINE
  5
2423D
330
747D
100
AcDbEntity
  8
細線
 48
50.0
100
AcDbLine
 10
10173.6
 20
6113.227680319254
 30
0.0
 11
10364.89796192233
 21
6304.525642241583
 31
0.0
  0
LINE
  5
2423E
330
747D
100
AcDbEntity
  8
細線
 48
50.0
100
AcDbLine
 10
10173.6
 20
6158.128960924598
 30
0.0
 11
10319.99668131698
 21
6304.525642241583
 31
0.0
  0
LINE
  5
2423F
330
747D
100
AcDbEntity
  8
細線
 48
50.0
100
AcDbLine
 10
10173.6
 20
6203.030241529944
 30
0.0
 11
10275.09540071164
 21
6304.525642241583
 31
0.0
  0
LINE
  5
24240
330
747D
100
AcDbEntity
  8
細線
 48
50.0
100
AcDbLine
 10
10173.59999999999
 20
6247.931522135286
 30
0.0
 11
10230.19412010629
 21
6304.525642241583
 31
0.0
  0
LINE
  5
24241
330
747D
100
AcDbEntity
  8
部品1
 48
50.0
100
AcDbLine
 10
10173.6
 20
6304.525642241586
 30
0.0
 11
10173.6
 21
6024.525642241635
 31
0.0
  0
LINE
  5
24242
330
747D
100
AcDbEntity
  8
細線
 48
50.0
100
AcDbLine
 10
10354.30564555446
 20
6024.525642241639
 30
0.0
 11
10373.6
 21
6043.819996687182
 31
0.0
  0
LINE
  5
24243
330
747D
100
AcDbEntity
  8
細線
 48
50.0
100
AcDbLine
 10
10309.40436494911
 20
6024.525642241639
 30
0.0
 11
10373.6
 21
6088.721277292528
 31
0.0
  0
LINE
  5
24244
330
747D
100
AcDbEntity
  8
部品1
 48
50.0
100
AcDbLine
 10
10373.59999999999
 20
6304.525642241584
 30
0.0
 11
10373.6
 21
6024.525642241639
 31
0.0
  0
LINE
  5
24245
330
747D
100
AcDbEntity
  8
センター
 48
2.0
100
AcDbLine
 10
10565.60000000001
 20
6272.52564224157
 30
0.0
 11
10565.60000000001
 21
6172.52564224157
 31
0.0
  0
CIRCLE
  5
24246
330
747D
100
AcDbEntity
  8
部品1
 48
50.0
100
AcDbCircle
 10
10565.60000000001
 20
6222.52564224157
 30
0.0
 40
35.0
  0
LINE
  5
24247
330
747D
100
AcDbEntity
  8
センター
 48
2.0
100
AcDbLine
 10
10515.6
 20
6222.52564224157
 30
0.0
 11
10615.6
 21
6222.52564224157
 31
0.0
  0
DIMENSION
  5
24248
330
747D
100
AcDbEntity
  8
寸法
 48
50.0
100
AcDbDimension
  2
*D27
 10
9863.600000000008
 20
7467.134458911814
 30
0.0
 11
10276.1
 21
7567.146269935436
 31
0.0
 70
    32
 71
     5
 42
824.9999999999927
  3
INABA_S40G
100
AcDbAlignedDimension
 13
10688.6
 23
6984.525642241566
 33
0.0
 14
9863.600000000008
 24
6554.525642241566
 34
0.0
100
AcDbRotatedDimension
1001
ACAD
1000
DSTYLE
1002
{
1070
   341
1005
0
1002
}
  0
DIMENSION
  5
24249
330
747D
100
AcDbEntity
  8
寸法
 48
50.0
100
AcDbDimension
  2
*D28
 10
9043.600000000008
 20
7467.134458911814
 30
0.0
 11
9453.600000000006
 21
7567.146269935436
 31
0.0
 70
    32
 71
     5
 42
820.0
  3
INABA_S40G
100
AcDbAlignedDimension
 13
9863.600000000008
 23
6554.525642241566
 33
0.0
 14
9043.600000000008
 24
6554.525642241566
 34
0.0
100
AcDbRotatedDimension
1001
ACAD
1000
DSTYLE
1002
{
1070
   341
1005
0
1002
}
  0
LINE
  5
2424A
330
747D
100
AcDbEntity
  8
部品1
 48
50.0
100
AcDbLine
 10
8733.599999999997
 20
6984.525642241635
 30
0.0
 11
8733.599999999999
 21
6784.525642241729
 31
0.0
  0
LINE
  5
2424B
330
747D
100
AcDbEntity
  8
部品1
 48
50.0
100
AcDbLine
 10
8533.599999999998
 20
6984.525642241635
 30
0.0
 11
8533.599999999998
 21
6784.525642241719
 31
0.0
  0
LINE
  5
2424C
330
747D
100
AcDbEntity
  8
細線
 48
50.0
100
AcDbLine
 10
8533.599999999998
 20
6876.549450610117
 30
0.0
 11
8641.5761916315
 21
6984.525642241623
 31
0.0
  0
LINE
  5
2424D
330
747D
100
AcDbEntity
  8
細線
 48
50.0
100
AcDbLine
 10
8533.599999999998
 20
6831.648170004773
 30
0.0
 11
8686.477472236848
 21
6984.525642241624
 31
0.0
  0
LINE
  5
2424E
330
747D
100
AcDbEntity
  8
細線
 48
50.0
100
AcDbLine
 10
8533.599999999998
 20
6786.74688939943
 30
0.0
 11
8731.378752842195
 21
6984.525642241625
 31
0.0
  0
LINE
  5
2424F
330
747D
100
AcDbEntity
  8
細線
 48
50.0
100
AcDbLine
 10
8576.280033447636
 20
6784.525642241722
 30
0.0
 11
8733.599999999997
 21
6941.845608794081
 31
0.0
  0
LINE
  5
24250
330
747D
100
AcDbEntity
  8
細線
 48
50.0
100
AcDbLine
 10
8621.181314053014
 20
6784.525642241722
 30
0.0
 11
8733.599999999997
 21
6896.944328188737
 31
0.0
  0
LINE
  5
24251
330
747D
100
AcDbEntity
  8
細線
 48
50.0
100
AcDbLine
 10
8710.983875263684
 20
6784.525642241729
 30
0.0
 11
8733.599999999997
 21
6807.14176697805
 31
0.0
  0
LINE
  5
24252
330
747D
100
AcDbEntity
  8
細線
 48
50.0
100
AcDbLine
 10
8666.082594658352
 20
6784.525642241726
 30
0.0
 11
8733.599999999997
 21
6852.043047583393
 31
0.0
  0
LINE
  5
24253
330
747D
100
AcDbEntity
  8
部品1
 48
50.0
100
AcDbLine
 10
9143.600000000008
 20
6404.525642241566
 30
0.0
 11
9143.600000000008
 21
6604.525642241566
 31
0.0
  0
LINE
  5
24254
330
747D
100
AcDbEntity
  8
部品1
 48
50.0
100
AcDbLine
 10
8943.600000000008
 20
6404.525642241566
 30
0.0
 11
8943.600000000008
 21
6604.525642241566
 31
0.0
  0
LINE
  5
24255
330
747D
100
AcDbEntity
  8
センター
 48
2.0
100
AcDbLine
 10
8993.600000000007
 20
6504.525642241566
 30
0.0
 11
9093.600000000007
 21
6504.525642241566
 31
0.0
  0
LINE
  5
24256
330
747D
100
AcDbEntity
  8
部品1
 48
50.0
100
AcDbLine
 10
9143.600000000008
 20
6404.525642241566
 30
0.0
 11
8943.600000000008
 21
6404.525642241566
 31
0.0
  0
LINE
  5
24257
330
747D
100
AcDbEntity
  8
センター
 48
2.0
100
AcDbLine
 10
9043.600000000008
 20
6554.525642241566
 30
0.0
 11
9043.600000000008
 21
6454.525642241566
 31
0.0
  0
LINE
  5
24258
330
747D
100
AcDbEntity
  8
部品1
 48
50.0
100
AcDbLine
 10
9143.600000000008
 20
6604.525642241566
 30
0.0
 11
8943.600000000008
 21
6604.525642241566
 31
0.0
  0
LINE
  5
24259
330
747D
100
AcDbEntity
  8
細線
 48
50.0
100
AcDbLine
 10
8533.599999999998
 20
6921.450731215465
 30
0.0
 11
8596.674911026157
 21
6984.525642241625
 31
0.0
  0
LINE
  5
2425A
330
747D
100
AcDbEntity
  8
細線
 48
50.0
100
AcDbLine
 10
8533.599999999998
 20
6966.352011820811
 30
0.0
 11
8551.773630420809
 21
6984.525642241624
 31
0.0
  0
LINE
  5
2425B
330
747D
100
AcDbEntity
  8
細線
 48
50.0
100
AcDbLine
 10
9441.181314053059
 20
6784.525642241766
 30
0.0
 11
9553.599999999997
 21
6896.944328188737
 31
0.0
  0
LINE
  5
2425C
330
747D
100
AcDbEntity
  8
細線
 48
50.0
100
AcDbLine
 10
9396.280033447679
 20
6784.525642241766
 30
0.0
 11
9553.599999999997
 21
6941.845608794081
 31
0.0
  0
LINE
  5
2425D
330
747D
100
AcDbEntity
  8
細線
 48
50.0
100
AcDbLine
 10
9353.599999999998
 20
6786.74688939943
 30
0.0
 11
9551.378752842195
 21
6984.525642241625
 31
0.0
  0
LINE
  5
2425E
330
747D
100
AcDbEntity
  8
細線
 48
50.0
100
AcDbLine
 10
9353.599999999998
 20
6831.648170004773
 30
0.0
 11
9506.477472236849
 21
6984.525642241624
 31
0.0
  0
LINE
  5
2425F
330
747D
100
AcDbEntity
  8
細線
 48
50.0
100
AcDbLine
 10
9353.599999999998
 20
6876.549450610117
 30
0.0
 11
9461.5761916315
 21
6984.525642241623
 31
0.0
  0
LINE
  5
24260
330
747D
100
AcDbEntity
  8
部品1
 48
50.0
100
AcDbLine
 10
9553.599999999997
 20
6984.525642241635
 30
0.0
 11
9553.599999999997
 21
6784.525642241774
 31
0.0
  0
LINE
  5
24261
330
747D
100
AcDbEntity
  8
部品1
 48
50.0
100
AcDbLine
 10
9353.599999999998
 20
6984.525642241635
 30
0.0
 11
9353.599999999998
 21
6784.525642241762
 31
0.0
  0
LINE
  5
24262
330
747D
100
AcDbEntity
  8
細線
 48
50.0
100
AcDbLine
 10
9530.983875263727
 20
6784.525642241773
 30
0.0
 11
9553.599999999997
 21
6807.14176697805
 31
0.0
  0
LINE
  5
24263
330
747D
100
AcDbEntity
  8
細線
 48
50.0
100
AcDbLine
 10
9486.082594658396
 20
6784.525642241769
 30
0.0
 11
9553.599999999997
 21
6852.043047583393
 31
0.0
  0
LINE
  5
24264
330
747D
100
AcDbEntity
  8
部品1
 48
50.0
100
AcDbLine
 10
9963.600000000008
 20
6404.525642241566
 30
0.0
 11
9963.600000000008
 21
6604.525642241566
 31
0.0
  0
LINE
  5
24265
330
747D
100
AcDbEntity
  8
部品1
 48
50.0
100
AcDbLine
 10
9763.600000000009
 20
6404.525642241566
 30
0.0
 11
9763.600000000009
 21
6604.525642241566
 31
0.0
  0
LINE
  5
24266
330
747D
100
AcDbEntity
  8
部品1
 48
50.0
100
AcDbLine
 10
9963.600000000008
 20
6404.525642241566
 30
0.0
 11
9763.600000000009
 21
6404.525642241566
 31
0.0
  0
LINE
  5
24267
330
747D
100
AcDbEntity
  8
センター
 48
2.0
100
AcDbLine
 10
9813.600000000008
 20
6504.525642241566
 30
0.0
 11
9913.600000000009
 21
6504.525642241566
 31
0.0
  0
LINE
  5
24268
330
747D
100
AcDbEntity
  8
センター
 48
2.0
100
AcDbLine
 10
9863.600000000008
 20
6554.525642241566
 30
0.0
 11
9863.600000000008
 21
6454.525642241566
 31
0.0
  0
LINE
  5
24269
330
747D
100
AcDbEntity
  8
部品1
 48
50.0
100
AcDbLine
 10
9963.600000000008
 20
6604.525642241566
 30
0.0
 11
9763.600000000009
 21
6604.525642241566
 31
0.0
  0
LINE
  5
2426A
330
747D
100
AcDbEntity
  8
細線
 48
50.0
100
AcDbLine
 10
9353.599999999998
 20
6966.352011820811
 30
0.0
 11
9371.773630420809
 21
6984.525642241624
 31
0.0
  0
LINE
  5
2426B
330
747D
100
AcDbEntity
  8
細線
 48
50.0
100
AcDbLine
 10
9353.599999999998
 20
6921.450731215465
 30
0.0
 11
9416.674911026158
 21
6984.525642241625
 31
0.0
  0
DIMENSION
  5
2426C
330
747D
100
AcDbEntity
  8
寸法
 48
50.0
100
AcDbDimension
  2
*D29
 10
10565.6
 20
7710.792100335478
 30
0.0
 11
10961.7066017178
 21
7710.792100335478
 31
0.0
 70
   160
 71
     5
 42
123.0
  3
INABA_S40G
100
AcDbAlignedDimension
 13
10688.6
 23
6984.525642241566
 33
0.0
 14
10565.6
 24
6911.525642241565
 34
0.0
100
AcDbRotatedDimension
1001
ACAD
1000
DSTYLE
1002
{
1070
   341
1005
0
1002
}
  0
LINE
  5
2426F
330
747D
100
AcDbEntity
  8
細線
 48
50.0
100
AcDbLine
 10
10261.18131405309
 20
6784.525642241813
 30
0.0
 11
10373.59999999999
 21
6896.944328188748
 31
0.0
  0
LINE
  5
24270
330
747D
100
AcDbEntity
  8
細線
 48
50.0
100
AcDbLine
 10
10216.28003344771
 20
6784.525642241812
 30
0.0
 11
10373.59999999999
 21
6941.845608794093
 31
0.0
  0
LINE
  5
24271
330
747D
100
AcDbEntity
  8
細線
 48
50.0
100
AcDbLine
 10
10173.6
 20
6786.746889399442
 30
0.0
 11
10371.37875284219
 21
6984.525642241637
 31
0.0
  0
LINE
  5
24272
330
747D
100
AcDbEntity
  8
細線
 48
50.0
100
AcDbLine
 10
10173.6
 20
6831.648170004784
 30
0.0
 11
10326.47747223685
 21
6984.525642241635
 31
0.0
  0
LINE
  5
24273
330
747D
100
AcDbEntity
  8
細線
 48
50.0
100
AcDbLine
 10
10173.6
 20
6876.549450610127
 30
0.0
 11
10281.5761916315
 21
6984.525642241634
 31
0.0
  0
LINE
  5
24274
330
747D
100
AcDbEntity
  8
部品1
 48
50.0
100
AcDbLine
 10
10373.59999999999
 20
6984.525642241635
 30
0.0
 11
10373.59999999999
 21
6784.52564224182
 31
0.0
  0
LINE
  5
24275
330
747D
100
AcDbEntity
  8
部品1
 48
50.0
100
AcDbLine
 10
10173.6
 20
6984.525642241635
 30
0.0
 11
10173.6
 21
6784.52564224181
 31
0.0
  0
LINE
  5
24276
330
747D
100
AcDbEntity
  8
センター
 48
2.0
100
AcDbLine
 10
10565.6
 20
6911.525642241565
 30
0.0
 11
10565.6
 21
6811.525642241566
 31
0.0
  0
CIRCLE
  5
24277
330
747D
100
AcDbEntity
  8
部品1
 48
50.0
100
AcDbCircle
 10
10565.6
 20
6861.525642241566
 30
0.0
 40
35.0
  0
LINE
  5
24278
330
747D
100
AcDbEntity
  8
細線
 48
50.0
100
AcDbLine
 10
10350.98387526376
 20
6784.52564224182
 30
0.0
 11
10373.59999999999
 21
6807.14176697806
 31
0.0
  0
LINE
  5
24279
330
747D
100
AcDbEntity
  8
細線
 48
50.0
100
AcDbLine
 10
10306.08259465843
 20
6784.525642241817
 30
0.0
 11
10373.59999999999
 21
6852.043047583403
 31
0.0
  0
LINE
  5
2427B
102
{ACAD_REACTORS
330
249F9
102
}
330
747D
100
AcDbEntity
  8
部品1
 48
50.0
100
AcDbLine
 10
10688.59999999999
 20
6429.525642241646
 30
0.0
 11
10568.6
 21
6429.525642241647
 31
0.0
  0
LINE
  5
2427C
102
{ACAD_REACTORS
330
249F9
102
}
330
747D
100
AcDbEntity
  8
部品1
 48
50.0
100
AcDbLine
 10
10688.59999999999
 20
6629.525642241645
 30
0.0
 11
10568.6
 21
6629.525642241647
 31
0.0
  0
LINE
  5
2427D
330
747D
100
AcDbEntity
  8
センター
 48
2.0
100
AcDbLine
 10
10515.6
 20
6861.525642241566
 30
0.0
 11
10615.6
 21
6861.525642241566
 31
0.0
  0
LINE
  5
2427E
330
747D
100
AcDbEntity
  8
細線
 48
50.0
100
AcDbLine
 10
10173.6
 20
6921.450731215476
 30
0.0
 11
10236.67491102616
 21
6984.525642241637
 31
0.0
  0
LINE
  5
2427F
330
747D
100
AcDbEntity
  8
細線
 48
50.0
100
AcDbLine
 10
10173.6
 20
6966.352011820821
 30
0.0
 11
10191.77363042081
 21
6984.525642241635
 31
0.0
  0
TEXT
  5
2497D
330
747D
100
AcDbEntity
  8
文字
 62
     7
 48
50.0
100
AcDbText
 10
14251.2
 20
838.2527270729188
 30
0.0
 40
100.0
  1
～一般型・多雪地型・豪雪地型～
  7
STYLE2
100
AcDbText
  0
LINE
  5
2499D
330
747D
100
AcDbEntity
  8
部品1
 48
50.0
100
AcDbLine
 10
10568.6
 20
6304.525642241584
 30
0.0
 11
5878.600000000002
 21
6304.525642241584
 31
0.0
  0
LINE
  5
249BC
102
{ACAD_REACTORS
330
249F9
102
}
330
747D
100
AcDbEntity
  8
部品1
 48
50.0
100
AcDbLine
 10
10568.6
 20
6304.525642241583
 30
0.0
 11
10568.6
 21
6784.525642241831
 31
0.0
  0
LINE
  5
249BD
102
{ACAD_REACTORS
330
249DB
102
}
330
747D
100
AcDbEntity
  8
部品1
 48
50.0
100
AcDbLine
 10
5878.600000000002
 20
6304.525642241586
 30
0.0
 11
5878.599999999998
 21
6784.52564224157
 31
0.0
  0
HATCH
  5
249DB
330
747D
100
AcDbEntity
  8
細線
 48
50.0
100
AcDbHatch
 10
0.0
 20
0.0
 30
0.0
210
0.0
220
0.0
230
1.0
  2
LINE
 70
     0
 71
     1
 91
        1
 92
        7
 72
     0
 73
     1
 93
        4
 10
5878.6
 20
6629.525642241643
 10
5758.6
 20
6629.525642241642
 10
5758.6
 20
6429.525642241642
 10
5878.6
 20
6429.525642241642
 97
        4
330
241DB
330
2419B
330
241DA
330
249BD
 75
     0
 76
     1
 52
45.0
 41
10.0
 77
     0
 78
     1
 53
45.0
 43
0.0
 44
0.0
 45
-22.45064030267288
 46
22.45064030267288
 79
     0
 47
5.926611630942375
 98
        1
 10
5824.416805965135
 20
6538.199601690561
  0
HATCH
  5
249F9
330
747D
100
AcDbEntity
  8
細線
 48
50.0
100
AcDbHatch
 10
0.0
 20
0.0
 30
0.0
210
0.0
220
0.0
230
1.0
  2
LINE
 70
     0
 71
     1
 91
        1
 92
        7
 72
     0
 73
     1
 93
        4
 10
10688.6
 20
6629.525642241647
 10
10568.6
 20
6629.525642241645
 10
10568.6
 20
6429.525642241649
 10
10688.6
 20
6429.525642241646
 97
        4
330
2427C
330
249BC
330
2427B
330
2421A
 75
     0
 76
     1
 52
45.0
 41
10.0
 77
     0
 78
     1
 53
45.0
 43
0.0
 44
0.0
 45
-22.45064030267288
 46
22.45064030267288
 79
     0
 47
5.926611630942375
 98
        1
 10
10633.46769936631
 20
6526.346389769528
  0
MTEXT
  5
24B7D
102
{ACAD_REACTORS
330
24B7E
102
}
330
747D
100
AcDbEntity
  8
寸法
 62
     7
 48
50.0
100
AcDbMText
 10
10528.31076100832
 20
2194.424327253401
 30
0.0
 40
120.0
 41
0.8
 71
     4
 72
     1
  1
\A1;C.B
  7
STYLE1
 73
     1
 44
1.0
1001
ACAD
1000
MTEXTBEGIN
1070
    73
1070
     1
1070
    44
1040
1.0
1070
    74
1070
     0
1000
MTEXTEND
  0
LEADER
  5
24B7E
330
747D
100
AcDbEntity
  8
寸法
 48
50.0
100
AcDbLeader
  3
INABA_S50G
 73
     0
 74
     0
 75
     1
 40
120.0
 41
185.591883092037
 76
     3
 10
10345.17255437468
 20
1937.278006572263
 30
0.0
 10
10378.31076100832
 20
2109.424327253401
 30
0.0
 10
10503.31076100832
 20
2109.424327253401
 30
0.0
340
24B7D
1001
ACAD
1000
DSTYLE
1002
{
1070
    40
1040
1.0
1002
}
  0
LINE
  5
24B7F
330
747D
100
AcDbEntity
  8
細線
 48
50.0
100
AcDbLine
 10
10490.82596795109
 20
1581.579090918913
 30
0.0
 11
10484.39518733274
 21
1605.579090918913
 31
0.0
  0
LINE
  5
24B80
330
747D
100
AcDbEntity
  8
細線
 48
50.0
100
AcDbLine
 10
10469.3900325566
 20
1501.579090918913
 30
0.0
 11
10475.82081317494
 21
1477.579090918912
 31
0.0
  0
LINE
  5
24B81
330
747D
100
AcDbEntity
  8
部品1
100
AcDbLine
 10
10534.44814275875
 20
1697.278006572264
 30
0.0
 11
10534.44814275876
 21
1477.579090918913
 31
0.0
  0
LINE
  5
24B82
330
747D
100
AcDbEntity
  8
細線
 48
50.0
100
AcDbLine
 10
10462.95925193825
 20
1477.579090918912
 30
0.0
 11
10497.25674856943
 21
1605.579090918911
 31
0.0
  0
LINE
  5
24B83
330
747D
100
AcDbEntity
  8
細線
 48
50.0
100
AcDbLine
 10
10411.93792300384
 20
1581.579090918913
 30
0.0
 11
10405.50714238549
 21
1605.579090918913
 31
0.0
  0
LINE
  5
24B84
330
747D
100
AcDbEntity
  8
細線
100
AcDbLine
 10
10287.48453725809
 20
1605.579090918915
 30
0.0
 11
10379.18345291143
 21
1697.278006572264
 31
0.0
  0
LINE
  5
24B85
330
747D
100
AcDbEntity
  8
細線
 48
50.0
100
AcDbLine
 10
10333.04987805658
 20
1581.579090918913
 30
0.0
 11
10326.61909743824
 21
1605.579090918913
 31
0.0
  0
LINE
  5
24B86
330
747D
100
AcDbEntity
  8
細線
100
AcDbLine
 10
10321.42566275504
 20
1605.579090918915
 30
0.0
 11
10413.12457840839
 21
1697.278006572264
 31
0.0
  0
LINE
  5
24B87
330
747D
100
AcDbEntity
  8
細線
 48
50.0
100
AcDbLine
 10
10096.38574321485
 20
1581.579090918913
 30
0.0
 11
10089.95496259651
 21
1605.579090918913
 31
0.0
  0
LINE
  5
24B88
330
747D
100
AcDbEntity
  8
細線
 48
50.0
100
AcDbLine
 10
10175.2737881621
 20
1581.579090918913
 30
0.0
 11
10168.84300754375
 21
1605.579090918913
 31
0.0
  0
LINE
  5
24B89
330
747D
100
AcDbEntity
  8
細線
 48
50.0
100
AcDbLine
 10
10254.16183310934
 20
1581.579090918913
 30
0.0
 11
10247.731052491
 21
1605.579090918913
 31
0.0
  0
LINE
  5
24B8A
330
747D
100
AcDbEntity
  8
細線
 48
50.0
100
AcDbLine
 10
10390.50198760935
 20
1501.579090918913
 30
0.0
 11
10396.9327682277
 21
1477.579090918912
 31
0.0
  0
LINE
  5
24B8B
330
747D
100
AcDbEntity
  8
細線
 48
50.0
100
AcDbLine
 10
10311.6139426621
 20
1501.579090918913
 30
0.0
 11
10318.04472328046
 21
1477.579090918913
 31
0.0
  0
LINE
  5
24B8C
330
747D
100
AcDbEntity
  8
細線
 48
50.0
100
AcDbLine
 10
10153.83785276761
 20
1501.579090918913
 30
0.0
 11
10160.26863338596
 21
1477.579090918913
 31
0.0
  0
LINE
  5
24B8D
330
747D
100
AcDbEntity
  8
細線
 48
50.0
100
AcDbLine
 10
10232.72589771486
 20
1501.579090918913
 30
0.0
 11
10239.1566783332
 21
1477.579090918913
 31
0.0
  0
LINE
  5
24B8E
330
747D
100
AcDbEntity
  8
細線
 48
50.0
100
AcDbLine
 10
10226.2951170965
 20
1477.579090918913
 30
0.0
 11
10260.59261372769
 21
1605.579090918913
 31
0.0
  0
LINE
  5
24B8F
330
747D
100
AcDbEntity
  8
細線
 48
50.0
100
AcDbLine
 10
10147.40707214926
 20
1477.579090918912
 30
0.0
 11
10181.70456878044
 21
1605.579090918913
 31
0.0
  0
LINE
  5
24B90
330
747D
100
AcDbEntity
  8
細線
 48
50.0
100
AcDbLine
 10
10305.18316204375
 20
1477.579090918912
 30
0.0
 11
10339.48065867493
 21
1605.579090918913
 31
0.0
  0
LINE
  5
24B91
330
747D
100
AcDbEntity
  8
細線
100
AcDbLine
 10
10355.36678825199
 20
1605.579090918915
 30
0.0
 11
10447.06570390534
 21
1697.278006572264
 31
0.0
  0
LINE
  5
24B92
330
747D
100
AcDbEntity
  8
細線
 48
50.0
100
AcDbLine
 10
10384.071206991
 20
1477.579090918911
 30
0.0
 11
10418.36870362218
 21
1605.579090918911
 31
0.0
  0
LINE
  5
24B93
330
747D
100
AcDbEntity
  8
部品1
100
AcDbLine
 10
10414.44814275875
 20
1937.278006572263
 30
0.0
 11
10414.44814275875
 21
1697.278006572264
 31
0.0
  0
LINE
  5
24B94
330
747D
100
AcDbEntity
  8
細線
100
AcDbLine
 10
10400.61048041117
 20
1697.278006572265
 30
0.0
 11
10160.61048041117
 21
1937.278006572263
 31
0.0
  0
LINE
  5
24B95
330
747D
100
AcDbEntity
  8
細線
100
AcDbLine
 10
10349.69879216574
 20
1697.278006572264
 30
0.0
 11
10109.69879216574
 21
1937.278006572263
 31
0.0
  0
LINE
  5
24B96
330
747D
100
AcDbEntity
  8
細線
100
AcDbLine
 10
9961.425662755042
 20
1605.579090918913
 30
0.0
 11
10053.12457840839
 21
1697.278006572264
 31
0.0
  0
LINE
  5
24B97
330
747D
100
AcDbEntity
  8
細線
100
AcDbLine
 10
9927.484537258084
 20
1605.579090918913
 30
0.0
 11
10019.18345291143
 21
1697.278006572264
 31
0.0
  0
LINE
  5
24B98
330
747D
100
AcDbEntity
  8
細線
 48
50.0
100
AcDbLine
 10
9938.609653320357
 20
1581.579090918913
 30
0.0
 11
9932.17887270201
 21
1605.579090918913
 31
0.0
  0
LINE
  5
24B99
330
747D
100
AcDbEntity
  8
細線
 48
50.0
100
AcDbLine
 10
10017.49769826761
 20
1581.579090918913
 30
0.0
 11
10011.06691764926
 21
1605.579090918913
 31
0.0
  0
LINE
  5
24B9A
330
747D
100
AcDbEntity
  8
細線
 48
50.0
100
AcDbLine
 10
9859.721608373106
 20
1581.579090918913
 30
0.0
 11
9853.290827754758
 21
1605.579090918913
 31
0.0
  0
LINE
  5
24B9B
330
747D
100
AcDbEntity
  8
細線
 48
50.0
100
AcDbLine
 10
10074.94980782036
 20
1501.579090918913
 30
0.0
 11
10081.38058843871
 21
1477.579090918913
 31
0.0
  0
LINE
  5
24B9C
330
747D
100
AcDbEntity
  8
細線
 48
50.0
100
AcDbLine
 10
9996.06176287312
 20
1501.579090918913
 30
0.0
 11
10002.49254349146
 21
1477.579090918913
 31
0.0
  0
LINE
  5
24B9D
330
747D
100
AcDbEntity
  8
細線
 48
50.0
100
AcDbLine
 10
9838.285672978617
 20
1501.579090918913
 30
0.0
 11
9844.716453596966
 21
1477.579090918913
 31
0.0
  0
LINE
  5
24B9E
330
747D
100
AcDbEntity
  8
細線
 48
50.0
100
AcDbLine
 10
9917.173717925868
 20
1501.579090918913
 30
0.0
 11
9923.604498544214
 21
1477.579090918913
 31
0.0
  0
LINE
  5
24B9F
330
747D
100
AcDbEntity
  8
部品1
100
AcDbLine
 10
9814.448142758756
 20
1477.57909091891
 30
0.0
 11
9814.448142758756
 21
1697.278006572264
 31
0.0
  0
LINE
  5
24BA0
330
747D
100
AcDbEntity
  8
細線
 48
50.0
100
AcDbLine
 10
9831.854892360269
 20
1477.579090918913
 30
0.0
 11
9866.152388991453
 21
1605.579090918913
 31
0.0
  0
LINE
  5
24BA1
330
747D
100
AcDbEntity
  8
細線
 48
50.0
100
AcDbLine
 10
9989.630982254766
 20
1477.579090918913
 30
0.0
 11
10023.92847888595
 21
1605.579090918913
 31
0.0
  0
LINE
  5
24BA2
330
747D
100
AcDbEntity
  8
細線
 48
50.0
100
AcDbLine
 10
9910.742937307517
 20
1477.579090918912
 30
0.0
 11
9945.0404339387
 21
1605.579090918913
 31
0.0
  0
LINE
  5
24BA3
330
747D
100
AcDbEntity
  8
部品1
100
AcDbLine
 10
9934.448142758757
 20
1697.278006572264
 30
0.0
 11
9934.448142758757
 21
1937.278006572263
 31
0.0
  0
TEXT
  5
24BA4
330
747D
100
AcDbEntity
  8
部品1
 48
50.0
100
AcDbText
 10
9170.330056000253
 20
1430.478265934955
 30
0.0
 40
80.0
  1
ボルトの出
 50
90.0
  7
STYLE2
100
AcDbText
  0
LINE
  5
24BA5
330
747D
100
AcDbEntity
  8
細線
100
AcDbLine
 10
10078.16978819011
 20
1697.278006572264
 30
0.0
 11
9934.448142758757
 21
1840.999652003617
 31
0.0
  0
LWPOLYLINE
  5
24BA6
330
747D
100
AcDbEntity
  8
部品1
 48
50.0
100
AcDbPolyline
 90
        2
 70
     0
 43
12.0
 10
9549.836880658368
 20
1697.278006572264
 10
10750.92918378999
 20
1697.278006572264
  0
LINE
  5
24BA7
330
747D
100
AcDbEntity
  8
細線
100
AcDbLine
 10
9995.366788251999
 20
1605.579090918913
 30
0.0
 11
10087.06570390534
 21
1697.278006572264
 31
0.0
  0
LINE
  5
24BA8
330
747D
100
AcDbEntity
  8
部品1
100
AcDbLine
 10
9814.448142758756
 20
1605.579090918913
 30
0.0
 11
10534.44814275875
 21
1605.579090918916
 31
0.0
  0
LINE
  5
24BA9
330
747D
100
AcDbEntity
  8
部品1
100
AcDbLine
 10
9814.448142758756
 20
1477.57909091891
 30
0.0
 11
10534.44814275875
 21
1477.579090918913
 31
0.0
  0
LINE
  5
24BAA
330
747D
100
AcDbEntity
  8
細線
 48
50.0
100
AcDbLine
 10
10068.51902720201
 20
1477.579090918913
 30
0.0
 11
10102.8165238332
 21
1605.579090918913
 31
0.0
  0
LINE
  5
24BAB
330
747D
100
AcDbEntity
  8
部品1
100
AcDbLine
 10
9934.448142758757
 20
1937.278006572263
 30
0.0
 11
10414.44814275875
 21
1937.278006572263
 31
0.0
  0
LINE
  5
24BAC
330
747D
100
AcDbEntity
  8
細線
100
AcDbLine
 10
10129.08147643554
 20
1697.278006572264
 30
0.0
 11
9934.448142758757
 21
1891.911340249047
 31
0.0
  0
LINE
  5
24BAD
330
747D
100
AcDbEntity
  8
部品1
100
AcDbLine
 10
11121.18964385579
 20
372.309704188202
 30
0.0
 11
11121.18964385579
 21
3336.616673772849
 31
0.0
  0
TEXT
  5
24BAE
330
747D
100
AcDbEntity
  8
部品1
100
AcDbText
 10
7743.084459647929
 20
3157.064741821421
 30
0.0
 40
120.0
  1
基礎詳細
  7
STYLE2
100
AcDbText
  0
LINE
  5
24BAF
330
747D
100
AcDbEntity
  8
部品1
 48
50.0
100
AcDbLine
 10
8058.312210456
 20
2336.153287681407
 30
0.0
 11
8074.312210455998
 21
2328.153287681406
 31
0.0
  0
LINE
  5
24BB0
330
747D
100
AcDbEntity
  8
細線
 48
50.0
100
AcDbLine
 10
8026.312210456
 20
2288.153287681407
 30
0.0
 11
8026.312210456
 21
2320.153287681407
 31
0.0
  0
LINE
  5
24BB1
330
747D
100
AcDbEntity
  8
部品1
 48
50.0
100
AcDbLine
 10
8074.312210455998
 20
2296.153287681406
 30
0.0
 11
8074.312210455998
 21
2328.153287681406
 31
0.0
  0
LINE
  5
24BB2
330
747D
100
AcDbEntity
  8
細線
 48
50.0
100
AcDbLine
 10
8058.312210456
 20
2288.153287681407
 30
0.0
 11
8058.312210456
 21
2320.153287681407
 31
0.0
  0
LINE
  5
24BB3
330
747D
100
AcDbEntity
  8
部品1
 48
50.0
100
AcDbLine
 10
8058.312210456
 20
2320.153287681407
 30
0.0
 11
8074.312210455998
 21
2328.153287681406
 31
0.0
  0
LINE
  5
24BB4
330
747D
100
AcDbEntity
  8
部品1
 48
50.0
100
AcDbLine
 10
8026.312210456
 20
2320.153287681407
 30
0.0
 11
8058.312210456
 21
2320.153287681407
 31
0.0
  0
LINE
  5
24BB5
330
747D
100
AcDbEntity
  8
部品1
 48
50.0
100
AcDbLine
 10
8058.312210456
 20
2288.153287681407
 30
0.0
 11
8074.312210455998
 21
2296.153287681406
 31
0.0
  0
LINE
  5
24BB6
330
747D
100
AcDbEntity
  8
部品1
 48
50.0
100
AcDbLine
 10
8026.312210456
 20
2288.153287681407
 30
0.0
 11
8058.312210456
 21
2288.153287681407
 31
0.0
  0
ELLIPSE
  5
24BB7
330
747D
100
AcDbEntity
  8
細線
 48
50.0
100
AcDbEllipse
 10
8042.312210456
 20
2328.153287681406
 30
0.0
 11
14.76670786606846
 21
0.0
 31
0.0
210
0.0
220
0.0
230
1.0
 40
0.2071254069489396
 41
0.0
 42
6.283185307179586
  0
LINE
  5
24BB8
330
747D
100
AcDbEntity
  8
部品1
 48
50.0
100
AcDbLine
 10
8026.312210456
 20
2336.153287681407
 30
0.0
 11
8058.312210456
 21
2336.153287681407
 31
0.0
  0
LINE
  5
24BB9
330
747D
100
AcDbEntity
  8
部品1
 48
50.0
100
AcDbLine
 10
8010.312210455998
 20
2296.153287681406
 30
0.0
 11
8010.312210455998
 21
2328.153287681406
 31
0.0
  0
LINE
  5
24BBA
330
747D
100
AcDbEntity
  8
部品1
 48
50.0
100
AcDbLine
 10
8010.312210455998
 20
2328.153287681406
 30
0.0
 11
8026.312210456
 21
2336.153287681407
 31
0.0
  0
LINE
  5
24BBB
330
747D
100
AcDbEntity
  8
部品1
 48
50.0
100
AcDbLine
 10
8010.312210455998
 20
2296.153287681406
 30
0.0
 11
8026.312210456
 21
2288.153287681407
 31
0.0
  0
LINE
  5
24BBC
330
747D
100
AcDbEntity
  8
部品1
 48
50.0
100
AcDbLine
 10
8010.312210455998
 20
2328.153287681406
 30
0.0
 11
8026.312210456
 21
2320.153287681407
 31
0.0
  0
LINE
  5
24BBD
330
747D
100
AcDbEntity
  8
部品1
 48
50.0
100
AcDbLine
 10
8082.312210455999
 20
2196.801295016536
 30
0.0
 11
8082.312210455999
 21
2206.401295016536
 31
0.0
  0
ELLIPSE
  5
24BBE
330
747D
100
AcDbEntity
  8
部品1
 48
50.0
100
AcDbEllipse
 10
8042.312210456
 20
2206.401295016536
 30
0.0
 11
18.4
 21
0.0
 31
0.0
210
0.0
220
0.0
230
1.0
 40
0.3478260869565217
 41
0.0
 42
6.283185307179586
  0
ARC
  5
24BBF
330
747D
100
AcDbEntity
  8
部品1
100
AcDbCircle
 10
7881.212210455998
 20
2035.378006572264
 30
0.0
 40
2.7
100
AcDbArc
 50
90.0
 51
180.0
  0
LINE
  5
24BC0
330
747D
100
AcDbEntity
  8
部品1
100
AcDbLine
 10
7883.912210455997
 20
2048.878006572264
 30
0.0
 11
7926.212210455999
 21
2048.878006572261
 31
0.0
  0
LINE
  5
24BC1
330
747D
100
AcDbEntity
  8
部品1
100
AcDbLine
 10
7881.212210455998
 20
2038.078006572264
 30
0.0
 11
7881.212210455998
 21
2046.178006572263
 31
0.0
  0
LINE
  5
24BC2
330
747D
100
AcDbEntity
  8
部品1
100
AcDbLine
 10
7881.212210455998
 20
2038.078006572264
 30
0.0
 11
7881.212210455998
 21
2038.078006572264
 31
0.0
  0
ARC
  5
24BC3
330
747D
100
AcDbEntity
  8
部品1
100
AcDbCircle
 10
7883.912210455997
 20
2046.178006572263
 30
0.0
 40
2.7
100
AcDbArc
 50
90.0
 51
180.0
  0
ARC
  5
24BC4
330
747D
100
AcDbEntity
  8
部品1
100
AcDbCircle
 10
7926.212210455999
 20
2046.178006572261
 30
0.0
 40
2.7
100
AcDbArc
 50
0.0
 51
90.0
  0
LINE
  5
24BC5
330
747D
100
AcDbEntity
  8
部品1
 48
50.0
100
AcDbLine
 10
8002.312210455999
 20
2206.401295016536
 30
0.0
 11
8002.312210455999
 21
2196.801295016536
 31
0.0
  0
ELLIPSE
  5
24BC6
330
747D
100
AcDbEntity
  8
部品1
 48
50.0
100
AcDbEllipse
 10
8042.312210456
 20
2196.801295016537
 30
0.0
 11
40.0
 21
0.0
 31
0.0
210
0.0
220
0.0
230
1.0
 40
0.4
 41
3.141592653589793
 42
6.283185307179586
  0
ELLIPSE
  5
24BC7
330
747D
100
AcDbEntity
  8
部品1
 48
50.0
100
AcDbEllipse
 10
8042.312210456
 20
2206.401295016536
 30
0.0
 11
40.0
 21
0.0
 31
0.0
210
0.0
220
0.0
230
1.0
 40
0.4
 41
0.0
 42
6.283185307179586
  0
LINE
  5
24BC8
330
747D
100
AcDbEntity
  8
部品1
100
AcDbLine
 10
8036.912210455998
 20
1990.038006572264
 30
0.0
 11
8047.712210455998
 21
1990.038006572264
 31
0.0
  0
LINE
  5
24BC9
330
747D
100
AcDbEntity
  8
部品1
100
AcDbLine
 10
8033.312210455999
 20
1986.438006572264
 30
0.0
 11
8051.312210456
 21
1986.438006572264
 31
0.0
  0
LINE
  5
24BCA
330
747D
100
AcDbEntity
  8
細線
100
AcDbLine
 10
8036.912210456
 20
1946.838006572264
 30
0.0
 11
8036.912210455998
 21
1990.038006572264
 31
0.0
  0
LINE
  5
24BCB
330
747D
100
AcDbEntity
  8
細線
100
AcDbLine
 10
8047.712210455998
 20
1946.838006572264
 30
0.0
 11
8047.712210455998
 21
1990.038006572264
 31
0.0
  0
LINE
  5
24BCC
330
747D
100
AcDbEntity
  8
部品1
100
AcDbLine
 10
7949.612210455999
 20
2004.138006572264
 30
0.0
 11
7949.612210455999
 21
1987.038006572264
 31
0.0
  0
LINE
  5
24BCD
330
747D
100
AcDbEntity
  8
部品1
100
AcDbLine
 10
7983.172210456
 20
2004.138006572264
 30
0.0
 11
7983.172210455996
 21
1949.538006572264
 31
0.0
  0
ARC
  5
24BCE
330
747D
100
AcDbEntity
  8
部品1
100
AcDbCircle
 10
7968.512210455999
 20
1992.178006572263
 30
0.0
 40
2.7
100
AcDbArc
 50
0.0
 51
90.0
  0
LINE
  5
24BCF
330
747D
100
AcDbEntity
  8
部品1
100
AcDbLine
 10
7928.912210455997
 20
1994.878006572264
 30
0.0
 11
7968.512210455999
 21
1994.878006572264
 31
0.0
  0
ARC
  5
24BD0
330
747D
100
AcDbEntity
  8
部品1
100
AcDbCircle
 10
7968.512210455999
 20
1949.538006572264
 30
0.0
 40
2.7
100
AcDbArc
 50
270.0
 51
0.0
  0
ARC
  5
24BD1
330
747D
100
AcDbEntity
  8
部品1
100
AcDbCircle
 10
7985.872210455993
 20
1949.538006572264
 30
0.0
 40
2.7
100
AcDbArc
 50
180.0
 51
270.0
  0
LINE
  5
24BD2
330
747D
100
AcDbEntity
  8
部品1
100
AcDbLine
 10
7956.812210455999
 20
1946.838006572264
 30
0.0
 11
7968.512210455999
 21
1946.838006572264
 31
0.0
  0
LINE
  5
24BD3
330
747D
100
AcDbEntity
  8
部品1
100
AcDbLine
 10
7971.212210455998
 20
1992.178006572263
 30
0.0
 11
7971.212210455998
 21
1949.538006572264
 31
0.0
  0
ARC
  5
24BD4
330
747D
100
AcDbEntity
  8
部品1
100
AcDbCircle
 10
7980.472210455999
 20
2004.138006572264
 30
0.0
 40
2.7
100
AcDbArc
 50
0.0
 51
90.0
  0
ARC
  5
24BD5
330
747D
100
AcDbEntity
  8
部品1
100
AcDbCircle
 10
7952.312210455999
 20
2004.138006572264
 30
0.0
 40
2.7
100
AcDbArc
 50
90.0
 51
180.0
  0
LINE
  5
24BD6
330
747D
100
AcDbEntity
  8
部品1
100
AcDbLine
 10
7952.312210455999
 20
2006.838006572264
 30
0.0
 11
7980.472210455999
 21
2006.838006572264
 31
0.0
  0
LINE
  5
24BD7
330
747D
100
AcDbEntity
  8
部品1
100
AcDbLine
 10
7928.912210455997
 20
2046.178006572261
 30
0.0
 11
7928.912210455997
 21
1994.878006572264
 31
0.0
  0
LINE
  5
24BD8
330
747D
100
AcDbEntity
  8
部品1
100
AcDbLine
 10
7878.512210456
 20
2027.278006572263
 30
0.0
 11
7878.512210456
 21
2035.378006572264
 31
0.0
  0
LINE
  5
24BD9
330
747D
100
AcDbEntity
  8
部品1
100
AcDbLine
 10
7985.872210455993
 20
1946.838006572264
 30
0.0
 11
8187.212210455994
 21
1946.838006572264
 31
0.0
  0
LINE
  5
24BDA
330
747D
100
AcDbEntity
  8
部品1
100
AcDbLine
 10
7827.212210455998
 20
1949.538006572264
 30
0.0
 11
7827.212210455998
 21
2011.669910274972
 31
0.0
  0
LINE
  5
24BDB
330
747D
100
AcDbEntity
  8
部品1
100
AcDbLine
 10
7829.912210455997
 20
1946.838006572264
 30
0.0
 11
7841.612210455993
 21
1946.838006572264
 31
0.0
  0
LINE
  5
24BDC
330
747D
100
AcDbEntity
  8
細線
 48
50.0
100
AcDbLine
 10
7820.912210455998
 20
1925.058582872168
 30
0.0
 11
7833.131634156092
 21
1937.278006572263
 31
0.0
  0
ARC
  5
24BDD
330
747D
100
AcDbEntity
  8
部品1
100
AcDbCircle
 10
7829.912210455997
 20
1949.538006572264
 30
0.0
 40
2.7
100
AcDbArc
 50
180.0
 51
270.0
  0
LINE
  5
24BDE
330
747D
100
AcDbEntity
  8
部品1
100
AcDbLine
 10
7829.2573642684
 20
2014.289295025363
 30
0.0
 11
7838.012210456
 21
2016.478006572263
 31
0.0
  0
ARC
  5
24BDF
330
747D
100
AcDbEntity
  8
部品1
100
AcDbCircle
 10
7829.912210455997
 20
2011.669910274972
 30
0.0
 40
2.7
100
AcDbArc
 50
104.0362434679067
 51
180.0
  0
ARC
  5
24BE0
330
747D
100
AcDbEntity
  8
部品1
100
AcDbCircle
 10
7840.712210455999
 20
2024.578006572264
 30
0.0
 40
2.7
100
AcDbArc
 50
90.0
 51
180.0
  0
LINE
  5
24BE1
330
747D
100
AcDbEntity
  8
部品1
100
AcDbLine
 10
7838.012210456
 20
2016.478006572263
 30
0.0
 11
7838.012210456
 21
2024.578006572264
 31
0.0
  0
LINE
  5
24BE2
330
747D
100
AcDbEntity
  8
部品1
 48
50.0
100
AcDbLine
 10
7820.912210455998
 20
1937.278006572263
 30
0.0
 11
8234.912210456
 21
1937.278006572263
 31
0.0
  0
LINE
  5
24BE3
330
747D
100
AcDbEntity
  8
細線
 48
50.0
100
AcDbLine
 10
7820.912210455998
 20
1871.177046145754
 30
0.0
 11
7887.013170882508
 21
1937.278006572263
 31
0.0
  0
LINE
  5
24BE4
330
747D
100
AcDbEntity
  8
細線
 48
50.0
100
AcDbLine
 10
7820.912210455998
 20
1898.117814508961
 30
0.0
 11
7860.072402519304
 21
1937.278006572263
 31
0.0
  0
LINE
  5
24BE5
330
747D
100
AcDbEntity
  8
部品1
100
AcDbLine
 10
7840.712210455999
 20
2027.278006572263
 30
0.0
 11
7878.512210456
 21
2027.278006572263
 31
0.0
  0
LINE
  5
24BE6
330
747D
100
AcDbEntity
  8
部品1
 48
50.0
100
AcDbLine
 10
8234.912210455998
 20
1393.278006572264
 30
0.0
 11
8362.912210455998
 21
1393.278006572264
 31
0.0
  0
LINE
  5
24BE7
330
747D
100
AcDbEntity
  8
部品1
100
AcDbLine
 10
8051.312210456
 20
1712.278006572264
 30
0.0
 11
8087.312210456
 21
1712.278006572264
 31
0.0
  0
LINE
  5
24BE8
330
747D
100
AcDbEntity
  8
部品1
100
AcDbLine
 10
8051.312210456
 20
1694.278006572264
 30
0.0
 11
8087.312210456
 21
1694.278006572264
 31
0.0
  0
ARC
  5
24BE9
330
747D
100
AcDbEntity
  8
部品1
100
AcDbCircle
 10
8051.312210456
 20
1712.278006572264
 30
0.0
 40
18.0
100
AcDbArc
 50
180.0
 51
270.0
  0
LINE
  5
24BEA
330
747D
100
AcDbEntity
  8
部品1
100
AcDbLine
 10
8087.312210456
 20
1694.278006572264
 30
0.0
 11
8087.312210456
 21
1712.278006572264
 31
0.0
  0
LINE
  5
24BEB
330
747D
100
AcDbEntity
  8
部品1
100
AcDbLine
 10
8105.312210455998
 20
1613.278006572262
 30
0.0
 11
7979.312210455991
 21
1613.278006572262
 31
0.0
  0
LINE
  5
24BEC
330
747D
100
AcDbEntity
  8
細線
 48
50.0
100
AcDbLine
 10
8399.290035648332
 20
1129.278006572262
 30
0.0
 11
8392.859255029987
 21
1153.278006572262
 31
0.0
  0
LINE
  5
24BED
330
747D
100
AcDbEntity
  8
細線
 48
50.0
100
AcDbLine
 10
8320.401990701087
 20
1129.278006572262
 30
0.0
 11
8313.971210082742
 21
1153.278006572262
 31
0.0
  0
LINE
  5
24BEE
330
747D
100
AcDbEntity
  8
細線
 48
50.0
100
AcDbLine
 10
8241.513945753832
 20
1129.278006572263
 30
0.0
 11
8235.083165135483
 21
1153.278006572263
 31
0.0
  0
LINE
  5
24BEF
330
747D
100
AcDbEntity
  8
細線
 48
50.0
100
AcDbLine
 10
8377.854100253845
 20
1049.278006572262
 30
0.0
 11
8384.284880872192
 21
1025.278006572261
 31
0.0
  0
LINE
  5
24BF0
330
747D
100
AcDbEntity
  8
細線
 48
50.0
100
AcDbLine
 10
8298.966055306598
 20
1049.278006572262
 30
0.0
 11
8305.396835924945
 21
1025.278006572261
 31
0.0
  0
LINE
  5
24BF1
330
747D
100
AcDbEntity
  8
細線
 48
50.0
100
AcDbLine
 10
8220.078010359349
 20
1049.278006572263
 30
0.0
 11
8226.508790977707
 21
1025.278006572263
 31
0.0
  0
LINE
  5
24BF2
330
747D
100
AcDbEntity
  8
細線
 48
50.0
100
AcDbLine
 10
8292.535274688249
 20
1025.278006572261
 30
0.0
 11
8326.832771319432
 21
1153.278006572261
 31
0.0
  0
LINE
  5
24BF3
330
747D
100
AcDbEntity
  8
細線
 48
50.0
100
AcDbLine
 10
8213.647229741001
 20
1025.278006572261
 30
0.0
 11
8247.944726372173
 21
1153.278006572263
 31
0.0
  0
LINE
  5
24BF4
330
747D
100
AcDbEntity
  8
細線
 48
50.0
100
AcDbLine
 10
8371.423319635493
 20
1025.278006572261
 30
0.0
 11
8405.720816266679
 21
1153.278006572261
 31
0.0
  0
LINE
  5
24BF5
330
747D
100
AcDbEntity
  8
部品1
 48
50.0
100
AcDbLine
 10
8442.912210456
 20
1153.278006572263
 30
0.0
 11
8442.912210456
 21
1025.278006572263
 31
0.0
  0
LINE
  5
24BF6
330
747D
100
AcDbEntity
  8
細線
 48
50.0
100
AcDbLine
 10
8162.625900806594
 20
1129.278006572263
 30
0.0
 11
8156.195120188248
 21
1153.278006572263
 31
0.0
  0
LINE
  5
24BF7
330
747D
100
AcDbEntity
  8
細線
 48
50.0
100
AcDbLine
 10
8083.737855859348
 20
1129.278006572263
 30
0.0
 11
8077.307075241
 21
1153.278006572263
 31
0.0
  0
LINE
  5
24BF8
330
747D
100
AcDbEntity
  8
細線
 48
50.0
100
AcDbLine
 10
7925.961765964854
 20
1129.278006572263
 30
0.0
 11
7919.530985346508
 21
1153.278006572263
 31
0.0
  0
LINE
  5
24BF9
330
747D
100
AcDbEntity
  8
細線
 48
50.0
100
AcDbLine
 10
8004.849810912102
 20
1129.278006572263
 30
0.0
 11
7998.419030293753
 21
1153.278006572263
 31
0.0
  0
LINE
  5
24BFA
330
747D
100
AcDbEntity
  8
細線
 48
50.0
100
AcDbLine
 10
8062.301920464859
 20
1049.278006572263
 30
0.0
 11
8068.732701083204
 21
1025.278006572263
 31
0.0
  0
LINE
  5
24BFB
330
747D
100
AcDbEntity
  8
細線
 48
50.0
100
AcDbLine
 10
8141.189965412104
 20
1049.278006572263
 30
0.0
 11
8147.620746030451
 21
1025.278006572263
 31
0.0
  0
LINE
  5
24BFC
330
747D
100
AcDbEntity
  8
細線
 48
50.0
100
AcDbLine
 10
7904.525830570365
 20
1049.278006572263
 30
0.0
 11
7910.956611188713
 21
1025.278006572263
 31
0.0
  0
LINE
  5
24BFD
330
747D
100
AcDbEntity
  8
細線
 48
50.0
100
AcDbLine
 10
7983.413875517611
 20
1049.278006572263
 30
0.0
 11
7989.844656135959
 21
1025.278006572263
 31
0.0
  0
LINE
  5
24BFE
330
747D
100
AcDbEntity
  8
細線
 48
50.0
100
AcDbLine
 10
8134.75918479375
 20
1025.278006572263
 30
0.0
 11
8169.056681424937
 21
1153.278006572262
 31
0.0
  0
LINE
  5
24BFF
330
747D
100
AcDbEntity
  8
細線
 48
50.0
100
AcDbLine
 10
7976.98309489926
 20
1025.278006572263
 30
0.0
 11
8011.280591530445
 21
1153.278006572262
 31
0.0
  0
LINE
  5
24C00
330
747D
100
AcDbEntity
  8
細線
 48
50.0
100
AcDbLine
 10
7898.095049952013
 20
1025.278006572263
 30
0.0
 11
7932.392546583196
 21
1153.278006572263
 31
0.0
  0
LINE
  5
24C01
330
747D
100
AcDbEntity
  8
細線
 48
50.0
100
AcDbLine
 10
8055.871139846509
 20
1025.278006572261
 30
0.0
 11
8090.16863647769
 21
1153.278006572262
 31
0.0
  0
LINE
  5
24C02
330
747D
100
AcDbEntity
  8
細線
 48
50.0
100
AcDbLine
 10
8180.643905410807
 20
1153.278006572263
 30
0.0
 11
8362.912210455998
 21
1335.546311617459
 31
0.0
  0
LINE
  5
24C03
330
747D
100
AcDbEntity
  8
部品1
 48
50.0
100
AcDbLine
 10
8362.912210455998
 20
1393.278006572264
 30
0.0
 11
8362.912210455998
 21
1153.278006572263
 31
0.0
  0
LINE
  5
24C04
330
747D
100
AcDbEntity
  8
細線
 48
50.0
100
AcDbLine
 10
8153.703137047603
 20
1153.278006572263
 30
0.0
 11
8362.912210455998
 21
1362.487079980656
 31
0.0
  0
LINE
  5
24C05
330
747D
100
AcDbEntity
  8
細線
 48
50.0
100
AcDbLine
 10
8126.76236868439
 20
1153.278006572263
 30
0.0
 11
8362.912210455998
 21
1389.427848343872
 31
0.0
  0
LINE
  5
24C06
330
747D
100
AcDbEntity
  8
細線
 48
50.0
100
AcDbLine
 10
7911.236221778732
 20
1153.278006572263
 30
0.0
 11
8234.912210455998
 21
1476.95399524953
 31
0.0
  0
LINE
  5
24C07
330
747D
100
AcDbEntity
  8
細線
 48
50.0
100
AcDbLine
 10
7965.117758505148
 20
1153.278006572263
 30
0.0
 11
8234.912210455998
 21
1423.072458523121
 31
0.0
  0
LINE
  5
24C08
330
747D
100
AcDbEntity
  8
細線
 48
50.0
100
AcDbLine
 10
7938.176990141943
 20
1153.278006572263
 30
0.0
 11
8234.912210455998
 21
1450.013226886316
 31
0.0
  0
LINE
  5
24C09
330
747D
100
AcDbEntity
  8
細線
 48
50.0
100
AcDbLine
 10
7692.912210455993
 20
1366.006289060849
 30
0.0
 11
7720.183927967413
 21
1393.278006572264
 31
0.0
  0
LINE
  5
24C0A
330
747D
100
AcDbEntity
  8
部品1
 48
50.0
100
AcDbLine
 10
7692.912210455998
 20
1393.278006572264
 30
0.0
 11
7820.912210455998
 21
1393.278006572264
 31
0.0
  0
LINE
  5
24C0B
330
747D
100
AcDbEntity
  8
細線
 48
50.0
100
AcDbLine
 10
7692.912210455993
 20
1339.065520697639
 30
0.0
 11
7747.124696330622
 21
1393.278006572264
 31
0.0
  0
LWPOLYLINE
  5
24C0C
330
747D
100
AcDbEntity
  8
部品1
 48
50.0
100
AcDbPolyline
 90
        2
 70
     0
 43
8.0
 10
7406.772308623041
 20
1697.278006572264
 10
7820.912210455998
 20
1697.278006572264
  0
LINE
  5
24C0D
330
747D
100
AcDbEntity
  8
細線
 48
50.0
100
AcDbLine
 10
7768.185676070352
 20
1129.278006572263
 30
0.0
 11
7761.754895452004
 21
1153.278006572263
 31
0.0
  0
LINE
  5
24C0E
330
747D
100
AcDbEntity
  8
細線
 48
50.0
100
AcDbLine
 10
7847.073721017602
 20
1129.278006572263
 30
0.0
 11
7840.642940399255
 21
1153.278006572263
 31
0.0
  0
LINE
  5
24C0F
330
747D
100
AcDbEntity
  8
細線
 48
50.0
100
AcDbLine
 10
7689.2976311231
 20
1129.278006572263
 30
0.0
 11
7682.866850504753
 21
1153.278006572263
 31
0.0
  0
LINE
  5
24C10
330
747D
100
AcDbEntity
  8
細線
 48
50.0
100
AcDbLine
 10
7612.912210455998
 20
1138.617927538043
 30
0.0
 11
7616.840366794193
 21
1153.278006572263
 31
0.0
  0
LINE
  5
24C11
330
747D
100
AcDbEntity
  8
細線
 48
50.0
100
AcDbLine
 10
7746.749740675863
 20
1049.278006572263
 30
0.0
 11
7753.180521294209
 21
1025.278006572263
 31
0.0
  0
LINE
  5
24C12
330
747D
100
AcDbEntity
  8
細線
 48
50.0
100
AcDbLine
 10
7825.637785623114
 20
1049.278006572263
 30
0.0
 11
7832.068566241462
 21
1025.278006572263
 31
0.0
  0
LINE
  5
24C13
330
747D
100
AcDbEntity
  8
細線
 48
50.0
100
AcDbLine
 10
7667.86169572861
 20
1049.278006572263
 30
0.0
 11
7674.292476346955
 21
1025.278006572263
 31
0.0
  0
LINE
  5
24C14
330
747D
100
AcDbEntity
  8
細線
 48
50.0
100
AcDbLine
 10
7819.207005004762
 20
1025.278006572261
 30
0.0
 11
7853.504501635943
 21
1153.278006572262
 31
0.0
  0
LINE
  5
24C15
330
747D
100
AcDbEntity
  8
細線
 48
50.0
100
AcDbLine
 10
7661.430915110257
 20
1025.278006572261
 30
0.0
 11
7695.72841174144
 21
1153.278006572262
 31
0.0
  0
LINE
  5
24C16
330
747D
100
AcDbEntity
  8
部品1
 48
50.0
100
AcDbLine
 10
7612.912210456001
 20
1025.278006572263
 30
0.0
 11
7612.912210456001
 21
1153.278006572263
 31
0.0
  0
LINE
  5
24C17
330
747D
100
AcDbEntity
  8
細線
 48
50.0
100
AcDbLine
 10
7740.318960057514
 20
1025.278006572263
 30
0.0
 11
7774.616456688699
 21
1153.278006572263
 31
0.0
  0
LINE
  5
24C18
330
747D
100
AcDbEntity
  8
部品1
 48
50.0
100
AcDbLine
 10
7692.912210455998
 20
1153.278006572263
 30
0.0
 11
7692.912210455998
 21
1393.278006572264
 31
0.0
  0
LINE
  5
24C19
330
747D
100
AcDbEntity
  8
細線
 48
50.0
100
AcDbLine
 10
7692.912210455993
 20
1312.124752334434
 30
0.0
 11
7774.065464693828
 21
1393.278006572264
 31
0.0
  0
LINE
  5
24C1A
330
747D
100
AcDbEntity
  8
部品1
 48
50.0
100
AcDbLine
 10
8442.912210456
 20
1025.278006572263
 30
0.0
 11
7612.912210456001
 21
1025.278006572263
 31
0.0
  0
LINE
  5
24C1B
330
747D
100
AcDbEntity
  8
部品1
 48
50.0
100
AcDbLine
 10
8442.912210456
 20
1153.278006572263
 30
0.0
 11
7612.912210456001
 21
1153.278006572263
 31
0.0
  0
LINE
  5
24C1C
330
747D
100
AcDbEntity
  8
細線
 48
50.0
100
AcDbLine
 10
7695.710074873074
 20
1153.278006572263
 30
0.0
 11
8234.912210455998
 21
1692.480142155189
 31
0.0
  0
LINE
  5
24C1D
330
747D
100
AcDbEntity
  8
細線
 48
50.0
100
AcDbLine
 10
7722.650843236282
 20
1153.278006572263
 30
0.0
 11
8234.912210456
 21
1665.539373791977
 31
0.0
  0
LINE
  5
24C1E
330
747D
100
AcDbEntity
  8
細線
 48
50.0
100
AcDbLine
 10
7749.591611599488
 20
1153.278006572263
 30
0.0
 11
8234.912210455998
 21
1638.598605428771
 31
0.0
  0
LINE
  5
24C1F
330
747D
100
AcDbEntity
  8
細線
 48
50.0
100
AcDbLine
 10
7820.912210455998
 20
1494.006289060849
 30
0.0
 11
7979.312210455991
 21
1652.406289060845
 31
0.0
  0
LINE
  5
24C20
330
747D
100
AcDbEntity
  8
細線
 48
50.0
100
AcDbLine
 10
7820.912210455998
 20
1440.124752334434
 30
0.0
 11
7994.065464693834
 21
1613.278006572262
 31
0.0
  0
LINE
  5
24C21
330
747D
100
AcDbEntity
  8
細線
 48
50.0
100
AcDbLine
 10
7820.912210455998
 20
1467.065520697642
 30
0.0
 11
7979.312210455991
 21
1625.46552069763
 31
0.0
  0
LINE
  5
24C22
330
747D
100
AcDbEntity
  8
部品1
100
AcDbLine
 10
7979.312210455991
 20
1613.278006572263
 30
0.0
 11
7979.312210455998
 21
1937.278006572263
 31
0.0
  0
LINE
  5
24C23
330
747D
100
AcDbEntity
  8
部品1
100
AcDbLine
 10
8105.312210455998
 20
1613.278006572263
 30
0.0
 11
8105.312210455998
 21
1937.278006572263
 31
0.0
  0
LINE
  5
24C24
330
747D
100
AcDbEntity
  8
細線
 48
50.0
100
AcDbLine
 10
8105.312210455998
 20
1751.465520697635
 30
0.0
 11
8234.912210455998
 21
1881.065520697632
 31
0.0
  0
LINE
  5
24C25
330
747D
100
AcDbEntity
  8
細線
 48
50.0
100
AcDbLine
 10
8105.312210455998
 20
1724.524752334422
 30
0.0
 11
8234.912210455998
 21
1854.124752334413
 31
0.0
  0
LINE
  5
24C26
330
747D
100
AcDbEntity
  8
部品1
100
AcDbLine
 10
8033.312210455999
 20
1712.278006572264
 30
0.0
 11
8033.312210455994
 21
1986.438006572264
 31
0.0
  0
LINE
  5
24C27
330
747D
100
AcDbEntity
  8
部品1
100
AcDbLine
 10
8051.312210456
 20
1712.278006572264
 30
0.0
 11
8051.312210455995
 21
1986.438006572264
 31
0.0
  0
TEXT
  5
24C28
330
747D
100
AcDbEntity
  8
部品1
 48
50.0
100
AcDbText
 10
7406.772308623041
 20
1708.516998855519
 30
0.0
 40
80.0
  1
▽G.L
  7
STYLE2
100
AcDbText
  0
LINE
  5
24C29
330
747D
100
AcDbEntity
  8
細線
 48
50.0
100
AcDbLine
 10
7820.912210455998
 20
1655.650899240094
 30
0.0
 11
7979.312210455995
 21
1814.050899240086
 31
0.0
  0
LINE
  5
24C2A
330
747D
100
AcDbEntity
  8
細線
 48
50.0
100
AcDbLine
 10
7820.912210455998
 20
1682.591667603301
 30
0.0
 11
7979.312210455997
 21
1840.991667603299
 31
0.0
  0
LINE
  5
24C2B
330
747D
100
AcDbEntity
  8
細線
 48
50.0
100
AcDbLine
 10
7820.912210455998
 20
1709.532435966509
 30
0.0
 11
7979.312210455997
 21
1867.932435966506
 31
0.0
  0
LINE
  5
24C2C
330
747D
100
AcDbEntity
  8
部品1
 48
50.0
100
AcDbLine
 10
7820.912210455998
 20
1393.278006572264
 30
0.0
 11
7820.912210455998
 21
1937.278006572263
 31
0.0
  0
LINE
  5
24C2D
330
747D
100
AcDbEntity
  8
部品1
100
AcDbLine
 10
8234.912210455998
 20
1393.278006572264
 30
0.0
 11
8234.912210455998
 21
1937.278006572263
 31
0.0
  0
LINE
  5
24C2E
330
747D
100
AcDbEntity
  8
細線
 48
50.0
100
AcDbLine
 10
8105.312210455998
 20
1778.406289060852
 30
0.0
 11
8234.912210455998
 21
1908.00628906085
 31
0.0
  0
LINE
  5
24C2F
330
747D
100
AcDbEntity
  8
細線
 48
50.0
100
AcDbLine
 10
6229.365319781274
 20
1818.02485846898
 30
0.0
 11
6312.872897278805
 21
1901.532435966509
 31
0.0
  0
LINE
  5
24C30
330
747D
100
AcDbEntity
  8
細線
 48
50.0
100
AcDbLine
 10
6240.425604544791
 20
1802.144374869286
 30
0.0
 11
6312.872897278805
 21
1874.591667603301
 31
0.0
  0
LINE
  5
24C31
330
747D
100
AcDbEntity
  8
細線
 48
50.0
100
AcDbLine
 10
6120.872897278805
 20
1925.058582872168
 30
0.0
 11
6133.092320978899
 21
1937.278006572263
 31
0.0
  0
LINE
  5
24C32
330
747D
100
AcDbEntity
  8
細線
 48
50.0
100
AcDbLine
 10
6120.872897278805
 20
1871.177046145754
 30
0.0
 11
6186.973857705314
 21
1937.278006572263
 31
0.0
  0
LINE
  5
24C33
330
747D
100
AcDbEntity
  8
細線
 48
50.0
100
AcDbLine
 10
6120.872897278805
 20
1898.117814508961
 30
0.0
 11
6160.033089342109
 21
1937.278006572263
 31
0.0
  0
LINE
  5
24C34
330
747D
100
AcDbEntity
  8
部品1
 48
50.0
100
AcDbLine
 10
6120.872897278805
 20
1937.278006572263
 30
0.0
 11
6312.872897278805
 21
1937.278006572263
 31
0.0
  0
DIMENSION
  5
24C35
330
747D
100
AcDbEntity
  8
寸法
 48
50.0
100
AcDbDimension
  2
*D44
 10
6120.872897278804
 20
2356.945814488644
 30
0.0
 11
6216.872897278804
 21
2356.945814488644
 31
0.0
 70
   160
  1
120\P200\P280
 71
     5
 42
192.0
  3
INABA_S40G
100
AcDbAlignedDimension
 13
6312.872897278804
 23
1937.278006572263
 33
0.0
 14
6120.872897278804
 24
1937.278006572263
 34
0.0
100
AcDbRotatedDimension
1001
ACAD
1000
DSTYLE
1002
{
1070
   341
1005
0
1002
}
  0
MTEXT
  5
24C36
102
{ACAD_REACTORS
330
24C8B
102
}
330
747D
100
AcDbEntity
  8
寸法
 62
     7
 48
50.0
100
AcDbMText
 10
6554.611353140055
 20
975.9289208401105
 30
0.0
 40
80.0
 41
0.8
 71
     4
 72
     1
  1
\A1;D10@300
  7
STYLE2
 73
     1
 44
1.0
1001
ACAD
1000
MTEXTBEGIN
1070
    73
1070
     1
1070
    44
1040
1.0
1070
    74
1070
     0
1000
MTEXTEND
  0
LINE
  5
24C37
330
747D
100
AcDbEntity
  8
細線
 48
50.0
100
AcDbLine
 10
6240.87289727881
 20
1587.065520697644
 30
0.0
 11
6312.872897278797
 21
1659.065520697639
 31
0.0
  0
LINE
  5
24C38
330
747D
100
AcDbEntity
  8
細線
 48
50.0
100
AcDbLine
 10
6240.872897278805
 20
1614.006289060849
 30
0.0
 11
6312.872897278805
 21
1686.006289060849
 31
0.0
  0
LINE
  5
24C39
330
747D
100
AcDbEntity
  8
細線
 48
50.0
100
AcDbLine
 10
6240.87289727881
 20
1344.598605428775
 30
0.0
 11
6312.872897278797
 21
1416.598605428775
 31
0.0
  0
LINE
  5
24C3A
330
747D
100
AcDbEntity
  8
細線
 48
50.0
100
AcDbLine
 10
6240.87289727881
 20
1398.480142155193
 30
0.0
 11
6312.872897278797
 21
1470.480142155189
 31
0.0
  0
LINE
  5
24C3B
330
747D
100
AcDbEntity
  8
細線
 48
50.0
100
AcDbLine
 10
6240.87289727881
 20
1371.539373791985
 30
0.0
 11
6312.872897278797
 21
1443.539373791979
 31
0.0
  0
LINE
  5
24C3C
330
747D
100
AcDbEntity
  8
部品1
 48
50.0
100
AcDbLine
 10
6312.872897278805
 20
1393.278006572264
 30
0.0
 11
6440.872897278805
 21
1393.278006572264
 31
0.0
  0
LINE
  5
24C3D
330
747D
100
AcDbEntity
  8
細線
 48
50.0
100
AcDbLine
 10
6240.87289727881
 20
1560.124752334434
 30
0.0
 11
6312.872897278797
 21
1632.124752334435
 31
0.0
  0
LINE
  5
24C3E
330
747D
100
AcDbEntity
  8
部品1
 48
50.0
100
AcDbLine
 10
6208.872897278805
 20
1739.405221269386
 30
0.0
 11
6208.872897278805
 21
1797.532435966509
 31
0.0
  0
LINE
  5
24C3F
330
747D
100
AcDbEntity
  8
細線
 48
50.0
100
AcDbLine
 10
6120.872897278805
 20
1709.532435966509
 30
0.0
 11
6192.872897278805
 21
1781.532435966509
 31
0.0
  0
LINE
  5
24C40
330
747D
100
AcDbEntity
  8
部品1
 48
50.0
100
AcDbLine
 10
6192.872897278805
 20
1739.40522126939
 30
0.0
 11
6192.872897278805
 21
1797.532435966509
 31
0.0
  0
LINE
  5
24C41
330
747D
100
AcDbEntity
  8
細線
 48
50.0
100
AcDbLine
 10
6120.872897278805
 20
1682.591667603301
 30
0.0
 11
6192.872897278805
 21
1754.591667603301
 31
0.0
  0
LINE
  5
24C42
330
747D
100
AcDbEntity
  8
細線
 48
50.0
100
AcDbLine
 10
6120.872897278805
 20
1655.650899240094
 30
0.0
 11
6204.627219308099
 21
1739.405221269386
 31
0.0
  0
LINE
  5
24C43
330
747D
100
AcDbEntity
  8
部品1
 48
50.0
100
AcDbLine
 10
6208.872897278805
 20
1739.405221269386
 30
0.0
 11
6192.872897278805
 21
1739.40522126939
 31
0.0
  0
LINE
  5
24C44
330
747D
100
AcDbEntity
  8
細線
 48
50.0
100
AcDbLine
 10
5992.872897278798
 20
1366.006289060849
 30
0.0
 11
6020.144614790218
 21
1393.278006572264
 31
0.0
  0
LINE
  5
24C45
330
747D
100
AcDbEntity
  8
細線
 48
50.0
100
AcDbLine
 10
5992.872897278798
 20
1339.065520697639
 30
0.0
 11
6047.085383153429
 21
1393.278006572264
 31
0.0
  0
LINE
  5
24C46
330
747D
100
AcDbEntity
  8
部品1
 48
50.0
100
AcDbLine
 10
5992.872897278805
 20
1393.278006572264
 30
0.0
 11
6120.872897278805
 21
1393.278006572264
 31
0.0
  0
LINE
  5
24C47
330
747D
100
AcDbEntity
  8
細線
 48
50.0
100
AcDbLine
 10
6208.872897278805
 20
1770.591667603301
 30
0.0
 11
6224.872897278805
 21
1786.591667603301
 31
0.0
  0
LINE
  5
24C48
330
747D
100
AcDbEntity
  8
細線
 48
50.0
100
AcDbLine
 10
6208.872897278805
 20
1743.650899240094
 30
0.0
 11
6224.872897278805
 21
1759.650899240094
 31
0.0
  0
LINE
  5
24C49
330
747D
100
AcDbEntity
  8
細線
 48
50.0
100
AcDbLine
 10
6120.872897278805
 20
1440.124752334434
 30
0.0
 11
6224.87289727881
 21
1544.124752334434
 31
0.0
  0
LINE
  5
24C4A
330
747D
100
AcDbEntity
  8
細線
 48
50.0
100
AcDbLine
 10
6120.872897278805
 20
1494.006289060849
 30
0.0
 11
6224.872897278805
 21
1598.006289060849
 31
0.0
  0
LINE
  5
24C4B
330
747D
100
AcDbEntity
  8
細線
 48
50.0
100
AcDbLine
 10
6120.872897278805
 20
1467.065520697642
 30
0.0
 11
6224.87289727881
 21
1571.065520697644
 31
0.0
  0
LINE
  5
24C4C
330
747D
100
AcDbEntity
  8
細線
 48
50.0
100
AcDbLine
 10
6383.698542682152
 20
1129.278006572263
 30
0.0
 11
6377.267762063806
 21
1153.278006572263
 31
0.0
  0
LINE
  5
24C4D
330
747D
100
AcDbEntity
  8
細線
 48
50.0
100
AcDbLine
 10
6426.723055507199
 20
1153.278006572263
 30
0.0
 11
6440.872897278805
 21
1167.42784834387
 31
0.0
  0
LINE
  5
24C4E
330
747D
100
AcDbEntity
  8
細線
 48
50.0
100
AcDbLine
 10
6462.5865876294
 20
1129.278006572263
 30
0.0
 11
6456.155807011052
 21
1153.278006572263
 31
0.0
  0
LINE
  5
24C4F
330
747D
100
AcDbEntity
  8
部品1
 48
50.0
100
AcDbLine
 10
6384.872897278805
 20
1265.278006572263
 30
0.0
 11
6384.872897278805
 21
1249.278006572263
 31
0.0
  0
LINE
  5
24C50
330
747D
100
AcDbEntity
  8
細線
 48
50.0
100
AcDbLine
 10
6265.078445327952
 20
1153.278006572263
 30
0.0
 11
6361.07933317309
 21
1249.278894417402
 31
0.0
  0
LINE
  5
24C51
330
747D
100
AcDbEntity
  8
細線
 48
50.0
100
AcDbLine
 10
6238.137676964749
 20
1153.278006572263
 30
0.0
 11
6334.137676964749
 21
1249.278006572263
 31
0.0
  0
LINE
  5
24C52
330
747D
100
AcDbEntity
  8
細線
 48
50.0
100
AcDbLine
 10
6304.810497734907
 20
1129.278006572263
 30
0.0
 11
6298.37971711656
 21
1153.278006572263
 31
0.0
  0
LINE
  5
24C53
330
747D
100
AcDbEntity
  8
細線
 48
50.0
100
AcDbLine
 10
6225.922452787661
 20
1129.278006572263
 30
0.0
 11
6219.491672169313
 21
1153.278006572263
 31
0.0
  0
ARC
  5
24C54
330
747D
100
AcDbEntity
  8
部品1
 48
50.0
100
AcDbCircle
 10
6216.872897278805
 20
1273.278006572263
 30
0.0
 40
24.0
100
AcDbArc
 50
340.5287793655103
 51
0.0
  0
CIRCLE
  5
24C55
330
747D
100
AcDbEntity
  8
部品1
 48
50.0
100
AcDbCircle
 10
6344.872897278805
 20
1273.278006572263
 30
0.0
 40
8.0
  0
LINE
  5
24C56
330
747D
100
AcDbEntity
  8
細線
 48
50.0
100
AcDbLine
 10
6377.078445327953
 20
1265.278006572263
 30
0.0
 11
6440.872897278805
 21
1329.072458523114
 31
0.0
  0
LINE
  5
24C57
330
747D
100
AcDbEntity
  8
細線
 48
50.0
100
AcDbLine
 10
6513.607916563808
 20
1025.278006572261
 30
0.0
 11
6520.872897278805
 21
1052.391283716652
 31
0.0
  0
LINE
  5
24C58
330
747D
100
AcDbEntity
  8
細線
 48
50.0
100
AcDbLine
 10
6520.038697182157
 20
1049.278006572263
 30
0.0
 11
6520.872897278805
 21
1046.164729427899
 31
0.0
  0
LINE
  5
24C59
330
747D
100
AcDbEntity
  8
細線
 48
50.0
100
AcDbLine
 10
6441.15065223491
 20
1049.278006572263
 30
0.0
 11
6447.581432853258
 21
1025.278006572263
 31
0.0
  0
LINE
  5
24C5A
330
747D
100
AcDbEntity
  8
細線
 48
50.0
100
AcDbLine
 10
6283.374562340418
 20
1049.278006572263
 30
0.0
 11
6289.805342958763
 21
1025.278006572263
 31
0.0
  0
LINE
  5
24C5B
330
747D
100
AcDbEntity
  8
細線
 48
50.0
100
AcDbLine
 10
6362.262607287663
 20
1049.278006572263
 30
0.0
 11
6368.69338790601
 21
1025.278006572263
 31
0.0
  0
LINE
  5
24C5C
330
747D
100
AcDbEntity
  8
細線
 48
50.0
100
AcDbLine
 10
6355.831826669313
 20
1025.278006572261
 30
0.0
 11
6390.129323300499
 21
1153.278006572262
 31
0.0
  0
LINE
  5
24C5D
330
747D
100
AcDbEntity
  8
細線
 48
50.0
100
AcDbLine
 10
6276.943781722064
 20
1025.278006572263
 30
0.0
 11
6311.241278353251
 21
1153.278006572262
 31
0.0
  0
LINE
  5
24C5E
330
747D
100
AcDbEntity
  8
細線
 48
50.0
100
AcDbLine
 10
6434.719871616559
 20
1025.278006572263
 30
0.0
 11
6469.017368247744
 21
1153.278006572262
 31
0.0
  0
LINE
  5
24C5F
330
747D
100
AcDbEntity
  8
部品1
 48
50.0
100
AcDbLine
 10
6520.872897278808
 20
1153.278006572263
 30
0.0
 11
6520.872897278808
 21
1025.278006572263
 31
0.0
  0
LINE
  5
24C60
330
747D
100
AcDbEntity
  8
部品1
 48
50.0
100
AcDbLine
 10
6208.872897278805
 20
1331.405221269386
 30
0.0
 11
6208.872897278805
 21
1273.278006572263
 31
0.0
  0
LINE
  5
24C61
330
747D
100
AcDbEntity
  8
細線
 48
50.0
100
AcDbLine
 10
6134.611530059088
 20
1265.278006572263
 30
0.0
 11
6192.872897278805
 21
1323.539373791982
 31
0.0
  0
LINE
  5
24C62
330
747D
100
AcDbEntity
  8
部品1
 48
50.0
100
AcDbLine
 10
6192.872897278805
 20
1331.405221269386
 30
0.0
 11
6192.872897278805
 21
1273.278006572263
 31
0.0
  0
LINE
  5
24C63
330
747D
100
AcDbEntity
  8
細線
 48
50.0
100
AcDbLine
 10
6049.552298422294
 20
1153.278006572263
 30
0.0
 11
6145.552298422294
 21
1249.278006572263
 31
0.0
  0
LINE
  5
24C64
330
747D
100
AcDbEntity
  8
細線
 48
50.0
100
AcDbLine
 10
6147.034407840409
 20
1129.278006572263
 30
0.0
 11
6140.603627222063
 21
1153.278006572263
 31
0.0
  0
LINE
  5
24C65
330
747D
100
AcDbEntity
  8
細線
 48
50.0
100
AcDbLine
 10
6068.146362893156
 20
1129.278006572263
 30
0.0
 11
6061.71558227481
 21
1153.278006572263
 31
0.0
  0
ARC
  5
24C66
330
747D
100
AcDbEntity
  8
部品1
 48
50.0
100
AcDbCircle
 10
6216.872897278805
 20
1273.278006572263
 30
0.0
 40
24.0
100
AcDbArc
 50
180.0
 51
199.4712206344897
  0
LINE
  5
24C67
330
747D
100
AcDbEntity
  8
細線
 48
50.0
100
AcDbLine
 10
6161.552298422293
 20
1265.278006572263
 30
0.0
 11
6192.872897278805
 21
1296.598605428775
 31
0.0
  0
CIRCLE
  5
24C68
330
747D
100
AcDbEntity
  8
部品1
 48
50.0
100
AcDbCircle
 10
6088.872897278805
 20
1273.278006572263
 30
0.0
 40
8.0
  0
LINE
  5
24C69
330
747D
100
AcDbEntity
  8
部品1
 48
50.0
100
AcDbLine
 10
6208.872897278805
 20
1331.405221269386
 30
0.0
 11
6192.872897278805
 21
1331.405221269386
 31
0.0
  0
LINE
  5
24C6A
330
747D
100
AcDbEntity
  8
細線
 48
50.0
100
AcDbLine
 10
5912.872897278806
 20
1138.617927538043
 30
0.0
 11
5916.801053617001
 21
1153.278006572263
 31
0.0
  0
LINE
  5
24C6B
330
747D
100
AcDbEntity
  8
細線
 48
50.0
100
AcDbLine
 10
5989.258317945905
 20
1129.278006572263
 30
0.0
 11
5982.827537327557
 21
1153.278006572263
 31
0.0
  0
LINE
  5
24C6C
330
747D
100
AcDbEntity
  8
部品1
 48
50.0
100
AcDbLine
 10
6048.872897278805
 20
1265.278006572263
 30
0.0
 11
6048.872897278805
 21
1249.278006572263
 31
0.0
  0
LINE
  5
24C6D
330
747D
100
AcDbEntity
  8
細線
 48
50.0
100
AcDbLine
 10
5995.670761695877
 20
1153.278006572263
 30
0.0
 11
6091.670761695877
 21
1249.278006572263
 31
0.0
  0
LINE
  5
24C6E
330
747D
100
AcDbEntity
  8
細線
 48
50.0
100
AcDbLine
 10
6022.611530059088
 20
1153.278006572263
 30
0.0
 11
6118.611530059088
 21
1249.278006572263
 31
0.0
  0
LINE
  5
24C6F
330
747D
100
AcDbEntity
  8
細線
 48
50.0
100
AcDbLine
 10
6125.598472445919
 20
1049.278006572263
 30
0.0
 11
6132.029253064265
 21
1025.278006572263
 31
0.0
  0
LINE
  5
24C70
330
747D
100
AcDbEntity
  8
細線
 48
50.0
100
AcDbLine
 10
6204.486517393172
 20
1049.278006572263
 30
0.0
 11
6210.917298011518
 21
1025.278006572263
 31
0.0
  0
LINE
  5
24C71
330
747D
100
AcDbEntity
  8
細線
 48
50.0
100
AcDbLine
 10
5967.822382551416
 20
1049.278006572263
 30
0.0
 11
5974.253163169763
 21
1025.278006572263
 31
0.0
  0
LINE
  5
24C72
330
747D
100
AcDbEntity
  8
細線
 48
50.0
100
AcDbLine
 10
6046.710427498666
 20
1049.278006572263
 30
0.0
 11
6053.141208117015
 21
1025.278006572263
 31
0.0
  0
LINE
  5
24C73
330
747D
100
AcDbEntity
  8
部品1
 48
50.0
100
AcDbLine
 10
5912.872897278806
 20
1025.278006572263
 30
0.0
 11
5912.872897278806
 21
1153.278006572263
 31
0.0
  0
LINE
  5
24C74
330
747D
100
AcDbEntity
  8
細線
 48
50.0
100
AcDbLine
 10
5961.391601933063
 20
1025.278006572261
 30
0.0
 11
5995.689098564246
 21
1153.278006572262
 31
0.0
  0
LINE
  5
24C75
330
747D
100
AcDbEntity
  8
細線
 48
50.0
100
AcDbLine
 10
6119.167691827566
 20
1025.278006572261
 30
0.0
 11
6153.465188458749
 21
1153.278006572262
 31
0.0
  0
LINE
  5
24C76
330
747D
100
AcDbEntity
  8
細線
 48
50.0
100
AcDbLine
 10
6040.279646880321
 20
1025.278006572263
 30
0.0
 11
6074.577143511504
 21
1153.278006572263
 31
0.0
  0
LINE
  5
24C77
330
747D
100
AcDbEntity
  8
細線
 48
50.0
100
AcDbLine
 10
6211.196908601538
 20
1153.278006572263
 30
0.0
 11
6307.196908601538
 21
1249.278006572263
 31
0.0
  0
CIRCLE
  5
24C78
330
747D
100
AcDbEntity
  8
部品1
 48
50.0
100
AcDbCircle
 10
6216.872897278805
 20
1273.278006572263
 30
0.0
 40
8.0
  0
LINE
  5
24C79
330
747D
100
AcDbEntity
  8
部品1
 48
50.0
100
AcDbLine
 10
6520.872897278808
 20
1153.278006572263
 30
0.0
 11
5912.872897278806
 21
1153.278006572263
 31
0.0
  0
LINE
  5
24C7A
330
747D
100
AcDbEntity
  8
部品1
 48
50.0
100
AcDbLine
 10
6048.872897278805
 20
1265.278006572263
 30
0.0
 11
6384.872897278805
 21
1265.278006572263
 31
0.0
  0
LINE
  5
24C7B
330
747D
100
AcDbEntity
  8
部品1
 48
50.0
100
AcDbLine
 10
6048.872897278805
 20
1249.278006572263
 30
0.0
 11
6384.872897278805
 21
1249.278006572263
 31
0.0
  0
LINE
  5
24C7C
330
747D
100
AcDbEntity
  8
部品1
 48
50.0
100
AcDbLine
 10
6520.872897278808
 20
1025.278006572263
 30
0.0
 11
5912.872897278806
 21
1025.278006572263
 31
0.0
  0
LINE
  5
24C7D
330
747D
100
AcDbEntity
  8
細線
 48
50.0
100
AcDbLine
 10
6198.055736774819
 20
1025.278006572263
 30
0.0
 11
6232.353233406001
 21
1153.278006572263
 31
0.0
  0
LINE
  5
24C7E
330
747D
100
AcDbEntity
  8
細線
 48
50.0
100
AcDbLine
 10
6208.872897278805
 20
1312.598605428775
 30
0.0
 11
6224.87289727881
 21
1328.598605428775
 31
0.0
  0
LINE
  5
24C7F
330
747D
100
AcDbEntity
  8
部品1
 48
50.0
100
AcDbLine
 10
6224.87289727881
 20
1273.278006572263
 30
0.0
 11
6224.872897278798
 21
1797.532435966509
 31
0.0
  0
LINE
  5
24C80
330
747D
100
AcDbEntity
  8
部品1
 48
50.0
100
AcDbLine
 10
6240.87289727881
 20
1273.278006572263
 30
0.0
 11
6240.872897278805
 21
1797.532435966509
 31
0.0
  0
LINE
  5
24C81
330
747D
100
AcDbEntity
  8
部品1
 48
50.0
100
AcDbLine
 10
6440.872897278805
 20
1393.278006572264
 30
0.0
 11
6440.872897278805
 21
1153.278006572263
 31
0.0
  0
LINE
  5
24C82
330
747D
100
AcDbEntity
  8
細線
 48
50.0
100
AcDbLine
 10
6323.196908601532
 20
1265.278006572263
 30
0.0
 11
6440.872897278805
 21
1382.953995249529
 31
0.0
  0
LINE
  5
24C83
330
747D
100
AcDbEntity
  8
細線
 48
50.0
100
AcDbLine
 10
6350.137676964749
 20
1265.278006572263
 30
0.0
 11
6440.872897278805
 21
1356.013226886322
 31
0.0
  0
LINE
  5
24C84
330
747D
100
AcDbEntity
  8
部品1
 48
50.0
100
AcDbLine
 10
5992.872897278805
 20
1153.278006572263
 30
0.0
 11
5992.872897278805
 21
1393.278006572264
 31
0.0
  0
LINE
  5
24C85
330
747D
100
AcDbEntity
  8
細線
 48
50.0
100
AcDbLine
 10
6107.670761695878
 20
1265.278006572263
 30
0.0
 11
6224.872897278805
 21
1382.480142155189
 31
0.0
  0
LINE
  5
24C86
330
747D
100
AcDbEntity
  8
細線
 48
50.0
100
AcDbLine
 10
6200.738744756209
 20
1331.405221269386
 30
0.0
 11
6224.87289727881
 21
1355.539373791985
 31
0.0
  0
LINE
  5
24C87
330
747D
100
AcDbEntity
  8
細線
 48
50.0
100
AcDbLine
 10
5992.872897278798
 20
1312.124752334434
 30
0.0
 11
6074.026151516633
 21
1393.278006572264
 31
0.0
  0
LEADER
  5
24C88
330
747D
100
AcDbEntity
  8
寸法
 48
50.0
100
AcDbLeader
  3
INABA_S50G
 71
     0
 73
     0
 74
     0
 75
     1
 40
100.0
 41
222.7272727272727
 76
     3
 10
6216.872897278804
 20
1797.532435966509
 30
0.0
 10
6270.758834306199
 20
1896.768008819683
 30
0.0
 10
6395.758834306199
 20
1896.768008819683
 30
0.0
1001
ACAD
1000
DSTYLE
1002
{
1070
    40
1040
1.0
1070
   272
1070
     1
1070
   279
1070
     1
1070
   341
1005
0
1002
}
  0
LWPOLYLINE
  5
24C89
330
747D
100
AcDbEntity
  8
部品1
 48
50.0
100
AcDbPolyline
 90
        2
 70
     0
 43
8.0
 10
6312.872897278804
 20
1697.278006572264
 10
6727.012799111761
 20
1697.278006572264
  0
MTEXT
  5
24C8A
102
{ACAD_REACTORS
330
24C8C
102
}
330
747D
100
AcDbEntity
  8
寸法
 62
     7
 48
50.0
100
AcDbMText
 10
6544.200557085488
 20
1237.880937629291
 30
0.0
 40
80.0
 41
0.8
 71
     4
 72
     1
  1
D10
  7
STYLE2
 73
     1
 44
1.0
1001
ACAD
1000
MTEXTBEGIN
1070
    73
1070
     1
1070
    44
1040
1.0
1070
    74
1070
     0
1000
MTEXTEND
  0
LEADER
  5
24C8B
330
747D
100
AcDbEntity
  8
寸法
 48
50.0
100
AcDbLeader
  3
INABA_S50G
 71
     0
 73
     0
 74
     0
 75
     1
 40
100.0
 41
540.3409090909091
 76
     3
 10
6290.818066291979
 20
1256.537476158738
 30
0.0
 10
6409.611353140054
 20
914.9066581638408
 30
0.0
 10
6534.611353140054
 20
914.9066581638408
 30
0.0
213
0.0
223
-1.022262676269383
233
0.0
1001
ACAD
1000
DSTYLE
1002
{
1070
    40
1040
1.0
1070
   272
1070
     1
1070
   279
1070
     1
1070
   341
1005
0
1002
}
  0
LEADER
  5
24C8C
330
747D
100
AcDbEntity
  8
寸法
 48
50.0
100
AcDbLeader
  3
INABA_S50G
 71
     0
 73
     0
 74
     0
 75
     1
 40
100.0
 41
225.0
 76
     3
 10
6344.775849630947
 20
1273.278006572263
 30
0.0
 10
6399.200557085489
 20
1177.880937629291
 30
0.0
 10
6524.200557085489
 20
1177.880937629291
 30
0.0
1001
ACAD
1000
DSTYLE
1002
{
1070
    40
1040
1.0
1070
   272
1070
     1
1070
   279
1070
     1
1070
   341
1005
0
1002
}
  0
MTEXT
  5
24C8D
102
{ACAD_REACTORS
330
24C88
102
}
330
747D
100
AcDbEntity
  8
寸法
 62
     7
 48
50.0
100
AcDbMText
 10
6395.758834306199
 20
1959.833905865074
 30
0.0
 40
80.0
 41
0.8
 71
     4
 72
     1
  1
D13
  7
STYLE2
 73
     1
 44
1.0
1001
ACAD
1000
MTEXTBEGIN
1070
    73
1070
     1
1070
    44
1040
1.0
1070
    74
1070
     0
1000
MTEXTEND
  0
LINE
  5
24C8E
330
747D
100
AcDbEntity
  8
部品1
 48
50.0
100
AcDbLine
 10
6312.872897278805
 20
1937.278006572263
 30
0.0
 11
6312.872897278805
 21
1393.278006572264
 31
0.0
  0
LINE
  5
24C8F
330
747D
100
AcDbEntity
  8
部品1
 48
50.0
100
AcDbLine
 10
6120.872897278805
 20
1393.278006572264
 30
0.0
 11
6120.872897278805
 21
1937.278006572263
 31
0.0
  0
CIRCLE
  5
24C90
330
747D
100
AcDbEntity
  8
部品1
 48
50.0
100
AcDbCircle
 10
6216.872897278805
 20
1797.532435966509
 30
0.0
 40
8.0
  0
ARC
  5
24C91
330
747D
100
AcDbEntity
  8
部品1
 48
50.0
100
AcDbCircle
 10
6216.872897278805
 20
1797.532435966509
 30
0.0
 40
24.0
100
AcDbArc
 50
0.0
 51
180.0
  0
LINE
  5
24C92
330
747D
100
AcDbEntity
  8
細線
 48
50.0
100
AcDbLine
 10
6240.872897278805
 20
1775.650899240094
 30
0.0
 11
6312.872897278805
 21
1847.650899240094
 31
0.0
  0
LEADER
  5
24C93
330
747D
100
AcDbEntity
  8
寸法
 48
50.0
100
AcDbLeader
  3
INABA_S50G
 73
     0
 75
     1
 40
106.3636363636363
 41
893.1818181818181
 76
     3
 10
7952.312210455999
 20
2006.838006572265
 30
0.0
 10
7903.888138111058
 20
2380.897581288597
 30
0.0
 10
7778.888138111058
 20
2380.897581288597
 30
0.0
340
24C94
1001
ACAD
1000
DSTYLE
1002
{
1070
   341
1005
0
1070
    40
1040
1.0
1070
   343
1005
0
1070
   344
1005
0
1002
}
  0
MTEXT
  5
24C94
102
{ACAD_REACTORS
330
24C93
102
}
330
747D
100
AcDbEntity
  8
寸法
 62
     7
 48
50.0
100
AcDbMText
 10
7753.888138111058
 20
2459.079399470415
 30
0.0
 40
80.0
 41
0.8
 71
     6
 72
     1
  1
\A1;アンカープレート L
  7
STYLE2
 73
     1
 44
1.0
1001
ACAD
1000
MTEXTBEGIN
1070
    73
1070
     1
1070
    44
1040
1.0
1070
    74
1070
     0
1000
MTEXTEND
  0
DIMENSION
  5
24C95
330
747D
100
AcDbEntity
  8
寸法
 48
50.0
100
AcDbDimension
  2
*D45
 10
6440.872897278804
 20
614.8483685671035
 30
0.0
 11
6196.77613860058
 21
614.8483685671035
 31
0.0
 70
   160
  1
300
 71
     5
 42
448.0
  3
INABA_S40G
100
AcDbAlignedDimension
 13
5992.872897278804
 23
1025.278006572263
 33
0.0
 14
6440.872897278804
 24
1025.278006572263
 34
0.0
100
AcDbRotatedDimension
1001
ACAD
1000
DSTYLE
1002
{
1070
   341
1005
0
1002
}
  0
MTEXT
  5
24C96
102
{ACAD_REACTORS
330
24C9E
102
}
330
747D
100
AcDbEntity
  8
寸法
 62
     7
 48
50.0
100
AcDbMText
 10
5821.93787108361
 20
1069.755312953827
 30
0.0
 40
80.0
 41
0.8
 71
     6
 72
     1
  1
D10
  7
STYLE2
 73
     1
 44
1.0
1001
ACAD
1000
MTEXTBEGIN
1070
    73
1070
     1
1070
    44
1040
1.0
1070
    74
1070
     0
1000
MTEXTEND
  0
MTEXT
  5
24C97
102
{ACAD_REACTORS
330
24C9D
102
}
330
747D
100
AcDbEntity
  8
寸法
 62
     7
 48
50.0
100
AcDbMText
 10
5850.060598641045
 20
889.4391604143839
 30
0.0
 40
80.0
 41
0.8
 71
     6
 72
     1
  1
D13
  7
STYLE2
 73
     1
 44
1.0
1001
ACAD
1000
MTEXTBEGIN
1070
    73
1070
     1
1070
    44
1040
1.0
1070
    74
1070
     0
1000
MTEXTEND
  0
DIMENSION
  5
24C98
330
747D
100
AcDbEntity
  8
寸法
 48
50.0
100
AcDbDimension
  2
*D46
 10
5385.835658717064
 20
1153.278006572264
 30
0.0
 11
5385.835658717064
 21
1524.818156228264
 31
0.0
 70
   160
  1
540
 71
     5
 42
784.0
  3
INABA_S40G
100
AcDbAlignedDimension
 13
6120.872897278804
 23
1937.278006572263
 33
0.0
 14
5912.872897278807
 24
1153.278006572263
 34
0.0
 50
90.0
100
AcDbRotatedDimension
1001
ACAD
1000
DSTYLE
1002
{
1070
   341
1005
0
1002
}
  0
MTEXT
  5
24C99
102
{ACAD_REACTORS
330
24C9A
102
}
330
747D
100
AcDbEntity
  8
寸法
 62
     7
 48
50.0
100
AcDbMText
 10
5900.774417795531
 20
2149.794226574306
 30
0.0
 40
80.0
 41
0.8
 71
     6
 72
     1
  1
\A1;金コテ押エ
  7
STYLE2
 73
     1
 44
1.0
1001
ACAD
1000
MTEXTBEGIN
1070
    73
1070
     1
1070
    44
1040
1.0
1070
    74
1070
     0
1000
MTEXTEND
  0
LEADER
  5
24C9A
330
747D
100
AcDbEntity
  8
寸法
 48
50.0
100
AcDbLeader
  3
INABA_S50G
 71
     0
 73
     0
 75
     1
 40
130.1136363636363
 41
651.1363636363636
 76
     3
 10
6200.872897278804
 20
1937.278006572263
 30
0.0
 10
6088.448317114788
 20
2077.748772028852
 30
0.0
 10
5963.448317114788
 20
2077.748772028852
 30
0.0
1001
ACAD
1000
DSTYLE
1002
{
1070
    40
1040
1.0
1070
   272
1070
     1
1070
   279
1070
     1
1070
   341
1005
0
1002
}
  0
LEADER
  5
24C9B
330
747D
100
AcDbEntity
  8
寸法
 48
50.0
100
AcDbLeader
  3
INABA_S50G
 71
     0
 73
     0
 75
     1
 40
100.0
 41
540.3409090909091
 76
     3
 10
6224.872897278804
 20
1695.405221269387
 30
0.0
 10
6166.890660750105
 20
1473.934892728582
 30
0.0
 10
6041.890660750105
 20
1473.934892728582
 30
0.0
213
-9.732182305893367
223
-4.643716661138569
233
0.0
1001
ACAD
1000
DSTYLE
1002
{
1070
    40
1040
1.0
1070
   272
1070
     1
1070
   279
1070
     1
1070
   341
1005
0
1002
}
  0
MTEXT
  5
24C9C
102
{ACAD_REACTORS
330
24C9B
102
}
330
747D
100
AcDbEntity
  8
寸法
 62
     7
 48
50.0
100
AcDbMText
 10
6031.622843055999
 20
1538.57860938972
 30
0.0
 40
80.0
 41
0.8
 71
     6
 72
     1
  1
\A1;D10@300
  7
STYLE2
 73
     1
 44
1.0
1001
ACAD
1000
MTEXTBEGIN
1070
    73
1070
     1
1070
    44
1040
1.0
1070
    74
1070
     0
1000
MTEXTEND
  0
LEADER
  5
24C9D
330
747D
100
AcDbEntity
  8
寸法
 48
50.0
100
AcDbLeader
  3
INABA_S50G
 71
     0
 73
     0
 75
     1
 40
100.0
 41
222.7272727272727
 76
     3
 10
6216.872897278804
 20
1273.278006572263
 30
0.0
 10
5995.060598641044
 20
829.4391604143838
 30
0.0
 10
5870.060598641044
 20
829.4391604143838
 30
0.0
1001
ACAD
1000
DSTYLE
1002
{
1070
    40
1040
1.0
1070
   272
1070
     1
1070
   279
1070
     1
1070
   341
1005
0
1002
}
  0
LEADER
  5
24C9E
330
747D
100
AcDbEntity
  8
寸法
 48
50.0
100
AcDbLeader
  3
INABA_S50G
 71
     0
 73
     0
 75
     1
 40
100.0
 41
225.0
 76
     3
 10
6088.775849630947
 20
1273.278006572263
 30
0.0
 10
5966.93787108361
 20
1009.755312953827
 30
0.0
 10
5841.93787108361
 20
1009.755312953827
 30
0.0
1001
ACAD
1000
DSTYLE
1002
{
1070
    40
1040
1.0
1070
   272
1070
     1
1070
   279
1070
     1
1070
   341
1005
0
1002
}
  0
DIMENSION
  5
24C9F
330
747D
100
AcDbEntity
  8
寸法
 48
50.0
100
AcDbDimension
  2
*D47
 10
5850.452583546345
 20
1153.278006572263
 30
0.0
 11
5850.452583546345
 21
1273.278006572264
 31
0.0
 70
   160
  1
150
 71
     5
 42
240.0
  3
INABA_S40G
100
AcDbAlignedDimension
 13
5992.872897278804
 23
1393.278006572264
 33
0.0
 14
5912.872897278807
 24
1153.278006572263
 34
0.0
 50
90.0
100
AcDbRotatedDimension
1001
ACAD
1000
DSTYLE
1002
{
1070
   341
1005
0
1002
}
  0
TEXT
  5
24CA0
330
747D
100
AcDbEntity
  8
部品1
 48
50.0
100
AcDbText
 10
5706.732995445847
 20
1708.516998855519
 30
0.0
 40
80.0
  1
▽G.L
  7
STYLE2
100
AcDbText
  0
LWPOLYLINE
  5
24CA1
330
747D
100
AcDbEntity
  8
部品1
 48
50.0
100
AcDbPolyline
 90
        2
 70
     0
 43
8.0
 10
5706.732995445847
 20
1697.278006572264
 10
6120.872897278804
 20
1697.278006572264
  0
MTEXT
  5
24CA2
102
{ACAD_REACTORS
330
24CA3
102
}
330
747D
100
AcDbEntity
  8
寸法
 62
     7
 48
50.0
100
AcDbMText
 10
7727.245131902702
 20
2819.763671377929
 30
0.0
 40
80.0
 41
0.8
 71
     6
 72
     1
  1
\A1;φ70スリーブ
  7
STYLE2
 73
     1
 44
1.0
1001
ACAD
1000
MTEXTBEGIN
1070
    73
1070
     1
1070
    44
1040
1.0
1070
    74
1070
     0
1000
MTEXTEND
  0
LEADER
  5
24CA3
330
747D
100
AcDbEntity
  8
寸法
 48
50.0
100
AcDbLeader
  3
INABA_S50G
 73
     0
 75
     1
 40
113.1818181818182
 41
608.6363636363635
 76
     3
 10
8011.048960594051
 20
1886.793679930542
 30
0.0
 10
7877.245131902701
 20
2738.172762287021
 30
0.0
 10
7752.245131902701
 20
2738.172762287021
 30
0.0
340
24CA2
1001
ACAD
1000
DSTYLE
1002
{
1070
   341
1005
0
1070
    40
1040
1.0
1070
   343
1005
0
1070
   344
1005
0
1002
}
  0
LINE
  5
24CA4
330
747D
100
AcDbEntity
  8
部品1
100
AcDbLine
 10
5050.204458469541
 20
3336.616673772849
 30
0.0
 11
5050.204458469544
 21
372.309704188202
 31
0.0
  0
LEADER
  5
24CA5
330
747D
100
AcDbEntity
  8
寸法
 48
50.0
100
AcDbLeader
  3
INABA_S50G
 73
     0
 74
     0
 75
     1
 40
80.0
 41
435.0
 76
     3
 10
8051.312210456
 20
1986.438006572264
 30
0.0
 10
8093.856672875316
 20
2136.661332725493
 30
0.0
 10
8218.856672875316
 20
2136.661332725493
 30
0.0
340
24CA6
1001
ACAD
1000
DSTYLE
1002
{
1070
   341
1005
0
1070
    40
1040
1.0
1070
   343
1005
0
1070
   344
1005
0
1002
}
  0
MTEXT
  5
24CA6
102
{ACAD_REACTORS
330
24CA5
102
}
330
747D
100
AcDbEntity
  8
部品1
 62
     7
 48
50.0
100
AcDbMText
 10
8243.856672875317
 20
2201.661332725494
 30
0.0
 40
80.0
 41
0.8
 71
     4
 72
     1
  1
M10X160
  7
STYLE2
 73
     1
 44
1.0
1001
ACAD
1000
MTEXTBEGIN
1070
    73
1070
     1
1070
    44
1040
1.0
1070
    74
1070
     0
1000
MTEXTEND
  0
DIMENSION
  5
24CA7
330
747D
100
AcDbEntity
  8
寸法
 48
50.0
100
AcDbDimension
  2
*D48
 10
9012.83547634387
 20
1937.278006572263
 30
0.0
 11
9012.83547634387
 21
1471.269103150781
 31
0.0
 70
   160
  1
20～25
 71
     5
 42
52.76000000000113
  3
INABA_S40G
100
AcDbAlignedDimension
 13
8047.712210455998
 23
1990.038006572264
 33
0.0
 14
8234.912210455998
 24
1937.278006572263
 34
0.0
 50
90.0
100
AcDbRotatedDimension
1001
ACAD
1000
DSTYLE
1002
{
1070
   341
1005
0
1002
}
  0
DIMENSION
  5
24CA8
330
747D
100
AcDbEntity
  8
寸法
 48
50.0
100
AcDbDimension
  2
*D49
 10
8736.780810224841
 20
1613.278006572262
 30
0.0
 11
8636.780810224841
 21
1775.278006572264
 31
0.0
 70
    32
  1
180
 71
     5
 42
324.0000000000009
  3
INABA_S40G
100
AcDbAlignedDimension
 13
8234.912210455998
 23
1937.278006572263
 33
0.0
 14
8234.912210455998
 24
1613.278006572263
 34
0.0
 50
90.0
100
AcDbRotatedDimension
1001
ACAD
1000
DSTYLE
1002
{
1070
   341
1005
0
1002
}
  0
TEXT
  5
24CA9
330
747D
100
AcDbEntity
  8
部品1
 48
50.0
100
AcDbText
 10
8239.265794740425
 20
2293.156687334464
 30
0.0
 40
80.0
  1
基礎ボルト(市販品)
  7
STYLE2
100
AcDbText
  0
LWPOLYLINE
  5
24CAA
330
747D
100
AcDbEntity
  8
部品1
 48
50.0
100
AcDbPolyline
 90
        2
 70
     0
 43
8.0
 10
8234.912210455998
 20
1697.278006572264
 10
8528.614673855383
 20
1697.278006572264
  0
MTEXT
  5
24CAB
102
{ACAD_REACTORS
330
24CAC
102
}
330
747D
100
AcDbEntity
  8
部品1
 62
     7
 48
50.0
100
AcDbMText
 10
8274.183800824838
 20
2637.773379659524
 30
0.0
 40
80.0
 41
0.8
 71
     4
 72
     1
  1
\A1;ワッシャー(市販品)
  7
STYLE2
 73
     1
 44
1.0
1001
ACAD
1000
MTEXTBEGIN
1070
    73
1070
     1
1070
    44
1040
1.0
1070
    74
1070
     0
1000
MTEXTEND
  0
LEADER
  5
24CAC
330
747D
100
AcDbEntity
  8
寸法
 48
50.0
100
AcDbLeader
  3
INABA_S50G
 73
     0
 74
     0
 75
     1
 40
102.2727272727273
 41
906.8181818181818
 76
     3
 10
8082.312210455999
 20
2206.401295016544
 30
0.0
 10
8124.183800824837
 20
2561.63701602316
 30
0.0
 10
8249.183800824837
 20
2561.63701602316
 30
0.0
340
24CAB
1001
ACAD
1000
DSTYLE
1002
{
1070
   341
1005
0
1070
    40
1040
1.0
1070
   343
1005
0
1070
   344
1005
0
1002
}
  0
MTEXT
  5
24CAD
102
{ACAD_REACTORS
330
24CAE
102
}
330
747D
100
AcDbEntity
  8
部品1
 62
     7
 48
50.0
100
AcDbMText
 10
8242.666181569354
 20
2822.742462424312
 30
0.0
 40
80.0
 41
0.8
 71
     4
 72
     1
  1
\A1;ナット(市販品)
  7
STYLE2
 73
     1
 44
1.0
1001
ACAD
1000
MTEXTBEGIN
1070
    73
1070
     1
1070
    44
1040
1.0
1070
    74
1070
     0
1000
MTEXTEND
  0
LEADER
  5
24CAE
330
747D
100
AcDbEntity
  8
寸法
 48
50.0
100
AcDbLeader
  3
INABA_S50G
 73
     0
 74
     0
 75
     1
 40
102.2727272727273
 41
680.0000000000001
 76
     3
 10
8058.312210456
 20
2336.153287681407
 30
0.0
 10
8092.666181569354
 20
2746.606098787947
 30
0.0
 10
8217.666181569354
 20
2746.606098787947
 30
0.0
340
24CAD
1001
ACAD
1000
DSTYLE
1002
{
1070
   341
1005
0
1070
    40
1040
1.0
1070
   343
1005
0
1070
   344
1005
0
1002
}
  0
LINE
  5
24CAF
330
747D
100
AcDbEntity
  8
部品1
100
AcDbLine
 10
5050.204458469545
 20
372.309704188202
 30
0.0
 11
11121.18964385579
 21
372.309704188202
 31
0.0
  0
LINE
  5
24CB0
330
747D
100
AcDbEntity
  8
部品1
100
AcDbLine
 10
11121.18964385579
 20
3096.616673772847
 30
0.0
 11
5050.204458469544
 21
3096.616673772847
 31
0.0
  0
LINE
  5
24CB1
330
747D
100
AcDbEntity
  8
部品1
100
AcDbLine
 10
11121.18964385579
 20
3336.616673772849
 30
0.0
 11
5050.20445846954
 21
3336.616673772849
 31
0.0
  0
ENDSEC
  0
SECTION
  2
OBJECTS
  0
DICTIONARY
  5
7471
330
0
100
AcDbDictionary
281
     1
  3
ACAD_COLOR
350
173D2
  3
ACAD_GROUP
350
7472
  3
ACAD_LAYOUT
350
173D3
  3
ACAD_MATERIAL
350
173D1
  3
ACAD_MLINESTYLE
350
7473
  3
ACAD_PLOTSETTINGS
350
173D4
  3
ACAD_PLOTSTYLENAME
350
173CF
  3
ACDBHEADERROUNDTRIPXREC
350
24D53
  3
AcDbVariableDictionary
350
2494E
  3
CONTENTDICTIONARY
350
E71C
  3
DRAWINGVARIABLESDICT
350
F3B9
  0
DICTIONARY
  5
1758F
330
7467
100
AcDbDictionary
280
     1
281
     1
  3
ACAD_LAYERSTATES
360
17590
  0
DICTIONARY
  5
173D2
102
{ACAD_REACTORS
330
7471
102
}
330
7471
100
AcDbDictionary
281
     1
  0
DICTIONARY
  5
7472
102
{ACAD_REACTORS
330
7471
102
}
330
7471
100
AcDbDictionary
281
     1
  3
*A1
350
1D2A9
  0
DICTIONARY
  5
173D3
102
{ACAD_REACTORS
330
7471
102
}
330
7471
100
AcDbDictionary
281
     1
  3
Model
350
173D5
  3
レイアウト1
350
173D6
  0
DICTIONARY
  5
173D1
102
{ACAD_REACTORS
330
7471
102
}
330
7471
100
AcDbDictionary
281
     1
  0
DICTIONARY
  5
7473
102
{ACAD_REACTORS
330
7471
102
}
330
7471
100
AcDbDictionary
281
     1
  3
STANDARD
350
7480
  0
DICTIONARY
  5
173D4
102
{ACAD_REACTORS
330
7471
102
}
330
7471
100
AcDbDictionary
281
     1
  0
ACDBDICTIONARYWDFLT
  5
173CF
102
{ACAD_REACTORS
330
7471
102
}
330
7471
100
AcDbDictionary
281
     1
  3
Normal
350
173D0
100
AcDbDictionaryWithDefault
340
173D0
  0
DICTIONARY
  5
24D53
102
{ACAD_REACTORS
330
7471
102
}
330
7471
100
AcDbDictionary
281
     1
  3
COLORDICT
350
24D55
  3
MATERIALDICT
350
24D54
  0
DICTIONARY
  5
2494E
102
{ACAD_REACTORS
330
7471
102
}
330
7471
100
AcDbDictionary
281
     1
  3
DIMASSOC
350
2494F
  3
PROJECTNAME
350
24950
  0
DICTIONARY
  5
E71C
102
{ACAD_REACTORS
330
7471
102
}
330
7471
100
AcDbDictionary
281
     1
  0
DICTIONARY
  5
F3B9
102
{ACAD_REACTORS
330
7471
102
}
330
7471
100
AcDbDictionary
281
     1
1001
DRAWINGVARIABLESXDATA
1000
POLARMODE
1000
1
  0
DICTIONARY
  5
17590
102
{ACAD_REACTORS
330
1758F
102
}
330
1758F
100
AcDbDictionary
281
     1
  0
GROUP
  5
1D2A9
102
{ACAD_REACTORS
330
7472
102
}
330
7472
100
AcDbGroup
300

 70
     1
 71
     1
  0
LAYOUT
  5
173D5
102
{ACAD_XDICTIONARY
360
24D56
102
}
102
{ACAD_REACTORS
330
173D3
102
}
330
173D3
100
AcDbPlotSettings
  1

  2
クセロPDF
  4
A3
  6

 40
3.174999952316284
 41
3.174999952316284
 42
3.17498779296875
 43
3.17498779296875
 44
419.9466552734374
 45
296.9259948730469
 46
0.0
 47
0.0
 48
0.0
 49
0.0
140
0.0
141
0.0
142
1.0
143
40.88431153497317
 70
 11952
 72
     1
 73
     0
 74
     2
  7
inabass.ctb
 75
     0
147
0.0244592598592392
148
0.0
149
0.0
100
AcDbLayout
  1
Model
 70
     1
 71
     0
 10
0.0
 20
0.0
 11
12.0
 21
9.0
 12
0.0
 22
0.0
 32
0.0
 14
0.0
 24
0.0
 34
0.0
 15
0.0
 25
0.0
 35
0.0
146
0.0
 13
0.0
 23
0.0
 33
0.0
 16
1.0
 26
0.0
 36
0.0
 17
0.0
 27
1.0
 37
0.0
 76
     0
330
747D
  0
LAYOUT
  5
173D6
102
{ACAD_XDICTIONARY
360
24D58
102
}
102
{ACAD_REACTORS
330
173D3
102
}
330
173D3
100
AcDbPlotSettings
  1

  2
Microsoft Office Document Image Writer
  4

  6

 40
0.0
 41
0.0
 42
0.0
 43
0.0
 44
0.0
 45
0.0
 46
0.0
 47
0.0
 48
0.0
 49
0.0
140
0.0
141
0.0
142
1.0
143
1.0
 70
   688
 72
     0
 73
     0
 74
     5
  7
inabass.ctb
 75
    16
147
1.0
148
0.0
149
0.0
100
AcDbLayout
  1
レイアウト1
 70
     0
 71
     1
 10
0.0
 20
0.0
 11
420.0
 21
297.0
 12
0.0
 22
0.0
 32
0.0
 14
1.000000000000000E+20
 24
1.000000000000000E+20
 34
1.000000000000000E+20
 15
-1.000000000000000E+20
 25
-1.000000000000000E+20
 35
-1.000000000000000E+20
146
0.0
 13
0.0
 23
0.0
 33
0.0
 16
1.0
 26
0.0
 36
0.0
 17
0.0
 27
1.0
 37
0.0
 76
     0
330
747A
  0
MLINESTYLE
  5
7480
102
{ACAD_REACTORS
330
7473
102
}
330
7473
100
AcDbMlineStyle
  2
STANDARD
 70
     0
  3

 62
     0
 51
90.0
 52
90.0
 71
     2
 49
0.5
 62
   256
  6
BYLAYER
 49
-0.5
 62
   256
  6
BYLAYER
  0
ACDBPLACEHOLDER
  5
173D0
102
{ACAD_REACTORS
330
173CF
102
}
330
173CF
  0
XRECORD
  5
24D55
102
{ACAD_REACTORS
330
24D53
102
}
330
24D53
100
AcDbXrecord
280
     1
340
173D2
  0
XRECORD
  5
24D54
102
{ACAD_REACTORS
330
24D53
102
}
330
24D53
100
AcDbXrecord
280
     1
340
173D1
  0
DICTIONARYVAR
  5
2494F
102
{ACAD_REACTORS
330
2494E
102
}
330
2494E
100
DictionaryVariables
280
     0
  1
1
  0
DICTIONARYVAR
  5
24950
102
{ACAD_REACTORS
330
2494E
102
}
330
2494E
100
DictionaryVariables
280
     0
  1

  0
DICTIONARY
  5
24D56
330
173D5
100
AcDbDictionary
280
     1
281
     1
  3
ACAD_XREC_ROUNDTRIP
360
24D57
  0
DICTIONARY
  5
24D58
330
173D6
100
AcDbDictionary
280
     1
281
     1
  3
ACAD_XREC_ROUNDTRIP
360
24D59
  0
XRECORD
  5
24D57
102
{ACAD_REACTORS
330
24D56
102
}
330
24D56
100
AcDbXrecord
280
     1
102
SHADEPLOT
 70
     0
102
SHADEPLOTRESLEVEL
 70
     2
102
SHADEPLOTCUSTOMDPI
 70
   150
  0
XRECORD
  5
24D59
102
{ACAD_REACTORS
330
24D58
102
}
330
24D58
100
AcDbXrecord
280
     1
102
SHADEPLOT
 70
     0
102
SHADEPLOTRESLEVEL
 70
     2
102
SHADEPLOTCUSTOMDPI
 70
   300
  0
ENDSEC
  0
EOF
