  0
SECTION
  2
HEADER
  9
$ACADVER
  1
AC1015
  9
$ACADMAINTVER
 70
    20
  9
$DWGCODEPAGE
  3
ANSI_932
  9
$INSBASE
 10
0.0
 20
0.0
 30
0.0
  9
$EXTMIN
 10
139.196816621341
 20
-0.1811693038616795
 30
-0.0000000000112498
  9
$EXTMAX
 10
16308.32523385566
 20
11409.92678395885
 30
0.0000000000002956
  9
$LIMMIN
 10
0.0
 20
0.0
  9
$LIMMAX
 10
16800.0
 20
11880.0
  9
$ORTHOMODE
 70
     0
  9
$REGENMODE
 70
     1
  9
$FILLMODE
 70
     1
  9
$QTEXTMODE
 70
     0
  9
$MIRRTEXT
 70
     1
  9
$LTSCALE
 40
20.0
  9
$ATTMODE
 70
     1
  9
$TEXTSIZE
 40
4.0
  9
$TRACEWID
 40
1.0
  9
$TEXTSTYLE
  7
STYLE1
  9
$CLAYER
  8
細線
  9
$CELTYPE
  6
BYLAYER
  9
$CECOLOR
 62
   256
  9
$CELTSCALE
 40
50.0
  9
$DISPSILH
 70
     0
  9
$DIMSCALE
 40
40.0
  9
$DIMASZ
 40
2.5
  9
$DIMEXO
 40
0.5
  9
$DIMDLI
 40
7.0
  9
$DIMRND
 40
0.0
  9
$DIMDLE
 40
0.0
  9
$DIMEXE
 40
1.5
  9
$DIMTP
 40
0.0
  9
$DIMTM
 40
0.0
  9
$DIMTXT
 40
3.0
  9
$DIMCEN
 40
0.0
  9
$DIMTSZ
 40
0.0
  9
$DIMTOL
 70
     0
  9
$DIMLIM
 70
     0
  9
$DIMTIH
 70
     0
  9
$DIMTOH
 70
     0
  9
$DIMSE1
 70
     0
  9
$DIMSE2
 70
     0
  9
$DIMTAD
 70
     3
  9
$DIMZIN
 70
     8
  9
$DIMBLK
  1

  9
$DIMASO
 70
     1
  9
$DIMSHO
 70
     1
  9
$DIMPOST
  1

  9
$DIMAPOST
  1

  9
$DIMALT
 70
     0
  9
$DIMALTD
 70
     2
  9
$DIMALTF
 40
0.0394
  9
$DIMLFAC
 40
1.0
  9
$DIMTOFL
 70
     1
  9
$DIMTVP
 40
0.0
  9
$DIMTIX
 70
     1
  9
$DIMSOXD
 70
     0
  9
$DIMSAH
 70
     1
  9
$DIMBLK1
  1
DOTSMALL
  9
$DIMBLK2
  1
DOTSMALL
  9
$DIMSTYLE
  2
INABA_S40G
  9
$DIMCLRD
 70
     0
  9
$DIMCLRE
 70
     0
  9
$DIMCLRT
 70
     7
  9
$DIMTFAC
 40
1.0
  9
$DIMGAP
 40
1.0
  9
$DIMJUST
 70
     0
  9
$DIMSD1
 70
     0
  9
$DIMSD2
 70
     0
  9
$DIMTOLJ
 70
     1
  9
$DIMTZIN
 70
     0
  9
$DIMALTZ
 70
     0
  9
$DIMALTTZ
 70
     0
  9
$DIMUPT
 70
     0
  9
$DIMDEC
 70
     1
  9
$DIMTDEC
 70
     4
  9
$DIMALTU
 70
     2
  9
$DIMALTTD
 70
     2
  9
$DIMTXSTY
  7
STYLE1
  9
$DIMAUNIT
 70
     0
  9
$DIMADEC
 70
     0
  9
$DIMALTRND
 40
0.0
  9
$DIMAZIN
 70
     0
  9
$DIMDSEP
 70
    46
  9
$DIMATFIT
 70
     3
  9
$DIMFRAC
 70
     0
  9
$DIMLDRBLK
  1

  9
$DIMLUNIT
 70
     2
  9
$DIMLWD
 70
    -2
  9
$DIMLWE
 70
    -2
  9
$DIMTMOVE
 70
     0
  9
$LUNITS
 70
     2
  9
$LUPREC
 70
     1
  9
$SKETCHINC
 40
1.0
  9
$FILLETRAD
 40
3.0
  9
$AUNITS
 70
     0
  9
$AUPREC
 70
     0
  9
$MENU
  1
acad
  9
$ELEVATION
 40
0.0
  9
$PELEVATION
 40
0.0
  9
$THICKNESS
 40
0.0
  9
$LIMCHECK
 70
     0
  9
$CHAMFERA
 40
0.0
  9
$CHAMFERB
 40
0.0
  9
$CHAMFERC
 40
0.0
  9
$CHAMFERD
 40
0.0
  9
$SKPOLY
 70
     0
  9
$TDCREATE
 40
2451368.612993866
  9
$TDUCREATE
 40
2451368.237993866
  9
$TDUPDATE
 40
2456276.475885232
  9
$TDUUPDATE
 40
2456276.100885232
  9
$TDINDWG
 40
0.7648305440
  9
$TDUSRTIMER
 40
0.7648305440
  9
$USRTIMER
 70
     1
  9
$ANGBASE
 50
0.0
  9
$ANGDIR
 70
     0
  9
$PDMODE
 70
     3
  9
$PDSIZE
 40
2.0
  9
$PLINEWID
 40
0.0
  9
$SPLFRAME
 70
     0
  9
$SPLINETYPE
 70
     6
  9
$SPLINESEGS
 70
     8
  9
$HANDSEED
  5
2328B
  9
$SURFTAB1
 70
     6
  9
$SURFTAB2
 70
     6
  9
$SURFTYPE
 70
     6
  9
$SURFU
 70
     6
  9
$SURFV
 70
     6
  9
$UCSBASE
  2

  9
$UCSNAME
  2

  9
$UCSORG
 10
0.0
 20
0.0
 30
0.0
  9
$UCSXDIR
 10
1.0
 20
0.0
 30
0.0
  9
$UCSYDIR
 10
0.0
 20
1.0
 30
0.0
  9
$UCSORTHOREF
  2

  9
$UCSORTHOVIEW
 70
     0
  9
$UCSORGTOP
 10
0.0
 20
0.0
 30
0.0
  9
$UCSORGBOTTOM
 10
0.0
 20
0.0
 30
0.0
  9
$UCSORGLEFT
 10
0.0
 20
0.0
 30
0.0
  9
$UCSORGRIGHT
 10
0.0
 20
0.0
 30
0.0
  9
$UCSORGFRONT
 10
0.0
 20
0.0
 30
0.0
  9
$UCSORGBACK
 10
0.0
 20
0.0
 30
0.0
  9
$PUCSBASE
  2

  9
$PUCSNAME
  2

  9
$PUCSORG
 10
0.0
 20
0.0
 30
0.0
  9
$PUCSXDIR
 10
1.0
 20
0.0
 30
0.0
  9
$PUCSYDIR
 10
0.0
 20
1.0
 30
0.0
  9
$PUCSORTHOREF
  2

  9
$PUCSORTHOVIEW
 70
     0
  9
$PUCSORGTOP
 10
0.0
 20
0.0
 30
0.0
  9
$PUCSORGBOTTOM
 10
0.0
 20
0.0
 30
0.0
  9
$PUCSORGLEFT
 10
0.0
 20
0.0
 30
0.0
  9
$PUCSORGRIGHT
 10
0.0
 20
0.0
 30
0.0
  9
$PUCSORGFRONT
 10
0.0
 20
0.0
 30
0.0
  9
$PUCSORGBACK
 10
0.0
 20
0.0
 30
0.0
  9
$USERI1
 70
     0
  9
$USERI2
 70
     0
  9
$USERI3
 70
     0
  9
$USERI4
 70
     0
  9
$USERI5
 70
     0
  9
$USERR1
 40
0.0
  9
$USERR2
 40
0.0
  9
$USERR3
 40
0.0
  9
$USERR4
 40
0.0
  9
$USERR5
 40
0.0
  9
$WORLDVIEW
 70
     1
  9
$SHADEDGE
 70
     3
  9
$SHADEDIF
 70
    70
  9
$TILEMODE
 70
     1
  9
$MAXACTVP
 70
    16
  9
$PINSBASE
 10
0.0
 20
0.0
 30
0.0
  9
$PLIMCHECK
 70
     0
  9
$PEXTMIN
 10
1.000000000000000E+20
 20
1.000000000000000E+20
 30
1.000000000000000E+20
  9
$PEXTMAX
 10
-1.000000000000000E+20
 20
-1.000000000000000E+20
 30
-1.000000000000000E+20
  9
$PLIMMIN
 10
0.0
 20
0.0
  9
$PLIMMAX
 10
420.0
 20
297.0
  9
$UNITMODE
 70
     0
  9
$VISRETAIN
 70
     0
  9
$PLINEGEN
 70
     0
  9
$PSLTSCALE
 70
     0
  9
$TREEDEPTH
 70
  3020
  9
$CMLSTYLE
  2
STANDARD
  9
$CMLJUST
 70
     0
  9
$CMLSCALE
 40
1.0
  9
$PROXYGRAPHICS
 70
     1
  9
$MEASUREMENT
 70
     1
  9
$CELWEIGHT
370
    -1
  9
$ENDCAPS
280
     0
  9
$JOINSTYLE
280
     0
  9
$LWDISPLAY
290
     0
  9
$INSUNITS
 70
     0
  9
$HYPERLINKBASE
  1

  9
$STYLESHEET
  1
inabass.ctb
  9
$XEDIT
290
     1
  9
$CEPSNTYPE
380
     0
  9
$PSTYLEMODE
290
     1
  9
$FINGERPRINTGUID
  2
{5EAC461A-2277-4BF8-9AB0-99C43BB394F0}
  9
$VERSIONGUID
  2
{A8B47513-2847-4F71-BBC6-8FDE3051A67C}
  9
$EXTNAMES
290
     1
  9
$PSVPSCALE
 40
0.0
  9
$OLESTARTUP
290
     0
  0
ENDSEC
  0
SECTION
  2
CLASSES
  0
CLASS
  1
ACDBDICTIONARYWDFLT
  2
AcDbDictionaryWithDefault
  3
ObjectDBX Classes
 90
        0
280
     0
281
     0
  0
CLASS
  1
DICTIONARYVAR
  2
AcDbDictionaryVar
  3
ObjectDBX Classes
 90
        0
280
     0
281
     0
  0
CLASS
  1
ACDBPLACEHOLDER
  2
AcDbPlaceHolder
  3
ObjectDBX Classes
 90
        0
280
     0
281
     0
  0
CLASS
  1
LAYOUT
  2
AcDbLayout
  3
ObjectDBX Classes
 90
        0
280
     0
281
     0
  0
ENDSEC
  0
SECTION
  2
TABLES
  0
TABLE
  2
VPORT
  5
746D
330
0
100
AcDbSymbolTable
 70
     4
  0
VPORT
  5
23283
330
746D
100
AcDbSymbolTableRecord
100
AcDbViewportTableRecord
  2
*Active
 70
     0
 10
0.0
 20
0.0
 11
1.0
 21
1.0
 12
8400.0
 22
6181.20206240933
 13
0.0
 23
0.0
 14
10.0
 24
10.0
 15
10.0
 25
10.0
 16
0.0
 26
0.0
 36
1.0
 17
0.0
 27
0.0
 37
0.0
 40
12463.72239280566
 41
1.607999999999999
 42
50.0
 43
0.0
 44
0.0
 50
0.0
 51
0.0
 71
     0
 72
     0
 73
     1
 74
     0
 75
     0
 76
     0
 77
     0
 78
     0
281
     0
 65
     1
110
0.0
120
0.0
130
0.0
111
1.0
121
0.0
131
0.0
112
0.0
122
1.0
132
0.0
 79
     0
146
0.0
  0
ENDTAB
  0
TABLE
  2
LTYPE
  5
746A
330
0
100
AcDbSymbolTable
 70
     5
  0
LTYPE
  5
7477
330
746A
100
AcDbSymbolTableRecord
100
AcDbLinetypeTableRecord
  2
BYBLOCK
 70
     0
  3

 72
    65
 73
     0
 40
0.0
  0
LTYPE
  5
7478
330
746A
100
AcDbSymbolTableRecord
100
AcDbLinetypeTableRecord
  2
BYLAYER
 70
     0
  3

 72
    65
 73
     0
 40
0.0
  0
LTYPE
  5
7479
330
746A
100
AcDbSymbolTableRecord
100
AcDbLinetypeTableRecord
  2
CONTINUOUS
 70
     0
  3
Solid line
 72
    65
 73
     0
 40
0.0
  0
LTYPE
  5
7816
330
746A
100
AcDbSymbolTableRecord
100
AcDbLinetypeTableRecord
  2
CENTER
 70
     0
  3
____ _ ____ _ ____ _ ____ _ ____ _ ____ _ ____ 
 72
    65
 73
     4
 40
2.0
 49
1.25
 74
     0
 49
-0.25
 74
     0
 49
0.25
 74
     0
 49
-0.25
 74
     0
  0
LTYPE
  5
781A
330
746A
100
AcDbSymbolTableRecord
100
AcDbLinetypeTableRecord
  2
HIDDEN
 70
     0
  3
__ __ __ __ __ __ __ __ __ __ __ __ __ __ __ __
 72
    65
 73
     2
 40
0.375
 49
0.25
 74
     0
 49
-0.125
 74
     0
  0
LTYPE
  5
781B
330
746A
100
AcDbSymbolTableRecord
100
AcDbLinetypeTableRecord
  2
PHANTOM
 70
     0
  3
______  __  __  ______  __  __  ______  __  __ 
 72
    65
 73
     6
 40
2.5
 49
1.25
 74
     0
 49
-0.25
 74
     0
 49
0.25
 74
     0
 49
-0.25
 74
     0
 49
0.25
 74
     0
 49
-0.25
 74
     0
  0
LTYPE
  5
12CC3
330
746A
100
AcDbSymbolTableRecord
100
AcDbLinetypeTableRecord
  2
HIDDENX2
 70
     0
  3
Hidden (2x) ____ ____ ____ ____ ____ ____ ____
 72
    65
 73
     2
 40
19.05
 49
12.7
 74
     0
 49
-6.349999999999999
 74
     0
  0
ENDTAB
  0
TABLE
  2
LAYER
  5
7467
102
{ACAD_XDICTIONARY
360
1758F
102
}
330
0
100
AcDbSymbolTable
 70
    12
  0
LAYER
  5
7474
330
7467
100
AcDbSymbolTableRecord
100
AcDbLayerTableRecord
  2
0
 70
     0
 62
     7
  6
CONTINUOUS
370
    -3
390
173D0
  0
LAYER
  5
DEB2
330
7467
100
AcDbSymbolTableRecord
100
AcDbLayerTableRecord
  2
センター
 70
     0
 62
     3
  6
CENTER
370
    -3
390
173D0
  0
LAYER
  5
DEB3
330
7467
100
AcDbSymbolTableRecord
100
AcDbLayerTableRecord
  2
寸法
 70
     0
 62
     4
  6
CONTINUOUS
370
    -3
390
173D0
  0
LAYER
  5
DEB4
330
7467
100
AcDbSymbolTableRecord
100
AcDbLayerTableRecord
  2
部品1
 70
     0
 62
     7
  6
CONTINUOUS
370
    -3
390
173D0
  0
LAYER
  5
DEB5
330
7467
100
AcDbSymbolTableRecord
100
AcDbLayerTableRecord
  2
補助
 70
     0
 62
    -1
  6
CONTINUOUS
370
    -3
390
173D0
  0
LAYER
  5
DEB6
330
7467
100
AcDbSymbolTableRecord
100
AcDbLayerTableRecord
  2
文字
 70
     0
 62
     7
  6
CONTINUOUS
370
    -3
390
173D0
  0
LAYER
  5
F255
330
7467
100
AcDbSymbolTableRecord
100
AcDbLayerTableRecord
  2
DEFPOINTS
 70
     0
 62
     7
  6
CONTINUOUS
290
     0
370
    -3
390
173D0
  0
LAYER
  5
10B54
330
7467
100
AcDbSymbolTableRecord
100
AcDbLayerTableRecord
  2
仕様書枠
 70
     0
 62
   230
  6
CONTINUOUS
370
    -3
390
173D0
  0
LAYER
  5
11729
330
7467
100
AcDbSymbolTableRecord
100
AcDbLayerTableRecord
  2
Ｇ．Ｌ
 70
     0
 62
    30
  6
CONTINUOUS
370
    -3
390
173D0
  0
LAYER
  5
1173F
330
7467
100
AcDbSymbolTableRecord
100
AcDbLayerTableRecord
  2
細線
 70
     0
 62
     5
  6
CONTINUOUS
370
    -3
390
173D0
  0
LAYER
  5
12CC4
330
7467
100
AcDbSymbolTableRecord
100
AcDbLayerTableRecord
  2
想像線
 70
     0
 62
     6
  6
PHANTOM
370
    -3
390
173D0
  0
LAYER
  5
142E2
330
7467
100
AcDbSymbolTableRecord
100
AcDbLayerTableRecord
  2
破線
 70
     0
 62
     2
  6
HIDDEN
370
    -3
390
173D0
  0
ENDTAB
  0
TABLE
  2
STYLE
  5
7468
330
0
100
AcDbSymbolTable
 70
     7
  0
STYLE
  5
7475
330
7468
100
AcDbSymbolTableRecord
100
AcDbTextStyleTableRecord
  2
STANDARD
 70
     0
 40
0.0
 41
1.0
 50
0.0
 71
     0
 42
4.0
  3
txt
  4
C:\AutoCAD LT\bigfont.shx
  0
STYLE
  5
763C
330
7468
100
AcDbSymbolTableRecord
100
AcDbTextStyleTableRecord
  2
MSMINCHO
 70
     0
 40
0.0
 41
1.0
 50
0.0
 71
     0
 42
1.199999999999999
  3
C:\AutoCAD LT\msminch2.TTF
  4

  0
STYLE
  5
F706
330
7468
100
AcDbSymbolTableRecord
100
AcDbTextStyleTableRecord
  2
STYLE1
 70
     0
 40
0.0
 41
1.0
 50
0.0
 71
     0
 42
4.0
  3
isocp.shx
  4
bigfont.shx
  0
STYLE
  5
103BF
330
7468
100
AcDbSymbolTableRecord
100
AcDbTextStyleTableRecord
  2
STYLE2
 70
     0
 40
0.0
 41
1.0
 50
0.0
 71
     0
 42
100.0
  3
MS PGothic.ttf
  4

1001
ACAD
1000
MS PGothic
1071
    32818
  0
STYLE
  5
10BAA
330
7468
100
AcDbSymbolTableRecord
100
AcDbTextStyleTableRecord
  2
STYLE3
 70
     0
 40
0.0
 41
1.0
 50
0.0
 71
     0
 42
100.0
  3

  4

1001
ACAD
1000
DFPGothic-EB
1071
    32818
  0
STYLE
  5
11A15
330
7468
100
AcDbSymbolTableRecord
100
AcDbTextStyleTableRecord
  2
MSGOTHIC
 70
     0
 40
0.0
 41
1.0
 50
0.0
 71
     0
 42
3.5
  3
msgothi2.ttf
  4

  0
STYLE
  5
13E96
330
7468
100
AcDbSymbolTableRecord
100
AcDbTextStyleTableRecord
  2
MSPゴシック
 70
     0
 40
0.0
 41
1.0
 50
0.0
 71
     0
 42
4.0
  3
MS PGothic.ttf
  4

1001
ACAD
1000
MS PGothic
1071
    32818
  0
ENDTAB
  0
TABLE
  2
VIEW
  5
746B
330
0
100
AcDbSymbolTable
 70
     0
  0
ENDTAB
  0
TABLE
  2
UCS
  5
746C
330
0
100
AcDbSymbolTable
 70
     0
  0
ENDTAB
  0
TABLE
  2
APPID
  5
746E
330
0
100
AcDbSymbolTable
 70
     6
  0
APPID
  5
7476
330
746E
100
AcDbSymbolTableRecord
100
AcDbRegAppTableRecord
  2
ACAD
 70
     0
  0
APPID
  5
DEA9
330
746E
100
AcDbSymbolTableRecord
100
AcDbRegAppTableRecord
  2
CONTENTBLOCKICON
 70
     0
  0
APPID
  5
DEAA
330
746E
100
AcDbSymbolTableRecord
100
AcDbRegAppTableRecord
  2
CONTENTBLOCKDESCRIPTION
 70
     0
  0
APPID
  5
E71D
330
746E
100
AcDbSymbolTableRecord
100
AcDbRegAppTableRecord
  2
CONTENTTABDATA
 70
     0
  0
APPID
  5
E71E
330
746E
100
AcDbSymbolTableRecord
100
AcDbRegAppTableRecord
  2
CONTENTCURRENTTAB
 70
     0
  0
APPID
  5
F3BA
330
746E
100
AcDbSymbolTableRecord
100
AcDbRegAppTableRecord
  2
DRAWINGVARIABLESXDATA
 70
     0
  0
ENDTAB
  0
TABLE
  2
DIMSTYLE
  5
746F
330
0
100
AcDbSymbolTable
 70
     6
100
AcDbDimStyleTable
 71
     1
340
F71F
  0
DIMSTYLE
105
7484
330
746F
100
AcDbSymbolTableRecord
100
AcDbDimStyleTableRecord
  2
JIS
 70
     0
 41
2.5
 42
1.0
 43
7.0
 44
1.0
 73
     0
 74
     0
 77
     1
 78
     8
140
2.5
141
0.0
143
0.0394
147
0.0
172
     1
174
     1
175
     1
340
7475
  0
DIMSTYLE
105
F236
330
746F
100
AcDbSymbolTableRecord
100
AcDbDimStyleTableRecord
  2
INABA_S40
 70
     0
 40
40.0
 41
2.5
 42
0.5
 43
7.0
 44
1.5
 73
     0
 74
     0
 77
     3
 78
     8
140
3.0
141
0.0
143
0.0394
147
1.0
172
     1
173
     1
174
     1
175
     1
178
     7
289
     0
340
7475
341
DEAC
343
DEAC
344
DEAC
  0
DIMSTYLE
105
F71F
102
{ACAD_REACTORS
330
20DE1
330
20DFB
330
22741
330
2275B
330
22A83
330
22A82
330
22A81
330
22A41
330
22A40
330
22A3F
330
22A3D
330
22A1F
330
22A1E
330
22A1D
330
22A3E
330
22A31
330
22A30
330
22A33
330
22A2F
330
22A76
330
22A98
330
231C7
330
231CA
330
231D1
330
231D9
330
231DA
330
23167
102
}
330
746F
100
AcDbSymbolTableRecord
100
AcDbDimStyleTableRecord
  2
INABA_S40G
 70
     0
 40
40.0
 41
2.5
 42
0.5
 43
7.0
 44
1.5
 73
     0
 74
     0
 77
     3
 78
     8
140
3.0
141
0.0
143
0.0394
147
1.0
172
     1
173
     1
174
     1
178
     7
271
     1
340
F706
341
F770
343
F770
344
F770
  0
DIMSTYLE
105
142E3
330
746F
100
AcDbSymbolTableRecord
100
AcDbDimStyleTableRecord
  2
INABA_S1
 70
     0
 40
0.0
 41
2.5
 42
0.5
 43
7.0
 44
1.5
 73
     0
 74
     0
 77
     3
 78
     8
140
3.0
141
0.0
143
0.0394
146
0.5
147
0.5
172
     1
173
     1
176
   256
177
   256
178
     7
271
     2
272
     2
284
     8
288
     1
340
7475
341
DEAC
343
DEAC
344
DEAC
  0
DIMSTYLE
105
14463
330
746F
100
AcDbSymbolTableRecord
100
AcDbDimStyleTableRecord
  2
INABA_S30G
 70
     0
 40
30.0
 41
2.5
 42
0.5
 43
7.0
 44
1.5
 73
     0
 74
     0
 77
     3
 78
     8
140
3.0
141
0.0
143
0.0394
147
1.0
172
     1
173
     1
174
     1
175
     1
178
     7
271
     1
340
F706
341
F770
343
F770
344
F770
  0
DIMSTYLE
105
1758E
330
746F
100
AcDbSymbolTableRecord
100
AcDbDimStyleTableRecord
  2
INABA_S50G
 70
     0
 41
125.0
 42
25.0
 43
7.0
 44
75.0
 73
     0
 74
     0
 77
     3
 78
     8
140
150.0
141
0.0
143
0.0394
147
25.0
172
     1
173
     1
174
     1
175
     1
178
     7
271
     1
340
F706
341
F770
343
F770
344
F770
  0
ENDTAB
  0
TABLE
  2
BLOCK_RECORD
  5
7466
330
0
100
AcDbSymbolTable
 70
    56
  0
BLOCK_RECORD
  5
747D
330
7466
100
AcDbSymbolTableRecord
100
AcDbBlockTableRecord
  2
*MODEL_SPACE
340
173D5
  0
BLOCK_RECORD
  5
747A
330
7466
100
AcDbSymbolTableRecord
100
AcDbBlockTableRecord
  2
*PAPER_SPACE
340
173D6
  0
BLOCK_RECORD
  5
DEAC
330
7466
100
AcDbSymbolTableRecord
100
AcDbBlockTableRecord
  2
_OPEN
340
0
  0
BLOCK_RECORD
  5
F770
330
7466
100
AcDbSymbolTableRecord
100
AcDbBlockTableRecord
  2
_DOTSMALL
340
0
102
{BLKREFS
331
18C65
331
18C66
331
18C59
331
18C5A
331
18C4D
331
18C4E
331
18C41
331
18C42
331
18C35
331
18C36
331
18C29
331
18C2A
331
18C1D
331
18C1E
331
18C0F
331
18C10
331
18C03
331
18C04
331
18BF5
331
18BF6
331
18BE7
331
18BE8
331
18BD9
331
18BDA
331
18BCD
331
18BCE
331
21316
331
21317
331
21321
331
21322
331
2132A
331
2132B
331
22D9C
331
22D9D
331
22DA5
331
22DA6
331
22DAF
331
22DB0
331
22DC2
331
22DC3
331
22DCC
331
22DCD
331
22DD6
331
22DD7
331
22DE9
331
22DEA
331
22DFB
331
22DFC
331
22E0F
331
22E10
331
22E18
331
22E19
331
22E21
331
22E22
331
22E2A
331
22E2B
331
22E35
331
22E36
331
22E40
331
22E41
331
22E4B
331
22E4C
331
22E56
331
22E57
331
22E68
331
22E69
331
22E8C
331
22E8D
331
22E96
331
22E97
331
22EDC
331
22EDD
331
22EE6
331
22EE7
331
22F6F
331
22F70
331
22F63
331
22F64
331
22F57
331
22F58
331
22F4B
331
22F4C
331
22F3F
331
22F40
331
22F31
331
22F32
331
23231
331
23232
331
2323A
331
2323B
331
23243
331
23244
331
2324E
331
2324F
331
23257
331
23258
331
23260
331
23261
331
2326A
331
2326B
102
}
  0
BLOCK_RECORD
  5
164B4
330
7466
100
AcDbSymbolTableRecord
100
AcDbBlockTableRecord
  2
_DOT
340
0
102
{BLKREFS
331
18C73
331
18C74
102
}
  0
BLOCK_RECORD
  5
18BC8
330
7466
100
AcDbSymbolTableRecord
100
AcDbBlockTableRecord
  2
*D3
340
0
  0
BLOCK_RECORD
  5
18BD4
330
7466
100
AcDbSymbolTableRecord
100
AcDbBlockTableRecord
  2
*D4
340
0
  0
BLOCK_RECORD
  5
18BE0
330
7466
100
AcDbSymbolTableRecord
100
AcDbBlockTableRecord
  2
*D5
340
0
  0
BLOCK_RECORD
  5
18BEE
330
7466
100
AcDbSymbolTableRecord
100
AcDbBlockTableRecord
  2
*D6
340
0
  0
BLOCK_RECORD
  5
18BFC
330
7466
100
AcDbSymbolTableRecord
100
AcDbBlockTableRecord
  2
*D7
340
0
  0
BLOCK_RECORD
  5
18C0A
330
7466
100
AcDbSymbolTableRecord
100
AcDbBlockTableRecord
  2
*D8
340
0
  0
BLOCK_RECORD
  5
18C16
330
7466
100
AcDbSymbolTableRecord
100
AcDbBlockTableRecord
  2
*D9
340
0
  0
BLOCK_RECORD
  5
18C24
330
7466
100
AcDbSymbolTableRecord
100
AcDbBlockTableRecord
  2
*D10
340
0
  0
BLOCK_RECORD
  5
18C30
330
7466
100
AcDbSymbolTableRecord
100
AcDbBlockTableRecord
  2
*D11
340
0
  0
BLOCK_RECORD
  5
18C3C
330
7466
100
AcDbSymbolTableRecord
100
AcDbBlockTableRecord
  2
*D12
340
0
  0
BLOCK_RECORD
  5
18C48
330
7466
100
AcDbSymbolTableRecord
100
AcDbBlockTableRecord
  2
*D13
340
0
  0
BLOCK_RECORD
  5
18C54
330
7466
100
AcDbSymbolTableRecord
100
AcDbBlockTableRecord
  2
*D14
340
0
  0
BLOCK_RECORD
  5
18C60
330
7466
100
AcDbSymbolTableRecord
100
AcDbBlockTableRecord
  2
*D15
340
0
  0
BLOCK_RECORD
  5
18C6C
330
7466
100
AcDbSymbolTableRecord
100
AcDbBlockTableRecord
  2
*D16
340
0
  0
BLOCK_RECORD
  5
18C7A
330
7466
100
AcDbSymbolTableRecord
100
AcDbBlockTableRecord
  2
A$C3B1A506B
340
0
  0
BLOCK_RECORD
  5
1C4CA
330
7466
100
AcDbSymbolTableRecord
100
AcDbBlockTableRecord
  2
_NONE
340
0
  0
BLOCK_RECORD
  5
20DE2
330
7466
100
AcDbSymbolTableRecord
100
AcDbBlockTableRecord
  2
*D19
340
0
  0
BLOCK_RECORD
  5
20DFC
330
7466
100
AcDbSymbolTableRecord
100
AcDbBlockTableRecord
  2
*D20
340
0
  0
BLOCK_RECORD
  5
22742
330
7466
100
AcDbSymbolTableRecord
100
AcDbBlockTableRecord
  2
*D25
340
0
  0
BLOCK_RECORD
  5
2275C
330
7466
100
AcDbSymbolTableRecord
100
AcDbBlockTableRecord
  2
*D26
340
0
  0
BLOCK_RECORD
  5
22AA3
330
7466
100
AcDbSymbolTableRecord
100
AcDbBlockTableRecord
  2
*D27
340
0
  0
BLOCK_RECORD
  5
22AAE
330
7466
100
AcDbSymbolTableRecord
100
AcDbBlockTableRecord
  2
*D28
340
0
  0
BLOCK_RECORD
  5
22ABA
330
7466
100
AcDbSymbolTableRecord
100
AcDbBlockTableRecord
  2
*D29
340
0
  0
BLOCK_RECORD
  5
22AC6
330
7466
100
AcDbSymbolTableRecord
100
AcDbBlockTableRecord
  2
*D30
340
0
  0
BLOCK_RECORD
  5
22AD3
330
7466
100
AcDbSymbolTableRecord
100
AcDbBlockTableRecord
  2
*D31
340
0
  0
BLOCK_RECORD
  5
22AE0
330
7466
100
AcDbSymbolTableRecord
100
AcDbBlockTableRecord
  2
*D32
340
0
  0
BLOCK_RECORD
  5
22AEC
330
7466
100
AcDbSymbolTableRecord
100
AcDbBlockTableRecord
  2
*D33
340
0
  0
BLOCK_RECORD
  5
22B1B
330
7466
100
AcDbSymbolTableRecord
100
AcDbBlockTableRecord
  2
*D34
340
0
  0
BLOCK_RECORD
  5
22B28
330
7466
100
AcDbSymbolTableRecord
100
AcDbBlockTableRecord
  2
*D35
340
0
  0
BLOCK_RECORD
  5
22B34
330
7466
100
AcDbSymbolTableRecord
100
AcDbBlockTableRecord
  2
*D36
340
0
  0
BLOCK_RECORD
  5
22B41
330
7466
100
AcDbSymbolTableRecord
100
AcDbBlockTableRecord
  2
*D37
340
0
  0
BLOCK_RECORD
  5
22B4E
330
7466
100
AcDbSymbolTableRecord
100
AcDbBlockTableRecord
  2
*D38
340
0
  0
BLOCK_RECORD
  5
22B5A
330
7466
100
AcDbSymbolTableRecord
100
AcDbBlockTableRecord
  2
*D39
340
0
  0
BLOCK_RECORD
  5
22B74
330
7466
100
AcDbSymbolTableRecord
100
AcDbBlockTableRecord
  2
*D40
340
0
  0
BLOCK_RECORD
  5
22B81
330
7466
100
AcDbSymbolTableRecord
100
AcDbBlockTableRecord
  2
*D41
340
0
  0
BLOCK_RECORD
  5
22B8D
330
7466
100
AcDbSymbolTableRecord
100
AcDbBlockTableRecord
  2
*D42
340
0
  0
BLOCK_RECORD
  5
22B9A
330
7466
100
AcDbSymbolTableRecord
100
AcDbBlockTableRecord
  2
*D43
340
0
  0
BLOCK_RECORD
  5
231E4
330
7466
100
AcDbSymbolTableRecord
100
AcDbBlockTableRecord
  2
*D50
340
0
  0
BLOCK_RECORD
  5
231F0
330
7466
100
AcDbSymbolTableRecord
100
AcDbBlockTableRecord
  2
*D51
340
0
  0
BLOCK_RECORD
  5
231FC
330
7466
100
AcDbSymbolTableRecord
100
AcDbBlockTableRecord
  2
*D52
340
0
  0
BLOCK_RECORD
  5
23208
330
7466
100
AcDbSymbolTableRecord
100
AcDbBlockTableRecord
  2
*D53
340
0
  0
BLOCK_RECORD
  5
23216
330
7466
100
AcDbSymbolTableRecord
100
AcDbBlockTableRecord
  2
*D54
340
0
  0
BLOCK_RECORD
  5
23222
330
7466
100
AcDbSymbolTableRecord
100
AcDbBlockTableRecord
  2
*D55
340
0
  0
ENDTAB
  0
ENDSEC
  0
SECTION
  2
BLOCKS
  0
BLOCK
  5
7489
330
747D
100
AcDbEntity
  8
0
100
AcDbBlockBegin
  2
*MODEL_SPACE
 70
     0
 10
0.0
 20
0.0
 30
0.0
  3
*MODEL_SPACE
  1

  0
ENDBLK
  5
748A
330
747D
100
AcDbEntity
  8
0
100
AcDbBlockEnd
  0
BLOCK
  5
7487
330
747A
100
AcDbEntity
 67
     1
  8
0
100
AcDbBlockBegin
  2
*PAPER_SPACE
 70
     0
 10
0.0
 20
0.0
 30
0.0
  3
*PAPER_SPACE
  1

  0
ENDBLK
  5
7488
330
747A
100
AcDbEntity
 67
     1
  8
0
100
AcDbBlockEnd
  0
BLOCK
  5
DEAD
330
DEAC
100
AcDbEntity
  8
0
100
AcDbBlockBegin
  2
_OPEN
 70
     0
 10
0.0
 20
0.0
 30
0.0
  3
_OPEN
  1

  0
LINE
  5
DEAE
330
DEAC
100
AcDbEntity
  8
0
  6
ByBlock
 62
     0
100
AcDbLine
 10
-1.0
 20
0.1666666666666666
 30
0.0
 11
0.0
 21
0.0
 31
0.0
  0
LINE
  5
DEAF
330
DEAC
100
AcDbEntity
  8
0
  6
ByBlock
 62
     0
100
AcDbLine
 10
0.0
 20
0.0
 30
0.0
 11
-1.0
 21
-0.1666666666666666
 31
0.0
  0
LINE
  5
DEB0
330
DEAC
100
AcDbEntity
  8
0
  6
ByBlock
 62
     0
100
AcDbLine
 10
0.0
 20
0.0
 30
0.0
 11
-1.0
 21
0.0
 31
0.0
  0
ENDBLK
  5
DEB1
330
DEAC
100
AcDbEntity
  8
0
100
AcDbBlockEnd
  0
BLOCK
  5
F771
330
F770
100
AcDbEntity
  8
0
 48
50.0
100
AcDbBlockBegin
  2
_DOTSMALL
 70
     0
 10
0.0
 20
0.0
 30
0.0
  3
_DOTSMALL
  1

  0
LWPOLYLINE
  5
F772
330
F770
100
AcDbEntity
  8
0
  6
ByBlock
 62
     0
 48
50.0
100
AcDbPolyline
 90
        2
 70
     1
 43
0.5
 10
-0.0625
 20
0.0
 42
1.0
 10
0.0625
 20
0.0
 42
1.0
  0
ENDBLK
  5
F776
330
F770
100
AcDbEntity
  8
0
 48
50.0
100
AcDbBlockEnd
  0
BLOCK
  5
164BA
330
164B4
100
AcDbEntity
  8
0
 48
50.0
100
AcDbBlockBegin
  2
_DOT
 70
     0
 10
0.0
 20
0.0
 30
0.0
  3
_DOT
  1

  0
LWPOLYLINE
  5
164B5
330
164B4
100
AcDbEntity
  8
0
  6
ByBlock
 62
     0
 48
50.0
100
AcDbPolyline
 90
        2
 70
     1
 43
0.5
 10
-0.25
 20
0.0
 42
1.0
 10
0.25
 20
0.0
 42
1.0
  0
LINE
  5
164B9
330
164B4
100
AcDbEntity
  8
0
  6
ByBlock
 62
     0
 48
50.0
100
AcDbLine
 10
-0.5
 20
0.0
 30
0.0
 11
-1.0
 21
0.0
 31
0.0
  0
ENDBLK
  5
164BB
330
164B4
100
AcDbEntity
  8
0
 48
50.0
100
AcDbBlockEnd
  0
BLOCK
  5
18BC9
330
18BC8
100
AcDbEntity
  8
0
 48
50.0
100
AcDbBlockBegin
  2
*D3
 70
     1
 10
0.0
 20
0.0
 30
0.0
  3
*D3
  1

  0
LINE
  5
18BCA
330
18BC8
100
AcDbEntity
  8
寸法
 62
     0
 48
50.0
370
    -2
100
AcDbLine
 10
7649.896575106999
 20
9636.123139034717
 30
0.0
 11
8702.429862581047
 21
9636.123139034717
 31
0.0
  0
LINE
  5
18BCB
330
18BC8
100
AcDbEntity
  8
寸法
 62
     0
 48
50.0
370
    -2
100
AcDbLine
 10
7649.896575106973
 20
7846.123139034709
 30
0.0
 11
8702.429862581047
 21
7846.123139034709
 31
0.0
  0
LINE
  5
18BCC
330
18BC8
100
AcDbEntity
  8
寸法
 62
     0
 48
50.0
370
    -2
100
AcDbLine
 10
8642.429862581046
 20
9636.123139034717
 30
0.0
 11
8642.429862581046
 21
7846.123139034709
 31
0.0
  0
INSERT
  5
18BCD
330
18BC8
100
AcDbEntity
  8
寸法
 62
     0
 48
50.0
370
    -2
100
AcDbBlockReference
  2
_DOTSMALL
 10
8642.429862581046
 20
9636.123139034717
 30
0.0
 41
100.0
 42
100.0
 43
100.0
 50
90.0
  0
INSERT
  5
18BCE
330
18BC8
100
AcDbEntity
  8
寸法
 62
     0
 48
50.0
370
    -2
100
AcDbBlockReference
  2
_DOTSMALL
 10
8642.429862581046
 20
7846.123139034709
 30
0.0
 41
100.0
 42
100.0
 43
100.0
 50
270.0
  0
MTEXT
  5
18BCF
330
18BC8
100
AcDbEntity
  8
寸法
 62
     7
 48
50.0
100
AcDbMText
 10
8542.429862581045
 20
8741.123139034712
 30
0.0
 40
120.0
 41
0.0
 71
     5
 72
     1
  1
\A1;1790
  7
STYLE1
 11
0.0000000000000001
 21
1.0
 31
0.0
 73
     1
 44
1.0
1001
ACAD
1000
MTEXTBEGIN
1070
    73
1070
     1
1070
    44
1040
1.0
1070
    74
1070
     0
1000
MTEXTEND
  0
POINT
  5
18BD0
330
18BC8
100
AcDbEntity
  8
DEFPOINTS
 62
     0
 48
50.0
100
AcDbPoint
 10
7629.896575106998
 20
9636.123139034717
 30
0.0
  0
POINT
  5
18BD1
330
18BC8
100
AcDbEntity
  8
DEFPOINTS
 62
     0
 48
50.0
100
AcDbPoint
 10
7629.896575106974
 20
7846.123139034709
 30
0.0
  0
POINT
  5
18BD2
330
18BC8
100
AcDbEntity
  8
DEFPOINTS
 62
     0
 48
50.0
100
AcDbPoint
 10
8642.429862581046
 20
7846.123139034709
 30
0.0
  0
ENDBLK
  5
18BD3
330
18BC8
100
AcDbEntity
  8
0
 48
50.0
100
AcDbBlockEnd
  0
BLOCK
  5
18BD5
330
18BD4
100
AcDbEntity
  8
0
 48
50.0
100
AcDbBlockBegin
  2
*D4
 70
     1
 10
0.0
 20
0.0
 30
0.0
  3
*D4
  1

  0
LINE
  5
18BD6
330
18BD4
100
AcDbEntity
  8
寸法
 62
     0
 48
50.0
370
    -2
100
AcDbLine
 10
4214.896575106998
 20
9656.123139034622
 30
0.0
 11
4214.896575106998
 21
10211.93135865972
 31
0.0
  0
LINE
  5
18BD7
330
18BD4
100
AcDbEntity
  8
寸法
 62
     0
 48
50.0
370
    -2
100
AcDbLine
 10
7574.896575106999
 20
9656.123139034718
 30
0.0
 11
7574.896575106999
 21
10211.93135865972
 31
0.0
  0
LINE
  5
18BD8
330
18BD4
100
AcDbEntity
  8
寸法
 62
     0
 48
50.0
370
    -2
100
AcDbLine
 10
4214.896575106998
 20
10151.93135865972
 30
0.0
 11
7574.896575106999
 21
10151.93135865972
 31
0.0
  0
INSERT
  5
18BD9
330
18BD4
100
AcDbEntity
  8
寸法
 62
     0
 48
50.0
370
    -2
100
AcDbBlockReference
  2
_DOTSMALL
 10
4214.896575106998
 20
10151.93135865972
 30
0.0
 41
100.0
 42
100.0
 43
100.0
 50
180.0
  0
INSERT
  5
18BDA
330
18BD4
100
AcDbEntity
  8
寸法
 62
     0
 48
50.0
370
    -2
100
AcDbBlockReference
  2
_DOTSMALL
 10
7574.896575106999
 20
10151.93135865972
 30
0.0
 41
100.0
 42
100.0
 43
100.0
  0
MTEXT
  5
18BDB
330
18BD4
100
AcDbEntity
  8
寸法
 62
     7
 48
50.0
100
AcDbMText
 10
5894.896575106997
 20
10251.94316968334
 30
0.0
 40
120.0
 41
0.0
 71
     5
 72
     1
  1
\A1;8X420=3360
  7
STYLE1
 73
     1
 44
1.0
1001
ACAD
1000
MTEXTBEGIN
1070
    73
1070
     1
1070
    44
1040
1.0
1070
    74
1070
     0
1000
MTEXTEND
  0
POINT
  5
18BDC
330
18BD4
100
AcDbEntity
  8
DEFPOINTS
 62
     0
 48
50.0
100
AcDbPoint
 10
4214.896575106998
 20
9636.123139034623
 30
0.0
  0
POINT
  5
18BDD
330
18BD4
100
AcDbEntity
  8
DEFPOINTS
 62
     0
 48
50.0
100
AcDbPoint
 10
7574.896575106999
 20
9636.123139034717
 30
0.0
  0
POINT
  5
18BDE
330
18BD4
100
AcDbEntity
  8
DEFPOINTS
 62
     0
 48
50.0
100
AcDbPoint
 10
7574.896575106999
 20
10151.93135865972
 30
0.0
  0
ENDBLK
  5
18BDF
330
18BD4
100
AcDbEntity
  8
0
 48
50.0
100
AcDbBlockEnd
  0
BLOCK
  5
18BE1
330
18BE0
100
AcDbEntity
  8
0
 48
50.0
100
AcDbBlockBegin
  2
*D5
 70
     1
 10
0.0
 20
0.0
 30
0.0
  3
*D5
  1

  0
LINE
  5
18BE2
330
18BE0
100
AcDbEntity
  8
寸法
 62
     0
 48
50.0
370
    -2
100
AcDbLine
 10
7574.896575106999
 20
9656.123139034718
 30
0.0
 11
7574.896575106999
 21
10211.9313586597
 31
0.0
  0
LINE
  5
18BE3
330
18BE0
100
AcDbEntity
  8
寸法
 62
     0
 48
50.0
370
    -2
100
AcDbLine
 10
7629.896575106998
 20
9656.123139034718
 30
0.0
 11
7629.896575106998
 21
10211.9313586597
 31
0.0
  0
LINE
  5
18BE4
330
18BE0
100
AcDbEntity
  8
寸法
 62
     0
 48
50.0
370
    -2
100
AcDbLine
 10
7574.896575106999
 20
10151.9313586597
 30
0.0
 11
7474.896575106999
 21
10151.9313586597
 31
0.0
  0
LINE
  5
18BE5
330
18BE0
100
AcDbEntity
  8
寸法
 62
     0
 48
50.0
370
    -2
100
AcDbLine
 10
7629.896575106998
 20
10151.9313586597
 30
0.0
 11
8046.867137855477
 21
10151.9313586597
 31
0.0
  0
LINE
  5
18BE6
330
18BE0
100
AcDbEntity
  8
寸法
 62
     0
 48
50.0
370
    -2
100
AcDbLine
 10
7574.896575106999
 20
10151.9313586597
 30
0.0
 11
7629.896575106998
 21
10151.9313586597
 31
0.0
  0
INSERT
  5
18BE7
330
18BE0
100
AcDbEntity
  8
寸法
 62
     0
 48
50.0
370
    -2
100
AcDbBlockReference
  2
_DOTSMALL
 10
7574.896575106999
 20
10151.9313586597
 30
0.0
 41
100.0
 42
100.0
 43
100.0
  0
INSERT
  5
18BE8
330
18BE0
100
AcDbEntity
  8
寸法
 62
     0
 48
50.0
370
    -2
100
AcDbBlockReference
  2
_DOTSMALL
 10
7629.896575106998
 20
10151.9313586597
 30
0.0
 41
100.0
 42
100.0
 43
100.0
 50
180.0
  0
MTEXT
  5
18BE9
330
18BE0
100
AcDbEntity
  8
寸法
 62
     7
 48
50.0
100
AcDbMText
 10
7938.381856481237
 20
10251.9313586597
 30
0.0
 40
120.0
 41
0.0
 71
     5
 72
     1
  1
\A1;55
  7
STYLE1
 73
     1
 44
1.0
1001
ACAD
1000
MTEXTBEGIN
1070
    73
1070
     1
1070
    44
1040
1.0
1070
    74
1070
     0
1000
MTEXTEND
  0
POINT
  5
18BEA
330
18BE0
100
AcDbEntity
  8
DEFPOINTS
 62
     0
 48
50.0
100
AcDbPoint
 10
7574.896575106999
 20
9636.123139034717
 30
0.0
  0
POINT
  5
18BEB
330
18BE0
100
AcDbEntity
  8
DEFPOINTS
 62
     0
 48
50.0
100
AcDbPoint
 10
7629.896575106998
 20
9636.123139034717
 30
0.0
  0
POINT
  5
18BEC
330
18BE0
100
AcDbEntity
  8
DEFPOINTS
 62
     0
 48
50.0
100
AcDbPoint
 10
7629.896575106998
 20
10151.9313586597
 30
0.0
  0
ENDBLK
  5
18BED
330
18BE0
100
AcDbEntity
  8
0
 48
50.0
100
AcDbBlockEnd
  0
BLOCK
  5
18BEF
330
18BEE
100
AcDbEntity
  8
0
 48
50.0
100
AcDbBlockBegin
  2
*D6
 70
     1
 10
0.0
 20
0.0
 30
0.0
  3
*D6
  1

  0
LINE
  5
18BF0
330
18BEE
100
AcDbEntity
  8
寸法
 62
     0
 48
50.0
370
    -2
100
AcDbLine
 10
7649.896575106999
 20
9636.123139034717
 30
0.0
 11
8337.32292084141
 21
9636.123139034717
 31
0.0
  0
LINE
  5
18BF1
330
18BEE
100
AcDbEntity
  8
寸法
 62
     0
 48
50.0
370
    -2
100
AcDbLine
 10
7649.896575106999
 20
9581.123139034721
 30
0.0
 11
8337.32292084141
 21
9581.123139034721
 31
0.0
  0
LINE
  5
18BF2
330
18BEE
100
AcDbEntity
  8
寸法
 62
     0
 48
50.0
370
    -2
100
AcDbLine
 10
8277.322920841411
 20
9581.123139034721
 30
0.0
 11
8277.322920841411
 21
9481.123139034719
 31
0.0
  0
LINE
  5
18BF3
330
18BEE
100
AcDbEntity
  8
寸法
 62
     0
 48
50.0
370
    -2
100
AcDbLine
 10
8277.322920841411
 20
9636.123139034717
 30
0.0
 11
8277.322920841411
 21
10053.09370178319
 31
0.0
  0
LINE
  5
18BF4
330
18BEE
100
AcDbEntity
  8
寸法
 62
     0
 48
50.0
370
    -2
100
AcDbLine
 10
8277.322920841411
 20
9581.123139034721
 30
0.0
 11
8277.322920841411
 21
9636.123139034717
 31
0.0
  0
INSERT
  5
18BF5
330
18BEE
100
AcDbEntity
  8
寸法
 62
     0
 48
50.0
370
    -2
100
AcDbBlockReference
  2
_DOTSMALL
 10
8277.322920841411
 20
9581.123139034721
 30
0.0
 41
100.0
 42
100.0
 43
100.0
 50
90.0
  0
INSERT
  5
18BF6
330
18BEE
100
AcDbEntity
  8
寸法
 62
     0
 48
50.0
370
    -2
100
AcDbBlockReference
  2
_DOTSMALL
 10
8277.322920841411
 20
9636.123139034717
 30
0.0
 41
100.0
 42
100.0
 43
100.0
 50
270.0
  0
MTEXT
  5
18BF7
330
18BEE
100
AcDbEntity
  8
寸法
 62
     7
 48
50.0
100
AcDbMText
 10
8177.32292084141
 20
9944.608420408957
 30
0.0
 40
120.0
 41
0.0
 71
     5
 72
     1
  1
\A1;55
  7
STYLE1
 11
0.0000000000000001
 21
1.0
 31
0.0
 73
     1
 44
1.0
1001
ACAD
1000
MTEXTBEGIN
1070
    73
1070
     1
1070
    44
1040
1.0
1070
    74
1070
     0
1000
MTEXTEND
  0
POINT
  5
18BF8
330
18BEE
100
AcDbEntity
  8
DEFPOINTS
 62
     0
 48
50.0
100
AcDbPoint
 10
7629.896575106998
 20
9636.123139034717
 30
0.0
  0
POINT
  5
18BF9
330
18BEE
100
AcDbEntity
  8
DEFPOINTS
 62
     0
 48
50.0
100
AcDbPoint
 10
7629.896575106998
 20
9581.123139034721
 30
0.0
  0
POINT
  5
18BFA
330
18BEE
100
AcDbEntity
  8
DEFPOINTS
 62
     0
 48
50.0
100
AcDbPoint
 10
8277.322920841411
 20
9581.123139034721
 30
0.0
  0
ENDBLK
  5
18BFB
330
18BEE
100
AcDbEntity
  8
0
 48
50.0
100
AcDbBlockEnd
  0
BLOCK
  5
18BFD
330
18BFC
100
AcDbEntity
  8
0
 48
50.0
100
AcDbBlockBegin
  2
*D7
 70
     1
 10
0.0
 20
0.0
 30
0.0
  3
*D7
  1

  0
LINE
  5
18BFE
330
18BFC
100
AcDbEntity
  8
寸法
 62
     0
 48
50.0
370
    -2
100
AcDbLine
 10
4159.896575106963
 20
9656.123139034622
 30
0.0
 11
4159.896575106963
 21
10211.9313586596
 31
0.0
  0
LINE
  5
18BFF
330
18BFC
100
AcDbEntity
  8
寸法
 62
     0
 48
50.0
370
    -2
100
AcDbLine
 10
4214.896575106998
 20
9656.123139034622
 30
0.0
 11
4214.896575106998
 21
10211.9313586596
 31
0.0
  0
LINE
  5
18C00
330
18BFC
100
AcDbEntity
  8
寸法
 62
     0
 48
50.0
370
    -2
100
AcDbLine
 10
4214.896575106998
 20
10151.9313586596
 30
0.0
 11
4314.896575106998
 21
10151.9313586596
 31
0.0
  0
LINE
  5
18C01
330
18BFC
100
AcDbEntity
  8
寸法
 62
     0
 48
50.0
370
    -2
100
AcDbLine
 10
4159.896575106963
 20
10151.9313586596
 30
0.0
 11
3742.926012358486
 21
10151.9313586596
 31
0.0
  0
LINE
  5
18C02
330
18BFC
100
AcDbEntity
  8
寸法
 62
     0
 48
50.0
370
    -2
100
AcDbLine
 10
4214.896575106998
 20
10151.9313586596
 30
0.0
 11
4159.896575106963
 21
10151.9313586596
 31
0.0
  0
INSERT
  5
18C03
330
18BFC
100
AcDbEntity
  8
寸法
 62
     0
 48
50.0
370
    -2
100
AcDbBlockReference
  2
_DOTSMALL
 10
4214.896575106998
 20
10151.9313586596
 30
0.0
 41
100.0
 42
100.0
 43
100.0
 50
180.0
  0
INSERT
  5
18C04
330
18BFC
100
AcDbEntity
  8
寸法
 62
     0
 48
50.0
370
    -2
100
AcDbBlockReference
  2
_DOTSMALL
 10
4159.896575106963
 20
10151.9313586596
 30
0.0
 41
100.0
 42
100.0
 43
100.0
  0
MTEXT
  5
18C05
330
18BFC
100
AcDbEntity
  8
寸法
 62
     7
 48
50.0
100
AcDbMText
 10
3851.411293732725
 20
10251.9313586596
 30
0.0
 40
120.0
 41
0.0
 71
     5
 72
     1
  1
\A1;55
  7
STYLE1
 73
     1
 44
1.0
1001
ACAD
1000
MTEXTBEGIN
1070
    73
1070
     1
1070
    44
1040
1.0
1070
    74
1070
     0
1000
MTEXTEND
  0
POINT
  5
18C06
330
18BFC
100
AcDbEntity
  8
DEFPOINTS
 62
     0
 48
50.0
100
AcDbPoint
 10
4159.896575106963
 20
9636.123139034623
 30
0.0
  0
POINT
  5
18C07
330
18BFC
100
AcDbEntity
  8
DEFPOINTS
 62
     0
 48
50.0
100
AcDbPoint
 10
4214.896575106998
 20
9636.123139034623
 30
0.0
  0
POINT
  5
18C08
330
18BFC
100
AcDbEntity
  8
DEFPOINTS
 62
     0
 48
50.0
100
AcDbPoint
 10
4214.896575106998
 20
10151.9313586596
 30
0.0
  0
ENDBLK
  5
18C09
330
18BFC
100
AcDbEntity
  8
0
 48
50.0
100
AcDbBlockEnd
  0
BLOCK
  5
18C0B
330
18C0A
100
AcDbEntity
  8
0
 48
50.0
100
AcDbBlockBegin
  2
*D8
 70
     1
 10
0.0
 20
0.0
 30
0.0
  3
*D8
  1

  0
LINE
  5
18C0C
330
18C0A
100
AcDbEntity
  8
寸法
 62
     0
 48
50.0
370
    -2
100
AcDbLine
 10
4159.896575106992
 20
7826.123139034546
 30
0.0
 11
4159.896575106992
 21
6804.372203245664
 31
0.0
  0
LINE
  5
18C0D
330
18C0A
100
AcDbEntity
  8
寸法
 62
     0
 48
50.0
370
    -2
100
AcDbLine
 10
7629.896575106974
 20
7826.123139034674
 30
0.0
 11
7629.896575106974
 21
6804.372203245664
 31
0.0
  0
LINE
  5
18C0E
330
18C0A
100
AcDbEntity
  8
寸法
 62
     0
 48
50.0
370
    -2
100
AcDbLine
 10
4159.896575106992
 20
6864.372203245665
 30
0.0
 11
7629.896575106974
 21
6864.372203245665
 31
0.0
  0
INSERT
  5
18C0F
330
18C0A
100
AcDbEntity
  8
寸法
 62
     0
 48
50.0
370
    -2
100
AcDbBlockReference
  2
_DOTSMALL
 10
4159.896575106992
 20
6864.372203245665
 30
0.0
 41
100.0
 42
100.0
 43
100.0
 50
180.0
  0
INSERT
  5
18C10
330
18C0A
100
AcDbEntity
  8
寸法
 62
     0
 48
50.0
370
    -2
100
AcDbBlockReference
  2
_DOTSMALL
 10
7629.896575106974
 20
6864.372203245665
 30
0.0
 41
100.0
 42
100.0
 43
100.0
  0
MTEXT
  5
18C11
330
18C0A
100
AcDbEntity
  8
寸法
 62
     7
 48
50.0
100
AcDbMText
 10
5911.12376113973
 20
6964.372203245665
 30
0.0
 40
120.0
 41
0.0
 71
     5
 72
     1
  1
\A1;3470
  7
STYLE1
 73
     1
 44
1.0
1001
ACAD
1000
MTEXTBEGIN
1070
    73
1070
     1
1070
    44
1040
1.0
1070
    74
1070
     0
1000
MTEXTEND
  0
POINT
  5
18C12
330
18C0A
100
AcDbEntity
  8
DEFPOINTS
 62
     0
 48
50.0
100
AcDbPoint
 10
4159.896575106992
 20
7846.123139034546
 30
0.0
  0
POINT
  5
18C13
330
18C0A
100
AcDbEntity
  8
DEFPOINTS
 62
     0
 48
50.0
100
AcDbPoint
 10
7629.896575106974
 20
7846.123139034673
 30
0.0
  0
POINT
  5
18C14
330
18C0A
100
AcDbEntity
  8
DEFPOINTS
 62
     0
 48
50.0
100
AcDbPoint
 10
7629.896575106974
 20
6864.372203245665
 30
0.0
  0
ENDBLK
  5
18C15
330
18C0A
100
AcDbEntity
  8
0
 48
50.0
100
AcDbBlockEnd
  0
BLOCK
  5
18C17
330
18C16
100
AcDbEntity
  8
0
 48
50.0
100
AcDbBlockBegin
  2
*D9
 70
     1
 10
0.0
 20
0.0
 30
0.0
  3
*D9
  1

  0
LINE
  5
18C18
330
18C16
100
AcDbEntity
  8
寸法
 62
     0
 48
50.0
370
    -2
100
AcDbLine
 10
7649.896575106973
 20
7901.123139034706
 30
0.0
 11
8337.322920841385
 21
7901.123139034706
 31
0.0
  0
LINE
  5
18C19
330
18C16
100
AcDbEntity
  8
寸法
 62
     0
 48
50.0
370
    -2
100
AcDbLine
 10
7649.896575106973
 20
7846.123139034709
 30
0.0
 11
8337.322920841385
 21
7846.123139034709
 31
0.0
  0
LINE
  5
18C1A
330
18C16
100
AcDbEntity
  8
寸法
 62
     0
 48
50.0
370
    -2
100
AcDbLine
 10
8277.322920841385
 20
7901.123139034706
 30
0.0
 11
8277.322920841385
 21
8001.123139034707
 31
0.0
  0
LINE
  5
18C1B
330
18C16
100
AcDbEntity
  8
寸法
 62
     0
 48
50.0
370
    -2
100
AcDbLine
 10
8277.322920841385
 20
7846.123139034709
 30
0.0
 11
8277.322920841385
 21
7429.152576286229
 31
0.0
  0
LINE
  5
18C1C
330
18C16
100
AcDbEntity
  8
寸法
 62
     0
 48
50.0
370
    -2
100
AcDbLine
 10
8277.322920841385
 20
7901.123139034706
 30
0.0
 11
8277.322920841385
 21
7846.123139034709
 31
0.0
  0
INSERT
  5
18C1D
330
18C16
100
AcDbEntity
  8
寸法
 62
     0
 48
50.0
370
    -2
100
AcDbBlockReference
  2
_DOTSMALL
 10
8277.322920841385
 20
7901.123139034706
 30
0.0
 41
100.0
 42
100.0
 43
100.0
 50
270.0
  0
INSERT
  5
18C1E
330
18C16
100
AcDbEntity
  8
寸法
 62
     0
 48
50.0
370
    -2
100
AcDbBlockReference
  2
_DOTSMALL
 10
8277.322920841385
 20
7846.123139034709
 30
0.0
 41
100.0
 42
100.0
 43
100.0
 50
90.0
  0
MTEXT
  5
18C1F
330
18C16
100
AcDbEntity
  8
寸法
 62
     7
 48
50.0
100
AcDbMText
 10
8177.322920841383
 20
7537.637857660469
 30
0.0
 40
120.0
 41
0.0
 71
     5
 72
     1
  1
\A1;55
  7
STYLE1
 11
0.0000000000000001
 21
1.0
 31
0.0
 73
     1
 44
1.0
1001
ACAD
1000
MTEXTBEGIN
1070
    73
1070
     1
1070
    44
1040
1.0
1070
    74
1070
     0
1000
MTEXTEND
  0
POINT
  5
18C20
330
18C16
100
AcDbEntity
  8
DEFPOINTS
 62
     0
 48
50.0
100
AcDbPoint
 10
7629.896575106974
 20
7901.123139034706
 30
0.0
  0
POINT
  5
18C21
330
18C16
100
AcDbEntity
  8
DEFPOINTS
 62
     0
 48
50.0
100
AcDbPoint
 10
7629.896575106974
 20
7846.123139034709
 30
0.0
  0
POINT
  5
18C22
330
18C16
100
AcDbEntity
  8
DEFPOINTS
 62
     0
 48
50.0
100
AcDbPoint
 10
8277.322920841385
 20
7846.123139034709
 30
0.0
  0
ENDBLK
  5
18C23
330
18C16
100
AcDbEntity
  8
0
 48
50.0
100
AcDbBlockEnd
  0
BLOCK
  5
18C25
330
18C24
100
AcDbEntity
  8
0
 48
50.0
100
AcDbBlockBegin
  2
*D10
 70
     1
 10
0.0
 20
0.0
 30
0.0
  3
*D10
  1

  0
LINE
  5
18C26
330
18C24
100
AcDbEntity
  8
寸法
 62
     0
 48
50.0
370
    -2
100
AcDbLine
 10
6533.037591258376
 20
9136.123139034728
 30
0.0
 11
6465.083950562664
 21
8882.516699399049
 31
0.0
  0
LINE
  5
18C27
330
18C24
100
AcDbEntity
  8
寸法
 62
     0
 48
50.0
370
    -2
100
AcDbLine
 10
7596.037591258388
 20
9136.123139034721
 30
0.0
 11
7528.083950562677
 21
8882.516699399049
 31
0.0
  0
LINE
  5
18C28
330
18C24
100
AcDbEntity
  8
寸法
 62
     0
 48
50.0
370
    -2
100
AcDbLine
 10
6481.160902108531
 20
8942.51669939905
 30
0.0
 11
7544.160902108544
 21
8942.51669939905
 31
0.0
  0
INSERT
  5
18C29
330
18C24
100
AcDbEntity
  8
寸法
 62
     0
 48
50.0
370
    -2
100
AcDbBlockReference
  2
_DOTSMALL
 10
6481.160902108531
 20
8942.51669939905
 30
0.0
 41
100.0
 42
100.0
 43
100.0
 50
180.0
  0
INSERT
  5
18C2A
330
18C24
100
AcDbEntity
  8
寸法
 62
     0
 48
50.0
370
    -2
100
AcDbBlockReference
  2
_DOTSMALL
 10
7544.160902108544
 20
8942.51669939905
 30
0.0
 41
100.0
 42
100.0
 43
100.0
  0
MTEXT
  5
18C2B
330
18C24
100
AcDbEntity
  8
寸法
 62
     7
 48
50.0
100
AcDbMText
 10
7061.28653022935
 20
9042.516699399049
 30
0.0
 40
120.0
 41
0.0
 71
     5
 72
     1
  1
\A1;1063
  7
STYLE1
 73
     1
 44
1.0
1001
ACAD
1000
MTEXTBEGIN
1070
    73
1070
     1
1070
    44
1040
1.0
1070
    74
1070
     0
1000
MTEXTEND
  0
POINT
  5
18C2C
330
18C24
100
AcDbEntity
  8
DEFPOINTS
 62
     0
 48
50.0
100
AcDbPoint
 10
6538.396575106998
 20
9156.123139034727
 30
0.0
  0
POINT
  5
18C2D
330
18C24
100
AcDbEntity
  8
DEFPOINTS
 62
     0
 48
50.0
100
AcDbPoint
 10
7601.39657510701
 20
9156.12313903472
 30
0.0
  0
POINT
  5
18C2E
330
18C24
100
AcDbEntity
  8
DEFPOINTS
 62
     0
 48
50.0
100
AcDbPoint
 10
7544.160902108544
 20
8942.51669939905
 30
0.0
  0
ENDBLK
  5
18C2F
330
18C24
100
AcDbEntity
  8
0
 48
50.0
100
AcDbBlockEnd
  0
BLOCK
  5
18C31
330
18C30
100
AcDbEntity
  8
0
 48
50.0
100
AcDbBlockBegin
  2
*D11
 70
     1
 10
0.0
 20
0.0
 30
0.0
  3
*D11
  1

  0
LINE
  5
18C32
330
18C30
100
AcDbEntity
  8
寸法
 62
     0
 48
50.0
370
    -2
100
AcDbLine
 10
7621.396575106999
 20
9600.764155186094
 30
0.0
 11
8016.754300969024
 21
9494.828371819961
 31
0.0
  0
LINE
  5
18C33
330
18C30
100
AcDbEntity
  8
寸法
 62
     0
 48
50.0
370
    -2
100
AcDbLine
 10
7621.396575106999
 20
9150.764155186099
 30
0.0
 11
8016.754300969024
 21
9044.828371819964
 31
0.0
  0
LINE
  5
18C34
330
18C30
100
AcDbEntity
  8
寸法
 62
     0
 48
50.0
370
    -2
100
AcDbLine
 10
7956.754300969024
 20
9510.905323365827
 30
0.0
 11
7956.754300969024
 21
9060.90532336583
 31
0.0
  0
INSERT
  5
18C35
330
18C30
100
AcDbEntity
  8
寸法
 62
     0
 48
50.0
370
    -2
100
AcDbBlockReference
  2
_DOTSMALL
 10
7956.754300969024
 20
9510.905323365827
 30
0.0
 41
100.0
 42
100.0
 43
100.0
 50
90.0
  0
INSERT
  5
18C36
330
18C30
100
AcDbEntity
  8
寸法
 62
     0
 48
50.0
370
    -2
100
AcDbBlockReference
  2
_DOTSMALL
 10
7956.754300969024
 20
9060.90532336583
 30
0.0
 41
100.0
 42
100.0
 43
100.0
 50
270.0
  0
MTEXT
  5
18C37
330
18C30
100
AcDbEntity
  8
寸法
 62
     7
 48
50.0
100
AcDbMText
 10
7856.754300969022
 20
9285.905323365829
 30
0.0
 40
120.0
 41
0.0
 71
     5
 72
     1
  1
\A1;450
  7
STYLE1
 11
0.0000000000000001
 21
1.0
 31
0.0
 73
     1
 44
1.0
1001
ACAD
1000
MTEXTBEGIN
1070
    73
1070
     1
1070
    44
1040
1.0
1070
    74
1070
     0
1000
MTEXTEND
  0
POINT
  5
18C38
330
18C30
100
AcDbEntity
  8
DEFPOINTS
 62
     0
 48
50.0
100
AcDbPoint
 10
7601.396575106999
 20
9606.123139034718
 30
0.0
  0
POINT
  5
18C39
330
18C30
100
AcDbEntity
  8
DEFPOINTS
 62
     0
 48
50.0
100
AcDbPoint
 10
7601.396575106999
 20
9156.12313903472
 30
0.0
  0
POINT
  5
18C3A
330
18C30
100
AcDbEntity
  8
DEFPOINTS
 62
     0
 48
50.0
100
AcDbPoint
 10
7956.754300969024
 20
9060.90532336583
 30
0.0
  0
ENDBLK
  5
18C3B
330
18C30
100
AcDbEntity
  8
0
 48
50.0
100
AcDbBlockEnd
  0
BLOCK
  5
18C3D
330
18C3C
100
AcDbEntity
  8
0
 48
50.0
100
AcDbBlockBegin
  2
*D12
 70
     1
 10
0.0
 20
0.0
 30
0.0
  3
*D12
  1

  0
LINE
  5
18C3E
330
18C3C
100
AcDbEntity
  8
寸法
 62
     0
 48
50.0
370
    -2
100
AcDbLine
 10
7649.896575106999
 20
9581.123139034721
 30
0.0
 11
8337.32292084141
 21
9581.123139034721
 31
0.0
  0
LINE
  5
18C3F
330
18C3C
100
AcDbEntity
  8
寸法
 62
     0
 48
50.0
370
    -2
100
AcDbLine
 10
7649.896575106973
 20
7901.123139034706
 30
0.0
 11
8337.32292084141
 21
7901.123139034706
 31
0.0
  0
LINE
  5
18C40
330
18C3C
100
AcDbEntity
  8
寸法
 62
     0
 48
50.0
370
    -2
100
AcDbLine
 10
8277.322920841411
 20
9581.123139034721
 30
0.0
 11
8277.322920841411
 21
7901.123139034706
 31
0.0
  0
INSERT
  5
18C41
330
18C3C
100
AcDbEntity
  8
寸法
 62
     0
 48
50.0
370
    -2
100
AcDbBlockReference
  2
_DOTSMALL
 10
8277.322920841411
 20
9581.123139034721
 30
0.0
 41
100.0
 42
100.0
 43
100.0
 50
90.0
  0
INSERT
  5
18C42
330
18C3C
100
AcDbEntity
  8
寸法
 62
     0
 48
50.0
370
    -2
100
AcDbBlockReference
  2
_DOTSMALL
 10
8277.322920841411
 20
7901.123139034706
 30
0.0
 41
100.0
 42
100.0
 43
100.0
 50
270.0
  0
MTEXT
  5
18C43
330
18C3C
100
AcDbEntity
  8
寸法
 62
     7
 48
50.0
100
AcDbMText
 10
8177.311109817788
 20
8741.123139034712
 30
0.0
 40
120.0
 41
0.0
 71
     5
 72
     1
  1
\A1;4X420=1680
  7
STYLE1
 11
0.0000000000000001
 21
1.0
 31
0.0
 73
     1
 44
1.0
1001
ACAD
1000
MTEXTBEGIN
1070
    73
1070
     1
1070
    44
1040
1.0
1070
    74
1070
     0
1000
MTEXTEND
  0
POINT
  5
18C44
330
18C3C
100
AcDbEntity
  8
DEFPOINTS
 62
     0
 48
50.0
100
AcDbPoint
 10
7629.896575106998
 20
9581.123139034721
 30
0.0
  0
POINT
  5
18C45
330
18C3C
100
AcDbEntity
  8
DEFPOINTS
 62
     0
 48
50.0
100
AcDbPoint
 10
7629.896575106974
 20
7901.123139034706
 30
0.0
  0
POINT
  5
18C46
330
18C3C
100
AcDbEntity
  8
DEFPOINTS
 62
     0
 48
50.0
100
AcDbPoint
 10
8277.322920841411
 20
7901.123139034706
 30
0.0
  0
ENDBLK
  5
18C47
330
18C3C
100
AcDbEntity
  8
0
 48
50.0
100
AcDbBlockEnd
  0
BLOCK
  5
18C49
330
18C48
100
AcDbEntity
  8
0
 48
50.0
100
AcDbBlockBegin
  2
*D13
 70
     1
 10
0.0
 20
0.0
 30
0.0
  3
*D13
  1

  0
LINE
  5
18C4A
330
18C48
100
AcDbEntity
  8
寸法
 62
     0
 48
50.0
370
    -2
100
AcDbLine
 10
4183.037591258377
 20
9136.123139034619
 30
0.0
 11
4115.083950562663
 21
8882.516699398941
 31
0.0
  0
LINE
  5
18C4B
330
18C48
100
AcDbEntity
  8
寸法
 62
     0
 48
50.0
370
    -2
100
AcDbLine
 10
5246.037591258307
 20
9136.123139034671
 30
0.0
 11
5178.08395056258
 21
8882.516699398941
 31
0.0
  0
LINE
  5
18C4C
330
18C48
100
AcDbEntity
  8
寸法
 62
     0
 48
50.0
370
    -2
100
AcDbLine
 10
4131.160902108532
 20
8942.516699398941
 30
0.0
 11
5194.160902108448
 21
8942.516699398941
 31
0.0
  0
INSERT
  5
18C4D
330
18C48
100
AcDbEntity
  8
寸法
 62
     0
 48
50.0
370
    -2
100
AcDbBlockReference
  2
_DOTSMALL
 10
4131.160902108532
 20
8942.516699398941
 30
0.0
 41
100.0
 42
100.0
 43
100.0
 50
180.0
  0
INSERT
  5
18C4E
330
18C48
100
AcDbEntity
  8
寸法
 62
     0
 48
50.0
370
    -2
100
AcDbBlockReference
  2
_DOTSMALL
 10
5194.160902108448
 20
8942.516699398941
 30
0.0
 41
100.0
 42
100.0
 43
100.0
  0
MTEXT
  5
18C4F
330
18C48
100
AcDbEntity
  8
寸法
 62
     7
 48
50.0
100
AcDbMText
 10
4658.986452655306
 20
9042.516699398941
 30
0.0
 40
120.0
 41
0.0
 71
     5
 72
     1
  1
\A1;1063
  7
STYLE1
 73
     1
 44
1.0
1001
ACAD
1000
MTEXTBEGIN
1070
    73
1070
     1
1070
    44
1040
1.0
1070
    74
1070
     0
1000
MTEXTEND
  0
POINT
  5
18C50
330
18C48
100
AcDbEntity
  8
DEFPOINTS
 62
     0
 48
50.0
100
AcDbPoint
 10
4188.396575106999
 20
9156.123139034617
 30
0.0
  0
POINT
  5
18C51
330
18C48
100
AcDbEntity
  8
DEFPOINTS
 62
     0
 48
50.0
100
AcDbPoint
 10
5251.396575106929
 20
9156.123139034672
 30
0.0
  0
POINT
  5
18C52
330
18C48
100
AcDbEntity
  8
DEFPOINTS
 62
     0
 48
50.0
100
AcDbPoint
 10
5194.160902108448
 20
8942.516699398941
 30
0.0
  0
ENDBLK
  5
18C53
330
18C48
100
AcDbEntity
  8
0
 48
50.0
100
AcDbBlockEnd
  0
BLOCK
  5
18C55
330
18C54
100
AcDbEntity
  8
0
 48
50.0
100
AcDbBlockBegin
  2
*D14
 70
     1
 10
0.0
 20
0.0
 30
0.0
  3
*D14
  1

  0
LINE
  5
18C56
330
18C54
100
AcDbEntity
  8
寸法
 62
     0
 48
50.0
370
    -2
100
AcDbLine
 10
5274.037591258307
 20
9136.123139034669
 30
0.0
 11
5206.08395056258
 21
8882.516699398941
 31
0.0
  0
LINE
  5
18C57
330
18C54
100
AcDbEntity
  8
寸法
 62
     0
 48
50.0
370
    -2
100
AcDbLine
 10
6505.037591258377
 20
9136.123139034662
 30
0.0
 11
6437.083950562653
 21
8882.516699398941
 31
0.0
  0
LINE
  5
18C58
330
18C54
100
AcDbEntity
  8
寸法
 62
     0
 48
50.0
370
    -2
100
AcDbLine
 10
5222.160902108448
 20
8942.516699398941
 30
0.0
 11
6453.16090210852
 21
8942.516699398941
 31
0.0
  0
INSERT
  5
18C59
330
18C54
100
AcDbEntity
  8
寸法
 62
     0
 48
50.0
370
    -2
100
AcDbBlockReference
  2
_DOTSMALL
 10
5222.160902108448
 20
8942.516699398941
 30
0.0
 41
100.0
 42
100.0
 43
100.0
 50
180.0
  0
INSERT
  5
18C5A
330
18C54
100
AcDbEntity
  8
寸法
 62
     0
 48
50.0
370
    -2
100
AcDbBlockReference
  2
_DOTSMALL
 10
6453.16090210852
 20
8942.516699398941
 30
0.0
 41
100.0
 42
100.0
 43
100.0
  0
MTEXT
  5
18C5B
330
18C54
100
AcDbEntity
  8
寸法
 62
     7
 48
50.0
100
AcDbMText
 10
6081.244808320626
 20
9042.528510422561
 30
0.0
 40
120.0
 41
0.0
 71
     5
 72
     1
  1
\A1;1231
  7
STYLE1
 73
     1
 44
1.0
1001
ACAD
1000
MTEXTBEGIN
1070
    73
1070
     1
1070
    44
1040
1.0
1070
    74
1070
     0
1000
MTEXTEND
  0
POINT
  5
18C5C
330
18C54
100
AcDbEntity
  8
DEFPOINTS
 62
     0
 48
50.0
100
AcDbPoint
 10
5279.396575106929
 20
9156.123139034669
 30
0.0
  0
POINT
  5
18C5D
330
18C54
100
AcDbEntity
  8
DEFPOINTS
 62
     0
 48
50.0
100
AcDbPoint
 10
6510.396575106999
 20
9156.123139034662
 30
0.0
  0
POINT
  5
18C5E
330
18C54
100
AcDbEntity
  8
DEFPOINTS
 62
     0
 48
50.0
100
AcDbPoint
 10
6453.16090210852
 20
8942.516699398941
 30
0.0
  0
ENDBLK
  5
18C5F
330
18C54
100
AcDbEntity
  8
0
 48
50.0
100
AcDbBlockEnd
  0
BLOCK
  5
18C61
330
18C60
100
AcDbEntity
  8
0
 48
50.0
100
AcDbBlockBegin
  2
*D15
 70
     1
 10
0.0
 20
0.0
 30
0.0
  3
*D15
  1

  0
LINE
  5
18C62
330
18C60
100
AcDbEntity
  8
寸法
 62
     0
 48
50.0
370
    -2
100
AcDbLine
 10
5065.896575106966
 20
7749.123139034579
 30
0.0
 11
5065.896575106966
 21
7099.952920982538
 31
0.0
  0
LINE
  5
18C63
330
18C60
100
AcDbEntity
  8
寸法
 62
     0
 48
50.0
370
    -2
100
AcDbLine
 10
6331.896575106966
 20
7749.123139034579
 30
0.0
 11
6331.896575106966
 21
7099.952920982538
 31
0.0
  0
LINE
  5
18C64
330
18C60
100
AcDbEntity
  8
寸法
 62
     0
 48
50.0
370
    -2
100
AcDbLine
 10
5065.896575106966
 20
7159.952920982537
 30
0.0
 11
6331.896575106966
 21
7159.952920982537
 31
0.0
  0
INSERT
  5
18C65
330
18C60
100
AcDbEntity
  8
寸法
 62
     0
 48
50.0
370
    -2
100
AcDbBlockReference
  2
_DOTSMALL
 10
5065.896575106966
 20
7159.952920982537
 30
0.0
 41
100.0
 42
100.0
 43
100.0
 50
180.0
  0
INSERT
  5
18C66
330
18C60
100
AcDbEntity
  8
寸法
 62
     0
 48
50.0
370
    -2
100
AcDbBlockReference
  2
_DOTSMALL
 10
6331.896575106966
 20
7159.952920982537
 30
0.0
 41
100.0
 42
100.0
 43
100.0
  0
MTEXT
  5
18C67
330
18C60
100
AcDbEntity
  8
寸法
 62
     7
 48
50.0
100
AcDbMText
 10
5711.986008735934
 20
7359.964732006159
 30
0.0
 40
120.0
 41
0.0
 71
     5
 72
     1
  1
\A1;有効開口部間口\P1266
  7
STYLE1
 73
     1
 44
1.0
1001
ACAD
1000
MTEXTBEGIN
1070
    73
1070
     1
1070
    44
1040
1.0
1070
    74
1070
     0
1000
MTEXTEND
  0
POINT
  5
18C68
330
18C60
100
AcDbEntity
  8
DEFPOINTS
 62
     0
 48
50.0
100
AcDbPoint
 10
5065.896575106966
 20
7769.123139034579
 30
0.0
  0
POINT
  5
18C69
330
18C60
100
AcDbEntity
  8
DEFPOINTS
 62
     0
 48
50.0
100
AcDbPoint
 10
6331.896575106966
 20
7769.123139034579
 30
0.0
  0
POINT
  5
18C6A
330
18C60
100
AcDbEntity
  8
DEFPOINTS
 62
     0
 48
50.0
100
AcDbPoint
 10
6331.896575106966
 20
7159.952920982537
 30
0.0
  0
ENDBLK
  5
18C6B
330
18C60
100
AcDbEntity
  8
0
 48
50.0
100
AcDbBlockEnd
  0
BLOCK
  5
18C6D
330
18C6C
100
AcDbEntity
  8
0
 48
50.0
100
AcDbBlockBegin
  2
*D16
 70
     1
 10
0.0
 20
0.0
 30
0.0
  3
*D16
  1

  0
LINE
  5
18C6E
330
18C6C
100
AcDbEntity
  8
寸法
 62
     0
 48
50.0
370
    -2
100
AcDbLine
 10
7200.896575106966
 20
7846.123139034578
 30
0.0
 11
7457.192158500191
 21
7846.123139034578
 31
0.0
  0
LINE
  5
18C6F
330
18C6C
100
AcDbEntity
  8
寸法
 62
     0
 48
50.0
370
    -2
100
AcDbLine
 10
7199.896575106966
 20
7769.123139034579
 30
0.0
 11
7457.192158500191
 21
7769.123139034579
 31
0.0
  0
LINE
  5
18C70
330
18C6C
100
AcDbEntity
  8
寸法
 62
     0
 48
50.0
370
    -2
100
AcDbLine
 10
7417.192158500192
 20
7866.123139034579
 30
0.0
 11
7417.192158500192
 21
7886.123139034578
 31
0.0
  0
LINE
  5
18C71
330
18C6C
100
AcDbEntity
  8
寸法
 62
     0
 48
50.0
370
    -2
100
AcDbLine
 10
7417.192158500192
 20
7749.123139034579
 30
0.0
 11
7417.192158500192
 21
7533.123139034573
 31
0.0
  0
LINE
  5
18C72
330
18C6C
100
AcDbEntity
  8
寸法
 62
     0
 48
50.0
370
    -2
100
AcDbLine
 10
7417.192158500192
 20
7846.123139034578
 30
0.0
 11
7417.192158500192
 21
7769.123139034579
 31
0.0
  0
INSERT
  5
18C73
330
18C6C
100
AcDbEntity
  8
寸法
 62
     0
 48
50.0
370
    -2
100
AcDbBlockReference
  2
_DOT
 10
7417.192158500192
 20
7846.123139034578
 30
0.0
 41
20.0
 42
20.0
 43
20.0
 50
270.0
  0
INSERT
  5
18C74
330
18C6C
100
AcDbEntity
  8
寸法
 62
     0
 48
50.0
370
    -2
100
AcDbBlockReference
  2
_DOT
 10
7417.192158500192
 20
7769.123139034579
 30
0.0
 41
20.0
 42
20.0
 43
20.0
 50
90.0
  0
MTEXT
  5
18C75
330
18C6C
100
AcDbEntity
  8
寸法
 62
     7
 48
50.0
100
AcDbMText
 10
7325.192158500191
 20
7631.123139034575
 30
0.0
 40
120.0
 41
0.0
 71
     5
 72
     1
  1
\A1;77
  7
STYLE1
 11
0.0000000000000001
 21
1.0
 31
0.0
 73
     1
 44
1.0
1001
ACAD
1000
MTEXTBEGIN
1070
    73
1070
     1
1070
    44
1040
1.0
1070
    74
1070
     0
1000
MTEXTEND
  0
POINT
  5
18C76
330
18C6C
100
AcDbEntity
  8
DEFPOINTS
 62
     0
 48
50.0
100
AcDbPoint
 10
7180.896575106967
 20
7846.123139034578
 30
0.0
  0
POINT
  5
18C77
330
18C6C
100
AcDbEntity
  8
DEFPOINTS
 62
     0
 48
50.0
100
AcDbPoint
 10
7179.896575106965
 20
7769.123139034579
 30
0.0
  0
POINT
  5
18C78
330
18C6C
100
AcDbEntity
  8
DEFPOINTS
 62
     0
 48
50.0
100
AcDbPoint
 10
7417.192158500192
 20
7769.123139034579
 30
0.0
  0
ENDBLK
  5
18C79
330
18C6C
100
AcDbEntity
  8
0
 48
50.0
100
AcDbBlockEnd
  0
BLOCK
  5
18DA0
330
18C7A
100
AcDbEntity
  8
0
 48
50.0
100
AcDbBlockBegin
  2
A$C3B1A506B
 70
     0
 10
0.0
 20
0.0
 30
0.0
  3
A$C3B1A506B
  1

  0
MTEXT
  5
18C7B
330
18C7A
100
AcDbEntity
  8
寸法
 62
     7
 48
50.0
100
AcDbMText
 10
3342.250386887194
 20
2778.329429134012
 30
0.0
 40
96.0
 41
0.0
 71
     5
 72
     1
  1
棚 2段
  7
STYLE1
 73
     1
 44
1.0
1001
ACAD
1000
MTEXTBEGIN
1070
    73
1070
     1
1070
    44
1040
1.0
1070
    74
1070
     0
1000
MTEXTEND
  0
MTEXT
  5
18C7C
330
18C7A
100
AcDbEntity
  8
寸法
 62
     7
 48
50.0
100
AcDbMText
 10
2167.25038688716
 20
2778.329429133986
 30
0.0
 40
96.0
 41
0.0
 71
     5
 72
     1
  1
棚 2段
  7
STYLE1
 73
     1
 44
1.0
1001
ACAD
1000
MTEXTBEGIN
1070
    73
1070
     1
1070
    44
1040
1.0
1070
    74
1070
     0
1000
MTEXTEND
  0
MTEXT
  5
18C7D
330
18C7A
100
AcDbEntity
  8
寸法
 62
     7
 48
50.0
100
AcDbMText
 10
992.2503868871608
 20
2778.329429133935
 30
0.0
 40
96.0
 41
0.0
 71
     5
 72
     1
  1
棚 2段
  7
STYLE1
 73
     1
 44
1.0
1001
ACAD
1000
MTEXTBEGIN
1070
    73
1070
     1
1070
    44
1040
1.0
1070
    74
1070
     0
1000
MTEXTEND
  0
LINE
  5
18C7E
330
18C7A
100
AcDbEntity
  8
細線
 48
50.0
100
AcDbLine
 10
2771.970589276527
 20
1368.994384123192
 30
0.0
 11
3398.970589276523
 21
1368.994384123192
 31
0.0
  0
LINE
  5
18C7F
330
18C7A
100
AcDbEntity
  8
細線
 48
50.0
100
AcDbLine
 10
2117.970593930113
 20
1335.285615569113
 30
0.0
 11
3398.970589276523
 21
1335.285615569113
 31
0.0
  0
LINE
  5
18C80
330
18C7A
100
AcDbEntity
  8
細線
 48
50.0
100
AcDbLine
 10
2076.970593930115
 20
1364.690523565368
 30
0.0
 11
1322.970589276523
 21
1364.690523565367
 31
0.0
  0
LINE
  5
18C81
330
18C7A
100
AcDbEntity
  8
細線
100
AcDbLine
 10
3170.720579860066
 20
1388.494284088199
 30
0.0
 11
3173.052119381877
 21
1393.494286728162
 31
0.0
  0
LINE
  5
18C82
330
18C7A
100
AcDbEntity
  8
細線
100
AcDbLine
 10
3240.720589276525
 20
1388.494269174465
 30
0.0
 11
3238.389042800336
 21
1393.494286728144
 31
0.0
  0
LINE
  5
18C83
330
18C7A
100
AcDbEntity
  8
細線
100
AcDbLine
 10
3238.389042800336
 20
1393.494286728144
 30
0.0
 11
3173.052119381862
 21
1393.494286728133
 31
0.0
  0
LINE
  5
18C84
330
18C7A
100
AcDbEntity
  8
細線
100
AcDbLine
 10
3098.389042800336
 20
1393.494286728144
 30
0.0
 11
3033.052119381862
 21
1393.494286728133
 31
0.0
  0
LINE
  5
18C85
330
18C7A
100
AcDbEntity
  8
細線
100
AcDbLine
 10
3100.720589276523
 20
1388.494269174465
 30
0.0
 11
3098.389042800336
 21
1393.494286728144
 31
0.0
  0
LINE
  5
18C86
330
18C7A
100
AcDbEntity
  8
細線
100
AcDbLine
 10
3030.720579860066
 20
1388.494284088199
 30
0.0
 11
3033.052119381875
 21
1393.494286728162
 31
0.0
  0
LINE
  5
18C87
330
18C7A
100
AcDbEntity
  8
細線
100
AcDbLine
 10
2890.720589276525
 20
1388.494269174465
 30
0.0
 11
2893.052128798336
 21
1393.494271814428
 31
0.0
  0
LINE
  5
18C88
330
18C7A
100
AcDbEntity
  8
細線
100
AcDbLine
 10
2960.720598692984
 20
1388.494254260731
 30
0.0
 11
2958.389052216793
 21
1393.49427181441
 31
0.0
  0
LINE
  5
18C89
330
18C7A
100
AcDbEntity
  8
細線
100
AcDbLine
 10
2958.389052216795
 20
1393.49427181441
 30
0.0
 11
2893.052128798321
 21
1393.494271814399
 31
0.0
  0
LINE
  5
18C8A
330
18C7A
100
AcDbEntity
  8
細線
100
AcDbLine
 10
2667.139038146739
 20
1359.494298590735
 30
0.0
 11
2601.802114728263
 21
1359.494298590724
 31
0.0
  0
LINE
  5
18C8B
330
18C7A
100
AcDbEntity
  8
細線
100
AcDbLine
 10
2669.470584622926
 20
1354.494281037055
 30
0.0
 11
2667.139038146737
 21
1359.494298590735
 31
0.0
  0
LINE
  5
18C8C
330
18C7A
100
AcDbEntity
  8
細線
100
AcDbLine
 10
2599.470575206469
 20
1354.49429595079
 30
0.0
 11
2601.802114728278
 21
1359.494298590752
 31
0.0
  0
LINE
  5
18C8D
330
18C7A
100
AcDbEntity
  8
細線
 48
50.0
100
AcDbLine
 10
2440.853968524536
 20
1372.765132327548
 30
0.0
 11
2446.609486107205
 21
1354.494281037057
 31
0.0
  0
LINE
  5
18C8E
330
18C7A
100
AcDbEntity
  8
細線
 48
50.0
100
AcDbLine
 10
2429.925520044106
 20
1372.765132327546
 30
0.0
 11
2440.853968524536
 21
1372.765132327548
 31
0.0
  0
ARC
  5
18C8F
330
18C7A
100
AcDbEntity
  8
細線
 48
50.0
100
AcDbCircle
 10
2424.471163986787
 20
1374.265132327546
 30
0.0
 40
5.0
100
AcDbArc
 50
204.6243183520723
 51
335.3756816479278
  0
ARC
  5
18C90
330
18C7A
100
AcDbEntity
  8
細線
 48
50.0
100
AcDbCircle
 10
2429.925520044106
 20
1371.765132327546
 30
0.0
 40
1.0
100
AcDbArc
 50
90.0
 51
155.3756816479277
  0
ARC
  5
18C91
330
18C7A
100
AcDbEntity
  8
細線
 48
50.0
100
AcDbCircle
 10
2419.016807929469
 20
1371.765132327546
 30
0.0
 40
1.0
100
AcDbArc
 50
24.62431835207225
 51
90.0
  0
LINE
  5
18C92
330
18C7A
100
AcDbEntity
  8
細線
 48
50.0
100
AcDbLine
 10
2408.088359449037
 20
1372.765132327548
 30
0.0
 11
2419.016807929469
 21
1372.765132327546
 31
0.0
  0
LINE
  5
18C93
330
18C7A
100
AcDbEntity
  8
細線
 48
50.0
100
AcDbLine
 10
2402.33284186637
 20
1354.494281037054
 30
0.0
 11
2408.088359449037
 21
1372.765132327548
 31
0.0
  0
LINE
  5
18C94
330
18C7A
100
AcDbEntity
  8
細線
100
AcDbLine
 10
2458.070304175992
 20
1354.494278397076
 30
0.0
 11
2460.401843697802
 21
1359.494281037039
 31
0.0
  0
LINE
  5
18C95
330
18C7A
100
AcDbEntity
  8
細線
100
AcDbLine
 10
2528.070313592451
 20
1354.494263483342
 30
0.0
 11
2525.738767116262
 21
1359.494281037021
 31
0.0
  0
LINE
  5
18C96
330
18C7A
100
AcDbEntity
  8
細線
100
AcDbLine
 10
2525.738767116262
 20
1359.494281037021
 30
0.0
 11
2460.40184369779
 21
1359.49428103701
 31
0.0
  0
LINE
  5
18C97
330
18C7A
100
AcDbEntity
  8
細線
100
AcDbLine
 10
2387.139046332155
 20
1359.494281037021
 30
0.0
 11
2321.80212291368
 21
1359.49428103701
 31
0.0
  0
LINE
  5
18C98
330
18C7A
100
AcDbEntity
  8
細線
100
AcDbLine
 10
2389.470592808342
 20
1354.494263483342
 30
0.0
 11
2387.139046332153
 21
1359.494281037021
 31
0.0
  0
LINE
  5
18C99
330
18C7A
100
AcDbEntity
  8
細線
100
AcDbLine
 10
2319.470584622926
 20
1354.494281037054
 30
0.0
 11
2321.802122913694
 21
1359.494281037039
 31
0.0
  0
LINE
  5
18C9A
330
18C7A
100
AcDbEntity
  8
細線
100
AcDbLine
 10
2179.47061994182
 20
1354.494289224422
 30
0.0
 11
2181.802158232587
 21
1359.494289224407
 31
0.0
  0
LINE
  5
18C9B
330
18C7A
100
AcDbEntity
  8
細線
100
AcDbLine
 10
2249.470628127236
 20
1354.49427167071
 30
0.0
 11
2247.139081651047
 21
1359.494289224389
 31
0.0
  0
LINE
  5
18C9C
330
18C7A
100
AcDbEntity
  8
細線
100
AcDbLine
 10
2247.139081651047
 20
1359.494289224389
 30
0.0
 11
2181.802158232573
 21
1359.494289224378
 31
0.0
  0
LINE
  5
18C9D
330
18C7A
100
AcDbEntity
  8
細線
100
AcDbLine
 10
1807.970585744697
 20
1320.494460905133
 30
0.0
 11
1810.302124035464
 21
1325.494460905118
 31
0.0
  0
LINE
  5
18C9E
330
18C7A
100
AcDbEntity
  8
細線
100
AcDbLine
 10
1877.970593930113
 20
1320.494443351421
 30
0.0
 11
1875.639047453926
 21
1325.4944609051
 31
0.0
  0
LINE
  5
18C9F
330
18C7A
100
AcDbEntity
  8
細線
100
AcDbLine
 10
1875.639047453926
 20
1325.4944609051
 30
0.0
 11
1810.302124035452
 21
1325.494460905089
 31
0.0
  0
LINE
  5
18CA0
330
18C7A
100
AcDbEntity
  8
細線
100
AcDbLine
 10
2015.639047453926
 20
1325.4944609051
 30
0.0
 11
1950.302124035452
 21
1325.494460905089
 31
0.0
  0
LINE
  5
18CA1
330
18C7A
100
AcDbEntity
  8
細線
100
AcDbLine
 10
2017.970593930113
 20
1320.494443351421
 30
0.0
 11
2015.639047453924
 21
1325.4944609051
 31
0.0
  0
LINE
  5
18CA2
330
18C7A
100
AcDbEntity
  8
細線
100
AcDbLine
 10
1947.970585744697
 20
1320.494460905133
 30
0.0
 11
1950.302124035465
 21
1325.494460905118
 31
0.0
  0
LINE
  5
18CA3
330
18C7A
100
AcDbEntity
  8
細線
100
AcDbLine
 10
1735.639047453926
 20
1325.494460905098
 30
0.0
 11
1670.302124035454
 21
1325.494460905087
 31
0.0
  0
LINE
  5
18CA4
330
18C7A
100
AcDbEntity
  8
細線
100
AcDbLine
 10
1737.970593930113
 20
1320.494443351419
 30
0.0
 11
1735.639047453926
 21
1325.494460905098
 31
0.0
  0
LINE
  5
18CA5
330
18C7A
100
AcDbEntity
  8
細線
100
AcDbLine
 10
1667.970585744697
 20
1320.494460905131
 30
0.0
 11
1670.302124035465
 21
1325.494460905116
 31
0.0
  0
LINE
  5
18CA6
330
18C7A
100
AcDbEntity
  8
細線
100
AcDbLine
 10
1527.970593930113
 20
1320.494460905133
 30
0.0
 11
1530.302132220881
 21
1325.494460905118
 31
0.0
  0
LINE
  5
18CA7
330
18C7A
100
AcDbEntity
  8
細線
100
AcDbLine
 10
1597.970602115529
 20
1320.494443351421
 30
0.0
 11
1595.639055639342
 21
1325.4944609051
 31
0.0
  0
LINE
  5
18CA8
330
18C7A
100
AcDbEntity
  8
細線
100
AcDbLine
 10
1595.639055639342
 20
1325.4944609051
 30
0.0
 11
1530.302132220869
 21
1325.494460905089
 31
0.0
  0
ARC
  5
18CA9
330
18C7A
100
AcDbEntity
  8
部品1
 48
0.01
100
AcDbCircle
 10
1483.470482677778
 20
1319.493338720063
 30
0.0
 40
0.5
100
AcDbArc
 50
270.0
 51
0.0
  0
LINE
  5
18CAA
330
18C7A
100
AcDbEntity
  8
部品1
 48
0.01
100
AcDbLine
 10
1483.970482677778
 20
1320.493338720063
 30
0.0
 11
1483.970482677778
 21
1319.493338720063
 31
0.0
  0
LINE
  5
18CAB
330
18C7A
100
AcDbEntity
  8
部品1
 48
0.01
100
AcDbLine
 10
1483.970482677778
 20
1320.493338720063
 30
0.0
 11
1483.970482677778
 21
1319.493338720063
 31
0.0
  0
LINE
  5
18CAC
330
18C7A
100
AcDbEntity
  8
部品1
 48
0.01
100
AcDbLine
 10
1483.470482677778
 20
1318.993338720063
 30
0.0
 11
1476.857977247713
 21
1318.993338720062
 31
0.0
  0
ARC
  5
18CAD
330
18C7A
100
AcDbEntity
  8
部品1
100
AcDbCircle
 10
1476.926326800494
 20
1319.993338720062
 30
0.0
 40
1.0
100
AcDbArc
 50
160.5287793655865
 51
270.0
  0
ARC
  5
18CAE
330
18C7A
100
AcDbEntity
  8
部品1
100
AcDbCircle
 10
1451.470482677778
 20
1328.993338720062
 30
0.0
 40
26.0
100
AcDbArc
 50
340.5287793655865
 51
0.0
  0
LINE
  5
18CAF
330
18C7A
100
AcDbEntity
  8
部品1
100
AcDbLine
 10
1477.470482677778
 20
1328.993338720062
 30
0.0
 11
1477.470482677778
 21
1333.993338720061
 31
0.0
  0
ARC
  5
18CB0
330
18C7A
100
AcDbEntity
  8
部品1
 48
0.01
100
AcDbCircle
 10
1475.470482677778
 20
1333.993338720061
 30
0.0
 40
2.0
100
AcDbArc
 50
0.0
 51
90.0
  0
ARC
  5
18CB1
330
18C7A
100
AcDbEntity
  8
部品1
100
AcDbCircle
 10
1473.862091052968
 20
1332.993338720062
 30
0.0
 40
3.0
100
AcDbArc
 50
90.0
 51
141.6069559808035
  0
LINE
  5
18CB2
330
18C7A
100
AcDbEntity
  8
部品1
 48
0.01
100
AcDbLine
 10
1475.470482677778
 20
1335.993338720062
 30
0.0
 11
1473.862091052968
 21
1335.993338720062
 31
0.0
  0
ARC
  5
18CB3
330
18C7A
100
AcDbEntity
  8
部品1
100
AcDbCircle
 10
1455.399768463507
 20
1332.293338720065
 30
0.0
 40
3.0
100
AcDbArc
 50
254.0576313943215
 51
270.0
  0
ARC
  5
18CB4
330
18C7A
100
AcDbEntity
  8
部品1
100
AcDbCircle
 10
1462.541196892049
 20
1332.293338720065
 30
0.0
 40
3.0
100
AcDbArc
 50
270.0
 51
285.9423686056786
  0
LINE
  5
18CB5
330
18C7A
100
AcDbEntity
  8
部品1
100
AcDbLine
 10
1462.541196892049
 20
1329.293338720064
 30
0.0
 11
1455.399768463507
 21
1329.293338720064
 31
0.0
  0
ARC
  5
18CB6
330
18C7A
100
AcDbEntity
  8
部品1
100
AcDbCircle
 10
1458.970482677778
 20
1344.793338720065
 30
0.0
 40
16.0
100
AcDbArc
 50
285.9423686056786
 51
321.6069559808035
  0
LINE
  5
18CB7
330
18C7A
100
AcDbEntity
  8
部品1
 48
0.01
100
AcDbLine
 10
1442.470482677778
 20
1335.993338720062
 30
0.0
 11
1444.078874302588
 21
1335.993338720062
 31
0.0
  0
ARC
  5
18CB8
330
18C7A
100
AcDbEntity
  8
部品1
100
AcDbCircle
 10
1444.078874302588
 20
1332.993338720062
 30
0.0
 40
3.0
100
AcDbArc
 50
38.39304401919648
 51
90.0
  0
ARC
  5
18CB9
330
18C7A
100
AcDbEntity
  8
部品1
100
AcDbCircle
 10
1458.970482677778
 20
1344.793338720065
 30
0.0
 40
16.0
100
AcDbArc
 50
218.3930440191965
 51
254.0576313943215
  0
LINE
  5
18CBA
330
18C7A
100
AcDbEntity
  8
部品1
100
AcDbLine
 10
1440.470482677778
 20
1328.993338720062
 30
0.0
 11
1440.470482677778
 21
1333.993338720061
 31
0.0
  0
ARC
  5
18CBB
330
18C7A
100
AcDbEntity
  8
部品1
 48
0.01
100
AcDbCircle
 10
1442.470482677778
 20
1333.993338720061
 30
0.0
 40
2.0
100
AcDbArc
 50
90.0
 51
180.0
  0
ARC
  5
18CBC
330
18C7A
100
AcDbEntity
  8
部品1
100
AcDbCircle
 10
1466.470482677778
 20
1328.993338720062
 30
0.0
 40
26.0
100
AcDbArc
 50
180.0
 51
199.4712206344134
  0
ARC
  5
18CBD
330
18C7A
100
AcDbEntity
  8
部品1
 48
0.01
100
AcDbCircle
 10
1434.470482677778
 20
1319.493338720063
 30
0.0
 40
0.5
100
AcDbArc
 50
180.0
 51
270.0
  0
LINE
  5
18CBE
330
18C7A
100
AcDbEntity
  8
部品1
 48
0.01
100
AcDbLine
 10
1434.470482677778
 20
1318.993338720063
 30
0.0
 11
1441.014638555061
 21
1318.993338720062
 31
0.0
  0
LINE
  5
18CBF
330
18C7A
100
AcDbEntity
  8
部品1
 48
0.01
100
AcDbLine
 10
1433.970482677778
 20
1320.493338720063
 30
0.0
 11
1433.970482677778
 21
1319.493338720063
 31
0.0
  0
ARC
  5
18CC0
330
18C7A
100
AcDbEntity
  8
部品1
100
AcDbCircle
 10
1441.014638555061
 20
1319.993338720062
 30
0.0
 40
1.0
100
AcDbArc
 50
270.0
 51
19.47122063441346
  0
LINE
  5
18CC1
330
18C7A
100
AcDbEntity
  8
細線
100
AcDbLine
 10
1479.470482677785
 20
1338.493338720065
 30
0.0
 11
1438.470482677785
 21
1338.493338720058
 31
0.0
  0
LINE
  5
18CC2
330
18C7A
100
AcDbEntity
  8
細線
100
AcDbLine
 10
1438.470482677785
 20
1338.493338720058
 30
0.0
 11
1438.470482677785
 21
1320.49333872004
 31
0.0
  0
LINE
  5
18CC3
330
18C7A
100
AcDbEntity
  8
細線
100
AcDbLine
 10
1479.470482677785
 20
1338.493338720065
 30
0.0
 11
1479.470482677785
 21
1320.49333872004
 31
0.0
  0
LINE
  5
18CC4
330
18C7A
100
AcDbEntity
  8
細線
100
AcDbLine
 10
1322.970589276523
 20
1324.494269174465
 30
0.0
 11
1322.970589276523
 21
1320.494269174513
 31
0.0
  0
LINE
  5
18CC5
330
18C7A
100
AcDbEntity
  8
寸法
 48
50.0
100
AcDbLine
 10
1746.17359555837
 20
1170.531020743327
 30
0.0
 11
1694.767587648266
 21
1170.531020743327
 31
0.0
  0
LINE
  5
18CC6
330
18C7A
100
AcDbEntity
  8
寸法
 48
50.0
100
AcDbLine
 10
1694.767587648266
 20
1170.531020743327
 30
0.0
 11
1694.767587648266
 21
1201.841179395494
 31
0.0
  0
LINE
  5
18CC7
330
18C7A
100
AcDbEntity
  8
寸法
 48
50.0
100
AcDbLine
 10
1694.767587648266
 20
1201.841179395494
 30
0.0
 11
1665.006255656843
 21
1201.841179395494
 31
0.0
  0
LINE
  5
18CC8
330
18C7A
100
AcDbEntity
  8
寸法
 48
50.0
100
AcDbLine
 10
1665.006255656843
 20
1201.841179395494
 30
0.0
 11
1720.470591603318
 21
1239.420630324105
 31
0.0
  0
LINE
  5
18CC9
330
18C7A
100
AcDbEntity
  8
寸法
 48
50.0
100
AcDbLine
 10
1775.934927549793
 20
1201.841179395494
 30
0.0
 11
1720.470591603318
 21
1239.420630324105
 31
0.0
  0
LINE
  5
18CCA
330
18C7A
100
AcDbEntity
  8
寸法
 48
50.0
100
AcDbLine
 10
1746.17359555837
 20
1201.841179395494
 30
0.0
 11
1775.934927549793
 21
1201.841179395494
 31
0.0
  0
LINE
  5
18CCB
330
18C7A
100
AcDbEntity
  8
寸法
 48
50.0
100
AcDbLine
 10
1746.17359555837
 20
1170.531020743327
 30
0.0
 11
1746.17359555837
 21
1201.841179395494
 31
0.0
  0
LINE
  5
18CCC
330
18C7A
100
AcDbEntity
  8
寸法
 48
50.0
100
AcDbLine
 10
1694.767587648266
 20
1170.531020743327
 30
0.0
 11
1746.17359555837
 21
1170.531020743327
 31
0.0
  0
LINE
  5
18CCD
330
18C7A
100
AcDbEntity
  8
寸法
 48
50.0
100
AcDbLine
 10
2025.339129835225
 20
1227.676611498152
 30
0.0
 11
2025.339129835225
 21
1174.01297691636
 31
0.0
  0
LINE
  5
18CCE
330
18C7A
100
AcDbEntity
  8
寸法
 48
50.0
100
AcDbLine
 10
2114.623348430647
 20
1203.752977228664
 30
0.0
 11
2025.339129835225
 21
1227.676611498152
 31
0.0
  0
LINE
  5
18CCF
330
18C7A
100
AcDbEntity
  8
寸法
 48
50.0
100
AcDbLine
 10
1895.471408254923
 20
1203.752977228664
 30
0.0
 11
2114.623348430647
 21
1203.752977228664
 31
0.0
  0
DIMENSION
  5
18CD0
330
18C7A
100
AcDbEntity
  8
寸法
 48
50.0
100
AcDbDimension
  2
*D15
 10
2588.970589276523
 20
706.3240511224249
 30
0.0
 11
1969.060022905491
 21
706.3240511224249
 31
0.0
 12
-3742.925985830444
 22
-6453.628869860112
 32
0.0
 70
   128
  1
有効開口部間口\P<>
 71
     5
 42
1266.0
  3
INABA_S40G
100
AcDbAlignedDimension
 13
1322.970589276523
 23
1315.494269174465
 33
0.0
 14
2588.970589276523
 24
1315.494269174465
 34
0.0
100
AcDbRotatedDimension
1001
ACAD
1000
DSTYLE
1002
{
1070
   341
1005
0
1002
}
  0
LINE
  5
18CD1
330
18C7A
100
AcDbEntity
  8
部品1
100
AcDbLine
 10
3409.970589276524
 20
1392.494269174465
 30
0.0
 11
3437.970589276523
 21
1392.494269174465
 31
0.0
  0
DIMENSION
  5
18CD2
330
18C7A
100
AcDbEntity
  8
寸法
100
AcDbDimension
  2
*D16
 10
3674.266172669749
 20
1315.494269174465
 30
0.0
 11
3674.266172669748
 21
1177.494269174462
 31
0.0
 12
-3742.925985830444
 22
-6453.628869860112
 32
0.0
 70
   128
 71
     5
 42
77.0
  3
INABA_S40
100
AcDbAlignedDimension
 13
3437.970589276523
 23
1392.494269174465
 33
0.0
 14
3436.970589276523
 24
1315.494269174465
 34
0.0
 50
90.0
100
AcDbRotatedDimension
1001
ACAD
1000
DSTYLE
1002
{
1070
    41
1040
0.5
1070
    44
1040
1.0
1070
   147
1040
0.8
1070
   271
1070
     2
1070
   272
1070
     2
1070
   289
1070
     3
1070
   340
1005
F706
1070
   343
1005
164B4
1070
   344
1005
164B4
1002
}
  0
LINE
  5
18CD3
330
18C7A
100
AcDbEntity
  8
部品1
100
AcDbLine
 10
3437.970589276523
 20
1315.494269174465
 30
0.0
 11
3437.970589276523
 21
1392.494269174465
 31
0.0
  0
LINE
  5
18CD4
330
18C7A
100
AcDbEntity
  8
部品1
100
AcDbLine
 10
3398.970589276523
 20
1388.494269174465
 30
0.0
 11
3409.970589276524
 21
1388.494269174465
 31
0.0
  0
LINE
  5
18CD5
330
18C7A
100
AcDbEntity
  8
部品1
100
AcDbLine
 10
3407.970589276523
 20
1324.494269174465
 30
0.0
 11
3407.970589276523
 21
1315.494269174465
 31
0.0
  0
LINE
  5
18CD6
330
18C7A
100
AcDbEntity
  8
部品1
100
AcDbLine
 10
3398.970589276523
 20
1324.494269174465
 30
0.0
 11
3407.970589276523
 21
1324.494269174465
 31
0.0
  0
LINE
  5
18CD7
330
18C7A
100
AcDbEntity
  8
部品1
100
AcDbLine
 10
3398.970589276523
 20
1388.494269174465
 30
0.0
 11
3398.970589276523
 21
1324.494269174465
 31
0.0
  0
LINE
  5
18CD8
330
18C7A
100
AcDbEntity
  8
部品1
100
AcDbLine
 10
3409.970589276524
 20
1419.494269174465
 30
0.0
 11
3409.970589276524
 21
1388.494269174465
 31
0.0
  0
LINE
  5
18CD9
330
18C7A
100
AcDbEntity
  8
部品1
100
AcDbLine
 10
1322.970589276523
 20
1388.494269174465
 30
0.0
 11
1311.970589276523
 21
1388.494269174465
 31
0.0
  0
LINE
  5
18CDA
330
18C7A
100
AcDbEntity
  8
部品1
100
AcDbLine
 10
1283.970589276523
 20
1392.494269174465
 30
0.0
 11
1311.970589276523
 21
1392.494269174465
 31
0.0
  0
LINE
  5
18CDB
330
18C7A
100
AcDbEntity
  8
部品1
100
AcDbLine
 10
1313.970589276523
 20
1324.494269174465
 30
0.0
 11
1313.970589276523
 21
1315.494269174465
 31
0.0
  0
LINE
  5
18CDC
330
18C7A
100
AcDbEntity
  8
部品1
100
AcDbLine
 10
1322.970589276523
 20
1324.494269174465
 30
0.0
 11
1313.970589276523
 21
1324.494269174465
 31
0.0
  0
LINE
  5
18CDD
330
18C7A
100
AcDbEntity
  8
部品1
100
AcDbLine
 10
1313.970589276523
 20
1315.494269174465
 30
0.0
 11
1283.970589276523
 21
1315.494269174465
 31
0.0
  0
LINE
  5
18CDE
330
18C7A
100
AcDbEntity
  8
部品1
100
AcDbLine
 10
1283.970589276523
 20
1315.494269174465
 30
0.0
 11
1283.970589276523
 21
1392.494269174465
 31
0.0
  0
LINE
  5
18CDF
330
18C7A
100
AcDbEntity
  8
部品1
100
AcDbLine
 10
1322.970589276523
 20
1388.494269174465
 30
0.0
 11
1322.970589276523
 21
1324.494269174465
 31
0.0
  0
LINE
  5
18CE0
330
18C7A
100
AcDbEntity
  8
部品1
100
AcDbLine
 10
1311.970589276523
 20
1419.494269174462
 30
0.0
 11
1311.970589276523
 21
1388.494269174465
 31
0.0
  0
LINE
  5
18CE1
330
18C7A
100
AcDbEntity
  8
部品1
100
AcDbLine
 10
1311.970589276523
 20
1419.494269174462
 30
0.0
 11
3409.970589276524
 21
1419.494269174465
 31
0.0
  0
LINE
  5
18CE2
330
18C7A
100
AcDbEntity
  8
部品1
100
AcDbLine
 10
3407.970589276523
 20
1315.494269174465
 30
0.0
 11
3437.970589276523
 21
1315.494269174465
 31
0.0
  0
LINE
  5
18CE3
330
18C7A
100
AcDbEntity
  8
部品1
100
AcDbLine
 10
1313.970589276523
 20
1315.494269174465
 30
0.0
 11
3410.970589276523
 21
1315.494269174465
 31
0.0
  0
LINE
  5
18CE4
330
18C7A
100
AcDbEntity
  8
細線
  6
Continuous
 62
     5
100
AcDbLine
 10
2689.970589276527
 20
1354.494269174462
 30
0.0
 11
2689.970589276527
 21
1354.494269174462
 31
0.0
  0
LINE
  5
18CE5
330
18C7A
100
AcDbEntity
  8
細線
  6
Continuous
 62
     5
100
AcDbLine
 10
2682.470589276527
 20
1354.494269174462
 30
0.0
 11
2682.470589276527
 21
1354.494269174462
 31
0.0
  0
LINE
  5
18CE6
330
18C7A
100
AcDbEntity
  8
細線
  6
Continuous
 62
     5
100
AcDbLine
 10
2676.470589276527
 20
1354.494269174462
 30
0.0
 11
2676.470589276527
 21
1354.494269174462
 31
0.0
  0
LINE
  5
18CE7
330
18C7A
100
AcDbEntity
  8
細線
  6
Continuous
 62
     5
100
AcDbLine
 10
2743.970589276527
 20
1373.494269174462
 30
0.0
 11
2743.970589276527
 21
1373.494269174462
 31
0.0
  0
LINE
  5
18CE8
330
18C7A
100
AcDbEntity
  8
細線
 48
50.0
100
AcDbLine
 10
1336.970593930116
 20
1341.094443351418
 30
0.0
 11
1336.970593930113
 21
1349.490593759059
 31
0.0
  0
LINE
  5
18CE9
330
18C7A
100
AcDbEntity
  8
細線
 48
50.0
100
AcDbLine
 10
1336.970593930113
 20
1349.490593759059
 30
0.0
 11
1322.970589276523
 21
1349.490593759057
 31
0.0
  0
LINE
  5
18CEA
330
18C7A
100
AcDbEntity
  8
細線
 48
50.0
100
AcDbLine
 10
2087.970593930113
 20
1337.644443351419
 30
0.0
 11
2087.970593930113
 21
1342.494443351421
 31
0.0
  0
LINE
  5
18CEB
330
18C7A
100
AcDbEntity
  8
細線
 48
50.0
100
AcDbLine
 10
2087.970593930113
 20
1342.494443351421
 30
0.0
 11
2102.970593930113
 21
1342.494443351421
 31
0.0
  0
LINE
  5
18CEC
330
18C7A
100
AcDbEntity
  8
細線
 48
50.0
100
AcDbLine
 10
2102.970593930113
 20
1342.494443351421
 30
0.0
 11
2102.970593930115
 21
1349.494443351419
 31
0.0
  0
LINE
  5
18CED
330
18C7A
100
AcDbEntity
  8
細線
 48
50.0
100
AcDbLine
 10
2102.970593930115
 20
1349.494443351419
 30
0.0
 11
2117.970593930113
 21
1349.494443351419
 31
0.0
  0
LINE
  5
18CEE
330
18C7A
100
AcDbEntity
  8
細線
 48
50.0
100
AcDbLine
 10
2117.970593930113
 20
1349.494443351419
 30
0.0
 11
2117.970593930113
 21
1320.494443351421
 31
0.0
  0
LINE
  5
18CEF
330
18C7A
100
AcDbEntity
  8
細線
 48
50.0
100
AcDbLine
 10
1313.970589276523
 20
1320.491777694889
 30
0.0
 11
1527.970593930113
 21
1320.494460905133
 31
0.0
  0
LINE
  5
18CF0
330
18C7A
100
AcDbEntity
  8
細線
 48
50.0
100
AcDbLine
 10
2017.970593930113
 20
1320.494443351421
 30
0.0
 11
2117.970593930113
 21
1320.494443351421
 31
0.0
  0
LINE
  5
18CF1
330
18C7A
100
AcDbEntity
  8
細線
 48
50.0
100
AcDbLine
 10
1737.970593930113
 20
1320.494443351419
 30
0.0
 11
1807.970593930113
 21
1320.494443351423
 31
0.0
  0
LINE
  5
18CF2
330
18C7A
100
AcDbEntity
  8
細線
 48
50.0
100
AcDbLine
 10
1750.832558942642
 20
1320.494443351419
 30
0.0
 11
1756.588076525309
 21
1338.765294641913
 31
0.0
  0
LINE
  5
18CF3
330
18C7A
100
AcDbEntity
  8
細線
 48
50.0
100
AcDbLine
 10
1756.588076525309
 20
1338.765294641913
 30
0.0
 11
1767.516525005743
 21
1338.765294641911
 31
0.0
  0
ARC
  5
18CF4
330
18C7A
100
AcDbEntity
  8
細線
 48
50.0
100
AcDbCircle
 10
1767.516525005743
 20
1337.765294641911
 30
0.0
 40
1.0
100
AcDbArc
 50
24.62431835207225
 51
90.0
  0
ARC
  5
18CF5
330
18C7A
100
AcDbEntity
  8
細線
 48
50.0
100
AcDbCircle
 10
1778.425237120377
 20
1337.765294641911
 30
0.0
 40
1.0
100
AcDbArc
 50
90.0
 51
155.3756816479277
  0
ARC
  5
18CF6
330
18C7A
100
AcDbEntity
  8
細線
 48
50.0
100
AcDbCircle
 10
1772.970881063058
 20
1340.265294641911
 30
0.0
 40
5.0
100
AcDbArc
 50
204.6243183520723
 51
335.3756816479278
  0
LINE
  5
18CF7
330
18C7A
100
AcDbEntity
  8
細線
 48
50.0
100
AcDbLine
 10
1778.425237120377
 20
1338.765294641911
 30
0.0
 11
1789.35368560081
 21
1338.765294641913
 31
0.0
  0
LINE
  5
18CF8
330
18C7A
100
AcDbEntity
  8
細線
 48
50.0
100
AcDbLine
 10
1789.35368560081
 20
1338.765294641913
 30
0.0
 11
1795.109203183478
 21
1320.494443351423
 31
0.0
  0
LINE
  5
18CF9
330
18C7A
100
AcDbEntity
  8
細線
 48
50.0
100
AcDbLine
 10
2087.970593930113
 20
1341.094443351419
 30
0.0
 11
1336.970593930116
 21
1341.094443351418
 31
0.0
  0
LINE
  5
18CFA
330
18C7A
100
AcDbEntity
  8
細線
 48
50.0
100
AcDbLine
 10
1947.970593930113
 20
1320.494443351421
 30
0.0
 11
1877.970593930113
 21
1320.494443351421
 31
0.0
  0
LINE
  5
18CFB
330
18C7A
100
AcDbEntity
  8
細線
100
AcDbLine
 10
1667.970593930113
 20
1320.494443351421
 30
0.0
 11
1597.970602115529
 21
1320.494443351421
 31
0.0
  0
LINE
  5
18CFC
330
18C7A
100
AcDbEntity
  8
細線
 48
50.0
100
AcDbLine
 10
2741.970584622936
 20
1375.094487209288
 30
0.0
 11
2106.970593930113
 21
1375.094487209284
 31
0.0
  0
LINE
  5
18CFD
330
18C7A
100
AcDbEntity
  8
細線
 48
50.0
100
AcDbLine
 10
2106.970593930113
 20
1371.990637616925
 30
0.0
 11
2106.970593930113
 21
1376.490637616925
 31
0.0
  0
LINE
  5
18CFE
330
18C7A
100
AcDbEntity
  8
細線
 48
50.0
100
AcDbLine
 10
2106.970593930113
 20
1376.490637616925
 30
0.0
 11
2091.970593930113
 21
1376.490637616925
 31
0.0
  0
LINE
  5
18CFF
330
18C7A
100
AcDbEntity
  8
細線
 48
50.0
100
AcDbLine
 10
2091.970593930113
 20
1376.490637616925
 30
0.0
 11
2091.970593930113
 21
1383.490637616927
 31
0.0
  0
LINE
  5
18D00
330
18C7A
100
AcDbEntity
  8
細線
 48
50.0
100
AcDbLine
 10
2091.970593930113
 20
1383.490637616927
 30
0.0
 11
2076.970593930115
 21
1383.490637616924
 31
0.0
  0
LINE
  5
18D01
330
18C7A
100
AcDbEntity
  8
細線
 48
50.0
100
AcDbLine
 10
2076.970593930115
 20
1383.490637616924
 30
0.0
 11
2076.970593930115
 21
1345.890409513813
 31
0.0
  0
LINE
  5
18D02
330
18C7A
100
AcDbEntity
  8
細線
 48
50.0
100
AcDbLine
 10
2076.970593930115
 20
1345.890409513813
 30
0.0
 11
2096.970601231289
 21
1345.890451063353
 31
0.0
  0
LINE
  5
18D03
330
18C7A
100
AcDbEntity
  8
細線
 48
50.0
100
AcDbLine
 10
2096.970556362348
 20
1354.493912699161
 30
0.0
 11
2096.970601231289
 21
1345.890451063353
 31
0.0
  0
LINE
  5
18D04
330
18C7A
100
AcDbEntity
  8
細線
 48
50.0
100
AcDbLine
 10
2741.970584622936
 20
1371.644487209287
 30
0.0
 11
2741.970584622936
 21
1376.494487209284
 31
0.0
  0
LINE
  5
18D05
330
18C7A
100
AcDbEntity
  8
細線
 48
50.0
100
AcDbLine
 10
2741.970584622936
 20
1376.494487209284
 30
0.0
 11
2756.970584622934
 21
1376.494487209285
 31
0.0
  0
LINE
  5
18D06
330
18C7A
100
AcDbEntity
  8
細線
 48
50.0
100
AcDbLine
 10
2756.970584622934
 20
1376.494487209285
 30
0.0
 11
2756.970596256909
 21
1383.494487209331
 31
0.0
  0
LINE
  5
18D07
330
18C7A
100
AcDbEntity
  8
細線
 48
50.0
100
AcDbLine
 10
2756.970596256909
 20
1383.494487209331
 30
0.0
 11
2771.970594427439
 21
1383.494487209329
 31
0.0
  0
LINE
  5
18D08
330
18C7A
100
AcDbEntity
  8
細線
 48
50.0
100
AcDbLine
 10
2771.970594427439
 20
1383.494487209329
 30
0.0
 11
2771.970584125617
 21
1354.494281037055
 31
0.0
  0
LINE
  5
18D09
330
18C7A
100
AcDbEntity
  8
細線
 48
50.0
100
AcDbLine
 10
2458.070304175992
 20
1354.494278397076
 30
0.0
 11
2389.470863838818
 21
1354.494283787084
 31
0.0
  0
LINE
  5
18D0A
330
18C7A
100
AcDbEntity
  8
細線
 48
50.0
100
AcDbLine
 10
2096.970556362348
 20
1354.493912699161
 30
0.0
 11
2108.203245717057
 21
1354.494095652309
 31
0.0
  0
ARC
  5
18D0B
330
18C7A
100
AcDbEntity
  8
細線
 48
50.0
100
AcDbCircle
 10
2114.785538024393
 20
1353.294259565922
 30
0.0
 40
1.8
100
AcDbArc
 50
270.0006665777295
 51
345.000555481349
  0
LINE
  5
18D0C
330
18C7A
100
AcDbEntity
  8
細線
 48
50.0
100
AcDbLine
 10
2116.771971470473
 20
1353.753100023201
 30
0.0
 11
2116.524209028273
 21
1352.828402141094
 31
0.0
  0
LINE
  5
18D0D
330
18C7A
100
AcDbEntity
  8
細線
 48
50.0
100
AcDbLine
 10
2114.785558965548
 20
1351.494259566043
 30
0.0
 11
2111.155631546781
 21
1351.494217335563
 31
0.0
  0
ARC
  5
18D0E
330
18C7A
100
AcDbEntity
  8
細線
 48
50.0
100
AcDbCircle
 10
2111.155610605627
 20
1353.29421733544
 30
0.0
 40
1.8
100
AcDbArc
 50
195.0010443049965
 51
270.0006665777295
  0
LINE
  5
18D0F
330
18C7A
100
AcDbEntity
  8
細線
 48
50.0
100
AcDbLine
 10
2109.169183113368
 20
1353.752932303007
 30
0.0
 11
2109.416952609882
 21
1352.828311364425
 31
0.0
  0
ARC
  5
18D10
330
18C7A
100
AcDbEntity
  8
細線
 48
50.0
100
AcDbCircle
 10
2108.203262004622
 20
1353.494095652444
 30
0.0
 40
1.0
100
AcDbArc
 50
15.00104430499651
 51
90.00093320877969
  0
LINE
  5
18D11
330
18C7A
100
AcDbEntity
  8
細線
 48
50.0
100
AcDbLine
 10
2117.737892825577
 20
1354.494290342714
 30
0.0
 11
2118.679652976481
 21
1354.494296916564
 31
0.0
  0
ARC
  5
18D12
330
18C7A
100
AcDbEntity
  8
細線
 48
50.0
100
AcDbCircle
 10
2117.737899805961
 20
1353.49429034274
 30
0.0
 40
1.0
100
AcDbArc
 50
90.0003999466794
 51
165.000555481349
  0
LINE
  5
18D13
330
18C7A
100
AcDbEntity
  8
細線
 48
50.0
100
AcDbLine
 10
2669.470584622926
 20
1354.494281037055
 30
0.0
 11
2771.970584125617
 21
1354.494281037055
 31
0.0
  0
LINE
  5
18D14
330
18C7A
100
AcDbEntity
  8
細線
 48
50.0
100
AcDbLine
 10
2179.47061994182
 20
1354.494289224422
 30
0.0
 11
2118.370558714898
 21
1354.494296916564
 31
0.0
  0
LINE
  5
18D15
330
18C7A
100
AcDbEntity
  8
細線
 48
50.0
100
AcDbLine
 10
2599.470584622926
 20
1354.494281037057
 30
0.0
 11
2529.470584622926
 21
1354.494281037055
 31
0.0
  0
LINE
  5
18D16
330
18C7A
100
AcDbEntity
  8
細線
 48
50.0
100
AcDbLine
 10
2319.470584622926
 20
1354.494281037054
 30
0.0
 11
2249.470567335051
 21
1354.494281037057
 31
0.0
  0
ARC
  5
18D17
330
18C7A
100
AcDbEntity
  8
細線
 48
50.0
100
AcDbCircle
 10
2756.170589276533
 20
1387.694269174466
 30
0.0
 40
0.8
100
AcDbArc
 50
359.9997333689499
 51
89.99986668437072
  0
ARC
  5
18D18
330
18C7A
100
AcDbEntity
  8
細線
 48
50.0
100
AcDbCircle
 10
2763.770596101631
 20
1387.694280343081
 30
0.0
 40
0.8
100
AcDbArc
 50
90.00014387753465
 51
179.9997333689498
  0
LINE
  5
18D19
330
18C7A
100
AcDbEntity
  8
細線
 48
50.0
100
AcDbLine
 10
2756.170591137969
 20
1388.494269174465
 30
0.0
 11
2750.970589276525
 21
1388.494269174465
 31
0.0
  0
ARC
  5
18D1A
330
18C7A
100
AcDbEntity
  8
細線
 48
50.0
100
AcDbCircle
 10
2757.670589276524
 20
1386.194269174464
 30
0.0
 40
0.7
100
AcDbArc
 50
180.0
 51
270.0
  0
ARC
  5
18D1B
330
18C7A
100
AcDbEntity
  8
細線
 48
50.0
100
AcDbCircle
 10
2762.270589276524
 20
1386.194269174464
 30
0.0
 40
0.7
100
AcDbArc
 50
270.0
 51
0.0
  0
LINE
  5
18D1C
330
18C7A
100
AcDbEntity
  8
細線
 48
50.0
100
AcDbLine
 10
2762.970589276525
 20
1386.194269174464
 30
0.0
 11
2762.970596101639
 21
1387.694284065954
 31
0.0
  0
LINE
  5
18D1D
330
18C7A
100
AcDbEntity
  8
細線
 48
50.0
100
AcDbLine
 10
2757.670589276524
 20
1385.494269174465
 30
0.0
 11
2762.270589276524
 21
1385.494269174465
 31
0.0
  0
LINE
  5
18D1E
330
18C7A
100
AcDbEntity
  8
細線
 48
50.0
100
AcDbLine
 10
2756.970589276525
 20
1387.694269174466
 30
0.0
 11
2756.970589276525
 21
1386.194269174464
 31
0.0
  0
LINE
  5
18D1F
330
18C7A
100
AcDbEntity
  8
細線
 48
50.0
100
AcDbLine
 10
3382.570589276527
 20
1418.494269174465
 30
0.0
 11
2745.970589276525
 21
1418.494269174463
 31
0.0
  0
LINE
  5
18D20
330
18C7A
100
AcDbEntity
  8
細線
 48
50.0
100
AcDbLine
 10
3408.470589276525
 20
1413.494269174467
 30
0.0
 11
3392.570589276527
 21
1413.494269174465
 31
0.0
  0
LINE
  5
18D21
330
18C7A
100
AcDbEntity
  8
細線
 48
50.0
100
AcDbLine
 10
3392.570589276526
 20
1413.494269174465
 30
0.0
 11
3382.570589276527
 21
1418.494269174465
 31
0.0
  0
LINE
  5
18D22
330
18C7A
100
AcDbEntity
  8
細線
100
AcDbLine
 10
2993.470589276525
 20
1388.494269174465
 30
0.0
 11
2993.470589276525
 21
1417.794269174464
 31
0.0
  0
LINE
  5
18D23
330
18C7A
100
AcDbEntity
  8
細線
100
AcDbLine
 10
2993.470589276525
 20
1417.794269174464
 30
0.0
 11
3013.470589276525
 21
1417.794269174464
 31
0.0
  0
LINE
  5
18D24
330
18C7A
100
AcDbEntity
  8
細線
100
AcDbLine
 10
3013.470589276525
 20
1388.494269174465
 30
0.0
 11
3013.470589276525
 21
1417.794269174464
 31
0.0
  0
LINE
  5
18D25
330
18C7A
100
AcDbEntity
  8
細線
100
AcDbLine
 10
3170.720589276524
 20
1388.494269174465
 30
0.0
 11
3100.720589276523
 21
1388.494269174465
 31
0.0
  0
LINE
  5
18D26
330
18C7A
100
AcDbEntity
  8
細線
 48
50.0
100
AcDbLine
 10
2890.720589276525
 20
1388.494269174465
 30
0.0
 11
2763.766368849365
 21
1388.494269174465
 31
0.0
  0
LINE
  5
18D27
330
18C7A
100
AcDbEntity
  8
細線
100
AcDbLine
 10
3030.720589276525
 20
1388.494269174465
 30
0.0
 11
2960.720589276525
 21
1388.494269174465
 31
0.0
  0
LINE
  5
18D28
330
18C7A
100
AcDbEntity
  8
細線
 48
50.0
100
AcDbLine
 10
2750.970589276525
 20
1380.494269174465
 30
0.0
 11
2750.970589276525
 21
1388.494269174465
 31
0.0
  0
LINE
  5
18D29
330
18C7A
100
AcDbEntity
  8
細線
 48
50.0
100
AcDbLine
 10
2730.970589276524
 20
1380.494269174467
 30
0.0
 11
2750.970589276525
 21
1380.494269174465
 31
0.0
  0
LINE
  5
18D2A
330
18C7A
100
AcDbEntity
  8
細線
 48
50.0
100
AcDbLine
 10
2745.970589276525
 20
1418.494269174465
 30
0.0
 11
2745.970589276525
 21
1413.494269174465
 31
0.0
  0
LINE
  5
18D2B
330
18C7A
100
AcDbEntity
  8
細線
 48
50.0
100
AcDbLine
 10
2730.970589276525
 20
1418.494269174463
 30
0.0
 11
2745.970589276525
 21
1418.494269174465
 31
0.0
  0
LINE
  5
18D2C
330
18C7A
100
AcDbEntity
  8
細線
 48
50.0
100
AcDbLine
 10
2730.970589276524
 20
1380.494269174467
 30
0.0
 11
2730.970589276525
 21
1418.494269174463
 31
0.0
  0
LINE
  5
18D2D
330
18C7A
100
AcDbEntity
  8
細線
100
AcDbLine
 10
3398.970589276523
 20
1388.494269174465
 30
0.0
 11
3240.720589276525
 21
1388.494269174465
 31
0.0
  0
LINE
  5
18D2E
330
18C7A
100
AcDbEntity
  8
細線
 48
50.0
100
AcDbLine
 10
3408.470589276525
 20
1413.494269174467
 30
0.0
 11
3408.470589276524
 21
1388.494269174465
 31
0.0
  0
TEXT
  5
18D2F
330
18C7A
100
AcDbEntity
  8
部品1
100
AcDbText
 10
1860.154865991392
 20
46.99880823813145
 30
0.0
 40
135.0
  1
平面図
  7
STYLE2
100
AcDbText
  0
LWPOLYLINE
  5
18D30
330
18C7A
100
AcDbEntity
  8
部品1
100
AcDbPolyline
 90
        4
 70
     1
 43
0.0
 10
1770.23525616235
 20
239.8923374566548
 10
1770.23525616235
 20
0.0000159111223184
 10
2533.705922390791
 20
0.0000159111223184
 10
2533.705922390791
 20
239.8923374566548
  0
LINE
  5
18D31
330
18C7A
100
AcDbEntity
  8
部品1
100
AcDbLine
 10
1534.470589276487
 20
3154.494269174626
 30
0.0
 11
2769.470589276552
 21
3154.494269174626
 31
0.0
  0
LINE
  5
18D32
330
18C7A
100
AcDbEntity
  8
部品1
 48
50.0
100
AcDbLine
 10
1311.970589276523
 20
1420.494269174462
 30
0.0
 11
3411.970589276523
 21
1420.494269174465
 31
0.0
  0
LINE
  5
18D33
330
18C7A
100
AcDbEntity
  8
部品1
 48
50.0
100
AcDbLine
 10
471.9705892765232
 20
1392.494269174465
 30
0.0
 11
1311.970589276523
 21
1392.494269174465
 31
0.0
  0
DIMENSION
  5
18D34
330
18C7A
100
AcDbEntity
  8
寸法
100
AcDbDimension
  2
*D14
 10
2710.234916278077
 20
2488.887829538828
 30
0.0
 11
2338.318822490183
 21
2488.887829538828
 31
0.0
 12
-3742.925985830444
 22
-6453.628869860112
 32
0.0
 70
   128
 71
     5
 42
1231.00000000007
  3
INABA_S40G
100
AcDbAlignedDimension
 13
1536.470589276486
 23
2702.494269174557
 33
0.0
 14
2767.470589276556
 24
2702.494269174549
 34
0.0
100
AcDbRotatedDimension
1001
ACAD
1000
DSTYLE
1002
{
1002
}
  0
LINE
  5
18D35
330
18C7A
100
AcDbEntity
  8
部品1
100
AcDbLine
 10
1536.470589276487
 20
2702.494269174557
 30
0.0
 11
2767.470589276554
 21
2702.494269174615
 31
0.0
  0
LINE
  5
18D36
330
18C7A
100
AcDbEntity
  8
部品1
100
AcDbLine
 10
1536.470589276487
 20
3152.494269174557
 30
0.0
 11
2767.470589276556
 21
3152.494269174615
 31
0.0
  0
LINE
  5
18D37
330
18C7A
100
AcDbEntity
  8
細線
 48
50.0
100
AcDbLine
 10
1508.470589276487
 20
3152.494269174558
 30
0.0
 11
445.4705892765559
 21
2702.494269174509
 31
0.0
  0
LINE
  5
18D38
330
18C7A
100
AcDbEntity
  8
細線
 48
50.0
100
AcDbLine
 10
1508.470589276487
 20
2702.494269174558
 30
0.0
 11
445.4705892765542
 21
3152.494269174509
 31
0.0
  0
LINE
  5
18D39
330
18C7A
100
AcDbEntity
  8
部品1
100
AcDbLine
 10
1556.970589276487
 20
3172.494269174611
 30
0.0
 11
1556.970589276487
 21
3154.494269174611
 31
0.0
  0
LINE
  5
18D3A
330
18C7A
100
AcDbEntity
  8
部品1
100
AcDbLine
 10
1556.970589276487
 20
3172.494269174611
 30
0.0
 11
1550.970589276487
 21
3172.494269174611
 31
0.0
  0
LINE
  5
18D3B
330
18C7A
100
AcDbEntity
  8
部品1
100
AcDbLine
 10
1534.470589276487
 20
3146.494269174608
 30
0.0
 11
1509.470589276487
 21
3146.494269174611
 31
0.0
  0
LINE
  5
18D3C
330
18C7A
100
AcDbEntity
  8
部品1
100
AcDbLine
 10
1486.970589276487
 20
3172.494269174611
 30
0.0
 11
1486.970589276487
 21
3154.494269174611
 31
0.0
  0
LINE
  5
18D3D
330
18C7A
100
AcDbEntity
  8
部品1
100
AcDbLine
 10
1492.970589276487
 20
3172.494269174611
 30
0.0
 11
1486.970589276487
 21
3172.494269174611
 31
0.0
  0
LINE
  5
18D3E
330
18C7A
100
AcDbEntity
  8
部品1
100
AcDbLine
 10
1534.470589276487
 20
2702.494269174615
 30
0.0
 11
1509.470589276487
 21
2702.494269174615
 31
0.0
  0
LINE
  5
18D3F
330
18C7A
100
AcDbEntity
  8
部品1
 48
50.0
100
AcDbLine
 10
1536.470589276487
 20
3152.494269174611
 30
0.0
 11
1536.470589276487
 21
2702.494269174615
 31
0.0
  0
LINE
  5
18D40
330
18C7A
100
AcDbEntity
  8
部品1
 48
50.0
100
AcDbLine
 10
1508.470589276487
 20
3152.494269174607
 30
0.0
 11
1508.470589276487
 21
2702.494269174615
 31
0.0
  0
LINE
  5
18D41
330
18C7A
100
AcDbEntity
  8
部品1
 48
50.0
100
AcDbLine
 10
1534.470589276487
 20
3154.494269174618
 30
0.0
 11
1534.470589276487
 21
2702.494269174615
 31
0.0
  0
LINE
  5
18D42
330
18C7A
100
AcDbEntity
  8
部品1
 48
50.0
100
AcDbLine
 10
1509.470589276487
 20
3154.494269174615
 30
0.0
 11
1509.470589276487
 21
2702.494269174615
 31
0.0
  0
LINE
  5
18D43
330
18C7A
100
AcDbEntity
  8
部品1
100
AcDbLine
 10
3411.970589276556
 20
1392.494269174582
 30
0.0
 11
3411.970589276556
 21
1420.494269174596
 31
0.0
  0
LINE
  5
18D44
330
18C7A
100
AcDbEntity
  8
部品1
100
AcDbLine
 10
1311.970589276523
 20
1392.494269174596
 30
0.0
 11
1311.970589276523
 21
1420.494269174596
 31
0.0
  0
LINE
  5
18D45
330
18C7A
100
AcDbEntity
  8
部品1
100
AcDbLine
 10
891.9705892765232
 20
1392.494269174596
 30
0.0
 11
891.9705892765232
 21
1420.494269174596
 31
0.0
  0
LINE
  5
18D46
330
18C7A
100
AcDbEntity
  8
部品1
100
AcDbLine
 10
3411.97058927652
 20
3182.494269174477
 30
0.0
 11
3411.970589276523
 21
3154.494269174477
 31
0.0
  0
LINE
  5
18D47
330
18C7A
100
AcDbEntity
  8
部品1
100
AcDbLine
 10
2571.97058927652
 20
3182.494269174477
 30
0.0
 11
2571.970589276523
 21
3154.494269174477
 31
0.0
  0
LINE
  5
18D48
330
18C7A
100
AcDbEntity
  8
部品1
100
AcDbLine
 10
2991.97058927652
 20
3182.494269174477
 30
0.0
 11
2991.970589276523
 21
3154.494269174477
 31
0.0
  0
LINE
  5
18D49
330
18C7A
100
AcDbEntity
  8
部品1
100
AcDbLine
 10
2151.970589276519
 20
3182.494269174477
 30
0.0
 11
2151.970589276523
 21
3154.494269174477
 31
0.0
  0
LINE
  5
18D4A
330
18C7A
100
AcDbEntity
  8
部品1
100
AcDbLine
 10
1731.970589276519
 20
3182.494269174477
 30
0.0
 11
1731.970589276523
 21
3154.494269174477
 31
0.0
  0
LINE
  5
18D4B
330
18C7A
100
AcDbEntity
  8
部品1
100
AcDbLine
 10
1311.970589276519
 20
3182.494269174477
 30
0.0
 11
1311.970589276523
 21
3154.494269174477
 31
0.0
  0
LINE
  5
18D4C
330
18C7A
100
AcDbEntity
  8
部品1
100
AcDbLine
 10
891.9705892765195
 20
3182.494269174477
 30
0.0
 11
891.9705892765232
 21
3154.494269174477
 31
0.0
  0
LINE
  5
18D4D
330
18C7A
100
AcDbEntity
  8
部品1
100
AcDbLine
 10
471.9705892765232
 20
1392.494269174596
 30
0.0
 11
471.9705892765232
 21
1420.494269174596
 31
0.0
  0
LINE
  5
18D4E
330
18C7A
100
AcDbEntity
  8
部品1
100
AcDbLine
 10
444.9705892765305
 20
1420.494269174558
 30
0.0
 11
3858.970589276556
 21
1420.494269174596
 31
0.0
  0
LINE
  5
18D4F
330
18C7A
100
AcDbEntity
  8
部品1
100
AcDbLine
 10
3831.970589276556
 20
1392.494269174596
 30
0.0
 11
3831.970589276556
 21
1420.494269174596
 31
0.0
  0
LINE
  5
18D50
330
18C7A
100
AcDbEntity
  8
部品1
100
AcDbLine
 10
3858.970589276556
 20
1447.494269174593
 30
0.0
 11
3886.970589276556
 21
1447.494269174593
 31
0.0
  0
LINE
  5
18D51
330
18C7A
100
AcDbEntity
  8
部品1
100
AcDbLine
 10
3858.970589276556
 20
1867.494269174607
 30
0.0
 11
3886.970589276556
 21
1867.494269174607
 31
0.0
  0
LINE
  5
18D52
330
18C7A
100
AcDbEntity
  8
部品1
100
AcDbLine
 10
444.9705892765305
 20
1867.49426917448
 30
0.0
 11
416.9705892765305
 21
1867.49426917448
 31
0.0
  0
LINE
  5
18D53
330
18C7A
100
AcDbEntity
  8
部品1
100
AcDbLine
 10
3830.470589276541
 20
1867.49426917458
 30
0.0
 11
473.4705892765396
 21
1867.49426917448
 31
0.0
  0
LINE
  5
18D54
330
18C7A
100
AcDbEntity
  8
部品1
100
AcDbLine
 10
3830.470589276541
 20
2287.49426917458
 30
0.0
 11
473.4705892765396
 21
2287.49426917448
 31
0.0
  0
LINE
  5
18D55
330
18C7A
100
AcDbEntity
  8
部品1
100
AcDbLine
 10
444.9705892765305
 20
2287.49426917448
 30
0.0
 11
416.9705892765305
 21
2287.49426917448
 31
0.0
  0
LINE
  5
18D56
330
18C7A
100
AcDbEntity
  8
部品1
100
AcDbLine
 10
3858.970589276556
 20
2287.494269174608
 30
0.0
 11
3886.970589276556
 21
2287.494269174608
 31
0.0
  0
LINE
  5
18D57
330
18C7A
100
AcDbEntity
  8
部品1
 48
50.0
100
AcDbLine
 10
2151.970589276551
 20
2702.494269174586
 30
0.0
 11
2151.970589276581
 21
1448.994269174494
 31
0.0
  0
LINE
  5
18D58
330
18C7A
100
AcDbEntity
  8
破線
 48
10.0
100
AcDbLine
 10
2959.470589276535
 20
1472.494269174522
 30
0.0
 11
2176.970589276532
 21
1472.494269174505
 31
0.0
  0
LINE
  5
18D59
330
18C7A
100
AcDbEntity
  8
破線
 48
10.0
100
AcDbLine
 10
3009.47058927653
 20
1448.994269174509
 30
0.0
 11
3009.47058927653
 21
2702.494269174615
 31
0.0
  0
LINE
  5
18D5A
330
18C7A
100
AcDbEntity
  8
破線
 48
10.0
100
AcDbLine
 10
2959.470589276535
 20
1448.994269174505
 30
0.0
 11
2959.470589276531
 21
2702.494269174615
 31
0.0
  0
LINE
  5
18D5B
330
18C7A
100
AcDbEntity
  8
破線
 48
10.0
100
AcDbLine
 10
1344.47058927653
 20
1448.994269174509
 30
0.0
 11
1344.47058927653
 21
2702.494269174615
 31
0.0
  0
LINE
  5
18D5C
330
18C7A
100
AcDbEntity
  8
破線
 48
10.0
100
AcDbLine
 10
1294.470589276534
 20
1448.994269174505
 30
0.0
 11
1294.47058927653
 21
2702.494269174615
 31
0.0
  0
DIMENSION
  5
18D5D
330
18C7A
100
AcDbEntity
  8
寸法
100
AcDbDimension
  2
*D13
 10
1451.234916278005
 20
2488.887829538828
 30
0.0
 11
916.0604668248634
 21
2488.887829538828
 31
0.0
 12
-3742.925985830444
 22
-6453.628869860112
 32
0.0
 70
   128
 71
     5
 42
1062.99999999993
  3
INABA_S40G
100
AcDbAlignedDimension
 13
445.4705892765559
 23
2702.494269174505
 33
0.0
 14
1508.470589276486
 24
2702.494269174558
 34
0.0
100
AcDbRotatedDimension
1001
ACAD
1000
DSTYLE
1002
{
1002
}
  0
LINE
  5
18D5E
330
18C7A
100
AcDbEntity
  8
破線
 48
10.0
100
AcDbLine
 10
1294.470589276534
 20
1472.494269174469
 30
0.0
 11
496.9705892765414
 21
1472.494269174476
 31
0.0
  0
LINE
  5
18D5F
330
18C7A
100
AcDbEntity
  8
部品1
100
AcDbLine
 10
3831.970589276556
 20
3182.494269174604
 30
0.0
 11
3831.970589276556
 21
3154.494269174604
 31
0.0
  0
LINE
  5
18D60
330
18C7A
100
AcDbEntity
  8
部品1
100
AcDbLine
 10
3831.970589276556
 20
3182.494269174626
 30
0.0
 11
3831.970589276556
 21
3154.494269174626
 31
0.0
  0
LINE
  5
18D61
330
18C7A
100
AcDbEntity
  8
部品1
100
AcDbLine
 10
3858.970589276556
 20
3127.494269174607
 30
0.0
 11
3886.970589276556
 21
3127.494269174607
 31
0.0
  0
LINE
  5
18D62
330
18C7A
100
AcDbEntity
  8
部品1
100
AcDbLine
 10
3858.970589276556
 20
2707.494269174608
 30
0.0
 11
3886.970589276556
 21
2707.494269174608
 31
0.0
  0
LINE
  5
18D63
330
18C7A
100
AcDbEntity
  8
部品1
100
AcDbLine
 10
3858.470589276556
 20
3152.494269174604
 30
0.0
 11
3858.470589276556
 21
2702.494269174608
 31
0.0
  0
LINE
  5
18D64
330
18C7A
100
AcDbEntity
  8
部品1
100
AcDbLine
 10
3886.970589276533
 20
1447.494269174593
 30
0.0
 11
3886.970589276531
 21
1392.494269174596
 31
0.0
  0
LINE
  5
18D65
330
18C7A
100
AcDbEntity
  8
部品1
 48
50.0
100
AcDbLine
 10
3830.470589276556
 20
1448.994269174596
 30
0.0
 11
3858.970589276554
 21
1420.494269174596
 31
0.0
  0
LINE
  5
18D66
330
18C7A
100
AcDbEntity
  8
部品1
100
AcDbLine
 10
3886.970589276531
 20
1392.494269174596
 30
0.0
 11
3835.970589276531
 21
1392.494269174596
 31
0.0
  0
LINE
  5
18D67
330
18C7A
100
AcDbEntity
  8
部品1
100
AcDbLine
 10
3858.970589276533
 20
1447.494269174593
 30
0.0
 11
3886.970589276531
 21
1447.494269174593
 31
0.0
  0
LINE
  5
18D68
330
18C7A
100
AcDbEntity
  8
部品1
100
AcDbLine
 10
3886.970589276556
 20
3182.494269174604
 30
0.0
 11
3886.970589276531
 21
1392.494269174596
 31
0.0
  0
DIMENSION
  5
18D69
330
18C7A
100
AcDbEntity
  8
寸法
100
AcDbDimension
  2
*D12
 10
4534.396935010967
 20
1447.494269174593
 30
0.0
 11
4534.396935010965
 21
2287.4942691746
 31
0.0
 12
-3742.925985830444
 22
-6453.628869860112
 32
0.0
 70
   128
  1
4X420=<>
 71
     5
 42
1680.000000000014
  3
INABA_S40G
100
AcDbAlignedDimension
 13
3886.970589276556
 23
3127.494269174607
 33
0.0
 14
3886.970589276531
 24
1447.494269174593
 34
0.0
 50
90.0
100
AcDbRotatedDimension
1001
ACAD
1000
DSTYLE
1002
{
1002
}
  0
LINE
  5
18D6A
330
18C7A
100
AcDbEntity
  8
部品1
100
AcDbLine
 10
3858.970589276556
 20
3154.494269174604
 30
0.0
 11
3858.970589276534
 21
1420.494269174596
 31
0.0
  0
DIMENSION
  5
18D6B
330
18C7A
100
AcDbEntity
  8
寸法
100
AcDbDimension
  2
*D11
 10
4213.82831513858
 20
2607.276453505718
 30
0.0
 11
4113.828315138579
 21
2832.276453505718
 31
0.0
 12
-3742.925985830444
 22
-6453.628869860112
 32
0.0
 71
     5
 42
449.9999999999963
  3
INABA_S40G
100
AcDbAlignedDimension
 13
3858.470589276556
 23
3152.494269174604
 33
0.0
 14
3858.470589276556
 24
2702.494269174608
 34
0.0
 50
90.0
100
AcDbRotatedDimension
1001
ACAD
1000
DSTYLE
1002
{
1002
}
  0
LINE
  5
18D6C
330
18C7A
100
AcDbEntity
  8
部品1
100
AcDbLine
 10
3830.470589276547
 20
2702.494269174608
 30
0.0
 11
3830.470589276556
 21
1448.994269174596
 31
0.0
  0
LINE
  5
18D6D
330
18C7A
100
AcDbEntity
  8
破線
 48
10.0
100
AcDbLine
 10
3806.970589276549
 20
2702.494269174608
 30
0.0
 11
3806.970589276558
 21
1472.494269174593
 31
0.0
  0
LINE
  5
18D6E
330
18C7A
100
AcDbEntity
  8
部品1
100
AcDbLine
 10
2769.470589276556
 20
3146.494269174608
 30
0.0
 11
2794.470589276556
 21
3146.494269174611
 31
0.0
  0
LINE
  5
18D6F
330
18C7A
100
AcDbEntity
  8
部品1
100
AcDbLine
 10
2810.970589276556
 20
3172.494269174611
 30
0.0
 11
2816.970589276556
 21
3172.494269174611
 31
0.0
  0
LINE
  5
18D70
330
18C7A
100
AcDbEntity
  8
部品1
100
AcDbLine
 10
2816.970589276556
 20
3172.494269174611
 30
0.0
 11
2816.970589276556
 21
3154.494269174611
 31
0.0
  0
LINE
  5
18D71
330
18C7A
100
AcDbEntity
  8
部品1
100
AcDbLine
 10
2746.970589276556
 20
3172.494269174611
 30
0.0
 11
2752.970589276556
 21
3172.494269174611
 31
0.0
  0
LINE
  5
18D72
330
18C7A
100
AcDbEntity
  8
部品1
100
AcDbLine
 10
2746.970589276556
 20
3172.494269174611
 30
0.0
 11
2746.970589276556
 21
3154.494269174611
 31
0.0
  0
LINE
  5
18D73
330
18C7A
100
AcDbEntity
  8
部品1
100
AcDbLine
 10
2769.470589276556
 20
2702.494269174615
 30
0.0
 11
2794.470589276556
 21
2702.494269174615
 31
0.0
  0
LINE
  5
18D74
330
18C7A
100
AcDbEntity
  8
部品1
 48
50.0
100
AcDbLine
 10
2794.470589276556
 20
3154.494269174615
 30
0.0
 11
2794.470589276556
 21
2702.494269174615
 31
0.0
  0
LINE
  5
18D75
330
18C7A
100
AcDbEntity
  8
部品1
 48
50.0
100
AcDbLine
 10
2769.470589276554
 20
3154.494269174618
 30
0.0
 11
2769.470589276556
 21
2702.494269174615
 31
0.0
  0
LINE
  5
18D76
330
18C7A
100
AcDbEntity
  8
部品1
 48
50.0
100
AcDbLine
 10
2795.470589276556
 20
3152.494269174607
 30
0.0
 11
2795.470589276556
 21
2702.494269174615
 31
0.0
  0
LINE
  5
18D77
330
18C7A
100
AcDbEntity
  8
部品1
 48
50.0
100
AcDbLine
 10
2767.470589276556
 20
3152.494269174611
 30
0.0
 11
2767.470589276556
 21
2702.494269174615
 31
0.0
  0
LINE
  5
18D78
330
18C7A
100
AcDbEntity
  8
破線
 48
10.0
100
AcDbLine
 10
2176.97058927653
 20
1448.994269174509
 30
0.0
 11
2176.97058927653
 21
2702.494269174588
 31
0.0
  0
LINE
  5
18D79
330
18C7A
100
AcDbEntity
  8
破線
 48
10.0
100
AcDbLine
 10
2126.970589276534
 20
1448.994269174505
 30
0.0
 11
2126.970589276531
 21
2702.494269174586
 31
0.0
  0
LINE
  5
18D7A
330
18C7A
100
AcDbEntity
  8
部品1
100
AcDbLine
 10
2794.470589276556
 20
3154.494269174622
 30
0.0
 11
3858.970589276556
 21
3154.494269174604
 31
0.0
  0
LINE
  5
18D7B
330
18C7A
100
AcDbEntity
  8
細線
 48
50.0
100
AcDbLine
 10
3858.470589276556
 20
2702.494269174608
 30
0.0
 11
2795.470589276556
 21
3152.494269174607
 31
0.0
  0
LINE
  5
18D7C
330
18C7A
100
AcDbEntity
  8
部品1
100
AcDbLine
 10
2795.470589276555
 20
2702.494269174615
 30
0.0
 11
3858.470589276556
 21
2702.494269174608
 31
0.0
  0
LINE
  5
18D7D
330
18C7A
100
AcDbEntity
  8
部品1
100
AcDbLine
 10
2795.470589276556
 20
3152.494269174611
 30
0.0
 11
3858.470589276556
 21
3152.494269174604
 31
0.0
  0
LINE
  5
18D7E
330
18C7A
100
AcDbEntity
  8
細線
 48
50.0
100
AcDbLine
 10
3858.470589276556
 20
3152.494269174604
 30
0.0
 11
2795.470589276555
 21
2702.494269174615
 31
0.0
  0
DIMENSION
  5
18D7F
330
18C7A
100
AcDbEntity
  8
寸法
100
AcDbDimension
  2
*D10
 10
3801.234916278101
 20
2488.887829538937
 30
0.0
 11
3318.360544398907
 21
2488.887829538937
 31
0.0
 12
-3742.925985830444
 22
-6453.628869860112
 32
0.0
 70
   128
 71
     5
 42
1063.000000000012
  3
INABA_S40G
100
AcDbAlignedDimension
 13
2795.470589276555
 23
2702.494269174615
 33
0.0
 14
3858.470589276567
 24
2702.494269174608
 34
0.0
100
AcDbRotatedDimension
1001
ACAD
1000
DSTYLE
1002
{
1002
}
  0
LINE
  5
18D80
330
18C7A
100
AcDbEntity
  8
破線
 48
10.0
100
AcDbLine
 10
3806.970589276556
 20
1472.494269174594
 30
0.0
 11
3009.47058927653
 21
1472.494269174523
 31
0.0
  0
DIMENSION
  5
18D81
330
18C7A
100
AcDbEntity
  8
寸法
100
AcDbDimension
  2
*D9
 10
4534.396935010941
 20
1392.494269174596
 30
0.0
 11
4534.39693501094
 21
1084.008987800356
 31
0.0
 12
-3742.925985830444
 22
-6453.628869860112
 32
0.0
 70
   128
 71
     5
 42
54.99999999999636
  3
INABA_S40G
100
AcDbAlignedDimension
 13
3886.970589276531
 23
1447.494269174593
 33
0.0
 14
3886.970589276531
 24
1392.494269174596
 34
0.0
 50
90.0
100
AcDbRotatedDimension
1001
ACAD
1000
DSTYLE
1002
{
1002
}
  0
LINE
  5
18D82
330
18C7A
100
AcDbEntity
  8
部品1
100
AcDbLine
 10
471.9705892765196
 20
3182.494269174477
 30
0.0
 11
471.9705892765232
 21
3154.494269174477
 31
0.0
  0
LINE
  5
18D83
330
18C7A
100
AcDbEntity
  8
部品1
100
AcDbLine
 10
471.9705892765559
 20
3182.494269174509
 30
0.0
 11
471.9705892765559
 21
3154.494269174509
 31
0.0
  0
LINE
  5
18D84
330
18C7A
100
AcDbEntity
  8
部品1
100
AcDbLine
 10
444.9705892765232
 20
3127.49426917448
 30
0.0
 11
416.9705892765232
 21
3127.49426917448
 31
0.0
  0
LINE
  5
18D85
330
18C7A
100
AcDbEntity
  8
部品1
100
AcDbLine
 10
444.9705892765305
 20
2707.49426917448
 30
0.0
 11
416.9705892765305
 21
2707.49426917448
 31
0.0
  0
LINE
  5
18D86
330
18C7A
100
AcDbEntity
  8
部品1
 48
50.0
100
AcDbLine
 10
445.4705892765542
 20
3152.494269174506
 30
0.0
 11
445.4705892765559
 21
2702.494269174505
 31
0.0
  0
LINE
  5
18D87
330
18C7A
100
AcDbEntity
  8
部品1
 48
50.0
100
AcDbLine
 10
473.470589276545
 20
1448.994269174573
 30
0.0
 11
444.970589276545
 21
1420.494269174574
 31
0.0
  0
LINE
  5
18D88
330
18C7A
100
AcDbEntity
  8
部品1
100
AcDbLine
 10
471.9705892765232
 20
1392.494269174465
 30
0.0
 11
416.9705892765486
 21
1392.494269174465
 31
0.0
  0
LINE
  5
18D89
330
18C7A
100
AcDbEntity
  8
部品1
100
AcDbLine
 10
444.9705892765305
 20
1447.494269174429
 30
0.0
 11
416.9705892765469
 21
1447.494269174429
 31
0.0
  0
LINE
  5
18D8A
330
18C7A
100
AcDbEntity
  8
部品1
100
AcDbLine
 10
444.9705892765305
 20
1447.494269174465
 30
0.0
 11
416.9705892765469
 21
1447.494269174465
 31
0.0
  0
LINE
  5
18D8B
330
18C7A
100
AcDbEntity
  8
部品1
100
AcDbLine
 10
444.9705892765469
 20
1447.49426917448
 30
0.0
 11
416.9705892765469
 21
1447.49426917448
 31
0.0
  0
LINE
  5
18D8C
330
18C7A
100
AcDbEntity
  8
部品1
100
AcDbLine
 10
416.9705892765469
 20
1447.494269174429
 30
0.0
 11
416.9705892765486
 21
1392.494269174433
 31
0.0
  0
LINE
  5
18D8D
330
18C7A
100
AcDbEntity
  8
部品1
100
AcDbLine
 10
416.9705892765196
 20
3182.494269174477
 30
0.0
 11
416.9705892765486
 21
1392.494269174465
 31
0.0
  0
LINE
  5
18D8E
330
18C7A
100
AcDbEntity
  8
部品1
100
AcDbLine
 10
444.9705892765305
 20
1420.494269174556
 30
0.0
 11
444.9705892765559
 21
3154.494269174509
 31
0.0
  0
LINE
  5
18D8F
330
18C7A
100
AcDbEntity
  8
部品1
100
AcDbLine
 10
473.4705892765323
 20
2702.494269174608
 30
0.0
 11
473.470589276545
 21
1448.994269174571
 31
0.0
  0
LINE
  5
18D90
330
18C7A
100
AcDbEntity
  8
破線
 48
10.0
100
AcDbLine
 10
496.9705892765305
 20
2702.494269174608
 30
0.0
 11
496.9705892765451
 21
1472.494269174476
 31
0.0
  0
DIMENSION
  5
18D91
330
18C7A
100
AcDbEntity
  8
寸法
100
AcDbDimension
  2
*D8
 10
3886.970589276531
 20
410.7433333855515
 30
0.0
 11
2168.197775309287
 21
410.7433333855515
 31
0.0
 12
-3742.925985830444
 22
-6453.628869860112
 32
0.0
 70
   128
 71
     5
 42
3469.999999999982
  3
INABA_S40G
100
AcDbAlignedDimension
 13
416.9705892765486
 23
1392.494269174433
 33
0.0
 14
3886.970589276531
 24
1392.49426917456
 34
0.0
100
AcDbRotatedDimension
1001
ACAD
1000
DSTYLE
1002
{
1070
   341
1005
0
1002
}
  0
LINE
  5
18D92
330
18C7A
100
AcDbEntity
  8
部品1
100
AcDbLine
 10
444.9705892765559
 20
3154.494269174624
 30
0.0
 11
1509.470589276487
 21
3154.494269174626
 31
0.0
  0
LINE
  5
18D93
330
18C7A
100
AcDbEntity
  8
部品1
100
AcDbLine
 10
3886.970589276531
 20
1392.494269174596
 30
0.0
 11
3411.970589276556
 21
1392.494269174582
 31
0.0
  0
LINE
  5
18D94
330
18C7A
100
AcDbEntity
  8
部品1
100
AcDbLine
 10
416.9705892765559
 20
3182.494269174509
 30
0.0
 11
3886.970589276556
 21
3182.494269174604
 31
0.0
  0
LINE
  5
18D95
330
18C7A
100
AcDbEntity
  8
部品1
100
AcDbLine
 10
445.4705892765559
 20
2702.494269174509
 30
0.0
 11
1508.470589276487
 21
2702.494269174558
 31
0.0
  0
LINE
  5
18D96
330
18C7A
100
AcDbEntity
  8
細線
 48
50.0
100
AcDbLine
 10
2767.470589276556
 20
3152.494269174611
 30
0.0
 11
1536.470589276487
 21
2702.494269174558
 31
0.0
  0
LINE
  5
18D97
330
18C7A
100
AcDbEntity
  8
部品1
100
AcDbLine
 10
445.4705892765542
 20
3152.494269174509
 30
0.0
 11
1508.470589276485
 21
3152.494269174558
 31
0.0
  0
LINE
  5
18D98
330
18C7A
100
AcDbEntity
  8
細線
 48
50.0
100
AcDbLine
 10
2767.470589276554
 20
2702.494269174615
 30
0.0
 11
1536.470589276485
 21
3152.494269174558
 31
0.0
  0
LINE
  5
18D99
330
18C7A
100
AcDbEntity
  8
破線
 48
10.0
100
AcDbLine
 10
2126.970589276534
 20
1472.494269174502
 30
0.0
 11
1344.47058927653
 21
1472.494269174473
 31
0.0
  0
LINE
  5
18D9A
330
18C7A
100
AcDbEntity
  8
部品1
100
AcDbLine
 10
3830.470589276556
 20
1448.994269174596
 30
0.0
 11
473.4705892764487
 21
1448.994269174476
 31
0.0
  0
DIMENSION
  5
18D9B
330
18C7A
100
AcDbEntity
  8
寸法
100
AcDbDimension
  2
*D7
 10
471.970589276555
 20
3698.302488799491
 30
0.0
 11
108.4853079022819
 21
3698.302488799491
 31
0.0
 12
-3742.925985830444
 22
-6453.628869860112
 32
0.0
 70
   128
 71
     5
 42
55.00000000003456
  3
INABA_S40G
100
AcDbAlignedDimension
 13
416.9705892765205
 23
3182.494269174509
 33
0.0
 14
471.970589276555
 24
3182.494269174509
 34
0.0
100
AcDbRotatedDimension
1001
ACAD
1000
DSTYLE
1002
{
1002
}
  0
DIMENSION
  5
18D9C
330
18C7A
100
AcDbEntity
  8
寸法
100
AcDbDimension
  2
*D6
 10
4534.396935010967
 20
3127.494269174607
 30
0.0
 11
4534.396935010965
 21
3490.979550548844
 31
0.0
 12
-3742.925985830444
 22
-6453.628869860112
 32
0.0
 70
   128
 71
     5
 42
54.99999999999636
  3
INABA_S40G
100
AcDbAlignedDimension
 13
3886.970589276556
 23
3182.494269174604
 33
0.0
 14
3886.970589276556
 24
3127.494269174607
 34
0.0
 50
90.0
100
AcDbRotatedDimension
1001
ACAD
1000
DSTYLE
1002
{
1002
}
  0
DIMENSION
  5
18D9D
330
18C7A
100
AcDbEntity
  8
寸法
100
AcDbDimension
  2
*D5
 10
3886.970589276556
 20
3698.302488799589
 30
0.0
 11
4195.455870650794
 21
3698.302488799589
 31
0.0
 12
-3742.925985830444
 22
-6453.628869860112
 32
0.0
 70
   128
 71
     5
 42
55.0
  3
INABA_S40G
100
AcDbAlignedDimension
 13
3831.970589276556
 23
3182.494269174604
 33
0.0
 14
3886.970589276556
 24
3182.494269174604
 34
0.0
100
AcDbRotatedDimension
1001
ACAD
1000
DSTYLE
1002
{
1002
}
  0
DIMENSION
  5
18D9E
330
18C7A
100
AcDbEntity
  8
寸法
100
AcDbDimension
  2
*D4
 10
3831.970589276556
 20
3698.302488799607
 30
0.0
 11
2151.970589276555
 21
3698.302488799607
 31
0.0
 12
-3742.925985830444
 22
-6453.628869860112
 32
0.0
 70
   128
  1
8X420=<>
 71
     5
 42
3360.000000000001
  3
INABA_S40G
100
AcDbAlignedDimension
 13
471.970589276555
 23
3182.494269174509
 33
0.0
 14
3831.970589276556
 24
3182.494269174604
 34
0.0
100
AcDbRotatedDimension
1001
ACAD
1000
DSTYLE
1002
{
1002
}
  0
DIMENSION
  5
18D9F
330
18C7A
100
AcDbEntity
  8
寸法
100
AcDbDimension
  2
*D3
 10
4899.503876750603
 20
1392.494269174596
 30
0.0
 11
4899.503876750601
 21
2287.4942691746
 31
0.0
 12
-3742.925985830444
 22
-6453.628869860112
 32
0.0
 70
   128
 71
     5
 42
1790.000000000007
  3
INABA_S40G
100
AcDbAlignedDimension
 13
3886.970589276556
 23
3182.494269174604
 33
0.0
 14
3886.970589276531
 24
1392.494269174596
 34
0.0
 50
90.0
100
AcDbRotatedDimension
1001
ACAD
1000
DSTYLE
1002
{
1002
}
  0
ENDBLK
  5
18DA1
330
18C7A
100
AcDbEntity
  8
0
 48
50.0
100
AcDbBlockEnd
  0
BLOCK
  5
1C4CB
330
1C4CA
100
AcDbEntity
  8
0
 48
50.0
100
AcDbBlockBegin
  2
_NONE
 70
     0
 10
0.0
 20
0.0
 30
0.0
  3
_NONE
  1

  0
CIRCLE
  5
1C4CC
330
1C4CA
100
AcDbEntity
  8
0
  6
ByBlock
 62
     0
 48
50.0
100
AcDbCircle
 10
0.0
 20
0.0
 30
0.0
 40
0.25
  0
ENDBLK
  5
1C4CD
330
1C4CA
100
AcDbEntity
  8
0
 48
50.0
100
AcDbBlockEnd
  0
BLOCK
  5
20DEE
330
20DE2
100
AcDbEntity
  8
0
 48
50.0
100
AcDbBlockBegin
  2
*D19
 70
     1
 10
0.0
 20
0.0
 30
0.0
  3
*D19
  1

  0
LINE
  5
22E51
330
20DE2
100
AcDbEntity
  8
寸法
 62
     0
 48
50.0
370
    -2
100
AcDbLine
 10
9458.6
 20
7353.516207141544
 30
0.0
 11
9458.6
 21
8351.736529200465
 31
0.0
  0
LINE
  5
22E52
330
20DE2
100
AcDbEntity
  8
寸法
 62
     0
 48
50.0
370
    -2
100
AcDbLine
 10
9503.6
 20
8079.782665235454
 30
0.0
 11
9503.6
 21
8351.736529200465
 31
0.0
  0
LINE
  5
22E53
330
20DE2
100
AcDbEntity
  8
寸法
 62
     0
 48
50.0
370
    -2
100
AcDbLine
 10
9458.6
 20
8291.736529200465
 30
0.0
 11
9358.6
 21
8291.736529200465
 31
0.0
  0
LINE
  5
22E54
330
20DE2
100
AcDbEntity
  8
寸法
 62
     0
 48
50.0
370
    -2
100
AcDbLine
 10
9503.6
 20
8291.736529200465
 30
0.0
 11
9840.949242404919
 21
8291.736529200465
 31
0.0
  0
LINE
  5
22E55
330
20DE2
100
AcDbEntity
  8
寸法
 62
     0
 48
50.0
370
    -2
100
AcDbLine
 10
9458.6
 20
8291.736529200465
 30
0.0
 11
9503.6
 21
8291.736529200465
 31
0.0
  0
INSERT
  5
22E56
330
20DE2
100
AcDbEntity
  8
寸法
 62
     0
 48
50.0
370
    -2
100
AcDbBlockReference
  2
_DOTSMALL
 10
9458.6
 20
8291.736529200465
 30
0.0
 41
100.0
 42
100.0
 43
100.0
  0
INSERT
  5
22E57
330
20DE2
100
AcDbEntity
  8
寸法
 62
     0
 48
50.0
370
    -2
100
AcDbBlockReference
  2
_DOTSMALL
 10
9503.6
 20
8291.736529200465
 30
0.0
 41
100.0
 42
100.0
 43
100.0
 50
180.0
  0
MTEXT
  5
22E58
330
20DE2
100
AcDbEntity
  8
寸法
 62
     7
 48
50.0
100
AcDbMText
 10
9774.77462120246
 20
8391.736529200464
 30
0.0
 40
120.0
 41
0.0
 71
     5
 72
     1
  1
\A1;a
  7
STYLE1
 73
     1
 44
1.0
1001
ACAD
1000
MTEXTBEGIN
1070
    73
1070
     1
1070
    44
1040
1.0
1070
    74
1070
     0
1000
MTEXTEND
  0
POINT
  5
22E59
330
20DE2
100
AcDbEntity
  8
DEFPOINTS
 62
     0
 48
50.0
100
AcDbPoint
 10
9458.6
 20
7333.516207141544
 30
0.0
  0
POINT
  5
22E5A
330
20DE2
100
AcDbEntity
  8
DEFPOINTS
 62
     0
 48
50.0
100
AcDbPoint
 10
9503.6
 20
8059.782665235454
 30
0.0
  0
POINT
  5
22E5B
330
20DE2
100
AcDbEntity
  8
DEFPOINTS
 62
     0
 48
50.0
100
AcDbPoint
 10
9503.6
 20
8291.736529200465
 30
0.0
  0
ENDBLK
  5
20DEF
330
20DE2
100
AcDbEntity
  8
0
 48
50.0
100
AcDbBlockEnd
  0
BLOCK
  5
20E08
330
20DFC
100
AcDbEntity
  8
0
 48
50.0
100
AcDbBlockBegin
  2
*D20
 70
     1
 10
0.0
 20
0.0
 30
0.0
  3
*D20
  1

  0
LINE
  5
22E46
330
20DFC
100
AcDbEntity
  8
寸法
 62
     0
 48
50.0
370
    -2
100
AcDbLine
 10
6943.600000000003
 20
8079.782665235455
 30
0.0
 11
6943.600000000003
 21
8351.736529200465
 31
0.0
  0
LINE
  5
22E47
330
20DFC
100
AcDbEntity
  8
寸法
 62
     0
 48
50.0
370
    -2
100
AcDbLine
 10
6988.600000000001
 20
7353.516207141544
 30
0.0
 11
6988.600000000001
 21
8351.736529200465
 31
0.0
  0
LINE
  5
22E48
330
20DFC
100
AcDbEntity
  8
寸法
 62
     0
 48
50.0
370
    -2
100
AcDbLine
 10
6988.600000000001
 20
8291.736529200465
 30
0.0
 11
7088.600000000001
 21
8291.736529200465
 31
0.0
  0
LINE
  5
22E49
330
20DFC
100
AcDbEntity
  8
寸法
 62
     0
 48
50.0
370
    -2
100
AcDbLine
 10
6943.600000000003
 20
8291.736529200465
 30
0.0
 11
6606.250757595083
 21
8291.736529200465
 31
0.0
  0
LINE
  5
22E4A
330
20DFC
100
AcDbEntity
  8
寸法
 62
     0
 48
50.0
370
    -2
100
AcDbLine
 10
6988.600000000001
 20
8291.736529200465
 30
0.0
 11
6943.600000000003
 21
8291.736529200465
 31
0.0
  0
INSERT
  5
22E4B
330
20DFC
100
AcDbEntity
  8
寸法
 62
     0
 48
50.0
370
    -2
100
AcDbBlockReference
  2
_DOTSMALL
 10
6988.600000000001
 20
8291.736529200465
 30
0.0
 41
100.0
 42
100.0
 43
100.0
 50
180.0
  0
INSERT
  5
22E4C
330
20DFC
100
AcDbEntity
  8
寸法
 62
     0
 48
50.0
370
    -2
100
AcDbBlockReference
  2
_DOTSMALL
 10
6943.600000000003
 20
8291.736529200465
 30
0.0
 41
100.0
 42
100.0
 43
100.0
  0
MTEXT
  5
22E4D
330
20DFC
100
AcDbEntity
  8
寸法
 62
     7
 48
50.0
100
AcDbMText
 10
6672.425378797541
 20
8391.736529200464
 30
0.0
 40
120.0
 41
0.0
 71
     5
 72
     1
  1
\A1;a
  7
STYLE1
 73
     1
 44
1.0
1001
ACAD
1000
MTEXTBEGIN
1070
    73
1070
     1
1070
    44
1040
1.0
1070
    74
1070
     0
1000
MTEXTEND
  0
POINT
  5
22E4E
330
20DFC
100
AcDbEntity
  8
DEFPOINTS
 62
     0
 48
50.0
100
AcDbPoint
 10
6943.600000000003
 20
8059.782665235456
 30
0.0
  0
POINT
  5
22E4F
330
20DFC
100
AcDbEntity
  8
DEFPOINTS
 62
     0
 48
50.0
100
AcDbPoint
 10
6988.600000000001
 20
7333.516207141544
 30
0.0
  0
POINT
  5
22E50
330
20DFC
100
AcDbEntity
  8
DEFPOINTS
 62
     0
 48
50.0
100
AcDbPoint
 10
6988.600000000001
 20
8291.736529200465
 30
0.0
  0
ENDBLK
  5
20E09
330
20DFC
100
AcDbEntity
  8
0
 48
50.0
100
AcDbBlockEnd
  0
BLOCK
  5
2274E
330
22742
100
AcDbEntity
  8
0
 48
50.0
100
AcDbBlockBegin
  2
*D25
 70
     1
 10
0.0
 20
0.0
 30
0.0
  3
*D25
  1

  0
LINE
  5
22E3B
330
22742
100
AcDbEntity
  8
寸法
 62
     0
 48
50.0
370
    -2
100
AcDbLine
 10
6345.665006330071
 20
7408.516207141552
 30
0.0
 11
6053.721909610674
 21
7408.516207141552
 31
0.0
  0
LINE
  5
22E3C
330
22742
100
AcDbEntity
  8
寸法
 62
     0
 48
50.0
370
    -2
100
AcDbLine
 10
6835.156977762463
 20
7333.516207141548
 30
0.0
 11
6053.721909610674
 21
7333.516207141549
 31
0.0
  0
LINE
  5
22E3D
330
22742
100
AcDbEntity
  8
寸法
 62
     0
 48
50.0
370
    -2
100
AcDbLine
 10
6113.721909610674
 20
7408.516207141552
 30
0.0
 11
6113.721909610674
 21
7508.516207141552
 31
0.0
  0
LINE
  5
22E3E
330
22742
100
AcDbEntity
  8
寸法
 62
     0
 48
50.0
370
    -2
100
AcDbLine
 10
6113.721909610674
 20
7333.516207141549
 30
0.0
 11
6113.721909610674
 21
7233.516207141549
 31
0.0
  0
LINE
  5
22E3F
330
22742
100
AcDbEntity
  8
寸法
 62
     0
 48
50.0
370
    -2
100
AcDbLine
 10
6113.721909610674
 20
7408.516207141552
 30
0.0
 11
6113.721909610674
 21
7333.516207141549
 31
0.0
  0
INSERT
  5
22E40
330
22742
100
AcDbEntity
  8
寸法
 62
     0
 48
50.0
370
    -2
100
AcDbBlockReference
  2
_DOTSMALL
 10
6113.721909610674
 20
7408.516207141552
 30
0.0
 41
100.0
 42
100.0
 43
100.0
 50
270.0
  0
INSERT
  5
22E41
330
22742
100
AcDbEntity
  8
寸法
 62
     0
 48
50.0
370
    -2
100
AcDbBlockReference
  2
_DOTSMALL
 10
6113.721909610674
 20
7333.516207141549
 30
0.0
 41
100.0
 42
100.0
 43
100.0
 50
90.0
  0
MTEXT
  5
22E42
330
22742
100
AcDbEntity
  8
寸法
 62
     7
 48
50.0
100
AcDbMText
 10
6013.721909610672
 20
7371.016207141552
 30
0.0
 40
120.0
 41
0.0
 71
     5
 72
     1
  1
\A1;c
  7
STYLE1
 11
0.0000000000000001
 21
1.0
 31
0.0
 73
     1
 44
1.0
1001
ACAD
1000
MTEXTBEGIN
1070
    73
1070
     1
1070
    44
1040
1.0
1070
    74
1070
     0
1000
MTEXTEND
  0
POINT
  5
22E43
330
22742
100
AcDbEntity
  8
DEFPOINTS
 62
     0
 48
50.0
100
AcDbPoint
 10
6365.665006330072
 20
7408.516207141552
 30
0.0
  0
POINT
  5
22E44
330
22742
100
AcDbEntity
  8
DEFPOINTS
 62
     0
 48
50.0
100
AcDbPoint
 10
6855.156977762463
 20
7333.516207141548
 30
0.0
  0
POINT
  5
22E45
330
22742
100
AcDbEntity
  8
DEFPOINTS
 62
     0
 48
50.0
100
AcDbPoint
 10
6113.721909610674
 20
7333.516207141549
 30
0.0
  0
ENDBLK
  5
2274F
330
22742
100
AcDbEntity
  8
0
 48
50.0
100
AcDbBlockEnd
  0
BLOCK
  5
22768
330
2275C
100
AcDbEntity
  8
0
 48
50.0
100
AcDbBlockBegin
  2
*D26
 70
     1
 10
0.0
 20
0.0
 30
0.0
  3
*D26
  1

  0
LINE
  5
22E30
330
2275C
100
AcDbEntity
  8
寸法
 62
     0
 48
50.0
370
    -2
100
AcDbLine
 10
6841.607272343892
 20
6373.516207141538
 30
0.0
 11
6053.721909610674
 21
6373.516207141538
 31
0.0
  0
LINE
  5
22E31
330
2275C
100
AcDbEntity
  8
寸法
 62
     0
 48
50.0
370
    -2
100
AcDbLine
 10
6345.665006330072
 20
6318.516207141559
 30
0.0
 11
6053.721909610674
 21
6318.516207141559
 31
0.0
  0
LINE
  5
22E32
330
2275C
100
AcDbEntity
  8
寸法
 62
     0
 48
50.0
370
    -2
100
AcDbLine
 10
6113.721909610674
 20
6373.516207141538
 30
0.0
 11
6113.721909610674
 21
6473.516207141537
 31
0.0
  0
LINE
  5
22E33
330
2275C
100
AcDbEntity
  8
寸法
 62
     0
 48
50.0
370
    -2
100
AcDbLine
 10
6113.721909610674
 20
6318.516207141559
 30
0.0
 11
6113.721909610674
 21
6218.51620714156
 31
0.0
  0
LINE
  5
22E34
330
2275C
100
AcDbEntity
  8
寸法
 62
     0
 48
50.0
370
    -2
100
AcDbLine
 10
6113.721909610674
 20
6373.516207141538
 30
0.0
 11
6113.721909610674
 21
6318.516207141559
 31
0.0
  0
INSERT
  5
22E35
330
2275C
100
AcDbEntity
  8
寸法
 62
     0
 48
50.0
370
    -2
100
AcDbBlockReference
  2
_DOTSMALL
 10
6113.721909610674
 20
6373.516207141538
 30
0.0
 41
100.0
 42
100.0
 43
100.0
 50
270.0
  0
INSERT
  5
22E36
330
2275C
100
AcDbEntity
  8
寸法
 62
     0
 48
50.0
370
    -2
100
AcDbBlockReference
  2
_DOTSMALL
 10
6113.721909610674
 20
6318.516207141559
 30
0.0
 41
100.0
 42
100.0
 43
100.0
 50
90.0
  0
MTEXT
  5
22E37
330
2275C
100
AcDbEntity
  8
寸法
 62
     7
 48
50.0
100
AcDbMText
 10
6013.721909610672
 20
6346.016207141549
 30
0.0
 40
120.0
 41
0.0
 71
     5
 72
     1
  1
\A1;b
  7
STYLE1
 11
0.0000000000000001
 21
1.0
 31
0.0
 73
     1
 44
1.0
1001
ACAD
1000
MTEXTBEGIN
1070
    73
1070
     1
1070
    44
1040
1.0
1070
    74
1070
     0
1000
MTEXTEND
  0
POINT
  5
22E38
330
2275C
100
AcDbEntity
  8
DEFPOINTS
 62
     0
 48
50.0
100
AcDbPoint
 10
6861.607272343893
 20
6373.516207141538
 30
0.0
  0
POINT
  5
22E39
330
2275C
100
AcDbEntity
  8
DEFPOINTS
 62
     0
 48
50.0
100
AcDbPoint
 10
6365.665006330072
 20
6318.516207141559
 30
0.0
  0
POINT
  5
22E3A
330
2275C
100
AcDbEntity
  8
DEFPOINTS
 62
     0
 48
50.0
100
AcDbPoint
 10
6113.721909610674
 20
6318.516207141559
 30
0.0
  0
ENDBLK
  5
22769
330
2275C
100
AcDbEntity
  8
0
 48
50.0
100
AcDbBlockEnd
  0
BLOCK
  5
22AAC
330
22AA3
100
AcDbEntity
  8
0
 48
50.0
100
AcDbBlockBegin
  2
*D27
 70
     1
 10
0.0
 20
0.0
 30
0.0
  3
*D27
  1

  0
LINE
  5
22E27
330
22AA3
100
AcDbEntity
  8
寸法
 62
     0
 48
50.0
370
    -2
100
AcDbLine
 10
9335.600000000001
 20
7280.516207141547
 30
0.0
 11
9335.600000000001
 21
8119.782665235458
 31
0.0
  0
LINE
  5
22E28
330
22AA3
100
AcDbEntity
  8
寸法
 62
     0
 48
50.0
370
    -2
100
AcDbLine
 10
7111.6
 20
7280.516207141547
 30
0.0
 11
7111.6
 21
8119.782665235458
 31
0.0
  0
LINE
  5
22E29
330
22AA3
100
AcDbEntity
  8
寸法
 62
     0
 48
50.0
370
    -2
100
AcDbLine
 10
9335.600000000001
 20
8059.782665235458
 30
0.0
 11
7111.6
 21
8059.782665235458
 31
0.0
  0
INSERT
  5
22E2A
330
22AA3
100
AcDbEntity
  8
寸法
 62
     0
 48
50.0
370
    -2
100
AcDbBlockReference
  2
_DOTSMALL
 10
9335.600000000001
 20
8059.782665235458
 30
0.0
 41
100.0
 42
100.0
 43
100.0
  0
INSERT
  5
22E2B
330
22AA3
100
AcDbEntity
  8
寸法
 62
     0
 48
50.0
370
    -2
100
AcDbBlockReference
  2
_DOTSMALL
 10
7111.6
 20
8059.782665235458
 30
0.0
 41
100.0
 42
100.0
 43
100.0
 50
180.0
  0
MTEXT
  5
22E2C
330
22AA3
100
AcDbEntity
  8
寸法
 62
     7
 48
50.0
100
AcDbMText
 10
8223.600000000001
 20
8159.794476259079
 30
0.0
 40
120.0
 41
0.0
 71
     5
 72
     1
  1
\A1;2224
  7
STYLE1
 73
     1
 44
1.0
1001
ACAD
1000
MTEXTBEGIN
1070
    73
1070
     1
1070
    44
1040
1.0
1070
    74
1070
     0
1000
MTEXTEND
  0
POINT
  5
22E2D
330
22AA3
100
AcDbEntity
  8
DEFPOINTS
 62
     0
 48
50.0
100
AcDbPoint
 10
9335.600000000001
 20
7260.516207141548
 30
0.0
  0
POINT
  5
22E2E
330
22AA3
100
AcDbEntity
  8
DEFPOINTS
 62
     0
 48
50.0
100
AcDbPoint
 10
7111.6
 20
7260.516207141548
 30
0.0
  0
POINT
  5
22E2F
330
22AA3
100
AcDbEntity
  8
DEFPOINTS
 62
     0
 48
50.0
100
AcDbPoint
 10
7111.6
 20
8059.782665235458
 30
0.0
  0
ENDBLK
  5
22AAD
330
22AA3
100
AcDbEntity
  8
0
 48
50.0
100
AcDbBlockEnd
  0
BLOCK
  5
22AB8
330
22AAE
100
AcDbEntity
  8
0
 48
50.0
100
AcDbBlockBegin
  2
*D28
 70
     1
 10
0.0
 20
0.0
 30
0.0
  3
*D28
  1

  0
LINE
  5
22E1E
330
22AAE
100
AcDbEntity
  8
寸法
 62
     0
 48
50.0
370
    -2
100
AcDbLine
 10
6988.600000000001
 20
7353.516207141547
 30
0.0
 11
6988.600000000001
 21
8351.736529200465
 31
0.0
  0
LINE
  5
22E1F
330
22AAE
100
AcDbEntity
  8
寸法
 62
     0
 48
50.0
370
    -2
100
AcDbLine
 10
9458.6
 20
7353.516207141547
 30
0.0
 11
9458.6
 21
8351.736529200465
 31
0.0
  0
LINE
  5
22E20
330
22AAE
100
AcDbEntity
  8
寸法
 62
     0
 48
50.0
370
    -2
100
AcDbLine
 10
6988.600000000001
 20
8291.736529200465
 30
0.0
 11
9458.6
 21
8291.736529200465
 31
0.0
  0
INSERT
  5
22E21
330
22AAE
100
AcDbEntity
  8
寸法
 62
     0
 48
50.0
370
    -2
100
AcDbBlockReference
  2
_DOTSMALL
 10
6988.600000000001
 20
8291.736529200465
 30
0.0
 41
100.0
 42
100.0
 43
100.0
 50
180.0
  0
INSERT
  5
22E22
330
22AAE
100
AcDbEntity
  8
寸法
 62
     0
 48
50.0
370
    -2
100
AcDbBlockReference
  2
_DOTSMALL
 10
9458.6
 20
8291.736529200465
 30
0.0
 41
100.0
 42
100.0
 43
100.0
  0
MTEXT
  5
22E23
330
22AAE
100
AcDbEntity
  8
寸法
 62
     7
 48
50.0
100
AcDbMText
 10
8223.600000000001
 20
8391.748340224088
 30
0.0
 40
120.0
 41
0.0
 71
     5
 72
     1
  1
\A1;2470
  7
STYLE1
 73
     1
 44
1.0
1001
ACAD
1000
MTEXTBEGIN
1070
    73
1070
     1
1070
    44
1040
1.0
1070
    74
1070
     0
1000
MTEXTEND
  0
POINT
  5
22E24
330
22AAE
100
AcDbEntity
  8
DEFPOINTS
 62
     0
 48
50.0
100
AcDbPoint
 10
6988.600000000001
 20
7333.516207141546
 30
0.0
  0
POINT
  5
22E25
330
22AAE
100
AcDbEntity
  8
DEFPOINTS
 62
     0
 48
50.0
100
AcDbPoint
 10
9458.6
 20
7333.516207141546
 30
0.0
  0
POINT
  5
22E26
330
22AAE
100
AcDbEntity
  8
DEFPOINTS
 62
     0
 48
50.0
100
AcDbPoint
 10
9458.6
 20
8291.736529200465
 30
0.0
  0
ENDBLK
  5
22AB9
330
22AAE
100
AcDbEntity
  8
0
 48
50.0
100
AcDbBlockEnd
  0
BLOCK
  5
22AC4
330
22ABA
100
AcDbEntity
  8
0
 48
50.0
100
AcDbBlockBegin
  2
*D29
 70
     1
 10
0.0
 20
0.0
 30
0.0
  3
*D29
  1

  0
LINE
  5
22E15
330
22ABA
100
AcDbEntity
  8
寸法
 62
     0
 48
50.0
370
    -2
100
AcDbLine
 10
7813.600000000008
 20
6923.516207141547
 30
0.0
 11
7813.600000000008
 21
7876.125023811795
 31
0.0
  0
LINE
  5
22E16
330
22ABA
100
AcDbEntity
  8
寸法
 62
     0
 48
50.0
370
    -2
100
AcDbLine
 10
8633.600000000008
 20
6923.516207141547
 30
0.0
 11
8633.600000000008
 21
7876.125023811795
 31
0.0
  0
LINE
  5
22E17
330
22ABA
100
AcDbEntity
  8
寸法
 62
     0
 48
50.0
370
    -2
100
AcDbLine
 10
7813.600000000008
 20
7816.125023811796
 30
0.0
 11
8633.600000000008
 21
7816.125023811796
 31
0.0
  0
INSERT
  5
22E18
330
22ABA
100
AcDbEntity
  8
寸法
 62
     0
 48
50.0
370
    -2
100
AcDbBlockReference
  2
_DOTSMALL
 10
7813.600000000008
 20
7816.125023811796
 30
0.0
 41
100.0
 42
100.0
 43
100.0
 50
180.0
  0
INSERT
  5
22E19
330
22ABA
100
AcDbEntity
  8
寸法
 62
     0
 48
50.0
370
    -2
100
AcDbBlockReference
  2
_DOTSMALL
 10
8633.600000000008
 20
7816.125023811796
 30
0.0
 41
100.0
 42
100.0
 43
100.0
  0
MTEXT
  5
22E1A
330
22ABA
100
AcDbEntity
  8
寸法
 62
     7
 48
50.0
100
AcDbMText
 10
8223.600000000008
 20
7916.136834835417
 30
0.0
 40
120.0
 41
0.0
 71
     5
 72
     1
  1
\A1;820
  7
STYLE1
 73
     1
 44
1.0
1001
ACAD
1000
MTEXTBEGIN
1070
    73
1070
     1
1070
    44
1040
1.0
1070
    74
1070
     0
1000
MTEXTEND
  0
POINT
  5
22E1B
330
22ABA
100
AcDbEntity
  8
DEFPOINTS
 62
     0
 48
50.0
100
AcDbPoint
 10
7813.600000000008
 20
6903.516207141547
 30
0.0
  0
POINT
  5
22E1C
330
22ABA
100
AcDbEntity
  8
DEFPOINTS
 62
     0
 48
50.0
100
AcDbPoint
 10
8633.600000000008
 20
6903.516207141547
 30
0.0
  0
POINT
  5
22E1D
330
22ABA
100
AcDbEntity
  8
DEFPOINTS
 62
     0
 48
50.0
100
AcDbPoint
 10
8633.600000000008
 20
7816.125023811796
 30
0.0
  0
ENDBLK
  5
22AC5
330
22ABA
100
AcDbEntity
  8
0
 48
50.0
100
AcDbBlockEnd
  0
BLOCK
  5
22AD1
330
22AC6
100
AcDbEntity
  8
0
 48
50.0
100
AcDbBlockBegin
  2
*D30
 70
     1
 10
0.0
 20
0.0
 30
0.0
  3
*D30
  1

  0
LINE
  5
22E0B
330
22AC6
100
AcDbEntity
  8
寸法
 62
     0
 48
50.0
370
    -2
100
AcDbLine
 10
7542.765475140901
 20
6373.516207141558
 30
0.0
 11
7411.285990614302
 21
6373.516207141558
 31
0.0
  0
LINE
  5
22E0C
330
22AC6
100
AcDbEntity
  8
寸法
 62
     0
 48
50.0
370
    -2
100
AcDbLine
 10
7743.600000000007
 20
6853.516207141547
 30
0.0
 11
7411.285990614302
 21
6853.516207141547
 31
0.0
  0
LINE
  5
22E0D
330
22AC6
100
AcDbEntity
  8
寸法
 62
     0
 48
50.0
370
    -2
100
AcDbLine
 10
7471.285990614302
 20
6853.516207141547
 30
0.0
 11
7471.285990614302
 21
6373.516207141558
 31
0.0
  0
LINE
  5
22E0E
330
22AC6
100
AcDbEntity
  8
寸法
 62
     0
 48
50.0
370
    -2
100
AcDbLine
 10
7471.285990614302
 20
6373.516207141558
 30
0.0
 11
7471.285990614301
 21
5926.909907928958
 31
0.0
  0
INSERT
  5
22E0F
330
22AC6
100
AcDbEntity
  8
寸法
 62
     0
 48
50.0
370
    -2
100
AcDbBlockReference
  2
_DOTSMALL
 10
7471.285990614302
 20
6853.516207141547
 30
0.0
 41
100.0
 42
100.0
 43
100.0
 50
90.0
  0
INSERT
  5
22E10
330
22AC6
100
AcDbEntity
  8
寸法
 62
     0
 48
50.0
370
    -2
100
AcDbBlockReference
  2
_DOTSMALL
 10
7471.285990614302
 20
6373.516207141558
 30
0.0
 41
100.0
 42
100.0
 43
100.0
 50
270.0
  0
MTEXT
  5
22E11
330
22AC6
100
AcDbEntity
  8
寸法
 62
     7
 48
50.0
100
AcDbMText
 10
7371.285990614301
 20
6080.957152023448
 30
0.0
 40
120.0
 41
0.0
 71
     5
 72
     1
  1
\A1;480
  7
STYLE1
 11
0.0000000000000001
 21
1.0
 31
0.0
 73
     1
 44
1.0
1001
ACAD
1000
MTEXTBEGIN
1070
    73
1070
     1
1070
    44
1040
1.0
1070
    74
1070
     0
1000
MTEXTEND
  0
POINT
  5
22E12
330
22AC6
100
AcDbEntity
  8
DEFPOINTS
 62
     0
 48
50.0
100
AcDbPoint
 10
7562.765475140901
 20
6373.516207141558
 30
0.0
  0
POINT
  5
22E13
330
22AC6
100
AcDbEntity
  8
DEFPOINTS
 62
     0
 48
50.0
100
AcDbPoint
 10
7763.600000000008
 20
6853.516207141547
 30
0.0
  0
POINT
  5
22E14
330
22AC6
100
AcDbEntity
  8
DEFPOINTS
 62
     0
 48
50.0
100
AcDbPoint
 10
7471.285990614302
 20
6853.516207141547
 30
0.0
  0
ENDBLK
  5
22AD2
330
22AC6
100
AcDbEntity
  8
0
 48
50.0
100
AcDbBlockEnd
  0
BLOCK
  5
22ADE
330
22AD3
100
AcDbEntity
  8
0
 48
50.0
100
AcDbBlockBegin
  2
*D31
 70
     1
 10
0.0
 20
0.0
 30
0.0
  3
*D31
  1

  0
LINE
  5
22E92
330
22AD3
100
AcDbEntity
  8
寸法
 62
     0
 48
50.0
370
    -2
100
AcDbLine
 10
7041.600000000008
 20
6571.51620714155
 30
0.0
 11
6305.665006330073
 21
6571.51620714155
 31
0.0
  0
LINE
  5
22E93
330
22AD3
100
AcDbEntity
  8
寸法
 62
     0
 48
50.0
370
    -2
100
AcDbLine
 10
6968.600000000001
 20
6373.516207141547
 30
0.0
 11
6305.665006330073
 21
6373.516207141547
 31
0.0
  0
LINE
  5
22E94
330
22AD3
100
AcDbEntity
  8
寸法
 62
     0
 48
50.0
370
    -2
100
AcDbLine
 10
6365.665006330073
 20
6571.51620714155
 30
0.0
 11
6365.665006330073
 21
6373.516207141547
 31
0.0
  0
LINE
  5
22E95
330
22AD3
100
AcDbEntity
  8
寸法
 62
     0
 48
50.0
370
    -2
100
AcDbLine
 10
6365.665006330073
 20
6373.516207141547
 30
0.0
 11
6365.665006330072
 21
5901.775598469297
 31
0.0
  0
INSERT
  5
22E96
330
22AD3
100
AcDbEntity
  8
寸法
 62
     0
 48
50.0
370
    -2
100
AcDbBlockReference
  2
_DOTSMALL
 10
6365.665006330073
 20
6571.51620714155
 30
0.0
 41
100.0
 42
100.0
 43
100.0
 50
90.0
  0
INSERT
  5
22E97
330
22AD3
100
AcDbEntity
  8
寸法
 62
     0
 48
50.0
370
    -2
100
AcDbBlockReference
  2
_DOTSMALL
 10
6365.665006330073
 20
6373.516207141547
 30
0.0
 41
100.0
 42
100.0
 43
100.0
 50
270.0
  0
MTEXT
  5
22E98
330
22AD3
100
AcDbEntity
  8
寸法
 62
     7
 48
50.0
100
AcDbMText
 10
6265.665006330071
 20
6037.985258298955
 30
0.0
 40
120.0
 41
0.0
 71
     5
 72
     1
  1
\A1;198
  7
STYLE1
 11
0.0000000000000001
 21
1.0
 31
0.0
 73
     1
 44
1.0
1001
ACAD
1000
MTEXTBEGIN
1070
    73
1070
     1
1070
    44
1040
1.0
1070
    74
1070
     0
1000
MTEXTEND
  0
POINT
  5
22E99
330
22AD3
100
AcDbEntity
  8
DEFPOINTS
 62
     0
 48
50.0
100
AcDbPoint
 10
7061.600000000009
 20
6571.51620714155
 30
0.0
  0
POINT
  5
22E9A
330
22AD3
100
AcDbEntity
  8
DEFPOINTS
 62
     0
 48
50.0
100
AcDbPoint
 10
6988.600000000001
 20
6373.516207141547
 30
0.0
  0
POINT
  5
22E9B
330
22AD3
100
AcDbEntity
  8
DEFPOINTS
 62
     0
 48
50.0
100
AcDbPoint
 10
6365.665006330073
 20
6373.516207141547
 30
0.0
  0
ENDBLK
  5
22ADF
330
22AD3
100
AcDbEntity
  8
0
 48
50.0
100
AcDbBlockEnd
  0
BLOCK
  5
22AEA
330
22AE0
100
AcDbEntity
  8
0
 48
50.0
100
AcDbBlockBegin
  2
*D32
 70
     1
 10
0.0
 20
0.0
 30
0.0
  3
*D32
  1

  0
LINE
  5
22DF8
330
22AE0
100
AcDbEntity
  8
寸法
 62
     0
 48
50.0
370
    -2
100
AcDbLine
 10
6968.600000000001
 20
7333.516207141546
 30
0.0
 11
6053.721909610675
 21
7333.516207141548
 31
0.0
  0
LINE
  5
22DF9
330
22AE0
100
AcDbEntity
  8
寸法
 62
     0
 48
50.0
370
    -2
100
AcDbLine
 10
6968.600000000001
 20
6373.516207141547
 30
0.0
 11
6053.721909610675
 21
6373.516207141548
 31
0.0
  0
LINE
  5
22DFA
330
22AE0
100
AcDbEntity
  8
寸法
 62
     0
 48
50.0
370
    -2
100
AcDbLine
 10
6113.721909610674
 20
7333.516207141548
 30
0.0
 11
6113.721909610674
 21
6373.516207141548
 31
0.0
  0
INSERT
  5
22DFB
330
22AE0
100
AcDbEntity
  8
寸法
 62
     0
 48
50.0
370
    -2
100
AcDbBlockReference
  2
_DOTSMALL
 10
6113.721909610674
 20
7333.516207141548
 30
0.0
 41
100.0
 42
100.0
 43
100.0
 50
90.0
  0
INSERT
  5
22DFC
330
22AE0
100
AcDbEntity
  8
寸法
 62
     0
 48
50.0
370
    -2
100
AcDbBlockReference
  2
_DOTSMALL
 10
6113.721909610674
 20
6373.516207141548
 30
0.0
 41
100.0
 42
100.0
 43
100.0
 50
270.0
  0
MTEXT
  5
22DFD
330
22AE0
100
AcDbEntity
  8
寸法
 62
     7
 48
50.0
100
AcDbMText
 10
6013.721909610673
 20
6891.016207141547
 30
0.0
 40
120.0
 41
0.0
 71
     5
 72
     1
  1
\A1;960
  7
STYLE1
 11
0.0000000000000001
 21
1.0
 31
0.0
 73
     1
 44
1.0
1001
ACAD
1000
MTEXTBEGIN
1070
    73
1070
     1
1070
    44
1040
1.0
1070
    74
1070
     0
1000
MTEXTEND
  0
POINT
  5
22DFE
330
22AE0
100
AcDbEntity
  8
DEFPOINTS
 62
     0
 48
50.0
100
AcDbPoint
 10
6988.600000000001
 20
7333.516207141546
 30
0.0
  0
POINT
  5
22DFF
330
22AE0
100
AcDbEntity
  8
DEFPOINTS
 62
     0
 48
50.0
100
AcDbPoint
 10
6988.600000000001
 20
6373.516207141547
 30
0.0
  0
POINT
  5
22E00
330
22AE0
100
AcDbEntity
  8
DEFPOINTS
 62
     0
 48
50.0
100
AcDbPoint
 10
6113.721909610674
 20
6373.516207141548
 30
0.0
  0
ENDBLK
  5
22AEB
330
22AE0
100
AcDbEntity
  8
0
 48
50.0
100
AcDbBlockEnd
  0
BLOCK
  5
22AF6
330
22AEC
100
AcDbEntity
  8
0
 48
50.0
100
AcDbBlockBegin
  2
*D33
 70
     1
 10
0.0
 20
0.0
 30
0.0
  3
*D33
  1

  0
LINE
  5
22E65
330
22AEC
100
AcDbEntity
  8
寸法
 62
     0
 48
50.0
370
    -2
100
AcDbLine
 10
6968.600000000001
 20
6373.516207141525
 30
0.0
 11
6690.934862128592
 21
6373.516207141525
 31
0.0
  0
LINE
  5
22E66
330
22AEC
100
AcDbEntity
  8
寸法
 62
     0
 48
50.0
370
    -2
100
AcDbLine
 10
7324.325326928804
 20
5653.516207141525
 30
0.0
 11
6690.934862128592
 21
5653.516207141525
 31
0.0
  0
LINE
  5
22E67
330
22AEC
100
AcDbEntity
  8
寸法
 62
     0
 48
50.0
370
    -2
100
AcDbLine
 10
6750.934862128592
 20
6373.516207141525
 30
0.0
 11
6750.934862128591
 21
5653.516207141525
 31
0.0
  0
INSERT
  5
22E68
330
22AEC
100
AcDbEntity
  8
寸法
 62
     0
 48
50.0
370
    -2
100
AcDbBlockReference
  2
_DOTSMALL
 10
6750.934862128592
 20
6373.516207141525
 30
0.0
 41
100.0
 42
100.0
 43
100.0
 50
90.0
  0
INSERT
  5
22E69
330
22AEC
100
AcDbEntity
  8
寸法
 62
     0
 48
50.0
370
    -2
100
AcDbBlockReference
  2
_DOTSMALL
 10
6750.934862128591
 20
5653.516207141525
 30
0.0
 41
100.0
 42
100.0
 43
100.0
 50
270.0
  0
MTEXT
  5
22E6A
330
22AEC
100
AcDbEntity
  8
寸法
 62
     7
 48
50.0
100
AcDbMText
 10
6650.923051104967
 20
6013.516207141528
 30
0.0
 40
120.0
 41
0.0
 71
     5
 72
     1
  1
\A1;扉の出720
  7
STYLE1
 11
0.0000000000000001
 21
1.0
 31
0.0
 73
     1
 44
1.0
1001
ACAD
1000
MTEXTBEGIN
1070
    73
1070
     1
1070
    44
1040
1.0
1070
    74
1070
     0
1000
MTEXTEND
  0
POINT
  5
22E6B
330
22AEC
100
AcDbEntity
  8
DEFPOINTS
 62
     0
 48
50.0
100
AcDbPoint
 10
6988.600000000001
 20
6373.516207141525
 30
0.0
  0
POINT
  5
22E6C
330
22AEC
100
AcDbEntity
  8
DEFPOINTS
 62
     0
 48
50.0
100
AcDbPoint
 10
7344.325326928805
 20
5653.516207141525
 30
0.0
  0
POINT
  5
22E6D
330
22AEC
100
AcDbEntity
  8
DEFPOINTS
 62
     0
 48
50.0
100
AcDbPoint
 10
6750.934862128591
 20
5653.516207141525
 30
0.0
  0
ENDBLK
  5
22AF7
330
22AEC
100
AcDbEntity
  8
0
 48
50.0
100
AcDbBlockEnd
  0
BLOCK
  5
22B26
330
22B1B
100
AcDbEntity
  8
0
 48
50.0
100
AcDbBlockBegin
  2
*D34
 70
     1
 10
0.0
 20
0.0
 30
0.0
  3
*D34
  1

  0
LINE
  5
22DE5
330
22B1B
100
AcDbEntity
  8
寸法
 62
     0
 48
50.0
370
    -2
100
AcDbLine
 10
6968.600000000001
 20
7333.516207141546
 30
0.0
 11
6305.665006330072
 21
7333.516207141546
 31
0.0
  0
LINE
  5
22DE6
330
22B1B
100
AcDbEntity
  8
寸法
 62
     0
 48
50.0
370
    -2
100
AcDbLine
 10
7041.600000000001
 20
7210.516207141548
 30
0.0
 11
6305.665006330072
 21
7210.516207141548
 31
0.0
  0
LINE
  5
22DE7
330
22B1B
100
AcDbEntity
  8
寸法
 62
     0
 48
50.0
370
    -2
100
AcDbLine
 10
6365.665006330072
 20
7210.516207141548
 30
0.0
 11
6365.665006330072
 21
7333.516207141546
 31
0.0
  0
LINE
  5
22DE8
330
22B1B
100
AcDbEntity
  8
寸法
 62
     0
 48
50.0
370
    -2
100
AcDbLine
 10
6365.665006330072
 20
7333.516207141546
 30
0.0
 11
6365.665006330072
 21
7745.108090233585
 31
0.0
  0
INSERT
  5
22DE9
330
22B1B
100
AcDbEntity
  8
寸法
 62
     0
 48
50.0
370
    -2
100
AcDbBlockReference
  2
_DOTSMALL
 10
6365.665006330072
 20
7210.516207141548
 30
0.0
 41
100.0
 42
100.0
 43
100.0
 50
270.0
  0
INSERT
  5
22DEA
330
22B1B
100
AcDbEntity
  8
寸法
 62
     0
 48
50.0
370
    -2
100
AcDbBlockReference
  2
_DOTSMALL
 10
6365.665006330072
 20
7333.516207141546
 30
0.0
 41
100.0
 42
100.0
 43
100.0
 50
90.0
  0
MTEXT
  5
22DEB
330
22B1B
100
AcDbEntity
  8
寸法
 62
     7
 48
50.0
100
AcDbMText
 10
6265.653195306449
 20
7606.622808859348
 30
0.0
 40
120.0
 41
0.0
 71
     5
 72
     1
  1
\A1;123
  7
STYLE1
 11
0.0000000000000001
 21
1.0
 31
0.0
 73
     1
 44
1.0
1001
ACAD
1000
MTEXTBEGIN
1070
    73
1070
     1
1070
    44
1040
1.0
1070
    74
1070
     0
1000
MTEXTEND
  0
POINT
  5
22DEC
330
22B1B
100
AcDbEntity
  8
DEFPOINTS
 62
     0
 48
50.0
100
AcDbPoint
 10
6988.600000000001
 20
7333.516207141546
 30
0.0
  0
POINT
  5
22DED
330
22B1B
100
AcDbEntity
  8
DEFPOINTS
 62
     0
 48
50.0
100
AcDbPoint
 10
7061.6
 20
7210.516207141548
 30
0.0
  0
POINT
  5
22DEE
330
22B1B
100
AcDbEntity
  8
DEFPOINTS
 62
     0
 48
50.0
100
AcDbPoint
 10
6365.665006330072
 20
7210.516207141548
 30
0.0
  0
ENDBLK
  5
22B27
330
22B1B
100
AcDbEntity
  8
0
 48
50.0
100
AcDbBlockEnd
  0
BLOCK
  5
22B32
330
22B28
100
AcDbEntity
  8
0
 48
50.0
100
AcDbBlockBegin
  2
*D35
 70
     1
 10
0.0
 20
0.0
 30
0.0
  3
*D35
  1

  0
LINE
  5
22E89
330
22B28
100
AcDbEntity
  8
寸法
 62
     0
 48
50.0
370
    -2
100
AcDbLine
 10
7041.600000000001
 20
7210.516207141548
 30
0.0
 11
6305.665006330073
 21
7210.516207141548
 31
0.0
  0
LINE
  5
22E8A
330
22B28
100
AcDbEntity
  8
寸法
 62
     0
 48
50.0
370
    -2
100
AcDbLine
 10
7041.600000000008
 20
6571.51620714155
 30
0.0
 11
6305.665006330073
 21
6571.51620714155
 31
0.0
  0
LINE
  5
22E8B
330
22B28
100
AcDbEntity
  8
寸法
 62
     0
 48
50.0
370
    -2
100
AcDbLine
 10
6365.665006330073
 20
7210.516207141548
 30
0.0
 11
6365.665006330073
 21
6571.51620714155
 31
0.0
  0
INSERT
  5
22E8C
330
22B28
100
AcDbEntity
  8
寸法
 62
     0
 48
50.0
370
    -2
100
AcDbBlockReference
  2
_DOTSMALL
 10
6365.665006330073
 20
7210.516207141548
 30
0.0
 41
100.0
 42
100.0
 43
100.0
 50
90.0
  0
INSERT
  5
22E8D
330
22B28
100
AcDbEntity
  8
寸法
 62
     0
 48
50.0
370
    -2
100
AcDbBlockReference
  2
_DOTSMALL
 10
6365.665006330073
 20
6571.51620714155
 30
0.0
 41
100.0
 42
100.0
 43
100.0
 50
270.0
  0
MTEXT
  5
22E8E
330
22B28
100
AcDbEntity
  8
寸法
 62
     7
 48
50.0
100
AcDbMText
 10
6265.665006330071
 20
6891.016207141547
 30
0.0
 40
120.0
 41
0.0
 71
     5
 72
     1
  1
\A1;639
  7
STYLE1
 11
0.0000000000000001
 21
1.0
 31
0.0
 73
     1
 44
1.0
1001
ACAD
1000
MTEXTBEGIN
1070
    73
1070
     1
1070
    44
1040
1.0
1070
    74
1070
     0
1000
MTEXTEND
  0
POINT
  5
22E8F
330
22B28
100
AcDbEntity
  8
DEFPOINTS
 62
     0
 48
50.0
100
AcDbPoint
 10
7061.6
 20
7210.516207141548
 30
0.0
  0
POINT
  5
22E90
330
22B28
100
AcDbEntity
  8
DEFPOINTS
 62
     0
 48
50.0
100
AcDbPoint
 10
7061.600000000009
 20
6571.51620714155
 30
0.0
  0
POINT
  5
22E91
330
22B28
100
AcDbEntity
  8
DEFPOINTS
 62
     0
 48
50.0
100
AcDbPoint
 10
6365.665006330073
 20
6571.51620714155
 30
0.0
  0
ENDBLK
  5
22B33
330
22B28
100
AcDbEntity
  8
0
 48
50.0
100
AcDbBlockEnd
  0
BLOCK
  5
22B3F
330
22B34
100
AcDbEntity
  8
0
 48
50.0
100
AcDbBlockBegin
  2
*D36
 70
     1
 10
0.0
 20
0.0
 30
0.0
  3
*D36
  1

  0
LINE
  5
22DD2
330
22B34
100
AcDbEntity
  8
寸法
 62
     0
 48
50.0
370
    -2
100
AcDbLine
 10
7111.6
 20
7280.516207141547
 30
0.0
 11
7111.6
 21
8119.782665235458
 31
0.0
  0
LINE
  5
22DD3
330
22B34
100
AcDbEntity
  8
寸法
 62
     0
 48
50.0
370
    -2
100
AcDbLine
 10
6988.600000000001
 20
7353.516207141547
 30
0.0
 11
6988.600000000001
 21
8119.782665235458
 31
0.0
  0
LINE
  5
22DD4
330
22B34
100
AcDbEntity
  8
寸法
 62
     0
 48
50.0
370
    -2
100
AcDbLine
 10
7111.6
 20
8059.782665235458
 30
0.0
 11
6988.600000000001
 21
8059.782665235458
 31
0.0
  0
LINE
  5
22DD5
330
22B34
100
AcDbEntity
  8
寸法
 62
     0
 48
50.0
370
    -2
100
AcDbLine
 10
6988.600000000001
 20
8059.782665235458
 30
0.0
 11
6577.008116907963
 21
8059.782665235458
 31
0.0
  0
INSERT
  5
22DD6
330
22B34
100
AcDbEntity
  8
寸法
 62
     0
 48
50.0
370
    -2
100
AcDbBlockReference
  2
_DOTSMALL
 10
7111.6
 20
8059.782665235458
 30
0.0
 41
100.0
 42
100.0
 43
100.0
  0
INSERT
  5
22DD7
330
22B34
100
AcDbEntity
  8
寸法
 62
     0
 48
50.0
370
    -2
100
AcDbBlockReference
  2
_DOTSMALL
 10
6988.600000000001
 20
8059.782665235458
 30
0.0
 41
100.0
 42
100.0
 43
100.0
 50
180.0
  0
MTEXT
  5
22DD8
330
22B34
100
AcDbEntity
  8
寸法
 62
     7
 48
50.0
100
AcDbMText
 10
6715.493398282203
 20
8159.794476259079
 30
0.0
 40
120.0
 41
0.0
 71
     5
 72
     1
  1
\A1;123
  7
STYLE1
 73
     1
 44
1.0
1001
ACAD
1000
MTEXTBEGIN
1070
    73
1070
     1
1070
    44
1040
1.0
1070
    74
1070
     0
1000
MTEXTEND
  0
POINT
  5
22DD9
330
22B34
100
AcDbEntity
  8
DEFPOINTS
 62
     0
 48
50.0
100
AcDbPoint
 10
7111.6
 20
7260.516207141548
 30
0.0
  0
POINT
  5
22DDA
330
22B34
100
AcDbEntity
  8
DEFPOINTS
 62
     0
 48
50.0
100
AcDbPoint
 10
6988.600000000001
 20
7333.516207141546
 30
0.0
  0
POINT
  5
22DDB
330
22B34
100
AcDbEntity
  8
DEFPOINTS
 62
     0
 48
50.0
100
AcDbPoint
 10
6988.600000000001
 20
8059.782665235458
 30
0.0
  0
ENDBLK
  5
22B40
330
22B34
100
AcDbEntity
  8
0
 48
50.0
100
AcDbBlockEnd
  0
BLOCK
  5
22B4C
330
22B41
100
AcDbEntity
  8
0
 48
50.0
100
AcDbBlockBegin
  2
*D37
 70
     1
 10
0.0
 20
0.0
 30
0.0
  3
*D37
  1

  0
LINE
  5
22DC8
330
22B41
100
AcDbEntity
  8
寸法
 62
     0
 48
50.0
370
    -2
100
AcDbLine
 10
7743.600000000007
 20
6853.516207141547
 30
0.0
 11
7411.285990614302
 21
6853.516207141547
 31
0.0
  0
LINE
  5
22DC9
330
22B41
100
AcDbEntity
  8
寸法
 62
     0
 48
50.0
370
    -2
100
AcDbLine
 10
7542.765475140901
 20
7333.516207141546
 30
0.0
 11
7411.285990614302
 21
7333.516207141546
 31
0.0
  0
LINE
  5
22DCA
330
22B41
100
AcDbEntity
  8
寸法
 62
     0
 48
50.0
370
    -2
100
AcDbLine
 10
7471.285990614301
 20
6853.516207141547
 30
0.0
 11
7471.285990614301
 21
7333.516207141546
 31
0.0
  0
LINE
  5
22DCB
330
22B41
100
AcDbEntity
  8
寸法
 62
     0
 48
50.0
370
    -2
100
AcDbLine
 10
7471.285990614301
 20
7333.516207141546
 30
0.0
 11
7471.285990614301
 21
7780.122506354146
 31
0.0
  0
INSERT
  5
22DCC
330
22B41
100
AcDbEntity
  8
寸法
 62
     0
 48
50.0
370
    -2
100
AcDbBlockReference
  2
_DOTSMALL
 10
7471.285990614301
 20
6853.516207141547
 30
0.0
 41
100.0
 42
100.0
 43
100.0
 50
270.0
  0
INSERT
  5
22DCD
330
22B41
100
AcDbEntity
  8
寸法
 62
     0
 48
50.0
370
    -2
100
AcDbBlockReference
  2
_DOTSMALL
 10
7471.285990614301
 20
7333.516207141546
 30
0.0
 41
100.0
 42
100.0
 43
100.0
 50
90.0
  0
MTEXT
  5
22DCE
330
22B41
100
AcDbEntity
  8
寸法
 62
     7
 48
50.0
100
AcDbMText
 10
7371.285990614301
 20
7626.07526225966
 30
0.0
 40
120.0
 41
0.0
 71
     5
 72
     1
  1
\A1;480
  7
STYLE1
 11
0.0000000000000001
 21
1.0
 31
0.0
 73
     1
 44
1.0
1001
ACAD
1000
MTEXTBEGIN
1070
    73
1070
     1
1070
    44
1040
1.0
1070
    74
1070
     0
1000
MTEXTEND
  0
POINT
  5
22DCF
330
22B41
100
AcDbEntity
  8
DEFPOINTS
 62
     0
 48
50.0
100
AcDbPoint
 10
7763.600000000008
 20
6853.516207141547
 30
0.0
  0
POINT
  5
22DD0
330
22B41
100
AcDbEntity
  8
DEFPOINTS
 62
     0
 48
50.0
100
AcDbPoint
 10
7562.765475140901
 20
7333.516207141546
 30
0.0
  0
POINT
  5
22DD1
330
22B41
100
AcDbEntity
  8
DEFPOINTS
 62
     0
 48
50.0
100
AcDbPoint
 10
7471.285990614301
 20
7333.516207141546
 30
0.0
  0
ENDBLK
  5
22B4D
330
22B41
100
AcDbEntity
  8
0
 48
50.0
100
AcDbBlockEnd
  0
BLOCK
  5
22B58
330
22B4E
100
AcDbEntity
  8
0
 48
50.0
100
AcDbBlockBegin
  2
*D38
 70
     1
 10
0.0
 20
0.0
 30
0.0
  3
*D38
  1

  0
LINE
  5
22DBF
330
22B4E
100
AcDbEntity
  8
寸法
 62
     0
 48
50.0
370
    -2
100
AcDbLine
 10
7813.600000000008
 20
6923.516207141547
 30
0.0
 11
7813.600000000008
 21
7876.125023811795
 31
0.0
  0
LINE
  5
22DC0
330
22B4E
100
AcDbEntity
  8
寸法
 62
     0
 48
50.0
370
    -2
100
AcDbLine
 10
6988.600000000001
 20
7353.516207141547
 30
0.0
 11
6988.600000000001
 21
7876.125023811795
 31
0.0
  0
LINE
  5
22DC1
330
22B4E
100
AcDbEntity
  8
寸法
 62
     0
 48
50.0
370
    -2
100
AcDbLine
 10
7813.600000000008
 20
7816.125023811796
 30
0.0
 11
6988.600000000001
 21
7816.125023811796
 31
0.0
  0
INSERT
  5
22DC2
330
22B4E
100
AcDbEntity
  8
寸法
 62
     0
 48
50.0
370
    -2
100
AcDbBlockReference
  2
_DOTSMALL
 10
7813.600000000008
 20
7816.125023811796
 30
0.0
 41
100.0
 42
100.0
 43
100.0
  0
INSERT
  5
22DC3
330
22B4E
100
AcDbEntity
  8
寸法
 62
     0
 48
50.0
370
    -2
100
AcDbBlockReference
  2
_DOTSMALL
 10
6988.600000000001
 20
7816.125023811796
 30
0.0
 41
100.0
 42
100.0
 43
100.0
 50
180.0
  0
MTEXT
  5
22DC4
330
22B4E
100
AcDbEntity
  8
寸法
 62
     7
 48
50.0
100
AcDbMText
 10
7401.100000000004
 20
7916.136834835417
 30
0.0
 40
120.0
 41
0.0
 71
     5
 72
     1
  1
\A1;825
  7
STYLE1
 73
     1
 44
1.0
1001
ACAD
1000
MTEXTBEGIN
1070
    73
1070
     1
1070
    44
1040
1.0
1070
    74
1070
     0
1000
MTEXTEND
  0
POINT
  5
22DC5
330
22B4E
100
AcDbEntity
  8
DEFPOINTS
 62
     0
 48
50.0
100
AcDbPoint
 10
7813.600000000008
 20
6903.516207141547
 30
0.0
  0
POINT
  5
22DC6
330
22B4E
100
AcDbEntity
  8
DEFPOINTS
 62
     0
 48
50.0
100
AcDbPoint
 10
6988.600000000001
 20
7333.516207141546
 30
0.0
  0
POINT
  5
22DC7
330
22B4E
100
AcDbEntity
  8
DEFPOINTS
 62
     0
 48
50.0
100
AcDbPoint
 10
6988.600000000001
 20
7816.125023811796
 30
0.0
  0
ENDBLK
  5
22B59
330
22B4E
100
AcDbEntity
  8
0
 48
50.0
100
AcDbBlockEnd
  0
BLOCK
  5
22B65
330
22B5A
100
AcDbEntity
  8
0
 48
50.0
100
AcDbBlockBegin
  2
*D39
 70
     1
 10
0.0
 20
0.0
 30
0.0
  3
*D39
  1

  0
LINE
  5
22ED8
330
22B5A
100
AcDbEntity
  8
寸法
 62
     0
 48
50.0
370
    -2
100
AcDbLine
 10
9003.133876484609
 20
6653.516207141568
 30
0.0
 11
8801.821389011625
 21
6653.516207141568
 31
0.0
  0
LINE
  5
22ED9
330
22B5A
100
AcDbEntity
  8
寸法
 62
     0
 48
50.0
370
    -2
100
AcDbLine
 10
8851.419106515956
 20
6373.516207141558
 30
0.0
 11
8921.821389011624
 21
6373.516207141558
 31
0.0
  0
LINE
  5
22EDA
330
22B5A
100
AcDbEntity
  8
寸法
 62
     0
 48
50.0
370
    -2
100
AcDbLine
 10
8861.821389011623
 20
6653.516207141568
 30
0.0
 11
8861.821389011623
 21
6373.516207141558
 31
0.0
  0
LINE
  5
22EDB
330
22B5A
100
AcDbEntity
  8
寸法
 62
     0
 48
50.0
370
    -2
100
AcDbLine
 10
8861.821389011623
 20
6373.516207141558
 30
0.0
 11
8861.821389011623
 21
5936.98175832266
 31
0.0
  0
INSERT
  5
22EDC
330
22B5A
100
AcDbEntity
  8
寸法
 62
     0
 48
50.0
370
    -2
100
AcDbBlockReference
  2
_DOTSMALL
 10
8861.821389011623
 20
6653.516207141568
 30
0.0
 41
100.0
 42
100.0
 43
100.0
 50
90.0
  0
INSERT
  5
22EDD
330
22B5A
100
AcDbEntity
  8
寸法
 62
     0
 48
50.0
370
    -2
100
AcDbBlockReference
  2
_DOTSMALL
 10
8861.821389011623
 20
6373.516207141558
 30
0.0
 41
100.0
 42
100.0
 43
100.0
 50
270.0
  0
MTEXT
  5
22EDE
330
22B5A
100
AcDbEntity
  8
寸法
 62
     7
 48
50.0
100
AcDbMText
 10
8761.809577988001
 20
6086.552624464394
 30
0.0
 40
120.0
 41
0.0
 71
     5
 72
     1
  1
\A1;280
  7
STYLE1
 11
0.0000000000000001
 21
1.0
 31
0.0
 73
     1
 44
1.0
1001
ACAD
1000
MTEXTBEGIN
1070
    73
1070
     1
1070
    44
1040
1.0
1070
    74
1070
     0
1000
MTEXTEND
  0
POINT
  5
22EDF
330
22B5A
100
AcDbEntity
  8
DEFPOINTS
 62
     0
 48
50.0
100
AcDbPoint
 10
9023.13387648461
 20
6653.516207141568
 30
0.0
  0
POINT
  5
22EE0
330
22B5A
100
AcDbEntity
  8
DEFPOINTS
 62
     0
 48
50.0
100
AcDbPoint
 10
8831.419106515957
 20
6373.516207141558
 30
0.0
  0
POINT
  5
22EE1
330
22B5A
100
AcDbEntity
  8
DEFPOINTS
 62
     0
 48
50.0
100
AcDbPoint
 10
8861.821389011623
 20
6373.516207141558
 30
0.0
  0
ENDBLK
  5
22B66
330
22B5A
100
AcDbEntity
  8
0
 48
50.0
100
AcDbBlockEnd
  0
BLOCK
  5
22B7F
330
22B74
100
AcDbEntity
  8
0
 48
50.0
100
AcDbBlockBegin
  2
*D40
 70
     1
 10
0.0
 20
0.0
 30
0.0
  3
*D40
  1

  0
LINE
  5
22DAB
330
22B74
100
AcDbEntity
  8
寸法
 62
     0
 48
50.0
370
    -2
100
AcDbLine
 10
8875.856345704681
 20
7333.516207141537
 30
0.0
 11
8921.821389011626
 21
7333.516207141537
 31
0.0
  0
LINE
  5
22DAC
330
22B74
100
AcDbEntity
  8
寸法
 62
     0
 48
50.0
370
    -2
100
AcDbLine
 10
8815.601663693048
 20
7133.51620714145
 30
0.0
 11
8921.821389011626
 21
7133.51620714145
 31
0.0
  0
LINE
  5
22DAD
330
22B74
100
AcDbEntity
  8
寸法
 62
     0
 48
50.0
370
    -2
100
AcDbLine
 10
8861.821389011627
 20
7133.51620714145
 30
0.0
 11
8861.821389011627
 21
7333.516207141537
 31
0.0
  0
LINE
  5
22DAE
330
22B74
100
AcDbEntity
  8
寸法
 62
     0
 48
50.0
370
    -2
100
AcDbLine
 10
8861.821389011627
 20
7333.516207141537
 30
0.0
 11
8861.821389011627
 21
7770.050655960435
 31
0.0
  0
INSERT
  5
22DAF
330
22B74
100
AcDbEntity
  8
寸法
 62
     0
 48
50.0
370
    -2
100
AcDbBlockReference
  2
_DOTSMALL
 10
8861.821389011627
 20
7133.51620714145
 30
0.0
 41
100.0
 42
100.0
 43
100.0
 50
270.0
  0
INSERT
  5
22DB0
330
22B74
100
AcDbEntity
  8
寸法
 62
     0
 48
50.0
370
    -2
100
AcDbBlockReference
  2
_DOTSMALL
 10
8861.821389011627
 20
7333.516207141537
 30
0.0
 41
100.0
 42
100.0
 43
100.0
 50
90.0
  0
MTEXT
  5
22DB1
330
22B74
100
AcDbEntity
  8
寸法
 62
     7
 48
50.0
100
AcDbMText
 10
8761.809577988001
 20
7620.479789818702
 30
0.0
 40
120.0
 41
0.0
 71
     5
 72
     1
  1
\A1;200
  7
STYLE1
 11
0.0000000000000001
 21
1.0
 31
0.0
 73
     1
 44
1.0
1001
ACAD
1000
MTEXTBEGIN
1070
    73
1070
     1
1070
    44
1040
1.0
1070
    74
1070
     0
1000
MTEXTEND
  0
POINT
  5
22DB2
330
22B74
100
AcDbEntity
  8
DEFPOINTS
 62
     0
 48
50.0
100
AcDbPoint
 10
8855.85634570468
 20
7333.516207141537
 30
0.0
  0
POINT
  5
22DB3
330
22B74
100
AcDbEntity
  8
DEFPOINTS
 62
     0
 48
50.0
100
AcDbPoint
 10
8795.601663693046
 20
7133.51620714145
 30
0.0
  0
POINT
  5
22DB4
330
22B74
100
AcDbEntity
  8
DEFPOINTS
 62
     0
 48
50.0
100
AcDbPoint
 10
8861.821389011627
 20
7133.51620714145
 30
0.0
  0
ENDBLK
  5
22B80
330
22B74
100
AcDbEntity
  8
0
 48
50.0
100
AcDbBlockEnd
  0
BLOCK
  5
22B8B
330
22B81
100
AcDbEntity
  8
0
 48
50.0
100
AcDbBlockBegin
  2
*D41
 70
     1
 10
0.0
 20
0.0
 30
0.0
  3
*D41
  1

  0
LINE
  5
22DA2
330
22B81
100
AcDbEntity
  8
寸法
 62
     0
 48
50.0
370
    -2
100
AcDbLine
 10
9458.6
 20
7353.516207141547
 30
0.0
 11
9458.6
 21
7876.125023811795
 31
0.0
  0
LINE
  5
22DA3
330
22B81
100
AcDbEntity
  8
寸法
 62
     0
 48
50.0
370
    -2
100
AcDbLine
 10
8633.600000000008
 20
6923.516207141547
 30
0.0
 11
8633.600000000008
 21
7876.125023811795
 31
0.0
  0
LINE
  5
22DA4
330
22B81
100
AcDbEntity
  8
寸法
 62
     0
 48
50.0
370
    -2
100
AcDbLine
 10
9458.6
 20
7816.125023811796
 30
0.0
 11
8633.600000000008
 21
7816.125023811796
 31
0.0
  0
INSERT
  5
22DA5
330
22B81
100
AcDbEntity
  8
寸法
 62
     0
 48
50.0
370
    -2
100
AcDbBlockReference
  2
_DOTSMALL
 10
9458.6
 20
7816.125023811796
 30
0.0
 41
100.0
 42
100.0
 43
100.0
  0
INSERT
  5
22DA6
330
22B81
100
AcDbEntity
  8
寸法
 62
     0
 48
50.0
370
    -2
100
AcDbBlockReference
  2
_DOTSMALL
 10
8633.600000000008
 20
7816.125023811796
 30
0.0
 41
100.0
 42
100.0
 43
100.0
 50
180.0
  0
MTEXT
  5
22DA7
330
22B81
100
AcDbEntity
  8
寸法
 62
     7
 48
50.0
100
AcDbMText
 10
9046.100000000004
 20
7916.136834835417
 30
0.0
 40
120.0
 41
0.0
 71
     5
 72
     1
  1
\A1;825
  7
STYLE1
 73
     1
 44
1.0
1001
ACAD
1000
MTEXTBEGIN
1070
    73
1070
     1
1070
    44
1040
1.0
1070
    74
1070
     0
1000
MTEXTEND
  0
POINT
  5
22DA8
330
22B81
100
AcDbEntity
  8
DEFPOINTS
 62
     0
 48
50.0
100
AcDbPoint
 10
9458.6
 20
7333.516207141546
 30
0.0
  0
POINT
  5
22DA9
330
22B81
100
AcDbEntity
  8
DEFPOINTS
 62
     0
 48
50.0
100
AcDbPoint
 10
8633.600000000008
 20
6903.516207141547
 30
0.0
  0
POINT
  5
22DAA
330
22B81
100
AcDbEntity
  8
DEFPOINTS
 62
     0
 48
50.0
100
AcDbPoint
 10
8633.600000000008
 20
7816.125023811796
 30
0.0
  0
ENDBLK
  5
22B8C
330
22B81
100
AcDbEntity
  8
0
 48
50.0
100
AcDbBlockEnd
  0
BLOCK
  5
22B98
330
22B8D
100
AcDbEntity
  8
0
 48
50.0
100
AcDbBlockBegin
  2
*D42
 70
     1
 10
0.0
 20
0.0
 30
0.0
  3
*D42
  1

  0
LINE
  5
22D98
330
22B8D
100
AcDbEntity
  8
寸法
 62
     0
 48
50.0
370
    -2
100
AcDbLine
 10
9458.6
 20
7353.516207141547
 30
0.0
 11
9458.6
 21
8119.782665235458
 31
0.0
  0
LINE
  5
22D99
330
22B8D
100
AcDbEntity
  8
寸法
 62
     0
 48
50.0
370
    -2
100
AcDbLine
 10
9335.600000000001
 20
7280.516207141547
 30
0.0
 11
9335.600000000001
 21
8119.782665235458
 31
0.0
  0
LINE
  5
22D9A
330
22B8D
100
AcDbEntity
  8
寸法
 62
     0
 48
50.0
370
    -2
100
AcDbLine
 10
9335.600000000001
 20
8059.782665235458
 30
0.0
 11
9458.6
 21
8059.782665235458
 31
0.0
  0
LINE
  5
22D9B
330
22B8D
100
AcDbEntity
  8
寸法
 62
     0
 48
50.0
370
    -2
100
AcDbLine
 10
9458.6
 20
8059.782665235458
 30
0.0
 11
9870.191883092036
 21
8059.782665235458
 31
0.0
  0
INSERT
  5
22D9C
330
22B8D
100
AcDbEntity
  8
寸法
 62
     0
 48
50.0
370
    -2
100
AcDbBlockReference
  2
_DOTSMALL
 10
9335.600000000001
 20
8059.782665235458
 30
0.0
 41
100.0
 42
100.0
 43
100.0
 50
180.0
  0
INSERT
  5
22D9D
330
22B8D
100
AcDbEntity
  8
寸法
 62
     0
 48
50.0
370
    -2
100
AcDbBlockReference
  2
_DOTSMALL
 10
9458.6
 20
8059.782665235458
 30
0.0
 41
100.0
 42
100.0
 43
100.0
  0
MTEXT
  5
22D9E
330
22B8D
100
AcDbEntity
  8
寸法
 62
     7
 48
50.0
100
AcDbMText
 10
9731.706601717799
 20
8159.794476259079
 30
0.0
 40
120.0
 41
0.0
 71
     5
 72
     1
  1
\A1;123
  7
STYLE1
 73
     1
 44
1.0
1001
ACAD
1000
MTEXTBEGIN
1070
    73
1070
     1
1070
    44
1040
1.0
1070
    74
1070
     0
1000
MTEXTEND
  0
POINT
  5
22D9F
330
22B8D
100
AcDbEntity
  8
DEFPOINTS
 62
     0
 48
50.0
100
AcDbPoint
 10
9458.6
 20
7333.516207141546
 30
0.0
  0
POINT
  5
22DA0
330
22B8D
100
AcDbEntity
  8
DEFPOINTS
 62
     0
 48
50.0
100
AcDbPoint
 10
9335.600000000001
 20
7260.516207141548
 30
0.0
  0
POINT
  5
22DA1
330
22B8D
100
AcDbEntity
  8
DEFPOINTS
 62
     0
 48
50.0
100
AcDbPoint
 10
9335.600000000001
 20
8059.782665235458
 30
0.0
  0
ENDBLK
  5
22B99
330
22B8D
100
AcDbEntity
  8
0
 48
50.0
100
AcDbBlockEnd
  0
BLOCK
  5
22BA5
330
22B9A
100
AcDbEntity
  8
0
 48
50.0
100
AcDbBlockBegin
  2
*D43
 70
     1
 10
0.0
 20
0.0
 30
0.0
  3
*D43
  1

  0
LINE
  5
23266
330
22B9A
100
AcDbEntity
  8
寸法
 62
     0
 48
50.0
370
    -2
100
AcDbLine
 10
9458.6
 20
6998.516207141559
 30
0.0
 11
9458.6
 21
7117.907875696765
 31
0.0
  0
LINE
  5
23267
330
22B9A
100
AcDbEntity
  8
寸法
 62
     0
 48
50.0
370
    -2
100
AcDbLine
 10
9338.600000000004
 20
6998.516207141559
 30
0.0
 11
9338.600000000004
 21
7117.907875696765
 31
0.0
  0
LINE
  5
23268
330
22B9A
100
AcDbEntity
  8
寸法
 62
     0
 48
50.0
370
    -2
100
AcDbLine
 10
9338.600000000004
 20
7057.907875696765
 30
0.0
 11
9458.6
 21
7057.907875696765
 31
0.0
  0
LINE
  5
23269
330
22B9A
100
AcDbEntity
  8
寸法
 62
     0
 48
50.0
370
    -2
100
AcDbLine
 10
9458.6
 20
7057.907875696765
 30
0.0
 11
9864.706299212599
 21
7057.907875696765
 31
0.0
  0
INSERT
  5
2326A
330
22B9A
100
AcDbEntity
  8
寸法
 62
     0
 48
50.0
370
    -2
100
AcDbBlockReference
  2
_DOTSMALL
 10
9338.600000000004
 20
7057.907875696765
 30
0.0
 41
100.0
 42
100.0
 43
100.0
 50
180.0
  0
INSERT
  5
2326B
330
22B9A
100
AcDbEntity
  8
寸法
 62
     0
 48
50.0
370
    -2
100
AcDbBlockReference
  2
_DOTSMALL
 10
9458.6
 20
7057.907875696765
 30
0.0
 41
100.0
 42
100.0
 43
100.0
  0
MTEXT
  5
2326C
330
22B9A
100
AcDbEntity
  8
寸法
 62
     7
 48
50.0
100
AcDbMText
 10
9728.659055118111
 20
7157.919686720386
 30
0.0
 40
120.0
 41
0.0
 71
     5
 72
     1
  1
\A1;120
  7
STYLE1
 73
     1
 44
1.0
1001
ACAD
1000
MTEXTBEGIN
1070
    73
1070
     1
1070
    44
1040
1.0
1070
    74
1070
     0
1000
MTEXTEND
  0
POINT
  5
2326D
330
22B9A
100
AcDbEntity
  8
DEFPOINTS
 62
     0
 48
50.0
100
AcDbPoint
 10
9458.6
 20
6978.516207141558
 30
0.0
  0
POINT
  5
2326E
330
22B9A
100
AcDbEntity
  8
DEFPOINTS
 62
     0
 48
50.0
100
AcDbPoint
 10
9338.600000000004
 20
6978.516207141558
 30
0.0
  0
POINT
  5
2326F
330
22B9A
100
AcDbEntity
  8
DEFPOINTS
 62
     0
 48
50.0
100
AcDbPoint
 10
9338.600000000004
 20
7057.907875696765
 30
0.0
  0
ENDBLK
  5
22BA6
330
22B9A
100
AcDbEntity
  8
0
 48
50.0
100
AcDbBlockEnd
  0
BLOCK
  5
231EE
330
231E4
100
AcDbEntity
  8
0
 48
50.0
100
AcDbBlockBegin
  2
*D50
 70
     1
 10
0.0
 20
0.0
 30
0.0
  3
*D50
  1

  0
LINE
  5
2322E
330
231E4
100
AcDbEntity
  8
寸法
 62
     0
 48
50.0
370
    -2
100
AcDbLine
 10
6330.829663035833
 20
901.0502538037162
 30
0.0
 11
6330.829663035833
 21
450.6206157985562
 31
0.0
  0
LINE
  5
2322F
330
231E4
100
AcDbEntity
  8
寸法
 62
     0
 48
50.0
370
    -2
100
AcDbLine
 10
6778.829663035833
 20
901.0502538037162
 30
0.0
 11
6778.829663035833
 21
450.6206157985562
 31
0.0
  0
LINE
  5
23230
330
231E4
100
AcDbEntity
  8
寸法
 62
     0
 48
50.0
370
    -2
100
AcDbLine
 10
6330.829663035833
 20
510.6206157985561
 30
0.0
 11
6778.829663035833
 21
510.6206157985561
 31
0.0
  0
INSERT
  5
23231
330
231E4
100
AcDbEntity
  8
寸法
 62
     0
 48
50.0
370
    -2
100
AcDbBlockReference
  2
_DOTSMALL
 10
6330.829663035833
 20
510.6206157985561
 30
0.0
 41
100.0
 42
100.0
 43
100.0
 50
180.0
  0
INSERT
  5
23232
330
231E4
100
AcDbEntity
  8
寸法
 62
     0
 48
50.0
370
    -2
100
AcDbBlockReference
  2
_DOTSMALL
 10
6778.829663035833
 20
510.6206157985561
 30
0.0
 41
100.0
 42
100.0
 43
100.0
  0
MTEXT
  5
23233
330
231E4
100
AcDbEntity
  8
寸法
 62
     7
 48
50.0
100
AcDbMText
 10
6534.73290435761
 20
610.6206157985561
 30
0.0
 40
120.0
 41
0.0
 71
     5
 72
     1
  1
\A1;300
  7
STYLE1
 73
     1
 44
1.0
1001
ACAD
1000
MTEXTBEGIN
1070
    73
1070
     1
1070
    44
1040
1.0
1070
    74
1070
     0
1000
MTEXTEND
  0
POINT
  5
23234
330
231E4
100
AcDbEntity
  8
DEFPOINTS
 62
     0
 48
50.0
100
AcDbPoint
 10
6330.829663035833
 20
921.0502538037163
 30
0.0
  0
POINT
  5
23235
330
231E4
100
AcDbEntity
  8
DEFPOINTS
 62
     0
 48
50.0
100
AcDbPoint
 10
6778.829663035833
 20
921.0502538037163
 30
0.0
  0
POINT
  5
23236
330
231E4
100
AcDbEntity
  8
DEFPOINTS
 62
     0
 48
50.0
100
AcDbPoint
 10
6778.829663035833
 20
510.6206157985561
 30
0.0
  0
ENDBLK
  5
231EF
330
231E4
100
AcDbEntity
  8
0
 48
50.0
100
AcDbBlockEnd
  0
BLOCK
  5
231FA
330
231F0
100
AcDbEntity
  8
0
 48
50.0
100
AcDbBlockBegin
  2
*D51
 70
     1
 10
0.0
 20
0.0
 30
0.0
  3
*D51
  1

  0
LINE
  5
23237
330
231F0
100
AcDbEntity
  8
寸法
 62
     0
 48
50.0
370
    -2
100
AcDbLine
 10
6438.829663035834
 20
1833.050253803716
 30
0.0
 11
5663.792424474094
 21
1833.050253803716
 31
0.0
  0
LINE
  5
23238
330
231F0
100
AcDbEntity
  8
寸法
 62
     0
 48
50.0
370
    -2
100
AcDbLine
 10
6230.829663035837
 20
1049.050253803716
 30
0.0
 11
5663.792424474094
 21
1049.050253803716
 31
0.0
  0
LINE
  5
23239
330
231F0
100
AcDbEntity
  8
寸法
 62
     0
 48
50.0
370
    -2
100
AcDbLine
 10
5723.792424474094
 20
1833.050253803716
 30
0.0
 11
5723.792424474094
 21
1049.050253803716
 31
0.0
  0
INSERT
  5
2323A
330
231F0
100
AcDbEntity
  8
寸法
 62
     0
 48
50.0
370
    -2
100
AcDbBlockReference
  2
_DOTSMALL
 10
5723.792424474094
 20
1833.050253803716
 30
0.0
 41
100.0
 42
100.0
 43
100.0
 50
90.0
  0
INSERT
  5
2323B
330
231F0
100
AcDbEntity
  8
寸法
 62
     0
 48
50.0
370
    -2
100
AcDbBlockReference
  2
_DOTSMALL
 10
5723.792424474094
 20
1049.050253803716
 30
0.0
 41
100.0
 42
100.0
 43
100.0
 50
270.0
  0
MTEXT
  5
2323C
330
231F0
100
AcDbEntity
  8
寸法
 62
     7
 48
50.0
100
AcDbMText
 10
5623.792424474093
 20
1420.590403459717
 30
0.0
 40
120.0
 41
0.0
 71
     5
 72
     1
  1
\A1;540
  7
STYLE1
 11
0.0000000000000001
 21
1.0
 31
0.0
 73
     1
 44
1.0
1001
ACAD
1000
MTEXTBEGIN
1070
    73
1070
     1
1070
    44
1040
1.0
1070
    74
1070
     0
1000
MTEXTEND
  0
POINT
  5
2323D
330
231F0
100
AcDbEntity
  8
DEFPOINTS
 62
     0
 48
50.0
100
AcDbPoint
 10
6458.829663035834
 20
1833.050253803716
 30
0.0
  0
POINT
  5
2323E
330
231F0
100
AcDbEntity
  8
DEFPOINTS
 62
     0
 48
50.0
100
AcDbPoint
 10
6250.829663035837
 20
1049.050253803716
 30
0.0
  0
POINT
  5
2323F
330
231F0
100
AcDbEntity
  8
DEFPOINTS
 62
     0
 48
50.0
100
AcDbPoint
 10
5723.792424474094
 20
1049.050253803716
 30
0.0
  0
ENDBLK
  5
231FB
330
231F0
100
AcDbEntity
  8
0
 48
50.0
100
AcDbBlockEnd
  0
BLOCK
  5
23206
330
231FC
100
AcDbEntity
  8
0
 48
50.0
100
AcDbBlockBegin
  2
*D52
 70
     1
 10
0.0
 20
0.0
 30
0.0
  3
*D52
  1

  0
LINE
  5
23240
330
231FC
100
AcDbEntity
  8
寸法
 62
     0
 48
50.0
370
    -2
100
AcDbLine
 10
6310.829663035834
 20
1289.050253803716
 30
0.0
 11
6128.409349303375
 21
1289.050253803716
 31
0.0
  0
LINE
  5
23241
330
231FC
100
AcDbEntity
  8
寸法
 62
     0
 48
50.0
370
    -2
100
AcDbLine
 10
6230.829663035837
 20
1049.050253803716
 30
0.0
 11
6128.409349303375
 21
1049.050253803716
 31
0.0
  0
LINE
  5
23242
330
231FC
100
AcDbEntity
  8
寸法
 62
     0
 48
50.0
370
    -2
100
AcDbLine
 10
6188.409349303374
 20
1289.050253803716
 30
0.0
 11
6188.409349303374
 21
1049.050253803716
 31
0.0
  0
INSERT
  5
23243
330
231FC
100
AcDbEntity
  8
寸法
 62
     0
 48
50.0
370
    -2
100
AcDbBlockReference
  2
_DOTSMALL
 10
6188.409349303374
 20
1289.050253803716
 30
0.0
 41
100.0
 42
100.0
 43
100.0
 50
90.0
  0
INSERT
  5
23244
330
231FC
100
AcDbEntity
  8
寸法
 62
     0
 48
50.0
370
    -2
100
AcDbBlockReference
  2
_DOTSMALL
 10
6188.409349303374
 20
1049.050253803716
 30
0.0
 41
100.0
 42
100.0
 43
100.0
 50
270.0
  0
MTEXT
  5
23245
330
231FC
100
AcDbEntity
  8
寸法
 62
     7
 48
50.0
100
AcDbMText
 10
6088.409349303375
 20
1169.050253803717
 30
0.0
 40
120.0
 41
0.0
 71
     5
 72
     1
  1
\A1;150
  7
STYLE1
 11
0.0000000000000001
 21
1.0
 31
0.0
 73
     1
 44
1.0
1001
ACAD
1000
MTEXTBEGIN
1070
    73
1070
     1
1070
    44
1040
1.0
1070
    74
1070
     0
1000
MTEXTEND
  0
POINT
  5
23246
330
231FC
100
AcDbEntity
  8
DEFPOINTS
 62
     0
 48
50.0
100
AcDbPoint
 10
6330.829663035833
 20
1289.050253803716
 30
0.0
  0
POINT
  5
23247
330
231FC
100
AcDbEntity
  8
DEFPOINTS
 62
     0
 48
50.0
100
AcDbPoint
 10
6250.829663035837
 20
1049.050253803716
 30
0.0
  0
POINT
  5
23248
330
231FC
100
AcDbEntity
  8
DEFPOINTS
 62
     0
 48
50.0
100
AcDbPoint
 10
6188.409349303374
 20
1049.050253803716
 30
0.0
  0
ENDBLK
  5
23207
330
231FC
100
AcDbEntity
  8
0
 48
50.0
100
AcDbBlockEnd
  0
BLOCK
  5
23214
330
23208
100
AcDbEntity
  8
0
 48
50.0
100
AcDbBlockBegin
  2
*D53
 70
     1
 10
0.0
 20
0.0
 30
0.0
  3
*D53
  1

  0
LINE
  5
23249
330
23208
100
AcDbEntity
  8
寸法
 62
     0
 48
50.0
370
    -2
100
AcDbLine
 10
8405.668976213028
 20
1885.810253803717
 30
0.0
 11
9410.7922421009
 21
1885.810253803717
 31
0.0
  0
LINE
  5
2324A
330
23208
100
AcDbEntity
  8
寸法
 62
     0
 48
50.0
370
    -2
100
AcDbLine
 10
8592.868976213027
 20
1833.050253803716
 30
0.0
 11
9410.7922421009
 21
1833.050253803716
 31
0.0
  0
LINE
  5
2324B
330
23208
100
AcDbEntity
  8
寸法
 62
     0
 48
50.0
370
    -2
100
AcDbLine
 10
9350.792242100899
 20
1885.810253803717
 30
0.0
 11
9350.792242100899
 21
1985.810253803717
 31
0.0
  0
LINE
  5
2324C
330
23208
100
AcDbEntity
  8
寸法
 62
     0
 48
50.0
370
    -2
100
AcDbLine
 10
9350.792242100899
 20
1833.050253803716
 30
0.0
 11
9350.792242100899
 21
1101.032446960749
 31
0.0
  0
LINE
  5
2324D
330
23208
100
AcDbEntity
  8
寸法
 62
     0
 48
50.0
370
    -2
100
AcDbLine
 10
9350.792242100899
 20
1885.810253803717
 30
0.0
 11
9350.792242100899
 21
1833.050253803716
 31
0.0
  0
INSERT
  5
2324E
330
23208
100
AcDbEntity
  8
寸法
 62
     0
 48
50.0
370
    -2
100
AcDbBlockReference
  2
_DOTSMALL
 10
9350.792242100899
 20
1885.810253803717
 30
0.0
 41
100.0
 42
100.0
 43
100.0
 50
270.0
  0
INSERT
  5
2324F
330
23208
100
AcDbEntity
  8
寸法
 62
     0
 48
50.0
370
    -2
100
AcDbBlockReference
  2
_DOTSMALL
 10
9350.792242100899
 20
1833.050253803716
 30
0.0
 41
100.0
 42
100.0
 43
100.0
 50
90.0
  0
MTEXT
  5
23250
330
23208
100
AcDbEntity
  8
寸法
 62
     7
 48
50.0
100
AcDbMText
 10
9250.780431077277
 20
1367.041350382234
 30
0.0
 40
120.0
 41
0.0
 71
     5
 72
     1
  1
\A1;20～25
  7
STYLE1
 11
0.0000000000000001
 21
1.0
 31
0.0
 73
     1
 44
1.0
1001
ACAD
1000
MTEXTBEGIN
1070
    73
1070
     1
1070
    44
1040
1.0
1070
    74
1070
     0
1000
MTEXTEND
  0
POINT
  5
23251
330
23208
100
AcDbEntity
  8
DEFPOINTS
 62
     0
 48
50.0
100
AcDbPoint
 10
8385.668976213029
 20
1885.810253803717
 30
0.0
  0
POINT
  5
23252
330
23208
100
AcDbEntity
  8
DEFPOINTS
 62
     0
 48
50.0
100
AcDbPoint
 10
8572.868976213028
 20
1833.050253803716
 30
0.0
  0
POINT
  5
23253
330
23208
100
AcDbEntity
  8
DEFPOINTS
 62
     0
 48
50.0
100
AcDbPoint
 10
9350.792242100899
 20
1833.050253803716
 30
0.0
  0
ENDBLK
  5
23215
330
23208
100
AcDbEntity
  8
0
 48
50.0
100
AcDbBlockEnd
  0
BLOCK
  5
23220
330
23216
100
AcDbEntity
  8
0
 48
50.0
100
AcDbBlockBegin
  2
*D54
 70
     1
 10
0.0
 20
0.0
 30
0.0
  3
*D54
  1

  0
LINE
  5
23254
330
23216
100
AcDbEntity
  8
寸法
 62
     0
 48
50.0
370
    -2
100
AcDbLine
 10
8592.868976213027
 20
1833.050253803716
 30
0.0
 11
9134.737575981871
 21
1833.050253803716
 31
0.0
  0
LINE
  5
23255
330
23216
100
AcDbEntity
  8
寸法
 62
     0
 48
50.0
370
    -2
100
AcDbLine
 10
8592.868976213027
 20
1509.050253803715
 30
0.0
 11
9134.737575981871
 21
1509.050253803715
 31
0.0
  0
LINE
  5
23256
330
23216
100
AcDbEntity
  8
寸法
 62
     0
 48
50.0
370
    -2
100
AcDbLine
 10
9074.737575981872
 20
1833.050253803716
 30
0.0
 11
9074.737575981872
 21
1509.050253803715
 31
0.0
  0
INSERT
  5
23257
330
23216
100
AcDbEntity
  8
寸法
 62
     0
 48
50.0
370
    -2
100
AcDbBlockReference
  2
_DOTSMALL
 10
9074.737575981872
 20
1833.050253803716
 30
0.0
 41
100.0
 42
100.0
 43
100.0
 50
90.0
  0
INSERT
  5
23258
330
23216
100
AcDbEntity
  8
寸法
 62
     0
 48
50.0
370
    -2
100
AcDbBlockReference
  2
_DOTSMALL
 10
9074.737575981872
 20
1509.050253803715
 30
0.0
 41
100.0
 42
100.0
 43
100.0
 50
270.0
  0
MTEXT
  5
23259
330
23216
100
AcDbEntity
  8
寸法
 62
     7
 48
50.0
100
AcDbMText
 10
8974.737575981873
 20
1671.050253803717
 30
0.0
 40
120.0
 41
0.0
 71
     5
 72
     1
  1
\A1;180
  7
STYLE1
 11
0.0000000000000001
 21
1.0
 31
0.0
 73
     1
 44
1.0
1001
ACAD
1000
MTEXTBEGIN
1070
    73
1070
     1
1070
    44
1040
1.0
1070
    74
1070
     0
1000
MTEXTEND
  0
POINT
  5
2325A
330
23216
100
AcDbEntity
  8
DEFPOINTS
 62
     0
 48
50.0
100
AcDbPoint
 10
8572.868976213028
 20
1833.050253803716
 30
0.0
  0
POINT
  5
2325B
330
23216
100
AcDbEntity
  8
DEFPOINTS
 62
     0
 48
50.0
100
AcDbPoint
 10
8572.868976213028
 20
1509.050253803715
 30
0.0
  0
POINT
  5
2325C
330
23216
100
AcDbEntity
  8
DEFPOINTS
 62
     0
 48
50.0
100
AcDbPoint
 10
9074.737575981872
 20
1509.050253803715
 30
0.0
  0
ENDBLK
  5
23221
330
23216
100
AcDbEntity
  8
0
 48
50.0
100
AcDbBlockEnd
  0
BLOCK
  5
2322C
330
23222
100
AcDbEntity
  8
0
 48
50.0
100
AcDbBlockBegin
  2
*D55
 70
     1
 10
0.0
 20
0.0
 30
0.0
  3
*D55
  1

  0
LINE
  5
2325D
330
23222
100
AcDbEntity
  8
寸法
 62
     0
 48
50.0
370
    -2
100
AcDbLine
 10
6650.829663035833
 20
1853.050253803716
 30
0.0
 11
6650.829663035833
 21
2312.718061720097
 31
0.0
  0
LINE
  5
2325E
330
23222
100
AcDbEntity
  8
寸法
 62
     0
 48
50.0
370
    -2
100
AcDbLine
 10
6458.829663035834
 20
1853.050253803716
 30
0.0
 11
6458.829663035834
 21
2312.718061720097
 31
0.0
  0
LINE
  5
2325F
330
23222
100
AcDbEntity
  8
寸法
 62
     0
 48
50.0
370
    -2
100
AcDbLine
 10
6650.829663035833
 20
2252.718061720097
 30
0.0
 11
6458.829663035834
 21
2252.718061720097
 31
0.0
  0
INSERT
  5
23260
330
23222
100
AcDbEntity
  8
寸法
 62
     0
 48
50.0
370
    -2
100
AcDbBlockReference
  2
_DOTSMALL
 10
6650.829663035833
 20
2252.718061720097
 30
0.0
 41
100.0
 42
100.0
 43
100.0
  0
INSERT
  5
23261
330
23222
100
AcDbEntity
  8
寸法
 62
     0
 48
50.0
370
    -2
100
AcDbBlockReference
  2
_DOTSMALL
 10
6458.829663035834
 20
2252.718061720097
 30
0.0
 41
100.0
 42
100.0
 43
100.0
 50
180.0
  0
MTEXT
  5
23262
330
23222
100
AcDbEntity
  8
寸法
 62
     7
 48
50.0
100
AcDbMText
 10
6554.829663035834
 20
2552.753494790963
 30
0.0
 40
120.0
 41
0.0
 71
     5
 72
     1
  1
\A1;120\P200\P280
  7
STYLE1
 73
     1
 44
1.0
1001
ACAD
1000
MTEXTBEGIN
1070
    73
1070
     1
1070
    44
1040
1.0
1070
    74
1070
     0
1000
MTEXTEND
  0
POINT
  5
23263
330
23222
100
AcDbEntity
  8
DEFPOINTS
 62
     0
 48
50.0
100
AcDbPoint
 10
6650.829663035833
 20
1833.050253803716
 30
0.0
  0
POINT
  5
23264
330
23222
100
AcDbEntity
  8
DEFPOINTS
 62
     0
 48
50.0
100
AcDbPoint
 10
6458.829663035834
 20
1833.050253803716
 30
0.0
  0
POINT
  5
23265
330
23222
100
AcDbEntity
  8
DEFPOINTS
 62
     0
 48
50.0
100
AcDbPoint
 10
6458.829663035834
 20
2252.718061720097
 30
0.0
  0
ENDBLK
  5
2322D
330
23222
100
AcDbEntity
  8
0
 48
50.0
100
AcDbBlockEnd
  0
ENDSEC
  0
SECTION
  2
ENTITIES
  0
MTEXT
  5
763F
330
747D
100
AcDbEntity
  8
0
100
AcDbMText
 10
302.846345836809
 20
280.1983726409901
 30
0.0
 40
3.5
 41
5.323721266742722
 71
     1
 72
     5
  1

  7
MSMINCHO
 73
     1
 44
1.0
1001
ACAD
1000
MTEXTBEGIN
1070
    73
1070
     1
1070
    44
1040
1.0
1070
    74
1070
     0
1000
MTEXTEND
  0
LINE
  5
10B57
330
747D
100
AcDbEntity
  8
補助
  6
PHANTOM
 62
   230
 48
50.0
100
AcDbLine
 10
139.9999999999995
 20
11409.6
 30
0.0
 11
16307.2
 21
11409.6
 31
0.0
  0
LINE
  5
10B59
330
747D
100
AcDbEntity
  8
仕様書枠
  6
Continuous
 48
50.0
100
AcDbLine
 10
13107.2
 20
1200.0
 30
0.0
 11
13107.2
 21
-0.0000000000000729
 31
0.0
  0
LINE
  5
10B5D
330
747D
100
AcDbEntity
  8
仕様書枠
 48
50.0
100
AcDbLine
 10
140.0
 20
0.0
 30
0.0
 11
16307.2
 21
-0.0000000000000909
 31
0.0
  0
LINE
  5
10B5E
330
747D
100
AcDbEntity
  8
補助
  6
PHANTOM
 62
   230
 48
50.0
100
AcDbLine
 10
16307.2
 20
11409.6
 30
0.0
 11
16307.2
 21
1200.0
 31
0.0
  0
LINE
  5
10B6C
330
747D
100
AcDbEntity
  8
仕様書枠
 48
50.0
100
AcDbLine
 10
13107.2
 20
1200.0
 30
0.0
 11
16307.2
 21
1200.0
 31
0.0
  0
TEXT
  5
10B73
330
747D
100
AcDbEntity
  8
文字
 62
     7
 48
50.0
100
AcDbText
 10
13162.9790565769
 20
895.0906074299405
 30
0.0
 40
200.0
  1
基 礎 図
  7
STYLE2
100
AcDbText
  0
LINE
  5
10B7B
330
747D
100
AcDbEntity
  8
仕様書枠
 48
50.0
100
AcDbLine
 10
13107.2
 20
800.0
 30
0.0
 11
14251.2
 21
800.0
 31
0.0
  0
LINE
  5
10B88
330
747D
100
AcDbEntity
  8
仕様書枠
  6
Continuous
 48
50.0
100
AcDbLine
 10
14251.2
 20
1200.0
 30
0.0
 11
14251.2
 21
800.0
 31
0.0
  0
LINE
  5
16462
330
747D
100
AcDbEntity
  8
仕様書枠
 48
50.0
100
AcDbLine
 10
16307.2
 20
1200.0
 30
0.0
 11
16307.2
 21
-0.0000000000000909
 31
0.0
  0
LINE
  5
1903B
330
747D
100
AcDbEntity
  8
補助
  6
PHANTOM
 62
   230
 48
50.0
100
AcDbLine
 10
140.0
 20
0.0
 30
0.0
 11
139.9999999999995
 21
11409.6
 31
0.0
  0
LEADER
  5
1AC27
330
747D
100
AcDbEntity
  8
寸法
 48
50.0
100
AcDbLeader
  3
INABA_S50G
 73
     0
 74
     0
 75
     1
 40
120.0
 41
720.0000000000001
 76
     3
 10
9458.695499614997
 20
6937.619658328718
 30
0.0
 10
9615.469074001282
 20
6676.605744760884
 30
0.0
 10
9740.469074001282
 20
6676.605744760884
 30
0.0
340
1AC28
1001
ACAD
1000
DSTYLE
1002
{
1070
   341
1005
0
1070
    40
1040
1.0
1070
   343
1005
0
1070
   344
1005
0
1002
}
  0
MTEXT
  5
1AC28
102
{ACAD_REACTORS
330
1AC27
102
}
330
747D
100
AcDbEntity
  8
部品1
 62
     7
 48
50.0
100
AcDbMText
 10
10485.46907400128
 20
6761.605744760885
 30
0.0
 40
120.0
 41
0.0
 71
     6
 72
     1
  1
\A1;床下換気口
  7
STYLE1
 73
     1
 44
1.0
1001
ACAD
1000
MTEXTBEGIN
1070
    73
1070
     1
1070
    44
1040
1.0
1070
    74
1070
     0
1000
MTEXTEND
  0
TEXT
  5
1AC29
330
747D
100
AcDbEntity
  8
部品1
 48
50.0
100
AcDbText
 10
9807.430138461178
 20
6098.425305804758
 30
0.0
 40
80.0
  1
(a=45,b=55,c=75)
  7
STYLE1
100
AcDbText
  0
TEXT
  5
1AC2A
330
747D
100
AcDbEntity
  8
部品1
 48
50.0
100
AcDbText
 10
9648.851129706878
 20
6205.270526673512
 30
0.0
 40
80.0
  1
※a,b,cは屋根の出幅です。
  7
STYLE1
100
AcDbText
  0
MTEXT
  5
1AC2B
102
{ACAD_REACTORS
330
1AC2C
102
}
330
747D
100
AcDbEntity
  8
部品1
 62
     7
 48
50.0
100
AcDbMText
 10
10446.63832569548
 20
6384.581213606587
 30
0.0
 40
120.0
 41
0.0
 71
     6
 72
     1
  1
\A1;屋根の外寸
  7
STYLE1
 73
     1
 44
1.0
1001
ACAD
1000
MTEXTBEGIN
1070
    73
1070
     1
1070
    44
1040
1.0
1070
    74
1070
     0
1000
MTEXTEND
  0
LEADER
  5
1AC2C
330
747D
100
AcDbEntity
  8
寸法
 48
50.0
100
AcDbLeader
  3
INABA_S50G
 73
     0
 74
     0
 75
     1
 40
120.0
 41
672.0
 76
     3
 10
9508.69831350344
 20
6558.470557070163
 30
0.0
 10
9624.638325695482
 20
6299.581213606587
 30
0.0
 10
9749.638325695482
 20
6299.581213606587
 30
0.0
340
1AC2B
1001
ACAD
1000
DSTYLE
1002
{
1070
   341
1005
0
1070
    40
1040
1.0
1070
   343
1005
0
1070
   344
1005
0
1002
}
  0
TEXT
  5
1C7A1
330
747D
100
AcDbEntity
  8
文字
 62
     7
 48
50.0
100
AcDbText
 10
13188.16259899338
 20
79.80631269190417
 30
0.0
 40
80.0
  1
※布基礎には換気口を設けてください。
  7
STYLE2
100
AcDbText
  0
TEXT
  5
1C7E7
330
747D
100
AcDbEntity
  8
文字
 62
     7
 48
50.0
100
AcDbText
 10
13188.16259899338
 20
246.7109242801889
 30
0.0
 40
80.0
  1
※寒冷地等は地域の実情に合わせた基礎にして下さい。
  7
STYLE2
100
AcDbText
  0
TEXT
  5
1C7E8
330
747D
100
AcDbEntity
  8
文字
 62
     7
 48
50.0
100
AcDbText
 10
14325.79230300687
 20
499.5983841039506
 30
0.0
 40
160.0
  1
ＮＸＮ－０８WＬ－３
  7
STYLE2
100
AcDbText
  0
TEXT
  5
1C7EC
330
747D
100
AcDbEntity
  8
文字
 62
     7
 48
50.0
100
AcDbText
 10
14524.131837222
 20
1031.557706291229
 30
0.0
 40
100.0
  1
<縮尺> S=1/40
  7
STYLE2
100
AcDbText
  0
TEXT
  5
1C7ED
330
747D
100
AcDbEntity
  8
文字
 62
     7
 48
50.0
100
AcDbText
 10
13201.43669998441
 20
477.2740661031257
 30
0.0
 40
160.0
  1
機種名
  7
STYLE2
100
AcDbText
  0
LINE
  5
1C7EF
330
747D
100
AcDbEntity
  8
文字
 62
     7
 48
50.0
100
AcDbLine
 10
13187.2
 20
400.0
 30
0.0
 11
16227.2
 21
400.0
 31
0.0
  0
MTEXT
  5
1D2D5
102
{ACAD_REACTORS
330
1D2D6
102
}
330
747D
100
AcDbEntity
  8
部品1
 62
     7
 48
50.0
100
AcDbMText
 10
10653.99523070988
 20
7649.128951384056
 30
0.0
 40
120.0
 41
0.0
 71
     6
 72
     1
  1
アンカーボルト
  7
STYLE1
 73
     1
 44
1.0
1001
ACAD
1000
MTEXTBEGIN
1070
    73
1070
     1
1070
    44
1040
1.0
1070
    74
1070
     0
1000
MTEXTEND
  0
LEADER
  5
1D2D6
330
747D
100
AcDbEntity
  8
寸法
 48
50.0
100
AcDbLeader
  3
INABA_S50G
 73
     0
 74
     0
 75
     1
 40
120.0
 41
994.3492424049171
 76
     3
 10
9335.680085756999
 20
7210.724051500257
 30
0.0
 10
9509.645988304965
 20
7564.128951384055
 30
0.0
 10
9634.645988304965
 20
7564.128951384055
 30
0.0
340
1D2D5
1001
ACAD
1000
DSTYLE
1002
{
1070
   341
1005
0
1070
    40
1040
1.0
1070
   343
1005
0
1070
   344
1005
0
1002
}
  0
MTEXT
  5
1D332
102
{ACAD_REACTORS
330
1D333
102
}
330
747D
100
AcDbEntity
  8
部品1
 62
     7
 48
50.0
100
AcDbMText
 10
9148.828697015693
 20
6775.021566822235
 30
0.0
 40
120.0
 41
0.0
 71
     6
 72
     1
  1
CB
  7
STYLE1
 73
     1
 44
1.0
1001
ACAD
1000
MTEXTBEGIN
1070
    73
1070
     1
1070
    44
1040
1.0
1070
    74
1070
     0
1000
MTEXTEND
  0
LEADER
  5
1D333
330
747D
100
AcDbEntity
  8
寸法
 48
50.0
100
AcDbLeader
  3
INABA_S50G
 73
     0
 74
     0
 75
     1
 40
120.0
 41
149.591883092037
 76
     3
 10
8721.954011061013
 20
6912.73988037706
 30
0.0
 10
8849.236813923658
 20
6690.021566822235
 30
0.0
 10
8974.236813923658
 20
6690.021566822235
 30
0.0
340
1D332
1001
ACAD
1000
DSTYLE
1002
{
1070
   341
1005
0
1070
    40
1040
1.0
1070
   343
1005
0
1070
   344
1005
0
1002
}
  0
DIMENSION
  5
20DE1
330
747D
100
AcDbEntity
  8
寸法
 48
50.0
100
AcDbDimension
  2
*D19
 10
9503.6
 20
8291.736529200465
 30
0.0
 11
9774.77462120246
 21
8291.736529200465
 31
0.0
 70
   160
  1
a
 71
     5
 42
45.0
  3
INABA_S40G
100
AcDbAlignedDimension
 13
9458.6
 23
7333.516207141544
 33
0.0
 14
9503.6
 24
8059.782665235454
 34
0.0
100
AcDbRotatedDimension
1001
ACAD
1000
DSTYLE
1002
{
1070
   341
1005
0
1002
}
  0
DIMENSION
  5
20DFB
330
747D
100
AcDbEntity
  8
寸法
 48
50.0
100
AcDbDimension
  2
*D20
 10
6988.600000000001
 20
8291.736529200465
 30
0.0
 11
6672.425378797541
 21
8291.736529200465
 31
0.0
 70
   160
  1
a
 71
     5
 42
44.99999999999636
  3
INABA_S40G
100
AcDbAlignedDimension
 13
6943.600000000003
 23
8059.782665235456
 33
0.0
 14
6988.600000000001
 24
7333.516207141544
 34
0.0
100
AcDbRotatedDimension
1001
ACAD
1000
DSTYLE
1002
{
1070
   341
1005
0
1002
}
  0
LINE
  5
22711
330
747D
100
AcDbEntity
  8
想像線
 48
10.0
100
AcDbLine
 10
9503.6
 20
7408.516207141549
 30
0.0
 11
6943.600000000003
 21
7408.516207141556
 31
0.0
  0
LINE
  5
22712
330
747D
100
AcDbEntity
  8
想像線
 48
10.0
100
AcDbLine
 10
6943.600000000002
 20
6318.516207141539
 30
0.0
 11
6943.600000000003
 21
7408.516207141556
 31
0.0
  0
LINE
  5
22713
330
747D
100
AcDbEntity
  8
想像線
 48
10.0
100
AcDbLine
 10
9503.6
 20
6318.516207141543
 30
0.0
 11
9503.6
 21
7408.516207141549
 31
0.0
  0
LINE
  5
22714
330
747D
100
AcDbEntity
  8
想像線
 48
10.0
100
AcDbLine
 10
9503.6
 20
6318.516207141543
 30
0.0
 11
6943.600000000002
 21
6318.516207141539
 31
0.0
  0
DIMENSION
  5
22741
330
747D
100
AcDbEntity
  8
寸法
 48
50.0
100
AcDbDimension
  2
*D25
 10
6113.721909610674
 20
7333.516207141549
 30
0.0
 11
6013.721909610672
 21
7371.016207141552
 31
0.0
 70
    32
  1
c
 71
     5
 42
75.00000000000364
  3
INABA_S40G
100
AcDbAlignedDimension
 13
6365.665006330072
 23
7408.516207141552
 33
0.0
 14
6855.156977762463
 24
7333.516207141548
 34
0.0
 50
90.0
100
AcDbRotatedDimension
1001
ACAD
1000
DSTYLE
1002
{
1070
   341
1005
0
1002
}
  0
DIMENSION
  5
2275B
330
747D
100
AcDbEntity
  8
寸法
 48
50.0
100
AcDbDimension
  2
*D26
 10
6113.721909610674
 20
6318.516207141559
 30
0.0
 11
6013.721909610672
 21
6346.016207141549
 31
0.0
 70
    32
  1
b
 71
     5
 42
54.99999999997817
  3
INABA_S40G
100
AcDbAlignedDimension
 13
6861.607272343893
 23
6373.516207141538
 33
0.0
 14
6365.665006330072
 24
6318.516207141559
 34
0.0
 50
90.0
100
AcDbRotatedDimension
1001
ACAD
1000
DSTYLE
1002
{
1070
   341
1005
0
1002
}
  0
TEXT
  5
22A16
330
747D
100
AcDbEntity
  8
寸法
 48
50.0
100
AcDbText
 10
8350.972048239643
 20
6392.197497934285
 30
0.0
 40
120.0
  1
扉面
  7
STYLE1
100
AcDbText
  0
LINE
  5
22A19
330
747D
100
AcDbEntity
  8
部品1
 48
50.0
100
AcDbLine
 10
7108.6
 20
7133.516207141552
 30
0.0
 11
9338.600000000006
 21
7133.516207141427
 31
0.0
  0
LINE
  5
22A1B
330
747D
100
AcDbEntity
  8
部品1
 48
50.0
100
AcDbLine
 10
9458.6
 20
6373.516207141565
 30
0.0
 11
6988.599999999997
 21
6373.516207141544
 31
0.0
  0
LINE
  5
22A1C
330
747D
100
AcDbEntity
  8
部品1
 48
50.0
100
AcDbLine
 10
9458.6
 20
7333.516207141546
 30
0.0
 11
6988.600000000001
 21
7333.516207141546
 31
0.0
  0
DIMENSION
  5
22A1D
330
747D
100
AcDbEntity
  8
寸法
 48
50.0
100
AcDbDimension
  2
*D27
 10
7111.6
 20
8059.782665235458
 30
0.0
 11
8223.600000000001
 21
8159.794476259079
 31
0.0
 70
    32
 71
     5
 42
2224.0
  3
INABA_S40G
100
AcDbAlignedDimension
 13
9335.600000000001
 23
7260.516207141548
 33
0.0
 14
7111.6
 24
7260.516207141548
 34
0.0
100
AcDbRotatedDimension
1001
ACAD
1000
DSTYLE
1002
{
1070
   341
1005
0
1002
}
  0
DIMENSION
  5
22A1E
330
747D
100
AcDbEntity
  8
寸法
 48
50.0
100
AcDbDimension
  2
*D28
 10
9458.6
 20
8291.736529200465
 30
0.0
 11
8223.600000000001
 21
8391.748340224088
 31
0.0
 70
    32
 71
     5
 42
2470.0
  3
INABA_S40G
100
AcDbAlignedDimension
 13
6988.600000000001
 23
7333.516207141546
 33
0.0
 14
9458.6
 24
7333.516207141546
 34
0.0
100
AcDbRotatedDimension
1001
ACAD
1000
DSTYLE
1002
{
1070
   341
1005
0
1002
}
  0
DIMENSION
  5
22A1F
330
747D
100
AcDbEntity
  8
寸法
 48
50.0
100
AcDbDimension
  2
*D29
 10
8633.600000000008
 20
7816.125023811796
 30
0.0
 11
8223.600000000008
 21
7916.136834835417
 31
0.0
 70
    32
 71
     5
 42
820.0
  3
INABA_S40G
100
AcDbAlignedDimension
 13
7813.600000000008
 23
6903.516207141547
 33
0.0
 14
8633.600000000008
 24
6903.516207141547
 34
0.0
100
AcDbRotatedDimension
1001
ACAD
1000
DSTYLE
1002
{
1070
   341
1005
0
1002
}
  0
LINE
  5
22A20
330
747D
100
AcDbEntity
  8
細線
 48
50.0
100
AcDbLine
 10
7394.503084343776
 20
6373.51620714154
 30
0.0
 11
7503.600000000007
 21
6482.613122797772
 31
0.0
  0
LINE
  5
22A21
330
747D
100
AcDbEntity
  8
細線
 48
50.0
100
AcDbLine
 10
7349.601803738429
 20
6373.51620714154
 30
0.0
 11
7503.600000000007
 21
6527.514403403117
 31
0.0
  0
LINE
  5
22A22
330
747D
100
AcDbEntity
  8
細線
 48
50.0
100
AcDbLine
 10
7304.700523133084
 20
6373.51620714154
 30
0.0
 11
7503.600000000007
 21
6572.415684008461
 31
0.0
  0
LINE
  5
22A23
330
747D
100
AcDbEntity
  8
細線
 48
50.0
100
AcDbLine
 10
7303.600000000011
 20
6417.316964613812
 30
0.0
 11
7503.60000000001
 21
6617.316964613813
 31
0.0
  0
LINE
  5
22A24
330
747D
100
AcDbEntity
  8
細線
 48
50.0
100
AcDbLine
 10
7303.600000000007
 20
6462.218245219155
 30
0.0
 11
7494.897961922423
 21
6653.51620714157
 31
0.0
  0
LINE
  5
22A25
330
747D
100
AcDbEntity
  8
細線
 48
50.0
100
AcDbLine
 10
8214.503084343776
 20
6373.516207141548
 30
0.0
 11
8323.600000000007
 21
6482.613122797783
 31
0.0
  0
LINE
  5
22A26
330
747D
100
AcDbEntity
  8
細線
 48
50.0
100
AcDbLine
 10
8169.601803738428
 20
6373.516207141548
 30
0.0
 11
8323.600000000006
 21
6527.514403403126
 31
0.0
  0
LINE
  5
22A27
330
747D
100
AcDbEntity
  8
細線
 48
50.0
100
AcDbLine
 10
8124.700523133084
 20
6373.516207141547
 30
0.0
 11
8323.600000000004
 21
6572.415684008468
 31
0.0
  0
LINE
  5
22A28
330
747D
100
AcDbEntity
  8
細線
 48
50.0
100
AcDbLine
 10
8123.600000000012
 20
6417.316964613822
 30
0.0
 11
8323.600000000006
 21
6617.316964613817
 31
0.0
  0
LINE
  5
22A29
330
747D
100
AcDbEntity
  8
細線
 48
50.0
100
AcDbLine
 10
8123.600000000008
 20
6462.218245219166
 30
0.0
 11
8314.897961922417
 21
6653.516207141568
 31
0.0
  0
LINE
  5
22A2A
330
747D
100
AcDbEntity
  8
部品1
 48
50.0
100
AcDbLine
 10
7503.600000000004
 20
6653.516207141568
 30
0.0
 11
7503.600000000012
 21
6373.516207141541
 31
0.0
  0
LINE
  5
22A2B
330
747D
100
AcDbEntity
  8
部品1
 48
50.0
100
AcDbLine
 10
7303.600000000002
 20
6653.516207141568
 30
0.0
 11
7303.600000000011
 21
6373.516207141538
 31
0.0
  0
LINE
  5
22A2C
330
747D
100
AcDbEntity
  8
部品1
 48
50.0
100
AcDbLine
 10
8323.600000000004
 20
6653.516207141568
 30
0.0
 11
8323.600000000011
 21
6373.516207141551
 31
0.0
  0
LINE
  5
22A2D
330
747D
100
AcDbEntity
  8
部品1
 48
50.0
100
AcDbLine
 10
8123.600000000006
 20
6653.516207141568
 30
0.0
 11
8123.600000000012
 21
6373.516207141547
 31
0.0
  0
DIMENSION
  5
22A2F
330
747D
100
AcDbEntity
  8
寸法
 48
50.0
100
AcDbDimension
  2
*D30
 10
7471.285990614302
 20
6853.516207141547
 30
0.0
 11
7471.285990614301
 21
6080.957152023447
 31
0.0
 70
   160
 71
     5
 42
479.999999999989
  3
INABA_S40G
100
AcDbAlignedDimension
 13
7562.765475140901
 23
6373.516207141558
 33
0.0
 14
7763.600000000008
 24
6853.516207141547
 34
0.0
 50
90.0
100
AcDbRotatedDimension
1001
ACAD
1000
DSTYLE
1002
{
1070
   341
1005
0
1002
}
  0
DIMENSION
  5
22A30
330
747D
100
AcDbEntity
  8
寸法
 48
50.0
100
AcDbDimension
  2
*D31
 10
6365.665006330073
 20
6373.516207141547
 30
0.0
 11
6365.665006330072
 21
6037.985258298955
 31
0.0
 70
   160
 71
     5
 42
198.0000000000036
  3
INABA_S40G
100
AcDbAlignedDimension
 13
7061.600000000009
 23
6571.51620714155
 33
0.0
 14
6988.600000000001
 24
6373.516207141547
 34
0.0
 50
90.0
100
AcDbRotatedDimension
1001
ACAD
1000
DSTYLE
1002
{
1070
   341
1005
0
1002
}
  0
DIMENSION
  5
22A31
330
747D
100
AcDbEntity
  8
寸法
 48
50.0
100
AcDbDimension
  2
*D32
 10
6113.721909610674
 20
6373.516207141548
 30
0.0
 11
6113.721909610672
 21
6891.016207141547
 31
0.0
 70
   160
 71
     5
 42
960.0
  3
INABA_S40G
100
AcDbAlignedDimension
 13
6988.600000000001
 23
7333.516207141546
 33
0.0
 14
6988.600000000001
 24
6373.516207141547
 34
0.0
 50
90.0
100
AcDbRotatedDimension
1001
ACAD
1000
DSTYLE
1002
{
1070
   341
1005
0
1002
}
  0
LINE
  5
22A32
102
{ACAD_REACTORS
330
22F2B
102
}
330
747D
100
AcDbEntity
  8
部品1
 48
50.0
100
AcDbLine
 10
6988.600000000001
 20
6373.516207141547
 30
0.0
 11
6988.600000000001
 21
7333.516207141546
 31
0.0
  0
DIMENSION
  5
22A33
330
747D
100
AcDbEntity
  8
寸法
 48
50.0
100
AcDbDimension
  2
*D33
 10
6750.934862128591
 20
5653.516207141525
 30
0.0
 11
6750.934862128589
 21
6013.516207141528
 31
0.0
 70
   160
  1
扉の出<>
 71
     5
 42
720.0
  3
INABA_S40G
100
AcDbAlignedDimension
 13
6988.600000000001
 23
6373.516207141525
 33
0.0
 14
7344.325326928805
 24
5653.516207141525
 34
0.0
 50
90.0
100
AcDbRotatedDimension
1001
ACAD
1000
DSTYLE
1002
{
1070
   341
1005
0
1002
}
  0
ARC
  5
22A35
330
747D
100
AcDbEntity
  8
想像線
 48
5.0
100
AcDbCircle
 10
7758.6
 20
6373.516207141525
 30
0.0
 40
720.0
100
AcDbArc
 50
180.0
 51
270.0
  0
LINE
  5
22A36
330
747D
100
AcDbEntity
  8
細線
 48
50.0
100
AcDbLine
 10
7484.305645554468
 20
6373.516207141544
 30
0.0
 11
7503.600000000012
 21
6392.810561587085
 31
0.0
  0
LINE
  5
22A37
330
747D
100
AcDbEntity
  8
細線
 48
50.0
100
AcDbLine
 10
7439.404364949121
 20
6373.51620714154
 30
0.0
 11
7503.600000000012
 21
6437.711842192427
 31
0.0
  0
LINE
  5
22A38
330
747D
100
AcDbEntity
  8
想像線
 48
5.0
100
AcDbLine
 10
7758.6
 20
6373.516207141536
 30
0.0
 11
7758.6
 21
5653.516207141525
 31
0.0
  0
LINE
  5
22A39
330
747D
100
AcDbEntity
  8
細線
 48
50.0
100
AcDbLine
 10
8304.305645554469
 20
6373.516207141552
 30
0.0
 11
8323.600000000011
 21
6392.810561587094
 31
0.0
  0
LINE
  5
22A3A
330
747D
100
AcDbEntity
  8
細線
 48
50.0
100
AcDbLine
 10
8259.404364949125
 20
6373.516207141551
 30
0.0
 11
8323.600000000011
 21
6437.711842192439
 31
0.0
  0
DIMENSION
  5
22A3D
330
747D
100
AcDbEntity
  8
寸法
 48
50.0
100
AcDbDimension
  2
*D34
 10
6365.665006330072
 20
7210.516207141548
 30
0.0
 11
6365.665006330072
 21
7606.622808859348
 31
0.0
 70
   160
 71
     5
 42
123.0
  3
INABA_S40G
100
AcDbAlignedDimension
 13
6988.600000000001
 23
7333.516207141546
 33
0.0
 14
7061.6
 24
7210.516207141548
 34
0.0
 50
90.0
100
AcDbRotatedDimension
1001
ACAD
1000
DSTYLE
1002
{
1070
   341
1005
0
1002
}
  0
DIMENSION
  5
22A3E
330
747D
100
AcDbEntity
  8
寸法
 48
50.0
100
AcDbDimension
  2
*D35
 10
6365.665006330073
 20
6571.51620714155
 30
0.0
 11
6365.665006330072
 21
6891.016207141547
 31
0.0
 70
   160
 71
     5
 42
638.9999999999964
  3
INABA_S40G
100
AcDbAlignedDimension
 13
7061.6
 23
7210.516207141548
 33
0.0
 14
7061.600000000009
 24
6571.51620714155
 34
0.0
 50
90.0
100
AcDbRotatedDimension
1001
ACAD
1000
DSTYLE
1002
{
1070
   341
1005
0
1002
}
  0
DIMENSION
  5
22A3F
330
747D
100
AcDbEntity
  8
寸法
 48
50.0
100
AcDbDimension
  2
*D36
 10
6988.600000000001
 20
8059.782665235458
 30
0.0
 11
6715.493398282203
 21
8059.782665235458
 31
0.0
 70
   160
 71
     5
 42
123.0
  3
INABA_S40G
100
AcDbAlignedDimension
 13
7111.6
 23
7260.516207141548
 33
0.0
 14
6988.600000000001
 24
7333.516207141546
 34
0.0
100
AcDbRotatedDimension
1001
ACAD
1000
DSTYLE
1002
{
1070
   341
1005
0
1002
}
  0
DIMENSION
  5
22A40
330
747D
100
AcDbEntity
  8
寸法
 48
50.0
100
AcDbDimension
  2
*D37
 10
7471.285990614301
 20
7333.516207141546
 30
0.0
 11
7471.285990614301
 21
7626.07526225966
 31
0.0
 70
   160
 71
     5
 42
480.0
  3
INABA_S40G
100
AcDbAlignedDimension
 13
7763.600000000008
 23
6853.516207141547
 33
0.0
 14
7562.765475140901
 24
7333.516207141546
 34
0.0
 50
90.0
100
AcDbRotatedDimension
1001
ACAD
1000
DSTYLE
1002
{
1070
   341
1005
0
1002
}
  0
DIMENSION
  5
22A41
330
747D
100
AcDbEntity
  8
寸法
 48
50.0
100
AcDbDimension
  2
*D38
 10
6988.600000000001
 20
7816.125023811796
 30
0.0
 11
7401.100000000004
 21
7916.136834835417
 31
0.0
 70
    32
 71
     5
 42
825.0000000000072
  3
INABA_S40G
100
AcDbAlignedDimension
 13
7813.600000000008
 23
6903.516207141547
 33
0.0
 14
6988.600000000001
 24
7333.516207141546
 34
0.0
100
AcDbRotatedDimension
1001
ACAD
1000
DSTYLE
1002
{
1070
   341
1005
0
1002
}
  0
LINE
  5
22A43
330
747D
100
AcDbEntity
  8
センター
 48
2.0
100
AcDbLine
 10
7111.600000000009
 20
6621.51620714155
 30
0.0
 11
7111.600000000009
 21
6521.516207141551
 31
0.0
  0
CIRCLE
  5
22A44
330
747D
100
AcDbEntity
  8
部品1
 48
50.0
100
AcDbCircle
 10
7111.599999999993
 20
6571.51620714155
 30
0.0
 40
35.0
  0
LINE
  5
22A45
330
747D
100
AcDbEntity
  8
センター
 48
2.0
100
AcDbLine
 10
7061.600000000009
 20
6571.51620714155
 30
0.0
 11
7161.600000000008
 21
6571.51620714155
 31
0.0
  0
LINE
  5
22A46
102
{ACAD_REACTORS
330
22F2B
102
}
330
747D
100
AcDbEntity
  8
部品1
 48
50.0
100
AcDbLine
 10
7108.6
 20
6978.516207141558
 30
0.0
 11
6988.600000000001
 21
6978.516207141558
 31
0.0
  0
LINE
  5
22A47
102
{ACAD_REACTORS
330
22F2B
102
}
330
747D
100
AcDbEntity
  8
部品1
 48
50.0
100
AcDbLine
 10
7108.6
 20
6778.516207141558
 30
0.0
 11
6988.600000000001
 21
6778.516207141558
 31
0.0
  0
LINE
  5
22A49
330
747D
100
AcDbEntity
  8
細線
 48
50.0
100
AcDbLine
 10
7303.600000000007
 20
6507.119525824501
 30
0.0
 11
7449.996681317076
 21
6653.516207141568
 31
0.0
  0
LINE
  5
22A4A
330
747D
100
AcDbEntity
  8
細線
 48
50.0
100
AcDbLine
 10
7303.600000000007
 20
6552.020806429982
 30
0.0
 11
7405.09540071158
 21
6653.516207141568
 31
0.0
  0
LINE
  5
22A4B
330
747D
100
AcDbEntity
  8
細線
 48
50.0
100
AcDbLine
 10
7303.600000000007
 20
6596.922087035324
 30
0.0
 11
7360.194120106244
 21
6653.516207141568
 31
0.0
  0
LINE
  5
22A4C
330
747D
100
AcDbEntity
  8
センター
 48
2.0
100
AcDbLine
 10
7111.6
 20
7260.516207141548
 30
0.0
 11
7111.6
 21
7160.516207141547
 31
0.0
  0
CIRCLE
  5
22A4D
330
747D
100
AcDbEntity
  8
部品1
 48
50.0
100
AcDbCircle
 10
7111.6
 20
7210.516207141548
 30
0.0
 40
35.0
  0
LINE
  5
22A4E
330
747D
100
AcDbEntity
  8
センター
 48
2.0
100
AcDbLine
 10
7061.6
 20
7210.516207141548
 30
0.0
 11
7161.599999999999
 21
7210.516207141548
 31
0.0
  0
LINE
  5
22A4F
330
747D
100
AcDbEntity
  8
細線
 48
50.0
100
AcDbLine
 10
7391.181314052909
 20
7133.516207141534
 30
0.0
 11
7503.600000000007
 21
7245.934893088652
 31
0.0
  0
LINE
  5
22A50
330
747D
100
AcDbEntity
  8
細線
 48
50.0
100
AcDbLine
 10
7346.280033447553
 20
7133.516207141539
 30
0.0
 11
7503.600000000007
 21
7290.836173693995
 31
0.0
  0
LINE
  5
22A51
330
747D
100
AcDbEntity
  8
細線
 48
50.0
100
AcDbLine
 10
7303.600000000011
 20
7135.737454299349
 30
0.0
 11
7501.378752842206
 21
7333.516207141538
 31
0.0
  0
LINE
  5
22A52
330
747D
100
AcDbEntity
  8
細線
 48
50.0
100
AcDbLine
 10
7303.600000000011
 20
7180.638734904691
 30
0.0
 11
7456.477472236858
 21
7333.516207141539
 31
0.0
  0
LINE
  5
22A53
330
747D
100
AcDbEntity
  8
細線
 48
50.0
100
AcDbLine
 10
7303.600000000011
 20
7225.540015510034
 30
0.0
 11
7411.576191631512
 21
7333.516207141537
 31
0.0
  0
LINE
  5
22A54
330
747D
100
AcDbEntity
  8
細線
 48
50.0
100
AcDbLine
 10
7303.600000000007
 20
7270.441296115379
 30
0.0
 11
7366.674911026168
 21
7333.516207141538
 31
0.0
  0
LINE
  5
22A55
330
747D
100
AcDbEntity
  8
細線
 48
50.0
100
AcDbLine
 10
7303.600000000007
 20
7315.342576720722
 30
0.0
 11
7321.773630420821
 21
7333.516207141539
 31
0.0
  0
LINE
  5
22A56
330
747D
100
AcDbEntity
  8
部品1
 48
50.0
100
AcDbLine
 10
7303.600000000007
 20
7333.516207141538
 30
0.0
 11
7303.600000000011
 21
7133.516207141539
 31
0.0
  0
LINE
  5
22A57
330
747D
100
AcDbEntity
  8
細線
 48
50.0
100
AcDbLine
 10
7436.082594658238
 20
7133.516207141534
 30
0.0
 11
7503.600000000007
 21
7201.033612483303
 31
0.0
  0
LINE
  5
22A58
330
747D
100
AcDbEntity
  8
細線
 48
50.0
100
AcDbLine
 10
7480.983875263584
 20
7133.516207141532
 30
0.0
 11
7503.600000000007
 21
7156.13233187796
 31
0.0
  0
LINE
  5
22A59
330
747D
100
AcDbEntity
  8
部品1
 48
50.0
100
AcDbLine
 10
7503.600000000007
 20
7333.516207141538
 30
0.0
 11
7503.600000000012
 21
7133.516207141531
 31
0.0
  0
LINE
  5
22A5A
330
747D
100
AcDbEntity
  8
部品1
 48
50.0
100
AcDbLine
 10
7913.600000000008
 20
6753.516207141547
 30
0.0
 11
7913.600000000008
 21
6953.516207141547
 31
0.0
  0
LINE
  5
22A5B
330
747D
100
AcDbEntity
  8
部品1
 48
50.0
100
AcDbLine
 10
7713.600000000008
 20
6753.516207141547
 30
0.0
 11
7713.600000000008
 21
6953.516207141547
 31
0.0
  0
LINE
  5
22A5C
330
747D
100
AcDbEntity
  8
部品1
 48
50.0
100
AcDbLine
 10
7913.600000000008
 20
6753.516207141547
 30
0.0
 11
7713.600000000008
 21
6753.516207141547
 31
0.0
  0
LINE
  5
22A5D
330
747D
100
AcDbEntity
  8
センター
 48
2.0
100
AcDbLine
 10
7763.600000000008
 20
6853.516207141547
 30
0.0
 11
7863.600000000008
 21
6853.516207141547
 31
0.0
  0
LINE
  5
22A5E
330
747D
100
AcDbEntity
  8
部品1
 48
50.0
100
AcDbLine
 10
7913.600000000008
 20
6953.516207141547
 30
0.0
 11
7713.600000000008
 21
6953.516207141547
 31
0.0
  0
LINE
  5
22A5F
330
747D
100
AcDbEntity
  8
センター
 48
2.0
100
AcDbLine
 10
7813.600000000008
 20
6903.516207141547
 30
0.0
 11
7813.600000000008
 21
6803.516207141547
 31
0.0
  0
LINE
  5
22A60
330
747D
100
AcDbEntity
  8
細線
 48
50.0
100
AcDbLine
 10
8123.600000000008
 20
6507.11952582451
 30
0.0
 11
8269.996681317037
 21
6653.51620714157
 31
0.0
  0
LINE
  5
22A61
330
747D
100
AcDbEntity
  8
細線
 48
50.0
100
AcDbLine
 10
8123.600000000008
 20
6552.020806429982
 30
0.0
 11
8225.095400711584
 21
6653.516207141568
 31
0.0
  0
LINE
  5
22A62
330
747D
100
AcDbEntity
  8
細線
 48
50.0
100
AcDbLine
 10
8123.600000000008
 20
6596.922087035324
 30
0.0
 11
8180.194120106245
 21
6653.516207141568
 31
0.0
  0
LINE
  5
22A63
330
747D
100
AcDbEntity
  8
細線
 48
50.0
100
AcDbLine
 10
8211.181314052858
 20
7133.516207141489
 30
0.0
 11
8323.600000000007
 21
7245.934893088659
 31
0.0
  0
LINE
  5
22A64
330
747D
100
AcDbEntity
  8
細線
 48
50.0
100
AcDbLine
 10
8166.280033447497
 20
7133.516207141494
 30
0.0
 11
8323.600000000007
 21
7290.836173694003
 31
0.0
  0
LINE
  5
22A65
330
747D
100
AcDbEntity
  8
細線
 48
50.0
100
AcDbLine
 10
8123.600000000008
 20
7135.737454299357
 30
0.0
 11
8321.378752842205
 21
7333.516207141546
 31
0.0
  0
LINE
  5
22A66
330
747D
100
AcDbEntity
  8
細線
 48
50.0
100
AcDbLine
 10
8123.600000000008
 20
7180.638734904697
 30
0.0
 11
8276.477472236859
 21
7333.516207141546
 31
0.0
  0
LINE
  5
22A67
330
747D
100
AcDbEntity
  8
細線
 48
50.0
100
AcDbLine
 10
8123.600000000008
 20
7225.540015510041
 30
0.0
 11
8231.576191631514
 21
7333.516207141546
 31
0.0
  0
LINE
  5
22A68
330
747D
100
AcDbEntity
  8
細線
 48
50.0
100
AcDbLine
 10
8123.600000000008
 20
7270.441296115389
 30
0.0
 11
8186.674911026168
 21
7333.516207141549
 31
0.0
  0
LINE
  5
22A69
330
747D
100
AcDbEntity
  8
細線
 48
50.0
100
AcDbLine
 10
8123.600000000008
 20
7315.342576720734
 30
0.0
 11
8141.773630420823
 21
7333.516207141546
 31
0.0
  0
LINE
  5
22A6A
330
747D
100
AcDbEntity
  8
部品1
 48
50.0
100
AcDbLine
 10
8123.600000000008
 20
7333.516207141546
 30
0.0
 11
8123.600000000008
 21
7133.516207141494
 31
0.0
  0
LINE
  5
22A6B
330
747D
100
AcDbEntity
  8
細線
 48
50.0
100
AcDbLine
 10
8256.082594658185
 20
7133.516207141489
 30
0.0
 11
8323.600000000007
 21
7201.033612483311
 31
0.0
  0
LINE
  5
22A6C
330
747D
100
AcDbEntity
  8
細線
 48
50.0
100
AcDbLine
 10
8300.983875263531
 20
7133.516207141486
 30
0.0
 11
8323.600000000007
 21
7156.132331877967
 31
0.0
  0
LINE
  5
22A6D
330
747D
100
AcDbEntity
  8
部品1
 48
50.0
100
AcDbLine
 10
8323.600000000007
 20
7333.516207141546
 30
0.0
 11
8323.600000000011
 21
7133.516207141484
 31
0.0
  0
LINE
  5
22A6E
330
747D
100
AcDbEntity
  8
細線
 48
50.0
100
AcDbLine
 10
9034.503084343777
 20
6373.516207141548
 30
0.0
 11
9143.600000000011
 21
6482.613122797784
 31
0.0
  0
LINE
  5
22A6F
330
747D
100
AcDbEntity
  8
細線
 48
50.0
100
AcDbLine
 10
8989.601803738429
 20
6373.516207141548
 30
0.0
 11
9143.600000000006
 21
6527.514403403128
 31
0.0
  0
LINE
  5
22A70
330
747D
100
AcDbEntity
  8
細線
 48
50.0
100
AcDbLine
 10
8944.700523133084
 20
6373.516207141547
 30
0.0
 11
9143.600000000004
 21
6572.415684008475
 31
0.0
  0
LINE
  5
22A71
330
747D
100
AcDbEntity
  8
細線
 48
50.0
100
AcDbLine
 10
8943.600000000012
 20
6417.316964613822
 30
0.0
 11
9143.600000000006
 21
6617.316964613817
 31
0.0
  0
LINE
  5
22A72
330
747D
100
AcDbEntity
  8
細線
 48
50.0
100
AcDbLine
 10
8943.600000000008
 20
6462.218245219166
 30
0.0
 11
9134.897961922415
 21
6653.516207141568
 31
0.0
  0
LINE
  5
22A73
330
747D
100
AcDbEntity
  8
部品1
 48
50.0
100
AcDbLine
 10
9143.600000000001
 20
6653.516207141568
 30
0.0
 11
9143.600000000011
 21
6373.516207141551
 31
0.0
  0
LINE
  5
22A74
330
747D
100
AcDbEntity
  8
部品1
 48
50.0
100
AcDbLine
 10
8943.600000000001
 20
6653.516207141568
 30
0.0
 11
8943.600000000012
 21
6373.516207141547
 31
0.0
  0
DIMENSION
  5
22A76
330
747D
100
AcDbEntity
  8
寸法
 48
50.0
100
AcDbDimension
  2
*D39
 10
8861.821389011623
 20
6373.516207141558
 30
0.0
 11
8861.821389011621
 21
6086.552624464394
 31
0.0
 70
   160
 71
     5
 42
280.0000000000109
  3
INABA_S40G
100
AcDbAlignedDimension
 13
9023.13387648461
 23
6653.516207141568
 33
0.0
 14
8831.419106515957
 24
6373.516207141558
 34
0.0
 50
90.0
100
AcDbRotatedDimension
1001
ACAD
1000
DSTYLE
1002
{
1070
   341
1005
0
1002
}
  0
LINE
  5
22A77
102
{ACAD_REACTORS
330
22F11
102
}
330
747D
100
AcDbEntity
  8
部品1
 48
50.0
100
AcDbLine
 10
9458.6
 20
6373.516207141565
 30
0.0
 11
9458.6
 21
7333.516207141546
 31
0.0
  0
LINE
  5
22A7C
330
747D
100
AcDbEntity
  8
細線
 48
50.0
100
AcDbLine
 10
9124.305645554469
 20
6373.516207141552
 30
0.0
 11
9143.600000000011
 21
6392.810561587094
 31
0.0
  0
LINE
  5
22A7D
330
747D
100
AcDbEntity
  8
細線
 48
50.0
100
AcDbLine
 10
9079.404364949123
 20
6373.516207141551
 30
0.0
 11
9143.600000000011
 21
6437.711842192439
 31
0.0
  0
DIMENSION
  5
22A81
330
747D
100
AcDbEntity
  8
寸法
 48
50.0
100
AcDbDimension
  2
*D40
 10
8861.821389011627
 20
7133.51620714145
 30
0.0
 11
8861.821389011623
 21
7620.479789818702
 31
0.0
 70
   160
 71
     5
 42
200.0000000000855
  3
INABA_S40G
100
AcDbAlignedDimension
 13
8855.85634570468
 23
7333.516207141537
 33
0.0
 14
8795.601663693046
 24
7133.51620714145
 34
0.0
 50
90.0
100
AcDbRotatedDimension
1001
ACAD
1000
DSTYLE
1002
{
1070
   341
1005
0
1002
}
  0
DIMENSION
  5
22A82
330
747D
100
AcDbEntity
  8
寸法
 48
50.0
100
AcDbDimension
  2
*D41
 10
8633.600000000008
 20
7816.125023811796
 30
0.0
 11
9046.100000000004
 21
7916.136834835417
 31
0.0
 70
    32
 71
     5
 42
824.9999999999927
  3
INABA_S40G
100
AcDbAlignedDimension
 13
9458.6
 23
7333.516207141546
 33
0.0
 14
8633.600000000008
 24
6903.516207141547
 34
0.0
100
AcDbRotatedDimension
1001
ACAD
1000
DSTYLE
1002
{
1070
   341
1005
0
1002
}
  0
DIMENSION
  5
22A83
330
747D
100
AcDbEntity
  8
寸法
 48
50.0
100
AcDbDimension
  2
*D42
 10
9335.600000000001
 20
8059.782665235458
 30
0.0
 11
9731.706601717799
 21
8059.782665235458
 31
0.0
 70
   160
 71
     5
 42
123.0
  3
INABA_S40G
100
AcDbAlignedDimension
 13
9458.6
 23
7333.516207141546
 33
0.0
 14
9335.600000000001
 24
7260.516207141548
 34
0.0
100
AcDbRotatedDimension
1001
ACAD
1000
DSTYLE
1002
{
1070
   341
1005
0
1002
}
  0
LINE
  5
22A84
330
747D
100
AcDbEntity
  8
部品1
 48
50.0
100
AcDbLine
 10
8733.600000000008
 20
6753.516207141547
 30
0.0
 11
8733.600000000008
 21
6953.516207141547
 31
0.0
  0
LINE
  5
22A85
330
747D
100
AcDbEntity
  8
部品1
 48
50.0
100
AcDbLine
 10
8533.600000000008
 20
6753.516207141547
 30
0.0
 11
8533.600000000008
 21
6953.516207141547
 31
0.0
  0
LINE
  5
22A86
330
747D
100
AcDbEntity
  8
部品1
 48
50.0
100
AcDbLine
 10
8733.600000000008
 20
6753.516207141547
 30
0.0
 11
8533.600000000008
 21
6753.516207141547
 31
0.0
  0
LINE
  5
22A87
330
747D
100
AcDbEntity
  8
センター
 48
2.0
100
AcDbLine
 10
8583.600000000009
 20
6853.516207141547
 30
0.0
 11
8683.600000000009
 21
6853.516207141547
 31
0.0
  0
LINE
  5
22A88
330
747D
100
AcDbEntity
  8
部品1
 48
50.0
100
AcDbLine
 10
8733.600000000008
 20
6953.516207141547
 30
0.0
 11
8533.600000000008
 21
6953.516207141547
 31
0.0
  0
LINE
  5
22A89
330
747D
100
AcDbEntity
  8
センター
 48
2.0
100
AcDbLine
 10
8633.600000000008
 20
6903.516207141547
 30
0.0
 11
8633.600000000008
 21
6803.516207141547
 31
0.0
  0
LINE
  5
22A8A
330
747D
100
AcDbEntity
  8
細線
 48
50.0
100
AcDbLine
 10
8943.600000000008
 20
6507.11952582451
 30
0.0
 11
9089.996681317037
 21
6653.51620714157
 31
0.0
  0
LINE
  5
22A8B
330
747D
100
AcDbEntity
  8
細線
 48
50.0
100
AcDbLine
 10
8943.600000000007
 20
6596.922087035324
 30
0.0
 11
9000.194120106241
 21
6653.516207141568
 31
0.0
  0
LINE
  5
22A8C
330
747D
100
AcDbEntity
  8
細線
 48
50.0
100
AcDbLine
 10
8943.600000000007
 20
6552.020806429982
 30
0.0
 11
9045.095400711581
 21
6653.516207141568
 31
0.0
  0
LINE
  5
22A8D
330
747D
100
AcDbEntity
  8
細線
 48
50.0
100
AcDbLine
 10
9031.181314052792
 20
7133.516207141443
 30
0.0
 11
9143.600000000008
 21
7245.934893088659
 31
0.0
  0
LINE
  5
22A8E
330
747D
100
AcDbEntity
  8
細線
 48
50.0
100
AcDbLine
 10
8986.280033447448
 20
7133.516207141446
 30
0.0
 11
9143.600000000008
 21
7290.836173694003
 31
0.0
  0
LINE
  5
22A8F
330
747D
100
AcDbEntity
  8
細線
 48
50.0
100
AcDbLine
 10
8943.600000000008
 20
7135.737454299349
 30
0.0
 11
9141.378752842202
 21
7333.516207141546
 31
0.0
  0
LINE
  5
22A90
330
747D
100
AcDbEntity
  8
細線
 48
50.0
100
AcDbLine
 10
8943.600000000008
 20
7180.638734904697
 30
0.0
 11
9096.477472236859
 21
7333.516207141546
 31
0.0
  0
LINE
  5
22A91
330
747D
100
AcDbEntity
  8
細線
 48
50.0
100
AcDbLine
 10
8943.600000000008
 20
7225.540015510043
 30
0.0
 11
9051.576191631511
 21
7333.516207141546
 31
0.0
  0
LINE
  5
22A92
330
747D
100
AcDbEntity
  8
細線
 48
50.0
100
AcDbLine
 10
8943.600000000008
 20
7270.441296115389
 30
0.0
 11
9006.674911026168
 21
7333.516207141546
 31
0.0
  0
LINE
  5
22A93
330
747D
100
AcDbEntity
  8
細線
 48
50.0
100
AcDbLine
 10
8943.600000000008
 20
7315.342576720734
 30
0.0
 11
8961.773630420823
 21
7333.516207141546
 31
0.0
  0
LINE
  5
22A94
330
747D
100
AcDbEntity
  8
部品1
 48
50.0
100
AcDbLine
 10
8943.600000000008
 20
7333.516207141546
 30
0.0
 11
8943.600000000008
 21
7133.516207141449
 31
0.0
  0
LINE
  5
22A95
330
747D
100
AcDbEntity
  8
細線
 48
50.0
100
AcDbLine
 10
9076.082594658137
 20
7133.51620714144
 30
0.0
 11
9143.600000000008
 21
7201.033612483311
 31
0.0
  0
LINE
  5
22A96
330
747D
100
AcDbEntity
  8
細線
 48
50.0
100
AcDbLine
 10
9120.983875263476
 20
7133.516207141439
 30
0.0
 11
9143.600000000008
 21
7156.132331877967
 31
0.0
  0
LINE
  5
22A97
330
747D
100
AcDbEntity
  8
部品1
 48
50.0
100
AcDbLine
 10
9143.600000000008
 20
7333.516207141546
 30
0.0
 11
9143.600000000011
 21
7133.516207141439
 31
0.0
  0
DIMENSION
  5
22A98
330
747D
100
AcDbEntity
  8
寸法
 48
50.0
100
AcDbDimension
  2
*D43
 10
9338.600000000004
 20
7057.907875696765
 30
0.0
 11
9728.659055118111
 21
7057.907875696765
 31
0.0
 70
   160
 71
     5
 42
119.9999999999963
  3
INABA_S40G
100
AcDbAlignedDimension
 13
9458.6
 23
6978.516207141558
 33
0.0
 14
9338.600000000004
 24
6978.516207141558
 34
0.0
100
AcDbRotatedDimension
1001
ACAD
1000
DSTYLE
1002
{
1070
   341
1005
0
1002
}
  0
CIRCLE
  5
22A9A
330
747D
100
AcDbEntity
  8
部品1
 48
50.0
100
AcDbCircle
 10
9335.600000000008
 20
6571.51620714155
 30
0.0
 40
35.0
  0
LINE
  5
22A9B
330
747D
100
AcDbEntity
  8
センター
 48
2.0
100
AcDbLine
 10
9285.600000000007
 20
6571.51620714155
 30
0.0
 11
9385.600000000009
 21
6571.51620714155
 31
0.0
  0
LINE
  5
22A9C
330
747D
100
AcDbEntity
  8
センター
 48
2.0
100
AcDbLine
 10
9335.600000000008
 20
6621.51620714155
 30
0.0
 11
9335.600000000008
 21
6521.516207141551
 31
0.0
  0
LINE
  5
22A9D
102
{ACAD_REACTORS
330
22F11
102
}
330
747D
100
AcDbEntity
  8
部品1
 48
50.0
100
AcDbLine
 10
9458.6
 20
6978.516207141558
 30
0.0
 11
9338.600000000004
 21
6978.516207141558
 31
0.0
  0
LINE
  5
22A9E
102
{ACAD_REACTORS
330
22F11
102
}
330
747D
100
AcDbEntity
  8
部品1
 48
50.0
100
AcDbLine
 10
9458.6
 20
6778.516207141558
 30
0.0
 11
9338.600000000001
 21
6778.516207141558
 31
0.0
  0
LINE
  5
22AA0
330
747D
100
AcDbEntity
  8
センター
 48
2.0
100
AcDbLine
 10
9335.600000000001
 20
7260.516207141548
 30
0.0
 11
9335.600000000001
 21
7160.516207141547
 31
0.0
  0
LINE
  5
22AA1
330
747D
100
AcDbEntity
  8
センター
 48
2.0
100
AcDbLine
 10
9285.6
 20
7210.516207141548
 30
0.0
 11
9385.600000000001
 21
7210.516207141548
 31
0.0
  0
CIRCLE
  5
22AA2
330
747D
100
AcDbEntity
  8
部品1
 48
50.0
100
AcDbCircle
 10
9335.600000000001
 20
7210.516207141548
 30
0.0
 40
35.0
  0
TEXT
  5
22EB7
330
747D
100
AcDbEntity
  8
文字
 62
     7
 48
50.0
100
AcDbText
 10
14251.2
 20
838.2527270729188
 30
0.0
 40
100.0
  1
～一般型・多雪地型・豪雪地型～
  7
STYLE2
100
AcDbText
  0
LINE
  5
22ED7
330
747D
100
AcDbEntity
  8
部品1
 48
50.0
100
AcDbLine
 10
7108.6
 20
6653.516207141568
 30
0.0
 11
9338.600000000003
 21
6653.516207141568
 31
0.0
  0
LINE
  5
22EF6
102
{ACAD_REACTORS
330
22F11
102
}
330
747D
100
AcDbEntity
  8
部品1
 48
50.0
100
AcDbLine
 10
9338.600000000001
 20
6653.516207141568
 30
0.0
 11
9338.600000000004
 21
7133.51620714155
 31
0.0
  0
LINE
  5
22EF7
102
{ACAD_REACTORS
330
22F2B
102
}
330
747D
100
AcDbEntity
  8
部品1
 48
50.0
100
AcDbLine
 10
7108.6
 20
6653.516207141568
 30
0.0
 11
7108.6
 21
7133.516207141553
 31
0.0
  0
HATCH
  5
22F11
330
747D
100
AcDbEntity
  8
細線
 48
50.0
100
AcDbHatch
 10
0.0
 20
0.0
 30
0.0
210
0.0
220
0.0
230
1.0
  2
LINE
 70
     0
 71
     1
 91
        1
 92
        7
 72
     0
 73
     1
 93
        4
 10
9458.6
 20
6978.516207141558
 10
9338.600000000004
 20
6978.516207141559
 10
9338.600000000003
 20
6778.516207141558
 10
9458.6
 20
6778.516207141558
 97
        4
330
22A9D
330
22EF6
330
22A9E
330
22A77
 75
     0
 76
     1
 52
45.0
 41
10.0
 77
     0
 78
     1
 53
45.0
 43
0.0
 44
0.0
 45
-22.45064030267288
 46
22.45064030267288
 79
     0
 47
4.7268663721754
 98
        1
 10
9388.591720061791
 20
6866.515334016852
  0
HATCH
  5
22F2B
330
747D
100
AcDbEntity
  8
細線
 48
50.0
100
AcDbHatch
 10
0.0
 20
0.0
 30
0.0
210
0.0
220
0.0
230
1.0
  2
LINE
 70
     0
 71
     1
 91
        1
 92
        7
 72
     0
 73
     1
 93
        4
 10
7108.600000000002
 20
6978.516207141558
 10
6988.599999999999
 20
6978.516207141557
 10
6988.599999999999
 20
6778.516207141558
 10
7108.6
 20
6778.516207141558
 97
        4
330
22A46
330
22A32
330
22A47
330
22EF7
 75
     0
 76
     1
 52
45.0
 41
10.0
 77
     0
 78
     1
 53
45.0
 43
0.0
 44
0.0
 45
-22.45064030267288
 46
22.45064030267288
 79
     0
 47
4.7268663721754
 98
        1
 10
7042.812942858304
 20
6833.427277249092
  0
MTEXT
  5
230AF
102
{ACAD_REACTORS
330
230B0
102
}
330
747D
100
AcDbEntity
  8
寸法
 62
     7
 48
50.0
100
AcDbMText
 10
10866.26752676535
 20
2090.196574484854
 30
0.0
 40
120.0
 41
0.8
 71
     4
 72
     1
  1
\A1;C.B
  7
STYLE1
 73
     1
 44
1.0
1001
ACAD
1000
MTEXTBEGIN
1070
    73
1070
     1
1070
    44
1040
1.0
1070
    74
1070
     0
1000
MTEXTEND
  0
LEADER
  5
230B0
330
747D
100
AcDbEntity
  8
寸法
 48
50.0
100
AcDbLeader
  3
INABA_S50G
 73
     0
 74
     0
 75
     1
 40
120.0
 41
185.591883092037
 76
     3
 10
10683.12932013171
 20
1833.050253803716
 30
0.0
 10
10716.26752676535
 20
2005.196574484854
 30
0.0
 10
10841.26752676535
 20
2005.196574484854
 30
0.0
340
230AF
1001
ACAD
1000
DSTYLE
1002
{
1070
    40
1040
1.0
1002
}
  0
LINE
  5
230B1
330
747D
100
AcDbEntity
  8
細線
 48
50.0
100
AcDbLine
 10
10828.78273370812
 20
1477.351338150365
 30
0.0
 11
10822.35195308977
 21
1501.351338150365
 31
0.0
  0
LINE
  5
230B2
330
747D
100
AcDbEntity
  8
細線
 48
50.0
100
AcDbLine
 10
10807.34679831363
 20
1397.351338150365
 30
0.0
 11
10813.77757893198
 21
1373.351338150365
 31
0.0
  0
LINE
  5
230B3
330
747D
100
AcDbEntity
  8
部品1
100
AcDbLine
 10
10872.40490851578
 20
1593.050253803716
 30
0.0
 11
10872.40490851579
 21
1373.351338150366
 31
0.0
  0
LINE
  5
230B4
330
747D
100
AcDbEntity
  8
細線
 48
50.0
100
AcDbLine
 10
10800.91601769527
 20
1373.351338150365
 30
0.0
 11
10835.21351432646
 21
1501.351338150363
 31
0.0
  0
LINE
  5
230B5
330
747D
100
AcDbEntity
  8
細線
 48
50.0
100
AcDbLine
 10
10749.89468876087
 20
1477.351338150365
 30
0.0
 11
10743.46390814252
 21
1501.351338150365
 31
0.0
  0
LINE
  5
230B6
330
747D
100
AcDbEntity
  8
細線
100
AcDbLine
 10
10625.44130301512
 20
1501.351338150368
 30
0.0
 11
10717.14021866846
 21
1593.050253803716
 31
0.0
  0
LINE
  5
230B7
330
747D
100
AcDbEntity
  8
細線
 48
50.0
100
AcDbLine
 10
10671.00664381361
 20
1477.351338150366
 30
0.0
 11
10664.57586319527
 21
1501.351338150366
 31
0.0
  0
LINE
  5
230B8
330
747D
100
AcDbEntity
  8
細線
100
AcDbLine
 10
10659.38242851207
 20
1501.351338150368
 30
0.0
 11
10751.08134416542
 21
1593.050253803716
 31
0.0
  0
LINE
  5
230B9
330
747D
100
AcDbEntity
  8
細線
 48
50.0
100
AcDbLine
 10
10434.34250897188
 20
1477.351338150366
 30
0.0
 11
10427.91172835354
 21
1501.351338150366
 31
0.0
  0
LINE
  5
230BA
330
747D
100
AcDbEntity
  8
細線
 48
50.0
100
AcDbLine
 10
10513.23055391913
 20
1477.351338150366
 30
0.0
 11
10506.79977330078
 21
1501.351338150366
 31
0.0
  0
LINE
  5
230BB
330
747D
100
AcDbEntity
  8
細線
 48
50.0
100
AcDbLine
 10
10592.11859886638
 20
1477.351338150366
 30
0.0
 11
10585.68781824803
 21
1501.351338150366
 31
0.0
  0
LINE
  5
230BC
330
747D
100
AcDbEntity
  8
細線
 48
50.0
100
AcDbLine
 10
10728.45875336638
 20
1397.351338150365
 30
0.0
 11
10734.88953398473
 21
1373.351338150365
 31
0.0
  0
LINE
  5
230BD
330
747D
100
AcDbEntity
  8
細線
 48
50.0
100
AcDbLine
 10
10649.57070841913
 20
1397.351338150366
 30
0.0
 11
10656.00148903749
 21
1373.351338150366
 31
0.0
  0
LINE
  5
230BE
330
747D
100
AcDbEntity
  8
細線
 48
50.0
100
AcDbLine
 10
10491.79461852464
 20
1397.351338150366
 30
0.0
 11
10498.22539914299
 21
1373.351338150366
 31
0.0
  0
LINE
  5
230BF
330
747D
100
AcDbEntity
  8
細線
 48
50.0
100
AcDbLine
 10
10570.68266347189
 20
1397.351338150366
 30
0.0
 11
10577.11344409023
 21
1373.351338150366
 31
0.0
  0
LINE
  5
230C0
330
747D
100
AcDbEntity
  8
細線
 48
50.0
100
AcDbLine
 10
10564.25188285353
 20
1373.351338150366
 30
0.0
 11
10598.54937948472
 21
1501.351338150365
 31
0.0
  0
LINE
  5
230C1
330
747D
100
AcDbEntity
  8
細線
 48
50.0
100
AcDbLine
 10
10485.36383790629
 20
1373.351338150365
 30
0.0
 11
10519.66133453747
 21
1501.351338150365
 31
0.0
  0
LINE
  5
230C2
330
747D
100
AcDbEntity
  8
細線
 48
50.0
100
AcDbLine
 10
10643.13992780078
 20
1373.351338150365
 30
0.0
 11
10677.43742443196
 21
1501.351338150366
 31
0.0
  0
LINE
  5
230C3
330
747D
100
AcDbEntity
  8
細線
100
AcDbLine
 10
10693.32355400902
 20
1501.351338150368
 30
0.0
 11
10785.02246966237
 21
1593.050253803716
 31
0.0
  0
LINE
  5
230C4
330
747D
100
AcDbEntity
  8
細線
 48
50.0
100
AcDbLine
 10
10722.02797274803
 20
1373.351338150363
 30
0.0
 11
10756.32546937921
 21
1501.351338150363
 31
0.0
  0
LINE
  5
230C5
330
747D
100
AcDbEntity
  8
部品1
100
AcDbLine
 10
10752.40490851578
 20
1833.050253803716
 30
0.0
 11
10752.40490851578
 21
1593.050253803716
 31
0.0
  0
LINE
  5
230C6
330
747D
100
AcDbEntity
  8
細線
100
AcDbLine
 10
10738.5672461682
 20
1593.050253803718
 30
0.0
 11
10498.5672461682
 21
1833.050253803716
 31
0.0
  0
LINE
  5
230C7
330
747D
100
AcDbEntity
  8
細線
100
AcDbLine
 10
10687.65555792277
 20
1593.050253803716
 30
0.0
 11
10447.65555792277
 21
1833.050253803716
 31
0.0
  0
LINE
  5
230C8
330
747D
100
AcDbEntity
  8
細線
100
AcDbLine
 10
10299.38242851207
 20
1501.351338150366
 30
0.0
 11
10391.08134416542
 21
1593.050253803716
 31
0.0
  0
LINE
  5
230C9
330
747D
100
AcDbEntity
  8
細線
100
AcDbLine
 10
10265.44130301511
 20
1501.351338150366
 30
0.0
 11
10357.14021866846
 21
1593.050253803716
 31
0.0
  0
LINE
  5
230CA
330
747D
100
AcDbEntity
  8
細線
 48
50.0
100
AcDbLine
 10
10276.56641907738
 20
1477.351338150366
 30
0.0
 11
10270.13563845904
 21
1501.351338150366
 31
0.0
  0
LINE
  5
230CB
330
747D
100
AcDbEntity
  8
細線
 48
50.0
100
AcDbLine
 10
10355.45446402464
 20
1477.351338150366
 30
0.0
 11
10349.02368340629
 21
1501.351338150366
 31
0.0
  0
LINE
  5
230CC
330
747D
100
AcDbEntity
  8
細線
 48
50.0
100
AcDbLine
 10
10197.67837413013
 20
1477.351338150366
 30
0.0
 11
10191.24759351178
 21
1501.351338150366
 31
0.0
  0
LINE
  5
230CD
330
747D
100
AcDbEntity
  8
細線
 48
50.0
100
AcDbLine
 10
10412.90657357739
 20
1397.351338150366
 30
0.0
 11
10419.33735419574
 21
1373.351338150366
 31
0.0
  0
LINE
  5
230CE
330
747D
100
AcDbEntity
  8
細線
 48
50.0
100
AcDbLine
 10
10334.01852863015
 20
1397.351338150366
 30
0.0
 11
10340.44930924849
 21
1373.351338150366
 31
0.0
  0
LINE
  5
230CF
330
747D
100
AcDbEntity
  8
細線
 48
50.0
100
AcDbLine
 10
10176.24243873564
 20
1397.351338150366
 30
0.0
 11
10182.67321935399
 21
1373.351338150366
 31
0.0
  0
LINE
  5
230D0
330
747D
100
AcDbEntity
  8
細線
 48
50.0
100
AcDbLine
 10
10255.13048368289
 20
1397.351338150366
 30
0.0
 11
10261.56126430124
 21
1373.351338150366
 31
0.0
  0
LINE
  5
230D1
330
747D
100
AcDbEntity
  8
部品1
100
AcDbLine
 10
10152.40490851578
 20
1373.351338150363
 30
0.0
 11
10152.40490851578
 21
1593.050253803716
 31
0.0
  0
LINE
  5
230D2
330
747D
100
AcDbEntity
  8
細線
 48
50.0
100
AcDbLine
 10
10169.8116581173
 20
1373.351338150366
 30
0.0
 11
10204.10915474848
 21
1501.351338150366
 31
0.0
  0
LINE
  5
230D3
330
747D
100
AcDbEntity
  8
細線
 48
50.0
100
AcDbLine
 10
10327.58774801179
 20
1373.351338150366
 30
0.0
 11
10361.88524464298
 21
1501.351338150366
 31
0.0
  0
LINE
  5
230D4
330
747D
100
AcDbEntity
  8
細線
 48
50.0
100
AcDbLine
 10
10248.69970306454
 20
1373.351338150365
 30
0.0
 11
10282.99719969573
 21
1501.351338150365
 31
0.0
  0
LINE
  5
230D5
330
747D
100
AcDbEntity
  8
部品1
100
AcDbLine
 10
10272.40490851578
 20
1593.050253803716
 30
0.0
 11
10272.40490851578
 21
1833.050253803716
 31
0.0
  0
TEXT
  5
230D6
330
747D
100
AcDbEntity
  8
部品1
 48
50.0
100
AcDbText
 10
9508.286821757284
 20
1326.250513166407
 30
0.0
 40
80.0
  1
ボルトの出
 50
90.0
  7
STYLE2
100
AcDbText
  0
LINE
  5
230D7
330
747D
100
AcDbEntity
  8
細線
100
AcDbLine
 10
10416.12655394714
 20
1593.050253803716
 30
0.0
 11
10272.40490851578
 21
1736.771899235069
 31
0.0
  0
LWPOLYLINE
  5
230D8
330
747D
100
AcDbEntity
  8
部品1
 48
50.0
100
AcDbPolyline
 90
        2
 70
     0
 43
12.0
 10
9887.793646415397
 20
1593.050253803716
 10
11088.88594954702
 20
1593.050253803716
  0
LINE
  5
230D9
330
747D
100
AcDbEntity
  8
細線
100
AcDbLine
 10
10333.32355400903
 20
1501.351338150366
 30
0.0
 11
10425.02246966237
 21
1593.050253803716
 31
0.0
  0
LINE
  5
230DA
330
747D
100
AcDbEntity
  8
部品1
100
AcDbLine
 10
10152.40490851578
 20
1501.351338150366
 30
0.0
 11
10872.40490851578
 21
1501.351338150369
 31
0.0
  0
LINE
  5
230DB
330
747D
100
AcDbEntity
  8
部品1
100
AcDbLine
 10
10152.40490851578
 20
1373.351338150363
 30
0.0
 11
10872.40490851578
 21
1373.351338150366
 31
0.0
  0
LINE
  5
230DC
330
747D
100
AcDbEntity
  8
細線
 48
50.0
100
AcDbLine
 10
10406.47579295904
 20
1373.351338150366
 30
0.0
 11
10440.77328959023
 21
1501.351338150365
 31
0.0
  0
LINE
  5
230DD
330
747D
100
AcDbEntity
  8
部品1
100
AcDbLine
 10
10272.40490851578
 20
1833.050253803716
 30
0.0
 11
10752.40490851578
 21
1833.050253803716
 31
0.0
  0
LINE
  5
230DE
330
747D
100
AcDbEntity
  8
細線
100
AcDbLine
 10
10467.03824219257
 20
1593.050253803716
 30
0.0
 11
10272.40490851578
 21
1787.683587480499
 31
0.0
  0
LINE
  5
230DF
330
747D
100
AcDbEntity
  8
部品1
100
AcDbLine
 10
11459.14640961282
 20
268.0819514196546
 30
0.0
 11
11459.14640961282
 21
3232.388921004302
 31
0.0
  0
TEXT
  5
230E0
330
747D
100
AcDbEntity
  8
部品1
100
AcDbText
 10
8081.041225404959
 20
3052.836989052874
 30
0.0
 40
120.0
  1
基礎詳細
  7
STYLE2
100
AcDbText
  0
LINE
  5
230E1
330
747D
100
AcDbEntity
  8
部品1
 48
50.0
100
AcDbLine
 10
8396.268976213027
 20
2231.925534912859
 30
0.0
 11
8412.268976213029
 21
2223.925534912859
 31
0.0
  0
LINE
  5
230E2
330
747D
100
AcDbEntity
  8
細線
 48
50.0
100
AcDbLine
 10
8364.268976213029
 20
2183.925534912859
 30
0.0
 11
8364.268976213029
 21
2215.925534912859
 31
0.0
  0
LINE
  5
230E3
330
747D
100
AcDbEntity
  8
部品1
 48
50.0
100
AcDbLine
 10
8412.268976213029
 20
2191.925534912859
 30
0.0
 11
8412.268976213029
 21
2223.925534912859
 31
0.0
  0
LINE
  5
230E4
330
747D
100
AcDbEntity
  8
細線
 48
50.0
100
AcDbLine
 10
8396.268976213027
 20
2183.925534912859
 30
0.0
 11
8396.268976213027
 21
2215.925534912859
 31
0.0
  0
LINE
  5
230E5
330
747D
100
AcDbEntity
  8
部品1
 48
50.0
100
AcDbLine
 10
8396.268976213027
 20
2215.925534912859
 30
0.0
 11
8412.268976213029
 21
2223.925534912859
 31
0.0
  0
LINE
  5
230E6
330
747D
100
AcDbEntity
  8
部品1
 48
50.0
100
AcDbLine
 10
8364.268976213029
 20
2215.925534912859
 30
0.0
 11
8396.268976213027
 21
2215.925534912859
 31
0.0
  0
LINE
  5
230E7
330
747D
100
AcDbEntity
  8
部品1
 48
50.0
100
AcDbLine
 10
8396.268976213027
 20
2183.925534912859
 30
0.0
 11
8412.268976213029
 21
2191.925534912859
 31
0.0
  0
LINE
  5
230E8
330
747D
100
AcDbEntity
  8
部品1
 48
50.0
100
AcDbLine
 10
8364.268976213029
 20
2183.925534912859
 30
0.0
 11
8396.268976213027
 21
2183.925534912859
 31
0.0
  0
ELLIPSE
  5
230E9
330
747D
100
AcDbEntity
  8
細線
 48
50.0
100
AcDbEllipse
 10
8380.268976213029
 20
2223.925534912859
 30
0.0
 11
14.76670786606846
 21
0.0
 31
0.0
210
0.0
220
0.0
230
1.0
 40
0.2071254069489396
 41
0.0
 42
6.283185307179586
  0
LINE
  5
230EA
330
747D
100
AcDbEntity
  8
部品1
 48
50.0
100
AcDbLine
 10
8364.268976213029
 20
2231.925534912859
 30
0.0
 11
8396.268976213027
 21
2231.925534912859
 31
0.0
  0
LINE
  5
230EB
330
747D
100
AcDbEntity
  8
部品1
 48
50.0
100
AcDbLine
 10
8348.268976213029
 20
2191.925534912859
 30
0.0
 11
8348.268976213029
 21
2223.925534912859
 31
0.0
  0
LINE
  5
230EC
330
747D
100
AcDbEntity
  8
部品1
 48
50.0
100
AcDbLine
 10
8348.268976213029
 20
2223.925534912859
 30
0.0
 11
8364.268976213029
 21
2231.925534912859
 31
0.0
  0
LINE
  5
230ED
330
747D
100
AcDbEntity
  8
部品1
 48
50.0
100
AcDbLine
 10
8348.268976213029
 20
2191.925534912859
 30
0.0
 11
8364.268976213029
 21
2183.925534912859
 31
0.0
  0
LINE
  5
230EE
330
747D
100
AcDbEntity
  8
部品1
 48
50.0
100
AcDbLine
 10
8348.268976213029
 20
2223.925534912859
 30
0.0
 11
8364.268976213029
 21
2215.925534912859
 31
0.0
  0
LINE
  5
230EF
330
747D
100
AcDbEntity
  8
部品1
 48
50.0
100
AcDbLine
 10
8420.268976213028
 20
2092.573542247988
 30
0.0
 11
8420.268976213028
 21
2102.173542247989
 31
0.0
  0
ELLIPSE
  5
230F0
330
747D
100
AcDbEntity
  8
部品1
 48
50.0
100
AcDbEllipse
 10
8380.268976213029
 20
2102.173542247989
 30
0.0
 11
18.4
 21
0.0
 31
0.0
210
0.0
220
0.0
230
1.0
 40
0.3478260869565217
 41
0.0
 42
6.283185307179586
  0
ARC
  5
230F1
330
747D
100
AcDbEntity
  8
部品1
100
AcDbCircle
 10
8219.168976213028
 20
1931.150253803717
 30
0.0
 40
2.7
100
AcDbArc
 50
90.0
 51
180.0
  0
LINE
  5
230F2
330
747D
100
AcDbEntity
  8
部品1
100
AcDbLine
 10
8221.868976213027
 20
1944.650253803716
 30
0.0
 11
8264.168976213028
 21
1944.650253803713
 31
0.0
  0
LINE
  5
230F3
330
747D
100
AcDbEntity
  8
部品1
100
AcDbLine
 10
8219.168976213028
 20
1933.850253803716
 30
0.0
 11
8219.168976213028
 21
1941.950253803716
 31
0.0
  0
LINE
  5
230F4
330
747D
100
AcDbEntity
  8
部品1
100
AcDbLine
 10
8219.168976213028
 20
1933.850253803716
 30
0.0
 11
8219.168976213028
 21
1933.850253803716
 31
0.0
  0
ARC
  5
230F5
330
747D
100
AcDbEntity
  8
部品1
100
AcDbCircle
 10
8221.868976213027
 20
1941.950253803716
 30
0.0
 40
2.7
100
AcDbArc
 50
90.0
 51
180.0
  0
ARC
  5
230F6
330
747D
100
AcDbEntity
  8
部品1
100
AcDbCircle
 10
8264.168976213028
 20
1941.950253803713
 30
0.0
 40
2.7
100
AcDbArc
 50
0.0
 51
90.0
  0
LINE
  5
230F7
330
747D
100
AcDbEntity
  8
部品1
 48
50.0
100
AcDbLine
 10
8340.26897621303
 20
2102.173542247989
 30
0.0
 11
8340.26897621303
 21
2092.573542247988
 31
0.0
  0
ELLIPSE
  5
230F8
330
747D
100
AcDbEntity
  8
部品1
 48
50.0
100
AcDbEllipse
 10
8380.268976213029
 20
2092.573542247989
 30
0.0
 11
40.0
 21
0.0
 31
0.0
210
0.0
220
0.0
230
1.0
 40
0.4
 41
3.141592653589793
 42
6.283185307179586
  0
ELLIPSE
  5
230F9
330
747D
100
AcDbEntity
  8
部品1
 48
50.0
100
AcDbEllipse
 10
8380.268976213029
 20
2102.173542247989
 30
0.0
 11
40.0
 21
0.0
 31
0.0
210
0.0
220
0.0
230
1.0
 40
0.4
 41
0.0
 42
6.283185307179586
  0
LINE
  5
230FA
330
747D
100
AcDbEntity
  8
部品1
100
AcDbLine
 10
8374.868976213027
 20
1885.810253803716
 30
0.0
 11
8385.668976213029
 21
1885.810253803716
 31
0.0
  0
LINE
  5
230FB
330
747D
100
AcDbEntity
  8
部品1
100
AcDbLine
 10
8371.268976213029
 20
1882.210253803717
 30
0.0
 11
8389.268976213029
 21
1882.210253803717
 31
0.0
  0
LINE
  5
230FC
330
747D
100
AcDbEntity
  8
細線
100
AcDbLine
 10
8374.868976213031
 20
1842.610253803717
 30
0.0
 11
8374.868976213027
 21
1885.810253803716
 31
0.0
  0
LINE
  5
230FD
330
747D
100
AcDbEntity
  8
細線
100
AcDbLine
 10
8385.668976213029
 20
1842.610253803717
 30
0.0
 11
8385.668976213029
 21
1885.810253803716
 31
0.0
  0
LINE
  5
230FE
330
747D
100
AcDbEntity
  8
部品1
100
AcDbLine
 10
8287.568976213028
 20
1899.910253803717
 30
0.0
 11
8287.568976213028
 21
1882.810253803716
 31
0.0
  0
LINE
  5
230FF
330
747D
100
AcDbEntity
  8
部品1
100
AcDbLine
 10
8321.12897621303
 20
1899.910253803717
 30
0.0
 11
8321.128976213024
 21
1845.310253803716
 31
0.0
  0
ARC
  5
23100
330
747D
100
AcDbEntity
  8
部品1
100
AcDbCircle
 10
8306.468976213031
 20
1887.950253803716
 30
0.0
 40
2.7
100
AcDbArc
 50
0.0
 51
90.0
  0
LINE
  5
23101
330
747D
100
AcDbEntity
  8
部品1
100
AcDbLine
 10
8266.868976213027
 20
1890.650253803716
 30
0.0
 11
8306.468976213031
 21
1890.650253803716
 31
0.0
  0
ARC
  5
23102
330
747D
100
AcDbEntity
  8
部品1
100
AcDbCircle
 10
8306.468976213031
 20
1845.310253803716
 30
0.0
 40
2.7
100
AcDbArc
 50
270.0
 51
0.0
  0
ARC
  5
23103
330
747D
100
AcDbEntity
  8
部品1
100
AcDbCircle
 10
8323.828976213022
 20
1845.310253803716
 30
0.0
 40
2.7
100
AcDbArc
 50
180.0
 51
270.0
  0
LINE
  5
23104
330
747D
100
AcDbEntity
  8
部品1
100
AcDbLine
 10
8294.768976213028
 20
1842.610253803717
 30
0.0
 11
8306.468976213031
 21
1842.610253803717
 31
0.0
  0
LINE
  5
23105
330
747D
100
AcDbEntity
  8
部品1
100
AcDbLine
 10
8309.168976213028
 20
1887.950253803716
 30
0.0
 11
8309.168976213028
 21
1845.310253803716
 31
0.0
  0
ARC
  5
23106
330
747D
100
AcDbEntity
  8
部品1
100
AcDbCircle
 10
8318.428976213029
 20
1899.910253803717
 30
0.0
 40
2.7
100
AcDbArc
 50
0.0
 51
90.0
  0
ARC
  5
23107
330
747D
100
AcDbEntity
  8
部品1
100
AcDbCircle
 10
8290.268976213029
 20
1899.910253803717
 30
0.0
 40
2.7
100
AcDbArc
 50
90.0
 51
180.0
  0
LINE
  5
23108
330
747D
100
AcDbEntity
  8
部品1
100
AcDbLine
 10
8290.268976213029
 20
1902.610253803717
 30
0.0
 11
8318.428976213029
 21
1902.610253803717
 31
0.0
  0
LINE
  5
23109
330
747D
100
AcDbEntity
  8
部品1
100
AcDbLine
 10
8266.868976213027
 20
1941.950253803713
 30
0.0
 11
8266.868976213027
 21
1890.650253803716
 31
0.0
  0
LINE
  5
2310A
330
747D
100
AcDbEntity
  8
部品1
100
AcDbLine
 10
8216.468976213029
 20
1923.050253803716
 30
0.0
 11
8216.468976213029
 21
1931.150253803717
 31
0.0
  0
LINE
  5
2310B
330
747D
100
AcDbEntity
  8
部品1
100
AcDbLine
 10
8323.828976213022
 20
1842.610253803717
 30
0.0
 11
8525.168976213022
 21
1842.610253803717
 31
0.0
  0
LINE
  5
2310C
330
747D
100
AcDbEntity
  8
部品1
100
AcDbLine
 10
8165.168976213029
 20
1845.310253803716
 30
0.0
 11
8165.168976213029
 21
1907.442157506424
 31
0.0
  0
LINE
  5
2310D
330
747D
100
AcDbEntity
  8
部品1
100
AcDbLine
 10
8167.868976213027
 20
1842.610253803717
 30
0.0
 11
8179.568976213023
 21
1842.610253803717
 31
0.0
  0
LINE
  5
2310E
330
747D
100
AcDbEntity
  8
細線
 48
50.0
100
AcDbLine
 10
8158.868976213026
 20
1820.830830103621
 30
0.0
 11
8171.088399913122
 21
1833.050253803716
 31
0.0
  0
ARC
  5
2310F
330
747D
100
AcDbEntity
  8
部品1
100
AcDbCircle
 10
8167.868976213027
 20
1845.310253803716
 30
0.0
 40
2.7
100
AcDbArc
 50
180.0
 51
270.0
  0
LINE
  5
23110
330
747D
100
AcDbEntity
  8
部品1
100
AcDbLine
 10
8167.214130025429
 20
1910.061542256816
 30
0.0
 11
8175.968976213029
 21
1912.250253803716
 31
0.0
  0
ARC
  5
23111
330
747D
100
AcDbEntity
  8
部品1
100
AcDbCircle
 10
8167.868976213027
 20
1907.442157506424
 30
0.0
 40
2.7
100
AcDbArc
 50
104.0362434679067
 51
180.0
  0
ARC
  5
23112
330
747D
100
AcDbEntity
  8
部品1
100
AcDbCircle
 10
8178.668976213028
 20
1920.350253803716
 30
0.0
 40
2.7
100
AcDbArc
 50
90.0
 51
180.0
  0
LINE
  5
23113
330
747D
100
AcDbEntity
  8
部品1
100
AcDbLine
 10
8175.968976213029
 20
1912.250253803716
 30
0.0
 11
8175.968976213029
 21
1920.350253803716
 31
0.0
  0
LINE
  5
23114
330
747D
100
AcDbEntity
  8
部品1
 48
50.0
100
AcDbLine
 10
8158.868976213026
 20
1833.050253803716
 30
0.0
 11
8572.868976213031
 21
1833.050253803716
 31
0.0
  0
LINE
  5
23115
330
747D
100
AcDbEntity
  8
細線
 48
50.0
100
AcDbLine
 10
8158.868976213026
 20
1766.949293377206
 30
0.0
 11
8224.969936639537
 21
1833.050253803716
 31
0.0
  0
LINE
  5
23116
330
747D
100
AcDbEntity
  8
細線
 48
50.0
100
AcDbLine
 10
8158.868976213026
 20
1793.890061740414
 30
0.0
 11
8198.029168276335
 21
1833.050253803716
 31
0.0
  0
LINE
  5
23117
330
747D
100
AcDbEntity
  8
部品1
100
AcDbLine
 10
8178.668976213028
 20
1923.050253803716
 30
0.0
 11
8216.468976213029
 21
1923.050253803716
 31
0.0
  0
LINE
  5
23118
330
747D
100
AcDbEntity
  8
部品1
 48
50.0
100
AcDbLine
 10
8572.868976213028
 20
1289.050253803716
 30
0.0
 11
8700.868976213028
 21
1289.050253803716
 31
0.0
  0
LINE
  5
23119
330
747D
100
AcDbEntity
  8
部品1
100
AcDbLine
 10
8389.268976213029
 20
1608.050253803716
 30
0.0
 11
8425.268976213029
 21
1608.050253803716
 31
0.0
  0
LINE
  5
2311A
330
747D
100
AcDbEntity
  8
部品1
100
AcDbLine
 10
8389.268976213029
 20
1590.050253803716
 30
0.0
 11
8425.268976213029
 21
1590.050253803716
 31
0.0
  0
ARC
  5
2311B
330
747D
100
AcDbEntity
  8
部品1
100
AcDbCircle
 10
8389.268976213029
 20
1608.050253803716
 30
0.0
 40
18.0
100
AcDbArc
 50
180.0
 51
270.0
  0
LINE
  5
2311C
330
747D
100
AcDbEntity
  8
部品1
100
AcDbLine
 10
8425.268976213029
 20
1590.050253803716
 30
0.0
 11
8425.268976213029
 21
1608.050253803716
 31
0.0
  0
LINE
  5
2311D
330
747D
100
AcDbEntity
  8
部品1
100
AcDbLine
 10
8443.268976213028
 20
1509.050253803714
 30
0.0
 11
8317.268976213021
 21
1509.050253803714
 31
0.0
  0
LINE
  5
2311E
330
747D
100
AcDbEntity
  8
細線
 48
50.0
100
AcDbLine
 10
8737.246801405364
 20
1025.050253803714
 30
0.0
 11
8730.816020787017
 21
1049.050253803714
 31
0.0
  0
LINE
  5
2311F
330
747D
100
AcDbEntity
  8
細線
 48
50.0
100
AcDbLine
 10
8658.358756458119
 20
1025.050253803714
 30
0.0
 11
8651.927975839772
 21
1049.050253803714
 31
0.0
  0
LINE
  5
23120
330
747D
100
AcDbEntity
  8
細線
 48
50.0
100
AcDbLine
 10
8579.470711510861
 20
1025.050253803716
 30
0.0
 11
8573.039930892512
 21
1049.050253803716
 31
0.0
  0
LINE
  5
23121
330
747D
100
AcDbEntity
  8
細線
 48
50.0
100
AcDbLine
 10
8715.810866010874
 20
945.0502538037143
 30
0.0
 11
8722.241646629221
 21
921.0502538037145
 31
0.0
  0
LINE
  5
23122
330
747D
100
AcDbEntity
  8
細線
 48
50.0
100
AcDbLine
 10
8636.922821063627
 20
945.0502538037143
 30
0.0
 11
8643.353601681974
 21
921.0502538037145
 31
0.0
  0
LINE
  5
23123
330
747D
100
AcDbEntity
  8
細線
 48
50.0
100
AcDbLine
 10
8558.034776116379
 20
945.0502538037163
 30
0.0
 11
8564.465556734736
 21
921.0502538037163
 31
0.0
  0
LINE
  5
23124
330
747D
100
AcDbEntity
  8
細線
 48
50.0
100
AcDbLine
 10
8630.492040445279
 20
921.0502538037134
 30
0.0
 11
8664.789537076462
 21
1049.050253803713
 31
0.0
  0
LINE
  5
23125
330
747D
100
AcDbEntity
  8
細線
 48
50.0
100
AcDbLine
 10
8551.60399549803
 20
921.0502538037145
 30
0.0
 11
8585.901492129204
 21
1049.050253803716
 31
0.0
  0
LINE
  5
23126
330
747D
100
AcDbEntity
  8
細線
 48
50.0
100
AcDbLine
 10
8709.380085392522
 20
921.0502538037145
 30
0.0
 11
8743.677582023709
 21
1049.050253803713
 31
0.0
  0
LINE
  5
23127
330
747D
100
AcDbEntity
  8
部品1
 48
50.0
100
AcDbLine
 10
8780.868976213032
 20
1049.050253803716
 30
0.0
 11
8780.868976213032
 21
921.0502538037163
 31
0.0
  0
LINE
  5
23128
330
747D
100
AcDbEntity
  8
細線
 48
50.0
100
AcDbLine
 10
8500.582666563623
 20
1025.050253803716
 30
0.0
 11
8494.151885945276
 21
1049.050253803716
 31
0.0
  0
LINE
  5
23129
330
747D
100
AcDbEntity
  8
細線
 48
50.0
100
AcDbLine
 10
8421.694621616378
 20
1025.050253803716
 30
0.0
 11
8415.263840998029
 21
1049.050253803716
 31
0.0
  0
LINE
  5
2312A
330
747D
100
AcDbEntity
  8
細線
 48
50.0
100
AcDbLine
 10
8263.918531721882
 20
1025.050253803716
 30
0.0
 11
8257.487751103537
 21
1049.050253803716
 31
0.0
  0
LINE
  5
2312B
330
747D
100
AcDbEntity
  8
細線
 48
50.0
100
AcDbLine
 10
8342.806576669131
 20
1025.050253803716
 30
0.0
 11
8336.375796050782
 21
1049.050253803716
 31
0.0
  0
LINE
  5
2312C
330
747D
100
AcDbEntity
  8
細線
 48
50.0
100
AcDbLine
 10
8400.258686221889
 20
945.0502538037163
 30
0.0
 11
8406.689466840235
 21
921.0502538037163
 31
0.0
  0
LINE
  5
2312D
330
747D
100
AcDbEntity
  8
細線
 48
50.0
100
AcDbLine
 10
8479.146731169134
 20
945.0502538037163
 30
0.0
 11
8485.57751178748
 21
921.0502538037163
 31
0.0
  0
LINE
  5
2312E
330
747D
100
AcDbEntity
  8
細線
 48
50.0
100
AcDbLine
 10
8242.482596327395
 20
945.0502538037163
 30
0.0
 11
8248.913376945742
 21
921.0502538037163
 31
0.0
  0
LINE
  5
2312F
330
747D
100
AcDbEntity
  8
細線
 48
50.0
100
AcDbLine
 10
8321.370641274642
 20
945.0502538037163
 30
0.0
 11
8327.80142189299
 21
921.0502538037163
 31
0.0
  0
LINE
  5
23130
330
747D
100
AcDbEntity
  8
細線
 48
50.0
100
AcDbLine
 10
8472.715950550782
 20
921.0502538037163
 30
0.0
 11
8507.013447181966
 21
1049.050253803714
 31
0.0
  0
LINE
  5
23131
330
747D
100
AcDbEntity
  8
細線
 48
50.0
100
AcDbLine
 10
8314.93986065629
 20
921.0502538037163
 30
0.0
 11
8349.237357287476
 21
1049.050253803714
 31
0.0
  0
LINE
  5
23132
330
747D
100
AcDbEntity
  8
細線
 48
50.0
100
AcDbLine
 10
8236.051815709043
 20
921.0502538037163
 30
0.0
 11
8270.349312340226
 21
1049.050253803716
 31
0.0
  0
LINE
  5
23133
330
747D
100
AcDbEntity
  8
細線
 48
50.0
100
AcDbLine
 10
8393.82790560354
 20
921.0502538037145
 30
0.0
 11
8428.125402234719
 21
1049.050253803714
 31
0.0
  0
LINE
  5
23134
330
747D
100
AcDbEntity
  8
細線
 48
50.0
100
AcDbLine
 10
8518.600671167837
 20
1049.050253803716
 30
0.0
 11
8700.868976213028
 21
1231.318558848912
 31
0.0
  0
LINE
  5
23135
330
747D
100
AcDbEntity
  8
部品1
 48
50.0
100
AcDbLine
 10
8700.868976213028
 20
1289.050253803716
 30
0.0
 11
8700.868976213028
 21
1049.050253803716
 31
0.0
  0
LINE
  5
23136
330
747D
100
AcDbEntity
  8
細線
 48
50.0
100
AcDbLine
 10
8491.659902804633
 20
1049.050253803716
 30
0.0
 11
8700.868976213028
 21
1258.259327212109
 31
0.0
  0
LINE
  5
23137
330
747D
100
AcDbEntity
  8
細線
 48
50.0
100
AcDbLine
 10
8464.719134441422
 20
1049.050253803716
 30
0.0
 11
8700.868976213028
 21
1285.200095575325
 31
0.0
  0
LINE
  5
23138
330
747D
100
AcDbEntity
  8
細線
 48
50.0
100
AcDbLine
 10
8249.192987535762
 20
1049.050253803716
 30
0.0
 11
8572.868976213028
 21
1372.726242480982
 31
0.0
  0
LINE
  5
23139
330
747D
100
AcDbEntity
  8
細線
 48
50.0
100
AcDbLine
 10
8303.074524262177
 20
1049.050253803716
 30
0.0
 11
8572.868976213028
 21
1318.844705754574
 31
0.0
  0
LINE
  5
2313A
330
747D
100
AcDbEntity
  8
細線
 48
50.0
100
AcDbLine
 10
8276.133755898973
 20
1049.050253803716
 30
0.0
 11
8572.868976213028
 21
1345.785474117769
 31
0.0
  0
LINE
  5
2313B
330
747D
100
AcDbEntity
  8
細線
 48
50.0
100
AcDbLine
 10
8030.868976213024
 20
1261.778536292302
 30
0.0
 11
8058.140693724443
 21
1289.050253803716
 31
0.0
  0
LINE
  5
2313C
330
747D
100
AcDbEntity
  8
部品1
 48
50.0
100
AcDbLine
 10
8030.868976213026
 20
1289.050253803716
 30
0.0
 11
8158.868976213026
 21
1289.050253803716
 31
0.0
  0
LINE
  5
2313D
330
747D
100
AcDbEntity
  8
細線
 48
50.0
100
AcDbLine
 10
8030.868976213024
 20
1234.837767929091
 30
0.0
 11
8085.081462087652
 21
1289.050253803716
 31
0.0
  0
LWPOLYLINE
  5
2313E
330
747D
100
AcDbEntity
  8
部品1
 48
50.0
100
AcDbPolyline
 90
        2
 70
     0
 43
8.0
 10
7744.729074380072
 20
1593.050253803717
 10
8158.868976213026
 20
1593.050253803717
  0
LINE
  5
2313F
330
747D
100
AcDbEntity
  8
細線
 48
50.0
100
AcDbLine
 10
8106.142441827381
 20
1025.050253803716
 30
0.0
 11
8099.711661209033
 21
1049.050253803716
 31
0.0
  0
LINE
  5
23140
330
747D
100
AcDbEntity
  8
細線
 48
50.0
100
AcDbLine
 10
8185.030486774634
 20
1025.050253803716
 30
0.0
 11
8178.599706156285
 21
1049.050253803716
 31
0.0
  0
LINE
  5
23141
330
747D
100
AcDbEntity
  8
細線
 48
50.0
100
AcDbLine
 10
8027.254396880129
 20
1025.050253803716
 30
0.0
 11
8020.823616261784
 21
1049.050253803716
 31
0.0
  0
LINE
  5
23142
330
747D
100
AcDbEntity
  8
細線
 48
50.0
100
AcDbLine
 10
7950.868976213027
 20
1034.390174769496
 30
0.0
 11
7954.797132551222
 21
1049.050253803716
 31
0.0
  0
LINE
  5
23143
330
747D
100
AcDbEntity
  8
細線
 48
50.0
100
AcDbLine
 10
8084.706506432892
 20
945.0502538037163
 30
0.0
 11
8091.137287051239
 21
921.0502538037163
 31
0.0
  0
LINE
  5
23144
330
747D
100
AcDbEntity
  8
細線
 48
50.0
100
AcDbLine
 10
8163.594551380143
 20
945.0502538037163
 30
0.0
 11
8170.025331998491
 21
921.0502538037163
 31
0.0
  0
LINE
  5
23145
330
747D
100
AcDbEntity
  8
細線
 48
50.0
100
AcDbLine
 10
8005.81846148564
 20
945.0502538037163
 30
0.0
 11
8012.249242103987
 21
921.0502538037163
 31
0.0
  0
LINE
  5
23146
330
747D
100
AcDbEntity
  8
細線
 48
50.0
100
AcDbLine
 10
8157.163770761792
 20
921.0502538037145
 30
0.0
 11
8191.461267392973
 21
1049.050253803714
 31
0.0
  0
LINE
  5
23147
330
747D
100
AcDbEntity
  8
細線
 48
50.0
100
AcDbLine
 10
7999.387680867286
 20
921.0502538037145
 30
0.0
 11
8033.685177498469
 21
1049.050253803714
 31
0.0
  0
LINE
  5
23148
330
747D
100
AcDbEntity
  8
部品1
 48
50.0
100
AcDbLine
 10
7950.86897621303
 20
921.0502538037163
 30
0.0
 11
7950.86897621303
 21
1049.050253803716
 31
0.0
  0
LINE
  5
23149
330
747D
100
AcDbEntity
  8
細線
 48
50.0
100
AcDbLine
 10
8078.275725814545
 20
921.0502538037163
 30
0.0
 11
8112.573222445728
 21
1049.050253803716
 31
0.0
  0
LINE
  5
2314A
330
747D
100
AcDbEntity
  8
部品1
 48
50.0
100
AcDbLine
 10
8030.868976213026
 20
1049.050253803716
 30
0.0
 11
8030.868976213026
 21
1289.050253803716
 31
0.0
  0
LINE
  5
2314B
330
747D
100
AcDbEntity
  8
細線
 48
50.0
100
AcDbLine
 10
8030.868976213024
 20
1207.896999565887
 30
0.0
 11
8112.022230450858
 21
1289.050253803716
 31
0.0
  0
LINE
  5
2314C
330
747D
100
AcDbEntity
  8
部品1
 48
50.0
100
AcDbLine
 10
8780.868976213032
 20
921.0502538037163
 30
0.0
 11
7950.86897621303
 21
921.0502538037163
 31
0.0
  0
LINE
  5
2314D
330
747D
100
AcDbEntity
  8
部品1
 48
50.0
100
AcDbLine
 10
8780.868976213032
 20
1049.050253803716
 30
0.0
 11
7950.86897621303
 21
1049.050253803716
 31
0.0
  0
LINE
  5
2314E
330
747D
100
AcDbEntity
  8
細線
 48
50.0
100
AcDbLine
 10
8033.666840630102
 20
1049.050253803716
 30
0.0
 11
8572.868976213028
 21
1588.252389386642
 31
0.0
  0
LINE
  5
2314F
330
747D
100
AcDbEntity
  8
細線
 48
50.0
100
AcDbLine
 10
8060.607608993313
 20
1049.050253803716
 30
0.0
 11
8572.868976213031
 21
1561.31162102343
 31
0.0
  0
LINE
  5
23150
330
747D
100
AcDbEntity
  8
細線
 48
50.0
100
AcDbLine
 10
8087.548377356517
 20
1049.050253803716
 30
0.0
 11
8572.868976213028
 21
1534.370852660224
 31
0.0
  0
LINE
  5
23151
330
747D
100
AcDbEntity
  8
細線
 48
50.0
100
AcDbLine
 10
8158.868976213026
 20
1389.778536292302
 30
0.0
 11
8317.268976213021
 21
1548.178536292297
 31
0.0
  0
LINE
  5
23152
330
747D
100
AcDbEntity
  8
細線
 48
50.0
100
AcDbLine
 10
8158.868976213026
 20
1335.896999565887
 30
0.0
 11
8332.022230450865
 21
1509.050253803714
 31
0.0
  0
LINE
  5
23153
330
747D
100
AcDbEntity
  8
細線
 48
50.0
100
AcDbLine
 10
8158.868976213026
 20
1362.837767929094
 30
0.0
 11
8317.268976213021
 21
1521.237767929083
 31
0.0
  0
LINE
  5
23154
330
747D
100
AcDbEntity
  8
部品1
100
AcDbLine
 10
8317.268976213021
 20
1509.050253803716
 30
0.0
 11
8317.268976213028
 21
1833.050253803716
 31
0.0
  0
LINE
  5
23155
330
747D
100
AcDbEntity
  8
部品1
100
AcDbLine
 10
8443.268976213028
 20
1509.050253803716
 30
0.0
 11
8443.268976213028
 21
1833.050253803716
 31
0.0
  0
LINE
  5
23156
330
747D
100
AcDbEntity
  8
細線
 48
50.0
100
AcDbLine
 10
8443.268976213028
 20
1647.237767929087
 30
0.0
 11
8572.868976213028
 21
1776.837767929084
 31
0.0
  0
LINE
  5
23157
330
747D
100
AcDbEntity
  8
細線
 48
50.0
100
AcDbLine
 10
8443.268976213028
 20
1620.296999565875
 30
0.0
 11
8572.868976213028
 21
1749.896999565866
 31
0.0
  0
LINE
  5
23158
330
747D
100
AcDbEntity
  8
部品1
100
AcDbLine
 10
8371.268976213029
 20
1608.050253803716
 30
0.0
 11
8371.268976213025
 21
1882.210253803717
 31
0.0
  0
LINE
  5
23159
330
747D
100
AcDbEntity
  8
部品1
100
AcDbLine
 10
8389.268976213029
 20
1608.050253803716
 30
0.0
 11
8389.268976213024
 21
1882.210253803717
 31
0.0
  0
TEXT
  5
2315A
330
747D
100
AcDbEntity
  8
部品1
 48
50.0
100
AcDbText
 10
7744.729074380072
 20
1604.289246086971
 30
0.0
 40
80.0
  1
▽G.L
  7
STYLE2
100
AcDbText
  0
LINE
  5
2315B
330
747D
100
AcDbEntity
  8
細線
 48
50.0
100
AcDbLine
 10
8158.868976213026
 20
1551.423146471546
 30
0.0
 11
8317.268976213025
 21
1709.823146471539
 31
0.0
  0
LINE
  5
2315C
330
747D
100
AcDbEntity
  8
細線
 48
50.0
100
AcDbLine
 10
8158.868976213026
 20
1578.363914834754
 30
0.0
 11
8317.268976213027
 21
1736.763914834751
 31
0.0
  0
LINE
  5
2315D
330
747D
100
AcDbEntity
  8
細線
 48
50.0
100
AcDbLine
 10
8158.868976213026
 20
1605.304683197962
 30
0.0
 11
8317.268976213027
 21
1763.704683197959
 31
0.0
  0
LINE
  5
2315E
330
747D
100
AcDbEntity
  8
部品1
 48
50.0
100
AcDbLine
 10
8158.868976213026
 20
1289.050253803716
 30
0.0
 11
8158.868976213026
 21
1833.050253803716
 31
0.0
  0
LINE
  5
2315F
330
747D
100
AcDbEntity
  8
部品1
100
AcDbLine
 10
8572.868976213028
 20
1289.050253803716
 30
0.0
 11
8572.868976213028
 21
1833.050253803716
 31
0.0
  0
LINE
  5
23160
330
747D
100
AcDbEntity
  8
細線
 48
50.0
100
AcDbLine
 10
8443.268976213028
 20
1674.178536292304
 30
0.0
 11
8572.868976213028
 21
1803.778536292303
 31
0.0
  0
LINE
  5
23161
330
747D
100
AcDbEntity
  8
細線
 48
50.0
100
AcDbLine
 10
6567.322085538305
 20
1713.797105700432
 30
0.0
 11
6650.829663035835
 21
1797.304683197962
 31
0.0
  0
LINE
  5
23162
330
747D
100
AcDbEntity
  8
細線
 48
50.0
100
AcDbLine
 10
6578.382370301821
 20
1697.916622100738
 30
0.0
 11
6650.829663035835
 21
1770.363914834754
 31
0.0
  0
LINE
  5
23163
330
747D
100
AcDbEntity
  8
細線
 48
50.0
100
AcDbLine
 10
6458.829663035834
 20
1820.830830103621
 30
0.0
 11
6471.04908673593
 21
1833.050253803716
 31
0.0
  0
LINE
  5
23164
330
747D
100
AcDbEntity
  8
細線
 48
50.0
100
AcDbLine
 10
6458.829663035834
 20
1766.949293377206
 30
0.0
 11
6524.930623462343
 21
1833.050253803716
 31
0.0
  0
LINE
  5
23165
330
747D
100
AcDbEntity
  8
細線
 48
50.0
100
AcDbLine
 10
6458.829663035834
 20
1793.890061740414
 30
0.0
 11
6497.989855099138
 21
1833.050253803716
 31
0.0
  0
LINE
  5
23166
330
747D
100
AcDbEntity
  8
部品1
 48
50.0
100
AcDbLine
 10
6458.829663035834
 20
1833.050253803716
 30
0.0
 11
6650.829663035835
 21
1833.050253803716
 31
0.0
  0
DIMENSION
  5
23167
330
747D
100
AcDbEntity
  8
寸法
 48
50.0
100
AcDbDimension
  2
*D55
 10
6458.829663035834
 20
2252.718061720097
 30
0.0
 11
6554.829663035834
 21
2252.718061720097
 31
0.0
 70
   160
  1
120\P200\P280
 71
     5
 42
192.0
  3
INABA_S40G
100
AcDbAlignedDimension
 13
6650.829663035833
 23
1833.050253803716
 33
0.0
 14
6458.829663035834
 24
1833.050253803716
 34
0.0
100
AcDbRotatedDimension
1001
ACAD
1000
DSTYLE
1002
{
1070
   341
1005
0
1002
}
  0
MTEXT
  5
23168
102
{ACAD_REACTORS
330
231BD
102
}
330
747D
100
AcDbEntity
  8
寸法
 62
     7
 48
50.0
100
AcDbMText
 10
6892.568118897085
 20
871.7011680715632
 30
0.0
 40
80.0
 41
0.8
 71
     4
 72
     1
  1
\A1;D10@300
  7
STYLE2
 73
     1
 44
1.0
1001
ACAD
1000
MTEXTBEGIN
1070
    73
1070
     1
1070
    44
1040
1.0
1070
    74
1070
     0
1000
MTEXTEND
  0
LINE
  5
23169
330
747D
100
AcDbEntity
  8
細線
 48
50.0
100
AcDbLine
 10
6578.82966303584
 20
1482.837767929097
 30
0.0
 11
6650.829663035827
 21
1554.837767929091
 31
0.0
  0
LINE
  5
2316A
330
747D
100
AcDbEntity
  8
細線
 48
50.0
100
AcDbLine
 10
6578.829663035834
 20
1509.778536292302
 30
0.0
 11
6650.829663035835
 21
1581.778536292302
 31
0.0
  0
LINE
  5
2316B
330
747D
100
AcDbEntity
  8
細線
 48
50.0
100
AcDbLine
 10
6578.82966303584
 20
1240.370852660227
 30
0.0
 11
6650.829663035827
 21
1312.370852660228
 31
0.0
  0
LINE
  5
2316C
330
747D
100
AcDbEntity
  8
細線
 48
50.0
100
AcDbLine
 10
6578.82966303584
 20
1294.252389386645
 30
0.0
 11
6650.829663035827
 21
1366.252389386642
 31
0.0
  0
LINE
  5
2316D
330
747D
100
AcDbEntity
  8
細線
 48
50.0
100
AcDbLine
 10
6578.82966303584
 20
1267.311621023437
 30
0.0
 11
6650.829663035827
 21
1339.311621023432
 31
0.0
  0
LINE
  5
2316E
330
747D
100
AcDbEntity
  8
部品1
 48
50.0
100
AcDbLine
 10
6650.829663035835
 20
1289.050253803716
 30
0.0
 11
6778.829663035835
 21
1289.050253803716
 31
0.0
  0
LINE
  5
2316F
330
747D
100
AcDbEntity
  8
細線
 48
50.0
100
AcDbLine
 10
6578.82966303584
 20
1455.896999565887
 30
0.0
 11
6650.829663035827
 21
1527.896999565887
 31
0.0
  0
LINE
  5
23170
330
747D
100
AcDbEntity
  8
部品1
 48
50.0
100
AcDbLine
 10
6546.829663035835
 20
1635.177468500838
 30
0.0
 11
6546.829663035835
 21
1693.304683197961
 31
0.0
  0
LINE
  5
23171
330
747D
100
AcDbEntity
  8
細線
 48
50.0
100
AcDbLine
 10
6458.829663035834
 20
1605.304683197962
 30
0.0
 11
6530.829663035834
 21
1677.304683197962
 31
0.0
  0
LINE
  5
23172
330
747D
100
AcDbEntity
  8
部品1
 48
50.0
100
AcDbLine
 10
6530.829663035834
 20
1635.177468500842
 30
0.0
 11
6530.829663035834
 21
1693.304683197961
 31
0.0
  0
LINE
  5
23173
330
747D
100
AcDbEntity
  8
細線
 48
50.0
100
AcDbLine
 10
6458.829663035834
 20
1578.363914834754
 30
0.0
 11
6530.829663035834
 21
1650.363914834754
 31
0.0
  0
LINE
  5
23174
330
747D
100
AcDbEntity
  8
細線
 48
50.0
100
AcDbLine
 10
6458.829663035834
 20
1551.423146471546
 30
0.0
 11
6542.583985065128
 21
1635.177468500838
 31
0.0
  0
LINE
  5
23175
330
747D
100
AcDbEntity
  8
部品1
 48
50.0
100
AcDbLine
 10
6546.829663035835
 20
1635.177468500838
 30
0.0
 11
6530.829663035834
 21
1635.177468500842
 31
0.0
  0
LINE
  5
23176
330
747D
100
AcDbEntity
  8
細線
 48
50.0
100
AcDbLine
 10
6330.829663035827
 20
1261.778536292302
 30
0.0
 11
6358.101380547249
 21
1289.050253803716
 31
0.0
  0
LINE
  5
23177
330
747D
100
AcDbEntity
  8
細線
 48
50.0
100
AcDbLine
 10
6330.829663035827
 20
1234.837767929091
 30
0.0
 11
6385.042148910459
 21
1289.050253803716
 31
0.0
  0
LINE
  5
23178
330
747D
100
AcDbEntity
  8
部品1
 48
50.0
100
AcDbLine
 10
6330.829663035835
 20
1289.050253803716
 30
0.0
 11
6458.829663035834
 21
1289.050253803716
 31
0.0
  0
LINE
  5
23179
330
747D
100
AcDbEntity
  8
細線
 48
50.0
100
AcDbLine
 10
6546.829663035835
 20
1666.363914834754
 30
0.0
 11
6562.829663035834
 21
1682.363914834754
 31
0.0
  0
LINE
  5
2317A
330
747D
100
AcDbEntity
  8
細線
 48
50.0
100
AcDbLine
 10
6546.829663035835
 20
1639.423146471546
 30
0.0
 11
6562.829663035834
 21
1655.423146471546
 31
0.0
  0
LINE
  5
2317B
330
747D
100
AcDbEntity
  8
細線
 48
50.0
100
AcDbLine
 10
6458.829663035834
 20
1335.896999565887
 30
0.0
 11
6562.829663035841
 21
1439.896999565887
 31
0.0
  0
LINE
  5
2317C
330
747D
100
AcDbEntity
  8
細線
 48
50.0
100
AcDbLine
 10
6458.829663035834
 20
1389.778536292302
 30
0.0
 11
6562.829663035834
 21
1493.778536292302
 31
0.0
  0
LINE
  5
2317D
330
747D
100
AcDbEntity
  8
細線
 48
50.0
100
AcDbLine
 10
6458.829663035834
 20
1362.837767929094
 30
0.0
 11
6562.829663035841
 21
1466.837767929097
 31
0.0
  0
LINE
  5
2317E
330
747D
100
AcDbEntity
  8
細線
 48
50.0
100
AcDbLine
 10
6721.655308439181
 20
1025.050253803716
 30
0.0
 11
6715.224527820836
 21
1049.050253803716
 31
0.0
  0
LINE
  5
2317F
330
747D
100
AcDbEntity
  8
細線
 48
50.0
100
AcDbLine
 10
6764.679821264228
 20
1049.050253803716
 30
0.0
 11
6778.829663035835
 21
1063.200095575323
 31
0.0
  0
LINE
  5
23180
330
747D
100
AcDbEntity
  8
細線
 48
50.0
100
AcDbLine
 10
6800.543353386429
 20
1025.050253803716
 30
0.0
 11
6794.112572768082
 21
1049.050253803716
 31
0.0
  0
LINE
  5
23181
330
747D
100
AcDbEntity
  8
部品1
 48
50.0
100
AcDbLine
 10
6722.829663035835
 20
1161.050253803716
 30
0.0
 11
6722.829663035835
 21
1145.050253803716
 31
0.0
  0
LINE
  5
23182
330
747D
100
AcDbEntity
  8
細線
 48
50.0
100
AcDbLine
 10
6603.035211084982
 20
1049.050253803716
 30
0.0
 11
6699.036098930119
 21
1145.051141648855
 31
0.0
  0
LINE
  5
23183
330
747D
100
AcDbEntity
  8
細線
 48
50.0
100
AcDbLine
 10
6576.094442721778
 20
1049.050253803716
 30
0.0
 11
6672.094442721778
 21
1145.050253803716
 31
0.0
  0
LINE
  5
23184
330
747D
100
AcDbEntity
  8
細線
 48
50.0
100
AcDbLine
 10
6642.767263491936
 20
1025.050253803716
 30
0.0
 11
6636.336482873591
 21
1049.050253803716
 31
0.0
  0
LINE
  5
23185
330
747D
100
AcDbEntity
  8
細線
 48
50.0
100
AcDbLine
 10
6563.879218544691
 20
1025.050253803716
 30
0.0
 11
6557.448437926344
 21
1049.050253803716
 31
0.0
  0
ARC
  5
23186
330
747D
100
AcDbEntity
  8
部品1
 48
50.0
100
AcDbCircle
 10
6554.829663035835
 20
1169.050253803716
 30
0.0
 40
24.0
100
AcDbArc
 50
340.5287793655103
 51
0.0
  0
CIRCLE
  5
23187
330
747D
100
AcDbEntity
  8
部品1
 48
50.0
100
AcDbCircle
 10
6682.829663035835
 20
1169.050253803716
 30
0.0
 40
8.0
  0
LINE
  5
23188
330
747D
100
AcDbEntity
  8
細線
 48
50.0
100
AcDbLine
 10
6715.035211084982
 20
1161.050253803716
 30
0.0
 11
6778.829663035835
 21
1224.844705754567
 31
0.0
  0
LINE
  5
23189
330
747D
100
AcDbEntity
  8
細線
 48
50.0
100
AcDbLine
 10
6851.564682320837
 20
921.0502538037145
 30
0.0
 11
6858.829663035834
 21
948.1635309481044
 31
0.0
  0
LINE
  5
2318A
330
747D
100
AcDbEntity
  8
細線
 48
50.0
100
AcDbLine
 10
6857.995462939186
 20
945.0502538037163
 30
0.0
 11
6858.829663035834
 21
941.9369766593517
 31
0.0
  0
LINE
  5
2318B
330
747D
100
AcDbEntity
  8
細線
 48
50.0
100
AcDbLine
 10
6779.107417991939
 20
945.0502538037163
 30
0.0
 11
6785.538198610287
 21
921.0502538037163
 31
0.0
  0
LINE
  5
2318C
330
747D
100
AcDbEntity
  8
細線
 48
50.0
100
AcDbLine
 10
6621.331328097447
 20
945.0502538037163
 30
0.0
 11
6627.762108715794
 21
921.0502538037163
 31
0.0
  0
LINE
  5
2318D
330
747D
100
AcDbEntity
  8
細線
 48
50.0
100
AcDbLine
 10
6700.219373044692
 20
945.0502538037163
 30
0.0
 11
6706.65015366304
 21
921.0502538037163
 31
0.0
  0
LINE
  5
2318E
330
747D
100
AcDbEntity
  8
細線
 48
50.0
100
AcDbLine
 10
6693.788592426343
 20
921.0502538037145
 30
0.0
 11
6728.086089057528
 21
1049.050253803714
 31
0.0
  0
LINE
  5
2318F
330
747D
100
AcDbEntity
  8
細線
 48
50.0
100
AcDbLine
 10
6614.900547479094
 20
921.0502538037163
 30
0.0
 11
6649.198044110281
 21
1049.050253803714
 31
0.0
  0
LINE
  5
23190
330
747D
100
AcDbEntity
  8
細線
 48
50.0
100
AcDbLine
 10
6772.676637373589
 20
921.0502538037163
 30
0.0
 11
6806.974134004772
 21
1049.050253803714
 31
0.0
  0
LINE
  5
23191
330
747D
100
AcDbEntity
  8
部品1
 48
50.0
100
AcDbLine
 10
6858.829663035838
 20
1049.050253803716
 30
0.0
 11
6858.829663035838
 21
921.0502538037163
 31
0.0
  0
LINE
  5
23192
330
747D
100
AcDbEntity
  8
部品1
 48
50.0
100
AcDbLine
 10
6546.829663035835
 20
1227.177468500838
 30
0.0
 11
6546.829663035835
 21
1169.050253803716
 31
0.0
  0
LINE
  5
23193
330
747D
100
AcDbEntity
  8
細線
 48
50.0
100
AcDbLine
 10
6472.568295816117
 20
1161.050253803716
 30
0.0
 11
6530.829663035834
 21
1219.311621023435
 31
0.0
  0
LINE
  5
23194
330
747D
100
AcDbEntity
  8
部品1
 48
50.0
100
AcDbLine
 10
6530.829663035834
 20
1227.177468500838
 30
0.0
 11
6530.829663035834
 21
1169.050253803716
 31
0.0
  0
LINE
  5
23195
330
747D
100
AcDbEntity
  8
細線
 48
50.0
100
AcDbLine
 10
6387.509064179323
 20
1049.050253803716
 30
0.0
 11
6483.509064179322
 21
1145.050253803716
 31
0.0
  0
LINE
  5
23196
330
747D
100
AcDbEntity
  8
細線
 48
50.0
100
AcDbLine
 10
6484.991173597439
 20
1025.050253803716
 30
0.0
 11
6478.560392979092
 21
1049.050253803716
 31
0.0
  0
LINE
  5
23197
330
747D
100
AcDbEntity
  8
細線
 48
50.0
100
AcDbLine
 10
6406.103128650186
 20
1025.050253803716
 30
0.0
 11
6399.67234803184
 21
1049.050253803716
 31
0.0
  0
ARC
  5
23198
330
747D
100
AcDbEntity
  8
部品1
 48
50.0
100
AcDbCircle
 10
6554.829663035835
 20
1169.050253803716
 30
0.0
 40
24.0
100
AcDbArc
 50
180.0
 51
199.4712206344897
  0
LINE
  5
23199
330
747D
100
AcDbEntity
  8
細線
 48
50.0
100
AcDbLine
 10
6499.509064179322
 20
1161.050253803716
 30
0.0
 11
6530.829663035834
 21
1192.370852660228
 31
0.0
  0
CIRCLE
  5
2319A
330
747D
100
AcDbEntity
  8
部品1
 48
50.0
100
AcDbCircle
 10
6426.829663035835
 20
1169.050253803716
 30
0.0
 40
8.0
  0
LINE
  5
2319B
330
747D
100
AcDbEntity
  8
部品1
 48
50.0
100
AcDbLine
 10
6546.829663035835
 20
1227.177468500838
 30
0.0
 11
6530.829663035834
 21
1227.177468500838
 31
0.0
  0
LINE
  5
2319C
330
747D
100
AcDbEntity
  8
細線
 48
50.0
100
AcDbLine
 10
6250.829663035834
 20
1034.390174769496
 30
0.0
 11
6254.75781937403
 21
1049.050253803716
 31
0.0
  0
LINE
  5
2319D
330
747D
100
AcDbEntity
  8
細線
 48
50.0
100
AcDbLine
 10
6327.215083702935
 20
1025.050253803716
 30
0.0
 11
6320.784303084587
 21
1049.050253803716
 31
0.0
  0
LINE
  5
2319E
330
747D
100
AcDbEntity
  8
部品1
 48
50.0
100
AcDbLine
 10
6386.829663035834
 20
1161.050253803716
 30
0.0
 11
6386.829663035834
 21
1145.050253803716
 31
0.0
  0
LINE
  5
2319F
330
747D
100
AcDbEntity
  8
細線
 48
50.0
100
AcDbLine
 10
6333.627527452907
 20
1049.050253803716
 30
0.0
 11
6429.627527452907
 21
1145.050253803716
 31
0.0
  0
LINE
  5
231A0
330
747D
100
AcDbEntity
  8
細線
 48
50.0
100
AcDbLine
 10
6360.568295816118
 20
1049.050253803716
 30
0.0
 11
6456.568295816118
 21
1145.050253803716
 31
0.0
  0
LINE
  5
231A1
330
747D
100
AcDbEntity
  8
細線
 48
50.0
100
AcDbLine
 10
6463.555238202949
 20
945.0502538037163
 30
0.0
 11
6469.986018821295
 21
921.0502538037163
 31
0.0
  0
LINE
  5
231A2
330
747D
100
AcDbEntity
  8
細線
 48
50.0
100
AcDbLine
 10
6542.443283150202
 20
945.0502538037163
 30
0.0
 11
6548.874063768548
 21
921.0502538037163
 31
0.0
  0
LINE
  5
231A3
330
747D
100
AcDbEntity
  8
細線
 48
50.0
100
AcDbLine
 10
6305.779148308445
 20
945.0502538037163
 30
0.0
 11
6312.209928926791
 21
921.0502538037163
 31
0.0
  0
LINE
  5
231A4
330
747D
100
AcDbEntity
  8
細線
 48
50.0
100
AcDbLine
 10
6384.667193255697
 20
945.0502538037163
 30
0.0
 11
6391.097973874044
 21
921.0502538037163
 31
0.0
  0
LINE
  5
231A5
330
747D
100
AcDbEntity
  8
部品1
 48
50.0
100
AcDbLine
 10
6250.829663035837
 20
921.0502538037163
 30
0.0
 11
6250.829663035837
 21
1049.050253803716
 31
0.0
  0
LINE
  5
231A6
330
747D
100
AcDbEntity
  8
細線
 48
50.0
100
AcDbLine
 10
6299.348367690092
 20
921.0502538037145
 30
0.0
 11
6333.645864321276
 21
1049.050253803714
 31
0.0
  0
LINE
  5
231A7
330
747D
100
AcDbEntity
  8
細線
 48
50.0
100
AcDbLine
 10
6457.124457584595
 20
921.0502538037145
 30
0.0
 11
6491.42195421578
 21
1049.050253803714
 31
0.0
  0
LINE
  5
231A8
330
747D
100
AcDbEntity
  8
細線
 48
50.0
100
AcDbLine
 10
6378.236412637351
 20
921.0502538037163
 30
0.0
 11
6412.533909268534
 21
1049.050253803716
 31
0.0
  0
LINE
  5
231A9
330
747D
100
AcDbEntity
  8
細線
 48
50.0
100
AcDbLine
 10
6549.153674358567
 20
1049.050253803716
 30
0.0
 11
6645.153674358567
 21
1145.050253803716
 31
0.0
  0
CIRCLE
  5
231AA
330
747D
100
AcDbEntity
  8
部品1
 48
50.0
100
AcDbCircle
 10
6554.829663035835
 20
1169.050253803716
 30
0.0
 40
8.0
  0
LINE
  5
231AB
330
747D
100
AcDbEntity
  8
部品1
 48
50.0
100
AcDbLine
 10
6858.829663035838
 20
1049.050253803716
 30
0.0
 11
6250.829663035837
 21
1049.050253803716
 31
0.0
  0
LINE
  5
231AC
330
747D
100
AcDbEntity
  8
部品1
 48
50.0
100
AcDbLine
 10
6386.829663035834
 20
1161.050253803716
 30
0.0
 11
6722.829663035835
 21
1161.050253803716
 31
0.0
  0
LINE
  5
231AD
330
747D
100
AcDbEntity
  8
部品1
 48
50.0
100
AcDbLine
 10
6386.829663035834
 20
1145.050253803716
 30
0.0
 11
6722.829663035835
 21
1145.050253803716
 31
0.0
  0
LINE
  5
231AE
330
747D
100
AcDbEntity
  8
部品1
 48
50.0
100
AcDbLine
 10
6858.829663035838
 20
921.0502538037163
 30
0.0
 11
6250.829663035837
 21
921.0502538037163
 31
0.0
  0
LINE
  5
231AF
330
747D
100
AcDbEntity
  8
細線
 48
50.0
100
AcDbLine
 10
6536.012502531848
 20
921.0502538037163
 30
0.0
 11
6570.309999163031
 21
1049.050253803716
 31
0.0
  0
LINE
  5
231B0
330
747D
100
AcDbEntity
  8
細線
 48
50.0
100
AcDbLine
 10
6546.829663035835
 20
1208.370852660228
 30
0.0
 11
6562.829663035841
 21
1224.370852660227
 31
0.0
  0
LINE
  5
231B1
330
747D
100
AcDbEntity
  8
部品1
 48
50.0
100
AcDbLine
 10
6562.829663035841
 20
1169.050253803716
 30
0.0
 11
6562.829663035827
 21
1693.304683197961
 31
0.0
  0
LINE
  5
231B2
330
747D
100
AcDbEntity
  8
部品1
 48
50.0
100
AcDbLine
 10
6578.82966303584
 20
1169.050253803716
 30
0.0
 11
6578.829663035834
 21
1693.304683197961
 31
0.0
  0
LINE
  5
231B3
330
747D
100
AcDbEntity
  8
部品1
 48
50.0
100
AcDbLine
 10
6778.829663035835
 20
1289.050253803716
 30
0.0
 11
6778.829663035835
 21
1049.050253803716
 31
0.0
  0
LINE
  5
231B4
330
747D
100
AcDbEntity
  8
細線
 48
50.0
100
AcDbLine
 10
6661.153674358562
 20
1161.050253803716
 30
0.0
 11
6778.829663035835
 21
1278.726242480982
 31
0.0
  0
LINE
  5
231B5
330
747D
100
AcDbEntity
  8
細線
 48
50.0
100
AcDbLine
 10
6688.094442721778
 20
1161.050253803716
 30
0.0
 11
6778.829663035835
 21
1251.785474117775
 31
0.0
  0
LINE
  5
231B6
330
747D
100
AcDbEntity
  8
部品1
 48
50.0
100
AcDbLine
 10
6330.829663035835
 20
1049.050253803716
 30
0.0
 11
6330.829663035835
 21
1289.050253803716
 31
0.0
  0
LINE
  5
231B7
330
747D
100
AcDbEntity
  8
細線
 48
50.0
100
AcDbLine
 10
6445.627527452908
 20
1161.050253803716
 30
0.0
 11
6562.829663035834
 21
1278.252389386642
 31
0.0
  0
LINE
  5
231B8
330
747D
100
AcDbEntity
  8
細線
 48
50.0
100
AcDbLine
 10
6538.695510513239
 20
1227.177468500838
 30
0.0
 11
6562.829663035841
 21
1251.311621023437
 31
0.0
  0
LINE
  5
231B9
330
747D
100
AcDbEntity
  8
細線
 48
50.0
100
AcDbLine
 10
6330.829663035827
 20
1207.896999565887
 30
0.0
 11
6411.982917273663
 21
1289.050253803716
 31
0.0
  0
LEADER
  5
231BA
330
747D
100
AcDbEntity
  8
寸法
 48
50.0
100
AcDbLeader
  3
INABA_S50G
 71
     0
 73
     0
 74
     0
 75
     1
 40
100.0
 41
222.7272727272727
 76
     3
 10
6554.829663035834
 20
1693.304683197961
 30
0.0
 10
6608.715600063229
 20
1792.540256051136
 30
0.0
 10
6733.715600063229
 20
1792.540256051136
 30
0.0
1001
ACAD
1000
DSTYLE
1002
{
1070
    40
1040
1.0
1070
   272
1070
     1
1070
   279
1070
     1
1070
   341
1005
0
1002
}
  0
LWPOLYLINE
  5
231BB
330
747D
100
AcDbEntity
  8
部品1
 48
50.0
100
AcDbPolyline
 90
        2
 70
     0
 43
8.0
 10
6650.829663035833
 20
1593.050253803717
 10
7064.969564868791
 20
1593.050253803717
  0
MTEXT
  5
231BC
102
{ACAD_REACTORS
330
231BE
102
}
330
747D
100
AcDbEntity
  8
寸法
 62
     7
 48
50.0
100
AcDbMText
 10
6882.15732284252
 20
1133.653184860744
 30
0.0
 40
80.0
 41
0.8
 71
     4
 72
     1
  1
D10
  7
STYLE2
 73
     1
 44
1.0
1001
ACAD
1000
MTEXTBEGIN
1070
    73
1070
     1
1070
    44
1040
1.0
1070
    74
1070
     0
1000
MTEXTEND
  0
LEADER
  5
231BD
330
747D
100
AcDbEntity
  8
寸法
 48
50.0
100
AcDbLeader
  3
INABA_S50G
 71
     0
 73
     0
 74
     0
 75
     1
 40
100.0
 41
540.3409090909091
 76
     3
 10
6628.774832049008
 20
1152.309723390191
 30
0.0
 10
6747.568118897085
 20
810.6789053952933
 30
0.0
 10
6872.568118897085
 20
810.6789053952933
 30
0.0
213
0.0
223
-1.022262676269383
233
0.0
1001
ACAD
1000
DSTYLE
1002
{
1070
    40
1040
1.0
1070
   272
1070
     1
1070
   279
1070
     1
1070
   341
1005
0
1002
}
  0
LEADER
  5
231BE
330
747D
100
AcDbEntity
  8
寸法
 48
50.0
100
AcDbLeader
  3
INABA_S50G
 71
     0
 73
     0
 74
     0
 75
     1
 40
100.0
 41
225.0
 76
     3
 10
6682.732615387976
 20
1169.050253803716
 30
0.0
 10
6737.157322842519
 20
1073.653184860744
 30
0.0
 10
6862.157322842519
 20
1073.653184860744
 30
0.0
1001
ACAD
1000
DSTYLE
1002
{
1070
    40
1040
1.0
1070
   272
1070
     1
1070
   279
1070
     1
1070
   341
1005
0
1002
}
  0
MTEXT
  5
231BF
102
{ACAD_REACTORS
330
231BA
102
}
330
747D
100
AcDbEntity
  8
寸法
 62
     7
 48
50.0
100
AcDbMText
 10
6733.715600063229
 20
1855.606153096527
 30
0.0
 40
80.0
 41
0.8
 71
     4
 72
     1
  1
D13
  7
STYLE2
 73
     1
 44
1.0
1001
ACAD
1000
MTEXTBEGIN
1070
    73
1070
     1
1070
    44
1040
1.0
1070
    74
1070
     0
1000
MTEXTEND
  0
LINE
  5
231C0
330
747D
100
AcDbEntity
  8
部品1
 48
50.0
100
AcDbLine
 10
6650.829663035835
 20
1833.050253803716
 30
0.0
 11
6650.829663035835
 21
1289.050253803716
 31
0.0
  0
LINE
  5
231C1
330
747D
100
AcDbEntity
  8
部品1
 48
50.0
100
AcDbLine
 10
6458.829663035834
 20
1289.050253803716
 30
0.0
 11
6458.829663035834
 21
1833.050253803716
 31
0.0
  0
CIRCLE
  5
231C2
330
747D
100
AcDbEntity
  8
部品1
 48
50.0
100
AcDbCircle
 10
6554.829663035835
 20
1693.304683197961
 30
0.0
 40
8.0
  0
ARC
  5
231C3
330
747D
100
AcDbEntity
  8
部品1
 48
50.0
100
AcDbCircle
 10
6554.829663035835
 20
1693.304683197961
 30
0.0
 40
24.0
100
AcDbArc
 50
0.0
 51
180.0
  0
LINE
  5
231C4
330
747D
100
AcDbEntity
  8
細線
 48
50.0
100
AcDbLine
 10
6578.829663035834
 20
1671.423146471546
 30
0.0
 11
6650.829663035835
 21
1743.423146471547
 31
0.0
  0
LEADER
  5
231C5
330
747D
100
AcDbEntity
  8
寸法
 48
50.0
100
AcDbLeader
  3
INABA_S50G
 73
     0
 75
     1
 40
106.3636363636363
 41
893.1818181818181
 76
     3
 10
8290.268976213029
 20
1902.610253803717
 30
0.0
 10
8241.84490386809
 20
2276.66982852005
 30
0.0
 10
8116.84490386809
 20
2276.66982852005
 30
0.0
340
231C6
1001
ACAD
1000
DSTYLE
1002
{
1070
   341
1005
0
1070
    40
1040
1.0
1070
   343
1005
0
1070
   344
1005
0
1002
}
  0
MTEXT
  5
231C6
102
{ACAD_REACTORS
330
231C5
102
}
330
747D
100
AcDbEntity
  8
寸法
 62
     7
 48
50.0
100
AcDbMText
 10
8091.844903868089
 20
2354.851646701868
 30
0.0
 40
80.0
 41
0.8
 71
     6
 72
     1
  1
\A1;アンカープレート L
  7
STYLE2
 73
     1
 44
1.0
1001
ACAD
1000
MTEXTBEGIN
1070
    73
1070
     1
1070
    44
1040
1.0
1070
    74
1070
     0
1000
MTEXTEND
  0
DIMENSION
  5
231C7
330
747D
100
AcDbEntity
  8
寸法
 48
50.0
100
AcDbDimension
  2
*D50
 10
6778.829663035833
 20
510.6206157985561
 30
0.0
 11
6534.73290435761
 21
510.6206157985561
 31
0.0
 70
   160
  1
300
 71
     5
 42
448.0
  3
INABA_S40G
100
AcDbAlignedDimension
 13
6330.829663035833
 23
921.0502538037163
 33
0.0
 14
6778.829663035833
 24
921.0502538037163
 34
0.0
100
AcDbRotatedDimension
1001
ACAD
1000
DSTYLE
1002
{
1070
   341
1005
0
1002
}
  0
MTEXT
  5
231C8
102
{ACAD_REACTORS
330
231D0
102
}
330
747D
100
AcDbEntity
  8
寸法
 62
     7
 48
50.0
100
AcDbMText
 10
6159.89463684064
 20
965.52756018528
 30
0.0
 40
80.0
 41
0.8
 71
     6
 72
     1
  1
D10
  7
STYLE2
 73
     1
 44
1.0
1001
ACAD
1000
MTEXTBEGIN
1070
    73
1070
     1
1070
    44
1040
1.0
1070
    74
1070
     0
1000
MTEXTEND
  0
MTEXT
  5
231C9
102
{ACAD_REACTORS
330
231CF
102
}
330
747D
100
AcDbEntity
  8
寸法
 62
     7
 48
50.0
100
AcDbMText
 10
6188.017364398074
 20
785.2114076458365
 30
0.0
 40
80.0
 41
0.8
 71
     6
 72
     1
  1
D13
  7
STYLE2
 73
     1
 44
1.0
1001
ACAD
1000
MTEXTBEGIN
1070
    73
1070
     1
1070
    44
1040
1.0
1070
    74
1070
     0
1000
MTEXTEND
  0
DIMENSION
  5
231CA
330
747D
100
AcDbEntity
  8
寸法
 48
50.0
100
AcDbDimension
  2
*D51
 10
5723.792424474094
 20
1049.050253803716
 30
0.0
 11
5723.792424474094
 21
1420.590403459717
 31
0.0
 70
   160
  1
540
 71
     5
 42
784.0
  3
INABA_S40G
100
AcDbAlignedDimension
 13
6458.829663035834
 23
1833.050253803716
 33
0.0
 14
6250.829663035837
 24
1049.050253803716
 34
0.0
 50
90.0
100
AcDbRotatedDimension
1001
ACAD
1000
DSTYLE
1002
{
1070
   341
1005
0
1002
}
  0
MTEXT
  5
231CB
102
{ACAD_REACTORS
330
231CC
102
}
330
747D
100
AcDbEntity
  8
寸法
 62
     7
 48
50.0
100
AcDbMText
 10
6238.731183552561
 20
2045.566473805759
 30
0.0
 40
80.0
 41
0.8
 71
     6
 72
     1
  1
\A1;金コテ押エ
  7
STYLE2
 73
     1
 44
1.0
1001
ACAD
1000
MTEXTBEGIN
1070
    73
1070
     1
1070
    44
1040
1.0
1070
    74
1070
     0
1000
MTEXTEND
  0
LEADER
  5
231CC
330
747D
100
AcDbEntity
  8
寸法
 48
50.0
100
AcDbLeader
  3
INABA_S50G
 71
     0
 73
     0
 75
     1
 40
130.1136363636363
 41
651.1363636363636
 76
     3
 10
6538.829663035834
 20
1833.050253803716
 30
0.0
 10
6426.405082871816
 20
1973.521019260304
 30
0.0
 10
6301.405082871817
 20
1973.521019260304
 30
0.0
1001
ACAD
1000
DSTYLE
1002
{
1070
    40
1040
1.0
1070
   272
1070
     1
1070
   279
1070
     1
1070
   341
1005
0
1002
}
  0
LEADER
  5
231CD
330
747D
100
AcDbEntity
  8
寸法
 48
50.0
100
AcDbLeader
  3
INABA_S50G
 71
     0
 73
     0
 75
     1
 40
100.0
 41
540.3409090909091
 76
     3
 10
6562.829663035834
 20
1591.177468500839
 30
0.0
 10
6504.847426507135
 20
1369.707139960034
 30
0.0
 10
6379.847426507136
 20
1369.707139960034
 30
0.0
213
-9.732182305893367
223
-4.643716661138569
233
0.0
1001
ACAD
1000
DSTYLE
1002
{
1070
    40
1040
1.0
1070
   272
1070
     1
1070
   279
1070
     1
1070
   341
1005
0
1002
}
  0
MTEXT
  5
231CE
102
{ACAD_REACTORS
330
231CD
102
}
330
747D
100
AcDbEntity
  8
寸法
 62
     7
 48
50.0
100
AcDbMText
 10
6369.57960881303
 20
1434.350856621173
 30
0.0
 40
80.0
 41
0.8
 71
     6
 72
     1
  1
\A1;D10@300
  7
STYLE2
 73
     1
 44
1.0
1001
ACAD
1000
MTEXTBEGIN
1070
    73
1070
     1
1070
    44
1040
1.0
1070
    74
1070
     0
1000
MTEXTEND
  0
LEADER
  5
231CF
330
747D
100
AcDbEntity
  8
寸法
 48
50.0
100
AcDbLeader
  3
INABA_S50G
 71
     0
 73
     0
 75
     1
 40
100.0
 41
222.7272727272727
 76
     3
 10
6554.829663035834
 20
1169.050253803716
 30
0.0
 10
6333.017364398074
 20
725.2114076458365
 30
0.0
 10
6208.017364398074
 20
725.2114076458365
 30
0.0
1001
ACAD
1000
DSTYLE
1002
{
1070
    40
1040
1.0
1070
   272
1070
     1
1070
   279
1070
     1
1070
   341
1005
0
1002
}
  0
LEADER
  5
231D0
330
747D
100
AcDbEntity
  8
寸法
 48
50.0
100
AcDbLeader
  3
INABA_S50G
 71
     0
 73
     0
 75
     1
 40
100.0
 41
225.0
 76
     3
 10
6426.732615387976
 20
1169.050253803716
 30
0.0
 10
6304.894636840639
 20
905.52756018528
 30
0.0
 10
6179.894636840639
 20
905.52756018528
 30
0.0
1001
ACAD
1000
DSTYLE
1002
{
1070
    40
1040
1.0
1070
   272
1070
     1
1070
   279
1070
     1
1070
   341
1005
0
1002
}
  0
DIMENSION
  5
231D1
330
747D
100
AcDbEntity
  8
寸法
 48
50.0
100
AcDbDimension
  2
*D52
 10
6188.409349303374
 20
1049.050253803716
 30
0.0
 11
6188.409349303374
 21
1169.050253803717
 31
0.0
 70
   160
  1
150
 71
     5
 42
240.0
  3
INABA_S40G
100
AcDbAlignedDimension
 13
6330.829663035833
 23
1289.050253803716
 33
0.0
 14
6250.829663035837
 24
1049.050253803716
 34
0.0
 50
90.0
100
AcDbRotatedDimension
1001
ACAD
1000
DSTYLE
1002
{
1070
   341
1005
0
1002
}
  0
TEXT
  5
231D2
330
747D
100
AcDbEntity
  8
部品1
 48
50.0
100
AcDbText
 10
6044.689761202877
 20
1604.289246086971
 30
0.0
 40
80.0
  1
▽G.L
  7
STYLE2
100
AcDbText
  0
LWPOLYLINE
  5
231D3
330
747D
100
AcDbEntity
  8
部品1
 48
50.0
100
AcDbPolyline
 90
        2
 70
     0
 43
8.0
 10
6044.689761202877
 20
1593.050253803717
 10
6458.829663035834
 20
1593.050253803717
  0
MTEXT
  5
231D4
102
{ACAD_REACTORS
330
231D5
102
}
330
747D
100
AcDbEntity
  8
寸法
 62
     7
 48
50.0
100
AcDbMText
 10
8065.201897659731
 20
2715.535918609382
 30
0.0
 40
80.0
 41
0.8
 71
     6
 72
     1
  1
\A1;φ70スリーブ
  7
STYLE2
 73
     1
 44
1.0
1001
ACAD
1000
MTEXTBEGIN
1070
    73
1070
     1
1070
    44
1040
1.0
1070
    74
1070
     0
1000
MTEXTEND
  0
LEADER
  5
231D5
330
747D
100
AcDbEntity
  8
寸法
 48
50.0
100
AcDbLeader
  3
INABA_S50G
 73
     0
 75
     1
 40
113.1818181818182
 41
608.6363636363635
 76
     3
 10
8349.005726351078
 20
1782.565927161995
 30
0.0
 10
8215.20189765973
 20
2633.945009518473
 30
0.0
 10
8090.20189765973
 20
2633.945009518473
 30
0.0
340
231D4
1001
ACAD
1000
DSTYLE
1002
{
1070
   341
1005
0
1070
    40
1040
1.0
1070
   343
1005
0
1070
   344
1005
0
1002
}
  0
LINE
  5
231D6
330
747D
100
AcDbEntity
  8
部品1
100
AcDbLine
 10
5388.161224226571
 20
3232.388921004302
 30
0.0
 11
5388.161224226573
 21
268.0819514196546
 31
0.0
  0
LEADER
  5
231D7
330
747D
100
AcDbEntity
  8
寸法
 48
50.0
100
AcDbLeader
  3
INABA_S50G
 73
     0
 74
     0
 75
     1
 40
80.0
 41
435.0
 76
     3
 10
8389.268976213029
 20
1882.210253803717
 30
0.0
 10
8431.813438632348
 20
2032.433579956947
 30
0.0
 10
8556.813438632348
 20
2032.433579956947
 30
0.0
340
231D8
1001
ACAD
1000
DSTYLE
1002
{
1070
   341
1005
0
1070
    40
1040
1.0
1070
   343
1005
0
1070
   344
1005
0
1002
}
  0
MTEXT
  5
231D8
102
{ACAD_REACTORS
330
231D7
102
}
330
747D
100
AcDbEntity
  8
部品1
 62
     7
 48
50.0
100
AcDbMText
 10
8581.813438632348
 20
2097.433579956947
 30
0.0
 40
80.0
 41
0.8
 71
     4
 72
     1
  1
M10X160
  7
STYLE2
 73
     1
 44
1.0
1001
ACAD
1000
MTEXTBEGIN
1070
    73
1070
     1
1070
    44
1040
1.0
1070
    74
1070
     0
1000
MTEXTEND
  0
DIMENSION
  5
231D9
330
747D
100
AcDbEntity
  8
寸法
 48
50.0
100
AcDbDimension
  2
*D53
 10
9350.792242100899
 20
1833.050253803716
 30
0.0
 11
9350.792242100899
 21
1367.041350382234
 31
0.0
 70
   160
  1
20～25
 71
     5
 42
52.76000000000113
  3
INABA_S40G
100
AcDbAlignedDimension
 13
8385.668976213029
 23
1885.810253803717
 33
0.0
 14
8572.868976213028
 24
1833.050253803716
 34
0.0
 50
90.0
100
AcDbRotatedDimension
1001
ACAD
1000
DSTYLE
1002
{
1070
   341
1005
0
1002
}
  0
DIMENSION
  5
231DA
330
747D
100
AcDbEntity
  8
寸法
 48
50.0
100
AcDbDimension
  2
*D54
 10
9074.737575981872
 20
1509.050253803715
 30
0.0
 11
8974.737575981873
 21
1671.050253803717
 31
0.0
 70
    32
  1
180
 71
     5
 42
324.0000000000009
  3
INABA_S40G
100
AcDbAlignedDimension
 13
8572.868976213028
 23
1833.050253803716
 33
0.0
 14
8572.868976213028
 24
1509.050253803715
 34
0.0
 50
90.0
100
AcDbRotatedDimension
1001
ACAD
1000
DSTYLE
1002
{
1070
   341
1005
0
1002
}
  0
TEXT
  5
231DB
330
747D
100
AcDbEntity
  8
部品1
 48
50.0
100
AcDbText
 10
8577.222560497455
 20
2188.928934565916
 30
0.0
 40
80.0
  1
基礎ボルト(市販品)
  7
STYLE2
100
AcDbText
  0
LWPOLYLINE
  5
231DC
330
747D
100
AcDbEntity
  8
部品1
 48
50.0
100
AcDbPolyline
 90
        2
 70
     0
 43
8.0
 10
8572.868976213028
 20
1593.050253803717
 10
8866.571439612412
 20
1593.050253803717
  0
MTEXT
  5
231DD
102
{ACAD_REACTORS
330
231DE
102
}
330
747D
100
AcDbEntity
  8
部品1
 62
     7
 48
50.0
100
AcDbMText
 10
8612.140566581867
 20
2533.545626890977
 30
0.0
 40
80.0
 41
0.8
 71
     4
 72
     1
  1
\A1;ワッシャー(市販品)
  7
STYLE2
 73
     1
 44
1.0
1001
ACAD
1000
MTEXTBEGIN
1070
    73
1070
     1
1070
    44
1040
1.0
1070
    74
1070
     0
1000
MTEXTEND
  0
LEADER
  5
231DE
330
747D
100
AcDbEntity
  8
寸法
 48
50.0
100
AcDbLeader
  3
INABA_S50G
 73
     0
 74
     0
 75
     1
 40
102.2727272727273
 41
906.8181818181818
 76
     3
 10
8420.268976213028
 20
2102.173542247996
 30
0.0
 10
8462.140566581867
 20
2457.409263254613
 30
0.0
 10
8587.140566581867
 20
2457.409263254613
 30
0.0
340
231DD
1001
ACAD
1000
DSTYLE
1002
{
1070
   341
1005
0
1070
    40
1040
1.0
1070
   343
1005
0
1070
   344
1005
0
1002
}
  0
MTEXT
  5
231DF
102
{ACAD_REACTORS
330
231E0
102
}
330
747D
100
AcDbEntity
  8
部品1
 62
     7
 48
50.0
100
AcDbMText
 10
8580.622947326386
 20
2718.514709655764
 30
0.0
 40
80.0
 41
0.8
 71
     4
 72
     1
  1
\A1;ナット(市販品)
  7
STYLE2
 73
     1
 44
1.0
1001
ACAD
1000
MTEXTBEGIN
1070
    73
1070
     1
1070
    44
1040
1.0
1070
    74
1070
     0
1000
MTEXTEND
  0
LEADER
  5
231E0
330
747D
100
AcDbEntity
  8
寸法
 48
50.0
100
AcDbLeader
  3
INABA_S50G
 73
     0
 74
     0
 75
     1
 40
102.2727272727273
 41
680.0000000000001
 76
     3
 10
8396.268976213027
 20
2231.925534912859
 30
0.0
 10
8430.622947326385
 20
2642.3783460194
 30
0.0
 10
8555.622947326385
 20
2642.3783460194
 30
0.0
340
231DF
1001
ACAD
1000
DSTYLE
1002
{
1070
   341
1005
0
1070
    40
1040
1.0
1070
   343
1005
0
1070
   344
1005
0
1002
}
  0
LINE
  5
231E1
330
747D
100
AcDbEntity
  8
部品1
100
AcDbLine
 10
5388.161224226575
 20
268.0819514196546
 30
0.0
 11
11459.14640961282
 21
268.0819514196546
 31
0.0
  0
LINE
  5
231E2
330
747D
100
AcDbEntity
  8
部品1
100
AcDbLine
 10
11459.14640961282
 20
2992.3889210043
 30
0.0
 11
5388.161224226573
 21
2992.3889210043
 31
0.0
  0
LINE
  5
231E3
330
747D
100
AcDbEntity
  8
部品1
100
AcDbLine
 10
11459.14640961282
 20
3232.388921004302
 30
0.0
 11
5388.161224226569
 21
3232.388921004302
 31
0.0
  0
ENDSEC
  0
SECTION
  2
OBJECTS
  0
DICTIONARY
  5
7471
330
0
100
AcDbDictionary
281
     1
  3
ACAD_COLOR
350
173D2
  3
ACAD_GROUP
350
7472
  3
ACAD_LAYOUT
350
173D3
  3
ACAD_MATERIAL
350
173D1
  3
ACAD_MLINESTYLE
350
7473
  3
ACAD_PLOTSETTINGS
350
173D4
  3
ACAD_PLOTSTYLENAME
350
173CF
  3
ACDBHEADERROUNDTRIPXREC
350
23284
  3
AcDbVariableDictionary
350
22E7D
  3
CONTENTDICTIONARY
350
E71C
  3
DRAWINGVARIABLESDICT
350
F3B9
  0
DICTIONARY
  5
1758F
330
7467
100
AcDbDictionary
280
     1
281
     1
  3
ACAD_LAYERSTATES
360
17590
  0
DICTIONARY
  5
173D2
102
{ACAD_REACTORS
330
7471
102
}
330
7471
100
AcDbDictionary
281
     1
  0
DICTIONARY
  5
7472
102
{ACAD_REACTORS
330
7471
102
}
330
7471
100
AcDbDictionary
281
     1
  3
*A1
350
1D2A9
  0
DICTIONARY
  5
173D3
102
{ACAD_REACTORS
330
7471
102
}
330
7471
100
AcDbDictionary
281
     1
  3
Model
350
173D5
  3
レイアウト1
350
173D6
  0
DICTIONARY
  5
173D1
102
{ACAD_REACTORS
330
7471
102
}
330
7471
100
AcDbDictionary
281
     1
  0
DICTIONARY
  5
7473
102
{ACAD_REACTORS
330
7471
102
}
330
7471
100
AcDbDictionary
281
     1
  3
STANDARD
350
7480
  0
DICTIONARY
  5
173D4
102
{ACAD_REACTORS
330
7471
102
}
330
7471
100
AcDbDictionary
281
     1
  0
ACDBDICTIONARYWDFLT
  5
173CF
102
{ACAD_REACTORS
330
7471
102
}
330
7471
100
AcDbDictionary
281
     1
  3
Normal
350
173D0
100
AcDbDictionaryWithDefault
340
173D0
  0
DICTIONARY
  5
23284
102
{ACAD_REACTORS
330
7471
102
}
330
7471
100
AcDbDictionary
281
     1
  3
COLORDICT
350
23286
  3
MATERIALDICT
350
23285
  0
DICTIONARY
  5
22E7D
102
{ACAD_REACTORS
330
7471
102
}
330
7471
100
AcDbDictionary
281
     1
  3
DIMASSOC
350
22E7E
  3
PROJECTNAME
350
22E7F
  0
DICTIONARY
  5
E71C
102
{ACAD_REACTORS
330
7471
102
}
330
7471
100
AcDbDictionary
281
     1
  0
DICTIONARY
  5
F3B9
102
{ACAD_REACTORS
330
7471
102
}
330
7471
100
AcDbDictionary
281
     1
1001
DRAWINGVARIABLESXDATA
1000
POLARMODE
1000
1
  0
DICTIONARY
  5
17590
102
{ACAD_REACTORS
330
1758F
102
}
330
1758F
100
AcDbDictionary
281
     1
  0
GROUP
  5
1D2A9
102
{ACAD_REACTORS
330
7472
102
}
330
7472
100
AcDbGroup
300

 70
     1
 71
     1
  0
LAYOUT
  5
173D5
102
{ACAD_XDICTIONARY
360
23287
102
}
102
{ACAD_REACTORS
330
173D3
102
}
330
173D3
100
AcDbPlotSettings
  1

  2
クセロPDF
  4
A3
  6

 40
3.174999952316284
 41
3.174999952316284
 42
3.17498779296875
 43
3.17498779296875
 44
419.9466552734374
 45
296.9259948730469
 46
0.0
 47
0.0
 48
0.0
 49
0.0
140
0.0
141
0.0
142
1.0
143
40.88431153497317
 70
 11952
 72
     1
 73
     0
 74
     2
  7
inabass.ctb
 75
     0
147
0.0244592598592392
148
0.0
149
0.0
100
AcDbLayout
  1
Model
 70
     1
 71
     0
 10
0.0
 20
0.0
 11
12.0
 21
9.0
 12
0.0
 22
0.0
 32
0.0
 14
0.0
 24
0.0
 34
0.0
 15
0.0
 25
0.0
 35
0.0
146
0.0
 13
0.0
 23
0.0
 33
0.0
 16
1.0
 26
0.0
 36
0.0
 17
0.0
 27
1.0
 37
0.0
 76
     0
330
747D
  0
LAYOUT
  5
173D6
102
{ACAD_XDICTIONARY
360
23289
102
}
102
{ACAD_REACTORS
330
173D3
102
}
330
173D3
100
AcDbPlotSettings
  1

  2
Microsoft Office Document Image Writer
  4

  6

 40
0.0
 41
0.0
 42
0.0
 43
0.0
 44
0.0
 45
0.0
 46
0.0
 47
0.0
 48
0.0
 49
0.0
140
0.0
141
0.0
142
1.0
143
1.0
 70
   688
 72
     0
 73
     0
 74
     5
  7
inabass.ctb
 75
    16
147
1.0
148
0.0
149
0.0
100
AcDbLayout
  1
レイアウト1
 70
     0
 71
     1
 10
0.0
 20
0.0
 11
420.0
 21
297.0
 12
0.0
 22
0.0
 32
0.0
 14
1.000000000000000E+20
 24
1.000000000000000E+20
 34
1.000000000000000E+20
 15
-1.000000000000000E+20
 25
-1.000000000000000E+20
 35
-1.000000000000000E+20
146
0.0
 13
0.0
 23
0.0
 33
0.0
 16
1.0
 26
0.0
 36
0.0
 17
0.0
 27
1.0
 37
0.0
 76
     0
330
747A
  0
MLINESTYLE
  5
7480
102
{ACAD_REACTORS
330
7473
102
}
330
7473
100
AcDbMlineStyle
  2
STANDARD
 70
     0
  3

 62
     0
 51
90.0
 52
90.0
 71
     2
 49
0.5
 62
   256
  6
BYLAYER
 49
-0.5
 62
   256
  6
BYLAYER
  0
ACDBPLACEHOLDER
  5
173D0
102
{ACAD_REACTORS
330
173CF
102
}
330
173CF
  0
XRECORD
  5
23286
102
{ACAD_REACTORS
330
23284
102
}
330
23284
100
AcDbXrecord
280
     1
340
173D2
  0
XRECORD
  5
23285
102
{ACAD_REACTORS
330
23284
102
}
330
23284
100
AcDbXrecord
280
     1
340
173D1
  0
DICTIONARYVAR
  5
22E7E
102
{ACAD_REACTORS
330
22E7D
102
}
330
22E7D
100
DictionaryVariables
280
     0
  1
1
  0
DICTIONARYVAR
  5
22E7F
102
{ACAD_REACTORS
330
22E7D
102
}
330
22E7D
100
DictionaryVariables
280
     0
  1

  0
DICTIONARY
  5
23287
330
173D5
100
AcDbDictionary
280
     1
281
     1
  3
ACAD_XREC_ROUNDTRIP
360
23288
  0
DICTIONARY
  5
23289
330
173D6
100
AcDbDictionary
280
     1
281
     1
  3
ACAD_XREC_ROUNDTRIP
360
2328A
  0
XRECORD
  5
23288
102
{ACAD_REACTORS
330
23287
102
}
330
23287
100
AcDbXrecord
280
     1
102
SHADEPLOT
 70
     0
102
SHADEPLOTRESLEVEL
 70
     2
102
SHADEPLOTCUSTOMDPI
 70
   150
  0
XRECORD
  5
2328A
102
{ACAD_REACTORS
330
23289
102
}
330
23289
100
AcDbXrecord
280
     1
102
SHADEPLOT
 70
     0
102
SHADEPLOTRESLEVEL
 70
     2
102
SHADEPLOTCUSTOMDPI
 70
   300
  0
ENDSEC
  0
EOF
