  0
SECTION
  2
HEADER
  9
$ACADVER
  1
AC1015
  9
$ACADMAINTVER
 70
    20
  9
$DWGCODEPAGE
  3
ANSI_932
  9
$INSBASE
 10
0.0
 20
0.0
 30
0.0
  9
$EXTMIN
 10
139.196816621341
 20
-0.1811693038616795
 30
-0.0000000000112498
  9
$EXTMAX
 10
16308.32523385566
 20
11409.92678395885
 30
0.0000000000002956
  9
$LIMMIN
 10
0.0
 20
0.0
  9
$LIMMAX
 10
16800.0
 20
11880.0
  9
$ORTHOMODE
 70
     0
  9
$REGENMODE
 70
     1
  9
$FILLMODE
 70
     1
  9
$QTEXTMODE
 70
     0
  9
$MIRRTEXT
 70
     1
  9
$LTSCALE
 40
20.0
  9
$ATTMODE
 70
     1
  9
$TEXTSIZE
 40
4.0
  9
$TRACEWID
 40
1.0
  9
$TEXTSTYLE
  7
STYLE1
  9
$CLAYER
  8
細線
  9
$CELTYPE
  6
BYLAYER
  9
$CECOLOR
 62
   256
  9
$CELTSCALE
 40
50.0
  9
$DISPSILH
 70
     0
  9
$DIMSCALE
 40
40.0
  9
$DIMASZ
 40
2.5
  9
$DIMEXO
 40
0.5
  9
$DIMDLI
 40
7.0
  9
$DIMRND
 40
0.0
  9
$DIMDLE
 40
0.0
  9
$DIMEXE
 40
1.5
  9
$DIMTP
 40
0.0
  9
$DIMTM
 40
0.0
  9
$DIMTXT
 40
3.0
  9
$DIMCEN
 40
0.0
  9
$DIMTSZ
 40
0.0
  9
$DIMTOL
 70
     0
  9
$DIMLIM
 70
     0
  9
$DIMTIH
 70
     0
  9
$DIMTOH
 70
     0
  9
$DIMSE1
 70
     0
  9
$DIMSE2
 70
     0
  9
$DIMTAD
 70
     3
  9
$DIMZIN
 70
     8
  9
$DIMBLK
  1

  9
$DIMASO
 70
     1
  9
$DIMSHO
 70
     1
  9
$DIMPOST
  1

  9
$DIMAPOST
  1

  9
$DIMALT
 70
     0
  9
$DIMALTD
 70
     2
  9
$DIMALTF
 40
0.0394
  9
$DIMLFAC
 40
1.0
  9
$DIMTOFL
 70
     1
  9
$DIMTVP
 40
0.0
  9
$DIMTIX
 70
     1
  9
$DIMSOXD
 70
     0
  9
$DIMSAH
 70
     1
  9
$DIMBLK1
  1
DOTSMALL
  9
$DIMBLK2
  1
DOTSMALL
  9
$DIMSTYLE
  2
INABA_S40G
  9
$DIMCLRD
 70
     0
  9
$DIMCLRE
 70
     0
  9
$DIMCLRT
 70
     7
  9
$DIMTFAC
 40
1.0
  9
$DIMGAP
 40
1.0
  9
$DIMJUST
 70
     0
  9
$DIMSD1
 70
     0
  9
$DIMSD2
 70
     0
  9
$DIMTOLJ
 70
     1
  9
$DIMTZIN
 70
     0
  9
$DIMALTZ
 70
     0
  9
$DIMALTTZ
 70
     0
  9
$DIMUPT
 70
     0
  9
$DIMDEC
 70
     1
  9
$DIMTDEC
 70
     4
  9
$DIMALTU
 70
     2
  9
$DIMALTTD
 70
     2
  9
$DIMTXSTY
  7
STYLE1
  9
$DIMAUNIT
 70
     0
  9
$DIMADEC
 70
     0
  9
$DIMALTRND
 40
0.0
  9
$DIMAZIN
 70
     0
  9
$DIMDSEP
 70
    46
  9
$DIMATFIT
 70
     3
  9
$DIMFRAC
 70
     0
  9
$DIMLDRBLK
  1

  9
$DIMLUNIT
 70
     2
  9
$DIMLWD
 70
    -2
  9
$DIMLWE
 70
    -2
  9
$DIMTMOVE
 70
     0
  9
$LUNITS
 70
     2
  9
$LUPREC
 70
     1
  9
$SKETCHINC
 40
1.0
  9
$FILLETRAD
 40
3.0
  9
$AUNITS
 70
     0
  9
$AUPREC
 70
     0
  9
$MENU
  1
acad
  9
$ELEVATION
 40
0.0
  9
$PELEVATION
 40
0.0
  9
$THICKNESS
 40
0.0
  9
$LIMCHECK
 70
     0
  9
$CHAMFERA
 40
0.0
  9
$CHAMFERB
 40
0.0
  9
$CHAMFERC
 40
0.0
  9
$CHAMFERD
 40
0.0
  9
$SKPOLY
 70
     0
  9
$TDCREATE
 40
2451368.612993866
  9
$TDUCREATE
 40
2451368.237993866
  9
$TDUPDATE
 40
2456276.479317489
  9
$TDUUPDATE
 40
2456276.104317489
  9
$TDINDWG
 40
0.7879924884
  9
$TDUSRTIMER
 40
0.7879924884
  9
$USRTIMER
 70
     1
  9
$ANGBASE
 50
0.0
  9
$ANGDIR
 70
     0
  9
$PDMODE
 70
     3
  9
$PDSIZE
 40
2.0
  9
$PLINEWID
 40
0.0
  9
$SPLFRAME
 70
     0
  9
$SPLINETYPE
 70
     6
  9
$SPLINESEGS
 70
     8
  9
$HANDSEED
  5
26E36
  9
$SURFTAB1
 70
     6
  9
$SURFTAB2
 70
     6
  9
$SURFTYPE
 70
     6
  9
$SURFU
 70
     6
  9
$SURFV
 70
     6
  9
$UCSBASE
  2

  9
$UCSNAME
  2

  9
$UCSORG
 10
0.0
 20
0.0
 30
0.0
  9
$UCSXDIR
 10
1.0
 20
0.0
 30
0.0
  9
$UCSYDIR
 10
0.0
 20
1.0
 30
0.0
  9
$UCSORTHOREF
  2

  9
$UCSORTHOVIEW
 70
     0
  9
$UCSORGTOP
 10
0.0
 20
0.0
 30
0.0
  9
$UCSORGBOTTOM
 10
0.0
 20
0.0
 30
0.0
  9
$UCSORGLEFT
 10
0.0
 20
0.0
 30
0.0
  9
$UCSORGRIGHT
 10
0.0
 20
0.0
 30
0.0
  9
$UCSORGFRONT
 10
0.0
 20
0.0
 30
0.0
  9
$UCSORGBACK
 10
0.0
 20
0.0
 30
0.0
  9
$PUCSBASE
  2

  9
$PUCSNAME
  2

  9
$PUCSORG
 10
0.0
 20
0.0
 30
0.0
  9
$PUCSXDIR
 10
1.0
 20
0.0
 30
0.0
  9
$PUCSYDIR
 10
0.0
 20
1.0
 30
0.0
  9
$PUCSORTHOREF
  2

  9
$PUCSORTHOVIEW
 70
     0
  9
$PUCSORGTOP
 10
0.0
 20
0.0
 30
0.0
  9
$PUCSORGBOTTOM
 10
0.0
 20
0.0
 30
0.0
  9
$PUCSORGLEFT
 10
0.0
 20
0.0
 30
0.0
  9
$PUCSORGRIGHT
 10
0.0
 20
0.0
 30
0.0
  9
$PUCSORGFRONT
 10
0.0
 20
0.0
 30
0.0
  9
$PUCSORGBACK
 10
0.0
 20
0.0
 30
0.0
  9
$USERI1
 70
     0
  9
$USERI2
 70
     0
  9
$USERI3
 70
     0
  9
$USERI4
 70
     0
  9
$USERI5
 70
     0
  9
$USERR1
 40
0.0
  9
$USERR2
 40
0.0
  9
$USERR3
 40
0.0
  9
$USERR4
 40
0.0
  9
$USERR5
 40
0.0
  9
$WORLDVIEW
 70
     1
  9
$SHADEDGE
 70
     3
  9
$SHADEDIF
 70
    70
  9
$TILEMODE
 70
     1
  9
$MAXACTVP
 70
    16
  9
$PINSBASE
 10
0.0
 20
0.0
 30
0.0
  9
$PLIMCHECK
 70
     0
  9
$PEXTMIN
 10
1.000000000000000E+20
 20
1.000000000000000E+20
 30
1.000000000000000E+20
  9
$PEXTMAX
 10
-1.000000000000000E+20
 20
-1.000000000000000E+20
 30
-1.000000000000000E+20
  9
$PLIMMIN
 10
0.0
 20
0.0
  9
$PLIMMAX
 10
420.0
 20
297.0
  9
$UNITMODE
 70
     0
  9
$VISRETAIN
 70
     0
  9
$PLINEGEN
 70
     0
  9
$PSLTSCALE
 70
     0
  9
$TREEDEPTH
 70
  3020
  9
$CMLSTYLE
  2
STANDARD
  9
$CMLJUST
 70
     0
  9
$CMLSCALE
 40
1.0
  9
$PROXYGRAPHICS
 70
     1
  9
$MEASUREMENT
 70
     1
  9
$CELWEIGHT
370
    -1
  9
$ENDCAPS
280
     0
  9
$JOINSTYLE
280
     0
  9
$LWDISPLAY
290
     0
  9
$INSUNITS
 70
     0
  9
$HYPERLINKBASE
  1

  9
$STYLESHEET
  1
inabass.ctb
  9
$XEDIT
290
     1
  9
$CEPSNTYPE
380
     0
  9
$PSTYLEMODE
290
     1
  9
$FINGERPRINTGUID
  2
{5EAC461A-2277-4BF8-9AB0-99C43BB394F0}
  9
$VERSIONGUID
  2
{1B3E14E3-28BF-4290-B07B-2A2781CFCBCD}
  9
$EXTNAMES
290
     1
  9
$PSVPSCALE
 40
0.0
  9
$OLESTARTUP
290
     0
  0
ENDSEC
  0
SECTION
  2
CLASSES
  0
CLASS
  1
ACDBDICTIONARYWDFLT
  2
AcDbDictionaryWithDefault
  3
ObjectDBX Classes
 90
        0
280
     0
281
     0
  0
CLASS
  1
DICTIONARYVAR
  2
AcDbDictionaryVar
  3
ObjectDBX Classes
 90
        0
280
     0
281
     0
  0
CLASS
  1
ACDBPLACEHOLDER
  2
AcDbPlaceHolder
  3
ObjectDBX Classes
 90
        0
280
     0
281
     0
  0
CLASS
  1
LAYOUT
  2
AcDbLayout
  3
ObjectDBX Classes
 90
        0
280
     0
281
     0
  0
ENDSEC
  0
SECTION
  2
TABLES
  0
TABLE
  2
VPORT
  5
746D
330
0
100
AcDbSymbolTable
 70
     3
  0
VPORT
  5
26E2E
330
746D
100
AcDbSymbolTableRecord
100
AcDbViewportTableRecord
  2
*Active
 70
     0
 10
0.0
 20
0.0
 11
1.0
 21
1.0
 12
8400.0
 22
6181.20206240933
 13
0.0
 23
0.0
 14
10.0
 24
10.0
 15
10.0
 25
10.0
 16
0.0
 26
0.0
 36
1.0
 17
0.0
 27
0.0
 37
0.0
 40
12458.52136351618
 41
1.608
 42
50.0
 43
0.0
 44
0.0
 50
0.0
 51
0.0
 71
     0
 72
     0
 73
     1
 74
     0
 75
     0
 76
     0
 77
     0
 78
     0
281
     0
 65
     1
110
0.0
120
0.0
130
0.0
111
1.0
121
0.0
131
0.0
112
0.0
122
1.0
132
0.0
 79
     0
146
0.0
  0
ENDTAB
  0
TABLE
  2
LTYPE
  5
746A
330
0
100
AcDbSymbolTable
 70
     5
  0
LTYPE
  5
7477
330
746A
100
AcDbSymbolTableRecord
100
AcDbLinetypeTableRecord
  2
BYBLOCK
 70
     0
  3

 72
    65
 73
     0
 40
0.0
  0
LTYPE
  5
7478
330
746A
100
AcDbSymbolTableRecord
100
AcDbLinetypeTableRecord
  2
BYLAYER
 70
     0
  3

 72
    65
 73
     0
 40
0.0
  0
LTYPE
  5
7479
330
746A
100
AcDbSymbolTableRecord
100
AcDbLinetypeTableRecord
  2
CONTINUOUS
 70
     0
  3
Solid line
 72
    65
 73
     0
 40
0.0
  0
LTYPE
  5
7816
330
746A
100
AcDbSymbolTableRecord
100
AcDbLinetypeTableRecord
  2
CENTER
 70
     0
  3
____ _ ____ _ ____ _ ____ _ ____ _ ____ _ ____ 
 72
    65
 73
     4
 40
2.0
 49
1.25
 74
     0
 49
-0.25
 74
     0
 49
0.25
 74
     0
 49
-0.25
 74
     0
  0
LTYPE
  5
781A
330
746A
100
AcDbSymbolTableRecord
100
AcDbLinetypeTableRecord
  2
HIDDEN
 70
     0
  3
__ __ __ __ __ __ __ __ __ __ __ __ __ __ __ __
 72
    65
 73
     2
 40
0.375
 49
0.25
 74
     0
 49
-0.125
 74
     0
  0
LTYPE
  5
781B
330
746A
100
AcDbSymbolTableRecord
100
AcDbLinetypeTableRecord
  2
PHANTOM
 70
     0
  3
______  __  __  ______  __  __  ______  __  __ 
 72
    65
 73
     6
 40
2.5
 49
1.25
 74
     0
 49
-0.25
 74
     0
 49
0.25
 74
     0
 49
-0.25
 74
     0
 49
0.25
 74
     0
 49
-0.25
 74
     0
  0
LTYPE
  5
12CC3
330
746A
100
AcDbSymbolTableRecord
100
AcDbLinetypeTableRecord
  2
HIDDENX2
 70
     0
  3
Hidden (2x) ____ ____ ____ ____ ____ ____ ____
 72
    65
 73
     2
 40
19.05
 49
12.7
 74
     0
 49
-6.349999999999999
 74
     0
  0
ENDTAB
  0
TABLE
  2
LAYER
  5
7467
102
{ACAD_XDICTIONARY
360
1758F
102
}
330
0
100
AcDbSymbolTable
 70
    12
  0
LAYER
  5
7474
330
7467
100
AcDbSymbolTableRecord
100
AcDbLayerTableRecord
  2
0
 70
     0
 62
     7
  6
CONTINUOUS
370
    -3
390
173D0
  0
LAYER
  5
DEB2
330
7467
100
AcDbSymbolTableRecord
100
AcDbLayerTableRecord
  2
センター
 70
     0
 62
     3
  6
CENTER
370
    -3
390
173D0
  0
LAYER
  5
DEB3
330
7467
100
AcDbSymbolTableRecord
100
AcDbLayerTableRecord
  2
寸法
 70
     0
 62
     4
  6
CONTINUOUS
370
    -3
390
173D0
  0
LAYER
  5
DEB4
330
7467
100
AcDbSymbolTableRecord
100
AcDbLayerTableRecord
  2
部品1
 70
     0
 62
     7
  6
CONTINUOUS
370
    -3
390
173D0
  0
LAYER
  5
DEB5
330
7467
100
AcDbSymbolTableRecord
100
AcDbLayerTableRecord
  2
補助
 70
     0
 62
    -1
  6
CONTINUOUS
370
    -3
390
173D0
  0
LAYER
  5
DEB6
330
7467
100
AcDbSymbolTableRecord
100
AcDbLayerTableRecord
  2
文字
 70
     0
 62
     7
  6
CONTINUOUS
370
    -3
390
173D0
  0
LAYER
  5
F255
330
7467
100
AcDbSymbolTableRecord
100
AcDbLayerTableRecord
  2
DEFPOINTS
 70
     0
 62
     7
  6
CONTINUOUS
290
     0
370
    -3
390
173D0
  0
LAYER
  5
10B54
330
7467
100
AcDbSymbolTableRecord
100
AcDbLayerTableRecord
  2
仕様書枠
 70
     0
 62
   230
  6
CONTINUOUS
370
    -3
390
173D0
  0
LAYER
  5
11729
330
7467
100
AcDbSymbolTableRecord
100
AcDbLayerTableRecord
  2
Ｇ．Ｌ
 70
     0
 62
    30
  6
CONTINUOUS
370
    -3
390
173D0
  0
LAYER
  5
1173F
330
7467
100
AcDbSymbolTableRecord
100
AcDbLayerTableRecord
  2
細線
 70
     0
 62
     5
  6
CONTINUOUS
370
    -3
390
173D0
  0
LAYER
  5
12CC4
330
7467
100
AcDbSymbolTableRecord
100
AcDbLayerTableRecord
  2
想像線
 70
     0
 62
     6
  6
PHANTOM
370
    -3
390
173D0
  0
LAYER
  5
142E2
330
7467
100
AcDbSymbolTableRecord
100
AcDbLayerTableRecord
  2
破線
 70
     0
 62
     2
  6
HIDDEN
370
    -3
390
173D0
  0
ENDTAB
  0
TABLE
  2
STYLE
  5
7468
330
0
100
AcDbSymbolTable
 70
     7
  0
STYLE
  5
7475
330
7468
100
AcDbSymbolTableRecord
100
AcDbTextStyleTableRecord
  2
STANDARD
 70
     0
 40
0.0
 41
1.0
 50
0.0
 71
     0
 42
4.0
  3
txt
  4
C:\AutoCAD LT\bigfont.shx
  0
STYLE
  5
763C
330
7468
100
AcDbSymbolTableRecord
100
AcDbTextStyleTableRecord
  2
MSMINCHO
 70
     0
 40
0.0
 41
1.0
 50
0.0
 71
     0
 42
1.199999999999999
  3
C:\AutoCAD LT\msminch2.TTF
  4

  0
STYLE
  5
F706
330
7468
100
AcDbSymbolTableRecord
100
AcDbTextStyleTableRecord
  2
STYLE1
 70
     0
 40
0.0
 41
1.0
 50
0.0
 71
     0
 42
4.0
  3
isocp.shx
  4
bigfont.shx
  0
STYLE
  5
103BF
330
7468
100
AcDbSymbolTableRecord
100
AcDbTextStyleTableRecord
  2
STYLE2
 70
     0
 40
0.0
 41
1.0
 50
0.0
 71
     0
 42
100.0
  3
MS PGothic.ttf
  4

1001
ACAD
1000
MS PGothic
1071
    32818
  0
STYLE
  5
10BAA
330
7468
100
AcDbSymbolTableRecord
100
AcDbTextStyleTableRecord
  2
STYLE3
 70
     0
 40
0.0
 41
1.0
 50
0.0
 71
     0
 42
100.0
  3

  4

1001
ACAD
1000
DFPGothic-EB
1071
    32818
  0
STYLE
  5
11A15
330
7468
100
AcDbSymbolTableRecord
100
AcDbTextStyleTableRecord
  2
MSGOTHIC
 70
     0
 40
0.0
 41
1.0
 50
0.0
 71
     0
 42
3.5
  3
msgothi2.ttf
  4

  0
STYLE
  5
13E96
330
7468
100
AcDbSymbolTableRecord
100
AcDbTextStyleTableRecord
  2
MSPゴシック
 70
     0
 40
0.0
 41
1.0
 50
0.0
 71
     0
 42
4.0
  3
MS PGothic.ttf
  4

1001
ACAD
1000
MS PGothic
1071
    32818
  0
ENDTAB
  0
TABLE
  2
VIEW
  5
746B
330
0
100
AcDbSymbolTable
 70
     0
  0
ENDTAB
  0
TABLE
  2
UCS
  5
746C
330
0
100
AcDbSymbolTable
 70
     0
  0
ENDTAB
  0
TABLE
  2
APPID
  5
746E
330
0
100
AcDbSymbolTable
 70
     6
  0
APPID
  5
7476
330
746E
100
AcDbSymbolTableRecord
100
AcDbRegAppTableRecord
  2
ACAD
 70
     0
  0
APPID
  5
DEA9
330
746E
100
AcDbSymbolTableRecord
100
AcDbRegAppTableRecord
  2
CONTENTBLOCKICON
 70
     0
  0
APPID
  5
DEAA
330
746E
100
AcDbSymbolTableRecord
100
AcDbRegAppTableRecord
  2
CONTENTBLOCKDESCRIPTION
 70
     0
  0
APPID
  5
E71D
330
746E
100
AcDbSymbolTableRecord
100
AcDbRegAppTableRecord
  2
CONTENTTABDATA
 70
     0
  0
APPID
  5
E71E
330
746E
100
AcDbSymbolTableRecord
100
AcDbRegAppTableRecord
  2
CONTENTCURRENTTAB
 70
     0
  0
APPID
  5
F3BA
330
746E
100
AcDbSymbolTableRecord
100
AcDbRegAppTableRecord
  2
DRAWINGVARIABLESXDATA
 70
     0
  0
ENDTAB
  0
TABLE
  2
DIMSTYLE
  5
746F
330
0
100
AcDbSymbolTable
 70
     6
100
AcDbDimStyleTable
 71
     1
340
F71F
  0
DIMSTYLE
105
7484
330
746F
100
AcDbSymbolTableRecord
100
AcDbDimStyleTableRecord
  2
JIS
 70
     0
 41
2.5
 42
1.0
 43
7.0
 44
1.0
 73
     0
 74
     0
 77
     1
 78
     8
140
2.5
141
0.0
143
0.0394
147
0.0
172
     1
174
     1
175
     1
340
7475
  0
DIMSTYLE
105
F236
330
746F
100
AcDbSymbolTableRecord
100
AcDbDimStyleTableRecord
  2
INABA_S40
 70
     0
 40
40.0
 41
2.5
 42
0.5
 43
7.0
 44
1.5
 73
     0
 74
     0
 77
     3
 78
     8
140
3.0
141
0.0
143
0.0394
147
1.0
172
     1
173
     1
174
     1
175
     1
178
     7
289
     0
340
7475
341
DEAC
343
DEAC
344
DEAC
  0
DIMSTYLE
105
F71F
102
{ACAD_REACTORS
330
20DE1
330
20DFB
330
22741
330
2275B
330
22A81
330
22A76
330
22A98
330
263BE
330
26398
330
26372
330
26371
330
26370
330
2636F
330
262FE
330
262D7
330
262D6
330
262D5
330
262C9
330
262BC
330
262BB
330
262B8
330
262B7
330
262B6
330
26263
330
2625E
330
2625D
330
2626A
330
26267
330
26266
330
2626D
330
26269
330
26C75
330
26C76
330
26C7E
330
26C85
330
26C88
330
26CE8
102
}
330
746F
100
AcDbSymbolTableRecord
100
AcDbDimStyleTableRecord
  2
INABA_S40G
 70
     0
 40
40.0
 41
2.5
 42
0.5
 43
7.0
 44
1.5
 73
     0
 74
     0
 77
     3
 78
     8
140
3.0
141
0.0
143
0.0394
147
1.0
172
     1
173
     1
174
     1
178
     7
271
     1
340
F706
341
F770
343
F770
344
F770
  0
DIMSTYLE
105
142E3
330
746F
100
AcDbSymbolTableRecord
100
AcDbDimStyleTableRecord
  2
INABA_S1
 70
     0
 40
0.0
 41
2.5
 42
0.5
 43
7.0
 44
1.5
 73
     0
 74
     0
 77
     3
 78
     8
140
3.0
141
0.0
143
0.0394
146
0.5
147
0.5
172
     1
173
     1
176
   256
177
   256
178
     7
271
     2
272
     2
284
     8
288
     1
340
7475
341
DEAC
343
DEAC
344
DEAC
  0
DIMSTYLE
105
14463
330
746F
100
AcDbSymbolTableRecord
100
AcDbDimStyleTableRecord
  2
INABA_S30G
 70
     0
 40
30.0
 41
2.5
 42
0.5
 43
7.0
 44
1.5
 73
     0
 74
     0
 77
     3
 78
     8
140
3.0
141
0.0
143
0.0394
147
1.0
172
     1
173
     1
174
     1
175
     1
178
     7
271
     1
340
F706
341
F770
343
F770
344
F770
  0
DIMSTYLE
105
1758E
330
746F
100
AcDbSymbolTableRecord
100
AcDbDimStyleTableRecord
  2
INABA_S50G
 70
     0
 41
125.0
 42
25.0
 43
7.0
 44
75.0
 73
     0
 74
     0
 77
     3
 78
     8
140
150.0
141
0.0
143
0.0394
147
25.0
172
     1
173
     1
174
     1
175
     1
178
     7
271
     1
340
F706
341
F770
343
F770
344
F770
  0
ENDTAB
  0
TABLE
  2
BLOCK_RECORD
  5
7466
330
0
100
AcDbSymbolTable
 70
    66
  0
BLOCK_RECORD
  5
747D
330
7466
100
AcDbSymbolTableRecord
100
AcDbBlockTableRecord
  2
*MODEL_SPACE
340
173D5
  0
BLOCK_RECORD
  5
747A
330
7466
100
AcDbSymbolTableRecord
100
AcDbBlockTableRecord
  2
*PAPER_SPACE
340
173D6
  0
BLOCK_RECORD
  5
DEAC
330
7466
100
AcDbSymbolTableRecord
100
AcDbBlockTableRecord
  2
_OPEN
340
0
  0
BLOCK_RECORD
  5
F770
330
7466
100
AcDbSymbolTableRecord
100
AcDbBlockTableRecord
  2
_DOTSMALL
340
0
102
{BLKREFS
331
18C65
331
18C66
331
18C59
331
18C5A
331
18C4D
331
18C4E
331
18C41
331
18C42
331
18C35
331
18C36
331
18C29
331
18C2A
331
18C1D
331
18C1E
331
18C0F
331
18C10
331
18C03
331
18C04
331
18BF5
331
18BF6
331
18BE7
331
18BE8
331
18BD9
331
18BDA
331
18BCD
331
18BCE
331
21316
331
21317
331
21321
331
21322
331
2132A
331
2132B
331
26890
331
26891
331
26899
331
2689A
331
268A2
331
268A3
331
268AB
331
268AC
331
268B4
331
268B5
331
268BD
331
268BE
331
268C6
331
268C7
331
268D9
331
268DA
331
268E2
331
268E3
331
268EB
331
268EC
331
268F5
331
268F6
331
268FF
331
26900
331
26908
331
26909
331
26912
331
26913
331
2691B
331
2691C
331
26924
331
26925
331
2692D
331
2692E
331
26936
331
26937
331
2693F
331
26940
331
26952
331
26953
331
26964
331
26965
331
2696E
331
2696F
331
26996
331
26997
331
269A1
331
269A2
331
269AC
331
269AD
331
269B7
331
269B8
331
269C2
331
269C3
331
269E7
331
269E8
331
269F0
331
269F1
331
26A97
331
26A98
331
26AA1
331
26AA2
331
26AE3
331
26AE4
331
26B2C
331
26B2D
331
26B20
331
26B21
331
26B12
331
26B13
331
26B06
331
26B07
331
26AFA
331
26AFB
331
26AEE
331
26AEF
331
26DEE
331
26DEF
331
26DF9
331
26DFA
331
26E02
331
26E03
331
26E0B
331
26E0C
331
26E14
331
26E15
331
26E1D
331
26E1E
102
}
  0
BLOCK_RECORD
  5
164B4
330
7466
100
AcDbSymbolTableRecord
100
AcDbBlockTableRecord
  2
_DOT
340
0
102
{BLKREFS
331
18C73
331
18C74
102
}
  0
BLOCK_RECORD
  5
18BC8
330
7466
100
AcDbSymbolTableRecord
100
AcDbBlockTableRecord
  2
*D3
340
0
  0
BLOCK_RECORD
  5
18BD4
330
7466
100
AcDbSymbolTableRecord
100
AcDbBlockTableRecord
  2
*D4
340
0
  0
BLOCK_RECORD
  5
18BE0
330
7466
100
AcDbSymbolTableRecord
100
AcDbBlockTableRecord
  2
*D5
340
0
  0
BLOCK_RECORD
  5
18BEE
330
7466
100
AcDbSymbolTableRecord
100
AcDbBlockTableRecord
  2
*D6
340
0
  0
BLOCK_RECORD
  5
18BFC
330
7466
100
AcDbSymbolTableRecord
100
AcDbBlockTableRecord
  2
*D7
340
0
  0
BLOCK_RECORD
  5
18C0A
330
7466
100
AcDbSymbolTableRecord
100
AcDbBlockTableRecord
  2
*D8
340
0
  0
BLOCK_RECORD
  5
18C16
330
7466
100
AcDbSymbolTableRecord
100
AcDbBlockTableRecord
  2
*D9
340
0
  0
BLOCK_RECORD
  5
18C24
330
7466
100
AcDbSymbolTableRecord
100
AcDbBlockTableRecord
  2
*D10
340
0
  0
BLOCK_RECORD
  5
18C30
330
7466
100
AcDbSymbolTableRecord
100
AcDbBlockTableRecord
  2
*D11
340
0
  0
BLOCK_RECORD
  5
18C3C
330
7466
100
AcDbSymbolTableRecord
100
AcDbBlockTableRecord
  2
*D12
340
0
  0
BLOCK_RECORD
  5
18C48
330
7466
100
AcDbSymbolTableRecord
100
AcDbBlockTableRecord
  2
*D13
340
0
  0
BLOCK_RECORD
  5
18C54
330
7466
100
AcDbSymbolTableRecord
100
AcDbBlockTableRecord
  2
*D14
340
0
  0
BLOCK_RECORD
  5
18C60
330
7466
100
AcDbSymbolTableRecord
100
AcDbBlockTableRecord
  2
*D15
340
0
  0
BLOCK_RECORD
  5
18C6C
330
7466
100
AcDbSymbolTableRecord
100
AcDbBlockTableRecord
  2
*D16
340
0
  0
BLOCK_RECORD
  5
18C7A
330
7466
100
AcDbSymbolTableRecord
100
AcDbBlockTableRecord
  2
A$C3B1A506B
340
0
  0
BLOCK_RECORD
  5
1C4CA
330
7466
100
AcDbSymbolTableRecord
100
AcDbBlockTableRecord
  2
_NONE
340
0
  0
BLOCK_RECORD
  5
20DE2
330
7466
100
AcDbSymbolTableRecord
100
AcDbBlockTableRecord
  2
*D19
340
0
  0
BLOCK_RECORD
  5
20DFC
330
7466
100
AcDbSymbolTableRecord
100
AcDbBlockTableRecord
  2
*D20
340
0
  0
BLOCK_RECORD
  5
22742
330
7466
100
AcDbSymbolTableRecord
100
AcDbBlockTableRecord
  2
*D25
340
0
  0
BLOCK_RECORD
  5
2275C
330
7466
100
AcDbSymbolTableRecord
100
AcDbBlockTableRecord
  2
*D26
340
0
  0
BLOCK_RECORD
  5
22B5A
330
7466
100
AcDbSymbolTableRecord
100
AcDbBlockTableRecord
  2
*D27
340
0
  0
BLOCK_RECORD
  5
22B74
330
7466
100
AcDbSymbolTableRecord
100
AcDbBlockTableRecord
  2
*D28
340
0
  0
BLOCK_RECORD
  5
22B9A
330
7466
100
AcDbSymbolTableRecord
100
AcDbBlockTableRecord
  2
*D29
340
0
  0
BLOCK_RECORD
  5
263D1
330
7466
100
AcDbSymbolTableRecord
100
AcDbBlockTableRecord
  2
*D30
340
0
  0
BLOCK_RECORD
  5
263DD
330
7466
100
AcDbSymbolTableRecord
100
AcDbBlockTableRecord
  2
*D31
340
0
  0
BLOCK_RECORD
  5
263E9
330
7466
100
AcDbSymbolTableRecord
100
AcDbBlockTableRecord
  2
*D32
340
0
  0
BLOCK_RECORD
  5
263F5
330
7466
100
AcDbSymbolTableRecord
100
AcDbBlockTableRecord
  2
*D33
340
0
  0
BLOCK_RECORD
  5
26401
330
7466
100
AcDbSymbolTableRecord
100
AcDbBlockTableRecord
  2
*D34
340
0
  0
BLOCK_RECORD
  5
2640D
330
7466
100
AcDbSymbolTableRecord
100
AcDbBlockTableRecord
  2
*D35
340
0
  0
BLOCK_RECORD
  5
2641A
330
7466
100
AcDbSymbolTableRecord
100
AcDbBlockTableRecord
  2
*D36
340
0
  0
BLOCK_RECORD
  5
26433
330
7466
100
AcDbSymbolTableRecord
100
AcDbBlockTableRecord
  2
*D37
340
0
  0
BLOCK_RECORD
  5
2644C
330
7466
100
AcDbSymbolTableRecord
100
AcDbBlockTableRecord
  2
*D38
340
0
  0
BLOCK_RECORD
  5
26457
330
7466
100
AcDbSymbolTableRecord
100
AcDbBlockTableRecord
  2
*D39
340
0
  0
BLOCK_RECORD
  5
26462
330
7466
100
AcDbSymbolTableRecord
100
AcDbBlockTableRecord
  2
*D40
340
0
  0
BLOCK_RECORD
  5
26486
330
7466
100
AcDbSymbolTableRecord
100
AcDbBlockTableRecord
  2
*D41
340
0
  0
BLOCK_RECORD
  5
26492
330
7466
100
AcDbSymbolTableRecord
100
AcDbBlockTableRecord
  2
*D42
340
0
  0
BLOCK_RECORD
  5
2649F
330
7466
100
AcDbSymbolTableRecord
100
AcDbBlockTableRecord
  2
*D43
340
0
  0
BLOCK_RECORD
  5
264AC
330
7466
100
AcDbSymbolTableRecord
100
AcDbBlockTableRecord
  2
*D44
340
0
  0
BLOCK_RECORD
  5
264B8
330
7466
100
AcDbSymbolTableRecord
100
AcDbBlockTableRecord
  2
*D45
340
0
  0
BLOCK_RECORD
  5
264C4
330
7466
100
AcDbSymbolTableRecord
100
AcDbBlockTableRecord
  2
*D46
340
0
  0
BLOCK_RECORD
  5
264DC
330
7466
100
AcDbSymbolTableRecord
100
AcDbBlockTableRecord
  2
*D47
340
0
  0
BLOCK_RECORD
  5
264E7
330
7466
100
AcDbSymbolTableRecord
100
AcDbBlockTableRecord
  2
*D48
340
0
  0
BLOCK_RECORD
  5
264F3
330
7466
100
AcDbSymbolTableRecord
100
AcDbBlockTableRecord
  2
*D49
340
0
  0
BLOCK_RECORD
  5
264FF
330
7466
100
AcDbSymbolTableRecord
100
AcDbBlockTableRecord
  2
*D50
340
0
  0
BLOCK_RECORD
  5
2650B
330
7466
100
AcDbSymbolTableRecord
100
AcDbBlockTableRecord
  2
*D51
340
0
  0
BLOCK_RECORD
  5
26516
330
7466
100
AcDbSymbolTableRecord
100
AcDbBlockTableRecord
  2
*D52
340
0
  0
BLOCK_RECORD
  5
2652F
330
7466
100
AcDbSymbolTableRecord
100
AcDbBlockTableRecord
  2
*D53
340
0
  0
BLOCK_RECORD
  5
26DA1
330
7466
100
AcDbSymbolTableRecord
100
AcDbBlockTableRecord
  2
*D60
340
0
  0
BLOCK_RECORD
  5
26DAD
330
7466
100
AcDbSymbolTableRecord
100
AcDbBlockTableRecord
  2
*D61
340
0
  0
BLOCK_RECORD
  5
26DBB
330
7466
100
AcDbSymbolTableRecord
100
AcDbBlockTableRecord
  2
*D62
340
0
  0
BLOCK_RECORD
  5
26DC7
330
7466
100
AcDbSymbolTableRecord
100
AcDbBlockTableRecord
  2
*D63
340
0
  0
BLOCK_RECORD
  5
26DD3
330
7466
100
AcDbSymbolTableRecord
100
AcDbBlockTableRecord
  2
*D64
340
0
  0
BLOCK_RECORD
  5
26DDF
330
7466
100
AcDbSymbolTableRecord
100
AcDbBlockTableRecord
  2
*D65
340
0
  0
ENDTAB
  0
ENDSEC
  0
SECTION
  2
BLOCKS
  0
BLOCK
  5
7489
330
747D
100
AcDbEntity
  8
0
100
AcDbBlockBegin
  2
*MODEL_SPACE
 70
     0
 10
0.0
 20
0.0
 30
0.0
  3
*MODEL_SPACE
  1

  0
ENDBLK
  5
748A
330
747D
100
AcDbEntity
  8
0
100
AcDbBlockEnd
  0
BLOCK
  5
7487
330
747A
100
AcDbEntity
 67
     1
  8
0
100
AcDbBlockBegin
  2
*PAPER_SPACE
 70
     0
 10
0.0
 20
0.0
 30
0.0
  3
*PAPER_SPACE
  1

  0
ENDBLK
  5
7488
330
747A
100
AcDbEntity
 67
     1
  8
0
100
AcDbBlockEnd
  0
BLOCK
  5
DEAD
330
DEAC
100
AcDbEntity
  8
0
100
AcDbBlockBegin
  2
_OPEN
 70
     0
 10
0.0
 20
0.0
 30
0.0
  3
_OPEN
  1

  0
LINE
  5
DEAE
330
DEAC
100
AcDbEntity
  8
0
  6
ByBlock
 62
     0
100
AcDbLine
 10
-1.0
 20
0.1666666666666666
 30
0.0
 11
0.0
 21
0.0
 31
0.0
  0
LINE
  5
DEAF
330
DEAC
100
AcDbEntity
  8
0
  6
ByBlock
 62
     0
100
AcDbLine
 10
0.0
 20
0.0
 30
0.0
 11
-1.0
 21
-0.1666666666666666
 31
0.0
  0
LINE
  5
DEB0
330
DEAC
100
AcDbEntity
  8
0
  6
ByBlock
 62
     0
100
AcDbLine
 10
0.0
 20
0.0
 30
0.0
 11
-1.0
 21
0.0
 31
0.0
  0
ENDBLK
  5
DEB1
330
DEAC
100
AcDbEntity
  8
0
100
AcDbBlockEnd
  0
BLOCK
  5
F771
330
F770
100
AcDbEntity
  8
0
 48
50.0
100
AcDbBlockBegin
  2
_DOTSMALL
 70
     0
 10
0.0
 20
0.0
 30
0.0
  3
_DOTSMALL
  1

  0
LWPOLYLINE
  5
F772
330
F770
100
AcDbEntity
  8
0
  6
ByBlock
 62
     0
 48
50.0
100
AcDbPolyline
 90
        2
 70
     1
 43
0.5
 10
-0.0625
 20
0.0
 42
1.0
 10
0.0625
 20
0.0
 42
1.0
  0
ENDBLK
  5
F776
330
F770
100
AcDbEntity
  8
0
 48
50.0
100
AcDbBlockEnd
  0
BLOCK
  5
164BA
330
164B4
100
AcDbEntity
  8
0
 48
50.0
100
AcDbBlockBegin
  2
_DOT
 70
     0
 10
0.0
 20
0.0
 30
0.0
  3
_DOT
  1

  0
LWPOLYLINE
  5
164B5
330
164B4
100
AcDbEntity
  8
0
  6
ByBlock
 62
     0
 48
50.0
100
AcDbPolyline
 90
        2
 70
     1
 43
0.5
 10
-0.25
 20
0.0
 42
1.0
 10
0.25
 20
0.0
 42
1.0
  0
LINE
  5
164B9
330
164B4
100
AcDbEntity
  8
0
  6
ByBlock
 62
     0
 48
50.0
100
AcDbLine
 10
-0.5
 20
0.0
 30
0.0
 11
-1.0
 21
0.0
 31
0.0
  0
ENDBLK
  5
164BB
330
164B4
100
AcDbEntity
  8
0
 48
50.0
100
AcDbBlockEnd
  0
BLOCK
  5
18BC9
330
18BC8
100
AcDbEntity
  8
0
 48
50.0
100
AcDbBlockBegin
  2
*D3
 70
     1
 10
0.0
 20
0.0
 30
0.0
  3
*D3
  1

  0
LINE
  5
18BCA
330
18BC8
100
AcDbEntity
  8
寸法
 62
     0
 48
50.0
370
    -2
100
AcDbLine
 10
7649.896575106999
 20
9636.123139034717
 30
0.0
 11
8702.429862581047
 21
9636.123139034717
 31
0.0
  0
LINE
  5
18BCB
330
18BC8
100
AcDbEntity
  8
寸法
 62
     0
 48
50.0
370
    -2
100
AcDbLine
 10
7649.896575106973
 20
7846.123139034709
 30
0.0
 11
8702.429862581047
 21
7846.123139034709
 31
0.0
  0
LINE
  5
18BCC
330
18BC8
100
AcDbEntity
  8
寸法
 62
     0
 48
50.0
370
    -2
100
AcDbLine
 10
8642.429862581046
 20
9636.123139034717
 30
0.0
 11
8642.429862581046
 21
7846.123139034709
 31
0.0
  0
INSERT
  5
18BCD
330
18BC8
100
AcDbEntity
  8
寸法
 62
     0
 48
50.0
370
    -2
100
AcDbBlockReference
  2
_DOTSMALL
 10
8642.429862581046
 20
9636.123139034717
 30
0.0
 41
100.0
 42
100.0
 43
100.0
 50
90.0
  0
INSERT
  5
18BCE
330
18BC8
100
AcDbEntity
  8
寸法
 62
     0
 48
50.0
370
    -2
100
AcDbBlockReference
  2
_DOTSMALL
 10
8642.429862581046
 20
7846.123139034709
 30
0.0
 41
100.0
 42
100.0
 43
100.0
 50
270.0
  0
MTEXT
  5
18BCF
330
18BC8
100
AcDbEntity
  8
寸法
 62
     7
 48
50.0
100
AcDbMText
 10
8542.429862581045
 20
8741.123139034712
 30
0.0
 40
120.0
 41
0.0
 71
     5
 72
     1
  1
\A1;1790
  7
STYLE1
 11
0.0000000000000001
 21
1.0
 31
0.0
 73
     1
 44
1.0
1001
ACAD
1000
MTEXTBEGIN
1070
    73
1070
     1
1070
    44
1040
1.0
1070
    74
1070
     0
1000
MTEXTEND
  0
POINT
  5
18BD0
330
18BC8
100
AcDbEntity
  8
DEFPOINTS
 62
     0
 48
50.0
100
AcDbPoint
 10
7629.896575106998
 20
9636.123139034717
 30
0.0
  0
POINT
  5
18BD1
330
18BC8
100
AcDbEntity
  8
DEFPOINTS
 62
     0
 48
50.0
100
AcDbPoint
 10
7629.896575106974
 20
7846.123139034709
 30
0.0
  0
POINT
  5
18BD2
330
18BC8
100
AcDbEntity
  8
DEFPOINTS
 62
     0
 48
50.0
100
AcDbPoint
 10
8642.429862581046
 20
7846.123139034709
 30
0.0
  0
ENDBLK
  5
18BD3
330
18BC8
100
AcDbEntity
  8
0
 48
50.0
100
AcDbBlockEnd
  0
BLOCK
  5
18BD5
330
18BD4
100
AcDbEntity
  8
0
 48
50.0
100
AcDbBlockBegin
  2
*D4
 70
     1
 10
0.0
 20
0.0
 30
0.0
  3
*D4
  1

  0
LINE
  5
18BD6
330
18BD4
100
AcDbEntity
  8
寸法
 62
     0
 48
50.0
370
    -2
100
AcDbLine
 10
4214.896575106998
 20
9656.123139034622
 30
0.0
 11
4214.896575106998
 21
10211.93135865972
 31
0.0
  0
LINE
  5
18BD7
330
18BD4
100
AcDbEntity
  8
寸法
 62
     0
 48
50.0
370
    -2
100
AcDbLine
 10
7574.896575106999
 20
9656.123139034718
 30
0.0
 11
7574.896575106999
 21
10211.93135865972
 31
0.0
  0
LINE
  5
18BD8
330
18BD4
100
AcDbEntity
  8
寸法
 62
     0
 48
50.0
370
    -2
100
AcDbLine
 10
4214.896575106998
 20
10151.93135865972
 30
0.0
 11
7574.896575106999
 21
10151.93135865972
 31
0.0
  0
INSERT
  5
18BD9
330
18BD4
100
AcDbEntity
  8
寸法
 62
     0
 48
50.0
370
    -2
100
AcDbBlockReference
  2
_DOTSMALL
 10
4214.896575106998
 20
10151.93135865972
 30
0.0
 41
100.0
 42
100.0
 43
100.0
 50
180.0
  0
INSERT
  5
18BDA
330
18BD4
100
AcDbEntity
  8
寸法
 62
     0
 48
50.0
370
    -2
100
AcDbBlockReference
  2
_DOTSMALL
 10
7574.896575106999
 20
10151.93135865972
 30
0.0
 41
100.0
 42
100.0
 43
100.0
  0
MTEXT
  5
18BDB
330
18BD4
100
AcDbEntity
  8
寸法
 62
     7
 48
50.0
100
AcDbMText
 10
5894.896575106997
 20
10251.94316968334
 30
0.0
 40
120.0
 41
0.0
 71
     5
 72
     1
  1
\A1;8X420=3360
  7
STYLE1
 73
     1
 44
1.0
1001
ACAD
1000
MTEXTBEGIN
1070
    73
1070
     1
1070
    44
1040
1.0
1070
    74
1070
     0
1000
MTEXTEND
  0
POINT
  5
18BDC
330
18BD4
100
AcDbEntity
  8
DEFPOINTS
 62
     0
 48
50.0
100
AcDbPoint
 10
4214.896575106998
 20
9636.123139034623
 30
0.0
  0
POINT
  5
18BDD
330
18BD4
100
AcDbEntity
  8
DEFPOINTS
 62
     0
 48
50.0
100
AcDbPoint
 10
7574.896575106999
 20
9636.123139034717
 30
0.0
  0
POINT
  5
18BDE
330
18BD4
100
AcDbEntity
  8
DEFPOINTS
 62
     0
 48
50.0
100
AcDbPoint
 10
7574.896575106999
 20
10151.93135865972
 30
0.0
  0
ENDBLK
  5
18BDF
330
18BD4
100
AcDbEntity
  8
0
 48
50.0
100
AcDbBlockEnd
  0
BLOCK
  5
18BE1
330
18BE0
100
AcDbEntity
  8
0
 48
50.0
100
AcDbBlockBegin
  2
*D5
 70
     1
 10
0.0
 20
0.0
 30
0.0
  3
*D5
  1

  0
LINE
  5
18BE2
330
18BE0
100
AcDbEntity
  8
寸法
 62
     0
 48
50.0
370
    -2
100
AcDbLine
 10
7574.896575106999
 20
9656.123139034718
 30
0.0
 11
7574.896575106999
 21
10211.9313586597
 31
0.0
  0
LINE
  5
18BE3
330
18BE0
100
AcDbEntity
  8
寸法
 62
     0
 48
50.0
370
    -2
100
AcDbLine
 10
7629.896575106998
 20
9656.123139034718
 30
0.0
 11
7629.896575106998
 21
10211.9313586597
 31
0.0
  0
LINE
  5
18BE4
330
18BE0
100
AcDbEntity
  8
寸法
 62
     0
 48
50.0
370
    -2
100
AcDbLine
 10
7574.896575106999
 20
10151.9313586597
 30
0.0
 11
7474.896575106999
 21
10151.9313586597
 31
0.0
  0
LINE
  5
18BE5
330
18BE0
100
AcDbEntity
  8
寸法
 62
     0
 48
50.0
370
    -2
100
AcDbLine
 10
7629.896575106998
 20
10151.9313586597
 30
0.0
 11
8046.867137855477
 21
10151.9313586597
 31
0.0
  0
LINE
  5
18BE6
330
18BE0
100
AcDbEntity
  8
寸法
 62
     0
 48
50.0
370
    -2
100
AcDbLine
 10
7574.896575106999
 20
10151.9313586597
 30
0.0
 11
7629.896575106998
 21
10151.9313586597
 31
0.0
  0
INSERT
  5
18BE7
330
18BE0
100
AcDbEntity
  8
寸法
 62
     0
 48
50.0
370
    -2
100
AcDbBlockReference
  2
_DOTSMALL
 10
7574.896575106999
 20
10151.9313586597
 30
0.0
 41
100.0
 42
100.0
 43
100.0
  0
INSERT
  5
18BE8
330
18BE0
100
AcDbEntity
  8
寸法
 62
     0
 48
50.0
370
    -2
100
AcDbBlockReference
  2
_DOTSMALL
 10
7629.896575106998
 20
10151.9313586597
 30
0.0
 41
100.0
 42
100.0
 43
100.0
 50
180.0
  0
MTEXT
  5
18BE9
330
18BE0
100
AcDbEntity
  8
寸法
 62
     7
 48
50.0
100
AcDbMText
 10
7938.381856481237
 20
10251.9313586597
 30
0.0
 40
120.0
 41
0.0
 71
     5
 72
     1
  1
\A1;55
  7
STYLE1
 73
     1
 44
1.0
1001
ACAD
1000
MTEXTBEGIN
1070
    73
1070
     1
1070
    44
1040
1.0
1070
    74
1070
     0
1000
MTEXTEND
  0
POINT
  5
18BEA
330
18BE0
100
AcDbEntity
  8
DEFPOINTS
 62
     0
 48
50.0
100
AcDbPoint
 10
7574.896575106999
 20
9636.123139034717
 30
0.0
  0
POINT
  5
18BEB
330
18BE0
100
AcDbEntity
  8
DEFPOINTS
 62
     0
 48
50.0
100
AcDbPoint
 10
7629.896575106998
 20
9636.123139034717
 30
0.0
  0
POINT
  5
18BEC
330
18BE0
100
AcDbEntity
  8
DEFPOINTS
 62
     0
 48
50.0
100
AcDbPoint
 10
7629.896575106998
 20
10151.9313586597
 30
0.0
  0
ENDBLK
  5
18BED
330
18BE0
100
AcDbEntity
  8
0
 48
50.0
100
AcDbBlockEnd
  0
BLOCK
  5
18BEF
330
18BEE
100
AcDbEntity
  8
0
 48
50.0
100
AcDbBlockBegin
  2
*D6
 70
     1
 10
0.0
 20
0.0
 30
0.0
  3
*D6
  1

  0
LINE
  5
18BF0
330
18BEE
100
AcDbEntity
  8
寸法
 62
     0
 48
50.0
370
    -2
100
AcDbLine
 10
7649.896575106999
 20
9636.123139034717
 30
0.0
 11
8337.32292084141
 21
9636.123139034717
 31
0.0
  0
LINE
  5
18BF1
330
18BEE
100
AcDbEntity
  8
寸法
 62
     0
 48
50.0
370
    -2
100
AcDbLine
 10
7649.896575106999
 20
9581.123139034721
 30
0.0
 11
8337.32292084141
 21
9581.123139034721
 31
0.0
  0
LINE
  5
18BF2
330
18BEE
100
AcDbEntity
  8
寸法
 62
     0
 48
50.0
370
    -2
100
AcDbLine
 10
8277.322920841411
 20
9581.123139034721
 30
0.0
 11
8277.322920841411
 21
9481.123139034719
 31
0.0
  0
LINE
  5
18BF3
330
18BEE
100
AcDbEntity
  8
寸法
 62
     0
 48
50.0
370
    -2
100
AcDbLine
 10
8277.322920841411
 20
9636.123139034717
 30
0.0
 11
8277.322920841411
 21
10053.09370178319
 31
0.0
  0
LINE
  5
18BF4
330
18BEE
100
AcDbEntity
  8
寸法
 62
     0
 48
50.0
370
    -2
100
AcDbLine
 10
8277.322920841411
 20
9581.123139034721
 30
0.0
 11
8277.322920841411
 21
9636.123139034717
 31
0.0
  0
INSERT
  5
18BF5
330
18BEE
100
AcDbEntity
  8
寸法
 62
     0
 48
50.0
370
    -2
100
AcDbBlockReference
  2
_DOTSMALL
 10
8277.322920841411
 20
9581.123139034721
 30
0.0
 41
100.0
 42
100.0
 43
100.0
 50
90.0
  0
INSERT
  5
18BF6
330
18BEE
100
AcDbEntity
  8
寸法
 62
     0
 48
50.0
370
    -2
100
AcDbBlockReference
  2
_DOTSMALL
 10
8277.322920841411
 20
9636.123139034717
 30
0.0
 41
100.0
 42
100.0
 43
100.0
 50
270.0
  0
MTEXT
  5
18BF7
330
18BEE
100
AcDbEntity
  8
寸法
 62
     7
 48
50.0
100
AcDbMText
 10
8177.32292084141
 20
9944.608420408957
 30
0.0
 40
120.0
 41
0.0
 71
     5
 72
     1
  1
\A1;55
  7
STYLE1
 11
0.0000000000000001
 21
1.0
 31
0.0
 73
     1
 44
1.0
1001
ACAD
1000
MTEXTBEGIN
1070
    73
1070
     1
1070
    44
1040
1.0
1070
    74
1070
     0
1000
MTEXTEND
  0
POINT
  5
18BF8
330
18BEE
100
AcDbEntity
  8
DEFPOINTS
 62
     0
 48
50.0
100
AcDbPoint
 10
7629.896575106998
 20
9636.123139034717
 30
0.0
  0
POINT
  5
18BF9
330
18BEE
100
AcDbEntity
  8
DEFPOINTS
 62
     0
 48
50.0
100
AcDbPoint
 10
7629.896575106998
 20
9581.123139034721
 30
0.0
  0
POINT
  5
18BFA
330
18BEE
100
AcDbEntity
  8
DEFPOINTS
 62
     0
 48
50.0
100
AcDbPoint
 10
8277.322920841411
 20
9581.123139034721
 30
0.0
  0
ENDBLK
  5
18BFB
330
18BEE
100
AcDbEntity
  8
0
 48
50.0
100
AcDbBlockEnd
  0
BLOCK
  5
18BFD
330
18BFC
100
AcDbEntity
  8
0
 48
50.0
100
AcDbBlockBegin
  2
*D7
 70
     1
 10
0.0
 20
0.0
 30
0.0
  3
*D7
  1

  0
LINE
  5
18BFE
330
18BFC
100
AcDbEntity
  8
寸法
 62
     0
 48
50.0
370
    -2
100
AcDbLine
 10
4159.896575106963
 20
9656.123139034622
 30
0.0
 11
4159.896575106963
 21
10211.9313586596
 31
0.0
  0
LINE
  5
18BFF
330
18BFC
100
AcDbEntity
  8
寸法
 62
     0
 48
50.0
370
    -2
100
AcDbLine
 10
4214.896575106998
 20
9656.123139034622
 30
0.0
 11
4214.896575106998
 21
10211.9313586596
 31
0.0
  0
LINE
  5
18C00
330
18BFC
100
AcDbEntity
  8
寸法
 62
     0
 48
50.0
370
    -2
100
AcDbLine
 10
4214.896575106998
 20
10151.9313586596
 30
0.0
 11
4314.896575106998
 21
10151.9313586596
 31
0.0
  0
LINE
  5
18C01
330
18BFC
100
AcDbEntity
  8
寸法
 62
     0
 48
50.0
370
    -2
100
AcDbLine
 10
4159.896575106963
 20
10151.9313586596
 30
0.0
 11
3742.926012358486
 21
10151.9313586596
 31
0.0
  0
LINE
  5
18C02
330
18BFC
100
AcDbEntity
  8
寸法
 62
     0
 48
50.0
370
    -2
100
AcDbLine
 10
4214.896575106998
 20
10151.9313586596
 30
0.0
 11
4159.896575106963
 21
10151.9313586596
 31
0.0
  0
INSERT
  5
18C03
330
18BFC
100
AcDbEntity
  8
寸法
 62
     0
 48
50.0
370
    -2
100
AcDbBlockReference
  2
_DOTSMALL
 10
4214.896575106998
 20
10151.9313586596
 30
0.0
 41
100.0
 42
100.0
 43
100.0
 50
180.0
  0
INSERT
  5
18C04
330
18BFC
100
AcDbEntity
  8
寸法
 62
     0
 48
50.0
370
    -2
100
AcDbBlockReference
  2
_DOTSMALL
 10
4159.896575106963
 20
10151.9313586596
 30
0.0
 41
100.0
 42
100.0
 43
100.0
  0
MTEXT
  5
18C05
330
18BFC
100
AcDbEntity
  8
寸法
 62
     7
 48
50.0
100
AcDbMText
 10
3851.411293732725
 20
10251.9313586596
 30
0.0
 40
120.0
 41
0.0
 71
     5
 72
     1
  1
\A1;55
  7
STYLE1
 73
     1
 44
1.0
1001
ACAD
1000
MTEXTBEGIN
1070
    73
1070
     1
1070
    44
1040
1.0
1070
    74
1070
     0
1000
MTEXTEND
  0
POINT
  5
18C06
330
18BFC
100
AcDbEntity
  8
DEFPOINTS
 62
     0
 48
50.0
100
AcDbPoint
 10
4159.896575106963
 20
9636.123139034623
 30
0.0
  0
POINT
  5
18C07
330
18BFC
100
AcDbEntity
  8
DEFPOINTS
 62
     0
 48
50.0
100
AcDbPoint
 10
4214.896575106998
 20
9636.123139034623
 30
0.0
  0
POINT
  5
18C08
330
18BFC
100
AcDbEntity
  8
DEFPOINTS
 62
     0
 48
50.0
100
AcDbPoint
 10
4214.896575106998
 20
10151.9313586596
 30
0.0
  0
ENDBLK
  5
18C09
330
18BFC
100
AcDbEntity
  8
0
 48
50.0
100
AcDbBlockEnd
  0
BLOCK
  5
18C0B
330
18C0A
100
AcDbEntity
  8
0
 48
50.0
100
AcDbBlockBegin
  2
*D8
 70
     1
 10
0.0
 20
0.0
 30
0.0
  3
*D8
  1

  0
LINE
  5
18C0C
330
18C0A
100
AcDbEntity
  8
寸法
 62
     0
 48
50.0
370
    -2
100
AcDbLine
 10
4159.896575106992
 20
7826.123139034546
 30
0.0
 11
4159.896575106992
 21
6804.372203245664
 31
0.0
  0
LINE
  5
18C0D
330
18C0A
100
AcDbEntity
  8
寸法
 62
     0
 48
50.0
370
    -2
100
AcDbLine
 10
7629.896575106974
 20
7826.123139034674
 30
0.0
 11
7629.896575106974
 21
6804.372203245664
 31
0.0
  0
LINE
  5
18C0E
330
18C0A
100
AcDbEntity
  8
寸法
 62
     0
 48
50.0
370
    -2
100
AcDbLine
 10
4159.896575106992
 20
6864.372203245665
 30
0.0
 11
7629.896575106974
 21
6864.372203245665
 31
0.0
  0
INSERT
  5
18C0F
330
18C0A
100
AcDbEntity
  8
寸法
 62
     0
 48
50.0
370
    -2
100
AcDbBlockReference
  2
_DOTSMALL
 10
4159.896575106992
 20
6864.372203245665
 30
0.0
 41
100.0
 42
100.0
 43
100.0
 50
180.0
  0
INSERT
  5
18C10
330
18C0A
100
AcDbEntity
  8
寸法
 62
     0
 48
50.0
370
    -2
100
AcDbBlockReference
  2
_DOTSMALL
 10
7629.896575106974
 20
6864.372203245665
 30
0.0
 41
100.0
 42
100.0
 43
100.0
  0
MTEXT
  5
18C11
330
18C0A
100
AcDbEntity
  8
寸法
 62
     7
 48
50.0
100
AcDbMText
 10
5911.12376113973
 20
6964.372203245665
 30
0.0
 40
120.0
 41
0.0
 71
     5
 72
     1
  1
\A1;3470
  7
STYLE1
 73
     1
 44
1.0
1001
ACAD
1000
MTEXTBEGIN
1070
    73
1070
     1
1070
    44
1040
1.0
1070
    74
1070
     0
1000
MTEXTEND
  0
POINT
  5
18C12
330
18C0A
100
AcDbEntity
  8
DEFPOINTS
 62
     0
 48
50.0
100
AcDbPoint
 10
4159.896575106992
 20
7846.123139034546
 30
0.0
  0
POINT
  5
18C13
330
18C0A
100
AcDbEntity
  8
DEFPOINTS
 62
     0
 48
50.0
100
AcDbPoint
 10
7629.896575106974
 20
7846.123139034673
 30
0.0
  0
POINT
  5
18C14
330
18C0A
100
AcDbEntity
  8
DEFPOINTS
 62
     0
 48
50.0
100
AcDbPoint
 10
7629.896575106974
 20
6864.372203245665
 30
0.0
  0
ENDBLK
  5
18C15
330
18C0A
100
AcDbEntity
  8
0
 48
50.0
100
AcDbBlockEnd
  0
BLOCK
  5
18C17
330
18C16
100
AcDbEntity
  8
0
 48
50.0
100
AcDbBlockBegin
  2
*D9
 70
     1
 10
0.0
 20
0.0
 30
0.0
  3
*D9
  1

  0
LINE
  5
18C18
330
18C16
100
AcDbEntity
  8
寸法
 62
     0
 48
50.0
370
    -2
100
AcDbLine
 10
7649.896575106973
 20
7901.123139034706
 30
0.0
 11
8337.322920841385
 21
7901.123139034706
 31
0.0
  0
LINE
  5
18C19
330
18C16
100
AcDbEntity
  8
寸法
 62
     0
 48
50.0
370
    -2
100
AcDbLine
 10
7649.896575106973
 20
7846.123139034709
 30
0.0
 11
8337.322920841385
 21
7846.123139034709
 31
0.0
  0
LINE
  5
18C1A
330
18C16
100
AcDbEntity
  8
寸法
 62
     0
 48
50.0
370
    -2
100
AcDbLine
 10
8277.322920841385
 20
7901.123139034706
 30
0.0
 11
8277.322920841385
 21
8001.123139034707
 31
0.0
  0
LINE
  5
18C1B
330
18C16
100
AcDbEntity
  8
寸法
 62
     0
 48
50.0
370
    -2
100
AcDbLine
 10
8277.322920841385
 20
7846.123139034709
 30
0.0
 11
8277.322920841385
 21
7429.152576286229
 31
0.0
  0
LINE
  5
18C1C
330
18C16
100
AcDbEntity
  8
寸法
 62
     0
 48
50.0
370
    -2
100
AcDbLine
 10
8277.322920841385
 20
7901.123139034706
 30
0.0
 11
8277.322920841385
 21
7846.123139034709
 31
0.0
  0
INSERT
  5
18C1D
330
18C16
100
AcDbEntity
  8
寸法
 62
     0
 48
50.0
370
    -2
100
AcDbBlockReference
  2
_DOTSMALL
 10
8277.322920841385
 20
7901.123139034706
 30
0.0
 41
100.0
 42
100.0
 43
100.0
 50
270.0
  0
INSERT
  5
18C1E
330
18C16
100
AcDbEntity
  8
寸法
 62
     0
 48
50.0
370
    -2
100
AcDbBlockReference
  2
_DOTSMALL
 10
8277.322920841385
 20
7846.123139034709
 30
0.0
 41
100.0
 42
100.0
 43
100.0
 50
90.0
  0
MTEXT
  5
18C1F
330
18C16
100
AcDbEntity
  8
寸法
 62
     7
 48
50.0
100
AcDbMText
 10
8177.322920841383
 20
7537.637857660469
 30
0.0
 40
120.0
 41
0.0
 71
     5
 72
     1
  1
\A1;55
  7
STYLE1
 11
0.0000000000000001
 21
1.0
 31
0.0
 73
     1
 44
1.0
1001
ACAD
1000
MTEXTBEGIN
1070
    73
1070
     1
1070
    44
1040
1.0
1070
    74
1070
     0
1000
MTEXTEND
  0
POINT
  5
18C20
330
18C16
100
AcDbEntity
  8
DEFPOINTS
 62
     0
 48
50.0
100
AcDbPoint
 10
7629.896575106974
 20
7901.123139034706
 30
0.0
  0
POINT
  5
18C21
330
18C16
100
AcDbEntity
  8
DEFPOINTS
 62
     0
 48
50.0
100
AcDbPoint
 10
7629.896575106974
 20
7846.123139034709
 30
0.0
  0
POINT
  5
18C22
330
18C16
100
AcDbEntity
  8
DEFPOINTS
 62
     0
 48
50.0
100
AcDbPoint
 10
8277.322920841385
 20
7846.123139034709
 30
0.0
  0
ENDBLK
  5
18C23
330
18C16
100
AcDbEntity
  8
0
 48
50.0
100
AcDbBlockEnd
  0
BLOCK
  5
18C25
330
18C24
100
AcDbEntity
  8
0
 48
50.0
100
AcDbBlockBegin
  2
*D10
 70
     1
 10
0.0
 20
0.0
 30
0.0
  3
*D10
  1

  0
LINE
  5
18C26
330
18C24
100
AcDbEntity
  8
寸法
 62
     0
 48
50.0
370
    -2
100
AcDbLine
 10
6533.037591258376
 20
9136.123139034728
 30
0.0
 11
6465.083950562664
 21
8882.516699399049
 31
0.0
  0
LINE
  5
18C27
330
18C24
100
AcDbEntity
  8
寸法
 62
     0
 48
50.0
370
    -2
100
AcDbLine
 10
7596.037591258388
 20
9136.123139034721
 30
0.0
 11
7528.083950562677
 21
8882.516699399049
 31
0.0
  0
LINE
  5
18C28
330
18C24
100
AcDbEntity
  8
寸法
 62
     0
 48
50.0
370
    -2
100
AcDbLine
 10
6481.160902108531
 20
8942.51669939905
 30
0.0
 11
7544.160902108544
 21
8942.51669939905
 31
0.0
  0
INSERT
  5
18C29
330
18C24
100
AcDbEntity
  8
寸法
 62
     0
 48
50.0
370
    -2
100
AcDbBlockReference
  2
_DOTSMALL
 10
6481.160902108531
 20
8942.51669939905
 30
0.0
 41
100.0
 42
100.0
 43
100.0
 50
180.0
  0
INSERT
  5
18C2A
330
18C24
100
AcDbEntity
  8
寸法
 62
     0
 48
50.0
370
    -2
100
AcDbBlockReference
  2
_DOTSMALL
 10
7544.160902108544
 20
8942.51669939905
 30
0.0
 41
100.0
 42
100.0
 43
100.0
  0
MTEXT
  5
18C2B
330
18C24
100
AcDbEntity
  8
寸法
 62
     7
 48
50.0
100
AcDbMText
 10
7061.28653022935
 20
9042.516699399049
 30
0.0
 40
120.0
 41
0.0
 71
     5
 72
     1
  1
\A1;1063
  7
STYLE1
 73
     1
 44
1.0
1001
ACAD
1000
MTEXTBEGIN
1070
    73
1070
     1
1070
    44
1040
1.0
1070
    74
1070
     0
1000
MTEXTEND
  0
POINT
  5
18C2C
330
18C24
100
AcDbEntity
  8
DEFPOINTS
 62
     0
 48
50.0
100
AcDbPoint
 10
6538.396575106998
 20
9156.123139034727
 30
0.0
  0
POINT
  5
18C2D
330
18C24
100
AcDbEntity
  8
DEFPOINTS
 62
     0
 48
50.0
100
AcDbPoint
 10
7601.39657510701
 20
9156.12313903472
 30
0.0
  0
POINT
  5
18C2E
330
18C24
100
AcDbEntity
  8
DEFPOINTS
 62
     0
 48
50.0
100
AcDbPoint
 10
7544.160902108544
 20
8942.51669939905
 30
0.0
  0
ENDBLK
  5
18C2F
330
18C24
100
AcDbEntity
  8
0
 48
50.0
100
AcDbBlockEnd
  0
BLOCK
  5
18C31
330
18C30
100
AcDbEntity
  8
0
 48
50.0
100
AcDbBlockBegin
  2
*D11
 70
     1
 10
0.0
 20
0.0
 30
0.0
  3
*D11
  1

  0
LINE
  5
18C32
330
18C30
100
AcDbEntity
  8
寸法
 62
     0
 48
50.0
370
    -2
100
AcDbLine
 10
7621.396575106999
 20
9600.764155186094
 30
0.0
 11
8016.754300969024
 21
9494.828371819961
 31
0.0
  0
LINE
  5
18C33
330
18C30
100
AcDbEntity
  8
寸法
 62
     0
 48
50.0
370
    -2
100
AcDbLine
 10
7621.396575106999
 20
9150.764155186099
 30
0.0
 11
8016.754300969024
 21
9044.828371819964
 31
0.0
  0
LINE
  5
18C34
330
18C30
100
AcDbEntity
  8
寸法
 62
     0
 48
50.0
370
    -2
100
AcDbLine
 10
7956.754300969024
 20
9510.905323365827
 30
0.0
 11
7956.754300969024
 21
9060.90532336583
 31
0.0
  0
INSERT
  5
18C35
330
18C30
100
AcDbEntity
  8
寸法
 62
     0
 48
50.0
370
    -2
100
AcDbBlockReference
  2
_DOTSMALL
 10
7956.754300969024
 20
9510.905323365827
 30
0.0
 41
100.0
 42
100.0
 43
100.0
 50
90.0
  0
INSERT
  5
18C36
330
18C30
100
AcDbEntity
  8
寸法
 62
     0
 48
50.0
370
    -2
100
AcDbBlockReference
  2
_DOTSMALL
 10
7956.754300969024
 20
9060.90532336583
 30
0.0
 41
100.0
 42
100.0
 43
100.0
 50
270.0
  0
MTEXT
  5
18C37
330
18C30
100
AcDbEntity
  8
寸法
 62
     7
 48
50.0
100
AcDbMText
 10
7856.754300969022
 20
9285.905323365829
 30
0.0
 40
120.0
 41
0.0
 71
     5
 72
     1
  1
\A1;450
  7
STYLE1
 11
0.0000000000000001
 21
1.0
 31
0.0
 73
     1
 44
1.0
1001
ACAD
1000
MTEXTBEGIN
1070
    73
1070
     1
1070
    44
1040
1.0
1070
    74
1070
     0
1000
MTEXTEND
  0
POINT
  5
18C38
330
18C30
100
AcDbEntity
  8
DEFPOINTS
 62
     0
 48
50.0
100
AcDbPoint
 10
7601.396575106999
 20
9606.123139034718
 30
0.0
  0
POINT
  5
18C39
330
18C30
100
AcDbEntity
  8
DEFPOINTS
 62
     0
 48
50.0
100
AcDbPoint
 10
7601.396575106999
 20
9156.12313903472
 30
0.0
  0
POINT
  5
18C3A
330
18C30
100
AcDbEntity
  8
DEFPOINTS
 62
     0
 48
50.0
100
AcDbPoint
 10
7956.754300969024
 20
9060.90532336583
 30
0.0
  0
ENDBLK
  5
18C3B
330
18C30
100
AcDbEntity
  8
0
 48
50.0
100
AcDbBlockEnd
  0
BLOCK
  5
18C3D
330
18C3C
100
AcDbEntity
  8
0
 48
50.0
100
AcDbBlockBegin
  2
*D12
 70
     1
 10
0.0
 20
0.0
 30
0.0
  3
*D12
  1

  0
LINE
  5
18C3E
330
18C3C
100
AcDbEntity
  8
寸法
 62
     0
 48
50.0
370
    -2
100
AcDbLine
 10
7649.896575106999
 20
9581.123139034721
 30
0.0
 11
8337.32292084141
 21
9581.123139034721
 31
0.0
  0
LINE
  5
18C3F
330
18C3C
100
AcDbEntity
  8
寸法
 62
     0
 48
50.0
370
    -2
100
AcDbLine
 10
7649.896575106973
 20
7901.123139034706
 30
0.0
 11
8337.32292084141
 21
7901.123139034706
 31
0.0
  0
LINE
  5
18C40
330
18C3C
100
AcDbEntity
  8
寸法
 62
     0
 48
50.0
370
    -2
100
AcDbLine
 10
8277.322920841411
 20
9581.123139034721
 30
0.0
 11
8277.322920841411
 21
7901.123139034706
 31
0.0
  0
INSERT
  5
18C41
330
18C3C
100
AcDbEntity
  8
寸法
 62
     0
 48
50.0
370
    -2
100
AcDbBlockReference
  2
_DOTSMALL
 10
8277.322920841411
 20
9581.123139034721
 30
0.0
 41
100.0
 42
100.0
 43
100.0
 50
90.0
  0
INSERT
  5
18C42
330
18C3C
100
AcDbEntity
  8
寸法
 62
     0
 48
50.0
370
    -2
100
AcDbBlockReference
  2
_DOTSMALL
 10
8277.322920841411
 20
7901.123139034706
 30
0.0
 41
100.0
 42
100.0
 43
100.0
 50
270.0
  0
MTEXT
  5
18C43
330
18C3C
100
AcDbEntity
  8
寸法
 62
     7
 48
50.0
100
AcDbMText
 10
8177.311109817788
 20
8741.123139034712
 30
0.0
 40
120.0
 41
0.0
 71
     5
 72
     1
  1
\A1;4X420=1680
  7
STYLE1
 11
0.0000000000000001
 21
1.0
 31
0.0
 73
     1
 44
1.0
1001
ACAD
1000
MTEXTBEGIN
1070
    73
1070
     1
1070
    44
1040
1.0
1070
    74
1070
     0
1000
MTEXTEND
  0
POINT
  5
18C44
330
18C3C
100
AcDbEntity
  8
DEFPOINTS
 62
     0
 48
50.0
100
AcDbPoint
 10
7629.896575106998
 20
9581.123139034721
 30
0.0
  0
POINT
  5
18C45
330
18C3C
100
AcDbEntity
  8
DEFPOINTS
 62
     0
 48
50.0
100
AcDbPoint
 10
7629.896575106974
 20
7901.123139034706
 30
0.0
  0
POINT
  5
18C46
330
18C3C
100
AcDbEntity
  8
DEFPOINTS
 62
     0
 48
50.0
100
AcDbPoint
 10
8277.322920841411
 20
7901.123139034706
 30
0.0
  0
ENDBLK
  5
18C47
330
18C3C
100
AcDbEntity
  8
0
 48
50.0
100
AcDbBlockEnd
  0
BLOCK
  5
18C49
330
18C48
100
AcDbEntity
  8
0
 48
50.0
100
AcDbBlockBegin
  2
*D13
 70
     1
 10
0.0
 20
0.0
 30
0.0
  3
*D13
  1

  0
LINE
  5
18C4A
330
18C48
100
AcDbEntity
  8
寸法
 62
     0
 48
50.0
370
    -2
100
AcDbLine
 10
4183.037591258377
 20
9136.123139034619
 30
0.0
 11
4115.083950562663
 21
8882.516699398941
 31
0.0
  0
LINE
  5
18C4B
330
18C48
100
AcDbEntity
  8
寸法
 62
     0
 48
50.0
370
    -2
100
AcDbLine
 10
5246.037591258307
 20
9136.123139034671
 30
0.0
 11
5178.08395056258
 21
8882.516699398941
 31
0.0
  0
LINE
  5
18C4C
330
18C48
100
AcDbEntity
  8
寸法
 62
     0
 48
50.0
370
    -2
100
AcDbLine
 10
4131.160902108532
 20
8942.516699398941
 30
0.0
 11
5194.160902108448
 21
8942.516699398941
 31
0.0
  0
INSERT
  5
18C4D
330
18C48
100
AcDbEntity
  8
寸法
 62
     0
 48
50.0
370
    -2
100
AcDbBlockReference
  2
_DOTSMALL
 10
4131.160902108532
 20
8942.516699398941
 30
0.0
 41
100.0
 42
100.0
 43
100.0
 50
180.0
  0
INSERT
  5
18C4E
330
18C48
100
AcDbEntity
  8
寸法
 62
     0
 48
50.0
370
    -2
100
AcDbBlockReference
  2
_DOTSMALL
 10
5194.160902108448
 20
8942.516699398941
 30
0.0
 41
100.0
 42
100.0
 43
100.0
  0
MTEXT
  5
18C4F
330
18C48
100
AcDbEntity
  8
寸法
 62
     7
 48
50.0
100
AcDbMText
 10
4658.986452655306
 20
9042.516699398941
 30
0.0
 40
120.0
 41
0.0
 71
     5
 72
     1
  1
\A1;1063
  7
STYLE1
 73
     1
 44
1.0
1001
ACAD
1000
MTEXTBEGIN
1070
    73
1070
     1
1070
    44
1040
1.0
1070
    74
1070
     0
1000
MTEXTEND
  0
POINT
  5
18C50
330
18C48
100
AcDbEntity
  8
DEFPOINTS
 62
     0
 48
50.0
100
AcDbPoint
 10
4188.396575106999
 20
9156.123139034617
 30
0.0
  0
POINT
  5
18C51
330
18C48
100
AcDbEntity
  8
DEFPOINTS
 62
     0
 48
50.0
100
AcDbPoint
 10
5251.396575106929
 20
9156.123139034672
 30
0.0
  0
POINT
  5
18C52
330
18C48
100
AcDbEntity
  8
DEFPOINTS
 62
     0
 48
50.0
100
AcDbPoint
 10
5194.160902108448
 20
8942.516699398941
 30
0.0
  0
ENDBLK
  5
18C53
330
18C48
100
AcDbEntity
  8
0
 48
50.0
100
AcDbBlockEnd
  0
BLOCK
  5
18C55
330
18C54
100
AcDbEntity
  8
0
 48
50.0
100
AcDbBlockBegin
  2
*D14
 70
     1
 10
0.0
 20
0.0
 30
0.0
  3
*D14
  1

  0
LINE
  5
18C56
330
18C54
100
AcDbEntity
  8
寸法
 62
     0
 48
50.0
370
    -2
100
AcDbLine
 10
5274.037591258307
 20
9136.123139034669
 30
0.0
 11
5206.08395056258
 21
8882.516699398941
 31
0.0
  0
LINE
  5
18C57
330
18C54
100
AcDbEntity
  8
寸法
 62
     0
 48
50.0
370
    -2
100
AcDbLine
 10
6505.037591258377
 20
9136.123139034662
 30
0.0
 11
6437.083950562653
 21
8882.516699398941
 31
0.0
  0
LINE
  5
18C58
330
18C54
100
AcDbEntity
  8
寸法
 62
     0
 48
50.0
370
    -2
100
AcDbLine
 10
5222.160902108448
 20
8942.516699398941
 30
0.0
 11
6453.16090210852
 21
8942.516699398941
 31
0.0
  0
INSERT
  5
18C59
330
18C54
100
AcDbEntity
  8
寸法
 62
     0
 48
50.0
370
    -2
100
AcDbBlockReference
  2
_DOTSMALL
 10
5222.160902108448
 20
8942.516699398941
 30
0.0
 41
100.0
 42
100.0
 43
100.0
 50
180.0
  0
INSERT
  5
18C5A
330
18C54
100
AcDbEntity
  8
寸法
 62
     0
 48
50.0
370
    -2
100
AcDbBlockReference
  2
_DOTSMALL
 10
6453.16090210852
 20
8942.516699398941
 30
0.0
 41
100.0
 42
100.0
 43
100.0
  0
MTEXT
  5
18C5B
330
18C54
100
AcDbEntity
  8
寸法
 62
     7
 48
50.0
100
AcDbMText
 10
6081.244808320626
 20
9042.528510422561
 30
0.0
 40
120.0
 41
0.0
 71
     5
 72
     1
  1
\A1;1231
  7
STYLE1
 73
     1
 44
1.0
1001
ACAD
1000
MTEXTBEGIN
1070
    73
1070
     1
1070
    44
1040
1.0
1070
    74
1070
     0
1000
MTEXTEND
  0
POINT
  5
18C5C
330
18C54
100
AcDbEntity
  8
DEFPOINTS
 62
     0
 48
50.0
100
AcDbPoint
 10
5279.396575106929
 20
9156.123139034669
 30
0.0
  0
POINT
  5
18C5D
330
18C54
100
AcDbEntity
  8
DEFPOINTS
 62
     0
 48
50.0
100
AcDbPoint
 10
6510.396575106999
 20
9156.123139034662
 30
0.0
  0
POINT
  5
18C5E
330
18C54
100
AcDbEntity
  8
DEFPOINTS
 62
     0
 48
50.0
100
AcDbPoint
 10
6453.16090210852
 20
8942.516699398941
 30
0.0
  0
ENDBLK
  5
18C5F
330
18C54
100
AcDbEntity
  8
0
 48
50.0
100
AcDbBlockEnd
  0
BLOCK
  5
18C61
330
18C60
100
AcDbEntity
  8
0
 48
50.0
100
AcDbBlockBegin
  2
*D15
 70
     1
 10
0.0
 20
0.0
 30
0.0
  3
*D15
  1

  0
LINE
  5
18C62
330
18C60
100
AcDbEntity
  8
寸法
 62
     0
 48
50.0
370
    -2
100
AcDbLine
 10
5065.896575106966
 20
7749.123139034579
 30
0.0
 11
5065.896575106966
 21
7099.952920982538
 31
0.0
  0
LINE
  5
18C63
330
18C60
100
AcDbEntity
  8
寸法
 62
     0
 48
50.0
370
    -2
100
AcDbLine
 10
6331.896575106966
 20
7749.123139034579
 30
0.0
 11
6331.896575106966
 21
7099.952920982538
 31
0.0
  0
LINE
  5
18C64
330
18C60
100
AcDbEntity
  8
寸法
 62
     0
 48
50.0
370
    -2
100
AcDbLine
 10
5065.896575106966
 20
7159.952920982537
 30
0.0
 11
6331.896575106966
 21
7159.952920982537
 31
0.0
  0
INSERT
  5
18C65
330
18C60
100
AcDbEntity
  8
寸法
 62
     0
 48
50.0
370
    -2
100
AcDbBlockReference
  2
_DOTSMALL
 10
5065.896575106966
 20
7159.952920982537
 30
0.0
 41
100.0
 42
100.0
 43
100.0
 50
180.0
  0
INSERT
  5
18C66
330
18C60
100
AcDbEntity
  8
寸法
 62
     0
 48
50.0
370
    -2
100
AcDbBlockReference
  2
_DOTSMALL
 10
6331.896575106966
 20
7159.952920982537
 30
0.0
 41
100.0
 42
100.0
 43
100.0
  0
MTEXT
  5
18C67
330
18C60
100
AcDbEntity
  8
寸法
 62
     7
 48
50.0
100
AcDbMText
 10
5711.986008735934
 20
7359.964732006159
 30
0.0
 40
120.0
 41
0.0
 71
     5
 72
     1
  1
\A1;有効開口部間口\P1266
  7
STYLE1
 73
     1
 44
1.0
1001
ACAD
1000
MTEXTBEGIN
1070
    73
1070
     1
1070
    44
1040
1.0
1070
    74
1070
     0
1000
MTEXTEND
  0
POINT
  5
18C68
330
18C60
100
AcDbEntity
  8
DEFPOINTS
 62
     0
 48
50.0
100
AcDbPoint
 10
5065.896575106966
 20
7769.123139034579
 30
0.0
  0
POINT
  5
18C69
330
18C60
100
AcDbEntity
  8
DEFPOINTS
 62
     0
 48
50.0
100
AcDbPoint
 10
6331.896575106966
 20
7769.123139034579
 30
0.0
  0
POINT
  5
18C6A
330
18C60
100
AcDbEntity
  8
DEFPOINTS
 62
     0
 48
50.0
100
AcDbPoint
 10
6331.896575106966
 20
7159.952920982537
 30
0.0
  0
ENDBLK
  5
18C6B
330
18C60
100
AcDbEntity
  8
0
 48
50.0
100
AcDbBlockEnd
  0
BLOCK
  5
18C6D
330
18C6C
100
AcDbEntity
  8
0
 48
50.0
100
AcDbBlockBegin
  2
*D16
 70
     1
 10
0.0
 20
0.0
 30
0.0
  3
*D16
  1

  0
LINE
  5
18C6E
330
18C6C
100
AcDbEntity
  8
寸法
 62
     0
 48
50.0
370
    -2
100
AcDbLine
 10
7200.896575106966
 20
7846.123139034578
 30
0.0
 11
7457.192158500191
 21
7846.123139034578
 31
0.0
  0
LINE
  5
18C6F
330
18C6C
100
AcDbEntity
  8
寸法
 62
     0
 48
50.0
370
    -2
100
AcDbLine
 10
7199.896575106966
 20
7769.123139034579
 30
0.0
 11
7457.192158500191
 21
7769.123139034579
 31
0.0
  0
LINE
  5
18C70
330
18C6C
100
AcDbEntity
  8
寸法
 62
     0
 48
50.0
370
    -2
100
AcDbLine
 10
7417.192158500192
 20
7866.123139034579
 30
0.0
 11
7417.192158500192
 21
7886.123139034578
 31
0.0
  0
LINE
  5
18C71
330
18C6C
100
AcDbEntity
  8
寸法
 62
     0
 48
50.0
370
    -2
100
AcDbLine
 10
7417.192158500192
 20
7749.123139034579
 30
0.0
 11
7417.192158500192
 21
7533.123139034573
 31
0.0
  0
LINE
  5
18C72
330
18C6C
100
AcDbEntity
  8
寸法
 62
     0
 48
50.0
370
    -2
100
AcDbLine
 10
7417.192158500192
 20
7846.123139034578
 30
0.0
 11
7417.192158500192
 21
7769.123139034579
 31
0.0
  0
INSERT
  5
18C73
330
18C6C
100
AcDbEntity
  8
寸法
 62
     0
 48
50.0
370
    -2
100
AcDbBlockReference
  2
_DOT
 10
7417.192158500192
 20
7846.123139034578
 30
0.0
 41
20.0
 42
20.0
 43
20.0
 50
270.0
  0
INSERT
  5
18C74
330
18C6C
100
AcDbEntity
  8
寸法
 62
     0
 48
50.0
370
    -2
100
AcDbBlockReference
  2
_DOT
 10
7417.192158500192
 20
7769.123139034579
 30
0.0
 41
20.0
 42
20.0
 43
20.0
 50
90.0
  0
MTEXT
  5
18C75
330
18C6C
100
AcDbEntity
  8
寸法
 62
     7
 48
50.0
100
AcDbMText
 10
7325.192158500191
 20
7631.123139034575
 30
0.0
 40
120.0
 41
0.0
 71
     5
 72
     1
  1
\A1;77
  7
STYLE1
 11
0.0000000000000001
 21
1.0
 31
0.0
 73
     1
 44
1.0
1001
ACAD
1000
MTEXTBEGIN
1070
    73
1070
     1
1070
    44
1040
1.0
1070
    74
1070
     0
1000
MTEXTEND
  0
POINT
  5
18C76
330
18C6C
100
AcDbEntity
  8
DEFPOINTS
 62
     0
 48
50.0
100
AcDbPoint
 10
7180.896575106967
 20
7846.123139034578
 30
0.0
  0
POINT
  5
18C77
330
18C6C
100
AcDbEntity
  8
DEFPOINTS
 62
     0
 48
50.0
100
AcDbPoint
 10
7179.896575106965
 20
7769.123139034579
 30
0.0
  0
POINT
  5
18C78
330
18C6C
100
AcDbEntity
  8
DEFPOINTS
 62
     0
 48
50.0
100
AcDbPoint
 10
7417.192158500192
 20
7769.123139034579
 30
0.0
  0
ENDBLK
  5
18C79
330
18C6C
100
AcDbEntity
  8
0
 48
50.0
100
AcDbBlockEnd
  0
BLOCK
  5
18DA0
330
18C7A
100
AcDbEntity
  8
0
 48
50.0
100
AcDbBlockBegin
  2
A$C3B1A506B
 70
     0
 10
0.0
 20
0.0
 30
0.0
  3
A$C3B1A506B
  1

  0
MTEXT
  5
18C7B
330
18C7A
100
AcDbEntity
  8
寸法
 62
     7
 48
50.0
100
AcDbMText
 10
3342.250386887194
 20
2778.329429134012
 30
0.0
 40
96.0
 41
0.0
 71
     5
 72
     1
  1
棚 2段
  7
STYLE1
 73
     1
 44
1.0
1001
ACAD
1000
MTEXTBEGIN
1070
    73
1070
     1
1070
    44
1040
1.0
1070
    74
1070
     0
1000
MTEXTEND
  0
MTEXT
  5
18C7C
330
18C7A
100
AcDbEntity
  8
寸法
 62
     7
 48
50.0
100
AcDbMText
 10
2167.25038688716
 20
2778.329429133986
 30
0.0
 40
96.0
 41
0.0
 71
     5
 72
     1
  1
棚 2段
  7
STYLE1
 73
     1
 44
1.0
1001
ACAD
1000
MTEXTBEGIN
1070
    73
1070
     1
1070
    44
1040
1.0
1070
    74
1070
     0
1000
MTEXTEND
  0
MTEXT
  5
18C7D
330
18C7A
100
AcDbEntity
  8
寸法
 62
     7
 48
50.0
100
AcDbMText
 10
992.2503868871608
 20
2778.329429133935
 30
0.0
 40
96.0
 41
0.0
 71
     5
 72
     1
  1
棚 2段
  7
STYLE1
 73
     1
 44
1.0
1001
ACAD
1000
MTEXTBEGIN
1070
    73
1070
     1
1070
    44
1040
1.0
1070
    74
1070
     0
1000
MTEXTEND
  0
LINE
  5
18C7E
330
18C7A
100
AcDbEntity
  8
細線
 48
50.0
100
AcDbLine
 10
2771.970589276527
 20
1368.994384123192
 30
0.0
 11
3398.970589276523
 21
1368.994384123192
 31
0.0
  0
LINE
  5
18C7F
330
18C7A
100
AcDbEntity
  8
細線
 48
50.0
100
AcDbLine
 10
2117.970593930113
 20
1335.285615569113
 30
0.0
 11
3398.970589276523
 21
1335.285615569113
 31
0.0
  0
LINE
  5
18C80
330
18C7A
100
AcDbEntity
  8
細線
 48
50.0
100
AcDbLine
 10
2076.970593930115
 20
1364.690523565368
 30
0.0
 11
1322.970589276523
 21
1364.690523565367
 31
0.0
  0
LINE
  5
18C81
330
18C7A
100
AcDbEntity
  8
細線
100
AcDbLine
 10
3170.720579860066
 20
1388.494284088199
 30
0.0
 11
3173.052119381877
 21
1393.494286728162
 31
0.0
  0
LINE
  5
18C82
330
18C7A
100
AcDbEntity
  8
細線
100
AcDbLine
 10
3240.720589276525
 20
1388.494269174465
 30
0.0
 11
3238.389042800336
 21
1393.494286728144
 31
0.0
  0
LINE
  5
18C83
330
18C7A
100
AcDbEntity
  8
細線
100
AcDbLine
 10
3238.389042800336
 20
1393.494286728144
 30
0.0
 11
3173.052119381862
 21
1393.494286728133
 31
0.0
  0
LINE
  5
18C84
330
18C7A
100
AcDbEntity
  8
細線
100
AcDbLine
 10
3098.389042800336
 20
1393.494286728144
 30
0.0
 11
3033.052119381862
 21
1393.494286728133
 31
0.0
  0
LINE
  5
18C85
330
18C7A
100
AcDbEntity
  8
細線
100
AcDbLine
 10
3100.720589276523
 20
1388.494269174465
 30
0.0
 11
3098.389042800336
 21
1393.494286728144
 31
0.0
  0
LINE
  5
18C86
330
18C7A
100
AcDbEntity
  8
細線
100
AcDbLine
 10
3030.720579860066
 20
1388.494284088199
 30
0.0
 11
3033.052119381875
 21
1393.494286728162
 31
0.0
  0
LINE
  5
18C87
330
18C7A
100
AcDbEntity
  8
細線
100
AcDbLine
 10
2890.720589276525
 20
1388.494269174465
 30
0.0
 11
2893.052128798336
 21
1393.494271814428
 31
0.0
  0
LINE
  5
18C88
330
18C7A
100
AcDbEntity
  8
細線
100
AcDbLine
 10
2960.720598692984
 20
1388.494254260731
 30
0.0
 11
2958.389052216793
 21
1393.49427181441
 31
0.0
  0
LINE
  5
18C89
330
18C7A
100
AcDbEntity
  8
細線
100
AcDbLine
 10
2958.389052216795
 20
1393.49427181441
 30
0.0
 11
2893.052128798321
 21
1393.494271814399
 31
0.0
  0
LINE
  5
18C8A
330
18C7A
100
AcDbEntity
  8
細線
100
AcDbLine
 10
2667.139038146739
 20
1359.494298590735
 30
0.0
 11
2601.802114728263
 21
1359.494298590724
 31
0.0
  0
LINE
  5
18C8B
330
18C7A
100
AcDbEntity
  8
細線
100
AcDbLine
 10
2669.470584622926
 20
1354.494281037055
 30
0.0
 11
2667.139038146737
 21
1359.494298590735
 31
0.0
  0
LINE
  5
18C8C
330
18C7A
100
AcDbEntity
  8
細線
100
AcDbLine
 10
2599.470575206469
 20
1354.49429595079
 30
0.0
 11
2601.802114728278
 21
1359.494298590752
 31
0.0
  0
LINE
  5
18C8D
330
18C7A
100
AcDbEntity
  8
細線
 48
50.0
100
AcDbLine
 10
2440.853968524536
 20
1372.765132327548
 30
0.0
 11
2446.609486107205
 21
1354.494281037057
 31
0.0
  0
LINE
  5
18C8E
330
18C7A
100
AcDbEntity
  8
細線
 48
50.0
100
AcDbLine
 10
2429.925520044106
 20
1372.765132327546
 30
0.0
 11
2440.853968524536
 21
1372.765132327548
 31
0.0
  0
ARC
  5
18C8F
330
18C7A
100
AcDbEntity
  8
細線
 48
50.0
100
AcDbCircle
 10
2424.471163986787
 20
1374.265132327546
 30
0.0
 40
5.0
100
AcDbArc
 50
204.6243183520723
 51
335.3756816479278
  0
ARC
  5
18C90
330
18C7A
100
AcDbEntity
  8
細線
 48
50.0
100
AcDbCircle
 10
2429.925520044106
 20
1371.765132327546
 30
0.0
 40
1.0
100
AcDbArc
 50
90.0
 51
155.3756816479277
  0
ARC
  5
18C91
330
18C7A
100
AcDbEntity
  8
細線
 48
50.0
100
AcDbCircle
 10
2419.016807929469
 20
1371.765132327546
 30
0.0
 40
1.0
100
AcDbArc
 50
24.62431835207225
 51
90.0
  0
LINE
  5
18C92
330
18C7A
100
AcDbEntity
  8
細線
 48
50.0
100
AcDbLine
 10
2408.088359449037
 20
1372.765132327548
 30
0.0
 11
2419.016807929469
 21
1372.765132327546
 31
0.0
  0
LINE
  5
18C93
330
18C7A
100
AcDbEntity
  8
細線
 48
50.0
100
AcDbLine
 10
2402.33284186637
 20
1354.494281037054
 30
0.0
 11
2408.088359449037
 21
1372.765132327548
 31
0.0
  0
LINE
  5
18C94
330
18C7A
100
AcDbEntity
  8
細線
100
AcDbLine
 10
2458.070304175992
 20
1354.494278397076
 30
0.0
 11
2460.401843697802
 21
1359.494281037039
 31
0.0
  0
LINE
  5
18C95
330
18C7A
100
AcDbEntity
  8
細線
100
AcDbLine
 10
2528.070313592451
 20
1354.494263483342
 30
0.0
 11
2525.738767116262
 21
1359.494281037021
 31
0.0
  0
LINE
  5
18C96
330
18C7A
100
AcDbEntity
  8
細線
100
AcDbLine
 10
2525.738767116262
 20
1359.494281037021
 30
0.0
 11
2460.40184369779
 21
1359.49428103701
 31
0.0
  0
LINE
  5
18C97
330
18C7A
100
AcDbEntity
  8
細線
100
AcDbLine
 10
2387.139046332155
 20
1359.494281037021
 30
0.0
 11
2321.80212291368
 21
1359.49428103701
 31
0.0
  0
LINE
  5
18C98
330
18C7A
100
AcDbEntity
  8
細線
100
AcDbLine
 10
2389.470592808342
 20
1354.494263483342
 30
0.0
 11
2387.139046332153
 21
1359.494281037021
 31
0.0
  0
LINE
  5
18C99
330
18C7A
100
AcDbEntity
  8
細線
100
AcDbLine
 10
2319.470584622926
 20
1354.494281037054
 30
0.0
 11
2321.802122913694
 21
1359.494281037039
 31
0.0
  0
LINE
  5
18C9A
330
18C7A
100
AcDbEntity
  8
細線
100
AcDbLine
 10
2179.47061994182
 20
1354.494289224422
 30
0.0
 11
2181.802158232587
 21
1359.494289224407
 31
0.0
  0
LINE
  5
18C9B
330
18C7A
100
AcDbEntity
  8
細線
100
AcDbLine
 10
2249.470628127236
 20
1354.49427167071
 30
0.0
 11
2247.139081651047
 21
1359.494289224389
 31
0.0
  0
LINE
  5
18C9C
330
18C7A
100
AcDbEntity
  8
細線
100
AcDbLine
 10
2247.139081651047
 20
1359.494289224389
 30
0.0
 11
2181.802158232573
 21
1359.494289224378
 31
0.0
  0
LINE
  5
18C9D
330
18C7A
100
AcDbEntity
  8
細線
100
AcDbLine
 10
1807.970585744697
 20
1320.494460905133
 30
0.0
 11
1810.302124035464
 21
1325.494460905118
 31
0.0
  0
LINE
  5
18C9E
330
18C7A
100
AcDbEntity
  8
細線
100
AcDbLine
 10
1877.970593930113
 20
1320.494443351421
 30
0.0
 11
1875.639047453926
 21
1325.4944609051
 31
0.0
  0
LINE
  5
18C9F
330
18C7A
100
AcDbEntity
  8
細線
100
AcDbLine
 10
1875.639047453926
 20
1325.4944609051
 30
0.0
 11
1810.302124035452
 21
1325.494460905089
 31
0.0
  0
LINE
  5
18CA0
330
18C7A
100
AcDbEntity
  8
細線
100
AcDbLine
 10
2015.639047453926
 20
1325.4944609051
 30
0.0
 11
1950.302124035452
 21
1325.494460905089
 31
0.0
  0
LINE
  5
18CA1
330
18C7A
100
AcDbEntity
  8
細線
100
AcDbLine
 10
2017.970593930113
 20
1320.494443351421
 30
0.0
 11
2015.639047453924
 21
1325.4944609051
 31
0.0
  0
LINE
  5
18CA2
330
18C7A
100
AcDbEntity
  8
細線
100
AcDbLine
 10
1947.970585744697
 20
1320.494460905133
 30
0.0
 11
1950.302124035465
 21
1325.494460905118
 31
0.0
  0
LINE
  5
18CA3
330
18C7A
100
AcDbEntity
  8
細線
100
AcDbLine
 10
1735.639047453926
 20
1325.494460905098
 30
0.0
 11
1670.302124035454
 21
1325.494460905087
 31
0.0
  0
LINE
  5
18CA4
330
18C7A
100
AcDbEntity
  8
細線
100
AcDbLine
 10
1737.970593930113
 20
1320.494443351419
 30
0.0
 11
1735.639047453926
 21
1325.494460905098
 31
0.0
  0
LINE
  5
18CA5
330
18C7A
100
AcDbEntity
  8
細線
100
AcDbLine
 10
1667.970585744697
 20
1320.494460905131
 30
0.0
 11
1670.302124035465
 21
1325.494460905116
 31
0.0
  0
LINE
  5
18CA6
330
18C7A
100
AcDbEntity
  8
細線
100
AcDbLine
 10
1527.970593930113
 20
1320.494460905133
 30
0.0
 11
1530.302132220881
 21
1325.494460905118
 31
0.0
  0
LINE
  5
18CA7
330
18C7A
100
AcDbEntity
  8
細線
100
AcDbLine
 10
1597.970602115529
 20
1320.494443351421
 30
0.0
 11
1595.639055639342
 21
1325.4944609051
 31
0.0
  0
LINE
  5
18CA8
330
18C7A
100
AcDbEntity
  8
細線
100
AcDbLine
 10
1595.639055639342
 20
1325.4944609051
 30
0.0
 11
1530.302132220869
 21
1325.494460905089
 31
0.0
  0
ARC
  5
18CA9
330
18C7A
100
AcDbEntity
  8
部品1
 48
0.01
100
AcDbCircle
 10
1483.470482677778
 20
1319.493338720063
 30
0.0
 40
0.5
100
AcDbArc
 50
270.0
 51
0.0
  0
LINE
  5
18CAA
330
18C7A
100
AcDbEntity
  8
部品1
 48
0.01
100
AcDbLine
 10
1483.970482677778
 20
1320.493338720063
 30
0.0
 11
1483.970482677778
 21
1319.493338720063
 31
0.0
  0
LINE
  5
18CAB
330
18C7A
100
AcDbEntity
  8
部品1
 48
0.01
100
AcDbLine
 10
1483.970482677778
 20
1320.493338720063
 30
0.0
 11
1483.970482677778
 21
1319.493338720063
 31
0.0
  0
LINE
  5
18CAC
330
18C7A
100
AcDbEntity
  8
部品1
 48
0.01
100
AcDbLine
 10
1483.470482677778
 20
1318.993338720063
 30
0.0
 11
1476.857977247713
 21
1318.993338720062
 31
0.0
  0
ARC
  5
18CAD
330
18C7A
100
AcDbEntity
  8
部品1
100
AcDbCircle
 10
1476.926326800494
 20
1319.993338720062
 30
0.0
 40
1.0
100
AcDbArc
 50
160.5287793655865
 51
270.0
  0
ARC
  5
18CAE
330
18C7A
100
AcDbEntity
  8
部品1
100
AcDbCircle
 10
1451.470482677778
 20
1328.993338720062
 30
0.0
 40
26.0
100
AcDbArc
 50
340.5287793655865
 51
0.0
  0
LINE
  5
18CAF
330
18C7A
100
AcDbEntity
  8
部品1
100
AcDbLine
 10
1477.470482677778
 20
1328.993338720062
 30
0.0
 11
1477.470482677778
 21
1333.993338720061
 31
0.0
  0
ARC
  5
18CB0
330
18C7A
100
AcDbEntity
  8
部品1
 48
0.01
100
AcDbCircle
 10
1475.470482677778
 20
1333.993338720061
 30
0.0
 40
2.0
100
AcDbArc
 50
0.0
 51
90.0
  0
ARC
  5
18CB1
330
18C7A
100
AcDbEntity
  8
部品1
100
AcDbCircle
 10
1473.862091052968
 20
1332.993338720062
 30
0.0
 40
3.0
100
AcDbArc
 50
90.0
 51
141.6069559808035
  0
LINE
  5
18CB2
330
18C7A
100
AcDbEntity
  8
部品1
 48
0.01
100
AcDbLine
 10
1475.470482677778
 20
1335.993338720062
 30
0.0
 11
1473.862091052968
 21
1335.993338720062
 31
0.0
  0
ARC
  5
18CB3
330
18C7A
100
AcDbEntity
  8
部品1
100
AcDbCircle
 10
1455.399768463507
 20
1332.293338720065
 30
0.0
 40
3.0
100
AcDbArc
 50
254.0576313943215
 51
270.0
  0
ARC
  5
18CB4
330
18C7A
100
AcDbEntity
  8
部品1
100
AcDbCircle
 10
1462.541196892049
 20
1332.293338720065
 30
0.0
 40
3.0
100
AcDbArc
 50
270.0
 51
285.9423686056786
  0
LINE
  5
18CB5
330
18C7A
100
AcDbEntity
  8
部品1
100
AcDbLine
 10
1462.541196892049
 20
1329.293338720064
 30
0.0
 11
1455.399768463507
 21
1329.293338720064
 31
0.0
  0
ARC
  5
18CB6
330
18C7A
100
AcDbEntity
  8
部品1
100
AcDbCircle
 10
1458.970482677778
 20
1344.793338720065
 30
0.0
 40
16.0
100
AcDbArc
 50
285.9423686056786
 51
321.6069559808035
  0
LINE
  5
18CB7
330
18C7A
100
AcDbEntity
  8
部品1
 48
0.01
100
AcDbLine
 10
1442.470482677778
 20
1335.993338720062
 30
0.0
 11
1444.078874302588
 21
1335.993338720062
 31
0.0
  0
ARC
  5
18CB8
330
18C7A
100
AcDbEntity
  8
部品1
100
AcDbCircle
 10
1444.078874302588
 20
1332.993338720062
 30
0.0
 40
3.0
100
AcDbArc
 50
38.39304401919648
 51
90.0
  0
ARC
  5
18CB9
330
18C7A
100
AcDbEntity
  8
部品1
100
AcDbCircle
 10
1458.970482677778
 20
1344.793338720065
 30
0.0
 40
16.0
100
AcDbArc
 50
218.3930440191965
 51
254.0576313943215
  0
LINE
  5
18CBA
330
18C7A
100
AcDbEntity
  8
部品1
100
AcDbLine
 10
1440.470482677778
 20
1328.993338720062
 30
0.0
 11
1440.470482677778
 21
1333.993338720061
 31
0.0
  0
ARC
  5
18CBB
330
18C7A
100
AcDbEntity
  8
部品1
 48
0.01
100
AcDbCircle
 10
1442.470482677778
 20
1333.993338720061
 30
0.0
 40
2.0
100
AcDbArc
 50
90.0
 51
180.0
  0
ARC
  5
18CBC
330
18C7A
100
AcDbEntity
  8
部品1
100
AcDbCircle
 10
1466.470482677778
 20
1328.993338720062
 30
0.0
 40
26.0
100
AcDbArc
 50
180.0
 51
199.4712206344134
  0
ARC
  5
18CBD
330
18C7A
100
AcDbEntity
  8
部品1
 48
0.01
100
AcDbCircle
 10
1434.470482677778
 20
1319.493338720063
 30
0.0
 40
0.5
100
AcDbArc
 50
180.0
 51
270.0
  0
LINE
  5
18CBE
330
18C7A
100
AcDbEntity
  8
部品1
 48
0.01
100
AcDbLine
 10
1434.470482677778
 20
1318.993338720063
 30
0.0
 11
1441.014638555061
 21
1318.993338720062
 31
0.0
  0
LINE
  5
18CBF
330
18C7A
100
AcDbEntity
  8
部品1
 48
0.01
100
AcDbLine
 10
1433.970482677778
 20
1320.493338720063
 30
0.0
 11
1433.970482677778
 21
1319.493338720063
 31
0.0
  0
ARC
  5
18CC0
330
18C7A
100
AcDbEntity
  8
部品1
100
AcDbCircle
 10
1441.014638555061
 20
1319.993338720062
 30
0.0
 40
1.0
100
AcDbArc
 50
270.0
 51
19.47122063441346
  0
LINE
  5
18CC1
330
18C7A
100
AcDbEntity
  8
細線
100
AcDbLine
 10
1479.470482677785
 20
1338.493338720065
 30
0.0
 11
1438.470482677785
 21
1338.493338720058
 31
0.0
  0
LINE
  5
18CC2
330
18C7A
100
AcDbEntity
  8
細線
100
AcDbLine
 10
1438.470482677785
 20
1338.493338720058
 30
0.0
 11
1438.470482677785
 21
1320.49333872004
 31
0.0
  0
LINE
  5
18CC3
330
18C7A
100
AcDbEntity
  8
細線
100
AcDbLine
 10
1479.470482677785
 20
1338.493338720065
 30
0.0
 11
1479.470482677785
 21
1320.49333872004
 31
0.0
  0
LINE
  5
18CC4
330
18C7A
100
AcDbEntity
  8
細線
100
AcDbLine
 10
1322.970589276523
 20
1324.494269174465
 30
0.0
 11
1322.970589276523
 21
1320.494269174513
 31
0.0
  0
LINE
  5
18CC5
330
18C7A
100
AcDbEntity
  8
寸法
 48
50.0
100
AcDbLine
 10
1746.17359555837
 20
1170.531020743327
 30
0.0
 11
1694.767587648266
 21
1170.531020743327
 31
0.0
  0
LINE
  5
18CC6
330
18C7A
100
AcDbEntity
  8
寸法
 48
50.0
100
AcDbLine
 10
1694.767587648266
 20
1170.531020743327
 30
0.0
 11
1694.767587648266
 21
1201.841179395494
 31
0.0
  0
LINE
  5
18CC7
330
18C7A
100
AcDbEntity
  8
寸法
 48
50.0
100
AcDbLine
 10
1694.767587648266
 20
1201.841179395494
 30
0.0
 11
1665.006255656843
 21
1201.841179395494
 31
0.0
  0
LINE
  5
18CC8
330
18C7A
100
AcDbEntity
  8
寸法
 48
50.0
100
AcDbLine
 10
1665.006255656843
 20
1201.841179395494
 30
0.0
 11
1720.470591603318
 21
1239.420630324105
 31
0.0
  0
LINE
  5
18CC9
330
18C7A
100
AcDbEntity
  8
寸法
 48
50.0
100
AcDbLine
 10
1775.934927549793
 20
1201.841179395494
 30
0.0
 11
1720.470591603318
 21
1239.420630324105
 31
0.0
  0
LINE
  5
18CCA
330
18C7A
100
AcDbEntity
  8
寸法
 48
50.0
100
AcDbLine
 10
1746.17359555837
 20
1201.841179395494
 30
0.0
 11
1775.934927549793
 21
1201.841179395494
 31
0.0
  0
LINE
  5
18CCB
330
18C7A
100
AcDbEntity
  8
寸法
 48
50.0
100
AcDbLine
 10
1746.17359555837
 20
1170.531020743327
 30
0.0
 11
1746.17359555837
 21
1201.841179395494
 31
0.0
  0
LINE
  5
18CCC
330
18C7A
100
AcDbEntity
  8
寸法
 48
50.0
100
AcDbLine
 10
1694.767587648266
 20
1170.531020743327
 30
0.0
 11
1746.17359555837
 21
1170.531020743327
 31
0.0
  0
LINE
  5
18CCD
330
18C7A
100
AcDbEntity
  8
寸法
 48
50.0
100
AcDbLine
 10
2025.339129835225
 20
1227.676611498152
 30
0.0
 11
2025.339129835225
 21
1174.01297691636
 31
0.0
  0
LINE
  5
18CCE
330
18C7A
100
AcDbEntity
  8
寸法
 48
50.0
100
AcDbLine
 10
2114.623348430647
 20
1203.752977228664
 30
0.0
 11
2025.339129835225
 21
1227.676611498152
 31
0.0
  0
LINE
  5
18CCF
330
18C7A
100
AcDbEntity
  8
寸法
 48
50.0
100
AcDbLine
 10
1895.471408254923
 20
1203.752977228664
 30
0.0
 11
2114.623348430647
 21
1203.752977228664
 31
0.0
  0
DIMENSION
  5
18CD0
330
18C7A
100
AcDbEntity
  8
寸法
 48
50.0
100
AcDbDimension
  2
*D15
 10
2588.970589276523
 20
706.3240511224249
 30
0.0
 11
1969.060022905491
 21
706.3240511224249
 31
0.0
 12
-3742.925985830444
 22
-6453.628869860112
 32
0.0
 70
   128
  1
有効開口部間口\P<>
 71
     5
 42
1266.0
  3
INABA_S40G
100
AcDbAlignedDimension
 13
1322.970589276523
 23
1315.494269174465
 33
0.0
 14
2588.970589276523
 24
1315.494269174465
 34
0.0
100
AcDbRotatedDimension
1001
ACAD
1000
DSTYLE
1002
{
1070
   341
1005
0
1002
}
  0
LINE
  5
18CD1
330
18C7A
100
AcDbEntity
  8
部品1
100
AcDbLine
 10
3409.970589276524
 20
1392.494269174465
 30
0.0
 11
3437.970589276523
 21
1392.494269174465
 31
0.0
  0
DIMENSION
  5
18CD2
330
18C7A
100
AcDbEntity
  8
寸法
100
AcDbDimension
  2
*D16
 10
3674.266172669749
 20
1315.494269174465
 30
0.0
 11
3674.266172669748
 21
1177.494269174462
 31
0.0
 12
-3742.925985830444
 22
-6453.628869860112
 32
0.0
 70
   128
 71
     5
 42
77.0
  3
INABA_S40
100
AcDbAlignedDimension
 13
3437.970589276523
 23
1392.494269174465
 33
0.0
 14
3436.970589276523
 24
1315.494269174465
 34
0.0
 50
90.0
100
AcDbRotatedDimension
1001
ACAD
1000
DSTYLE
1002
{
1070
    41
1040
0.5
1070
    44
1040
1.0
1070
   147
1040
0.8
1070
   271
1070
     2
1070
   272
1070
     2
1070
   289
1070
     3
1070
   340
1005
F706
1070
   343
1005
164B4
1070
   344
1005
164B4
1002
}
  0
LINE
  5
18CD3
330
18C7A
100
AcDbEntity
  8
部品1
100
AcDbLine
 10
3437.970589276523
 20
1315.494269174465
 30
0.0
 11
3437.970589276523
 21
1392.494269174465
 31
0.0
  0
LINE
  5
18CD4
330
18C7A
100
AcDbEntity
  8
部品1
100
AcDbLine
 10
3398.970589276523
 20
1388.494269174465
 30
0.0
 11
3409.970589276524
 21
1388.494269174465
 31
0.0
  0
LINE
  5
18CD5
330
18C7A
100
AcDbEntity
  8
部品1
100
AcDbLine
 10
3407.970589276523
 20
1324.494269174465
 30
0.0
 11
3407.970589276523
 21
1315.494269174465
 31
0.0
  0
LINE
  5
18CD6
330
18C7A
100
AcDbEntity
  8
部品1
100
AcDbLine
 10
3398.970589276523
 20
1324.494269174465
 30
0.0
 11
3407.970589276523
 21
1324.494269174465
 31
0.0
  0
LINE
  5
18CD7
330
18C7A
100
AcDbEntity
  8
部品1
100
AcDbLine
 10
3398.970589276523
 20
1388.494269174465
 30
0.0
 11
3398.970589276523
 21
1324.494269174465
 31
0.0
  0
LINE
  5
18CD8
330
18C7A
100
AcDbEntity
  8
部品1
100
AcDbLine
 10
3409.970589276524
 20
1419.494269174465
 30
0.0
 11
3409.970589276524
 21
1388.494269174465
 31
0.0
  0
LINE
  5
18CD9
330
18C7A
100
AcDbEntity
  8
部品1
100
AcDbLine
 10
1322.970589276523
 20
1388.494269174465
 30
0.0
 11
1311.970589276523
 21
1388.494269174465
 31
0.0
  0
LINE
  5
18CDA
330
18C7A
100
AcDbEntity
  8
部品1
100
AcDbLine
 10
1283.970589276523
 20
1392.494269174465
 30
0.0
 11
1311.970589276523
 21
1392.494269174465
 31
0.0
  0
LINE
  5
18CDB
330
18C7A
100
AcDbEntity
  8
部品1
100
AcDbLine
 10
1313.970589276523
 20
1324.494269174465
 30
0.0
 11
1313.970589276523
 21
1315.494269174465
 31
0.0
  0
LINE
  5
18CDC
330
18C7A
100
AcDbEntity
  8
部品1
100
AcDbLine
 10
1322.970589276523
 20
1324.494269174465
 30
0.0
 11
1313.970589276523
 21
1324.494269174465
 31
0.0
  0
LINE
  5
18CDD
330
18C7A
100
AcDbEntity
  8
部品1
100
AcDbLine
 10
1313.970589276523
 20
1315.494269174465
 30
0.0
 11
1283.970589276523
 21
1315.494269174465
 31
0.0
  0
LINE
  5
18CDE
330
18C7A
100
AcDbEntity
  8
部品1
100
AcDbLine
 10
1283.970589276523
 20
1315.494269174465
 30
0.0
 11
1283.970589276523
 21
1392.494269174465
 31
0.0
  0
LINE
  5
18CDF
330
18C7A
100
AcDbEntity
  8
部品1
100
AcDbLine
 10
1322.970589276523
 20
1388.494269174465
 30
0.0
 11
1322.970589276523
 21
1324.494269174465
 31
0.0
  0
LINE
  5
18CE0
330
18C7A
100
AcDbEntity
  8
部品1
100
AcDbLine
 10
1311.970589276523
 20
1419.494269174462
 30
0.0
 11
1311.970589276523
 21
1388.494269174465
 31
0.0
  0
LINE
  5
18CE1
330
18C7A
100
AcDbEntity
  8
部品1
100
AcDbLine
 10
1311.970589276523
 20
1419.494269174462
 30
0.0
 11
3409.970589276524
 21
1419.494269174465
 31
0.0
  0
LINE
  5
18CE2
330
18C7A
100
AcDbEntity
  8
部品1
100
AcDbLine
 10
3407.970589276523
 20
1315.494269174465
 30
0.0
 11
3437.970589276523
 21
1315.494269174465
 31
0.0
  0
LINE
  5
18CE3
330
18C7A
100
AcDbEntity
  8
部品1
100
AcDbLine
 10
1313.970589276523
 20
1315.494269174465
 30
0.0
 11
3410.970589276523
 21
1315.494269174465
 31
0.0
  0
LINE
  5
18CE4
330
18C7A
100
AcDbEntity
  8
細線
  6
Continuous
 62
     5
100
AcDbLine
 10
2689.970589276527
 20
1354.494269174462
 30
0.0
 11
2689.970589276527
 21
1354.494269174462
 31
0.0
  0
LINE
  5
18CE5
330
18C7A
100
AcDbEntity
  8
細線
  6
Continuous
 62
     5
100
AcDbLine
 10
2682.470589276527
 20
1354.494269174462
 30
0.0
 11
2682.470589276527
 21
1354.494269174462
 31
0.0
  0
LINE
  5
18CE6
330
18C7A
100
AcDbEntity
  8
細線
  6
Continuous
 62
     5
100
AcDbLine
 10
2676.470589276527
 20
1354.494269174462
 30
0.0
 11
2676.470589276527
 21
1354.494269174462
 31
0.0
  0
LINE
  5
18CE7
330
18C7A
100
AcDbEntity
  8
細線
  6
Continuous
 62
     5
100
AcDbLine
 10
2743.970589276527
 20
1373.494269174462
 30
0.0
 11
2743.970589276527
 21
1373.494269174462
 31
0.0
  0
LINE
  5
18CE8
330
18C7A
100
AcDbEntity
  8
細線
 48
50.0
100
AcDbLine
 10
1336.970593930116
 20
1341.094443351418
 30
0.0
 11
1336.970593930113
 21
1349.490593759059
 31
0.0
  0
LINE
  5
18CE9
330
18C7A
100
AcDbEntity
  8
細線
 48
50.0
100
AcDbLine
 10
1336.970593930113
 20
1349.490593759059
 30
0.0
 11
1322.970589276523
 21
1349.490593759057
 31
0.0
  0
LINE
  5
18CEA
330
18C7A
100
AcDbEntity
  8
細線
 48
50.0
100
AcDbLine
 10
2087.970593930113
 20
1337.644443351419
 30
0.0
 11
2087.970593930113
 21
1342.494443351421
 31
0.0
  0
LINE
  5
18CEB
330
18C7A
100
AcDbEntity
  8
細線
 48
50.0
100
AcDbLine
 10
2087.970593930113
 20
1342.494443351421
 30
0.0
 11
2102.970593930113
 21
1342.494443351421
 31
0.0
  0
LINE
  5
18CEC
330
18C7A
100
AcDbEntity
  8
細線
 48
50.0
100
AcDbLine
 10
2102.970593930113
 20
1342.494443351421
 30
0.0
 11
2102.970593930115
 21
1349.494443351419
 31
0.0
  0
LINE
  5
18CED
330
18C7A
100
AcDbEntity
  8
細線
 48
50.0
100
AcDbLine
 10
2102.970593930115
 20
1349.494443351419
 30
0.0
 11
2117.970593930113
 21
1349.494443351419
 31
0.0
  0
LINE
  5
18CEE
330
18C7A
100
AcDbEntity
  8
細線
 48
50.0
100
AcDbLine
 10
2117.970593930113
 20
1349.494443351419
 30
0.0
 11
2117.970593930113
 21
1320.494443351421
 31
0.0
  0
LINE
  5
18CEF
330
18C7A
100
AcDbEntity
  8
細線
 48
50.0
100
AcDbLine
 10
1313.970589276523
 20
1320.491777694889
 30
0.0
 11
1527.970593930113
 21
1320.494460905133
 31
0.0
  0
LINE
  5
18CF0
330
18C7A
100
AcDbEntity
  8
細線
 48
50.0
100
AcDbLine
 10
2017.970593930113
 20
1320.494443351421
 30
0.0
 11
2117.970593930113
 21
1320.494443351421
 31
0.0
  0
LINE
  5
18CF1
330
18C7A
100
AcDbEntity
  8
細線
 48
50.0
100
AcDbLine
 10
1737.970593930113
 20
1320.494443351419
 30
0.0
 11
1807.970593930113
 21
1320.494443351423
 31
0.0
  0
LINE
  5
18CF2
330
18C7A
100
AcDbEntity
  8
細線
 48
50.0
100
AcDbLine
 10
1750.832558942642
 20
1320.494443351419
 30
0.0
 11
1756.588076525309
 21
1338.765294641913
 31
0.0
  0
LINE
  5
18CF3
330
18C7A
100
AcDbEntity
  8
細線
 48
50.0
100
AcDbLine
 10
1756.588076525309
 20
1338.765294641913
 30
0.0
 11
1767.516525005743
 21
1338.765294641911
 31
0.0
  0
ARC
  5
18CF4
330
18C7A
100
AcDbEntity
  8
細線
 48
50.0
100
AcDbCircle
 10
1767.516525005743
 20
1337.765294641911
 30
0.0
 40
1.0
100
AcDbArc
 50
24.62431835207225
 51
90.0
  0
ARC
  5
18CF5
330
18C7A
100
AcDbEntity
  8
細線
 48
50.0
100
AcDbCircle
 10
1778.425237120377
 20
1337.765294641911
 30
0.0
 40
1.0
100
AcDbArc
 50
90.0
 51
155.3756816479277
  0
ARC
  5
18CF6
330
18C7A
100
AcDbEntity
  8
細線
 48
50.0
100
AcDbCircle
 10
1772.970881063058
 20
1340.265294641911
 30
0.0
 40
5.0
100
AcDbArc
 50
204.6243183520723
 51
335.3756816479278
  0
LINE
  5
18CF7
330
18C7A
100
AcDbEntity
  8
細線
 48
50.0
100
AcDbLine
 10
1778.425237120377
 20
1338.765294641911
 30
0.0
 11
1789.35368560081
 21
1338.765294641913
 31
0.0
  0
LINE
  5
18CF8
330
18C7A
100
AcDbEntity
  8
細線
 48
50.0
100
AcDbLine
 10
1789.35368560081
 20
1338.765294641913
 30
0.0
 11
1795.109203183478
 21
1320.494443351423
 31
0.0
  0
LINE
  5
18CF9
330
18C7A
100
AcDbEntity
  8
細線
 48
50.0
100
AcDbLine
 10
2087.970593930113
 20
1341.094443351419
 30
0.0
 11
1336.970593930116
 21
1341.094443351418
 31
0.0
  0
LINE
  5
18CFA
330
18C7A
100
AcDbEntity
  8
細線
 48
50.0
100
AcDbLine
 10
1947.970593930113
 20
1320.494443351421
 30
0.0
 11
1877.970593930113
 21
1320.494443351421
 31
0.0
  0
LINE
  5
18CFB
330
18C7A
100
AcDbEntity
  8
細線
100
AcDbLine
 10
1667.970593930113
 20
1320.494443351421
 30
0.0
 11
1597.970602115529
 21
1320.494443351421
 31
0.0
  0
LINE
  5
18CFC
330
18C7A
100
AcDbEntity
  8
細線
 48
50.0
100
AcDbLine
 10
2741.970584622936
 20
1375.094487209288
 30
0.0
 11
2106.970593930113
 21
1375.094487209284
 31
0.0
  0
LINE
  5
18CFD
330
18C7A
100
AcDbEntity
  8
細線
 48
50.0
100
AcDbLine
 10
2106.970593930113
 20
1371.990637616925
 30
0.0
 11
2106.970593930113
 21
1376.490637616925
 31
0.0
  0
LINE
  5
18CFE
330
18C7A
100
AcDbEntity
  8
細線
 48
50.0
100
AcDbLine
 10
2106.970593930113
 20
1376.490637616925
 30
0.0
 11
2091.970593930113
 21
1376.490637616925
 31
0.0
  0
LINE
  5
18CFF
330
18C7A
100
AcDbEntity
  8
細線
 48
50.0
100
AcDbLine
 10
2091.970593930113
 20
1376.490637616925
 30
0.0
 11
2091.970593930113
 21
1383.490637616927
 31
0.0
  0
LINE
  5
18D00
330
18C7A
100
AcDbEntity
  8
細線
 48
50.0
100
AcDbLine
 10
2091.970593930113
 20
1383.490637616927
 30
0.0
 11
2076.970593930115
 21
1383.490637616924
 31
0.0
  0
LINE
  5
18D01
330
18C7A
100
AcDbEntity
  8
細線
 48
50.0
100
AcDbLine
 10
2076.970593930115
 20
1383.490637616924
 30
0.0
 11
2076.970593930115
 21
1345.890409513813
 31
0.0
  0
LINE
  5
18D02
330
18C7A
100
AcDbEntity
  8
細線
 48
50.0
100
AcDbLine
 10
2076.970593930115
 20
1345.890409513813
 30
0.0
 11
2096.970601231289
 21
1345.890451063353
 31
0.0
  0
LINE
  5
18D03
330
18C7A
100
AcDbEntity
  8
細線
 48
50.0
100
AcDbLine
 10
2096.970556362348
 20
1354.493912699161
 30
0.0
 11
2096.970601231289
 21
1345.890451063353
 31
0.0
  0
LINE
  5
18D04
330
18C7A
100
AcDbEntity
  8
細線
 48
50.0
100
AcDbLine
 10
2741.970584622936
 20
1371.644487209287
 30
0.0
 11
2741.970584622936
 21
1376.494487209284
 31
0.0
  0
LINE
  5
18D05
330
18C7A
100
AcDbEntity
  8
細線
 48
50.0
100
AcDbLine
 10
2741.970584622936
 20
1376.494487209284
 30
0.0
 11
2756.970584622934
 21
1376.494487209285
 31
0.0
  0
LINE
  5
18D06
330
18C7A
100
AcDbEntity
  8
細線
 48
50.0
100
AcDbLine
 10
2756.970584622934
 20
1376.494487209285
 30
0.0
 11
2756.970596256909
 21
1383.494487209331
 31
0.0
  0
LINE
  5
18D07
330
18C7A
100
AcDbEntity
  8
細線
 48
50.0
100
AcDbLine
 10
2756.970596256909
 20
1383.494487209331
 30
0.0
 11
2771.970594427439
 21
1383.494487209329
 31
0.0
  0
LINE
  5
18D08
330
18C7A
100
AcDbEntity
  8
細線
 48
50.0
100
AcDbLine
 10
2771.970594427439
 20
1383.494487209329
 30
0.0
 11
2771.970584125617
 21
1354.494281037055
 31
0.0
  0
LINE
  5
18D09
330
18C7A
100
AcDbEntity
  8
細線
 48
50.0
100
AcDbLine
 10
2458.070304175992
 20
1354.494278397076
 30
0.0
 11
2389.470863838818
 21
1354.494283787084
 31
0.0
  0
LINE
  5
18D0A
330
18C7A
100
AcDbEntity
  8
細線
 48
50.0
100
AcDbLine
 10
2096.970556362348
 20
1354.493912699161
 30
0.0
 11
2108.203245717057
 21
1354.494095652309
 31
0.0
  0
ARC
  5
18D0B
330
18C7A
100
AcDbEntity
  8
細線
 48
50.0
100
AcDbCircle
 10
2114.785538024393
 20
1353.294259565922
 30
0.0
 40
1.8
100
AcDbArc
 50
270.0006665777295
 51
345.000555481349
  0
LINE
  5
18D0C
330
18C7A
100
AcDbEntity
  8
細線
 48
50.0
100
AcDbLine
 10
2116.771971470473
 20
1353.753100023201
 30
0.0
 11
2116.524209028273
 21
1352.828402141094
 31
0.0
  0
LINE
  5
18D0D
330
18C7A
100
AcDbEntity
  8
細線
 48
50.0
100
AcDbLine
 10
2114.785558965548
 20
1351.494259566043
 30
0.0
 11
2111.155631546781
 21
1351.494217335563
 31
0.0
  0
ARC
  5
18D0E
330
18C7A
100
AcDbEntity
  8
細線
 48
50.0
100
AcDbCircle
 10
2111.155610605627
 20
1353.29421733544
 30
0.0
 40
1.8
100
AcDbArc
 50
195.0010443049965
 51
270.0006665777295
  0
LINE
  5
18D0F
330
18C7A
100
AcDbEntity
  8
細線
 48
50.0
100
AcDbLine
 10
2109.169183113368
 20
1353.752932303007
 30
0.0
 11
2109.416952609882
 21
1352.828311364425
 31
0.0
  0
ARC
  5
18D10
330
18C7A
100
AcDbEntity
  8
細線
 48
50.0
100
AcDbCircle
 10
2108.203262004622
 20
1353.494095652444
 30
0.0
 40
1.0
100
AcDbArc
 50
15.00104430499651
 51
90.00093320877969
  0
LINE
  5
18D11
330
18C7A
100
AcDbEntity
  8
細線
 48
50.0
100
AcDbLine
 10
2117.737892825577
 20
1354.494290342714
 30
0.0
 11
2118.679652976481
 21
1354.494296916564
 31
0.0
  0
ARC
  5
18D12
330
18C7A
100
AcDbEntity
  8
細線
 48
50.0
100
AcDbCircle
 10
2117.737899805961
 20
1353.49429034274
 30
0.0
 40
1.0
100
AcDbArc
 50
90.0003999466794
 51
165.000555481349
  0
LINE
  5
18D13
330
18C7A
100
AcDbEntity
  8
細線
 48
50.0
100
AcDbLine
 10
2669.470584622926
 20
1354.494281037055
 30
0.0
 11
2771.970584125617
 21
1354.494281037055
 31
0.0
  0
LINE
  5
18D14
330
18C7A
100
AcDbEntity
  8
細線
 48
50.0
100
AcDbLine
 10
2179.47061994182
 20
1354.494289224422
 30
0.0
 11
2118.370558714898
 21
1354.494296916564
 31
0.0
  0
LINE
  5
18D15
330
18C7A
100
AcDbEntity
  8
細線
 48
50.0
100
AcDbLine
 10
2599.470584622926
 20
1354.494281037057
 30
0.0
 11
2529.470584622926
 21
1354.494281037055
 31
0.0
  0
LINE
  5
18D16
330
18C7A
100
AcDbEntity
  8
細線
 48
50.0
100
AcDbLine
 10
2319.470584622926
 20
1354.494281037054
 30
0.0
 11
2249.470567335051
 21
1354.494281037057
 31
0.0
  0
ARC
  5
18D17
330
18C7A
100
AcDbEntity
  8
細線
 48
50.0
100
AcDbCircle
 10
2756.170589276533
 20
1387.694269174466
 30
0.0
 40
0.8
100
AcDbArc
 50
359.9997333689499
 51
89.99986668437072
  0
ARC
  5
18D18
330
18C7A
100
AcDbEntity
  8
細線
 48
50.0
100
AcDbCircle
 10
2763.770596101631
 20
1387.694280343081
 30
0.0
 40
0.8
100
AcDbArc
 50
90.00014387753465
 51
179.9997333689498
  0
LINE
  5
18D19
330
18C7A
100
AcDbEntity
  8
細線
 48
50.0
100
AcDbLine
 10
2756.170591137969
 20
1388.494269174465
 30
0.0
 11
2750.970589276525
 21
1388.494269174465
 31
0.0
  0
ARC
  5
18D1A
330
18C7A
100
AcDbEntity
  8
細線
 48
50.0
100
AcDbCircle
 10
2757.670589276524
 20
1386.194269174464
 30
0.0
 40
0.7
100
AcDbArc
 50
180.0
 51
270.0
  0
ARC
  5
18D1B
330
18C7A
100
AcDbEntity
  8
細線
 48
50.0
100
AcDbCircle
 10
2762.270589276524
 20
1386.194269174464
 30
0.0
 40
0.7
100
AcDbArc
 50
270.0
 51
0.0
  0
LINE
  5
18D1C
330
18C7A
100
AcDbEntity
  8
細線
 48
50.0
100
AcDbLine
 10
2762.970589276525
 20
1386.194269174464
 30
0.0
 11
2762.970596101639
 21
1387.694284065954
 31
0.0
  0
LINE
  5
18D1D
330
18C7A
100
AcDbEntity
  8
細線
 48
50.0
100
AcDbLine
 10
2757.670589276524
 20
1385.494269174465
 30
0.0
 11
2762.270589276524
 21
1385.494269174465
 31
0.0
  0
LINE
  5
18D1E
330
18C7A
100
AcDbEntity
  8
細線
 48
50.0
100
AcDbLine
 10
2756.970589276525
 20
1387.694269174466
 30
0.0
 11
2756.970589276525
 21
1386.194269174464
 31
0.0
  0
LINE
  5
18D1F
330
18C7A
100
AcDbEntity
  8
細線
 48
50.0
100
AcDbLine
 10
3382.570589276527
 20
1418.494269174465
 30
0.0
 11
2745.970589276525
 21
1418.494269174463
 31
0.0
  0
LINE
  5
18D20
330
18C7A
100
AcDbEntity
  8
細線
 48
50.0
100
AcDbLine
 10
3408.470589276525
 20
1413.494269174467
 30
0.0
 11
3392.570589276527
 21
1413.494269174465
 31
0.0
  0
LINE
  5
18D21
330
18C7A
100
AcDbEntity
  8
細線
 48
50.0
100
AcDbLine
 10
3392.570589276526
 20
1413.494269174465
 30
0.0
 11
3382.570589276527
 21
1418.494269174465
 31
0.0
  0
LINE
  5
18D22
330
18C7A
100
AcDbEntity
  8
細線
100
AcDbLine
 10
2993.470589276525
 20
1388.494269174465
 30
0.0
 11
2993.470589276525
 21
1417.794269174464
 31
0.0
  0
LINE
  5
18D23
330
18C7A
100
AcDbEntity
  8
細線
100
AcDbLine
 10
2993.470589276525
 20
1417.794269174464
 30
0.0
 11
3013.470589276525
 21
1417.794269174464
 31
0.0
  0
LINE
  5
18D24
330
18C7A
100
AcDbEntity
  8
細線
100
AcDbLine
 10
3013.470589276525
 20
1388.494269174465
 30
0.0
 11
3013.470589276525
 21
1417.794269174464
 31
0.0
  0
LINE
  5
18D25
330
18C7A
100
AcDbEntity
  8
細線
100
AcDbLine
 10
3170.720589276524
 20
1388.494269174465
 30
0.0
 11
3100.720589276523
 21
1388.494269174465
 31
0.0
  0
LINE
  5
18D26
330
18C7A
100
AcDbEntity
  8
細線
 48
50.0
100
AcDbLine
 10
2890.720589276525
 20
1388.494269174465
 30
0.0
 11
2763.766368849365
 21
1388.494269174465
 31
0.0
  0
LINE
  5
18D27
330
18C7A
100
AcDbEntity
  8
細線
100
AcDbLine
 10
3030.720589276525
 20
1388.494269174465
 30
0.0
 11
2960.720589276525
 21
1388.494269174465
 31
0.0
  0
LINE
  5
18D28
330
18C7A
100
AcDbEntity
  8
細線
 48
50.0
100
AcDbLine
 10
2750.970589276525
 20
1380.494269174465
 30
0.0
 11
2750.970589276525
 21
1388.494269174465
 31
0.0
  0
LINE
  5
18D29
330
18C7A
100
AcDbEntity
  8
細線
 48
50.0
100
AcDbLine
 10
2730.970589276524
 20
1380.494269174467
 30
0.0
 11
2750.970589276525
 21
1380.494269174465
 31
0.0
  0
LINE
  5
18D2A
330
18C7A
100
AcDbEntity
  8
細線
 48
50.0
100
AcDbLine
 10
2745.970589276525
 20
1418.494269174465
 30
0.0
 11
2745.970589276525
 21
1413.494269174465
 31
0.0
  0
LINE
  5
18D2B
330
18C7A
100
AcDbEntity
  8
細線
 48
50.0
100
AcDbLine
 10
2730.970589276525
 20
1418.494269174463
 30
0.0
 11
2745.970589276525
 21
1418.494269174465
 31
0.0
  0
LINE
  5
18D2C
330
18C7A
100
AcDbEntity
  8
細線
 48
50.0
100
AcDbLine
 10
2730.970589276524
 20
1380.494269174467
 30
0.0
 11
2730.970589276525
 21
1418.494269174463
 31
0.0
  0
LINE
  5
18D2D
330
18C7A
100
AcDbEntity
  8
細線
100
AcDbLine
 10
3398.970589276523
 20
1388.494269174465
 30
0.0
 11
3240.720589276525
 21
1388.494269174465
 31
0.0
  0
LINE
  5
18D2E
330
18C7A
100
AcDbEntity
  8
細線
 48
50.0
100
AcDbLine
 10
3408.470589276525
 20
1413.494269174467
 30
0.0
 11
3408.470589276524
 21
1388.494269174465
 31
0.0
  0
TEXT
  5
18D2F
330
18C7A
100
AcDbEntity
  8
部品1
100
AcDbText
 10
1860.154865991392
 20
46.99880823813145
 30
0.0
 40
135.0
  1
平面図
  7
STYLE2
100
AcDbText
  0
LWPOLYLINE
  5
18D30
330
18C7A
100
AcDbEntity
  8
部品1
100
AcDbPolyline
 90
        4
 70
     1
 43
0.0
 10
1770.23525616235
 20
239.8923374566548
 10
1770.23525616235
 20
0.0000159111223184
 10
2533.705922390791
 20
0.0000159111223184
 10
2533.705922390791
 20
239.8923374566548
  0
LINE
  5
18D31
330
18C7A
100
AcDbEntity
  8
部品1
100
AcDbLine
 10
1534.470589276487
 20
3154.494269174626
 30
0.0
 11
2769.470589276552
 21
3154.494269174626
 31
0.0
  0
LINE
  5
18D32
330
18C7A
100
AcDbEntity
  8
部品1
 48
50.0
100
AcDbLine
 10
1311.970589276523
 20
1420.494269174462
 30
0.0
 11
3411.970589276523
 21
1420.494269174465
 31
0.0
  0
LINE
  5
18D33
330
18C7A
100
AcDbEntity
  8
部品1
 48
50.0
100
AcDbLine
 10
471.9705892765232
 20
1392.494269174465
 30
0.0
 11
1311.970589276523
 21
1392.494269174465
 31
0.0
  0
DIMENSION
  5
18D34
330
18C7A
100
AcDbEntity
  8
寸法
100
AcDbDimension
  2
*D14
 10
2710.234916278077
 20
2488.887829538828
 30
0.0
 11
2338.318822490183
 21
2488.887829538828
 31
0.0
 12
-3742.925985830444
 22
-6453.628869860112
 32
0.0
 70
   128
 71
     5
 42
1231.00000000007
  3
INABA_S40G
100
AcDbAlignedDimension
 13
1536.470589276486
 23
2702.494269174557
 33
0.0
 14
2767.470589276556
 24
2702.494269174549
 34
0.0
100
AcDbRotatedDimension
1001
ACAD
1000
DSTYLE
1002
{
1002
}
  0
LINE
  5
18D35
330
18C7A
100
AcDbEntity
  8
部品1
100
AcDbLine
 10
1536.470589276487
 20
2702.494269174557
 30
0.0
 11
2767.470589276554
 21
2702.494269174615
 31
0.0
  0
LINE
  5
18D36
330
18C7A
100
AcDbEntity
  8
部品1
100
AcDbLine
 10
1536.470589276487
 20
3152.494269174557
 30
0.0
 11
2767.470589276556
 21
3152.494269174615
 31
0.0
  0
LINE
  5
18D37
330
18C7A
100
AcDbEntity
  8
細線
 48
50.0
100
AcDbLine
 10
1508.470589276487
 20
3152.494269174558
 30
0.0
 11
445.4705892765559
 21
2702.494269174509
 31
0.0
  0
LINE
  5
18D38
330
18C7A
100
AcDbEntity
  8
細線
 48
50.0
100
AcDbLine
 10
1508.470589276487
 20
2702.494269174558
 30
0.0
 11
445.4705892765542
 21
3152.494269174509
 31
0.0
  0
LINE
  5
18D39
330
18C7A
100
AcDbEntity
  8
部品1
100
AcDbLine
 10
1556.970589276487
 20
3172.494269174611
 30
0.0
 11
1556.970589276487
 21
3154.494269174611
 31
0.0
  0
LINE
  5
18D3A
330
18C7A
100
AcDbEntity
  8
部品1
100
AcDbLine
 10
1556.970589276487
 20
3172.494269174611
 30
0.0
 11
1550.970589276487
 21
3172.494269174611
 31
0.0
  0
LINE
  5
18D3B
330
18C7A
100
AcDbEntity
  8
部品1
100
AcDbLine
 10
1534.470589276487
 20
3146.494269174608
 30
0.0
 11
1509.470589276487
 21
3146.494269174611
 31
0.0
  0
LINE
  5
18D3C
330
18C7A
100
AcDbEntity
  8
部品1
100
AcDbLine
 10
1486.970589276487
 20
3172.494269174611
 30
0.0
 11
1486.970589276487
 21
3154.494269174611
 31
0.0
  0
LINE
  5
18D3D
330
18C7A
100
AcDbEntity
  8
部品1
100
AcDbLine
 10
1492.970589276487
 20
3172.494269174611
 30
0.0
 11
1486.970589276487
 21
3172.494269174611
 31
0.0
  0
LINE
  5
18D3E
330
18C7A
100
AcDbEntity
  8
部品1
100
AcDbLine
 10
1534.470589276487
 20
2702.494269174615
 30
0.0
 11
1509.470589276487
 21
2702.494269174615
 31
0.0
  0
LINE
  5
18D3F
330
18C7A
100
AcDbEntity
  8
部品1
 48
50.0
100
AcDbLine
 10
1536.470589276487
 20
3152.494269174611
 30
0.0
 11
1536.470589276487
 21
2702.494269174615
 31
0.0
  0
LINE
  5
18D40
330
18C7A
100
AcDbEntity
  8
部品1
 48
50.0
100
AcDbLine
 10
1508.470589276487
 20
3152.494269174607
 30
0.0
 11
1508.470589276487
 21
2702.494269174615
 31
0.0
  0
LINE
  5
18D41
330
18C7A
100
AcDbEntity
  8
部品1
 48
50.0
100
AcDbLine
 10
1534.470589276487
 20
3154.494269174618
 30
0.0
 11
1534.470589276487
 21
2702.494269174615
 31
0.0
  0
LINE
  5
18D42
330
18C7A
100
AcDbEntity
  8
部品1
 48
50.0
100
AcDbLine
 10
1509.470589276487
 20
3154.494269174615
 30
0.0
 11
1509.470589276487
 21
2702.494269174615
 31
0.0
  0
LINE
  5
18D43
330
18C7A
100
AcDbEntity
  8
部品1
100
AcDbLine
 10
3411.970589276556
 20
1392.494269174582
 30
0.0
 11
3411.970589276556
 21
1420.494269174596
 31
0.0
  0
LINE
  5
18D44
330
18C7A
100
AcDbEntity
  8
部品1
100
AcDbLine
 10
1311.970589276523
 20
1392.494269174596
 30
0.0
 11
1311.970589276523
 21
1420.494269174596
 31
0.0
  0
LINE
  5
18D45
330
18C7A
100
AcDbEntity
  8
部品1
100
AcDbLine
 10
891.9705892765232
 20
1392.494269174596
 30
0.0
 11
891.9705892765232
 21
1420.494269174596
 31
0.0
  0
LINE
  5
18D46
330
18C7A
100
AcDbEntity
  8
部品1
100
AcDbLine
 10
3411.97058927652
 20
3182.494269174477
 30
0.0
 11
3411.970589276523
 21
3154.494269174477
 31
0.0
  0
LINE
  5
18D47
330
18C7A
100
AcDbEntity
  8
部品1
100
AcDbLine
 10
2571.97058927652
 20
3182.494269174477
 30
0.0
 11
2571.970589276523
 21
3154.494269174477
 31
0.0
  0
LINE
  5
18D48
330
18C7A
100
AcDbEntity
  8
部品1
100
AcDbLine
 10
2991.97058927652
 20
3182.494269174477
 30
0.0
 11
2991.970589276523
 21
3154.494269174477
 31
0.0
  0
LINE
  5
18D49
330
18C7A
100
AcDbEntity
  8
部品1
100
AcDbLine
 10
2151.970589276519
 20
3182.494269174477
 30
0.0
 11
2151.970589276523
 21
3154.494269174477
 31
0.0
  0
LINE
  5
18D4A
330
18C7A
100
AcDbEntity
  8
部品1
100
AcDbLine
 10
1731.970589276519
 20
3182.494269174477
 30
0.0
 11
1731.970589276523
 21
3154.494269174477
 31
0.0
  0
LINE
  5
18D4B
330
18C7A
100
AcDbEntity
  8
部品1
100
AcDbLine
 10
1311.970589276519
 20
3182.494269174477
 30
0.0
 11
1311.970589276523
 21
3154.494269174477
 31
0.0
  0
LINE
  5
18D4C
330
18C7A
100
AcDbEntity
  8
部品1
100
AcDbLine
 10
891.9705892765195
 20
3182.494269174477
 30
0.0
 11
891.9705892765232
 21
3154.494269174477
 31
0.0
  0
LINE
  5
18D4D
330
18C7A
100
AcDbEntity
  8
部品1
100
AcDbLine
 10
471.9705892765232
 20
1392.494269174596
 30
0.0
 11
471.9705892765232
 21
1420.494269174596
 31
0.0
  0
LINE
  5
18D4E
330
18C7A
100
AcDbEntity
  8
部品1
100
AcDbLine
 10
444.9705892765305
 20
1420.494269174558
 30
0.0
 11
3858.970589276556
 21
1420.494269174596
 31
0.0
  0
LINE
  5
18D4F
330
18C7A
100
AcDbEntity
  8
部品1
100
AcDbLine
 10
3831.970589276556
 20
1392.494269174596
 30
0.0
 11
3831.970589276556
 21
1420.494269174596
 31
0.0
  0
LINE
  5
18D50
330
18C7A
100
AcDbEntity
  8
部品1
100
AcDbLine
 10
3858.970589276556
 20
1447.494269174593
 30
0.0
 11
3886.970589276556
 21
1447.494269174593
 31
0.0
  0
LINE
  5
18D51
330
18C7A
100
AcDbEntity
  8
部品1
100
AcDbLine
 10
3858.970589276556
 20
1867.494269174607
 30
0.0
 11
3886.970589276556
 21
1867.494269174607
 31
0.0
  0
LINE
  5
18D52
330
18C7A
100
AcDbEntity
  8
部品1
100
AcDbLine
 10
444.9705892765305
 20
1867.49426917448
 30
0.0
 11
416.9705892765305
 21
1867.49426917448
 31
0.0
  0
LINE
  5
18D53
330
18C7A
100
AcDbEntity
  8
部品1
100
AcDbLine
 10
3830.470589276541
 20
1867.49426917458
 30
0.0
 11
473.4705892765396
 21
1867.49426917448
 31
0.0
  0
LINE
  5
18D54
330
18C7A
100
AcDbEntity
  8
部品1
100
AcDbLine
 10
3830.470589276541
 20
2287.49426917458
 30
0.0
 11
473.4705892765396
 21
2287.49426917448
 31
0.0
  0
LINE
  5
18D55
330
18C7A
100
AcDbEntity
  8
部品1
100
AcDbLine
 10
444.9705892765305
 20
2287.49426917448
 30
0.0
 11
416.9705892765305
 21
2287.49426917448
 31
0.0
  0
LINE
  5
18D56
330
18C7A
100
AcDbEntity
  8
部品1
100
AcDbLine
 10
3858.970589276556
 20
2287.494269174608
 30
0.0
 11
3886.970589276556
 21
2287.494269174608
 31
0.0
  0
LINE
  5
18D57
330
18C7A
100
AcDbEntity
  8
部品1
 48
50.0
100
AcDbLine
 10
2151.970589276551
 20
2702.494269174586
 30
0.0
 11
2151.970589276581
 21
1448.994269174494
 31
0.0
  0
LINE
  5
18D58
330
18C7A
100
AcDbEntity
  8
破線
 48
10.0
100
AcDbLine
 10
2959.470589276535
 20
1472.494269174522
 30
0.0
 11
2176.970589276532
 21
1472.494269174505
 31
0.0
  0
LINE
  5
18D59
330
18C7A
100
AcDbEntity
  8
破線
 48
10.0
100
AcDbLine
 10
3009.47058927653
 20
1448.994269174509
 30
0.0
 11
3009.47058927653
 21
2702.494269174615
 31
0.0
  0
LINE
  5
18D5A
330
18C7A
100
AcDbEntity
  8
破線
 48
10.0
100
AcDbLine
 10
2959.470589276535
 20
1448.994269174505
 30
0.0
 11
2959.470589276531
 21
2702.494269174615
 31
0.0
  0
LINE
  5
18D5B
330
18C7A
100
AcDbEntity
  8
破線
 48
10.0
100
AcDbLine
 10
1344.47058927653
 20
1448.994269174509
 30
0.0
 11
1344.47058927653
 21
2702.494269174615
 31
0.0
  0
LINE
  5
18D5C
330
18C7A
100
AcDbEntity
  8
破線
 48
10.0
100
AcDbLine
 10
1294.470589276534
 20
1448.994269174505
 30
0.0
 11
1294.47058927653
 21
2702.494269174615
 31
0.0
  0
DIMENSION
  5
18D5D
330
18C7A
100
AcDbEntity
  8
寸法
100
AcDbDimension
  2
*D13
 10
1451.234916278005
 20
2488.887829538828
 30
0.0
 11
916.0604668248634
 21
2488.887829538828
 31
0.0
 12
-3742.925985830444
 22
-6453.628869860112
 32
0.0
 70
   128
 71
     5
 42
1062.99999999993
  3
INABA_S40G
100
AcDbAlignedDimension
 13
445.4705892765559
 23
2702.494269174505
 33
0.0
 14
1508.470589276486
 24
2702.494269174558
 34
0.0
100
AcDbRotatedDimension
1001
ACAD
1000
DSTYLE
1002
{
1002
}
  0
LINE
  5
18D5E
330
18C7A
100
AcDbEntity
  8
破線
 48
10.0
100
AcDbLine
 10
1294.470589276534
 20
1472.494269174469
 30
0.0
 11
496.9705892765414
 21
1472.494269174476
 31
0.0
  0
LINE
  5
18D5F
330
18C7A
100
AcDbEntity
  8
部品1
100
AcDbLine
 10
3831.970589276556
 20
3182.494269174604
 30
0.0
 11
3831.970589276556
 21
3154.494269174604
 31
0.0
  0
LINE
  5
18D60
330
18C7A
100
AcDbEntity
  8
部品1
100
AcDbLine
 10
3831.970589276556
 20
3182.494269174626
 30
0.0
 11
3831.970589276556
 21
3154.494269174626
 31
0.0
  0
LINE
  5
18D61
330
18C7A
100
AcDbEntity
  8
部品1
100
AcDbLine
 10
3858.970589276556
 20
3127.494269174607
 30
0.0
 11
3886.970589276556
 21
3127.494269174607
 31
0.0
  0
LINE
  5
18D62
330
18C7A
100
AcDbEntity
  8
部品1
100
AcDbLine
 10
3858.970589276556
 20
2707.494269174608
 30
0.0
 11
3886.970589276556
 21
2707.494269174608
 31
0.0
  0
LINE
  5
18D63
330
18C7A
100
AcDbEntity
  8
部品1
100
AcDbLine
 10
3858.470589276556
 20
3152.494269174604
 30
0.0
 11
3858.470589276556
 21
2702.494269174608
 31
0.0
  0
LINE
  5
18D64
330
18C7A
100
AcDbEntity
  8
部品1
100
AcDbLine
 10
3886.970589276533
 20
1447.494269174593
 30
0.0
 11
3886.970589276531
 21
1392.494269174596
 31
0.0
  0
LINE
  5
18D65
330
18C7A
100
AcDbEntity
  8
部品1
 48
50.0
100
AcDbLine
 10
3830.470589276556
 20
1448.994269174596
 30
0.0
 11
3858.970589276554
 21
1420.494269174596
 31
0.0
  0
LINE
  5
18D66
330
18C7A
100
AcDbEntity
  8
部品1
100
AcDbLine
 10
3886.970589276531
 20
1392.494269174596
 30
0.0
 11
3835.970589276531
 21
1392.494269174596
 31
0.0
  0
LINE
  5
18D67
330
18C7A
100
AcDbEntity
  8
部品1
100
AcDbLine
 10
3858.970589276533
 20
1447.494269174593
 30
0.0
 11
3886.970589276531
 21
1447.494269174593
 31
0.0
  0
LINE
  5
18D68
330
18C7A
100
AcDbEntity
  8
部品1
100
AcDbLine
 10
3886.970589276556
 20
3182.494269174604
 30
0.0
 11
3886.970589276531
 21
1392.494269174596
 31
0.0
  0
DIMENSION
  5
18D69
330
18C7A
100
AcDbEntity
  8
寸法
100
AcDbDimension
  2
*D12
 10
4534.396935010967
 20
1447.494269174593
 30
0.0
 11
4534.396935010965
 21
2287.4942691746
 31
0.0
 12
-3742.925985830444
 22
-6453.628869860112
 32
0.0
 70
   128
  1
4X420=<>
 71
     5
 42
1680.000000000014
  3
INABA_S40G
100
AcDbAlignedDimension
 13
3886.970589276556
 23
3127.494269174607
 33
0.0
 14
3886.970589276531
 24
1447.494269174593
 34
0.0
 50
90.0
100
AcDbRotatedDimension
1001
ACAD
1000
DSTYLE
1002
{
1002
}
  0
LINE
  5
18D6A
330
18C7A
100
AcDbEntity
  8
部品1
100
AcDbLine
 10
3858.970589276556
 20
3154.494269174604
 30
0.0
 11
3858.970589276534
 21
1420.494269174596
 31
0.0
  0
DIMENSION
  5
18D6B
330
18C7A
100
AcDbEntity
  8
寸法
100
AcDbDimension
  2
*D11
 10
4213.82831513858
 20
2607.276453505718
 30
0.0
 11
4113.828315138579
 21
2832.276453505718
 31
0.0
 12
-3742.925985830444
 22
-6453.628869860112
 32
0.0
 71
     5
 42
449.9999999999963
  3
INABA_S40G
100
AcDbAlignedDimension
 13
3858.470589276556
 23
3152.494269174604
 33
0.0
 14
3858.470589276556
 24
2702.494269174608
 34
0.0
 50
90.0
100
AcDbRotatedDimension
1001
ACAD
1000
DSTYLE
1002
{
1002
}
  0
LINE
  5
18D6C
330
18C7A
100
AcDbEntity
  8
部品1
100
AcDbLine
 10
3830.470589276547
 20
2702.494269174608
 30
0.0
 11
3830.470589276556
 21
1448.994269174596
 31
0.0
  0
LINE
  5
18D6D
330
18C7A
100
AcDbEntity
  8
破線
 48
10.0
100
AcDbLine
 10
3806.970589276549
 20
2702.494269174608
 30
0.0
 11
3806.970589276558
 21
1472.494269174593
 31
0.0
  0
LINE
  5
18D6E
330
18C7A
100
AcDbEntity
  8
部品1
100
AcDbLine
 10
2769.470589276556
 20
3146.494269174608
 30
0.0
 11
2794.470589276556
 21
3146.494269174611
 31
0.0
  0
LINE
  5
18D6F
330
18C7A
100
AcDbEntity
  8
部品1
100
AcDbLine
 10
2810.970589276556
 20
3172.494269174611
 30
0.0
 11
2816.970589276556
 21
3172.494269174611
 31
0.0
  0
LINE
  5
18D70
330
18C7A
100
AcDbEntity
  8
部品1
100
AcDbLine
 10
2816.970589276556
 20
3172.494269174611
 30
0.0
 11
2816.970589276556
 21
3154.494269174611
 31
0.0
  0
LINE
  5
18D71
330
18C7A
100
AcDbEntity
  8
部品1
100
AcDbLine
 10
2746.970589276556
 20
3172.494269174611
 30
0.0
 11
2752.970589276556
 21
3172.494269174611
 31
0.0
  0
LINE
  5
18D72
330
18C7A
100
AcDbEntity
  8
部品1
100
AcDbLine
 10
2746.970589276556
 20
3172.494269174611
 30
0.0
 11
2746.970589276556
 21
3154.494269174611
 31
0.0
  0
LINE
  5
18D73
330
18C7A
100
AcDbEntity
  8
部品1
100
AcDbLine
 10
2769.470589276556
 20
2702.494269174615
 30
0.0
 11
2794.470589276556
 21
2702.494269174615
 31
0.0
  0
LINE
  5
18D74
330
18C7A
100
AcDbEntity
  8
部品1
 48
50.0
100
AcDbLine
 10
2794.470589276556
 20
3154.494269174615
 30
0.0
 11
2794.470589276556
 21
2702.494269174615
 31
0.0
  0
LINE
  5
18D75
330
18C7A
100
AcDbEntity
  8
部品1
 48
50.0
100
AcDbLine
 10
2769.470589276554
 20
3154.494269174618
 30
0.0
 11
2769.470589276556
 21
2702.494269174615
 31
0.0
  0
LINE
  5
18D76
330
18C7A
100
AcDbEntity
  8
部品1
 48
50.0
100
AcDbLine
 10
2795.470589276556
 20
3152.494269174607
 30
0.0
 11
2795.470589276556
 21
2702.494269174615
 31
0.0
  0
LINE
  5
18D77
330
18C7A
100
AcDbEntity
  8
部品1
 48
50.0
100
AcDbLine
 10
2767.470589276556
 20
3152.494269174611
 30
0.0
 11
2767.470589276556
 21
2702.494269174615
 31
0.0
  0
LINE
  5
18D78
330
18C7A
100
AcDbEntity
  8
破線
 48
10.0
100
AcDbLine
 10
2176.97058927653
 20
1448.994269174509
 30
0.0
 11
2176.97058927653
 21
2702.494269174588
 31
0.0
  0
LINE
  5
18D79
330
18C7A
100
AcDbEntity
  8
破線
 48
10.0
100
AcDbLine
 10
2126.970589276534
 20
1448.994269174505
 30
0.0
 11
2126.970589276531
 21
2702.494269174586
 31
0.0
  0
LINE
  5
18D7A
330
18C7A
100
AcDbEntity
  8
部品1
100
AcDbLine
 10
2794.470589276556
 20
3154.494269174622
 30
0.0
 11
3858.970589276556
 21
3154.494269174604
 31
0.0
  0
LINE
  5
18D7B
330
18C7A
100
AcDbEntity
  8
細線
 48
50.0
100
AcDbLine
 10
3858.470589276556
 20
2702.494269174608
 30
0.0
 11
2795.470589276556
 21
3152.494269174607
 31
0.0
  0
LINE
  5
18D7C
330
18C7A
100
AcDbEntity
  8
部品1
100
AcDbLine
 10
2795.470589276555
 20
2702.494269174615
 30
0.0
 11
3858.470589276556
 21
2702.494269174608
 31
0.0
  0
LINE
  5
18D7D
330
18C7A
100
AcDbEntity
  8
部品1
100
AcDbLine
 10
2795.470589276556
 20
3152.494269174611
 30
0.0
 11
3858.470589276556
 21
3152.494269174604
 31
0.0
  0
LINE
  5
18D7E
330
18C7A
100
AcDbEntity
  8
細線
 48
50.0
100
AcDbLine
 10
3858.470589276556
 20
3152.494269174604
 30
0.0
 11
2795.470589276555
 21
2702.494269174615
 31
0.0
  0
DIMENSION
  5
18D7F
330
18C7A
100
AcDbEntity
  8
寸法
100
AcDbDimension
  2
*D10
 10
3801.234916278101
 20
2488.887829538937
 30
0.0
 11
3318.360544398907
 21
2488.887829538937
 31
0.0
 12
-3742.925985830444
 22
-6453.628869860112
 32
0.0
 70
   128
 71
     5
 42
1063.000000000012
  3
INABA_S40G
100
AcDbAlignedDimension
 13
2795.470589276555
 23
2702.494269174615
 33
0.0
 14
3858.470589276567
 24
2702.494269174608
 34
0.0
100
AcDbRotatedDimension
1001
ACAD
1000
DSTYLE
1002
{
1002
}
  0
LINE
  5
18D80
330
18C7A
100
AcDbEntity
  8
破線
 48
10.0
100
AcDbLine
 10
3806.970589276556
 20
1472.494269174594
 30
0.0
 11
3009.47058927653
 21
1472.494269174523
 31
0.0
  0
DIMENSION
  5
18D81
330
18C7A
100
AcDbEntity
  8
寸法
100
AcDbDimension
  2
*D9
 10
4534.396935010941
 20
1392.494269174596
 30
0.0
 11
4534.39693501094
 21
1084.008987800356
 31
0.0
 12
-3742.925985830444
 22
-6453.628869860112
 32
0.0
 70
   128
 71
     5
 42
54.99999999999636
  3
INABA_S40G
100
AcDbAlignedDimension
 13
3886.970589276531
 23
1447.494269174593
 33
0.0
 14
3886.970589276531
 24
1392.494269174596
 34
0.0
 50
90.0
100
AcDbRotatedDimension
1001
ACAD
1000
DSTYLE
1002
{
1002
}
  0
LINE
  5
18D82
330
18C7A
100
AcDbEntity
  8
部品1
100
AcDbLine
 10
471.9705892765196
 20
3182.494269174477
 30
0.0
 11
471.9705892765232
 21
3154.494269174477
 31
0.0
  0
LINE
  5
18D83
330
18C7A
100
AcDbEntity
  8
部品1
100
AcDbLine
 10
471.9705892765559
 20
3182.494269174509
 30
0.0
 11
471.9705892765559
 21
3154.494269174509
 31
0.0
  0
LINE
  5
18D84
330
18C7A
100
AcDbEntity
  8
部品1
100
AcDbLine
 10
444.9705892765232
 20
3127.49426917448
 30
0.0
 11
416.9705892765232
 21
3127.49426917448
 31
0.0
  0
LINE
  5
18D85
330
18C7A
100
AcDbEntity
  8
部品1
100
AcDbLine
 10
444.9705892765305
 20
2707.49426917448
 30
0.0
 11
416.9705892765305
 21
2707.49426917448
 31
0.0
  0
LINE
  5
18D86
330
18C7A
100
AcDbEntity
  8
部品1
 48
50.0
100
AcDbLine
 10
445.4705892765542
 20
3152.494269174506
 30
0.0
 11
445.4705892765559
 21
2702.494269174505
 31
0.0
  0
LINE
  5
18D87
330
18C7A
100
AcDbEntity
  8
部品1
 48
50.0
100
AcDbLine
 10
473.470589276545
 20
1448.994269174573
 30
0.0
 11
444.970589276545
 21
1420.494269174574
 31
0.0
  0
LINE
  5
18D88
330
18C7A
100
AcDbEntity
  8
部品1
100
AcDbLine
 10
471.9705892765232
 20
1392.494269174465
 30
0.0
 11
416.9705892765486
 21
1392.494269174465
 31
0.0
  0
LINE
  5
18D89
330
18C7A
100
AcDbEntity
  8
部品1
100
AcDbLine
 10
444.9705892765305
 20
1447.494269174429
 30
0.0
 11
416.9705892765469
 21
1447.494269174429
 31
0.0
  0
LINE
  5
18D8A
330
18C7A
100
AcDbEntity
  8
部品1
100
AcDbLine
 10
444.9705892765305
 20
1447.494269174465
 30
0.0
 11
416.9705892765469
 21
1447.494269174465
 31
0.0
  0
LINE
  5
18D8B
330
18C7A
100
AcDbEntity
  8
部品1
100
AcDbLine
 10
444.9705892765469
 20
1447.49426917448
 30
0.0
 11
416.9705892765469
 21
1447.49426917448
 31
0.0
  0
LINE
  5
18D8C
330
18C7A
100
AcDbEntity
  8
部品1
100
AcDbLine
 10
416.9705892765469
 20
1447.494269174429
 30
0.0
 11
416.9705892765486
 21
1392.494269174433
 31
0.0
  0
LINE
  5
18D8D
330
18C7A
100
AcDbEntity
  8
部品1
100
AcDbLine
 10
416.9705892765196
 20
3182.494269174477
 30
0.0
 11
416.9705892765486
 21
1392.494269174465
 31
0.0
  0
LINE
  5
18D8E
330
18C7A
100
AcDbEntity
  8
部品1
100
AcDbLine
 10
444.9705892765305
 20
1420.494269174556
 30
0.0
 11
444.9705892765559
 21
3154.494269174509
 31
0.0
  0
LINE
  5
18D8F
330
18C7A
100
AcDbEntity
  8
部品1
100
AcDbLine
 10
473.4705892765323
 20
2702.494269174608
 30
0.0
 11
473.470589276545
 21
1448.994269174571
 31
0.0
  0
LINE
  5
18D90
330
18C7A
100
AcDbEntity
  8
破線
 48
10.0
100
AcDbLine
 10
496.9705892765305
 20
2702.494269174608
 30
0.0
 11
496.9705892765451
 21
1472.494269174476
 31
0.0
  0
DIMENSION
  5
18D91
330
18C7A
100
AcDbEntity
  8
寸法
100
AcDbDimension
  2
*D8
 10
3886.970589276531
 20
410.7433333855515
 30
0.0
 11
2168.197775309287
 21
410.7433333855515
 31
0.0
 12
-3742.925985830444
 22
-6453.628869860112
 32
0.0
 70
   128
 71
     5
 42
3469.999999999982
  3
INABA_S40G
100
AcDbAlignedDimension
 13
416.9705892765486
 23
1392.494269174433
 33
0.0
 14
3886.970589276531
 24
1392.49426917456
 34
0.0
100
AcDbRotatedDimension
1001
ACAD
1000
DSTYLE
1002
{
1070
   341
1005
0
1002
}
  0
LINE
  5
18D92
330
18C7A
100
AcDbEntity
  8
部品1
100
AcDbLine
 10
444.9705892765559
 20
3154.494269174624
 30
0.0
 11
1509.470589276487
 21
3154.494269174626
 31
0.0
  0
LINE
  5
18D93
330
18C7A
100
AcDbEntity
  8
部品1
100
AcDbLine
 10
3886.970589276531
 20
1392.494269174596
 30
0.0
 11
3411.970589276556
 21
1392.494269174582
 31
0.0
  0
LINE
  5
18D94
330
18C7A
100
AcDbEntity
  8
部品1
100
AcDbLine
 10
416.9705892765559
 20
3182.494269174509
 30
0.0
 11
3886.970589276556
 21
3182.494269174604
 31
0.0
  0
LINE
  5
18D95
330
18C7A
100
AcDbEntity
  8
部品1
100
AcDbLine
 10
445.4705892765559
 20
2702.494269174509
 30
0.0
 11
1508.470589276487
 21
2702.494269174558
 31
0.0
  0
LINE
  5
18D96
330
18C7A
100
AcDbEntity
  8
細線
 48
50.0
100
AcDbLine
 10
2767.470589276556
 20
3152.494269174611
 30
0.0
 11
1536.470589276487
 21
2702.494269174558
 31
0.0
  0
LINE
  5
18D97
330
18C7A
100
AcDbEntity
  8
部品1
100
AcDbLine
 10
445.4705892765542
 20
3152.494269174509
 30
0.0
 11
1508.470589276485
 21
3152.494269174558
 31
0.0
  0
LINE
  5
18D98
330
18C7A
100
AcDbEntity
  8
細線
 48
50.0
100
AcDbLine
 10
2767.470589276554
 20
2702.494269174615
 30
0.0
 11
1536.470589276485
 21
3152.494269174558
 31
0.0
  0
LINE
  5
18D99
330
18C7A
100
AcDbEntity
  8
破線
 48
10.0
100
AcDbLine
 10
2126.970589276534
 20
1472.494269174502
 30
0.0
 11
1344.47058927653
 21
1472.494269174473
 31
0.0
  0
LINE
  5
18D9A
330
18C7A
100
AcDbEntity
  8
部品1
100
AcDbLine
 10
3830.470589276556
 20
1448.994269174596
 30
0.0
 11
473.4705892764487
 21
1448.994269174476
 31
0.0
  0
DIMENSION
  5
18D9B
330
18C7A
100
AcDbEntity
  8
寸法
100
AcDbDimension
  2
*D7
 10
471.970589276555
 20
3698.302488799491
 30
0.0
 11
108.4853079022819
 21
3698.302488799491
 31
0.0
 12
-3742.925985830444
 22
-6453.628869860112
 32
0.0
 70
   128
 71
     5
 42
55.00000000003456
  3
INABA_S40G
100
AcDbAlignedDimension
 13
416.9705892765205
 23
3182.494269174509
 33
0.0
 14
471.970589276555
 24
3182.494269174509
 34
0.0
100
AcDbRotatedDimension
1001
ACAD
1000
DSTYLE
1002
{
1002
}
  0
DIMENSION
  5
18D9C
330
18C7A
100
AcDbEntity
  8
寸法
100
AcDbDimension
  2
*D6
 10
4534.396935010967
 20
3127.494269174607
 30
0.0
 11
4534.396935010965
 21
3490.979550548844
 31
0.0
 12
-3742.925985830444
 22
-6453.628869860112
 32
0.0
 70
   128
 71
     5
 42
54.99999999999636
  3
INABA_S40G
100
AcDbAlignedDimension
 13
3886.970589276556
 23
3182.494269174604
 33
0.0
 14
3886.970589276556
 24
3127.494269174607
 34
0.0
 50
90.0
100
AcDbRotatedDimension
1001
ACAD
1000
DSTYLE
1002
{
1002
}
  0
DIMENSION
  5
18D9D
330
18C7A
100
AcDbEntity
  8
寸法
100
AcDbDimension
  2
*D5
 10
3886.970589276556
 20
3698.302488799589
 30
0.0
 11
4195.455870650794
 21
3698.302488799589
 31
0.0
 12
-3742.925985830444
 22
-6453.628869860112
 32
0.0
 70
   128
 71
     5
 42
55.0
  3
INABA_S40G
100
AcDbAlignedDimension
 13
3831.970589276556
 23
3182.494269174604
 33
0.0
 14
3886.970589276556
 24
3182.494269174604
 34
0.0
100
AcDbRotatedDimension
1001
ACAD
1000
DSTYLE
1002
{
1002
}
  0
DIMENSION
  5
18D9E
330
18C7A
100
AcDbEntity
  8
寸法
100
AcDbDimension
  2
*D4
 10
3831.970589276556
 20
3698.302488799607
 30
0.0
 11
2151.970589276555
 21
3698.302488799607
 31
0.0
 12
-3742.925985830444
 22
-6453.628869860112
 32
0.0
 70
   128
  1
8X420=<>
 71
     5
 42
3360.000000000001
  3
INABA_S40G
100
AcDbAlignedDimension
 13
471.970589276555
 23
3182.494269174509
 33
0.0
 14
3831.970589276556
 24
3182.494269174604
 34
0.0
100
AcDbRotatedDimension
1001
ACAD
1000
DSTYLE
1002
{
1002
}
  0
DIMENSION
  5
18D9F
330
18C7A
100
AcDbEntity
  8
寸法
100
AcDbDimension
  2
*D3
 10
4899.503876750603
 20
1392.494269174596
 30
0.0
 11
4899.503876750601
 21
2287.4942691746
 31
0.0
 12
-3742.925985830444
 22
-6453.628869860112
 32
0.0
 70
   128
 71
     5
 42
1790.000000000007
  3
INABA_S40G
100
AcDbAlignedDimension
 13
3886.970589276556
 23
3182.494269174604
 33
0.0
 14
3886.970589276531
 24
1392.494269174596
 34
0.0
 50
90.0
100
AcDbRotatedDimension
1001
ACAD
1000
DSTYLE
1002
{
1002
}
  0
ENDBLK
  5
18DA1
330
18C7A
100
AcDbEntity
  8
0
 48
50.0
100
AcDbBlockEnd
  0
BLOCK
  5
1C4CB
330
1C4CA
100
AcDbEntity
  8
0
 48
50.0
100
AcDbBlockBegin
  2
_NONE
 70
     0
 10
0.0
 20
0.0
 30
0.0
  3
_NONE
  1

  0
CIRCLE
  5
1C4CC
330
1C4CA
100
AcDbEntity
  8
0
  6
ByBlock
 62
     0
 48
50.0
100
AcDbCircle
 10
0.0
 20
0.0
 30
0.0
 40
0.25
  0
ENDBLK
  5
1C4CD
330
1C4CA
100
AcDbEntity
  8
0
 48
50.0
100
AcDbBlockEnd
  0
BLOCK
  5
20DEE
330
20DE2
100
AcDbEntity
  8
0
 48
50.0
100
AcDbBlockBegin
  2
*D19
 70
     1
 10
0.0
 20
0.0
 30
0.0
  3
*D19
  1

  0
LINE
  5
2699C
330
20DE2
100
AcDbEntity
  8
寸法
 62
     0
 48
50.0
370
    -2
100
AcDbLine
 10
12328.6
 20
7197.673595425482
 30
0.0
 11
12328.6
 21
8195.893917484402
 31
0.0
  0
LINE
  5
2699D
330
20DE2
100
AcDbEntity
  8
寸法
 62
     0
 48
50.0
370
    -2
100
AcDbLine
 10
12373.6
 20
7923.940053519392
 30
0.0
 11
12373.6
 21
8195.893917484402
 31
0.0
  0
LINE
  5
2699E
330
20DE2
100
AcDbEntity
  8
寸法
 62
     0
 48
50.0
370
    -2
100
AcDbLine
 10
12328.6
 20
8135.893917484404
 30
0.0
 11
12228.6
 21
8135.893917484404
 31
0.0
  0
LINE
  5
2699F
330
20DE2
100
AcDbEntity
  8
寸法
 62
     0
 48
50.0
370
    -2
100
AcDbLine
 10
12373.6
 20
8135.893917484404
 30
0.0
 11
12710.94924240492
 21
8135.893917484404
 31
0.0
  0
LINE
  5
269A0
330
20DE2
100
AcDbEntity
  8
寸法
 62
     0
 48
50.0
370
    -2
100
AcDbLine
 10
12328.6
 20
8135.893917484404
 30
0.0
 11
12373.6
 21
8135.893917484404
 31
0.0
  0
INSERT
  5
269A1
330
20DE2
100
AcDbEntity
  8
寸法
 62
     0
 48
50.0
370
    -2
100
AcDbBlockReference
  2
_DOTSMALL
 10
12328.6
 20
8135.893917484404
 30
0.0
 41
100.0
 42
100.0
 43
100.0
  0
INSERT
  5
269A2
330
20DE2
100
AcDbEntity
  8
寸法
 62
     0
 48
50.0
370
    -2
100
AcDbBlockReference
  2
_DOTSMALL
 10
12373.6
 20
8135.893917484404
 30
0.0
 41
100.0
 42
100.0
 43
100.0
 50
180.0
  0
MTEXT
  5
269A3
330
20DE2
100
AcDbEntity
  8
寸法
 62
     7
 48
50.0
100
AcDbMText
 10
12644.77462120246
 20
8235.893917484403
 30
0.0
 40
120.0
 41
0.0
 71
     5
 72
     1
  1
\A1;a
  7
STYLE1
 73
     1
 44
1.0
1001
ACAD
1000
MTEXTBEGIN
1070
    73
1070
     1
1070
    44
1040
1.0
1070
    74
1070
     0
1000
MTEXTEND
  0
POINT
  5
269A4
330
20DE2
100
AcDbEntity
  8
DEFPOINTS
 62
     0
 48
50.0
100
AcDbPoint
 10
12328.6
 20
7177.673595425481
 30
0.0
  0
POINT
  5
269A5
330
20DE2
100
AcDbEntity
  8
DEFPOINTS
 62
     0
 48
50.0
100
AcDbPoint
 10
12373.6
 20
7903.940053519393
 30
0.0
  0
POINT
  5
269A6
330
20DE2
100
AcDbEntity
  8
DEFPOINTS
 62
     0
 48
50.0
100
AcDbPoint
 10
12373.6
 20
8135.893917484404
 30
0.0
  0
ENDBLK
  5
20DEF
330
20DE2
100
AcDbEntity
  8
0
 48
50.0
100
AcDbBlockEnd
  0
BLOCK
  5
20E08
330
20DFC
100
AcDbEntity
  8
0
 48
50.0
100
AcDbBlockBegin
  2
*D20
 70
     1
 10
0.0
 20
0.0
 30
0.0
  3
*D20
  1

  0
LINE
  5
269A7
330
20DFC
100
AcDbEntity
  8
寸法
 62
     0
 48
50.0
370
    -2
100
AcDbLine
 10
4073.600000000011
 20
7923.940053519389
 30
0.0
 11
4073.600000000011
 21
8195.893917484397
 31
0.0
  0
LINE
  5
269A8
330
20DFC
100
AcDbEntity
  8
寸法
 62
     0
 48
50.0
370
    -2
100
AcDbLine
 10
4118.600000000004
 20
7197.673595425476
 30
0.0
 11
4118.600000000004
 21
8195.893917484397
 31
0.0
  0
LINE
  5
269A9
330
20DFC
100
AcDbEntity
  8
寸法
 62
     0
 48
50.0
370
    -2
100
AcDbLine
 10
4118.600000000004
 20
8135.893917484398
 30
0.0
 11
4218.600000000004
 21
8135.893917484398
 31
0.0
  0
LINE
  5
269AA
330
20DFC
100
AcDbEntity
  8
寸法
 62
     0
 48
50.0
370
    -2
100
AcDbLine
 10
4073.600000000011
 20
8135.893917484398
 30
0.0
 11
3736.250757595086
 21
8135.893917484398
 31
0.0
  0
LINE
  5
269AB
330
20DFC
100
AcDbEntity
  8
寸法
 62
     0
 48
50.0
370
    -2
100
AcDbLine
 10
4118.600000000004
 20
8135.893917484398
 30
0.0
 11
4073.600000000011
 21
8135.893917484398
 31
0.0
  0
INSERT
  5
269AC
330
20DFC
100
AcDbEntity
  8
寸法
 62
     0
 48
50.0
370
    -2
100
AcDbBlockReference
  2
_DOTSMALL
 10
4118.600000000004
 20
8135.893917484398
 30
0.0
 41
100.0
 42
100.0
 43
100.0
 50
180.0
  0
INSERT
  5
269AD
330
20DFC
100
AcDbEntity
  8
寸法
 62
     0
 48
50.0
370
    -2
100
AcDbBlockReference
  2
_DOTSMALL
 10
4073.600000000011
 20
8135.893917484398
 30
0.0
 41
100.0
 42
100.0
 43
100.0
  0
MTEXT
  5
269AE
330
20DFC
100
AcDbEntity
  8
寸法
 62
     7
 48
50.0
100
AcDbMText
 10
3802.425378797545
 20
8235.893917484398
 30
0.0
 40
120.0
 41
0.0
 71
     5
 72
     1
  1
\A1;a
  7
STYLE1
 73
     1
 44
1.0
1001
ACAD
1000
MTEXTBEGIN
1070
    73
1070
     1
1070
    44
1040
1.0
1070
    74
1070
     0
1000
MTEXTEND
  0
POINT
  5
269AF
330
20DFC
100
AcDbEntity
  8
DEFPOINTS
 62
     0
 48
50.0
100
AcDbPoint
 10
4073.600000000011
 20
7903.940053519389
 30
0.0
  0
POINT
  5
269B0
330
20DFC
100
AcDbEntity
  8
DEFPOINTS
 62
     0
 48
50.0
100
AcDbPoint
 10
4118.600000000004
 20
7177.673595425476
 30
0.0
  0
POINT
  5
269B1
330
20DFC
100
AcDbEntity
  8
DEFPOINTS
 62
     0
 48
50.0
100
AcDbPoint
 10
4118.600000000004
 20
8135.893917484398
 30
0.0
  0
ENDBLK
  5
20E09
330
20DFC
100
AcDbEntity
  8
0
 48
50.0
100
AcDbBlockEnd
  0
BLOCK
  5
2274E
330
22742
100
AcDbEntity
  8
0
 48
50.0
100
AcDbBlockBegin
  2
*D25
 70
     1
 10
0.0
 20
0.0
 30
0.0
  3
*D25
  1

  0
LINE
  5
269BD
330
22742
100
AcDbEntity
  8
寸法
 62
     0
 48
50.0
370
    -2
100
AcDbLine
 10
3475.665006330075
 20
7252.673595425493
 30
0.0
 11
3183.721909610677
 21
7252.673595425493
 31
0.0
  0
LINE
  5
269BE
330
22742
100
AcDbEntity
  8
寸法
 62
     0
 48
50.0
370
    -2
100
AcDbLine
 10
3965.156977762467
 20
7177.673595425488
 30
0.0
 11
3183.721909610677
 21
7177.673595425488
 31
0.0
  0
LINE
  5
269BF
330
22742
100
AcDbEntity
  8
寸法
 62
     0
 48
50.0
370
    -2
100
AcDbLine
 10
3243.721909610677
 20
7252.673595425493
 30
0.0
 11
3243.721909610677
 21
7352.673595425493
 31
0.0
  0
LINE
  5
269C0
330
22742
100
AcDbEntity
  8
寸法
 62
     0
 48
50.0
370
    -2
100
AcDbLine
 10
3243.721909610677
 20
7177.673595425488
 30
0.0
 11
3243.721909610676
 21
7077.673595425489
 31
0.0
  0
LINE
  5
269C1
330
22742
100
AcDbEntity
  8
寸法
 62
     0
 48
50.0
370
    -2
100
AcDbLine
 10
3243.721909610677
 20
7252.673595425493
 30
0.0
 11
3243.721909610677
 21
7177.673595425488
 31
0.0
  0
INSERT
  5
269C2
330
22742
100
AcDbEntity
  8
寸法
 62
     0
 48
50.0
370
    -2
100
AcDbBlockReference
  2
_DOTSMALL
 10
3243.721909610677
 20
7252.673595425493
 30
0.0
 41
100.0
 42
100.0
 43
100.0
 50
270.0
  0
INSERT
  5
269C3
330
22742
100
AcDbEntity
  8
寸法
 62
     0
 48
50.0
370
    -2
100
AcDbBlockReference
  2
_DOTSMALL
 10
3243.721909610677
 20
7177.673595425488
 30
0.0
 41
100.0
 42
100.0
 43
100.0
 50
90.0
  0
MTEXT
  5
269C4
330
22742
100
AcDbEntity
  8
寸法
 62
     7
 48
50.0
100
AcDbMText
 10
3143.721909610675
 20
7215.173595425492
 30
0.0
 40
120.0
 41
0.0
 71
     5
 72
     1
  1
\A1;c
  7
STYLE1
 11
0.0000000000000001
 21
1.0
 31
0.0
 73
     1
 44
1.0
1001
ACAD
1000
MTEXTBEGIN
1070
    73
1070
     1
1070
    44
1040
1.0
1070
    74
1070
     0
1000
MTEXTEND
  0
POINT
  5
269C5
330
22742
100
AcDbEntity
  8
DEFPOINTS
 62
     0
 48
50.0
100
AcDbPoint
 10
3495.665006330075
 20
7252.673595425493
 30
0.0
  0
POINT
  5
269C6
330
22742
100
AcDbEntity
  8
DEFPOINTS
 62
     0
 48
50.0
100
AcDbPoint
 10
3985.156977762466
 20
7177.673595425488
 30
0.0
  0
POINT
  5
269C7
330
22742
100
AcDbEntity
  8
DEFPOINTS
 62
     0
 48
50.0
100
AcDbPoint
 10
3243.721909610677
 20
7177.673595425488
 30
0.0
  0
ENDBLK
  5
2274F
330
22742
100
AcDbEntity
  8
0
 48
50.0
100
AcDbBlockEnd
  0
BLOCK
  5
22768
330
2275C
100
AcDbEntity
  8
0
 48
50.0
100
AcDbBlockBegin
  2
*D26
 70
     1
 10
0.0
 20
0.0
 30
0.0
  3
*D26
  1

  0
LINE
  5
269B2
330
2275C
100
AcDbEntity
  8
寸法
 62
     0
 48
50.0
370
    -2
100
AcDbLine
 10
3971.607272343898
 20
6217.673595425478
 30
0.0
 11
3183.721909610677
 21
6217.673595425478
 31
0.0
  0
LINE
  5
269B3
330
2275C
100
AcDbEntity
  8
寸法
 62
     0
 48
50.0
370
    -2
100
AcDbLine
 10
3475.665006330075
 20
6162.6735954255
 30
0.0
 11
3183.721909610677
 21
6162.6735954255
 31
0.0
  0
LINE
  5
269B4
330
2275C
100
AcDbEntity
  8
寸法
 62
     0
 48
50.0
370
    -2
100
AcDbLine
 10
3243.721909610677
 20
6217.673595425478
 30
0.0
 11
3243.721909610677
 21
6317.673595425478
 31
0.0
  0
LINE
  5
269B5
330
2275C
100
AcDbEntity
  8
寸法
 62
     0
 48
50.0
370
    -2
100
AcDbLine
 10
3243.721909610677
 20
6162.6735954255
 30
0.0
 11
3243.721909610677
 21
6062.673595425501
 31
0.0
  0
LINE
  5
269B6
330
2275C
100
AcDbEntity
  8
寸法
 62
     0
 48
50.0
370
    -2
100
AcDbLine
 10
3243.721909610677
 20
6217.673595425478
 30
0.0
 11
3243.721909610677
 21
6162.6735954255
 31
0.0
  0
INSERT
  5
269B7
330
2275C
100
AcDbEntity
  8
寸法
 62
     0
 48
50.0
370
    -2
100
AcDbBlockReference
  2
_DOTSMALL
 10
3243.721909610677
 20
6217.673595425478
 30
0.0
 41
100.0
 42
100.0
 43
100.0
 50
270.0
  0
INSERT
  5
269B8
330
2275C
100
AcDbEntity
  8
寸法
 62
     0
 48
50.0
370
    -2
100
AcDbBlockReference
  2
_DOTSMALL
 10
3243.721909610677
 20
6162.6735954255
 30
0.0
 41
100.0
 42
100.0
 43
100.0
 50
90.0
  0
MTEXT
  5
269B9
330
2275C
100
AcDbEntity
  8
寸法
 62
     7
 48
50.0
100
AcDbMText
 10
3143.721909610676
 20
6190.17359542549
 30
0.0
 40
120.0
 41
0.0
 71
     5
 72
     1
  1
\A1;b
  7
STYLE1
 11
0.0000000000000001
 21
1.0
 31
0.0
 73
     1
 44
1.0
1001
ACAD
1000
MTEXTBEGIN
1070
    73
1070
     1
1070
    44
1040
1.0
1070
    74
1070
     0
1000
MTEXTEND
  0
POINT
  5
269BA
330
2275C
100
AcDbEntity
  8
DEFPOINTS
 62
     0
 48
50.0
100
AcDbPoint
 10
3991.607272343897
 20
6217.673595425478
 30
0.0
  0
POINT
  5
269BB
330
2275C
100
AcDbEntity
  8
DEFPOINTS
 62
     0
 48
50.0
100
AcDbPoint
 10
3495.665006330075
 20
6162.6735954255
 30
0.0
  0
POINT
  5
269BC
330
2275C
100
AcDbEntity
  8
DEFPOINTS
 62
     0
 48
50.0
100
AcDbPoint
 10
3243.721909610677
 20
6162.6735954255
 30
0.0
  0
ENDBLK
  5
22769
330
2275C
100
AcDbEntity
  8
0
 48
50.0
100
AcDbBlockEnd
  0
BLOCK
  5
22B65
330
22B5A
100
AcDbEntity
  8
0
 48
50.0
100
AcDbBlockBegin
  2
*D27
 70
     1
 10
0.0
 20
0.0
 30
0.0
  3
*D27
  1

  0
LINE
  5
26A93
330
22B5A
100
AcDbEntity
  8
寸法
 62
     0
 48
50.0
370
    -2
100
AcDbLine
 10
11865.09540071171
 20
6497.673595425516
 30
0.0
 11
11671.82138901162
 21
6497.673595425516
 31
0.0
  0
LINE
  5
26A94
330
22B5A
100
AcDbEntity
  8
寸法
 62
     0
 48
50.0
370
    -2
100
AcDbLine
 10
11721.41910651595
 20
6217.673595425515
 30
0.0
 11
11791.82138901162
 21
6217.673595425515
 31
0.0
  0
LINE
  5
26A95
330
22B5A
100
AcDbEntity
  8
寸法
 62
     0
 48
50.0
370
    -2
100
AcDbLine
 10
11731.82138901162
 20
6497.673595425516
 30
0.0
 11
11731.82138901162
 21
6217.673595425515
 31
0.0
  0
LINE
  5
26A96
330
22B5A
100
AcDbEntity
  8
寸法
 62
     0
 48
50.0
370
    -2
100
AcDbLine
 10
11731.82138901162
 20
6217.673595425515
 30
0.0
 11
11731.82138901162
 21
5781.139146606616
 31
0.0
  0
INSERT
  5
26A97
330
22B5A
100
AcDbEntity
  8
寸法
 62
     0
 48
50.0
370
    -2
100
AcDbBlockReference
  2
_DOTSMALL
 10
11731.82138901162
 20
6497.673595425516
 30
0.0
 41
100.0
 42
100.0
 43
100.0
 50
90.0
  0
INSERT
  5
26A98
330
22B5A
100
AcDbEntity
  8
寸法
 62
     0
 48
50.0
370
    -2
100
AcDbBlockReference
  2
_DOTSMALL
 10
11731.82138901162
 20
6217.673595425515
 30
0.0
 41
100.0
 42
100.0
 43
100.0
 50
270.0
  0
MTEXT
  5
26A99
330
22B5A
100
AcDbEntity
  8
寸法
 62
     7
 48
50.0
100
AcDbMText
 10
11631.809577988
 20
5930.71001274835
 30
0.0
 40
120.0
 41
0.0
 71
     5
 72
     1
  1
\A1;280
  7
STYLE1
 11
0.0000000000000001
 21
1.0
 31
0.0
 73
     1
 44
1.0
1001
ACAD
1000
MTEXTBEGIN
1070
    73
1070
     1
1070
    44
1040
1.0
1070
    74
1070
     0
1000
MTEXTEND
  0
POINT
  5
26A9A
330
22B5A
100
AcDbEntity
  8
DEFPOINTS
 62
     0
 48
50.0
100
AcDbPoint
 10
11885.09540071171
 20
6497.673595425516
 30
0.0
  0
POINT
  5
26A9B
330
22B5A
100
AcDbEntity
  8
DEFPOINTS
 62
     0
 48
50.0
100
AcDbPoint
 10
11701.41910651595
 20
6217.673595425515
 30
0.0
  0
POINT
  5
26A9C
330
22B5A
100
AcDbEntity
  8
DEFPOINTS
 62
     0
 48
50.0
100
AcDbPoint
 10
11731.82138901162
 20
6217.673595425515
 30
0.0
  0
ENDBLK
  5
22B66
330
22B5A
100
AcDbEntity
  8
0
 48
50.0
100
AcDbBlockEnd
  0
BLOCK
  5
22B7F
330
22B74
100
AcDbEntity
  8
0
 48
50.0
100
AcDbBlockBegin
  2
*D28
 70
     1
 10
0.0
 20
0.0
 30
0.0
  3
*D28
  1

  0
LINE
  5
26992
330
22B74
100
AcDbEntity
  8
寸法
 62
     0
 48
50.0
370
    -2
100
AcDbLine
 10
11745.85634570468
 20
7177.673595425486
 30
0.0
 11
11791.82138901162
 21
7177.673595425486
 31
0.0
  0
LINE
  5
26993
330
22B74
100
AcDbEntity
  8
寸法
 62
     0
 48
50.0
370
    -2
100
AcDbLine
 10
11685.60166369304
 20
6977.6735954254
 30
0.0
 11
11791.82138901162
 21
6977.6735954254
 31
0.0
  0
LINE
  5
26994
330
22B74
100
AcDbEntity
  8
寸法
 62
     0
 48
50.0
370
    -2
100
AcDbLine
 10
11731.82138901162
 20
6977.6735954254
 30
0.0
 11
11731.82138901162
 21
7177.673595425486
 31
0.0
  0
LINE
  5
26995
330
22B74
100
AcDbEntity
  8
寸法
 62
     0
 48
50.0
370
    -2
100
AcDbLine
 10
11731.82138901162
 20
7177.673595425486
 30
0.0
 11
11731.82138901162
 21
7614.208044244382
 31
0.0
  0
INSERT
  5
26996
330
22B74
100
AcDbEntity
  8
寸法
 62
     0
 48
50.0
370
    -2
100
AcDbBlockReference
  2
_DOTSMALL
 10
11731.82138901162
 20
6977.6735954254
 30
0.0
 41
100.0
 42
100.0
 43
100.0
 50
270.0
  0
INSERT
  5
26997
330
22B74
100
AcDbEntity
  8
寸法
 62
     0
 48
50.0
370
    -2
100
AcDbBlockReference
  2
_DOTSMALL
 10
11731.82138901162
 20
7177.673595425486
 30
0.0
 41
100.0
 42
100.0
 43
100.0
 50
90.0
  0
MTEXT
  5
26998
330
22B74
100
AcDbEntity
  8
寸法
 62
     7
 48
50.0
100
AcDbMText
 10
11631.809577988
 20
7464.637178102652
 30
0.0
 40
120.0
 41
0.0
 71
     5
 72
     1
  1
\A1;200
  7
STYLE1
 11
0.0000000000000001
 21
1.0
 31
0.0
 73
     1
 44
1.0
1001
ACAD
1000
MTEXTBEGIN
1070
    73
1070
     1
1070
    44
1040
1.0
1070
    74
1070
     0
1000
MTEXTEND
  0
POINT
  5
26999
330
22B74
100
AcDbEntity
  8
DEFPOINTS
 62
     0
 48
50.0
100
AcDbPoint
 10
11725.85634570468
 20
7177.673595425486
 30
0.0
  0
POINT
  5
2699A
330
22B74
100
AcDbEntity
  8
DEFPOINTS
 62
     0
 48
50.0
100
AcDbPoint
 10
11665.60166369304
 20
6977.6735954254
 30
0.0
  0
POINT
  5
2699B
330
22B74
100
AcDbEntity
  8
DEFPOINTS
 62
     0
 48
50.0
100
AcDbPoint
 10
11731.82138901162
 20
6977.6735954254
 30
0.0
  0
ENDBLK
  5
22B80
330
22B74
100
AcDbEntity
  8
0
 48
50.0
100
AcDbBlockEnd
  0
BLOCK
  5
22BA5
330
22B9A
100
AcDbEntity
  8
0
 48
50.0
100
AcDbBlockBegin
  2
*D29
 70
     1
 10
0.0
 20
0.0
 30
0.0
  3
*D29
  1

  0
LINE
  5
26ADF
330
22B9A
100
AcDbEntity
  8
寸法
 62
     0
 48
50.0
370
    -2
100
AcDbLine
 10
12328.6
 20
6842.673595425515
 30
0.0
 11
12328.6
 21
6962.065263980722
 31
0.0
  0
LINE
  5
26AE0
330
22B9A
100
AcDbEntity
  8
寸法
 62
     0
 48
50.0
370
    -2
100
AcDbLine
 10
12208.6
 20
6840.446327358505
 30
0.0
 11
12208.6
 21
6962.065263980722
 31
0.0
  0
LINE
  5
26AE1
330
22B9A
100
AcDbEntity
  8
寸法
 62
     0
 48
50.0
370
    -2
100
AcDbLine
 10
12208.6
 20
6902.065263980721
 30
0.0
 11
12328.6
 21
6902.065263980721
 31
0.0
  0
LINE
  5
26AE2
330
22B9A
100
AcDbEntity
  8
寸法
 62
     0
 48
50.0
370
    -2
100
AcDbLine
 10
12328.6
 20
6902.065263980721
 30
0.0
 11
12734.7062992126
 21
6902.065263980721
 31
0.0
  0
INSERT
  5
26AE3
330
22B9A
100
AcDbEntity
  8
寸法
 62
     0
 48
50.0
370
    -2
100
AcDbBlockReference
  2
_DOTSMALL
 10
12208.6
 20
6902.065263980721
 30
0.0
 41
100.0
 42
100.0
 43
100.0
 50
180.0
  0
INSERT
  5
26AE4
330
22B9A
100
AcDbEntity
  8
寸法
 62
     0
 48
50.0
370
    -2
100
AcDbBlockReference
  2
_DOTSMALL
 10
12328.6
 20
6902.065263980721
 30
0.0
 41
100.0
 42
100.0
 43
100.0
  0
MTEXT
  5
26AE5
330
22B9A
100
AcDbEntity
  8
寸法
 62
     7
 48
50.0
100
AcDbMText
 10
12598.65905511811
 20
7002.077075004343
 30
0.0
 40
120.0
 41
0.0
 71
     5
 72
     1
  1
\A1;120
  7
STYLE1
 73
     1
 44
1.0
1001
ACAD
1000
MTEXTBEGIN
1070
    73
1070
     1
1070
    44
1040
1.0
1070
    74
1070
     0
1000
MTEXTEND
  0
POINT
  5
26AE6
330
22B9A
100
AcDbEntity
  8
DEFPOINTS
 62
     0
 48
50.0
100
AcDbPoint
 10
12328.6
 20
6822.673595425515
 30
0.0
  0
POINT
  5
26AE7
330
22B9A
100
AcDbEntity
  8
DEFPOINTS
 62
     0
 48
50.0
100
AcDbPoint
 10
12208.6
 20
6820.446327358505
 30
0.0
  0
POINT
  5
26AE8
330
22B9A
100
AcDbEntity
  8
DEFPOINTS
 62
     0
 48
50.0
100
AcDbPoint
 10
12208.6
 20
6902.065263980721
 30
0.0
  0
ENDBLK
  5
22BA6
330
22B9A
100
AcDbEntity
  8
0
 48
50.0
100
AcDbBlockEnd
  0
BLOCK
  5
263DB
330
263D1
100
AcDbEntity
  8
0
 48
50.0
100
AcDbBlockBegin
  2
*D30
 70
     1
 10
0.0
 20
0.0
 30
0.0
  3
*D30
  1

  0
LINE
  5
2693C
330
263D1
100
AcDbEntity
  8
寸法
 62
     0
 48
50.0
370
    -2
100
AcDbLine
 10
9745.600000000001
 20
7124.673595425484
 30
0.0
 11
9745.600000000001
 21
7963.940053519394
 31
0.0
  0
LINE
  5
2693D
330
263D1
100
AcDbEntity
  8
寸法
 62
     0
 48
50.0
370
    -2
100
AcDbLine
 10
8105.6
 20
7124.673595425484
 30
0.0
 11
8105.6
 21
7963.940053519394
 31
0.0
  0
LINE
  5
2693E
330
263D1
100
AcDbEntity
  8
寸法
 62
     0
 48
50.0
370
    -2
100
AcDbLine
 10
9745.600000000001
 20
7903.940053519395
 30
0.0
 11
8105.6
 21
7903.940053519395
 31
0.0
  0
INSERT
  5
2693F
330
263D1
100
AcDbEntity
  8
寸法
 62
     0
 48
50.0
370
    -2
100
AcDbBlockReference
  2
_DOTSMALL
 10
9745.600000000001
 20
7903.940053519395
 30
0.0
 41
100.0
 42
100.0
 43
100.0
  0
INSERT
  5
26940
330
263D1
100
AcDbEntity
  8
寸法
 62
     0
 48
50.0
370
    -2
100
AcDbBlockReference
  2
_DOTSMALL
 10
8105.6
 20
7903.940053519395
 30
0.0
 41
100.0
 42
100.0
 43
100.0
 50
180.0
  0
MTEXT
  5
26941
330
263D1
100
AcDbEntity
  8
寸法
 62
     7
 48
50.0
100
AcDbMText
 10
8925.600000000001
 20
8003.940053519395
 30
0.0
 40
120.0
 41
0.0
 71
     5
 72
     1
  1
\A1;1640
  7
STYLE1
 73
     1
 44
1.0
1001
ACAD
1000
MTEXTBEGIN
1070
    73
1070
     1
1070
    44
1040
1.0
1070
    74
1070
     0
1000
MTEXTEND
  0
POINT
  5
26942
330
263D1
100
AcDbEntity
  8
DEFPOINTS
 62
     0
 48
50.0
100
AcDbPoint
 10
9745.600000000001
 20
7104.673595425484
 30
0.0
  0
POINT
  5
26943
330
263D1
100
AcDbEntity
  8
DEFPOINTS
 62
     0
 48
50.0
100
AcDbPoint
 10
8105.6
 20
7104.673595425484
 30
0.0
  0
POINT
  5
26944
330
263D1
100
AcDbEntity
  8
DEFPOINTS
 62
     0
 48
50.0
100
AcDbPoint
 10
8105.6
 20
7903.940053519395
 30
0.0
  0
ENDBLK
  5
263DC
330
263D1
100
AcDbEntity
  8
0
 48
50.0
100
AcDbBlockEnd
  0
BLOCK
  5
263E7
330
263DD
100
AcDbEntity
  8
0
 48
50.0
100
AcDbBlockBegin
  2
*D31
 70
     1
 10
0.0
 20
0.0
 30
0.0
  3
*D31
  1

  0
LINE
  5
26933
330
263DD
100
AcDbEntity
  8
寸法
 62
     0
 48
50.0
370
    -2
100
AcDbLine
 10
9043.600000000008
 20
6767.673595425484
 30
0.0
 11
9043.600000000008
 21
7720.282412095731
 31
0.0
  0
LINE
  5
26934
330
263DD
100
AcDbEntity
  8
寸法
 62
     0
 48
50.0
370
    -2
100
AcDbLine
 10
8223.600000000008
 20
6767.673595425484
 30
0.0
 11
8223.600000000008
 21
7720.282412095731
 31
0.0
  0
LINE
  5
26935
330
263DD
100
AcDbEntity
  8
寸法
 62
     0
 48
50.0
370
    -2
100
AcDbLine
 10
9043.600000000008
 20
7660.282412095732
 30
0.0
 11
8223.600000000008
 21
7660.282412095732
 31
0.0
  0
INSERT
  5
26936
330
263DD
100
AcDbEntity
  8
寸法
 62
     0
 48
50.0
370
    -2
100
AcDbBlockReference
  2
_DOTSMALL
 10
9043.600000000008
 20
7660.282412095732
 30
0.0
 41
100.0
 42
100.0
 43
100.0
  0
INSERT
  5
26937
330
263DD
100
AcDbEntity
  8
寸法
 62
     0
 48
50.0
370
    -2
100
AcDbBlockReference
  2
_DOTSMALL
 10
8223.600000000008
 20
7660.282412095732
 30
0.0
 41
100.0
 42
100.0
 43
100.0
 50
180.0
  0
MTEXT
  5
26938
330
263DD
100
AcDbEntity
  8
寸法
 62
     7
 48
50.0
100
AcDbMText
 10
8633.600000000008
 20
7760.294223119354
 30
0.0
 40
120.0
 41
0.0
 71
     5
 72
     1
  1
\A1;820
  7
STYLE1
 73
     1
 44
1.0
1001
ACAD
1000
MTEXTBEGIN
1070
    73
1070
     1
1070
    44
1040
1.0
1070
    74
1070
     0
1000
MTEXTEND
  0
POINT
  5
26939
330
263DD
100
AcDbEntity
  8
DEFPOINTS
 62
     0
 48
50.0
100
AcDbPoint
 10
9043.600000000008
 20
6747.673595425483
 30
0.0
  0
POINT
  5
2693A
330
263DD
100
AcDbEntity
  8
DEFPOINTS
 62
     0
 48
50.0
100
AcDbPoint
 10
8223.600000000008
 20
6747.673595425483
 30
0.0
  0
POINT
  5
2693B
330
263DD
100
AcDbEntity
  8
DEFPOINTS
 62
     0
 48
50.0
100
AcDbPoint
 10
8223.600000000008
 20
7660.282412095732
 30
0.0
  0
ENDBLK
  5
263E8
330
263DD
100
AcDbEntity
  8
0
 48
50.0
100
AcDbBlockEnd
  0
BLOCK
  5
263F3
330
263E9
100
AcDbEntity
  8
0
 48
50.0
100
AcDbBlockBegin
  2
*D32
 70
     1
 10
0.0
 20
0.0
 30
0.0
  3
*D32
  1

  0
LINE
  5
2692A
330
263E9
100
AcDbEntity
  8
寸法
 62
     0
 48
50.0
370
    -2
100
AcDbLine
 10
4118.6
 20
7197.673595425484
 30
0.0
 11
4118.6
 21
8195.893917484402
 31
0.0
  0
LINE
  5
2692B
330
263E9
100
AcDbEntity
  8
寸法
 62
     0
 48
50.0
370
    -2
100
AcDbLine
 10
12328.6
 20
7197.673595425484
 30
0.0
 11
12328.6
 21
8195.893917484402
 31
0.0
  0
LINE
  5
2692C
330
263E9
100
AcDbEntity
  8
寸法
 62
     0
 48
50.0
370
    -2
100
AcDbLine
 10
4118.6
 20
8135.893917484402
 30
0.0
 11
12328.6
 21
8135.893917484402
 31
0.0
  0
INSERT
  5
2692D
330
263E9
100
AcDbEntity
  8
寸法
 62
     0
 48
50.0
370
    -2
100
AcDbBlockReference
  2
_DOTSMALL
 10
4118.6
 20
8135.893917484402
 30
0.0
 41
100.0
 42
100.0
 43
100.0
 50
180.0
  0
INSERT
  5
2692E
330
263E9
100
AcDbEntity
  8
寸法
 62
     0
 48
50.0
370
    -2
100
AcDbBlockReference
  2
_DOTSMALL
 10
12328.6
 20
8135.893917484402
 30
0.0
 41
100.0
 42
100.0
 43
100.0
  0
MTEXT
  5
2692F
330
263E9
100
AcDbEntity
  8
寸法
 62
     7
 48
50.0
100
AcDbMText
 10
8223.600000000001
 20
8235.905728508024
 30
0.0
 40
120.0
 41
0.0
 71
     5
 72
     1
  1
\A1;8210
  7
STYLE1
 73
     1
 44
1.0
1001
ACAD
1000
MTEXTBEGIN
1070
    73
1070
     1
1070
    44
1040
1.0
1070
    74
1070
     0
1000
MTEXTEND
  0
POINT
  5
26930
330
263E9
100
AcDbEntity
  8
DEFPOINTS
 62
     0
 48
50.0
100
AcDbPoint
 10
4118.6
 20
7177.673595425483
 30
0.0
  0
POINT
  5
26931
330
263E9
100
AcDbEntity
  8
DEFPOINTS
 62
     0
 48
50.0
100
AcDbPoint
 10
12328.6
 20
7177.673595425483
 30
0.0
  0
POINT
  5
26932
330
263E9
100
AcDbEntity
  8
DEFPOINTS
 62
     0
 48
50.0
100
AcDbPoint
 10
12328.6
 20
8135.893917484402
 30
0.0
  0
ENDBLK
  5
263F4
330
263E9
100
AcDbEntity
  8
0
 48
50.0
100
AcDbBlockEnd
  0
BLOCK
  5
263FF
330
263F5
100
AcDbEntity
  8
0
 48
50.0
100
AcDbBlockBegin
  2
*D33
 70
     1
 10
0.0
 20
0.0
 30
0.0
  3
*D33
  1

  0
LINE
  5
269ED
330
263F5
100
AcDbEntity
  8
寸法
 62
     0
 48
50.0
370
    -2
100
AcDbLine
 10
4171.6
 20
7054.673595425484
 30
0.0
 11
3435.665006330072
 21
7054.673595425484
 31
0.0
  0
LINE
  5
269EE
330
263F5
100
AcDbEntity
  8
寸法
 62
     0
 48
50.0
370
    -2
100
AcDbLine
 10
4171.600000000007
 20
6415.673595425487
 30
0.0
 11
3435.665006330072
 21
6415.673595425487
 31
0.0
  0
LINE
  5
269EF
330
263F5
100
AcDbEntity
  8
寸法
 62
     0
 48
50.0
370
    -2
100
AcDbLine
 10
3495.665006330072
 20
7054.673595425484
 30
0.0
 11
3495.665006330072
 21
6415.673595425487
 31
0.0
  0
INSERT
  5
269F0
330
263F5
100
AcDbEntity
  8
寸法
 62
     0
 48
50.0
370
    -2
100
AcDbBlockReference
  2
_DOTSMALL
 10
3495.665006330072
 20
7054.673595425484
 30
0.0
 41
100.0
 42
100.0
 43
100.0
 50
90.0
  0
INSERT
  5
269F1
330
263F5
100
AcDbEntity
  8
寸法
 62
     0
 48
50.0
370
    -2
100
AcDbBlockReference
  2
_DOTSMALL
 10
3495.665006330072
 20
6415.673595425487
 30
0.0
 41
100.0
 42
100.0
 43
100.0
 50
270.0
  0
MTEXT
  5
269F2
330
263F5
100
AcDbEntity
  8
寸法
 62
     7
 48
50.0
100
AcDbMText
 10
3395.665006330072
 20
6735.173595425483
 30
0.0
 40
120.0
 41
0.0
 71
     5
 72
     1
  1
\A1;639
  7
STYLE1
 11
0.0000000000000001
 21
1.0
 31
0.0
 73
     1
 44
1.0
1001
ACAD
1000
MTEXTBEGIN
1070
    73
1070
     1
1070
    44
1040
1.0
1070
    74
1070
     0
1000
MTEXTEND
  0
POINT
  5
269F3
330
263F5
100
AcDbEntity
  8
DEFPOINTS
 62
     0
 48
50.0
100
AcDbPoint
 10
4191.6
 20
7054.673595425484
 30
0.0
  0
POINT
  5
269F4
330
263F5
100
AcDbEntity
  8
DEFPOINTS
 62
     0
 48
50.0
100
AcDbPoint
 10
4191.600000000007
 20
6415.673595425487
 30
0.0
  0
POINT
  5
269F5
330
263F5
100
AcDbEntity
  8
DEFPOINTS
 62
     0
 48
50.0
100
AcDbPoint
 10
3495.665006330072
 20
6415.673595425487
 30
0.0
  0
ENDBLK
  5
26400
330
263F5
100
AcDbEntity
  8
0
 48
50.0
100
AcDbBlockEnd
  0
BLOCK
  5
2640B
330
26401
100
AcDbEntity
  8
0
 48
50.0
100
AcDbBlockBegin
  2
*D34
 70
     1
 10
0.0
 20
0.0
 30
0.0
  3
*D34
  1

  0
LINE
  5
2694F
330
26401
100
AcDbEntity
  8
寸法
 62
     0
 48
50.0
370
    -2
100
AcDbLine
 10
4098.6
 20
7177.673595425483
 30
0.0
 11
3183.721909610675
 21
7177.673595425483
 31
0.0
  0
LINE
  5
26950
330
26401
100
AcDbEntity
  8
寸法
 62
     0
 48
50.0
370
    -2
100
AcDbLine
 10
4098.6
 20
6217.673595425484
 30
0.0
 11
3183.721909610674
 21
6217.673595425484
 31
0.0
  0
LINE
  5
26951
330
26401
100
AcDbEntity
  8
寸法
 62
     0
 48
50.0
370
    -2
100
AcDbLine
 10
3243.721909610675
 20
7177.673595425483
 30
0.0
 11
3243.721909610674
 21
6217.673595425484
 31
0.0
  0
INSERT
  5
26952
330
26401
100
AcDbEntity
  8
寸法
 62
     0
 48
50.0
370
    -2
100
AcDbBlockReference
  2
_DOTSMALL
 10
3243.721909610675
 20
7177.673595425483
 30
0.0
 41
100.0
 42
100.0
 43
100.0
 50
90.0
  0
INSERT
  5
26953
330
26401
100
AcDbEntity
  8
寸法
 62
     0
 48
50.0
370
    -2
100
AcDbBlockReference
  2
_DOTSMALL
 10
3243.721909610674
 20
6217.673595425484
 30
0.0
 41
100.0
 42
100.0
 43
100.0
 50
270.0
  0
MTEXT
  5
26954
330
26401
100
AcDbEntity
  8
寸法
 62
     7
 48
50.0
100
AcDbMText
 10
3143.721909610673
 20
6735.173595425483
 30
0.0
 40
120.0
 41
0.0
 71
     5
 72
     1
  1
\A1;960
  7
STYLE1
 11
0.0000000000000001
 21
1.0
 31
0.0
 73
     1
 44
1.0
1001
ACAD
1000
MTEXTBEGIN
1070
    73
1070
     1
1070
    44
1040
1.0
1070
    74
1070
     0
1000
MTEXTEND
  0
POINT
  5
26955
330
26401
100
AcDbEntity
  8
DEFPOINTS
 62
     0
 48
50.0
100
AcDbPoint
 10
4118.6
 20
7177.673595425483
 30
0.0
  0
POINT
  5
26956
330
26401
100
AcDbEntity
  8
DEFPOINTS
 62
     0
 48
50.0
100
AcDbPoint
 10
4118.6
 20
6217.673595425484
 30
0.0
  0
POINT
  5
26957
330
26401
100
AcDbEntity
  8
DEFPOINTS
 62
     0
 48
50.0
100
AcDbPoint
 10
3243.721909610674
 20
6217.673595425484
 30
0.0
  0
ENDBLK
  5
2640C
330
26401
100
AcDbEntity
  8
0
 48
50.0
100
AcDbBlockEnd
  0
BLOCK
  5
26418
330
2640D
100
AcDbEntity
  8
0
 48
50.0
100
AcDbBlockBegin
  2
*D35
 70
     1
 10
0.0
 20
0.0
 30
0.0
  3
*D35
  1

  0
LINE
  5
2696A
330
2640D
100
AcDbEntity
  8
寸法
 62
     0
 48
50.0
370
    -2
100
AcDbLine
 10
4672.765475140901
 20
6217.673595425495
 30
0.0
 11
4541.285990614301
 21
6217.673595425495
 31
0.0
  0
LINE
  5
2696B
330
2640D
100
AcDbEntity
  8
寸法
 62
     0
 48
50.0
370
    -2
100
AcDbLine
 10
4873.600000000007
 20
6697.673595425484
 30
0.0
 11
4541.285990614301
 21
6697.673595425484
 31
0.0
  0
LINE
  5
2696C
330
2640D
100
AcDbEntity
  8
寸法
 62
     0
 48
50.0
370
    -2
100
AcDbLine
 10
4601.285990614302
 20
6697.673595425484
 30
0.0
 11
4601.285990614302
 21
6217.673595425495
 31
0.0
  0
LINE
  5
2696D
330
2640D
100
AcDbEntity
  8
寸法
 62
     0
 48
50.0
370
    -2
100
AcDbLine
 10
4601.285990614302
 20
6217.673595425495
 30
0.0
 11
4601.285990614301
 21
5771.067296212894
 31
0.0
  0
INSERT
  5
2696E
330
2640D
100
AcDbEntity
  8
寸法
 62
     0
 48
50.0
370
    -2
100
AcDbBlockReference
  2
_DOTSMALL
 10
4601.285990614302
 20
6697.673595425484
 30
0.0
 41
100.0
 42
100.0
 43
100.0
 50
90.0
  0
INSERT
  5
2696F
330
2640D
100
AcDbEntity
  8
寸法
 62
     0
 48
50.0
370
    -2
100
AcDbBlockReference
  2
_DOTSMALL
 10
4601.285990614302
 20
6217.673595425495
 30
0.0
 41
100.0
 42
100.0
 43
100.0
 50
270.0
  0
MTEXT
  5
26970
330
2640D
100
AcDbEntity
  8
寸法
 62
     7
 48
50.0
100
AcDbMText
 10
4501.285990614301
 20
5925.114540307383
 30
0.0
 40
120.0
 41
0.0
 71
     5
 72
     1
  1
\A1;480
  7
STYLE1
 11
0.0000000000000001
 21
1.0
 31
0.0
 73
     1
 44
1.0
1001
ACAD
1000
MTEXTBEGIN
1070
    73
1070
     1
1070
    44
1040
1.0
1070
    74
1070
     0
1000
MTEXTEND
  0
POINT
  5
26971
330
2640D
100
AcDbEntity
  8
DEFPOINTS
 62
     0
 48
50.0
100
AcDbPoint
 10
4692.765475140901
 20
6217.673595425495
 30
0.0
  0
POINT
  5
26972
330
2640D
100
AcDbEntity
  8
DEFPOINTS
 62
     0
 48
50.0
100
AcDbPoint
 10
4893.600000000008
 20
6697.673595425484
 30
0.0
  0
POINT
  5
26973
330
2640D
100
AcDbEntity
  8
DEFPOINTS
 62
     0
 48
50.0
100
AcDbPoint
 10
4601.285990614302
 20
6697.673595425484
 30
0.0
  0
ENDBLK
  5
26419
330
2640D
100
AcDbEntity
  8
0
 48
50.0
100
AcDbBlockEnd
  0
BLOCK
  5
26425
330
2641A
100
AcDbEntity
  8
0
 48
50.0
100
AcDbBlockBegin
  2
*D36
 70
     1
 10
0.0
 20
0.0
 30
0.0
  3
*D36
  1

  0
LINE
  5
269E3
330
2641A
100
AcDbEntity
  8
寸法
 62
     0
 48
50.0
370
    -2
100
AcDbLine
 10
4171.600000000007
 20
6415.673595425487
 30
0.0
 11
3435.665006330072
 21
6415.673595425487
 31
0.0
  0
LINE
  5
269E4
330
2641A
100
AcDbEntity
  8
寸法
 62
     0
 48
50.0
370
    -2
100
AcDbLine
 10
4098.6
 20
6217.673595425484
 30
0.0
 11
3435.665006330072
 21
6217.673595425484
 31
0.0
  0
LINE
  5
269E5
330
2641A
100
AcDbEntity
  8
寸法
 62
     0
 48
50.0
370
    -2
100
AcDbLine
 10
3495.665006330072
 20
6415.673595425487
 30
0.0
 11
3495.665006330072
 21
6217.673595425484
 31
0.0
  0
LINE
  5
269E6
330
2641A
100
AcDbEntity
  8
寸法
 62
     0
 48
50.0
370
    -2
100
AcDbLine
 10
3495.665006330072
 20
6217.673595425484
 30
0.0
 11
3495.665006330072
 21
5745.932986753235
 31
0.0
  0
INSERT
  5
269E7
330
2641A
100
AcDbEntity
  8
寸法
 62
     0
 48
50.0
370
    -2
100
AcDbBlockReference
  2
_DOTSMALL
 10
3495.665006330072
 20
6415.673595425487
 30
0.0
 41
100.0
 42
100.0
 43
100.0
 50
90.0
  0
INSERT
  5
269E8
330
2641A
100
AcDbEntity
  8
寸法
 62
     0
 48
50.0
370
    -2
100
AcDbBlockReference
  2
_DOTSMALL
 10
3495.665006330072
 20
6217.673595425484
 30
0.0
 41
100.0
 42
100.0
 43
100.0
 50
270.0
  0
MTEXT
  5
269E9
330
2641A
100
AcDbEntity
  8
寸法
 62
     7
 48
50.0
100
AcDbMText
 10
3395.665006330072
 20
5882.142646582892
 30
0.0
 40
120.0
 41
0.0
 71
     5
 72
     1
  1
\A1;198
  7
STYLE1
 11
0.0000000000000001
 21
1.0
 31
0.0
 73
     1
 44
1.0
1001
ACAD
1000
MTEXTBEGIN
1070
    73
1070
     1
1070
    44
1040
1.0
1070
    74
1070
     0
1000
MTEXTEND
  0
POINT
  5
269EA
330
2641A
100
AcDbEntity
  8
DEFPOINTS
 62
     0
 48
50.0
100
AcDbPoint
 10
4191.600000000007
 20
6415.673595425487
 30
0.0
  0
POINT
  5
269EB
330
2641A
100
AcDbEntity
  8
DEFPOINTS
 62
     0
 48
50.0
100
AcDbPoint
 10
4118.6
 20
6217.673595425484
 30
0.0
  0
POINT
  5
269EC
330
2641A
100
AcDbEntity
  8
DEFPOINTS
 62
     0
 48
50.0
100
AcDbPoint
 10
3495.665006330072
 20
6217.673595425484
 30
0.0
  0
ENDBLK
  5
26426
330
2641A
100
AcDbEntity
  8
0
 48
50.0
100
AcDbBlockEnd
  0
BLOCK
  5
2643D
330
26433
100
AcDbEntity
  8
0
 48
50.0
100
AcDbBlockBegin
  2
*D37
 70
     1
 10
0.0
 20
0.0
 30
0.0
  3
*D37
  1

  0
LINE
  5
26961
330
26433
100
AcDbEntity
  8
寸法
 62
     0
 48
50.0
370
    -2
100
AcDbLine
 10
4098.600000000003
 20
6217.67359542548
 30
0.0
 11
3945.512673767883
 21
6217.67359542548
 31
0.0
  0
LINE
  5
26962
330
26433
100
AcDbEntity
  8
寸法
 62
     0
 48
50.0
370
    -2
100
AcDbLine
 10
4454.325326928809
 20
5497.67359542548
 30
0.0
 11
3945.512673767883
 21
5497.67359542548
 31
0.0
  0
LINE
  5
26963
330
26433
100
AcDbEntity
  8
寸法
 62
     0
 48
50.0
370
    -2
100
AcDbLine
 10
4005.512673767883
 20
6217.67359542548
 30
0.0
 11
4005.512673767883
 21
5497.67359542548
 31
0.0
  0
INSERT
  5
26964
330
26433
100
AcDbEntity
  8
寸法
 62
     0
 48
50.0
370
    -2
100
AcDbBlockReference
  2
_DOTSMALL
 10
4005.512673767883
 20
6217.67359542548
 30
0.0
 41
100.0
 42
100.0
 43
100.0
 50
90.0
  0
INSERT
  5
26965
330
26433
100
AcDbEntity
  8
寸法
 62
     0
 48
50.0
370
    -2
100
AcDbBlockReference
  2
_DOTSMALL
 10
4005.512673767883
 20
5497.67359542548
 30
0.0
 41
100.0
 42
100.0
 43
100.0
 50
270.0
  0
MTEXT
  5
26966
330
26433
100
AcDbEntity
  8
寸法
 62
     7
 48
50.0
100
AcDbMText
 10
3905.50086274426
 20
5857.673595425481
 30
0.0
 40
120.0
 41
0.0
 71
     5
 72
     1
  1
\A1;扉の出720
  7
STYLE1
 11
0.0000000000000001
 21
1.0
 31
0.0
 73
     1
 44
1.0
1001
ACAD
1000
MTEXTBEGIN
1070
    73
1070
     1
1070
    44
1040
1.0
1070
    74
1070
     0
1000
MTEXTEND
  0
POINT
  5
26967
330
26433
100
AcDbEntity
  8
DEFPOINTS
 62
     0
 48
50.0
100
AcDbPoint
 10
4118.600000000004
 20
6217.67359542548
 30
0.0
  0
POINT
  5
26968
330
26433
100
AcDbEntity
  8
DEFPOINTS
 62
     0
 48
50.0
100
AcDbPoint
 10
4474.325326928808
 20
5497.67359542548
 30
0.0
  0
POINT
  5
26969
330
26433
100
AcDbEntity
  8
DEFPOINTS
 62
     0
 48
50.0
100
AcDbPoint
 10
4005.512673767883
 20
5497.67359542548
 30
0.0
  0
ENDBLK
  5
2643E
330
26433
100
AcDbEntity
  8
0
 48
50.0
100
AcDbBlockEnd
  0
BLOCK
  5
26455
330
2644C
100
AcDbEntity
  8
0
 48
50.0
100
AcDbBlockBegin
  2
*D38
 70
     1
 10
0.0
 20
0.0
 30
0.0
  3
*D38
  1

  0
LINE
  5
26921
330
2644C
100
AcDbEntity
  8
寸法
 62
     0
 48
50.0
370
    -2
100
AcDbLine
 10
5763.600000000008
 20
6767.673595425484
 30
0.0
 11
5763.600000000008
 21
7720.282412095731
 31
0.0
  0
LINE
  5
26922
330
2644C
100
AcDbEntity
  8
寸法
 62
     0
 48
50.0
370
    -2
100
AcDbLine
 10
4943.600000000007
 20
6767.673595425484
 30
0.0
 11
4943.600000000007
 21
7720.282412095731
 31
0.0
  0
LINE
  5
26923
330
2644C
100
AcDbEntity
  8
寸法
 62
     0
 48
50.0
370
    -2
100
AcDbLine
 10
5763.600000000008
 20
7660.282412095732
 30
0.0
 11
4943.600000000007
 21
7660.282412095732
 31
0.0
  0
INSERT
  5
26924
330
2644C
100
AcDbEntity
  8
寸法
 62
     0
 48
50.0
370
    -2
100
AcDbBlockReference
  2
_DOTSMALL
 10
5763.600000000008
 20
7660.282412095732
 30
0.0
 41
100.0
 42
100.0
 43
100.0
  0
INSERT
  5
26925
330
2644C
100
AcDbEntity
  8
寸法
 62
     0
 48
50.0
370
    -2
100
AcDbBlockReference
  2
_DOTSMALL
 10
4943.600000000007
 20
7660.282412095732
 30
0.0
 41
100.0
 42
100.0
 43
100.0
 50
180.0
  0
MTEXT
  5
26926
330
2644C
100
AcDbEntity
  8
寸法
 62
     7
 48
50.0
100
AcDbMText
 10
5353.600000000008
 20
7760.294223119354
 30
0.0
 40
120.0
 41
0.0
 71
     5
 72
     1
  1
\A1;820
  7
STYLE1
 73
     1
 44
1.0
1001
ACAD
1000
MTEXTBEGIN
1070
    73
1070
     1
1070
    44
1040
1.0
1070
    74
1070
     0
1000
MTEXTEND
  0
POINT
  5
26927
330
2644C
100
AcDbEntity
  8
DEFPOINTS
 62
     0
 48
50.0
100
AcDbPoint
 10
5763.600000000008
 20
6747.673595425483
 30
0.0
  0
POINT
  5
26928
330
2644C
100
AcDbEntity
  8
DEFPOINTS
 62
     0
 48
50.0
100
AcDbPoint
 10
4943.600000000007
 20
6747.673595425483
 30
0.0
  0
POINT
  5
26929
330
2644C
100
AcDbEntity
  8
DEFPOINTS
 62
     0
 48
50.0
100
AcDbPoint
 10
4943.600000000007
 20
7660.282412095732
 30
0.0
  0
ENDBLK
  5
26456
330
2644C
100
AcDbEntity
  8
0
 48
50.0
100
AcDbBlockEnd
  0
BLOCK
  5
26460
330
26457
100
AcDbEntity
  8
0
 48
50.0
100
AcDbBlockBegin
  2
*D39
 70
     1
 10
0.0
 20
0.0
 30
0.0
  3
*D39
  1

  0
LINE
  5
26918
330
26457
100
AcDbEntity
  8
寸法
 62
     0
 48
50.0
370
    -2
100
AcDbLine
 10
6465.600000000001
 20
7124.673595425484
 30
0.0
 11
6465.600000000001
 21
7963.940053519394
 31
0.0
  0
LINE
  5
26919
330
26457
100
AcDbEntity
  8
寸法
 62
     0
 48
50.0
370
    -2
100
AcDbLine
 10
4241.6
 20
7124.673595425484
 30
0.0
 11
4241.6
 21
7963.940053519394
 31
0.0
  0
LINE
  5
2691A
330
26457
100
AcDbEntity
  8
寸法
 62
     0
 48
50.0
370
    -2
100
AcDbLine
 10
6465.600000000001
 20
7903.940053519395
 30
0.0
 11
4241.6
 21
7903.940053519395
 31
0.0
  0
INSERT
  5
2691B
330
26457
100
AcDbEntity
  8
寸法
 62
     0
 48
50.0
370
    -2
100
AcDbBlockReference
  2
_DOTSMALL
 10
6465.600000000001
 20
7903.940053519395
 30
0.0
 41
100.0
 42
100.0
 43
100.0
  0
INSERT
  5
2691C
330
26457
100
AcDbEntity
  8
寸法
 62
     0
 48
50.0
370
    -2
100
AcDbBlockReference
  2
_DOTSMALL
 10
4241.6
 20
7903.940053519395
 30
0.0
 41
100.0
 42
100.0
 43
100.0
 50
180.0
  0
MTEXT
  5
2691D
330
26457
100
AcDbEntity
  8
寸法
 62
     7
 48
50.0
100
AcDbMText
 10
5353.6
 20
8003.951864543017
 30
0.0
 40
120.0
 41
0.0
 71
     5
 72
     1
  1
\A1;2224
  7
STYLE1
 73
     1
 44
1.0
1001
ACAD
1000
MTEXTBEGIN
1070
    73
1070
     1
1070
    44
1040
1.0
1070
    74
1070
     0
1000
MTEXTEND
  0
POINT
  5
2691E
330
26457
100
AcDbEntity
  8
DEFPOINTS
 62
     0
 48
50.0
100
AcDbPoint
 10
6465.600000000001
 20
7104.673595425484
 30
0.0
  0
POINT
  5
2691F
330
26457
100
AcDbEntity
  8
DEFPOINTS
 62
     0
 48
50.0
100
AcDbPoint
 10
4241.6
 20
7104.673595425484
 30
0.0
  0
POINT
  5
26920
330
26457
100
AcDbEntity
  8
DEFPOINTS
 62
     0
 48
50.0
100
AcDbPoint
 10
4241.6
 20
7903.940053519395
 30
0.0
  0
ENDBLK
  5
26461
330
26457
100
AcDbEntity
  8
0
 48
50.0
100
AcDbBlockEnd
  0
BLOCK
  5
2646D
330
26462
100
AcDbEntity
  8
0
 48
50.0
100
AcDbBlockBegin
  2
*D40
 70
     1
 10
0.0
 20
0.0
 30
0.0
  3
*D40
  1

  0
LINE
  5
2690E
330
26462
100
AcDbEntity
  8
寸法
 62
     0
 48
50.0
370
    -2
100
AcDbLine
 10
4098.6
 20
7177.673595425483
 30
0.0
 11
3435.665006330073
 21
7177.673595425483
 31
0.0
  0
LINE
  5
2690F
330
26462
100
AcDbEntity
  8
寸法
 62
     0
 48
50.0
370
    -2
100
AcDbLine
 10
4171.6
 20
7054.673595425484
 30
0.0
 11
3435.665006330072
 21
7054.673595425484
 31
0.0
  0
LINE
  5
26910
330
26462
100
AcDbEntity
  8
寸法
 62
     0
 48
50.0
370
    -2
100
AcDbLine
 10
3495.665006330072
 20
7054.673595425484
 30
0.0
 11
3495.665006330073
 21
7177.673595425483
 31
0.0
  0
LINE
  5
26911
330
26462
100
AcDbEntity
  8
寸法
 62
     0
 48
50.0
370
    -2
100
AcDbLine
 10
3495.665006330073
 20
7177.673595425483
 30
0.0
 11
3495.665006330073
 21
7589.265478517522
 31
0.0
  0
INSERT
  5
26912
330
26462
100
AcDbEntity
  8
寸法
 62
     0
 48
50.0
370
    -2
100
AcDbBlockReference
  2
_DOTSMALL
 10
3495.665006330072
 20
7054.673595425484
 30
0.0
 41
100.0
 42
100.0
 43
100.0
 50
270.0
  0
INSERT
  5
26913
330
26462
100
AcDbEntity
  8
寸法
 62
     0
 48
50.0
370
    -2
100
AcDbBlockReference
  2
_DOTSMALL
 10
3495.665006330073
 20
7177.673595425483
 30
0.0
 41
100.0
 42
100.0
 43
100.0
 50
90.0
  0
MTEXT
  5
26914
330
26462
100
AcDbEntity
  8
寸法
 62
     7
 48
50.0
100
AcDbMText
 10
3395.653195306449
 20
7450.780197143284
 30
0.0
 40
120.0
 41
0.0
 71
     5
 72
     1
  1
\A1;123
  7
STYLE1
 11
0.0000000000000001
 21
1.0
 31
0.0
 73
     1
 44
1.0
1001
ACAD
1000
MTEXTBEGIN
1070
    73
1070
     1
1070
    44
1040
1.0
1070
    74
1070
     0
1000
MTEXTEND
  0
POINT
  5
26915
330
26462
100
AcDbEntity
  8
DEFPOINTS
 62
     0
 48
50.0
100
AcDbPoint
 10
4118.6
 20
7177.673595425483
 30
0.0
  0
POINT
  5
26916
330
26462
100
AcDbEntity
  8
DEFPOINTS
 62
     0
 48
50.0
100
AcDbPoint
 10
4191.6
 20
7054.673595425484
 30
0.0
  0
POINT
  5
26917
330
26462
100
AcDbEntity
  8
DEFPOINTS
 62
     0
 48
50.0
100
AcDbPoint
 10
3495.665006330072
 20
7054.673595425484
 30
0.0
  0
ENDBLK
  5
2646E
330
26462
100
AcDbEntity
  8
0
 48
50.0
100
AcDbBlockEnd
  0
BLOCK
  5
26490
330
26486
100
AcDbEntity
  8
0
 48
50.0
100
AcDbBlockBegin
  2
*D41
 70
     1
 10
0.0
 20
0.0
 30
0.0
  3
*D41
  1

  0
LINE
  5
26905
330
26486
100
AcDbEntity
  8
寸法
 62
     0
 48
50.0
370
    -2
100
AcDbLine
 10
4943.600000000007
 20
6767.673595425484
 30
0.0
 11
4943.600000000007
 21
7720.282412095731
 31
0.0
  0
LINE
  5
26906
330
26486
100
AcDbEntity
  8
寸法
 62
     0
 48
50.0
370
    -2
100
AcDbLine
 10
4118.6
 20
7197.673595425484
 30
0.0
 11
4118.6
 21
7720.282412095731
 31
0.0
  0
LINE
  5
26907
330
26486
100
AcDbEntity
  8
寸法
 62
     0
 48
50.0
370
    -2
100
AcDbLine
 10
4943.600000000007
 20
7660.282412095732
 30
0.0
 11
4118.6
 21
7660.282412095732
 31
0.0
  0
INSERT
  5
26908
330
26486
100
AcDbEntity
  8
寸法
 62
     0
 48
50.0
370
    -2
100
AcDbBlockReference
  2
_DOTSMALL
 10
4943.600000000007
 20
7660.282412095732
 30
0.0
 41
100.0
 42
100.0
 43
100.0
  0
INSERT
  5
26909
330
26486
100
AcDbEntity
  8
寸法
 62
     0
 48
50.0
370
    -2
100
AcDbBlockReference
  2
_DOTSMALL
 10
4118.6
 20
7660.282412095732
 30
0.0
 41
100.0
 42
100.0
 43
100.0
 50
180.0
  0
MTEXT
  5
2690A
330
26486
100
AcDbEntity
  8
寸法
 62
     7
 48
50.0
100
AcDbMText
 10
4531.100000000004
 20
7760.294223119354
 30
0.0
 40
120.0
 41
0.0
 71
     5
 72
     1
  1
\A1;825
  7
STYLE1
 73
     1
 44
1.0
1001
ACAD
1000
MTEXTBEGIN
1070
    73
1070
     1
1070
    44
1040
1.0
1070
    74
1070
     0
1000
MTEXTEND
  0
POINT
  5
2690B
330
26486
100
AcDbEntity
  8
DEFPOINTS
 62
     0
 48
50.0
100
AcDbPoint
 10
4943.600000000007
 20
6747.673595425483
 30
0.0
  0
POINT
  5
2690C
330
26486
100
AcDbEntity
  8
DEFPOINTS
 62
     0
 48
50.0
100
AcDbPoint
 10
4118.6
 20
7177.673595425483
 30
0.0
  0
POINT
  5
2690D
330
26486
100
AcDbEntity
  8
DEFPOINTS
 62
     0
 48
50.0
100
AcDbPoint
 10
4118.6
 20
7660.282412095732
 30
0.0
  0
ENDBLK
  5
26491
330
26486
100
AcDbEntity
  8
0
 48
50.0
100
AcDbBlockEnd
  0
BLOCK
  5
2649D
330
26492
100
AcDbEntity
  8
0
 48
50.0
100
AcDbBlockBegin
  2
*D42
 70
     1
 10
0.0
 20
0.0
 30
0.0
  3
*D42
  1

  0
LINE
  5
268FB
330
26492
100
AcDbEntity
  8
寸法
 62
     0
 48
50.0
370
    -2
100
AcDbLine
 10
4241.6
 20
7124.673595425484
 30
0.0
 11
4241.6
 21
7963.940053519394
 31
0.0
  0
LINE
  5
268FC
330
26492
100
AcDbEntity
  8
寸法
 62
     0
 48
50.0
370
    -2
100
AcDbLine
 10
4118.6
 20
7197.673595425484
 30
0.0
 11
4118.6
 21
7963.940053519394
 31
0.0
  0
LINE
  5
268FD
330
26492
100
AcDbEntity
  8
寸法
 62
     0
 48
50.0
370
    -2
100
AcDbLine
 10
4241.6
 20
7903.940053519395
 30
0.0
 11
4118.6
 21
7903.940053519395
 31
0.0
  0
LINE
  5
268FE
330
26492
100
AcDbEntity
  8
寸法
 62
     0
 48
50.0
370
    -2
100
AcDbLine
 10
4118.6
 20
7903.940053519395
 30
0.0
 11
3707.008116907964
 21
7903.940053519395
 31
0.0
  0
INSERT
  5
268FF
330
26492
100
AcDbEntity
  8
寸法
 62
     0
 48
50.0
370
    -2
100
AcDbBlockReference
  2
_DOTSMALL
 10
4241.6
 20
7903.940053519395
 30
0.0
 41
100.0
 42
100.0
 43
100.0
  0
INSERT
  5
26900
330
26492
100
AcDbEntity
  8
寸法
 62
     0
 48
50.0
370
    -2
100
AcDbBlockReference
  2
_DOTSMALL
 10
4118.6
 20
7903.940053519395
 30
0.0
 41
100.0
 42
100.0
 43
100.0
 50
180.0
  0
MTEXT
  5
26901
330
26492
100
AcDbEntity
  8
寸法
 62
     7
 48
50.0
100
AcDbMText
 10
3845.493398282202
 20
8003.951864543017
 30
0.0
 40
120.0
 41
0.0
 71
     5
 72
     1
  1
\A1;123
  7
STYLE1
 73
     1
 44
1.0
1001
ACAD
1000
MTEXTBEGIN
1070
    73
1070
     1
1070
    44
1040
1.0
1070
    74
1070
     0
1000
MTEXTEND
  0
POINT
  5
26902
330
26492
100
AcDbEntity
  8
DEFPOINTS
 62
     0
 48
50.0
100
AcDbPoint
 10
4241.6
 20
7104.673595425484
 30
0.0
  0
POINT
  5
26903
330
26492
100
AcDbEntity
  8
DEFPOINTS
 62
     0
 48
50.0
100
AcDbPoint
 10
4118.6
 20
7177.673595425483
 30
0.0
  0
POINT
  5
26904
330
26492
100
AcDbEntity
  8
DEFPOINTS
 62
     0
 48
50.0
100
AcDbPoint
 10
4118.6
 20
7903.940053519395
 30
0.0
  0
ENDBLK
  5
2649E
330
26492
100
AcDbEntity
  8
0
 48
50.0
100
AcDbBlockEnd
  0
BLOCK
  5
264AA
330
2649F
100
AcDbEntity
  8
0
 48
50.0
100
AcDbBlockBegin
  2
*D43
 70
     1
 10
0.0
 20
0.0
 30
0.0
  3
*D43
  1

  0
LINE
  5
268F1
330
2649F
100
AcDbEntity
  8
寸法
 62
     0
 48
50.0
370
    -2
100
AcDbLine
 10
4873.600000000007
 20
6697.673595425484
 30
0.0
 11
4541.285990614301
 21
6697.673595425484
 31
0.0
  0
LINE
  5
268F2
330
2649F
100
AcDbEntity
  8
寸法
 62
     0
 48
50.0
370
    -2
100
AcDbLine
 10
4672.765475140901
 20
7177.673595425483
 30
0.0
 11
4541.285990614301
 21
7177.673595425483
 31
0.0
  0
LINE
  5
268F3
330
2649F
100
AcDbEntity
  8
寸法
 62
     0
 48
50.0
370
    -2
100
AcDbLine
 10
4601.285990614301
 20
6697.673595425484
 30
0.0
 11
4601.285990614301
 21
7177.673595425483
 31
0.0
  0
LINE
  5
268F4
330
2649F
100
AcDbEntity
  8
寸法
 62
     0
 48
50.0
370
    -2
100
AcDbLine
 10
4601.285990614301
 20
7177.673595425483
 30
0.0
 11
4601.285990614301
 21
7624.279894638083
 31
0.0
  0
INSERT
  5
268F5
330
2649F
100
AcDbEntity
  8
寸法
 62
     0
 48
50.0
370
    -2
100
AcDbBlockReference
  2
_DOTSMALL
 10
4601.285990614301
 20
6697.673595425484
 30
0.0
 41
100.0
 42
100.0
 43
100.0
 50
270.0
  0
INSERT
  5
268F6
330
2649F
100
AcDbEntity
  8
寸法
 62
     0
 48
50.0
370
    -2
100
AcDbBlockReference
  2
_DOTSMALL
 10
4601.285990614301
 20
7177.673595425483
 30
0.0
 41
100.0
 42
100.0
 43
100.0
 50
90.0
  0
MTEXT
  5
268F7
330
2649F
100
AcDbEntity
  8
寸法
 62
     7
 48
50.0
100
AcDbMText
 10
4501.285990614301
 20
7470.232650543596
 30
0.0
 40
120.0
 41
0.0
 71
     5
 72
     1
  1
\A1;480
  7
STYLE1
 11
0.0000000000000001
 21
1.0
 31
0.0
 73
     1
 44
1.0
1001
ACAD
1000
MTEXTBEGIN
1070
    73
1070
     1
1070
    44
1040
1.0
1070
    74
1070
     0
1000
MTEXTEND
  0
POINT
  5
268F8
330
2649F
100
AcDbEntity
  8
DEFPOINTS
 62
     0
 48
50.0
100
AcDbPoint
 10
4893.600000000008
 20
6697.673595425484
 30
0.0
  0
POINT
  5
268F9
330
2649F
100
AcDbEntity
  8
DEFPOINTS
 62
     0
 48
50.0
100
AcDbPoint
 10
4692.765475140901
 20
7177.673595425483
 30
0.0
  0
POINT
  5
268FA
330
2649F
100
AcDbEntity
  8
DEFPOINTS
 62
     0
 48
50.0
100
AcDbPoint
 10
4601.285990614301
 20
7177.673595425483
 30
0.0
  0
ENDBLK
  5
264AB
330
2649F
100
AcDbEntity
  8
0
 48
50.0
100
AcDbBlockEnd
  0
BLOCK
  5
264B6
330
264AC
100
AcDbEntity
  8
0
 48
50.0
100
AcDbBlockBegin
  2
*D44
 70
     1
 10
0.0
 20
0.0
 30
0.0
  3
*D44
  1

  0
LINE
  5
268E8
330
264AC
100
AcDbEntity
  8
寸法
 62
     0
 48
50.0
370
    -2
100
AcDbLine
 10
7403.600000000007
 20
6767.673595425484
 30
0.0
 11
7403.600000000007
 21
7720.282412095731
 31
0.0
  0
LINE
  5
268E9
330
264AC
100
AcDbEntity
  8
寸法
 62
     0
 48
50.0
370
    -2
100
AcDbLine
 10
6583.600000000008
 20
6767.673595425484
 30
0.0
 11
6583.600000000008
 21
7720.282412095731
 31
0.0
  0
LINE
  5
268EA
330
264AC
100
AcDbEntity
  8
寸法
 62
     0
 48
50.0
370
    -2
100
AcDbLine
 10
7403.600000000007
 20
7660.282412095732
 30
0.0
 11
6583.600000000008
 21
7660.282412095732
 31
0.0
  0
INSERT
  5
268EB
330
264AC
100
AcDbEntity
  8
寸法
 62
     0
 48
50.0
370
    -2
100
AcDbBlockReference
  2
_DOTSMALL
 10
7403.600000000007
 20
7660.282412095732
 30
0.0
 41
100.0
 42
100.0
 43
100.0
  0
INSERT
  5
268EC
330
264AC
100
AcDbEntity
  8
寸法
 62
     0
 48
50.0
370
    -2
100
AcDbBlockReference
  2
_DOTSMALL
 10
6583.600000000008
 20
7660.282412095732
 30
0.0
 41
100.0
 42
100.0
 43
100.0
 50
180.0
  0
MTEXT
  5
268ED
330
264AC
100
AcDbEntity
  8
寸法
 62
     7
 48
50.0
100
AcDbMText
 10
6993.600000000007
 20
7760.294223119354
 30
0.0
 40
120.0
 41
0.0
 71
     5
 72
     1
  1
\A1;820
  7
STYLE1
 73
     1
 44
1.0
1001
ACAD
1000
MTEXTBEGIN
1070
    73
1070
     1
1070
    44
1040
1.0
1070
    74
1070
     0
1000
MTEXTEND
  0
POINT
  5
268EE
330
264AC
100
AcDbEntity
  8
DEFPOINTS
 62
     0
 48
50.0
100
AcDbPoint
 10
7403.600000000007
 20
6747.673595425483
 30
0.0
  0
POINT
  5
268EF
330
264AC
100
AcDbEntity
  8
DEFPOINTS
 62
     0
 48
50.0
100
AcDbPoint
 10
6583.600000000008
 20
6747.673595425483
 30
0.0
  0
POINT
  5
268F0
330
264AC
100
AcDbEntity
  8
DEFPOINTS
 62
     0
 48
50.0
100
AcDbPoint
 10
6583.600000000008
 20
7660.282412095732
 30
0.0
  0
ENDBLK
  5
264B7
330
264AC
100
AcDbEntity
  8
0
 48
50.0
100
AcDbBlockEnd
  0
BLOCK
  5
264C2
330
264B8
100
AcDbEntity
  8
0
 48
50.0
100
AcDbBlockBegin
  2
*D45
 70
     1
 10
0.0
 20
0.0
 30
0.0
  3
*D45
  1

  0
LINE
  5
268DF
330
264B8
100
AcDbEntity
  8
寸法
 62
     0
 48
50.0
370
    -2
100
AcDbLine
 10
8105.6
 20
7124.673595425484
 30
0.0
 11
8105.6
 21
7963.940053519394
 31
0.0
  0
LINE
  5
268E0
330
264B8
100
AcDbEntity
  8
寸法
 62
     0
 48
50.0
370
    -2
100
AcDbLine
 10
6465.600000000001
 20
7124.673595425484
 30
0.0
 11
6465.600000000001
 21
7963.940053519394
 31
0.0
  0
LINE
  5
268E1
330
264B8
100
AcDbEntity
  8
寸法
 62
     0
 48
50.0
370
    -2
100
AcDbLine
 10
8105.6
 20
7903.940053519395
 30
0.0
 11
6465.600000000001
 21
7903.940053519395
 31
0.0
  0
INSERT
  5
268E2
330
264B8
100
AcDbEntity
  8
寸法
 62
     0
 48
50.0
370
    -2
100
AcDbBlockReference
  2
_DOTSMALL
 10
8105.6
 20
7903.940053519395
 30
0.0
 41
100.0
 42
100.0
 43
100.0
  0
INSERT
  5
268E3
330
264B8
100
AcDbEntity
  8
寸法
 62
     0
 48
50.0
370
    -2
100
AcDbBlockReference
  2
_DOTSMALL
 10
6465.600000000001
 20
7903.940053519395
 30
0.0
 41
100.0
 42
100.0
 43
100.0
 50
180.0
  0
MTEXT
  5
268E4
330
264B8
100
AcDbEntity
  8
寸法
 62
     7
 48
50.0
100
AcDbMText
 10
7285.600000000001
 20
8003.940053519395
 30
0.0
 40
120.0
 41
0.0
 71
     5
 72
     1
  1
\A1;1640
  7
STYLE1
 73
     1
 44
1.0
1001
ACAD
1000
MTEXTBEGIN
1070
    73
1070
     1
1070
    44
1040
1.0
1070
    74
1070
     0
1000
MTEXTEND
  0
POINT
  5
268E5
330
264B8
100
AcDbEntity
  8
DEFPOINTS
 62
     0
 48
50.0
100
AcDbPoint
 10
8105.6
 20
7104.673595425484
 30
0.0
  0
POINT
  5
268E6
330
264B8
100
AcDbEntity
  8
DEFPOINTS
 62
     0
 48
50.0
100
AcDbPoint
 10
6465.600000000001
 20
7104.673595425484
 30
0.0
  0
POINT
  5
268E7
330
264B8
100
AcDbEntity
  8
DEFPOINTS
 62
     0
 48
50.0
100
AcDbPoint
 10
6465.600000000001
 20
7903.940053519395
 30
0.0
  0
ENDBLK
  5
264C3
330
264B8
100
AcDbEntity
  8
0
 48
50.0
100
AcDbBlockEnd
  0
BLOCK
  5
264CD
330
264C4
100
AcDbEntity
  8
0
 48
50.0
100
AcDbBlockBegin
  2
*D46
 70
     1
 10
0.0
 20
0.0
 30
0.0
  3
*D46
  1

  0
LINE
  5
268D6
330
264C4
100
AcDbEntity
  8
寸法
 62
     0
 48
50.0
370
    -2
100
AcDbLine
 10
6583.600000000008
 20
6767.673595425484
 30
0.0
 11
6583.600000000008
 21
7720.282412095731
 31
0.0
  0
LINE
  5
268D7
330
264C4
100
AcDbEntity
  8
寸法
 62
     0
 48
50.0
370
    -2
100
AcDbLine
 10
5763.600000000008
 20
6767.673595425484
 30
0.0
 11
5763.600000000008
 21
7720.282412095731
 31
0.0
  0
LINE
  5
268D8
330
264C4
100
AcDbEntity
  8
寸法
 62
     0
 48
50.0
370
    -2
100
AcDbLine
 10
6583.600000000008
 20
7660.282412095732
 30
0.0
 11
5763.600000000008
 21
7660.282412095732
 31
0.0
  0
INSERT
  5
268D9
330
264C4
100
AcDbEntity
  8
寸法
 62
     0
 48
50.0
370
    -2
100
AcDbBlockReference
  2
_DOTSMALL
 10
6583.600000000008
 20
7660.282412095732
 30
0.0
 41
100.0
 42
100.0
 43
100.0
  0
INSERT
  5
268DA
330
264C4
100
AcDbEntity
  8
寸法
 62
     0
 48
50.0
370
    -2
100
AcDbBlockReference
  2
_DOTSMALL
 10
5763.600000000008
 20
7660.282412095732
 30
0.0
 41
100.0
 42
100.0
 43
100.0
 50
180.0
  0
MTEXT
  5
268DB
330
264C4
100
AcDbEntity
  8
寸法
 62
     7
 48
50.0
100
AcDbMText
 10
6173.600000000007
 20
7760.294223119354
 30
0.0
 40
120.0
 41
0.0
 71
     5
 72
     1
  1
\A1;820
  7
STYLE1
 73
     1
 44
1.0
1001
ACAD
1000
MTEXTBEGIN
1070
    73
1070
     1
1070
    44
1040
1.0
1070
    74
1070
     0
1000
MTEXTEND
  0
POINT
  5
268DC
330
264C4
100
AcDbEntity
  8
DEFPOINTS
 62
     0
 48
50.0
100
AcDbPoint
 10
6583.600000000008
 20
6747.673595425483
 30
0.0
  0
POINT
  5
268DD
330
264C4
100
AcDbEntity
  8
DEFPOINTS
 62
     0
 48
50.0
100
AcDbPoint
 10
5763.600000000008
 20
6747.673595425483
 30
0.0
  0
POINT
  5
268DE
330
264C4
100
AcDbEntity
  8
DEFPOINTS
 62
     0
 48
50.0
100
AcDbPoint
 10
5763.600000000008
 20
7660.282412095732
 30
0.0
  0
ENDBLK
  5
264CE
330
264C4
100
AcDbEntity
  8
0
 48
50.0
100
AcDbBlockEnd
  0
BLOCK
  5
264E5
330
264DC
100
AcDbEntity
  8
0
 48
50.0
100
AcDbBlockBegin
  2
*D47
 70
     1
 10
0.0
 20
0.0
 30
0.0
  3
*D47
  1

  0
LINE
  5
268C3
330
264DC
100
AcDbEntity
  8
寸法
 62
     0
 48
50.0
370
    -2
100
AcDbLine
 10
8223.600000000008
 20
6767.673595425484
 30
0.0
 11
8223.600000000008
 21
7720.282412095731
 31
0.0
  0
LINE
  5
268C4
330
264DC
100
AcDbEntity
  8
寸法
 62
     0
 48
50.0
370
    -2
100
AcDbLine
 10
7403.600000000007
 20
6767.673595425484
 30
0.0
 11
7403.600000000007
 21
7720.282412095731
 31
0.0
  0
LINE
  5
268C5
330
264DC
100
AcDbEntity
  8
寸法
 62
     0
 48
50.0
370
    -2
100
AcDbLine
 10
8223.600000000008
 20
7660.282412095732
 30
0.0
 11
7403.600000000007
 21
7660.282412095732
 31
0.0
  0
INSERT
  5
268C6
330
264DC
100
AcDbEntity
  8
寸法
 62
     0
 48
50.0
370
    -2
100
AcDbBlockReference
  2
_DOTSMALL
 10
8223.600000000008
 20
7660.282412095732
 30
0.0
 41
100.0
 42
100.0
 43
100.0
  0
INSERT
  5
268C7
330
264DC
100
AcDbEntity
  8
寸法
 62
     0
 48
50.0
370
    -2
100
AcDbBlockReference
  2
_DOTSMALL
 10
7403.600000000007
 20
7660.282412095732
 30
0.0
 41
100.0
 42
100.0
 43
100.0
 50
180.0
  0
MTEXT
  5
268C8
330
264DC
100
AcDbEntity
  8
寸法
 62
     7
 48
50.0
100
AcDbMText
 10
7813.600000000008
 20
7760.294223119354
 30
0.0
 40
120.0
 41
0.0
 71
     5
 72
     1
  1
\A1;820
  7
STYLE1
 73
     1
 44
1.0
1001
ACAD
1000
MTEXTBEGIN
1070
    73
1070
     1
1070
    44
1040
1.0
1070
    74
1070
     0
1000
MTEXTEND
  0
POINT
  5
268C9
330
264DC
100
AcDbEntity
  8
DEFPOINTS
 62
     0
 48
50.0
100
AcDbPoint
 10
8223.600000000008
 20
6747.673595425483
 30
0.0
  0
POINT
  5
268CA
330
264DC
100
AcDbEntity
  8
DEFPOINTS
 62
     0
 48
50.0
100
AcDbPoint
 10
7403.600000000007
 20
6747.673595425483
 30
0.0
  0
POINT
  5
268CB
330
264DC
100
AcDbEntity
  8
DEFPOINTS
 62
     0
 48
50.0
100
AcDbPoint
 10
7403.600000000007
 20
7660.282412095732
 30
0.0
  0
ENDBLK
  5
264E6
330
264DC
100
AcDbEntity
  8
0
 48
50.0
100
AcDbBlockEnd
  0
BLOCK
  5
264F1
330
264E7
100
AcDbEntity
  8
0
 48
50.0
100
AcDbBlockBegin
  2
*D48
 70
     1
 10
0.0
 20
0.0
 30
0.0
  3
*D48
  1

  0
LINE
  5
268BA
330
264E7
100
AcDbEntity
  8
寸法
 62
     0
 48
50.0
370
    -2
100
AcDbLine
 10
12205.6
 20
7124.673595425484
 30
0.0
 11
12205.6
 21
7963.940053519394
 31
0.0
  0
LINE
  5
268BB
330
264E7
100
AcDbEntity
  8
寸法
 62
     0
 48
50.0
370
    -2
100
AcDbLine
 10
9745.600000000001
 20
7124.673595425484
 30
0.0
 11
9745.600000000001
 21
7963.940053519394
 31
0.0
  0
LINE
  5
268BC
330
264E7
100
AcDbEntity
  8
寸法
 62
     0
 48
50.0
370
    -2
100
AcDbLine
 10
12205.6
 20
7903.940053519395
 30
0.0
 11
9745.600000000001
 21
7903.940053519395
 31
0.0
  0
INSERT
  5
268BD
330
264E7
100
AcDbEntity
  8
寸法
 62
     0
 48
50.0
370
    -2
100
AcDbBlockReference
  2
_DOTSMALL
 10
12205.6
 20
7903.940053519395
 30
0.0
 41
100.0
 42
100.0
 43
100.0
  0
INSERT
  5
268BE
330
264E7
100
AcDbEntity
  8
寸法
 62
     0
 48
50.0
370
    -2
100
AcDbBlockReference
  2
_DOTSMALL
 10
9745.600000000001
 20
7903.940053519395
 30
0.0
 41
100.0
 42
100.0
 43
100.0
 50
180.0
  0
MTEXT
  5
268BF
330
264E7
100
AcDbEntity
  8
寸法
 62
     7
 48
50.0
100
AcDbMText
 10
10975.6
 20
8003.951864543017
 30
0.0
 40
120.0
 41
0.0
 71
     5
 72
     1
  1
\A1;2460
  7
STYLE1
 73
     1
 44
1.0
1001
ACAD
1000
MTEXTBEGIN
1070
    73
1070
     1
1070
    44
1040
1.0
1070
    74
1070
     0
1000
MTEXTEND
  0
POINT
  5
268C0
330
264E7
100
AcDbEntity
  8
DEFPOINTS
 62
     0
 48
50.0
100
AcDbPoint
 10
12205.6
 20
7104.673595425484
 30
0.0
  0
POINT
  5
268C1
330
264E7
100
AcDbEntity
  8
DEFPOINTS
 62
     0
 48
50.0
100
AcDbPoint
 10
9745.600000000001
 20
7104.673595425484
 30
0.0
  0
POINT
  5
268C2
330
264E7
100
AcDbEntity
  8
DEFPOINTS
 62
     0
 48
50.0
100
AcDbPoint
 10
9745.600000000001
 20
7903.940053519395
 30
0.0
  0
ENDBLK
  5
264F2
330
264E7
100
AcDbEntity
  8
0
 48
50.0
100
AcDbBlockEnd
  0
BLOCK
  5
264FD
330
264F3
100
AcDbEntity
  8
0
 48
50.0
100
AcDbBlockBegin
  2
*D49
 70
     1
 10
0.0
 20
0.0
 30
0.0
  3
*D49
  1

  0
LINE
  5
268B1
330
264F3
100
AcDbEntity
  8
寸法
 62
     0
 48
50.0
370
    -2
100
AcDbLine
 10
12328.6
 20
7197.673595425484
 30
0.0
 11
12328.6
 21
7720.282412095731
 31
0.0
  0
LINE
  5
268B2
330
264F3
100
AcDbEntity
  8
寸法
 62
     0
 48
50.0
370
    -2
100
AcDbLine
 10
11503.6
 20
6767.673595425484
 30
0.0
 11
11503.6
 21
7720.282412095731
 31
0.0
  0
LINE
  5
268B3
330
264F3
100
AcDbEntity
  8
寸法
 62
     0
 48
50.0
370
    -2
100
AcDbLine
 10
12328.6
 20
7660.282412095732
 30
0.0
 11
11503.6
 21
7660.282412095732
 31
0.0
  0
INSERT
  5
268B4
330
264F3
100
AcDbEntity
  8
寸法
 62
     0
 48
50.0
370
    -2
100
AcDbBlockReference
  2
_DOTSMALL
 10
12328.6
 20
7660.282412095732
 30
0.0
 41
100.0
 42
100.0
 43
100.0
  0
INSERT
  5
268B5
330
264F3
100
AcDbEntity
  8
寸法
 62
     0
 48
50.0
370
    -2
100
AcDbBlockReference
  2
_DOTSMALL
 10
11503.6
 20
7660.282412095732
 30
0.0
 41
100.0
 42
100.0
 43
100.0
 50
180.0
  0
MTEXT
  5
268B6
330
264F3
100
AcDbEntity
  8
寸法
 62
     7
 48
50.0
100
AcDbMText
 10
11916.1
 20
7760.294223119354
 30
0.0
 40
120.0
 41
0.0
 71
     5
 72
     1
  1
\A1;825
  7
STYLE1
 73
     1
 44
1.0
1001
ACAD
1000
MTEXTBEGIN
1070
    73
1070
     1
1070
    44
1040
1.0
1070
    74
1070
     0
1000
MTEXTEND
  0
POINT
  5
268B7
330
264F3
100
AcDbEntity
  8
DEFPOINTS
 62
     0
 48
50.0
100
AcDbPoint
 10
12328.6
 20
7177.673595425483
 30
0.0
  0
POINT
  5
268B8
330
264F3
100
AcDbEntity
  8
DEFPOINTS
 62
     0
 48
50.0
100
AcDbPoint
 10
11503.6
 20
6747.673595425483
 30
0.0
  0
POINT
  5
268B9
330
264F3
100
AcDbEntity
  8
DEFPOINTS
 62
     0
 48
50.0
100
AcDbPoint
 10
11503.6
 20
7660.282412095732
 30
0.0
  0
ENDBLK
  5
264FE
330
264F3
100
AcDbEntity
  8
0
 48
50.0
100
AcDbBlockEnd
  0
BLOCK
  5
26509
330
264FF
100
AcDbEntity
  8
0
 48
50.0
100
AcDbBlockBegin
  2
*D50
 70
     1
 10
0.0
 20
0.0
 30
0.0
  3
*D50
  1

  0
LINE
  5
268A8
330
264FF
100
AcDbEntity
  8
寸法
 62
     0
 48
50.0
370
    -2
100
AcDbLine
 10
10683.60000000001
 20
6767.673595425484
 30
0.0
 11
10683.60000000001
 21
7720.282412095731
 31
0.0
  0
LINE
  5
268A9
330
264FF
100
AcDbEntity
  8
寸法
 62
     0
 48
50.0
370
    -2
100
AcDbLine
 10
9863.600000000008
 20
6767.673595425484
 30
0.0
 11
9863.600000000008
 21
7720.282412095731
 31
0.0
  0
LINE
  5
268AA
330
264FF
100
AcDbEntity
  8
寸法
 62
     0
 48
50.0
370
    -2
100
AcDbLine
 10
10683.60000000001
 20
7660.282412095732
 30
0.0
 11
9863.600000000008
 21
7660.282412095732
 31
0.0
  0
INSERT
  5
268AB
330
264FF
100
AcDbEntity
  8
寸法
 62
     0
 48
50.0
370
    -2
100
AcDbBlockReference
  2
_DOTSMALL
 10
10683.60000000001
 20
7660.282412095732
 30
0.0
 41
100.0
 42
100.0
 43
100.0
  0
INSERT
  5
268AC
330
264FF
100
AcDbEntity
  8
寸法
 62
     0
 48
50.0
370
    -2
100
AcDbBlockReference
  2
_DOTSMALL
 10
9863.600000000008
 20
7660.282412095732
 30
0.0
 41
100.0
 42
100.0
 43
100.0
 50
180.0
  0
MTEXT
  5
268AD
330
264FF
100
AcDbEntity
  8
寸法
 62
     7
 48
50.0
100
AcDbMText
 10
10273.6
 20
7760.294223119354
 30
0.0
 40
120.0
 41
0.0
 71
     5
 72
     1
  1
\A1;820
  7
STYLE1
 73
     1
 44
1.0
1001
ACAD
1000
MTEXTBEGIN
1070
    73
1070
     1
1070
    44
1040
1.0
1070
    74
1070
     0
1000
MTEXTEND
  0
POINT
  5
268AE
330
264FF
100
AcDbEntity
  8
DEFPOINTS
 62
     0
 48
50.0
100
AcDbPoint
 10
10683.60000000001
 20
6747.673595425483
 30
0.0
  0
POINT
  5
268AF
330
264FF
100
AcDbEntity
  8
DEFPOINTS
 62
     0
 48
50.0
100
AcDbPoint
 10
9863.600000000008
 20
6747.673595425483
 30
0.0
  0
POINT
  5
268B0
330
264FF
100
AcDbEntity
  8
DEFPOINTS
 62
     0
 48
50.0
100
AcDbPoint
 10
9863.600000000008
 20
7660.282412095732
 30
0.0
  0
ENDBLK
  5
2650A
330
264FF
100
AcDbEntity
  8
0
 48
50.0
100
AcDbBlockEnd
  0
BLOCK
  5
26514
330
2650B
100
AcDbEntity
  8
0
 48
50.0
100
AcDbBlockBegin
  2
*D51
 70
     1
 10
0.0
 20
0.0
 30
0.0
  3
*D51
  1

  0
LINE
  5
2689F
330
2650B
100
AcDbEntity
  8
寸法
 62
     0
 48
50.0
370
    -2
100
AcDbLine
 10
9863.600000000008
 20
6767.673595425484
 30
0.0
 11
9863.600000000008
 21
7720.282412095731
 31
0.0
  0
LINE
  5
268A0
330
2650B
100
AcDbEntity
  8
寸法
 62
     0
 48
50.0
370
    -2
100
AcDbLine
 10
9043.600000000008
 20
6767.673595425484
 30
0.0
 11
9043.600000000008
 21
7720.282412095731
 31
0.0
  0
LINE
  5
268A1
330
2650B
100
AcDbEntity
  8
寸法
 62
     0
 48
50.0
370
    -2
100
AcDbLine
 10
9863.600000000008
 20
7660.282412095732
 30
0.0
 11
9043.600000000008
 21
7660.282412095732
 31
0.0
  0
INSERT
  5
268A2
330
2650B
100
AcDbEntity
  8
寸法
 62
     0
 48
50.0
370
    -2
100
AcDbBlockReference
  2
_DOTSMALL
 10
9863.600000000008
 20
7660.282412095732
 30
0.0
 41
100.0
 42
100.0
 43
100.0
  0
INSERT
  5
268A3
330
2650B
100
AcDbEntity
  8
寸法
 62
     0
 48
50.0
370
    -2
100
AcDbBlockReference
  2
_DOTSMALL
 10
9043.600000000008
 20
7660.282412095732
 30
0.0
 41
100.0
 42
100.0
 43
100.0
 50
180.0
  0
MTEXT
  5
268A4
330
2650B
100
AcDbEntity
  8
寸法
 62
     7
 48
50.0
100
AcDbMText
 10
9453.600000000006
 20
7760.294223119354
 30
0.0
 40
120.0
 41
0.0
 71
     5
 72
     1
  1
\A1;820
  7
STYLE1
 73
     1
 44
1.0
1001
ACAD
1000
MTEXTBEGIN
1070
    73
1070
     1
1070
    44
1040
1.0
1070
    74
1070
     0
1000
MTEXTEND
  0
POINT
  5
268A5
330
2650B
100
AcDbEntity
  8
DEFPOINTS
 62
     0
 48
50.0
100
AcDbPoint
 10
9863.600000000008
 20
6747.673595425483
 30
0.0
  0
POINT
  5
268A6
330
2650B
100
AcDbEntity
  8
DEFPOINTS
 62
     0
 48
50.0
100
AcDbPoint
 10
9043.600000000008
 20
6747.673595425483
 30
0.0
  0
POINT
  5
268A7
330
2650B
100
AcDbEntity
  8
DEFPOINTS
 62
     0
 48
50.0
100
AcDbPoint
 10
9043.600000000008
 20
7660.282412095732
 30
0.0
  0
ENDBLK
  5
26515
330
2650B
100
AcDbEntity
  8
0
 48
50.0
100
AcDbBlockEnd
  0
BLOCK
  5
26520
330
26516
100
AcDbEntity
  8
0
 48
50.0
100
AcDbBlockBegin
  2
*D52
 70
     1
 10
0.0
 20
0.0
 30
0.0
  3
*D52
  1

  0
LINE
  5
26896
330
26516
100
AcDbEntity
  8
寸法
 62
     0
 48
50.0
370
    -2
100
AcDbLine
 10
11503.6
 20
6767.673595425484
 30
0.0
 11
11503.6
 21
7720.282412095731
 31
0.0
  0
LINE
  5
26897
330
26516
100
AcDbEntity
  8
寸法
 62
     0
 48
50.0
370
    -2
100
AcDbLine
 10
10683.60000000001
 20
6767.673595425484
 30
0.0
 11
10683.60000000001
 21
7720.282412095731
 31
0.0
  0
LINE
  5
26898
330
26516
100
AcDbEntity
  8
寸法
 62
     0
 48
50.0
370
    -2
100
AcDbLine
 10
11503.6
 20
7660.282412095732
 30
0.0
 11
10683.60000000001
 21
7660.282412095732
 31
0.0
  0
INSERT
  5
26899
330
26516
100
AcDbEntity
  8
寸法
 62
     0
 48
50.0
370
    -2
100
AcDbBlockReference
  2
_DOTSMALL
 10
11503.6
 20
7660.282412095732
 30
0.0
 41
100.0
 42
100.0
 43
100.0
  0
INSERT
  5
2689A
330
26516
100
AcDbEntity
  8
寸法
 62
     0
 48
50.0
370
    -2
100
AcDbBlockReference
  2
_DOTSMALL
 10
10683.60000000001
 20
7660.282412095732
 30
0.0
 41
100.0
 42
100.0
 43
100.0
 50
180.0
  0
MTEXT
  5
2689B
330
26516
100
AcDbEntity
  8
寸法
 62
     7
 48
50.0
100
AcDbMText
 10
11093.60000000001
 20
7760.294223119354
 30
0.0
 40
120.0
 41
0.0
 71
     5
 72
     1
  1
\A1;820
  7
STYLE1
 73
     1
 44
1.0
1001
ACAD
1000
MTEXTBEGIN
1070
    73
1070
     1
1070
    44
1040
1.0
1070
    74
1070
     0
1000
MTEXTEND
  0
POINT
  5
2689C
330
26516
100
AcDbEntity
  8
DEFPOINTS
 62
     0
 48
50.0
100
AcDbPoint
 10
11503.6
 20
6747.673595425483
 30
0.0
  0
POINT
  5
2689D
330
26516
100
AcDbEntity
  8
DEFPOINTS
 62
     0
 48
50.0
100
AcDbPoint
 10
10683.60000000001
 20
6747.673595425483
 30
0.0
  0
POINT
  5
2689E
330
26516
100
AcDbEntity
  8
DEFPOINTS
 62
     0
 48
50.0
100
AcDbPoint
 10
10683.60000000001
 20
7660.282412095732
 30
0.0
  0
ENDBLK
  5
26521
330
26516
100
AcDbEntity
  8
0
 48
50.0
100
AcDbBlockEnd
  0
BLOCK
  5
2653A
330
2652F
100
AcDbEntity
  8
0
 48
50.0
100
AcDbBlockBegin
  2
*D53
 70
     1
 10
0.0
 20
0.0
 30
0.0
  3
*D53
  1

  0
LINE
  5
2688C
330
2652F
100
AcDbEntity
  8
寸法
 62
     0
 48
50.0
370
    -2
100
AcDbLine
 10
12328.6
 20
7197.673595425484
 30
0.0
 11
12328.6
 21
7963.940053519394
 31
0.0
  0
LINE
  5
2688D
330
2652F
100
AcDbEntity
  8
寸法
 62
     0
 48
50.0
370
    -2
100
AcDbLine
 10
12205.6
 20
7124.673595425484
 30
0.0
 11
12205.6
 21
7963.940053519394
 31
0.0
  0
LINE
  5
2688E
330
2652F
100
AcDbEntity
  8
寸法
 62
     0
 48
50.0
370
    -2
100
AcDbLine
 10
12205.6
 20
7903.940053519395
 30
0.0
 11
12328.6
 21
7903.940053519395
 31
0.0
  0
LINE
  5
2688F
330
2652F
100
AcDbEntity
  8
寸法
 62
     0
 48
50.0
370
    -2
100
AcDbLine
 10
12328.6
 20
7903.940053519395
 30
0.0
 11
12740.19188309204
 21
7903.940053519395
 31
0.0
  0
INSERT
  5
26890
330
2652F
100
AcDbEntity
  8
寸法
 62
     0
 48
50.0
370
    -2
100
AcDbBlockReference
  2
_DOTSMALL
 10
12205.6
 20
7903.940053519395
 30
0.0
 41
100.0
 42
100.0
 43
100.0
 50
180.0
  0
INSERT
  5
26891
330
2652F
100
AcDbEntity
  8
寸法
 62
     0
 48
50.0
370
    -2
100
AcDbBlockReference
  2
_DOTSMALL
 10
12328.6
 20
7903.940053519395
 30
0.0
 41
100.0
 42
100.0
 43
100.0
  0
MTEXT
  5
26892
330
2652F
100
AcDbEntity
  8
寸法
 62
     7
 48
50.0
100
AcDbMText
 10
12601.7066017178
 20
8003.951864543017
 30
0.0
 40
120.0
 41
0.0
 71
     5
 72
     1
  1
\A1;123
  7
STYLE1
 73
     1
 44
1.0
1001
ACAD
1000
MTEXTBEGIN
1070
    73
1070
     1
1070
    44
1040
1.0
1070
    74
1070
     0
1000
MTEXTEND
  0
POINT
  5
26893
330
2652F
100
AcDbEntity
  8
DEFPOINTS
 62
     0
 48
50.0
100
AcDbPoint
 10
12328.6
 20
7177.673595425483
 30
0.0
  0
POINT
  5
26894
330
2652F
100
AcDbEntity
  8
DEFPOINTS
 62
     0
 48
50.0
100
AcDbPoint
 10
12205.6
 20
7104.673595425484
 30
0.0
  0
POINT
  5
26895
330
2652F
100
AcDbEntity
  8
DEFPOINTS
 62
     0
 48
50.0
100
AcDbPoint
 10
12205.6
 20
7903.940053519395
 30
0.0
  0
ENDBLK
  5
2653B
330
2652F
100
AcDbEntity
  8
0
 48
50.0
100
AcDbBlockEnd
  0
BLOCK
  5
26DAB
330
26DA1
100
AcDbEntity
  8
0
 48
50.0
100
AcDbBlockBegin
  2
*D60
 70
     1
 10
0.0
 20
0.0
 30
0.0
  3
*D60
  1

  0
LINE
  5
26DEB
330
26DA1
100
AcDbEntity
  8
寸法
 62
     0
 48
50.0
370
    -2
100
AcDbLine
 10
8500.947472126474
 20
1924.472703991518
 30
0.0
 11
9042.81607189532
 21
1924.472703991517
 31
0.0
  0
LINE
  5
26DEC
330
26DA1
100
AcDbEntity
  8
寸法
 62
     0
 48
50.0
370
    -2
100
AcDbLine
 10
8500.947472126474
 20
1600.472703991517
 30
0.0
 11
9042.81607189532
 21
1600.472703991516
 31
0.0
  0
LINE
  5
26DED
330
26DA1
100
AcDbEntity
  8
寸法
 62
     0
 48
50.0
370
    -2
100
AcDbLine
 10
8982.816071895319
 20
1924.472703991517
 30
0.0
 11
8982.816071895319
 21
1600.472703991516
 31
0.0
  0
INSERT
  5
26DEE
330
26DA1
100
AcDbEntity
  8
寸法
 62
     0
 48
50.0
370
    -2
100
AcDbBlockReference
  2
_DOTSMALL
 10
8982.816071895319
 20
1924.472703991517
 30
0.0
 41
100.0
 42
100.0
 43
100.0
 50
90.0
  0
INSERT
  5
26DEF
330
26DA1
100
AcDbEntity
  8
寸法
 62
     0
 48
50.0
370
    -2
100
AcDbBlockReference
  2
_DOTSMALL
 10
8982.816071895319
 20
1600.472703991516
 30
0.0
 41
100.0
 42
100.0
 43
100.0
 50
270.0
  0
MTEXT
  5
26DF0
330
26DA1
100
AcDbEntity
  8
寸法
 62
     7
 48
50.0
100
AcDbMText
 10
8882.816071895318
 20
1762.472703991519
 30
0.0
 40
120.0
 41
0.0
 71
     5
 72
     1
  1
\A1;180
  7
STYLE1
 11
0.0000000000000001
 21
1.0
 31
0.0
 73
     1
 44
1.0
1001
ACAD
1000
MTEXTBEGIN
1070
    73
1070
     1
1070
    44
1040
1.0
1070
    74
1070
     0
1000
MTEXTEND
  0
POINT
  5
26DF1
330
26DA1
100
AcDbEntity
  8
DEFPOINTS
 62
     0
 48
50.0
100
AcDbPoint
 10
8480.947472126475
 20
1924.472703991518
 30
0.0
  0
POINT
  5
26DF2
330
26DA1
100
AcDbEntity
  8
DEFPOINTS
 62
     0
 48
50.0
100
AcDbPoint
 10
8480.947472126475
 20
1600.472703991517
 30
0.0
  0
POINT
  5
26DF3
330
26DA1
100
AcDbEntity
  8
DEFPOINTS
 62
     0
 48
50.0
100
AcDbPoint
 10
8982.816071895319
 20
1600.472703991516
 30
0.0
  0
ENDBLK
  5
26DAC
330
26DA1
100
AcDbEntity
  8
0
 48
50.0
100
AcDbBlockEnd
  0
BLOCK
  5
26DB9
330
26DAD
100
AcDbEntity
  8
0
 48
50.0
100
AcDbBlockBegin
  2
*D61
 70
     1
 10
0.0
 20
0.0
 30
0.0
  3
*D61
  1

  0
LINE
  5
26DF4
330
26DAD
100
AcDbEntity
  8
寸法
 62
     0
 48
50.0
370
    -2
100
AcDbLine
 10
8313.747472126475
 20
1977.232703991519
 30
0.0
 11
9318.870738014345
 21
1977.232703991519
 31
0.0
  0
LINE
  5
26DF5
330
26DAD
100
AcDbEntity
  8
寸法
 62
     0
 48
50.0
370
    -2
100
AcDbLine
 10
8500.947472126474
 20
1924.472703991518
 30
0.0
 11
9318.870738014345
 21
1924.472703991517
 31
0.0
  0
LINE
  5
26DF6
330
26DAD
100
AcDbEntity
  8
寸法
 62
     0
 48
50.0
370
    -2
100
AcDbLine
 10
9258.870738014346
 20
1977.232703991519
 30
0.0
 11
9258.870738014346
 21
2077.232703991519
 31
0.0
  0
LINE
  5
26DF7
330
26DAD
100
AcDbEntity
  8
寸法
 62
     0
 48
50.0
370
    -2
100
AcDbLine
 10
9258.870738014346
 20
1924.472703991517
 30
0.0
 11
9258.870738014346
 21
1192.454897148551
 31
0.0
  0
LINE
  5
26DF8
330
26DAD
100
AcDbEntity
  8
寸法
 62
     0
 48
50.0
370
    -2
100
AcDbLine
 10
9258.870738014346
 20
1977.232703991519
 30
0.0
 11
9258.870738014346
 21
1924.472703991517
 31
0.0
  0
INSERT
  5
26DF9
330
26DAD
100
AcDbEntity
  8
寸法
 62
     0
 48
50.0
370
    -2
100
AcDbBlockReference
  2
_DOTSMALL
 10
9258.870738014346
 20
1977.232703991519
 30
0.0
 41
100.0
 42
100.0
 43
100.0
 50
270.0
  0
INSERT
  5
26DFA
330
26DAD
100
AcDbEntity
  8
寸法
 62
     0
 48
50.0
370
    -2
100
AcDbBlockReference
  2
_DOTSMALL
 10
9258.870738014346
 20
1924.472703991517
 30
0.0
 41
100.0
 42
100.0
 43
100.0
 50
90.0
  0
MTEXT
  5
26DFB
330
26DAD
100
AcDbEntity
  8
寸法
 62
     7
 48
50.0
100
AcDbMText
 10
9158.858926990724
 20
1458.463800570035
 30
0.0
 40
120.0
 41
0.0
 71
     5
 72
     1
  1
\A1;20～25
  7
STYLE1
 11
0.0000000000000001
 21
1.0
 31
0.0
 73
     1
 44
1.0
1001
ACAD
1000
MTEXTBEGIN
1070
    73
1070
     1
1070
    44
1040
1.0
1070
    74
1070
     0
1000
MTEXTEND
  0
POINT
  5
26DFC
330
26DAD
100
AcDbEntity
  8
DEFPOINTS
 62
     0
 48
50.0
100
AcDbPoint
 10
8293.747472126474
 20
1977.232703991519
 30
0.0
  0
POINT
  5
26DFD
330
26DAD
100
AcDbEntity
  8
DEFPOINTS
 62
     0
 48
50.0
100
AcDbPoint
 10
8480.947472126475
 20
1924.472703991518
 30
0.0
  0
POINT
  5
26DFE
330
26DAD
100
AcDbEntity
  8
DEFPOINTS
 62
     0
 48
50.0
100
AcDbPoint
 10
9258.870738014346
 20
1924.472703991517
 30
0.0
  0
ENDBLK
  5
26DBA
330
26DAD
100
AcDbEntity
  8
0
 48
50.0
100
AcDbBlockEnd
  0
BLOCK
  5
26DC5
330
26DBB
100
AcDbEntity
  8
0
 48
50.0
100
AcDbBlockBegin
  2
*D62
 70
     1
 10
0.0
 20
0.0
 30
0.0
  3
*D62
  1

  0
LINE
  5
26DFF
330
26DBB
100
AcDbEntity
  8
寸法
 62
     0
 48
50.0
370
    -2
100
AcDbLine
 10
6218.908158949281
 20
1380.472703991518
 30
0.0
 11
6036.487845216822
 21
1380.472703991518
 31
0.0
  0
LINE
  5
26E00
330
26DBB
100
AcDbEntity
  8
寸法
 62
     0
 48
50.0
370
    -2
100
AcDbLine
 10
6138.908158949284
 20
1140.472703991518
 30
0.0
 11
6036.487845216822
 21
1140.472703991518
 31
0.0
  0
LINE
  5
26E01
330
26DBB
100
AcDbEntity
  8
寸法
 62
     0
 48
50.0
370
    -2
100
AcDbLine
 10
6096.487845216821
 20
1380.472703991518
 30
0.0
 11
6096.487845216821
 21
1140.472703991518
 31
0.0
  0
INSERT
  5
26E02
330
26DBB
100
AcDbEntity
  8
寸法
 62
     0
 48
50.0
370
    -2
100
AcDbBlockReference
  2
_DOTSMALL
 10
6096.487845216821
 20
1380.472703991518
 30
0.0
 41
100.0
 42
100.0
 43
100.0
 50
90.0
  0
INSERT
  5
26E03
330
26DBB
100
AcDbEntity
  8
寸法
 62
     0
 48
50.0
370
    -2
100
AcDbBlockReference
  2
_DOTSMALL
 10
6096.487845216821
 20
1140.472703991518
 30
0.0
 41
100.0
 42
100.0
 43
100.0
 50
270.0
  0
MTEXT
  5
26E04
330
26DBB
100
AcDbEntity
  8
寸法
 62
     7
 48
50.0
100
AcDbMText
 10
5996.487845216821
 20
1260.472703991519
 30
0.0
 40
120.0
 41
0.0
 71
     5
 72
     1
  1
\A1;150
  7
STYLE1
 11
0.0000000000000001
 21
1.0
 31
0.0
 73
     1
 44
1.0
1001
ACAD
1000
MTEXTBEGIN
1070
    73
1070
     1
1070
    44
1040
1.0
1070
    74
1070
     0
1000
MTEXTEND
  0
POINT
  5
26E05
330
26DBB
100
AcDbEntity
  8
DEFPOINTS
 62
     0
 48
50.0
100
AcDbPoint
 10
6238.908158949281
 20
1380.472703991518
 30
0.0
  0
POINT
  5
26E06
330
26DBB
100
AcDbEntity
  8
DEFPOINTS
 62
     0
 48
50.0
100
AcDbPoint
 10
6158.908158949284
 20
1140.472703991518
 30
0.0
  0
POINT
  5
26E07
330
26DBB
100
AcDbEntity
  8
DEFPOINTS
 62
     0
 48
50.0
100
AcDbPoint
 10
6096.487845216821
 20
1140.472703991518
 30
0.0
  0
ENDBLK
  5
26DC6
330
26DBB
100
AcDbEntity
  8
0
 48
50.0
100
AcDbBlockEnd
  0
BLOCK
  5
26DD1
330
26DC7
100
AcDbEntity
  8
0
 48
50.0
100
AcDbBlockBegin
  2
*D63
 70
     1
 10
0.0
 20
0.0
 30
0.0
  3
*D63
  1

  0
LINE
  5
26E08
330
26DC7
100
AcDbEntity
  8
寸法
 62
     0
 48
50.0
370
    -2
100
AcDbLine
 10
6346.908158949281
 20
1924.472703991518
 30
0.0
 11
5571.87092038754
 21
1924.472703991518
 31
0.0
  0
LINE
  5
26E09
330
26DC7
100
AcDbEntity
  8
寸法
 62
     0
 48
50.0
370
    -2
100
AcDbLine
 10
6138.908158949284
 20
1140.472703991518
 30
0.0
 11
5571.87092038754
 21
1140.472703991518
 31
0.0
  0
LINE
  5
26E0A
330
26DC7
100
AcDbEntity
  8
寸法
 62
     0
 48
50.0
370
    -2
100
AcDbLine
 10
5631.870920387541
 20
1924.472703991518
 30
0.0
 11
5631.870920387541
 21
1140.472703991518
 31
0.0
  0
INSERT
  5
26E0B
330
26DC7
100
AcDbEntity
  8
寸法
 62
     0
 48
50.0
370
    -2
100
AcDbBlockReference
  2
_DOTSMALL
 10
5631.870920387541
 20
1924.472703991518
 30
0.0
 41
100.0
 42
100.0
 43
100.0
 50
90.0
  0
INSERT
  5
26E0C
330
26DC7
100
AcDbEntity
  8
寸法
 62
     0
 48
50.0
370
    -2
100
AcDbBlockReference
  2
_DOTSMALL
 10
5631.870920387541
 20
1140.472703991518
 30
0.0
 41
100.0
 42
100.0
 43
100.0
 50
270.0
  0
MTEXT
  5
26E0D
330
26DC7
100
AcDbEntity
  8
寸法
 62
     7
 48
50.0
100
AcDbMText
 10
5531.87092038754
 20
1512.012853647519
 30
0.0
 40
120.0
 41
0.0
 71
     5
 72
     1
  1
\A1;540
  7
STYLE1
 11
0.0000000000000001
 21
1.0
 31
0.0
 73
     1
 44
1.0
1001
ACAD
1000
MTEXTBEGIN
1070
    73
1070
     1
1070
    44
1040
1.0
1070
    74
1070
     0
1000
MTEXTEND
  0
POINT
  5
26E0E
330
26DC7
100
AcDbEntity
  8
DEFPOINTS
 62
     0
 48
50.0
100
AcDbPoint
 10
6366.908158949281
 20
1924.472703991518
 30
0.0
  0
POINT
  5
26E0F
330
26DC7
100
AcDbEntity
  8
DEFPOINTS
 62
     0
 48
50.0
100
AcDbPoint
 10
6158.908158949284
 20
1140.472703991518
 30
0.0
  0
POINT
  5
26E10
330
26DC7
100
AcDbEntity
  8
DEFPOINTS
 62
     0
 48
50.0
100
AcDbPoint
 10
5631.870920387541
 20
1140.472703991518
 30
0.0
  0
ENDBLK
  5
26DD2
330
26DC7
100
AcDbEntity
  8
0
 48
50.0
100
AcDbBlockEnd
  0
BLOCK
  5
26DDD
330
26DD3
100
AcDbEntity
  8
0
 48
50.0
100
AcDbBlockBegin
  2
*D64
 70
     1
 10
0.0
 20
0.0
 30
0.0
  3
*D64
  1

  0
LINE
  5
26E11
330
26DD3
100
AcDbEntity
  8
寸法
 62
     0
 48
50.0
370
    -2
100
AcDbLine
 10
6238.908158949281
 20
992.4727039915179
 30
0.0
 11
6238.908158949281
 21
542.0430659863577
 31
0.0
  0
LINE
  5
26E12
330
26DD3
100
AcDbEntity
  8
寸法
 62
     0
 48
50.0
370
    -2
100
AcDbLine
 10
6686.908158949281
 20
992.4727039915179
 30
0.0
 11
6686.908158949281
 21
542.0430659863577
 31
0.0
  0
LINE
  5
26E13
330
26DD3
100
AcDbEntity
  8
寸法
 62
     0
 48
50.0
370
    -2
100
AcDbLine
 10
6238.908158949281
 20
602.0430659863578
 30
0.0
 11
6686.908158949281
 21
602.0430659863578
 31
0.0
  0
INSERT
  5
26E14
330
26DD3
100
AcDbEntity
  8
寸法
 62
     0
 48
50.0
370
    -2
100
AcDbBlockReference
  2
_DOTSMALL
 10
6238.908158949281
 20
602.0430659863578
 30
0.0
 41
100.0
 42
100.0
 43
100.0
 50
180.0
  0
INSERT
  5
26E15
330
26DD3
100
AcDbEntity
  8
寸法
 62
     0
 48
50.0
370
    -2
100
AcDbBlockReference
  2
_DOTSMALL
 10
6686.908158949281
 20
602.0430659863578
 30
0.0
 41
100.0
 42
100.0
 43
100.0
  0
MTEXT
  5
26E16
330
26DD3
100
AcDbEntity
  8
寸法
 62
     7
 48
50.0
100
AcDbMText
 10
6442.811400271057
 20
702.0430659863578
 30
0.0
 40
120.0
 41
0.0
 71
     5
 72
     1
  1
\A1;300
  7
STYLE1
 73
     1
 44
1.0
1001
ACAD
1000
MTEXTBEGIN
1070
    73
1070
     1
1070
    44
1040
1.0
1070
    74
1070
     0
1000
MTEXTEND
  0
POINT
  5
26E17
330
26DD3
100
AcDbEntity
  8
DEFPOINTS
 62
     0
 48
50.0
100
AcDbPoint
 10
6238.908158949281
 20
1012.472703991518
 30
0.0
  0
POINT
  5
26E18
330
26DD3
100
AcDbEntity
  8
DEFPOINTS
 62
     0
 48
50.0
100
AcDbPoint
 10
6686.908158949281
 20
1012.472703991518
 30
0.0
  0
POINT
  5
26E19
330
26DD3
100
AcDbEntity
  8
DEFPOINTS
 62
     0
 48
50.0
100
AcDbPoint
 10
6686.908158949281
 20
602.0430659863578
 30
0.0
  0
ENDBLK
  5
26DDE
330
26DD3
100
AcDbEntity
  8
0
 48
50.0
100
AcDbBlockEnd
  0
BLOCK
  5
26DE9
330
26DDF
100
AcDbEntity
  8
0
 48
50.0
100
AcDbBlockBegin
  2
*D65
 70
     1
 10
0.0
 20
0.0
 30
0.0
  3
*D65
  1

  0
LINE
  5
26E1A
330
26DDF
100
AcDbEntity
  8
寸法
 62
     0
 48
50.0
370
    -2
100
AcDbLine
 10
6558.908158949281
 20
1944.472703991518
 30
0.0
 11
6558.908158949281
 21
2404.140511907898
 31
0.0
  0
LINE
  5
26E1B
330
26DDF
100
AcDbEntity
  8
寸法
 62
     0
 48
50.0
370
    -2
100
AcDbLine
 10
6366.908158949281
 20
1944.472703991518
 30
0.0
 11
6366.908158949281
 21
2404.140511907898
 31
0.0
  0
LINE
  5
26E1C
330
26DDF
100
AcDbEntity
  8
寸法
 62
     0
 48
50.0
370
    -2
100
AcDbLine
 10
6558.908158949281
 20
2344.140511907898
 30
0.0
 11
6366.908158949281
 21
2344.140511907898
 31
0.0
  0
INSERT
  5
26E1D
330
26DDF
100
AcDbEntity
  8
寸法
 62
     0
 48
50.0
370
    -2
100
AcDbBlockReference
  2
_DOTSMALL
 10
6558.908158949281
 20
2344.140511907898
 30
0.0
 41
100.0
 42
100.0
 43
100.0
  0
INSERT
  5
26E1E
330
26DDF
100
AcDbEntity
  8
寸法
 62
     0
 48
50.0
370
    -2
100
AcDbBlockReference
  2
_DOTSMALL
 10
6366.908158949281
 20
2344.140511907898
 30
0.0
 41
100.0
 42
100.0
 43
100.0
 50
180.0
  0
MTEXT
  5
26E1F
330
26DDF
100
AcDbEntity
  8
寸法
 62
     7
 48
50.0
100
AcDbMText
 10
6462.908158949281
 20
2644.175944978764
 30
0.0
 40
120.0
 41
0.0
 71
     5
 72
     1
  1
\A1;120\P200\P280
  7
STYLE1
 73
     1
 44
1.0
1001
ACAD
1000
MTEXTBEGIN
1070
    73
1070
     1
1070
    44
1040
1.0
1070
    74
1070
     0
1000
MTEXTEND
  0
POINT
  5
26E20
330
26DDF
100
AcDbEntity
  8
DEFPOINTS
 62
     0
 48
50.0
100
AcDbPoint
 10
6558.908158949281
 20
1924.472703991518
 30
0.0
  0
POINT
  5
26E21
330
26DDF
100
AcDbEntity
  8
DEFPOINTS
 62
     0
 48
50.0
100
AcDbPoint
 10
6366.908158949281
 20
1924.472703991518
 30
0.0
  0
POINT
  5
26E22
330
26DDF
100
AcDbEntity
  8
DEFPOINTS
 62
     0
 48
50.0
100
AcDbPoint
 10
6366.908158949281
 20
2344.140511907898
 30
0.0
  0
ENDBLK
  5
26DEA
330
26DDF
100
AcDbEntity
  8
0
 48
50.0
100
AcDbBlockEnd
  0
ENDSEC
  0
SECTION
  2
ENTITIES
  0
MTEXT
  5
763F
330
747D
100
AcDbEntity
  8
0
100
AcDbMText
 10
302.846345836809
 20
280.1983726409901
 30
0.0
 40
3.5
 41
5.323721266742722
 71
     1
 72
     5
  1

  7
MSMINCHO
 73
     1
 44
1.0
1001
ACAD
1000
MTEXTBEGIN
1070
    73
1070
     1
1070
    44
1040
1.0
1070
    74
1070
     0
1000
MTEXTEND
  0
LINE
  5
10B57
330
747D
100
AcDbEntity
  8
補助
  6
PHANTOM
 62
   230
 48
50.0
100
AcDbLine
 10
139.9999999999995
 20
11409.6
 30
0.0
 11
16307.2
 21
11409.6
 31
0.0
  0
LINE
  5
10B59
330
747D
100
AcDbEntity
  8
仕様書枠
  6
Continuous
 48
50.0
100
AcDbLine
 10
13107.2
 20
1200.0
 30
0.0
 11
13107.2
 21
-0.0000000000000729
 31
0.0
  0
LINE
  5
10B5D
330
747D
100
AcDbEntity
  8
仕様書枠
 48
50.0
100
AcDbLine
 10
140.0
 20
0.0
 30
0.0
 11
16307.2
 21
-0.0000000000000909
 31
0.0
  0
LINE
  5
10B5E
330
747D
100
AcDbEntity
  8
補助
  6
PHANTOM
 62
   230
 48
50.0
100
AcDbLine
 10
16307.2
 20
11409.6
 30
0.0
 11
16307.2
 21
1200.0
 31
0.0
  0
LINE
  5
10B6C
330
747D
100
AcDbEntity
  8
仕様書枠
 48
50.0
100
AcDbLine
 10
13107.2
 20
1200.0
 30
0.0
 11
16307.2
 21
1200.0
 31
0.0
  0
TEXT
  5
10B73
330
747D
100
AcDbEntity
  8
文字
 62
     7
 48
50.0
100
AcDbText
 10
13162.9790565769
 20
895.0906074299405
 30
0.0
 40
200.0
  1
基 礎 図
  7
STYLE2
100
AcDbText
  0
LINE
  5
10B7B
330
747D
100
AcDbEntity
  8
仕様書枠
 48
50.0
100
AcDbLine
 10
13107.2
 20
800.0
 30
0.0
 11
14251.2
 21
800.0
 31
0.0
  0
LINE
  5
10B88
330
747D
100
AcDbEntity
  8
仕様書枠
  6
Continuous
 48
50.0
100
AcDbLine
 10
14251.2
 20
1200.0
 30
0.0
 11
14251.2
 21
800.0
 31
0.0
  0
LINE
  5
16462
330
747D
100
AcDbEntity
  8
仕様書枠
 48
50.0
100
AcDbLine
 10
16307.2
 20
1200.0
 30
0.0
 11
16307.2
 21
-0.0000000000000909
 31
0.0
  0
LINE
  5
1903B
330
747D
100
AcDbEntity
  8
補助
  6
PHANTOM
 62
   230
 48
50.0
100
AcDbLine
 10
140.0
 20
0.0
 30
0.0
 11
139.9999999999995
 21
11409.6
 31
0.0
  0
LEADER
  5
1AC27
330
747D
100
AcDbEntity
  8
寸法
 48
50.0
100
AcDbLeader
  3
INABA_S50G
 73
     0
 74
     0
 75
     1
 40
120.0
 41
720.0000000000001
 76
     3
 10
12328.69549961499
 20
6781.777046612674
 30
0.0
 10
12485.46907400128
 20
6520.763133044841
 30
0.0
 10
12610.46907400128
 20
6520.763133044841
 30
0.0
340
1AC28
1001
ACAD
1000
DSTYLE
1002
{
1070
   341
1005
0
1070
    40
1040
1.0
1070
   343
1005
0
1070
   344
1005
0
1002
}
  0
MTEXT
  5
1AC28
102
{ACAD_REACTORS
330
1AC27
102
}
330
747D
100
AcDbEntity
  8
部品1
 62
     7
 48
50.0
100
AcDbMText
 10
13355.46907400128
 20
6605.763133044842
 30
0.0
 40
120.0
 41
0.0
 71
     6
 72
     1
  1
\A1;床下換気口
  7
STYLE1
 73
     1
 44
1.0
1001
ACAD
1000
MTEXTBEGIN
1070
    73
1070
     1
1070
    44
1040
1.0
1070
    74
1070
     0
1000
MTEXTEND
  0
TEXT
  5
1AC29
330
747D
100
AcDbEntity
  8
部品1
 48
50.0
100
AcDbText
 10
12677.43013846118
 20
5942.582694088715
 30
0.0
 40
80.0
  1
(a=45,b=55,c=75)
  7
STYLE1
100
AcDbText
  0
TEXT
  5
1AC2A
330
747D
100
AcDbEntity
  8
部品1
 48
50.0
100
AcDbText
 10
12518.85112970688
 20
6049.427914957469
 30
0.0
 40
80.0
  1
※a,b,cは屋根の出幅です。
  7
STYLE1
100
AcDbText
  0
MTEXT
  5
1AC2B
102
{ACAD_REACTORS
330
1AC2C
102
}
330
747D
100
AcDbEntity
  8
部品1
 62
     7
 48
50.0
100
AcDbMText
 10
13316.63832569548
 20
6228.738601890544
 30
0.0
 40
120.0
 41
0.0
 71
     6
 72
     1
  1
\A1;屋根の外寸
  7
STYLE1
 73
     1
 44
1.0
1001
ACAD
1000
MTEXTBEGIN
1070
    73
1070
     1
1070
    44
1040
1.0
1070
    74
1070
     0
1000
MTEXTEND
  0
LEADER
  5
1AC2C
330
747D
100
AcDbEntity
  8
寸法
 48
50.0
100
AcDbLeader
  3
INABA_S50G
 73
     0
 74
     0
 75
     1
 40
120.0
 41
672.0
 76
     3
 10
12378.69831350344
 20
6402.627945354119
 30
0.0
 10
12494.63832569548
 20
6143.738601890543
 30
0.0
 10
12619.63832569548
 20
6143.738601890543
 30
0.0
340
1AC2B
1001
ACAD
1000
DSTYLE
1002
{
1070
   341
1005
0
1070
    40
1040
1.0
1070
   343
1005
0
1070
   344
1005
0
1002
}
  0
TEXT
  5
1C7A1
330
747D
100
AcDbEntity
  8
文字
 62
     7
 48
50.0
100
AcDbText
 10
13188.16259899338
 20
79.80631269190417
 30
0.0
 40
80.0
  1
※布基礎には換気口を設けてください。
  7
STYLE2
100
AcDbText
  0
TEXT
  5
1C7E7
330
747D
100
AcDbEntity
  8
文字
 62
     7
 48
50.0
100
AcDbText
 10
13188.16259899338
 20
246.7109242801889
 30
0.0
 40
80.0
  1
※寒冷地等は地域の実情に合わせた基礎にして下さい。
  7
STYLE2
100
AcDbText
  0
TEXT
  5
1C7E8
330
747D
100
AcDbEntity
  8
文字
 62
     7
 48
50.0
100
AcDbText
 10
14172.35863489018
 20
499.5983841039506
 30
0.0
 40
160.0
  1
ＮＸＮ－０８WＬ－１０
  7
STYLE2
100
AcDbText
  0
TEXT
  5
1C7EC
330
747D
100
AcDbEntity
  8
文字
 62
     7
 48
50.0
100
AcDbText
 10
14524.131837222
 20
1031.557706291229
 30
0.0
 40
100.0
  1
<縮尺> S=1/40
  7
STYLE2
100
AcDbText
  0
TEXT
  5
1C7ED
330
747D
100
AcDbEntity
  8
文字
 62
     7
 48
50.0
100
AcDbText
 10
13201.43669998441
 20
477.2740661031257
 30
0.0
 40
160.0
  1
機種名
  7
STYLE2
100
AcDbText
  0
LINE
  5
1C7EF
330
747D
100
AcDbEntity
  8
文字
 62
     7
 48
50.0
100
AcDbLine
 10
13187.2
 20
400.0
 30
0.0
 11
16227.2
 21
400.0
 31
0.0
  0
MTEXT
  5
1D2D5
102
{ACAD_REACTORS
330
1D2D6
102
}
330
747D
100
AcDbEntity
  8
部品1
 62
     7
 48
50.0
100
AcDbMText
 10
13523.99523070988
 20
7493.286339668012
 30
0.0
 40
120.0
 41
0.0
 71
     6
 72
     1
  1
アンカーボルト
  7
STYLE1
 73
     1
 44
1.0
1001
ACAD
1000
MTEXTBEGIN
1070
    73
1070
     1
1070
    44
1040
1.0
1070
    74
1070
     0
1000
MTEXTEND
  0
LEADER
  5
1D2D6
330
747D
100
AcDbEntity
  8
寸法
 48
50.0
100
AcDbLeader
  3
INABA_S50G
 73
     0
 74
     0
 75
     1
 40
120.0
 41
994.3492424049171
 76
     3
 10
12205.680085757
 20
7054.881439784215
 30
0.0
 10
12379.64598830496
 20
7408.286339668011
 30
0.0
 10
12504.64598830496
 20
7408.286339668011
 30
0.0
340
1D2D5
1001
ACAD
1000
DSTYLE
1002
{
1070
   341
1005
0
1070
    40
1040
1.0
1070
   343
1005
0
1070
   344
1005
0
1002
}
  0
MTEXT
  5
1D332
102
{ACAD_REACTORS
330
1D333
102
}
330
747D
100
AcDbEntity
  8
部品1
 62
     7
 48
50.0
100
AcDbMText
 10
12018.82869701569
 20
6619.178955106187
 30
0.0
 40
120.0
 41
0.0
 71
     6
 72
     1
  1
CB
  7
STYLE1
 73
     1
 44
1.0
1001
ACAD
1000
MTEXTBEGIN
1070
    73
1070
     1
1070
    44
1040
1.0
1070
    74
1070
     0
1000
MTEXTEND
  0
LEADER
  5
1D333
330
747D
100
AcDbEntity
  8
寸法
 48
50.0
100
AcDbLeader
  3
INABA_S50G
 73
     0
 74
     0
 75
     1
 40
120.0
 41
149.591883092037
 76
     3
 10
11591.95401106101
 20
6756.897268661013
 30
0.0
 10
11719.23681392365
 20
6534.178955106188
 30
0.0
 10
11844.23681392365
 20
6534.178955106188
 30
0.0
340
1D332
1001
ACAD
1000
DSTYLE
1002
{
1070
   341
1005
0
1070
    40
1040
1.0
1070
   343
1005
0
1070
   344
1005
0
1002
}
  0
DIMENSION
  5
20DE1
330
747D
100
AcDbEntity
  8
寸法
 48
50.0
100
AcDbDimension
  2
*D19
 10
12373.6
 20
8135.893917484404
 30
0.0
 11
12644.77462120246
 21
8135.893917484404
 31
0.0
 70
   160
  1
a
 71
     5
 42
45.0
  3
INABA_S40G
100
AcDbAlignedDimension
 13
12328.6
 23
7177.673595425481
 33
0.0
 14
12373.6
 24
7903.940053519393
 34
0.0
100
AcDbRotatedDimension
1001
ACAD
1000
DSTYLE
1002
{
1070
   341
1005
0
1002
}
  0
DIMENSION
  5
20DFB
330
747D
100
AcDbEntity
  8
寸法
 48
50.0
100
AcDbDimension
  2
*D20
 10
4118.600000000004
 20
8135.893917484398
 30
0.0
 11
3802.425378797545
 21
8135.893917484398
 31
0.0
 70
   160
  1
a
 71
     5
 42
44.99999999999272
  3
INABA_S40G
100
AcDbAlignedDimension
 13
4073.600000000011
 23
7903.940053519389
 33
0.0
 14
4118.600000000004
 24
7177.673595425476
 34
0.0
100
AcDbRotatedDimension
1001
ACAD
1000
DSTYLE
1002
{
1070
   341
1005
0
1002
}
  0
LINE
  5
22711
330
747D
100
AcDbEntity
  8
想像線
 48
10.0
100
AcDbLine
 10
12373.6
 20
7252.673595425505
 30
0.0
 11
4073.600000000033
 21
7252.673595425534
 31
0.0
  0
LINE
  5
22712
330
747D
100
AcDbEntity
  8
想像線
 48
10.0
100
AcDbLine
 10
4073.600000000033
 20
6162.673595425463
 30
0.0
 11
4073.600000000033
 21
7252.673595425523
 31
0.0
  0
LINE
  5
22713
330
747D
100
AcDbEntity
  8
想像線
 48
10.0
100
AcDbLine
 10
12373.6
 20
6162.673595425481
 30
0.0
 11
12373.6
 21
7252.673595425505
 31
0.0
  0
LINE
  5
22714
330
747D
100
AcDbEntity
  8
想像線
 48
10.0
100
AcDbLine
 10
12373.6
 20
6162.673595425481
 30
0.0
 11
4073.600000000033
 21
6162.673595425466
 31
0.0
  0
DIMENSION
  5
22741
330
747D
100
AcDbEntity
  8
寸法
 48
50.0
100
AcDbDimension
  2
*D25
 10
3243.721909610677
 20
7177.673595425488
 30
0.0
 11
3143.721909610675
 21
7215.173595425492
 31
0.0
 70
    32
  1
c
 71
     5
 42
75.00000000000364
  3
INABA_S40G
100
AcDbAlignedDimension
 13
3495.665006330075
 23
7252.673595425493
 33
0.0
 14
3985.156977762466
 24
7177.673595425488
 34
0.0
 50
90.0
100
AcDbRotatedDimension
1001
ACAD
1000
DSTYLE
1002
{
1070
   341
1005
0
1002
}
  0
DIMENSION
  5
2275B
330
747D
100
AcDbEntity
  8
寸法
 48
50.0
100
AcDbDimension
  2
*D26
 10
3243.721909610677
 20
6162.6735954255
 30
0.0
 11
3143.721909610676
 21
6190.17359542549
 31
0.0
 70
    32
  1
b
 71
     5
 42
54.99999999997817
  3
INABA_S40G
100
AcDbAlignedDimension
 13
3991.607272343897
 23
6217.673595425478
 33
0.0
 14
3495.665006330075
 24
6162.6735954255
 34
0.0
 50
90.0
100
AcDbRotatedDimension
1001
ACAD
1000
DSTYLE
1002
{
1070
   341
1005
0
1002
}
  0
DIMENSION
  5
22A76
330
747D
100
AcDbEntity
  8
寸法
 48
50.0
100
AcDbDimension
  2
*D27
 10
11731.82138901162
 20
6217.673595425515
 30
0.0
 11
11731.82138901162
 21
5930.71001274835
 31
0.0
 70
   160
 71
     5
 42
280.0000000000009
  3
INABA_S40G
100
AcDbAlignedDimension
 13
11885.09540071171
 23
6497.673595425516
 33
0.0
 14
11701.41910651595
 24
6217.673595425515
 34
0.0
 50
90.0
100
AcDbRotatedDimension
1001
ACAD
1000
DSTYLE
1002
{
1070
   341
1005
0
1002
}
  0
DIMENSION
  5
22A81
330
747D
100
AcDbEntity
  8
寸法
 48
50.0
100
AcDbDimension
  2
*D28
 10
11731.82138901162
 20
6977.6735954254
 30
0.0
 11
11731.82138901162
 21
7464.637178102652
 31
0.0
 70
   160
 71
     5
 42
200.0000000000855
  3
INABA_S40G
100
AcDbAlignedDimension
 13
11725.85634570468
 23
7177.673595425486
 33
0.0
 14
11665.60166369304
 24
6977.6735954254
 34
0.0
 50
90.0
100
AcDbRotatedDimension
1001
ACAD
1000
DSTYLE
1002
{
1070
   341
1005
0
1002
}
  0
DIMENSION
  5
22A98
330
747D
100
AcDbEntity
  8
寸法
 48
50.0
100
AcDbDimension
  2
*D29
 10
12208.6
 20
6902.065263980721
 30
0.0
 11
12598.65905511811
 21
6902.065263980721
 31
0.0
 70
   160
 71
     5
 42
120.0000000000018
  3
INABA_S40G
100
AcDbAlignedDimension
 13
12328.6
 23
6822.673595425515
 33
0.0
 14
12208.6
 24
6820.446327358505
 34
0.0
100
AcDbRotatedDimension
1001
ACAD
1000
DSTYLE
1002
{
1070
   341
1005
0
1002
}
  0
LINE
  5
2625B
330
747D
100
AcDbEntity
  8
部品1
 48
50.0
100
AcDbLine
 10
12208.6
 20
6977.673595425483
 30
0.0
 11
4238.599999999995
 21
6977.673595425482
 31
0.0
  0
DIMENSION
  5
2625D
330
747D
100
AcDbEntity
  8
寸法
 48
50.0
100
AcDbDimension
  2
*D30
 10
8105.6
 20
7903.940053519395
 30
0.0
 11
8925.600000000001
 21
8003.940053519395
 31
0.0
 70
    32
 71
     5
 42
1640.0
  3
INABA_S40G
100
AcDbAlignedDimension
 13
9745.600000000001
 23
7104.673595425484
 33
0.0
 14
8105.6
 24
7104.673595425484
 34
0.0
100
AcDbRotatedDimension
1001
ACAD
1000
DSTYLE
1002
{
1070
   341
1005
0
1002
}
  0
DIMENSION
  5
2625E
330
747D
100
AcDbEntity
  8
寸法
 48
50.0
100
AcDbDimension
  2
*D31
 10
8223.600000000008
 20
7660.282412095732
 30
0.0
 11
8633.600000000008
 21
7760.294223119354
 31
0.0
 70
    32
 71
     5
 42
820.0
  3
INABA_S40G
100
AcDbAlignedDimension
 13
9043.600000000008
 23
6747.673595425483
 33
0.0
 14
8223.600000000008
 24
6747.673595425483
 34
0.0
100
AcDbRotatedDimension
1001
ACAD
1000
DSTYLE
1002
{
1070
   341
1005
0
1002
}
  0
LINE
  5
26260
330
747D
100
AcDbEntity
  8
部品1
 48
50.0
100
AcDbLine
 10
12328.6
 20
6217.673595425519
 30
0.0
 11
4118.6
 21
6217.673595425474
 31
0.0
  0
LINE
  5
26262
330
747D
100
AcDbEntity
  8
部品1
 48
50.0
100
AcDbLine
 10
12328.6
 20
7177.673595425481
 30
0.0
 11
4118.6
 21
7177.673595425481
 31
0.0
  0
DIMENSION
  5
26263
330
747D
100
AcDbEntity
  8
寸法
 48
50.0
100
AcDbDimension
  2
*D32
 10
12328.6
 20
8135.893917484402
 30
0.0
 11
8223.600000000001
 21
8235.905728508024
 31
0.0
 70
    32
 71
     5
 42
8210.0
  3
INABA_S40G
100
AcDbAlignedDimension
 13
4118.6
 23
7177.673595425483
 33
0.0
 14
12328.6
 24
7177.673595425483
 34
0.0
100
AcDbRotatedDimension
1001
ACAD
1000
DSTYLE
1002
{
1070
   341
1005
0
1002
}
  0
LINE
  5
26265
102
{ACAD_REACTORS
330
26AD0
102
}
330
747D
100
AcDbEntity
  8
部品1
 48
50.0
100
AcDbLine
 10
4118.6
 20
6217.673595425484
 30
0.0
 11
4118.6
 21
7177.673595425483
 31
0.0
  0
DIMENSION
  5
26266
330
747D
100
AcDbEntity
  8
寸法
 48
50.0
100
AcDbDimension
  2
*D33
 10
3495.665006330072
 20
6415.673595425487
 30
0.0
 11
3495.665006330071
 21
6735.173595425483
 31
0.0
 70
   160
 71
     5
 42
638.9999999999964
  3
INABA_S40G
100
AcDbAlignedDimension
 13
4191.6
 23
7054.673595425484
 33
0.0
 14
4191.600000000007
 24
6415.673595425487
 34
0.0
 50
90.0
100
AcDbRotatedDimension
1001
ACAD
1000
DSTYLE
1002
{
1070
   341
1005
0
1002
}
  0
DIMENSION
  5
26267
330
747D
100
AcDbEntity
  8
寸法
 48
50.0
100
AcDbDimension
  2
*D34
 10
3243.721909610674
 20
6217.673595425484
 30
0.0
 11
3243.721909610673
 21
6735.173595425483
 31
0.0
 70
   160
 71
     5
 42
960.0
  3
INABA_S40G
100
AcDbAlignedDimension
 13
4118.6
 23
7177.673595425483
 33
0.0
 14
4118.6
 24
6217.673595425484
 34
0.0
 50
90.0
100
AcDbRotatedDimension
1001
ACAD
1000
DSTYLE
1002
{
1070
   341
1005
0
1002
}
  0
DIMENSION
  5
26269
330
747D
100
AcDbEntity
  8
寸法
 48
50.0
100
AcDbDimension
  2
*D35
 10
4601.285990614302
 20
6697.673595425484
 30
0.0
 11
4601.2859906143
 21
5925.114540307383
 31
0.0
 70
   160
 71
     5
 42
479.999999999989
  3
INABA_S40G
100
AcDbAlignedDimension
 13
4692.765475140901
 23
6217.673595425495
 33
0.0
 14
4893.600000000008
 24
6697.673595425484
 34
0.0
 50
90.0
100
AcDbRotatedDimension
1001
ACAD
1000
DSTYLE
1002
{
1070
   341
1005
0
1002
}
  0
DIMENSION
  5
2626A
330
747D
100
AcDbEntity
  8
寸法
 48
50.0
100
AcDbDimension
  2
*D36
 10
3495.665006330072
 20
6217.673595425484
 30
0.0
 11
3495.665006330071
 21
5882.142646582892
 31
0.0
 70
   160
 71
     5
 42
198.0000000000036
  3
INABA_S40G
100
AcDbAlignedDimension
 13
4191.600000000007
 23
6415.673595425487
 33
0.0
 14
4118.6
 24
6217.673595425484
 34
0.0
 50
90.0
100
AcDbRotatedDimension
1001
ACAD
1000
DSTYLE
1002
{
1070
   341
1005
0
1002
}
  0
ARC
  5
2626C
330
747D
100
AcDbEntity
  8
想像線
 48
5.0
100
AcDbCircle
 10
4888.600000000003
 20
6217.673595425488
 30
0.0
 40
720.0
100
AcDbArc
 50
180.0
 51
270.0
  0
DIMENSION
  5
2626D
330
747D
100
AcDbEntity
  8
寸法
 48
50.0
100
AcDbDimension
  2
*D37
 10
4005.512673767883
 20
5497.67359542548
 30
0.0
 11
4005.512673767881
 21
5857.673595425481
 31
0.0
 70
   160
  1
扉の出<>
 71
     5
 42
720.0
  3
INABA_S40G
100
AcDbAlignedDimension
 13
4118.600000000004
 23
6217.67359542548
 33
0.0
 14
4474.325326928808
 24
5497.67359542548
 34
0.0
 50
90.0
100
AcDbRotatedDimension
1001
ACAD
1000
DSTYLE
1002
{
1070
   341
1005
0
1002
}
  0
LINE
  5
2626E
330
747D
100
AcDbEntity
  8
センター
 48
2.0
100
AcDbLine
 10
4191.600000000007
 20
6415.673595425487
 30
0.0
 11
4291.600000000007
 21
6415.673595425487
 31
0.0
  0
CIRCLE
  5
2626F
330
747D
100
AcDbEntity
  8
部品1
 48
50.0
100
AcDbCircle
 10
4241.599999999993
 20
6415.673595425487
 30
0.0
 40
35.0
  0
LINE
  5
26270
330
747D
100
AcDbEntity
  8
センター
 48
2.0
100
AcDbLine
 10
4241.600000000008
 20
6465.673595425487
 30
0.0
 11
4241.600000000008
 21
6365.673595425487
 31
0.0
  0
LINE
  5
26271
330
747D
100
AcDbEntity
  8
想像線
 48
5.0
100
AcDbLine
 10
4888.600000000003
 20
6217.673595425498
 30
0.0
 11
4888.600000000003
 21
5497.673595425488
 31
0.0
  0
LINE
  5
26272
330
747D
100
AcDbEntity
  8
細線
 48
50.0
100
AcDbLine
 10
4569.404364949121
 20
6217.673595425507
 30
0.0
 11
4633.60000000001
 21
6281.869230476395
 31
0.0
  0
LINE
  5
26273
330
747D
100
AcDbEntity
  8
細線
 48
50.0
100
AcDbLine
 10
4524.503084343774
 20
6217.673595425505
 30
0.0
 11
4633.600000000006
 21
6326.770511081739
 31
0.0
  0
LINE
  5
26274
330
747D
100
AcDbEntity
  8
細線
 48
50.0
100
AcDbLine
 10
4479.601803738429
 20
6217.673595425506
 30
0.0
 11
4633.600000000003
 21
6371.671791687084
 31
0.0
  0
LINE
  5
26275
330
747D
100
AcDbEntity
  8
細線
 48
50.0
100
AcDbLine
 10
4434.700523133082
 20
6217.673595425504
 30
0.0
 11
4633.600000000003
 21
6416.573072292428
 31
0.0
  0
LINE
  5
26276
330
747D
100
AcDbEntity
  8
細線
 48
50.0
100
AcDbLine
 10
4433.600000000008
 20
6261.474352897778
 30
0.0
 11
4633.600000000003
 21
6461.474352897773
 31
0.0
  0
LINE
  5
26277
330
747D
100
AcDbEntity
  8
部品1
 48
50.0
100
AcDbLine
 10
4433.600000000004
 20
6497.673595425474
 30
0.0
 11
4433.600000000009
 21
6217.673595425504
 31
0.0
  0
LINE
  5
26278
330
747D
100
AcDbEntity
  8
部品1
 48
50.0
100
AcDbLine
 10
4633.600000000003
 20
6497.673595425478
 30
0.0
 11
4633.60000000001
 21
6217.673595425507
 31
0.0
  0
LINE
  5
26279
330
747D
100
AcDbEntity
  8
細線
 48
50.0
100
AcDbLine
 10
4614.305645554469
 20
6217.673595425509
 30
0.0
 11
4633.60000000001
 21
6236.967949871051
 31
0.0
  0
LINE
  5
2627A
330
747D
100
AcDbEntity
  8
細線
 48
50.0
100
AcDbLine
 10
4433.600000000006
 20
6306.375633503122
 30
0.0
 11
4624.897961922362
 21
6497.673595425478
 31
0.0
  0
LINE
  5
2627B
330
747D
100
AcDbEntity
  8
細線
 48
50.0
100
AcDbLine
 10
4433.600000000006
 20
6351.276914108467
 30
0.0
 11
4579.996681317015
 21
6497.673595425478
 31
0.0
  0
LINE
  5
2627C
330
747D
100
AcDbEntity
  8
細線
 48
50.0
100
AcDbLine
 10
4433.599999999946
 20
6396.17819471378
 30
0.0
 11
4535.095400711647
 21
6497.673595425478
 31
0.0
  0
LINE
  5
2627D
330
747D
100
AcDbEntity
  8
細線
 48
50.0
100
AcDbLine
 10
4433.599999999946
 20
6441.079475319122
 30
0.0
 11
4490.194120106292
 21
6497.673595425478
 31
0.0
  0
LINE
  5
26297
330
747D
100
AcDbEntity
  8
センター
 48
2.0
100
AcDbLine
 10
6465.600000000008
 20
6465.673595425487
 30
0.0
 11
6465.600000000008
 21
6365.673595425487
 31
0.0
  0
CIRCLE
  5
26298
330
747D
100
AcDbEntity
  8
部品1
 48
50.0
100
AcDbCircle
 10
6465.600000000008
 20
6415.673595425487
 30
0.0
 40
35.0
  0
LINE
  5
26299
330
747D
100
AcDbEntity
  8
センター
 48
2.0
100
AcDbLine
 10
6415.600000000008
 20
6415.673595425487
 30
0.0
 11
6515.600000000008
 21
6415.673595425487
 31
0.0
  0
TEXT
  5
262B2
330
747D
100
AcDbEntity
  8
寸法
 48
50.0
100
AcDbText
 10
8193.201122752542
 20
6236.354886218221
 30
0.0
 40
120.0
  1
扉面
  7
STYLE1
100
AcDbText
  0
LINE
  5
262B3
330
747D
100
AcDbEntity
  8
センター
 48
2.0
100
AcDbLine
 10
8105.600000000007
 20
6465.673595425487
 30
0.0
 11
8105.600000000007
 21
6365.673595425487
 31
0.0
  0
CIRCLE
  5
262B4
330
747D
100
AcDbEntity
  8
部品1
 48
50.0
100
AcDbCircle
 10
8105.600000000007
 20
6415.673595425487
 30
0.0
 40
35.0
  0
LINE
  5
262B5
330
747D
100
AcDbEntity
  8
センター
 48
2.0
100
AcDbLine
 10
8055.600000000008
 20
6415.673595425487
 30
0.0
 11
8155.600000000008
 21
6415.673595425487
 31
0.0
  0
DIMENSION
  5
262B6
330
747D
100
AcDbEntity
  8
寸法
 48
50.0
100
AcDbDimension
  2
*D38
 10
4943.600000000007
 20
7660.282412095732
 30
0.0
 11
5353.600000000008
 21
7760.294223119354
 31
0.0
 70
    32
 71
     5
 42
820.0
  3
INABA_S40G
100
AcDbAlignedDimension
 13
5763.600000000008
 23
6747.673595425483
 33
0.0
 14
4943.600000000007
 24
6747.673595425483
 34
0.0
100
AcDbRotatedDimension
1001
ACAD
1000
DSTYLE
1002
{
1070
   341
1005
0
1002
}
  0
DIMENSION
  5
262B7
330
747D
100
AcDbEntity
  8
寸法
 48
50.0
100
AcDbDimension
  2
*D39
 10
4241.6
 20
7903.940053519395
 30
0.0
 11
5353.6
 21
8003.951864543017
 31
0.0
 70
    32
 71
     5
 42
2224.0
  3
INABA_S40G
100
AcDbAlignedDimension
 13
6465.600000000001
 23
7104.673595425484
 33
0.0
 14
4241.6
 24
7104.673595425484
 34
0.0
100
AcDbRotatedDimension
1001
ACAD
1000
DSTYLE
1002
{
1070
   341
1005
0
1002
}
  0
DIMENSION
  5
262B8
330
747D
100
AcDbEntity
  8
寸法
 48
50.0
100
AcDbDimension
  2
*D40
 10
3495.665006330072
 20
7054.673595425484
 30
0.0
 11
3495.665006330071
 21
7450.780197143284
 31
0.0
 70
   160
 71
     5
 42
123.0
  3
INABA_S40G
100
AcDbAlignedDimension
 13
4118.6
 23
7177.673595425483
 33
0.0
 14
4191.6
 24
7054.673595425484
 34
0.0
 50
90.0
100
AcDbRotatedDimension
1001
ACAD
1000
DSTYLE
1002
{
1070
   341
1005
0
1002
}
  0
DIMENSION
  5
262BB
330
747D
100
AcDbEntity
  8
寸法
 48
50.0
100
AcDbDimension
  2
*D41
 10
4118.6
 20
7660.282412095732
 30
0.0
 11
4531.100000000004
 21
7760.294223119354
 31
0.0
 70
    32
 71
     5
 42
825.0000000000072
  3
INABA_S40G
100
AcDbAlignedDimension
 13
4943.600000000007
 23
6747.673595425483
 33
0.0
 14
4118.6
 24
7177.673595425483
 34
0.0
100
AcDbRotatedDimension
1001
ACAD
1000
DSTYLE
1002
{
1070
   341
1005
0
1002
}
  0
DIMENSION
  5
262BC
330
747D
100
AcDbEntity
  8
寸法
 48
50.0
100
AcDbDimension
  2
*D42
 10
4118.6
 20
7903.940053519395
 30
0.0
 11
3845.493398282202
 21
7903.940053519395
 31
0.0
 70
   160
 71
     5
 42
123.0
  3
INABA_S40G
100
AcDbAlignedDimension
 13
4241.6
 23
7104.673595425484
 33
0.0
 14
4118.6
 24
7177.673595425483
 34
0.0
100
AcDbRotatedDimension
1001
ACAD
1000
DSTYLE
1002
{
1070
   341
1005
0
1002
}
  0
LINE
  5
262BD
102
{ACAD_REACTORS
330
26AD0
102
}
330
747D
100
AcDbEntity
  8
部品1
 48
50.0
100
AcDbLine
 10
4238.599999999997
 20
6822.673595425527
 30
0.0
 11
4118.6
 21
6822.673595425527
 31
0.0
  0
LINE
  5
262BE
102
{ACAD_REACTORS
330
26AD0
102
}
330
747D
100
AcDbEntity
  8
部品1
 48
50.0
100
AcDbLine
 10
4238.599999999999
 20
6622.673595425529
 30
0.0
 11
4118.6
 21
6622.673595425528
 31
0.0
  0
LINE
  5
262C0
330
747D
100
AcDbEntity
  8
センター
 48
2.0
100
AcDbLine
 10
4191.6
 20
7054.673595425484
 30
0.0
 11
4291.6
 21
7054.673595425484
 31
0.0
  0
CIRCLE
  5
262C1
330
747D
100
AcDbEntity
  8
部品1
 48
50.0
100
AcDbCircle
 10
4241.6
 20
7054.673595425484
 30
0.0
 40
35.0
  0
LINE
  5
262C2
330
747D
100
AcDbEntity
  8
センター
 48
2.0
100
AcDbLine
 10
4241.6
 20
7104.673595425484
 30
0.0
 11
4241.6
 21
7004.673595425484
 31
0.0
  0
LINE
  5
262C3
330
747D
100
AcDbEntity
  8
細線
 48
50.0
100
AcDbLine
 10
4433.600000000008
 20
6979.89484258331
 30
0.0
 11
4631.378752842201
 21
7177.673595425504
 31
0.0
  0
LINE
  5
262C4
330
747D
100
AcDbEntity
  8
細線
 48
50.0
100
AcDbLine
 10
4433.600000000008
 20
7024.796123188656
 30
0.0
 11
4586.477472236857
 21
7177.673595425504
 31
0.0
  0
LINE
  5
262C5
330
747D
100
AcDbEntity
  8
細線
 48
50.0
100
AcDbLine
 10
4433.600000000008
 20
7069.697403793999
 30
0.0
 11
4541.576191631511
 21
7177.673595425504
 31
0.0
  0
LINE
  5
262C6
330
747D
100
AcDbEntity
  8
細線
 48
50.0
100
AcDbLine
 10
4433.600000000008
 20
7114.598684399346
 30
0.0
 11
4496.674911026164
 21
7177.673595425504
 31
0.0
  0
LINE
  5
262C7
330
747D
100
AcDbEntity
  8
部品1
 48
50.0
100
AcDbLine
 10
4433.600000000006
 20
7177.673595425504
 30
0.0
 11
4433.600000000008
 21
6977.673595425483
 31
0.0
  0
LINE
  5
262C8
330
747D
100
AcDbEntity
  8
部品1
 48
50.0
100
AcDbLine
 10
4633.600000000006
 20
7177.673595425504
 30
0.0
 11
4633.600000000007
 21
6977.673595425483
 31
0.0
  0
DIMENSION
  5
262C9
330
747D
100
AcDbEntity
  8
寸法
 48
50.0
100
AcDbDimension
  2
*D43
 10
4601.285990614301
 20
7177.673595425483
 30
0.0
 11
4601.2859906143
 21
7470.232650543596
 31
0.0
 70
   160
 71
     5
 42
480.0
  3
INABA_S40G
100
AcDbAlignedDimension
 13
4893.600000000008
 23
6697.673595425484
 33
0.0
 14
4692.765475140901
 24
7177.673595425483
 34
0.0
 50
90.0
100
AcDbRotatedDimension
1001
ACAD
1000
DSTYLE
1002
{
1070
   341
1005
0
1002
}
  0
LINE
  5
262CA
330
747D
100
AcDbEntity
  8
細線
 48
50.0
100
AcDbLine
 10
4521.181314052888
 20
6977.673595425483
 30
0.0
 11
4633.600000000006
 21
7090.092281372617
 31
0.0
  0
LINE
  5
262CB
330
747D
100
AcDbEntity
  8
細線
 48
50.0
100
AcDbLine
 10
4476.280033447523
 20
6977.673595425483
 30
0.0
 11
4633.600000000006
 21
7134.993561977961
 31
0.0
  0
LINE
  5
262CC
330
747D
100
AcDbEntity
  8
細線
 48
50.0
100
AcDbLine
 10
4610.98387526357
 20
6977.673595425506
 30
0.0
 11
4633.60000000001
 21
7000.289720161943
 31
0.0
  0
LINE
  5
262CD
330
747D
100
AcDbEntity
  8
細線
 48
50.0
100
AcDbLine
 10
4566.082594658232
 20
6977.673595425506
 30
0.0
 11
4633.60000000001
 21
7045.191000767282
 31
0.0
  0
LINE
  5
262CE
330
747D
100
AcDbEntity
  8
部品1
 48
50.0
100
AcDbLine
 10
5043.600000000008
 20
6797.673595425483
 30
0.0
 11
4843.600000000008
 21
6797.673595425483
 31
0.0
  0
LINE
  5
262CF
330
747D
100
AcDbEntity
  8
部品1
 48
50.0
100
AcDbLine
 10
5043.600000000008
 20
6597.673595425483
 30
0.0
 11
4843.600000000008
 21
6597.673595425483
 31
0.0
  0
LINE
  5
262D0
330
747D
100
AcDbEntity
  8
センター
 48
2.0
100
AcDbLine
 10
4893.600000000008
 20
6697.673595425484
 30
0.0
 11
4993.600000000007
 21
6697.673595425484
 31
0.0
  0
LINE
  5
262D1
330
747D
100
AcDbEntity
  8
部品1
 48
50.0
100
AcDbLine
 10
4843.600000000008
 20
6597.673595425483
 30
0.0
 11
4843.600000000008
 21
6797.673595425483
 31
0.0
  0
LINE
  5
262D2
330
747D
100
AcDbEntity
  8
センター
 48
2.0
100
AcDbLine
 10
4943.600000000007
 20
6747.673595425483
 30
0.0
 11
4943.600000000007
 21
6647.673595425484
 31
0.0
  0
LINE
  5
262D3
330
747D
100
AcDbEntity
  8
部品1
 48
50.0
100
AcDbLine
 10
5043.600000000008
 20
6597.673595425483
 30
0.0
 11
5043.600000000008
 21
6797.673595425483
 31
0.0
  0
LINE
  5
262D4
330
747D
100
AcDbEntity
  8
細線
 48
50.0
100
AcDbLine
 10
4433.600000000006
 20
7159.49996500469
 30
0.0
 11
4451.773630420821
 21
7177.673595425504
 31
0.0
  0
DIMENSION
  5
262D5
330
747D
100
AcDbEntity
  8
寸法
 48
50.0
100
AcDbDimension
  2
*D44
 10
6583.600000000008
 20
7660.282412095732
 30
0.0
 11
6993.600000000007
 21
7760.294223119354
 31
0.0
 70
    32
 71
     5
 42
820.0
  3
INABA_S40G
100
AcDbAlignedDimension
 13
7403.600000000007
 23
6747.673595425483
 33
0.0
 14
6583.600000000008
 24
6747.673595425483
 34
0.0
100
AcDbRotatedDimension
1001
ACAD
1000
DSTYLE
1002
{
1070
   341
1005
0
1002
}
  0
DIMENSION
  5
262D6
330
747D
100
AcDbEntity
  8
寸法
 48
50.0
100
AcDbDimension
  2
*D45
 10
6465.600000000001
 20
7903.940053519395
 30
0.0
 11
7285.600000000001
 21
8003.940053519395
 31
0.0
 70
    32
 71
     5
 42
1640.0
  3
INABA_S40G
100
AcDbAlignedDimension
 13
8105.6
 23
7104.673595425484
 33
0.0
 14
6465.600000000001
 24
7104.673595425484
 34
0.0
100
AcDbRotatedDimension
1001
ACAD
1000
DSTYLE
1002
{
1070
   341
1005
0
1002
}
  0
DIMENSION
  5
262D7
330
747D
100
AcDbEntity
  8
寸法
 48
50.0
100
AcDbDimension
  2
*D46
 10
5763.600000000008
 20
7660.282412095732
 30
0.0
 11
6173.600000000007
 21
7760.294223119354
 31
0.0
 70
    32
 71
     5
 42
820.0
  3
INABA_S40G
100
AcDbAlignedDimension
 13
6583.600000000008
 23
6747.673595425483
 33
0.0
 14
5763.600000000008
 24
6747.673595425483
 34
0.0
100
AcDbRotatedDimension
1001
ACAD
1000
DSTYLE
1002
{
1070
   341
1005
0
1002
}
  0
LINE
  5
262D9
330
747D
100
AcDbEntity
  8
細線
 48
50.0
100
AcDbLine
 10
5253.600000000008
 20
6979.894842583323
 30
0.0
 11
5451.378752842202
 21
7177.673595425516
 31
0.0
  0
LINE
  5
262DA
330
747D
100
AcDbEntity
  8
細線
 48
50.0
100
AcDbLine
 10
5253.600000000008
 20
7024.796123188666
 30
0.0
 11
5406.477472236857
 21
7177.673595425517
 31
0.0
  0
LINE
  5
262DB
330
747D
100
AcDbEntity
  8
細線
 48
50.0
100
AcDbLine
 10
5253.600000000008
 20
7069.697403794013
 30
0.0
 11
5361.576191631511
 21
7177.673595425516
 31
0.0
  0
LINE
  5
262DC
330
747D
100
AcDbEntity
  8
細線
 48
50.0
100
AcDbLine
 10
5253.600000000008
 20
7114.59868439936
 30
0.0
 11
5316.674911026165
 21
7177.673595425516
 31
0.0
  0
LINE
  5
262DD
330
747D
100
AcDbEntity
  8
部品1
 48
50.0
100
AcDbLine
 10
5253.600000000005
 20
7177.673595425516
 30
0.0
 11
5253.600000000008
 21
6977.673595425483
 31
0.0
  0
LINE
  5
262DE
330
747D
100
AcDbEntity
  8
部品1
 48
50.0
100
AcDbLine
 10
5453.600000000005
 20
7177.673595425516
 30
0.0
 11
5453.600000000008
 21
6977.673595425483
 31
0.0
  0
LINE
  5
262DF
330
747D
100
AcDbEntity
  8
細線
 48
50.0
100
AcDbLine
 10
5341.181314052878
 20
6977.673595425483
 30
0.0
 11
5453.600000000005
 21
7090.09228137263
 31
0.0
  0
LINE
  5
262E0
330
747D
100
AcDbEntity
  8
細線
 48
50.0
100
AcDbLine
 10
5296.280033447516
 20
6977.673595425483
 30
0.0
 11
5453.600000000005
 21
7134.993561977974
 31
0.0
  0
LINE
  5
262E1
330
747D
100
AcDbEntity
  8
細線
 48
50.0
100
AcDbLine
 10
5386.082594658232
 20
6977.673595425518
 30
0.0
 11
5453.600000000009
 21
7045.191000767295
 31
0.0
  0
LINE
  5
262E2
330
747D
100
AcDbEntity
  8
細線
 48
50.0
100
AcDbLine
 10
5430.98387526357
 20
6977.673595425518
 30
0.0
 11
5453.600000000009
 21
7000.289720161956
 31
0.0
  0
LINE
  5
262E3
330
747D
100
AcDbEntity
  8
部品1
 48
50.0
100
AcDbLine
 10
5863.600000000008
 20
6797.673595425483
 30
0.0
 11
5663.600000000008
 21
6797.673595425483
 31
0.0
  0
LINE
  5
262E4
330
747D
100
AcDbEntity
  8
部品1
 48
50.0
100
AcDbLine
 10
5863.600000000008
 20
6597.673595425483
 30
0.0
 11
5663.600000000008
 21
6597.673595425483
 31
0.0
  0
LINE
  5
262E5
330
747D
100
AcDbEntity
  8
センター
 48
2.0
100
AcDbLine
 10
5713.600000000008
 20
6697.673595425484
 30
0.0
 11
5813.600000000008
 21
6697.673595425484
 31
0.0
  0
LINE
  5
262E6
330
747D
100
AcDbEntity
  8
部品1
 48
50.0
100
AcDbLine
 10
5663.600000000008
 20
6597.673595425483
 30
0.0
 11
5663.600000000008
 21
6797.673595425483
 31
0.0
  0
LINE
  5
262E7
330
747D
100
AcDbEntity
  8
センター
 48
2.0
100
AcDbLine
 10
5763.600000000008
 20
6747.673595425483
 30
0.0
 11
5763.600000000008
 21
6647.673595425484
 31
0.0
  0
LINE
  5
262E8
330
747D
100
AcDbEntity
  8
部品1
 48
50.0
100
AcDbLine
 10
5863.600000000008
 20
6597.673595425483
 30
0.0
 11
5863.600000000008
 21
6797.673595425483
 31
0.0
  0
LINE
  5
262E9
330
747D
100
AcDbEntity
  8
細線
 48
50.0
100
AcDbLine
 10
5253.600000000005
 20
7159.499965004703
 30
0.0
 11
5271.77363042082
 21
7177.673595425517
 31
0.0
  0
LINE
  5
262EA
330
747D
100
AcDbEntity
  8
細線
 48
50.0
100
AcDbLine
 10
6073.600000000009
 20
6979.89484258331
 30
0.0
 11
6271.378752842202
 21
7177.673595425502
 31
0.0
  0
LINE
  5
262EB
330
747D
100
AcDbEntity
  8
細線
 48
50.0
100
AcDbLine
 10
6073.600000000007
 20
7024.796123188654
 30
0.0
 11
6226.477472236856
 21
7177.673595425503
 31
0.0
  0
LINE
  5
262EC
330
747D
100
AcDbEntity
  8
細線
 48
50.0
100
AcDbLine
 10
6073.600000000007
 20
7069.697403793999
 30
0.0
 11
6181.57619163151
 21
7177.673595425502
 31
0.0
  0
LINE
  5
262ED
330
747D
100
AcDbEntity
  8
細線
 48
50.0
100
AcDbLine
 10
6073.600000000006
 20
7114.598684399346
 30
0.0
 11
6136.674911026164
 21
7177.673595425504
 31
0.0
  0
LINE
  5
262EE
330
747D
100
AcDbEntity
  8
部品1
 48
50.0
100
AcDbLine
 10
6273.600000000006
 20
7177.673595425504
 30
0.0
 11
6273.600000000008
 21
6977.673595425483
 31
0.0
  0
LINE
  5
262EF
330
747D
100
AcDbEntity
  8
部品1
 48
50.0
100
AcDbLine
 10
6073.600000000006
 20
7177.673595425504
 30
0.0
 11
6073.600000000009
 21
6977.673595425483
 31
0.0
  0
LINE
  5
262F0
330
747D
100
AcDbEntity
  8
細線
 48
50.0
100
AcDbLine
 10
6161.181314052874
 20
6977.673595425483
 30
0.0
 11
6273.600000000008
 21
7090.092281372617
 31
0.0
  0
LINE
  5
262F1
330
747D
100
AcDbEntity
  8
細線
 48
50.0
100
AcDbLine
 10
6116.280033447527
 20
6977.673595425483
 30
0.0
 11
6273.600000000006
 21
7134.993561977961
 31
0.0
  0
LINE
  5
262F2
330
747D
100
AcDbEntity
  8
細線
 48
50.0
100
AcDbLine
 10
6250.983875263584
 20
6977.673595425518
 30
0.0
 11
6273.600000000024
 21
7000.289720161956
 31
0.0
  0
LINE
  5
262F3
330
747D
100
AcDbEntity
  8
細線
 48
50.0
100
AcDbLine
 10
6206.082594658246
 20
6977.673595425518
 30
0.0
 11
6273.600000000024
 21
7045.191000767295
 31
0.0
  0
LINE
  5
262F4
330
747D
100
AcDbEntity
  8
部品1
 48
50.0
100
AcDbLine
 10
6683.600000000009
 20
6797.673595425483
 30
0.0
 11
6483.600000000008
 21
6797.673595425483
 31
0.0
  0
LINE
  5
262F5
330
747D
100
AcDbEntity
  8
センター
 48
2.0
100
AcDbLine
 10
6533.600000000008
 20
6697.673595425484
 30
0.0
 11
6633.600000000008
 21
6697.673595425484
 31
0.0
  0
LINE
  5
262F6
330
747D
100
AcDbEntity
  8
部品1
 48
50.0
100
AcDbLine
 10
6683.600000000009
 20
6597.673595425483
 30
0.0
 11
6483.600000000008
 21
6597.673595425483
 31
0.0
  0
LINE
  5
262F7
330
747D
100
AcDbEntity
  8
部品1
 48
50.0
100
AcDbLine
 10
6483.600000000008
 20
6597.673595425483
 30
0.0
 11
6483.600000000008
 21
6797.673595425483
 31
0.0
  0
LINE
  5
262F8
330
747D
100
AcDbEntity
  8
センター
 48
2.0
100
AcDbLine
 10
6583.600000000008
 20
6747.673595425483
 30
0.0
 11
6583.600000000008
 21
6647.673595425484
 31
0.0
  0
LINE
  5
262F9
330
747D
100
AcDbEntity
  8
部品1
 48
50.0
100
AcDbLine
 10
6683.600000000009
 20
6597.673595425483
 30
0.0
 11
6683.600000000009
 21
6797.673595425483
 31
0.0
  0
LINE
  5
262FA
330
747D
100
AcDbEntity
  8
センター
 48
2.0
100
AcDbLine
 10
6415.600000000001
 20
7054.673595425484
 30
0.0
 11
6515.6
 21
7054.673595425484
 31
0.0
  0
LINE
  5
262FB
330
747D
100
AcDbEntity
  8
センター
 48
2.0
100
AcDbLine
 10
6465.600000000001
 20
7104.673595425484
 30
0.0
 11
6465.600000000001
 21
7004.673595425484
 31
0.0
  0
CIRCLE
  5
262FC
330
747D
100
AcDbEntity
  8
部品1
 48
50.0
100
AcDbCircle
 10
6465.600000000001
 20
7054.673595425484
 30
0.0
 40
35.0
  0
LINE
  5
262FD
330
747D
100
AcDbEntity
  8
細線
 48
50.0
100
AcDbLine
 10
6073.600000000006
 20
7159.49996500469
 30
0.0
 11
6091.773630420819
 21
7177.673595425504
 31
0.0
  0
DIMENSION
  5
262FE
330
747D
100
AcDbEntity
  8
寸法
 48
50.0
100
AcDbDimension
  2
*D47
 10
7403.600000000007
 20
7660.282412095732
 30
0.0
 11
7813.600000000008
 21
7760.294223119354
 31
0.0
 70
    32
 71
     5
 42
820.0
  3
INABA_S40G
100
AcDbAlignedDimension
 13
8223.600000000008
 23
6747.673595425483
 33
0.0
 14
7403.600000000007
 24
6747.673595425483
 34
0.0
100
AcDbRotatedDimension
1001
ACAD
1000
DSTYLE
1002
{
1070
   341
1005
0
1002
}
  0
LINE
  5
262FF
330
747D
100
AcDbEntity
  8
細線
 48
50.0
100
AcDbLine
 10
6893.600000000009
 20
6979.894842583322
 30
0.0
 11
7091.378752842202
 21
7177.673595425516
 31
0.0
  0
LINE
  5
26300
330
747D
100
AcDbEntity
  8
細線
 48
50.0
100
AcDbLine
 10
6893.600000000008
 20
7024.796123188669
 30
0.0
 11
7046.477472236857
 21
7177.673595425517
 31
0.0
  0
LINE
  5
26301
330
747D
100
AcDbEntity
  8
細線
 48
50.0
100
AcDbLine
 10
6893.600000000008
 20
7069.697403794011
 30
0.0
 11
7001.576191631511
 21
7177.673595425516
 31
0.0
  0
LINE
  5
26302
330
747D
100
AcDbEntity
  8
細線
 48
50.0
100
AcDbLine
 10
6893.600000000008
 20
7114.598684399358
 30
0.0
 11
6956.674911026168
 21
7177.673595425519
 31
0.0
  0
LINE
  5
26303
330
747D
100
AcDbEntity
  8
部品1
 48
50.0
100
AcDbLine
 10
7093.600000000006
 20
7177.673595425516
 30
0.0
 11
7093.600000000008
 21
6977.673595425483
 31
0.0
  0
LINE
  5
26304
330
747D
100
AcDbEntity
  8
部品1
 48
50.0
100
AcDbLine
 10
6893.600000000006
 20
7177.673595425516
 30
0.0
 11
6893.600000000009
 21
6977.673595425483
 31
0.0
  0
LINE
  5
26305
330
747D
100
AcDbEntity
  8
細線
 48
50.0
100
AcDbLine
 10
6981.181314052875
 20
6977.673595425483
 30
0.0
 11
7093.600000000006
 21
7090.09228137263
 31
0.0
  0
LINE
  5
26306
330
747D
100
AcDbEntity
  8
細線
 48
50.0
100
AcDbLine
 10
6936.280033447514
 20
6977.673595425483
 30
0.0
 11
7093.600000000006
 21
7134.993561977974
 31
0.0
  0
LINE
  5
26307
330
747D
100
AcDbEntity
  8
細線
 48
50.0
100
AcDbLine
 10
7026.082594658245
 20
6977.673595425532
 30
0.0
 11
7093.600000000022
 21
7045.191000767307
 31
0.0
  0
LINE
  5
26308
330
747D
100
AcDbEntity
  8
細線
 48
50.0
100
AcDbLine
 10
7070.983875263583
 20
6977.673595425532
 30
0.0
 11
7093.600000000022
 21
7000.289720161969
 31
0.0
  0
LINE
  5
26309
330
747D
100
AcDbEntity
  8
部品1
 48
50.0
100
AcDbLine
 10
7503.600000000007
 20
6797.673595425483
 30
0.0
 11
7303.600000000007
 21
6797.673595425483
 31
0.0
  0
LINE
  5
2630A
330
747D
100
AcDbEntity
  8
センター
 48
2.0
100
AcDbLine
 10
7353.600000000007
 20
6697.673595425484
 30
0.0
 11
7453.600000000007
 21
6697.673595425484
 31
0.0
  0
LINE
  5
2630B
330
747D
100
AcDbEntity
  8
部品1
 48
50.0
100
AcDbLine
 10
7503.600000000007
 20
6597.673595425483
 30
0.0
 11
7303.600000000007
 21
6597.673595425483
 31
0.0
  0
LINE
  5
2630C
330
747D
100
AcDbEntity
  8
部品1
 48
50.0
100
AcDbLine
 10
7303.600000000007
 20
6597.673595425483
 30
0.0
 11
7303.600000000007
 21
6797.673595425483
 31
0.0
  0
LINE
  5
2630D
330
747D
100
AcDbEntity
  8
センター
 48
2.0
100
AcDbLine
 10
7403.600000000007
 20
6747.673595425483
 30
0.0
 11
7403.600000000007
 21
6647.673595425484
 31
0.0
  0
LINE
  5
2630E
330
747D
100
AcDbEntity
  8
部品1
 48
50.0
100
AcDbLine
 10
7503.600000000007
 20
6597.673595425483
 30
0.0
 11
7503.600000000007
 21
6797.673595425483
 31
0.0
  0
LINE
  5
2630F
330
747D
100
AcDbEntity
  8
細線
 48
50.0
100
AcDbLine
 10
6893.600000000006
 20
7159.499965004703
 30
0.0
 11
6911.773630420821
 21
7177.673595425517
 31
0.0
  0
LINE
  5
26310
330
747D
100
AcDbEntity
  8
細線
 48
50.0
100
AcDbLine
 10
7713.600000000008
 20
6979.894842583319
 30
0.0
 11
7911.378752842202
 21
7177.673595425516
 31
0.0
  0
LINE
  5
26311
330
747D
100
AcDbEntity
  8
細線
 48
50.0
100
AcDbLine
 10
7713.600000000008
 20
7024.796123188669
 30
0.0
 11
7866.477472236856
 21
7177.673595425517
 31
0.0
  0
LINE
  5
26312
330
747D
100
AcDbEntity
  8
細線
 48
50.0
100
AcDbLine
 10
7713.600000000008
 20
7069.697403794013
 30
0.0
 11
7821.576191631511
 21
7177.673595425516
 31
0.0
  0
LINE
  5
26313
330
747D
100
AcDbEntity
  8
細線
 48
50.0
100
AcDbLine
 10
7713.600000000008
 20
7114.598684399358
 30
0.0
 11
7776.674911026169
 21
7177.673595425519
 31
0.0
  0
LINE
  5
26314
330
747D
100
AcDbEntity
  8
部品1
 48
50.0
100
AcDbLine
 10
7913.600000000006
 20
7177.673595425516
 30
0.0
 11
7913.600000000009
 21
6977.673595425483
 31
0.0
  0
LINE
  5
26315
330
747D
100
AcDbEntity
  8
部品1
 48
50.0
100
AcDbLine
 10
7713.600000000006
 20
7177.673595425516
 30
0.0
 11
7713.600000000008
 21
6977.673595425483
 31
0.0
  0
LINE
  5
26316
330
747D
100
AcDbEntity
  8
細線
 48
50.0
100
AcDbLine
 10
7801.181314052875
 20
6977.673595425483
 30
0.0
 11
7913.600000000006
 21
7090.09228137263
 31
0.0
  0
LINE
  5
26317
330
747D
100
AcDbEntity
  8
細線
 48
50.0
100
AcDbLine
 10
7756.280033447514
 20
6977.673595425483
 30
0.0
 11
7913.600000000006
 21
7134.993561977974
 31
0.0
  0
LINE
  5
26318
330
747D
100
AcDbEntity
  8
細線
 48
50.0
100
AcDbLine
 10
7890.983875263582
 20
6977.673595425532
 30
0.0
 11
7913.600000000022
 21
7000.289720161969
 31
0.0
  0
LINE
  5
26319
330
747D
100
AcDbEntity
  8
細線
 48
50.0
100
AcDbLine
 10
7846.082594658245
 20
6977.673595425532
 30
0.0
 11
7913.600000000022
 21
7045.191000767307
 31
0.0
  0
LINE
  5
2631A
330
747D
100
AcDbEntity
  8
部品1
 48
50.0
100
AcDbLine
 10
8323.600000000007
 20
6797.673595425483
 30
0.0
 11
8123.600000000008
 21
6797.673595425483
 31
0.0
  0
LINE
  5
2631B
330
747D
100
AcDbEntity
  8
部品1
 48
50.0
100
AcDbLine
 10
8323.600000000007
 20
6597.673595425483
 30
0.0
 11
8123.600000000008
 21
6597.673595425483
 31
0.0
  0
LINE
  5
2631C
330
747D
100
AcDbEntity
  8
センター
 48
2.0
100
AcDbLine
 10
8173.600000000007
 20
6697.673595425484
 30
0.0
 11
8273.600000000007
 21
6697.673595425484
 31
0.0
  0
LINE
  5
2631D
330
747D
100
AcDbEntity
  8
部品1
 48
50.0
100
AcDbLine
 10
8123.600000000008
 20
6597.673595425483
 30
0.0
 11
8123.600000000008
 21
6797.673595425483
 31
0.0
  0
LINE
  5
2631E
330
747D
100
AcDbEntity
  8
センター
 48
2.0
100
AcDbLine
 10
8223.600000000008
 20
6747.673595425483
 30
0.0
 11
8223.600000000008
 21
6647.673595425484
 31
0.0
  0
LINE
  5
2631F
330
747D
100
AcDbEntity
  8
部品1
 48
50.0
100
AcDbLine
 10
8323.600000000007
 20
6597.673595425483
 30
0.0
 11
8323.600000000007
 21
6797.673595425483
 31
0.0
  0
LINE
  5
26320
330
747D
100
AcDbEntity
  8
センター
 48
2.0
100
AcDbLine
 10
8055.600000000001
 20
7054.673595425484
 30
0.0
 11
8155.600000000001
 21
7054.673595425484
 31
0.0
  0
CIRCLE
  5
26321
330
747D
100
AcDbEntity
  8
部品1
 48
50.0
100
AcDbCircle
 10
8105.6
 20
7054.673595425484
 30
0.0
 40
35.0
  0
LINE
  5
26322
330
747D
100
AcDbEntity
  8
センター
 48
2.0
100
AcDbLine
 10
8105.6
 20
7104.673595425484
 30
0.0
 11
8105.6
 21
7004.673595425484
 31
0.0
  0
LINE
  5
26323
330
747D
100
AcDbEntity
  8
細線
 48
50.0
100
AcDbLine
 10
7713.600000000006
 20
7159.499965004703
 30
0.0
 11
7731.773630420821
 21
7177.673595425517
 31
0.0
  0
LINE
  5
26327
102
{ACAD_REACTORS
330
26ADE
102
}
330
747D
100
AcDbEntity
  8
部品1
 48
50.0
100
AcDbLine
 10
12328.6
 20
6217.673595425502
 30
0.0
 11
12328.6
 21
7177.673595425483
 31
0.0
  0
CIRCLE
  5
26341
330
747D
100
AcDbEntity
  8
部品1
 48
50.0
100
AcDbCircle
 10
9745.600000000008
 20
6415.673595425487
 30
0.0
 40
35.0
  0
LINE
  5
26342
330
747D
100
AcDbEntity
  8
センター
 48
2.0
100
AcDbLine
 10
9695.600000000007
 20
6415.673595425487
 30
0.0
 11
9795.600000000007
 21
6415.673595425487
 31
0.0
  0
LINE
  5
26343
330
747D
100
AcDbEntity
  8
センター
 48
2.0
100
AcDbLine
 10
9745.600000000008
 20
6465.673595425487
 30
0.0
 11
9745.600000000008
 21
6365.673595425487
 31
0.0
  0
CIRCLE
  5
2636C
330
747D
100
AcDbEntity
  8
部品1
 48
50.0
100
AcDbCircle
 10
12205.6
 20
6415.673595425487
 30
0.0
 40
35.0
  0
LINE
  5
2636D
330
747D
100
AcDbEntity
  8
センター
 48
2.0
100
AcDbLine
 10
12205.6
 20
6465.673595425487
 30
0.0
 11
12205.6
 21
6365.673595425487
 31
0.0
  0
LINE
  5
2636E
330
747D
100
AcDbEntity
  8
センター
 48
2.0
100
AcDbLine
 10
12155.60000000001
 20
6415.673595425487
 30
0.0
 11
12255.60000000001
 21
6415.673595425487
 31
0.0
  0
DIMENSION
  5
2636F
330
747D
100
AcDbEntity
  8
寸法
 48
50.0
100
AcDbDimension
  2
*D48
 10
9745.600000000001
 20
7903.940053519395
 30
0.0
 11
10975.6
 21
8003.951864543017
 31
0.0
 70
    32
 71
     5
 42
2460.0
  3
INABA_S40G
100
AcDbAlignedDimension
 13
12205.6
 23
7104.673595425484
 33
0.0
 14
9745.600000000001
 24
7104.673595425484
 34
0.0
100
AcDbRotatedDimension
1001
ACAD
1000
DSTYLE
1002
{
1070
   341
1005
0
1002
}
  0
DIMENSION
  5
26370
330
747D
100
AcDbEntity
  8
寸法
 48
50.0
100
AcDbDimension
  2
*D49
 10
11503.6
 20
7660.282412095732
 30
0.0
 11
11916.1
 21
7760.294223119354
 31
0.0
 70
    32
 71
     5
 42
824.9999999999927
  3
INABA_S40G
100
AcDbAlignedDimension
 13
12328.6
 23
7177.673595425483
 33
0.0
 14
11503.6
 24
6747.673595425483
 34
0.0
100
AcDbRotatedDimension
1001
ACAD
1000
DSTYLE
1002
{
1070
   341
1005
0
1002
}
  0
DIMENSION
  5
26371
330
747D
100
AcDbEntity
  8
寸法
 48
50.0
100
AcDbDimension
  2
*D50
 10
9863.600000000008
 20
7660.282412095732
 30
0.0
 11
10273.6
 21
7760.294223119354
 31
0.0
 70
    32
 71
     5
 42
820.0
  3
INABA_S40G
100
AcDbAlignedDimension
 13
10683.60000000001
 23
6747.673595425483
 33
0.0
 14
9863.600000000008
 24
6747.673595425483
 34
0.0
100
AcDbRotatedDimension
1001
ACAD
1000
DSTYLE
1002
{
1070
   341
1005
0
1002
}
  0
DIMENSION
  5
26372
330
747D
100
AcDbEntity
  8
寸法
 48
50.0
100
AcDbDimension
  2
*D51
 10
9043.600000000008
 20
7660.282412095732
 30
0.0
 11
9453.600000000006
 21
7760.294223119354
 31
0.0
 70
    32
 71
     5
 42
820.0
  3
INABA_S40G
100
AcDbAlignedDimension
 13
9863.600000000008
 23
6747.673595425483
 33
0.0
 14
9043.600000000008
 24
6747.673595425483
 34
0.0
100
AcDbRotatedDimension
1001
ACAD
1000
DSTYLE
1002
{
1070
   341
1005
0
1002
}
  0
LINE
  5
26373
330
747D
100
AcDbEntity
  8
細線
 48
50.0
100
AcDbLine
 10
8533.600000000008
 20
6979.894842583319
 30
0.0
 11
8731.378752842202
 21
7177.673595425516
 31
0.0
  0
LINE
  5
26374
330
747D
100
AcDbEntity
  8
細線
 48
50.0
100
AcDbLine
 10
8533.600000000008
 20
7024.796123188666
 30
0.0
 11
8686.477472236857
 21
7177.673595425517
 31
0.0
  0
LINE
  5
26375
330
747D
100
AcDbEntity
  8
細線
 48
50.0
100
AcDbLine
 10
8533.600000000008
 20
7069.697403794013
 30
0.0
 11
8641.576191631509
 21
7177.673595425514
 31
0.0
  0
LINE
  5
26376
330
747D
100
AcDbEntity
  8
細線
 48
50.0
100
AcDbLine
 10
8533.600000000008
 20
7114.59868439936
 30
0.0
 11
8596.674911026164
 21
7177.673595425516
 31
0.0
  0
LINE
  5
26377
330
747D
100
AcDbEntity
  8
部品1
 48
50.0
100
AcDbLine
 10
8733.600000000006
 20
7177.673595425516
 30
0.0
 11
8733.600000000009
 21
6977.673595425483
 31
0.0
  0
LINE
  5
26378
330
747D
100
AcDbEntity
  8
部品1
 48
50.0
100
AcDbLine
 10
8533.600000000005
 20
7177.673595425516
 30
0.0
 11
8533.600000000008
 21
6977.673595425483
 31
0.0
  0
LINE
  5
26379
330
747D
100
AcDbEntity
  8
細線
 48
50.0
100
AcDbLine
 10
8621.181314052877
 20
6977.673595425483
 30
0.0
 11
8733.600000000006
 21
7090.09228137263
 31
0.0
  0
LINE
  5
2637A
330
747D
100
AcDbEntity
  8
細線
 48
50.0
100
AcDbLine
 10
8576.280033447515
 20
6977.673595425483
 30
0.0
 11
8733.600000000006
 21
7134.993561977974
 31
0.0
  0
LINE
  5
2637B
330
747D
100
AcDbEntity
  8
細線
 48
50.0
100
AcDbLine
 10
8666.082594658245
 20
6977.673595425532
 30
0.0
 11
8733.600000000022
 21
7045.191000767307
 31
0.0
  0
LINE
  5
2637C
330
747D
100
AcDbEntity
  8
細線
 48
50.0
100
AcDbLine
 10
8710.983875263583
 20
6977.673595425532
 30
0.0
 11
8733.600000000022
 21
7000.289720161969
 31
0.0
  0
LINE
  5
2637D
330
747D
100
AcDbEntity
  8
部品1
 48
50.0
100
AcDbLine
 10
9143.600000000008
 20
6797.673595425483
 30
0.0
 11
8943.600000000008
 21
6797.673595425483
 31
0.0
  0
LINE
  5
2637E
330
747D
100
AcDbEntity
  8
部品1
 48
50.0
100
AcDbLine
 10
9143.600000000008
 20
6597.673595425483
 30
0.0
 11
8943.600000000008
 21
6597.673595425483
 31
0.0
  0
LINE
  5
2637F
330
747D
100
AcDbEntity
  8
センター
 48
2.0
100
AcDbLine
 10
8993.600000000007
 20
6697.673595425484
 30
0.0
 11
9093.600000000007
 21
6697.673595425484
 31
0.0
  0
LINE
  5
26380
330
747D
100
AcDbEntity
  8
部品1
 48
50.0
100
AcDbLine
 10
8943.600000000008
 20
6597.673595425483
 30
0.0
 11
8943.600000000008
 21
6797.673595425483
 31
0.0
  0
LINE
  5
26381
330
747D
100
AcDbEntity
  8
センター
 48
2.0
100
AcDbLine
 10
9043.600000000008
 20
6747.673595425483
 30
0.0
 11
9043.600000000008
 21
6647.673595425484
 31
0.0
  0
LINE
  5
26382
330
747D
100
AcDbEntity
  8
部品1
 48
50.0
100
AcDbLine
 10
9143.600000000008
 20
6597.673595425483
 30
0.0
 11
9143.600000000008
 21
6797.673595425483
 31
0.0
  0
LINE
  5
26383
330
747D
100
AcDbEntity
  8
細線
 48
50.0
100
AcDbLine
 10
8533.600000000005
 20
7159.499965004703
 30
0.0
 11
8551.77363042082
 21
7177.673595425517
 31
0.0
  0
LINE
  5
26384
330
747D
100
AcDbEntity
  8
細線
 48
50.0
100
AcDbLine
 10
9353.60000000001
 20
6979.894842583324
 30
0.0
 11
9551.378752842202
 21
7177.673595425516
 31
0.0
  0
LINE
  5
26385
330
747D
100
AcDbEntity
  8
細線
 48
50.0
100
AcDbLine
 10
9353.60000000001
 20
7024.796123188669
 30
0.0
 11
9506.477472236857
 21
7177.673595425517
 31
0.0
  0
LINE
  5
26386
330
747D
100
AcDbEntity
  8
細線
 48
50.0
100
AcDbLine
 10
9353.60000000001
 20
7069.697403794013
 30
0.0
 11
9461.576191631513
 21
7177.673595425516
 31
0.0
  0
LINE
  5
26387
330
747D
100
AcDbEntity
  8
細線
 48
50.0
100
AcDbLine
 10
9353.600000000007
 20
7114.598684399358
 30
0.0
 11
9416.674911026168
 21
7177.673595425519
 31
0.0
  0
LINE
  5
26388
330
747D
100
AcDbEntity
  8
部品1
 48
50.0
100
AcDbLine
 10
9353.600000000005
 20
7177.673595425516
 30
0.0
 11
9353.600000000007
 21
6977.673595425483
 31
0.0
  0
LINE
  5
26389
330
747D
100
AcDbEntity
  8
部品1
 48
50.0
100
AcDbLine
 10
9553.600000000004
 20
7177.673595425516
 30
0.0
 11
9553.60000000001
 21
6977.673595425483
 31
0.0
  0
LINE
  5
2638A
330
747D
100
AcDbEntity
  8
細線
 48
50.0
100
AcDbLine
 10
9441.18131405284
 20
6977.673595425482
 30
0.0
 11
9553.600000000004
 21
7090.092281372625
 31
0.0
  0
LINE
  5
2638B
330
747D
100
AcDbEntity
  8
細線
 48
50.0
100
AcDbLine
 10
9396.280033447512
 20
6977.673595425483
 30
0.0
 11
9553.600000000004
 21
7134.993561977971
 31
0.0
  0
LINE
  5
2638C
330
747D
100
AcDbEntity
  8
細線
 48
50.0
100
AcDbLine
 10
9530.983875263581
 20
6977.673595425528
 30
0.0
 11
9553.60000000002
 21
7000.289720161965
 31
0.0
  0
LINE
  5
2638D
330
747D
100
AcDbEntity
  8
細線
 48
50.0
100
AcDbLine
 10
9486.082594658242
 20
6977.673595425528
 30
0.0
 11
9553.60000000002
 21
7045.191000767305
 31
0.0
  0
LINE
  5
2638E
330
747D
100
AcDbEntity
  8
部品1
 48
50.0
100
AcDbLine
 10
9963.600000000008
 20
6797.673595425483
 30
0.0
 11
9763.600000000009
 21
6797.673595425483
 31
0.0
  0
LINE
  5
2638F
330
747D
100
AcDbEntity
  8
センター
 48
2.0
100
AcDbLine
 10
9813.600000000008
 20
6697.673595425484
 30
0.0
 11
9913.600000000009
 21
6697.673595425484
 31
0.0
  0
LINE
  5
26390
330
747D
100
AcDbEntity
  8
部品1
 48
50.0
100
AcDbLine
 10
9963.600000000008
 20
6597.673595425483
 30
0.0
 11
9763.600000000009
 21
6597.673595425483
 31
0.0
  0
LINE
  5
26391
330
747D
100
AcDbEntity
  8
センター
 48
2.0
100
AcDbLine
 10
9863.600000000008
 20
6747.673595425483
 30
0.0
 11
9863.600000000008
 21
6647.673595425484
 31
0.0
  0
LINE
  5
26392
330
747D
100
AcDbEntity
  8
部品1
 48
50.0
100
AcDbLine
 10
9763.600000000009
 20
6597.673595425483
 30
0.0
 11
9763.600000000009
 21
6797.673595425483
 31
0.0
  0
LINE
  5
26393
330
747D
100
AcDbEntity
  8
部品1
 48
50.0
100
AcDbLine
 10
9963.600000000008
 20
6597.673595425483
 30
0.0
 11
9963.600000000008
 21
6797.673595425483
 31
0.0
  0
LINE
  5
26394
330
747D
100
AcDbEntity
  8
センター
 48
2.0
100
AcDbLine
 10
9695.6
 20
7054.673595425484
 30
0.0
 11
9795.6
 21
7054.673595425484
 31
0.0
  0
LINE
  5
26395
330
747D
100
AcDbEntity
  8
センター
 48
2.0
100
AcDbLine
 10
9745.600000000001
 20
7104.673595425484
 30
0.0
 11
9745.600000000001
 21
7004.673595425484
 31
0.0
  0
CIRCLE
  5
26396
330
747D
100
AcDbEntity
  8
部品1
 48
50.0
100
AcDbCircle
 10
9745.600000000001
 20
7054.673595425484
 30
0.0
 40
35.0
  0
LINE
  5
26397
330
747D
100
AcDbEntity
  8
細線
 48
50.0
100
AcDbLine
 10
9353.600000000005
 20
7159.499965004703
 30
0.0
 11
9371.773630420822
 21
7177.673595425517
 31
0.0
  0
DIMENSION
  5
26398
330
747D
100
AcDbEntity
  8
寸法
 48
50.0
100
AcDbDimension
  2
*D52
 10
10683.60000000001
 20
7660.282412095732
 30
0.0
 11
11093.60000000001
 21
7760.294223119354
 31
0.0
 70
    32
 71
     5
 42
820.0
  3
INABA_S40G
100
AcDbAlignedDimension
 13
11503.6
 23
6747.673595425483
 33
0.0
 14
10683.60000000001
 24
6747.673595425483
 34
0.0
100
AcDbRotatedDimension
1001
ACAD
1000
DSTYLE
1002
{
1070
   341
1005
0
1002
}
  0
LINE
  5
26399
330
747D
100
AcDbEntity
  8
細線
 48
50.0
100
AcDbLine
 10
10173.60000000001
 20
6979.89484258332
 30
0.0
 11
10371.3787528422
 21
7177.673595425516
 31
0.0
  0
LINE
  5
2639A
330
747D
100
AcDbEntity
  8
細線
 48
50.0
100
AcDbLine
 10
10173.60000000001
 20
7024.796123188666
 30
0.0
 11
10326.47747223685
 21
7177.673595425517
 31
0.0
  0
LINE
  5
2639B
330
747D
100
AcDbEntity
  8
細線
 48
50.0
100
AcDbLine
 10
10173.6
 20
7069.697403794013
 30
0.0
 11
10281.57619163151
 21
7177.673595425516
 31
0.0
  0
LINE
  5
2639C
330
747D
100
AcDbEntity
  8
細線
 48
50.0
100
AcDbLine
 10
10173.6
 20
7114.598684399355
 30
0.0
 11
10236.67491102616
 21
7177.673595425516
 31
0.0
  0
LINE
  5
2639D
330
747D
100
AcDbEntity
  8
部品1
 48
50.0
100
AcDbLine
 10
10173.6
 20
7177.673595425516
 30
0.0
 11
10173.60000000001
 21
6977.673595425483
 31
0.0
  0
LINE
  5
2639E
330
747D
100
AcDbEntity
  8
部品1
 48
50.0
100
AcDbLine
 10
10373.6
 20
7177.673595425516
 30
0.0
 11
10373.60000000001
 21
6977.673595425483
 31
0.0
  0
LINE
  5
263A1
330
747D
100
AcDbEntity
  8
細線
 48
50.0
100
AcDbLine
 10
10261.18131405286
 20
6977.673595425483
 30
0.0
 11
10373.6
 21
7090.092281372628
 31
0.0
  0
LINE
  5
263A2
330
747D
100
AcDbEntity
  8
細線
 48
50.0
100
AcDbLine
 10
10216.28003344751
 20
6977.673595425483
 30
0.0
 11
10373.6
 21
7134.993561977971
 31
0.0
  0
LINE
  5
263A3
330
747D
100
AcDbEntity
  8
細線
 48
50.0
100
AcDbLine
 10
10306.08259465824
 20
6977.67359542553
 30
0.0
 11
10373.60000000002
 21
7045.191000767307
 31
0.0
  0
LINE
  5
263A4
330
747D
100
AcDbEntity
  8
細線
 48
50.0
100
AcDbLine
 10
10350.98387526358
 20
6977.67359542553
 30
0.0
 11
10373.60000000002
 21
7000.289720161966
 31
0.0
  0
LINE
  5
263A5
330
747D
100
AcDbEntity
  8
部品1
 48
50.0
100
AcDbLine
 10
10783.60000000001
 20
6797.673595425483
 30
0.0
 11
10583.60000000001
 21
6797.673595425483
 31
0.0
  0
LINE
  5
263A6
330
747D
100
AcDbEntity
  8
センター
 48
2.0
100
AcDbLine
 10
10633.6
 20
6697.673595425484
 30
0.0
 11
10733.6
 21
6697.673595425484
 31
0.0
  0
LINE
  5
263A7
330
747D
100
AcDbEntity
  8
部品1
 48
50.0
100
AcDbLine
 10
10783.60000000001
 20
6597.673595425483
 30
0.0
 11
10583.60000000001
 21
6597.673595425483
 31
0.0
  0
LINE
  5
263A8
330
747D
100
AcDbEntity
  8
センター
 48
2.0
100
AcDbLine
 10
10683.60000000001
 20
6747.673595425483
 30
0.0
 11
10683.60000000001
 21
6647.673595425484
 31
0.0
  0
LINE
  5
263A9
330
747D
100
AcDbEntity
  8
部品1
 48
50.0
100
AcDbLine
 10
10583.60000000001
 20
6597.673595425483
 30
0.0
 11
10583.60000000001
 21
6797.673595425483
 31
0.0
  0
LINE
  5
263AA
330
747D
100
AcDbEntity
  8
部品1
 48
50.0
100
AcDbLine
 10
10783.60000000001
 20
6597.673595425483
 30
0.0
 11
10783.60000000001
 21
6797.673595425483
 31
0.0
  0
LINE
  5
263AB
330
747D
100
AcDbEntity
  8
細線
 48
50.0
100
AcDbLine
 10
10173.6
 20
7159.499965004703
 30
0.0
 11
10191.77363042082
 21
7177.673595425517
 31
0.0
  0
LINE
  5
263AC
330
747D
100
AcDbEntity
  8
細線
 48
50.0
100
AcDbLine
 10
10993.6
 20
6979.89484258332
 30
0.0
 11
11191.3787528422
 21
7177.673595425516
 31
0.0
  0
LINE
  5
263AD
330
747D
100
AcDbEntity
  8
細線
 48
50.0
100
AcDbLine
 10
10993.6
 20
7024.796123188666
 30
0.0
 11
11146.47747223685
 21
7177.673595425517
 31
0.0
  0
LINE
  5
263AE
330
747D
100
AcDbEntity
  8
細線
 48
50.0
100
AcDbLine
 10
10993.6
 20
7069.697403794011
 30
0.0
 11
11101.57619163151
 21
7177.673595425516
 31
0.0
  0
LINE
  5
263AF
330
747D
100
AcDbEntity
  8
細線
 48
50.0
100
AcDbLine
 10
10993.6
 20
7114.598684399355
 30
0.0
 11
11056.67491102616
 21
7177.673595425516
 31
0.0
  0
LINE
  5
263B0
330
747D
100
AcDbEntity
  8
部品1
 48
50.0
100
AcDbLine
 10
10993.6
 20
7177.673595425516
 30
0.0
 11
10993.60000000001
 21
6977.673595425483
 31
0.0
  0
LINE
  5
263B1
330
747D
100
AcDbEntity
  8
部品1
 48
50.0
100
AcDbLine
 10
11193.6
 20
7177.673595425516
 30
0.0
 11
11193.60000000001
 21
6977.673595425483
 31
0.0
  0
LINE
  5
263B2
330
747D
100
AcDbEntity
  8
細線
 48
50.0
100
AcDbLine
 10
11081.18131405286
 20
6977.673595425483
 30
0.0
 11
11193.6
 21
7090.092281372628
 31
0.0
  0
LINE
  5
263B3
330
747D
100
AcDbEntity
  8
細線
 48
50.0
100
AcDbLine
 10
11036.28003344752
 20
6977.673595425483
 30
0.0
 11
11193.6
 21
7134.993561977971
 31
0.0
  0
LINE
  5
263B4
330
747D
100
AcDbEntity
  8
細線
 48
50.0
100
AcDbLine
 10
11170.98387526358
 20
6977.67359542553
 30
0.0
 11
11193.60000000002
 21
7000.289720161966
 31
0.0
  0
LINE
  5
263B5
330
747D
100
AcDbEntity
  8
細線
 48
50.0
100
AcDbLine
 10
11126.08259465824
 20
6977.67359542553
 30
0.0
 11
11193.60000000002
 21
7045.191000767307
 31
0.0
  0
LINE
  5
263B6
330
747D
100
AcDbEntity
  8
部品1
 48
50.0
100
AcDbLine
 10
11603.6
 20
6797.673595425483
 30
0.0
 11
11403.60000000001
 21
6797.673595425483
 31
0.0
  0
LINE
  5
263B7
330
747D
100
AcDbEntity
  8
センター
 48
2.0
100
AcDbLine
 10
11453.60000000001
 20
6697.673595425484
 30
0.0
 11
11553.60000000001
 21
6697.673595425484
 31
0.0
  0
LINE
  5
263B8
330
747D
100
AcDbEntity
  8
部品1
 48
50.0
100
AcDbLine
 10
11603.6
 20
6597.673595425483
 30
0.0
 11
11403.60000000001
 21
6597.673595425483
 31
0.0
  0
LINE
  5
263B9
330
747D
100
AcDbEntity
  8
センター
 48
2.0
100
AcDbLine
 10
11503.6
 20
6747.673595425483
 30
0.0
 11
11503.6
 21
6647.673595425484
 31
0.0
  0
LINE
  5
263BA
330
747D
100
AcDbEntity
  8
部品1
 48
50.0
100
AcDbLine
 10
11403.60000000001
 20
6597.673595425483
 30
0.0
 11
11403.60000000001
 21
6797.673595425483
 31
0.0
  0
LINE
  5
263BB
330
747D
100
AcDbEntity
  8
部品1
 48
50.0
100
AcDbLine
 10
11603.6
 20
6597.673595425483
 30
0.0
 11
11603.6
 21
6797.673595425483
 31
0.0
  0
LINE
  5
263BC
330
747D
100
AcDbEntity
  8
細線
 48
50.0
100
AcDbLine
 10
10993.6
 20
7159.499965004703
 30
0.0
 11
11011.77363042082
 21
7177.673595425517
 31
0.0
  0
DIMENSION
  5
263BE
330
747D
100
AcDbEntity
  8
寸法
 48
50.0
100
AcDbDimension
  2
*D53
 10
12205.6
 20
7903.940053519395
 30
0.0
 11
12601.7066017178
 21
7903.940053519395
 31
0.0
 70
   160
 71
     5
 42
123.0
  3
INABA_S40G
100
AcDbAlignedDimension
 13
12328.6
 23
7177.673595425483
 33
0.0
 14
12205.6
 24
7104.673595425484
 34
0.0
100
AcDbRotatedDimension
1001
ACAD
1000
DSTYLE
1002
{
1070
   341
1005
0
1002
}
  0
LINE
  5
263C0
330
747D
100
AcDbEntity
  8
細線
 48
50.0
100
AcDbLine
 10
11813.60000000001
 20
6979.894842583322
 30
0.0
 11
12011.3787528422
 21
7177.673595425516
 31
0.0
  0
LINE
  5
263C1
330
747D
100
AcDbEntity
  8
細線
 48
50.0
100
AcDbLine
 10
11813.60000000001
 20
7024.796123188666
 30
0.0
 11
11966.47747223685
 21
7177.673595425517
 31
0.0
  0
LINE
  5
263C2
330
747D
100
AcDbEntity
  8
細線
 48
50.0
100
AcDbLine
 10
11813.6
 20
7069.697403794013
 30
0.0
 11
11921.57619163151
 21
7177.673595425516
 31
0.0
  0
LINE
  5
263C3
330
747D
100
AcDbEntity
  8
細線
 48
50.0
100
AcDbLine
 10
11813.6
 20
7114.598684399355
 30
0.0
 11
11876.67491102616
 21
7177.673595425516
 31
0.0
  0
LINE
  5
263C4
330
747D
100
AcDbEntity
  8
部品1
 48
50.0
100
AcDbLine
 10
11813.6
 20
7177.673595425516
 30
0.0
 11
11813.60000000001
 21
6977.673595425483
 31
0.0
  0
LINE
  5
263C5
330
747D
100
AcDbEntity
  8
部品1
 48
50.0
100
AcDbLine
 10
12013.6
 20
7177.673595425516
 30
0.0
 11
12013.60000000001
 21
6977.673595425483
 31
0.0
  0
LINE
  5
263C6
330
747D
100
AcDbEntity
  8
細線
 48
50.0
100
AcDbLine
 10
11901.18131405286
 20
6977.673595425483
 30
0.0
 11
12013.6
 21
7090.092281372628
 31
0.0
  0
LINE
  5
263C7
330
747D
100
AcDbEntity
  8
細線
 48
50.0
100
AcDbLine
 10
11856.28003344751
 20
6977.673595425483
 30
0.0
 11
12013.6
 21
7134.993561977971
 31
0.0
  0
LINE
  5
263C8
330
747D
100
AcDbEntity
  8
細線
 48
50.0
100
AcDbLine
 10
11946.08259465824
 20
6977.67359542553
 30
0.0
 11
12013.60000000002
 21
7045.191000767307
 31
0.0
  0
LINE
  5
263C9
330
747D
100
AcDbEntity
  8
細線
 48
50.0
100
AcDbLine
 10
11990.98387526358
 20
6977.67359542553
 30
0.0
 11
12013.60000000002
 21
7000.289720161966
 31
0.0
  0
LINE
  5
263CA
102
{ACAD_REACTORS
330
26ADE
102
}
330
747D
100
AcDbEntity
  8
部品1
 48
50.0
100
AcDbLine
 10
12328.59999999999
 20
6822.673595425527
 30
0.0
 11
12208.6
 21
6822.673595425529
 31
0.0
  0
LINE
  5
263CB
102
{ACAD_REACTORS
330
26ADE
102
}
330
747D
100
AcDbEntity
  8
部品1
 48
50.0
100
AcDbLine
 10
12328.59999999999
 20
6622.673595425528
 30
0.0
 11
12208.6
 21
6622.673595425529
 31
0.0
  0
LINE
  5
263CD
330
747D
100
AcDbEntity
  8
センター
 48
2.0
100
AcDbLine
 10
12155.6
 20
7054.673595425484
 30
0.0
 11
12255.6
 21
7054.673595425484
 31
0.0
  0
CIRCLE
  5
263CE
330
747D
100
AcDbEntity
  8
部品1
 48
50.0
100
AcDbCircle
 10
12205.6
 20
7054.673595425484
 30
0.0
 40
35.0
  0
LINE
  5
263CF
330
747D
100
AcDbEntity
  8
センター
 48
2.0
100
AcDbLine
 10
12205.6
 20
7104.673595425484
 30
0.0
 11
12205.6
 21
7004.673595425484
 31
0.0
  0
LINE
  5
263D0
330
747D
100
AcDbEntity
  8
細線
 48
50.0
100
AcDbLine
 10
11813.6
 20
7159.499965004703
 30
0.0
 11
11831.77363042082
 21
7177.673595425517
 31
0.0
  0
TEXT
  5
26A06
330
747D
100
AcDbEntity
  8
文字
 62
     7
 48
50.0
100
AcDbText
 10
14251.2
 20
838.2527270729188
 30
0.0
 40
100.0
  1
～一般型・多雪地型・豪雪地型～
  7
STYLE2
100
AcDbText
  0
LINE
  5
26A26
330
747D
100
AcDbEntity
  8
部品1
 48
50.0
100
AcDbLine
 10
12208.6
 20
6497.673595425517
 30
0.0
 11
4238.600000000001
 21
6497.673595425474
 31
0.0
  0
LINE
  5
26A27
330
747D
100
AcDbEntity
  8
細線
 48
50.0
100
AcDbLine
 10
5253.599999999946
 20
6441.079475319122
 30
0.0
 11
5310.194120106292
 21
6497.673595425478
 31
0.0
  0
LINE
  5
26A28
330
747D
100
AcDbEntity
  8
細線
 48
50.0
100
AcDbLine
 10
5253.599999999946
 20
6396.17819471378
 30
0.0
 11
5355.095400711647
 21
6497.673595425478
 31
0.0
  0
LINE
  5
26A29
330
747D
100
AcDbEntity
  8
細線
 48
50.0
100
AcDbLine
 10
5253.600000000005
 20
6351.276914108467
 30
0.0
 11
5399.996681317016
 21
6497.673595425478
 31
0.0
  0
LINE
  5
26A2A
330
747D
100
AcDbEntity
  8
細線
 48
50.0
100
AcDbLine
 10
5253.600000000005
 20
6306.375633503122
 30
0.0
 11
5444.897961922363
 21
6497.673595425478
 31
0.0
  0
LINE
  5
26A2B
330
747D
100
AcDbEntity
  8
細線
 48
50.0
100
AcDbLine
 10
5434.305645554468
 20
6217.673595425509
 30
0.0
 11
5453.600000000009
 21
6236.967949871051
 31
0.0
  0
LINE
  5
26A2C
330
747D
100
AcDbEntity
  8
部品1
 48
50.0
100
AcDbLine
 10
5453.600000000005
 20
6497.673595425478
 30
0.0
 11
5453.600000000009
 21
6217.673595425507
 31
0.0
  0
LINE
  5
26A2D
330
747D
100
AcDbEntity
  8
部品1
 48
50.0
100
AcDbLine
 10
5253.600000000004
 20
6497.673595425474
 30
0.0
 11
5253.600000000009
 21
6217.673595425504
 31
0.0
  0
LINE
  5
26A2E
330
747D
100
AcDbEntity
  8
細線
 48
50.0
100
AcDbLine
 10
5253.600000000008
 20
6261.474352897778
 30
0.0
 11
5453.600000000005
 21
6461.474352897773
 31
0.0
  0
LINE
  5
26A2F
330
747D
100
AcDbEntity
  8
細線
 48
50.0
100
AcDbLine
 10
5254.700523133082
 20
6217.673595425504
 30
0.0
 11
5453.600000000005
 21
6416.573072292428
 31
0.0
  0
LINE
  5
26A30
330
747D
100
AcDbEntity
  8
細線
 48
50.0
100
AcDbLine
 10
5299.601803738429
 20
6217.673595425506
 30
0.0
 11
5453.600000000005
 21
6371.671791687084
 31
0.0
  0
LINE
  5
26A31
330
747D
100
AcDbEntity
  8
細線
 48
50.0
100
AcDbLine
 10
5344.503084343774
 20
6217.673595425505
 30
0.0
 11
5453.600000000005
 21
6326.770511081739
 31
0.0
  0
LINE
  5
26A32
330
747D
100
AcDbEntity
  8
細線
 48
50.0
100
AcDbLine
 10
5389.404364949122
 20
6217.673595425507
 30
0.0
 11
5453.600000000009
 21
6281.869230476395
 31
0.0
  0
LINE
  5
26A33
330
747D
100
AcDbEntity
  8
細線
 48
50.0
100
AcDbLine
 10
6209.404364949122
 20
6217.673595425507
 30
0.0
 11
6273.60000000001
 21
6281.869230476395
 31
0.0
  0
LINE
  5
26A34
330
747D
100
AcDbEntity
  8
細線
 48
50.0
100
AcDbLine
 10
6164.503084343775
 20
6217.673595425505
 30
0.0
 11
6273.600000000007
 21
6326.770511081739
 31
0.0
  0
LINE
  5
26A35
330
747D
100
AcDbEntity
  8
細線
 48
50.0
100
AcDbLine
 10
6119.60180373843
 20
6217.673595425506
 30
0.0
 11
6273.600000000005
 21
6371.671791687084
 31
0.0
  0
LINE
  5
26A36
330
747D
100
AcDbEntity
  8
細線
 48
50.0
100
AcDbLine
 10
6074.700523133083
 20
6217.673595425504
 30
0.0
 11
6273.600000000005
 21
6416.573072292428
 31
0.0
  0
LINE
  5
26A37
330
747D
100
AcDbEntity
  8
細線
 48
50.0
100
AcDbLine
 10
6073.600000000009
 20
6261.474352897778
 30
0.0
 11
6273.600000000005
 21
6461.474352897773
 31
0.0
  0
LINE
  5
26A38
330
747D
100
AcDbEntity
  8
部品1
 48
50.0
100
AcDbLine
 10
6073.600000000005
 20
6497.673595425474
 30
0.0
 11
6073.60000000001
 21
6217.673595425504
 31
0.0
  0
LINE
  5
26A39
330
747D
100
AcDbEntity
  8
部品1
 48
50.0
100
AcDbLine
 10
6273.600000000005
 20
6497.673595425478
 30
0.0
 11
6273.60000000001
 21
6217.673595425507
 31
0.0
  0
LINE
  5
26A3A
330
747D
100
AcDbEntity
  8
細線
 48
50.0
100
AcDbLine
 10
6254.305645554469
 20
6217.673595425509
 30
0.0
 11
6273.60000000001
 21
6236.967949871051
 31
0.0
  0
LINE
  5
26A3B
330
747D
100
AcDbEntity
  8
細線
 48
50.0
100
AcDbLine
 10
6073.600000000006
 20
6306.375633503122
 30
0.0
 11
6264.897961922364
 21
6497.673595425478
 31
0.0
  0
LINE
  5
26A3C
330
747D
100
AcDbEntity
  8
細線
 48
50.0
100
AcDbLine
 10
6073.600000000006
 20
6351.276914108467
 30
0.0
 11
6219.996681317017
 21
6497.673595425478
 31
0.0
  0
LINE
  5
26A3D
330
747D
100
AcDbEntity
  8
細線
 48
50.0
100
AcDbLine
 10
6073.599999999947
 20
6396.17819471378
 30
0.0
 11
6175.095400711648
 21
6497.673595425478
 31
0.0
  0
LINE
  5
26A3E
330
747D
100
AcDbEntity
  8
細線
 48
50.0
100
AcDbLine
 10
6073.599999999947
 20
6441.079475319122
 30
0.0
 11
6130.194120106294
 21
6497.673595425478
 31
0.0
  0
LINE
  5
26A3F
330
747D
100
AcDbEntity
  8
細線
 48
50.0
100
AcDbLine
 10
7713.599999999948
 20
6441.079475319122
 30
0.0
 11
7770.194120106295
 21
6497.673595425478
 31
0.0
  0
LINE
  5
26A40
330
747D
100
AcDbEntity
  8
細線
 48
50.0
100
AcDbLine
 10
7713.599999999948
 20
6396.17819471378
 30
0.0
 11
7815.095400711649
 21
6497.673595425478
 31
0.0
  0
LINE
  5
26A41
330
747D
100
AcDbEntity
  8
細線
 48
50.0
100
AcDbLine
 10
7713.600000000008
 20
6351.276914108467
 30
0.0
 11
7859.996681317018
 21
6497.673595425478
 31
0.0
  0
LINE
  5
26A42
330
747D
100
AcDbEntity
  8
細線
 48
50.0
100
AcDbLine
 10
7713.600000000008
 20
6306.375633503122
 30
0.0
 11
7904.897961922365
 21
6497.673595425478
 31
0.0
  0
LINE
  5
26A43
330
747D
100
AcDbEntity
  8
細線
 48
50.0
100
AcDbLine
 10
7894.305645554471
 20
6217.673595425509
 30
0.0
 11
7913.600000000013
 21
6236.967949871051
 31
0.0
  0
LINE
  5
26A44
330
747D
100
AcDbEntity
  8
部品1
 48
50.0
100
AcDbLine
 10
7913.600000000006
 20
6497.673595425478
 30
0.0
 11
7913.600000000013
 21
6217.673595425507
 31
0.0
  0
LINE
  5
26A45
330
747D
100
AcDbEntity
  8
部品1
 48
50.0
100
AcDbLine
 10
7713.600000000006
 20
6497.673595425474
 30
0.0
 11
7713.600000000012
 21
6217.673595425504
 31
0.0
  0
LINE
  5
26A46
330
747D
100
AcDbEntity
  8
細線
 48
50.0
100
AcDbLine
 10
7713.600000000011
 20
6261.474352897778
 30
0.0
 11
7913.600000000006
 21
6461.474352897773
 31
0.0
  0
LINE
  5
26A47
330
747D
100
AcDbEntity
  8
細線
 48
50.0
100
AcDbLine
 10
7714.700523133085
 20
6217.673595425504
 30
0.0
 11
7913.600000000006
 21
6416.573072292428
 31
0.0
  0
LINE
  5
26A48
330
747D
100
AcDbEntity
  8
細線
 48
50.0
100
AcDbLine
 10
7759.601803738433
 20
6217.673595425506
 30
0.0
 11
7913.600000000006
 21
6371.671791687084
 31
0.0
  0
LINE
  5
26A49
330
747D
100
AcDbEntity
  8
細線
 48
50.0
100
AcDbLine
 10
7804.503084343777
 20
6217.673595425505
 30
0.0
 11
7913.600000000008
 21
6326.770511081739
 31
0.0
  0
LINE
  5
26A4A
330
747D
100
AcDbEntity
  8
細線
 48
50.0
100
AcDbLine
 10
7849.404364949124
 20
6217.673595425507
 30
0.0
 11
7913.600000000013
 21
6281.869230476395
 31
0.0
  0
LINE
  5
26A4B
330
747D
100
AcDbEntity
  8
細線
 48
50.0
100
AcDbLine
 10
7029.404364949122
 20
6217.673595425507
 30
0.0
 11
7093.600000000012
 21
6281.869230476395
 31
0.0
  0
LINE
  5
26A4C
330
747D
100
AcDbEntity
  8
細線
 48
50.0
100
AcDbLine
 10
6984.503084343777
 20
6217.673595425505
 30
0.0
 11
7093.600000000008
 21
6326.770511081739
 31
0.0
  0
LINE
  5
26A4D
330
747D
100
AcDbEntity
  8
細線
 48
50.0
100
AcDbLine
 10
6939.601803738431
 20
6217.673595425506
 30
0.0
 11
7093.600000000006
 21
6371.671791687084
 31
0.0
  0
LINE
  5
26A4E
330
747D
100
AcDbEntity
  8
細線
 48
50.0
100
AcDbLine
 10
6894.700523133085
 20
6217.673595425504
 30
0.0
 11
7093.600000000006
 21
6416.573072292428
 31
0.0
  0
LINE
  5
26A4F
330
747D
100
AcDbEntity
  8
細線
 48
50.0
100
AcDbLine
 10
6893.600000000009
 20
6261.474352897778
 30
0.0
 11
7093.600000000006
 21
6461.474352897773
 31
0.0
  0
LINE
  5
26A50
330
747D
100
AcDbEntity
  8
部品1
 48
50.0
100
AcDbLine
 10
6893.600000000006
 20
6497.673595425474
 30
0.0
 11
6893.600000000012
 21
6217.673595425504
 31
0.0
  0
LINE
  5
26A51
330
747D
100
AcDbEntity
  8
部品1
 48
50.0
100
AcDbLine
 10
7093.600000000006
 20
6497.673595425478
 30
0.0
 11
7093.600000000012
 21
6217.673595425507
 31
0.0
  0
LINE
  5
26A52
330
747D
100
AcDbEntity
  8
細線
 48
50.0
100
AcDbLine
 10
7074.305645554471
 20
6217.673595425509
 30
0.0
 11
7093.600000000012
 21
6236.967949871051
 31
0.0
  0
LINE
  5
26A53
330
747D
100
AcDbEntity
  8
細線
 48
50.0
100
AcDbLine
 10
6893.600000000008
 20
6306.375633503122
 30
0.0
 11
7084.897961922364
 21
6497.673595425478
 31
0.0
  0
LINE
  5
26A54
330
747D
100
AcDbEntity
  8
細線
 48
50.0
100
AcDbLine
 10
6893.600000000008
 20
6351.276914108467
 30
0.0
 11
7039.996681317018
 21
6497.673595425478
 31
0.0
  0
LINE
  5
26A55
330
747D
100
AcDbEntity
  8
細線
 48
50.0
100
AcDbLine
 10
6893.599999999948
 20
6396.17819471378
 30
0.0
 11
6995.095400711649
 21
6497.673595425478
 31
0.0
  0
LINE
  5
26A56
330
747D
100
AcDbEntity
  8
細線
 48
50.0
100
AcDbLine
 10
6893.599999999948
 20
6441.079475319122
 30
0.0
 11
6950.194120106295
 21
6497.673595425478
 31
0.0
  0
LINE
  5
26A57
330
747D
100
AcDbEntity
  8
細線
 48
50.0
100
AcDbLine
 10
8669.404364949125
 20
6215.452348267671
 30
0.0
 11
8733.600000000013
 21
6279.647983318558
 31
0.0
  0
LINE
  5
26A58
330
747D
100
AcDbEntity
  8
細線
 48
50.0
100
AcDbLine
 10
8624.503084343778
 20
6215.452348267669
 30
0.0
 11
8733.600000000009
 21
6324.549263923903
 31
0.0
  0
LINE
  5
26A59
330
747D
100
AcDbEntity
  8
細線
 48
50.0
100
AcDbLine
 10
8579.601803738432
 20
6215.452348267671
 30
0.0
 11
8733.600000000006
 21
6369.450544529247
 31
0.0
  0
LINE
  5
26A5A
330
747D
100
AcDbEntity
  8
細線
 48
50.0
100
AcDbLine
 10
8534.700523133084
 20
6215.452348267668
 30
0.0
 11
8733.600000000006
 21
6414.351825134592
 31
0.0
  0
LINE
  5
26A5B
330
747D
100
AcDbEntity
  8
細線
 48
50.0
100
AcDbLine
 10
8533.60000000001
 20
6259.253105739942
 30
0.0
 11
8733.600000000006
 21
6459.253105739937
 31
0.0
  0
LINE
  5
26A5C
330
747D
100
AcDbEntity
  8
部品1
 48
50.0
100
AcDbLine
 10
8533.600000000005
 20
6495.452348267639
 30
0.0
 11
8533.600000000012
 21
6215.452348267668
 31
0.0
  0
LINE
  5
26A5D
330
747D
100
AcDbEntity
  8
部品1
 48
50.0
100
AcDbLine
 10
8733.600000000006
 20
6495.452348267642
 30
0.0
 11
8733.600000000013
 21
6215.452348267671
 31
0.0
  0
LINE
  5
26A5E
330
747D
100
AcDbEntity
  8
細線
 48
50.0
100
AcDbLine
 10
8714.305645554473
 20
6215.452348267673
 30
0.0
 11
8733.600000000013
 21
6234.746702713215
 31
0.0
  0
LINE
  5
26A5F
330
747D
100
AcDbEntity
  8
細線
 48
50.0
100
AcDbLine
 10
8533.60000000001
 20
6304.154386345286
 30
0.0
 11
8724.897961922364
 21
6495.452348267642
 31
0.0
  0
LINE
  5
26A60
330
747D
100
AcDbEntity
  8
細線
 48
50.0
100
AcDbLine
 10
8533.60000000001
 20
6349.05566695063
 30
0.0
 11
8679.996681317017
 21
6495.452348267642
 31
0.0
  0
LINE
  5
26A61
330
747D
100
AcDbEntity
  8
細線
 48
50.0
100
AcDbLine
 10
8533.599999999948
 20
6393.956947555944
 30
0.0
 11
8635.095400711648
 21
6495.452348267642
 31
0.0
  0
LINE
  5
26A62
330
747D
100
AcDbEntity
  8
細線
 48
50.0
100
AcDbLine
 10
8533.599999999948
 20
6438.858228161286
 30
0.0
 11
8590.194120106295
 21
6495.452348267642
 31
0.0
  0
LINE
  5
26A63
330
747D
100
AcDbEntity
  8
細線
 48
50.0
100
AcDbLine
 10
10173.59999999994
 20
6438.858228161286
 30
0.0
 11
10230.19412010629
 21
6495.452348267642
 31
0.0
  0
LINE
  5
26A64
330
747D
100
AcDbEntity
  8
細線
 48
50.0
100
AcDbLine
 10
10173.59999999994
 20
6393.956947555944
 30
0.0
 11
10275.09540071165
 21
6495.452348267642
 31
0.0
  0
LINE
  5
26A65
330
747D
100
AcDbEntity
  8
細線
 48
50.0
100
AcDbLine
 10
10173.60000000001
 20
6349.05566695063
 30
0.0
 11
10319.99668131702
 21
6495.452348267642
 31
0.0
  0
LINE
  5
26A66
330
747D
100
AcDbEntity
  8
細線
 48
50.0
100
AcDbLine
 10
10173.60000000001
 20
6304.154386345286
 30
0.0
 11
10364.89796192236
 21
6495.452348267642
 31
0.0
  0
LINE
  5
26A67
330
747D
100
AcDbEntity
  8
細線
 48
50.0
100
AcDbLine
 10
10354.30564555447
 20
6215.452348267673
 30
0.0
 11
10373.60000000001
 21
6234.746702713215
 31
0.0
  0
LINE
  5
26A68
330
747D
100
AcDbEntity
  8
部品1
 48
50.0
100
AcDbLine
 10
10373.6
 20
6495.452348267642
 30
0.0
 11
10373.60000000001
 21
6215.452348267671
 31
0.0
  0
LINE
  5
26A69
330
747D
100
AcDbEntity
  8
部品1
 48
50.0
100
AcDbLine
 10
10173.6
 20
6495.452348267639
 30
0.0
 11
10173.60000000001
 21
6215.452348267668
 31
0.0
  0
LINE
  5
26A6A
330
747D
100
AcDbEntity
  8
細線
 48
50.0
100
AcDbLine
 10
10173.60000000001
 20
6259.253105739942
 30
0.0
 11
10373.6
 21
6459.253105739937
 31
0.0
  0
LINE
  5
26A6B
330
747D
100
AcDbEntity
  8
細線
 48
50.0
100
AcDbLine
 10
10174.70052313308
 20
6215.452348267668
 30
0.0
 11
10373.6
 21
6414.351825134592
 31
0.0
  0
LINE
  5
26A6C
330
747D
100
AcDbEntity
  8
細線
 48
50.0
100
AcDbLine
 10
10219.60180373843
 20
6215.452348267671
 30
0.0
 11
10373.6
 21
6369.450544529247
 31
0.0
  0
LINE
  5
26A6D
330
747D
100
AcDbEntity
  8
細線
 48
50.0
100
AcDbLine
 10
10264.50308434378
 20
6215.452348267669
 30
0.0
 11
10373.60000000001
 21
6324.549263923903
 31
0.0
  0
LINE
  5
26A6E
330
747D
100
AcDbEntity
  8
細線
 48
50.0
100
AcDbLine
 10
10309.40436494912
 20
6215.452348267671
 30
0.0
 11
10373.60000000001
 21
6279.647983318558
 31
0.0
  0
LINE
  5
26A6F
330
747D
100
AcDbEntity
  8
細線
 48
50.0
100
AcDbLine
 10
9489.404364949125
 20
6217.673595425507
 30
0.0
 11
9553.600000000013
 21
6281.869230476395
 31
0.0
  0
LINE
  5
26A70
330
747D
100
AcDbEntity
  8
細線
 48
50.0
100
AcDbLine
 10
9444.503084343777
 20
6217.673595425505
 30
0.0
 11
9553.60000000001
 21
6326.770511081739
 31
0.0
  0
LINE
  5
26A71
330
747D
100
AcDbEntity
  8
細線
 48
50.0
100
AcDbLine
 10
9399.601803738432
 20
6217.673595425506
 30
0.0
 11
9553.600000000006
 21
6371.671791687084
 31
0.0
  0
LINE
  5
26A72
330
747D
100
AcDbEntity
  8
細線
 48
50.0
100
AcDbLine
 10
9354.700523133084
 20
6217.673595425504
 30
0.0
 11
9553.600000000006
 21
6416.573072292428
 31
0.0
  0
LINE
  5
26A73
330
747D
100
AcDbEntity
  8
細線
 48
50.0
100
AcDbLine
 10
9353.60000000001
 20
6261.474352897778
 30
0.0
 11
9553.600000000006
 21
6461.474352897773
 31
0.0
  0
LINE
  5
26A74
330
747D
100
AcDbEntity
  8
部品1
 48
50.0
100
AcDbLine
 10
9353.600000000005
 20
6497.673595425474
 30
0.0
 11
9353.600000000012
 21
6217.673595425504
 31
0.0
  0
LINE
  5
26A75
330
747D
100
AcDbEntity
  8
部品1
 48
50.0
100
AcDbLine
 10
9553.600000000006
 20
6497.673595425478
 30
0.0
 11
9553.600000000013
 21
6217.673595425507
 31
0.0
  0
LINE
  5
26A76
330
747D
100
AcDbEntity
  8
細線
 48
50.0
100
AcDbLine
 10
9534.305645554473
 20
6217.673595425509
 30
0.0
 11
9553.600000000013
 21
6236.967949871051
 31
0.0
  0
LINE
  5
26A77
330
747D
100
AcDbEntity
  8
細線
 48
50.0
100
AcDbLine
 10
9353.60000000001
 20
6306.375633503122
 30
0.0
 11
9544.897961922364
 21
6497.673595425478
 31
0.0
  0
LINE
  5
26A78
330
747D
100
AcDbEntity
  8
細線
 48
50.0
100
AcDbLine
 10
9353.60000000001
 20
6351.276914108467
 30
0.0
 11
9499.996681317018
 21
6497.673595425478
 31
0.0
  0
LINE
  5
26A79
330
747D
100
AcDbEntity
  8
細線
 48
50.0
100
AcDbLine
 10
9353.599999999948
 20
6396.17819471378
 30
0.0
 11
9455.095400711648
 21
6497.673595425478
 31
0.0
  0
LINE
  5
26A7A
330
747D
100
AcDbEntity
  8
細線
 48
50.0
100
AcDbLine
 10
9353.599999999948
 20
6441.079475319122
 30
0.0
 11
9410.194120106295
 21
6497.673595425478
 31
0.0
  0
LINE
  5
26A7B
330
747D
100
AcDbEntity
  8
細線
 48
50.0
100
AcDbLine
 10
10993.59999999995
 20
6441.079475319122
 30
0.0
 11
11050.1941201063
 21
6497.673595425478
 31
0.0
  0
LINE
  5
26A7C
330
747D
100
AcDbEntity
  8
細線
 48
50.0
100
AcDbLine
 10
10993.59999999995
 20
6396.17819471378
 30
0.0
 11
11095.09540071165
 21
6497.673595425478
 31
0.0
  0
LINE
  5
26A7D
330
747D
100
AcDbEntity
  8
細線
 48
50.0
100
AcDbLine
 10
10993.60000000001
 20
6351.276914108467
 30
0.0
 11
11139.99668131702
 21
6497.673595425478
 31
0.0
  0
LINE
  5
26A7E
330
747D
100
AcDbEntity
  8
細線
 48
50.0
100
AcDbLine
 10
10993.60000000001
 20
6306.375633503122
 30
0.0
 11
11184.89796192237
 21
6497.673595425478
 31
0.0
  0
LINE
  5
26A7F
330
747D
100
AcDbEntity
  8
細線
 48
50.0
100
AcDbLine
 10
11174.30564555447
 20
6217.673595425509
 30
0.0
 11
11193.60000000001
 21
6236.967949871051
 31
0.0
  0
LINE
  5
26A80
330
747D
100
AcDbEntity
  8
部品1
 48
50.0
100
AcDbLine
 10
11193.60000000001
 20
6497.673595425478
 30
0.0
 11
11193.60000000001
 21
6217.673595425507
 31
0.0
  0
LINE
  5
26A81
330
747D
100
AcDbEntity
  8
部品1
 48
50.0
100
AcDbLine
 10
10993.60000000001
 20
6497.673595425474
 30
0.0
 11
10993.60000000001
 21
6217.673595425504
 31
0.0
  0
LINE
  5
26A82
330
747D
100
AcDbEntity
  8
細線
 48
50.0
100
AcDbLine
 10
10993.60000000001
 20
6261.474352897778
 30
0.0
 11
11193.60000000001
 21
6461.474352897773
 31
0.0
  0
LINE
  5
26A83
330
747D
100
AcDbEntity
  8
細線
 48
50.0
100
AcDbLine
 10
10994.70052313308
 20
6217.673595425504
 30
0.0
 11
11193.60000000001
 21
6416.573072292428
 31
0.0
  0
LINE
  5
26A84
330
747D
100
AcDbEntity
  8
細線
 48
50.0
100
AcDbLine
 10
11039.60180373843
 20
6217.673595425506
 30
0.0
 11
11193.60000000001
 21
6371.671791687084
 31
0.0
  0
LINE
  5
26A85
330
747D
100
AcDbEntity
  8
細線
 48
50.0
100
AcDbLine
 10
11084.50308434378
 20
6217.673595425505
 30
0.0
 11
11193.60000000001
 21
6326.770511081739
 31
0.0
  0
LINE
  5
26A86
330
747D
100
AcDbEntity
  8
細線
 48
50.0
100
AcDbLine
 10
11129.40436494913
 20
6217.673595425507
 30
0.0
 11
11193.60000000001
 21
6281.869230476395
 31
0.0
  0
LINE
  5
26A87
330
747D
100
AcDbEntity
  8
細線
 48
50.0
100
AcDbLine
 10
11949.40436494913
 20
6215.452348267671
 30
0.0
 11
12013.60000000001
 21
6279.647983318558
 31
0.0
  0
LINE
  5
26A88
330
747D
100
AcDbEntity
  8
細線
 48
50.0
100
AcDbLine
 10
11904.50308434378
 20
6215.452348267669
 30
0.0
 11
12013.60000000001
 21
6324.549263923903
 31
0.0
  0
LINE
  5
26A89
330
747D
100
AcDbEntity
  8
細線
 48
50.0
100
AcDbLine
 10
11859.60180373843
 20
6215.452348267671
 30
0.0
 11
12013.60000000001
 21
6369.450544529247
 31
0.0
  0
LINE
  5
26A8A
330
747D
100
AcDbEntity
  8
細線
 48
50.0
100
AcDbLine
 10
11814.70052313309
 20
6215.452348267668
 30
0.0
 11
12013.60000000001
 21
6414.351825134592
 31
0.0
  0
LINE
  5
26A8B
330
747D
100
AcDbEntity
  8
細線
 48
50.0
100
AcDbLine
 10
11813.60000000001
 20
6259.253105739942
 30
0.0
 11
12013.60000000001
 21
6459.253105739937
 31
0.0
  0
LINE
  5
26A8C
330
747D
100
AcDbEntity
  8
部品1
 48
50.0
100
AcDbLine
 10
11813.60000000001
 20
6495.452348267639
 30
0.0
 11
11813.60000000001
 21
6215.452348267668
 31
0.0
  0
LINE
  5
26A8D
330
747D
100
AcDbEntity
  8
部品1
 48
50.0
100
AcDbLine
 10
12013.60000000001
 20
6495.452348267642
 30
0.0
 11
12013.60000000001
 21
6215.452348267671
 31
0.0
  0
LINE
  5
26A8E
330
747D
100
AcDbEntity
  8
細線
 48
50.0
100
AcDbLine
 10
11994.30564555447
 20
6215.452348267673
 30
0.0
 11
12013.60000000001
 21
6234.746702713215
 31
0.0
  0
LINE
  5
26A8F
330
747D
100
AcDbEntity
  8
細線
 48
50.0
100
AcDbLine
 10
11813.60000000001
 20
6304.154386345286
 30
0.0
 11
12004.89796192237
 21
6495.452348267642
 31
0.0
  0
LINE
  5
26A90
330
747D
100
AcDbEntity
  8
細線
 48
50.0
100
AcDbLine
 10
11813.60000000001
 20
6349.05566695063
 30
0.0
 11
11959.99668131702
 21
6495.452348267642
 31
0.0
  0
LINE
  5
26A91
330
747D
100
AcDbEntity
  8
細線
 48
50.0
100
AcDbLine
 10
11813.59999999995
 20
6393.956947555944
 30
0.0
 11
11915.09540071165
 21
6495.452348267642
 31
0.0
  0
LINE
  5
26A92
330
747D
100
AcDbEntity
  8
細線
 48
50.0
100
AcDbLine
 10
11813.59999999995
 20
6438.858228161286
 30
0.0
 11
11870.1941201063
 21
6495.452348267642
 31
0.0
  0
LINE
  5
26AB1
102
{ACAD_REACTORS
330
26ADE
102
}
330
747D
100
AcDbEntity
  8
部品1
 48
50.0
100
AcDbLine
 10
12208.6
 20
6497.673595425517
 30
0.0
 11
12208.6
 21
6977.673595425482
 31
0.0
  0
LINE
  5
26AB2
102
{ACAD_REACTORS
330
26AD0
102
}
330
747D
100
AcDbEntity
  8
部品1
 48
50.0
100
AcDbLine
 10
4238.6
 20
6497.673595425474
 30
0.0
 11
4238.599999999995
 21
6977.673595425482
 31
0.0
  0
HATCH
  5
26AD0
330
747D
100
AcDbEntity
  8
細線
 48
50.0
100
AcDbHatch
 10
0.0
 20
0.0
 30
0.0
210
0.0
220
0.0
230
1.0
  2
LINE
 70
     0
 71
     1
 91
        1
 92
        7
 72
     0
 73
     1
 93
        4
 10
4238.599999999997
 20
6822.673595425526
 10
4118.6
 20
6822.673595425527
 10
4118.600000000001
 20
6622.673595425528
 10
4238.599999999999
 20
6622.673595425529
 97
        4
330
262BD
330
26265
330
262BE
330
26AB2
 75
     0
 76
     1
 52
45.0
 41
10.0
 77
     0
 78
     1
 53
45.0
 43
0.0
 44
0.0
 45
-22.45064030267288
 46
22.45064030267288
 79
     0
 47
6.617229347151422
 98
        1
 10
4199.059713516275
 20
6753.049223183636
  0
HATCH
  5
26ADE
330
747D
100
AcDbEntity
  8
細線
 48
50.0
100
AcDbHatch
 10
0.0
 20
0.0
 30
0.0
210
0.0
220
0.0
230
1.0
  2
LINE
 70
     0
 71
     1
 91
        1
 92
        7
 72
     0
 73
     1
 93
        4
 10
12328.6
 20
6822.673595425526
 10
12208.6
 20
6822.673595425529
 10
12208.6
 20
6622.673595425529
 10
12328.6
 20
6622.673595425526
 97
        4
330
263CA
330
26AB1
330
263CB
330
26327
 75
     0
 76
     1
 52
45.0
 41
10.0
 77
     0
 78
     1
 53
45.0
 43
0.0
 44
0.0
 45
-22.45064030267288
 46
22.45064030267288
 79
     0
 47
2.027997194079557
 98
        1
 10
12289.27503383234
 20
6697.728133108576
  0
LINE
  5
26C6C
330
747D
100
AcDbEntity
  8
部品1
100
AcDbLine
 10
11367.22490552627
 20
3323.811371192103
 30
0.0
 11
5296.239720140016
 21
3323.811371192103
 31
0.0
  0
LINE
  5
26C6D
330
747D
100
AcDbEntity
  8
部品1
100
AcDbLine
 10
11367.22490552626
 20
3083.811371192102
 30
0.0
 11
5296.23972014002
 21
3083.811371192102
 31
0.0
  0
LINE
  5
26C6E
330
747D
100
AcDbEntity
  8
部品1
100
AcDbLine
 10
5296.239720140022
 20
359.5044016074562
 30
0.0
 11
11367.22490552626
 21
359.5044016074562
 31
0.0
  0
LEADER
  5
26C6F
330
747D
100
AcDbEntity
  8
寸法
 48
50.0
100
AcDbLeader
  3
INABA_S50G
 73
     0
 74
     0
 75
     1
 40
102.2727272727273
 41
680.0000000000001
 76
     3
 10
8304.347472126476
 20
2323.347985100661
 30
0.0
 10
8338.701443239832
 20
2733.800796207202
 30
0.0
 10
8463.701443239832
 20
2733.800796207202
 30
0.0
340
26C70
1001
ACAD
1000
DSTYLE
1002
{
1070
   341
1005
0
1070
    40
1040
1.0
1070
   343
1005
0
1070
   344
1005
0
1002
}
  0
MTEXT
  5
26C70
102
{ACAD_REACTORS
330
26C6F
102
}
330
747D
100
AcDbEntity
  8
部品1
 62
     7
 48
50.0
100
AcDbMText
 10
8488.701443239831
 20
2809.937159843565
 30
0.0
 40
80.0
 41
0.8
 71
     4
 72
     1
  1
\A1;ナット(市販品)
  7
STYLE2
 73
     1
 44
1.0
1001
ACAD
1000
MTEXTBEGIN
1070
    73
1070
     1
1070
    44
1040
1.0
1070
    74
1070
     0
1000
MTEXTEND
  0
LEADER
  5
26C71
330
747D
100
AcDbEntity
  8
寸法
 48
50.0
100
AcDbLeader
  3
INABA_S50G
 73
     0
 74
     0
 75
     1
 40
102.2727272727273
 41
906.8181818181818
 76
     3
 10
8328.347472126475
 20
2193.595992435798
 30
0.0
 10
8370.219062495314
 20
2548.831713442414
 30
0.0
 10
8495.219062495314
 20
2548.831713442414
 30
0.0
340
26C72
1001
ACAD
1000
DSTYLE
1002
{
1070
   341
1005
0
1070
    40
1040
1.0
1070
   343
1005
0
1070
   344
1005
0
1002
}
  0
MTEXT
  5
26C72
102
{ACAD_REACTORS
330
26C71
102
}
330
747D
100
AcDbEntity
  8
部品1
 62
     7
 48
50.0
100
AcDbMText
 10
8520.219062495314
 20
2624.968077078778
 30
0.0
 40
80.0
 41
0.8
 71
     4
 72
     1
  1
\A1;ワッシャー(市販品)
  7
STYLE2
 73
     1
 44
1.0
1001
ACAD
1000
MTEXTBEGIN
1070
    73
1070
     1
1070
    44
1040
1.0
1070
    74
1070
     0
1000
MTEXTEND
  0
LWPOLYLINE
  5
26C73
330
747D
100
AcDbEntity
  8
部品1
 48
50.0
100
AcDbPolyline
 90
        2
 70
     0
 43
8.0
 10
8480.947472126475
 20
1684.472703991519
 10
8774.649935525859
 20
1684.472703991519
  0
TEXT
  5
26C74
330
747D
100
AcDbEntity
  8
部品1
 48
50.0
100
AcDbText
 10
8485.301056410902
 20
2280.351384753718
 30
0.0
 40
80.0
  1
基礎ボルト(市販品)
  7
STYLE2
100
AcDbText
  0
DIMENSION
  5
26C75
330
747D
100
AcDbEntity
  8
寸法
 48
50.0
100
AcDbDimension
  2
*D60
 10
8982.816071895319
 20
1600.472703991516
 30
0.0
 11
8882.816071895318
 21
1762.472703991519
 31
0.0
 70
    32
  1
180
 71
     5
 42
324.0000000000009
  3
INABA_S40G
100
AcDbAlignedDimension
 13
8480.947472126475
 23
1924.472703991518
 33
0.0
 14
8480.947472126475
 24
1600.472703991517
 34
0.0
 50
90.0
100
AcDbRotatedDimension
1001
ACAD
1000
DSTYLE
1002
{
1070
   341
1005
0
1002
}
  0
DIMENSION
  5
26C76
330
747D
100
AcDbEntity
  8
寸法
 48
50.0
100
AcDbDimension
  2
*D61
 10
9258.870738014346
 20
1924.472703991517
 30
0.0
 11
9258.870738014346
 21
1458.463800570035
 31
0.0
 70
   160
  1
20～25
 71
     5
 42
52.76000000000113
  3
INABA_S40G
100
AcDbAlignedDimension
 13
8293.747472126474
 23
1977.232703991519
 33
0.0
 14
8480.947472126475
 24
1924.472703991518
 34
0.0
 50
90.0
100
AcDbRotatedDimension
1001
ACAD
1000
DSTYLE
1002
{
1070
   341
1005
0
1002
}
  0
MTEXT
  5
26C77
102
{ACAD_REACTORS
330
26C78
102
}
330
747D
100
AcDbEntity
  8
部品1
 62
     7
 48
50.0
100
AcDbMText
 10
8489.891934545793
 20
2188.856030144748
 30
0.0
 40
80.0
 41
0.8
 71
     4
 72
     1
  1
M10X160
  7
STYLE2
 73
     1
 44
1.0
1001
ACAD
1000
MTEXTBEGIN
1070
    73
1070
     1
1070
    44
1040
1.0
1070
    74
1070
     0
1000
MTEXTEND
  0
LEADER
  5
26C78
330
747D
100
AcDbEntity
  8
寸法
 48
50.0
100
AcDbLeader
  3
INABA_S50G
 73
     0
 74
     0
 75
     1
 40
80.0
 41
435.0
 76
     3
 10
8297.347472126476
 20
1973.632703991518
 30
0.0
 10
8339.891934545795
 20
2123.856030144748
 30
0.0
 10
8464.891934545795
 20
2123.856030144748
 30
0.0
340
26C77
1001
ACAD
1000
DSTYLE
1002
{
1070
   341
1005
0
1070
    40
1040
1.0
1070
   343
1005
0
1070
   344
1005
0
1002
}
  0
LINE
  5
26C79
330
747D
100
AcDbEntity
  8
部品1
100
AcDbLine
 10
5296.239720140018
 20
3323.811371192103
 30
0.0
 11
5296.23972014002
 21
359.5044016074562
 31
0.0
  0
LEADER
  5
26C7A
330
747D
100
AcDbEntity
  8
寸法
 48
50.0
100
AcDbLeader
  3
INABA_S50G
 73
     0
 75
     1
 40
113.1818181818182
 41
608.6363636363635
 76
     3
 10
8257.084222264527
 20
1873.988377349797
 30
0.0
 10
8123.280393573178
 20
2725.367459706275
 30
0.0
 10
7998.280393573178
 20
2725.367459706275
 30
0.0
340
26C7B
1001
ACAD
1000
DSTYLE
1002
{
1070
   341
1005
0
1070
    40
1040
1.0
1070
   343
1005
0
1070
   344
1005
0
1002
}
  0
MTEXT
  5
26C7B
102
{ACAD_REACTORS
330
26C7A
102
}
330
747D
100
AcDbEntity
  8
寸法
 62
     7
 48
50.0
100
AcDbMText
 10
7973.280393573178
 20
2806.958368797184
 30
0.0
 40
80.0
 41
0.8
 71
     6
 72
     1
  1
\A1;φ70スリーブ
  7
STYLE2
 73
     1
 44
1.0
1001
ACAD
1000
MTEXTBEGIN
1070
    73
1070
     1
1070
    44
1040
1.0
1070
    74
1070
     0
1000
MTEXTEND
  0
LWPOLYLINE
  5
26C7C
330
747D
100
AcDbEntity
  8
部品1
 48
50.0
100
AcDbPolyline
 90
        2
 70
     0
 43
8.0
 10
5952.768257116324
 20
1684.472703991519
 10
6366.908158949281
 20
1684.472703991519
  0
TEXT
  5
26C7D
330
747D
100
AcDbEntity
  8
部品1
 48
50.0
100
AcDbText
 10
5952.768257116324
 20
1695.711696274773
 30
0.0
 40
80.0
  1
▽G.L
  7
STYLE2
100
AcDbText
  0
DIMENSION
  5
26C7E
330
747D
100
AcDbEntity
  8
寸法
 48
50.0
100
AcDbDimension
  2
*D62
 10
6096.487845216821
 20
1140.472703991518
 30
0.0
 11
6096.487845216821
 21
1260.472703991519
 31
0.0
 70
   160
  1
150
 71
     5
 42
240.0
  3
INABA_S40G
100
AcDbAlignedDimension
 13
6238.908158949281
 23
1380.472703991518
 33
0.0
 14
6158.908158949284
 24
1140.472703991518
 34
0.0
 50
90.0
100
AcDbRotatedDimension
1001
ACAD
1000
DSTYLE
1002
{
1070
   341
1005
0
1002
}
  0
LEADER
  5
26C7F
330
747D
100
AcDbEntity
  8
寸法
 48
50.0
100
AcDbLeader
  3
INABA_S50G
 71
     0
 73
     0
 75
     1
 40
100.0
 41
225.0
 76
     3
 10
6334.811111301424
 20
1260.472703991518
 30
0.0
 10
6212.973132754086
 20
996.9500103730815
 30
0.0
 10
6087.973132754086
 20
996.9500103730815
 30
0.0
1001
ACAD
1000
DSTYLE
1002
{
1070
    40
1040
1.0
1070
   272
1070
     1
1070
   279
1070
     1
1070
   341
1005
0
1002
}
  0
LEADER
  5
26C80
330
747D
100
AcDbEntity
  8
寸法
 48
50.0
100
AcDbLeader
  3
INABA_S50G
 71
     0
 73
     0
 75
     1
 40
100.0
 41
222.7272727272727
 76
     3
 10
6462.908158949281
 20
1260.472703991518
 30
0.0
 10
6241.095860311521
 20
816.6338578336381
 30
0.0
 10
6116.095860311521
 20
816.6338578336381
 30
0.0
1001
ACAD
1000
DSTYLE
1002
{
1070
    40
1040
1.0
1070
   272
1070
     1
1070
   279
1070
     1
1070
   341
1005
0
1002
}
  0
MTEXT
  5
26C81
102
{ACAD_REACTORS
330
26C82
102
}
330
747D
100
AcDbEntity
  8
寸法
 62
     7
 48
50.0
100
AcDbMText
 10
6277.658104726477
 20
1525.773306808974
 30
0.0
 40
80.0
 41
0.8
 71
     6
 72
     1
  1
\A1;D10@300
  7
STYLE2
 73
     1
 44
1.0
1001
ACAD
1000
MTEXTBEGIN
1070
    73
1070
     1
1070
    44
1040
1.0
1070
    74
1070
     0
1000
MTEXTEND
  0
LEADER
  5
26C82
330
747D
100
AcDbEntity
  8
寸法
 48
50.0
100
AcDbLeader
  3
INABA_S50G
 71
     0
 73
     0
 75
     1
 40
100.0
 41
540.3409090909091
 76
     3
 10
6470.908158949281
 20
1682.599918688641
 30
0.0
 10
6412.925922420583
 20
1461.129590147836
 30
0.0
 10
6287.925922420583
 20
1461.129590147836
 30
0.0
213
-9.732182305893367
223
-4.643716661138569
233
0.0
1001
ACAD
1000
DSTYLE
1002
{
1070
    40
1040
1.0
1070
   272
1070
     1
1070
   279
1070
     1
1070
   341
1005
0
1002
}
  0
LEADER
  5
26C83
330
747D
100
AcDbEntity
  8
寸法
 48
50.0
100
AcDbLeader
  3
INABA_S50G
 71
     0
 73
     0
 75
     1
 40
130.1136363636363
 41
651.1363636363636
 76
     3
 10
6446.90815894928
 20
1924.472703991518
 30
0.0
 10
6334.483578785264
 20
2064.943469448106
 30
0.0
 10
6209.483578785264
 20
2064.943469448106
 30
0.0
1001
ACAD
1000
DSTYLE
1002
{
1070
    40
1040
1.0
1070
   272
1070
     1
1070
   279
1070
     1
1070
   341
1005
0
1002
}
  0
MTEXT
  5
26C84
102
{ACAD_REACTORS
330
26C83
102
}
330
747D
100
AcDbEntity
  8
寸法
 62
     7
 48
50.0
100
AcDbMText
 10
6146.809679466008
 20
2136.98892399356
 30
0.0
 40
80.0
 41
0.8
 71
     6
 72
     1
  1
\A1;金コテ押エ
  7
STYLE2
 73
     1
 44
1.0
1001
ACAD
1000
MTEXTBEGIN
1070
    73
1070
     1
1070
    44
1040
1.0
1070
    74
1070
     0
1000
MTEXTEND
  0
DIMENSION
  5
26C85
330
747D
100
AcDbEntity
  8
寸法
 48
50.0
100
AcDbDimension
  2
*D63
 10
5631.870920387541
 20
1140.472703991518
 30
0.0
 11
5631.870920387541
 21
1512.012853647518
 31
0.0
 70
   160
  1
540
 71
     5
 42
784.0
  3
INABA_S40G
100
AcDbAlignedDimension
 13
6366.908158949281
 23
1924.472703991518
 33
0.0
 14
6158.908158949284
 24
1140.472703991518
 34
0.0
 50
90.0
100
AcDbRotatedDimension
1001
ACAD
1000
DSTYLE
1002
{
1070
   341
1005
0
1002
}
  0
MTEXT
  5
26C86
102
{ACAD_REACTORS
330
26C80
102
}
330
747D
100
AcDbEntity
  8
寸法
 62
     7
 48
50.0
100
AcDbMText
 10
6096.095860311521
 20
876.633857833638
 30
0.0
 40
80.0
 41
0.8
 71
     6
 72
     1
  1
D13
  7
STYLE2
 73
     1
 44
1.0
1001
ACAD
1000
MTEXTBEGIN
1070
    73
1070
     1
1070
    44
1040
1.0
1070
    74
1070
     0
1000
MTEXTEND
  0
MTEXT
  5
26C87
102
{ACAD_REACTORS
330
26C7F
102
}
330
747D
100
AcDbEntity
  8
寸法
 62
     7
 48
50.0
100
AcDbMText
 10
6067.973132754087
 20
1056.950010373081
 30
0.0
 40
80.0
 41
0.8
 71
     6
 72
     1
  1
D10
  7
STYLE2
 73
     1
 44
1.0
1001
ACAD
1000
MTEXTBEGIN
1070
    73
1070
     1
1070
    44
1040
1.0
1070
    74
1070
     0
1000
MTEXTEND
  0
DIMENSION
  5
26C88
330
747D
100
AcDbEntity
  8
寸法
 48
50.0
100
AcDbDimension
  2
*D64
 10
6686.908158949281
 20
602.0430659863578
 30
0.0
 11
6442.811400271057
 21
602.0430659863578
 31
0.0
 70
   160
  1
300
 71
     5
 42
448.0
  3
INABA_S40G
100
AcDbAlignedDimension
 13
6238.908158949281
 23
1012.472703991518
 33
0.0
 14
6686.908158949281
 24
1012.472703991518
 34
0.0
100
AcDbRotatedDimension
1001
ACAD
1000
DSTYLE
1002
{
1070
   341
1005
0
1002
}
  0
MTEXT
  5
26C89
102
{ACAD_REACTORS
330
26C8A
102
}
330
747D
100
AcDbEntity
  8
寸法
 62
     7
 48
50.0
100
AcDbMText
 10
7999.923399781535
 20
2446.27409688967
 30
0.0
 40
80.0
 41
0.8
 71
     6
 72
     1
  1
\A1;アンカープレート L
  7
STYLE2
 73
     1
 44
1.0
1001
ACAD
1000
MTEXTBEGIN
1070
    73
1070
     1
1070
    44
1040
1.0
1070
    74
1070
     0
1000
MTEXTEND
  0
LEADER
  5
26C8A
330
747D
100
AcDbEntity
  8
寸法
 48
50.0
100
AcDbLeader
  3
INABA_S50G
 73
     0
 75
     1
 40
106.3636363636363
 41
893.1818181818181
 76
     3
 10
8198.347472126476
 20
1994.032703991519
 30
0.0
 10
8149.923399781535
 20
2368.092278707851
 30
0.0
 10
8024.923399781535
 20
2368.092278707851
 30
0.0
340
26C89
1001
ACAD
1000
DSTYLE
1002
{
1070
   341
1005
0
1070
    40
1040
1.0
1070
   343
1005
0
1070
   344
1005
0
1002
}
  0
LINE
  5
26C8B
330
747D
100
AcDbEntity
  8
細線
 48
50.0
100
AcDbLine
 10
6486.908158949282
 20
1762.845596659348
 30
0.0
 11
6558.908158949282
 21
1834.845596659348
 31
0.0
  0
ARC
  5
26C8C
330
747D
100
AcDbEntity
  8
部品1
 48
50.0
100
AcDbCircle
 10
6462.908158949281
 20
1784.727133385763
 30
0.0
 40
24.0
100
AcDbArc
 50
0.0
 51
180.0
  0
CIRCLE
  5
26C8D
330
747D
100
AcDbEntity
  8
部品1
 48
50.0
100
AcDbCircle
 10
6462.908158949281
 20
1784.727133385763
 30
0.0
 40
8.0
  0
LINE
  5
26C8E
330
747D
100
AcDbEntity
  8
部品1
 48
50.0
100
AcDbLine
 10
6366.908158949282
 20
1380.472703991518
 30
0.0
 11
6366.908158949282
 21
1924.472703991518
 31
0.0
  0
LINE
  5
26C8F
330
747D
100
AcDbEntity
  8
部品1
 48
50.0
100
AcDbLine
 10
6558.908158949282
 20
1924.472703991518
 30
0.0
 11
6558.908158949282
 21
1380.472703991518
 31
0.0
  0
MTEXT
  5
26C90
102
{ACAD_REACTORS
330
26C95
102
}
330
747D
100
AcDbEntity
  8
寸法
 62
     7
 48
50.0
100
AcDbMText
 10
6641.794095976675
 20
1947.028603284328
 30
0.0
 40
80.0
 41
0.8
 71
     4
 72
     1
  1
D13
  7
STYLE2
 73
     1
 44
1.0
1001
ACAD
1000
MTEXTBEGIN
1070
    73
1070
     1
1070
    44
1040
1.0
1070
    74
1070
     0
1000
MTEXTEND
  0
LEADER
  5
26C91
330
747D
100
AcDbEntity
  8
寸法
 48
50.0
100
AcDbLeader
  3
INABA_S50G
 71
     0
 73
     0
 74
     0
 75
     1
 40
100.0
 41
225.0
 76
     3
 10
6590.811111301424
 20
1260.472703991518
 30
0.0
 10
6645.235818755965
 20
1165.075635048545
 30
0.0
 10
6770.235818755965
 20
1165.075635048545
 30
0.0
1001
ACAD
1000
DSTYLE
1002
{
1070
    40
1040
1.0
1070
   272
1070
     1
1070
   279
1070
     1
1070
   341
1005
0
1002
}
  0
LEADER
  5
26C92
330
747D
100
AcDbEntity
  8
寸法
 48
50.0
100
AcDbLeader
  3
INABA_S50G
 71
     0
 73
     0
 74
     0
 75
     1
 40
100.0
 41
540.3409090909091
 76
     3
 10
6536.853327962456
 20
1243.732173577992
 30
0.0
 10
6655.646614810532
 20
902.101355583095
 30
0.0
 10
6780.646614810532
 20
902.101355583095
 30
0.0
213
0.0
223
-1.022262676269383
233
0.0
1001
ACAD
1000
DSTYLE
1002
{
1070
    40
1040
1.0
1070
   272
1070
     1
1070
   279
1070
     1
1070
   341
1005
0
1002
}
  0
MTEXT
  5
26C93
102
{ACAD_REACTORS
330
26C91
102
}
330
747D
100
AcDbEntity
  8
寸法
 62
     7
 48
50.0
100
AcDbMText
 10
6790.235818755966
 20
1225.075635048545
 30
0.0
 40
80.0
 41
0.8
 71
     4
 72
     1
  1
D10
  7
STYLE2
 73
     1
 44
1.0
1001
ACAD
1000
MTEXTBEGIN
1070
    73
1070
     1
1070
    44
1040
1.0
1070
    74
1070
     0
1000
MTEXTEND
  0
LWPOLYLINE
  5
26C94
330
747D
100
AcDbEntity
  8
部品1
 48
50.0
100
AcDbPolyline
 90
        2
 70
     0
 43
8.0
 10
6558.908158949281
 20
1684.472703991519
 10
6973.048060782239
 20
1684.472703991519
  0
LEADER
  5
26C95
330
747D
100
AcDbEntity
  8
寸法
 48
50.0
100
AcDbLeader
  3
INABA_S50G
 71
     0
 73
     0
 74
     0
 75
     1
 40
100.0
 41
222.7272727272727
 76
     3
 10
6462.908158949281
 20
1784.727133385763
 30
0.0
 10
6516.794095976675
 20
1883.962706238937
 30
0.0
 10
6641.794095976675
 20
1883.962706238937
 30
0.0
1001
ACAD
1000
DSTYLE
1002
{
1070
    40
1040
1.0
1070
   272
1070
     1
1070
   279
1070
     1
1070
   341
1005
0
1002
}
  0
LINE
  5
26C96
330
747D
100
AcDbEntity
  8
細線
 48
50.0
100
AcDbLine
 10
6238.908158949275
 20
1299.319449753689
 30
0.0
 11
6320.06141318711
 21
1380.472703991518
 31
0.0
  0
LINE
  5
26C97
330
747D
100
AcDbEntity
  8
細線
 48
50.0
100
AcDbLine
 10
6446.774006426685
 20
1318.59991868864
 30
0.0
 11
6470.908158949287
 21
1342.734071211239
 31
0.0
  0
LINE
  5
26C98
330
747D
100
AcDbEntity
  8
細線
 48
50.0
100
AcDbLine
 10
6353.706023366354
 20
1252.472703991518
 30
0.0
 11
6470.908158949281
 21
1369.674839574443
 31
0.0
  0
LINE
  5
26C99
330
747D
100
AcDbEntity
  8
部品1
 48
50.0
100
AcDbLine
 10
6238.908158949282
 20
1140.472703991518
 30
0.0
 11
6238.908158949282
 21
1380.472703991518
 31
0.0
  0
LINE
  5
26C9A
330
747D
100
AcDbEntity
  8
細線
 48
50.0
100
AcDbLine
 10
6596.172938635226
 20
1252.472703991518
 30
0.0
 11
6686.908158949282
 21
1343.207924305577
 31
0.0
  0
LINE
  5
26C9B
330
747D
100
AcDbEntity
  8
細線
 48
50.0
100
AcDbLine
 10
6569.232170272009
 20
1252.472703991518
 30
0.0
 11
6686.908158949282
 21
1370.148692668784
 31
0.0
  0
LINE
  5
26C9C
330
747D
100
AcDbEntity
  8
部品1
 48
50.0
100
AcDbLine
 10
6686.908158949282
 20
1380.472703991518
 30
0.0
 11
6686.908158949282
 21
1140.472703991518
 31
0.0
  0
LINE
  5
26C9D
330
747D
100
AcDbEntity
  8
部品1
 48
50.0
100
AcDbLine
 10
6486.908158949288
 20
1260.472703991518
 30
0.0
 11
6486.908158949282
 21
1784.727133385763
 31
0.0
  0
LINE
  5
26C9E
330
747D
100
AcDbEntity
  8
部品1
 48
50.0
100
AcDbLine
 10
6470.908158949287
 20
1260.472703991518
 30
0.0
 11
6470.908158949274
 21
1784.727133385763
 31
0.0
  0
LINE
  5
26C9F
330
747D
100
AcDbEntity
  8
細線
 48
50.0
100
AcDbLine
 10
6454.908158949281
 20
1299.793302848029
 30
0.0
 11
6470.908158949287
 21
1315.793302848029
 31
0.0
  0
LINE
  5
26CA0
330
747D
100
AcDbEntity
  8
細線
 48
50.0
100
AcDbLine
 10
6444.090998445296
 20
1012.472703991518
 30
0.0
 11
6478.388495076479
 21
1140.472703991518
 31
0.0
  0
LINE
  5
26CA1
330
747D
100
AcDbEntity
  8
部品1
 48
50.0
100
AcDbLine
 10
6766.908158949284
 20
1012.472703991518
 30
0.0
 11
6158.908158949284
 21
1012.472703991518
 31
0.0
  0
LINE
  5
26CA2
330
747D
100
AcDbEntity
  8
部品1
 48
50.0
100
AcDbLine
 10
6294.908158949282
 20
1236.472703991518
 30
0.0
 11
6630.908158949281
 21
1236.472703991518
 31
0.0
  0
LINE
  5
26CA3
330
747D
100
AcDbEntity
  8
部品1
 48
50.0
100
AcDbLine
 10
6294.908158949282
 20
1252.472703991518
 30
0.0
 11
6630.908158949281
 21
1252.472703991518
 31
0.0
  0
LINE
  5
26CA4
330
747D
100
AcDbEntity
  8
部品1
 48
50.0
100
AcDbLine
 10
6766.908158949284
 20
1140.472703991518
 30
0.0
 11
6158.908158949284
 21
1140.472703991518
 31
0.0
  0
CIRCLE
  5
26CA5
330
747D
100
AcDbEntity
  8
部品1
 48
50.0
100
AcDbCircle
 10
6462.908158949281
 20
1260.472703991518
 30
0.0
 40
8.0
  0
LINE
  5
26CA6
330
747D
100
AcDbEntity
  8
細線
 48
50.0
100
AcDbLine
 10
6457.232170272014
 20
1140.472703991518
 30
0.0
 11
6553.232170272015
 21
1236.472703991518
 31
0.0
  0
LINE
  5
26CA7
330
747D
100
AcDbEntity
  8
細線
 48
50.0
100
AcDbLine
 10
6286.314908550798
 20
1012.472703991518
 30
0.0
 11
6320.61240518198
 21
1140.472703991518
 31
0.0
  0
LINE
  5
26CA8
330
747D
100
AcDbEntity
  8
細線
 48
50.0
100
AcDbLine
 10
6365.202953498043
 20
1012.472703991516
 30
0.0
 11
6399.500450129226
 21
1140.472703991516
 31
0.0
  0
LINE
  5
26CA9
330
747D
100
AcDbEntity
  8
細線
 48
50.0
100
AcDbLine
 10
6207.42686360354
 20
1012.472703991516
 30
0.0
 11
6241.724360234723
 21
1140.472703991516
 31
0.0
  0
LINE
  5
26CAA
330
747D
100
AcDbEntity
  8
部品1
 48
50.0
100
AcDbLine
 10
6158.908158949284
 20
1012.472703991518
 30
0.0
 11
6158.908158949284
 21
1140.472703991518
 31
0.0
  0
LINE
  5
26CAB
330
747D
100
AcDbEntity
  8
細線
 48
50.0
100
AcDbLine
 10
6292.745689169144
 20
1036.472703991518
 30
0.0
 11
6299.176469787491
 21
1012.472703991518
 31
0.0
  0
LINE
  5
26CAC
330
747D
100
AcDbEntity
  8
細線
 48
50.0
100
AcDbLine
 10
6213.857644221892
 20
1036.472703991518
 30
0.0
 11
6220.288424840239
 21
1012.472703991518
 31
0.0
  0
LINE
  5
26CAD
330
747D
100
AcDbEntity
  8
細線
 48
50.0
100
AcDbLine
 10
6450.521779063649
 20
1036.472703991518
 30
0.0
 11
6456.952559681994
 21
1012.472703991518
 31
0.0
  0
LINE
  5
26CAE
330
747D
100
AcDbEntity
  8
細線
 48
50.0
100
AcDbLine
 10
6371.633734116397
 20
1036.472703991518
 30
0.0
 11
6378.064514734742
 21
1012.472703991518
 31
0.0
  0
LINE
  5
26CAF
330
747D
100
AcDbEntity
  8
細線
 48
50.0
100
AcDbLine
 10
6268.646791729565
 20
1140.472703991518
 30
0.0
 11
6364.646791729565
 21
1236.472703991518
 31
0.0
  0
LINE
  5
26CB0
330
747D
100
AcDbEntity
  8
細線
 48
50.0
100
AcDbLine
 10
6241.706023366354
 20
1140.472703991518
 30
0.0
 11
6337.706023366354
 21
1236.472703991518
 31
0.0
  0
LINE
  5
26CB1
330
747D
100
AcDbEntity
  8
部品1
 48
50.0
100
AcDbLine
 10
6294.908158949282
 20
1252.472703991518
 30
0.0
 11
6294.908158949282
 21
1236.472703991518
 31
0.0
  0
LINE
  5
26CB2
330
747D
100
AcDbEntity
  8
細線
 48
50.0
100
AcDbLine
 10
6235.293579616381
 20
1116.472703991518
 30
0.0
 11
6228.862798998034
 21
1140.472703991518
 31
0.0
  0
LINE
  5
26CB3
330
747D
100
AcDbEntity
  8
細線
 48
50.0
100
AcDbLine
 10
6158.908158949282
 20
1125.812624957298
 30
0.0
 11
6162.836315287478
 21
1140.472703991518
 31
0.0
  0
LINE
  5
26CB4
330
747D
100
AcDbEntity
  8
部品1
 48
50.0
100
AcDbLine
 10
6454.908158949281
 20
1318.59991868864
 30
0.0
 11
6438.908158949281
 21
1318.59991868864
 31
0.0
  0
CIRCLE
  5
26CB5
330
747D
100
AcDbEntity
  8
部品1
 48
50.0
100
AcDbCircle
 10
6334.908158949282
 20
1260.472703991518
 30
0.0
 40
8.0
  0
LINE
  5
26CB6
330
747D
100
AcDbEntity
  8
細線
 48
50.0
100
AcDbLine
 10
6407.58756009277
 20
1252.472703991518
 30
0.0
 11
6438.908158949281
 21
1283.793302848029
 31
0.0
  0
ARC
  5
26CB7
330
747D
100
AcDbEntity
  8
部品1
 48
50.0
100
AcDbCircle
 10
6462.908158949281
 20
1260.472703991518
 30
0.0
 40
24.0
100
AcDbArc
 50
180.0
 51
199.4712206344866
  0
LINE
  5
26CB8
330
747D
100
AcDbEntity
  8
細線
 48
50.0
100
AcDbLine
 10
6314.181624563633
 20
1116.472703991518
 30
0.0
 11
6307.750843945287
 21
1140.472703991518
 31
0.0
  0
LINE
  5
26CB9
330
747D
100
AcDbEntity
  8
細線
 48
50.0
100
AcDbLine
 10
6393.069669510886
 20
1116.472703991518
 30
0.0
 11
6386.638888892539
 21
1140.472703991518
 31
0.0
  0
LINE
  5
26CBA
330
747D
100
AcDbEntity
  8
細線
 48
50.0
100
AcDbLine
 10
6295.58756009277
 20
1140.472703991518
 30
0.0
 11
6391.58756009277
 21
1236.472703991518
 31
0.0
  0
LINE
  5
26CBB
330
747D
100
AcDbEntity
  8
部品1
 48
50.0
100
AcDbLine
 10
6438.908158949281
 20
1318.59991868864
 30
0.0
 11
6438.908158949281
 21
1260.472703991518
 31
0.0
  0
LINE
  5
26CBC
330
747D
100
AcDbEntity
  8
細線
 48
50.0
100
AcDbLine
 10
6380.646791729565
 20
1252.472703991518
 30
0.0
 11
6438.908158949281
 21
1310.734071211236
 31
0.0
  0
LINE
  5
26CBD
330
747D
100
AcDbEntity
  8
部品1
 48
50.0
100
AcDbLine
 10
6454.908158949281
 20
1318.59991868864
 30
0.0
 11
6454.908158949281
 21
1260.472703991518
 31
0.0
  0
LINE
  5
26CBE
330
747D
100
AcDbEntity
  8
部品1
 48
50.0
100
AcDbLine
 10
6766.908158949284
 20
1140.472703991518
 30
0.0
 11
6766.908158949284
 21
1012.472703991518
 31
0.0
  0
LINE
  5
26CBF
330
747D
100
AcDbEntity
  8
細線
 48
50.0
100
AcDbLine
 10
6680.755133287036
 20
1012.472703991518
 30
0.0
 11
6715.05262991822
 21
1140.472703991516
 31
0.0
  0
LINE
  5
26CC0
330
747D
100
AcDbEntity
  8
細線
 48
50.0
100
AcDbLine
 10
6522.979043392542
 20
1012.472703991518
 30
0.0
 11
6557.276540023727
 21
1140.472703991516
 31
0.0
  0
LINE
  5
26CC1
330
747D
100
AcDbEntity
  8
細線
 48
50.0
100
AcDbLine
 10
6601.86708833979
 20
1012.472703991516
 30
0.0
 11
6636.164584970974
 21
1140.472703991516
 31
0.0
  0
LINE
  5
26CC2
330
747D
100
AcDbEntity
  8
細線
 48
50.0
100
AcDbLine
 10
6608.297868958139
 20
1036.472703991518
 30
0.0
 11
6614.728649576488
 21
1012.472703991518
 31
0.0
  0
LINE
  5
26CC3
330
747D
100
AcDbEntity
  8
細線
 48
50.0
100
AcDbLine
 10
6529.409824010894
 20
1036.472703991518
 30
0.0
 11
6535.84060462924
 21
1012.472703991518
 31
0.0
  0
LINE
  5
26CC4
330
747D
100
AcDbEntity
  8
細線
 48
50.0
100
AcDbLine
 10
6687.185913905387
 20
1036.472703991518
 30
0.0
 11
6693.616694523734
 21
1012.472703991518
 31
0.0
  0
LINE
  5
26CC5
330
747D
100
AcDbEntity
  8
細線
 48
50.0
100
AcDbLine
 10
6766.073958852634
 20
1036.472703991518
 30
0.0
 11
6766.908158949282
 21
1033.359426847153
 31
0.0
  0
LINE
  5
26CC6
330
747D
100
AcDbEntity
  8
細線
 48
50.0
100
AcDbLine
 10
6759.643178234284
 20
1012.472703991516
 30
0.0
 11
6766.908158949282
 21
1039.585981135906
 31
0.0
  0
LINE
  5
26CC7
330
747D
100
AcDbEntity
  8
細線
 48
50.0
100
AcDbLine
 10
6623.113706998428
 20
1252.472703991518
 30
0.0
 11
6686.908158949282
 21
1316.267155942369
 31
0.0
  0
CIRCLE
  5
26CC8
330
747D
100
AcDbEntity
  8
部品1
 48
50.0
100
AcDbCircle
 10
6590.908158949281
 20
1260.472703991518
 30
0.0
 40
8.0
  0
ARC
  5
26CC9
330
747D
100
AcDbEntity
  8
部品1
 48
50.0
100
AcDbCircle
 10
6462.908158949281
 20
1260.472703991518
 30
0.0
 40
24.0
100
AcDbArc
 50
340.5287793655134
 51
0.0
  0
LINE
  5
26CCA
330
747D
100
AcDbEntity
  8
細線
 48
50.0
100
AcDbLine
 10
6471.957714458138
 20
1116.472703991518
 30
0.0
 11
6465.52693383979
 21
1140.472703991518
 31
0.0
  0
LINE
  5
26CCB
330
747D
100
AcDbEntity
  8
細線
 48
50.0
100
AcDbLine
 10
6550.845759405383
 20
1116.472703991518
 30
0.0
 11
6544.414978787037
 21
1140.472703991518
 31
0.0
  0
LINE
  5
26CCC
330
747D
100
AcDbEntity
  8
細線
 48
50.0
100
AcDbLine
 10
6484.172938635225
 20
1140.472703991518
 30
0.0
 11
6580.172938635225
 21
1236.472703991518
 31
0.0
  0
LINE
  5
26CCD
330
747D
100
AcDbEntity
  8
細線
 48
50.0
100
AcDbLine
 10
6511.113706998429
 20
1140.472703991518
 30
0.0
 11
6607.114594843565
 21
1236.473591836657
 31
0.0
  0
LINE
  5
26CCE
330
747D
100
AcDbEntity
  8
部品1
 48
50.0
100
AcDbLine
 10
6630.908158949281
 20
1252.472703991518
 30
0.0
 11
6630.908158949281
 21
1236.472703991518
 31
0.0
  0
LINE
  5
26CCF
330
747D
100
AcDbEntity
  8
細線
 48
50.0
100
AcDbLine
 10
6708.621849299877
 20
1116.472703991518
 30
0.0
 11
6702.191068681528
 21
1140.472703991518
 31
0.0
  0
LINE
  5
26CD0
330
747D
100
AcDbEntity
  8
細線
 48
50.0
100
AcDbLine
 10
6672.758317177676
 20
1140.472703991518
 30
0.0
 11
6686.908158949282
 21
1154.622545763124
 31
0.0
  0
LINE
  5
26CD1
330
747D
100
AcDbEntity
  8
細線
 48
50.0
100
AcDbLine
 10
6629.733804352629
 20
1116.472703991518
 30
0.0
 11
6623.303023734283
 21
1140.472703991518
 31
0.0
  0
LINE
  5
26CD2
330
747D
100
AcDbEntity
  8
細線
 48
50.0
100
AcDbLine
 10
6366.908158949282
 20
1454.260218116896
 30
0.0
 11
6470.908158949287
 21
1558.260218116898
 31
0.0
  0
LINE
  5
26CD3
330
747D
100
AcDbEntity
  8
細線
 48
50.0
100
AcDbLine
 10
6366.908158949282
 20
1481.200986480104
 30
0.0
 11
6470.908158949281
 21
1585.200986480104
 31
0.0
  0
LINE
  5
26CD4
330
747D
100
AcDbEntity
  8
細線
 48
50.0
100
AcDbLine
 10
6366.908158949282
 20
1427.319449753689
 30
0.0
 11
6470.908158949287
 21
1531.319449753689
 31
0.0
  0
LINE
  5
26CD5
330
747D
100
AcDbEntity
  8
細線
 48
50.0
100
AcDbLine
 10
6454.908158949281
 20
1730.845596659348
 30
0.0
 11
6470.908158949281
 21
1746.845596659348
 31
0.0
  0
LINE
  5
26CD6
330
747D
100
AcDbEntity
  8
細線
 48
50.0
100
AcDbLine
 10
6454.908158949281
 20
1757.786365022555
 30
0.0
 11
6470.908158949281
 21
1773.786365022555
 31
0.0
  0
LINE
  5
26CD7
330
747D
100
AcDbEntity
  8
部品1
 48
50.0
100
AcDbLine
 10
6238.908158949282
 20
1380.472703991518
 30
0.0
 11
6366.908158949282
 21
1380.472703991518
 31
0.0
  0
LINE
  5
26CD8
330
747D
100
AcDbEntity
  8
細線
 48
50.0
100
AcDbLine
 10
6238.908158949275
 20
1326.260218116893
 30
0.0
 11
6293.120644823907
 21
1380.472703991518
 31
0.0
  0
LINE
  5
26CD9
330
747D
100
AcDbEntity
  8
細線
 48
50.0
100
AcDbLine
 10
6238.908158949275
 20
1353.200986480104
 30
0.0
 11
6266.179876460696
 21
1380.472703991518
 31
0.0
  0
LINE
  5
26CDA
330
747D
100
AcDbEntity
  8
部品1
 48
50.0
100
AcDbLine
 10
6454.908158949281
 20
1726.59991868864
 30
0.0
 11
6438.908158949281
 21
1726.599918688644
 31
0.0
  0
LINE
  5
26CDB
330
747D
100
AcDbEntity
  8
細線
 48
50.0
100
AcDbLine
 10
6366.908158949282
 20
1642.845596659348
 30
0.0
 11
6450.662480978575
 21
1726.59991868864
 31
0.0
  0
LINE
  5
26CDC
330
747D
100
AcDbEntity
  8
細線
 48
50.0
100
AcDbLine
 10
6366.908158949282
 20
1669.786365022555
 30
0.0
 11
6438.908158949281
 21
1741.786365022555
 31
0.0
  0
LINE
  5
26CDD
330
747D
100
AcDbEntity
  8
部品1
 48
50.0
100
AcDbLine
 10
6438.908158949281
 20
1726.599918688644
 30
0.0
 11
6438.908158949281
 21
1784.727133385763
 31
0.0
  0
LINE
  5
26CDE
330
747D
100
AcDbEntity
  8
細線
 48
50.0
100
AcDbLine
 10
6366.908158949282
 20
1696.727133385763
 30
0.0
 11
6438.908158949281
 21
1768.727133385763
 31
0.0
  0
LINE
  5
26CDF
330
747D
100
AcDbEntity
  8
部品1
 48
50.0
100
AcDbLine
 10
6454.908158949281
 20
1726.59991868864
 30
0.0
 11
6454.908158949281
 21
1784.727133385763
 31
0.0
  0
LINE
  5
26CE0
330
747D
100
AcDbEntity
  8
細線
 48
50.0
100
AcDbLine
 10
6486.908158949288
 20
1547.319449753689
 30
0.0
 11
6558.908158949275
 21
1619.319449753688
 31
0.0
  0
LINE
  5
26CE1
330
747D
100
AcDbEntity
  8
部品1
 48
50.0
100
AcDbLine
 10
6558.908158949282
 20
1380.472703991518
 30
0.0
 11
6686.908158949282
 21
1380.472703991518
 31
0.0
  0
LINE
  5
26CE2
330
747D
100
AcDbEntity
  8
細線
 48
50.0
100
AcDbLine
 10
6486.908158949288
 20
1358.734071211239
 30
0.0
 11
6558.908158949275
 21
1430.734071211233
 31
0.0
  0
LINE
  5
26CE3
330
747D
100
AcDbEntity
  8
細線
 48
50.0
100
AcDbLine
 10
6486.908158949288
 20
1385.674839574447
 30
0.0
 11
6558.908158949275
 21
1457.674839574443
 31
0.0
  0
LINE
  5
26CE4
330
747D
100
AcDbEntity
  8
細線
 48
50.0
100
AcDbLine
 10
6486.908158949288
 20
1331.793302848029
 30
0.0
 11
6558.908158949275
 21
1403.793302848029
 31
0.0
  0
LINE
  5
26CE5
330
747D
100
AcDbEntity
  8
細線
 48
50.0
100
AcDbLine
 10
6486.908158949282
 20
1601.200986480104
 30
0.0
 11
6558.908158949282
 21
1673.200986480104
 31
0.0
  0
LINE
  5
26CE6
330
747D
100
AcDbEntity
  8
細線
 48
50.0
100
AcDbLine
 10
6486.908158949288
 20
1574.260218116898
 30
0.0
 11
6558.908158949275
 21
1646.260218116893
 31
0.0
  0
MTEXT
  5
26CE7
102
{ACAD_REACTORS
330
26C92
102
}
330
747D
100
AcDbEntity
  8
寸法
 62
     7
 48
50.0
100
AcDbMText
 10
6800.646614810531
 20
963.1236182593648
 30
0.0
 40
80.0
 41
0.8
 71
     4
 72
     1
  1
\A1;D10@300
  7
STYLE2
 73
     1
 44
1.0
1001
ACAD
1000
MTEXTBEGIN
1070
    73
1070
     1
1070
    44
1040
1.0
1070
    74
1070
     0
1000
MTEXTEND
  0
DIMENSION
  5
26CE8
330
747D
100
AcDbEntity
  8
寸法
 48
50.0
100
AcDbDimension
  2
*D65
 10
6366.908158949281
 20
2344.140511907898
 30
0.0
 11
6462.908158949281
 21
2344.140511907898
 31
0.0
 70
   160
  1
120\P200\P280
 71
     5
 42
192.0
  3
INABA_S40G
100
AcDbAlignedDimension
 13
6558.908158949281
 23
1924.472703991518
 33
0.0
 14
6366.908158949281
 24
1924.472703991518
 34
0.0
100
AcDbRotatedDimension
1001
ACAD
1000
DSTYLE
1002
{
1070
   341
1005
0
1002
}
  0
LINE
  5
26CE9
330
747D
100
AcDbEntity
  8
部品1
 48
50.0
100
AcDbLine
 10
6366.908158949282
 20
1924.472703991518
 30
0.0
 11
6558.908158949282
 21
1924.472703991518
 31
0.0
  0
LINE
  5
26CEA
330
747D
100
AcDbEntity
  8
細線
 48
50.0
100
AcDbLine
 10
6366.908158949282
 20
1885.312511928216
 30
0.0
 11
6406.068351012585
 21
1924.472703991518
 31
0.0
  0
LINE
  5
26CEB
330
747D
100
AcDbEntity
  8
細線
 48
50.0
100
AcDbLine
 10
6366.908158949282
 20
1858.371743565008
 30
0.0
 11
6433.009119375791
 21
1924.472703991518
 31
0.0
  0
LINE
  5
26CEC
330
747D
100
AcDbEntity
  8
細線
 48
50.0
100
AcDbLine
 10
6366.908158949282
 20
1912.253280291423
 30
0.0
 11
6379.127582649377
 21
1924.472703991518
 31
0.0
  0
LINE
  5
26CED
330
747D
100
AcDbEntity
  8
細線
 48
50.0
100
AcDbLine
 10
6486.460866215267
 20
1789.339072288539
 30
0.0
 11
6558.908158949282
 21
1861.786365022555
 31
0.0
  0
LINE
  5
26CEE
330
747D
100
AcDbEntity
  8
細線
 48
50.0
100
AcDbLine
 10
6475.400581451751
 20
1805.219555888234
 30
0.0
 11
6558.908158949282
 21
1888.727133385763
 31
0.0
  0
LINE
  5
26CEF
330
747D
100
AcDbEntity
  8
細線
 48
50.0
100
AcDbLine
 10
8351.347472126475
 20
1765.600986480106
 30
0.0
 11
8480.947472126475
 21
1895.200986480105
 31
0.0
  0
LINE
  5
26CF0
330
747D
100
AcDbEntity
  8
部品1
100
AcDbLine
 10
8480.947472126475
 20
1380.472703991518
 30
0.0
 11
8480.947472126475
 21
1924.472703991518
 31
0.0
  0
LINE
  5
26CF1
330
747D
100
AcDbEntity
  8
部品1
 48
50.0
100
AcDbLine
 10
8066.947472126475
 20
1380.472703991518
 30
0.0
 11
8066.947472126475
 21
1924.472703991518
 31
0.0
  0
LINE
  5
26CF2
330
747D
100
AcDbEntity
  8
細線
 48
50.0
100
AcDbLine
 10
8066.947472126475
 20
1696.727133385763
 30
0.0
 11
8225.347472126474
 21
1855.12713338576
 31
0.0
  0
LINE
  5
26CF3
330
747D
100
AcDbEntity
  8
細線
 48
50.0
100
AcDbLine
 10
8066.947472126475
 20
1669.786365022555
 30
0.0
 11
8225.347472126474
 21
1828.186365022553
 31
0.0
  0
LINE
  5
26CF4
330
747D
100
AcDbEntity
  8
細線
 48
50.0
100
AcDbLine
 10
8066.947472126475
 20
1642.845596659348
 30
0.0
 11
8225.347472126472
 21
1801.245596659341
 31
0.0
  0
TEXT
  5
26CF5
330
747D
100
AcDbEntity
  8
部品1
 48
50.0
100
AcDbText
 10
7652.807570293518
 20
1695.711696274773
 30
0.0
 40
80.0
  1
▽G.L
  7
STYLE2
100
AcDbText
  0
LINE
  5
26CF6
330
747D
100
AcDbEntity
  8
部品1
100
AcDbLine
 10
8297.347472126476
 20
1699.472703991518
 30
0.0
 11
8297.347472126473
 21
1973.632703991518
 31
0.0
  0
LINE
  5
26CF7
330
747D
100
AcDbEntity
  8
部品1
100
AcDbLine
 10
8279.347472126476
 20
1699.472703991518
 30
0.0
 11
8279.347472126472
 21
1973.632703991518
 31
0.0
  0
LINE
  5
26CF8
330
747D
100
AcDbEntity
  8
細線
 48
50.0
100
AcDbLine
 10
8351.347472126475
 20
1711.719449753676
 30
0.0
 11
8480.947472126475
 21
1841.319449753668
 31
0.0
  0
LINE
  5
26CF9
330
747D
100
AcDbEntity
  8
細線
 48
50.0
100
AcDbLine
 10
8351.347472126475
 20
1738.660218116889
 30
0.0
 11
8480.947472126475
 21
1868.260218116886
 31
0.0
  0
LINE
  5
26CFA
330
747D
100
AcDbEntity
  8
部品1
100
AcDbLine
 10
8351.347472126475
 20
1600.472703991518
 30
0.0
 11
8351.347472126475
 21
1924.472703991518
 31
0.0
  0
LINE
  5
26CFB
330
747D
100
AcDbEntity
  8
部品1
100
AcDbLine
 10
8225.347472126468
 20
1600.472703991518
 30
0.0
 11
8225.347472126475
 21
1924.472703991518
 31
0.0
  0
LINE
  5
26CFC
330
747D
100
AcDbEntity
  8
細線
 48
50.0
100
AcDbLine
 10
8066.947472126475
 20
1454.260218116896
 30
0.0
 11
8225.347472126468
 21
1612.660218116884
 31
0.0
  0
LINE
  5
26CFD
330
747D
100
AcDbEntity
  8
細線
 48
50.0
100
AcDbLine
 10
8066.947472126475
 20
1427.319449753689
 30
0.0
 11
8240.10072636431
 21
1600.472703991516
 31
0.0
  0
LINE
  5
26CFE
330
747D
100
AcDbEntity
  8
細線
 48
50.0
100
AcDbLine
 10
8066.947472126475
 20
1481.200986480104
 30
0.0
 11
8225.347472126468
 21
1639.600986480099
 31
0.0
  0
LINE
  5
26CFF
330
747D
100
AcDbEntity
  8
細線
 48
50.0
100
AcDbLine
 10
7995.626873269964
 20
1140.472703991518
 30
0.0
 11
8480.947472126475
 21
1625.793302848025
 31
0.0
  0
LINE
  5
26D00
330
747D
100
AcDbEntity
  8
細線
 48
50.0
100
AcDbLine
 10
7968.686104906758
 20
1140.472703991518
 30
0.0
 11
8480.947472126478
 21
1652.734071211232
 31
0.0
  0
LINE
  5
26D01
330
747D
100
AcDbEntity
  8
細線
 48
50.0
100
AcDbLine
 10
7941.745336543551
 20
1140.472703991518
 30
0.0
 11
8480.947472126475
 21
1679.674839574443
 31
0.0
  0
LINE
  5
26D02
330
747D
100
AcDbEntity
  8
部品1
 48
50.0
100
AcDbLine
 10
8688.947472126477
 20
1140.472703991518
 30
0.0
 11
7858.947472126478
 21
1140.472703991518
 31
0.0
  0
LINE
  5
26D03
330
747D
100
AcDbEntity
  8
部品1
 48
50.0
100
AcDbLine
 10
8688.947472126477
 20
1012.472703991518
 30
0.0
 11
7858.947472126478
 21
1012.472703991518
 31
0.0
  0
LINE
  5
26D04
330
747D
100
AcDbEntity
  8
細線
 48
50.0
100
AcDbLine
 10
7938.947472126471
 20
1299.319449753689
 30
0.0
 11
8020.100726364304
 21
1380.472703991518
 31
0.0
  0
LINE
  5
26D05
330
747D
100
AcDbEntity
  8
部品1
 48
50.0
100
AcDbLine
 10
7938.947472126475
 20
1140.472703991518
 30
0.0
 11
7938.947472126475
 21
1380.472703991518
 31
0.0
  0
LINE
  5
26D06
330
747D
100
AcDbEntity
  8
細線
 48
50.0
100
AcDbLine
 10
7986.354221727991
 20
1012.472703991518
 30
0.0
 11
8020.651718359175
 21
1140.472703991518
 31
0.0
  0
LINE
  5
26D07
330
747D
100
AcDbEntity
  8
部品1
 48
50.0
100
AcDbLine
 10
7858.947472126478
 20
1012.472703991518
 30
0.0
 11
7858.947472126478
 21
1140.472703991518
 31
0.0
  0
LINE
  5
26D08
330
747D
100
AcDbEntity
  8
細線
 48
50.0
100
AcDbLine
 10
7907.466176780734
 20
1012.472703991516
 30
0.0
 11
7941.763673411917
 21
1140.472703991516
 31
0.0
  0
LINE
  5
26D09
330
747D
100
AcDbEntity
  8
細線
 48
50.0
100
AcDbLine
 10
8065.242266675239
 20
1012.472703991516
 30
0.0
 11
8099.53976330642
 21
1140.472703991516
 31
0.0
  0
LINE
  5
26D0A
330
747D
100
AcDbEntity
  8
細線
 48
50.0
100
AcDbLine
 10
7913.896957399088
 20
1036.472703991518
 30
0.0
 11
7920.327738017433
 21
1012.472703991518
 31
0.0
  0
LINE
  5
26D0B
330
747D
100
AcDbEntity
  8
細線
 48
50.0
100
AcDbLine
 10
8071.673047293591
 20
1036.472703991518
 30
0.0
 11
8078.103827911938
 21
1012.472703991518
 31
0.0
  0
LINE
  5
26D0C
330
747D
100
AcDbEntity
  8
細線
 48
50.0
100
AcDbLine
 10
7992.785002346339
 20
1036.472703991518
 30
0.0
 11
7999.215782964686
 21
1012.472703991518
 31
0.0
  0
LINE
  5
26D0D
330
747D
100
AcDbEntity
  8
細線
 48
50.0
100
AcDbLine
 10
7858.947472126475
 20
1125.812624957298
 30
0.0
 11
7862.87562846467
 21
1140.472703991518
 31
0.0
  0
LINE
  5
26D0E
330
747D
100
AcDbEntity
  8
細線
 48
50.0
100
AcDbLine
 10
7935.332892793576
 20
1116.472703991518
 30
0.0
 11
7928.902112175229
 21
1140.472703991518
 31
0.0
  0
LINE
  5
26D0F
330
747D
100
AcDbEntity
  8
細線
 48
50.0
100
AcDbLine
 10
8093.108982688079
 20
1116.472703991518
 30
0.0
 11
8086.678202069732
 21
1140.472703991518
 31
0.0
  0
LINE
  5
26D10
330
747D
100
AcDbEntity
  8
細線
 48
50.0
100
AcDbLine
 10
8014.220937740828
 20
1116.472703991518
 30
0.0
 11
8007.790157122482
 21
1140.472703991518
 31
0.0
  0
LWPOLYLINE
  5
26D11
330
747D
100
AcDbEntity
  8
部品1
 48
50.0
100
AcDbPolyline
 90
        2
 70
     0
 43
8.0
 10
7652.807570293518
 20
1684.472703991519
 10
8066.947472126475
 20
1684.472703991519
  0
LINE
  5
26D12
330
747D
100
AcDbEntity
  8
細線
 48
50.0
100
AcDbLine
 10
7938.947472126471
 20
1326.260218116893
 30
0.0
 11
7993.1599580011
 21
1380.472703991518
 31
0.0
  0
LINE
  5
26D13
330
747D
100
AcDbEntity
  8
部品1
 48
50.0
100
AcDbLine
 10
7938.947472126475
 20
1380.472703991518
 30
0.0
 11
8066.947472126475
 21
1380.472703991518
 31
0.0
  0
LINE
  5
26D14
330
747D
100
AcDbEntity
  8
細線
 48
50.0
100
AcDbLine
 10
7938.947472126471
 20
1353.200986480104
 30
0.0
 11
7966.219189637889
 21
1380.472703991518
 31
0.0
  0
LINE
  5
26D15
330
747D
100
AcDbEntity
  8
細線
 48
50.0
100
AcDbLine
 10
8184.21225181242
 20
1140.472703991518
 30
0.0
 11
8480.947472126475
 21
1437.20792430557
 31
0.0
  0
LINE
  5
26D16
330
747D
100
AcDbEntity
  8
細線
 48
50.0
100
AcDbLine
 10
8211.153020175625
 20
1140.472703991518
 30
0.0
 11
8480.947472126475
 21
1410.267155942375
 31
0.0
  0
LINE
  5
26D17
330
747D
100
AcDbEntity
  8
細線
 48
50.0
100
AcDbLine
 10
8157.271483449209
 20
1140.472703991518
 30
0.0
 11
8480.947472126475
 21
1464.148692668784
 31
0.0
  0
LINE
  5
26D18
330
747D
100
AcDbEntity
  8
細線
 48
50.0
100
AcDbLine
 10
8372.797630354867
 20
1140.472703991518
 30
0.0
 11
8608.947472126475
 21
1376.622545763126
 31
0.0
  0
LINE
  5
26D19
330
747D
100
AcDbEntity
  8
細線
 48
50.0
100
AcDbLine
 10
8399.73839871808
 20
1140.472703991518
 30
0.0
 11
8608.947472126475
 21
1349.681777399911
 31
0.0
  0
LINE
  5
26D1A
330
747D
100
AcDbEntity
  8
部品1
 48
50.0
100
AcDbLine
 10
8608.947472126475
 20
1380.472703991518
 30
0.0
 11
8608.947472126475
 21
1140.472703991518
 31
0.0
  0
LINE
  5
26D1B
330
747D
100
AcDbEntity
  8
細線
 48
50.0
100
AcDbLine
 10
8426.679167081283
 20
1140.472703991518
 30
0.0
 11
8608.947472126475
 21
1322.741009036714
 31
0.0
  0
LINE
  5
26D1C
330
747D
100
AcDbEntity
  8
細線
 48
50.0
100
AcDbLine
 10
8301.906401516985
 20
1012.472703991516
 30
0.0
 11
8336.203898148168
 21
1140.472703991516
 31
0.0
  0
LINE
  5
26D1D
330
747D
100
AcDbEntity
  8
細線
 48
50.0
100
AcDbLine
 10
8144.13031162249
 20
1012.472703991518
 30
0.0
 11
8178.427808253672
 21
1140.472703991518
 31
0.0
  0
LINE
  5
26D1E
330
747D
100
AcDbEntity
  8
細線
 48
50.0
100
AcDbLine
 10
8223.018356569737
 20
1012.472703991518
 30
0.0
 11
8257.315853200921
 21
1140.472703991516
 31
0.0
  0
LINE
  5
26D1F
330
747D
100
AcDbEntity
  8
細線
 48
50.0
100
AcDbLine
 10
8380.794446464227
 20
1012.472703991518
 30
0.0
 11
8415.091943095413
 21
1140.472703991516
 31
0.0
  0
LINE
  5
26D20
330
747D
100
AcDbEntity
  8
細線
 48
50.0
100
AcDbLine
 10
8229.449137188089
 20
1036.472703991518
 30
0.0
 11
8235.879917806435
 21
1012.472703991518
 31
0.0
  0
LINE
  5
26D21
330
747D
100
AcDbEntity
  8
細線
 48
50.0
100
AcDbLine
 10
8150.561092240842
 20
1036.472703991518
 30
0.0
 11
8156.99187285919
 21
1012.472703991518
 31
0.0
  0
LINE
  5
26D22
330
747D
100
AcDbEntity
  8
細線
 48
50.0
100
AcDbLine
 10
8387.225227082581
 20
1036.472703991518
 30
0.0
 11
8393.656007700927
 21
1012.472703991518
 31
0.0
  0
LINE
  5
26D23
330
747D
100
AcDbEntity
  8
細線
 48
50.0
100
AcDbLine
 10
8308.337182135336
 20
1036.472703991518
 30
0.0
 11
8314.767962753682
 21
1012.472703991518
 31
0.0
  0
LINE
  5
26D24
330
747D
100
AcDbEntity
  8
細線
 48
50.0
100
AcDbLine
 10
8250.885072582578
 20
1116.472703991518
 30
0.0
 11
8244.454291964229
 21
1140.472703991518
 31
0.0
  0
LINE
  5
26D25
330
747D
100
AcDbEntity
  8
細線
 48
50.0
100
AcDbLine
 10
8171.997027635331
 20
1116.472703991518
 30
0.0
 11
8165.566247016984
 21
1140.472703991518
 31
0.0
  0
LINE
  5
26D26
330
747D
100
AcDbEntity
  8
細線
 48
50.0
100
AcDbLine
 10
8329.773117529825
 20
1116.472703991518
 30
0.0
 11
8323.342336911478
 21
1140.472703991518
 31
0.0
  0
LINE
  5
26D27
330
747D
100
AcDbEntity
  8
細線
 48
50.0
100
AcDbLine
 10
8408.661162477072
 20
1116.472703991518
 30
0.0
 11
8402.230381858725
 21
1140.472703991518
 31
0.0
  0
LINE
  5
26D28
330
747D
100
AcDbEntity
  8
部品1
 48
50.0
100
AcDbLine
 10
8688.947472126477
 20
1140.472703991518
 30
0.0
 11
8688.947472126477
 21
1012.472703991518
 31
0.0
  0
LINE
  5
26D29
330
747D
100
AcDbEntity
  8
細線
 48
50.0
100
AcDbLine
 10
8617.458581305969
 20
1012.472703991516
 30
0.0
 11
8651.756077937156
 21
1140.472703991515
 31
0.0
  0
LINE
  5
26D2A
330
747D
100
AcDbEntity
  8
細線
 48
50.0
100
AcDbLine
 10
8459.682491411477
 20
1012.472703991516
 30
0.0
 11
8493.979988042651
 21
1140.472703991518
 31
0.0
  0
LINE
  5
26D2B
330
747D
100
AcDbEntity
  8
細線
 48
50.0
100
AcDbLine
 10
8538.570536358726
 20
1012.472703991515
 30
0.0
 11
8572.868032989909
 21
1140.472703991515
 31
0.0
  0
LINE
  5
26D2C
330
747D
100
AcDbEntity
  8
細線
 48
50.0
100
AcDbLine
 10
8466.113272029827
 20
1036.472703991518
 30
0.0
 11
8472.544052648183
 21
1012.472703991518
 31
0.0
  0
LINE
  5
26D2D
330
747D
100
AcDbEntity
  8
細線
 48
50.0
100
AcDbLine
 10
8545.001316977076
 20
1036.472703991516
 30
0.0
 11
8551.432097595421
 21
1012.472703991516
 31
0.0
  0
LINE
  5
26D2E
330
747D
100
AcDbEntity
  8
細線
 48
50.0
100
AcDbLine
 10
8623.889361924321
 20
1036.472703991516
 30
0.0
 11
8630.32014254267
 21
1012.472703991516
 31
0.0
  0
LINE
  5
26D2F
330
747D
100
AcDbEntity
  8
細線
 48
50.0
100
AcDbLine
 10
8487.549207424308
 20
1116.472703991518
 30
0.0
 11
8481.118426805961
 21
1140.472703991518
 31
0.0
  0
LINE
  5
26D30
330
747D
100
AcDbEntity
  8
細線
 48
50.0
100
AcDbLine
 10
8566.437252371564
 20
1116.472703991516
 30
0.0
 11
8560.006471753219
 21
1140.472703991516
 31
0.0
  0
LINE
  5
26D31
330
747D
100
AcDbEntity
  8
細線
 48
50.0
100
AcDbLine
 10
8645.325297318811
 20
1116.472703991516
 30
0.0
 11
8638.894516700464
 21
1140.472703991516
 31
0.0
  0
LINE
  5
26D32
330
747D
100
AcDbEntity
  8
部品1
100
AcDbLine
 10
8351.347472126475
 20
1600.472703991516
 30
0.0
 11
8225.347472126468
 21
1600.472703991516
 31
0.0
  0
LINE
  5
26D33
330
747D
100
AcDbEntity
  8
部品1
100
AcDbLine
 10
8333.347472126476
 20
1681.472703991518
 30
0.0
 11
8333.347472126476
 21
1699.472703991518
 31
0.0
  0
ARC
  5
26D34
330
747D
100
AcDbEntity
  8
部品1
100
AcDbCircle
 10
8297.347472126476
 20
1699.472703991518
 30
0.0
 40
18.0
100
AcDbArc
 50
180.0
 51
270.0
  0
LINE
  5
26D35
330
747D
100
AcDbEntity
  8
部品1
100
AcDbLine
 10
8297.347472126476
 20
1681.472703991518
 30
0.0
 11
8333.347472126476
 21
1681.472703991518
 31
0.0
  0
LINE
  5
26D36
330
747D
100
AcDbEntity
  8
部品1
100
AcDbLine
 10
8297.347472126476
 20
1699.472703991518
 30
0.0
 11
8333.347472126476
 21
1699.472703991518
 31
0.0
  0
LINE
  5
26D37
330
747D
100
AcDbEntity
  8
部品1
 48
50.0
100
AcDbLine
 10
8480.947472126475
 20
1380.472703991518
 30
0.0
 11
8608.947472126475
 21
1380.472703991518
 31
0.0
  0
LINE
  5
26D38
330
747D
100
AcDbEntity
  8
部品1
100
AcDbLine
 10
8086.747472126475
 20
2014.472703991518
 30
0.0
 11
8124.547472126478
 21
2014.472703991518
 31
0.0
  0
LINE
  5
26D39
330
747D
100
AcDbEntity
  8
細線
 48
50.0
100
AcDbLine
 10
8066.947472126475
 20
1885.312511928216
 30
0.0
 11
8106.107664189782
 21
1924.472703991518
 31
0.0
  0
LINE
  5
26D3A
330
747D
100
AcDbEntity
  8
細線
 48
50.0
100
AcDbLine
 10
8066.947472126475
 20
1858.371743565008
 30
0.0
 11
8133.048432552985
 21
1924.472703991518
 31
0.0
  0
LINE
  5
26D3B
330
747D
100
AcDbEntity
  8
部品1
 48
50.0
100
AcDbLine
 10
8066.947472126475
 20
1924.472703991518
 30
0.0
 11
8480.947472126478
 21
1924.472703991518
 31
0.0
  0
LINE
  5
26D3C
330
747D
100
AcDbEntity
  8
部品1
100
AcDbLine
 10
8084.047472126476
 20
2003.672703991518
 30
0.0
 11
8084.047472126476
 21
2011.772703991518
 31
0.0
  0
ARC
  5
26D3D
330
747D
100
AcDbEntity
  8
部品1
100
AcDbCircle
 10
8086.747472126475
 20
2011.772703991518
 30
0.0
 40
2.7
100
AcDbArc
 50
90.0
 51
180.0
  0
ARC
  5
26D3E
330
747D
100
AcDbEntity
  8
部品1
100
AcDbCircle
 10
8075.947472126474
 20
1998.864607694226
 30
0.0
 40
2.7
100
AcDbArc
 50
104.0362434679067
 51
180.0
  0
LINE
  5
26D3F
330
747D
100
AcDbEntity
  8
部品1
100
AcDbLine
 10
8075.292625938876
 20
2001.483992444618
 30
0.0
 11
8084.047472126476
 21
2003.672703991518
 31
0.0
  0
ARC
  5
26D40
330
747D
100
AcDbEntity
  8
部品1
100
AcDbCircle
 10
8075.947472126474
 20
1936.732703991518
 30
0.0
 40
2.7
100
AcDbArc
 50
180.0
 51
270.0
  0
LINE
  5
26D41
330
747D
100
AcDbEntity
  8
細線
 48
50.0
100
AcDbLine
 10
8066.947472126475
 20
1912.253280291423
 30
0.0
 11
8079.166895826569
 21
1924.472703991518
 31
0.0
  0
LINE
  5
26D42
330
747D
100
AcDbEntity
  8
部品1
100
AcDbLine
 10
8075.947472126474
 20
1934.032703991518
 30
0.0
 11
8087.647472126469
 21
1934.032703991518
 31
0.0
  0
LINE
  5
26D43
330
747D
100
AcDbEntity
  8
部品1
100
AcDbLine
 10
8073.247472126475
 20
1936.732703991518
 30
0.0
 11
8073.247472126475
 21
1998.864607694226
 31
0.0
  0
LINE
  5
26D44
330
747D
100
AcDbEntity
  8
部品1
100
AcDbLine
 10
8231.90747212647
 20
1934.032703991518
 30
0.0
 11
8433.24747212647
 21
1934.032703991518
 31
0.0
  0
LINE
  5
26D45
330
747D
100
AcDbEntity
  8
部品1
100
AcDbLine
 10
8124.547472126478
 20
2014.472703991518
 30
0.0
 11
8124.547472126478
 21
2022.572703991518
 31
0.0
  0
LINE
  5
26D46
330
747D
100
AcDbEntity
  8
部品1
100
AcDbLine
 10
8174.947472126474
 20
2033.372703991515
 30
0.0
 11
8174.947472126474
 21
1982.072703991518
 31
0.0
  0
LINE
  5
26D47
330
747D
100
AcDbEntity
  8
部品1
100
AcDbLine
 10
8198.347472126476
 20
1994.032703991518
 30
0.0
 11
8226.507472126476
 21
1994.032703991518
 31
0.0
  0
ARC
  5
26D48
330
747D
100
AcDbEntity
  8
部品1
100
AcDbCircle
 10
8198.347472126476
 20
1991.332703991518
 30
0.0
 40
2.7
100
AcDbArc
 50
90.0
 51
180.0
  0
ARC
  5
26D49
330
747D
100
AcDbEntity
  8
部品1
100
AcDbCircle
 10
8226.507472126476
 20
1991.332703991518
 30
0.0
 40
2.7
100
AcDbArc
 50
0.0
 51
90.0
  0
LINE
  5
26D4A
330
747D
100
AcDbEntity
  8
部品1
100
AcDbLine
 10
8217.247472126475
 20
1979.372703991517
 30
0.0
 11
8217.247472126475
 21
1936.732703991518
 31
0.0
  0
LINE
  5
26D4B
330
747D
100
AcDbEntity
  8
部品1
100
AcDbLine
 10
8202.847472126476
 20
1934.032703991518
 30
0.0
 11
8214.547472126476
 21
1934.032703991518
 31
0.0
  0
ARC
  5
26D4C
330
747D
100
AcDbEntity
  8
部品1
100
AcDbCircle
 10
8231.90747212647
 20
1936.732703991518
 30
0.0
 40
2.7
100
AcDbArc
 50
180.0
 51
270.0
  0
ARC
  5
26D4D
330
747D
100
AcDbEntity
  8
部品1
100
AcDbCircle
 10
8214.547472126476
 20
1936.732703991518
 30
0.0
 40
2.7
100
AcDbArc
 50
270.0
 51
0.0
  0
LINE
  5
26D4E
330
747D
100
AcDbEntity
  8
部品1
100
AcDbLine
 10
8174.947472126474
 20
1982.072703991518
 30
0.0
 11
8214.547472126476
 21
1982.072703991518
 31
0.0
  0
ARC
  5
26D4F
330
747D
100
AcDbEntity
  8
部品1
100
AcDbCircle
 10
8214.547472126476
 20
1979.372703991517
 30
0.0
 40
2.7
100
AcDbArc
 50
0.0
 51
90.0
  0
LINE
  5
26D50
330
747D
100
AcDbEntity
  8
部品1
100
AcDbLine
 10
8229.207472126477
 20
1991.332703991518
 30
0.0
 11
8229.207472126473
 21
1936.732703991518
 31
0.0
  0
LINE
  5
26D51
330
747D
100
AcDbEntity
  8
部品1
100
AcDbLine
 10
8195.647472126475
 20
1991.332703991518
 30
0.0
 11
8195.647472126475
 21
1974.232703991518
 31
0.0
  0
LINE
  5
26D52
330
747D
100
AcDbEntity
  8
細線
100
AcDbLine
 10
8293.747472126474
 20
1934.032703991518
 30
0.0
 11
8293.747472126474
 21
1977.232703991518
 31
0.0
  0
LINE
  5
26D53
330
747D
100
AcDbEntity
  8
細線
100
AcDbLine
 10
8282.947472126478
 20
1934.032703991518
 30
0.0
 11
8282.947472126474
 21
1977.232703991518
 31
0.0
  0
LINE
  5
26D54
330
747D
100
AcDbEntity
  8
部品1
100
AcDbLine
 10
8279.347472126476
 20
1973.632703991518
 30
0.0
 11
8297.347472126476
 21
1973.632703991518
 31
0.0
  0
LINE
  5
26D55
330
747D
100
AcDbEntity
  8
部品1
100
AcDbLine
 10
8282.947472126474
 20
1977.232703991518
 30
0.0
 11
8293.747472126474
 21
1977.232703991518
 31
0.0
  0
ELLIPSE
  5
26D56
330
747D
100
AcDbEntity
  8
部品1
 48
50.0
100
AcDbEllipse
 10
8288.347472126476
 20
2193.59599243579
 30
0.0
 11
40.0
 21
0.0
 31
0.0
210
0.0
220
0.0
230
1.0
 40
0.4
 41
0.0
 42
6.283185307179586
  0
ELLIPSE
  5
26D57
330
747D
100
AcDbEntity
  8
部品1
 48
50.0
100
AcDbEllipse
 10
8288.347472126476
 20
2183.995992435791
 30
0.0
 11
40.0
 21
0.0
 31
0.0
210
0.0
220
0.0
230
1.0
 40
0.4
 41
3.141592653589793
 42
6.283185307179586
  0
LINE
  5
26D58
330
747D
100
AcDbEntity
  8
部品1
 48
50.0
100
AcDbLine
 10
8248.347472126475
 20
2193.59599243579
 30
0.0
 11
8248.347472126475
 21
2183.99599243579
 31
0.0
  0
ARC
  5
26D59
330
747D
100
AcDbEntity
  8
部品1
100
AcDbCircle
 10
8172.247472126477
 20
2033.372703991515
 30
0.0
 40
2.7
100
AcDbArc
 50
0.0
 51
90.0
  0
ARC
  5
26D5A
330
747D
100
AcDbEntity
  8
部品1
100
AcDbCircle
 10
8129.947472126474
 20
2033.372703991517
 30
0.0
 40
2.7
100
AcDbArc
 50
90.0
 51
180.0
  0
LINE
  5
26D5B
330
747D
100
AcDbEntity
  8
部品1
100
AcDbLine
 10
8127.247472126475
 20
2025.272703991518
 30
0.0
 11
8127.247472126475
 21
2025.272703991518
 31
0.0
  0
LINE
  5
26D5C
330
747D
100
AcDbEntity
  8
部品1
100
AcDbLine
 10
8127.247472126475
 20
2025.272703991518
 30
0.0
 11
8127.247472126475
 21
2033.372703991517
 31
0.0
  0
LINE
  5
26D5D
330
747D
100
AcDbEntity
  8
部品1
100
AcDbLine
 10
8129.947472126474
 20
2036.072703991518
 30
0.0
 11
8172.247472126477
 21
2036.072703991515
 31
0.0
  0
ARC
  5
26D5E
330
747D
100
AcDbEntity
  8
部品1
100
AcDbCircle
 10
8127.247472126475
 20
2022.572703991518
 30
0.0
 40
2.7
100
AcDbArc
 50
90.0
 51
180.0
  0
ELLIPSE
  5
26D5F
330
747D
100
AcDbEntity
  8
部品1
 48
50.0
100
AcDbEllipse
 10
8288.347472126476
 20
2193.59599243579
 30
0.0
 11
18.4
 21
0.0
 31
0.0
210
0.0
220
0.0
230
1.0
 40
0.3478260869565217
 41
0.0
 42
6.283185307179586
  0
LINE
  5
26D60
330
747D
100
AcDbEntity
  8
部品1
 48
50.0
100
AcDbLine
 10
8328.347472126475
 20
2183.99599243579
 30
0.0
 11
8328.347472126475
 21
2193.59599243579
 31
0.0
  0
LINE
  5
26D61
330
747D
100
AcDbEntity
  8
部品1
 48
50.0
100
AcDbLine
 10
8256.347472126476
 20
2315.347985100661
 30
0.0
 11
8272.347472126476
 21
2307.347985100661
 31
0.0
  0
LINE
  5
26D62
330
747D
100
AcDbEntity
  8
部品1
 48
50.0
100
AcDbLine
 10
8256.347472126476
 20
2283.347985100661
 30
0.0
 11
8272.347472126476
 21
2275.347985100661
 31
0.0
  0
LINE
  5
26D63
330
747D
100
AcDbEntity
  8
部品1
 48
50.0
100
AcDbLine
 10
8256.347472126476
 20
2315.347985100661
 30
0.0
 11
8272.347472126476
 21
2323.347985100661
 31
0.0
  0
LINE
  5
26D64
330
747D
100
AcDbEntity
  8
部品1
 48
50.0
100
AcDbLine
 10
8256.347472126476
 20
2283.347985100661
 30
0.0
 11
8256.347472126476
 21
2315.347985100661
 31
0.0
  0
LINE
  5
26D65
330
747D
100
AcDbEntity
  8
部品1
 48
50.0
100
AcDbLine
 10
8272.347472126476
 20
2323.347985100661
 30
0.0
 11
8304.347472126476
 21
2323.347985100661
 31
0.0
  0
ELLIPSE
  5
26D66
330
747D
100
AcDbEntity
  8
細線
 48
50.0
100
AcDbEllipse
 10
8288.347472126476
 20
2315.347985100661
 30
0.0
 11
14.76670786606846
 21
0.0
 31
0.0
210
0.0
220
0.0
230
1.0
 40
0.2071254069489396
 41
0.0
 42
6.283185307179586
  0
LINE
  5
26D67
330
747D
100
AcDbEntity
  8
部品1
 48
50.0
100
AcDbLine
 10
8272.347472126476
 20
2275.347985100661
 30
0.0
 11
8304.347472126476
 21
2275.347985100661
 31
0.0
  0
LINE
  5
26D68
330
747D
100
AcDbEntity
  8
部品1
 48
50.0
100
AcDbLine
 10
8304.347472126476
 20
2275.347985100661
 30
0.0
 11
8320.347472126476
 21
2283.347985100661
 31
0.0
  0
LINE
  5
26D69
330
747D
100
AcDbEntity
  8
部品1
 48
50.0
100
AcDbLine
 10
8272.347472126476
 20
2307.347985100661
 30
0.0
 11
8304.347472126476
 21
2307.347985100661
 31
0.0
  0
LINE
  5
26D6A
330
747D
100
AcDbEntity
  8
部品1
 48
50.0
100
AcDbLine
 10
8304.347472126476
 20
2307.347985100661
 30
0.0
 11
8320.347472126476
 21
2315.347985100661
 31
0.0
  0
LINE
  5
26D6B
330
747D
100
AcDbEntity
  8
細線
 48
50.0
100
AcDbLine
 10
8304.347472126476
 20
2275.347985100661
 30
0.0
 11
8304.347472126476
 21
2307.347985100661
 31
0.0
  0
LINE
  5
26D6C
330
747D
100
AcDbEntity
  8
部品1
 48
50.0
100
AcDbLine
 10
8320.347472126476
 20
2283.347985100661
 30
0.0
 11
8320.347472126476
 21
2315.347985100661
 31
0.0
  0
LINE
  5
26D6D
330
747D
100
AcDbEntity
  8
細線
 48
50.0
100
AcDbLine
 10
8272.347472126476
 20
2275.347985100661
 30
0.0
 11
8272.347472126476
 21
2307.347985100661
 31
0.0
  0
LINE
  5
26D6E
330
747D
100
AcDbEntity
  8
部品1
 48
50.0
100
AcDbLine
 10
8304.347472126476
 20
2323.347985100661
 30
0.0
 11
8320.347472126476
 21
2315.347985100661
 31
0.0
  0
TEXT
  5
26D6F
330
747D
100
AcDbEntity
  8
部品1
100
AcDbText
 10
7989.119721318406
 20
3144.259439240676
 30
0.0
 40
120.0
  1
基礎詳細
  7
STYLE2
100
AcDbText
  0
LINE
  5
26D70
330
747D
100
AcDbEntity
  8
部品1
100
AcDbLine
 10
11367.22490552626
 20
359.5044016074562
 30
0.0
 11
11367.22490552627
 21
3323.811371192103
 31
0.0
  0
LINE
  5
26D71
330
747D
100
AcDbEntity
  8
細線
100
AcDbLine
 10
10375.11673810602
 20
1684.472703991518
 30
0.0
 11
10180.48340442923
 21
1879.106037668301
 31
0.0
  0
LINE
  5
26D72
330
747D
100
AcDbEntity
  8
部品1
100
AcDbLine
 10
10180.48340442923
 20
1924.472703991518
 30
0.0
 11
10660.48340442923
 21
1924.472703991518
 31
0.0
  0
LINE
  5
26D73
330
747D
100
AcDbEntity
  8
細線
 48
50.0
100
AcDbLine
 10
10314.55428887249
 20
1464.773788338168
 30
0.0
 11
10348.85178550367
 21
1592.773788338167
 31
0.0
  0
LINE
  5
26D74
330
747D
100
AcDbEntity
  8
部品1
100
AcDbLine
 10
10060.48340442923
 20
1464.773788338164
 30
0.0
 11
10780.48340442923
 21
1464.773788338168
 31
0.0
  0
LINE
  5
26D75
330
747D
100
AcDbEntity
  8
部品1
100
AcDbLine
 10
10060.48340442923
 20
1592.773788338168
 30
0.0
 11
10780.48340442923
 21
1592.77378833817
 31
0.0
  0
LINE
  5
26D76
330
747D
100
AcDbEntity
  8
細線
100
AcDbLine
 10
10241.40204992247
 20
1592.773788338168
 30
0.0
 11
10333.10096557582
 21
1684.472703991518
 31
0.0
  0
LWPOLYLINE
  5
26D77
330
747D
100
AcDbEntity
  8
部品1
 48
50.0
100
AcDbPolyline
 90
        2
 70
     0
 43
12.0
 10
9795.872142328846
 20
1684.472703991518
 10
10996.96444546047
 20
1684.472703991518
  0
LINE
  5
26D78
330
747D
100
AcDbEntity
  8
細線
100
AcDbLine
 10
10324.20504986058
 20
1684.472703991518
 30
0.0
 11
10180.48340442923
 21
1828.194349422871
 31
0.0
  0
TEXT
  5
26D79
330
747D
100
AcDbEntity
  8
部品1
 48
50.0
100
AcDbText
 10
9416.365317670729
 20
1417.672963354209
 30
0.0
 40
80.0
  1
ボルトの出
 50
90.0
  7
STYLE2
100
AcDbText
  0
LINE
  5
26D7A
330
747D
100
AcDbEntity
  8
部品1
100
AcDbLine
 10
10180.48340442923
 20
1684.472703991518
 30
0.0
 11
10180.48340442923
 21
1924.472703991518
 31
0.0
  0
LINE
  5
26D7B
330
747D
100
AcDbEntity
  8
細線
 48
50.0
100
AcDbLine
 10
10156.77819897799
 20
1464.773788338167
 30
0.0
 11
10191.07569560917
 21
1592.773788338167
 31
0.0
  0
LINE
  5
26D7C
330
747D
100
AcDbEntity
  8
細線
 48
50.0
100
AcDbLine
 10
10235.66624392524
 20
1464.773788338168
 30
0.0
 11
10269.96374055643
 21
1592.773788338168
 31
0.0
  0
LINE
  5
26D7D
330
747D
100
AcDbEntity
  8
細線
 48
50.0
100
AcDbLine
 10
10077.89015403074
 20
1464.773788338168
 30
0.0
 11
10112.18765066193
 21
1592.773788338168
 31
0.0
  0
LINE
  5
26D7E
330
747D
100
AcDbEntity
  8
部品1
100
AcDbLine
 10
10060.48340442923
 20
1464.773788338164
 30
0.0
 11
10060.48340442923
 21
1684.472703991518
 31
0.0
  0
LINE
  5
26D7F
330
747D
100
AcDbEntity
  8
細線
 48
50.0
100
AcDbLine
 10
10163.20897959634
 20
1488.773788338168
 30
0.0
 11
10169.63976021469
 21
1464.773788338168
 31
0.0
  0
LINE
  5
26D80
330
747D
100
AcDbEntity
  8
細線
 48
50.0
100
AcDbLine
 10
10084.32093464909
 20
1488.773788338168
 30
0.0
 11
10090.75171526744
 21
1464.773788338168
 31
0.0
  0
LINE
  5
26D81
330
747D
100
AcDbEntity
  8
細線
 48
50.0
100
AcDbLine
 10
10242.09702454359
 20
1488.773788338168
 30
0.0
 11
10248.52780516194
 21
1464.773788338168
 31
0.0
  0
LINE
  5
26D82
330
747D
100
AcDbEntity
  8
細線
 48
50.0
100
AcDbLine
 10
10320.98506949084
 20
1488.773788338168
 30
0.0
 11
10327.41585010919
 21
1464.773788338168
 31
0.0
  0
LINE
  5
26D83
330
747D
100
AcDbEntity
  8
細線
 48
50.0
100
AcDbLine
 10
10105.75687004358
 20
1568.773788338168
 30
0.0
 11
10099.32608942523
 21
1592.773788338168
 31
0.0
  0
LINE
  5
26D84
330
747D
100
AcDbEntity
  8
細線
 48
50.0
100
AcDbLine
 10
10263.53295993808
 20
1568.773788338168
 30
0.0
 11
10257.10217931974
 21
1592.773788338168
 31
0.0
  0
LINE
  5
26D85
330
747D
100
AcDbEntity
  8
細線
 48
50.0
100
AcDbLine
 10
10184.64491499083
 20
1568.773788338168
 30
0.0
 11
10178.21413437248
 21
1592.773788338168
 31
0.0
  0
LINE
  5
26D86
330
747D
100
AcDbEntity
  8
細線
100
AcDbLine
 10
10173.51979892856
 20
1592.773788338168
 30
0.0
 11
10265.21871458191
 21
1684.472703991518
 31
0.0
  0
LINE
  5
26D87
330
747D
100
AcDbEntity
  8
細線
100
AcDbLine
 10
10207.46092442552
 20
1592.773788338168
 30
0.0
 11
10299.15984007886
 21
1684.472703991518
 31
0.0
  0
LINE
  5
26D88
330
747D
100
AcDbEntity
  8
細線
100
AcDbLine
 10
10595.73405383622
 20
1684.472703991518
 30
0.0
 11
10355.73405383622
 21
1924.472703991518
 31
0.0
  0
LINE
  5
26D89
330
747D
100
AcDbEntity
  8
細線
100
AcDbLine
 10
10646.64574208165
 20
1684.472703991519
 30
0.0
 11
10406.64574208165
 21
1924.472703991518
 31
0.0
  0
LINE
  5
26D8A
330
747D
100
AcDbEntity
  8
部品1
100
AcDbLine
 10
10660.48340442923
 20
1924.472703991518
 30
0.0
 11
10660.48340442923
 21
1684.472703991518
 31
0.0
  0
LINE
  5
26D8B
330
747D
100
AcDbEntity
  8
細線
 48
50.0
100
AcDbLine
 10
10630.10646866148
 20
1464.773788338165
 30
0.0
 11
10664.40396529266
 21
1592.773788338165
 31
0.0
  0
LINE
  5
26D8C
330
747D
100
AcDbEntity
  8
細線
100
AcDbLine
 10
10601.40204992247
 20
1592.77378833817
 30
0.0
 11
10693.10096557582
 21
1684.472703991518
 31
0.0
  0
LINE
  5
26D8D
330
747D
100
AcDbEntity
  8
細線
 48
50.0
100
AcDbLine
 10
10551.21842371423
 20
1464.773788338167
 30
0.0
 11
10585.5159203454
 21
1592.773788338168
 31
0.0
  0
LINE
  5
26D8E
330
747D
100
AcDbEntity
  8
細線
 48
50.0
100
AcDbLine
 10
10393.44233381974
 20
1464.773788338167
 30
0.0
 11
10427.73983045092
 21
1592.773788338167
 31
0.0
  0
LINE
  5
26D8F
330
747D
100
AcDbEntity
  8
細線
 48
50.0
100
AcDbLine
 10
10472.33037876698
 20
1464.773788338168
 30
0.0
 11
10506.62787539817
 21
1592.773788338167
 31
0.0
  0
LINE
  5
26D90
330
747D
100
AcDbEntity
  8
細線
 48
50.0
100
AcDbLine
 10
10478.76115938533
 20
1488.773788338168
 30
0.0
 11
10485.19194000368
 21
1464.773788338168
 31
0.0
  0
LINE
  5
26D91
330
747D
100
AcDbEntity
  8
細線
 48
50.0
100
AcDbLine
 10
10399.87311443809
 20
1488.773788338168
 30
0.0
 11
10406.30389505643
 21
1464.773788338168
 31
0.0
  0
LINE
  5
26D92
330
747D
100
AcDbEntity
  8
細線
 48
50.0
100
AcDbLine
 10
10557.64920433258
 20
1488.773788338168
 30
0.0
 11
10564.07998495094
 21
1464.773788338168
 31
0.0
  0
LINE
  5
26D93
330
747D
100
AcDbEntity
  8
細線
 48
50.0
100
AcDbLine
 10
10636.53724927983
 20
1488.773788338167
 30
0.0
 11
10642.96802989817
 21
1464.773788338167
 31
0.0
  0
LINE
  5
26D94
330
747D
100
AcDbEntity
  8
細線
 48
50.0
100
AcDbLine
 10
10500.19709477982
 20
1568.773788338168
 30
0.0
 11
10493.76631416148
 21
1592.773788338168
 31
0.0
  0
LINE
  5
26D95
330
747D
100
AcDbEntity
  8
細線
 48
50.0
100
AcDbLine
 10
10421.30904983258
 20
1568.773788338168
 30
0.0
 11
10414.87826921423
 21
1592.773788338168
 31
0.0
  0
LINE
  5
26D96
330
747D
100
AcDbEntity
  8
細線
 48
50.0
100
AcDbLine
 10
10342.42100488533
 20
1568.773788338168
 30
0.0
 11
10335.99022426698
 21
1592.773788338168
 31
0.0
  0
LINE
  5
26D97
330
747D
100
AcDbEntity
  8
細線
100
AcDbLine
 10
10567.46092442552
 20
1592.77378833817
 30
0.0
 11
10659.15984007886
 21
1684.472703991518
 31
0.0
  0
LINE
  5
26D98
330
747D
100
AcDbEntity
  8
細線
 48
50.0
100
AcDbLine
 10
10579.08513972706
 20
1568.773788338168
 30
0.0
 11
10572.65435910871
 21
1592.773788338168
 31
0.0
  0
LINE
  5
26D99
330
747D
100
AcDbEntity
  8
細線
100
AcDbLine
 10
10533.51979892856
 20
1592.77378833817
 30
0.0
 11
10625.21871458191
 21
1684.472703991518
 31
0.0
  0
LINE
  5
26D9A
330
747D
100
AcDbEntity
  8
細線
 48
50.0
100
AcDbLine
 10
10657.97318467432
 20
1568.773788338167
 30
0.0
 11
10651.54240405597
 21
1592.773788338167
 31
0.0
  0
LINE
  5
26D9B
330
747D
100
AcDbEntity
  8
細線
 48
50.0
100
AcDbLine
 10
10708.99451360872
 20
1464.773788338167
 30
0.0
 11
10743.29201023991
 21
1592.773788338165
 31
0.0
  0
LINE
  5
26D9C
330
747D
100
AcDbEntity
  8
部品1
100
AcDbLine
 10
10780.48340442923
 20
1684.472703991518
 30
0.0
 11
10780.48340442923
 21
1464.773788338168
 31
0.0
  0
LINE
  5
26D9D
330
747D
100
AcDbEntity
  8
細線
 48
50.0
100
AcDbLine
 10
10715.42529422707
 20
1488.773788338167
 30
0.0
 11
10721.85607484542
 21
1464.773788338167
 31
0.0
  0
LINE
  5
26D9E
330
747D
100
AcDbEntity
  8
細線
 48
50.0
100
AcDbLine
 10
10736.86122962156
 20
1568.773788338167
 30
0.0
 11
10730.43044900322
 21
1592.773788338167
 31
0.0
  0
LEADER
  5
26D9F
330
747D
100
AcDbEntity
  8
寸法
 48
50.0
100
AcDbLeader
  3
INABA_S50G
 73
     0
 74
     0
 75
     1
 40
120.0
 41
185.591883092037
 76
     3
 10
10591.20781604515
 20
1924.472703991518
 30
0.0
 10
10624.3460226788
 20
2096.619024672655
 30
0.0
 10
10749.3460226788
 20
2096.619024672655
 30
0.0
340
26DA0
1001
ACAD
1000
DSTYLE
1002
{
1070
    40
1040
1.0
1002
}
  0
MTEXT
  5
26DA0
102
{ACAD_REACTORS
330
26D9F
102
}
330
747D
100
AcDbEntity
  8
寸法
 62
     7
 48
50.0
100
AcDbMText
 10
10774.3460226788
 20
2181.619024672656
 30
0.0
 40
120.0
 41
0.8
 71
     4
 72
     1
  1
\A1;C.B
  7
STYLE1
 73
     1
 44
1.0
1001
ACAD
1000
MTEXTBEGIN
1070
    73
1070
     1
1070
    44
1040
1.0
1070
    74
1070
     0
1000
MTEXTEND
  0
ENDSEC
  0
SECTION
  2
OBJECTS
  0
DICTIONARY
  5
7471
330
0
100
AcDbDictionary
281
     1
  3
ACAD_COLOR
350
173D2
  3
ACAD_GROUP
350
7472
  3
ACAD_LAYOUT
350
173D3
  3
ACAD_MATERIAL
350
173D1
  3
ACAD_MLINESTYLE
350
7473
  3
ACAD_PLOTSETTINGS
350
173D4
  3
ACAD_PLOTSTYLENAME
350
173CF
  3
ACDBHEADERROUNDTRIPXREC
350
26E2F
  3
AcDbVariableDictionary
350
269D7
  3
CONTENTDICTIONARY
350
E71C
  3
DRAWINGVARIABLESDICT
350
F3B9
  0
DICTIONARY
  5
1758F
330
7467
100
AcDbDictionary
280
     1
281
     1
  3
ACAD_LAYERSTATES
360
17590
  0
DICTIONARY
  5
173D2
102
{ACAD_REACTORS
330
7471
102
}
330
7471
100
AcDbDictionary
281
     1
  0
DICTIONARY
  5
7472
102
{ACAD_REACTORS
330
7471
102
}
330
7471
100
AcDbDictionary
281
     1
  3
*A1
350
1D2A9
  0
DICTIONARY
  5
173D3
102
{ACAD_REACTORS
330
7471
102
}
330
7471
100
AcDbDictionary
281
     1
  3
Model
350
173D5
  3
レイアウト1
350
173D6
  0
DICTIONARY
  5
173D1
102
{ACAD_REACTORS
330
7471
102
}
330
7471
100
AcDbDictionary
281
     1
  0
DICTIONARY
  5
7473
102
{ACAD_REACTORS
330
7471
102
}
330
7471
100
AcDbDictionary
281
     1
  3
STANDARD
350
7480
  0
DICTIONARY
  5
173D4
102
{ACAD_REACTORS
330
7471
102
}
330
7471
100
AcDbDictionary
281
     1
  0
ACDBDICTIONARYWDFLT
  5
173CF
102
{ACAD_REACTORS
330
7471
102
}
330
7471
100
AcDbDictionary
281
     1
  3
Normal
350
173D0
100
AcDbDictionaryWithDefault
340
173D0
  0
DICTIONARY
  5
26E2F
102
{ACAD_REACTORS
330
7471
102
}
330
7471
100
AcDbDictionary
281
     1
  3
COLORDICT
350
26E31
  3
MATERIALDICT
350
26E30
  0
DICTIONARY
  5
269D7
102
{ACAD_REACTORS
330
7471
102
}
330
7471
100
AcDbDictionary
281
     1
  3
DIMASSOC
350
269D8
  3
PROJECTNAME
350
269D9
  0
DICTIONARY
  5
E71C
102
{ACAD_REACTORS
330
7471
102
}
330
7471
100
AcDbDictionary
281
     1
  0
DICTIONARY
  5
F3B9
102
{ACAD_REACTORS
330
7471
102
}
330
7471
100
AcDbDictionary
281
     1
1001
DRAWINGVARIABLESXDATA
1000
POLARMODE
1000
1
  0
DICTIONARY
  5
17590
102
{ACAD_REACTORS
330
1758F
102
}
330
1758F
100
AcDbDictionary
281
     1
  0
GROUP
  5
1D2A9
102
{ACAD_REACTORS
330
7472
102
}
330
7472
100
AcDbGroup
300

 70
     1
 71
     1
  0
LAYOUT
  5
173D5
102
{ACAD_XDICTIONARY
360
26E32
102
}
102
{ACAD_REACTORS
330
173D3
102
}
330
173D3
100
AcDbPlotSettings
  1

  2
クセロPDF
  4
A3
  6

 40
3.174999952316284
 41
3.174999952316284
 42
3.17498779296875
 43
3.17498779296875
 44
419.9466552734374
 45
296.9259948730469
 46
0.0
 47
0.0
 48
0.0
 49
0.0
140
0.0
141
0.0
142
1.0
143
40.88431153497317
 70
 11952
 72
     1
 73
     0
 74
     2
  7
inabass.ctb
 75
     0
147
0.0244592598592392
148
0.0
149
0.0
100
AcDbLayout
  1
Model
 70
     1
 71
     0
 10
0.0
 20
0.0
 11
12.0
 21
9.0
 12
0.0
 22
0.0
 32
0.0
 14
0.0
 24
0.0
 34
0.0
 15
0.0
 25
0.0
 35
0.0
146
0.0
 13
0.0
 23
0.0
 33
0.0
 16
1.0
 26
0.0
 36
0.0
 17
0.0
 27
1.0
 37
0.0
 76
     0
330
747D
  0
LAYOUT
  5
173D6
102
{ACAD_XDICTIONARY
360
26E34
102
}
102
{ACAD_REACTORS
330
173D3
102
}
330
173D3
100
AcDbPlotSettings
  1

  2
Microsoft Office Document Image Writer
  4

  6

 40
0.0
 41
0.0
 42
0.0
 43
0.0
 44
0.0
 45
0.0
 46
0.0
 47
0.0
 48
0.0
 49
0.0
140
0.0
141
0.0
142
1.0
143
1.0
 70
   688
 72
     0
 73
     0
 74
     5
  7
inabass.ctb
 75
    16
147
1.0
148
0.0
149
0.0
100
AcDbLayout
  1
レイアウト1
 70
     0
 71
     1
 10
0.0
 20
0.0
 11
420.0
 21
297.0
 12
0.0
 22
0.0
 32
0.0
 14
1.000000000000000E+20
 24
1.000000000000000E+20
 34
1.000000000000000E+20
 15
-1.000000000000000E+20
 25
-1.000000000000000E+20
 35
-1.000000000000000E+20
146
0.0
 13
0.0
 23
0.0
 33
0.0
 16
1.0
 26
0.0
 36
0.0
 17
0.0
 27
1.0
 37
0.0
 76
     0
330
747A
  0
MLINESTYLE
  5
7480
102
{ACAD_REACTORS
330
7473
102
}
330
7473
100
AcDbMlineStyle
  2
STANDARD
 70
     0
  3

 62
     0
 51
90.0
 52
90.0
 71
     2
 49
0.5
 62
   256
  6
BYLAYER
 49
-0.5
 62
   256
  6
BYLAYER
  0
ACDBPLACEHOLDER
  5
173D0
102
{ACAD_REACTORS
330
173CF
102
}
330
173CF
  0
XRECORD
  5
26E31
102
{ACAD_REACTORS
330
26E2F
102
}
330
26E2F
100
AcDbXrecord
280
     1
340
173D2
  0
XRECORD
  5
26E30
102
{ACAD_REACTORS
330
26E2F
102
}
330
26E2F
100
AcDbXrecord
280
     1
340
173D1
  0
DICTIONARYVAR
  5
269D8
102
{ACAD_REACTORS
330
269D7
102
}
330
269D7
100
DictionaryVariables
280
     0
  1
1
  0
DICTIONARYVAR
  5
269D9
102
{ACAD_REACTORS
330
269D7
102
}
330
269D7
100
DictionaryVariables
280
     0
  1

  0
DICTIONARY
  5
26E32
330
173D5
100
AcDbDictionary
280
     1
281
     1
  3
ACAD_XREC_ROUNDTRIP
360
26E33
  0
DICTIONARY
  5
26E34
330
173D6
100
AcDbDictionary
280
     1
281
     1
  3
ACAD_XREC_ROUNDTRIP
360
26E35
  0
XRECORD
  5
26E33
102
{ACAD_REACTORS
330
26E32
102
}
330
26E32
100
AcDbXrecord
280
     1
102
SHADEPLOT
 70
     0
102
SHADEPLOTRESLEVEL
 70
     2
102
SHADEPLOTCUSTOMDPI
 70
   150
  0
XRECORD
  5
26E35
102
{ACAD_REACTORS
330
26E34
102
}
330
26E34
100
AcDbXrecord
280
     1
102
SHADEPLOT
 70
     0
102
SHADEPLOTRESLEVEL
 70
     2
102
SHADEPLOTCUSTOMDPI
 70
   300
  0
ENDSEC
  0
EOF
