  0
SECTION
  2
HEADER
  9
$ACADVER
  1
AC1015
  9
$ACADMAINTVER
 70
    20
  9
$DWGCODEPAGE
  3
ANSI_932
  9
$INSBASE
 10
0.0
 20
0.0
 30
0.0
  9
$EXTMIN
 10
139.9999999999995
 20
-0.0000000000000909
 30
0.0
  9
$EXTMAX
 10
16307.2
 20
11409.6
 30
0.0
  9
$LIMMIN
 10
0.0
 20
0.0
  9
$LIMMAX
 10
16800.0
 20
11880.0
  9
$ORTHOMODE
 70
     0
  9
$REGENMODE
 70
     1
  9
$FILLMODE
 70
     1
  9
$QTEXTMODE
 70
     0
  9
$MIRRTEXT
 70
     1
  9
$LTSCALE
 40
20.0
  9
$ATTMODE
 70
     1
  9
$TEXTSIZE
 40
120.0
  9
$TRACEWID
 40
1.0
  9
$TEXTSTYLE
  7
STYLE1
  9
$CLAYER
  8
部品1
  9
$CELTYPE
  6
BYLAYER
  9
$CECOLOR
 62
   256
  9
$CELTSCALE
 40
50.0
  9
$DISPSILH
 70
     0
  9
$DIMSCALE
 40
40.0
  9
$DIMASZ
 40
2.5
  9
$DIMEXO
 40
0.5
  9
$DIMDLI
 40
7.0
  9
$DIMRND
 40
0.0
  9
$DIMDLE
 40
0.0
  9
$DIMEXE
 40
1.5
  9
$DIMTP
 40
0.0
  9
$DIMTM
 40
0.0
  9
$DIMTXT
 40
3.0
  9
$DIMCEN
 40
0.0
  9
$DIMTSZ
 40
0.0
  9
$DIMTOL
 70
     0
  9
$DIMLIM
 70
     0
  9
$DIMTIH
 70
     0
  9
$DIMTOH
 70
     0
  9
$DIMSE1
 70
     0
  9
$DIMSE2
 70
     0
  9
$DIMTAD
 70
     3
  9
$DIMZIN
 70
     8
  9
$DIMBLK
  1

  9
$DIMASO
 70
     1
  9
$DIMSHO
 70
     1
  9
$DIMPOST
  1

  9
$DIMAPOST
  1

  9
$DIMALT
 70
     0
  9
$DIMALTD
 70
     2
  9
$DIMALTF
 40
0.0394
  9
$DIMLFAC
 40
1.0
  9
$DIMTOFL
 70
     1
  9
$DIMTVP
 40
0.0
  9
$DIMTIX
 70
     1
  9
$DIMSOXD
 70
     0
  9
$DIMSAH
 70
     1
  9
$DIMBLK1
  1
DOTSMALL
  9
$DIMBLK2
  1
DOTSMALL
  9
$DIMSTYLE
  2
INABA_S40G
  9
$DIMCLRD
 70
     0
  9
$DIMCLRE
 70
     0
  9
$DIMCLRT
 70
     7
  9
$DIMTFAC
 40
1.0
  9
$DIMGAP
 40
1.0
  9
$DIMJUST
 70
     0
  9
$DIMSD1
 70
     0
  9
$DIMSD2
 70
     0
  9
$DIMTOLJ
 70
     1
  9
$DIMTZIN
 70
     0
  9
$DIMALTZ
 70
     0
  9
$DIMALTTZ
 70
     0
  9
$DIMUPT
 70
     1
  9
$DIMDEC
 70
     1
  9
$DIMTDEC
 70
     4
  9
$DIMALTU
 70
     2
  9
$DIMALTTD
 70
     2
  9
$DIMTXSTY
  7
STYLE1
  9
$DIMAUNIT
 70
     0
  9
$DIMADEC
 70
     0
  9
$DIMALTRND
 40
0.0
  9
$DIMAZIN
 70
     0
  9
$DIMDSEP
 70
    46
  9
$DIMATFIT
 70
     3
  9
$DIMFRAC
 70
     0
  9
$DIMLDRBLK
  1

  9
$DIMLUNIT
 70
     2
  9
$DIMLWD
 70
    -2
  9
$DIMLWE
 70
    -2
  9
$DIMTMOVE
 70
     0
  9
$LUNITS
 70
     2
  9
$LUPREC
 70
     1
  9
$SKETCHINC
 40
1.0
  9
$FILLETRAD
 40
3.0
  9
$AUNITS
 70
     0
  9
$AUPREC
 70
     0
  9
$MENU
  1
acad
  9
$ELEVATION
 40
0.0
  9
$PELEVATION
 40
0.0
  9
$THICKNESS
 40
0.0
  9
$LIMCHECK
 70
     0
  9
$CHAMFERA
 40
0.0
  9
$CHAMFERB
 40
0.0
  9
$CHAMFERC
 40
0.0
  9
$CHAMFERD
 40
0.0
  9
$SKPOLY
 70
     0
  9
$TDCREATE
 40
2451368.612993866
  9
$TDUCREATE
 40
2451368.237993866
  9
$TDUPDATE
 40
2455575.688182327
  9
$TDUUPDATE
 40
2455575.313182327
  9
$TDINDWG
 40
0.5362281134
  9
$TDUSRTIMER
 40
0.5362281134
  9
$USRTIMER
 70
     1
  9
$ANGBASE
 50
0.0
  9
$ANGDIR
 70
     0
  9
$PDMODE
 70
     3
  9
$PDSIZE
 40
2.0
  9
$PLINEWID
 40
0.0
  9
$SPLFRAME
 70
     0
  9
$SPLINETYPE
 70
     6
  9
$SPLINESEGS
 70
     8
  9
$HANDSEED
  5
190B4
  9
$SURFTAB1
 70
     6
  9
$SURFTAB2
 70
     6
  9
$SURFTYPE
 70
     6
  9
$SURFU
 70
     6
  9
$SURFV
 70
     6
  9
$UCSBASE
  2

  9
$UCSNAME
  2

  9
$UCSORG
 10
0.0
 20
0.0
 30
0.0
  9
$UCSXDIR
 10
1.0
 20
0.0
 30
0.0
  9
$UCSYDIR
 10
0.0
 20
1.0
 30
0.0
  9
$UCSORTHOREF
  2

  9
$UCSORTHOVIEW
 70
     0
  9
$UCSORGTOP
 10
0.0
 20
0.0
 30
0.0
  9
$UCSORGBOTTOM
 10
0.0
 20
0.0
 30
0.0
  9
$UCSORGLEFT
 10
0.0
 20
0.0
 30
0.0
  9
$UCSORGRIGHT
 10
0.0
 20
0.0
 30
0.0
  9
$UCSORGFRONT
 10
0.0
 20
0.0
 30
0.0
  9
$UCSORGBACK
 10
0.0
 20
0.0
 30
0.0
  9
$PUCSBASE
  2

  9
$PUCSNAME
  2

  9
$PUCSORG
 10
0.0
 20
0.0
 30
0.0
  9
$PUCSXDIR
 10
1.0
 20
0.0
 30
0.0
  9
$PUCSYDIR
 10
0.0
 20
1.0
 30
0.0
  9
$PUCSORTHOREF
  2

  9
$PUCSORTHOVIEW
 70
     0
  9
$PUCSORGTOP
 10
0.0
 20
0.0
 30
0.0
  9
$PUCSORGBOTTOM
 10
0.0
 20
0.0
 30
0.0
  9
$PUCSORGLEFT
 10
0.0
 20
0.0
 30
0.0
  9
$PUCSORGRIGHT
 10
0.0
 20
0.0
 30
0.0
  9
$PUCSORGFRONT
 10
0.0
 20
0.0
 30
0.0
  9
$PUCSORGBACK
 10
0.0
 20
0.0
 30
0.0
  9
$USERI1
 70
     0
  9
$USERI2
 70
     0
  9
$USERI3
 70
     0
  9
$USERI4
 70
     0
  9
$USERI5
 70
     0
  9
$USERR1
 40
0.0
  9
$USERR2
 40
0.0
  9
$USERR3
 40
0.0
  9
$USERR4
 40
0.0
  9
$USERR5
 40
0.0
  9
$WORLDVIEW
 70
     1
  9
$SHADEDGE
 70
     3
  9
$SHADEDIF
 70
    70
  9
$TILEMODE
 70
     1
  9
$MAXACTVP
 70
    16
  9
$PINSBASE
 10
0.0
 20
0.0
 30
0.0
  9
$PLIMCHECK
 70
     0
  9
$PEXTMIN
 10
1.000000000000000E+20
 20
1.000000000000000E+20
 30
1.000000000000000E+20
  9
$PEXTMAX
 10
-1.000000000000000E+20
 20
-1.000000000000000E+20
 30
-1.000000000000000E+20
  9
$PLIMMIN
 10
0.0
 20
0.0
  9
$PLIMMAX
 10
420.0
 20
297.0
  9
$UNITMODE
 70
     0
  9
$VISRETAIN
 70
     0
  9
$PLINEGEN
 70
     0
  9
$PSLTSCALE
 70
     0
  9
$TREEDEPTH
 70
  3020
  9
$CMLSTYLE
  2
STANDARD
  9
$CMLJUST
 70
     0
  9
$CMLSCALE
 40
1.0
  9
$PROXYGRAPHICS
 70
     1
  9
$MEASUREMENT
 70
     1
  9
$CELWEIGHT
370
    -1
  9
$ENDCAPS
280
     0
  9
$JOINSTYLE
280
     0
  9
$LWDISPLAY
290
     0
  9
$INSUNITS
 70
     0
  9
$HYPERLINKBASE
  1

  9
$STYLESHEET
  1

  9
$XEDIT
290
     1
  9
$CEPSNTYPE
380
     0
  9
$PSTYLEMODE
290
     1
  9
$FINGERPRINTGUID
  2
{5A108562-E542-4293-ADDE-2FD24072B266}
  9
$VERSIONGUID
  2
{89A16552-A58C-491E-BEC3-EB735A124C4B}
  9
$EXTNAMES
290
     1
  9
$PSVPSCALE
 40
0.0
  9
$OLESTARTUP
290
     0
  0
ENDSEC
  0
SECTION
  2
CLASSES
  0
CLASS
  1
ACDBDICTIONARYWDFLT
  2
AcDbDictionaryWithDefault
  3
ObjectDBX Classes
 90
        0
280
     0
281
     0
  0
CLASS
  1
DICTIONARYVAR
  2
AcDbDictionaryVar
  3
ObjectDBX Classes
 90
        0
280
     0
281
     0
  0
CLASS
  1
ACDBPLACEHOLDER
  2
AcDbPlaceHolder
  3
ObjectDBX Classes
 90
        0
280
     0
281
     0
  0
CLASS
  1
LAYOUT
  2
AcDbLayout
  3
ObjectDBX Classes
 90
        0
280
     0
281
     0
  0
ENDSEC
  0
SECTION
  2
TABLES
  0
TABLE
  2
VPORT
  5
746D
330
0
100
AcDbSymbolTable
 70
     2
  0
VPORT
  5
190AC
330
746D
100
AcDbSymbolTableRecord
100
AcDbViewportTableRecord
  2
*Active
 70
     0
 10
0.0
 20
0.0
 11
1.0
 21
1.0
 12
8223.678457839342
 22
6348.902608578911
 13
0.0
 23
0.0
 14
10.0
 24
10.0
 15
10.0
 25
10.0
 16
0.0
 26
0.0
 36
1.0
 17
0.0
 27
0.0
 37
0.0
 40
12807.46322037346
 41
1.525925925925925
 42
50.0
 43
0.0
 44
0.0
 50
0.0
 51
0.0
 71
     0
 72
     0
 73
     1
 74
     0
 75
     0
 76
     0
 77
     0
 78
     0
281
     0
 65
     1
110
0.0
120
0.0
130
0.0
111
1.0
121
0.0
131
0.0
112
0.0
122
1.0
132
0.0
 79
     0
146
0.0
  0
ENDTAB
  0
TABLE
  2
LTYPE
  5
746A
330
0
100
AcDbSymbolTable
 70
     4
  0
LTYPE
  5
7477
330
746A
100
AcDbSymbolTableRecord
100
AcDbLinetypeTableRecord
  2
BYBLOCK
 70
     0
  3

 72
    65
 73
     0
 40
0.0
  0
LTYPE
  5
7478
330
746A
100
AcDbSymbolTableRecord
100
AcDbLinetypeTableRecord
  2
BYLAYER
 70
     0
  3

 72
    65
 73
     0
 40
0.0
  0
LTYPE
  5
7479
330
746A
100
AcDbSymbolTableRecord
100
AcDbLinetypeTableRecord
  2
CONTINUOUS
 70
     0
  3
Solid line
 72
    65
 73
     0
 40
0.0
  0
LTYPE
  5
7816
330
746A
100
AcDbSymbolTableRecord
100
AcDbLinetypeTableRecord
  2
CENTER
 70
     0
  3
____ _ ____ _ ____ _ ____ _ ____ _ ____ _ ____ 
 72
    65
 73
     4
 40
2.0
 49
1.25
 74
     0
 49
-0.25
 74
     0
 49
0.25
 74
     0
 49
-0.25
 74
     0
  0
LTYPE
  5
781A
330
746A
100
AcDbSymbolTableRecord
100
AcDbLinetypeTableRecord
  2
HIDDEN
 70
     0
  3
__ __ __ __ __ __ __ __ __ __ __ __ __ __ __ __
 72
    65
 73
     2
 40
0.375
 49
0.25
 74
     0
 49
-0.125
 74
     0
  0
LTYPE
  5
781B
330
746A
100
AcDbSymbolTableRecord
100
AcDbLinetypeTableRecord
  2
PHANTOM
 70
     0
  3
______  __  __  ______  __  __  ______  __  __ 
 72
    65
 73
     6
 40
2.5
 49
1.25
 74
     0
 49
-0.25
 74
     0
 49
0.25
 74
     0
 49
-0.25
 74
     0
 49
0.25
 74
     0
 49
-0.25
 74
     0
  0
ENDTAB
  0
TABLE
  2
LAYER
  5
7467
102
{ACAD_XDICTIONARY
360
17829
102
}
330
0
100
AcDbSymbolTable
 70
    12
  0
LAYER
  5
7474
330
7467
100
AcDbSymbolTableRecord
100
AcDbLayerTableRecord
  2
0
 70
     0
 62
     7
  6
CONTINUOUS
370
    -3
390
1767F
  0
LAYER
  5
DEB2
330
7467
100
AcDbSymbolTableRecord
100
AcDbLayerTableRecord
  2
センター
 70
     0
 62
     3
  6
CENTER
370
    -3
390
1767F
  0
LAYER
  5
DEB3
330
7467
100
AcDbSymbolTableRecord
100
AcDbLayerTableRecord
  2
寸法
 70
     0
 62
     4
  6
CONTINUOUS
370
    -3
390
1767F
  0
LAYER
  5
DEB4
330
7467
100
AcDbSymbolTableRecord
100
AcDbLayerTableRecord
  2
部品1
 70
     0
 62
     7
  6
CONTINUOUS
370
    -3
390
1767F
  0
LAYER
  5
DEB5
330
7467
100
AcDbSymbolTableRecord
100
AcDbLayerTableRecord
  2
補助
 70
     0
 62
    -1
  6
CONTINUOUS
370
    -3
390
1767F
  0
LAYER
  5
DEB6
330
7467
100
AcDbSymbolTableRecord
100
AcDbLayerTableRecord
  2
文字
 70
     0
 62
     7
  6
CONTINUOUS
370
    -3
390
1767F
  0
LAYER
  5
F255
330
7467
100
AcDbSymbolTableRecord
100
AcDbLayerTableRecord
  2
DEFPOINTS
 70
     0
 62
     7
  6
CONTINUOUS
290
     0
370
    -3
390
1767F
  0
LAYER
  5
10B54
330
7467
100
AcDbSymbolTableRecord
100
AcDbLayerTableRecord
  2
仕様書枠
 70
     0
 62
   230
  6
CONTINUOUS
370
    -3
390
1767F
  0
LAYER
  5
11729
330
7467
100
AcDbSymbolTableRecord
100
AcDbLayerTableRecord
  2
Ｇ．Ｌ
 70
     0
 62
    30
  6
CONTINUOUS
370
    -3
390
1767F
  0
LAYER
  5
1173F
330
7467
100
AcDbSymbolTableRecord
100
AcDbLayerTableRecord
  2
細線
 70
     0
 62
     5
  6
CONTINUOUS
370
    -3
390
1767F
  0
LAYER
  5
12CC4
330
7467
100
AcDbSymbolTableRecord
100
AcDbLayerTableRecord
  2
想像線
 70
     0
 62
     6
  6
PHANTOM
370
    -3
390
1767F
  0
LAYER
  5
142E2
330
7467
100
AcDbSymbolTableRecord
100
AcDbLayerTableRecord
  2
破線
 70
     0
 62
     2
  6
HIDDEN
370
    -3
390
1767F
  0
ENDTAB
  0
TABLE
  2
STYLE
  5
7468
330
0
100
AcDbSymbolTable
 70
     5
  0
STYLE
  5
7475
330
7468
100
AcDbSymbolTableRecord
100
AcDbTextStyleTableRecord
  2
STANDARD
 70
     0
 40
0.0
 41
1.0
 50
0.0
 71
     0
 42
4.0
  3
txt
  4
C:\AutoCAD LT\bigfont.shx
  0
STYLE
  5
763C
330
7468
100
AcDbSymbolTableRecord
100
AcDbTextStyleTableRecord
  2
MSMINCHO
 70
     0
 40
0.0
 41
1.0
 50
0.0
 71
     0
 42
1.199999999999999
  3
C:\AutoCAD LT\msminch2.TTF
  4

  0
STYLE
  5
F706
330
7468
100
AcDbSymbolTableRecord
100
AcDbTextStyleTableRecord
  2
STYLE1
 70
     0
 40
0.0
 41
1.0
 50
0.0
 71
     0
 42
120.0
  3
isocp.shx
  4
bigfont.shx
  0
STYLE
  5
103BF
330
7468
100
AcDbSymbolTableRecord
100
AcDbTextStyleTableRecord
  2
STYLE2
 70
     0
 40
0.0
 41
1.0
 50
0.0
 71
     0
 42
100.0
  3
MS PGothic.ttf
  4

1001
ACAD
1000
MS PGothic
1071
    32818
  0
STYLE
  5
10BAA
330
7468
100
AcDbSymbolTableRecord
100
AcDbTextStyleTableRecord
  2
STYLE3
 70
     0
 40
0.0
 41
1.0
 50
0.0
 71
     0
 42
100.0
  3

  4

1001
ACAD
1000
DFPGothic-EB
1071
    32818
  0
ENDTAB
  0
TABLE
  2
VIEW
  5
746B
330
0
100
AcDbSymbolTable
 70
     0
  0
ENDTAB
  0
TABLE
  2
UCS
  5
746C
330
0
100
AcDbSymbolTable
 70
     0
  0
ENDTAB
  0
TABLE
  2
APPID
  5
746E
330
0
100
AcDbSymbolTable
 70
     6
  0
APPID
  5
7476
330
746E
100
AcDbSymbolTableRecord
100
AcDbRegAppTableRecord
  2
ACAD
 70
     0
  0
APPID
  5
DEA9
330
746E
100
AcDbSymbolTableRecord
100
AcDbRegAppTableRecord
  2
CONTENTBLOCKICON
 70
     0
  0
APPID
  5
DEAA
330
746E
100
AcDbSymbolTableRecord
100
AcDbRegAppTableRecord
  2
CONTENTBLOCKDESCRIPTION
 70
     0
  0
APPID
  5
E71D
330
746E
100
AcDbSymbolTableRecord
100
AcDbRegAppTableRecord
  2
CONTENTTABDATA
 70
     0
  0
APPID
  5
E71E
330
746E
100
AcDbSymbolTableRecord
100
AcDbRegAppTableRecord
  2
CONTENTCURRENTTAB
 70
     0
  0
APPID
  5
F3BA
330
746E
100
AcDbSymbolTableRecord
100
AcDbRegAppTableRecord
  2
DRAWINGVARIABLESXDATA
 70
     0
  0
ENDTAB
  0
TABLE
  2
DIMSTYLE
  5
746F
330
0
100
AcDbSymbolTable
 70
     4
100
AcDbDimStyleTable
 71
     0
  0
DIMSTYLE
105
7484
330
746F
100
AcDbSymbolTableRecord
100
AcDbDimStyleTableRecord
  2
JIS
 70
     0
 41
2.5
 42
1.0
 43
7.0
 44
1.0
 73
     0
 74
     0
 77
     1
 78
     8
140
2.5
141
0.0
143
0.0394
147
0.0
172
     1
174
     1
175
     1
340
7475
  0
DIMSTYLE
105
F236
330
746F
100
AcDbSymbolTableRecord
100
AcDbDimStyleTableRecord
  2
INABA_S40
 70
     0
 40
40.0
 41
2.5
 42
0.5
 43
7.0
 44
1.5
 73
     0
 74
     0
 77
     3
 78
     8
140
3.0
141
0.0
143
0.0394
147
1.0
172
     1
173
     1
174
     1
175
     1
178
     7
289
     0
340
7475
341
DEAC
343
DEAC
344
DEAC
  0
DIMSTYLE
105
F71F
102
{ACAD_REACTORS
330
1540B
330
15633
330
1568E
330
15727
330
15735
330
1603B
330
1603C
330
14521
330
14526
330
1452E
330
14530
330
14531
330
14532
330
14587
330
14589
330
17F5B
330
17F60
330
17F61
330
17F62
330
185C0
330
18559
330
184E7
330
1889C
330
1889D
330
1889E
330
188A0
330
188A4
330
188A7
330
188A8
330
188A9
330
188D2
330
188E1
102
}
330
746F
100
AcDbSymbolTableRecord
100
AcDbDimStyleTableRecord
  2
INABA_S40G
 70
     0
 40
40.0
 41
2.5
 42
0.5
 43
7.0
 44
1.5
 73
     0
 74
     0
 77
     3
 78
     8
140
3.0
141
0.0
143
0.0394
147
1.0
172
     1
173
     1
174
     1
178
     7
271
     1
288
     1
340
F706
341
F770
343
F770
344
F770
  0
DIMSTYLE
105
18F90
330
746F
100
AcDbSymbolTableRecord
100
AcDbDimStyleTableRecord
  2
INABA_S20G
 70
     0
 40
20.0
 41
2.5
 42
0.5
 43
7.0
 44
1.5
 73
     0
 74
     0
 77
     3
 78
     8
140
3.0
141
0.0
143
0.0394
147
1.0
172
     1
173
     1
174
     1
178
     7
271
     1
340
F706
341
F770
343
F770
344
F770
  0
ENDTAB
  0
TABLE
  2
BLOCK_RECORD
  5
7466
330
0
100
AcDbSymbolTable
 70
    34
  0
BLOCK_RECORD
  5
747D
330
7466
100
AcDbSymbolTableRecord
100
AcDbBlockTableRecord
  2
*MODEL_SPACE
340
17684
  0
BLOCK_RECORD
  5
747A
330
7466
100
AcDbSymbolTableRecord
100
AcDbBlockTableRecord
  2
*PAPER_SPACE
340
17685
  0
BLOCK_RECORD
  5
DEAC
330
7466
100
AcDbSymbolTableRecord
100
AcDbBlockTableRecord
  2
_OPEN
340
0
  0
BLOCK_RECORD
  5
F770
330
7466
100
AcDbSymbolTableRecord
100
AcDbBlockTableRecord
  2
_DOTSMALL
340
0
102
{BLKREFS
331
1580D
331
1580E
331
15818
331
15819
331
18E59
331
18E5A
331
18E63
331
18E64
331
18E6C
331
18E6D
331
18E77
331
18E78
331
18E80
331
18E81
331
18E89
331
18E8A
331
18E94
331
18E95
331
18E9D
331
18E9E
331
18EA6
331
18EA7
331
18EAF
331
18EB0
331
18EBA
331
18EBB
331
18EC3
331
18EC4
331
18ECC
331
18ECD
331
18ED7
331
18ED8
331
18EE0
331
18EE1
331
18EE9
331
18EEA
331
18EF2
331
18EF3
331
18EFB
331
18EFC
331
18F04
331
18F05
331
18F0D
331
18F0E
331
18F16
331
18F17
331
18F1F
331
18F20
331
18F28
331
18F29
331
18F31
331
18F32
331
18F3A
331
18F3B
331
18F45
331
18F46
331
18F4E
331
18F4F
331
18F57
331
18F58
331
18F62
331
18F63
331
18F6D
331
18F6E
331
18F76
331
18F77
331
18F81
331
18F82
102
}
  0
BLOCK_RECORD
  5
1458A
330
7466
100
AcDbSymbolTableRecord
100
AcDbBlockTableRecord
  2
*D2
340
0
  0
BLOCK_RECORD
  5
14598
330
7466
100
AcDbSymbolTableRecord
100
AcDbBlockTableRecord
  2
*D3
340
0
  0
BLOCK_RECORD
  5
145A4
330
7466
100
AcDbSymbolTableRecord
100
AcDbBlockTableRecord
  2
*D4
340
0
  0
BLOCK_RECORD
  5
145BE
330
7466
100
AcDbSymbolTableRecord
100
AcDbBlockTableRecord
  2
*D5
340
0
  0
BLOCK_RECORD
  5
145CC
330
7466
100
AcDbSymbolTableRecord
100
AcDbBlockTableRecord
  2
*D6
340
0
  0
BLOCK_RECORD
  5
145D8
330
7466
100
AcDbSymbolTableRecord
100
AcDbBlockTableRecord
  2
*D7
340
0
  0
BLOCK_RECORD
  5
14608
330
7466
100
AcDbSymbolTableRecord
100
AcDbBlockTableRecord
  2
*D8
340
0
  0
BLOCK_RECORD
  5
14616
330
7466
100
AcDbSymbolTableRecord
100
AcDbBlockTableRecord
  2
*D9
340
0
  0
BLOCK_RECORD
  5
153FF
330
7466
100
AcDbSymbolTableRecord
100
AcDbBlockTableRecord
  2
*D10
340
0
  0
BLOCK_RECORD
  5
15640
330
7466
100
AcDbSymbolTableRecord
100
AcDbBlockTableRecord
  2
*D11
340
0
  0
BLOCK_RECORD
  5
1568F
330
7466
100
AcDbSymbolTableRecord
100
AcDbBlockTableRecord
  2
*D12
340
0
  0
BLOCK_RECORD
  5
1571B
330
7466
100
AcDbSymbolTableRecord
100
AcDbBlockTableRecord
  2
*D13
340
0
  0
BLOCK_RECORD
  5
15728
330
7466
100
AcDbSymbolTableRecord
100
AcDbBlockTableRecord
  2
*D14
340
0
  0
BLOCK_RECORD
  5
1603D
330
7466
100
AcDbSymbolTableRecord
100
AcDbBlockTableRecord
  2
*D15
340
0
  0
BLOCK_RECORD
  5
16049
330
7466
100
AcDbSymbolTableRecord
100
AcDbBlockTableRecord
  2
*D16
340
0
  0
BLOCK_RECORD
  5
18191
330
7466
100
AcDbSymbolTableRecord
100
AcDbBlockTableRecord
  2
*D17
340
0
  0
BLOCK_RECORD
  5
1819F
330
7466
100
AcDbSymbolTableRecord
100
AcDbBlockTableRecord
  2
*D18
340
0
  0
BLOCK_RECORD
  5
181AB
330
7466
100
AcDbSymbolTableRecord
100
AcDbBlockTableRecord
  2
*D19
340
0
  0
BLOCK_RECORD
  5
181B7
330
7466
100
AcDbSymbolTableRecord
100
AcDbBlockTableRecord
  2
*D20
340
0
  0
BLOCK_RECORD
  5
18628
330
7466
100
AcDbSymbolTableRecord
100
AcDbBlockTableRecord
  2
*D21
340
0
  0
BLOCK_RECORD
  5
18634
330
7466
100
AcDbSymbolTableRecord
100
AcDbBlockTableRecord
  2
*D22
340
0
  0
BLOCK_RECORD
  5
18640
330
7466
100
AcDbSymbolTableRecord
100
AcDbBlockTableRecord
  2
*D23
340
0
  0
BLOCK_RECORD
  5
1897C
330
7466
100
AcDbSymbolTableRecord
100
AcDbBlockTableRecord
  2
*D24
340
0
  0
BLOCK_RECORD
  5
18988
330
7466
100
AcDbSymbolTableRecord
100
AcDbBlockTableRecord
  2
*D25
340
0
  0
BLOCK_RECORD
  5
18994
330
7466
100
AcDbSymbolTableRecord
100
AcDbBlockTableRecord
  2
*D26
340
0
  0
BLOCK_RECORD
  5
189AD
330
7466
100
AcDbSymbolTableRecord
100
AcDbBlockTableRecord
  2
*D27
340
0
  0
BLOCK_RECORD
  5
189BB
330
7466
100
AcDbSymbolTableRecord
100
AcDbBlockTableRecord
  2
*D28
340
0
  0
BLOCK_RECORD
  5
189C7
330
7466
100
AcDbSymbolTableRecord
100
AcDbBlockTableRecord
  2
*D29
340
0
  0
BLOCK_RECORD
  5
189D3
330
7466
100
AcDbSymbolTableRecord
100
AcDbBlockTableRecord
  2
*D30
340
0
  0
BLOCK_RECORD
  5
189E1
330
7466
100
AcDbSymbolTableRecord
100
AcDbBlockTableRecord
  2
*D31
340
0
  0
BLOCK_RECORD
  5
189ED
330
7466
100
AcDbSymbolTableRecord
100
AcDbBlockTableRecord
  2
*D32
340
0
  0
BLOCK_RECORD
  5
189FA
330
7466
100
AcDbSymbolTableRecord
100
AcDbBlockTableRecord
  2
*D33
340
0
  0
ENDTAB
  0
ENDSEC
  0
SECTION
  2
BLOCKS
  0
BLOCK
  5
7489
330
747D
100
AcDbEntity
  8
0
100
AcDbBlockBegin
  2
*MODEL_SPACE
 70
     0
 10
0.0
 20
0.0
 30
0.0
  3
*MODEL_SPACE
  1

  0
ENDBLK
  5
748A
330
747D
100
AcDbEntity
  8
0
100
AcDbBlockEnd
  0
BLOCK
  5
7487
330
747A
100
AcDbEntity
 67
     1
  8
0
100
AcDbBlockBegin
  2
*PAPER_SPACE
 70
     0
 10
0.0
 20
0.0
 30
0.0
  3
*PAPER_SPACE
  1

  0
ENDBLK
  5
7488
330
747A
100
AcDbEntity
 67
     1
  8
0
100
AcDbBlockEnd
  0
BLOCK
  5
DEAD
330
DEAC
100
AcDbEntity
  8
0
100
AcDbBlockBegin
  2
_OPEN
 70
     0
 10
0.0
 20
0.0
 30
0.0
  3
_OPEN
  1

  0
LINE
  5
DEAE
330
DEAC
100
AcDbEntity
  8
0
  6
ByBlock
 62
     0
100
AcDbLine
 10
-1.0
 20
0.1666666666666666
 30
0.0
 11
0.0
 21
0.0
 31
0.0
  0
LINE
  5
DEAF
330
DEAC
100
AcDbEntity
  8
0
  6
ByBlock
 62
     0
100
AcDbLine
 10
0.0
 20
0.0
 30
0.0
 11
-1.0
 21
-0.1666666666666666
 31
0.0
  0
LINE
  5
DEB0
330
DEAC
100
AcDbEntity
  8
0
  6
ByBlock
 62
     0
100
AcDbLine
 10
0.0
 20
0.0
 30
0.0
 11
-1.0
 21
0.0
 31
0.0
  0
ENDBLK
  5
DEB1
330
DEAC
100
AcDbEntity
  8
0
100
AcDbBlockEnd
  0
BLOCK
  5
F771
330
F770
100
AcDbEntity
  8
0
 48
50.0
100
AcDbBlockBegin
  2
_DOTSMALL
 70
     0
 10
0.0
 20
0.0
 30
0.0
  3
_DOTSMALL
  1

  0
LWPOLYLINE
  5
F772
330
F770
100
AcDbEntity
  8
0
  6
ByBlock
 62
     0
 48
50.0
100
AcDbPolyline
 90
        2
 70
     1
 43
0.5
 10
-0.0625
 20
0.0
 42
1.0
 10
0.0625
 20
0.0
 42
1.0
  0
ENDBLK
  5
F776
330
F770
100
AcDbEntity
  8
0
 48
50.0
100
AcDbBlockEnd
  0
BLOCK
  5
15424
330
1458A
100
AcDbEntity
  8
0
 48
50.0
100
AcDbBlockBegin
  2
*D2
 70
     1
 10
0.0
 20
0.0
 30
0.0
  3
*D2
  1

  0
LINE
  5
18F7C
330
1458A
100
AcDbEntity
  8
寸法
 62
     0
 48
50.0
370
    -2
100
AcDbLine
 10
4606.056627721347
 20
9760.346349032756
 30
0.0
 11
4606.056627721347
 21
10235.82469897913
 31
0.0
  0
LINE
  5
18F7D
330
1458A
100
AcDbEntity
  8
寸法
 62
     0
 48
50.0
370
    -2
100
AcDbLine
 10
4661.056627721381
 20
9760.346349032756
 30
0.0
 11
4661.056627721381
 21
10235.82469897913
 31
0.0
  0
LINE
  5
18F7E
330
1458A
100
AcDbEntity
  8
寸法
 62
     0
 48
50.0
370
    -2
100
AcDbLine
 10
4661.056627721381
 20
10175.82469897913
 30
0.0
 11
4761.056627721382
 21
10175.82469897913
 31
0.0
  0
LINE
  5
18F7F
330
1458A
100
AcDbEntity
  8
寸法
 62
     0
 48
50.0
370
    -2
100
AcDbLine
 10
4606.056627721347
 20
10175.82469897913
 30
0.0
 11
4189.08606497287
 21
10175.82469897913
 31
0.0
  0
LINE
  5
18F80
330
1458A
100
AcDbEntity
  8
寸法
 62
     0
 48
50.0
370
    -2
100
AcDbLine
 10
4661.056627721381
 20
10175.82469897913
 30
0.0
 11
4606.056627721347
 21
10175.82469897913
 31
0.0
  0
INSERT
  5
18F81
330
1458A
100
AcDbEntity
  8
寸法
 62
     0
 48
50.0
370
    -2
100
AcDbBlockReference
  2
_DOTSMALL
 10
4661.056627721381
 20
10175.82469897913
 30
0.0
 41
100.0
 42
100.0
 43
100.0
 50
180.0
  0
INSERT
  5
18F82
330
1458A
100
AcDbEntity
  8
寸法
 62
     0
 48
50.0
370
    -2
100
AcDbBlockReference
  2
_DOTSMALL
 10
4606.056627721347
 20
10175.82469897913
 30
0.0
 41
100.0
 42
100.0
 43
100.0
  0
MTEXT
  5
18F83
330
1458A
100
AcDbEntity
  8
寸法
 62
     7
 48
50.0
100
AcDbMText
 10
4297.571346347109
 20
10275.82469897913
 30
0.0
 40
120.0
 41
0.0
 71
     5
 72
     1
  1
\A1;55
  7
STYLE1
 73
     1
 44
1.0
1001
ACAD
1000
MTEXTBEGIN
1070
    73
1070
     1
1070
    44
1040
1.0
1070
    74
1070
     0
1000
MTEXTEND
  0
POINT
  5
18F84
330
1458A
100
AcDbEntity
  8
DEFPOINTS
 62
     0
 48
50.0
100
AcDbPoint
 10
4606.056627721347
 20
9740.346349032757
 30
0.0
  0
POINT
  5
18F85
330
1458A
100
AcDbEntity
  8
DEFPOINTS
 62
     0
 48
50.0
100
AcDbPoint
 10
4661.056627721381
 20
9740.346349032757
 30
0.0
  0
POINT
  5
18F86
330
1458A
100
AcDbEntity
  8
DEFPOINTS
 62
     0
 48
50.0
100
AcDbPoint
 10
4661.056627721381
 20
10175.82469897913
 30
0.0
  0
ENDBLK
  5
15430
330
1458A
100
AcDbEntity
  8
0
 48
50.0
100
AcDbBlockEnd
  0
BLOCK
  5
17592
330
14598
100
AcDbEntity
  8
0
 48
50.0
100
AcDbBlockBegin
  2
*D3
 70
     1
 10
0.0
 20
0.0
 30
0.0
  3
*D3
  1

  0
LINE
  5
18F73
330
14598
100
AcDbEntity
  8
寸法
 62
     0
 48
50.0
370
    -2
100
AcDbLine
 10
8736.056627721383
 20
9740.346349032883
 30
0.0
 11
9788.58991519543
 21
9740.346349032883
 31
0.0
  0
LINE
  5
18F74
330
14598
100
AcDbEntity
  8
寸法
 62
     0
 48
50.0
370
    -2
100
AcDbLine
 10
8736.056627721358
 20
7110.346349032873
 30
0.0
 11
9788.58991519543
 21
7110.346349032873
 31
0.0
  0
LINE
  5
18F75
330
14598
100
AcDbEntity
  8
寸法
 62
     0
 48
50.0
370
    -2
100
AcDbLine
 10
9728.589915195431
 20
9740.346349032883
 30
0.0
 11
9728.589915195431
 21
7110.346349032873
 31
0.0
  0
INSERT
  5
18F76
330
14598
100
AcDbEntity
  8
寸法
 62
     0
 48
50.0
370
    -2
100
AcDbBlockReference
  2
_DOTSMALL
 10
9728.589915195431
 20
9740.346349032883
 30
0.0
 41
100.0
 42
100.0
 43
100.0
 50
90.0
  0
INSERT
  5
18F77
330
14598
100
AcDbEntity
  8
寸法
 62
     0
 48
50.0
370
    -2
100
AcDbBlockReference
  2
_DOTSMALL
 10
9728.589915195431
 20
7110.346349032873
 30
0.0
 41
100.0
 42
100.0
 43
100.0
 50
270.0
  0
MTEXT
  5
18F78
330
14598
100
AcDbEntity
  8
寸法
 62
     7
 48
50.0
100
AcDbMText
 10
9628.578104171808
 20
8425.34634903288
 30
0.0
 40
120.0
 41
0.0
 71
     5
 72
     1
  1
\A1;2630
  7
STYLE1
 11
0.0000000000000001
 21
1.0
 31
0.0
 73
     1
 44
1.0
1001
ACAD
1000
MTEXTBEGIN
1070
    73
1070
     1
1070
    44
1040
1.0
1070
    74
1070
     0
1000
MTEXTEND
  0
POINT
  5
18F79
330
14598
100
AcDbEntity
  8
DEFPOINTS
 62
     0
 48
50.0
100
AcDbPoint
 10
8716.056627721384
 20
9740.346349032883
 30
0.0
  0
POINT
  5
18F7A
330
14598
100
AcDbEntity
  8
DEFPOINTS
 62
     0
 48
50.0
100
AcDbPoint
 10
8716.056627721359
 20
7110.346349032873
 30
0.0
  0
POINT
  5
18F7B
330
14598
100
AcDbEntity
  8
DEFPOINTS
 62
     0
 48
50.0
100
AcDbPoint
 10
9728.589915195431
 20
7110.346349032873
 30
0.0
  0
ENDBLK
  5
1759C
330
14598
100
AcDbEntity
  8
0
 48
50.0
100
AcDbBlockEnd
  0
BLOCK
  5
1492F
330
145A4
100
AcDbEntity
  8
0
 48
50.0
100
AcDbBlockBegin
  2
*D4
 70
     1
 10
0.0
 20
0.0
 30
0.0
  3
*D4
  1

  0
LINE
  5
18F68
330
145A4
100
AcDbEntity
  8
寸法
 62
     0
 48
50.0
370
    -2
100
AcDbLine
 10
8736.056627721383
 20
9740.346349032883
 30
0.0
 11
9423.482973455795
 21
9740.346349032883
 31
0.0
  0
LINE
  5
18F69
330
145A4
100
AcDbEntity
  8
寸法
 62
     0
 48
50.0
370
    -2
100
AcDbLine
 10
8736.056627721383
 20
9685.346349032887
 30
0.0
 11
9423.482973455795
 21
9685.346349032887
 31
0.0
  0
LINE
  5
18F6A
330
145A4
100
AcDbEntity
  8
寸法
 62
     0
 48
50.0
370
    -2
100
AcDbLine
 10
9363.482973455795
 20
9685.346349032887
 30
0.0
 11
9363.482973455795
 21
9585.346349032887
 31
0.0
  0
LINE
  5
18F6B
330
145A4
100
AcDbEntity
  8
寸法
 62
     0
 48
50.0
370
    -2
100
AcDbLine
 10
9363.482973455795
 20
9740.346349032883
 30
0.0
 11
9363.482973455795
 21
10157.31691178136
 31
0.0
  0
LINE
  5
18F6C
330
145A4
100
AcDbEntity
  8
寸法
 62
     0
 48
50.0
370
    -2
100
AcDbLine
 10
9363.482973455795
 20
9685.346349032887
 30
0.0
 11
9363.482973455795
 21
9740.346349032883
 31
0.0
  0
INSERT
  5
18F6D
330
145A4
100
AcDbEntity
  8
寸法
 62
     0
 48
50.0
370
    -2
100
AcDbBlockReference
  2
_DOTSMALL
 10
9363.482973455795
 20
9685.346349032887
 30
0.0
 41
100.0
 42
100.0
 43
100.0
 50
90.0
  0
INSERT
  5
18F6E
330
145A4
100
AcDbEntity
  8
寸法
 62
     0
 48
50.0
370
    -2
100
AcDbBlockReference
  2
_DOTSMALL
 10
9363.482973455795
 20
9740.346349032883
 30
0.0
 41
100.0
 42
100.0
 43
100.0
 50
270.0
  0
MTEXT
  5
18F6F
330
145A4
100
AcDbEntity
  8
寸法
 62
     7
 48
50.0
100
AcDbMText
 10
9263.482973455793
 20
10048.83163040712
 30
0.0
 40
120.0
 41
0.0
 71
     5
 72
     1
  1
\A1;55
  7
STYLE1
 11
0.0000000000000001
 21
1.0
 31
0.0
 73
     1
 44
1.0
1001
ACAD
1000
MTEXTBEGIN
1070
    73
1070
     1
1070
    44
1040
1.0
1070
    74
1070
     0
1000
MTEXTEND
  0
POINT
  5
18F70
330
145A4
100
AcDbEntity
  8
DEFPOINTS
 62
     0
 48
50.0
100
AcDbPoint
 10
8716.056627721384
 20
9740.346349032883
 30
0.0
  0
POINT
  5
18F71
330
145A4
100
AcDbEntity
  8
DEFPOINTS
 62
     0
 48
50.0
100
AcDbPoint
 10
8716.056627721384
 20
9685.346349032887
 30
0.0
  0
POINT
  5
18F72
330
145A4
100
AcDbEntity
  8
DEFPOINTS
 62
     0
 48
50.0
100
AcDbPoint
 10
9363.482973455795
 20
9685.346349032887
 30
0.0
  0
ENDBLK
  5
1493B
330
145A4
100
AcDbEntity
  8
0
 48
50.0
100
AcDbBlockEnd
  0
BLOCK
  5
1496A
330
145BE
100
AcDbEntity
  8
0
 48
50.0
100
AcDbBlockBegin
  2
*D5
 70
     1
 10
0.0
 20
0.0
 30
0.0
  3
*D5
  1

  0
LINE
  5
18F5D
330
145BE
100
AcDbEntity
  8
寸法
 62
     0
 48
50.0
370
    -2
100
AcDbLine
 10
8736.056627721358
 20
7165.34634903287
 30
0.0
 11
9423.482973455769
 21
7165.34634903287
 31
0.0
  0
LINE
  5
18F5E
330
145BE
100
AcDbEntity
  8
寸法
 62
     0
 48
50.0
370
    -2
100
AcDbLine
 10
8736.056627721358
 20
7110.346349032873
 30
0.0
 11
9423.482973455769
 21
7110.346349032873
 31
0.0
  0
LINE
  5
18F5F
330
145BE
100
AcDbEntity
  8
寸法
 62
     0
 48
50.0
370
    -2
100
AcDbLine
 10
9363.48297345577
 20
7165.34634903287
 30
0.0
 11
9363.48297345577
 21
7265.346349032871
 31
0.0
  0
LINE
  5
18F60
330
145BE
100
AcDbEntity
  8
寸法
 62
     0
 48
50.0
370
    -2
100
AcDbLine
 10
9363.48297345577
 20
7110.346349032873
 30
0.0
 11
9363.48297345577
 21
6623.999600753773
 31
0.0
  0
LINE
  5
18F61
330
145BE
100
AcDbEntity
  8
寸法
 62
     0
 48
50.0
370
    -2
100
AcDbLine
 10
9363.48297345577
 20
7165.34634903287
 30
0.0
 11
9363.48297345577
 21
7110.346349032873
 31
0.0
  0
INSERT
  5
18F62
330
145BE
100
AcDbEntity
  8
寸法
 62
     0
 48
50.0
370
    -2
100
AcDbBlockReference
  2
_DOTSMALL
 10
9363.48297345577
 20
7165.34634903287
 30
0.0
 41
100.0
 42
100.0
 43
100.0
 50
270.0
  0
INSERT
  5
18F63
330
145BE
100
AcDbEntity
  8
寸法
 62
     0
 48
50.0
370
    -2
100
AcDbBlockReference
  2
_DOTSMALL
 10
9363.48297345577
 20
7110.346349032873
 30
0.0
 41
100.0
 42
100.0
 43
100.0
 50
90.0
  0
MTEXT
  5
18F64
330
145BE
100
AcDbEntity
  8
寸法
 62
     7
 48
50.0
100
AcDbMText
 10
9263.482973455769
 20
6732.484882128012
 30
0.0
 40
120.0
 41
0.0
 71
     5
 72
     1
  1
\A1;55
  7
STYLE1
 11
0.0000000000000001
 21
1.0
 31
0.0
 73
     1
 44
1.0
1001
ACAD
1000
MTEXTBEGIN
1070
    73
1070
     1
1070
    44
1040
1.0
1070
    74
1070
     0
1000
MTEXTEND
  0
POINT
  5
18F65
330
145BE
100
AcDbEntity
  8
DEFPOINTS
 62
     0
 48
50.0
100
AcDbPoint
 10
8716.056627721359
 20
7165.34634903287
 30
0.0
  0
POINT
  5
18F66
330
145BE
100
AcDbEntity
  8
DEFPOINTS
 62
     0
 48
50.0
100
AcDbPoint
 10
8716.056627721359
 20
7110.346349032873
 30
0.0
  0
POINT
  5
18F67
330
145BE
100
AcDbEntity
  8
DEFPOINTS
 62
     0
 48
50.0
100
AcDbPoint
 10
9363.48297345577
 20
7110.346349032873
 30
0.0
  0
ENDBLK
  5
14976
330
145BE
100
AcDbEntity
  8
0
 48
50.0
100
AcDbBlockEnd
  0
BLOCK
  5
1759D
330
145CC
100
AcDbEntity
  8
0
 48
50.0
100
AcDbBlockBegin
  2
*D6
 70
     1
 10
0.0
 20
0.0
 30
0.0
  3
*D6
  1

  0
LINE
  5
18F54
330
145CC
100
AcDbEntity
  8
寸法
 62
     0
 48
50.0
370
    -2
100
AcDbLine
 10
8736.056627721383
 20
9685.346349032887
 30
0.0
 11
9423.482973455795
 21
9685.346349032887
 31
0.0
  0
LINE
  5
18F55
330
145CC
100
AcDbEntity
  8
寸法
 62
     0
 48
50.0
370
    -2
100
AcDbLine
 10
8736.056627721358
 20
7165.34634903287
 30
0.0
 11
9423.482973455795
 21
7165.34634903287
 31
0.0
  0
LINE
  5
18F56
330
145CC
100
AcDbEntity
  8
寸法
 62
     0
 48
50.0
370
    -2
100
AcDbLine
 10
9363.482973455795
 20
9685.346349032887
 30
0.0
 11
9363.482973455795
 21
7165.34634903287
 31
0.0
  0
INSERT
  5
18F57
330
145CC
100
AcDbEntity
  8
寸法
 62
     0
 48
50.0
370
    -2
100
AcDbBlockReference
  2
_DOTSMALL
 10
9363.482973455795
 20
9685.346349032887
 30
0.0
 41
100.0
 42
100.0
 43
100.0
 50
90.0
  0
INSERT
  5
18F58
330
145CC
100
AcDbEntity
  8
寸法
 62
     0
 48
50.0
370
    -2
100
AcDbBlockReference
  2
_DOTSMALL
 10
9363.482973455795
 20
7165.34634903287
 30
0.0
 41
100.0
 42
100.0
 43
100.0
 50
270.0
  0
MTEXT
  5
18F59
330
145CC
100
AcDbEntity
  8
寸法
 62
     7
 48
50.0
100
AcDbMText
 10
9263.471162432173
 20
8425.34634903288
 30
0.0
 40
120.0
 41
0.0
 71
     5
 72
     1
  1
\A1;6X420=2520
  7
STYLE1
 11
0.0000000000000001
 21
1.0
 31
0.0
 73
     1
 44
1.0
1001
ACAD
1000
MTEXTBEGIN
1070
    73
1070
     1
1070
    44
1040
1.0
1070
    74
1070
     0
1000
MTEXTEND
  0
POINT
  5
18F5A
330
145CC
100
AcDbEntity
  8
DEFPOINTS
 62
     0
 48
50.0
100
AcDbPoint
 10
8716.056627721384
 20
9685.346349032887
 30
0.0
  0
POINT
  5
18F5B
330
145CC
100
AcDbEntity
  8
DEFPOINTS
 62
     0
 48
50.0
100
AcDbPoint
 10
8716.056627721359
 20
7165.34634903287
 30
0.0
  0
POINT
  5
18F5C
330
145CC
100
AcDbEntity
  8
DEFPOINTS
 62
     0
 48
50.0
100
AcDbPoint
 10
9363.482973455795
 20
7165.34634903287
 30
0.0
  0
ENDBLK
  5
175A7
330
145CC
100
AcDbEntity
  8
0
 48
50.0
100
AcDbBlockEnd
  0
BLOCK
  5
15353
330
145D8
100
AcDbEntity
  8
0
 48
50.0
100
AcDbBlockBegin
  2
*D7
 70
     1
 10
0.0
 20
0.0
 30
0.0
  3
*D7
  1

  0
LINE
  5
18F4B
330
145D8
100
AcDbEntity
  8
寸法
 62
     0
 48
50.0
370
    -2
100
AcDbLine
 10
7346.056627721376
 20
7090.34634903271
 30
0.0
 11
7346.056627721376
 21
6286.210379679186
 31
0.0
  0
LINE
  5
18F4C
330
145D8
100
AcDbEntity
  8
寸法
 62
     0
 48
50.0
370
    -2
100
AcDbLine
 10
8716.056627721359
 20
7090.346349032839
 30
0.0
 11
8716.056627721359
 21
6286.210379679186
 31
0.0
  0
LINE
  5
18F4D
330
145D8
100
AcDbEntity
  8
寸法
 62
     0
 48
50.0
370
    -2
100
AcDbLine
 10
7346.056627721376
 20
6346.210379679185
 30
0.0
 11
8716.056627721359
 21
6346.210379679185
 31
0.0
  0
INSERT
  5
18F4E
330
145D8
100
AcDbEntity
  8
寸法
 62
     0
 48
50.0
370
    -2
100
AcDbBlockReference
  2
_DOTSMALL
 10
7346.056627721376
 20
6346.210379679185
 30
0.0
 41
100.0
 42
100.0
 43
100.0
 50
180.0
  0
INSERT
  5
18F4F
330
145D8
100
AcDbEntity
  8
寸法
 62
     0
 48
50.0
370
    -2
100
AcDbBlockReference
  2
_DOTSMALL
 10
8716.056627721359
 20
6346.210379679185
 30
0.0
 41
100.0
 42
100.0
 43
100.0
  0
MTEXT
  5
18F50
330
145D8
100
AcDbEntity
  8
寸法
 62
     7
 48
50.0
100
AcDbMText
 10
8031.056627721367
 20
6446.210379679185
 30
0.0
 40
120.0
 41
0.0
 71
     5
 72
     1
  1
\A1;1370
  7
STYLE1
 73
     1
 44
1.0
1001
ACAD
1000
MTEXTBEGIN
1070
    73
1070
     1
1070
    44
1040
1.0
1070
    74
1070
     0
1000
MTEXTEND
  0
POINT
  5
18F51
330
145D8
100
AcDbEntity
  8
DEFPOINTS
 62
     0
 48
50.0
100
AcDbPoint
 10
7346.056627721376
 20
7110.34634903271
 30
0.0
  0
POINT
  5
18F52
330
145D8
100
AcDbEntity
  8
DEFPOINTS
 62
     0
 48
50.0
100
AcDbPoint
 10
8716.056627721359
 20
7110.346349032839
 30
0.0
  0
POINT
  5
18F53
330
145D8
100
AcDbEntity
  8
DEFPOINTS
 62
     0
 48
50.0
100
AcDbPoint
 10
8716.056627721359
 20
6346.210379679185
 30
0.0
  0
ENDBLK
  5
1535D
330
145D8
100
AcDbEntity
  8
0
 48
50.0
100
AcDbBlockEnd
  0
BLOCK
  5
15417
330
14608
100
AcDbEntity
  8
0
 48
50.0
100
AcDbBlockBegin
  2
*D8
 70
     1
 10
0.0
 20
0.0
 30
0.0
  3
*D8
  1

  0
LINE
  5
18F40
330
14608
100
AcDbEntity
  8
寸法
 62
     0
 48
50.0
370
    -2
100
AcDbLine
 10
8661.056627721384
 20
9760.346349032884
 30
0.0
 11
8661.056627721384
 21
10235.82469897926
 31
0.0
  0
LINE
  5
18F41
330
14608
100
AcDbEntity
  8
寸法
 62
     0
 48
50.0
370
    -2
100
AcDbLine
 10
8716.056627721384
 20
9760.346349032884
 30
0.0
 11
8716.056627721384
 21
10235.82469897926
 31
0.0
  0
LINE
  5
18F42
330
14608
100
AcDbEntity
  8
寸法
 62
     0
 48
50.0
370
    -2
100
AcDbLine
 10
8661.056627721384
 20
10175.82469897926
 30
0.0
 11
8561.056627721383
 21
10175.82469897926
 31
0.0
  0
LINE
  5
18F43
330
14608
100
AcDbEntity
  8
寸法
 62
     0
 48
50.0
370
    -2
100
AcDbLine
 10
8716.056627721384
 20
10175.82469897926
 30
0.0
 11
9133.02719046986
 21
10175.82469897926
 31
0.0
  0
LINE
  5
18F44
330
14608
100
AcDbEntity
  8
寸法
 62
     0
 48
50.0
370
    -2
100
AcDbLine
 10
8661.056627721384
 20
10175.82469897926
 30
0.0
 11
8716.056627721384
 21
10175.82469897926
 31
0.0
  0
INSERT
  5
18F45
330
14608
100
AcDbEntity
  8
寸法
 62
     0
 48
50.0
370
    -2
100
AcDbBlockReference
  2
_DOTSMALL
 10
8661.056627721384
 20
10175.82469897926
 30
0.0
 41
100.0
 42
100.0
 43
100.0
  0
INSERT
  5
18F46
330
14608
100
AcDbEntity
  8
寸法
 62
     0
 48
50.0
370
    -2
100
AcDbBlockReference
  2
_DOTSMALL
 10
8716.056627721384
 20
10175.82469897926
 30
0.0
 41
100.0
 42
100.0
 43
100.0
 50
180.0
  0
MTEXT
  5
18F47
330
14608
100
AcDbEntity
  8
寸法
 62
     7
 48
50.0
100
AcDbMText
 10
9024.541909095622
 20
10275.82469897926
 30
0.0
 40
120.0
 41
0.0
 71
     5
 72
     1
  1
\A1;55
  7
STYLE1
 73
     1
 44
1.0
1001
ACAD
1000
MTEXTBEGIN
1070
    73
1070
     1
1070
    44
1040
1.0
1070
    74
1070
     0
1000
MTEXTEND
  0
POINT
  5
18F48
330
14608
100
AcDbEntity
  8
DEFPOINTS
 62
     0
 48
50.0
100
AcDbPoint
 10
8661.056627721384
 20
9740.346349032883
 30
0.0
  0
POINT
  5
18F49
330
14608
100
AcDbEntity
  8
DEFPOINTS
 62
     0
 48
50.0
100
AcDbPoint
 10
8716.056627721384
 20
9740.346349032883
 30
0.0
  0
POINT
  5
18F4A
330
14608
100
AcDbEntity
  8
DEFPOINTS
 62
     0
 48
50.0
100
AcDbPoint
 10
8716.056627721384
 20
10175.82469897926
 30
0.0
  0
ENDBLK
  5
15423
330
14608
100
AcDbEntity
  8
0
 48
50.0
100
AcDbBlockEnd
  0
BLOCK
  5
155FA
330
14616
100
AcDbEntity
  8
0
 48
50.0
100
AcDbBlockBegin
  2
*D9
 70
     1
 10
0.0
 20
0.0
 30
0.0
  3
*D9
  1

  0
LINE
  5
18F37
330
14616
100
AcDbEntity
  8
寸法
 62
     0
 48
50.0
370
    -2
100
AcDbLine
 10
7401.056627721382
 20
9760.346349032756
 30
0.0
 11
7401.056627721382
 21
10235.82469897928
 31
0.0
  0
LINE
  5
18F38
330
14616
100
AcDbEntity
  8
寸法
 62
     0
 48
50.0
370
    -2
100
AcDbLine
 10
8661.056627721384
 20
9760.346349032884
 30
0.0
 11
8661.056627721384
 21
10235.82469897928
 31
0.0
  0
LINE
  5
18F39
330
14616
100
AcDbEntity
  8
寸法
 62
     0
 48
50.0
370
    -2
100
AcDbLine
 10
7401.056627721382
 20
10175.82469897928
 30
0.0
 11
8661.056627721384
 21
10175.82469897928
 31
0.0
  0
INSERT
  5
18F3A
330
14616
100
AcDbEntity
  8
寸法
 62
     0
 48
50.0
370
    -2
100
AcDbBlockReference
  2
_DOTSMALL
 10
7401.056627721382
 20
10175.82469897928
 30
0.0
 41
100.0
 42
100.0
 43
100.0
 50
180.0
  0
INSERT
  5
18F3B
330
14616
100
AcDbEntity
  8
寸法
 62
     0
 48
50.0
370
    -2
100
AcDbBlockReference
  2
_DOTSMALL
 10
8661.056627721384
 20
10175.82469897928
 30
0.0
 41
100.0
 42
100.0
 43
100.0
  0
MTEXT
  5
18F3C
330
14616
100
AcDbEntity
  8
寸法
 62
     7
 48
50.0
100
AcDbMText
 10
8031.056627721381
 20
10275.8365100029
 30
0.0
 40
120.0
 41
0.0
 71
     5
 72
     1
  1
\A1;3X420=1260
  7
STYLE1
 73
     1
 44
1.0
1001
ACAD
1000
MTEXTBEGIN
1070
    73
1070
     1
1070
    44
1040
1.0
1070
    74
1070
     0
1000
MTEXTEND
  0
POINT
  5
18F3D
330
14616
100
AcDbEntity
  8
DEFPOINTS
 62
     0
 48
50.0
100
AcDbPoint
 10
7401.056627721382
 20
9740.346349032757
 30
0.0
  0
POINT
  5
18F3E
330
14616
100
AcDbEntity
  8
DEFPOINTS
 62
     0
 48
50.0
100
AcDbPoint
 10
8661.056627721384
 20
9740.346349032883
 30
0.0
  0
POINT
  5
18F3F
330
14616
100
AcDbEntity
  8
DEFPOINTS
 62
     0
 48
50.0
100
AcDbPoint
 10
8661.056627721384
 20
10175.82469897928
 30
0.0
  0
ENDBLK
  5
15604
330
14616
100
AcDbEntity
  8
0
 48
50.0
100
AcDbBlockEnd
  0
BLOCK
  5
15447
330
153FF
100
AcDbEntity
  8
0
 48
50.0
100
AcDbBlockBegin
  2
*D10
 70
     1
 10
0.0
 20
0.0
 30
0.0
  3
*D10
  1

  0
LINE
  5
18F2E
330
153FF
100
AcDbEntity
  8
寸法
 62
     0
 48
50.0
370
    -2
100
AcDbLine
 10
8677.697643872756
 20
9727.846349032905
 30
0.0
 11
8591.92835784467
 21
10047.94168221863
 31
0.0
  0
LINE
  5
18F2F
330
153FF
100
AcDbEntity
  8
寸法
 62
     0
 48
50.0
370
    -2
100
AcDbLine
 10
8227.697643872758
 20
9727.846349032903
 30
0.0
 11
8141.928357844671
 21
10047.94168221863
 31
0.0
  0
LINE
  5
18F30
330
153FF
100
AcDbEntity
  8
寸法
 62
     0
 48
50.0
370
    -2
100
AcDbLine
 10
8608.005309390538
 20
9987.941682218629
 30
0.0
 11
8158.005309390539
 21
9987.941682218629
 31
0.0
  0
INSERT
  5
18F31
330
153FF
100
AcDbEntity
  8
寸法
 62
     0
 48
50.0
370
    -2
100
AcDbBlockReference
  2
_DOTSMALL
 10
8608.005309390538
 20
9987.941682218629
 30
0.0
 41
100.0
 42
100.0
 43
100.0
  0
INSERT
  5
18F32
330
153FF
100
AcDbEntity
  8
寸法
 62
     0
 48
50.0
370
    -2
100
AcDbBlockReference
  2
_DOTSMALL
 10
8158.005309390539
 20
9987.941682218629
 30
0.0
 41
100.0
 42
100.0
 43
100.0
 50
180.0
  0
MTEXT
  5
18F33
330
153FF
100
AcDbEntity
  8
寸法
 62
     7
 48
50.0
100
AcDbMText
 10
8361.492420113393
 20
10087.94168221863
 30
0.0
 40
120.0
 41
0.0
 71
     5
 72
     1
  1
\A1;450
  7
STYLE1
 73
     1
 44
1.0
1001
ACAD
1000
MTEXTBEGIN
1070
    73
1070
     1
1070
    44
1040
1.0
1070
    74
1070
     0
1000
MTEXTEND
  0
POINT
  5
18F34
330
153FF
100
AcDbEntity
  8
DEFPOINTS
 62
     0
 48
50.0
100
AcDbPoint
 10
8683.056627721379
 20
9707.846349032905
 30
0.0
  0
POINT
  5
18F35
330
153FF
100
AcDbEntity
  8
DEFPOINTS
 62
     0
 48
50.0
100
AcDbPoint
 10
8233.05662772138
 20
9707.846349032903
 30
0.0
  0
POINT
  5
18F36
330
153FF
100
AcDbEntity
  8
DEFPOINTS
 62
     0
 48
50.0
100
AcDbPoint
 10
8158.005309390539
 20
9987.941682218629
 30
0.0
  0
ENDBLK
  5
15451
330
153FF
100
AcDbEntity
  8
0
 48
50.0
100
AcDbBlockEnd
  0
BLOCK
  5
15641
330
15640
100
AcDbEntity
  8
0
 48
50.0
100
AcDbBlockBegin
  2
*D11
 70
     1
 10
0.0
 20
0.0
 30
0.0
  3
*D11
  1

  0
LINE
  5
18F25
330
15640
100
AcDbEntity
  8
寸法
 62
     0
 48
50.0
370
    -2
100
AcDbLine
 10
5976.056627721376
 20
7090.34634903271
 30
0.0
 11
5976.056627721376
 21
6286.210379679186
 31
0.0
  0
LINE
  5
18F26
330
15640
100
AcDbEntity
  8
寸法
 62
     0
 48
50.0
370
    -2
100
AcDbLine
 10
7346.056627721357
 20
7090.346349032839
 30
0.0
 11
7346.056627721357
 21
6286.210379679186
 31
0.0
  0
LINE
  5
18F27
330
15640
100
AcDbEntity
  8
寸法
 62
     0
 48
50.0
370
    -2
100
AcDbLine
 10
5976.056627721376
 20
6346.210379679185
 30
0.0
 11
7346.056627721357
 21
6346.210379679185
 31
0.0
  0
INSERT
  5
18F28
330
15640
100
AcDbEntity
  8
寸法
 62
     0
 48
50.0
370
    -2
100
AcDbBlockReference
  2
_DOTSMALL
 10
5976.056627721376
 20
6346.210379679185
 30
0.0
 41
100.0
 42
100.0
 43
100.0
 50
180.0
  0
INSERT
  5
18F29
330
15640
100
AcDbEntity
  8
寸法
 62
     0
 48
50.0
370
    -2
100
AcDbBlockReference
  2
_DOTSMALL
 10
7346.056627721357
 20
6346.210379679185
 30
0.0
 41
100.0
 42
100.0
 43
100.0
  0
MTEXT
  5
18F2A
330
15640
100
AcDbEntity
  8
寸法
 62
     7
 48
50.0
100
AcDbMText
 10
6661.056627721366
 20
6446.210379679185
 30
0.0
 40
120.0
 41
0.0
 71
     5
 72
     1
  1
\A1;1370
  7
STYLE1
 73
     1
 44
1.0
1001
ACAD
1000
MTEXTBEGIN
1070
    73
1070
     1
1070
    44
1040
1.0
1070
    74
1070
     0
1000
MTEXTEND
  0
POINT
  5
18F2B
330
15640
100
AcDbEntity
  8
DEFPOINTS
 62
     0
 48
50.0
100
AcDbPoint
 10
5976.056627721376
 20
7110.34634903271
 30
0.0
  0
POINT
  5
18F2C
330
15640
100
AcDbEntity
  8
DEFPOINTS
 62
     0
 48
50.0
100
AcDbPoint
 10
7346.056627721357
 20
7110.346349032839
 30
0.0
  0
POINT
  5
18F2D
330
15640
100
AcDbEntity
  8
DEFPOINTS
 62
     0
 48
50.0
100
AcDbPoint
 10
7346.056627721357
 20
6346.210379679185
 30
0.0
  0
ENDBLK
  5
1564B
330
15640
100
AcDbEntity
  8
0
 48
50.0
100
AcDbBlockEnd
  0
BLOCK
  5
15690
330
1568F
100
AcDbEntity
  8
0
 48
50.0
100
AcDbBlockBegin
  2
*D12
 70
     1
 10
0.0
 20
0.0
 30
0.0
  3
*D12
  1

  0
LINE
  5
18F1C
330
1568F
100
AcDbEntity
  8
寸法
 62
     0
 48
50.0
370
    -2
100
AcDbLine
 10
6031.056627721382
 20
9760.346349032756
 30
0.0
 11
6031.056627721382
 21
10235.82469897928
 31
0.0
  0
LINE
  5
18F1D
330
1568F
100
AcDbEntity
  8
寸法
 62
     0
 48
50.0
370
    -2
100
AcDbLine
 10
7291.056627721383
 20
9760.346349032884
 30
0.0
 11
7291.056627721383
 21
10235.82469897928
 31
0.0
  0
LINE
  5
18F1E
330
1568F
100
AcDbEntity
  8
寸法
 62
     0
 48
50.0
370
    -2
100
AcDbLine
 10
6031.056627721382
 20
10175.82469897928
 30
0.0
 11
7291.056627721383
 21
10175.82469897928
 31
0.0
  0
INSERT
  5
18F1F
330
1568F
100
AcDbEntity
  8
寸法
 62
     0
 48
50.0
370
    -2
100
AcDbBlockReference
  2
_DOTSMALL
 10
6031.056627721382
 20
10175.82469897928
 30
0.0
 41
100.0
 42
100.0
 43
100.0
 50
180.0
  0
INSERT
  5
18F20
330
1568F
100
AcDbEntity
  8
寸法
 62
     0
 48
50.0
370
    -2
100
AcDbBlockReference
  2
_DOTSMALL
 10
7291.056627721383
 20
10175.82469897928
 30
0.0
 41
100.0
 42
100.0
 43
100.0
  0
MTEXT
  5
18F21
330
1568F
100
AcDbEntity
  8
寸法
 62
     7
 48
50.0
100
AcDbMText
 10
6661.05662772138
 20
10275.8365100029
 30
0.0
 40
120.0
 41
0.0
 71
     5
 72
     1
  1
\A1;3X420=1260
  7
STYLE1
 73
     1
 44
1.0
1001
ACAD
1000
MTEXTBEGIN
1070
    73
1070
     1
1070
    44
1040
1.0
1070
    74
1070
     0
1000
MTEXTEND
  0
POINT
  5
18F22
330
1568F
100
AcDbEntity
  8
DEFPOINTS
 62
     0
 48
50.0
100
AcDbPoint
 10
6031.056627721382
 20
9740.346349032757
 30
0.0
  0
POINT
  5
18F23
330
1568F
100
AcDbEntity
  8
DEFPOINTS
 62
     0
 48
50.0
100
AcDbPoint
 10
7291.056627721383
 20
9740.346349032883
 30
0.0
  0
POINT
  5
18F24
330
1568F
100
AcDbEntity
  8
DEFPOINTS
 62
     0
 48
50.0
100
AcDbPoint
 10
7291.056627721383
 20
10175.82469897928
 30
0.0
  0
ENDBLK
  5
1569A
330
1568F
100
AcDbEntity
  8
0
 48
50.0
100
AcDbBlockEnd
  0
BLOCK
  5
1571C
330
1571B
100
AcDbEntity
  8
0
 48
50.0
100
AcDbBlockBegin
  2
*D13
 70
     1
 10
0.0
 20
0.0
 30
0.0
  3
*D13
  1

  0
LINE
  5
18F13
330
1571B
100
AcDbEntity
  8
寸法
 62
     0
 48
50.0
370
    -2
100
AcDbLine
 10
7401.056627721382
 20
9760.346349032756
 30
0.0
 11
7401.056627721382
 21
10235.82469897928
 31
0.0
  0
LINE
  5
18F14
330
1571B
100
AcDbEntity
  8
寸法
 62
     0
 48
50.0
370
    -2
100
AcDbLine
 10
7291.056627721381
 20
9760.346349032756
 30
0.0
 11
7291.056627721381
 21
10235.82469897928
 31
0.0
  0
LINE
  5
18F15
330
1571B
100
AcDbEntity
  8
寸法
 62
     0
 48
50.0
370
    -2
100
AcDbLine
 10
7401.056627721382
 20
10175.82469897928
 30
0.0
 11
7291.056627721381
 21
10175.82469897928
 31
0.0
  0
INSERT
  5
18F16
330
1571B
100
AcDbEntity
  8
寸法
 62
     0
 48
50.0
370
    -2
100
AcDbBlockReference
  2
_DOTSMALL
 10
7401.056627721382
 20
10175.82469897928
 30
0.0
 41
100.0
 42
100.0
 43
100.0
  0
INSERT
  5
18F17
330
1571B
100
AcDbEntity
  8
寸法
 62
     0
 48
50.0
370
    -2
100
AcDbBlockReference
  2
_DOTSMALL
 10
7291.056627721381
 20
10175.82469897928
 30
0.0
 41
100.0
 42
100.0
 43
100.0
 50
180.0
  0
MTEXT
  5
18F18
330
1571B
100
AcDbEntity
  8
寸法
 62
     7
 48
50.0
100
AcDbMText
 10
7346.056627721383
 20
10275.82469897928
 30
0.0
 40
120.0
 41
0.0
 71
     5
 72
     1
  1
\A1;110
  7
STYLE1
 73
     1
 44
1.0
1001
ACAD
1000
MTEXTBEGIN
1070
    73
1070
     1
1070
    44
1040
1.0
1070
    74
1070
     0
1000
MTEXTEND
  0
POINT
  5
18F19
330
1571B
100
AcDbEntity
  8
DEFPOINTS
 62
     0
 48
50.0
100
AcDbPoint
 10
7401.056627721382
 20
9740.346349032757
 30
0.0
  0
POINT
  5
18F1A
330
1571B
100
AcDbEntity
  8
DEFPOINTS
 62
     0
 48
50.0
100
AcDbPoint
 10
7291.056627721381
 20
9740.346349032757
 30
0.0
  0
POINT
  5
18F1B
330
1571B
100
AcDbEntity
  8
DEFPOINTS
 62
     0
 48
50.0
100
AcDbPoint
 10
7291.056627721381
 20
10175.82469897928
 30
0.0
  0
ENDBLK
  5
15726
330
1571B
100
AcDbEntity
  8
0
 48
50.0
100
AcDbBlockEnd
  0
BLOCK
  5
15741
330
15728
100
AcDbEntity
  8
0
 48
50.0
100
AcDbBlockBegin
  2
*D14
 70
     1
 10
0.0
 20
0.0
 30
0.0
  3
*D14
  1

  0
LINE
  5
18F0A
330
15728
100
AcDbEntity
  8
寸法
 62
     0
 48
50.0
370
    -2
100
AcDbLine
 10
6031.056627721382
 20
9760.346349032801
 30
0.0
 11
6031.056627721382
 21
10235.82469897928
 31
0.0
  0
LINE
  5
18F0B
330
15728
100
AcDbEntity
  8
寸法
 62
     0
 48
50.0
370
    -2
100
AcDbLine
 10
5921.056627721383
 20
9760.346349032884
 30
0.0
 11
5921.056627721383
 21
10235.82469897928
 31
0.0
  0
LINE
  5
18F0C
330
15728
100
AcDbEntity
  8
寸法
 62
     0
 48
50.0
370
    -2
100
AcDbLine
 10
6031.056627721382
 20
10175.82469897928
 30
0.0
 11
5921.056627721383
 21
10175.82469897928
 31
0.0
  0
INSERT
  5
18F0D
330
15728
100
AcDbEntity
  8
寸法
 62
     0
 48
50.0
370
    -2
100
AcDbBlockReference
  2
_DOTSMALL
 10
6031.056627721382
 20
10175.82469897928
 30
0.0
 41
100.0
 42
100.0
 43
100.0
  0
INSERT
  5
18F0E
330
15728
100
AcDbEntity
  8
寸法
 62
     0
 48
50.0
370
    -2
100
AcDbBlockReference
  2
_DOTSMALL
 10
5921.056627721383
 20
10175.82469897928
 30
0.0
 41
100.0
 42
100.0
 43
100.0
 50
180.0
  0
MTEXT
  5
18F0F
330
15728
100
AcDbEntity
  8
寸法
 62
     7
 48
50.0
100
AcDbMText
 10
5976.056627721382
 20
10275.82469897928
 30
0.0
 40
120.0
 41
0.0
 71
     5
 72
     1
  1
\A1;110
  7
STYLE1
 73
     1
 44
1.0
1001
ACAD
1000
MTEXTBEGIN
1070
    73
1070
     1
1070
    44
1040
1.0
1070
    74
1070
     0
1000
MTEXTEND
  0
POINT
  5
18F10
330
15728
100
AcDbEntity
  8
DEFPOINTS
 62
     0
 48
50.0
100
AcDbPoint
 10
6031.056627721382
 20
9740.346349032799
 30
0.0
  0
POINT
  5
18F11
330
15728
100
AcDbEntity
  8
DEFPOINTS
 62
     0
 48
50.0
100
AcDbPoint
 10
5921.056627721383
 20
9740.346349032883
 30
0.0
  0
POINT
  5
18F12
330
15728
100
AcDbEntity
  8
DEFPOINTS
 62
     0
 48
50.0
100
AcDbPoint
 10
5921.056627721383
 20
10175.82469897928
 30
0.0
  0
ENDBLK
  5
1574B
330
15728
100
AcDbEntity
  8
0
 48
50.0
100
AcDbBlockEnd
  0
BLOCK
  5
16AD3
330
1603D
100
AcDbEntity
  8
0
 48
50.0
100
AcDbBlockBegin
  2
*D15
 70
     1
 10
0.0
 20
0.0
 30
0.0
  3
*D15
  1

  0
LINE
  5
18F01
330
1603D
100
AcDbEntity
  8
寸法
 62
     0
 48
50.0
370
    -2
100
AcDbLine
 10
8703.056627721384
 20
9706.237365184312
 30
0.0
 11
9158.239835122081
 21
9584.271392353086
 31
0.0
  0
LINE
  5
18F02
330
1603D
100
AcDbEntity
  8
寸法
 62
     0
 48
50.0
370
    -2
100
AcDbLine
 10
8703.056627721595
 20
8433.237365184309
 30
0.0
 11
9158.239835122081
 21
8311.271392353139
 31
0.0
  0
LINE
  5
18F03
330
1603D
100
AcDbEntity
  8
寸法
 62
     0
 48
50.0
370
    -2
100
AcDbLine
 10
9098.239835122083
 20
9600.348343898954
 30
0.0
 11
9098.239835122083
 21
8327.348343899005
 31
0.0
  0
INSERT
  5
18F04
330
1603D
100
AcDbEntity
  8
寸法
 62
     0
 48
50.0
370
    -2
100
AcDbBlockReference
  2
_DOTSMALL
 10
9098.239835122083
 20
9600.348343898954
 30
0.0
 41
100.0
 42
100.0
 43
100.0
 50
90.0
  0
INSERT
  5
18F05
330
1603D
100
AcDbEntity
  8
寸法
 62
     0
 48
50.0
370
    -2
100
AcDbBlockReference
  2
_DOTSMALL
 10
9098.239835122083
 20
8327.348343899005
 30
0.0
 41
100.0
 42
100.0
 43
100.0
 50
270.0
  0
MTEXT
  5
18F06
330
1603D
100
AcDbEntity
  8
寸法
 62
     7
 48
50.0
100
AcDbMText
 10
8998.228024098457
 20
8963.848343898979
 30
0.0
 40
120.0
 41
0.0
 71
     5
 72
     1
  1
\A1;1273
  7
STYLE1
 11
0.0000000000000001
 21
1.0
 31
0.0
 73
     1
 44
1.0
1001
ACAD
1000
MTEXTBEGIN
1070
    73
1070
     1
1070
    44
1040
1.0
1070
    74
1070
     0
1000
MTEXTEND
  0
POINT
  5
18F07
330
1603D
100
AcDbEntity
  8
DEFPOINTS
 62
     0
 48
50.0
100
AcDbPoint
 10
8683.056627721382
 20
9711.596349032936
 30
0.0
  0
POINT
  5
18F08
330
1603D
100
AcDbEntity
  8
DEFPOINTS
 62
     0
 48
50.0
100
AcDbPoint
 10
8683.056627721596
 20
8438.59634903293
 30
0.0
  0
POINT
  5
18F09
330
1603D
100
AcDbEntity
  8
DEFPOINTS
 62
     0
 48
50.0
100
AcDbPoint
 10
9098.239835122083
 20
8327.348343899005
 30
0.0
  0
ENDBLK
  5
16ADD
330
1603D
100
AcDbEntity
  8
0
 48
50.0
100
AcDbBlockEnd
  0
BLOCK
  5
1757B
330
16049
100
AcDbEntity
  8
0
 48
50.0
100
AcDbBlockBegin
  2
*D16
 70
     1
 10
0.0
 20
0.0
 30
0.0
  3
*D16
  1

  0
LINE
  5
18EF8
330
16049
100
AcDbEntity
  8
寸法
 62
     0
 48
50.0
370
    -2
100
AcDbLine
 10
8703.05662772138
 20
8398.487365184301
 30
0.0
 11
9158.239835122081
 21
8276.521392353073
 31
0.0
  0
LINE
  5
18EF9
330
16049
100
AcDbEntity
  8
寸法
 62
     0
 48
50.0
370
    -2
100
AcDbLine
 10
8703.056627721595
 20
7182.487365184297
 30
0.0
 11
9158.239835122081
 21
7060.521392353128
 31
0.0
  0
LINE
  5
18EFA
330
16049
100
AcDbEntity
  8
寸法
 62
     0
 48
50.0
370
    -2
100
AcDbLine
 10
9098.239835122083
 20
8292.598343898941
 30
0.0
 11
9098.239835122083
 21
7076.598343898995
 31
0.0
  0
INSERT
  5
18EFB
330
16049
100
AcDbEntity
  8
寸法
 62
     0
 48
50.0
370
    -2
100
AcDbBlockReference
  2
_DOTSMALL
 10
9098.239835122083
 20
8292.598343898941
 30
0.0
 41
100.0
 42
100.0
 43
100.0
 50
90.0
  0
INSERT
  5
18EFC
330
16049
100
AcDbEntity
  8
寸法
 62
     0
 48
50.0
370
    -2
100
AcDbBlockReference
  2
_DOTSMALL
 10
9098.239835122083
 20
7076.598343898995
 30
0.0
 41
100.0
 42
100.0
 43
100.0
 50
270.0
  0
MTEXT
  5
18EFD
330
16049
100
AcDbEntity
  8
寸法
 62
     7
 48
50.0
100
AcDbMText
 10
8998.228024098457
 20
7684.598343898968
 30
0.0
 40
120.0
 41
0.0
 71
     5
 72
     1
  1
\A1;1216
  7
STYLE1
 11
0.0000000000000001
 21
1.0
 31
0.0
 73
     1
 44
1.0
1001
ACAD
1000
MTEXTBEGIN
1070
    73
1070
     1
1070
    44
1040
1.0
1070
    74
1070
     0
1000
MTEXTEND
  0
POINT
  5
18EFE
330
16049
100
AcDbEntity
  8
DEFPOINTS
 62
     0
 48
50.0
100
AcDbPoint
 10
8683.056627721381
 20
8403.846349032923
 30
0.0
  0
POINT
  5
18EFF
330
16049
100
AcDbEntity
  8
DEFPOINTS
 62
     0
 48
50.0
100
AcDbPoint
 10
8683.056627721596
 20
7187.84634903292
 30
0.0
  0
POINT
  5
18F00
330
16049
100
AcDbEntity
  8
DEFPOINTS
 62
     0
 48
50.0
100
AcDbPoint
 10
9098.239835122083
 20
7076.598343898995
 30
0.0
  0
ENDBLK
  5
17585
330
16049
100
AcDbEntity
  8
0
 48
50.0
100
AcDbBlockEnd
  0
BLOCK
  5
1819D
330
18191
100
AcDbEntity
  8
0
 48
50.0
100
AcDbBlockBegin
  2
*D17
 70
     1
 10
0.0
 20
0.0
 30
0.0
  3
*D17
  1

  0
LINE
  5
18ED2
330
18191
100
AcDbEntity
  8
寸法
 62
     0
 48
50.0
370
    -2
100
AcDbLine
 10
8766.056627721386
 20
4847.986421636951
 30
0.0
 11
8766.056627721386
 21
5100.528006895192
 31
0.0
  0
LINE
  5
18ED3
330
18191
100
AcDbEntity
  8
寸法
 62
     0
 48
50.0
370
    -2
100
AcDbLine
 10
8716.056627721386
 20
4847.986421636953
 30
0.0
 11
8716.056627721386
 21
5100.528006895192
 31
0.0
  0
LINE
  5
18ED4
330
18191
100
AcDbEntity
  8
寸法
 62
     0
 48
50.0
370
    -2
100
AcDbLine
 10
8716.056627721386
 20
5040.528006895192
 30
0.0
 11
8616.056627721386
 21
5040.528006895192
 31
0.0
  0
LINE
  5
18ED5
330
18191
100
AcDbEntity
  8
寸法
 62
     0
 48
50.0
370
    -2
100
AcDbLine
 10
8766.056627721386
 20
5040.528006895192
 30
0.0
 11
9185.589153190111
 21
5040.528006895192
 31
0.0
  0
LINE
  5
18ED6
330
18191
100
AcDbEntity
  8
寸法
 62
     0
 48
50.0
370
    -2
100
AcDbLine
 10
8716.056627721386
 20
5040.528006895192
 30
0.0
 11
8766.056627721386
 21
5040.528006895192
 31
0.0
  0
INSERT
  5
18ED7
330
18191
100
AcDbEntity
  8
寸法
 62
     0
 48
50.0
370
    -2
100
AcDbBlockReference
  2
_DOTSMALL
 10
8716.056627721386
 20
5040.528006895192
 30
0.0
 41
100.0
 42
100.0
 43
100.0
  0
INSERT
  5
18ED8
330
18191
100
AcDbEntity
  8
寸法
 62
     0
 48
50.0
370
    -2
100
AcDbBlockReference
  2
_DOTSMALL
 10
8766.056627721386
 20
5040.528006895192
 30
0.0
 41
100.0
 42
100.0
 43
100.0
 50
180.0
  0
MTEXT
  5
18ED9
330
18191
100
AcDbEntity
  8
寸法
 62
     7
 48
50.0
100
AcDbMText
 10
9079.541909095622
 20
5140.528006895192
 30
0.0
 40
120.0
 41
0.0
 71
     5
 72
     1
  1
\A1;50
  7
STYLE1
 73
     1
 44
1.0
1001
ACAD
1000
MTEXTBEGIN
1070
    73
1070
     1
1070
    44
1040
1.0
1070
    74
1070
     0
1000
MTEXTEND
  0
POINT
  5
18EDA
330
18191
100
AcDbEntity
  8
DEFPOINTS
 62
     0
 48
50.0
100
AcDbPoint
 10
8766.056627721386
 20
4827.986421636952
 30
0.0
  0
POINT
  5
18EDB
330
18191
100
AcDbEntity
  8
DEFPOINTS
 62
     0
 48
50.0
100
AcDbPoint
 10
8716.056627721386
 20
4827.986421636953
 30
0.0
  0
POINT
  5
18EDC
330
18191
100
AcDbEntity
  8
DEFPOINTS
 62
     0
 48
50.0
100
AcDbPoint
 10
8716.056627721386
 20
5040.528006895192
 30
0.0
  0
ENDBLK
  5
1819E
330
18191
100
AcDbEntity
  8
0
 48
50.0
100
AcDbBlockEnd
  0
BLOCK
  5
181A9
330
1819F
100
AcDbEntity
  8
0
 48
50.0
100
AcDbBlockBegin
  2
*D18
 70
     1
 10
0.0
 20
0.0
 30
0.0
  3
*D18
  1

  0
LINE
  5
18EC9
330
1819F
100
AcDbEntity
  8
寸法
 62
     0
 48
50.0
370
    -2
100
AcDbLine
 10
8716.056627721386
 20
4847.986421636953
 30
0.0
 11
8716.056627721386
 21
5100.528006895196
 31
0.0
  0
LINE
  5
18ECA
330
1819F
100
AcDbEntity
  8
寸法
 62
     0
 48
50.0
370
    -2
100
AcDbLine
 10
4606.05662772138
 20
4847.986421636959
 30
0.0
 11
4606.05662772138
 21
5100.528006895196
 31
0.0
  0
LINE
  5
18ECB
330
1819F
100
AcDbEntity
  8
寸法
 62
     0
 48
50.0
370
    -2
100
AcDbLine
 10
8716.056627721386
 20
5040.528006895196
 30
0.0
 11
4606.05662772138
 21
5040.528006895196
 31
0.0
  0
INSERT
  5
18ECC
330
1819F
100
AcDbEntity
  8
寸法
 62
     0
 48
50.0
370
    -2
100
AcDbBlockReference
  2
_DOTSMALL
 10
8716.056627721386
 20
5040.528006895196
 30
0.0
 41
100.0
 42
100.0
 43
100.0
  0
INSERT
  5
18ECD
330
1819F
100
AcDbEntity
  8
寸法
 62
     0
 48
50.0
370
    -2
100
AcDbBlockReference
  2
_DOTSMALL
 10
4606.05662772138
 20
5040.528006895196
 30
0.0
 41
100.0
 42
100.0
 43
100.0
 50
180.0
  0
MTEXT
  5
18ECE
330
1819F
100
AcDbEntity
  8
寸法
 62
     7
 48
50.0
100
AcDbMText
 10
6661.056627721383
 20
5140.528006895196
 30
0.0
 40
120.0
 41
0.0
 71
     5
 72
     1
  1
\A1;柱外寸法 N x 1370
  7
STYLE1
 73
     1
 44
1.0
1001
ACAD
1000
MTEXTBEGIN
1070
    73
1070
     1
1070
    44
1040
1.0
1070
    74
1070
     0
1000
MTEXTEND
  0
POINT
  5
18ECF
330
1819F
100
AcDbEntity
  8
DEFPOINTS
 62
     0
 48
50.0
100
AcDbPoint
 10
8716.056627721386
 20
4827.986421636953
 30
0.0
  0
POINT
  5
18ED0
330
1819F
100
AcDbEntity
  8
DEFPOINTS
 62
     0
 48
50.0
100
AcDbPoint
 10
4606.05662772138
 20
4827.986421636959
 30
0.0
  0
POINT
  5
18ED1
330
1819F
100
AcDbEntity
  8
DEFPOINTS
 62
     0
 48
50.0
100
AcDbPoint
 10
4606.05662772138
 20
5040.528006895196
 30
0.0
  0
ENDBLK
  5
181AA
330
1819F
100
AcDbEntity
  8
0
 48
50.0
100
AcDbBlockEnd
  0
BLOCK
  5
181B5
330
181AB
100
AcDbEntity
  8
0
 48
50.0
100
AcDbBlockBegin
  2
*D19
 70
     1
 10
0.0
 20
0.0
 30
0.0
  3
*D19
  1

  0
LINE
  5
18EC0
330
181AB
100
AcDbEntity
  8
寸法
 62
     0
 48
50.0
370
    -2
100
AcDbLine
 10
4556.05662772138
 20
4847.986421636957
 30
0.0
 11
4556.05662772138
 21
5323.484985333045
 31
0.0
  0
LINE
  5
18EC1
330
181AB
100
AcDbEntity
  8
寸法
 62
     0
 48
50.0
370
    -2
100
AcDbLine
 10
8766.056627721386
 20
4847.986421636951
 30
0.0
 11
8766.056627721386
 21
5323.484985333045
 31
0.0
  0
LINE
  5
18EC2
330
181AB
100
AcDbEntity
  8
寸法
 62
     0
 48
50.0
370
    -2
100
AcDbLine
 10
4556.05662772138
 20
5263.484985333045
 30
0.0
 11
8766.056627721386
 21
5263.484985333045
 31
0.0
  0
INSERT
  5
18EC3
330
181AB
100
AcDbEntity
  8
寸法
 62
     0
 48
50.0
370
    -2
100
AcDbBlockReference
  2
_DOTSMALL
 10
4556.05662772138
 20
5263.484985333045
 30
0.0
 41
100.0
 42
100.0
 43
100.0
 50
180.0
  0
INSERT
  5
18EC4
330
181AB
100
AcDbEntity
  8
寸法
 62
     0
 48
50.0
370
    -2
100
AcDbBlockReference
  2
_DOTSMALL
 10
8766.056627721386
 20
5263.484985333045
 30
0.0
 41
100.0
 42
100.0
 43
100.0
  0
MTEXT
  5
18EC5
330
181AB
100
AcDbEntity
  8
寸法
 62
     7
 48
50.0
100
AcDbMText
 10
6661.056627721383
 20
5363.484985333045
 30
0.0
 40
120.0
 41
0.0
 71
     5
 72
     1
  1
\A1;N x 1370 +100
  7
STYLE1
 73
     1
 44
1.0
1001
ACAD
1000
MTEXTBEGIN
1070
    73
1070
     1
1070
    44
1040
1.0
1070
    74
1070
     0
1000
MTEXTEND
  0
POINT
  5
18EC6
330
181AB
100
AcDbEntity
  8
DEFPOINTS
 62
     0
 48
50.0
100
AcDbPoint
 10
4556.05662772138
 20
4827.986421636957
 30
0.0
  0
POINT
  5
18EC7
330
181AB
100
AcDbEntity
  8
DEFPOINTS
 62
     0
 48
50.0
100
AcDbPoint
 10
8766.056627721386
 20
4827.986421636952
 30
0.0
  0
POINT
  5
18EC8
330
181AB
100
AcDbEntity
  8
DEFPOINTS
 62
     0
 48
50.0
100
AcDbPoint
 10
8766.056627721386
 20
5263.484985333045
 30
0.0
  0
ENDBLK
  5
181B6
330
181AB
100
AcDbEntity
  8
0
 48
50.0
100
AcDbBlockEnd
  0
BLOCK
  5
181C3
330
181B7
100
AcDbEntity
  8
0
 48
50.0
100
AcDbBlockBegin
  2
*D20
 70
     1
 10
0.0
 20
0.0
 30
0.0
  3
*D20
  1

  0
LINE
  5
18EB5
330
181B7
100
AcDbEntity
  8
寸法
 62
     0
 48
50.0
370
    -2
100
AcDbLine
 10
4606.05662772138
 20
4847.986421636959
 30
0.0
 11
4606.05662772138
 21
5100.528006895196
 31
0.0
  0
LINE
  5
18EB6
330
181B7
100
AcDbEntity
  8
寸法
 62
     0
 48
50.0
370
    -2
100
AcDbLine
 10
4556.05662772138
 20
4847.986421636957
 30
0.0
 11
4556.05662772138
 21
5100.528006895196
 31
0.0
  0
LINE
  5
18EB7
330
181B7
100
AcDbEntity
  8
寸法
 62
     0
 48
50.0
370
    -2
100
AcDbLine
 10
4606.05662772138
 20
5040.528006895196
 30
0.0
 11
4706.05662772138
 21
5040.528006895196
 31
0.0
  0
LINE
  5
18EB8
330
181B7
100
AcDbEntity
  8
寸法
 62
     0
 48
50.0
370
    -2
100
AcDbLine
 10
4556.05662772138
 20
5040.528006895196
 30
0.0
 11
4136.524102252645
 21
5040.528006895196
 31
0.0
  0
LINE
  5
18EB9
330
181B7
100
AcDbEntity
  8
寸法
 62
     0
 48
50.0
370
    -2
100
AcDbLine
 10
4606.05662772138
 20
5040.528006895196
 30
0.0
 11
4556.05662772138
 21
5040.528006895196
 31
0.0
  0
INSERT
  5
18EBA
330
181B7
100
AcDbEntity
  8
寸法
 62
     0
 48
50.0
370
    -2
100
AcDbBlockReference
  2
_DOTSMALL
 10
4606.05662772138
 20
5040.528006895196
 30
0.0
 41
100.0
 42
100.0
 43
100.0
 50
180.0
  0
INSERT
  5
18EBB
330
181B7
100
AcDbEntity
  8
寸法
 62
     0
 48
50.0
370
    -2
100
AcDbBlockReference
  2
_DOTSMALL
 10
4556.05662772138
 20
5040.528006895196
 30
0.0
 41
100.0
 42
100.0
 43
100.0
  0
MTEXT
  5
18EBC
330
181B7
100
AcDbEntity
  8
寸法
 62
     7
 48
50.0
100
AcDbMText
 10
4242.571346347133
 20
5140.528006895196
 30
0.0
 40
120.0
 41
0.0
 71
     5
 72
     1
  1
\A1;50
  7
STYLE1
 73
     1
 44
1.0
1001
ACAD
1000
MTEXTBEGIN
1070
    73
1070
     1
1070
    44
1040
1.0
1070
    74
1070
     0
1000
MTEXTEND
  0
POINT
  5
18EBD
330
181B7
100
AcDbEntity
  8
DEFPOINTS
 62
     0
 48
50.0
100
AcDbPoint
 10
4606.05662772138
 20
4827.986421636959
 30
0.0
  0
POINT
  5
18EBE
330
181B7
100
AcDbEntity
  8
DEFPOINTS
 62
     0
 48
50.0
100
AcDbPoint
 10
4556.05662772138
 20
4827.986421636957
 30
0.0
  0
POINT
  5
18EBF
330
181B7
100
AcDbEntity
  8
DEFPOINTS
 62
     0
 48
50.0
100
AcDbPoint
 10
4556.05662772138
 20
5040.528006895196
 30
0.0
  0
ENDBLK
  5
181C4
330
181B7
100
AcDbEntity
  8
0
 48
50.0
100
AcDbBlockEnd
  0
BLOCK
  5
18632
330
18628
100
AcDbEntity
  8
0
 48
50.0
100
AcDbBlockBegin
  2
*D21
 70
     1
 10
0.0
 20
0.0
 30
0.0
  3
*D21
  1

  0
LINE
  5
18EDD
330
18628
100
AcDbEntity
  8
寸法
 62
     0
 48
50.0
370
    -2
100
AcDbLine
 10
5352.056627721377
 20
7090.346349032817
 30
0.0
 11
5352.056627721377
 21
6523.17718407234
 31
0.0
  0
LINE
  5
18EDE
330
18628
100
AcDbEntity
  8
寸法
 62
     0
 48
50.0
370
    -2
100
AcDbLine
 10
4666.056627721377
 20
7090.346349032741
 30
0.0
 11
4666.056627721377
 21
6523.17718407234
 31
0.0
  0
LINE
  5
18EDF
330
18628
100
AcDbEntity
  8
寸法
 62
     0
 48
50.0
370
    -2
100
AcDbLine
 10
5352.056627721377
 20
6583.177184072339
 30
0.0
 11
4666.056627721377
 21
6583.177184072339
 31
0.0
  0
INSERT
  5
18EE0
330
18628
100
AcDbEntity
  8
寸法
 62
     0
 48
50.0
370
    -2
100
AcDbBlockReference
  2
_DOTSMALL
 10
5352.056627721377
 20
6583.177184072339
 30
0.0
 41
100.0
 42
100.0
 43
100.0
  0
INSERT
  5
18EE1
330
18628
100
AcDbEntity
  8
寸法
 62
     0
 48
50.0
370
    -2
100
AcDbBlockReference
  2
_DOTSMALL
 10
4666.056627721377
 20
6583.177184072339
 30
0.0
 41
100.0
 42
100.0
 43
100.0
 50
180.0
  0
MTEXT
  5
18EE2
330
18628
100
AcDbEntity
  8
寸法
 62
     7
 48
50.0
100
AcDbMText
 10
5009.056627721377
 20
6783.177184072339
 30
0.0
 40
120.0
 41
0.0
 71
     5
 72
     1
  1
\A1;有効開口部間口\P686
  7
STYLE1
 73
     1
 44
1.0
1001
ACAD
1000
MTEXTBEGIN
1070
    73
1070
     1
1070
    44
1040
1.0
1070
    74
1070
     0
1000
MTEXTEND
  0
POINT
  5
18EE3
330
18628
100
AcDbEntity
  8
DEFPOINTS
 62
     0
 48
50.0
100
AcDbPoint
 10
5352.056627721377
 20
7110.346349032816
 30
0.0
  0
POINT
  5
18EE4
330
18628
100
AcDbEntity
  8
DEFPOINTS
 62
     0
 48
50.0
100
AcDbPoint
 10
4666.056627721377
 20
7110.346349032742
 30
0.0
  0
POINT
  5
18EE5
330
18628
100
AcDbEntity
  8
DEFPOINTS
 62
     0
 48
50.0
100
AcDbPoint
 10
4666.056627721377
 20
6583.177184072339
 30
0.0
  0
ENDBLK
  5
18633
330
18628
100
AcDbEntity
  8
0
 48
50.0
100
AcDbBlockEnd
  0
BLOCK
  5
1863E
330
18634
100
AcDbEntity
  8
0
 48
50.0
100
AcDbBlockBegin
  2
*D22
 70
     1
 10
0.0
 20
0.0
 30
0.0
  3
*D22
  1

  0
LINE
  5
18EE6
330
18634
100
AcDbEntity
  8
寸法
 62
     0
 48
50.0
370
    -2
100
AcDbLine
 10
6722.056627721376
 20
7090.346349032819
 30
0.0
 11
6722.056627721376
 21
6523.177184072344
 31
0.0
  0
LINE
  5
18EE7
330
18634
100
AcDbEntity
  8
寸法
 62
     0
 48
50.0
370
    -2
100
AcDbLine
 10
6036.056627721376
 20
7090.346349032746
 30
0.0
 11
6036.056627721376
 21
6523.177184072344
 31
0.0
  0
LINE
  5
18EE8
330
18634
100
AcDbEntity
  8
寸法
 62
     0
 48
50.0
370
    -2
100
AcDbLine
 10
6722.056627721376
 20
6583.177184072344
 30
0.0
 11
6036.056627721376
 21
6583.177184072344
 31
0.0
  0
INSERT
  5
18EE9
330
18634
100
AcDbEntity
  8
寸法
 62
     0
 48
50.0
370
    -2
100
AcDbBlockReference
  2
_DOTSMALL
 10
6722.056627721376
 20
6583.177184072344
 30
0.0
 41
100.0
 42
100.0
 43
100.0
  0
INSERT
  5
18EEA
330
18634
100
AcDbEntity
  8
寸法
 62
     0
 48
50.0
370
    -2
100
AcDbBlockReference
  2
_DOTSMALL
 10
6036.056627721376
 20
6583.177184072344
 30
0.0
 41
100.0
 42
100.0
 43
100.0
 50
180.0
  0
MTEXT
  5
18EEB
330
18634
100
AcDbEntity
  8
寸法
 62
     7
 48
50.0
100
AcDbMText
 10
6379.056627721377
 20
6783.177184072343
 30
0.0
 40
120.0
 41
0.0
 71
     5
 72
     1
  1
\A1;有効開口部間口\P686
  7
STYLE1
 73
     1
 44
1.0
1001
ACAD
1000
MTEXTBEGIN
1070
    73
1070
     1
1070
    44
1040
1.0
1070
    74
1070
     0
1000
MTEXTEND
  0
POINT
  5
18EEC
330
18634
100
AcDbEntity
  8
DEFPOINTS
 62
     0
 48
50.0
100
AcDbPoint
 10
6722.056627721376
 20
7110.34634903282
 30
0.0
  0
POINT
  5
18EED
330
18634
100
AcDbEntity
  8
DEFPOINTS
 62
     0
 48
50.0
100
AcDbPoint
 10
6036.056627721376
 20
7110.346349032745
 30
0.0
  0
POINT
  5
18EEE
330
18634
100
AcDbEntity
  8
DEFPOINTS
 62
     0
 48
50.0
100
AcDbPoint
 10
6036.056627721376
 20
6583.177184072344
 30
0.0
  0
ENDBLK
  5
1863F
330
18634
100
AcDbEntity
  8
0
 48
50.0
100
AcDbBlockEnd
  0
BLOCK
  5
1864A
330
18640
100
AcDbEntity
  8
0
 48
50.0
100
AcDbBlockBegin
  2
*D23
 70
     1
 10
0.0
 20
0.0
 30
0.0
  3
*D23
  1

  0
LINE
  5
18EEF
330
18640
100
AcDbEntity
  8
寸法
 62
     0
 48
50.0
370
    -2
100
AcDbLine
 10
8092.056627721376
 20
7090.346349032819
 30
0.0
 11
8092.056627721376
 21
6523.177184072344
 31
0.0
  0
LINE
  5
18EF0
330
18640
100
AcDbEntity
  8
寸法
 62
     0
 48
50.0
370
    -2
100
AcDbLine
 10
7406.056627721376
 20
7090.346349032746
 30
0.0
 11
7406.056627721376
 21
6523.177184072344
 31
0.0
  0
LINE
  5
18EF1
330
18640
100
AcDbEntity
  8
寸法
 62
     0
 48
50.0
370
    -2
100
AcDbLine
 10
8092.056627721376
 20
6583.177184072344
 30
0.0
 11
7406.056627721376
 21
6583.177184072344
 31
0.0
  0
INSERT
  5
18EF2
330
18640
100
AcDbEntity
  8
寸法
 62
     0
 48
50.0
370
    -2
100
AcDbBlockReference
  2
_DOTSMALL
 10
8092.056627721376
 20
6583.177184072344
 30
0.0
 41
100.0
 42
100.0
 43
100.0
  0
INSERT
  5
18EF3
330
18640
100
AcDbEntity
  8
寸法
 62
     0
 48
50.0
370
    -2
100
AcDbBlockReference
  2
_DOTSMALL
 10
7406.056627721376
 20
6583.177184072344
 30
0.0
 41
100.0
 42
100.0
 43
100.0
 50
180.0
  0
MTEXT
  5
18EF4
330
18640
100
AcDbEntity
  8
寸法
 62
     7
 48
50.0
100
AcDbMText
 10
7749.056627721377
 20
6783.177184072343
 30
0.0
 40
120.0
 41
0.0
 71
     5
 72
     1
  1
\A1;有効開口部間口\P686
  7
STYLE1
 73
     1
 44
1.0
1001
ACAD
1000
MTEXTBEGIN
1070
    73
1070
     1
1070
    44
1040
1.0
1070
    74
1070
     0
1000
MTEXTEND
  0
POINT
  5
18EF5
330
18640
100
AcDbEntity
  8
DEFPOINTS
 62
     0
 48
50.0
100
AcDbPoint
 10
8092.056627721376
 20
7110.34634903282
 30
0.0
  0
POINT
  5
18EF6
330
18640
100
AcDbEntity
  8
DEFPOINTS
 62
     0
 48
50.0
100
AcDbPoint
 10
7406.056627721376
 20
7110.346349032745
 30
0.0
  0
POINT
  5
18EF7
330
18640
100
AcDbEntity
  8
DEFPOINTS
 62
     0
 48
50.0
100
AcDbPoint
 10
7406.056627721376
 20
6583.177184072344
 30
0.0
  0
ENDBLK
  5
1864B
330
18640
100
AcDbEntity
  8
0
 48
50.0
100
AcDbBlockEnd
  0
BLOCK
  5
18986
330
1897C
100
AcDbEntity
  8
0
 48
50.0
100
AcDbBlockBegin
  2
*D24
 70
     1
 10
0.0
 20
0.0
 30
0.0
  3
*D24
  1

  0
LINE
  5
18EAC
330
1897C
100
AcDbEntity
  8
寸法
 62
     0
 48
50.0
370
    -2
100
AcDbLine
 10
10631.85400952886
 20
4584.98642163695
 30
0.0
 11
10046.94536813161
 21
4584.98642163695
 31
0.0
  0
LINE
  5
18EAD
330
1897C
100
AcDbEntity
  8
寸法
 62
     0
 48
50.0
370
    -2
100
AcDbLine
 10
10631.85400952886
 20
2814.98642163695
 30
0.0
 11
10046.94536813161
 21
2814.98642163695
 31
0.0
  0
LINE
  5
18EAE
330
1897C
100
AcDbEntity
  8
寸法
 62
     0
 48
50.0
370
    -2
100
AcDbLine
 10
10106.94536813161
 20
4584.98642163695
 30
0.0
 11
10106.94536813161
 21
2814.98642163695
 31
0.0
  0
INSERT
  5
18EAF
330
1897C
100
AcDbEntity
  8
寸法
 62
     0
 48
50.0
370
    -2
100
AcDbBlockReference
  2
_DOTSMALL
 10
10106.94536813161
 20
4584.98642163695
 30
0.0
 41
100.0
 42
100.0
 43
100.0
 50
90.0
  0
INSERT
  5
18EB0
330
1897C
100
AcDbEntity
  8
寸法
 62
     0
 48
50.0
370
    -2
100
AcDbBlockReference
  2
_DOTSMALL
 10
10106.94536813161
 20
2814.98642163695
 30
0.0
 41
100.0
 42
100.0
 43
100.0
 50
270.0
  0
MTEXT
  5
18EB1
330
1897C
100
AcDbEntity
  8
寸法
 62
     7
 48
50.0
100
AcDbMText
 10
10006.94536813161
 20
3699.986421636952
 30
0.0
 40
120.0
 41
0.0
 71
     5
 72
     1
  1
\A1;有効開口部高サ1770
  7
STYLE1
 11
0.0000000000000001
 21
1.0
 31
0.0
 73
     1
 44
1.0
1001
ACAD
1000
MTEXTBEGIN
1070
    73
1070
     1
1070
    44
1040
1.0
1070
    74
1070
     0
1000
MTEXTEND
  0
POINT
  5
18EB2
330
1897C
100
AcDbEntity
  8
DEFPOINTS
 62
     0
 48
50.0
100
AcDbPoint
 10
10651.85400952886
 20
4584.98642163695
 30
0.0
  0
POINT
  5
18EB3
330
1897C
100
AcDbEntity
  8
DEFPOINTS
 62
     0
 48
50.0
100
AcDbPoint
 10
10651.85400952886
 20
2814.98642163695
 30
0.0
  0
POINT
  5
18EB4
330
1897C
100
AcDbEntity
  8
DEFPOINTS
 62
     0
 48
50.0
100
AcDbPoint
 10
10106.94536813161
 20
2814.98642163695
 30
0.0
  0
ENDBLK
  5
18987
330
1897C
100
AcDbEntity
  8
0
 48
50.0
100
AcDbBlockEnd
  0
BLOCK
  5
18992
330
18988
100
AcDbEntity
  8
0
 48
50.0
100
AcDbBlockBegin
  2
*D25
 70
     1
 10
0.0
 20
0.0
 30
0.0
  3
*D25
  1

  0
LINE
  5
18EA3
330
18988
100
AcDbEntity
  8
寸法
 62
     0
 48
50.0
370
    -2
100
AcDbLine
 10
10631.85400952886
 20
4592.98642163695
 30
0.0
 11
9748.103880345608
 21
4592.98642163695
 31
0.0
  0
LINE
  5
18EA4
330
18988
100
AcDbEntity
  8
寸法
 62
     0
 48
50.0
370
    -2
100
AcDbLine
 10
10631.85400952886
 20
2802.98642163695
 30
0.0
 11
9748.103880345604
 21
2802.98642163695
 31
0.0
  0
LINE
  5
18EA5
330
18988
100
AcDbEntity
  8
寸法
 62
     0
 48
50.0
370
    -2
100
AcDbLine
 10
9808.103880345607
 20
4592.98642163695
 30
0.0
 11
9808.103880345605
 21
2802.98642163695
 31
0.0
  0
INSERT
  5
18EA6
330
18988
100
AcDbEntity
  8
寸法
 62
     0
 48
50.0
370
    -2
100
AcDbBlockReference
  2
_DOTSMALL
 10
9808.103880345607
 20
4592.98642163695
 30
0.0
 41
100.0
 42
100.0
 43
100.0
 50
90.0
  0
INSERT
  5
18EA7
330
18988
100
AcDbEntity
  8
寸法
 62
     0
 48
50.0
370
    -2
100
AcDbBlockReference
  2
_DOTSMALL
 10
9808.103880345605
 20
2802.98642163695
 30
0.0
 41
100.0
 42
100.0
 43
100.0
 50
270.0
  0
MTEXT
  5
18EA8
330
18988
100
AcDbEntity
  8
寸法
 62
     7
 48
50.0
100
AcDbMText
 10
9708.103880345605
 20
3697.986421636952
 30
0.0
 40
120.0
 41
0.0
 71
     5
 72
     1
  1
\A1;1790
  7
STYLE1
 11
0.0000000000000001
 21
1.0
 31
0.0
 73
     1
 44
1.0
1001
ACAD
1000
MTEXTBEGIN
1070
    73
1070
     1
1070
    44
1040
1.0
1070
    74
1070
     0
1000
MTEXTEND
  0
POINT
  5
18EA9
330
18988
100
AcDbEntity
  8
DEFPOINTS
 62
     0
 48
50.0
100
AcDbPoint
 10
10651.85400952886
 20
4592.98642163695
 30
0.0
  0
POINT
  5
18EAA
330
18988
100
AcDbEntity
  8
DEFPOINTS
 62
     0
 48
50.0
100
AcDbPoint
 10
10651.85400952886
 20
2802.98642163695
 30
0.0
  0
POINT
  5
18EAB
330
18988
100
AcDbEntity
  8
DEFPOINTS
 62
     0
 48
50.0
100
AcDbPoint
 10
9808.103880345605
 20
2802.98642163695
 30
0.0
  0
ENDBLK
  5
18993
330
18988
100
AcDbEntity
  8
0
 48
50.0
100
AcDbBlockEnd
  0
BLOCK
  5
1899E
330
18994
100
AcDbEntity
  8
0
 48
50.0
100
AcDbBlockBegin
  2
*D26
 70
     1
 10
0.0
 20
0.0
 30
0.0
  3
*D26
  1

  0
LINE
  5
18E9A
330
18994
100
AcDbEntity
  8
寸法
 62
     0
 48
50.0
370
    -2
100
AcDbLine
 10
10631.85400952886
 20
2752.98642163695
 30
0.0
 11
9448.103880345604
 21
2752.98642163695
 31
0.0
  0
LINE
  5
18E9B
330
18994
100
AcDbEntity
  8
寸法
 62
     0
 48
50.0
370
    -2
100
AcDbLine
 10
10571.85400952886
 20
4827.986421636954
 30
0.0
 11
9448.103880345604
 21
4827.986421636955
 31
0.0
  0
LINE
  5
18E9C
330
18994
100
AcDbEntity
  8
寸法
 62
     0
 48
50.0
370
    -2
100
AcDbLine
 10
9508.103880345604
 20
2752.98642163695
 30
0.0
 11
9508.103880345606
 21
4827.986421636955
 31
0.0
  0
INSERT
  5
18E9D
330
18994
100
AcDbEntity
  8
寸法
 62
     0
 48
50.0
370
    -2
100
AcDbBlockReference
  2
_DOTSMALL
 10
9508.103880345604
 20
2752.98642163695
 30
0.0
 41
100.0
 42
100.0
 43
100.0
 50
270.0
  0
INSERT
  5
18E9E
330
18994
100
AcDbEntity
  8
寸法
 62
     0
 48
50.0
370
    -2
100
AcDbBlockReference
  2
_DOTSMALL
 10
9508.103880345606
 20
4827.986421636955
 30
0.0
 41
100.0
 42
100.0
 43
100.0
 50
90.0
  0
MTEXT
  5
18E9F
330
18994
100
AcDbEntity
  8
寸法
 62
     7
 48
50.0
100
AcDbMText
 10
9408.09206932198
 20
3790.486421636954
 30
0.0
 40
120.0
 41
0.0
 71
     5
 72
     1
  1
\A1;2075
  7
STYLE1
 11
0.0000000000000001
 21
1.0
 31
0.0
 73
     1
 44
1.0
1001
ACAD
1000
MTEXTBEGIN
1070
    73
1070
     1
1070
    44
1040
1.0
1070
    74
1070
     0
1000
MTEXTEND
  0
POINT
  5
18EA0
330
18994
100
AcDbEntity
  8
DEFPOINTS
 62
     0
 48
50.0
100
AcDbPoint
 10
10651.85400952886
 20
2752.98642163695
 30
0.0
  0
POINT
  5
18EA1
330
18994
100
AcDbEntity
  8
DEFPOINTS
 62
     0
 48
50.0
100
AcDbPoint
 10
10591.85400952886
 20
4827.986421636954
 30
0.0
  0
POINT
  5
18EA2
330
18994
100
AcDbEntity
  8
DEFPOINTS
 62
     0
 48
50.0
100
AcDbPoint
 10
9508.103880345606
 20
4827.986421636955
 30
0.0
  0
ENDBLK
  5
1899F
330
18994
100
AcDbEntity
  8
0
 48
50.0
100
AcDbBlockEnd
  0
BLOCK
  5
189B9
330
189AD
100
AcDbEntity
  8
0
 48
50.0
100
AcDbBlockBegin
  2
*D27
 70
     1
 10
0.0
 20
0.0
 30
0.0
  3
*D27
  1

  0
LINE
  5
18E8F
330
189AD
100
AcDbEntity
  8
寸法
 62
     0
 48
50.0
370
    -2
100
AcDbLine
 10
10631.85400952886
 20
2802.98642163695
 30
0.0
 11
9748.103880345604
 21
2802.98642163695
 31
0.0
  0
LINE
  5
18E90
330
189AD
100
AcDbEntity
  8
寸法
 62
     0
 48
50.0
370
    -2
100
AcDbLine
 10
10576.85400952886
 20
2752.98642163695
 30
0.0
 11
9748.103880345604
 21
2752.98642163695
 31
0.0
  0
LINE
  5
18E91
330
189AD
100
AcDbEntity
  8
寸法
 62
     0
 48
50.0
370
    -2
100
AcDbLine
 10
9808.103880345605
 20
2802.98642163695
 30
0.0
 11
9808.103880345605
 21
2902.986421636949
 31
0.0
  0
LINE
  5
18E92
330
189AD
100
AcDbEntity
  8
寸法
 62
     0
 48
50.0
370
    -2
100
AcDbLine
 10
9808.103880345605
 20
2752.98642163695
 30
0.0
 11
9808.103880345605
 21
2340.89193344797
 31
0.0
  0
LINE
  5
18E93
330
189AD
100
AcDbEntity
  8
寸法
 62
     0
 48
50.0
370
    -2
100
AcDbLine
 10
9808.103880345605
 20
2802.98642163695
 30
0.0
 11
9808.103880345605
 21
2752.98642163695
 31
0.0
  0
INSERT
  5
18E94
330
189AD
100
AcDbEntity
  8
寸法
 62
     0
 48
50.0
370
    -2
100
AcDbBlockReference
  2
_DOTSMALL
 10
9808.103880345605
 20
2802.98642163695
 30
0.0
 41
100.0
 42
100.0
 43
100.0
 50
270.0
  0
INSERT
  5
18E95
330
189AD
100
AcDbEntity
  8
寸法
 62
     0
 48
50.0
370
    -2
100
AcDbBlockReference
  2
_DOTSMALL
 10
9808.103880345605
 20
2752.98642163695
 30
0.0
 41
100.0
 42
100.0
 43
100.0
 50
90.0
  0
MTEXT
  5
18E96
330
189AD
100
AcDbEntity
  8
寸法
 62
     7
 48
50.0
100
AcDbMText
 10
9708.103880345605
 20
2446.93917754246
 30
0.0
 40
120.0
 41
0.0
 71
     5
 72
     1
  1
\A1;50
  7
STYLE1
 11
0.0000000000000001
 21
1.0
 31
0.0
 73
     1
 44
1.0
1001
ACAD
1000
MTEXTBEGIN
1070
    73
1070
     1
1070
    44
1040
1.0
1070
    74
1070
     0
1000
MTEXTEND
  0
POINT
  5
18E97
330
189AD
100
AcDbEntity
  8
DEFPOINTS
 62
     0
 48
50.0
100
AcDbPoint
 10
10651.85400952886
 20
2802.98642163695
 30
0.0
  0
POINT
  5
18E98
330
189AD
100
AcDbEntity
  8
DEFPOINTS
 62
     0
 48
50.0
100
AcDbPoint
 10
10596.85400952886
 20
2752.98642163695
 30
0.0
  0
POINT
  5
18E99
330
189AD
100
AcDbEntity
  8
DEFPOINTS
 62
     0
 48
50.0
100
AcDbPoint
 10
9808.103880345605
 20
2752.98642163695
 30
0.0
  0
ENDBLK
  5
189BA
330
189AD
100
AcDbEntity
  8
0
 48
50.0
100
AcDbBlockEnd
  0
BLOCK
  5
189C5
330
189BB
100
AcDbEntity
  8
0
 48
50.0
100
AcDbBlockBegin
  2
*D28
 70
     1
 10
0.0
 20
0.0
 30
0.0
  3
*D28
  1

  0
LINE
  5
18E86
330
189BB
100
AcDbEntity
  8
寸法
 62
     0
 48
50.0
370
    -2
100
AcDbLine
 10
13301.85400952887
 20
2752.986421636951
 30
0.0
 11
14046.78116750099
 21
2752.986421636951
 31
0.0
  0
LINE
  5
18E87
330
189BB
100
AcDbEntity
  8
寸法
 62
     0
 48
50.0
370
    -2
100
AcDbLine
 10
13381.85400952886
 20
4772.986421636951
 30
0.0
 11
14046.78116750099
 21
4772.986421636951
 31
0.0
  0
LINE
  5
18E88
330
189BB
100
AcDbEntity
  8
寸法
 62
     0
 48
50.0
370
    -2
100
AcDbLine
 10
13986.78116750099
 20
2752.986421636951
 30
0.0
 11
13986.78116750099
 21
4772.986421636951
 31
0.0
  0
INSERT
  5
18E89
330
189BB
100
AcDbEntity
  8
寸法
 62
     0
 48
50.0
370
    -2
100
AcDbBlockReference
  2
_DOTSMALL
 10
13986.78116750099
 20
2752.986421636951
 30
0.0
 41
100.0
 42
100.0
 43
100.0
 50
270.0
  0
INSERT
  5
18E8A
330
189BB
100
AcDbEntity
  8
寸法
 62
     0
 48
50.0
370
    -2
100
AcDbBlockReference
  2
_DOTSMALL
 10
13986.78116750099
 20
4772.986421636951
 30
0.0
 41
100.0
 42
100.0
 43
100.0
 50
90.0
  0
MTEXT
  5
18E8B
330
189BB
100
AcDbEntity
  8
寸法
 62
     7
 48
50.0
100
AcDbMText
 10
13886.76935647737
 20
3762.986421636953
 30
0.0
 40
120.0
 41
0.0
 71
     5
 72
     1
  1
\A1;2020
  7
STYLE1
 11
0.0000000000000001
 21
1.0
 31
0.0
 73
     1
 44
1.0
1001
ACAD
1000
MTEXTBEGIN
1070
    73
1070
     1
1070
    44
1040
1.0
1070
    74
1070
     0
1000
MTEXTEND
  0
POINT
  5
18E8C
330
189BB
100
AcDbEntity
  8
DEFPOINTS
 62
     0
 48
50.0
100
AcDbPoint
 10
13281.85400952887
 20
2752.986421636951
 30
0.0
  0
POINT
  5
18E8D
330
189BB
100
AcDbEntity
  8
DEFPOINTS
 62
     0
 48
50.0
100
AcDbPoint
 10
13361.85400952886
 20
4772.986421636951
 30
0.0
  0
POINT
  5
18E8E
330
189BB
100
AcDbEntity
  8
DEFPOINTS
 62
     0
 48
50.0
100
AcDbPoint
 10
13986.78116750099
 20
4772.986421636951
 30
0.0
  0
ENDBLK
  5
189C6
330
189BB
100
AcDbEntity
  8
0
 48
50.0
100
AcDbBlockEnd
  0
BLOCK
  5
189D1
330
189C7
100
AcDbEntity
  8
0
 48
50.0
100
AcDbBlockBegin
  2
*D29
 70
     1
 10
0.0
 20
0.0
 30
0.0
  3
*D29
  1

  0
LINE
  5
18E7D
330
189C7
100
AcDbEntity
  8
寸法
 62
     0
 48
50.0
370
    -2
100
AcDbLine
 10
13281.85400952886
 20
4794.797101248604
 30
0.0
 11
13281.85400952886
 21
5286.643875216255
 31
0.0
  0
LINE
  5
18E7E
330
189C7
100
AcDbEntity
  8
寸法
 62
     0
 48
50.0
370
    -2
100
AcDbLine
 10
10651.85400952886
 20
4843.988039759927
 30
0.0
 11
10651.85400952886
 21
5286.643875216255
 31
0.0
  0
LINE
  5
18E7F
330
189C7
100
AcDbEntity
  8
寸法
 62
     0
 48
50.0
370
    -2
100
AcDbLine
 10
13281.85400952886
 20
5226.643875216255
 30
0.0
 11
10651.85400952886
 21
5226.643875216255
 31
0.0
  0
INSERT
  5
18E80
330
189C7
100
AcDbEntity
  8
寸法
 62
     0
 48
50.0
370
    -2
100
AcDbBlockReference
  2
_DOTSMALL
 10
13281.85400952886
 20
5226.643875216255
 30
0.0
 41
100.0
 42
100.0
 43
100.0
  0
INSERT
  5
18E81
330
189C7
100
AcDbEntity
  8
寸法
 62
     0
 48
50.0
370
    -2
100
AcDbBlockReference
  2
_DOTSMALL
 10
10651.85400952886
 20
5226.643875216255
 30
0.0
 41
100.0
 42
100.0
 43
100.0
 50
180.0
  0
MTEXT
  5
18E82
330
189C7
100
AcDbEntity
  8
寸法
 62
     7
 48
50.0
100
AcDbMText
 10
12006.62420055806
 20
5326.655686239877
 30
0.0
 40
120.0
 41
0.0
 71
     5
 72
     1
  1
\A1;柱外寸法2630
  7
STYLE1
 73
     1
 44
1.0
1001
ACAD
1000
MTEXTBEGIN
1070
    73
1070
     1
1070
    44
1040
1.0
1070
    74
1070
     0
1000
MTEXTEND
  0
POINT
  5
18E83
330
189C7
100
AcDbEntity
  8
DEFPOINTS
 62
     0
 48
50.0
100
AcDbPoint
 10
13281.85400952886
 20
4774.797101248604
 30
0.0
  0
POINT
  5
18E84
330
189C7
100
AcDbEntity
  8
DEFPOINTS
 62
     0
 48
50.0
100
AcDbPoint
 10
10651.85400952886
 20
4823.988039759926
 30
0.0
  0
POINT
  5
18E85
330
189C7
100
AcDbEntity
  8
DEFPOINTS
 62
     0
 48
50.0
100
AcDbPoint
 10
10651.85400952886
 20
5226.643875216255
 30
0.0
  0
ENDBLK
  5
189D2
330
189C7
100
AcDbEntity
  8
0
 48
50.0
100
AcDbBlockEnd
  0
BLOCK
  5
189DF
330
189D3
100
AcDbEntity
  8
0
 48
50.0
100
AcDbBlockBegin
  2
*D30
 70
     1
 10
0.0
 20
0.0
 30
0.0
  3
*D30
  1

  0
LINE
  5
18E72
330
189D3
100
AcDbEntity
  8
寸法
 62
     0
 48
50.0
370
    -2
100
AcDbLine
 10
10651.85400952886
 20
4843.988039759927
 30
0.0
 11
10651.85400952886
 21
5286.643875216253
 31
0.0
  0
LINE
  5
18E73
330
189D3
100
AcDbEntity
  8
寸法
 62
     0
 48
50.0
370
    -2
100
AcDbLine
 10
10591.85400952886
 20
4847.986421636954
 30
0.0
 11
10591.85400952886
 21
5286.643875216253
 31
0.0
  0
LINE
  5
18E74
330
189D3
100
AcDbEntity
  8
寸法
 62
     0
 48
50.0
370
    -2
100
AcDbLine
 10
10651.85400952886
 20
5226.643875216254
 30
0.0
 11
10751.85400952886
 21
5226.643875216254
 31
0.0
  0
LINE
  5
18E75
330
189D3
100
AcDbEntity
  8
寸法
 62
     0
 48
50.0
370
    -2
100
AcDbLine
 10
10591.85400952886
 20
5226.643875216254
 30
0.0
 11
10172.57841897768
 21
5226.643875216254
 31
0.0
  0
LINE
  5
18E76
330
189D3
100
AcDbEntity
  8
寸法
 62
     0
 48
50.0
370
    -2
100
AcDbLine
 10
10651.85400952886
 20
5226.643875216254
 30
0.0
 11
10591.85400952886
 21
5226.643875216254
 31
0.0
  0
INSERT
  5
18E77
330
189D3
100
AcDbEntity
  8
寸法
 62
     0
 48
50.0
370
    -2
100
AcDbBlockReference
  2
_DOTSMALL
 10
10651.85400952886
 20
5226.643875216254
 30
0.0
 41
100.0
 42
100.0
 43
100.0
 50
180.0
  0
INSERT
  5
18E78
330
189D3
100
AcDbEntity
  8
寸法
 62
     0
 48
50.0
370
    -2
100
AcDbBlockReference
  2
_DOTSMALL
 10
10591.85400952886
 20
5226.643875216254
 30
0.0
 41
100.0
 42
100.0
 43
100.0
  0
MTEXT
  5
18E79
330
189D3
100
AcDbEntity
  8
寸法
 62
     7
 48
50.0
100
AcDbMText
 10
10282.21621425327
 20
5326.643875216254
 30
0.0
 40
120.0
 41
0.0
 71
     5
 72
     1
  1
\A1;60
  7
STYLE1
 73
     1
 44
1.0
1001
ACAD
1000
MTEXTBEGIN
1070
    73
1070
     1
1070
    44
1040
1.0
1070
    74
1070
     0
1000
MTEXTEND
  0
POINT
  5
18E7A
330
189D3
100
AcDbEntity
  8
DEFPOINTS
 62
     0
 48
50.0
100
AcDbPoint
 10
10651.85400952886
 20
4823.988039759926
 30
0.0
  0
POINT
  5
18E7B
330
189D3
100
AcDbEntity
  8
DEFPOINTS
 62
     0
 48
50.0
100
AcDbPoint
 10
10591.85400952886
 20
4827.986421636954
 30
0.0
  0
POINT
  5
18E7C
330
189D3
100
AcDbEntity
  8
DEFPOINTS
 62
     0
 48
50.0
100
AcDbPoint
 10
10591.85400952886
 20
5226.643875216254
 30
0.0
  0
ENDBLK
  5
189E0
330
189D3
100
AcDbEntity
  8
0
 48
50.0
100
AcDbBlockEnd
  0
BLOCK
  5
189EB
330
189E1
100
AcDbEntity
  8
0
 48
50.0
100
AcDbBlockBegin
  2
*D31
 70
     1
 10
0.0
 20
0.0
 30
0.0
  3
*D31
  1

  0
LINE
  5
18E69
330
189E1
100
AcDbEntity
  8
寸法
 62
     0
 48
50.0
370
    -2
100
AcDbLine
 10
13361.85400952886
 20
4792.986421636951
 30
0.0
 11
13361.85400952886
 21
5506.854561947871
 31
0.0
  0
LINE
  5
18E6A
330
189E1
100
AcDbEntity
  8
寸法
 62
     0
 48
50.0
370
    -2
100
AcDbLine
 10
10591.85400952886
 20
4847.986421636954
 30
0.0
 11
10591.85400952886
 21
5506.854561947871
 31
0.0
  0
LINE
  5
18E6B
330
189E1
100
AcDbEntity
  8
寸法
 62
     0
 48
50.0
370
    -2
100
AcDbLine
 10
13361.85400952886
 20
5446.854561947872
 30
0.0
 11
10591.85400952886
 21
5446.854561947872
 31
0.0
  0
INSERT
  5
18E6C
330
189E1
100
AcDbEntity
  8
寸法
 62
     0
 48
50.0
370
    -2
100
AcDbBlockReference
  2
_DOTSMALL
 10
13361.85400952886
 20
5446.854561947872
 30
0.0
 41
100.0
 42
100.0
 43
100.0
  0
INSERT
  5
18E6D
330
189E1
100
AcDbEntity
  8
寸法
 62
     0
 48
50.0
370
    -2
100
AcDbBlockReference
  2
_DOTSMALL
 10
10591.85400952886
 20
5446.854561947872
 30
0.0
 41
100.0
 42
100.0
 43
100.0
 50
180.0
  0
MTEXT
  5
18E6E
330
189E1
100
AcDbEntity
  8
寸法
 62
     7
 48
50.0
100
AcDbMText
 10
11995.21293441624
 20
5546.866372971493
 30
0.0
 40
120.0
 41
0.0
 71
     5
 72
     1
  1
\A1;2770
  7
STYLE1
 73
     1
 44
1.0
1001
ACAD
1000
MTEXTBEGIN
1070
    73
1070
     1
1070
    44
1040
1.0
1070
    74
1070
     0
1000
MTEXTEND
  0
POINT
  5
18E6F
330
189E1
100
AcDbEntity
  8
DEFPOINTS
 62
     0
 48
50.0
100
AcDbPoint
 10
13361.85400952886
 20
4772.986421636951
 30
0.0
  0
POINT
  5
18E70
330
189E1
100
AcDbEntity
  8
DEFPOINTS
 62
     0
 48
50.0
100
AcDbPoint
 10
10591.85400952886
 20
4827.986421636954
 30
0.0
  0
POINT
  5
18E71
330
189E1
100
AcDbEntity
  8
DEFPOINTS
 62
     0
 48
50.0
100
AcDbPoint
 10
10591.85400952886
 20
5446.854561947872
 30
0.0
  0
ENDBLK
  5
189EC
330
189E1
100
AcDbEntity
  8
0
 48
50.0
100
AcDbBlockEnd
  0
BLOCK
  5
189F8
330
189ED
100
AcDbEntity
  8
0
 48
50.0
100
AcDbBlockBegin
  2
*D32
 70
     1
 10
0.0
 20
0.0
 30
0.0
  3
*D32
  1

  0
LINE
  5
18E5F
330
189ED
100
AcDbEntity
  8
寸法
 62
     0
 48
50.0
370
    -2
100
AcDbLine
 10
13281.85400952886
 20
4794.797101248604
 30
0.0
 11
13281.85400952886
 21
5286.643875216255
 31
0.0
  0
LINE
  5
18E60
330
189ED
100
AcDbEntity
  8
寸法
 62
     0
 48
50.0
370
    -2
100
AcDbLine
 10
13361.85400952886
 20
4792.986421636951
 30
0.0
 11
13361.85400952886
 21
5286.643875216255
 31
0.0
  0
LINE
  5
18E61
330
189ED
100
AcDbEntity
  8
寸法
 62
     0
 48
50.0
370
    -2
100
AcDbLine
 10
13281.85400952886
 20
5226.643875216255
 30
0.0
 11
13361.85400952886
 21
5226.643875216255
 31
0.0
  0
LINE
  5
18E62
330
189ED
100
AcDbEntity
  8
寸法
 62
     0
 48
50.0
370
    -2
100
AcDbLine
 10
13361.85400952886
 20
5226.643875216255
 30
0.0
 11
13673.94849771784
 21
5226.643875216255
 31
0.0
  0
INSERT
  5
18E63
330
189ED
100
AcDbEntity
  8
寸法
 62
     0
 48
50.0
370
    -2
100
AcDbBlockReference
  2
_DOTSMALL
 10
13281.85400952886
 20
5226.643875216255
 30
0.0
 41
100.0
 42
100.0
 43
100.0
 50
180.0
  0
INSERT
  5
18E64
330
189ED
100
AcDbEntity
  8
寸法
 62
     0
 48
50.0
370
    -2
100
AcDbBlockReference
  2
_DOTSMALL
 10
13361.85400952886
 20
5226.643875216255
 30
0.0
 41
100.0
 42
100.0
 43
100.0
  0
MTEXT
  5
18E65
330
189ED
100
AcDbEntity
  8
寸法
 62
     7
 48
50.0
100
AcDbMText
 10
13567.90125362335
 20
5326.643875216255
 30
0.0
 40
120.0
 41
0.0
 71
     5
 72
     1
  1
\A1;80
  7
STYLE1
 73
     1
 44
1.0
1001
ACAD
1000
MTEXTBEGIN
1070
    73
1070
     1
1070
    44
1040
1.0
1070
    74
1070
     0
1000
MTEXTEND
  0
POINT
  5
18E66
330
189ED
100
AcDbEntity
  8
DEFPOINTS
 62
     0
 48
50.0
100
AcDbPoint
 10
13281.85400952886
 20
4774.797101248604
 30
0.0
  0
POINT
  5
18E67
330
189ED
100
AcDbEntity
  8
DEFPOINTS
 62
     0
 48
50.0
100
AcDbPoint
 10
13361.85400952886
 20
4772.986421636951
 30
0.0
  0
POINT
  5
18E68
330
189ED
100
AcDbEntity
  8
DEFPOINTS
 62
     0
 48
50.0
100
AcDbPoint
 10
13361.85400952886
 20
5226.643875216255
 30
0.0
  0
ENDBLK
  5
189F9
330
189ED
100
AcDbEntity
  8
0
 48
50.0
100
AcDbBlockEnd
  0
BLOCK
  5
18A05
330
189FA
100
AcDbEntity
  8
0
 48
50.0
100
AcDbBlockBegin
  2
*D33
 70
     1
 10
0.0
 20
0.0
 30
0.0
  3
*D33
  1

  0
LINE
  5
18E55
330
189FA
100
AcDbEntity
  8
寸法
 62
     0
 48
50.0
370
    -2
100
AcDbLine
 10
10591.25829581996
 20
4827.284128706612
 30
0.0
 11
9975.323856714691
 21
4844.998278980941
 31
0.0
  0
LINE
  5
18E56
330
189FA
100
AcDbEntity
  8
寸法
 62
     0
 48
50.0
370
    -2
100
AcDbLine
 10
10587.20484026334
 20
4686.342404940898
 30
0.0
 11
9971.270401158065
 21
4704.056555215228
 31
0.0
  0
LINE
  5
18E57
330
189FA
100
AcDbEntity
  8
寸法
 62
     0
 48
50.0
370
    -2
100
AcDbLine
 10
10031.24560276049
 20
4702.331680510281
 30
0.0
 11
10035.29905831712
 21
4843.273404275993
 31
0.0
  0
LINE
  5
18E58
330
189FA
100
AcDbEntity
  8
寸法
 62
     0
 48
50.0
370
    -2
100
AcDbLine
 10
10035.29905831712
 20
4843.273404275993
 30
0.0
 11
10045.6483065468
 21
5203.12461389058
 31
0.0
  0
INSERT
  5
18E59
330
189FA
100
AcDbEntity
  8
寸法
 62
     0
 48
50.0
370
    -2
100
AcDbBlockReference
  2
_DOTSMALL
 10
10031.24560276049
 20
4702.331680510281
 30
0.0
 41
100.0
 42
100.0
 43
100.0
 50
268.3526390256378
  0
INSERT
  5
18E5A
330
189FA
100
AcDbEntity
  8
寸法
 62
     0
 48
50.0
370
    -2
100
AcDbBlockReference
  2
_DOTSMALL
 10
10035.29905831712
 20
4843.273404275993
 30
0.0
 41
100.0
 42
100.0
 43
100.0
 50
88.35263902563776
  0
MTEXT
  5
18E5B
330
189FA
100
AcDbEntity
  8
寸法
 62
     7
 48
50.0
100
AcDbMText
 10
9941.952408682034
 20
5076.053134926891
 30
0.0
 40
120.0
 41
0.0
 71
     5
 72
     1
  1
\A1;141
  7
STYLE1
 11
0.0287479117491237
 21
0.9995866933738488
 31
0.0
 73
     1
 44
1.0
1001
ACAD
1000
MTEXTBEGIN
1070
    73
1070
     1
1070
    44
1040
1.0
1070
    74
1070
     0
1000
MTEXTEND
  0
POINT
  5
18E5C
330
189FA
100
AcDbEntity
  8
DEFPOINTS
 62
     0
 48
50.0
100
AcDbPoint
 10
10611.25002968744
 20
4826.709170471629
 30
0.0
  0
POINT
  5
18E5D
330
189FA
100
AcDbEntity
  8
DEFPOINTS
 62
     0
 48
50.0
100
AcDbPoint
 10
10607.19657413081
 20
4685.767446705916
 30
0.0
  0
POINT
  5
18E5E
330
189FA
100
AcDbEntity
  8
DEFPOINTS
 62
     0
 48
50.0
100
AcDbPoint
 10
10031.24560276049
 20
4702.331680510281
 30
0.0
  0
ENDBLK
  5
18A06
330
189FA
100
AcDbEntity
  8
0
 48
50.0
100
AcDbBlockEnd
  0
ENDSEC
  0
SECTION
  2
ENTITIES
  0
MTEXT
  5
763F
330
747D
100
AcDbEntity
  8
0
100
AcDbMText
 10
302.846345836809
 20
280.1983726409901
 30
0.0
 40
3.5
 41
5.323721266742722
 71
     1
 72
     5
  1

  7
MSMINCHO
 73
     1
 44
1.0
1001
ACAD
1000
MTEXTBEGIN
1070
    73
1070
     1
1070
    44
1040
1.0
1070
    74
1070
     0
1000
MTEXTEND
  0
LINE
  5
10B57
330
747D
100
AcDbEntity
  8
補助
  6
PHANTOM
 62
   230
 48
50.0
100
AcDbLine
 10
139.9999999999995
 20
11409.6
 30
0.0
 11
16307.2
 21
11409.6
 31
0.0
  0
LINE
  5
10B59
330
747D
100
AcDbEntity
  8
仕様書枠
  6
Continuous
 48
50.0
100
AcDbLine
 10
13107.2
 20
1200.0
 30
0.0
 11
13107.2
 21
-0.0000000000000729
 31
0.0
  0
LINE
  5
10B5D
330
747D
100
AcDbEntity
  8
仕様書枠
 48
50.0
100
AcDbLine
 10
140.0
 20
0.0
 30
0.0
 11
16307.2
 21
-0.0000000000000909
 31
0.0
  0
LINE
  5
10B5E
330
747D
100
AcDbEntity
  8
補助
  6
PHANTOM
 62
   230
 48
50.0
100
AcDbLine
 10
16307.2
 20
11409.6
 30
0.0
 11
16307.2
 21
1200.0
 31
0.0
  0
LINE
  5
10B6C
330
747D
100
AcDbEntity
  8
仕様書枠
 48
50.0
100
AcDbLine
 10
13107.2
 20
1200.0
 30
0.0
 11
16307.2
 21
1200.0
 31
0.0
  0
LINE
  5
10B6D
330
747D
100
AcDbEntity
  8
補助
  6
PHANTOM
 62
   230
 48
50.0
100
AcDbLine
 10
13107.2
 20
11409.6
 30
0.0
 11
13107.2
 21
4800.0
 31
0.0
  0
LINE
  5
10B6F
330
747D
100
AcDbEntity
  8
補助
  6
PHANTOM
 62
   230
 48
50.0
100
AcDbLine
 10
13107.2
 20
4800.0
 30
0.0
 11
16307.2
 21
4800.0
 31
0.0
  0
LINE
  5
10B72
330
747D
100
AcDbEntity
  8
文字
 62
     7
 48
50.0
100
AcDbLine
 10
13187.2
 20
400.0
 30
0.0
 11
16227.2
 21
400.0
 31
0.0
  0
TEXT
  5
10B73
330
747D
100
AcDbEntity
  8
文字
 62
     7
 48
50.0
100
AcDbText
 10
13162.9790565769
 20
895.0906074299405
 30
0.0
 40
200.0
  1
外 形 図
  7
STYLE2
100
AcDbText
  0
TEXT
  5
10B74
330
747D
100
AcDbEntity
  8
文字
 62
     7
 48
50.0
100
AcDbText
 10
13201.43669998441
 20
477.2740661031255
 30
0.0
 40
160.0
  1
機種名
  7
STYLE2
100
AcDbText
  0
LINE
  5
10B7B
330
747D
100
AcDbEntity
  8
仕様書枠
 48
50.0
100
AcDbLine
 10
13107.2
 20
800.0
 30
0.0
 11
14251.2
 21
800.0
 31
0.0
  0
LINE
  5
10B88
330
747D
100
AcDbEntity
  8
仕様書枠
  6
Continuous
 48
50.0
100
AcDbLine
 10
14251.2
 20
1200.0
 30
0.0
 11
14251.2
 21
800.0
 31
0.0
  0
DIMENSION
  5
14521
330
747D
100
AcDbEntity
  8
寸法
100
AcDbDimension
  2
*D2
 10
4661.056627721381
 20
10175.82469897913
 30
0.0
 11
4297.571346347109
 21
10175.82469897913
 31
0.0
 70
   160
 71
     5
 42
55.00000000003456
  3
INABA_S40G
100
AcDbAlignedDimension
 13
4606.056627721347
 23
9740.346349032757
 33
0.0
 14
4661.056627721381
 24
9740.346349032757
 34
0.0
100
AcDbRotatedDimension
1001
ACAD
1000
DSTYLE
1002
{
1002
}
  0
LINE
  5
14523
330
747D
100
AcDbEntity
  8
部品1
100
AcDbLine
 10
4606.056627721347
 20
9740.346349032757
 30
0.0
 11
4606.056627721375
 21
7110.346349032745
 31
0.0
  0
LINE
  5
14524
330
747D
100
AcDbEntity
  8
部品1
100
AcDbLine
 10
8661.056627721384
 20
9740.346349032883
 30
0.0
 11
8661.056627721384
 21
9712.346349032884
 31
0.0
  0
LINE
  5
14525
330
747D
100
AcDbEntity
  8
部品1
100
AcDbLine
 10
8661.056627721384
 20
9740.346349032904
 30
0.0
 11
8661.056627721384
 21
9712.346349032904
 31
0.0
  0
DIMENSION
  5
14526
330
747D
100
AcDbEntity
  8
寸法
100
AcDbDimension
  2
*D3
 10
9728.589915195431
 20
7110.346349032873
 30
0.0
 11
9728.58991519543
 21
8425.34634903288
 31
0.0
 70
   160
 71
     5
 42
2630.00000000001
  3
INABA_S40G
100
AcDbAlignedDimension
 13
8716.056627721384
 23
9740.346349032883
 33
0.0
 14
8716.056627721359
 24
7110.346349032873
 34
0.0
 50
90.0
100
AcDbRotatedDimension
1001
ACAD
1000
DSTYLE
1002
{
1002
}
  0
LINE
  5
14527
330
747D
100
AcDbEntity
  8
部品1
100
AcDbLine
 10
8716.056627721384
 20
9740.346349032883
 30
0.0
 11
8716.056627721359
 21
7110.346349032873
 31
0.0
  0
LINE
  5
14529
330
747D
100
AcDbEntity
  8
部品1
100
AcDbLine
 10
8241.056627721382
 20
9740.346349032904
 30
0.0
 11
8241.056627721382
 21
9712.346349032904
 31
0.0
  0
LINE
  5
1452A
330
747D
100
AcDbEntity
  8
部品1
100
AcDbLine
 10
7821.056627721382
 20
9740.346349032904
 30
0.0
 11
7821.056627721382
 21
9712.346349032904
 31
0.0
  0
LINE
  5
1452B
330
747D
100
AcDbEntity
  8
部品1
100
AcDbLine
 10
7821.056627721382
 20
9740.346349032787
 30
0.0
 11
7821.056627721382
 21
9712.346349032786
 31
0.0
  0
LINE
  5
1452C
330
747D
100
AcDbEntity
  8
部品1
100
AcDbLine
 10
7821.056627721382
 20
9740.34634903279
 30
0.0
 11
7821.056627721382
 21
9712.34634903279
 31
0.0
  0
LINE
  5
1452D
330
747D
100
AcDbEntity
  8
部品1
100
AcDbLine
 10
4661.056627721381
 20
9740.34634903279
 30
0.0
 11
4661.056627721381
 21
9712.34634903279
 31
0.0
  0
DIMENSION
  5
1452E
330
747D
100
AcDbEntity
  8
寸法
100
AcDbDimension
  2
*D4
 10
9363.482973455795
 20
9685.346349032887
 30
0.0
 11
9363.482973455793
 21
10048.83163040712
 31
0.0
 70
   160
 71
     5
 42
54.99999999999636
  3
INABA_S40G
100
AcDbAlignedDimension
 13
8716.056627721384
 23
9740.346349032883
 33
0.0
 14
8716.056627721384
 24
9685.346349032887
 34
0.0
 50
90.0
100
AcDbRotatedDimension
1001
ACAD
1000
DSTYLE
1002
{
1002
}
  0
DIMENSION
  5
14530
330
747D
100
AcDbEntity
  8
寸法
100
AcDbDimension
  2
*D5
 10
9363.48297345577
 20
7110.346349032873
 30
0.0
 11
9363.482973455768
 21
6732.484882128012
 31
0.0
 70
   160
 71
     5
 42
54.99999999999636
  3
INABA_S40G
100
AcDbAlignedDimension
 13
8716.056627721359
 23
7165.34634903287
 33
0.0
 14
8716.056627721359
 24
7110.346349032873
 34
0.0
 50
90.0
100
AcDbRotatedDimension
1001
ACAD
1000
DSTYLE
1002
{
1002
}
  0
DIMENSION
  5
14531
330
747D
100
AcDbEntity
  8
寸法
100
AcDbDimension
  2
*D6
 10
9363.482973455795
 20
7165.34634903287
 30
0.0
 11
9363.482973455793
 21
8425.34634903288
 31
0.0
 70
   160
  1
6X420=<>
 71
     5
 42
2520.000000000016
  3
INABA_S40G
100
AcDbAlignedDimension
 13
8716.056627721384
 23
9685.346349032887
 33
0.0
 14
8716.056627721359
 24
7165.34634903287
 34
0.0
 50
90.0
100
AcDbRotatedDimension
1001
ACAD
1000
DSTYLE
1002
{
1002
}
  0
DIMENSION
  5
14532
330
747D
100
AcDbEntity
  8
寸法
100
AcDbDimension
  2
*D7
 10
8716.056627721359
 20
6346.210379679185
 30
0.0
 11
8031.056627721367
 21
6346.210379679185
 31
0.0
 70
   160
 71
     5
 42
1369.999999999983
  3
INABA_S40G
100
AcDbAlignedDimension
 13
7346.056627721376
 23
7110.34634903271
 33
0.0
 14
8716.056627721359
 24
7110.346349032839
 34
0.0
100
AcDbRotatedDimension
1001
ACAD
1000
DSTYLE
1002
{
1002
}
  0
TEXT
  5
14535
330
747D
100
AcDbEntity
  8
部品1
100
AcDbText
 10
6369.240904436185
 20
5934.798900727827
 30
0.0
 40
135.0
  1
平面図
  7
STYLE2
100
AcDbText
  0
LINE
  5
14538
330
747D
100
AcDbEntity
  8
部品1
100
AcDbLine
 10
8233.056627721584
 20
7212.346349032843
 30
0.0
 11
7374.056627721357
 21
7212.346349032777
 31
0.0
  0
LINE
  5
14542
330
747D
100
AcDbEntity
  8
部品1
100
AcDbLine
 10
8683.056627721382
 20
9711.596349032916
 30
0.0
 11
8683.056627721489
 21
8438.596349033112
 31
0.0
  0
LINE
  5
14543
330
747D
100
AcDbEntity
  8
部品1
100
AcDbLine
 10
4661.056627721381
 20
9712.346349032873
 30
0.0
 11
5020.92537869883
 21
9712.346349032875
 31
0.0
  0
LINE
  5
14544
330
747D
100
AcDbEntity
  8
部品1
100
AcDbLine
 10
8716.056627721359
 20
7110.346349032873
 30
0.0
 11
5510.190980858867
 21
7110.346349032653
 31
0.0
  0
LINE
  5
14546
330
747D
100
AcDbEntity
  8
部品1
100
AcDbLine
 10
4634.056627721357
 20
7165.346349032741
 30
0.0
 11
4634.056627721382
 21
9712.34634903279
 31
0.0
  0
LINE
  5
1454A
330
747D
100
AcDbEntity
  8
部品1
100
AcDbLine
 10
7397.056627721376
 20
7110.346349032745
 30
0.0
 11
7346.056627721376
 21
7110.346349032745
 31
0.0
  0
LINE
  5
1454D
330
747D
100
AcDbEntity
  8
部品1
100
AcDbLine
 10
4634.056627721373
 20
7165.346349032758
 30
0.0
 11
4606.056627721374
 21
7165.346349032758
 31
0.0
  0
LINE
  5
1454F
330
747D
100
AcDbEntity
  8
部品1
100
AcDbLine
 10
4666.056627721371
 20
7165.346349032707
 30
0.0
 11
4638.056627721372
 21
7165.346349032707
 31
0.0
  0
LINE
  5
14550
330
747D
100
AcDbEntity
  8
部品1
100
AcDbLine
 10
4657.056627721376
 20
7110.346349032709
 30
0.0
 11
4657.056627721373
 21
7117.346349032745
 31
0.0
  0
LINE
  5
14551
330
747D
100
AcDbEntity
  8
部品1
100
AcDbLine
 10
4666.056627721373
 20
7117.346349032743
 30
0.0
 11
4657.056627721373
 21
7117.346349032745
 31
0.0
  0
LINE
  5
14552
330
747D
100
AcDbEntity
  8
部品1
100
AcDbLine
 10
4666.056627721373
 20
7117.346349032743
 30
0.0
 11
4666.056627721371
 21
7165.346349032708
 31
0.0
  0
LINE
  5
14558
330
747D
100
AcDbEntity
  8
部品1
100
AcDbLine
 10
4634.056627721362
 20
8005.346349032757
 30
0.0
 11
4606.056627721362
 21
8005.346349032757
 31
0.0
  0
LINE
  5
1455D
330
747D
100
AcDbEntity
  8
部品1
100
AcDbLine
 10
4634.056627721382
 20
9712.346349032756
 30
0.0
 11
5020.925378698851
 21
9712.346349032756
 31
0.0
  0
LINE
  5
1455E
330
747D
100
AcDbEntity
  8
部品1
 48
50.0
100
AcDbLine
 10
8683.056627721375
 20
9711.596349032914
 30
0.0
 11
8233.05662772138
 21
9711.596349032912
 31
0.0
  0
LINE
  5
1455F
330
747D
100
AcDbEntity
  8
部品1
100
AcDbLine
 10
4634.056627721356
 20
8425.346349032757
 30
0.0
 11
4606.056627721357
 21
8425.346349032757
 31
0.0
  0
LINE
  5
14560
330
747D
100
AcDbEntity
  8
部品1
100
AcDbLine
 10
4634.056627721348
 20
9685.34634903276
 30
0.0
 11
4606.05662772135
 21
9685.34634903276
 31
0.0
  0
LINE
  5
14562
330
747D
100
AcDbEntity
  8
部品1
100
AcDbLine
 10
8688.056627721385
 20
9712.346349032884
 30
0.0
 11
8688.056627721371
 21
8437.846349032881
 31
0.0
  0
LINE
  5
1456A
330
747D
100
AcDbEntity
  8
部品1
100
AcDbLine
 10
8716.056627721359
 20
7110.346349032873
 30
0.0
 11
8665.056627721359
 21
7110.346349032873
 31
0.0
  0
LINE
  5
1456B
330
747D
100
AcDbEntity
  8
部品1
100
AcDbLine
 10
8716.056627721359
 20
7165.34634903287
 30
0.0
 11
8716.056627721359
 21
7110.346349032873
 31
0.0
  0
LINE
  5
1456C
330
747D
100
AcDbEntity
  8
部品1
100
AcDbLine
 10
8688.056627721358
 20
7165.34634903287
 30
0.0
 11
8716.056627721359
 21
7165.34634903287
 31
0.0
  0
LINE
  5
1456E
330
747D
100
AcDbEntity
  8
部品1
100
AcDbLine
 10
8656.056627721358
 20
7165.34634903287
 30
0.0
 11
8688.056627721358
 21
7165.34634903287
 31
0.0
  0
LINE
  5
14570
330
747D
100
AcDbEntity
  8
部品1
100
AcDbLine
 10
8665.056627721359
 20
7110.346349032872
 30
0.0
 11
8665.056627721359
 21
7117.346349032874
 31
0.0
  0
LINE
  5
14571
330
747D
100
AcDbEntity
  8
部品1
100
AcDbLine
 10
8665.056627721359
 20
7117.346349032874
 30
0.0
 11
8656.056627721358
 21
7117.346349032874
 31
0.0
  0
LINE
  5
14572
330
747D
100
AcDbEntity
  8
部品1
100
AcDbLine
 10
8656.056627721358
 20
7117.346349032874
 30
0.0
 11
8656.056627721358
 21
7165.34634903287
 31
0.0
  0
LINE
  5
14573
330
747D
100
AcDbEntity
  8
部品1
100
AcDbLine
 10
8688.056627721392
 20
7165.346349032887
 30
0.0
 11
8716.056627721391
 21
7165.346349032887
 31
0.0
  0
LINE
  5
14574
330
747D
100
AcDbEntity
  8
部品1
100
AcDbLine
 10
8688.056627721387
 20
8005.346349032887
 30
0.0
 11
8716.056627721387
 21
8005.346349032887
 31
0.0
  0
LINE
  5
14584
330
747D
100
AcDbEntity
  8
部品1
100
AcDbLine
 10
8683.056627721477
 20
7187.846349032901
 30
0.0
 11
8233.056627721479
 21
7187.846349032901
 31
0.0
  0
LINE
  5
14585
330
747D
100
AcDbEntity
  8
部品1
100
AcDbLine
 10
8688.056627721385
 20
8425.346349032887
 30
0.0
 11
8716.056627721384
 21
8425.346349032887
 31
0.0
  0
LINE
  5
14586
330
747D
100
AcDbEntity
  8
部品1
100
AcDbLine
 10
8688.056627721385
 20
9685.346349032887
 30
0.0
 11
8716.056627721384
 21
9685.346349032887
 31
0.0
  0
DIMENSION
  5
14587
330
747D
100
AcDbEntity
  8
寸法
100
AcDbDimension
  2
*D8
 10
8716.056627721384
 20
10175.82469897926
 30
0.0
 11
9024.541909095622
 21
10175.82469897926
 31
0.0
 70
   160
 71
     5
 42
55.0
  3
INABA_S40G
100
AcDbAlignedDimension
 13
8661.056627721384
 23
9740.346349032883
 33
0.0
 14
8716.056627721384
 24
9740.346349032883
 34
0.0
100
AcDbRotatedDimension
1001
ACAD
1000
DSTYLE
1002
{
1002
}
  0
LINE
  5
14588
330
747D
100
AcDbEntity
  8
部品1
100
AcDbLine
 10
4606.056627721382
 20
9740.346349032757
 30
0.0
 11
5015.988223239011
 21
9740.346349032769
 31
0.0
  0
DIMENSION
  5
14589
330
747D
100
AcDbEntity
  8
寸法
100
AcDbDimension
  2
*D9
 10
8661.056627721384
 20
10175.82469897928
 30
0.0
 11
8031.056627721381
 21
10175.82469897928
 31
0.0
 70
   160
  1
3X420=<>
 71
     5
 42
1260.000000000002
  3
INABA_S40G
100
AcDbAlignedDimension
 13
7401.056627721382
 23
9740.346349032757
 33
0.0
 14
8661.056627721384
 24
9740.346349032883
 34
0.0
100
AcDbRotatedDimension
1001
ACAD
1000
DSTYLE
1002
{
1002
}
  0
LINE
  5
14C0C
330
747D
100
AcDbEntity
  8
部品1
100
AcDbLine
 10
8233.05662772158
 20
7240.846349032844
 30
0.0
 11
7402.556627721276
 21
7240.84634903278
 31
0.0
  0
LINE
  5
14C0E
330
747D
100
AcDbEntity
  8
破線
 48
10.0
100
AcDbLine
 10
8233.056627721577
 20
7264.346349032847
 30
0.0
 11
7426.056627721369
 21
7264.346349032779
 31
0.0
  0
LINE
  5
14C31
330
747D
100
AcDbEntity
  8
部品1
100
AcDbLine
 10
7402.556627721351
 20
9683.846349032904
 30
0.0
 11
7402.556627721373
 21
7240.846349032875
 31
0.0
  0
LINE
  5
14C32
330
747D
100
AcDbEntity
  8
破線
 48
10.0
100
AcDbLine
 10
7426.05662772135
 20
9660.346349032906
 30
0.0
 11
7426.05662772136
 21
8890.346349032267
 31
0.0
  0
LINE
  5
14C33
330
747D
100
AcDbEntity
  8
部品1
 48
50.0
100
AcDbLine
 10
7402.556627721373
 20
7240.846349032875
 30
0.0
 11
7374.056627721374
 21
7212.346349032877
 31
0.0
  0
LINE
  5
15381
330
747D
100
AcDbEntity
  8
破線
 48
10.0
100
AcDbLine
 10
8233.056627721387
 20
9660.34634903297
 30
0.0
 11
7426.05662772135
 21
9660.346349032906
 31
0.0
  0
LINE
  5
15382
330
747D
100
AcDbEntity
  8
部品1
100
AcDbLine
 10
7402.556627721351
 20
9683.846349032904
 30
0.0
 11
8233.056627721383
 21
9683.846349032904
 31
0.0
  0
LINE
  5
153C1
330
747D
100
AcDbEntity
  8
部品1
 48
50.0
100
AcDbLine
 10
7821.056627721384
 20
9683.846349032904
 30
0.0
 11
7821.056627721474
 21
7240.846349032811
 31
0.0
  0
DIMENSION
  5
1540B
330
747D
100
AcDbEntity
  8
寸法
 48
50.0
100
AcDbDimension
  2
*D10
 10
8158.005309390539
 20
9987.941682218629
 30
0.0
 11
8361.492420113393
 21
9987.941682218629
 31
0.0
 70
   160
 71
     5
 42
449.9999999999982
  3
INABA_S40G
100
AcDbAlignedDimension
 13
8683.056627721379
 23
9707.846349032905
 33
0.0
 14
8233.05662772138
 24
9707.846349032903
 34
0.0
100
AcDbRotatedDimension
  0
LINE
  5
154D6
330
747D
100
AcDbEntity
  8
仕様書枠
 48
50.0
100
AcDbLine
 10
16307.2
 20
1200.0
 30
0.0
 11
16307.2
 21
-0.0000000000000909
 31
0.0
  0
LINE
  5
15605
330
747D
100
AcDbEntity
  8
部品1
100
AcDbLine
 10
7397.056627721376
 20
7110.346349032711
 30
0.0
 11
7397.056627721373
 21
7117.346349032747
 31
0.0
  0
LINE
  5
15606
330
747D
100
AcDbEntity
  8
部品1
100
AcDbLine
 10
7406.056627721373
 20
7117.346349032747
 30
0.0
 11
7397.056627721373
 21
7117.346349032747
 31
0.0
  0
LINE
  5
15607
330
747D
100
AcDbEntity
  8
部品1
100
AcDbLine
 10
7406.056627721373
 20
7117.346349032747
 30
0.0
 11
7406.056627721373
 21
7165.346349032711
 31
0.0
  0
LINE
  5
15608
330
747D
100
AcDbEntity
  8
部品1
100
AcDbLine
 10
7286.056627721373
 20
7117.346349032747
 30
0.0
 11
7286.056627721372
 21
7165.346349032711
 31
0.0
  0
LINE
  5
15609
330
747D
100
AcDbEntity
  8
部品1
100
AcDbLine
 10
7295.056627721374
 20
7117.34634903274
 30
0.0
 11
7286.056627721373
 21
7117.346349032742
 31
0.0
  0
LINE
  5
1560A
330
747D
100
AcDbEntity
  8
部品1
100
AcDbLine
 10
7295.056627721375
 20
7110.346349032704
 30
0.0
 11
7295.056627721374
 21
7117.34634903274
 31
0.0
  0
LINE
  5
1560B
330
747D
100
AcDbEntity
  8
部品1
 48
50.0
100
AcDbLine
 10
7286.056627721372
 20
7165.346349032711
 30
0.0
 11
7309.056627721372
 21
7165.346349032711
 31
0.0
  0
LINE
  5
1560C
330
747D
100
AcDbEntity
  8
部品1
 48
50.0
100
AcDbLine
 10
7406.056627721373
 20
7165.346349032711
 30
0.0
 11
7383.056627721372
 21
7165.346349032711
 31
0.0
  0
LINE
  5
15611
330
747D
100
AcDbEntity
  8
部品1
 48
50.0
100
AcDbLine
 10
7374.056627721341
 20
7165.346349032709
 30
0.0
 11
7318.05662772134
 21
7165.346349032709
 31
0.0
  0
LINE
  5
15612
330
747D
100
AcDbEntity
  8
部品1
100
AcDbLine
 10
7401.056627721382
 20
9740.34634903279
 30
0.0
 11
7401.056627721382
 21
9712.34634903279
 31
0.0
  0
LINE
  5
15613
330
747D
100
AcDbEntity
  8
部品1
100
AcDbLine
 10
7374.056627721349
 20
9685.34634903276
 30
0.0
 11
7318.05662772135
 21
9685.34634903276
 31
0.0
  0
LINE
  5
15614
330
747D
100
AcDbEntity
  8
部品1
100
AcDbLine
 10
7291.056627721381
 20
9740.34634903279
 30
0.0
 11
7291.056627721381
 21
9712.34634903279
 31
0.0
  0
LINE
  5
15624
330
747D
100
AcDbEntity
  8
部品1
 48
50.0
100
AcDbLine
 10
7374.056627721349
 20
9685.34634903276
 30
0.0
 11
7374.056627721349
 21
9740.346349032844
 31
0.0
  0
LINE
  5
15625
330
747D
100
AcDbEntity
  8
部品1
 48
50.0
100
AcDbLine
 10
7318.05662772135
 20
9685.34634903276
 30
0.0
 11
7318.05662772135
 21
9712.346349032785
 31
0.0
  0
LINE
  5
15628
330
747D
100
AcDbEntity
  8
部品1
100
AcDbLine
 10
7401.056627721382
 20
9712.34634903279
 30
0.0
 11
7821.056627721382
 21
9712.346349032792
 31
0.0
  0
LINE
  5
15629
330
747D
100
AcDbEntity
  8
部品1
100
AcDbLine
 10
7374.056627721349
 20
9712.346349032893
 30
0.0
 11
8688.056627721385
 21
9712.346349032902
 31
0.0
  0
LINE
  5
1562A
330
747D
100
AcDbEntity
  8
部品1
 48
50.0
100
AcDbLine
 10
7318.05662772135
 20
9712.346349032785
 30
0.0
 11
7346.056627721347
 21
9712.346349032786
 31
0.0
  0
LINE
  5
1562B
330
747D
100
AcDbEntity
  8
部品1
 48
50.0
100
AcDbLine
 10
7346.056627721347
 20
9712.346349032785
 30
0.0
 11
7318.05662772135
 21
9740.34634903284
 31
0.0
  0
LINE
  5
1562C
330
747D
100
AcDbEntity
  8
部品1
100
AcDbLine
 10
7318.056627721315
 20
9712.346349032785
 30
0.0
 11
7318.056627721329
 21
8437.846349032881
 31
0.0
  0
LINE
  5
1562D
330
747D
100
AcDbEntity
  8
部品1
100
AcDbLine
 10
7346.056627721323
 20
7165.346349032772
 30
0.0
 11
7346.056627721347
 21
9685.346349032759
 31
0.0
  0
LINE
  5
1562E
330
747D
100
AcDbEntity
  8
部品1
100
AcDbLine
 10
7346.056627721328
 20
8005.346349032789
 30
0.0
 11
7318.056627721327
 21
8005.346349032789
 31
0.0
  0
LINE
  5
1562F
330
747D
100
AcDbEntity
  8
部品1
100
AcDbLine
 10
7346.056627721321
 20
8425.346349032789
 30
0.0
 11
7318.056627721322
 21
8425.346349032789
 31
0.0
  0
LINE
  5
15630
330
747D
100
AcDbEntity
  8
部品1
100
AcDbLine
 10
7374.056627721315
 20
9685.34634903276
 30
0.0
 11
7374.056627721341
 21
7110.346349032775
 31
0.0
  0
LINE
  5
15631
330
747D
100
AcDbEntity
  8
部品1
 48
50.0
100
AcDbLine
 10
7318.05662772135
 20
9712.346349032891
 30
0.0
 11
7318.056627721349
 21
9740.34634903284
 31
0.0
  0
DIMENSION
  5
15633
330
747D
100
AcDbEntity
  8
寸法
100
AcDbDimension
  2
*D11
 10
7346.056627721357
 20
6346.210379679185
 30
0.0
 11
6661.056627721366
 21
6346.210379679185
 31
0.0
 70
   160
 71
     5
 42
1369.999999999982
  3
INABA_S40G
100
AcDbAlignedDimension
 13
5976.056627721376
 23
7110.34634903271
 33
0.0
 14
7346.056627721357
 24
7110.346349032839
 34
0.0
100
AcDbRotatedDimension
1001
ACAD
1000
DSTYLE
1002
{
1002
}
  0
LINE
  5
15682
330
747D
100
AcDbEntity
  8
破線
 48
10.0
100
AcDbLine
 10
6863.056627721576
 20
7264.346349032847
 30
0.0
 11
6056.056627721369
 21
7264.346349032779
 31
0.0
  0
LINE
  5
15683
330
747D
100
AcDbEntity
  8
部品1
100
AcDbLine
 10
6863.056627721582
 20
7240.846349032844
 30
0.0
 11
6032.556627721277
 21
7240.84634903278
 31
0.0
  0
LINE
  5
15684
330
747D
100
AcDbEntity
  8
部品1
100
AcDbLine
 10
6863.056627721585
 20
7212.346349032843
 30
0.0
 11
6004.056627721356
 21
7212.346349032777
 31
0.0
  0
LINE
  5
15685
330
747D
100
AcDbEntity
  8
部品1
 48
50.0
100
AcDbLine
 10
6451.056627721384
 20
9683.846349032904
 30
0.0
 11
6451.056627721474
 21
7240.846349032811
 31
0.0
  0
LINE
  5
15686
330
747D
100
AcDbEntity
  8
破線
 48
10.0
100
AcDbLine
 10
6056.05662772135
 20
9660.346349032906
 30
0.0
 11
6056.05662772136
 21
8890.346349032043
 31
0.0
  0
LINE
  5
15687
330
747D
100
AcDbEntity
  8
部品1
100
AcDbLine
 10
6032.556627721351
 20
9683.846349032904
 30
0.0
 11
6032.556627721373
 21
7240.846349032875
 31
0.0
  0
LINE
  5
15688
330
747D
100
AcDbEntity
  8
部品1
 48
50.0
100
AcDbLine
 10
6032.556627721373
 20
7240.846349032875
 30
0.0
 11
6004.056627721374
 21
7212.346349032877
 31
0.0
  0
LINE
  5
15689
330
747D
100
AcDbEntity
  8
部品1
100
AcDbLine
 10
6032.556627721351
 20
9683.846349032904
 30
0.0
 11
6863.056627721384
 21
9683.846349032904
 31
0.0
  0
LINE
  5
1568A
330
747D
100
AcDbEntity
  8
破線
 48
10.0
100
AcDbLine
 10
6863.056627721388
 20
9660.34634903297
 30
0.0
 11
6056.05662772135
 21
9660.346349032906
 31
0.0
  0
DIMENSION
  5
1568E
330
747D
100
AcDbEntity
  8
寸法
100
AcDbDimension
  2
*D12
 10
7291.056627721383
 20
10175.82469897928
 30
0.0
 11
6661.05662772138
 21
10175.82469897928
 31
0.0
 70
   160
  1
3X420=<>
 71
     5
 42
1260.000000000001
  3
INABA_S40G
100
AcDbAlignedDimension
 13
6031.056627721382
 23
9740.346349032757
 33
0.0
 14
7291.056627721383
 24
9740.346349032883
 34
0.0
100
AcDbRotatedDimension
1001
ACAD
1000
DSTYLE
1002
{
1002
}
  0
LINE
  5
156BC
330
747D
100
AcDbEntity
  8
細線
100
AcDbLine
 10
5493.056627721359
 20
7211.346349032874
 30
0.0
 11
5492.381955807275
 21
7211.346349032872
 31
0.0
  0
LINE
  5
156BD
330
747D
100
AcDbEntity
  8
細線
100
AcDbLine
 10
5493.05662772136
 20
7211.346349032872
 30
0.0
 11
5493.05662772136
 21
7207.520094472311
 31
0.0
  0
LINE
  5
156C2
330
747D
100
AcDbEntity
  8
部品1
100
AcDbLine
 10
5943.056627721476
 20
7187.846349032901
 30
0.0
 11
5496.525639853919
 21
7187.846349032901
 31
0.0
  0
LINE
  5
156C5
330
747D
100
AcDbEntity
  8
破線
 48
10.0
100
AcDbLine
 10
5493.056627721577
 20
7264.346349032847
 30
0.0
 11
5483.036625829732
 21
7264.346349032848
 31
0.0
  0
LINE
  5
156C6
330
747D
100
AcDbEntity
  8
部品1
100
AcDbLine
 10
5493.056627721581
 20
7240.846349032844
 30
0.0
 11
5487.180309876379
 21
7240.846349032846
 31
0.0
  0
LINE
  5
156C7
330
747D
100
AcDbEntity
  8
部品1
100
AcDbLine
 10
5493.056627721585
 20
7212.346349032843
 30
0.0
 11
5492.205628826571
 21
7212.346349032843
 31
0.0
  0
LINE
  5
156C8
330
747D
100
AcDbEntity
  8
部品1
 48
50.0
100
AcDbLine
 10
5081.056627721384
 20
9683.846349032904
 30
0.0
 11
5081.056627721389
 21
9544.088204154604
 31
0.0
  0
LINE
  5
156C9
330
747D
100
AcDbEntity
  8
破線
 48
10.0
100
AcDbLine
 10
4686.05662772135
 20
9660.346349032906
 30
0.0
 11
4686.056627721344
 21
8890.346349031789
 31
0.0
  0
LINE
  5
156CA
330
747D
100
AcDbEntity
  8
部品1
100
AcDbLine
 10
4662.556627721351
 20
9683.846349032904
 30
0.0
 11
4662.556627721372
 21
7240.846349032875
 31
0.0
  0
LINE
  5
156CB
330
747D
100
AcDbEntity
  8
部品1
 48
50.0
100
AcDbLine
 10
4662.556627721372
 20
7240.846349032875
 30
0.0
 11
4634.056627721373
 21
7212.346349032877
 31
0.0
  0
LINE
  5
156CC
330
747D
100
AcDbEntity
  8
部品1
100
AcDbLine
 10
4662.556627721351
 20
9683.846349032904
 30
0.0
 11
5025.950697649015
 21
9683.846349032904
 31
0.0
  0
LINE
  5
156CD
330
747D
100
AcDbEntity
  8
破線
 48
10.0
100
AcDbLine
 10
5493.056627721388
 20
9660.34634903297
 30
0.0
 11
5060.557180052224
 21
9660.346349032945
 31
0.0
  0
LINE
  5
156DE
330
747D
100
AcDbEntity
  8
部品1
100
AcDbLine
 10
5976.056627721323
 20
7165.346349032772
 30
0.0
 11
5976.056627721348
 21
9685.346349032759
 31
0.0
  0
LINE
  5
156DF
330
747D
100
AcDbEntity
  8
部品1
100
AcDbLine
 10
6004.056627721315
 20
9685.34634903276
 30
0.0
 11
6004.056627721341
 21
7110.346349032775
 31
0.0
  0
LINE
  5
156E0
330
747D
100
AcDbEntity
  8
部品1
100
AcDbLine
 10
5948.056627721314
 20
9712.346349032785
 30
0.0
 11
5948.056627721328
 21
8437.846349032881
 31
0.0
  0
LINE
  5
156E1
330
747D
100
AcDbEntity
  8
部品1
 48
50.0
100
AcDbLine
 10
6004.05662772134
 20
7165.346349032709
 30
0.0
 11
5948.05662772134
 21
7165.346349032709
 31
0.0
  0
LINE
  5
156E2
330
747D
100
AcDbEntity
  8
部品1
 48
50.0
100
AcDbLine
 10
6036.056627721372
 20
7165.346349032711
 30
0.0
 11
6013.056627721372
 21
7165.346349032711
 31
0.0
  0
LINE
  5
156E3
330
747D
100
AcDbEntity
  8
部品1
 48
50.0
100
AcDbLine
 10
5916.056627721371
 20
7165.346349032711
 30
0.0
 11
5939.056627721372
 21
7165.346349032711
 31
0.0
  0
LINE
  5
156E4
330
747D
100
AcDbEntity
  8
部品1
100
AcDbLine
 10
5916.056627721374
 20
7117.346349032747
 30
0.0
 11
5916.056627721371
 21
7165.346349032711
 31
0.0
  0
LINE
  5
156E5
330
747D
100
AcDbEntity
  8
部品1
100
AcDbLine
 10
6036.056627721374
 20
7117.346349032747
 30
0.0
 11
6036.056627721372
 21
7165.346349032711
 31
0.0
  0
LINE
  5
156E6
330
747D
100
AcDbEntity
  8
部品1
100
AcDbLine
 10
5925.056627721374
 20
7117.34634903274
 30
0.0
 11
5916.056627721374
 21
7117.346349032742
 31
0.0
  0
LINE
  5
156E7
330
747D
100
AcDbEntity
  8
部品1
100
AcDbLine
 10
5925.056627721375
 20
7110.346349032704
 30
0.0
 11
5925.056627721374
 21
7117.34634903274
 31
0.0
  0
LINE
  5
156E8
330
747D
100
AcDbEntity
  8
部品1
100
AcDbLine
 10
6036.056627721374
 20
7117.346349032747
 30
0.0
 11
6027.056627721374
 21
7117.346349032747
 31
0.0
  0
LINE
  5
156E9
330
747D
100
AcDbEntity
  8
部品1
100
AcDbLine
 10
6027.056627721376
 20
7110.346349032711
 30
0.0
 11
6027.056627721374
 21
7117.346349032747
 31
0.0
  0
LINE
  5
156EA
330
747D
100
AcDbEntity
  8
部品1
100
AcDbLine
 10
5976.056627721328
 20
8005.346349032789
 30
0.0
 11
5948.056627721328
 21
8005.346349032789
 31
0.0
  0
LINE
  5
156EB
330
747D
100
AcDbEntity
  8
部品1
100
AcDbLine
 10
5976.056627721322
 20
8425.346349032789
 30
0.0
 11
5948.056627721322
 21
8425.346349032789
 31
0.0
  0
LINE
  5
156EC
330
747D
100
AcDbEntity
  8
部品1
 48
50.0
100
AcDbLine
 10
5976.056627721348
 20
9712.346349032785
 30
0.0
 11
5948.056627721349
 21
9740.34634903284
 31
0.0
  0
LINE
  5
156ED
330
747D
100
AcDbEntity
  8
部品1
 48
50.0
100
AcDbLine
 10
5948.056627721349
 20
9712.346349032785
 30
0.0
 11
5976.056627721348
 21
9712.346349032786
 31
0.0
  0
LINE
  5
156EE
330
747D
100
AcDbEntity
  8
部品1
100
AcDbLine
 10
6004.056627721349
 20
9685.34634903276
 30
0.0
 11
5948.056627721349
 21
9685.34634903276
 31
0.0
  0
LINE
  5
156EF
330
747D
100
AcDbEntity
  8
部品1
 48
50.0
100
AcDbLine
 10
5948.056627721349
 20
9712.346349032891
 30
0.0
 11
5948.056627721348
 21
9740.34634903284
 31
0.0
  0
LINE
  5
156F0
330
747D
100
AcDbEntity
  8
部品1
 48
50.0
100
AcDbLine
 10
6004.056627721349
 20
9685.34634903276
 30
0.0
 11
6004.056627721349
 21
9740.346349032844
 31
0.0
  0
LINE
  5
156F1
330
747D
100
AcDbEntity
  8
部品1
100
AcDbLine
 10
5921.056627721382
 20
9740.34634903279
 30
0.0
 11
5921.056627721382
 21
9712.34634903279
 31
0.0
  0
LINE
  5
156F2
330
747D
100
AcDbEntity
  8
部品1
100
AcDbLine
 10
6031.056627721382
 20
9740.34634903279
 30
0.0
 11
6031.056627721382
 21
9712.34634903279
 31
0.0
  0
LINE
  5
156F3
330
747D
100
AcDbEntity
  8
部品1
100
AcDbLine
 10
6004.056627721349
 20
9712.346349032882
 30
0.0
 11
7318.05662772135
 21
9712.346349032891
 31
0.0
  0
LINE
  5
156F4
330
747D
100
AcDbEntity
  8
部品1
100
AcDbLine
 10
6004.056627721349
 20
9712.34634903277
 30
0.0
 11
7291.056627721381
 21
9712.346349032785
 31
0.0
  0
DIMENSION
  5
15727
330
747D
100
AcDbEntity
  8
寸法
 48
50.0
100
AcDbDimension
  2
*D13
 10
7291.056627721381
 20
10175.82469897928
 30
0.0
 11
7346.056627721383
 21
10175.82469897928
 31
0.0
 70
   160
 71
     5
 42
110.0
  3
INABA_S40G
100
AcDbAlignedDimension
 13
7401.056627721382
 23
9740.346349032757
 33
0.0
 14
7291.056627721381
 24
9740.346349032757
 34
0.0
100
AcDbRotatedDimension
  0
DIMENSION
  5
15735
330
747D
100
AcDbEntity
  8
寸法
 48
50.0
100
AcDbDimension
  2
*D14
 10
5921.056627721383
 20
10175.82469897928
 30
0.0
 11
5976.056627721382
 21
10175.82469897928
 31
0.0
 70
   160
 71
     5
 42
109.9999999999991
  3
INABA_S40G
100
AcDbAlignedDimension
 13
6031.056627721382
 23
9740.346349032799
 33
0.0
 14
5921.056627721383
 24
9740.346349032883
 34
0.0
100
AcDbRotatedDimension
  0
LINE
  5
157F1
330
747D
100
AcDbEntity
  8
寸法
 48
50.0
100
AcDbLine
 10
5037.768612712231
 20
9789.586736683377
 30
0.0
 11
5241.559639379944
 21
8633.83039214157
 31
0.0
  0
LINE
  5
157F2
330
747D
100
AcDbEntity
  8
寸法
 48
50.0
100
AcDbLine
 10
5007.305814355666
 20
9789.586736683375
 30
0.0
 11
5216.012754783694
 21
8605.950859805847
 31
0.0
  0
LINE
  5
157F3
330
747D
100
AcDbEntity
  8
寸法
 48
50.0
100
AcDbLine
 10
5285.371060218889
 20
8385.363477646043
 30
0.0
 11
5518.873389742211
 21
7061.105961382043
 31
0.0
  0
LINE
  5
157F4
330
747D
100
AcDbEntity
  8
寸法
 48
50.0
100
AcDbLine
 10
5259.824175622638
 20
8357.48394531032
 30
0.0
 11
5488.41059138564
 21
7061.105961382043
 31
0.0
  0
LINE
  5
157F5
330
747D
100
AcDbEntity
  8
寸法
 48
50.0
100
AcDbLine
 10
5414.486764961996
 20
8588.586633910718
 30
0.0
 11
4972.746900932882
 21
8382.599952401596
 31
0.0
  0
LINE
  5
157F6
330
747D
100
AcDbEntity
  8
寸法
 48
50.0
100
AcDbLine
 10
5528.6369140697
 20
8608.7143850503
 30
0.0
 11
5086.897050040588
 21
8402.727703541177
 31
0.0
  0
LINE
  5
157F7
330
747D
100
AcDbEntity
  8
寸法
 48
50.0
100
AcDbLine
 10
5285.371060218889
 20
8385.363477646043
 30
0.0
 11
5086.897050040589
 21
8402.727703541177
 31
0.0
  0
LINE
  5
157F8
330
747D
100
AcDbEntity
  8
寸法
 48
50.0
100
AcDbLine
 10
5259.824175622638
 20
8357.48394531032
 30
0.0
 11
4972.746900932882
 21
8382.599952401596
 31
0.0
  0
LINE
  5
157F9
330
747D
100
AcDbEntity
  8
寸法
 48
50.0
100
AcDbLine
 10
5241.559639379943
 20
8633.83039214157
 30
0.0
 11
5528.6369140697
 21
8608.7143850503
 31
0.0
  0
LINE
  5
157FA
330
747D
100
AcDbEntity
  8
寸法
 48
50.0
100
AcDbLine
 10
5216.012754783694
 20
8605.950859805847
 30
0.0
 11
5414.486764961996
 21
8588.586633910718
 31
0.0
  0
LINE
  5
157FC
330
747D
100
AcDbEntity
  8
部品1
100
AcDbLine
 10
5479.728182502295
 20
7110.346349032652
 30
0.0
 11
4606.056627721375
 21
7110.346349032591
 31
0.0
  0
LINE
  5
15800
330
747D
100
AcDbEntity
  8
部品1
100
AcDbLine
 10
5461.742830469999
 20
7212.34634903284
 30
0.0
 11
4634.056627721356
 21
7212.346349032777
 31
0.0
  0
LINE
  5
15801
330
747D
100
AcDbEntity
  8
部品1
100
AcDbLine
 10
5456.717511519807
 20
7240.846349032842
 30
0.0
 11
4662.556627721277
 21
7240.84634903278
 31
0.0
  0
LINE
  5
15802
330
747D
100
AcDbEntity
  8
破線
 48
10.0
100
AcDbLine
 10
5452.573827473159
 20
7264.346349032843
 30
0.0
 11
4686.056627721369
 21
7264.346349032779
 31
0.0
  0
LINE
  5
15806
330
747D
100
AcDbEntity
  8
部品1
100
AcDbLine
 10
5056.413496005582
 20
9683.846349032904
 30
0.0
 11
5493.056627721385
 21
9683.846349032904
 31
0.0
  0
LINE
  5
15807
330
747D
100
AcDbEntity
  8
部品1
100
AcDbLine
 10
5051.388177055395
 20
9712.346349032877
 30
0.0
 11
5976.056627721252
 21
9712.346349032882
 31
0.0
  0
LINE
  5
15808
330
747D
100
AcDbEntity
  8
部品1
100
AcDbLine
 10
5046.451021595577
 20
9740.346349032773
 30
0.0
 11
8716.056627721384
 21
9740.346349032883
 31
0.0
  0
LINE
  5
15809
330
747D
100
AcDbEntity
  8
部品1
100
AcDbLine
 10
5199.502840850531
 20
9712.346349032761
 30
0.0
 11
5976.056627721364
 21
9712.34634903277
 31
0.0
  0
LINE
  5
1580A
330
747D
100
AcDbEntity
  8
寸法
  6
ByBlock
 48
50.0
100
AcDbLine
 10
4606.056627721375
 20
7090.34634903271
 30
0.0
 11
4606.056627721375
 21
6286.210379679186
 31
0.0
  0
LINE
  5
1580B
330
747D
100
AcDbEntity
  8
寸法
  6
ByBlock
 48
50.0
100
AcDbLine
 10
5976.056627721358
 20
7090.346349032839
 30
0.0
 11
5976.056627721358
 21
6286.210379679186
 31
0.0
  0
LINE
  5
1580C
330
747D
100
AcDbEntity
  8
寸法
  6
ByBlock
 48
50.0
100
AcDbLine
 10
4606.056627721375
 20
6346.210379679185
 30
0.0
 11
4952.279957118896
 21
6346.210379679185
 31
0.0
  0
INSERT
  5
1580D
330
747D
100
AcDbEntity
  8
寸法
  6
ByBlock
 48
50.0
100
AcDbBlockReference
  2
_DOTSMALL
 10
4606.056627721375
 20
6346.210379679185
 30
0.0
 41
100.0
 42
100.0
 43
100.0
 50
180.0
  0
INSERT
  5
1580E
330
747D
100
AcDbEntity
  8
寸法
  6
ByBlock
 48
50.0
100
AcDbBlockReference
  2
_DOTSMALL
 10
5976.056627721358
 20
6346.210379679185
 30
0.0
 41
100.0
 42
100.0
 43
100.0
  0
MTEXT
  5
1580F
330
747D
100
AcDbEntity
  8
部品1
  6
ByBlock
 48
50.0
100
AcDbMText
 10
4808.136458954709
 20
6446.210379679185
 30
0.0
 40
120.0
 41
0.0
 71
     5
 72
     1
  1
\A1;1370
  7
STYLE1
 73
     1
 44
1.0
1001
ACAD
1000
MTEXTBEGIN
1070
    73
1070
     1
1070
    44
1040
1.0
1070
    74
1070
     0
1000
MTEXTEND
  0
POINT
  5
15812
330
747D
100
AcDbEntity
  8
寸法
  6
ByBlock
 48
50.0
100
AcDbPoint
 10
5976.056627721358
 20
6346.210379679185
 30
0.0
  0
LINE
  5
15815
330
747D
100
AcDbEntity
  8
寸法
  6
ByBlock
 48
50.0
100
AcDbLine
 10
4661.056627721381
 20
9760.346349032756
 30
0.0
 11
4661.056627721381
 21
10235.82469897928
 31
0.0
  0
LINE
  5
15816
330
747D
100
AcDbEntity
  8
寸法
  6
ByBlock
 48
50.0
100
AcDbLine
 10
5921.056627721383
 20
9760.346349032884
 30
0.0
 11
5921.056627721383
 21
10235.82469897928
 31
0.0
  0
LINE
  5
15817
330
747D
100
AcDbEntity
  8
寸法
  6
ByBlock
 48
50.0
100
AcDbLine
 10
4661.056627721381
 20
10175.82469897928
 30
0.0
 11
5002.510117830411
 21
10175.82469897928
 31
0.0
  0
INSERT
  5
15818
330
747D
100
AcDbEntity
  8
寸法
  6
ByBlock
 48
50.0
100
AcDbBlockReference
  2
_DOTSMALL
 10
4661.056627721381
 20
10175.82469897928
 30
0.0
 41
100.0
 42
100.0
 43
100.0
 50
180.0
  0
INSERT
  5
15819
330
747D
100
AcDbEntity
  8
寸法
  6
ByBlock
 48
50.0
100
AcDbBlockReference
  2
_DOTSMALL
 10
5921.056627721383
 20
10175.82469897928
 30
0.0
 41
100.0
 42
100.0
 43
100.0
  0
MTEXT
  5
1581A
330
747D
100
AcDbEntity
  8
部品1
  6
ByBlock
 48
50.0
100
AcDbMText
 10
4848.976894227388
 20
10275.8365100029
 30
0.0
 40
120.0
 41
0.0
 71
     5
 72
     1
  1
\A1;1260
  7
STYLE1
 73
     1
 44
1.0
1001
ACAD
1000
MTEXTBEGIN
1070
    73
1070
     1
1070
    44
1040
1.0
1070
    74
1070
     0
1000
MTEXTEND
  0
POINT
  5
1581D
330
747D
100
AcDbEntity
  8
寸法
  6
ByBlock
 48
50.0
100
AcDbPoint
 10
5921.056627721383
 20
10175.82469897928
 30
0.0
  0
LINE
  5
1581E
330
747D
100
AcDbEntity
  8
寸法
  6
ByBlock
 48
50.0
100
AcDbLine
 10
5619.968765736302
 20
6346.210379679185
 30
0.0
 11
5976.056627721358
 21
6346.210379679185
 31
0.0
  0
LINE
  5
1581F
330
747D
100
AcDbEntity
  8
寸法
  6
ByBlock
 48
50.0
100
AcDbLine
 10
5469.999577580201
 20
10175.82469897928
 30
0.0
 11
5921.056627721383
 21
10175.82469897928
 31
0.0
  0
MTEXT
  5
1583A
330
747D
100
AcDbEntity
  8
部品1
  6
ByBlock
 48
50.0
100
AcDbMText
 10
5757.31843161575
 20
6446.210379679185
 30
0.0
 40
120.0
 41
0.0
 71
     5
 72
     1
  1
\A1;1370
  7
STYLE1
 73
     1
 44
1.0
1001
ACAD
1000
MTEXTBEGIN
1070
    73
1070
     1
1070
    44
1040
1.0
1070
    74
1070
     0
1000
MTEXTEND
  0
MTEXT
  5
1583B
330
747D
100
AcDbEntity
  8
部品1
  6
ByBlock
 48
50.0
100
AcDbMText
 10
5626.701107729773
 20
10275.8365100029
 30
0.0
 40
120.0
 41
0.0
 71
     5
 72
     1
  1
\A1;1260
  7
STYLE1
 73
     1
 44
1.0
1001
ACAD
1000
MTEXTBEGIN
1070
    73
1070
     1
1070
    44
1040
1.0
1070
    74
1070
     0
1000
MTEXTEND
  0
LINE
  5
15874
330
747D
100
AcDbEntity
  8
部品1
 48
50.0
100
AcDbLine
 10
6451.056627721382
 20
9712.346349032884
 30
0.0
 11
6451.056627721382
 21
9740.346349032813
 31
0.0
  0
LINE
  5
15875
330
747D
100
AcDbEntity
  8
部品1
 48
50.0
100
AcDbLine
 10
6871.056627721383
 20
9712.346349032884
 30
0.0
 11
6871.056627721383
 21
9740.346349032813
 31
0.0
  0
LINE
  5
15876
330
747D
100
AcDbEntity
  8
部品1
 48
50.0
100
AcDbLine
 10
5081.056627721383
 20
9712.346349032884
 30
0.0
 11
5081.056627721383
 21
9740.346349032813
 31
0.0
  0
LINE
  5
15877
330
747D
100
AcDbEntity
  8
部品1
 48
50.0
100
AcDbLine
 10
5501.056627721383
 20
9712.346349032884
 30
0.0
 11
5501.056627721383
 21
9740.346349032813
 31
0.0
  0
LINE
  5
16023
330
747D
100
AcDbEntity
  8
破線
 48
10.0
100
AcDbLine
 10
4686.056627721344
 20
8840.346349031788
 30
0.0
 11
4686.056627721356
 21
8085.346349031787
 31
0.0
  0
LINE
  5
16024
330
747D
100
AcDbEntity
  8
破線
 48
10.0
100
AcDbLine
 10
6056.05662772136
 20
8840.346349032044
 30
0.0
 11
6056.056627721364
 21
8085.346349032045
 31
0.0
  0
LINE
  5
16027
330
747D
100
AcDbEntity
  8
部品1
 48
50.0
100
AcDbLine
 10
5081.056627721438
 20
8373.124079158003
 30
0.0
 11
5081.056627721473
 21
7240.846349032811
 31
0.0
  0
LINE
  5
1602A
330
747D
100
AcDbEntity
  8
部品1
100
AcDbLine
 10
8700.056627721357
 20
8451.346349032879
 30
0.0
 11
8688.056627721358
 21
8451.346349032879
 31
0.0
  0
LINE
  5
1602C
330
747D
100
AcDbEntity
  8
部品1
100
AcDbLine
 10
8700.056627721357
 20
8399.34634903288
 30
0.0
 11
8688.056627721358
 21
8399.34634903288
 31
0.0
  0
LINE
  5
1602D
330
747D
100
AcDbEntity
  8
部品1
100
AcDbLine
 10
8658.056627721355
 20
8437.846349032879
 30
0.0
 11
8658.056627721359
 21
8412.84634903288
 31
0.0
  0
LINE
  5
1602E
330
747D
100
AcDbEntity
  8
部品1
 48
50.0
100
AcDbLine
 10
8688.056627721362
 20
8412.84634903288
 30
0.0
 11
8236.056627721362
 21
8412.84634903288
 31
0.0
  0
LINE
  5
1602F
330
747D
100
AcDbEntity
  8
部品1
 48
50.0
100
AcDbLine
 10
8688.056627721365
 20
8437.846349032881
 30
0.0
 11
8236.056627721362
 21
8437.846349032879
 31
0.0
  0
LINE
  5
16030
330
747D
100
AcDbEntity
  8
細線
 48
50.0
100
AcDbLine
 10
8683.056627721589
 20
8438.596349032927
 30
0.0
 11
8233.05662772138
 21
9711.596349032914
 31
0.0
  0
LINE
  5
16031
330
747D
100
AcDbEntity
  8
部品1
100
AcDbLine
 10
8683.056627721475
 20
8438.596349032911
 30
0.0
 11
8233.056627721479
 21
8438.596349032911
 31
0.0
  0
LINE
  5
16032
330
747D
100
AcDbEntity
  8
部品1
 48
50.0
100
AcDbLine
 10
8683.056627721381
 20
8403.846349032905
 30
0.0
 11
8233.056627721383
 21
8403.846349032903
 31
0.0
  0
LINE
  5
16033
330
747D
100
AcDbEntity
  8
細線
 48
50.0
100
AcDbLine
 10
8233.056627721591
 20
7187.846349032916
 30
0.0
 11
8683.056627721382
 21
8403.846349032905
 31
0.0
  0
LINE
  5
16034
330
747D
100
AcDbEntity
  8
細線
 48
50.0
100
AcDbLine
 10
8233.056627721587
 20
8438.596349032927
 30
0.0
 11
8683.056627721382
 21
9711.596349032916
 31
0.0
  0
LINE
  5
16035
330
747D
100
AcDbEntity
  8
部品1
100
AcDbLine
 10
8233.05662772138
 20
9711.596349032912
 30
0.0
 11
8233.056627721587
 21
8438.596349032927
 31
0.0
  0
LINE
  5
16036
330
747D
100
AcDbEntity
  8
細線
 48
50.0
100
AcDbLine
 10
8683.056627721589
 20
7187.846349032916
 30
0.0
 11
8233.056627721383
 21
8403.846349032903
 31
0.0
  0
LINE
  5
16037
330
747D
100
AcDbEntity
  8
部品1
100
AcDbLine
 10
8233.056627721383
 20
8403.846349032901
 30
0.0
 11
8233.056627721591
 21
7187.846349032916
 31
0.0
  0
LINE
  5
16038
330
747D
100
AcDbEntity
  8
部品1
100
AcDbLine
 10
8236.056627721362
 20
8437.846349032879
 30
0.0
 11
8236.056627721362
 21
8412.84634903288
 31
0.0
  0
LINE
  5
16039
330
747D
100
AcDbEntity
  8
部品1
100
AcDbLine
 10
8688.056627721371
 20
8412.84634903288
 30
0.0
 11
8688.056627721358
 21
7165.34634903287
 31
0.0
  0
LINE
  5
1603A
330
747D
100
AcDbEntity
  8
部品1
100
AcDbLine
 10
8683.056627721496
 20
8403.846349032907
 30
0.0
 11
8683.05662772159
 21
7187.846349032916
 31
0.0
  0
DIMENSION
  5
1603B
330
747D
100
AcDbEntity
  8
寸法
 48
50.0
100
AcDbDimension
  2
*D15
 10
9098.239835122083
 20
8327.348343899005
 30
0.0
 11
9098.239835122079
 21
8963.848343898979
 31
0.0
 70
   160
 71
     5
 42
1273.000000000003
  3
INABA_S40G
100
AcDbAlignedDimension
 13
8683.056627721382
 23
9711.596349032936
 33
0.0
 14
8683.056627721596
 24
8438.59634903293
 34
0.0
 50
90.0
100
AcDbRotatedDimension
  0
DIMENSION
  5
1603C
330
747D
100
AcDbEntity
  8
寸法
 48
50.0
100
AcDbDimension
  2
*D16
 10
9098.239835122083
 20
7076.598343898995
 30
0.0
 11
9098.239835122079
 21
7684.598343898968
 31
0.0
 70
   160
 71
     5
 42
1216.000000000003
  3
INABA_S40G
100
AcDbAlignedDimension
 13
8683.056627721381
 23
8403.846349032923
 33
0.0
 14
8683.056627721596
 24
7187.84634903292
 34
0.0
 50
90.0
100
AcDbRotatedDimension
  0
LINE
  5
16077
330
747D
100
AcDbEntity
  8
細線
 48
50.0
100
AcDbLine
 10
7313.056627721588
 20
7187.846349032916
 30
0.0
 11
6863.056627721384
 21
8403.846349032903
 31
0.0
  0
LINE
  5
16078
330
747D
100
AcDbEntity
  8
細線
 48
50.0
100
AcDbLine
 10
6863.056627721587
 20
8438.596349032927
 30
0.0
 11
7313.056627721384
 21
9711.596349032916
 31
0.0
  0
LINE
  5
16079
330
747D
100
AcDbEntity
  8
細線
 48
50.0
100
AcDbLine
 10
6863.056627721592
 20
7187.846349032916
 30
0.0
 11
7313.056627721384
 21
8403.846349032905
 31
0.0
  0
LINE
  5
1607A
330
747D
100
AcDbEntity
  8
部品1
 48
50.0
100
AcDbLine
 10
7313.05662772138
 20
8403.846349032905
 30
0.0
 11
6863.056627721384
 21
8403.846349032903
 31
0.0
  0
LINE
  5
1607B
330
747D
100
AcDbEntity
  8
部品1
100
AcDbLine
 10
7313.056627721476
 20
8438.596349032911
 30
0.0
 11
6863.056627721478
 21
8438.596349032911
 31
0.0
  0
LINE
  5
1607C
330
747D
100
AcDbEntity
  8
細線
 48
50.0
100
AcDbLine
 10
7313.056627721588
 20
8438.596349032927
 30
0.0
 11
6863.05662772138
 21
9711.596349032914
 31
0.0
  0
LINE
  5
1607D
330
747D
100
AcDbEntity
  8
部品1
 48
50.0
100
AcDbLine
 10
7318.056627721365
 20
8437.846349032881
 30
0.0
 11
6866.056627721362
 21
8437.846349032879
 31
0.0
  0
LINE
  5
1607E
330
747D
100
AcDbEntity
  8
部品1
 48
50.0
100
AcDbLine
 10
7318.056627721363
 20
8412.84634903288
 30
0.0
 11
6866.056627721362
 21
8412.84634903288
 31
0.0
  0
LINE
  5
1607F
330
747D
100
AcDbEntity
  8
部品1
100
AcDbLine
 10
6863.05662772138
 20
9711.596349032912
 30
0.0
 11
6863.056627721587
 21
8438.596349032927
 31
0.0
  0
LINE
  5
16080
330
747D
100
AcDbEntity
  8
部品1
100
AcDbLine
 10
6863.056627721384
 20
8403.846349032901
 30
0.0
 11
6863.056627721592
 21
7187.846349032916
 31
0.0
  0
LINE
  5
16081
330
747D
100
AcDbEntity
  8
部品1
100
AcDbLine
 10
6866.056627721362
 20
8437.846349032879
 30
0.0
 11
6866.056627721362
 21
8412.84634903288
 31
0.0
  0
LINE
  5
16082
330
747D
100
AcDbEntity
  8
部品1
 48
50.0
100
AcDbLine
 10
7313.056627721377
 20
9711.596349032914
 30
0.0
 11
6863.056627721379
 21
9711.596349032912
 31
0.0
  0
LINE
  5
16083
330
747D
100
AcDbEntity
  8
部品1
100
AcDbLine
 10
7313.056627721384
 20
9711.596349032916
 30
0.0
 11
7313.05662772149
 21
8438.596349033112
 31
0.0
  0
LINE
  5
16084
330
747D
100
AcDbEntity
  8
部品1
100
AcDbLine
 10
7330.056627721359
 20
8451.346349032879
 30
0.0
 11
7318.056627721358
 21
8451.346349032879
 31
0.0
  0
LINE
  5
16086
330
747D
100
AcDbEntity
  8
部品1
100
AcDbLine
 10
7288.056627721354
 20
8437.846349032879
 30
0.0
 11
7288.056627721359
 21
8412.84634903288
 31
0.0
  0
LINE
  5
16087
330
747D
100
AcDbEntity
  8
部品1
100
AcDbLine
 10
7330.056627721359
 20
8399.34634903288
 30
0.0
 11
7318.056627721358
 21
8399.34634903288
 31
0.0
  0
LINE
  5
16089
330
747D
100
AcDbEntity
  8
部品1
100
AcDbLine
 10
7313.056627721495
 20
8403.846349032907
 30
0.0
 11
7313.056627721592
 21
7187.846349032916
 31
0.0
  0
LINE
  5
1608A
330
747D
100
AcDbEntity
  8
部品1
100
AcDbLine
 10
7313.056627721477
 20
7187.846349032901
 30
0.0
 11
6863.056627721478
 21
7187.846349032901
 31
0.0
  0
LINE
  5
1608B
330
747D
100
AcDbEntity
  8
部品1
100
AcDbLine
 10
5943.056627721384
 20
9711.596349032916
 30
0.0
 11
5943.056627721489
 21
8438.596349033112
 31
0.0
  0
LINE
  5
1608D
330
747D
100
AcDbEntity
  8
部品1
 48
50.0
100
AcDbLine
 10
5943.056627721376
 20
9711.596349032914
 30
0.0
 11
5493.056627721379
 21
9711.596349032912
 31
0.0
  0
LINE
  5
1608E
330
747D
100
AcDbEntity
  8
部品1
100
AcDbLine
 10
5493.05662772138
 20
9711.596349032912
 30
0.0
 11
5493.056627721584
 21
8611.827256750764
 31
0.0
  0
LINE
  5
16090
330
747D
100
AcDbEntity
  8
部品1
 48
50.0
100
AcDbLine
 10
5948.056627721362
 20
8412.84634903288
 30
0.0
 11
5496.056627721362
 21
8412.84634903288
 31
0.0
  0
LINE
  5
16091
330
747D
100
AcDbEntity
  8
部品1
 48
50.0
100
AcDbLine
 10
5948.056627721365
 20
8437.846349032881
 30
0.0
 11
5496.056627721362
 21
8437.846349032879
 31
0.0
  0
LINE
  5
16092
330
747D
100
AcDbEntity
  8
部品1
100
AcDbLine
 10
5943.056627721475
 20
8438.596349032911
 30
0.0
 11
5493.056627721479
 21
8438.596349032911
 31
0.0
  0
LINE
  5
16093
330
747D
100
AcDbEntity
  8
部品1
 48
50.0
100
AcDbLine
 10
5943.05662772138
 20
8403.846349032905
 30
0.0
 11
5493.056627721384
 21
8403.846349032903
 31
0.0
  0
LINE
  5
16094
330
747D
100
AcDbEntity
  8
部品1
100
AcDbLine
 10
5496.056627721362
 20
8437.846349032879
 30
0.0
 11
5496.056627721362
 21
8412.84634903288
 31
0.0
  0
LINE
  5
16095
330
747D
100
AcDbEntity
  8
部品1
100
AcDbLine
 10
5493.056627721384
 20
8403.846349032901
 30
0.0
 11
5493.056627721586
 21
7207.520094471021
 31
0.0
  0
LINE
  5
16098
330
747D
100
AcDbEntity
  8
部品1
100
AcDbLine
 10
5960.056627721359
 20
8451.346349032879
 30
0.0
 11
5948.056627721358
 21
8451.346349032879
 31
0.0
  0
LINE
  5
16099
330
747D
100
AcDbEntity
  8
部品1
100
AcDbLine
 10
5918.056627721355
 20
8437.846349032879
 30
0.0
 11
5918.056627721359
 21
8412.84634903288
 31
0.0
  0
LINE
  5
1609B
330
747D
100
AcDbEntity
  8
部品1
100
AcDbLine
 10
5960.056627721359
 20
8399.34634903288
 30
0.0
 11
5948.056627721358
 21
8399.34634903288
 31
0.0
  0
LINE
  5
1609C
330
747D
100
AcDbEntity
  8
部品1
100
AcDbLine
 10
5943.056627721495
 20
8403.846349032907
 30
0.0
 11
5943.056627721592
 21
7187.846349032916
 31
0.0
  0
LINE
  5
1609F
330
747D
100
AcDbEntity
  8
部品1
100
AcDbLine
 10
7318.056627721327
 20
8412.84634903288
 30
0.0
 11
7318.056627721341
 21
7110.346349032775
 31
0.0
  0
LINE
  5
160A0
330
747D
100
AcDbEntity
  8
部品1
100
AcDbLine
 10
5948.056627721328
 20
8412.84634903288
 30
0.0
 11
5948.056627721341
 21
7110.346349032775
 31
0.0
  0
LINE
  5
160A5
330
747D
100
AcDbEntity
  8
部品1
100
AcDbLine
 10
4634.056627721356
 20
8845.346349032757
 30
0.0
 11
4606.056627721357
 21
8845.346349032757
 31
0.0
  0
LINE
  5
160A6
330
747D
100
AcDbEntity
  8
部品1
100
AcDbLine
 10
5976.056627721322
 20
8845.346349032789
 30
0.0
 11
5948.056627721322
 21
8845.346349032789
 31
0.0
  0
LINE
  5
160A7
330
747D
100
AcDbEntity
  8
部品1
100
AcDbLine
 10
7346.056627721321
 20
8845.346349032789
 30
0.0
 11
7318.056627721322
 21
8845.346349032789
 31
0.0
  0
LINE
  5
160A8
330
747D
100
AcDbEntity
  8
部品1
100
AcDbLine
 10
8688.056627721385
 20
8845.346349032887
 30
0.0
 11
8716.056627721384
 21
8845.346349032887
 31
0.0
  0
LINE
  5
160AB
330
747D
100
AcDbEntity
  8
破線
 48
10.0
100
AcDbLine
 10
7426.05662772136
 20
8840.346349032266
 30
0.0
 11
7426.056627721365
 21
8085.346349032267
 31
0.0
  0
LINE
  5
16AEB
330
747D
100
AcDbEntity
  8
細線
 48
50.0
100
AcDbLine
 10
5493.056627721587
 20
8438.596349032927
 30
0.0
 11
5943.056627721384
 21
9711.596349032916
 31
0.0
  0
LINE
  5
16AEC
330
747D
100
AcDbEntity
  8
細線
 48
50.0
100
AcDbLine
 10
5943.056627721587
 20
8438.596349032927
 30
0.0
 11
5493.05662772138
 21
9711.596349032914
 31
0.0
  0
LINE
  5
16AED
330
747D
100
AcDbEntity
  8
部品1
100
AcDbLine
 10
8688.056627721385
 20
9265.346349032887
 30
0.0
 11
8716.056627721384
 21
9265.346349032887
 31
0.0
  0
LINE
  5
16AEE
330
747D
100
AcDbEntity
  8
部品1
100
AcDbLine
 10
7346.056627721321
 20
9265.346349032789
 30
0.0
 11
7318.056627721322
 21
9265.346349032789
 31
0.0
  0
LINE
  5
16AEF
330
747D
100
AcDbEntity
  8
部品1
100
AcDbLine
 10
5976.056627721322
 20
9265.346349032789
 30
0.0
 11
5948.056627721322
 21
9265.346349032789
 31
0.0
  0
LINE
  5
16AF0
330
747D
100
AcDbEntity
  8
部品1
100
AcDbLine
 10
4634.056627721356
 20
9265.346349032759
 30
0.0
 11
4606.056627721357
 21
9265.346349032759
 31
0.0
  0
LINE
  5
17578
330
747D
100
AcDbEntity
  8
細線
 48
50.0
100
AcDbLine
 10
5943.056627721587
 20
7187.846349032916
 30
0.0
 11
5493.056627721384
 21
8403.846349032903
 31
0.0
  0
LINE
  5
17579
330
747D
100
AcDbEntity
  8
細線
 48
50.0
100
AcDbLine
 10
5495.406151330795
 20
7194.195283941346
 30
0.0
 11
5943.056627721384
 21
8403.846349032905
 31
0.0
  0
LINE
  5
175A8
330
747D
100
AcDbEntity
  8
破線
 48
10.0
100
AcDbLine
 10
8233.056627721515
 20
8085.346349032326
 30
0.0
 11
7402.556627721486
 21
8085.346349032265
 31
0.0
  0
LINE
  5
175A9
330
747D
100
AcDbEntity
  8
破線
 48
10.0
100
AcDbLine
 10
8233.056627721515
 20
8035.346349032327
 30
0.0
 11
7402.556627721486
 21
8035.346349032264
 31
0.0
  0
LINE
  5
175AA
330
747D
100
AcDbEntity
  8
破線
 48
10.0
100
AcDbLine
 10
8233.056627721515
 20
8840.346349032326
 30
0.0
 11
7402.556627721486
 21
8840.346349032264
 31
0.0
  0
LINE
  5
175AB
330
747D
100
AcDbEntity
  8
破線
 48
10.0
100
AcDbLine
 10
8233.056627721515
 20
8890.346349032325
 30
0.0
 11
7402.556627721486
 21
8890.346349032265
 31
0.0
  0
LINE
  5
175AC
330
747D
100
AcDbEntity
  8
破線
 48
10.0
100
AcDbLine
 10
7426.056627721365
 20
8035.346349032266
 30
0.0
 11
7426.056627721369
 21
7264.346349032779
 31
0.0
  0
LINE
  5
175AD
330
747D
100
AcDbEntity
  8
破線
 48
10.0
100
AcDbLine
 10
6863.056627721515
 20
8035.346349032103
 30
0.0
 11
6032.556627721486
 21
8035.346349032041
 31
0.0
  0
LINE
  5
175AE
330
747D
100
AcDbEntity
  8
破線
 48
10.0
100
AcDbLine
 10
6863.056627721515
 20
8085.346349032104
 30
0.0
 11
6032.556627721486
 21
8085.346349032041
 31
0.0
  0
LINE
  5
175AF
330
747D
100
AcDbEntity
  8
破線
 48
10.0
100
AcDbLine
 10
6863.056627721515
 20
8890.346349032103
 30
0.0
 11
6032.556627721486
 21
8890.346349032041
 31
0.0
  0
LINE
  5
175B0
330
747D
100
AcDbEntity
  8
破線
 48
10.0
100
AcDbLine
 10
6863.056627721515
 20
8840.346349032103
 30
0.0
 11
6032.556627721486
 21
8840.34634903204
 31
0.0
  0
LINE
  5
175B2
330
747D
100
AcDbEntity
  8
破線
 48
10.0
100
AcDbLine
 10
6056.056627721366
 20
8035.346349032044
 30
0.0
 11
6056.05662772137
 21
7264.346349032779
 31
0.0
  0
LINE
  5
175B4
330
747D
100
AcDbEntity
  8
破線
 48
10.0
100
AcDbLine
 10
5493.056627721533
 20
8085.34634903185
 30
0.0
 11
5338.272174668254
 21
8085.346349031839
 31
0.0
  0
LINE
  5
175B5
330
747D
100
AcDbEntity
  8
破線
 48
10.0
100
AcDbLine
 10
5493.056627721533
 20
8035.346349031849
 30
0.0
 11
5347.088523703678
 21
8035.346349031838
 31
0.0
  0
LINE
  5
175B6
330
747D
100
AcDbEntity
  8
破線
 48
10.0
100
AcDbLine
 10
5493.056627721533
 20
8840.346349031849
 30
0.0
 11
5205.145304233365
 21
8840.346349031825
 31
0.0
  0
LINE
  5
175B7
330
747D
100
AcDbEntity
  8
破線
 48
10.0
100
AcDbLine
 10
5493.056627721533
 20
8890.346349031849
 30
0.0
 11
5196.328955197942
 21
8890.346349031824
 31
0.0
  0
LINE
  5
175B8
330
747D
100
AcDbEntity
  8
破線
 48
10.0
100
AcDbLine
 10
4686.056627721358
 20
8035.346349031787
 30
0.0
 11
4686.056627721369
 21
7264.346349032779
 31
0.0
  0
LINE
  5
175BA
330
747D
100
AcDbEntity
  8
破線
 48
10.0
100
AcDbLine
 10
5316.625725347106
 20
8035.346349031836
 30
0.0
 11
4662.556627721504
 21
8035.346349031787
 31
0.0
  0
LINE
  5
175BB
330
747D
100
AcDbEntity
  8
破線
 48
10.0
100
AcDbLine
 10
5307.809376311684
 20
8085.346349031835
 30
0.0
 11
4662.556627721504
 21
8085.346349031786
 31
0.0
  0
LINE
  5
175BC
330
747D
100
AcDbEntity
  8
部品1
100
AcDbLine
 10
5493.056627721574
 20
8592.123025046822
 30
0.0
 11
5493.056627721587
 21
8438.596349032927
 31
0.0
  0
LINE
  5
175BD
330
747D
100
AcDbEntity
  8
破線
 48
10.0
100
AcDbLine
 10
5174.682505876795
 20
8840.346349031825
 30
0.0
 11
4662.556627721504
 21
8840.346349031786
 31
0.0
  0
LINE
  5
175BE
330
747D
100
AcDbEntity
  8
破線
 48
10.0
100
AcDbLine
 10
5165.866156841372
 20
8890.346349031824
 30
0.0
 11
4662.556627721504
 21
8890.346349031785
 31
0.0
  0
LINE
  5
175C3
330
747D
100
AcDbEntity
  8
破線
 48
10.0
100
AcDbLine
 10
5030.094381695658
 20
9660.346349032938
 30
0.0
 11
4686.05662772135
 21
9660.346349032906
 31
0.0
  0
LINE
  5
175C4
330
747D
100
AcDbEntity
  8
部品1
 48
50.0
100
AcDbLine
 10
5081.056627721398
 20
9371.325089660283
 30
0.0
 11
5081.056627721437
 21
8433.105607455775
 31
0.0
  0
LINE
  5
175C6
330
747D
100
AcDbEntity
  8
部品1
100
AcDbLine
 10
8688.056627721387
 20
7585.346349032886
 30
0.0
 11
8716.056627721387
 21
7585.346349032886
 31
0.0
  0
LINE
  5
175C7
330
747D
100
AcDbEntity
  8
部品1
100
AcDbLine
 10
7346.056627721328
 20
7585.346349032788
 30
0.0
 11
7318.056627721327
 21
7585.346349032788
 31
0.0
  0
LINE
  5
175C8
330
747D
100
AcDbEntity
  8
部品1
100
AcDbLine
 10
5976.056627721328
 20
7585.346349032788
 30
0.0
 11
5948.056627721328
 21
7585.346349032788
 31
0.0
  0
LINE
  5
175C9
330
747D
100
AcDbEntity
  8
部品1
100
AcDbLine
 10
4634.056627721362
 20
7585.346349032758
 30
0.0
 11
4606.056627721362
 21
7585.346349032758
 31
0.0
  0
TEXT
  5
17617
330
747D
100
AcDbEntity
  8
文字
 62
     7
 48
50.0
100
AcDbText
 10
14639.78538849418
 20
879.3493344864453
 30
0.0
 40
100.0
  1
～一般型・多雪地型～
  7
STYLE2
100
AcDbText
  0
TEXT
  5
17618
330
747D
100
AcDbEntity
  8
文字
 62
     7
 48
50.0
100
AcDbText
 10
14524.131837222
 20
1031.557706291228
 30
0.0
 40
100.0
  1
NO.04      <縮尺> S=1/40
  7
STYLE2
100
AcDbText
  0
TEXT
  5
17619
330
747D
100
AcDbEntity
  8
文字
 62
     7
 48
50.0
100
AcDbText
 10
13209.4053442172
 20
76.09434707649348
 30
0.0
 40
100.0
  1
○床面積 ： N(連続数)×3.60㎡(1.09坪) 　
  7
STYLE2
100
AcDbText
  0
LINE
  5
1765B
330
747D
100
AcDbEntity
  8
部品1
 48
50.0
100
AcDbLine
 10
4634.056627721382
 20
9712.346349032756
 30
0.0
 11
4662.556627721351
 21
9683.846349032904
 31
0.0
  0
LINE
  5
1765C
330
747D
100
AcDbEntity
  8
部品1
 48
50.0
100
AcDbLine
 10
6004.056627721349
 20
9712.34634903277
 30
0.0
 11
6032.556627721351
 21
9683.846349032904
 31
0.0
  0
LINE
  5
1765D
330
747D
100
AcDbEntity
  8
部品1
 48
50.0
100
AcDbLine
 10
7374.056627721349
 20
9712.346349032893
 30
0.0
 11
7402.556627721351
 21
9683.846349032904
 31
0.0
  0
LINE
  5
17670
330
747D
100
AcDbEntity
  8
部品1
100
AcDbLine
 10
6279.321294607147
 20
6127.692429946351
 30
0.0
 11
6279.321294607147
 21
5887.800108400818
 31
0.0
  0
LINE
  5
17671
330
747D
100
AcDbEntity
  8
部品1
100
AcDbLine
 10
6279.321294607147
 20
5887.800108400818
 30
0.0
 11
7042.791960835586
 21
5887.800108400818
 31
0.0
  0
LINE
  5
17672
330
747D
100
AcDbEntity
  8
部品1
100
AcDbLine
 10
7042.791960835586
 20
5887.800108400818
 30
0.0
 11
7042.791960835586
 21
6127.692429946351
 31
0.0
  0
LINE
  5
17673
330
747D
100
AcDbEntity
  8
部品1
100
AcDbLine
 10
7042.791960835586
 20
6127.692429946351
 30
0.0
 11
6279.321294607147
 21
6127.692429946351
 31
0.0
  0
TEXT
  5
17E26
330
747D
100
AcDbEntity
  8
文字
 62
     7
 48
50.0
100
AcDbText
 10
13583.11819016569
 20
9740.013745883729
 30
0.0
 40
100.0
  1
梁中
 41
0.9
  7
STYLE1
100
AcDbText
  0
TEXT
  5
17E27
330
747D
100
AcDbEntity
  8
文字
 62
     7
 48
50.0
100
AcDbText
 10
15022.63965474516
 20
9740.013745883729
 30
0.0
 40
100.0
  1
F12,Y10        1.0
  7
STYLE1
100
AcDbText
  0
TEXT
  5
17E28
330
747D
100
AcDbEntity
  8
文字
 62
     7
 48
50.0
100
AcDbText
 10
13248.77747366448
 20
8720.013745883729
 30
0.0
 40
100.0
  1
15
  7
STYLE1
100
AcDbText
  0
LINE
  5
17E29
330
747D
100
AcDbEntity
  8
仕様書枠
 48
50.0
100
AcDbLine
 10
16307.19999999999
 20
10049.6
 30
0.0
 11
13127.2
 21
10049.6
 31
0.0
  0
LINE
  5
17E2A
330
747D
100
AcDbEntity
  8
細線
100
AcDbLine
 10
5194.838619668386
 20
4584.986421636951
 30
0.0
 11
5916.05662772138
 21
4584.98642163695
 31
0.0
  0
LINE
  5
17E2B
330
747D
100
AcDbEntity
  8
細線
100
AcDbLine
 10
5264.55662772138
 20
4016.832835571731
 30
0.0
 11
5264.55662772138
 21
3816.804527305734
 31
0.0
  0
LINE
  5
17E2C
330
747D
100
AcDbEntity
  8
細線
100
AcDbLine
 10
5334.55662772138
 20
3928.725519559283
 30
0.0
 11
5334.55662772138
 21
3849.446063376584
 31
0.0
  0
LINE
  5
17E2D
330
747D
100
AcDbEntity
  8
細線
100
AcDbLine
 10
5404.556627721383
 20
3922.601313112467
 30
0.0
 11
5404.556627721383
 21
3882.087599447435
 31
0.0
  0
LINE
  5
17E2E
330
747D
100
AcDbEntity
  8
部品1
100
AcDbLine
 10
5523.056627721381
 20
3904.243719369926
 30
0.0
 11
5523.056627721381
 21
2809.486421636972
 31
0.0
  0
LINE
  5
17E2F
330
747D
100
AcDbEntity
  8
細線
100
AcDbLine
 10
5404.55662772138
 20
3848.98626187856
 30
0.0
 11
5404.55662772138
 21
3395.616495319554
 31
0.0
  0
LINE
  5
17E30
330
747D
100
AcDbEntity
  8
細線
100
AcDbLine
 10
5334.55662772138
 20
3816.344725807708
 30
0.0
 11
5334.55662772138
 21
3714.206202846425
 31
0.0
  0
LINE
  5
17E31
330
747D
100
AcDbEntity
  8
細線
100
AcDbLine
 10
5264.55662772138
 20
3783.703189736858
 30
0.0
 11
5264.55662772138
 21
3720.330409293242
 31
0.0
  0
LINE
  5
17E32
330
747D
100
AcDbEntity
  8
部品1
100
AcDbLine
 10
5117.05662772138
 20
3703.120392037015
 30
0.0
 11
5117.056627721384
 21
2801.986421636957
 31
0.0
  0
LINE
  5
17E33
330
747D
100
AcDbEntity
  8
細線
100
AcDbLine
 10
5194.556627721384
 20
3751.06165366601
 30
0.0
 11
5194.556627721384
 21
3726.454615740057
 31
0.0
  0
LINE
  5
17E34
330
747D
100
AcDbEntity
  8
細線
100
AcDbLine
 10
5194.556627721384
 20
3696.340020613757
 30
0.0
 11
5194.55662772138
 21
2809.486421636972
 31
0.0
  0
LINE
  5
17E35
330
747D
100
AcDbEntity
  8
細線
100
AcDbLine
 10
5264.55662772138
 20
3690.215814166942
 30
0.0
 11
5264.55662772138
 21
2809.486421636972
 31
0.0
  0
LINE
  5
17E36
330
747D
100
AcDbEntity
  8
細線
100
AcDbLine
 10
5334.55662772138
 20
3619.843108198493
 30
0.0
 11
5334.55662772138
 21
2809.486421636972
 31
0.0
  0
LINE
  5
17E37
330
747D
100
AcDbEntity
  8
細線
100
AcDbLine
 10
5404.55662772138
 20
3222.853380825249
 30
0.0
 11
5404.55662772138
 21
2809.486421636972
 31
0.0
  0
LINE
  5
17E38
330
747D
100
AcDbEntity
  8
部品1
100
AcDbLine
 10
5507.907173916261
 20
2809.486421636966
 30
0.0
 11
5916.05662772138
 21
2809.486421636971
 31
0.0
  0
LINE
  5
17E39
330
747D
100
AcDbEntity
  8
細線
100
AcDbLine
 10
6351.05662772138
 20
4652.486421636949
 30
0.0
 11
6351.05662772138
 21
4629.48642163695
 31
0.0
  0
LINE
  5
17E3A
330
747D
100
AcDbEntity
  8
細線
100
AcDbLine
 10
6425.056627721381
 20
4640.486421636949
 30
0.0
 11
6351.05662772138
 21
4640.486421636949
 31
0.0
  0
LINE
  5
17E3B
330
747D
100
AcDbEntity
  8
細線
100
AcDbLine
 10
6425.056627721381
 20
4634.486421636949
 30
0.0
 11
6351.05662772138
 21
4634.486421636949
 31
0.0
  0
LINE
  5
17E3C
330
747D
100
AcDbEntity
  8
細線
100
AcDbLine
 10
6425.056627721381
 20
4646.486421636949
 30
0.0
 11
6351.05662772138
 21
4646.486421636949
 31
0.0
  0
LINE
  5
17E3D
330
747D
100
AcDbEntity
  8
細線
100
AcDbLine
 10
6277.05662772138
 20
4646.486421636949
 30
0.0
 11
6346.05662772138
 21
4646.486421636949
 31
0.0
  0
LINE
  5
17E3E
330
747D
100
AcDbEntity
  8
細線
100
AcDbLine
 10
6277.05662772138
 20
4634.486421636949
 30
0.0
 11
6351.05662772138
 21
4634.486421636949
 31
0.0
  0
LINE
  5
17E3F
330
747D
100
AcDbEntity
  8
細線
100
AcDbLine
 10
6277.05662772138
 20
4640.486421636949
 30
0.0
 11
6351.05662772138
 21
4640.486421636949
 31
0.0
  0
LINE
  5
17E40
330
747D
100
AcDbEntity
  8
細線
100
AcDbLine
 10
6277.05662772138
 20
4646.486421636949
 30
0.0
 11
6351.05662772138
 21
4646.486421636949
 31
0.0
  0
LINE
  5
17E41
330
747D
100
AcDbEntity
  8
部品1
 48
0.01
100
AcDbLine
 10
6439.056627721381
 20
4658.986421636949
 30
0.0
 11
6263.05662772138
 21
4658.986421636949
 31
0.0
  0
LINE
  5
17E42
330
747D
100
AcDbEntity
  8
部品1
 48
0.01
100
AcDbLine
 10
6261.05662772138
 20
4656.98642163695
 30
0.0
 11
6261.05662772138
 21
4625.486421636949
 31
0.0
  0
LINE
  5
17E43
330
747D
100
AcDbEntity
  8
部品1
 48
0.01
100
AcDbLine
 10
6263.05662772138
 20
4623.48642163695
 30
0.0
 11
6439.056627721381
 21
4623.48642163695
 31
0.0
  0
LINE
  5
17E44
330
747D
100
AcDbEntity
  8
部品1
 48
0.01
100
AcDbLine
 10
6441.05662772138
 20
4625.486421636949
 30
0.0
 11
6441.05662772138
 21
4656.98642163695
 31
0.0
  0
LINE
  5
17E45
330
747D
100
AcDbEntity
  8
細線
100
AcDbLine
 10
6277.05662772138
 20
4652.486421636949
 30
0.0
 11
6277.05662772138
 21
4629.48642163695
 31
0.0
  0
LINE
  5
17E46
330
747D
100
AcDbEntity
  8
細線
100
AcDbLine
 10
6425.056627721381
 20
4629.48642163695
 30
0.0
 11
6425.056627721381
 21
4652.486421636949
 31
0.0
  0
LINE
  5
17E47
330
747D
100
AcDbEntity
  8
細線
100
AcDbLine
 10
6425.056627721381
 20
4652.486421636949
 30
0.0
 11
6351.05662772138
 21
4652.486421636949
 31
0.0
  0
LINE
  5
17E48
330
747D
100
AcDbEntity
  8
細線
100
AcDbLine
 10
6277.05662772138
 20
4629.48642163695
 30
0.0
 11
6351.05662772138
 21
4629.48642163695
 31
0.0
  0
LINE
  5
17E49
330
747D
100
AcDbEntity
  8
細線
100
AcDbLine
 10
6351.05662772138
 20
4652.486421636949
 30
0.0
 11
6277.05662772138
 21
4652.486421636949
 31
0.0
  0
LINE
  5
17E4A
330
747D
100
AcDbEntity
  8
細線
100
AcDbLine
 10
6351.05662772138
 20
4629.48642163695
 30
0.0
 11
6425.056627721381
 21
4629.48642163695
 31
0.0
  0
ARC
  5
17E4B
330
747D
100
AcDbEntity
  8
部品1
 48
0.01
100
AcDbCircle
 10
6263.05662772138
 20
4656.98642163695
 30
0.0
 40
2.0
100
AcDbArc
 50
90.0
 51
180.0
  0
ARC
  5
17E4C
330
747D
100
AcDbEntity
  8
部品1
 48
0.01
100
AcDbCircle
 10
6263.05662772138
 20
4625.486421636949
 30
0.0
 40
2.0
100
AcDbArc
 50
180.0
 51
270.0
  0
ARC
  5
17E4D
330
747D
100
AcDbEntity
  8
部品1
 48
0.01
100
AcDbCircle
 10
6439.056627721381
 20
4656.98642163695
 30
0.0
 40
2.0
100
AcDbArc
 50
0.0
 51
90.0
  0
ARC
  5
17E4E
330
747D
100
AcDbEntity
  8
部品1
 48
0.01
100
AcDbCircle
 10
6439.056627721381
 20
4625.486421636949
 30
0.0
 40
2.0
100
AcDbArc
 50
270.0
 51
0.0
  0
ARC
  5
17E4F
330
747D
100
AcDbEntity
  8
部品1
 48
0.01
100
AcDbCircle
 10
6883.056627721382
 20
4625.486421636949
 30
0.0
 40
2.0
100
AcDbArc
 50
180.0
 51
270.0
  0
ARC
  5
17E50
330
747D
100
AcDbEntity
  8
部品1
 48
0.01
100
AcDbCircle
 10
6883.056627721382
 20
4656.98642163695
 30
0.0
 40
2.0
100
AcDbArc
 50
90.0
 51
180.0
  0
ARC
  5
17E51
330
747D
100
AcDbEntity
  8
部品1
 48
0.01
100
AcDbCircle
 10
7059.056627721382
 20
4625.486421636949
 30
0.0
 40
2.0
100
AcDbArc
 50
270.0
 51
0.0
  0
ARC
  5
17E52
330
747D
100
AcDbEntity
  8
部品1
 48
0.01
100
AcDbCircle
 10
7059.056627721382
 20
4656.98642163695
 30
0.0
 40
2.0
100
AcDbArc
 50
0.0
 51
90.0
  0
LINE
  5
17E53
330
747D
100
AcDbEntity
  8
細線
100
AcDbLine
 10
6971.056627721383
 20
4629.48642163695
 30
0.0
 11
6897.056627721382
 21
4629.48642163695
 31
0.0
  0
LINE
  5
17E54
330
747D
100
AcDbEntity
  8
細線
100
AcDbLine
 10
6971.056627721383
 20
4652.486421636949
 30
0.0
 11
7045.056627721383
 21
4652.486421636949
 31
0.0
  0
LINE
  5
17E55
330
747D
100
AcDbEntity
  8
細線
100
AcDbLine
 10
7045.056627721383
 20
4629.48642163695
 30
0.0
 11
6971.056627721383
 21
4629.48642163695
 31
0.0
  0
LINE
  5
17E56
330
747D
100
AcDbEntity
  8
細線
100
AcDbLine
 10
6897.056627721382
 20
4652.486421636949
 30
0.0
 11
6971.056627721383
 21
4652.486421636949
 31
0.0
  0
LINE
  5
17E57
330
747D
100
AcDbEntity
  8
細線
100
AcDbLine
 10
6897.056627721382
 20
4629.48642163695
 30
0.0
 11
6897.056627721382
 21
4652.486421636949
 31
0.0
  0
LINE
  5
17E58
330
747D
100
AcDbEntity
  8
細線
100
AcDbLine
 10
7045.056627721383
 20
4652.486421636949
 30
0.0
 11
7045.056627721383
 21
4629.48642163695
 31
0.0
  0
LINE
  5
17E59
330
747D
100
AcDbEntity
  8
部品1
 48
0.01
100
AcDbLine
 10
6881.056627721382
 20
4625.486421636949
 30
0.0
 11
6881.056627721382
 21
4656.98642163695
 31
0.0
  0
LINE
  5
17E5A
330
747D
100
AcDbEntity
  8
部品1
 48
0.01
100
AcDbLine
 10
7059.056627721382
 20
4623.48642163695
 30
0.0
 11
6883.056627721382
 21
4623.48642163695
 31
0.0
  0
LINE
  5
17E5B
330
747D
100
AcDbEntity
  8
部品1
 48
0.01
100
AcDbLine
 10
7061.056627721382
 20
4656.98642163695
 30
0.0
 11
7061.056627721382
 21
4625.486421636949
 31
0.0
  0
LINE
  5
17E5C
330
747D
100
AcDbEntity
  8
部品1
 48
0.01
100
AcDbLine
 10
6883.056627721382
 20
4658.986421636949
 30
0.0
 11
7059.056627721382
 21
4658.986421636949
 31
0.0
  0
LINE
  5
17E5D
330
747D
100
AcDbEntity
  8
細線
100
AcDbLine
 10
7045.056627721383
 20
4646.486421636949
 30
0.0
 11
6971.056627721383
 21
4646.486421636949
 31
0.0
  0
LINE
  5
17E5E
330
747D
100
AcDbEntity
  8
細線
100
AcDbLine
 10
7045.056627721383
 20
4640.486421636949
 30
0.0
 11
6971.056627721383
 21
4640.486421636949
 31
0.0
  0
LINE
  5
17E5F
330
747D
100
AcDbEntity
  8
細線
100
AcDbLine
 10
7045.056627721383
 20
4634.486421636949
 30
0.0
 11
6971.056627721383
 21
4634.486421636949
 31
0.0
  0
LINE
  5
17E60
330
747D
100
AcDbEntity
  8
細線
100
AcDbLine
 10
7045.056627721383
 20
4646.486421636949
 30
0.0
 11
6976.056627721383
 21
4646.486421636949
 31
0.0
  0
LINE
  5
17E61
330
747D
100
AcDbEntity
  8
細線
100
AcDbLine
 10
6897.056627721382
 20
4646.486421636949
 30
0.0
 11
6971.056627721383
 21
4646.486421636949
 31
0.0
  0
LINE
  5
17E62
330
747D
100
AcDbEntity
  8
細線
100
AcDbLine
 10
6897.056627721382
 20
4634.486421636949
 30
0.0
 11
6971.056627721383
 21
4634.486421636949
 31
0.0
  0
LINE
  5
17E63
330
747D
100
AcDbEntity
  8
細線
100
AcDbLine
 10
6897.056627721382
 20
4640.486421636949
 30
0.0
 11
6971.056627721383
 21
4640.486421636949
 31
0.0
  0
LINE
  5
17E64
330
747D
100
AcDbEntity
  8
細線
100
AcDbLine
 10
6971.056627721383
 20
4652.486421636949
 30
0.0
 11
6971.056627721383
 21
4629.48642163695
 31
0.0
  0
LINE
  5
17E65
330
747D
100
AcDbEntity
  8
細線
100
AcDbLine
 10
8341.056627721382
 20
4652.486421636949
 30
0.0
 11
8341.056627721382
 21
4629.48642163695
 31
0.0
  0
LINE
  5
17E66
330
747D
100
AcDbEntity
  8
細線
100
AcDbLine
 10
8267.056627721382
 20
4640.486421636949
 30
0.0
 11
8341.056627721382
 21
4640.486421636949
 31
0.0
  0
LINE
  5
17E67
330
747D
100
AcDbEntity
  8
細線
100
AcDbLine
 10
8267.056627721382
 20
4634.486421636949
 30
0.0
 11
8341.056627721382
 21
4634.486421636949
 31
0.0
  0
LINE
  5
17E68
330
747D
100
AcDbEntity
  8
細線
100
AcDbLine
 10
8267.056627721382
 20
4646.486421636949
 30
0.0
 11
8341.056627721382
 21
4646.486421636949
 31
0.0
  0
LINE
  5
17E69
330
747D
100
AcDbEntity
  8
細線
100
AcDbLine
 10
8415.056627721382
 20
4646.486421636949
 30
0.0
 11
8346.056627721383
 21
4646.486421636949
 31
0.0
  0
LINE
  5
17E6A
330
747D
100
AcDbEntity
  8
細線
100
AcDbLine
 10
8415.056627721382
 20
4634.486421636949
 30
0.0
 11
8341.056627721382
 21
4634.486421636949
 31
0.0
  0
LINE
  5
17E6B
330
747D
100
AcDbEntity
  8
細線
100
AcDbLine
 10
8415.056627721382
 20
4640.486421636949
 30
0.0
 11
8341.056627721382
 21
4640.486421636949
 31
0.0
  0
LINE
  5
17E6C
330
747D
100
AcDbEntity
  8
細線
100
AcDbLine
 10
8415.056627721382
 20
4646.486421636949
 30
0.0
 11
8341.056627721382
 21
4646.486421636949
 31
0.0
  0
LINE
  5
17E6D
330
747D
100
AcDbEntity
  8
部品1
 48
0.01
100
AcDbLine
 10
8253.056627721383
 20
4658.986421636949
 30
0.0
 11
8429.056627721383
 21
4658.986421636949
 31
0.0
  0
LINE
  5
17E6E
330
747D
100
AcDbEntity
  8
部品1
 48
0.01
100
AcDbLine
 10
8431.056627721382
 20
4656.98642163695
 30
0.0
 11
8431.056627721382
 21
4625.486421636949
 31
0.0
  0
LINE
  5
17E6F
330
747D
100
AcDbEntity
  8
部品1
 48
0.01
100
AcDbLine
 10
8429.056627721383
 20
4623.48642163695
 30
0.0
 11
8253.056627721383
 21
4623.48642163695
 31
0.0
  0
LINE
  5
17E70
330
747D
100
AcDbEntity
  8
部品1
 48
0.01
100
AcDbLine
 10
8251.056627721382
 20
4625.486421636949
 30
0.0
 11
8251.056627721382
 21
4656.98642163695
 31
0.0
  0
LINE
  5
17E71
330
747D
100
AcDbEntity
  8
細線
100
AcDbLine
 10
8415.056627721382
 20
4652.486421636949
 30
0.0
 11
8415.056627721382
 21
4629.48642163695
 31
0.0
  0
LINE
  5
17E72
330
747D
100
AcDbEntity
  8
細線
100
AcDbLine
 10
8267.056627721382
 20
4629.48642163695
 30
0.0
 11
8267.056627721382
 21
4652.486421636949
 31
0.0
  0
LINE
  5
17E73
330
747D
100
AcDbEntity
  8
細線
100
AcDbLine
 10
8267.056627721382
 20
4652.486421636949
 30
0.0
 11
8341.056627721382
 21
4652.486421636949
 31
0.0
  0
LINE
  5
17E74
330
747D
100
AcDbEntity
  8
細線
100
AcDbLine
 10
8415.056627721382
 20
4629.48642163695
 30
0.0
 11
8341.056627721382
 21
4629.48642163695
 31
0.0
  0
LINE
  5
17E75
330
747D
100
AcDbEntity
  8
細線
100
AcDbLine
 10
8341.056627721382
 20
4652.486421636949
 30
0.0
 11
8415.056627721382
 21
4652.486421636949
 31
0.0
  0
LINE
  5
17E76
330
747D
100
AcDbEntity
  8
細線
100
AcDbLine
 10
8341.056627721382
 20
4629.48642163695
 30
0.0
 11
8267.056627721382
 21
4629.48642163695
 31
0.0
  0
ARC
  5
17E77
330
747D
100
AcDbEntity
  8
部品1
 48
0.01
100
AcDbCircle
 10
8429.056627721383
 20
4656.98642163695
 30
0.0
 40
2.0
100
AcDbArc
 50
0.0
 51
90.0
  0
ARC
  5
17E78
330
747D
100
AcDbEntity
  8
部品1
 48
0.01
100
AcDbCircle
 10
8429.056627721383
 20
4625.486421636949
 30
0.0
 40
2.0
100
AcDbArc
 50
270.0
 51
0.0
  0
ARC
  5
17E79
330
747D
100
AcDbEntity
  8
部品1
 48
0.01
100
AcDbCircle
 10
8253.056627721383
 20
4656.98642163695
 30
0.0
 40
2.0
100
AcDbArc
 50
90.0
 51
180.0
  0
ARC
  5
17E7A
330
747D
100
AcDbEntity
  8
部品1
 48
0.01
100
AcDbCircle
 10
8253.056627721383
 20
4625.486421636949
 30
0.0
 40
2.0
100
AcDbArc
 50
180.0
 51
270.0
  0
ARC
  5
17E7B
330
747D
100
AcDbEntity
  8
部品1
 48
0.01
100
AcDbCircle
 10
7809.056627721382
 20
4625.486421636949
 30
0.0
 40
2.0
100
AcDbArc
 50
270.0
 51
0.0
  0
ARC
  5
17E7C
330
747D
100
AcDbEntity
  8
部品1
 48
0.01
100
AcDbCircle
 10
7809.056627721382
 20
4656.98642163695
 30
0.0
 40
2.0
100
AcDbArc
 50
0.0
 51
90.0
  0
ARC
  5
17E7D
330
747D
100
AcDbEntity
  8
部品1
 48
0.01
100
AcDbCircle
 10
7633.056627721382
 20
4625.486421636949
 30
0.0
 40
2.0
100
AcDbArc
 50
180.0
 51
270.0
  0
ARC
  5
17E7E
330
747D
100
AcDbEntity
  8
部品1
 48
0.01
100
AcDbCircle
 10
7633.056627721382
 20
4656.98642163695
 30
0.0
 40
2.0
100
AcDbArc
 50
90.0
 51
180.0
  0
LINE
  5
17E7F
330
747D
100
AcDbEntity
  8
細線
100
AcDbLine
 10
7721.056627721383
 20
4629.48642163695
 30
0.0
 11
7795.056627721383
 21
4629.48642163695
 31
0.0
  0
LINE
  5
17E80
330
747D
100
AcDbEntity
  8
細線
100
AcDbLine
 10
7721.056627721383
 20
4652.486421636949
 30
0.0
 11
7647.056627721382
 21
4652.486421636949
 31
0.0
  0
LINE
  5
17E81
330
747D
100
AcDbEntity
  8
細線
100
AcDbLine
 10
7647.056627721382
 20
4629.48642163695
 30
0.0
 11
7721.056627721383
 21
4629.48642163695
 31
0.0
  0
LINE
  5
17E82
330
747D
100
AcDbEntity
  8
細線
100
AcDbLine
 10
7795.056627721383
 20
4652.486421636949
 30
0.0
 11
7721.056627721383
 21
4652.486421636949
 31
0.0
  0
LINE
  5
17E83
330
747D
100
AcDbEntity
  8
細線
100
AcDbLine
 10
7795.056627721383
 20
4629.48642163695
 30
0.0
 11
7795.056627721383
 21
4652.486421636949
 31
0.0
  0
LINE
  5
17E84
330
747D
100
AcDbEntity
  8
細線
100
AcDbLine
 10
7647.056627721382
 20
4652.486421636949
 30
0.0
 11
7647.056627721382
 21
4629.48642163695
 31
0.0
  0
LINE
  5
17E85
330
747D
100
AcDbEntity
  8
部品1
 48
0.01
100
AcDbLine
 10
7811.056627721382
 20
4625.486421636949
 30
0.0
 11
7811.056627721382
 21
4656.98642163695
 31
0.0
  0
LINE
  5
17E86
330
747D
100
AcDbEntity
  8
部品1
 48
0.01
100
AcDbLine
 10
7633.056627721382
 20
4623.48642163695
 30
0.0
 11
7809.056627721382
 21
4623.48642163695
 31
0.0
  0
LINE
  5
17E87
330
747D
100
AcDbEntity
  8
部品1
 48
0.01
100
AcDbLine
 10
7631.056627721382
 20
4656.98642163695
 30
0.0
 11
7631.056627721382
 21
4625.486421636949
 31
0.0
  0
LINE
  5
17E88
330
747D
100
AcDbEntity
  8
部品1
 48
0.01
100
AcDbLine
 10
7809.056627721382
 20
4658.986421636949
 30
0.0
 11
7633.056627721382
 21
4658.986421636949
 31
0.0
  0
LINE
  5
17E89
330
747D
100
AcDbEntity
  8
細線
100
AcDbLine
 10
7647.056627721382
 20
4646.486421636949
 30
0.0
 11
7721.056627721383
 21
4646.486421636949
 31
0.0
  0
LINE
  5
17E8A
330
747D
100
AcDbEntity
  8
細線
100
AcDbLine
 10
7647.056627721382
 20
4640.486421636949
 30
0.0
 11
7721.056627721383
 21
4640.486421636949
 31
0.0
  0
LINE
  5
17E8B
330
747D
100
AcDbEntity
  8
細線
100
AcDbLine
 10
7647.056627721382
 20
4634.486421636949
 30
0.0
 11
7721.056627721383
 21
4634.486421636949
 31
0.0
  0
LINE
  5
17E8C
330
747D
100
AcDbEntity
  8
細線
100
AcDbLine
 10
7647.056627721382
 20
4646.486421636949
 30
0.0
 11
7716.056627721382
 21
4646.486421636949
 31
0.0
  0
LINE
  5
17E8D
330
747D
100
AcDbEntity
  8
細線
100
AcDbLine
 10
7795.056627721383
 20
4646.486421636949
 30
0.0
 11
7721.056627721383
 21
4646.486421636949
 31
0.0
  0
LINE
  5
17E8E
330
747D
100
AcDbEntity
  8
細線
100
AcDbLine
 10
7795.056627721383
 20
4634.486421636949
 30
0.0
 11
7721.056627721383
 21
4634.486421636949
 31
0.0
  0
LINE
  5
17E8F
330
747D
100
AcDbEntity
  8
細線
100
AcDbLine
 10
7795.056627721383
 20
4640.486421636949
 30
0.0
 11
7721.056627721383
 21
4640.486421636949
 31
0.0
  0
LINE
  5
17E90
330
747D
100
AcDbEntity
  8
細線
100
AcDbLine
 10
7721.056627721383
 20
4652.486421636949
 30
0.0
 11
7721.056627721383
 21
4629.48642163695
 31
0.0
  0
LINE
  5
17E91
330
747D
100
AcDbEntity
  8
細線
100
AcDbLine
 10
7406.056627721382
 20
4584.986421636953
 30
0.0
 11
8656.056627721381
 21
4584.98642163695
 31
0.0
  0
LINE
  5
17E92
330
747D
100
AcDbEntity
  8
部品1
100
AcDbLine
 10
7857.056627721383
 20
2809.486421636963
 30
0.0
 11
8656.056627721381
 21
2809.486421636971
 31
0.0
  0
LINE
  5
17E93
330
747D
100
AcDbEntity
  8
部品1
100
AcDbLine
 10
7406.056627721382
 20
2801.986421636954
 30
0.0
 11
7857.056627721384
 21
2801.986421636957
 31
0.0
  0
LINE
  5
17E94
330
747D
100
AcDbEntity
  8
細線
100
AcDbLine
 10
7934.556627721382
 20
4584.986421636957
 30
0.0
 11
7934.556627721382
 21
2809.486421636972
 31
0.0
  0
LINE
  5
17E95
330
747D
100
AcDbEntity
  8
細線
100
AcDbLine
 10
8004.556627721383
 20
4584.986421636957
 30
0.0
 11
8004.556627721383
 21
2809.486421636972
 31
0.0
  0
LINE
  5
17E96
330
747D
100
AcDbEntity
  8
細線
100
AcDbLine
 10
8074.556627721383
 20
4584.986421636957
 30
0.0
 11
8074.556627721383
 21
2809.486421636972
 31
0.0
  0
LINE
  5
17E97
330
747D
100
AcDbEntity
  8
細線
100
AcDbLine
 10
8144.556627721383
 20
4584.986421636957
 30
0.0
 11
8144.556627721383
 21
2809.486421636972
 31
0.0
  0
LINE
  5
17E98
330
747D
100
AcDbEntity
  8
部品1
100
AcDbLine
 10
8263.056627721381
 20
4584.986421636953
 30
0.0
 11
8263.056627721381
 21
2809.486421636972
 31
0.0
  0
LINE
  5
17E99
330
747D
100
AcDbEntity
  8
細線
100
AcDbLine
 10
7687.056627721384
 20
4584.98642163695
 30
0.0
 11
7687.056627721384
 21
2801.986421636957
 31
0.0
  0
LINE
  5
17E9A
330
747D
100
AcDbEntity
  8
細線
100
AcDbLine
 10
7757.056627721384
 20
4584.98642163695
 30
0.0
 11
7757.056627721384
 21
2801.986421636957
 31
0.0
  0
LINE
  5
17EB4
330
747D
100
AcDbEntity
  8
部品1
 48
50.0
100
AcDbLine
 10
7441.056627721382
 20
3758.486421636961
 30
0.0
 11
7494.056627721382
 21
3758.486421636961
 31
0.0
  0
LINE
  5
17EB8
330
747D
100
AcDbEntity
  8
細線
100
AcDbLine
 10
8343.056627721383
 20
4584.986421636953
 30
0.0
 11
8343.056627721383
 21
2809.486421636972
 31
0.0
  0
LINE
  5
17EB9
330
747D
100
AcDbEntity
  8
細線
100
AcDbLine
 10
8413.056627721381
 20
4584.986421636953
 30
0.0
 11
8413.056627721381
 21
2809.486421636972
 31
0.0
  0
LINE
  5
17EBA
330
747D
100
AcDbEntity
  8
細線
100
AcDbLine
 10
8483.056627721381
 20
4584.986421636953
 30
0.0
 11
8483.056627721381
 21
2809.486421636972
 31
0.0
  0
LINE
  5
17EBB
330
747D
100
AcDbEntity
  8
細線
100
AcDbLine
 10
8553.056627721382
 20
4584.986421636953
 30
0.0
 11
8553.056627721382
 21
2809.486421636972
 31
0.0
  0
LINE
  5
17EBC
330
747D
100
AcDbEntity
  8
細線
100
AcDbLine
 10
7525.056627721382
 20
4584.986421636953
 30
0.0
 11
7525.056627721383
 21
2801.986421636955
 31
0.0
  0
LINE
  5
17EBD
330
747D
100
AcDbEntity
  8
細線
100
AcDbLine
 10
7559.056627721382
 20
4584.986421636953
 30
0.0
 11
7559.056627721384
 21
2801.986421636955
 31
0.0
  0
LINE
  5
17EBE
330
747D
100
AcDbEntity
  8
部品1
100
AcDbLine
 10
7517.056627721382
 20
4584.986421636953
 30
0.0
 11
7517.056627721384
 21
2801.986421636955
 31
0.0
  0
LINE
  5
17EBF
330
747D
100
AcDbEntity
  8
部品1
100
AcDbLine
 10
7567.056627721382
 20
4584.986421636953
 30
0.0
 11
7567.056627721384
 21
2801.986421636955
 31
0.0
  0
LINE
  5
17EC0
330
747D
100
AcDbEntity
  8
部品1
100
AcDbLine
 10
7857.056627721384
 20
4584.98642163695
 30
0.0
 11
7857.056627721384
 21
2801.986421636957
 31
0.0
  0
LINE
  5
17EC1
330
747D
100
AcDbEntity
  8
細線
100
AcDbLine
 10
6036.05662772138
 20
4584.986421636953
 30
0.0
 11
7286.056627721382
 21
4584.98642163695
 31
0.0
  0
LINE
  5
17EC2
330
747D
100
AcDbEntity
  8
部品1
100
AcDbLine
 10
6036.05662772138
 20
2801.986421636954
 30
0.0
 11
6487.056627721384
 21
2801.986421636957
 31
0.0
  0
LINE
  5
17EC3
330
747D
100
AcDbEntity
  8
部品1
100
AcDbLine
 10
6487.056627721379
 20
2809.486421636963
 30
0.0
 11
7286.056627721382
 21
2809.486421636971
 31
0.0
  0
LINE
  5
17EC4
330
747D
100
AcDbEntity
  8
細線
100
AcDbLine
 10
6564.55662772138
 20
4584.986421636957
 30
0.0
 11
6564.55662772138
 21
2809.486421636972
 31
0.0
  0
LINE
  5
17EC5
330
747D
100
AcDbEntity
  8
細線
100
AcDbLine
 10
6634.556627721382
 20
4584.986421636957
 30
0.0
 11
6634.556627721382
 21
2809.486421636972
 31
0.0
  0
LINE
  5
17EC6
330
747D
100
AcDbEntity
  8
細線
100
AcDbLine
 10
6704.556627721382
 20
4584.986421636957
 30
0.0
 11
6704.556627721382
 21
2809.486421636972
 31
0.0
  0
LINE
  5
17EC7
330
747D
100
AcDbEntity
  8
細線
100
AcDbLine
 10
6774.556627721382
 20
4584.986421636957
 30
0.0
 11
6774.556627721382
 21
2809.486421636972
 31
0.0
  0
LINE
  5
17EC8
330
747D
100
AcDbEntity
  8
部品1
100
AcDbLine
 10
6893.056627721382
 20
4584.986421636953
 30
0.0
 11
6893.056627721382
 21
2809.486421636972
 31
0.0
  0
LINE
  5
17EC9
330
747D
100
AcDbEntity
  8
細線
100
AcDbLine
 10
6317.056627721384
 20
4584.98642163695
 30
0.0
 11
6317.056627721384
 21
2801.986421636957
 31
0.0
  0
LINE
  5
17ECA
330
747D
100
AcDbEntity
  8
細線
100
AcDbLine
 10
6387.056627721384
 20
4584.98642163695
 30
0.0
 11
6387.056627721384
 21
2801.986421636957
 31
0.0
  0
LINE
  5
17EE4
330
747D
100
AcDbEntity
  8
部品1
 48
50.0
100
AcDbLine
 10
6071.05662772138
 20
3758.486421636961
 30
0.0
 11
6124.05662772138
 21
3758.486421636961
 31
0.0
  0
LINE
  5
17EE8
330
747D
100
AcDbEntity
  8
細線
100
AcDbLine
 10
6973.056627721383
 20
4584.986421636953
 30
0.0
 11
6973.056627721383
 21
2809.486421636972
 31
0.0
  0
LINE
  5
17EE9
330
747D
100
AcDbEntity
  8
細線
100
AcDbLine
 10
7043.056627721383
 20
4584.986421636953
 30
0.0
 11
7043.056627721383
 21
2809.486421636972
 31
0.0
  0
LINE
  5
17EEA
330
747D
100
AcDbEntity
  8
細線
100
AcDbLine
 10
7113.056627721381
 20
4584.986421636953
 30
0.0
 11
7113.056627721381
 21
2809.486421636972
 31
0.0
  0
LINE
  5
17EEB
330
747D
100
AcDbEntity
  8
細線
100
AcDbLine
 10
7183.056627721382
 20
4584.986421636953
 30
0.0
 11
7183.056627721382
 21
2809.486421636972
 31
0.0
  0
LINE
  5
17EEC
330
747D
100
AcDbEntity
  8
細線
100
AcDbLine
 10
6155.05662772138
 20
4584.986421636953
 30
0.0
 11
6155.056627721384
 21
2801.986421636955
 31
0.0
  0
LINE
  5
17EED
330
747D
100
AcDbEntity
  8
細線
100
AcDbLine
 10
6189.05662772138
 20
4584.986421636953
 30
0.0
 11
6189.056627721384
 21
2801.986421636955
 31
0.0
  0
LINE
  5
17EEE
330
747D
100
AcDbEntity
  8
部品1
100
AcDbLine
 10
6147.05662772138
 20
4584.986421636953
 30
0.0
 11
6147.056627721384
 21
2801.986421636955
 31
0.0
  0
LINE
  5
17EEF
330
747D
100
AcDbEntity
  8
部品1
100
AcDbLine
 10
6197.05662772138
 20
4584.986421636953
 30
0.0
 11
6197.056627721384
 21
2801.986421636955
 31
0.0
  0
LINE
  5
17EF0
330
747D
100
AcDbEntity
  8
部品1
100
AcDbLine
 10
6487.056627721384
 20
4584.98642163695
 30
0.0
 11
6487.056627721384
 21
2801.986421636957
 31
0.0
  0
LINE
  5
17EF1
330
747D
100
AcDbEntity
  8
細線
100
AcDbLine
 10
5601.05662772138
 20
4652.486421636949
 30
0.0
 11
5601.05662772138
 21
4629.48642163695
 31
0.0
  0
LINE
  5
17EF2
330
747D
100
AcDbEntity
  8
細線
100
AcDbLine
 10
5527.05662772138
 20
4640.486421636949
 30
0.0
 11
5601.05662772138
 21
4640.486421636949
 31
0.0
  0
LINE
  5
17EF3
330
747D
100
AcDbEntity
  8
細線
100
AcDbLine
 10
5527.05662772138
 20
4634.486421636949
 30
0.0
 11
5601.05662772138
 21
4634.486421636949
 31
0.0
  0
LINE
  5
17EF4
330
747D
100
AcDbEntity
  8
細線
100
AcDbLine
 10
5527.05662772138
 20
4646.486421636949
 30
0.0
 11
5601.05662772138
 21
4646.486421636949
 31
0.0
  0
LINE
  5
17EF5
330
747D
100
AcDbEntity
  8
細線
100
AcDbLine
 10
5675.056627721381
 20
4646.486421636949
 30
0.0
 11
5606.05662772138
 21
4646.486421636949
 31
0.0
  0
LINE
  5
17EF6
330
747D
100
AcDbEntity
  8
細線
100
AcDbLine
 10
5675.056627721381
 20
4634.486421636949
 30
0.0
 11
5601.05662772138
 21
4634.486421636949
 31
0.0
  0
LINE
  5
17EF7
330
747D
100
AcDbEntity
  8
細線
100
AcDbLine
 10
5675.056627721381
 20
4640.486421636949
 30
0.0
 11
5601.05662772138
 21
4640.486421636949
 31
0.0
  0
LINE
  5
17EF8
330
747D
100
AcDbEntity
  8
細線
100
AcDbLine
 10
5675.056627721381
 20
4646.486421636949
 30
0.0
 11
5601.05662772138
 21
4646.486421636949
 31
0.0
  0
LINE
  5
17EF9
330
747D
100
AcDbEntity
  8
部品1
 48
0.01
100
AcDbLine
 10
5513.05662772138
 20
4658.986421636949
 30
0.0
 11
5689.05662772138
 21
4658.986421636949
 31
0.0
  0
LINE
  5
17EFA
330
747D
100
AcDbEntity
  8
部品1
 48
0.01
100
AcDbLine
 10
5691.05662772138
 20
4656.98642163695
 30
0.0
 11
5691.05662772138
 21
4625.486421636949
 31
0.0
  0
LINE
  5
17EFB
330
747D
100
AcDbEntity
  8
部品1
 48
0.01
100
AcDbLine
 10
5689.05662772138
 20
4623.48642163695
 30
0.0
 11
5513.05662772138
 21
4623.48642163695
 31
0.0
  0
LINE
  5
17EFC
330
747D
100
AcDbEntity
  8
部品1
 48
0.01
100
AcDbLine
 10
5511.05662772138
 20
4625.486421636949
 30
0.0
 11
5511.05662772138
 21
4656.98642163695
 31
0.0
  0
LINE
  5
17EFD
330
747D
100
AcDbEntity
  8
細線
100
AcDbLine
 10
5675.056627721381
 20
4652.486421636949
 30
0.0
 11
5675.056627721381
 21
4629.48642163695
 31
0.0
  0
LINE
  5
17EFE
330
747D
100
AcDbEntity
  8
細線
100
AcDbLine
 10
5527.05662772138
 20
4629.48642163695
 30
0.0
 11
5527.05662772138
 21
4652.486421636949
 31
0.0
  0
LINE
  5
17EFF
330
747D
100
AcDbEntity
  8
細線
100
AcDbLine
 10
5527.05662772138
 20
4652.486421636949
 30
0.0
 11
5601.05662772138
 21
4652.486421636949
 31
0.0
  0
LINE
  5
17F00
330
747D
100
AcDbEntity
  8
細線
100
AcDbLine
 10
5675.056627721381
 20
4629.48642163695
 30
0.0
 11
5601.05662772138
 21
4629.48642163695
 31
0.0
  0
LINE
  5
17F01
330
747D
100
AcDbEntity
  8
細線
100
AcDbLine
 10
5601.05662772138
 20
4652.486421636949
 30
0.0
 11
5675.056627721381
 21
4652.486421636949
 31
0.0
  0
LINE
  5
17F02
330
747D
100
AcDbEntity
  8
細線
100
AcDbLine
 10
5601.05662772138
 20
4629.48642163695
 30
0.0
 11
5527.05662772138
 21
4629.48642163695
 31
0.0
  0
ARC
  5
17F03
330
747D
100
AcDbEntity
  8
部品1
 48
0.01
100
AcDbCircle
 10
5689.05662772138
 20
4656.98642163695
 30
0.0
 40
2.0
100
AcDbArc
 50
0.0
 51
90.0
  0
ARC
  5
17F04
330
747D
100
AcDbEntity
  8
部品1
 48
0.01
100
AcDbCircle
 10
5689.05662772138
 20
4625.486421636949
 30
0.0
 40
2.0
100
AcDbArc
 50
270.0
 51
0.0
  0
ARC
  5
17F05
330
747D
100
AcDbEntity
  8
部品1
 48
0.01
100
AcDbCircle
 10
5513.05662772138
 20
4656.98642163695
 30
0.0
 40
2.0
100
AcDbArc
 50
90.0
 51
180.0
  0
ARC
  5
17F06
330
747D
100
AcDbEntity
  8
部品1
 48
0.01
100
AcDbCircle
 10
5513.05662772138
 20
4625.486421636949
 30
0.0
 40
2.0
100
AcDbArc
 50
180.0
 51
270.0
  0
ARC
  5
17F07
330
747D
100
AcDbEntity
  8
部品1
 48
0.01
100
AcDbCircle
 10
5069.05662772138
 20
4625.486421636949
 30
0.0
 40
2.0
100
AcDbArc
 50
270.0
 51
0.0
  0
ARC
  5
17F08
330
747D
100
AcDbEntity
  8
部品1
 48
0.01
100
AcDbCircle
 10
5069.05662772138
 20
4656.98642163695
 30
0.0
 40
2.0
100
AcDbArc
 50
0.0
 51
90.0
  0
ARC
  5
17F09
330
747D
100
AcDbEntity
  8
部品1
 48
0.01
100
AcDbCircle
 10
4893.056627721381
 20
4625.486421636949
 30
0.0
 40
2.0
100
AcDbArc
 50
180.0
 51
270.0
  0
ARC
  5
17F0A
330
747D
100
AcDbEntity
  8
部品1
 48
0.01
100
AcDbCircle
 10
4893.056627721381
 20
4656.98642163695
 30
0.0
 40
2.0
100
AcDbArc
 50
90.0
 51
180.0
  0
LINE
  5
17F0B
330
747D
100
AcDbEntity
  8
細線
100
AcDbLine
 10
4981.05662772138
 20
4629.48642163695
 30
0.0
 11
5055.056627721381
 21
4629.48642163695
 31
0.0
  0
LINE
  5
17F0C
330
747D
100
AcDbEntity
  8
細線
100
AcDbLine
 10
4981.05662772138
 20
4652.486421636949
 30
0.0
 11
4907.05662772138
 21
4652.486421636949
 31
0.0
  0
LINE
  5
17F0D
330
747D
100
AcDbEntity
  8
細線
100
AcDbLine
 10
4907.05662772138
 20
4629.48642163695
 30
0.0
 11
4981.05662772138
 21
4629.48642163695
 31
0.0
  0
LINE
  5
17F0E
330
747D
100
AcDbEntity
  8
細線
100
AcDbLine
 10
5055.056627721381
 20
4652.486421636949
 30
0.0
 11
4981.05662772138
 21
4652.486421636949
 31
0.0
  0
LINE
  5
17F0F
330
747D
100
AcDbEntity
  8
細線
100
AcDbLine
 10
5055.056627721381
 20
4629.48642163695
 30
0.0
 11
5055.056627721381
 21
4652.486421636949
 31
0.0
  0
LINE
  5
17F10
330
747D
100
AcDbEntity
  8
細線
100
AcDbLine
 10
4907.05662772138
 20
4652.486421636949
 30
0.0
 11
4907.05662772138
 21
4629.48642163695
 31
0.0
  0
LINE
  5
17F11
330
747D
100
AcDbEntity
  8
部品1
 48
0.01
100
AcDbLine
 10
5071.05662772138
 20
4625.486421636949
 30
0.0
 11
5071.05662772138
 21
4656.98642163695
 31
0.0
  0
LINE
  5
17F12
330
747D
100
AcDbEntity
  8
部品1
 48
0.01
100
AcDbLine
 10
4893.056627721381
 20
4623.48642163695
 30
0.0
 11
5069.05662772138
 21
4623.48642163695
 31
0.0
  0
LINE
  5
17F13
330
747D
100
AcDbEntity
  8
部品1
 48
0.01
100
AcDbLine
 10
4891.05662772138
 20
4656.98642163695
 30
0.0
 11
4891.05662772138
 21
4625.486421636949
 31
0.0
  0
LINE
  5
17F14
330
747D
100
AcDbEntity
  8
部品1
 48
0.01
100
AcDbLine
 10
5069.05662772138
 20
4658.986421636949
 30
0.0
 11
4893.056627721381
 21
4658.986421636949
 31
0.0
  0
LINE
  5
17F15
330
747D
100
AcDbEntity
  8
細線
100
AcDbLine
 10
4907.05662772138
 20
4646.486421636949
 30
0.0
 11
4981.05662772138
 21
4646.486421636949
 31
0.0
  0
LINE
  5
17F16
330
747D
100
AcDbEntity
  8
細線
100
AcDbLine
 10
4907.05662772138
 20
4640.486421636949
 30
0.0
 11
4981.05662772138
 21
4640.486421636949
 31
0.0
  0
LINE
  5
17F17
330
747D
100
AcDbEntity
  8
細線
100
AcDbLine
 10
4907.05662772138
 20
4634.486421636949
 30
0.0
 11
4981.05662772138
 21
4634.486421636949
 31
0.0
  0
LINE
  5
17F18
330
747D
100
AcDbEntity
  8
細線
100
AcDbLine
 10
4907.05662772138
 20
4646.486421636949
 30
0.0
 11
4976.05662772138
 21
4646.486421636949
 31
0.0
  0
LINE
  5
17F19
330
747D
100
AcDbEntity
  8
細線
100
AcDbLine
 10
5055.056627721381
 20
4646.486421636949
 30
0.0
 11
4981.05662772138
 21
4646.486421636949
 31
0.0
  0
LINE
  5
17F1A
330
747D
100
AcDbEntity
  8
細線
100
AcDbLine
 10
5055.056627721381
 20
4634.486421636949
 30
0.0
 11
4981.05662772138
 21
4634.486421636949
 31
0.0
  0
LINE
  5
17F1B
330
747D
100
AcDbEntity
  8
細線
100
AcDbLine
 10
5055.056627721381
 20
4640.486421636949
 30
0.0
 11
4981.05662772138
 21
4640.486421636949
 31
0.0
  0
LINE
  5
17F1C
330
747D
100
AcDbEntity
  8
細線
100
AcDbLine
 10
4981.05662772138
 20
4652.486421636949
 30
0.0
 11
4981.05662772138
 21
4629.48642163695
 31
0.0
  0
LINE
  5
17F1D
330
747D
100
AcDbEntity
  8
部品1
100
AcDbLine
 10
4666.05662772138
 20
2801.986421636954
 30
0.0
 11
5117.056627721384
 21
2801.986421636957
 31
0.0
  0
LINE
  5
17F1E
330
747D
100
AcDbEntity
  8
部品1
100
AcDbLine
 10
5117.05662772138
 20
2809.486421636963
 30
0.0
 11
5477.444375559691
 21
2809.486421636966
 31
0.0
  0
LINE
  5
17F1F
330
747D
100
AcDbEntity
  8
細線
100
AcDbLine
 10
4666.05662772138
 20
4584.986421636953
 30
0.0
 11
5164.375821311816
 21
4584.986421636953
 31
0.0
  0
LINE
  5
17F20
330
747D
100
AcDbEntity
  8
細線
100
AcDbLine
 10
5194.556627721384
 20
4413.82256294497
 30
0.0
 11
5194.556627721384
 21
3784.162991234886
 31
0.0
  0
LINE
  5
17F21
330
747D
100
AcDbEntity
  8
細線
100
AcDbLine
 10
5264.55662772138
 20
4584.986421636957
 30
0.0
 11
5264.55662772138
 21
4189.595950066041
 31
0.0
  0
LINE
  5
17F22
330
747D
100
AcDbEntity
  8
細線
100
AcDbLine
 10
5334.55662772138
 20
4584.986421636957
 30
0.0
 11
5334.55662772138
 21
3958.840114685582
 31
0.0
  0
LINE
  5
17F23
330
747D
100
AcDbEntity
  8
細線
100
AcDbLine
 10
5404.55662772138
 20
4584.986421636957
 30
0.0
 11
5404.556627721383
 21
3952.715908238766
 31
0.0
  0
LINE
  5
17F24
330
747D
100
AcDbEntity
  8
部品1
100
AcDbLine
 10
5523.056627721381
 20
4584.986421636953
 30
0.0
 11
5523.056627721381
 21
3942.348501610945
 31
0.0
  0
LINE
  5
17F25
330
747D
100
AcDbEntity
  8
細線
100
AcDbLine
 10
4947.056627721384
 20
4584.98642163695
 30
0.0
 11
4947.056627721384
 21
2801.986421636957
 31
0.0
  0
LINE
  5
17F26
330
747D
100
AcDbEntity
  8
細線
100
AcDbLine
 10
5017.056627721384
 20
4584.98642163695
 30
0.0
 11
5017.056627721384
 21
2801.986421636957
 31
0.0
  0
LINE
  5
17F40
330
747D
100
AcDbEntity
  8
部品1
 48
50.0
100
AcDbLine
 10
4701.05662772138
 20
3758.486421636961
 30
0.0
 11
4754.05662772138
 21
3758.486421636961
 31
0.0
  0
LINE
  5
17F44
330
747D
100
AcDbEntity
  8
細線
100
AcDbLine
 10
5603.05662772138
 20
4584.986421636953
 30
0.0
 11
5603.05662772138
 21
2809.486421636972
 31
0.0
  0
LINE
  5
17F45
330
747D
100
AcDbEntity
  8
細線
100
AcDbLine
 10
5673.05662772138
 20
4584.986421636953
 30
0.0
 11
5673.05662772138
 21
2809.486421636972
 31
0.0
  0
LINE
  5
17F46
330
747D
100
AcDbEntity
  8
細線
100
AcDbLine
 10
5743.05662772138
 20
4584.986421636953
 30
0.0
 11
5743.05662772138
 21
2809.486421636972
 31
0.0
  0
LINE
  5
17F47
330
747D
100
AcDbEntity
  8
細線
100
AcDbLine
 10
5813.05662772138
 20
4584.986421636953
 30
0.0
 11
5813.05662772138
 21
2809.486421636972
 31
0.0
  0
LINE
  5
17F48
330
747D
100
AcDbEntity
  8
細線
100
AcDbLine
 10
4785.05662772138
 20
4584.986421636953
 30
0.0
 11
4785.056627721384
 21
2801.986421636955
 31
0.0
  0
LINE
  5
17F49
330
747D
100
AcDbEntity
  8
細線
100
AcDbLine
 10
4819.05662772138
 20
4584.986421636953
 30
0.0
 11
4819.056627721383
 21
2801.986421636955
 31
0.0
  0
LINE
  5
17F4A
330
747D
100
AcDbEntity
  8
部品1
100
AcDbLine
 10
4777.05662772138
 20
4584.986421636953
 30
0.0
 11
4777.056627721384
 21
2801.986421636955
 31
0.0
  0
LINE
  5
17F4B
330
747D
100
AcDbEntity
  8
部品1
100
AcDbLine
 10
4827.05662772138
 20
4584.986421636953
 30
0.0
 11
4827.056627721383
 21
2801.986421636955
 31
0.0
  0
LINE
  5
17F4C
330
747D
100
AcDbEntity
  8
部品1
100
AcDbLine
 10
5117.056627721384
 20
4584.98642163695
 30
0.0
 11
5117.056627721384
 21
3748.024147727873
 31
0.0
  0
LINE
  5
17F4D
330
747D
100
AcDbEntity
  8
部品1
 48
50.0
100
AcDbLine
 10
5146.390469279552
 20
4686.986421636953
 30
0.0
 11
4576.680372288843
 21
4686.986421636953
 31
0.0
  0
LINE
  5
17F4E
330
747D
100
AcDbEntity
  8
細線
 48
50.0
100
AcDbLine
 10
5142.727586138728
 20
4707.759664200882
 30
0.0
 11
4566.451309256627
 21
4707.759664200952
 31
0.0
  0
LINE
  5
17F4F
330
747D
100
AcDbEntity
  8
部品1
 48
50.0
100
AcDbLine
 10
5121.528364999656
 20
4827.986421636952
 30
0.0
 11
4563.465048827805
 21
4827.986421636953
 31
0.0
  0
LINE
  5
17F50
330
747D
100
AcDbEntity
  8
細線
 48
50.0
100
AcDbLine
 10
5126.470238517409
 20
4799.959664200883
 30
0.0
 11
4558.215278731797
 21
4799.959664200953
 31
0.0
  0
LINE
  5
17F51
330
747D
100
AcDbEntity
  8
部品1
100
AcDbLine
 10
8761.302579576975
 20
4797.156361092055
 30
0.0
 11
8756.267538848863
 21
4708.413768259112
 31
0.0
  0
ARC
  5
17F52
330
747D
100
AcDbEntity
  8
部品1
100
AcDbCircle
 10
8758.648206614953
 20
4820.986421636952
 30
0.0
 40
7.0
100
AcDbArc
 50
356.7526572096623
 51
90.0
  0
LINE
  5
17F53
330
747D
100
AcDbEntity
  8
細線
 48
50.0
100
AcDbLine
 10
8733.056627721387
 20
4827.986421636952
 30
0.0
 11
8733.056627721387
 21
4686.986421636951
 31
0.0
  0
LINE
  5
17F54
330
747D
100
AcDbEntity
  8
部品1
100
AcDbLine
 10
8753.06654905213
 20
4704.956361092054
 30
0.0
 11
8752.421643245018
 21
4693.589896241713
 31
0.0
  0
ARC
  5
17F55
330
747D
100
AcDbEntity
  8
部品1
 48
50.0
100
AcDbCircle
 10
8756.061731948316
 20
4704.786421636951
 30
0.0
 40
3.0
100
AcDbArc
 50
97.65812720715343
 51
176.7526572096623
  0
ARC
  5
17F56
330
747D
100
AcDbEntity
  8
部品1
 48
50.0
100
AcDbCircle
 10
8755.568662839754
 20
4708.453420798634
 30
0.0
 40
0.7
100
AcDbArc
 50
277.6581272075735
 51
356.7526572097013
  0
ARC
  5
17F57
330
747D
100
AcDbEntity
  8
部品1
100
AcDbCircle
 10
8745.432883153918
 20
4693.986421636953
 30
0.0
 40
7.0
100
AcDbArc
 50
270.0
 51
356.7526572096623
  0
LINE
  5
17F58
330
747D
100
AcDbEntity
  8
部品1
100
AcDbLine
 10
8765.636966706052
 20
4820.589896241712
 30
0.0
 11
8764.503569373706
 21
4800.613768259112
 31
0.0
  0
ARC
  5
17F59
330
747D
100
AcDbEntity
  8
部品1
 48
50.0
100
AcDbCircle
 10
8764.297762473161
 20
4796.986421636954
 30
0.0
 40
3.0
100
AcDbArc
 50
97.65812720715343
 51
176.7526572096623
  0
ARC
  5
17F5A
330
747D
100
AcDbEntity
  8
部品1
 48
50.0
100
AcDbCircle
 10
8763.804693364598
 20
4800.653420798639
 30
0.0
 40
0.7
100
AcDbArc
 50
277.6581272075735
 51
356.7526572096103
  0
DIMENSION
  5
17F5B
330
747D
100
AcDbEntity
  8
寸法
 48
50.0
100
AcDbDimension
  2
*D17
 10
8716.056627721386
 20
5040.528006895192
 30
0.0
 11
9079.541909095622
 21
5040.528006895192
 31
0.0
 70
   160
 71
     5
 42
50.0
  3
INABA_S40G
100
AcDbAlignedDimension
 13
8766.056627721386
 23
4827.986421636952
 33
0.0
 14
8716.056627721386
 24
4827.986421636953
 34
0.0
100
AcDbRotatedDimension
  0
LINE
  5
17F5C
330
747D
100
AcDbEntity
  8
部品1
 48
50.0
100
AcDbLine
 10
8745.432883153918
 20
4686.986421636946
 30
0.0
 11
5176.853267636121
 21
4686.986421636953
 31
0.0
  0
LINE
  5
17F5D
330
747D
100
AcDbEntity
  8
細線
 48
50.0
100
AcDbLine
 10
8755.661946184922
 20
4707.759664200457
 30
0.0
 11
5173.190384495302
 21
4707.759664200879
 31
0.0
  0
LINE
  5
17F5E
330
747D
100
AcDbEntity
  8
細線
 48
50.0
100
AcDbLine
 10
8763.897976709698
 20
4799.959664200453
 30
0.0
 11
5156.933036873983
 21
4799.959664200882
 31
0.0
  0
LINE
  5
17F5F
330
747D
100
AcDbEntity
  8
部品1
 48
50.0
100
AcDbLine
 10
8758.648206614953
 20
4827.986421636953
 30
0.0
 11
5151.991163356229
 21
4827.986421636953
 31
0.0
  0
DIMENSION
  5
17F60
330
747D
100
AcDbEntity
  8
寸法
 48
50.0
100
AcDbDimension
  2
*D18
 10
4606.05662772138
 20
5040.528006895196
 30
0.0
 11
6661.056627721383
 21
5040.528006895196
 31
0.0
 70
   160
  1
柱外寸法 N x 1370
 71
     5
 42
4110.000000000005
  3
INABA_S40G
100
AcDbAlignedDimension
 13
8716.056627721386
 23
4827.986421636953
 33
0.0
 14
4606.05662772138
 24
4827.986421636959
 34
0.0
100
AcDbRotatedDimension
  0
DIMENSION
  5
17F61
330
747D
100
AcDbEntity
  8
寸法
 48
50.0
100
AcDbDimension
  2
*D19
 10
8766.056627721386
 20
5263.484985333045
 30
0.0
 11
6661.056627721383
 21
5263.484985333045
 31
0.0
 70
   160
  1
N x 1370 +100
 71
     5
 42
4210.000000000006
  3
INABA_S40G
100
AcDbAlignedDimension
 13
4556.05662772138
 23
4827.986421636957
 33
0.0
 14
8766.056627721386
 24
4827.986421636952
 34
0.0
100
AcDbRotatedDimension
  0
DIMENSION
  5
17F62
330
747D
100
AcDbEntity
  8
寸法
 48
50.0
100
AcDbDimension
  2
*D20
 10
4556.05662772138
 20
5040.528006895196
 30
0.0
 11
4242.571346347133
 21
5040.528006895196
 31
0.0
 70
   160
 71
     5
 42
50.0
  3
INABA_S40G
100
AcDbAlignedDimension
 13
4606.05662772138
 23
4827.986421636959
 33
0.0
 14
4556.05662772138
 24
4827.986421636957
 34
0.0
100
AcDbRotatedDimension
1001
ACAD
1000
DSTYLE
1002
{
1002
}
  0
LINE
  5
17F63
330
747D
100
AcDbEntity
  8
部品1
100
AcDbLine
 10
4556.47628873671
 20
4820.589896241716
 30
0.0
 11
4557.609686069059
 21
4800.613768259118
 31
0.0
  0
LINE
  5
17F64
330
747D
100
AcDbEntity
  8
部品1
100
AcDbLine
 10
4569.046706390632
 20
4704.956361092059
 30
0.0
 11
4569.691612197749
 21
4693.589896241716
 31
0.0
  0
LINE
  5
17F65
330
747D
100
AcDbEntity
  8
部品1
100
AcDbLine
 10
4560.810675865789
 20
4797.15636109206
 30
0.0
 11
4565.845716593896
 21
4708.413768259116
 31
0.0
  0
ARC
  5
17F66
330
747D
100
AcDbEntity
  8
部品1
 48
50.0
100
AcDbCircle
 10
4557.815492969603
 20
4796.986421636957
 30
0.0
 40
3.0
100
AcDbArc
 50
3.247342790337682
 51
82.34187279284659
  0
ARC
  5
17F67
330
747D
100
AcDbEntity
  8
部品1
 48
50.0
100
AcDbCircle
 10
4566.051523494446
 20
4704.786421636955
 30
0.0
 40
3.0
100
AcDbArc
 50
3.247342790337682
 51
82.34187279284659
  0
ARC
  5
17F68
330
747D
100
AcDbEntity
  8
部品1
 48
50.0
100
AcDbCircle
 10
4566.544592603007
 20
4708.453420798639
 30
0.0
 40
0.7
100
AcDbArc
 50
183.2473427902987
 51
262.3418727924265
  0
ARC
  5
17F69
330
747D
100
AcDbEntity
  8
部品1
 48
50.0
100
AcDbCircle
 10
4558.308562078171
 20
4800.653420798644
 30
0.0
 40
0.7
100
AcDbArc
 50
183.2473427903897
 51
262.3418727924265
  0
ARC
  5
17F6A
330
747D
100
AcDbEntity
  8
部品1
100
AcDbCircle
 10
4576.680372288843
 20
4693.986421636957
 30
0.0
 40
7.0
100
AcDbArc
 50
183.2473427903377
 51
270.0
  0
ARC
  5
17F6B
330
747D
100
AcDbEntity
  8
部品1
100
AcDbCircle
 10
4563.465048827805
 20
4820.986421636956
 30
0.0
 40
7.0
100
AcDbArc
 50
90.0
 51
183.2473427903377
  0
LINE
  5
17F6C
330
747D
100
AcDbEntity
  8
細線
 48
50.0
100
AcDbLine
 10
4589.05662772138
 20
4827.986421636957
 30
0.0
 11
4589.05662772138
 21
4686.986421636953
 31
0.0
  0
TEXT
  5
17F6D
330
747D
100
AcDbEntity
  8
文字
 62
     7
 48
50.0
100
AcDbText
 10
13583.11819016568
 20
8550.013745883727
 30
0.0
 40
100.0
  1
アンカープレート
  7
STYLE1
100
AcDbText
  0
TEXT
  5
17F6E
330
747D
100
AcDbEntity
  8
文字
 62
     7
 48
50.0
100
AcDbText
 10
15022.63965474514
 20
8550.013745883722
 30
0.0
 40
100.0
  1
F12            2.3
  7
STYLE1
100
AcDbText
  0
LINE
  5
17F6F
330
747D
100
AcDbEntity
  8
仕様書枠
 48
50.0
100
AcDbLine
 10
16307.19999999999
 20
9879.599999999999
 30
0.0
 11
13127.19999999999
 21
9879.600000000001
 31
0.0
  0
LINE
  5
17F70
330
747D
100
AcDbEntity
  8
仕様書枠
 48
50.0
100
AcDbLine
 10
16307.19999999999
 20
11409.6
 30
0.0
 11
13127.2
 21
11409.6
 31
0.0
  0
LINE
  5
17F71
330
747D
100
AcDbEntity
  8
仕様書枠
 48
50.0
100
AcDbLine
 10
16307.19999999999
 20
8179.600000000002
 30
0.0
 11
16307.2
 21
11409.6
 31
0.0
  0
LINE
  5
17F72
330
747D
100
AcDbEntity
  8
仕様書枠
 48
50.0
100
AcDbLine
 10
14785.2
 20
11409.59999999999
 30
0.0
 11
14785.19999999999
 21
8519.600000000004
 31
0.0
  0
LINE
  5
17F73
330
747D
100
AcDbEntity
  8
仕様書枠
 48
50.0
100
AcDbLine
 10
13490.2
 20
11409.6
 30
0.0
 11
13490.20000000001
 21
8519.600000000004
 31
0.0
  0
LINE
  5
17F74
330
747D
100
AcDbEntity
  8
仕様書枠
 48
50.0
100
AcDbLine
 10
16307.19999999999
 20
11239.6
 30
0.0
 11
13127.2
 21
11239.6
 31
0.0
  0
LINE
  5
17F75
330
747D
100
AcDbEntity
  8
仕様書枠
 48
50.0
100
AcDbLine
 10
16307.19999999999
 20
10899.6
 30
0.0
 11
13127.2
 21
10899.6
 31
0.0
  0
LINE
  5
17F76
330
747D
100
AcDbEntity
  8
仕様書枠
 48
50.0
100
AcDbLine
 10
16307.19999999999
 20
11069.6
 30
0.0
 11
13127.2
 21
11069.6
 31
0.0
  0
LINE
  5
17F77
330
747D
100
AcDbEntity
  8
仕様書枠
 48
50.0
100
AcDbLine
 10
16307.19999999999
 20
10559.6
 30
0.0
 11
13127.19999999999
 21
10559.6
 31
0.0
  0
LINE
  5
17F78
330
747D
100
AcDbEntity
  8
仕様書枠
 48
50.0
100
AcDbLine
 10
16307.19999999999
 20
10389.6
 30
0.0
 11
13127.19999999999
 21
10389.6
 31
0.0
  0
LINE
  5
17F79
330
747D
100
AcDbEntity
  8
仕様書枠
 48
50.0
100
AcDbLine
 10
16307.19999999999
 20
10729.6
 30
0.0
 11
13127.19999999999
 21
10729.6
 31
0.0
  0
TEXT
  5
17F7A
330
747D
100
AcDbEntity
  8
文字
 62
     7
 48
50.0
100
AcDbText
 10
13197.42518560407
 20
11270.01374588372
 30
0.0
 40
100.0
  1
品番
  7
STYLE1
100
AcDbText
  0
TEXT
  5
17F7B
330
747D
100
AcDbEntity
  8
文字
 62
     7
 48
50.0
100
AcDbText
 10
13271.19032244792
 20
11100.01374588373
 30
0.0
 40
100.0
  1
1
  7
STYLE1
100
AcDbText
  0
TEXT
  5
17F7C
330
747D
100
AcDbEntity
  8
文字
 62
     7
 48
50.0
100
AcDbText
 10
13271.19032244792
 20
10930.01374588373
 30
0.0
 40
100.0
  1
2
  7
STYLE1
100
AcDbText
  0
TEXT
  5
17F7D
330
747D
100
AcDbEntity
  8
文字
 62
     7
 48
50.0
100
AcDbText
 10
13271.19032244792
 20
10590.01374588373
 30
0.0
 40
100.0
  1
4
  7
STYLE1
100
AcDbText
  0
TEXT
  5
17F7E
330
747D
100
AcDbEntity
  8
文字
 62
     7
 48
50.0
100
AcDbText
 10
13271.19032244792
 20
10760.01374588373
 30
0.0
 40
100.0
  1
3
  7
STYLE1
100
AcDbText
  0
TEXT
  5
17F7F
330
747D
100
AcDbEntity
  8
文字
 62
     7
 48
50.0
100
AcDbText
 10
13732.03840939434
 20
11270.01374588372
 30
0.0
 40
100.0
  1
部　　品　　名
  7
STYLE1
100
AcDbText
  0
TEXT
  5
17F80
330
747D
100
AcDbEntity
  8
文字
 62
     7
 48
50.0
100
AcDbText
 10
14859.79774614482
 20
11270.01374588372
 30
0.0
 40
100.0
  1
材料（材質）　　単位mm
  7
STYLE1
100
AcDbText
  0
TEXT
  5
17F81
330
747D
100
AcDbEntity
  8
文字
 62
     7
 48
50.0
100
AcDbText
 10
13583.11819016569
 20
11100.01374588373
 30
0.0
 40
100.0
  1
土台枠
  7
STYLE1
100
AcDbText
  0
TEXT
  5
17F82
330
747D
100
AcDbEntity
  8
文字
 62
     7
 48
50.0
100
AcDbText
 10
13583.11819016569
 20
10760.01374588372
 30
0.0
 40
100.0
  1
柱
  7
STYLE1
100
AcDbText
  0
TEXT
  5
17F83
330
747D
100
AcDbEntity
  8
文字
 62
     7
 48
50.0
100
AcDbText
 10
13583.11819016569
 20
10420.01374588372
 30
0.0
 40
100.0
  1
鴨居
  7
STYLE1
100
AcDbText
  0
TEXT
  5
17F84
330
747D
100
AcDbEntity
  8
文字
 62
     7
 48
50.0
100
AcDbText
 10
13583.11819016569
 20
10250.01374588373
 30
0.0
 40
100.0
  1
桁後
  7
STYLE1
100
AcDbText
  0
TEXT
  5
17F85
330
747D
100
AcDbEntity
  8
文字
 62
     7
 48
50.0
100
AcDbText
 10
13271.19032244792
 20
10420.01374588372
 30
0.0
 40
100.0
  1
5
  7
STYLE1
100
AcDbText
  0
TEXT
  5
17F86
330
747D
100
AcDbEntity
  8
文字
 62
     7
 48
50.0
100
AcDbText
 10
13583.11819016569
 20
10080.01374588372
 30
0.0
 40
100.0
  1
妻板左右
  7
STYLE1
100
AcDbText
  0
TEXT
  5
17F87
330
747D
100
AcDbEntity
  8
文字
 62
     7
 48
50.0
100
AcDbText
 10
13248.77747366447
 20
9570.013745883727
 30
0.0
 40
100.0
  1
10
  7
STYLE1
100
AcDbText
  0
TEXT
  5
17F88
330
747D
100
AcDbEntity
  8
文字
 62
     7
 48
50.0
100
AcDbText
 10
13583.11819016568
 20
9230.013745883729
 30
0.0
 40
100.0
  1
壁パネル
  7
STYLE1
100
AcDbText
  0
TEXT
  5
17F89
330
747D
100
AcDbEntity
  8
文字
 62
     7
 48
50.0
100
AcDbText
 10
13583.11819016569
 20
9400.013745883727
 30
0.0
 40
100.0
  1
屋根パネル
  7
STYLE1
100
AcDbText
  0
TEXT
  5
17F8A
330
747D
100
AcDbEntity
  8
文字
 62
     7
 48
50.0
100
AcDbText
 10
13583.11819016569
 20
9910.013745883727
 30
0.0
 40
100.0
  1
鼻隠シ前後
  7
STYLE1
100
AcDbText
  0
TEXT
  5
17F8B
330
747D
100
AcDbEntity
  8
文字
 62
     7
 48
50.0
100
AcDbText
 10
13271.19032244792
 20
9910.01374588373
 30
0.0
 40
100.0
  1
8
  7
STYLE1
100
AcDbText
  0
TEXT
  5
17F8C
330
747D
100
AcDbEntity
  8
文字
 62
     7
 48
50.0
100
AcDbText
 10
13271.19032244792
 20
9740.013745883729
 30
0.0
 40
100.0
  1
9
  7
STYLE1
100
AcDbText
  0
TEXT
  5
17F8D
330
747D
100
AcDbEntity
  8
文字
 62
     7
 48
50.0
100
AcDbText
 10
13271.19032244792
 20
10080.01374588373
 30
0.0
 40
100.0
  1
7
  7
STYLE1
100
AcDbText
  0
TEXT
  5
17F8E
330
747D
100
AcDbEntity
  8
文字
 62
     7
 48
50.0
100
AcDbText
 10
13271.19032244792
 20
10250.01374588373
 30
0.0
 40
100.0
  1
6
  7
STYLE1
100
AcDbText
  0
LINE
  5
17F8F
330
747D
100
AcDbEntity
  8
仕様書枠
 48
50.0
100
AcDbLine
 10
16307.19999999999
 20
9539.599999999998
 30
0.0
 11
13127.19999999999
 21
9539.6
 31
0.0
  0
LINE
  5
17F90
330
747D
100
AcDbEntity
  8
仕様書枠
 48
50.0
100
AcDbLine
 10
16307.19999999999
 20
9199.599999999998
 30
0.0
 11
13127.19999999999
 21
9199.600000000001
 31
0.0
  0
LINE
  5
17F91
330
747D
100
AcDbEntity
  8
仕様書枠
 48
50.0
100
AcDbLine
 10
16307.19999999999
 20
9369.599999999998
 30
0.0
 11
13127.19999999999
 21
9369.600000000001
 31
0.0
  0
LINE
  5
17F92
330
747D
100
AcDbEntity
  8
仕様書枠
 48
50.0
100
AcDbLine
 10
16307.19999999999
 20
10219.6
 30
0.0
 11
13127.2
 21
10219.6
 31
0.0
  0
LINE
  5
17F93
330
747D
100
AcDbEntity
  8
仕様書枠
 48
50.0
100
AcDbLine
 10
16307.19999999999
 20
9709.6
 30
0.0
 11
13127.19999999999
 21
9709.600000000001
 31
0.0
  0
TEXT
  5
17F94
330
747D
100
AcDbEntity
  8
文字
 62
     7
 48
50.0
100
AcDbText
 10
13248.77747366447
 20
9400.013745883727
 30
0.0
 40
100.0
  1
11
  7
STYLE1
100
AcDbText
  0
LINE
  5
17F95
330
747D
100
AcDbEntity
  8
仕様書枠
 48
50.0
100
AcDbLine
 10
16307.19999999999
 20
9029.6
 30
0.0
 11
13127.19999999999
 21
9029.6
 31
0.0
  0
LINE
  5
17F96
330
747D
100
AcDbEntity
  8
仕様書枠
 48
50.0
100
AcDbLine
 10
16307.19999999999
 20
8689.6
 30
0.0
 11
13127.19999999999
 21
8689.600000000003
 31
0.0
  0
TEXT
  5
17F97
330
747D
100
AcDbEntity
  8
文字
 62
     7
 48
50.0
100
AcDbText
 10
13248.77747366447
 20
9060.013745883729
 30
0.0
 40
100.0
  1
13
  7
STYLE1
100
AcDbText
  0
TEXT
  5
17F98
330
747D
100
AcDbEntity
  8
文字
 62
     7
 48
50.0
100
AcDbText
 10
13248.77747366447
 20
9230.013745883729
 30
0.0
 40
100.0
  1
12
  7
STYLE1
100
AcDbText
  0
TEXT
  5
17F99
330
747D
100
AcDbEntity
  8
文字
 62
     7
 48
50.0
100
AcDbText
 10
15022.63965474517
 20
11100.01374588372
 30
0.0
 40
100.0
  1
F12            1.2
  7
STYLE1
100
AcDbText
  0
TEXT
  5
17F9A
330
747D
100
AcDbEntity
  8
文字
 62
     7
 48
50.0
100
AcDbText
 10
15022.63965474517
 20
10760.01374588372
 30
0.0
 40
100.0
  1
F12            1.0
  7
STYLE1
100
AcDbText
  0
TEXT
  5
17F9B
330
747D
100
AcDbEntity
  8
文字
 62
     7
 48
50.0
100
AcDbText
 10
15022.63965474516
 20
10420.01374588372
 30
0.0
 40
100.0
  1
Y10            1.0
  7
STYLE1
100
AcDbText
  0
TEXT
  5
17F9C
330
747D
100
AcDbEntity
  8
文字
 62
     7
 48
50.0
100
AcDbText
 10
15022.63965474516
 20
10250.01374588372
 30
0.0
 40
100.0
  1
Y10            1.0
  7
STYLE1
100
AcDbText
  0
TEXT
  5
17F9D
330
747D
100
AcDbEntity
  8
文字
 62
     7
 48
50.0
100
AcDbText
 10
15022.63965474516
 20
10080.01374588372
 30
0.0
 40
100.0
  1
Y10            0.7
  7
STYLE1
100
AcDbText
  0
TEXT
  5
17F9E
330
747D
100
AcDbEntity
  8
文字
 62
     7
 48
50.0
100
AcDbText
 10
15022.63965474516
 20
9910.013745883725
 30
0.0
 40
100.0
  1
Y10            0.7
  7
STYLE1
100
AcDbText
  0
TEXT
  5
17F9F
330
747D
100
AcDbEntity
  8
文字
 62
     7
 48
50.0
100
AcDbText
 10
15022.63965474517
 20
9400.013745883725
 30
0.0
 40
100.0
  1
Y10            0.5
  7
STYLE1
100
AcDbText
  0
TEXT
  5
17FA0
330
747D
100
AcDbEntity
  8
文字
 62
     7
 48
50.0
100
AcDbText
 10
15022.63965474515
 20
9230.013745883725
 30
0.0
 40
100.0
  1
F12            0.6
  7
STYLE1
100
AcDbText
  0
LINE
  5
17FA1
330
747D
100
AcDbEntity
  8
仕様書枠
 48
50.0
100
AcDbLine
 10
16307.19999999998
 20
8519.600000000002
 30
0.0
 11
13127.19999999999
 21
8519.600000000004
 31
0.0
  0
LINE
  5
17FA2
330
747D
100
AcDbEntity
  8
仕様書枠
 48
50.0
100
AcDbLine
 10
16307.19999999998
 20
8349.600000000002
 30
0.0
 11
13127.19999999999
 21
8349.600000000004
 31
0.0
  0
TEXT
  5
17FA3
330
747D
100
AcDbEntity
  8
文字
 62
     7
 48
50.0
100
AcDbText
 10
13229.83081656553
 20
8380.013745883733
 30
0.0
 40
100.0
  1
F12→溶融亜鉛めっき鋼板(JIS G 3302)
  7
STYLE1
100
AcDbText
  0
TEXT
  5
17FA4
330
747D
100
AcDbEntity
  8
文字
 62
     7
 48
50.0
100
AcDbText
 10
13229.83081656553
 20
8210.013745883733
 30
0.0
 40
100.0
  1
Y10→溶融亜鉛-5％アルミニウム合金めっき鋼板(JIS G 3317)
 41
0.9
  7
STYLE1
100
AcDbText
  0
LINE
  5
17FA5
330
747D
100
AcDbEntity
  8
仕様書枠
 48
50.0
100
AcDbLine
 10
13127.2
 20
11409.6
 30
0.0
 11
13127.19999999999
 21
8179.600000000004
 31
0.0
  0
LINE
  5
17FA6
330
747D
100
AcDbEntity
  8
仕様書枠
 48
50.0
100
AcDbLine
 10
16307.19999999999
 20
8859.6
 30
0.0
 11
13127.19999999999
 21
8859.600000000002
 31
0.0
  0
TEXT
  5
17FA7
330
747D
100
AcDbEntity
  8
文字
 62
     7
 48
50.0
100
AcDbText
 10
13583.11819016569
 20
10590.01374588373
 30
0.0
 40
100.0
  1
床パネル
 41
0.9
  7
STYLE1
100
AcDbText
  0
TEXT
  5
17FA8
330
747D
100
AcDbEntity
  8
文字
 62
     7
 48
50.0
100
AcDbText
 10
13248.77747366447
 20
8890.013745883729
 30
0.0
 40
100.0
  1
14
  7
STYLE1
100
AcDbText
  0
TEXT
  5
17FA9
330
747D
100
AcDbEntity
  8
文字
 62
     7
 48
50.0
100
AcDbText
 10
15022.63965474516
 20
10590.01374588372
 30
0.0
 40
100.0
  1
F12            1.0
  7
STYLE1
100
AcDbText
  0
TEXT
  5
17FAA
330
747D
100
AcDbEntity
  8
文字
 62
     7
 48
50.0
100
AcDbText
 10
14269.60464131317
 20
483.8967129911416
 30
0.0
 40
160.0
  1
ＮＸＮ－３６ＣＳＬ－Ｎ
  7
STYLE2
100
AcDbText
  0
TEXT
  5
17FAB
330
747D
100
AcDbEntity
  8
文字
 62
     7
 48
50.0
100
AcDbText
 10
15022.63965474514
 20
9060.013745883725
 30
0.0
 40
100.0
  1
F12            0.7
  7
STYLE1
100
AcDbText
  0
TEXT
  5
17FAC
330
747D
100
AcDbEntity
  8
文字
 62
     7
 48
50.0
100
AcDbText
 10
13583.11819016567
 20
9060.013745883729
 30
0.0
 40
100.0
  1
正面パネル
  7
STYLE1
100
AcDbText
  0
TEXT
  5
17FAD
330
747D
100
AcDbEntity
  8
文字
 62
     7
 48
50.0
100
AcDbText
 10
15022.63965474515
 20
8890.013745883726
 30
0.0
 40
100.0
  1
F12            0.8
  7
STYLE1
100
AcDbText
  0
TEXT
  5
17FAE
330
747D
100
AcDbEntity
  8
文字
 62
     7
 48
50.0
100
AcDbText
 10
13583.11819016568
 20
8890.013745883729
 30
0.0
 40
100.0
  1
扉
  7
STYLE1
100
AcDbText
  0
TEXT
  5
17FAF
330
747D
100
AcDbEntity
  8
文字
 62
     7
 48
50.0
100
AcDbText
 10
15022.63965474515
 20
8720.013745883727
 30
0.0
 40
100.0
  1
F12            0.6
  7
STYLE1
100
AcDbText
  0
TEXT
  5
17FB0
330
747D
100
AcDbEntity
  8
文字
 62
     7
 48
50.0
100
AcDbText
 10
13583.11819016568
 20
8720.013745883731
 30
0.0
 40
100.0
  1
棚板
  7
STYLE1
100
AcDbText
  0
TEXT
  5
17FB1
330
747D
100
AcDbEntity
  8
文字
 62
     7
 48
50.0
100
AcDbText
 10
13583.11819016569
 20
9570.013745883727
 30
0.0
 40
100.0
  1
母屋中
  7
STYLE1
100
AcDbText
  0
TEXT
  5
17FB2
330
747D
100
AcDbEntity
  8
文字
 62
     7
 48
50.0
100
AcDbText
 10
15022.63965474516
 20
9570.013745883725
 30
0.0
 40
100.0
  1
F12            1.0
  7
STYLE1
100
AcDbText
  0
LINE
  5
17FB3
330
747D
100
AcDbEntity
  8
部品1
100
AcDbLine
 10
12358.58934264308
 20
2154.933503909608
 30
0.0
 11
11595.11867641464
 21
2154.933503909608
 31
0.0
  0
LINE
  5
17FB4
330
747D
100
AcDbEntity
  8
部品1
100
AcDbLine
 10
12358.58934264308
 20
1915.041182364075
 30
0.0
 11
12358.58934264308
 21
2154.933503909608
 31
0.0
  0
LINE
  5
17FB5
330
747D
100
AcDbEntity
  8
部品1
100
AcDbLine
 10
11595.11867641464
 20
1915.041182364075
 30
0.0
 11
12358.58934264308
 21
1915.041182364075
 31
0.0
  0
LINE
  5
17FB6
330
747D
100
AcDbEntity
  8
部品1
100
AcDbLine
 10
11595.11867641464
 20
2154.933503909608
 30
0.0
 11
11595.11867641464
 21
1915.041182364075
 31
0.0
  0
LINE
  5
17FB7
330
747D
100
AcDbEntity
  8
部品1
100
AcDbLine
 10
6994.932168755882
 20
2154.933503909608
 30
0.0
 11
6231.461502527441
 21
2154.933503909608
 31
0.0
  0
LINE
  5
17FB8
330
747D
100
AcDbEntity
  8
部品1
100
AcDbLine
 10
6994.932168755882
 20
1915.041182364076
 30
0.0
 11
6994.932168755882
 21
2154.933503909608
 31
0.0
  0
LINE
  5
17FB9
330
747D
100
AcDbEntity
  8
部品1
100
AcDbLine
 10
6231.461502527441
 20
1915.041182364076
 30
0.0
 11
6994.932168755882
 21
1915.041182364076
 31
0.0
  0
LINE
  5
17FBA
330
747D
100
AcDbEntity
  8
部品1
100
AcDbLine
 10
6231.461502527441
 20
2154.933503909608
 30
0.0
 11
6231.461502527441
 21
1915.041182364076
 31
0.0
  0
LINE
  5
17FBB
330
747D
100
AcDbEntity
  8
部品1
100
AcDbLine
 10
8656.056627721381
 20
4592.98642163695
 30
0.0
 11
8656.056627721381
 21
2794.98642163697
 31
0.0
  0
LINE
  5
17FBC
330
747D
100
AcDbEntity
  8
部品1
100
AcDbLine
 10
8716.056627721382
 20
4686.986421636946
 30
0.0
 11
8716.056627721382
 21
2652.98642163695
 31
0.0
  0
LINE
  5
17FBD
330
747D
100
AcDbEntity
  8
細線
 48
50.0
100
AcDbLine
 10
7346.05662772138
 20
4592.98642163695
 30
0.0
 11
7346.056627721385
 21
4686.98642163695
 31
0.0
  0
LINE
  5
17FBE
330
747D
100
AcDbEntity
  8
部品1
100
AcDbLine
 10
7346.056627721383
 20
2794.986421636965
 30
0.0
 11
7346.056627721383
 21
2752.98642163695
 31
0.0
  0
LINE
  5
17FBF
330
747D
100
AcDbEntity
  8
部品1
100
AcDbLine
 10
7406.056627721382
 20
4592.98642163695
 30
0.0
 11
7406.056627721382
 21
2794.986421636953
 31
0.0
  0
LINE
  5
17FC0
330
747D
100
AcDbEntity
  8
部品1
100
AcDbLine
 10
6036.05662772138
 20
4592.98642163695
 30
0.0
 11
6036.05662772138
 21
2794.986421636953
 31
0.0
  0
LINE
  5
17FC1
330
747D
100
AcDbEntity
  8
部品1
100
AcDbLine
 10
7286.056627721382
 20
4592.98642163695
 30
0.0
 11
7286.056627721382
 21
2794.986421636953
 31
0.0
  0
LINE
  5
17FC2
330
747D
100
AcDbEntity
  8
細線
 48
50.0
100
AcDbLine
 10
5976.05662772138
 20
4592.98642163695
 30
0.0
 11
5976.05662772138
 21
4686.986421636953
 31
0.0
  0
LINE
  5
17FC3
330
747D
100
AcDbEntity
  8
寸法
 48
50.0
100
AcDbLine
 10
5304.785845146557
 20
3961.444720665173
 30
0.0
 11
5591.863119836315
 21
3936.328713573902
 31
0.0
  0
LINE
  5
17FC4
330
747D
100
AcDbEntity
  8
寸法
 48
50.0
100
AcDbLine
 10
5279.238960550312
 20
3933.56518832945
 30
0.0
 11
5477.712970728611
 21
3916.200962434319
 31
0.0
  0
LINE
  5
17FC5
330
747D
100
AcDbEntity
  8
寸法
 48
50.0
100
AcDbLine
 10
5323.050381389254
 20
3685.098273833925
 30
0.0
 11
5035.973106699501
 21
3710.214280925197
 31
0.0
  0
LINE
  5
17FC6
330
747D
100
AcDbEntity
  8
寸法
 48
50.0
100
AcDbLine
 10
5348.597265985503
 20
3712.977806169647
 30
0.0
 11
5150.123255807208
 21
3730.342032064778
 31
0.0
  0
LINE
  5
17FC7
330
747D
100
AcDbEntity
  8
寸法
 48
50.0
100
AcDbLine
 10
5591.863119836315
 20
3936.328713573902
 30
0.0
 11
5150.123255807205
 21
3730.342032064778
 31
0.0
  0
LINE
  5
17FC8
330
747D
100
AcDbEntity
  8
寸法
 48
50.0
100
AcDbLine
 10
5477.712970728611
 20
3916.200962434319
 30
0.0
 11
5035.973106699501
 21
3710.214280925197
 31
0.0
  0
LINE
  5
17FC9
330
747D
100
AcDbEntity
  8
部品1
100
AcDbLine
 10
4606.05662772138
 20
4592.98642163695
 30
0.0
 11
5162.965205466146
 21
4592.98642163695
 31
0.0
  0
LINE
  5
17FCA
330
747D
100
AcDbEntity
  8
部品1
100
AcDbLine
 10
5976.05662772138
 20
2794.986421636965
 30
0.0
 11
5976.05662772138
 21
2752.98642163695
 31
0.0
  0
LINE
  5
17FCB
330
747D
100
AcDbEntity
  8
部品1
100
AcDbLine
 10
3839.453990765244
 20
2782.890232204615
 30
0.0
 11
3989.453990765244
 21
2782.890232204615
 31
0.0
  0
LINE
  5
17FCC
330
747D
100
AcDbEntity
  8
部品1
100
AcDbLine
 10
3914.453990765244
 20
2652.98642163695
 30
0.0
 11
3839.453990765244
 21
2782.890232204615
 31
0.0
  0
LINE
  5
17FCD
330
747D
100
AcDbEntity
  8
部品1
100
AcDbLine
 10
3989.453990765244
 20
2782.890232204615
 30
0.0
 11
3914.453990765244
 21
2652.98642163695
 31
0.0
  0
TEXT
  5
17FCE
330
747D
100
AcDbEntity
  8
部品1
100
AcDbText
 10
4017.558932890016
 20
2689.093325242851
 30
0.0
 40
125.0
  1
G.L
  7
STYLE2
100
AcDbText
  0
LINE
  5
17FCF
330
747D
100
AcDbEntity
  8
Ｇ．Ｌ
100
AcDbLine
 10
3739.956979441144
 20
2652.98642163695
 30
0.0
 11
5505.039548040571
 21
2652.98642163695
 31
0.0
  0
LINE
  5
17FD0
330
747D
100
AcDbEntity
  8
部品1
100
AcDbLine
 10
4606.05662772138
 20
2752.98642163695
 30
0.0
 11
5487.406849969724
 21
2752.986421636949
 31
0.0
  0
LINE
  5
17FD1
330
747D
100
AcDbEntity
  8
部品1
100
AcDbLine
 10
4606.05662772138
 20
2794.986421636953
 30
0.0
 11
5480.001116779967
 21
2794.986421636956
 31
0.0
  0
LINE
  5
17FD2
330
747D
100
AcDbEntity
  8
部品1
100
AcDbLine
 10
4606.05662772138
 20
4686.986421636953
 30
0.0
 11
4606.05662772138
 21
2652.98642163695
 31
0.0
  0
LINE
  5
17FD3
330
747D
100
AcDbEntity
  8
部品1
100
AcDbLine
 10
4666.05662772138
 20
4592.98642163695
 30
0.0
 11
4666.05662772138
 21
2794.986421636953
 31
0.0
  0
LINE
  5
17FD4
330
747D
100
AcDbEntity
  8
部品1
100
AcDbLine
 10
5916.05662772138
 20
4592.98642163695
 30
0.0
 11
5916.05662772138
 21
2794.986421636953
 31
0.0
  0
LINE
  5
17FD5
330
747D
100
AcDbEntity
  8
寸法
 48
50.0
100
AcDbLine
 10
5348.597265985503
 20
3712.977806169647
 30
0.0
 11
5559.75799675229
 21
2515.425792754792
 31
0.0
  0
LINE
  5
17FD6
330
747D
100
AcDbEntity
  8
寸法
 48
50.0
100
AcDbLine
 10
5323.050381389254
 20
3685.098273833925
 30
0.0
 11
5529.295198395717
 21
2515.425792754792
 31
0.0
  0
LINE
  5
17FD7
330
747D
100
AcDbEntity
  8
細線
 48
50.0
100
AcDbLine
 10
5966.05662772138
 20
4686.986421636953
 30
0.0
 11
5966.05662772138
 21
4827.986421636953
 31
0.0
  0
LINE
  5
17FD8
330
747D
100
AcDbEntity
  8
細線
 48
50.0
100
AcDbLine
 10
7336.05662772138
 20
4686.98642163695
 30
0.0
 11
7336.05662772138
 21
4827.986421636953
 31
0.0
  0
LINE
  5
17FD9
330
747D
100
AcDbEntity
  8
寸法
 48
50.0
100
AcDbLine
 10
5110.514558136845
 20
4890.448824262796
 30
0.0
 11
5279.238960550312
 21
3933.56518832945
 31
0.0
  0
LINE
  5
17FDA
330
747D
100
AcDbEntity
  8
寸法
 48
50.0
100
AcDbLine
 10
5140.977356493419
 20
4890.448824262796
 30
0.0
 11
5304.785845146562
 21
3961.444720665173
 31
0.0
  0
LINE
  5
17FDB
330
747D
100
AcDbEntity
  8
部品1
100
AcDbLine
 10
5517.869648326294
 20
2752.98642163695
 30
0.0
 11
8716.056627721382
 21
2752.98642163695
 31
0.0
  0
LINE
  5
17FDC
330
747D
100
AcDbEntity
  8
部品1
100
AcDbLine
 10
5510.463915136537
 20
2794.986421636957
 30
0.0
 11
8716.056627721382
 21
2794.98642163697
 31
0.0
  0
LINE
  5
17FDD
330
747D
100
AcDbEntity
  8
部品1
100
AcDbLine
 10
5193.428003822719
 20
4592.98642163695
 30
0.0
 11
8716.056627721382
 21
4592.98642163695
 31
0.0
  0
TEXT
  5
17FDE
330
747D
100
AcDbEntity
  8
文字
 62
     7
 48
50.0
100
AcDbText
 10
13209.4053442172
 20
228.5435242569015
 30
0.0
 40
100.0
  1
○有効開口寸法 ： 686×1770(mm)
  7
STYLE2
100
AcDbText
  0
LINE
  5
17FDF
330
747D
100
AcDbEntity
  8
Ｇ．Ｌ
100
AcDbLine
 10
5535.502346397141
 20
2652.98642163695
 30
0.0
 11
14061.72668573211
 21
2652.98642163695
 31
0.0
  0
TEXT
  5
17FE0
330
747D
100
AcDbEntity
  8
部品1
100
AcDbText
 10
11684.56477783825
 20
1962.039974691084
 30
0.0
 40
135.0
  1
側面図
  7
STYLE2
100
AcDbText
  0
TEXT
  5
17FE1
330
747D
100
AcDbEntity
  8
部品1
100
AcDbText
 10
6321.986906265397
 20
1962.039974691085
 30
0.0
 40
135.0
  1
正面図
  7
STYLE2
100
AcDbText
  0
LINE
  5
17FE2
330
747D
100
AcDbEntity
  8
仕様書枠
 48
50.0
100
AcDbLine
 10
16307.19999999998
 20
8179.600000000002
 30
0.0
 11
13127.19999999999
 21
8179.600000000004
 31
0.0
  0
TEXT
  5
17FE3
330
747D
100
AcDbEntity
  8
文字
 62
     7
 48
50.0
100
AcDbText
 10
13248.77747366448
 20
8550.013745883731
 30
0.0
 40
100.0
  1
16
  7
STYLE1
100
AcDbText
  0
TEXT
  5
17FE4
330
747D
100
AcDbEntity
  8
文字
 62
     7
 48
50.0
100
AcDbText
 10
13583.11819016569
 20
10930.01374588372
 30
0.0
 40
100.0
  1
根太
  7
STYLE1
100
AcDbText
  0
TEXT
  5
17FE5
330
747D
100
AcDbEntity
  8
文字
 62
     7
 48
50.0
100
AcDbText
 10
15022.63965474516
 20
10930.01374588372
 30
0.0
 40
100.0
  1
F12            1.2
  7
STYLE1
100
AcDbText
  0
LINE
  5
184E5
330
747D
100
AcDbEntity
  8
補助
  6
PHANTOM
 62
   230
 48
50.0
100
AcDbLine
 10
140.0
 20
0.0
 30
0.0
 11
140.0
 21
11409.6
 31
0.0
  0
DIMENSION
  5
184E7
330
747D
100
AcDbEntity
  8
寸法
100
AcDbDimension
  2
*D23
 10
7406.056627721376
 20
6583.177184072344
 30
0.0
 11
7749.056627721377
 21
6583.177184072344
 31
0.0
 70
   160
  1
有効開口部間口\P<>
 71
     5
 42
686.0
  3
INABA_S40G
100
AcDbAlignedDimension
 13
8092.056627721376
 23
7110.34634903282
 33
0.0
 14
7406.056627721376
 24
7110.346349032745
 34
0.0
100
AcDbRotatedDimension
1001
ACAD
1000
DSTYLE
1002
{
1002
}
  0
LINE
  5
184E8
330
747D
100
AcDbEntity
  8
細線
100
AcDbLine
 10
7857.056627721377
 20
7113.346349032792
 30
0.0
 11
7757.05662772137
 21
7113.34634903278
 31
0.0
  0
LINE
  5
184E9
330
747D
100
AcDbEntity
  8
寸法
 48
50.0
100
AcDbLine
 10
7779.293225821264
 20
7040.673946646328
 30
0.0
 11
7998.445165996989
 21
7040.673946646328
 31
0.0
  0
LINE
  5
184EA
330
747D
100
AcDbEntity
  8
寸法
 48
50.0
100
AcDbLine
 10
7998.445165996989
 20
7040.673946646328
 30
0.0
 11
7909.160947401568
 21
7064.597580915815
 31
0.0
  0
LINE
  5
184EB
330
747D
100
AcDbEntity
  8
寸法
 48
50.0
100
AcDbLine
 10
7909.160947401568
 20
7064.597580915815
 30
0.0
 11
7909.160947401568
 21
7010.933946334024
 31
0.0
  0
LINE
  5
184EC
330
747D
100
AcDbEntity
  8
寸法
 48
50.0
100
AcDbLine
 10
7578.589405214607
 20
7007.451990160991
 30
0.0
 11
7629.99541312471
 21
7007.451990160991
 31
0.0
  0
LINE
  5
184ED
330
747D
100
AcDbEntity
  8
寸法
 48
50.0
100
AcDbLine
 10
7629.99541312471
 20
7007.451990160991
 30
0.0
 11
7629.99541312471
 21
7038.762148813157
 31
0.0
  0
LINE
  5
184EE
330
747D
100
AcDbEntity
  8
寸法
 48
50.0
100
AcDbLine
 10
7629.99541312471
 20
7038.762148813157
 30
0.0
 11
7659.756745116133
 21
7038.762148813157
 31
0.0
  0
LINE
  5
184EF
330
747D
100
AcDbEntity
  8
寸法
 48
50.0
100
AcDbLine
 10
7659.756745116133
 20
7038.762148813157
 30
0.0
 11
7604.292409169662
 21
7076.34159974177
 31
0.0
  0
LINE
  5
184F0
330
747D
100
AcDbEntity
  8
寸法
 48
50.0
100
AcDbLine
 10
7548.828073223183
 20
7038.762148813157
 30
0.0
 11
7604.292409169659
 21
7076.34159974177
 31
0.0
  0
LINE
  5
184F1
330
747D
100
AcDbEntity
  8
寸法
 48
50.0
100
AcDbLine
 10
7578.589405214607
 20
7038.762148813157
 30
0.0
 11
7548.828073223183
 21
7038.762148813157
 31
0.0
  0
LINE
  5
184F2
330
747D
100
AcDbEntity
  8
寸法
 48
50.0
100
AcDbLine
 10
7578.589405214607
 20
7007.451990160991
 30
0.0
 11
7578.589405214607
 21
7038.762148813157
 31
0.0
  0
LINE
  5
184F3
330
747D
100
AcDbEntity
  8
寸法
 48
50.0
100
AcDbLine
 10
7629.99541312471
 20
7007.451990160991
 30
0.0
 11
7578.589405214607
 21
7007.451990160991
 31
0.0
  0
LINE
  5
184F4
330
747D
100
AcDbEntity
  8
細線
100
AcDbLine
 10
8009.556627721394
 20
7147.346349032964
 30
0.0
 11
8017.056627721402
 21
7170.34634903288
 31
0.0
  0
LINE
  5
184F5
330
747D
100
AcDbEntity
  8
細線
100
AcDbLine
 10
7754.725089430602
 20
7118.346349032805
 30
0.0
 11
7689.388166012129
 21
7118.346349032794
 31
0.0
  0
LINE
  5
184F6
330
747D
100
AcDbEntity
  8
細線
100
AcDbLine
 10
7757.05662772137
 20
7113.34634903282
 30
0.0
 11
7754.725089430602
 21
7118.346349032805
 31
0.0
  0
LINE
  5
184F7
330
747D
100
AcDbEntity
  8
細線
100
AcDbLine
 10
7687.056627721377
 20
7113.346349032838
 30
0.0
 11
7689.388166012143
 21
7118.346349032823
 31
0.0
  0
LINE
  5
184F8
330
747D
100
AcDbEntity
  8
細線
100
AcDbLine
 10
7562.556627721376
 20
7131.346349032817
 30
0.0
 11
7562.556627721376
 21
7113.346349032792
 31
0.0
  0
ARC
  5
184F9
330
747D
100
AcDbEntity
  8
部品1
100
AcDbCircle
 10
7542.056627721369
 20
7137.646349032817
 30
0.0
 40
16.0
100
AcDbArc
 50
285.942368605675
 51
321.6069559808606
  0
LINE
  5
184FA
330
747D
100
AcDbEntity
  8
部品1
100
AcDbLine
 10
7545.627341935641
 20
7122.146349032817
 30
0.0
 11
7538.485913507098
 21
7122.146349032817
 31
0.0
  0
ARC
  5
184FB
330
747D
100
AcDbEntity
  8
部品1
100
AcDbCircle
 10
7545.627341935641
 20
7125.146349032817
 30
0.0
 40
3.0
100
AcDbArc
 50
270.0
 51
285.942368605675
  0
ARC
  5
184FC
330
747D
100
AcDbEntity
  8
部品1
100
AcDbCircle
 10
7538.485913507098
 20
7125.146349032817
 30
0.0
 40
3.0
100
AcDbArc
 50
254.057631394325
 51
270.0
  0
LINE
  5
184FD
330
747D
100
AcDbEntity
  8
部品1
 48
0.01
100
AcDbLine
 10
7558.55662772137
 20
7128.846349032814
 30
0.0
 11
7556.948236096559
 21
7128.846349032814
 31
0.0
  0
ARC
  5
184FE
330
747D
100
AcDbEntity
  8
部品1
100
AcDbCircle
 10
7556.948236096559
 20
7125.846349032814
 30
0.0
 40
3.0
100
AcDbArc
 50
90.0
 51
141.6069559808605
  0
ARC
  5
184FF
330
747D
100
AcDbEntity
  8
部品1
 48
0.01
100
AcDbCircle
 10
7558.55662772137
 20
7126.846349032814
 30
0.0
 40
2.0
100
AcDbArc
 50
0.0
 51
90.0
  0
LINE
  5
18500
330
747D
100
AcDbEntity
  8
部品1
100
AcDbLine
 10
7560.55662772137
 20
7121.846349032814
 30
0.0
 11
7560.55662772137
 21
7126.846349032814
 31
0.0
  0
ARC
  5
18501
330
747D
100
AcDbEntity
  8
部品1
100
AcDbCircle
 10
7534.556627721369
 20
7121.846349032814
 30
0.0
 40
26.0
100
AcDbArc
 50
340.5287793655287
 51
0.0
  0
ARC
  5
18502
330
747D
100
AcDbEntity
  8
部品1
100
AcDbCircle
 10
7560.012471844085
 20
7112.846349032814
 30
0.0
 40
1.0
100
AcDbArc
 50
160.5287793655287
 51
270.0
  0
LINE
  5
18503
330
747D
100
AcDbEntity
  8
部品1
 48
0.01
100
AcDbLine
 10
7566.55662772137
 20
7111.846349032815
 30
0.0
 11
7559.944122291309
 21
7111.846349032814
 31
0.0
  0
LINE
  5
18504
330
747D
100
AcDbEntity
  8
部品1
 48
0.01
100
AcDbLine
 10
7567.056627721369
 20
7113.346349032815
 30
0.0
 11
7567.056627721369
 21
7112.346349032816
 31
0.0
  0
LINE
  5
18505
330
747D
100
AcDbEntity
  8
部品1
 48
0.01
100
AcDbLine
 10
7567.056627721369
 20
7113.346349032815
 30
0.0
 11
7567.056627721369
 21
7112.346349032816
 31
0.0
  0
ARC
  5
18506
330
747D
100
AcDbEntity
  8
部品1
 48
0.01
100
AcDbCircle
 10
7566.55662772137
 20
7112.346349032816
 30
0.0
 40
0.5
100
AcDbArc
 50
270.0
 51
0.0
  0
LINE
  5
18507
330
747D
100
AcDbEntity
  8
細線
100
AcDbLine
 10
7934.556627721374
 20
7147.346349032886
 30
0.0
 11
7936.88816601214
 21
7152.346349032872
 31
0.0
  0
LINE
  5
18508
330
747D
100
AcDbEntity
  8
細線
100
AcDbLine
 10
8004.556627721369
 20
7147.346349032869
 30
0.0
 11
8002.2250894306
 21
7152.346349032853
 31
0.0
  0
LINE
  5
18509
330
747D
100
AcDbEntity
  8
細線
100
AcDbLine
 10
8002.2250894306
 20
7152.346349032853
 30
0.0
 11
7936.888166012126
 21
7152.346349032844
 31
0.0
  0
LINE
  5
1850A
330
747D
100
AcDbEntity
  8
細線
100
AcDbLine
 10
7934.556627721369
 20
7147.346349032879
 30
0.0
 11
7848.056627721388
 21
7147.346349032881
 31
0.0
  0
LINE
  5
1850B
330
747D
100
AcDbEntity
  8
細線
100
AcDbLine
 10
7836.056627721358
 20
7143.346349032778
 30
0.0
 11
7836.056627721358
 21
7147.346349032781
 31
0.0
  0
LINE
  5
1850C
330
747D
100
AcDbEntity
  8
細線
100
AcDbLine
 10
7836.056627721358
 20
7143.346349032778
 30
0.0
 11
7816.056627721369
 21
7143.346349032778
 31
0.0
  0
LINE
  5
1850D
330
747D
100
AcDbEntity
  8
細線
100
AcDbLine
 10
7816.056627721369
 20
7143.346349032778
 30
0.0
 11
7816.05662772138
 21
7177.346349032787
 31
0.0
  0
LINE
  5
1850E
330
747D
100
AcDbEntity
  8
細線
100
AcDbLine
 10
7857.056627721377
 20
7113.346349032792
 30
0.0
 11
7857.056627721384
 21
7143.346349032793
 31
0.0
  0
LINE
  5
1850F
330
747D
100
AcDbEntity
  8
細線
100
AcDbLine
 10
7857.056627721384
 20
7143.346349032793
 30
0.0
 11
7842.056627721381
 21
7143.346349032788
 31
0.0
  0
LINE
  5
18510
330
747D
100
AcDbEntity
  8
細線
100
AcDbLine
 10
7842.056627721381
 20
7136.346349032788
 30
0.0
 11
7842.056627721381
 21
7143.346349032788
 31
0.0
  0
LINE
  5
18511
330
747D
100
AcDbEntity
  8
細線
100
AcDbLine
 10
7842.056627721358
 20
7147.346349032784
 30
0.0
 11
7836.056627721358
 21
7147.346349032784
 31
0.0
  0
LINE
  5
18512
330
747D
100
AcDbEntity
  8
細線
100
AcDbLine
 10
7848.056627721383
 20
7146.646349032784
 30
0.0
 11
7848.056627721383
 21
7147.346349032784
 31
0.0
  0
ARC
  5
18513
330
747D
100
AcDbEntity
  8
細線
100
AcDbCircle
 10
7846.056627721385
 20
7146.646349032784
 30
0.0
 40
2.0
100
AcDbArc
 50
270.0
 51
0.0
  0
LINE
  5
18514
330
747D
100
AcDbEntity
  8
細線
100
AcDbLine
 10
7844.056627721385
 20
7144.646349032784
 30
0.0
 11
7846.056627721385
 21
7144.646349032784
 31
0.0
  0
LINE
  5
18515
330
747D
100
AcDbEntity
  8
細線
100
AcDbLine
 10
7842.056627721383
 20
7146.646349032784
 30
0.0
 11
7842.056627721383
 21
7147.346349032784
 31
0.0
  0
ARC
  5
18516
330
747D
100
AcDbEntity
  8
細線
100
AcDbCircle
 10
7844.056627721385
 20
7146.646349032784
 30
0.0
 40
2.0
100
AcDbArc
 50
180.0
 51
270.0
  0
LINE
  5
18517
330
747D
100
AcDbEntity
  8
細線
100
AcDbLine
 10
7831.056627721377
 20
7170.346349032785
 30
0.0
 11
7831.056627721377
 21
7177.346349032788
 31
0.0
  0
ARC
  5
18518
330
747D
100
AcDbEntity
  8
細線
100
AcDbCircle
 10
7643.601296881719
 20
7138.846349032864
 30
0.0
 40
6.0
100
AcDbArc
 50
204.6243183522924
 51
335.3756816477077
  0
LINE
  5
18519
330
747D
100
AcDbEntity
  8
細線
100
AcDbLine
 10
7673.601290381746
 20
7113.346349032963
 30
0.0
 11
7666.10129038175
 21
7136.346349032894
 31
0.0
  0
LINE
  5
1851A
330
747D
100
AcDbEntity
  8
細線
100
AcDbLine
 10
7613.601290381746
 20
7113.346349032974
 30
0.0
 11
7621.101290381753
 21
7136.346349032894
 31
0.0
  0
LINE
  5
1851B
330
747D
100
AcDbEntity
  8
細線
100
AcDbLine
 10
7831.056627721377
 20
7177.346349032788
 30
0.0
 11
7816.056627721376
 21
7177.346349032787
 31
0.0
  0
LINE
  5
1851C
330
747D
100
AcDbEntity
  8
寸法
 48
50.0
100
AcDbLine
 10
7779.293225821264
 20
7040.673946646328
 30
0.0
 11
7998.445165996989
 21
7040.673946646328
 31
0.0
  0
LINE
  5
1851D
330
747D
100
AcDbEntity
  8
寸法
 48
50.0
100
AcDbLine
 10
7998.445165996989
 20
7040.673946646328
 30
0.0
 11
7909.160947401568
 21
7064.597580915815
 31
0.0
  0
LINE
  5
1851E
330
747D
100
AcDbEntity
  8
寸法
 48
50.0
100
AcDbLine
 10
7909.160947401568
 20
7064.597580915815
 30
0.0
 11
7909.160947401568
 21
7010.933946334024
 31
0.0
  0
LINE
  5
1851F
330
747D
100
AcDbEntity
  8
寸法
 48
50.0
100
AcDbLine
 10
7578.589405214607
 20
7007.451990160991
 30
0.0
 11
7629.99541312471
 21
7007.451990160991
 31
0.0
  0
LINE
  5
18520
330
747D
100
AcDbEntity
  8
寸法
 48
50.0
100
AcDbLine
 10
7629.99541312471
 20
7007.451990160991
 30
0.0
 11
7629.99541312471
 21
7038.762148813157
 31
0.0
  0
LINE
  5
18521
330
747D
100
AcDbEntity
  8
寸法
 48
50.0
100
AcDbLine
 10
7629.99541312471
 20
7038.762148813157
 30
0.0
 11
7659.756745116133
 21
7038.762148813157
 31
0.0
  0
LINE
  5
18522
330
747D
100
AcDbEntity
  8
寸法
 48
50.0
100
AcDbLine
 10
7659.756745116133
 20
7038.762148813157
 30
0.0
 11
7604.292409169662
 21
7076.34159974177
 31
0.0
  0
LINE
  5
18523
330
747D
100
AcDbEntity
  8
寸法
 48
50.0
100
AcDbLine
 10
7548.828073223183
 20
7038.762148813157
 30
0.0
 11
7604.292409169659
 21
7076.34159974177
 31
0.0
  0
LINE
  5
18524
330
747D
100
AcDbEntity
  8
寸法
 48
50.0
100
AcDbLine
 10
7578.589405214607
 20
7038.762148813157
 30
0.0
 11
7548.828073223183
 21
7038.762148813157
 31
0.0
  0
LINE
  5
18525
330
747D
100
AcDbEntity
  8
寸法
 48
50.0
100
AcDbLine
 10
7578.589405214607
 20
7007.451990160991
 30
0.0
 11
7578.589405214607
 21
7038.762148813157
 31
0.0
  0
LINE
  5
18526
330
747D
100
AcDbEntity
  8
寸法
 48
50.0
100
AcDbLine
 10
7629.99541312471
 20
7007.451990160991
 30
0.0
 11
7578.589405214607
 21
7007.451990160991
 31
0.0
  0
ARC
  5
18527
330
747D
100
AcDbEntity
  8
部品1
100
AcDbCircle
 10
7524.100783598654
 20
7112.846349032814
 30
0.0
 40
1.0
100
AcDbArc
 50
270.0
 51
19.47122063447127
  0
ARC
  5
18528
330
747D
100
AcDbEntity
  8
部品1
100
AcDbCircle
 10
7542.056627721369
 20
7137.646349032817
 30
0.0
 40
16.0
100
AcDbArc
 50
218.3930440191395
 51
254.057631394325
  0
ARC
  5
18529
330
747D
100
AcDbEntity
  8
部品1
100
AcDbCircle
 10
7527.165019346182
 20
7125.846349032814
 30
0.0
 40
3.0
100
AcDbArc
 50
38.39304401913947
 51
90.0
  0
LINE
  5
1852A
330
747D
100
AcDbEntity
  8
部品1
 48
0.01
100
AcDbLine
 10
7525.556627721369
 20
7128.846349032814
 30
0.0
 11
7527.165019346182
 21
7128.846349032814
 31
0.0
  0
LINE
  5
1852B
330
747D
100
AcDbEntity
  8
細線
100
AcDbLine
 10
8069.556627721395
 20
7147.346349032952
 30
0.0
 11
8062.056627721402
 21
7170.34634903288
 31
0.0
  0
LINE
  5
1852C
330
747D
100
AcDbEntity
  8
細線
100
AcDbLine
 10
8074.556627721358
 20
7147.346349032876
 30
0.0
 11
8004.556627721365
 21
7147.346349032876
 31
0.0
  0
ARC
  5
1852D
330
747D
100
AcDbEntity
  8
細線
100
AcDbCircle
 10
8039.55663422136
 20
7172.846349032879
 30
0.0
 40
6.0
100
AcDbArc
 50
204.6243183522924
 51
335.3756816477077
  0
LINE
  5
1852E
330
747D
100
AcDbEntity
  8
細線
 48
50.0
100
AcDbLine
 10
7816.056627721373
 20
7160.346349032828
 30
0.0
 11
7406.056627721373
 21
7160.346349032761
 31
0.0
  0
LINE
  5
1852F
330
747D
100
AcDbEntity
  8
細線
100
AcDbLine
 10
7842.056627721381
 20
7136.346349032854
 30
0.0
 11
7421.056627721377
 21
7136.346349032793
 31
0.0
  0
LINE
  5
18530
330
747D
100
AcDbEntity
  8
細線
100
AcDbLine
 10
7521.556627721377
 20
7131.34634903281
 30
0.0
 11
7521.556627721377
 21
7113.346349032792
 31
0.0
  0
LINE
  5
18531
330
747D
100
AcDbEntity
  8
細線
100
AcDbLine
 10
7562.556627721376
 20
7131.346349032817
 30
0.0
 11
7521.556627721377
 21
7131.34634903281
 31
0.0
  0
LINE
  5
18532
330
747D
100
AcDbEntity
  8
部品1
 48
0.01
100
AcDbLine
 10
7517.05662772137
 20
7113.346349032815
 30
0.0
 11
7517.05662772137
 21
7112.346349032816
 31
0.0
  0
LINE
  5
18533
330
747D
100
AcDbEntity
  8
部品1
 48
0.01
100
AcDbLine
 10
7517.556627721369
 20
7111.846349032815
 30
0.0
 11
7524.100783598654
 21
7111.846349032814
 31
0.0
  0
ARC
  5
18534
330
747D
100
AcDbEntity
  8
部品1
 48
0.01
100
AcDbCircle
 10
7517.556627721369
 20
7112.346349032816
 30
0.0
 40
0.5
100
AcDbArc
 50
180.0
 51
270.0
  0
ARC
  5
18535
330
747D
100
AcDbEntity
  8
部品1
100
AcDbCircle
 10
7549.556627721369
 20
7121.846349032814
 30
0.0
 40
26.0
100
AcDbArc
 50
180.0
 51
199.4712206344713
  0
ARC
  5
18536
330
747D
100
AcDbEntity
  8
部品1
 48
0.01
100
AcDbCircle
 10
7525.556627721369
 20
7126.846349032814
 30
0.0
 40
2.0
100
AcDbArc
 50
90.0
 51
180.0
  0
LINE
  5
18537
330
747D
100
AcDbEntity
  8
部品1
100
AcDbLine
 10
7523.556627721369
 20
7121.846349032814
 30
0.0
 11
7523.556627721369
 21
7126.846349032814
 31
0.0
  0
LINE
  5
18538
330
747D
100
AcDbEntity
  8
細線
100
AcDbLine
 10
7687.056627721377
 20
7113.346349032834
 30
0.0
 11
7397.044321072325
 21
7113.346349032792
 31
0.0
  0
LINE
  5
18539
330
747D
100
AcDbEntity
  8
細線
100
AcDbLine
 10
7421.056627721377
 20
7143.346349032793
 30
0.0
 11
7421.056627721377
 21
7136.346349032793
 31
0.0
  0
LINE
  5
1853A
330
747D
100
AcDbEntity
  8
細線
100
AcDbLine
 10
7421.056627721377
 20
7143.346349032793
 30
0.0
 11
7406.056627721376
 21
7143.346349032793
 31
0.0
  0
LINE
  5
1853B
330
747D
100
AcDbEntity
  8
細線
100
AcDbLine
 10
7406.056627721376
 20
7117.346349032745
 30
0.0
 11
7406.056627721376
 21
7113.346349032792
 31
0.0
  0
LINE
  5
1853C
330
747D
100
AcDbEntity
  8
細線
100
AcDbLine
 10
8248.056627721373
 20
7170.346349032901
 30
0.0
 11
7831.056627721377
 21
7170.346349032936
 31
0.0
  0
LINE
  5
1853D
330
747D
100
AcDbEntity
  8
細線
 48
50.0
100
AcDbLine
 10
8656.056627721325
 20
7126.346349032819
 30
0.0
 11
7857.05662772138
 21
7126.346349032822
 31
0.0
  0
LINE
  5
1853E
330
747D
100
AcDbEntity
  8
細線
100
AcDbLine
 10
8233.056627721564
 20
7211.346349032817
 30
0.0
 11
8222.05662772138
 21
7211.346349032817
 31
0.0
  0
LINE
  5
1853F
330
747D
100
AcDbEntity
  8
細線
100
AcDbLine
 10
8242.05662772138
 20
7175.346349032875
 30
0.0
 11
8242.05662772138
 21
7183.346349032875
 31
0.0
  0
LINE
  5
18540
330
747D
100
AcDbEntity
  8
細線
100
AcDbLine
 10
8242.05662772138
 20
7175.346349032875
 30
0.0
 11
8222.05662772138
 21
7175.346349032875
 31
0.0
  0
LINE
  5
18541
330
747D
100
AcDbEntity
  8
細線
100
AcDbLine
 10
8222.05662772138
 20
7175.346349032875
 30
0.0
 11
8222.05662772138
 21
7211.346349032872
 31
0.0
  0
LINE
  5
18542
330
747D
100
AcDbEntity
  8
細線
100
AcDbLine
 10
8263.056627721381
 20
7147.346349032876
 30
0.0
 11
8263.056627721388
 21
7177.346349032877
 31
0.0
  0
LINE
  5
18543
330
747D
100
AcDbEntity
  8
細線
100
AcDbLine
 10
8263.056627721381
 20
7177.346349032877
 30
0.0
 11
8248.056627721377
 21
7177.346349032872
 31
0.0
  0
LINE
  5
18544
330
747D
100
AcDbEntity
  8
細線
100
AcDbLine
 10
8248.056627721373
 20
7170.346349032873
 30
0.0
 11
8248.056627721377
 21
7177.346349032872
 31
0.0
  0
LINE
  5
18545
330
747D
100
AcDbEntity
  8
細線
100
AcDbLine
 10
8248.05662772138
 20
7183.346349032875
 30
0.0
 11
8242.05662772138
 21
7183.346349032875
 31
0.0
  0
ARC
  5
18546
330
747D
100
AcDbEntity
  8
細線
100
AcDbCircle
 10
8250.056627721381
 20
7182.646349032875
 30
0.0
 40
2.0
100
AcDbArc
 50
180.0
 51
270.0
  0
LINE
  5
18547
330
747D
100
AcDbEntity
  8
細線
100
AcDbLine
 10
8248.05662772138
 20
7182.646349032878
 30
0.0
 11
8248.05662772138
 21
7183.346349032875
 31
0.0
  0
LINE
  5
18548
330
747D
100
AcDbEntity
  8
細線
100
AcDbLine
 10
8250.056627721381
 20
7180.646349032876
 30
0.0
 11
8252.05662772138
 21
7180.646349032876
 31
0.0
  0
ARC
  5
18549
330
747D
100
AcDbEntity
  8
細線
100
AcDbCircle
 10
8252.05662772138
 20
7182.646349032875
 30
0.0
 40
2.0
100
AcDbArc
 50
270.0
 51
0.0
  0
LINE
  5
1854A
330
747D
100
AcDbEntity
  8
細線
100
AcDbLine
 10
8254.05662772138
 20
7182.646349032878
 30
0.0
 11
8254.05662772138
 21
7183.346349032875
 31
0.0
  0
LINE
  5
1854B
330
747D
100
AcDbEntity
  8
細線
100
AcDbLine
 10
8074.556627721376
 20
7147.346349032908
 30
0.0
 11
8076.888166012144
 21
7152.346349032893
 31
0.0
  0
LINE
  5
1854C
330
747D
100
AcDbEntity
  8
細線
100
AcDbLine
 10
8142.225089430601
 20
7152.346349032876
 30
0.0
 11
8076.88816601213
 21
7152.346349032865
 31
0.0
  0
LINE
  5
1854D
330
747D
100
AcDbEntity
  8
細線
100
AcDbLine
 10
8144.556627721369
 20
7147.346349032891
 30
0.0
 11
8142.225089430601
 21
7152.346349032876
 31
0.0
  0
LINE
  5
1854E
330
747D
100
AcDbEntity
  8
細線
100
AcDbLine
 10
8263.056627721381
 20
7147.346349032876
 30
0.0
 11
8144.556627721376
 21
7147.346349032876
 31
0.0
  0
LINE
  5
1854F
330
747D
100
AcDbEntity
  8
細線
 48
50.0
100
AcDbLine
 10
8656.056627721325
 20
7160.346349032824
 30
0.0
 11
8263.056627721384
 21
7160.346349032824
 31
0.0
  0
LINE
  5
18550
330
747D
100
AcDbEntity
  8
細線
100
AcDbLine
 10
8350.556627721385
 20
7183.346349032873
 30
0.0
 11
8254.05662772138
 21
7183.346349032875
 31
0.0
  0
LINE
  5
18551
330
747D
100
AcDbEntity
  8
細線
100
AcDbLine
 10
8350.556627721379
 20
7183.346349032865
 30
0.0
 11
8352.655012183062
 21
7187.846349032837
 31
0.0
  0
LINE
  5
18552
330
747D
100
AcDbEntity
  8
細線
100
AcDbLine
 10
8420.556627721373
 20
7183.346349032847
 30
0.0
 11
8418.458243259683
 21
7187.846349032837
 31
0.0
  0
LINE
  5
18553
330
747D
100
AcDbEntity
  8
細線
100
AcDbLine
 10
8490.556627721391
 20
7183.346349032858
 30
0.0
 11
8492.888166012159
 21
7188.346349032844
 31
0.0
  0
LINE
  5
18554
330
747D
100
AcDbEntity
  8
細線
100
AcDbLine
 10
8490.556627721383
 20
7183.346349032847
 30
0.0
 11
8420.556627721373
 21
7183.346349032847
 31
0.0
  0
LINE
  5
18555
330
747D
100
AcDbEntity
  8
細線
100
AcDbLine
 10
8654.056627721326
 20
7183.346349032818
 30
0.0
 11
8560.556627721391
 21
7183.346349032821
 31
0.0
  0
LINE
  5
18556
330
747D
100
AcDbEntity
  8
細線
100
AcDbLine
 10
8654.056627721326
 20
7165.346349032816
 30
0.0
 11
8654.056627721326
 21
7183.346349032816
 31
0.0
  0
LINE
  5
18557
330
747D
100
AcDbEntity
  8
細線
 48
50.0
100
AcDbLine
 10
8654.056627721326
 20
7165.346349032816
 30
0.0
 11
8656.056627721325
 21
7165.346349032816
 31
0.0
  0
LINE
  5
18558
330
747D
100
AcDbEntity
  8
細線
100
AcDbLine
 10
8560.556627721384
 20
7183.34634903284
 30
0.0
 11
8558.458243259687
 21
7187.846349032837
 31
0.0
  0
DIMENSION
  5
18559
330
747D
100
AcDbEntity
  8
寸法
100
AcDbDimension
  2
*D22
 10
6036.056627721376
 20
6583.177184072344
 30
0.0
 11
6379.056627721377
 21
6583.177184072344
 31
0.0
 70
   160
  1
有効開口部間口\P<>
 71
     5
 42
686.0
  3
INABA_S40G
100
AcDbAlignedDimension
 13
6722.056627721376
 23
7110.34634903282
 33
0.0
 14
6036.056627721376
 24
7110.346349032745
 34
0.0
100
AcDbRotatedDimension
1001
ACAD
1000
DSTYLE
1002
{
1002
}
  0
LINE
  5
1855A
330
747D
100
AcDbEntity
  8
細線
100
AcDbLine
 10
6192.556627721376
 20
7131.346349032817
 30
0.0
 11
6192.556627721376
 21
7113.346349032792
 31
0.0
  0
ARC
  5
1855B
330
747D
100
AcDbEntity
  8
部品1
100
AcDbCircle
 10
6172.056627721369
 20
7137.646349032817
 30
0.0
 40
16.0
100
AcDbArc
 50
218.3930440191395
 51
254.057631394325
  0
ARC
  5
1855C
330
747D
100
AcDbEntity
  8
部品1
100
AcDbCircle
 10
6157.165019346183
 20
7125.846349032814
 30
0.0
 40
3.0
100
AcDbArc
 50
38.39304401913947
 51
90.0
  0
LINE
  5
1855D
330
747D
100
AcDbEntity
  8
部品1
 48
0.01
100
AcDbLine
 10
6155.556627721369
 20
7128.846349032814
 30
0.0
 11
6157.165019346183
 21
7128.846349032814
 31
0.0
  0
ARC
  5
1855E
330
747D
100
AcDbEntity
  8
部品1
100
AcDbCircle
 10
6172.056627721369
 20
7137.646349032817
 30
0.0
 40
16.0
100
AcDbArc
 50
285.942368605675
 51
321.6069559808606
  0
LINE
  5
1855F
330
747D
100
AcDbEntity
  8
部品1
100
AcDbLine
 10
6175.627341935641
 20
7122.146349032817
 30
0.0
 11
6168.485913507098
 21
7122.146349032817
 31
0.0
  0
ARC
  5
18560
330
747D
100
AcDbEntity
  8
部品1
100
AcDbCircle
 10
6175.627341935641
 20
7125.146349032817
 30
0.0
 40
3.0
100
AcDbArc
 50
270.0
 51
285.942368605675
  0
ARC
  5
18561
330
747D
100
AcDbEntity
  8
部品1
100
AcDbCircle
 10
6168.485913507098
 20
7125.146349032817
 30
0.0
 40
3.0
100
AcDbArc
 50
254.057631394325
 51
270.0
  0
LINE
  5
18562
330
747D
100
AcDbEntity
  8
部品1
 48
0.01
100
AcDbLine
 10
6188.556627721369
 20
7128.846349032814
 30
0.0
 11
6186.94823609656
 21
7128.846349032814
 31
0.0
  0
ARC
  5
18563
330
747D
100
AcDbEntity
  8
部品1
100
AcDbCircle
 10
6186.94823609656
 20
7125.846349032814
 30
0.0
 40
3.0
100
AcDbArc
 50
90.0
 51
141.6069559808605
  0
ARC
  5
18564
330
747D
100
AcDbEntity
  8
部品1
 48
0.01
100
AcDbCircle
 10
6188.556627721369
 20
7126.846349032814
 30
0.0
 40
2.0
100
AcDbArc
 50
0.0
 51
90.0
  0
LINE
  5
18565
330
747D
100
AcDbEntity
  8
部品1
100
AcDbLine
 10
6190.556627721369
 20
7121.846349032814
 30
0.0
 11
6190.556627721369
 21
7126.846349032814
 31
0.0
  0
ARC
  5
18566
330
747D
100
AcDbEntity
  8
部品1
100
AcDbCircle
 10
6164.55662772137
 20
7121.846349032814
 30
0.0
 40
26.0
100
AcDbArc
 50
340.5287793655287
 51
0.0
  0
ARC
  5
18567
330
747D
100
AcDbEntity
  8
部品1
100
AcDbCircle
 10
6190.012471844085
 20
7112.846349032814
 30
0.0
 40
1.0
100
AcDbArc
 50
160.5287793655287
 51
270.0
  0
LINE
  5
18568
330
747D
100
AcDbEntity
  8
部品1
 48
0.01
100
AcDbLine
 10
6196.55662772137
 20
7111.846349032815
 30
0.0
 11
6189.944122291308
 21
7111.846349032814
 31
0.0
  0
LINE
  5
18569
330
747D
100
AcDbEntity
  8
部品1
 48
0.01
100
AcDbLine
 10
6197.056627721369
 20
7113.346349032815
 30
0.0
 11
6197.056627721369
 21
7112.346349032816
 31
0.0
  0
LINE
  5
1856A
330
747D
100
AcDbEntity
  8
部品1
 48
0.01
100
AcDbLine
 10
6197.056627721369
 20
7113.346349032815
 30
0.0
 11
6197.056627721369
 21
7112.346349032816
 31
0.0
  0
ARC
  5
1856B
330
747D
100
AcDbEntity
  8
部品1
 48
0.01
100
AcDbCircle
 10
6196.55662772137
 20
7112.346349032816
 30
0.0
 40
0.5
100
AcDbArc
 50
270.0
 51
0.0
  0
LINE
  5
1856C
330
747D
100
AcDbEntity
  8
細線
100
AcDbLine
 10
6384.725089430602
 20
7118.346349032805
 30
0.0
 11
6319.38816601213
 21
7118.346349032794
 31
0.0
  0
LINE
  5
1856D
330
747D
100
AcDbEntity
  8
細線
100
AcDbLine
 10
6387.05662772137
 20
7113.34634903282
 30
0.0
 11
6384.725089430602
 21
7118.346349032805
 31
0.0
  0
LINE
  5
1856E
330
747D
100
AcDbEntity
  8
細線
100
AcDbLine
 10
6317.056627721377
 20
7113.346349032838
 30
0.0
 11
6319.388166012144
 21
7118.346349032823
 31
0.0
  0
ARC
  5
1856F
330
747D
100
AcDbEntity
  8
細線
100
AcDbCircle
 10
6273.60129688172
 20
7138.846349032864
 30
0.0
 40
6.0
100
AcDbArc
 50
204.6243183522924
 51
335.3756816477077
  0
LINE
  5
18570
330
747D
100
AcDbEntity
  8
細線
100
AcDbLine
 10
6303.601290381746
 20
7113.346349032963
 30
0.0
 11
6296.10129038175
 21
7136.346349032894
 31
0.0
  0
LINE
  5
18571
330
747D
100
AcDbEntity
  8
細線
100
AcDbLine
 10
6243.601290381747
 20
7113.346349032974
 30
0.0
 11
6251.101290381754
 21
7136.346349032894
 31
0.0
  0
LINE
  5
18572
330
747D
100
AcDbEntity
  8
細線
100
AcDbLine
 10
6487.056627721377
 20
7113.346349032792
 30
0.0
 11
6387.05662772137
 21
7113.34634903278
 31
0.0
  0
LINE
  5
18573
330
747D
100
AcDbEntity
  8
細線
100
AcDbLine
 10
6466.056627721359
 20
7143.346349032778
 30
0.0
 11
6466.056627721359
 21
7147.346349032781
 31
0.0
  0
LINE
  5
18574
330
747D
100
AcDbEntity
  8
細線
100
AcDbLine
 10
6466.056627721359
 20
7143.346349032778
 30
0.0
 11
6446.05662772137
 21
7143.346349032778
 31
0.0
  0
LINE
  5
18575
330
747D
100
AcDbEntity
  8
細線
100
AcDbLine
 10
6446.05662772137
 20
7143.346349032778
 30
0.0
 11
6446.05662772138
 21
7177.346349032787
 31
0.0
  0
LINE
  5
18576
330
747D
100
AcDbEntity
  8
細線
100
AcDbLine
 10
6487.056627721377
 20
7113.346349032792
 30
0.0
 11
6487.056627721384
 21
7143.346349032793
 31
0.0
  0
LINE
  5
18577
330
747D
100
AcDbEntity
  8
細線
100
AcDbLine
 10
6487.056627721384
 20
7143.346349032793
 30
0.0
 11
6472.05662772138
 21
7143.346349032788
 31
0.0
  0
LINE
  5
18578
330
747D
100
AcDbEntity
  8
細線
100
AcDbLine
 10
6472.05662772138
 20
7136.346349032788
 30
0.0
 11
6472.05662772138
 21
7143.346349032788
 31
0.0
  0
LINE
  5
18579
330
747D
100
AcDbEntity
  8
細線
100
AcDbLine
 10
6472.056627721357
 20
7147.346349032784
 30
0.0
 11
6466.056627721359
 21
7147.346349032784
 31
0.0
  0
LINE
  5
1857A
330
747D
100
AcDbEntity
  8
細線
100
AcDbLine
 10
6478.056627721383
 20
7146.646349032784
 30
0.0
 11
6478.056627721383
 21
7147.346349032784
 31
0.0
  0
ARC
  5
1857B
330
747D
100
AcDbEntity
  8
細線
100
AcDbCircle
 10
6476.056627721384
 20
7146.646349032784
 30
0.0
 40
2.0
100
AcDbArc
 50
270.0
 51
0.0
  0
LINE
  5
1857C
330
747D
100
AcDbEntity
  8
細線
100
AcDbLine
 10
6474.056627721385
 20
7144.646349032784
 30
0.0
 11
6476.056627721384
 21
7144.646349032784
 31
0.0
  0
LINE
  5
1857D
330
747D
100
AcDbEntity
  8
細線
100
AcDbLine
 10
6472.056627721383
 20
7146.646349032784
 30
0.0
 11
6472.056627721383
 21
7147.346349032784
 31
0.0
  0
ARC
  5
1857E
330
747D
100
AcDbEntity
  8
細線
100
AcDbCircle
 10
6474.056627721385
 20
7146.646349032784
 30
0.0
 40
2.0
100
AcDbArc
 50
180.0
 51
270.0
  0
LINE
  5
1857F
330
747D
100
AcDbEntity
  8
細線
100
AcDbLine
 10
6461.056627721376
 20
7170.346349032785
 30
0.0
 11
6461.056627721376
 21
7177.346349032788
 31
0.0
  0
LINE
  5
18580
330
747D
100
AcDbEntity
  8
細線
100
AcDbLine
 10
6461.056627721376
 20
7177.346349032788
 30
0.0
 11
6446.056627721377
 21
7177.346349032787
 31
0.0
  0
LINE
  5
18581
330
747D
100
AcDbEntity
  8
細線
100
AcDbLine
 10
6632.225089430602
 20
7152.346349032853
 30
0.0
 11
6566.888166012126
 21
7152.346349032844
 31
0.0
  0
LINE
  5
18582
330
747D
100
AcDbEntity
  8
細線
100
AcDbLine
 10
6564.556627721369
 20
7147.346349032879
 30
0.0
 11
6478.056627721388
 21
7147.346349032881
 31
0.0
  0
LINE
  5
18583
330
747D
100
AcDbEntity
  8
細線
100
AcDbLine
 10
6639.556627721394
 20
7147.346349032964
 30
0.0
 11
6647.056627721402
 21
7170.34634903288
 31
0.0
  0
LINE
  5
18584
330
747D
100
AcDbEntity
  8
細線
100
AcDbLine
 10
6564.556627721373
 20
7147.346349032886
 30
0.0
 11
6566.88816601214
 21
7152.346349032872
 31
0.0
  0
LINE
  5
18585
330
747D
100
AcDbEntity
  8
細線
100
AcDbLine
 10
6634.556627721369
 20
7147.346349032869
 30
0.0
 11
6632.225089430602
 21
7152.346349032853
 31
0.0
  0
LINE
  5
18586
330
747D
100
AcDbEntity
  8
寸法
 48
50.0
100
AcDbLine
 10
6259.995413124711
 20
7007.451990160991
 30
0.0
 11
6208.589405214606
 21
7007.451990160991
 31
0.0
  0
LINE
  5
18587
330
747D
100
AcDbEntity
  8
寸法
 48
50.0
100
AcDbLine
 10
6208.589405214606
 20
7007.451990160991
 30
0.0
 11
6208.589405214606
 21
7038.762148813157
 31
0.0
  0
LINE
  5
18588
330
747D
100
AcDbEntity
  8
寸法
 48
50.0
100
AcDbLine
 10
6208.589405214606
 20
7038.762148813157
 30
0.0
 11
6178.828073223183
 21
7038.762148813157
 31
0.0
  0
LINE
  5
18589
330
747D
100
AcDbEntity
  8
寸法
 48
50.0
100
AcDbLine
 10
6178.828073223183
 20
7038.762148813157
 30
0.0
 11
6234.292409169658
 21
7076.34159974177
 31
0.0
  0
LINE
  5
1858A
330
747D
100
AcDbEntity
  8
寸法
 48
50.0
100
AcDbLine
 10
6289.756745116134
 20
7038.762148813157
 30
0.0
 11
6234.292409169662
 21
7076.34159974177
 31
0.0
  0
LINE
  5
1858B
330
747D
100
AcDbEntity
  8
寸法
 48
50.0
100
AcDbLine
 10
6259.995413124711
 20
7038.762148813157
 30
0.0
 11
6289.756745116134
 21
7038.762148813157
 31
0.0
  0
LINE
  5
1858C
330
747D
100
AcDbEntity
  8
寸法
 48
50.0
100
AcDbLine
 10
6259.995413124711
 20
7007.451990160991
 30
0.0
 11
6259.995413124711
 21
7038.762148813157
 31
0.0
  0
LINE
  5
1858D
330
747D
100
AcDbEntity
  8
寸法
 48
50.0
100
AcDbLine
 10
6208.589405214606
 20
7007.451990160991
 30
0.0
 11
6259.995413124711
 21
7007.451990160991
 31
0.0
  0
LINE
  5
1858E
330
747D
100
AcDbEntity
  8
寸法
 48
50.0
100
AcDbLine
 10
6539.160947401568
 20
7064.597580915815
 30
0.0
 11
6539.160947401568
 21
7010.933946334024
 31
0.0
  0
LINE
  5
1858F
330
747D
100
AcDbEntity
  8
寸法
 48
50.0
100
AcDbLine
 10
6628.445165996989
 20
7040.673946646328
 30
0.0
 11
6539.160947401568
 21
7064.597580915815
 31
0.0
  0
LINE
  5
18590
330
747D
100
AcDbEntity
  8
寸法
 48
50.0
100
AcDbLine
 10
6409.293225821264
 20
7040.673946646328
 30
0.0
 11
6628.445165996989
 21
7040.673946646328
 31
0.0
  0
LINE
  5
18591
330
747D
100
AcDbEntity
  8
細線
100
AcDbLine
 10
6151.556627721376
 20
7131.34634903281
 30
0.0
 11
6151.556627721376
 21
7113.346349032792
 31
0.0
  0
LINE
  5
18592
330
747D
100
AcDbEntity
  8
細線
100
AcDbLine
 10
6192.556627721376
 20
7131.346349032817
 30
0.0
 11
6151.556627721376
 21
7131.34634903281
 31
0.0
  0
ARC
  5
18593
330
747D
100
AcDbEntity
  8
部品1
100
AcDbCircle
 10
6154.100783598654
 20
7112.846349032814
 30
0.0
 40
1.0
100
AcDbArc
 50
270.0
 51
19.47122063447127
  0
LINE
  5
18594
330
747D
100
AcDbEntity
  8
部品1
 48
0.01
100
AcDbLine
 10
6147.056627721369
 20
7113.346349032815
 30
0.0
 11
6147.056627721369
 21
7112.346349032816
 31
0.0
  0
LINE
  5
18595
330
747D
100
AcDbEntity
  8
部品1
 48
0.01
100
AcDbLine
 10
6147.556627721369
 20
7111.846349032815
 30
0.0
 11
6154.100783598654
 21
7111.846349032814
 31
0.0
  0
ARC
  5
18596
330
747D
100
AcDbEntity
  8
部品1
 48
0.01
100
AcDbCircle
 10
6147.556627721369
 20
7112.346349032816
 30
0.0
 40
0.5
100
AcDbArc
 50
180.0
 51
270.0
  0
ARC
  5
18597
330
747D
100
AcDbEntity
  8
部品1
100
AcDbCircle
 10
6179.556627721369
 20
7121.846349032814
 30
0.0
 40
26.0
100
AcDbArc
 50
180.0
 51
199.4712206344713
  0
ARC
  5
18598
330
747D
100
AcDbEntity
  8
部品1
 48
0.01
100
AcDbCircle
 10
6155.556627721369
 20
7126.846349032814
 30
0.0
 40
2.0
100
AcDbArc
 50
90.0
 51
180.0
  0
LINE
  5
18599
330
747D
100
AcDbEntity
  8
部品1
100
AcDbLine
 10
6153.55662772137
 20
7121.846349032814
 30
0.0
 11
6153.55662772137
 21
7126.846349032814
 31
0.0
  0
LINE
  5
1859A
330
747D
100
AcDbEntity
  8
細線
 48
50.0
100
AcDbLine
 10
6446.056627721373
 20
7160.346349032828
 30
0.0
 11
6036.056627721372
 21
7160.346349032761
 31
0.0
  0
LINE
  5
1859B
330
747D
100
AcDbEntity
  8
細線
100
AcDbLine
 10
6472.05662772138
 20
7136.346349032854
 30
0.0
 11
6051.056627721377
 21
7136.346349032793
 31
0.0
  0
LINE
  5
1859C
330
747D
100
AcDbEntity
  8
細線
100
AcDbLine
 10
6317.056627721377
 20
7113.346349032834
 30
0.0
 11
6027.044321072324
 21
7113.346349032792
 31
0.0
  0
LINE
  5
1859D
330
747D
100
AcDbEntity
  8
細線
100
AcDbLine
 10
6051.056627721377
 20
7143.346349032793
 30
0.0
 11
6051.056627721377
 21
7136.346349032793
 31
0.0
  0
LINE
  5
1859E
330
747D
100
AcDbEntity
  8
細線
100
AcDbLine
 10
6051.056627721377
 20
7143.346349032793
 30
0.0
 11
6036.056627721376
 21
7143.346349032793
 31
0.0
  0
LINE
  5
1859F
330
747D
100
AcDbEntity
  8
細線
100
AcDbLine
 10
6036.056627721376
 20
7117.346349032745
 30
0.0
 11
6036.056627721376
 21
7113.346349032792
 31
0.0
  0
ARC
  5
185A0
330
747D
100
AcDbEntity
  8
細線
100
AcDbCircle
 10
6669.556634221361
 20
7172.846349032879
 30
0.0
 40
6.0
100
AcDbArc
 50
204.6243183522924
 51
335.3756816477077
  0
LINE
  5
185A1
330
747D
100
AcDbEntity
  8
細線
100
AcDbLine
 10
6699.556627721396
 20
7147.346349032952
 30
0.0
 11
6692.056627721402
 21
7170.34634903288
 31
0.0
  0
LINE
  5
185A2
330
747D
100
AcDbEntity
  8
細線
100
AcDbLine
 10
6704.556627721377
 20
7147.346349032908
 30
0.0
 11
6706.888166012145
 21
7152.346349032893
 31
0.0
  0
LINE
  5
185A3
330
747D
100
AcDbEntity
  8
細線
100
AcDbLine
 10
6704.556627721358
 20
7147.346349032876
 30
0.0
 11
6634.556627721366
 21
7147.346349032876
 31
0.0
  0
LINE
  5
185A4
330
747D
100
AcDbEntity
  8
細線
100
AcDbLine
 10
6878.056627721374
 20
7170.346349032901
 30
0.0
 11
6461.056627721376
 21
7170.346349032936
 31
0.0
  0
LINE
  5
185A5
330
747D
100
AcDbEntity
  8
細線
 48
50.0
100
AcDbLine
 10
7286.056627721325
 20
7126.346349032819
 30
0.0
 11
6487.056627721379
 21
7126.346349032822
 31
0.0
  0
LINE
  5
185A6
330
747D
100
AcDbEntity
  8
細線
100
AcDbLine
 10
6772.225089430602
 20
7152.346349032876
 30
0.0
 11
6706.888166012129
 21
7152.346349032865
 31
0.0
  0
LINE
  5
185A7
330
747D
100
AcDbEntity
  8
細線
100
AcDbLine
 10
6863.056627721566
 20
7211.346349032817
 30
0.0
 11
6852.05662772138
 21
7211.346349032817
 31
0.0
  0
LINE
  5
185A8
330
747D
100
AcDbEntity
  8
細線
100
AcDbLine
 10
6872.056627721381
 20
7175.346349032875
 30
0.0
 11
6872.056627721381
 21
7183.346349032875
 31
0.0
  0
LINE
  5
185A9
330
747D
100
AcDbEntity
  8
細線
100
AcDbLine
 10
6872.056627721381
 20
7175.346349032875
 30
0.0
 11
6852.05662772138
 21
7175.346349032875
 31
0.0
  0
LINE
  5
185AA
330
747D
100
AcDbEntity
  8
細線
100
AcDbLine
 10
6852.05662772138
 20
7175.346349032875
 30
0.0
 11
6852.05662772138
 21
7211.346349032872
 31
0.0
  0
LINE
  5
185AB
330
747D
100
AcDbEntity
  8
細線
100
AcDbLine
 10
6893.05662772138
 20
7147.346349032876
 30
0.0
 11
6893.056627721387
 21
7177.346349032877
 31
0.0
  0
LINE
  5
185AC
330
747D
100
AcDbEntity
  8
細線
100
AcDbLine
 10
6893.05662772138
 20
7177.346349032877
 30
0.0
 11
6878.056627721377
 21
7177.346349032872
 31
0.0
  0
LINE
  5
185AD
330
747D
100
AcDbEntity
  8
細線
100
AcDbLine
 10
6878.056627721374
 20
7170.346349032873
 30
0.0
 11
6878.056627721377
 21
7177.346349032872
 31
0.0
  0
LINE
  5
185AE
330
747D
100
AcDbEntity
  8
細線
100
AcDbLine
 10
6878.056627721381
 20
7183.346349032875
 30
0.0
 11
6872.056627721381
 21
7183.346349032875
 31
0.0
  0
ARC
  5
185AF
330
747D
100
AcDbEntity
  8
細線
100
AcDbCircle
 10
6880.05662772138
 20
7182.646349032875
 30
0.0
 40
2.0
100
AcDbArc
 50
180.0
 51
270.0
  0
LINE
  5
185B0
330
747D
100
AcDbEntity
  8
細線
100
AcDbLine
 10
6878.056627721381
 20
7182.646349032878
 30
0.0
 11
6878.056627721381
 21
7183.346349032875
 31
0.0
  0
LINE
  5
185B1
330
747D
100
AcDbEntity
  8
細線
100
AcDbLine
 10
6880.05662772138
 20
7180.646349032876
 30
0.0
 11
6882.05662772138
 21
7180.646349032876
 31
0.0
  0
ARC
  5
185B2
330
747D
100
AcDbEntity
  8
細線
100
AcDbCircle
 10
6882.05662772138
 20
7182.646349032875
 30
0.0
 40
2.0
100
AcDbArc
 50
270.0
 51
0.0
  0
LINE
  5
185B3
330
747D
100
AcDbEntity
  8
細線
100
AcDbLine
 10
6884.056627721381
 20
7182.646349032878
 30
0.0
 11
6884.056627721381
 21
7183.346349032875
 31
0.0
  0
LINE
  5
185B4
330
747D
100
AcDbEntity
  8
細線
100
AcDbLine
 10
6774.55662772137
 20
7147.346349032891
 30
0.0
 11
6772.225089430602
 21
7152.346349032876
 31
0.0
  0
LINE
  5
185B5
330
747D
100
AcDbEntity
  8
細線
100
AcDbLine
 10
6893.05662772138
 20
7147.346349032876
 30
0.0
 11
6774.556627721377
 21
7147.346349032876
 31
0.0
  0
LINE
  5
185B6
330
747D
100
AcDbEntity
  8
細線
100
AcDbLine
 10
6980.55662772138
 20
7183.346349032865
 30
0.0
 11
6982.655012183062
 21
7187.846349032837
 31
0.0
  0
LINE
  5
185B7
330
747D
100
AcDbEntity
  8
細線
100
AcDbLine
 10
6980.556627721384
 20
7183.346349032873
 30
0.0
 11
6884.056627721381
 21
7183.346349032875
 31
0.0
  0
LINE
  5
185B8
330
747D
100
AcDbEntity
  8
細線
 48
50.0
100
AcDbLine
 10
7286.056627721325
 20
7160.346349032824
 30
0.0
 11
6893.056627721384
 21
7160.346349032824
 31
0.0
  0
LINE
  5
185B9
330
747D
100
AcDbEntity
  8
細線
100
AcDbLine
 10
7120.556627721391
 20
7183.346349032858
 30
0.0
 11
7122.888166012159
 21
7188.346349032844
 31
0.0
  0
LINE
  5
185BA
330
747D
100
AcDbEntity
  8
細線
100
AcDbLine
 10
7050.556627721373
 20
7183.346349032847
 30
0.0
 11
7048.458243259684
 21
7187.846349032837
 31
0.0
  0
LINE
  5
185BB
330
747D
100
AcDbEntity
  8
細線
100
AcDbLine
 10
7120.556627721383
 20
7183.346349032847
 30
0.0
 11
7050.556627721373
 21
7183.346349032847
 31
0.0
  0
LINE
  5
185BC
330
747D
100
AcDbEntity
  8
細線
100
AcDbLine
 10
7284.056627721326
 20
7183.346349032818
 30
0.0
 11
7190.556627721391
 21
7183.346349032821
 31
0.0
  0
LINE
  5
185BD
330
747D
100
AcDbEntity
  8
細線
100
AcDbLine
 10
7284.056627721326
 20
7165.346349032816
 30
0.0
 11
7284.056627721326
 21
7183.346349032816
 31
0.0
  0
LINE
  5
185BE
330
747D
100
AcDbEntity
  8
細線
 48
50.0
100
AcDbLine
 10
7284.056627721326
 20
7165.346349032816
 30
0.0
 11
7286.056627721325
 21
7165.346349032816
 31
0.0
  0
LINE
  5
185BF
330
747D
100
AcDbEntity
  8
細線
100
AcDbLine
 10
7190.556627721384
 20
7183.34634903284
 30
0.0
 11
7188.458243259687
 21
7187.846349032837
 31
0.0
  0
DIMENSION
  5
185C0
330
747D
100
AcDbEntity
  8
寸法
100
AcDbDimension
  2
*D21
 10
4666.056627721377
 20
6583.177184072339
 30
0.0
 11
5009.056627721377
 21
6583.177184072339
 31
0.0
 70
   160
  1
有効開口部間口\P<>
 71
     5
 42
686.0
  3
INABA_S40G
100
AcDbAlignedDimension
 13
5352.056627721377
 23
7110.346349032816
 33
0.0
 14
4666.056627721377
 24
7110.346349032742
 34
0.0
100
AcDbRotatedDimension
1001
ACAD
1000
DSTYLE
1002
{
1002
}
  0
LINE
  5
185C1
330
747D
100
AcDbEntity
  8
細線
100
AcDbLine
 10
5117.056627721376
 20
7113.346349032788
 30
0.0
 11
5017.05662772137
 21
7113.346349032775
 31
0.0
  0
LINE
  5
185C2
330
747D
100
AcDbEntity
  8
寸法
 48
50.0
100
AcDbLine
 10
5039.293225821264
 20
7040.673946646323
 30
0.0
 11
5258.445165996989
 21
7040.673946646323
 31
0.0
  0
LINE
  5
185C3
330
747D
100
AcDbEntity
  8
寸法
 48
50.0
100
AcDbLine
 10
5258.445165996989
 20
7040.673946646323
 30
0.0
 11
5169.160947401568
 21
7064.597580915812
 31
0.0
  0
LINE
  5
185C4
330
747D
100
AcDbEntity
  8
寸法
 48
50.0
100
AcDbLine
 10
5169.160947401568
 20
7064.597580915812
 30
0.0
 11
5169.160947401568
 21
7010.93394633402
 31
0.0
  0
LINE
  5
185C5
330
747D
100
AcDbEntity
  8
寸法
 48
50.0
100
AcDbLine
 10
4838.589405214607
 20
7007.451990160987
 30
0.0
 11
4889.995413124711
 21
7007.451990160987
 31
0.0
  0
LINE
  5
185C6
330
747D
100
AcDbEntity
  8
寸法
 48
50.0
100
AcDbLine
 10
4889.995413124711
 20
7007.451990160987
 30
0.0
 11
4889.995413124711
 21
7038.762148813154
 31
0.0
  0
LINE
  5
185C7
330
747D
100
AcDbEntity
  8
寸法
 48
50.0
100
AcDbLine
 10
4889.995413124711
 20
7038.762148813154
 30
0.0
 11
4919.756745116134
 21
7038.762148813154
 31
0.0
  0
LINE
  5
185C8
330
747D
100
AcDbEntity
  8
寸法
 48
50.0
100
AcDbLine
 10
4919.756745116134
 20
7038.762148813154
 30
0.0
 11
4864.292409169662
 21
7076.341599741765
 31
0.0
  0
LINE
  5
185C9
330
747D
100
AcDbEntity
  8
寸法
 48
50.0
100
AcDbLine
 10
4808.828073223184
 20
7038.762148813154
 30
0.0
 11
4864.292409169658
 21
7076.341599741765
 31
0.0
  0
LINE
  5
185CA
330
747D
100
AcDbEntity
  8
寸法
 48
50.0
100
AcDbLine
 10
4838.589405214607
 20
7038.762148813154
 30
0.0
 11
4808.828073223184
 21
7038.762148813154
 31
0.0
  0
LINE
  5
185CB
330
747D
100
AcDbEntity
  8
寸法
 48
50.0
100
AcDbLine
 10
4838.589405214607
 20
7007.451990160987
 30
0.0
 11
4838.589405214607
 21
7038.762148813154
 31
0.0
  0
LINE
  5
185CC
330
747D
100
AcDbEntity
  8
寸法
 48
50.0
100
AcDbLine
 10
4889.995413124711
 20
7007.451990160987
 30
0.0
 11
4838.589405214607
 21
7007.451990160987
 31
0.0
  0
LINE
  5
185CD
330
747D
100
AcDbEntity
  8
細線
100
AcDbLine
 10
5269.556627721395
 20
7147.346349032959
 30
0.0
 11
5277.056627721402
 21
7170.346349032875
 31
0.0
  0
LINE
  5
185CE
330
747D
100
AcDbEntity
  8
細線
100
AcDbLine
 10
5014.725089430601
 20
7118.346349032801
 30
0.0
 11
4949.38816601213
 21
7118.34634903279
 31
0.0
  0
LINE
  5
185CF
330
747D
100
AcDbEntity
  8
細線
100
AcDbLine
 10
5017.05662772137
 20
7113.346349032815
 30
0.0
 11
5014.725089430601
 21
7118.346349032801
 31
0.0
  0
LINE
  5
185D0
330
747D
100
AcDbEntity
  8
細線
100
AcDbLine
 10
4947.056627721376
 20
7113.346349032834
 30
0.0
 11
4949.388166012145
 21
7118.346349032819
 31
0.0
  0
LINE
  5
185D1
330
747D
100
AcDbEntity
  8
細線
100
AcDbLine
 10
4822.556627721376
 20
7131.346349032814
 30
0.0
 11
4822.556627721376
 21
7113.346349032788
 31
0.0
  0
LINE
  5
185D2
330
747D
100
AcDbEntity
  8
細線
100
AcDbLine
 10
4781.556627721377
 20
7131.346349032807
 30
0.0
 11
4781.556627721377
 21
7113.346349032788
 31
0.0
  0
LINE
  5
185D3
330
747D
100
AcDbEntity
  8
細線
100
AcDbLine
 10
4822.556627721376
 20
7131.346349032814
 30
0.0
 11
4781.556627721377
 21
7131.346349032807
 31
0.0
  0
ARC
  5
185D4
330
747D
100
AcDbEntity
  8
部品1
100
AcDbCircle
 10
4784.100783598653
 20
7112.84634903281
 30
0.0
 40
1.0
100
AcDbArc
 50
270.0
 51
19.47122063447127
  0
LINE
  5
185D5
330
747D
100
AcDbEntity
  8
部品1
 48
0.01
100
AcDbLine
 10
4777.056627721369
 20
7113.346349032813
 30
0.0
 11
4777.056627721369
 21
7112.346349032812
 31
0.0
  0
LINE
  5
185D6
330
747D
100
AcDbEntity
  8
部品1
 48
0.01
100
AcDbLine
 10
4777.556627721369
 20
7111.846349032813
 30
0.0
 11
4784.100783598653
 21
7111.846349032811
 31
0.0
  0
ARC
  5
185D7
330
747D
100
AcDbEntity
  8
部品1
 48
0.01
100
AcDbCircle
 10
4777.556627721369
 20
7112.346349032812
 30
0.0
 40
0.5
100
AcDbArc
 50
180.0
 51
270.0
  0
ARC
  5
185D8
330
747D
100
AcDbEntity
  8
部品1
100
AcDbCircle
 10
4809.556627721369
 20
7121.846349032811
 30
0.0
 40
26.0
100
AcDbArc
 50
180.0
 51
199.4712206344713
  0
ARC
  5
185D9
330
747D
100
AcDbEntity
  8
部品1
 48
0.01
100
AcDbCircle
 10
4785.556627721369
 20
7126.84634903281
 30
0.0
 40
2.0
100
AcDbArc
 50
90.0
 51
180.0
  0
LINE
  5
185DA
330
747D
100
AcDbEntity
  8
部品1
100
AcDbLine
 10
4783.556627721369
 20
7121.846349032811
 30
0.0
 11
4783.556627721369
 21
7126.84634903281
 31
0.0
  0
ARC
  5
185DB
330
747D
100
AcDbEntity
  8
部品1
100
AcDbCircle
 10
4802.05662772137
 20
7137.646349032813
 30
0.0
 40
16.0
100
AcDbArc
 50
218.3930440191395
 51
254.057631394325
  0
ARC
  5
185DC
330
747D
100
AcDbEntity
  8
部品1
100
AcDbCircle
 10
4787.165019346183
 20
7125.846349032811
 30
0.0
 40
3.0
100
AcDbArc
 50
38.39304401913947
 51
90.0
  0
LINE
  5
185DD
330
747D
100
AcDbEntity
  8
部品1
 48
0.01
100
AcDbLine
 10
4785.556627721369
 20
7128.846349032811
 30
0.0
 11
4787.165019346183
 21
7128.846349032811
 31
0.0
  0
ARC
  5
185DE
330
747D
100
AcDbEntity
  8
部品1
100
AcDbCircle
 10
4802.05662772137
 20
7137.646349032813
 30
0.0
 40
16.0
100
AcDbArc
 50
285.942368605675
 51
321.6069559808606
  0
LINE
  5
185DF
330
747D
100
AcDbEntity
  8
部品1
100
AcDbLine
 10
4805.62734193564
 20
7122.146349032814
 30
0.0
 11
4798.485913507098
 21
7122.146349032814
 31
0.0
  0
ARC
  5
185E0
330
747D
100
AcDbEntity
  8
部品1
100
AcDbCircle
 10
4805.62734193564
 20
7125.146349032814
 30
0.0
 40
3.0
100
AcDbArc
 50
270.0
 51
285.942368605675
  0
ARC
  5
185E1
330
747D
100
AcDbEntity
  8
部品1
100
AcDbCircle
 10
4798.485913507098
 20
7125.146349032814
 30
0.0
 40
3.0
100
AcDbArc
 50
254.057631394325
 51
270.0
  0
LINE
  5
185E2
330
747D
100
AcDbEntity
  8
部品1
 48
0.01
100
AcDbLine
 10
4818.55662772137
 20
7128.846349032811
 30
0.0
 11
4816.94823609656
 21
7128.846349032811
 31
0.0
  0
ARC
  5
185E3
330
747D
100
AcDbEntity
  8
部品1
100
AcDbCircle
 10
4816.94823609656
 20
7125.846349032811
 30
0.0
 40
3.0
100
AcDbArc
 50
90.0
 51
141.6069559808605
  0
ARC
  5
185E4
330
747D
100
AcDbEntity
  8
部品1
 48
0.01
100
AcDbCircle
 10
4818.55662772137
 20
7126.84634903281
 30
0.0
 40
2.0
100
AcDbArc
 50
0.0
 51
90.0
  0
LINE
  5
185E5
330
747D
100
AcDbEntity
  8
部品1
100
AcDbLine
 10
4820.556627721369
 20
7121.846349032811
 30
0.0
 11
4820.556627721369
 21
7126.84634903281
 31
0.0
  0
ARC
  5
185E6
330
747D
100
AcDbEntity
  8
部品1
100
AcDbCircle
 10
4794.556627721369
 20
7121.846349032811
 30
0.0
 40
26.0
100
AcDbArc
 50
340.5287793655287
 51
0.0
  0
ARC
  5
185E7
330
747D
100
AcDbEntity
  8
部品1
100
AcDbCircle
 10
4820.012471844086
 20
7112.84634903281
 30
0.0
 40
1.0
100
AcDbArc
 50
160.5287793655287
 51
270.0
  0
LINE
  5
185E8
330
747D
100
AcDbEntity
  8
部品1
 48
0.01
100
AcDbLine
 10
4826.55662772137
 20
7111.846349032813
 30
0.0
 11
4819.944122291309
 21
7111.846349032811
 31
0.0
  0
LINE
  5
185E9
330
747D
100
AcDbEntity
  8
部品1
 48
0.01
100
AcDbLine
 10
4827.056627721369
 20
7113.346349032813
 30
0.0
 11
4827.056627721369
 21
7112.346349032812
 31
0.0
  0
LINE
  5
185EA
330
747D
100
AcDbEntity
  8
部品1
 48
0.01
100
AcDbLine
 10
4827.056627721369
 20
7113.346349032813
 30
0.0
 11
4827.056627721369
 21
7112.346349032812
 31
0.0
  0
ARC
  5
185EB
330
747D
100
AcDbEntity
  8
部品1
 48
0.01
100
AcDbCircle
 10
4826.55662772137
 20
7112.346349032812
 30
0.0
 40
0.5
100
AcDbArc
 50
270.0
 51
0.0
  0
LINE
  5
185EC
330
747D
100
AcDbEntity
  8
細線
100
AcDbLine
 10
5194.556627721373
 20
7147.346349032884
 30
0.0
 11
5196.88816601214
 21
7152.346349032869
 31
0.0
  0
LINE
  5
185ED
330
747D
100
AcDbEntity
  8
細線
100
AcDbLine
 10
5264.556627721369
 20
7147.346349032865
 30
0.0
 11
5262.225089430602
 21
7152.346349032851
 31
0.0
  0
LINE
  5
185EE
330
747D
100
AcDbEntity
  8
細線
100
AcDbLine
 10
5262.225089430602
 20
7152.346349032851
 30
0.0
 11
5196.888166012126
 21
7152.346349032839
 31
0.0
  0
LINE
  5
185EF
330
747D
100
AcDbEntity
  8
細線
100
AcDbLine
 10
5194.556627721369
 20
7147.346349032876
 30
0.0
 11
5108.056627721388
 21
7147.346349032878
 31
0.0
  0
LINE
  5
185F0
330
747D
100
AcDbEntity
  8
細線
100
AcDbLine
 10
5096.056627721359
 20
7143.346349032774
 30
0.0
 11
5096.056627721359
 21
7147.346349032777
 31
0.0
  0
LINE
  5
185F1
330
747D
100
AcDbEntity
  8
細線
100
AcDbLine
 10
5096.056627721359
 20
7143.346349032774
 30
0.0
 11
5076.056627721369
 21
7143.346349032774
 31
0.0
  0
LINE
  5
185F2
330
747D
100
AcDbEntity
  8
細線
100
AcDbLine
 10
5076.056627721369
 20
7143.346349032774
 30
0.0
 11
5076.05662772138
 21
7177.346349032783
 31
0.0
  0
LINE
  5
185F3
330
747D
100
AcDbEntity
  8
細線
100
AcDbLine
 10
5117.056627721376
 20
7113.346349032788
 30
0.0
 11
5117.056627721384
 21
7143.346349032788
 31
0.0
  0
LINE
  5
185F4
330
747D
100
AcDbEntity
  8
細線
100
AcDbLine
 10
5117.056627721384
 20
7143.346349032788
 30
0.0
 11
5102.05662772138
 21
7143.346349032785
 31
0.0
  0
LINE
  5
185F5
330
747D
100
AcDbEntity
  8
細線
100
AcDbLine
 10
5102.05662772138
 20
7136.346349032784
 30
0.0
 11
5102.05662772138
 21
7143.346349032785
 31
0.0
  0
LINE
  5
185F6
330
747D
100
AcDbEntity
  8
細線
100
AcDbLine
 10
5102.056627721358
 20
7147.346349032781
 30
0.0
 11
5096.056627721359
 21
7147.346349032781
 31
0.0
  0
LINE
  5
185F7
330
747D
100
AcDbEntity
  8
細線
100
AcDbLine
 10
5108.056627721384
 20
7146.646349032781
 30
0.0
 11
5108.056627721384
 21
7147.346349032781
 31
0.0
  0
ARC
  5
185F8
330
747D
100
AcDbEntity
  8
細線
100
AcDbCircle
 10
5106.056627721383
 20
7146.646349032781
 30
0.0
 40
2.0
100
AcDbArc
 50
270.0
 51
0.0
  0
LINE
  5
185F9
330
747D
100
AcDbEntity
  8
細線
100
AcDbLine
 10
5104.056627721384
 20
7144.64634903278
 30
0.0
 11
5106.056627721383
 21
7144.64634903278
 31
0.0
  0
LINE
  5
185FA
330
747D
100
AcDbEntity
  8
細線
100
AcDbLine
 10
5102.056627721384
 20
7146.646349032781
 30
0.0
 11
5102.056627721384
 21
7147.346349032781
 31
0.0
  0
ARC
  5
185FB
330
747D
100
AcDbEntity
  8
細線
100
AcDbCircle
 10
5104.056627721384
 20
7146.646349032781
 30
0.0
 40
2.0
100
AcDbArc
 50
180.0
 51
270.0
  0
LINE
  5
185FC
330
747D
100
AcDbEntity
  8
細線
100
AcDbLine
 10
5091.056627721377
 20
7170.346349032782
 30
0.0
 11
5091.056627721377
 21
7177.346349032785
 31
0.0
  0
ARC
  5
185FD
330
747D
100
AcDbEntity
  8
細線
100
AcDbCircle
 10
4903.60129688172
 20
7138.846349032862
 30
0.0
 40
6.0
100
AcDbArc
 50
204.6243183522924
 51
335.3756816477077
  0
LINE
  5
185FE
330
747D
100
AcDbEntity
  8
細線
100
AcDbLine
 10
4933.601290381746
 20
7113.34634903296
 30
0.0
 11
4926.10129038175
 21
7136.346349032891
 31
0.0
  0
LINE
  5
185FF
330
747D
100
AcDbEntity
  8
細線
100
AcDbLine
 10
4873.601290381746
 20
7113.34634903297
 30
0.0
 11
4881.101290381753
 21
7136.346349032891
 31
0.0
  0
ARC
  5
18600
330
747D
100
AcDbEntity
  8
細線
100
AcDbCircle
 10
5299.55663422136
 20
7172.846349032877
 30
0.0
 40
6.0
100
AcDbArc
 50
204.6243183522924
 51
335.3756816477077
  0
LINE
  5
18601
330
747D
100
AcDbEntity
  8
細線
100
AcDbLine
 10
5091.056627721377
 20
7177.346349032785
 30
0.0
 11
5076.056627721377
 21
7177.346349032783
 31
0.0
  0
LINE
  5
18602
330
747D
100
AcDbEntity
  8
細線
100
AcDbLine
 10
5329.556627721395
 20
7147.346349032949
 30
0.0
 11
5322.056627721401
 21
7170.346349032875
 31
0.0
  0
LINE
  5
18603
330
747D
100
AcDbEntity
  8
細線
100
AcDbLine
 10
5334.556627721377
 20
7147.346349032905
 30
0.0
 11
5336.888166012144
 21
7152.346349032891
 31
0.0
  0
LINE
  5
18604
330
747D
100
AcDbEntity
  8
細線
100
AcDbLine
 10
5334.556627721358
 20
7147.346349032872
 30
0.0
 11
5264.556627721366
 21
7147.346349032872
 31
0.0
  0
LINE
  5
18605
330
747D
100
AcDbEntity
  8
細線
 48
50.0
100
AcDbLine
 10
5076.056627721373
 20
7160.346349032825
 30
0.0
 11
4666.056627721373
 21
7160.346349032758
 31
0.0
  0
LINE
  5
18606
330
747D
100
AcDbEntity
  8
細線
100
AcDbLine
 10
5102.05662772138
 20
7136.34634903285
 30
0.0
 11
4681.056627721376
 21
7136.346349032788
 31
0.0
  0
LINE
  5
18607
330
747D
100
AcDbEntity
  8
細線
 48
50.0
100
AcDbLine
 10
5476.906950810931
 20
7126.346349032816
 30
0.0
 11
5117.05662772138
 21
7126.346349032818
 31
0.0
  0
LINE
  5
18608
330
747D
100
AcDbEntity
  8
細線
100
AcDbLine
 10
5469.148563659743
 20
7170.3463490329
 30
0.0
 11
5091.056627721377
 21
7170.346349032932
 31
0.0
  0
LINE
  5
18609
330
747D
100
AcDbEntity
  8
細線
100
AcDbLine
 10
4947.056627721376
 20
7113.346349032831
 30
0.0
 11
4657.044321072324
 21
7113.346349032788
 31
0.0
  0
LINE
  5
1860A
330
747D
100
AcDbEntity
  8
細線
100
AcDbLine
 10
4666.056627721377
 20
7117.346349032742
 30
0.0
 11
4666.056627721377
 21
7113.346349032788
 31
0.0
  0
LINE
  5
1860B
330
747D
100
AcDbEntity
  8
細線
100
AcDbLine
 10
4681.056627721376
 20
7143.346349032788
 30
0.0
 11
4681.056627721376
 21
7136.346349032788
 31
0.0
  0
LINE
  5
1860C
330
747D
100
AcDbEntity
  8
細線
100
AcDbLine
 10
4681.056627721376
 20
7143.346349032788
 30
0.0
 11
4666.056627721377
 21
7143.346349032788
 31
0.0
  0
LINE
  5
1860D
330
747D
100
AcDbEntity
  8
細線
100
AcDbLine
 10
5402.225089430602
 20
7152.346349032872
 30
0.0
 11
5336.88816601213
 21
7152.34634903286
 31
0.0
  0
LINE
  5
1860E
330
747D
100
AcDbEntity
  8
細線
100
AcDbLine
 10
5404.556627721369
 20
7147.346349032886
 30
0.0
 11
5402.225089430602
 21
7152.346349032872
 31
0.0
  0
LINE
  5
1860F
330
747D
100
AcDbEntity
  8
細線
100
AcDbLine
 10
5473.204084216042
 20
7147.346349032874
 30
0.0
 11
5404.556627721376
 21
7147.346349032872
 31
0.0
  0
LINE
  5
18610
330
747D
100
AcDbEntity
  8
細線
100
AcDbLine
 10
5508.056627721373
 20
7170.346349032898
 30
0.0
 11
5499.611362016316
 21
7170.3463490329
 31
0.0
  0
LINE
  5
18611
330
747D
100
AcDbEntity
  8
細線
100
AcDbLine
 10
5502.05662772138
 20
7175.346349032873
 30
0.0
 11
5502.05662772138
 21
7183.346349032873
 31
0.0
  0
LINE
  5
18612
330
747D
100
AcDbEntity
  8
細線
100
AcDbLine
 10
5502.05662772138
 20
7175.346349032873
 30
0.0
 11
5498.729727112779
 21
7175.346349032871
 31
0.0
  0
LINE
  5
18613
330
747D
100
AcDbEntity
  8
細線
100
AcDbLine
 10
5523.056627721381
 20
7177.346349032872
 30
0.0
 11
5508.056627721376
 21
7177.34634903287
 31
0.0
  0
LINE
  5
18614
330
747D
100
AcDbEntity
  8
細線
100
AcDbLine
 10
5508.056627721373
 20
7170.346349032868
 30
0.0
 11
5508.056627721376
 21
7177.34634903287
 31
0.0
  0
LINE
  5
18615
330
747D
100
AcDbEntity
  8
細線
100
AcDbLine
 10
5508.05662772138
 20
7183.346349032873
 30
0.0
 11
5502.05662772138
 21
7183.346349032873
 31
0.0
  0
ARC
  5
18616
330
747D
100
AcDbEntity
  8
細線
100
AcDbCircle
 10
5510.05662772138
 20
7182.646349032872
 30
0.0
 40
2.0
100
AcDbArc
 50
180.0
 51
270.0
  0
LINE
  5
18617
330
747D
100
AcDbEntity
  8
細線
100
AcDbLine
 10
5508.05662772138
 20
7182.646349032873
 30
0.0
 11
5508.05662772138
 21
7183.346349032873
 31
0.0
  0
LINE
  5
18618
330
747D
100
AcDbEntity
  8
細線
100
AcDbLine
 10
5510.05662772138
 20
7180.646349032874
 30
0.0
 11
5512.05662772138
 21
7180.646349032874
 31
0.0
  0
ARC
  5
18619
330
747D
100
AcDbEntity
  8
細線
100
AcDbCircle
 10
5512.05662772138
 20
7182.646349032872
 30
0.0
 40
2.0
100
AcDbArc
 50
270.0
 51
0.0
  0
LINE
  5
1861A
330
747D
100
AcDbEntity
  8
細線
100
AcDbLine
 10
5514.05662772138
 20
7182.646349032873
 30
0.0
 11
5514.05662772138
 21
7183.346349032873
 31
0.0
  0
LINE
  5
1861B
330
747D
100
AcDbEntity
  8
細線
100
AcDbLine
 10
5523.056627721381
 20
7147.346349032872
 30
0.0
 11
5503.666882572616
 21
7147.346349032872
 31
0.0
  0
LINE
  5
1861C
330
747D
100
AcDbEntity
  8
細線
100
AcDbLine
 10
5523.056627721381
 20
7147.346349032872
 30
0.0
 11
5523.056627721388
 21
7177.346349032872
 31
0.0
  0
LINE
  5
1861D
330
747D
100
AcDbEntity
  8
細線
 48
50.0
100
AcDbLine
 10
5916.056627721325
 20
7160.34634903282
 30
0.0
 11
5523.056627721384
 21
7160.34634903282
 31
0.0
  0
LINE
  5
1861E
330
747D
100
AcDbEntity
  8
細線
 48
50.0
100
AcDbLine
 10
5916.056627721325
 20
7126.346349032816
 30
0.0
 11
5507.369749167505
 21
7126.346349032816
 31
0.0
  0
LINE
  5
1861F
330
747D
100
AcDbEntity
  8
細線
100
AcDbLine
 10
5610.55662772138
 20
7183.346349032861
 30
0.0
 11
5612.655012183062
 21
7187.846349032835
 31
0.0
  0
LINE
  5
18620
330
747D
100
AcDbEntity
  8
細線
100
AcDbLine
 10
5610.556627721384
 20
7183.346349032868
 30
0.0
 11
5514.05662772138
 21
7183.346349032873
 31
0.0
  0
LINE
  5
18621
330
747D
100
AcDbEntity
  8
細線
100
AcDbLine
 10
5750.556627721391
 20
7183.346349032854
 30
0.0
 11
5752.888166012159
 21
7188.34634903284
 31
0.0
  0
LINE
  5
18622
330
747D
100
AcDbEntity
  8
細線
100
AcDbLine
 10
5680.556627721372
 20
7183.346349032842
 30
0.0
 11
5678.458243259683
 21
7187.846349032835
 31
0.0
  0
LINE
  5
18623
330
747D
100
AcDbEntity
  8
細線
100
AcDbLine
 10
5750.556627721383
 20
7183.346349032842
 30
0.0
 11
5680.556627721372
 21
7183.346349032842
 31
0.0
  0
LINE
  5
18624
330
747D
100
AcDbEntity
  8
細線
100
AcDbLine
 10
5914.056627721326
 20
7183.346349032814
 30
0.0
 11
5820.556627721391
 21
7183.346349032818
 31
0.0
  0
LINE
  5
18625
330
747D
100
AcDbEntity
  8
細線
100
AcDbLine
 10
5820.556627721384
 20
7183.346349032835
 30
0.0
 11
5818.458243259687
 21
7187.846349032835
 31
0.0
  0
LINE
  5
18626
330
747D
100
AcDbEntity
  8
細線
100
AcDbLine
 10
5914.056627721326
 20
7165.346349032812
 30
0.0
 11
5914.056627721326
 21
7183.346349032813
 31
0.0
  0
LINE
  5
18627
330
747D
100
AcDbEntity
  8
細線
 48
50.0
100
AcDbLine
 10
5914.056627721326
 20
7165.346349032812
 30
0.0
 11
5916.056627721325
 21
7165.346349032812
 31
0.0
  0
MTEXT
  5
18667
330
747D
100
AcDbEntity
  8
寸法
 62
     7
 48
50.0
100
AcDbMText
 10
5576.680092090008
 20
9086.406136423329
 30
0.0
 40
96.0
 41
0.0
 71
     5
 72
     1
  1
棚 2段
  7
STYLE1
 11
0.0000000000000001
 21
1.0
 31
0.0
 73
     1
 44
1.0
1001
ACAD
1000
MTEXTBEGIN
1070
    73
1070
     1
1070
    44
1040
1.0
1070
    74
1070
     0
1000
MTEXTEND
  0
MTEXT
  5
18668
330
747D
100
AcDbEntity
  8
寸法
 62
     7
 48
50.0
100
AcDbMText
 10
5576.680092090009
 20
7807.156136423319
 30
0.0
 40
96.0
 41
0.0
 71
     5
 72
     1
  1
棚 2段
  7
STYLE1
 11
0.0000000000000001
 21
1.0
 31
0.0
 73
     1
 44
1.0
1001
ACAD
1000
MTEXTBEGIN
1070
    73
1070
     1
1070
    44
1040
1.0
1070
    74
1070
     0
1000
MTEXTEND
  0
MTEXT
  5
18669
330
747D
100
AcDbEntity
  8
寸法
 62
     7
 48
50.0
100
AcDbMText
 10
6945.505330285405
 20
9083.23166896911
 30
0.0
 40
96.0
 41
0.0
 71
     5
 72
     1
  1
棚 2段
  7
STYLE1
 11
0.0000000000000001
 21
1.0
 31
0.0
 73
     1
 44
1.0
1001
ACAD
1000
MTEXTBEGIN
1070
    73
1070
     1
1070
    44
1040
1.0
1070
    74
1070
     0
1000
MTEXTEND
  0
MTEXT
  5
1866A
330
747D
100
AcDbEntity
  8
寸法
 62
     7
 48
50.0
100
AcDbMText
 10
6945.505330285406
 20
7803.981668969099
 30
0.0
 40
96.0
 41
0.0
 71
     5
 72
     1
  1
棚 2段
  7
STYLE1
 11
0.0000000000000001
 21
1.0
 31
0.0
 73
     1
 44
1.0
1001
ACAD
1000
MTEXTBEGIN
1070
    73
1070
     1
1070
    44
1040
1.0
1070
    74
1070
     0
1000
MTEXTEND
  0
MTEXT
  5
1866B
330
747D
100
AcDbEntity
  8
寸法
 62
     7
 48
50.0
100
AcDbMText
 10
8315.505330285406
 20
9083.23166896911
 30
0.0
 40
96.0
 41
0.0
 71
     5
 72
     1
  1
棚 2段
  7
STYLE1
 11
0.0000000000000001
 21
1.0
 31
0.0
 73
     1
 44
1.0
1001
ACAD
1000
MTEXTBEGIN
1070
    73
1070
     1
1070
    44
1040
1.0
1070
    74
1070
     0
1000
MTEXTEND
  0
MTEXT
  5
1866C
330
747D
100
AcDbEntity
  8
寸法
 62
     7
 48
50.0
100
AcDbMText
 10
8315.505330285407
 20
7803.981668969099
 30
0.0
 40
96.0
 41
0.0
 71
     5
 72
     1
  1
棚 2段
  7
STYLE1
 11
0.0000000000000001
 21
1.0
 31
0.0
 73
     1
 44
1.0
1001
ACAD
1000
MTEXTBEGIN
1070
    73
1070
     1
1070
    44
1040
1.0
1070
    74
1070
     0
1000
MTEXTEND
  0
LINE
  5
1886C
330
747D
100
AcDbEntity
  8
細線
 48
50.0
100
AcDbLine
 10
12729.35400952887
 20
4592.986421636951
 30
0.0
 11
12729.35400952887
 21
2802.986421636952
 31
0.0
  0
LINE
  5
1886D
330
747D
100
AcDbEntity
  8
細線
 48
50.0
100
AcDbLine
 10
12744.35400952887
 20
4592.986421636951
 30
0.0
 11
12744.35400952887
 21
2802.986421636952
 31
0.0
  0
LINE
  5
1886E
330
747D
100
AcDbEntity
  8
細線
 48
50.0
100
AcDbLine
 10
12604.35400952887
 20
4592.986421636951
 30
0.0
 11
12604.35400952887
 21
2802.986421636952
 31
0.0
  0
LINE
  5
1886F
330
747D
100
AcDbEntity
  8
細線
 48
50.0
100
AcDbLine
 10
12589.35400952887
 20
4592.986421636951
 30
0.0
 11
12589.35400952887
 21
2802.986421636952
 31
0.0
  0
LINE
  5
18870
330
747D
100
AcDbEntity
  8
細線
 48
50.0
100
AcDbLine
 10
12449.35400952887
 20
4592.986421636951
 30
0.0
 11
12449.35400952887
 21
2802.986421636952
 31
0.0
  0
LINE
  5
18871
330
747D
100
AcDbEntity
  8
細線
 48
50.0
100
AcDbLine
 10
12464.35400952887
 20
4592.986421636951
 30
0.0
 11
12464.35400952887
 21
2802.986421636952
 31
0.0
  0
LINE
  5
18872
330
747D
100
AcDbEntity
  8
部品1
100
AcDbLine
 10
12386.85400952886
 20
4592.986421636951
 30
0.0
 11
12386.85400952886
 21
2802.986421636952
 31
0.0
  0
LINE
  5
18873
330
747D
100
AcDbEntity
  8
部品1
100
AcDbLine
 10
11827.0791399581
 20
4953.190809599968
 30
0.0
 11
12152.53415360114
 21
4935.672750641106
 31
0.0
  0
ARC
  5
18874
330
747D
100
AcDbEntity
  8
部品1
100
AcDbCircle
 10
13347.4815453428
 20
4667.010178902743
 30
0.0
 40
0.7
100
AcDbArc
 50
275.0921697642079
 51
354.1866997666569
  0
ARC
  5
18875
330
747D
100
AcDbEntity
  8
部品1
100
AcDbCircle
 10
13358.34089109212
 20
4744.053433720666
 30
0.0
 40
0.7
100
AcDbArc
 50
275.0921697642079
 51
354.1866997665013
  0
ARC
  5
18876
330
747D
100
AcDbEntity
  8
部品1
100
AcDbCircle
 10
13358.66929633473
 20
4740.368036863577
 30
0.0
 40
3.0
100
AcDbArc
 50
95.0921697643163
 51
174.1866997665013
  0
ARC
  5
18877
330
747D
100
AcDbEntity
  8
部品1
100
AcDbCircle
 10
13347.8099505854
 20
4663.324782045652
 30
0.0
 40
3.0
100
AcDbArc
 50
95.09216976420788
 51
174.1866997665013
  0
ARC
  5
18878
330
747D
100
AcDbEntity
  8
部品1
 48
50.0
100
AcDbCircle
 10
13336.7818153103
 20
4653.734037441771
 30
0.0
 40
7.0
100
AcDbArc
 50
267.8377559870533
 51
354.1866997665013
  0
ARC
  5
18879
330
747D
100
AcDbEntity
  8
部品1
 48
50.0
100
AcDbCircle
 10
13354.10391177481
 20
4764.636584583944
 30
0.0
 40
7.0
100
AcDbArc
 50
354.1866997665013
 51
87.03587545293636
  0
LINE
  5
1887A
330
747D
100
AcDbEntity
  8
部品1
 48
50.0
100
AcDbLine
 10
13344.82537891479
 20
4663.628643762556
 30
0.0
 11
13343.74581587505
 21
4653.025026768997
 31
0.0
  0
LINE
  5
1887B
330
747D
100
AcDbEntity
  8
部品1
 48
50.0
100
AcDbLine
 10
13355.68472466412
 20
4740.67189858048
 30
0.0
 11
13348.17794539928
 21
4666.939277835467
 31
0.0
  0
LINE
  5
1887C
330
747D
100
AcDbEntity
  8
部品1
 48
50.0
100
AcDbLine
 10
13361.06791233957
 20
4763.927573911169
 30
0.0
 11
13359.0372911486
 21
4743.982532653389
 31
0.0
  0
ARC
  5
1887D
330
747D
100
AcDbEntity
  8
部品1
100
AcDbCircle
 10
10597.89110140023
 20
4706.800580595853
 30
0.0
 40
0.7
100
AcDbArc
 50
181.0932240292635
 51
260.1877540315872
  0
ARC
  5
1887E
330
747D
100
AcDbEntity
  8
部品1
100
AcDbCircle
 10
10593.11842780262
 20
4799.666358795973
 30
0.0
 40
0.7
100
AcDbArc
 50
181.0932240292114
 51
260.1877540315872
  0
ARC
  5
1887F
330
747D
100
AcDbEntity
  8
部品1
100
AcDbCircle
 10
10592.4878733996
 20
4796.020484258575
 30
0.0
 40
3.0
100
AcDbArc
 50
1.093224029315636
 51
80.18775403158718
  0
ARC
  5
18880
330
747D
100
AcDbEntity
  8
部品1
100
AcDbCircle
 10
10597.2605469972
 20
4703.154706058456
 30
0.0
 40
3.0
100
AcDbArc
 50
1.093224029315636
 51
80.18775403158718
  0
ARC
  5
18881
330
747D
100
AcDbEntity
  8
部品1
 48
50.0
100
AcDbCircle
 10
10607.4606793724
 20
4692.762462675974
 30
0.0
 40
7.0
100
AcDbArc
 50
181.0932240293156
 51
267.8377559870533
  0
ARC
  5
18882
330
747D
100
AcDbEntity
  8
部品1
 48
50.0
100
AcDbCircle
 10
10599.03702127031
 20
4819.71352220907
 30
0.0
 40
7.0
100
AcDbArc
 50
87.03587545293636
 51
181.0932240293156
  0
LINE
  5
18883
330
747D
100
AcDbEntity
  8
部品1
 48
50.0
100
AcDbLine
 10
10600.26000092363
 20
4703.211943661639
 30
0.0
 11
10600.46195354406
 21
4692.628908268547
 31
0.0
  0
LINE
  5
18884
330
747D
100
AcDbEntity
  8
細線
 48
50.0
100
AcDbLine
 10
10597.65390786696
 20
4706.141991780447
 30
0.0
 11
13347.6575722976
 21
4666.332672805954
 31
0.0
  0
LINE
  5
18885
330
747D
100
AcDbEntity
  8
細線
 48
50.0
100
AcDbLine
 10
10592.89343262968
 20
4799.003503478311
 30
0.0
 11
13358.52941737485
 21
4743.379298837483
 31
0.0
  0
LINE
  5
18886
330
747D
100
AcDbEntity
  8
部品1
 48
50.0
100
AcDbLine
 10
10595.48732732603
 20
4796.077721861759
 30
0.0
 11
10597.19122881739
 21
4706.787225155111
 31
0.0
  0
LINE
  5
18887
330
747D
100
AcDbEntity
  8
部品1
 48
50.0
100
AcDbLine
 10
10592.03829544197
 20
4819.579967801643
 30
0.0
 11
10592.41855521978
 21
4799.65300335523
 31
0.0
  0
LINE
  5
18888
330
747D
100
AcDbEntity
  8
細線
 48
50.0
100
AcDbLine
 10
13328.82329272255
 20
4772.139844116419
 30
0.0
 11
13324.10632664087
 21
4647.207628181503
 31
0.0
  0
LINE
  5
18889
330
747D
100
AcDbEntity
  8
細線
 48
50.0
100
AcDbLine
 10
10624.85400952886
 20
4825.386098012355
 30
0.0
 11
10619.56490797336
 21
4685.300465385
 31
0.0
  0
LINE
  5
1888A
330
747D
100
AcDbEntity
  8
部品1
100
AcDbLine
 10
10607.19657413081
 20
4685.767446705916
 30
0.0
 11
13336.51771006871
 21
4646.739021471711
 31
0.0
  0
LINE
  5
1888B
330
747D
100
AcDbEntity
  8
部品1
100
AcDbLine
 10
10599.39899588582
 20
4826.704156971216
 30
0.0
 11
13354.46588639033
 21
4771.627219346089
 31
0.0
  0
LINE
  5
1888C
330
747D
100
AcDbEntity
  8
部品1
 48
50.0
100
AcDbLine
 10
11852.53415360114
 20
4951.872750641106
 30
0.0
 11
12152.53415360114
 21
4951.872750641106
 31
0.0
  0
LINE
  5
1888D
330
747D
100
AcDbEntity
  8
部品1
 48
50.0
100
AcDbLine
 10
12152.53415360114
 20
4951.872750641106
 30
0.0
 11
12152.53415360114
 21
4935.672750641106
 31
0.0
  0
TEXT
  5
1888E
330
747D
100
AcDbEntity
  8
部品1
 48
50.0
100
AcDbText
 10
11840.80198882487
 20
4987.756772793539
 30
0.0
 40
120.0
  1
1000
  7
STYLE1
100
AcDbText
  0
TEXT
  5
1888F
330
747D
100
AcDbEntity
  8
部品1
 48
50.0
100
AcDbText
 10
12318.43501148996
 20
4850.255514575256
 30
0.0
 40
120.0
  1
37
 50
90.0
  7
STYLE1
100
AcDbText
  0
LINE
  5
18890
330
747D
100
AcDbEntity
  8
細線
 48
50.0
100
AcDbLine
 10
12044.35400952887
 20
4592.98642163695
 30
0.0
 11
12044.35400952887
 21
2802.98642163695
 31
0.0
  0
LINE
  5
18891
330
747D
100
AcDbEntity
  8
細線
 48
50.0
100
AcDbLine
 10
12029.35400952887
 20
4592.98642163695
 30
0.0
 11
12029.35400952887
 21
2802.98642163695
 31
0.0
  0
LINE
  5
18892
330
747D
100
AcDbEntity
  8
細線
 48
50.0
100
AcDbLine
 10
12169.35400952886
 20
4592.98642163695
 30
0.0
 11
12169.35400952886
 21
2802.98642163695
 31
0.0
  0
LINE
  5
18893
330
747D
100
AcDbEntity
  8
細線
 48
50.0
100
AcDbLine
 10
12184.35400952887
 20
4592.98642163695
 30
0.0
 11
12184.35400952887
 21
2802.98642163695
 31
0.0
  0
LINE
  5
18894
330
747D
100
AcDbEntity
  8
細線
 48
50.0
100
AcDbLine
 10
12324.35400952887
 20
4592.98642163695
 30
0.0
 11
12324.35400952887
 21
2802.98642163695
 31
0.0
  0
LINE
  5
18895
330
747D
100
AcDbEntity
  8
細線
 48
50.0
100
AcDbLine
 10
12309.35400952887
 20
4592.98642163695
 30
0.0
 11
12309.35400952887
 21
2802.98642163695
 31
0.0
  0
LINE
  5
18896
330
747D
100
AcDbEntity
  8
部品1
100
AcDbLine
 10
12806.85400952886
 20
4592.98642163695
 30
0.0
 11
12806.85400952886
 21
2802.986421636951
 31
0.0
  0
LINE
  5
18897
330
747D
100
AcDbEntity
  8
部品1
100
AcDbLine
 10
10651.85400952886
 20
4592.98642163695
 30
0.0
 11
13281.85400952886
 21
4592.98642163695
 31
0.0
  0
LINE
  5
18898
330
747D
100
AcDbEntity
  8
部品1
100
AcDbLine
 10
10651.85400952886
 20
2802.98642163695
 30
0.0
 11
13281.85400952887
 21
2802.986421636951
 31
0.0
  0
LINE
  5
1889A
330
747D
100
AcDbEntity
  8
部品1
100
AcDbLine
 10
10706.85400952886
 20
4592.98642163695
 30
0.0
 11
10706.85400952886
 21
2802.98642163695
 31
0.0
  0
LINE
  5
1889B
330
747D
100
AcDbEntity
  8
部品1
100
AcDbLine
 10
10651.85400952886
 20
4684.844941079197
 30
0.0
 11
10651.85400952886
 21
2652.98642163695
 31
0.0
  0
DIMENSION
  5
1889C
330
747D
100
AcDbEntity
  8
寸法
100
AcDbDimension
  2
*D24
 10
10106.94536813161
 20
2814.98642163695
 30
0.0
 11
10006.94536813161
 21
3699.986421636952
 31
0.0
 70
    32
  1
有効開口部高サ<>
 71
     5
 42
1770.0
  3
INABA_S40G
100
AcDbAlignedDimension
 13
10651.85400952886
 23
4584.98642163695
 33
0.0
 14
10651.85400952886
 24
2814.98642163695
 34
0.0
 50
90.0
100
AcDbRotatedDimension
1001
ACAD
1000
DSTYLE
1002
{
1070
   174
1070
     0
1070
   272
1070
     1
1070
   288
1070
     0
1070
   341
1005
0
1002
}
  0
DIMENSION
  5
1889D
330
747D
100
AcDbEntity
  8
寸法
100
AcDbDimension
  2
*D25
 10
9808.103880345605
 20
2802.98642163695
 30
0.0
 11
9708.103880345605
 21
3697.986421636952
 31
0.0
 70
    32
 71
     5
 42
1790.0
  3
INABA_S40G
100
AcDbAlignedDimension
 13
10651.85400952886
 23
4592.98642163695
 33
0.0
 14
10651.85400952886
 24
2802.98642163695
 34
0.0
 50
90.0
100
AcDbRotatedDimension
1001
ACAD
1000
DSTYLE
1002
{
1070
   174
1070
     0
1070
   272
1070
     1
1070
   288
1070
     0
1070
   341
1005
0
1002
}
  0
DIMENSION
  5
1889E
330
747D
100
AcDbEntity
  8
寸法
100
AcDbDimension
  2
*D26
 10
9508.103880345606
 20
4827.986421636955
 30
0.0
 11
9408.09206932198
 21
3790.486421636954
 31
0.0
 70
    32
 71
     5
 42
2075.000000000005
  3
INABA_S40G
100
AcDbAlignedDimension
 13
10651.85400952886
 23
2752.98642163695
 33
0.0
 14
10591.85400952886
 24
4827.986421636954
 34
0.0
 50
90.0
100
AcDbRotatedDimension
1001
ACAD
1000
DSTYLE
1002
{
1070
   174
1070
     0
1070
   272
1070
     1
1070
   288
1070
     0
1070
   341
1005
0
1002
}
  0
DIMENSION
  5
188A0
330
747D
100
AcDbEntity
  8
寸法
100
AcDbDimension
  2
*D27
 10
9808.103880345605
 20
2752.98642163695
 30
0.0
 11
9808.103880345605
 21
2446.93917754246
 31
0.0
 70
   160
 71
     5
 42
50.0
  3
INABA_S40G
100
AcDbAlignedDimension
 13
10651.85400952886
 23
2802.98642163695
 33
0.0
 14
10596.85400952886
 24
2752.98642163695
 34
0.0
 50
90.0
100
AcDbRotatedDimension
1001
ACAD
1000
DSTYLE
1002
{
1070
   174
1070
     0
1070
   272
1070
     1
1070
   288
1070
     0
1070
   341
1005
0
1002
}
  0
LINE
  5
188A1
330
747D
100
AcDbEntity
  8
部品1
100
AcDbLine
 10
11126.85400952886
 20
4592.98642163695
 30
0.0
 11
11126.85400952886
 21
2802.98642163695
 31
0.0
  0
LINE
  5
188A2
330
747D
100
AcDbEntity
  8
部品1
100
AcDbLine
 10
13281.85400952886
 20
4647.520695024688
 30
0.0
 11
13281.85400952887
 21
2652.986421636951
 31
0.0
  0
LINE
  5
188A3
330
747D
100
AcDbEntity
  8
部品1
100
AcDbLine
 10
13226.85400952887
 20
4592.98642163695
 30
0.0
 11
13226.85400952887
 21
2802.986421636951
 31
0.0
  0
DIMENSION
  5
188A4
330
747D
100
AcDbEntity
  8
寸法
100
AcDbDimension
  2
*D28
 10
13986.78116750099
 20
4772.986421636951
 30
0.0
 11
13886.76935647737
 21
3762.986421636953
 31
0.0
 70
    32
 71
     5
 42
2020.000000000001
  3
INABA_S40G
100
AcDbAlignedDimension
 13
13281.85400952887
 23
2752.986421636951
 33
0.0
 14
13361.85400952886
 24
4772.986421636951
 34
0.0
 50
90.0
100
AcDbRotatedDimension
1001
ACAD
1000
DSTYLE
1002
{
1070
   174
1070
     0
1070
   272
1070
     1
1070
   288
1070
     0
1070
   341
1005
0
1002
}
  0
DIMENSION
  5
188A7
330
747D
100
AcDbEntity
  8
寸法
 48
50.0
100
AcDbDimension
  2
*D29
 10
10651.85400952886
 20
5226.643875216255
 30
0.0
 11
12006.62420055806
 21
5226.643875216255
 31
0.0
 70
   160
  1
柱外寸法<>
 71
     5
 42
2630.0
  3
INABA_S40G
100
AcDbAlignedDimension
 13
13281.85400952886
 23
4774.797101248604
 33
0.0
 14
10651.85400952886
 24
4823.988039759926
 34
0.0
100
AcDbRotatedDimension
1001
ACAD
1000
DSTYLE
1002
{
1070
   174
1070
     0
1070
   272
1070
     1
1070
   288
1070
     0
1070
   341
1005
0
1002
}
  0
DIMENSION
  5
188A8
330
747D
100
AcDbEntity
  8
寸法
 48
50.0
100
AcDbDimension
  2
*D30
 10
10591.85400952886
 20
5226.643875216254
 30
0.0
 11
10282.21621425327
 21
5226.643875216254
 31
0.0
 70
   160
 71
     5
 42
60.0
  3
INABA_S40G
100
AcDbAlignedDimension
 13
10651.85400952886
 23
4823.988039759926
 33
0.0
 14
10591.85400952886
 24
4827.986421636954
 34
0.0
100
AcDbRotatedDimension
1001
ACAD
1000
DSTYLE
1002
{
1070
   174
1070
     0
1070
   272
1070
     1
1070
   288
1070
     0
1070
   341
1005
0
1002
}
  0
DIMENSION
  5
188A9
330
747D
100
AcDbEntity
  8
寸法
 48
50.0
100
AcDbDimension
  2
*D31
 10
10591.85400952886
 20
5446.854561947872
 30
0.0
 11
11995.21293441624
 21
5446.854561947872
 31
0.0
 70
   160
 71
     5
 42
2770.0
  3
INABA_S40G
100
AcDbAlignedDimension
 13
13361.85400952886
 23
4772.986421636951
 33
0.0
 14
10591.85400952886
 24
4827.986421636954
 34
0.0
100
AcDbRotatedDimension
1001
ACAD
1000
DSTYLE
1002
{
1070
   174
1070
     0
1070
   272
1070
     1
1070
   288
1070
     0
1070
   341
1005
0
1002
}
  0
LINE
  5
188C3
330
747D
100
AcDbEntity
  8
部品1
100
AcDbLine
 10
10651.85400952886
 20
2752.98642163695
 30
0.0
 11
13281.85400952887
 21
2752.98642163695
 31
0.0
  0
LINE
  5
188C6
330
747D
100
AcDbEntity
  8
細線
 48
50.0
100
AcDbLine
 10
11204.35400952886
 20
4592.98642163695
 30
0.0
 11
11204.35400952886
 21
2802.98642163695
 31
0.0
  0
LINE
  5
188C7
330
747D
100
AcDbEntity
  8
細線
 48
50.0
100
AcDbLine
 10
11189.35400952886
 20
4592.98642163695
 30
0.0
 11
11189.35400952886
 21
2802.98642163695
 31
0.0
  0
LINE
  5
188C8
330
747D
100
AcDbEntity
  8
細線
 48
50.0
100
AcDbLine
 10
11329.35400952886
 20
4592.98642163695
 30
0.0
 11
11329.35400952886
 21
2802.98642163695
 31
0.0
  0
LINE
  5
188C9
330
747D
100
AcDbEntity
  8
細線
 48
50.0
100
AcDbLine
 10
11344.35400952886
 20
4592.98642163695
 30
0.0
 11
11344.35400952886
 21
2802.98642163695
 31
0.0
  0
LINE
  5
188CA
330
747D
100
AcDbEntity
  8
細線
 48
50.0
100
AcDbLine
 10
11484.35400952886
 20
4592.98642163695
 30
0.0
 11
11484.35400952886
 21
2802.98642163695
 31
0.0
  0
LINE
  5
188CB
330
747D
100
AcDbEntity
  8
細線
 48
50.0
100
AcDbLine
 10
11469.35400952886
 20
4592.98642163695
 30
0.0
 11
11469.35400952886
 21
2802.98642163695
 31
0.0
  0
LINE
  5
188CC
330
747D
100
AcDbEntity
  8
細線
 48
50.0
100
AcDbLine
 10
11049.35400952886
 20
4592.98642163695
 30
0.0
 11
11049.35400952886
 21
2802.98642163695
 31
0.0
  0
LINE
  5
188CD
330
747D
100
AcDbEntity
  8
細線
 48
50.0
100
AcDbLine
 10
11064.35400952886
 20
4592.98642163695
 30
0.0
 11
11064.35400952886
 21
2802.98642163695
 31
0.0
  0
LINE
  5
188CE
330
747D
100
AcDbEntity
  8
細線
 48
50.0
100
AcDbLine
 10
10924.35400952886
 20
4592.98642163695
 30
0.0
 11
10924.35400952886
 21
2802.98642163695
 31
0.0
  0
LINE
  5
188CF
330
747D
100
AcDbEntity
  8
細線
 48
50.0
100
AcDbLine
 10
10909.35400952886
 20
4592.98642163695
 30
0.0
 11
10909.35400952886
 21
2802.98642163695
 31
0.0
  0
LINE
  5
188D0
330
747D
100
AcDbEntity
  8
細線
 48
50.0
100
AcDbLine
 10
10769.35400952886
 20
4592.98642163695
 30
0.0
 11
10769.35400952886
 21
2802.98642163695
 31
0.0
  0
LINE
  5
188D1
330
747D
100
AcDbEntity
  8
細線
 48
50.0
100
AcDbLine
 10
10784.35400952886
 20
4592.98642163695
 30
0.0
 11
10784.35400952886
 21
2802.98642163695
 31
0.0
  0
DIMENSION
  5
188D2
330
747D
100
AcDbEntity
  8
寸法
 48
50.0
100
AcDbDimension
  2
*D32
 10
13361.85400952886
 20
5226.643875216255
 30
0.0
 11
13567.90125362335
 21
5226.643875216255
 31
0.0
 70
   160
 71
     5
 42
80.0
  3
INABA_S40G
100
AcDbAlignedDimension
 13
13281.85400952886
 23
4774.797101248604
 33
0.0
 14
13361.85400952886
 24
4772.986421636951
 34
0.0
100
AcDbRotatedDimension
1001
ACAD
1000
DSTYLE
1002
{
1070
   174
1070
     0
1070
   272
1070
     1
1070
   288
1070
     0
1070
   341
1005
0
1002
}
  0
LINE
  5
188D3
330
747D
100
AcDbEntity
  8
部品1
100
AcDbLine
 10
11546.85400952886
 20
4592.98642163695
 30
0.0
 11
11546.85400952886
 21
2802.98642163695
 31
0.0
  0
LINE
  5
188D4
330
747D
100
AcDbEntity
  8
細線
 48
50.0
100
AcDbLine
 10
11889.35400952887
 20
4592.98642163695
 30
0.0
 11
11889.35400952887
 21
2802.98642163695
 31
0.0
  0
LINE
  5
188D5
330
747D
100
AcDbEntity
  8
細線
 48
50.0
100
AcDbLine
 10
11904.35400952887
 20
4592.98642163695
 30
0.0
 11
11904.35400952887
 21
2802.98642163695
 31
0.0
  0
LINE
  5
188D6
330
747D
100
AcDbEntity
  8
細線
 48
50.0
100
AcDbLine
 10
11764.35400952887
 20
4592.98642163695
 30
0.0
 11
11764.35400952887
 21
2802.98642163695
 31
0.0
  0
LINE
  5
188D7
330
747D
100
AcDbEntity
  8
細線
 48
50.0
100
AcDbLine
 10
11749.35400952887
 20
4592.98642163695
 30
0.0
 11
11749.35400952887
 21
2802.98642163695
 31
0.0
  0
LINE
  5
188D8
330
747D
100
AcDbEntity
  8
細線
 48
50.0
100
AcDbLine
 10
11609.35400952887
 20
4592.98642163695
 30
0.0
 11
11609.35400952887
 21
2802.98642163695
 31
0.0
  0
LINE
  5
188D9
330
747D
100
AcDbEntity
  8
細線
 48
50.0
100
AcDbLine
 10
11624.35400952886
 20
4592.98642163695
 30
0.0
 11
11624.35400952886
 21
2802.98642163695
 31
0.0
  0
LINE
  5
188DA
330
747D
100
AcDbEntity
  8
部品1
100
AcDbLine
 10
11966.85400952886
 20
4592.98642163695
 30
0.0
 11
11966.85400952886
 21
2802.98642163695
 31
0.0
  0
LINE
  5
188DB
330
747D
100
AcDbEntity
  8
細線
 48
50.0
100
AcDbLine
 10
12884.35400952887
 20
4592.98642163695
 30
0.0
 11
12884.35400952887
 21
2802.986421636951
 31
0.0
  0
LINE
  5
188DC
330
747D
100
AcDbEntity
  8
細線
 48
50.0
100
AcDbLine
 10
12869.35400952887
 20
4592.98642163695
 30
0.0
 11
12869.35400952887
 21
2802.986421636951
 31
0.0
  0
LINE
  5
188DD
330
747D
100
AcDbEntity
  8
細線
 48
50.0
100
AcDbLine
 10
13009.35400952887
 20
4592.98642163695
 30
0.0
 11
13009.35400952887
 21
2802.986421636951
 31
0.0
  0
LINE
  5
188DE
330
747D
100
AcDbEntity
  8
細線
 48
50.0
100
AcDbLine
 10
13024.35400952887
 20
4592.98642163695
 30
0.0
 11
13024.35400952887
 21
2802.986421636951
 31
0.0
  0
LINE
  5
188DF
330
747D
100
AcDbEntity
  8
細線
 48
50.0
100
AcDbLine
 10
13164.35400952887
 20
4592.98642163695
 30
0.0
 11
13164.35400952887
 21
2802.986421636951
 31
0.0
  0
LINE
  5
188E0
330
747D
100
AcDbEntity
  8
細線
 48
50.0
100
AcDbLine
 10
13149.35400952887
 20
4592.98642163695
 30
0.0
 11
13149.35400952887
 21
2802.986421636951
 31
0.0
  0
DIMENSION
  5
188E1
330
747D
100
AcDbEntity
  8
寸法
 48
50.0
100
AcDbDimension
  2
*D33
 10
10031.24560276049
 20
4702.331680510281
 30
0.0
 11
10041.91107801942
 21
5073.178343751979
 31
0.0
 70
   161
 71
     5
 42
141.0
  3
INABA_S40G
100
AcDbAlignedDimension
 13
10611.25002968744
 23
4826.709170471629
 33
0.0
 14
10607.19657413081
 24
4685.767446705916
 34
0.0
1001
ACAD
1000
DSTYLE
1002
{
1070
   174
1070
     0
1070
   272
1070
     1
1070
   288
1070
     0
1070
   341
1005
0
1002
}
  0
LWPOLYLINE
  5
18FC0
330
747D
100
AcDbEntity
  8
部品1
 48
50.0
100
AcDbPolyline
 90
        4
 70
     1
 43
0.0
 10
4726.106627721379
 20
3673.236421636961
 10
4729.006627721381
 20
3673.236421636961
 10
4729.006627721381
 20
3682.736421636961
 10
4726.106627721379
 20
3682.736421636961
  0
CIRCLE
  5
18FC1
330
747D
100
AcDbEntity
  8
部品1
 48
50.0
100
AcDbCircle
 10
4727.55662772138
 20
3677.986421636961
 30
0.0
 40
9.0
  0
ARC
  5
18FC2
330
747D
100
AcDbEntity
  8
細線
 48
50.0
100
AcDbCircle
 10
4727.55662772138
 20
3677.986421636961
 30
0.0
 40
4.0
100
AcDbArc
 50
111.2538091853132
 51
248.7461908146868
  0
ARC
  5
18FC3
330
747D
100
AcDbEntity
  8
細線
 48
50.0
100
AcDbCircle
 10
4727.55662772138
 20
3677.986421636961
 30
0.0
 40
17.5
100
AcDbArc
 50
306.4837370612677
 51
233.5162629387323
  0
LINE
  5
18FC4
330
747D
100
AcDbEntity
  8
細線
 48
50.0
100
AcDbLine
 10
4737.556627721376
 20
3654.127461056078
 30
0.0
 11
4737.55662772138
 21
3663.111946856319
 31
0.0
  0
LINE
  5
18FC5
330
747D
100
AcDbEntity
  8
細線
 48
50.0
100
AcDbLine
 10
4717.55662772138
 20
3654.12746105608
 30
0.0
 11
4717.55662772138
 21
3663.111946856316
 31
0.0
  0
ARC
  5
18FC6
330
747D
100
AcDbEntity
  8
細線
 48
50.0
100
AcDbCircle
 10
4727.55662772138
 20
3677.986421636961
 30
0.0
 40
26.5
100
AcDbArc
 50
249.3326835063939
 51
290.6673164933835
  0
ARC
  5
18FC7
330
747D
100
AcDbEntity
  8
細線
 48
50.0
100
AcDbCircle
 10
4736.556627721372
 20
3654.127461056078
 30
0.0
 40
1.0
100
AcDbArc
 50
290.6673164936062
 51
359.9999999998958
  0
ARC
  5
18FC8
330
747D
100
AcDbEntity
  8
細線
 48
50.0
100
AcDbCircle
 10
4718.55662772138
 20
3654.12746105608
 30
0.0
 40
1.0
100
AcDbArc
 50
180.0
 51
249.3326835066164
  0
ARC
  5
18FC9
330
747D
100
AcDbEntity
  8
細線
 48
50.0
100
AcDbCircle
 10
4716.55662772138
 20
3663.111946856316
 30
0.0
 40
1.0
100
AcDbArc
 50
0.0
 51
53.51626293873231
  0
ARC
  5
18FCA
330
747D
100
AcDbEntity
  8
細線
 48
50.0
100
AcDbCircle
 10
4738.556627721384
 20
3663.111946856319
 30
0.0
 40
1.0
100
AcDbArc
 50
126.4837370615127
 51
180.0
  0
ARC
  5
18FCB
330
747D
100
AcDbEntity
  8
細線
 48
50.0
100
AcDbCircle
 10
4727.55662772138
 20
3677.986421636961
 30
0.0
 40
21.5
100
AcDbArc
 50
255.8014401250294
 51
284.1985598749706
  0
ARC
  5
18FCC
330
747D
100
AcDbEntity
  8
細線
 48
50.0
100
AcDbCircle
 10
4727.55662772138
 20
3677.986421636961
 30
0.0
 40
16.5
100
AcDbArc
 50
251.9694646069326
 51
288.0305353930674
  0
LINE
  5
18FCD
330
747D
100
AcDbEntity
  8
細線
 48
50.0
100
AcDbLine
 10
4733.056627721381
 20
3657.434049511154
 30
0.0
 11
4733.056627721381
 21
3662.011441198491
 31
0.0
  0
LINE
  5
18FCE
330
747D
100
AcDbEntity
  8
細線
 48
50.0
100
AcDbLine
 10
4722.05662772138
 20
3657.434049511154
 30
0.0
 11
4722.05662772138
 21
3662.011441198489
 31
0.0
  0
ARC
  5
18FCF
330
747D
100
AcDbEntity
  8
細線
 48
50.0
100
AcDbCircle
 10
4722.356627721383
 20
3662.011441198489
 30
0.0
 40
0.3
100
AcDbArc
 50
71.96946460693259
 51
180.0
  0
ARC
  5
18FD0
330
747D
100
AcDbEntity
  8
細線
 48
50.0
100
AcDbCircle
 10
4732.756627721381
 20
3662.011441198491
 30
0.0
 40
0.3
100
AcDbArc
 50
0.0
 51
108.0305353930674
  0
ARC
  5
18FD1
330
747D
100
AcDbEntity
  8
細線
 48
50.0
100
AcDbCircle
 10
4732.756627721378
 20
3657.434049511154
 30
0.0
 40
0.3
100
AcDbArc
 50
284.1985598747622
 51
0.0000000001042204
  0
ARC
  5
18FD2
330
747D
100
AcDbEntity
  8
細線
 48
50.0
100
AcDbCircle
 10
4722.356627721383
 20
3657.434049511154
 30
0.0
 40
0.3
100
AcDbArc
 50
180.0
 51
255.8014401248081
  0
CIRCLE
  5
18FD3
330
747D
100
AcDbEntity
  8
細線
 48
50.0
100
AcDbCircle
 10
4727.55662772138
 20
3677.986421636961
 30
0.0
 40
12.0
  0
ARC
  5
18FD4
330
747D
100
AcDbEntity
  8
部品1
 48
50.0
100
AcDbCircle
 10
4727.55662772138
 20
3727.986421636961
 30
0.0
 40
8.5
100
AcDbArc
 50
114.315739171091
 51
245.684260828909
  0
CIRCLE
  5
18FD5
330
747D
100
AcDbEntity
  8
細線
 48
50.0
100
AcDbCircle
 10
4727.55662772138
 20
3727.986421636961
 30
0.0
 40
4.5
  0
LWPOLYLINE
  5
18FD6
330
747D
100
AcDbEntity
  8
部品1
 48
50.0
100
AcDbPolyline
 90
        2
 70
     0
 43
0.0
 10
4724.05662772138
 20
3746.661271033943
 10
4724.05662772138
 20
3735.732388329376
  0
CIRCLE
  5
18FD7
330
747D
100
AcDbEntity
  8
部品1
 48
50.0
100
AcDbCircle
 10
4727.55662772138
 20
3727.986421636961
 30
0.0
 40
19.0
  0
LWPOLYLINE
  5
18FD8
330
747D
100
AcDbEntity
  8
部品1
 48
50.0
100
AcDbPolyline
 90
        2
 70
     0
 43
0.0
 10
4724.05662772138
 20
3720.240454944546
 10
4724.05662772138
 20
3709.311572239978
  0
LWPOLYLINE
  5
18FD9
330
747D
100
AcDbEntity
  8
部品1
 48
50.0
100
AcDbPolyline
 90
        2
 70
     0
 43
0.0
 10
4731.05662772138
 20
3735.732388329376
 10
4731.05662772138
 20
3746.661271033943
  0
ARC
  5
18FDA
330
747D
100
AcDbEntity
  8
部品1
 48
50.0
100
AcDbCircle
 10
4727.55662772138
 20
3727.986421636961
 30
0.0
 40
8.5
100
AcDbArc
 50
294.315739171091
 51
65.68426082890896
  0
LWPOLYLINE
  5
18FDB
330
747D
100
AcDbEntity
  8
部品1
 48
50.0
100
AcDbPolyline
 90
        2
 70
     0
 43
0.0
 10
4731.05662772138
 20
3709.311572239978
 10
4731.05662772138
 20
3720.240454944546
  0
ARC
  5
18FDC
330
747D
100
AcDbEntity
  8
細線
 48
50.0
100
AcDbCircle
 10
4727.55662772138
 20
3727.986421636961
 30
0.0
 40
16.5
100
AcDbArc
 50
332.0012352654438
 51
27.99876473455621
  0
ARC
  5
18FDD
330
747D
100
AcDbEntity
  8
細線
 48
50.0
100
AcDbCircle
 10
4727.55662772138
 20
3727.986421636961
 30
0.0
 40
14.0
100
AcDbArc
 50
326.4074436112986
 51
33.59255638870134
  0
LINE
  5
18FDE
330
747D
100
AcDbEntity
  8
細線
 48
50.0
100
AcDbLine
 10
4712.987825437049
 20
3735.732388329376
 30
0.0
 11
4715.894723931691
 21
3735.732388329376
 31
0.0
  0
LINE
  5
18FDF
330
747D
100
AcDbEntity
  8
細線
 48
50.0
100
AcDbLine
 10
4712.987825437049
 20
3720.240454944546
 30
0.0
 11
4715.894723931691
 21
3720.240454944546
 31
0.0
  0
LINE
  5
18FE0
330
747D
100
AcDbEntity
  8
細線
 48
50.0
100
AcDbLine
 10
4739.218531511069
 20
3735.732388329376
 30
0.0
 11
4742.125430005716
 21
3735.732388329376
 31
0.0
  0
LINE
  5
18FE1
330
747D
100
AcDbEntity
  8
細線
 48
50.0
100
AcDbLine
 10
4739.218531511069
 20
3720.240454944546
 30
0.0
 11
4742.125430005716
 21
3720.240454944546
 31
0.0
  0
ARC
  5
18FE2
330
747D
100
AcDbEntity
  8
細線
 48
50.0
100
AcDbCircle
 10
4727.55662772138
 20
3727.986421636961
 30
0.0
 40
14.0
100
AcDbArc
 50
146.4074436112986
 51
213.5925563887013
  0
ARC
  5
18FE3
330
747D
100
AcDbEntity
  8
細線
 48
50.0
100
AcDbCircle
 10
4727.55662772138
 20
3727.986421636961
 30
0.0
 40
16.5
100
AcDbArc
 50
152.0012352654438
 51
207.9987647345562
  0
ARC
  5
18FE4
330
747D
100
AcDbEntity
  8
部品1
 48
50.0
100
AcDbCircle
 10
4701.05662772138
 20
3753.486421636961
 30
0.0
 40
5.0
100
AcDbArc
 50
90.0
 51
180.0
  0
ARC
  5
18FE5
330
747D
100
AcDbEntity
  8
部品1
 48
50.0
100
AcDbCircle
 10
4701.05662772138
 20
3642.486421636961
 30
0.0
 40
5.0
100
AcDbArc
 50
180.0
 51
270.0
  0
ARC
  5
18FE6
330
747D
100
AcDbEntity
  8
部品1
 48
50.0
100
AcDbCircle
 10
4754.05662772138
 20
3642.486421636961
 30
0.0
 40
5.0
100
AcDbArc
 50
270.0
 51
0.0
  0
ARC
  5
18FE7
330
747D
100
AcDbEntity
  8
部品1
 48
50.0
100
AcDbCircle
 10
4754.05662772138
 20
3753.486421636961
 30
0.0
 40
5.0
100
AcDbArc
 50
0.0
 51
90.0
  0
LINE
  5
18FE8
330
747D
100
AcDbEntity
  8
部品1
 48
50.0
100
AcDbLine
 10
4696.05662772138
 20
3642.486421636961
 30
0.0
 11
4696.05662772138
 21
3753.486421636961
 31
0.0
  0
LINE
  5
18FE9
330
747D
100
AcDbEntity
  8
部品1
 48
50.0
100
AcDbLine
 10
4754.05662772138
 20
3637.486421636961
 30
0.0
 11
4701.05662772138
 21
3637.486421636961
 31
0.0
  0
LINE
  5
18FEA
330
747D
100
AcDbEntity
  8
部品1
 48
50.0
100
AcDbLine
 10
4759.05662772138
 20
3753.486421636961
 30
0.0
 11
4759.05662772138
 21
3642.486421636961
 31
0.0
  0
LWPOLYLINE
  5
1901A
330
747D
100
AcDbEntity
  8
部品1
 48
50.0
100
AcDbPolyline
 90
        4
 70
     1
 43
0.0
 10
6096.106627721379
 20
3673.236421636961
 10
6099.006627721381
 20
3673.236421636961
 10
6099.006627721381
 20
3682.736421636961
 10
6096.106627721379
 20
3682.736421636961
  0
CIRCLE
  5
1901B
330
747D
100
AcDbEntity
  8
部品1
 48
50.0
100
AcDbCircle
 10
6097.55662772138
 20
3677.986421636961
 30
0.0
 40
9.0
  0
ARC
  5
1901C
330
747D
100
AcDbEntity
  8
細線
 48
50.0
100
AcDbCircle
 10
6097.55662772138
 20
3677.986421636961
 30
0.0
 40
4.0
100
AcDbArc
 50
111.2538091853132
 51
248.7461908146868
  0
ARC
  5
1901D
330
747D
100
AcDbEntity
  8
細線
 48
50.0
100
AcDbCircle
 10
6097.55662772138
 20
3677.986421636961
 30
0.0
 40
17.5
100
AcDbArc
 50
306.4837370612677
 51
233.5162629387323
  0
LINE
  5
1901E
330
747D
100
AcDbEntity
  8
細線
 48
50.0
100
AcDbLine
 10
6107.556627721376
 20
3654.127461056078
 30
0.0
 11
6107.55662772138
 21
3663.111946856319
 31
0.0
  0
LINE
  5
1901F
330
747D
100
AcDbEntity
  8
細線
 48
50.0
100
AcDbLine
 10
6087.55662772138
 20
3654.12746105608
 30
0.0
 11
6087.55662772138
 21
3663.111946856316
 31
0.0
  0
ARC
  5
19020
330
747D
100
AcDbEntity
  8
細線
 48
50.0
100
AcDbCircle
 10
6097.55662772138
 20
3677.986421636961
 30
0.0
 40
26.5
100
AcDbArc
 50
249.3326835063939
 51
290.6673164933835
  0
ARC
  5
19021
330
747D
100
AcDbEntity
  8
細線
 48
50.0
100
AcDbCircle
 10
6106.556627721373
 20
3654.127461056078
 30
0.0
 40
1.0
100
AcDbArc
 50
290.6673164936062
 51
359.9999999998958
  0
ARC
  5
19022
330
747D
100
AcDbEntity
  8
細線
 48
50.0
100
AcDbCircle
 10
6088.556627721381
 20
3654.12746105608
 30
0.0
 40
1.0
100
AcDbArc
 50
180.0
 51
249.3326835066164
  0
ARC
  5
19023
330
747D
100
AcDbEntity
  8
細線
 48
50.0
100
AcDbCircle
 10
6086.55662772138
 20
3663.111946856316
 30
0.0
 40
1.0
100
AcDbArc
 50
0.0
 51
53.51626293873231
  0
ARC
  5
19024
330
747D
100
AcDbEntity
  8
細線
 48
50.0
100
AcDbCircle
 10
6108.556627721384
 20
3663.111946856319
 30
0.0
 40
1.0
100
AcDbArc
 50
126.4837370615127
 51
180.0
  0
ARC
  5
19025
330
747D
100
AcDbEntity
  8
細線
 48
50.0
100
AcDbCircle
 10
6097.55662772138
 20
3677.986421636961
 30
0.0
 40
21.5
100
AcDbArc
 50
255.8014401250294
 51
284.1985598749706
  0
ARC
  5
19026
330
747D
100
AcDbEntity
  8
細線
 48
50.0
100
AcDbCircle
 10
6097.55662772138
 20
3677.986421636961
 30
0.0
 40
16.5
100
AcDbArc
 50
251.9694646069326
 51
288.0305353930674
  0
LINE
  5
19027
330
747D
100
AcDbEntity
  8
細線
 48
50.0
100
AcDbLine
 10
6103.05662772138
 20
3657.434049511154
 30
0.0
 11
6103.05662772138
 21
3662.011441198491
 31
0.0
  0
LINE
  5
19028
330
747D
100
AcDbEntity
  8
細線
 48
50.0
100
AcDbLine
 10
6092.05662772138
 20
3657.434049511154
 30
0.0
 11
6092.05662772138
 21
3662.011441198489
 31
0.0
  0
ARC
  5
19029
330
747D
100
AcDbEntity
  8
細線
 48
50.0
100
AcDbCircle
 10
6092.356627721382
 20
3662.011441198489
 30
0.0
 40
0.3
100
AcDbArc
 50
71.96946460693259
 51
180.0
  0
ARC
  5
1902A
330
747D
100
AcDbEntity
  8
細線
 48
50.0
100
AcDbCircle
 10
6102.75662772138
 20
3662.011441198491
 30
0.0
 40
0.3
100
AcDbArc
 50
0.0
 51
108.0305353930674
  0
ARC
  5
1902B
330
747D
100
AcDbEntity
  8
細線
 48
50.0
100
AcDbCircle
 10
6102.756627721377
 20
3657.434049511154
 30
0.0
 40
0.3
100
AcDbArc
 50
284.1985598747622
 51
0.0000000001042204
  0
ARC
  5
1902C
330
747D
100
AcDbEntity
  8
細線
 48
50.0
100
AcDbCircle
 10
6092.356627721382
 20
3657.434049511154
 30
0.0
 40
0.3
100
AcDbArc
 50
180.0
 51
255.8014401248081
  0
CIRCLE
  5
1902D
330
747D
100
AcDbEntity
  8
細線
 48
50.0
100
AcDbCircle
 10
6097.55662772138
 20
3677.986421636961
 30
0.0
 40
12.0
  0
ARC
  5
1902E
330
747D
100
AcDbEntity
  8
部品1
 48
50.0
100
AcDbCircle
 10
6097.55662772138
 20
3727.986421636961
 30
0.0
 40
8.5
100
AcDbArc
 50
114.315739171091
 51
245.684260828909
  0
CIRCLE
  5
1902F
330
747D
100
AcDbEntity
  8
細線
 48
50.0
100
AcDbCircle
 10
6097.55662772138
 20
3727.986421636961
 30
0.0
 40
4.5
  0
LWPOLYLINE
  5
19030
330
747D
100
AcDbEntity
  8
部品1
 48
50.0
100
AcDbPolyline
 90
        2
 70
     0
 43
0.0
 10
6094.05662772138
 20
3746.661271033943
 10
6094.05662772138
 20
3735.732388329376
  0
CIRCLE
  5
19031
330
747D
100
AcDbEntity
  8
部品1
 48
50.0
100
AcDbCircle
 10
6097.55662772138
 20
3727.986421636961
 30
0.0
 40
19.0
  0
LWPOLYLINE
  5
19032
330
747D
100
AcDbEntity
  8
部品1
 48
50.0
100
AcDbPolyline
 90
        2
 70
     0
 43
0.0
 10
6094.05662772138
 20
3720.240454944546
 10
6094.05662772138
 20
3709.311572239978
  0
LWPOLYLINE
  5
19033
330
747D
100
AcDbEntity
  8
部品1
 48
50.0
100
AcDbPolyline
 90
        2
 70
     0
 43
0.0
 10
6101.05662772138
 20
3735.732388329376
 10
6101.05662772138
 20
3746.661271033943
  0
ARC
  5
19034
330
747D
100
AcDbEntity
  8
部品1
 48
50.0
100
AcDbCircle
 10
6097.55662772138
 20
3727.986421636961
 30
0.0
 40
8.5
100
AcDbArc
 50
294.315739171091
 51
65.68426082890896
  0
LWPOLYLINE
  5
19035
330
747D
100
AcDbEntity
  8
部品1
 48
50.0
100
AcDbPolyline
 90
        2
 70
     0
 43
0.0
 10
6101.05662772138
 20
3709.311572239978
 10
6101.05662772138
 20
3720.240454944546
  0
ARC
  5
19036
330
747D
100
AcDbEntity
  8
細線
 48
50.0
100
AcDbCircle
 10
6097.55662772138
 20
3727.986421636961
 30
0.0
 40
16.5
100
AcDbArc
 50
332.0012352654438
 51
27.99876473455621
  0
ARC
  5
19037
330
747D
100
AcDbEntity
  8
細線
 48
50.0
100
AcDbCircle
 10
6097.55662772138
 20
3727.986421636961
 30
0.0
 40
14.0
100
AcDbArc
 50
326.4074436112986
 51
33.59255638870134
  0
LINE
  5
19038
330
747D
100
AcDbEntity
  8
細線
 48
50.0
100
AcDbLine
 10
6082.987825437049
 20
3735.732388329376
 30
0.0
 11
6085.894723931691
 21
3735.732388329376
 31
0.0
  0
LINE
  5
19039
330
747D
100
AcDbEntity
  8
細線
 48
50.0
100
AcDbLine
 10
6082.987825437049
 20
3720.240454944546
 30
0.0
 11
6085.894723931691
 21
3720.240454944546
 31
0.0
  0
LINE
  5
1903A
330
747D
100
AcDbEntity
  8
細線
 48
50.0
100
AcDbLine
 10
6109.218531511069
 20
3735.732388329376
 30
0.0
 11
6112.125430005715
 21
3735.732388329376
 31
0.0
  0
LINE
  5
1903B
330
747D
100
AcDbEntity
  8
細線
 48
50.0
100
AcDbLine
 10
6109.218531511069
 20
3720.240454944546
 30
0.0
 11
6112.125430005715
 21
3720.240454944546
 31
0.0
  0
ARC
  5
1903C
330
747D
100
AcDbEntity
  8
細線
 48
50.0
100
AcDbCircle
 10
6097.55662772138
 20
3727.986421636961
 30
0.0
 40
14.0
100
AcDbArc
 50
146.4074436112986
 51
213.5925563887013
  0
ARC
  5
1903D
330
747D
100
AcDbEntity
  8
細線
 48
50.0
100
AcDbCircle
 10
6097.55662772138
 20
3727.986421636961
 30
0.0
 40
16.5
100
AcDbArc
 50
152.0012352654438
 51
207.9987647345562
  0
ARC
  5
1903E
330
747D
100
AcDbEntity
  8
部品1
 48
50.0
100
AcDbCircle
 10
6071.05662772138
 20
3753.486421636961
 30
0.0
 40
5.0
100
AcDbArc
 50
90.0
 51
180.0
  0
ARC
  5
1903F
330
747D
100
AcDbEntity
  8
部品1
 48
50.0
100
AcDbCircle
 10
6071.05662772138
 20
3642.486421636961
 30
0.0
 40
5.0
100
AcDbArc
 50
180.0
 51
270.0
  0
ARC
  5
19040
330
747D
100
AcDbEntity
  8
部品1
 48
50.0
100
AcDbCircle
 10
6124.05662772138
 20
3642.486421636961
 30
0.0
 40
5.0
100
AcDbArc
 50
270.0
 51
0.0
  0
ARC
  5
19041
330
747D
100
AcDbEntity
  8
部品1
 48
50.0
100
AcDbCircle
 10
6124.05662772138
 20
3753.486421636961
 30
0.0
 40
5.0
100
AcDbArc
 50
0.0
 51
90.0
  0
LINE
  5
19042
330
747D
100
AcDbEntity
  8
部品1
 48
50.0
100
AcDbLine
 10
6066.05662772138
 20
3642.486421636961
 30
0.0
 11
6066.05662772138
 21
3753.486421636961
 31
0.0
  0
LINE
  5
19043
330
747D
100
AcDbEntity
  8
部品1
 48
50.0
100
AcDbLine
 10
6124.05662772138
 20
3637.486421636961
 30
0.0
 11
6071.05662772138
 21
3637.486421636961
 31
0.0
  0
LINE
  5
19044
330
747D
100
AcDbEntity
  8
部品1
 48
50.0
100
AcDbLine
 10
6129.05662772138
 20
3753.486421636961
 30
0.0
 11
6129.05662772138
 21
3642.486421636961
 31
0.0
  0
LWPOLYLINE
  5
19074
330
747D
100
AcDbEntity
  8
部品1
 48
50.0
100
AcDbPolyline
 90
        4
 70
     1
 43
0.0
 10
7466.106627721382
 20
3673.236421636961
 10
7469.006627721383
 20
3673.236421636961
 10
7469.006627721383
 20
3682.736421636961
 10
7466.106627721382
 20
3682.736421636961
  0
CIRCLE
  5
19075
330
747D
100
AcDbEntity
  8
部品1
 48
50.0
100
AcDbCircle
 10
7467.556627721382
 20
3677.986421636961
 30
0.0
 40
9.0
  0
ARC
  5
19076
330
747D
100
AcDbEntity
  8
細線
 48
50.0
100
AcDbCircle
 10
7467.556627721382
 20
3677.986421636961
 30
0.0
 40
4.0
100
AcDbArc
 50
111.2538091853132
 51
248.7461908146868
  0
ARC
  5
19077
330
747D
100
AcDbEntity
  8
細線
 48
50.0
100
AcDbCircle
 10
7467.556627721382
 20
3677.986421636961
 30
0.0
 40
17.5
100
AcDbArc
 50
306.4837370612677
 51
233.5162629387323
  0
LINE
  5
19078
330
747D
100
AcDbEntity
  8
細線
 48
50.0
100
AcDbLine
 10
7477.556627721378
 20
3654.127461056078
 30
0.0
 11
7477.556627721383
 21
3663.111946856319
 31
0.0
  0
LINE
  5
19079
330
747D
100
AcDbEntity
  8
細線
 48
50.0
100
AcDbLine
 10
7457.556627721382
 20
3654.12746105608
 30
0.0
 11
7457.556627721382
 21
3663.111946856316
 31
0.0
  0
ARC
  5
1907A
330
747D
100
AcDbEntity
  8
細線
 48
50.0
100
AcDbCircle
 10
7467.556627721382
 20
3677.986421636961
 30
0.0
 40
26.5
100
AcDbArc
 50
249.3326835063939
 51
290.6673164933835
  0
ARC
  5
1907B
330
747D
100
AcDbEntity
  8
細線
 48
50.0
100
AcDbCircle
 10
7476.556627721375
 20
3654.127461056078
 30
0.0
 40
1.0
100
AcDbArc
 50
290.6673164936062
 51
359.9999999998958
  0
ARC
  5
1907C
330
747D
100
AcDbEntity
  8
細線
 48
50.0
100
AcDbCircle
 10
7458.556627721383
 20
3654.12746105608
 30
0.0
 40
1.0
100
AcDbArc
 50
180.0
 51
249.3326835066164
  0
ARC
  5
1907D
330
747D
100
AcDbEntity
  8
細線
 48
50.0
100
AcDbCircle
 10
7456.556627721382
 20
3663.111946856316
 30
0.0
 40
1.0
100
AcDbArc
 50
0.0
 51
53.51626293873231
  0
ARC
  5
1907E
330
747D
100
AcDbEntity
  8
細線
 48
50.0
100
AcDbCircle
 10
7478.556627721386
 20
3663.111946856319
 30
0.0
 40
1.0
100
AcDbArc
 50
126.4837370615127
 51
180.0
  0
ARC
  5
1907F
330
747D
100
AcDbEntity
  8
細線
 48
50.0
100
AcDbCircle
 10
7467.556627721382
 20
3677.986421636961
 30
0.0
 40
21.5
100
AcDbArc
 50
255.8014401250294
 51
284.1985598749706
  0
ARC
  5
19080
330
747D
100
AcDbEntity
  8
細線
 48
50.0
100
AcDbCircle
 10
7467.556627721382
 20
3677.986421636961
 30
0.0
 40
16.5
100
AcDbArc
 50
251.9694646069326
 51
288.0305353930674
  0
LINE
  5
19081
330
747D
100
AcDbEntity
  8
細線
 48
50.0
100
AcDbLine
 10
7473.056627721383
 20
3657.434049511154
 30
0.0
 11
7473.056627721383
 21
3662.011441198491
 31
0.0
  0
LINE
  5
19082
330
747D
100
AcDbEntity
  8
細線
 48
50.0
100
AcDbLine
 10
7462.056627721382
 20
3657.434049511154
 30
0.0
 11
7462.056627721382
 21
3662.011441198489
 31
0.0
  0
ARC
  5
19083
330
747D
100
AcDbEntity
  8
細線
 48
50.0
100
AcDbCircle
 10
7462.356627721385
 20
3662.011441198489
 30
0.0
 40
0.3
100
AcDbArc
 50
71.96946460693259
 51
180.0
  0
ARC
  5
19084
330
747D
100
AcDbEntity
  8
細線
 48
50.0
100
AcDbCircle
 10
7472.756627721382
 20
3662.011441198491
 30
0.0
 40
0.3
100
AcDbArc
 50
0.0
 51
108.0305353930674
  0
ARC
  5
19085
330
747D
100
AcDbEntity
  8
細線
 48
50.0
100
AcDbCircle
 10
7472.75662772138
 20
3657.434049511154
 30
0.0
 40
0.3
100
AcDbArc
 50
284.1985598747622
 51
0.0000000001042204
  0
ARC
  5
19086
330
747D
100
AcDbEntity
  8
細線
 48
50.0
100
AcDbCircle
 10
7462.356627721385
 20
3657.434049511154
 30
0.0
 40
0.3
100
AcDbArc
 50
180.0
 51
255.8014401248081
  0
CIRCLE
  5
19087
330
747D
100
AcDbEntity
  8
細線
 48
50.0
100
AcDbCircle
 10
7467.556627721382
 20
3677.986421636961
 30
0.0
 40
12.0
  0
ARC
  5
19088
330
747D
100
AcDbEntity
  8
部品1
 48
50.0
100
AcDbCircle
 10
7467.556627721382
 20
3727.986421636961
 30
0.0
 40
8.5
100
AcDbArc
 50
114.315739171091
 51
245.684260828909
  0
CIRCLE
  5
19089
330
747D
100
AcDbEntity
  8
細線
 48
50.0
100
AcDbCircle
 10
7467.556627721382
 20
3727.986421636961
 30
0.0
 40
4.5
  0
LWPOLYLINE
  5
1908A
330
747D
100
AcDbEntity
  8
部品1
 48
50.0
100
AcDbPolyline
 90
        2
 70
     0
 43
0.0
 10
7464.056627721382
 20
3746.661271033943
 10
7464.056627721382
 20
3735.732388329376
  0
CIRCLE
  5
1908B
330
747D
100
AcDbEntity
  8
部品1
 48
50.0
100
AcDbCircle
 10
7467.556627721382
 20
3727.986421636961
 30
0.0
 40
19.0
  0
LWPOLYLINE
  5
1908C
330
747D
100
AcDbEntity
  8
部品1
 48
50.0
100
AcDbPolyline
 90
        2
 70
     0
 43
0.0
 10
7464.056627721382
 20
3720.240454944546
 10
7464.056627721382
 20
3709.311572239978
  0
LWPOLYLINE
  5
1908D
330
747D
100
AcDbEntity
  8
部品1
 48
50.0
100
AcDbPolyline
 90
        2
 70
     0
 43
0.0
 10
7471.056627721383
 20
3735.732388329376
 10
7471.056627721383
 20
3746.661271033943
  0
ARC
  5
1908E
330
747D
100
AcDbEntity
  8
部品1
 48
50.0
100
AcDbCircle
 10
7467.556627721382
 20
3727.986421636961
 30
0.0
 40
8.5
100
AcDbArc
 50
294.315739171091
 51
65.68426082890896
  0
LWPOLYLINE
  5
1908F
330
747D
100
AcDbEntity
  8
部品1
 48
50.0
100
AcDbPolyline
 90
        2
 70
     0
 43
0.0
 10
7471.056627721383
 20
3709.311572239978
 10
7471.056627721383
 20
3720.240454944546
  0
ARC
  5
19090
330
747D
100
AcDbEntity
  8
細線
 48
50.0
100
AcDbCircle
 10
7467.556627721382
 20
3727.986421636961
 30
0.0
 40
16.5
100
AcDbArc
 50
332.0012352654438
 51
27.99876473455621
  0
ARC
  5
19091
330
747D
100
AcDbEntity
  8
細線
 48
50.0
100
AcDbCircle
 10
7467.556627721382
 20
3727.986421636961
 30
0.0
 40
14.0
100
AcDbArc
 50
326.4074436112986
 51
33.59255638870134
  0
LINE
  5
19092
330
747D
100
AcDbEntity
  8
細線
 48
50.0
100
AcDbLine
 10
7452.98782543705
 20
3735.732388329376
 30
0.0
 11
7455.894723931693
 21
3735.732388329376
 31
0.0
  0
LINE
  5
19093
330
747D
100
AcDbEntity
  8
細線
 48
50.0
100
AcDbLine
 10
7452.98782543705
 20
3720.240454944546
 30
0.0
 11
7455.894723931693
 21
3720.240454944546
 31
0.0
  0
LINE
  5
19094
330
747D
100
AcDbEntity
  8
細線
 48
50.0
100
AcDbLine
 10
7479.218531511071
 20
3735.732388329376
 30
0.0
 11
7482.125430005718
 21
3735.732388329376
 31
0.0
  0
LINE
  5
19095
330
747D
100
AcDbEntity
  8
細線
 48
50.0
100
AcDbLine
 10
7479.218531511071
 20
3720.240454944546
 30
0.0
 11
7482.125430005718
 21
3720.240454944546
 31
0.0
  0
ARC
  5
19096
330
747D
100
AcDbEntity
  8
細線
 48
50.0
100
AcDbCircle
 10
7467.556627721382
 20
3727.986421636961
 30
0.0
 40
14.0
100
AcDbArc
 50
146.4074436112986
 51
213.5925563887013
  0
ARC
  5
19097
330
747D
100
AcDbEntity
  8
細線
 48
50.0
100
AcDbCircle
 10
7467.556627721382
 20
3727.986421636961
 30
0.0
 40
16.5
100
AcDbArc
 50
152.0012352654438
 51
207.9987647345562
  0
ARC
  5
19098
330
747D
100
AcDbEntity
  8
部品1
 48
50.0
100
AcDbCircle
 10
7441.056627721382
 20
3753.486421636961
 30
0.0
 40
5.0
100
AcDbArc
 50
90.0
 51
180.0
  0
ARC
  5
19099
330
747D
100
AcDbEntity
  8
部品1
 48
50.0
100
AcDbCircle
 10
7441.056627721382
 20
3642.486421636961
 30
0.0
 40
5.0
100
AcDbArc
 50
180.0
 51
270.0
  0
ARC
  5
1909A
330
747D
100
AcDbEntity
  8
部品1
 48
50.0
100
AcDbCircle
 10
7494.056627721382
 20
3642.486421636961
 30
0.0
 40
5.0
100
AcDbArc
 50
270.0
 51
0.0
  0
ARC
  5
1909B
330
747D
100
AcDbEntity
  8
部品1
 48
50.0
100
AcDbCircle
 10
7494.056627721382
 20
3753.486421636961
 30
0.0
 40
5.0
100
AcDbArc
 50
0.0
 51
90.0
  0
LINE
  5
1909C
330
747D
100
AcDbEntity
  8
部品1
 48
50.0
100
AcDbLine
 10
7436.056627721382
 20
3642.486421636961
 30
0.0
 11
7436.056627721382
 21
3753.486421636961
 31
0.0
  0
LINE
  5
1909D
330
747D
100
AcDbEntity
  8
部品1
 48
50.0
100
AcDbLine
 10
7494.056627721382
 20
3637.486421636961
 30
0.0
 11
7441.056627721382
 21
3637.486421636961
 31
0.0
  0
LINE
  5
1909E
330
747D
100
AcDbEntity
  8
部品1
 48
50.0
100
AcDbLine
 10
7499.056627721381
 20
3753.486421636961
 30
0.0
 11
7499.056627721381
 21
3642.486421636961
 31
0.0
  0
ENDSEC
  0
SECTION
  2
OBJECTS
  0
DICTIONARY
  5
7471
330
0
100
AcDbDictionary
281
     1
  3
ACAD_COLOR
350
17681
  3
ACAD_GROUP
350
7472
  3
ACAD_LAYOUT
350
17682
  3
ACAD_MATERIAL
350
17680
  3
ACAD_MLINESTYLE
350
7473
  3
ACAD_PLOTSETTINGS
350
17683
  3
ACAD_PLOTSTYLENAME
350
1767E
  3
ACDBHEADERROUNDTRIPXREC
350
190AD
  3
AcDbVariableDictionary
350
190A9
  3
CONTENTDICTIONARY
350
E71C
  3
DRAWINGVARIABLESDICT
350
F3B9
  0
DICTIONARY
  5
17829
330
7467
100
AcDbDictionary
280
     1
281
     1
  3
ACAD_LAYERSTATES
360
1782A
  0
DICTIONARY
  5
17681
102
{ACAD_REACTORS
330
7471
102
}
330
7471
100
AcDbDictionary
281
     1
  0
DICTIONARY
  5
7472
102
{ACAD_REACTORS
330
7471
102
}
330
7471
100
AcDbDictionary
281
     1
  0
DICTIONARY
  5
17682
102
{ACAD_REACTORS
330
7471
102
}
330
7471
100
AcDbDictionary
281
     1
  3
Model
350
17684
  3
レイアウト1
350
17685
  0
DICTIONARY
  5
17680
102
{ACAD_REACTORS
330
7471
102
}
330
7471
100
AcDbDictionary
281
     1
  0
DICTIONARY
  5
7473
102
{ACAD_REACTORS
330
7471
102
}
330
7471
100
AcDbDictionary
281
     1
  3
STANDARD
350
7480
  0
DICTIONARY
  5
17683
102
{ACAD_REACTORS
330
7471
102
}
330
7471
100
AcDbDictionary
281
     1
  0
ACDBDICTIONARYWDFLT
  5
1767E
102
{ACAD_REACTORS
330
7471
102
}
330
7471
100
AcDbDictionary
281
     1
  3
Normal
350
1767F
100
AcDbDictionaryWithDefault
340
1767F
  0
DICTIONARY
  5
190AD
102
{ACAD_REACTORS
330
7471
102
}
330
7471
100
AcDbDictionary
281
     1
  3
COLORDICT
350
190AF
  3
MATERIALDICT
350
190AE
  0
DICTIONARY
  5
190A9
102
{ACAD_REACTORS
330
7471
102
}
330
7471
100
AcDbDictionary
281
     1
  3
DIMASSOC
350
190AA
  3
PROJECTNAME
350
190AB
  0
DICTIONARY
  5
E71C
102
{ACAD_REACTORS
330
7471
102
}
330
7471
100
AcDbDictionary
281
     1
  0
DICTIONARY
  5
F3B9
102
{ACAD_REACTORS
330
7471
102
}
330
7471
100
AcDbDictionary
281
     1
1001
DRAWINGVARIABLESXDATA
1000
POLARMODE
1000
1
  0
DICTIONARY
  5
1782A
102
{ACAD_REACTORS
330
17829
102
}
330
17829
100
AcDbDictionary
281
     1
  0
LAYOUT
  5
17684
102
{ACAD_XDICTIONARY
360
190B0
102
}
102
{ACAD_REACTORS
330
17682
102
}
330
17682
100
AcDbPlotSettings
  1

  2
EPSON LP-7000C
  4

  6

 40
0.0
 41
0.0
 42
0.0
 43
0.0
 44
0.0
 45
0.0
 46
0.0
 47
0.0
 48
0.0
 49
0.0
140
0.0
141
0.0
142
1.0
143
1.0
 70
  1712
 72
     0
 73
     0
 74
     0
  7

 75
     0
147
1.0
148
0.0
149
0.0
100
AcDbLayout
  1
Model
 70
     1
 71
     0
 10
0.0
 20
0.0
 11
12.0
 21
9.0
 12
0.0
 22
0.0
 32
0.0
 14
0.0
 24
0.0
 34
0.0
 15
0.0
 25
0.0
 35
0.0
146
0.0
 13
0.0
 23
0.0
 33
0.0
 16
1.0
 26
0.0
 36
0.0
 17
0.0
 27
1.0
 37
0.0
 76
     0
330
747D
  0
LAYOUT
  5
17685
102
{ACAD_XDICTIONARY
360
190B2
102
}
102
{ACAD_REACTORS
330
17682
102
}
330
17682
100
AcDbPlotSettings
  1

  2
EPSON LP-7000C
  4

  6

 40
0.0
 41
0.0
 42
0.0
 43
0.0
 44
0.0
 45
0.0
 46
0.0
 47
0.0
 48
0.0
 49
0.0
140
0.0
141
0.0
142
1.0
143
1.0
 70
   688
 72
     0
 73
     0
 74
     5
  7

 75
    16
147
1.0
148
0.0
149
0.0
100
AcDbLayout
  1
レイアウト1
 70
     0
 71
     1
 10
0.0
 20
0.0
 11
420.0
 21
297.0
 12
0.0
 22
0.0
 32
0.0
 14
1.000000000000000E+20
 24
1.000000000000000E+20
 34
1.000000000000000E+20
 15
-1.000000000000000E+20
 25
-1.000000000000000E+20
 35
-1.000000000000000E+20
146
0.0
 13
0.0
 23
0.0
 33
0.0
 16
1.0
 26
0.0
 36
0.0
 17
0.0
 27
1.0
 37
0.0
 76
     0
330
747A
  0
MLINESTYLE
  5
7480
102
{ACAD_REACTORS
330
7473
102
}
330
7473
100
AcDbMlineStyle
  2
STANDARD
 70
     0
  3

 62
     0
 51
90.0
 52
90.0
 71
     2
 49
0.5
 62
   256
  6
BYLAYER
 49
-0.5
 62
   256
  6
BYLAYER
  0
ACDBPLACEHOLDER
  5
1767F
102
{ACAD_REACTORS
330
1767E
102
}
330
1767E
  0
XRECORD
  5
190AF
102
{ACAD_REACTORS
330
190AD
102
}
330
190AD
100
AcDbXrecord
280
     1
340
17681
  0
XRECORD
  5
190AE
102
{ACAD_REACTORS
330
190AD
102
}
330
190AD
100
AcDbXrecord
280
     1
340
17680
  0
DICTIONARYVAR
  5
190AA
102
{ACAD_REACTORS
330
190A9
102
}
330
190A9
100
DictionaryVariables
280
     0
  1
1
  0
DICTIONARYVAR
  5
190AB
102
{ACAD_REACTORS
330
190A9
102
}
330
190A9
100
DictionaryVariables
280
     0
  1

  0
DICTIONARY
  5
190B0
330
17684
100
AcDbDictionary
280
     1
281
     1
  3
ACAD_XREC_ROUNDTRIP
360
190B1
  0
DICTIONARY
  5
190B2
330
17685
100
AcDbDictionary
280
     1
281
     1
  3
ACAD_XREC_ROUNDTRIP
360
190B3
  0
XRECORD
  5
190B1
102
{ACAD_REACTORS
330
190B0
102
}
330
190B0
100
AcDbXrecord
280
     1
102
SHADEPLOT
 70
     0
102
SHADEPLOTRESLEVEL
 70
     2
102
SHADEPLOTCUSTOMDPI
 70
   300
  0
XRECORD
  5
190B3
102
{ACAD_REACTORS
330
190B2
102
}
330
190B2
100
AcDbXrecord
280
     1
102
SHADEPLOT
 70
     0
102
SHADEPLOTRESLEVEL
 70
     2
102
SHADEPLOTCUSTOMDPI
 70
   300
  0
ENDSEC
  0
EOF
