  0
SECTION
  2
HEADER
  9
$ACADVER
  1
AC1015
  9
$ACADMAINTVER
 70
    20
  9
$DWGCODEPAGE
  3
ANSI_932
  9
$INSBASE
 10
0.0
 20
0.0
 30
0.0
  9
$EXTMIN
 10
139.9999999999995
 20
-0.0000000000000909
 30
0.0
  9
$EXTMAX
 10
16307.2
 20
11409.6
 30
0.0
  9
$LIMMIN
 10
0.0
 20
0.0
  9
$LIMMAX
 10
16800.0
 20
11880.0
  9
$ORTHOMODE
 70
     0
  9
$REGENMODE
 70
     1
  9
$FILLMODE
 70
     1
  9
$QTEXTMODE
 70
     0
  9
$MIRRTEXT
 70
     1
  9
$LTSCALE
 40
20.0
  9
$ATTMODE
 70
     1
  9
$TEXTSIZE
 40
120.0
  9
$TRACEWID
 40
1.0
  9
$TEXTSTYLE
  7
STYLE1
  9
$CLAYER
  8
部品1
  9
$CELTYPE
  6
BYLAYER
  9
$CECOLOR
 62
   256
  9
$CELTSCALE
 40
50.0
  9
$DISPSILH
 70
     0
  9
$DIMSCALE
 40
40.0
  9
$DIMASZ
 40
2.5
  9
$DIMEXO
 40
0.5
  9
$DIMDLI
 40
7.0
  9
$DIMRND
 40
0.0
  9
$DIMDLE
 40
0.0
  9
$DIMEXE
 40
1.5
  9
$DIMTP
 40
0.0
  9
$DIMTM
 40
0.0
  9
$DIMTXT
 40
3.0
  9
$DIMCEN
 40
0.0
  9
$DIMTSZ
 40
0.0
  9
$DIMTOL
 70
     0
  9
$DIMLIM
 70
     0
  9
$DIMTIH
 70
     0
  9
$DIMTOH
 70
     0
  9
$DIMSE1
 70
     0
  9
$DIMSE2
 70
     0
  9
$DIMTAD
 70
     3
  9
$DIMZIN
 70
     8
  9
$DIMBLK
  1

  9
$DIMASO
 70
     1
  9
$DIMSHO
 70
     1
  9
$DIMPOST
  1

  9
$DIMAPOST
  1

  9
$DIMALT
 70
     0
  9
$DIMALTD
 70
     2
  9
$DIMALTF
 40
0.0394
  9
$DIMLFAC
 40
1.0
  9
$DIMTOFL
 70
     1
  9
$DIMTVP
 40
0.0
  9
$DIMTIX
 70
     1
  9
$DIMSOXD
 70
     0
  9
$DIMSAH
 70
     1
  9
$DIMBLK1
  1
DOTSMALL
  9
$DIMBLK2
  1
DOTSMALL
  9
$DIMSTYLE
  2
INABA_S40G
  9
$DIMCLRD
 70
     0
  9
$DIMCLRE
 70
     0
  9
$DIMCLRT
 70
     7
  9
$DIMTFAC
 40
1.0
  9
$DIMGAP
 40
1.0
  9
$DIMJUST
 70
     0
  9
$DIMSD1
 70
     0
  9
$DIMSD2
 70
     0
  9
$DIMTOLJ
 70
     1
  9
$DIMTZIN
 70
     0
  9
$DIMALTZ
 70
     0
  9
$DIMALTTZ
 70
     0
  9
$DIMUPT
 70
     1
  9
$DIMDEC
 70
     1
  9
$DIMTDEC
 70
     4
  9
$DIMALTU
 70
     2
  9
$DIMALTTD
 70
     2
  9
$DIMTXSTY
  7
STYLE1
  9
$DIMAUNIT
 70
     0
  9
$DIMADEC
 70
     0
  9
$DIMALTRND
 40
0.0
  9
$DIMAZIN
 70
     0
  9
$DIMDSEP
 70
    46
  9
$DIMATFIT
 70
     3
  9
$DIMFRAC
 70
     0
  9
$DIMLDRBLK
  1

  9
$DIMLUNIT
 70
     2
  9
$DIMLWD
 70
    -2
  9
$DIMLWE
 70
    -2
  9
$DIMTMOVE
 70
     0
  9
$LUNITS
 70
     2
  9
$LUPREC
 70
     1
  9
$SKETCHINC
 40
1.0
  9
$FILLETRAD
 40
3.0
  9
$AUNITS
 70
     0
  9
$AUPREC
 70
     0
  9
$MENU
  1
acad
  9
$ELEVATION
 40
0.0
  9
$PELEVATION
 40
0.0
  9
$THICKNESS
 40
0.0
  9
$LIMCHECK
 70
     0
  9
$CHAMFERA
 40
0.0
  9
$CHAMFERB
 40
0.0
  9
$CHAMFERC
 40
0.0
  9
$CHAMFERD
 40
0.0
  9
$SKPOLY
 70
     0
  9
$TDCREATE
 40
2451368.612993866
  9
$TDUCREATE
 40
2451368.237993866
  9
$TDUPDATE
 40
2455575.688242720
  9
$TDUUPDATE
 40
2455575.313242720
  9
$TDINDWG
 40
0.5554654051
  9
$TDUSRTIMER
 40
0.5554654051
  9
$USRTIMER
 70
     1
  9
$ANGBASE
 50
0.0
  9
$ANGDIR
 70
     0
  9
$PDMODE
 70
     3
  9
$PDSIZE
 40
2.0
  9
$PLINEWID
 40
0.0
  9
$SPLFRAME
 70
     0
  9
$SPLINETYPE
 70
     6
  9
$SPLINESEGS
 70
     8
  9
$HANDSEED
  5
1B6B2
  9
$SURFTAB1
 70
     6
  9
$SURFTAB2
 70
     6
  9
$SURFTYPE
 70
     6
  9
$SURFU
 70
     6
  9
$SURFV
 70
     6
  9
$UCSBASE
  2

  9
$UCSNAME
  2

  9
$UCSORG
 10
0.0
 20
0.0
 30
0.0
  9
$UCSXDIR
 10
1.0
 20
0.0
 30
0.0
  9
$UCSYDIR
 10
0.0
 20
1.0
 30
0.0
  9
$UCSORTHOREF
  2

  9
$UCSORTHOVIEW
 70
     0
  9
$UCSORGTOP
 10
0.0
 20
0.0
 30
0.0
  9
$UCSORGBOTTOM
 10
0.0
 20
0.0
 30
0.0
  9
$UCSORGLEFT
 10
0.0
 20
0.0
 30
0.0
  9
$UCSORGRIGHT
 10
0.0
 20
0.0
 30
0.0
  9
$UCSORGFRONT
 10
0.0
 20
0.0
 30
0.0
  9
$UCSORGBACK
 10
0.0
 20
0.0
 30
0.0
  9
$PUCSBASE
  2

  9
$PUCSNAME
  2

  9
$PUCSORG
 10
0.0
 20
0.0
 30
0.0
  9
$PUCSXDIR
 10
1.0
 20
0.0
 30
0.0
  9
$PUCSYDIR
 10
0.0
 20
1.0
 30
0.0
  9
$PUCSORTHOREF
  2

  9
$PUCSORTHOVIEW
 70
     0
  9
$PUCSORGTOP
 10
0.0
 20
0.0
 30
0.0
  9
$PUCSORGBOTTOM
 10
0.0
 20
0.0
 30
0.0
  9
$PUCSORGLEFT
 10
0.0
 20
0.0
 30
0.0
  9
$PUCSORGRIGHT
 10
0.0
 20
0.0
 30
0.0
  9
$PUCSORGFRONT
 10
0.0
 20
0.0
 30
0.0
  9
$PUCSORGBACK
 10
0.0
 20
0.0
 30
0.0
  9
$USERI1
 70
     0
  9
$USERI2
 70
     0
  9
$USERI3
 70
     0
  9
$USERI4
 70
     0
  9
$USERI5
 70
     0
  9
$USERR1
 40
0.0
  9
$USERR2
 40
0.0
  9
$USERR3
 40
0.0
  9
$USERR4
 40
0.0
  9
$USERR5
 40
0.0
  9
$WORLDVIEW
 70
     1
  9
$SHADEDGE
 70
     3
  9
$SHADEDIF
 70
    70
  9
$TILEMODE
 70
     1
  9
$MAXACTVP
 70
    16
  9
$PINSBASE
 10
0.0
 20
0.0
 30
0.0
  9
$PLIMCHECK
 70
     0
  9
$PEXTMIN
 10
40.81991586685183
 20
28.52631521224976
 30
0.0
  9
$PEXTMAX
 10
367.3792428016662
 20
256.7368369102478
 30
0.0
  9
$PLIMMIN
 10
-5.873748779296875
 20
-5.873749732971191
  9
$PLIMMAX
 10
414.0729064941406
 20
291.1369009017944
  9
$UNITMODE
 70
     0
  9
$VISRETAIN
 70
     0
  9
$PLINEGEN
 70
     0
  9
$PSLTSCALE
 70
     0
  9
$TREEDEPTH
 70
  3020
  9
$CMLSTYLE
  2
STANDARD
  9
$CMLJUST
 70
     0
  9
$CMLSCALE
 40
1.0
  9
$PROXYGRAPHICS
 70
     1
  9
$MEASUREMENT
 70
     1
  9
$CELWEIGHT
370
    -1
  9
$ENDCAPS
280
     0
  9
$JOINSTYLE
280
     0
  9
$LWDISPLAY
290
     0
  9
$INSUNITS
 70
     0
  9
$HYPERLINKBASE
  1

  9
$STYLESHEET
  1

  9
$XEDIT
290
     1
  9
$CEPSNTYPE
380
     0
  9
$PSTYLEMODE
290
     1
  9
$FINGERPRINTGUID
  2
{0A067C13-7638-4743-B6F4-D49A0F07523E}
  9
$VERSIONGUID
  2
{825BE08C-E361-4B6E-ADB8-72376D1202AC}
  9
$EXTNAMES
290
     1
  9
$PSVPSCALE
 40
0.0
  9
$OLESTARTUP
290
     0
  0
ENDSEC
  0
SECTION
  2
CLASSES
  0
CLASS
  1
ACDBDICTIONARYWDFLT
  2
AcDbDictionaryWithDefault
  3
ObjectDBX Classes
 90
        0
280
     0
281
     0
  0
CLASS
  1
DICTIONARYVAR
  2
AcDbDictionaryVar
  3
ObjectDBX Classes
 90
        0
280
     0
281
     0
  0
CLASS
  1
ACDBPLACEHOLDER
  2
AcDbPlaceHolder
  3
ObjectDBX Classes
 90
        0
280
     0
281
     0
  0
CLASS
  1
LAYOUT
  2
AcDbLayout
  3
ObjectDBX Classes
 90
        0
280
     0
281
     0
  0
ENDSEC
  0
SECTION
  2
TABLES
  0
TABLE
  2
VPORT
  5
746D
330
0
100
AcDbSymbolTable
 70
     2
  0
VPORT
  5
1B6A6
330
746D
100
AcDbSymbolTableRecord
100
AcDbViewportTableRecord
  2
*Active
 70
     0
 10
0.0
 20
0.0
 11
1.0
 21
1.0
 12
8223.761025238502
 22
6348.703162895247
 13
0.0
 23
0.0
 14
10.0
 24
10.0
 15
10.0
 25
10.0
 16
0.0
 26
0.0
 36
1.0
 17
0.0
 27
0.0
 37
0.0
 40
12805.60689082044
 41
1.525925925925925
 42
50.0
 43
0.0
 44
0.0
 50
0.0
 51
0.0
 71
     0
 72
     0
 73
     1
 74
     0
 75
     0
 76
     0
 77
     0
 78
     0
281
     0
 65
     1
110
0.0
120
0.0
130
0.0
111
1.0
121
0.0
131
0.0
112
0.0
122
1.0
132
0.0
 79
     0
146
0.0
  0
ENDTAB
  0
TABLE
  2
LTYPE
  5
746A
330
0
100
AcDbSymbolTable
 70
     4
  0
LTYPE
  5
7477
330
746A
100
AcDbSymbolTableRecord
100
AcDbLinetypeTableRecord
  2
BYBLOCK
 70
     0
  3

 72
    65
 73
     0
 40
0.0
  0
LTYPE
  5
7478
330
746A
100
AcDbSymbolTableRecord
100
AcDbLinetypeTableRecord
  2
BYLAYER
 70
     0
  3

 72
    65
 73
     0
 40
0.0
  0
LTYPE
  5
7479
330
746A
100
AcDbSymbolTableRecord
100
AcDbLinetypeTableRecord
  2
CONTINUOUS
 70
     0
  3
Solid line
 72
    65
 73
     0
 40
0.0
  0
LTYPE
  5
7816
330
746A
100
AcDbSymbolTableRecord
100
AcDbLinetypeTableRecord
  2
CENTER
 70
     0
  3
____ _ ____ _ ____ _ ____ _ ____ _ ____ _ ____ 
 72
    65
 73
     4
 40
2.0
 49
1.25
 74
     0
 49
-0.25
 74
     0
 49
0.25
 74
     0
 49
-0.25
 74
     0
  0
LTYPE
  5
781A
330
746A
100
AcDbSymbolTableRecord
100
AcDbLinetypeTableRecord
  2
HIDDEN
 70
     0
  3
__ __ __ __ __ __ __ __ __ __ __ __ __ __ __ __
 72
    65
 73
     2
 40
0.375
 49
0.25
 74
     0
 49
-0.125
 74
     0
  0
LTYPE
  5
781B
330
746A
100
AcDbSymbolTableRecord
100
AcDbLinetypeTableRecord
  2
PHANTOM
 70
     0
  3
______  __  __  ______  __  __  ______  __  __ 
 72
    65
 73
     6
 40
2.5
 49
1.25
 74
     0
 49
-0.25
 74
     0
 49
0.25
 74
     0
 49
-0.25
 74
     0
 49
0.25
 74
     0
 49
-0.25
 74
     0
  0
ENDTAB
  0
TABLE
  2
LAYER
  5
7467
102
{ACAD_XDICTIONARY
360
17835
102
}
330
0
100
AcDbSymbolTable
 70
    12
  0
LAYER
  5
7474
330
7467
100
AcDbSymbolTableRecord
100
AcDbLayerTableRecord
  2
0
 70
     0
 62
     7
  6
CONTINUOUS
370
    -3
390
1765F
  0
LAYER
  5
DEB2
330
7467
100
AcDbSymbolTableRecord
100
AcDbLayerTableRecord
  2
センター
 70
     0
 62
     3
  6
CENTER
370
    -3
390
1765F
  0
LAYER
  5
DEB3
330
7467
100
AcDbSymbolTableRecord
100
AcDbLayerTableRecord
  2
寸法
 70
     0
 62
     4
  6
CONTINUOUS
370
    -3
390
1765F
  0
LAYER
  5
DEB4
330
7467
100
AcDbSymbolTableRecord
100
AcDbLayerTableRecord
  2
部品1
 70
     0
 62
     7
  6
CONTINUOUS
370
    -3
390
1765F
  0
LAYER
  5
DEB5
330
7467
100
AcDbSymbolTableRecord
100
AcDbLayerTableRecord
  2
補助
 70
     0
 62
    -1
  6
CONTINUOUS
370
    -3
390
1765F
  0
LAYER
  5
DEB6
330
7467
100
AcDbSymbolTableRecord
100
AcDbLayerTableRecord
  2
文字
 70
     0
 62
     7
  6
CONTINUOUS
370
    -3
390
1765F
  0
LAYER
  5
F255
330
7467
100
AcDbSymbolTableRecord
100
AcDbLayerTableRecord
  2
DEFPOINTS
 70
     0
 62
     7
  6
CONTINUOUS
290
     0
370
    -3
390
1765F
  0
LAYER
  5
10B54
330
7467
100
AcDbSymbolTableRecord
100
AcDbLayerTableRecord
  2
仕様書枠
 70
     0
 62
   230
  6
CONTINUOUS
370
    -3
390
1765F
  0
LAYER
  5
11729
330
7467
100
AcDbSymbolTableRecord
100
AcDbLayerTableRecord
  2
Ｇ．Ｌ
 70
     0
 62
    30
  6
CONTINUOUS
370
    -3
390
1765F
  0
LAYER
  5
1173F
330
7467
100
AcDbSymbolTableRecord
100
AcDbLayerTableRecord
  2
細線
 70
     0
 62
     5
  6
CONTINUOUS
370
    -3
390
1765F
  0
LAYER
  5
12CC4
330
7467
100
AcDbSymbolTableRecord
100
AcDbLayerTableRecord
  2
想像線
 70
     0
 62
     6
  6
PHANTOM
370
    -3
390
1765F
  0
LAYER
  5
142E2
330
7467
100
AcDbSymbolTableRecord
100
AcDbLayerTableRecord
  2
破線
 70
     0
 62
     2
  6
HIDDEN
370
    -3
390
1765F
  0
ENDTAB
  0
TABLE
  2
STYLE
  5
7468
330
0
100
AcDbSymbolTable
 70
     5
  0
STYLE
  5
7475
330
7468
100
AcDbSymbolTableRecord
100
AcDbTextStyleTableRecord
  2
STANDARD
 70
     0
 40
0.0
 41
1.0
 50
0.0
 71
     0
 42
4.0
  3
txt
  4
C:\AutoCAD LT\bigfont.shx
  0
STYLE
  5
763C
330
7468
100
AcDbSymbolTableRecord
100
AcDbTextStyleTableRecord
  2
MSMINCHO
 70
     0
 40
0.0
 41
1.0
 50
0.0
 71
     0
 42
1.199999999999999
  3
C:\AutoCAD LT\msminch2.TTF
  4

  0
STYLE
  5
F706
330
7468
100
AcDbSymbolTableRecord
100
AcDbTextStyleTableRecord
  2
STYLE1
 70
     0
 40
0.0
 41
1.0
 50
0.0
 71
     0
 42
120.0
  3
isocp.shx
  4
bigfont.shx
  0
STYLE
  5
103BF
330
7468
100
AcDbSymbolTableRecord
100
AcDbTextStyleTableRecord
  2
STYLE2
 70
     0
 40
0.0
 41
1.0
 50
0.0
 71
     0
 42
100.0
  3
MS PGothic.ttf
  4

1001
ACAD
1000
MS PGothic
1071
    32818
  0
STYLE
  5
10BAA
330
7468
100
AcDbSymbolTableRecord
100
AcDbTextStyleTableRecord
  2
STYLE3
 70
     0
 40
0.0
 41
1.0
 50
0.0
 71
     0
 42
100.0
  3

  4

1001
ACAD
1000
DFPGothic-EB
1071
    32818
  0
ENDTAB
  0
TABLE
  2
VIEW
  5
746B
330
0
100
AcDbSymbolTable
 70
     0
  0
ENDTAB
  0
TABLE
  2
UCS
  5
746C
330
0
100
AcDbSymbolTable
 70
     0
  0
ENDTAB
  0
TABLE
  2
APPID
  5
746E
330
0
100
AcDbSymbolTable
 70
     6
  0
APPID
  5
7476
330
746E
100
AcDbSymbolTableRecord
100
AcDbRegAppTableRecord
  2
ACAD
 70
     0
  0
APPID
  5
DEA9
330
746E
100
AcDbSymbolTableRecord
100
AcDbRegAppTableRecord
  2
CONTENTBLOCKICON
 70
     0
  0
APPID
  5
DEAA
330
746E
100
AcDbSymbolTableRecord
100
AcDbRegAppTableRecord
  2
CONTENTBLOCKDESCRIPTION
 70
     0
  0
APPID
  5
E71D
330
746E
100
AcDbSymbolTableRecord
100
AcDbRegAppTableRecord
  2
CONTENTTABDATA
 70
     0
  0
APPID
  5
E71E
330
746E
100
AcDbSymbolTableRecord
100
AcDbRegAppTableRecord
  2
CONTENTCURRENTTAB
 70
     0
  0
APPID
  5
F3BA
330
746E
100
AcDbSymbolTableRecord
100
AcDbRegAppTableRecord
  2
DRAWINGVARIABLESXDATA
 70
     0
  0
ENDTAB
  0
TABLE
  2
DIMSTYLE
  5
746F
330
0
100
AcDbSymbolTable
 70
     4
100
AcDbDimStyleTable
 71
     1
340
F71F
  0
DIMSTYLE
105
7484
330
746F
100
AcDbSymbolTableRecord
100
AcDbDimStyleTableRecord
  2
JIS
 70
     0
 41
2.5
 42
1.0
 43
7.0
 44
1.0
 73
     0
 74
     0
 77
     1
 78
     8
140
2.5
141
0.0
143
0.0394
147
0.0
172
     1
174
     1
175
     1
340
7475
  0
DIMSTYLE
105
F236
330
746F
100
AcDbSymbolTableRecord
100
AcDbDimStyleTableRecord
  2
INABA_S40
 70
     0
 40
40.0
 41
2.5
 42
0.5
 43
7.0
 44
1.5
 73
     0
 74
     0
 77
     3
 78
     8
140
3.0
141
0.0
143
0.0394
147
1.0
172
     1
173
     1
174
     1
175
     1
178
     7
289
     0
340
7475
341
DEAC
343
DEAC
344
DEAC
  0
DIMSTYLE
105
F71F
102
{ACAD_REACTORS
330
17CE5
330
17CF4
330
17CF5
330
17CF6
330
18820
330
1882F
330
18858
330
18859
330
1885A
330
1885D
330
18861
330
18863
330
18864
330
18865
330
1A921
330
1A990
330
1A9FF
330
1AA0C
330
1AA0D
330
1AA0E
330
1AA0F
330
1AA10
330
1AA11
330
1AA40
330
1AA41
330
1AA7B
330
1AA7C
330
1AAA5
330
1AABE
330
1AAC7
330
1AAE6
330
1AAE7
330
1AAE8
330
1AAE9
330
1AAF0
330
1AAF4
102
}
330
746F
100
AcDbSymbolTableRecord
100
AcDbDimStyleTableRecord
  2
INABA_S40G
 70
     0
 40
40.0
 41
2.5
 42
0.5
 43
7.0
 44
1.5
 73
     0
 74
     0
 77
     3
 78
     8
140
3.0
141
0.0
143
0.0394
147
1.0
172
     1
173
     1
174
     1
178
     7
271
     1
288
     1
340
F706
341
F770
343
F770
344
F770
  0
DIMSTYLE
105
1B587
330
746F
100
AcDbSymbolTableRecord
100
AcDbDimStyleTableRecord
  2
INABA_S20G
 70
     0
 40
20.0
 41
2.5
 42
0.5
 43
7.0
 44
1.5
 73
     0
 74
     0
 77
     3
 78
     8
140
3.0
141
0.0
143
0.0394
147
1.0
172
     1
173
     1
174
     1
178
     7
271
     1
340
F706
341
F770
343
F770
344
F770
  0
ENDTAB
  0
TABLE
  2
BLOCK_RECORD
  5
7466
330
0
100
AcDbSymbolTable
 70
    38
  0
BLOCK_RECORD
  5
747D
330
7466
100
AcDbSymbolTableRecord
100
AcDbBlockTableRecord
  2
*MODEL_SPACE
340
17664
  0
BLOCK_RECORD
  5
747A
330
7466
100
AcDbSymbolTableRecord
100
AcDbBlockTableRecord
  2
*PAPER_SPACE
340
17665
  0
BLOCK_RECORD
  5
DEAC
330
7466
100
AcDbSymbolTableRecord
100
AcDbBlockTableRecord
  2
_OPEN
340
0
  0
BLOCK_RECORD
  5
F770
330
7466
100
AcDbSymbolTableRecord
100
AcDbBlockTableRecord
  2
_DOTSMALL
340
0
102
{BLKREFS
331
1935A
331
1935B
331
19363
331
19364
331
1936C
331
1936D
331
19377
331
19378
331
19380
331
19381
331
19389
331
1938A
331
19394
331
19395
331
1939D
331
1939E
331
193A7
331
193A8
331
193B1
331
193B2
331
193BA
331
193BB
331
193C3
331
193C4
331
193CE
331
193CF
331
193D9
331
193DA
331
1AA5D
331
1AA5E
331
1AA64
331
1AA65
331
1ACD1
331
1ACD2
331
1ACDA
331
1ACDB
331
1ACE5
331
1ACE6
331
1ACF0
331
1ACF1
331
1ACF9
331
1ACFA
331
1AD02
331
1AD03
331
1AD0D
331
1AD0E
331
1AD1F
331
1AD20
331
1AD28
331
1AD29
331
1AD31
331
1AD32
331
1AD4C
331
1AD4D
331
1AD54
331
1AD55
331
1AD5C
331
1AD5D
331
1AD64
331
1AD65
331
1AD6C
331
1AD6D
331
1AD75
331
1AD76
331
1AD7E
331
1AD7F
331
1AD87
331
1AD88
331
1AD90
331
1AD91
331
1B544
331
1B545
331
1B54D
331
1B54E
331
1B575
331
1B576
102
}
  0
BLOCK_RECORD
  5
18015
330
7466
100
AcDbSymbolTableRecord
100
AcDbBlockTableRecord
  2
*D2
340
0
  0
BLOCK_RECORD
  5
18023
330
7466
100
AcDbSymbolTableRecord
100
AcDbBlockTableRecord
  2
*D3
340
0
  0
BLOCK_RECORD
  5
18031
330
7466
100
AcDbSymbolTableRecord
100
AcDbBlockTableRecord
  2
*D4
340
0
  0
BLOCK_RECORD
  5
1803D
330
7466
100
AcDbSymbolTableRecord
100
AcDbBlockTableRecord
  2
*D5
340
0
  0
BLOCK_RECORD
  5
18942
330
7466
100
AcDbSymbolTableRecord
100
AcDbBlockTableRecord
  2
*D6
340
0
  0
BLOCK_RECORD
  5
1894F
330
7466
100
AcDbSymbolTableRecord
100
AcDbBlockTableRecord
  2
*D7
340
0
  0
BLOCK_RECORD
  5
1895C
330
7466
100
AcDbSymbolTableRecord
100
AcDbBlockTableRecord
  2
*D8
340
0
  0
BLOCK_RECORD
  5
18968
330
7466
100
AcDbSymbolTableRecord
100
AcDbBlockTableRecord
  2
*D9
340
0
  0
BLOCK_RECORD
  5
18976
330
7466
100
AcDbSymbolTableRecord
100
AcDbBlockTableRecord
  2
*D10
340
0
  0
BLOCK_RECORD
  5
18982
330
7466
100
AcDbSymbolTableRecord
100
AcDbBlockTableRecord
  2
*D11
340
0
  0
BLOCK_RECORD
  5
1898E
330
7466
100
AcDbSymbolTableRecord
100
AcDbBlockTableRecord
  2
*D12
340
0
  0
BLOCK_RECORD
  5
189A9
330
7466
100
AcDbSymbolTableRecord
100
AcDbBlockTableRecord
  2
*D13
340
0
  0
BLOCK_RECORD
  5
189B5
330
7466
100
AcDbSymbolTableRecord
100
AcDbBlockTableRecord
  2
*D14
340
0
  0
BLOCK_RECORD
  5
189C1
330
7466
100
AcDbSymbolTableRecord
100
AcDbBlockTableRecord
  2
*D15
340
0
  0
BLOCK_RECORD
  5
1AAF5
330
7466
100
AcDbSymbolTableRecord
100
AcDbBlockTableRecord
  2
*D16
340
0
  0
BLOCK_RECORD
  5
1AB01
330
7466
100
AcDbSymbolTableRecord
100
AcDbBlockTableRecord
  2
*D17
340
0
  0
BLOCK_RECORD
  5
1AB0D
330
7466
100
AcDbSymbolTableRecord
100
AcDbBlockTableRecord
  2
*D18
340
0
  0
BLOCK_RECORD
  5
1AB19
330
7466
100
AcDbSymbolTableRecord
100
AcDbBlockTableRecord
  2
*D19
340
0
  0
BLOCK_RECORD
  5
1AB25
330
7466
100
AcDbSymbolTableRecord
100
AcDbBlockTableRecord
  2
*D20
340
0
  0
BLOCK_RECORD
  5
1AB30
330
7466
100
AcDbSymbolTableRecord
100
AcDbBlockTableRecord
  2
*D21
340
0
  0
BLOCK_RECORD
  5
1AB3B
330
7466
100
AcDbSymbolTableRecord
100
AcDbBlockTableRecord
  2
*D22
340
0
  0
BLOCK_RECORD
  5
1AB46
330
7466
100
AcDbSymbolTableRecord
100
AcDbBlockTableRecord
  2
*D23
340
0
  0
BLOCK_RECORD
  5
1AB51
330
7466
100
AcDbSymbolTableRecord
100
AcDbBlockTableRecord
  2
*D24
340
0
  0
BLOCK_RECORD
  5
1AB5D
330
7466
100
AcDbSymbolTableRecord
100
AcDbBlockTableRecord
  2
*D25
340
0
  0
BLOCK_RECORD
  5
1AB69
330
7466
100
AcDbSymbolTableRecord
100
AcDbBlockTableRecord
  2
*D26
340
0
  0
BLOCK_RECORD
  5
1AB75
330
7466
100
AcDbSymbolTableRecord
100
AcDbBlockTableRecord
  2
*D27
340
0
  0
BLOCK_RECORD
  5
1AB81
330
7466
100
AcDbSymbolTableRecord
100
AcDbBlockTableRecord
  2
*D28
340
0
  0
BLOCK_RECORD
  5
1AB8D
330
7466
100
AcDbSymbolTableRecord
100
AcDbBlockTableRecord
  2
*D29
340
0
  0
BLOCK_RECORD
  5
1AB99
330
7466
100
AcDbSymbolTableRecord
100
AcDbBlockTableRecord
  2
*D30
340
0
  0
BLOCK_RECORD
  5
1ABA5
330
7466
100
AcDbSymbolTableRecord
100
AcDbBlockTableRecord
  2
*D31
340
0
  0
BLOCK_RECORD
  5
1ABB3
330
7466
100
AcDbSymbolTableRecord
100
AcDbBlockTableRecord
  2
*D32
340
0
  0
BLOCK_RECORD
  5
1ABBF
330
7466
100
AcDbSymbolTableRecord
100
AcDbBlockTableRecord
  2
*D33
340
0
  0
BLOCK_RECORD
  5
1ABCB
330
7466
100
AcDbSymbolTableRecord
100
AcDbBlockTableRecord
  2
*D34
340
0
  0
BLOCK_RECORD
  5
1ABD9
330
7466
100
AcDbSymbolTableRecord
100
AcDbBlockTableRecord
  2
*D35
340
0
  0
BLOCK_RECORD
  5
1ABE7
330
7466
100
AcDbSymbolTableRecord
100
AcDbBlockTableRecord
  2
*D36
340
0
  0
BLOCK_RECORD
  5
1ABF3
330
7466
100
AcDbSymbolTableRecord
100
AcDbBlockTableRecord
  2
*D37
340
0
  0
ENDTAB
  0
ENDSEC
  0
SECTION
  2
BLOCKS
  0
BLOCK
  5
7489
330
747D
100
AcDbEntity
  8
0
100
AcDbBlockBegin
  2
*MODEL_SPACE
 70
     0
 10
0.0
 20
0.0
 30
0.0
  3
*MODEL_SPACE
  1

  0
ENDBLK
  5
748A
330
747D
100
AcDbEntity
  8
0
100
AcDbBlockEnd
  0
BLOCK
  5
7487
330
747A
100
AcDbEntity
 67
     1
  8
0
100
AcDbBlockBegin
  2
*PAPER_SPACE
 70
     0
 10
0.0
 20
0.0
 30
0.0
  3
*PAPER_SPACE
  1

  0
ENDBLK
  5
7488
330
747A
100
AcDbEntity
 67
     1
  8
0
100
AcDbBlockEnd
  0
BLOCK
  5
DEAD
330
DEAC
100
AcDbEntity
  8
0
100
AcDbBlockBegin
  2
_OPEN
 70
     0
 10
0.0
 20
0.0
 30
0.0
  3
_OPEN
  1

  0
LINE
  5
DEAE
330
DEAC
100
AcDbEntity
  8
0
  6
ByBlock
 62
     0
100
AcDbLine
 10
-1.0
 20
0.1666666666666666
 30
0.0
 11
0.0
 21
0.0
 31
0.0
  0
LINE
  5
DEAF
330
DEAC
100
AcDbEntity
  8
0
  6
ByBlock
 62
     0
100
AcDbLine
 10
0.0
 20
0.0
 30
0.0
 11
-1.0
 21
-0.1666666666666666
 31
0.0
  0
LINE
  5
DEB0
330
DEAC
100
AcDbEntity
  8
0
  6
ByBlock
 62
     0
100
AcDbLine
 10
0.0
 20
0.0
 30
0.0
 11
-1.0
 21
0.0
 31
0.0
  0
ENDBLK
  5
DEB1
330
DEAC
100
AcDbEntity
  8
0
100
AcDbBlockEnd
  0
BLOCK
  5
F771
330
F770
100
AcDbEntity
  8
0
 48
50.0
100
AcDbBlockBegin
  2
_DOTSMALL
 70
     0
 10
0.0
 20
0.0
 30
0.0
  3
_DOTSMALL
  1

  0
LWPOLYLINE
  5
F772
330
F770
100
AcDbEntity
  8
0
  6
ByBlock
 62
     0
 48
50.0
100
AcDbPolyline
 90
        2
 70
     1
 43
0.5
 10
-0.0625
 20
0.0
 42
1.0
 10
0.0625
 20
0.0
 42
1.0
  0
ENDBLK
  5
F776
330
F770
100
AcDbEntity
  8
0
 48
50.0
100
AcDbBlockEnd
  0
BLOCK
  5
18021
330
18015
100
AcDbEntity
  8
0
 48
50.0
100
AcDbBlockBegin
  2
*D2
 70
     1
 10
0.0
 20
0.0
 30
0.0
  3
*D2
  1

  0
LINE
  5
193D4
330
18015
100
AcDbEntity
  8
寸法
 62
     0
 48
50.0
370
    -2
100
AcDbLine
 10
8501.902964380301
 20
4826.392568482499
 30
0.0
 11
8501.902964380301
 21
5078.93415374074
 31
0.0
  0
LINE
  5
193D5
330
18015
100
AcDbEntity
  8
寸法
 62
     0
 48
50.0
370
    -2
100
AcDbLine
 10
8451.9029643803
 20
4826.392568482501
 30
0.0
 11
8451.9029643803
 21
5078.93415374074
 31
0.0
  0
LINE
  5
193D6
330
18015
100
AcDbEntity
  8
寸法
 62
     0
 48
50.0
370
    -2
100
AcDbLine
 10
8451.9029643803
 20
5018.93415374074
 30
0.0
 11
8351.9029643803
 21
5018.93415374074
 31
0.0
  0
LINE
  5
193D7
330
18015
100
AcDbEntity
  8
寸法
 62
     0
 48
50.0
370
    -2
100
AcDbLine
 10
8501.902964380301
 20
5018.93415374074
 30
0.0
 11
8921.435489849024
 21
5018.93415374074
 31
0.0
  0
LINE
  5
193D8
330
18015
100
AcDbEntity
  8
寸法
 62
     0
 48
50.0
370
    -2
100
AcDbLine
 10
8451.9029643803
 20
5018.93415374074
 30
0.0
 11
8501.902964380301
 21
5018.93415374074
 31
0.0
  0
INSERT
  5
193D9
330
18015
100
AcDbEntity
  8
寸法
 62
     0
 48
50.0
370
    -2
100
AcDbBlockReference
  2
_DOTSMALL
 10
8451.9029643803
 20
5018.93415374074
 30
0.0
 41
100.0
 42
100.0
 43
100.0
  0
INSERT
  5
193DA
330
18015
100
AcDbEntity
  8
寸法
 62
     0
 48
50.0
370
    -2
100
AcDbBlockReference
  2
_DOTSMALL
 10
8501.902964380301
 20
5018.93415374074
 30
0.0
 41
100.0
 42
100.0
 43
100.0
 50
180.0
  0
MTEXT
  5
193DB
330
18015
100
AcDbEntity
  8
寸法
 62
     7
 48
50.0
100
AcDbMText
 10
8815.388245754537
 20
5118.93415374074
 30
0.0
 40
120.0
 41
0.0
 71
     5
 72
     1
  1
\A1;50
  7
STYLE1
 73
     1
 44
1.0
1001
ACAD
1000
MTEXTBEGIN
1070
    73
1070
     1
1070
    44
1040
1.0
1070
    74
1070
     0
1000
MTEXTEND
  0
POINT
  5
193DC
330
18015
100
AcDbEntity
  8
DEFPOINTS
 62
     0
 48
50.0
100
AcDbPoint
 10
8501.902964380301
 20
4806.392568482499
 30
0.0
  0
POINT
  5
193DD
330
18015
100
AcDbEntity
  8
DEFPOINTS
 62
     0
 48
50.0
100
AcDbPoint
 10
8451.9029643803
 20
4806.3925684825
 30
0.0
  0
POINT
  5
193DE
330
18015
100
AcDbEntity
  8
DEFPOINTS
 62
     0
 48
50.0
100
AcDbPoint
 10
8451.9029643803
 20
5018.93415374074
 30
0.0
  0
ENDBLK
  5
18022
330
18015
100
AcDbEntity
  8
0
 48
50.0
100
AcDbBlockEnd
  0
BLOCK
  5
1802F
330
18023
100
AcDbEntity
  8
0
 48
50.0
100
AcDbBlockBegin
  2
*D3
 70
     1
 10
0.0
 20
0.0
 30
0.0
  3
*D3
  1

  0
LINE
  5
193C9
330
18023
100
AcDbEntity
  8
寸法
 62
     0
 48
50.0
370
    -2
100
AcDbLine
 10
3861.902964380299
 20
4826.392568482506
 30
0.0
 11
3861.902964380299
 21
5078.934153740743
 31
0.0
  0
LINE
  5
193CA
330
18023
100
AcDbEntity
  8
寸法
 62
     0
 48
50.0
370
    -2
100
AcDbLine
 10
3811.902964380299
 20
4826.392568482504
 30
0.0
 11
3811.902964380299
 21
5078.934153740743
 31
0.0
  0
LINE
  5
193CB
330
18023
100
AcDbEntity
  8
寸法
 62
     0
 48
50.0
370
    -2
100
AcDbLine
 10
3861.902964380299
 20
5018.934153740744
 30
0.0
 11
3961.902964380299
 21
5018.934153740744
 31
0.0
  0
LINE
  5
193CC
330
18023
100
AcDbEntity
  8
寸法
 62
     0
 48
50.0
370
    -2
100
AcDbLine
 10
3811.902964380299
 20
5018.934153740744
 30
0.0
 11
3392.370438911564
 21
5018.934153740744
 31
0.0
  0
LINE
  5
193CD
330
18023
100
AcDbEntity
  8
寸法
 62
     0
 48
50.0
370
    -2
100
AcDbLine
 10
3861.902964380299
 20
5018.934153740744
 30
0.0
 11
3811.902964380299
 21
5018.934153740744
 31
0.0
  0
INSERT
  5
193CE
330
18023
100
AcDbEntity
  8
寸法
 62
     0
 48
50.0
370
    -2
100
AcDbBlockReference
  2
_DOTSMALL
 10
3861.902964380299
 20
5018.934153740744
 30
0.0
 41
100.0
 42
100.0
 43
100.0
 50
180.0
  0
INSERT
  5
193CF
330
18023
100
AcDbEntity
  8
寸法
 62
     0
 48
50.0
370
    -2
100
AcDbBlockReference
  2
_DOTSMALL
 10
3811.902964380299
 20
5018.934153740744
 30
0.0
 41
100.0
 42
100.0
 43
100.0
  0
MTEXT
  5
193D0
330
18023
100
AcDbEntity
  8
寸法
 62
     7
 48
50.0
100
AcDbMText
 10
3498.417683006052
 20
5118.934153740744
 30
0.0
 40
120.0
 41
0.0
 71
     5
 72
     1
  1
\A1;50
  7
STYLE1
 73
     1
 44
1.0
1001
ACAD
1000
MTEXTBEGIN
1070
    73
1070
     1
1070
    44
1040
1.0
1070
    74
1070
     0
1000
MTEXTEND
  0
POINT
  5
193D1
330
18023
100
AcDbEntity
  8
DEFPOINTS
 62
     0
 48
50.0
100
AcDbPoint
 10
3861.902964380299
 20
4806.392568482507
 30
0.0
  0
POINT
  5
193D2
330
18023
100
AcDbEntity
  8
DEFPOINTS
 62
     0
 48
50.0
100
AcDbPoint
 10
3811.902964380299
 20
4806.392568482504
 30
0.0
  0
POINT
  5
193D3
330
18023
100
AcDbEntity
  8
DEFPOINTS
 62
     0
 48
50.0
100
AcDbPoint
 10
3811.902964380299
 20
5018.934153740744
 30
0.0
  0
ENDBLK
  5
18030
330
18023
100
AcDbEntity
  8
0
 48
50.0
100
AcDbBlockEnd
  0
BLOCK
  5
1803B
330
18031
100
AcDbEntity
  8
0
 48
50.0
100
AcDbBlockBegin
  2
*D4
 70
     1
 10
0.0
 20
0.0
 30
0.0
  3
*D4
  1

  0
LINE
  5
193C0
330
18031
100
AcDbEntity
  8
寸法
 62
     0
 48
50.0
370
    -2
100
AcDbLine
 10
3811.902964380299
 20
4826.392568482504
 30
0.0
 11
3811.902964380299
 21
5301.891132178592
 31
0.0
  0
LINE
  5
193C1
330
18031
100
AcDbEntity
  8
寸法
 62
     0
 48
50.0
370
    -2
100
AcDbLine
 10
8501.902964380301
 20
4826.392568482499
 30
0.0
 11
8501.902964380301
 21
5301.891132178592
 31
0.0
  0
LINE
  5
193C2
330
18031
100
AcDbEntity
  8
寸法
 62
     0
 48
50.0
370
    -2
100
AcDbLine
 10
3811.902964380299
 20
5241.891132178593
 30
0.0
 11
8501.902964380301
 21
5241.891132178593
 31
0.0
  0
INSERT
  5
193C3
330
18031
100
AcDbEntity
  8
寸法
 62
     0
 48
50.0
370
    -2
100
AcDbBlockReference
  2
_DOTSMALL
 10
3811.902964380299
 20
5241.891132178593
 30
0.0
 41
100.0
 42
100.0
 43
100.0
 50
180.0
  0
INSERT
  5
193C4
330
18031
100
AcDbEntity
  8
寸法
 62
     0
 48
50.0
370
    -2
100
AcDbBlockReference
  2
_DOTSMALL
 10
8501.902964380301
 20
5241.891132178593
 30
0.0
 41
100.0
 42
100.0
 43
100.0
  0
MTEXT
  5
193C5
330
18031
100
AcDbEntity
  8
寸法
 62
     7
 48
50.0
100
AcDbMText
 10
6109.043172300562
 20
5341.891132178592
 30
0.0
 40
120.0
 41
0.0
 71
     5
 72
     1
  1
\A1;N x 1530 +100
  7
STYLE1
 73
     1
 44
1.0
1001
ACAD
1000
MTEXTBEGIN
1070
    73
1070
     1
1070
    44
1040
1.0
1070
    74
1070
     0
1000
MTEXTEND
  0
POINT
  5
193C6
330
18031
100
AcDbEntity
  8
DEFPOINTS
 62
     0
 48
50.0
100
AcDbPoint
 10
3811.902964380299
 20
4806.392568482504
 30
0.0
  0
POINT
  5
193C7
330
18031
100
AcDbEntity
  8
DEFPOINTS
 62
     0
 48
50.0
100
AcDbPoint
 10
8501.902964380301
 20
4806.392568482499
 30
0.0
  0
POINT
  5
193C8
330
18031
100
AcDbEntity
  8
DEFPOINTS
 62
     0
 48
50.0
100
AcDbPoint
 10
8501.902964380301
 20
5241.891132178593
 30
0.0
  0
ENDBLK
  5
1803C
330
18031
100
AcDbEntity
  8
0
 48
50.0
100
AcDbBlockEnd
  0
BLOCK
  5
18047
330
1803D
100
AcDbEntity
  8
0
 48
50.0
100
AcDbBlockBegin
  2
*D5
 70
     1
 10
0.0
 20
0.0
 30
0.0
  3
*D5
  1

  0
LINE
  5
193B7
330
1803D
100
AcDbEntity
  8
寸法
 62
     0
 48
50.0
370
    -2
100
AcDbLine
 10
8451.9029643803
 20
4826.392568482501
 30
0.0
 11
8451.9029643803
 21
5078.934153740743
 31
0.0
  0
LINE
  5
193B8
330
1803D
100
AcDbEntity
  8
寸法
 62
     0
 48
50.0
370
    -2
100
AcDbLine
 10
3861.902964380299
 20
4826.392568482506
 30
0.0
 11
3861.902964380299
 21
5078.934153740743
 31
0.0
  0
LINE
  5
193B9
330
1803D
100
AcDbEntity
  8
寸法
 62
     0
 48
50.0
370
    -2
100
AcDbLine
 10
8451.9029643803
 20
5018.934153740744
 30
0.0
 11
3861.902964380299
 21
5018.934153740744
 31
0.0
  0
INSERT
  5
193BA
330
1803D
100
AcDbEntity
  8
寸法
 62
     0
 48
50.0
370
    -2
100
AcDbBlockReference
  2
_DOTSMALL
 10
8451.9029643803
 20
5018.934153740744
 30
0.0
 41
100.0
 42
100.0
 43
100.0
  0
INSERT
  5
193BB
330
1803D
100
AcDbEntity
  8
寸法
 62
     0
 48
50.0
370
    -2
100
AcDbBlockReference
  2
_DOTSMALL
 10
3861.902964380299
 20
5018.934153740744
 30
0.0
 41
100.0
 42
100.0
 43
100.0
 50
180.0
  0
MTEXT
  5
193BC
330
1803D
100
AcDbEntity
  8
寸法
 62
     7
 48
50.0
100
AcDbMText
 10
6109.043172300562
 20
5118.934153740744
 30
0.0
 40
120.0
 41
0.0
 71
     5
 72
     1
  1
\A1;柱外寸法 N x 1530
  7
STYLE1
 73
     1
 44
1.0
1001
ACAD
1000
MTEXTBEGIN
1070
    73
1070
     1
1070
    44
1040
1.0
1070
    74
1070
     0
1000
MTEXTEND
  0
POINT
  5
193BD
330
1803D
100
AcDbEntity
  8
DEFPOINTS
 62
     0
 48
50.0
100
AcDbPoint
 10
8451.9029643803
 20
4806.3925684825
 30
0.0
  0
POINT
  5
193BE
330
1803D
100
AcDbEntity
  8
DEFPOINTS
 62
     0
 48
50.0
100
AcDbPoint
 10
3861.902964380299
 20
4806.392568482507
 30
0.0
  0
POINT
  5
193BF
330
1803D
100
AcDbEntity
  8
DEFPOINTS
 62
     0
 48
50.0
100
AcDbPoint
 10
3861.902964380299
 20
5018.934153740744
 30
0.0
  0
ENDBLK
  5
18048
330
1803D
100
AcDbEntity
  8
0
 48
50.0
100
AcDbBlockEnd
  0
BLOCK
  5
1894D
330
18942
100
AcDbEntity
  8
0
 48
50.0
100
AcDbBlockBegin
  2
*D6
 70
     1
 10
0.0
 20
0.0
 30
0.0
  3
*D6
  1

  0
LINE
  5
193AD
330
18942
100
AcDbEntity
  8
寸法
 62
     0
 48
50.0
370
    -2
100
AcDbLine
 10
10587.10463247888
 20
4805.690275552159
 30
0.0
 11
9971.170193373611
 21
4823.404425826487
 31
0.0
  0
LINE
  5
193AE
330
18942
100
AcDbEntity
  8
寸法
 62
     0
 48
50.0
370
    -2
100
AcDbLine
 10
10583.05117692225
 20
4664.748551786447
 30
0.0
 11
9967.116737816986
 21
4682.462702060775
 31
0.0
  0
LINE
  5
193AF
330
18942
100
AcDbEntity
  8
寸法
 62
     0
 48
50.0
370
    -2
100
AcDbLine
 10
10027.09193941941
 20
4680.737827355829
 30
0.0
 11
10031.14539497604
 21
4821.67955112154
 31
0.0
  0
LINE
  5
193B0
330
18942
100
AcDbEntity
  8
寸法
 62
     0
 48
50.0
370
    -2
100
AcDbLine
 10
10031.14539497604
 20
4821.67955112154
 30
0.0
 11
10041.49464320572
 21
5181.530760736126
 31
0.0
  0
INSERT
  5
193B1
330
18942
100
AcDbEntity
  8
寸法
 62
     0
 48
50.0
370
    -2
100
AcDbBlockReference
  2
_DOTSMALL
 10
10027.09193941941
 20
4680.737827355829
 30
0.0
 41
100.0
 42
100.0
 43
100.0
 50
268.3526390256378
  0
INSERT
  5
193B2
330
18942
100
AcDbEntity
  8
寸法
 62
     0
 48
50.0
370
    -2
100
AcDbBlockReference
  2
_DOTSMALL
 10
10031.14539497604
 20
4821.67955112154
 30
0.0
 41
100.0
 42
100.0
 43
100.0
 50
88.35263902563776
  0
MTEXT
  5
193B3
330
18942
100
AcDbEntity
  8
寸法
 62
     7
 48
50.0
100
AcDbMText
 10
9937.798745340954
 20
5054.459281772438
 30
0.0
 40
120.0
 41
0.0
 71
     5
 72
     1
  1
\A1;141
  7
STYLE1
 11
0.0287479117491237
 21
0.9995866933738488
 31
0.0
 73
     1
 44
1.0
1001
ACAD
1000
MTEXTBEGIN
1070
    73
1070
     1
1070
    44
1040
1.0
1070
    74
1070
     0
1000
MTEXTEND
  0
POINT
  5
193B4
330
18942
100
AcDbEntity
  8
DEFPOINTS
 62
     0
 48
50.0
100
AcDbPoint
 10
10607.09636634636
 20
4805.115317317176
 30
0.0
  0
POINT
  5
193B5
330
18942
100
AcDbEntity
  8
DEFPOINTS
 62
     0
 48
50.0
100
AcDbPoint
 10
10603.04291078973
 20
4664.173593551464
 30
0.0
  0
POINT
  5
193B6
330
18942
100
AcDbEntity
  8
DEFPOINTS
 62
     0
 48
50.0
100
AcDbPoint
 10
10027.09193941941
 20
4680.737827355829
 30
0.0
  0
ENDBLK
  5
1894E
330
18942
100
AcDbEntity
  8
0
 48
50.0
100
AcDbBlockEnd
  0
BLOCK
  5
1895A
330
1894F
100
AcDbEntity
  8
0
 48
50.0
100
AcDbBlockBegin
  2
*D7
 70
     1
 10
0.0
 20
0.0
 30
0.0
  3
*D7
  1

  0
LINE
  5
193A3
330
1894F
100
AcDbEntity
  8
寸法
 62
     0
 48
50.0
370
    -2
100
AcDbLine
 10
12857.70034618778
 20
4773.203248094151
 30
0.0
 11
12857.70034618778
 21
5265.050022061801
 31
0.0
  0
LINE
  5
193A4
330
1894F
100
AcDbEntity
  8
寸法
 62
     0
 48
50.0
370
    -2
100
AcDbLine
 10
12937.70034618778
 20
4771.392568482497
 30
0.0
 11
12937.70034618778
 21
5265.050022061801
 31
0.0
  0
LINE
  5
193A5
330
1894F
100
AcDbEntity
  8
寸法
 62
     0
 48
50.0
370
    -2
100
AcDbLine
 10
12857.70034618778
 20
5205.050022061801
 30
0.0
 11
12937.70034618778
 21
5205.050022061801
 31
0.0
  0
LINE
  5
193A6
330
1894F
100
AcDbEntity
  8
寸法
 62
     0
 48
50.0
370
    -2
100
AcDbLine
 10
12937.70034618778
 20
5205.050022061801
 30
0.0
 11
13249.79483437676
 21
5205.050022061801
 31
0.0
  0
INSERT
  5
193A7
330
1894F
100
AcDbEntity
  8
寸法
 62
     0
 48
50.0
370
    -2
100
AcDbBlockReference
  2
_DOTSMALL
 10
12857.70034618778
 20
5205.050022061801
 30
0.0
 41
100.0
 42
100.0
 43
100.0
 50
180.0
  0
INSERT
  5
193A8
330
1894F
100
AcDbEntity
  8
寸法
 62
     0
 48
50.0
370
    -2
100
AcDbBlockReference
  2
_DOTSMALL
 10
12937.70034618778
 20
5205.050022061801
 30
0.0
 41
100.0
 42
100.0
 43
100.0
  0
MTEXT
  5
193A9
330
1894F
100
AcDbEntity
  8
寸法
 62
     7
 48
50.0
100
AcDbMText
 10
13143.74759028227
 20
5305.050022061801
 30
0.0
 40
120.0
 41
0.0
 71
     5
 72
     1
  1
\A1;80
  7
STYLE1
 73
     1
 44
1.0
1001
ACAD
1000
MTEXTBEGIN
1070
    73
1070
     1
1070
    44
1040
1.0
1070
    74
1070
     0
1000
MTEXTEND
  0
POINT
  5
193AA
330
1894F
100
AcDbEntity
  8
DEFPOINTS
 62
     0
 48
50.0
100
AcDbPoint
 10
12857.70034618778
 20
4753.203248094151
 30
0.0
  0
POINT
  5
193AB
330
1894F
100
AcDbEntity
  8
DEFPOINTS
 62
     0
 48
50.0
100
AcDbPoint
 10
12937.70034618778
 20
4751.392568482497
 30
0.0
  0
POINT
  5
193AC
330
1894F
100
AcDbEntity
  8
DEFPOINTS
 62
     0
 48
50.0
100
AcDbPoint
 10
12937.70034618778
 20
5205.050022061801
 30
0.0
  0
ENDBLK
  5
1895B
330
1894F
100
AcDbEntity
  8
0
 48
50.0
100
AcDbBlockEnd
  0
BLOCK
  5
18966
330
1895C
100
AcDbEntity
  8
0
 48
50.0
100
AcDbBlockBegin
  2
*D8
 70
     1
 10
0.0
 20
0.0
 30
0.0
  3
*D8
  1

  0
LINE
  5
1939A
330
1895C
100
AcDbEntity
  8
寸法
 62
     0
 48
50.0
370
    -2
100
AcDbLine
 10
12937.70034618778
 20
4771.392568482497
 30
0.0
 11
12937.70034618778
 21
5484.251855736093
 31
0.0
  0
LINE
  5
1939B
330
1895C
100
AcDbEntity
  8
寸法
 62
     0
 48
50.0
370
    -2
100
AcDbLine
 10
10587.70034618778
 20
4826.392568482501
 30
0.0
 11
10587.70034618778
 21
5484.251855736093
 31
0.0
  0
LINE
  5
1939C
330
1895C
100
AcDbEntity
  8
寸法
 62
     0
 48
50.0
370
    -2
100
AcDbLine
 10
12937.70034618778
 20
5424.251855736093
 30
0.0
 11
10587.70034618778
 21
5424.251855736093
 31
0.0
  0
INSERT
  5
1939D
330
1895C
100
AcDbEntity
  8
寸法
 62
     0
 48
50.0
370
    -2
100
AcDbBlockReference
  2
_DOTSMALL
 10
12937.70034618778
 20
5424.251855736093
 30
0.0
 41
100.0
 42
100.0
 43
100.0
  0
INSERT
  5
1939E
330
1895C
100
AcDbEntity
  8
寸法
 62
     0
 48
50.0
370
    -2
100
AcDbBlockReference
  2
_DOTSMALL
 10
10587.70034618778
 20
5424.251855736093
 30
0.0
 41
100.0
 42
100.0
 43
100.0
 50
180.0
  0
MTEXT
  5
1939F
330
1895C
100
AcDbEntity
  8
寸法
 62
     7
 48
50.0
100
AcDbMText
 10
11822.04420028025
 20
5524.263666759715
 30
0.0
 40
120.0
 41
0.0
 71
     5
 72
     1
  1
\A1;2350
  7
STYLE1
 73
     1
 44
1.0
1001
ACAD
1000
MTEXTBEGIN
1070
    73
1070
     1
1070
    44
1040
1.0
1070
    74
1070
     0
1000
MTEXTEND
  0
POINT
  5
193A0
330
1895C
100
AcDbEntity
  8
DEFPOINTS
 62
     0
 48
50.0
100
AcDbPoint
 10
12937.70034618778
 20
4751.392568482497
 30
0.0
  0
POINT
  5
193A1
330
1895C
100
AcDbEntity
  8
DEFPOINTS
 62
     0
 48
50.0
100
AcDbPoint
 10
10587.70034618778
 20
4806.3925684825
 30
0.0
  0
POINT
  5
193A2
330
1895C
100
AcDbEntity
  8
DEFPOINTS
 62
     0
 48
50.0
100
AcDbPoint
 10
10587.70034618778
 20
5424.251855736093
 30
0.0
  0
ENDBLK
  5
18967
330
1895C
100
AcDbEntity
  8
0
 48
50.0
100
AcDbBlockEnd
  0
BLOCK
  5
18974
330
18968
100
AcDbEntity
  8
0
 48
50.0
100
AcDbBlockBegin
  2
*D9
 70
     1
 10
0.0
 20
0.0
 30
0.0
  3
*D9
  1

  0
LINE
  5
1938F
330
18968
100
AcDbEntity
  8
寸法
 62
     0
 48
50.0
370
    -2
100
AcDbLine
 10
10647.70034618778
 20
4822.394186605474
 30
0.0
 11
10647.70034618778
 21
5265.050022061801
 31
0.0
  0
LINE
  5
19390
330
18968
100
AcDbEntity
  8
寸法
 62
     0
 48
50.0
370
    -2
100
AcDbLine
 10
10587.70034618778
 20
4826.392568482501
 30
0.0
 11
10587.70034618778
 21
5265.050022061801
 31
0.0
  0
LINE
  5
19391
330
18968
100
AcDbEntity
  8
寸法
 62
     0
 48
50.0
370
    -2
100
AcDbLine
 10
10647.70034618778
 20
5205.050022061801
 30
0.0
 11
10747.70034618778
 21
5205.050022061801
 31
0.0
  0
LINE
  5
19392
330
18968
100
AcDbEntity
  8
寸法
 62
     0
 48
50.0
370
    -2
100
AcDbLine
 10
10587.70034618778
 20
5205.050022061801
 30
0.0
 11
10168.4247556366
 21
5205.050022061801
 31
0.0
  0
LINE
  5
19393
330
18968
100
AcDbEntity
  8
寸法
 62
     0
 48
50.0
370
    -2
100
AcDbLine
 10
10647.70034618778
 20
5205.050022061801
 30
0.0
 11
10587.70034618778
 21
5205.050022061801
 31
0.0
  0
INSERT
  5
19394
330
18968
100
AcDbEntity
  8
寸法
 62
     0
 48
50.0
370
    -2
100
AcDbBlockReference
  2
_DOTSMALL
 10
10647.70034618778
 20
5205.050022061801
 30
0.0
 41
100.0
 42
100.0
 43
100.0
 50
180.0
  0
INSERT
  5
19395
330
18968
100
AcDbEntity
  8
寸法
 62
     0
 48
50.0
370
    -2
100
AcDbBlockReference
  2
_DOTSMALL
 10
10587.70034618778
 20
5205.050022061801
 30
0.0
 41
100.0
 42
100.0
 43
100.0
  0
MTEXT
  5
19396
330
18968
100
AcDbEntity
  8
寸法
 62
     7
 48
50.0
100
AcDbMText
 10
10278.06255091219
 20
5305.050022061801
 30
0.0
 40
120.0
 41
0.0
 71
     5
 72
     1
  1
\A1;60
  7
STYLE1
 73
     1
 44
1.0
1001
ACAD
1000
MTEXTBEGIN
1070
    73
1070
     1
1070
    44
1040
1.0
1070
    74
1070
     0
1000
MTEXTEND
  0
POINT
  5
19397
330
18968
100
AcDbEntity
  8
DEFPOINTS
 62
     0
 48
50.0
100
AcDbPoint
 10
10647.70034618778
 20
4802.394186605474
 30
0.0
  0
POINT
  5
19398
330
18968
100
AcDbEntity
  8
DEFPOINTS
 62
     0
 48
50.0
100
AcDbPoint
 10
10587.70034618778
 20
4806.3925684825
 30
0.0
  0
POINT
  5
19399
330
18968
100
AcDbEntity
  8
DEFPOINTS
 62
     0
 48
50.0
100
AcDbPoint
 10
10587.70034618778
 20
5205.050022061801
 30
0.0
  0
ENDBLK
  5
18975
330
18968
100
AcDbEntity
  8
0
 48
50.0
100
AcDbBlockEnd
  0
BLOCK
  5
18980
330
18976
100
AcDbEntity
  8
0
 48
50.0
100
AcDbBlockBegin
  2
*D10
 70
     1
 10
0.0
 20
0.0
 30
0.0
  3
*D10
  1

  0
LINE
  5
19386
330
18976
100
AcDbEntity
  8
寸法
 62
     0
 48
50.0
370
    -2
100
AcDbLine
 10
12857.70034618778
 20
4773.203248094151
 30
0.0
 11
12857.70034618778
 21
5265.050022061801
 31
0.0
  0
LINE
  5
19387
330
18976
100
AcDbEntity
  8
寸法
 62
     0
 48
50.0
370
    -2
100
AcDbLine
 10
10647.70034618778
 20
4822.394186605474
 30
0.0
 11
10647.70034618778
 21
5265.050022061801
 31
0.0
  0
LINE
  5
19388
330
18976
100
AcDbEntity
  8
寸法
 62
     0
 48
50.0
370
    -2
100
AcDbLine
 10
12857.70034618778
 20
5205.050022061801
 30
0.0
 11
10647.70034618778
 21
5205.050022061801
 31
0.0
  0
INSERT
  5
19389
330
18976
100
AcDbEntity
  8
寸法
 62
     0
 48
50.0
370
    -2
100
AcDbBlockReference
  2
_DOTSMALL
 10
12857.70034618778
 20
5205.050022061801
 30
0.0
 41
100.0
 42
100.0
 43
100.0
  0
INSERT
  5
1938A
330
18976
100
AcDbEntity
  8
寸法
 62
     0
 48
50.0
370
    -2
100
AcDbBlockReference
  2
_DOTSMALL
 10
10647.70034618778
 20
5205.050022061801
 30
0.0
 41
100.0
 42
100.0
 43
100.0
 50
180.0
  0
MTEXT
  5
1938B
330
18976
100
AcDbEntity
  8
寸法
 62
     7
 48
50.0
100
AcDbMText
 10
11742.34508325829
 20
5305.061833085424
 30
0.0
 40
120.0
 41
0.0
 71
     5
 72
     1
  1
\A1;柱外寸法2210
  7
STYLE1
 73
     1
 44
1.0
1001
ACAD
1000
MTEXTBEGIN
1070
    73
1070
     1
1070
    44
1040
1.0
1070
    74
1070
     0
1000
MTEXTEND
  0
POINT
  5
1938C
330
18976
100
AcDbEntity
  8
DEFPOINTS
 62
     0
 48
50.0
100
AcDbPoint
 10
12857.70034618778
 20
4753.203248094151
 30
0.0
  0
POINT
  5
1938D
330
18976
100
AcDbEntity
  8
DEFPOINTS
 62
     0
 48
50.0
100
AcDbPoint
 10
10647.70034618778
 20
4802.394186605474
 30
0.0
  0
POINT
  5
1938E
330
18976
100
AcDbEntity
  8
DEFPOINTS
 62
     0
 48
50.0
100
AcDbPoint
 10
10647.70034618778
 20
5205.050022061801
 30
0.0
  0
ENDBLK
  5
18981
330
18976
100
AcDbEntity
  8
0
 48
50.0
100
AcDbBlockEnd
  0
BLOCK
  5
1898C
330
18982
100
AcDbEntity
  8
0
 48
50.0
100
AcDbBlockBegin
  2
*D11
 70
     1
 10
0.0
 20
0.0
 30
0.0
  3
*D11
  1

  0
LINE
  5
1937D
330
18982
100
AcDbEntity
  8
寸法
 62
     0
 48
50.0
370
    -2
100
AcDbLine
 10
12877.70034618778
 20
2731.392568482497
 30
0.0
 11
13426.45984182534
 21
2731.392568482496
 31
0.0
  0
LINE
  5
1937E
330
18982
100
AcDbEntity
  8
寸法
 62
     0
 48
50.0
370
    -2
100
AcDbLine
 10
12957.70034618778
 20
4751.392568482497
 30
0.0
 11
13426.45984182534
 21
4751.392568482497
 31
0.0
  0
LINE
  5
1937F
330
18982
100
AcDbEntity
  8
寸法
 62
     0
 48
50.0
370
    -2
100
AcDbLine
 10
13366.45984182534
 20
2731.392568482496
 30
0.0
 11
13366.45984182534
 21
4751.392568482497
 31
0.0
  0
INSERT
  5
19380
330
18982
100
AcDbEntity
  8
寸法
 62
     0
 48
50.0
370
    -2
100
AcDbBlockReference
  2
_DOTSMALL
 10
13366.45984182534
 20
2731.392568482496
 30
0.0
 41
100.0
 42
100.0
 43
100.0
 50
270.0
  0
INSERT
  5
19381
330
18982
100
AcDbEntity
  8
寸法
 62
     0
 48
50.0
370
    -2
100
AcDbBlockReference
  2
_DOTSMALL
 10
13366.45984182534
 20
4751.392568482497
 30
0.0
 41
100.0
 42
100.0
 43
100.0
 50
90.0
  0
MTEXT
  5
19382
330
18982
100
AcDbEntity
  8
寸法
 62
     7
 48
50.0
100
AcDbMText
 10
13266.44803080172
 20
3752.799285555989
 30
0.0
 40
120.0
 41
0.0
 71
     5
 72
     1
  1
\A1;2020
  7
STYLE1
 11
0.0000000000000001
 21
1.0
 31
0.0
 73
     1
 44
1.0
1001
ACAD
1000
MTEXTBEGIN
1070
    73
1070
     1
1070
    44
1040
1.0
1070
    74
1070
     0
1000
MTEXTEND
  0
POINT
  5
19383
330
18982
100
AcDbEntity
  8
DEFPOINTS
 62
     0
 48
50.0
100
AcDbPoint
 10
12857.70034618778
 20
2731.392568482497
 30
0.0
  0
POINT
  5
19384
330
18982
100
AcDbEntity
  8
DEFPOINTS
 62
     0
 48
50.0
100
AcDbPoint
 10
12937.70034618778
 20
4751.392568482497
 30
0.0
  0
POINT
  5
19385
330
18982
100
AcDbEntity
  8
DEFPOINTS
 62
     0
 48
50.0
100
AcDbPoint
 10
13366.45984182534
 20
4751.392568482497
 30
0.0
  0
ENDBLK
  5
1898D
330
18982
100
AcDbEntity
  8
0
 48
50.0
100
AcDbBlockEnd
  0
BLOCK
  5
1899A
330
1898E
100
AcDbEntity
  8
0
 48
50.0
100
AcDbBlockBegin
  2
*D12
 70
     1
 10
0.0
 20
0.0
 30
0.0
  3
*D12
  1

  0
LINE
  5
19372
330
1898E
100
AcDbEntity
  8
寸法
 62
     0
 48
50.0
370
    -2
100
AcDbLine
 10
10627.70034618778
 20
2781.392568482497
 30
0.0
 11
9743.95021700452
 21
2781.392568482497
 31
0.0
  0
LINE
  5
19373
330
1898E
100
AcDbEntity
  8
寸法
 62
     0
 48
50.0
370
    -2
100
AcDbLine
 10
10572.70034618778
 20
2731.392568482497
 30
0.0
 11
9743.95021700452
 21
2731.392568482497
 31
0.0
  0
LINE
  5
19374
330
1898E
100
AcDbEntity
  8
寸法
 62
     0
 48
50.0
370
    -2
100
AcDbLine
 10
9803.950217004519
 20
2781.392568482497
 30
0.0
 11
9803.950217004519
 21
2881.392568482496
 31
0.0
  0
LINE
  5
19375
330
1898E
100
AcDbEntity
  8
寸法
 62
     0
 48
50.0
370
    -2
100
AcDbLine
 10
9803.950217004519
 20
2731.392568482497
 30
0.0
 11
9803.950217004519
 21
2319.298080293517
 31
0.0
  0
LINE
  5
19376
330
1898E
100
AcDbEntity
  8
寸法
 62
     0
 48
50.0
370
    -2
100
AcDbLine
 10
9803.950217004519
 20
2781.392568482497
 30
0.0
 11
9803.950217004519
 21
2731.392568482497
 31
0.0
  0
INSERT
  5
19377
330
1898E
100
AcDbEntity
  8
寸法
 62
     0
 48
50.0
370
    -2
100
AcDbBlockReference
  2
_DOTSMALL
 10
9803.950217004519
 20
2781.392568482497
 30
0.0
 41
100.0
 42
100.0
 43
100.0
 50
270.0
  0
INSERT
  5
19378
330
1898E
100
AcDbEntity
  8
寸法
 62
     0
 48
50.0
370
    -2
100
AcDbBlockReference
  2
_DOTSMALL
 10
9803.950217004519
 20
2731.392568482497
 30
0.0
 41
100.0
 42
100.0
 43
100.0
 50
90.0
  0
MTEXT
  5
19379
330
1898E
100
AcDbEntity
  8
寸法
 62
     7
 48
50.0
100
AcDbMText
 10
9703.950217004519
 20
2425.345324388008
 30
0.0
 40
120.0
 41
0.0
 71
     5
 72
     1
  1
\A1;50
  7
STYLE1
 11
0.0000000000000001
 21
1.0
 31
0.0
 73
     1
 44
1.0
1001
ACAD
1000
MTEXTBEGIN
1070
    73
1070
     1
1070
    44
1040
1.0
1070
    74
1070
     0
1000
MTEXTEND
  0
POINT
  5
1937A
330
1898E
100
AcDbEntity
  8
DEFPOINTS
 62
     0
 48
50.0
100
AcDbPoint
 10
10647.70034618778
 20
2781.392568482497
 30
0.0
  0
POINT
  5
1937B
330
1898E
100
AcDbEntity
  8
DEFPOINTS
 62
     0
 48
50.0
100
AcDbPoint
 10
10592.70034618778
 20
2731.392568482497
 30
0.0
  0
POINT
  5
1937C
330
1898E
100
AcDbEntity
  8
DEFPOINTS
 62
     0
 48
50.0
100
AcDbPoint
 10
9803.950217004519
 20
2731.392568482497
 30
0.0
  0
ENDBLK
  5
1899B
330
1898E
100
AcDbEntity
  8
0
 48
50.0
100
AcDbBlockEnd
  0
BLOCK
  5
189B3
330
189A9
100
AcDbEntity
  8
0
 48
50.0
100
AcDbBlockBegin
  2
*D13
 70
     1
 10
0.0
 20
0.0
 30
0.0
  3
*D13
  1

  0
LINE
  5
19369
330
189A9
100
AcDbEntity
  8
寸法
 62
     0
 48
50.0
370
    -2
100
AcDbLine
 10
10627.70034618778
 20
2731.392568482497
 30
0.0
 11
9443.950217004518
 21
2731.392568482497
 31
0.0
  0
LINE
  5
1936A
330
189A9
100
AcDbEntity
  8
寸法
 62
     0
 48
50.0
370
    -2
100
AcDbLine
 10
10567.70034618778
 20
4806.3925684825
 30
0.0
 11
9443.95021700452
 21
4806.392568482501
 31
0.0
  0
LINE
  5
1936B
330
189A9
100
AcDbEntity
  8
寸法
 62
     0
 48
50.0
370
    -2
100
AcDbLine
 10
9503.950217004518
 20
2731.392568482497
 30
0.0
 11
9503.95021700452
 21
4806.392568482501
 31
0.0
  0
INSERT
  5
1936C
330
189A9
100
AcDbEntity
  8
寸法
 62
     0
 48
50.0
370
    -2
100
AcDbBlockReference
  2
_DOTSMALL
 10
9503.950217004518
 20
2731.392568482497
 30
0.0
 41
100.0
 42
100.0
 43
100.0
 50
270.0
  0
INSERT
  5
1936D
330
189A9
100
AcDbEntity
  8
寸法
 62
     0
 48
50.0
370
    -2
100
AcDbBlockReference
  2
_DOTSMALL
 10
9503.95021700452
 20
4806.392568482501
 30
0.0
 41
100.0
 42
100.0
 43
100.0
 50
90.0
  0
MTEXT
  5
1936E
330
189A9
100
AcDbEntity
  8
寸法
 62
     7
 48
50.0
100
AcDbMText
 10
9403.938405980897
 20
3768.892568482501
 30
0.0
 40
120.0
 41
0.0
 71
     5
 72
     1
  1
\A1;2075
  7
STYLE1
 11
0.0000000000000001
 21
1.0
 31
0.0
 73
     1
 44
1.0
1001
ACAD
1000
MTEXTBEGIN
1070
    73
1070
     1
1070
    44
1040
1.0
1070
    74
1070
     0
1000
MTEXTEND
  0
POINT
  5
1936F
330
189A9
100
AcDbEntity
  8
DEFPOINTS
 62
     0
 48
50.0
100
AcDbPoint
 10
10647.70034618778
 20
2731.392568482497
 30
0.0
  0
POINT
  5
19370
330
189A9
100
AcDbEntity
  8
DEFPOINTS
 62
     0
 48
50.0
100
AcDbPoint
 10
10587.70034618778
 20
4806.3925684825
 30
0.0
  0
POINT
  5
19371
330
189A9
100
AcDbEntity
  8
DEFPOINTS
 62
     0
 48
50.0
100
AcDbPoint
 10
9503.95021700452
 20
4806.392568482501
 30
0.0
  0
ENDBLK
  5
189B4
330
189A9
100
AcDbEntity
  8
0
 48
50.0
100
AcDbBlockEnd
  0
BLOCK
  5
189BF
330
189B5
100
AcDbEntity
  8
0
 48
50.0
100
AcDbBlockBegin
  2
*D14
 70
     1
 10
0.0
 20
0.0
 30
0.0
  3
*D14
  1

  0
LINE
  5
19360
330
189B5
100
AcDbEntity
  8
寸法
 62
     0
 48
50.0
370
    -2
100
AcDbLine
 10
10627.70034618778
 20
4571.392568482496
 30
0.0
 11
9743.950217004522
 21
4571.392568482497
 31
0.0
  0
LINE
  5
19361
330
189B5
100
AcDbEntity
  8
寸法
 62
     0
 48
50.0
370
    -2
100
AcDbLine
 10
10627.70034618778
 20
2781.392568482497
 30
0.0
 11
9743.95021700452
 21
2781.392568482497
 31
0.0
  0
LINE
  5
19362
330
189B5
100
AcDbEntity
  8
寸法
 62
     0
 48
50.0
370
    -2
100
AcDbLine
 10
9803.950217004523
 20
4571.392568482497
 30
0.0
 11
9803.950217004519
 21
2781.392568482497
 31
0.0
  0
INSERT
  5
19363
330
189B5
100
AcDbEntity
  8
寸法
 62
     0
 48
50.0
370
    -2
100
AcDbBlockReference
  2
_DOTSMALL
 10
9803.950217004523
 20
4571.392568482497
 30
0.0
 41
100.0
 42
100.0
 43
100.0
 50
90.0
  0
INSERT
  5
19364
330
189B5
100
AcDbEntity
  8
寸法
 62
     0
 48
50.0
370
    -2
100
AcDbBlockReference
  2
_DOTSMALL
 10
9803.950217004519
 20
2781.392568482497
 30
0.0
 41
100.0
 42
100.0
 43
100.0
 50
270.0
  0
MTEXT
  5
19365
330
189B5
100
AcDbEntity
  8
寸法
 62
     7
 48
50.0
100
AcDbMText
 10
9703.950217004519
 20
3676.392568482499
 30
0.0
 40
120.0
 41
0.0
 71
     5
 72
     1
  1
\A1;1790
  7
STYLE1
 11
0.0000000000000001
 21
1.0
 31
0.0
 73
     1
 44
1.0
1001
ACAD
1000
MTEXTBEGIN
1070
    73
1070
     1
1070
    44
1040
1.0
1070
    74
1070
     0
1000
MTEXTEND
  0
POINT
  5
19366
330
189B5
100
AcDbEntity
  8
DEFPOINTS
 62
     0
 48
50.0
100
AcDbPoint
 10
10647.70034618778
 20
4571.392568482496
 30
0.0
  0
POINT
  5
19367
330
189B5
100
AcDbEntity
  8
DEFPOINTS
 62
     0
 48
50.0
100
AcDbPoint
 10
10647.70034618778
 20
2781.392568482497
 30
0.0
  0
POINT
  5
19368
330
189B5
100
AcDbEntity
  8
DEFPOINTS
 62
     0
 48
50.0
100
AcDbPoint
 10
9803.950217004519
 20
2781.392568482497
 30
0.0
  0
ENDBLK
  5
189C0
330
189B5
100
AcDbEntity
  8
0
 48
50.0
100
AcDbBlockEnd
  0
BLOCK
  5
189CB
330
189C1
100
AcDbEntity
  8
0
 48
50.0
100
AcDbBlockBegin
  2
*D15
 70
     1
 10
0.0
 20
0.0
 30
0.0
  3
*D15
  1

  0
LINE
  5
19357
330
189C1
100
AcDbEntity
  8
寸法
 62
     0
 48
50.0
370
    -2
100
AcDbLine
 10
10627.70034618778
 20
4563.392568482497
 30
0.0
 11
10042.79170479053
 21
4563.392568482497
 31
0.0
  0
LINE
  5
19358
330
189C1
100
AcDbEntity
  8
寸法
 62
     0
 48
50.0
370
    -2
100
AcDbLine
 10
10627.70034618778
 20
2793.392568482497
 30
0.0
 11
10042.79170479052
 21
2793.392568482497
 31
0.0
  0
LINE
  5
19359
330
189C1
100
AcDbEntity
  8
寸法
 62
     0
 48
50.0
370
    -2
100
AcDbLine
 10
10102.79170479053
 20
4563.392568482497
 30
0.0
 11
10102.79170479052
 21
2793.392568482497
 31
0.0
  0
INSERT
  5
1935A
330
189C1
100
AcDbEntity
  8
寸法
 62
     0
 48
50.0
370
    -2
100
AcDbBlockReference
  2
_DOTSMALL
 10
10102.79170479053
 20
4563.392568482497
 30
0.0
 41
100.0
 42
100.0
 43
100.0
 50
90.0
  0
INSERT
  5
1935B
330
189C1
100
AcDbEntity
  8
寸法
 62
     0
 48
50.0
370
    -2
100
AcDbBlockReference
  2
_DOTSMALL
 10
10102.79170479052
 20
2793.392568482497
 30
0.0
 41
100.0
 42
100.0
 43
100.0
 50
270.0
  0
MTEXT
  5
1935C
330
189C1
100
AcDbEntity
  8
寸法
 62
     7
 48
50.0
100
AcDbMText
 10
10002.79170479052
 20
3678.392568482499
 30
0.0
 40
120.0
 41
0.0
 71
     5
 72
     1
  1
\A1;有効開口部高サ1770
  7
STYLE1
 11
0.0000000000000001
 21
1.0
 31
0.0
 73
     1
 44
1.0
1001
ACAD
1000
MTEXTBEGIN
1070
    73
1070
     1
1070
    44
1040
1.0
1070
    74
1070
     0
1000
MTEXTEND
  0
POINT
  5
1935D
330
189C1
100
AcDbEntity
  8
DEFPOINTS
 62
     0
 48
50.0
100
AcDbPoint
 10
10647.70034618778
 20
4563.392568482497
 30
0.0
  0
POINT
  5
1935E
330
189C1
100
AcDbEntity
  8
DEFPOINTS
 62
     0
 48
50.0
100
AcDbPoint
 10
10647.70034618778
 20
2793.392568482497
 30
0.0
  0
POINT
  5
1935F
330
189C1
100
AcDbEntity
  8
DEFPOINTS
 62
     0
 48
50.0
100
AcDbPoint
 10
10102.79170479052
 20
2793.392568482497
 30
0.0
  0
ENDBLK
  5
189CC
330
189C1
100
AcDbEntity
  8
0
 48
50.0
100
AcDbBlockEnd
  0
BLOCK
  5
1AAFF
330
1AAF5
100
AcDbEntity
  8
0
 48
50.0
100
AcDbBlockBegin
  2
*D16
 70
     1
 10
0.0
 20
0.0
 30
0.0
  3
*D16
  1

  0
LINE
  5
1AD8D
330
1AAF5
100
AcDbEntity
  8
寸法
 62
     0
 48
50.0
370
    -2
100
AcDbLine
 10
4746.502964380288
 20
7299.158244062844
 30
0.0
 11
4746.502964380288
 21
6721.160899910637
 31
0.0
  0
LINE
  5
1AD8E
330
1AAF5
100
AcDbEntity
  8
寸法
 62
     0
 48
50.0
370
    -2
100
AcDbLine
 10
3921.90296438029
 20
7299.158244062737
 30
0.0
 11
3921.90296438029
 21
6721.160899910637
 31
0.0
  0
LINE
  5
1AD8F
330
1AAF5
100
AcDbEntity
  8
寸法
 62
     0
 48
50.0
370
    -2
100
AcDbLine
 10
4746.502964380288
 20
6781.160899910637
 30
0.0
 11
3921.90296438029
 21
6781.160899910637
 31
0.0
  0
INSERT
  5
1AD90
330
1AAF5
100
AcDbEntity
  8
寸法
 62
     0
 48
50.0
370
    -2
100
AcDbBlockReference
  2
_DOTSMALL
 10
4746.502964380288
 20
6781.160899910637
 30
0.0
 41
100.0
 42
100.0
 43
100.0
  0
INSERT
  5
1AD91
330
1AAF5
100
AcDbEntity
  8
寸法
 62
     0
 48
50.0
370
    -2
100
AcDbBlockReference
  2
_DOTSMALL
 10
3921.90296438029
 20
6781.160899910637
 30
0.0
 41
100.0
 42
100.0
 43
100.0
 50
180.0
  0
MTEXT
  5
1AD92
330
1AAF5
100
AcDbEntity
  8
寸法
 62
     7
 48
50.0
100
AcDbMText
 10
4334.202964380288
 20
6981.172710934259
 30
0.0
 40
120.0
 41
0.0
 71
     5
 72
     1
  1
\A1;有効開口部間口\P824
  7
STYLE1
 73
     1
 44
1.0
1001
ACAD
1000
MTEXTBEGIN
1070
    73
1070
     1
1070
    44
1040
1.0
1070
    74
1070
     0
1000
MTEXTEND
  0
POINT
  5
1AD93
330
1AAF5
100
AcDbEntity
  8
DEFPOINTS
 62
     0
 48
50.0
100
AcDbPoint
 10
4746.502964380288
 20
7319.158244062845
 30
0.0
  0
POINT
  5
1AD94
330
1AAF5
100
AcDbEntity
  8
DEFPOINTS
 62
     0
 48
50.0
100
AcDbPoint
 10
3921.90296438029
 20
7319.158244062737
 30
0.0
  0
POINT
  5
1AD95
330
1AAF5
100
AcDbEntity
  8
DEFPOINTS
 62
     0
 48
50.0
100
AcDbPoint
 10
3921.90296438029
 20
6781.160899910637
 30
0.0
  0
ENDBLK
  5
1AB00
330
1AAF5
100
AcDbEntity
  8
0
 48
50.0
100
AcDbBlockEnd
  0
BLOCK
  5
1AB0B
330
1AB01
100
AcDbEntity
  8
0
 48
50.0
100
AcDbBlockBegin
  2
*D17
 70
     1
 10
0.0
 20
0.0
 30
0.0
  3
*D17
  1

  0
LINE
  5
1AD84
330
1AB01
100
AcDbEntity
  8
寸法
 62
     0
 48
50.0
370
    -2
100
AcDbLine
 10
6276.502964380288
 20
7299.158244062848
 30
0.0
 11
6276.502964380288
 21
6721.16089991064
 31
0.0
  0
LINE
  5
1AD85
330
1AB01
100
AcDbEntity
  8
寸法
 62
     0
 48
50.0
370
    -2
100
AcDbLine
 10
5451.902964380288
 20
7299.158244062742
 30
0.0
 11
5451.902964380288
 21
6721.16089991064
 31
0.0
  0
LINE
  5
1AD86
330
1AB01
100
AcDbEntity
  8
寸法
 62
     0
 48
50.0
370
    -2
100
AcDbLine
 10
6276.502964380288
 20
6781.16089991064
 30
0.0
 11
5451.902964380288
 21
6781.16089991064
 31
0.0
  0
INSERT
  5
1AD87
330
1AB01
100
AcDbEntity
  8
寸法
 62
     0
 48
50.0
370
    -2
100
AcDbBlockReference
  2
_DOTSMALL
 10
6276.502964380288
 20
6781.16089991064
 30
0.0
 41
100.0
 42
100.0
 43
100.0
  0
INSERT
  5
1AD88
330
1AB01
100
AcDbEntity
  8
寸法
 62
     0
 48
50.0
370
    -2
100
AcDbBlockReference
  2
_DOTSMALL
 10
5451.902964380288
 20
6781.16089991064
 30
0.0
 41
100.0
 42
100.0
 43
100.0
 50
180.0
  0
MTEXT
  5
1AD89
330
1AB01
100
AcDbEntity
  8
寸法
 62
     7
 48
50.0
100
AcDbMText
 10
5864.202964380288
 20
6981.172710934263
 30
0.0
 40
120.0
 41
0.0
 71
     5
 72
     1
  1
\A1;有効開口部間口\P824
  7
STYLE1
 73
     1
 44
1.0
1001
ACAD
1000
MTEXTBEGIN
1070
    73
1070
     1
1070
    44
1040
1.0
1070
    74
1070
     0
1000
MTEXTEND
  0
POINT
  5
1AD8A
330
1AB01
100
AcDbEntity
  8
DEFPOINTS
 62
     0
 48
50.0
100
AcDbPoint
 10
6276.502964380288
 20
7319.158244062847
 30
0.0
  0
POINT
  5
1AD8B
330
1AB01
100
AcDbEntity
  8
DEFPOINTS
 62
     0
 48
50.0
100
AcDbPoint
 10
5451.902964380288
 20
7319.158244062741
 30
0.0
  0
POINT
  5
1AD8C
330
1AB01
100
AcDbEntity
  8
DEFPOINTS
 62
     0
 48
50.0
100
AcDbPoint
 10
5451.902964380288
 20
6781.16089991064
 30
0.0
  0
ENDBLK
  5
1AB0C
330
1AB01
100
AcDbEntity
  8
0
 48
50.0
100
AcDbBlockEnd
  0
BLOCK
  5
1AB17
330
1AB0D
100
AcDbEntity
  8
0
 48
50.0
100
AcDbBlockBegin
  2
*D18
 70
     1
 10
0.0
 20
0.0
 30
0.0
  3
*D18
  1

  0
LINE
  5
1AD7B
330
1AB0D
100
AcDbEntity
  8
寸法
 62
     0
 48
50.0
370
    -2
100
AcDbLine
 10
7806.502964380289
 20
7299.158244062848
 30
0.0
 11
7806.502964380289
 21
6721.16089991064
 31
0.0
  0
LINE
  5
1AD7C
330
1AB0D
100
AcDbEntity
  8
寸法
 62
     0
 48
50.0
370
    -2
100
AcDbLine
 10
6981.902964380289
 20
7299.158244062742
 30
0.0
 11
6981.902964380289
 21
6721.16089991064
 31
0.0
  0
LINE
  5
1AD7D
330
1AB0D
100
AcDbEntity
  8
寸法
 62
     0
 48
50.0
370
    -2
100
AcDbLine
 10
7806.502964380289
 20
6781.16089991064
 30
0.0
 11
6981.902964380289
 21
6781.16089991064
 31
0.0
  0
INSERT
  5
1AD7E
330
1AB0D
100
AcDbEntity
  8
寸法
 62
     0
 48
50.0
370
    -2
100
AcDbBlockReference
  2
_DOTSMALL
 10
7806.502964380289
 20
6781.16089991064
 30
0.0
 41
100.0
 42
100.0
 43
100.0
  0
INSERT
  5
1AD7F
330
1AB0D
100
AcDbEntity
  8
寸法
 62
     0
 48
50.0
370
    -2
100
AcDbBlockReference
  2
_DOTSMALL
 10
6981.902964380289
 20
6781.16089991064
 30
0.0
 41
100.0
 42
100.0
 43
100.0
 50
180.0
  0
MTEXT
  5
1AD80
330
1AB0D
100
AcDbEntity
  8
寸法
 62
     7
 48
50.0
100
AcDbMText
 10
7394.20296438029
 20
6981.172710934263
 30
0.0
 40
120.0
 41
0.0
 71
     5
 72
     1
  1
\A1;有効開口部間口\P824
  7
STYLE1
 73
     1
 44
1.0
1001
ACAD
1000
MTEXTBEGIN
1070
    73
1070
     1
1070
    44
1040
1.0
1070
    74
1070
     0
1000
MTEXTEND
  0
POINT
  5
1AD81
330
1AB0D
100
AcDbEntity
  8
DEFPOINTS
 62
     0
 48
50.0
100
AcDbPoint
 10
7806.502964380289
 20
7319.158244062847
 30
0.0
  0
POINT
  5
1AD82
330
1AB0D
100
AcDbEntity
  8
DEFPOINTS
 62
     0
 48
50.0
100
AcDbPoint
 10
6981.902964380289
 20
7319.158244062741
 30
0.0
  0
POINT
  5
1AD83
330
1AB0D
100
AcDbEntity
  8
DEFPOINTS
 62
     0
 48
50.0
100
AcDbPoint
 10
6981.902964380289
 20
6781.16089991064
 30
0.0
  0
ENDBLK
  5
1AB18
330
1AB0D
100
AcDbEntity
  8
0
 48
50.0
100
AcDbBlockEnd
  0
BLOCK
  5
1AB23
330
1AB19
100
AcDbEntity
  8
0
 48
50.0
100
AcDbBlockBegin
  2
*D19
 70
     1
 10
0.0
 20
0.0
 30
0.0
  3
*D19
  1

  0
LINE
  5
1AD72
330
1AB19
100
AcDbEntity
  8
寸法
 62
     0
 48
50.0
370
    -2
100
AcDbLine
 10
8396.902964380295
 20
9549.158244062754
 30
0.0
 11
8396.902964380295
 21
10024.63659400927
 31
0.0
  0
LINE
  5
1AD73
330
1AB19
100
AcDbEntity
  8
寸法
 62
     0
 48
50.0
370
    -2
100
AcDbLine
 10
7976.902964380297
 20
9549.15824406283
 30
0.0
 11
7976.902964380297
 21
10024.63659400927
 31
0.0
  0
LINE
  5
1AD74
330
1AB19
100
AcDbEntity
  8
寸法
 62
     0
 48
50.0
370
    -2
100
AcDbLine
 10
8396.902964380295
 20
9964.636594009277
 30
0.0
 11
7976.902964380297
 21
9964.636594009277
 31
0.0
  0
INSERT
  5
1AD75
330
1AB19
100
AcDbEntity
  8
寸法
 62
     0
 48
50.0
370
    -2
100
AcDbBlockReference
  2
_DOTSMALL
 10
8396.902964380295
 20
9964.636594009277
 30
0.0
 41
100.0
 42
100.0
 43
100.0
  0
INSERT
  5
1AD76
330
1AB19
100
AcDbEntity
  8
寸法
 62
     0
 48
50.0
370
    -2
100
AcDbBlockReference
  2
_DOTSMALL
 10
7976.902964380297
 20
9964.636594009277
 30
0.0
 41
100.0
 42
100.0
 43
100.0
 50
180.0
  0
MTEXT
  5
1AD77
330
1AB19
100
AcDbEntity
  8
寸法
 62
     7
 48
50.0
100
AcDbMText
 10
8148.588445126085
 20
10064.6484050329
 30
0.0
 40
120.0
 41
0.0
 71
     5
 72
     1
  1
\A1;420
  7
STYLE1
 73
     1
 44
1.0
1001
ACAD
1000
MTEXTBEGIN
1070
    73
1070
     1
1070
    44
1040
1.0
1070
    74
1070
     0
1000
MTEXTEND
  0
POINT
  5
1AD78
330
1AB19
100
AcDbEntity
  8
DEFPOINTS
 62
     0
 48
50.0
100
AcDbPoint
 10
8396.902964380295
 20
9529.158244062754
 30
0.0
  0
POINT
  5
1AD79
330
1AB19
100
AcDbEntity
  8
DEFPOINTS
 62
     0
 48
50.0
100
AcDbPoint
 10
7976.902964380297
 20
9529.158244062831
 30
0.0
  0
POINT
  5
1AD7A
330
1AB19
100
AcDbEntity
  8
DEFPOINTS
 62
     0
 48
50.0
100
AcDbPoint
 10
7976.902964380297
 20
9964.636594009277
 30
0.0
  0
ENDBLK
  5
1AB24
330
1AB19
100
AcDbEntity
  8
0
 48
50.0
100
AcDbBlockEnd
  0
BLOCK
  5
1AB2E
330
1AB25
100
AcDbEntity
  8
0
 48
50.0
100
AcDbBlockBegin
  2
*D20
 70
     1
 10
0.0
 20
0.0
 30
0.0
  3
*D20
  1

  0
LINE
  5
1AD6A
330
1AB25
100
AcDbEntity
  8
寸法
 62
     0
 48
50.0
370
    -2
100
AcDbLine
 10
7396.902964380295
 20
9549.158244062814
 30
0.0
 11
7396.902964380295
 21
10024.63659400927
 31
0.0
  0
LINE
  5
1AD6B
330
1AB25
100
AcDbEntity
  8
寸法
 62
     0
 48
50.0
370
    -2
100
AcDbLine
 10
7976.902964380297
 20
9964.636594009277
 30
0.0
 11
7396.902964380295
 21
9964.636594009277
 31
0.0
  0
INSERT
  5
1AD6C
330
1AB25
100
AcDbEntity
  8
寸法
 62
     0
 48
50.0
370
    -2
100
AcDbBlockReference
  2
_DOTSMALL
 10
7976.902964380297
 20
9964.636594009277
 30
0.0
 41
100.0
 42
100.0
 43
100.0
  0
INSERT
  5
1AD6D
330
1AB25
100
AcDbEntity
  8
寸法
 62
     0
 48
50.0
370
    -2
100
AcDbBlockReference
  2
_DOTSMALL
 10
7396.902964380295
 20
9964.636594009277
 30
0.0
 41
100.0
 42
100.0
 43
100.0
 50
180.0
  0
MTEXT
  5
1AD6E
330
1AB25
100
AcDbEntity
  8
寸法
 62
     7
 48
50.0
100
AcDbMText
 10
7686.902964380296
 20
10064.63659400927
 30
0.0
 40
120.0
 41
0.0
 71
     5
 72
     1
  1
\A1;580
  7
STYLE1
 73
     1
 44
1.0
1001
ACAD
1000
MTEXTBEGIN
1070
    73
1070
     1
1070
    44
1040
1.0
1070
    74
1070
     0
1000
MTEXTEND
  0
POINT
  5
1AD6F
330
1AB25
100
AcDbEntity
  8
DEFPOINTS
 62
     0
 48
50.0
100
AcDbPoint
 10
7976.902964380297
 20
9529.158244062831
 30
0.0
  0
POINT
  5
1AD70
330
1AB25
100
AcDbEntity
  8
DEFPOINTS
 62
     0
 48
50.0
100
AcDbPoint
 10
7396.902964380295
 20
9529.158244062816
 30
0.0
  0
POINT
  5
1AD71
330
1AB25
100
AcDbEntity
  8
DEFPOINTS
 62
     0
 48
50.0
100
AcDbPoint
 10
7396.902964380295
 20
9964.636594009277
 30
0.0
  0
ENDBLK
  5
1AB2F
330
1AB25
100
AcDbEntity
  8
0
 48
50.0
100
AcDbBlockEnd
  0
BLOCK
  5
1AB39
330
1AB30
100
AcDbEntity
  8
0
 48
50.0
100
AcDbBlockBegin
  2
*D21
 70
     1
 10
0.0
 20
0.0
 30
0.0
  3
*D21
  1

  0
LINE
  5
1AD62
330
1AB30
100
AcDbEntity
  8
寸法
 62
     0
 48
50.0
370
    -2
100
AcDbLine
 10
6976.902964380295
 20
9549.158244062786
 30
0.0
 11
6976.902964380295
 21
10024.63659400927
 31
0.0
  0
LINE
  5
1AD63
330
1AB30
100
AcDbEntity
  8
寸法
 62
     0
 48
50.0
370
    -2
100
AcDbLine
 10
7396.902964380295
 20
9964.636594009277
 30
0.0
 11
6976.902964380295
 21
9964.636594009277
 31
0.0
  0
INSERT
  5
1AD64
330
1AB30
100
AcDbEntity
  8
寸法
 62
     0
 48
50.0
370
    -2
100
AcDbBlockReference
  2
_DOTSMALL
 10
7396.902964380295
 20
9964.636594009277
 30
0.0
 41
100.0
 42
100.0
 43
100.0
  0
INSERT
  5
1AD65
330
1AB30
100
AcDbEntity
  8
寸法
 62
     0
 48
50.0
370
    -2
100
AcDbBlockReference
  2
_DOTSMALL
 10
6976.902964380295
 20
9964.636594009277
 30
0.0
 41
100.0
 42
100.0
 43
100.0
 50
180.0
  0
MTEXT
  5
1AD66
330
1AB30
100
AcDbEntity
  8
寸法
 62
     7
 48
50.0
100
AcDbMText
 10
7186.902964380294
 20
10064.6484050329
 30
0.0
 40
120.0
 41
0.0
 71
     5
 72
     1
  1
\A1;420
  7
STYLE1
 73
     1
 44
1.0
1001
ACAD
1000
MTEXTBEGIN
1070
    73
1070
     1
1070
    44
1040
1.0
1070
    74
1070
     0
1000
MTEXTEND
  0
POINT
  5
1AD67
330
1AB30
100
AcDbEntity
  8
DEFPOINTS
 62
     0
 48
50.0
100
AcDbPoint
 10
7396.902964380295
 20
9529.158244062816
 30
0.0
  0
POINT
  5
1AD68
330
1AB30
100
AcDbEntity
  8
DEFPOINTS
 62
     0
 48
50.0
100
AcDbPoint
 10
6976.902964380295
 20
9529.158244062786
 30
0.0
  0
POINT
  5
1AD69
330
1AB30
100
AcDbEntity
  8
DEFPOINTS
 62
     0
 48
50.0
100
AcDbPoint
 10
6976.902964380295
 20
9964.636594009277
 30
0.0
  0
ENDBLK
  5
1AB3A
330
1AB30
100
AcDbEntity
  8
0
 48
50.0
100
AcDbBlockEnd
  0
BLOCK
  5
1AB44
330
1AB3B
100
AcDbEntity
  8
0
 48
50.0
100
AcDbBlockBegin
  2
*D22
 70
     1
 10
0.0
 20
0.0
 30
0.0
  3
*D22
  1

  0
LINE
  5
1AD5A
330
1AB3B
100
AcDbEntity
  8
寸法
 62
     0
 48
50.0
370
    -2
100
AcDbLine
 10
5446.902964380296
 20
9549.158244062786
 30
0.0
 11
5446.902964380296
 21
10024.63659400927
 31
0.0
  0
LINE
  5
1AD5B
330
1AB3B
100
AcDbEntity
  8
寸法
 62
     0
 48
50.0
370
    -2
100
AcDbLine
 10
5866.902964380295
 20
9964.636594009277
 30
0.0
 11
5446.902964380296
 21
9964.636594009277
 31
0.0
  0
INSERT
  5
1AD5C
330
1AB3B
100
AcDbEntity
  8
寸法
 62
     0
 48
50.0
370
    -2
100
AcDbBlockReference
  2
_DOTSMALL
 10
5866.902964380295
 20
9964.636594009277
 30
0.0
 41
100.0
 42
100.0
 43
100.0
  0
INSERT
  5
1AD5D
330
1AB3B
100
AcDbEntity
  8
寸法
 62
     0
 48
50.0
370
    -2
100
AcDbBlockReference
  2
_DOTSMALL
 10
5446.902964380296
 20
9964.636594009277
 30
0.0
 41
100.0
 42
100.0
 43
100.0
 50
180.0
  0
MTEXT
  5
1AD5E
330
1AB3B
100
AcDbEntity
  8
寸法
 62
     7
 48
50.0
100
AcDbMText
 10
5656.902964380295
 20
10064.6484050329
 30
0.0
 40
120.0
 41
0.0
 71
     5
 72
     1
  1
\A1;420
  7
STYLE1
 73
     1
 44
1.0
1001
ACAD
1000
MTEXTBEGIN
1070
    73
1070
     1
1070
    44
1040
1.0
1070
    74
1070
     0
1000
MTEXTEND
  0
POINT
  5
1AD5F
330
1AB3B
100
AcDbEntity
  8
DEFPOINTS
 62
     0
 48
50.0
100
AcDbPoint
 10
5866.902964380295
 20
9529.158244062816
 30
0.0
  0
POINT
  5
1AD60
330
1AB3B
100
AcDbEntity
  8
DEFPOINTS
 62
     0
 48
50.0
100
AcDbPoint
 10
5446.902964380296
 20
9529.158244062786
 30
0.0
  0
POINT
  5
1AD61
330
1AB3B
100
AcDbEntity
  8
DEFPOINTS
 62
     0
 48
50.0
100
AcDbPoint
 10
5446.902964380296
 20
9964.636594009277
 30
0.0
  0
ENDBLK
  5
1AB45
330
1AB3B
100
AcDbEntity
  8
0
 48
50.0
100
AcDbBlockEnd
  0
BLOCK
  5
1AB4F
330
1AB46
100
AcDbEntity
  8
0
 48
50.0
100
AcDbBlockBegin
  2
*D23
 70
     1
 10
0.0
 20
0.0
 30
0.0
  3
*D23
  1

  0
LINE
  5
1AD52
330
1AB46
100
AcDbEntity
  8
寸法
 62
     0
 48
50.0
370
    -2
100
AcDbLine
 10
5866.902964380295
 20
9549.158244062814
 30
0.0
 11
5866.902964380295
 21
10024.63659400927
 31
0.0
  0
LINE
  5
1AD53
330
1AB46
100
AcDbEntity
  8
寸法
 62
     0
 48
50.0
370
    -2
100
AcDbLine
 10
6446.902964380296
 20
9964.636594009277
 30
0.0
 11
5866.902964380295
 21
9964.636594009277
 31
0.0
  0
INSERT
  5
1AD54
330
1AB46
100
AcDbEntity
  8
寸法
 62
     0
 48
50.0
370
    -2
100
AcDbBlockReference
  2
_DOTSMALL
 10
6446.902964380296
 20
9964.636594009277
 30
0.0
 41
100.0
 42
100.0
 43
100.0
  0
INSERT
  5
1AD55
330
1AB46
100
AcDbEntity
  8
寸法
 62
     0
 48
50.0
370
    -2
100
AcDbBlockReference
  2
_DOTSMALL
 10
5866.902964380295
 20
9964.636594009277
 30
0.0
 41
100.0
 42
100.0
 43
100.0
 50
180.0
  0
MTEXT
  5
1AD56
330
1AB46
100
AcDbEntity
  8
寸法
 62
     7
 48
50.0
100
AcDbMText
 10
6156.902964380295
 20
10064.63659400927
 30
0.0
 40
120.0
 41
0.0
 71
     5
 72
     1
  1
\A1;580
  7
STYLE1
 73
     1
 44
1.0
1001
ACAD
1000
MTEXTBEGIN
1070
    73
1070
     1
1070
    44
1040
1.0
1070
    74
1070
     0
1000
MTEXTEND
  0
POINT
  5
1AD57
330
1AB46
100
AcDbEntity
  8
DEFPOINTS
 62
     0
 48
50.0
100
AcDbPoint
 10
6446.902964380296
 20
9529.158244062831
 30
0.0
  0
POINT
  5
1AD58
330
1AB46
100
AcDbEntity
  8
DEFPOINTS
 62
     0
 48
50.0
100
AcDbPoint
 10
5866.902964380295
 20
9529.158244062816
 30
0.0
  0
POINT
  5
1AD59
330
1AB46
100
AcDbEntity
  8
DEFPOINTS
 62
     0
 48
50.0
100
AcDbPoint
 10
5866.902964380295
 20
9964.636594009277
 30
0.0
  0
ENDBLK
  5
1AB50
330
1AB46
100
AcDbEntity
  8
0
 48
50.0
100
AcDbBlockEnd
  0
BLOCK
  5
1AB5B
330
1AB51
100
AcDbEntity
  8
0
 48
50.0
100
AcDbBlockBegin
  2
*D24
 70
     1
 10
0.0
 20
0.0
 30
0.0
  3
*D24
  1

  0
LINE
  5
1AD49
330
1AB51
100
AcDbEntity
  8
寸法
 62
     0
 48
50.0
370
    -2
100
AcDbLine
 10
6866.902964380296
 20
9549.158244062754
 30
0.0
 11
6866.902964380296
 21
10024.63659400927
 31
0.0
  0
LINE
  5
1AD4A
330
1AB51
100
AcDbEntity
  8
寸法
 62
     0
 48
50.0
370
    -2
100
AcDbLine
 10
6446.902964380296
 20
9549.15824406283
 30
0.0
 11
6446.902964380296
 21
10024.63659400927
 31
0.0
  0
LINE
  5
1AD4B
330
1AB51
100
AcDbEntity
  8
寸法
 62
     0
 48
50.0
370
    -2
100
AcDbLine
 10
6866.902964380296
 20
9964.636594009277
 30
0.0
 11
6446.902964380296
 21
9964.636594009277
 31
0.0
  0
INSERT
  5
1AD4C
330
1AB51
100
AcDbEntity
  8
寸法
 62
     0
 48
50.0
370
    -2
100
AcDbBlockReference
  2
_DOTSMALL
 10
6866.902964380296
 20
9964.636594009277
 30
0.0
 41
100.0
 42
100.0
 43
100.0
  0
INSERT
  5
1AD4D
330
1AB51
100
AcDbEntity
  8
寸法
 62
     0
 48
50.0
370
    -2
100
AcDbBlockReference
  2
_DOTSMALL
 10
6446.902964380296
 20
9964.636594009277
 30
0.0
 41
100.0
 42
100.0
 43
100.0
 50
180.0
  0
MTEXT
  5
1AD4E
330
1AB51
100
AcDbEntity
  8
寸法
 62
     7
 48
50.0
100
AcDbMText
 10
6618.588445126086
 20
10064.6484050329
 30
0.0
 40
120.0
 41
0.0
 71
     5
 72
     1
  1
\A1;420
  7
STYLE1
 73
     1
 44
1.0
1001
ACAD
1000
MTEXTBEGIN
1070
    73
1070
     1
1070
    44
1040
1.0
1070
    74
1070
     0
1000
MTEXTEND
  0
POINT
  5
1AD4F
330
1AB51
100
AcDbEntity
  8
DEFPOINTS
 62
     0
 48
50.0
100
AcDbPoint
 10
6866.902964380296
 20
9529.158244062754
 30
0.0
  0
POINT
  5
1AD50
330
1AB51
100
AcDbEntity
  8
DEFPOINTS
 62
     0
 48
50.0
100
AcDbPoint
 10
6446.902964380296
 20
9529.158244062831
 30
0.0
  0
POINT
  5
1AD51
330
1AB51
100
AcDbEntity
  8
DEFPOINTS
 62
     0
 48
50.0
100
AcDbPoint
 10
6446.902964380296
 20
9964.636594009277
 30
0.0
  0
ENDBLK
  5
1AB5C
330
1AB51
100
AcDbEntity
  8
0
 48
50.0
100
AcDbBlockEnd
  0
BLOCK
  5
1AB67
330
1AB5D
100
AcDbEntity
  8
0
 48
50.0
100
AcDbBlockBegin
  2
*D25
 70
     1
 10
0.0
 20
0.0
 30
0.0
  3
*D25
  1

  0
LINE
  5
1B54A
330
1AB5D
100
AcDbEntity
  8
寸法
 62
     0
 48
50.0
370
    -2
100
AcDbLine
 10
8438.902964380293
 20
8187.299260214295
 30
0.0
 11
8894.086171780996
 21
8065.333287383067
 31
0.0
  0
LINE
  5
1B54B
330
1AB5D
100
AcDbEntity
  8
寸法
 62
     0
 48
50.0
370
    -2
100
AcDbLine
 10
8438.902964380508
 20
7391.299260214293
 30
0.0
 11
8894.086171780996
 21
7269.333287383123
 31
0.0
  0
LINE
  5
1B54C
330
1AB5D
100
AcDbEntity
  8
寸法
 62
     0
 48
50.0
370
    -2
100
AcDbLine
 10
8834.086171780993
 20
8081.410238928933
 30
0.0
 11
8834.086171780993
 21
7285.41023892899
 31
0.0
  0
INSERT
  5
1B54D
330
1AB5D
100
AcDbEntity
  8
寸法
 62
     0
 48
50.0
370
    -2
100
AcDbBlockReference
  2
_DOTSMALL
 10
8834.086171780993
 20
8081.410238928933
 30
0.0
 41
100.0
 42
100.0
 43
100.0
 50
90.0
  0
INSERT
  5
1B54E
330
1AB5D
100
AcDbEntity
  8
寸法
 62
     0
 48
50.0
370
    -2
100
AcDbBlockReference
  2
_DOTSMALL
 10
8834.086171780993
 20
7285.41023892899
 30
0.0
 41
100.0
 42
100.0
 43
100.0
 50
270.0
  0
MTEXT
  5
1B54F
330
1AB5D
100
AcDbEntity
  8
寸法
 62
     7
 48
50.0
100
AcDbMText
 10
8734.086171780992
 20
7702.064951867017
 30
0.0
 40
120.0
 41
0.0
 71
     5
 72
     1
  1
\A1;796
  7
STYLE1
 11
0.0000000000000001
 21
1.0
 31
0.0
 73
     1
 44
1.0
1001
ACAD
1000
MTEXTBEGIN
1070
    73
1070
     1
1070
    44
1040
1.0
1070
    74
1070
     0
1000
MTEXTEND
  0
POINT
  5
1B550
330
1AB5D
100
AcDbEntity
  8
DEFPOINTS
 62
     0
 48
50.0
100
AcDbPoint
 10
8418.902964380293
 20
8192.658244062917
 30
0.0
  0
POINT
  5
1B551
330
1AB5D
100
AcDbEntity
  8
DEFPOINTS
 62
     0
 48
50.0
100
AcDbPoint
 10
8418.902964380508
 20
7396.658244062916
 30
0.0
  0
POINT
  5
1B552
330
1AB5D
100
AcDbEntity
  8
DEFPOINTS
 62
     0
 48
50.0
100
AcDbPoint
 10
8834.086171780993
 20
7285.41023892899
 30
0.0
  0
ENDBLK
  5
1AB68
330
1AB5D
100
AcDbEntity
  8
0
 48
50.0
100
AcDbBlockEnd
  0
BLOCK
  5
1AB73
330
1AB69
100
AcDbEntity
  8
0
 48
50.0
100
AcDbBlockBegin
  2
*D26
 70
     1
 10
0.0
 20
0.0
 30
0.0
  3
*D26
  1

  0
LINE
  5
1B541
330
1AB69
100
AcDbEntity
  8
寸法
 62
     0
 48
50.0
370
    -2
100
AcDbLine
 10
8438.902964380297
 20
9495.04926021431
 30
0.0
 11
8894.086171780996
 21
9373.083287383082
 31
0.0
  0
LINE
  5
1B542
330
1AB69
100
AcDbEntity
  8
寸法
 62
     0
 48
50.0
370
    -2
100
AcDbLine
 10
8438.902964380508
 20
8222.049260214305
 30
0.0
 11
8894.086171780996
 21
8100.083287383135
 31
0.0
  0
LINE
  5
1B543
330
1AB69
100
AcDbEntity
  8
寸法
 62
     0
 48
50.0
370
    -2
100
AcDbLine
 10
8834.086171780993
 20
9389.160238928949
 30
0.0
 11
8834.086171780993
 21
8116.160238929003
 31
0.0
  0
INSERT
  5
1B544
330
1AB69
100
AcDbEntity
  8
寸法
 62
     0
 48
50.0
370
    -2
100
AcDbBlockReference
  2
_DOTSMALL
 10
8834.086171780993
 20
9389.160238928949
 30
0.0
 41
100.0
 42
100.0
 43
100.0
 50
90.0
  0
INSERT
  5
1B545
330
1AB69
100
AcDbEntity
  8
寸法
 62
     0
 48
50.0
370
    -2
100
AcDbBlockReference
  2
_DOTSMALL
 10
8834.086171780993
 20
8116.160238929003
 30
0.0
 41
100.0
 42
100.0
 43
100.0
 50
270.0
  0
MTEXT
  5
1B546
330
1AB69
100
AcDbEntity
  8
寸法
 62
     7
 48
50.0
100
AcDbMText
 10
8734.074360757372
 20
8752.660238928976
 30
0.0
 40
120.0
 41
0.0
 71
     5
 72
     1
  1
\A1;1273
  7
STYLE1
 11
0.0000000000000001
 21
1.0
 31
0.0
 73
     1
 44
1.0
1001
ACAD
1000
MTEXTBEGIN
1070
    73
1070
     1
1070
    44
1040
1.0
1070
    74
1070
     0
1000
MTEXTEND
  0
POINT
  5
1B547
330
1AB69
100
AcDbEntity
  8
DEFPOINTS
 62
     0
 48
50.0
100
AcDbPoint
 10
8418.902964380297
 20
9500.408244062931
 30
0.0
  0
POINT
  5
1B548
330
1AB69
100
AcDbEntity
  8
DEFPOINTS
 62
     0
 48
50.0
100
AcDbPoint
 10
8418.902964380508
 20
8227.408244062928
 30
0.0
  0
POINT
  5
1B549
330
1AB69
100
AcDbEntity
  8
DEFPOINTS
 62
     0
 48
50.0
100
AcDbPoint
 10
8834.086171780993
 20
8116.160238929003
 30
0.0
  0
ENDBLK
  5
1AB74
330
1AB69
100
AcDbEntity
  8
0
 48
50.0
100
AcDbBlockEnd
  0
BLOCK
  5
1AB7F
330
1AB75
100
AcDbEntity
  8
0
 48
50.0
100
AcDbBlockBegin
  2
*D27
 70
     1
 10
0.0
 20
0.0
 30
0.0
  3
*D27
  1

  0
LINE
  5
1AD2E
330
1AB75
100
AcDbEntity
  8
寸法
 62
     0
 48
50.0
370
    -2
100
AcDbLine
 10
5446.902964380296
 20
9549.158244062798
 30
0.0
 11
5446.902964380296
 21
10024.63659400927
 31
0.0
  0
LINE
  5
1AD2F
330
1AB75
100
AcDbEntity
  8
寸法
 62
     0
 48
50.0
370
    -2
100
AcDbLine
 10
5336.902964380296
 20
9549.158244062878
 30
0.0
 11
5336.902964380296
 21
10024.63659400927
 31
0.0
  0
LINE
  5
1AD30
330
1AB75
100
AcDbEntity
  8
寸法
 62
     0
 48
50.0
370
    -2
100
AcDbLine
 10
5446.902964380296
 20
9964.636594009277
 30
0.0
 11
5336.902964380296
 21
9964.636594009277
 31
0.0
  0
INSERT
  5
1AD31
330
1AB75
100
AcDbEntity
  8
寸法
 62
     0
 48
50.0
370
    -2
100
AcDbBlockReference
  2
_DOTSMALL
 10
5446.902964380296
 20
9964.636594009277
 30
0.0
 41
100.0
 42
100.0
 43
100.0
  0
INSERT
  5
1AD32
330
1AB75
100
AcDbEntity
  8
寸法
 62
     0
 48
50.0
370
    -2
100
AcDbBlockReference
  2
_DOTSMALL
 10
5336.902964380296
 20
9964.636594009277
 30
0.0
 41
100.0
 42
100.0
 43
100.0
 50
180.0
  0
MTEXT
  5
1AD33
330
1AB75
100
AcDbEntity
  8
寸法
 62
     7
 48
50.0
100
AcDbMText
 10
5391.902964380296
 20
10064.63659400927
 30
0.0
 40
120.0
 41
0.0
 71
     5
 72
     1
  1
\A1;110
  7
STYLE1
 73
     1
 44
1.0
1001
ACAD
1000
MTEXTBEGIN
1070
    73
1070
     1
1070
    44
1040
1.0
1070
    74
1070
     0
1000
MTEXTEND
  0
POINT
  5
1AD34
330
1AB75
100
AcDbEntity
  8
DEFPOINTS
 62
     0
 48
50.0
100
AcDbPoint
 10
5446.902964380296
 20
9529.158244062797
 30
0.0
  0
POINT
  5
1AD35
330
1AB75
100
AcDbEntity
  8
DEFPOINTS
 62
     0
 48
50.0
100
AcDbPoint
 10
5336.902964380296
 20
9529.158244062877
 30
0.0
  0
POINT
  5
1AD36
330
1AB75
100
AcDbEntity
  8
DEFPOINTS
 62
     0
 48
50.0
100
AcDbPoint
 10
5336.902964380296
 20
9964.636594009277
 30
0.0
  0
ENDBLK
  5
1AB80
330
1AB75
100
AcDbEntity
  8
0
 48
50.0
100
AcDbBlockEnd
  0
BLOCK
  5
1AB8B
330
1AB81
100
AcDbEntity
  8
0
 48
50.0
100
AcDbBlockBegin
  2
*D28
 70
     1
 10
0.0
 20
0.0
 30
0.0
  3
*D28
  1

  0
LINE
  5
1AD25
330
1AB81
100
AcDbEntity
  8
寸法
 62
     0
 48
50.0
370
    -2
100
AcDbLine
 10
6976.902964380295
 20
9549.158244062754
 30
0.0
 11
6976.902964380295
 21
10024.63659400927
 31
0.0
  0
LINE
  5
1AD26
330
1AB81
100
AcDbEntity
  8
寸法
 62
     0
 48
50.0
370
    -2
100
AcDbLine
 10
6866.902964380296
 20
9549.158244062754
 30
0.0
 11
6866.902964380296
 21
10024.63659400927
 31
0.0
  0
LINE
  5
1AD27
330
1AB81
100
AcDbEntity
  8
寸法
 62
     0
 48
50.0
370
    -2
100
AcDbLine
 10
6976.902964380295
 20
9964.636594009277
 30
0.0
 11
6866.902964380296
 21
9964.636594009277
 31
0.0
  0
INSERT
  5
1AD28
330
1AB81
100
AcDbEntity
  8
寸法
 62
     0
 48
50.0
370
    -2
100
AcDbBlockReference
  2
_DOTSMALL
 10
6976.902964380295
 20
9964.636594009277
 30
0.0
 41
100.0
 42
100.0
 43
100.0
  0
INSERT
  5
1AD29
330
1AB81
100
AcDbEntity
  8
寸法
 62
     0
 48
50.0
370
    -2
100
AcDbBlockReference
  2
_DOTSMALL
 10
6866.902964380296
 20
9964.636594009277
 30
0.0
 41
100.0
 42
100.0
 43
100.0
 50
180.0
  0
MTEXT
  5
1AD2A
330
1AB81
100
AcDbEntity
  8
寸法
 62
     7
 48
50.0
100
AcDbMText
 10
6921.902964380295
 20
10064.63659400927
 30
0.0
 40
120.0
 41
0.0
 71
     5
 72
     1
  1
\A1;110
  7
STYLE1
 73
     1
 44
1.0
1001
ACAD
1000
MTEXTBEGIN
1070
    73
1070
     1
1070
    44
1040
1.0
1070
    74
1070
     0
1000
MTEXTEND
  0
POINT
  5
1AD2B
330
1AB81
100
AcDbEntity
  8
DEFPOINTS
 62
     0
 48
50.0
100
AcDbPoint
 10
6976.902964380295
 20
9529.158244062754
 30
0.0
  0
POINT
  5
1AD2C
330
1AB81
100
AcDbEntity
  8
DEFPOINTS
 62
     0
 48
50.0
100
AcDbPoint
 10
6866.902964380296
 20
9529.158244062754
 30
0.0
  0
POINT
  5
1AD2D
330
1AB81
100
AcDbEntity
  8
DEFPOINTS
 62
     0
 48
50.0
100
AcDbPoint
 10
6866.902964380296
 20
9964.636594009277
 30
0.0
  0
ENDBLK
  5
1AB8C
330
1AB81
100
AcDbEntity
  8
0
 48
50.0
100
AcDbBlockEnd
  0
BLOCK
  5
1AB97
330
1AB8D
100
AcDbEntity
  8
0
 48
50.0
100
AcDbBlockBegin
  2
*D29
 70
     1
 10
0.0
 20
0.0
 30
0.0
  3
*D29
  1

  0
LINE
  5
1AD1C
330
1AB8D
100
AcDbEntity
  8
寸法
 62
     0
 48
50.0
370
    -2
100
AcDbLine
 10
5391.902964380289
 20
7299.158244062708
 30
0.0
 11
5391.902964380289
 21
6495.022274709183
 31
0.0
  0
LINE
  5
1AD1D
330
1AB8D
100
AcDbEntity
  8
寸法
 62
     0
 48
50.0
370
    -2
100
AcDbLine
 10
6921.902964380271
 20
7299.158244062837
 30
0.0
 11
6921.902964380271
 21
6495.022274709183
 31
0.0
  0
LINE
  5
1AD1E
330
1AB8D
100
AcDbEntity
  8
寸法
 62
     0
 48
50.0
370
    -2
100
AcDbLine
 10
5391.902964380289
 20
6555.022274709182
 30
0.0
 11
6921.902964380271
 21
6555.022274709182
 31
0.0
  0
INSERT
  5
1AD1F
330
1AB8D
100
AcDbEntity
  8
寸法
 62
     0
 48
50.0
370
    -2
100
AcDbBlockReference
  2
_DOTSMALL
 10
5391.902964380289
 20
6555.022274709182
 30
0.0
 41
100.0
 42
100.0
 43
100.0
 50
180.0
  0
INSERT
  5
1AD20
330
1AB8D
100
AcDbEntity
  8
寸法
 62
     0
 48
50.0
370
    -2
100
AcDbBlockReference
  2
_DOTSMALL
 10
6921.902964380271
 20
6555.022274709182
 30
0.0
 41
100.0
 42
100.0
 43
100.0
  0
MTEXT
  5
1AD21
330
1AB8D
100
AcDbEntity
  8
寸法
 62
     7
 48
50.0
100
AcDbMText
 10
6076.90296438028
 20
6655.022274709182
 30
0.0
 40
120.0
 41
0.0
 71
     5
 72
     1
  1
\A1;1530
  7
STYLE1
 73
     1
 44
1.0
1001
ACAD
1000
MTEXTBEGIN
1070
    73
1070
     1
1070
    44
1040
1.0
1070
    74
1070
     0
1000
MTEXTEND
  0
POINT
  5
1AD22
330
1AB8D
100
AcDbEntity
  8
DEFPOINTS
 62
     0
 48
50.0
100
AcDbPoint
 10
5391.902964380289
 20
7319.158244062709
 30
0.0
  0
POINT
  5
1AD23
330
1AB8D
100
AcDbEntity
  8
DEFPOINTS
 62
     0
 48
50.0
100
AcDbPoint
 10
6921.902964380271
 20
7319.158244062838
 30
0.0
  0
POINT
  5
1AD24
330
1AB8D
100
AcDbEntity
  8
DEFPOINTS
 62
     0
 48
50.0
100
AcDbPoint
 10
6921.902964380271
 20
6555.022274709182
 30
0.0
  0
ENDBLK
  5
1AB98
330
1AB8D
100
AcDbEntity
  8
0
 48
50.0
100
AcDbBlockEnd
  0
BLOCK
  5
1ABA3
330
1AB99
100
AcDbEntity
  8
0
 48
50.0
100
AcDbBlockBegin
  2
*D30
 70
     1
 10
0.0
 20
0.0
 30
0.0
  3
*D30
  1

  0
LINE
  5
1B572
330
1AB99
100
AcDbEntity
  8
寸法
 62
     0
 48
50.0
370
    -2
100
AcDbLine
 10
8413.543980531668
 20
9516.658244062902
 30
0.0
 11
8340.252654034189
 21
9790.185198305605
 31
0.0
  0
LINE
  5
1B573
330
1AB99
100
AcDbEntity
  8
寸法
 62
     0
 48
50.0
370
    -2
100
AcDbLine
 10
7963.543980531672
 20
9516.658244062899
 30
0.0
 11
7890.252654034192
 21
9790.185198305605
 31
0.0
  0
LINE
  5
1B574
330
1AB99
100
AcDbEntity
  8
寸法
 62
     0
 48
50.0
370
    -2
100
AcDbLine
 10
8356.329605580059
 20
9730.185198305605
 30
0.0
 11
7906.329605580061
 21
9730.185198305605
 31
0.0
  0
INSERT
  5
1B575
330
1AB99
100
AcDbEntity
  8
寸法
 62
     0
 48
50.0
370
    -2
100
AcDbBlockReference
  2
_DOTSMALL
 10
8356.329605580059
 20
9730.185198305605
 30
0.0
 41
100.0
 42
100.0
 43
100.0
  0
INSERT
  5
1B576
330
1AB99
100
AcDbEntity
  8
寸法
 62
     0
 48
50.0
370
    -2
100
AcDbBlockReference
  2
_DOTSMALL
 10
7906.329605580061
 20
9730.185198305605
 30
0.0
 41
100.0
 42
100.0
 43
100.0
 50
180.0
  0
MTEXT
  5
1B577
330
1AB99
100
AcDbEntity
  8
寸法
 62
     7
 48
50.0
100
AcDbMText
 10
8142.231435197819
 20
9830.185198305604
 30
0.0
 40
120.0
 41
0.0
 71
     5
 72
     1
  1
\A1;450
  7
STYLE1
 73
     1
 44
1.0
1001
ACAD
1000
MTEXTBEGIN
1070
    73
1070
     1
1070
    44
1040
1.0
1070
    74
1070
     0
1000
MTEXTEND
  0
POINT
  5
1B578
330
1AB99
100
AcDbEntity
  8
DEFPOINTS
 62
     0
 48
50.0
100
AcDbPoint
 10
8418.902964380292
 20
9496.658244062903
 30
0.0
  0
POINT
  5
1B579
330
1AB99
100
AcDbEntity
  8
DEFPOINTS
 62
     0
 48
50.0
100
AcDbPoint
 10
7968.902964380294
 20
9496.658244062899
 30
0.0
  0
POINT
  5
1B57A
330
1AB99
100
AcDbEntity
  8
DEFPOINTS
 62
     0
 48
50.0
100
AcDbPoint
 10
7906.329605580061
 20
9730.185198305605
 30
0.0
  0
ENDBLK
  5
1ABA4
330
1AB99
100
AcDbEntity
  8
0
 48
50.0
100
AcDbBlockEnd
  0
BLOCK
  5
1ABB1
330
1ABA5
100
AcDbEntity
  8
0
 48
50.0
100
AcDbBlockBegin
  2
*D31
 70
     1
 10
0.0
 20
0.0
 30
0.0
  3
*D31
  1

  0
LINE
  5
1AD08
330
1ABA5
100
AcDbEntity
  8
寸法
 62
     0
 48
50.0
370
    -2
100
AcDbLine
 10
8396.902964380297
 20
9549.158244062878
 30
0.0
 11
8396.902964380297
 21
10024.63659400926
 31
0.0
  0
LINE
  5
1AD09
330
1ABA5
100
AcDbEntity
  8
寸法
 62
     0
 48
50.0
370
    -2
100
AcDbLine
 10
8451.902964380295
 20
9549.158244062878
 30
0.0
 11
8451.902964380295
 21
10024.63659400926
 31
0.0
  0
LINE
  5
1AD0A
330
1ABA5
100
AcDbEntity
  8
寸法
 62
     0
 48
50.0
370
    -2
100
AcDbLine
 10
8396.902964380297
 20
9964.636594009258
 30
0.0
 11
8296.902964380297
 21
9964.636594009258
 31
0.0
  0
LINE
  5
1AD0B
330
1ABA5
100
AcDbEntity
  8
寸法
 62
     0
 48
50.0
370
    -2
100
AcDbLine
 10
8451.902964380295
 20
9964.636594009258
 30
0.0
 11
8868.873527128775
 21
9964.636594009258
 31
0.0
  0
LINE
  5
1AD0C
330
1ABA5
100
AcDbEntity
  8
寸法
 62
     0
 48
50.0
370
    -2
100
AcDbLine
 10
8396.902964380297
 20
9964.636594009258
 30
0.0
 11
8451.902964380295
 21
9964.636594009258
 31
0.0
  0
INSERT
  5
1AD0D
330
1ABA5
100
AcDbEntity
  8
寸法
 62
     0
 48
50.0
370
    -2
100
AcDbBlockReference
  2
_DOTSMALL
 10
8396.902964380297
 20
9964.636594009258
 30
0.0
 41
100.0
 42
100.0
 43
100.0
  0
INSERT
  5
1AD0E
330
1ABA5
100
AcDbEntity
  8
寸法
 62
     0
 48
50.0
370
    -2
100
AcDbBlockReference
  2
_DOTSMALL
 10
8451.902964380295
 20
9964.636594009258
 30
0.0
 41
100.0
 42
100.0
 43
100.0
 50
180.0
  0
MTEXT
  5
1AD0F
330
1ABA5
100
AcDbEntity
  8
寸法
 62
     7
 48
50.0
100
AcDbMText
 10
8760.388245754535
 20
10064.63659400926
 30
0.0
 40
120.0
 41
0.0
 71
     5
 72
     1
  1
\A1;55
  7
STYLE1
 73
     1
 44
1.0
1001
ACAD
1000
MTEXTBEGIN
1070
    73
1070
     1
1070
    44
1040
1.0
1070
    74
1070
     0
1000
MTEXTEND
  0
POINT
  5
1AD10
330
1ABA5
100
AcDbEntity
  8
DEFPOINTS
 62
     0
 48
50.0
100
AcDbPoint
 10
8396.902964380297
 20
9529.158244062877
 30
0.0
  0
POINT
  5
1AD11
330
1ABA5
100
AcDbEntity
  8
DEFPOINTS
 62
     0
 48
50.0
100
AcDbPoint
 10
8451.902964380295
 20
9529.158244062877
 30
0.0
  0
POINT
  5
1AD12
330
1ABA5
100
AcDbEntity
  8
DEFPOINTS
 62
     0
 48
50.0
100
AcDbPoint
 10
8451.902964380295
 20
9964.636594009258
 30
0.0
  0
ENDBLK
  5
1ABB2
330
1ABA5
100
AcDbEntity
  8
0
 48
50.0
100
AcDbBlockEnd
  0
BLOCK
  5
1ABBD
330
1ABB3
100
AcDbEntity
  8
0
 48
50.0
100
AcDbBlockBegin
  2
*D32
 70
     1
 10
0.0
 20
0.0
 30
0.0
  3
*D32
  1

  0
LINE
  5
1ACFF
330
1ABB3
100
AcDbEntity
  8
寸法
 62
     0
 48
50.0
370
    -2
100
AcDbLine
 10
6921.902964380288
 20
7299.158244062708
 30
0.0
 11
6921.902964380288
 21
6495.022274709183
 31
0.0
  0
LINE
  5
1AD00
330
1ABB3
100
AcDbEntity
  8
寸法
 62
     0
 48
50.0
370
    -2
100
AcDbLine
 10
8451.902964380272
 20
7299.158244062837
 30
0.0
 11
8451.902964380272
 21
6495.022274709183
 31
0.0
  0
LINE
  5
1AD01
330
1ABB3
100
AcDbEntity
  8
寸法
 62
     0
 48
50.0
370
    -2
100
AcDbLine
 10
6921.902964380288
 20
6555.022274709182
 30
0.0
 11
8451.902964380272
 21
6555.022274709182
 31
0.0
  0
INSERT
  5
1AD02
330
1ABB3
100
AcDbEntity
  8
寸法
 62
     0
 48
50.0
370
    -2
100
AcDbBlockReference
  2
_DOTSMALL
 10
6921.902964380288
 20
6555.022274709182
 30
0.0
 41
100.0
 42
100.0
 43
100.0
 50
180.0
  0
INSERT
  5
1AD03
330
1ABB3
100
AcDbEntity
  8
寸法
 62
     0
 48
50.0
370
    -2
100
AcDbBlockReference
  2
_DOTSMALL
 10
8451.902964380272
 20
6555.022274709182
 30
0.0
 41
100.0
 42
100.0
 43
100.0
  0
MTEXT
  5
1AD04
330
1ABB3
100
AcDbEntity
  8
寸法
 62
     7
 48
50.0
100
AcDbMText
 10
7686.90296438028
 20
6655.022274709182
 30
0.0
 40
120.0
 41
0.0
 71
     5
 72
     1
  1
\A1;1530
  7
STYLE1
 73
     1
 44
1.0
1001
ACAD
1000
MTEXTBEGIN
1070
    73
1070
     1
1070
    44
1040
1.0
1070
    74
1070
     0
1000
MTEXTEND
  0
POINT
  5
1AD05
330
1ABB3
100
AcDbEntity
  8
DEFPOINTS
 62
     0
 48
50.0
100
AcDbPoint
 10
6921.902964380288
 20
7319.158244062709
 30
0.0
  0
POINT
  5
1AD06
330
1ABB3
100
AcDbEntity
  8
DEFPOINTS
 62
     0
 48
50.0
100
AcDbPoint
 10
8451.902964380272
 20
7319.158244062838
 30
0.0
  0
POINT
  5
1AD07
330
1ABB3
100
AcDbEntity
  8
DEFPOINTS
 62
     0
 48
50.0
100
AcDbPoint
 10
8451.902964380272
 20
6555.022274709182
 30
0.0
  0
ENDBLK
  5
1ABBE
330
1ABB3
100
AcDbEntity
  8
0
 48
50.0
100
AcDbBlockEnd
  0
BLOCK
  5
1ABC9
330
1ABBF
100
AcDbEntity
  8
0
 48
50.0
100
AcDbBlockBegin
  2
*D33
 70
     1
 10
0.0
 20
0.0
 30
0.0
  3
*D33
  1

  0
LINE
  5
1ACF6
330
1ABBF
100
AcDbEntity
  8
寸法
 62
     0
 48
50.0
370
    -2
100
AcDbLine
 10
8471.902964380296
 20
9474.158244062884
 30
0.0
 11
9159.329310114708
 21
9474.158244062884
 31
0.0
  0
LINE
  5
1ACF7
330
1ABBF
100
AcDbEntity
  8
寸法
 62
     0
 48
50.0
370
    -2
100
AcDbLine
 10
8471.902964380271
 20
7374.158244062868
 30
0.0
 11
9159.329310114708
 21
7374.158244062868
 31
0.0
  0
LINE
  5
1ACF8
330
1ABBF
100
AcDbEntity
  8
寸法
 62
     0
 48
50.0
370
    -2
100
AcDbLine
 10
9099.329310114709
 20
9474.158244062884
 30
0.0
 11
9099.329310114709
 21
7374.158244062868
 31
0.0
  0
INSERT
  5
1ACF9
330
1ABBF
100
AcDbEntity
  8
寸法
 62
     0
 48
50.0
370
    -2
100
AcDbBlockReference
  2
_DOTSMALL
 10
9099.329310114709
 20
9474.158244062884
 30
0.0
 41
100.0
 42
100.0
 43
100.0
 50
90.0
  0
INSERT
  5
1ACFA
330
1ABBF
100
AcDbEntity
  8
寸法
 62
     0
 48
50.0
370
    -2
100
AcDbBlockReference
  2
_DOTSMALL
 10
9099.329310114709
 20
7374.158244062868
 30
0.0
 41
100.0
 42
100.0
 43
100.0
 50
270.0
  0
MTEXT
  5
1ACFB
330
1ABBF
100
AcDbEntity
  8
寸法
 62
     7
 48
50.0
100
AcDbMText
 10
8999.317499091084
 20
8424.158244062873
 30
0.0
 40
120.0
 41
0.0
 71
     5
 72
     1
  1
\A1;5X420=2100
  7
STYLE1
 11
0.0000000000000001
 21
1.0
 31
0.0
 73
     1
 44
1.0
1001
ACAD
1000
MTEXTBEGIN
1070
    73
1070
     1
1070
    44
1040
1.0
1070
    74
1070
     0
1000
MTEXTEND
  0
POINT
  5
1ACFC
330
1ABBF
100
AcDbEntity
  8
DEFPOINTS
 62
     0
 48
50.0
100
AcDbPoint
 10
8451.902964380295
 20
9474.158244062884
 30
0.0
  0
POINT
  5
1ACFD
330
1ABBF
100
AcDbEntity
  8
DEFPOINTS
 62
     0
 48
50.0
100
AcDbPoint
 10
8451.902964380272
 20
7374.158244062868
 30
0.0
  0
POINT
  5
1ACFE
330
1ABBF
100
AcDbEntity
  8
DEFPOINTS
 62
     0
 48
50.0
100
AcDbPoint
 10
9099.329310114709
 20
7374.158244062868
 30
0.0
  0
ENDBLK
  5
1ABCA
330
1ABBF
100
AcDbEntity
  8
0
 48
50.0
100
AcDbBlockEnd
  0
BLOCK
  5
1ABD7
330
1ABCB
100
AcDbEntity
  8
0
 48
50.0
100
AcDbBlockBegin
  2
*D34
 70
     1
 10
0.0
 20
0.0
 30
0.0
  3
*D34
  1

  0
LINE
  5
1ACEB
330
1ABCB
100
AcDbEntity
  8
寸法
 62
     0
 48
50.0
370
    -2
100
AcDbLine
 10
8471.902964380271
 20
7374.158244062868
 30
0.0
 11
9159.329310114683
 21
7374.158244062868
 31
0.0
  0
LINE
  5
1ACEC
330
1ABCB
100
AcDbEntity
  8
寸法
 62
     0
 48
50.0
370
    -2
100
AcDbLine
 10
8471.902964380271
 20
7319.158244062871
 30
0.0
 11
9159.329310114683
 21
7319.158244062871
 31
0.0
  0
LINE
  5
1ACED
330
1ABCB
100
AcDbEntity
  8
寸法
 62
     0
 48
50.0
370
    -2
100
AcDbLine
 10
9099.329310114683
 20
7374.158244062868
 30
0.0
 11
9099.329310114683
 21
7474.158244062867
 31
0.0
  0
LINE
  5
1ACEE
330
1ABCB
100
AcDbEntity
  8
寸法
 62
     0
 48
50.0
370
    -2
100
AcDbLine
 10
9099.329310114683
 20
7319.158244062871
 30
0.0
 11
9099.329310114683
 21
6832.811495783769
 31
0.0
  0
LINE
  5
1ACEF
330
1ABCB
100
AcDbEntity
  8
寸法
 62
     0
 48
50.0
370
    -2
100
AcDbLine
 10
9099.329310114683
 20
7374.158244062868
 30
0.0
 11
9099.329310114683
 21
7319.158244062871
 31
0.0
  0
INSERT
  5
1ACF0
330
1ABCB
100
AcDbEntity
  8
寸法
 62
     0
 48
50.0
370
    -2
100
AcDbBlockReference
  2
_DOTSMALL
 10
9099.329310114683
 20
7374.158244062868
 30
0.0
 41
100.0
 42
100.0
 43
100.0
 50
270.0
  0
INSERT
  5
1ACF1
330
1ABCB
100
AcDbEntity
  8
寸法
 62
     0
 48
50.0
370
    -2
100
AcDbBlockReference
  2
_DOTSMALL
 10
9099.329310114683
 20
7319.158244062871
 30
0.0
 41
100.0
 42
100.0
 43
100.0
 50
90.0
  0
MTEXT
  5
1ACF2
330
1ABCB
100
AcDbEntity
  8
寸法
 62
     7
 48
50.0
100
AcDbMText
 10
8999.329310114681
 20
6941.296777158008
 30
0.0
 40
120.0
 41
0.0
 71
     5
 72
     1
  1
\A1;55
  7
STYLE1
 11
0.0000000000000001
 21
1.0
 31
0.0
 73
     1
 44
1.0
1001
ACAD
1000
MTEXTBEGIN
1070
    73
1070
     1
1070
    44
1040
1.0
1070
    74
1070
     0
1000
MTEXTEND
  0
POINT
  5
1ACF3
330
1ABCB
100
AcDbEntity
  8
DEFPOINTS
 62
     0
 48
50.0
100
AcDbPoint
 10
8451.902964380272
 20
7374.158244062868
 30
0.0
  0
POINT
  5
1ACF4
330
1ABCB
100
AcDbEntity
  8
DEFPOINTS
 62
     0
 48
50.0
100
AcDbPoint
 10
8451.902964380272
 20
7319.158244062871
 30
0.0
  0
POINT
  5
1ACF5
330
1ABCB
100
AcDbEntity
  8
DEFPOINTS
 62
     0
 48
50.0
100
AcDbPoint
 10
9099.329310114683
 20
7319.158244062871
 30
0.0
  0
ENDBLK
  5
1ABD8
330
1ABCB
100
AcDbEntity
  8
0
 48
50.0
100
AcDbBlockEnd
  0
BLOCK
  5
1ABE5
330
1ABD9
100
AcDbEntity
  8
0
 48
50.0
100
AcDbBlockBegin
  2
*D35
 70
     1
 10
0.0
 20
0.0
 30
0.0
  3
*D35
  1

  0
LINE
  5
1ACE0
330
1ABD9
100
AcDbEntity
  8
寸法
 62
     0
 48
50.0
370
    -2
100
AcDbLine
 10
8471.902964380296
 20
9529.158244062877
 30
0.0
 11
9159.329310114708
 21
9529.158244062877
 31
0.0
  0
LINE
  5
1ACE1
330
1ABD9
100
AcDbEntity
  8
寸法
 62
     0
 48
50.0
370
    -2
100
AcDbLine
 10
8471.902964380296
 20
9474.158244062884
 30
0.0
 11
9159.329310114708
 21
9474.158244062884
 31
0.0
  0
LINE
  5
1ACE2
330
1ABD9
100
AcDbEntity
  8
寸法
 62
     0
 48
50.0
370
    -2
100
AcDbLine
 10
9099.329310114709
 20
9474.158244062884
 30
0.0
 11
9099.329310114709
 21
9374.158244062885
 31
0.0
  0
LINE
  5
1ACE3
330
1ABD9
100
AcDbEntity
  8
寸法
 62
     0
 48
50.0
370
    -2
100
AcDbLine
 10
9099.329310114709
 20
9529.158244062877
 30
0.0
 11
9099.329310114709
 21
9946.128806811358
 31
0.0
  0
LINE
  5
1ACE4
330
1ABD9
100
AcDbEntity
  8
寸法
 62
     0
 48
50.0
370
    -2
100
AcDbLine
 10
9099.329310114709
 20
9474.158244062884
 30
0.0
 11
9099.329310114709
 21
9529.158244062877
 31
0.0
  0
INSERT
  5
1ACE5
330
1ABD9
100
AcDbEntity
  8
寸法
 62
     0
 48
50.0
370
    -2
100
AcDbBlockReference
  2
_DOTSMALL
 10
9099.329310114709
 20
9474.158244062884
 30
0.0
 41
100.0
 42
100.0
 43
100.0
 50
90.0
  0
INSERT
  5
1ACE6
330
1ABD9
100
AcDbEntity
  8
寸法
 62
     0
 48
50.0
370
    -2
100
AcDbBlockReference
  2
_DOTSMALL
 10
9099.329310114709
 20
9529.158244062877
 30
0.0
 41
100.0
 42
100.0
 43
100.0
 50
270.0
  0
MTEXT
  5
1ACE7
330
1ABD9
100
AcDbEntity
  8
寸法
 62
     7
 48
50.0
100
AcDbMText
 10
8999.329310114706
 20
9837.643525437123
 30
0.0
 40
120.0
 41
0.0
 71
     5
 72
     1
  1
\A1;55
  7
STYLE1
 11
0.0000000000000001
 21
1.0
 31
0.0
 73
     1
 44
1.0
1001
ACAD
1000
MTEXTBEGIN
1070
    73
1070
     1
1070
    44
1040
1.0
1070
    74
1070
     0
1000
MTEXTEND
  0
POINT
  5
1ACE8
330
1ABD9
100
AcDbEntity
  8
DEFPOINTS
 62
     0
 48
50.0
100
AcDbPoint
 10
8451.902964380295
 20
9529.158244062877
 30
0.0
  0
POINT
  5
1ACE9
330
1ABD9
100
AcDbEntity
  8
DEFPOINTS
 62
     0
 48
50.0
100
AcDbPoint
 10
8451.902964380295
 20
9474.158244062884
 30
0.0
  0
POINT
  5
1ACEA
330
1ABD9
100
AcDbEntity
  8
DEFPOINTS
 62
     0
 48
50.0
100
AcDbPoint
 10
9099.329310114709
 20
9474.158244062884
 30
0.0
  0
ENDBLK
  5
1ABE6
330
1ABD9
100
AcDbEntity
  8
0
 48
50.0
100
AcDbBlockEnd
  0
BLOCK
  5
1ABF1
330
1ABE7
100
AcDbEntity
  8
0
 48
50.0
100
AcDbBlockBegin
  2
*D36
 70
     1
 10
0.0
 20
0.0
 30
0.0
  3
*D36
  1

  0
LINE
  5
1ACD7
330
1ABE7
100
AcDbEntity
  8
寸法
 62
     0
 48
50.0
370
    -2
100
AcDbLine
 10
8471.902964380296
 20
9529.158244062877
 30
0.0
 11
9427.35168224585
 21
9529.158244062877
 31
0.0
  0
LINE
  5
1ACD8
330
1ABE7
100
AcDbEntity
  8
寸法
 62
     0
 48
50.0
370
    -2
100
AcDbLine
 10
8471.902964380271
 20
7319.158244062871
 30
0.0
 11
9427.35168224585
 21
7319.158244062871
 31
0.0
  0
LINE
  5
1ACD9
330
1ABE7
100
AcDbEntity
  8
寸法
 62
     0
 48
50.0
370
    -2
100
AcDbLine
 10
9367.35168224585
 20
9529.158244062877
 30
0.0
 11
9367.35168224585
 21
7319.158244062871
 31
0.0
  0
INSERT
  5
1ACDA
330
1ABE7
100
AcDbEntity
  8
寸法
 62
     0
 48
50.0
370
    -2
100
AcDbBlockReference
  2
_DOTSMALL
 10
9367.35168224585
 20
9529.158244062877
 30
0.0
 41
100.0
 42
100.0
 43
100.0
 50
90.0
  0
INSERT
  5
1ACDB
330
1ABE7
100
AcDbEntity
  8
寸法
 62
     0
 48
50.0
370
    -2
100
AcDbBlockReference
  2
_DOTSMALL
 10
9367.35168224585
 20
7319.158244062871
 30
0.0
 41
100.0
 42
100.0
 43
100.0
 50
270.0
  0
MTEXT
  5
1ACDC
330
1ABE7
100
AcDbEntity
  8
寸法
 62
     7
 48
50.0
100
AcDbMText
 10
9267.339871222226
 20
8446.501590121604
 30
0.0
 40
120.0
 41
0.0
 71
     5
 72
     1
  1
\A1;2210
  7
STYLE1
 11
0.0000000000000001
 21
1.0
 31
0.0
 73
     1
 44
1.0
1001
ACAD
1000
MTEXTBEGIN
1070
    73
1070
     1
1070
    44
1040
1.0
1070
    74
1070
     0
1000
MTEXTEND
  0
POINT
  5
1ACDD
330
1ABE7
100
AcDbEntity
  8
DEFPOINTS
 62
     0
 48
50.0
100
AcDbPoint
 10
8451.902964380295
 20
9529.158244062877
 30
0.0
  0
POINT
  5
1ACDE
330
1ABE7
100
AcDbEntity
  8
DEFPOINTS
 62
     0
 48
50.0
100
AcDbPoint
 10
8451.902964380272
 20
7319.158244062871
 30
0.0
  0
POINT
  5
1ACDF
330
1ABE7
100
AcDbEntity
  8
DEFPOINTS
 62
     0
 48
50.0
100
AcDbPoint
 10
9367.35168224585
 20
7319.158244062871
 30
0.0
  0
ENDBLK
  5
1ABF2
330
1ABE7
100
AcDbEntity
  8
0
 48
50.0
100
AcDbBlockEnd
  0
BLOCK
  5
1ABFF
330
1ABF3
100
AcDbEntity
  8
0
 48
50.0
100
AcDbBlockBegin
  2
*D37
 70
     1
 10
0.0
 20
0.0
 30
0.0
  3
*D37
  1

  0
LINE
  5
1ACCC
330
1ABF3
100
AcDbEntity
  8
寸法
 62
     0
 48
50.0
370
    -2
100
AcDbLine
 10
3861.902964380261
 20
9549.158244062754
 30
0.0
 11
3861.902964380261
 21
10024.63659400913
 31
0.0
  0
LINE
  5
1ACCD
330
1ABF3
100
AcDbEntity
  8
寸法
 62
     0
 48
50.0
370
    -2
100
AcDbLine
 10
3916.902964380295
 20
9549.158244062754
 30
0.0
 11
3916.902964380295
 21
10024.63659400913
 31
0.0
  0
LINE
  5
1ACCE
330
1ABF3
100
AcDbEntity
  8
寸法
 62
     0
 48
50.0
370
    -2
100
AcDbLine
 10
3916.902964380295
 20
9964.636594009128
 30
0.0
 11
4016.902964380295
 21
9964.636594009128
 31
0.0
  0
LINE
  5
1ACCF
330
1ABF3
100
AcDbEntity
  8
寸法
 62
     0
 48
50.0
370
    -2
100
AcDbLine
 10
3861.902964380261
 20
9964.636594009128
 30
0.0
 11
3444.932401631783
 21
9964.636594009128
 31
0.0
  0
LINE
  5
1ACD0
330
1ABF3
100
AcDbEntity
  8
寸法
 62
     0
 48
50.0
370
    -2
100
AcDbLine
 10
3916.902964380295
 20
9964.636594009128
 30
0.0
 11
3861.902964380261
 21
9964.636594009128
 31
0.0
  0
INSERT
  5
1ACD1
330
1ABF3
100
AcDbEntity
  8
寸法
 62
     0
 48
50.0
370
    -2
100
AcDbBlockReference
  2
_DOTSMALL
 10
3916.902964380295
 20
9964.636594009128
 30
0.0
 41
100.0
 42
100.0
 43
100.0
 50
180.0
  0
INSERT
  5
1ACD2
330
1ABF3
100
AcDbEntity
  8
寸法
 62
     0
 48
50.0
370
    -2
100
AcDbBlockReference
  2
_DOTSMALL
 10
3861.902964380261
 20
9964.636594009128
 30
0.0
 41
100.0
 42
100.0
 43
100.0
  0
MTEXT
  5
1ACD3
330
1ABF3
100
AcDbEntity
  8
寸法
 62
     7
 48
50.0
100
AcDbMText
 10
3553.417683006022
 20
10064.63659400913
 30
0.0
 40
120.0
 41
0.0
 71
     5
 72
     1
  1
\A1;55
  7
STYLE1
 73
     1
 44
1.0
1001
ACAD
1000
MTEXTBEGIN
1070
    73
1070
     1
1070
    44
1040
1.0
1070
    74
1070
     0
1000
MTEXTEND
  0
POINT
  5
1ACD4
330
1ABF3
100
AcDbEntity
  8
DEFPOINTS
 62
     0
 48
50.0
100
AcDbPoint
 10
3861.902964380261
 20
9529.158244062754
 30
0.0
  0
POINT
  5
1ACD5
330
1ABF3
100
AcDbEntity
  8
DEFPOINTS
 62
     0
 48
50.0
100
AcDbPoint
 10
3916.902964380295
 20
9529.158244062754
 30
0.0
  0
POINT
  5
1ACD6
330
1ABF3
100
AcDbEntity
  8
DEFPOINTS
 62
     0
 48
50.0
100
AcDbPoint
 10
3916.902964380295
 20
9964.636594009128
 30
0.0
  0
ENDBLK
  5
1AC00
330
1ABF3
100
AcDbEntity
  8
0
 48
50.0
100
AcDbBlockEnd
  0
ENDSEC
  0
SECTION
  2
ENTITIES
  0
MTEXT
  5
763F
330
747D
100
AcDbEntity
  8
0
100
AcDbMText
 10
302.846345836809
 20
280.1983726409901
 30
0.0
 40
3.5
 41
5.323721266742722
 71
     1
 72
     5
  1

  7
MSMINCHO
 73
     1
 44
1.0
1001
ACAD
1000
MTEXTBEGIN
1070
    73
1070
     1
1070
    44
1040
1.0
1070
    74
1070
     0
1000
MTEXTEND
  0
LINE
  5
10B57
330
747D
100
AcDbEntity
  8
補助
  6
PHANTOM
 62
   230
 48
50.0
100
AcDbLine
 10
139.9999999999995
 20
11409.6
 30
0.0
 11
16307.2
 21
11409.6
 31
0.0
  0
LINE
  5
10B59
330
747D
100
AcDbEntity
  8
仕様書枠
  6
Continuous
 48
50.0
100
AcDbLine
 10
13107.2
 20
1200.0
 30
0.0
 11
13107.2
 21
-0.0000000000000729
 31
0.0
  0
LINE
  5
10B5D
330
747D
100
AcDbEntity
  8
仕様書枠
 48
50.0
100
AcDbLine
 10
140.0
 20
0.0
 30
0.0
 11
16307.2
 21
-0.0000000000000909
 31
0.0
  0
LINE
  5
10B5E
330
747D
100
AcDbEntity
  8
補助
  6
PHANTOM
 62
   230
 48
50.0
100
AcDbLine
 10
16307.2
 20
11409.6
 30
0.0
 11
16307.2
 21
1200.0
 31
0.0
  0
LINE
  5
10B6C
330
747D
100
AcDbEntity
  8
仕様書枠
 48
50.0
100
AcDbLine
 10
13107.2
 20
1200.0
 30
0.0
 11
16307.2
 21
1200.0
 31
0.0
  0
LINE
  5
10B6D
330
747D
100
AcDbEntity
  8
補助
  6
PHANTOM
 62
   230
 48
50.0
100
AcDbLine
 10
13107.2
 20
11409.6
 30
0.0
 11
13107.2
 21
4800.0
 31
0.0
  0
LINE
  5
10B6F
330
747D
100
AcDbEntity
  8
補助
  6
PHANTOM
 62
   230
 48
50.0
100
AcDbLine
 10
13107.2
 20
4800.0
 30
0.0
 11
16307.2
 21
4800.0
 31
0.0
  0
LINE
  5
10B72
330
747D
100
AcDbEntity
  8
文字
 62
     7
 48
50.0
100
AcDbLine
 10
13187.2
 20
400.0
 30
0.0
 11
16227.2
 21
400.0
 31
0.0
  0
TEXT
  5
10B73
330
747D
100
AcDbEntity
  8
文字
 62
     7
 48
50.0
100
AcDbText
 10
13162.9790565769
 20
895.0906074299405
 30
0.0
 40
200.0
  1
外 形 図
  7
STYLE2
100
AcDbText
  0
TEXT
  5
10B74
330
747D
100
AcDbEntity
  8
文字
 62
     7
 48
50.0
100
AcDbText
 10
13201.43669998441
 20
477.2740661031255
 30
0.0
 40
160.0
  1
機種名
  7
STYLE2
100
AcDbText
  0
LINE
  5
10B7B
330
747D
100
AcDbEntity
  8
仕様書枠
 48
50.0
100
AcDbLine
 10
13107.2
 20
800.0
 30
0.0
 11
14251.2
 21
800.0
 31
0.0
  0
LINE
  5
10B88
330
747D
100
AcDbEntity
  8
仕様書枠
  6
Continuous
 48
50.0
100
AcDbLine
 10
14251.2
 20
1200.0
 30
0.0
 11
14251.2
 21
800.0
 31
0.0
  0
LINE
  5
154D6
330
747D
100
AcDbEntity
  8
仕様書枠
 48
50.0
100
AcDbLine
 10
16307.2
 20
1200.0
 30
0.0
 11
16307.2
 21
-0.0000000000000909
 31
0.0
  0
TEXT
  5
175DC
330
747D
100
AcDbEntity
  8
文字
 62
     7
 48
50.0
100
AcDbText
 10
14524.131837222
 20
1031.557706291228
 30
0.0
 40
100.0
  1
NO.06     <縮尺> S=1/40
  7
STYLE2
100
AcDbText
  0
TEXT
  5
175DD
330
747D
100
AcDbEntity
  8
文字
 62
     7
 48
50.0
100
AcDbText
 10
14675.04888958281
 20
874.5644127973662
 30
0.0
 40
100.0
  1
～一般型・多雪地型～
  7
STYLE2
100
AcDbText
  0
TEXT
  5
175DE
330
747D
100
AcDbEntity
  8
文字
 62
     7
 48
50.0
100
AcDbText
 10
13209.4053442172
 20
76.09434707649348
 30
0.0
 40
100.0
  1
○床面積 ： N(連続数)×3.38㎡(1.02坪) 　
  7
STYLE2
100
AcDbText
  0
LINE
  5
17C2B
330
747D
100
AcDbEntity
  8
部品1
100
AcDbLine
 10
4853.292153510072
 20
2787.89256848251
 30
0.0
 11
5331.902964380297
 21
2787.892568482515
 31
0.0
  0
LINE
  5
17C2C
330
747D
100
AcDbEntity
  8
細線
100
AcDbLine
 10
4788.352964380298
 20
2983.417896680614
 30
0.0
 11
4788.352964380298
 21
2787.892568482508
 31
0.0
  0
LINE
  5
17C2D
330
747D
100
AcDbEntity
  8
細線
100
AcDbLine
 10
4390.202964380295
 20
3687.846601207865
 30
0.0
 11
4390.202964380295
 21
2780.392568482505
 31
0.0
  0
LINE
  5
17C2E
330
747D
100
AcDbEntity
  8
細線
100
AcDbLine
 10
4718.352964380297
 20
3380.407624053854
 30
0.0
 11
4718.352964380297
 21
2787.892568482508
 31
0.0
  0
LINE
  5
17C2F
330
747D
100
AcDbEntity
  8
細線
100
AcDbLine
 10
4648.352964380297
 20
3665.261402718647
 30
0.0
 11
4648.352964380297
 21
2787.892568482508
 31
0.0
  0
LINE
  5
17C30
330
747D
100
AcDbEntity
  8
細線
100
AcDbLine
 10
4578.352964380299
 20
3671.38560916546
 30
0.0
 11
4578.352964380296
 21
2787.892568482508
 31
0.0
  0
LINE
  5
17C31
330
747D
100
AcDbEntity
  8
部品1
100
AcDbLine
 10
4490.202964380294
 20
3679.09773485527
 30
0.0
 11
4490.202964380294
 21
2780.392568482506
 31
0.0
  0
LINE
  5
17C32
330
747D
100
AcDbEntity
  8
細線
100
AcDbLine
 10
4578.352964380299
 20
3747.379310471143
 30
0.0
 11
4578.352964380299
 21
3701.500204291761
 31
0.0
  0
LINE
  5
17C33
330
747D
100
AcDbEntity
  8
細線
100
AcDbLine
 10
4648.352964380297
 20
3780.020846541991
 30
0.0
 11
4648.352964380297
 21
3695.375997844946
 31
0.0
  0
LINE
  5
17C34
330
747D
100
AcDbEntity
  8
細線
100
AcDbLine
 10
4718.352964380297
 20
3812.662382612842
 30
0.0
 11
4718.352964380297
 21
3553.170738548166
 31
0.0
  0
LINE
  5
17C35
330
747D
100
AcDbEntity
  8
細線
100
AcDbLine
 10
4788.352964380296
 20
3845.30391868369
 30
0.0
 11
4788.352964380296
 21
3156.181011174929
 31
0.0
  0
LINE
  5
17C36
330
747D
100
AcDbEntity
  8
細線
100
AcDbLine
 10
4788.352964380296
 20
3897.646901664169
 30
0.0
 11
4788.352964380296
 21
3878.405256252565
 31
0.0
  0
LINE
  5
17C37
330
747D
100
AcDbEntity
  8
細線
100
AcDbLine
 10
4718.352964380297
 20
3903.771108110985
 30
0.0
 11
4718.3529643803
 21
3845.763720181717
 31
0.0
  0
LINE
  5
17C38
330
747D
100
AcDbEntity
  8
細線
100
AcDbLine
 10
4648.352964380297
 20
3909.8953145578
 30
0.0
 11
4648.352964380296
 21
3813.122184110868
 31
0.0
  0
LINE
  5
17C39
330
747D
100
AcDbEntity
  8
細線
100
AcDbLine
 10
4578.352964380299
 20
4174.387078800331
 30
0.0
 11
4578.352964380299
 21
3780.480648040019
 31
0.0
  0
LINE
  5
17C3A
330
747D
100
AcDbEntity
  8
細線
100
AcDbLine
 10
4540.223599262195
 20
4563.392568482501
 30
0.0
 11
5331.902964380297
 21
4563.392568482501
 31
0.0
  0
LINE
  5
17C3B
330
747D
100
AcDbEntity
  8
細線
100
AcDbLine
 10
6981.902964380298
 20
4563.392568482501
 30
0.0
 11
8391.902964380298
 21
4563.392568482501
 31
0.0
  0
LINE
  5
17C3C
330
747D
100
AcDbEntity
  8
部品1
100
AcDbLine
 10
6981.902964380298
 20
2780.392568482501
 30
0.0
 11
7550.202964380297
 21
2780.392568482506
 31
0.0
  0
LINE
  5
17C3D
330
747D
100
AcDbEntity
  8
部品1
100
AcDbLine
 10
7550.202964380297
 20
2787.892568482507
 30
0.0
 11
8391.902964380298
 21
2787.892568482515
 31
0.0
  0
LINE
  5
17C3E
330
747D
100
AcDbEntity
  8
細線
100
AcDbLine
 10
8068.202964380295
 20
4563.392568482501
 30
0.0
 11
8068.202964380295
 21
2787.892568482514
 31
0.0
  0
LINE
  5
17C3F
330
747D
100
AcDbEntity
  8
細線
100
AcDbLine
 10
8138.202964380296
 20
4563.392568482501
 30
0.0
 11
8138.202964380296
 21
2787.892568482514
 31
0.0
  0
LINE
  5
17C40
330
747D
100
AcDbEntity
  8
細線
100
AcDbLine
 10
8208.202964380296
 20
4563.392568482501
 30
0.0
 11
8208.202964380296
 21
2787.892568482514
 31
0.0
  0
LINE
  5
17C41
330
747D
100
AcDbEntity
  8
細線
100
AcDbLine
 10
8278.202964380296
 20
4563.392568482501
 30
0.0
 11
8278.202964380296
 21
2787.892568482514
 31
0.0
  0
LINE
  5
17C42
330
747D
100
AcDbEntity
  8
部品1
100
AcDbLine
 10
7977.502964380295
 20
4563.392568482498
 30
0.0
 11
7977.502964380295
 21
2787.892568482508
 31
0.0
  0
LINE
  5
17C43
330
747D
100
AcDbEntity
  8
細線
100
AcDbLine
 10
7848.352964380298
 20
4563.392568482498
 30
0.0
 11
7848.352964380298
 21
2787.892568482508
 31
0.0
  0
LINE
  5
17C44
330
747D
100
AcDbEntity
  8
細線
100
AcDbLine
 10
7778.352964380298
 20
4563.392568482498
 30
0.0
 11
7778.352964380298
 21
2787.892568482508
 31
0.0
  0
LINE
  5
17C45
330
747D
100
AcDbEntity
  8
細線
100
AcDbLine
 10
7708.352964380297
 20
4563.392568482498
 30
0.0
 11
7708.352964380297
 21
2787.892568482508
 31
0.0
  0
LINE
  5
17C46
330
747D
100
AcDbEntity
  8
細線
100
AcDbLine
 10
7638.352964380297
 20
4563.392568482498
 30
0.0
 11
7638.352964380297
 21
2787.892568482508
 31
0.0
  0
LINE
  5
17C60
330
747D
100
AcDbEntity
  8
部品1
 48
50.0
100
AcDbLine
 10
7016.902964380297
 20
3736.892568482508
 30
0.0
 11
7069.902964380297
 21
3736.892568482508
 31
0.0
  0
LINE
  5
17C64
330
747D
100
AcDbEntity
  8
細線
100
AcDbLine
 10
7100.902964380297
 20
4563.392568482501
 30
0.0
 11
7100.902964380297
 21
2780.392568482503
 31
0.0
  0
LINE
  5
17C65
330
747D
100
AcDbEntity
  8
細線
100
AcDbLine
 10
7134.902964380296
 20
4563.392568482501
 30
0.0
 11
7134.902964380296
 21
2780.392568482503
 31
0.0
  0
LINE
  5
17C66
330
747D
100
AcDbEntity
  8
部品1
100
AcDbLine
 10
7092.902964380297
 20
4563.392568482501
 30
0.0
 11
7092.902964380297
 21
2780.392568482503
 31
0.0
  0
LINE
  5
17C67
330
747D
100
AcDbEntity
  8
部品1
100
AcDbLine
 10
7142.902964380297
 20
4563.392568482501
 30
0.0
 11
7142.902964380297
 21
2780.392568482503
 31
0.0
  0
LINE
  5
17C68
330
747D
100
AcDbEntity
  8
細線
100
AcDbLine
 10
7240.202964380296
 20
4563.392568482498
 30
0.0
 11
7240.202964380296
 21
2780.392568482503
 31
0.0
  0
LINE
  5
17C69
330
747D
100
AcDbEntity
  8
細線
100
AcDbLine
 10
7310.202964380296
 20
4563.392568482498
 30
0.0
 11
7310.202964380296
 21
2780.392568482505
 31
0.0
  0
LINE
  5
17C6A
330
747D
100
AcDbEntity
  8
細線
100
AcDbLine
 10
7380.202964380297
 20
4563.392568482498
 30
0.0
 11
7380.202964380297
 21
2780.392568482505
 31
0.0
  0
LINE
  5
17C6B
330
747D
100
AcDbEntity
  8
細線
100
AcDbLine
 10
7450.202964380297
 20
4563.392568482498
 30
0.0
 11
7450.202964380297
 21
2780.392568482505
 31
0.0
  0
LINE
  5
17C6C
330
747D
100
AcDbEntity
  8
部品1
100
AcDbLine
 10
7550.202964380297
 20
4563.392568482498
 30
0.0
 11
7550.202964380297
 21
2780.392568482506
 31
0.0
  0
LINE
  5
17C6D
330
747D
100
AcDbEntity
  8
細線
100
AcDbLine
 10
5451.902964380297
 20
4563.392568482501
 30
0.0
 11
6861.902964380298
 21
4563.392568482501
 31
0.0
  0
LINE
  5
17C6E
330
747D
100
AcDbEntity
  8
部品1
100
AcDbLine
 10
6020.202964380296
 20
2787.892568482507
 30
0.0
 11
6861.902964380298
 21
2787.892568482515
 31
0.0
  0
LINE
  5
17C6F
330
747D
100
AcDbEntity
  8
部品1
100
AcDbLine
 10
5451.902964380297
 20
2780.392568482501
 30
0.0
 11
6020.202964380296
 21
2780.392568482506
 31
0.0
  0
LINE
  5
17C70
330
747D
100
AcDbEntity
  8
細線
100
AcDbLine
 10
6538.202964380296
 20
4563.392568482501
 30
0.0
 11
6538.202964380296
 21
2787.892568482514
 31
0.0
  0
LINE
  5
17C71
330
747D
100
AcDbEntity
  8
細線
100
AcDbLine
 10
6608.202964380296
 20
4563.392568482501
 30
0.0
 11
6608.202964380296
 21
2787.892568482514
 31
0.0
  0
LINE
  5
17C72
330
747D
100
AcDbEntity
  8
細線
100
AcDbLine
 10
6678.202964380296
 20
4563.392568482501
 30
0.0
 11
6678.202964380296
 21
2787.892568482514
 31
0.0
  0
LINE
  5
17C73
330
747D
100
AcDbEntity
  8
細線
100
AcDbLine
 10
6748.202964380296
 20
4563.392568482501
 30
0.0
 11
6748.202964380296
 21
2787.892568482514
 31
0.0
  0
LINE
  5
17C74
330
747D
100
AcDbEntity
  8
部品1
100
AcDbLine
 10
6447.502964380295
 20
4563.392568482498
 30
0.0
 11
6447.502964380295
 21
2787.892568482508
 31
0.0
  0
LINE
  5
17C75
330
747D
100
AcDbEntity
  8
細線
100
AcDbLine
 10
6318.352964380298
 20
4563.392568482498
 30
0.0
 11
6318.352964380298
 21
2787.892568482508
 31
0.0
  0
LINE
  5
17C76
330
747D
100
AcDbEntity
  8
細線
100
AcDbLine
 10
6248.352964380297
 20
4563.392568482498
 30
0.0
 11
6248.352964380297
 21
2787.892568482508
 31
0.0
  0
LINE
  5
17C77
330
747D
100
AcDbEntity
  8
細線
100
AcDbLine
 10
6178.352964380298
 20
4563.392568482498
 30
0.0
 11
6178.352964380298
 21
2787.892568482508
 31
0.0
  0
LINE
  5
17C78
330
747D
100
AcDbEntity
  8
細線
100
AcDbLine
 10
6108.352964380298
 20
4563.392568482498
 30
0.0
 11
6108.352964380298
 21
2787.892568482508
 31
0.0
  0
LINE
  5
17C92
330
747D
100
AcDbEntity
  8
部品1
 48
50.0
100
AcDbLine
 10
5486.902964380297
 20
3736.892568482508
 30
0.0
 11
5539.902964380297
 21
3736.892568482508
 31
0.0
  0
LINE
  5
17C96
330
747D
100
AcDbEntity
  8
細線
100
AcDbLine
 10
5570.902964380297
 20
4563.392568482501
 30
0.0
 11
5570.902964380297
 21
2780.392568482503
 31
0.0
  0
LINE
  5
17C97
330
747D
100
AcDbEntity
  8
細線
100
AcDbLine
 10
5604.902964380297
 20
4563.392568482501
 30
0.0
 11
5604.902964380297
 21
2780.392568482503
 31
0.0
  0
LINE
  5
17C98
330
747D
100
AcDbEntity
  8
部品1
100
AcDbLine
 10
5562.902964380297
 20
4563.392568482501
 30
0.0
 11
5562.902964380297
 21
2780.392568482503
 31
0.0
  0
LINE
  5
17C99
330
747D
100
AcDbEntity
  8
部品1
100
AcDbLine
 10
5612.902964380297
 20
4563.392568482501
 30
0.0
 11
5612.902964380297
 21
2780.392568482503
 31
0.0
  0
LINE
  5
17C9A
330
747D
100
AcDbEntity
  8
細線
100
AcDbLine
 10
5710.202964380297
 20
4563.392568482498
 30
0.0
 11
5710.202964380297
 21
2780.392568482503
 31
0.0
  0
LINE
  5
17C9B
330
747D
100
AcDbEntity
  8
細線
100
AcDbLine
 10
5780.202964380296
 20
4563.392568482498
 30
0.0
 11
5780.202964380296
 21
2780.392568482505
 31
0.0
  0
LINE
  5
17C9C
330
747D
100
AcDbEntity
  8
細線
100
AcDbLine
 10
5850.202964380296
 20
4563.392568482498
 30
0.0
 11
5850.202964380296
 21
2780.392568482505
 31
0.0
  0
LINE
  5
17C9D
330
747D
100
AcDbEntity
  8
細線
100
AcDbLine
 10
5920.202964380297
 20
4563.392568482498
 30
0.0
 11
5920.202964380297
 21
2780.392568482505
 31
0.0
  0
LINE
  5
17C9E
330
747D
100
AcDbEntity
  8
部品1
100
AcDbLine
 10
6020.202964380296
 20
4563.392568482498
 30
0.0
 11
6020.202964380296
 21
2780.392568482506
 31
0.0
  0
LINE
  5
17C9F
330
747D
100
AcDbEntity
  8
細線
100
AcDbLine
 10
3921.902964380299
 20
4563.392568482501
 30
0.0
 11
4509.760800905622
 21
4563.392568482501
 31
0.0
  0
LINE
  5
17CA0
330
747D
100
AcDbEntity
  8
部品1
100
AcDbLine
 10
3921.902964380299
 20
2780.392568482501
 30
0.0
 11
4490.202964380294
 21
2780.392568482506
 31
0.0
  0
LINE
  5
17CA1
330
747D
100
AcDbEntity
  8
部品1
100
AcDbLine
 10
4490.202964380294
 20
2787.892568482507
 30
0.0
 11
4822.829355153501
 21
2787.89256848251
 31
0.0
  0
LINE
  5
17CA2
330
747D
100
AcDbEntity
  8
細線
100
AcDbLine
 10
5008.202964380296
 20
4563.392568482501
 30
0.0
 11
5008.202964380296
 21
2787.892568482514
 31
0.0
  0
LINE
  5
17CA3
330
747D
100
AcDbEntity
  8
細線
100
AcDbLine
 10
5078.202964380296
 20
4563.392568482501
 30
0.0
 11
5078.202964380296
 21
2787.892568482514
 31
0.0
  0
LINE
  5
17CA4
330
747D
100
AcDbEntity
  8
細線
100
AcDbLine
 10
5148.202964380296
 20
4563.392568482501
 30
0.0
 11
5148.202964380296
 21
2787.892568482514
 31
0.0
  0
LINE
  5
17CA5
330
747D
100
AcDbEntity
  8
細線
100
AcDbLine
 10
5218.202964380296
 20
4563.392568482501
 30
0.0
 11
5218.202964380296
 21
2787.892568482514
 31
0.0
  0
LINE
  5
17CA6
330
747D
100
AcDbEntity
  8
部品1
100
AcDbLine
 10
4917.502964380296
 20
4563.392568482498
 30
0.0
 11
4917.502964380294
 21
3916.462335896098
 31
0.0
  0
LINE
  5
17CA7
330
747D
100
AcDbEntity
  8
細線
100
AcDbLine
 10
4788.352964380298
 20
4563.392568482498
 30
0.0
 11
4788.352964380298
 21
3927.76149679047
 31
0.0
  0
LINE
  5
17CA8
330
747D
100
AcDbEntity
  8
細線
100
AcDbLine
 10
4718.352964380297
 20
4563.392568482498
 30
0.0
 11
4718.352964380295
 21
3933.885703237283
 31
0.0
  0
LINE
  5
17CA9
330
747D
100
AcDbEntity
  8
細線
100
AcDbLine
 10
4648.352964380297
 20
4563.392568482498
 30
0.0
 11
4648.352964380297
 21
3950.160465921403
 31
0.0
  0
LINE
  5
17CAA
330
747D
100
AcDbEntity
  8
細線
100
AcDbLine
 10
4578.352964380296
 20
4563.392568482498
 30
0.0
 11
4578.352964380296
 21
4347.15019329464
 31
0.0
  0
LINE
  5
17CC4
330
747D
100
AcDbEntity
  8
部品1
 48
50.0
100
AcDbLine
 10
3956.902964380299
 20
3736.892568482508
 30
0.0
 11
4009.902964380298
 21
3736.892568482508
 31
0.0
  0
LINE
  5
17CC8
330
747D
100
AcDbEntity
  8
細線
100
AcDbLine
 10
4040.902964380299
 20
4563.392568482501
 30
0.0
 11
4040.902964380299
 21
2780.392568482503
 31
0.0
  0
LINE
  5
17CC9
330
747D
100
AcDbEntity
  8
細線
100
AcDbLine
 10
4074.902964380298
 20
4563.392568482501
 30
0.0
 11
4074.902964380298
 21
2780.392568482503
 31
0.0
  0
LINE
  5
17CCA
330
747D
100
AcDbEntity
  8
部品1
100
AcDbLine
 10
4032.902964380299
 20
4563.392568482501
 30
0.0
 11
4032.902964380299
 21
2780.392568482503
 31
0.0
  0
LINE
  5
17CCB
330
747D
100
AcDbEntity
  8
部品1
100
AcDbLine
 10
4082.902964380298
 20
4563.392568482501
 30
0.0
 11
4082.902964380298
 21
2780.392568482503
 31
0.0
  0
LINE
  5
17CCC
330
747D
100
AcDbEntity
  8
細線
100
AcDbLine
 10
4180.202964380295
 20
4563.392568482498
 30
0.0
 11
4180.202964380295
 21
2780.392568482503
 31
0.0
  0
LINE
  5
17CCD
330
747D
100
AcDbEntity
  8
細線
100
AcDbLine
 10
4250.202964380294
 20
4563.392568482498
 30
0.0
 11
4250.202964380294
 21
2780.392568482505
 31
0.0
  0
LINE
  5
17CCE
330
747D
100
AcDbEntity
  8
細線
100
AcDbLine
 10
4320.202964380294
 20
4563.392568482498
 30
0.0
 11
4320.202964380294
 21
2780.392568482505
 31
0.0
  0
LINE
  5
17CCF
330
747D
100
AcDbEntity
  8
細線
100
AcDbLine
 10
4390.202964380295
 20
4563.392568482498
 30
0.0
 11
4390.202964380295
 21
3692.744862158154
 31
0.0
  0
LINE
  5
17CD0
330
747D
100
AcDbEntity
  8
部品1
100
AcDbLine
 10
4490.202964380294
 20
4563.392568482498
 30
0.0
 11
4490.202964380294
 21
3739.375627973654
 31
0.0
  0
LINE
  5
17CD1
330
747D
100
AcDbEntity
  8
部品1
 48
50.0
100
AcDbLine
 10
4491.775448873361
 20
4665.392568482501
 30
0.0
 11
3832.526708947762
 21
4665.392568482501
 31
0.0
  0
LINE
  5
17CD2
330
747D
100
AcDbEntity
  8
細線
 48
50.0
100
AcDbLine
 10
4488.112565732538
 20
4686.16581104642
 30
0.0
 11
3822.297645915546
 21
4686.165811046499
 31
0.0
  0
LINE
  5
17CD3
330
747D
100
AcDbEntity
  8
細線
 48
50.0
100
AcDbLine
 10
4471.855218111219
 20
4778.36581104642
 30
0.0
 11
3814.061615390716
 21
4778.365811046501
 31
0.0
  0
LINE
  5
17CD4
330
747D
100
AcDbEntity
  8
部品1
 48
50.0
100
AcDbLine
 10
4466.913344593466
 20
4806.392568482499
 30
0.0
 11
3819.311385486724
 21
4806.3925684825
 31
0.0
  0
ARC
  5
17CDB
330
747D
100
AcDbEntity
  8
部品1
 48
50.0
100
AcDbCircle
 10
8499.651030023512
 20
4779.059567644186
 30
0.0
 40
0.7
100
AcDbArc
 50
277.6581272075753
 51
356.7526572096103
  0
ARC
  5
17CDC
330
747D
100
AcDbEntity
  8
部品1
 48
50.0
100
AcDbCircle
 10
8500.144099132075
 20
4775.392568482501
 30
0.0
 40
3.0
100
AcDbArc
 50
97.65812720715516
 51
176.7526572096623
  0
LINE
  5
17CDD
330
747D
100
AcDbEntity
  8
部品1
100
AcDbLine
 10
8501.483303364967
 20
4798.996043087259
 30
0.0
 11
8500.349906032623
 21
4779.01991510466
 31
0.0
  0
ARC
  5
17CDE
330
747D
100
AcDbEntity
  8
部品1
100
AcDbCircle
 10
8481.279219812833
 20
4672.392568482501
 30
0.0
 40
7.0
100
AcDbArc
 50
270.0
 51
356.7526572096623
  0
ARC
  5
17CDF
330
747D
100
AcDbEntity
  8
部品1
 48
50.0
100
AcDbCircle
 10
8491.414999498669
 20
4686.859567644182
 30
0.0
 40
0.7
100
AcDbArc
 50
277.6581272075753
 51
356.7526572097143
  0
ARC
  5
17CE0
330
747D
100
AcDbEntity
  8
部品1
 48
50.0
100
AcDbCircle
 10
8491.90806860723
 20
4683.192568482498
 30
0.0
 40
3.0
100
AcDbArc
 50
97.65812720715516
 51
176.7526572096623
  0
LINE
  5
17CE1
330
747D
100
AcDbEntity
  8
部品1
100
AcDbLine
 10
8488.912885711044
 20
4683.362507937601
 30
0.0
 11
8488.267979903932
 21
4671.996043087261
 31
0.0
  0
LINE
  5
17CE2
330
747D
100
AcDbEntity
  8
細線
 48
50.0
100
AcDbLine
 10
8468.902964380301
 20
4806.392568482499
 30
0.0
 11
8468.902964380301
 21
4665.392568482499
 31
0.0
  0
ARC
  5
17CE3
330
747D
100
AcDbEntity
  8
部品1
100
AcDbCircle
 10
8494.494543273868
 20
4799.392568482499
 30
0.0
 40
7.0
100
AcDbArc
 50
356.7526572096623
 51
90.0
  0
LINE
  5
17CE4
330
747D
100
AcDbEntity
  8
部品1
100
AcDbLine
 10
8497.148916235889
 20
4775.562507937602
 30
0.0
 11
8492.113875507778
 21
4686.819915104659
 31
0.0
  0
DIMENSION
  5
17CE5
330
747D
100
AcDbEntity
  8
寸法
 48
50.0
100
AcDbDimension
  2
*D2
 10
8451.9029643803
 20
5018.93415374074
 30
0.0
 11
8815.388245754537
 21
5018.93415374074
 31
0.0
 70
   160
 71
     5
 42
50.0
  3
INABA_S40G
100
AcDbAlignedDimension
 13
8501.902964380301
 23
4806.392568482499
 33
0.0
 14
8451.9029643803
 24
4806.3925684825
 34
0.0
100
AcDbRotatedDimension
  0
LINE
  5
17CE6
330
747D
100
AcDbEntity
  8
細線
 48
50.0
100
AcDbLine
 10
8499.744313365681
 20
4778.365811045929
 30
0.0
 11
4502.318016467792
 21
4778.365811046416
 31
0.0
  0
LINE
  5
17CE7
330
747D
100
AcDbEntity
  8
部品1
 48
50.0
100
AcDbLine
 10
8494.494543273868
 20
4806.392568482486
 30
0.0
 11
4497.376142950039
 21
4806.392568482497
 31
0.0
  0
LINE
  5
17CE8
330
747D
100
AcDbEntity
  8
細線
 48
50.0
100
AcDbLine
 10
8491.508282840925
 20
4686.165811045939
 30
0.0
 11
4518.575364089111
 21
4686.165811046416
 31
0.0
  0
LINE
  5
17CE9
330
747D
100
AcDbEntity
  8
部品1
 48
50.0
100
AcDbLine
 10
8481.279219812833
 20
4665.392568482501
 30
0.0
 11
4522.238247229931
 21
4665.392568482501
 31
0.0
  0
LINE
  5
17CEA
330
747D
100
AcDbEntity
  8
細線
 48
50.0
100
AcDbLine
 10
3844.902964380299
 20
4806.392568482504
 30
0.0
 11
3844.902964380299
 21
4665.392568482501
 31
0.0
  0
ARC
  5
17CEB
330
747D
100
AcDbEntity
  8
部品1
100
AcDbCircle
 10
3819.311385486724
 20
4799.392568482504
 30
0.0
 40
7.0
100
AcDbArc
 50
90.0
 51
183.2473427903377
  0
ARC
  5
17CEC
330
747D
100
AcDbEntity
  8
部品1
100
AcDbCircle
 10
3832.526708947762
 20
4672.392568482504
 30
0.0
 40
7.0
100
AcDbArc
 50
183.2473427903377
 51
270.0
  0
ARC
  5
17CED
330
747D
100
AcDbEntity
  8
部品1
 48
50.0
100
AcDbCircle
 10
3814.15489873709
 20
4779.059567644192
 30
0.0
 40
0.7
100
AcDbArc
 50
183.2473427903897
 51
262.3418727924247
  0
ARC
  5
17CEE
330
747D
100
AcDbEntity
  8
部品1
 48
50.0
100
AcDbCircle
 10
3822.390929261927
 20
4686.859567644187
 30
0.0
 40
0.7
100
AcDbArc
 50
183.2473427902856
 51
262.3418727924247
  0
ARC
  5
17CEF
330
747D
100
AcDbEntity
  8
部品1
 48
50.0
100
AcDbCircle
 10
3821.897860153366
 20
4683.192568482503
 30
0.0
 40
3.0
100
AcDbArc
 50
3.247342790337682
 51
82.34187279284483
  0
ARC
  5
17CF0
330
747D
100
AcDbEntity
  8
部品1
 48
50.0
100
AcDbCircle
 10
3813.661829628522
 20
4775.392568482504
 30
0.0
 40
3.0
100
AcDbArc
 50
3.247342790337682
 51
82.34187279284483
  0
LINE
  5
17CF1
330
747D
100
AcDbEntity
  8
部品1
100
AcDbLine
 10
3816.657012524707
 20
4775.562507937608
 30
0.0
 11
3821.692053252815
 21
4686.819915104664
 31
0.0
  0
LINE
  5
17CF2
330
747D
100
AcDbEntity
  8
部品1
100
AcDbLine
 10
3824.893043049551
 20
4683.362507937607
 30
0.0
 11
3825.537948856667
 21
4671.996043087263
 31
0.0
  0
LINE
  5
17CF3
330
747D
100
AcDbEntity
  8
部品1
100
AcDbLine
 10
3812.322625395629
 20
4798.996043087263
 30
0.0
 11
3813.456022727979
 21
4779.019915104665
 31
0.0
  0
DIMENSION
  5
17CF4
330
747D
100
AcDbEntity
  8
寸法
 48
50.0
100
AcDbDimension
  2
*D3
 10
3811.902964380299
 20
5018.934153740744
 30
0.0
 11
3498.417683006052
 21
5018.934153740744
 31
0.0
 70
   160
 71
     5
 42
50.0
  3
INABA_S40G
100
AcDbAlignedDimension
 13
3861.902964380299
 23
4806.392568482507
 33
0.0
 14
3811.902964380299
 24
4806.392568482504
 34
0.0
100
AcDbRotatedDimension
1001
ACAD
1000
DSTYLE
1002
{
1002
}
  0
DIMENSION
  5
17CF5
330
747D
100
AcDbEntity
  8
寸法
 48
50.0
100
AcDbDimension
  2
*D4
 10
8501.902964380301
 20
5241.891132178593
 30
0.0
 11
6109.043172300562
 21
5241.891132178593
 31
0.0
 70
   160
  1
N x 1530 +100
 71
     5
 42
4690.000000000002
  3
INABA_S40G
100
AcDbAlignedDimension
 13
3811.902964380299
 23
4806.392568482504
 33
0.0
 14
8501.902964380301
 24
4806.392568482499
 34
0.0
100
AcDbRotatedDimension
  0
DIMENSION
  5
17CF6
330
747D
100
AcDbEntity
  8
寸法
 48
50.0
100
AcDbDimension
  2
*D5
 10
3861.902964380299
 20
5018.934153740744
 30
0.0
 11
6109.043172300562
 21
5018.934153740744
 31
0.0
 70
   160
  1
柱外寸法 N x 1530
 71
     5
 42
4590.000000000002
  3
INABA_S40G
100
AcDbAlignedDimension
 13
8451.9029643803
 23
4806.3925684825
 33
0.0
 14
3861.902964380299
 24
4806.392568482507
 34
0.0
100
AcDbRotatedDimension
  0
TEXT
  5
17E44
330
747D
100
AcDbEntity
  8
文字
 62
     7
 48
50.0
100
AcDbText
 10
13583.11819016569
 20
9740.013745883729
 30
0.0
 40
100.0
  1
梁中
 41
0.9
  7
STYLE1
100
AcDbText
  0
TEXT
  5
17E45
330
747D
100
AcDbEntity
  8
文字
 62
     7
 48
50.0
100
AcDbText
 10
15022.63965474516
 20
9740.013745883729
 30
0.0
 40
100.0
  1
F12,Y10        1.0
  7
STYLE1
100
AcDbText
  0
TEXT
  5
17E46
330
747D
100
AcDbEntity
  8
文字
 62
     7
 48
50.0
100
AcDbText
 10
13248.77747366448
 20
8720.013745883727
 30
0.0
 40
100.0
  1
15
  7
STYLE1
100
AcDbText
  0
LINE
  5
17E47
330
747D
100
AcDbEntity
  8
仕様書枠
 48
50.0
100
AcDbLine
 10
16307.19999999999
 20
10049.59999999999
 30
0.0
 11
13127.2
 21
10049.6
 31
0.0
  0
TEXT
  5
17E48
330
747D
100
AcDbEntity
  8
文字
 62
     7
 48
50.0
100
AcDbText
 10
13583.11819016568
 20
8550.013745883726
 30
0.0
 40
100.0
  1
アンカープレート
  7
STYLE1
100
AcDbText
  0
TEXT
  5
17E49
330
747D
100
AcDbEntity
  8
文字
 62
     7
 48
50.0
100
AcDbText
 10
15022.63965474514
 20
8550.01374588372
 30
0.0
 40
100.0
  1
F12            2.3
  7
STYLE1
100
AcDbText
  0
LINE
  5
17E4A
330
747D
100
AcDbEntity
  8
仕様書枠
 48
50.0
100
AcDbLine
 10
16307.19999999999
 20
9879.599999999996
 30
0.0
 11
13127.19999999999
 21
9879.599999999999
 31
0.0
  0
LINE
  5
17E4B
330
747D
100
AcDbEntity
  8
仕様書枠
 48
50.0
100
AcDbLine
 10
16307.19999999999
 20
11409.59999999999
 30
0.0
 11
13127.2
 21
11409.6
 31
0.0
  0
LINE
  5
17E4C
330
747D
100
AcDbEntity
  8
仕様書枠
 48
50.0
100
AcDbLine
 10
16307.19999999999
 20
8179.6
 30
0.0
 11
16307.2
 21
11409.6
 31
0.0
  0
LINE
  5
17E4D
330
747D
100
AcDbEntity
  8
仕様書枠
 48
50.0
100
AcDbLine
 10
14785.2
 20
11409.59999999999
 30
0.0
 11
14785.19999999999
 21
8519.600000000002
 31
0.0
  0
LINE
  5
17E4E
330
747D
100
AcDbEntity
  8
仕様書枠
 48
50.0
100
AcDbLine
 10
13490.2
 20
11409.59999999999
 30
0.0
 11
13490.20000000001
 21
8519.600000000002
 31
0.0
  0
LINE
  5
17E4F
330
747D
100
AcDbEntity
  8
仕様書枠
 48
50.0
100
AcDbLine
 10
16307.19999999999
 20
11239.59999999999
 30
0.0
 11
13127.2
 21
11239.6
 31
0.0
  0
LINE
  5
17E50
330
747D
100
AcDbEntity
  8
仕様書枠
 48
50.0
100
AcDbLine
 10
16307.19999999999
 20
10899.6
 30
0.0
 11
13127.2
 21
10899.6
 31
0.0
  0
LINE
  5
17E51
330
747D
100
AcDbEntity
  8
仕様書枠
 48
50.0
100
AcDbLine
 10
16307.19999999999
 20
11069.59999999999
 30
0.0
 11
13127.2
 21
11069.6
 31
0.0
  0
LINE
  5
17E52
330
747D
100
AcDbEntity
  8
仕様書枠
 48
50.0
100
AcDbLine
 10
16307.19999999999
 20
10559.6
 30
0.0
 11
13127.19999999999
 21
10559.6
 31
0.0
  0
LINE
  5
17E53
330
747D
100
AcDbEntity
  8
仕様書枠
 48
50.0
100
AcDbLine
 10
16307.19999999999
 20
10389.59999999999
 30
0.0
 11
13127.19999999999
 21
10389.6
 31
0.0
  0
LINE
  5
17E54
330
747D
100
AcDbEntity
  8
仕様書枠
 48
50.0
100
AcDbLine
 10
16307.19999999999
 20
10729.59999999999
 30
0.0
 11
13127.19999999999
 21
10729.6
 31
0.0
  0
TEXT
  5
17E55
330
747D
100
AcDbEntity
  8
文字
 62
     7
 48
50.0
100
AcDbText
 10
13197.42518560407
 20
11270.01374588372
 30
0.0
 40
100.0
  1
品番
  7
STYLE1
100
AcDbText
  0
TEXT
  5
17E56
330
747D
100
AcDbEntity
  8
文字
 62
     7
 48
50.0
100
AcDbText
 10
13271.19032244792
 20
11100.01374588373
 30
0.0
 40
100.0
  1
1
  7
STYLE1
100
AcDbText
  0
TEXT
  5
17E57
330
747D
100
AcDbEntity
  8
文字
 62
     7
 48
50.0
100
AcDbText
 10
13271.19032244792
 20
10930.01374588373
 30
0.0
 40
100.0
  1
2
  7
STYLE1
100
AcDbText
  0
TEXT
  5
17E58
330
747D
100
AcDbEntity
  8
文字
 62
     7
 48
50.0
100
AcDbText
 10
13271.19032244792
 20
10590.01374588373
 30
0.0
 40
100.0
  1
4
  7
STYLE1
100
AcDbText
  0
TEXT
  5
17E59
330
747D
100
AcDbEntity
  8
文字
 62
     7
 48
50.0
100
AcDbText
 10
13271.19032244792
 20
10760.01374588373
 30
0.0
 40
100.0
  1
3
  7
STYLE1
100
AcDbText
  0
TEXT
  5
17E5A
330
747D
100
AcDbEntity
  8
文字
 62
     7
 48
50.0
100
AcDbText
 10
13732.03840939434
 20
11270.01374588372
 30
0.0
 40
100.0
  1
部　　品　　名
  7
STYLE1
100
AcDbText
  0
TEXT
  5
17E5B
330
747D
100
AcDbEntity
  8
文字
 62
     7
 48
50.0
100
AcDbText
 10
14859.79774614482
 20
11270.01374588372
 30
0.0
 40
100.0
  1
材料（材質）　　単位mm
  7
STYLE1
100
AcDbText
  0
TEXT
  5
17E5C
330
747D
100
AcDbEntity
  8
文字
 62
     7
 48
50.0
100
AcDbText
 10
13583.11819016569
 20
11100.01374588372
 30
0.0
 40
100.0
  1
土台枠
  7
STYLE1
100
AcDbText
  0
TEXT
  5
17E5D
330
747D
100
AcDbEntity
  8
文字
 62
     7
 48
50.0
100
AcDbText
 10
13583.11819016569
 20
10760.01374588372
 30
0.0
 40
100.0
  1
柱
  7
STYLE1
100
AcDbText
  0
TEXT
  5
17E5E
330
747D
100
AcDbEntity
  8
文字
 62
     7
 48
50.0
100
AcDbText
 10
13583.11819016569
 20
10420.01374588372
 30
0.0
 40
100.0
  1
鴨居
  7
STYLE1
100
AcDbText
  0
TEXT
  5
17E5F
330
747D
100
AcDbEntity
  8
文字
 62
     7
 48
50.0
100
AcDbText
 10
13583.11819016569
 20
10250.01374588373
 30
0.0
 40
100.0
  1
桁後
  7
STYLE1
100
AcDbText
  0
TEXT
  5
17E60
330
747D
100
AcDbEntity
  8
文字
 62
     7
 48
50.0
100
AcDbText
 10
13271.19032244792
 20
10420.01374588372
 30
0.0
 40
100.0
  1
5
  7
STYLE1
100
AcDbText
  0
TEXT
  5
17E61
330
747D
100
AcDbEntity
  8
文字
 62
     7
 48
50.0
100
AcDbText
 10
13583.11819016569
 20
10080.01374588372
 30
0.0
 40
100.0
  1
妻板左右
  7
STYLE1
100
AcDbText
  0
TEXT
  5
17E62
330
747D
100
AcDbEntity
  8
文字
 62
     7
 48
50.0
100
AcDbText
 10
13248.77747366447
 20
9570.013745883725
 30
0.0
 40
100.0
  1
10
  7
STYLE1
100
AcDbText
  0
TEXT
  5
17E63
330
747D
100
AcDbEntity
  8
文字
 62
     7
 48
50.0
100
AcDbText
 10
13583.11819016568
 20
9230.013745883727
 30
0.0
 40
100.0
  1
壁パネル
  7
STYLE1
100
AcDbText
  0
TEXT
  5
17E64
330
747D
100
AcDbEntity
  8
文字
 62
     7
 48
50.0
100
AcDbText
 10
13583.11819016569
 20
9400.013745883725
 30
0.0
 40
100.0
  1
屋根パネル
  7
STYLE1
100
AcDbText
  0
TEXT
  5
17E65
330
747D
100
AcDbEntity
  8
文字
 62
     7
 48
50.0
100
AcDbText
 10
13583.11819016569
 20
9910.013745883725
 30
0.0
 40
100.0
  1
鼻隠シ前後
  7
STYLE1
100
AcDbText
  0
TEXT
  5
17E66
330
747D
100
AcDbEntity
  8
文字
 62
     7
 48
50.0
100
AcDbText
 10
13271.19032244792
 20
9910.013745883727
 30
0.0
 40
100.0
  1
8
  7
STYLE1
100
AcDbText
  0
TEXT
  5
17E67
330
747D
100
AcDbEntity
  8
文字
 62
     7
 48
50.0
100
AcDbText
 10
13271.19032244792
 20
9740.013745883729
 30
0.0
 40
100.0
  1
9
  7
STYLE1
100
AcDbText
  0
TEXT
  5
17E68
330
747D
100
AcDbEntity
  8
文字
 62
     7
 48
50.0
100
AcDbText
 10
13271.19032244792
 20
10080.01374588373
 30
0.0
 40
100.0
  1
7
  7
STYLE1
100
AcDbText
  0
TEXT
  5
17E69
330
747D
100
AcDbEntity
  8
文字
 62
     7
 48
50.0
100
AcDbText
 10
13271.19032244792
 20
10250.01374588373
 30
0.0
 40
100.0
  1
6
  7
STYLE1
100
AcDbText
  0
LINE
  5
17E6A
330
747D
100
AcDbEntity
  8
仕様書枠
 48
50.0
100
AcDbLine
 10
16307.19999999999
 20
9539.599999999998
 30
0.0
 11
13127.19999999999
 21
9539.599999999998
 31
0.0
  0
LINE
  5
17E6B
330
747D
100
AcDbEntity
  8
仕様書枠
 48
50.0
100
AcDbLine
 10
16307.19999999999
 20
9199.599999999996
 30
0.0
 11
13127.19999999999
 21
9199.599999999998
 31
0.0
  0
LINE
  5
17E6C
330
747D
100
AcDbEntity
  8
仕様書枠
 48
50.0
100
AcDbLine
 10
16307.19999999999
 20
9369.599999999996
 30
0.0
 11
13127.19999999999
 21
9369.599999999998
 31
0.0
  0
LINE
  5
17E6D
330
747D
100
AcDbEntity
  8
仕様書枠
 48
50.0
100
AcDbLine
 10
16307.19999999999
 20
10219.59999999999
 30
0.0
 11
13127.2
 21
10219.6
 31
0.0
  0
LINE
  5
17E6E
330
747D
100
AcDbEntity
  8
仕様書枠
 48
50.0
100
AcDbLine
 10
16307.19999999999
 20
9709.599999999998
 30
0.0
 11
13127.19999999999
 21
9709.6
 31
0.0
  0
TEXT
  5
17E6F
330
747D
100
AcDbEntity
  8
文字
 62
     7
 48
50.0
100
AcDbText
 10
13248.77747366447
 20
9400.013745883725
 30
0.0
 40
100.0
  1
11
  7
STYLE1
100
AcDbText
  0
LINE
  5
17E70
330
747D
100
AcDbEntity
  8
仕様書枠
 48
50.0
100
AcDbLine
 10
16307.19999999999
 20
9029.599999999996
 30
0.0
 11
13127.19999999999
 21
9029.6
 31
0.0
  0
LINE
  5
17E71
330
747D
100
AcDbEntity
  8
仕様書枠
 48
50.0
100
AcDbLine
 10
16307.19999999999
 20
8689.599999999998
 30
0.0
 11
13127.19999999999
 21
8689.6
 31
0.0
  0
TEXT
  5
17E72
330
747D
100
AcDbEntity
  8
文字
 62
     7
 48
50.0
100
AcDbText
 10
13248.77747366447
 20
9060.013745883727
 30
0.0
 40
100.0
  1
13
  7
STYLE1
100
AcDbText
  0
TEXT
  5
17E73
330
747D
100
AcDbEntity
  8
文字
 62
     7
 48
50.0
100
AcDbText
 10
13248.77747366447
 20
9230.013745883727
 30
0.0
 40
100.0
  1
12
  7
STYLE1
100
AcDbText
  0
TEXT
  5
17E74
330
747D
100
AcDbEntity
  8
文字
 62
     7
 48
50.0
100
AcDbText
 10
15022.63965474517
 20
11100.01374588372
 30
0.0
 40
100.0
  1
F12            1.2
  7
STYLE1
100
AcDbText
  0
TEXT
  5
17E75
330
747D
100
AcDbEntity
  8
文字
 62
     7
 48
50.0
100
AcDbText
 10
15022.63965474517
 20
10760.01374588372
 30
0.0
 40
100.0
  1
F12            1.0
  7
STYLE1
100
AcDbText
  0
TEXT
  5
17E76
330
747D
100
AcDbEntity
  8
文字
 62
     7
 48
50.0
100
AcDbText
 10
15022.63965474516
 20
10420.01374588372
 30
0.0
 40
100.0
  1
Y10            1.0
  7
STYLE1
100
AcDbText
  0
TEXT
  5
17E77
330
747D
100
AcDbEntity
  8
文字
 62
     7
 48
50.0
100
AcDbText
 10
15022.63965474516
 20
10250.01374588372
 30
0.0
 40
100.0
  1
Y10            1.0
  7
STYLE1
100
AcDbText
  0
TEXT
  5
17E78
330
747D
100
AcDbEntity
  8
文字
 62
     7
 48
50.0
100
AcDbText
 10
15022.63965474516
 20
10080.01374588372
 30
0.0
 40
100.0
  1
Y10            0.7
  7
STYLE1
100
AcDbText
  0
TEXT
  5
17E79
330
747D
100
AcDbEntity
  8
文字
 62
     7
 48
50.0
100
AcDbText
 10
15022.63965474516
 20
9910.013745883723
 30
0.0
 40
100.0
  1
Y10            0.7
  7
STYLE1
100
AcDbText
  0
TEXT
  5
17E7A
330
747D
100
AcDbEntity
  8
文字
 62
     7
 48
50.0
100
AcDbText
 10
15022.63965474517
 20
9400.013745883724
 30
0.0
 40
100.0
  1
Y10            0.5
  7
STYLE1
100
AcDbText
  0
TEXT
  5
17E7B
330
747D
100
AcDbEntity
  8
文字
 62
     7
 48
50.0
100
AcDbText
 10
15022.63965474515
 20
9230.013745883724
 30
0.0
 40
100.0
  1
F12            0.6
  7
STYLE1
100
AcDbText
  0
LINE
  5
17E7C
330
747D
100
AcDbEntity
  8
仕様書枠
 48
50.0
100
AcDbLine
 10
16307.19999999998
 20
8519.600000000002
 30
0.0
 11
13127.19999999999
 21
8519.600000000002
 31
0.0
  0
LINE
  5
17E7D
330
747D
100
AcDbEntity
  8
仕様書枠
 48
50.0
100
AcDbLine
 10
16307.19999999998
 20
8349.6
 30
0.0
 11
13127.19999999999
 21
8349.600000000002
 31
0.0
  0
TEXT
  5
17E7E
330
747D
100
AcDbEntity
  8
文字
 62
     7
 48
50.0
100
AcDbText
 10
13229.83081656553
 20
8380.013745883731
 30
0.0
 40
100.0
  1
F12→溶融亜鉛めっき鋼板(JIS G 3302)
  7
STYLE1
100
AcDbText
  0
TEXT
  5
17E7F
330
747D
100
AcDbEntity
  8
文字
 62
     7
 48
50.0
100
AcDbText
 10
13229.83081656553
 20
8210.013745883731
 30
0.0
 40
100.0
  1
Y10→溶融亜鉛-5％アルミニウム合金めっき鋼板(JIS G 3317)
 41
0.9
  7
STYLE1
100
AcDbText
  0
LINE
  5
17E80
330
747D
100
AcDbEntity
  8
仕様書枠
 48
50.0
100
AcDbLine
 10
13127.2
 20
11409.6
 30
0.0
 11
13127.19999999999
 21
8179.600000000002
 31
0.0
  0
LINE
  5
17E81
330
747D
100
AcDbEntity
  8
仕様書枠
 48
50.0
100
AcDbLine
 10
16307.19999999999
 20
8859.599999999998
 30
0.0
 11
13127.19999999999
 21
8859.6
 31
0.0
  0
TEXT
  5
17E82
330
747D
100
AcDbEntity
  8
文字
 62
     7
 48
50.0
100
AcDbText
 10
13583.11819016569
 20
10590.01374588372
 30
0.0
 40
100.0
  1
床パネル
 41
0.9
  7
STYLE1
100
AcDbText
  0
TEXT
  5
17E83
330
747D
100
AcDbEntity
  8
文字
 62
     7
 48
50.0
100
AcDbText
 10
13248.77747366447
 20
8890.013745883727
 30
0.0
 40
100.0
  1
14
  7
STYLE1
100
AcDbText
  0
TEXT
  5
17E84
330
747D
100
AcDbEntity
  8
文字
 62
     7
 48
50.0
100
AcDbText
 10
15022.63965474516
 20
10590.01374588372
 30
0.0
 40
100.0
  1
F12            1.0
  7
STYLE1
100
AcDbText
  0
TEXT
  5
17E85
330
747D
100
AcDbEntity
  8
文字
 62
     7
 48
50.0
100
AcDbText
 10
14269.60464131317
 20
483.8967129911416
 30
0.0
 40
160.0
  1
ＮＸＮ－３３ＣＳＬ－Ｎ
  7
STYLE2
100
AcDbText
  0
TEXT
  5
17E86
330
747D
100
AcDbEntity
  8
文字
 62
     7
 48
50.0
100
AcDbText
 10
15022.63965474514
 20
9060.013745883724
 30
0.0
 40
100.0
  1
F12            0.7
  7
STYLE1
100
AcDbText
  0
TEXT
  5
17E87
330
747D
100
AcDbEntity
  8
文字
 62
     7
 48
50.0
100
AcDbText
 10
13583.11819016567
 20
9060.013745883727
 30
0.0
 40
100.0
  1
正面パネル
  7
STYLE1
100
AcDbText
  0
TEXT
  5
17E88
330
747D
100
AcDbEntity
  8
文字
 62
     7
 48
50.0
100
AcDbText
 10
15022.63965474515
 20
8890.013745883724
 30
0.0
 40
100.0
  1
F12            0.8
  7
STYLE1
100
AcDbText
  0
TEXT
  5
17E89
330
747D
100
AcDbEntity
  8
文字
 62
     7
 48
50.0
100
AcDbText
 10
13583.11819016568
 20
8890.013745883727
 30
0.0
 40
100.0
  1
扉
  7
STYLE1
100
AcDbText
  0
TEXT
  5
17E8A
330
747D
100
AcDbEntity
  8
文字
 62
     7
 48
50.0
100
AcDbText
 10
15022.63965474515
 20
8720.013745883726
 30
0.0
 40
100.0
  1
F12            0.6
  7
STYLE1
100
AcDbText
  0
TEXT
  5
17E8B
330
747D
100
AcDbEntity
  8
文字
 62
     7
 48
50.0
100
AcDbText
 10
13583.11819016568
 20
8720.013745883729
 30
0.0
 40
100.0
  1
棚板
  7
STYLE1
100
AcDbText
  0
TEXT
  5
17E8C
330
747D
100
AcDbEntity
  8
文字
 62
     7
 48
50.0
100
AcDbText
 10
13583.11819016569
 20
9570.013745883725
 30
0.0
 40
100.0
  1
母屋中
  7
STYLE1
100
AcDbText
  0
TEXT
  5
17E8D
330
747D
100
AcDbEntity
  8
文字
 62
     7
 48
50.0
100
AcDbText
 10
15022.63965474516
 20
9570.013745883723
 30
0.0
 40
100.0
  1
F12            1.0
  7
STYLE1
100
AcDbText
  0
LINE
  5
17ED7
330
747D
100
AcDbEntity
  8
仕様書枠
 48
50.0
100
AcDbLine
 10
16307.19999999998
 20
8179.6
 30
0.0
 11
13127.19999999999
 21
8179.600000000002
 31
0.0
  0
TEXT
  5
17ED8
330
747D
100
AcDbEntity
  8
文字
 62
     7
 48
50.0
100
AcDbText
 10
13248.77747366448
 20
8550.013745883729
 30
0.0
 40
100.0
  1
16
  7
STYLE1
100
AcDbText
  0
TEXT
  5
17ED9
330
747D
100
AcDbEntity
  8
文字
 62
     7
 48
50.0
100
AcDbText
 10
13583.11819016569
 20
10930.01374588372
 30
0.0
 40
100.0
  1
根太
  7
STYLE1
100
AcDbText
  0
TEXT
  5
17EDA
330
747D
100
AcDbEntity
  8
文字
 62
     7
 48
50.0
100
AcDbText
 10
15022.63965474516
 20
10930.01374588372
 30
0.0
 40
100.0
  1
F12            1.2
  7
STYLE1
100
AcDbText
  0
LINE
  5
17EE3
330
747D
100
AcDbEntity
  8
部品1
100
AcDbLine
 10
12144.435679302
 20
2200.887745410847
 30
0.0
 11
11380.96501307356
 21
2200.887745410847
 31
0.0
  0
LINE
  5
17EE4
330
747D
100
AcDbEntity
  8
部品1
100
AcDbLine
 10
12144.435679302
 20
1960.995423865314
 30
0.0
 11
12144.435679302
 21
2200.887745410847
 31
0.0
  0
LINE
  5
17EE5
330
747D
100
AcDbEntity
  8
部品1
100
AcDbLine
 10
11380.96501307356
 20
1960.995423865314
 30
0.0
 11
12144.435679302
 21
1960.995423865314
 31
0.0
  0
LINE
  5
17EE6
330
747D
100
AcDbEntity
  8
部品1
100
AcDbLine
 10
11380.96501307356
 20
2200.887745410847
 30
0.0
 11
11380.96501307356
 21
1960.995423865314
 31
0.0
  0
LINE
  5
17EE7
330
747D
100
AcDbEntity
  8
部品1
100
AcDbLine
 10
6490.778505414785
 20
2200.88774541085
 30
0.0
 11
5727.307839186344
 21
2200.88774541085
 31
0.0
  0
LINE
  5
17EE8
330
747D
100
AcDbEntity
  8
部品1
100
AcDbLine
 10
6490.778505414785
 20
1960.995423865317
 30
0.0
 11
6490.778505414785
 21
2200.88774541085
 31
0.0
  0
LINE
  5
17EE9
330
747D
100
AcDbEntity
  8
部品1
100
AcDbLine
 10
5727.307839186344
 20
1960.995423865317
 30
0.0
 11
6490.778505414785
 21
1960.995423865317
 31
0.0
  0
LINE
  5
17EEA
330
747D
100
AcDbEntity
  8
部品1
100
AcDbLine
 10
5727.307839186344
 20
2200.88774541085
 30
0.0
 11
5727.307839186344
 21
1960.995423865317
 31
0.0
  0
TEXT
  5
17EF2
330
747D
100
AcDbEntity
  8
文字
 62
     7
 48
50.0
100
AcDbText
 10
13209.4053442172
 20
228.5435242569015
 30
0.0
 40
100.0
  1
○有効開口寸法 ： 824×1770(mm)
  7
STYLE2
100
AcDbText
  0
LINE
  5
17EFA
330
747D
100
AcDbEntity
  8
部品1
100
AcDbLine
 10
5391.902964380297
 20
2773.392568482512
 30
0.0
 11
5391.902964380299
 21
2731.392568482498
 31
0.0
  0
LINE
  5
17EFB
330
747D
100
AcDbEntity
  8
部品1
100
AcDbLine
 10
6921.902964380297
 20
2773.392568482512
 30
0.0
 11
6921.902964380298
 21
2731.392568482498
 31
0.0
  0
LINE
  5
17F6B
330
747D
100
AcDbEntity
  8
部品1
100
AcDbLine
 10
4538.812983416528
 20
4571.392568482496
 30
0.0
 11
8451.902964380296
 21
4571.392568482496
 31
0.0
  0
LINE
  5
17F6C
330
747D
100
AcDbEntity
  8
部品1
100
AcDbLine
 10
4855.848894730346
 20
2773.392568482505
 30
0.0
 11
8451.902964380296
 21
2773.392568482517
 31
0.0
  0
LINE
  5
17F6D
330
747D
100
AcDbEntity
  8
部品1
100
AcDbLine
 10
4863.254627920103
 20
2731.392568482498
 30
0.0
 11
8451.902964380296
 21
2731.392568482498
 31
0.0
  0
LINE
  5
17F6E
330
747D
100
AcDbEntity
  8
Ｇ．Ｌ
100
AcDbLine
 10
4880.887325990949
 20
2631.392568482497
 30
0.0
 11
13582.69547623573
 21
2631.392568482497
 31
0.0
  0
LINE
  5
17F6F
330
747D
100
AcDbEntity
  8
寸法
 48
50.0
100
AcDbLine
 10
4668.435360983063
 20
3663.504420679472
 30
0.0
 11
4874.680177989527
 21
2493.831939600339
 31
0.0
  0
LINE
  5
17F70
330
747D
100
AcDbEntity
  8
寸法
 48
50.0
100
AcDbLine
 10
4693.982245579315
 20
3691.383953015195
 30
0.0
 11
4495.508235401014
 21
3708.748178910326
 31
0.0
  0
LINE
  5
17F71
330
747D
100
AcDbEntity
  8
寸法
 48
50.0
100
AcDbLine
 10
4668.435360983063
 20
3663.504420679472
 30
0.0
 11
4381.358086293306
 21
3688.620427770744
 31
0.0
  0
LINE
  5
17F72
330
747D
100
AcDbEntity
  8
寸法
 48
50.0
100
AcDbLine
 10
4693.982245579315
 20
3691.383953015195
 30
0.0
 11
4905.142976346098
 21
2493.831939600339
 31
0.0
  0
LINE
  5
17F73
330
747D
100
AcDbEntity
  8
寸法
 48
50.0
100
AcDbLine
 10
4823.09795032242
 20
3894.607109279867
 30
0.0
 11
4381.358086293306
 21
3688.620427770744
 31
0.0
  0
LINE
  5
17F74
330
747D
100
AcDbEntity
  8
寸法
 48
50.0
100
AcDbLine
 10
4624.62394014412
 20
3911.971335174998
 30
0.0
 11
4823.09795032242
 21
3894.607109279867
 31
0.0
  0
LINE
  5
17F75
330
747D
100
AcDbEntity
  8
寸法
 48
50.0
100
AcDbLine
 10
4937.248099430126
 20
3914.734860419449
 30
0.0
 11
4495.508235401014
 21
3708.748178910326
 31
0.0
  0
LINE
  5
17F76
330
747D
100
AcDbEntity
  8
寸法
 48
50.0
100
AcDbLine
 10
4650.17082474037
 20
3939.850867510721
 30
0.0
 11
4937.248099430126
 21
3914.734860419449
 31
0.0
  0
LINE
  5
17F77
330
747D
100
AcDbEntity
  8
寸法
 48
50.0
100
AcDbLine
 10
4486.362336087228
 20
4868.854971108343
 30
0.0
 11
4650.170824740371
 21
3939.850867510719
 31
0.0
  0
LINE
  5
17F78
330
747D
100
AcDbEntity
  8
寸法
 48
50.0
100
AcDbLine
 10
4455.899537730654
 20
4868.854971108343
 30
0.0
 11
4624.62394014412
 21
3911.971335174998
 31
0.0
  0
LINE
  5
17FBE
330
747D
100
AcDbEntity
  8
細線
 48
50.0
100
AcDbLine
 10
6911.902964380295
 20
4665.392568482501
 30
0.0
 11
6911.902964380295
 21
4806.39256848249
 31
0.0
  0
LINE
  5
17FBF
330
747D
100
AcDbEntity
  8
細線
 48
50.0
100
AcDbLine
 10
6921.902964380295
 20
4571.392568482496
 30
0.0
 11
6921.902964380298
 21
4665.392568482502
 31
0.0
  0
LINE
  5
17FC0
330
747D
100
AcDbEntity
  8
細線
 48
50.0
100
AcDbLine
 10
5381.902964380294
 20
4665.392568482501
 30
0.0
 11
5381.902964380294
 21
4806.392568482495
 31
0.0
  0
LINE
  5
17FC1
330
747D
100
AcDbEntity
  8
細線
 48
50.0
100
AcDbLine
 10
5391.902964380295
 20
4571.392568482496
 30
0.0
 11
5391.902964380297
 21
4665.392568482502
 31
0.0
  0
LINE
  5
17FC2
330
747D
100
AcDbEntity
  8
部品1
100
AcDbLine
 10
5331.902964380297
 20
4571.392568482496
 30
0.0
 11
5331.902964380297
 21
2773.392568482501
 31
0.0
  0
LINE
  5
17FC3
330
747D
100
AcDbEntity
  8
部品1
100
AcDbLine
 10
6861.902964380298
 20
4571.392568482496
 30
0.0
 11
6861.902964380298
 21
2773.392568482501
 31
0.0
  0
LINE
  5
17FC4
330
747D
100
AcDbEntity
  8
部品1
100
AcDbLine
 10
5451.902964380297
 20
4571.392568482496
 30
0.0
 11
5451.902964380297
 21
2773.392568482501
 31
0.0
  0
LINE
  5
17FC5
330
747D
100
AcDbEntity
  8
部品1
100
AcDbLine
 10
6981.902964380298
 20
4571.392568482496
 30
0.0
 11
6981.902964380298
 21
2773.392568482501
 31
0.0
  0
LINE
  5
17FD0
330
747D
100
AcDbEntity
  8
部品1
100
AcDbLine
 10
3861.902964380299
 20
2773.392568482501
 30
0.0
 11
4825.386096373773
 21
2773.392568482503
 31
0.0
  0
TEXT
  5
17FD1
330
747D
100
AcDbEntity
  8
部品1
100
AcDbText
 10
11470.41111449717
 20
2007.994216192324
 30
0.0
 40
135.0
  1
側面図
  7
STYLE2
100
AcDbText
  0
TEXT
  5
17FD2
330
747D
100
AcDbEntity
  8
部品1
100
AcDbText
 10
5817.8332429243
 20
2007.994216192326
 30
0.0
 40
135.0
  1
正面図
  7
STYLE2
100
AcDbText
  0
LINE
  5
18002
330
747D
100
AcDbEntity
  8
部品1
100
AcDbLine
 10
8451.902964380296
 20
4665.392568482501
 30
0.0
 11
8451.902964380296
 21
2631.392568482497
 31
0.0
  0
LINE
  5
18003
330
747D
100
AcDbEntity
  8
部品1
100
AcDbLine
 10
3921.902964380299
 20
4571.392568482496
 30
0.0
 11
3921.902964380299
 21
2773.392568482501
 31
0.0
  0
LINE
  5
18004
330
747D
100
AcDbEntity
  8
部品1
100
AcDbLine
 10
8391.902964380298
 20
4571.392568482496
 30
0.0
 11
8391.902964380298
 21
2773.392568482517
 31
0.0
  0
LINE
  5
18005
330
747D
100
AcDbEntity
  8
部品1
100
AcDbLine
 10
3861.902964380295
 20
4665.392568482501
 30
0.0
 11
3861.902964380299
 21
2631.392568482497
 31
0.0
  0
LINE
  5
18006
330
747D
100
AcDbEntity
  8
部品1
100
AcDbLine
 10
3861.902964380299
 20
4571.392568482496
 30
0.0
 11
4508.350185059955
 21
4571.392568482496
 31
0.0
  0
LINE
  5
18007
330
747D
100
AcDbEntity
  8
部品1
100
AcDbLine
 10
3861.902964380299
 20
2731.392568482498
 30
0.0
 11
4832.79182956353
 21
2731.392568482496
 31
0.0
  0
LINE
  5
18008
330
747D
100
AcDbEntity
  8
部品1
100
AcDbLine
 10
3245.300327424162
 20
2761.296379050162
 30
0.0
 11
3170.300327424162
 21
2631.392568482497
 31
0.0
  0
TEXT
  5
18009
330
747D
100
AcDbEntity
  8
部品1
100
AcDbText
 10
3273.405269548935
 20
2667.499472088399
 30
0.0
 40
125.0
  1
G.L
  7
STYLE2
100
AcDbText
  0
LINE
  5
1800A
330
747D
100
AcDbEntity
  8
部品1
100
AcDbLine
 10
3170.300327424162
 20
2631.392568482497
 30
0.0
 11
3095.300327424162
 21
2761.296379050162
 31
0.0
  0
LINE
  5
1800B
330
747D
100
AcDbEntity
  8
部品1
100
AcDbLine
 10
3095.300327424162
 20
2761.296379050162
 30
0.0
 11
3245.300327424162
 21
2761.296379050162
 31
0.0
  0
LINE
  5
1800C
330
747D
100
AcDbEntity
  8
Ｇ．Ｌ
100
AcDbLine
 10
2995.803316100062
 20
2631.392568482497
 30
0.0
 11
4850.424527634377
 21
2631.392568482497
 31
0.0
  0
DIMENSION
  5
18820
330
747D
100
AcDbEntity
  8
寸法
 48
50.0
100
AcDbDimension
  2
*D6
 10
10027.09193941941
 20
4680.737827355829
 30
0.0
 11
10037.75741467834
 21
5051.584490597527
 31
0.0
 70
   161
 71
     5
 42
140.9999999999991
  3
INABA_S40G
100
AcDbAlignedDimension
 13
10607.09636634636
 23
4805.115317317177
 33
0.0
 14
10603.04291078973
 24
4664.173593551464
 34
0.0
1001
ACAD
1000
DSTYLE
1002
{
1070
   174
1070
     0
1070
   272
1070
     1
1070
   288
1070
     0
1070
   341
1005
0
1002
}
  0
LINE
  5
18821
330
747D
100
AcDbEntity
  8
細線
 48
50.0
100
AcDbLine
 10
12725.20034618779
 20
4571.392568482496
 30
0.0
 11
12725.20034618779
 21
2781.392568482497
 31
0.0
  0
LINE
  5
18822
330
747D
100
AcDbEntity
  8
細線
 48
50.0
100
AcDbLine
 10
12740.20034618778
 20
4571.392568482496
 30
0.0
 11
12740.20034618778
 21
2781.392568482497
 31
0.0
  0
LINE
  5
18823
330
747D
100
AcDbEntity
  8
細線
 48
50.0
100
AcDbLine
 10
12600.20034618778
 20
4571.392568482496
 30
0.0
 11
12600.20034618778
 21
2781.392568482497
 31
0.0
  0
LINE
  5
18824
330
747D
100
AcDbEntity
  8
細線
 48
50.0
100
AcDbLine
 10
12585.20034618779
 20
4571.392568482496
 30
0.0
 11
12585.20034618779
 21
2781.392568482497
 31
0.0
  0
LINE
  5
18825
330
747D
100
AcDbEntity
  8
細線
 48
50.0
100
AcDbLine
 10
12445.20034618779
 20
4571.392568482496
 30
0.0
 11
12445.20034618779
 21
2781.392568482497
 31
0.0
  0
LINE
  5
18826
330
747D
100
AcDbEntity
  8
細線
 48
50.0
100
AcDbLine
 10
12460.20034618778
 20
4571.392568482496
 30
0.0
 11
12460.20034618778
 21
2781.392568482497
 31
0.0
  0
LINE
  5
18827
330
747D
100
AcDbEntity
  8
部品1
100
AcDbLine
 10
11962.70034618778
 20
4571.392568482496
 30
0.0
 11
11962.70034618778
 21
2781.392568482497
 31
0.0
  0
LINE
  5
18828
330
747D
100
AcDbEntity
  8
細線
 48
50.0
100
AcDbLine
 10
11620.20034618778
 20
4571.392568482496
 30
0.0
 11
11620.20034618778
 21
2781.392568482497
 31
0.0
  0
LINE
  5
18829
330
747D
100
AcDbEntity
  8
細線
 48
50.0
100
AcDbLine
 10
11605.20034618778
 20
4571.392568482496
 30
0.0
 11
11605.20034618778
 21
2781.392568482497
 31
0.0
  0
LINE
  5
1882A
330
747D
100
AcDbEntity
  8
細線
 48
50.0
100
AcDbLine
 10
11745.20034618778
 20
4571.392568482496
 30
0.0
 11
11745.20034618778
 21
2781.392568482497
 31
0.0
  0
LINE
  5
1882B
330
747D
100
AcDbEntity
  8
細線
 48
50.0
100
AcDbLine
 10
11760.20034618778
 20
4571.392568482496
 30
0.0
 11
11760.20034618778
 21
2781.392568482497
 31
0.0
  0
LINE
  5
1882C
330
747D
100
AcDbEntity
  8
細線
 48
50.0
100
AcDbLine
 10
11900.20034618778
 20
4571.392568482496
 30
0.0
 11
11900.20034618778
 21
2781.392568482497
 31
0.0
  0
LINE
  5
1882D
330
747D
100
AcDbEntity
  8
細線
 48
50.0
100
AcDbLine
 10
11885.20034618778
 20
4571.392568482496
 30
0.0
 11
11885.20034618778
 21
2781.392568482497
 31
0.0
  0
LINE
  5
1882E
330
747D
100
AcDbEntity
  8
部品1
100
AcDbLine
 10
11542.70034618778
 20
4571.392568482496
 30
0.0
 11
11542.70034618778
 21
2781.392568482497
 31
0.0
  0
DIMENSION
  5
1882F
330
747D
100
AcDbEntity
  8
寸法
 48
50.0
100
AcDbDimension
  2
*D7
 10
12937.70034618778
 20
5205.050022061801
 30
0.0
 11
13143.74759028227
 21
5205.050022061801
 31
0.0
 70
   160
 71
     5
 42
80.0
  3
INABA_S40G
100
AcDbAlignedDimension
 13
12857.70034618778
 23
4753.203248094151
 33
0.0
 14
12937.70034618778
 24
4751.392568482497
 34
0.0
100
AcDbRotatedDimension
1001
ACAD
1000
DSTYLE
1002
{
1070
   174
1070
     0
1070
   272
1070
     1
1070
   288
1070
     0
1070
   341
1005
0
1002
}
  0
LINE
  5
18830
330
747D
100
AcDbEntity
  8
細線
 48
50.0
100
AcDbLine
 10
10780.20034618778
 20
4571.392568482496
 30
0.0
 11
10780.20034618778
 21
2781.392568482497
 31
0.0
  0
LINE
  5
18831
330
747D
100
AcDbEntity
  8
細線
 48
50.0
100
AcDbLine
 10
10765.20034618778
 20
4571.392568482496
 30
0.0
 11
10765.20034618778
 21
2781.392568482497
 31
0.0
  0
LINE
  5
18832
330
747D
100
AcDbEntity
  8
細線
 48
50.0
100
AcDbLine
 10
10905.20034618778
 20
4571.392568482496
 30
0.0
 11
10905.20034618778
 21
2781.392568482497
 31
0.0
  0
LINE
  5
18833
330
747D
100
AcDbEntity
  8
細線
 48
50.0
100
AcDbLine
 10
10920.20034618778
 20
4571.392568482496
 30
0.0
 11
10920.20034618778
 21
2781.392568482497
 31
0.0
  0
LINE
  5
18834
330
747D
100
AcDbEntity
  8
細線
 48
50.0
100
AcDbLine
 10
11060.20034618778
 20
4571.392568482496
 30
0.0
 11
11060.20034618778
 21
2781.392568482497
 31
0.0
  0
LINE
  5
18835
330
747D
100
AcDbEntity
  8
細線
 48
50.0
100
AcDbLine
 10
11045.20034618778
 20
4571.392568482496
 30
0.0
 11
11045.20034618778
 21
2781.392568482497
 31
0.0
  0
LINE
  5
18836
330
747D
100
AcDbEntity
  8
細線
 48
50.0
100
AcDbLine
 10
11465.20034618778
 20
4571.392568482496
 30
0.0
 11
11465.20034618778
 21
2781.392568482497
 31
0.0
  0
LINE
  5
18837
330
747D
100
AcDbEntity
  8
細線
 48
50.0
100
AcDbLine
 10
11480.20034618778
 20
4571.392568482496
 30
0.0
 11
11480.20034618778
 21
2781.392568482497
 31
0.0
  0
LINE
  5
18838
330
747D
100
AcDbEntity
  8
細線
 48
50.0
100
AcDbLine
 10
11340.20034618778
 20
4571.392568482496
 30
0.0
 11
11340.20034618778
 21
2781.392568482497
 31
0.0
  0
LINE
  5
18839
330
747D
100
AcDbEntity
  8
細線
 48
50.0
100
AcDbLine
 10
11325.20034618778
 20
4571.392568482496
 30
0.0
 11
11325.20034618778
 21
2781.392568482497
 31
0.0
  0
LINE
  5
1883A
330
747D
100
AcDbEntity
  8
細線
 48
50.0
100
AcDbLine
 10
11185.20034618778
 20
4571.392568482496
 30
0.0
 11
11185.20034618778
 21
2781.392568482497
 31
0.0
  0
LINE
  5
1883B
330
747D
100
AcDbEntity
  8
細線
 48
50.0
100
AcDbLine
 10
11200.20034618778
 20
4571.392568482496
 30
0.0
 11
11200.20034618778
 21
2781.392568482497
 31
0.0
  0
LINE
  5
1883E
330
747D
100
AcDbEntity
  8
部品1
100
AcDbLine
 10
10647.70034618778
 20
2731.392568482498
 30
0.0
 11
12857.70034618778
 21
2731.392568482498
 31
0.0
  0
DIMENSION
  5
18858
330
747D
100
AcDbEntity
  8
寸法
 48
50.0
100
AcDbDimension
  2
*D8
 10
10587.70034618778
 20
5424.251855736093
 30
0.0
 11
11822.04420028025
 21
5424.251855736093
 31
0.0
 70
   160
 71
     5
 42
2350.0
  3
INABA_S40G
100
AcDbAlignedDimension
 13
12937.70034618778
 23
4751.392568482497
 33
0.0
 14
10587.70034618778
 24
4806.3925684825
 34
0.0
100
AcDbRotatedDimension
1001
ACAD
1000
DSTYLE
1002
{
1070
   174
1070
     0
1070
   272
1070
     1
1070
   288
1070
     0
1070
   341
1005
0
1002
}
  0
DIMENSION
  5
18859
330
747D
100
AcDbEntity
  8
寸法
 48
50.0
100
AcDbDimension
  2
*D9
 10
10587.70034618778
 20
5205.050022061801
 30
0.0
 11
10278.06255091219
 21
5205.050022061801
 31
0.0
 70
   160
 71
     5
 42
60.0
  3
INABA_S40G
100
AcDbAlignedDimension
 13
10647.70034618778
 23
4802.394186605474
 33
0.0
 14
10587.70034618778
 24
4806.3925684825
 34
0.0
100
AcDbRotatedDimension
1001
ACAD
1000
DSTYLE
1002
{
1070
   174
1070
     0
1070
   272
1070
     1
1070
   288
1070
     0
1070
   341
1005
0
1002
}
  0
DIMENSION
  5
1885A
330
747D
100
AcDbEntity
  8
寸法
 48
50.0
100
AcDbDimension
  2
*D10
 10
10647.70034618778
 20
5205.050022061801
 30
0.0
 11
11742.34508325829
 21
5205.050022061801
 31
0.0
 70
   160
  1
柱外寸法<>
 71
     5
 42
2210.0
  3
INABA_S40G
100
AcDbAlignedDimension
 13
12857.70034618778
 23
4753.203248094151
 33
0.0
 14
10647.70034618778
 24
4802.394186605474
 34
0.0
100
AcDbRotatedDimension
1001
ACAD
1000
DSTYLE
1002
{
1070
   174
1070
     0
1070
   272
1070
     1
1070
   288
1070
     0
1070
   341
1005
0
1002
}
  0
DIMENSION
  5
1885D
330
747D
100
AcDbEntity
  8
寸法
100
AcDbDimension
  2
*D11
 10
13366.45984182534
 20
4751.392568482497
 30
0.0
 11
13366.45984182534
 21
3752.799285555989
 31
0.0
 70
   160
 71
     5
 42
2020.000000000001
  3
INABA_S40G
100
AcDbAlignedDimension
 13
12857.70034618778
 23
2731.392568482497
 33
0.0
 14
12937.70034618778
 24
4751.392568482497
 34
0.0
 50
90.0
100
AcDbRotatedDimension
1001
ACAD
1000
DSTYLE
1002
{
1070
   174
1070
     0
1070
   272
1070
     1
1070
   288
1070
     0
1070
   341
1005
0
1002
}
  0
LINE
  5
1885E
330
747D
100
AcDbEntity
  8
部品1
100
AcDbLine
 10
12802.70034618778
 20
4571.392568482496
 30
0.0
 11
12802.70034618778
 21
2781.392568482497
 31
0.0
  0
LINE
  5
1885F
330
747D
100
AcDbEntity
  8
部品1
100
AcDbLine
 10
12857.70034618778
 20
4626.069006113719
 30
0.0
 11
12857.70034618778
 21
2631.392568482497
 31
0.0
  0
LINE
  5
18860
330
747D
100
AcDbEntity
  8
部品1
100
AcDbLine
 10
11122.70034618778
 20
4571.392568482496
 30
0.0
 11
11122.70034618778
 21
2781.392568482497
 31
0.0
  0
DIMENSION
  5
18861
330
747D
100
AcDbEntity
  8
寸法
100
AcDbDimension
  2
*D12
 10
9803.950217004519
 20
2731.392568482497
 30
0.0
 11
9803.950217004519
 21
2425.345324388008
 31
0.0
 70
   160
 71
     5
 42
50.0
  3
INABA_S40G
100
AcDbAlignedDimension
 13
10647.70034618778
 23
2781.392568482497
 33
0.0
 14
10592.70034618778
 24
2731.392568482497
 34
0.0
 50
90.0
100
AcDbRotatedDimension
1001
ACAD
1000
DSTYLE
1002
{
1070
   174
1070
     0
1070
   272
1070
     1
1070
   288
1070
     0
1070
   341
1005
0
1002
}
  0
DIMENSION
  5
18863
330
747D
100
AcDbEntity
  8
寸法
100
AcDbDimension
  2
*D13
 10
9503.95021700452
 20
4806.392568482501
 30
0.0
 11
9403.938405980897
 21
3768.892568482501
 31
0.0
 70
    32
 71
     5
 42
2075.000000000005
  3
INABA_S40G
100
AcDbAlignedDimension
 13
10647.70034618778
 23
2731.392568482497
 33
0.0
 14
10587.70034618778
 24
4806.3925684825
 34
0.0
 50
90.0
100
AcDbRotatedDimension
1001
ACAD
1000
DSTYLE
1002
{
1070
   174
1070
     0
1070
   272
1070
     1
1070
   288
1070
     0
1070
   341
1005
0
1002
}
  0
DIMENSION
  5
18864
330
747D
100
AcDbEntity
  8
寸法
100
AcDbDimension
  2
*D14
 10
9803.950217004519
 20
2781.392568482497
 30
0.0
 11
9703.950217004519
 21
3676.392568482499
 31
0.0
 70
    32
 71
     5
 42
1790.000000000001
  3
INABA_S40G
100
AcDbAlignedDimension
 13
10647.70034618778
 23
4571.392568482496
 33
0.0
 14
10647.70034618778
 24
2781.392568482497
 34
0.0
 50
90.0
100
AcDbRotatedDimension
1001
ACAD
1000
DSTYLE
1002
{
1070
   174
1070
     0
1070
   272
1070
     1
1070
   288
1070
     0
1070
   341
1005
0
1002
}
  0
DIMENSION
  5
18865
330
747D
100
AcDbEntity
  8
寸法
100
AcDbDimension
  2
*D15
 10
10102.79170479052
 20
2793.392568482497
 30
0.0
 11
10002.79170479052
 21
3678.392568482499
 31
0.0
 70
    32
  1
有効開口部高サ<>
 71
     5
 42
1770.000000000001
  3
INABA_S40G
100
AcDbAlignedDimension
 13
10647.70034618778
 23
4563.392568482497
 33
0.0
 14
10647.70034618778
 24
2793.392568482497
 34
0.0
 50
90.0
100
AcDbRotatedDimension
1001
ACAD
1000
DSTYLE
1002
{
1070
   174
1070
     0
1070
   272
1070
     1
1070
   288
1070
     0
1070
   341
1005
0
1002
}
  0
LINE
  5
18866
330
747D
100
AcDbEntity
  8
部品1
100
AcDbLine
 10
10647.70034618778
 20
4663.251087924744
 30
0.0
 11
10647.70034618778
 21
2631.392568482497
 31
0.0
  0
LINE
  5
18867
330
747D
100
AcDbEntity
  8
部品1
100
AcDbLine
 10
10702.70034618778
 20
4571.392568482496
 30
0.0
 11
10702.70034618778
 21
2781.392568482497
 31
0.0
  0
LINE
  5
18869
330
747D
100
AcDbEntity
  8
部品1
100
AcDbLine
 10
10647.70034618778
 20
2781.392568482497
 30
0.0
 11
12857.70034618778
 21
2781.392568482497
 31
0.0
  0
LINE
  5
1886A
330
747D
100
AcDbEntity
  8
部品1
100
AcDbLine
 10
10647.70034618778
 20
4571.392568482496
 30
0.0
 11
12857.70034618778
 21
4571.392568482496
 31
0.0
  0
LINE
  5
1886B
330
747D
100
AcDbEntity
  8
部品1
100
AcDbLine
 10
12382.70034618778
 20
4571.392568482496
 30
0.0
 11
12382.70034618778
 21
2781.392568482497
 31
0.0
  0
LINE
  5
1886C
330
747D
100
AcDbEntity
  8
細線
 48
50.0
100
AcDbLine
 10
12305.20034618778
 20
4571.392568482496
 30
0.0
 11
12305.20034618778
 21
2781.392568482497
 31
0.0
  0
LINE
  5
1886D
330
747D
100
AcDbEntity
  8
細線
 48
50.0
100
AcDbLine
 10
12320.20034618778
 20
4571.392568482496
 30
0.0
 11
12320.20034618778
 21
2781.392568482497
 31
0.0
  0
LINE
  5
1886E
330
747D
100
AcDbEntity
  8
細線
 48
50.0
100
AcDbLine
 10
12180.20034618778
 20
4571.392568482496
 30
0.0
 11
12180.20034618778
 21
2781.392568482497
 31
0.0
  0
LINE
  5
1886F
330
747D
100
AcDbEntity
  8
細線
 48
50.0
100
AcDbLine
 10
12165.20034618778
 20
4571.392568482496
 30
0.0
 11
12165.20034618778
 21
2781.392568482497
 31
0.0
  0
LINE
  5
18870
330
747D
100
AcDbEntity
  8
細線
 48
50.0
100
AcDbLine
 10
12025.20034618778
 20
4571.392568482496
 30
0.0
 11
12025.20034618778
 21
2781.392568482497
 31
0.0
  0
LINE
  5
18871
330
747D
100
AcDbEntity
  8
細線
 48
50.0
100
AcDbLine
 10
12040.20034618778
 20
4571.392568482496
 30
0.0
 11
12040.20034618778
 21
2781.392568482497
 31
0.0
  0
TEXT
  5
18872
330
747D
100
AcDbEntity
  8
部品1
 48
50.0
100
AcDbText
 10
12068.60120407659
 20
4835.207755757758
 30
0.0
 40
120.0
  1
44
 50
90.0
  7
STYLE1
100
AcDbText
  0
TEXT
  5
18873
330
747D
100
AcDbEntity
  8
部品1
 48
50.0
100
AcDbText
 10
11590.9681814115
 20
4972.70901397604
 30
0.0
 40
120.0
  1
1000
  7
STYLE1
100
AcDbText
  0
LINE
  5
18874
330
747D
100
AcDbEntity
  8
部品1
 48
50.0
100
AcDbLine
 10
11902.70034618778
 20
4936.824991823607
 30
0.0
 11
11902.70034618778
 21
4920.624991823608
 31
0.0
  0
LINE
  5
18875
330
747D
100
AcDbEntity
  8
部品1
 48
50.0
100
AcDbLine
 10
11602.70034618778
 20
4936.824991823607
 30
0.0
 11
11902.70034618778
 21
4936.824991823607
 31
0.0
  0
LINE
  5
18876
330
747D
100
AcDbEntity
  8
部品1
100
AcDbLine
 10
10595.24533254474
 20
4805.110303816764
 30
0.0
 11
12930.31222304924
 21
4750.033366191636
 31
0.0
  0
LINE
  5
18877
330
747D
100
AcDbEntity
  8
部品1
100
AcDbLine
 10
10603.04291078973
 20
4664.173593551464
 30
0.0
 11
12912.36404672762
 21
4625.145168317258
 31
0.0
  0
LINE
  5
18878
330
747D
100
AcDbEntity
  8
細線
 48
50.0
100
AcDbLine
 10
10620.70034618778
 20
4803.792244857901
 30
0.0
 11
10615.41124463227
 21
4663.706612230547
 31
0.0
  0
LINE
  5
18879
330
747D
100
AcDbEntity
  8
細線
 48
50.0
100
AcDbLine
 10
12904.70034618778
 20
4751.359547517793
 30
0.0
 11
12899.95266329978
 21
4625.613775027048
 31
0.0
  0
LINE
  5
1887A
330
747D
100
AcDbEntity
  8
部品1
 48
50.0
100
AcDbLine
 10
10587.88463210088
 20
4797.98611464719
 30
0.0
 11
10588.2648918787
 21
4778.059150200777
 31
0.0
  0
LINE
  5
1887B
330
747D
100
AcDbEntity
  8
部品1
 48
50.0
100
AcDbLine
 10
10591.33366398494
 20
4774.483868707306
 30
0.0
 11
10593.03756547631
 21
4685.193372000658
 31
0.0
  0
LINE
  5
1887C
330
747D
100
AcDbEntity
  8
細線
 48
50.0
100
AcDbLine
 10
10588.73976928859
 20
4777.409650323858
 30
0.0
 11
12934.37575403376
 21
4721.78544568303
 31
0.0
  0
LINE
  5
1887D
330
747D
100
AcDbEntity
  8
細線
 48
50.0
100
AcDbLine
 10
10593.50024452588
 20
4684.548138625994
 30
0.0
 11
12923.50390895652
 21
4644.738819651502
 31
0.0
  0
LINE
  5
1887E
330
747D
100
AcDbEntity
  8
部品1
 48
50.0
100
AcDbLine
 10
10596.10633758255
 20
4681.618090507186
 30
0.0
 11
10596.30829020298
 21
4671.035055114095
 31
0.0
  0
ARC
  5
1887F
330
747D
100
AcDbEntity
  8
部品1
 48
50.0
100
AcDbCircle
 10
10594.88335792922
 20
4798.119669054616
 30
0.0
 40
7.0
100
AcDbArc
 50
87.03587545293501
 51
181.0932240292895
  0
ARC
  5
18880
330
747D
100
AcDbEntity
  8
部品1
 48
50.0
100
AcDbCircle
 10
10603.30701603132
 20
4671.168609521522
 30
0.0
 40
7.0
100
AcDbArc
 50
181.0932240292895
 51
267.8377559870533
  0
ARC
  5
18881
330
747D
100
AcDbEntity
  8
部品1
100
AcDbCircle
 10
10593.10688365612
 20
4681.560852904004
 30
0.0
 40
3.0
100
AcDbArc
 50
1.093224029289586
 51
80.18775403159162
  0
ARC
  5
18882
330
747D
100
AcDbEntity
  8
部品1
100
AcDbCircle
 10
10588.33421005851
 20
4774.426631104122
 30
0.0
 40
3.0
100
AcDbArc
 50
1.093224029289586
 51
80.18775403159162
  0
ARC
  5
18883
330
747D
100
AcDbEntity
  8
部品1
100
AcDbCircle
 10
10588.96476446153
 20
4778.072505641519
 30
0.0
 40
0.7
100
AcDbArc
 50
181.0932240292114
 51
260.1877540315916
  0
ARC
  5
18884
330
747D
100
AcDbEntity
  8
部品1
100
AcDbCircle
 10
10593.73743805914
 20
4685.2067274414
 30
0.0
 40
0.7
100
AcDbArc
 50
181.0932240292375
 51
260.1877540315916
  0
LINE
  5
18885
330
747D
100
AcDbEntity
  8
部品1
 48
50.0
100
AcDbLine
 10
12936.91424899848
 20
4742.333720756715
 30
0.0
 11
12934.88362780751
 21
4722.388679498936
 31
0.0
  0
LINE
  5
18886
330
747D
100
AcDbEntity
  8
部品1
 48
50.0
100
AcDbLine
 10
12931.53106132303
 20
4719.078045426026
 30
0.0
 11
12924.02428205819
 21
4645.345424681014
 31
0.0
  0
LINE
  5
18887
330
747D
100
AcDbEntity
  8
部品1
 48
50.0
100
AcDbLine
 10
12920.67171557371
 20
4642.034790608103
 30
0.0
 11
12919.59215253397
 21
4631.431173614543
 31
0.0
  0
ARC
  5
18888
330
747D
100
AcDbEntity
  8
部品1
 48
50.0
100
AcDbCircle
 10
12929.95024843373
 20
4743.04273142949
 30
0.0
 40
7.0
100
AcDbArc
 50
354.186699766522
 51
87.03587545293501
  0
ARC
  5
18889
330
747D
100
AcDbEntity
  8
部品1
 48
50.0
100
AcDbCircle
 10
12912.62815196921
 20
4632.140184287316
 30
0.0
 40
7.0
100
AcDbArc
 50
267.8377559870533
 51
354.186699766522
  0
ARC
  5
1888A
330
747D
100
AcDbEntity
  8
部品1
100
AcDbCircle
 10
12923.65628724432
 20
4641.730928891198
 30
0.0
 40
3.0
100
AcDbArc
 50
95.0921697642102
 51
174.1866997665219
  0
ARC
  5
1888B
330
747D
100
AcDbEntity
  8
部品1
100
AcDbCircle
 10
12934.51563299364
 20
4718.774183709124
 30
0.0
 40
3.0
100
AcDbArc
 50
95.092169764314
 51
174.1866997665219
  0
ARC
  5
1888C
330
747D
100
AcDbEntity
  8
部品1
100
AcDbCircle
 10
12934.18722775104
 20
4722.459580566211
 30
0.0
 40
0.7
100
AcDbArc
 50
275.0921697642102
 51
354.186699766522
  0
ARC
  5
1888D
330
747D
100
AcDbEntity
  8
部品1
100
AcDbCircle
 10
12923.32788200172
 20
4645.416325748288
 30
0.0
 40
0.7
100
AcDbArc
 50
275.0921697642102
 51
354.1866997666775
  0
LINE
  5
18890
330
747D
100
AcDbEntity
  8
部品1
100
AcDbLine
 10
11577.24533254474
 20
4938.143050782469
 30
0.0
 11
11902.70034618778
 21
4920.624991823608
 31
0.0
  0
ARC
  5
18FBF
330
747D
100
AcDbEntity
  8
部品1
 48
0.01
100
AcDbCircle
 10
4928.902964380299
 20
4603.892568482497
 30
0.0
 40
2.0
100
AcDbArc
 50
180.0
 51
270.0
  0
ARC
  5
18FC0
330
747D
100
AcDbEntity
  8
部品1
 48
0.01
100
AcDbCircle
 10
4928.902964380299
 20
4635.392568482497
 30
0.0
 40
2.0
100
AcDbArc
 50
90.0
 51
180.0
  0
ARC
  5
18FC1
330
747D
100
AcDbEntity
  8
部品1
 48
0.01
100
AcDbCircle
 10
5104.902964380299
 20
4603.892568482497
 30
0.0
 40
2.0
100
AcDbArc
 50
270.0
 51
0.0
  0
ARC
  5
18FC2
330
747D
100
AcDbEntity
  8
部品1
 48
0.01
100
AcDbCircle
 10
5104.902964380299
 20
4635.392568482497
 30
0.0
 40
2.0
100
AcDbArc
 50
0.0
 51
90.0
  0
LINE
  5
18FC3
330
747D
100
AcDbEntity
  8
細線
100
AcDbLine
 10
5016.902964380299
 20
4607.892568482497
 30
0.0
 11
4942.902964380299
 21
4607.892568482497
 31
0.0
  0
LINE
  5
18FC4
330
747D
100
AcDbEntity
  8
細線
100
AcDbLine
 10
5016.902964380299
 20
4630.892568482496
 30
0.0
 11
5090.902964380298
 21
4630.892568482496
 31
0.0
  0
LINE
  5
18FC5
330
747D
100
AcDbEntity
  8
細線
100
AcDbLine
 10
5090.902964380298
 20
4607.892568482497
 30
0.0
 11
5016.902964380299
 21
4607.892568482497
 31
0.0
  0
LINE
  5
18FC6
330
747D
100
AcDbEntity
  8
細線
100
AcDbLine
 10
4942.902964380299
 20
4630.892568482496
 30
0.0
 11
5016.902964380299
 21
4630.892568482496
 31
0.0
  0
LINE
  5
18FC7
330
747D
100
AcDbEntity
  8
細線
100
AcDbLine
 10
4942.902964380299
 20
4607.892568482497
 30
0.0
 11
4942.902964380299
 21
4630.892568482496
 31
0.0
  0
LINE
  5
18FC8
330
747D
100
AcDbEntity
  8
細線
100
AcDbLine
 10
5090.902964380298
 20
4630.892568482496
 30
0.0
 11
5090.902964380298
 21
4607.892568482497
 31
0.0
  0
LINE
  5
18FC9
330
747D
100
AcDbEntity
  8
部品1
 48
0.01
100
AcDbLine
 10
4926.902964380299
 20
4603.892568482497
 30
0.0
 11
4926.902964380299
 21
4635.392568482497
 31
0.0
  0
LINE
  5
18FCA
330
747D
100
AcDbEntity
  8
部品1
 48
0.01
100
AcDbLine
 10
5104.902964380299
 20
4601.892568482496
 30
0.0
 11
4928.902964380299
 21
4601.892568482496
 31
0.0
  0
LINE
  5
18FCB
330
747D
100
AcDbEntity
  8
部品1
 48
0.01
100
AcDbLine
 10
5106.902964380299
 20
4635.392568482497
 30
0.0
 11
5106.902964380299
 21
4603.892568482497
 31
0.0
  0
LINE
  5
18FCC
330
747D
100
AcDbEntity
  8
部品1
 48
0.01
100
AcDbLine
 10
4928.902964380299
 20
4637.392568482497
 30
0.0
 11
5104.902964380299
 21
4637.392568482497
 31
0.0
  0
LINE
  5
18FCD
330
747D
100
AcDbEntity
  8
細線
100
AcDbLine
 10
5090.902964380298
 20
4624.892568482497
 30
0.0
 11
5016.902964380299
 21
4624.892568482497
 31
0.0
  0
LINE
  5
18FCE
330
747D
100
AcDbEntity
  8
細線
100
AcDbLine
 10
5090.902964380298
 20
4618.892568482497
 30
0.0
 11
5016.902964380299
 21
4618.892568482497
 31
0.0
  0
LINE
  5
18FCF
330
747D
100
AcDbEntity
  8
細線
100
AcDbLine
 10
5090.902964380298
 20
4612.892568482497
 30
0.0
 11
5016.902964380299
 21
4612.892568482497
 31
0.0
  0
LINE
  5
18FD0
330
747D
100
AcDbEntity
  8
細線
100
AcDbLine
 10
5090.902964380298
 20
4624.892568482497
 30
0.0
 11
5021.902964380299
 21
4624.892568482497
 31
0.0
  0
LINE
  5
18FD1
330
747D
100
AcDbEntity
  8
細線
100
AcDbLine
 10
4942.902964380299
 20
4624.892568482497
 30
0.0
 11
5016.902964380299
 21
4624.892568482497
 31
0.0
  0
LINE
  5
18FD2
330
747D
100
AcDbEntity
  8
細線
100
AcDbLine
 10
4942.902964380299
 20
4612.892568482497
 30
0.0
 11
5016.902964380299
 21
4612.892568482497
 31
0.0
  0
LINE
  5
18FD3
330
747D
100
AcDbEntity
  8
細線
100
AcDbLine
 10
4942.902964380299
 20
4618.892568482497
 30
0.0
 11
5016.902964380299
 21
4618.892568482497
 31
0.0
  0
LINE
  5
18FD4
330
747D
100
AcDbEntity
  8
細線
100
AcDbLine
 10
5016.902964380299
 20
4630.892568482496
 30
0.0
 11
5016.902964380299
 21
4607.892568482497
 31
0.0
  0
LINE
  5
18FD5
330
747D
100
AcDbEntity
  8
細線
100
AcDbLine
 10
4236.902964380298
 20
4630.892568482496
 30
0.0
 11
4236.902964380298
 21
4607.892568482497
 31
0.0
  0
LINE
  5
18FD6
330
747D
100
AcDbEntity
  8
細線
100
AcDbLine
 10
4310.902964380299
 20
4618.892568482497
 30
0.0
 11
4236.902964380298
 21
4618.892568482497
 31
0.0
  0
LINE
  5
18FD7
330
747D
100
AcDbEntity
  8
細線
100
AcDbLine
 10
4310.902964380299
 20
4612.892568482496
 30
0.0
 11
4236.902964380298
 21
4612.892568482497
 31
0.0
  0
LINE
  5
18FD8
330
747D
100
AcDbEntity
  8
細線
100
AcDbLine
 10
4310.902964380299
 20
4624.892568482495
 30
0.0
 11
4236.902964380298
 21
4624.892568482497
 31
0.0
  0
LINE
  5
18FD9
330
747D
100
AcDbEntity
  8
細線
100
AcDbLine
 10
4162.902964380299
 20
4624.892568482497
 30
0.0
 11
4231.902964380299
 21
4624.892568482497
 31
0.0
  0
LINE
  5
18FDA
330
747D
100
AcDbEntity
  8
細線
100
AcDbLine
 10
4162.902964380299
 20
4612.892568482497
 30
0.0
 11
4236.902964380298
 21
4612.892568482497
 31
0.0
  0
LINE
  5
18FDB
330
747D
100
AcDbEntity
  8
細線
100
AcDbLine
 10
4162.902964380299
 20
4618.892568482497
 30
0.0
 11
4236.902964380298
 21
4618.892568482497
 31
0.0
  0
LINE
  5
18FDC
330
747D
100
AcDbEntity
  8
細線
100
AcDbLine
 10
4162.902964380299
 20
4624.892568482497
 30
0.0
 11
4236.902964380298
 21
4624.892568482497
 31
0.0
  0
LINE
  5
18FDD
330
747D
100
AcDbEntity
  8
部品1
 48
0.01
100
AcDbLine
 10
4324.902964380298
 20
4637.392568482497
 30
0.0
 11
4148.902964380298
 21
4637.392568482497
 31
0.0
  0
LINE
  5
18FDE
330
747D
100
AcDbEntity
  8
部品1
 48
0.01
100
AcDbLine
 10
4146.902964380299
 20
4635.392568482497
 30
0.0
 11
4146.902964380299
 21
4603.892568482497
 31
0.0
  0
LINE
  5
18FDF
330
747D
100
AcDbEntity
  8
部品1
 48
0.01
100
AcDbLine
 10
4148.902964380298
 20
4601.892568482496
 30
0.0
 11
4324.902964380298
 21
4601.892568482496
 31
0.0
  0
LINE
  5
18FE0
330
747D
100
AcDbEntity
  8
部品1
 48
0.01
100
AcDbLine
 10
4326.902964380298
 20
4603.892568482497
 30
0.0
 11
4326.902964380298
 21
4635.392568482497
 31
0.0
  0
LINE
  5
18FE1
330
747D
100
AcDbEntity
  8
細線
100
AcDbLine
 10
4162.902964380299
 20
4630.892568482496
 30
0.0
 11
4162.902964380299
 21
4607.892568482497
 31
0.0
  0
LINE
  5
18FE2
330
747D
100
AcDbEntity
  8
細線
100
AcDbLine
 10
4310.902964380299
 20
4607.892568482497
 30
0.0
 11
4310.902964380299
 21
4630.892568482496
 31
0.0
  0
LINE
  5
18FE3
330
747D
100
AcDbEntity
  8
細線
100
AcDbLine
 10
4310.902964380299
 20
4630.892568482496
 30
0.0
 11
4236.902964380298
 21
4630.892568482496
 31
0.0
  0
LINE
  5
18FE4
330
747D
100
AcDbEntity
  8
細線
100
AcDbLine
 10
4162.902964380299
 20
4607.892568482497
 30
0.0
 11
4236.902964380298
 21
4607.892568482497
 31
0.0
  0
LINE
  5
18FE5
330
747D
100
AcDbEntity
  8
細線
100
AcDbLine
 10
4236.902964380298
 20
4630.892568482496
 30
0.0
 11
4162.902964380299
 21
4630.892568482496
 31
0.0
  0
LINE
  5
18FE6
330
747D
100
AcDbEntity
  8
細線
100
AcDbLine
 10
4236.902964380298
 20
4607.892568482497
 30
0.0
 11
4310.902964380299
 21
4607.892568482497
 31
0.0
  0
ARC
  5
18FE7
330
747D
100
AcDbEntity
  8
部品1
 48
0.01
100
AcDbCircle
 10
4148.902964380298
 20
4635.392568482497
 30
0.0
 40
2.0
100
AcDbArc
 50
90.0
 51
180.0
  0
ARC
  5
18FE8
330
747D
100
AcDbEntity
  8
部品1
 48
0.01
100
AcDbCircle
 10
4148.902964380298
 20
4603.892568482497
 30
0.0
 40
2.0
100
AcDbArc
 50
180.0
 51
270.0
  0
ARC
  5
18FE9
330
747D
100
AcDbEntity
  8
部品1
 48
0.01
100
AcDbCircle
 10
4324.902964380298
 20
4635.392568482497
 30
0.0
 40
2.0
100
AcDbArc
 50
0.0
 51
90.0
  0
ARC
  5
18FEA
330
747D
100
AcDbEntity
  8
部品1
 48
0.01
100
AcDbCircle
 10
4324.902964380298
 20
4603.892568482497
 30
0.0
 40
2.0
100
AcDbArc
 50
270.0
 51
0.0
  0
LINE
  5
18FFF
330
747D
100
AcDbEntity
  8
細線
100
AcDbLine
 10
6546.902964380297
 20
4630.892568482496
 30
0.0
 11
6546.902964380297
 21
4607.892568482497
 31
0.0
  0
LINE
  5
19000
330
747D
100
AcDbEntity
  8
細線
100
AcDbLine
 10
6472.902964380297
 20
4618.892568482497
 30
0.0
 11
6546.902964380297
 21
4618.892568482497
 31
0.0
  0
LINE
  5
19001
330
747D
100
AcDbEntity
  8
細線
100
AcDbLine
 10
6472.902964380297
 20
4612.892568482497
 30
0.0
 11
6546.902964380297
 21
4612.892568482497
 31
0.0
  0
LINE
  5
19002
330
747D
100
AcDbEntity
  8
細線
100
AcDbLine
 10
6472.902964380297
 20
4624.892568482497
 30
0.0
 11
6546.902964380297
 21
4624.892568482497
 31
0.0
  0
LINE
  5
19003
330
747D
100
AcDbEntity
  8
細線
100
AcDbLine
 10
6620.902964380296
 20
4624.892568482497
 30
0.0
 11
6551.902964380296
 21
4624.892568482497
 31
0.0
  0
LINE
  5
19004
330
747D
100
AcDbEntity
  8
細線
100
AcDbLine
 10
6620.902964380296
 20
4612.892568482497
 30
0.0
 11
6546.902964380297
 21
4612.892568482497
 31
0.0
  0
LINE
  5
19005
330
747D
100
AcDbEntity
  8
細線
100
AcDbLine
 10
6620.902964380296
 20
4618.892568482497
 30
0.0
 11
6546.902964380297
 21
4618.892568482497
 31
0.0
  0
LINE
  5
19006
330
747D
100
AcDbEntity
  8
細線
100
AcDbLine
 10
6620.902964380296
 20
4624.892568482497
 30
0.0
 11
6546.902964380297
 21
4624.892568482497
 31
0.0
  0
LINE
  5
19007
330
747D
100
AcDbEntity
  8
部品1
 48
0.01
100
AcDbLine
 10
6458.902964380297
 20
4637.392568482497
 30
0.0
 11
6634.902964380296
 21
4637.392568482497
 31
0.0
  0
LINE
  5
19008
330
747D
100
AcDbEntity
  8
部品1
 48
0.01
100
AcDbLine
 10
6636.902964380297
 20
4635.392568482497
 30
0.0
 11
6636.902964380297
 21
4603.892568482497
 31
0.0
  0
LINE
  5
19009
330
747D
100
AcDbEntity
  8
部品1
 48
0.01
100
AcDbLine
 10
6634.902964380296
 20
4601.892568482496
 30
0.0
 11
6458.902964380297
 21
4601.892568482496
 31
0.0
  0
LINE
  5
1900A
330
747D
100
AcDbEntity
  8
部品1
 48
0.01
100
AcDbLine
 10
6456.902964380296
 20
4603.892568482497
 30
0.0
 11
6456.902964380296
 21
4635.392568482497
 31
0.0
  0
LINE
  5
1900B
330
747D
100
AcDbEntity
  8
細線
100
AcDbLine
 10
6620.902964380296
 20
4630.892568482496
 30
0.0
 11
6620.902964380296
 21
4607.892568482497
 31
0.0
  0
LINE
  5
1900C
330
747D
100
AcDbEntity
  8
細線
100
AcDbLine
 10
6472.902964380297
 20
4607.892568482497
 30
0.0
 11
6472.902964380297
 21
4630.892568482496
 31
0.0
  0
LINE
  5
1900D
330
747D
100
AcDbEntity
  8
細線
100
AcDbLine
 10
6472.902964380297
 20
4630.892568482496
 30
0.0
 11
6546.902964380297
 21
4630.892568482496
 31
0.0
  0
LINE
  5
1900E
330
747D
100
AcDbEntity
  8
細線
100
AcDbLine
 10
6620.902964380296
 20
4607.892568482497
 30
0.0
 11
6546.902964380297
 21
4607.892568482497
 31
0.0
  0
LINE
  5
1900F
330
747D
100
AcDbEntity
  8
細線
100
AcDbLine
 10
6546.902964380297
 20
4630.892568482496
 30
0.0
 11
6620.902964380296
 21
4630.892568482496
 31
0.0
  0
LINE
  5
19010
330
747D
100
AcDbEntity
  8
細線
100
AcDbLine
 10
6546.902964380297
 20
4607.892568482497
 30
0.0
 11
6472.902964380297
 21
4607.892568482497
 31
0.0
  0
ARC
  5
19011
330
747D
100
AcDbEntity
  8
部品1
 48
0.01
100
AcDbCircle
 10
6634.902964380296
 20
4635.392568482497
 30
0.0
 40
2.0
100
AcDbArc
 50
0.0
 51
90.0
  0
ARC
  5
19012
330
747D
100
AcDbEntity
  8
部品1
 48
0.01
100
AcDbCircle
 10
6634.902964380296
 20
4603.892568482497
 30
0.0
 40
2.0
100
AcDbArc
 50
270.0
 51
0.0
  0
ARC
  5
19013
330
747D
100
AcDbEntity
  8
部品1
 48
0.01
100
AcDbCircle
 10
6458.902964380297
 20
4635.392568482497
 30
0.0
 40
2.0
100
AcDbArc
 50
90.0
 51
180.0
  0
ARC
  5
19014
330
747D
100
AcDbEntity
  8
部品1
 48
0.01
100
AcDbCircle
 10
6458.902964380297
 20
4603.892568482497
 30
0.0
 40
2.0
100
AcDbArc
 50
180.0
 51
270.0
  0
ARC
  5
19015
330
747D
100
AcDbEntity
  8
部品1
 48
0.01
100
AcDbCircle
 10
5854.902964380297
 20
4603.892568482497
 30
0.0
 40
2.0
100
AcDbArc
 50
270.0
 51
0.0
  0
ARC
  5
19016
330
747D
100
AcDbEntity
  8
部品1
 48
0.01
100
AcDbCircle
 10
5854.902964380297
 20
4635.392568482497
 30
0.0
 40
2.0
100
AcDbArc
 50
0.0
 51
90.0
  0
ARC
  5
19017
330
747D
100
AcDbEntity
  8
部品1
 48
0.01
100
AcDbCircle
 10
5678.902964380297
 20
4603.892568482497
 30
0.0
 40
2.0
100
AcDbArc
 50
180.0
 51
270.0
  0
ARC
  5
19018
330
747D
100
AcDbEntity
  8
部品1
 48
0.01
100
AcDbCircle
 10
5678.902964380297
 20
4635.392568482497
 30
0.0
 40
2.0
100
AcDbArc
 50
90.0
 51
180.0
  0
LINE
  5
19019
330
747D
100
AcDbEntity
  8
細線
100
AcDbLine
 10
5766.902964380297
 20
4607.892568482497
 30
0.0
 11
5840.902964380297
 21
4607.892568482497
 31
0.0
  0
LINE
  5
1901A
330
747D
100
AcDbEntity
  8
細線
100
AcDbLine
 10
5766.902964380297
 20
4630.892568482496
 30
0.0
 11
5692.902964380297
 21
4630.892568482496
 31
0.0
  0
LINE
  5
1901B
330
747D
100
AcDbEntity
  8
細線
100
AcDbLine
 10
5692.902964380297
 20
4607.892568482497
 30
0.0
 11
5766.902964380297
 21
4607.892568482497
 31
0.0
  0
LINE
  5
1901C
330
747D
100
AcDbEntity
  8
細線
100
AcDbLine
 10
5840.902964380297
 20
4630.892568482496
 30
0.0
 11
5766.902964380297
 21
4630.892568482496
 31
0.0
  0
LINE
  5
1901D
330
747D
100
AcDbEntity
  8
細線
100
AcDbLine
 10
5840.902964380297
 20
4607.892568482497
 30
0.0
 11
5840.902964380297
 21
4630.892568482496
 31
0.0
  0
LINE
  5
1901E
330
747D
100
AcDbEntity
  8
細線
100
AcDbLine
 10
5692.902964380297
 20
4630.892568482496
 30
0.0
 11
5692.902964380297
 21
4607.892568482497
 31
0.0
  0
LINE
  5
1901F
330
747D
100
AcDbEntity
  8
部品1
 48
0.01
100
AcDbLine
 10
5856.902964380297
 20
4603.892568482497
 30
0.0
 11
5856.902964380297
 21
4635.392568482497
 31
0.0
  0
LINE
  5
19020
330
747D
100
AcDbEntity
  8
部品1
 48
0.01
100
AcDbLine
 10
5678.902964380297
 20
4601.892568482496
 30
0.0
 11
5854.902964380297
 21
4601.892568482496
 31
0.0
  0
LINE
  5
19021
330
747D
100
AcDbEntity
  8
部品1
 48
0.01
100
AcDbLine
 10
5676.902964380297
 20
4635.392568482497
 30
0.0
 11
5676.902964380297
 21
4603.892568482497
 31
0.0
  0
LINE
  5
19022
330
747D
100
AcDbEntity
  8
部品1
 48
0.01
100
AcDbLine
 10
5854.902964380297
 20
4637.392568482497
 30
0.0
 11
5678.902964380297
 21
4637.392568482497
 31
0.0
  0
LINE
  5
19023
330
747D
100
AcDbEntity
  8
細線
100
AcDbLine
 10
5692.902964380297
 20
4624.892568482497
 30
0.0
 11
5766.902964380297
 21
4624.892568482497
 31
0.0
  0
LINE
  5
19024
330
747D
100
AcDbEntity
  8
細線
100
AcDbLine
 10
5692.902964380297
 20
4618.892568482497
 30
0.0
 11
5766.902964380297
 21
4618.892568482497
 31
0.0
  0
LINE
  5
19025
330
747D
100
AcDbEntity
  8
細線
100
AcDbLine
 10
5692.902964380297
 20
4612.892568482497
 30
0.0
 11
5766.902964380297
 21
4612.892568482497
 31
0.0
  0
LINE
  5
19026
330
747D
100
AcDbEntity
  8
細線
100
AcDbLine
 10
5692.902964380297
 20
4624.892568482497
 30
0.0
 11
5761.902964380297
 21
4624.892568482497
 31
0.0
  0
LINE
  5
19027
330
747D
100
AcDbEntity
  8
細線
100
AcDbLine
 10
5840.902964380297
 20
4624.892568482495
 30
0.0
 11
5766.902964380297
 21
4624.892568482497
 31
0.0
  0
LINE
  5
19028
330
747D
100
AcDbEntity
  8
細線
100
AcDbLine
 10
5840.902964380297
 20
4612.892568482496
 30
0.0
 11
5766.902964380297
 21
4612.892568482497
 31
0.0
  0
LINE
  5
19029
330
747D
100
AcDbEntity
  8
細線
100
AcDbLine
 10
5840.902964380297
 20
4618.892568482497
 30
0.0
 11
5766.902964380297
 21
4618.892568482497
 31
0.0
  0
LINE
  5
1902A
330
747D
100
AcDbEntity
  8
細線
100
AcDbLine
 10
5766.902964380297
 20
4630.892568482496
 30
0.0
 11
5766.902964380297
 21
4607.892568482497
 31
0.0
  0
LINE
  5
1902B
330
747D
100
AcDbEntity
  8
細線
100
AcDbLine
 10
7296.902964380297
 20
4630.892568482496
 30
0.0
 11
7296.902964380297
 21
4607.892568482497
 31
0.0
  0
LINE
  5
1902C
330
747D
100
AcDbEntity
  8
細線
100
AcDbLine
 10
7370.902964380296
 20
4618.892568482497
 30
0.0
 11
7296.902964380297
 21
4618.892568482497
 31
0.0
  0
LINE
  5
1902D
330
747D
100
AcDbEntity
  8
細線
100
AcDbLine
 10
7370.902964380296
 20
4612.892568482496
 30
0.0
 11
7296.902964380297
 21
4612.892568482497
 31
0.0
  0
LINE
  5
1902E
330
747D
100
AcDbEntity
  8
細線
100
AcDbLine
 10
7370.902964380296
 20
4624.892568482495
 30
0.0
 11
7296.902964380297
 21
4624.892568482497
 31
0.0
  0
LINE
  5
1902F
330
747D
100
AcDbEntity
  8
細線
100
AcDbLine
 10
7222.902964380297
 20
4624.892568482497
 30
0.0
 11
7291.902964380297
 21
4624.892568482497
 31
0.0
  0
LINE
  5
19030
330
747D
100
AcDbEntity
  8
細線
100
AcDbLine
 10
7222.902964380297
 20
4612.892568482497
 30
0.0
 11
7296.902964380297
 21
4612.892568482497
 31
0.0
  0
LINE
  5
19031
330
747D
100
AcDbEntity
  8
細線
100
AcDbLine
 10
7222.902964380297
 20
4618.892568482497
 30
0.0
 11
7296.902964380297
 21
4618.892568482497
 31
0.0
  0
LINE
  5
19032
330
747D
100
AcDbEntity
  8
細線
100
AcDbLine
 10
7222.902964380297
 20
4624.892568482497
 30
0.0
 11
7296.902964380297
 21
4624.892568482497
 31
0.0
  0
LINE
  5
19033
330
747D
100
AcDbEntity
  8
部品1
 48
0.01
100
AcDbLine
 10
7384.902964380296
 20
4637.392568482497
 30
0.0
 11
7208.902964380297
 21
4637.392568482497
 31
0.0
  0
LINE
  5
19034
330
747D
100
AcDbEntity
  8
部品1
 48
0.01
100
AcDbLine
 10
7206.902964380297
 20
4635.392568482497
 30
0.0
 11
7206.902964380297
 21
4603.892568482497
 31
0.0
  0
LINE
  5
19035
330
747D
100
AcDbEntity
  8
部品1
 48
0.01
100
AcDbLine
 10
7208.902964380297
 20
4601.892568482496
 30
0.0
 11
7384.902964380296
 21
4601.892568482496
 31
0.0
  0
LINE
  5
19036
330
747D
100
AcDbEntity
  8
部品1
 48
0.01
100
AcDbLine
 10
7386.902964380297
 20
4603.892568482497
 30
0.0
 11
7386.902964380297
 21
4635.392568482497
 31
0.0
  0
LINE
  5
19037
330
747D
100
AcDbEntity
  8
細線
100
AcDbLine
 10
7222.902964380297
 20
4630.892568482496
 30
0.0
 11
7222.902964380297
 21
4607.892568482497
 31
0.0
  0
LINE
  5
19038
330
747D
100
AcDbEntity
  8
細線
100
AcDbLine
 10
7370.902964380296
 20
4607.892568482497
 30
0.0
 11
7370.902964380296
 21
4630.892568482496
 31
0.0
  0
LINE
  5
19039
330
747D
100
AcDbEntity
  8
細線
100
AcDbLine
 10
7370.902964380296
 20
4630.892568482496
 30
0.0
 11
7296.902964380297
 21
4630.892568482496
 31
0.0
  0
LINE
  5
1903A
330
747D
100
AcDbEntity
  8
細線
100
AcDbLine
 10
7222.902964380297
 20
4607.892568482497
 30
0.0
 11
7296.902964380297
 21
4607.892568482497
 31
0.0
  0
LINE
  5
1903B
330
747D
100
AcDbEntity
  8
細線
100
AcDbLine
 10
7296.902964380297
 20
4630.892568482496
 30
0.0
 11
7222.902964380297
 21
4630.892568482496
 31
0.0
  0
LINE
  5
1903C
330
747D
100
AcDbEntity
  8
細線
100
AcDbLine
 10
7296.902964380297
 20
4607.892568482497
 30
0.0
 11
7370.902964380296
 21
4607.892568482497
 31
0.0
  0
ARC
  5
1903D
330
747D
100
AcDbEntity
  8
部品1
 48
0.01
100
AcDbCircle
 10
7208.902964380297
 20
4635.392568482497
 30
0.0
 40
2.0
100
AcDbArc
 50
90.0
 51
180.0
  0
ARC
  5
1903E
330
747D
100
AcDbEntity
  8
部品1
 48
0.01
100
AcDbCircle
 10
7208.902964380297
 20
4603.892568482497
 30
0.0
 40
2.0
100
AcDbArc
 50
180.0
 51
270.0
  0
ARC
  5
1903F
330
747D
100
AcDbEntity
  8
部品1
 48
0.01
100
AcDbCircle
 10
7384.902964380296
 20
4635.392568482497
 30
0.0
 40
2.0
100
AcDbArc
 50
0.0
 51
90.0
  0
ARC
  5
19040
330
747D
100
AcDbEntity
  8
部品1
 48
0.01
100
AcDbCircle
 10
7384.902964380296
 20
4603.892568482497
 30
0.0
 40
2.0
100
AcDbArc
 50
270.0
 51
0.0
  0
ARC
  5
19041
330
747D
100
AcDbEntity
  8
部品1
 48
0.01
100
AcDbCircle
 10
7988.902964380297
 20
4603.892568482497
 30
0.0
 40
2.0
100
AcDbArc
 50
180.0
 51
270.0
  0
ARC
  5
19042
330
747D
100
AcDbEntity
  8
部品1
 48
0.01
100
AcDbCircle
 10
7988.902964380297
 20
4635.392568482497
 30
0.0
 40
2.0
100
AcDbArc
 50
90.0
 51
180.0
  0
ARC
  5
19043
330
747D
100
AcDbEntity
  8
部品1
 48
0.01
100
AcDbCircle
 10
8164.902964380297
 20
4603.892568482497
 30
0.0
 40
2.0
100
AcDbArc
 50
270.0
 51
0.0
  0
ARC
  5
19044
330
747D
100
AcDbEntity
  8
部品1
 48
0.01
100
AcDbCircle
 10
8164.902964380297
 20
4635.392568482497
 30
0.0
 40
2.0
100
AcDbArc
 50
0.0
 51
90.0
  0
LINE
  5
19045
330
747D
100
AcDbEntity
  8
細線
100
AcDbLine
 10
8076.902964380296
 20
4607.892568482497
 30
0.0
 11
8002.902964380297
 21
4607.892568482497
 31
0.0
  0
LINE
  5
19046
330
747D
100
AcDbEntity
  8
細線
100
AcDbLine
 10
8076.902964380296
 20
4630.892568482496
 30
0.0
 11
8150.902964380298
 21
4630.892568482496
 31
0.0
  0
LINE
  5
19047
330
747D
100
AcDbEntity
  8
細線
100
AcDbLine
 10
8150.902964380298
 20
4607.892568482497
 30
0.0
 11
8076.902964380296
 21
4607.892568482497
 31
0.0
  0
LINE
  5
19048
330
747D
100
AcDbEntity
  8
細線
100
AcDbLine
 10
8002.902964380297
 20
4630.892568482496
 30
0.0
 11
8076.902964380296
 21
4630.892568482496
 31
0.0
  0
LINE
  5
19049
330
747D
100
AcDbEntity
  8
細線
100
AcDbLine
 10
8002.902964380297
 20
4607.892568482497
 30
0.0
 11
8002.902964380297
 21
4630.892568482496
 31
0.0
  0
LINE
  5
1904A
330
747D
100
AcDbEntity
  8
細線
100
AcDbLine
 10
8150.902964380298
 20
4630.892568482496
 30
0.0
 11
8150.902964380298
 21
4607.892568482497
 31
0.0
  0
LINE
  5
1904B
330
747D
100
AcDbEntity
  8
部品1
 48
0.01
100
AcDbLine
 10
7986.902964380298
 20
4603.892568482497
 30
0.0
 11
7986.902964380298
 21
4635.392568482497
 31
0.0
  0
LINE
  5
1904C
330
747D
100
AcDbEntity
  8
部品1
 48
0.01
100
AcDbLine
 10
8164.902964380297
 20
4601.892568482496
 30
0.0
 11
7988.902964380297
 21
4601.892568482496
 31
0.0
  0
LINE
  5
1904D
330
747D
100
AcDbEntity
  8
部品1
 48
0.01
100
AcDbLine
 10
8166.902964380296
 20
4635.392568482497
 30
0.0
 11
8166.902964380296
 21
4603.892568482497
 31
0.0
  0
LINE
  5
1904E
330
747D
100
AcDbEntity
  8
部品1
 48
0.01
100
AcDbLine
 10
7988.902964380297
 20
4637.392568482497
 30
0.0
 11
8164.902964380297
 21
4637.392568482497
 31
0.0
  0
LINE
  5
1904F
330
747D
100
AcDbEntity
  8
細線
100
AcDbLine
 10
8150.902964380298
 20
4624.892568482497
 30
0.0
 11
8076.902964380296
 21
4624.892568482497
 31
0.0
  0
LINE
  5
19050
330
747D
100
AcDbEntity
  8
細線
100
AcDbLine
 10
8150.902964380298
 20
4618.892568482497
 30
0.0
 11
8076.902964380296
 21
4618.892568482497
 31
0.0
  0
LINE
  5
19051
330
747D
100
AcDbEntity
  8
細線
100
AcDbLine
 10
8150.902964380298
 20
4612.892568482497
 30
0.0
 11
8076.902964380296
 21
4612.892568482497
 31
0.0
  0
LINE
  5
19052
330
747D
100
AcDbEntity
  8
細線
100
AcDbLine
 10
8150.902964380298
 20
4624.892568482497
 30
0.0
 11
8081.902964380297
 21
4624.892568482497
 31
0.0
  0
LINE
  5
19053
330
747D
100
AcDbEntity
  8
細線
100
AcDbLine
 10
8002.902964380297
 20
4624.892568482497
 30
0.0
 11
8076.902964380296
 21
4624.892568482497
 31
0.0
  0
LINE
  5
19054
330
747D
100
AcDbEntity
  8
細線
100
AcDbLine
 10
8002.902964380297
 20
4612.892568482497
 30
0.0
 11
8076.902964380296
 21
4612.892568482497
 31
0.0
  0
LINE
  5
19055
330
747D
100
AcDbEntity
  8
細線
100
AcDbLine
 10
8002.902964380297
 20
4618.892568482497
 30
0.0
 11
8076.902964380296
 21
4618.892568482497
 31
0.0
  0
LINE
  5
19056
330
747D
100
AcDbEntity
  8
細線
100
AcDbLine
 10
8076.902964380296
 20
4630.892568482496
 30
0.0
 11
8076.902964380296
 21
4607.892568482497
 31
0.0
  0
LINE
  5
19356
330
747D
100
AcDbEntity
  8
補助
  6
PHANTOM
 62
   230
 48
50.0
100
AcDbLine
 10
140.0
 20
0.0
 30
0.0
 11
139.9999999999995
 21
11409.6
 31
0.0
  0
LINE
  5
1A89C
330
747D
100
AcDbEntity
  8
破線
 48
10.0
100
AcDbLine
 10
4757.157839305016
 20
8104.158244062894
 30
0.0
 11
3918.402964380312
 21
8104.158244062835
 31
0.0
  0
LINE
  5
1A89D
330
747D
100
AcDbEntity
  8
破線
 48
10.0
100
AcDbLine
 10
4748.341490269594
 20
8154.158244062896
 30
0.0
 11
3918.402964380312
 21
8154.158244062836
 31
0.0
  0
LINE
  5
1A89E
330
747D
100
AcDbEntity
  8
破線
 48
10.0
100
AcDbLine
 10
4639.90039713389
 20
8769.158244062888
 30
0.0
 11
3918.402964380278
 21
8769.158244062838
 31
0.0
  0
LINE
  5
1A89F
330
747D
100
AcDbEntity
  8
破線
 48
10.0
100
AcDbLine
 10
4631.084048098467
 20
8819.158244062885
 30
0.0
 11
3918.402964380278
 21
8819.158244062839
 31
0.0
  0
LINE
  5
1A8A0
330
747D
100
AcDbEntity
  8
破線
 48
10.0
100
AcDbLine
 10
7001.902964380277
 20
8104.158244062837
 30
0.0
 11
7001.902964380284
 21
7473.158244062775
 31
0.0
  0
LINE
  5
1A8A1
330
747D
100
AcDbEntity
  8
破線
 48
10.0
100
AcDbLine
 10
7001.902964380271
 20
8769.158244062838
 30
0.0
 11
7001.902964380277
 21
8154.158244062839
 31
0.0
  0
LINE
  5
1A8A2
330
747D
100
AcDbEntity
  8
破線
 48
10.0
100
AcDbLine
 10
7001.902964380263
 20
9449.158244062898
 30
0.0
 11
7001.902964380268
 21
8819.158244062839
 31
0.0
  0
LINE
  5
1A8A3
330
747D
100
AcDbEntity
  8
破線
 48
10.0
100
AcDbLine
 10
7968.902964380491
 20
8154.158244062905
 30
0.0
 11
6978.402964380312
 21
8154.158244062836
 31
0.0
  0
LINE
  5
1A8A4
330
747D
100
AcDbEntity
  8
破線
 48
10.0
100
AcDbLine
 10
7968.902964380498
 20
8104.158244062903
 30
0.0
 11
6978.402964380312
 21
8104.158244062835
 31
0.0
  0
LINE
  5
1A8A5
330
747D
100
AcDbEntity
  8
破線
 48
10.0
100
AcDbLine
 10
7968.902964380466
 20
8769.158244062904
 30
0.0
 11
6978.402964380276
 21
8769.158244062838
 31
0.0
  0
LINE
  5
1A8A6
330
747D
100
AcDbEntity
  8
破線
 48
10.0
100
AcDbLine
 10
7968.902964380458
 20
8819.158244062906
 30
0.0
 11
6978.402964380276
 21
8819.158244062839
 31
0.0
  0
LINE
  5
1A8A7
330
747D
100
AcDbEntity
  8
破線
 48
10.0
100
AcDbLine
 10
5471.902964380277
 20
8104.158244062837
 30
0.0
 11
5471.902964380284
 21
7473.158244062775
 31
0.0
  0
LINE
  5
1A8A8
330
747D
100
AcDbEntity
  8
破線
 48
10.0
100
AcDbLine
 10
5471.902964380271
 20
8769.158244062838
 30
0.0
 11
5471.902964380277
 21
8154.158244062839
 31
0.0
  0
LINE
  5
1A8A9
330
747D
100
AcDbEntity
  8
破線
 48
10.0
100
AcDbLine
 10
5471.902964380263
 20
9449.158244062898
 30
0.0
 11
5471.902964380269
 21
8819.158244062839
 31
0.0
  0
LINE
  5
1A8AA
330
747D
100
AcDbEntity
  8
破線
 48
10.0
100
AcDbLine
 10
6438.902964380457
 20
8819.158244062906
 30
0.0
 11
5448.402964380278
 21
8819.158244062839
 31
0.0
  0
LINE
  5
1A8AB
330
747D
100
AcDbEntity
  8
破線
 48
10.0
100
AcDbLine
 10
6438.902964380464
 20
8769.158244062904
 30
0.0
 11
5448.402964380278
 21
8769.158244062838
 31
0.0
  0
LINE
  5
1A8AC
330
747D
100
AcDbEntity
  8
破線
 48
10.0
100
AcDbLine
 10
6438.9029643805
 20
8104.158244062903
 30
0.0
 11
5448.402964380314
 21
8104.158244062835
 31
0.0
  0
LINE
  5
1A8AD
330
747D
100
AcDbEntity
  8
破線
 48
10.0
100
AcDbLine
 10
6438.902964380492
 20
8154.158244062905
 30
0.0
 11
5448.402964380314
 21
8154.158244062836
 31
0.0
  0
LINE
  5
1A8AE
330
747D
100
AcDbEntity
  8
破線
 48
10.0
100
AcDbLine
 10
3941.902964380278
 20
8104.158244062837
 30
0.0
 11
3941.902964380284
 21
7473.158244062775
 31
0.0
  0
LINE
  5
1A8AF
330
747D
100
AcDbEntity
  8
破線
 48
10.0
100
AcDbLine
 10
4908.902964380491
 20
8154.158244062905
 30
0.0
 11
4778.804288626165
 21
8154.158244062898
 31
0.0
  0
LINE
  5
1A8B0
330
747D
100
AcDbEntity
  8
破線
 48
10.0
100
AcDbLine
 10
4908.9029643805
 20
8104.158244062903
 30
0.0
 11
4787.620637661588
 21
8104.158244062894
 31
0.0
  0
LINE
  5
1A8B1
330
747D
100
AcDbEntity
  8
破線
 48
10.0
100
AcDbLine
 10
4908.902964380465
 20
8769.158244062904
 30
0.0
 11
4670.363195490462
 21
8769.158244062888
 31
0.0
  0
LINE
  5
1A8B2
330
747D
100
AcDbEntity
  8
破線
 48
10.0
100
AcDbLine
 10
4908.902964380457
 20
8819.158244062906
 30
0.0
 11
4661.546846455038
 21
8819.158244062888
 31
0.0
  0
LINE
  5
1A8B3
330
747D
100
AcDbEntity
  8
細線
100
AcDbLine
 10
4877.765494109614
 20
7420.15824406287
 30
0.0
 11
4876.502964380286
 21
7420.15824406287
 31
0.0
  0
LINE
  5
1A8B4
330
747D
100
AcDbEntity
  8
細線
100
AcDbLine
 10
4878.01132018238
 20
7418.76409512559
 30
0.0
 11
4877.716912963544
 21
7418.76409512559
 31
0.0
  0
LINE
  5
1A8B5
330
747D
100
AcDbEntity
  8
細線
 48
50.0
100
AcDbLine
 10
4892.753287469832
 20
7335.158244062869
 30
0.0
 11
4490.202964380282
 21
7335.158244062869
 31
0.0
  0
LINE
  5
1A8B6
330
747D
100
AcDbEntity
  8
細線
100
AcDbLine
 10
5329.902964380289
 20
7392.158244062869
 30
0.0
 11
5225.702964380271
 21
7392.158244062873
 31
0.0
  0
LINE
  5
1A8B7
330
747D
100
AcDbEntity
  8
細線
100
AcDbLine
 10
5329.902964380289
 20
7374.158244062863
 30
0.0
 11
5329.902964380289
 21
7392.158244062864
 31
0.0
  0
LINE
  5
1A8B8
330
747D
100
AcDbEntity
  8
細線
 48
50.0
100
AcDbLine
 10
5329.902964380289
 20
7374.158244062863
 30
0.0
 11
5331.90296438029
 21
7374.158244062863
 31
0.0
  0
LINE
  5
1A8B9
330
747D
100
AcDbEntity
  8
細線
100
AcDbLine
 10
5015.702964380285
 20
7392.158244062862
 30
0.0
 11
5017.801348841985
 21
7396.658244062869
 31
0.0
  0
LINE
  5
1A8BA
330
747D
100
AcDbEntity
  8
細線
100
AcDbLine
 10
5015.702964380281
 20
7392.158244062869
 30
0.0
 11
4913.16544792602
 21
7392.158244062873
 31
0.0
  0
LINE
  5
1A8BB
330
747D
100
AcDbEntity
  8
細線
100
AcDbLine
 10
5155.702964380296
 20
7392.15824406285
 30
0.0
 11
5157.801348842
 21
7396.658244062869
 31
0.0
  0
LINE
  5
1A8BC
330
747D
100
AcDbEntity
  8
細線
100
AcDbLine
 10
5085.702964380278
 20
7392.158244062841
 30
0.0
 11
5083.604579918571
 21
7396.658244062869
 31
0.0
  0
LINE
  5
1A8BD
330
747D
100
AcDbEntity
  8
細線
100
AcDbLine
 10
5155.702964380289
 20
7392.158244062841
 30
0.0
 11
5085.702964380278
 21
7392.158244062841
 31
0.0
  0
LINE
  5
1A8BE
330
747D
100
AcDbEntity
  8
細線
100
AcDbLine
 10
5225.702964380289
 20
7392.158244062831
 30
0.0
 11
5223.604579918577
 21
7396.658244062869
 31
0.0
  0
LINE
  5
1A8BF
330
747D
100
AcDbEntity
  8
細線
 48
50.0
100
AcDbLine
 10
5331.902964380287
 20
7369.158244062875
 30
0.0
 11
4917.502964380283
 21
7369.158244062875
 31
0.0
  0
LINE
  5
1A8C0
330
747D
100
AcDbEntity
  8
細線
100
AcDbLine
 10
4884.113265415119
 20
7384.158244062873
 30
0.0
 11
4876.502964380286
 21
7384.158244062873
 31
0.0
  0
LINE
  5
1A8C1
330
747D
100
AcDbEntity
  8
細線
100
AcDbLine
 10
4917.502964380283
 20
7367.558965853522
 30
0.0
 11
4917.502964380288
 21
7386.158244062869
 31
0.0
  0
LINE
  5
1A8C2
330
747D
100
AcDbEntity
  8
細線
100
AcDbLine
 10
4917.502964380281
 20
7386.158244062869
 30
0.0
 11
4914.223409810272
 21
7386.158244062869
 31
0.0
  0
LINE
  5
1A8C3
330
747D
100
AcDbEntity
  8
細線
100
AcDbLine
 10
4920.902964380282
 20
7393.864095125589
 30
0.0
 11
4912.864660358594
 21
7393.864095125589
 31
0.0
  0
LINE
  5
1A8C4
330
747D
100
AcDbEntity
  8
細線
100
AcDbLine
 10
4908.902964380504
 20
7420.15824406287
 30
0.0
 11
4908.228292466183
 21
7420.15824406287
 31
0.0
  0
LINE
  5
1A8C5
330
747D
100
AcDbEntity
  8
細線
100
AcDbLine
 10
4876.502964380286
 20
7384.158244062873
 30
0.0
 11
4876.502964380286
 21
7420.15824406287
 31
0.0
  0
LINE
  5
1A8C6
330
747D
100
AcDbEntity
  8
細線
100
AcDbLine
 10
4908.902964380283
 20
7416.331989502237
 30
0.0
 11
4908.902964380282
 21
7418.76409512559
 31
0.0
  0
LINE
  5
1A8C7
330
747D
100
AcDbEntity
  8
細線
100
AcDbLine
 10
4908.902964380282
 20
7418.76409512559
 30
0.0
 11
4908.474118538952
 21
7418.76409512559
 31
0.0
  0
LINE
  5
1A8C8
330
747D
100
AcDbEntity
  8
細線
100
AcDbLine
 10
4713.352964380304
 20
7356.158244062894
 30
0.0
 11
4705.852964380311
 21
7379.158244062825
 31
0.0
  0
LINE
  5
1A8C9
330
747D
100
AcDbEntity
  8
細線
100
AcDbLine
 10
4653.352964380305
 20
7356.158244062905
 30
0.0
 11
4660.852964380312
 21
7379.158244062825
 31
0.0
  0
LINE
  5
1A8CA
330
747D
100
AcDbEntity
  8
細線
100
AcDbLine
 10
4578.352964380278
 20
7356.158244062836
 30
0.0
 11
4580.684502671046
 21
7361.15824406282
 31
0.0
  0
LINE
  5
1A8CB
330
747D
100
AcDbEntity
  8
細線
100
AcDbLine
 10
4648.352964380276
 20
7356.158244062817
 30
0.0
 11
4646.021426089508
 21
7361.158244062803
 31
0.0
  0
LINE
  5
1A8CC
330
747D
100
AcDbEntity
  8
細線
100
AcDbLine
 10
4646.021426089508
 20
7361.158244062803
 30
0.0
 11
4580.684502671036
 21
7361.158244062791
 31
0.0
  0
LINE
  5
1A8CD
330
747D
100
AcDbEntity
  8
細線
100
AcDbLine
 10
4718.352964380279
 20
7356.158244062855
 30
0.0
 11
4720.684502671047
 21
7361.158244062842
 31
0.0
  0
LINE
  5
1A8CE
330
747D
100
AcDbEntity
  8
細線
100
AcDbLine
 10
4788.352964380275
 20
7356.158244062839
 30
0.0
 11
4786.021426089508
 21
7361.158244062824
 31
0.0
  0
LINE
  5
1A8CF
330
747D
100
AcDbEntity
  8
細線
100
AcDbLine
 10
4786.021426089508
 20
7361.158244062824
 30
0.0
 11
4720.684502671033
 21
7361.158244062814
 31
0.0
  0
LINE
  5
1A8D0
330
747D
100
AcDbEntity
  8
細線
100
AcDbLine
 10
4718.352964380275
 20
7356.158244062847
 30
0.0
 11
4648.352964380261
 21
7356.158244062847
 31
0.0
  0
ARC
  5
1A8D1
330
747D
100
AcDbEntity
  8
細線
100
AcDbCircle
 10
4683.35297088027
 20
7381.658244062819
 30
0.0
 40
6.0
100
AcDbArc
 50
204.6243183522943
 51
335.3756816477057
  0
LINE
  5
1A8D2
330
747D
100
AcDbEntity
  8
細線
100
AcDbLine
 10
4889.050420874955
 20
7356.158244062872
 30
0.0
 11
4788.352964380261
 21
7356.158244062872
 31
0.0
  0
LINE
  5
1A8D3
330
747D
100
AcDbEntity
  8
細線
100
AcDbLine
 10
3936.902964380287
 20
7352.158244062785
 30
0.0
 11
3936.902964380287
 21
7345.158244062784
 31
0.0
  0
LINE
  5
1A8D4
330
747D
100
AcDbEntity
  8
細線
100
AcDbLine
 10
3936.902964380287
 20
7352.158244062785
 30
0.0
 11
3921.902964380286
 21
7352.158244062785
 31
0.0
  0
LINE
  5
1A8D5
330
747D
100
AcDbEntity
  8
細線
100
AcDbLine
 10
3921.902964380286
 20
7326.158244062738
 30
0.0
 11
3921.902964380286
 21
7322.158244062788
 31
0.0
  0
LINE
  5
1A8D6
330
747D
100
AcDbEntity
  8
細線
100
AcDbLine
 10
4180.202964380304
 20
7322.158244062824
 30
0.0
 11
3912.890657731237
 21
7322.158244062784
 31
0.0
  0
LINE
  5
1A8D7
330
747D
100
AcDbEntity
  8
細線
100
AcDbLine
 10
4490.202964380285
 20
7322.158244062788
 30
0.0
 11
4390.202964380278
 21
7322.158244062774
 31
0.0
  0
LINE
  5
1A8D8
330
747D
100
AcDbEntity
  8
細線
100
AcDbLine
 10
4255.202964380211
 20
7322.158244062875
 30
0.0
 11
4262.702964380221
 21
7345.158244062796
 31
0.0
  0
LINE
  5
1A8D9
330
747D
100
AcDbEntity
  8
細線
100
AcDbLine
 10
4315.202964380211
 20
7322.158244062864
 30
0.0
 11
4307.702964380216
 21
7345.158244062796
 31
0.0
  0
LINE
  5
1A8DA
330
747D
100
AcDbEntity
  8
細線
100
AcDbLine
 10
4390.20296438028
 20
7322.158244062788
 30
0.0
 11
4387.871426089514
 21
7327.158244062774
 31
0.0
  0
LINE
  5
1A8DB
330
747D
100
AcDbEntity
  8
細線
100
AcDbLine
 10
4387.871426089517
 20
7327.158244062774
 30
0.0
 11
4322.534502671042
 21
7327.158244062762
 31
0.0
  0
LINE
  5
1A8DC
330
747D
100
AcDbEntity
  8
細線
100
AcDbLine
 10
4320.202964380288
 20
7322.158244062762
 30
0.0
 11
4250.202964380289
 21
7322.158244062755
 31
0.0
  0
LINE
  5
1A8DD
330
747D
100
AcDbEntity
  8
細線
100
AcDbLine
 10
4320.202964380288
 20
7322.158244062805
 30
0.0
 11
4322.534502671055
 21
7327.158244062792
 31
0.0
  0
LINE
  5
1A8DE
330
747D
100
AcDbEntity
  8
細線
100
AcDbLine
 10
4247.871426089512
 20
7327.158244062755
 30
0.0
 11
4182.534502671042
 21
7327.158244062745
 31
0.0
  0
LINE
  5
1A8DF
330
747D
100
AcDbEntity
  8
細線
100
AcDbLine
 10
4250.202964380281
 20
7322.158244062769
 30
0.0
 11
4247.871426089512
 21
7327.158244062755
 31
0.0
  0
LINE
  5
1A8E0
330
747D
100
AcDbEntity
  8
細線
100
AcDbLine
 10
4180.202964380285
 20
7322.158244062788
 30
0.0
 11
4182.534502671052
 21
7327.158244062774
 31
0.0
  0
ARC
  5
1A8E1
330
747D
100
AcDbEntity
  8
細線
100
AcDbCircle
 10
4285.202970880185
 20
7347.658244062767
 30
0.0
 40
6.0
100
AcDbArc
 50
204.6243183522943
 51
335.3756816477057
  0
LINE
  5
1A8E2
330
747D
100
AcDbEntity
  8
細線
100
AcDbLine
 10
4078.402964380287
 20
7340.15824406281
 30
0.0
 11
4078.402964380287
 21
7322.158244062788
 31
0.0
  0
LINE
  5
1A8E3
330
747D
100
AcDbEntity
  8
細線
100
AcDbLine
 10
4037.402964380286
 20
7340.158244062806
 30
0.0
 11
4037.402964380286
 21
7322.158244062788
 31
0.0
  0
LINE
  5
1A8E4
330
747D
100
AcDbEntity
  8
細線
100
AcDbLine
 10
4078.402964380287
 20
7340.15824406281
 30
0.0
 11
4037.402964380286
 21
7340.158244062806
 31
0.0
  0
ARC
  5
1A8E5
330
747D
100
AcDbEntity
  8
部品1
100
AcDbCircle
 10
4039.947120257562
 20
7321.658244062809
 30
0.0
 40
1.0
100
AcDbArc
 50
270.0
 51
19.47122063441346
  0
LINE
  5
1A8E6
330
747D
100
AcDbEntity
  8
部品1
 48
0.01
100
AcDbLine
 10
4032.902964380279
 20
7322.158244062809
 30
0.0
 11
4032.902964380279
 21
7321.158244062811
 31
0.0
  0
LINE
  5
1A8E7
330
747D
100
AcDbEntity
  8
部品1
 48
0.01
100
AcDbLine
 10
4033.402964380278
 20
7320.658244062809
 30
0.0
 11
4039.947120257562
 21
7320.658244062809
 31
0.0
  0
ARC
  5
1A8E8
330
747D
100
AcDbEntity
  8
部品1
 48
0.01
100
AcDbCircle
 10
4033.402964380278
 20
7321.158244062811
 30
0.0
 40
0.5
100
AcDbArc
 50
180.0
 51
270.0
  0
ARC
  5
1A8E9
330
747D
100
AcDbEntity
  8
部品1
100
AcDbCircle
 10
4065.402964380278
 20
7330.65824406281
 30
0.0
 40
26.0
100
AcDbArc
 50
180.0
 51
199.4712206344135
  0
ARC
  5
1A8EA
330
747D
100
AcDbEntity
  8
部品1
 48
0.01
100
AcDbCircle
 10
4041.402964380277
 20
7335.65824406281
 30
0.0
 40
2.0
100
AcDbArc
 50
90.0
 51
180.0
  0
LINE
  5
1A8EB
330
747D
100
AcDbEntity
  8
部品1
100
AcDbLine
 10
4039.402964380278
 20
7330.65824406281
 30
0.0
 11
4039.402964380278
 21
7335.65824406281
 31
0.0
  0
ARC
  5
1A8EC
330
747D
100
AcDbEntity
  8
部品1
100
AcDbCircle
 10
4057.902964380279
 20
7346.458244062808
 30
0.0
 40
16.0
100
AcDbArc
 50
218.3930440192126
 51
254.0576313943215
  0
ARC
  5
1A8ED
330
747D
100
AcDbEntity
  8
部品1
100
AcDbCircle
 10
4043.011356005091
 20
7334.65824406281
 30
0.0
 40
3.0
100
AcDbArc
 50
38.39304401921267
 51
90.0
  0
LINE
  5
1A8EE
330
747D
100
AcDbEntity
  8
部品1
 48
0.01
100
AcDbLine
 10
4041.402964380277
 20
7337.65824406281
 30
0.0
 11
4043.011356005091
 21
7337.65824406281
 31
0.0
  0
ARC
  5
1A8EF
330
747D
100
AcDbEntity
  8
部品1
100
AcDbCircle
 10
4057.902964380279
 20
7346.458244062808
 30
0.0
 40
16.0
100
AcDbArc
 50
285.9423686056786
 51
321.6069559807873
  0
LINE
  5
1A8F0
330
747D
100
AcDbEntity
  8
部品1
100
AcDbLine
 10
4061.473678594547
 20
7330.958244062808
 30
0.0
 11
4054.332250166008
 21
7330.958244062808
 31
0.0
  0
ARC
  5
1A8F1
330
747D
100
AcDbEntity
  8
部品1
100
AcDbCircle
 10
4061.473678594547
 20
7333.958244062808
 30
0.0
 40
3.0
100
AcDbArc
 50
270.0
 51
285.9423686056786
  0
ARC
  5
1A8F2
330
747D
100
AcDbEntity
  8
部品1
100
AcDbCircle
 10
4054.332250166008
 20
7333.958244062808
 30
0.0
 40
3.0
100
AcDbArc
 50
254.0576313943215
 51
270.0
  0
LINE
  5
1A8F3
330
747D
100
AcDbEntity
  8
部品1
 48
0.01
100
AcDbLine
 10
4074.402964380277
 20
7337.65824406281
 30
0.0
 11
4072.794572755468
 21
7337.65824406281
 31
0.0
  0
ARC
  5
1A8F4
330
747D
100
AcDbEntity
  8
部品1
100
AcDbCircle
 10
4072.794572755468
 20
7334.65824406281
 30
0.0
 40
3.0
100
AcDbArc
 50
90.0
 51
141.6069559807873
  0
ARC
  5
1A8F5
330
747D
100
AcDbEntity
  8
部品1
 48
0.01
100
AcDbCircle
 10
4074.402964380277
 20
7335.65824406281
 30
0.0
 40
2.0
100
AcDbArc
 50
0.0
 51
90.0
  0
LINE
  5
1A8F6
330
747D
100
AcDbEntity
  8
部品1
100
AcDbLine
 10
4076.402964380277
 20
7330.65824406281
 30
0.0
 11
4076.402964380277
 21
7335.65824406281
 31
0.0
  0
ARC
  5
1A8F7
330
747D
100
AcDbEntity
  8
部品1
100
AcDbCircle
 10
4050.402964380277
 20
7330.65824406281
 30
0.0
 40
26.0
100
AcDbArc
 50
340.5287793655865
 51
0.0
  0
ARC
  5
1A8F8
330
747D
100
AcDbEntity
  8
部品1
100
AcDbCircle
 10
4075.858808502995
 20
7321.658244062809
 30
0.0
 40
1.0
100
AcDbArc
 50
160.5287793655865
 51
270.0
  0
LINE
  5
1A8F9
330
747D
100
AcDbEntity
  8
部品1
 48
0.01
100
AcDbLine
 10
4082.402964380277
 20
7320.658244062809
 30
0.0
 11
4075.790458950217
 21
7320.658244062809
 31
0.0
  0
LINE
  5
1A8FA
330
747D
100
AcDbEntity
  8
部品1
 48
0.01
100
AcDbLine
 10
4082.902964380279
 20
7322.158244062809
 30
0.0
 11
4082.902964380279
 21
7321.158244062811
 31
0.0
  0
LINE
  5
1A8FB
330
747D
100
AcDbEntity
  8
部品1
 48
0.01
100
AcDbLine
 10
4082.902964380279
 20
7322.158244062809
 30
0.0
 11
4082.902964380279
 21
7321.158244062811
 31
0.0
  0
ARC
  5
1A8FC
330
747D
100
AcDbEntity
  8
部品1
 48
0.01
100
AcDbCircle
 10
4082.402964380277
 20
7321.158244062811
 30
0.0
 40
0.5
100
AcDbArc
 50
270.0
 51
0.0
  0
LINE
  5
1A8FD
330
747D
100
AcDbEntity
  8
細線
100
AcDbLine
 10
4578.352964380282
 20
7356.158244062836
 30
0.0
 11
4481.202964380289
 21
7356.158244062777
 31
0.0
  0
LINE
  5
1A8FE
330
747D
100
AcDbEntity
  8
細線
100
AcDbLine
 10
4884.99490031866
 20
7379.158244062875
 30
0.0
 11
4464.202964380278
 21
7379.158244062875
 31
0.0
  0
LINE
  5
1A8FF
330
747D
100
AcDbEntity
  8
細線
 48
50.0
100
AcDbLine
 10
5331.90296438029
 20
7335.158244062871
 30
0.0
 11
4923.216085826404
 21
7335.158244062869
 31
0.0
  0
LINE
  5
1A900
330
747D
100
AcDbEntity
  8
細線
100
AcDbLine
 10
4475.202964380279
 20
7345.158244062865
 30
0.0
 11
3936.902964380287
 21
7345.158244062784
 31
0.0
  0
LINE
  5
1A901
330
747D
100
AcDbEntity
  8
細線
 48
50.0
100
AcDbLine
 10
4449.202964380278
 20
7369.158244062844
 30
0.0
 11
3921.902964380286
 21
7369.158244062756
 31
0.0
  0
LINE
  5
1A902
330
747D
100
AcDbEntity
  8
細線
100
AcDbLine
 10
4469.20296438026
 20
7352.158244062774
 30
0.0
 11
4469.202964380263
 21
7356.158244062775
 31
0.0
  0
LINE
  5
1A903
330
747D
100
AcDbEntity
  8
細線
100
AcDbLine
 10
4469.20296438026
 20
7352.158244062774
 30
0.0
 11
4449.202964380271
 21
7352.158244062774
 31
0.0
  0
LINE
  5
1A904
330
747D
100
AcDbEntity
  8
細線
100
AcDbLine
 10
4449.202964380271
 20
7352.158244062774
 30
0.0
 11
4449.202964380281
 21
7386.158244062781
 31
0.0
  0
LINE
  5
1A905
330
747D
100
AcDbEntity
  8
細線
100
AcDbLine
 10
4490.202964380278
 20
7322.158244062788
 30
0.0
 11
4490.202964380289
 21
7352.158244062787
 31
0.0
  0
LINE
  5
1A906
330
747D
100
AcDbEntity
  8
細線
100
AcDbLine
 10
4490.202964380285
 20
7352.158244062787
 30
0.0
 11
4475.202964380286
 21
7352.158244062785
 31
0.0
  0
LINE
  5
1A907
330
747D
100
AcDbEntity
  8
細線
100
AcDbLine
 10
4475.202964380279
 20
7345.158244062865
 30
0.0
 11
4475.202964380286
 21
7352.158244062785
 31
0.0
  0
LINE
  5
1A908
330
747D
100
AcDbEntity
  8
細線
100
AcDbLine
 10
4475.202964380263
 20
7356.158244062777
 30
0.0
 11
4469.202964380263
 21
7356.158244062782
 31
0.0
  0
LINE
  5
1A909
330
747D
100
AcDbEntity
  8
細線
100
AcDbLine
 10
4481.202964380289
 20
7355.458244062781
 30
0.0
 11
4481.202964380289
 21
7356.158244062777
 31
0.0
  0
ARC
  5
1A90A
330
747D
100
AcDbEntity
  8
細線
100
AcDbCircle
 10
4479.202964380289
 20
7355.458244062777
 30
0.0
 40
2.0
100
AcDbArc
 50
270.0
 51
0.0
  0
LINE
  5
1A90B
330
747D
100
AcDbEntity
  8
細線
100
AcDbLine
 10
4477.202964380288
 20
7353.458244062782
 30
0.0
 11
4479.202964380289
 21
7353.458244062782
 31
0.0
  0
LINE
  5
1A90C
330
747D
100
AcDbEntity
  8
細線
100
AcDbLine
 10
4475.202964380289
 20
7355.458244062781
 30
0.0
 11
4475.202964380289
 21
7356.158244062777
 31
0.0
  0
ARC
  5
1A90D
330
747D
100
AcDbEntity
  8
細線
100
AcDbCircle
 10
4477.202964380288
 20
7355.458244062777
 30
0.0
 40
2.0
100
AcDbArc
 50
180.0
 51
270.0
  0
LINE
  5
1A90E
330
747D
100
AcDbEntity
  8
細線
100
AcDbLine
 10
4464.202964380278
 20
7379.15824406278
 30
0.0
 11
4464.202964380279
 21
7386.158244062781
 31
0.0
  0
LINE
  5
1A90F
330
747D
100
AcDbEntity
  8
細線
100
AcDbLine
 10
4464.202964380279
 20
7386.158244062781
 30
0.0
 11
4449.202964380281
 21
7386.158244062781
 31
0.0
  0
MTEXT
  5
1A910
330
747D
100
AcDbEntity
  8
寸法
 62
     7
 48
50.0
100
AcDbMText
 10
8033.442954093617
 20
7810.645433501162
 30
0.0
 40
96.0
 41
0.0
 71
     5
 72
     1
  1
棚 2段
  7
STYLE1
 11
0.0000000000000001
 21
1.0
 31
0.0
 73
     1
 44
1.0
1001
ACAD
1000
MTEXTBEGIN
1070
    73
1070
     1
1070
    44
1040
1.0
1070
    74
1070
     0
1000
MTEXTEND
  0
MTEXT
  5
1A911
330
747D
100
AcDbEntity
  8
寸法
 62
     7
 48
50.0
100
AcDbMText
 10
8032.120824117781
 20
8877.55673247725
 30
0.0
 40
96.0
 41
0.0
 71
     5
 72
     1
  1
棚 2段
  7
STYLE1
 11
0.0000000000000001
 21
1.0
 31
0.0
 73
     1
 44
1.0
1001
ACAD
1000
MTEXTBEGIN
1070
    73
1070
     1
1070
    44
1040
1.0
1070
    74
1070
     0
1000
MTEXTEND
  0
MTEXT
  5
1A912
330
747D
100
AcDbEntity
  8
寸法
 62
     7
 48
50.0
100
AcDbMText
 10
6503.442954093616
 20
7810.645433501157
 30
0.0
 40
96.0
 41
0.0
 71
     5
 72
     1
  1
棚 2段
  7
STYLE1
 11
0.0000000000000001
 21
1.0
 31
0.0
 73
     1
 44
1.0
1001
ACAD
1000
MTEXTBEGIN
1070
    73
1070
     1
1070
    44
1040
1.0
1070
    74
1070
     0
1000
MTEXTEND
  0
MTEXT
  5
1A913
330
747D
100
AcDbEntity
  8
寸法
 62
     7
 48
50.0
100
AcDbMText
 10
6502.120824117779
 20
8877.556732477245
 30
0.0
 40
96.0
 41
0.0
 71
     5
 72
     1
  1
棚 2段
  7
STYLE1
 11
0.0000000000000001
 21
1.0
 31
0.0
 73
     1
 44
1.0
1001
ACAD
1000
MTEXTBEGIN
1070
    73
1070
     1
1070
    44
1040
1.0
1070
    74
1070
     0
1000
MTEXTEND
  0
MTEXT
  5
1A914
330
747D
100
AcDbEntity
  8
寸法
 62
     7
 48
50.0
100
AcDbMText
 10
4972.120824117779
 20
8877.556732477243
 30
0.0
 40
96.0
 41
0.0
 71
     5
 72
     1
  1
棚 2段
  7
STYLE1
 11
0.0000000000000001
 21
1.0
 31
0.0
 73
     1
 44
1.0
1001
ACAD
1000
MTEXTBEGIN
1070
    73
1070
     1
1070
    44
1040
1.0
1070
    74
1070
     0
1000
MTEXTEND
  0
MTEXT
  5
1A915
330
747D
100
AcDbEntity
  8
寸法
 62
     7
 48
50.0
100
AcDbMText
 10
4973.442954093616
 20
7810.645433501155
 30
0.0
 40
96.0
 41
0.0
 71
     5
 72
     1
  1
棚 2段
  7
STYLE1
 11
0.0000000000000001
 21
1.0
 31
0.0
 73
     1
 44
1.0
1001
ACAD
1000
MTEXTBEGIN
1070
    73
1070
     1
1070
    44
1040
1.0
1070
    74
1070
     0
1000
MTEXTEND
  0
LINE
  5
1A916
330
747D
100
AcDbEntity
  8
寸法
 48
50.0
100
AcDbLine
 10
4238.665101735667
 20
7216.26388519098
 30
0.0
 11
4187.259093825562
 21
7216.26388519098
 31
0.0
  0
LINE
  5
1A917
330
747D
100
AcDbEntity
  8
寸法
 48
50.0
100
AcDbLine
 10
4187.259093825562
 20
7216.26388519098
 30
0.0
 11
4187.259093825562
 21
7247.574043843146
 31
0.0
  0
LINE
  5
1A918
330
747D
100
AcDbEntity
  8
寸法
 48
50.0
100
AcDbLine
 10
4187.259093825562
 20
7247.574043843146
 30
0.0
 11
4157.497761834139
 21
7247.574043843146
 31
0.0
  0
LINE
  5
1A919
330
747D
100
AcDbEntity
  8
寸法
 48
50.0
100
AcDbLine
 10
4157.497761834139
 20
7247.574043843146
 30
0.0
 11
4212.962097780615
 21
7285.153494771762
 31
0.0
  0
LINE
  5
1A91A
330
747D
100
AcDbEntity
  8
寸法
 48
50.0
100
AcDbLine
 10
4268.426433727091
 20
7247.574043843146
 30
0.0
 11
4212.962097780615
 21
7285.153494771762
 31
0.0
  0
LINE
  5
1A91B
330
747D
100
AcDbEntity
  8
寸法
 48
50.0
100
AcDbLine
 10
4238.665101735667
 20
7247.574043843146
 30
0.0
 11
4268.426433727091
 21
7247.574043843146
 31
0.0
  0
LINE
  5
1A91C
330
747D
100
AcDbEntity
  8
寸法
 48
50.0
100
AcDbLine
 10
4238.665101735667
 20
7216.26388519098
 30
0.0
 11
4238.665101735667
 21
7247.574043843146
 31
0.0
  0
LINE
  5
1A91D
330
747D
100
AcDbEntity
  8
寸法
 48
50.0
100
AcDbLine
 10
4187.259093825562
 20
7216.26388519098
 30
0.0
 11
4238.665101735667
 21
7216.26388519098
 31
0.0
  0
LINE
  5
1A91E
330
747D
100
AcDbEntity
  8
寸法
 48
50.0
100
AcDbLine
 10
4567.146270608846
 20
7273.409475945803
 30
0.0
 11
4567.146270608846
 21
7219.745841364013
 31
0.0
  0
LINE
  5
1A91F
330
747D
100
AcDbEntity
  8
寸法
 48
50.0
100
AcDbLine
 10
4656.430489204267
 20
7249.485841676317
 30
0.0
 11
4567.146270608846
 21
7273.409475945803
 31
0.0
  0
LINE
  5
1A920
330
747D
100
AcDbEntity
  8
寸法
 48
50.0
100
AcDbLine
 10
4437.278549028541
 20
7249.485841676317
 30
0.0
 11
4656.430489204267
 21
7249.485841676317
 31
0.0
  0
DIMENSION
  5
1A921
330
747D
100
AcDbEntity
  8
寸法
100
AcDbDimension
  2
*D16
 10
3921.90296438029
 20
6781.160899910637
 30
0.0
 11
4334.202964380288
 21
6781.160899910637
 31
0.0
 70
   160
  1
有効開口部間口\P824
 71
     5
 42
824.599999999998
  3
INABA_S40G
100
AcDbAlignedDimension
 13
4746.502964380288
 23
7319.158244062845
 33
0.0
 14
3921.90296438029
 24
7319.158244062737
 34
0.0
100
AcDbRotatedDimension
1001
ACAD
1000
DSTYLE
1002
{
1002
}
  0
LINE
  5
1A922
330
747D
100
AcDbEntity
  8
細線
 48
50.0
100
AcDbLine
 10
6859.902964380289
 20
7374.158244062868
 30
0.0
 11
6861.90296438029
 21
7374.158244062868
 31
0.0
  0
LINE
  5
1A923
330
747D
100
AcDbEntity
  8
細線
100
AcDbLine
 10
6859.902964380289
 20
7374.158244062868
 30
0.0
 11
6859.902964380289
 21
7392.158244062869
 31
0.0
  0
LINE
  5
1A924
330
747D
100
AcDbEntity
  8
細線
100
AcDbLine
 10
6755.702964380289
 20
7392.158244062834
 30
0.0
 11
6753.604579918577
 21
7396.658244062871
 31
0.0
  0
LINE
  5
1A925
330
747D
100
AcDbEntity
  8
細線
100
AcDbLine
 10
6859.902964380289
 20
7392.158244062871
 30
0.0
 11
6755.702964380271
 21
7392.158244062874
 31
0.0
  0
LINE
  5
1A926
330
747D
100
AcDbEntity
  8
細線
100
AcDbLine
 10
6685.702964380289
 20
7392.158244062841
 30
0.0
 11
6615.70296438028
 21
7392.158244062845
 31
0.0
  0
LINE
  5
1A927
330
747D
100
AcDbEntity
  8
細線
100
AcDbLine
 10
6615.70296438028
 20
7392.158244062845
 30
0.0
 11
6613.604579918571
 21
7396.658244062871
 31
0.0
  0
LINE
  5
1A928
330
747D
100
AcDbEntity
  8
細線
100
AcDbLine
 10
6685.702964380296
 20
7392.158244062852
 30
0.0
 11
6687.801348842
 21
7396.658244062871
 31
0.0
  0
LINE
  5
1A929
330
747D
100
AcDbEntity
  8
細線
100
AcDbLine
 10
6545.702964380281
 20
7392.158244062871
 30
0.0
 11
6438.502964380285
 21
7392.158244062874
 31
0.0
  0
LINE
  5
1A92A
330
747D
100
AcDbEntity
  8
細線
100
AcDbLine
 10
6545.702964380286
 20
7392.158244062864
 30
0.0
 11
6547.801348841986
 21
7396.658244062871
 31
0.0
  0
LINE
  5
1A92B
330
747D
100
AcDbEntity
  8
細線
100
AcDbLine
 10
6438.902964380282
 20
7418.764095125594
 30
0.0
 11
6407.716912963542
 21
7418.764095125594
 31
0.0
  0
LINE
  5
1A92C
330
747D
100
AcDbEntity
  8
細線
100
AcDbLine
 10
6438.902964380282
 20
7393.864095125592
 30
0.0
 11
6438.902964380282
 21
7418.764095125594
 31
0.0
  0
LINE
  5
1A92D
330
747D
100
AcDbEntity
  8
細線
100
AcDbLine
 10
6421.502964380285
 20
7415.658244062875
 30
0.0
 11
6421.502964380285
 21
7420.15824406287
 31
0.0
  0
LINE
  5
1A92E
330
747D
100
AcDbEntity
  8
細線
100
AcDbLine
 10
6406.502964380284
 20
7384.158244062874
 30
0.0
 11
6406.502964380284
 21
7420.15824406287
 31
0.0
  0
LINE
  5
1A92F
330
747D
100
AcDbEntity
  8
細線
100
AcDbLine
 10
6438.902964380504
 20
7420.15824406287
 30
0.0
 11
6406.502964380284
 21
7420.15824406287
 31
0.0
  0
LINE
  5
1A930
330
747D
100
AcDbEntity
  8
細線
100
AcDbLine
 10
6450.902964380282
 20
7393.864095125592
 30
0.0
 11
6438.902964380282
 21
7393.864095125592
 31
0.0
  0
LINE
  5
1A931
330
747D
100
AcDbEntity
  8
細線
100
AcDbLine
 10
6438.502964380285
 20
7391.458244062873
 30
0.0
 11
6438.502964380285
 21
7392.158244062874
 31
0.0
  0
ARC
  5
1A932
330
747D
100
AcDbEntity
  8
細線
100
AcDbCircle
 10
6436.502964380284
 20
7391.458244062873
 30
0.0
 40
2.0
100
AcDbArc
 50
270.0
 51
0.0
  0
LINE
  5
1A933
330
747D
100
AcDbEntity
  8
細線
100
AcDbLine
 10
6434.502964380285
 20
7389.458244062874
 30
0.0
 11
6436.502964380284
 21
7389.458244062874
 31
0.0
  0
LINE
  5
1A934
330
747D
100
AcDbEntity
  8
細線
100
AcDbLine
 10
6432.502964380285
 20
7391.458244062873
 30
0.0
 11
6432.502964380285
 21
7392.158244062874
 31
0.0
  0
ARC
  5
1A935
330
747D
100
AcDbEntity
  8
細線
100
AcDbCircle
 10
6434.502964380285
 20
7391.458244062873
 30
0.0
 40
2.0
100
AcDbArc
 50
180.0
 51
270.0
  0
LINE
  5
1A936
330
747D
100
AcDbEntity
  8
細線
100
AcDbLine
 10
6432.502964380285
 20
7392.158244062874
 30
0.0
 11
6426.502964380285
 21
7392.158244062874
 31
0.0
  0
LINE
  5
1A937
330
747D
100
AcDbEntity
  8
細線
 48
50.0
100
AcDbLine
 10
6861.902964380286
 20
7369.158244062878
 30
0.0
 11
6447.502964380284
 21
7369.158244062878
 31
0.0
  0
LINE
  5
1A938
330
747D
100
AcDbEntity
  8
細線
100
AcDbLine
 10
6432.502964380278
 20
7379.158244062871
 30
0.0
 11
6432.50296438028
 21
7386.158244062869
 31
0.0
  0
LINE
  5
1A939
330
747D
100
AcDbEntity
  8
細線
100
AcDbLine
 10
6447.502964380281
 20
7386.158244062875
 30
0.0
 11
6432.50296438028
 21
7386.158244062869
 31
0.0
  0
LINE
  5
1A93A
330
747D
100
AcDbEntity
  8
細線
100
AcDbLine
 10
6447.502964380281
 20
7356.158244062874
 30
0.0
 11
6447.502964380288
 21
7386.158244062875
 31
0.0
  0
LINE
  5
1A93B
330
747D
100
AcDbEntity
  8
細線
100
AcDbLine
 10
6426.502964380285
 20
7384.158244062874
 30
0.0
 11
6406.502964380284
 21
7384.158244062874
 31
0.0
  0
LINE
  5
1A93C
330
747D
100
AcDbEntity
  8
細線
100
AcDbLine
 10
6426.502964380285
 20
7384.158244062874
 30
0.0
 11
6426.502964380285
 21
7392.158244062874
 31
0.0
  0
LINE
  5
1A93D
330
747D
100
AcDbEntity
  8
細線
100
AcDbLine
 10
6447.502964380281
 20
7356.158244062874
 30
0.0
 11
6318.352964380261
 21
7356.158244062874
 31
0.0
  0
LINE
  5
1A93E
330
747D
100
AcDbEntity
  8
細線
100
AcDbLine
 10
5466.902964380286
 20
7352.158244062787
 30
0.0
 11
5451.902964380286
 21
7352.158244062787
 31
0.0
  0
LINE
  5
1A93F
330
747D
100
AcDbEntity
  8
細線
100
AcDbLine
 10
5466.902964380286
 20
7352.158244062787
 30
0.0
 11
5466.902964380286
 21
7345.158244062787
 31
0.0
  0
LINE
  5
1A940
330
747D
100
AcDbEntity
  8
細線
100
AcDbLine
 10
5451.902964380286
 20
7326.158244062741
 30
0.0
 11
5451.902964380286
 21
7322.158244062791
 31
0.0
  0
LINE
  5
1A941
330
747D
100
AcDbEntity
  8
細線
100
AcDbLine
 10
5710.202964380304
 20
7322.158244062828
 30
0.0
 11
5442.890657731237
 21
7322.158244062787
 31
0.0
  0
ARC
  5
1A942
330
747D
100
AcDbEntity
  8
部品1
 48
0.01
100
AcDbCircle
 10
5612.402964380279
 20
7321.158244062814
 30
0.0
 40
0.5
100
AcDbArc
 50
270.0
 51
0.0
  0
LINE
  5
1A943
330
747D
100
AcDbEntity
  8
部品1
 48
0.01
100
AcDbLine
 10
5612.902964380278
 20
7322.158244062812
 30
0.0
 11
5612.902964380278
 21
7321.158244062814
 31
0.0
  0
LINE
  5
1A944
330
747D
100
AcDbEntity
  8
部品1
 48
0.01
100
AcDbLine
 10
5612.902964380278
 20
7322.158244062812
 30
0.0
 11
5612.902964380278
 21
7321.158244062814
 31
0.0
  0
LINE
  5
1A945
330
747D
100
AcDbEntity
  8
部品1
 48
0.01
100
AcDbLine
 10
5612.402964380279
 20
7320.658244062812
 30
0.0
 11
5605.790458950218
 21
7320.658244062812
 31
0.0
  0
ARC
  5
1A946
330
747D
100
AcDbEntity
  8
部品1
100
AcDbCircle
 10
5605.858808502996
 20
7321.658244062813
 30
0.0
 40
1.0
100
AcDbArc
 50
160.5287793655865
 51
270.0
  0
ARC
  5
1A947
330
747D
100
AcDbEntity
  8
部品1
100
AcDbCircle
 10
5580.402964380279
 20
7330.658244062814
 30
0.0
 40
26.0
100
AcDbArc
 50
340.5287793655865
 51
0.0
  0
LINE
  5
1A948
330
747D
100
AcDbEntity
  8
部品1
100
AcDbLine
 10
5606.402964380279
 20
7330.658244062814
 30
0.0
 11
5606.402964380279
 21
7335.658244062813
 31
0.0
  0
ARC
  5
1A949
330
747D
100
AcDbEntity
  8
部品1
 48
0.01
100
AcDbCircle
 10
5604.402964380279
 20
7335.658244062813
 30
0.0
 40
2.0
100
AcDbArc
 50
0.0
 51
90.0
  0
ARC
  5
1A94A
330
747D
100
AcDbEntity
  8
部品1
100
AcDbCircle
 10
5602.794572755469
 20
7334.658244062812
 30
0.0
 40
3.0
100
AcDbArc
 50
90.0
 51
141.6069559807873
  0
LINE
  5
1A94B
330
747D
100
AcDbEntity
  8
部品1
 48
0.01
100
AcDbLine
 10
5604.402964380279
 20
7337.658244062812
 30
0.0
 11
5602.794572755469
 21
7337.658244062812
 31
0.0
  0
ARC
  5
1A94C
330
747D
100
AcDbEntity
  8
部品1
100
AcDbCircle
 10
5584.332250166006
 20
7333.958244062813
 30
0.0
 40
3.0
100
AcDbArc
 50
254.0576313943215
 51
270.0
  0
ARC
  5
1A94D
330
747D
100
AcDbEntity
  8
部品1
100
AcDbCircle
 10
5591.47367859455
 20
7333.958244062813
 30
0.0
 40
3.0
100
AcDbArc
 50
270.0
 51
285.9423686056786
  0
LINE
  5
1A94E
330
747D
100
AcDbEntity
  8
部品1
100
AcDbLine
 10
5591.47367859455
 20
7330.958244062813
 30
0.0
 11
5584.332250166006
 21
7330.958244062813
 31
0.0
  0
ARC
  5
1A94F
330
747D
100
AcDbEntity
  8
部品1
100
AcDbCircle
 10
5587.90296438028
 20
7346.458244062811
 30
0.0
 40
16.0
100
AcDbArc
 50
285.9423686056786
 51
321.6069559807873
  0
LINE
  5
1A950
330
747D
100
AcDbEntity
  8
部品1
 48
0.01
100
AcDbLine
 10
5571.402964380279
 20
7337.658244062812
 30
0.0
 11
5573.011356005093
 21
7337.658244062812
 31
0.0
  0
ARC
  5
1A951
330
747D
100
AcDbEntity
  8
部品1
100
AcDbCircle
 10
5573.011356005093
 20
7334.658244062812
 30
0.0
 40
3.0
100
AcDbArc
 50
38.39304401921267
 51
90.0
  0
ARC
  5
1A952
330
747D
100
AcDbEntity
  8
部品1
100
AcDbCircle
 10
5587.90296438028
 20
7346.458244062811
 30
0.0
 40
16.0
100
AcDbArc
 50
218.3930440192126
 51
254.0576313943215
  0
LINE
  5
1A953
330
747D
100
AcDbEntity
  8
部品1
100
AcDbLine
 10
5569.402964380278
 20
7330.658244062814
 30
0.0
 11
5569.402964380278
 21
7335.658244062813
 31
0.0
  0
ARC
  5
1A954
330
747D
100
AcDbEntity
  8
部品1
 48
0.01
100
AcDbCircle
 10
5571.402964380279
 20
7335.658244062813
 30
0.0
 40
2.0
100
AcDbArc
 50
90.0
 51
180.0
  0
ARC
  5
1A955
330
747D
100
AcDbEntity
  8
部品1
100
AcDbCircle
 10
5595.40296438028
 20
7330.658244062814
 30
0.0
 40
26.0
100
AcDbArc
 50
180.0
 51
199.4712206344135
  0
ARC
  5
1A956
330
747D
100
AcDbEntity
  8
部品1
 48
0.01
100
AcDbCircle
 10
5563.40296438028
 20
7321.158244062814
 30
0.0
 40
0.5
100
AcDbArc
 50
180.0
 51
270.0
  0
LINE
  5
1A957
330
747D
100
AcDbEntity
  8
部品1
 48
0.01
100
AcDbLine
 10
5563.40296438028
 20
7320.658244062812
 30
0.0
 11
5569.947120257563
 21
7320.658244062812
 31
0.0
  0
LINE
  5
1A958
330
747D
100
AcDbEntity
  8
部品1
 48
0.01
100
AcDbLine
 10
5562.902964380278
 20
7322.158244062812
 30
0.0
 11
5562.902964380278
 21
7321.158244062814
 31
0.0
  0
ARC
  5
1A959
330
747D
100
AcDbEntity
  8
部品1
100
AcDbCircle
 10
5569.947120257563
 20
7321.658244062813
 30
0.0
 40
1.0
100
AcDbArc
 50
270.0
 51
19.47122063441346
  0
LINE
  5
1A95A
330
747D
100
AcDbEntity
  8
細線
100
AcDbLine
 10
5608.402964380286
 20
7340.158244062813
 30
0.0
 11
5567.402964380286
 21
7340.158244062807
 31
0.0
  0
LINE
  5
1A95B
330
747D
100
AcDbEntity
  8
細線
100
AcDbLine
 10
5567.402964380286
 20
7340.158244062807
 30
0.0
 11
5567.402964380286
 21
7322.158244062791
 31
0.0
  0
LINE
  5
1A95C
330
747D
100
AcDbEntity
  8
細線
100
AcDbLine
 10
5608.402964380286
 20
7340.158244062813
 30
0.0
 11
5608.402964380286
 21
7322.158244062791
 31
0.0
  0
LINE
  5
1A95D
330
747D
100
AcDbEntity
  8
細線
 48
50.0
100
AcDbLine
 10
5979.202964380277
 20
7369.158244062845
 30
0.0
 11
5451.902964380286
 21
7369.158244062758
 31
0.0
  0
LINE
  5
1A95E
330
747D
100
AcDbEntity
  8
細線
100
AcDbLine
 10
6005.202964380282
 20
7345.158244062867
 30
0.0
 11
5466.902964380286
 21
7345.158244062787
 31
0.0
  0
LINE
  5
1A95F
330
747D
100
AcDbEntity
  8
細線
 48
50.0
100
AcDbLine
 10
6861.90296438029
 20
7335.158244062874
 30
0.0
 11
6020.202964380281
 21
7335.158244062871
 31
0.0
  0
LINE
  5
1A960
330
747D
100
AcDbEntity
  8
細線
100
AcDbLine
 10
6432.502964380278
 20
7379.158244062875
 30
0.0
 11
5994.202964380278
 21
7379.158244062878
 31
0.0
  0
LINE
  5
1A961
330
747D
100
AcDbEntity
  8
寸法
 48
50.0
100
AcDbLine
 10
5967.278549028542
 20
7249.485841676321
 30
0.0
 11
6186.430489204267
 21
7249.485841676321
 31
0.0
  0
LINE
  5
1A962
330
747D
100
AcDbEntity
  8
寸法
 48
50.0
100
AcDbLine
 10
6186.430489204267
 20
7249.485841676321
 30
0.0
 11
6097.146270608845
 21
7273.409475945806
 31
0.0
  0
LINE
  5
1A963
330
747D
100
AcDbEntity
  8
寸法
 48
50.0
100
AcDbLine
 10
6097.146270608845
 20
7273.409475945806
 30
0.0
 11
6097.146270608845
 21
7219.745841364018
 31
0.0
  0
LINE
  5
1A964
330
747D
100
AcDbEntity
  8
寸法
 48
50.0
100
AcDbLine
 10
5717.259093825564
 20
7216.263885190985
 30
0.0
 11
5768.665101735667
 21
7216.263885190985
 31
0.0
  0
LINE
  5
1A965
330
747D
100
AcDbEntity
  8
寸法
 48
50.0
100
AcDbLine
 10
5768.665101735667
 20
7216.263885190985
 30
0.0
 11
5768.665101735667
 21
7247.57404384315
 31
0.0
  0
LINE
  5
1A966
330
747D
100
AcDbEntity
  8
寸法
 48
50.0
100
AcDbLine
 10
5768.665101735667
 20
7247.57404384315
 30
0.0
 11
5798.42643372709
 21
7247.57404384315
 31
0.0
  0
LINE
  5
1A967
330
747D
100
AcDbEntity
  8
寸法
 48
50.0
100
AcDbLine
 10
5798.42643372709
 20
7247.57404384315
 30
0.0
 11
5742.962097780615
 21
7285.153494771762
 31
0.0
  0
LINE
  5
1A968
330
747D
100
AcDbEntity
  8
寸法
 48
50.0
100
AcDbLine
 10
5687.497761834141
 20
7247.57404384315
 30
0.0
 11
5742.962097780615
 21
7285.153494771762
 31
0.0
  0
LINE
  5
1A969
330
747D
100
AcDbEntity
  8
寸法
 48
50.0
100
AcDbLine
 10
5717.259093825564
 20
7247.57404384315
 30
0.0
 11
5687.497761834141
 21
7247.57404384315
 31
0.0
  0
LINE
  5
1A96A
330
747D
100
AcDbEntity
  8
寸法
 48
50.0
100
AcDbLine
 10
5717.259093825564
 20
7216.263885190985
 30
0.0
 11
5717.259093825564
 21
7247.57404384315
 31
0.0
  0
LINE
  5
1A96B
330
747D
100
AcDbEntity
  8
寸法
 48
50.0
100
AcDbLine
 10
5768.665101735667
 20
7216.263885190985
 30
0.0
 11
5717.259093825564
 21
7216.263885190985
 31
0.0
  0
ARC
  5
1A96C
330
747D
100
AcDbEntity
  8
細線
100
AcDbCircle
 10
6213.352970880271
 20
7381.658244062824
 30
0.0
 40
6.0
100
AcDbArc
 50
204.6243183522943
 51
335.3756816477057
  0
LINE
  5
1A96D
330
747D
100
AcDbEntity
  8
細線
100
AcDbLine
 10
6248.352964380276
 20
7356.15824406285
 30
0.0
 11
6178.352964380263
 21
7356.15824406285
 31
0.0
  0
LINE
  5
1A96E
330
747D
100
AcDbEntity
  8
細線
100
AcDbLine
 10
6316.021426089508
 20
7361.158244062827
 30
0.0
 11
6250.684502671033
 21
7361.158244062817
 31
0.0
  0
LINE
  5
1A96F
330
747D
100
AcDbEntity
  8
細線
100
AcDbLine
 10
6318.352964380276
 20
7356.158244062841
 30
0.0
 11
6316.021426089508
 21
7361.158244062827
 31
0.0
  0
LINE
  5
1A970
330
747D
100
AcDbEntity
  8
細線
100
AcDbLine
 10
6248.35296438028
 20
7356.15824406286
 30
0.0
 11
6250.684502671047
 21
7361.158244062846
 31
0.0
  0
LINE
  5
1A971
330
747D
100
AcDbEntity
  8
細線
100
AcDbLine
 10
6176.021426089508
 20
7361.158244062806
 30
0.0
 11
6110.684502671036
 21
7361.158244062794
 31
0.0
  0
LINE
  5
1A972
330
747D
100
AcDbEntity
  8
細線
100
AcDbLine
 10
6178.352964380276
 20
7356.15824406282
 30
0.0
 11
6176.021426089508
 21
7361.158244062806
 31
0.0
  0
LINE
  5
1A973
330
747D
100
AcDbEntity
  8
細線
100
AcDbLine
 10
6108.35296438028
 20
7356.158244062839
 30
0.0
 11
6110.684502671047
 21
7361.158244062824
 31
0.0
  0
LINE
  5
1A974
330
747D
100
AcDbEntity
  8
細線
100
AcDbLine
 10
6183.352964380305
 20
7356.158244062908
 30
0.0
 11
6190.852964380312
 21
7379.158244062828
 31
0.0
  0
LINE
  5
1A975
330
747D
100
AcDbEntity
  8
細線
100
AcDbLine
 10
6243.352964380305
 20
7356.158244062898
 30
0.0
 11
6235.852964380312
 21
7379.158244062828
 31
0.0
  0
ARC
  5
1A976
330
747D
100
AcDbEntity
  8
細線
100
AcDbCircle
 10
5815.202970880186
 20
7347.65824406277
 30
0.0
 40
6.0
100
AcDbArc
 50
204.6243183522943
 51
335.3756816477057
  0
LINE
  5
1A977
330
747D
100
AcDbEntity
  8
細線
100
AcDbLine
 10
5710.202964380284
 20
7322.158244062791
 30
0.0
 11
5712.534502671054
 21
7327.158244062776
 31
0.0
  0
LINE
  5
1A978
330
747D
100
AcDbEntity
  8
細線
100
AcDbLine
 10
5780.202964380282
 20
7322.158244062773
 30
0.0
 11
5777.871426089514
 21
7327.158244062758
 31
0.0
  0
LINE
  5
1A979
330
747D
100
AcDbEntity
  8
細線
100
AcDbLine
 10
5777.871426089514
 20
7327.158244062758
 30
0.0
 11
5712.534502671043
 21
7327.158244062747
 31
0.0
  0
LINE
  5
1A97A
330
747D
100
AcDbEntity
  8
細線
100
AcDbLine
 10
5850.202964380289
 20
7322.158244062809
 30
0.0
 11
5852.534502671058
 21
7327.158244062795
 31
0.0
  0
LINE
  5
1A97B
330
747D
100
AcDbEntity
  8
細線
100
AcDbLine
 10
5850.202964380289
 20
7322.158244062766
 30
0.0
 11
5780.202964380289
 21
7322.158244062759
 31
0.0
  0
LINE
  5
1A97C
330
747D
100
AcDbEntity
  8
細線
100
AcDbLine
 10
5917.871426089518
 20
7327.158244062776
 30
0.0
 11
5852.534502671043
 21
7327.158244062765
 31
0.0
  0
LINE
  5
1A97D
330
747D
100
AcDbEntity
  8
細線
100
AcDbLine
 10
5920.202964380282
 20
7322.158244062791
 30
0.0
 11
5917.871426089514
 21
7327.158244062776
 31
0.0
  0
LINE
  5
1A97E
330
747D
100
AcDbEntity
  8
細線
100
AcDbLine
 10
5845.202964380213
 20
7322.158244062869
 30
0.0
 11
5837.702964380216
 21
7345.158244062798
 31
0.0
  0
LINE
  5
1A97F
330
747D
100
AcDbEntity
  8
細線
100
AcDbLine
 10
5785.202964380212
 20
7322.158244062878
 30
0.0
 11
5792.70296438022
 21
7345.158244062798
 31
0.0
  0
LINE
  5
1A980
330
747D
100
AcDbEntity
  8
細線
100
AcDbLine
 10
6020.202964380285
 20
7322.158244062791
 30
0.0
 11
5920.202964380278
 21
7322.158244062777
 31
0.0
  0
LINE
  5
1A981
330
747D
100
AcDbEntity
  8
細線
100
AcDbLine
 10
6108.352964380284
 20
7356.158244062839
 30
0.0
 11
6011.202964380289
 21
7356.158244062782
 31
0.0
  0
LINE
  5
1A982
330
747D
100
AcDbEntity
  8
細線
100
AcDbLine
 10
5994.202964380281
 20
7386.158244062784
 30
0.0
 11
5979.202964380282
 21
7386.158244062784
 31
0.0
  0
LINE
  5
1A983
330
747D
100
AcDbEntity
  8
細線
100
AcDbLine
 10
5994.202964380278
 20
7379.158244062783
 30
0.0
 11
5994.202964380281
 21
7386.158244062784
 31
0.0
  0
ARC
  5
1A984
330
747D
100
AcDbEntity
  8
細線
100
AcDbCircle
 10
6007.202964380289
 20
7355.458244062781
 30
0.0
 40
2.0
100
AcDbArc
 50
180.0
 51
270.0
  0
LINE
  5
1A985
330
747D
100
AcDbEntity
  8
細線
100
AcDbLine
 10
6005.202964380289
 20
7355.458244062782
 30
0.0
 11
6005.202964380289
 21
7356.158244062782
 31
0.0
  0
LINE
  5
1A986
330
747D
100
AcDbEntity
  8
細線
100
AcDbLine
 10
6007.202964380289
 20
7353.458244062782
 30
0.0
 11
6009.202964380289
 21
7353.458244062782
 31
0.0
  0
ARC
  5
1A987
330
747D
100
AcDbEntity
  8
細線
100
AcDbCircle
 10
6009.202964380289
 20
7355.458244062781
 30
0.0
 40
2.0
100
AcDbArc
 50
270.0
 51
0.0
  0
LINE
  5
1A988
330
747D
100
AcDbEntity
  8
細線
100
AcDbLine
 10
6011.202964380289
 20
7355.458244062782
 30
0.0
 11
6011.202964380289
 21
7356.158244062782
 31
0.0
  0
LINE
  5
1A989
330
747D
100
AcDbEntity
  8
細線
100
AcDbLine
 10
6005.202964380263
 20
7356.158244062782
 30
0.0
 11
5999.202964380264
 21
7356.158244062784
 31
0.0
  0
LINE
  5
1A98A
330
747D
100
AcDbEntity
  8
細線
100
AcDbLine
 10
6005.202964380282
 20
7345.158244062867
 30
0.0
 11
6005.202964380284
 21
7352.158244062787
 31
0.0
  0
LINE
  5
1A98B
330
747D
100
AcDbEntity
  8
細線
100
AcDbLine
 10
6020.202964380285
 20
7352.158244062792
 30
0.0
 11
6005.202964380284
 21
7352.158244062787
 31
0.0
  0
LINE
  5
1A98C
330
747D
100
AcDbEntity
  8
細線
100
AcDbLine
 10
6020.202964380278
 20
7322.158244062791
 30
0.0
 11
6020.202964380288
 21
7352.158244062792
 31
0.0
  0
LINE
  5
1A98D
330
747D
100
AcDbEntity
  8
細線
100
AcDbLine
 10
5979.20296438027
 20
7352.158244062777
 30
0.0
 11
5979.202964380282
 21
7386.158244062784
 31
0.0
  0
LINE
  5
1A98E
330
747D
100
AcDbEntity
  8
細線
100
AcDbLine
 10
5999.202964380259
 20
7352.158244062777
 30
0.0
 11
5979.20296438027
 21
7352.158244062777
 31
0.0
  0
LINE
  5
1A98F
330
747D
100
AcDbEntity
  8
細線
100
AcDbLine
 10
5999.202964380259
 20
7352.158244062777
 30
0.0
 11
5999.202964380264
 21
7356.158244062775
 31
0.0
  0
DIMENSION
  5
1A990
330
747D
100
AcDbEntity
  8
寸法
100
AcDbDimension
  2
*D17
 10
5451.902964380288
 20
6781.16089991064
 30
0.0
 11
5864.202964380288
 21
6781.16089991064
 31
0.0
 70
   160
  1
有効開口部間口\P824
 71
     5
 42
824.6000000000003
  3
INABA_S40G
100
AcDbAlignedDimension
 13
6276.502964380288
 23
7319.158244062847
 33
0.0
 14
5451.902964380288
 24
7319.158244062741
 34
0.0
100
AcDbRotatedDimension
1001
ACAD
1000
DSTYLE
1002
{
1002
}
  0
LINE
  5
1A991
330
747D
100
AcDbEntity
  8
細線
100
AcDbLine
 10
8389.90296438029
 20
7392.158244062892
 30
0.0
 11
8285.702964380268
 21
7392.158244062901
 31
0.0
  0
LINE
  5
1A992
330
747D
100
AcDbEntity
  8
細線
100
AcDbLine
 10
8389.90296438029
 20
7374.15824406289
 30
0.0
 11
8389.90296438029
 21
7392.158244062892
 31
0.0
  0
LINE
  5
1A993
330
747D
100
AcDbEntity
  8
細線
 48
50.0
100
AcDbLine
 10
8389.90296438029
 20
7374.15824406289
 30
0.0
 11
8391.902964380291
 21
7374.15824406289
 31
0.0
  0
LINE
  5
1A994
330
747D
100
AcDbEntity
  8
細線
100
AcDbLine
 10
8285.702964380289
 20
7392.158244062855
 30
0.0
 11
8283.604579918579
 21
7396.658244062897
 31
0.0
  0
LINE
  5
1A995
330
747D
100
AcDbEntity
  8
細線
100
AcDbLine
 10
8215.702964380296
 20
7392.158244062878
 30
0.0
 11
8217.801348842
 21
7396.658244062897
 31
0.0
  0
LINE
  5
1A996
330
747D
100
AcDbEntity
  8
細線
100
AcDbLine
 10
8145.702964380278
 20
7392.158244062871
 30
0.0
 11
8143.604579918571
 21
7396.658244062897
 31
0.0
  0
LINE
  5
1A997
330
747D
100
AcDbEntity
  8
細線
100
AcDbLine
 10
8215.702964380289
 20
7392.158244062869
 30
0.0
 11
8145.702964380278
 21
7392.158244062871
 31
0.0
  0
LINE
  5
1A998
330
747D
100
AcDbEntity
  8
細線
100
AcDbLine
 10
8075.702964380285
 20
7392.158244062887
 30
0.0
 11
8077.801348841985
 21
7396.658244062897
 31
0.0
  0
LINE
  5
1A999
330
747D
100
AcDbEntity
  8
細線
100
AcDbLine
 10
8075.702964380282
 20
7392.158244062897
 30
0.0
 11
7968.502964380284
 21
7392.158244062901
 31
0.0
  0
LINE
  5
1A99A
330
747D
100
AcDbEntity
  8
細線
100
AcDbLine
 10
7962.502964380284
 20
7392.158244062901
 30
0.0
 11
7956.502964380284
 21
7392.158244062901
 31
0.0
  0
LINE
  5
1A99B
330
747D
100
AcDbEntity
  8
細線
100
AcDbLine
 10
7962.502964380284
 20
7391.458244062896
 30
0.0
 11
7962.502964380284
 21
7392.158244062901
 31
0.0
  0
LINE
  5
1A99C
330
747D
100
AcDbEntity
  8
細線
100
AcDbLine
 10
7968.502964380284
 20
7391.458244062896
 30
0.0
 11
7968.502964380284
 21
7392.158244062901
 31
0.0
  0
LINE
  5
1A99D
330
747D
100
AcDbEntity
  8
細線
100
AcDbLine
 10
7980.902964380283
 20
7393.864095125618
 30
0.0
 11
7968.902964380284
 21
7393.864095125618
 31
0.0
  0
LINE
  5
1A99E
330
747D
100
AcDbEntity
  8
細線
100
AcDbLine
 10
7968.902964380504
 20
7420.158244062893
 30
0.0
 11
7936.502964380284
 21
7420.158244062893
 31
0.0
  0
LINE
  5
1A99F
330
747D
100
AcDbEntity
  8
細線
100
AcDbLine
 10
7951.502964380285
 20
7415.658244062901
 30
0.0
 11
7951.502964380285
 21
7420.158244062893
 31
0.0
  0
LINE
  5
1A9A0
330
747D
100
AcDbEntity
  8
細線
100
AcDbLine
 10
7968.902964380284
 20
7393.864095125618
 30
0.0
 11
7968.902964380284
 21
7418.764095125618
 31
0.0
  0
LINE
  5
1A9A1
330
747D
100
AcDbEntity
  8
細線
100
AcDbLine
 10
7968.902964380284
 20
7418.764095125618
 30
0.0
 11
7937.716912963544
 21
7418.764095125618
 31
0.0
  0
LINE
  5
1A9A2
330
747D
100
AcDbEntity
  8
細線
100
AcDbLine
 10
7848.352964380275
 20
7356.158244062864
 30
0.0
 11
7846.021426089508
 21
7361.158244062849
 31
0.0
  0
LINE
  5
1A9A3
330
747D
100
AcDbEntity
  8
細線
100
AcDbLine
 10
7846.021426089508
 20
7361.158244062849
 30
0.0
 11
7780.684502671032
 21
7361.158244062842
 31
0.0
  0
LINE
  5
1A9A4
330
747D
100
AcDbEntity
  8
細線
100
AcDbLine
 10
7977.502964380281
 20
7356.158244062901
 30
0.0
 11
7848.352964380261
 21
7356.158244062901
 31
0.0
  0
LINE
  5
1A9A5
330
747D
100
AcDbEntity
  8
細線
 48
50.0
100
AcDbLine
 10
8391.902964380284
 20
7369.158244062901
 30
0.0
 11
7977.502964380285
 21
7369.158244062901
 31
0.0
  0
LINE
  5
1A9A6
330
747D
100
AcDbEntity
  8
細線
100
AcDbLine
 10
7956.502964380284
 20
7384.158244062899
 30
0.0
 11
7956.502964380284
 21
7392.158244062901
 31
0.0
  0
LINE
  5
1A9A7
330
747D
100
AcDbEntity
  8
細線
100
AcDbLine
 10
7956.502964380284
 20
7384.158244062899
 30
0.0
 11
7936.502964380284
 21
7384.158244062899
 31
0.0
  0
LINE
  5
1A9A8
330
747D
100
AcDbEntity
  8
細線
100
AcDbLine
 10
7977.502964380281
 20
7356.158244062901
 30
0.0
 11
7977.502964380288
 21
7386.158244062901
 31
0.0
  0
LINE
  5
1A9A9
330
747D
100
AcDbEntity
  8
細線
100
AcDbLine
 10
7977.502964380281
 20
7386.158244062901
 30
0.0
 11
7962.502964380281
 21
7386.158244062894
 31
0.0
  0
LINE
  5
1A9AA
330
747D
100
AcDbEntity
  8
細線
100
AcDbLine
 10
7962.502964380277
 20
7379.158244062892
 30
0.0
 11
7962.502964380281
 21
7386.158244062894
 31
0.0
  0
ARC
  5
1A9AB
330
747D
100
AcDbEntity
  8
細線
100
AcDbCircle
 10
7964.502964380284
 20
7391.458244062896
 30
0.0
 40
2.0
100
AcDbArc
 50
180.0
 51
270.0
  0
LINE
  5
1A9AC
330
747D
100
AcDbEntity
  8
細線
100
AcDbLine
 10
7964.502964380284
 20
7389.458244062897
 30
0.0
 11
7966.502964380286
 21
7389.458244062897
 31
0.0
  0
ARC
  5
1A9AD
330
747D
100
AcDbEntity
  8
細線
100
AcDbCircle
 10
7966.502964380286
 20
7391.458244062896
 30
0.0
 40
2.0
100
AcDbArc
 50
270.0
 51
0.0
  0
LINE
  5
1A9AE
330
747D
100
AcDbEntity
  8
細線
100
AcDbLine
 10
7936.502964380284
 20
7384.158244062899
 30
0.0
 11
7936.502964380284
 21
7420.158244062893
 31
0.0
  0
LINE
  5
1A9AF
330
747D
100
AcDbEntity
  8
細線
100
AcDbLine
 10
6981.902964380286
 20
7326.158244062764
 30
0.0
 11
6981.902964380286
 21
7322.158244062812
 31
0.0
  0
LINE
  5
1A9B0
330
747D
100
AcDbEntity
  8
細線
100
AcDbLine
 10
7240.202964380303
 20
7322.158244062849
 30
0.0
 11
6972.890657731237
 21
7322.158244062812
 31
0.0
  0
LINE
  5
1A9B1
330
747D
100
AcDbEntity
  8
細線
100
AcDbLine
 10
6996.902964380286
 20
7352.158244062813
 30
0.0
 11
6996.902964380286
 21
7345.158244062813
 31
0.0
  0
LINE
  5
1A9B2
330
747D
100
AcDbEntity
  8
細線
100
AcDbLine
 10
6996.902964380286
 20
7352.158244062813
 30
0.0
 11
6981.902964380286
 21
7352.158244062813
 31
0.0
  0
LINE
  5
1A9B3
330
747D
100
AcDbEntity
  8
細線
100
AcDbLine
 10
7097.402964380286
 20
7340.158244062834
 30
0.0
 11
7097.402964380286
 21
7322.158244062812
 31
0.0
  0
LINE
  5
1A9B4
330
747D
100
AcDbEntity
  8
細線
100
AcDbLine
 10
7138.402964380286
 20
7340.158244062834
 30
0.0
 11
7097.402964380286
 21
7340.158244062834
 31
0.0
  0
ARC
  5
1A9B5
330
747D
100
AcDbEntity
  8
部品1
100
AcDbCircle
 10
7099.947120257562
 20
7321.658244062835
 30
0.0
 40
1.0
100
AcDbArc
 50
270.0
 51
19.47122063441346
  0
LINE
  5
1A9B6
330
747D
100
AcDbEntity
  8
部品1
 48
0.01
100
AcDbLine
 10
7092.902964380279
 20
7322.158244062835
 30
0.0
 11
7092.902964380279
 21
7321.158244062835
 31
0.0
  0
LINE
  5
1A9B7
330
747D
100
AcDbEntity
  8
部品1
 48
0.01
100
AcDbLine
 10
7093.402964380278
 20
7320.658244062835
 30
0.0
 11
7099.947120257562
 21
7320.658244062835
 31
0.0
  0
ARC
  5
1A9B8
330
747D
100
AcDbEntity
  8
部品1
 48
0.01
100
AcDbCircle
 10
7093.402964380278
 20
7321.158244062835
 30
0.0
 40
0.5
100
AcDbArc
 50
180.0
 51
270.0
  0
ARC
  5
1A9B9
330
747D
100
AcDbEntity
  8
部品1
100
AcDbCircle
 10
7125.402964380279
 20
7330.658244062835
 30
0.0
 40
26.0
100
AcDbArc
 50
180.0
 51
199.4712206344135
  0
ARC
  5
1A9BA
330
747D
100
AcDbEntity
  8
部品1
 48
0.01
100
AcDbCircle
 10
7101.402964380278
 20
7335.658244062834
 30
0.0
 40
2.0
100
AcDbArc
 50
90.0
 51
180.0
  0
LINE
  5
1A9BB
330
747D
100
AcDbEntity
  8
部品1
100
AcDbLine
 10
7099.40296438028
 20
7330.658244062835
 30
0.0
 11
7099.40296438028
 21
7335.658244062834
 31
0.0
  0
ARC
  5
1A9BC
330
747D
100
AcDbEntity
  8
部品1
100
AcDbCircle
 10
7117.902964380279
 20
7346.458244062837
 30
0.0
 40
16.0
100
AcDbArc
 50
218.3930440192126
 51
254.0576313943215
  0
ARC
  5
1A9BD
330
747D
100
AcDbEntity
  8
部品1
100
AcDbCircle
 10
7103.011356005092
 20
7334.658244062835
 30
0.0
 40
3.0
100
AcDbArc
 50
38.39304401921267
 51
90.0
  0
LINE
  5
1A9BE
330
747D
100
AcDbEntity
  8
部品1
 48
0.01
100
AcDbLine
 10
7101.402964380278
 20
7337.658244062835
 30
0.0
 11
7103.011356005092
 21
7337.658244062835
 31
0.0
  0
ARC
  5
1A9BF
330
747D
100
AcDbEntity
  8
部品1
100
AcDbCircle
 10
7117.902964380279
 20
7346.458244062837
 30
0.0
 40
16.0
100
AcDbArc
 50
285.9423686056786
 51
321.6069559807873
  0
LINE
  5
1A9C0
330
747D
100
AcDbEntity
  8
部品1
100
AcDbLine
 10
7121.473678594551
 20
7330.958244062838
 30
0.0
 11
7114.332250166009
 21
7330.958244062838
 31
0.0
  0
ARC
  5
1A9C1
330
747D
100
AcDbEntity
  8
部品1
100
AcDbCircle
 10
7121.473678594551
 20
7333.958244062838
 30
0.0
 40
3.0
100
AcDbArc
 50
270.0
 51
285.9423686056786
  0
ARC
  5
1A9C2
330
747D
100
AcDbEntity
  8
部品1
100
AcDbCircle
 10
7114.332250166009
 20
7333.958244062838
 30
0.0
 40
3.0
100
AcDbArc
 50
254.0576313943215
 51
270.0
  0
LINE
  5
1A9C3
330
747D
100
AcDbEntity
  8
部品1
 48
0.01
100
AcDbLine
 10
7134.402964380278
 20
7337.658244062835
 30
0.0
 11
7132.794572755469
 21
7337.658244062835
 31
0.0
  0
ARC
  5
1A9C4
330
747D
100
AcDbEntity
  8
部品1
100
AcDbCircle
 10
7132.794572755469
 20
7334.658244062835
 30
0.0
 40
3.0
100
AcDbArc
 50
90.0
 51
141.6069559807873
  0
LINE
  5
1A9C5
330
747D
100
AcDbEntity
  8
細線
 48
50.0
100
AcDbLine
 10
7509.202964380278
 20
7369.15824406287
 30
0.0
 11
6981.902964380286
 21
7369.158244062784
 31
0.0
  0
LINE
  5
1A9C6
330
747D
100
AcDbEntity
  8
細線
100
AcDbLine
 10
7535.202964380282
 20
7345.158244062893
 30
0.0
 11
6996.902964380286
 21
7345.158244062813
 31
0.0
  0
LINE
  5
1A9C7
330
747D
100
AcDbEntity
  8
細線
100
AcDbLine
 10
7962.502964380277
 20
7379.158244062899
 30
0.0
 11
7524.202964380278
 21
7379.158244062899
 31
0.0
  0
LINE
  5
1A9C8
330
747D
100
AcDbEntity
  8
細線
 48
50.0
100
AcDbLine
 10
8391.902964380291
 20
7335.158244062902
 30
0.0
 11
7550.202964380281
 21
7335.158244062897
 31
0.0
  0
LINE
  5
1A9C9
330
747D
100
AcDbEntity
  8
寸法
 48
50.0
100
AcDbLine
 10
7298.665101735668
 20
7216.263885190985
 30
0.0
 11
7247.259093825562
 21
7216.263885190985
 31
0.0
  0
LINE
  5
1A9CA
330
747D
100
AcDbEntity
  8
寸法
 48
50.0
100
AcDbLine
 10
7247.259093825562
 20
7216.263885190985
 30
0.0
 11
7247.259093825562
 21
7247.57404384315
 31
0.0
  0
LINE
  5
1A9CB
330
747D
100
AcDbEntity
  8
寸法
 48
50.0
100
AcDbLine
 10
7247.259093825562
 20
7247.57404384315
 30
0.0
 11
7217.497761834142
 21
7247.57404384315
 31
0.0
  0
LINE
  5
1A9CC
330
747D
100
AcDbEntity
  8
寸法
 48
50.0
100
AcDbLine
 10
7217.497761834142
 20
7247.57404384315
 30
0.0
 11
7272.962097780615
 21
7285.153494771762
 31
0.0
  0
LINE
  5
1A9CD
330
747D
100
AcDbEntity
  8
寸法
 48
50.0
100
AcDbLine
 10
7328.426433727091
 20
7247.57404384315
 30
0.0
 11
7272.962097780615
 21
7285.153494771762
 31
0.0
  0
LINE
  5
1A9CE
330
747D
100
AcDbEntity
  8
寸法
 48
50.0
100
AcDbLine
 10
7298.665101735668
 20
7247.57404384315
 30
0.0
 11
7328.426433727091
 21
7247.57404384315
 31
0.0
  0
LINE
  5
1A9CF
330
747D
100
AcDbEntity
  8
寸法
 48
50.0
100
AcDbLine
 10
7298.665101735668
 20
7216.263885190985
 30
0.0
 11
7298.665101735668
 21
7247.57404384315
 31
0.0
  0
LINE
  5
1A9D0
330
747D
100
AcDbEntity
  8
寸法
 48
50.0
100
AcDbLine
 10
7247.259093825562
 20
7216.263885190985
 30
0.0
 11
7298.665101735668
 21
7216.263885190985
 31
0.0
  0
LINE
  5
1A9D1
330
747D
100
AcDbEntity
  8
寸法
 48
50.0
100
AcDbLine
 10
7627.146270608847
 20
7273.409475945806
 30
0.0
 11
7627.146270608847
 21
7219.745841364018
 31
0.0
  0
LINE
  5
1A9D2
330
747D
100
AcDbEntity
  8
寸法
 48
50.0
100
AcDbLine
 10
7716.430489204268
 20
7249.485841676321
 30
0.0
 11
7627.146270608847
 21
7273.409475945806
 31
0.0
  0
LINE
  5
1A9D3
330
747D
100
AcDbEntity
  8
寸法
 48
50.0
100
AcDbLine
 10
7497.278549028543
 20
7249.485841676321
 30
0.0
 11
7716.430489204268
 21
7249.485841676321
 31
0.0
  0
LINE
  5
1A9D4
330
747D
100
AcDbEntity
  8
細線
100
AcDbLine
 10
7315.202964380212
 20
7322.158244062904
 30
0.0
 11
7322.702964380219
 21
7345.158244062819
 31
0.0
  0
LINE
  5
1A9D5
330
747D
100
AcDbEntity
  8
細線
100
AcDbLine
 10
7380.202964380289
 20
7322.158244062791
 30
0.0
 11
7310.202964380289
 21
7322.158244062784
 31
0.0
  0
LINE
  5
1A9D6
330
747D
100
AcDbEntity
  8
細線
100
AcDbLine
 10
7307.871426089514
 20
7327.158244062784
 30
0.0
 11
7242.534502671041
 21
7327.158244062769
 31
0.0
  0
LINE
  5
1A9D7
330
747D
100
AcDbEntity
  8
細線
100
AcDbLine
 10
7310.202964380282
 20
7322.158244062798
 30
0.0
 11
7307.871426089514
 21
7327.158244062784
 31
0.0
  0
LINE
  5
1A9D8
330
747D
100
AcDbEntity
  8
細線
100
AcDbLine
 10
7240.202964380284
 20
7322.158244062812
 30
0.0
 11
7242.534502671055
 21
7327.158244062797
 31
0.0
  0
LINE
  5
1A9D9
330
747D
100
AcDbEntity
  8
細線
100
AcDbLine
 10
7138.402964380286
 20
7340.158244062834
 30
0.0
 11
7138.402964380286
 21
7322.158244062812
 31
0.0
  0
ARC
  5
1A9DA
330
747D
100
AcDbEntity
  8
部品1
 48
0.01
100
AcDbCircle
 10
7134.402964380278
 20
7335.658244062834
 30
0.0
 40
2.0
100
AcDbArc
 50
0.0
 51
90.0
  0
LINE
  5
1A9DB
330
747D
100
AcDbEntity
  8
部品1
100
AcDbLine
 10
7136.402964380279
 20
7330.658244062835
 30
0.0
 11
7136.402964380279
 21
7335.658244062834
 31
0.0
  0
ARC
  5
1A9DC
330
747D
100
AcDbEntity
  8
部品1
100
AcDbCircle
 10
7110.402964380281
 20
7330.658244062835
 30
0.0
 40
26.0
100
AcDbArc
 50
340.5287793655865
 51
0.0
  0
ARC
  5
1A9DD
330
747D
100
AcDbEntity
  8
部品1
100
AcDbCircle
 10
7135.858808502996
 20
7321.658244062835
 30
0.0
 40
1.0
100
AcDbArc
 50
160.5287793655865
 51
270.0
  0
LINE
  5
1A9DE
330
747D
100
AcDbEntity
  8
部品1
 48
0.01
100
AcDbLine
 10
7142.402964380278
 20
7320.658244062835
 30
0.0
 11
7135.790458950218
 21
7320.658244062835
 31
0.0
  0
LINE
  5
1A9DF
330
747D
100
AcDbEntity
  8
部品1
 48
0.01
100
AcDbLine
 10
7142.902964380279
 20
7322.158244062835
 30
0.0
 11
7142.902964380279
 21
7321.158244062835
 31
0.0
  0
LINE
  5
1A9E0
330
747D
100
AcDbEntity
  8
部品1
 48
0.01
100
AcDbLine
 10
7142.902964380279
 20
7322.158244062835
 30
0.0
 11
7142.902964380279
 21
7321.158244062835
 31
0.0
  0
ARC
  5
1A9E1
330
747D
100
AcDbEntity
  8
部品1
 48
0.01
100
AcDbCircle
 10
7142.402964380278
 20
7321.158244062835
 30
0.0
 40
0.5
100
AcDbArc
 50
270.0
 51
0.0
  0
ARC
  5
1A9E2
330
747D
100
AcDbEntity
  8
細線
100
AcDbCircle
 10
7345.202970880186
 20
7347.658244062791
 30
0.0
 40
6.0
100
AcDbArc
 50
204.6243183522943
 51
335.3756816477057
  0
LINE
  5
1A9E3
330
747D
100
AcDbEntity
  8
細線
100
AcDbLine
 10
7529.202964380259
 20
7352.158244062798
 30
0.0
 11
7529.202964380264
 21
7356.158244062799
 31
0.0
  0
LINE
  5
1A9E4
330
747D
100
AcDbEntity
  8
細線
100
AcDbLine
 10
7529.202964380259
 20
7352.158244062798
 30
0.0
 11
7509.20296438027
 21
7352.158244062798
 31
0.0
  0
LINE
  5
1A9E5
330
747D
100
AcDbEntity
  8
細線
100
AcDbLine
 10
7509.20296438027
 20
7352.158244062798
 30
0.0
 11
7509.202964380282
 21
7386.158244062805
 31
0.0
  0
LINE
  5
1A9E6
330
747D
100
AcDbEntity
  8
細線
100
AcDbLine
 10
7550.20296438028
 20
7322.158244062812
 30
0.0
 11
7550.202964380289
 21
7352.158244062813
 31
0.0
  0
LINE
  5
1A9E7
330
747D
100
AcDbEntity
  8
細線
100
AcDbLine
 10
7550.202964380286
 20
7352.158244062813
 30
0.0
 11
7535.202964380285
 21
7352.158244062813
 31
0.0
  0
LINE
  5
1A9E8
330
747D
100
AcDbEntity
  8
細線
100
AcDbLine
 10
7535.202964380282
 20
7345.158244062893
 30
0.0
 11
7535.202964380285
 21
7352.158244062813
 31
0.0
  0
LINE
  5
1A9E9
330
747D
100
AcDbEntity
  8
細線
100
AcDbLine
 10
7535.202964380264
 20
7356.158244062806
 30
0.0
 11
7529.202964380264
 21
7356.158244062806
 31
0.0
  0
LINE
  5
1A9EA
330
747D
100
AcDbEntity
  8
細線
100
AcDbLine
 10
7541.202964380289
 20
7355.458244062808
 30
0.0
 11
7541.202964380289
 21
7356.158244062806
 31
0.0
  0
ARC
  5
1A9EB
330
747D
100
AcDbEntity
  8
細線
100
AcDbCircle
 10
7539.202964380288
 20
7355.458244062802
 30
0.0
 40
2.0
100
AcDbArc
 50
270.0
 51
0.0
  0
LINE
  5
1A9EC
330
747D
100
AcDbEntity
  8
細線
100
AcDbLine
 10
7537.202964380289
 20
7353.458244062806
 30
0.0
 11
7539.202964380288
 21
7353.458244062806
 31
0.0
  0
LINE
  5
1A9ED
330
747D
100
AcDbEntity
  8
細線
100
AcDbLine
 10
7535.202964380289
 20
7355.458244062808
 30
0.0
 11
7535.202964380289
 21
7356.158244062806
 31
0.0
  0
ARC
  5
1A9EE
330
747D
100
AcDbEntity
  8
細線
100
AcDbCircle
 10
7537.202964380289
 20
7355.458244062802
 30
0.0
 40
2.0
100
AcDbArc
 50
180.0
 51
270.0
  0
LINE
  5
1A9EF
330
747D
100
AcDbEntity
  8
細線
100
AcDbLine
 10
7524.202964380278
 20
7379.158244062806
 30
0.0
 11
7524.202964380283
 21
7386.158244062805
 31
0.0
  0
LINE
  5
1A9F0
330
747D
100
AcDbEntity
  8
細線
100
AcDbLine
 10
7524.202964380283
 20
7386.158244062805
 30
0.0
 11
7509.202964380282
 21
7386.158244062805
 31
0.0
  0
LINE
  5
1A9F1
330
747D
100
AcDbEntity
  8
細線
100
AcDbLine
 10
7638.352964380283
 20
7356.158244062864
 30
0.0
 11
7541.202964380289
 21
7356.158244062806
 31
0.0
  0
LINE
  5
1A9F2
330
747D
100
AcDbEntity
  8
細線
100
AcDbLine
 10
7550.202964380286
 20
7322.158244062812
 30
0.0
 11
7450.202964380278
 21
7322.158244062798
 31
0.0
  0
LINE
  5
1A9F3
330
747D
100
AcDbEntity
  8
細線
100
AcDbLine
 10
7375.202964380213
 20
7322.158244062894
 30
0.0
 11
7367.702964380216
 21
7345.158244062819
 31
0.0
  0
LINE
  5
1A9F4
330
747D
100
AcDbEntity
  8
細線
100
AcDbLine
 10
7450.202964380281
 20
7322.158244062817
 30
0.0
 11
7447.871426089514
 21
7327.158244062802
 31
0.0
  0
LINE
  5
1A9F5
330
747D
100
AcDbEntity
  8
細線
100
AcDbLine
 10
7447.871426089517
 20
7327.158244062802
 30
0.0
 11
7382.534502671044
 21
7327.158244062791
 31
0.0
  0
LINE
  5
1A9F6
330
747D
100
AcDbEntity
  8
細線
100
AcDbLine
 10
7380.202964380289
 20
7322.158244062835
 30
0.0
 11
7382.534502671056
 21
7327.158244062821
 31
0.0
  0
LINE
  5
1A9F7
330
747D
100
AcDbEntity
  8
細線
100
AcDbLine
 10
7773.352964380305
 20
7356.158244062924
 30
0.0
 11
7765.852964380312
 21
7379.158244062849
 31
0.0
  0
LINE
  5
1A9F8
330
747D
100
AcDbEntity
  8
細線
100
AcDbLine
 10
7713.352964380304
 20
7356.158244062931
 30
0.0
 11
7720.852964380312
 21
7379.158244062849
 31
0.0
  0
LINE
  5
1A9F9
330
747D
100
AcDbEntity
  8
細線
100
AcDbLine
 10
7638.35296438028
 20
7356.158244062864
 30
0.0
 11
7640.684502671047
 21
7361.158244062849
 31
0.0
  0
LINE
  5
1A9FA
330
747D
100
AcDbEntity
  8
細線
100
AcDbLine
 10
7708.352964380276
 20
7356.158244062846
 30
0.0
 11
7706.021426089508
 21
7361.15824406283
 31
0.0
  0
LINE
  5
1A9FB
330
747D
100
AcDbEntity
  8
細線
100
AcDbLine
 10
7706.021426089508
 20
7361.15824406283
 30
0.0
 11
7640.684502671035
 21
7361.15824406282
 31
0.0
  0
LINE
  5
1A9FC
330
747D
100
AcDbEntity
  8
細線
100
AcDbLine
 10
7778.352964380279
 20
7356.158244062884
 30
0.0
 11
7780.684502671047
 21
7361.15824406287
 31
0.0
  0
LINE
  5
1A9FD
330
747D
100
AcDbEntity
  8
細線
100
AcDbLine
 10
7778.352964380276
 20
7356.15824406287
 30
0.0
 11
7708.352964380262
 21
7356.15824406287
 31
0.0
  0
ARC
  5
1A9FE
330
747D
100
AcDbEntity
  8
細線
100
AcDbCircle
 10
7743.352970880271
 20
7381.658244062849
 30
0.0
 40
6.0
100
AcDbArc
 50
204.6243183522943
 51
335.3756816477057
  0
DIMENSION
  5
1A9FF
330
747D
100
AcDbEntity
  8
寸法
100
AcDbDimension
  2
*D18
 10
6981.902964380289
 20
6781.16089991064
 30
0.0
 11
7394.20296438029
 21
6781.16089991064
 31
0.0
 70
   160
  1
有効開口部間口\P824
 71
     5
 42
824.5999999999995
  3
INABA_S40G
100
AcDbAlignedDimension
 13
7806.502964380289
 23
7319.158244062847
 33
0.0
 14
6981.902964380289
 24
7319.158244062741
 34
0.0
100
AcDbRotatedDimension
1001
ACAD
1000
DSTYLE
1002
{
1002
}
  0
LINE
  5
1AA00
330
747D
100
AcDbEntity
  8
部品1
100
AcDbLine
 10
6586.498089574233
 20
6332.078125037137
 30
0.0
 11
5823.027423345793
 21
6332.078125037137
 31
0.0
  0
LINE
  5
1AA01
330
747D
100
AcDbEntity
  8
部品1
100
AcDbLine
 10
6586.498089574233
 20
6092.185803491604
 30
0.0
 11
6586.498089574233
 21
6332.078125037137
 31
0.0
  0
LINE
  5
1AA02
330
747D
100
AcDbEntity
  8
部品1
100
AcDbLine
 10
5823.027423345793
 20
6092.185803491604
 30
0.0
 11
6586.498089574233
 21
6092.185803491604
 31
0.0
  0
LINE
  5
1AA03
330
747D
100
AcDbEntity
  8
部品1
100
AcDbLine
 10
5823.027423345793
 20
6332.078125037137
 30
0.0
 11
5823.027423345793
 21
6092.185803491604
 31
0.0
  0
LINE
  5
1AA04
330
747D
100
AcDbEntity
  8
部品1
 48
50.0
100
AcDbLine
 10
6949.902964380263
 20
9501.158244062891
 30
0.0
 11
6978.402964380264
 21
9472.658244062904
 31
0.0
  0
LINE
  5
1AA05
330
747D
100
AcDbEntity
  8
部品1
 48
50.0
100
AcDbLine
 10
5419.902964380263
 20
9501.158244062764
 30
0.0
 11
5448.402964380264
 21
9472.658244062904
 31
0.0
  0
LINE
  5
1AA06
330
747D
100
AcDbEntity
  8
部品1
 48
50.0
100
AcDbLine
 10
3889.902964380296
 20
9501.158244062754
 30
0.0
 11
3918.402964380265
 21
9472.658244062904
 31
0.0
  0
LINE
  5
1AA07
330
747D
100
AcDbEntity
  8
部品1
 48
50.0
100
AcDbLine
 10
4863.90296438034
 20
8552.684324956597
 30
0.0
 11
4863.902964380381
 21
7671.539671384478
 31
0.0
  0
LINE
  5
1AA08
330
747D
100
AcDbEntity
  8
部品1
 48
50.0
100
AcDbLine
 10
4863.902964380389
 20
7498.776556890129
 30
0.0
 11
4863.902964380391
 21
7449.658244062804
 31
0.0
  0
LINE
  5
1AA09
330
747D
100
AcDbEntity
  8
部品1
 48
50.0
100
AcDbLine
 10
4863.902964380297
 20
9472.658244062904
 30
0.0
 11
4863.902964380336
 21
8617.815730135452
 31
0.0
  0
LINE
  5
1AA0A
330
747D
100
AcDbEntity
  8
部品1
 48
50.0
100
AcDbLine
 10
6393.902964380297
 20
9472.658244062904
 30
0.0
 11
6393.902964380386
 21
7449.658244062809
 31
0.0
  0
LINE
  5
1AA0B
330
747D
100
AcDbEntity
  8
部品1
 48
50.0
100
AcDbLine
 10
7923.902964380295
 20
9472.658244062904
 30
0.0
 11
7923.902964380386
 21
7449.658244062809
 31
0.0
  0
DIMENSION
  5
1AA0C
330
747D
100
AcDbEntity
  8
寸法
 48
50.0
100
AcDbDimension
  2
*D19
 10
7976.902964380297
 20
9964.636594009277
 30
0.0
 11
8148.588445126085
 21
9964.636594009277
 31
0.0
 70
   160
 71
     5
 42
419.9999999999981
  3
INABA_S40G
100
AcDbAlignedDimension
 13
8396.902964380295
 23
9529.158244062754
 33
0.0
 14
7976.902964380297
 24
9529.158244062831
 34
0.0
100
AcDbRotatedDimension
  0
DIMENSION
  5
1AA0D
330
747D
100
AcDbEntity
  8
寸法
 48
50.0
100
AcDbDimension
  2
*D20
 10
7396.902964380295
 20
9964.636594009277
 30
0.0
 11
7686.902964380296
 21
10064.63659400927
 31
0.0
 70
    32
 71
     5
 42
580.0000000000018
  3
INABA_S40G
100
AcDbAlignedDimension
 13
7976.902964380297
 23
9529.158244062831
 33
0.0
 14
7396.902964380295
 24
9529.158244062816
 34
0.0
100
AcDbRotatedDimension
1001
ACAD
1000
DSTYLE
1002
{
1070
    75
1070
     1
1070
   279
1070
     1
1002
}
  0
DIMENSION
  5
1AA0E
330
747D
100
AcDbEntity
  8
寸法
 48
50.0
100
AcDbDimension
  2
*D21
 10
6976.902964380295
 20
9964.636594009277
 30
0.0
 11
7186.902964380294
 21
10064.6484050329
 31
0.0
 70
    32
 71
     5
 42
420.0
  3
INABA_S40G
100
AcDbAlignedDimension
 13
7396.902964380295
 23
9529.158244062816
 33
0.0
 14
6976.902964380295
 24
9529.158244062786
 34
0.0
100
AcDbRotatedDimension
1001
ACAD
1000
DSTYLE
1002
{
1070
    75
1070
     1
1070
   279
1070
     1
1002
}
  0
DIMENSION
  5
1AA0F
330
747D
100
AcDbEntity
  8
寸法
 48
50.0
100
AcDbDimension
  2
*D22
 10
5446.902964380296
 20
9964.636594009277
 30
0.0
 11
5656.902964380295
 21
10064.6484050329
 31
0.0
 70
    32
 71
     5
 42
419.9999999999991
  3
INABA_S40G
100
AcDbAlignedDimension
 13
5866.902964380295
 23
9529.158244062816
 33
0.0
 14
5446.902964380296
 24
9529.158244062786
 34
0.0
100
AcDbRotatedDimension
1001
ACAD
1000
DSTYLE
1002
{
1070
    75
1070
     1
1070
   279
1070
     1
1002
}
  0
DIMENSION
  5
1AA10
330
747D
100
AcDbEntity
  8
寸法
 48
50.0
100
AcDbDimension
  2
*D23
 10
5866.902964380295
 20
9964.636594009277
 30
0.0
 11
6156.902964380295
 21
10064.63659400927
 31
0.0
 70
    32
 71
     5
 42
580.0
  3
INABA_S40G
100
AcDbAlignedDimension
 13
6446.902964380296
 23
9529.158244062831
 33
0.0
 14
5866.902964380295
 24
9529.158244062816
 34
0.0
100
AcDbRotatedDimension
1001
ACAD
1000
DSTYLE
1002
{
1070
    75
1070
     1
1070
   279
1070
     1
1002
}
  0
DIMENSION
  5
1AA11
330
747D
100
AcDbEntity
  8
寸法
 48
50.0
100
AcDbDimension
  2
*D24
 10
6446.902964380296
 20
9964.636594009277
 30
0.0
 11
6618.588445126086
 21
9964.636594009277
 31
0.0
 70
   160
 71
     5
 42
420.0
  3
INABA_S40G
100
AcDbAlignedDimension
 13
6866.902964380296
 23
9529.158244062754
 33
0.0
 14
6446.902964380296
 24
9529.158244062831
 34
0.0
100
AcDbRotatedDimension
  0
LINE
  5
1AA12
330
747D
100
AcDbEntity
  8
部品1
100
AcDbLine
 10
3889.902964380271
 20
9054.158244062753
 30
0.0
 11
3861.90296438027
 21
9054.158244062753
 31
0.0
  0
LINE
  5
1AA13
330
747D
100
AcDbEntity
  8
部品1
100
AcDbLine
 10
5391.902964380236
 20
9054.158244062787
 30
0.0
 11
5363.902964380235
 21
9054.158244062787
 31
0.0
  0
LINE
  5
1AA14
330
747D
100
AcDbEntity
  8
部品1
100
AcDbLine
 10
6921.902964380236
 20
9054.158244062787
 30
0.0
 11
6893.902964380235
 21
9054.158244062787
 31
0.0
  0
LINE
  5
1AA15
330
747D
100
AcDbEntity
  8
部品1
100
AcDbLine
 10
8423.902964380294
 20
9054.158244062881
 30
0.0
 11
8451.902964380295
 21
9054.158244062881
 31
0.0
  0
LINE
  5
1AA16
330
747D
100
AcDbEntity
  8
細線
 48
50.0
100
AcDbLine
 10
5358.902964380502
 20
8227.408244062925
 30
0.0
 11
4908.902964380293
 21
9500.40824406291
 31
0.0
  0
LINE
  5
1AA17
330
747D
100
AcDbEntity
  8
細線
 48
50.0
100
AcDbLine
 10
4908.902964380501
 20
8227.408244062925
 30
0.0
 11
5358.902964380297
 21
9500.408244062914
 31
0.0
  0
LINE
  5
1AA18
330
747D
100
AcDbEntity
  8
部品1
100
AcDbLine
 10
8423.902964380294
 20
8634.158244062884
 30
0.0
 11
8451.902964380295
 21
8634.158244062884
 31
0.0
  0
LINE
  5
1AA19
330
747D
100
AcDbEntity
  8
部品1
100
AcDbLine
 10
6921.902964380236
 20
8634.158244062787
 30
0.0
 11
6893.902964380235
 21
8634.158244062787
 31
0.0
  0
LINE
  5
1AA1A
330
747D
100
AcDbEntity
  8
部品1
100
AcDbLine
 10
5391.902964380236
 20
8634.158244062787
 30
0.0
 11
5363.902964380235
 21
8634.158244062787
 31
0.0
  0
LINE
  5
1AA1B
330
747D
100
AcDbEntity
  8
部品1
100
AcDbLine
 10
3889.902964380271
 20
8634.158244062753
 30
0.0
 11
3861.90296438027
 21
8634.158244062753
 31
0.0
  0
LINE
  5
1AA1C
330
747D
100
AcDbEntity
  8
部品1
100
AcDbLine
 10
4908.90296438047
 20
8573.668169573636
 30
0.0
 11
4908.902964380501
 21
8227.408244062925
 31
0.0
  0
LINE
  5
1AA1D
330
747D
100
AcDbEntity
  8
部品1
100
AcDbLine
 10
5363.90296438024
 20
8201.658244062876
 30
0.0
 11
5363.902964380255
 21
7319.158244062773
 31
0.0
  0
LINE
  5
1AA1E
330
747D
100
AcDbEntity
  8
部品1
100
AcDbLine
 10
6893.902964380242
 20
8201.658244062876
 30
0.0
 11
6893.902964380254
 21
7319.158244062773
 31
0.0
  0
LINE
  5
1AA1F
330
747D
100
AcDbEntity
  8
細線
 48
50.0
100
AcDbLine
 10
4911.547224332171
 20
7401.335646110753
 30
0.0
 11
5358.902964380297
 21
8192.658244062902
 31
0.0
  0
LINE
  5
1AA20
330
747D
100
AcDbEntity
  8
部品1
100
AcDbLine
 10
5358.902964380408
 20
8192.658244062902
 30
0.0
 11
5358.902964380504
 21
7396.658244062912
 31
0.0
  0
LINE
  5
1AA21
330
747D
100
AcDbEntity
  8
部品1
100
AcDbLine
 10
5375.902964380271
 20
8188.158244062876
 30
0.0
 11
5363.902964380272
 21
8188.158244062876
 31
0.0
  0
LINE
  5
1AA22
330
747D
100
AcDbEntity
  8
部品1
100
AcDbLine
 10
5333.902964380268
 20
8226.658244062873
 30
0.0
 11
5333.902964380271
 21
8201.658244062876
 31
0.0
  0
LINE
  5
1AA23
330
747D
100
AcDbEntity
  8
部品1
100
AcDbLine
 10
5375.902964380271
 20
8240.158244062877
 30
0.0
 11
5363.902964380272
 21
8240.158244062877
 31
0.0
  0
LINE
  5
1AA24
330
747D
100
AcDbEntity
  8
細線
 48
50.0
100
AcDbLine
 10
5358.902964380502
 20
7396.658244062912
 30
0.0
 11
4908.902964380297
 21
8192.658244062899
 31
0.0
  0
LINE
  5
1AA25
330
747D
100
AcDbEntity
  8
部品1
100
AcDbLine
 10
4908.902964380297
 20
8192.658244062899
 30
0.0
 11
4908.9029643805
 21
7416.331989501019
 31
0.0
  0
LINE
  5
1AA26
330
747D
100
AcDbEntity
  8
部品1
100
AcDbLine
 10
4911.902964380275
 20
8226.658244062873
 30
0.0
 11
4911.902964380275
 21
8201.658244062876
 31
0.0
  0
LINE
  5
1AA27
330
747D
100
AcDbEntity
  8
部品1
 48
50.0
100
AcDbLine
 10
5358.902964380293
 20
8192.658244062902
 30
0.0
 11
4908.902964380297
 21
8192.658244062899
 31
0.0
  0
LINE
  5
1AA28
330
747D
100
AcDbEntity
  8
部品1
100
AcDbLine
 10
5358.902964380388
 20
8227.40824406291
 30
0.0
 11
4908.902964380391
 21
8227.40824406291
 31
0.0
  0
LINE
  5
1AA29
330
747D
100
AcDbEntity
  8
部品1
 48
50.0
100
AcDbLine
 10
5363.902964380279
 20
8226.658244062877
 30
0.0
 11
4911.902964380275
 21
8226.658244062873
 31
0.0
  0
LINE
  5
1AA2A
330
747D
100
AcDbEntity
  8
部品1
 48
50.0
100
AcDbLine
 10
5363.902964380275
 20
8201.658244062876
 30
0.0
 11
4911.902964380275
 21
8201.658244062876
 31
0.0
  0
LINE
  5
1AA2B
330
747D
100
AcDbEntity
  8
部品1
100
AcDbLine
 10
4908.902964380293
 20
9500.40824406291
 30
0.0
 11
4908.902964380458
 21
8613.878740276778
 31
0.0
  0
LINE
  5
1AA2C
330
747D
100
AcDbEntity
  8
部品1
 48
50.0
100
AcDbLine
 10
5358.902964380289
 20
9500.40824406291
 30
0.0
 11
4908.902964380292
 21
9500.40824406291
 31
0.0
  0
LINE
  5
1AA2D
330
747D
100
AcDbEntity
  8
部品1
100
AcDbLine
 10
5358.902964380297
 20
9500.408244062914
 30
0.0
 11
5358.902964380402
 21
8227.408244063106
 31
0.0
  0
LINE
  5
1AA2E
330
747D
100
AcDbEntity
  8
部品1
100
AcDbLine
 10
6888.902964380389
 20
7396.658244062897
 30
0.0
 11
6438.902964380393
 21
7396.658244062897
 31
0.0
  0
LINE
  5
1AA2F
330
747D
100
AcDbEntity
  8
部品1
100
AcDbLine
 10
6888.902964380408
 20
8192.658244062902
 30
0.0
 11
6888.902964380505
 21
7396.658244062912
 31
0.0
  0
LINE
  5
1AA30
330
747D
100
AcDbEntity
  8
部品1
100
AcDbLine
 10
6905.902964380271
 20
8188.158244062876
 30
0.0
 11
6893.902964380271
 21
8188.158244062876
 31
0.0
  0
LINE
  5
1AA31
330
747D
100
AcDbEntity
  8
部品1
100
AcDbLine
 10
6863.902964380269
 20
8226.658244062873
 30
0.0
 11
6863.902964380272
 21
8201.658244062876
 31
0.0
  0
LINE
  5
1AA32
330
747D
100
AcDbEntity
  8
部品1
100
AcDbLine
 10
6905.902964380271
 20
8240.158244062877
 30
0.0
 11
6893.902964380271
 21
8240.158244062877
 31
0.0
  0
LINE
  5
1AA33
330
747D
100
AcDbEntity
  8
部品1
100
AcDbLine
 10
6888.902964380297
 20
9500.408244062914
 30
0.0
 11
6888.902964380402
 21
8227.408244063106
 31
0.0
  0
LINE
  5
1AA34
330
747D
100
AcDbEntity
  8
部品1
 48
50.0
100
AcDbLine
 10
6888.90296438029
 20
9500.40824406291
 30
0.0
 11
6438.902964380289
 21
9500.40824406291
 31
0.0
  0
LINE
  5
1AA35
330
747D
100
AcDbEntity
  8
部品1
100
AcDbLine
 10
6441.902964380275
 20
8226.658244062873
 30
0.0
 11
6441.902964380275
 21
8201.658244062876
 31
0.0
  0
LINE
  5
1AA36
330
747D
100
AcDbEntity
  8
部品1
100
AcDbLine
 10
6438.902964380297
 20
8192.658244062899
 30
0.0
 11
6438.902964380504
 21
7396.658244062912
 31
0.0
  0
LINE
  5
1AA37
330
747D
100
AcDbEntity
  8
部品1
100
AcDbLine
 10
6438.902964380293
 20
9500.40824406291
 30
0.0
 11
6438.9029643805
 21
8227.408244062925
 31
0.0
  0
LINE
  5
1AA38
330
747D
100
AcDbEntity
  8
部品1
 48
50.0
100
AcDbLine
 10
6893.902964380275
 20
8201.658244062876
 30
0.0
 11
6441.902964380275
 21
8201.658244062876
 31
0.0
  0
LINE
  5
1AA39
330
747D
100
AcDbEntity
  8
部品1
 48
50.0
100
AcDbLine
 10
6893.902964380278
 20
8226.658244062877
 30
0.0
 11
6441.902964380275
 21
8226.658244062873
 31
0.0
  0
LINE
  5
1AA3A
330
747D
100
AcDbEntity
  8
細線
 48
50.0
100
AcDbLine
 10
6888.9029643805
 20
8227.408244062925
 30
0.0
 11
6438.902964380293
 21
9500.40824406291
 31
0.0
  0
LINE
  5
1AA3B
330
747D
100
AcDbEntity
  8
部品1
100
AcDbLine
 10
6888.902964380388
 20
8227.40824406291
 30
0.0
 11
6438.902964380393
 21
8227.40824406291
 31
0.0
  0
LINE
  5
1AA3C
330
747D
100
AcDbEntity
  8
部品1
 48
50.0
100
AcDbLine
 10
6888.902964380291
 20
8192.658244062902
 30
0.0
 11
6438.902964380297
 21
8192.658244062899
 31
0.0
  0
LINE
  5
1AA3D
330
747D
100
AcDbEntity
  8
細線
 48
50.0
100
AcDbLine
 10
6438.902964380504
 20
7396.658244062912
 30
0.0
 11
6888.902964380297
 21
8192.658244062902
 31
0.0
  0
LINE
  5
1AA3E
330
747D
100
AcDbEntity
  8
細線
 48
50.0
100
AcDbLine
 10
6438.9029643805
 20
8227.408244062925
 30
0.0
 11
6888.902964380297
 21
9500.408244062914
 31
0.0
  0
LINE
  5
1AA3F
330
747D
100
AcDbEntity
  8
細線
 48
50.0
100
AcDbLine
 10
6888.9029643805
 20
7396.658244062912
 30
0.0
 11
6438.902964380297
 21
8192.658244062899
 31
0.0
  0
DIMENSION
  5
1AA40
330
747D
100
AcDbEntity
  8
寸法
 48
50.0
100
AcDbDimension
  2
*D25
 10
8834.086171780993
 20
7285.41023892899
 30
0.0
 11
8834.086171780993
 21
7702.064951867017
 31
0.0
 70
   160
 71
     5
 42
796.0000000000008
  3
INABA_S40G
100
AcDbAlignedDimension
 13
8418.902964380293
 23
8192.658244062917
 33
0.0
 14
8418.902964380508
 24
7396.658244062916
 34
0.0
 50
90.0
100
AcDbRotatedDimension
  0
DIMENSION
  5
1AA41
330
747D
100
AcDbEntity
  8
寸法
 48
50.0
100
AcDbDimension
  2
*D26
 10
8834.086171780993
 20
8116.160238929003
 30
0.0
 11
8834.086171780993
 21
8752.660238928976
 31
0.0
 70
   160
 71
     5
 42
1273.000000000003
  3
INABA_S40G
100
AcDbAlignedDimension
 13
8418.902964380297
 23
9500.408244062931
 33
0.0
 14
8418.902964380508
 24
8227.408244062928
 34
0.0
 50
90.0
100
AcDbRotatedDimension
  0
LINE
  5
1AA42
330
747D
100
AcDbEntity
  8
部品1
100
AcDbLine
 10
8418.902964380405
 20
8192.658244062902
 30
0.0
 11
8418.902964380505
 21
7396.658244062912
 31
0.0
  0
LINE
  5
1AA43
330
747D
100
AcDbEntity
  8
部品1
100
AcDbLine
 10
8423.902964380284
 20
8201.658244062876
 30
0.0
 11
8423.902964380271
 21
7374.158244062868
 31
0.0
  0
LINE
  5
1AA44
330
747D
100
AcDbEntity
  8
部品1
100
AcDbLine
 10
7971.902964380276
 20
8226.658244062873
 30
0.0
 11
7971.902964380276
 21
8201.658244062876
 31
0.0
  0
LINE
  5
1AA45
330
747D
100
AcDbEntity
  8
部品1
100
AcDbLine
 10
7968.902964380297
 20
8192.658244062899
 30
0.0
 11
7968.902964380504
 21
7396.658244062912
 31
0.0
  0
LINE
  5
1AA46
330
747D
100
AcDbEntity
  8
細線
 48
50.0
100
AcDbLine
 10
8418.902964380501
 20
7396.658244062912
 30
0.0
 11
7968.902964380297
 21
8192.658244062899
 31
0.0
  0
LINE
  5
1AA47
330
747D
100
AcDbEntity
  8
部品1
100
AcDbLine
 10
7968.902964380294
 20
9500.40824406291
 30
0.0
 11
7968.902964380501
 21
8227.408244062925
 31
0.0
  0
LINE
  5
1AA48
330
747D
100
AcDbEntity
  8
細線
 48
50.0
100
AcDbLine
 10
7968.902964380501
 20
8227.408244062925
 30
0.0
 11
8418.902964380297
 21
9500.408244062914
 31
0.0
  0
LINE
  5
1AA49
330
747D
100
AcDbEntity
  8
細線
 48
50.0
100
AcDbLine
 10
7968.902964380504
 20
7396.658244062912
 30
0.0
 11
8418.902964380297
 21
8192.658244062902
 31
0.0
  0
LINE
  5
1AA4A
330
747D
100
AcDbEntity
  8
部品1
 48
50.0
100
AcDbLine
 10
8418.902964380293
 20
8192.658244062902
 30
0.0
 11
7968.902964380297
 21
8192.658244062899
 31
0.0
  0
LINE
  5
1AA4B
330
747D
100
AcDbEntity
  8
部品1
100
AcDbLine
 10
8418.902964380388
 20
8227.40824406291
 30
0.0
 11
7968.902964380392
 21
8227.40824406291
 31
0.0
  0
LINE
  5
1AA4C
330
747D
100
AcDbEntity
  8
細線
 48
50.0
100
AcDbLine
 10
8418.902964380501
 20
8227.408244062925
 30
0.0
 11
7968.902964380294
 21
9500.40824406291
 31
0.0
  0
LINE
  5
1AA4D
330
747D
100
AcDbEntity
  8
部品1
 48
50.0
100
AcDbLine
 10
8423.90296438028
 20
8226.658244062877
 30
0.0
 11
7971.902964380276
 21
8226.658244062873
 31
0.0
  0
LINE
  5
1AA4E
330
747D
100
AcDbEntity
  8
部品1
 48
50.0
100
AcDbLine
 10
8423.902964380275
 20
8201.658244062876
 30
0.0
 11
7971.902964380276
 21
8201.658244062876
 31
0.0
  0
LINE
  5
1AA4F
330
747D
100
AcDbEntity
  8
部品1
100
AcDbLine
 10
8393.902964380268
 20
8226.658244062873
 30
0.0
 11
8393.902964380272
 21
8201.658244062876
 31
0.0
  0
LINE
  5
1AA50
330
747D
100
AcDbEntity
  8
部品1
100
AcDbLine
 10
8435.902964380272
 20
8188.158244062876
 30
0.0
 11
8423.902964380271
 21
8188.158244062876
 31
0.0
  0
LINE
  5
1AA51
330
747D
100
AcDbEntity
  8
部品1
100
AcDbLine
 10
8435.902964380272
 20
8240.158244062877
 30
0.0
 11
8423.902964380271
 21
8240.158244062877
 31
0.0
  0
LINE
  5
1AA52
330
747D
100
AcDbEntity
  8
破線
 48
10.0
100
AcDbLine
 10
3941.902964380271
 20
8769.158244062838
 30
0.0
 11
3941.902964380278
 21
8154.158244062839
 31
0.0
  0
LINE
  5
1AA53
330
747D
100
AcDbEntity
  8
部品1
 48
50.0
100
AcDbLine
 10
4916.902964380295
 20
9501.158244062876
 30
0.0
 11
4916.902964380295
 21
9529.158244062816
 31
0.0
  0
LINE
  5
1AA54
330
747D
100
AcDbEntity
  8
部品1
 48
50.0
100
AcDbLine
 10
4336.902964380295
 20
9501.158244062876
 30
0.0
 11
4336.902964380295
 21
9529.158244062816
 31
0.0
  0
LINE
  5
1AA55
330
747D
100
AcDbEntity
  8
部品1
 48
50.0
100
AcDbLine
 10
6446.902964380296
 20
9501.158244062876
 30
0.0
 11
6446.902964380296
 21
9529.158244062816
 31
0.0
  0
LINE
  5
1AA56
330
747D
100
AcDbEntity
  8
部品1
 48
50.0
100
AcDbLine
 10
5866.902964380295
 20
9501.158244062876
 30
0.0
 11
5866.902964380295
 21
9529.158244062816
 31
0.0
  0
MTEXT
  5
1AA57
330
747D
100
AcDbEntity
  8
部品1
  6
ByBlock
 48
50.0
100
AcDbMText
 10
5042.547444388686
 20
10064.6484050329
 30
0.0
 40
120.0
 41
0.0
 71
     5
 72
     1
  1
\A1;1420
  7
STYLE1
 73
     1
 44
1.0
1001
ACAD
1000
MTEXTBEGIN
1070
    73
1070
     1
1070
    44
1040
1.0
1070
    74
1070
     0
1000
MTEXTEND
  0
MTEXT
  5
1AA58
330
747D
100
AcDbEntity
  8
部品1
  6
ByBlock
 48
50.0
100
AcDbMText
 10
5173.164768274663
 20
6655.022274709181
 30
0.0
 40
120.0
 41
0.0
 71
     5
 72
     1
  1
\A1;1530
  7
STYLE1
 73
     1
 44
1.0
1001
ACAD
1000
MTEXTBEGIN
1070
    73
1070
     1
1070
    44
1040
1.0
1070
    74
1070
     0
1000
MTEXTEND
  0
LINE
  5
1AA59
330
747D
100
AcDbEntity
  8
寸法
  6
ByBlock
 48
50.0
100
AcDbLine
 10
4885.845914239115
 20
9964.636594009277
 30
0.0
 11
5336.902964380296
 21
9964.636594009277
 31
0.0
  0
LINE
  5
1AA5A
330
747D
100
AcDbEntity
  8
寸法
  6
ByBlock
 48
50.0
100
AcDbLine
 10
5035.815102395216
 20
6555.022274709182
 30
0.0
 11
5391.902964380271
 21
6555.022274709182
 31
0.0
  0
POINT
  5
1AA5B
330
747D
100
AcDbEntity
  8
寸法
  6
ByBlock
 48
50.0
100
AcDbPoint
 10
5336.902964380296
 20
9964.636594009277
 30
0.0
  0
MTEXT
  5
1AA5C
330
747D
100
AcDbEntity
  8
部品1
  6
ByBlock
 48
50.0
100
AcDbMText
 10
4104.823230886301
 20
10064.6484050329
 30
0.0
 40
120.0
 41
0.0
 71
     5
 72
     1
  1
\A1;1420
  7
STYLE1
 73
     1
 44
1.0
1001
ACAD
1000
MTEXTBEGIN
1070
    73
1070
     1
1070
    44
1040
1.0
1070
    74
1070
     0
1000
MTEXTEND
  0
INSERT
  5
1AA5D
330
747D
100
AcDbEntity
  8
寸法
  6
ByBlock
 48
50.0
100
AcDbBlockReference
  2
_DOTSMALL
 10
5336.902964380296
 20
9964.636594009277
 30
0.0
 41
100.0
 42
100.0
 43
100.0
  0
INSERT
  5
1AA5E
330
747D
100
AcDbEntity
  8
寸法
  6
ByBlock
 48
50.0
100
AcDbBlockReference
  2
_DOTSMALL
 10
3916.902964380295
 20
9964.636594009277
 30
0.0
 41
100.0
 42
100.0
 43
100.0
 50
180.0
  0
LINE
  5
1AA5F
330
747D
100
AcDbEntity
  8
寸法
  6
ByBlock
 48
50.0
100
AcDbLine
 10
3916.902964380295
 20
9964.636594009277
 30
0.0
 11
4258.356454489323
 21
9964.636594009277
 31
0.0
  0
LINE
  5
1AA60
330
747D
100
AcDbEntity
  8
寸法
  6
ByBlock
 48
50.0
100
AcDbLine
 10
5336.902964380296
 20
9549.15824406288
 30
0.0
 11
5336.902964380296
 21
10024.63659400927
 31
0.0
  0
LINE
  5
1AA61
330
747D
100
AcDbEntity
  8
寸法
  6
ByBlock
 48
50.0
100
AcDbLine
 10
3916.902964380295
 20
9549.158244062754
 30
0.0
 11
3916.902964380295
 21
10024.63659400927
 31
0.0
  0
POINT
  5
1AA62
330
747D
100
AcDbEntity
  8
寸法
  6
ByBlock
 48
50.0
100
AcDbPoint
 10
5391.902964380271
 20
6555.022274709182
 30
0.0
  0
MTEXT
  5
1AA63
330
747D
100
AcDbEntity
  8
部品1
  6
ByBlock
 48
50.0
100
AcDbMText
 10
4063.982795613622
 20
6655.022274709181
 30
0.0
 40
120.0
 41
0.0
 71
     5
 72
     1
  1
\A1;1530
  7
STYLE1
 73
     1
 44
1.0
1001
ACAD
1000
MTEXTBEGIN
1070
    73
1070
     1
1070
    44
1040
1.0
1070
    74
1070
     0
1000
MTEXTEND
  0
INSERT
  5
1AA64
330
747D
100
AcDbEntity
  8
寸法
  6
ByBlock
 48
50.0
100
AcDbBlockReference
  2
_DOTSMALL
 10
5391.902964380271
 20
6555.022274709182
 30
0.0
 41
100.0
 42
100.0
 43
100.0
  0
INSERT
  5
1AA65
330
747D
100
AcDbEntity
  8
寸法
  6
ByBlock
 48
50.0
100
AcDbBlockReference
  2
_DOTSMALL
 10
3861.902964380289
 20
6555.022274709182
 30
0.0
 41
100.0
 42
100.0
 43
100.0
 50
180.0
  0
LINE
  5
1AA66
330
747D
100
AcDbEntity
  8
寸法
  6
ByBlock
 48
50.0
100
AcDbLine
 10
3861.902964380289
 20
6555.022274709182
 30
0.0
 11
4208.126293777808
 21
6555.022274709182
 31
0.0
  0
LINE
  5
1AA67
330
747D
100
AcDbEntity
  8
寸法
  6
ByBlock
 48
50.0
100
AcDbLine
 10
5391.902964380271
 20
7299.158244062837
 30
0.0
 11
5391.902964380271
 21
6495.022274709183
 31
0.0
  0
LINE
  5
1AA68
330
747D
100
AcDbEntity
  8
寸法
  6
ByBlock
 48
50.0
100
AcDbLine
 10
3861.902964380289
 20
7299.158244062706
 30
0.0
 11
3861.902964380289
 21
6495.022274709183
 31
0.0
  0
LINE
  5
1AA69
330
747D
100
AcDbEntity
  8
部品1
100
AcDbLine
 10
4536.354690152045
 20
9529.158244062776
 30
0.0
 11
8451.902964380295
 21
9529.158244062877
 31
0.0
  0
LINE
  5
1AA6A
330
747D
100
AcDbEntity
  8
部品1
100
AcDbLine
 10
4541.291845611866
 20
9501.158244062876
 30
0.0
 11
5391.902964380165
 21
9501.158244062876
 31
0.0
  0
LINE
  5
1AA6B
330
747D
100
AcDbEntity
  8
部品1
100
AcDbLine
 10
4546.31716456205
 20
9472.658244062905
 30
0.0
 11
4908.902964380298
 21
9472.658244062898
 31
0.0
  0
LINE
  5
1AA6C
330
747D
100
AcDbEntity
  8
破線
 48
10.0
100
AcDbLine
 10
4519.998050252126
 20
9449.158244062939
 30
0.0
 11
3941.902964380263
 21
9449.158244062898
 31
0.0
  0
LINE
  5
1AA6D
330
747D
100
AcDbEntity
  8
破線
 48
10.0
100
AcDbLine
 10
4868.420164132071
 20
7473.15824406284
 30
0.0
 11
3941.902964380282
 21
7473.158244062775
 31
0.0
  0
LINE
  5
1AA6E
330
747D
100
AcDbEntity
  8
部品1
100
AcDbLine
 10
4872.56384817872
 20
7449.658244062838
 30
0.0
 11
3918.40296438019
 21
7449.658244062778
 31
0.0
  0
LINE
  5
1AA6F
330
747D
100
AcDbEntity
  8
部品1
100
AcDbLine
 10
4877.589167128911
 20
7421.158244062837
 30
0.0
 11
3889.902964380271
 21
7421.158244062775
 31
0.0
  0
LINE
  5
1AA70
330
747D
100
AcDbEntity
  8
部品1
100
AcDbLine
 10
4895.574519161208
 20
7319.158244062648
 30
0.0
 11
3861.902964380289
 21
7319.158244062588
 31
0.0
  0
LINE
  5
1AA71
330
747D
100
AcDbEntity
  8
寸法
 48
50.0
100
AcDbLine
 10
4668.887757391384
 20
8604.762754835848
 30
0.0
 11
4867.361767569686
 21
8587.398528940717
 31
0.0
  0
LINE
  5
1AA72
330
747D
100
AcDbEntity
  8
寸法
 48
50.0
100
AcDbLine
 10
4694.434641987634
 20
8632.642287171568
 30
0.0
 11
4981.511916677391
 21
8607.526280080298
 31
0.0
  0
LINE
  5
1AA73
330
747D
100
AcDbEntity
  8
寸法
 48
50.0
100
AcDbLine
 10
4712.699178230329
 20
8356.295840340317
 30
0.0
 11
4425.621903540574
 21
8381.411847431595
 31
0.0
  0
LINE
  5
1AA74
330
747D
100
AcDbEntity
  8
寸法
 48
50.0
100
AcDbLine
 10
4738.246062826578
 20
8384.175372676043
 30
0.0
 11
4539.772052648279
 21
8401.539598571176
 31
0.0
  0
LINE
  5
1AA75
330
747D
100
AcDbEntity
  8
寸法
 48
50.0
100
AcDbLine
 10
4981.511916677391
 20
8607.526280080298
 30
0.0
 11
4539.772052648279
 21
8401.539598571176
 31
0.0
  0
LINE
  5
1AA76
330
747D
100
AcDbEntity
  8
寸法
 48
50.0
100
AcDbLine
 10
4867.361767569686
 20
8587.398528940717
 30
0.0
 11
4425.621903540574
 21
8381.411847431595
 31
0.0
  0
LINE
  5
1AA77
330
747D
100
AcDbEntity
  8
寸法
 48
50.0
100
AcDbLine
 10
4712.699178230329
 20
8356.295840340317
 30
0.0
 11
4904.256928044554
 21
7269.917856412039
 31
0.0
  0
LINE
  5
1AA78
330
747D
100
AcDbEntity
  8
寸法
 48
50.0
100
AcDbLine
 10
4738.246062826578
 20
8384.175372676043
 30
0.0
 11
4934.719726401125
 21
7269.91785641204
 31
0.0
  0
LINE
  5
1AA79
330
747D
100
AcDbEntity
  8
寸法
 48
50.0
100
AcDbLine
 10
4497.209482912133
 20
9578.398631713378
 30
0.0
 11
4668.887757391384
 21
8604.762754835848
 31
0.0
  0
LINE
  5
1AA7A
330
747D
100
AcDbEntity
  8
寸法
 48
50.0
100
AcDbLine
 10
4527.672281268701
 20
9578.398631713378
 30
0.0
 11
4694.434641987634
 21
8632.642287171568
 31
0.0
  0
DIMENSION
  5
1AA7B
330
747D
100
AcDbEntity
  8
寸法
 48
50.0
100
AcDbDimension
  2
*D27
 10
5336.902964380296
 20
9964.636594009277
 30
0.0
 11
5391.902964380296
 21
9964.636594009277
 31
0.0
 70
   160
 71
     5
 42
110.0
  3
INABA_S40G
100
AcDbAlignedDimension
 13
5446.902964380296
 23
9529.158244062797
 33
0.0
 14
5336.902964380296
 24
9529.158244062877
 34
0.0
100
AcDbRotatedDimension
  0
DIMENSION
  5
1AA7C
330
747D
100
AcDbEntity
  8
寸法
 48
50.0
100
AcDbDimension
  2
*D28
 10
6866.902964380296
 20
9964.636594009277
 30
0.0
 11
6921.902964380295
 21
9964.636594009277
 31
0.0
 70
   160
 71
     5
 42
110.0
  3
INABA_S40G
100
AcDbAlignedDimension
 13
6976.902964380295
 23
9529.158244062754
 33
0.0
 14
6866.902964380296
 24
9529.158244062754
 34
0.0
100
AcDbRotatedDimension
  0
LINE
  5
1AA7D
330
747D
100
AcDbEntity
  8
部品1
100
AcDbLine
 10
5419.902964380263
 20
9501.158244062764
 30
0.0
 11
6866.902964380296
 21
9501.158244062784
 31
0.0
  0
LINE
  5
1AA7E
330
747D
100
AcDbEntity
  8
部品1
100
AcDbLine
 10
5419.902964380263
 20
9501.158244062876
 30
0.0
 11
6893.902964380263
 21
9501.158244062889
 31
0.0
  0
LINE
  5
1AA7F
330
747D
100
AcDbEntity
  8
部品1
100
AcDbLine
 10
5446.902964380296
 20
9529.158244062786
 30
0.0
 11
5446.902964380296
 21
9501.158244062786
 31
0.0
  0
LINE
  5
1AA80
330
747D
100
AcDbEntity
  8
部品1
100
AcDbLine
 10
5336.902964380295
 20
9529.158244062786
 30
0.0
 11
5336.902964380295
 21
9501.158244062786
 31
0.0
  0
LINE
  5
1AA81
330
747D
100
AcDbEntity
  8
部品1
 48
50.0
100
AcDbLine
 10
5419.902964380263
 20
9474.158244062756
 30
0.0
 11
5419.902964380263
 21
9529.158244062839
 31
0.0
  0
LINE
  5
1AA82
330
747D
100
AcDbEntity
  8
部品1
 48
50.0
100
AcDbLine
 10
5363.902964380262
 20
9501.158244062889
 30
0.0
 11
5363.902964380262
 21
9529.158244062832
 31
0.0
  0
LINE
  5
1AA83
330
747D
100
AcDbEntity
  8
部品1
100
AcDbLine
 10
5419.902964380263
 20
9474.158244062756
 30
0.0
 11
5363.902964380262
 21
9474.158244062756
 31
0.0
  0
LINE
  5
1AA84
330
747D
100
AcDbEntity
  8
部品1
 48
50.0
100
AcDbLine
 10
5363.902964380262
 20
9501.158244062784
 30
0.0
 11
5391.90296438026
 21
9501.158244062784
 31
0.0
  0
LINE
  5
1AA85
330
747D
100
AcDbEntity
  8
部品1
 48
50.0
100
AcDbLine
 10
5391.90296438026
 20
9501.158244062784
 30
0.0
 11
5363.902964380262
 21
9529.158244062832
 31
0.0
  0
LINE
  5
1AA86
330
747D
100
AcDbEntity
  8
部品1
100
AcDbLine
 10
5391.902964380236
 20
8214.158244062785
 30
0.0
 11
5363.902964380235
 21
8214.158244062785
 31
0.0
  0
LINE
  5
1AA87
330
747D
100
AcDbEntity
  8
部品1
100
AcDbLine
 10
5391.902964380239
 20
7794.158244062785
 30
0.0
 11
5363.90296438024
 21
7794.158244062785
 31
0.0
  0
LINE
  5
1AA88
330
747D
100
AcDbEntity
  8
部品1
100
AcDbLine
 10
5442.902964380289
 20
7319.158244062709
 30
0.0
 11
5442.902964380287
 21
7326.158244062746
 31
0.0
  0
LINE
  5
1AA89
330
747D
100
AcDbEntity
  8
部品1
100
AcDbLine
 10
5451.902964380287
 20
7326.158244062742
 30
0.0
 11
5442.902964380287
 21
7326.158244062746
 31
0.0
  0
LINE
  5
1AA8A
330
747D
100
AcDbEntity
  8
部品1
100
AcDbLine
 10
5340.902964380289
 20
7319.158244062702
 30
0.0
 11
5340.902964380287
 21
7326.158244062738
 31
0.0
  0
LINE
  5
1AA8B
330
747D
100
AcDbEntity
  8
部品1
100
AcDbLine
 10
5340.902964380287
 20
7326.158244062738
 30
0.0
 11
5331.902964380287
 21
7326.158244062738
 31
0.0
  0
LINE
  5
1AA8C
330
747D
100
AcDbEntity
  8
部品1
100
AcDbLine
 10
5451.902964380287
 20
7326.158244062742
 30
0.0
 11
5451.902964380285
 21
7374.158244062709
 31
0.0
  0
LINE
  5
1AA8D
330
747D
100
AcDbEntity
  8
部品1
100
AcDbLine
 10
5331.902964380287
 20
7326.158244062742
 30
0.0
 11
5331.902964380285
 21
7374.158244062709
 31
0.0
  0
LINE
  5
1AA8E
330
747D
100
AcDbEntity
  8
部品1
 48
50.0
100
AcDbLine
 10
5331.902964380285
 20
7374.158244062709
 30
0.0
 11
5354.902964380285
 21
7374.158244062709
 31
0.0
  0
LINE
  5
1AA8F
330
747D
100
AcDbEntity
  8
部品1
 48
50.0
100
AcDbLine
 10
5451.902964380285
 20
7374.158244062709
 30
0.0
 11
5428.902964380284
 21
7374.158244062709
 31
0.0
  0
LINE
  5
1AA90
330
747D
100
AcDbEntity
  8
部品1
 48
50.0
100
AcDbLine
 10
5419.902964380253
 20
7374.158244062709
 30
0.0
 11
5363.902964380253
 21
7374.158244062709
 31
0.0
  0
LINE
  5
1AA91
330
747D
100
AcDbEntity
  8
部品1
100
AcDbLine
 10
5363.902964380226
 20
9501.158244062784
 30
0.0
 11
5363.90296438024
 21
8226.658244062877
 31
0.0
  0
LINE
  5
1AA92
330
747D
100
AcDbEntity
  8
部品1
100
AcDbLine
 10
5419.902964380227
 20
9474.158244062756
 30
0.0
 11
5419.902964380254
 21
7319.158244062773
 31
0.0
  0
LINE
  5
1AA93
330
747D
100
AcDbEntity
  8
部品1
100
AcDbLine
 10
5391.902964380236
 20
7374.158244062769
 30
0.0
 11
5391.90296438026
 21
9474.158244062754
 31
0.0
  0
LINE
  5
1AA94
330
747D
100
AcDbEntity
  8
破線
 48
10.0
100
AcDbLine
 10
4908.902964380303
 20
9449.158244062964
 30
0.0
 11
4550.460848608693
 21
9449.15824406295
 31
0.0
  0
LINE
  5
1AA95
330
747D
100
AcDbEntity
  8
部品1
100
AcDbLine
 10
3918.402964380265
 20
9472.658244062904
 30
0.0
 11
4515.854366205485
 21
9472.658244062905
 31
0.0
  0
LINE
  5
1AA96
330
747D
100
AcDbEntity
  8
部品1
 48
50.0
100
AcDbLine
 10
3918.402964380285
 20
7449.658244062874
 30
0.0
 11
3889.902964380287
 21
7421.158244062874
 31
0.0
  0
LINE
  5
1AA97
330
747D
100
AcDbEntity
  8
部品1
100
AcDbLine
 10
3918.402964380265
 20
9472.658244062904
 30
0.0
 11
3918.402964380285
 21
7449.658244062874
 31
0.0
  0
LINE
  5
1AA98
330
747D
100
AcDbEntity
  8
破線
 48
10.0
100
AcDbLine
 10
3941.902964380263
 20
9449.158244062898
 30
0.0
 11
3941.902964380271
 21
8819.158244062839
 31
0.0
  0
LINE
  5
1AA99
330
747D
100
AcDbEntity
  8
部品1
 48
50.0
100
AcDbLine
 10
4389.902964380296
 20
9472.658244062904
 30
0.0
 11
4389.902964380389
 21
7449.658244062804
 31
0.0
  0
LINE
  5
1AA9A
330
747D
100
AcDbEntity
  8
部品1
100
AcDbLine
 10
4908.902964380494
 20
7449.658244062842
 30
0.0
 11
4903.026646535291
 21
7449.658244062842
 31
0.0
  0
LINE
  5
1AA9B
330
747D
100
AcDbEntity
  8
破線
 48
10.0
100
AcDbLine
 10
4908.90296438049
 20
7473.158244062844
 30
0.0
 11
4898.882962488645
 21
7473.158244062846
 31
0.0
  0
LINE
  5
1AA9C
330
747D
100
AcDbEntity
  8
部品1
100
AcDbLine
 10
5358.90296438039
 20
7396.658244062897
 30
0.0
 11
4912.371976512832
 21
7396.658244062897
 31
0.0
  0
LINE
  5
1AA9D
330
747D
100
AcDbEntity
  8
破線
 48
10.0
100
AcDbLine
 10
6438.902964380301
 20
9449.158244062964
 30
0.0
 11
5471.902964380263
 21
9449.158244062898
 31
0.0
  0
LINE
  5
1AA9E
330
747D
100
AcDbEntity
  8
部品1
100
AcDbLine
 10
5448.402964380264
 20
9472.658244062904
 30
0.0
 11
6438.902964380298
 21
9472.658244062898
 31
0.0
  0
LINE
  5
1AA9F
330
747D
100
AcDbEntity
  8
部品1
 48
50.0
100
AcDbLine
 10
5448.402964380285
 20
7449.658244062874
 30
0.0
 11
5419.902964380288
 21
7421.158244062874
 31
0.0
  0
LINE
  5
1AAA0
330
747D
100
AcDbEntity
  8
部品1
100
AcDbLine
 10
5448.402964380264
 20
9472.658244062904
 30
0.0
 11
5448.402964380285
 21
7449.658244062874
 31
0.0
  0
LINE
  5
1AAA1
330
747D
100
AcDbEntity
  8
部品1
 48
50.0
100
AcDbLine
 10
5919.902964380297
 20
9472.658244062904
 30
0.0
 11
5919.902964380386
 21
7449.658244062809
 31
0.0
  0
LINE
  5
1AAA2
330
747D
100
AcDbEntity
  8
部品1
100
AcDbLine
 10
6438.902964380497
 20
7421.158244062841
 30
0.0
 11
5419.90296438027
 21
7421.158244062775
 31
0.0
  0
LINE
  5
1AAA3
330
747D
100
AcDbEntity
  8
部品1
100
AcDbLine
 10
6438.902964380495
 20
7449.658244062842
 30
0.0
 11
5448.402964380189
 21
7449.658244062778
 31
0.0
  0
LINE
  5
1AAA4
330
747D
100
AcDbEntity
  8
破線
 48
10.0
100
AcDbLine
 10
6438.90296438049
 20
7473.158244062844
 30
0.0
 11
5471.902964380284
 21
7473.158244062775
 31
0.0
  0
DIMENSION
  5
1AAA5
330
747D
100
AcDbEntity
  8
寸法
100
AcDbDimension
  2
*D29
 10
6921.902964380271
 20
6555.022274709182
 30
0.0
 11
6076.90296438028
 21
6555.022274709182
 31
0.0
 70
   160
 71
     5
 42
1529.999999999982
  3
INABA_S40G
100
AcDbAlignedDimension
 13
5391.902964380289
 23
7319.158244062709
 33
0.0
 14
6921.902964380271
 24
7319.158244062838
 34
0.0
100
AcDbRotatedDimension
1001
ACAD
1000
DSTYLE
1002
{
1002
}
  0
LINE
  5
1AAA6
330
747D
100
AcDbEntity
  8
部品1
 48
50.0
100
AcDbLine
 10
6893.902964380263
 20
9501.158244062889
 30
0.0
 11
6893.902964380261
 21
9529.158244062832
 31
0.0
  0
LINE
  5
1AAA7
330
747D
100
AcDbEntity
  8
部品1
100
AcDbLine
 10
6949.902964380227
 20
9474.158244062756
 30
0.0
 11
6949.902964380254
 21
7319.158244062773
 31
0.0
  0
LINE
  5
1AAA8
330
747D
100
AcDbEntity
  8
部品1
100
AcDbLine
 10
6921.902964380236
 20
8214.158244062785
 30
0.0
 11
6893.902964380235
 21
8214.158244062785
 31
0.0
  0
LINE
  5
1AAA9
330
747D
100
AcDbEntity
  8
部品1
100
AcDbLine
 10
6921.90296438024
 20
7794.158244062785
 30
0.0
 11
6893.902964380242
 21
7794.158244062785
 31
0.0
  0
LINE
  5
1AAAA
330
747D
100
AcDbEntity
  8
部品1
100
AcDbLine
 10
6921.902964380236
 20
7374.158244062769
 30
0.0
 11
6921.902964380262
 21
9474.158244062754
 31
0.0
  0
LINE
  5
1AAAB
330
747D
100
AcDbEntity
  8
部品1
100
AcDbLine
 10
6893.902964380227
 20
9501.158244062784
 30
0.0
 11
6893.902964380242
 21
8226.658244062877
 31
0.0
  0
LINE
  5
1AAAC
330
747D
100
AcDbEntity
  8
部品1
 48
50.0
100
AcDbLine
 10
6921.902964380262
 20
9501.158244062784
 30
0.0
 11
6893.902964380263
 21
9529.158244062832
 31
0.0
  0
LINE
  5
1AAAD
330
747D
100
AcDbEntity
  8
部品1
 48
50.0
100
AcDbLine
 10
6893.902964380263
 20
9501.158244062784
 30
0.0
 11
6921.902964380262
 21
9501.158244062784
 31
0.0
  0
LINE
  5
1AAAE
330
747D
100
AcDbEntity
  8
部品1
100
AcDbLine
 10
6949.902964380263
 20
9501.158244062891
 30
0.0
 11
8423.902964380294
 21
9501.158244062899
 31
0.0
  0
LINE
  5
1AAAF
330
747D
100
AcDbEntity
  8
部品1
100
AcDbLine
 10
6976.902964380295
 20
9501.158244062786
 30
0.0
 11
7396.902964380295
 21
9501.158244062791
 31
0.0
  0
LINE
  5
1AAB0
330
747D
100
AcDbEntity
  8
部品1
 48
50.0
100
AcDbLine
 10
6893.902964380263
 20
9474.158244062756
 30
0.0
 11
6893.902964380263
 21
9501.158244062784
 31
0.0
  0
LINE
  5
1AAB1
330
747D
100
AcDbEntity
  8
部品1
 48
50.0
100
AcDbLine
 10
6949.902964380263
 20
9474.158244062756
 30
0.0
 11
6949.902964380263
 21
9529.158244062839
 31
0.0
  0
LINE
  5
1AAB2
330
747D
100
AcDbEntity
  8
部品1
100
AcDbLine
 10
6866.902964380296
 20
9529.158244062786
 30
0.0
 11
6866.902964380296
 21
9501.158244062786
 31
0.0
  0
LINE
  5
1AAB3
330
747D
100
AcDbEntity
  8
部品1
100
AcDbLine
 10
6949.902964380263
 20
9474.158244062756
 30
0.0
 11
6893.902964380263
 21
9474.158244062756
 31
0.0
  0
LINE
  5
1AAB4
330
747D
100
AcDbEntity
  8
部品1
100
AcDbLine
 10
6976.902964380295
 20
9529.158244062786
 30
0.0
 11
6976.902964380295
 21
9501.158244062786
 31
0.0
  0
LINE
  5
1AAB5
330
747D
100
AcDbEntity
  8
部品1
 48
50.0
100
AcDbLine
 10
6949.902964380253
 20
7374.158244062709
 30
0.0
 11
6893.902964380251
 21
7374.158244062709
 31
0.0
  0
LINE
  5
1AAB6
330
747D
100
AcDbEntity
  8
部品1
 48
50.0
100
AcDbLine
 10
6981.902964380285
 20
7374.158244062709
 30
0.0
 11
6958.902964380285
 21
7374.158244062709
 31
0.0
  0
LINE
  5
1AAB7
330
747D
100
AcDbEntity
  8
部品1
 48
50.0
100
AcDbLine
 10
6861.902964380284
 20
7374.158244062709
 30
0.0
 11
6884.902964380284
 21
7374.158244062709
 31
0.0
  0
LINE
  5
1AAB8
330
747D
100
AcDbEntity
  8
部品1
100
AcDbLine
 10
6870.902964380289
 20
7319.158244062702
 30
0.0
 11
6870.902964380286
 21
7326.158244062738
 31
0.0
  0
LINE
  5
1AAB9
330
747D
100
AcDbEntity
  8
部品1
100
AcDbLine
 10
6870.902964380286
 20
7326.158244062738
 30
0.0
 11
6861.902964380288
 21
7326.158244062738
 31
0.0
  0
LINE
  5
1AABA
330
747D
100
AcDbEntity
  8
部品1
100
AcDbLine
 10
6861.902964380288
 20
7326.158244062742
 30
0.0
 11
6861.902964380284
 21
7374.158244062709
 31
0.0
  0
LINE
  5
1AABB
330
747D
100
AcDbEntity
  8
部品1
100
AcDbLine
 10
6981.902964380286
 20
7326.158244062742
 30
0.0
 11
6981.902964380285
 21
7374.158244062709
 31
0.0
  0
LINE
  5
1AABC
330
747D
100
AcDbEntity
  8
部品1
100
AcDbLine
 10
6981.902964380286
 20
7326.158244062742
 30
0.0
 11
6972.902964380288
 21
7326.158244062746
 31
0.0
  0
LINE
  5
1AABD
330
747D
100
AcDbEntity
  8
部品1
100
AcDbLine
 10
6972.902964380288
 20
7319.158244062709
 30
0.0
 11
6972.902964380288
 21
7326.158244062746
 31
0.0
  0
DIMENSION
  5
1AABE
330
747D
100
AcDbEntity
  8
寸法
 48
50.0
100
AcDbDimension
  2
*D30
 10
7906.329605580061
 20
9730.185198305605
 30
0.0
 11
8142.231435197819
 21
9730.185198305605
 31
0.0
 70
   160
 71
     5
 42
449.9999999999972
  3
INABA_S40G
100
AcDbAlignedDimension
 13
8418.902964380292
 23
9496.658244062903
 33
0.0
 14
7968.902964380294
 24
9496.658244062899
 34
0.0
100
AcDbRotatedDimension
  0
LINE
  5
1AABF
330
747D
100
AcDbEntity
  8
部品1
 48
50.0
100
AcDbLine
 10
7449.902964380297
 20
9472.658244062904
 30
0.0
 11
7449.902964380386
 21
7449.658244062809
 31
0.0
  0
LINE
  5
1AAC0
330
747D
100
AcDbEntity
  8
部品1
100
AcDbLine
 10
6978.402964380264
 20
9472.658244062904
 30
0.0
 11
7968.902964380298
 21
9472.658244062898
 31
0.0
  0
LINE
  5
1AAC1
330
747D
100
AcDbEntity
  8
破線
 48
10.0
100
AcDbLine
 10
7968.902964380301
 20
9449.158244062964
 30
0.0
 11
7001.902964380263
 21
9449.158244062898
 31
0.0
  0
LINE
  5
1AAC2
330
747D
100
AcDbEntity
  8
部品1
 48
50.0
100
AcDbLine
 10
6978.402964380284
 20
7449.658244062874
 30
0.0
 11
6949.902964380287
 21
7421.158244062874
 31
0.0
  0
LINE
  5
1AAC3
330
747D
100
AcDbEntity
  8
部品1
100
AcDbLine
 10
6978.402964380264
 20
9472.658244062904
 30
0.0
 11
6978.402964380284
 21
7449.658244062874
 31
0.0
  0
LINE
  5
1AAC4
330
747D
100
AcDbEntity
  8
破線
 48
10.0
100
AcDbLine
 10
7968.902964380491
 20
7473.158244062844
 30
0.0
 11
7001.902964380282
 21
7473.158244062775
 31
0.0
  0
LINE
  5
1AAC5
330
747D
100
AcDbEntity
  8
部品1
100
AcDbLine
 10
7968.902964380494
 20
7449.658244062842
 30
0.0
 11
6978.40296438019
 21
7449.658244062778
 31
0.0
  0
LINE
  5
1AAC6
330
747D
100
AcDbEntity
  8
部品1
100
AcDbLine
 10
3861.902964380295
 20
9529.158244062754
 30
0.0
 11
4505.89189179548
 21
9529.158244062772
 31
0.0
  0
DIMENSION
  5
1AAC7
330
747D
100
AcDbEntity
  8
寸法
100
AcDbDimension
  2
*D31
 10
8451.902964380295
 20
9964.636594009258
 30
0.0
 11
8760.388245754535
 21
9964.636594009258
 31
0.0
 70
   160
 71
     5
 42
54.99999999999818
  3
INABA_S40G
100
AcDbAlignedDimension
 13
8396.902964380297
 23
9529.158244062877
 33
0.0
 14
8451.902964380295
 24
9529.158244062877
 34
0.0
100
AcDbRotatedDimension
1001
ACAD
1000
DSTYLE
1002
{
1002
}
  0
LINE
  5
1AAC8
330
747D
100
AcDbEntity
  8
部品1
100
AcDbLine
 10
8423.902964380294
 20
9474.158244062884
 30
0.0
 11
8451.902964380295
 21
9474.158244062884
 31
0.0
  0
LINE
  5
1AAC9
330
747D
100
AcDbEntity
  8
部品1
100
AcDbLine
 10
8423.902964380294
 20
8214.158244062884
 30
0.0
 11
8451.902964380295
 21
8214.158244062884
 31
0.0
  0
LINE
  5
1AACA
330
747D
100
AcDbEntity
  8
部品1
100
AcDbLine
 10
8418.902964380389
 20
7396.658244062897
 30
0.0
 11
7968.902964380392
 21
7396.658244062897
 31
0.0
  0
LINE
  5
1AACB
330
747D
100
AcDbEntity
  8
部品1
100
AcDbLine
 10
8423.902964380301
 20
7794.158244062884
 30
0.0
 11
8451.9029643803
 21
7794.158244062884
 31
0.0
  0
LINE
  5
1AACC
330
747D
100
AcDbEntity
  8
部品1
100
AcDbLine
 10
8423.902964380307
 20
7374.158244062885
 30
0.0
 11
8451.902964380304
 21
7374.158244062885
 31
0.0
  0
LINE
  5
1AACD
330
747D
100
AcDbEntity
  8
部品1
100
AcDbLine
 10
8391.902964380271
 20
7326.158244062871
 30
0.0
 11
8391.902964380271
 21
7374.158244062868
 31
0.0
  0
LINE
  5
1AACE
330
747D
100
AcDbEntity
  8
部品1
100
AcDbLine
 10
8400.902964380271
 20
7326.158244062871
 30
0.0
 11
8391.902964380271
 21
7326.158244062871
 31
0.0
  0
LINE
  5
1AACF
330
747D
100
AcDbEntity
  8
部品1
100
AcDbLine
 10
8400.902964380271
 20
7319.158244062869
 30
0.0
 11
8400.902964380271
 21
7326.158244062871
 31
0.0
  0
LINE
  5
1AAD0
330
747D
100
AcDbEntity
  8
部品1
100
AcDbLine
 10
8391.902964380271
 20
7374.158244062868
 30
0.0
 11
8423.902964380271
 21
7374.158244062868
 31
0.0
  0
LINE
  5
1AAD1
330
747D
100
AcDbEntity
  8
部品1
100
AcDbLine
 10
8423.902964380271
 20
7374.158244062868
 30
0.0
 11
8451.902964380272
 21
7374.158244062868
 31
0.0
  0
LINE
  5
1AAD2
330
747D
100
AcDbEntity
  8
部品1
100
AcDbLine
 10
8451.902964380272
 20
7374.158244062868
 30
0.0
 11
8451.902964380272
 21
7319.158244062871
 31
0.0
  0
LINE
  5
1AAD3
330
747D
100
AcDbEntity
  8
部品1
100
AcDbLine
 10
8451.902964380272
 20
7319.158244062871
 30
0.0
 11
8400.902964380271
 21
7319.158244062871
 31
0.0
  0
LINE
  5
1AAD4
330
747D
100
AcDbEntity
  8
部品1
100
AcDbLine
 10
8423.902964380294
 20
9501.158244062876
 30
0.0
 11
8423.902964380284
 21
8226.658244062877
 31
0.0
  0
LINE
  5
1AAD5
330
747D
100
AcDbEntity
  8
部品1
100
AcDbLine
 10
3889.902964380264
 20
9474.158244062756
 30
0.0
 11
3861.902964380263
 21
9474.158244062756
 31
0.0
  0
LINE
  5
1AAD6
330
747D
100
AcDbEntity
  8
部品1
100
AcDbLine
 10
3889.902964380271
 20
8214.158244062753
 30
0.0
 11
3861.90296438027
 21
8214.158244062753
 31
0.0
  0
LINE
  5
1AAD7
330
747D
100
AcDbEntity
  8
部品1
 48
50.0
100
AcDbLine
 10
8418.90296438029
 20
9500.40824406291
 30
0.0
 11
7968.902964380291
 21
9500.40824406291
 31
0.0
  0
LINE
  5
1AAD8
330
747D
100
AcDbEntity
  8
部品1
100
AcDbLine
 10
3889.902964380296
 20
9501.158244062754
 30
0.0
 11
4510.829047255319
 21
9501.158244062761
 31
0.0
  0
LINE
  5
1AAD9
330
747D
100
AcDbEntity
  8
部品1
100
AcDbLine
 10
3889.902964380275
 20
7794.158244062754
 30
0.0
 11
3861.902964380276
 21
7794.158244062754
 31
0.0
  0
LINE
  5
1AADA
330
747D
100
AcDbEntity
  8
部品1
100
AcDbLine
 10
3921.902964380287
 20
7326.158244062741
 30
0.0
 11
3921.902964380285
 21
7374.158244062705
 31
0.0
  0
LINE
  5
1AADB
330
747D
100
AcDbEntity
  8
部品1
100
AcDbLine
 10
3921.902964380287
 20
7326.158244062741
 30
0.0
 11
3912.902964380288
 21
7326.158244062742
 31
0.0
  0
LINE
  5
1AADC
330
747D
100
AcDbEntity
  8
部品1
100
AcDbLine
 10
3912.902964380289
 20
7319.158244062705
 30
0.0
 11
3912.902964380288
 21
7326.158244062742
 31
0.0
  0
LINE
  5
1AADD
330
747D
100
AcDbEntity
  8
部品1
100
AcDbLine
 10
3921.902964380285
 20
7374.158244062704
 30
0.0
 11
3893.902964380287
 21
7374.158244062704
 31
0.0
  0
LINE
  5
1AADE
330
747D
100
AcDbEntity
  8
部品1
100
AcDbLine
 10
3889.902964380287
 20
7374.158244062754
 30
0.0
 11
3861.902964380287
 21
7374.158244062754
 31
0.0
  0
LINE
  5
1AADF
330
747D
100
AcDbEntity
  8
部品1
100
AcDbLine
 10
6972.902964380288
 20
7319.158244062741
 30
0.0
 11
6921.902964380288
 21
7319.158244062741
 31
0.0
  0
LINE
  5
1AAE0
330
747D
100
AcDbEntity
  8
部品1
100
AcDbLine
 10
3889.902964380271
 20
7374.158244062738
 30
0.0
 11
3889.902964380296
 21
9501.158244062786
 31
0.0
  0
LINE
  5
1AAE1
330
747D
100
AcDbEntity
  8
部品1
100
AcDbLine
 10
8451.902964380272
 20
7319.158244062871
 30
0.0
 11
4926.037317517779
 21
7319.15824406265
 31
0.0
  0
LINE
  5
1AAE2
330
747D
100
AcDbEntity
  8
部品1
100
AcDbLine
 10
3916.902964380295
 20
9501.158244062875
 30
0.0
 11
4510.829047255298
 21
9501.158244062876
 31
0.0
  0
LINE
  5
1AAE3
330
747D
100
AcDbEntity
  8
部品1
100
AcDbLine
 10
8418.902964380297
 20
9500.408244062914
 30
0.0
 11
8418.902964380402
 21
8227.408244063106
 31
0.0
  0
LINE
  5
1AAE4
330
747D
100
AcDbEntity
  8
部品1
100
AcDbLine
 10
7968.902964380498
 20
7421.158244062841
 30
0.0
 11
6949.90296438027
 21
7421.158244062775
 31
0.0
  0
TEXT
  5
1AAE5
330
747D
100
AcDbEntity
  8
部品1
100
AcDbText
 10
5912.947033174831
 20
6139.184595818613
 30
0.0
 40
135.0
  1
平面図
  7
STYLE2
100
AcDbText
  0
DIMENSION
  5
1AAE6
330
747D
100
AcDbEntity
  8
寸法
100
AcDbDimension
  2
*D32
 10
8451.902964380272
 20
6555.022274709182
 30
0.0
 11
7686.90296438028
 21
6555.022274709182
 31
0.0
 70
   160
 71
     5
 42
1529.999999999984
  3
INABA_S40G
100
AcDbAlignedDimension
 13
6921.902964380288
 23
7319.158244062709
 33
0.0
 14
8451.902964380272
 24
7319.158244062838
 34
0.0
100
AcDbRotatedDimension
1001
ACAD
1000
DSTYLE
1002
{
1002
}
  0
DIMENSION
  5
1AAE7
330
747D
100
AcDbEntity
  8
寸法
100
AcDbDimension
  2
*D33
 10
9099.329310114709
 20
7374.158244062868
 30
0.0
 11
9099.329310114706
 21
8424.158244062873
 31
0.0
 70
   160
  1
5X420=<>
 71
     5
 42
2100.000000000017
  3
INABA_S40G
100
AcDbAlignedDimension
 13
8451.902964380295
 23
9474.158244062884
 33
0.0
 14
8451.902964380272
 24
7374.158244062868
 34
0.0
 50
90.0
100
AcDbRotatedDimension
1001
ACAD
1000
DSTYLE
1002
{
1002
}
  0
DIMENSION
  5
1AAE8
330
747D
100
AcDbEntity
  8
寸法
100
AcDbDimension
  2
*D34
 10
9099.329310114683
 20
7319.158244062871
 30
0.0
 11
9099.329310114681
 21
6941.296777158008
 31
0.0
 70
   160
 71
     5
 42
54.99999999999727
  3
INABA_S40G
100
AcDbAlignedDimension
 13
8451.902964380272
 23
7374.158244062868
 33
0.0
 14
8451.902964380272
 24
7319.158244062871
 34
0.0
 50
90.0
100
AcDbRotatedDimension
1001
ACAD
1000
DSTYLE
1002
{
1002
}
  0
DIMENSION
  5
1AAE9
330
747D
100
AcDbEntity
  8
寸法
100
AcDbDimension
  2
*D35
 10
9099.329310114709
 20
9474.158244062884
 30
0.0
 11
9099.329310114706
 21
9837.643525437123
 31
0.0
 70
   160
 71
     5
 42
54.99999999999272
  3
INABA_S40G
100
AcDbAlignedDimension
 13
8451.902964380295
 23
9529.158244062877
 33
0.0
 14
8451.902964380295
 24
9474.158244062884
 34
0.0
 50
90.0
100
AcDbRotatedDimension
1001
ACAD
1000
DSTYLE
1002
{
1002
}
  0
LINE
  5
1AAEA
330
747D
100
AcDbEntity
  8
部品1
100
AcDbLine
 10
3916.902964380295
 20
9529.158244062786
 30
0.0
 11
3916.902964380295
 21
9501.158244062786
 31
0.0
  0
LINE
  5
1AAEB
330
747D
100
AcDbEntity
  8
部品1
100
AcDbLine
 10
7396.902964380295
 20
9529.158244062786
 30
0.0
 11
7396.902964380295
 21
9501.158244062786
 31
0.0
  0
LINE
  5
1AAEC
330
747D
100
AcDbEntity
  8
部品1
100
AcDbLine
 10
7396.902964380295
 20
9529.158244062783
 30
0.0
 11
7396.902964380295
 21
9501.158244062784
 31
0.0
  0
LINE
  5
1AAED
330
747D
100
AcDbEntity
  8
部品1
100
AcDbLine
 10
7396.902964380295
 20
9529.158244062898
 30
0.0
 11
7396.902964380295
 21
9501.158244062899
 31
0.0
  0
LINE
  5
1AAEE
330
747D
100
AcDbEntity
  8
部品1
100
AcDbLine
 10
7976.902964380295
 20
9529.158244062898
 30
0.0
 11
7976.902964380295
 21
9501.158244062899
 31
0.0
  0
LINE
  5
1AAEF
330
747D
100
AcDbEntity
  8
部品1
100
AcDbLine
 10
8451.902964380295
 20
9529.158244062877
 30
0.0
 11
8451.902964380272
 21
7319.158244062871
 31
0.0
  0
DIMENSION
  5
1AAF0
330
747D
100
AcDbEntity
  8
寸法
100
AcDbDimension
  2
*D36
 10
9367.35168224585
 20
7319.158244062871
 30
0.0
 11
9367.351682245848
 21
8446.501590121604
 31
0.0
 70
   160
 71
     5
 42
2210.000000000007
  3
INABA_S40G
100
AcDbAlignedDimension
 13
8451.902964380295
 23
9529.158244062877
 33
0.0
 14
8451.902964380272
 24
7319.158244062871
 34
0.0
 50
90.0
100
AcDbRotatedDimension
1001
ACAD
1000
DSTYLE
1002
{
1002
}
  0
LINE
  5
1AAF1
330
747D
100
AcDbEntity
  8
部品1
100
AcDbLine
 10
8396.902964380297
 20
9529.158244062898
 30
0.0
 11
8396.902964380297
 21
9501.158244062899
 31
0.0
  0
LINE
  5
1AAF2
330
747D
100
AcDbEntity
  8
部品1
100
AcDbLine
 10
8396.902964380297
 20
9529.158244062877
 30
0.0
 11
8396.902964380297
 21
9501.158244062876
 31
0.0
  0
LINE
  5
1AAF3
330
747D
100
AcDbEntity
  8
部品1
100
AcDbLine
 10
3861.902964380261
 20
9529.158244062754
 30
0.0
 11
3861.902964380289
 21
7319.158244062741
 31
0.0
  0
DIMENSION
  5
1AAF4
330
747D
100
AcDbEntity
  8
寸法
100
AcDbDimension
  2
*D37
 10
3916.902964380295
 20
9964.636594009128
 30
0.0
 11
3553.417683006022
 21
9964.636594009128
 31
0.0
 70
   160
 71
     5
 42
55.0000000000332
  3
INABA_S40G
100
AcDbAlignedDimension
 13
3861.902964380261
 23
9529.158244062754
 33
0.0
 14
3916.902964380295
 24
9529.158244062754
 34
0.0
100
AcDbRotatedDimension
1001
ACAD
1000
DSTYLE
1002
{
1002
}
  0
LINE
  5
1AD96
330
747D
100
AcDbEntity
  8
部品1
100
AcDbLine
 10
4917.502964380297
 20
3905.527552734409
 30
0.0
 11
4917.502964380296
 21
2787.892568482508
 31
0.0
  0
LWPOLYLINE
  5
1B5B7
330
747D
100
AcDbEntity
  8
部品1
 48
50.0
100
AcDbPolyline
 90
        4
 70
     1
 43
0.0
 10
3981.952964380298
 20
3651.642568482508
 10
3984.8529643803
 20
3651.642568482508
 10
3984.8529643803
 20
3661.142568482508
 10
3981.952964380298
 20
3661.142568482508
  0
CIRCLE
  5
1B5B8
330
747D
100
AcDbEntity
  8
部品1
 48
50.0
100
AcDbCircle
 10
3983.402964380299
 20
3656.392568482508
 30
0.0
 40
9.0
  0
ARC
  5
1B5B9
330
747D
100
AcDbEntity
  8
細線
 48
50.0
100
AcDbCircle
 10
3983.402964380299
 20
3656.392568482508
 30
0.0
 40
4.0
100
AcDbArc
 50
111.2538091853375
 51
248.7461908146625
  0
ARC
  5
1B5BA
330
747D
100
AcDbEntity
  8
細線
 48
50.0
100
AcDbCircle
 10
3983.402964380299
 20
3656.392568482508
 30
0.0
 40
17.5
100
AcDbArc
 50
306.4837370612677
 51
233.5162629387323
  0
LINE
  5
1B5BB
330
747D
100
AcDbEntity
  8
細線
 48
50.0
100
AcDbLine
 10
3993.402964380295
 20
3632.533607901625
 30
0.0
 11
3993.402964380299
 21
3641.518093701867
 31
0.0
  0
LINE
  5
1B5BC
330
747D
100
AcDbEntity
  8
細線
 48
50.0
100
AcDbLine
 10
3973.402964380299
 20
3632.533607901627
 30
0.0
 11
3973.402964380299
 21
3641.518093701864
 31
0.0
  0
ARC
  5
1B5BD
330
747D
100
AcDbEntity
  8
細線
 48
50.0
100
AcDbCircle
 10
3983.402964380299
 20
3656.392568482508
 30
0.0
 40
26.5
100
AcDbArc
 50
249.3326835063939
 51
290.6673164933835
  0
ARC
  5
1B5BE
330
747D
100
AcDbEntity
  8
細線
 48
50.0
100
AcDbCircle
 10
3992.402964380292
 20
3632.533607901625
 30
0.0
 40
1.0
100
AcDbArc
 50
290.6673164936062
 51
359.9999999998958
  0
ARC
  5
1B5BF
330
747D
100
AcDbEntity
  8
細線
 48
50.0
100
AcDbCircle
 10
3974.402964380299
 20
3632.533607901627
 30
0.0
 40
1.0
100
AcDbArc
 50
180.0
 51
249.3326835066164
  0
ARC
  5
1B5C0
330
747D
100
AcDbEntity
  8
細線
 48
50.0
100
AcDbCircle
 10
3972.402964380299
 20
3641.518093701864
 30
0.0
 40
1.0
100
AcDbArc
 50
0.0
 51
53.51626293873231
  0
ARC
  5
1B5C1
330
747D
100
AcDbEntity
  8
細線
 48
50.0
100
AcDbCircle
 10
3994.402964380303
 20
3641.518093701867
 30
0.0
 40
1.0
100
AcDbArc
 50
126.4837370614917
 51
180.0
  0
ARC
  5
1B5C2
330
747D
100
AcDbEntity
  8
細線
 48
50.0
100
AcDbCircle
 10
3983.402964380299
 20
3656.392568482508
 30
0.0
 40
21.5
100
AcDbArc
 50
255.8014401250294
 51
284.1985598749706
  0
ARC
  5
1B5C3
330
747D
100
AcDbEntity
  8
細線
 48
50.0
100
AcDbCircle
 10
3983.402964380299
 20
3656.392568482508
 30
0.0
 40
16.5
100
AcDbArc
 50
251.9694646069326
 51
288.0305353930674
  0
LINE
  5
1B5C4
330
747D
100
AcDbEntity
  8
細線
 48
50.0
100
AcDbLine
 10
3988.902964380299
 20
3635.840196356701
 30
0.0
 11
3988.902964380299
 21
3640.417588044039
 31
0.0
  0
LINE
  5
1B5C5
330
747D
100
AcDbEntity
  8
細線
 48
50.0
100
AcDbLine
 10
3977.902964380298
 20
3635.840196356701
 30
0.0
 11
3977.902964380298
 21
3640.417588044036
 31
0.0
  0
ARC
  5
1B5C6
330
747D
100
AcDbEntity
  8
細線
 48
50.0
100
AcDbCircle
 10
3978.202964380301
 20
3640.417588044036
 30
0.0
 40
0.3
100
AcDbArc
 50
71.96946460693259
 51
180.0
  0
ARC
  5
1B5C7
330
747D
100
AcDbEntity
  8
細線
 48
50.0
100
AcDbCircle
 10
3988.602964380299
 20
3640.417588044039
 30
0.0
 40
0.3
100
AcDbArc
 50
0.0
 51
108.0305353930674
  0
ARC
  5
1B5C8
330
747D
100
AcDbEntity
  8
細線
 48
50.0
100
AcDbCircle
 10
3988.602964380296
 20
3635.840196356701
 30
0.0
 40
0.3
100
AcDbArc
 50
284.1985598747622
 51
0.0000000001042204
  0
ARC
  5
1B5C9
330
747D
100
AcDbEntity
  8
細線
 48
50.0
100
AcDbCircle
 10
3978.202964380301
 20
3635.840196356701
 30
0.0
 40
0.3
100
AcDbArc
 50
180.0
 51
255.8014401248081
  0
CIRCLE
  5
1B5CA
330
747D
100
AcDbEntity
  8
細線
 48
50.0
100
AcDbCircle
 10
3983.402964380299
 20
3656.392568482508
 30
0.0
 40
12.0
  0
ARC
  5
1B5CB
330
747D
100
AcDbEntity
  8
部品1
 48
50.0
100
AcDbCircle
 10
3983.402964380299
 20
3706.392568482508
 30
0.0
 40
8.5
100
AcDbArc
 50
114.315739171091
 51
245.684260828909
  0
CIRCLE
  5
1B5CC
330
747D
100
AcDbEntity
  8
細線
 48
50.0
100
AcDbCircle
 10
3983.402964380299
 20
3706.392568482508
 30
0.0
 40
4.5
  0
LWPOLYLINE
  5
1B5CD
330
747D
100
AcDbEntity
  8
部品1
 48
50.0
100
AcDbPolyline
 90
        2
 70
     0
 43
0.0
 10
3979.902964380299
 20
3725.067417879491
 10
3979.902964380299
 20
3714.138535174924
  0
CIRCLE
  5
1B5CE
330
747D
100
AcDbEntity
  8
部品1
 48
50.0
100
AcDbCircle
 10
3983.402964380299
 20
3706.392568482508
 30
0.0
 40
19.0
  0
LWPOLYLINE
  5
1B5CF
330
747D
100
AcDbEntity
  8
部品1
 48
50.0
100
AcDbPolyline
 90
        2
 70
     0
 43
0.0
 10
3979.902964380299
 20
3698.646601790093
 10
3979.902964380299
 20
3687.717719085526
  0
LWPOLYLINE
  5
1B5D0
330
747D
100
AcDbEntity
  8
部品1
 48
50.0
100
AcDbPolyline
 90
        2
 70
     0
 43
0.0
 10
3986.902964380299
 20
3714.138535174924
 10
3986.902964380299
 20
3725.067417879491
  0
ARC
  5
1B5D1
330
747D
100
AcDbEntity
  8
部品1
 48
50.0
100
AcDbCircle
 10
3983.402964380299
 20
3706.392568482508
 30
0.0
 40
8.5
100
AcDbArc
 50
294.315739171091
 51
65.68426082890896
  0
LWPOLYLINE
  5
1B5D2
330
747D
100
AcDbEntity
  8
部品1
 48
50.0
100
AcDbPolyline
 90
        2
 70
     0
 43
0.0
 10
3986.902964380299
 20
3687.717719085526
 10
3986.902964380299
 20
3698.646601790093
  0
ARC
  5
1B5D3
330
747D
100
AcDbEntity
  8
細線
 48
50.0
100
AcDbCircle
 10
3983.402964380299
 20
3706.392568482508
 30
0.0
 40
16.5
100
AcDbArc
 50
332.0012352654316
 51
27.99876473456844
  0
ARC
  5
1B5D4
330
747D
100
AcDbEntity
  8
細線
 48
50.0
100
AcDbCircle
 10
3983.402964380299
 20
3706.392568482508
 30
0.0
 40
14.0
100
AcDbArc
 50
326.4074436112843
 51
33.59255638871576
  0
LINE
  5
1B5D5
330
747D
100
AcDbEntity
  8
細線
 48
50.0
100
AcDbLine
 10
3968.834162095968
 20
3714.138535174924
 30
0.0
 11
3971.741060590609
 21
3714.138535174924
 31
0.0
  0
LINE
  5
1B5D6
330
747D
100
AcDbEntity
  8
細線
 48
50.0
100
AcDbLine
 10
3968.834162095968
 20
3698.646601790093
 30
0.0
 11
3971.741060590609
 21
3698.646601790093
 31
0.0
  0
LINE
  5
1B5D7
330
747D
100
AcDbEntity
  8
細線
 48
50.0
100
AcDbLine
 10
3995.064868169988
 20
3714.138535174924
 30
0.0
 11
3997.971766664634
 21
3714.138535174924
 31
0.0
  0
LINE
  5
1B5D8
330
747D
100
AcDbEntity
  8
細線
 48
50.0
100
AcDbLine
 10
3995.064868169988
 20
3698.646601790093
 30
0.0
 11
3997.971766664634
 21
3698.646601790093
 31
0.0
  0
ARC
  5
1B5D9
330
747D
100
AcDbEntity
  8
細線
 48
50.0
100
AcDbCircle
 10
3983.402964380299
 20
3706.392568482508
 30
0.0
 40
14.0
100
AcDbArc
 50
146.4074436112842
 51
213.5925563887158
  0
ARC
  5
1B5DA
330
747D
100
AcDbEntity
  8
細線
 48
50.0
100
AcDbCircle
 10
3983.402964380299
 20
3706.392568482508
 30
0.0
 40
16.5
100
AcDbArc
 50
152.0012352654315
 51
207.9987647345685
  0
ARC
  5
1B5DB
330
747D
100
AcDbEntity
  8
部品1
 48
50.0
100
AcDbCircle
 10
3956.902964380299
 20
3731.892568482508
 30
0.0
 40
5.0
100
AcDbArc
 50
90.0
 51
180.0
  0
ARC
  5
1B5DC
330
747D
100
AcDbEntity
  8
部品1
 48
50.0
100
AcDbCircle
 10
3956.902964380299
 20
3620.892568482509
 30
0.0
 40
5.0
100
AcDbArc
 50
180.0
 51
270.0
  0
ARC
  5
1B5DD
330
747D
100
AcDbEntity
  8
部品1
 48
50.0
100
AcDbCircle
 10
4009.902964380298
 20
3620.892568482509
 30
0.0
 40
5.0
100
AcDbArc
 50
270.0
 51
0.0
  0
ARC
  5
1B5DE
330
747D
100
AcDbEntity
  8
部品1
 48
50.0
100
AcDbCircle
 10
4009.902964380298
 20
3731.892568482508
 30
0.0
 40
5.0
100
AcDbArc
 50
0.0
 51
90.0
  0
LINE
  5
1B5DF
330
747D
100
AcDbEntity
  8
部品1
 48
50.0
100
AcDbLine
 10
3951.902964380299
 20
3620.892568482509
 30
0.0
 11
3951.902964380299
 21
3731.892568482508
 31
0.0
  0
LINE
  5
1B5E0
330
747D
100
AcDbEntity
  8
部品1
 48
50.0
100
AcDbLine
 10
4009.902964380298
 20
3615.892568482508
 30
0.0
 11
3956.902964380299
 21
3615.892568482508
 31
0.0
  0
LINE
  5
1B5E1
330
747D
100
AcDbEntity
  8
部品1
 48
50.0
100
AcDbLine
 10
4014.902964380299
 20
3731.892568482508
 30
0.0
 11
4014.902964380299
 21
3620.892568482509
 31
0.0
  0
LWPOLYLINE
  5
1B611
330
747D
100
AcDbEntity
  8
部品1
 48
50.0
100
AcDbPolyline
 90
        4
 70
     1
 43
0.0
 10
5511.952964380296
 20
3651.642568482508
 10
5514.852964380298
 20
3651.642568482508
 10
5514.852964380298
 20
3661.142568482508
 10
5511.952964380296
 20
3661.142568482508
  0
CIRCLE
  5
1B612
330
747D
100
AcDbEntity
  8
部品1
 48
50.0
100
AcDbCircle
 10
5513.402964380297
 20
3656.392568482508
 30
0.0
 40
9.0
  0
ARC
  5
1B613
330
747D
100
AcDbEntity
  8
細線
 48
50.0
100
AcDbCircle
 10
5513.402964380297
 20
3656.392568482508
 30
0.0
 40
4.0
100
AcDbArc
 50
111.2538091853132
 51
248.7461908146868
  0
ARC
  5
1B614
330
747D
100
AcDbEntity
  8
細線
 48
50.0
100
AcDbCircle
 10
5513.402964380297
 20
3656.392568482508
 30
0.0
 40
17.5
100
AcDbArc
 50
306.4837370612677
 51
233.5162629387323
  0
LINE
  5
1B615
330
747D
100
AcDbEntity
  8
細線
 48
50.0
100
AcDbLine
 10
5523.402964380293
 20
3632.533607901625
 30
0.0
 11
5523.402964380297
 21
3641.518093701867
 31
0.0
  0
LINE
  5
1B616
330
747D
100
AcDbEntity
  8
細線
 48
50.0
100
AcDbLine
 10
5503.402964380296
 20
3632.533607901627
 30
0.0
 11
5503.402964380296
 21
3641.518093701864
 31
0.0
  0
ARC
  5
1B617
330
747D
100
AcDbEntity
  8
細線
 48
50.0
100
AcDbCircle
 10
5513.402964380297
 20
3656.392568482508
 30
0.0
 40
26.5
100
AcDbArc
 50
249.3326835063939
 51
290.6673164933835
  0
ARC
  5
1B618
330
747D
100
AcDbEntity
  8
細線
 48
50.0
100
AcDbCircle
 10
5522.40296438029
 20
3632.533607901625
 30
0.0
 40
1.0
100
AcDbArc
 50
290.6673164936062
 51
359.9999999998958
  0
ARC
  5
1B619
330
747D
100
AcDbEntity
  8
細線
 48
50.0
100
AcDbCircle
 10
5504.402964380297
 20
3632.533607901627
 30
0.0
 40
1.0
100
AcDbArc
 50
180.0
 51
249.3326835066164
  0
ARC
  5
1B61A
330
747D
100
AcDbEntity
  8
細線
 48
50.0
100
AcDbCircle
 10
5502.402964380297
 20
3641.518093701864
 30
0.0
 40
1.0
100
AcDbArc
 50
0.0
 51
53.51626293873231
  0
ARC
  5
1B61B
330
747D
100
AcDbEntity
  8
細線
 48
50.0
100
AcDbCircle
 10
5524.4029643803
 20
3641.518093701867
 30
0.0
 40
1.0
100
AcDbArc
 50
126.4837370615127
 51
180.0
  0
ARC
  5
1B61C
330
747D
100
AcDbEntity
  8
細線
 48
50.0
100
AcDbCircle
 10
5513.402964380297
 20
3656.392568482508
 30
0.0
 40
21.5
100
AcDbArc
 50
255.8014401250294
 51
284.1985598749706
  0
ARC
  5
1B61D
330
747D
100
AcDbEntity
  8
細線
 48
50.0
100
AcDbCircle
 10
5513.402964380297
 20
3656.392568482508
 30
0.0
 40
16.5
100
AcDbArc
 50
251.9694646069326
 51
288.0305353930674
  0
LINE
  5
1B61E
330
747D
100
AcDbEntity
  8
細線
 48
50.0
100
AcDbLine
 10
5518.902964380297
 20
3635.840196356701
 30
0.0
 11
5518.902964380297
 21
3640.417588044039
 31
0.0
  0
LINE
  5
1B61F
330
747D
100
AcDbEntity
  8
細線
 48
50.0
100
AcDbLine
 10
5507.902964380297
 20
3635.840196356701
 30
0.0
 11
5507.902964380297
 21
3640.417588044036
 31
0.0
  0
ARC
  5
1B620
330
747D
100
AcDbEntity
  8
細線
 48
50.0
100
AcDbCircle
 10
5508.202964380299
 20
3640.417588044036
 30
0.0
 40
0.3
100
AcDbArc
 50
71.96946460693259
 51
180.0
  0
ARC
  5
1B621
330
747D
100
AcDbEntity
  8
細線
 48
50.0
100
AcDbCircle
 10
5518.602964380297
 20
3640.417588044039
 30
0.0
 40
0.3
100
AcDbArc
 50
0.0
 51
108.0305353930674
  0
ARC
  5
1B622
330
747D
100
AcDbEntity
  8
細線
 48
50.0
100
AcDbCircle
 10
5518.602964380294
 20
3635.840196356701
 30
0.0
 40
0.3
100
AcDbArc
 50
284.1985598747622
 51
0.0000000001042204
  0
ARC
  5
1B623
330
747D
100
AcDbEntity
  8
細線
 48
50.0
100
AcDbCircle
 10
5508.202964380299
 20
3635.840196356701
 30
0.0
 40
0.3
100
AcDbArc
 50
180.0
 51
255.8014401248081
  0
CIRCLE
  5
1B624
330
747D
100
AcDbEntity
  8
細線
 48
50.0
100
AcDbCircle
 10
5513.402964380297
 20
3656.392568482508
 30
0.0
 40
12.0
  0
ARC
  5
1B625
330
747D
100
AcDbEntity
  8
部品1
 48
50.0
100
AcDbCircle
 10
5513.402964380297
 20
3706.392568482508
 30
0.0
 40
8.5
100
AcDbArc
 50
114.315739171091
 51
245.684260828909
  0
CIRCLE
  5
1B626
330
747D
100
AcDbEntity
  8
細線
 48
50.0
100
AcDbCircle
 10
5513.402964380297
 20
3706.392568482508
 30
0.0
 40
4.5
  0
LWPOLYLINE
  5
1B627
330
747D
100
AcDbEntity
  8
部品1
 48
50.0
100
AcDbPolyline
 90
        2
 70
     0
 43
0.0
 10
5509.902964380297
 20
3725.067417879491
 10
5509.902964380297
 20
3714.138535174924
  0
CIRCLE
  5
1B628
330
747D
100
AcDbEntity
  8
部品1
 48
50.0
100
AcDbCircle
 10
5513.402964380297
 20
3706.392568482508
 30
0.0
 40
19.0
  0
LWPOLYLINE
  5
1B629
330
747D
100
AcDbEntity
  8
部品1
 48
50.0
100
AcDbPolyline
 90
        2
 70
     0
 43
0.0
 10
5509.902964380297
 20
3698.646601790093
 10
5509.902964380297
 20
3687.717719085526
  0
LWPOLYLINE
  5
1B62A
330
747D
100
AcDbEntity
  8
部品1
 48
50.0
100
AcDbPolyline
 90
        2
 70
     0
 43
0.0
 10
5516.902964380297
 20
3714.138535174924
 10
5516.902964380297
 20
3725.067417879491
  0
ARC
  5
1B62B
330
747D
100
AcDbEntity
  8
部品1
 48
50.0
100
AcDbCircle
 10
5513.402964380297
 20
3706.392568482508
 30
0.0
 40
8.5
100
AcDbArc
 50
294.315739171091
 51
65.68426082890896
  0
LWPOLYLINE
  5
1B62C
330
747D
100
AcDbEntity
  8
部品1
 48
50.0
100
AcDbPolyline
 90
        2
 70
     0
 43
0.0
 10
5516.902964380297
 20
3687.717719085526
 10
5516.902964380297
 20
3698.646601790093
  0
ARC
  5
1B62D
330
747D
100
AcDbEntity
  8
細線
 48
50.0
100
AcDbCircle
 10
5513.402964380297
 20
3706.392568482508
 30
0.0
 40
16.5
100
AcDbArc
 50
332.0012352654438
 51
27.99876473455621
  0
ARC
  5
1B62E
330
747D
100
AcDbEntity
  8
細線
 48
50.0
100
AcDbCircle
 10
5513.402964380297
 20
3706.392568482508
 30
0.0
 40
14.0
100
AcDbArc
 50
326.4074436112986
 51
33.59255638870134
  0
LINE
  5
1B62F
330
747D
100
AcDbEntity
  8
細線
 48
50.0
100
AcDbLine
 10
5498.834162095966
 20
3714.138535174924
 30
0.0
 11
5501.741060590608
 21
3714.138535174924
 31
0.0
  0
LINE
  5
1B630
330
747D
100
AcDbEntity
  8
細線
 48
50.0
100
AcDbLine
 10
5498.834162095966
 20
3698.646601790093
 30
0.0
 11
5501.741060590608
 21
3698.646601790093
 31
0.0
  0
LINE
  5
1B631
330
747D
100
AcDbEntity
  8
細線
 48
50.0
100
AcDbLine
 10
5525.064868169986
 20
3714.138535174924
 30
0.0
 11
5527.971766664632
 21
3714.138535174924
 31
0.0
  0
LINE
  5
1B632
330
747D
100
AcDbEntity
  8
細線
 48
50.0
100
AcDbLine
 10
5525.064868169986
 20
3698.646601790093
 30
0.0
 11
5527.971766664632
 21
3698.646601790093
 31
0.0
  0
ARC
  5
1B633
330
747D
100
AcDbEntity
  8
細線
 48
50.0
100
AcDbCircle
 10
5513.402964380297
 20
3706.392568482508
 30
0.0
 40
14.0
100
AcDbArc
 50
146.4074436112986
 51
213.5925563887013
  0
ARC
  5
1B634
330
747D
100
AcDbEntity
  8
細線
 48
50.0
100
AcDbCircle
 10
5513.402964380297
 20
3706.392568482508
 30
0.0
 40
16.5
100
AcDbArc
 50
152.0012352654438
 51
207.9987647345562
  0
ARC
  5
1B635
330
747D
100
AcDbEntity
  8
部品1
 48
50.0
100
AcDbCircle
 10
5486.902964380297
 20
3731.892568482508
 30
0.0
 40
5.0
100
AcDbArc
 50
90.0
 51
180.0
  0
ARC
  5
1B636
330
747D
100
AcDbEntity
  8
部品1
 48
50.0
100
AcDbCircle
 10
5486.902964380297
 20
3620.892568482509
 30
0.0
 40
5.0
100
AcDbArc
 50
180.0
 51
270.0
  0
ARC
  5
1B637
330
747D
100
AcDbEntity
  8
部品1
 48
50.0
100
AcDbCircle
 10
5539.902964380297
 20
3620.892568482509
 30
0.0
 40
5.0
100
AcDbArc
 50
270.0
 51
0.0
  0
ARC
  5
1B638
330
747D
100
AcDbEntity
  8
部品1
 48
50.0
100
AcDbCircle
 10
5539.902964380297
 20
3731.892568482508
 30
0.0
 40
5.0
100
AcDbArc
 50
0.0
 51
90.0
  0
LINE
  5
1B639
330
747D
100
AcDbEntity
  8
部品1
 48
50.0
100
AcDbLine
 10
5481.902964380297
 20
3620.892568482509
 30
0.0
 11
5481.902964380297
 21
3731.892568482508
 31
0.0
  0
LINE
  5
1B63A
330
747D
100
AcDbEntity
  8
部品1
 48
50.0
100
AcDbLine
 10
5539.902964380297
 20
3615.892568482508
 30
0.0
 11
5486.902964380297
 21
3615.892568482508
 31
0.0
  0
LINE
  5
1B63B
330
747D
100
AcDbEntity
  8
部品1
 48
50.0
100
AcDbLine
 10
5544.902964380297
 20
3731.892568482508
 30
0.0
 11
5544.902964380297
 21
3620.892568482509
 31
0.0
  0
LWPOLYLINE
  5
1B66B
330
747D
100
AcDbEntity
  8
部品1
 48
50.0
100
AcDbPolyline
 90
        4
 70
     1
 43
0.0
 10
7041.952964380296
 20
3651.642568482508
 10
7044.852964380298
 20
3651.642568482508
 10
7044.852964380298
 20
3661.142568482508
 10
7041.952964380296
 20
3661.142568482508
  0
CIRCLE
  5
1B66C
330
747D
100
AcDbEntity
  8
部品1
 48
50.0
100
AcDbCircle
 10
7043.402964380297
 20
3656.392568482508
 30
0.0
 40
9.0
  0
ARC
  5
1B66D
330
747D
100
AcDbEntity
  8
細線
 48
50.0
100
AcDbCircle
 10
7043.402964380297
 20
3656.392568482508
 30
0.0
 40
4.0
100
AcDbArc
 50
111.2538091853132
 51
248.7461908146868
  0
ARC
  5
1B66E
330
747D
100
AcDbEntity
  8
細線
 48
50.0
100
AcDbCircle
 10
7043.402964380297
 20
3656.392568482508
 30
0.0
 40
17.5
100
AcDbArc
 50
306.4837370612677
 51
233.5162629387323
  0
LINE
  5
1B66F
330
747D
100
AcDbEntity
  8
細線
 48
50.0
100
AcDbLine
 10
7053.402964380294
 20
3632.533607901625
 30
0.0
 11
7053.402964380296
 21
3641.518093701867
 31
0.0
  0
LINE
  5
1B670
330
747D
100
AcDbEntity
  8
細線
 48
50.0
100
AcDbLine
 10
7033.402964380297
 20
3632.533607901627
 30
0.0
 11
7033.402964380297
 21
3641.518093701864
 31
0.0
  0
ARC
  5
1B671
330
747D
100
AcDbEntity
  8
細線
 48
50.0
100
AcDbCircle
 10
7043.402964380297
 20
3656.392568482508
 30
0.0
 40
26.5
100
AcDbArc
 50
249.3326835063939
 51
290.6673164933835
  0
ARC
  5
1B672
330
747D
100
AcDbEntity
  8
細線
 48
50.0
100
AcDbCircle
 10
7052.402964380291
 20
3632.533607901625
 30
0.0
 40
1.0
100
AcDbArc
 50
290.6673164936062
 51
359.9999999998958
  0
ARC
  5
1B673
330
747D
100
AcDbEntity
  8
細線
 48
50.0
100
AcDbCircle
 10
7034.402964380297
 20
3632.533607901627
 30
0.0
 40
1.0
100
AcDbArc
 50
180.0
 51
249.3326835066164
  0
ARC
  5
1B674
330
747D
100
AcDbEntity
  8
細線
 48
50.0
100
AcDbCircle
 10
7032.402964380297
 20
3641.518093701864
 30
0.0
 40
1.0
100
AcDbArc
 50
0.0
 51
53.51626293873231
  0
ARC
  5
1B675
330
747D
100
AcDbEntity
  8
細線
 48
50.0
100
AcDbCircle
 10
7054.4029643803
 20
3641.518093701867
 30
0.0
 40
1.0
100
AcDbArc
 50
126.4837370615127
 51
180.0
  0
ARC
  5
1B676
330
747D
100
AcDbEntity
  8
細線
 48
50.0
100
AcDbCircle
 10
7043.402964380297
 20
3656.392568482508
 30
0.0
 40
21.5
100
AcDbArc
 50
255.8014401250294
 51
284.1985598749706
  0
ARC
  5
1B677
330
747D
100
AcDbEntity
  8
細線
 48
50.0
100
AcDbCircle
 10
7043.402964380297
 20
3656.392568482508
 30
0.0
 40
16.5
100
AcDbArc
 50
251.9694646069326
 51
288.0305353930674
  0
LINE
  5
1B678
330
747D
100
AcDbEntity
  8
細線
 48
50.0
100
AcDbLine
 10
7048.902964380296
 20
3635.840196356701
 30
0.0
 11
7048.902964380296
 21
3640.417588044039
 31
0.0
  0
LINE
  5
1B679
330
747D
100
AcDbEntity
  8
細線
 48
50.0
100
AcDbLine
 10
7037.902964380297
 20
3635.840196356701
 30
0.0
 11
7037.902964380297
 21
3640.417588044036
 31
0.0
  0
ARC
  5
1B67A
330
747D
100
AcDbEntity
  8
細線
 48
50.0
100
AcDbCircle
 10
7038.2029643803
 20
3640.417588044036
 30
0.0
 40
0.3
100
AcDbArc
 50
71.96946460693259
 51
180.0
  0
ARC
  5
1B67B
330
747D
100
AcDbEntity
  8
細線
 48
50.0
100
AcDbCircle
 10
7048.602964380298
 20
3640.417588044039
 30
0.0
 40
0.3
100
AcDbArc
 50
0.0
 51
108.0305353930674
  0
ARC
  5
1B67C
330
747D
100
AcDbEntity
  8
細線
 48
50.0
100
AcDbCircle
 10
7048.602964380293
 20
3635.840196356701
 30
0.0
 40
0.3
100
AcDbArc
 50
284.1985598747622
 51
0.0000000001042204
  0
ARC
  5
1B67D
330
747D
100
AcDbEntity
  8
細線
 48
50.0
100
AcDbCircle
 10
7038.2029643803
 20
3635.840196356701
 30
0.0
 40
0.3
100
AcDbArc
 50
180.0
 51
255.8014401248081
  0
CIRCLE
  5
1B67E
330
747D
100
AcDbEntity
  8
細線
 48
50.0
100
AcDbCircle
 10
7043.402964380297
 20
3656.392568482508
 30
0.0
 40
12.0
  0
ARC
  5
1B67F
330
747D
100
AcDbEntity
  8
部品1
 48
50.0
100
AcDbCircle
 10
7043.402964380297
 20
3706.392568482508
 30
0.0
 40
8.5
100
AcDbArc
 50
114.315739171091
 51
245.684260828909
  0
CIRCLE
  5
1B680
330
747D
100
AcDbEntity
  8
細線
 48
50.0
100
AcDbCircle
 10
7043.402964380297
 20
3706.392568482508
 30
0.0
 40
4.5
  0
LWPOLYLINE
  5
1B681
330
747D
100
AcDbEntity
  8
部品1
 48
50.0
100
AcDbPolyline
 90
        2
 70
     0
 43
0.0
 10
7039.902964380297
 20
3725.067417879491
 10
7039.902964380297
 20
3714.138535174924
  0
CIRCLE
  5
1B682
330
747D
100
AcDbEntity
  8
部品1
 48
50.0
100
AcDbCircle
 10
7043.402964380297
 20
3706.392568482508
 30
0.0
 40
19.0
  0
LWPOLYLINE
  5
1B683
330
747D
100
AcDbEntity
  8
部品1
 48
50.0
100
AcDbPolyline
 90
        2
 70
     0
 43
0.0
 10
7039.902964380297
 20
3698.646601790093
 10
7039.902964380297
 20
3687.717719085526
  0
LWPOLYLINE
  5
1B684
330
747D
100
AcDbEntity
  8
部品1
 48
50.0
100
AcDbPolyline
 90
        2
 70
     0
 43
0.0
 10
7046.902964380297
 20
3714.138535174924
 10
7046.902964380297
 20
3725.067417879491
  0
ARC
  5
1B685
330
747D
100
AcDbEntity
  8
部品1
 48
50.0
100
AcDbCircle
 10
7043.402964380297
 20
3706.392568482508
 30
0.0
 40
8.5
100
AcDbArc
 50
294.315739171091
 51
65.68426082890896
  0
LWPOLYLINE
  5
1B686
330
747D
100
AcDbEntity
  8
部品1
 48
50.0
100
AcDbPolyline
 90
        2
 70
     0
 43
0.0
 10
7046.902964380297
 20
3687.717719085526
 10
7046.902964380297
 20
3698.646601790093
  0
ARC
  5
1B687
330
747D
100
AcDbEntity
  8
細線
 48
50.0
100
AcDbCircle
 10
7043.402964380297
 20
3706.392568482508
 30
0.0
 40
16.5
100
AcDbArc
 50
332.0012352654438
 51
27.99876473455621
  0
ARC
  5
1B688
330
747D
100
AcDbEntity
  8
細線
 48
50.0
100
AcDbCircle
 10
7043.402964380297
 20
3706.392568482508
 30
0.0
 40
14.0
100
AcDbArc
 50
326.4074436112986
 51
33.59255638870134
  0
LINE
  5
1B689
330
747D
100
AcDbEntity
  8
細線
 48
50.0
100
AcDbLine
 10
7028.834162095965
 20
3714.138535174924
 30
0.0
 11
7031.741060590608
 21
3714.138535174924
 31
0.0
  0
LINE
  5
1B68A
330
747D
100
AcDbEntity
  8
細線
 48
50.0
100
AcDbLine
 10
7028.834162095965
 20
3698.646601790093
 30
0.0
 11
7031.741060590608
 21
3698.646601790093
 31
0.0
  0
LINE
  5
1B68B
330
747D
100
AcDbEntity
  8
細線
 48
50.0
100
AcDbLine
 10
7055.064868169985
 20
3714.138535174924
 30
0.0
 11
7057.971766664632
 21
3714.138535174924
 31
0.0
  0
LINE
  5
1B68C
330
747D
100
AcDbEntity
  8
細線
 48
50.0
100
AcDbLine
 10
7055.064868169985
 20
3698.646601790093
 30
0.0
 11
7057.971766664632
 21
3698.646601790093
 31
0.0
  0
ARC
  5
1B68D
330
747D
100
AcDbEntity
  8
細線
 48
50.0
100
AcDbCircle
 10
7043.402964380297
 20
3706.392568482508
 30
0.0
 40
14.0
100
AcDbArc
 50
146.4074436112986
 51
213.5925563887013
  0
ARC
  5
1B68E
330
747D
100
AcDbEntity
  8
細線
 48
50.0
100
AcDbCircle
 10
7043.402964380297
 20
3706.392568482508
 30
0.0
 40
16.5
100
AcDbArc
 50
152.0012352654438
 51
207.9987647345562
  0
ARC
  5
1B68F
330
747D
100
AcDbEntity
  8
部品1
 48
50.0
100
AcDbCircle
 10
7016.902964380297
 20
3731.892568482508
 30
0.0
 40
5.0
100
AcDbArc
 50
90.0
 51
180.0
  0
ARC
  5
1B690
330
747D
100
AcDbEntity
  8
部品1
 48
50.0
100
AcDbCircle
 10
7016.902964380297
 20
3620.892568482509
 30
0.0
 40
5.0
100
AcDbArc
 50
180.0
 51
270.0
  0
ARC
  5
1B691
330
747D
100
AcDbEntity
  8
部品1
 48
50.0
100
AcDbCircle
 10
7069.902964380297
 20
3620.892568482509
 30
0.0
 40
5.0
100
AcDbArc
 50
270.0
 51
0.0
  0
ARC
  5
1B692
330
747D
100
AcDbEntity
  8
部品1
 48
50.0
100
AcDbCircle
 10
7069.902964380297
 20
3731.892568482508
 30
0.0
 40
5.0
100
AcDbArc
 50
0.0
 51
90.0
  0
LINE
  5
1B693
330
747D
100
AcDbEntity
  8
部品1
 48
50.0
100
AcDbLine
 10
7011.902964380297
 20
3620.892568482509
 30
0.0
 11
7011.902964380297
 21
3731.892568482508
 31
0.0
  0
LINE
  5
1B694
330
747D
100
AcDbEntity
  8
部品1
 48
50.0
100
AcDbLine
 10
7069.902964380297
 20
3615.892568482508
 30
0.0
 11
7016.902964380297
 21
3615.892568482508
 31
0.0
  0
LINE
  5
1B695
330
747D
100
AcDbEntity
  8
部品1
 48
50.0
100
AcDbLine
 10
7074.902964380297
 20
3731.892568482508
 30
0.0
 11
7074.902964380297
 21
3620.892568482509
 31
0.0
  0
VIEWPORT
  5
18328
102
{ACAD_XDICTIONARY
360
1B6AE
102
}
330
747A
100
AcDbEntity
 67
     1
  8
0
 48
50.0
100
AcDbViewport
 10
251.6663995141168
 20
136.4822545236423
 30
0.0
 40
503.5132685182136
 41
276.8820468598161
 68
     1
 69
     1
 12
251.6663995141168
 22
136.4822545236423
 13
0.0
 23
0.0
 14
10.0
 24
10.0
 15
10.0
 25
10.0
 16
0.0
 26
0.0
 36
1.0
 17
0.0
 27
0.0
 37
0.0
 42
50.0
 43
0.0
 44
0.0
 45
276.8820468598161
 50
0.0
 51
0.0
 72
     0
 90
    32800
  1

281
     0
 71
     1
 74
     0
110
0.0
120
0.0
130
0.0
111
1.0
121
0.0
131
0.0
112
0.0
122
1.0
132
0.0
 79
     0
146
0.0
  0
VIEWPORT
  5
1832A
102
{ACAD_XDICTIONARY
360
1B6B0
102
}
330
747A
100
AcDbEntity
 67
     1
  8
部品1
 48
50.0
100
AcDbViewport
 10
204.099579334259
 20
142.6315760612488
 30
0.0
 40
326.5593269348144
 41
228.2105216979981
 68
     2
 69
     2
 12
-2500.897172025372
 22
3833.985719799893
 13
0.0
 23
0.0
 14
10.0
 24
10.0
 15
10.0
 25
10.0
 16
0.0
 26
0.0
 36
1.0
 17
0.0
 27
0.0
 37
0.0
 42
50.0
 43
0.0
 44
0.0
 45
26563.6734034638
 50
0.0
 51
0.0
 72
     0
 90
    32768
  1

281
     0
 71
     1
 74
     0
110
0.0
120
0.0
130
0.0
111
1.0
121
0.0
131
0.0
112
0.0
122
1.0
132
0.0
 79
     0
146
0.0
  0
ENDSEC
  0
SECTION
  2
OBJECTS
  0
DICTIONARY
  5
7471
330
0
100
AcDbDictionary
281
     1
  3
ACAD_COLOR
350
17661
  3
ACAD_GROUP
350
7472
  3
ACAD_LAYOUT
350
17662
  3
ACAD_MATERIAL
350
17660
  3
ACAD_MLINESTYLE
350
7473
  3
ACAD_PLOTSETTINGS
350
17663
  3
ACAD_PLOTSTYLENAME
350
1765E
  3
ACDBHEADERROUNDTRIPXREC
350
1B6A7
  3
AcDbVariableDictionary
350
1B6A3
  3
CONTENTDICTIONARY
350
E71C
  3
DRAWINGVARIABLESDICT
350
F3B9
  0
DICTIONARY
  5
17835
330
7467
100
AcDbDictionary
280
     1
281
     1
  3
ACAD_LAYERSTATES
360
17836
  0
DICTIONARY
  5
1B6AE
330
18328
100
AcDbDictionary
280
     1
281
     1
  3
ACAD_XREC_ROUNDTRIP
360
1B6AF
  0
DICTIONARY
  5
1B6B0
330
1832A
100
AcDbDictionary
280
     1
281
     1
  3
ACAD_XREC_ROUNDTRIP
360
1B6B1
  0
DICTIONARY
  5
17661
102
{ACAD_REACTORS
330
7471
102
}
330
7471
100
AcDbDictionary
281
     1
  0
DICTIONARY
  5
7472
102
{ACAD_REACTORS
330
7471
102
}
330
7471
100
AcDbDictionary
281
     1
  3
*A1
350
1A3C3
  3
*A2
350
1A3C4
  3
*A3
350
1A532
  0
DICTIONARY
  5
17662
102
{ACAD_REACTORS
330
7471
102
}
330
7471
100
AcDbDictionary
281
     1
  3
Model
350
17664
  3
レイアウト1
350
17665
  0
DICTIONARY
  5
17660
102
{ACAD_REACTORS
330
7471
102
}
330
7471
100
AcDbDictionary
281
     1
  0
DICTIONARY
  5
7473
102
{ACAD_REACTORS
330
7471
102
}
330
7471
100
AcDbDictionary
281
     1
  3
STANDARD
350
7480
  0
DICTIONARY
  5
17663
102
{ACAD_REACTORS
330
7471
102
}
330
7471
100
AcDbDictionary
281
     1
  0
ACDBDICTIONARYWDFLT
  5
1765E
102
{ACAD_REACTORS
330
7471
102
}
330
7471
100
AcDbDictionary
281
     1
  3
Normal
350
1765F
100
AcDbDictionaryWithDefault
340
1765F
  0
DICTIONARY
  5
1B6A7
102
{ACAD_REACTORS
330
7471
102
}
330
7471
100
AcDbDictionary
281
     1
  3
COLORDICT
350
1B6A9
  3
MATERIALDICT
350
1B6A8
  0
DICTIONARY
  5
1B6A3
102
{ACAD_REACTORS
330
7471
102
}
330
7471
100
AcDbDictionary
281
     1
  3
DIMASSOC
350
1B6A4
  3
PROJECTNAME
350
1B6A5
  0
DICTIONARY
  5
E71C
102
{ACAD_REACTORS
330
7471
102
}
330
7471
100
AcDbDictionary
281
     1
  0
DICTIONARY
  5
F3B9
102
{ACAD_REACTORS
330
7471
102
}
330
7471
100
AcDbDictionary
281
     1
1001
DRAWINGVARIABLESXDATA
1000
POLARMODE
1000
1
  0
DICTIONARY
  5
17836
102
{ACAD_REACTORS
330
17835
102
}
330
17835
100
AcDbDictionary
281
     1
  0
XRECORD
  5
1B6AF
102
{ACAD_REACTORS
330
1B6AE
102
}
330
1B6AE
100
AcDbXrecord
280
     1
102
SHADEPLOT
 70
     0
  0
XRECORD
  5
1B6B1
102
{ACAD_REACTORS
330
1B6B0
102
}
330
1B6B0
100
AcDbXrecord
280
     1
102
SHADEPLOT
 70
     0
  0
GROUP
  5
1A3C3
102
{ACAD_REACTORS
330
7472
102
}
330
7472
100
AcDbGroup
300

 70
     1
 71
     1
  0
GROUP
  5
1A3C4
102
{ACAD_REACTORS
330
7472
102
}
330
7472
100
AcDbGroup
300

 70
     1
 71
     1
  0
GROUP
  5
1A532
102
{ACAD_REACTORS
330
7472
102
}
330
7472
100
AcDbGroup
300

 70
     1
 71
     1
  0
LAYOUT
  5
17664
102
{ACAD_XDICTIONARY
360
1B6AA
102
}
102
{ACAD_REACTORS
330
17662
102
}
330
17662
100
AcDbPlotSettings
  1

  2
EPSON LP-7000C
  4

  6

 40
0.0
 41
0.0
 42
0.0
 43
0.0
 44
0.0
 45
0.0
 46
0.0
 47
0.0
 48
0.0
 49
0.0
140
0.0
141
0.0
142
1.0
143
1.0
 70
  1712
 72
     0
 73
     0
 74
     0
  7

 75
     0
147
1.0
148
0.0
149
0.0
100
AcDbLayout
  1
Model
 70
     1
 71
     0
 10
0.0
 20
0.0
 11
12.0
 21
9.0
 12
0.0
 22
0.0
 32
0.0
 14
0.0
 24
0.0
 34
0.0
 15
0.0
 25
0.0
 35
0.0
146
0.0
 13
0.0
 23
0.0
 33
0.0
 16
1.0
 26
0.0
 36
0.0
 17
0.0
 27
1.0
 37
0.0
 76
     0
330
747D
  0
LAYOUT
  5
17665
102
{ACAD_XDICTIONARY
360
1B6AC
102
}
102
{ACAD_REACTORS
330
17662
102
}
330
17662
100
AcDbPlotSettings
  1

  2
EPSON LP-7000C
  4
A3
  6

 40
5.873749732971191
 41
5.873747825622558
 42
5.873748779296875
 43
5.873748779296875
 44
297.0106506347656
 45
419.9466552734374
 46
0.0
 47
0.0
 48
0.0
 49
0.0
140
0.0
141
0.0
142
1.0
143
1.0
 70
   688
 72
     1
 73
     1
 74
     5
  7

 75
    16
147
1.0
148
0.0
149
0.0
100
AcDbLayout
  1
レイアウト1
 70
     0
 71
     1
 10
-5.873748779296875
 20
-5.873749732971191
 11
414.0729064941406
 21
291.1369009017944
 12
0.0
 22
0.0
 32
0.0
 14
40.81991586685183
 24
28.52631521224976
 34
0.0
 15
367.3792428016662
 25
256.7368369102478
 35
0.0
146
0.0
 13
0.0
 23
0.0
 33
0.0
 16
1.0
 26
0.0
 36
0.0
 17
0.0
 27
1.0
 37
0.0
 76
     0
330
747A
331
18328
  0
MLINESTYLE
  5
7480
102
{ACAD_REACTORS
330
7473
102
}
330
7473
100
AcDbMlineStyle
  2
STANDARD
 70
     0
  3

 62
     0
 51
90.0
 52
90.0
 71
     2
 49
0.5
 62
   256
  6
BYLAYER
 49
-0.5
 62
   256
  6
BYLAYER
  0
ACDBPLACEHOLDER
  5
1765F
102
{ACAD_REACTORS
330
1765E
102
}
330
1765E
  0
XRECORD
  5
1B6A9
102
{ACAD_REACTORS
330
1B6A7
102
}
330
1B6A7
100
AcDbXrecord
280
     1
340
17661
  0
XRECORD
  5
1B6A8
102
{ACAD_REACTORS
330
1B6A7
102
}
330
1B6A7
100
AcDbXrecord
280
     1
340
17660
  0
DICTIONARYVAR
  5
1B6A4
102
{ACAD_REACTORS
330
1B6A3
102
}
330
1B6A3
100
DictionaryVariables
280
     0
  1
1
  0
DICTIONARYVAR
  5
1B6A5
102
{ACAD_REACTORS
330
1B6A3
102
}
330
1B6A3
100
DictionaryVariables
280
     0
  1

  0
DICTIONARY
  5
1B6AA
330
17664
100
AcDbDictionary
280
     1
281
     1
  3
ACAD_XREC_ROUNDTRIP
360
1B6AB
  0
DICTIONARY
  5
1B6AC
330
17665
100
AcDbDictionary
280
     1
281
     1
  3
ACAD_XREC_ROUNDTRIP
360
1B6AD
  0
XRECORD
  5
1B6AB
102
{ACAD_REACTORS
330
1B6AA
102
}
330
1B6AA
100
AcDbXrecord
280
     1
102
SHADEPLOT
 70
     0
102
SHADEPLOTRESLEVEL
 70
     2
102
SHADEPLOTCUSTOMDPI
 70
   300
  0
XRECORD
  5
1B6AD
102
{ACAD_REACTORS
330
1B6AC
102
}
330
1B6AC
100
AcDbXrecord
280
     1
102
SHADEPLOT
 70
     0
102
SHADEPLOTRESLEVEL
 70
     2
102
SHADEPLOTCUSTOMDPI
 70
   300
  0
ENDSEC
  0
EOF
